  0
SECTION
  2
HEADER
  9
$ACADVER
  1
AC1014
  9
$ACADMAINTVER
 70
     9
  9
$DWGCODEPAGE
  3
ANSI_932
  9
$INSBASE
 10
0.0
 20
0.0
 30
0.0
  9
$EXTMIN
 10
-0.0256504014391794
 20
-0.0181169303855313
 30
-0.000000000000013
  9
$EXTMAX
 10
1595.297385893458
 20
1103.285299032118
 30
0.0000000000000023
  9
$LIMMIN
 10
0.0
 20
0.0
  9
$LIMMAX
 10
1682.0
 20
1188.0
  9
$ORTHOMODE
 70
     0
  9
$REGENMODE
 70
     1
  9
$FILLMODE
 70
     1
  9
$QTEXTMODE
 70
     0
  9
$MIRRTEXT
 70
     1
  9
$DRAGMODE
 70
     2
  9
$LTSCALE
 40
5.657142857142857
  9
$OSMODE
 70
    35
  9
$ATTMODE
 70
     1
  9
$TEXTSIZE
 40
19.8
  9
$TRACEWID
 40
0.05
  9
$TEXTSTYLE
  7
STANDARD
  9
$CLAYER
  8
SUNPOU
  9
$CELTYPE
  6
BYLAYER
  9
$CECOLOR
 62
   256
  9
$CELTSCALE
 40
1.0
  9
$DELOBJ
 70
     1
  9
$DISPSILH
 70
     0
  9
$DIMSCALE
 40
1.0
  9
$DIMASZ
 40
14.0
  9
$DIMEXO
 40
12.0
  9
$DIMDLI
 40
28.0
  9
$DIMRND
 40
0.0
  9
$DIMDLE
 40
0.0
  9
$DIMEXE
 40
6.0
  9
$DIMTP
 40
0.0
  9
$DIMTM
 40
0.0
  9
$DIMTXT
 40
12.0
  9
$DIMCEN
 40
150.0
  9
$DIMTSZ
 40
0.0
  9
$DIMTOL
 70
     0
  9
$DIMLIM
 70
     0
  9
$DIMTIH
 70
     0
  9
$DIMTOH
 70
     0
  9
$DIMSE1
 70
     0
  9
$DIMSE2
 70
     0
  9
$DIMTAD
 70
     3
  9
$DIMZIN
 70
     0
  9
$DIMBLK
  1

  9
$DIMASO
 70
     1
  9
$DIMSHO
 70
     1
  9
$DIMPOST
  1

  9
$DIMAPOST
  1

  9
$DIMALT
 70
     0
  9
$DIMALTD
 70
     2
  9
$DIMALTF
 40
0.03937
  9
$DIMLFAC
 40
1.0
  9
$DIMTOFL
 70
     1
  9
$DIMTVP
 40
0.0
  9
$DIMTIX
 70
     0
  9
$DIMSOXD
 70
     0
  9
$DIMSAH
 70
     1
  9
$DIMBLK1
  1
OPEN
  9
$DIMBLK2
  1
OPEN
  9
$DIMSTYLE
  2
STANDARD
  9
$DIMCLRD
 70
     4
  9
$DIMCLRE
 70
     4
  9
$DIMCLRT
 70
     4
  9
$DIMTFAC
 40
1.0
  9
$DIMGAP
 40
4.0
  9
$DIMJUST
 70
     0
  9
$DIMSD1
 70
     0
  9
$DIMSD2
 70
     0
  9
$DIMTOLJ
 70
     1
  9
$DIMTZIN
 70
     0
  9
$DIMALTZ
 70
     0
  9
$DIMALTTZ
 70
     0
  9
$DIMFIT
 70
     3
  9
$DIMUPT
 70
     0
  9
$DIMUNIT
 70
     2
  9
$DIMDEC
 70
     0
  9
$DIMTDEC
 70
     2
  9
$DIMALTU
 70
     2
  9
$DIMALTTD
 70
     2
  9
$DIMTXSTY
  7
STANDARD
  9
$DIMAUNIT
 70
     0
  9
$LUNITS
 70
     2
  9
$LUPREC
 70
     4
  9
$SKETCHINC
 40
0.1
  9
$FILLETRAD
 40
2.0
  9
$AUNITS
 70
     0
  9
$AUPREC
 70
     0
  9
$MENU
  1
acad
  9
$ELEVATION
 40
0.0
  9
$PELEVATION
 40
0.0
  9
$THICKNESS
 40
0.0
  9
$LIMCHECK
 70
     0
  9
$BLIPMODE
 70
     0
  9
$CHAMFERA
 40
56.57142857142858
  9
$CHAMFERB
 40
56.57142857142858
  9
$CHAMFERC
 40
113.1428571428571
  9
$CHAMFERD
 40
0.0
  9
$SKPOLY
 70
     0
  9
$TDCREATE
 40
2451212.552720949
  9
$TDUPDATE
 40
2453481.682082419
  9
$TDINDWG
 40
0.1041874190
  9
$TDUSRTIMER
 40
0.1041874190
  9
$USRTIMER
 70
     1
  9
$ANGBASE
 50
0.0
  9
$ANGDIR
 70
     0
  9
$PDMODE
 70
     0
  9
$PDSIZE
 40
0.0
  9
$PLINEWID
 40
0.0
  9
$COORDS
 70
     1
  9
$SPLFRAME
 70
     0
  9
$SPLINETYPE
 70
     6
  9
$SPLINESEGS
 70
     8
  9
$ATTDIA
 70
     0
  9
$ATTREQ
 70
     1
  9
$HANDLING
 70
 10241
  9
$HANDSEED
  5
1B61
  9
$SURFTAB1
 70
     6
  9
$SURFTAB2
 70
     6
  9
$SURFTYPE
 70
     6
  9
$SURFU
 70
     6
  9
$SURFV
 70
     6
  9
$UCSNAME
  2

  9
$UCSORG
 10
0.0
 20
0.0
 30
0.0
  9
$UCSXDIR
 10
1.0
 20
0.0
 30
0.0
  9
$UCSYDIR
 10
0.0
 20
1.0
 30
0.0
  9
$PUCSNAME
  2

  9
$PUCSORG
 10
0.0
 20
0.0
 30
0.0
  9
$PUCSXDIR
 10
1.0
 20
0.0
 30
0.0
  9
$PUCSYDIR
 10
0.0
 20
1.0
 30
0.0
  9
$USERI1
 70
     0
  9
$USERI2
 70
     0
  9
$USERI3
 70
     0
  9
$USERI4
 70
     0
  9
$USERI5
 70
     0
  9
$USERR1
 40
0.0
  9
$USERR2
 40
0.0
  9
$USERR3
 40
0.0
  9
$USERR4
 40
0.0
  9
$USERR5
 40
0.0
  9
$WORLDVIEW
 70
     1
  9
$SHADEDGE
 70
     3
  9
$SHADEDIF
 70
    70
  9
$TILEMODE
 70
     1
  9
$MAXACTVP
 70
    16
  9
$PINSBASE
 10
0.0
 20
0.0
 30
0.0
  9
$PLIMCHECK
 70
     0
  9
$PEXTMIN
 10
0.0
 20
0.0
 30
0.0
  9
$PEXTMAX
 10
420.0
 20
297.0
 30
0.0
  9
$PLIMMIN
 10
0.0
 20
0.0
  9
$PLIMMAX
 10
420.0
 20
297.0
  9
$UNITMODE
 70
     0
  9
$VISRETAIN
 70
     0
  9
$PLINEGEN
 70
     0
  9
$PSLTSCALE
 70
     1
  9
$TREEDEPTH
 70
  3020
  9
$PICKSTYLE
 70
     1
  9
$CMLSTYLE
  2
STANDARD
  9
$CMLJUST
 70
     0
  9
$CMLSCALE
 40
20.0
  9
$PROXYGRAPHICS
 70
     1
  9
$MEASUREMENT
 70
     1
  0
ENDSEC
  0
SECTION
  2
CLASSES
  0
CLASS
  1
ACDBDICTIONARYWDFLT
  2
AcDbDictionaryWithDefault
  3
AutoCAD 2000
 90
        0
280
     0
281
     0
  0
CLASS
  1
ACDBPLACEHOLDER
  2
AcDbPlaceHolder
  3
AutoCAD 2000
 90
        0
280
     0
281
     0
  0
CLASS
  1
LAYOUT
  2
AcDbLayout
  3
AutoCAD 2000
 90
        0
280
     0
281
     0
  0
CLASS
  1
LONG_TRANSACTION
  2
AcDbLongTransaction
  3
AutoCAD 2000
 90
        0
280
     0
281
     0
  0
CLASS
  1
LWPOLYLINE
  2
AcDbPolyline
  3
AutoCAD 2000
 90
        0
280
     0
281
     1
  0
CLASS
  1
HATCH
  2
AcDbHatch
  3
AutoCAD 2000
 90
        0
280
     0
281
     1
  0
CLASS
  1
XRECORD
  2
AcDbXrecord
  3
AutoCAD 2000
 90
        0
280
     0
281
     0
  0
CLASS
  1
LONG_TRANSACTION
  2
AcDbLongTransaction
  3
AutoCAD 2000
 90
        0
280
     0
281
     0
  0
CLASS
  1
LWPOLYLINE
  2
AcDbPolyline
  3
AutoCAD 2000
 90
        0
280
     0
281
     1
  0
CLASS
  1
HATCH
  2
AcDbHatch
  3
AutoCAD 2000
 90
        0
280
     0
281
     1
  0
CLASS
  1
XRECORD
  2
AcDbXrecord
  3
AutoCAD 2000
 90
        0
280
     0
281
     0
  0
CLASS
  1
LONG_TRANSACTION
  2
AcDbLongTransaction
  3
AutoCAD 2000
 90
        0
280
     0
281
     0
  0
CLASS
  1
LWPOLYLINE
  2
AcDbPolyline
  3
AutoCAD 2000
 90
        0
280
     0
281
     1
  0
CLASS
  1
HATCH
  2
AcDbHatch
  3
AutoCAD 2000
 90
        0
280
     0
281
     1
  0
CLASS
  1
XRECORD
  2
AcDbXrecord
  3
AutoCAD 2000
 90
        0
280
     0
281
     0
  0
CLASS
  1
LONG_TRANSACTION
  2
AcDbLongTransaction
  3
AutoCAD 2000
 90
        0
280
     0
281
     0
  0
CLASS
  1
LWPOLYLINE
  2
AcDbPolyline
  3
AutoCAD 2000
 90
        0
280
     0
281
     1
  0
CLASS
  1
HATCH
  2
AcDbHatch
  3
AutoCAD 2000
 90
        0
280
     0
281
     1
  0
CLASS
  1
XRECORD
  2
AcDbXrecord
  3
AutoCAD 2000
 90
        0
280
     0
281
     0
  0
ENDSEC
  0
SECTION
  2
TABLES
  0
TABLE
  2
VPORT
  5
8
330
0
100
AcDbSymbolTable
 70
     2
  0
VPORT
  5
1B3D
330
8
100
AcDbSymbolTableRecord
100
AcDbViewportTableRecord
  2
*ACTIVE
 70
     0
 10
0.0
 20
0.0
 11
1.0
 21
1.0
 12
832.0671564374242
 22
551.7765606357341
 13
0.0
 23
0.0
 14
10.0
 24
10.0
 15
10.0
 25
10.0
 16
0.0
 26
0.0
 36
1.0
 17
0.0
 27
0.0
 37
0.0
 40
1201.224598867628
 41
1.752310536044362
 42
50.0
 43
0.0
 44
0.0
 50
0.0
 51
0.0
 71
     0
 72
   100
 73
     1
 74
     0
 75
     0
 76
     0
 77
     0
 78
     0
  0
ENDTAB
  0
TABLE
  2
LTYPE
  5
5
330
0
100
AcDbSymbolTable
 70
     2
  0
LTYPE
  5
13
330
5
100
AcDbSymbolTableRecord
100
AcDbLinetypeTableRecord
  2
BYBLOCK
 70
     0
  3

 72
    65
 73
     0
 40
0.0
  0
LTYPE
  5
14
330
5
100
AcDbSymbolTableRecord
100
AcDbLinetypeTableRecord
  2
BYLAYER
 70
     0
  3

 72
    65
 73
     0
 40
0.0
  0
LTYPE
  5
15
330
5
100
AcDbSymbolTableRecord
100
AcDbLinetypeTableRecord
  2
CONTINUOUS
 70
     0
  3
Solid line
 72
    65
 73
     0
 40
0.0
  0
LTYPE
  5
11C
330
5
100
AcDbSymbolTableRecord
100
AcDbLinetypeTableRecord
  2
CENTER
 70
     0
  3
____ _ ____ _ ____ _ ____ _ ____ _ ____ _ ____ 
 72
    65
 73
     4
 40
2.0
 49
1.25
 74
     0
 49
-0.25
 74
     0
 49
0.25
 74
     0
 49
-0.25
 74
     0
  0
ENDTAB
  0
TABLE
  2
LAYER
  5
2
330
0
100
AcDbSymbolTable
 70
     8
  0
LAYER
  5
F
330
2
100
AcDbSymbolTableRecord
100
AcDbLayerTableRecord
  2
0
 70
     0
 62
     7
  6
CONTINUOUS
  0
LAYER
  5
23
330
2
100
AcDbSymbolTableRecord
100
AcDbLayerTableRecord
  2
VIEWPORT
 70
     0
 62
     7
  6
CONTINUOUS
  0
LAYER
  5
2D
330
2
100
AcDbSymbolTableRecord
100
AcDbLayerTableRecord
  2
ZUWAKU
 70
     0
 62
     7
  6
CONTINUOUS
  0
LAYER
  5
A6
330
2
100
AcDbSymbolTableRecord
100
AcDbLayerTableRecord
  2
DEFPOINTS
 70
     0
 62
     7
  6
CONTINUOUS
  0
LAYER
  5
95B
330
2
100
AcDbSymbolTableRecord
100
AcDbLayerTableRecord
  2
SEIHIN
 70
     0
 62
     3
  6
CONTINUOUS
  0
LAYER
  5
F77
330
2
100
AcDbSymbolTableRecord
100
AcDbLayerTableRecord
  2
SUNPOU
 70
     0
 62
     4
  6
CONTINUOUS
  0
LAYER
  5
F78
330
2
100
AcDbSymbolTableRecord
100
AcDbLayerTableRecord
  2
CENTER_L
 70
     0
 62
     1
  6
CENTER
  0
LAYER
  5
1964
330
2
100
AcDbSymbolTableRecord
100
AcDbLayerTableRecord
  2
MOJI
 70
     0
 62
     2
  6
CONTINUOUS
  0
ENDTAB
  0
TABLE
  2
STYLE
  5
3
330
0
100
AcDbSymbolTable
 70
     2
  0
STYLE
  5
10
330
3
100
AcDbSymbolTableRecord
100
AcDbTextStyleTableRecord
  2
STANDARD
 70
     0
 40
0.0
 41
1.0
 50
0.0
 71
     0
 42
19.8
  3
txt
  4
c:\PROGRAM FILES\AUTOCAD LT\ms\bigfont.shx
  0
STYLE
  5
1965
330
3
100
AcDbSymbolTableRecord
100
AcDbTextStyleTableRecord
  2
ｽﾀｲﾙ1
 70
     0
 40
0.0
 41
1.0
 50
0.0
 71
     0
 42
2.5
  3
MS PGothic.ttf
  4

1001
ACAD
1000
MS PGothic
1071
    32818
  0
ENDTAB
  0
TABLE
  2
VIEW
  5
6
330
0
100
AcDbSymbolTable
 70
     0
  0
ENDTAB
  0
TABLE
  2
UCS
  5
7
330
0
100
AcDbSymbolTable
 70
     0
  0
ENDTAB
  0
TABLE
  2
APPID
  5
9
330
0
100
AcDbSymbolTable
 70
     1
  0
APPID
  5
11
330
9
100
AcDbSymbolTableRecord
100
AcDbRegAppTableRecord
  2
ACAD
 70
     0
  0
ENDTAB
  0
TABLE
  2
DIMSTYLE
  5
A
330
0
100
AcDbSymbolTable
 70
     1
  0
DIMSTYLE
105
1D
102
{ACAD_REACTORS
330
1595
330
15AD
330
15BA
330
15D4
330
15E7
330
15F4
330
1605
330
1612
330
161F
330
162C
102
}
330
A
100
AcDbSymbolTableRecord
100
AcDbDimStyleTableRecord
  2
STANDARD
 70
     0
  3

  4

  5

  6

  7

 40
1.0
 41
0.18
 42
0.0625
 43
0.38
 44
0.18
 45
0.0
 46
0.0
 47
0.0
 48
0.0
140
0.18
141
0.09
142
0.0
143
25.4
144
1.0
145
0.0
146
1.0
147
0.09
 71
     0
 72
     0
 73
     1
 74
     1
 75
     0
 76
     0
 77
     0
 78
     0
170
     0
171
     2
172
     0
173
     0
174
     0
175
     0
176
     0
177
     0
178
     0
270
     2
271
     4
272
     4
273
     2
274
     2
340
10
275
     0
280
     0
281
     0
282
     0
283
     1
284
     0
285
     0
286
     0
287
     3
288
     0
  0
ENDTAB
  0
TABLE
  2
BLOCK_RECORD
  5
1
330
0
100
AcDbSymbolTable
 70
    11
  0
BLOCK_RECORD
  5
19
102
{ACAD_XDICTIONARY
360
1873
102
}
330
1
100
AcDbSymbolTableRecord
100
AcDbBlockTableRecord
  2
*MODEL_SPACE
  0
BLOCK_RECORD
  5
16
102
{ACAD_XDICTIONARY
360
1871
102
}
330
1
100
AcDbSymbolTableRecord
100
AcDbBlockTableRecord
  2
*PAPER_SPACE
  0
BLOCK_RECORD
  5
27
330
1
100
AcDbSymbolTableRecord
100
AcDbBlockTableRecord
  2
_OPEN
  0
BLOCK_RECORD
  5
1589
330
1
100
AcDbSymbolTableRecord
100
AcDbBlockTableRecord
  2
*D1
  0
BLOCK_RECORD
  5
15A1
330
1
100
AcDbSymbolTableRecord
100
AcDbBlockTableRecord
  2
*D2
  0
BLOCK_RECORD
  5
15AE
330
1
100
AcDbSymbolTableRecord
100
AcDbBlockTableRecord
  2
*D3
  0
BLOCK_RECORD
  5
15C8
330
1
100
AcDbSymbolTableRecord
100
AcDbBlockTableRecord
  2
*D4
  0
BLOCK_RECORD
  5
15D9
330
1
100
AcDbSymbolTableRecord
100
AcDbBlockTableRecord
  2
*D5
  0
BLOCK_RECORD
  5
15E8
330
1
100
AcDbSymbolTableRecord
100
AcDbBlockTableRecord
  2
*D6
  0
BLOCK_RECORD
  5
15F7
330
1
100
AcDbSymbolTableRecord
100
AcDbBlockTableRecord
  2
*D7
  0
BLOCK_RECORD
  5
1606
330
1
100
AcDbSymbolTableRecord
100
AcDbBlockTableRecord
  2
*D8
  0
BLOCK_RECORD
  5
1613
330
1
100
AcDbSymbolTableRecord
100
AcDbBlockTableRecord
  2
*D9
  0
BLOCK_RECORD
  5
1620
330
1
100
AcDbSymbolTableRecord
100
AcDbBlockTableRecord
  2
*D10
  0
ENDTAB
  0
ENDSEC
  0
SECTION
  2
BLOCKS
  0
BLOCK
  5
1A
330
19
100
AcDbEntity
  8
0
100
AcDbBlockBegin
  2
*MODEL_SPACE
 70
     0
 10
0.0
 20
0.0
 30
0.0
  3
*MODEL_SPACE
  1

  0
ENDBLK
  5
1B
330
19
100
AcDbEntity
  8
0
100
AcDbBlockEnd
  0
BLOCK
  5
17
330
16
100
AcDbEntity
 67
     1
  8
0
100
AcDbBlockBegin
  2
*PAPER_SPACE
 70
     0
 10
0.0
 20
0.0
 30
0.0
  3
*PAPER_SPACE
  1

  0
ENDBLK
  5
18
330
16
100
AcDbEntity
 67
     1
  8
0
100
AcDbBlockEnd
  0
BLOCK
  5
28
330
27
100
AcDbEntity
  8
0
100
AcDbBlockBegin
  2
_OPEN
 70
     0
 10
0.0
 20
0.0
 30
0.0
  3
_OPEN
  1

  0
LINE
  5
29
330
27
100
AcDbEntity
  8
0
  6
BYBLOCK
 62
     0
100
AcDbLine
 10
-1.0
 20
0.1666666666666666
 30
0.0
 11
0.0
 21
0.0
 31
0.0
  0
LINE
  5
2A
330
27
100
AcDbEntity
  8
0
  6
BYBLOCK
 62
     0
100
AcDbLine
 10
0.0
 20
0.0
 30
0.0
 11
-1.0
 21
-0.1666666666666666
 31
0.0
  0
LINE
  5
2B
330
27
100
AcDbEntity
  8
0
  6
BYBLOCK
 62
     0
100
AcDbLine
 10
0.0
 20
0.0
 30
0.0
 11
-1.0
 21
0.0
 31
0.0
  0
ENDBLK
  5
2C
330
27
100
AcDbEntity
  8
0
100
AcDbBlockEnd
  0
BLOCK
  5
1596
330
1589
100
AcDbEntity
  8
0
100
AcDbBlockBegin
  2
*D1
 70
     1
 10
0.0
 20
0.0
 30
0.0
  3
*D1
  1

  0
LINE
  5
1A32
330
1589
100
AcDbEntity
  8
SUNPOU
100
AcDbLine
 10
1024.403676347669
 20
363.1633030431474
 30
0.0
 11
1069.50305415041
 21
363.1633030431474
 31
0.0
  0
LINE
  5
1A33
330
1589
100
AcDbEntity
  8
SUNPOU
100
AcDbLine
 10
959.0264633476699
 20
287.2633031368992
 30
0.0
 11
1069.50305415041
 21
287.2633031368992
 31
0.0
  0
LINE
  5
1A34
330
1589
100
AcDbEntity
  8
SUNPOU
100
AcDbLine
 10
1063.50305415041
 20
349.1633030431474
 30
0.0
 11
1063.50305415041
 21
301.2633031368992
 31
0.0
  0
INSERT
  5
1A35
330
1589
100
AcDbEntity
  8
SUNPOU
100
AcDbBlockReference
  2
_OPEN
 10
1063.50305415041
 20
363.1633030431474
 30
0.0
 41
14.0
 42
14.0
 43
14.0
 50
90.0
  0
INSERT
  5
1A36
330
1589
100
AcDbEntity
  8
SUNPOU
100
AcDbBlockReference
  2
_OPEN
 10
1063.50305415041
 20
287.2633031368992
 30
0.0
 41
14.0
 42
14.0
 43
14.0
 50
270.0
  0
MTEXT
  5
1A37
330
1589
100
AcDbEntity
  8
SUNPOU
100
AcDbMText
 10
1053.50305415041
 20
325.2133030900235
 30
0.0
 40
12.0
 41
0.0
 71
     5
 72
     1
  1
\A1;76
 11
0.0000000000000001
 21
1.0
 31
0.0
1001
ACAD
1000
MTEXTBEGIN
1070
    73
1070
     1
1070
    44
1040
1.0
1070
    74
1070
     0
1000
MTEXTEND
  0
POINT
  5
1A38
330
1589
100
AcDbEntity
  8
DEFPOINTS
 62
     0
100
AcDbPoint
 10
1012.40367634767
 20
363.1633030431474
 30
0.0
  0
POINT
  5
1A39
330
1589
100
AcDbEntity
  8
DEFPOINTS
 62
     0
100
AcDbPoint
 10
947.02646334767
 20
287.2633031368992
 30
0.0
  0
POINT
  5
1A3A
330
1589
100
AcDbEntity
  8
DEFPOINTS
 62
     0
100
AcDbPoint
 10
1063.50305415041
 20
287.2633031368992
 30
0.0
  0
ENDBLK
  5
15A0
330
1589
100
AcDbEntity
  8
0
100
AcDbBlockEnd
  0
BLOCK
  5
15A2
330
15A1
100
AcDbEntity
  8
0
100
AcDbBlockBegin
  2
*D2
 70
     1
 10
0.0
 20
0.0
 30
0.0
  3
*D2
  1

  0
LINE
  5
1A44
330
15A1
100
AcDbEntity
  8
SUNPOU
100
AcDbLine
 10
1081.616532347669
 20
369.9633031368993
 30
0.0
 11
1110.937856991849
 21
369.9633031368993
 31
0.0
  0
LINE
  5
1A45
330
15A1
100
AcDbEntity
  8
SUNPOU
100
AcDbLine
 10
1081.50305415041
 20
287.2633031368992
 30
0.0
 11
1110.937856991849
 21
287.2633031368992
 31
0.0
  0
LINE
  5
1A46
330
15A1
100
AcDbEntity
  8
SUNPOU
100
AcDbLine
 10
1104.937856991849
 20
355.9633031368993
 30
0.0
 11
1104.937856991849
 21
301.2633031368992
 31
0.0
  0
INSERT
  5
1A47
330
15A1
100
AcDbEntity
  8
SUNPOU
100
AcDbBlockReference
  2
_OPEN
 10
1104.937856991849
 20
369.9633031368993
 30
0.0
 41
14.0
 42
14.0
 43
14.0
 50
90.0
  0
INSERT
  5
1A48
330
15A1
100
AcDbEntity
  8
SUNPOU
100
AcDbBlockReference
  2
_OPEN
 10
1104.937856991849
 20
287.2633031368992
 30
0.0
 41
14.0
 42
14.0
 43
14.0
 50
270.0
  0
MTEXT
  5
1A49
330
15A1
100
AcDbEntity
  8
SUNPOU
100
AcDbMText
 10
1094.937856991849
 20
328.6133031368994
 30
0.0
 40
12.0
 41
0.0
 71
     5
 72
     1
  1
\A1;83
 11
0.0000000000000001
 21
1.0
 31
0.0
1001
ACAD
1000
MTEXTBEGIN
1070
    73
1070
     1
1070
    44
1040
1.0
1070
    74
1070
     0
1000
MTEXTEND
  0
POINT
  5
1A4A
330
15A1
100
AcDbEntity
  8
DEFPOINTS
 62
     0
100
AcDbPoint
 10
1069.616532347669
 20
369.9633031368993
 30
0.0
  0
POINT
  5
1A4B
330
15A1
100
AcDbEntity
  8
DEFPOINTS
 62
     0
100
AcDbPoint
 10
1069.50305415041
 20
287.2633031368992
 30
0.0
  0
POINT
  5
1A4C
330
15A1
100
AcDbEntity
  8
DEFPOINTS
 62
     0
100
AcDbPoint
 10
1104.937856991849
 20
287.2633031368992
 30
0.0
  0
ENDBLK
  5
15AC
330
15A1
100
AcDbEntity
  8
0
100
AcDbBlockEnd
  0
BLOCK
  5
15AF
330
15AE
100
AcDbEntity
  8
0
100
AcDbBlockBegin
  2
*D3
 70
     1
 10
0.0
 20
0.0
 30
0.0
  3
*D3
  1

  0
LINE
  5
1A20
330
15AE
100
AcDbEntity
  8
SUNPOU
100
AcDbLine
 10
873.0665253476697
 20
403.8620693368992
 30
0.0
 11
782.2075735747212
 21
403.8620693368992
 31
0.0
  0
LINE
  5
1A21
330
15AE
100
AcDbEntity
  8
SUNPOU
100
AcDbLine
 10
935.0264633476699
 20
287.2633031368992
 30
0.0
 11
782.2075735747212
 21
287.2633031368993
 31
0.0
  0
LINE
  5
1A22
330
15AE
100
AcDbEntity
  8
SUNPOU
100
AcDbLine
 10
788.2075735747211
 20
389.8620693368992
 30
0.0
 11
788.2075735747211
 21
301.2633031368993
 31
0.0
  0
INSERT
  5
1A23
330
15AE
100
AcDbEntity
  8
SUNPOU
100
AcDbBlockReference
  2
_OPEN
 10
788.2075735747211
 20
403.8620693368992
 30
0.0
 41
14.0
 42
14.0
 43
14.0
 50
90.0
  0
INSERT
  5
1A24
330
15AE
100
AcDbEntity
  8
SUNPOU
100
AcDbBlockReference
  2
_OPEN
 10
788.2075735747211
 20
287.2633031368993
 30
0.0
 41
14.0
 42
14.0
 43
14.0
 50
270.0
  0
MTEXT
  5
1A25
330
15AE
100
AcDbEntity
  8
SUNPOU
100
AcDbMText
 10
778.2075735747211
 20
345.5626862368994
 30
0.0
 40
12.0
 41
0.0
 71
     5
 72
     1
  1
\A1;117
 11
0.0000000000000001
 21
1.0
 31
0.0
1001
ACAD
1000
MTEXTBEGIN
1070
    73
1070
     1
1070
    44
1040
1.0
1070
    74
1070
     0
1000
MTEXTEND
  0
POINT
  5
1A26
330
15AE
100
AcDbEntity
  8
DEFPOINTS
 62
     0
100
AcDbPoint
 10
885.0665253476698
 20
403.8620693368992
 30
0.0
  0
POINT
  5
1A27
330
15AE
100
AcDbEntity
  8
DEFPOINTS
 62
     0
100
AcDbPoint
 10
947.02646334767
 20
287.2633031368992
 30
0.0
  0
POINT
  5
1A28
330
15AE
100
AcDbEntity
  8
DEFPOINTS
 62
     0
100
AcDbPoint
 10
788.2075735747211
 20
287.2633031368993
 30
0.0
  0
ENDBLK
  5
15B9
330
15AE
100
AcDbEntity
  8
0
100
AcDbBlockEnd
  0
BLOCK
  5
15C9
330
15C8
100
AcDbEntity
  8
0
100
AcDbBlockBegin
  2
*D4
 70
     1
 10
0.0
 20
0.0
 30
0.0
  3
*D4
  1

  0
LINE
  5
1A29
330
15C8
100
AcDbEntity
  8
SUNPOU
100
AcDbLine
 10
867.3995603476699
 20
324.2804182368992
 30
0.0
 11
867.3995603476699
 21
495.8583095499439
 31
0.0
  0
LINE
  5
1A2A
330
15C8
100
AcDbEntity
  8
SUNPOU
100
AcDbLine
 10
1169.04646334767
 20
415.8620693368992
 30
0.0
 11
1169.04646334767
 21
495.8583095499439
 31
0.0
  0
LINE
  5
1A2B
330
15C8
100
AcDbEntity
  8
SUNPOU
100
AcDbLine
 10
881.3995603476698
 20
489.8583095499438
 30
0.0
 11
1155.04646334767
 21
489.8583095499438
 31
0.0
  0
INSERT
  5
1A2C
330
15C8
100
AcDbEntity
  8
SUNPOU
100
AcDbBlockReference
  2
_OPEN
 10
867.3995603476699
 20
489.8583095499438
 30
0.0
 41
14.0
 42
14.0
 43
14.0
 50
180.0
  0
INSERT
  5
1A2D
330
15C8
100
AcDbEntity
  8
SUNPOU
100
AcDbBlockReference
  2
_OPEN
 10
1169.04646334767
 20
489.8583095499438
 30
0.0
 41
14.0
 42
14.0
 43
14.0
  0
MTEXT
  5
1A2E
330
15C8
100
AcDbEntity
  8
SUNPOU
100
AcDbMText
 10
1018.22301184767
 20
499.8583095499439
 30
0.0
 40
12.0
 41
0.0
 71
     5
 72
     1
  1
\A1;302
1001
ACAD
1000
MTEXTBEGIN
1070
    73
1070
     1
1070
    44
1040
1.0
1070
    74
1070
     0
1000
MTEXTEND
  0
POINT
  5
1A2F
330
15C8
100
AcDbEntity
  8
DEFPOINTS
 62
     0
100
AcDbPoint
 10
867.3995603476699
 20
312.2804182368992
 30
0.0
  0
POINT
  5
1A30
330
15C8
100
AcDbEntity
  8
DEFPOINTS
 62
     0
100
AcDbPoint
 10
1169.04646334767
 20
403.8620693368992
 30
0.0
  0
POINT
  5
1A31
330
15C8
100
AcDbEntity
  8
DEFPOINTS
 62
     0
100
AcDbPoint
 10
1169.04646334767
 20
489.8583095499438
 30
0.0
  0
ENDBLK
  5
15D3
330
15C8
100
AcDbEntity
  8
0
100
AcDbBlockEnd
  0
BLOCK
  5
1647
330
15D9
100
AcDbEntity
  8
0
100
AcDbBlockBegin
  2
*D5
 70
     1
 10
0.0
 20
0.0
 30
0.0
  3
*D5
  1

  0
LINE
  5
1A6A
330
15D9
100
AcDbEntity
  8
SUNPOU
100
AcDbLine
 10
1025.863532347669
 20
628.0098310418919
 30
0.0
 11
1093.276715689601
 21
628.0098310418919
 31
0.0
  0
LINE
  5
1A6B
330
15D9
100
AcDbEntity
  8
SUNPOU
100
AcDbLine
 10
1029.52646334767
 20
584.009831041892
 30
0.0
 11
1093.276715689601
 21
584.009831041892
 31
0.0
  0
LINE
  5
1A6C
330
15D9
100
AcDbEntity
  8
SUNPOU
100
AcDbLine
 10
1087.276715689601
 20
614.0098310418919
 30
0.0
 11
1087.276715689601
 21
598.0098310418919
 31
0.0
  0
INSERT
  5
1A6D
330
15D9
100
AcDbEntity
  8
SUNPOU
100
AcDbBlockReference
  2
_OPEN
 10
1087.276715689601
 20
628.0098310418919
 30
0.0
 41
14.0
 42
14.0
 43
14.0
 50
90.0
  0
INSERT
  5
1A6E
330
15D9
100
AcDbEntity
  8
SUNPOU
100
AcDbBlockReference
  2
_OPEN
 10
1087.276715689601
 20
584.009831041892
 30
0.0
 41
14.0
 42
14.0
 43
14.0
 50
270.0
  0
MTEXT
  5
1A6F
330
15D9
100
AcDbEntity
  8
SUNPOU
100
AcDbMText
 10
1077.276715689601
 20
606.009831041892
 30
0.0
 40
12.0
 41
0.0
 71
     5
 72
     1
  1
\A1;※44
 11
0.0000000000000001
 21
1.0
 31
0.0
1001
ACAD
1000
MTEXTBEGIN
1070
    73
1070
     1
1070
    44
1040
1.0
1070
    74
1070
     0
1000
MTEXTEND
  0
POINT
  5
1A70
330
15D9
100
AcDbEntity
  8
DEFPOINTS
 62
     0
100
AcDbPoint
 10
1013.863532347669
 20
628.0098310418919
 30
0.0
  0
POINT
  5
1A71
330
15D9
100
AcDbEntity
  8
DEFPOINTS
 62
     0
100
AcDbPoint
 10
1017.526463347669
 20
584.009831041892
 30
0.0
  0
POINT
  5
1A72
330
15D9
100
AcDbEntity
  8
DEFPOINTS
 62
     0
100
AcDbPoint
 10
1087.276715689601
 20
584.009831041892
 30
0.0
  0
ENDBLK
  5
1653
330
15D9
100
AcDbEntity
  8
0
100
AcDbBlockEnd
  0
BLOCK
  5
15E9
330
15E8
100
AcDbEntity
  8
0
100
AcDbBlockBegin
  2
*D6
 70
     1
 10
0.0
 20
0.0
 30
0.0
  3
*D6
  1

  0
LINE
  5
1A61
330
15E8
100
AcDbEntity
  8
SUNPOU
100
AcDbLine
 10
1029.52646334767
 20
584.009831041892
 30
0.0
 11
1130.348561346175
 21
584.009831041892
 31
0.0
  0
LINE
  5
1A62
330
15E8
100
AcDbEntity
  8
SUNPOU
100
AcDbLine
 10
1031.02646334767
 20
643.009831665437
 30
0.0
 11
1130.348561346175
 21
643.009831665437
 31
0.0
  0
LINE
  5
1A63
330
15E8
100
AcDbEntity
  8
SUNPOU
100
AcDbLine
 10
1124.348561346175
 20
598.0098310418919
 30
0.0
 11
1124.348561346175
 21
629.0098316654369
 31
0.0
  0
INSERT
  5
1A64
330
15E8
100
AcDbEntity
  8
SUNPOU
100
AcDbBlockReference
  2
_OPEN
 10
1124.348561346175
 20
584.009831041892
 30
0.0
 41
14.0
 42
14.0
 43
14.0
 50
270.0
  0
INSERT
  5
1A65
330
15E8
100
AcDbEntity
  8
SUNPOU
100
AcDbBlockReference
  2
_OPEN
 10
1124.348561346175
 20
643.009831665437
 30
0.0
 41
14.0
 42
14.0
 43
14.0
 50
90.0
  0
MTEXT
  5
1A66
330
15E8
100
AcDbEntity
  8
SUNPOU
100
AcDbMText
 10
1114.348561346175
 20
613.5098313536645
 30
0.0
 40
12.0
 41
0.0
 71
     5
 72
     1
  1
\A1;59
 11
0.0000000000000001
 21
1.0
 31
0.0
1001
ACAD
1000
MTEXTBEGIN
1070
    73
1070
     1
1070
    44
1040
1.0
1070
    74
1070
     0
1000
MTEXTEND
  0
POINT
  5
1A67
330
15E8
100
AcDbEntity
  8
DEFPOINTS
 62
     0
100
AcDbPoint
 10
1017.526463347669
 20
584.009831041892
 30
0.0
  0
POINT
  5
1A68
330
15E8
100
AcDbEntity
  8
DEFPOINTS
 62
     0
100
AcDbPoint
 10
1019.026463347669
 20
643.009831665437
 30
0.0
  0
POINT
  5
1A69
330
15E8
100
AcDbEntity
  8
DEFPOINTS
 62
     0
100
AcDbPoint
 10
1124.348561346175
 20
643.009831665437
 30
0.0
  0
ENDBLK
  5
15F3
330
15E8
100
AcDbEntity
  8
0
100
AcDbBlockEnd
  0
BLOCK
  5
15F8
330
15F7
100
AcDbEntity
  8
0
100
AcDbBlockBegin
  2
*D7
 70
     1
 10
0.0
 20
0.0
 30
0.0
  3
*D7
  1

  0
LINE
  5
1A56
330
15F7
100
AcDbEntity
  8
SUNPOU
100
AcDbLine
 10
994.0264633476699
 20
690.9090655418919
 30
0.0
 11
994.0264633476699
 21
693.3672724874218
 31
0.0
  0
LINE
  5
1A57
330
15F7
100
AcDbEntity
  8
SUNPOU
100
AcDbLine
 10
1019.026463347669
 20
655.009831665437
 30
0.0
 11
1019.026463347669
 21
693.3672724874218
 31
0.0
  0
LINE
  5
1A58
330
15F7
100
AcDbEntity
  8
SUNPOU
100
AcDbLine
 10
980.0264633476698
 20
687.3672724874218
 30
0.0
 11
966.02646334767
 21
687.3672724874218
 31
0.0
  0
LINE
  5
1A59
330
15F7
100
AcDbEntity
  8
SUNPOU
100
AcDbLine
 10
1033.02646334767
 20
687.3672724874218
 30
0.0
 11
1075.02646334767
 21
687.3672724874218
 31
0.0
  0
LINE
  5
1A5A
330
15F7
100
AcDbEntity
  8
SUNPOU
100
AcDbLine
 10
994.0264633476699
 20
687.3672724874218
 30
0.0
 11
1019.026463347669
 21
687.3672724874218
 31
0.0
  0
INSERT
  5
1A5B
330
15F7
100
AcDbEntity
  8
SUNPOU
100
AcDbBlockReference
  2
_OPEN
 10
994.0264633476699
 20
687.3672724874218
 30
0.0
 41
14.0
 42
14.0
 43
14.0
  0
INSERT
  5
1A5C
330
15F7
100
AcDbEntity
  8
SUNPOU
100
AcDbBlockReference
  2
_OPEN
 10
1019.026463347669
 20
687.3672724874218
 30
0.0
 41
14.0
 42
14.0
 43
14.0
 50
180.0
  0
MTEXT
  5
1A5D
330
15F7
100
AcDbEntity
  8
SUNPOU
100
AcDbMText
 10
1061.02646334767
 20
697.3672724874218
 30
0.0
 40
12.0
 41
0.0
 71
     5
 72
     1
  1
\A1;25
1001
ACAD
1000
MTEXTBEGIN
1070
    73
1070
     1
1070
    44
1040
1.0
1070
    74
1070
     0
1000
MTEXTEND
  0
POINT
  5
1A5E
330
15F7
100
AcDbEntity
  8
DEFPOINTS
 62
     0
100
AcDbPoint
 10
994.0264633476699
 20
678.9090655418918
 30
0.0
  0
POINT
  5
1A5F
330
15F7
100
AcDbEntity
  8
DEFPOINTS
 62
     0
100
AcDbPoint
 10
1019.026463347669
 20
643.009831665437
 30
0.0
  0
POINT
  5
1A60
330
15F7
100
AcDbEntity
  8
DEFPOINTS
 62
     0
100
AcDbPoint
 10
1019.026463347669
 20
687.3672724874218
 30
0.0
  0
ENDBLK
  5
1604
330
15F7
100
AcDbEntity
  8
0
100
AcDbBlockEnd
  0
BLOCK
  5
1607
330
1606
100
AcDbEntity
  8
0
100
AcDbBlockBegin
  2
*D8
 70
     1
 10
0.0
 20
0.0
 30
0.0
  3
*D8
  1

  0
LINE
  5
1A73
330
1606
100
AcDbEntity
  8
SUNPOU
100
AcDbLine
 10
1181.02646334767
 20
885.1122077418919
 30
0.0
 11
1247.534782756608
 21
885.1122077418919
 31
0.0
  0
LINE
  5
1A74
330
1606
100
AcDbEntity
  8
SUNPOU
100
AcDbLine
 10
1162.010312345932
 20
734.3688619708422
 30
0.0
 11
1247.534782756608
 21
734.3688619708422
 31
0.0
  0
LINE
  5
1A75
330
1606
100
AcDbEntity
  8
SUNPOU
100
AcDbLine
 10
1241.534782756608
 20
871.1122077418918
 30
0.0
 11
1241.534782756608
 21
748.3688619708422
 31
0.0
  0
INSERT
  5
1A76
330
1606
100
AcDbEntity
  8
SUNPOU
100
AcDbBlockReference
  2
_OPEN
 10
1241.534782756608
 20
885.1122077418919
 30
0.0
 41
14.0
 42
14.0
 43
14.0
 50
90.0
  0
INSERT
  5
1A77
330
1606
100
AcDbEntity
  8
SUNPOU
100
AcDbBlockReference
  2
_OPEN
 10
1241.534782756608
 20
734.3688619708422
 30
0.0
 41
14.0
 42
14.0
 43
14.0
 50
270.0
  0
MTEXT
  5
1A78
330
1606
100
AcDbEntity
  8
SUNPOU
100
AcDbMText
 10
1231.534782756608
 20
809.7405348563672
 30
0.0
 40
12.0
 41
0.0
 71
     5
 72
     1
  1
\A1;151
 11
0.0000000000000001
 21
1.0
 31
0.0
1001
ACAD
1000
MTEXTBEGIN
1070
    73
1070
     1
1070
    44
1040
1.0
1070
    74
1070
     0
1000
MTEXTEND
  0
POINT
  5
1A79
330
1606
100
AcDbEntity
  8
DEFPOINTS
 62
     0
100
AcDbPoint
 10
1169.026463347669
 20
885.1122077418919
 30
0.0
  0
POINT
  5
1A7A
330
1606
100
AcDbEntity
  8
DEFPOINTS
 62
     0
100
AcDbPoint
 10
1150.010312345932
 20
734.3688619708422
 30
0.0
  0
POINT
  5
1A7B
330
1606
100
AcDbEntity
  8
DEFPOINTS
 62
     0
100
AcDbPoint
 10
1241.534782756608
 20
734.3688619708422
 30
0.0
  0
ENDBLK
  5
1611
330
1606
100
AcDbEntity
  8
0
100
AcDbBlockEnd
  0
BLOCK
  5
1614
330
1613
100
AcDbEntity
  8
0
100
AcDbBlockBegin
  2
*D9
 70
     1
 10
0.0
 20
0.0
 30
0.0
  3
*D9
  1

  0
LINE
  5
1A4D
330
1613
100
AcDbEntity
  8
SUNPOU
100
AcDbLine
 10
1181.02646334767
 20
885.1122077418919
 30
0.0
 11
1283.81421992989
 21
885.1122077418917
 31
0.0
  0
LINE
  5
1A4E
330
1613
100
AcDbEntity
  8
SUNPOU
100
AcDbLine
 10
1029.52646334767
 20
584.009831041892
 30
0.0
 11
1283.81421992989
 21
584.0098310418918
 31
0.0
  0
LINE
  5
1A4F
330
1613
100
AcDbEntity
  8
SUNPOU
100
AcDbLine
 10
1277.81421992989
 20
871.1122077418918
 30
0.0
 11
1277.81421992989
 21
598.0098310418919
 31
0.0
  0
INSERT
  5
1A50
330
1613
100
AcDbEntity
  8
SUNPOU
100
AcDbBlockReference
  2
_OPEN
 10
1277.81421992989
 20
885.1122077418919
 30
0.0
 41
14.0
 42
14.0
 43
14.0
 50
90.0
  0
INSERT
  5
1A51
330
1613
100
AcDbEntity
  8
SUNPOU
100
AcDbBlockReference
  2
_OPEN
 10
1277.81421992989
 20
584.009831041892
 30
0.0
 41
14.0
 42
14.0
 43
14.0
 50
270.0
  0
MTEXT
  5
1A52
330
1613
100
AcDbEntity
  8
SUNPOU
100
AcDbMText
 10
1267.814219929889
 20
734.561019391892
 30
0.0
 40
12.0
 41
0.0
 71
     5
 72
     1
  1
\A1;301
 11
0.0000000000000001
 21
1.0
 31
0.0
1001
ACAD
1000
MTEXTBEGIN
1070
    73
1070
     1
1070
    44
1040
1.0
1070
    74
1070
     0
1000
MTEXTEND
  0
POINT
  5
1A53
330
1613
100
AcDbEntity
  8
DEFPOINTS
 62
     0
100
AcDbPoint
 10
1169.026463347669
 20
885.1122077418919
 30
0.0
  0
POINT
  5
1A54
330
1613
100
AcDbEntity
  8
DEFPOINTS
 62
     0
100
AcDbPoint
 10
1017.526463347669
 20
584.009831041892
 30
0.0
  0
POINT
  5
1A55
330
1613
100
AcDbEntity
  8
DEFPOINTS
 62
     0
100
AcDbPoint
 10
1277.81421992989
 20
584.009831041892
 30
0.0
  0
ENDBLK
  5
161E
330
1613
100
AcDbEntity
  8
0
100
AcDbBlockEnd
  0
BLOCK
  5
1621
330
1620
100
AcDbEntity
  8
0
100
AcDbBlockBegin
  2
*D10
 70
     1
 10
0.0
 20
0.0
 30
0.0
  3
*D10
  1

  0
LINE
  5
1A3B
330
1620
100
AcDbEntity
  8
SUNPOU
100
AcDbLine
 10
867.3995603476699
 20
324.2804182368992
 30
0.0
 11
867.3995603476699
 21
462.8529685582057
 31
0.0
  0
LINE
  5
1A3C
330
1620
100
AcDbEntity
  8
SUNPOU
100
AcDbLine
 10
1018.899097347669
 20
369.9075390368992
 30
0.0
 11
1018.899097347669
 21
462.8529685582057
 31
0.0
  0
LINE
  5
1A3D
330
1620
100
AcDbEntity
  8
SUNPOU
100
AcDbLine
 10
881.3995603476698
 20
456.8529685582056
 30
0.0
 11
1004.899097347669
 21
456.8529685582056
 31
0.0
  0
INSERT
  5
1A3E
330
1620
100
AcDbEntity
  8
SUNPOU
100
AcDbBlockReference
  2
_OPEN
 10
867.3995603476699
 20
456.8529685582056
 30
0.0
 41
14.0
 42
14.0
 43
14.0
 50
180.0
  0
INSERT
  5
1A3F
330
1620
100
AcDbEntity
  8
SUNPOU
100
AcDbBlockReference
  2
_OPEN
 10
1018.899097347669
 20
456.8529685582056
 30
0.0
 41
14.0
 42
14.0
 43
14.0
  0
MTEXT
  5
1A40
330
1620
100
AcDbEntity
  8
SUNPOU
100
AcDbMText
 10
943.1493288476698
 20
466.8529685582057
 30
0.0
 40
12.0
 41
0.0
 71
     5
 72
     1
  1
\A1;151
1001
ACAD
1000
MTEXTBEGIN
1070
    73
1070
     1
1070
    44
1040
1.0
1070
    74
1070
     0
1000
MTEXTEND
  0
POINT
  5
1A41
330
1620
100
AcDbEntity
  8
DEFPOINTS
 62
     0
100
AcDbPoint
 10
867.3995603476699
 20
312.2804182368992
 30
0.0
  0
POINT
  5
1A42
330
1620
100
AcDbEntity
  8
DEFPOINTS
 62
     0
100
AcDbPoint
 10
1018.899097347669
 20
357.9075390368992
 30
0.0
  0
POINT
  5
1A43
330
1620
100
AcDbEntity
  8
DEFPOINTS
 62
     0
100
AcDbPoint
 10
1018.899097347669
 20
456.8529685582056
 30
0.0
  0
ENDBLK
  5
162B
330
1620
100
AcDbEntity
  8
0
100
AcDbBlockEnd
  0
ENDSEC
  0
SECTION
  2
ENTITIES
  0
TEXT
  5
1053
330
19
100
AcDbEntity
  8
SUNPOU
 62
     4
100
AcDbText
 10
1365.435197928825
 20
76.77950981554866
 30
0.0
 40
12.0
  1
※　のきといの差込み寸法を示す
100
AcDbText
  0
LINE
  5
13AA
330
19
100
AcDbEntity
  8
SEIHIN
100
AcDbLine
 10
893.62647034767
 20
633.0098310418919
 30
0.0
 11
893.62647034767
 21
854.6098240418919
 31
0.0
  0
LINE
  5
13AB
330
19
100
AcDbEntity
  8
SEIHIN
100
AcDbLine
 10
867.9240863476698
 20
615.004438341892
 30
0.0
 11
867.9240863476698
 21
877.6122077418918
 31
0.0
  0
LINE
  5
13AC
330
19
100
AcDbEntity
  8
SEIHIN
100
AcDbLine
 10
886.5522173476698
 20
584.009831041892
 30
0.0
 11
886.5522173476698
 21
858.984077341892
 31
0.0
  0
LINE
  5
13AD
330
19
100
AcDbEntity
  8
SEIHIN
100
AcDbLine
 10
883.6706523476697
 20
584.009831041892
 30
0.0
 11
883.6706523476697
 21
861.8656422418919
 31
0.0
  0
LINE
  5
13AE
330
19
100
AcDbEntity
  8
CENTER_L
 48
5.0
100
AcDbLine
 10
947.0264633476698
 20
574.0098310418919
 30
0.0
 11
947.02646334767
 21
813.0098310418919
 31
0.0
  0
LINE
  5
13AF
330
19
100
AcDbEntity
  8
CENTER_L
 48
5.0
100
AcDbLine
 10
1030.995858347669
 20
722.0404362418919
 30
0.0
 11
854.2191633476697
 21
898.817131541892
 31
0.0
  0
LINE
  5
13B0
330
19
100
AcDbEntity
  8
SEIHIN
100
AcDbLine
 10
1125.02646334767
 20
741.8394782418919
 30
0.0
 11
1125.02646334767
 21
796.009831041892
 31
0.0
  0
LINE
  5
13B1
330
19
100
AcDbEntity
  8
SEIHIN
100
AcDbLine
 10
1140.174305347669
 20
791.9820215418919
 30
0.0
 11
1144.558384347669
 21
746.6766414418919
 31
0.0
  0
LINE
  5
13B2
330
19
100
AcDbEntity
  8
SEIHIN
100
AcDbLine
 10
1120.026463347669
 20
736.5979064418919
 30
0.0
 11
1120.026463347669
 21
866.4840773418919
 31
0.0
  0
LINE
  5
13B3
330
19
100
AcDbEntity
  8
SEIHIN
100
AcDbLine
 10
1073.611627347669
 20
776.9018300418919
 30
0.0
 11
1110.831361347669
 21
746.5746391418918
 31
0.0
  0
ARC
  5
13B5
330
19
100
AcDbEntity
  8
SEIHIN
100
AcDbCircle
 10
1019.716697347669
 20
733.3195967418919
 30
0.0
 40
46.97449644402543
100
AcDbArc
 50
87.39643172376215
 51
180.0360970354494
  0
LINE
  5
13B6
330
19
100
AcDbEntity
  8
SEIHIN
100
AcDbLine
 10
1169.026463347669
 20
885.1122077418919
 30
0.0
 11
1169.026463347669
 21
735.5098310418919
 31
0.0
  0
LINE
  5
13B7
330
19
100
AcDbEntity
  8
SEIHIN
100
AcDbLine
 10
885.0665253476698
 20
403.8620693368992
 30
0.0
 11
1169.026463347669
 21
403.8620693368992
 31
0.0
  0
ARC
  5
13B8
330
19
100
AcDbEntity
  8
SEIHIN
100
AcDbCircle
 10
947.02646334767
 20
1289.963303136899
 30
0.0
 40
1001.199999992029
100
AcDbArc
 50
267.0148646611669
 51
273.5168009309589
  0
LINE
  5
13B9
330
19
100
AcDbEntity
  8
SEIHIN
100
AcDbLine
 10
869.4240863476698
 20
584.009831041892
 30
0.0
 11
1017.526463347669
 21
584.009831041892
 31
0.0
  0
LINE
  5
13BA
330
19
100
AcDbEntity
  8
SEIHIN
100
AcDbLine
 10
1016.438388347669
 20
633.0098310418919
 30
0.0
 11
886.5522173476698
 21
633.0098310418919
 31
0.0
  0
ARC
  5
13BB
330
19
100
AcDbEntity
  8
SEIHIN
100
AcDbCircle
 10
947.02646334767
 20
1289.768133136899
 30
0.0
 40
1002.504829963661
100
AcDbArc
 50
267.0171395889105
 51
273.5168009386496
  0
ARC
  5
13BC
330
19
100
AcDbEntity
  8
SEIHIN
100
AcDbCircle
 10
947.02646334767
 20
1289.963303136899
 30
0.0
 40
999.999999916039
100
AcDbArc
 50
267.0148647042192
 51
273.4991949524058
  0
ARC
  5
13BD
330
19
100
AcDbEntity
  8
SEIHIN
100
AcDbCircle
 10
947.02646334767
 20
1289.963303136899
 30
0.0
 40
1001.199999992029
100
AcDbArc
 50
267.0148646611669
 51
273.5168009309589
  0
LINE
  5
13BE
330
19
100
AcDbEntity
  8
SEIHIN
100
AcDbLine
 10
947.02646334767
 20
287.2633031368992
 30
0.0
 11
1134.029584347669
 21
287.2633031368992
 31
0.0
  0
LINE
  5
13BF
330
19
100
AcDbEntity
  8
SEIHIN
100
AcDbLine
 10
937.0264633476699
 20
630.3098310418919
 30
0.0
 11
957.02646334767
 21
630.3098310418919
 31
0.0
  0
LINE
  5
13C0
330
19
100
AcDbEntity
  8
SEIHIN
100
AcDbLine
 10
937.0264633476699
 20
628.1907140418919
 30
0.0
 11
957.02646334767
 21
628.1907140418919
 31
0.0
  0
ARC
  5
13C1
330
19
100
AcDbEntity
  8
SEIHIN
100
AcDbCircle
 10
895.0347213476698
 20
396.8729130368992
 30
0.0
 40
3.000000182458691
100
AcDbArc
 50
225.140161810678
 51
71.40255684981529
  0
ARC
  5
13C3
330
19
100
AcDbEntity
  8
SEIHIN
100
AcDbCircle
 10
893.4273343476698
 20
397.2027603368992
 30
0.0
 40
1.500000357620833
100
AcDbArc
 50
336.8014180127634
 51
71.40250132770209
  0
ARC
  5
13C4
330
19
100
AcDbEntity
  8
SEIHIN
100
AcDbCircle
 10
893.4273343476698
 20
397.2027603368992
 30
0.0
 40
0.5000002816288605
100
AcDbArc
 50
336.8014365702272
 51
71.40250254588633
  0
ARC
  5
13C5
330
19
100
AcDbEntity
  8
SEIHIN
100
AcDbCircle
 10
1120.624086347669
 20
316.0534145368992
 30
0.0
 40
251.1999993140336
100
AcDbArc
 50
159.5397937685536
 51
176.9999980522872
  0
ARC
  5
13C6
330
19
100
AcDbEntity
  8
SEIHIN
100
AcDbCircle
 10
1120.624086347669
 20
316.0534145368992
 30
0.0
 40
252.6999998518838
100
AcDbArc
 50
159.9843839042785
 51
176.9999986233275
  0
ARC
  5
13C7
330
19
100
AcDbEntity
  8
SEIHIN
100
AcDbCircle
 10
1120.624086347669
 20
316.0534145368992
 30
0.0
 40
249.9999993942926
100
AcDbArc
 50
160.3794373367584
 51
180.1139751776096
  0
LINE
  5
13C8
330
19
100
AcDbEntity
  8
SEIHIN
100
AcDbLine
 10
884.2750283476698
 20
316.1111611368992
 30
0.0
 11
869.5606123476698
 21
313.5606623368992
 31
0.0
  0
LINE
  5
13C9
330
19
100
AcDbEntity
  8
SEIHIN
100
AcDbLine
 10
883.1860223476699
 20
314.3965669368992
 30
0.0
 11
867.9842683476698
 21
311.7615962368993
 31
0.0
  0
LINE
  5
13CA
330
19
100
AcDbEntity
  8
SEIHIN
100
AcDbLine
 10
885.16768334767
 20
317.4837813368992
 30
0.0
 11
871.2099733476698
 21
315.0644449368992
 31
0.0
  0
ARC
  5
13CB
330
19
100
AcDbEntity
  8
SEIHIN
100
AcDbCircle
 10
874.2369123476699
 20
338.9633031368993
 30
0.0
 40
0.9999995585385724
100
AcDbArc
 50
90.0
 51
174.6877207883871
  0
LINE
  5
13CC
330
19
100
AcDbEntity
  8
SEIHIN
100
AcDbLine
 10
872.6758923476698
 20
324.5731861368992
 30
0.0
 11
886.4180193476697
 21
319.8884640368992
 31
0.0
  0
ARC
  5
13CD
330
19
100
AcDbEntity
  8
SEIHIN
100
AcDbCircle
 10
1120.624086347669
 20
316.0534145368992
 30
0.0
 40
248.4499995899468
100
AcDbArc
 50
174.6877248841492
 51
177.9214536597844
  0
LINE
  5
13CE
330
19
100
AcDbEntity
  8
SEIHIN
100
AcDbLine
 10
867.3995603476699
 20
312.2804182368993
 30
0.0
 11
868.2904033476697
 21
329.2787167368992
 31
0.0
  0
ARC
  5
13CF
330
19
100
AcDbEntity
  8
SEIHIN
100
AcDbCircle
 10
869.47521934767
 20
314.0533163368993
 30
0.0
 40
0.5000000808069761
100
AcDbArc
 50
176.9999988914423
 51
279.8335233173093
  0
ARC
  5
13D0
330
19
100
AcDbEntity
  8
SEIHIN
100
AcDbCircle
 10
867.89887534767
 20
312.2542502368992
 30
0.0
 40
0.5000000808069761
100
AcDbArc
 50
176.9999988914423
 51
279.8335233173093
  0
LINE
  5
13D2
330
19
100
AcDbEntity
  8
SEIHIN
100
AcDbLine
 10
868.97590434767
 20
314.0794843368992
 30
0.0
 11
869.7683483476698
 21
329.2002152368993
 31
0.0
  0
ARC
  5
13D3
330
19
100
AcDbEntity
  8
SEIHIN
100
AcDbCircle
 10
871.12458034767
 20
315.5570989368992
 30
0.0
 40
0.4999999586976016
100
AcDbArc
 50
180.1139728422208
 51
279.8335233173104
  0
ARC
  5
13D4
330
19
100
AcDbEntity
  8
SEIHIN
100
AcDbCircle
 10
872.8372263476698
 20
325.0464422368993
 30
0.0
 40
0.4999999856641945
100
AcDbArc
 50
177.9214604738616
 51
251.1756486461219
  0
ARC
  5
13D6
330
19
100
AcDbEntity
  8
SEIHIN
100
AcDbCircle
 10
1120.624086347669
 20
316.0534145368992
 30
0.0
 40
246.6999993995999
100
AcDbArc
 50
174.4382265093484
 51
177.6189350575286
  0
ARC
  5
13D7
330
19
100
AcDbEntity
  8
SEIHIN
100
AcDbCircle
 10
1120.624086347669
 20
316.0534145368992
 30
0.0
 40
245.4999996962687
100
AcDbArc
 50
174.6671924026432
 51
177.4092732898829
  0
ARC
  5
13D8
330
19
100
AcDbEntity
  8
SEIHIN
100
AcDbCircle
 10
947.02646334767
 20
1289.963303136899
 30
0.0
 40
996.7999999742326
100
AcDbArc
 50
267.1246946759114
 51
269.4246159716189
  0
ARC
  5
13D9
330
19
100
AcDbEntity
  8
SEIHIN
100
AcDbCircle
 10
947.02646334767
 20
1289.963303136899
 30
0.0
 40
998.5499999614887
100
AcDbArc
 50
267.1150469720167
 51
269.426200618261
  0
ARC
  5
13DA
330
19
100
AcDbEntity
  8
SEIHIN
100
AcDbCircle
 10
947.02646334767
 20
1289.963303136899
 30
0.0
 40
995.5999999724674
100
AcDbArc
 50
267.1324209499437
 51
269.4245003721458
  0
ARC
  5
13DB
330
19
100
AcDbEntity
  8
SEIHIN
100
AcDbCircle
 10
1128.349204347669
 20
377.4437743368993
 30
0.0
 40
246.6999993704598
100
AcDbArc
 50
193.2560953518884
 51
199.4202038202793
  0
ARC
  5
13DC
330
19
100
AcDbEntity
  8
SEIHIN
100
AcDbCircle
 10
1128.349204347669
 20
377.4437743368993
 30
0.0
 40
249.9999998601112
100
AcDbArc
 50
193.9649292710825
 51
199.8292867204504
  0
ARC
  5
13DD
330
19
100
AcDbEntity
  8
SEIHIN
100
AcDbCircle
 10
1128.349204347669
 20
377.4437743368993
 30
0.0
 40
252.6999996996064
100
AcDbArc
 50
194.5335767768106
 51
199.8292867442942
  0
ARC
  5
13DE
330
19
100
AcDbEntity
  8
SEIHIN
100
AcDbCircle
 10
1128.349204347669
 20
377.4437743368993
 30
0.0
 40
251.1999997165506
100
AcDbArc
 50
194.2191139152166
 51
199.8292867058257
  0
ARC
  5
13DF
330
19
100
AcDbEntity
  8
SEIHIN
100
AcDbCircle
 10
1128.349204347669
 20
377.4437743368993
 30
0.0
 40
245.4999994470201
100
AcDbArc
 50
193.1015574862687
 51
199.3888320873154
  0
ARC
  5
13E0
330
19
100
AcDbEntity
  8
SEIHIN
100
AcDbCircle
 10
1128.349204347669
 20
377.4437743368993
 30
0.0
 40
248.449999664281
100
AcDbArc
 50
193.4792534473277
 51
199.4593500407801
  0
ARC
  5
13E1
330
19
100
AcDbEntity
  8
SEIHIN
100
AcDbCircle
 10
895.0537443476699
 20
293.3175102368993
 30
0.0
 40
3.199999959438536
100
AcDbArc
 50
199.8292853433427
 51
267.0148644833345
  0
ARC
  5
13E2
330
19
100
AcDbEntity
  8
SEIHIN
100
AcDbCircle
 10
895.0537443476699
 20
293.3175102368993
 30
0.0
 40
4.699999835283906
100
AcDbArc
 50
199.8292878464707
 51
267.6240188734556
  0
ARC
  5
13E3
330
19
100
AcDbEntity
  8
SEIHIN
100
AcDbCircle
 10
897.0997433476698
 20
295.9163160368992
 30
0.0
 40
1.499999894815759
100
AcDbArc
 50
199.4202039286799
 51
267.1246842101857
  0
ARC
  5
13E6
330
19
100
AcDbEntity
  8
SEIHIN
100
AcDbCircle
 10
895.0537443476699
 20
293.3175102368993
 30
0.0
 40
1.999999948997646
100
AcDbArc
 50
199.8292863539395
 51
267.0148859027991
  0
ARC
  5
13E7
330
19
100
AcDbEntity
  8
SEIHIN
100
AcDbCircle
 10
896.9197793476698
 20
295.6750538368992
 30
0.0
 40
2.999999874178387
100
AcDbArc
 50
199.4593519175202
 51
267.1150463031251
  0
ARC
  5
13E8
330
19
100
AcDbEntity
  8
SEIHIN
100
AcDbCircle
 10
897.2437953476699
 20
296.1093420368992
 30
0.0
 40
0.4999996634878873
100
AcDbArc
 50
199.3888543237365
 51
267.1324096805328
  0
ARC
  5
13EB
330
19
100
AcDbEntity
  8
SEIHIN
100
AcDbCircle
 10
886.2566853476698
 20
319.4152079368992
 30
0.0
 40
0.4999999006217931
100
AcDbArc
 50
13.47925539366373
 51
71.17564864614658
  0
ARC
  5
13EC
330
19
100
AcDbEntity
  8
SEIHIN
100
AcDbCircle
 10
885.2530763476698
 20
316.9911273368993
 30
0.0
 40
0.5000000471060597
100
AcDbArc
 50
13.96491671035416
 51
99.83352331731044
  0
ARC
  5
13ED
330
19
100
AcDbEntity
  8
SEIHIN
100
AcDbCircle
 10
883.2514163476698
 20
313.9039129368992
 30
0.0
 40
0.4999998741717508
100
AcDbArc
 50
14.53359192476022
 51
99.83363622529557
  0
ARC
  5
13EE
330
19
100
AcDbEntity
  8
SEIHIN
100
AcDbCircle
 10
884.3604213476698
 20
315.6185071368993
 30
0.0
 40
0.5000000958830637
100
AcDbArc
 50
14.21910744783182
 51
99.83352331733499
  0
ARC
  5
13EF
330
19
100
AcDbEntity
  8
SEIHIN
100
AcDbCircle
 10
887.7358813476698
 20
320.7598401368993
 30
0.0
 40
0.4999997307971161
100
AcDbArc
 50
13.2560988832843
 51
71.17564494864208
  0
LINE
  5
13F0
330
19
100
AcDbEntity
  8
SEIHIN
100
AcDbLine
 10
874.4753183476698
 20
325.8086512368993
 30
0.0
 11
887.8972153476697
 21
321.2330961368993
 31
0.0
  0
ARC
  5
13F1
330
19
100
AcDbEntity
  8
SEIHIN
100
AcDbCircle
 10
874.63665234767
 20
326.2819073368993
 30
0.0
 40
0.4999998437163202
100
AcDbArc
 50
177.6189371574577
 51
251.1756486461219
  0
ARC
  5
13F2
330
19
100
AcDbEntity
  8
SEIHIN
100
AcDbCircle
 10
875.8745013476698
 20
327.1277342368993
 30
0.0
 40
0.5000000219922934
100
AcDbArc
 50
177.409279545456
 51
251.1756486461465
  0
LINE
  5
13F3
330
19
100
AcDbEntity
  8
SEIHIN
100
AcDbLine
 10
875.7131673476699
 20
326.6544781368993
 30
0.0
 11
888.9139663476699
 21
322.1542958368993
 31
0.0
  0
ARC
  5
13F4
330
19
100
AcDbEntity
  8
SEIHIN
100
AcDbCircle
 10
888.7526323476697
 20
321.6810397368992
 30
0.0
 40
0.5000000461107379
100
AcDbArc
 50
13.10155590162738
 51
71.17564864612193
  0
LINE
  5
13F5
330
19
100
AcDbEntity
  8
SEIHIN
100
AcDbLine
 10
937.0264633476699
 20
294.4135254368992
 30
0.0
 11
937.0264633476699
 21
291.0038445368993
 31
0.0
  0
ARC
  5
13F6
330
19
100
AcDbEntity
  8
SEIHIN
100
AcDbCircle
 10
938.0264633476699
 20
291.0038445368993
 30
0.0
 40
0.9999999909323518
100
AcDbArc
 50
180.0
 51
269.4838153304017
  0
LINE
  5
13F7
330
19
100
AcDbEntity
  8
SEIHIN
100
AcDbLine
 10
934.52646334767
 20
294.4417765368992
 30
0.0
 11
934.52646334767
 21
291.4915446368993
 31
0.0
  0
LINE
  5
13F8
330
19
100
AcDbEntity
  8
SEIHIN
100
AcDbLine
 10
874.2369123476699
 20
339.9633031368992
 30
0.0
 11
875.1910263476698
 21
339.9633031368992
 31
0.0
  0
ARC
  5
13F9
330
19
100
AcDbEntity
  8
SEIHIN
100
AcDbCircle
 10
875.1910263476698
 20
338.9633031368993
 30
0.0
 40
1.000000176325099
100
AcDbArc
 50
354.6671957172991
 51
90.0
  0
LINE
  5
13FA
330
19
100
AcDbEntity
  8
SEIHIN
100
AcDbLine
 10
894.80605234767
 20
396.6118814368992
 30
0.0
 11
893.7550463476698
 21
394.1595329368992
 31
0.0
  0
LINE
  5
13FB
330
19
100
AcDbEntity
  8
SEIHIN
100
AcDbLine
 10
893.8869073476698
 20
397.0058007368992
 30
0.0
 11
892.9185963476697
 21
394.7464093368992
 31
0.0
  0
ARC
  5
13FC
330
19
100
AcDbEntity
  8
SEIHIN
100
AcDbCircle
 10
1067.924086347669
 20
615.0044407418919
 30
0.0
 40
199.9999999281836
100
AcDbArc
 50
180.0000006875493
 51
183.4336301222402
  0
LINE
  5
13FD
330
19
100
AcDbEntity
  8
SEIHIN
100
AcDbLine
 10
868.2831173476698
 20
603.0259834418919
 30
0.0
 11
869.4240863476698
 21
584.009831041892
 31
0.0
  0
LINE
  5
13FE
330
19
100
AcDbEntity
  8
SEIHIN
100
AcDbLine
 10
886.1080063476697
 20
401.2482682368993
 30
0.0
 11
893.90571134767
 21
398.6244341368992
 31
0.0
  0
LINE
  5
13FF
330
19
100
AcDbEntity
  8
SEIHIN
100
AcDbLine
 10
885.77026334767
 20
400.3068205368992
 30
0.0
 11
893.5867933476698
 21
397.6766516368992
 31
0.0
  0
LINE
  5
1400
330
19
100
AcDbEntity
  8
SEIHIN
100
AcDbLine
 10
886.8927583476697
 20
402.7778692368992
 30
0.0
 11
895.9914723476698
 21
399.7162608368993
 31
0.0
  0
ARC
  5
1405
330
19
100
AcDbEntity
  8
SEIHIN
100
AcDbCircle
 10
885.0665253476698
 20
401.8620693368992
 30
0.0
 40
2.000000125857134
100
AcDbArc
 50
90.0
 51
159.9843862866956
  0
ARC
  5
1406
330
19
100
AcDbEntity
  8
SEIHIN
100
AcDbCircle
 10
1120.624086347669
 20
316.0534145368992
 30
0.0
 40
249.999999359875
100
AcDbArc
 50
160.1497495131072
 51
160.3794373367584
  0
ARC
  5
1407
330
19
100
AcDbEntity
  8
SEIHIN
100
AcDbCircle
 10
885.9485483476699
 20
400.7743770368993
 30
0.0
 40
0.5000000231037309
100
AcDbArc
 50
71.40260749928369
 51
160.1497614494608
  0
ARC
  5
140B
330
19
100
AcDbEntity
  8
SEIHIN
100
AcDbCircle
 10
885.61080434767
 20
399.8329293368992
 30
0.0
 40
0.4999997815046714
100
AcDbArc
 50
71.4024988913578
 51
160.3794201698262
  0
ARC
  5
140C
330
19
100
AcDbEntity
  8
SEIHIN
100
AcDbCircle
 10
886.0522173476697
 20
403.3620693368992
 30
0.0
 40
0.5
100
AcDbArc
 50
0.0
 51
90.0
  0
LINE
  5
140D
330
19
100
AcDbEntity
  8
SEIHIN
100
AcDbLine
 10
886.5522173476698
 20
403.3620693368992
 30
0.0
 11
886.5522173476698
 21
403.2517604368993
 31
0.0
  0
ARC
  5
140E
330
19
100
AcDbEntity
  8
SEIHIN
100
AcDbCircle
 10
887.0522173476697
 20
403.2517604368993
 30
0.0
 40
0.5000000210592264
100
AcDbArc
 50
180.0
 51
251.4024988913578
  0
LINE
  5
1411
330
19
100
AcDbEntity
  8
SEIHIN
100
AcDbLine
 10
937.0264633476699
 20
628.0098310418919
 30
0.0
 11
886.5522173476698
 21
628.0098310418919
 31
0.0
  0
LINE
  5
1412
330
19
100
AcDbEntity
  8
SEIHIN
100
AcDbLine
 10
898.0347213476697
 20
624.0098310418919
 30
0.0
 11
898.0347213476697
 21
584.009831041892
 31
0.0
  0
LINE
  5
1413
330
19
100
AcDbEntity
  8
SEIHIN
100
AcDbLine
 10
886.5522173476698
 20
624.0098310418919
 30
0.0
 11
898.0347213476697
 21
624.0098310418919
 31
0.0
  0
LINE
  5
1414
330
19
100
AcDbEntity
  8
SEIHIN
100
AcDbLine
 10
886.5522173476698
 20
631.6861651418919
 30
0.0
 11
889.1233943476697
 21
628.0098310418919
 31
0.0
  0
LINE
  5
1415
330
19
100
AcDbEntity
  8
SEIHIN
100
AcDbLine
 10
889.1233943476697
 20
624.0098310418919
 30
0.0
 11
889.1233943476697
 21
628.0098310418919
 31
0.0
  0
LINE
  5
1416
330
19
100
AcDbEntity
  8
SEIHIN
100
AcDbLine
 10
896.9447073476699
 20
624.0098310418919
 30
0.0
 11
896.9447073476699
 21
628.0098310418919
 31
0.0
  0
LINE
  5
1417
330
19
100
AcDbEntity
  8
SEIHIN
100
AcDbLine
 10
893.62647034767
 20
633.0098310418919
 30
0.0
 11
896.9447073476699
 21
628.0098310418919
 31
0.0
  0
LINE
  5
1419
330
19
100
AcDbEntity
  8
SEIHIN
100
AcDbLine
 10
936.4716637764837
 20
624.6810331152844
 30
0.0
 11
937.0264633476699
 21
628.0098310418919
 31
0.0
  0
LINE
  5
141A
330
19
100
AcDbEntity
  8
SEIHIN
100
AcDbLine
 10
937.0264633476699
 20
633.0098310418919
 30
0.0
 11
937.0264633476699
 21
628.0098310418919
 31
0.0
  0
LINE
  5
141B
330
19
100
AcDbEntity
  8
SEIHIN
100
AcDbLine
 10
1129.026463347669
 20
403.8620693368992
 30
0.0
 11
1129.026463347669
 21
393.8729130368992
 31
0.0
  0
LINE
  5
141C
330
19
100
AcDbEntity
  8
SEIHIN
100
AcDbLine
 10
1169.026463347669
 20
403.8620693368992
 30
0.0
 11
1169.026463347669
 21
288.7633031368992
 31
0.0
  0
LINE
  5
141D
330
19
100
AcDbEntity
  8
SEIHIN
100
AcDbLine
 10
1093.262441347669
 20
353.9633031368992
 30
0.0
 11
1125.026464347669
 21
353.9633031368992
 31
0.0
  0
LINE
  5
141E
330
19
100
AcDbEntity
  8
SEIHIN
100
AcDbLine
 10
992.4219293476699
 20
369.9633031368993
 30
0.0
 11
1069.616532347669
 21
369.9633031368993
 31
0.0
  0
LINE
  5
141F
330
19
100
AcDbEntity
  8
SEIHIN
100
AcDbLine
 10
991.7873543476698
 20
370.1014158368992
 30
0.0
 11
988.6669552668598
 21
309.1797884514396
 31
0.0
  0
LINE
  5
1421
330
19
100
AcDbEntity
  8
SEIHIN
100
AcDbLine
 10
1017.39713034767
 20
357.9075390368992
 30
0.0
 11
1014.252861347669
 21
296.5198857368992
 31
0.0
  0
LINE
  5
1422
330
19
100
AcDbEntity
  8
SEIHIN
100
AcDbLine
 10
1018.899097347669
 20
357.9075390368992
 30
0.0
 11
1015.750898347669
 21
296.4431564368992
 31
0.0
  0
LINE
  5
1423
330
19
100
AcDbEntity
  8
SEIHIN
100
AcDbLine
 10
1011.720809347669
 20
298.8415641368992
 30
0.0
 11
1013.783213347669
 21
338.8126214368992
 31
0.0
  0
LINE
  5
1424
330
19
100
AcDbEntity
  8
SEIHIN
100
AcDbLine
 10
1016.05726334767
 20
355.2075390368992
 30
0.0
 11
1013.05443234767
 21
296.5812691368991
 31
0.0
  0
LINE
  5
1425
330
19
100
AcDbEntity
  8
SEIHIN
100
AcDbLine
 10
1009.975440347669
 20
298.9764301368993
 30
0.0
 11
1012.087067347669
 21
339.9014685368992
 31
0.0
  0
LINE
  5
1426
330
19
100
AcDbEntity
  8
SEIHIN
100
AcDbLine
 10
1008.786259347669
 20
299.2170469368993
 30
0.0
 11
1010.837132347669
 21
338.9646316368993
 31
0.0
  0
ARC
  5
1427
330
19
100
AcDbEntity
  8
SEIHIN
100
AcDbCircle
 10
947.02646334767
 20
1289.963303136899
 30
0.0
 40
998.5499999855743
100
AcDbArc
 50
270.5737993817389
 51
273.3906190352817
  0
ARC
  5
1428
330
19
100
AcDbEntity
  8
SEIHIN
100
AcDbCircle
 10
947.02646334767
 20
1289.963303136899
 30
0.0
 40
996.7999999669297
100
AcDbArc
 50
270.575384028381
 51
273.3880357545662
  0
ARC
  5
1429
330
19
100
AcDbEntity
  8
SEIHIN
100
AcDbCircle
 10
947.02646334767
 20
1289.963303136899
 30
0.0
 40
995.5999999311547
100
AcDbArc
 50
270.5754996278542
 51
273.3777001026949
  0
ARC
  5
142A
330
19
100
AcDbEntity
  8
SEIHIN
100
AcDbCircle
 10
956.02646334767
 20
291.0038445368993
 30
0.0
 40
0.9999999909323509
100
AcDbArc
 50
270.5161846695852
 51
0.0
  0
LINE
  5
142B
330
19
100
AcDbEntity
  8
SEIHIN
100
AcDbLine
 10
957.02646334767
 20
294.4135254368992
 30
0.0
 11
957.02646334767
 21
291.0038445368993
 31
0.0
  0
LINE
  5
142C
330
19
100
AcDbEntity
  8
SEIHIN
100
AcDbLine
 10
959.52646334767
 20
294.4417765368992
 30
0.0
 11
959.52646334767
 21
291.4915446368993
 31
0.0
  0
ARC
  5
142D
330
19
100
AcDbEntity
  8
SEIHIN
100
AcDbCircle
 10
1005.681153347669
 20
299.1980043368992
 30
0.0
 40
4.299999754148723
100
AcDbArc
 50
273.3880347745298
 51
357.0463040109278
  0
ARC
  5
142E
330
19
100
AcDbEntity
  8
SEIHIN
100
AcDbCircle
 10
1005.49064334767
 20
299.3870922368992
 30
0.0
 40
3.299999992681633
100
AcDbArc
 50
273.377701946245
 51
357.0463046468994
  0
ARC
  5
142F
330
19
100
AcDbEntity
  8
SEIHIN
100
AcDbCircle
 10
1005.728780347669
 20
299.1507374368992
 30
0.0
 40
6.00000002396855
100
AcDbArc
 50
273.3906228809555
 51
357.0463043420764
  0
ARC
  5
1432
330
19
100
AcDbEntity
  8
SEIHIN
100
AcDbCircle
 10
1008.060978347669
 20
296.8370332368992
 30
0.0
 40
4.999999867634601
100
AcDbArc
 50
273.5167997492862
 51
357.067879541425
  0
ARC
  5
1433
330
19
100
AcDbEntity
  8
SEIHIN
100
AcDbCircle
 10
1008.060978347669
 20
296.8370332368992
 30
0.0
 40
7.700000257086465
100
AcDbArc
 50
273.516805379198
 51
357.0678792220638
  0
ARC
  5
1434
330
19
100
AcDbEntity
  8
SEIHIN
100
AcDbCircle
 10
1008.060978347669
 20
296.8370332368992
 30
0.0
 40
6.19999991933876
100
AcDbArc
 50
273.5168048624904
 51
357.0678794126669
  0
LINE
  5
1435
330
19
100
AcDbEntity
  8
SEIHIN
100
AcDbLine
 10
995.6840893476698
 20
367.6193597368992
 30
0.0
 11
1000.71423734767
 21
356.2668617368992
 31
0.0
  0
LINE
  5
1436
330
19
100
AcDbEntity
  8
SEIHIN
100
AcDbLine
 10
998.5510353476698
 20
367.0268286368992
 30
0.0
 11
1003.25725434767
 21
356.2665985368993
 31
0.0
  0
ARC
  5
1437
330
19
100
AcDbEntity
  8
SEIHIN
100
AcDbCircle
 10
1006.879237347669
 20
357.9640188368993
 30
0.0
 40
3.999999793658551
100
AcDbArc
 50
205.1098515046907
 51
269.9940698868402
  0
LINE
  5
1438
330
19
100
AcDbEntity
  8
SEIHIN
100
AcDbLine
 10
1004.335806347669
 20
353.9642820368992
 30
0.0
 11
1007.457404347669
 21
353.9639589368992
 31
0.0
  0
ARC
  5
1439
330
19
100
AcDbEntity
  8
SEIHIN
100
AcDbCircle
 10
1008.82646334767
 20
360.5633031368993
 30
0.0
 40
2.599999999999965
100
AcDbArc
 50
90.0
 51
270.0
  0
ARC
  5
143A
330
19
100
AcDbEntity
  8
SEIHIN
100
AcDbCircle
 10
1004.33622034767
 20
357.9642820368992
 30
0.0
 40
3.999999793658551
100
AcDbArc
 50
205.1098515046907
 51
269.9940698868402
  0
LINE
  5
143B
330
19
100
AcDbEntity
  8
SEIHIN
100
AcDbLine
 10
1016.08459834767
 20
353.9630659368993
 30
0.0
 11
1006.878823347669
 21
353.9640188368993
 31
0.0
  0
LINE
  5
143C
330
19
100
AcDbEntity
  8
SEIHIN
100
AcDbLine
 10
1008.82646334767
 20
363.1633031368992
 30
0.0
 11
1013.905642347669
 21
363.1633031368992
 31
0.0
  0
LINE
  5
143D
330
19
100
AcDbEntity
  8
SEIHIN
100
AcDbLine
 10
1008.82646334767
 20
357.9633031368993
 30
0.0
 11
1008.82646334767
 21
360.4633031368992
 31
0.0
  0
LINE
  5
143E
330
19
100
AcDbEntity
  8
SEIHIN
100
AcDbLine
 10
1007.826463347669
 20
361.4633031368993
 30
0.0
 11
1011.11502934767
 21
361.4633031368993
 31
0.0
  0
LINE
  5
143F
330
19
100
AcDbEntity
  8
SEIHIN
100
AcDbLine
 10
1007.826463347669
 20
361.4633031368993
 30
0.0
 11
1008.82646334767
 21
360.4633031368992
 31
0.0
  0
LINE
  5
1440
330
19
100
AcDbEntity
  8
SEIHIN
100
AcDbLine
 10
1007.826463347669
 20
358.1720153368992
 30
0.0
 11
1007.826463347669
 21
361.4633031368993
 31
0.0
  0
ARC
  5
1442
330
19
100
AcDbEntity
  8
SEIHIN
100
AcDbCircle
 10
1012.78454234767
 20
338.8641503368992
 30
0.0
 40
0.9999997491322133
100
AcDbArc
 50
357.0463019122202
 51
87.04629766645801
  0
LINE
  5
1443
330
19
100
AcDbEntity
  8
SEIHIN
100
AcDbLine
 10
1011.887333347669
 20
339.9117742368992
 30
0.0
 11
1012.836071347669
 21
339.8628218368992
 31
0.0
  0
ARC
  5
1444
330
19
100
AcDbEntity
  8
SEIHIN
100
AcDbCircle
 10
1011.835804347669
 20
338.9131027368991
 30
0.0
 40
1.000000248468028
100
AcDbArc
 50
87.04629766644501
 51
177.0463048646058
  0
LINE
  5
1445
330
19
100
AcDbEntity
  8
SEIHIN
100
AcDbLine
 10
1016.108483347669
 20
356.2075390368992
 30
0.0
 11
1016.05726334767
 21
355.2075390368992
 31
0.0
  0
ARC
  5
1446
330
19
100
AcDbEntity
  8
SEIHIN
100
AcDbCircle
 10
1011.11502934767
 20
356.4633031368992
 30
0.0
 40
4.999999906248205
100
AcDbArc
 50
357.0678795414242
 51
90.0
  0
LINE
  5
1447
330
19
100
AcDbEntity
  8
SEIHIN
100
AcDbLine
 10
1008.82646334767
 20
360.4633031368992
 30
0.0
 11
1011.063809347669
 21
360.4633031368992
 31
0.0
  0
ARC
  5
1448
330
19
100
AcDbEntity
  8
SEIHIN
100
AcDbCircle
 10
1011.063809347669
 20
355.4633031368993
 30
0.0
 40
4.999999906248318
100
AcDbArc
 50
357.0678795414243
 51
90.0
  0
ARC
  5
144A
330
19
100
AcDbEntity
  8
SEIHIN
100
AcDbCircle
 10
1012.40367634767
 20
358.1633031368992
 30
0.0
 40
4.999999906248202
100
AcDbArc
 50
357.0678795414255
 51
90.0
  0
ARC
  5
144B
330
19
100
AcDbEntity
  8
SEIHIN
100
AcDbCircle
 10
1013.905642347669
 20
358.1633031368992
 30
0.0
 40
5.000000405593676
100
AcDbArc
 50
357.0678801275936
 51
90.0
  0
ARC
  5
144C
330
19
100
AcDbEntity
  8
SEIHIN
100
AcDbCircle
 10
994.5647893476698
 20
365.7905298368993
 30
0.0
 40
4.173558736227988
100
AcDbArc
 50
17.23081259066228
 51
91.11164848781793
  0
ARC
  5
144D
330
19
100
AcDbEntity
  8
SEIHIN
100
AcDbCircle
 10
991.8683233476699
 20
365.9286424368993
 30
0.0
 40
4.173559268888894
100
AcDbArc
 50
17.23080983526249
 51
91.11163473549083
  0
LINE
  5
144E
330
19
100
AcDbEntity
  8
SEIHIN
100
AcDbLine
 10
1077.193242347669
 20
366.4896699368993
 30
0.0
 11
1090.231757347669
 21
355.3527564368993
 31
0.0
  0
ARC
  5
144F
330
19
100
AcDbEntity
  8
SEIHIN
100
AcDbCircle
 10
1093.262441347669
 20
357.9633031368993
 30
0.0
 40
3.999999973796075
100
AcDbArc
 50
220.7406927643583
 51
270.0
  0
ARC
  5
1450
330
19
100
AcDbEntity
  8
SEIHIN
100
AcDbCircle
 10
1069.616532347669
 20
359.9633031368993
 30
0.0
 40
9.999999950806074
100
AcDbArc
 50
40.74069298141568
 51
90.0
  0
ARC
  5
1451
330
19
100
AcDbEntity
  8
SEIHIN
100
AcDbCircle
 10
1134.029584347669
 20
487.2633031368992
 30
0.0
 40
199.9999999775241
100
AcDbArc
 50
270.0
 51
272.8624054020763
  0
LINE
  5
1452
330
19
100
AcDbEntity
  8
SEIHIN
100
AcDbLine
 10
1144.01710834767
 20
287.5128354368992
 30
0.0
 11
1169.026463347669
 21
288.7633031368992
 31
0.0
  0
LINE
  5
1453
330
19
100
AcDbEntity
  8
SEIHIN
100
AcDbLine
 10
1129.026463347669
 20
393.8729130368992
 30
0.0
 11
1169.026463347669
 21
393.8729130368992
 31
0.0
  0
LINE
  5
1454
330
19
100
AcDbEntity
  8
SEIHIN
100
AcDbLine
 10
1129.026463347669
 20
363.1633031368992
 30
0.0
 11
1169.026463347669
 21
363.1633031368992
 31
0.0
  0
LINE
  5
1455
330
19
100
AcDbEntity
  8
SEIHIN
100
AcDbLine
 10
1129.026463347669
 20
363.1633031368992
 30
0.0
 11
1129.026463347669
 21
357.9633031368993
 31
0.0
  0
ARC
  5
1456
330
19
100
AcDbEntity
  8
SEIHIN
100
AcDbCircle
 10
1125.02646334767
 20
357.9633031368993
 30
0.0
 40
4.000000000000062
100
AcDbArc
 50
270.0000143239432
 51
0.0
  0
LINE
  5
1457
330
19
100
AcDbEntity
  8
SEIHIN
100
AcDbLine
 10
1085.307841347669
 20
757.6337458418919
 30
0.0
 11
1105.524839347669
 21
741.1606362418918
 31
0.0
  0
LINE
  5
1458
330
19
100
AcDbEntity
  8
SEIHIN
100
AcDbLine
 10
1083.602323347669
 20
755.5406119418919
 30
0.0
 11
1103.681960347669
 21
739.1794263418919
 31
0.0
  0
ARC
  5
145A
330
19
100
AcDbEntity
  8
SEIHIN
100
AcDbCircle
 10
996.6456303476698
 20
634.2066900418919
 30
0.0
 40
12.6619998477339
100
AcDbArc
 50
0.0
 51
39.17365904881429
  0
ARC
  5
145C
330
19
100
AcDbEntity
  8
SEIHIN
100
AcDbCircle
 10
996.1383883476699
 20
634.6884945418919
 30
0.0
 40
20.29999991743623
100
AcDbArc
 50
0.0
 51
39.17365831891389
  0
ARC
  5
145D
330
19
100
AcDbEntity
  8
SEIHIN
100
AcDbCircle
 10
996.0264633476699
 20
634.8258565418919
 30
0.0
 40
23.00000013646536
100
AcDbArc
 50
0.0
 51
39.17365749121983
  0
LINE
  5
145E
330
19
100
AcDbEntity
  8
SEIHIN
100
AcDbLine
 10
961.0542733476698
 20
612.8619890418918
 30
0.0
 11
1006.359653347669
 21
608.4779102418918
 31
0.0
  0
LINE
  5
145F
330
19
100
AcDbEntity
  8
SEIHIN
100
AcDbLine
 10
1011.19681634767
 20
628.0098310418919
 30
0.0
 11
957.02646334767
 21
628.0098310418919
 31
0.0
  0
ARC
  5
1460
330
19
100
AcDbEntity
  8
SEIHIN
100
AcDbCircle
 10
961.2469073476697
 20
614.8526904418919
 30
0.0
 40
1.999999574261264
100
AcDbArc
 50
189.4623269177121
 51
264.4728739550509
  0
LINE
  5
1461
330
19
100
AcDbEntity
  8
SEIHIN
100
AcDbLine
 10
957.02646334767
 20
628.0098310418919
 30
0.0
 11
959.2741203476698
 21
614.5238924418919
 31
0.0
  0
LINE
  5
1462
330
19
100
AcDbEntity
  8
SEIHIN
100
AcDbLine
 10
957.02646334767
 20
633.0098310418919
 30
0.0
 11
957.02646334767
 21
628.0098310418919
 31
0.0
  0
ARC
  5
1463
330
19
100
AcDbEntity
  8
SEIHIN
100
AcDbCircle
 10
819.0264633476699
 20
615.0044407418919
 30
0.0
 40
199.9999999521404
100
AcDbArc
 50
356.566369648988
 51
0.0
  0
LINE
  5
1464
330
19
100
AcDbEntity
  8
SEIHIN
100
AcDbLine
 10
1006.359653347669
 20
624.0098310418919
 30
0.0
 11
1006.359653347669
 21
584.009831041892
 31
0.0
  0
LINE
  5
1465
330
19
100
AcDbEntity
  8
SEIHIN
100
AcDbLine
 10
1018.667432347669
 20
603.0259826418919
 30
0.0
 11
1017.526463347669
 21
584.009831041892
 31
0.0
  0
LINE
  5
1466
330
19
100
AcDbEntity
  8
SEIHIN
100
AcDbLine
 10
1019.026463347669
 20
615.0044407418919
 30
0.0
 11
1019.026463347669
 21
634.8258565418919
 31
0.0
  0
LINE
  5
1467
330
19
100
AcDbEntity
  8
SEIHIN
100
AcDbLine
 10
1016.438388347669
 20
624.0098310418919
 30
0.0
 11
1016.438388347669
 21
634.6884945418919
 31
0.0
  0
LINE
  5
1468
330
19
100
AcDbEntity
  8
SEIHIN
100
AcDbLine
 10
1011.19681634767
 20
624.0098310418919
 30
0.0
 11
1011.19681634767
 21
628.0098310418919
 31
0.0
  0
LINE
  5
1469
330
19
100
AcDbEntity
  8
SEIHIN
100
AcDbLine
 10
1016.438388347669
 20
624.0098310418919
 30
0.0
 11
1016.438388347669
 21
634.6884945418919
 31
0.0
  0
LINE
  5
146A
330
19
100
AcDbEntity
  8
SEIHIN
100
AcDbLine
 10
1006.359653347669
 20
624.0098310418919
 30
0.0
 11
1019.026463347669
 21
624.0098310418919
 31
0.0
  0
LINE
  5
146B
330
19
100
AcDbEntity
  8
SEIHIN
100
AcDbLine
 10
1013.863532347669
 20
624.0098310418919
 30
0.0
 11
1013.863532347669
 21
628.0098310418919
 31
0.0
  0
LINE
  5
146C
330
19
100
AcDbEntity
  8
SEIHIN
100
AcDbLine
 10
1008.250667347669
 20
628.0098310418919
 30
0.0
 11
1008.250667347669
 21
624.0098310418919
 31
0.0
  0
LINE
  5
146D
330
19
100
AcDbEntity
  8
SEIHIN
100
AcDbLine
 10
1008.250667347669
 20
628.0098310418919
 30
0.0
 11
1013.492239347669
 21
633.0098310418919
 31
0.0
  0
LINE
  5
146E
330
19
100
AcDbEntity
  8
SEIHIN
100
AcDbLine
 10
1011.19681634767
 20
628.0098310418919
 30
0.0
 11
1016.438388347669
 21
633.0098310418919
 31
0.0
  0
LINE
  5
146F
330
19
100
AcDbEntity
  8
SEIHIN
100
AcDbLine
 10
1013.863532347669
 20
628.0098310418919
 30
0.0
 11
1016.438388347669
 21
630.4660176418918
 31
0.0
  0
LINE
  5
1471
330
19
100
AcDbEntity
  8
SEIHIN
100
AcDbLine
 10
1019.12420734767
 20
761.6120871418919
 30
0.0
 11
1074.127229347669
 21
761.6120871418919
 31
0.0
  0
LINE
  5
1472
330
19
100
AcDbEntity
  8
SEIHIN
100
AcDbLine
 10
1020.252127347669
 20
759.009831041892
 30
0.0
 11
1074.127229347669
 21
759.009831041892
 31
0.0
  0
LINE
  5
1473
330
19
100
AcDbEntity
  8
SEIHIN
100
AcDbLine
 10
994.0264633476699
 20
732.7841674418919
 30
0.0
 11
994.0264633476699
 21
678.9090655418918
 31
0.0
  0
LINE
  5
1474
330
19
100
AcDbEntity
  8
SEIHIN
100
AcDbLine
 10
972.74337634767
 20
732.1550263418919
 30
0.0
 11
972.7629903476698
 21
688.8929606418919
 31
0.0
  0
LINE
  5
1475
330
19
100
AcDbEntity
  8
SEIHIN
100
AcDbLine
 10
991.4242073476698
 20
733.9120871418919
 30
0.0
 11
991.4242073476698
 21
678.9090655418918
 31
0.0
  0
LINE
  5
1476
330
19
100
AcDbEntity
  8
SEIHIN
100
AcDbLine
 10
976.1344643476698
 20
679.4246672418919
 30
0.0
 11
1006.461655347669
 21
642.2049329418919
 31
0.0
  0
ARC
  5
1477
330
19
100
AcDbEntity
  8
SEIHIN
100
AcDbCircle
 10
987.7629893476699
 20
688.899761541892
 30
0.0
 40
15.00000036536274
100
AcDbArc
 50
180.0259775244112
 51
219.1736575427181
  0
ARC
  5
1478
330
19
100
AcDbEntity
  8
SEIHIN
100
AcDbCircle
 10
1009.026463347669
 20
678.9090655418918
 30
0.0
 40
15.00000009449196
100
AcDbArc
 50
180.0
 51
219.1736575427178
  0
ARC
  5
1479
330
19
100
AcDbEntity
  8
SEIHIN
100
AcDbCircle
 10
1009.12420734767
 20
678.9090655418918
 30
0.0
 40
17.70000014698909
100
AcDbArc
 50
180.0
 51
219.1736603869747
  0
LINE
  5
147B
330
19
100
AcDbEntity
  8
SEIHIN
100
AcDbLine
 10
995.4025483476698
 20
667.7284535418919
 30
0.0
 11
1011.875658347669
 21
647.5114554418919
 31
0.0
  0
LINE
  5
147C
330
19
100
AcDbEntity
  8
SEIHIN
100
AcDbLine
 10
997.4956823476698
 20
669.4339712418919
 30
0.0
 11
1013.856868347669
 21
649.3543344418919
 31
0.0
  0
LINE
  5
147E
330
19
100
AcDbEntity
  8
SEIHIN
100
AcDbLine
 10
1003.812414347669
 20
661.681623641892
 30
0.0
 11
1001.719281347669
 21
659.9761059418918
 31
0.0
  0
LINE
  5
1480
330
19
100
AcDbEntity
  8
SEIHIN
100
AcDbLine
 10
994.0264633476699
 20
678.9090655418918
 30
0.0
 11
991.4242073476698
 21
678.9090655418918
 31
0.0
  0
ARC
  5
1481
330
19
100
AcDbEntity
  8
SEIHIN
100
AcDbCircle
 10
1019.12420734767
 20
733.9120871418919
 30
0.0
 40
27.70000000000004
100
AcDbArc
 50
90.0
 51
180.0
  0
ARC
  5
1483
330
19
100
AcDbEntity
  8
SEIHIN
100
AcDbCircle
 10
1019.09753134767
 20
733.9387632418919
 30
0.0
 40
25.09764005459587
100
AcDbArc
 50
87.35292018828539
 51
182.6367747136973
  0
ARC
  5
1484
330
19
100
AcDbEntity
  8
SEIHIN
100
AcDbCircle
 10
991.9242073476699
 20
761.1120871418919
 30
0.0
 40
0.5
100
AcDbArc
 50
90.0
 51
180.0
  0
ARC
  5
1485
330
19
100
AcDbEntity
  8
SEIHIN
100
AcDbCircle
 10
991.9242073476699
 20
761.1120871418919
 30
0.0
 40
0.5
100
AcDbArc
 50
90.0
 51
180.0
  0
ARC
  5
1486
330
19
100
AcDbEntity
  8
SEIHIN
100
AcDbCircle
 10
1074.127229347669
 20
743.9120871418919
 30
0.0
 40
17.70000003070387
100
AcDbArc
 50
50.82633899959787
 51
90.0
  0
ARC
  5
1487
330
19
100
AcDbEntity
  8
SEIHIN
100
AcDbCircle
 10
1074.127229347669
 20
744.0098310418919
 30
0.0
 40
14.99999992221752
100
AcDbArc
 50
50.82634286307242
 51
90.0
  0
LINE
  5
1488
330
19
100
AcDbEntity
  8
SEIHIN
100
AcDbLine
 10
1074.127229347669
 20
759.009831041892
 30
0.0
 11
1074.127229347669
 21
761.6120871418919
 31
0.0
  0
LINE
  5
1489
330
19
100
AcDbEntity
  8
SEIHIN
100
AcDbLine
 10
1091.354671347669
 20
749.2238797418918
 30
0.0
 11
1093.06018834767
 21
751.3170135418919
 31
0.0
  0
LINE
  5
148B
330
19
100
AcDbEntity
  8
SEIHIN
100
AcDbLine
 10
1129.026463347669
 20
746.6766414418919
 30
0.0
 11
1169.026463347669
 21
746.6766414418919
 31
0.0
  0
ARC
  5
148C
330
19
100
AcDbEntity
  8
SEIHIN
100
AcDbCircle
 10
1138.031853347669
 20
934.009831041892
 30
0.0
 40
200.0000000290023
100
AcDbArc
 50
270.0
 51
273.4336306066643
  0
ARC
  5
148D
330
19
100
AcDbEntity
  8
SEIHIN
100
AcDbCircle
 10
1118.347800347669
 20
756.8979064418918
 30
0.0
 40
20.30000002654346
100
AcDbArc
 50
230.8263418188531
 51
270.0
  0
ARC
  5
148E
330
19
100
AcDbEntity
  8
SEIHIN
100
AcDbCircle
 10
1118.210438347669
 20
757.0098310418919
 30
0.0
 40
23.00000005176375
100
AcDbArc
 50
230.8263418435881
 51
270.0
  0
LINE
  5
148F
330
19
100
AcDbEntity
  8
SEIHIN
100
AcDbLine
 10
1125.02646334767
 20
739.1727621418919
 30
0.0
 11
1122.570277347669
 21
736.5979064418919
 31
0.0
  0
LINE
  5
1490
330
19
100
AcDbEntity
  8
SEIHIN
100
AcDbLine
 10
1125.02646334767
 20
741.8394782418919
 30
0.0
 11
1120.026463347669
 21
736.5979064418919
 31
0.0
  0
ARC
  5
1491
330
19
100
AcDbEntity
  8
SEIHIN
100
AcDbCircle
 10
1118.347800347669
 20
756.8979064418918
 30
0.0
 40
20.30000002654346
100
AcDbArc
 50
230.8263418188531
 51
270.0
  0
LINE
  5
1492
330
19
100
AcDbEntity
  8
SEIHIN
100
AcDbLine
 10
1129.026463347669
 20
746.6766414418919
 30
0.0
 11
1129.026463347669
 21
734.009831041892
 31
0.0
  0
LINE
  5
1493
330
19
100
AcDbEntity
  8
SEIHIN
100
AcDbLine
 10
1129.026463347669
 20
736.5979064418919
 30
0.0
 11
1118.347800347669
 21
736.5979064418919
 31
0.0
  0
LINE
  5
1494
330
19
100
AcDbEntity
  8
SEIHIN
100
AcDbLine
 10
1138.031853347669
 20
734.009831041892
 30
0.0
 11
1118.210438347669
 21
734.009831041892
 31
0.0
  0
LINE
  5
1495
330
19
100
AcDbEntity
  8
SEIHIN
100
AcDbLine
 10
1125.02646334767
 20
744.785627141892
 30
0.0
 11
1120.026463347669
 21
739.544055341892
 31
0.0
  0
ARC
  5
1496
330
19
100
AcDbEntity
  8
SEIHIN
100
AcDbCircle
 10
1118.829604347669
 20
756.3906645418919
 30
0.0
 40
12.66200003436456
100
AcDbArc
 50
230.8263417437228
 51
270.0
  0
LINE
  5
1497
330
19
100
AcDbEntity
  8
SEIHIN
100
AcDbLine
 10
1125.02646334767
 20
744.785627141892
 30
0.0
 11
1129.026463347669
 21
744.785627141892
 31
0.0
  0
LINE
  5
1498
330
19
100
AcDbEntity
  8
SEIHIN
100
AcDbLine
 10
1129.026463347669
 20
739.1727621418919
 30
0.0
 11
1125.02646334767
 21
739.1727621418919
 31
0.0
  0
LINE
  5
1499
330
19
100
AcDbEntity
  8
SEIHIN
100
AcDbLine
 10
1129.026463347669
 20
741.8394782418919
 30
0.0
 11
1125.02646334767
 21
741.8394782418919
 31
0.0
  0
LINE
  5
149A
330
19
100
AcDbEntity
  8
SEIHIN
100
AcDbLine
 10
1150.01031234767
 20
734.3688619418919
 30
0.0
 11
1169.026463347669
 21
735.5098310418919
 31
0.0
  0
LINE
  5
149B
330
19
100
AcDbEntity
  8
CENTER_L
 48
5.0
100
AcDbLine
 10
1179.026463347669
 20
806.0098310418918
 30
0.0
 11
940.02646334767
 21
806.0098310418918
 31
0.0
  0
LINE
  5
149C
330
19
100
AcDbEntity
  8
SEIHIN
100
AcDbLine
 10
1169.026463347669
 20
866.4840773418919
 30
0.0
 11
894.0522173476697
 21
866.4840773418919
 31
0.0
  0
LINE
  5
149D
330
19
100
AcDbEntity
  8
SEIHIN
100
AcDbLine
 10
1169.026463347669
 20
869.365642241892
 30
0.0
 11
891.1706523476699
 21
869.365642241892
 31
0.0
  0
LINE
  5
149E
330
19
100
AcDbEntity
  8
SEIHIN
100
AcDbLine
 10
1169.026463347669
 20
885.1122077418919
 30
0.0
 11
875.4240863476697
 21
885.1122077418919
 31
0.0
  0
LINE
  5
149F
330
19
100
AcDbEntity
  8
SEIHIN
100
AcDbLine
 10
1120.026463347669
 20
859.4098240418919
 30
0.0
 11
898.4264703476698
 21
859.4098240418919
 31
0.0
  0
ARC
  5
14A0
330
19
100
AcDbEntity
  8
SEIHIN
100
AcDbCircle
 10
875.4240863476697
 20
877.6122077418918
 30
0.0
 40
7.5
100
AcDbArc
 50
90.0
 51
180.0
  0
ARC
  5
14A1
330
19
100
AcDbEntity
  8
SEIHIN
100
AcDbCircle
 10
891.1706523476699
 20
861.8656422418919
 30
0.0
 40
7.5
100
AcDbArc
 50
90.0
 51
180.0
  0
ARC
  5
14A2
330
19
100
AcDbEntity
  8
SEIHIN
100
AcDbCircle
 10
894.0522173476697
 20
858.984077341892
 30
0.0
 40
7.5
100
AcDbArc
 50
90.0
 51
180.0
  0
ARC
  5
14A3
330
19
100
AcDbEntity
  8
SEIHIN
100
AcDbCircle
 10
898.4264703476698
 20
854.6098240418919
 30
0.0
 40
4.800000000000011
100
AcDbArc
 50
90.0
 51
180.0
  0
LINE
  5
14A4
330
19
100
AcDbEntity
  8
SEIHIN
100
AcDbLine
 10
1020.88126834767
 20
780.2929184418919
 30
0.0
 11
1064.143334347669
 21
780.2733037418919
 31
0.0
  0
ARC
  5
14A5
330
19
100
AcDbEntity
  8
SEIHIN
100
AcDbCircle
 10
1064.136533347669
 20
765.273305241892
 30
0.0
 40
14.99999994311081
100
AcDbArc
 50
50.82634286307309
 51
89.97402209275112
  0
LINE
  5
14A7
330
19
100
AcDbEntity
  8
SEIHIN
100
AcDbLine
 10
1125.02646334767
 20
816.009831041892
 30
0.0
 11
1125.02646334767
 21
866.4840773418919
 31
0.0
  0
ARC
  5
14A8
330
19
100
AcDbEntity
  8
SEIHIN
100
AcDbCircle
 10
1138.18360434767
 20
791.7893867418919
 30
0.0
 40
1.999999857595302
100
AcDbArc
 50
5.527149960424693
 51
80.53767732100615
  0
LINE
  5
14AA
330
19
100
AcDbEntity
  8
SEIHIN
100
AcDbLine
 10
1122.726463347669
 20
816.009831041892
 30
0.0
 11
1122.726463347669
 21
796.009831041892
 31
0.0
  0
LINE
  5
14AB
330
19
100
AcDbEntity
  8
SEIHIN
100
AcDbLine
 10
1124.845580347669
 20
816.009831041892
 30
0.0
 11
1124.845580347669
 21
796.009831041892
 31
0.0
  0
LINE
  5
14AC
330
19
100
AcDbEntity
  8
SEIHIN
100
AcDbLine
 10
1120.026463347669
 20
796.009831041892
 30
0.0
 11
1125.02646334767
 21
796.009831041892
 31
0.0
  0
LINE
  5
14AD
330
19
100
AcDbEntity
  8
SEIHIN
100
AcDbLine
 10
1125.02646334767
 20
796.009831041892
 30
0.0
 11
1138.51240234767
 21
793.762174641892
 31
0.0
  0
LINE
  5
14AE
330
19
100
AcDbEntity
  8
SEIHIN
100
AcDbLine
 10
1120.026463347669
 20
816.009831041892
 30
0.0
 11
1125.02646334767
 21
816.009831041892
 31
0.0
  0
LINE
  5
14AF
330
19
100
AcDbEntity
  8
SEIHIN
100
AcDbLine
 10
1128.35526131748
 20
816.5646306952021
 30
0.0
 11
1125.02646334767
 21
816.009831041892
 31
0.0
  0
LINE
  5
14B0
330
19
100
AcDbEntity
  8
SEIHIN
100
AcDbLine
 10
1129.026463347669
 20
855.0015734418918
 30
0.0
 11
1169.026463347669
 21
855.0015734418918
 31
0.0
  0
LINE
  5
14B1
330
19
100
AcDbEntity
  8
SEIHIN
100
AcDbLine
 10
1120.026463347669
 20
859.4098240418919
 30
0.0
 11
1125.02646334767
 21
856.091586841892
 31
0.0
  0
LINE
  5
14B2
330
19
100
AcDbEntity
  8
SEIHIN
100
AcDbLine
 10
1129.026463347669
 20
863.912899941892
 30
0.0
 11
1125.02646334767
 21
863.912899941892
 31
0.0
  0
LINE
  5
14B3
330
19
100
AcDbEntity
  8
SEIHIN
100
AcDbLine
 10
1129.026463347669
 20
856.091586841892
 30
0.0
 11
1125.02646334767
 21
856.091586841892
 31
0.0
  0
LINE
  5
14B4
330
19
100
AcDbEntity
  8
SEIHIN
100
AcDbLine
 10
1121.350129347669
 20
866.4840773418919
 30
0.0
 11
1125.02646334767
 21
863.912899941892
 31
0.0
  0
LINE
  5
14B5
330
19
100
AcDbEntity
  8
SEIHIN
100
AcDbLine
 10
1129.026463347669
 20
866.4840773418919
 30
0.0
 11
1129.026463347669
 21
855.0015734418918
 31
0.0
  0
LINE
  5
14B7
330
19
100
AcDbEntity
  8
SEIHIN
100
AcDbLine
 10
1012.087067347669
 20
339.9014685368992
 30
0.0
 11
1015.273288125231
 21
339.9014685368992
 31
0.0
  0
LINE
  5
14B8
330
19
100
AcDbEntity
  8
SEIHIN
100
AcDbLine
 10
1129.026463347669
 20
399.716261138134
 30
0.0
 11
1169.026463347669
 21
399.7162611381339
 31
0.0
  0
LINE
  5
14B9
330
19
100
AcDbEntity
  8
CENTER_L
 48
5.0
100
AcDbLine
 10
947.0264633476698
 20
280.2633031368993
 30
0.0
 11
947.0264633476697
 21
299.9633032208602
 31
0.0
  0
LINE
  5
14BD
330
19
100
AcDbEntity
  8
SEIHIN
100
AcDbLine
 10
438.2145711335988
 20
287.2633031368992
 30
0.0
 11
625.2176921335988
 21
287.2633031368992
 31
0.0
  0
LINE
  5
14BF
330
19
100
AcDbEntity
  8
SEIHIN
100
AcDbLine
 10
376.2546331335986
 20
403.8620693368992
 30
0.0
 11
660.2145711335988
 21
403.8620693368992
 31
0.0
  0
ARC
  5
14C2
330
19
100
AcDbEntity
  8
SEIHIN
100
AcDbCircle
 10
611.8121941335987
 20
316.0534145368992
 30
0.0
 40
252.6999998518838
100
AcDbArc
 50
159.9843839042785
 51
176.9999986233275
  0
ARC
  5
14CD
330
19
100
AcDbEntity
  8
SEIHIN
100
AcDbCircle
 10
438.2145711335988
 20
1289.768133136899
 30
0.0
 40
1002.504829963661
100
AcDbArc
 50
267.0171395889105
 51
270.0
  0
ARC
  5
14D3
330
19
100
AcDbEntity
  8
SEIHIN
100
AcDbCircle
 10
619.5373121335988
 20
377.4437743368993
 30
0.0
 40
252.6999996996064
100
AcDbArc
 50
195.0671327385118
 51
199.8292867442942
  0
ARC
  5
14DB
330
19
100
AcDbEntity
  8
SEIHIN
100
AcDbCircle
 10
386.2418521335987
 20
293.3175102368993
 30
0.0
 40
4.699999835283906
100
AcDbArc
 50
199.8292878464707
 51
267.6240188734556
  0
LINE
  5
14ED
330
19
100
AcDbEntity
  8
SEIHIN
100
AcDbLine
 10
358.5676681335987
 20
312.2804182368993
 30
0.0
 11
359.4585111335987
 21
329.2787167368992
 31
0.0
  0
ARC
  5
14F0
330
19
100
AcDbEntity
  8
SEIHIN
100
AcDbCircle
 10
359.0669831335988
 20
312.2542502368992
 30
0.0
 40
0.5000000808069761
100
AcDbArc
 50
176.9999988914423
 51
279.8335233173093
  0
ARC
  5
1568
330
19
100
AcDbEntity
  8
SEIHIN
100
AcDbCircle
 10
376.2546331335986
 20
401.8620693368992
 30
0.0
 40
2.000000125857134
100
AcDbArc
 50
90.0
 51
159.9843862866956
  0
LINE
  5
1578
330
19
100
AcDbEntity
  8
SEIHIN
100
AcDbLine
 10
660.2145711335988
 20
403.8620693368992
 30
0.0
 11
660.2145711335988
 21
288.7633031368992
 31
0.0
  0
ARC
  5
1579
330
19
100
AcDbEntity
  8
SEIHIN
100
AcDbCircle
 10
625.2176921335988
 20
487.2633031368992
 30
0.0
 40
199.9999999775241
100
AcDbArc
 50
270.0
 51
272.8624054020763
  0
LINE
  5
157A
330
19
100
AcDbEntity
  8
SEIHIN
100
AcDbLine
 10
635.2052161335986
 20
287.5128354368992
 30
0.0
 11
660.2145711335988
 21
288.7633031368992
 31
0.0
  0
LINE
  5
1585
330
19
100
AcDbEntity
  8
SEIHIN
100
AcDbLine
 10
359.0669831335988
 20
311.7542501560923
 30
0.0
 11
438.2145711335988
 21
311.7542501560922
 31
0.0
  0
LINE
  5
1586
330
19
100
AcDbEntity
  8
SEIHIN
100
AcDbLine
 10
438.2145711335986
 20
311.7542501560923
 30
0.0
 11
625.2176921335987
 21
311.7542501560923
 31
0.0
  0
LINE
  5
1587
330
19
100
AcDbEntity
  8
SEIHIN
100
AcDbLine
 10
635.2052161335985
 20
312.0037824560922
 30
0.0
 11
660.2145711335987
 21
313.2542501560923
 31
0.0
  0
ARC
  5
1588
330
19
100
AcDbEntity
  8
SEIHIN
100
AcDbCircle
 10
625.2176921335987
 20
511.7542501560923
 30
0.0
 40
199.9999999775241
100
AcDbArc
 50
270.0
 51
272.8624054020763
  0
DIMENSION
  5
1595
330
19
100
AcDbEntity
  8
SUNPOU
100
AcDbDimension
  2
*D1
 10
1063.50305415041
 20
287.2633031368992
 30
0.0
 11
1053.50305415041
 21
325.2133030900235
 31
0.0
 70
    32
  3
STANDARD
100
AcDbAlignedDimension
 13
1012.40367634767
 23
363.1633030431474
 33
0.0
 14
947.02646334767
 24
287.2633031368992
 34
0.0
 50
90.0
100
AcDbRotatedDimension
1001
ACAD
1000
DSTYLE
1002
{
1070
   372
1070
    -1
1070
   371
1070
    -1
1070
    41
1040
14.0
1070
    42
1040
12.0
1070
    43
1040
28.0
1070
    44
1040
6.0
1070
    73
1070
     0
1070
    74
1070
     0
1070
    77
1070
     3
1070
   140
1040
12.0
1070
   141
1040
150.0
1070
   143
1040
0.03937
1070
   147
1040
4.0
1070
   172
1070
     1
1070
   173
1070
     1
1070
   176
1070
   256
1070
   177
1070
   256
1070
   178
1070
   256
1070
   271
1070
     0
1070
   272
1070
     2
1070
     6
1000
OPEN
1070
     7
1000
OPEN
1002
}
  0
DIMENSION
  5
15AD
330
19
100
AcDbEntity
  8
SUNPOU
100
AcDbDimension
  2
*D2
 10
1104.937856991849
 20
287.2633031368992
 30
0.0
 11
1094.937856991849
 21
328.6133031368994
 31
0.0
 70
    32
  3
STANDARD
100
AcDbAlignedDimension
 13
1069.616532347669
 23
369.9633031368993
 33
0.0
 14
1069.50305415041
 24
287.2633031368992
 34
0.0
 50
90.0
100
AcDbRotatedDimension
1001
ACAD
1000
DSTYLE
1002
{
1070
   372
1070
    -1
1070
   371
1070
    -1
1070
    41
1040
14.0
1070
    42
1040
12.0
1070
    43
1040
28.0
1070
    44
1040
6.0
1070
    73
1070
     0
1070
    74
1070
     0
1070
    77
1070
     3
1070
   140
1040
12.0
1070
   141
1040
150.0
1070
   143
1040
0.03937
1070
   147
1040
4.0
1070
   172
1070
     1
1070
   173
1070
     1
1070
   176
1070
   256
1070
   177
1070
   256
1070
   178
1070
   256
1070
   271
1070
     0
1070
   272
1070
     2
1070
     6
1000
OPEN
1070
     7
1000
OPEN
1002
}
  0
DIMENSION
  5
15BA
330
19
100
AcDbEntity
  8
SUNPOU
100
AcDbDimension
  2
*D3
 10
788.2075735747211
 20
287.2633031368993
 30
0.0
 11
778.2075735747211
 21
345.5626862368994
 31
0.0
 70
    32
  3
STANDARD
100
AcDbAlignedDimension
 13
885.0665253476698
 23
403.8620693368992
 33
0.0
 14
947.02646334767
 24
287.2633031368992
 34
0.0
 50
90.0
100
AcDbRotatedDimension
1001
ACAD
1000
DSTYLE
1002
{
1070
   372
1070
    -1
1070
   371
1070
    -1
1070
    41
1040
14.0
1070
    42
1040
12.0
1070
    43
1040
28.0
1070
    44
1040
6.0
1070
    73
1070
     0
1070
    74
1070
     0
1070
    77
1070
     3
1070
   140
1040
12.0
1070
   141
1040
150.0
1070
   143
1040
0.03937
1070
   147
1040
4.0
1070
   172
1070
     1
1070
   173
1070
     1
1070
   176
1070
   256
1070
   177
1070
   256
1070
   178
1070
   256
1070
   271
1070
     0
1070
   272
1070
     2
1070
     6
1000
OPEN
1070
     7
1000
OPEN
1002
}
  0
DIMENSION
  5
15D4
330
19
100
AcDbEntity
  8
SUNPOU
100
AcDbDimension
  2
*D4
 10
1169.04646334767
 20
489.8583095499438
 30
0.0
 11
1018.22301184767
 21
499.8583095499439
 31
0.0
 70
    32
  3
STANDARD
100
AcDbAlignedDimension
 13
867.3995603476699
 23
312.2804182368992
 33
0.0
 14
1169.04646334767
 24
403.8620693368992
 34
0.0
100
AcDbRotatedDimension
1001
ACAD
1000
DSTYLE
1002
{
1070
   372
1070
    -1
1070
   371
1070
    -1
1070
    41
1040
14.0
1070
    42
1040
12.0
1070
    43
1040
28.0
1070
    44
1040
6.0
1070
    73
1070
     0
1070
    74
1070
     0
1070
    77
1070
     3
1070
   140
1040
12.0
1070
   141
1040
150.0
1070
   143
1040
0.03937
1070
   147
1040
4.0
1070
   172
1070
     1
1070
   173
1070
     1
1070
   176
1070
   256
1070
   177
1070
   256
1070
   178
1070
   256
1070
   271
1070
     0
1070
   272
1070
     2
1070
     6
1000
OPEN
1070
     7
1000
OPEN
1002
}
  0
DIMENSION
  5
15E7
330
19
100
AcDbEntity
  8
SUNPOU
100
AcDbDimension
  2
*D5
 10
1087.276715689601
 20
584.009831041892
 30
0.0
 11
1077.276715689601
 21
606.009831041892
 31
0.0
 70
    32
  1
※<>
  3
STANDARD
100
AcDbAlignedDimension
 13
1013.863532347669
 23
628.0098310418919
 33
0.0
 14
1017.526463347669
 24
584.009831041892
 34
0.0
 50
90.0
100
AcDbRotatedDimension
1001
ACAD
1000
DSTYLE
1002
{
1070
   372
1070
    -1
1070
   371
1070
    -1
1070
    41
1040
14.0
1070
    42
1040
12.0
1070
    43
1040
28.0
1070
    44
1040
6.0
1070
    73
1070
     0
1070
    74
1070
     0
1070
    77
1070
     3
1070
   140
1040
12.0
1070
   141
1040
150.0
1070
   143
1040
0.03937
1070
   147
1040
4.0
1070
   172
1070
     1
1070
   173
1070
     1
1070
   176
1070
   256
1070
   177
1070
   256
1070
   178
1070
   256
1070
   271
1070
     0
1070
   272
1070
     2
1070
     6
1000
OPEN
1070
     7
1000
OPEN
1002
}
  0
DIMENSION
  5
15F4
330
19
100
AcDbEntity
  8
SUNPOU
100
AcDbDimension
  2
*D6
 10
1124.348561346175
 20
643.009831665437
 30
0.0
 11
1114.348561346175
 21
613.5098313536645
 31
0.0
 70
    32
  3
STANDARD
100
AcDbAlignedDimension
 13
1017.526463347669
 23
584.009831041892
 33
0.0
 14
1019.026463347669
 24
643.009831665437
 34
0.0
 50
90.0
100
AcDbRotatedDimension
1001
ACAD
1000
DSTYLE
1002
{
1070
   372
1070
    -1
1070
   371
1070
    -1
1070
    41
1040
14.0
1070
    42
1040
12.0
1070
    43
1040
28.0
1070
    44
1040
6.0
1070
    73
1070
     0
1070
    74
1070
     0
1070
    77
1070
     3
1070
   140
1040
12.0
1070
   141
1040
150.0
1070
   143
1040
0.03937
1070
   147
1040
4.0
1070
   172
1070
     1
1070
   173
1070
     1
1070
   176
1070
   256
1070
   177
1070
   256
1070
   178
1070
   256
1070
   271
1070
     0
1070
   272
1070
     2
1070
     6
1000
OPEN
1070
     7
1000
OPEN
1002
}
  0
DIMENSION
  5
1605
330
19
100
AcDbEntity
  8
SUNPOU
100
AcDbDimension
  2
*D7
 10
1019.026463347669
 20
687.3672724874218
 30
0.0
 11
1061.02646334767
 21
697.3672724874218
 31
0.0
 70
    32
  3
STANDARD
100
AcDbAlignedDimension
 13
994.0264633476699
 23
678.9090655418918
 33
0.0
 14
1019.026463347669
 24
643.009831665437
 34
0.0
100
AcDbRotatedDimension
1001
ACAD
1000
DSTYLE
1002
{
1070
   372
1070
    -1
1070
   371
1070
    -1
1070
    41
1040
14.0
1070
    42
1040
12.0
1070
    43
1040
28.0
1070
    44
1040
6.0
1070
    73
1070
     0
1070
    74
1070
     0
1070
    77
1070
     3
1070
   140
1040
12.0
1070
   141
1040
150.0
1070
   143
1040
0.03937
1070
   147
1040
4.0
1070
   172
1070
     1
1070
   173
1070
     1
1070
   176
1070
   256
1070
   177
1070
   256
1070
   178
1070
   256
1070
   271
1070
     0
1070
   272
1070
     2
1070
     6
1000
OPEN
1070
     7
1000
OPEN
1002
}
  0
DIMENSION
  5
1612
330
19
100
AcDbEntity
  8
SUNPOU
100
AcDbDimension
  2
*D8
 10
1241.534782756608
 20
734.3688619708422
 30
0.0
 11
1231.534782756608
 21
809.7405348563672
 31
0.0
 70
    32
  3
STANDARD
100
AcDbAlignedDimension
 13
1169.026463347669
 23
885.1122077418919
 33
0.0
 14
1150.010312345932
 24
734.3688619708422
 34
0.0
 50
90.0
100
AcDbRotatedDimension
1001
ACAD
1000
DSTYLE
1002
{
1070
   372
1070
    -1
1070
   371
1070
    -1
1070
    41
1040
14.0
1070
    42
1040
12.0
1070
    43
1040
28.0
1070
    44
1040
6.0
1070
    73
1070
     0
1070
    74
1070
     0
1070
    77
1070
     3
1070
   140
1040
12.0
1070
   141
1040
150.0
1070
   143
1040
0.03937
1070
   147
1040
4.0
1070
   172
1070
     1
1070
   173
1070
     1
1070
   176
1070
   256
1070
   177
1070
   256
1070
   178
1070
   256
1070
   271
1070
     0
1070
   272
1070
     2
1070
     6
1000
OPEN
1070
     7
1000
OPEN
1002
}
  0
DIMENSION
  5
161F
330
19
100
AcDbEntity
  8
SUNPOU
100
AcDbDimension
  2
*D9
 10
1277.81421992989
 20
584.009831041892
 30
0.0
 11
1267.814219929889
 21
734.561019391892
 31
0.0
 70
    32
  3
STANDARD
100
AcDbAlignedDimension
 13
1169.026463347669
 23
885.1122077418919
 33
0.0
 14
1017.526463347669
 24
584.009831041892
 34
0.0
 50
90.0
100
AcDbRotatedDimension
1001
ACAD
1000
DSTYLE
1002
{
1070
   372
1070
    -1
1070
   371
1070
    -1
1070
    41
1040
14.0
1070
    42
1040
12.0
1070
    43
1040
28.0
1070
    44
1040
6.0
1070
    73
1070
     0
1070
    74
1070
     0
1070
    77
1070
     3
1070
   140
1040
12.0
1070
   141
1040
150.0
1070
   143
1040
0.03937
1070
   147
1040
4.0
1070
   172
1070
     1
1070
   173
1070
     1
1070
   176
1070
   256
1070
   177
1070
   256
1070
   178
1070
   256
1070
   271
1070
     0
1070
   272
1070
     2
1070
     6
1000
OPEN
1070
     7
1000
OPEN
1002
}
  0
DIMENSION
  5
162C
330
19
100
AcDbEntity
  8
SUNPOU
100
AcDbDimension
  2
*D10
 10
1018.899097347669
 20
456.8529685582056
 30
0.0
 11
943.1493288476698
 21
466.8529685582057
 31
0.0
 70
    32
  3
STANDARD
100
AcDbAlignedDimension
 13
867.3995603476699
 23
312.2804182368992
 33
0.0
 14
1018.899097347669
 24
357.9075390368992
 34
0.0
100
AcDbRotatedDimension
1001
ACAD
1000
DSTYLE
1002
{
1070
   372
1070
    -1
1070
   371
1070
    -1
1070
    41
1040
14.0
1070
    42
1040
12.0
1070
    43
1040
28.0
1070
    44
1040
6.0
1070
    73
1070
     0
1070
    74
1070
     0
1070
    77
1070
     3
1070
   140
1040
12.0
1070
   141
1040
150.0
1070
   143
1040
0.03937
1070
   147
1040
4.0
1070
   172
1070
     1
1070
   173
1070
     1
1070
   176
1070
   256
1070
   177
1070
   256
1070
   178
1070
   256
1070
   271
1070
     0
1070
   272
1070
     2
1070
     6
1000
OPEN
1070
     7
1000
OPEN
1002
}
  0
LINE
  5
1661
330
19
100
AcDbEntity
  8
SEIHIN
100
AcDbLine
 10
937.9058645506455
 20
315.753543612209
 30
0.0
 11
989.003662286049
 21
315.7535436122091
 31
0.0
  0
ARC
  5
1662
330
19
100
AcDbEntity
  8
SEIHIN
100
AcDbCircle
 10
937.9058645506455
 20
1318.258373612209
 30
0.0
 40
1002.504829963661
100
AcDbArc
 50
267.2860369957667
 51
270.5212733258158
  0
LINE
  5
1664
330
19
100
AcDbEntity
  8
SEIHIN
100
AcDbLine
 10
1079.344645334319
 20
360.5725492900814
 30
0.0
 11
1079.344645334319
 21
290.3375838842016
 31
0.0
  0
LINE
  5
1669
330
19
100
AcDbEntity
  8
SEIHIN
100
AcDbLine
 10
1110.02646371061
 20
351.1026636226384
 30
0.0
 11
1110.02646371061
 21
290.3375838842016
 31
0.0
  0
ARC
  5
166E
330
19
100
AcDbEntity
  8
SEIHIN
100
AcDbCircle
 10
968.6931385314888
 20
310.2028451565237
 30
0.0
 40
20.0
100
AcDbArc
 50
310.3706921052632
 51
357.0678787763308
  0
LINE
  5
1945
330
19
100
AcDbEntity
  8
SEIHIN
100
AcDbLine
 10
934.498875920819
 20
623.009831041892
 30
0.0
 11
898.0347213476697
 21
623.0098310418919
 31
0.0
  0
ARC
  5
1947
330
19
100
AcDbEntity
  8
SEIHIN
100
AcDbCircle
 10
934.498875920819
 20
625.0098310418921
 30
0.0
 40
2.0
100
AcDbArc
 50
270.0
 51
350.5376791861289
  0
LINE
  5
1948
330
19
100
AcDbEntity
  8
SEIHIN
100
AcDbLine
 10
1130.02646334767
 20
818.5374185436664
 30
0.0
 11
1130.026463347669
 21
855.0015734418918
 31
0.0
  0
ARC
  5
1949
330
19
100
AcDbEntity
  8
SEIHIN
100
AcDbCircle
 10
1128.02646334767
 20
818.5374185436664
 30
0.0
 40
2.0
100
AcDbArc
 50
279.4623220686101
 51
0.0
  0
LINE
  5
1A7C
330
19
100
AcDbEntity
  8
ZUWAKU
100
AcDbLine
 10
417.293202593692
 20
30.39999986828876
 30
0.0
 11
894.8487279555388
 21
30.39999986828874
 31
0.0
  0
LINE
  5
1A7D
330
19
100
AcDbEntity
  8
ZUWAKU
100
AcDbLine
 10
417.293202593692
 20
31.19999986828875
 30
0.0
 11
894.8487279555388
 21
31.19999986828876
 31
0.0
  0
LINE
  5
1A7E
330
19
100
AcDbEntity
  8
ZUWAKU
100
AcDbLine
 10
417.293202593692
 20
30.79999986828875
 30
0.0
 11
894.8487279555388
 21
30.79999986828875
 31
0.0
  0
LINE
  5
1A7F
330
19
100
AcDbEntity
  8
ZUWAKU
100
AcDbLine
 10
0.0000000135560185
 20
61.59999986828871
 30
0.0
 11
1594.800000013555
 21
61.59999986828871
 31
0.0
  0
LINE
  5
1A80
330
19
100
AcDbEntity
  8
ZUWAKU
100
AcDbLine
 10
0.0000000135560185
 20
61.1999998682887
 30
0.0
 11
1594.800000013555
 21
61.1999998682887
 31
0.0
  0
LINE
  5
1A81
330
19
100
AcDbEntity
  8
ZUWAKU
100
AcDbLine
 10
0.0000000135560185
 20
60.7999998682887
 30
0.0
 11
1594.800000013555
 21
60.7999998682887
 31
0.0
  0
LINE
  5
1A82
330
19
100
AcDbEntity
  8
ZUWAKU
100
AcDbLine
 10
0.0000000135560185
 20
60.39999986828869
 30
0.0
 11
1594.800000013555
 21
60.39999986828869
 31
0.0
  0
LINE
  5
1A83
330
19
100
AcDbEntity
  8
ZUWAKU
100
AcDbLine
 10
0.0000000135560185
 20
59.99999986828868
 30
0.0
 11
1594.800000013555
 21
59.99999986828868
 31
0.0
  0
LWPOLYLINE
  5
1A84
330
19
100
AcDbEntity
  8
ZUWAKU
100
AcDbPolyline
 90
        4
 70
     1
 43
0.0
 10
0.4000000135558821
 20
1102.799999868289
 10
0.4000000135558821
 20
0.3999998682887735
 10
1594.800000013555
 20
0.3999998682888197
 10
1594.800000013556
 20
1102.799999868289
  0
LWPOLYLINE
  5
1A85
330
19
100
AcDbEntity
  8
ZUWAKU
100
AcDbPolyline
 90
        4
 70
     1
 43
0.0
 10
1.200000013555836
 20
1101.999999868288
 10
1.200000013555836
 20
1.199999868288728
 10
1594.000000013556
 20
1.19999986828882
 10
1594.000000013556
 20
1101.999999868288
  0
LWPOLYLINE
  5
1A86
330
19
100
AcDbEntity
  8
ZUWAKU
100
AcDbPolyline
 90
        4
 70
     1
 43
0.0
 10
0.0000000135560185
 20
1103.199999868288
 10
0.0000000135560185
 20
-0.0000001317113174
 10
1595.200000013556
 20
-0.0000001317111824
 10
1595.200000013556
 20
1103.199999868289
  0
LWPOLYLINE
  5
1A87
330
19
100
AcDbEntity
  8
ZUWAKU
100
AcDbPolyline
 90
        4
 70
     1
 43
0.0
 10
0.800000013555973
 20
1102.399999868288
 10
0.800000013555973
 20
0.7999998682888645
 10
1594.400000013556
 20
0.7999998682888183
 10
1594.400000013556
 20
1102.399999868288
  0
LWPOLYLINE
  5
1A88
330
19
100
AcDbEntity
  8
ZUWAKU
100
AcDbPolyline
 90
        4
 70
     1
 43
0.0
 10
1.600000013555927
 20
1101.599999868288
 10
1.600000013555927
 20
1.599999868288819
 10
1593.600000013555
 20
1.599999868288819
 10
1593.600000013555
 20
1101.599999868288
  0
TEXT
  5
1A89
330
19
100
AcDbEntity
  8
MOJI
100
AcDbText
 10
185.9155791898943
 20
25.4823561288382
 30
0.0
 40
12.0
  1
アートフェイスＴ１２０
 41
0.9
  7
ｽﾀｲﾙ1
100
AcDbText
  0
HATCH
  5
1A8A
330
19
100
AcDbEntity
  8
ZUWAKU
100
AcDbHatch
 10
0.0
 20
0.0
 30
0.0
210
0.0
220
0.0
230
1.0
  2
ANSI37
 70
     0
 71
     0
 91
        8
 92
        7
 72
     1
 73
     1
 93
       24
 10
29.00452533579573
 20
35.28969683025585
 42
-0.1989123673796348
 10
28.18442432311826
 20
37.26959581757795
 42
0.0
 10
28.18442432311826
 20
39.8499998682887
 42
-0.4142135623730912
 10
29.23442432311821
 20
40.89999986828869
 42
0.0
 10
35.18442432311803
 20
40.89999986828869
 42
0.4142135623731546
 10
36.23442432311822
 20
41.94999986828867
 42
0.0
 10
36.23442432311822
 20
45.44999986828869
 42
0.4142135623731586
 10
35.18442432311803
 20
46.49999986828869
 42
0.0
 10
28.18442432311826
 20
46.49999986828869
 42
0.4142135623730928
 10
22.58442432311835
 20
40.89999986828874
 42
0.0
 10
22.58442432311835
 20
37.2695958175782
 42
0.1989123673796619
 10
25.04472736115122
 20
31.32989885561099
 42
0.0
 10
30.86432331044056
 20
25.51030290632168
 42
-0.1989123673796613
 10
31.68442432311826
 20
23.5304039189993
 42
0.0
 10
31.68442432311826
 20
20.94999986828867
 42
-0.4142135623730911
 10
30.6344243231183
 20
19.89999986828868
 42
0.0
 10
24.68442432311849
 20
19.89999986828868
 42
0.4142135623731526
 10
23.63442432311831
 20
18.84999986828871
 42
0.0
 10
23.63442432311831
 20
15.34999986828867
 42
0.4142135623731526
 10
24.68442432311849
 20
14.29999986828869
 42
0.0
 10
31.68442432311826
 20
14.29999986828869
 42
0.4142135623731044
 10
37.2844243231184
 20
19.89999986828864
 42
0.0
 10
37.2844243231184
 20
23.53040391899919
 42
0.1989123673796604
 10
34.82412128508531
 20
29.47010088096627
 42
0.0
 97
        0
 92
        7
 72
     1
 73
     1
 93
       16
 10
47.08442432311835
 20
38.0999998682887
 42
-0.4142135623730935
 10
49.88442432311831
 20
40.89999986828869
 42
0.0
 10
53.73442432311822
 20
40.89999986828869
 42
0.4142135623731546
 10
54.7844243231184
 20
41.94999986828867
 42
0.0
 10
54.7844243231184
 20
45.44999986828869
 42
0.4142135623730951
 10
53.73442432311844
 20
46.49999986828869
 42
0.0
 10
49.88442432311808
 20
46.49999986828861
 42
0.4142135623730892
 10
41.48442432311822
 20
38.09999986828856
 42
0.0
 10
41.48442432311822
 20
22.69999986828874
 42
0.4142135623730969
 10
49.88442432311831
 20
14.29999986828869
 42
0.0
 10
53.73442432311822
 20
14.29999986828869
 42
0.4142135623731526
 10
54.7844243231184
 20
15.34999986828867
 42
0.0
 10
54.7844243231184
 20
18.84999986828871
 42
0.4142135623730891
 10
53.73442432311844
 20
19.89999986828868
 42
0.0
 10
49.88442432311831
 20
19.89999986828868
 42
-0.4142135623730928
 10
47.08442432311835
 20
22.69999986828866
 42
0.0
 97
        0
 92
        7
 72
     1
 73
     1
 93
        2
 10
48.48442432311822
 20
30.39999986828869
 42
1.0
 10
55.48442432311822
 20
30.39999986828869
 42
1.0
 97
        0
 92
        7
 72
     1
 73
     1
 93
       26
 10
74.62971728747425
 20
38.41009425541554
 42
0.0
 10
76.75299655374988
 20
45.13381193195472
 42
0.5069206636600134
 10
75.75173475535916
 20
46.49999986828869
 42
0.0
 10
72.35395599614071
 20
46.49999986828869
 42
0.3272098845218764
 10
71.35269419774999
 20
45.76618780462263
 42
0.0
 10
67.61615444848644
 20
33.93381193195485
 42
-0.3272098845219541
 10
66.61489265009549
 20
33.19999986828868
 42
0.0
 10
66.33442432311858
 20
33.19999986828868
 42
-0.4142135623731526
 10
65.2844243231184
 20
34.24999986828866
 42
0.0
 10
65.2844243231184
 20
45.44999986828869
 42
0.4142135623730951
 10
64.23442432311844
 20
46.49999986828869
 42
0.0
 10
60.73442432311821
 20
46.49999986828869
 42
0.4142135623730871
 10
59.68442432311826
 20
45.44999986828872
 42
0.0
 10
59.68442432311826
 20
15.34999986828867
 42
0.4142135623730891
 10
60.73442432311821
 20
14.29999986828869
 42
0.0
 10
64.23442432311822
 20
14.29999986828869
 42
0.4142135623731526
 10
65.2844243231184
 20
15.34999986828867
 42
0.0
 10
65.2844243231184
 20
26.54999986828871
 42
-0.4142135623731526
 10
66.33442432311858
 20
27.59999986828869
 42
0.0
 10
66.61489265009572
 20
27.59999986828869
 42
-0.3272098845218915
 10
67.61615444848644
 20
26.86618780462254
 42
0.0
 10
71.35269419774999
 20
15.03381193195483
 42
0.3272098845218902
 10
72.35395599614071
 20
14.29999986828869
 42
0.0
 10
75.75173475535916
 20
14.29999986828869
 42
0.5069206636600335
 10
76.75299655374988
 20
15.6661878046227
 42
0.0
 10
72.10021379680256
 20
30.39999986828896
 42
0.0
 97
        0
 92
        7
 72
     1
 73
     1
 93
        8
 10
86.98442432311821
 20
45.44999986828871
 42
0.4142135623731546
 10
85.93442432311803
 20
46.49999986828869
 42
0.0
 10
82.4344243231185
 20
46.49999986828869
 42
0.4142135623731507
 10
81.38442432311832
 20
45.44999986828872
 42
0.0
 10
81.38442432311832
 20
15.34999986828867
 42
0.4142135623731526
 10
82.4344243231185
 20
14.29999986828869
 42
0.0
 10
85.93442432311803
 20
14.29999986828869
 42
0.4142135623731526
 10
86.98442432311821
 20
15.34999986828867
 42
0.0
 97
        0
 92
        7
 72
     1
 73
     1
 93
       24
 10
96.7844243231184
 20
39.8499998682887
 42
-0.4142135623731546
 10
97.83442432311858
 20
40.89999986828869
 42
0.0
 10
103.7844243231184
 20
40.89999986828869
 42
0.4142135623730911
 10
104.8344243231183
 20
41.94999986828867
 42
0.0
 10
104.8344243231183
 20
45.44999986828869
 42
0.4142135623730952
 10
103.7844243231184
 20
46.49999986828869
 42
0.0
 10
96.7844243231184
 20
46.49999986828869
 42
0.4142135623731048
 10
91.18442432311827
 20
40.89999986828874
 42
0.0
 10
91.18442432311827
 20
37.2695958175782
 42
0.1989123673796613
 10
93.64472736115136
 20
31.3298988556111
 42
0.0
 10
99.46432331044071
 20
25.51030290632176
 42
-0.1989123673796402
 10
100.2844243231183
 20
23.53040391899962
 42
0.0
 10
100.2844243231183
 20
20.94999986828867
 42
-0.4142135623730911
 10
99.23442432311844
 20
19.89999986828868
 42
0.0
 10
93.2844243231184
 20
19.89999986828868
 42
0.4142135623731526
 10
92.23442432311822
 20
18.84999986828871
 42
0.0
 10
92.23442432311822
 20
15.34999986828867
 42
0.4142135623730891
 10
93.28442432311817
 20
14.29999986828869
 42
0.0
 10
100.2844243231183
 20
14.29999986828869
 42
0.4142135623730925
 10
105.8844243231183
 20
19.89999986828864
 42
0.0
 10
105.8844243231183
 20
23.53040391899919
 42
0.1989123673796675
 10
103.4241212850852
 20
29.4701008809665
 42
0.0
 10
97.60452533579609
 20
35.28969683025553
 42
-0.1989123673796652
 10
96.7844243231184
 20
37.26959581757786
 42
0.0
 97
        0
 92
        7
 72
     1
 73
     1
 93
       16
 10
115.6844243231182
 20
45.44999986828867
 42
0.414213562373103
 10
114.6344243231183
 20
46.49999986828869
 42
0.0
 10
111.1344243231183
 20
46.49999986828869
 42
0.4142135623730871
 10
110.0844243231183
 20
45.44999986828872
 42
0.0
 10
110.0844243231183
 20
19.89999986828864
 42
0.4142135623730926
 10
115.6844243231182
 20
14.29999986828869
 42
0.0
 10
122.6844243231182
 20
14.29999986828869
 42
0.4142135623731044
 10
128.2844243231183
 20
19.89999986828864
 42
0.0
 10
128.2844243231183
 20
45.44999986828869
 42
0.4142135623730951
 10
127.2344243231184
 20
46.49999986828869
 42
0.0
 10
123.7344243231182
 20
46.49999986828869
 42
0.4142135623730871
 10
122.6844243231182
 20
45.44999986828872
 42
0.0
 10
122.6844243231182
 20
21.99999986828863
 42
-0.414213562373088
 10
120.5844243231183
 20
19.89999986828868
 42
0.0
 10
117.7844243231183
 20
19.89999986828868
 42
-0.4142135623731197
 10
115.6844243231182
 20
21.99999986828863
 42
0.0
 97
        0
 92
        7
 72
     1
 73
     1
 93
        8
 10
138.0844243231183
 20
45.44999986828872
 42
0.4142135623730871
 10
137.0344243231184
 20
46.49999986828869
 42
0.0
 10
133.5344243231183
 20
46.49999986828869
 42
0.4142135623731507
 10
132.4844243231182
 20
45.44999986828872
 42
0.0
 10
132.4844243231182
 20
15.34999986828867
 42
0.4142135623730891
 10
133.5344243231181
 20
14.29999986828869
 42
0.0
 10
137.0344243231184
 20
14.29999986828869
 42
0.4142135623730891
 10
138.0844243231183
 20
15.34999986828867
 42
0.0
 97
        0
 75
     0
 76
     1
 52
0.0
 41
0.4
 77
     0
 78
     2
 53
45.0
 43
-1801.884608655802
 44
-26.40000013171118
 45
-0.8980256121069151
 46
0.8980256121069153
 79
     0
 53
135.0
 43
-1801.884608655802
 44
-26.40000013171118
 45
-0.8980256121069153
 46
-0.8980256121069151
 79
     0
 47
0.057451373970553
 98
        8
 10
32.15970993960263
 20
30.33434716005979
 10
44.80903002643436
 20
37.6881242331907
 10
50.32873578487533
 20
31.02376316043012
 10
61.82811997683029
 20
32.40259516117169
 10
83.67694405146949
 20
33.32181969625492
 10
93.79640180381512
 20
38.8371525011031
 10
113.1153719583567
 20
37.45831569847871
 10
135.6541592528014
 20
38.37754023356194
  0
LINE
  5
1A8B
330
19
100
AcDbEntity
  8
ZUWAKU
100
AcDbLine
 10
49.88442432311831
 20
46.49999986828861
 30
0.0
 11
53.73442432311822
 21
46.49999986828869
 31
0.0
  0
LINE
  5
1A8C
330
19
100
AcDbEntity
  8
ZUWAKU
100
AcDbLine
 10
53.73442432311822
 20
40.89999986828869
 30
0.0
 11
49.88442432311831
 21
40.89999986828869
 31
0.0
  0
LINE
  5
1A8D
330
19
100
AcDbEntity
  8
ZUWAKU
100
AcDbLine
 10
49.88442432311831
 20
19.89999986828868
 30
0.0
 11
53.73442432311822
 21
19.89999986828868
 31
0.0
  0
LINE
  5
1A8E
330
19
100
AcDbEntity
  8
ZUWAKU
100
AcDbLine
 10
53.73442432311822
 20
14.29999986828869
 30
0.0
 11
49.88442432311831
 21
14.29999986828869
 31
0.0
  0
CIRCLE
  5
1A8F
330
19
100
AcDbEntity
  8
ZUWAKU
100
AcDbCircle
 10
51.98442432311821
 20
30.39999986828869
 30
0.0
 40
3.5
  0
ARC
  5
1A90
330
19
100
AcDbEntity
  8
ZUWAKU
100
AcDbCircle
 10
30.98442432311822
 20
37.26959581757809
 30
0.0
 40
2.799999999999999
100
AcDbArc
 50
180.0000000000016
 51
224.9999999999988
  0
LINE
  5
1A91
330
19
100
AcDbEntity
  8
ZUWAKU
100
AcDbLine
 10
47.08442432311835
 20
38.09999986828869
 30
0.0
 11
47.08442432311835
 21
22.6999998682887
 31
0.0
  0
LINE
  5
1A92
330
19
100
AcDbEntity
  8
ZUWAKU
100
AcDbLine
 10
41.48442432311822
 20
22.6999998682887
 30
0.0
 11
41.48442432311822
 21
38.0999998682886
 31
0.0
  0
ARC
  5
1A93
330
19
100
AcDbEntity
  8
ZUWAKU
100
AcDbCircle
 10
30.98442432311822
 20
37.26959581757809
 30
0.0
 40
8.399999999999998
100
AcDbArc
 50
180.0
 51
225.0
  0
ARC
  5
1A94
330
19
100
AcDbEntity
  8
ZUWAKU
100
AcDbCircle
 10
31.68442432311826
 20
19.89999986828868
 30
0.0
 40
5.599999999999999
100
AcDbArc
 50
270.0
 51
0.0
  0
ARC
  5
1A95
330
19
100
AcDbEntity
  8
ZUWAKU
100
AcDbCircle
 10
49.88442432311831
 20
22.6999998682887
 30
0.0
 40
8.399999999999998
100
AcDbArc
 50
180.0
 51
270.0
  0
ARC
  5
1A96
330
19
100
AcDbEntity
  8
ZUWAKU
100
AcDbCircle
 10
28.88442432311831
 20
23.53040391899929
 30
0.0
 40
8.399999999999998
100
AcDbArc
 50
0.0
 51
45.0
  0
LINE
  5
1A97
330
19
100
AcDbEntity
  8
ZUWAKU
100
AcDbLine
 10
34.82412128508531
 20
29.47010088096634
 30
0.0
 11
29.00452533579596
 21
35.28969683025569
 31
0.0
  0
LINE
  5
1A98
330
19
100
AcDbEntity
  8
ZUWAKU
100
AcDbLine
 10
31.68442432311826
 20
20.9499998682887
 30
0.0
 11
31.68442432311826
 21
23.53040391899938
 31
0.0
  0
ARC
  5
1A99
330
19
100
AcDbEntity
  8
ZUWAKU
100
AcDbCircle
 10
30.6344243231183
 20
20.9499998682887
 30
0.0
 40
1.049999999999999
100
AcDbArc
 50
270.0
 51
0.0
  0
ARC
  5
1A9A
330
19
100
AcDbEntity
  8
ZUWAKU
100
AcDbCircle
 10
28.88442432311831
 20
23.53040391899938
 30
0.0
 40
2.799999999999999
100
AcDbArc
 50
0.0
 51
45.0
  0
LINE
  5
1A9B
330
19
100
AcDbEntity
  8
ZUWAKU
100
AcDbLine
 10
23.63442432311831
 20
15.34999986828869
 30
0.0
 11
23.63442432311831
 21
18.84999986828869
 31
0.0
  0
ARC
  5
1A9C
330
19
100
AcDbEntity
  8
ZUWAKU
100
AcDbCircle
 10
24.68442432311826
 20
15.34999986828869
 30
0.0
 40
1.049999999999999
100
AcDbArc
 50
180.0
 51
270.0
  0
ARC
  5
1A9D
330
19
100
AcDbEntity
  8
ZUWAKU
100
AcDbCircle
 10
24.68442432311826
 20
18.84999986828869
 30
0.0
 40
1.049999999999999
100
AcDbArc
 50
90.0
 51
180.0
  0
LINE
  5
1A9E
330
19
100
AcDbEntity
  8
ZUWAKU
100
AcDbLine
 10
24.68442432311826
 20
14.29999986828869
 30
0.0
 11
31.68442432311826
 21
14.29999986828869
 31
0.0
  0
LINE
  5
1A9F
330
19
100
AcDbEntity
  8
ZUWAKU
100
AcDbLine
 10
24.68442432311826
 20
19.89999986828868
 30
0.0
 11
30.6344243231183
 21
19.89999986828868
 31
0.0
  0
LINE
  5
1AA0
330
19
100
AcDbEntity
  8
ZUWAKU
100
AcDbLine
 10
25.04472736115122
 20
31.32989885561105
 30
0.0
 11
30.86432331044056
 21
25.51030290632172
 31
0.0
  0
LINE
  5
1AA1
330
19
100
AcDbEntity
  8
ZUWAKU
100
AcDbLine
 10
37.2844243231184
 20
19.89999986828868
 30
0.0
 11
37.2844243231184
 21
23.53040391899938
 31
0.0
  0
ARC
  5
1AA2
330
19
100
AcDbEntity
  8
ZUWAKU
100
AcDbCircle
 10
49.88442432311831
 20
22.6999998682887
 30
0.0
 40
2.799999999999999
100
AcDbArc
 50
180.0
 51
270.0
  0
ARC
  5
1AA3
330
19
100
AcDbEntity
  8
ZUWAKU
100
AcDbCircle
 10
35.18442432311826
 20
45.44999986828869
 30
0.0
 40
1.049999999999999
100
AcDbArc
 50
0.0
 51
90.0
  0
ARC
  5
1AA4
330
19
100
AcDbEntity
  8
ZUWAKU
100
AcDbCircle
 10
35.18442432311826
 20
41.94999986828868
 30
0.0
 40
1.049999999999999
100
AcDbArc
 50
270.0
 51
0.0
  0
LINE
  5
1AA5
330
19
100
AcDbEntity
  8
ZUWAKU
100
AcDbLine
 10
28.18442432311826
 20
46.49999986828869
 30
0.0
 11
35.18442432311826
 21
46.49999986828869
 31
0.0
  0
ARC
  5
1AA6
330
19
100
AcDbEntity
  8
ZUWAKU
100
AcDbCircle
 10
29.23442432311821
 20
39.84999986828869
 30
0.0
 40
1.049999999999999
100
AcDbArc
 50
90.0
 51
180.0
  0
LINE
  5
1AA7
330
19
100
AcDbEntity
  8
ZUWAKU
100
AcDbLine
 10
28.18442432311826
 20
39.84999986828869
 30
0.0
 11
28.18442432311826
 21
37.269595817578
 31
0.0
  0
LINE
  5
1AA8
330
19
100
AcDbEntity
  8
ZUWAKU
100
AcDbLine
 10
35.18442432311826
 20
40.89999986828869
 30
0.0
 11
29.23442432311821
 21
40.89999986828869
 31
0.0
  0
LINE
  5
1AA9
330
19
100
AcDbEntity
  8
ZUWAKU
100
AcDbLine
 10
22.58442432311835
 20
40.89999986828869
 30
0.0
 11
22.58442432311835
 21
37.269595817578
 31
0.0
  0
ARC
  5
1AAA
330
19
100
AcDbEntity
  8
ZUWAKU
100
AcDbCircle
 10
28.18442432311826
 20
40.89999986828869
 30
0.0
 40
5.599999999999999
100
AcDbArc
 50
90.0
 51
180.0
  0
LINE
  5
1AAB
330
19
100
AcDbEntity
  8
ZUWAKU
100
AcDbLine
 10
36.23442432311822
 20
45.44999986828869
 30
0.0
 11
36.23442432311822
 21
41.94999986828868
 31
0.0
  0
ARC
  5
1AAC
330
19
100
AcDbEntity
  8
ZUWAKU
100
AcDbCircle
 10
49.88442432311831
 20
38.09999986828869
 30
0.0
 40
2.799999999999999
100
AcDbArc
 50
90.0
 51
180.0
  0
ARC
  5
1AAD
330
19
100
AcDbEntity
  8
ZUWAKU
100
AcDbCircle
 10
49.88442432311831
 20
38.0999998682886
 30
0.0
 40
8.399999999999998
100
AcDbArc
 50
90.0
 51
180.0
  0
LINE
  5
1AAE
330
19
100
AcDbEntity
  8
ZUWAKU
100
AcDbLine
 10
158.6532591095324
 20
59.99999986828868
 30
0.0
 11
158.6532591095329
 21
1.599999868288819
 31
0.0
  0
LINE
  5
1AAF
330
19
100
AcDbEntity
  8
ZUWAKU
100
AcDbLine
 10
159.0532591095325
 20
59.99999986828868
 30
0.0
 11
159.0532591095329
 21
1.599999868288819
 31
0.0
  0
LINE
  5
1AB0
330
19
100
AcDbEntity
  8
ZUWAKU
100
AcDbLine
 10
158.2532591095327
 20
59.99999986828868
 30
0.0
 11
158.2532591095327
 21
1.599999868288819
 31
0.0
  0
LINE
  5
1AB1
330
19
100
AcDbEntity
  8
ZUWAKU
100
AcDbLine
 10
128.2844243231183
 20
19.89999986828868
 30
0.0
 11
128.2844243231183
 21
45.44999986828869
 31
0.0
  0
LINE
  5
1AB2
330
19
100
AcDbEntity
  8
ZUWAKU
100
AcDbLine
 10
122.6844243231182
 20
45.44999986828869
 30
0.0
 11
122.6844243231182
 21
21.99999986828868
 31
0.0
  0
LINE
  5
1AB3
330
19
100
AcDbEntity
  8
ZUWAKU
100
AcDbLine
 10
138.0844243231183
 20
15.34999986828869
 30
0.0
 11
138.0844243231183
 21
45.44999986828869
 31
0.0
  0
LINE
  5
1AB4
330
19
100
AcDbEntity
  8
ZUWAKU
100
AcDbLine
 10
132.4844243231182
 20
45.44999986828869
 30
0.0
 11
132.4844243231182
 21
15.34999986828869
 31
0.0
  0
ARC
  5
1AB5
330
19
100
AcDbEntity
  8
ZUWAKU
100
AcDbCircle
 10
99.58442432311835
 20
37.26959581757809
 30
0.0
 40
2.799999999999999
100
AcDbArc
 50
180.0000000000016
 51
224.9999999999988
  0
ARC
  5
1AB6
330
19
100
AcDbEntity
  8
ZUWAKU
100
AcDbCircle
 10
99.58442432311835
 20
37.26959581757809
 30
0.0
 40
8.399999999999998
100
AcDbArc
 50
180.0
 51
225.0
  0
LINE
  5
1AB7
330
19
100
AcDbEntity
  8
ZUWAKU
100
AcDbLine
 10
74.62971728747425
 20
38.41009425541554
 30
0.0
 11
72.10021379680256
 21
30.39999986828873
 31
0.0
  0
LINE
  5
1AB8
330
19
100
AcDbEntity
  8
ZUWAKU
100
AcDbLine
 10
81.38442432311832
 20
45.44999986828869
 30
0.0
 11
81.38442432311832
 21
15.34999986828869
 31
0.0
  0
LINE
  5
1AB9
330
19
100
AcDbEntity
  8
ZUWAKU
100
AcDbLine
 10
86.98442432311821
 20
15.34999986828869
 30
0.0
 11
86.98442432311821
 21
45.44999986828869
 31
0.0
  0
LINE
  5
1ABA
330
19
100
AcDbEntity
  8
ZUWAKU
100
AcDbLine
 10
110.0844243231183
 20
45.44999986828869
 30
0.0
 11
110.0844243231183
 21
19.89999986828868
 31
0.0
  0
LINE
  5
1ABB
330
19
100
AcDbEntity
  8
ZUWAKU
100
AcDbLine
 10
115.6844243231182
 20
21.99999986828868
 30
0.0
 11
115.6844243231182
 21
45.44999986828869
 31
0.0
  0
LINE
  5
1ABC
330
19
100
AcDbEntity
  8
ZUWAKU
100
AcDbLine
 10
65.2844243231184
 20
34.24999986828869
 30
0.0
 11
65.2844243231184
 21
45.44999986828869
 31
0.0
  0
LINE
  5
1ABD
330
19
100
AcDbEntity
  8
ZUWAKU
100
AcDbLine
 10
59.68442432311826
 20
45.44999986828869
 30
0.0
 11
59.68442432311826
 21
15.34999986828869
 31
0.0
  0
LINE
  5
1ABE
330
19
100
AcDbEntity
  8
ZUWAKU
100
AcDbLine
 10
71.35269419774999
 20
45.76618780462263
 30
0.0
 11
67.61615444848644
 21
33.93381193195475
 31
0.0
  0
LINE
  5
1ABF
330
19
100
AcDbEntity
  8
ZUWAKU
100
AcDbLine
 10
120.5844243231183
 20
19.89999986828868
 30
0.0
 11
117.7844243231183
 21
19.89999986828868
 31
0.0
  0
LINE
  5
1AC0
330
19
100
AcDbEntity
  8
ZUWAKU
100
AcDbLine
 10
115.6844243231182
 20
14.29999986828869
 30
0.0
 11
122.6844243231182
 21
14.29999986828869
 31
0.0
  0
LINE
  5
1AC1
330
19
100
AcDbEntity
  8
ZUWAKU
100
AcDbLine
 10
82.43442432311827
 20
14.29999986828869
 30
0.0
 11
85.93442432311826
 21
14.29999986828869
 31
0.0
  0
LINE
  5
1AC2
330
19
100
AcDbEntity
  8
ZUWAKU
100
AcDbLine
 10
71.35269419774999
 20
15.03381193195474
 30
0.0
 11
67.61615444848644
 21
26.86618780462262
 31
0.0
  0
ARC
  5
1AC3
330
19
100
AcDbEntity
  8
ZUWAKU
100
AcDbCircle
 10
66.61489265009572
 20
34.24999986828869
 30
0.0
 40
1.049999999999999
100
AcDbArc
 50
270.0
 51
342.4744316262769
  0
LINE
  5
1AC4
330
19
100
AcDbEntity
  8
ZUWAKU
100
AcDbLine
 10
66.61489265009572
 20
33.19999986828868
 30
0.0
 11
66.33442432311835
 21
33.19999986828868
 31
0.0
  0
LINE
  5
1AC5
330
19
100
AcDbEntity
  8
ZUWAKU
100
AcDbLine
 10
66.33442432311835
 20
27.59999986828869
 30
0.0
 11
66.61489265009572
 21
27.59999986828869
 31
0.0
  0
ARC
  5
1AC6
330
19
100
AcDbEntity
  8
ZUWAKU
100
AcDbCircle
 10
66.33442432311835
 20
34.24999986828869
 30
0.0
 40
1.049999999999999
100
AcDbArc
 50
180.0
 51
270.0
  0
LINE
  5
1AC7
330
19
100
AcDbEntity
  8
ZUWAKU
100
AcDbLine
 10
60.73442432311821
 20
14.29999986828869
 30
0.0
 11
64.23442432311822
 21
14.29999986828869
 31
0.0
  0
ARC
  5
1AC8
330
19
100
AcDbEntity
  8
ZUWAKU
100
AcDbCircle
 10
64.23442432311822
 20
15.34999986828869
 30
0.0
 40
1.049999999999999
100
AcDbArc
 50
270.0
 51
0.0
  0
LINE
  5
1AC9
330
19
100
AcDbEntity
  8
ZUWAKU
100
AcDbLine
 10
65.2844243231184
 20
15.34999986828869
 30
0.0
 11
65.2844243231184
 21
26.54999986828869
 31
0.0
  0
LINE
  5
1ACA
330
19
100
AcDbEntity
  8
ZUWAKU
100
AcDbLine
 10
54.7844243231184
 20
18.84999986828869
 30
0.0
 11
54.7844243231184
 21
15.34999986828869
 31
0.0
  0
ARC
  5
1ACB
330
19
100
AcDbEntity
  8
ZUWAKU
100
AcDbCircle
 10
53.73442432311822
 20
15.34999986828869
 30
0.0
 40
1.049999999999999
100
AcDbArc
 50
270.0
 51
0.0
  0
ARC
  5
1ACC
330
19
100
AcDbEntity
  8
ZUWAKU
100
AcDbCircle
 10
53.73442432311822
 20
18.84999986828869
 30
0.0
 40
1.049999999999999
100
AcDbArc
 50
0.0
 51
90.0
  0
ARC
  5
1ACD
330
19
100
AcDbEntity
  8
ZUWAKU
100
AcDbCircle
 10
60.73442432311821
 20
15.34999986828869
 30
0.0
 40
1.049999999999999
100
AcDbArc
 50
180.0
 51
270.0
  0
ARC
  5
1ACE
330
19
100
AcDbEntity
  8
ZUWAKU
100
AcDbCircle
 10
66.61489265009572
 20
26.54999986828869
 30
0.0
 40
1.049999999999999
100
AcDbArc
 50
17.52556837372303
 51
90.0
  0
ARC
  5
1ACF
330
19
100
AcDbEntity
  8
ZUWAKU
100
AcDbCircle
 10
66.33442432311835
 20
26.54999986828869
 30
0.0
 40
1.049999999999999
100
AcDbArc
 50
90.0
 51
180.0
  0
ARC
  5
1AD0
330
19
100
AcDbEntity
  8
ZUWAKU
100
AcDbCircle
 10
82.43442432311827
 20
15.34999986828869
 30
0.0
 40
1.049999999999999
100
AcDbArc
 50
180.0
 51
270.0
  0
LINE
  5
1AD1
330
19
100
AcDbEntity
  8
ZUWAKU
100
AcDbLine
 10
72.35395599614093
 20
14.29999986828869
 30
0.0
 11
75.75173475535894
 21
14.29999986828869
 31
0.0
  0
ARC
  5
1AD2
330
19
100
AcDbEntity
  8
ZUWAKU
100
AcDbCircle
 10
75.75173475535894
 20
15.34999986828869
 30
0.0
 40
1.049999999999999
100
AcDbArc
 50
270.0
 51
17.52556837372303
  0
LINE
  5
1AD3
330
19
100
AcDbEntity
  8
ZUWAKU
100
AcDbLine
 10
76.75299655374988
 20
15.66618780462263
 30
0.0
 11
72.10021379680256
 21
30.39999986828873
 31
0.0
  0
ARC
  5
1AD4
330
19
100
AcDbEntity
  8
ZUWAKU
100
AcDbCircle
 10
72.35395599614093
 20
15.34999986828869
 30
0.0
 40
1.049999999999999
100
AcDbArc
 50
197.525568373723
 51
270.0
  0
ARC
  5
1AD5
330
19
100
AcDbEntity
  8
ZUWAKU
100
AcDbCircle
 10
115.6844243231182
 20
19.89999986828868
 30
0.0
 40
5.599999999999999
100
AcDbArc
 50
180.0
 51
270.0
  0
ARC
  5
1AD6
330
19
100
AcDbEntity
  8
ZUWAKU
100
AcDbCircle
 10
100.2844243231183
 20
19.89999986828868
 30
0.0
 40
5.599999999999999
100
AcDbArc
 50
270.0
 51
0.0
  0
LINE
  5
1AD7
330
19
100
AcDbEntity
  8
ZUWAKU
100
AcDbLine
 10
103.4241212850854
 20
29.47010088096634
 30
0.0
 11
97.60452533579588
 21
35.28969683025569
 31
0.0
  0
LINE
  5
1AD8
330
19
100
AcDbEntity
  8
ZUWAKU
100
AcDbLine
 10
100.2844243231183
 20
20.9499998682887
 30
0.0
 11
100.2844243231183
 21
23.53040391899938
 31
0.0
  0
ARC
  5
1AD9
330
19
100
AcDbEntity
  8
ZUWAKU
100
AcDbCircle
 10
97.48442432311822
 20
23.53040391899938
 30
0.0
 40
2.799999999999999
100
AcDbArc
 50
0.0
 51
45.0
  0
ARC
  5
1ADA
330
19
100
AcDbEntity
  8
ZUWAKU
100
AcDbCircle
 10
99.23442432311823
 20
20.9499998682887
 30
0.0
 40
1.049999999999999
100
AcDbArc
 50
270.0
 51
0.0
  0
LINE
  5
1ADB
330
19
100
AcDbEntity
  8
ZUWAKU
100
AcDbLine
 10
92.23442432311822
 20
15.34999986828869
 30
0.0
 11
92.23442432311822
 21
18.84999986828869
 31
0.0
  0
ARC
  5
1ADC
330
19
100
AcDbEntity
  8
ZUWAKU
100
AcDbCircle
 10
93.2844243231184
 20
15.34999986828869
 30
0.0
 40
1.049999999999999
100
AcDbArc
 50
180.0
 51
270.0
  0
ARC
  5
1ADD
330
19
100
AcDbEntity
  8
ZUWAKU
100
AcDbCircle
 10
85.93442432311826
 20
15.34999986828869
 30
0.0
 40
1.049999999999999
100
AcDbArc
 50
270.0
 51
0.0
  0
ARC
  5
1ADE
330
19
100
AcDbEntity
  8
ZUWAKU
100
AcDbCircle
 10
93.2844243231184
 20
18.84999986828869
 30
0.0
 40
1.049999999999999
100
AcDbArc
 50
90.0
 51
180.0
  0
LINE
  5
1ADF
330
19
100
AcDbEntity
  8
ZUWAKU
100
AcDbLine
 10
93.2844243231184
 20
19.89999986828868
 30
0.0
 11
99.23442432311823
 21
19.89999986828868
 31
0.0
  0
LINE
  5
1AE0
330
19
100
AcDbEntity
  8
ZUWAKU
100
AcDbLine
 10
93.2844243231184
 20
14.29999986828869
 30
0.0
 11
100.2844243231183
 21
14.29999986828869
 31
0.0
  0
LINE
  5
1AE1
330
19
100
AcDbEntity
  8
ZUWAKU
100
AcDbLine
 10
93.64472736115136
 20
31.32989885561105
 30
0.0
 11
99.46432331044071
 21
25.51030290632172
 31
0.0
  0
LINE
  5
1AE2
330
19
100
AcDbEntity
  8
ZUWAKU
100
AcDbLine
 10
105.8844243231183
 20
19.89999986828868
 30
0.0
 11
105.8844243231183
 21
23.53040391899938
 31
0.0
  0
ARC
  5
1AE3
330
19
100
AcDbEntity
  8
ZUWAKU
100
AcDbCircle
 10
97.48442432311822
 20
23.53040391899929
 30
0.0
 40
8.399999999999998
100
AcDbArc
 50
0.0
 51
45.0
  0
ARC
  5
1AE4
330
19
100
AcDbEntity
  8
ZUWAKU
100
AcDbCircle
 10
117.7844243231183
 20
21.99999986828868
 30
0.0
 40
2.099999999999999
100
AcDbArc
 50
180.0
 51
270.0
  0
ARC
  5
1AE5
330
19
100
AcDbEntity
  8
ZUWAKU
100
AcDbCircle
 10
122.6844243231182
 20
19.89999986828868
 30
0.0
 40
5.599999999999999
100
AcDbArc
 50
270.0
 51
0.0
  0
LINE
  5
1AE6
330
19
100
AcDbEntity
  8
ZUWAKU
100
AcDbLine
 10
133.5344243231183
 20
14.29999986828869
 30
0.0
 11
137.0344243231184
 21
14.29999986828869
 31
0.0
  0
ARC
  5
1AE7
330
19
100
AcDbEntity
  8
ZUWAKU
100
AcDbCircle
 10
133.5344243231183
 20
15.34999986828869
 30
0.0
 40
1.049999999999999
100
AcDbArc
 50
180.0
 51
270.0
  0
ARC
  5
1AE8
330
19
100
AcDbEntity
  8
ZUWAKU
100
AcDbCircle
 10
120.5844243231183
 20
21.99999986828868
 30
0.0
 40
2.099999999999999
100
AcDbArc
 50
270.0
 51
0.0
  0
ARC
  5
1AE9
330
19
100
AcDbEntity
  8
ZUWAKU
100
AcDbCircle
 10
137.0344243231184
 20
15.34999986828869
 30
0.0
 40
1.049999999999999
100
AcDbArc
 50
270.0
 51
0.0
  0
LINE
  5
1AEA
330
19
100
AcDbEntity
  8
ZUWAKU
100
AcDbLine
 10
85.93442432311826
 20
46.49999986828869
 30
0.0
 11
82.43442432311827
 21
46.49999986828869
 31
0.0
  0
ARC
  5
1AEB
330
19
100
AcDbEntity
  8
ZUWAKU
100
AcDbCircle
 10
64.23442432311822
 20
45.44999986828869
 30
0.0
 40
1.049999999999999
100
AcDbArc
 50
0.0
 51
90.0
  0
LINE
  5
1AEC
330
19
100
AcDbEntity
  8
ZUWAKU
100
AcDbLine
 10
64.23442432311822
 20
46.49999986828869
 30
0.0
 11
60.73442432311821
 21
46.49999986828869
 31
0.0
  0
ARC
  5
1AED
330
19
100
AcDbEntity
  8
ZUWAKU
100
AcDbCircle
 10
53.73442432311822
 20
45.44999986828869
 30
0.0
 40
1.049999999999999
100
AcDbArc
 50
0.0
 51
90.0
  0
ARC
  5
1AEE
330
19
100
AcDbEntity
  8
ZUWAKU
100
AcDbCircle
 10
60.73442432311821
 20
45.44999986828869
 30
0.0
 40
1.049999999999999
100
AcDbArc
 50
90.0
 51
180.0
  0
ARC
  5
1AEF
330
19
100
AcDbEntity
  8
ZUWAKU
100
AcDbCircle
 10
53.73442432311822
 20
41.94999986828868
 30
0.0
 40
1.049999999999999
100
AcDbArc
 50
270.0
 51
0.0
  0
LINE
  5
1AF0
330
19
100
AcDbEntity
  8
ZUWAKU
100
AcDbLine
 10
54.7844243231184
 20
45.44999986828869
 30
0.0
 11
54.7844243231184
 21
41.94999986828868
 31
0.0
  0
ARC
  5
1AF1
330
19
100
AcDbEntity
  8
ZUWAKU
100
AcDbCircle
 10
82.43442432311827
 20
45.44999986828869
 30
0.0
 40
1.049999999999999
100
AcDbArc
 50
90.0
 51
180.0
  0
LINE
  5
1AF2
330
19
100
AcDbEntity
  8
ZUWAKU
100
AcDbLine
 10
72.35395599614093
 20
46.49999986828869
 30
0.0
 11
75.75173475535894
 21
46.49999986828869
 31
0.0
  0
ARC
  5
1AF3
330
19
100
AcDbEntity
  8
ZUWAKU
100
AcDbCircle
 10
75.75173475535894
 20
45.44999986828869
 30
0.0
 40
1.049999999999999
100
AcDbArc
 50
342.4744316262769
 51
90.0
  0
LINE
  5
1AF4
330
19
100
AcDbEntity
  8
ZUWAKU
100
AcDbLine
 10
76.75299655374988
 20
45.13381193195475
 30
0.0
 11
74.62971728747425
 21
38.41009425541554
 31
0.0
  0
ARC
  5
1AF5
330
19
100
AcDbEntity
  8
ZUWAKU
100
AcDbCircle
 10
72.35395599614093
 20
45.44999986828869
 30
0.0
 40
1.049999999999999
100
AcDbArc
 50
90.0
 51
162.4744316262769
  0
LINE
  5
1AF6
330
19
100
AcDbEntity
  8
ZUWAKU
100
AcDbLine
 10
96.7844243231184
 20
46.49999986828869
 30
0.0
 11
103.7844243231184
 21
46.49999986828869
 31
0.0
  0
LINE
  5
1AF7
330
19
100
AcDbEntity
  8
ZUWAKU
100
AcDbLine
 10
103.7844243231184
 20
40.89999986828869
 30
0.0
 11
97.83442432311836
 21
40.89999986828869
 31
0.0
  0
ARC
  5
1AF8
330
19
100
AcDbEntity
  8
ZUWAKU
100
AcDbCircle
 10
97.83442432311836
 20
39.84999986828869
 30
0.0
 40
1.049999999999999
100
AcDbArc
 50
90.0
 51
180.0
  0
LINE
  5
1AF9
330
19
100
AcDbEntity
  8
ZUWAKU
100
AcDbLine
 10
96.7844243231184
 20
39.84999986828869
 30
0.0
 11
96.7844243231184
 21
37.269595817578
 31
0.0
  0
ARC
  5
1AFA
330
19
100
AcDbEntity
  8
ZUWAKU
100
AcDbCircle
 10
85.93442432311826
 20
45.44999986828869
 30
0.0
 40
1.049999999999999
100
AcDbArc
 50
0.0
 51
90.0
  0
LINE
  5
1AFB
330
19
100
AcDbEntity
  8
ZUWAKU
100
AcDbLine
 10
91.18442432311827
 20
40.89999986828869
 30
0.0
 11
91.18442432311827
 21
37.269595817578
 31
0.0
  0
ARC
  5
1AFC
330
19
100
AcDbEntity
  8
ZUWAKU
100
AcDbCircle
 10
96.7844243231184
 20
40.89999986828869
 30
0.0
 40
5.599999999999999
100
AcDbArc
 50
90.0
 51
180.0
  0
ARC
  5
1AFD
330
19
100
AcDbEntity
  8
ZUWAKU
100
AcDbCircle
 10
114.6344243231183
 20
45.44999986828869
 30
0.0
 40
1.049999999999999
100
AcDbArc
 50
0.0
 51
90.0
  0
ARC
  5
1AFE
330
19
100
AcDbEntity
  8
ZUWAKU
100
AcDbCircle
 10
111.1344243231183
 20
45.44999986828869
 30
0.0
 40
1.049999999999999
100
AcDbArc
 50
90.0
 51
180.0
  0
LINE
  5
1AFF
330
19
100
AcDbEntity
  8
ZUWAKU
100
AcDbLine
 10
114.6344243231183
 20
46.49999986828869
 30
0.0
 11
111.1344243231183
 21
46.49999986828869
 31
0.0
  0
ARC
  5
1B00
330
19
100
AcDbEntity
  8
ZUWAKU
100
AcDbCircle
 10
103.7844243231184
 20
45.44999986828869
 30
0.0
 40
1.049999999999999
100
AcDbArc
 50
0.0
 51
90.0
  0
ARC
  5
1B01
330
19
100
AcDbEntity
  8
ZUWAKU
100
AcDbCircle
 10
103.7844243231184
 20
41.94999986828868
 30
0.0
 40
1.049999999999999
100
AcDbArc
 50
270.0
 51
0.0
  0
LINE
  5
1B02
330
19
100
AcDbEntity
  8
ZUWAKU
100
AcDbLine
 10
104.8344243231183
 20
45.44999986828869
 30
0.0
 11
104.8344243231183
 21
41.94999986828868
 31
0.0
  0
LINE
  5
1B03
330
19
100
AcDbEntity
  8
ZUWAKU
100
AcDbLine
 10
137.0344243231184
 20
46.49999986828869
 30
0.0
 11
133.5344243231183
 21
46.49999986828869
 31
0.0
  0
ARC
  5
1B04
330
19
100
AcDbEntity
  8
ZUWAKU
100
AcDbCircle
 10
133.5344243231183
 20
45.44999986828869
 30
0.0
 40
1.049999999999999
100
AcDbArc
 50
90.0
 51
180.0
  0
ARC
  5
1B05
330
19
100
AcDbEntity
  8
ZUWAKU
100
AcDbCircle
 10
127.2344243231182
 20
45.44999986828869
 30
0.0
 40
1.049999999999999
100
AcDbArc
 50
0.0
 51
90.0
  0
LINE
  5
1B06
330
19
100
AcDbEntity
  8
ZUWAKU
100
AcDbLine
 10
127.2344243231182
 20
46.49999986828869
 30
0.0
 11
123.7344243231182
 21
46.49999986828869
 31
0.0
  0
ARC
  5
1B07
330
19
100
AcDbEntity
  8
ZUWAKU
100
AcDbCircle
 10
123.7344243231182
 20
45.44999986828869
 30
0.0
 40
1.049999999999999
100
AcDbArc
 50
90.0
 51
180.0
  0
ARC
  5
1B08
330
19
100
AcDbEntity
  8
ZUWAKU
100
AcDbCircle
 10
137.0344243231184
 20
45.44999986828869
 30
0.0
 40
1.049999999999999
100
AcDbArc
 50
0.0
 51
90.0
  0
TEXT
  5
1B09
330
19
100
AcDbEntity
  8
MOJI
100
AcDbText
 10
479.6544053752581
 20
36.00984198310345
 30
0.0
 40
11.19999999999999
  1
曲りⅡ（出）
 41
0.9
  7
ｽﾀｲﾙ1
100
AcDbText
  0
TEXT
  5
1B0A
330
19
100
AcDbEntity
  8
MOJI
100
AcDbText
 10
479.6544053752581
 20
6.409841983103525
 30
0.0
 40
11.19999999999999
  1
Ｔ１２０
 41
0.9
  7
ｽﾀｲﾙ1
100
AcDbText
  0
LINE
  5
1B0B
330
19
100
AcDbEntity
  8
ZUWAKU
100
AcDbLine
 10
416.4932025936918
 20
59.99999986828868
 30
0.0
 11
416.4932025936918
 21
1.599999868288819
 31
0.0
  0
LINE
  5
1B0C
330
19
100
AcDbEntity
  8
ZUWAKU
100
AcDbLine
 10
417.2932025936916
 20
59.99999986828868
 30
0.0
 11
417.293202593692
 21
1.599999868288819
 31
0.0
  0
LINE
  5
1B0D
330
19
100
AcDbEntity
  8
ZUWAKU
100
AcDbLine
 10
416.8932025936915
 20
59.99999986828868
 30
0.0
 11
416.893202593692
 21
1.599999868288819
 31
0.0
  0
TEXT
  5
1B0E
330
19
100
AcDbEntity
  8
ZUWAKU
100
AcDbText
 10
419.448092638111
 20
19.31071294505992
 30
0.0
 40
8.0
  1
サイズ
 41
0.9
  7
ｽﾀｲﾙ1
100
AcDbText
  0
TEXT
  5
1B0F
330
19
100
AcDbEntity
  8
ZUWAKU
100
AcDbText
 10
419.4480926381106
 20
48.11071294505985
 30
0.0
 40
8.0
  1
品名
 41
0.9
  7
ｽﾀｲﾙ1
100
AcDbText
  0
LINE
  5
1B10
330
19
100
AcDbEntity
  8
ZUWAKU
100
AcDbLine
 10
1297.634405033964
 20
30.39999986828874
 30
0.0
 11
1394.498021110638
 21
30.39999986828875
 31
0.0
  0
LINE
  5
1B11
330
19
100
AcDbEntity
  8
ZUWAKU
100
AcDbLine
 10
1297.634405033964
 20
30.79999986828875
 30
0.0
 11
1394.498021110638
 21
30.79999986828875
 31
0.0
  0
LINE
  5
1B12
330
19
100
AcDbEntity
  8
ZUWAKU
100
AcDbLine
 10
1297.634405033964
 20
31.19999986828875
 30
0.0
 11
1394.498021110638
 21
31.19999986828875
 31
0.0
  0
TEXT
  5
1B13
330
19
100
AcDbEntity
  8
ZUWAKU
100
AcDbText
 10
1316.40787538816
 20
36.00984198310345
 30
0.0
 40
11.19999999999999
  1
　　．　　．　　
 41
0.9
  7
ｽﾀｲﾙ1
100
AcDbText
  0
LINE
  5
1B14
330
19
100
AcDbEntity
  8
ZUWAKU
100
AcDbLine
 10
1010.398359009837
 20
30.39999986828876
 30
0.0
 11
1105.05391154578
 21
30.39999986828876
 31
0.0
  0
LINE
  5
1B15
330
19
100
AcDbEntity
  8
ZUWAKU
100
AcDbLine
 10
1010.398359009837
 20
30.79999986828875
 30
0.0
 11
1105.05391154578
 21
30.79999986828875
 31
0.0
  0
LINE
  5
1B16
330
19
100
AcDbEntity
  8
ZUWAKU
100
AcDbLine
 10
1010.398359009837
 20
31.19999986828875
 30
0.0
 11
1105.05391154578
 21
31.19999986828875
 31
0.0
  0
TEXT
  5
1B17
330
19
100
AcDbEntity
  8
MOJI
100
AcDbText
 10
926.49286399556
 20
23.88523531160865
 30
0.0
 40
11.19999999999999
  1
ＰＥ３７□
 41
0.9
  7
ｽﾀｲﾙ1
100
AcDbText
  0
LINE
  5
1B18
330
19
100
AcDbEntity
  8
ZUWAKU
100
AcDbLine
 10
895.2487279555384
 20
59.99999986828868
 30
0.0
 11
895.248727955539
 21
1.599999868288819
 31
0.0
  0
LINE
  5
1B19
330
19
100
AcDbEntity
  8
ZUWAKU
100
AcDbLine
 10
895.6487279555386
 20
59.99999986828868
 30
0.0
 11
895.6487279555389
 21
1.599999868288819
 31
0.0
  0
LINE
  5
1B1A
330
19
100
AcDbEntity
  8
ZUWAKU
100
AcDbLine
 10
894.8487279555388
 20
59.99999986828868
 30
0.0
 11
894.8487279555388
 21
1.599999868288819
 31
0.0
  0
TEXT
  5
1B1B
330
19
100
AcDbEntity
  8
MOJI
100
AcDbText
 10
1056.081815958181
 20
36.00984198310345
 30
0.0
 40
11.19999999999999
  1
Ａ３
 41
0.9
  7
ｽﾀｲﾙ1
100
AcDbText
  0
LINE
  5
1B1C
330
19
100
AcDbEntity
  8
ZUWAKU
100
AcDbLine
 10
1009.998359009837
 20
59.99999986828868
 30
0.0
 11
1009.998359009838
 21
1.599999868288819
 31
0.0
  0
LINE
  5
1B1D
330
19
100
AcDbEntity
  8
ZUWAKU
100
AcDbLine
 10
1010.398359009837
 20
59.99999986828868
 30
0.0
 11
1010.398359009838
 21
1.599999868288819
 31
0.0
  0
LINE
  5
1B1E
330
19
100
AcDbEntity
  8
ZUWAKU
100
AcDbLine
 10
1009.598359009838
 20
59.99999986828868
 30
0.0
 11
1009.598359009838
 21
1.599999868288819
 31
0.0
  0
TEXT
  5
1B1F
330
19
100
AcDbEntity
  8
ZUWAKU
100
AcDbText
 10
924.8785624631423
 20
5.228141690567667
 30
0.0
 40
6.0
  1
□には色品番が入ります
 41
0.9
  7
ｽﾀｲﾙ1
100
AcDbText
  0
TEXT
  5
1B20
330
19
100
AcDbEntity
  8
ZUWAKU
100
AcDbText
 10
1013.353249054257
 20
19.31071294505992
 30
0.0
 40
8.0
  1
縮尺
 41
0.9
  7
ｽﾀｲﾙ1
100
AcDbText
  0
TEXT
  5
1B21
330
19
100
AcDbEntity
  8
MOJI
100
AcDbText
 10
1056.081815958181
 20
6.409841983103525
 30
0.0
 40
11.19999999999999
  1
１/４
 41
0.9
  7
ｽﾀｲﾙ1
100
AcDbText
  0
TEXT
  5
1B22
330
19
100
AcDbEntity
  8
ZUWAKU
100
AcDbText
 10
898.6036179999578
 20
48.11071294505985
 30
0.0
 40
8.0
  1
品番
 41
0.9
  7
ｽﾀｲﾙ1
100
AcDbText
  0
TEXT
  5
1B23
330
19
100
AcDbEntity
  8
ZUWAKU
100
AcDbText
 10
1013.353249054257
 20
48.11071294505985
 30
0.0
 40
8.0
  1
用紙
 41
0.9
  7
ｽﾀｲﾙ1
100
AcDbText
  0
LINE
  5
1B24
330
19
100
AcDbEntity
  8
ZUWAKU
100
AcDbLine
 10
1297.234405033965
 20
59.99999986828868
 30
0.0
 11
1297.234405033965
 21
1.599999868288819
 31
0.0
  0
LINE
  5
1B25
330
19
100
AcDbEntity
  8
ZUWAKU
100
AcDbLine
 10
1297.634405033964
 20
59.99999986828868
 30
0.0
 11
1297.634405033965
 21
1.599999868288819
 31
0.0
  0
LINE
  5
1B26
330
19
100
AcDbEntity
  8
ZUWAKU
100
AcDbLine
 10
1296.834405033965
 20
59.99999986828868
 30
0.0
 11
1296.834405033965
 21
1.599999868288819
 31
0.0
  0
LINE
  5
1B27
330
19
100
AcDbEntity
  8
ZUWAKU
100
AcDbLine
 10
1105.45391154578
 20
59.99999986828868
 30
0.0
 11
1105.453911545781
 21
1.599999868288819
 31
0.0
  0
LINE
  5
1B28
330
19
100
AcDbEntity
  8
ZUWAKU
100
AcDbLine
 10
1105.85391154578
 20
59.99999986828868
 30
0.0
 11
1105.853911545781
 21
1.599999868288819
 31
0.0
  0
LINE
  5
1B29
330
19
100
AcDbEntity
  8
ZUWAKU
100
AcDbLine
 10
1105.05391154578
 20
59.99999986828868
 30
0.0
 11
1105.05391154578
 21
1.599999868288819
 31
0.0
  0
TEXT
  5
1B2A
330
19
100
AcDbEntity
  8
ZUWAKU
100
AcDbText
 10
1300.589295078384
 20
48.11071294505985
 30
0.0
 40
8.0
  1
DATE
 41
0.9
  7
ｽﾀｲﾙ1
100
AcDbText
  0
LINE
  5
1B2B
330
19
100
AcDbEntity
  8
ZUWAKU
100
AcDbLine
 10
1394.498021110638
 20
59.99999986828868
 30
0.0
 11
1394.498021110638
 21
1.599999868288819
 31
0.0
  0
LINE
  5
1B2C
330
19
100
AcDbEntity
  8
ZUWAKU
100
AcDbLine
 10
1394.898021110638
 20
59.99999986828868
 30
0.0
 11
1394.898021110638
 21
1.599999868288819
 31
0.0
  0
LINE
  5
1B2D
330
19
100
AcDbEntity
  8
ZUWAKU
100
AcDbLine
 10
1395.298021110638
 20
59.99999986828868
 30
0.0
 11
1395.298021110638
 21
1.599999868288819
 31
0.0
  0
LINE
  5
1B2E
330
19
100
AcDbEntity
  8
ZUWAKU
100
AcDbLine
 10
1395.698021110638
 20
59.99999986828868
 30
0.0
 11
1395.698021110638
 21
1.599999868288819
 31
0.0
  0
TEXT
  5
1B2F
330
19
100
AcDbEntity
  8
ZUWAKU
100
AcDbText
 10
1417.056168398043
 20
35.10767853966228
 30
0.0
 40
12.0
  1
積水化学工業株式会社
 41
0.9
  7
ｽﾀｲﾙ1
100
AcDbText
  0
TEXT
  5
1B30
330
19
100
AcDbEntity
  8
ZUWAKU
100
AcDbText
 10
1417.056168398043
 20
13.29768049599681
 30
0.0
 40
12.0
  1
建材事業部
 41
0.9
  7
ｽﾀｲﾙ1
100
AcDbText
  0
VIEWPORT
  5
22
330
16
100
AcDbEntity
 67
     1
  8
0
100
AcDbViewport
 10
313.6808219178082
 20
148.5
 30
0.0
 40
627.3616438356165
 41
297.0
 68
     2
 69
     1
1001
ACAD
1000
MVIEW
1002
{
1070
    16
1010
0.0
1020
0.0
1030
0.0
1010
0.0
1020
0.0
1030
1.0
1040
0.0
1040
297.0
1040
313.6808219178082
1040
148.5
1040
50.0
1040
0.0
1040
0.0
1070
     0
1070
   100
1070
     1
1070
     0
1070
     0
1070
     0
1070
     0
1070
     0
1040
0.0
1040
0.0
1040
0.0
1040
10.0
1040
10.0
1040
10.0
1040
10.0
1070
     0
1002
{
1002
}
1002
}
  0
VIEWPORT
  5
25
330
16
100
AcDbEntity
 67
     1
  8
VIEWPORT
100
AcDbViewport
 10
210.0
 20
148.5
 30
0.0
 40
420.0
 41
297.0
 68
     1
 69
     2
1001
ACAD
1000
MVIEW
1002
{
1070
    16
1010
0.0
1020
0.0
1030
0.0
1010
0.0
1020
0.0
1030
1.0
1040
0.0
1040
1212.607689320388
1040
841.0
1040
594.0
1040
50.0
1040
0.0
1040
0.0
1070
     0
1070
   100
1070
     1
1070
     0
1070
     0
1070
     0
1070
     0
1070
     0
1040
0.0
1040
0.0
1040
0.0
1040
57.0
1040
57.0
1040
57.0
1040
57.0
1070
     0
1002
{
1002
}
1002
}
  0
ENDSEC
  0
SECTION
  2
OBJECTS
  0
DICTIONARY
  5
C
330
0
100
AcDbDictionary
  3
ACAD_GROUP
350
D
  3
ACAD_LAYOUT
350
1678
  3
ACAD_MLINESTYLE
350
E
  3
ACAD_PLOTSETTINGS
350
1679
  3
ACAD_PLOTSTYLENAME
350
1676
  3
ACDBHEADERROUNDTRIPXREC
350
1B3E
  0
DICTIONARY
  5
1873
330
19
100
AcDbDictionary
280
     1
  3
ACAD_LAYOUTSELFREF
360
1B60
  0
DICTIONARY
  5
1871
330
16
100
AcDbDictionary
280
     1
  3
ACAD_LAYOUTSELFREF
360
1B5F
  0
DICTIONARY
  5
D
102
{ACAD_REACTORS
330
C
102
}
330
C
100
AcDbDictionary
  0
DICTIONARY
  5
1678
102
{ACAD_REACTORS
330
C
102
}
330
C
100
AcDbDictionary
  0
DICTIONARY
  5
E
102
{ACAD_REACTORS
330
C
102
}
330
C
100
AcDbDictionary
  3
STANDARD
350
1C
  0
DICTIONARY
  5
1679
102
{ACAD_REACTORS
330
C
102
}
330
C
100
AcDbDictionary
  0
ACDBDICTIONARYWDFLT
  5
1676
102
{ACAD_REACTORS
330
C
102
}
330
C
100
AcDbDictionary
281
     1
  3
Normal
350
1677
100
AcDbDictionaryWithDefault
340
1677
1001
ACAD
1000
TREAT_AS_HARD
1070
     0
1000
TREAT_AS_HARD
1070
     0
1000
TREAT_AS_HARD
1070
     0
  0
DICTIONARY
  5
1B3E
102
{ACAD_REACTORS
330
C
102
}
330
C
100
AcDbDictionary
  3
TSTACKALIGN
350
1B3F
  3
TSTACKSIZE
350
1B40
  3
HYPERLINKBASE
350
1B41
  3
STYLESHEET
350
1B42
  3
LAYOUTDICT
350
1B43
  3
PLOTSETDICT
350
1B44
  3
PLOTSTYLNAMDICT
350
1B45
  3
LWETCUNION
350
1B46
  3
INSUNITS
350
1B47
  3
CEPSNTYPE
350
1B48
  3
FINGERPRINTGUID
350
1B49
  3
VERSIONGUID
350
1B4A
  3
PSVPSCALE
350
1B4B
  3
DIMSTYLEDATA
350
1B4C
  3
PUCSORTHOREF
350
1B4D
  3
PUCSORTHOVIEW
350
1B4E
  3
PUCSBASE
350
1B4F
  3
PUCSORGTOP
350
1B50
  3
PUCSORGBOTTOM
350
1B51
  3
PUCSORGLEFT
350
1B52
  3
PUCSORGRIGHT
350
1B53
  3
PUCSORGFRONT
350
1B54
  3
PUCSORGBACK
350
1B55
  3
UCSORTHOREF
350
1B56
  3
UCSORTHOVIEW
350
1B57
  3
UCSBASE
350
1B58
  3
UCSORGTOP
350
1B59
  3
UCSORGBOTTOM
350
1B5A
  3
UCSORGLEFT
350
1B5B
  3
UCSORGRIGHT
350
1B5C
  3
UCSORGFRONT
350
1B5D
  3
UCSORGBACK
350
1B5E
  0
XRECORD
  5
1B60
102
{ACAD_REACTORS
330
1873
102
}
330
1873
100
AcDbXrecord
340
19
  0
XRECORD
  5
1B5F
102
{ACAD_REACTORS
330
1871
102
}
330
1871
100
AcDbXrecord
340
16
  0
MLINESTYLE
  5
1C
102
{ACAD_REACTORS
330
E
102
}
330
E
100
AcDbMlineStyle
  2
STANDARD
 70
     0
  3

 62
     0
 51
90.0
 52
90.0
 71
     2
 49
0.5
 62
   256
  6
BYLAYER
 49
-0.5
 62
   256
  6
BYLAYER
  0
ACDBPLACEHOLDER
  5
1677
102
{ACAD_REACTORS
330
1676
102
}
330
1676
100
AcDbPlaceHolder
280
     0
  0
XRECORD
  5
1B3F
102
{ACAD_REACTORS
330
1B3E
102
}
330
1B3E
100
AcDbXrecord
 90
        1
  0
XRECORD
  5
1B40
102
{ACAD_REACTORS
330
1B3E
102
}
330
1B3E
100
AcDbXrecord
 90
       70
  0
XRECORD
  5
1B41
102
{ACAD_REACTORS
330
1B3E
102
}
330
1B3E
100
AcDbXrecord
  1

  0
XRECORD
  5
1B42
102
{ACAD_REACTORS
330
1B3E
102
}
330
1B3E
100
AcDbXrecord
  1
systemprinter.ctb
  0
XRECORD
  5
1B43
102
{ACAD_REACTORS
330
1B3E
102
}
330
1B3E
100
AcDbXrecord
340
1678
  0
XRECORD
  5
1B44
102
{ACAD_REACTORS
330
1B3E
102
}
330
1B3E
100
AcDbXrecord
340
1679
  0
XRECORD
  5
1B45
102
{ACAD_REACTORS
330
1B3E
102
}
330
1B3E
100
AcDbXrecord
340
1676
  0
XRECORD
  5
1B46
102
{ACAD_REACTORS
330
1B3E
102
}
330
1B3E
100
AcDbXrecord
 90
    10781
  0
XRECORD
  5
1B47
102
{ACAD_REACTORS
330
1B3E
102
}
330
1B3E
100
AcDbXrecord
 90
        0
  0
XRECORD
  5
1B48
102
{ACAD_REACTORS
330
1B3E
102
}
330
1B3E
100
AcDbXrecord
 90
        0
  0
XRECORD
  5
1B49
102
{ACAD_REACTORS
330
1B3E
102
}
330
1B3E
100
AcDbXrecord
  1
{6B84EFA9-A936-11D5-932D-0050DA99388B}
  0
XRECORD
  5
1B4A
102
{ACAD_REACTORS
330
1B3E
102
}
330
1B3E
100
AcDbXrecord
  1
{B1DB9278-DBAC-4FF7-862B-7B004AC6AF33}
  0
XRECORD
  5
1B4B
102
{ACAD_REACTORS
330
1B3E
102
}
330
1B3E
100
AcDbXrecord
 40
0.0
  0
XRECORD
  5
1B4C
102
{ACAD_REACTORS
330
1B3E
102
}
330
1B3E
100
AcDbXrecord
1000
DSTYLE
1002
{
1070
   341
340
27
1070
   343
340
27
1070
   344
340
27
1002
}
  0
XRECORD
  5
1B4D
102
{ACAD_REACTORS
330
1B3E
102
}
330
1B3E
100
AcDbXrecord
340
0
  0
XRECORD
  5
1B4E
102
{ACAD_REACTORS
330
1B3E
102
}
330
1B3E
100
AcDbXrecord
 70
     0
  0
XRECORD
  5
1B4F
102
{ACAD_REACTORS
330
1B3E
102
}
330
1B3E
100
AcDbXrecord
340
0
  0
XRECORD
  5
1B50
102
{ACAD_REACTORS
330
1B3E
102
}
330
1B3E
100
AcDbXrecord
 10
0.0
 20
0.0
 30
0.0
  0
XRECORD
  5
1B51
102
{ACAD_REACTORS
330
1B3E
102
}
330
1B3E
100
AcDbXrecord
 10
0.0
 20
0.0
 30
0.0
  0
XRECORD
  5
1B52
102
{ACAD_REACTORS
330
1B3E
102
}
330
1B3E
100
AcDbXrecord
 10
0.0
 20
0.0
 30
0.0
  0
XRECORD
  5
1B53
102
{ACAD_REACTORS
330
1B3E
102
}
330
1B3E
100
AcDbXrecord
 10
0.0
 20
0.0
 30
0.0
  0
XRECORD
  5
1B54
102
{ACAD_REACTORS
330
1B3E
102
}
330
1B3E
100
AcDbXrecord
 10
0.0
 20
0.0
 30
0.0
  0
XRECORD
  5
1B55
102
{ACAD_REACTORS
330
1B3E
102
}
330
1B3E
100
AcDbXrecord
 10
0.0
 20
0.0
 30
0.0
  0
XRECORD
  5
1B56
102
{ACAD_REACTORS
330
1B3E
102
}
330
1B3E
100
AcDbXrecord
340
0
  0
XRECORD
  5
1B57
102
{ACAD_REACTORS
330
1B3E
102
}
330
1B3E
100
AcDbXrecord
 70
     0
  0
XRECORD
  5
1B58
102
{ACAD_REACTORS
330
1B3E
102
}
330
1B3E
100
AcDbXrecord
340
0
  0
XRECORD
  5
1B59
102
{ACAD_REACTORS
330
1B3E
102
}
330
1B3E
100
AcDbXrecord
 10
0.0
 20
0.0
 30
0.0
  0
XRECORD
  5
1B5A
102
{ACAD_REACTORS
330
1B3E
102
}
330
1B3E
100
AcDbXrecord
 10
0.0
 20
0.0
 30
0.0
  0
XRECORD
  5
1B5B
102
{ACAD_REACTORS
330
1B3E
102
}
330
1B3E
100
AcDbXrecord
 10
0.0
 20
0.0
 30
0.0
  0
XRECORD
  5
1B5C
102
{ACAD_REACTORS
330
1B3E
102
}
330
1B3E
100
AcDbXrecord
 10
0.0
 20
0.0
 30
0.0
  0
XRECORD
  5
1B5D
102
{ACAD_REACTORS
330
1B3E
102
}
330
1B3E
100
AcDbXrecord
 10
0.0
 20
0.0
 30
0.0
  0
XRECORD
  5
1B5E
102
{ACAD_REACTORS
330
1B3E
102
}
330
1B3E
100
AcDbXrecord
 10
0.0
 20
0.0
 30
0.0
  0
ENDSEC
  0
EOF
