  0
SECTION
  2
HEADER
  9
$ACADVER
  1
AC1014
  9
$ACADMAINTVER
 70
     9
  9
$DWGCODEPAGE
  3
ANSI_932
  9
$INSBASE
 10
0.0
 20
0.0
 30
0.0
  9
$EXTMIN
 10
-0.0128099507776369
 20
-0.0090584651927657
 30
-0.000000000000013
  9
$EXTMAX
 10
797.6616026615272
 20
551.6426495160594
 30
0.0000000000000023
  9
$LIMMIN
 10
0.0
 20
0.0
  9
$LIMMAX
 10
840.0
 20
594.0
  9
$ORTHOMODE
 70
     1
  9
$REGENMODE
 70
     1
  9
$FILLMODE
 70
     1
  9
$QTEXTMODE
 70
     0
  9
$MIRRTEXT
 70
     1
  9
$DRAGMODE
 70
     2
  9
$LTSCALE
 40
2.0
  9
$OSMODE
 70
    35
  9
$ATTMODE
 70
     1
  9
$TEXTSIZE
 40
5.0
  9
$TRACEWID
 40
1.0
  9
$TEXTSTYLE
  7
STANDARD
  9
$CLAYER
  8
SUNPOU
  9
$CELTYPE
  6
BYLAYER
  9
$CECOLOR
 62
   256
  9
$CELTSCALE
 40
1.0
  9
$DELOBJ
 70
     1
  9
$DISPSILH
 70
     0
  9
$DIMSCALE
 40
1.0
  9
$DIMASZ
 40
7.0
  9
$DIMEXO
 40
6.0
  9
$DIMDLI
 40
14.0
  9
$DIMRND
 40
0.0
  9
$DIMDLE
 40
0.0
  9
$DIMEXE
 40
3.0
  9
$DIMTP
 40
0.0
  9
$DIMTM
 40
0.0
  9
$DIMTXT
 40
6.0
  9
$DIMCEN
 40
150.0
  9
$DIMTSZ
 40
0.0
  9
$DIMTOL
 70
     0
  9
$DIMLIM
 70
     0
  9
$DIMTIH
 70
     0
  9
$DIMTOH
 70
     0
  9
$DIMSE1
 70
     0
  9
$DIMSE2
 70
     0
  9
$DIMTAD
 70
     3
  9
$DIMZIN
 70
     0
  9
$DIMBLK
  1

  9
$DIMASO
 70
     1
  9
$DIMSHO
 70
     1
  9
$DIMPOST
  1

  9
$DIMAPOST
  1

  9
$DIMALT
 70
     0
  9
$DIMALTD
 70
     2
  9
$DIMALTF
 40
25.4
  9
$DIMLFAC
 40
1.0
  9
$DIMTOFL
 70
     1
  9
$DIMTVP
 40
0.0
  9
$DIMTIX
 70
     0
  9
$DIMSOXD
 70
     0
  9
$DIMSAH
 70
     1
  9
$DIMBLK1
  1
OPEN
  9
$DIMBLK2
  1
OPEN
  9
$DIMSTYLE
  2
STANDARD
  9
$DIMCLRD
 70
   256
  9
$DIMCLRE
 70
   256
  9
$DIMCLRT
 70
   256
  9
$DIMTFAC
 40
1.0
  9
$DIMGAP
 40
2.0
  9
$DIMJUST
 70
     0
  9
$DIMSD1
 70
     0
  9
$DIMSD2
 70
     0
  9
$DIMTOLJ
 70
     1
  9
$DIMTZIN
 70
     0
  9
$DIMALTZ
 70
     0
  9
$DIMALTTZ
 70
     0
  9
$DIMFIT
 70
     3
  9
$DIMUPT
 70
     0
  9
$DIMUNIT
 70
     2
  9
$DIMDEC
 70
     0
  9
$DIMTDEC
 70
     0
  9
$DIMALTU
 70
     2
  9
$DIMALTTD
 70
     2
  9
$DIMTXSTY
  7
STANDARD
  9
$DIMAUNIT
 70
     0
  9
$LUNITS
 70
     2
  9
$LUPREC
 70
     4
  9
$SKETCHINC
 40
1.0
  9
$FILLETRAD
 40
20.0
  9
$AUNITS
 70
     0
  9
$AUPREC
 70
     0
  9
$MENU
  1
.
  9
$ELEVATION
 40
0.0
  9
$PELEVATION
 40
0.0
  9
$THICKNESS
 40
0.0
  9
$LIMCHECK
 70
     0
  9
$BLIPMODE
 70
     0
  9
$CHAMFERA
 40
0.0
  9
$CHAMFERB
 40
0.0
  9
$CHAMFERC
 40
40.0
  9
$CHAMFERD
 40
0.0
  9
$SKPOLY
 70
     0
  9
$TDCREATE
 40
2450994.354346065
  9
$TDUPDATE
 40
2454217.678812569
  9
$TDINDWG
 40
0.0365429167
  9
$TDUSRTIMER
 40
0.0365429167
  9
$USRTIMER
 70
     1
  9
$ANGBASE
 50
0.0
  9
$ANGDIR
 70
     0
  9
$PDMODE
 70
     0
  9
$PDSIZE
 40
0.0
  9
$PLINEWID
 40
0.0
  9
$COORDS
 70
     0
  9
$SPLFRAME
 70
     0
  9
$SPLINETYPE
 70
     6
  9
$SPLINESEGS
 70
     8
  9
$ATTDIA
 70
     0
  9
$ATTREQ
 70
     1
  9
$HANDLING
 70
 10241
  9
$HANDSEED
  5
1379
  9
$SURFTAB1
 70
     6
  9
$SURFTAB2
 70
     6
  9
$SURFTYPE
 70
     6
  9
$SURFU
 70
     6
  9
$SURFV
 70
     6
  9
$UCSNAME
  2

  9
$UCSORG
 10
0.0
 20
0.0
 30
0.0
  9
$UCSXDIR
 10
1.0
 20
0.0
 30
0.0
  9
$UCSYDIR
 10
0.0
 20
1.0
 30
0.0
  9
$PUCSNAME
  2

  9
$PUCSORG
 10
0.0
 20
0.0
 30
0.0
  9
$PUCSXDIR
 10
1.0
 20
0.0
 30
0.0
  9
$PUCSYDIR
 10
0.0
 20
1.0
 30
0.0
  9
$USERI1
 70
     0
  9
$USERI2
 70
     0
  9
$USERI3
 70
     0
  9
$USERI4
 70
     0
  9
$USERI5
 70
     0
  9
$USERR1
 40
0.0
  9
$USERR2
 40
0.0
  9
$USERR3
 40
0.0
  9
$USERR4
 40
0.0
  9
$USERR5
 40
0.0
  9
$WORLDVIEW
 70
     1
  9
$SHADEDGE
 70
     3
  9
$SHADEDIF
 70
    70
  9
$TILEMODE
 70
     1
  9
$MAXACTVP
 70
    16
  9
$PINSBASE
 10
0.0
 20
0.0
 30
0.0
  9
$PLIMCHECK
 70
     0
  9
$PEXTMIN
 10
0.0
 20
0.0
 30
0.0
  9
$PEXTMAX
 10
420.0
 20
297.0
 30
0.0
  9
$PLIMMIN
 10
0.0
 20
0.0
  9
$PLIMMAX
 10
420.0
 20
297.0
  9
$UNITMODE
 70
     0
  9
$VISRETAIN
 70
     0
  9
$PLINEGEN
 70
     0
  9
$PSLTSCALE
 70
     1
  9
$TREEDEPTH
 70
  3020
  9
$PICKSTYLE
 70
     1
  9
$CMLSTYLE
  2
STANDARD
  9
$CMLJUST
 70
     0
  9
$CMLSCALE
 40
1.0
  9
$PROXYGRAPHICS
 70
     1
  9
$MEASUREMENT
 70
     1
  0
ENDSEC
  0
SECTION
  2
CLASSES
  0
CLASS
  1
ACDBDICTIONARYWDFLT
  2
AcDbDictionaryWithDefault
  3
AutoCAD 2000
 90
        0
280
     0
281
     0
  0
CLASS
  1
ACDBPLACEHOLDER
  2
AcDbPlaceHolder
  3
AutoCAD 2000
 90
        0
280
     0
281
     0
  0
CLASS
  1
LAYOUT
  2
AcDbLayout
  3
AutoCAD 2000
 90
        0
280
     0
281
     0
  0
CLASS
  1
LONG_TRANSACTION
  2
AcDbLongTransaction
  3
AutoCAD 2000
 90
        0
280
     0
281
     0
  0
CLASS
  1
LWPOLYLINE
  2
AcDbPolyline
  3
AutoCAD 2000
 90
        0
280
     0
281
     1
  0
CLASS
  1
HATCH
  2
AcDbHatch
  3
AutoCAD 2000
 90
        0
280
     0
281
     1
  0
CLASS
  1
XRECORD
  2
AcDbXrecord
  3
AutoCAD 2000
 90
        0
280
     0
281
     0
  0
CLASS
  1
LONG_TRANSACTION
  2
AcDbLongTransaction
  3
AutoCAD 2000
 90
        0
280
     0
281
     0
  0
CLASS
  1
LWPOLYLINE
  2
AcDbPolyline
  3
AutoCAD 2000
 90
        0
280
     0
281
     1
  0
CLASS
  1
HATCH
  2
AcDbHatch
  3
AutoCAD 2000
 90
        0
280
     0
281
     1
  0
CLASS
  1
XRECORD
  2
AcDbXrecord
  3
AutoCAD 2000
 90
        0
280
     0
281
     0
  0
CLASS
  1
LONG_TRANSACTION
  2
AcDbLongTransaction
  3
AutoCAD 2000
 90
        0
280
     0
281
     0
  0
CLASS
  1
LWPOLYLINE
  2
AcDbPolyline
  3
AutoCAD 2000
 90
        0
280
     0
281
     1
  0
CLASS
  1
HATCH
  2
AcDbHatch
  3
AutoCAD 2000
 90
        0
280
     0
281
     1
  0
CLASS
  1
XRECORD
  2
AcDbXrecord
  3
AutoCAD 2000
 90
        0
280
     0
281
     0
  0
ENDSEC
  0
SECTION
  2
TABLES
  0
TABLE
  2
VPORT
  5
8
330
0
100
AcDbSymbolTable
 70
     3
  0
VPORT
  5
134D
330
8
100
AcDbSymbolTableRecord
100
AcDbViewportTableRecord
  2
*ACTIVE
 70
     0
 10
0.0
 20
0.0
 11
1.0
 21
1.0
 12
437.4494362068109
 22
248.5676536596234
 13
0.0
 23
0.0
 14
5.0
 24
5.0
 15
0.0
 25
0.0
 16
0.0
 26
0.0
 36
1.0
 17
0.0
 27
0.0
 37
0.0
 40
709.2936415506008
 41
1.566326530612244
 42
50.0
 43
0.0
 44
0.0
 50
0.0
 51
0.0
 71
     0
 72
   100
 73
     1
 74
     0
 75
     0
 76
     0
 77
     0
 78
     0
  0
ENDTAB
  0
TABLE
  2
LTYPE
  5
5
330
0
100
AcDbSymbolTable
 70
     3
  0
LTYPE
  5
14
330
5
100
AcDbSymbolTableRecord
100
AcDbLinetypeTableRecord
  2
BYBLOCK
 70
     0
  3

 72
    65
 73
     0
 40
0.0
  0
LTYPE
  5
15
330
5
100
AcDbSymbolTableRecord
100
AcDbLinetypeTableRecord
  2
BYLAYER
 70
     0
  3

 72
    65
 73
     0
 40
0.0
  0
LTYPE
  5
16
330
5
100
AcDbSymbolTableRecord
100
AcDbLinetypeTableRecord
  2
CONTINUOUS
 70
     0
  3
Solid line
 72
    65
 73
     0
 40
0.0
  0
LTYPE
  5
135
330
5
100
AcDbSymbolTableRecord
100
AcDbLinetypeTableRecord
  2
CENTER
 70
     0
  3
____ _ ____ _ ____ _ ____ _ ____ _ ____ _ ____ 
 72
    65
 73
     4
 40
2.0
 49
1.25
 74
     0
 49
-0.25
 74
     0
 49
0.25
 74
     0
 49
-0.25
 74
     0
  0
LTYPE
  5
B8E
330
5
100
AcDbSymbolTableRecord
100
AcDbLinetypeTableRecord
  2
PHANTOM
 70
     0
  3
______  __  __  ______  __  __  ______  __  __ 
 72
    65
 73
     6
 40
2.5
 49
1.25
 74
     0
 49
-0.25
 74
     0
 49
0.25
 74
     0
 49
-0.25
 74
     0
 49
0.25
 74
     0
 49
-0.25
 74
     0
  0
ENDTAB
  0
TABLE
  2
LAYER
  5
2
330
0
100
AcDbSymbolTable
 70
     9
  0
LAYER
  5
F
330
2
100
AcDbSymbolTableRecord
100
AcDbLayerTableRecord
  2
0
 70
     0
 62
     7
  6
CONTINUOUS
  0
LAYER
  5
62
330
2
100
AcDbSymbolTableRecord
100
AcDbLayerTableRecord
  2
VIEWPORT
 70
     0
 62
     7
  6
CONTINUOUS
  0
LAYER
  5
1AF
330
2
100
AcDbSymbolTableRecord
100
AcDbLayerTableRecord
  2
SUNPOU
 70
     0
 62
     4
  6
CONTINUOUS
  0
LAYER
  5
1B1
330
2
100
AcDbSymbolTableRecord
100
AcDbLayerTableRecord
  2
SEIHIN
 70
     0
 62
     3
  6
CONTINUOUS
  0
LAYER
  5
1B2
330
2
100
AcDbSymbolTableRecord
100
AcDbLayerTableRecord
  2
DEFPOINTS
 70
     0
 62
     7
  6
CONTINUOUS
  0
LAYER
  5
1B3
330
2
100
AcDbSymbolTableRecord
100
AcDbLayerTableRecord
  2
CENTER_L
 70
     0
 62
     1
  6
CENTER
  0
LAYER
  5
B8F
330
2
100
AcDbSymbolTableRecord
100
AcDbLayerTableRecord
  2
NOKITOI
 70
     0
 62
     9
  6
PHANTOM
  0
LAYER
  5
11CE
330
2
100
AcDbSymbolTableRecord
100
AcDbLayerTableRecord
  2
ZUWAKU
 70
     0
 62
     7
  6
CONTINUOUS
  0
LAYER
  5
11CF
330
2
100
AcDbSymbolTableRecord
100
AcDbLayerTableRecord
  2
MOJI
 70
     0
 62
     2
  6
CONTINUOUS
  0
ENDTAB
  0
TABLE
  2
STYLE
  5
3
330
0
100
AcDbSymbolTable
 70
     2
  0
STYLE
  5
10
330
3
100
AcDbSymbolTableRecord
100
AcDbTextStyleTableRecord
  2
STANDARD
 70
     0
 40
0.0
 41
1.0
 50
0.0
 71
     0
 42
5.0
  3
TXT
  4
bigfont.shx
  0
STYLE
  5
11D0
330
3
100
AcDbSymbolTableRecord
100
AcDbTextStyleTableRecord
  2
ｽﾀｲﾙ1
 70
     0
 40
0.0
 41
1.0
 50
0.0
 71
     0
 42
5.0
  3
MS Gothic.ttf
  4

1001
ACAD
1000
MS Gothic
1071
    32817
  0
ENDTAB
  0
TABLE
  2
VIEW
  5
6
330
0
100
AcDbSymbolTable
 70
     0
  0
ENDTAB
  0
TABLE
  2
UCS
  5
7
330
0
100
AcDbSymbolTable
 70
     0
  0
ENDTAB
  0
TABLE
  2
APPID
  5
9
330
0
100
AcDbSymbolTable
 70
     1
  0
APPID
  5
11
330
9
100
AcDbSymbolTableRecord
100
AcDbRegAppTableRecord
  2
ACAD
 70
     0
  0
ENDTAB
  0
TABLE
  2
DIMSTYLE
  5
A
330
0
100
AcDbSymbolTable
 70
     1
  0
DIMSTYLE
105
1D
102
{ACAD_REACTORS
330
25F
330
261
330
270
330
271
330
273
330
4AD
330
4BA
330
5B3
330
5C0
330
606
330
613
330
61F
330
62C
330
639
102
}
330
A
100
AcDbSymbolTableRecord
100
AcDbDimStyleTableRecord
  2
STANDARD
 70
     0
  3

  4

  5

  6

  7

 40
1.0
 41
0.18
 42
0.0625
 43
0.38
 44
0.18
 45
0.0
 46
0.0
 47
0.0
 48
0.0
140
0.18
141
0.09
142
0.0
143
25.4
144
1.0
145
0.0
146
1.0
147
0.09
 71
     0
 72
     0
 73
     1
 74
     1
 75
     0
 76
     0
 77
     0
 78
     0
170
     0
171
     2
172
     0
173
     0
174
     0
175
     0
176
     0
177
     0
178
     0
270
     2
271
     4
272
     4
273
     2
274
     2
340
10
275
     0
280
     0
281
     0
282
     0
283
     1
284
     0
285
     0
286
     0
287
     3
288
     0
  0
ENDTAB
  0
TABLE
  2
BLOCK_RECORD
  5
1
330
0
100
AcDbSymbolTable
 70
    15
  0
BLOCK_RECORD
  5
1A
102
{ACAD_XDICTIONARY
360
A0C
102
}
330
1
100
AcDbSymbolTableRecord
100
AcDbBlockTableRecord
  2
*MODEL_SPACE
  0
BLOCK_RECORD
  5
17
102
{ACAD_XDICTIONARY
360
A0A
102
}
330
1
100
AcDbSymbolTableRecord
100
AcDbBlockTableRecord
  2
*PAPER_SPACE
  0
BLOCK_RECORD
  5
6D
330
1
100
AcDbSymbolTableRecord
100
AcDbBlockTableRecord
  2
_OPEN
  0
BLOCK_RECORD
  5
304
330
1
100
AcDbSymbolTableRecord
100
AcDbBlockTableRecord
  2
*D1
  0
BLOCK_RECORD
  5
31C
330
1
100
AcDbSymbolTableRecord
100
AcDbBlockTableRecord
  2
*D2
  0
BLOCK_RECORD
  5
328
330
1
100
AcDbSymbolTableRecord
100
AcDbBlockTableRecord
  2
*D3
  0
BLOCK_RECORD
  5
334
330
1
100
AcDbSymbolTableRecord
100
AcDbBlockTableRecord
  2
*D4
  0
BLOCK_RECORD
  5
340
330
1
100
AcDbSymbolTableRecord
100
AcDbBlockTableRecord
  2
*D5
  0
BLOCK_RECORD
  5
49F
330
1
100
AcDbSymbolTableRecord
100
AcDbBlockTableRecord
  2
*D6
  0
BLOCK_RECORD
  5
4AE
330
1
100
AcDbSymbolTableRecord
100
AcDbBlockTableRecord
  2
*D7
  0
BLOCK_RECORD
  5
5A5
330
1
100
AcDbSymbolTableRecord
100
AcDbBlockTableRecord
  2
*D8
  0
BLOCK_RECORD
  5
5B4
330
1
100
AcDbSymbolTableRecord
100
AcDbBlockTableRecord
  2
*D9
  0
BLOCK_RECORD
  5
5FA
330
1
100
AcDbSymbolTableRecord
100
AcDbBlockTableRecord
  2
*D10
  0
BLOCK_RECORD
  5
607
330
1
100
AcDbSymbolTableRecord
100
AcDbBlockTableRecord
  2
*D11
  0
BLOCK_RECORD
  5
614
330
1
100
AcDbSymbolTableRecord
100
AcDbBlockTableRecord
  2
*D12
  0
BLOCK_RECORD
  5
620
330
1
100
AcDbSymbolTableRecord
100
AcDbBlockTableRecord
  2
*D13
  0
BLOCK_RECORD
  5
62D
330
1
100
AcDbSymbolTableRecord
100
AcDbBlockTableRecord
  2
*D14
  0
ENDTAB
  0
ENDSEC
  0
SECTION
  2
BLOCKS
  0
BLOCK
  5
1B
330
1A
100
AcDbEntity
  8
0
100
AcDbBlockBegin
  2
*MODEL_SPACE
 70
     0
 10
0.0
 20
0.0
 30
0.0
  3
*MODEL_SPACE
  1

  0
ENDBLK
  5
1C
330
1A
100
AcDbEntity
  8
0
100
AcDbBlockEnd
  0
BLOCK
  5
18
330
17
100
AcDbEntity
 67
     1
  8
0
100
AcDbBlockBegin
  2
*PAPER_SPACE
 70
     0
 10
0.0
 20
0.0
 30
0.0
  3
*PAPER_SPACE
  1

  0
ENDBLK
  5
19
330
17
100
AcDbEntity
 67
     1
  8
0
100
AcDbBlockEnd
  0
BLOCK
  5
6E
330
6D
100
AcDbEntity
  8
0
100
AcDbBlockBegin
  2
_OPEN
 70
     0
 10
0.0
 20
0.0
 30
0.0
  3
_OPEN
  1

  0
LINE
  5
6F
330
6D
100
AcDbEntity
  8
0
  6
BYBLOCK
 62
     0
100
AcDbLine
 10
-1.0
 20
0.1666666666666666
 30
0.0
 11
0.0
 21
0.0
 31
0.0
  0
LINE
  5
70
330
6D
100
AcDbEntity
  8
0
  6
BYBLOCK
 62
     0
100
AcDbLine
 10
0.0
 20
0.0
 30
0.0
 11
-1.0
 21
-0.1666666666666666
 31
0.0
  0
LINE
  5
71
330
6D
100
AcDbEntity
  8
0
  6
BYBLOCK
 62
     0
100
AcDbLine
 10
0.0
 20
0.0
 30
0.0
 11
-1.0
 21
0.0
 31
0.0
  0
ENDBLK
  5
72
330
6D
100
AcDbEntity
  8
0
100
AcDbBlockEnd
  0
BLOCK
  5
58F
330
304
100
AcDbEntity
  8
0
100
AcDbBlockBegin
  2
*D1
 70
     1
 10
0.0
 20
0.0
 30
0.0
  3
*D1
  1

  0
LINE
  5
A14
330
304
100
AcDbEntity
  8
SUNPOU
100
AcDbLine
 10
254.3188115673576
 20
276.8068710362062
 30
0.0
 11
254.3188115673576
 21
325.4144084289504
 31
0.0
  0
LINE
  5
A15
330
304
100
AcDbEntity
  8
SUNPOU
100
AcDbLine
 10
103.5376878041978
 20
254.389170248571
 30
0.0
 11
103.5376878041978
 21
325.4144084289504
 31
0.0
  0
LINE
  5
A16
330
304
100
AcDbEntity
  8
SUNPOU
100
AcDbLine
 10
251.3188115673576
 20
323.9144084289504
 30
0.0
 11
106.5376878041978
 21
323.9144084289504
 31
0.0
  0
INSERT
  5
A17
330
304
100
AcDbEntity
  8
SUNPOU
100
AcDbBlockReference
  2
_OPEN
 10
254.3188115673576
 20
323.9144084289504
 30
0.0
 41
3.0
 42
3.0
 43
3.0
  0
INSERT
  5
A18
330
304
100
AcDbEntity
  8
SUNPOU
100
AcDbBlockReference
  2
_OPEN
 10
103.5376878041978
 20
323.9144084289504
 30
0.0
 41
3.0
 42
3.0
 43
3.0
 50
180.0
  0
MTEXT
  5
A19
330
304
100
AcDbEntity
  8
SUNPOU
100
AcDbMText
 10
178.9282496857777
 20
327.9144084289504
 30
0.0
 40
6.0
 41
0.0
 71
     5
 72
     5
  1
\A1;151
1001
ACAD
1000
MTEXTBEGIN
1070
    73
1070
     1
1070
    44
1040
1.0
1070
    74
1070
     0
1000
MTEXTEND
1000
MTEXTBEGIN
1070
    73
1070
     1
1070
    44
1040
1.0
1070
    74
1070
     0
1000
MTEXTEND
  0
POINT
  5
A1A
330
304
100
AcDbEntity
  8
DEFPOINTS
 62
     0
100
AcDbPoint
 10
254.3188115673576
 20
273.8068710362063
 30
0.0
  0
POINT
  5
A1B
330
304
100
AcDbEntity
  8
DEFPOINTS
 62
     0
100
AcDbPoint
 10
103.5376878041978
 20
251.3891702485711
 30
0.0
  0
POINT
  5
A1C
330
304
100
AcDbEntity
  8
DEFPOINTS
 62
     0
100
AcDbPoint
 10
103.5376878041978
 20
323.9144084289504
 30
0.0
  0
ENDBLK
  5
599
330
304
100
AcDbEntity
  8
0
100
AcDbBlockEnd
  0
BLOCK
  5
56E
330
31C
100
AcDbEntity
  8
0
100
AcDbBlockBegin
  2
*D2
 70
     1
 10
0.0
 20
0.0
 30
0.0
  3
*D2
  1

  0
LINE
  5
A1D
330
31C
100
AcDbEntity
  8
SUNPOU
100
AcDbLine
 10
245.3677674590962
 20
291.8530094626707
 30
0.0
 11
274.1554173016973
 21
291.8530094626707
 31
0.0
  0
LINE
  5
A1E
330
31C
100
AcDbEntity
  8
SUNPOU
100
AcDbLine
 10
159.5644459029752
 20
175.8891686169707
 30
0.0
 11
274.1554173016973
 21
175.8891686169707
 31
0.0
  0
LINE
  5
A1F
330
31C
100
AcDbEntity
  8
SUNPOU
100
AcDbLine
 10
272.6554173016972
 20
288.8530094626707
 30
0.0
 11
272.6554173016972
 21
178.8891686169707
 31
0.0
  0
INSERT
  5
A20
330
31C
100
AcDbEntity
  8
SUNPOU
100
AcDbBlockReference
  2
_OPEN
 10
272.6554173016972
 20
291.8530094626707
 30
0.0
 41
3.0
 42
3.0
 43
3.0
 50
90.0
  0
INSERT
  5
A21
330
31C
100
AcDbEntity
  8
SUNPOU
100
AcDbBlockReference
  2
_OPEN
 10
272.6554173016972
 20
175.8891686169707
 30
0.0
 41
3.0
 42
3.0
 43
3.0
 50
270.0
  0
MTEXT
  5
A22
330
31C
100
AcDbEntity
  8
SUNPOU
100
AcDbMText
 10
268.6554173016972
 20
233.8710890398207
 30
0.0
 40
6.0
 41
0.0
 71
     5
 72
     5
  1
\A1;116
 11
0.0000000000000001
 21
1.0
 31
0.0
1001
ACAD
1000
MTEXTBEGIN
1070
    73
1070
     1
1070
    44
1040
1.0
1070
    74
1070
     0
1000
MTEXTEND
1000
MTEXTBEGIN
1070
    73
1070
     1
1070
    44
1040
1.0
1070
    74
1070
     0
1000
MTEXTEND
  0
POINT
  5
A23
330
31C
100
AcDbEntity
  8
DEFPOINTS
 62
     0
100
AcDbPoint
 10
242.3677674590962
 20
291.8530094626707
 30
0.0
  0
POINT
  5
A24
330
31C
100
AcDbEntity
  8
DEFPOINTS
 62
     0
100
AcDbPoint
 10
156.5644459029751
 20
175.8891686169707
 30
0.0
  0
POINT
  5
A25
330
31C
100
AcDbEntity
  8
DEFPOINTS
 62
     0
100
AcDbPoint
 10
272.6554173016972
 20
175.8891686169707
 30
0.0
  0
ENDBLK
  5
578
330
31C
100
AcDbEntity
  8
0
100
AcDbBlockEnd
  0
BLOCK
  5
542
330
328
100
AcDbEntity
  8
0
100
AcDbBlockBegin
  2
*D3
 70
     1
 10
0.0
 20
0.0
 30
0.0
  3
*D3
  1

  0
LINE
  5
A26
330
328
100
AcDbEntity
  8
SUNPOU
100
AcDbLine
 10
207.5376878651807
 20
294.8530094626708
 30
0.0
 11
207.5376878651807
 21
311.421565171609
 31
0.0
  0
LINE
  5
A27
330
328
100
AcDbEntity
  8
SUNPOU
100
AcDbLine
 10
167.5376878651891
 20
254.389162113915
 30
0.0
 11
167.5376878651891
 21
311.421565171609
 31
0.0
  0
LINE
  5
A28
330
328
100
AcDbEntity
  8
SUNPOU
100
AcDbLine
 10
204.5376878651807
 20
309.921565171609
 30
0.0
 11
170.5376878651891
 21
309.921565171609
 31
0.0
  0
INSERT
  5
A29
330
328
100
AcDbEntity
  8
SUNPOU
100
AcDbBlockReference
  2
_OPEN
 10
207.5376878651807
 20
309.921565171609
 30
0.0
 41
3.0
 42
3.0
 43
3.0
  0
INSERT
  5
A2A
330
328
100
AcDbEntity
  8
SUNPOU
100
AcDbBlockReference
  2
_OPEN
 10
167.5376878651891
 20
309.921565171609
 30
0.0
 41
3.0
 42
3.0
 43
3.0
 50
180.0
  0
MTEXT
  5
A2B
330
328
100
AcDbEntity
  8
SUNPOU
100
AcDbMText
 10
186.4032866624496
 20
313.921565171609
 30
0.0
 40
6.0
 41
0.0
 71
     5
 72
     5
  1
\A1;40
1001
ACAD
1000
MTEXTBEGIN
1070
    73
1070
     1
1070
    44
1040
1.0
1070
    74
1070
     0
1000
MTEXTEND
1000
MTEXTBEGIN
1070
    73
1070
     1
1070
    44
1040
1.0
1070
    74
1070
     0
1000
MTEXTEND
  0
POINT
  5
A2C
330
328
100
AcDbEntity
  8
DEFPOINTS
 62
     0
100
AcDbPoint
 10
207.5376878651807
 20
291.8530094626707
 30
0.0
  0
POINT
  5
A2D
330
328
100
AcDbEntity
  8
DEFPOINTS
 62
     0
100
AcDbPoint
 10
167.5376878651891
 20
251.389162113915
 30
0.0
  0
POINT
  5
A2E
330
328
100
AcDbEntity
  8
DEFPOINTS
 62
     0
100
AcDbPoint
 10
167.5376878651891
 20
309.921565171609
 30
0.0
  0
ENDBLK
  5
54C
330
328
100
AcDbEntity
  8
0
100
AcDbBlockEnd
  0
BLOCK
  5
558
330
334
100
AcDbEntity
  8
0
100
AcDbBlockBegin
  2
*D4
 70
     1
 10
0.0
 20
0.0
 30
0.0
  3
*D4
  1

  0
LINE
  5
A2F
330
334
100
AcDbEntity
  8
SUNPOU
100
AcDbLine
 10
103.5376878041978
 20
254.389170248571
 30
0.0
 11
103.5376878041978
 21
311.4732373980741
 31
0.0
  0
LINE
  5
A30
330
334
100
AcDbEntity
  8
SUNPOU
100
AcDbLine
 10
167.5376878651891
 20
254.389162113915
 30
0.0
 11
167.5376878651891
 21
311.4732373980741
 31
0.0
  0
LINE
  5
A31
330
334
100
AcDbEntity
  8
SUNPOU
100
AcDbLine
 10
106.5376878041978
 20
309.9732373980741
 30
0.0
 11
164.5376878651891
 21
309.9732373980741
 31
0.0
  0
INSERT
  5
A32
330
334
100
AcDbEntity
  8
SUNPOU
100
AcDbBlockReference
  2
_OPEN
 10
103.5376878041978
 20
309.9732373980741
 30
0.0
 41
3.0
 42
3.0
 43
3.0
 50
180.0
  0
INSERT
  5
A33
330
334
100
AcDbEntity
  8
SUNPOU
100
AcDbBlockReference
  2
_OPEN
 10
167.5376878651891
 20
309.9732373980741
 30
0.0
 41
3.0
 42
3.0
 43
3.0
  0
MTEXT
  5
A34
330
334
100
AcDbEntity
  8
SUNPOU
100
AcDbMText
 10
135.5376878346934
 20
313.9732373980741
 30
0.0
 40
6.0
 41
0.0
 71
     5
 72
     5
  1
\A1;64
1001
ACAD
1000
MTEXTBEGIN
1070
    73
1070
     1
1070
    44
1040
1.0
1070
    74
1070
     0
1000
MTEXTEND
1000
MTEXTBEGIN
1070
    73
1070
     1
1070
    44
1040
1.0
1070
    74
1070
     0
1000
MTEXTEND
  0
POINT
  5
A35
330
334
100
AcDbEntity
  8
DEFPOINTS
 62
     0
100
AcDbPoint
 10
103.5376878041978
 20
251.3891702485711
 30
0.0
  0
POINT
  5
A36
330
334
100
AcDbEntity
  8
DEFPOINTS
 62
     0
100
AcDbPoint
 10
167.5376878651891
 20
251.389162113915
 30
0.0
  0
POINT
  5
A37
330
334
100
AcDbEntity
  8
DEFPOINTS
 62
     0
100
AcDbPoint
 10
167.5376878651891
 20
309.9732373980741
 30
0.0
  0
ENDBLK
  5
562
330
334
100
AcDbEntity
  8
0
100
AcDbBlockEnd
  0
BLOCK
  5
584
330
340
100
AcDbEntity
  8
0
100
AcDbBlockBegin
  2
*D5
 70
     1
 10
0.0
 20
0.0
 30
0.0
  3
*D5
  1

  0
LINE
  5
A38
330
340
100
AcDbEntity
  8
SUNPOU
100
AcDbLine
 10
100.5376878041978
 20
251.3891702485711
 30
0.0
 11
77.54749987245171
 21
251.3891702485711
 31
0.0
  0
LINE
  5
A39
330
340
100
AcDbEntity
  8
SUNPOU
100
AcDbLine
 10
153.5644459029751
 20
175.8891686169707
 30
0.0
 11
77.54749987245169
 21
175.8891686169707
 31
0.0
  0
LINE
  5
A3A
330
340
100
AcDbEntity
  8
SUNPOU
100
AcDbLine
 10
79.04749987245171
 20
248.389170248571
 30
0.0
 11
79.04749987245169
 21
178.8891686169707
 31
0.0
  0
INSERT
  5
A3B
330
340
100
AcDbEntity
  8
SUNPOU
100
AcDbBlockReference
  2
_OPEN
 10
79.04749987245171
 20
251.3891702485711
 30
0.0
 41
3.0
 42
3.0
 43
3.0
 50
90.0
  0
INSERT
  5
A3C
330
340
100
AcDbEntity
  8
SUNPOU
100
AcDbBlockReference
  2
_OPEN
 10
79.04749987245169
 20
175.8891686169707
 30
0.0
 41
3.0
 42
3.0
 43
3.0
 50
270.0
  0
MTEXT
  5
A3D
330
340
100
AcDbEntity
  8
SUNPOU
100
AcDbMText
 10
75.04749987245166
 20
213.6391694327709
 30
0.0
 40
6.0
 41
0.0
 71
     5
 72
     5
  1
\A1;76
 11
0.0000000000000001
 21
1.0
 31
0.0
1001
ACAD
1000
MTEXTBEGIN
1070
    73
1070
     1
1070
    44
1040
1.0
1070
    74
1070
     0
1000
MTEXTEND
1000
MTEXTBEGIN
1070
    73
1070
     1
1070
    44
1040
1.0
1070
    74
1070
     0
1000
MTEXTEND
  0
POINT
  5
A3E
330
340
100
AcDbEntity
  8
DEFPOINTS
 62
     0
100
AcDbPoint
 10
103.5376878041978
 20
251.3891702485711
 30
0.0
  0
POINT
  5
A3F
330
340
100
AcDbEntity
  8
DEFPOINTS
 62
     0
100
AcDbPoint
 10
156.5644459029751
 20
175.8891686169707
 30
0.0
  0
POINT
  5
A40
330
340
100
AcDbEntity
  8
DEFPOINTS
 62
     0
100
AcDbPoint
 10
79.04749987245169
 20
175.8891686169707
 30
0.0
  0
ENDBLK
  5
58E
330
340
100
AcDbEntity
  8
0
100
AcDbBlockEnd
  0
BLOCK
  5
4D5
330
49F
100
AcDbEntity
  8
0
100
AcDbBlockBegin
  2
*D6
 70
     1
 10
0.0
 20
0.0
 30
0.0
  3
*D6
  1

  0
LINE
  5
A41
330
49F
100
AcDbEntity
  8
SUNPOU
100
AcDbLine
 10
256.575078700696
 20
405.6264692702341
 30
0.0
 11
283.4520781744405
 21
405.6264692702341
 31
0.0
  0
LINE
  5
A42
330
49F
100
AcDbEntity
  8
SUNPOU
100
AcDbLine
 10
214.8397014112165
 20
381.1264692702345
 30
0.0
 11
283.4520781744404
 21
381.1264692702345
 31
0.0
  0
LINE
  5
A43
330
49F
100
AcDbEntity
  8
SUNPOU
100
AcDbLine
 10
280.4520781744404
 20
398.6264692702341
 30
0.0
 11
280.4520781744404
 21
388.1264692702345
 31
0.0
  0
INSERT
  5
A44
330
49F
100
AcDbEntity
  8
SUNPOU
100
AcDbBlockReference
  2
_OPEN
 10
280.4520781744404
 20
405.6264692702341
 30
0.0
 41
7.0
 42
7.0
 43
7.0
 50
90.0
  0
INSERT
  5
A45
330
49F
100
AcDbEntity
  8
SUNPOU
100
AcDbBlockReference
  2
_OPEN
 10
280.4520781744404
 20
381.1264692702345
 30
0.0
 41
7.0
 42
7.0
 43
7.0
 50
270.0
  0
MTEXT
  5
A46
330
49F
100
AcDbEntity
  8
SUNPOU
100
AcDbMText
 10
275.4520781744403
 20
393.3764692702343
 30
0.0
 40
6.0
 41
0.0
 71
     5
 72
     5
  1
\A1;※25
 11
0.0000000000000001
 21
1.0
 31
0.0
1001
ACAD
1000
MTEXTBEGIN
1070
    73
1070
     1
1070
    44
1040
1.0
1070
    74
1070
     0
1000
MTEXTEND
1000
MTEXTBEGIN
1070
    73
1070
     1
1070
    44
1040
1.0
1070
    74
1070
     0
1000
MTEXTEND
  0
POINT
  5
A47
330
49F
100
AcDbEntity
  8
DEFPOINTS
 62
     0
100
AcDbPoint
 10
250.5750787006959
 20
405.6264692702341
 30
0.0
  0
POINT
  5
A48
330
49F
100
AcDbEntity
  8
DEFPOINTS
 62
     0
100
AcDbPoint
 10
208.8397014112165
 20
381.1264692702345
 30
0.0
  0
POINT
  5
A49
330
49F
100
AcDbEntity
  8
DEFPOINTS
 62
     0
100
AcDbPoint
 10
280.4520781744404
 20
381.1264692702345
 30
0.0
  0
ENDBLK
  5
4E1
330
49F
100
AcDbEntity
  8
0
100
AcDbBlockEnd
  0
BLOCK
  5
4AF
330
4AE
100
AcDbEntity
  8
0
100
AcDbBlockBegin
  2
*D7
 70
     1
 10
0.0
 20
0.0
 30
0.0
  3
*D7
  1

  0
LINE
  5
A4A
330
4AE
100
AcDbEntity
  8
SUNPOU
100
AcDbLine
 10
256.575078700696
 20
405.6264692702341
 30
0.0
 11
305.020524607402
 21
405.6264692702341
 31
0.0
  0
LINE
  5
A4B
330
4AE
100
AcDbEntity
  8
SUNPOU
100
AcDbLine
 10
256.6238294808956
 20
375.6264692702341
 30
0.0
 11
305.0205246074019
 21
375.6264692702341
 31
0.0
  0
LINE
  5
A4C
330
4AE
100
AcDbEntity
  8
SUNPOU
100
AcDbLine
 10
302.020524607402
 20
398.6264692702341
 30
0.0
 11
302.0205246074019
 21
382.6264692702341
 31
0.0
  0
INSERT
  5
A4D
330
4AE
100
AcDbEntity
  8
SUNPOU
100
AcDbBlockReference
  2
_OPEN
 10
302.020524607402
 20
405.6264692702341
 30
0.0
 41
7.0
 42
7.0
 43
7.0
 50
90.0
  0
INSERT
  5
A4E
330
4AE
100
AcDbEntity
  8
SUNPOU
100
AcDbBlockReference
  2
_OPEN
 10
302.0205246074019
 20
375.6264692702341
 30
0.0
 41
7.0
 42
7.0
 43
7.0
 50
270.0
  0
MTEXT
  5
A4F
330
4AE
100
AcDbEntity
  8
SUNPOU
100
AcDbMText
 10
297.0205246074019
 20
390.6264692702341
 30
0.0
 40
6.0
 41
0.0
 71
     5
 72
     5
  1
\A1;30
 11
0.0000000000000001
 21
1.0
 31
0.0
1001
ACAD
1000
MTEXTBEGIN
1070
    73
1070
     1
1070
    44
1040
1.0
1070
    74
1070
     0
1000
MTEXTEND
1000
MTEXTBEGIN
1070
    73
1070
     1
1070
    44
1040
1.0
1070
    74
1070
     0
1000
MTEXTEND
  0
POINT
  5
A50
330
4AE
100
AcDbEntity
  8
DEFPOINTS
 62
     0
100
AcDbPoint
 10
250.5750787006959
 20
405.6264692702341
 30
0.0
  0
POINT
  5
A51
330
4AE
100
AcDbEntity
  8
DEFPOINTS
 62
     0
100
AcDbPoint
 10
250.6238294808956
 20
375.6264692702341
 30
0.0
  0
POINT
  5
A52
330
4AE
100
AcDbEntity
  8
DEFPOINTS
 62
     0
100
AcDbPoint
 10
302.0205246074019
 20
375.6264692702341
 30
0.0
  0
ENDBLK
  5
4B9
330
4AE
100
AcDbEntity
  8
0
100
AcDbBlockEnd
  0
BLOCK
  5
5DB
330
5A5
100
AcDbEntity
  8
0
100
AcDbBlockBegin
  2
*D8
 70
     1
 10
0.0
 20
0.0
 30
0.0
  3
*D8
  1

  0
LINE
  5
A53
330
5A5
100
AcDbEntity
  8
SUNPOU
100
AcDbLine
 10
559.5258774706258
 20
405.6264692702341
 30
0.0
 11
541.9000680760527
 21
405.6264692702341
 31
0.0
  0
LINE
  5
A54
330
5A5
100
AcDbEntity
  8
SUNPOU
100
AcDbLine
 10
601.2612547601052
 20
381.1264692702345
 30
0.0
 11
541.9000680760527
 21
381.1264692702345
 31
0.0
  0
LINE
  5
A55
330
5A5
100
AcDbEntity
  8
SUNPOU
100
AcDbLine
 10
544.9000680760527
 20
398.6264692702341
 30
0.0
 11
544.9000680760527
 21
388.1264692702345
 31
0.0
  0
INSERT
  5
A56
330
5A5
100
AcDbEntity
  8
SUNPOU
100
AcDbBlockReference
  2
_OPEN
 10
544.9000680760527
 20
405.6264692702341
 30
0.0
 41
7.0
 42
7.0
 43
7.0
 50
90.0
  0
INSERT
  5
A57
330
5A5
100
AcDbEntity
  8
SUNPOU
100
AcDbBlockReference
  2
_OPEN
 10
544.9000680760527
 20
381.1264692702345
 30
0.0
 41
7.0
 42
7.0
 43
7.0
 50
270.0
  0
MTEXT
  5
A58
330
5A5
100
AcDbEntity
  8
SUNPOU
100
AcDbMText
 10
539.9000680760527
 20
393.3764692702343
 30
0.0
 40
6.0
 41
0.0
 71
     5
 72
     5
  1
\A1;※25
 11
0.0000000000000001
 21
1.0
 31
0.0
1001
ACAD
1000
MTEXTBEGIN
1070
    73
1070
     1
1070
    44
1040
1.0
1070
    74
1070
     0
1000
MTEXTEND
1000
MTEXTBEGIN
1070
    73
1070
     1
1070
    44
1040
1.0
1070
    74
1070
     0
1000
MTEXTEND
  0
POINT
  5
A59
330
5A5
100
AcDbEntity
  8
DEFPOINTS
 62
     0
100
AcDbPoint
 10
565.5258774706258
 20
405.6264692702341
 30
0.0
  0
POINT
  5
A5A
330
5A5
100
AcDbEntity
  8
DEFPOINTS
 62
     0
100
AcDbPoint
 10
607.2612547601051
 20
381.1264692702345
 30
0.0
  0
POINT
  5
A5B
330
5A5
100
AcDbEntity
  8
DEFPOINTS
 62
     0
100
AcDbPoint
 10
544.9000680760527
 20
381.1264692702345
 30
0.0
  0
ENDBLK
  5
5E7
330
5A5
100
AcDbEntity
  8
0
100
AcDbBlockEnd
  0
BLOCK
  5
5B5
330
5B4
100
AcDbEntity
  8
0
100
AcDbBlockBegin
  2
*D9
 70
     1
 10
0.0
 20
0.0
 30
0.0
  3
*D9
  1

  0
LINE
  5
A5C
330
5B4
100
AcDbEntity
  8
SUNPOU
100
AcDbLine
 10
559.5258774706258
 20
405.6264692702341
 30
0.0
 11
523.3528703688821
 21
405.6264692702341
 31
0.0
  0
LINE
  5
A5D
330
5B4
100
AcDbEntity
  8
SUNPOU
100
AcDbLine
 10
559.4771266904261
 20
375.6264692702341
 30
0.0
 11
523.3528703688821
 21
375.6264692702341
 31
0.0
  0
LINE
  5
A5E
330
5B4
100
AcDbEntity
  8
SUNPOU
100
AcDbLine
 10
526.352870368882
 20
398.6264692702341
 30
0.0
 11
526.352870368882
 21
382.6264692702341
 31
0.0
  0
INSERT
  5
A5F
330
5B4
100
AcDbEntity
  8
SUNPOU
100
AcDbBlockReference
  2
_OPEN
 10
526.352870368882
 20
405.6264692702341
 30
0.0
 41
7.0
 42
7.0
 43
7.0
 50
90.0
  0
INSERT
  5
A60
330
5B4
100
AcDbEntity
  8
SUNPOU
100
AcDbBlockReference
  2
_OPEN
 10
526.352870368882
 20
375.6264692702341
 30
0.0
 41
7.0
 42
7.0
 43
7.0
 50
270.0
  0
MTEXT
  5
A61
330
5B4
100
AcDbEntity
  8
SUNPOU
100
AcDbMText
 10
521.352870368882
 20
390.6264692702341
 30
0.0
 40
6.0
 41
0.0
 71
     5
 72
     5
  1
\A1;30
 11
0.0000000000000001
 21
1.0
 31
0.0
1001
ACAD
1000
MTEXTBEGIN
1070
    73
1070
     1
1070
    44
1040
1.0
1070
    74
1070
     0
1000
MTEXTEND
1000
MTEXTBEGIN
1070
    73
1070
     1
1070
    44
1040
1.0
1070
    74
1070
     0
1000
MTEXTEND
  0
POINT
  5
A62
330
5B4
100
AcDbEntity
  8
DEFPOINTS
 62
     0
100
AcDbPoint
 10
565.5258774706258
 20
405.6264692702341
 30
0.0
  0
POINT
  5
A63
330
5B4
100
AcDbEntity
  8
DEFPOINTS
 62
     0
100
AcDbPoint
 10
565.477126690426
 20
375.6264692702341
 30
0.0
  0
POINT
  5
A64
330
5B4
100
AcDbEntity
  8
DEFPOINTS
 62
     0
100
AcDbPoint
 10
526.352870368882
 20
375.6264692702341
 30
0.0
  0
ENDBLK
  5
5BF
330
5B4
100
AcDbEntity
  8
0
100
AcDbBlockEnd
  0
BLOCK
  5
5FB
330
5FA
100
AcDbEntity
  8
0
100
AcDbBlockBegin
  2
*D10
 70
     1
 10
0.0
 20
0.0
 30
0.0
  3
*D10
  1

  0
LINE
  5
A65
330
5FA
100
AcDbEntity
  8
SUNPOU
  6
CONTINUOUS
100
AcDbLine
 10
712.5632683671239
 20
260.389170248571
 30
0.0
 11
712.5632683671239
 21
327.3291568644808
 31
0.0
  0
LINE
  5
A66
330
5FA
100
AcDbEntity
  8
SUNPOU
  6
CONTINUOUS
100
AcDbLine
 10
561.7628760539629
 20
279.4169486794944
 30
0.0
 11
561.7628760539629
 21
327.3291568644808
 31
0.0
  0
LINE
  5
A67
330
5FA
100
AcDbEntity
  8
SUNPOU
  6
CONTINUOUS
100
AcDbLine
 10
705.5632683671238
 20
324.3291568644808
 30
0.0
 11
568.7628760539629
 21
324.3291568644808
 31
0.0
  0
INSERT
  5
A68
330
5FA
100
AcDbEntity
  8
SUNPOU
  6
CONTINUOUS
100
AcDbBlockReference
  2
_OPEN
 10
712.5632683671239
 20
324.3291568644808
 30
0.0
 41
7.0
 42
7.0
 43
7.0
  0
INSERT
  5
A69
330
5FA
100
AcDbEntity
  8
SUNPOU
  6
CONTINUOUS
100
AcDbBlockReference
  2
_OPEN
 10
561.7628760539629
 20
324.3291568644808
 30
0.0
 41
7.0
 42
7.0
 43
7.0
 50
180.0
  0
MTEXT
  5
A6A
330
5FA
100
AcDbEntity
  8
SUNPOU
  6
CONTINUOUS
100
AcDbMText
 10
637.1630722105434
 20
329.3291568644808
 30
0.0
 40
6.0
 41
0.0
 71
     5
 72
     5
  1
\A1;151
1001
ACAD
1000
MTEXTBEGIN
1070
    73
1070
     1
1070
    44
1040
1.0
1070
    74
1070
     0
1000
MTEXTEND
1000
MTEXTBEGIN
1070
    73
1070
     1
1070
    44
1040
1.0
1070
    74
1070
     0
1000
MTEXTEND
  0
POINT
  5
A6B
330
5FA
100
AcDbEntity
  8
DEFPOINTS
  6
CONTINUOUS
 62
     0
100
AcDbPoint
 10
712.5632683671239
 20
254.389170248571
 30
0.0
  0
POINT
  5
A6C
330
5FA
100
AcDbEntity
  8
DEFPOINTS
  6
CONTINUOUS
 62
     0
100
AcDbPoint
 10
561.7628760539629
 20
273.4169486794944
 30
0.0
  0
POINT
  5
A6D
330
5FA
100
AcDbEntity
  8
DEFPOINTS
  6
CONTINUOUS
 62
     0
100
AcDbPoint
 10
561.7628760539629
 20
324.3291568644808
 30
0.0
  0
ENDBLK
  5
605
330
5FA
100
AcDbEntity
  8
0
100
AcDbBlockEnd
  0
BLOCK
  5
608
330
607
100
AcDbEntity
  8
0
100
AcDbBlockBegin
  2
*D11
 70
     1
 10
0.0
 20
0.0
 30
0.0
  3
*D11
  1

  0
LINE
  5
A6E
330
607
100
AcDbEntity
  8
SUNPOU
  6
CONTINUOUS
100
AcDbLine
 10
608.563268306141
 20
297.8530094626707
 30
0.0
 11
608.563268306141
 21
312.5658753281782
 31
0.0
  0
LINE
  5
A6F
330
607
100
AcDbEntity
  8
SUNPOU
  6
CONTINUOUS
100
AcDbLine
 10
648.5632683061326
 20
257.3891621139151
 30
0.0
 11
648.5632683061326
 21
312.5658753281782
 31
0.0
  0
LINE
  5
A70
330
607
100
AcDbEntity
  8
SUNPOU
  6
CONTINUOUS
100
AcDbLine
 10
615.563268306141
 20
309.5658753281782
 30
0.0
 11
641.5632683061326
 21
309.5658753281782
 31
0.0
  0
INSERT
  5
A71
330
607
100
AcDbEntity
  8
SUNPOU
  6
CONTINUOUS
100
AcDbBlockReference
  2
_OPEN
 10
608.563268306141
 20
309.5658753281782
 30
0.0
 41
7.0
 42
7.0
 43
7.0
 50
180.0
  0
INSERT
  5
A72
330
607
100
AcDbEntity
  8
SUNPOU
  6
CONTINUOUS
100
AcDbBlockReference
  2
_OPEN
 10
648.5632683061326
 20
309.5658753281782
 30
0.0
 41
7.0
 42
7.0
 43
7.0
  0
MTEXT
  5
A73
330
607
100
AcDbEntity
  8
SUNPOU
  6
CONTINUOUS
100
AcDbMText
 10
628.5632683061368
 20
314.5658753281782
 30
0.0
 40
6.0
 41
0.0
 71
     5
 72
     5
  1
\A1;40
1001
ACAD
1000
MTEXTBEGIN
1070
    73
1070
     1
1070
    44
1040
1.0
1070
    74
1070
     0
1000
MTEXTEND
1000
MTEXTBEGIN
1070
    73
1070
     1
1070
    44
1040
1.0
1070
    74
1070
     0
1000
MTEXTEND
  0
POINT
  5
A74
330
607
100
AcDbEntity
  8
DEFPOINTS
  6
CONTINUOUS
 62
     0
100
AcDbPoint
 10
608.563268306141
 20
291.8530094626707
 30
0.0
  0
POINT
  5
A75
330
607
100
AcDbEntity
  8
DEFPOINTS
  6
CONTINUOUS
 62
     0
100
AcDbPoint
 10
648.5632683061326
 20
251.3891621139151
 30
0.0
  0
POINT
  5
A76
330
607
100
AcDbEntity
  8
DEFPOINTS
  6
CONTINUOUS
 62
     0
100
AcDbPoint
 10
648.5632683061326
 20
309.5658753281782
 30
0.0
  0
ENDBLK
  5
612
330
607
100
AcDbEntity
  8
0
100
AcDbBlockEnd
  0
BLOCK
  5
615
330
614
100
AcDbEntity
  8
0
100
AcDbBlockBegin
  2
*D12
 70
     1
 10
0.0
 20
0.0
 30
0.0
  3
*D12
  1

  0
LINE
  5
1371
330
614
100
AcDbEntity
  8
SUNPOU
  6
CONTINUOUS
100
AcDbLine
 10
712.5632683671239
 20
266.389170248571
 30
0.0
 11
712.5632683671239
 21
312.5658753281782
 31
0.0
  0
LINE
  5
1372
330
614
100
AcDbEntity
  8
SUNPOU
  6
CONTINUOUS
100
AcDbLine
 10
655.5632683061325
 20
309.5658753281782
 30
0.0
 11
705.5632683671238
 21
309.5658753281782
 31
0.0
  0
INSERT
  5
1373
330
614
100
AcDbEntity
  8
SUNPOU
  6
CONTINUOUS
100
AcDbBlockReference
  2
_OPEN
 10
648.5632683061326
 20
309.5658753281782
 30
0.0
 41
7.0
 42
7.0
 43
7.0
 50
180.0
  0
INSERT
  5
1374
330
614
100
AcDbEntity
  8
SUNPOU
  6
CONTINUOUS
100
AcDbBlockReference
  2
_OPEN
 10
712.5632683671239
 20
309.5658753281782
 30
0.0
 41
7.0
 42
7.0
 43
7.0
  0
MTEXT
  5
1375
330
614
100
AcDbEntity
  8
SUNPOU
  6
CONTINUOUS
100
AcDbMText
 10
680.5632683366281
 20
314.5658753281782
 30
0.0
 40
6.0
 41
0.0
 71
     5
 72
     1
  1
\A1;64
  0
POINT
  5
1376
330
614
100
AcDbEntity
  8
DEFPOINTS
  6
CONTINUOUS
 62
     0
100
AcDbPoint
 10
648.5632683061326
 20
251.3891621139151
 30
0.0
  0
POINT
  5
1377
330
614
100
AcDbEntity
  8
DEFPOINTS
  6
CONTINUOUS
 62
     0
100
AcDbPoint
 10
712.5632683671239
 20
260.389170248571
 30
0.0
  0
POINT
  5
1378
330
614
100
AcDbEntity
  8
DEFPOINTS
  6
CONTINUOUS
 62
     0
100
AcDbPoint
 10
712.5632683671239
 20
309.5658753281782
 30
0.0
  0
ENDBLK
  5
61E
330
614
100
AcDbEntity
  8
0
100
AcDbBlockEnd
  0
BLOCK
  5
621
330
620
100
AcDbEntity
  8
0
100
AcDbBlockBegin
  2
*D13
 70
     1
 10
0.0
 20
0.0
 30
0.0
  3
*D13
  1

  0
LINE
  5
A7F
330
620
100
AcDbEntity
  8
SUNPOU
  6
CONTINUOUS
100
AcDbLine
 10
708.4628757361254
 20
251.3891689647707
 30
0.0
 11
745.5287098439112
 21
251.3891689647707
 31
0.0
  0
LINE
  5
A80
330
620
100
AcDbEntity
  8
SUNPOU
  6
CONTINUOUS
100
AcDbLine
 10
665.5365102683466
 20
175.8891686169706
 30
0.0
 11
745.5287098439112
 21
175.8891686169706
 31
0.0
  0
LINE
  5
A81
330
620
100
AcDbEntity
  8
SUNPOU
  6
CONTINUOUS
100
AcDbLine
 10
742.5287098439111
 20
244.3891689647707
 30
0.0
 11
742.5287098439111
 21
182.8891686169706
 31
0.0
  0
INSERT
  5
A82
330
620
100
AcDbEntity
  8
SUNPOU
  6
CONTINUOUS
100
AcDbBlockReference
  2
_OPEN
 10
742.5287098439111
 20
251.3891689647707
 30
0.0
 41
7.0
 42
7.0
 43
7.0
 50
90.0
  0
INSERT
  5
A83
330
620
100
AcDbEntity
  8
SUNPOU
  6
CONTINUOUS
100
AcDbBlockReference
  2
_OPEN
 10
742.5287098439111
 20
175.8891686169706
 30
0.0
 41
7.0
 42
7.0
 43
7.0
 50
270.0
  0
MTEXT
  5
A84
330
620
100
AcDbEntity
  8
SUNPOU
  6
CONTINUOUS
100
AcDbMText
 10
737.5287098439112
 20
213.6391687908707
 30
0.0
 40
6.0
 41
0.0
 71
     5
 72
     5
  1
\A1;76
 11
0.0000000000000001
 21
1.0
 31
0.0
1001
ACAD
1000
MTEXTBEGIN
1070
    73
1070
     1
1070
    44
1040
1.0
1070
    74
1070
     0
1000
MTEXTEND
1000
MTEXTBEGIN
1070
    73
1070
     1
1070
    44
1040
1.0
1070
    74
1070
     0
1000
MTEXTEND
  0
POINT
  5
A85
330
620
100
AcDbEntity
  8
DEFPOINTS
  6
CONTINUOUS
 62
     0
100
AcDbPoint
 10
702.4628757361255
 20
251.3891689647707
 30
0.0
  0
POINT
  5
A86
330
620
100
AcDbEntity
  8
DEFPOINTS
  6
CONTINUOUS
 62
     0
100
AcDbPoint
 10
659.5365102683466
 20
175.8891686169706
 30
0.0
  0
POINT
  5
A87
330
620
100
AcDbEntity
  8
DEFPOINTS
  6
CONTINUOUS
 62
     0
100
AcDbPoint
 10
742.5287098439111
 20
175.8891686169706
 30
0.0
  0
ENDBLK
  5
62B
330
620
100
AcDbEntity
  8
0
100
AcDbBlockEnd
  0
BLOCK
  5
62E
330
62D
100
AcDbEntity
  8
0
100
AcDbBlockBegin
  2
*D14
 70
     1
 10
0.0
 20
0.0
 30
0.0
  3
*D14
  1

  0
LINE
  5
A88
330
62D
100
AcDbEntity
  8
SUNPOU
  6
CONTINUOUS
100
AcDbLine
 10
567.7331887122254
 20
291.8530094626707
 30
0.0
 11
536.8613928059504
 21
291.8530094626707
 31
0.0
  0
LINE
  5
A89
330
62D
100
AcDbEntity
  8
SUNPOU
  6
CONTINUOUS
100
AcDbLine
 10
653.5365102683466
 20
175.8891686169706
 30
0.0
 11
536.8613928059503
 21
175.8891686169707
 31
0.0
  0
LINE
  5
A8A
330
62D
100
AcDbEntity
  8
SUNPOU
  6
CONTINUOUS
100
AcDbLine
 10
539.8613928059504
 20
284.8530094626708
 30
0.0
 11
539.8613928059503
 21
182.8891686169706
 31
0.0
  0
INSERT
  5
A8B
330
62D
100
AcDbEntity
  8
SUNPOU
  6
CONTINUOUS
100
AcDbBlockReference
  2
_OPEN
 10
539.8613928059504
 20
291.8530094626707
 30
0.0
 41
7.0
 42
7.0
 43
7.0
 50
90.0
  0
INSERT
  5
A8C
330
62D
100
AcDbEntity
  8
SUNPOU
  6
CONTINUOUS
100
AcDbBlockReference
  2
_OPEN
 10
539.8613928059503
 20
175.8891686169707
 30
0.0
 41
7.0
 42
7.0
 43
7.0
 50
270.0
  0
MTEXT
  5
A8D
330
62D
100
AcDbEntity
  8
SUNPOU
  6
CONTINUOUS
100
AcDbMText
 10
534.8613928059503
 20
233.8710890398208
 30
0.0
 40
6.0
 41
0.0
 71
     5
 72
     5
  1
\A1;116
 11
0.0000000000000001
 21
1.0
 31
0.0
1001
ACAD
1000
MTEXTBEGIN
1070
    73
1070
     1
1070
    44
1040
1.0
1070
    74
1070
     0
1000
MTEXTEND
1000
MTEXTBEGIN
1070
    73
1070
     1
1070
    44
1040
1.0
1070
    74
1070
     0
1000
MTEXTEND
  0
POINT
  5
A8E
330
62D
100
AcDbEntity
  8
DEFPOINTS
  6
CONTINUOUS
 62
     0
100
AcDbPoint
 10
573.7331887122254
 20
291.8530094626707
 30
0.0
  0
POINT
  5
A8F
330
62D
100
AcDbEntity
  8
DEFPOINTS
  6
CONTINUOUS
 62
     0
100
AcDbPoint
 10
659.5365102683466
 20
175.8891686169706
 30
0.0
  0
POINT
  5
A90
330
62D
100
AcDbEntity
  8
DEFPOINTS
  6
CONTINUOUS
 62
     0
100
AcDbPoint
 10
539.8613928059503
 20
175.8891686169707
 30
0.0
  0
ENDBLK
  5
638
330
62D
100
AcDbEntity
  8
0
100
AcDbBlockEnd
  0
ENDSEC
  0
SECTION
  2
ENTITIES
  0
DIMENSION
  5
25F
330
1A
100
AcDbEntity
  8
SUNPOU
100
AcDbDimension
  2
*D1
 10
103.5376878041978
 20
323.9144084289504
 30
0.0
 11
178.9282496857777
 21
327.9144084289504
 31
0.0
 70
    32
  3
STANDARD
100
AcDbAlignedDimension
 13
254.3188115673576
 23
273.8068710362063
 33
0.0
 14
103.5376878041978
 24
251.3891702485711
 34
0.0
100
AcDbRotatedDimension
1001
ACAD
1000
DSTYLE
1002
{
1070
   372
1070
    -1
1070
   371
1070
    -1
1070
    41
1040
3.0
1070
    42
1040
3.0
1070
    43
1040
7.0
1070
    44
1040
1.5
1070
    73
1070
     0
1070
    74
1070
     0
1070
    77
1070
     3
1070
   140
1040
6.0
1070
   141
1040
150.0
1070
   147
1040
1.0
1070
   172
1070
     1
1070
   173
1070
     1
1070
   176
1070
   256
1070
   177
1070
   256
1070
   178
1070
   256
1070
   271
1070
     0
1070
   272
1070
     2
1070
     6
1000
OPEN
1070
     7
1000
OPEN
1002
}
  0
DIMENSION
  5
261
330
1A
100
AcDbEntity
  8
SUNPOU
100
AcDbDimension
  2
*D2
 10
272.6554173016972
 20
175.8891686169707
 30
0.0
 11
268.6554173016972
 21
233.8710890398207
 31
0.0
 70
    32
  3
STANDARD
100
AcDbAlignedDimension
 13
242.3677674590962
 23
291.8530094626707
 33
0.0
 14
156.5644459029751
 24
175.8891686169707
 34
0.0
 50
90.0
100
AcDbRotatedDimension
1001
ACAD
1000
DSTYLE
1002
{
1070
   372
1070
    -1
1070
   371
1070
    -1
1070
    41
1040
3.0
1070
    42
1040
3.0
1070
    43
1040
7.0
1070
    44
1040
1.5
1070
    73
1070
     0
1070
    74
1070
     0
1070
    77
1070
     3
1070
   140
1040
6.0
1070
   141
1040
150.0
1070
   147
1040
1.0
1070
   172
1070
     1
1070
   173
1070
     1
1070
   176
1070
   256
1070
   177
1070
   256
1070
   178
1070
   256
1070
   271
1070
     0
1070
   272
1070
     2
1070
     6
1000
OPEN
1070
     7
1000
OPEN
1002
}
  0
LINE
  5
262
330
1A
100
AcDbEntity
  8
SEIHIN
  6
CONTINUOUS
 62
     3
100
AcDbLine
 10
236.6047660423957
 20
378.1264692702343
 30
0.0
 11
112.1213753495956
 21
378.1264692702356
 31
0.0
  0
LINE
  5
263
330
1A
100
AcDbEntity
  8
SEIHIN
  6
CONTINUOUS
 62
     3
100
AcDbLine
 10
240.1047660423957
 20
378.1264692702342
 30
0.0
 11
109.1396580659957
 21
378.1264692702356
 31
0.0
  0
LINE
  5
265
330
1A
100
AcDbEntity
  8
SEIHIN
  6
CONTINUOUS
 62
     3
100
AcDbLine
 10
250.6238294808956
 20
375.6264692702341
 30
0.0
 11
102.7259356681957
 21
375.6264692702357
 31
0.0
  0
LINE
  5
266
330
1A
100
AcDbEntity
  8
SEIHIN
  6
CONTINUOUS
 62
     3
100
AcDbLine
 10
250.5750787006959
 20
405.6264692702341
 30
0.0
 11
101.7746864484959
 21
405.6264692702357
 31
0.0
  0
ARC
  5
26E
330
1A
100
AcDbEntity
  8
SEIHIN
  6
CONTINUOUS
 62
     3
100
AcDbCircle
 10
15.80515957749618
 20
297.6076965636708
 30
0.0
 40
232.5
100
AcDbArc
 50
333.1464202912
 51
354.2688755743
  0
LINE
  5
26F
330
1A
100
AcDbEntity
  8
SEIHIN
  6
CONTINUOUS
 62
     3
100
AcDbLine
 10
242.3677674590962
 20
291.8530094626707
 30
0.0
 11
208.3728767350962
 21
291.8530094626707
 31
0.0
  0
DIMENSION
  5
270
330
1A
100
AcDbEntity
  8
SUNPOU
100
AcDbDimension
  2
*D3
 10
167.5376878651891
 20
309.921565171609
 30
0.0
 11
186.4032866624496
 21
309.921565171609
 31
0.0
 70
   160
  3
STANDARD
100
AcDbAlignedDimension
 13
207.5376878651807
 23
291.8530094626707
 33
0.0
 14
167.5376878651891
 24
251.389162113915
 34
0.0
100
AcDbRotatedDimension
1001
ACAD
1000
DSTYLE
1002
{
1070
   372
1070
    -1
1070
   371
1070
    -1
1070
    41
1040
3.0
1070
    42
1040
3.0
1070
    43
1040
7.0
1070
    44
1040
1.5
1070
    73
1070
     0
1070
    74
1070
     0
1070
    77
1070
     3
1070
   140
1040
6.0
1070
   141
1040
150.0
1070
   147
1040
1.0
1070
   172
1070
     1
1070
   173
1070
     1
1070
   176
1070
   256
1070
   177
1070
   256
1070
   178
1070
   256
1070
   271
1070
     0
1070
   272
1070
     2
1070
     6
1000
OPEN
1070
     7
1000
OPEN
1002
}
  0
DIMENSION
  5
271
330
1A
100
AcDbEntity
  8
SUNPOU
100
AcDbDimension
  2
*D4
 10
167.5376878651891
 20
309.9732373980741
 30
0.0
 11
135.5376878346934
 21
313.9732373980741
 31
0.0
 70
    32
  3
STANDARD
100
AcDbAlignedDimension
 13
103.5376878041978
 23
251.3891702485711
 33
0.0
 14
167.5376878651891
 24
251.389162113915
 34
0.0
100
AcDbRotatedDimension
1001
ACAD
1000
DSTYLE
1002
{
1070
   372
1070
    -1
1070
   371
1070
    -1
1070
    41
1040
3.0
1070
    42
1040
3.0
1070
    43
1040
7.0
1070
    44
1040
1.5
1070
    73
1070
     0
1070
    74
1070
     0
1070
    77
1070
     3
1070
   140
1040
6.0
1070
   141
1040
150.0
1070
   147
1040
1.0
1070
   172
1070
     1
1070
   173
1070
     1
1070
   176
1070
   256
1070
   177
1070
   256
1070
   178
1070
   256
1070
   271
1070
     0
1070
   272
1070
     2
1070
     6
1000
OPEN
1070
     7
1000
OPEN
1002
}
  0
LINE
  5
272
330
1A
100
AcDbEntity
  8
SEIHIN
  6
CONTINUOUS
 62
     3
100
AcDbLine
 10
206.9505343342961
 20
291.2590471915708
 30
0.0
 11
168.1248481683962
 21
251.9831312358708
 31
0.0
  0
DIMENSION
  5
273
330
1A
100
AcDbEntity
  8
SUNPOU
100
AcDbDimension
  2
*D5
 10
79.04749987245169
 20
175.8891686169707
 30
0.0
 11
75.04749987245166
 21
213.6391694327709
 31
0.0
 70
    32
  3
STANDARD
100
AcDbAlignedDimension
 13
103.5376878041978
 23
251.3891702485711
 33
0.0
 14
156.5644459029751
 24
175.8891686169707
 34
0.0
 50
90.0
100
AcDbRotatedDimension
1001
ACAD
1000
DSTYLE
1002
{
1070
   372
1070
    -1
1070
   371
1070
    -1
1070
    41
1040
3.0
1070
    42
1040
3.0
1070
    43
1040
7.0
1070
    44
1040
1.5
1070
    73
1070
     0
1070
    74
1070
     0
1070
    77
1070
     3
1070
   140
1040
6.0
1070
   141
1040
150.0
1070
   147
1040
1.0
1070
   172
1070
     1
1070
   173
1070
     1
1070
   176
1070
   256
1070
   177
1070
   256
1070
   178
1070
   256
1070
   271
1070
     0
1070
   272
1070
     2
1070
     6
1000
OPEN
1070
     7
1000
OPEN
1002
}
  0
ARC
  5
276
330
1A
100
AcDbEntity
  8
SEIHIN
  6
CONTINUOUS
 62
     3
100
AcDbCircle
 10
205.1670925485962
 20
182.5745355665707
 30
0.0
 40
5.5
100
AcDbArc
 50
272.7942129201
 51
345.9637565320999
  0
ARC
  5
279
330
1A
100
AcDbEntity
  8
SEIHIN
  6
CONTINUOUS
 62
     3
100
AcDbCircle
 10
114.2143277803962
 20
184.2908500783708
 30
0.0
 40
7.5
100
AcDbArc
 50
182.7425542897
 51
267.5605862774
  0
LINE
  5
27A
330
1A
100
AcDbEntity
  8
CENTER_L
  6
CENTER
 62
     1
 48
5.0
100
AcDbLine
 10
156.5644459029751
 20
168.8891617661151
 30
0.0
 11
156.5644459029751
 21
188.8391617661151
 31
0.0
  0
ARC
  5
27D
330
1A
100
AcDbEntity
  8
SEIHIN
  6
CONTINUOUS
 62
     3
100
AcDbCircle
 10
156.5644526752962
 20
1178.38916861697
 30
0.0
 40
1002.5
100
AcDbArc
 50
267.5605862774
 51
272.7942129201
  0
LINE
  5
27E
330
1A
100
AcDbEntity
  8
SEIHIN
  6
CONTINUOUS
 62
     3
100
AcDbLine
 10
166.7025057676962
 20
251.3891689647707
 30
0.0
 11
111.4026594826962
 21
251.3891689647707
 31
0.0
  0
LINE
  5
27F
330
1A
100
AcDbEntity
  8
SEIHIN
  6
CONTINUOUS
 62
     3
100
AcDbLine
 10
211.1026960556962
 20
192.3891689647707
 30
0.0
 11
106.3421814279962
 21
192.3891689647707
 31
0.0
  0
LINE
  5
282
330
1A
100
AcDbEntity
  8
SEIHIN
  6
CONTINUOUS
 62
     3
100
AcDbLine
 10
103.9111181305962
 20
243.5330676173708
 30
0.0
 11
106.7441826929962
 21
183.9320004579708
 31
0.0
  0
LINE
  5
283
330
1A
100
AcDbEntity
  8
SEIHIN
  6
CONTINUOUS
 62
     3
100
AcDbLine
 10
113.6380804351962
 20
251.3891689647707
 30
0.0
 11
163.6380804351962
 21
251.3891626095708
 31
0.0
  0
ARC
  5
284
330
1A
100
AcDbEntity
  8
SEIHIN
  6
CONTINUOUS
 62
     3
100
AcDbCircle
 10
111.4026594826962
 20
243.8891689647707
 30
0.0
 40
7.5
100
AcDbArc
 50
90.0
 51
182.7214370785
  0
LINE
  5
294
330
1A
100
AcDbEntity
  8
SEIHIN
  6
CONTINUOUS
 62
     3
100
AcDbLine
 10
113.6380804351962
 20
251.3891689647707
 30
0.0
 11
111.4026594826962
 21
251.3891689647707
 31
0.0
  0
LINE
  5
299
330
1A
100
AcDbEntity
  8
SEIHIN
  6
CONTINUOUS
 62
     3
100
AcDbLine
 10
211.1806773424961
 20
192.3830504474707
 30
0.0
 11
220.0888624791962
 21
190.9764948994707
 31
0.0
  0
LINE
  5
29C
330
1A
100
AcDbEntity
  8
SEIHIN
  6
CONTINUOUS
 62
     3
100
AcDbLine
 10
210.5028762993962
 20
181.2405896288708
 30
0.0
 11
213.0974502403962
 21
191.6188853928707
 31
0.0
  0
ARC
  5
29D
330
1A
100
AcDbEntity
  8
SEIHIN
  6
CONTINUOUS
 62
     3
100
AcDbCircle
 10
211.1026960556962
 20
191.8891689647707
 30
0.0
 40
0.5
100
AcDbArc
 50
81.02737338510001
 51
90.0
  0
ARC
  5
29E
330
1A
100
AcDbEntity
  8
SEIHIN
  6
CONTINUOUS
 62
     3
100
AcDbCircle
 10
213.5825214904962
 20
191.4976175803707
 30
0.0
 40
0.5
100
AcDbArc
 50
81.02737338510001
 51
165.9637565320999
  0
ARC
  5
2A0
330
1A
100
AcDbEntity
  8
SEIHIN
  6
CONTINUOUS
 62
     3
100
AcDbCircle
 10
220.5567501995963
 20
193.9397837954707
 30
0.0
 40
3.0
100
AcDbArc
 50
261.0273733850999
 51
333.1464202912
  0
ARC
  5
2A5
330
1A
100
AcDbEntity
  8
SEIHIN
  6
CONTINUOUS
 62
     3
100
AcDbCircle
 10
166.7025057676962
 20
253.3891689647707
 30
0.0
 40
2.0
100
AcDbArc
 50
270.0
 51
315.3302874757999
  0
LINE
  5
2A6
330
1A
100
AcDbEntity
  8
SEIHIN
  6
CONTINUOUS
 62
     3
100
AcDbLine
 10
216.3530837736958
 20
378.1264692702344
 30
0.0
 11
216.3530837736958
 21
386.1264692702345
 31
0.0
  0
LINE
  5
2A7
330
1A
100
AcDbEntity
  8
SEIHIN
  6
CONTINUOUS
 62
     3
100
AcDbLine
 10
220.4658360088956
 20
378.1264692702344
 30
0.0
 11
220.4658360088957
 21
386.1264692702345
 31
0.0
  0
LINE
  5
2A8
330
1A
100
AcDbEntity
  8
SEIHIN
  6
CONTINUOUS
 62
     3
100
AcDbLine
 10
229.2584048420956
 20
378.1264692702343
 30
0.0
 11
229.2584048420957
 21
386.1264692702344
 31
0.0
  0
LINE
  5
2A9
330
1A
100
AcDbEntity
  8
SEIHIN
  6
CONTINUOUS
 62
     3
100
AcDbLine
 10
206.1707473369957
 20
381.1264692702345
 30
0.0
 11
206.1707473369957
 21
386.1264692702346
 31
0.0
  0
LINE
  5
2AA
330
1A
100
AcDbEntity
  8
SEIHIN
  6
CONTINUOUS
 62
     3
100
AcDbLine
 10
202.1578378897958
 20
381.1264692702345
 30
0.0
 11
202.1578378897958
 21
386.1264692702346
 31
0.0
  0
LINE
  5
2AB
330
1A
100
AcDbEntity
  8
SEIHIN
  6
CONTINUOUS
 62
     3
100
AcDbLine
 10
113.8750787006957
 20
381.1264692702355
 30
0.0
 11
113.8750787006958
 21
386.1264692702356
 31
0.0
  0
LINE
  5
2AC
330
1A
100
AcDbEntity
  8
SEIHIN
  6
CONTINUOUS
 62
     3
100
AcDbLine
 10
109.1396580659957
 20
378.1264692702356
 30
0.0
 11
109.139658065996
 21
405.6264692702357
 31
0.0
  0
LINE
  5
2AD
330
1A
100
AcDbEntity
  8
SEIHIN
  6
CONTINUOUS
 62
     3
100
AcDbLine
 10
111.6213753495956
 20
378.6264692702355
 30
0.0
 11
111.6213753495959
 21
405.6264692702355
 31
0.0
  0
LINE
  5
2AE
330
1A
100
AcDbEntity
  8
SEIHIN
  6
CONTINUOUS
 62
     3
100
AcDbLine
 10
101.2746864484957
 20
385.6264692702357
 30
0.0
 11
101.7746864484959
 21
405.6264692702357
 31
0.0
  0
LINE
  5
2AF
330
1A
100
AcDbEntity
  8
CENTER_L
  6
CENTER
 62
     1
 48
5.0
100
AcDbLine
 10
154.3014512584961
 20
412.6264692702352
 30
0.0
 11
154.3014512584955
 21
368.6264692702351
 31
0.0
  0
LINE
  5
2B0
330
1A
100
AcDbEntity
  8
SEIHIN
  6
CONTINUOUS
 62
     3
100
AcDbLine
 10
208.8397014112165
 20
381.1264692702345
 30
0.0
 11
112.1213753495957
 21
381.1264692702355
 31
0.0
  0
LINE
  5
2B1
330
1A
100
AcDbEntity
  8
SEIHIN
  6
CONTINUOUS
 62
     3
100
AcDbLine
 10
101.7271833292957
 20
376.5765316533356
 30
0.0
 11
101.2746864484957
 21
385.6264692702357
 31
0.0
  0
ARC
  5
2B2
330
1A
100
AcDbEntity
  8
SEIHIN
  6
CONTINUOUS
 62
     3
100
AcDbCircle
 10
102.7259356681957
 20
376.6264692702357
 30
0.0
 40
1.0
100
AcDbArc
 50
182.8624052260993
 51
269.9999999999993
  0
ARC
  5
2B3
330
1A
100
AcDbEntity
  8
SEIHIN
  6
CONTINUOUS
 62
     3
100
AcDbCircle
 10
112.1213753495956
 20
378.6264692702355
 30
0.0
 40
0.5
100
AcDbArc
 50
179.9999999999993
 51
269.9999999999993
  0
ARC
  5
2B4
330
1A
100
AcDbEntity
  8
SEIHIN
  6
CONTINUOUS
 62
     3
100
AcDbCircle
 10
208.3728767350962
 20
289.8530094626707
 30
0.0
 40
2.0
100
AcDbArc
 50
90.0
 51
135.3302874758
  0
LINE
  5
2B9
330
1A
100
AcDbEntity
  8
SEIHIN
  6
CONTINUOUS
 62
     3
100
AcDbLine
 10
165.2746864484957
 20
375.626469270235
 30
0.0
 11
165.2746864484957
 21
378.126469270235
 31
0.0
  0
LINE
  5
2BA
330
1A
100
AcDbEntity
  8
SEIHIN
  6
CONTINUOUS
 62
     3
100
AcDbLine
 10
205.2746864484956
 20
375.6264692702345
 30
0.0
 11
205.2746864484957
 21
378.1264692702345
 31
0.0
  0
LINE
  5
2BB
330
1A
100
AcDbEntity
  8
SEIHIN
  6
CONTINUOUS
100
AcDbLine
 10
208.8397014112165
 20
381.1264692702346
 30
0.0
 11
208.8397014112164
 21
378.1264692702345
 31
0.0
  0
LINE
  5
2BC
330
1A
100
AcDbEntity
  8
SEIHIN
  6
CONTINUOUS
 62
     3
100
AcDbLine
 10
205.2750787006957
 20
386.1264692702346
 30
0.0
 11
205.2750787006959
 21
405.6264692702345
 31
0.0
  0
LINE
  5
2BD
330
1A
100
AcDbEntity
  8
SEIHIN
  6
CONTINUOUS
 62
     3
100
AcDbLine
 10
209.0750787006957
 20
386.1264692702346
 30
0.0
 11
209.0750787006959
 21
405.6264692702345
 31
0.0
  0
LINE
  5
2BE
330
1A
100
AcDbEntity
  8
SEIHIN
  6
CONTINUOUS
 62
     3
100
AcDbLine
 10
218.5750787006957
 20
386.1264692702344
 30
0.0
 11
218.575078700696
 21
405.6264692702345
 31
0.0
  0
LINE
  5
2BF
330
1A
100
AcDbEntity
  8
SEIHIN
  6
CONTINUOUS
 62
     3
100
AcDbLine
 10
253.9563414493961
 20
273.4987185432708
 30
0.0
 11
247.7452284004962
 21
274.8291624058708
 31
0.0
  0
LINE
  5
2C0
330
1A
100
AcDbEntity
  8
SEIHIN
  6
CONTINUOUS
 62
     3
100
AcDbLine
 10
253.7648250266962
 20
285.0174570342708
 30
0.0
 11
254.3188115672962
 21
273.8068710362708
 31
0.0
  0
LINE
  5
2C2
330
1A
100
AcDbEntity
  8
SEIHIN
  6
CONTINUOUS
 62
     3
100
AcDbLine
 10
365.2290608746109
 20
177.3891686169707
 30
0.0
 11
365.2290608746109
 21
291.8530094626707
 31
0.0
  0
LINE
  5
2C3
330
1A
100
AcDbEntity
  8
SEIHIN
  6
CONTINUOUS
 62
     3
100
AcDbLine
 10
365.2290608746109
 20
177.3891686169707
 30
0.0
 11
365.2290608746109
 21
289.3530094626708
 31
0.0
  0
LINE
  5
2C4
330
1A
100
AcDbEntity
  8
SEIHIN
  6
CONTINUOUS
 62
     3
100
AcDbLine
 10
335.2290608746109
 20
290.8530094626708
 30
0.0
 11
335.2290608746109
 21
190.8404181844707
 31
0.0
  0
LINE
  5
2C5
330
1A
100
AcDbEntity
  8
SEIHIN
100
AcDbLine
 10
335.2290608746109
 20
273.4920641911708
 30
0.0
 11
365.2290608746109
 21
273.4920641911708
 31
0.0
  0
LINE
  5
2C6
330
1A
100
AcDbEntity
  8
SEIHIN
  6
CONTINUOUS
 62
     3
100
AcDbLine
 10
345.2290608746109
 20
176.7885221155701
 30
0.0
 11
365.2290608746109
 21
178.2885221155701
 31
0.0
  0
LINE
  5
2C7
330
1A
100
AcDbEntity
  8
SEIHIN
  6
CONTINUOUS
 62
     3
100
AcDbLine
 10
345.2290608746109
 20
189.3891689647707
 30
0.0
 11
365.2290608746109
 21
190.3891689647707
 31
0.0
  0
LINE
  5
2C8
330
1A
100
AcDbEntity
  8
SEIHIN
  6
CONTINUOUS
 62
     3
100
AcDbLine
 10
345.2290608746109
 20
175.8891686169707
 30
0.0
 11
365.2290608746109
 21
177.3891686169707
 31
0.0
  0
LINE
  5
2C9
330
1A
100
AcDbEntity
  8
SEIHIN
  6
CONTINUOUS
 62
     3
100
AcDbLine
 10
338.2290608746109
 20
177.3202878203707
 30
0.0
 11
338.2290608746109
 21
189.2635443548707
 31
0.0
  0
LINE
  5
2CA
330
1A
100
AcDbEntity
  8
SEIHIN
  6
CONTINUOUS
 62
     3
100
AcDbLine
 10
345.2290608746109
 20
176.7885221155701
 30
0.0
 11
339.1578138246109
 21
177.2221826191701
 31
0.0
  0
LINE
  5
2CB
330
1A
100
AcDbEntity
  8
SEIHIN
  6
CONTINUOUS
 62
     3
100
AcDbLine
 10
345.2290608746109
 20
175.8891686169707
 30
0.0
 11
339.1578138246109
 21
176.3228291205707
 31
0.0
  0
ARC
  5
2CC
330
1A
100
AcDbEntity
  8
SEIHIN
  6
CONTINUOUS
 62
     3
100
AcDbCircle
 10
339.2290608746109
 20
178.2196413189701
 30
0.0
 40
1.0
100
AcDbArc
 50
180.0
 51
265.9143832199999
  0
ARC
  5
2CD
330
1A
100
AcDbEntity
  8
SEIHIN
  6
CONTINUOUS
 62
     3
100
AcDbCircle
 10
339.2290608746109
 20
177.3202878203707
 30
0.0
 40
1.0
100
AcDbArc
 50
180.0
 51
265.9143832199999
  0
ARC
  5
2D5
330
1A
100
AcDbEntity
  8
SEIHIN
  6
CONTINUOUS
 62
     3
100
AcDbCircle
 10
254.0191771945962
 20
273.7920641911707
 30
0.0
 40
0.3
100
AcDbArc
 50
257.9097316571999
 51
2.8290484962
  0
LINE
  5
2D6
330
1A
100
AcDbEntity
  8
SEIHIN
  6
CONTINUOUS
 62
     3
100
AcDbLine
 10
336.1791232576109
 20
189.8416658455707
 30
0.0
 11
345.2290608746109
 21
189.3891689647707
 31
0.0
  0
ARC
  5
2D7
330
1A
100
AcDbEntity
  8
SEIHIN
  6
CONTINUOUS
 62
     3
100
AcDbCircle
 10
336.2290608746109
 20
190.8404181844707
 30
0.0
 40
1.0
100
AcDbArc
 50
180.0
 51
267.1375947739
  0
ARC
  5
2D8
330
1A
100
AcDbEntity
  8
SEIHIN
  6
CONTINUOUS
 62
     3
100
AcDbCircle
 10
337.7290608746109
 20
189.2635443548707
 30
0.0
 40
0.5
100
AcDbArc
 50
0.0
 51
87.13759477389999
  0
LINE
  5
2D9
330
1A
100
AcDbEntity
  8
SEIHIN
100
AcDbLine
 10
336.2290608746109
 20
287.5822931826764
 30
0.0
 11
364.2290608746109
 21
287.5822931826764
 31
0.0
  0
LINE
  5
2DA
330
1A
100
AcDbEntity
  8
SEIHIN
100
AcDbLine
 10
336.2290608746109
 20
291.8530094626707
 30
0.0
 11
365.2290608746109
 21
291.8530094626707
 31
0.0
  0
LINE
  5
2DC
330
1A
100
AcDbEntity
  8
SEIHIN
  6
CONTINUOUS
 62
     3
100
AcDbLine
 10
230.4264710296957
 20
378.1264692702343
 30
0.0
 11
230.4264710296958
 21
386.1264692702343
 31
0.0
  0
LINE
  5
2DD
330
1A
100
AcDbEntity
  8
SEIHIN
  6
CONTINUOUS
 62
     3
100
AcDbLine
 10
252.0750787006958
 20
385.6264692702341
 30
0.0
 11
250.5750787006959
 21
405.6264692702341
 31
0.0
  0
LINE
  5
2DE
330
1A
100
AcDbEntity
  8
SEIHIN
  6
CONTINUOUS
 62
     3
100
AcDbLine
 10
240.1047660423957
 20
378.1264692702342
 30
0.0
 11
240.1047660423959
 21
405.6264692702342
 31
0.0
  0
LINE
  5
2DF
330
1A
100
AcDbEntity
  8
SEIHIN
  6
CONTINUOUS
 62
     3
100
AcDbLine
 10
237.1047660423957
 20
378.6264692702343
 30
0.0
 11
237.1047660423959
 21
405.6264692702343
 31
0.0
  0
LINE
  5
2E4
330
1A
100
AcDbEntity
  8
SEIHIN
  6
CONTINUOUS
 62
     3
100
AcDbLine
 10
251.2532731227962
 20
288.5347344348707
 30
0.0
 11
243.4804477586963
 21
291.6390357638707
 31
0.0
  0
ARC
  5
2F4
330
1A
100
AcDbEntity
  8
SEIHIN
  6
CONTINUOUS
 62
     3
100
AcDbCircle
 10
242.3677674590962
 20
288.8530094626707
 30
0.0
 40
3.0
100
AcDbArc
 50
68.22927182810001
 51
90.0
  0
ARC
  5
2F5
330
1A
100
AcDbEntity
  8
SEIHIN
  6
CONTINUOUS
 62
     3
100
AcDbCircle
 10
249.7697000564962
 20
284.8200324337708
 30
0.0
 40
4.0
100
AcDbArc
 50
2.8290484962
 51
68.22928210819999
  0
ARC
  5
2FA
330
1A
100
AcDbEntity
  8
SEIHIN
  6
CONTINUOUS
 62
     3
100
AcDbCircle
 10
247.6405021585962
 20
274.3402529926707
 30
0.0
 40
0.5
100
AcDbArc
 50
77.9097316572
 51
174.2688755743
  0
ARC
  5
2FD
330
1A
100
AcDbEntity
  8
SEIHIN
  6
CONTINUOUS
 62
     3
100
AcDbCircle
 10
236.6047660423957
 20
378.6264692702343
 30
0.0
 40
0.5
100
AcDbArc
 50
269.9999999999993
 51
359.9999999999994
  0
LINE
  5
2FE
330
1A
100
AcDbEntity
  8
SEIHIN
  6
CONTINUOUS
 62
     3
100
AcDbLine
 10
252.0750787006958
 20
385.6264692702341
 30
0.0
 11
251.6225818197955
 21
376.576531653334
 31
0.0
  0
ARC
  5
2FF
330
1A
100
AcDbEntity
  8
SEIHIN
  6
CONTINUOUS
 62
     3
100
AcDbCircle
 10
250.6238294808956
 20
376.6264692702341
 30
0.0
 40
1.0
100
AcDbArc
 50
269.9999999999993
 51
357.1375947738994
  0
ARC
  5
300
330
1A
100
AcDbEntity
  8
SEIHIN
100
AcDbCircle
 10
336.2290608746108
 20
290.8530094626708
 30
0.0
 40
1.0
100
AcDbArc
 50
89.99999999999674
 51
180.0000000000048
  0
TEXT
  5
301
330
1A
100
AcDbEntity
  8
SUNPOU
 62
     4
100
AcDbText
 10
681.2663058049842
 20
37.68133730278751
 30
0.0
 40
6.0
  1
※　のきといの差込み寸法を示す
100
AcDbText
  0
ARC
  5
3A6
330
1A
100
AcDbEntity
  8
SEIHIN
  6
CONTINUOUS
 62
     3
100
AcDbCircle
 10
566.3312561148254
 20
284.8200324337708
 30
0.0
 40
4.0
100
AcDbArc
 50
111.7707178917999
 51
177.1709515038
  0
LINE
  5
3A9
330
1A
100
AcDbEntity
  8
SEIHIN
  6
CONTINUOUS
 62
     3
100
AcDbLine
 10
480.8718952967108
 20
290.8530094626708
 30
0.0
 11
480.8718952967108
 21
190.8404181844707
 31
0.0
  0
LINE
  5
3AA
330
1A
100
AcDbEntity
  8
SEIHIN
  6
CONTINUOUS
 62
     3
100
AcDbLine
 10
450.8718952967107
 20
177.3891686169707
 30
0.0
 11
450.8718952967107
 21
289.3530094626708
 31
0.0
  0
LINE
  5
3AB
330
1A
100
AcDbEntity
  8
SEIHIN
  6
CONTINUOUS
 62
     3
100
AcDbLine
 10
450.8718952967107
 20
177.3891686169707
 30
0.0
 11
450.8718952967107
 21
291.8530094626707
 31
0.0
  0
LINE
  5
3AC
330
1A
100
AcDbEntity
  8
SEIHIN
  6
CONTINUOUS
 62
     3
100
AcDbLine
 10
609.1504218370255
 20
291.2590471915708
 30
0.0
 11
647.9761080029255
 21
251.9831312358708
 31
0.0
  0
LINE
  5
3B1
330
1A
100
AcDbEntity
  8
SEIHIN
  6
CONTINUOUS
 62
     3
100
AcDbLine
 10
702.4628757361255
 20
251.3891689647707
 30
0.0
 11
652.4628757361255
 21
251.3891626095708
 31
0.0
  0
LINE
  5
3B2
330
1A
100
AcDbEntity
  8
SEIHIN
  6
CONTINUOUS
 62
     3
100
AcDbLine
 10
604.9982601156255
 20
192.3891689647707
 30
0.0
 11
709.7587747433254
 21
192.3891689647707
 31
0.0
  0
LINE
  5
3B3
330
1A
100
AcDbEntity
  8
SEIHIN
  6
CONTINUOUS
 62
     3
100
AcDbLine
 10
649.3984504036254
 20
251.3891689647707
 30
0.0
 11
704.6982966886255
 21
251.3891689647707
 31
0.0
  0
ARC
  5
3B4
330
1A
100
AcDbEntity
  8
SEIHIN
  6
CONTINUOUS
 62
     3
100
AcDbCircle
 10
659.5365034960255
 20
1178.38916861697
 30
0.0
 40
1002.5
100
AcDbArc
 50
267.2057870799
 51
272.4394137225999
  0
LINE
  5
3B7
330
1A
100
AcDbEntity
  8
SEIHIN
  6
CONTINUOUS
 62
     3
100
AcDbLine
 10
712.1898380407254
 20
243.5330676173708
 30
0.0
 11
709.3567734783255
 21
183.9320004579708
 31
0.0
  0
ARC
  5
3BB
330
1A
100
AcDbEntity
  8
SEIHIN
  6
CONTINUOUS
 62
     3
100
AcDbCircle
 10
701.8866283909254
 20
184.2908500783708
 30
0.0
 40
7.5
100
AcDbArc
 50
272.4394137225999
 51
357.2574457102999
  0
LINE
  5
3BE
330
1A
100
AcDbEntity
  8
CENTER_L
  6
CENTER
 62
     1
 48
5.0
100
AcDbLine
 10
659.5365102683465
 20
168.8891617661151
 30
0.0
 11
659.5365102683465
 21
188.8391617661151
 31
0.0
  0
ARC
  5
3C8
330
1A
100
AcDbEntity
  8
SEIHIN
  6
CONTINUOUS
 62
     3
100
AcDbCircle
 10
704.6982966886255
 20
243.8891689647707
 30
0.0
 40
7.5
100
AcDbArc
 50
357.2785629215
 51
90.0
  0
LINE
  5
3C9
330
1A
100
AcDbEntity
  8
SEIHIN
  6
CONTINUOUS
 62
     3
100
AcDbLine
 10
702.4628757361255
 20
251.3891689647707
 30
0.0
 11
704.6982966886255
 21
251.3891689647707
 31
0.0
  0
ARC
  5
3D3
330
1A
100
AcDbEntity
  8
SEIHIN
  6
CONTINUOUS
 62
     3
100
AcDbCircle
 10
800.2957965938255
 20
297.6076965636708
 30
0.0
 40
232.5
100
AcDbArc
 50
185.7311244256999
 51
206.8535797087999
  0
ARC
  5
3D5
330
1A
100
AcDbEntity
  8
SEIHIN
  6
CONTINUOUS
 62
     3
100
AcDbCircle
 10
595.5442059717254
 20
193.9397837954707
 30
0.0
 40
3.0
100
AcDbArc
 50
206.8535797087999
 51
278.9726266149
  0
ARC
  5
3D6
330
1A
100
AcDbEntity
  8
SEIHIN
  6
CONTINUOUS
 62
     3
100
AcDbCircle
 10
610.9338636227255
 20
182.5745355665707
 30
0.0
 40
5.5
100
AcDbArc
 50
194.0362434679
 51
267.2057870799
  0
LINE
  5
3D9
330
1A
100
AcDbEntity
  8
SEIHIN
  6
CONTINUOUS
 62
     3
100
AcDbLine
 10
605.5980798719255
 20
181.2405896288708
 30
0.0
 11
603.0035059309255
 21
191.6188853928707
 31
0.0
  0
LINE
  5
3DA
330
1A
100
AcDbEntity
  8
SEIHIN
  6
CONTINUOUS
 62
     3
100
AcDbLine
 10
604.9202788288255
 20
192.3830504474707
 30
0.0
 11
596.0120936921255
 21
190.9764948994707
 31
0.0
  0
ARC
  5
3DB
330
1A
100
AcDbEntity
  8
SEIHIN
  6
CONTINUOUS
 62
     3
100
AcDbCircle
 10
602.5184346808255
 20
191.4976175803707
 30
0.0
 40
0.5
100
AcDbArc
 50
14.03624346790002
 51
98.97262661489998
  0
ARC
  5
3DC
330
1A
100
AcDbEntity
  8
SEIHIN
  6
CONTINUOUS
 62
     3
100
AcDbCircle
 10
604.9982601156255
 20
191.8891689647707
 30
0.0
 40
0.5
100
AcDbArc
 50
90.0
 51
98.97262661489998
  0
ARC
  5
3E5
330
1A
100
AcDbEntity
  8
SEIHIN
  6
CONTINUOUS
 62
     3
100
AcDbCircle
 10
649.3984504036254
 20
253.3891689647707
 30
0.0
 40
2.0
100
AcDbArc
 50
224.6697125242
 51
270.0
  0
LINE
  5
403
330
1A
100
AcDbEntity
  8
SEIHIN
  6
CONTINUOUS
 62
     3
100
AcDbLine
 10
562.3361311446254
 20
285.0174570342708
 30
0.0
 11
561.7821446040254
 21
273.8068710362708
 31
0.0
  0
ARC
  5
404
330
1A
100
AcDbEntity
  8
SEIHIN
  6
CONTINUOUS
 62
     3
100
AcDbCircle
 10
568.4604540127254
 20
274.3402529926707
 30
0.0
 40
0.5
100
AcDbArc
 50
5.731124425699984
 51
102.0902683427999
  0
ARC
  5
405
330
1A
100
AcDbEntity
  8
SEIHIN
  6
CONTINUOUS
 62
     3
100
AcDbCircle
 10
562.0817789767254
 20
273.7920641911707
 30
0.0
 40
0.3
100
AcDbArc
 50
177.1709515038
 51
282.0902683428
  0
LINE
  5
406
330
1A
100
AcDbEntity
  8
SEIHIN
  6
CONTINUOUS
 62
     3
100
AcDbLine
 10
562.1446147219256
 20
273.4987185432708
 30
0.0
 11
568.3557277708255
 21
274.8291624058708
 31
0.0
  0
LINE
  5
413
330
1A
100
AcDbEntity
  8
SEIHIN
  6
CONTINUOUS
 62
     3
100
AcDbLine
 10
470.8718952967108
 20
175.8891686169707
 30
0.0
 11
450.8718952967107
 21
177.3891686169707
 31
0.0
  0
LINE
  5
414
330
1A
100
AcDbEntity
  8
SEIHIN
  6
CONTINUOUS
 62
     3
100
AcDbLine
 10
470.8718952967108
 20
189.3891689647707
 30
0.0
 11
450.8718952967107
 21
190.3891689647707
 31
0.0
  0
LINE
  5
415
330
1A
100
AcDbEntity
  8
SEIHIN
  6
CONTINUOUS
 62
     3
100
AcDbLine
 10
470.8718952967108
 20
176.7885221155701
 30
0.0
 11
450.8718952967107
 21
178.2885221155701
 31
0.0
  0
ARC
  5
416
330
1A
100
AcDbEntity
  8
SEIHIN
  6
CONTINUOUS
 62
     3
100
AcDbCircle
 10
478.3718952967108
 20
189.2635443548707
 30
0.0
 40
0.5
100
AcDbArc
 50
92.8624052261
 51
180.0
  0
LINE
  5
417
330
1A
100
AcDbEntity
  8
SEIHIN
  6
CONTINUOUS
 62
     3
100
AcDbLine
 10
479.9218329137107
 20
189.8416658455707
 30
0.0
 11
470.8718952967108
 21
189.3891689647707
 31
0.0
  0
ARC
  5
418
330
1A
100
AcDbEntity
  8
SEIHIN
  6
CONTINUOUS
 62
     3
100
AcDbCircle
 10
479.8718952967107
 20
190.8404181844707
 30
0.0
 40
1.0
100
AcDbArc
 50
272.8624052261
 51
0.0
  0
LINE
  5
419
330
1A
100
AcDbEntity
  8
SEIHIN
  6
CONTINUOUS
 62
     3
100
AcDbLine
 10
477.8718952967108
 20
177.3202878203707
 30
0.0
 11
477.8718952967108
 21
189.2635443548707
 31
0.0
  0
ARC
  5
41A
330
1A
100
AcDbEntity
  8
SEIHIN
  6
CONTINUOUS
 62
     3
100
AcDbCircle
 10
476.8718952967108
 20
177.3202878203707
 30
0.0
 40
1.0
100
AcDbArc
 50
274.08561678
 51
0.0
  0
ARC
  5
41B
330
1A
100
AcDbEntity
  8
SEIHIN
  6
CONTINUOUS
 62
     3
100
AcDbCircle
 10
476.8718952967108
 20
178.2196413189701
 30
0.0
 40
1.0
100
AcDbArc
 50
274.08561678
 51
0.0
  0
LINE
  5
41C
330
1A
100
AcDbEntity
  8
SEIHIN
  6
CONTINUOUS
 62
     3
100
AcDbLine
 10
470.8718952967108
 20
175.8891686169707
 30
0.0
 11
476.9431423467108
 21
176.3228291205707
 31
0.0
  0
LINE
  5
41D
330
1A
100
AcDbEntity
  8
SEIHIN
  6
CONTINUOUS
 62
     3
100
AcDbLine
 10
470.8718952967108
 20
176.7885221155701
 30
0.0
 11
476.9431423467108
 21
177.2221826191701
 31
0.0
  0
LINE
  5
41E
330
1A
100
AcDbEntity
  8
SEIHIN
100
AcDbLine
 10
480.8718952967108
 20
273.4920641911708
 30
0.0
 11
450.8718952967107
 21
273.4920641911708
 31
0.0
  0
LINE
  5
41F
330
1A
100
AcDbEntity
  8
SEIHIN
  6
CONTINUOUS
 62
     3
100
AcDbLine
 10
607.2612547601051
 20
381.1264692702345
 30
0.0
 11
703.979580821726
 21
381.1264692702355
 31
0.0
  0
LINE
  5
420
330
1A
100
AcDbEntity
  8
SEIHIN
  6
CONTINUOUS
 62
     3
100
AcDbLine
 10
565.5258774706258
 20
405.6264692702341
 30
0.0
 11
714.3262697228257
 21
405.6264692702357
 31
0.0
  0
LINE
  5
421
330
1A
100
AcDbEntity
  8
SEIHIN
  6
CONTINUOUS
 62
     3
100
AcDbLine
 10
565.477126690426
 20
375.6264692702341
 30
0.0
 11
713.375020503126
 21
375.6264692702357
 31
0.0
  0
LINE
  5
423
330
1A
100
AcDbEntity
  8
SEIHIN
  6
CONTINUOUS
 62
     3
100
AcDbLine
 10
575.9961901289259
 20
378.1264692702342
 30
0.0
 11
706.9612981053259
 21
378.1264692702356
 31
0.0
  0
LINE
  5
424
330
1A
100
AcDbEntity
  8
SEIHIN
  6
CONTINUOUS
 62
     3
100
AcDbLine
 10
579.4961901289259
 20
378.1264692702343
 30
0.0
 11
703.979580821726
 21
378.1264692702356
 31
0.0
  0
LINE
  5
425
330
1A
100
AcDbEntity
  8
CENTER_L
  6
CENTER
 62
     1
 48
5.0
100
AcDbLine
 10
661.7995049128255
 20
412.6264692702352
 30
0.0
 11
661.7995049128262
 21
368.6264692702351
 31
0.0
  0
LINE
  5
426
330
1A
100
AcDbEntity
  8
SEIHIN
  6
CONTINUOUS
 62
     3
100
AcDbLine
 10
714.8262697228259
 20
385.6264692702357
 30
0.0
 11
714.3262697228257
 21
405.6264692702357
 31
0.0
  0
LINE
  5
427
330
1A
100
AcDbEntity
  8
SEIHIN
  6
CONTINUOUS
 62
     3
100
AcDbLine
 10
704.4795808217259
 20
378.6264692702355
 30
0.0
 11
704.4795808217258
 21
405.6264692702355
 31
0.0
  0
LINE
  5
428
330
1A
100
AcDbEntity
  8
SEIHIN
  6
CONTINUOUS
 62
     3
100
AcDbLine
 10
706.9612981053259
 20
378.1264692702356
 30
0.0
 11
706.9612981053256
 21
405.6264692702357
 31
0.0
  0
LINE
  5
429
330
1A
100
AcDbEntity
  8
SEIHIN
  6
CONTINUOUS
 62
     3
100
AcDbLine
 10
714.373772842026
 20
376.5765316533356
 30
0.0
 11
714.8262697228259
 21
385.6264692702357
 31
0.0
  0
ARC
  5
42A
330
1A
100
AcDbEntity
  8
SEIHIN
  6
CONTINUOUS
 62
     3
100
AcDbCircle
 10
713.375020503126
 20
376.6264692702357
 30
0.0
 40
1.0
100
AcDbArc
 50
270.0000000000006
 51
357.1375947739005
  0
LINE
  5
42B
330
1A
100
AcDbEntity
  8
SEIHIN
  6
CONTINUOUS
 62
     3
100
AcDbLine
 10
702.2258774706259
 20
381.1264692702355
 30
0.0
 11
702.2258774706259
 21
386.1264692702356
 31
0.0
  0
ARC
  5
42C
330
1A
100
AcDbEntity
  8
SEIHIN
  6
CONTINUOUS
 62
     3
100
AcDbCircle
 10
703.979580821726
 20
378.6264692702355
 30
0.0
 40
0.5
100
AcDbArc
 50
270.0000000000006
 51
0.0000000000006107
  0
LINE
  5
42E
330
1A
100
AcDbEntity
  8
SEIHIN
  6
CONTINUOUS
 62
     3
100
AcDbLine
 10
578.9961901289259
 20
378.6264692702343
 30
0.0
 11
578.9961901289257
 21
405.6264692702343
 31
0.0
  0
LINE
  5
42F
330
1A
100
AcDbEntity
  8
SEIHIN
  6
CONTINUOUS
 62
     3
100
AcDbLine
 10
575.9961901289259
 20
378.1264692702342
 30
0.0
 11
575.9961901289257
 21
405.6264692702342
 31
0.0
  0
LINE
  5
430
330
1A
100
AcDbEntity
  8
SEIHIN
  6
CONTINUOUS
 62
     3
100
AcDbLine
 10
564.0258774706259
 20
385.6264692702341
 30
0.0
 11
565.5258774706258
 21
405.6264692702341
 31
0.0
  0
LINE
  5
431
330
1A
100
AcDbEntity
  8
SEIHIN
  6
CONTINUOUS
 62
     3
100
AcDbLine
 10
597.5258774706259
 20
386.1264692702344
 30
0.0
 11
597.5258774706258
 21
405.6264692702345
 31
0.0
  0
LINE
  5
432
330
1A
100
AcDbEntity
  8
SEIHIN
  6
CONTINUOUS
 62
     3
100
AcDbLine
 10
607.0258774706261
 20
386.1264692702345
 30
0.0
 11
607.0258774706258
 21
405.6264692702345
 31
0.0
  0
LINE
  5
433
330
1A
100
AcDbEntity
  8
SEIHIN
  6
CONTINUOUS
 62
     3
100
AcDbLine
 10
610.8258774706261
 20
386.1264692702345
 30
0.0
 11
610.8258774706257
 21
405.6264692702345
 31
0.0
  0
LINE
  5
435
330
1A
100
AcDbEntity
  8
SEIHIN
  6
CONTINUOUS
 62
     3
100
AcDbLine
 10
573.7331887122254
 20
291.8530094626707
 30
0.0
 11
607.7280794362255
 21
291.8530094626707
 31
0.0
  0
ARC
  5
436
330
1A
100
AcDbEntity
  8
SEIHIN
  6
CONTINUOUS
 62
     3
100
AcDbCircle
 10
607.7280794362255
 20
289.8530094626707
 30
0.0
 40
2.0
100
AcDbArc
 50
44.66971252420001
 51
90.0
  0
LINE
  5
437
330
1A
100
AcDbEntity
  8
SEIHIN
  6
CONTINUOUS
 62
     3
100
AcDbLine
 10
650.8262697228261
 20
375.626469270235
 30
0.0
 11
650.8262697228261
 21
378.126469270235
 31
0.0
  0
LINE
  5
438
330
1A
100
AcDbEntity
  8
SEIHIN
  6
CONTINUOUS
 62
     3
100
AcDbLine
 10
610.826269722826
 20
375.6264692702345
 30
0.0
 11
610.826269722826
 21
378.1264692702345
 31
0.0
  0
LINE
  5
439
330
1A
100
AcDbEntity
  8
SEIHIN
  6
CONTINUOUS
 62
     3
100
AcDbLine
 10
613.9431182815259
 20
381.1264692702345
 30
0.0
 11
613.9431182815259
 21
386.1264692702345
 31
0.0
  0
LINE
  5
43A
330
1A
100
AcDbEntity
  8
SEIHIN
  6
CONTINUOUS
 62
     3
100
AcDbLine
 10
609.9302088343259
 20
381.1264692702345
 30
0.0
 11
609.9302088343259
 21
386.1264692702345
 31
0.0
  0
LINE
  5
43B
330
1A
100
AcDbEntity
  8
SEIHIN
  6
CONTINUOUS
 62
     3
100
AcDbLine
 10
595.6351201624261
 20
378.1264692702344
 30
0.0
 11
595.6351201624261
 21
386.1264692702344
 31
0.0
  0
LINE
  5
43C
330
1A
100
AcDbEntity
  8
SEIHIN
  6
CONTINUOUS
 62
     3
100
AcDbLine
 10
599.747872397626
 20
378.1264692702344
 30
0.0
 11
599.747872397626
 21
386.1264692702344
 31
0.0
  0
LINE
  5
43D
330
1A
100
AcDbEntity
  8
SEIHIN
  6
CONTINUOUS
100
AcDbLine
 10
607.2612547601051
 20
381.1264692702346
 30
0.0
 11
607.2612547601051
 21
378.1264692702345
 31
0.0
  0
LINE
  5
43E
330
1A
100
AcDbEntity
  8
SEIHIN
  6
CONTINUOUS
 62
     3
100
AcDbLine
 10
564.8476830485255
 20
288.5347344348707
 30
0.0
 11
572.6205084126254
 21
291.6390357638707
 31
0.0
  0
ARC
  5
43F
330
1A
100
AcDbEntity
  8
SEIHIN
  6
CONTINUOUS
 62
     3
100
AcDbCircle
 10
573.7331887122254
 20
288.8530094626707
 30
0.0
 40
3.0
100
AcDbArc
 50
90.0
 51
111.7707281718999
  0
LINE
  5
441
330
1A
100
AcDbEntity
  8
SEIHIN
  6
CONTINUOUS
 62
     3
100
AcDbLine
 10
564.0258774706259
 20
385.6264692702341
 30
0.0
 11
564.4783743515261
 21
376.576531653334
 31
0.0
  0
ARC
  5
442
330
1A
100
AcDbEntity
  8
SEIHIN
  6
CONTINUOUS
 62
     3
100
AcDbCircle
 10
565.477126690426
 20
376.6264692702341
 30
0.0
 40
1.0
100
AcDbArc
 50
182.8624052261005
 51
270.0000000000006
  0
LINE
  5
443
330
1A
100
AcDbEntity
  8
SEIHIN
  6
CONTINUOUS
 62
     3
100
AcDbLine
 10
585.674485141626
 20
378.1264692702343
 30
0.0
 11
585.674485141626
 21
386.1264692702342
 31
0.0
  0
LINE
  5
444
330
1A
100
AcDbEntity
  8
SEIHIN
  6
CONTINUOUS
 62
     3
100
AcDbLine
 10
586.8425513292261
 20
378.1264692702343
 30
0.0
 11
586.8425513292261
 21
386.1264692702342
 31
0.0
  0
ARC
  5
445
330
1A
100
AcDbEntity
  8
SEIHIN
  6
CONTINUOUS
 62
     3
100
AcDbCircle
 10
579.4961901289259
 20
378.6264692702343
 30
0.0
 40
0.5
100
AcDbArc
 50
180.0000000000005
 51
270.0000000000006
  0
LINE
  5
446
330
1A
100
AcDbEntity
  8
SEIHIN
100
AcDbLine
 10
479.8718952967107
 20
291.8530094626707
 30
0.0
 11
450.8718952967107
 21
291.8530094626707
 31
0.0
  0
LINE
  5
447
330
1A
100
AcDbEntity
  8
SEIHIN
100
AcDbLine
 10
479.8718952967107
 20
287.5822931826764
 30
0.0
 11
451.8718952967108
 21
287.5822931826764
 31
0.0
  0
ARC
  5
448
330
1A
100
AcDbEntity
  8
SEIHIN
100
AcDbCircle
 10
479.8718952967108
 20
290.8530094626708
 30
0.0
 40
1.0
100
AcDbArc
 50
359.9999999999951
 51
90.00000000000325
  0
TEXT
  5
49D
330
1A
100
AcDbEntity
  8
SUNPOU
 62
     4
100
AcDbText
 10
654.8539921167739
 20
135.6131084051775
 30
0.0
 40
8.0
  1
右
100
AcDbText
  0
TEXT
  5
49E
330
1A
100
AcDbEntity
  8
SUNPOU
 62
     4
100
AcDbText
 10
153.4604261503182
 20
135.6131084051775
 30
0.0
 40
8.0
  1
左
100
AcDbText
  0
DIMENSION
  5
4AD
330
1A
100
AcDbEntity
  8
SUNPOU
100
AcDbDimension
  2
*D6
 10
280.4520781744404
 20
381.1264692702345
 30
0.0
 11
275.4520781744403
 21
393.3764692702343
 31
0.0
 70
    32
  1
※<>
  3
STANDARD
100
AcDbAlignedDimension
 13
250.5750787006959
 23
405.6264692702341
 33
0.0
 14
208.8397014112165
 24
381.1264692702345
 34
0.0
 50
90.0
100
AcDbRotatedDimension
1001
ACAD
1000
DSTYLE
1002
{
1070
   372
1070
    -1
1070
   371
1070
    -1
1070
    41
1040
7.0
1070
    42
1040
6.0
1070
    43
1040
14.0
1070
    44
1040
3.0
1070
    73
1070
     0
1070
    74
1070
     0
1070
    77
1070
     3
1070
   140
1040
6.0
1070
   141
1040
150.0
1070
   147
1040
2.0
1070
   172
1070
     1
1070
   173
1070
     1
1070
   176
1070
   256
1070
   177
1070
   256
1070
   178
1070
   256
1070
   271
1070
     0
1070
   272
1070
     2
1070
     6
1000
OPEN
1070
     7
1000
OPEN
1002
}
  0
DIMENSION
  5
4BA
330
1A
100
AcDbEntity
  8
SUNPOU
100
AcDbDimension
  2
*D7
 10
302.0205246074019
 20
375.6264692702341
 30
0.0
 11
297.0205246074019
 21
390.6264692702341
 31
0.0
 70
    32
  3
STANDARD
100
AcDbAlignedDimension
 13
250.5750787006959
 23
405.6264692702341
 33
0.0
 14
250.6238294808956
 24
375.6264692702341
 34
0.0
 50
90.0
100
AcDbRotatedDimension
1001
ACAD
1000
DSTYLE
1002
{
1070
   372
1070
    -1
1070
   371
1070
    -1
1070
    41
1040
7.0
1070
    42
1040
6.0
1070
    43
1040
14.0
1070
    44
1040
3.0
1070
    73
1070
     0
1070
    74
1070
     0
1070
    77
1070
     3
1070
   140
1040
6.0
1070
   141
1040
150.0
1070
   147
1040
2.0
1070
   172
1070
     1
1070
   173
1070
     1
1070
   176
1070
   256
1070
   177
1070
   256
1070
   178
1070
   256
1070
   271
1070
     0
1070
   272
1070
     2
1070
     6
1000
OPEN
1070
     7
1000
OPEN
1002
}
  0
DIMENSION
  5
5B3
330
1A
100
AcDbEntity
  8
SUNPOU
100
AcDbDimension
  2
*D8
 10
544.9000680760527
 20
381.1264692702345
 30
0.0
 11
539.9000680760527
 21
393.3764692702343
 31
0.0
 70
    32
  1
※<>
  3
STANDARD
100
AcDbAlignedDimension
 13
565.5258774706258
 23
405.6264692702341
 33
0.0
 14
607.2612547601051
 24
381.1264692702345
 34
0.0
 50
90.0
100
AcDbRotatedDimension
1001
ACAD
1000
DSTYLE
1002
{
1070
   372
1070
    -1
1070
   371
1070
    -1
1070
    41
1040
7.0
1070
    42
1040
6.0
1070
    43
1040
14.0
1070
    44
1040
3.0
1070
    73
1070
     0
1070
    74
1070
     0
1070
    77
1070
     3
1070
   140
1040
6.0
1070
   141
1040
150.0
1070
   147
1040
2.0
1070
   172
1070
     1
1070
   173
1070
     1
1070
   176
1070
   256
1070
   177
1070
   256
1070
   178
1070
   256
1070
   271
1070
     0
1070
   272
1070
     2
1070
     6
1000
OPEN
1070
     7
1000
OPEN
1002
}
  0
DIMENSION
  5
5C0
330
1A
100
AcDbEntity
  8
SUNPOU
100
AcDbDimension
  2
*D9
 10
526.352870368882
 20
375.6264692702341
 30
0.0
 11
521.352870368882
 21
390.6264692702341
 31
0.0
 70
    32
  3
STANDARD
100
AcDbAlignedDimension
 13
565.5258774706258
 23
405.6264692702341
 33
0.0
 14
565.477126690426
 24
375.6264692702341
 34
0.0
 50
90.0
100
AcDbRotatedDimension
1001
ACAD
1000
DSTYLE
1002
{
1070
   372
1070
    -1
1070
   371
1070
    -1
1070
    41
1040
7.0
1070
    42
1040
6.0
1070
    43
1040
14.0
1070
    44
1040
3.0
1070
    73
1070
     0
1070
    74
1070
     0
1070
    77
1070
     3
1070
   140
1040
6.0
1070
   141
1040
150.0
1070
   147
1040
2.0
1070
   172
1070
     1
1070
   173
1070
     1
1070
   176
1070
   256
1070
   177
1070
   256
1070
   178
1070
   256
1070
   271
1070
     0
1070
   272
1070
     2
1070
     6
1000
OPEN
1070
     7
1000
OPEN
1002
}
  0
LINE
  5
5E8
330
1A
100
AcDbEntity
  8
SUNPOU
 62
     4
100
AcDbLine
 10
712.5632683671239
 20
254.389170248571
 30
0.0
 11
712.5632683671239
 21
311.4732373980741
 31
0.0
  0
DIMENSION
  5
606
330
1A
100
AcDbEntity
  8
SUNPOU
  6
CONTINUOUS
100
AcDbDimension
  2
*D10
 10
561.7628760539629
 20
324.3291568644808
 30
0.0
 11
637.1630722105434
 21
329.3291568644808
 31
0.0
 70
    32
  3
STANDARD
100
AcDbAlignedDimension
 13
712.5632683671239
 23
254.389170248571
 33
0.0
 14
561.7628760539629
 24
273.4169486794944
 34
0.0
100
AcDbRotatedDimension
1001
ACAD
1000
DSTYLE
1002
{
1070
   372
1070
    -1
1070
   371
1070
    -1
1070
    41
1040
7.0
1070
    42
1040
6.0
1070
    43
1040
14.0
1070
    44
1040
3.0
1070
    73
1070
     0
1070
    74
1070
     0
1070
    77
1070
     3
1070
   140
1040
6.0
1070
   141
1040
150.0
1070
   147
1040
2.0
1070
   172
1070
     1
1070
   173
1070
     1
1070
   176
1070
   256
1070
   177
1070
   256
1070
   178
1070
   256
1070
   271
1070
     0
1070
   272
1070
     2
1070
     6
1000
OPEN
1070
     7
1000
OPEN
1002
}
  0
DIMENSION
  5
613
330
1A
100
AcDbEntity
  8
SUNPOU
  6
CONTINUOUS
100
AcDbDimension
  2
*D11
 10
648.5632683061326
 20
309.5658753281782
 30
0.0
 11
628.5632683061368
 21
314.5658753281782
 31
0.0
 70
    32
  3
STANDARD
100
AcDbAlignedDimension
 13
608.563268306141
 23
291.8530094626707
 33
0.0
 14
648.5632683061326
 24
251.3891621139151
 34
0.0
100
AcDbRotatedDimension
1001
ACAD
1000
DSTYLE
1002
{
1070
   372
1070
    -1
1070
   371
1070
    -1
1070
    41
1040
7.0
1070
    42
1040
6.0
1070
    43
1040
14.0
1070
    44
1040
3.0
1070
    73
1070
     0
1070
    74
1070
     0
1070
    77
1070
     3
1070
   140
1040
6.0
1070
   141
1040
150.0
1070
   147
1040
2.0
1070
   172
1070
     1
1070
   173
1070
     1
1070
   176
1070
   256
1070
   177
1070
   256
1070
   178
1070
   256
1070
   271
1070
     0
1070
   272
1070
     2
1070
     6
1000
OPEN
1070
     7
1000
OPEN
1002
}
  0
DIMENSION
  5
61F
330
1A
100
AcDbEntity
  8
SUNPOU
  6
CONTINUOUS
100
AcDbDimension
  2
*D12
 10
712.5632683671239
 20
309.5658753281782
 30
0.0
 11
680.5632683366281
 21
314.5658753281782
 31
0.0
 70
    32
  3
STANDARD
100
AcDbAlignedDimension
 13
648.5632683061326
 23
251.3891621139151
 33
0.0
 14
712.5632683671239
 24
260.389170248571
 34
0.0
100
AcDbRotatedDimension
1001
ACAD
1000
DSTYLE
1002
{
1070
   287
1070
     4
1070
   287
1070
     4
1070
   287
1070
     4
1070
   372
1070
    -1
1070
   371
1070
    -1
1070
    41
1040
7.0
1070
    42
1040
6.0
1070
    43
1040
14.0
1070
    44
1040
3.0
1070
    73
1070
     0
1070
    74
1070
     0
1070
    75
1070
     1
1070
    77
1070
     3
1070
   140
1040
6.0
1070
   141
1040
150.0
1070
   147
1040
2.0
1070
   172
1070
     1
1070
   173
1070
     1
1070
   176
1070
   256
1070
   177
1070
   256
1070
   178
1070
   256
1070
   271
1070
     0
1070
   272
1070
     2
1070
   279
1070
     1
1070
     6
1000
OPEN
1070
     7
1000
OPEN
1002
}
  0
DIMENSION
  5
62C
330
1A
100
AcDbEntity
  8
SUNPOU
  6
CONTINUOUS
100
AcDbDimension
  2
*D13
 10
742.5287098439111
 20
175.8891686169706
 30
0.0
 11
737.5287098439112
 21
213.6391687908707
 31
0.0
 70
    32
  3
STANDARD
100
AcDbAlignedDimension
 13
702.4628757361255
 23
251.3891689647707
 33
0.0
 14
659.5365102683466
 24
175.8891686169706
 34
0.0
 50
90.0
100
AcDbRotatedDimension
1001
ACAD
1000
DSTYLE
1002
{
1070
   372
1070
    -1
1070
   371
1070
    -1
1070
    41
1040
7.0
1070
    42
1040
6.0
1070
    43
1040
14.0
1070
    44
1040
3.0
1070
    73
1070
     0
1070
    74
1070
     0
1070
    77
1070
     3
1070
   140
1040
6.0
1070
   141
1040
150.0
1070
   147
1040
2.0
1070
   172
1070
     1
1070
   173
1070
     1
1070
   176
1070
   256
1070
   177
1070
   256
1070
   178
1070
   256
1070
   271
1070
     0
1070
   272
1070
     2
1070
     6
1000
OPEN
1070
     7
1000
OPEN
1002
}
  0
DIMENSION
  5
639
330
1A
100
AcDbEntity
  8
SUNPOU
  6
CONTINUOUS
100
AcDbDimension
  2
*D14
 10
539.8613928059503
 20
175.8891686169707
 30
0.0
 11
534.8613928059503
 21
233.8710890398208
 31
0.0
 70
    32
  3
STANDARD
100
AcDbAlignedDimension
 13
573.7331887122254
 23
291.8530094626707
 33
0.0
 14
659.5365102683466
 24
175.8891686169706
 34
0.0
 50
90.0
100
AcDbRotatedDimension
1001
ACAD
1000
DSTYLE
1002
{
1070
   372
1070
    -1
1070
   371
1070
    -1
1070
    41
1040
7.0
1070
    42
1040
6.0
1070
    43
1040
14.0
1070
    44
1040
3.0
1070
    73
1070
     0
1070
    74
1070
     0
1070
    77
1070
     3
1070
   140
1040
6.0
1070
   141
1040
150.0
1070
   147
1040
2.0
1070
   172
1070
     1
1070
   173
1070
     1
1070
   176
1070
   256
1070
   177
1070
   256
1070
   178
1070
   256
1070
   271
1070
     0
1070
   272
1070
     2
1070
     6
1000
OPEN
1070
     7
1000
OPEN
1002
}
  0
LINE
  5
AD3
330
1A
100
AcDbEntity
  8
SEIHIN
  6
CONTINUOUS
 62
     3
100
AcDbLine
 10
230.4264710296958
 20
386.1264692702343
 30
0.0
 11
111.6213753495957
 21
386.1264692702356
 31
0.0
  0
LINE
  5
AD4
330
1A
100
AcDbEntity
  8
SEIHIN
  6
CONTINUOUS
 62
     3
100
AcDbLine
 10
585.674485141626
 20
386.1264692702342
 30
0.0
 11
704.4795808217259
 21
386.1264692702356
 31
0.0
  0
ARC
  5
F53
102
{ACAD_REACTORS
330
FA2
102
}
330
1A
100
AcDbEntity
  8
NOKITOI
  6
PHANTOM
 62
     8
 48
5.0
100
AcDbCircle
 10
235.638857464775
 20
272.509165291515
 30
0.0
 40
9.0
100
AcDbArc
 50
270.0
 51
322.327640745302
  0
LINE
  5
F54
102
{ACAD_REACTORS
330
FA2
102
}
330
1A
100
AcDbEntity
  8
NOKITOI
  6
PHANTOM
 62
     8
 48
5.0
100
AcDbLine
 10
114.537566206775
 20
244.089165291515
 30
0.0
 11
116.8433421243752
 21
234.866061621415
 31
0.0
  0
LINE
  5
F55
102
{ACAD_REACTORS
330
FA2
102
}
330
1A
100
AcDbEntity
  8
NOKITOI
  6
PHANTOM
 62
     8
 48
5.0
100
AcDbLine
 10
118.5671808027751
 20
234.0655542549149
 30
0.0
 11
115.5525755351751
 21
245.389165291515
 31
0.0
  0
LINE
  5
F56
102
{ACAD_REACTORS
330
FA2
102
}
330
1A
100
AcDbEntity
  8
NOKITOI
  6
PHANTOM
 62
     8
 48
5.0
100
AcDbLine
 10
108.4618275294752
 20
235.701884096415
 30
0.0
 11
108.1020629364751
 21
243.212126486715
 31
0.0
  0
LINE
  5
F57
102
{ACAD_REACTORS
330
FA2
102
}
330
1A
100
AcDbEntity
  8
NOKITOI
  6
PHANTOM
 62
     8
 48
5.0
100
AcDbLine
 10
109.1014357628752
 20
234.312866082615
 30
0.0
 11
118.0353514242753
 21
233.439296382415
 31
0.0
  0
LINE
  5
F58
102
{ACAD_REACTORS
330
FA2
102
}
330
1A
100
AcDbEntity
  8
NOKITOI
  6
PHANTOM
 62
     8
 48
5.0
100
AcDbLine
 10
116.8433421243752
 20
234.866061621415
 30
0.0
 11
108.4618275294752
 21
235.701884096415
 31
0.0
  0
ARC
  5
F59
102
{ACAD_REACTORS
330
FA2
102
}
330
1A
100
AcDbEntity
  8
NOKITOI
  6
PHANTOM
 62
     8
 48
5.0
100
AcDbCircle
 10
109.0527771866751
 20
233.8152393721149
 30
0.0
 40
0.5
100
AcDbArc
 50
84.41529901559986
 51
182.7425542895987
  0
ARC
  5
F5A
102
{ACAD_REACTORS
330
FA2
102
}
330
1A
100
AcDbEntity
  8
NOKITOI
  6
PHANTOM
 62
     8
 48
5.0
100
AcDbCircle
 10
118.0840100005752
 20
233.936923092915
 30
0.0
 40
0.5
100
AcDbArc
 50
264.4152990155997
 51
14.90767993269916
  0
LINE
  5
F5B
102
{ACAD_REACTORS
330
FA2
102
}
330
1A
100
AcDbEntity
  8
NOKITOI
  6
PHANTOM
 62
     8
 48
5.0
100
AcDbLine
 10
112.2525755351752
 20
244.089165291515
 30
0.0
 11
114.537566206775
 21
244.089165291515
 31
0.0
  0
LINE
  5
F5C
102
{ACAD_REACTORS
330
FA2
102
}
330
1A
100
AcDbEntity
  8
NOKITOI
  6
PHANTOM
 62
     8
 48
5.0
100
AcDbLine
 10
113.5525755351751
 20
248.389165291515
 30
0.0
 11
111.7978250041752
 21
248.389165291515
 31
0.0
  0
LINE
  5
F5D
102
{ACAD_REACTORS
330
FA2
102
}
330
1A
100
AcDbEntity
  8
NOKITOI
  6
PHANTOM
 62
     8
 48
5.0
100
AcDbLine
 10
112.2525755351752
 20
247.089165291515
 30
0.0
 11
112.2525755351752
 21
244.089165291515
 31
0.0
  0
LINE
  5
F5E
102
{ACAD_REACTORS
330
FA2
102
}
330
1A
100
AcDbEntity
  8
NOKITOI
  6
PHANTOM
 62
     8
 48
5.0
100
AcDbLine
 10
111.7978250041752
 20
247.089165291515
 30
0.0
 11
112.2525755351752
 21
247.089165291515
 31
0.0
  0
ARC
  5
F5F
102
{ACAD_REACTORS
330
FA2
102
}
330
1A
100
AcDbEntity
  8
NOKITOI
  6
PHANTOM
 62
     8
 48
5.0
100
AcDbCircle
 10
111.7978250041752
 20
243.389165291515
 30
0.0
 40
5.0
100
AcDbArc
 50
90.0
 51
182.7425542896966
  0
ARC
  5
F60
102
{ACAD_REACTORS
330
FA2
102
}
330
1A
100
AcDbEntity
  8
NOKITOI
  6
PHANTOM
 62
     8
 48
5.0
100
AcDbCircle
 10
111.7978250041752
 20
243.389165291515
 30
0.0
 40
3.7
100
AcDbArc
 50
90.0
 51
182.7425542896966
  0
LINE
  5
F61
102
{ACAD_REACTORS
330
FA2
102
}
330
1A
100
AcDbEntity
  8
NOKITOI
  6
PHANTOM
 62
     8
 48
5.0
100
AcDbLine
 10
113.5525755351751
 20
245.389165291515
 30
0.0
 11
113.5525755351751
 21
248.389165291515
 31
0.0
  0
LINE
  5
F62
102
{ACAD_REACTORS
330
FA2
102
}
330
1A
100
AcDbEntity
  8
NOKITOI
  6
PHANTOM
 62
     8
 48
5.0
100
AcDbLine
 10
115.5525755351751
 20
245.389165291515
 30
0.0
 11
113.5525755351751
 21
245.389165291515
 31
0.0
  0
LINE
  5
F63
102
{ACAD_REACTORS
330
FA2
102
}
330
1A
100
AcDbEntity
  8
NOKITOI
  6
PHANTOM
 62
     8
 48
5.0
100
AcDbLine
 10
106.803551939675
 20
243.149923663415
 30
0.0
 11
109.6345501335751
 21
184.0516047770151
 31
0.0
  0
LINE
  5
F64
102
{ACAD_REACTORS
330
FA2
102
}
330
1A
100
AcDbEntity
  8
NOKITOI
  6
PHANTOM
 62
     8
 48
5.0
100
AcDbLine
 10
110.9330611303752
 20
184.1138076003149
 30
0.0
 11
108.5533498801752
 21
233.791315209315
 31
0.0
  0
ARC
  5
F65
102
{ACAD_REACTORS
330
FA2
102
}
330
1A
100
AcDbEntity
  8
NOKITOI
  6
PHANTOM
 62
     8
 48
5.0
100
AcDbCircle
 10
156.978948093075
 20
1178.389164943715
 30
0.0
 40
998.7
100
AcDbArc
 50
267.5605862773997
 51
272.7972149414998
  0
ARC
  5
F66
102
{ACAD_REACTORS
330
FA2
102
}
330
1A
100
AcDbEntity
  8
NOKITOI
  6
PHANTOM
 62
     8
 48
5.0
100
AcDbCircle
 10
114.6288231981751
 20
184.290846405115
 30
0.0
 40
3.7
100
AcDbArc
 50
182.7425542896966
 51
267.5605862773997
  0
ARC
  5
F67
102
{ACAD_REACTORS
330
FA2
102
}
330
1A
100
AcDbEntity
  8
NOKITOI
  6
PHANTOM
 62
     8
 48
5.0
100
AcDbCircle
 10
114.6288231981751
 20
184.290846405115
 30
0.0
 40
5.0
100
AcDbArc
 50
182.7425542896966
 51
267.5605862773997
  0
ARC
  5
F68
102
{ACAD_REACTORS
330
FA2
102
}
330
1A
100
AcDbEntity
  8
NOKITOI
  6
PHANTOM
 62
     8
 48
5.0
100
AcDbCircle
 10
156.9789480929752
 20
1178.389164943715
 30
0.0
 40
1000.0
100
AcDbArc
 50
267.5605862773997
 51
272.7942129201001
  0
ARC
  5
F69
102
{ACAD_REACTORS
330
FA2
102
}
330
1A
100
AcDbEntity
  8
NOKITOI
  6
PHANTOM
 62
     8
 48
5.0
100
AcDbCircle
 10
205.6337637641751
 20
182.577079803215
 30
0.0
 40
1.7
100
AcDbArc
 50
272.7972149414998
 51
345.9637565321
  0
ARC
  5
F6A
102
{ACAD_REACTORS
330
FA2
102
}
330
1A
100
AcDbEntity
  8
NOKITOI
  6
PHANTOM
 62
     8
 48
5.0
100
AcDbCircle
 10
205.5815879663752
 20
182.5745318933151
 30
0.0
 40
3.0
100
AcDbArc
 50
272.7942129201001
 51
345.9637565321
  0
LINE
  5
F6B
102
{ACAD_REACTORS
330
FA2
102
}
330
1A
100
AcDbEntity
  8
NOKITOI
  6
PHANTOM
 62
     8
 48
5.0
100
AcDbLine
 10
208.4920154667751
 20
181.846925018215
 30
0.0
 11
211.6415778472752
 21
194.445174539915
 31
0.0
  0
LINE
  5
F6C
102
{ACAD_REACTORS
330
FA2
102
}
330
1A
100
AcDbEntity
  8
NOKITOI
  6
PHANTOM
 62
     8
 48
5.0
100
AcDbLine
 10
210.8173916296751
 20
196.3023117017149
 30
0.0
 11
207.2830060143752
 21
182.1647692406151
 31
0.0
  0
LINE
  5
F6D
102
{ACAD_REACTORS
330
FA2
102
}
330
1A
100
AcDbEntity
  8
NOKITOI
  6
PHANTOM
 62
     8
 48
5.0
100
AcDbLine
 10
212.4949730098752
 20
196.037430431115
 30
0.0
 11
220.1881082536753
 21
202.139165291515
 31
0.0
  0
LINE
  5
F6E
102
{ACAD_REACTORS
330
FA2
102
}
330
1A
100
AcDbEntity
  8
NOKITOI
  6
PHANTOM
 62
     8
 48
5.0
100
AcDbLine
 10
220.3925554386752
 20
194.7904437318151
 30
0.0
 11
212.4949730098752
 21
196.037430431115
 31
0.0
  0
LINE
  5
F6F
102
{ACAD_REACTORS
330
FA2
102
}
330
1A
100
AcDbEntity
  8
NOKITOI
  6
PHANTOM
 62
     8
 48
5.0
100
AcDbLine
 10
212.2046303840751
 20
194.817788210115
 30
0.0
 11
220.8932643306751
 21
193.445898639615
 31
0.0
  0
ARC
  5
F70
102
{ACAD_REACTORS
330
FA2
102
}
330
1A
100
AcDbEntity
  8
NOKITOI
  6
PHANTOM
 62
     8
 48
5.0
100
AcDbCircle
 10
212.1266490972751
 20
194.323906727415
 30
0.0
 40
0.5
100
AcDbArc
 50
81.02737338509951
 51
165.9637565319993
  0
LINE
  5
F71
102
{ACAD_REACTORS
330
FA2
102
}
330
1A
100
AcDbEntity
  8
NOKITOI
  6
PHANTOM
 62
     8
 48
5.0
100
AcDbLine
 10
219.7525755351751
 20
203.389165291515
 30
0.0
 11
210.8173916296751
 21
196.3023117017149
 31
0.0
  0
ARC
  5
F72
102
{ACAD_REACTORS
330
FA2
102
}
330
1A
100
AcDbEntity
  8
NOKITOI
  6
PHANTOM
 62
     8
 48
5.0
100
AcDbCircle
 10
220.9712456173753
 20
193.9397801222149
 30
0.0
 40
0.5
100
AcDbArc
 50
261.0273733850994
 51
333.1464202911985
  0
LINE
  5
F73
102
{ACAD_REACTORS
330
FA2
102
}
330
1A
100
AcDbEntity
  8
NOKITOI
  6
PHANTOM
 62
     8
 48
5.0
100
AcDbLine
 10
220.1881082536753
 20
202.139165291515
 30
0.0
 11
223.9303197144751
 21
202.139165291515
 31
0.0
  0
ARC
  5
F74
102
{ACAD_REACTORS
330
FA2
102
}
330
1A
100
AcDbEntity
  8
NOKITOI
  6
PHANTOM
 62
     8
 48
5.0
100
AcDbCircle
 10
16.21965499527517
 20
297.6076928904151
 30
0.0
 40
228.6
100
AcDbArc
 50
333.2711201555982
 51
335.3154166361042
  0
ARC
  5
F75
102
{ACAD_REACTORS
330
FA2
102
}
330
1A
100
AcDbEntity
  8
NOKITOI
  6
PHANTOM
 62
     8
 48
5.0
100
AcDbCircle
 10
16.21965499527517
 20
297.6076928904151
 30
0.0
 40
230.0
100
AcDbArc
 50
333.1464202911985
 51
355.9517132378024
  0
LINE
  5
F76
102
{ACAD_REACTORS
330
FA2
102
}
330
1A
100
AcDbEntity
  8
NOKITOI
  6
PHANTOM
 62
     8
 48
5.0
100
AcDbLine
 10
224.5003047375752
 20
203.389165291515
 30
0.0
 11
219.7525755351751
 21
203.389165291515
 31
0.0
  0
ARC
  5
F77
102
{ACAD_REACTORS
330
FA2
102
}
330
1A
100
AcDbEntity
  8
NOKITOI
  6
PHANTOM
 62
     8
 48
5.0
100
AcDbCircle
 10
16.21965499527517
 20
297.6076928904151
 30
0.0
 40
228.6
100
AcDbArc
 50
335.6597483870001
 51
349.1277411977991
  0
ARC
  5
F78
102
{ACAD_REACTORS
330
FA2
102
}
330
1A
100
AcDbEntity
  8
NOKITOI
  6
PHANTOM
 62
     8
 48
5.0
100
AcDbCircle
 10
16.21965499527517
 20
297.6076928904151
 30
0.0
 40
228.6
100
AcDbArc
 50
349.4619678756017
 51
352.3076904142964
  0
ARC
  5
F79
102
{ACAD_REACTORS
330
FA2
102
}
330
1A
100
AcDbEntity
  8
NOKITOI
  6
PHANTOM
 62
     8
 48
5.0
100
AcDbCircle
 10
232.9725755351752
 20
261.759165291515
 30
0.0
 40
3.0
100
AcDbArc
 50
90.0
 51
253.5407503716991
  0
ARC
  5
F7A
102
{ACAD_REACTORS
330
FA2
102
}
330
1A
100
AcDbEntity
  8
NOKITOI
  6
PHANTOM
 62
     8
 48
5.0
100
AcDbCircle
 10
232.9725755351752
 20
261.759165291515
 30
0.0
 40
1.75
100
AcDbArc
 50
90.0
 51
245.2475275738988
  0
ARC
  5
F7B
102
{ACAD_REACTORS
330
FA2
102
}
330
1A
100
AcDbEntity
  8
NOKITOI
  6
PHANTOM
 62
     8
 48
5.0
100
AcDbCircle
 10
218.2556603830752
 20
221.362667743315
 30
0.0
 40
41.25
100
AcDbArc
 50
56.59828005750012
 51
70.18338699350024
  0
ARC
  5
F7C
102
{ACAD_REACTORS
330
FA2
102
}
330
1A
100
AcDbEntity
  8
NOKITOI
  6
PHANTOM
 62
     8
 48
5.0
100
AcDbCircle
 10
218.3460883644751
 20
221.3293592212149
 30
0.0
 40
40.0
100
AcDbArc
 50
55.99565374309868
 51
69.85408285809985
  0
LINE
  5
F7D
102
{ACAD_REACTORS
330
FA2
102
}
330
1A
100
AcDbEntity
  8
NOKITOI
  6
PHANTOM
 62
     8
 48
5.0
100
AcDbLine
 10
235.638857464775
 20
263.509165291515
 30
0.0
 11
232.9725755351752
 21
263.509165291515
 31
0.0
  0
LINE
  5
F7E
102
{ACAD_REACTORS
330
FA2
102
}
330
1A
100
AcDbEntity
  8
NOKITOI
  6
PHANTOM
 62
     8
 48
5.0
100
AcDbLine
 10
235.638857464775
 20
264.759165291515
 30
0.0
 11
232.9725755351752
 21
264.759165291515
 31
0.0
  0
ARC
  5
F7F
102
{ACAD_REACTORS
330
FA2
102
}
330
1A
100
AcDbEntity
  8
NOKITOI
  6
PHANTOM
 62
     8
 48
5.0
100
AcDbCircle
 10
235.638857464775
 20
272.509165291515
 30
0.0
 40
9.0
100
AcDbArc
 50
24.62139013169998
 51
90.0
  0
ARC
  5
F80
102
{ACAD_REACTORS
330
FA2
102
}
330
1A
100
AcDbEntity
  8
NOKITOI
  6
PHANTOM
 62
     8
 48
5.0
100
AcDbCircle
 10
235.638857464775
 20
272.509165291515
 30
0.0
 40
7.75
100
AcDbArc
 50
270.0
 51
90.0
  0
ARC
  5
F81
102
{ACAD_REACTORS
330
FA2
102
}
330
1A
100
AcDbEntity
  8
NOKITOI
  6
PHANTOM
 62
     8
 48
5.0
100
AcDbCircle
 10
232.838725539175
 20
275.259165291515
 30
0.0
 40
0.5
100
AcDbArc
 50
270.0
 51
19.98310652190032
  0
ARC
  5
F82
102
{ACAD_REACTORS
330
FA2
102
}
330
1A
100
AcDbEntity
  8
NOKITOI
  6
PHANTOM
 62
     8
 48
5.0
100
AcDbCircle
 10
228.640347324475
 20
275.259165291515
 30
0.0
 40
0.5
100
AcDbArc
 50
194.4097258763979
 51
270.0
  0
LINE
  5
F83
102
{ACAD_REACTORS
330
FA2
102
}
330
1A
100
AcDbEntity
  8
NOKITOI
  6
PHANTOM
 62
     8
 48
5.0
100
AcDbLine
 10
228.640347324475
 20
274.759165291515
 30
0.0
 11
232.838725539175
 21
274.759165291515
 31
0.0
  0
LINE
  5
F84
102
{ACAD_REACTORS
330
FA2
102
}
330
1A
100
AcDbEntity
  8
NOKITOI
  6
PHANTOM
 62
     8
 48
5.0
100
AcDbLine
 10
226.0944110520751
 20
283.1587414596151
 30
0.0
 11
228.156076858275
 21
275.1347381419151
 31
0.0
  0
LINE
  5
F85
102
{ACAD_REACTORS
330
FA2
102
}
330
1A
100
AcDbEntity
  8
NOKITOI
  6
PHANTOM
 62
     8
 48
5.0
100
AcDbLine
 10
227.6404123132753
 20
283.1881187860151
 30
0.0
 11
229.4849532932752
 21
276.009165291515
 31
0.0
  0
LINE
  5
F86
102
{ACAD_REACTORS
330
FA2
102
}
330
1A
100
AcDbEntity
  8
NOKITOI
  6
PHANTOM
 62
     8
 48
5.0
100
AcDbLine
 10
232.8755212039751
 20
283.4680711331151
 30
0.0
 11
227.6404123132753
 21
283.1881187860151
 31
0.0
  0
ARC
  5
F87
102
{ACAD_REACTORS
330
FA2
102
}
330
1A
100
AcDbEntity
  8
NOKITOI
  6
PHANTOM
 62
     8
 48
5.0
100
AcDbCircle
 10
227.0248794363752
 20
283.5557741162151
 30
0.0
 40
1.0
100
AcDbArc
 50
93.06102979940016
 51
194.4097258763979
  0
LINE
  5
F88
102
{ACAD_REACTORS
330
FA2
102
}
330
1A
100
AcDbEntity
  8
NOKITOI
  6
PHANTOM
 62
     8
 48
5.0
100
AcDbLine
 10
233.3086222509752
 20
275.4300368230151
 30
0.0
 11
232.040482103575
 21
278.917422228415
 31
0.0
  0
LINE
  5
F89
102
{ACAD_REACTORS
330
FA2
102
}
330
1A
100
AcDbEntity
  8
NOKITOI
  6
PHANTOM
 62
     8
 48
5.0
100
AcDbLine
 10
234.2320615483751
 20
281.509165291515
 30
0.0
 11
235.638857464775
 21
281.509165291515
 31
0.0
  0
LINE
  5
F8A
102
{ACAD_REACTORS
330
FA2
102
}
330
1A
100
AcDbEntity
  8
NOKITOI
  6
PHANTOM
 62
     8
 48
5.0
100
AcDbLine
 10
232.9802755269751
 20
280.259165291515
 30
0.0
 11
235.638857464775
 21
280.259165291515
 31
0.0
  0
LINE
  5
F8B
102
{ACAD_REACTORS
330
FA2
102
}
330
1A
100
AcDbEntity
  8
NOKITOI
  6
PHANTOM
 62
     8
 48
5.0
100
AcDbLine
 10
232.9802755269751
 20
281.509165291515
 30
0.0
 11
232.8755212039751
 21
283.4680711331151
 31
0.0
  0
LINE
  5
F8C
102
{ACAD_REACTORS
330
FA2
102
}
330
1A
100
AcDbEntity
  8
NOKITOI
  6
PHANTOM
 62
     8
 48
5.0
100
AcDbLine
 10
234.1237377308751
 20
283.5348206799151
 30
0.0
 11
234.2320615483751
 21
281.509165291515
 31
0.0
  0
ARC
  5
F8D
102
{ACAD_REACTORS
330
FA2
102
}
330
1A
100
AcDbEntity
  8
NOKITOI
  6
PHANTOM
 62
     8
 48
5.0
100
AcDbCircle
 10
232.9802755269751
 20
279.259165291515
 30
0.0
 40
2.299999999999999
100
AcDbArc
 50
90.0
 51
199.9831065219003
  0
LINE
  5
F8E
102
{ACAD_REACTORS
330
FA2
102
}
330
1A
100
AcDbEntity
  8
NOKITOI
  6
PHANTOM
 62
     8
 48
5.0
100
AcDbLine
 10
229.4849532932752
 20
276.009165291515
 30
0.0
 11
231.767950545275
 21
276.009165291515
 31
0.0
  0
ARC
  5
F8F
102
{ACAD_REACTORS
330
FA2
102
}
330
1A
100
AcDbEntity
  8
NOKITOI
  6
PHANTOM
 62
     8
 48
5.0
100
AcDbCircle
 10
232.9802755269751
 20
279.259165291515
 30
0.0
 40
1.0
100
AcDbArc
 50
90.0
 51
199.9831065219003
  0
LINE
  5
F90
102
{ACAD_REACTORS
330
FA2
102
}
330
1A
100
AcDbEntity
  8
NOKITOI
  6
PHANTOM
 62
     8
 48
5.0
100
AcDbLine
 10
231.767950545275
 20
276.009165291515
 30
0.0
 11
230.8657403241751
 21
278.490243399515
 31
0.0
  0
LINE
  5
F91
102
{ACAD_REACTORS
330
FA2
102
}
330
1A
100
AcDbEntity
  8
NOKITOI
  6
PHANTOM
 62
     8
 48
5.0
100
AcDbLine
 10
243.629654742575
 20
287.8893509365151
 30
0.0
 11
244.4525755351752
 21
285.489165291515
 31
0.0
  0
LINE
  5
F92
102
{ACAD_REACTORS
330
FA2
102
}
330
1A
100
AcDbEntity
  8
NOKITOI
  6
PHANTOM
 62
     8
 48
5.0
100
AcDbLine
 10
244.4525755351752
 20
285.489165291515
 30
0.0
 11
226.971479798875
 21
284.554347337715
 31
0.0
  0
LINE
  5
F93
102
{ACAD_REACTORS
330
FA2
102
}
330
1A
100
AcDbEntity
  8
NOKITOI
  6
PHANTOM
 62
     8
 48
5.0
100
AcDbLine
 10
244.4193642324752
 20
284.085388942115
 30
0.0
 11
234.1237377308751
 21
283.5348206799151
 31
0.0
  0
ARC
  5
F94
102
{ACAD_REACTORS
330
FA2
102
}
330
1A
100
AcDbEntity
  8
NOKITOI
  6
PHANTOM
 62
     8
 48
5.0
100
AcDbCircle
 10
16.21965499527517
 20
297.607692890515
 30
0.0
 40
228.6
100
AcDbArc
 50
354.6413404626992
 51
356.6088211537961
  0
LINE
  5
F95
102
{ACAD_REACTORS
330
FA2
102
}
330
1A
100
AcDbEntity
  8
NOKITOI
  6
PHANTOM
 62
     8
 48
5.0
100
AcDbLine
 10
245.9044834920752
 20
285.5711004170151
 30
0.0
 11
245.6327216401752
 21
286.363739151715
 31
0.0
  0
ARC
  5
F96
102
{ACAD_REACTORS
330
FA2
102
}
330
1A
100
AcDbEntity
  8
NOKITOI
  6
PHANTOM
 62
     8
 48
5.0
100
AcDbCircle
 10
16.21965499527517
 20
297.6076928904151
 30
0.0
 40
230.0
100
AcDbArc
 50
356.2690513687001
 51
357.0001689956969
  0
ARC
  5
F97
102
{ACAD_REACTORS
330
FA2
102
}
330
1A
100
AcDbEntity
  8
NOKITOI
  6
PHANTOM
 62
     8
 48
5.0
100
AcDbCircle
 10
244.1026277154752
 20
288.051513098715
 30
0.0
 40
0.5
100
AcDbArc
 50
65.46469684430025
 51
198.9246444159994
  0
LINE
  5
F98
102
{ACAD_REACTORS
330
FA2
102
}
330
1A
100
AcDbEntity
  8
NOKITOI
  6
PHANTOM
 62
     8
 48
5.0
100
AcDbLine
 10
251.4602024562751
 20
285.242625002815
 30
0.0
 11
244.310254636675
 21
288.506365889915
 31
0.0
  0
LINE
  5
F99
102
{ACAD_REACTORS
330
FA2
102
}
330
1A
100
AcDbEntity
  8
NOKITOI
  6
PHANTOM
 62
     8
 48
5.0
100
AcDbLine
 10
250.3525755351751
 20
280.109165291515
 30
0.0
 11
250.3525755351751
 21
277.8091652915151
 31
0.0
  0
LINE
  5
F9A
102
{ACAD_REACTORS
330
FA2
102
}
330
1A
100
AcDbEntity
  8
NOKITOI
  6
PHANTOM
 62
     8
 48
5.0
100
AcDbLine
 10
251.7525755351751
 20
277.8091652915151
 30
0.0
 11
251.7525755351751
 21
284.7877722116151
 31
0.0
  0
LINE
  5
F9B
102
{ACAD_REACTORS
330
FA2
102
}
330
1A
100
AcDbEntity
  8
NOKITOI
  6
PHANTOM
 62
     8
 48
5.0
100
AcDbLine
 10
250.3525755351751
 20
284.2092646679151
 30
0.0
 11
250.3525755351751
 21
281.403260517015
 31
0.0
  0
ARC
  5
F9C
102
{ACAD_REACTORS
330
FA2
102
}
330
1A
100
AcDbEntity
  8
NOKITOI
  6
PHANTOM
 62
     8
 48
5.0
100
AcDbCircle
 10
251.2525755351751
 20
284.7877722116151
 30
0.0
 40
0.5
100
AcDbArc
 50
0.0
 51
65.46469684419927
  0
LINE
  5
F9D
102
{ACAD_REACTORS
330
FA2
102
}
330
1A
100
AcDbEntity
  8
NOKITOI
  6
PHANTOM
 62
     8
 48
5.0
100
AcDbLine
 10
245.6457837968752
 20
281.3703463367151
 30
0.0
 11
250.3525755351751
 21
280.109165291515
 31
0.0
  0
LINE
  5
F9E
102
{ACAD_REACTORS
330
FA2
102
}
330
1A
100
AcDbEntity
  8
NOKITOI
  6
PHANTOM
 62
     8
 48
5.0
100
AcDbLine
 10
245.7321964939752
 20
282.6412873498151
 30
0.0
 11
250.3525755351751
 21
281.403260517015
 31
0.0
  0
LINE
  5
F9F
102
{ACAD_REACTORS
330
FA2
102
}
330
1A
100
AcDbEntity
  8
NOKITOI
  6
PHANTOM
 62
     8
 48
5.0
100
AcDbLine
 10
245.6327216401752
 20
286.363739151715
 30
0.0
 11
250.3525755351751
 21
284.2092646679151
 31
0.0
  0
ARC
  5
FA0
102
{ACAD_REACTORS
330
FA2
102
}
330
1A
100
AcDbEntity
  8
NOKITOI
  6
PHANTOM
 62
     8
 48
5.0
100
AcDbCircle
 10
251.0525755351751
 20
277.8091652915151
 30
0.0
 40
0.7
100
AcDbArc
 50
270.0
 51
0.0
  0
ARC
  5
FA1
102
{ACAD_REACTORS
330
FA2
102
}
330
1A
100
AcDbEntity
  8
NOKITOI
  6
PHANTOM
 62
     8
 48
5.0
100
AcDbCircle
 10
251.0525755351751
 20
277.8091652915151
 30
0.0
 40
0.7
100
AcDbArc
 50
180.0
 51
270.0
  0
LINE
  5
FA4
102
{ACAD_REACTORS
330
FF3
102
}
330
1A
100
AcDbEntity
  8
NOKITOI
  6
PHANTOM
 62
     8
 48
5.0
100
AcDbLine
 10
588.8750460480464
 20
283.1881156084151
 30
0.0
 11
587.0305050680465
 21
276.009162113915
 31
0.0
  0
LINE
  5
FA5
102
{ACAD_REACTORS
330
FF3
102
}
330
1A
100
AcDbEntity
  8
NOKITOI
  6
PHANTOM
 62
     8
 48
5.0
100
AcDbLine
 10
708.0536308318464
 20
235.701880918815
 30
0.0
 11
708.4133954248466
 21
243.2121233091151
 31
0.0
  0
LINE
  5
FA6
102
{ACAD_REACTORS
330
FF3
102
}
330
1A
100
AcDbEntity
  8
NOKITOI
  6
PHANTOM
 62
     8
 48
5.0
100
AcDbLine
 10
701.9778921545467
 20
244.089162113915
 30
0.0
 11
699.6721162369465
 21
234.866058443815
 31
0.0
  0
LINE
  5
FA7
102
{ACAD_REACTORS
330
FF3
102
}
330
1A
100
AcDbEntity
  8
NOKITOI
  6
PHANTOM
 62
     8
 48
5.0
100
AcDbLine
 10
697.9482775585466
 20
234.065551077315
 30
0.0
 11
700.9628828261465
 21
245.389162113915
 31
0.0
  0
LINE
  5
FA8
102
{ACAD_REACTORS
330
FF3
102
}
330
1A
100
AcDbEntity
  8
NOKITOI
  6
PHANTOM
 62
     8
 48
5.0
100
AcDbLine
 10
699.6721162369465
 20
234.866058443815
 30
0.0
 11
708.0536308318464
 21
235.701880918815
 31
0.0
  0
LINE
  5
FA9
102
{ACAD_REACTORS
330
FF3
102
}
330
1A
100
AcDbEntity
  8
NOKITOI
  6
PHANTOM
 62
     8
 48
5.0
100
AcDbLine
 10
707.4140225984465
 20
234.3128629050151
 30
0.0
 11
698.4801069370464
 21
233.439293204815
 31
0.0
  0
ARC
  5
FAA
102
{ACAD_REACTORS
330
FF3
102
}
330
1A
100
AcDbEntity
  8
NOKITOI
  6
PHANTOM
 62
     8
 48
5.0
100
AcDbCircle
 10
698.4314483607465
 20
233.9369199153151
 30
0.0
 40
0.5
100
AcDbArc
 50
165.0923200673008
 51
275.5847009844001
  0
ARC
  5
FAB
102
{ACAD_REACTORS
330
FF3
102
}
330
1A
100
AcDbEntity
  8
NOKITOI
  6
PHANTOM
 62
     8
 48
5.0
100
AcDbCircle
 10
707.4626811746465
 20
233.815236194515
 30
0.0
 40
0.5
100
AcDbArc
 50
357.2574457104012
 51
95.58470098440015
  0
LINE
  5
FAC
102
{ACAD_REACTORS
330
FF3
102
}
330
1A
100
AcDbEntity
  8
NOKITOI
  6
PHANTOM
 62
     8
 48
5.0
100
AcDbLine
 10
702.9628828261466
 20
248.389162113915
 30
0.0
 11
704.7176333571465
 21
248.389162113915
 31
0.0
  0
LINE
  5
FAD
102
{ACAD_REACTORS
330
FF3
102
}
330
1A
100
AcDbEntity
  8
NOKITOI
  6
PHANTOM
 62
     8
 48
5.0
100
AcDbLine
 10
704.2628828261465
 20
244.089162113915
 30
0.0
 11
701.9778921545467
 21
244.089162113915
 31
0.0
  0
LINE
  5
FAE
102
{ACAD_REACTORS
330
FF3
102
}
330
1A
100
AcDbEntity
  8
NOKITOI
  6
PHANTOM
 62
     8
 48
5.0
100
AcDbLine
 10
700.9628828261465
 20
245.389162113915
 30
0.0
 11
702.9628828261466
 21
245.389162113915
 31
0.0
  0
LINE
  5
FAF
102
{ACAD_REACTORS
330
FF3
102
}
330
1A
100
AcDbEntity
  8
NOKITOI
  6
PHANTOM
 62
     8
 48
5.0
100
AcDbLine
 10
702.9628828261466
 20
245.389162113915
 30
0.0
 11
702.9628828261466
 21
248.389162113915
 31
0.0
  0
LINE
  5
FB0
102
{ACAD_REACTORS
330
FF3
102
}
330
1A
100
AcDbEntity
  8
NOKITOI
  6
PHANTOM
 62
     8
 48
5.0
100
AcDbLine
 10
704.7176333571465
 20
247.0891621139151
 30
0.0
 11
704.2628828261465
 21
247.0891621139151
 31
0.0
  0
LINE
  5
FB1
102
{ACAD_REACTORS
330
FF3
102
}
330
1A
100
AcDbEntity
  8
NOKITOI
  6
PHANTOM
 62
     8
 48
5.0
100
AcDbLine
 10
704.2628828261465
 20
247.0891621139151
 30
0.0
 11
704.2628828261465
 21
244.089162113915
 31
0.0
  0
ARC
  5
FB2
102
{ACAD_REACTORS
330
FF3
102
}
330
1A
100
AcDbEntity
  8
NOKITOI
  6
PHANTOM
 62
     8
 48
5.0
100
AcDbCircle
 10
704.7176333571465
 20
243.389162113915
 30
0.0
 40
3.7
100
AcDbArc
 50
357.2574457103034
 51
90.0
  0
ARC
  5
FB3
102
{ACAD_REACTORS
330
FF3
102
}
330
1A
100
AcDbEntity
  8
NOKITOI
  6
PHANTOM
 62
     8
 48
5.0
100
AcDbCircle
 10
704.7176333571465
 20
243.389162113915
 30
0.0
 40
5.0
100
AcDbArc
 50
357.2574457103034
 51
90.0
  0
LINE
  5
FB4
102
{ACAD_REACTORS
330
FF3
102
}
330
1A
100
AcDbEntity
  8
NOKITOI
  6
PHANTOM
 62
     8
 48
5.0
100
AcDbLine
 10
709.7119064216467
 20
243.149920485815
 30
0.0
 11
706.8809082277466
 21
184.0516015994151
 31
0.0
  0
LINE
  5
FB5
102
{ACAD_REACTORS
330
FF3
102
}
330
1A
100
AcDbEntity
  8
NOKITOI
  6
PHANTOM
 62
     8
 48
5.0
100
AcDbLine
 10
705.5823972309465
 20
184.113804422715
 30
0.0
 11
707.9621084811464
 21
233.791312031715
 31
0.0
  0
ARC
  5
FB6
102
{ACAD_REACTORS
330
FF3
102
}
330
1A
100
AcDbEntity
  8
NOKITOI
  6
PHANTOM
 62
     8
 48
5.0
100
AcDbCircle
 10
701.8866351631466
 20
184.2908432275151
 30
0.0
 40
5.0
100
AcDbArc
 50
272.4394137226002
 51
357.2574457103034
  0
ARC
  5
FB7
102
{ACAD_REACTORS
330
FF3
102
}
330
1A
100
AcDbEntity
  8
NOKITOI
  6
PHANTOM
 62
     8
 48
5.0
100
AcDbCircle
 10
701.8866351631466
 20
184.2908432275151
 30
0.0
 40
3.7
100
AcDbArc
 50
272.4394137226002
 51
357.2574457103034
  0
ARC
  5
FB8
102
{ACAD_REACTORS
330
FF3
102
}
330
1A
100
AcDbEntity
  8
NOKITOI
  6
PHANTOM
 62
     8
 48
5.0
100
AcDbCircle
 10
659.5365102683465
 20
1178.389161766115
 30
0.0
 40
1000.0
100
AcDbArc
 50
267.2057870798998
 51
272.4394137226002
  0
ARC
  5
FB9
102
{ACAD_REACTORS
330
FF3
102
}
330
1A
100
AcDbEntity
  8
NOKITOI
  6
PHANTOM
 62
     8
 48
5.0
100
AcDbCircle
 10
659.5365102682467
 20
1178.389161766115
 30
0.0
 40
998.7
100
AcDbArc
 50
267.2027850585
 51
272.4394137226002
  0
LINE
  5
FBA
102
{ACAD_REACTORS
330
FF3
102
}
330
1A
100
AcDbEntity
  8
NOKITOI
  6
PHANTOM
 62
     8
 48
5.0
100
AcDbLine
 10
605.6980667316466
 20
196.302308524115
 30
0.0
 11
609.2324523469464
 21
182.1647660630151
 31
0.0
  0
ARC
  5
FBB
102
{ACAD_REACTORS
330
FF3
102
}
330
1A
100
AcDbEntity
  8
NOKITOI
  6
PHANTOM
 62
     8
 48
5.0
100
AcDbCircle
 10
610.8816945971466
 20
182.577076625615
 30
0.0
 40
1.7
100
AcDbArc
 50
194.0362434679
 51
267.2027850585
  0
ARC
  5
FBC
102
{ACAD_REACTORS
330
FF3
102
}
330
1A
100
AcDbEntity
  8
NOKITOI
  6
PHANTOM
 62
     8
 48
5.0
100
AcDbCircle
 10
610.9338703949465
 20
182.5745287157151
 30
0.0
 40
3.0
100
AcDbArc
 50
194.0362434679
 51
267.2057870798998
  0
LINE
  5
FBD
102
{ACAD_REACTORS
330
FF3
102
}
330
1A
100
AcDbEntity
  8
NOKITOI
  6
PHANTOM
 62
     8
 48
5.0
100
AcDbLine
 10
608.0234428945466
 20
181.8469218406151
 30
0.0
 11
604.8738805140465
 21
194.445171362315
 31
0.0
  0
ARC
  5
FBE
102
{ACAD_REACTORS
330
FF3
102
}
330
1A
100
AcDbEntity
  8
NOKITOI
  6
PHANTOM
 62
     8
 48
5.0
100
AcDbCircle
 10
595.5442127439464
 20
193.939776944615
 30
0.0
 40
0.5
100
AcDbArc
 50
206.8535797088013
 51
278.9726266149004
  0
LINE
  5
FBF
102
{ACAD_REACTORS
330
FF3
102
}
330
1A
100
AcDbEntity
  8
NOKITOI
  6
PHANTOM
 62
     8
 48
5.0
100
AcDbLine
 10
604.3108279772466
 20
194.817785032515
 30
0.0
 11
595.6221940306465
 21
193.445895462015
 31
0.0
  0
LINE
  5
FC0
102
{ACAD_REACTORS
330
FF3
102
}
330
1A
100
AcDbEntity
  8
NOKITOI
  6
PHANTOM
 62
     8
 48
5.0
100
AcDbLine
 10
596.1229029226465
 20
194.7904405542151
 30
0.0
 11
604.0204853514465
 21
196.037427253515
 31
0.0
  0
LINE
  5
FC1
102
{ACAD_REACTORS
330
FF3
102
}
330
1A
100
AcDbEntity
  8
NOKITOI
  6
PHANTOM
 62
     8
 48
5.0
100
AcDbLine
 10
596.7628828261466
 20
203.389162113915
 30
0.0
 11
605.6980667316466
 21
196.302308524115
 31
0.0
  0
LINE
  5
FC2
102
{ACAD_REACTORS
330
FF3
102
}
330
1A
100
AcDbEntity
  8
NOKITOI
  6
PHANTOM
 62
     8
 48
5.0
100
AcDbLine
 10
604.0204853514465
 20
196.037427253515
 30
0.0
 11
596.3273501076464
 21
202.139162113915
 31
0.0
  0
ARC
  5
FC3
102
{ACAD_REACTORS
330
FF3
102
}
330
1A
100
AcDbEntity
  8
NOKITOI
  6
PHANTOM
 62
     8
 48
5.0
100
AcDbCircle
 10
800.2958033660465
 20
297.6076897128151
 30
0.0
 40
228.6
100
AcDbArc
 50
204.6845833638955
 51
206.7288798444017
  0
LINE
  5
FC4
102
{ACAD_REACTORS
330
FF3
102
}
330
1A
100
AcDbEntity
  8
NOKITOI
  6
PHANTOM
 62
     8
 48
5.0
100
AcDbLine
 10
596.3273501076464
 20
202.139162113915
 30
0.0
 11
592.5851386468466
 21
202.139162113915
 31
0.0
  0
LINE
  5
FC5
102
{ACAD_REACTORS
330
FF3
102
}
330
1A
100
AcDbEntity
  8
NOKITOI
  6
PHANTOM
 62
     8
 48
5.0
100
AcDbLine
 10
592.0151536237465
 20
203.389162113915
 30
0.0
 11
596.7628828261466
 21
203.389162113915
 31
0.0
  0
ARC
  5
FC6
102
{ACAD_REACTORS
330
FF3
102
}
330
1A
100
AcDbEntity
  8
NOKITOI
  6
PHANTOM
 62
     8
 48
5.0
100
AcDbCircle
 10
604.3888092640465
 20
194.3239035498151
 30
0.0
 40
0.5
100
AcDbArc
 50
14.0362434680007
 51
98.97262661490049
  0
ARC
  5
FC7
102
{ACAD_REACTORS
330
FF3
102
}
330
1A
100
AcDbEntity
  8
NOKITOI
  6
PHANTOM
 62
     8
 48
5.0
100
AcDbCircle
 10
800.2958033660465
 20
297.6076897128151
 30
0.0
 40
230.0
100
AcDbArc
 50
184.0482867621975
 51
206.8535797088013
  0
ARC
  5
FC8
102
{ACAD_REACTORS
330
FF3
102
}
330
1A
100
AcDbEntity
  8
NOKITOI
  6
PHANTOM
 62
     8
 48
5.0
100
AcDbCircle
 10
800.2958033660465
 20
297.6076897128151
 30
0.0
 40
228.6
100
AcDbArc
 50
190.8722588022009
 51
204.3402516129935
  0
ARC
  5
FC9
102
{ACAD_REACTORS
330
FF3
102
}
330
1A
100
AcDbEntity
  8
NOKITOI
  6
PHANTOM
 62
     8
 48
5.0
100
AcDbCircle
 10
580.8766008965467
 20
272.509162113915
 30
0.0
 40
9.0
100
AcDbArc
 50
217.6723592546979
 51
270.0
  0
ARC
  5
FCA
102
{ACAD_REACTORS
330
FF3
102
}
330
1A
100
AcDbEntity
  8
NOKITOI
  6
PHANTOM
 62
     8
 48
5.0
100
AcDbCircle
 10
598.1693699968466
 20
221.329356043615
 30
0.0
 40
40.0
100
AcDbArc
 50
110.1459171419001
 51
124.0043462569013
  0
ARC
  5
FCB
102
{ACAD_REACTORS
330
FF3
102
}
330
1A
100
AcDbEntity
  8
NOKITOI
  6
PHANTOM
 62
     8
 48
5.0
100
AcDbCircle
 10
598.2597979782465
 20
221.362664565715
 30
0.0
 40
41.25
100
AcDbArc
 50
109.8166130064997
 51
123.4017199424998
  0
ARC
  5
FCC
102
{ACAD_REACTORS
330
FF3
102
}
330
1A
100
AcDbEntity
  8
NOKITOI
  6
PHANTOM
 62
     8
 48
5.0
100
AcDbCircle
 10
800.2958033660465
 20
297.6076897128151
 30
0.0
 40
228.6
100
AcDbArc
 50
187.6923095857035
 51
190.5380321243982
  0
ARC
  5
FCD
102
{ACAD_REACTORS
330
FF3
102
}
330
1A
100
AcDbEntity
  8
NOKITOI
  6
PHANTOM
 62
     8
 48
5.0
100
AcDbCircle
 10
583.5428828261465
 20
261.759162113915
 30
0.0
 40
1.75
100
AcDbArc
 50
294.7524724261011
 51
90.0
  0
ARC
  5
FCE
102
{ACAD_REACTORS
330
FF3
102
}
330
1A
100
AcDbEntity
  8
NOKITOI
  6
PHANTOM
 62
     8
 48
5.0
100
AcDbCircle
 10
583.5428828261465
 20
261.759162113915
 30
0.0
 40
3.0
100
AcDbArc
 50
286.4592496283009
 51
90.0
  0
LINE
  5
FCF
102
{ACAD_REACTORS
330
FF3
102
}
330
1A
100
AcDbEntity
  8
NOKITOI
  6
PHANTOM
 62
     8
 48
5.0
100
AcDbLine
 10
580.8766008965467
 20
263.509162113915
 30
0.0
 11
583.5428828261465
 21
263.509162113915
 31
0.0
  0
LINE
  5
FD0
102
{ACAD_REACTORS
330
FF3
102
}
330
1A
100
AcDbEntity
  8
NOKITOI
  6
PHANTOM
 62
     8
 48
5.0
100
AcDbLine
 10
580.8766008965467
 20
264.759162113915
 30
0.0
 11
583.5428828261465
 21
264.759162113915
 31
0.0
  0
LINE
  5
FD1
102
{ACAD_REACTORS
330
FF3
102
}
330
1A
100
AcDbEntity
  8
NOKITOI
  6
PHANTOM
 62
     8
 48
5.0
100
AcDbLine
 10
572.8858036187467
 20
287.8893477589151
 30
0.0
 11
572.0628828261465
 21
285.4891621139151
 31
0.0
  0
ARC
  5
FD2
102
{ACAD_REACTORS
330
FF3
102
}
330
1A
100
AcDbEntity
  8
NOKITOI
  6
PHANTOM
 62
     8
 48
5.0
100
AcDbCircle
 10
580.8766008965467
 20
272.509162113915
 30
0.0
 40
9.0
100
AcDbArc
 50
90.0
 51
155.3786098683062
  0
LINE
  5
FD3
102
{ACAD_REACTORS
330
FF3
102
}
330
1A
100
AcDbEntity
  8
NOKITOI
  6
PHANTOM
 62
     8
 48
5.0
100
AcDbLine
 10
572.0960941288465
 20
284.085385764515
 30
0.0
 11
582.3917206304465
 21
283.5348175023151
 31
0.0
  0
ARC
  5
FD4
102
{ACAD_REACTORS
330
FF3
102
}
330
1A
100
AcDbEntity
  8
NOKITOI
  6
PHANTOM
 62
     8
 48
5.0
100
AcDbCircle
 10
580.8766008965467
 20
272.509162113915
 30
0.0
 40
7.75
100
AcDbArc
 50
90.0
 51
270.0
  0
LINE
  5
FD5
102
{ACAD_REACTORS
330
FF3
102
}
330
1A
100
AcDbEntity
  8
NOKITOI
  6
PHANTOM
 62
     8
 48
5.0
100
AcDbLine
 10
572.0628828261465
 20
285.4891621139151
 30
0.0
 11
589.5439785624467
 21
284.5543441601151
 31
0.0
  0
ARC
  5
FD6
102
{ACAD_REACTORS
330
FF3
102
}
330
1A
100
AcDbEntity
  8
NOKITOI
  6
PHANTOM
 62
     8
 48
5.0
100
AcDbCircle
 10
800.2958033660465
 20
297.607689712915
 30
0.0
 40
228.6
100
AcDbArc
 50
183.3911788461973
 51
185.3586595373007
  0
ARC
  5
FD7
102
{ACAD_REACTORS
330
FF3
102
}
330
1A
100
AcDbEntity
  8
NOKITOI
  6
PHANTOM
 62
     8
 48
5.0
100
AcDbCircle
 10
587.8751110368466
 20
275.259162113915
 30
0.0
 40
0.5
100
AcDbArc
 50
270.0
 51
345.590274123602
  0
ARC
  5
FD8
102
{ACAD_REACTORS
330
FF3
102
}
330
1A
100
AcDbEntity
  8
NOKITOI
  6
PHANTOM
 62
     8
 48
5.0
100
AcDbCircle
 10
583.6767328221467
 20
275.259162113915
 30
0.0
 40
0.5
100
AcDbArc
 50
160.0168934780996
 51
270.0
  0
LINE
  5
FD9
102
{ACAD_REACTORS
330
FF3
102
}
330
1A
100
AcDbEntity
  8
NOKITOI
  6
PHANTOM
 62
     8
 48
5.0
100
AcDbLine
 10
587.8751110368466
 20
274.759162113915
 30
0.0
 11
583.6767328221467
 21
274.759162113915
 31
0.0
  0
LINE
  5
FDA
102
{ACAD_REACTORS
330
FF3
102
}
330
1A
100
AcDbEntity
  8
NOKITOI
  6
PHANTOM
 62
     8
 48
5.0
100
AcDbLine
 10
590.4210473092466
 20
283.1587382820151
 30
0.0
 11
588.3593815030467
 21
275.1347349643151
 31
0.0
  0
LINE
  5
FDB
102
{ACAD_REACTORS
330
FF3
102
}
330
1A
100
AcDbEntity
  8
NOKITOI
  6
PHANTOM
 62
     8
 48
5.0
100
AcDbLine
 10
583.6399371573466
 20
283.4680679555151
 30
0.0
 11
588.8750460480464
 21
283.1881156084151
 31
0.0
  0
LINE
  5
FDC
102
{ACAD_REACTORS
330
FF3
102
}
330
1A
100
AcDbEntity
  8
NOKITOI
  6
PHANTOM
 62
     8
 48
5.0
100
AcDbLine
 10
584.7475078160466
 20
276.009162113915
 30
0.0
 11
585.6497180371466
 21
278.4902402219151
 31
0.0
  0
LINE
  5
FDD
102
{ACAD_REACTORS
330
FF3
102
}
330
1A
100
AcDbEntity
  8
NOKITOI
  6
PHANTOM
 62
     8
 48
5.0
100
AcDbLine
 10
587.0305050680465
 20
276.009162113915
 30
0.0
 11
584.7475078160466
 21
276.009162113915
 31
0.0
  0
LINE
  5
FDE
102
{ACAD_REACTORS
330
FF3
102
}
330
1A
100
AcDbEntity
  8
NOKITOI
  6
PHANTOM
 62
     8
 48
5.0
100
AcDbLine
 10
582.3917206304465
 20
283.5348175023151
 30
0.0
 11
582.2833968129466
 21
281.509162113915
 31
0.0
  0
LINE
  5
FDF
102
{ACAD_REACTORS
330
FF3
102
}
330
1A
100
AcDbEntity
  8
NOKITOI
  6
PHANTOM
 62
     8
 48
5.0
100
AcDbLine
 10
583.5351828343466
 20
281.509162113915
 30
0.0
 11
583.6399371573466
 21
283.4680679555151
 31
0.0
  0
LINE
  5
FE0
102
{ACAD_REACTORS
330
FF3
102
}
330
1A
100
AcDbEntity
  8
NOKITOI
  6
PHANTOM
 62
     8
 48
5.0
100
AcDbLine
 10
583.5351828343466
 20
280.259162113915
 30
0.0
 11
580.8766008965467
 21
280.259162113915
 31
0.0
  0
LINE
  5
FE1
102
{ACAD_REACTORS
330
FF3
102
}
330
1A
100
AcDbEntity
  8
NOKITOI
  6
PHANTOM
 62
     8
 48
5.0
100
AcDbLine
 10
582.2833968129466
 20
281.509162113915
 30
0.0
 11
580.8766008965467
 21
281.509162113915
 31
0.0
  0
ARC
  5
FE2
102
{ACAD_REACTORS
330
FF3
102
}
330
1A
100
AcDbEntity
  8
NOKITOI
  6
PHANTOM
 62
     8
 48
5.0
100
AcDbCircle
 10
583.5351828343466
 20
279.259162113915
 30
0.0
 40
1.0
100
AcDbArc
 50
340.0168934780996
 51
90.0
  0
ARC
  5
FE3
102
{ACAD_REACTORS
330
FF3
102
}
330
1A
100
AcDbEntity
  8
NOKITOI
  6
PHANTOM
 62
     8
 48
5.0
100
AcDbCircle
 10
583.5351828343466
 20
279.259162113915
 30
0.0
 40
2.299999999999999
100
AcDbArc
 50
340.0168934780996
 51
90.0
  0
LINE
  5
FE4
102
{ACAD_REACTORS
330
FF3
102
}
330
1A
100
AcDbEntity
  8
NOKITOI
  6
PHANTOM
 62
     8
 48
5.0
100
AcDbLine
 10
583.2068361103465
 20
275.4300336454151
 30
0.0
 11
584.4749762577467
 21
278.917419050815
 31
0.0
  0
ARC
  5
FE5
102
{ACAD_REACTORS
330
FF3
102
}
330
1A
100
AcDbEntity
  8
NOKITOI
  6
PHANTOM
 62
     8
 48
5.0
100
AcDbCircle
 10
589.4905789249464
 20
283.5557709386151
 30
0.0
 40
1.0
100
AcDbArc
 50
345.590274123602
 51
86.93897020059983
  0
LINE
  5
FE6
102
{ACAD_REACTORS
330
FF3
102
}
330
1A
100
AcDbEntity
  8
NOKITOI
  6
PHANTOM
 62
     8
 48
5.0
100
AcDbLine
 10
565.0552559050465
 20
285.2426218252151
 30
0.0
 11
572.2052037246466
 21
288.506362712315
 31
0.0
  0
LINE
  5
FE7
102
{ACAD_REACTORS
330
FF3
102
}
330
1A
100
AcDbEntity
  8
NOKITOI
  6
PHANTOM
 62
     8
 48
5.0
100
AcDbLine
 10
570.6109748692465
 20
285.5710972394151
 30
0.0
 11
570.8827367211465
 21
286.3637359741151
 31
0.0
  0
ARC
  5
FE8
102
{ACAD_REACTORS
330
FF3
102
}
330
1A
100
AcDbEntity
  8
NOKITOI
  6
PHANTOM
 62
     8
 48
5.0
100
AcDbCircle
 10
800.2958033660465
 20
297.6076897128151
 30
0.0
 40
230.0
100
AcDbArc
 50
182.9998310042966
 51
183.7309486312998
  0
LINE
  5
FE9
102
{ACAD_REACTORS
330
FF3
102
}
330
1A
100
AcDbEntity
  8
NOKITOI
  6
PHANTOM
 62
     8
 48
5.0
100
AcDbLine
 10
570.7832618673465
 20
282.6412841722151
 30
0.0
 11
566.1628828261466
 21
281.403257339415
 31
0.0
  0
LINE
  5
FEA
102
{ACAD_REACTORS
330
FF3
102
}
330
1A
100
AcDbEntity
  8
NOKITOI
  6
PHANTOM
 62
     8
 48
5.0
100
AcDbLine
 10
570.8827367211465
 20
286.3637359741151
 30
0.0
 11
566.1628828261466
 21
284.2092614903151
 31
0.0
  0
ARC
  5
FEB
102
{ACAD_REACTORS
330
FF3
102
}
330
1A
100
AcDbEntity
  8
NOKITOI
  6
PHANTOM
 62
     8
 48
5.0
100
AcDbCircle
 10
572.4128306458465
 20
288.0515099211151
 30
0.0
 40
0.5
100
AcDbArc
 50
341.0753555840005
 51
114.5353031556997
  0
ARC
  5
FEC
102
{ACAD_REACTORS
330
FF3
102
}
330
1A
100
AcDbEntity
  8
NOKITOI
  6
PHANTOM
 62
     8
 48
5.0
100
AcDbCircle
 10
565.2628828261465
 20
284.7877690340151
 30
0.0
 40
0.5
100
AcDbArc
 50
114.5353031558007
 51
180.0
  0
LINE
  5
FED
102
{ACAD_REACTORS
330
FF3
102
}
330
1A
100
AcDbEntity
  8
NOKITOI
  6
PHANTOM
 62
     8
 48
5.0
100
AcDbLine
 10
566.1628828261466
 20
284.2092614903151
 30
0.0
 11
566.1628828261466
 21
281.403257339415
 31
0.0
  0
ARC
  5
FEE
102
{ACAD_REACTORS
330
FF3
102
}
330
1A
100
AcDbEntity
  8
NOKITOI
  6
PHANTOM
 62
     8
 48
5.0
100
AcDbCircle
 10
565.4628828261466
 20
277.8091621139151
 30
0.0
 40
0.7
100
AcDbArc
 50
270.0
 51
0.0
  0
ARC
  5
FEF
102
{ACAD_REACTORS
330
FF3
102
}
330
1A
100
AcDbEntity
  8
NOKITOI
  6
PHANTOM
 62
     8
 48
5.0
100
AcDbCircle
 10
565.4628828261466
 20
277.8091621139151
 30
0.0
 40
0.7
100
AcDbArc
 50
180.0
 51
270.0
  0
LINE
  5
FF0
102
{ACAD_REACTORS
330
FF3
102
}
330
1A
100
AcDbEntity
  8
NOKITOI
  6
PHANTOM
 62
     8
 48
5.0
100
AcDbLine
 10
564.7628828261465
 20
277.8091621139151
 30
0.0
 11
564.7628828261465
 21
284.7877690340151
 31
0.0
  0
LINE
  5
FF1
102
{ACAD_REACTORS
330
FF3
102
}
330
1A
100
AcDbEntity
  8
NOKITOI
  6
PHANTOM
 62
     8
 48
5.0
100
AcDbLine
 10
566.1628828261466
 20
280.109162113915
 30
0.0
 11
566.1628828261466
 21
277.8091621139151
 31
0.0
  0
LINE
  5
FF2
102
{ACAD_REACTORS
330
FF3
102
}
330
1A
100
AcDbEntity
  8
NOKITOI
  6
PHANTOM
 62
     8
 48
5.0
100
AcDbLine
 10
570.8696745644465
 20
281.3703431591151
 30
0.0
 11
566.1628828261466
 21
280.109162113915
 31
0.0
  0
LWPOLYLINE
  5
128B
330
1A
100
AcDbEntity
  8
ZUWAKU
100
AcDbPolyline
 90
        4
 70
     1
 43
0.0
 10
0.7999993174819338
 20
550.8000004216105
 10
0.7999993174819338
 20
0.800000421610548
 10
796.7999993174819
 20
0.800000421610548
 10
796.7999993174819
 20
550.8000004216105
  0
LWPOLYLINE
  5
128C
330
1A
100
AcDbEntity
  8
ZUWAKU
100
AcDbPolyline
 90
        4
 70
     1
 43
0.0
 10
0.3999993174819565
 20
551.2000004216105
 10
0.3999993174819565
 20
0.4000004216105708
 10
797.1999993174819
 20
0.4000004216105478
 10
797.1999993174819
 20
551.2000004216105
  0
LWPOLYLINE
  5
128D
330
1A
100
AcDbEntity
  8
ZUWAKU
100
AcDbPolyline
 90
        4
 70
     1
 43
0.0
 10
-0.0000006825180208
 20
551.6000004216104
 10
-0.0000006825180208
 20
0.0000004216104799
 10
797.5999993174821
 20
0.0000004216105474
 10
797.5999993174821
 20
551.6000004216106
  0
LWPOLYLINE
  5
128E
330
1A
100
AcDbEntity
  8
ZUWAKU
100
AcDbPolyline
 90
        4
 70
     1
 43
0.0
 10
0.5999993174818883
 20
551.0000004216106
 10
0.5999993174818883
 20
0.6000004216105026
 10
796.9999993174821
 20
0.6000004216105488
 10
796.999999317482
 20
551.0000004216106
  0
LWPOLYLINE
  5
128F
330
1A
100
AcDbEntity
  8
ZUWAKU
100
AcDbPolyline
 90
        4
 70
     1
 43
0.0
 10
0.199999317481911
 20
551.4000004216105
 10
0.199999317481911
 20
0.2000004216105253
 10
797.3999993174818
 20
0.2000004216105484
 10
797.399999317482
 20
551.4000004216105
  0
LINE
  5
1290
330
1A
100
AcDbEntity
  8
ZUWAKU
100
AcDbLine
 10
-0.0000006825180208
 20
30.00000042161047
 30
0.0
 11
797.3999993174818
 21
30.00000042161047
 31
0.0
  0
LINE
  5
1291
330
1A
100
AcDbEntity
  8
ZUWAKU
100
AcDbLine
 10
-0.0000006825180208
 20
30.20000042161048
 30
0.0
 11
797.3999993174818
 21
30.20000042161048
 31
0.0
  0
LINE
  5
1292
330
1A
100
AcDbEntity
  8
ZUWAKU
100
AcDbLine
 10
-0.0000006825180208
 20
30.40000042161048
 30
0.0
 11
797.3999993174818
 21
30.40000042161048
 31
0.0
  0
LINE
  5
1293
330
1A
100
AcDbEntity
  8
ZUWAKU
100
AcDbLine
 10
-0.0000006825180208
 20
30.60000042161048
 30
0.0
 11
797.3999993174818
 21
30.60000042161048
 31
0.0
  0
LINE
  5
1294
330
1A
100
AcDbEntity
  8
ZUWAKU
100
AcDbLine
 10
-0.0000006825180208
 20
30.80000042161049
 30
0.0
 11
797.3999993174818
 21
30.80000042161049
 31
0.0
  0
LINE
  5
1295
330
1A
100
AcDbEntity
  8
ZUWAKU
100
AcDbLine
 10
208.6466006075499
 20
15.40000042161051
 30
0.0
 11
447.4243632884734
 21
15.40000042161051
 31
0.0
  0
LINE
  5
1296
330
1A
100
AcDbEntity
  8
ZUWAKU
100
AcDbLine
 10
208.6466006075499
 20
15.60000042161051
 30
0.0
 11
447.4243632884734
 21
15.60000042161052
 31
0.0
  0
LINE
  5
1297
330
1A
100
AcDbEntity
  8
ZUWAKU
100
AcDbLine
 10
208.6466006075499
 20
15.20000042161052
 30
0.0
 11
447.4243632884734
 21
15.20000042161051
 31
0.0
  0
TEXT
  5
1298
330
1A
100
AcDbEntity
  8
MOJI
100
AcDbText
 10
92.95778890565111
 20
12.74117855188524
 30
0.0
 40
6.0
  1
アートフェイスＨ１２０
 41
0.9
  7
ｽﾀｲﾙ1
100
AcDbText
  0
CIRCLE
  5
1299
330
1A
100
AcDbEntity
  8
ZUWAKU
100
AcDbCircle
 10
25.99221147226308
 20
15.20000042161048
 30
0.0
 40
1.75
  0
LINE
  5
129A
330
1A
100
AcDbEntity
  8
ZUWAKU
100
AcDbLine
 10
26.86721147226307
 20
7.150000421610485
 30
0.0
 11
24.94221147226312
 21
7.150000421610485
 31
0.0
  0
LINE
  5
129B
330
1A
100
AcDbEntity
  8
ZUWAKU
100
AcDbLine
 10
24.94221147226312
 20
9.950000421610482
 30
0.0
 11
26.86721147226307
 21
9.950000421610482
 31
0.0
  0
LINE
  5
129C
330
1A
100
AcDbEntity
  8
ZUWAKU
100
AcDbLine
 10
26.86721147226307
 20
20.45000042161048
 30
0.0
 11
24.94221147226312
 21
20.45000042161048
 31
0.0
  0
LINE
  5
129D
330
1A
100
AcDbEntity
  8
ZUWAKU
100
AcDbLine
 10
24.94221147226312
 20
23.25000042161044
 30
0.0
 11
26.86721147226307
 21
23.25000042161048
 31
0.0
  0
HATCH
  5
129E
330
1A
100
AcDbEntity
  8
ZUWAKU
100
AcDbHatch
 10
0.0
 20
0.0
 30
0.0
210
0.0
220
0.0
230
1.0
  2
ANSI37
 70
     0
 71
     0
 91
        8
 92
        7
 72
     1
 73
     1
 93
       24
 10
14.50226197860183
 20
17.64484890259406
 42
-0.1989123673796348
 10
14.0922114722631
 20
18.63479839625511
 42
0.0
 10
14.0922114722631
 20
19.92500042161049
 42
-0.4142135623730912
 10
14.61721147226308
 20
20.45000042161048
 42
0.0
 10
17.59221147226298
 20
20.45000042161048
 42
0.4142135623731546
 10
18.11721147226307
 20
20.97500042161047
 42
0.0
 10
18.11721147226307
 20
22.72500042161048
 42
0.4142135623731586
 10
17.59221147226298
 20
23.25000042161048
 42
0.0
 10
14.0922114722631
 20
23.25000042161048
 42
0.4142135623730928
 10
11.29221147226314
 20
20.45000042161051
 42
0.0
 10
11.29221147226314
 20
18.63479839625524
 42
0.1989123673796619
 10
12.52236299127957
 20
15.66494991527163
 42
0.0
 10
15.43216096592425
 20
12.75515194062697
 42
-0.1989123673796613
 10
15.8422114722631
 20
11.76520244696579
 42
0.0
 10
15.8422114722631
 20
10.47500042161047
 42
-0.4142135623730911
 10
15.31721147226312
 20
9.950000421610482
 42
0.0
 10
12.34221147226321
 20
9.950000421610482
 42
0.4142135623731526
 10
11.81721147226312
 20
9.425000421610494
 42
0.0
 10
11.81721147226312
 20
7.675000421610473
 42
0.4142135623731526
 10
12.34221147226321
 20
7.150000421610485
 42
0.0
 10
15.8422114722631
 20
7.150000421610485
 42
0.4142135623731044
 10
18.64221147226317
 20
9.950000421610461
 42
0.0
 10
18.64221147226317
 20
11.76520244696573
 42
0.1989123673796604
 10
17.41205995324662
 20
14.73505092794927
 42
0.0
 97
        0
 92
        7
 72
     1
 73
     1
 93
       16
 10
23.54221147226315
 20
19.05000042161049
 42
-0.4142135623730935
 10
24.94221147226312
 20
20.45000042161048
 42
0.0
 10
26.86721147226307
 20
20.45000042161048
 42
0.4142135623731546
 10
27.39221147226317
 20
20.97500042161047
 42
0.0
 10
27.39221147226317
 20
22.72500042161048
 42
0.4142135623730951
 10
26.86721147226319
 20
23.25000042161048
 42
0.0
 10
24.94221147226301
 20
23.25000042161044
 42
0.4142135623730892
 10
20.74221147226308
 20
19.05000042161042
 42
0.0
 10
20.74221147226308
 20
11.35000042161051
 42
0.4142135623730969
 10
24.94221147226312
 20
7.150000421610485
 42
0.0
 10
26.86721147226307
 20
7.150000421610485
 42
0.4142135623731526
 10
27.39221147226317
 20
7.675000421610473
 42
0.0
 10
27.39221147226317
 20
9.425000421610494
 42
0.4142135623730891
 10
26.86721147226319
 20
9.950000421610482
 42
0.0
 10
24.94221147226312
 20
9.950000421610482
 42
-0.4142135623730928
 10
23.54221147226315
 20
11.35000042161047
 42
0.0
 97
        0
 92
        7
 72
     1
 73
     1
 93
        2
 10
24.24221147226308
 20
15.20000042161048
 42
1.0
 10
27.74221147226308
 20
15.20000042161048
 42
1.0
 97
        0
 92
        7
 72
     1
 73
     1
 93
       26
 10
37.31485795444109
 20
19.20504761517391
 42
0.0
 10
38.37649758757891
 20
22.5669064534435
 42
0.5069206636600134
 10
37.87586668838355
 20
23.25000042161048
 42
0.0
 10
36.17697730877432
 20
23.25000042161048
 42
0.3272098845218764
 10
35.67634640957896
 20
22.88309438977745
 42
0.0
 10
33.80807653494719
 20
16.96690645344356
 42
-0.3272098845219541
 10
33.30744563575172
 20
16.60000042161048
 42
0.0
 10
33.16721147226326
 20
16.60000042161048
 42
-0.4142135623731526
 10
32.64221147226317
 20
17.12500042161047
 42
0.0
 10
32.64221147226317
 20
22.72500042161048
 42
0.4142135623730951
 10
32.11721147226319
 20
23.25000042161048
 42
0.0
 10
30.36721147226308
 20
23.25000042161048
 42
0.4142135623730871
 10
29.8422114722631
 20
22.7250004216105
 42
0.0
 10
29.8422114722631
 20
7.675000421610473
 42
0.4142135623730891
 10
30.36721147226308
 20
7.150000421610485
 42
0.0
 10
32.11721147226308
 20
7.150000421610485
 42
0.4142135623731526
 10
32.64221147226317
 20
7.675000421610473
 42
0.0
 10
32.64221147226317
 20
13.27500042161049
 42
-0.4142135623731526
 10
33.16721147226326
 20
13.80000042161048
 42
0.0
 10
33.30744563575183
 20
13.80000042161048
 42
-0.3272098845218915
 10
33.80807653494719
 20
13.4330943897774
 42
0.0
 10
35.67634640957896
 20
7.516906453443557
 42
0.3272098845218902
 10
36.17697730877432
 20
7.150000421610485
 42
0.0
 10
37.87586668838355
 20
7.150000421610485
 42
0.5069206636600335
 10
38.37649758757891
 20
7.833094389777492
 42
0.0
 10
36.05010620910525
 20
15.20000042161062
 42
0.0
 97
        0
 92
        7
 72
     1
 73
     1
 93
        8
 10
43.49221147226308
 20
22.72500042161049
 42
0.4142135623731546
 10
42.96721147226299
 20
23.25000042161048
 42
0.0
 10
41.21721147226321
 20
23.25000042161048
 42
0.4142135623731507
 10
40.69221147226312
 20
22.7250004216105
 42
0.0
 10
40.69221147226312
 20
7.675000421610473
 42
0.4142135623731526
 10
41.21721147226321
 20
7.150000421610485
 42
0.0
 10
42.96721147226299
 20
7.150000421610485
 42
0.4142135623731526
 10
43.49221147226308
 20
7.675000421610473
 42
0.0
 97
        0
 92
        7
 72
     1
 73
     1
 93
       24
 10
48.39221147226317
 20
19.92500042161049
 42
-0.4142135623731546
 10
48.91721147226326
 20
20.45000042161048
 42
0.0
 10
51.89221147226317
 20
20.45000042161048
 42
0.4142135623730911
 10
52.41721147226314
 20
20.97500042161047
 42
0.0
 10
52.41721147226314
 20
22.72500042161048
 42
0.4142135623730952
 10
51.89221147226317
 20
23.25000042161048
 42
0.0
 10
48.39221147226317
 20
23.25000042161048
 42
0.4142135623731048
 10
45.5922114722631
 20
20.45000042161051
 42
0.0
 10
45.5922114722631
 20
18.63479839625524
 42
0.1989123673796613
 10
46.82236299127964
 20
15.66494991527169
 42
0.0
 10
49.73216096592432
 20
12.75515194062702
 42
-0.1989123673796402
 10
50.14221147226317
 20
11.76520244696595
 42
0.0
 10
50.14221147226317
 20
10.47500042161047
 42
-0.4142135623730911
 10
49.61721147226319
 20
9.950000421610482
 42
0.0
 10
46.64221147226316
 20
9.950000421610482
 42
0.4142135623731526
 10
46.11721147226307
 20
9.425000421610494
 42
0.0
 10
46.11721147226307
 20
7.675000421610473
 42
0.4142135623730891
 10
46.64221147226306
 20
7.150000421610485
 42
0.0
 10
50.14221147226317
 20
7.150000421610485
 42
0.4142135623730925
 10
52.94221147226313
 20
9.950000421610461
 42
0.0
 10
52.94221147226313
 20
11.76520244696573
 42
0.1989123673796675
 10
51.71205995324658
 20
14.73505092794938
 42
0.0
 10
48.80226197860202
 20
17.6448489025939
 42
-0.1989123673796652
 10
48.39221147226317
 20
18.63479839625507
 42
0.0
 97
        0
 92
        7
 72
     1
 73
     1
 93
       16
 10
57.8422114722631
 20
22.72500042161047
 42
0.414213562373103
 10
57.31721147226313
 20
23.25000042161048
 42
0.0
 10
55.56721147226312
 20
23.25000042161048
 42
0.4142135623730871
 10
55.04221147226314
 20
22.7250004216105
 42
0.0
 10
55.04221147226314
 20
9.950000421610461
 42
0.4142135623730926
 10
57.8422114722631
 20
7.150000421610485
 42
0.0
 10
61.3422114722631
 20
7.150000421610485
 42
0.4142135623731044
 10
64.14221147226317
 20
9.950000421610461
 42
0.0
 10
64.14221147226317
 20
22.72500042161048
 42
0.4142135623730951
 10
63.61721147226319
 20
23.25000042161048
 42
0.0
 10
61.86721147226307
 20
23.25000042161048
 42
0.4142135623730871
 10
61.3422114722631
 20
22.7250004216105
 42
0.0
 10
61.3422114722631
 20
11.00000042161045
 42
-0.414213562373088
 10
60.29221147226315
 20
9.950000421610482
 42
0.0
 10
58.89221147226317
 20
9.950000421610482
 42
-0.4142135623731197
 10
57.8422114722631
 20
11.00000042161045
 42
0.0
 97
        0
 92
        7
 72
     1
 73
     1
 93
        8
 10
69.04221147226315
 20
22.7250004216105
 42
0.4142135623730871
 10
68.51721147226317
 20
23.25000042161048
 42
0.0
 10
66.76721147226317
 20
23.25000042161048
 42
0.4142135623731507
 10
66.24221147226307
 20
22.7250004216105
 42
0.0
 10
66.24221147226307
 20
7.675000421610473
 42
0.4142135623730891
 10
66.76721147226306
 20
7.150000421610485
 42
0.0
 10
68.51721147226317
 20
7.150000421610485
 42
0.4142135623730891
 10
69.04221147226315
 20
7.675000421610473
 42
0.0
 97
        0
 75
     0
 76
     1
 52
0.0
 41
0.2
 77
     0
 78
     2
 53
45.0
 43
-900.9423050171969
 44
-13.19999957838945
 45
-0.4490128060534576
 46
0.4490128060534577
 79
     0
 53
135.0
 43
-900.9423050171969
 44
-13.19999957838945
 45
-0.4490128060534577
 46
-0.4490128060534576
 79
     0
 47
0.057451373970553
 98
        8
 10
16.07985428050528
 20
15.16717406749603
 10
22.40451432392114
 20
18.84406260406149
 10
25.16436720314163
 20
15.51188206768119
 10
30.91405929911911
 20
16.20129806805198
 10
41.83847133643872
 20
16.66091033559359
 10
46.89820021261152
 20
19.41857673801769
 10
56.55768528988232
 20
18.72915833670549
 10
67.82707893710472
 20
19.18877060424711
  0
ARC
  5
129F
330
1A
100
AcDbEntity
  8
ZUWAKU
100
AcDbCircle
 10
15.49221147226307
 20
18.63479839625518
 30
0.0
 40
4.199999999999999
100
AcDbArc
 50
180.0
 51
225.0
  0
LINE
  5
12A0
330
1A
100
AcDbEntity
  8
ZUWAKU
100
AcDbLine
 10
20.74221147226308
 20
11.35000042161048
 30
0.0
 11
20.74221147226308
 21
19.05000042161044
 31
0.0
  0
LINE
  5
12A1
330
1A
100
AcDbEntity
  8
ZUWAKU
100
AcDbLine
 10
23.54221147226315
 20
19.05000042161048
 30
0.0
 11
23.54221147226315
 21
11.35000042161048
 31
0.0
  0
ARC
  5
12A2
330
1A
100
AcDbEntity
  8
ZUWAKU
100
AcDbCircle
 10
15.49221147226307
 20
18.63479839625518
 30
0.0
 40
1.399999999999999
100
AcDbArc
 50
180.0000000000016
 51
224.9999999999988
  0
ARC
  5
12A3
330
1A
100
AcDbEntity
  8
ZUWAKU
100
AcDbCircle
 10
24.94221147226312
 20
11.35000042161048
 30
0.0
 40
4.199999999999999
100
AcDbArc
 50
180.0
 51
270.0
  0
ARC
  5
12A4
330
1A
100
AcDbEntity
  8
ZUWAKU
100
AcDbCircle
 10
15.8422114722631
 20
9.950000421610482
 30
0.0
 40
2.799999999999999
100
AcDbArc
 50
270.0
 51
0.0
  0
ARC
  5
12A5
330
1A
100
AcDbEntity
  8
ZUWAKU
100
AcDbCircle
 10
14.44221147226312
 20
11.76520244696578
 30
0.0
 40
4.199999999999999
100
AcDbArc
 50
0.0
 51
45.0
  0
LINE
  5
12A6
330
1A
100
AcDbEntity
  8
ZUWAKU
100
AcDbLine
 10
12.52236299127957
 20
15.66494991527166
 30
0.0
 11
15.43216096592425
 21
12.755151940627
 31
0.0
  0
LINE
  5
12A7
330
1A
100
AcDbEntity
  8
ZUWAKU
100
AcDbLine
 10
12.3422114722631
 20
9.950000421610482
 30
0.0
 11
15.31721147226312
 21
9.950000421610482
 31
0.0
  0
LINE
  5
12A8
330
1A
100
AcDbEntity
  8
ZUWAKU
100
AcDbLine
 10
12.3422114722631
 20
7.150000421610485
 30
0.0
 11
15.8422114722631
 21
7.150000421610485
 31
0.0
  0
ARC
  5
12A9
330
1A
100
AcDbEntity
  8
ZUWAKU
100
AcDbCircle
 10
12.3422114722631
 20
9.425000421610484
 30
0.0
 40
0.525
100
AcDbArc
 50
90.0
 51
180.0
  0
ARC
  5
12AA
330
1A
100
AcDbEntity
  8
ZUWAKU
100
AcDbCircle
 10
12.3422114722631
 20
7.675000421610484
 30
0.0
 40
0.525
100
AcDbArc
 50
180.0
 51
270.0
  0
LINE
  5
12AB
330
1A
100
AcDbEntity
  8
ZUWAKU
100
AcDbLine
 10
11.81721147226312
 20
7.675000421610484
 30
0.0
 11
11.81721147226312
 21
9.425000421610484
 31
0.0
  0
ARC
  5
12AC
330
1A
100
AcDbEntity
  8
ZUWAKU
100
AcDbCircle
 10
14.44221147226312
 20
11.76520244696583
 30
0.0
 40
1.399999999999999
100
AcDbArc
 50
0.0
 51
45.0
  0
ARC
  5
12AD
330
1A
100
AcDbEntity
  8
ZUWAKU
100
AcDbCircle
 10
15.31721147226312
 20
10.47500042161048
 30
0.0
 40
0.525
100
AcDbArc
 50
270.0
 51
0.0
  0
LINE
  5
12AE
330
1A
100
AcDbEntity
  8
ZUWAKU
100
AcDbLine
 10
15.8422114722631
 20
10.47500042161048
 30
0.0
 11
15.8422114722631
 21
11.76520244696583
 31
0.0
  0
LINE
  5
12AF
330
1A
100
AcDbEntity
  8
ZUWAKU
100
AcDbLine
 10
17.41205995324662
 20
14.73505092794931
 30
0.0
 11
14.50226197860195
 21
17.64484890259398
 31
0.0
  0
ARC
  5
12B0
330
1A
100
AcDbEntity
  8
ZUWAKU
100
AcDbCircle
 10
24.94221147226312
 20
11.35000042161048
 30
0.0
 40
1.399999999999999
100
AcDbArc
 50
180.0
 51
270.0
  0
LINE
  5
12B1
330
1A
100
AcDbEntity
  8
ZUWAKU
100
AcDbLine
 10
18.64221147226317
 20
9.950000421610482
 30
0.0
 11
18.64221147226317
 21
11.76520244696583
 31
0.0
  0
ARC
  5
12B2
330
1A
100
AcDbEntity
  8
ZUWAKU
100
AcDbCircle
 10
17.5922114722631
 20
20.97500042161048
 30
0.0
 40
0.525
100
AcDbArc
 50
270.0
 51
0.0
  0
ARC
  5
12B3
330
1A
100
AcDbEntity
  8
ZUWAKU
100
AcDbCircle
 10
17.5922114722631
 20
22.72500042161048
 30
0.0
 40
0.525
100
AcDbArc
 50
0.0
 51
90.0
  0
ARC
  5
12B4
330
1A
100
AcDbEntity
  8
ZUWAKU
100
AcDbCircle
 10
14.0922114722631
 20
20.45000042161048
 30
0.0
 40
2.799999999999999
100
AcDbArc
 50
90.0
 51
180.0
  0
LINE
  5
12B5
330
1A
100
AcDbEntity
  8
ZUWAKU
100
AcDbLine
 10
11.29221147226314
 20
20.45000042161048
 30
0.0
 11
11.29221147226314
 21
18.63479839625514
 31
0.0
  0
LINE
  5
12B6
330
1A
100
AcDbEntity
  8
ZUWAKU
100
AcDbLine
 10
17.5922114722631
 20
20.45000042161048
 30
0.0
 11
14.61721147226308
 21
20.45000042161048
 31
0.0
  0
LINE
  5
12B7
330
1A
100
AcDbEntity
  8
ZUWAKU
100
AcDbLine
 10
14.0922114722631
 20
19.92500042161048
 30
0.0
 11
14.0922114722631
 21
18.63479839625514
 31
0.0
  0
ARC
  5
12B8
330
1A
100
AcDbEntity
  8
ZUWAKU
100
AcDbCircle
 10
14.61721147226308
 20
19.92500042161048
 30
0.0
 40
0.525
100
AcDbArc
 50
90.0
 51
180.0
  0
LINE
  5
12B9
330
1A
100
AcDbEntity
  8
ZUWAKU
100
AcDbLine
 10
14.0922114722631
 20
23.25000042161048
 30
0.0
 11
17.5922114722631
 21
23.25000042161048
 31
0.0
  0
ARC
  5
12BA
330
1A
100
AcDbEntity
  8
ZUWAKU
100
AcDbCircle
 10
24.94221147226312
 20
19.05000042161044
 30
0.0
 40
4.199999999999999
100
AcDbArc
 50
90.0
 51
180.0
  0
ARC
  5
12BB
330
1A
100
AcDbEntity
  8
ZUWAKU
100
AcDbCircle
 10
24.94221147226312
 20
19.05000042161048
 30
0.0
 40
1.399999999999999
100
AcDbArc
 50
90.0
 51
180.0
  0
LINE
  5
12BC
330
1A
100
AcDbEntity
  8
ZUWAKU
100
AcDbLine
 10
18.11721147226307
 20
22.72500042161048
 30
0.0
 11
18.11721147226307
 21
20.97500042161048
 31
0.0
  0
LINE
  5
12BD
330
1A
100
AcDbEntity
  8
ZUWAKU
100
AcDbLine
 10
35.67634640957896
 20
22.88309438977745
 30
0.0
 11
33.80807653494719
 21
16.96690645344351
 31
0.0
  0
LINE
  5
12BE
330
1A
100
AcDbEntity
  8
ZUWAKU
100
AcDbLine
 10
29.8422114722631
 20
22.72500042161048
 30
0.0
 11
29.8422114722631
 21
7.675000421610484
 31
0.0
  0
LINE
  5
12BF
330
1A
100
AcDbEntity
  8
ZUWAKU
100
AcDbLine
 10
32.64221147226317
 20
17.12500042161048
 30
0.0
 11
32.64221147226317
 21
22.72500042161048
 31
0.0
  0
LINE
  5
12C0
330
1A
100
AcDbEntity
  8
ZUWAKU
100
AcDbLine
 10
57.8422114722631
 20
11.00000042161048
 30
0.0
 11
57.8422114722631
 21
22.72500042161048
 31
0.0
  0
LINE
  5
12C1
330
1A
100
AcDbEntity
  8
ZUWAKU
100
AcDbLine
 10
55.04221147226314
 20
22.72500042161048
 30
0.0
 11
55.04221147226314
 21
9.950000421610482
 31
0.0
  0
LINE
  5
12C2
330
1A
100
AcDbEntity
  8
ZUWAKU
100
AcDbLine
 10
43.49221147226308
 20
7.675000421610484
 30
0.0
 11
43.49221147226308
 21
22.72500042161048
 31
0.0
  0
LINE
  5
12C3
330
1A
100
AcDbEntity
  8
ZUWAKU
100
AcDbLine
 10
40.69221147226312
 20
22.72500042161048
 30
0.0
 11
40.69221147226312
 21
7.675000421610484
 31
0.0
  0
LINE
  5
12C4
330
1A
100
AcDbEntity
  8
ZUWAKU
100
AcDbLine
 10
37.31485795444109
 20
19.20504761517391
 30
0.0
 11
36.05010620910525
 21
15.2000004216105
 31
0.0
  0
ARC
  5
12C5
330
1A
100
AcDbEntity
  8
ZUWAKU
100
AcDbCircle
 10
49.79221147226315
 20
18.63479839625518
 30
0.0
 40
4.199999999999999
100
AcDbArc
 50
180.0
 51
225.0
  0
ARC
  5
12C6
330
1A
100
AcDbEntity
  8
ZUWAKU
100
AcDbCircle
 10
49.79221147226315
 20
18.63479839625518
 30
0.0
 40
1.399999999999999
100
AcDbArc
 50
180.0000000000016
 51
224.9999999999988
  0
LINE
  5
12C7
330
1A
100
AcDbEntity
  8
ZUWAKU
100
AcDbLine
 10
66.24221147226307
 20
22.72500042161048
 30
0.0
 11
66.24221147226307
 21
7.675000421610484
 31
0.0
  0
LINE
  5
12C8
330
1A
100
AcDbEntity
  8
ZUWAKU
100
AcDbLine
 10
69.04221147226315
 20
7.675000421610484
 30
0.0
 11
69.04221147226315
 21
22.72500042161048
 31
0.0
  0
LINE
  5
12C9
330
1A
100
AcDbEntity
  8
ZUWAKU
100
AcDbLine
 10
61.3422114722631
 20
22.72500042161048
 30
0.0
 11
61.3422114722631
 21
11.00000042161048
 31
0.0
  0
LINE
  5
12CA
330
1A
100
AcDbEntity
  8
ZUWAKU
100
AcDbLine
 10
64.14221147226317
 20
9.950000421610482
 30
0.0
 11
64.14221147226317
 21
22.72500042161048
 31
0.0
  0
LINE
  5
12CB
330
1A
100
AcDbEntity
  8
ZUWAKU
100
AcDbLine
 10
79.12662886547036
 20
30.00000042161047
 30
0.0
 11
79.12662886547036
 21
0.800000421610548
 31
0.0
  0
LINE
  5
12CC
330
1A
100
AcDbEntity
  8
ZUWAKU
100
AcDbLine
 10
79.52662886547023
 20
30.00000042161047
 30
0.0
 11
79.52662886547045
 21
0.800000421610548
 31
0.0
  0
LINE
  5
12CD
330
1A
100
AcDbEntity
  8
ZUWAKU
100
AcDbLine
 10
79.32662886547018
 20
30.00000042161047
 30
0.0
 11
79.32662886547041
 21
0.800000421610548
 31
0.0
  0
LINE
  5
12CE
330
1A
100
AcDbEntity
  8
ZUWAKU
100
AcDbLine
 10
57.8422114722631
 20
7.150000421610485
 30
0.0
 11
61.3422114722631
 21
7.150000421610485
 31
0.0
  0
LINE
  5
12CF
330
1A
100
AcDbEntity
  8
ZUWAKU
100
AcDbLine
 10
60.29221147226315
 20
9.950000421610482
 30
0.0
 11
58.89221147226317
 21
9.950000421610482
 31
0.0
  0
LINE
  5
12D0
330
1A
100
AcDbEntity
  8
ZUWAKU
100
AcDbLine
 10
41.2172114722631
 20
7.150000421610485
 30
0.0
 11
42.9672114722631
 21
7.150000421610485
 31
0.0
  0
LINE
  5
12D1
330
1A
100
AcDbEntity
  8
ZUWAKU
100
AcDbLine
 10
35.67634640957896
 20
7.51690645344351
 30
0.0
 11
33.80807653494719
 21
13.43309438977745
 31
0.0
  0
ARC
  5
12D2
330
1A
100
AcDbEntity
  8
ZUWAKU
100
AcDbCircle
 10
33.16721147226314
 20
13.27500042161048
 30
0.0
 40
0.525
100
AcDbArc
 50
90.0
 51
180.0
  0
ARC
  5
12D3
330
1A
100
AcDbEntity
  8
ZUWAKU
100
AcDbCircle
 10
33.30744563575183
 20
13.27500042161048
 30
0.0
 40
0.525
100
AcDbArc
 50
17.52556837372303
 51
90.0
  0
ARC
  5
12D4
330
1A
100
AcDbEntity
  8
ZUWAKU
100
AcDbCircle
 10
30.36721147226308
 20
7.675000421610484
 30
0.0
 40
0.525
100
AcDbArc
 50
180.0
 51
270.0
  0
ARC
  5
12D5
330
1A
100
AcDbEntity
  8
ZUWAKU
100
AcDbCircle
 10
26.86721147226307
 20
9.425000421610484
 30
0.0
 40
0.525
100
AcDbArc
 50
0.0
 51
90.0
  0
ARC
  5
12D6
330
1A
100
AcDbEntity
  8
ZUWAKU
100
AcDbCircle
 10
26.86721147226307
 20
7.675000421610484
 30
0.0
 40
0.525
100
AcDbArc
 50
270.0
 51
0.0
  0
LINE
  5
12D7
330
1A
100
AcDbEntity
  8
ZUWAKU
100
AcDbLine
 10
27.39221147226317
 20
9.425000421610484
 30
0.0
 11
27.39221147226317
 21
7.675000421610484
 31
0.0
  0
LINE
  5
12D8
330
1A
100
AcDbEntity
  8
ZUWAKU
100
AcDbLine
 10
32.64221147226317
 20
7.675000421610484
 30
0.0
 11
32.64221147226317
 21
13.27500042161048
 31
0.0
  0
ARC
  5
12D9
330
1A
100
AcDbEntity
  8
ZUWAKU
100
AcDbCircle
 10
32.11721147226308
 20
7.675000421610484
 30
0.0
 40
0.525
100
AcDbArc
 50
270.0
 51
0.0
  0
LINE
  5
12DA
330
1A
100
AcDbEntity
  8
ZUWAKU
100
AcDbLine
 10
30.36721147226308
 20
7.150000421610485
 30
0.0
 11
32.11721147226308
 21
7.150000421610485
 31
0.0
  0
ARC
  5
12DB
330
1A
100
AcDbEntity
  8
ZUWAKU
100
AcDbCircle
 10
33.16721147226314
 20
17.12500042161048
 30
0.0
 40
0.525
100
AcDbArc
 50
180.0
 51
270.0
  0
LINE
  5
12DC
330
1A
100
AcDbEntity
  8
ZUWAKU
100
AcDbLine
 10
33.16721147226314
 20
13.80000042161048
 30
0.0
 11
33.30744563575183
 21
13.80000042161048
 31
0.0
  0
LINE
  5
12DD
330
1A
100
AcDbEntity
  8
ZUWAKU
100
AcDbLine
 10
33.30744563575183
 20
16.60000042161048
 30
0.0
 11
33.16721147226314
 21
16.60000042161048
 31
0.0
  0
ARC
  5
12DE
330
1A
100
AcDbEntity
  8
ZUWAKU
100
AcDbCircle
 10
33.30744563575183
 20
17.12500042161048
 30
0.0
 40
0.525
100
AcDbArc
 50
270.0
 51
342.4744316262769
  0
ARC
  5
12DF
330
1A
100
AcDbEntity
  8
ZUWAKU
100
AcDbCircle
 10
36.17697730877444
 20
7.675000421610484
 30
0.0
 40
0.525
100
AcDbArc
 50
197.525568373723
 51
270.0
  0
LINE
  5
12E0
330
1A
100
AcDbEntity
  8
ZUWAKU
100
AcDbLine
 10
38.37649758757891
 20
7.833094389777457
 30
0.0
 11
36.05010620910525
 21
15.2000004216105
 31
0.0
  0
ARC
  5
12E1
330
1A
100
AcDbEntity
  8
ZUWAKU
100
AcDbCircle
 10
37.87586668838343
 20
7.675000421610484
 30
0.0
 40
0.525
100
AcDbArc
 50
270.0
 51
17.52556837372303
  0
LINE
  5
12E2
330
1A
100
AcDbEntity
  8
ZUWAKU
100
AcDbLine
 10
36.17697730877444
 20
7.150000421610485
 30
0.0
 11
37.87586668838343
 21
7.150000421610485
 31
0.0
  0
ARC
  5
12E3
330
1A
100
AcDbEntity
  8
ZUWAKU
100
AcDbCircle
 10
41.2172114722631
 20
7.675000421610484
 30
0.0
 40
0.525
100
AcDbArc
 50
180.0
 51
270.0
  0
ARC
  5
12E4
330
1A
100
AcDbEntity
  8
ZUWAKU
100
AcDbCircle
 10
50.14221147226317
 20
9.950000421610482
 30
0.0
 40
2.799999999999999
100
AcDbArc
 50
270.0
 51
0.0
  0
ARC
  5
12E5
330
1A
100
AcDbEntity
  8
ZUWAKU
100
AcDbCircle
 10
57.8422114722631
 20
9.950000421610482
 30
0.0
 40
2.799999999999999
100
AcDbArc
 50
180.0
 51
270.0
  0
LINE
  5
12E6
330
1A
100
AcDbEntity
  8
ZUWAKU
100
AcDbLine
 10
51.71205995324669
 20
14.73505092794931
 30
0.0
 11
48.8022619786019
 21
17.64484890259398
 31
0.0
  0
LINE
  5
12E7
330
1A
100
AcDbEntity
  8
ZUWAKU
100
AcDbLine
 10
46.82236299127964
 20
15.66494991527166
 30
0.0
 11
49.73216096592432
 21
12.755151940627
 31
0.0
  0
LINE
  5
12E8
330
1A
100
AcDbEntity
  8
ZUWAKU
100
AcDbLine
 10
46.64221147226316
 20
7.150000421610485
 30
0.0
 11
50.14221147226317
 21
7.150000421610485
 31
0.0
  0
LINE
  5
12E9
330
1A
100
AcDbEntity
  8
ZUWAKU
100
AcDbLine
 10
46.64221147226316
 20
9.950000421610482
 30
0.0
 11
49.61721147226308
 21
9.950000421610482
 31
0.0
  0
ARC
  5
12EA
330
1A
100
AcDbEntity
  8
ZUWAKU
100
AcDbCircle
 10
46.64221147226316
 20
9.425000421610484
 30
0.0
 40
0.525
100
AcDbArc
 50
90.0
 51
180.0
  0
ARC
  5
12EB
330
1A
100
AcDbEntity
  8
ZUWAKU
100
AcDbCircle
 10
42.9672114722631
 20
7.675000421610484
 30
0.0
 40
0.525
100
AcDbArc
 50
270.0
 51
0.0
  0
ARC
  5
12EC
330
1A
100
AcDbEntity
  8
ZUWAKU
100
AcDbCircle
 10
46.64221147226316
 20
7.675000421610484
 30
0.0
 40
0.525
100
AcDbArc
 50
180.0
 51
270.0
  0
LINE
  5
12ED
330
1A
100
AcDbEntity
  8
ZUWAKU
100
AcDbLine
 10
46.11721147226307
 20
7.675000421610484
 30
0.0
 11
46.11721147226307
 21
9.425000421610484
 31
0.0
  0
ARC
  5
12EE
330
1A
100
AcDbEntity
  8
ZUWAKU
100
AcDbCircle
 10
49.61721147226308
 20
10.47500042161048
 30
0.0
 40
0.525
100
AcDbArc
 50
270.0
 51
0.0
  0
ARC
  5
12EF
330
1A
100
AcDbEntity
  8
ZUWAKU
100
AcDbCircle
 10
48.74221147226307
 20
11.76520244696583
 30
0.0
 40
1.399999999999999
100
AcDbArc
 50
0.0
 51
45.0
  0
LINE
  5
12F0
330
1A
100
AcDbEntity
  8
ZUWAKU
100
AcDbLine
 10
50.14221147226317
 20
10.47500042161048
 30
0.0
 11
50.14221147226317
 21
11.76520244696583
 31
0.0
  0
ARC
  5
12F1
330
1A
100
AcDbEntity
  8
ZUWAKU
100
AcDbCircle
 10
58.89221147226317
 20
11.00000042161048
 30
0.0
 40
1.049999999999999
100
AcDbArc
 50
180.0
 51
270.0
  0
ARC
  5
12F2
330
1A
100
AcDbEntity
  8
ZUWAKU
100
AcDbCircle
 10
48.74221147226307
 20
11.76520244696578
 30
0.0
 40
4.199999999999999
100
AcDbArc
 50
0.0
 51
45.0
  0
LINE
  5
12F3
330
1A
100
AcDbEntity
  8
ZUWAKU
100
AcDbLine
 10
52.94221147226313
 20
9.950000421610482
 30
0.0
 11
52.94221147226313
 21
11.76520244696583
 31
0.0
  0
ARC
  5
12F4
330
1A
100
AcDbEntity
  8
ZUWAKU
100
AcDbCircle
 10
61.3422114722631
 20
9.950000421610482
 30
0.0
 40
2.799999999999999
100
AcDbArc
 50
270.0
 51
0.0
  0
LINE
  5
12F5
330
1A
100
AcDbEntity
  8
ZUWAKU
100
AcDbLine
 10
66.76721147226317
 20
7.150000421610485
 30
0.0
 11
68.51721147226317
 21
7.150000421610485
 31
0.0
  0
ARC
  5
12F6
330
1A
100
AcDbEntity
  8
ZUWAKU
100
AcDbCircle
 10
60.29221147226315
 20
11.00000042161048
 30
0.0
 40
1.049999999999999
100
AcDbArc
 50
270.0
 51
0.0
  0
ARC
  5
12F7
330
1A
100
AcDbEntity
  8
ZUWAKU
100
AcDbCircle
 10
66.76721147226317
 20
7.675000421610484
 30
0.0
 40
0.525
100
AcDbArc
 50
180.0
 51
270.0
  0
ARC
  5
12F8
330
1A
100
AcDbEntity
  8
ZUWAKU
100
AcDbCircle
 10
68.51721147226317
 20
7.675000421610484
 30
0.0
 40
0.525
100
AcDbArc
 50
270.0
 51
0.0
  0
LINE
  5
12F9
330
1A
100
AcDbEntity
  8
ZUWAKU
100
AcDbLine
 10
42.9672114722631
 20
23.25000042161048
 30
0.0
 11
41.2172114722631
 21
23.25000042161048
 31
0.0
  0
LINE
  5
12FA
330
1A
100
AcDbEntity
  8
ZUWAKU
100
AcDbLine
 10
27.39221147226317
 20
22.72500042161048
 30
0.0
 11
27.39221147226317
 21
20.97500042161048
 31
0.0
  0
ARC
  5
12FB
330
1A
100
AcDbEntity
  8
ZUWAKU
100
AcDbCircle
 10
26.86721147226307
 20
20.97500042161048
 30
0.0
 40
0.525
100
AcDbArc
 50
270.0
 51
0.0
  0
ARC
  5
12FC
330
1A
100
AcDbEntity
  8
ZUWAKU
100
AcDbCircle
 10
30.36721147226308
 20
22.72500042161048
 30
0.0
 40
0.525
100
AcDbArc
 50
90.0
 51
180.0
  0
ARC
  5
12FD
330
1A
100
AcDbEntity
  8
ZUWAKU
100
AcDbCircle
 10
26.86721147226307
 20
22.72500042161048
 30
0.0
 40
0.525
100
AcDbArc
 50
0.0
 51
90.0
  0
LINE
  5
12FE
330
1A
100
AcDbEntity
  8
ZUWAKU
100
AcDbLine
 10
32.11721147226308
 20
23.25000042161048
 30
0.0
 11
30.36721147226308
 21
23.25000042161048
 31
0.0
  0
ARC
  5
12FF
330
1A
100
AcDbEntity
  8
ZUWAKU
100
AcDbCircle
 10
32.11721147226308
 20
22.72500042161048
 30
0.0
 40
0.525
100
AcDbArc
 50
0.0
 51
90.0
  0
ARC
  5
1300
330
1A
100
AcDbEntity
  8
ZUWAKU
100
AcDbCircle
 10
36.17697730877444
 20
22.72500042161048
 30
0.0
 40
0.525
100
AcDbArc
 50
90.0
 51
162.4744316262769
  0
LINE
  5
1301
330
1A
100
AcDbEntity
  8
ZUWAKU
100
AcDbLine
 10
38.37649758757891
 20
22.56690645344351
 30
0.0
 11
37.31485795444109
 21
19.20504761517391
 31
0.0
  0
ARC
  5
1302
330
1A
100
AcDbEntity
  8
ZUWAKU
100
AcDbCircle
 10
37.87586668838343
 20
22.72500042161048
 30
0.0
 40
0.525
100
AcDbArc
 50
342.4744316262769
 51
90.0
  0
LINE
  5
1303
330
1A
100
AcDbEntity
  8
ZUWAKU
100
AcDbLine
 10
36.17697730877444
 20
23.25000042161048
 30
0.0
 11
37.87586668838343
 21
23.25000042161048
 31
0.0
  0
ARC
  5
1304
330
1A
100
AcDbEntity
  8
ZUWAKU
100
AcDbCircle
 10
41.2172114722631
 20
22.72500042161048
 30
0.0
 40
0.525
100
AcDbArc
 50
90.0
 51
180.0
  0
LINE
  5
1305
330
1A
100
AcDbEntity
  8
ZUWAKU
100
AcDbLine
 10
51.89221147226317
 20
20.45000042161048
 30
0.0
 11
48.91721147226315
 21
20.45000042161048
 31
0.0
  0
LINE
  5
1306
330
1A
100
AcDbEntity
  8
ZUWAKU
100
AcDbLine
 10
48.39221147226317
 20
23.25000042161048
 30
0.0
 11
51.89221147226317
 21
23.25000042161048
 31
0.0
  0
ARC
  5
1307
330
1A
100
AcDbEntity
  8
ZUWAKU
100
AcDbCircle
 10
48.39221147226317
 20
20.45000042161048
 30
0.0
 40
2.799999999999999
100
AcDbArc
 50
90.0
 51
180.0
  0
LINE
  5
1308
330
1A
100
AcDbEntity
  8
ZUWAKU
100
AcDbLine
 10
45.5922114722631
 20
20.45000042161048
 30
0.0
 11
45.5922114722631
 21
18.63479839625514
 31
0.0
  0
ARC
  5
1309
330
1A
100
AcDbEntity
  8
ZUWAKU
100
AcDbCircle
 10
42.9672114722631
 20
22.72500042161048
 30
0.0
 40
0.525
100
AcDbArc
 50
0.0
 51
90.0
  0
LINE
  5
130A
330
1A
100
AcDbEntity
  8
ZUWAKU
100
AcDbLine
 10
48.39221147226317
 20
19.92500042161048
 30
0.0
 11
48.39221147226317
 21
18.63479839625514
 31
0.0
  0
ARC
  5
130B
330
1A
100
AcDbEntity
  8
ZUWAKU
100
AcDbCircle
 10
48.91721147226315
 20
19.92500042161048
 30
0.0
 40
0.525
100
AcDbArc
 50
90.0
 51
180.0
  0
LINE
  5
130C
330
1A
100
AcDbEntity
  8
ZUWAKU
100
AcDbLine
 10
52.41721147226314
 20
22.72500042161048
 30
0.0
 11
52.41721147226314
 21
20.97500042161048
 31
0.0
  0
ARC
  5
130D
330
1A
100
AcDbEntity
  8
ZUWAKU
100
AcDbCircle
 10
51.89221147226317
 20
20.97500042161048
 30
0.0
 40
0.525
100
AcDbArc
 50
270.0
 51
0.0
  0
ARC
  5
130E
330
1A
100
AcDbEntity
  8
ZUWAKU
100
AcDbCircle
 10
51.89221147226317
 20
22.72500042161048
 30
0.0
 40
0.525
100
AcDbArc
 50
0.0
 51
90.0
  0
LINE
  5
130F
330
1A
100
AcDbEntity
  8
ZUWAKU
100
AcDbLine
 10
57.31721147226313
 20
23.25000042161048
 30
0.0
 11
55.56721147226312
 21
23.25000042161048
 31
0.0
  0
ARC
  5
1310
330
1A
100
AcDbEntity
  8
ZUWAKU
100
AcDbCircle
 10
55.56721147226312
 20
22.72500042161048
 30
0.0
 40
0.525
100
AcDbArc
 50
90.0
 51
180.0
  0
ARC
  5
1311
330
1A
100
AcDbEntity
  8
ZUWAKU
100
AcDbCircle
 10
57.31721147226313
 20
22.72500042161048
 30
0.0
 40
0.525
100
AcDbArc
 50
0.0
 51
90.0
  0
LINE
  5
1312
330
1A
100
AcDbEntity
  8
ZUWAKU
100
AcDbLine
 10
68.51721147226317
 20
23.25000042161048
 30
0.0
 11
66.76721147226317
 21
23.25000042161048
 31
0.0
  0
ARC
  5
1313
330
1A
100
AcDbEntity
  8
ZUWAKU
100
AcDbCircle
 10
61.86721147226307
 20
22.72500042161048
 30
0.0
 40
0.525
100
AcDbArc
 50
90.0
 51
180.0
  0
LINE
  5
1314
330
1A
100
AcDbEntity
  8
ZUWAKU
100
AcDbLine
 10
63.61721147226308
 20
23.25000042161048
 30
0.0
 11
61.86721147226307
 21
23.25000042161048
 31
0.0
  0
ARC
  5
1315
330
1A
100
AcDbEntity
  8
ZUWAKU
100
AcDbCircle
 10
63.61721147226308
 20
22.72500042161048
 30
0.0
 40
0.525
100
AcDbArc
 50
0.0
 51
90.0
  0
ARC
  5
1316
330
1A
100
AcDbEntity
  8
ZUWAKU
100
AcDbCircle
 10
66.76721147226317
 20
22.72500042161048
 30
0.0
 40
0.525
100
AcDbArc
 50
90.0
 51
180.0
  0
ARC
  5
1317
330
1A
100
AcDbEntity
  8
ZUWAKU
100
AcDbCircle
 10
68.51721147226317
 20
22.72500042161048
 30
0.0
 40
0.525
100
AcDbArc
 50
0.0
 51
90.0
  0
LINE
  5
1318
330
1A
100
AcDbEntity
  8
ZUWAKU
100
AcDbLine
 10
208.4466006075497
 20
30.00000042161047
 30
0.0
 11
208.4466006075499
 21
0.800000421610548
 31
0.0
  0
LINE
  5
1319
330
1A
100
AcDbEntity
  8
ZUWAKU
100
AcDbLine
 10
208.6466006075497
 20
30.00000042161047
 30
0.0
 11
208.6466006075499
 21
0.800000421610548
 31
0.0
  0
LINE
  5
131A
330
1A
100
AcDbEntity
  8
ZUWAKU
100
AcDbLine
 10
208.2466006075498
 20
30.00000042161047
 30
0.0
 11
208.2466006075498
 21
0.800000421610548
 31
0.0
  0
TEXT
  5
131B
330
1A
100
AcDbEntity
  8
MOJI
100
AcDbText
 10
239.827201998333
 20
18.00492147901786
 30
0.0
 40
5.599999999999999
  1
止り（右・左）
 41
0.9
  7
ｽﾀｲﾙ1
100
AcDbText
  0
TEXT
  5
131C
330
1A
100
AcDbEntity
  8
ZUWAKU
100
AcDbText
 10
209.7240456297595
 20
9.655356959996097
 30
0.0
 40
4.0
  1
サイズ
 41
0.9
  7
ｽﾀｲﾙ1
100
AcDbText
  0
TEXT
  5
131D
330
1A
100
AcDbEntity
  8
MOJI
100
AcDbText
 10
239.827201998333
 20
3.204921479017901
 30
0.0
 40
5.599999999999999
  1
Ｈ１２０
 41
0.9
  7
ｽﾀｲﾙ1
100
AcDbText
  0
TEXT
  5
131E
330
1A
100
AcDbEntity
  8
ZUWAKU
100
AcDbText
 10
209.7240456297593
 20
24.05535695999606
 30
0.0
 40
4.0
  1
品名
 41
0.9
  7
ｽﾀｲﾙ1
100
AcDbText
  0
TEXT
  5
131F
330
1A
100
AcDbEntity
  8
ZUWAKU
100
AcDbText
 10
656.0374510070675
 20
18.66376371848332
 30
0.0
 40
5.599999999999999
  1
　　．  ．　　
 41
0.9
  7
ｽﾀｲﾙ1
100
AcDbText
  0
LINE
  5
1320
330
1A
100
AcDbEntity
  8
ZUWAKU
100
AcDbLine
 10
648.8172018276862
 20
15.60000042161051
 30
0.0
 11
697.2490098660232
 21
15.60000042161051
 31
0.0
  0
LINE
  5
1321
330
1A
100
AcDbEntity
  8
ZUWAKU
100
AcDbLine
 10
648.8172018276864
 20
15.40000042161051
 30
0.0
 11
697.2490098660232
 21
15.40000042161051
 31
0.0
  0
LINE
  5
1322
330
1A
100
AcDbEntity
  8
ZUWAKU
100
AcDbLine
 10
648.8172018276862
 20
15.20000042161051
 30
0.0
 11
697.2490098660232
 21
15.20000042161051
 31
0.0
  0
LINE
  5
1323
330
1A
100
AcDbEntity
  8
ZUWAKU
100
AcDbLine
 10
505.1991788156228
 20
15.60000042161051
 30
0.0
 11
552.5269550835944
 21
15.60000042161051
 31
0.0
  0
LINE
  5
1324
330
1A
100
AcDbEntity
  8
ZUWAKU
100
AcDbLine
 10
505.1991788156228
 20
15.40000042161051
 30
0.0
 11
552.5269550835944
 21
15.40000042161051
 31
0.0
  0
LINE
  5
1325
330
1A
100
AcDbEntity
  8
ZUWAKU
100
AcDbLine
 10
505.1991788156228
 20
15.20000042161052
 30
0.0
 11
552.5269550835944
 21
15.20000042161052
 31
0.0
  0
LINE
  5
1326
330
1A
100
AcDbEntity
  8
ZUWAKU
100
AcDbLine
 10
504.799178815623
 20
30.00000042161047
 30
0.0
 11
504.799178815623
 21
0.800000421610548
 31
0.0
  0
LINE
  5
1327
330
1A
100
AcDbEntity
  8
ZUWAKU
100
AcDbLine
 10
505.1991788156228
 20
30.00000042161047
 30
0.0
 11
505.1991788156231
 21
0.800000421610548
 31
0.0
  0
LINE
  5
1328
330
1A
100
AcDbEntity
  8
ZUWAKU
100
AcDbLine
 10
504.9991788156228
 20
30.00000042161047
 30
0.0
 11
504.999178815623
 21
0.800000421610548
 31
0.0
  0
TEXT
  5
1329
330
1A
100
AcDbEntity
  8
MOJI
100
AcDbText
 10
528.0409072897948
 20
18.00492147901786
 30
0.0
 40
5.599999999999999
  1
Ａ３
 41
0.9
  7
ｽﾀｲﾙ1
100
AcDbText
  0
LINE
  5
132A
330
1A
100
AcDbEntity
  8
ZUWAKU
100
AcDbLine
 10
447.4243632884734
 20
30.00000042161047
 30
0.0
 11
447.4243632884734
 21
0.800000421610548
 31
0.0
  0
LINE
  5
132B
330
1A
100
AcDbEntity
  8
ZUWAKU
100
AcDbLine
 10
447.8243632884733
 20
30.00000042161047
 30
0.0
 11
447.8243632884734
 21
0.800000421610548
 31
0.0
  0
LINE
  5
132C
330
1A
100
AcDbEntity
  8
ZUWAKU
100
AcDbLine
 10
447.6243632884732
 20
30.00000042161047
 30
0.0
 11
447.6243632884734
 21
0.800000421610548
 31
0.0
  0
TEXT
  5
132D
330
1A
100
AcDbEntity
  8
ZUWAKU
100
AcDbText
 10
464.0120015251193
 20
2.614071332749972
 30
0.0
 40
3.0
  1
□には色品番が入ります
 41
0.9
  7
ｽﾀｲﾙ1
100
AcDbText
  0
TEXT
  5
132E
330
1A
100
AcDbEntity
  8
MOJI
100
AcDbText
 10
458.9520970921496
 20
11.94261814327046
 30
0.0
 40
5.599999999999999
  1
ＰＥ６３□
 41
0.9
  7
ｽﾀｲﾙ1
100
AcDbText
  0
TEXT
  5
132F
330
1A
100
AcDbEntity
  8
ZUWAKU
100
AcDbText
 10
506.6766238378327
 20
9.655356959996097
 30
0.0
 40
4.0
  1
縮尺
 41
0.9
  7
ｽﾀｲﾙ1
100
AcDbText
  0
TEXT
  5
1330
330
1A
100
AcDbEntity
  8
MOJI
100
AcDbText
 10
528.0409072897948
 20
3.204921479017901
 30
0.0
 40
5.599999999999999
  1
１/２
 41
0.9
  7
ｽﾀｲﾙ1
100
AcDbText
  0
TEXT
  5
1331
330
1A
100
AcDbEntity
  8
ZUWAKU
100
AcDbText
 10
449.3018083106829
 20
24.05535695999606
 30
0.0
 40
4.0
  1
品番
 41
0.9
  7
ｽﾀｲﾙ1
100
AcDbText
  0
TEXT
  5
1332
330
1A
100
AcDbEntity
  8
ZUWAKU
100
AcDbText
 10
506.6766238378325
 20
24.05535695999606
 30
0.0
 40
4.0
  1
用紙
 41
0.9
  7
ｽﾀｲﾙ1
100
AcDbText
  0
LINE
  5
1333
330
1A
100
AcDbEntity
  8
ZUWAKU
100
AcDbLine
 10
552.5269550835944
 20
30.00000042161047
 30
0.0
 11
552.5269550835944
 21
0.800000421610548
 31
0.0
  0
LINE
  5
1334
330
1A
100
AcDbEntity
  8
ZUWAKU
100
AcDbLine
 10
552.9269550835943
 20
30.00000042161047
 30
0.0
 11
552.9269550835945
 21
0.800000421610548
 31
0.0
  0
LINE
  5
1335
330
1A
100
AcDbEntity
  8
ZUWAKU
100
AcDbLine
 10
552.7269550835942
 20
30.00000042161047
 30
0.0
 11
552.7269550835945
 21
0.800000421610548
 31
0.0
  0
LINE
  5
1336
330
1A
100
AcDbEntity
  8
ZUWAKU
100
AcDbLine
 10
648.4172018276865
 20
30.00000042161047
 30
0.0
 11
648.4172018276865
 21
0.800000421610548
 31
0.0
  0
LINE
  5
1337
330
1A
100
AcDbEntity
  8
ZUWAKU
100
AcDbLine
 10
648.8172018276864
 20
30.00000042161047
 30
0.0
 11
648.8172018276866
 21
0.800000421610548
 31
0.0
  0
LINE
  5
1338
330
1A
100
AcDbEntity
  8
ZUWAKU
100
AcDbLine
 10
648.6172018276863
 20
30.00000042161047
 30
0.0
 11
648.6172018276866
 21
0.800000421610548
 31
0.0
  0
TEXT
  5
1339
330
1A
100
AcDbEntity
  8
ZUWAKU
100
AcDbText
 10
650.294646849896
 20
24.05535695999606
 30
0.0
 40
4.0
  1
DATE
 41
0.9
  7
ｽﾀｲﾙ1
100
AcDbText
  0
TEXT
  5
133A
330
1A
100
AcDbEntity
  8
ZUWAKU
100
AcDbText
 10
708.5280835097258
 20
17.55383975729728
 30
0.0
 40
6.0
  1
積水化学工業株式会社
 41
0.9
  7
ｽﾀｲﾙ1
100
AcDbText
  0
LINE
  5
133B
330
1A
100
AcDbEntity
  8
ZUWAKU
100
AcDbLine
 10
697.8490098660231
 20
30.00000042161047
 30
0.0
 11
697.8490098660233
 21
0.800000421610548
 31
0.0
  0
LINE
  5
133C
330
1A
100
AcDbEntity
  8
ZUWAKU
100
AcDbLine
 10
697.6490098660231
 20
30.00000042161047
 30
0.0
 11
697.6490098660233
 21
0.800000421610548
 31
0.0
  0
LINE
  5
133D
330
1A
100
AcDbEntity
  8
ZUWAKU
100
AcDbLine
 10
697.4490098660233
 20
30.00000042161047
 30
0.0
 11
697.4490098660233
 21
0.800000421610548
 31
0.0
  0
LINE
  5
133E
330
1A
100
AcDbEntity
  8
ZUWAKU
100
AcDbLine
 10
697.2490098660232
 20
30.00000042161047
 30
0.0
 11
697.2490098660232
 21
0.800000421610548
 31
0.0
  0
TEXT
  5
133F
330
1A
100
AcDbEntity
  8
ZUWAKU
100
AcDbText
 10
708.5280835097258
 20
6.648840735464546
 30
0.0
 40
6.0
  1
建材事業部
 41
0.9
  7
ｽﾀｲﾙ1
100
AcDbText
  0
VIEWPORT
  5
22
330
17
100
AcDbEntity
 67
     1
  8
0
100
AcDbViewport
 10
313.6808219178082
 20
148.5
 30
0.0
 40
627.3616438356165
 41
297.0
 68
     2
 69
     1
1001
ACAD
1000
MVIEW
1002
{
1070
    16
1010
0.0
1020
0.0
1030
0.0
1010
0.0
1020
0.0
1030
1.0
1040
0.0
1040
297.0
1040
313.6808219178082
1040
148.5
1040
50.0
1040
0.0
1040
0.0
1070
     0
1070
   100
1070
     1
1070
     0
1070
     0
1070
     0
1070
     0
1070
     0
1040
0.0
1040
0.0
1040
0.0
1040
1.0
1040
1.0
1040
10.0
1040
10.0
1070
     0
1002
{
1002
}
1002
}
  0
VIEWPORT
  5
64
330
17
100
AcDbEntity
 67
     1
  8
VIEWPORT
100
AcDbViewport
 10
210.0
 20
148.5
 30
0.0
 40
420.0
 41
297.0
 68
     1
 69
     2
1001
ACAD
1000
MVIEW
1002
{
1070
    16
1010
0.0
1020
0.0
1030
0.0
1010
0.0
1020
0.0
1030
1.0
1040
0.0
1040
605.8799999999998
1040
420.0
1040
297.0
1040
50.0
1040
0.0
1040
0.0
1070
     0
1070
   100
1070
     1
1070
     0
1070
     0
1070
     0
1070
     0
1070
     0
1040
0.0
1040
0.0
1040
0.0
1040
10.0
1040
10.0
1040
0.0
1040
0.0
1070
     0
1002
{
1002
}
1002
}
  0
ENDSEC
  0
SECTION
  2
OBJECTS
  0
DICTIONARY
  5
C
330
0
100
AcDbDictionary
  3
ACAD_GROUP
350
D
  3
ACAD_LAYOUT
350
646
  3
ACAD_MLINESTYLE
350
E
  3
ACAD_PLOTSETTINGS
350
647
  3
ACAD_PLOTSTYLENAME
350
644
  3
ACDBHEADERROUNDTRIPXREC
350
134E
  0
DICTIONARY
  5
A0C
330
1A
100
AcDbDictionary
280
     1
  3
ACAD_LAYOUTSELFREF
360
1370
  0
DICTIONARY
  5
A0A
330
17
100
AcDbDictionary
280
     1
  3
ACAD_LAYOUTSELFREF
360
136F
  0
DICTIONARY
  5
D
102
{ACAD_REACTORS
330
C
102
}
330
C
100
AcDbDictionary
  3
*A1
350
F52
  3
*A2
350
FA2
  3
*A3
350
FA3
  3
*A4
350
FF3
  0
DICTIONARY
  5
646
102
{ACAD_REACTORS
330
C
102
}
330
C
100
AcDbDictionary
  0
DICTIONARY
  5
E
102
{ACAD_REACTORS
330
C
102
}
330
C
100
AcDbDictionary
  3
STANDARD
350
13
  0
DICTIONARY
  5
647
102
{ACAD_REACTORS
330
C
102
}
330
C
100
AcDbDictionary
  0
ACDBDICTIONARYWDFLT
  5
644
102
{ACAD_REACTORS
330
C
102
}
330
C
100
AcDbDictionary
281
     1
  3
Normal
350
645
100
AcDbDictionaryWithDefault
340
645
1001
ACAD
1000
TREAT_AS_HARD
1070
     0
1000
TREAT_AS_HARD
1070
     0
  0
DICTIONARY
  5
134E
102
{ACAD_REACTORS
330
C
102
}
330
C
100
AcDbDictionary
  3
TSTACKALIGN
350
134F
  3
TSTACKSIZE
350
1350
  3
HYPERLINKBASE
350
1351
  3
STYLESHEET
350
1352
  3
LAYOUTDICT
350
1353
  3
PLOTSETDICT
350
1354
  3
PLOTSTYLNAMDICT
350
1355
  3
LWETCUNION
350
1356
  3
INSUNITS
350
1357
  3
CEPSNTYPE
350
1358
  3
FINGERPRINTGUID
350
1359
  3
VERSIONGUID
350
135A
  3
PSVPSCALE
350
135B
  3
DIMSTYLEDATA
350
135C
  3
PUCSORTHOREF
350
135D
  3
PUCSORTHOVIEW
350
135E
  3
PUCSBASE
350
135F
  3
PUCSORGTOP
350
1360
  3
PUCSORGBOTTOM
350
1361
  3
PUCSORGLEFT
350
1362
  3
PUCSORGRIGHT
350
1363
  3
PUCSORGFRONT
350
1364
  3
PUCSORGBACK
350
1365
  3
UCSORTHOREF
350
1366
  3
UCSORTHOVIEW
350
1367
  3
UCSBASE
350
1368
  3
UCSORGTOP
350
1369
  3
UCSORGBOTTOM
350
136A
  3
UCSORGLEFT
350
136B
  3
UCSORGRIGHT
350
136C
  3
UCSORGFRONT
350
136D
  3
UCSORGBACK
350
136E
  0
XRECORD
  5
1370
102
{ACAD_REACTORS
330
A0C
102
}
330
A0C
100
AcDbXrecord
340
1A
  0
XRECORD
  5
136F
102
{ACAD_REACTORS
330
A0A
102
}
330
A0A
100
AcDbXrecord
340
17
  0
GROUP
  5
F52
102
{ACAD_REACTORS
330
D
102
}
330
D
100
AcDbGroup
300

 70
     1
 71
     1
  0
GROUP
  5
FA2
102
{ACAD_REACTORS
330
D
102
}
330
D
100
AcDbGroup
300

 70
     1
 71
     1
340
F54
340
F55
340
F56
340
F57
340
F58
340
F59
340
F5A
340
F5B
340
F5C
340
F5D
340
F5E
340
F5F
340
F60
340
F61
340
F62
340
F63
340
F64
340
F65
340
F66
340
F67
340
F68
340
F69
340
F6A
340
F6B
340
F6C
340
F6D
340
F6E
340
F6F
340
F70
340
F71
340
F72
340
F73
340
F74
340
F75
340
F76
340
F77
340
F78
340
F79
340
F7A
340
F53
340
F7B
340
F7C
340
F7D
340
F7E
340
F7F
340
F80
340
F81
340
F82
340
F83
340
F84
340
F85
340
F86
340
F87
340
F88
340
F89
340
F8A
340
F8B
340
F8C
340
F8D
340
F8E
340
F8F
340
F90
340
F91
340
F92
340
F93
340
F94
340
F95
340
F96
340
F97
340
F98
340
F99
340
F9A
340
F9B
340
F9C
340
F9D
340
F9E
340
F9F
340
FA0
340
FA1
  0
GROUP
  5
FA3
102
{ACAD_REACTORS
330
D
102
}
330
D
100
AcDbGroup
300

 70
     1
 71
     1
  0
GROUP
  5
FF3
102
{ACAD_REACTORS
330
D
102
}
330
D
100
AcDbGroup
300

 70
     1
 71
     1
340
FA5
340
FA6
340
FA7
340
FA8
340
FA9
340
FAA
340
FAB
340
FAC
340
FAD
340
FAE
340
FAF
340
FB0
340
FB1
340
FB2
340
FB3
340
FB4
340
FB5
340
FB6
340
FB7
340
FB8
340
FB9
340
FBA
340
FBB
340
FBC
340
FBD
340
FBE
340
FBF
340
FC0
340
FC1
340
FC2
340
FC3
340
FC4
340
FC5
340
FC6
340
FC7
340
FC8
340
FC9
340
FCA
340
FCB
340
FCC
340
FCD
340
FCE
340
FCF
340
FD0
340
FD1
340
FD2
340
FD3
340
FD4
340
FD5
340
FD6
340
FD7
340
FD8
340
FD9
340
FDA
340
FA4
340
FDB
340
FDC
340
FDD
340
FDE
340
FDF
340
FE0
340
FE1
340
FE2
340
FE3
340
FE4
340
FE5
340
FE6
340
FE7
340
FE8
340
FE9
340
FEA
340
FEB
340
FEC
340
FED
340
FEE
340
FEF
340
FF0
340
FF1
340
FF2
  0
MLINESTYLE
  5
13
102
{ACAD_REACTORS
330
E
102
}
330
E
100
AcDbMlineStyle
  2
STANDARD
 70
     0
  3

 62
     0
 51
90.0
 52
90.0
 71
     2
 49
0.5
 62
   256
  6
BYLAYER
 49
-0.5
 62
   256
  6
BYLAYER
  0
ACDBPLACEHOLDER
  5
645
102
{ACAD_REACTORS
330
644
102
}
330
644
100
AcDbPlaceHolder
280
     0
  0
XRECORD
  5
134F
102
{ACAD_REACTORS
330
134E
102
}
330
134E
100
AcDbXrecord
 90
        1
  0
XRECORD
  5
1350
102
{ACAD_REACTORS
330
134E
102
}
330
134E
100
AcDbXrecord
 90
       70
  0
XRECORD
  5
1351
102
{ACAD_REACTORS
330
134E
102
}
330
134E
100
AcDbXrecord
  1

  0
XRECORD
  5
1352
102
{ACAD_REACTORS
330
134E
102
}
330
134E
100
AcDbXrecord
  1
systemprinter.ctb
  0
XRECORD
  5
1353
102
{ACAD_REACTORS
330
134E
102
}
330
134E
100
AcDbXrecord
340
646
  0
XRECORD
  5
1354
102
{ACAD_REACTORS
330
134E
102
}
330
134E
100
AcDbXrecord
340
647
  0
XRECORD
  5
1355
102
{ACAD_REACTORS
330
134E
102
}
330
134E
100
AcDbXrecord
340
644
  0
XRECORD
  5
1356
102
{ACAD_REACTORS
330
134E
102
}
330
134E
100
AcDbXrecord
 90
    10781
  0
XRECORD
  5
1357
102
{ACAD_REACTORS
330
134E
102
}
330
134E
100
AcDbXrecord
 90
        0
  0
XRECORD
  5
1358
102
{ACAD_REACTORS
330
134E
102
}
330
134E
100
AcDbXrecord
 90
        0
  0
XRECORD
  5
1359
102
{ACAD_REACTORS
330
134E
102
}
330
134E
100
AcDbXrecord
  1
{E21719B1-0C89-4D6C-9EFA-D8ABE259C672}
  0
XRECORD
  5
135A
102
{ACAD_REACTORS
330
134E
102
}
330
134E
100
AcDbXrecord
  1
{AA86B362-43D6-4847-8487-C3F46E273021}
  0
XRECORD
  5
135B
102
{ACAD_REACTORS
330
134E
102
}
330
134E
100
AcDbXrecord
 40
0.0
  0
XRECORD
  5
135C
102
{ACAD_REACTORS
330
134E
102
}
330
134E
100
AcDbXrecord
1000
DSTYLE
1002
{
1070
   341
340
6D
1070
   343
340
6D
1070
   344
340
6D
1070
   371
 70
    -1
1070
   372
 70
    -1
1002
}
  0
XRECORD
  5
135D
102
{ACAD_REACTORS
330
134E
102
}
330
134E
100
AcDbXrecord
340
0
  0
XRECORD
  5
135E
102
{ACAD_REACTORS
330
134E
102
}
330
134E
100
AcDbXrecord
 70
     0
  0
XRECORD
  5
135F
102
{ACAD_REACTORS
330
134E
102
}
330
134E
100
AcDbXrecord
340
0
  0
XRECORD
  5
1360
102
{ACAD_REACTORS
330
134E
102
}
330
134E
100
AcDbXrecord
 10
0.0
 20
0.0
 30
0.0
  0
XRECORD
  5
1361
102
{ACAD_REACTORS
330
134E
102
}
330
134E
100
AcDbXrecord
 10
0.0
 20
0.0
 30
0.0
  0
XRECORD
  5
1362
102
{ACAD_REACTORS
330
134E
102
}
330
134E
100
AcDbXrecord
 10
0.0
 20
0.0
 30
0.0
  0
XRECORD
  5
1363
102
{ACAD_REACTORS
330
134E
102
}
330
134E
100
AcDbXrecord
 10
0.0
 20
0.0
 30
0.0
  0
XRECORD
  5
1364
102
{ACAD_REACTORS
330
134E
102
}
330
134E
100
AcDbXrecord
 10
0.0
 20
0.0
 30
0.0
  0
XRECORD
  5
1365
102
{ACAD_REACTORS
330
134E
102
}
330
134E
100
AcDbXrecord
 10
0.0
 20
0.0
 30
0.0
  0
XRECORD
  5
1366
102
{ACAD_REACTORS
330
134E
102
}
330
134E
100
AcDbXrecord
340
0
  0
XRECORD
  5
1367
102
{ACAD_REACTORS
330
134E
102
}
330
134E
100
AcDbXrecord
 70
     0
  0
XRECORD
  5
1368
102
{ACAD_REACTORS
330
134E
102
}
330
134E
100
AcDbXrecord
340
0
  0
XRECORD
  5
1369
102
{ACAD_REACTORS
330
134E
102
}
330
134E
100
AcDbXrecord
 10
0.0
 20
0.0
 30
0.0
  0
XRECORD
  5
136A
102
{ACAD_REACTORS
330
134E
102
}
330
134E
100
AcDbXrecord
 10
0.0
 20
0.0
 30
0.0
  0
XRECORD
  5
136B
102
{ACAD_REACTORS
330
134E
102
}
330
134E
100
AcDbXrecord
 10
0.0
 20
0.0
 30
0.0
  0
XRECORD
  5
136C
102
{ACAD_REACTORS
330
134E
102
}
330
134E
100
AcDbXrecord
 10
0.0
 20
0.0
 30
0.0
  0
XRECORD
  5
136D
102
{ACAD_REACTORS
330
134E
102
}
330
134E
100
AcDbXrecord
 10
0.0
 20
0.0
 30
0.0
  0
XRECORD
  5
136E
102
{ACAD_REACTORS
330
134E
102
}
330
134E
100
AcDbXrecord
 10
0.0
 20
0.0
 30
0.0
  0
ENDSEC
  0
EOF
