  0
SECTION
  2
HEADER
  9
$ACADVER
  1
AC1014
  9
$ACADMAINTVER
 70
     9
  9
$DWGCODEPAGE
  3
ANSI_932
  9
$INSBASE
 10
0.0
 20
0.0
 30
0.0
  9
$EXTMIN
 10
0.0000000135560185
 20
-0.0000001317113174
 30
0.0
  9
$EXTMAX
 10
797.6000000135561
 20
551.5999998682888
 30
0.0
  9
$LIMMIN
 10
0.0
 20
0.0
  9
$LIMMAX
 10
840.0
 20
594.0
  9
$ORTHOMODE
 70
     1
  9
$REGENMODE
 70
     1
  9
$FILLMODE
 70
     1
  9
$QTEXTMODE
 70
     0
  9
$MIRRTEXT
 70
     1
  9
$DRAGMODE
 70
     2
  9
$LTSCALE
 40
2.0
  9
$OSMODE
 70
    35
  9
$ATTMODE
 70
     1
  9
$TEXTSIZE
 40
8.0
  9
$TRACEWID
 40
1.0
  9
$TEXTSTYLE
  7
STANDARD
  9
$CLAYER
  8
SEIHIN
  9
$CELTYPE
  6
BYLAYER
  9
$CECOLOR
 62
   256
  9
$CELTSCALE
 40
1.0
  9
$DELOBJ
 70
     1
  9
$DISPSILH
 70
     0
  9
$DIMSCALE
 40
1.0
  9
$DIMASZ
 40
7.0
  9
$DIMEXO
 40
6.0
  9
$DIMDLI
 40
14.0
  9
$DIMRND
 40
0.0
  9
$DIMDLE
 40
0.0
  9
$DIMEXE
 40
3.0
  9
$DIMTP
 40
0.0
  9
$DIMTM
 40
0.0
  9
$DIMTXT
 40
6.0
  9
$DIMCEN
 40
150.0
  9
$DIMTSZ
 40
0.0
  9
$DIMTOL
 70
     0
  9
$DIMLIM
 70
     0
  9
$DIMTIH
 70
     0
  9
$DIMTOH
 70
     0
  9
$DIMSE1
 70
     0
  9
$DIMSE2
 70
     0
  9
$DIMTAD
 70
     3
  9
$DIMZIN
 70
     0
  9
$DIMBLK
  1

  9
$DIMASO
 70
     1
  9
$DIMSHO
 70
     1
  9
$DIMPOST
  1

  9
$DIMAPOST
  1

  9
$DIMALT
 70
     0
  9
$DIMALTD
 70
     2
  9
$DIMALTF
 40
25.4
  9
$DIMLFAC
 40
1.0
  9
$DIMTOFL
 70
     1
  9
$DIMTVP
 40
0.0
  9
$DIMTIX
 70
     0
  9
$DIMSOXD
 70
     0
  9
$DIMSAH
 70
     1
  9
$DIMBLK1
  1
OPEN
  9
$DIMBLK2
  1
OPEN
  9
$DIMSTYLE
  2
STANDARD
  9
$DIMCLRD
 70
   256
  9
$DIMCLRE
 70
   256
  9
$DIMCLRT
 70
   256
  9
$DIMTFAC
 40
1.0
  9
$DIMGAP
 40
2.0
  9
$DIMJUST
 70
     0
  9
$DIMSD1
 70
     0
  9
$DIMSD2
 70
     0
  9
$DIMTOLJ
 70
     1
  9
$DIMTZIN
 70
     0
  9
$DIMALTZ
 70
     0
  9
$DIMALTTZ
 70
     0
  9
$DIMFIT
 70
     3
  9
$DIMUPT
 70
     0
  9
$DIMUNIT
 70
     2
  9
$DIMDEC
 70
     0
  9
$DIMTDEC
 70
     0
  9
$DIMALTU
 70
     2
  9
$DIMALTTD
 70
     2
  9
$DIMTXSTY
  7
STANDARD
  9
$DIMAUNIT
 70
     0
  9
$LUNITS
 70
     2
  9
$LUPREC
 70
     4
  9
$SKETCHINC
 40
1.0
  9
$FILLETRAD
 40
20.0
  9
$AUNITS
 70
     0
  9
$AUPREC
 70
     0
  9
$MENU
  1
.
  9
$ELEVATION
 40
0.0
  9
$PELEVATION
 40
0.0
  9
$THICKNESS
 40
0.0
  9
$LIMCHECK
 70
     0
  9
$BLIPMODE
 70
     0
  9
$CHAMFERA
 40
20.0
  9
$CHAMFERB
 40
20.0
  9
$CHAMFERC
 40
40.0
  9
$CHAMFERD
 40
0.0
  9
$SKPOLY
 70
     0
  9
$TDCREATE
 40
2451212.679463889
  9
$TDUPDATE
 40
2454216.633790509
  9
$TDINDWG
 40
0.0907311227
  9
$TDUSRTIMER
 40
0.0907311227
  9
$USRTIMER
 70
     1
  9
$ANGBASE
 50
0.0
  9
$ANGDIR
 70
     0
  9
$PDMODE
 70
     0
  9
$PDSIZE
 40
0.0
  9
$PLINEWID
 40
0.0
  9
$COORDS
 70
     0
  9
$SPLFRAME
 70
     0
  9
$SPLINETYPE
 70
     6
  9
$SPLINESEGS
 70
     8
  9
$ATTDIA
 70
     0
  9
$ATTREQ
 70
     1
  9
$HANDLING
 70
 10241
  9
$HANDSEED
  5
1B4D
  9
$SURFTAB1
 70
     6
  9
$SURFTAB2
 70
     6
  9
$SURFTYPE
 70
     6
  9
$SURFU
 70
     6
  9
$SURFV
 70
     6
  9
$UCSNAME
  2

  9
$UCSORG
 10
0.0
 20
0.0
 30
0.0
  9
$UCSXDIR
 10
1.0
 20
0.0
 30
0.0
  9
$UCSYDIR
 10
0.0
 20
1.0
 30
0.0
  9
$PUCSNAME
  2

  9
$PUCSORG
 10
0.0
 20
0.0
 30
0.0
  9
$PUCSXDIR
 10
1.0
 20
0.0
 30
0.0
  9
$PUCSYDIR
 10
0.0
 20
1.0
 30
0.0
  9
$USERI1
 70
     0
  9
$USERI2
 70
     0
  9
$USERI3
 70
     0
  9
$USERI4
 70
     0
  9
$USERI5
 70
     0
  9
$USERR1
 40
0.0
  9
$USERR2
 40
0.0
  9
$USERR3
 40
0.0
  9
$USERR4
 40
0.0
  9
$USERR5
 40
0.0
  9
$WORLDVIEW
 70
     1
  9
$SHADEDGE
 70
     3
  9
$SHADEDIF
 70
    70
  9
$TILEMODE
 70
     1
  9
$MAXACTVP
 70
    16
  9
$PINSBASE
 10
0.0
 20
0.0
 30
0.0
  9
$PLIMCHECK
 70
     0
  9
$PEXTMIN
 10
0.0
 20
0.0
 30
0.0
  9
$PEXTMAX
 10
420.0
 20
297.0
 30
0.0
  9
$PLIMMIN
 10
0.0
 20
0.0
  9
$PLIMMAX
 10
420.0
 20
297.0
  9
$UNITMODE
 70
     0
  9
$VISRETAIN
 70
     0
  9
$PLINEGEN
 70
     0
  9
$PSLTSCALE
 70
     1
  9
$TREEDEPTH
 70
  3020
  9
$PICKSTYLE
 70
     1
  9
$CMLSTYLE
  2
STANDARD
  9
$CMLJUST
 70
     0
  9
$CMLSCALE
 40
1.0
  9
$PROXYGRAPHICS
 70
     1
  9
$MEASUREMENT
 70
     1
  0
ENDSEC
  0
SECTION
  2
CLASSES
  0
CLASS
  1
ACDBDICTIONARYWDFLT
  2
AcDbDictionaryWithDefault
  3
AutoCAD 2000
 90
        0
280
     0
281
     0
  0
CLASS
  1
ACDBPLACEHOLDER
  2
AcDbPlaceHolder
  3
AutoCAD 2000
 90
        0
280
     0
281
     0
  0
CLASS
  1
LAYOUT
  2
AcDbLayout
  3
AutoCAD 2000
 90
        0
280
     0
281
     0
  0
CLASS
  1
LONG_TRANSACTION
  2
AcDbLongTransaction
  3
AutoCAD 2000
 90
        0
280
     0
281
     0
  0
CLASS
  1
LWPOLYLINE
  2
AcDbPolyline
  3
AutoCAD 2000
 90
        0
280
     0
281
     1
  0
CLASS
  1
HATCH
  2
AcDbHatch
  3
AutoCAD 2000
 90
        0
280
     0
281
     1
  0
CLASS
  1
XRECORD
  2
AcDbXrecord
  3
AutoCAD 2000
 90
        0
280
     0
281
     0
  0
CLASS
  1
LONG_TRANSACTION
  2
AcDbLongTransaction
  3
AutoCAD 2000
 90
        0
280
     0
281
     0
  0
CLASS
  1
LWPOLYLINE
  2
AcDbPolyline
  3
AutoCAD 2000
 90
        0
280
     0
281
     1
  0
CLASS
  1
HATCH
  2
AcDbHatch
  3
AutoCAD 2000
 90
        0
280
     0
281
     1
  0
CLASS
  1
XRECORD
  2
AcDbXrecord
  3
AutoCAD 2000
 90
        0
280
     0
281
     0
  0
CLASS
  1
LONG_TRANSACTION
  2
AcDbLongTransaction
  3
AutoCAD 2000
 90
        0
280
     0
281
     0
  0
CLASS
  1
LWPOLYLINE
  2
AcDbPolyline
  3
AutoCAD 2000
 90
        0
280
     0
281
     1
  0
CLASS
  1
HATCH
  2
AcDbHatch
  3
AutoCAD 2000
 90
        0
280
     0
281
     1
  0
CLASS
  1
XRECORD
  2
AcDbXrecord
  3
AutoCAD 2000
 90
        0
280
     0
281
     0
  0
CLASS
  1
LONG_TRANSACTION
  2
AcDbLongTransaction
  3
AutoCAD 2000
 90
        0
280
     0
281
     0
  0
CLASS
  1
LWPOLYLINE
  2
AcDbPolyline
  3
AutoCAD 2000
 90
        0
280
     0
281
     1
  0
CLASS
  1
HATCH
  2
AcDbHatch
  3
AutoCAD 2000
 90
        0
280
     0
281
     1
  0
CLASS
  1
XRECORD
  2
AcDbXrecord
  3
AutoCAD 2000
 90
        0
280
     0
281
     0
  0
ENDSEC
  0
SECTION
  2
TABLES
  0
TABLE
  2
VPORT
  5
8
330
0
100
AcDbSymbolTable
 70
     3
  0
VPORT
  5
1B29
330
8
100
AcDbSymbolTableRecord
100
AcDbViewportTableRecord
  2
*ACTIVE
 70
     0
 10
0.0
 20
0.0
 11
1.0
 21
1.0
 12
386.5117064114296
 22
265.2619342316737
 13
0.0
 23
0.0
 14
5.0
 24
5.0
 15
0.0
 25
0.0
 16
0.0
 26
0.0
 36
1.0
 17
0.0
 27
0.0
 37
0.0
 40
619.4184739575701
 41
1.566326530612244
 42
50.0
 43
0.0
 44
0.0
 50
0.0
 51
0.0
 71
     0
 72
   100
 73
     1
 74
     0
 75
     0
 76
     0
 77
     0
 78
     0
  0
ENDTAB
  0
TABLE
  2
LTYPE
  5
5
330
0
100
AcDbSymbolTable
 70
     3
  0
LTYPE
  5
14
330
5
100
AcDbSymbolTableRecord
100
AcDbLinetypeTableRecord
  2
BYBLOCK
 70
     0
  3

 72
    65
 73
     0
 40
0.0
  0
LTYPE
  5
15
330
5
100
AcDbSymbolTableRecord
100
AcDbLinetypeTableRecord
  2
BYLAYER
 70
     0
  3

 72
    65
 73
     0
 40
0.0
  0
LTYPE
  5
16
330
5
100
AcDbSymbolTableRecord
100
AcDbLinetypeTableRecord
  2
CONTINUOUS
 70
     0
  3
Solid line
 72
    65
 73
     0
 40
0.0
  0
LTYPE
  5
135
330
5
100
AcDbSymbolTableRecord
100
AcDbLinetypeTableRecord
  2
CENTER
 70
     0
  3
____ _ ____ _ ____ _ ____ _ ____ _ ____ _ ____ 
 72
    65
 73
     4
 40
2.0
 49
1.25
 74
     0
 49
-0.25
 74
     0
 49
0.25
 74
     0
 49
-0.25
 74
     0
  0
LTYPE
  5
1447
330
5
100
AcDbSymbolTableRecord
100
AcDbLinetypeTableRecord
  2
PHANTOM
 70
     0
  3
______  __  __  ______  __  __  ______  __  __ 
 72
    65
 73
     6
 40
2.5
 49
1.25
 74
     0
 49
-0.25
 74
     0
 49
0.25
 74
     0
 49
-0.25
 74
     0
 49
0.25
 74
     0
 49
-0.25
 74
     0
  0
ENDTAB
  0
TABLE
  2
LAYER
  5
2
330
0
100
AcDbSymbolTable
 70
     9
  0
LAYER
  5
F
330
2
100
AcDbSymbolTableRecord
100
AcDbLayerTableRecord
  2
0
 70
     0
 62
     7
  6
CONTINUOUS
  0
LAYER
  5
62
330
2
100
AcDbSymbolTableRecord
100
AcDbLayerTableRecord
  2
VIEWPORT
 70
     0
 62
     7
  6
CONTINUOUS
  0
LAYER
  5
65
330
2
100
AcDbSymbolTableRecord
100
AcDbLayerTableRecord
  2
ZUWAKU
 70
     0
 62
     7
  6
CONTINUOUS
  0
LAYER
  5
68B
330
2
100
AcDbSymbolTableRecord
100
AcDbLayerTableRecord
  2
DEFPOINTS
 70
     0
 62
     7
  6
CONTINUOUS
  0
LAYER
  5
9AD
330
2
100
AcDbSymbolTableRecord
100
AcDbLayerTableRecord
  2
SEIHIN
 70
     0
 62
     3
  6
CONTINUOUS
  0
LAYER
  5
9AE
330
2
100
AcDbSymbolTableRecord
100
AcDbLayerTableRecord
  2
SUNPOU
 70
     0
 62
     4
  6
CONTINUOUS
  0
LAYER
  5
9AF
330
2
100
AcDbSymbolTableRecord
100
AcDbLayerTableRecord
  2
CENTER_L
 70
     0
 62
     1
  6
CENTER
  0
LAYER
  5
1448
330
2
100
AcDbSymbolTableRecord
100
AcDbLayerTableRecord
  2
NOKITOI
 70
     0
 62
     8
  6
PHANTOM
  0
LAYER
  5
1836
330
2
100
AcDbSymbolTableRecord
100
AcDbLayerTableRecord
  2
MOJI
 70
     0
 62
     2
  6
CONTINUOUS
  0
ENDTAB
  0
TABLE
  2
STYLE
  5
3
330
0
100
AcDbSymbolTable
 70
     2
  0
STYLE
  5
10
330
3
100
AcDbSymbolTableRecord
100
AcDbTextStyleTableRecord
  2
STANDARD
 70
     0
 40
0.0
 41
1.0
 50
0.0
 71
     0
 42
8.0
  3
TXT
  4
bigfont.shx
  0
STYLE
  5
1837
330
3
100
AcDbSymbolTableRecord
100
AcDbTextStyleTableRecord
  2
ｽﾀｲﾙ1
 70
     0
 40
0.0
 41
1.0
 50
0.0
 71
     0
 42
2.5
  3
MS PGothic.ttf
  4

1001
ACAD
1000
MS PGothic
1071
    32818
  0
ENDTAB
  0
TABLE
  2
VIEW
  5
6
330
0
100
AcDbSymbolTable
 70
     0
  0
ENDTAB
  0
TABLE
  2
UCS
  5
7
330
0
100
AcDbSymbolTable
 70
     0
  0
ENDTAB
  0
TABLE
  2
APPID
  5
9
330
0
100
AcDbSymbolTable
 70
     1
  0
APPID
  5
11
330
9
100
AcDbSymbolTableRecord
100
AcDbRegAppTableRecord
  2
ACAD
 70
     0
  0
ENDTAB
  0
TABLE
  2
DIMSTYLE
  5
A
330
0
100
AcDbSymbolTable
 70
     1
  0
DIMSTYLE
105
1D
102
{ACAD_REACTORS
330
C26
330
C35
330
C69
330
C79
330
CD3
330
CEB
330
CF8
330
D84
330
D85
330
D86
330
D88
330
D8D
330
DF9
330
E04
102
}
330
A
100
AcDbSymbolTableRecord
100
AcDbDimStyleTableRecord
  2
STANDARD
 70
     0
  3

  4

  5

  6

  7

 40
1.0
 41
0.18
 42
0.0625
 43
0.38
 44
0.18
 45
0.0
 46
0.0
 47
0.0
 48
0.0
140
0.18
141
0.09
142
0.0
143
25.4
144
1.0
145
0.0
146
1.0
147
0.09
 71
     0
 72
     0
 73
     1
 74
     1
 75
     0
 76
     0
 77
     0
 78
     0
170
     0
171
     2
172
     0
173
     0
174
     0
175
     0
176
     0
177
     0
178
     0
270
     2
271
     4
272
     4
273
     2
274
     2
340
10
275
     0
280
     0
281
     0
282
     0
283
     1
284
     0
285
     0
286
     0
287
     3
288
     0
  0
ENDTAB
  0
TABLE
  2
BLOCK_RECORD
  5
1
330
0
100
AcDbSymbolTable
 70
    15
  0
BLOCK_RECORD
  5
1A
102
{ACAD_XDICTIONARY
360
1289
102
}
330
1
100
AcDbSymbolTableRecord
100
AcDbBlockTableRecord
  2
*MODEL_SPACE
  0
BLOCK_RECORD
  5
17
102
{ACAD_XDICTIONARY
360
1287
102
}
330
1
100
AcDbSymbolTableRecord
100
AcDbBlockTableRecord
  2
*PAPER_SPACE
  0
BLOCK_RECORD
  5
6D
330
1
100
AcDbSymbolTableRecord
100
AcDbBlockTableRecord
  2
_OPEN
  0
BLOCK_RECORD
  5
C1A
330
1
100
AcDbSymbolTableRecord
100
AcDbBlockTableRecord
  2
*D1
  0
BLOCK_RECORD
  5
C27
330
1
100
AcDbSymbolTableRecord
100
AcDbBlockTableRecord
  2
*D2
  0
BLOCK_RECORD
  5
C5D
330
1
100
AcDbSymbolTableRecord
100
AcDbBlockTableRecord
  2
*D3
  0
BLOCK_RECORD
  5
C6D
330
1
100
AcDbSymbolTableRecord
100
AcDbBlockTableRecord
  2
*D4
  0
BLOCK_RECORD
  5
CC7
330
1
100
AcDbSymbolTableRecord
100
AcDbBlockTableRecord
  2
*D5
  0
BLOCK_RECORD
  5
CDF
330
1
100
AcDbSymbolTableRecord
100
AcDbBlockTableRecord
  2
*D6
  0
BLOCK_RECORD
  5
CEC
330
1
100
AcDbSymbolTableRecord
100
AcDbBlockTableRecord
  2
*D7
  0
BLOCK_RECORD
  5
E0A
330
1
100
AcDbSymbolTableRecord
100
AcDbBlockTableRecord
  2
*D8
  0
BLOCK_RECORD
  5
E16
330
1
100
AcDbSymbolTableRecord
100
AcDbBlockTableRecord
  2
*D9
  0
BLOCK_RECORD
  5
E24
330
1
100
AcDbSymbolTableRecord
100
AcDbBlockTableRecord
  2
*D10
  0
BLOCK_RECORD
  5
E30
330
1
100
AcDbSymbolTableRecord
100
AcDbBlockTableRecord
  2
*D11
  0
BLOCK_RECORD
  5
E3C
330
1
100
AcDbSymbolTableRecord
100
AcDbBlockTableRecord
  2
*D12
  0
BLOCK_RECORD
  5
E48
330
1
100
AcDbSymbolTableRecord
100
AcDbBlockTableRecord
  2
*D13
  0
BLOCK_RECORD
  5
E54
330
1
100
AcDbSymbolTableRecord
100
AcDbBlockTableRecord
  2
*D14
  0
ENDTAB
  0
ENDSEC
  0
SECTION
  2
BLOCKS
  0
BLOCK
  5
1B
330
1A
100
AcDbEntity
  8
0
100
AcDbBlockBegin
  2
*MODEL_SPACE
 70
     0
 10
0.0
 20
0.0
 30
0.0
  3
*MODEL_SPACE
  1

  0
ENDBLK
  5
1C
330
1A
100
AcDbEntity
  8
0
100
AcDbBlockEnd
  0
BLOCK
  5
18
330
17
100
AcDbEntity
 67
     1
  8
0
100
AcDbBlockBegin
  2
*PAPER_SPACE
 70
     0
 10
0.0
 20
0.0
 30
0.0
  3
*PAPER_SPACE
  1

  0
ENDBLK
  5
19
330
17
100
AcDbEntity
 67
     1
  8
0
100
AcDbBlockEnd
  0
BLOCK
  5
6E
330
6D
100
AcDbEntity
  8
0
100
AcDbBlockBegin
  2
_OPEN
 70
     0
 10
0.0
 20
0.0
 30
0.0
  3
_OPEN
  1

  0
LINE
  5
6F
330
6D
100
AcDbEntity
  8
0
  6
BYBLOCK
 62
     0
100
AcDbLine
 10
-1.0
 20
0.1666666666666666
 30
0.0
 11
0.0
 21
0.0
 31
0.0
  0
LINE
  5
70
330
6D
100
AcDbEntity
  8
0
  6
BYBLOCK
 62
     0
100
AcDbLine
 10
0.0
 20
0.0
 30
0.0
 11
-1.0
 21
-0.1666666666666666
 31
0.0
  0
LINE
  5
71
330
6D
100
AcDbEntity
  8
0
  6
BYBLOCK
 62
     0
100
AcDbLine
 10
0.0
 20
0.0
 30
0.0
 11
-1.0
 21
0.0
 31
0.0
  0
ENDBLK
  5
72
330
6D
100
AcDbEntity
  8
0
100
AcDbBlockEnd
  0
BLOCK
  5
ED7
330
C1A
100
AcDbEntity
  8
0
100
AcDbBlockBegin
  2
*D1
 70
     1
 10
0.0
 20
0.0
 30
0.0
  3
*D1
  1

  0
LINE
  5
1A5E
330
C1A
100
AcDbEntity
  8
SUNPOU
100
AcDbLine
 10
551.2303028693903
 20
441.2117380910474
 30
0.0
 11
517.804849084011
 21
441.2117380910474
 31
0.0
  0
LINE
  5
1A5F
330
C1A
100
AcDbEntity
  8
SUNPOU
100
AcDbLine
 10
551.1815520693903
 20
411.2117380910474
 30
0.0
 11
517.804849084011
 21
411.2117380910474
 31
0.0
  0
LINE
  5
1A60
330
C1A
100
AcDbEntity
  8
SUNPOU
100
AcDbLine
 10
520.804849084011
 20
434.2117380910473
 30
0.0
 11
520.804849084011
 21
418.2117380910473
 31
0.0
  0
INSERT
  5
1A61
330
C1A
100
AcDbEntity
  8
SUNPOU
100
AcDbBlockReference
  2
_OPEN
 10
520.804849084011
 20
441.2117380910474
 30
0.0
 41
7.0
 42
7.0
 43
7.0
 50
90.0
  0
INSERT
  5
1A62
330
C1A
100
AcDbEntity
  8
SUNPOU
100
AcDbBlockReference
  2
_OPEN
 10
520.804849084011
 20
411.2117380910474
 30
0.0
 41
7.0
 42
7.0
 43
7.0
 50
270.0
  0
MTEXT
  5
1A63
330
C1A
100
AcDbEntity
  8
SUNPOU
100
AcDbMText
 10
515.8048490840108
 20
426.2117380910474
 30
0.0
 40
6.0
 41
0.0
 71
     5
 72
     1
  1
\A1;30
 11
0.0000000000000001
 21
1.0
 31
0.0
1001
ACAD
1000
MTEXTBEGIN
1070
    73
1070
     1
1070
    44
1040
1.0
1070
    74
1070
     0
1000
MTEXTEND
  0
POINT
  5
1A64
330
C1A
100
AcDbEntity
  8
DEFPOINTS
 62
     0
100
AcDbPoint
 10
557.2303028693903
 20
441.2117380910474
 30
0.0
  0
POINT
  5
1A65
330
C1A
100
AcDbEntity
  8
DEFPOINTS
 62
     0
100
AcDbPoint
 10
557.1815520693903
 20
411.2117380910474
 30
0.0
  0
POINT
  5
1A66
330
C1A
100
AcDbEntity
  8
DEFPOINTS
 62
     0
100
AcDbPoint
 10
520.804849084011
 20
411.2117380910474
 30
0.0
  0
ENDBLK
  5
EE1
330
C1A
100
AcDbEntity
  8
0
100
AcDbBlockEnd
  0
BLOCK
  5
D31
330
C27
100
AcDbEntity
  8
0
100
AcDbBlockBegin
  2
*D2
 70
     1
 10
0.0
 20
0.0
 30
0.0
  3
*D2
  1

  0
LINE
  5
1A55
330
C27
100
AcDbEntity
  8
SUNPOU
100
AcDbLine
 10
710.6700257693903
 20
441.2117380910474
 30
0.0
 11
744.257051844685
 21
441.2117380910474
 31
0.0
  0
LINE
  5
1A56
330
C27
100
AcDbEntity
  8
SUNPOU
100
AcDbLine
 10
699.9326795693903
 20
416.7117380910474
 30
0.0
 11
744.257051844685
 21
416.7117380910474
 31
0.0
  0
LINE
  5
1A57
330
C27
100
AcDbEntity
  8
SUNPOU
100
AcDbLine
 10
741.257051844685
 20
434.2117380910473
 30
0.0
 11
741.257051844685
 21
423.7117380910474
 31
0.0
  0
INSERT
  5
1A58
330
C27
100
AcDbEntity
  8
SUNPOU
100
AcDbBlockReference
  2
_OPEN
 10
741.257051844685
 20
441.2117380910474
 30
0.0
 41
7.0
 42
7.0
 43
7.0
 50
90.0
  0
INSERT
  5
1A59
330
C27
100
AcDbEntity
  8
SUNPOU
100
AcDbBlockReference
  2
_OPEN
 10
741.257051844685
 20
416.7117380910474
 30
0.0
 41
7.0
 42
7.0
 43
7.0
 50
270.0
  0
MTEXT
  5
1A5A
330
C27
100
AcDbEntity
  8
SUNPOU
100
AcDbMText
 10
736.2570518446849
 20
428.9617380910475
 30
0.0
 40
6.0
 41
0.0
 71
     5
 72
     1
  1
\A1;※25
 11
0.0000000000000001
 21
1.0
 31
0.0
1001
ACAD
1000
MTEXTBEGIN
1070
    73
1070
     1
1070
    44
1040
1.0
1070
    74
1070
     0
1000
MTEXTEND
  0
POINT
  5
1A5B
330
C27
100
AcDbEntity
  8
DEFPOINTS
 62
     0
100
AcDbPoint
 10
704.6700257693903
 20
441.2117380910474
 30
0.0
  0
POINT
  5
1A5C
330
C27
100
AcDbEntity
  8
DEFPOINTS
 62
     0
100
AcDbPoint
 10
693.9326795693903
 20
416.7117380910474
 30
0.0
  0
POINT
  5
1A5D
330
C27
100
AcDbEntity
  8
DEFPOINTS
 62
     0
100
AcDbPoint
 10
741.257051844685
 20
416.7117380910474
 30
0.0
  0
ENDBLK
  5
D3D
330
C27
100
AcDbEntity
  8
0
100
AcDbBlockEnd
  0
BLOCK
  5
F19
330
C5D
100
AcDbEntity
  8
0
100
AcDbBlockBegin
  2
*D3
 70
     1
 10
0.0
 20
0.0
 30
0.0
  3
*D3
  1

  0
LINE
  5
1A28
330
C5D
100
AcDbEntity
  8
SUNPOU
100
AcDbLine
 10
706.9200257693903
 20
238.3987885910473
 30
0.0
 11
706.9200257693903
 21
320.7654521551494
 31
0.0
  0
LINE
  5
1A29
330
C5D
100
AcDbEntity
  8
SUNPOU
100
AcDbLine
 10
556.4906211623964
 20
198.8702629910333
 30
0.0
 11
556.4906211623964
 21
320.7654521551494
 31
0.0
  0
LINE
  5
1A2A
330
C5D
100
AcDbEntity
  8
SUNPOU
100
AcDbLine
 10
699.9200257693903
 20
317.7654521551494
 30
0.0
 11
563.4906211623964
 21
317.7654521551494
 31
0.0
  0
INSERT
  5
1A2B
330
C5D
100
AcDbEntity
  8
SUNPOU
100
AcDbBlockReference
  2
_OPEN
 10
706.9200257693903
 20
317.7654521551494
 30
0.0
 41
7.0
 42
7.0
 43
7.0
  0
INSERT
  5
1A2C
330
C5D
100
AcDbEntity
  8
SUNPOU
100
AcDbBlockReference
  2
_OPEN
 10
556.4906211623964
 20
317.7654521551494
 30
0.0
 41
7.0
 42
7.0
 43
7.0
 50
180.0
  0
MTEXT
  5
1A2D
330
C5D
100
AcDbEntity
  8
SUNPOU
100
AcDbMText
 10
631.7053234658933
 20
322.7654521551494
 30
0.0
 40
6.0
 41
0.0
 71
     5
 72
     1
  1
\A1;150
1001
ACAD
1000
MTEXTBEGIN
1070
    73
1070
     1
1070
    44
1040
1.0
1070
    74
1070
     0
1000
MTEXTEND
  0
POINT
  5
1A2E
330
C5D
100
AcDbEntity
  8
DEFPOINTS
 62
     0
100
AcDbPoint
 10
706.9200257693903
 20
232.3987885910473
 30
0.0
  0
POINT
  5
1A2F
330
C5D
100
AcDbEntity
  8
DEFPOINTS
 62
     0
100
AcDbPoint
 10
556.4906211623964
 20
192.8702629910334
 30
0.0
  0
POINT
  5
1A30
330
C5D
100
AcDbEntity
  8
DEFPOINTS
 62
     0
100
AcDbPoint
 10
556.4906211623964
 20
317.7654521551494
 30
0.0
  0
ENDBLK
  5
F23
330
C5D
100
AcDbEntity
  8
0
100
AcDbBlockEnd
  0
BLOCK
  5
ECC
330
C6D
100
AcDbEntity
  8
0
100
AcDbBlockBegin
  2
*D4
 70
     1
 10
0.0
 20
0.0
 30
0.0
  3
*D4
  1

  0
LINE
  5
1A4C
330
C6D
100
AcDbEntity
  8
SUNPOU
100
AcDbLine
 10
567.5538961693903
 20
280.9297410910473
 30
0.0
 11
516.8749856665646
 21
280.9297410910473
 31
0.0
  0
LINE
  5
1A4D
330
C6D
100
AcDbEntity
  8
SUNPOU
100
AcDbLine
 10
629.3924982306416
 20
164.7824348699448
 30
0.0
 11
516.8749856665645
 21
164.7824348699448
 31
0.0
  0
LINE
  5
1A4E
330
C6D
100
AcDbEntity
  8
SUNPOU
100
AcDbLine
 10
519.8749856665646
 20
273.9297410910473
 30
0.0
 11
519.8749856665645
 21
171.7824348699448
 31
0.0
  0
INSERT
  5
1A4F
330
C6D
100
AcDbEntity
  8
SUNPOU
100
AcDbBlockReference
  2
_OPEN
 10
519.8749856665646
 20
280.9297410910473
 30
0.0
 41
7.0
 42
7.0
 43
7.0
 50
90.0
  0
INSERT
  5
1A50
330
C6D
100
AcDbEntity
  8
SUNPOU
100
AcDbBlockReference
  2
_OPEN
 10
519.8749856665645
 20
164.7824348699448
 30
0.0
 41
7.0
 42
7.0
 43
7.0
 50
270.0
  0
MTEXT
  5
1A51
330
C6D
100
AcDbEntity
  8
SUNPOU
100
AcDbMText
 10
514.8749856665644
 20
222.8560879804962
 30
0.0
 40
6.0
 41
0.0
 71
     5
 72
     1
  1
\A1;116
 11
0.0000000000000001
 21
1.0
 31
0.0
1001
ACAD
1000
MTEXTBEGIN
1070
    73
1070
     1
1070
    44
1040
1.0
1070
    74
1070
     0
1000
MTEXTEND
  0
POINT
  5
1A52
330
C6D
100
AcDbEntity
  8
DEFPOINTS
 62
     0
100
AcDbPoint
 10
573.5538961693903
 20
280.9297410910473
 30
0.0
  0
POINT
  5
1A53
330
C6D
100
AcDbEntity
  8
DEFPOINTS
 62
     0
100
AcDbPoint
 10
635.3924982306416
 20
164.7824348699448
 30
0.0
  0
POINT
  5
1A54
330
C6D
100
AcDbEntity
  8
DEFPOINTS
 62
     0
100
AcDbPoint
 10
519.8749856665645
 20
164.7824348699448
 30
0.0
  0
ENDBLK
  5
ED6
330
C6D
100
AcDbEntity
  8
0
100
AcDbBlockEnd
  0
BLOCK
  5
F47
330
CC7
100
AcDbEntity
  8
0
100
AcDbBlockBegin
  2
*D5
 70
     1
 10
0.0
 20
0.0
 30
0.0
  3
*D5
  1

  0
LINE
  5
1A43
330
CC7
100
AcDbEntity
  8
SUNPOU
100
AcDbLine
 10
705.4298450693903
 20
240.2824348910473
 30
0.0
 11
743.9229195632979
 21
240.2824348910473
 31
0.0
  0
LINE
  5
1A44
330
CC7
100
AcDbEntity
  8
SUNPOU
100
AcDbLine
 10
641.3924982306416
 20
164.7824348699448
 30
0.0
 11
743.9229195632979
 21
164.7824348699448
 31
0.0
  0
LINE
  5
1A45
330
CC7
100
AcDbEntity
  8
SUNPOU
100
AcDbLine
 10
740.9229195632978
 20
233.2824348910472
 30
0.0
 11
740.9229195632978
 21
171.7824348699448
 31
0.0
  0
INSERT
  5
1A46
330
CC7
100
AcDbEntity
  8
SUNPOU
100
AcDbBlockReference
  2
_OPEN
 10
740.9229195632978
 20
240.2824348910473
 30
0.0
 41
7.0
 42
7.0
 43
7.0
 50
90.0
  0
INSERT
  5
1A47
330
CC7
100
AcDbEntity
  8
SUNPOU
100
AcDbBlockReference
  2
_OPEN
 10
740.9229195632978
 20
164.7824348699448
 30
0.0
 41
7.0
 42
7.0
 43
7.0
 50
270.0
  0
MTEXT
  5
1A48
330
CC7
100
AcDbEntity
  8
SUNPOU
100
AcDbMText
 10
735.9229195632979
 20
202.5324348804961
 30
0.0
 40
6.0
 41
0.0
 71
     5
 72
     1
  1
\A1;76
 11
0.0000000000000001
 21
1.0
 31
0.0
1001
ACAD
1000
MTEXTBEGIN
1070
    73
1070
     1
1070
    44
1040
1.0
1070
    74
1070
     0
1000
MTEXTEND
  0
POINT
  5
1A49
330
CC7
100
AcDbEntity
  8
DEFPOINTS
 62
     0
100
AcDbPoint
 10
699.4298450693904
 20
240.2824348910473
 30
0.0
  0
POINT
  5
1A4A
330
CC7
100
AcDbEntity
  8
DEFPOINTS
 62
     0
100
AcDbPoint
 10
635.3924982306416
 20
164.7824348699448
 30
0.0
  0
POINT
  5
1A4B
330
CC7
100
AcDbEntity
  8
DEFPOINTS
 62
     0
100
AcDbPoint
 10
740.9229195632978
 20
164.7824348699448
 30
0.0
  0
ENDBLK
  5
F51
330
CC7
100
AcDbEntity
  8
0
100
AcDbBlockEnd
  0
BLOCK
  5
F0E
330
CDF
100
AcDbEntity
  8
0
100
AcDbBlockBegin
  2
*D6
 70
     1
 10
0.0
 20
0.0
 30
0.0
  3
*D6
  1

  0
LINE
  5
1A31
330
CDF
100
AcDbEntity
  8
SUNPOU
100
AcDbLine
 10
706.9200257693903
 20
238.3987885910473
 30
0.0
 11
706.9200257693903
 21
306.5300895180512
 31
0.0
  0
LINE
  5
1A32
330
CDF
100
AcDbEntity
  8
SUNPOU
100
AcDbLine
 10
642.1568729680274
 20
246.2824348910473
 30
0.0
 11
642.1568729680274
 21
306.5300895180512
 31
0.0
  0
LINE
  5
1A33
330
CDF
100
AcDbEntity
  8
SUNPOU
100
AcDbLine
 10
699.9200257693903
 20
303.5300895180512
 30
0.0
 11
649.1568729680274
 21
303.5300895180512
 31
0.0
  0
INSERT
  5
1A34
330
CDF
100
AcDbEntity
  8
SUNPOU
100
AcDbBlockReference
  2
_OPEN
 10
706.9200257693903
 20
303.5300895180512
 30
0.0
 41
7.0
 42
7.0
 43
7.0
  0
INSERT
  5
1A35
330
CDF
100
AcDbEntity
  8
SUNPOU
100
AcDbBlockReference
  2
_OPEN
 10
642.1568729680274
 20
303.5300895180512
 30
0.0
 41
7.0
 42
7.0
 43
7.0
 50
180.0
  0
MTEXT
  5
1A36
330
CDF
100
AcDbEntity
  8
SUNPOU
100
AcDbMText
 10
674.5384493687088
 20
308.5300895180512
 30
0.0
 40
6.0
 41
0.0
 71
     5
 72
     1
  1
\A1;65
1001
ACAD
1000
MTEXTBEGIN
1070
    73
1070
     1
1070
    44
1040
1.0
1070
    74
1070
     0
1000
MTEXTEND
  0
POINT
  5
1A37
330
CDF
100
AcDbEntity
  8
DEFPOINTS
 62
     0
100
AcDbPoint
 10
706.9200257693903
 20
232.3987885910473
 30
0.0
  0
POINT
  5
1A38
330
CDF
100
AcDbEntity
  8
DEFPOINTS
 62
     0
100
AcDbPoint
 10
642.1568729680274
 20
240.2824348910473
 30
0.0
  0
POINT
  5
1A39
330
CDF
100
AcDbEntity
  8
DEFPOINTS
 62
     0
100
AcDbPoint
 10
642.1568729680274
 20
303.5300895180512
 30
0.0
  0
ENDBLK
  5
F18
330
CDF
100
AcDbEntity
  8
0
100
AcDbBlockEnd
  0
BLOCK
  5
F03
330
CEC
100
AcDbEntity
  8
0
100
AcDbBlockBegin
  2
*D7
 70
     1
 10
0.0
 20
0.0
 30
0.0
  3
*D7
  1

  0
LINE
  5
1A3A
330
CEC
100
AcDbEntity
  8
SUNPOU
100
AcDbLine
 10
642.1568729680274
 20
246.2824348910473
 30
0.0
 11
642.1568729680274
 21
306.5300895180512
 31
0.0
  0
LINE
  5
1A3B
330
CEC
100
AcDbEntity
  8
SUNPOU
100
AcDbLine
 10
602.1568729723457
 20
286.9297410910473
 30
0.0
 11
602.1568729723457
 21
306.5300895180512
 31
0.0
  0
LINE
  5
1A3C
330
CEC
100
AcDbEntity
  8
SUNPOU
100
AcDbLine
 10
635.1568729680273
 20
303.5300895180512
 30
0.0
 11
609.1568729723458
 21
303.5300895180512
 31
0.0
  0
INSERT
  5
1A3D
330
CEC
100
AcDbEntity
  8
SUNPOU
100
AcDbBlockReference
  2
_OPEN
 10
642.1568729680274
 20
303.5300895180512
 30
0.0
 41
7.0
 42
7.0
 43
7.0
  0
INSERT
  5
1A3E
330
CEC
100
AcDbEntity
  8
SUNPOU
100
AcDbBlockReference
  2
_OPEN
 10
602.1568729723457
 20
303.5300895180512
 30
0.0
 41
7.0
 42
7.0
 43
7.0
 50
180.0
  0
MTEXT
  5
1A3F
330
CEC
100
AcDbEntity
  8
SUNPOU
100
AcDbMText
 10
622.1568729701866
 20
308.5300895180512
 30
0.0
 40
6.0
 41
0.0
 71
     5
 72
     1
  1
\A1;40
1001
ACAD
1000
MTEXTBEGIN
1070
    73
1070
     1
1070
    44
1040
1.0
1070
    74
1070
     0
1000
MTEXTEND
  0
POINT
  5
1A40
330
CEC
100
AcDbEntity
  8
DEFPOINTS
 62
     0
100
AcDbPoint
 10
642.1568729680274
 20
240.2824348910473
 30
0.0
  0
POINT
  5
1A41
330
CEC
100
AcDbEntity
  8
DEFPOINTS
 62
     0
100
AcDbPoint
 10
602.1568729723457
 20
280.9297410910473
 30
0.0
  0
POINT
  5
1A42
330
CEC
100
AcDbEntity
  8
DEFPOINTS
 62
     0
100
AcDbPoint
 10
602.1568729723457
 20
303.5300895180512
 30
0.0
  0
ENDBLK
  5
F0D
330
CEC
100
AcDbEntity
  8
0
100
AcDbBlockEnd
  0
BLOCK
  5
EC1
330
E0A
100
AcDbEntity
  8
0
100
AcDbBlockBegin
  2
*D8
 70
     1
 10
0.0
 20
0.0
 30
0.0
  3
*D8
  1

  0
LINE
  5
1A1F
330
E0A
100
AcDbEntity
  8
SUNPOU
100
AcDbLine
 10
266.6031630640437
 20
441.2117380910474
 30
0.0
 11
302.3203280848365
 21
441.2117380910474
 31
0.0
  0
LINE
  5
1A20
330
E0A
100
AcDbEntity
  8
SUNPOU
100
AcDbLine
 10
266.6519138640437
 20
411.2117380910474
 30
0.0
 11
302.3203280848365
 21
411.2117380910474
 31
0.0
  0
LINE
  5
1A21
330
E0A
100
AcDbEntity
  8
SUNPOU
100
AcDbLine
 10
299.3203280848365
 20
434.2117380910473
 30
0.0
 11
299.3203280848365
 21
418.2117380910473
 31
0.0
  0
INSERT
  5
1A22
330
E0A
100
AcDbEntity
  8
SUNPOU
100
AcDbBlockReference
  2
_OPEN
 10
299.3203280848365
 20
441.2117380910474
 30
0.0
 41
7.0
 42
7.0
 43
7.0
 50
90.0
  0
INSERT
  5
1A23
330
E0A
100
AcDbEntity
  8
SUNPOU
100
AcDbBlockReference
  2
_OPEN
 10
299.3203280848365
 20
411.2117380910474
 30
0.0
 41
7.0
 42
7.0
 43
7.0
 50
270.0
  0
MTEXT
  5
1A24
330
E0A
100
AcDbEntity
  8
SUNPOU
100
AcDbMText
 10
294.3203280848364
 20
426.2117380910474
 30
0.0
 40
6.0
 41
0.0
 71
     5
 72
     1
  1
\A1;30
 11
0.0000000000000001
 21
1.0
 31
0.0
1001
ACAD
1000
MTEXTBEGIN
1070
    73
1070
     1
1070
    44
1040
1.0
1070
    74
1070
     0
1000
MTEXTEND
  0
POINT
  5
1A25
330
E0A
100
AcDbEntity
  8
DEFPOINTS
 62
     0
100
AcDbPoint
 10
260.6031630640437
 20
441.2117380910474
 30
0.0
  0
POINT
  5
1A26
330
E0A
100
AcDbEntity
  8
DEFPOINTS
 62
     0
100
AcDbPoint
 10
260.6519138640437
 20
411.2117380910474
 30
0.0
  0
POINT
  5
1A27
330
E0A
100
AcDbEntity
  8
DEFPOINTS
 62
     0
100
AcDbPoint
 10
299.3203280848365
 20
411.2117380910474
 30
0.0
  0
ENDBLK
  5
ECB
330
E0A
100
AcDbEntity
  8
0
100
AcDbBlockEnd
  0
BLOCK
  5
F3A
330
E16
100
AcDbEntity
  8
0
100
AcDbBlockBegin
  2
*D9
 70
     1
 10
0.0
 20
0.0
 30
0.0
  3
*D9
  1

  0
LINE
  5
1A16
330
E16
100
AcDbEntity
  8
SUNPOU
100
AcDbLine
 10
107.1634401640437
 20
441.2117380910474
 30
0.0
 11
81.59740758625821
 21
441.2117380910474
 31
0.0
  0
LINE
  5
1A17
330
E16
100
AcDbEntity
  8
SUNPOU
100
AcDbLine
 10
117.9007863640438
 20
416.7117380910474
 30
0.0
 11
81.59740758625821
 21
416.7117380910474
 31
0.0
  0
LINE
  5
1A18
330
E16
100
AcDbEntity
  8
SUNPOU
100
AcDbLine
 10
84.59740758625821
 20
434.2117380910473
 30
0.0
 11
84.59740758625821
 21
423.7117380910474
 31
0.0
  0
INSERT
  5
1A19
330
E16
100
AcDbEntity
  8
SUNPOU
100
AcDbBlockReference
  2
_OPEN
 10
84.59740758625821
 20
441.2117380910474
 30
0.0
 41
7.0
 42
7.0
 43
7.0
 50
90.0
  0
INSERT
  5
1A1A
330
E16
100
AcDbEntity
  8
SUNPOU
100
AcDbBlockReference
  2
_OPEN
 10
84.59740758625821
 20
416.7117380910474
 30
0.0
 41
7.0
 42
7.0
 43
7.0
 50
270.0
  0
MTEXT
  5
1A1B
330
E16
100
AcDbEntity
  8
SUNPOU
100
AcDbMText
 10
79.59740758625814
 20
428.9617380910473
 30
0.0
 40
6.0
 41
0.0
 71
     5
 72
     1
  1
\A1;※25
 11
0.0000000000000001
 21
1.0
 31
0.0
1001
ACAD
1000
MTEXTBEGIN
1070
    73
1070
     1
1070
    44
1040
1.0
1070
    74
1070
     0
1000
MTEXTEND
  0
POINT
  5
1A1C
330
E16
100
AcDbEntity
  8
DEFPOINTS
 62
     0
100
AcDbPoint
 10
113.1634401640437
 20
441.2117380910474
 30
0.0
  0
POINT
  5
1A1D
330
E16
100
AcDbEntity
  8
DEFPOINTS
 62
     0
100
AcDbPoint
 10
123.9007863640438
 20
416.7117380910474
 30
0.0
  0
POINT
  5
1A1E
330
E16
100
AcDbEntity
  8
DEFPOINTS
 62
     0
100
AcDbPoint
 10
84.59740758625821
 20
416.7117380910474
 30
0.0
  0
ENDBLK
  5
F46
330
E16
100
AcDbEntity
  8
0
100
AcDbBlockEnd
  0
BLOCK
  5
EE2
330
E24
100
AcDbEntity
  8
0
100
AcDbBlockBegin
  2
*D10
 70
     1
 10
0.0
 20
0.0
 30
0.0
  3
*D10
  1

  0
LINE
  5
19E9
330
E24
100
AcDbEntity
  8
SUNPOU
100
AcDbLine
 10
110.9134401640437
 20
238.3987885910473
 30
0.0
 11
110.9134401640437
 21
320.7654521551494
 31
0.0
  0
LINE
  5
19EA
330
E24
100
AcDbEntity
  8
SUNPOU
100
AcDbLine
 10
261.3428447710376
 20
198.8702629910333
 30
0.0
 11
261.3428447710376
 21
320.7654521551494
 31
0.0
  0
LINE
  5
19EB
330
E24
100
AcDbEntity
  8
SUNPOU
100
AcDbLine
 10
117.9134401640437
 20
317.7654521551494
 30
0.0
 11
254.3428447710376
 21
317.7654521551494
 31
0.0
  0
INSERT
  5
19EC
330
E24
100
AcDbEntity
  8
SUNPOU
100
AcDbBlockReference
  2
_OPEN
 10
110.9134401640437
 20
317.7654521551494
 30
0.0
 41
7.0
 42
7.0
 43
7.0
 50
180.0
  0
INSERT
  5
19ED
330
E24
100
AcDbEntity
  8
SUNPOU
100
AcDbBlockReference
  2
_OPEN
 10
261.3428447710376
 20
317.7654521551494
 30
0.0
 41
7.0
 42
7.0
 43
7.0
  0
MTEXT
  5
19EE
330
E24
100
AcDbEntity
  8
SUNPOU
100
AcDbMText
 10
186.1281424675407
 20
322.7654521551494
 30
0.0
 40
6.0
 41
0.0
 71
     5
 72
     1
  1
\A1;150
1001
ACAD
1000
MTEXTBEGIN
1070
    73
1070
     1
1070
    44
1040
1.0
1070
    74
1070
     0
1000
MTEXTEND
  0
POINT
  5
19EF
330
E24
100
AcDbEntity
  8
DEFPOINTS
 62
     0
100
AcDbPoint
 10
110.9134401640437
 20
232.3987885910473
 30
0.0
  0
POINT
  5
19F0
330
E24
100
AcDbEntity
  8
DEFPOINTS
 62
     0
100
AcDbPoint
 10
261.3428447710376
 20
192.8702629910334
 30
0.0
  0
POINT
  5
19F1
330
E24
100
AcDbEntity
  8
DEFPOINTS
 62
     0
100
AcDbPoint
 10
261.3428447710376
 20
317.7654521551494
 30
0.0
  0
ENDBLK
  5
EEC
330
E24
100
AcDbEntity
  8
0
100
AcDbBlockEnd
  0
BLOCK
  5
EB6
330
E30
100
AcDbEntity
  8
0
100
AcDbBlockBegin
  2
*D11
 70
     1
 10
0.0
 20
0.0
 30
0.0
  3
*D11
  1

  0
LINE
  5
1A0D
330
E30
100
AcDbEntity
  8
SUNPOU
100
AcDbLine
 10
250.2795697640438
 20
280.9297410910473
 30
0.0
 11
303.250191502283
 21
280.9297410910473
 31
0.0
  0
LINE
  5
1A0E
330
E30
100
AcDbEntity
  8
SUNPOU
100
AcDbLine
 10
188.4409677027924
 20
164.7824348699448
 30
0.0
 11
303.250191502283
 21
164.7824348699448
 31
0.0
  0
LINE
  5
1A0F
330
E30
100
AcDbEntity
  8
SUNPOU
100
AcDbLine
 10
300.250191502283
 20
273.9297410910473
 30
0.0
 11
300.250191502283
 21
171.7824348699448
 31
0.0
  0
INSERT
  5
1A10
330
E30
100
AcDbEntity
  8
SUNPOU
100
AcDbBlockReference
  2
_OPEN
 10
300.250191502283
 20
280.9297410910473
 30
0.0
 41
7.0
 42
7.0
 43
7.0
 50
90.0
  0
INSERT
  5
1A11
330
E30
100
AcDbEntity
  8
SUNPOU
100
AcDbBlockReference
  2
_OPEN
 10
300.250191502283
 20
164.7824348699448
 30
0.0
 41
7.0
 42
7.0
 43
7.0
 50
270.0
  0
MTEXT
  5
1A12
330
E30
100
AcDbEntity
  8
SUNPOU
100
AcDbMText
 10
295.250191502283
 20
222.856087980496
 30
0.0
 40
6.0
 41
0.0
 71
     5
 72
     1
  1
\A1;116
 11
0.0000000000000001
 21
1.0
 31
0.0
1001
ACAD
1000
MTEXTBEGIN
1070
    73
1070
     1
1070
    44
1040
1.0
1070
    74
1070
     0
1000
MTEXTEND
  0
POINT
  5
1A13
330
E30
100
AcDbEntity
  8
DEFPOINTS
 62
     0
100
AcDbPoint
 10
244.2795697640438
 20
280.9297410910473
 30
0.0
  0
POINT
  5
1A14
330
E30
100
AcDbEntity
  8
DEFPOINTS
 62
     0
100
AcDbPoint
 10
182.4409677027924
 20
164.7824348699448
 30
0.0
  0
POINT
  5
1A15
330
E30
100
AcDbEntity
  8
DEFPOINTS
 62
     0
100
AcDbPoint
 10
300.250191502283
 20
164.7824348699448
 30
0.0
  0
ENDBLK
  5
EC0
330
E30
100
AcDbEntity
  8
0
100
AcDbBlockEnd
  0
BLOCK
  5
F2F
330
E3C
100
AcDbEntity
  8
0
100
AcDbBlockBegin
  2
*D12
 70
     1
 10
0.0
 20
0.0
 30
0.0
  3
*D12
  1

  0
LINE
  5
1A04
330
E3C
100
AcDbEntity
  8
SUNPOU
100
AcDbLine
 10
112.4036208640437
 20
240.2824348910473
 30
0.0
 11
80.78568285875146
 21
240.2824348910473
 31
0.0
  0
LINE
  5
1A05
330
E3C
100
AcDbEntity
  8
SUNPOU
100
AcDbLine
 10
176.4409677027924
 20
164.7824348699448
 30
0.0
 11
80.78568285875144
 21
164.7824348699448
 31
0.0
  0
LINE
  5
1A06
330
E3C
100
AcDbEntity
  8
SUNPOU
100
AcDbLine
 10
83.78568285875145
 20
233.2824348910473
 30
0.0
 11
83.78568285875145
 21
171.7824348699448
 31
0.0
  0
INSERT
  5
1A07
330
E3C
100
AcDbEntity
  8
SUNPOU
100
AcDbBlockReference
  2
_OPEN
 10
83.78568285875145
 20
240.2824348910473
 30
0.0
 41
7.0
 42
7.0
 43
7.0
 50
90.0
  0
INSERT
  5
1A08
330
E3C
100
AcDbEntity
  8
SUNPOU
100
AcDbBlockReference
  2
_OPEN
 10
83.78568285875145
 20
164.7824348699448
 30
0.0
 41
7.0
 42
7.0
 43
7.0
 50
270.0
  0
MTEXT
  5
1A09
330
E3C
100
AcDbEntity
  8
SUNPOU
100
AcDbMText
 10
78.78568285875141
 20
202.5324348804961
 30
0.0
 40
6.0
 41
0.0
 71
     5
 72
     1
  1
\A1;76
 11
0.0000000000000001
 21
1.0
 31
0.0
1001
ACAD
1000
MTEXTBEGIN
1070
    73
1070
     1
1070
    44
1040
1.0
1070
    74
1070
     0
1000
MTEXTEND
  0
POINT
  5
1A0A
330
E3C
100
AcDbEntity
  8
DEFPOINTS
 62
     0
100
AcDbPoint
 10
118.4036208640437
 20
240.2824348910473
 30
0.0
  0
POINT
  5
1A0B
330
E3C
100
AcDbEntity
  8
DEFPOINTS
 62
     0
100
AcDbPoint
 10
182.4409677027924
 20
164.7824348699448
 30
0.0
  0
POINT
  5
1A0C
330
E3C
100
AcDbEntity
  8
DEFPOINTS
 62
     0
100
AcDbPoint
 10
83.78568285875145
 20
164.7824348699448
 30
0.0
  0
ENDBLK
  5
F39
330
E3C
100
AcDbEntity
  8
0
100
AcDbBlockEnd
  0
BLOCK
  5
EF8
330
E48
100
AcDbEntity
  8
0
100
AcDbBlockBegin
  2
*D13
 70
     1
 10
0.0
 20
0.0
 30
0.0
  3
*D13
  1

  0
LINE
  5
19FB
330
E48
100
AcDbEntity
  8
SUNPOU
100
AcDbLine
 10
110.9134401640437
 20
238.3987885910473
 30
0.0
 11
110.9134401640437
 21
306.5300895180512
 31
0.0
  0
LINE
  5
19FC
330
E48
100
AcDbEntity
  8
SUNPOU
100
AcDbLine
 10
175.6765929654067
 20
246.2824348910473
 30
0.0
 11
175.6765929654067
 21
306.5300895180512
 31
0.0
  0
LINE
  5
19FD
330
E48
100
AcDbEntity
  8
SUNPOU
100
AcDbLine
 10
117.9134401640437
 20
303.5300895180512
 30
0.0
 11
168.6765929654067
 21
303.5300895180512
 31
0.0
  0
INSERT
  5
19FE
330
E48
100
AcDbEntity
  8
SUNPOU
100
AcDbBlockReference
  2
_OPEN
 10
110.9134401640437
 20
303.5300895180512
 30
0.0
 41
7.0
 42
7.0
 43
7.0
 50
180.0
  0
INSERT
  5
19FF
330
E48
100
AcDbEntity
  8
SUNPOU
100
AcDbBlockReference
  2
_OPEN
 10
175.6765929654067
 20
303.5300895180512
 30
0.0
 41
7.0
 42
7.0
 43
7.0
  0
MTEXT
  5
1A00
330
E48
100
AcDbEntity
  8
SUNPOU
100
AcDbMText
 10
143.2950165647252
 20
308.5300895180512
 30
0.0
 40
6.0
 41
0.0
 71
     5
 72
     1
  1
\A1;65
1001
ACAD
1000
MTEXTBEGIN
1070
    73
1070
     1
1070
    44
1040
1.0
1070
    74
1070
     0
1000
MTEXTEND
  0
POINT
  5
1A01
330
E48
100
AcDbEntity
  8
DEFPOINTS
 62
     0
100
AcDbPoint
 10
110.9134401640437
 20
232.3987885910473
 30
0.0
  0
POINT
  5
1A02
330
E48
100
AcDbEntity
  8
DEFPOINTS
 62
     0
100
AcDbPoint
 10
175.6765929654067
 20
240.2824348910473
 30
0.0
  0
POINT
  5
1A03
330
E48
100
AcDbEntity
  8
DEFPOINTS
 62
     0
100
AcDbPoint
 10
175.6765929654067
 20
303.5300895180512
 30
0.0
  0
ENDBLK
  5
F02
330
E48
100
AcDbEntity
  8
0
100
AcDbBlockEnd
  0
BLOCK
  5
EED
330
E54
100
AcDbEntity
  8
0
100
AcDbBlockBegin
  2
*D14
 70
     1
 10
0.0
 20
0.0
 30
0.0
  3
*D14
  1

  0
LINE
  5
19F2
330
E54
100
AcDbEntity
  8
SUNPOU
100
AcDbLine
 10
175.6765929654067
 20
246.2824348910473
 30
0.0
 11
175.6765929654067
 21
306.5300895180512
 31
0.0
  0
LINE
  5
19F3
330
E54
100
AcDbEntity
  8
SUNPOU
100
AcDbLine
 10
215.6765929610883
 20
286.9297410910473
 30
0.0
 11
215.6765929610883
 21
306.5300895180512
 31
0.0
  0
LINE
  5
19F4
330
E54
100
AcDbEntity
  8
SUNPOU
100
AcDbLine
 10
182.6765929654067
 20
303.5300895180512
 30
0.0
 11
208.6765929610883
 21
303.5300895180512
 31
0.0
  0
INSERT
  5
19F5
330
E54
100
AcDbEntity
  8
SUNPOU
100
AcDbBlockReference
  2
_OPEN
 10
175.6765929654067
 20
303.5300895180512
 30
0.0
 41
7.0
 42
7.0
 43
7.0
 50
180.0
  0
INSERT
  5
19F6
330
E54
100
AcDbEntity
  8
SUNPOU
100
AcDbBlockReference
  2
_OPEN
 10
215.6765929610883
 20
303.5300895180512
 30
0.0
 41
7.0
 42
7.0
 43
7.0
  0
MTEXT
  5
19F7
330
E54
100
AcDbEntity
  8
SUNPOU
100
AcDbMText
 10
195.6765929632475
 20
308.5300895180512
 30
0.0
 40
6.0
 41
0.0
 71
     5
 72
     1
  1
\A1;40
1001
ACAD
1000
MTEXTBEGIN
1070
    73
1070
     1
1070
    44
1040
1.0
1070
    74
1070
     0
1000
MTEXTEND
  0
POINT
  5
19F8
330
E54
100
AcDbEntity
  8
DEFPOINTS
 62
     0
100
AcDbPoint
 10
175.6765929654067
 20
240.2824348910473
 30
0.0
  0
POINT
  5
19F9
330
E54
100
AcDbEntity
  8
DEFPOINTS
 62
     0
100
AcDbPoint
 10
215.6765929610883
 20
280.9297410910473
 30
0.0
  0
POINT
  5
19FA
330
E54
100
AcDbEntity
  8
DEFPOINTS
 62
     0
100
AcDbPoint
 10
215.6765929610883
 20
303.5300895180512
 30
0.0
  0
ENDBLK
  5
EF7
330
E54
100
AcDbEntity
  8
0
100
AcDbBlockEnd
  0
ENDSEC
  0
SECTION
  2
ENTITIES
  0
LINE
  5
472
330
1A
100
AcDbEntity
  8
SEIHIN
 62
     3
100
AcDbLine
 10
458.468884764235
 20
166.2135540910473
 30
0.0
 11
458.468884764235
 21
190.3599814910473
 31
0.0
  0
LINE
  5
474
330
1A
100
AcDbEntity
  8
SEIHIN
 62
     3
100
AcDbLine
 10
431.4688847642351
 20
166.2824348910473
 30
0.0
 11
431.4688847642351
 21
280.9297410910473
 31
0.0
  0
ARC
  5
475
330
1A
100
AcDbEntity
  8
SEIHIN
 62
     3
100
AcDbCircle
 10
816.7152396693902
 20
254.7629060910473
 30
0.0
 40
252.5000000036571
100
AcDbArc
 50
194.4918558755628
 51
199.8292867129729
  0
LINE
  5
476
330
1A
100
AcDbEntity
  8
SEIHIN
 62
     3
100
AcDbLine
 10
706.9200257693903
 20
232.3987885910473
 30
0.0
 11
703.9171947693903
 21
173.7725187910474
 31
0.0
  0
ARC
  5
477
330
1A
100
AcDbEntity
  8
SEIHIN
 62
     3
100
AcDbCircle
 10
635.3924983693903
 20
1167.282434491047
 30
0.0
 40
1002.499999621102
100
AcDbArc
 50
267.0148646736546
 51
273.5168009159691
  0
ARC
  5
478
330
1A
100
AcDbEntity
  8
SEIHIN
 62
     3
100
AcDbCircle
 10
696.4270134693903
 20
174.1561649910473
 30
0.0
 40
7.500000008574182
100
AcDbArc
 50
273.5168012274343
 51
357.067879277187
  0
ARC
  5
479
330
1A
100
AcDbEntity
  8
SEIHIN
 62
     3
100
AcDbCircle
 10
583.4197795693903
 20
170.6366419910473
 30
0.0
 40
4.499999992071508
100
AcDbArc
 50
199.8292865698936
 51
267.0148650388885
  0
LINE
  5
47C
330
1A
100
AcDbEntity
  8
SEIHIN
 62
     3
100
AcDbLine
 10
451.4688847642351
 20
164.7824348910473
 30
0.0
 11
431.4688847642351
 21
166.2824348910473
 31
0.0
  0
LINE
  5
47F
330
1A
100
AcDbEntity
  8
SEIHIN
 62
     3
100
AcDbLine
 10
451.4688847642351
 20
164.7824348910473
 30
0.0
 11
457.540131764235
 21
165.2160953910473
 31
0.0
  0
ARC
  5
481
330
1A
100
AcDbEntity
  8
SEIHIN
 62
     3
100
AcDbCircle
 10
457.4688847642351
 20
166.2135540910473
 30
0.0
 40
0.9999999983036623
100
AcDbArc
 50
274.0856139224645
 51
0.0
  0
LINE
  5
48F
330
1A
100
AcDbEntity
  8
SEIHIN
 62
     3
100
AcDbLine
 10
572.1770643693903
 20
192.0230264910473
 30
0.0
 11
704.8519837693903
 21
192.0230264910473
 31
0.0
  0
LINE
  5
490
330
1A
100
AcDbEntity
  8
SEIHIN
 62
     3
100
AcDbLine
 10
602.7445455693903
 20
280.3325583910473
 30
0.0
 11
641.5692004693903
 21
240.8796174910473
 31
0.0
  0
LINE
  5
491
330
1A
100
AcDbEntity
  8
SEIHIN
 62
     3
100
AcDbLine
 10
642.9947191693902
 20
240.2824348910473
 30
0.0
 11
699.4298450693904
 21
240.2824348910473
 31
0.0
  0
ARC
  5
492
330
1A
100
AcDbEntity
  8
SEIHIN
 62
     3
100
AcDbCircle
 10
699.4298444693903
 20
232.7824348910473
 30
0.0
 40
7.500000013012467
100
AcDbArc
 50
357.0678785142433
 51
89.99999541633746
  0
ARC
  5
495
330
1A
100
AcDbEntity
  8
SEIHIN
 62
     3
100
AcDbCircle
 10
642.9947191693902
 20
242.2824348910473
 30
0.0
 40
2.000000027724056
100
AcDbArc
 50
224.5401321825877
 51
270.0
  0
ARC
  5
531
330
1A
100
AcDbEntity
  8
SEIHIN
 62
     3
100
AcDbCircle
 10
808.9901216693903
 20
193.3725461910473
 30
0.0
 40
252.5000000885037
100
AcDbArc
 50
160.0289262469002
 51
180.1139751542613
  0
LINE
  5
532
330
1A
100
AcDbEntity
  8
SEIHIN
 62
     3
100
AcDbLine
 10
572.0916709693902
 20
192.0156804910473
 30
0.0
 11
560.0029754693903
 21
189.9203065910473
 31
0.0
  0
ARC
  5
534
330
1A
100
AcDbEntity
  8
SEIHIN
 62
     3
100
AcDbCircle
 10
571.7648849693903
 20
191.4515820910473
 30
0.0
 40
0.499999985640422
100
AcDbArc
 50
14.49185686817685
 51
99.83355718973106
  0
ARC
  5
535
330
1A
100
AcDbEntity
  8
SEIHIN
 62
     3
100
AcDbCircle
 10
572.1770643693903
 20
191.5230264910473
 30
0.0
 40
0.4999999982397916
100
AcDbArc
 50
90.0
 51
99.83356848053105
  0
ARC
  5
536
330
1A
100
AcDbEntity
  8
SEIHIN
 62
     3
100
AcDbCircle
 10
559.4906152693903
 20
192.8762306910473
 30
0.0
 40
3.000000039415265
100
AcDbArc
 50
180.1139747482821
 51
279.8335643907481
  0
LINE
  5
537
330
1A
100
AcDbEntity
  8
SEIHIN
 62
     3
100
AcDbLine
 10
573.5538961693903
 20
280.9297410910473
 30
0.0
 11
601.3190269693902
 21
280.9297410910473
 31
0.0
  0
ARC
  5
538
330
1A
100
AcDbEntity
  8
SEIHIN
 62
     3
100
AcDbCircle
 10
601.3190269693902
 20
278.9297410910473
 30
0.0
 40
1.99999995701566
100
AcDbArc
 50
44.54013215007168
 51
90.0
  0
ARC
  5
539
330
1A
100
AcDbEntity
  8
SEIHIN
 62
     3
100
AcDbCircle
 10
573.5538958693902
 20
278.9297410910473
 30
0.0
 40
2.000000029679802
100
AcDbArc
 50
89.99999140563277
 51
160.0289261447663
  0
LINE
  5
53E
330
1A
100
AcDbEntity
  8
SEIHIN
 62
     3
100
AcDbLine
 10
451.4688847642351
 20
190.3255410910473
 30
0.0
 11
431.4688847642351
 21
191.8255410910473
 31
0.0
  0
LINE
  5
53F
330
1A
100
AcDbEntity
  8
SEIHIN
 62
     3
100
AcDbLine
 10
461.4688847642351
 20
191.9709460910473
 30
0.0
 11
461.4688847642351
 21
280.9297410910473
 31
0.0
  0
LINE
  5
540
330
1A
100
AcDbEntity
  8
SEIHIN
 62
     3
100
AcDbLine
 10
451.4688847642351
 20
190.3255410910473
 30
0.0
 11
460.5401317642351
 21
190.9734873910473
 31
0.0
  0
ARC
  5
541
330
1A
100
AcDbEntity
  8
SEIHIN
 62
     3
100
AcDbCircle
 10
458.968884764235
 20
190.3599814910473
 30
0.0
 40
0.5000000276506598
100
AcDbArc
 50
94.0856249442854
 51
180.0
  0
ARC
  5
542
330
1A
100
AcDbEntity
  8
SEIHIN
 62
     3
100
AcDbCircle
 10
460.4688847642351
 20
191.9709460910473
 30
0.0
 40
0.9999999983036905
100
AcDbArc
 50
274.0856139224644
 51
0.0
  0
LINE
  5
58C
330
1A
100
AcDbEntity
  8
SEIHIN
 62
     3
100
AcDbLine
 10
574.0642354693903
 20
413.7117380910473
 30
0.0
 11
696.4327927693902
 21
413.7117380910473
 31
0.0
  0
LINE
  5
58D
330
1A
100
AcDbEntity
  8
SEIHIN
 62
     3
100
AcDbLine
 10
557.2303028693903
 20
441.2117380910474
 30
0.0
 11
704.6700257693903
 21
441.2117380910474
 31
0.0
  0
LINE
  5
58E
330
1A
100
AcDbEntity
  8
SEIHIN
 62
     3
100
AcDbLine
 10
557.1815520693903
 20
411.2117380910474
 30
0.0
 11
704.7187765693903
 21
411.2117380910474
 31
0.0
  0
LINE
  5
61A
330
1A
100
AcDbEntity
  8
SEIHIN
 62
     3
100
AcDbLine
 10
556.1827997693903
 20
412.1618004910473
 30
0.0
 11
555.7303028693903
 21
421.2117380910473
 31
0.0
  0
LINE
  5
61B
330
1A
100
AcDbEntity
  8
SEIHIN
 62
     3
100
AcDbLine
 10
555.7303028693903
 20
421.2117380910473
 30
0.0
 11
557.2303028693903
 21
441.2117380910474
 31
0.0
  0
ARC
  5
61D
330
1A
100
AcDbEntity
  8
SEIHIN
 62
     3
100
AcDbCircle
 10
557.1815520693903
 20
412.2117380910474
 30
0.0
 40
0.9999999801622518
100
AcDbArc
 50
182.8624043677485
 51
270.0
  0
LINE
  5
61F
330
1A
100
AcDbEntity
  8
SEIHIN
 62
     3
100
AcDbLine
 10
601.3942350693903
 20
411.2117256910474
 30
0.0
 11
601.3942350693903
 21
413.7117380910473
 31
0.0
  0
LINE
  5
620
330
1A
100
AcDbEntity
  8
SEIHIN
 62
     3
100
AcDbLine
 10
641.3942350693903
 20
411.2117256910474
 30
0.0
 11
641.3942350693903
 21
413.7117380910473
 31
0.0
  0
LINE
  5
622
330
1A
100
AcDbEntity
  8
SEIHIN
 62
     3
100
AcDbLine
 10
571.3942403693903
 20
441.2117380910474
 30
0.0
 11
571.3942350693903
 21
411.2117380910474
 31
0.0
  0
LINE
  5
62D
330
1A
100
AcDbEntity
  8
SEIHIN
 62
     3
100
AcDbLine
 10
574.0642403693903
 20
441.2117380910474
 30
0.0
 11
574.0642354693903
 21
413.7117380910473
 31
0.0
  0
LINE
  5
632
330
1A
100
AcDbEntity
  8
SEIHIN
 62
     3
100
AcDbLine
 10
586.0026454693903
 20
441.2117380910474
 30
0.0
 11
586.0026454693903
 21
416.7117380910474
 31
0.0
  0
LINE
  5
633
330
1A
100
AcDbEntity
  8
SEIHIN
 62
     3
100
AcDbLine
 10
585.9973651693904
 20
441.2117380910474
 30
0.0
 11
586.0026454693903
 21
441.2064577910474
 31
0.0
  0
ARC
  5
634
330
1A
100
AcDbEntity
  8
SEIHIN
 62
     3
100
AcDbCircle
 10
586.5026454693903
 20
414.2117380910473
 30
0.0
 40
0.5
100
AcDbArc
 50
180.0
 51
270.0
  0
LINE
  5
66F
330
1A
100
AcDbEntity
  8
SEIHIN
 62
     3
100
AcDbLine
 10
705.7175288693903
 20
412.1618004910473
 30
0.0
 11
706.1700257693903
 21
421.2117380910473
 31
0.0
  0
LINE
  5
671
330
1A
100
AcDbEntity
  8
SEIHIN
 62
     3
100
AcDbLine
 10
693.9326795693903
 20
441.2117380910474
 30
0.0
 11
693.9326795693903
 21
414.2117380910473
 31
0.0
  0
ARC
  5
67E
330
1A
100
AcDbEntity
  8
SEIHIN
 62
     3
100
AcDbCircle
 10
693.4326795693903
 20
414.2117380910473
 30
0.0
 40
0.5
100
AcDbArc
 50
270.0
 51
0.0
  0
LINE
  5
67F
330
1A
100
AcDbEntity
  8
SEIHIN
 62
     3
100
AcDbLine
 10
706.1700257693903
 20
421.2117380910473
 30
0.0
 11
704.6700257693903
 21
441.2117380910474
 31
0.0
  0
ARC
  5
681
330
1A
100
AcDbEntity
  8
SEIHIN
 62
     3
100
AcDbCircle
 10
704.7187765693903
 20
412.2117380910474
 30
0.0
 40
0.9999999801622518
100
AcDbArc
 50
270.0
 51
357.1375956322514
  0
LINE
  5
987
330
1A
100
AcDbEntity
  8
SEIHIN
 62
     3
100
AcDbLine
 10
461.4688847642351
 20
280.9297410910474
 30
0.0
 11
431.4688847642351
 21
280.9297410910474
 31
0.0
  0
LINE
  5
C19
330
1A
100
AcDbEntity
  8
SEIHIN
 62
     3
100
AcDbLine
 10
574.0642354693903
 20
416.7117380910474
 30
0.0
 11
693.9326795693903
 21
416.7117380910474
 31
0.0
  0
DIMENSION
  5
C26
330
1A
100
AcDbEntity
  8
SUNPOU
100
AcDbDimension
  2
*D1
 10
520.804849084011
 20
411.2117380910474
 30
0.0
 11
515.8048490840108
 21
426.2117380910474
 31
0.0
 70
    32
  3
STANDARD
100
AcDbAlignedDimension
 13
557.2303028693903
 23
441.2117380910474
 33
0.0
 14
557.1815520693903
 24
411.2117380910474
 34
0.0
 50
270.0
100
AcDbRotatedDimension
1001
ACAD
1000
DSTYLE
1002
{
1070
   372
1070
    -1
1070
   371
1070
    -1
1070
    41
1040
7.0
1070
    42
1040
6.0
1070
    43
1040
14.0
1070
    44
1040
3.0
1070
    73
1070
     0
1070
    74
1070
     0
1070
    77
1070
     3
1070
   140
1040
6.0
1070
   141
1040
150.0
1070
   147
1040
2.0
1070
   172
1070
     1
1070
   173
1070
     1
1070
   176
1070
   256
1070
   177
1070
   256
1070
   178
1070
   256
1070
   271
1070
     0
1070
   272
1070
     2
1070
     6
1000
OPEN
1070
     7
1000
OPEN
1002
}
  0
DIMENSION
  5
C35
330
1A
100
AcDbEntity
  8
SUNPOU
100
AcDbDimension
  2
*D2
 10
741.257051844685
 20
416.7117380910474
 30
0.0
 11
736.2570518446849
 21
428.9617380910475
 31
0.0
 70
    32
  1
※<>
  3
STANDARD
100
AcDbAlignedDimension
 13
704.6700257693903
 23
441.2117380910474
 33
0.0
 14
693.9326795693903
 24
416.7117380910474
 34
0.0
 50
270.0
100
AcDbRotatedDimension
1001
ACAD
1000
DSTYLE
1002
{
1070
   372
1070
    -1
1070
   371
1070
    -1
1070
    41
1040
7.0
1070
    42
1040
6.0
1070
    43
1040
14.0
1070
    44
1040
3.0
1070
    73
1070
     0
1070
    74
1070
     0
1070
    77
1070
     3
1070
   140
1040
6.0
1070
   141
1040
150.0
1070
   147
1040
2.0
1070
   172
1070
     1
1070
   173
1070
     1
1070
   176
1070
   256
1070
   177
1070
   256
1070
   178
1070
   256
1070
   271
1070
     0
1070
   272
1070
     2
1070
     6
1000
OPEN
1070
     7
1000
OPEN
1002
}
  0
DIMENSION
  5
C69
330
1A
100
AcDbEntity
  8
SUNPOU
100
AcDbDimension
  2
*D3
 10
556.4906211623964
 20
317.7654521551494
 30
0.0
 11
631.7053234658933
 21
322.7654521551494
 31
0.0
 70
    32
  3
STANDARD
100
AcDbAlignedDimension
 13
706.9200257693903
 23
232.3987885910473
 33
0.0
 14
556.4906211623964
 24
192.8702629910334
 34
0.0
100
AcDbRotatedDimension
1001
ACAD
1000
DSTYLE
1002
{
1070
   372
1070
    -1
1070
   371
1070
    -1
1070
    41
1040
7.0
1070
    42
1040
6.0
1070
    43
1040
14.0
1070
    44
1040
3.0
1070
    73
1070
     0
1070
    74
1070
     0
1070
    77
1070
     3
1070
   140
1040
6.0
1070
   141
1040
150.0
1070
   147
1040
2.0
1070
   172
1070
     1
1070
   173
1070
     1
1070
   176
1070
   256
1070
   177
1070
   256
1070
   178
1070
   256
1070
   271
1070
     0
1070
   272
1070
     2
1070
     6
1000
OPEN
1070
     7
1000
OPEN
1002
}
  0
LINE
  5
C6A
330
1A
100
AcDbEntity
  8
CENTER_L
 48
5.0
100
AcDbLine
 10
635.3924982306416
 20
157.7824348699448
 30
0.0
 11
635.3924982306416
 21
175.5824348688117
 31
0.0
  0
DIMENSION
  5
C79
330
1A
100
AcDbEntity
  8
SUNPOU
100
AcDbDimension
  2
*D4
 10
519.8749856665645
 20
164.7824348699448
 30
0.0
 11
514.8749856665644
 21
222.8560879804962
 31
0.0
 70
    32
  3
STANDARD
100
AcDbAlignedDimension
 13
573.5538961693903
 23
280.9297410910473
 33
0.0
 14
635.3924982306416
 24
164.7824348699448
 34
0.0
 50
270.0
100
AcDbRotatedDimension
1001
ACAD
1000
DSTYLE
1002
{
1070
   372
1070
    -1
1070
   371
1070
    -1
1070
    41
1040
7.0
1070
    42
1040
6.0
1070
    43
1040
14.0
1070
    44
1040
3.0
1070
    73
1070
     0
1070
    74
1070
     0
1070
    77
1070
     3
1070
   140
1040
6.0
1070
   141
1040
150.0
1070
   147
1040
2.0
1070
   172
1070
     1
1070
   173
1070
     1
1070
   176
1070
   256
1070
   177
1070
   256
1070
   178
1070
   256
1070
   271
1070
     0
1070
   272
1070
     2
1070
     6
1000
OPEN
1070
     7
1000
OPEN
1002
}
  0
DIMENSION
  5
CD3
330
1A
100
AcDbEntity
  8
SUNPOU
100
AcDbDimension
  2
*D5
 10
740.9229195632978
 20
164.7824348699448
 30
0.0
 11
735.9229195632979
 21
202.5324348804961
 31
0.0
 70
    32
  3
STANDARD
100
AcDbAlignedDimension
 13
699.4298450693904
 23
240.2824348910473
 33
0.0
 14
635.3924982306416
 24
164.7824348699448
 34
0.0
 50
270.0
100
AcDbRotatedDimension
1001
ACAD
1000
DSTYLE
1002
{
1070
   372
1070
    -1
1070
   371
1070
    -1
1070
    41
1040
7.0
1070
    42
1040
6.0
1070
    43
1040
14.0
1070
    44
1040
3.0
1070
    73
1070
     0
1070
    74
1070
     0
1070
    77
1070
     3
1070
   140
1040
6.0
1070
   141
1040
150.0
1070
   147
1040
2.0
1070
   172
1070
     1
1070
   173
1070
     1
1070
   176
1070
   256
1070
   177
1070
   256
1070
   178
1070
   256
1070
   271
1070
     0
1070
   272
1070
     2
1070
     6
1000
OPEN
1070
     7
1000
OPEN
1002
}
  0
DIMENSION
  5
CEB
330
1A
100
AcDbEntity
  8
SUNPOU
100
AcDbDimension
  2
*D6
 10
642.1568729680274
 20
303.5300895180512
 30
0.0
 11
674.5384493687088
 21
308.5300895180512
 31
0.0
 70
    32
  3
STANDARD
100
AcDbAlignedDimension
 13
706.9200257693903
 23
232.3987885910473
 33
0.0
 14
642.1568729680274
 24
240.2824348910473
 34
0.0
100
AcDbRotatedDimension
1001
ACAD
1000
DSTYLE
1002
{
1070
   372
1070
    -1
1070
   371
1070
    -1
1070
    41
1040
7.0
1070
    42
1040
6.0
1070
    43
1040
14.0
1070
    44
1040
3.0
1070
    73
1070
     0
1070
    74
1070
     0
1070
    77
1070
     3
1070
   140
1040
6.0
1070
   141
1040
150.0
1070
   147
1040
2.0
1070
   172
1070
     1
1070
   173
1070
     1
1070
   176
1070
   256
1070
   177
1070
   256
1070
   178
1070
   256
1070
   271
1070
     0
1070
   272
1070
     2
1070
     6
1000
OPEN
1070
     7
1000
OPEN
1002
}
  0
DIMENSION
  5
CF8
330
1A
100
AcDbEntity
  8
SUNPOU
100
AcDbDimension
  2
*D7
 10
602.1568729723457
 20
303.5300895180512
 30
0.0
 11
622.1568729701866
 21
308.5300895180512
 31
0.0
 70
    32
  3
STANDARD
100
AcDbAlignedDimension
 13
642.1568729680274
 23
240.2824348910473
 33
0.0
 14
602.1568729723457
 24
280.9297410910473
 34
0.0
100
AcDbRotatedDimension
1001
ACAD
1000
DSTYLE
1002
{
1070
   372
1070
    -1
1070
   371
1070
    -1
1070
    41
1040
7.0
1070
    42
1040
6.0
1070
    43
1040
14.0
1070
    44
1040
3.0
1070
    73
1070
     0
1070
    74
1070
     0
1070
    77
1070
     3
1070
   140
1040
6.0
1070
   141
1040
150.0
1070
   147
1040
2.0
1070
   172
1070
     1
1070
   173
1070
     1
1070
   176
1070
   256
1070
   177
1070
   256
1070
   178
1070
   256
1070
   271
1070
     0
1070
   272
1070
     2
1070
     6
1000
OPEN
1070
     7
1000
OPEN
1002
}
  0
LINE
  5
D07
330
1A
100
AcDbEntity
  8
SEIHIN
 62
     3
100
AcDbLine
 10
451.4688847642351
 20
165.8018980630791
 30
0.0
 11
431.4688847642351
 21
167.3018980630791
 31
0.0
  0
LINE
  5
D08
330
1A
100
AcDbEntity
  8
SEIHIN
 62
     3
100
AcDbLine
 10
451.4688847642351
 20
165.8018980630791
 30
0.0
 11
457.540131764235
 21
166.2355585630791
 31
0.0
  0
ARC
  5
D09
330
1A
100
AcDbEntity
  8
SEIHIN
 62
     3
100
AcDbCircle
 10
457.4688847642351
 20
167.233017263079
 30
0.0
 40
0.9999999983036623
100
AcDbArc
 50
274.0856139224645
 51
0.0
  0
TEXT
  5
D6A
330
1A
100
AcDbEntity
  8
SUNPOU
 62
     4
100
AcDbText
 10
681.5030076919133
 20
37.46027773351979
 30
0.0
 40
6.0
  1
※　のきといの差込み寸法を示す
100
AcDbText
  0
DIMENSION
  5
D84
330
1A
100
AcDbEntity
  8
SUNPOU
100
AcDbDimension
  2
*D13
 10
175.6765929654067
 20
303.5300895180512
 30
0.0
 11
143.2950165647252
 21
308.5300895180512
 31
0.0
 70
    32
  3
STANDARD
100
AcDbAlignedDimension
 13
110.9134401640437
 23
232.3987885910473
 33
0.0
 14
175.6765929654067
 24
240.2824348910473
 34
0.0
100
AcDbRotatedDimension
1001
ACAD
1000
DSTYLE
1002
{
1070
   372
1070
    -1
1070
   371
1070
    -1
1070
    41
1040
7.0
1070
    42
1040
6.0
1070
    43
1040
14.0
1070
    44
1040
3.0
1070
    73
1070
     0
1070
    74
1070
     0
1070
    77
1070
     3
1070
   140
1040
6.0
1070
   141
1040
150.0
1070
   147
1040
2.0
1070
   172
1070
     1
1070
   173
1070
     1
1070
   176
1070
   256
1070
   177
1070
   256
1070
   178
1070
   256
1070
   271
1070
     0
1070
   272
1070
     2
1070
     6
1000
OPEN
1070
     7
1000
OPEN
1002
}
  0
DIMENSION
  5
D85
330
1A
100
AcDbEntity
  8
SUNPOU
100
AcDbDimension
  2
*D14
 10
215.6765929610883
 20
303.5300895180512
 30
0.0
 11
195.6765929632475
 21
308.5300895180512
 31
0.0
 70
    32
  3
STANDARD
100
AcDbAlignedDimension
 13
175.6765929654067
 23
240.2824348910473
 33
0.0
 14
215.6765929610883
 24
280.9297410910473
 34
0.0
100
AcDbRotatedDimension
1001
ACAD
1000
DSTYLE
1002
{
1070
   372
1070
    -1
1070
   371
1070
    -1
1070
    41
1040
7.0
1070
    42
1040
6.0
1070
    43
1040
14.0
1070
    44
1040
3.0
1070
    73
1070
     0
1070
    74
1070
     0
1070
    77
1070
     3
1070
   140
1040
6.0
1070
   141
1040
150.0
1070
   147
1040
2.0
1070
   172
1070
     1
1070
   173
1070
     1
1070
   176
1070
   256
1070
   177
1070
   256
1070
   178
1070
   256
1070
   271
1070
     0
1070
   272
1070
     2
1070
     6
1000
OPEN
1070
     7
1000
OPEN
1002
}
  0
DIMENSION
  5
D86
330
1A
100
AcDbEntity
  8
SUNPOU
100
AcDbDimension
  2
*D10
 10
261.3428447710376
 20
317.7654521551494
 30
0.0
 11
186.1281424675407
 21
322.7654521551494
 31
0.0
 70
    32
  3
STANDARD
100
AcDbAlignedDimension
 13
110.9134401640437
 23
232.3987885910473
 33
0.0
 14
261.3428447710376
 24
192.8702629910334
 34
0.0
100
AcDbRotatedDimension
1001
ACAD
1000
DSTYLE
1002
{
1070
   372
1070
    -1
1070
   371
1070
    -1
1070
    41
1040
7.0
1070
    42
1040
6.0
1070
    43
1040
14.0
1070
    44
1040
3.0
1070
    73
1070
     0
1070
    74
1070
     0
1070
    77
1070
     3
1070
   140
1040
6.0
1070
   141
1040
150.0
1070
   147
1040
2.0
1070
   172
1070
     1
1070
   173
1070
     1
1070
   176
1070
   256
1070
   177
1070
   256
1070
   178
1070
   256
1070
   271
1070
     0
1070
   272
1070
     2
1070
     6
1000
OPEN
1070
     7
1000
OPEN
1002
}
  0
LINE
  5
D87
330
1A
100
AcDbEntity
  8
SEIHIN
 62
     3
100
AcDbLine
 10
174.8387467640438
 20
240.2824348910473
 30
0.0
 11
118.4036208640437
 21
240.2824348910473
 31
0.0
  0
DIMENSION
  5
D88
330
1A
100
AcDbEntity
  8
SUNPOU
100
AcDbDimension
  2
*D12
 10
83.78568285875145
 20
164.7824348699448
 30
0.0
 11
78.78568285875141
 21
202.5324348804961
 31
0.0
 70
    32
  3
STANDARD
100
AcDbAlignedDimension
 13
118.4036208640437
 23
240.2824348910473
 33
0.0
 14
182.4409677027924
 24
164.7824348699448
 34
0.0
 50
90.0
100
AcDbRotatedDimension
1001
ACAD
1000
DSTYLE
1002
{
1070
   372
1070
    -1
1070
   371
1070
    -1
1070
    41
1040
7.0
1070
    42
1040
6.0
1070
    43
1040
14.0
1070
    44
1040
3.0
1070
    73
1070
     0
1070
    74
1070
     0
1070
    77
1070
     3
1070
   140
1040
6.0
1070
   141
1040
150.0
1070
   147
1040
2.0
1070
   172
1070
     1
1070
   173
1070
     1
1070
   176
1070
   256
1070
   177
1070
   256
1070
   178
1070
   256
1070
   271
1070
     0
1070
   272
1070
     2
1070
     6
1000
OPEN
1070
     7
1000
OPEN
1002
}
  0
ARC
  5
D89
330
1A
100
AcDbEntity
  8
SEIHIN
 62
     3
100
AcDbCircle
 10
182.4409675640438
 20
1167.282434491047
 30
0.0
 40
1002.499999621102
100
AcDbArc
 50
266.4831990840308
 51
272.9851353263453
  0
LINE
  5
D8A
330
1A
100
AcDbEntity
  8
SEIHIN
 62
     3
100
AcDbLine
 10
245.6564015640438
 20
192.0230264910473
 30
0.0
 11
112.9814821640437
 21
192.0230264910473
 31
0.0
  0
DIMENSION
  5
D8D
330
1A
100
AcDbEntity
  8
SUNPOU
100
AcDbDimension
  2
*D11
 10
300.250191502283
 20
164.7824348699448
 30
0.0
 11
295.250191502283
 21
222.856087980496
 31
0.0
 70
    32
  3
STANDARD
100
AcDbAlignedDimension
 13
244.2795697640438
 23
280.9297410910473
 33
0.0
 14
182.4409677027924
 24
164.7824348699448
 34
0.0
 50
90.0
100
AcDbRotatedDimension
1001
ACAD
1000
DSTYLE
1002
{
1070
   372
1070
    -1
1070
   371
1070
    -1
1070
    41
1040
7.0
1070
    42
1040
6.0
1070
    43
1040
14.0
1070
    44
1040
3.0
1070
    73
1070
     0
1070
    74
1070
     0
1070
    77
1070
     3
1070
   140
1040
6.0
1070
   141
1040
150.0
1070
   147
1040
2.0
1070
   172
1070
     1
1070
   173
1070
     1
1070
   176
1070
   256
1070
   177
1070
   256
1070
   178
1070
   256
1070
   271
1070
     0
1070
   272
1070
     2
1070
     6
1000
OPEN
1070
     7
1000
OPEN
1002
}
  0
LINE
  5
D8E
330
1A
100
AcDbEntity
  8
SEIHIN
 62
     3
100
AcDbLine
 10
356.364581169199
 20
191.9709460910473
 30
0.0
 11
356.364581169199
 21
280.9297410910473
 31
0.0
  0
LINE
  5
D8F
330
1A
100
AcDbEntity
  8
SEIHIN
 62
     3
100
AcDbLine
 10
386.364581169199
 20
166.2824348910473
 30
0.0
 11
386.364581169199
 21
280.9297410910473
 31
0.0
  0
LINE
  5
D90
330
1A
100
AcDbEntity
  8
SEIHIN
 62
     3
100
AcDbLine
 10
366.364581169199
 20
190.3255410910473
 30
0.0
 11
386.364581169199
 21
191.8255410910473
 31
0.0
  0
LINE
  5
D91
330
1A
100
AcDbEntity
  8
SEIHIN
 62
     3
100
AcDbLine
 10
366.364581169199
 20
165.8018980630791
 30
0.0
 11
386.364581169199
 21
167.3018980630791
 31
0.0
  0
LINE
  5
D92
330
1A
100
AcDbEntity
  8
SEIHIN
 62
     3
100
AcDbLine
 10
366.364581169199
 20
164.7824348910473
 30
0.0
 11
386.364581169199
 21
166.2824348910473
 31
0.0
  0
LINE
  5
D93
330
1A
100
AcDbEntity
  8
SEIHIN
 62
     3
100
AcDbLine
 10
359.364581169199
 20
166.2135540910473
 30
0.0
 11
359.364581169199
 21
190.3599814910473
 31
0.0
  0
ARC
  5
D94
330
1A
100
AcDbEntity
  8
SEIHIN
 62
     3
100
AcDbCircle
 10
360.364581169199
 20
167.233017263079
 30
0.0
 40
0.9999999983036623
100
AcDbArc
 50
180.0
 51
265.9143860775354
  0
ARC
  5
D95
330
1A
100
AcDbEntity
  8
SEIHIN
 62
     3
100
AcDbCircle
 10
360.364581169199
 20
166.2135540910473
 30
0.0
 40
0.9999999983036623
100
AcDbArc
 50
180.0
 51
265.9143860775354
  0
LINE
  5
D96
330
1A
100
AcDbEntity
  8
SEIHIN
 62
     3
100
AcDbLine
 10
366.364581169199
 20
165.8018980630791
 30
0.0
 11
360.293334169199
 21
166.2355585630791
 31
0.0
  0
LINE
  5
D97
330
1A
100
AcDbEntity
  8
SEIHIN
 62
     3
100
AcDbLine
 10
366.364581169199
 20
164.7824348910473
 30
0.0
 11
360.293334169199
 21
165.2160953910473
 31
0.0
  0
LINE
  5
D98
330
1A
100
AcDbEntity
  8
SEIHIN
 62
     3
100
AcDbLine
 10
366.364581169199
 20
190.3255410910473
 30
0.0
 11
357.293334169199
 21
190.9734873910473
 31
0.0
  0
ARC
  5
D99
330
1A
100
AcDbEntity
  8
SEIHIN
 62
     3
100
AcDbCircle
 10
358.864581169199
 20
190.3599814910473
 30
0.0
 40
0.5000000276506598
100
AcDbArc
 50
0.0
 51
85.91437505571459
  0
ARC
  5
D9A
330
1A
100
AcDbEntity
  8
SEIHIN
 62
     3
100
AcDbCircle
 10
357.364581169199
 20
191.9709460910473
 30
0.0
 40
0.9999999983036905
100
AcDbArc
 50
180.0
 51
265.9143860775356
  0
LINE
  5
D9B
330
1A
100
AcDbEntity
  8
SEIHIN
 62
     3
100
AcDbLine
 10
356.364581169199
 20
280.9297410910474
 30
0.0
 11
386.364581169199
 21
280.9297410910474
 31
0.0
  0
ARC
  5
D9C
330
1A
100
AcDbEntity
  8
SEIHIN
 62
     3
100
AcDbCircle
 10
8.843344264043821
 20
193.3725461910473
 30
0.0
 40
252.5000000885037
100
AcDbArc
 50
359.8860248457386
 51
19.97107375309972
  0
ARC
  5
DA0
330
1A
100
AcDbEntity
  8
SEIHIN
 62
     3
100
AcDbCircle
 10
1.118226264043869
 20
254.7629060910473
 30
0.0
 40
252.5000000036571
100
AcDbArc
 50
340.170713287027
 51
345.5081441244371
  0
ARC
  5
DA2
330
1A
100
AcDbEntity
  8
SEIHIN
 62
     3
100
AcDbCircle
 10
258.3428506640438
 20
192.8762306910473
 30
0.0
 40
3.000000039415265
100
AcDbArc
 50
260.1664356092518
 51
359.8860252517179
  0
LINE
  5
DA5
330
1A
100
AcDbEntity
  8
SEIHIN
 62
     3
100
AcDbLine
 10
245.7417949640438
 20
192.0156804910473
 30
0.0
 11
257.8304904640438
 21
189.9203065910473
 31
0.0
  0
ARC
  5
DA6
330
1A
100
AcDbEntity
  8
SEIHIN
 62
     3
100
AcDbCircle
 10
246.0685809640438
 20
191.4515820910473
 30
0.0
 40
0.499999985640422
100
AcDbArc
 50
80.16644281026893
 51
165.5081431318231
  0
ARC
  5
DA7
330
1A
100
AcDbEntity
  8
SEIHIN
 62
     3
100
AcDbCircle
 10
245.6564015640438
 20
191.5230264910473
 30
0.0
 40
0.4999999982397916
100
AcDbArc
 50
80.16643151946896
 51
90.0
  0
ARC
  5
DAE
330
1A
100
AcDbEntity
  8
SEIHIN
 62
     3
100
AcDbCircle
 10
234.4136863640437
 20
170.6366419910473
 30
0.0
 40
4.499999992071508
100
AcDbArc
 50
272.9851349611114
 51
340.1707134301063
  0
LINE
  5
DB0
330
1A
100
AcDbEntity
  8
CENTER_L
 48
5.0
100
AcDbLine
 10
182.4409677027924
 20
157.7824348699448
 30
0.0
 11
182.4409677027924
 21
175.5824348688117
 31
0.0
  0
LINE
  5
DB1
330
1A
100
AcDbEntity
  8
SEIHIN
 62
     3
100
AcDbLine
 10
215.0889203640438
 20
280.3325583910473
 30
0.0
 11
176.2642654640437
 21
240.8796174910473
 31
0.0
  0
LINE
  5
DBE
330
1A
100
AcDbEntity
  8
SEIHIN
 62
     3
100
AcDbLine
 10
244.2795697640438
 20
280.9297410910473
 30
0.0
 11
216.5144389640438
 21
280.9297410910473
 31
0.0
  0
ARC
  5
DBF
330
1A
100
AcDbEntity
  8
SEIHIN
 62
     3
100
AcDbCircle
 10
244.2795700640437
 20
278.9297410910473
 30
0.0
 40
2.000000029679802
100
AcDbArc
 50
19.97107385523367
 51
90.00000859436724
  0
ARC
  5
DDC
330
1A
100
AcDbEntity
  8
SEIHIN
 62
     3
100
AcDbCircle
 10
216.5144389640438
 20
278.9297410910473
 30
0.0
 40
1.99999995701566
100
AcDbArc
 50
90.0
 51
135.4598678499283
  0
ARC
  5
DDD
330
1A
100
AcDbEntity
  8
SEIHIN
 62
     3
100
AcDbCircle
 10
174.8387467640438
 20
242.2824348910473
 30
0.0
 40
2.000000027724056
100
AcDbArc
 50
270.0
 51
315.4598678174122
  0
LINE
  5
DDE
330
1A
100
AcDbEntity
  8
SEIHIN
 62
     3
100
AcDbLine
 10
110.9134401640437
 20
232.3987885910473
 30
0.0
 11
113.9162711640437
 21
173.7725187910474
 31
0.0
  0
ARC
  5
DE1
330
1A
100
AcDbEntity
  8
SEIHIN
 62
     3
100
AcDbCircle
 10
121.4064524640438
 20
174.1561649910473
 30
0.0
 40
7.500000008574182
100
AcDbArc
 50
182.9321207228129
 51
266.4831987725656
  0
ARC
  5
DE4
330
1A
100
AcDbEntity
  8
SEIHIN
 62
     3
100
AcDbCircle
 10
118.4036214640437
 20
232.7824348910473
 30
0.0
 40
7.500000013012467
100
AcDbArc
 50
90.00000458366253
 51
182.9321214857566
  0
LINE
  5
DF5
330
1A
100
AcDbEntity
  8
SEIHIN
 62
     3
100
AcDbLine
 10
243.7692304640437
 20
413.7117380910473
 30
0.0
 11
121.4006731640438
 21
413.7117380910473
 31
0.0
  0
LINE
  5
DF6
330
1A
100
AcDbEntity
  8
SEIHIN
 62
     3
100
AcDbLine
 10
260.6031630640437
 20
441.2117380910474
 30
0.0
 11
113.1634401640437
 21
441.2117380910474
 31
0.0
  0
LINE
  5
DF7
330
1A
100
AcDbEntity
  8
SEIHIN
 62
     3
100
AcDbLine
 10
260.6519138640437
 20
411.2117380910474
 30
0.0
 11
113.1146893640437
 21
411.2117380910474
 31
0.0
  0
LINE
  5
DF8
330
1A
100
AcDbEntity
  8
SEIHIN
 62
     3
100
AcDbLine
 10
243.7692304640437
 20
416.7117380910474
 30
0.0
 11
123.9007863640438
 21
416.7117380910474
 31
0.0
  0
DIMENSION
  5
DF9
330
1A
100
AcDbEntity
  8
SUNPOU
100
AcDbDimension
  2
*D8
 10
299.3203280848365
 20
411.2117380910474
 30
0.0
 11
294.3203280848364
 21
426.2117380910474
 31
0.0
 70
    32
  3
STANDARD
100
AcDbAlignedDimension
 13
260.6031630640437
 23
441.2117380910474
 33
0.0
 14
260.6519138640437
 24
411.2117380910474
 34
0.0
 50
90.0
100
AcDbRotatedDimension
1001
ACAD
1000
DSTYLE
1002
{
1070
   372
1070
    -1
1070
   371
1070
    -1
1070
    41
1040
7.0
1070
    42
1040
6.0
1070
    43
1040
14.0
1070
    44
1040
3.0
1070
    73
1070
     0
1070
    74
1070
     0
1070
    77
1070
     3
1070
   140
1040
6.0
1070
   141
1040
150.0
1070
   147
1040
2.0
1070
   172
1070
     1
1070
   173
1070
     1
1070
   176
1070
   256
1070
   177
1070
   256
1070
   178
1070
   256
1070
   271
1070
     0
1070
   272
1070
     2
1070
     6
1000
OPEN
1070
     7
1000
OPEN
1002
}
  0
LINE
  5
DFA
330
1A
100
AcDbEntity
  8
SEIHIN
 62
     3
100
AcDbLine
 10
262.1031630640437
 20
421.2117380910473
 30
0.0
 11
260.6031630640437
 21
441.2117380910474
 31
0.0
  0
LINE
  5
DFB
330
1A
100
AcDbEntity
  8
SEIHIN
 62
     3
100
AcDbLine
 10
246.4392255640437
 20
441.2117380910474
 30
0.0
 11
246.4392308640437
 21
411.2117380910474
 31
0.0
  0
LINE
  5
DFC
330
1A
100
AcDbEntity
  8
SEIHIN
 62
     3
100
AcDbLine
 10
243.7692255640438
 20
441.2117380910474
 30
0.0
 11
243.7692304640437
 21
413.7117380910473
 31
0.0
  0
LINE
  5
DFD
330
1A
100
AcDbEntity
  8
SEIHIN
 62
     3
100
AcDbLine
 10
231.8308204640437
 20
441.2117380910474
 30
0.0
 11
231.8308204640437
 21
416.7117380910474
 31
0.0
  0
LINE
  5
DFE
330
1A
100
AcDbEntity
  8
SEIHIN
 62
     3
100
AcDbLine
 10
261.6506661640437
 20
412.1618004910473
 30
0.0
 11
262.1031630640437
 21
421.2117380910473
 31
0.0
  0
ARC
  5
DFF
330
1A
100
AcDbEntity
  8
SEIHIN
 62
     3
100
AcDbCircle
 10
260.6519138640437
 20
412.2117380910474
 30
0.0
 40
0.9999999801622518
100
AcDbArc
 50
270.0
 51
357.1375956322514
  0
LINE
  5
E00
330
1A
100
AcDbEntity
  8
SEIHIN
 62
     3
100
AcDbLine
 10
216.4392308640437
 20
411.2117256910474
 30
0.0
 11
216.4392308640437
 21
413.7117380910473
 31
0.0
  0
ARC
  5
E01
330
1A
100
AcDbEntity
  8
SEIHIN
 62
     3
100
AcDbCircle
 10
231.3308204640437
 20
414.2117380910473
 30
0.0
 40
0.5
100
AcDbArc
 50
270.0
 51
0.0
  0
LINE
  5
E02
330
1A
100
AcDbEntity
  8
SEIHIN
 62
     3
100
AcDbLine
 10
231.8361007640437
 20
441.2117380910474
 30
0.0
 11
231.8308204640437
 21
441.2064577910474
 31
0.0
  0
LINE
  5
E03
330
1A
100
AcDbEntity
  8
SEIHIN
 62
     3
100
AcDbLine
 10
176.4392308640438
 20
411.2117256910474
 30
0.0
 11
176.4392308640438
 21
413.7117380910473
 31
0.0
  0
DIMENSION
  5
E04
330
1A
100
AcDbEntity
  8
SUNPOU
100
AcDbDimension
  2
*D9
 10
84.59740758625821
 20
416.7117380910474
 30
0.0
 11
79.59740758625814
 21
428.9617380910473
 31
0.0
 70
    32
  1
※<>
  3
STANDARD
100
AcDbAlignedDimension
 13
113.1634401640437
 23
441.2117380910474
 33
0.0
 14
123.9007863640438
 24
416.7117380910474
 34
0.0
 50
90.0
100
AcDbRotatedDimension
1001
ACAD
1000
DSTYLE
1002
{
1070
   372
1070
    -1
1070
   371
1070
    -1
1070
    41
1040
7.0
1070
    42
1040
6.0
1070
    43
1040
14.0
1070
    44
1040
3.0
1070
    73
1070
     0
1070
    74
1070
     0
1070
    77
1070
     3
1070
   140
1040
6.0
1070
   141
1040
150.0
1070
   147
1040
2.0
1070
   172
1070
     1
1070
   173
1070
     1
1070
   176
1070
   256
1070
   177
1070
   256
1070
   178
1070
   256
1070
   271
1070
     0
1070
   272
1070
     2
1070
     6
1000
OPEN
1070
     7
1000
OPEN
1002
}
  0
LINE
  5
E05
330
1A
100
AcDbEntity
  8
SEIHIN
 62
     3
100
AcDbLine
 10
123.9007863640438
 20
441.2117380910474
 30
0.0
 11
123.9007863640438
 21
414.2117380910473
 31
0.0
  0
LINE
  5
E06
330
1A
100
AcDbEntity
  8
SEIHIN
 62
     3
100
AcDbLine
 10
111.6634401640437
 20
421.2117380910473
 30
0.0
 11
113.1634401640437
 21
441.2117380910474
 31
0.0
  0
ARC
  5
E07
330
1A
100
AcDbEntity
  8
SEIHIN
 62
     3
100
AcDbCircle
 10
113.1146893640437
 20
412.2117380910474
 30
0.0
 40
0.9999999801622518
100
AcDbArc
 50
182.8624043677485
 51
270.0
  0
ARC
  5
E08
330
1A
100
AcDbEntity
  8
SEIHIN
 62
     3
100
AcDbCircle
 10
124.4007863640438
 20
414.2117380910473
 30
0.0
 40
0.5
100
AcDbArc
 50
180.0
 51
270.0
  0
LINE
  5
E09
330
1A
100
AcDbEntity
  8
SEIHIN
 62
     3
100
AcDbLine
 10
112.1159370640438
 20
412.1618004910473
 30
0.0
 11
111.6634401640437
 21
421.2117380910473
 31
0.0
  0
TEXT
  5
EAF
330
1A
100
AcDbEntity
  8
SUNPOU
100
AcDbText
 10
174.7432409784969
 20
114.3993892913827
 30
0.0
 40
8.0
  1
左
100
AcDbText
  0
TEXT
  5
EB0
330
1A
100
AcDbEntity
  8
SUNPOU
100
AcDbText
 10
627.6947715063461
 20
114.3993892913827
 30
0.0
 40
8.0
  1
右
100
AcDbText
  0
LINE
  5
1386
330
1A
100
AcDbEntity
  8
SEIHIN
 62
     3
100
AcDbLine
 10
231.8308204640437
 20
421.7117380910473
 30
0.0
 11
123.9007863640438
 21
421.7117380910473
 31
0.0
  0
LINE
  5
1387
330
1A
100
AcDbEntity
  8
SEIHIN
 62
     3
100
AcDbLine
 10
586.0026454693903
 20
421.7117380910473
 30
0.0
 11
693.9326795693903
 21
421.7117380910473
 31
0.0
  0
ARC
  5
1790
102
{ACAD_REACTORS
330
17DA
102
}
330
1A
100
AcDbEntity
  8
NOKITOI
  6
PHANTOM
 62
     8
 48
5.0
100
AcDbCircle
 10
227.6638489027925
 20
209.3110664943338
 30
0.0
 40
41.24999998166308
100
AcDbArc
 50
56.05858670936255
 51
74.06314886388114
  0
ARC
  5
1791
102
{ACAD_REACTORS
330
17DA
102
}
330
1A
100
AcDbEntity
  8
NOKITOI
  6
PHANTOM
 62
     8
 48
5.0
100
AcDbCircle
 10
118.4056061027924
 20
232.2824348943338
 30
0.0
 40
4.999999987982882
100
AcDbArc
 50
90.0
 51
182.9536954671918
  0
ARC
  5
1792
102
{ACAD_REACTORS
330
17DA
102
}
330
1A
100
AcDbEntity
  8
NOKITOI
  6
PHANTOM
 62
     8
 48
5.0
100
AcDbCircle
 10
118.4056061027924
 20
232.2824348943338
 30
0.0
 40
3.699999967274206
100
AcDbArc
 50
90.0
 51
182.9536961875368
  0
LINE
  5
1793
102
{ACAD_REACTORS
330
17DA
102
}
330
1A
100
AcDbEntity
  8
NOKITOI
  6
PHANTOM
 62
     8
 48
5.0
100
AcDbLine
 10
121.1480331027926
 20
232.9824348943339
 30
0.0
 11
123.6907918027925
 21
223.6589860943338
 31
0.0
  0
LINE
  5
1794
102
{ACAD_REACTORS
330
17DA
102
}
330
1A
100
AcDbEntity
  8
NOKITOI
  6
PHANTOM
 62
     8
 48
5.0
100
AcDbLine
 10
115.1024867027924
 20
224.4951769943338
 30
0.0
 11
114.7105216027926
 21
232.0917779943338
 31
0.0
  0
LINE
  5
1795
102
{ACAD_REACTORS
330
17DA
102
}
330
1A
100
AcDbEntity
  8
NOKITOI
  6
PHANTOM
 62
     8
 48
5.0
100
AcDbLine
 10
125.2502050027924
 20
222.8818978943338
 30
0.0
 11
122.1409677027925
 21
234.2824348943338
 31
0.0
  0
LINE
  5
1796
102
{ACAD_REACTORS
330
17DA
102
}
330
1A
100
AcDbEntity
  8
NOKITOI
  6
PHANTOM
 62
     8
 48
5.0
100
AcDbLine
 10
123.6907918027925
 20
223.6589860943338
 30
0.0
 11
115.1024867027924
 21
224.4951769943338
 31
0.0
  0
LINE
  5
1797
102
{ACAD_REACTORS
330
17DA
102
}
330
1A
100
AcDbEntity
  8
NOKITOI
  6
PHANTOM
 62
     8
 48
5.0
100
AcDbLine
 10
124.7193703027924
 20
222.2526923943338
 30
0.0
 11
115.7479183027924
 21
223.1261879943339
 31
0.0
  0
ARC
  5
1798
102
{ACAD_REACTORS
330
17DA
102
}
330
1A
100
AcDbEntity
  8
NOKITOI
  6
PHANTOM
 62
     8
 48
5.0
100
AcDbCircle
 10
115.6994654027926
 20
222.6285411943339
 30
0.0
 40
0.4999999833352752
100
AcDbArc
 50
84.43897993721046
 51
182.9536911848636
  0
ARC
  5
1799
102
{ACAD_REACTORS
330
17DA
102
}
330
1A
100
AcDbEntity
  8
NOKITOI
  6
PHANTOM
 62
     8
 48
5.0
100
AcDbCircle
 10
124.7678231027925
 20
222.7503391943338
 30
0.0
 40
0.5000000001856648
100
AcDbArc
 50
264.4389913424165
 51
15.25511870306163
  0
LINE
  5
179A
102
{ACAD_REACTORS
330
17DA
102
}
330
1A
100
AcDbEntity
  8
NOKITOI
  6
PHANTOM
 62
     8
 48
5.0
100
AcDbLine
 10
122.1409677027925
 20
234.2824348943338
 30
0.0
 11
120.1409677027925
 21
234.2824348943338
 31
0.0
  0
LINE
  5
179B
102
{ACAD_REACTORS
330
17DA
102
}
330
1A
100
AcDbEntity
  8
NOKITOI
  6
PHANTOM
 62
     8
 48
5.0
100
AcDbLine
 10
120.1409677027925
 20
234.2824348943338
 30
0.0
 11
120.1409677027925
 21
237.2824348943338
 31
0.0
  0
LINE
  5
179C
102
{ACAD_REACTORS
330
17DA
102
}
330
1A
100
AcDbEntity
  8
NOKITOI
  6
PHANTOM
 62
     8
 48
5.0
100
AcDbLine
 10
118.4056061027924
 20
235.9824348943338
 30
0.0
 11
118.8409677027925
 21
235.9824348943338
 31
0.0
  0
LINE
  5
179D
102
{ACAD_REACTORS
330
17DA
102
}
330
1A
100
AcDbEntity
  8
NOKITOI
  6
PHANTOM
 62
     8
 48
5.0
100
AcDbLine
 10
118.8409677027925
 20
235.9824348943338
 30
0.0
 11
118.8409677027925
 21
232.9824348943339
 31
0.0
  0
LINE
  5
179E
102
{ACAD_REACTORS
330
17DA
102
}
330
1A
100
AcDbEntity
  8
NOKITOI
  6
PHANTOM
 62
     8
 48
5.0
100
AcDbLine
 10
118.8409677027925
 20
232.9824348943339
 30
0.0
 11
121.1480331027926
 21
232.9824348943339
 31
0.0
  0
LINE
  5
179F
102
{ACAD_REACTORS
330
17DA
102
}
330
1A
100
AcDbEntity
  8
NOKITOI
  6
PHANTOM
 62
     8
 48
5.0
100
AcDbLine
 10
120.1409677027925
 20
237.2824348943338
 30
0.0
 11
118.4056061027924
 21
237.2824348943338
 31
0.0
  0
LINE
  5
17A0
102
{ACAD_REACTORS
330
17DA
102
}
330
1A
100
AcDbEntity
  8
NOKITOI
  6
PHANTOM
 62
     8
 48
5.0
100
AcDbLine
 10
113.4122486027924
 20
232.0247904943338
 30
0.0
 11
116.4114096027924
 21
173.8986240943338
 31
0.0
  0
LINE
  5
17A1
102
{ACAD_REACTORS
330
17DA
102
}
330
1A
100
AcDbEntity
  8
NOKITOI
  6
PHANTOM
 62
     8
 48
5.0
100
AcDbLine
 10
117.7096826027925
 20
173.9656116943339
 30
0.0
 11
115.2001297027925
 21
222.6027767943338
 31
0.0
  0
ARC
  5
17A2
102
{ACAD_REACTORS
330
17DA
102
}
330
1A
100
AcDbEntity
  8
NOKITOI
  6
PHANTOM
 62
     8
 48
5.0
100
AcDbCircle
 10
182.4409677027924
 20
1167.282434494333
 30
0.0
 40
998.6999996255219
100
AcDbArc
 50
266.4831018451868
 51
272.9827190883116
  0
ARC
  5
17A3
102
{ACAD_REACTORS
330
17DA
102
}
330
1A
100
AcDbEntity
  8
NOKITOI
  6
PHANTOM
 62
     8
 48
5.0
100
AcDbCircle
 10
121.4047671027924
 20
174.1562685943339
 30
0.0
 40
3.699999980057802
100
AcDbArc
 50
182.9536961875368
 51
266.4831016568152
  0
ARC
  5
17A4
102
{ACAD_REACTORS
330
17DA
102
}
330
1A
100
AcDbEntity
  8
NOKITOI
  6
PHANTOM
 62
     8
 48
5.0
100
AcDbCircle
 10
121.4047671027924
 20
174.1562685943339
 30
0.0
 40
5.000000016093117
100
AcDbArc
 50
182.9536966115868
 51
266.4831016063898
  0
ARC
  5
17A5
102
{ACAD_REACTORS
330
17DA
102
}
330
1A
100
AcDbEntity
  8
NOKITOI
  6
PHANTOM
 62
     8
 48
5.0
100
AcDbCircle
 10
182.4409677027924
 20
1167.282434494333
 30
0.0
 40
999.9999996378269
100
AcDbArc
 50
266.4831018446891
 51
272.9851353195631
  0
ARC
  5
17A6
102
{ACAD_REACTORS
330
17DA
102
}
330
1A
100
AcDbEntity
  8
NOKITOI
  6
PHANTOM
 62
     8
 48
5.0
100
AcDbCircle
 10
234.3768600027924
 20
170.5345865943338
 30
0.0
 40
0.600000018220417
100
AcDbArc
 50
272.9827231996405
 51
340.1456463700473
  0
ARC
  5
17A7
102
{ACAD_REACTORS
330
17DA
102
}
330
1A
100
AcDbEntity
  8
NOKITOI
  6
PHANTOM
 62
     8
 48
5.0
100
AcDbCircle
 10
234.4136864027925
 20
170.6366419943338
 30
0.0
 40
2.000000017156621
100
AcDbArc
 50
272.9851339743244
 51
340.1707136460619
  0
ARC
  5
17A8
102
{ACAD_REACTORS
330
17DA
102
}
330
1A
100
AcDbEntity
  8
NOKITOI
  6
PHANTOM
 62
     8
 48
5.0
100
AcDbCircle
 10
1.118226302792436
 20
254.7629060943338
 30
0.0
 40
250.0000000041909
100
AcDbArc
 50
340.1707132873261
 51
346.035070739979
  0
ARC
  5
17A9
102
{ACAD_REACTORS
330
17DA
102
}
330
1A
100
AcDbEntity
  8
NOKITOI
  6
PHANTOM
 62
     8
 48
5.0
100
AcDbCircle
 10
1.118226302792436
 20
254.7629060943338
 30
0.0
 40
248.6000000119225
100
AcDbArc
 50
340.1456471895615
 51
346.5651704840236
  0
LINE
  5
17AA
102
{ACAD_REACTORS
330
17DA
102
}
330
1A
100
AcDbEntity
  8
NOKITOI
  6
PHANTOM
 62
     8
 48
5.0
100
AcDbLine
 10
244.1380093027924
 20
196.0995864943339
 30
0.0
 11
257.4429881027924
 21
193.7933901943339
 31
0.0
  0
LINE
  5
17AB
102
{ACAD_REACTORS
330
17DA
102
}
330
1A
100
AcDbEntity
  8
NOKITOI
  6
PHANTOM
 62
     8
 48
5.0
100
AcDbLine
 10
244.2997477027925
 20
194.8029129943339
 30
0.0
 11
258.2574574027924
 21
192.3835766943339
 31
0.0
  0
ARC
  5
17AC
102
{ACAD_REACTORS
330
17DA
102
}
330
1A
100
AcDbEntity
  8
NOKITOI
  6
PHANTOM
 62
     8
 48
5.0
100
AcDbCircle
 10
244.2143543027925
 20
194.3102589943339
 30
0.0
 40
0.4999999962853926
100
AcDbArc
 50
80.16643151947555
 51
166.0350666383508
  0
LINE
  5
17AD
102
{ACAD_REACTORS
330
17DA
102
}
330
1A
100
AcDbEntity
  8
NOKITOI
  6
PHANTOM
 62
     8
 48
5.0
100
AcDbLine
 10
257.2968379027924
 20
201.9060989943338
 30
0.0
 11
242.9152429027924
 21
197.0033806943339
 31
0.0
  0
LINE
  5
17AE
102
{ACAD_REACTORS
330
17DA
102
}
330
1A
100
AcDbEntity
  8
NOKITOI
  6
PHANTOM
 62
     8
 48
5.0
100
AcDbLine
 10
257.3382737027925
 20
200.5995864943339
 30
0.0
 11
244.1380093027924
 21
196.0995864943339
 31
0.0
  0
ARC
  5
17AF
102
{ACAD_REACTORS
330
17DA
102
}
330
1A
100
AcDbEntity
  8
NOKITOI
  6
PHANTOM
 62
     8
 48
5.0
100
AcDbCircle
 10
258.3428507027924
 20
192.8762306943339
 30
0.0
 40
0.4999999843155076
100
AcDbArc
 50
260.1664428102688
 51
359.8860271577783
  0
ARC
  5
17B0
102
{ACAD_REACTORS
330
17DA
102
}
330
1A
100
AcDbEntity
  8
NOKITOI
  6
PHANTOM
 62
     8
 48
5.0
100
AcDbCircle
 10
8.843344402792581
 20
193.3725461943339
 30
0.0
 40
248.5999999565055
100
AcDbArc
 50
0.0969935501166402
 51
1.665877933198955
  0
ARC
  5
17B1
102
{ACAD_REACTORS
330
17DA
102
}
330
1A
100
AcDbEntity
  8
NOKITOI
  6
PHANTOM
 62
     8
 48
5.0
100
AcDbCircle
 10
8.843344402792581
 20
193.3725461943339
 30
0.0
 40
249.9999999705148
100
AcDbArc
 50
359.8860248454418
 51
19.50105357442958
  0
ARC
  5
17B2
102
{ACAD_REACTORS
330
17DA
102
}
330
1A
100
AcDbEntity
  8
NOKITOI
  6
PHANTOM
 62
     8
 48
5.0
100
AcDbCircle
 10
8.843344402792581
 20
193.3725461943339
 30
0.0
 40
248.5999999338434
100
AcDbArc
 50
1.967146541305628
 51
11.3464638351425
  0
ARC
  5
17B3
102
{ACAD_REACTORS
330
17DA
102
}
330
1A
100
AcDbEntity
  8
NOKITOI
  6
PHANTOM
 62
     8
 48
5.0
100
AcDbCircle
 10
227.6638489027925
 20
209.3110664943338
 30
0.0
 40
39.99999996219694
100
AcDbArc
 50
55.51598819626271
 51
73.9975791614565
  0
ARC
  5
17B4
102
{ACAD_REACTORS
330
17DA
102
}
330
1A
100
AcDbEntity
  8
NOKITOI
  6
PHANTOM
 62
     8
 48
5.0
100
AcDbCircle
 10
239.8858875027924
 20
261.4024348943338
 30
0.0
 40
8.999999994057947
100
AcDbArc
 50
270.0
 51
345.3085381692254
  0
ARC
  5
17B5
102
{ACAD_REACTORS
330
17DA
102
}
330
1A
100
AcDbEntity
  8
NOKITOI
  6
PHANTOM
 62
     8
 48
5.0
100
AcDbCircle
 10
239.4909677027924
 20
250.6524348943338
 30
0.0
 40
3.000000019776849
100
AcDbArc
 50
90.0
 51
254.5339902555937
  0
LINE
  5
17B6
102
{ACAD_REACTORS
330
17DA
102
}
330
1A
100
AcDbEntity
  8
NOKITOI
  6
PHANTOM
 62
     8
 48
5.0
100
AcDbLine
 10
239.8858875027924
 20
252.4024348943338
 30
0.0
 11
239.4909677027924
 21
252.4024348943338
 31
0.0
  0
ARC
  5
17B7
102
{ACAD_REACTORS
330
17DA
102
}
330
1A
100
AcDbEntity
  8
NOKITOI
  6
PHANTOM
 62
     8
 48
5.0
100
AcDbCircle
 10
239.4909677027924
 20
250.6524348943338
 30
0.0
 40
1.749999987870436
100
AcDbArc
 50
90.0
 51
254.5339886944687
  0
LINE
  5
17B8
102
{ACAD_REACTORS
330
17DA
102
}
330
1A
100
AcDbEntity
  8
NOKITOI
  6
PHANTOM
 62
     8
 48
5.0
100
AcDbLine
 10
235.4967455027924
 20
263.6524348943338
 30
0.0
 11
239.4271177027924
 21
263.6524348943338
 31
0.0
  0
LINE
  5
17B9
102
{ACAD_REACTORS
330
17DA
102
}
330
1A
100
AcDbEntity
  8
NOKITOI
  6
PHANTOM
 62
     8
 48
5.0
100
AcDbLine
 10
239.8858875027924
 20
253.6524348943338
 30
0.0
 11
239.4909677027924
 21
253.6524348943338
 31
0.0
  0
ARC
  5
17BA
102
{ACAD_REACTORS
330
17DA
102
}
330
1A
100
AcDbEntity
  8
NOKITOI
  6
PHANTOM
 62
     8
 48
5.0
100
AcDbCircle
 10
8.843344402792581
 20
193.3725461943339
 30
0.0
 40
248.5999999803393
100
AcDbArc
 50
11.64045156321433
 51
15.33549177568711
  0
LINE
  5
17BB
102
{ACAD_REACTORS
330
17DA
102
}
330
1A
100
AcDbEntity
  8
NOKITOI
  6
PHANTOM
 62
     8
 48
5.0
100
AcDbLine
 10
250.6955758027925
 20
243.5324348943338
 30
0.0
 11
252.3303986027924
 21
243.5324348943338
 31
0.0
  0
LINE
  5
17BC
102
{ACAD_REACTORS
330
17DA
102
}
330
1A
100
AcDbEntity
  8
NOKITOI
  6
PHANTOM
 62
     8
 48
5.0
100
AcDbLine
 10
250.3108987027924
 20
242.2824348943338
 30
0.0
 11
252.5845653027924
 21
242.2824348943338
 31
0.0
  0
LINE
  5
17BD
102
{ACAD_REACTORS
330
17DA
102
}
330
1A
100
AcDbEntity
  8
NOKITOI
  6
PHANTOM
 62
     8
 48
5.0
100
AcDbLine
 10
234.5312600027925
 20
269.2239039943339
 30
0.0
 11
236.0304121027925
 21
264.9024348943338
 31
0.0
  0
LINE
  5
17BE
102
{ACAD_REACTORS
330
17DA
102
}
330
1A
100
AcDbEntity
  8
NOKITOI
  6
PHANTOM
 62
     8
 48
5.0
100
AcDbLine
 10
238.3563427027925
 20
264.9024348943338
 30
0.0
 11
237.4541325027923
 21
267.3835129943338
 31
0.0
  0
LINE
  5
17BF
102
{ACAD_REACTORS
330
17DA
102
}
330
1A
100
AcDbEntity
  8
NOKITOI
  6
PHANTOM
 62
     8
 48
5.0
100
AcDbLine
 10
239.8970144027925
 20
264.3233063943338
 30
0.0
 11
238.6288742027925
 21
267.8106917943339
 31
0.0
  0
LINE
  5
17C0
102
{ACAD_REACTORS
330
17DA
102
}
330
1A
100
AcDbEntity
  8
NOKITOI
  6
PHANTOM
 62
     8
 48
5.0
100
AcDbLine
 10
233.0249056027923
 20
269.7522136943339
 30
0.0
 11
235.0243626027924
 21
263.9885614943338
 31
0.0
  0
ARC
  5
17C1
102
{ACAD_REACTORS
330
17DA
102
}
330
1A
100
AcDbEntity
  8
NOKITOI
  6
PHANTOM
 62
     8
 48
5.0
100
AcDbCircle
 10
239.8858875027924
 20
261.4024348943338
 30
0.0
 40
7.75
100
AcDbArc
 50
270.0
 51
90.0
  0
LINE
  5
17C2
102
{ACAD_REACTORS
330
17DA
102
}
330
1A
100
AcDbEntity
  8
NOKITOI
  6
PHANTOM
 62
     8
 48
5.0
100
AcDbLine
 10
236.0304121027925
 20
264.9024348943338
 30
0.0
 11
238.3563427027925
 21
264.9024348943338
 31
0.0
  0
ARC
  5
17C3
102
{ACAD_REACTORS
330
17DA
102
}
330
1A
100
AcDbEntity
  8
NOKITOI
  6
PHANTOM
 62
     8
 48
5.0
100
AcDbCircle
 10
235.4967455027924
 20
264.1524348943338
 30
0.0
 40
0.5000000477199775
100
AcDbArc
 50
199.1320685590653
 51
270.0
  0
ARC
  5
17C4
102
{ACAD_REACTORS
330
17DA
102
}
330
1A
100
AcDbEntity
  8
NOKITOI
  6
PHANTOM
 62
     8
 48
5.0
100
AcDbCircle
 10
239.4271177027924
 20
264.1524348943338
 30
0.0
 40
0.4999999890915889
100
AcDbArc
 50
270.0
 51
19.9831035848307
  0
ARC
  5
17C5
102
{ACAD_REACTORS
330
17DA
102
}
330
1A
100
AcDbEntity
  8
NOKITOI
  6
PHANTOM
 62
     8
 48
5.0
100
AcDbCircle
 10
8.843344402792581
 20
193.3725461943339
 30
0.0
 40
248.5999999477729
100
AcDbArc
 50
17.47836994255597
 51
19.30646713482288
  0
ARC
  5
17C6
102
{ACAD_REACTORS
330
17DA
102
}
330
1A
100
AcDbEntity
  8
NOKITOI
  6
PHANTOM
 62
     8
 48
5.0
100
AcDbCircle
 10
239.8858875027924
 20
261.4024348943338
 30
0.0
 40
9.000000014904554
100
AcDbArc
 50
47.50532385595311
 51
90.0
  0
ARC
  5
17C7
102
{ACAD_REACTORS
330
17DA
102
}
330
1A
100
AcDbEntity
  8
NOKITOI
  6
PHANTOM
 62
     8
 48
5.0
100
AcDbCircle
 10
244.0281808027925
 20
276.6692609943338
 30
0.0
 40
0.4999999707007273
100
AcDbArc
 50
19.50290150346571
 51
106.3895351606142
  0
LINE
  5
17C8
102
{ACAD_REACTORS
330
17DA
102
}
330
1A
100
AcDbEntity
  8
NOKITOI
  6
PHANTOM
 62
     8
 48
5.0
100
AcDbLine
 10
243.8870977027925
 20
277.1489436943338
 30
0.0
 11
236.3813333027924
 21
274.9413659943338
 31
0.0
  0
ARC
  5
17C9
102
{ACAD_REACTORS
330
17DA
102
}
330
1A
100
AcDbEntity
  8
NOKITOI
  6
PHANTOM
 62
     8
 48
5.0
100
AcDbCircle
 10
239.5686677027924
 20
268.1524348943338
 30
0.0
 40
2.250000031016088
100
AcDbArc
 50
156.2718619754109
 51
199.9831067394597
  0
LINE
  5
17CA
102
{ACAD_REACTORS
330
17DA
102
}
330
1A
100
AcDbEntity
  8
NOKITOI
  6
PHANTOM
 62
     8
 48
5.0
100
AcDbLine
 10
237.5088712027925
 20
269.0578290943339
 30
0.0
 11
237.1785754027923
 21
269.9372414943338
 31
0.0
  0
ARC
  5
17CB
102
{ACAD_REACTORS
330
17DA
102
}
330
1A
100
AcDbEntity
  8
NOKITOI
  6
PHANTOM
 62
     8
 48
5.0
100
AcDbCircle
 10
236.5224165027925
 20
274.4616831943338
 30
0.0
 40
0.5000000583204929
100
AcDbArc
 50
106.3895429207478
 51
203.198581485681
  0
LINE
  5
17CC
102
{ACAD_REACTORS
330
17DA
102
}
330
1A
100
AcDbEntity
  8
NOKITOI
  6
PHANTOM
 62
     8
 48
5.0
100
AcDbLine
 10
236.4673893027925
 20
269.6541549943339
 30
0.0
 11
234.5312600027925
 21
269.2239039943339
 31
0.0
  0
ARC
  5
17CD
102
{ACAD_REACTORS
330
17DA
102
}
330
1A
100
AcDbEntity
  8
NOKITOI
  6
PHANTOM
 62
     8
 48
5.0
100
AcDbCircle
 10
235.9467562027925
 20
271.9970039943339
 30
0.0
 40
1.000000010493544
100
AcDbArc
 50
282.5288095735294
 51
23.19859126597837
  0
ARC
  5
17CE
102
{ACAD_REACTORS
330
17DA
102
}
330
1A
100
AcDbEntity
  8
NOKITOI
  6
PHANTOM
 62
     8
 48
5.0
100
AcDbCircle
 10
235.9467562027925
 20
271.9970039943339
 30
0.0
 40
2.400000037449118
100
AcDbArc
 50
282.5288074502103
 51
300.8810879169186
  0
ARC
  5
17CF
102
{ACAD_REACTORS
330
17DA
102
}
330
1A
100
AcDbEntity
  8
NOKITOI
  6
PHANTOM
 62
     8
 48
5.0
100
AcDbCircle
 10
233.4972885027925
 20
269.9160869943339
 30
0.0
 40
0.5000000731651486
100
AcDbArc
 50
102.528813923749
 51
199.1320577328559
  0
LINE
  5
17D0
102
{ACAD_REACTORS
330
17DA
102
}
330
1A
100
AcDbEntity
  8
NOKITOI
  6
PHANTOM
 62
     8
 48
5.0
100
AcDbLine
 10
236.1636867027925
 20
271.0208168943338
 30
0.0
 11
233.3888232027925
 21
270.4041805943338
 31
0.0
  0
LINE
  5
17D1
102
{ACAD_REACTORS
330
17DA
102
}
330
1A
100
AcDbEntity
  8
NOKITOI
  6
PHANTOM
 62
     8
 48
5.0
100
AcDbLine
 10
236.0628439027925
 20
274.2647235943338
 30
0.0
 11
236.8659012027924
 21
272.3909232943339
 31
0.0
  0
ARC
  5
17D2
102
{ACAD_REACTORS
330
17DA
102
}
330
1A
100
AcDbEntity
  8
NOKITOI
  6
PHANTOM
 62
     8
 48
5.0
100
AcDbCircle
 10
235.9467562027925
 20
271.9970039943339
 30
0.0
 40
2.400000002163273
100
AcDbArc
 50
334.9771896074752
 51
23.1985898867007
  0
LINE
  5
17D3
102
{ACAD_REACTORS
330
17DA
102
}
330
1A
100
AcDbEntity
  8
NOKITOI
  6
PHANTOM
 62
     8
 48
5.0
100
AcDbLine
 10
238.4507927027925
 20
270.1050883943338
 30
0.0
 11
238.1214909027923
 21
270.9818542943338
 31
0.0
  0
LINE
  5
17D4
102
{ACAD_REACTORS
330
17DA
102
}
330
1A
100
AcDbEntity
  8
NOKITOI
  6
PHANTOM
 62
     8
 48
5.0
100
AcDbLine
 10
239.5686677027924
 20
270.4024348943338
 30
0.0
 11
239.8858875027924
 21
270.4024348943338
 31
0.0
  0
LINE
  5
17D5
102
{ACAD_REACTORS
330
17DA
102
}
330
1A
100
AcDbEntity
  8
NOKITOI
  6
PHANTOM
 62
     8
 48
5.0
100
AcDbLine
 10
239.5686677027924
 20
269.1524348943338
 30
0.0
 11
239.8858875027924
 21
269.1524348943338
 31
0.0
  0
ARC
  5
17D6
102
{ACAD_REACTORS
330
17DA
102
}
330
1A
100
AcDbEntity
  8
NOKITOI
  6
PHANTOM
 62
     8
 48
5.0
100
AcDbCircle
 10
239.5686677027924
 20
268.1524348943338
 30
0.0
 40
1.000000042259952
100
AcDbArc
 50
90.0
 51
199.983107011407
  0
ARC
  5
17D7
102
{ACAD_REACTORS
330
17DA
102
}
330
1A
100
AcDbEntity
  8
NOKITOI
  6
PHANTOM
 62
     8
 48
5.0
100
AcDbCircle
 10
239.5686677027924
 20
268.1524348943338
 30
0.0
 40
2.250000022965255
100
AcDbArc
 50
90.0
 51
119.79071456401
  0
LINE
  5
17D8
102
{ACAD_REACTORS
330
17DA
102
}
330
1A
100
AcDbEntity
  8
NOKITOI
  6
PHANTOM
 62
     8
 48
5.0
100
AcDbLine
 10
237.7490243027925
 20
273.8843301943338
 30
0.0
 11
238.1527043027924
 21
272.9424102943338
 31
0.0
  0
LINE
  5
17D9
102
{ACAD_REACTORS
330
17DA
102
}
330
1A
100
AcDbEntity
  8
NOKITOI
  6
PHANTOM
 62
     8
 48
5.0
100
AcDbLine
 10
243.4629851027925
 20
275.5649068943338
 30
0.0
 11
237.7490243027925
 21
273.8843301943338
 31
0.0
  0
ARC
  5
17DC
102
{ACAD_REACTORS
330
1826
102
}
330
1A
100
AcDbEntity
  8
NOKITOI
  6
PHANTOM
 62
     8
 48
5.0
100
AcDbCircle
 10
590.1696170306415
 20
209.3110664943338
 30
0.0
 40
41.24999998166308
100
AcDbArc
 50
105.9368511361188
 51
123.9414132906374
  0
LINE
  5
17DD
102
{ACAD_REACTORS
330
1826
102
}
330
1A
100
AcDbEntity
  8
NOKITOI
  6
PHANTOM
 62
     8
 48
5.0
100
AcDbLine
 10
573.9463682306416
 20
277.1489436943338
 30
0.0
 11
581.4521326306417
 21
274.9413659943338
 31
0.0
  0
ARC
  5
17DE
102
{ACAD_REACTORS
330
1826
102
}
330
1A
100
AcDbEntity
  8
NOKITOI
  6
PHANTOM
 62
     8
 48
5.0
100
AcDbCircle
 10
578.2647982306416
 20
268.1524348943337
 30
0.0
 40
2.250000031016088
100
AcDbArc
 50
340.0168932605402
 51
23.72813802459535
  0
LINE
  5
17DF
102
{ACAD_REACTORS
330
1826
102
}
330
1A
100
AcDbEntity
  8
NOKITOI
  6
PHANTOM
 62
     8
 48
5.0
100
AcDbLine
 10
581.8030538306415
 20
264.9024348943338
 30
0.0
 11
579.4771232306415
 21
264.9024348943338
 31
0.0
  0
LINE
  5
17E0
102
{ACAD_REACTORS
330
1826
102
}
330
1A
100
AcDbEntity
  8
NOKITOI
  6
PHANTOM
 62
     8
 48
5.0
100
AcDbLine
 10
580.3245947306415
 20
269.0578290943338
 30
0.0
 11
580.6548905306417
 21
269.9372414943338
 31
0.0
  0
LINE
  5
17E1
102
{ACAD_REACTORS
330
1826
102
}
330
1A
100
AcDbEntity
  8
NOKITOI
  6
PHANTOM
 62
     8
 48
5.0
100
AcDbLine
 10
582.3367204306416
 20
263.6524348943337
 30
0.0
 11
578.4063482306416
 21
263.6524348943337
 31
0.0
  0
ARC
  5
17E2
102
{ACAD_REACTORS
330
1826
102
}
330
1A
100
AcDbEntity
  8
NOKITOI
  6
PHANTOM
 62
     8
 48
5.0
100
AcDbCircle
 10
578.3424982306416
 20
250.6524348943337
 30
0.0
 40
3.000000019776849
100
AcDbArc
 50
285.4660097444062
 51
90.0
  0
LINE
  5
17E3
102
{ACAD_REACTORS
330
1826
102
}
330
1A
100
AcDbEntity
  8
NOKITOI
  6
PHANTOM
 62
     8
 48
5.0
100
AcDbLine
 10
579.4771232306415
 20
264.9024348943338
 30
0.0
 11
580.3793334306417
 21
267.3835129943337
 31
0.0
  0
LINE
  5
17E4
102
{ACAD_REACTORS
330
1826
102
}
330
1A
100
AcDbEntity
  8
NOKITOI
  6
PHANTOM
 62
     8
 48
5.0
100
AcDbLine
 10
577.9364515306415
 20
264.3233063943337
 30
0.0
 11
579.2045917306416
 21
267.8106917943338
 31
0.0
  0
ARC
  5
17E5
102
{ACAD_REACTORS
330
1826
102
}
330
1A
100
AcDbEntity
  8
NOKITOI
  6
PHANTOM
 62
     8
 48
5.0
100
AcDbCircle
 10
577.9475784306416
 20
261.4024348943337
 30
0.0
 40
7.75
100
AcDbArc
 50
90.0
 51
270.0
  0
ARC
  5
17E6
102
{ACAD_REACTORS
330
1826
102
}
330
1A
100
AcDbEntity
  8
NOKITOI
  6
PHANTOM
 62
     8
 48
5.0
100
AcDbCircle
 10
577.9475784306416
 20
261.4024348943337
 30
0.0
 40
8.999999994057947
100
AcDbArc
 50
194.6914618307745
 51
270.0
  0
ARC
  5
17E7
102
{ACAD_REACTORS
330
1826
102
}
330
1A
100
AcDbEntity
  8
NOKITOI
  6
PHANTOM
 62
     8
 48
5.0
100
AcDbCircle
 10
808.9901215306415
 20
193.3725461943339
 30
0.0
 40
248.5999999803393
100
AcDbArc
 50
164.6645082243129
 51
168.3595484367856
  0
ARC
  5
17E8
102
{ACAD_REACTORS
330
1826
102
}
330
1A
100
AcDbEntity
  8
NOKITOI
  6
PHANTOM
 62
     8
 48
5.0
100
AcDbCircle
 10
590.1696170306415
 20
209.3110664943338
 30
0.0
 40
39.99999996219694
100
AcDbArc
 50
106.0024208385434
 51
124.4840118037372
  0
LINE
  5
17E9
102
{ACAD_REACTORS
330
1826
102
}
330
1A
100
AcDbEntity
  8
NOKITOI
  6
PHANTOM
 62
     8
 48
5.0
100
AcDbLine
 10
567.5225672306416
 20
242.2824348943338
 30
0.0
 11
565.2489006306416
 21
242.2824348943338
 31
0.0
  0
LINE
  5
17EA
102
{ACAD_REACTORS
330
1826
102
}
330
1A
100
AcDbEntity
  8
NOKITOI
  6
PHANTOM
 62
     8
 48
5.0
100
AcDbLine
 10
567.1378901306415
 20
243.5324348943337
 30
0.0
 11
565.5030673306416
 21
243.5324348943337
 31
0.0
  0
LINE
  5
17EB
102
{ACAD_REACTORS
330
1826
102
}
330
1A
100
AcDbEntity
  8
NOKITOI
  6
PHANTOM
 62
     8
 48
5.0
100
AcDbLine
 10
577.9475784306416
 20
252.4024348943338
 30
0.0
 11
578.3424982306416
 21
252.4024348943338
 31
0.0
  0
ARC
  5
17EC
102
{ACAD_REACTORS
330
1826
102
}
330
1A
100
AcDbEntity
  8
NOKITOI
  6
PHANTOM
 62
     8
 48
5.0
100
AcDbCircle
 10
578.3424982306416
 20
250.6524348943337
 30
0.0
 40
1.749999987870436
100
AcDbArc
 50
285.4660113055313
 51
90.0
  0
ARC
  5
17ED
102
{ACAD_REACTORS
330
1826
102
}
330
1A
100
AcDbEntity
  8
NOKITOI
  6
PHANTOM
 62
     8
 48
5.0
100
AcDbCircle
 10
578.4063482306416
 20
264.1524348943338
 30
0.0
 40
0.4999999890915889
100
AcDbArc
 50
160.0168964151692
 51
270.0
  0
LINE
  5
17EE
102
{ACAD_REACTORS
330
1826
102
}
330
1A
100
AcDbEntity
  8
NOKITOI
  6
PHANTOM
 62
     8
 48
5.0
100
AcDbLine
 10
577.9475784306416
 20
253.6524348943337
 30
0.0
 11
578.3424982306416
 21
253.6524348943337
 31
0.0
  0
ARC
  5
17EF
102
{ACAD_REACTORS
330
1826
102
}
330
1A
100
AcDbEntity
  8
NOKITOI
  6
PHANTOM
 62
     8
 48
5.0
100
AcDbCircle
 10
573.8052851306415
 20
276.6692609943337
 30
0.0
 40
0.4999999707007273
100
AcDbArc
 50
73.61046483938574
 51
160.4970984965343
  0
ARC
  5
17F0
102
{ACAD_REACTORS
330
1826
102
}
330
1A
100
AcDbEntity
  8
NOKITOI
  6
PHANTOM
 62
     8
 48
5.0
100
AcDbCircle
 10
577.9475784306416
 20
261.4024348943337
 30
0.0
 40
9.000000014904554
100
AcDbArc
 50
90.0
 51
132.4946761440468
  0
ARC
  5
17F1
102
{ACAD_REACTORS
330
1826
102
}
330
1A
100
AcDbEntity
  8
NOKITOI
  6
PHANTOM
 62
     8
 48
5.0
100
AcDbCircle
 10
808.9901215306415
 20
193.3725461943339
 30
0.0
 40
248.5999999477729
100
AcDbArc
 50
160.6935328651771
 51
162.521630057444
  0
LINE
  5
17F2
102
{ACAD_REACTORS
330
1826
102
}
330
1A
100
AcDbEntity
  8
NOKITOI
  6
PHANTOM
 62
     8
 48
5.0
100
AcDbLine
 10
574.3704808306415
 20
275.5649068943337
 30
0.0
 11
580.0844416306415
 21
273.8843301943338
 31
0.0
  0
ARC
  5
17F3
102
{ACAD_REACTORS
330
1826
102
}
330
1A
100
AcDbEntity
  8
NOKITOI
  6
PHANTOM
 62
     8
 48
5.0
100
AcDbCircle
 10
578.2647982306416
 20
268.1524348943337
 30
0.0
 40
1.000000042259952
100
AcDbArc
 50
340.0168929885929
 51
90.0
  0
ARC
  5
17F4
102
{ACAD_REACTORS
330
1826
102
}
330
1A
100
AcDbEntity
  8
NOKITOI
  6
PHANTOM
 62
     8
 48
5.0
100
AcDbCircle
 10
578.2647982306416
 20
268.1524348943337
 30
0.0
 40
2.250000022965255
100
AcDbArc
 50
60.20928543598998
 51
90.0
  0
LINE
  5
17F5
102
{ACAD_REACTORS
330
1826
102
}
330
1A
100
AcDbEntity
  8
NOKITOI
  6
PHANTOM
 62
     8
 48
5.0
100
AcDbLine
 10
578.2647982306416
 20
270.4024348943338
 30
0.0
 11
577.9475784306416
 21
270.4024348943338
 31
0.0
  0
ARC
  5
17F6
102
{ACAD_REACTORS
330
1826
102
}
330
1A
100
AcDbEntity
  8
NOKITOI
  6
PHANTOM
 62
     8
 48
5.0
100
AcDbCircle
 10
581.8867097306415
 20
271.9970039943338
 30
0.0
 40
2.400000002163273
100
AcDbArc
 50
156.8014101132933
 51
205.022810392525
  0
LINE
  5
17F7
102
{ACAD_REACTORS
330
1826
102
}
330
1A
100
AcDbEntity
  8
NOKITOI
  6
PHANTOM
 62
     8
 48
5.0
100
AcDbLine
 10
579.3826732306415
 20
270.1050883943338
 30
0.0
 11
579.7119750306417
 21
270.9818542943338
 31
0.0
  0
LINE
  5
17F8
102
{ACAD_REACTORS
330
1826
102
}
330
1A
100
AcDbEntity
  8
NOKITOI
  6
PHANTOM
 62
     8
 48
5.0
100
AcDbLine
 10
578.2647982306416
 20
269.1524348943338
 30
0.0
 11
577.9475784306416
 21
269.1524348943338
 31
0.0
  0
LINE
  5
17F9
102
{ACAD_REACTORS
330
1826
102
}
330
1A
100
AcDbEntity
  8
NOKITOI
  6
PHANTOM
 62
     8
 48
5.0
100
AcDbLine
 10
580.0844416306415
 20
273.8843301943338
 30
0.0
 11
579.6807616306416
 21
272.9424102943338
 31
0.0
  0
LINE
  5
17FA
102
{ACAD_REACTORS
330
1826
102
}
330
1A
100
AcDbEntity
  8
NOKITOI
  6
PHANTOM
 62
     8
 48
5.0
100
AcDbLine
 10
583.3022059306415
 20
269.2239039943338
 30
0.0
 11
581.8030538306415
 21
264.9024348943338
 31
0.0
  0
LINE
  5
17FB
102
{ACAD_REACTORS
330
1826
102
}
330
1A
100
AcDbEntity
  8
NOKITOI
  6
PHANTOM
 62
     8
 48
5.0
100
AcDbLine
 10
584.8085603306417
 20
269.7522136943338
 30
0.0
 11
582.8091033306415
 21
263.9885614943338
 31
0.0
  0
ARC
  5
17FC
102
{ACAD_REACTORS
330
1826
102
}
330
1A
100
AcDbEntity
  8
NOKITOI
  6
PHANTOM
 62
     8
 48
5.0
100
AcDbCircle
 10
582.3367204306416
 20
264.1524348943338
 30
0.0
 40
0.5000000477199775
100
AcDbArc
 50
270.0
 51
340.8679314409346
  0
ARC
  5
17FD
102
{ACAD_REACTORS
330
1826
102
}
330
1A
100
AcDbEntity
  8
NOKITOI
  6
PHANTOM
 62
     8
 48
5.0
100
AcDbCircle
 10
581.3110494306415
 20
274.4616831943338
 30
0.0
 40
0.5000000583204929
100
AcDbArc
 50
336.8014185143129
 51
73.61045707925216
  0
LINE
  5
17FE
102
{ACAD_REACTORS
330
1826
102
}
330
1A
100
AcDbEntity
  8
NOKITOI
  6
PHANTOM
 62
     8
 48
5.0
100
AcDbLine
 10
581.3660766306416
 20
269.6541549943338
 30
0.0
 11
583.3022059306415
 21
269.2239039943338
 31
0.0
  0
LINE
  5
17FF
102
{ACAD_REACTORS
330
1826
102
}
330
1A
100
AcDbEntity
  8
NOKITOI
  6
PHANTOM
 62
     8
 48
5.0
100
AcDbLine
 10
581.6697792306415
 20
271.0208168943338
 30
0.0
 11
584.4446427306415
 21
270.4041805943337
 31
0.0
  0
ARC
  5
1800
102
{ACAD_REACTORS
330
1826
102
}
330
1A
100
AcDbEntity
  8
NOKITOI
  6
PHANTOM
 62
     8
 48
5.0
100
AcDbCircle
 10
581.8867097306415
 20
271.9970039943338
 30
0.0
 40
1.000000010493544
100
AcDbArc
 50
156.8014087340216
 51
257.4711904264705
  0
ARC
  5
1801
102
{ACAD_REACTORS
330
1826
102
}
330
1A
100
AcDbEntity
  8
NOKITOI
  6
PHANTOM
 62
     8
 48
5.0
100
AcDbCircle
 10
581.8867097306415
 20
271.9970039943338
 30
0.0
 40
2.400000037449118
100
AcDbArc
 50
239.1189120830813
 51
257.4711925497897
  0
ARC
  5
1802
102
{ACAD_REACTORS
330
1826
102
}
330
1A
100
AcDbEntity
  8
NOKITOI
  6
PHANTOM
 62
     8
 48
5.0
100
AcDbCircle
 10
584.3361774306415
 20
269.9160869943338
 30
0.0
 40
0.5000000731651486
100
AcDbArc
 50
340.867942267144
 51
77.47118607625096
  0
LINE
  5
1803
102
{ACAD_REACTORS
330
1826
102
}
330
1A
100
AcDbEntity
  8
NOKITOI
  6
PHANTOM
 62
     8
 48
5.0
100
AcDbLine
 10
581.7706220306416
 20
274.2647235943338
 30
0.0
 11
580.9675647306416
 21
272.3909232943338
 31
0.0
  0
ARC
  5
1804
102
{ACAD_REACTORS
330
1826
102
}
330
1A
100
AcDbEntity
  8
NOKITOI
  6
PHANTOM
 62
     8
 48
5.0
100
AcDbCircle
 10
808.9901215306415
 20
193.3725461943339
 30
0.0
 40
249.9999999705148
100
AcDbArc
 50
160.4989464255704
 51
180.1139751545515
  0
ARC
  5
1805
102
{ACAD_REACTORS
330
1826
102
}
330
1A
100
AcDbEntity
  8
NOKITOI
  6
PHANTOM
 62
     8
 48
5.0
100
AcDbCircle
 10
808.9901215306415
 20
193.3725461943339
 30
0.0
 40
248.5999999338434
100
AcDbArc
 50
168.6535361648575
 51
178.0328534586943
  0
LINE
  5
1806
102
{ACAD_REACTORS
330
1826
102
}
330
1A
100
AcDbEntity
  8
NOKITOI
  6
PHANTOM
 62
     8
 48
5.0
100
AcDbLine
 10
560.5366280306416
 20
201.9060989943338
 30
0.0
 11
574.9182230306416
 21
197.0033806943338
 31
0.0
  0
LINE
  5
1807
102
{ACAD_REACTORS
330
1826
102
}
330
1A
100
AcDbEntity
  8
NOKITOI
  6
PHANTOM
 62
     8
 48
5.0
100
AcDbLine
 10
560.4951922306415
 20
200.5995864943339
 30
0.0
 11
573.6954566306417
 21
196.0995864943338
 31
0.0
  0
ARC
  5
1808
102
{ACAD_REACTORS
330
1826
102
}
330
1A
100
AcDbEntity
  8
NOKITOI
  6
PHANTOM
 62
     8
 48
5.0
100
AcDbCircle
 10
808.9901215306415
 20
193.3725461943339
 30
0.0
 40
248.5999999565055
100
AcDbArc
 50
178.334122066801
 51
179.9030064498833
  0
LINE
  5
1809
102
{ACAD_REACTORS
330
1826
102
}
330
1A
100
AcDbEntity
  8
NOKITOI
  6
PHANTOM
 62
     8
 48
5.0
100
AcDbLine
 10
573.6954566306417
 20
196.0995864943338
 30
0.0
 11
560.3904778306416
 21
193.7933901943338
 31
0.0
  0
LINE
  5
180A
102
{ACAD_REACTORS
330
1826
102
}
330
1A
100
AcDbEntity
  8
NOKITOI
  6
PHANTOM
 62
     8
 48
5.0
100
AcDbLine
 10
573.5337182306416
 20
194.8029129943338
 30
0.0
 11
559.5760085306417
 21
192.3835766943338
 31
0.0
  0
ARC
  5
180B
102
{ACAD_REACTORS
330
1826
102
}
330
1A
100
AcDbEntity
  8
NOKITOI
  6
PHANTOM
 62
     8
 48
5.0
100
AcDbCircle
 10
559.4906152306416
 20
192.8762306943338
 30
0.0
 40
0.4999999843155076
100
AcDbArc
 50
180.1139728422216
 51
279.8335571897311
  0
ARC
  5
180C
102
{ACAD_REACTORS
330
1826
102
}
330
1A
100
AcDbEntity
  8
NOKITOI
  6
PHANTOM
 62
     8
 48
5.0
100
AcDbCircle
 10
816.7152396306416
 20
254.7629060943338
 30
0.0
 40
248.6000000119225
100
AcDbArc
 50
193.4348295159763
 51
199.8543528104381
  0
ARC
  5
180D
102
{ACAD_REACTORS
330
1826
102
}
330
1A
100
AcDbEntity
  8
NOKITOI
  6
PHANTOM
 62
     8
 48
5.0
100
AcDbCircle
 10
816.7152396306416
 20
254.7629060943338
 30
0.0
 40
250.0000000041909
100
AcDbArc
 50
193.9649292600209
 51
199.8292867126739
  0
ARC
  5
180E
102
{ACAD_REACTORS
330
1826
102
}
330
1A
100
AcDbEntity
  8
NOKITOI
  6
PHANTOM
 62
     8
 48
5.0
100
AcDbCircle
 10
573.6191116306415
 20
194.3102589943338
 30
0.0
 40
0.4999999962853926
100
AcDbArc
 50
13.96493336164914
 51
99.83356848052444
  0
ARC
  5
180F
102
{ACAD_REACTORS
330
1826
102
}
330
1A
100
AcDbEntity
  8
NOKITOI
  6
PHANTOM
 62
     8
 48
5.0
100
AcDbCircle
 10
635.3924982306416
 20
1167.282434494333
 30
0.0
 40
998.6999996255219
100
AcDbArc
 50
267.0172809116883
 51
273.5168981548131
  0
ARC
  5
1810
102
{ACAD_REACTORS
330
1826
102
}
330
1A
100
AcDbEntity
  8
NOKITOI
  6
PHANTOM
 62
     8
 48
5.0
100
AcDbCircle
 10
635.3924982306416
 20
1167.282434494333
 30
0.0
 40
999.9999996378269
100
AcDbArc
 50
267.0148646804368
 51
273.5168981553109
  0
ARC
  5
1811
102
{ACAD_REACTORS
330
1826
102
}
330
1A
100
AcDbEntity
  8
NOKITOI
  6
PHANTOM
 62
     8
 48
5.0
100
AcDbCircle
 10
583.4566059306417
 20
170.5345865943337
 30
0.0
 40
0.600000018220417
100
AcDbArc
 50
199.8543536299526
 51
267.0172768003594
  0
ARC
  5
1812
102
{ACAD_REACTORS
330
1826
102
}
330
1A
100
AcDbEntity
  8
NOKITOI
  6
PHANTOM
 62
     8
 48
5.0
100
AcDbCircle
 10
583.4197795306415
 20
170.6366419943338
 30
0.0
 40
2.000000017156621
100
AcDbArc
 50
199.8292863539379
 51
267.0148660256756
  0
ARC
  5
1813
102
{ACAD_REACTORS
330
1826
102
}
330
1A
100
AcDbEntity
  8
NOKITOI
  6
PHANTOM
 62
     8
 48
5.0
100
AcDbCircle
 10
696.4286988306416
 20
174.1562685943338
 30
0.0
 40
3.699999980057802
100
AcDbArc
 50
273.5168983431847
 51
357.0463038124632
  0
ARC
  5
1814
102
{ACAD_REACTORS
330
1826
102
}
330
1A
100
AcDbEntity
  8
NOKITOI
  6
PHANTOM
 62
     8
 48
5.0
100
AcDbCircle
 10
696.4286988306416
 20
174.1562685943338
 30
0.0
 40
5.000000016093117
100
AcDbArc
 50
273.5168983936101
 51
357.0463033884132
  0
LINE
  5
1815
102
{ACAD_REACTORS
330
1826
102
}
330
1A
100
AcDbEntity
  8
NOKITOI
  6
PHANTOM
 62
     8
 48
5.0
100
AcDbLine
 10
704.4212173306416
 20
232.0247904943337
 30
0.0
 11
701.4220563306416
 21
173.8986240943338
 31
0.0
  0
LINE
  5
1816
102
{ACAD_REACTORS
330
1826
102
}
330
1A
100
AcDbEntity
  8
NOKITOI
  6
PHANTOM
 62
     8
 48
5.0
100
AcDbLine
 10
700.1237833306415
 20
173.9656116943338
 30
0.0
 11
702.6333362306416
 21
222.6027767943338
 31
0.0
  0
LINE
  5
1817
102
{ACAD_REACTORS
330
1826
102
}
330
1A
100
AcDbEntity
  8
NOKITOI
  6
PHANTOM
 62
     8
 48
5.0
100
AcDbLine
 10
694.1426741306416
 20
223.6589860943337
 30
0.0
 11
702.7309792306416
 21
224.4951769943337
 31
0.0
  0
LINE
  5
1818
102
{ACAD_REACTORS
330
1826
102
}
330
1A
100
AcDbEntity
  8
NOKITOI
  6
PHANTOM
 62
     8
 48
5.0
100
AcDbLine
 10
693.1140956306417
 20
222.2526923943338
 30
0.0
 11
702.0855476306417
 21
223.1261879943338
 31
0.0
  0
LINE
  5
1819
102
{ACAD_REACTORS
330
1826
102
}
330
1A
100
AcDbEntity
  8
NOKITOI
  6
PHANTOM
 62
     8
 48
5.0
100
AcDbLine
 10
696.6854328306415
 20
232.9824348943338
 30
0.0
 11
694.1426741306416
 21
223.6589860943337
 31
0.0
  0
LINE
  5
181A
102
{ACAD_REACTORS
330
1826
102
}
330
1A
100
AcDbEntity
  8
NOKITOI
  6
PHANTOM
 62
     8
 48
5.0
100
AcDbLine
 10
692.5832609306417
 20
222.8818978943337
 30
0.0
 11
695.6924982306416
 21
234.2824348943338
 31
0.0
  0
ARC
  5
181B
102
{ACAD_REACTORS
330
1826
102
}
330
1A
100
AcDbEntity
  8
NOKITOI
  6
PHANTOM
 62
     8
 48
5.0
100
AcDbCircle
 10
693.0656428306415
 20
222.7503391943337
 30
0.0
 40
0.5000000001856648
100
AcDbArc
 50
164.7448812969383
 51
275.5610086575834
  0
LINE
  5
181C
102
{ACAD_REACTORS
330
1826
102
}
330
1A
100
AcDbEntity
  8
NOKITOI
  6
PHANTOM
 62
     8
 48
5.0
100
AcDbLine
 10
702.7309792306416
 20
224.4951769943337
 30
0.0
 11
703.1229443306415
 21
232.0917779943337
 31
0.0
  0
ARC
  5
181D
102
{ACAD_REACTORS
330
1826
102
}
330
1A
100
AcDbEntity
  8
NOKITOI
  6
PHANTOM
 62
     8
 48
5.0
100
AcDbCircle
 10
702.1340005306415
 20
222.6285411943338
 30
0.0
 40
0.4999999833352752
100
AcDbArc
 50
357.0463088151362
 51
95.56102006278955
  0
ARC
  5
181E
102
{ACAD_REACTORS
330
1826
102
}
330
1A
100
AcDbEntity
  8
NOKITOI
  6
PHANTOM
 62
     8
 48
5.0
100
AcDbCircle
 10
699.4278598306416
 20
232.2824348943338
 30
0.0
 40
3.699999967274206
100
AcDbArc
 50
357.0463038124632
 51
90.0
  0
ARC
  5
181F
102
{ACAD_REACTORS
330
1826
102
}
330
1A
100
AcDbEntity
  8
NOKITOI
  6
PHANTOM
 62
     8
 48
5.0
100
AcDbCircle
 10
699.4278598306416
 20
232.2824348943338
 30
0.0
 40
4.999999987982882
100
AcDbArc
 50
357.046304532808
 51
90.0
  0
LINE
  5
1820
102
{ACAD_REACTORS
330
1826
102
}
330
1A
100
AcDbEntity
  8
NOKITOI
  6
PHANTOM
 62
     8
 48
5.0
100
AcDbLine
 10
699.4278598306416
 20
235.9824348943338
 30
0.0
 11
698.9924982306416
 21
235.9824348943338
 31
0.0
  0
LINE
  5
1821
102
{ACAD_REACTORS
330
1826
102
}
330
1A
100
AcDbEntity
  8
NOKITOI
  6
PHANTOM
 62
     8
 48
5.0
100
AcDbLine
 10
698.9924982306416
 20
235.9824348943338
 30
0.0
 11
698.9924982306416
 21
232.9824348943338
 31
0.0
  0
LINE
  5
1822
102
{ACAD_REACTORS
330
1826
102
}
330
1A
100
AcDbEntity
  8
NOKITOI
  6
PHANTOM
 62
     8
 48
5.0
100
AcDbLine
 10
698.9924982306416
 20
232.9824348943338
 30
0.0
 11
696.6854328306415
 21
232.9824348943338
 31
0.0
  0
LINE
  5
1823
102
{ACAD_REACTORS
330
1826
102
}
330
1A
100
AcDbEntity
  8
NOKITOI
  6
PHANTOM
 62
     8
 48
5.0
100
AcDbLine
 10
695.6924982306416
 20
234.2824348943338
 30
0.0
 11
697.6924982306416
 21
234.2824348943338
 31
0.0
  0
LINE
  5
1824
102
{ACAD_REACTORS
330
1826
102
}
330
1A
100
AcDbEntity
  8
NOKITOI
  6
PHANTOM
 62
     8
 48
5.0
100
AcDbLine
 10
697.6924982306416
 20
234.2824348943338
 30
0.0
 11
697.6924982306416
 21
237.2824348943337
 31
0.0
  0
LINE
  5
1825
102
{ACAD_REACTORS
330
1826
102
}
330
1A
100
AcDbEntity
  8
NOKITOI
  6
PHANTOM
 62
     8
 48
5.0
100
AcDbLine
 10
697.6924982306416
 20
237.2824348943337
 30
0.0
 11
699.4278598306416
 21
237.2824348943337
 31
0.0
  0
LINE
  5
1A67
330
1A
100
AcDbEntity
  8
ZUWAKU
100
AcDbLine
 10
208.646601303624
 20
15.19999986828872
 30
0.0
 11
447.4243639845474
 21
15.19999986828871
 31
0.0
  0
LINE
  5
1A68
330
1A
100
AcDbEntity
  8
ZUWAKU
100
AcDbLine
 10
208.646601303624
 20
15.59999986828871
 30
0.0
 11
447.4243639845474
 21
15.59999986828872
 31
0.0
  0
LINE
  5
1A69
330
1A
100
AcDbEntity
  8
ZUWAKU
100
AcDbLine
 10
208.646601303624
 20
15.39999986828871
 30
0.0
 11
447.4243639845474
 21
15.39999986828871
 31
0.0
  0
LINE
  5
1A6A
330
1A
100
AcDbEntity
  8
ZUWAKU
100
AcDbLine
 10
0.0000000135560185
 20
30.79999986828869
 30
0.0
 11
797.4000000135559
 21
30.79999986828869
 31
0.0
  0
LINE
  5
1A6B
330
1A
100
AcDbEntity
  8
ZUWAKU
100
AcDbLine
 10
0.0000000135560185
 20
30.59999986828869
 30
0.0
 11
797.4000000135559
 21
30.59999986828869
 31
0.0
  0
LINE
  5
1A6C
330
1A
100
AcDbEntity
  8
ZUWAKU
100
AcDbLine
 10
0.0000000135560185
 20
30.39999986828869
 30
0.0
 11
797.4000000135559
 21
30.39999986828869
 31
0.0
  0
LINE
  5
1A6D
330
1A
100
AcDbEntity
  8
ZUWAKU
100
AcDbLine
 10
0.0000000135560185
 20
30.19999986828868
 30
0.0
 11
797.4000000135559
 21
30.19999986828868
 31
0.0
  0
LINE
  5
1A6E
330
1A
100
AcDbEntity
  8
ZUWAKU
100
AcDbLine
 10
0.0000000135560185
 20
29.99999986828868
 30
0.0
 11
797.4000000135559
 21
29.99999986828868
 31
0.0
  0
LWPOLYLINE
  5
1A6F
330
1A
100
AcDbEntity
  8
ZUWAKU
100
AcDbPolyline
 90
        4
 70
     1
 43
0.0
 10
0.2000000135559503
 20
551.3999998682887
 10
0.2000000135559503
 20
0.1999998682887281
 10
797.4000000135559
 20
0.1999998682887511
 10
797.4000000135561
 20
551.3999998682887
  0
LWPOLYLINE
  5
1A70
330
1A
100
AcDbEntity
  8
ZUWAKU
100
AcDbPolyline
 90
        4
 70
     1
 43
0.0
 10
0.6000000135559276
 20
550.9999998682888
 10
0.6000000135559276
 20
0.5999998682887054
 10
797.0000000135562
 20
0.5999998682887516
 10
797.000000013556
 20
550.9999998682888
  0
LWPOLYLINE
  5
1A71
330
1A
100
AcDbEntity
  8
ZUWAKU
100
AcDbPolyline
 90
        4
 70
     1
 43
0.0
 10
0.0000000135560185
 20
551.5999998682887
 10
0.0000000135560185
 20
-0.0000001317113174
 10
797.6000000135561
 20
-0.0000001317112499
 10
797.6000000135561
 20
551.5999998682888
  0
LWPOLYLINE
  5
1A72
330
1A
100
AcDbEntity
  8
ZUWAKU
100
AcDbPolyline
 90
        4
 70
     1
 43
0.0
 10
0.4000000135559958
 20
551.1999998682887
 10
0.4000000135559958
 20
0.3999998682887735
 10
797.200000013556
 20
0.3999998682887504
 10
797.200000013556
 20
551.1999998682887
  0
LWPOLYLINE
  5
1A73
330
1A
100
AcDbEntity
  8
ZUWAKU
100
AcDbPolyline
 90
        4
 70
     1
 43
0.0
 10
0.800000013555973
 20
550.7999998682887
 10
0.800000013555973
 20
0.7999998682887508
 10
796.8000000135559
 20
0.7999998682887508
 10
796.8000000135559
 20
550.7999998682887
  0
TEXT
  5
1A74
330
1A
100
AcDbEntity
  8
MOJI
100
AcDbText
 10
92.95778960172516
 20
12.74117799856344
 30
0.0
 40
6.0
  1
アートフェイスＴ１２０
 41
0.9
  7
ｽﾀｲﾙ1
100
AcDbText
  0
HATCH
  5
1A75
330
1A
100
AcDbEntity
  8
ZUWAKU
100
AcDbHatch
 10
0.0
 20
0.0
 30
0.0
210
0.0
220
0.0
230
1.0
  2
ANSI37
 70
     0
 71
     0
 91
        8
 92
        7
 72
     1
 73
     1
 93
       24
 10
14.50226267467587
 20
17.64484834927226
 42
-0.1989123673796348
 10
14.09221216833714
 20
18.63479784293331
 42
0.0
 10
14.09221216833714
 20
19.92499986828869
 42
-0.4142135623730912
 10
14.61721216833711
 20
20.44999986828868
 42
0.0
 10
17.59221216833702
 20
20.44999986828868
 42
0.4142135623731546
 10
18.11721216833712
 20
20.97499986828867
 42
0.0
 10
18.11721216833712
 20
22.72499986828869
 42
0.4142135623731586
 10
17.59221216833702
 20
23.24999986828868
 42
0.0
 10
14.09221216833714
 20
23.24999986828868
 42
0.4142135623730928
 10
11.29221216833718
 20
20.44999986828871
 42
0.0
 10
11.29221216833718
 20
18.63479784293344
 42
0.1989123673796619
 10
12.52236368735361
 20
15.66494936194983
 42
0.0
 10
15.43216166199829
 20
12.75515138730518
 42
-0.1989123673796613
 10
15.84221216833714
 20
11.76520189364399
 42
0.0
 10
15.84221216833714
 20
10.47499986828867
 42
-0.4142135623730911
 10
15.31721216833716
 20
9.949999868288685
 42
0.0
 10
12.34221216833725
 20
9.949999868288685
 42
0.4142135623731526
 10
11.81721216833716
 20
9.424999868288697
 42
0.0
 10
11.81721216833716
 20
7.674999868288676
 42
0.4142135623731526
 10
12.34221216833725
 20
7.149999868288688
 42
0.0
 10
15.84221216833714
 20
7.149999868288688
 42
0.4142135623731044
 10
18.64221216833721
 20
9.949999868288664
 42
0.0
 10
18.64221216833721
 20
11.76520189364393
 42
0.1989123673796604
 10
17.41206064932066
 20
14.73505037462747
 42
0.0
 97
        0
 92
        7
 72
     1
 73
     1
 93
       16
 10
23.54221216833718
 20
19.04999986828869
 42
-0.4142135623730935
 10
24.94221216833716
 20
20.44999986828868
 42
0.0
 10
26.86721216833712
 20
20.44999986828868
 42
0.4142135623731546
 10
27.39221216833721
 20
20.97499986828867
 42
0.0
 10
27.39221216833721
 20
22.72499986828869
 42
0.4142135623730951
 10
26.86721216833723
 20
23.24999986828868
 42
0.0
 10
24.94221216833705
 20
23.24999986828864
 42
0.4142135623730892
 10
20.74221216833711
 20
19.04999986828862
 42
0.0
 10
20.74221216833711
 20
11.34999986828871
 42
0.4142135623730969
 10
24.94221216833716
 20
7.149999868288688
 42
0.0
 10
26.86721216833712
 20
7.149999868288688
 42
0.4142135623731526
 10
27.39221216833721
 20
7.674999868288676
 42
0.0
 10
27.39221216833721
 20
9.424999868288697
 42
0.4142135623730891
 10
26.86721216833723
 20
9.949999868288685
 42
0.0
 10
24.94221216833716
 20
9.949999868288685
 42
-0.4142135623730928
 10
23.54221216833718
 20
11.34999986828867
 42
0.0
 97
        0
 92
        7
 72
     1
 73
     1
 93
        2
 10
24.24221216833712
 20
15.19999986828868
 42
1.0
 10
27.74221216833712
 20
15.19999986828868
 42
1.0
 97
        0
 92
        7
 72
     1
 73
     1
 93
       26
 10
37.31485865051513
 20
19.20504706185211
 42
0.0
 10
38.37649828365295
 20
22.5669059001217
 42
0.5069206636600134
 10
37.87586738445759
 20
23.24999986828868
 42
0.0
 10
36.17697800484836
 20
23.24999986828868
 42
0.3272098845218764
 10
35.676347105653
 20
22.88309383645565
 42
0.0
 10
33.80807723102122
 20
16.96690590012176
 42
-0.3272098845219541
 10
33.30744633182575
 20
16.59999986828868
 42
0.0
 10
33.1672121683373
 20
16.59999986828868
 42
-0.4142135623731526
 10
32.64221216833721
 20
17.12499986828867
 42
0.0
 10
32.64221216833721
 20
22.72499986828869
 42
0.4142135623730951
 10
32.11721216833723
 20
23.24999986828868
 42
0.0
 10
30.36721216833711
 20
23.24999986828868
 42
0.4142135623730871
 10
29.84221216833714
 20
22.7249998682887
 42
0.0
 10
29.84221216833714
 20
7.674999868288676
 42
0.4142135623730891
 10
30.36721216833711
 20
7.149999868288688
 42
0.0
 10
32.11721216833712
 20
7.149999868288688
 42
0.4142135623731526
 10
32.64221216833721
 20
7.674999868288676
 42
0.0
 10
32.64221216833721
 20
13.27499986828869
 42
-0.4142135623731526
 10
33.1672121683373
 20
13.79999986828868
 42
0.0
 10
33.30744633182587
 20
13.79999986828868
 42
-0.3272098845218915
 10
33.80807723102122
 20
13.43309383645561
 42
0.0
 10
35.676347105653
 20
7.516905900121759
 42
0.3272098845218902
 10
36.17697800484836
 20
7.149999868288688
 42
0.0
 10
37.87586738445759
 20
7.149999868288688
 42
0.5069206636600335
 10
38.37649828365295
 20
7.833093836455695
 42
0.0
 10
36.05010690517929
 20
15.19999986828882
 42
0.0
 97
        0
 92
        7
 72
     1
 73
     1
 93
        8
 10
43.49221216833711
 20
22.7249998682887
 42
0.4142135623731546
 10
42.96721216833702
 20
23.24999986828868
 42
0.0
 10
41.21721216833726
 20
23.24999986828868
 42
0.4142135623731507
 10
40.69221216833716
 20
22.7249998682887
 42
0.0
 10
40.69221216833716
 20
7.674999868288676
 42
0.4142135623731526
 10
41.21721216833726
 20
7.149999868288688
 42
0.0
 10
42.96721216833702
 20
7.149999868288688
 42
0.4142135623731526
 10
43.49221216833711
 20
7.674999868288676
 42
0.0
 97
        0
 92
        7
 72
     1
 73
     1
 93
       24
 10
48.3922121683372
 20
19.92499986828869
 42
-0.4142135623731546
 10
48.9172121683373
 20
20.44999986828868
 42
0.0
 10
51.89221216833721
 20
20.44999986828868
 42
0.4142135623730911
 10
52.41721216833719
 20
20.97499986828867
 42
0.0
 10
52.41721216833719
 20
22.72499986828869
 42
0.4142135623730952
 10
51.89221216833721
 20
23.24999986828868
 42
0.0
 10
48.3922121683372
 20
23.24999986828868
 42
0.4142135623731048
 10
45.59221216833714
 20
20.44999986828871
 42
0.0
 10
45.59221216833714
 20
18.63479784293344
 42
0.1989123673796613
 10
46.82236368735368
 20
15.66494936194989
 42
0.0
 10
49.73216166199836
 20
12.75515138730522
 42
-0.1989123673796402
 10
50.14221216833721
 20
11.76520189364415
 42
0.0
 10
50.14221216833721
 20
10.47499986828867
 42
-0.4142135623730911
 10
49.61721216833723
 20
9.949999868288685
 42
0.0
 10
46.64221216833721
 20
9.949999868288685
 42
0.4142135623731526
 10
46.11721216833712
 20
9.424999868288697
 42
0.0
 10
46.11721216833712
 20
7.674999868288676
 42
0.4142135623730891
 10
46.64221216833709
 20
7.149999868288688
 42
0.0
 10
50.14221216833721
 20
7.149999868288688
 42
0.4142135623730925
 10
52.94221216833716
 20
9.949999868288664
 42
0.0
 10
52.94221216833716
 20
11.76520189364393
 42
0.1989123673796675
 10
51.71206064932062
 20
14.73505037462759
 42
0.0
 10
48.80226267467605
 20
17.6448483492721
 42
-0.1989123673796652
 10
48.3922121683372
 20
18.63479784293327
 42
0.0
 97
        0
 92
        7
 72
     1
 73
     1
 93
       16
 10
57.84221216833714
 20
22.72499986828867
 42
0.414213562373103
 10
57.31721216833716
 20
23.24999986828868
 42
0.0
 10
55.56721216833716
 20
23.24999986828868
 42
0.4142135623730871
 10
55.04221216833719
 20
22.7249998682887
 42
0.0
 10
55.04221216833719
 20
9.949999868288664
 42
0.4142135623730926
 10
57.84221216833714
 20
7.149999868288688
 42
0.0
 10
61.34221216833714
 20
7.149999868288688
 42
0.4142135623731044
 10
64.14221216833721
 20
9.949999868288664
 42
0.0
 10
64.14221216833721
 20
22.72499986828869
 42
0.4142135623730951
 10
63.61721216833723
 20
23.24999986828868
 42
0.0
 10
61.86721216833712
 20
23.24999986828868
 42
0.4142135623730871
 10
61.34221216833714
 20
22.7249998682887
 42
0.0
 10
61.34221216833714
 20
10.99999986828866
 42
-0.414213562373088
 10
60.29221216833718
 20
9.949999868288685
 42
0.0
 10
58.89221216833721
 20
9.949999868288685
 42
-0.4142135623731197
 10
57.84221216833714
 20
10.99999986828866
 42
0.0
 97
        0
 92
        7
 72
     1
 73
     1
 93
        8
 10
69.04221216833718
 20
22.7249998682887
 42
0.4142135623730871
 10
68.51721216833721
 20
23.24999986828868
 42
0.0
 10
66.76721216833721
 20
23.24999986828868
 42
0.4142135623731507
 10
66.24221216833712
 20
22.7249998682887
 42
0.0
 10
66.24221216833712
 20
7.674999868288676
 42
0.4142135623730891
 10
66.76721216833709
 20
7.149999868288688
 42
0.0
 10
68.51721216833721
 20
7.149999868288688
 42
0.4142135623730891
 10
69.04221216833718
 20
7.674999868288676
 42
0.0
 97
        0
 75
     0
 76
     1
 52
0.0
 41
0.2
 77
     0
 78
     2
 53
45.0
 43
-900.942304321123
 44
-13.20000013171124
 45
-0.4490128060534576
 46
0.4490128060534577
 79
     0
 53
135.0
 43
-900.942304321123
 44
-13.20000013171124
 45
-0.4490128060534577
 46
-0.4490128060534576
 79
     0
 47
0.057451373970553
 98
        8
 10
16.07985497657932
 20
15.16717351417423
 10
22.40451501999519
 20
18.84406205073969
 10
25.16436789921567
 20
15.5118815143594
 10
30.91405999519315
 20
16.20129751473018
 10
41.83847203251275
 20
16.6609097822718
 10
46.89820090868557
 20
19.41857618469589
 10
56.55768598595637
 20
18.72915778338369
 10
67.82707963317875
 20
19.18877005092531
  0
LINE
  5
1A76
330
1A
100
AcDbEntity
  8
ZUWAKU
100
AcDbLine
 10
24.94221216833716
 20
23.24999986828864
 30
0.0
 11
26.86721216833712
 21
23.24999986828868
 31
0.0
  0
LINE
  5
1A77
330
1A
100
AcDbEntity
  8
ZUWAKU
100
AcDbLine
 10
26.86721216833712
 20
20.44999986828868
 30
0.0
 11
24.94221216833716
 21
20.44999986828868
 31
0.0
  0
LINE
  5
1A78
330
1A
100
AcDbEntity
  8
ZUWAKU
100
AcDbLine
 10
24.94221216833716
 20
9.949999868288685
 30
0.0
 11
26.86721216833712
 21
9.949999868288685
 31
0.0
  0
LINE
  5
1A79
330
1A
100
AcDbEntity
  8
ZUWAKU
100
AcDbLine
 10
26.86721216833712
 20
7.149999868288688
 30
0.0
 11
24.94221216833716
 21
7.149999868288688
 31
0.0
  0
CIRCLE
  5
1A7A
330
1A
100
AcDbEntity
  8
ZUWAKU
100
AcDbCircle
 10
25.99221216833711
 20
15.19999986828868
 30
0.0
 40
1.75
  0
ARC
  5
1A7B
330
1A
100
AcDbEntity
  8
ZUWAKU
100
AcDbCircle
 10
15.49221216833712
 20
18.63479784293338
 30
0.0
 40
1.399999999999999
100
AcDbArc
 50
180.0000000000016
 51
224.9999999999988
  0
LINE
  5
1A7C
330
1A
100
AcDbEntity
  8
ZUWAKU
100
AcDbLine
 10
23.54221216833718
 20
19.04999986828868
 30
0.0
 11
23.54221216833718
 21
11.34999986828869
 31
0.0
  0
LINE
  5
1A7D
330
1A
100
AcDbEntity
  8
ZUWAKU
100
AcDbLine
 10
20.74221216833711
 20
11.34999986828869
 30
0.0
 11
20.74221216833711
 21
19.04999986828864
 31
0.0
  0
ARC
  5
1A7E
330
1A
100
AcDbEntity
  8
ZUWAKU
100
AcDbCircle
 10
15.49221216833712
 20
18.63479784293338
 30
0.0
 40
4.199999999999999
100
AcDbArc
 50
180.0
 51
225.0
  0
ARC
  5
1A7F
330
1A
100
AcDbEntity
  8
ZUWAKU
100
AcDbCircle
 10
15.84221216833714
 20
9.949999868288685
 30
0.0
 40
2.799999999999999
100
AcDbArc
 50
270.0
 51
0.0
  0
ARC
  5
1A80
330
1A
100
AcDbEntity
  8
ZUWAKU
100
AcDbCircle
 10
24.94221216833716
 20
11.34999986828869
 30
0.0
 40
4.199999999999999
100
AcDbArc
 50
180.0
 51
270.0
  0
ARC
  5
1A81
330
1A
100
AcDbEntity
  8
ZUWAKU
100
AcDbCircle
 10
14.44221216833716
 20
11.76520189364399
 30
0.0
 40
4.199999999999999
100
AcDbArc
 50
0.0
 51
45.0
  0
LINE
  5
1A82
330
1A
100
AcDbEntity
  8
ZUWAKU
100
AcDbLine
 10
17.41206064932066
 20
14.73505037462751
 30
0.0
 11
14.50226267467598
 21
17.64484834927218
 31
0.0
  0
LINE
  5
1A83
330
1A
100
AcDbEntity
  8
ZUWAKU
100
AcDbLine
 10
15.84221216833714
 20
10.47499986828869
 30
0.0
 11
15.84221216833714
 21
11.76520189364403
 31
0.0
  0
ARC
  5
1A84
330
1A
100
AcDbEntity
  8
ZUWAKU
100
AcDbCircle
 10
15.31721216833716
 20
10.47499986828869
 30
0.0
 40
0.525
100
AcDbArc
 50
270.0
 51
0.0
  0
ARC
  5
1A85
330
1A
100
AcDbEntity
  8
ZUWAKU
100
AcDbCircle
 10
14.44221216833716
 20
11.76520189364403
 30
0.0
 40
1.399999999999999
100
AcDbArc
 50
0.0
 51
45.0
  0
LINE
  5
1A86
330
1A
100
AcDbEntity
  8
ZUWAKU
100
AcDbLine
 10
11.81721216833716
 20
7.674999868288686
 30
0.0
 11
11.81721216833716
 21
9.424999868288686
 31
0.0
  0
ARC
  5
1A87
330
1A
100
AcDbEntity
  8
ZUWAKU
100
AcDbCircle
 10
12.34221216833714
 20
7.674999868288686
 30
0.0
 40
0.525
100
AcDbArc
 50
180.0
 51
270.0
  0
ARC
  5
1A88
330
1A
100
AcDbEntity
  8
ZUWAKU
100
AcDbCircle
 10
12.34221216833714
 20
9.424999868288686
 30
0.0
 40
0.525
100
AcDbArc
 50
90.0
 51
180.0
  0
LINE
  5
1A89
330
1A
100
AcDbEntity
  8
ZUWAKU
100
AcDbLine
 10
12.34221216833714
 20
7.149999868288688
 30
0.0
 11
15.84221216833714
 21
7.149999868288688
 31
0.0
  0
LINE
  5
1A8A
330
1A
100
AcDbEntity
  8
ZUWAKU
100
AcDbLine
 10
12.34221216833714
 20
9.949999868288685
 30
0.0
 11
15.31721216833716
 21
9.949999868288685
 31
0.0
  0
LINE
  5
1A8B
330
1A
100
AcDbEntity
  8
ZUWAKU
100
AcDbLine
 10
12.52236368735361
 20
15.66494936194986
 30
0.0
 11
15.43216166199829
 21
12.7551513873052
 31
0.0
  0
LINE
  5
1A8C
330
1A
100
AcDbEntity
  8
ZUWAKU
100
AcDbLine
 10
18.64221216833721
 20
9.949999868288685
 30
0.0
 11
18.64221216833721
 21
11.76520189364403
 31
0.0
  0
ARC
  5
1A8D
330
1A
100
AcDbEntity
  8
ZUWAKU
100
AcDbCircle
 10
24.94221216833716
 20
11.34999986828869
 30
0.0
 40
1.399999999999999
100
AcDbArc
 50
180.0
 51
270.0
  0
ARC
  5
1A8E
330
1A
100
AcDbEntity
  8
ZUWAKU
100
AcDbCircle
 10
17.59221216833714
 20
22.72499986828868
 30
0.0
 40
0.525
100
AcDbArc
 50
0.0
 51
90.0
  0
ARC
  5
1A8F
330
1A
100
AcDbEntity
  8
ZUWAKU
100
AcDbCircle
 10
17.59221216833714
 20
20.97499986828868
 30
0.0
 40
0.525
100
AcDbArc
 50
270.0
 51
0.0
  0
LINE
  5
1A90
330
1A
100
AcDbEntity
  8
ZUWAKU
100
AcDbLine
 10
14.09221216833714
 20
23.24999986828868
 30
0.0
 11
17.59221216833714
 21
23.24999986828868
 31
0.0
  0
ARC
  5
1A91
330
1A
100
AcDbEntity
  8
ZUWAKU
100
AcDbCircle
 10
14.61721216833711
 20
19.92499986828868
 30
0.0
 40
0.525
100
AcDbArc
 50
90.0
 51
180.0
  0
LINE
  5
1A92
330
1A
100
AcDbEntity
  8
ZUWAKU
100
AcDbLine
 10
14.09221216833714
 20
19.92499986828868
 30
0.0
 11
14.09221216833714
 21
18.63479784293334
 31
0.0
  0
LINE
  5
1A93
330
1A
100
AcDbEntity
  8
ZUWAKU
100
AcDbLine
 10
17.59221216833714
 20
20.44999986828868
 30
0.0
 11
14.61721216833711
 21
20.44999986828868
 31
0.0
  0
LINE
  5
1A94
330
1A
100
AcDbEntity
  8
ZUWAKU
100
AcDbLine
 10
11.29221216833718
 20
20.44999986828868
 30
0.0
 11
11.29221216833718
 21
18.63479784293334
 31
0.0
  0
ARC
  5
1A95
330
1A
100
AcDbEntity
  8
ZUWAKU
100
AcDbCircle
 10
14.09221216833714
 20
20.44999986828868
 30
0.0
 40
2.799999999999999
100
AcDbArc
 50
90.0
 51
180.0
  0
LINE
  5
1A96
330
1A
100
AcDbEntity
  8
ZUWAKU
100
AcDbLine
 10
18.11721216833712
 20
22.72499986828868
 30
0.0
 11
18.11721216833712
 21
20.97499986828868
 31
0.0
  0
ARC
  5
1A97
330
1A
100
AcDbEntity
  8
ZUWAKU
100
AcDbCircle
 10
24.94221216833716
 20
19.04999986828868
 30
0.0
 40
1.399999999999999
100
AcDbArc
 50
90.0
 51
180.0
  0
ARC
  5
1A98
330
1A
100
AcDbEntity
  8
ZUWAKU
100
AcDbCircle
 10
24.94221216833716
 20
19.04999986828864
 30
0.0
 40
4.199999999999999
100
AcDbArc
 50
90.0
 51
180.0
  0
LINE
  5
1A99
330
1A
100
AcDbEntity
  8
ZUWAKU
100
AcDbLine
 10
79.32662956154422
 20
29.99999986828868
 30
0.0
 11
79.32662956154445
 21
0.7999998682887508
 31
0.0
  0
LINE
  5
1A9A
330
1A
100
AcDbEntity
  8
ZUWAKU
100
AcDbLine
 10
79.52662956154426
 20
29.99999986828868
 30
0.0
 11
79.52662956154449
 21
0.7999998682887508
 31
0.0
  0
LINE
  5
1A9B
330
1A
100
AcDbEntity
  8
ZUWAKU
100
AcDbLine
 10
79.12662956154441
 20
29.99999986828868
 30
0.0
 11
79.12662956154441
 21
0.7999998682887508
 31
0.0
  0
LINE
  5
1A9C
330
1A
100
AcDbEntity
  8
ZUWAKU
100
AcDbLine
 10
64.14221216833721
 20
9.949999868288685
 30
0.0
 11
64.14221216833721
 21
22.72499986828868
 31
0.0
  0
LINE
  5
1A9D
330
1A
100
AcDbEntity
  8
ZUWAKU
100
AcDbLine
 10
61.34221216833714
 20
22.72499986828868
 30
0.0
 11
61.34221216833714
 21
10.99999986828868
 31
0.0
  0
LINE
  5
1A9E
330
1A
100
AcDbEntity
  8
ZUWAKU
100
AcDbLine
 10
69.04221216833718
 20
7.674999868288686
 30
0.0
 11
69.04221216833718
 21
22.72499986828868
 31
0.0
  0
LINE
  5
1A9F
330
1A
100
AcDbEntity
  8
ZUWAKU
100
AcDbLine
 10
66.24221216833712
 20
22.72499986828868
 30
0.0
 11
66.24221216833712
 21
7.674999868288686
 31
0.0
  0
ARC
  5
1AA0
330
1A
100
AcDbEntity
  8
ZUWAKU
100
AcDbCircle
 10
49.79221216833718
 20
18.63479784293338
 30
0.0
 40
1.399999999999999
100
AcDbArc
 50
180.0000000000016
 51
224.9999999999988
  0
ARC
  5
1AA1
330
1A
100
AcDbEntity
  8
ZUWAKU
100
AcDbCircle
 10
49.79221216833718
 20
18.63479784293338
 30
0.0
 40
4.199999999999999
100
AcDbArc
 50
180.0
 51
225.0
  0
LINE
  5
1AA2
330
1A
100
AcDbEntity
  8
ZUWAKU
100
AcDbLine
 10
37.31485865051513
 20
19.20504706185211
 30
0.0
 11
36.05010690517929
 21
15.1999998682887
 31
0.0
  0
LINE
  5
1AA3
330
1A
100
AcDbEntity
  8
ZUWAKU
100
AcDbLine
 10
40.69221216833716
 20
22.72499986828868
 30
0.0
 11
40.69221216833716
 21
7.674999868288686
 31
0.0
  0
LINE
  5
1AA4
330
1A
100
AcDbEntity
  8
ZUWAKU
100
AcDbLine
 10
43.49221216833711
 20
7.674999868288686
 30
0.0
 11
43.49221216833711
 21
22.72499986828868
 31
0.0
  0
LINE
  5
1AA5
330
1A
100
AcDbEntity
  8
ZUWAKU
100
AcDbLine
 10
55.04221216833719
 20
22.72499986828868
 30
0.0
 11
55.04221216833719
 21
9.949999868288685
 31
0.0
  0
LINE
  5
1AA6
330
1A
100
AcDbEntity
  8
ZUWAKU
100
AcDbLine
 10
57.84221216833714
 20
10.99999986828868
 30
0.0
 11
57.84221216833714
 21
22.72499986828868
 31
0.0
  0
LINE
  5
1AA7
330
1A
100
AcDbEntity
  8
ZUWAKU
100
AcDbLine
 10
32.64221216833721
 20
17.12499986828869
 30
0.0
 11
32.64221216833721
 21
22.72499986828868
 31
0.0
  0
LINE
  5
1AA8
330
1A
100
AcDbEntity
  8
ZUWAKU
100
AcDbLine
 10
29.84221216833714
 20
22.72499986828868
 30
0.0
 11
29.84221216833714
 21
7.674999868288686
 31
0.0
  0
LINE
  5
1AA9
330
1A
100
AcDbEntity
  8
ZUWAKU
100
AcDbLine
 10
35.676347105653
 20
22.88309383645565
 30
0.0
 11
33.80807723102122
 21
16.96690590012171
 31
0.0
  0
LINE
  5
1AAA
330
1A
100
AcDbEntity
  8
ZUWAKU
100
AcDbLine
 10
60.29221216833718
 20
9.949999868288685
 30
0.0
 11
58.89221216833721
 21
9.949999868288685
 31
0.0
  0
LINE
  5
1AAB
330
1A
100
AcDbEntity
  8
ZUWAKU
100
AcDbLine
 10
57.84221216833714
 20
7.149999868288688
 30
0.0
 11
61.34221216833714
 21
7.149999868288688
 31
0.0
  0
LINE
  5
1AAC
330
1A
100
AcDbEntity
  8
ZUWAKU
100
AcDbLine
 10
41.21721216833714
 20
7.149999868288688
 30
0.0
 11
42.96721216833714
 21
7.149999868288688
 31
0.0
  0
LINE
  5
1AAD
330
1A
100
AcDbEntity
  8
ZUWAKU
100
AcDbLine
 10
35.676347105653
 20
7.516905900121713
 30
0.0
 11
33.80807723102122
 21
13.43309383645565
 31
0.0
  0
ARC
  5
1AAE
330
1A
100
AcDbEntity
  8
ZUWAKU
100
AcDbCircle
 10
33.30744633182587
 20
17.12499986828869
 30
0.0
 40
0.525
100
AcDbArc
 50
270.0
 51
342.4744316262769
  0
LINE
  5
1AAF
330
1A
100
AcDbEntity
  8
ZUWAKU
100
AcDbLine
 10
33.30744633182587
 20
16.59999986828868
 30
0.0
 11
33.16721216833718
 21
16.59999986828868
 31
0.0
  0
LINE
  5
1AB0
330
1A
100
AcDbEntity
  8
ZUWAKU
100
AcDbLine
 10
33.16721216833718
 20
13.79999986828868
 30
0.0
 11
33.30744633182587
 21
13.79999986828868
 31
0.0
  0
ARC
  5
1AB1
330
1A
100
AcDbEntity
  8
ZUWAKU
100
AcDbCircle
 10
33.16721216833718
 20
17.12499986828869
 30
0.0
 40
0.525
100
AcDbArc
 50
180.0
 51
270.0
  0
LINE
  5
1AB2
330
1A
100
AcDbEntity
  8
ZUWAKU
100
AcDbLine
 10
30.36721216833711
 20
7.149999868288688
 30
0.0
 11
32.11721216833712
 21
7.149999868288688
 31
0.0
  0
ARC
  5
1AB3
330
1A
100
AcDbEntity
  8
ZUWAKU
100
AcDbCircle
 10
32.11721216833712
 20
7.674999868288686
 30
0.0
 40
0.525
100
AcDbArc
 50
270.0
 51
0.0
  0
LINE
  5
1AB4
330
1A
100
AcDbEntity
  8
ZUWAKU
100
AcDbLine
 10
32.64221216833721
 20
7.674999868288686
 30
0.0
 11
32.64221216833721
 21
13.27499986828868
 31
0.0
  0
LINE
  5
1AB5
330
1A
100
AcDbEntity
  8
ZUWAKU
100
AcDbLine
 10
27.39221216833721
 20
9.424999868288686
 30
0.0
 11
27.39221216833721
 21
7.674999868288686
 31
0.0
  0
ARC
  5
1AB6
330
1A
100
AcDbEntity
  8
ZUWAKU
100
AcDbCircle
 10
26.86721216833712
 20
7.674999868288686
 30
0.0
 40
0.525
100
AcDbArc
 50
270.0
 51
0.0
  0
ARC
  5
1AB7
330
1A
100
AcDbEntity
  8
ZUWAKU
100
AcDbCircle
 10
26.86721216833712
 20
9.424999868288686
 30
0.0
 40
0.525
100
AcDbArc
 50
0.0
 51
90.0
  0
ARC
  5
1AB8
330
1A
100
AcDbEntity
  8
ZUWAKU
100
AcDbCircle
 10
30.36721216833711
 20
7.674999868288686
 30
0.0
 40
0.525
100
AcDbArc
 50
180.0
 51
270.0
  0
ARC
  5
1AB9
330
1A
100
AcDbEntity
  8
ZUWAKU
100
AcDbCircle
 10
33.30744633182587
 20
13.27499986828868
 30
0.0
 40
0.525
100
AcDbArc
 50
17.52556837372303
 51
90.0
  0
ARC
  5
1ABA
330
1A
100
AcDbEntity
  8
ZUWAKU
100
AcDbCircle
 10
33.16721216833718
 20
13.27499986828868
 30
0.0
 40
0.525
100
AcDbArc
 50
90.0
 51
180.0
  0
ARC
  5
1ABB
330
1A
100
AcDbEntity
  8
ZUWAKU
100
AcDbCircle
 10
41.21721216833714
 20
7.674999868288686
 30
0.0
 40
0.525
100
AcDbArc
 50
180.0
 51
270.0
  0
LINE
  5
1ABC
330
1A
100
AcDbEntity
  8
ZUWAKU
100
AcDbLine
 10
36.17697800484847
 20
7.149999868288688
 30
0.0
 11
37.87586738445748
 21
7.149999868288688
 31
0.0
  0
ARC
  5
1ABD
330
1A
100
AcDbEntity
  8
ZUWAKU
100
AcDbCircle
 10
37.87586738445748
 20
7.674999868288686
 30
0.0
 40
0.525
100
AcDbArc
 50
270.0
 51
17.52556837372303
  0
LINE
  5
1ABE
330
1A
100
AcDbEntity
  8
ZUWAKU
100
AcDbLine
 10
38.37649828365295
 20
7.83309383645566
 30
0.0
 11
36.05010690517929
 21
15.1999998682887
 31
0.0
  0
ARC
  5
1ABF
330
1A
100
AcDbEntity
  8
ZUWAKU
100
AcDbCircle
 10
36.17697800484847
 20
7.674999868288686
 30
0.0
 40
0.525
100
AcDbArc
 50
197.525568373723
 51
270.0
  0
ARC
  5
1AC0
330
1A
100
AcDbEntity
  8
ZUWAKU
100
AcDbCircle
 10
57.84221216833714
 20
9.949999868288685
 30
0.0
 40
2.799999999999999
100
AcDbArc
 50
180.0
 51
270.0
  0
ARC
  5
1AC1
330
1A
100
AcDbEntity
  8
ZUWAKU
100
AcDbCircle
 10
50.14221216833721
 20
9.949999868288685
 30
0.0
 40
2.799999999999999
100
AcDbArc
 50
270.0
 51
0.0
  0
LINE
  5
1AC2
330
1A
100
AcDbEntity
  8
ZUWAKU
100
AcDbLine
 10
51.71206064932073
 20
14.73505037462751
 30
0.0
 11
48.80226267467595
 21
17.64484834927218
 31
0.0
  0
LINE
  5
1AC3
330
1A
100
AcDbEntity
  8
ZUWAKU
100
AcDbLine
 10
50.14221216833721
 20
10.47499986828869
 30
0.0
 11
50.14221216833721
 21
11.76520189364403
 31
0.0
  0
ARC
  5
1AC4
330
1A
100
AcDbEntity
  8
ZUWAKU
100
AcDbCircle
 10
48.74221216833712
 20
11.76520189364403
 30
0.0
 40
1.399999999999999
100
AcDbArc
 50
0.0
 51
45.0
  0
ARC
  5
1AC5
330
1A
100
AcDbEntity
  8
ZUWAKU
100
AcDbCircle
 10
49.61721216833712
 20
10.47499986828869
 30
0.0
 40
0.525
100
AcDbArc
 50
270.0
 51
0.0
  0
LINE
  5
1AC6
330
1A
100
AcDbEntity
  8
ZUWAKU
100
AcDbLine
 10
46.11721216833712
 20
7.674999868288686
 30
0.0
 11
46.11721216833712
 21
9.424999868288686
 31
0.0
  0
ARC
  5
1AC7
330
1A
100
AcDbEntity
  8
ZUWAKU
100
AcDbCircle
 10
46.64221216833721
 20
7.674999868288686
 30
0.0
 40
0.525
100
AcDbArc
 50
180.0
 51
270.0
  0
ARC
  5
1AC8
330
1A
100
AcDbEntity
  8
ZUWAKU
100
AcDbCircle
 10
42.96721216833714
 20
7.674999868288686
 30
0.0
 40
0.525
100
AcDbArc
 50
270.0
 51
0.0
  0
ARC
  5
1AC9
330
1A
100
AcDbEntity
  8
ZUWAKU
100
AcDbCircle
 10
46.64221216833721
 20
9.424999868288686
 30
0.0
 40
0.525
100
AcDbArc
 50
90.0
 51
180.0
  0
LINE
  5
1ACA
330
1A
100
AcDbEntity
  8
ZUWAKU
100
AcDbLine
 10
46.64221216833721
 20
9.949999868288685
 30
0.0
 11
49.61721216833712
 21
9.949999868288685
 31
0.0
  0
LINE
  5
1ACB
330
1A
100
AcDbEntity
  8
ZUWAKU
100
AcDbLine
 10
46.64221216833721
 20
7.149999868288688
 30
0.0
 11
50.14221216833721
 21
7.149999868288688
 31
0.0
  0
LINE
  5
1ACC
330
1A
100
AcDbEntity
  8
ZUWAKU
100
AcDbLine
 10
46.82236368735368
 20
15.66494936194986
 30
0.0
 11
49.73216166199836
 21
12.7551513873052
 31
0.0
  0
LINE
  5
1ACD
330
1A
100
AcDbEntity
  8
ZUWAKU
100
AcDbLine
 10
52.94221216833716
 20
9.949999868288685
 30
0.0
 11
52.94221216833716
 21
11.76520189364403
 31
0.0
  0
ARC
  5
1ACE
330
1A
100
AcDbEntity
  8
ZUWAKU
100
AcDbCircle
 10
48.74221216833712
 20
11.76520189364399
 30
0.0
 40
4.199999999999999
100
AcDbArc
 50
0.0
 51
45.0
  0
ARC
  5
1ACF
330
1A
100
AcDbEntity
  8
ZUWAKU
100
AcDbCircle
 10
58.89221216833721
 20
10.99999986828868
 30
0.0
 40
1.049999999999999
100
AcDbArc
 50
180.0
 51
270.0
  0
ARC
  5
1AD0
330
1A
100
AcDbEntity
  8
ZUWAKU
100
AcDbCircle
 10
61.34221216833714
 20
9.949999868288685
 30
0.0
 40
2.799999999999999
100
AcDbArc
 50
270.0
 51
0.0
  0
LINE
  5
1AD1
330
1A
100
AcDbEntity
  8
ZUWAKU
100
AcDbLine
 10
66.76721216833721
 20
7.149999868288688
 30
0.0
 11
68.51721216833721
 21
7.149999868288688
 31
0.0
  0
ARC
  5
1AD2
330
1A
100
AcDbEntity
  8
ZUWAKU
100
AcDbCircle
 10
66.76721216833721
 20
7.674999868288686
 30
0.0
 40
0.525
100
AcDbArc
 50
180.0
 51
270.0
  0
ARC
  5
1AD3
330
1A
100
AcDbEntity
  8
ZUWAKU
100
AcDbCircle
 10
60.29221216833718
 20
10.99999986828868
 30
0.0
 40
1.049999999999999
100
AcDbArc
 50
270.0
 51
0.0
  0
ARC
  5
1AD4
330
1A
100
AcDbEntity
  8
ZUWAKU
100
AcDbCircle
 10
68.51721216833721
 20
7.674999868288686
 30
0.0
 40
0.525
100
AcDbArc
 50
270.0
 51
0.0
  0
LINE
  5
1AD5
330
1A
100
AcDbEntity
  8
ZUWAKU
100
AcDbLine
 10
42.96721216833714
 20
23.24999986828868
 30
0.0
 11
41.21721216833714
 21
23.24999986828868
 31
0.0
  0
ARC
  5
1AD6
330
1A
100
AcDbEntity
  8
ZUWAKU
100
AcDbCircle
 10
32.11721216833712
 20
22.72499986828868
 30
0.0
 40
0.525
100
AcDbArc
 50
0.0
 51
90.0
  0
LINE
  5
1AD7
330
1A
100
AcDbEntity
  8
ZUWAKU
100
AcDbLine
 10
32.11721216833712
 20
23.24999986828868
 30
0.0
 11
30.36721216833711
 21
23.24999986828868
 31
0.0
  0
ARC
  5
1AD8
330
1A
100
AcDbEntity
  8
ZUWAKU
100
AcDbCircle
 10
26.86721216833712
 20
22.72499986828868
 30
0.0
 40
0.525
100
AcDbArc
 50
0.0
 51
90.0
  0
ARC
  5
1AD9
330
1A
100
AcDbEntity
  8
ZUWAKU
100
AcDbCircle
 10
30.36721216833711
 20
22.72499986828868
 30
0.0
 40
0.525
100
AcDbArc
 50
90.0
 51
180.0
  0
ARC
  5
1ADA
330
1A
100
AcDbEntity
  8
ZUWAKU
100
AcDbCircle
 10
26.86721216833712
 20
20.97499986828868
 30
0.0
 40
0.525
100
AcDbArc
 50
270.0
 51
0.0
  0
LINE
  5
1ADB
330
1A
100
AcDbEntity
  8
ZUWAKU
100
AcDbLine
 10
27.39221216833721
 20
22.72499986828868
 30
0.0
 11
27.39221216833721
 21
20.97499986828868
 31
0.0
  0
ARC
  5
1ADC
330
1A
100
AcDbEntity
  8
ZUWAKU
100
AcDbCircle
 10
41.21721216833714
 20
22.72499986828868
 30
0.0
 40
0.525
100
AcDbArc
 50
90.0
 51
180.0
  0
LINE
  5
1ADD
330
1A
100
AcDbEntity
  8
ZUWAKU
100
AcDbLine
 10
36.17697800484847
 20
23.24999986828868
 30
0.0
 11
37.87586738445748
 21
23.24999986828868
 31
0.0
  0
ARC
  5
1ADE
330
1A
100
AcDbEntity
  8
ZUWAKU
100
AcDbCircle
 10
37.87586738445748
 20
22.72499986828868
 30
0.0
 40
0.525
100
AcDbArc
 50
342.4744316262769
 51
90.0
  0
LINE
  5
1ADF
330
1A
100
AcDbEntity
  8
ZUWAKU
100
AcDbLine
 10
38.37649828365295
 20
22.56690590012171
 30
0.0
 11
37.31485865051513
 21
19.20504706185211
 31
0.0
  0
ARC
  5
1AE0
330
1A
100
AcDbEntity
  8
ZUWAKU
100
AcDbCircle
 10
36.17697800484847
 20
22.72499986828868
 30
0.0
 40
0.525
100
AcDbArc
 50
90.0
 51
162.4744316262769
  0
LINE
  5
1AE1
330
1A
100
AcDbEntity
  8
ZUWAKU
100
AcDbLine
 10
48.3922121683372
 20
23.24999986828868
 30
0.0
 11
51.89221216833721
 21
23.24999986828868
 31
0.0
  0
LINE
  5
1AE2
330
1A
100
AcDbEntity
  8
ZUWAKU
100
AcDbLine
 10
51.89221216833721
 20
20.44999986828868
 30
0.0
 11
48.91721216833719
 21
20.44999986828868
 31
0.0
  0
ARC
  5
1AE3
330
1A
100
AcDbEntity
  8
ZUWAKU
100
AcDbCircle
 10
48.91721216833719
 20
19.92499986828868
 30
0.0
 40
0.525
100
AcDbArc
 50
90.0
 51
180.0
  0
LINE
  5
1AE4
330
1A
100
AcDbEntity
  8
ZUWAKU
100
AcDbLine
 10
48.3922121683372
 20
19.92499986828868
 30
0.0
 11
48.3922121683372
 21
18.63479784293334
 31
0.0
  0
ARC
  5
1AE5
330
1A
100
AcDbEntity
  8
ZUWAKU
100
AcDbCircle
 10
42.96721216833714
 20
22.72499986828868
 30
0.0
 40
0.525
100
AcDbArc
 50
0.0
 51
90.0
  0
LINE
  5
1AE6
330
1A
100
AcDbEntity
  8
ZUWAKU
100
AcDbLine
 10
45.59221216833714
 20
20.44999986828868
 30
0.0
 11
45.59221216833714
 21
18.63479784293334
 31
0.0
  0
ARC
  5
1AE7
330
1A
100
AcDbEntity
  8
ZUWAKU
100
AcDbCircle
 10
48.3922121683372
 20
20.44999986828868
 30
0.0
 40
2.799999999999999
100
AcDbArc
 50
90.0
 51
180.0
  0
ARC
  5
1AE8
330
1A
100
AcDbEntity
  8
ZUWAKU
100
AcDbCircle
 10
57.31721216833716
 20
22.72499986828868
 30
0.0
 40
0.525
100
AcDbArc
 50
0.0
 51
90.0
  0
ARC
  5
1AE9
330
1A
100
AcDbEntity
  8
ZUWAKU
100
AcDbCircle
 10
55.56721216833716
 20
22.72499986828868
 30
0.0
 40
0.525
100
AcDbArc
 50
90.0
 51
180.0
  0
LINE
  5
1AEA
330
1A
100
AcDbEntity
  8
ZUWAKU
100
AcDbLine
 10
57.31721216833716
 20
23.24999986828868
 30
0.0
 11
55.56721216833716
 21
23.24999986828868
 31
0.0
  0
ARC
  5
1AEB
330
1A
100
AcDbEntity
  8
ZUWAKU
100
AcDbCircle
 10
51.89221216833721
 20
22.72499986828868
 30
0.0
 40
0.525
100
AcDbArc
 50
0.0
 51
90.0
  0
ARC
  5
1AEC
330
1A
100
AcDbEntity
  8
ZUWAKU
100
AcDbCircle
 10
51.89221216833721
 20
20.97499986828868
 30
0.0
 40
0.525
100
AcDbArc
 50
270.0
 51
0.0
  0
LINE
  5
1AED
330
1A
100
AcDbEntity
  8
ZUWAKU
100
AcDbLine
 10
52.41721216833719
 20
22.72499986828868
 30
0.0
 11
52.41721216833719
 21
20.97499986828868
 31
0.0
  0
LINE
  5
1AEE
330
1A
100
AcDbEntity
  8
ZUWAKU
100
AcDbLine
 10
68.51721216833721
 20
23.24999986828868
 30
0.0
 11
66.76721216833721
 21
23.24999986828868
 31
0.0
  0
ARC
  5
1AEF
330
1A
100
AcDbEntity
  8
ZUWAKU
100
AcDbCircle
 10
66.76721216833721
 20
22.72499986828868
 30
0.0
 40
0.525
100
AcDbArc
 50
90.0
 51
180.0
  0
ARC
  5
1AF0
330
1A
100
AcDbEntity
  8
ZUWAKU
100
AcDbCircle
 10
63.61721216833712
 20
22.72499986828868
 30
0.0
 40
0.525
100
AcDbArc
 50
0.0
 51
90.0
  0
LINE
  5
1AF1
330
1A
100
AcDbEntity
  8
ZUWAKU
100
AcDbLine
 10
63.61721216833712
 20
23.24999986828868
 30
0.0
 11
61.86721216833712
 21
23.24999986828868
 31
0.0
  0
ARC
  5
1AF2
330
1A
100
AcDbEntity
  8
ZUWAKU
100
AcDbCircle
 10
61.86721216833712
 20
22.72499986828868
 30
0.0
 40
0.525
100
AcDbArc
 50
90.0
 51
180.0
  0
ARC
  5
1AF3
330
1A
100
AcDbEntity
  8
ZUWAKU
100
AcDbCircle
 10
68.51721216833721
 20
22.72499986828868
 30
0.0
 40
0.525
100
AcDbArc
 50
0.0
 51
90.0
  0
TEXT
  5
1AF4
330
1A
100
AcDbEntity
  8
MOJI
100
AcDbText
 10
239.827202694407
 20
18.00492092569607
 30
0.0
 40
5.599999999999999
  1
止り（右・左）
 41
0.9
  7
ｽﾀｲﾙ1
100
AcDbText
  0
TEXT
  5
1AF5
330
1A
100
AcDbEntity
  8
MOJI
100
AcDbText
 10
239.827202694407
 20
3.204920925696104
 30
0.0
 40
5.599999999999999
  1
Ｔ１２０
 41
0.9
  7
ｽﾀｲﾙ1
100
AcDbText
  0
LINE
  5
1AF6
330
1A
100
AcDbEntity
  8
ZUWAKU
100
AcDbLine
 10
208.2466013036239
 20
29.99999986828868
 30
0.0
 11
208.2466013036239
 21
0.7999998682887508
 31
0.0
  0
LINE
  5
1AF7
330
1A
100
AcDbEntity
  8
ZUWAKU
100
AcDbLine
 10
208.6466013036238
 20
29.99999986828868
 30
0.0
 11
208.646601303624
 21
0.7999998682887508
 31
0.0
  0
LINE
  5
1AF8
330
1A
100
AcDbEntity
  8
ZUWAKU
100
AcDbLine
 10
208.4466013036237
 20
29.99999986828868
 30
0.0
 11
208.446601303624
 21
0.7999998682887508
 31
0.0
  0
TEXT
  5
1AF9
330
1A
100
AcDbEntity
  8
ZUWAKU
100
AcDbText
 10
209.7240463258335
 20
9.6553564066743
 30
0.0
 40
4.0
  1
サイズ
 41
0.9
  7
ｽﾀｲﾙ1
100
AcDbText
  0
TEXT
  5
1AFA
330
1A
100
AcDbEntity
  8
ZUWAKU
100
AcDbText
 10
209.7240463258333
 20
24.05535640667426
 30
0.0
 40
4.0
  1
品名
 41
0.9
  7
ｽﾀｲﾙ1
100
AcDbText
  0
LINE
  5
1AFB
330
1A
100
AcDbEntity
  8
ZUWAKU
100
AcDbLine
 10
648.8172025237602
 20
15.19999986828871
 30
0.0
 11
697.2490105620972
 21
15.19999986828871
 31
0.0
  0
LINE
  5
1AFC
330
1A
100
AcDbEntity
  8
ZUWAKU
100
AcDbLine
 10
648.8172025237604
 20
15.39999986828872
 30
0.0
 11
697.2490105620972
 21
15.39999986828871
 31
0.0
  0
LINE
  5
1AFD
330
1A
100
AcDbEntity
  8
ZUWAKU
100
AcDbLine
 10
648.8172025237602
 20
15.59999986828871
 30
0.0
 11
697.2490105620972
 21
15.59999986828871
 31
0.0
  0
TEXT
  5
1AFE
330
1A
100
AcDbEntity
  8
ZUWAKU
100
AcDbText
 10
658.2039377008584
 20
18.00492092569607
 30
0.0
 40
5.599999999999999
  1
　　．　　．　　
 41
0.9
  7
ｽﾀｲﾙ1
100
AcDbText
  0
LINE
  5
1AFF
330
1A
100
AcDbEntity
  8
ZUWAKU
100
AcDbLine
 10
505.1991795116968
 20
15.19999986828872
 30
0.0
 11
552.5269557796685
 21
15.19999986828872
 31
0.0
  0
LINE
  5
1B00
330
1A
100
AcDbEntity
  8
ZUWAKU
100
AcDbLine
 10
505.1991795116968
 20
15.39999986828871
 30
0.0
 11
552.5269557796685
 21
15.39999986828871
 31
0.0
  0
LINE
  5
1B01
330
1A
100
AcDbEntity
  8
ZUWAKU
100
AcDbLine
 10
505.1991795116968
 20
15.59999986828871
 30
0.0
 11
552.5269557796685
 21
15.59999986828871
 31
0.0
  0
TEXT
  5
1B02
330
1A
100
AcDbEntity
  8
MOJI
100
AcDbText
 10
461.9482075909552
 20
11.94261758994866
 30
0.0
 40
5.599999999999999
  1
ＰＥ６５□
 41
0.9
  7
ｽﾀｲﾙ1
100
AcDbText
  0
LINE
  5
1B03
330
1A
100
AcDbEntity
  8
ZUWAKU
100
AcDbLine
 10
447.6243639845472
 20
29.99999986828868
 30
0.0
 11
447.6243639845474
 21
0.7999998682887508
 31
0.0
  0
LINE
  5
1B04
330
1A
100
AcDbEntity
  8
ZUWAKU
100
AcDbLine
 10
447.8243639845472
 20
29.99999986828868
 30
0.0
 11
447.8243639845475
 21
0.7999998682887508
 31
0.0
  0
LINE
  5
1B05
330
1A
100
AcDbEntity
  8
ZUWAKU
100
AcDbLine
 10
447.4243639845474
 20
29.99999986828868
 30
0.0
 11
447.4243639845474
 21
0.7999998682887508
 31
0.0
  0
TEXT
  5
1B06
330
1A
100
AcDbEntity
  8
MOJI
100
AcDbText
 10
528.0409079858689
 20
18.00492092569607
 30
0.0
 40
5.599999999999999
  1
Ａ３
 41
0.9
  7
ｽﾀｲﾙ1
100
AcDbText
  0
LINE
  5
1B07
330
1A
100
AcDbEntity
  8
ZUWAKU
100
AcDbLine
 10
504.9991795116969
 20
29.99999986828868
 30
0.0
 11
504.999179511697
 21
0.7999998682887508
 31
0.0
  0
LINE
  5
1B08
330
1A
100
AcDbEntity
  8
ZUWAKU
100
AcDbLine
 10
505.1991795116968
 20
29.99999986828868
 30
0.0
 11
505.1991795116971
 21
0.7999998682887508
 31
0.0
  0
LINE
  5
1B09
330
1A
100
AcDbEntity
  8
ZUWAKU
100
AcDbLine
 10
504.799179511697
 20
29.99999986828868
 30
0.0
 11
504.799179511697
 21
0.7999998682887508
 31
0.0
  0
TEXT
  5
1B0A
330
1A
100
AcDbEntity
  8
ZUWAKU
100
AcDbText
 10
462.0820952811575
 20
2.614070779428175
 30
0.0
 40
3.0
  1
□には色品番が入ります
 41
0.9
  7
ｽﾀｲﾙ1
100
AcDbText
  0
TEXT
  5
1B0B
330
1A
100
AcDbEntity
  8
ZUWAKU
100
AcDbText
 10
506.6766245339067
 20
9.6553564066743
 30
0.0
 40
4.0
  1
縮尺
 41
0.9
  7
ｽﾀｲﾙ1
100
AcDbText
  0
TEXT
  5
1B0C
330
1A
100
AcDbEntity
  8
MOJI
100
AcDbText
 10
528.0409079858689
 20
3.204920925696104
 30
0.0
 40
5.599999999999999
  1
１/２
 41
0.9
  7
ｽﾀｲﾙ1
100
AcDbText
  0
TEXT
  5
1B0D
330
1A
100
AcDbEntity
  8
ZUWAKU
100
AcDbText
 10
449.3018090067569
 20
24.05535640667426
 30
0.0
 40
4.0
  1
品番
 41
0.9
  7
ｽﾀｲﾙ1
100
AcDbText
  0
TEXT
  5
1B0E
330
1A
100
AcDbEntity
  8
ZUWAKU
100
AcDbText
 10
506.6766245339065
 20
24.05535640667426
 30
0.0
 40
4.0
  1
用紙
 41
0.9
  7
ｽﾀｲﾙ1
100
AcDbText
  0
LINE
  5
1B0F
330
1A
100
AcDbEntity
  8
ZUWAKU
100
AcDbLine
 10
648.6172025237603
 20
29.99999986828868
 30
0.0
 11
648.6172025237606
 21
0.7999998682887508
 31
0.0
  0
LINE
  5
1B10
330
1A
100
AcDbEntity
  8
ZUWAKU
100
AcDbLine
 10
648.8172025237604
 20
29.99999986828868
 30
0.0
 11
648.8172025237607
 21
0.7999998682887508
 31
0.0
  0
LINE
  5
1B11
330
1A
100
AcDbEntity
  8
ZUWAKU
100
AcDbLine
 10
648.4172025237605
 20
29.99999986828868
 30
0.0
 11
648.4172025237605
 21
0.7999998682887508
 31
0.0
  0
LINE
  5
1B12
330
1A
100
AcDbEntity
  8
ZUWAKU
100
AcDbLine
 10
552.7269557796683
 20
29.99999986828868
 30
0.0
 11
552.7269557796684
 21
0.7999998682887508
 31
0.0
  0
LINE
  5
1B13
330
1A
100
AcDbEntity
  8
ZUWAKU
100
AcDbLine
 10
552.9269557796683
 20
29.99999986828868
 30
0.0
 11
552.9269557796685
 21
0.7999998682887508
 31
0.0
  0
LINE
  5
1B14
330
1A
100
AcDbEntity
  8
ZUWAKU
100
AcDbLine
 10
552.5269557796685
 20
29.99999986828868
 30
0.0
 11
552.5269557796685
 21
0.7999998682887508
 31
0.0
  0
TEXT
  5
1B15
330
1A
100
AcDbEntity
  8
ZUWAKU
100
AcDbText
 10
650.29464754597
 20
24.05535640667426
 30
0.0
 40
4.0
  1
DATE
 41
0.9
  7
ｽﾀｲﾙ1
100
AcDbText
  0
LINE
  5
1B16
330
1A
100
AcDbEntity
  8
ZUWAKU
100
AcDbLine
 10
697.2490105620972
 20
29.99999986828868
 30
0.0
 11
697.2490105620972
 21
0.7999998682887508
 31
0.0
  0
LINE
  5
1B17
330
1A
100
AcDbEntity
  8
ZUWAKU
100
AcDbLine
 10
697.4490105620973
 20
29.99999986828868
 30
0.0
 11
697.4490105620973
 21
0.7999998682887508
 31
0.0
  0
LINE
  5
1B18
330
1A
100
AcDbEntity
  8
ZUWAKU
100
AcDbLine
 10
697.6490105620971
 20
29.99999986828868
 30
0.0
 11
697.6490105620974
 21
0.7999998682887508
 31
0.0
  0
LINE
  5
1B19
330
1A
100
AcDbEntity
  8
ZUWAKU
100
AcDbLine
 10
697.8490105620972
 20
29.99999986828868
 30
0.0
 11
697.8490105620974
 21
0.7999998682887508
 31
0.0
  0
TEXT
  5
1B1A
330
1A
100
AcDbEntity
  8
ZUWAKU
100
AcDbText
 10
708.5280842057998
 20
17.55383920397548
 30
0.0
 40
6.0
  1
積水化学工業株式会社
 41
0.9
  7
ｽﾀｲﾙ1
100
AcDbText
  0
TEXT
  5
1B1B
330
1A
100
AcDbEntity
  8
ZUWAKU
100
AcDbText
 10
708.5280842057998
 20
6.648840182142748
 30
0.0
 40
6.0
  1
建材事業部
 41
0.9
  7
ｽﾀｲﾙ1
100
AcDbText
  0
VIEWPORT
  5
22
330
17
100
AcDbEntity
 67
     1
  8
0
100
AcDbViewport
 10
313.6808219178082
 20
148.5
 30
0.0
 40
627.3616438356165
 41
297.0
 68
     2
 69
     1
1001
ACAD
1000
MVIEW
1002
{
1070
    16
1010
0.0
1020
0.0
1030
0.0
1010
0.0
1020
0.0
1030
1.0
1040
0.0
1040
297.0
1040
313.6808219178082
1040
148.5
1040
50.0
1040
0.0
1040
0.0
1070
     0
1070
   100
1070
     1
1070
     0
1070
     0
1070
     0
1070
     0
1070
     0
1040
0.0
1040
0.0
1040
0.0
1040
1.0
1040
1.0
1040
10.0
1040
10.0
1070
     0
1002
{
1002
}
1002
}
  0
VIEWPORT
  5
64
330
17
100
AcDbEntity
 67
     1
  8
VIEWPORT
100
AcDbViewport
 10
210.0
 20
148.5
 30
0.0
 40
420.0
 41
297.0
 68
     1
 69
     2
1001
ACAD
1000
MVIEW
1002
{
1070
    16
1010
0.0
1020
0.0
1030
0.0
1010
0.0
1020
0.0
1030
1.0
1040
0.0
1040
605.8799999999998
1040
420.0
1040
297.0
1040
50.0
1040
0.0
1040
0.0
1070
     0
1070
   100
1070
     1
1070
     0
1070
     0
1070
     0
1070
     0
1070
     0
1040
0.0
1040
0.0
1040
0.0
1040
10.0
1040
10.0
1040
0.0
1040
0.0
1070
     0
1002
{
1002
}
1002
}
  0
ENDSEC
  0
SECTION
  2
OBJECTS
  0
DICTIONARY
  5
C
330
0
100
AcDbDictionary
  3
ACAD_GROUP
350
D
  3
ACAD_LAYOUT
350
F66
  3
ACAD_MLINESTYLE
350
E
  3
ACAD_PLOTSETTINGS
350
F67
  3
ACAD_PLOTSTYLENAME
350
F64
  3
ACDBHEADERROUNDTRIPXREC
350
1B2A
  0
DICTIONARY
  5
1289
330
1A
100
AcDbDictionary
280
     1
  3
ACAD_LAYOUTSELFREF
360
1B4C
  0
DICTIONARY
  5
1287
330
17
100
AcDbDictionary
280
     1
  3
ACAD_LAYOUTSELFREF
360
1B4B
  0
DICTIONARY
  5
D
102
{ACAD_REACTORS
330
C
102
}
330
C
100
AcDbDictionary
  3
*A1
350
178F
  3
*A2
350
17DA
  3
*A3
350
17DB
  3
*A4
350
1826
  0
DICTIONARY
  5
F66
102
{ACAD_REACTORS
330
C
102
}
330
C
100
AcDbDictionary
  0
DICTIONARY
  5
E
102
{ACAD_REACTORS
330
C
102
}
330
C
100
AcDbDictionary
  3
STANDARD
350
13
  0
DICTIONARY
  5
F67
102
{ACAD_REACTORS
330
C
102
}
330
C
100
AcDbDictionary
  0
ACDBDICTIONARYWDFLT
  5
F64
102
{ACAD_REACTORS
330
C
102
}
330
C
100
AcDbDictionary
281
     1
  3
Normal
350
F65
100
AcDbDictionaryWithDefault
340
F65
1001
ACAD
1000
TREAT_AS_HARD
1070
     0
1000
TREAT_AS_HARD
1070
     0
1000
TREAT_AS_HARD
1070
     0
  0
DICTIONARY
  5
1B2A
102
{ACAD_REACTORS
330
C
102
}
330
C
100
AcDbDictionary
  3
TSTACKALIGN
350
1B2B
  3
TSTACKSIZE
350
1B2C
  3
HYPERLINKBASE
350
1B2D
  3
STYLESHEET
350
1B2E
  3
LAYOUTDICT
350
1B2F
  3
PLOTSETDICT
350
1B30
  3
PLOTSTYLNAMDICT
350
1B31
  3
LWETCUNION
350
1B32
  3
INSUNITS
350
1B33
  3
CEPSNTYPE
350
1B34
  3
FINGERPRINTGUID
350
1B35
  3
VERSIONGUID
350
1B36
  3
PSVPSCALE
350
1B37
  3
DIMSTYLEDATA
350
1B38
  3
PUCSORTHOREF
350
1B39
  3
PUCSORTHOVIEW
350
1B3A
  3
PUCSBASE
350
1B3B
  3
PUCSORGTOP
350
1B3C
  3
PUCSORGBOTTOM
350
1B3D
  3
PUCSORGLEFT
350
1B3E
  3
PUCSORGRIGHT
350
1B3F
  3
PUCSORGFRONT
350
1B40
  3
PUCSORGBACK
350
1B41
  3
UCSORTHOREF
350
1B42
  3
UCSORTHOVIEW
350
1B43
  3
UCSBASE
350
1B44
  3
UCSORGTOP
350
1B45
  3
UCSORGBOTTOM
350
1B46
  3
UCSORGLEFT
350
1B47
  3
UCSORGRIGHT
350
1B48
  3
UCSORGFRONT
350
1B49
  3
UCSORGBACK
350
1B4A
  0
XRECORD
  5
1B4C
102
{ACAD_REACTORS
330
1289
102
}
330
1289
100
AcDbXrecord
340
1A
  0
XRECORD
  5
1B4B
102
{ACAD_REACTORS
330
1287
102
}
330
1287
100
AcDbXrecord
340
17
  0
GROUP
  5
178F
102
{ACAD_REACTORS
330
D
102
}
330
D
100
AcDbGroup
300

 70
     1
 71
     1
  0
GROUP
  5
17DA
102
{ACAD_REACTORS
330
D
102
}
330
D
100
AcDbGroup
300

 70
     1
 71
     1
340
1791
340
1792
340
1793
340
1794
340
1795
340
1796
340
1797
340
1798
340
1799
340
179A
340
179B
340
179C
340
179D
340
179E
340
179F
340
17A0
340
17A1
340
17A2
340
17A3
340
17A4
340
17A5
340
17A6
340
17A7
340
17A8
340
17A9
340
17AA
340
17AB
340
17AC
340
17AD
340
17AE
340
17AF
340
17B0
340
17B1
340
17B2
340
17B3
340
1790
340
17B4
340
17B5
340
17B6
340
17B7
340
17B8
340
17B9
340
17BA
340
17BB
340
17BC
340
17BD
340
17BE
340
17BF
340
17C0
340
17C1
340
17C2
340
17C3
340
17C4
340
17C5
340
17C6
340
17C7
340
17C8
340
17C9
340
17CA
340
17CB
340
17CC
340
17CD
340
17CE
340
17CF
340
17D0
340
17D1
340
17D2
340
17D3
340
17D4
340
17D5
340
17D6
340
17D7
340
17D8
340
17D9
  0
GROUP
  5
17DB
102
{ACAD_REACTORS
330
D
102
}
330
D
100
AcDbGroup
300

 70
     1
 71
     1
  0
GROUP
  5
1826
102
{ACAD_REACTORS
330
D
102
}
330
D
100
AcDbGroup
300

 70
     1
 71
     1
340
17DD
340
17DE
340
17DF
340
17E0
340
17E1
340
17E2
340
17E3
340
17E4
340
17E5
340
17E6
340
17E7
340
17E8
340
17DC
340
17E9
340
17EA
340
17EB
340
17EC
340
17ED
340
17EE
340
17EF
340
17F0
340
17F1
340
17F2
340
17F3
340
17F4
340
17F5
340
17F6
340
17F7
340
17F8
340
17F9
340
17FA
340
17FB
340
17FC
340
17FD
340
17FE
340
17FF
340
1800
340
1801
340
1802
340
1803
340
1804
340
1805
340
1806
340
1807
340
1808
340
1809
340
180A
340
180B
340
180C
340
180D
340
180E
340
180F
340
1810
340
1811
340
1812
340
1813
340
1814
340
1815
340
1816
340
1817
340
1818
340
1819
340
181A
340
181B
340
181C
340
181D
340
181E
340
181F
340
1820
340
1821
340
1822
340
1823
340
1824
340
1825
  0
MLINESTYLE
  5
13
102
{ACAD_REACTORS
330
E
102
}
330
E
100
AcDbMlineStyle
  2
STANDARD
 70
     0
  3

 62
     0
 51
90.0
 52
90.0
 71
     2
 49
0.5
 62
   256
  6
BYLAYER
 49
-0.5
 62
   256
  6
BYLAYER
  0
ACDBPLACEHOLDER
  5
F65
102
{ACAD_REACTORS
330
F64
102
}
330
F64
100
AcDbPlaceHolder
280
     0
  0
XRECORD
  5
1B2B
102
{ACAD_REACTORS
330
1B2A
102
}
330
1B2A
100
AcDbXrecord
 90
        1
  0
XRECORD
  5
1B2C
102
{ACAD_REACTORS
330
1B2A
102
}
330
1B2A
100
AcDbXrecord
 90
       70
  0
XRECORD
  5
1B2D
102
{ACAD_REACTORS
330
1B2A
102
}
330
1B2A
100
AcDbXrecord
  1

  0
XRECORD
  5
1B2E
102
{ACAD_REACTORS
330
1B2A
102
}
330
1B2A
100
AcDbXrecord
  1
systemprinter.ctb
  0
XRECORD
  5
1B2F
102
{ACAD_REACTORS
330
1B2A
102
}
330
1B2A
100
AcDbXrecord
340
F66
  0
XRECORD
  5
1B30
102
{ACAD_REACTORS
330
1B2A
102
}
330
1B2A
100
AcDbXrecord
340
F67
  0
XRECORD
  5
1B31
102
{ACAD_REACTORS
330
1B2A
102
}
330
1B2A
100
AcDbXrecord
340
F64
  0
XRECORD
  5
1B32
102
{ACAD_REACTORS
330
1B2A
102
}
330
1B2A
100
AcDbXrecord
 90
    10781
  0
XRECORD
  5
1B33
102
{ACAD_REACTORS
330
1B2A
102
}
330
1B2A
100
AcDbXrecord
 90
        0
  0
XRECORD
  5
1B34
102
{ACAD_REACTORS
330
1B2A
102
}
330
1B2A
100
AcDbXrecord
 90
        0
  0
XRECORD
  5
1B35
102
{ACAD_REACTORS
330
1B2A
102
}
330
1B2A
100
AcDbXrecord
  1
{8CE4CD63-A93A-11D5-932D-0050DA99388B}
  0
XRECORD
  5
1B36
102
{ACAD_REACTORS
330
1B2A
102
}
330
1B2A
100
AcDbXrecord
  1
{852EDB25-73C6-48C1-BB69-30F56CA245FA}
  0
XRECORD
  5
1B37
102
{ACAD_REACTORS
330
1B2A
102
}
330
1B2A
100
AcDbXrecord
 40
0.0
  0
XRECORD
  5
1B38
102
{ACAD_REACTORS
330
1B2A
102
}
330
1B2A
100
AcDbXrecord
1000
DSTYLE
1002
{
1070
   341
340
6D
1070
   343
340
6D
1070
   344
340
6D
1070
   371
 70
    -1
1070
   372
 70
    -1
1002
}
  0
XRECORD
  5
1B39
102
{ACAD_REACTORS
330
1B2A
102
}
330
1B2A
100
AcDbXrecord
340
0
  0
XRECORD
  5
1B3A
102
{ACAD_REACTORS
330
1B2A
102
}
330
1B2A
100
AcDbXrecord
 70
     0
  0
XRECORD
  5
1B3B
102
{ACAD_REACTORS
330
1B2A
102
}
330
1B2A
100
AcDbXrecord
340
0
  0
XRECORD
  5
1B3C
102
{ACAD_REACTORS
330
1B2A
102
}
330
1B2A
100
AcDbXrecord
 10
0.0
 20
0.0
 30
0.0
  0
XRECORD
  5
1B3D
102
{ACAD_REACTORS
330
1B2A
102
}
330
1B2A
100
AcDbXrecord
 10
0.0
 20
0.0
 30
0.0
  0
XRECORD
  5
1B3E
102
{ACAD_REACTORS
330
1B2A
102
}
330
1B2A
100
AcDbXrecord
 10
0.0
 20
0.0
 30
0.0
  0
XRECORD
  5
1B3F
102
{ACAD_REACTORS
330
1B2A
102
}
330
1B2A
100
AcDbXrecord
 10
0.0
 20
0.0
 30
0.0
  0
XRECORD
  5
1B40
102
{ACAD_REACTORS
330
1B2A
102
}
330
1B2A
100
AcDbXrecord
 10
0.0
 20
0.0
 30
0.0
  0
XRECORD
  5
1B41
102
{ACAD_REACTORS
330
1B2A
102
}
330
1B2A
100
AcDbXrecord
 10
0.0
 20
0.0
 30
0.0
  0
XRECORD
  5
1B42
102
{ACAD_REACTORS
330
1B2A
102
}
330
1B2A
100
AcDbXrecord
340
0
  0
XRECORD
  5
1B43
102
{ACAD_REACTORS
330
1B2A
102
}
330
1B2A
100
AcDbXrecord
 70
     0
  0
XRECORD
  5
1B44
102
{ACAD_REACTORS
330
1B2A
102
}
330
1B2A
100
AcDbXrecord
340
0
  0
XRECORD
  5
1B45
102
{ACAD_REACTORS
330
1B2A
102
}
330
1B2A
100
AcDbXrecord
 10
0.0
 20
0.0
 30
0.0
  0
XRECORD
  5
1B46
102
{ACAD_REACTORS
330
1B2A
102
}
330
1B2A
100
AcDbXrecord
 10
0.0
 20
0.0
 30
0.0
  0
XRECORD
  5
1B47
102
{ACAD_REACTORS
330
1B2A
102
}
330
1B2A
100
AcDbXrecord
 10
0.0
 20
0.0
 30
0.0
  0
XRECORD
  5
1B48
102
{ACAD_REACTORS
330
1B2A
102
}
330
1B2A
100
AcDbXrecord
 10
0.0
 20
0.0
 30
0.0
  0
XRECORD
  5
1B49
102
{ACAD_REACTORS
330
1B2A
102
}
330
1B2A
100
AcDbXrecord
 10
0.0
 20
0.0
 30
0.0
  0
XRECORD
  5
1B4A
102
{ACAD_REACTORS
330
1B2A
102
}
330
1B2A
100
AcDbXrecord
 10
0.0
 20
0.0
 30
0.0
  0
ENDSEC
  0
EOF
