  0
SECTION
  2
HEADER
  9
$ACADVER
  1
AC1012
  9
$DWGCODEPAGE
  3
dos932
  9
$INSBASE
 10
0.0
 20
0.0
 30
0.0
  9
$EXTMIN
 10
5.0
 20
2.449000558492456
 30
0.0
  9
$EXTMAX
 10
403.0
 20
282.0
 30
0.0
  9
$LIMMIN
 10
0.0
 20
0.0
  9
$LIMMAX
 10
420.0
 20
297.0
  9
$ORTHOMODE
 70
     0
  9
$REGENMODE
 70
     1
  9
$FILLMODE
 70
     1
  9
$QTEXTMODE
 70
     0
  9
$MIRRTEXT
 70
     1
  9
$DRAGMODE
 70
     2
  9
$LTSCALE
 40
1.0
  9
$OSMODE
 70
    37
  9
$ATTMODE
 70
     1
  9
$TEXTSIZE
 40
2.5
  9
$TRACEWID
 40
1.0
  9
$TEXTSTYLE
  7
STANDARD
  9
$CLAYER
  8
SUNPOU
  9
$CELTYPE
  6
BYLAYER
  9
$CECOLOR
 62
   256
  9
$CELTSCALE
 40
1.0
  9
$DELOBJ
 70
     1
  9
$DISPSILH
 70
     0
  9
$DIMSCALE
 40
1.0
  9
$DIMASZ
 40
3.0
  9
$DIMEXO
 40
3.0
  9
$DIMDLI
 40
7.0
  9
$DIMRND
 40
0.0
  9
$DIMDLE
 40
0.0
  9
$DIMEXE
 40
1.5
  9
$DIMTP
 40
0.0
  9
$DIMTM
 40
0.0
  9
$DIMTXT
 40
3.0
  9
$DIMCEN
 40
150.0
  9
$DIMTSZ
 40
0.0
  9
$DIMTOL
 70
     0
  9
$DIMLIM
 70
     0
  9
$DIMTIH
 70
     0
  9
$DIMTOH
 70
     0
  9
$DIMSE1
 70
     0
  9
$DIMSE2
 70
     0
  9
$DIMTAD
 70
     3
  9
$DIMZIN
 70
     0
  9
$DIMBLK
  1

  9
$DIMASO
 70
     1
  9
$DIMSHO
 70
     1
  9
$DIMPOST
  1

  9
$DIMAPOST
  1

  9
$DIMALT
 70
     0
  9
$DIMALTD
 70
     2
  9
$DIMALTF
 40
25.4
  9
$DIMLFAC
 40
1.0
  9
$DIMTOFL
 70
     1
  9
$DIMTVP
 40
0.0
  9
$DIMTIX
 70
     0
  9
$DIMSOXD
 70
     0
  9
$DIMSAH
 70
     1
  9
$DIMBLK1
  1
OPEN
  9
$DIMBLK2
  1
OPEN
  9
$DIMSTYLE
  2
STANDARD
  9
$DIMCLRD
 70
   256
  9
$DIMCLRE
 70
   256
  9
$DIMCLRT
 70
   256
  9
$DIMTFAC
 40
1.0
  9
$DIMGAP
 40
1.0
  9
$DIMJUST
 70
     0
  9
$DIMSD1
 70
     0
  9
$DIMSD2
 70
     0
  9
$DIMTOLJ
 70
     1
  9
$DIMTZIN
 70
     0
  9
$DIMALTZ
 70
     0
  9
$DIMALTTZ
 70
     0
  9
$DIMFIT
 70
     3
  9
$DIMUPT
 70
     0
  9
$DIMUNIT
 70
     2
  9
$DIMDEC
 70
     0
  9
$DIMTDEC
 70
     0
  9
$DIMALTU
 70
     2
  9
$DIMALTTD
 70
     2
  9
$DIMTXSTY
  7
STANDARD
  9
$DIMAUNIT
 70
     0
  9
$LUNITS
 70
     2
  9
$LUPREC
 70
     4
  9
$SKETCHINC
 40
1.0
  9
$FILLETRAD
 40
10.0
  9
$AUNITS
 70
     0
  9
$AUPREC
 70
     0
  9
$MENU
  1
.
  9
$ELEVATION
 40
0.0
  9
$PELEVATION
 40
0.0
  9
$THICKNESS
 40
0.0
  9
$LIMCHECK
 70
     0
  9
$BLIPMODE
 70
     0
  9
$CHAMFERA
 40
10.0
  9
$CHAMFERB
 40
10.0
  9
$CHAMFERC
 40
20.0
  9
$CHAMFERD
 40
0.0
  9
$SKPOLY
 70
     0
  9
$TDCREATE
 40
2451070.702858102
  9
$TDUPDATE
 40
2452393.841146712
  9
$TDINDWG
 40
0.0110916435
  9
$TDUSRTIMER
 40
0.0110916435
  9
$USRTIMER
 70
     1
  9
$ANGBASE
 50
0.0
  9
$ANGDIR
 70
     0
  9
$PDMODE
 70
     0
  9
$PDSIZE
 40
0.0
  9
$PLINEWID
 40
0.0
  9
$COORDS
 70
     1
  9
$SPLFRAME
 70
     0
  9
$SPLINETYPE
 70
     6
  9
$SPLINESEGS
 70
     8
  9
$ATTDIA
 70
     0
  9
$ATTREQ
 70
     1
  9
$HANDLING
 70
 10241
  9
$HANDSEED
  5
765
  9
$SURFTAB1
 70
     6
  9
$SURFTAB2
 70
     6
  9
$SURFTYPE
 70
     6
  9
$SURFU
 70
     6
  9
$SURFV
 70
     6
  9
$UCSNAME
  2

  9
$UCSORG
 10
0.0
 20
0.0
 30
0.0
  9
$UCSXDIR
 10
1.0
 20
0.0
 30
0.0
  9
$UCSYDIR
 10
0.0
 20
1.0
 30
0.0
  9
$PUCSNAME
  2

  9
$PUCSORG
 10
0.0
 20
0.0
 30
0.0
  9
$PUCSXDIR
 10
1.0
 20
0.0
 30
0.0
  9
$PUCSYDIR
 10
0.0
 20
1.0
 30
0.0
  9
$USERI1
 70
     0
  9
$USERI2
 70
     0
  9
$USERI3
 70
     0
  9
$USERI4
 70
     0
  9
$USERI5
 70
     0
  9
$USERR1
 40
0.0
  9
$USERR2
 40
0.0
  9
$USERR3
 40
0.0
  9
$USERR4
 40
0.0
  9
$USERR5
 40
0.0
  9
$WORLDVIEW
 70
     1
  9
$SHADEDGE
 70
     3
  9
$SHADEDIF
 70
    70
  9
$TILEMODE
 70
     1
  9
$MAXACTVP
 70
    16
  9
$PINSBASE
 10
0.0
 20
0.0
 30
0.0
  9
$PLIMCHECK
 70
     0
  9
$PEXTMIN
 10
0.0
 20
0.0
 30
0.0
  9
$PEXTMAX
 10
420.0
 20
297.0
 30
0.0
  9
$PLIMMIN
 10
0.0
 20
0.0
  9
$PLIMMAX
 10
420.0
 20
297.0
  9
$UNITMODE
 70
     0
  9
$VISRETAIN
 70
     0
  9
$PLINEGEN
 70
     0
  9
$PSLTSCALE
 70
     1
  9
$TREEDEPTH
 70
  3020
  9
$PICKSTYLE
 70
     1
  9
$CMLSTYLE
  2
STANDARD
  9
$CMLJUST
 70
     0
  9
$CMLSCALE
 40
1.0
  9
$SAVEIMAGES
 70
     1
  0
ENDSEC
  0
SECTION
  2
CLASSES
  0
CLASS
  1
ACDBDICTIONARYWDFLT
  2
AcDbDictionaryWithDefault
  3
AutoCAD 2000
 90
    32768
280
     0
281
     0
  0
CLASS
  1
ACDBPLACEHOLDER
  2
AcDbPlaceHolder
  3
AutoCAD 2000
 90
    32768
280
     0
281
     0
  0
CLASS
  1
LAYOUT
  2
AcDbLayout
  3
AutoCAD 2000
 90
    32768
280
     0
281
     0
  0
CLASS
  1
LONG_TRANSACTION
  2
AcDbLongTransaction
  3
AutoCAD 2000
 90
    32768
280
     0
281
     0
  0
CLASS
  1
LWPOLYLINE
  2
AcDbPolyline
  3
AutoCAD 2000
 90
    32768
280
     0
281
     1
  0
CLASS
  1
HATCH
  2
AcDbHatch
  3
AutoCAD 2000
 90
    32768
280
     0
281
     1
  0
CLASS
  1
XRECORD
  2
AcDbXrecord
  3
AutoCAD 2000
 90
    32768
280
     0
281
     0
  0
CLASS
  1
LONG_TRANSACTION
  2
AcDbLongTransaction
  3
AutoCAD 2000
 90
    32768
280
     0
281
     0
  0
CLASS
  1
LWPOLYLINE
  2
AcDbPolyline
  3
AutoCAD 2000
 90
    32768
280
     0
281
     1
  0
CLASS
  1
HATCH
  2
AcDbHatch
  3
AutoCAD 2000
 90
    32768
280
     0
281
     1
  0
CLASS
  1
XRECORD
  2
AcDbXrecord
  3
AutoCAD 2000
 90
    32768
280
     0
281
     0
  0
CLASS
  1
LONG_TRANSACTION
  2
AcDbLongTransaction
  3
AutoCAD 2000
 90
    32768
280
     0
281
     0
  0
CLASS
  1
LWPOLYLINE
  2
AcDbPolyline
  3
AutoCAD 2000
 90
    32768
280
     0
281
     1
  0
CLASS
  1
HATCH
  2
AcDbHatch
  3
AutoCAD 2000
 90
    32768
280
     0
281
     1
  0
CLASS
  1
XRECORD
  2
AcDbXrecord
  3
AutoCAD 2000
 90
    32768
280
     0
281
     0
  0
CLASS
  1
LONG_TRANSACTION
  2
AcDbLongTransaction
  3
AutoCAD 2000
 90
    32768
280
     0
281
     0
  0
CLASS
  1
LWPOLYLINE
  2
AcDbPolyline
  3
AutoCAD 2000
 90
    32768
280
     0
281
     1
  0
CLASS
  1
HATCH
  2
AcDbHatch
  3
AutoCAD 2000
 90
    32768
280
     0
281
     1
  0
CLASS
  1
XRECORD
  2
AcDbXrecord
  3
AutoCAD 2000
 90
    32768
280
     0
281
     0
  0
ENDSEC
  0
SECTION
  2
TABLES
  0
TABLE
  2
VPORT
  5
8
330
0
100
AcDbSymbolTable
 70
     2
  0
VPORT
  5
758
330
8
100
AcDbSymbolTableRecord
100
AcDbViewportTableRecord
  2
*ACTIVE
 70
     0
 10
0.0
 20
0.0
 11
1.0
 21
1.0
 12
283.5075475223688
 22
156.2637004738646
 13
0.0
 23
0.0
 14
5.0
 24
5.0
 15
0.0
 25
0.0
 16
0.0
 26
0.0
 36
1.0
 17
0.0
 27
0.0
 37
0.0
 40
318.412149734556
 41
2.169459962756052
 42
50.0
 43
0.0
 44
0.0
 50
0.0
 51
0.0
 71
     0
 72
   100
 73
     1
 74
     0
 75
     0
 76
     0
 77
     0
 78
     0
  0
ENDTAB
  0
TABLE
  2
LTYPE
  5
5
330
0
100
AcDbSymbolTable
 70
     2
  0
LTYPE
  5
14
330
5
100
AcDbSymbolTableRecord
100
AcDbLinetypeTableRecord
  2
BYBLOCK
 70
     0
  3

 72
    65
 73
     0
 40
0.0
  0
LTYPE
  5
15
330
5
100
AcDbSymbolTableRecord
100
AcDbLinetypeTableRecord
  2
BYLAYER
 70
     0
  3

 72
    65
 73
     0
 40
0.0
  0
LTYPE
  5
16
330
5
100
AcDbSymbolTableRecord
100
AcDbLinetypeTableRecord
  2
CONTINUOUS
 70
     0
  3
Solid line
 72
    65
 73
     0
 40
0.0
  0
LTYPE
  5
120
330
5
100
AcDbSymbolTableRecord
100
AcDbLinetypeTableRecord
  2
CENTER
 70
     0
  3
____ _ ____ _ ____ _ ____ _ ____ _ ____ _ ____ 
 72
    65
 73
     4
 40
2.0
 49
1.25
 74
     0
 49
-0.25
 74
     0
 49
0.25
 74
     0
 49
-0.25
 74
     0
  0
ENDTAB
  0
TABLE
  2
LAYER
  5
2
330
0
100
AcDbSymbolTable
 70
     7
  0
LAYER
  5
F
330
2
100
AcDbSymbolTableRecord
100
AcDbLayerTableRecord
  2
0
 70
     0
 62
     7
  6
CONTINUOUS
  0
LAYER
  5
62
330
2
100
AcDbSymbolTableRecord
100
AcDbLayerTableRecord
  2
VIEWPORT
 70
     0
 62
     7
  6
CONTINUOUS
  0
LAYER
  5
6B
330
2
100
AcDbSymbolTableRecord
100
AcDbLayerTableRecord
  2
ZUWAKU
 70
     0
 62
     7
  6
CONTINUOUS
  0
LAYER
  5
134
330
2
100
AcDbSymbolTableRecord
100
AcDbLayerTableRecord
  2
SUNPOU
 70
     0
 62
     4
  6
CONTINUOUS
  0
LAYER
  5
135
330
2
100
AcDbSymbolTableRecord
100
AcDbLayerTableRecord
  2
CENTER_L
 70
     0
 62
     1
  6
CENTER
  0
LAYER
  5
136
330
2
100
AcDbSymbolTableRecord
100
AcDbLayerTableRecord
  2
SEIHIN
 70
     0
 62
     3
  6
CONTINUOUS
  0
LAYER
  5
3C8
330
2
100
AcDbSymbolTableRecord
100
AcDbLayerTableRecord
  2
DEFPOINTS
 70
     0
 62
     7
  6
CONTINUOUS
  0
ENDTAB
  0
TABLE
  2
STYLE
  5
3
330
0
100
AcDbSymbolTable
 70
     1
  0
STYLE
  5
10
330
3
100
AcDbSymbolTableRecord
100
AcDbTextStyleTableRecord
  2
STANDARD
 70
     0
 40
0.0
 41
1.0
 50
0.0
 71
     0
 42
2.5
  3
TXT
  4
bigfont.shx
  0
ENDTAB
  0
TABLE
  2
VIEW
  5
6
330
0
100
AcDbSymbolTable
 70
     0
  0
ENDTAB
  0
TABLE
  2
UCS
  5
7
330
0
100
AcDbSymbolTable
 70
     0
  0
ENDTAB
  0
TABLE
  2
APPID
  5
9
330
0
100
AcDbSymbolTable
 70
     1
  0
APPID
  5
11
330
9
100
AcDbSymbolTableRecord
100
AcDbRegAppTableRecord
  2
ACAD
 70
     0
  0
ENDTAB
  0
TABLE
  2
DIMSTYLE
  5
A
330
0
100
AcDbSymbolTable
 70
     1
  0
DIMSTYLE
105
1D
102
{ACAD_REACTORS
330
3CD
330
3DA
330
3E9
330
3F6
330
403
330
41D
330
42A
330
438
330
445
102
}
330
A
100
AcDbSymbolTableRecord
100
AcDbDimStyleTableRecord
  2
STANDARD
 70
     0
  3

  4

  5

  6

  7

 40
1.0
 41
0.18
 42
0.0625
 43
0.38
 44
0.18
 45
0.0
 46
0.0
 47
0.0
 48
0.0
140
0.18
141
0.09
142
0.0
143
25.4
144
1.0
145
0.0
146
1.0
147
0.09
 71
     0
 72
     0
 73
     1
 74
     1
 75
     0
 76
     0
 77
     0
 78
     0
170
     0
171
     2
172
     0
173
     0
174
     0
175
     0
176
     0
177
     0
178
     0
270
     2
271
     4
272
     4
273
     2
274
     2
340
10
275
     0
280
     0
281
     0
282
     0
283
     1
284
     0
285
     0
286
     0
287
     3
288
     0
  0
ENDTAB
  0
TABLE
  2
BLOCK_RECORD
  5
1
330
0
100
AcDbSymbolTable
 70
    10
  0
BLOCK_RECORD
  5
1A
102
{ACAD_XDICTIONARY
360
67C
102
}
330
1
100
AcDbSymbolTableRecord
100
AcDbBlockTableRecord
  2
*MODEL_SPACE
  0
BLOCK_RECORD
  5
17
102
{ACAD_XDICTIONARY
360
67A
102
}
330
1
100
AcDbSymbolTableRecord
100
AcDbBlockTableRecord
  2
*PAPER_SPACE
  0
BLOCK_RECORD
  5
B2
330
1
100
AcDbSymbolTableRecord
100
AcDbBlockTableRecord
  2
_OPEN
  0
BLOCK_RECORD
  5
3C0
330
1
100
AcDbSymbolTableRecord
100
AcDbBlockTableRecord
  2
*D1
  0
BLOCK_RECORD
  5
3CE
330
1
100
AcDbSymbolTableRecord
100
AcDbBlockTableRecord
  2
*D2
  0
BLOCK_RECORD
  5
3DD
330
1
100
AcDbSymbolTableRecord
100
AcDbBlockTableRecord
  2
*D3
  0
BLOCK_RECORD
  5
3EA
330
1
100
AcDbSymbolTableRecord
100
AcDbBlockTableRecord
  2
*D4
  0
BLOCK_RECORD
  5
3F7
330
1
100
AcDbSymbolTableRecord
100
AcDbBlockTableRecord
  2
*D5
  0
BLOCK_RECORD
  5
411
330
1
100
AcDbSymbolTableRecord
100
AcDbBlockTableRecord
  2
*D6
  0
BLOCK_RECORD
  5
41E
330
1
100
AcDbSymbolTableRecord
100
AcDbBlockTableRecord
  2
*D7
  0
BLOCK_RECORD
  5
42B
330
1
100
AcDbSymbolTableRecord
100
AcDbBlockTableRecord
  2
*D8
  0
BLOCK_RECORD
  5
439
330
1
100
AcDbSymbolTableRecord
100
AcDbBlockTableRecord
  2
*D9
  0
ENDTAB
  0
ENDSEC
  0
SECTION
  2
BLOCKS
  0
BLOCK
  5
1B
330
1A
100
AcDbEntity
  8
0
100
AcDbBlockBegin
  2
*MODEL_SPACE
 70
     0
 10
0.0
 20
0.0
 30
0.0
  3
*MODEL_SPACE
  1

  0
ENDBLK
  5
1C
330
1A
100
AcDbEntity
  8
0
100
AcDbBlockEnd
  0
BLOCK
  5
18
330
17
100
AcDbEntity
 67
     1
  8
0
100
AcDbBlockBegin
  2
*PAPER_SPACE
 70
     0
 10
0.0
 20
0.0
 30
0.0
  3
*PAPER_SPACE
  1

  0
ENDBLK
  5
19
330
17
100
AcDbEntity
 67
     1
  8
0
100
AcDbBlockEnd
  0
BLOCK
  5
B3
330
B2
100
AcDbEntity
  8
0
100
AcDbBlockBegin
  2
_OPEN
 70
     0
 10
0.0
 20
0.0
 30
0.0
  3
_OPEN
  1

  0
LINE
  5
B4
330
B2
100
AcDbEntity
  8
0
  6
BYBLOCK
 62
     0
100
AcDbLine
 10
-1.0
 20
0.1666666666666666
 30
0.0
 11
0.0
 21
0.0
 31
0.0
  0
LINE
  5
B5
330
B2
100
AcDbEntity
  8
0
  6
BYBLOCK
 62
     0
100
AcDbLine
 10
0.0
 20
0.0
 30
0.0
 11
-1.0
 21
-0.1666666666666666
 31
0.0
  0
LINE
  5
B6
330
B2
100
AcDbEntity
  8
0
  6
BYBLOCK
 62
     0
100
AcDbLine
 10
0.0
 20
0.0
 30
0.0
 11
-1.0
 21
0.0
 31
0.0
  0
ENDBLK
  5
B7
330
B2
100
AcDbEntity
  8
0
100
AcDbBlockEnd
  0
BLOCK
  5
3C1
330
3C0
100
AcDbEntity
  8
0
100
AcDbBlockBegin
  2
*D1
 70
     1
 10
0.0
 20
0.0
 30
0.0
  3
*D1
  1

  0
LINE
  5
684
330
3C0
100
AcDbEntity
  8
SUNPOU
100
AcDbLine
 10
87.59430390468745
 20
198.1066420433324
 30
0.0
 11
87.59430390468745
 21
215.1502538751524
 31
0.0
  0
LINE
  5
685
330
3C0
100
AcDbEntity
  8
SUNPOU
100
AcDbLine
 10
151.4943035196114
 20
198.1016313128636
 30
0.0
 11
151.4943035196114
 21
215.1502538751524
 31
0.0
  0
LINE
  5
686
330
3C0
100
AcDbEntity
  8
SUNPOU
100
AcDbLine
 10
90.59430390468746
 20
213.6502538751524
 30
0.0
 11
148.4943035196114
 21
213.6502538751524
 31
0.0
  0
INSERT
  5
687
330
3C0
100
AcDbEntity
  8
SUNPOU
100
AcDbBlockReference
  2
_OPEN
 10
87.59430390468745
 20
213.6502538751524
 30
0.0
 41
3.0
 42
3.0
 43
3.0
 50
180.0
  0
INSERT
  5
688
330
3C0
100
AcDbEntity
  8
SUNPOU
100
AcDbBlockReference
  2
_OPEN
 10
151.4943035196114
 20
213.6502538751524
 30
0.0
 41
3.0
 42
3.0
 43
3.0
  0
MTEXT
  5
689
330
3C0
100
AcDbEntity
  8
SUNPOU
100
AcDbMText
 10
119.5443037121494
 20
216.1502538751524
 30
0.0
 40
3.0
 41
0.0
 71
     5
 72
     1
  1
\A1;64
1001
ACAD
1000
MTEXTBEGIN
1070
    73
1070
     1
1070
    44
1040
1.0
1070
    74
1070
     0
1000
MTEXTEND
1000
MTEXTBEGIN
1070
    73
1070
     1
1070
    44
1040
1.0
1070
    74
1070
     0
1000
MTEXTEND
1000
MTEXTBEGIN
1070
    73
1070
     1
1070
    44
1040
1.0
1070
    74
1070
     0
1000
MTEXTEND
  0
POINT
  5
68A
330
3C0
100
AcDbEntity
  8
DEFPOINTS
 62
     0
100
AcDbPoint
 10
87.59430390468745
 20
195.1066420433324
 30
0.0
  0
POINT
  5
68B
330
3C0
100
AcDbEntity
  8
DEFPOINTS
 62
     0
100
AcDbPoint
 10
151.4943035196114
 20
195.1016313128636
 30
0.0
  0
POINT
  5
68C
330
3C0
100
AcDbEntity
  8
DEFPOINTS
 62
     0
100
AcDbPoint
 10
151.4943035196114
 20
213.6502538751524
 30
0.0
  0
ENDBLK
  5
3CC
330
3C0
100
AcDbEntity
  8
0
100
AcDbBlockEnd
  0
BLOCK
  5
3CF
330
3CE
100
AcDbEntity
  8
0
100
AcDbBlockBegin
  2
*D2
 70
     1
 10
0.0
 20
0.0
 30
0.0
  3
*D2
  1

  0
LINE
  5
68D
330
3CE
100
AcDbEntity
  8
SUNPOU
100
AcDbLine
 10
257.5947039046874
 20
198.1068420433323
 30
0.0
 11
257.5947039046874
 21
215.1502538751524
 31
0.0
  0
LINE
  5
68E
330
3CE
100
AcDbEntity
  8
SUNPOU
100
AcDbLine
 10
321.4905039046873
 20
198.1065420433322
 30
0.0
 11
321.4905039046873
 21
215.1502538751524
 31
0.0
  0
LINE
  5
68F
330
3CE
100
AcDbEntity
  8
SUNPOU
100
AcDbLine
 10
260.5947039046874
 20
213.6502538751524
 30
0.0
 11
318.4905039046873
 21
213.6502538751524
 31
0.0
  0
INSERT
  5
690
330
3CE
100
AcDbEntity
  8
SUNPOU
100
AcDbBlockReference
  2
_OPEN
 10
257.5947039046874
 20
213.6502538751524
 30
0.0
 41
3.0
 42
3.0
 43
3.0
 50
180.0
  0
INSERT
  5
691
330
3CE
100
AcDbEntity
  8
SUNPOU
100
AcDbBlockReference
  2
_OPEN
 10
321.4905039046873
 20
213.6502538751524
 30
0.0
 41
3.0
 42
3.0
 43
3.0
  0
MTEXT
  5
692
330
3CE
100
AcDbEntity
  8
SUNPOU
100
AcDbMText
 10
289.5426039046873
 20
216.1502538751524
 30
0.0
 40
3.0
 41
0.0
 71
     5
 72
     1
  1
\A1;64
1001
ACAD
1000
MTEXTBEGIN
1070
    73
1070
     1
1070
    44
1040
1.0
1070
    74
1070
     0
1000
MTEXTEND
1000
MTEXTBEGIN
1070
    73
1070
     1
1070
    44
1040
1.0
1070
    74
1070
     0
1000
MTEXTEND
1000
MTEXTBEGIN
1070
    73
1070
     1
1070
    44
1040
1.0
1070
    74
1070
     0
1000
MTEXTEND
  0
POINT
  5
693
330
3CE
100
AcDbEntity
  8
DEFPOINTS
 62
     0
100
AcDbPoint
 10
257.5947039046874
 20
195.1068420433323
 30
0.0
  0
POINT
  5
694
330
3CE
100
AcDbEntity
  8
DEFPOINTS
 62
     0
100
AcDbPoint
 10
321.4905039046873
 20
195.1065420433322
 30
0.0
  0
POINT
  5
695
330
3CE
100
AcDbEntity
  8
DEFPOINTS
 62
     0
100
AcDbPoint
 10
321.4905039046873
 20
213.6502538751524
 30
0.0
  0
ENDBLK
  5
3D9
330
3CE
100
AcDbEntity
  8
0
100
AcDbBlockEnd
  0
BLOCK
  5
47D
330
3DD
100
AcDbEntity
  8
0
100
AcDbBlockBegin
  2
*D3
 70
     1
 10
0.0
 20
0.0
 30
0.0
  3
*D3
  1

  0
LINE
  5
696
330
3DD
100
AcDbEntity
  8
SUNPOU
100
AcDbLine
 10
84.59430390468744
 20
195.1065420433322
 30
0.0
 11
67.04172209154854
 21
195.1065420433322
 31
0.0
  0
LINE
  5
697
330
3DD
100
AcDbEntity
  8
SUNPOU
100
AcDbLine
 10
84.59430390468744
 20
170.1065420433322
 30
0.0
 11
67.04172209154854
 21
170.1065420433322
 31
0.0
  0
LINE
  5
698
330
3DD
100
AcDbEntity
  8
SUNPOU
100
AcDbLine
 10
68.54172209154853
 20
192.1065420433322
 30
0.0
 11
68.54172209154853
 21
173.1065420433322
 31
0.0
  0
INSERT
  5
699
330
3DD
100
AcDbEntity
  8
SUNPOU
100
AcDbBlockReference
  2
_OPEN
 10
68.54172209154853
 20
195.1065420433322
 30
0.0
 41
3.0
 42
3.0
 43
3.0
 50
90.0
  0
INSERT
  5
69A
330
3DD
100
AcDbEntity
  8
SUNPOU
100
AcDbBlockReference
  2
_OPEN
 10
68.54172209154853
 20
170.1065420433322
 30
0.0
 41
3.0
 42
3.0
 43
3.0
 50
270.0
  0
MTEXT
  5
69B
330
3DD
100
AcDbEntity
  8
SUNPOU
100
AcDbMText
 10
66.0417220915485
 20
182.6065420433323
 30
0.0
 40
3.0
 41
0.0
 71
     5
 72
     1
  1
\A1;※ 25
 11
0.0000000000000001
 21
1.0
 31
0.0
1001
ACAD
1000
MTEXTBEGIN
1070
    73
1070
     1
1070
    44
1040
1.0
1070
    74
1070
     0
1000
MTEXTEND
1000
MTEXTBEGIN
1070
    73
1070
     1
1070
    44
1040
1.0
1070
    74
1070
     0
1000
MTEXTEND
1000
MTEXTBEGIN
1070
    73
1070
     1
1070
    44
1040
1.0
1070
    74
1070
     0
1000
MTEXTEND
  0
POINT
  5
69C
330
3DD
100
AcDbEntity
  8
DEFPOINTS
 62
     0
100
AcDbPoint
 10
87.59430390468745
 20
195.1065420433322
 30
0.0
  0
POINT
  5
69D
330
3DD
100
AcDbEntity
  8
DEFPOINTS
 62
     0
100
AcDbPoint
 10
87.59430390468745
 20
170.1065420433322
 30
0.0
  0
POINT
  5
69E
330
3DD
100
AcDbEntity
  8
DEFPOINTS
 62
     0
100
AcDbPoint
 10
68.54172209154853
 20
170.1065420433322
 30
0.0
  0
ENDBLK
  5
487
330
3DD
100
AcDbEntity
  8
0
100
AcDbBlockEnd
  0
BLOCK
  5
3EB
330
3EA
100
AcDbEntity
  8
0
100
AcDbBlockBegin
  2
*D4
 70
     1
 10
0.0
 20
0.0
 30
0.0
  3
*D4
  1

  0
LINE
  5
69F
330
3EA
100
AcDbEntity
  8
SUNPOU
100
AcDbLine
 10
84.59430390468744
 20
195.1065420433322
 30
0.0
 11
56.19856282300908
 21
195.1065420433323
 31
0.0
  0
LINE
  5
6A0
330
3EA
100
AcDbEntity
  8
SUNPOU
100
AcDbLine
 10
116.5423039046873
 20
138.5909919342188
 30
0.0
 11
56.19856282300907
 21
138.5909919342188
 31
0.0
  0
LINE
  5
6A1
330
3EA
100
AcDbEntity
  8
SUNPOU
100
AcDbLine
 10
57.69856282300908
 20
192.1065420433323
 30
0.0
 11
57.69856282300906
 21
141.5909919342188
 31
0.0
  0
INSERT
  5
6A2
330
3EA
100
AcDbEntity
  8
SUNPOU
100
AcDbBlockReference
  2
_OPEN
 10
57.69856282300908
 20
195.1065420433323
 30
0.0
 41
3.0
 42
3.0
 43
3.0
 50
90.0
  0
INSERT
  5
6A3
330
3EA
100
AcDbEntity
  8
SUNPOU
100
AcDbBlockReference
  2
_OPEN
 10
57.69856282300906
 20
138.5909919342188
 30
0.0
 41
3.0
 42
3.0
 43
3.0
 50
270.0
  0
MTEXT
  5
6A4
330
3EA
100
AcDbEntity
  8
SUNPOU
100
AcDbMText
 10
55.19856282300905
 20
166.8487669887755
 30
0.0
 40
3.0
 41
0.0
 71
     5
 72
     1
  1
\A1;57
 11
0.0000000000000001
 21
1.0
 31
0.0
1001
ACAD
1000
MTEXTBEGIN
1070
    73
1070
     1
1070
    44
1040
1.0
1070
    74
1070
     0
1000
MTEXTEND
1000
MTEXTBEGIN
1070
    73
1070
     1
1070
    44
1040
1.0
1070
    74
1070
     0
1000
MTEXTEND
1000
MTEXTBEGIN
1070
    73
1070
     1
1070
    44
1040
1.0
1070
    74
1070
     0
1000
MTEXTEND
  0
POINT
  5
6A5
330
3EA
100
AcDbEntity
  8
DEFPOINTS
 62
     0
100
AcDbPoint
 10
87.59430390468745
 20
195.1065420433322
 30
0.0
  0
POINT
  5
6A6
330
3EA
100
AcDbEntity
  8
DEFPOINTS
 62
     0
100
AcDbPoint
 10
119.5423039046873
 20
138.5909919342188
 30
0.0
  0
POINT
  5
6A7
330
3EA
100
AcDbEntity
  8
DEFPOINTS
 62
     0
100
AcDbPoint
 10
57.69856282300906
 20
138.5909919342188
 30
0.0
  0
ENDBLK
  5
3F5
330
3EA
100
AcDbEntity
  8
0
100
AcDbBlockEnd
  0
BLOCK
  5
45C
330
3F7
100
AcDbEntity
  8
0
100
AcDbBlockBegin
  2
*D5
 70
     1
 10
0.0
 20
0.0
 30
0.0
  3
*D5
  1

  0
LINE
  5
6A8
330
3F7
100
AcDbEntity
  8
SUNPOU
100
AcDbLine
 10
151.7657736064409
 20
172.8918129668821
 30
0.0
 11
152.0791483007564
 21
188.2765415386554
 31
0.0
  0
LINE
  5
6A9
330
3F7
100
AcDbEntity
  8
SUNPOU
100
AcDbLine
 10
181.7595648048759
 20
172.2808632771087
 30
0.0
 11
182.0729394991914
 21
187.665591848882
 31
0.0
  0
LINE
  5
6AA
330
3F7
100
AcDbEntity
  8
SUNPOU
100
AcDbLine
 10
155.0479786661469
 20
186.7157576774064
 30
0.0
 11
179.0430141909579
 21
186.226997873319
 31
0.0
  0
INSERT
  5
6AB
330
3F7
100
AcDbEntity
  8
SUNPOU
100
AcDbBlockReference
  2
_OPEN
 10
152.0486008293349
 20
186.7768526202494
 30
0.0
 41
3.0
 42
3.0
 43
3.0
 50
178.8330918732432
  0
INSERT
  5
6AC
330
3F7
100
AcDbEntity
  8
SUNPOU
100
AcDbBlockReference
  2
_OPEN
 10
182.0423920277699
 20
186.165902930476
 30
0.0
 41
3.0
 42
3.0
 43
3.0
 50
358.8330918732432
  0
MTEXT
  5
6AD
330
3F7
100
AcDbEntity
  8
SUNPOU
100
AcDbMText
 10
167.0964088809216
 20
188.9708593060393
 30
0.0
 40
3.0
 41
0.0
 71
     5
 72
     1
  1
\A1;※ 30
 11
0.9997926122706653
 21
-0.0203649809476703
 31
0.0
1001
ACAD
1000
MTEXTBEGIN
1070
    73
1070
     1
1070
    44
1040
1.0
1070
    74
1070
     0
1000
MTEXTEND
1000
MTEXTBEGIN
1070
    73
1070
     1
1070
    44
1040
1.0
1070
    74
1070
     0
1000
MTEXTEND
1000
MTEXTBEGIN
1070
    73
1070
     1
1070
    44
1040
1.0
1070
    74
1070
     0
1000
MTEXTEND
  0
POINT
  5
6AE
330
3F7
100
AcDbEntity
  8
DEFPOINTS
 62
     0
100
AcDbPoint
 10
151.7046786635978
 20
169.8924351300701
 30
0.0
  0
POINT
  5
6AF
330
3F7
100
AcDbEntity
  8
DEFPOINTS
 62
     0
100
AcDbPoint
 10
181.6984698620329
 20
169.2814854402967
 30
0.0
  0
POINT
  5
6B0
330
3F7
100
AcDbEntity
  8
DEFPOINTS
 62
     0
100
AcDbPoint
 10
182.0423920277699
 20
186.165902930476
 30
0.0
  0
ENDBLK
  5
466
330
3F7
100
AcDbEntity
  8
0
100
AcDbBlockEnd
  0
BLOCK
  5
412
330
411
100
AcDbEntity
  8
0
100
AcDbBlockBegin
  2
*D6
 70
     1
 10
0.0
 20
0.0
 30
0.0
  3
*D6
  1

  0
LINE
  5
6B1
330
411
100
AcDbEntity
  8
SUNPOU
100
AcDbLine
 10
119.4812018143881
 20
135.5916142430034
 30
0.0
 11
118.5094516691257
 21
87.89037042526823
 31
0.0
  0
LINE
  5
6B2
330
411
100
AcDbEntity
  8
SUNPOU
100
AcDbLine
 10
160.9907025354619
 20
134.7459997447819
 30
0.0
 11
160.0189523901995
 21
87.0447559270468
 31
0.0
  0
LINE
  5
6B3
330
411
100
AcDbEntity
  8
SUNPOU
100
AcDbLine
 10
121.5393804054908
 20
89.32895718057677
 30
0.0
 11
157.0501257441336
 21
88.60554686295374
 31
0.0
  0
INSERT
  5
6B4
330
411
100
AcDbEntity
  8
SUNPOU
100
AcDbBlockReference
  2
_OPEN
 10
118.5400027142753
 20
89.39005927087597
 30
0.0
 41
3.0
 42
3.0
 43
3.0
 50
178.8329553385663
  0
INSERT
  5
6B5
330
411
100
AcDbEntity
  8
SUNPOU
100
AcDbBlockReference
  2
_OPEN
 10
160.0495034353491
 20
88.54444477265454
 30
0.0
 41
3.0
 42
3.0
 43
3.0
 50
358.8329553385663
  0
MTEXT
  5
6B6
330
411
100
AcDbEntity
  8
SUNPOU
100
AcDbMText
 10
139.3456714833949
 20
91.46673343111149
 30
0.0
 40
3.0
 41
0.0
 71
     5
 72
     1
  1
\A1;42
 11
0.9997925637384915
 21
-0.0203673634330662
 31
0.0
1001
ACAD
1000
MTEXTBEGIN
1070
    73
1070
     1
1070
    44
1040
1.0
1070
    74
1070
     0
1000
MTEXTEND
1000
MTEXTBEGIN
1070
    73
1070
     1
1070
    44
1040
1.0
1070
    74
1070
     0
1000
MTEXTEND
1000
MTEXTBEGIN
1070
    73
1070
     1
1070
    44
1040
1.0
1070
    74
1070
     0
1000
MTEXTEND
  0
POINT
  5
6B7
330
411
100
AcDbEntity
  8
DEFPOINTS
 62
     0
100
AcDbPoint
 10
119.5423039046873
 20
138.5909919342188
 30
0.0
  0
POINT
  5
6B8
330
411
100
AcDbEntity
  8
DEFPOINTS
 62
     0
100
AcDbPoint
 10
161.0518046257611
 20
137.7453774359974
 30
0.0
  0
POINT
  5
6B9
330
411
100
AcDbEntity
  8
DEFPOINTS
 62
     0
100
AcDbPoint
 10
160.0495034353491
 20
88.54444477265454
 30
0.0
  0
ENDBLK
  5
41C
330
411
100
AcDbEntity
  8
0
100
AcDbBlockEnd
  0
BLOCK
  5
41F
330
41E
100
AcDbEntity
  8
0
100
AcDbBlockBegin
  2
*D7
 70
     1
 10
0.0
 20
0.0
 30
0.0
  3
*D7
  1

  0
LINE
  5
6BA
330
41E
100
AcDbEntity
  8
SUNPOU
100
AcDbLine
 10
180.9865710051986
 20
134.3386521258319
 30
0.0
 11
179.8020280846515
 21
76.19184253586578
 31
0.0
  0
LINE
  5
6BB
330
41E
100
AcDbEntity
  8
SUNPOU
100
AcDbLine
 10
119.4812018143881
 20
135.5916142430033
 30
0.0
 11
118.296658893841
 21
77.44480465303727
 31
0.0
  0
LINE
  5
6BC
330
41E
100
AcDbEntity
  8
SUNPOU
100
AcDbLine
 10
176.8332014385856
 20
77.75263347177271
 30
0.0
 11
121.326587630206
 21
78.88339140834581
 31
0.0
  0
INSERT
  5
6BD
330
41E
100
AcDbEntity
  8
SUNPOU
100
AcDbBlockReference
  2
_OPEN
 10
179.8325791298011
 20
77.69153138147351
 30
0.0
 41
3.0
 42
3.0
 43
3.0
 50
358.8329553385664
  0
INSERT
  5
6BE
330
41E
100
AcDbEntity
  8
SUNPOU
100
AcDbBlockReference
  2
_OPEN
 10
118.3272099389906
 20
78.944493498645
 30
0.0
 41
3.0
 42
3.0
 43
3.0
 50
178.8329553385664
  0
MTEXT
  5
6BF
330
41E
100
AcDbEntity
  8
SUNPOU
100
AcDbMText
 10
149.1308129429785
 20
80.81749384940549
 30
0.0
 40
3.0
 41
0.0
 71
     5
 72
     1
  1
\A1;62
 11
0.9997925637384915
 21
-0.0203673634330653
 31
0.0
1001
ACAD
1000
MTEXTBEGIN
1070
    73
1070
     1
1070
    44
1040
1.0
1070
    74
1070
     0
1000
MTEXTEND
1000
MTEXTBEGIN
1070
    73
1070
     1
1070
    44
1040
1.0
1070
    74
1070
     0
1000
MTEXTEND
1000
MTEXTBEGIN
1070
    73
1070
     1
1070
    44
1040
1.0
1070
    74
1070
     0
1000
MTEXTEND
  0
POINT
  5
6C0
330
41E
100
AcDbEntity
  8
DEFPOINTS
 62
     0
100
AcDbPoint
 10
181.0476730954978
 20
137.3380298170473
 30
0.0
  0
POINT
  5
6C1
330
41E
100
AcDbEntity
  8
DEFPOINTS
 62
     0
100
AcDbPoint
 10
119.5423039046873
 20
138.5909919342188
 30
0.0
  0
POINT
  5
6C2
330
41E
100
AcDbEntity
  8
DEFPOINTS
 62
     0
100
AcDbPoint
 10
118.3272099389906
 20
78.944493498645
 30
0.0
  0
ENDBLK
  5
429
330
41E
100
AcDbEntity
  8
0
100
AcDbBlockEnd
  0
BLOCK
  5
42C
330
42B
100
AcDbEntity
  8
0
100
AcDbBlockBegin
  2
*D8
 70
     1
 10
0.0
 20
0.0
 30
0.0
  3
*D8
  1

  0
LINE
  5
75B
330
42B
100
AcDbEntity
  8
SUNPOU
 62
     4
100
AcDbLine
 10
119.5423039046872
 20
127.371948403373
 30
0.0
 11
119.5423039046873
 21
118.5842090884665
 31
0.0
  0
ARC
  5
75C
330
42B
100
AcDbEntity
  8
SUNPOU
 62
     4
100
AcDbCircle
 10
119.5423039046873
 20
138.5909919342188
 30
0.0
 40
18.50678284575226
100
AcDbArc
 50
279.2980014823137
 51
349.5349538562526
  0
INSERT
  5
75D
330
42B
100
AcDbEntity
  8
SUNPOU
 62
     4
100
AcDbBlockReference
  2
_OPEN
 10
119.5423039046873
 20
120.0842090884665
 30
0.0
 41
3.0
 42
3.0
 43
3.0
 50
184.6490007411569
  0
INSERT
  5
75E
330
42B
100
AcDbEntity
  8
SUNPOU
 62
     4
100
AcDbBlockReference
  2
_OPEN
 10
138.0452477725935
 20
138.2140575620226
 30
0.0
 41
3.0
 42
3.0
 43
3.0
 50
84.18395459740954
  0
MTEXT
  5
75F
330
42B
100
AcDbEntity
  8
SUNPOU
 62
     4
100
AcDbMText
 10
130.7449515903297
 20
127.1578041940284
 30
0.0
 40
3.0
 41
0.0
 71
     5
 72
     1
  1
\A1;88.8°
 11
0.7142714342016852
 21
0.6998687864760563
 31
0.0
  0
POINT
  5
760
330
42B
100
AcDbEntity
  8
DEFPOINTS
 62
     0
100
AcDbPoint
 10
128.6866637754529
 20
122.5011910077386
 30
0.0
  0
POINT
  5
761
330
42B
100
AcDbEntity
  8
DEFPOINTS
 62
     0
100
AcDbPoint
 10
119.5423039046873
 20
130.371948403373
 30
0.0
  0
POINT
  5
762
330
42B
100
AcDbEntity
  8
DEFPOINTS
 62
     0
100
AcDbPoint
 10
111.3249653015044
 20
138.7583921808837
 30
0.0
  0
POINT
  5
763
330
42B
100
AcDbEntity
  8
DEFPOINTS
 62
     0
100
AcDbPoint
 10
188.4299039046872
 20
137.1876420433323
 30
0.0
  0
POINT
  5
764
330
42B
100
AcDbEntity
  8
DEFPOINTS
 62
     0
100
AcDbPoint
 10
119.5423039046873
 20
205.1065420433324
 30
0.0
  0
ENDBLK
  5
437
330
42B
100
AcDbEntity
  8
0
100
AcDbBlockEnd
  0
BLOCK
  5
43A
330
439
100
AcDbEntity
  8
0
100
AcDbBlockBegin
  2
*D9
 70
     1
 10
0.0
 20
0.0
 30
0.0
  3
*D9
  1

  0
LINE
  5
6CD
330
439
100
AcDbEntity
  8
SUNPOU
100
AcDbLine
 10
164.7019812809489
 20
169.6276244945376
 30
0.0
 11
206.8107890735411
 21
168.7695840441038
 31
0.0
  0
LINE
  5
6CE
330
439
100
AcDbEntity
  8
SUNPOU
100
AcDbLine
 10
163.400176357203
 20
105.7408307078911
 30
0.0
 11
205.5089841497952
 21
104.8827902574574
 31
0.0
  0
LINE
  5
6CF
330
439
100
AcDbEntity
  8
SUNPOU
100
AcDbLine
 10
205.2499828366157
 20
165.8007654422396
 30
0.0
 11
204.0704130104591
 21
107.9127264081162
 31
0.0
  0
INSERT
  5
6D0
330
439
100
AcDbEntity
  8
SUNPOU
100
AcDbBlockReference
  2
_OPEN
 10
205.3111003854104
 20
168.8001428185011
 30
0.0
 41
3.0
 42
3.0
 43
3.0
 50
88.8326600417799
  0
INSERT
  5
6D1
330
439
100
AcDbEntity
  8
SUNPOU
100
AcDbBlockReference
  2
_OPEN
 10
204.0092954616645
 20
104.9133490318547
 30
0.0
 41
3.0
 42
3.0
 43
3.0
 50
268.8326600417799
  0
MTEXT
  5
6D2
330
439
100
AcDbEntity
  8
SUNPOU
100
AcDbMText
 10
202.1607167766528
 20
136.9076772158401
 30
0.0
 40
3.0
 41
0.0
 71
     5
 72
     1
  1
\A1;64
 11
0.0203725162648836
 21
0.9997924587538342
 31
0.0
1001
ACAD
1000
MTEXTBEGIN
1070
    73
1070
     1
1070
    44
1040
1.0
1070
    74
1070
     0
1000
MTEXTEND
1000
MTEXTBEGIN
1070
    73
1070
     1
1070
    44
1040
1.0
1070
    74
1070
     0
1000
MTEXTEND
1000
MTEXTBEGIN
1070
    73
1070
     1
1070
    44
1040
1.0
1070
    74
1070
     0
1000
MTEXTEND
  0
POINT
  5
6D3
330
439
100
AcDbEntity
  8
DEFPOINTS
 62
     0
100
AcDbPoint
 10
161.7026039046874
 20
169.6887420433323
 30
0.0
  0
POINT
  5
6D4
330
439
100
AcDbEntity
  8
DEFPOINTS
 62
     0
100
AcDbPoint
 10
160.4007989809415
 20
105.8019482566858
 30
0.0
  0
POINT
  5
6D5
330
439
100
AcDbEntity
  8
DEFPOINTS
 62
     0
100
AcDbPoint
 10
204.0092954616645
 20
104.9133490318547
 30
0.0
  0
ENDBLK
  5
444
330
439
100
AcDbEntity
  8
0
100
AcDbBlockEnd
  0
ENDSEC
  0
SECTION
  2
ENTITIES
  0
LINE
  5
6C
330
1A
100
AcDbEntity
  8
ZUWAKU
  6
CONTINUOUS
 62
     7
100
AcDbLine
 10
403.0
 20
7.0
 30
0.0
 11
5.0
 21
7.0
 31
0.0
  0
LINE
  5
6D
330
1A
100
AcDbEntity
  8
ZUWAKU
  6
CONTINUOUS
 62
     7
100
AcDbLine
 10
5.0
 20
282.0
 30
0.0
 11
5.0
 21
7.0
 31
0.0
  0
LINE
  5
6E
330
1A
100
AcDbEntity
  8
ZUWAKU
  6
CONTINUOUS
 62
     7
100
AcDbLine
 10
403.0
 20
282.0
 30
0.0
 11
403.0
 21
7.0
 31
0.0
  0
LINE
  5
6F
330
1A
100
AcDbEntity
  8
ZUWAKU
  6
CONTINUOUS
 62
     7
100
AcDbLine
 10
403.0
 20
282.0
 30
0.0
 11
5.0
 21
282.0
 31
0.0
  0
LINE
  5
8E
330
1A
100
AcDbEntity
  8
ZUWAKU
 62
     7
 48
10.0
100
AcDbLine
 10
5.0
 20
13.0
 30
0.0
 11
403.0
 21
12.99999999999994
 31
0.0
  0
TEXT
  5
93
330
1A
100
AcDbEntity
  8
ZUWAKU
 62
     7
100
AcDbText
 10
8.003143713074223
 20
7.870178177610682
 30
0.0
 40
4.0
  1
品 種
100
AcDbText
  0
TEXT
  5
97
330
1A
100
AcDbEntity
  8
ZUWAKU
 62
     7
100
AcDbText
 10
107.7028028167073
 20
8.200497435100942
 30
0.0
 40
4.0
  1
品名・ｻ ｲ ｽﾞ
100
AcDbText
  0
LINE
  5
9A
330
1A
100
AcDbEntity
  8
ZUWAKU
 62
     7
 48
10.0
100
AcDbLine
 10
324.3551403257206
 20
6.999999999999836
 30
0.0
 11
324.3551403257206
 21
12.99999999999995
 31
0.0
  0
LINE
  5
9B
330
1A
100
AcDbEntity
  8
ZUWAKU
 62
     7
 48
10.0
100
AcDbLine
 10
307.142312366876
 20
6.999999999999836
 30
0.0
 11
307.142312366876
 21
12.99999999999995
 31
0.0
  0
TEXT
  5
9C
330
1A
100
AcDbEntity
  8
ZUWAKU
 62
     7
100
AcDbText
 10
310.1429253763237
 20
7.934661405801826
 30
0.0
 40
4.0
  1
品 番
100
AcDbText
  0
TEXT
  5
9E
330
1A
100
AcDbEntity
  8
ZUWAKU
 62
     7
 48
10.0
100
AcDbText
 10
322.9513761015196
 20
2.449000558492457
 30
0.0
 40
4.0
  1
積水化学工業株式会社  建材
100
AcDbText
  0
TEXT
  5
A1
330
1A
100
AcDbEntity
  8
ZUWAKU
 62
     7
100
AcDbText
 10
389.843492473331
 20
7.886151458996323
 30
0.0
 40
4.0
  1
1/1
100
AcDbText
  0
TEXT
  5
A2
330
1A
100
AcDbEntity
  8
ZUWAKU
 62
     7
100
AcDbText
 10
369.8225424558458
 20
7.729845637642938
 30
0.0
 40
4.0
  1
尺 度
100
AcDbText
  0
LINE
  5
A3
330
1A
100
AcDbEntity
  8
ZUWAKU
 62
     7
 48
10.0
100
AcDbLine
 10
366.8807110760169
 20
6.999999999999886
 30
0.0
 11
366.8807110760169
 21
12.99999999999994
 31
0.0
  0
TEXT
  5
A6
330
1A
100
AcDbEntity
  8
ZUWAKU
 62
     7
 48
10.0
100
AcDbText
 10
396.1622424237184
 20
2.480970960763784
 30
0.0
 40
4.0
  1
A3
100
AcDbText
  0
LINE
  5
F5
330
1A
100
AcDbEntity
  8
ZUWAKU
 62
     7
 48
10.0
100
AcDbLine
 10
22.25374857290876
 20
7.0
 30
0.0
 11
22.25374857290876
 21
13.0
 31
0.0
  0
LINE
  5
F6
330
1A
100
AcDbEntity
  8
ZUWAKU
 62
     7
 48
10.0
100
AcDbLine
 10
104.7316872784438
 20
7.0
 30
0.0
 11
104.7316872784438
 21
12.99999999999998
 31
0.0
  0
LINE
  5
F8
330
1A
100
AcDbEntity
  8
ZUWAKU
 62
     7
 48
10.0
100
AcDbLine
 10
138.0261803105822
 20
7.0
 30
0.0
 11
138.0261803105822
 21
12.99999999999998
 31
0.0
  0
LINE
  5
100
330
1A
100
AcDbEntity
  8
ZUWAKU
 62
     7
 48
10.0
100
AcDbLine
 10
384.3363149538092
 20
6.999999999999862
 30
0.0
 11
384.3363149538092
 21
12.99999999999994
 31
0.0
  0
LINE
  5
283
330
1A
100
AcDbEntity
  8
CENTER_L
  6
CENTER
 62
     1
 48
5.0
100
AcDbLine
 10
119.5423039046873
 20
130.371948403373
 30
0.0
 11
119.5423039046873
 21
205.1065420433324
 31
0.0
  0
LINE
  5
284
330
1A
100
AcDbEntity
  8
SEIHIN
  6
CONTINUOUS
 62
     3
100
AcDbLine
 10
161.7026039046874
 20
169.6887420433323
 30
0.0
 11
160.4010039046873
 21
105.8019420433323
 31
0.0
  0
LINE
  5
285
330
1A
100
AcDbEntity
  8
SEIHIN
  6
CONTINUOUS
 62
     3
100
AcDbLine
 10
177.6280039046874
 20
165.8635420433323
 30
0.0
 11
176.4690039046874
 21
108.9753420433324
 31
0.0
  0
LINE
  5
286
330
1A
100
AcDbEntity
  8
SEIHIN
  6
CONTINUOUS
 62
     3
100
AcDbLine
 10
181.6170039046874
 20
165.2828420433324
 30
0.0
 11
180.4784039046873
 21
109.3962420433323
 31
0.0
  0
ARC
  5
287
330
1A
100
AcDbEntity
  8
SEIHIN
  6
CONTINUOUS
 62
     3
100
AcDbCircle
 10
147.5923786091378
 20
166.0753678595954
 30
0.0
 40
59.99997470470321
100
AcDbArc
 50
179.9998336667133
 51
268.8328279114111
  0
ARC
  5
288
330
1A
100
AcDbEntity
  8
SEIHIN
  6
CONTINUOUS
 62
     3
100
AcDbCircle
 10
147.5923941879893
 20
166.075351960023
 30
0.0
 40
50.99999028338137
100
AcDbArc
 50
179.9998987961879
 51
268.8328935967144
  0
TEXT
  5
28B
330
1A
100
AcDbEntity
  8
ZUWAKU
 62
     7
100
AcDbText
 10
25.15073007242387
 20
8.160237806787449
 30
0.0
 40
4.0
  1
アートフェイス　たてとい
100
AcDbText
  0
TEXT
  5
294
330
1A
100
AcDbEntity
  8
ZUWAKU
 62
     7
100
AcDbText
 10
141.1313324528735
 20
7.9299153608506
 30
0.0
 40
4.0
  1
角々エルボ　Ｙ６０Ｈ－９０°
100
AcDbText
  0
LINE
  5
2A0
330
1A
100
AcDbEntity
  8
CENTER_L
  6
CENTER
 62
     1
 48
5.0
100
AcDbLine
 10
111.3249653015044
 20
138.7583921808837
 30
0.0
 11
188.4299039046872
 21
137.1876420433322
 31
0.0
  0
LINE
  5
2A6
330
1A
100
AcDbEntity
  8
SEIHIN
  6
CONTINUOUS
 62
     3
100
AcDbLine
 10
160.4011039046874
 20
105.8019420433323
 30
0.0
 11
146.3704039046873
 21
106.0878420433323
 31
0.0
  0
LINE
  5
2BA
330
1A
100
AcDbEntity
  8
SEIHIN
  6
CONTINUOUS
 62
     3
100
AcDbLine
 10
160.4723039046873
 20
109.3012420433323
 30
0.0
 11
176.4691039046874
 21
108.9753420433324
 31
0.0
  0
LINE
  5
2BB
330
1A
100
AcDbEntity
  8
SEIHIN
  6
CONTINUOUS
 62
     3
100
AcDbLine
 10
176.4372039046873
 20
108.9760420433324
 30
0.0
 11
180.4585039046873
 21
109.3941420433324
 31
0.0
  0
LINE
  5
2BC
330
1A
100
AcDbEntity
  8
SEIHIN
  6
CONTINUOUS
 62
     3
100
AcDbLine
 10
160.5843039046874
 20
114.8001420433323
 30
0.0
 11
146.5537039046874
 21
115.0859420433324
 31
0.0
  0
LINE
  5
2BF
330
1A
100
AcDbEntity
  8
SEIHIN
  6
CONTINUOUS
 62
     3
100
AcDbLine
 10
176.6645039046874
 20
118.5733420433323
 30
0.0
 11
160.6679039046874
 21
118.8992420433324
 31
0.0
  0
LINE
  5
2C0
330
1A
100
AcDbEntity
  8
SEIHIN
  6
CONTINUOUS
 62
     3
100
AcDbLine
 10
176.6256039046873
 20
118.5652420433324
 30
0.0
 11
180.6469039046873
 21
118.9834420433323
 31
0.0
  0
LINE
  5
2C1
330
1A
100
AcDbEntity
  8
SEIHIN
  6
CONTINUOUS
 62
     3
100
AcDbLine
 10
177.4324039046874
 20
156.2655420433324
 30
0.0
 11
161.4358039046874
 21
156.5914420433323
 31
0.0
  0
LINE
  5
2C2
330
1A
100
AcDbEntity
  8
SEIHIN
  6
CONTINUOUS
 62
     3
100
AcDbLine
 10
177.4351039046874
 20
156.1865420433323
 30
0.0
 11
181.4271039046874
 21
155.6050420433324
 31
0.0
  0
LINE
  5
2CA
330
1A
100
AcDbEntity
  8
SEIHIN
  6
CONTINUOUS
 62
     3
100
AcDbLine
 10
87.59430390468745
 20
195.1065420433322
 30
0.0
 11
151.4943039046873
 21
195.1065420433322
 31
0.0
  0
LINE
  5
2D0
330
1A
100
AcDbEntity
  8
SEIHIN
  6
CONTINUOUS
 62
     3
100
AcDbLine
 10
87.59430390468745
 20
195.1066420433324
 30
0.0
 11
87.59240390468747
 21
166.0754420433324
 31
0.0
  0
LINE
  5
2D8
330
1A
100
AcDbEntity
  8
SEIHIN
  6
CONTINUOUS
 62
     3
100
AcDbLine
 10
96.59430390468735
 20
195.1066420433324
 30
0.0
 11
96.59240390468747
 21
166.0754420433324
 31
0.0
  0
LINE
  5
2D9
330
1A
100
AcDbEntity
  8
SEIHIN
  6
CONTINUOUS
 62
     3
100
AcDbLine
 10
123.0442039046874
 20
194.6065420433324
 30
0.0
 11
123.0442039046874
 21
190.1065420433324
 31
0.0
  0
LINE
  5
2DA
330
1A
100
AcDbEntity
  8
SEIHIN
  6
CONTINUOUS
 62
     3
100
AcDbLine
 10
116.0403039046874
 20
194.6065420433324
 30
0.0
 11
116.0403039046874
 21
190.1065420433324
 31
0.0
  0
LINE
  5
2DB
330
1A
100
AcDbEntity
  8
SEIHIN
  6
CONTINUOUS
 62
     3
100
AcDbLine
 10
116.0403039046874
 20
190.6065420433324
 30
0.0
 11
119.5403039046874
 21
190.6065420433324
 31
0.0
  0
LINE
  5
2DC
330
1A
100
AcDbEntity
  8
SEIHIN
  6
CONTINUOUS
 62
     3
100
AcDbLine
 10
116.0403039046874
 20
190.1065420433324
 30
0.0
 11
119.5403039046874
 21
190.1065420433324
 31
0.0
  0
LINE
  5
2DD
330
1A
100
AcDbEntity
  8
SEIHIN
  6
CONTINUOUS
 62
     3
100
AcDbLine
 10
123.0442039046874
 20
190.6065420433324
 30
0.0
 11
119.5443039046874
 21
190.6065420433324
 31
0.0
  0
LINE
  5
2DE
330
1A
100
AcDbEntity
  8
SEIHIN
  6
CONTINUOUS
 62
     3
100
AcDbLine
 10
123.0442039046874
 20
190.1065420433324
 30
0.0
 11
119.5443039046874
 21
190.1065420433324
 31
0.0
  0
LINE
  5
2DF
330
1A
100
AcDbEntity
  8
SEIHIN
  6
CONTINUOUS
 62
     3
100
AcDbLine
 10
116.0403039046874
 20
194.6065420433324
 30
0.0
 11
119.5403039046874
 21
194.6065420433324
 31
0.0
  0
LINE
  5
2E0
330
1A
100
AcDbEntity
  8
SEIHIN
  6
CONTINUOUS
 62
     3
100
AcDbLine
 10
123.0442039046874
 20
194.6065420433324
 30
0.0
 11
119.5443039046874
 21
194.6065420433324
 31
0.0
  0
LINE
  5
2F0
330
1A
100
AcDbEntity
  8
SEIHIN
  6
CONTINUOUS
 62
     3
100
AcDbLine
 10
161.7026039046874
 20
169.6887420433323
 30
0.0
 11
152.4720039046872
 21
169.8767420433323
 31
0.0
  0
LINE
  5
2F1
330
1A
100
AcDbEntity
  8
SEIHIN
  6
CONTINUOUS
 62
     3
100
AcDbLine
 10
161.5193039046874
 20
160.6906420433323
 30
0.0
 11
152.2887039046874
 21
160.8786420433324
 31
0.0
  0
LINE
  5
2F2
330
1A
100
AcDbEntity
  8
SEIHIN
  6
CONTINUOUS
 62
     3
100
AcDbLine
 10
151.4943039046873
 20
195.1065420433322
 30
0.0
 11
151.4924039046874
 21
170.8765420433323
 31
0.0
  0
LINE
  5
2F3
330
1A
100
AcDbEntity
  8
SEIHIN
  6
CONTINUOUS
 62
     3
100
AcDbLine
 10
142.4943039046873
 20
195.1065420433322
 30
0.0
 11
142.4924039046873
 21
170.8766420433324
 31
0.0
  0
ARC
  5
2F4
330
1A
100
AcDbEntity
  8
SEIHIN
  6
CONTINUOUS
 62
     3
100
AcDbCircle
 10
152.4924413467972
 20
170.876603830604
 30
0.0
 40
10.00003744218286
100
AcDbArc
 50
179.9997810580133
 51
268.8325940426736
  0
ARC
  5
2F5
330
1A
100
AcDbEntity
  8
SEIHIN
  6
CONTINUOUS
 62
     3
100
AcDbCircle
 10
152.4924079546709
 20
170.8765379098694
 30
0.0
 40
1.000004049992059
100
AcDbArc
 50
179.9997631709834
 51
268.8308576528211
  0
LINE
  5
2F6
330
1A
100
AcDbEntity
  8
SEIHIN
  6
CONTINUOUS
 62
     3
100
AcDbLine
 10
151.4943039046873
 20
195.1065420433322
 30
0.0
 11
147.4943039046873
 21
195.1065420433322
 31
0.0
  0
LINE
  5
2F9
330
1A
100
AcDbEntity
  8
SEIHIN
  6
CONTINUOUS
 62
     3
100
AcDbLine
 10
161.6313039046873
 20
166.1894420433323
 30
0.0
 11
177.6280039046874
 21
165.8635420433323
 31
0.0
  0
LINE
  5
2FC
330
1A
100
AcDbEntity
  8
SEIHIN
  6
CONTINUOUS
 62
     3
100
AcDbLine
 10
177.6301039046874
 20
165.8635420433323
 30
0.0
 11
181.6222039046873
 21
165.2821420433324
 31
0.0
  0
ARC
  5
303
330
1A
100
AcDbEntity
  8
SEIHIN
  6
CONTINUOUS
 62
     3
100
AcDbCircle
 10
318.8924132222741
 20
157.7782303805246
 30
0.0
 40
0.9999906824812805
100
AcDbArc
 50
0.0006682358909582
 51
77.24440133638315
  0
ARC
  5
304
330
1A
100
AcDbEntity
  8
SEIHIN
  6
CONTINUOUS
 62
     3
100
AcDbCircle
 10
321.5424185393786
 20
169.4819274085113
 30
0.0
 40
10.99996983110341
100
AcDbArc
 50
192.7575847583159
 51
257.2417248687041
  0
ARC
  5
305
330
1A
100
AcDbEntity
  8
SEIHIN
  6
CONTINUOUS
 62
     3
100
AcDbCircle
 10
260.1924945871005
 20
157.7785303805246
 30
0.0
 40
0.9999906824812814
100
AcDbArc
 50
102.7555986636168
 51
179.999331764109
  0
ARC
  5
306
330
1A
100
AcDbEntity
  8
SEIHIN
  6
CONTINUOUS
 62
     3
100
AcDbCircle
 10
257.5425539044446
 20
169.4822920435752
 30
0.0
 40
12.90002698264036
100
AcDbArc
 50
287.3684251646644
 51
342.6315748353355
  0
ARC
  5
307
330
1A
100
AcDbEntity
  8
SEIHIN
  6
CONTINUOUS
 62
     3
100
AcDbCircle
 10
257.5425539044642
 20
169.4822920435557
 30
0.0
 40
14.60000755456982
100
AcDbArc
 50
292.177841060436
 51
337.8221589395633
  0
ARC
  5
308
330
1A
100
AcDbEntity
  8
SEIHIN
  6
CONTINUOUS
 62
     3
100
AcDbCircle
 10
257.5425685396798
 20
169.4823066784547
 30
0.0
 40
11.00002963853274
100
AcDbArc
 50
282.7577812513968
 51
347.2415283756237
  0
ARC
  5
309
330
1A
100
AcDbEntity
  8
SEIHIN
  6
CONTINUOUS
 62
     3
100
AcDbCircle
 10
257.542579912521
 20
169.4823180513496
 30
0.0
 40
13.40002007356983
100
AcDbArc
 50
288.8892624889386
 51
341.1100505236642
  0
ARC
  5
30A
330
1A
100
AcDbEntity
  8
SEIHIN
  6
CONTINUOUS
 62
     3
100
AcDbCircle
 10
257.5425539044445
 20
169.9822920435751
 30
0.0
 40
12.90002698264045
100
AcDbArc
 50
287.3684251646648
 51
342.6315748353359
  0
ARC
  5
30B
330
1A
100
AcDbEntity
  8
SEIHIN
  6
CONTINUOUS
 62
     3
100
AcDbCircle
 10
321.5424299122215
 20
169.4819160356147
 30
0.0
 40
13.39995657887861
100
AcDbArc
 50
198.8891294253422
 51
251.1101835872582
  0
ARC
  5
30C
330
1A
100
AcDbEntity
  8
SEIHIN
  6
CONTINUOUS
 62
     3
100
AcDbCircle
 10
321.5424266603485
 20
169.9819192875029
 30
0.0
 40
12.89994941097023
100
AcDbArc
 50
197.367728967834
 51
252.6315938611371
  0
ARC
  5
30D
330
1A
100
AcDbEntity
  8
SEIHIN
  6
CONTINUOUS
 62
     3
100
AcDbCircle
 10
321.5424266603485
 20
169.4819192875029
 30
0.0
 40
12.89994941097023
100
AcDbArc
 50
197.367728967834
 51
252.6315938611371
  0
ARC
  5
30E
330
1A
100
AcDbEntity
  8
SEIHIN
  6
CONTINUOUS
 62
     3
100
AcDbCircle
 10
321.5424383131164
 20
169.4819076346849
 30
0.0
 40
14.59996125360113
100
AcDbArc
 50
202.1775574126622
 51
247.821727154714
  0
LINE
  5
30F
330
1A
100
AcDbEntity
  8
SEIHIN
  6
CONTINUOUS
 62
     3
100
AcDbLine
 10
268.5945039046874
 20
115.5214420433324
 30
0.0
 11
268.5945039046874
 21
159.9421420433324
 31
0.0
  0
LINE
  5
310
330
1A
100
AcDbEntity
  8
SEIHIN
  6
CONTINUOUS
 62
     3
100
AcDbLine
 10
310.4904039046874
 20
115.5218420433324
 30
0.0
 11
310.4904039046874
 21
159.9418420433324
 31
0.0
  0
LINE
  5
311
330
1A
100
AcDbEntity
  8
SEIHIN
  6
CONTINUOUS
 62
     3
100
AcDbLine
 10
321.5424039046875
 20
137.4819420433324
 30
0.0
 11
321.5424039046875
 21
159.4590420433324
 31
0.0
  0
LINE
  5
312
330
1A
100
AcDbEntity
  8
SEIHIN
  6
CONTINUOUS
 62
     3
100
AcDbLine
 10
257.5424039046872
 20
137.4822420433324
 30
0.0
 11
257.5424039046872
 21
159.4593420433324
 31
0.0
  0
LINE
  5
313
330
1A
100
AcDbEntity
  8
CENTER_L
  6
CENTER
 62
     1
 48
5.0
100
AcDbLine
 10
289.5422039046873
 20
99.10644204333237
 30
0.0
 11
289.5427039046873
 21
203.1064420433324
 31
0.0
  0
LINE
  5
316
330
1A
100
AcDbEntity
  8
CENTER_L
  6
CENTER
 62
     1
 48
5.0
100
AcDbLine
 10
247.5443039046874
 20
137.4818420433324
 30
0.0
 11
329.5424039046874
 21
137.4815420433324
 31
0.0
  0
TEXT
  5
317
330
1A
100
AcDbEntity
  8
ZUWAKU
 62
     7
100
AcDbText
 10
327.1013476411085
 20
8.060146781246267
 30
0.0
 40
4.0
  1
ＰＦ０２
100
AcDbText
  0
ARC
  5
31B
330
1A
100
AcDbEntity
  8
SEIHIN
  6
CONTINUOUS
 62
     3
100
AcDbCircle
 10
258.5421101546484
 20
115.5050351337492
 30
0.0
 40
1.000006249984757
100
AcDbArc
 50
179.9996041125188
 51
264.260505614428
  0
ARC
  5
322
330
1A
100
AcDbEntity
  8
SEIHIN
  6
CONTINUOUS
 62
     3
100
AcDbCircle
 10
321.5422392696949
 20
105.7817774082101
 30
0.0
 40
11.0000296385328
100
AcDbArc
 50
102.7577812513966
 51
167.2415283756234
  0
ARC
  5
323
330
1A
100
AcDbEntity
  8
SEIHIN
  6
CONTINUOUS
 62
     3
100
AcDbCircle
 10
321.5419706529331
 20
105.5548085475337
 30
0.0
 40
9.000023006383161
100
AcDbArc
 50
95.73766335543457
 51
174.6808441947464
  0
ARC
  5
324
330
1A
100
AcDbEntity
  8
SEIHIN
  6
CONTINUOUS
 62
     3
100
AcDbCircle
 10
321.5422392696949
 20
105.4817774082101
 30
0.0
 40
11.00002963853278
100
AcDbArc
 50
102.7577812513966
 51
167.2415283756235
  0
ARC
  5
326
330
1A
100
AcDbEntity
  8
SEIHIN
  6
CONTINUOUS
 62
     3
100
AcDbCircle
 10
257.5421039046874
 20
105.4821420433324
 30
0.0
 40
10.99998087271061
100
AcDbArc
 50
12.7581839511747
 51
77.2418160488253
  0
ARC
  5
327
330
1A
100
AcDbEntity
  8
SEIHIN
  6
CONTINUOUS
 62
     3
100
AcDbCircle
 10
257.5424371564415
 20
105.5551085475337
 30
0.0
 40
9.000023006383143
100
AcDbArc
 50
5.319155805253425
 51
84.26233664456551
  0
ARC
  5
328
330
1A
100
AcDbEntity
  8
SEIHIN
  6
CONTINUOUS
 62
     3
100
AcDbCircle
 10
257.5422039046874
 20
105.4817420433322
 30
0.0
 40
12.89996433638494
100
AcDbArc
 50
17.36827950566883
 51
72.63172049433229
  0
ARC
  5
329
330
1A
100
AcDbEntity
  8
SEIHIN
  6
CONTINUOUS
 62
     3
100
AcDbCircle
 10
257.5420892699961
 20
105.7822566781535
 30
0.0
 40
10.99996983110337
100
AcDbArc
 50
12.75758475831583
 51
77.24172486870426
  0
ARC
  5
32A
330
1A
100
AcDbEntity
  8
SEIHIN
  6
CONTINUOUS
 62
     3
100
AcDbCircle
 10
257.54212789667
 20
105.4815180511659
 30
0.0
 40
13.40002007357004
100
AcDbArc
 50
18.88926248893844
 51
71.11005052366403
  0
ARC
  5
32B
330
1A
100
AcDbEntity
  8
SEIHIN
  6
CONTINUOUS
 62
     3
100
AcDbCircle
 10
257.5421694962582
 20
105.48177645198
 30
0.0
 40
14.59996125360096
100
AcDbArc
 50
22.17755741266081
 51
67.82172715471263
  0
ARC
  5
32C
330
1A
100
AcDbEntity
  8
SEIHIN
  6
CONTINUOUS
 62
     3
100
AcDbCircle
 10
257.5421694962582
 20
105.98177645198
 30
0.0
 40
14.59996125360096
100
AcDbArc
 50
22.17755741266081
 51
67.82172715471263
  0
ARC
  5
32E
330
1A
100
AcDbEntity
  8
SEIHIN
  6
CONTINUOUS
 62
     3
100
AcDbCircle
 10
321.5422383131165
 20
105.9814764519801
 30
0.0
 40
14.59996125360084
100
AcDbArc
 50
112.1782728452873
 51
157.8224425873392
  0
ARC
  5
32F
330
1A
100
AcDbEntity
  8
SEIHIN
  6
CONTINUOUS
 62
     3
100
AcDbCircle
 10
321.5422039046874
 20
105.4811420433324
 30
0.0
 40
13.39997276601706
100
AcDbArc
 50
108.8896751962167
 51
161.1103248037836
  0
ARC
  5
330
330
1A
100
AcDbEntity
  8
SEIHIN
  6
CONTINUOUS
 62
     3
100
AcDbCircle
 10
321.5422383131165
 20
105.4814764519801
 30
0.0
 40
14.59996125360089
100
AcDbArc
 50
112.1782728452875
 51
157.8224425873394
  0
ARC
  5
331
330
1A
100
AcDbEntity
  8
SEIHIN
  6
CONTINUOUS
 62
     3
100
AcDbCircle
 10
321.5422039046874
 20
105.4814420433324
 30
0.0
 40
12.89996433638479
100
AcDbArc
 50
107.3682795056682
 51
162.6317204943317
  0
LINE
  5
332
330
1A
100
AcDbEntity
  8
SEIHIN
  6
CONTINUOUS
 62
     3
100
AcDbLine
 10
289.5422039046873
 20
108.9816420433324
 30
0.0
 11
308.7532039046874
 21
108.9815420433323
 31
0.0
  0
LINE
  5
333
330
1A
100
AcDbEntity
  8
SEIHIN
  6
CONTINUOUS
 62
     3
100
AcDbLine
 10
289.5422039046873
 20
110.6816420433324
 30
0.0
 11
307.5593039046873
 21
110.6815420433323
 31
0.0
  0
LINE
  5
334
330
1A
100
AcDbEntity
  8
SEIHIN
  6
CONTINUOUS
 62
     3
100
AcDbLine
 10
308.3907039046872
 20
109.4812420433324
 30
0.0
 11
289.5422039046873
 21
109.4813420433323
 31
0.0
  0
LINE
  5
335
330
1A
100
AcDbEntity
  8
SEIHIN
  6
CONTINUOUS
 62
     3
100
AcDbLine
 10
289.5422039046873
 20
111.1816420433324
 30
0.0
 11
307.5593039046873
 21
111.1815420433324
 31
0.0
  0
LINE
  5
337
330
1A
100
AcDbEntity
  8
SEIHIN
  6
CONTINUOUS
 62
     3
100
AcDbLine
 10
289.5422039046873
 20
105.4819420433324
 30
0.0
 11
311.5850039046875
 21
105.4819420433324
 31
0.0
  0
LINE
  5
338
330
1A
100
AcDbEntity
  8
SEIHIN
  6
CONTINUOUS
 62
     3
100
AcDbLine
 10
289.5422039046873
 20
107.1320420433324
 30
0.0
 11
309.8386039046875
 21
107.1318420433324
 31
0.0
  0
LINE
  5
339
330
1A
100
AcDbEntity
  8
SEIHIN
  6
CONTINUOUS
 62
     3
100
AcDbLine
 10
289.5422039046873
 20
107.4320420433323
 30
0.0
 11
309.8386039046875
 21
107.4318420433324
 31
0.0
  0
LINE
  5
33D
330
1A
100
AcDbEntity
  8
SEIHIN
  6
CONTINUOUS
 62
     3
100
AcDbLine
 10
289.5422039046873
 20
110.6816420433324
 30
0.0
 11
271.5251039046872
 21
110.6816420433324
 31
0.0
  0
LINE
  5
33E
330
1A
100
AcDbEntity
  8
SEIHIN
  6
CONTINUOUS
 62
     3
100
AcDbLine
 10
289.5422039046873
 20
105.4819420433324
 30
0.0
 11
267.4994039046872
 21
105.4821420433324
 31
0.0
  0
LINE
  5
33F
330
1A
100
AcDbEntity
  8
SEIHIN
  6
CONTINUOUS
 62
     3
100
AcDbLine
 10
289.5421039046874
 20
107.1320420433324
 30
0.0
 11
269.2458039046874
 21
107.1320420433324
 31
0.0
  0
LINE
  5
340
330
1A
100
AcDbEntity
  8
SEIHIN
  6
CONTINUOUS
 62
     3
100
AcDbLine
 10
289.5422039046873
 20
108.9816420433324
 30
0.0
 11
270.3313039046875
 21
108.9817420433324
 31
0.0
  0
LINE
  5
341
330
1A
100
AcDbEntity
  8
SEIHIN
  6
CONTINUOUS
 62
     3
100
AcDbLine
 10
289.5421039046874
 20
107.4320420433323
 30
0.0
 11
269.2458039046874
 21
107.4320420433323
 31
0.0
  0
LINE
  5
342
330
1A
100
AcDbEntity
  8
SEIHIN
  6
CONTINUOUS
 62
     3
100
AcDbLine
 10
289.5422039046873
 20
111.1816420433324
 30
0.0
 11
271.5251039046872
 21
111.1816420433324
 31
0.0
  0
LINE
  5
343
330
1A
100
AcDbEntity
  8
SEIHIN
  6
CONTINUOUS
 62
     3
100
AcDbLine
 10
270.6937039046872
 20
109.4814420433324
 30
0.0
 11
289.5422039046873
 21
109.4813420433323
 31
0.0
  0
ARC
  5
344
330
1A
100
AcDbEntity
  8
SEIHIN
  6
CONTINUOUS
 62
     3
100
AcDbCircle
 10
267.4993006727809
 20
106.4821449883237
 30
0.0
 40
1.00000294499652
100
AcDbArc
 50
185.3191090339265
 51
270.0001851740625
  0
ARC
  5
345
330
1A
100
AcDbEntity
  8
SEIHIN
  6
CONTINUOUS
 62
     3
100
AcDbCircle
 10
269.2458155674951
 20
108.1320327257456
 30
0.0
 40
0.9999906824811956
100
AcDbArc
 50
192.7555986636229
 51
269.9993317641152
  0
ARC
  5
346
330
1A
100
AcDbEntity
  8
SEIHIN
  6
CONTINUOUS
 62
     3
100
AcDbCircle
 10
269.2459155674952
 20
108.4320327257455
 30
0.0
 40
0.9999906824811956
100
AcDbArc
 50
192.7555986636229
 51
269.9993317641152
  0
ARC
  5
347
330
1A
100
AcDbEntity
  8
SEIHIN
  6
CONTINUOUS
 62
     3
100
AcDbCircle
 10
271.5250212410024
 20
111.1816303880608
 30
0.0
 40
0.4999883450289359
100
AcDbArc
 50
202.1718273988974
 51
269.9980133583228
  0
ARC
  5
348
330
1A
100
AcDbEntity
  8
SEIHIN
  6
CONTINUOUS
 62
     3
100
AcDbCircle
 10
271.5250212410024
 20
111.6816303880608
 30
0.0
 40
0.4999883450289359
100
AcDbArc
 50
202.1718273988974
 51
269.9980133583228
  0
ARC
  5
349
330
1A
100
AcDbEntity
  8
SEIHIN
  6
CONTINUOUS
 62
     3
100
AcDbCircle
 10
270.3313171824014
 20
109.481732283142
 30
0.0
 40
0.4999902399858764
100
AcDbArc
 50
197.3607065640653
 51
269.9984784563507
  0
ARC
  5
34A
330
1A
100
AcDbEntity
  8
SEIHIN
  6
CONTINUOUS
 62
     3
100
AcDbCircle
 10
270.693679266622
 20
109.9814596527121
 30
0.0
 40
0.5000176099867085
100
AcDbArc
 50
198.89433132307
 51
270.0028232148686
  0
ARC
  5
34D
330
1A
100
AcDbEntity
  8
SEIHIN
  6
CONTINUOUS
 62
     3
100
AcDbCircle
 10
311.585007136594
 20
106.4819449883237
 30
0.0
 40
1.000002944996545
100
AcDbArc
 50
269.9998148259392
 51
354.6808909660752
  0
ARC
  5
34E
330
1A
100
AcDbEntity
  8
SEIHIN
  6
CONTINUOUS
 62
     3
100
AcDbCircle
 10
309.8385922418797
 20
108.4318327257456
 30
0.0
 40
0.9999906824811953
100
AcDbArc
 50
270.0006682358848
 51
347.244401336377
  0
ARC
  5
34F
330
1A
100
AcDbEntity
  8
SEIHIN
  6
CONTINUOUS
 62
     3
100
AcDbCircle
 10
309.8385922418797
 20
108.1318327257456
 30
0.0
 40
0.9999906824811953
100
AcDbArc
 50
270.0006682358848
 51
347.244401336377
  0
ARC
  5
350
330
1A
100
AcDbEntity
  8
SEIHIN
  6
CONTINUOUS
 62
     3
100
AcDbCircle
 10
308.7532109324603
 20
109.481547208279
 30
0.0
 40
0.5000051649960532
100
AcDbArc
 50
269.999194684876
 51
342.6260297576644
  0
ARC
  5
351
330
1A
100
AcDbEntity
  8
SEIHIN
  6
CONTINUOUS
 62
     3
100
AcDbCircle
 10
307.5594146458719
 20
111.6815492632282
 30
0.0
 40
0.500007220011249
100
AcDbArc
 50
269.9987691686795
 51
337.8143437614109
  0
ARC
  5
352
330
1A
100
AcDbEntity
  8
SEIHIN
  6
CONTINUOUS
 62
     3
100
AcDbCircle
 10
308.3907285427525
 20
109.9812596527122
 30
0.0
 40
0.5000176099868233
100
AcDbArc
 50
269.9971767851217
 51
341.1056686769208
  0
ARC
  5
353
330
1A
100
AcDbEntity
  8
SEIHIN
  6
CONTINUOUS
 62
     3
100
AcDbCircle
 10
307.5594146458719
 20
111.1815492632282
 30
0.0
 40
0.5000072200112774
100
AcDbArc
 50
269.9987691686844
 51
337.8143437614158
  0
LINE
  5
354
330
1A
100
AcDbEntity
  8
SEIHIN
  6
CONTINUOUS
 62
     3
100
AcDbLine
 10
262.7423039046874
 20
137.4817420433324
 30
0.0
 11
262.7422039046874
 21
119.4645420433324
 31
0.0
  0
LINE
  5
355
330
1A
100
AcDbEntity
  8
SEIHIN
  6
CONTINUOUS
 62
     3
100
AcDbLine
 10
261.0424039046875
 20
137.4817420433324
 30
0.0
 11
261.0424039046875
 21
118.2707420433323
 31
0.0
  0
LINE
  5
356
330
1A
100
AcDbEntity
  8
SEIHIN
  6
CONTINUOUS
 62
     3
100
AcDbLine
 10
257.5424039046872
 20
137.4822420433324
 30
0.0
 11
257.5421039046874
 21
115.5051420433323
 31
0.0
  0
LINE
  5
357
330
1A
100
AcDbEntity
  8
SEIHIN
  6
CONTINUOUS
 62
     3
100
AcDbLine
 10
259.1924039046873
 20
137.4822420433324
 30
0.0
 11
259.1922039046874
 21
117.1859420433324
 31
0.0
  0
LINE
  5
358
330
1A
100
AcDbEntity
  8
SEIHIN
  6
CONTINUOUS
 62
     3
100
AcDbLine
 10
261.5424039046875
 20
118.6328420433324
 30
0.0
 11
261.5424039046875
 21
137.4814420433324
 31
0.0
  0
ARC
  5
359
330
1A
100
AcDbEntity
  8
SEIHIN
  6
CONTINUOUS
 62
     3
100
AcDbCircle
 10
261.542409069634
 20
118.2707350155595
 30
0.0
 40
0.5000051649959857
100
AcDbArc
 50
179.9991946848744
 51
252.6260297576631
  0
ARC
  5
35A
330
1A
100
AcDbEntity
  8
SEIHIN
  6
CONTINUOUS
 62
     3
100
AcDbCircle
 10
260.1921945871005
 20
117.18595370614
 30
0.0
 40
0.9999906824811384
100
AcDbArc
 50
180.0006682358807
 51
257.2444013363729
  0
ARC
  5
35B
330
1A
100
AcDbEntity
  8
SEIHIN
  6
CONTINUOUS
 62
     3
100
AcDbCircle
 10
260.1921945871005
 20
117.48595370614
 30
0.0
 40
0.9999906824810745
100
AcDbArc
 50
180.0006682358844
 51
257.2444013363759
  0
ARC
  5
35C
330
1A
100
AcDbEntity
  8
SEIHIN
  6
CONTINUOUS
 62
     3
100
AcDbCircle
 10
262.0424215140672
 20
118.632817405267
 30
0.0
 40
0.5000176099867984
100
AcDbArc
 50
179.9971767851168
 51
251.1056686769157
  0
ARC
  5
35D
330
1A
100
AcDbEntity
  8
SEIHIN
  6
CONTINUOUS
 62
     3
100
AcDbCircle
 10
263.2421922494157
 20
119.9645593796475
 30
0.0
 40
0.4999883450288711
100
AcDbArc
 50
180.00198664169
 51
247.828172601121
  0
ARC
  5
35E
330
1A
100
AcDbEntity
  8
SEIHIN
  6
CONTINUOUS
 62
     3
100
AcDbCircle
 10
263.2421922494157
 20
119.4645593796475
 30
0.0
 40
0.4999883450289137
100
AcDbArc
 50
180.0019866416868
 51
247.8281726011176
  0
LINE
  5
35F
330
1A
100
AcDbEntity
  8
SEIHIN
  6
CONTINUOUS
 62
     3
100
AcDbLine
 10
261.0424039046875
 20
137.4822420433324
 30
0.0
 11
261.0425039046874
 21
156.6932420433324
 31
0.0
  0
LINE
  5
360
330
1A
100
AcDbEntity
  8
SEIHIN
  6
CONTINUOUS
 62
     3
100
AcDbLine
 10
262.7423039046874
 20
137.4821420433324
 30
0.0
 11
262.7424039046874
 21
155.4994420433323
 31
0.0
  0
LINE
  5
361
330
1A
100
AcDbEntity
  8
SEIHIN
  6
CONTINUOUS
 62
     3
100
AcDbLine
 10
259.1924039046873
 20
137.4822420433324
 30
0.0
 11
259.1925039046873
 21
157.7785420433324
 31
0.0
  0
LINE
  5
362
330
1A
100
AcDbEntity
  8
SEIHIN
  6
CONTINUOUS
 62
     3
100
AcDbLine
 10
261.5425039046874
 20
156.3308420433324
 30
0.0
 11
261.5424039046875
 21
137.4822420433324
 31
0.0
  0
ARC
  5
363
330
1A
100
AcDbEntity
  8
SEIHIN
  6
CONTINUOUS
 62
     3
100
AcDbCircle
 10
262.0425053296834
 20
156.3308440367088
 30
0.0
 40
0.5000014249998739
100
AcDbArc
 50
108.880894703753
 51
180.0002284234609
  0
ARC
  5
364
330
1A
100
AcDbEntity
  8
SEIHIN
  6
CONTINUOUS
 62
     3
100
AcDbCircle
 10
261.5424941444969
 20
156.6932287656184
 30
0.0
 40
0.4999902399856861
100
AcDbArc
 50
107.3607065640695
 51
179.9984784563532
  0
ARC
  5
365
330
1A
100
AcDbEntity
  8
SEIHIN
  6
CONTINUOUS
 62
     3
100
AcDbCircle
 10
261.5424941444969
 20
157.1932287656183
 30
0.0
 40
0.4999902399856861
100
AcDbArc
 50
107.3607065640695
 51
179.9984784563532
  0
ARC
  5
366
330
1A
100
AcDbEntity
  8
SEIHIN
  6
CONTINUOUS
 62
     3
100
AcDbCircle
 10
263.2423922494158
 20
155.4994247070172
 30
0.0
 40
0.4999883450289552
100
AcDbArc
 50
112.1718273988853
 51
179.998013358316
  0
LINE
  5
367
330
1A
100
AcDbEntity
  8
SEIHIN
  6
CONTINUOUS
 62
     3
100
AcDbLine
 10
316.3423039046873
 20
137.4815420433324
 30
0.0
 11
316.3423039046873
 21
119.4642420433324
 31
0.0
  0
LINE
  5
368
330
1A
100
AcDbEntity
  8
SEIHIN
  6
CONTINUOUS
 62
     3
100
AcDbLine
 10
321.5424039046875
 20
137.4819420433324
 30
0.0
 11
321.5423039046875
 21
115.5048420433323
 31
0.0
  0
LINE
  5
369
330
1A
100
AcDbEntity
  8
SEIHIN
  6
CONTINUOUS
 62
     3
100
AcDbLine
 10
319.8924039046875
 20
137.4819420433324
 30
0.0
 11
319.8923039046875
 21
117.1856420433323
 31
0.0
  0
LINE
  5
36A
330
1A
100
AcDbEntity
  8
SEIHIN
  6
CONTINUOUS
 62
     3
100
AcDbLine
 10
318.0424039046874
 20
137.4814420433324
 30
0.0
 11
318.0422039046874
 21
118.2704420433324
 31
0.0
  0
LINE
  5
36B
330
1A
100
AcDbEntity
  8
SEIHIN
  6
CONTINUOUS
 62
     3
100
AcDbLine
 10
317.5422039046874
 20
118.6325420433324
 30
0.0
 11
317.5424039046875
 21
137.4811420433322
 31
0.0
  0
ARC
  5
36C
330
1A
100
AcDbEntity
  8
SEIHIN
  6
CONTINUOUS
 62
     3
100
AcDbCircle
 10
317.542213664878
 20
118.2704553210465
 30
0.0
 40
0.4999902399857725
100
AcDbArc
 50
287.3607065640562
 51
359.9984784563398
  0
ARC
  5
36D
330
1A
100
AcDbEntity
  8
SEIHIN
  6
CONTINUOUS
 62
     3
100
AcDbCircle
 10
318.8922644562437
 20
117.4855926668996
 30
0.0
 40
1.000039449662774
100
AcDbArc
 50
282.75783083453
 51
0.0028289496035475
  0
ARC
  5
36E
330
1A
100
AcDbEntity
  8
SEIHIN
  6
CONTINUOUS
 62
     3
100
AcDbCircle
 10
318.8923132222743
 20
117.18565370614
 30
0.0
 40
0.9999906824812248
100
AcDbArc
 50
282.7555986636209
 51
359.9993317641131
  0
ARC
  5
36F
330
1A
100
AcDbEntity
  8
SEIHIN
  6
CONTINUOUS
 62
     3
100
AcDbCircle
 10
320.5422976547265
 20
115.5048351337493
 30
0.0
 40
1.000006249984777
100
AcDbArc
 50
275.7394943855635
 51
0.0003958874726565
  0
ARC
  5
370
330
1A
100
AcDbEntity
  8
SEIHIN
  6
CONTINUOUS
 62
     3
100
AcDbCircle
 10
315.8423155599589
 20
119.9642593796476
 30
0.0
 40
0.4999883450289494
100
AcDbArc
 50
292.1718273988847
 51
359.9980133583099
  0
ARC
  5
371
330
1A
100
AcDbEntity
  8
SEIHIN
  6
CONTINUOUS
 62
     3
100
AcDbCircle
 10
317.0422024796915
 20
118.632540049956
 30
0.0
 40
0.5000014249998987
100
AcDbArc
 50
288.8808947037487
 51
0.0002284234568628
  0
ARC
  5
372
330
1A
100
AcDbEntity
  8
SEIHIN
  6
CONTINUOUS
 62
     3
100
AcDbCircle
 10
315.8423155599589
 20
119.4642593796475
 30
0.0
 40
0.4999883450289494
100
AcDbArc
 50
292.1718273988847
 51
359.9980133583099
  0
LINE
  5
373
330
1A
100
AcDbEntity
  8
SEIHIN
  6
CONTINUOUS
 62
     3
100
AcDbLine
 10
316.3423039046873
 20
137.4819420433324
 30
0.0
 11
316.3424039046874
 21
155.4991420433324
 31
0.0
  0
LINE
  5
374
330
1A
100
AcDbEntity
  8
SEIHIN
  6
CONTINUOUS
 62
     3
100
AcDbLine
 10
319.8924039046875
 20
137.4819420433324
 30
0.0
 11
319.8924039046875
 21
157.7782420433324
 31
0.0
  0
LINE
  5
375
330
1A
100
AcDbEntity
  8
SEIHIN
  6
CONTINUOUS
 62
     3
100
AcDbLine
 10
317.5424039046875
 20
156.3305420433323
 30
0.0
 11
317.5424039046875
 21
137.4820420433322
 31
0.0
  0
LINE
  5
376
330
1A
100
AcDbEntity
  8
SEIHIN
  6
CONTINUOUS
 62
     3
100
AcDbLine
 10
318.0424039046874
 20
137.4820420433322
 30
0.0
 11
318.0424039046874
 21
156.6929420433324
 31
0.0
  0
ARC
  5
377
330
1A
100
AcDbEntity
  8
SEIHIN
  6
CONTINUOUS
 62
     3
100
AcDbCircle
 10
317.542413664878
 20
157.1929287656183
 30
0.0
 40
0.4999902399857716
100
AcDbArc
 50
0.0015215436601564
 51
72.63929343594376
  0
ARC
  5
378
330
1A
100
AcDbEntity
  8
SEIHIN
  6
CONTINUOUS
 62
     3
100
AcDbCircle
 10
317.542413664878
 20
156.6929287656183
 30
0.0
 40
0.4999902399857716
100
AcDbArc
 50
0.0015215436601564
 51
72.63929343594376
  0
ARC
  5
379
330
1A
100
AcDbEntity
  8
SEIHIN
  6
CONTINUOUS
 62
     3
100
AcDbCircle
 10
315.8423966847917
 20
155.4991527845169
 30
0.0
 40
0.5000072200110927
100
AcDbArc
 50
359.9987691686946
 51
67.81434376142318
  0
ARC
  5
37A
330
1A
100
AcDbEntity
  8
SEIHIN
  6
CONTINUOUS
 62
     3
100
AcDbCircle
 10
317.0424024796915
 20
156.3305440367086
 30
0.0
 40
0.5000014249999028
100
AcDbArc
 50
359.9997715765435
 51
71.11910529625134
  0
LINE
  5
37B
330
1A
100
AcDbEntity
  8
SEIHIN
  6
CONTINUOUS
 62
     3
100
AcDbLine
 10
323.4905039046873
 20
190.1063420433323
 30
0.0
 11
321.4905039046873
 21
190.1064420433324
 31
0.0
  0
LINE
  5
37C
330
1A
100
AcDbEntity
  8
SEIHIN
  6
CONTINUOUS
 62
     3
100
AcDbLine
 10
321.4905039046873
 20
194.6064420433324
 30
0.0
 11
323.4905039046873
 21
190.6063420433324
 31
0.0
  0
LINE
  5
37F
330
1A
100
AcDbEntity
  8
SEIHIN
  6
CONTINUOUS
 62
     3
100
AcDbLine
 10
255.5947039046873
 20
190.1067420433323
 30
0.0
 11
257.5947039046874
 21
190.1067420433323
 31
0.0
  0
LINE
  5
380
330
1A
100
AcDbEntity
  8
SEIHIN
  6
CONTINUOUS
 62
     3
100
AcDbLine
 10
257.5947039046874
 20
194.6067420433324
 30
0.0
 11
255.5947039046873
 21
190.6067420433324
 31
0.0
  0
ARC
  5
381
330
1A
100
AcDbEntity
  8
SEIHIN
  6
CONTINUOUS
 62
     3
100
AcDbCircle
 10
258.5424101546483
 20
159.4593489529153
 30
0.0
 40
1.000006249984897
100
AcDbArc
 50
95.7394943855596
 51
180.0003958874686
  0
ARC
  5
382
330
1A
100
AcDbEntity
  8
SEIHIN
  6
CONTINUOUS
 62
     3
100
AcDbCircle
 10
258.5424101546483
 20
159.9593489529154
 30
0.0
 40
1.000006249984897
100
AcDbArc
 50
95.7394943855596
 51
180.0003958874686
  0
LINE
  5
38F
330
1A
100
AcDbEntity
  8
SEIHIN
  6
CONTINUOUS
 62
     3
100
AcDbLine
 10
255.5947039046873
 20
190.6067420433324
 30
0.0
 11
255.5947039046873
 21
190.1067420433323
 31
0.0
  0
LINE
  5
394
330
1A
100
AcDbEntity
  8
SEIHIN
  6
CONTINUOUS
 62
     3
100
AcDbLine
 10
289.5424039046874
 20
164.2819420433324
 30
0.0
 11
307.5596039046875
 21
164.2819420433324
 31
0.0
  0
LINE
  5
395
330
1A
100
AcDbEntity
  8
SEIHIN
  6
CONTINUOUS
 62
     3
100
AcDbLine
 10
289.5425039046873
 20
166.4820420433323
 30
0.0
 11
308.7534039046875
 21
166.4819420433324
 31
0.0
  0
LINE
  5
396
330
1A
100
AcDbEntity
  8
SEIHIN
  6
CONTINUOUS
 62
     3
100
AcDbLine
 10
308.3910039046873
 20
165.4819420433324
 30
0.0
 11
289.5425039046873
 21
165.4820420433324
 31
0.0
  0
LINE
  5
397
330
1A
100
AcDbEntity
  8
SEIHIN
  6
CONTINUOUS
 62
     3
100
AcDbLine
 10
289.5425039046873
 20
165.9820420433323
 30
0.0
 11
308.7534039046875
 21
165.9819420433324
 31
0.0
  0
LINE
  5
398
330
1A
100
AcDbEntity
  8
SEIHIN
  6
CONTINUOUS
 62
     3
100
AcDbLine
 10
289.5424039046874
 20
167.8319420433323
 30
0.0
 11
309.8387039046873
 21
167.8319420433323
 31
0.0
  0
LINE
  5
399
330
1A
100
AcDbEntity
  8
SEIHIN
  6
CONTINUOUS
 62
     3
100
AcDbLine
 10
289.5424039046874
 20
169.4820420433324
 30
0.0
 11
311.5852039046874
 21
169.4819420433323
 31
0.0
  0
LINE
  5
39A
330
1A
100
AcDbEntity
  8
SEIHIN
  6
CONTINUOUS
 62
     3
100
AcDbLine
 10
289.5424039046874
 20
169.9820420433323
 30
0.0
 11
311.5852039046874
 21
169.9819420433324
 31
0.0
  0
LINE
  5
39B
330
1A
100
AcDbEntity
  8
SEIHIN
  6
CONTINUOUS
 62
     3
100
AcDbLine
 10
289.5444039046874
 20
195.1065420433322
 30
0.0
 11
321.4905039046873
 21
195.1065420433322
 31
0.0
  0
LINE
  5
39C
330
1A
100
AcDbEntity
  8
SEIHIN
  6
CONTINUOUS
 62
     3
100
AcDbLine
 10
266.5947039046874
 20
195.1067420433324
 30
0.0
 11
266.5945039046872
 21
168.9072420433324
 31
0.0
  0
LINE
  5
39D
330
1A
100
AcDbEntity
  8
SEIHIN
  6
CONTINUOUS
 62
     3
100
AcDbLine
 10
257.5947039046874
 20
195.1068420433323
 30
0.0
 11
257.5944039046873
 21
159.7776420433324
 31
0.0
  0
LINE
  5
39E
330
1A
100
AcDbEntity
  8
SEIHIN
  6
CONTINUOUS
 62
     3
100
AcDbLine
 10
289.5425039046873
 20
165.9820420433323
 30
0.0
 11
270.3316039046874
 21
165.9821420433324
 31
0.0
  0
LINE
  5
39F
330
1A
100
AcDbEntity
  8
SEIHIN
  6
CONTINUOUS
 62
     3
100
AcDbLine
 10
289.5425039046873
 20
164.2819420433324
 30
0.0
 11
271.5254039046873
 21
164.2821420433324
 31
0.0
  0
LINE
  5
3A0
330
1A
100
AcDbEntity
  8
SEIHIN
  6
CONTINUOUS
 62
     3
100
AcDbLine
 10
289.5426039046874
 20
169.4820420433324
 30
0.0
 11
267.4998039046875
 21
169.4822420433323
 31
0.0
  0
LINE
  5
3A1
330
1A
100
AcDbEntity
  8
SEIHIN
  6
CONTINUOUS
 62
     3
100
AcDbLine
 10
289.5425039046873
 20
167.8319420433323
 30
0.0
 11
269.2463039046874
 21
167.8322420433324
 31
0.0
  0
LINE
  5
3A2
330
1A
100
AcDbEntity
  8
SEIHIN
  6
CONTINUOUS
 62
     3
100
AcDbLine
 10
289.5426039046874
 20
169.9820420433323
 30
0.0
 11
267.4998039046875
 21
169.9822420433323
 31
0.0
  0
LINE
  5
3A3
330
1A
100
AcDbEntity
  8
SEIHIN
  6
CONTINUOUS
 62
     3
100
AcDbLine
 10
270.6940039046873
 20
165.4821420433324
 30
0.0
 11
289.5425039046873
 21
165.4820420433324
 31
0.0
  0
LINE
  5
3A4
330
1A
100
AcDbEntity
  8
SEIHIN
  6
CONTINUOUS
 62
     3
100
AcDbLine
 10
289.5425039046873
 20
166.4820420433323
 30
0.0
 11
270.3316039046874
 21
166.4821420433324
 31
0.0
  0
ARC
  5
3A5
330
1A
100
AcDbEntity
  8
SEIHIN
  6
CONTINUOUS
 62
     3
100
AcDbCircle
 10
267.4998006727808
 20
168.982239098341
 30
0.0
 40
1.000002944996494
100
AcDbArc
 50
89.99981482593559
 51
174.6808909660697
  0
ARC
  5
3A6
330
1A
100
AcDbEntity
  8
SEIHIN
  6
CONTINUOUS
 62
     3
100
AcDbCircle
 10
257.5428371564415
 20
169.4092755391312
 30
0.0
 40
9.00002300638331
100
AcDbArc
 50
275.7376633554331
 51
354.6808441947455
  0
ARC
  5
3A7
330
1A
100
AcDbEntity
  8
SEIHIN
  6
CONTINUOUS
 62
     3
100
AcDbCircle
 10
257.5428371564415
 20
169.9092755391313
 30
0.0
 40
9.00002300638331
100
AcDbArc
 50
275.7376633554331
 51
354.6808441947455
  0
ARC
  5
3A8
330
1A
100
AcDbEntity
  8
SEIHIN
  6
CONTINUOUS
 62
     3
100
AcDbCircle
 10
271.5252931635029
 20
163.7821348234367
 30
0.0
 40
0.5000072200110643
100
AcDbArc
 50
89.99876916871064
 51
157.8143437614396
  0
ARC
  5
3A9
330
1A
100
AcDbEntity
  8
SEIHIN
  6
CONTINUOUS
 62
     3
100
AcDbCircle
 10
269.2463155674951
 20
166.8322513609192
 30
0.0
 40
0.9999906824811953
100
AcDbArc
 50
90.00066823588481
 51
167.244401336377
  0
ARC
  5
3AA
330
1A
100
AcDbEntity
  8
SEIHIN
  6
CONTINUOUS
 62
     3
100
AcDbCircle
 10
267.4998006727808
 20
168.482239098341
 30
0.0
 40
1.000002944996494
100
AcDbArc
 50
89.99981482593559
 51
174.6808909660697
  0
ARC
  5
3AB
330
1A
100
AcDbEntity
  8
SEIHIN
  6
CONTINUOUS
 62
     3
100
AcDbCircle
 10
270.3316171824015
 20
165.4821518035229
 30
0.0
 40
0.4999902399857716
100
AcDbArc
 50
90.00152154366
 51
162.6392934359436
  0
ARC
  5
3AC
330
1A
100
AcDbEntity
  8
SEIHIN
  6
CONTINUOUS
 62
     3
100
AcDbCircle
 10
270.3316171824015
 20
165.9821518035229
 30
0.0
 40
0.4999902399857716
100
AcDbArc
 50
90.00152154366
 51
162.6392934359436
  0
ARC
  5
3AD
330
1A
100
AcDbEntity
  8
SEIHIN
  6
CONTINUOUS
 62
     3
100
AcDbCircle
 10
270.694001911311
 20
164.9821406183364
 30
0.0
 40
0.5000014249999988
100
AcDbArc
 50
89.99977157654944
 51
161.1191052962573
  0
LINE
  5
3AE
330
1A
100
AcDbEntity
  8
SEIHIN
  6
CONTINUOUS
 62
     3
100
AcDbLine
 10
257.5947039046874
 20
195.1067420433324
 30
0.0
 11
289.5427039046873
 21
195.1065420433322
 31
0.0
  0
LINE
  5
3AF
330
1A
100
AcDbEntity
  8
SEIHIN
  6
CONTINUOUS
 62
     3
100
AcDbLine
 10
312.4905039046874
 20
195.1065420433322
 30
0.0
 11
312.4904039046873
 21
168.9069420433324
 31
0.0
  0
LINE
  5
3B0
330
1A
100
AcDbEntity
  8
SEIHIN
  6
CONTINUOUS
 62
     3
100
AcDbLine
 10
321.4905039046873
 20
195.1065420433322
 30
0.0
 11
321.4905039046873
 21
159.7773420433323
 31
0.0
  0
ARC
  5
3B1
330
1A
100
AcDbEntity
  8
SEIHIN
  6
CONTINUOUS
 62
     3
100
AcDbCircle
 10
311.585207136594
 20
168.981939098341
 30
0.0
 40
1.000002944996604
100
AcDbArc
 50
5.319109033919732
 51
90.00018517405713
  0
ARC
  5
3B2
330
1A
100
AcDbEntity
  8
SEIHIN
  6
CONTINUOUS
 62
     3
100
AcDbCircle
 10
321.5421254238648
 20
169.4089203662415
 30
0.0
 40
8.999963588269567
100
AcDbArc
 50
185.3181988868346
 51
264.2625880252704
  0
ARC
  5
3B3
330
1A
100
AcDbEntity
  8
SEIHIN
  6
CONTINUOUS
 62
     3
100
AcDbCircle
 10
321.5421254238648
 20
169.9089203662415
 30
0.0
 40
8.999963588269567
100
AcDbArc
 50
185.3181988868346
 51
264.2625880252704
  0
ARC
  5
3B4
330
1A
100
AcDbEntity
  8
SEIHIN
  6
CONTINUOUS
 62
     3
100
AcDbCircle
 10
307.5596146458718
 20
163.7819348234367
 30
0.0
 40
0.5000072200110636
100
AcDbArc
 50
22.18565623856042
 51
90.00123083128945
  0
ARC
  5
3B5
330
1A
100
AcDbEntity
  8
SEIHIN
  6
CONTINUOUS
 62
     3
100
AcDbCircle
 10
309.8387671077623
 20
166.8318915533816
 30
0.0
 40
1.000050491947907
100
AcDbArc
 50
12.76421059676206
 51
90.00362108662057
  0
ARC
  5
3B6
330
1A
100
AcDbEntity
  8
SEIHIN
  6
CONTINUOUS
 62
     3
100
AcDbCircle
 10
308.3910285427526
 20
164.9819244339525
 30
0.0
 40
0.5000176099869078
100
AcDbArc
 50
18.89433132308608
 51
90.00282321488475
  0
ARC
  5
3B7
330
1A
100
AcDbEntity
  8
SEIHIN
  6
CONTINUOUS
 62
     3
100
AcDbCircle
 10
308.7534109324601
 20
165.9819368783858
 30
0.0
 40
0.50000516499597
100
AcDbArc
 50
17.37397024232121
 51
90.00080531510922
  0
ARC
  5
3B8
330
1A
100
AcDbEntity
  8
SEIHIN
  6
CONTINUOUS
 62
     3
100
AcDbCircle
 10
308.7534109324601
 20
165.4819368783858
 30
0.0
 40
0.50000516499597
100
AcDbArc
 50
17.37397024232121
 51
90.00080531510922
  0
ARC
  5
3B9
330
1A
100
AcDbEntity
  8
SEIHIN
  6
CONTINUOUS
 62
     3
100
AcDbCircle
 10
311.5852071365941
 20
168.481939098341
 30
0.0
 40
1.000002944996487
100
AcDbArc
 50
5.319109033926897
 51
90.00018517406445
  0
ARC
  5
3BA
330
1A
100
AcDbEntity
  8
SEIHIN
  6
CONTINUOUS
 62
     3
100
AcDbCircle
 10
320.5423976547265
 20
159.4590489529155
 30
0.0
 40
1.00000624998481
100
AcDbArc
 50
359.9996041125259
 51
84.26050561443512
  0
ARC
  5
3BB
330
1A
100
AcDbEntity
  8
SEIHIN
  6
CONTINUOUS
 62
     3
100
AcDbCircle
 10
320.5423976547265
 20
159.9590489529155
 30
0.0
 40
1.00000624998481
100
AcDbArc
 50
359.9996041125259
 51
84.26050561443512
  0
LINE
  5
3BE
330
1A
100
AcDbEntity
  8
SEIHIN
  6
CONTINUOUS
 62
     3
100
AcDbLine
 10
323.4905039046873
 20
190.6063420433324
 30
0.0
 11
323.4905039046873
 21
190.1063420433323
 31
0.0
  0
DIMENSION
  5
3CD
330
1A
100
AcDbEntity
  8
SUNPOU
100
AcDbDimension
  2
*D1
 10
151.4943035196114
 20
213.6502538751524
 30
0.0
 11
119.5443037121494
 21
216.1502538751524
 31
0.0
 70
    32
  3
STANDARD
100
AcDbAlignedDimension
 13
87.59430390468745
 23
195.1066420433324
 33
0.0
 14
151.4943035196114
 24
195.1016313128636
 34
0.0
100
AcDbRotatedDimension
1001
ACAD
1000
DSTYLE
1002
{
1070
   372
1070
    -1
1070
   371
1070
    -1
1070
    41
1040
3.0
1070
    42
1040
3.0
1070
    43
1040
7.0
1070
    44
1040
1.5
1070
    73
1070
     0
1070
    74
1070
     0
1070
    77
1070
     3
1070
   140
1040
3.0
1070
   141
1040
150.0
1070
   147
1040
1.0
1070
   172
1070
     1
1070
   173
1070
     1
1070
   176
1070
   256
1070
   177
1070
   256
1070
   178
1070
   256
1070
   271
1070
     0
1070
   272
1070
     2
1070
     6
1000
OPEN
1070
     7
1000
OPEN
1002
}
  0
DIMENSION
  5
3DA
330
1A
100
AcDbEntity
  8
SUNPOU
100
AcDbDimension
  2
*D2
 10
321.4905039046873
 20
213.6502538751524
 30
0.0
 11
289.5426039046873
 21
216.1502538751524
 31
0.0
 70
    32
  3
STANDARD
100
AcDbAlignedDimension
 13
257.5947039046874
 23
195.1068420433323
 33
0.0
 14
321.4905039046873
 24
195.1065420433322
 34
0.0
100
AcDbRotatedDimension
1001
ACAD
1000
DSTYLE
1002
{
1070
   372
1070
    -1
1070
   371
1070
    -1
1070
    41
1040
3.0
1070
    42
1040
3.0
1070
    43
1040
7.0
1070
    44
1040
1.5
1070
    73
1070
     0
1070
    74
1070
     0
1070
    77
1070
     3
1070
   140
1040
3.0
1070
   141
1040
150.0
1070
   147
1040
1.0
1070
   172
1070
     1
1070
   173
1070
     1
1070
   176
1070
   256
1070
   177
1070
   256
1070
   178
1070
   256
1070
   271
1070
     0
1070
   272
1070
     2
1070
     6
1000
OPEN
1070
     7
1000
OPEN
1002
}
  0
DIMENSION
  5
3E9
330
1A
100
AcDbEntity
  8
SUNPOU
100
AcDbDimension
  2
*D3
 10
68.54172209154853
 20
170.1065420433322
 30
0.0
 11
66.0417220915485
 21
182.6065420433323
 31
0.0
 70
    32
  1
※ <>
  3
STANDARD
100
AcDbAlignedDimension
 13
87.59430390468745
 23
195.1065420433322
 33
0.0
 14
87.59430390468745
 24
170.1065420433322
 34
0.0
 50
90.0
100
AcDbRotatedDimension
1001
ACAD
1000
DSTYLE
1002
{
1070
   372
1070
    -1
1070
   371
1070
    -1
1070
    41
1040
3.0
1070
    42
1040
3.0
1070
    43
1040
7.0
1070
    44
1040
1.5
1070
    73
1070
     0
1070
    74
1070
     0
1070
    77
1070
     3
1070
   140
1040
3.0
1070
   141
1040
150.0
1070
   147
1040
1.0
1070
   172
1070
     1
1070
   173
1070
     1
1070
   176
1070
   256
1070
   177
1070
   256
1070
   178
1070
   256
1070
   271
1070
     0
1070
   272
1070
     2
1070
     6
1000
OPEN
1070
     7
1000
OPEN
1002
}
  0
DIMENSION
  5
3F6
330
1A
100
AcDbEntity
  8
SUNPOU
100
AcDbDimension
  2
*D4
 10
57.69856282300906
 20
138.5909919342188
 30
0.0
 11
55.19856282300905
 21
166.8487669887755
 31
0.0
 70
    32
  3
STANDARD
100
AcDbAlignedDimension
 13
87.59430390468745
 23
195.1065420433322
 33
0.0
 14
119.5423039046873
 24
138.5909919342188
 34
0.0
 50
90.0
100
AcDbRotatedDimension
1001
ACAD
1000
DSTYLE
1002
{
1070
   372
1070
    -1
1070
   371
1070
    -1
1070
    41
1040
3.0
1070
    42
1040
3.0
1070
    43
1040
7.0
1070
    44
1040
1.5
1070
    73
1070
     0
1070
    74
1070
     0
1070
    77
1070
     3
1070
   140
1040
3.0
1070
   141
1040
150.0
1070
   147
1040
1.0
1070
   172
1070
     1
1070
   173
1070
     1
1070
   176
1070
   256
1070
   177
1070
   256
1070
   178
1070
   256
1070
   271
1070
     0
1070
   272
1070
     2
1070
     6
1000
OPEN
1070
     7
1000
OPEN
1002
}
  0
DIMENSION
  5
403
330
1A
100
AcDbEntity
  8
SUNPOU
100
AcDbDimension
  2
*D5
 10
182.0423920277699
 20
186.165902930476
 30
0.0
 11
167.0964088809216
 21
188.9708593060393
 31
0.0
 70
    33
  1
※ <>
  3
STANDARD
100
AcDbAlignedDimension
 13
151.7046786635978
 23
169.8924351300701
 33
0.0
 14
181.6984698620329
 24
169.2814854402967
 34
0.0
1001
ACAD
1000
DSTYLE
1002
{
1070
   372
1070
    -1
1070
   371
1070
    -1
1070
    41
1040
3.0
1070
    42
1040
3.0
1070
    43
1040
7.0
1070
    44
1040
1.5
1070
    73
1070
     0
1070
    74
1070
     0
1070
    77
1070
     3
1070
   140
1040
3.0
1070
   141
1040
150.0
1070
   147
1040
1.0
1070
   172
1070
     1
1070
   173
1070
     1
1070
   176
1070
   256
1070
   177
1070
   256
1070
   178
1070
   256
1070
   271
1070
     0
1070
   272
1070
     2
1070
     6
1000
OPEN
1070
     7
1000
OPEN
1002
}
  0
DIMENSION
  5
41D
330
1A
100
AcDbEntity
  8
SUNPOU
100
AcDbDimension
  2
*D6
 10
160.0495034353491
 20
88.54444477265454
 30
0.0
 11
139.3456714833949
 21
91.46673343111149
 31
0.0
 70
    33
  3
STANDARD
100
AcDbAlignedDimension
 13
119.5423039046873
 23
138.5909919342188
 33
0.0
 14
161.0518046257611
 24
137.7453774359974
 34
0.0
1001
ACAD
1000
DSTYLE
1002
{
1070
   372
1070
    -1
1070
   371
1070
    -1
1070
    41
1040
3.0
1070
    42
1040
3.0
1070
    43
1040
7.0
1070
    44
1040
1.5
1070
    73
1070
     0
1070
    74
1070
     0
1070
    77
1070
     3
1070
   140
1040
3.0
1070
   141
1040
150.0
1070
   147
1040
1.0
1070
   172
1070
     1
1070
   173
1070
     1
1070
   176
1070
   256
1070
   177
1070
   256
1070
   178
1070
   256
1070
   271
1070
     0
1070
   272
1070
     2
1070
     6
1000
OPEN
1070
     7
1000
OPEN
1002
}
  0
DIMENSION
  5
42A
330
1A
100
AcDbEntity
  8
SUNPOU
100
AcDbDimension
  2
*D7
 10
118.3272099389906
 20
78.944493498645
 30
0.0
 11
149.1308129429785
 21
80.81749384940549
 31
0.0
 70
    33
  3
STANDARD
100
AcDbAlignedDimension
 13
181.0476730954978
 23
137.3380298170473
 33
0.0
 14
119.5423039046873
 24
138.5909919342188
 34
0.0
1001
ACAD
1000
DSTYLE
1002
{
1070
   372
1070
    -1
1070
   371
1070
    -1
1070
    41
1040
3.0
1070
    42
1040
3.0
1070
    43
1040
7.0
1070
    44
1040
1.5
1070
    73
1070
     0
1070
    74
1070
     0
1070
    77
1070
     3
1070
   140
1040
3.0
1070
   141
1040
150.0
1070
   147
1040
1.0
1070
   172
1070
     1
1070
   173
1070
     1
1070
   176
1070
   256
1070
   177
1070
   256
1070
   178
1070
   256
1070
   271
1070
     0
1070
   272
1070
     2
1070
     6
1000
OPEN
1070
     7
1000
OPEN
1002
}
  0
DIMENSION
  5
438
330
1A
100
AcDbEntity
  8
SUNPOU
 62
     4
100
AcDbDimension
  2
*D8
 10
119.5423039046873
 20
205.1065420433324
 30
0.0
 11
130.7449515903296
 21
127.1578041940284
 31
0.0
 70
    34
  3
STANDARD
100
AcDb2LineAngularDimension
 13
111.3249653015044
 23
138.7583921808837
 33
0.0
 14
188.4299039046872
 24
137.1876420433322
 34
0.0
 15
119.5423039046872
 25
130.371948403373
 35
0.0
 16
128.6866637754529
 26
122.5011910077386
 36
0.0
1001
ACAD
1000
DSTYLE
1002
{
1070
   271
1070
     1
1070
   271
1070
     1
1070
   271
1070
     1
1070
   271
1070
     1
1070
    41
1040
3.0
1070
    42
1040
3.0
1070
    43
1040
7.0
1070
    44
1040
1.5
1070
    73
1070
     0
1070
    74
1070
     0
1070
    77
1070
     3
1070
   140
1040
3.0
1070
   141
1040
150.0
1070
   147
1040
1.0
1070
   172
1070
     1
1070
   173
1070
     1
1070
   176
1070
     4
1070
   177
1070
     4
1070
   178
1070
     4
1070
   179
1070
     1
1070
   271
1070
     1
1070
   272
1070
     2
1070
     6
1000
OPEN
1070
     7
1000
OPEN
1002
}
  0
DIMENSION
  5
445
330
1A
100
AcDbEntity
  8
SUNPOU
100
AcDbDimension
  2
*D9
 10
204.0092954616645
 20
104.9133490318547
 30
0.0
 11
202.1607167766528
 21
136.9076772158401
 31
0.0
 70
    33
  3
STANDARD
100
AcDbAlignedDimension
 13
161.7026039046874
 23
169.6887420433323
 33
0.0
 14
160.4007989809415
 24
105.8019482566858
 34
0.0
1001
ACAD
1000
DSTYLE
1002
{
1070
   372
1070
    -1
1070
   371
1070
    -1
1070
    41
1040
3.0
1070
    42
1040
3.0
1070
    43
1040
7.0
1070
    44
1040
1.5
1070
    73
1070
     0
1070
    74
1070
     0
1070
    77
1070
     3
1070
   140
1040
3.0
1070
   141
1040
150.0
1070
   147
1040
1.0
1070
   172
1070
     1
1070
   173
1070
     1
1070
   176
1070
   256
1070
   177
1070
   256
1070
   178
1070
   256
1070
   271
1070
     0
1070
   272
1070
     2
1070
     6
1000
OPEN
1070
     7
1000
OPEN
1002
}
  0
TEXT
  5
488
330
1A
100
AcDbEntity
  8
SUNPOU
 62
     4
100
AcDbText
 10
292.3378185854328
 20
24.48198662436659
 30
0.0
 40
4.0
  1
※　たてといの差込み寸法を示す。
100
AcDbText
  0
VIEWPORT
  5
22
330
17
100
AcDbEntity
 67
     1
  8
0
100
AcDbViewport
 10
313.6808219178082
 20
148.5
 30
0.0
 40
627.3616438356165
 41
297.0
 68
     2
 69
     1
1001
ACAD
1000
MVIEW
1002
{
1070
    16
1010
0.0
1020
0.0
1030
0.0
1010
0.0
1020
0.0
1030
1.0
1040
0.0
1040
297.0
1040
313.6808219178082
1040
148.5
1040
50.0
1040
0.0
1040
0.0
1070
     0
1070
   100
1070
     1
1070
     0
1070
     0
1070
     0
1070
     0
1070
     0
1040
0.0
1040
0.0
1040
0.0
1040
1.0
1040
1.0
1040
10.0
1040
10.0
1070
     0
1002
{
1002
}
1002
}
  0
VIEWPORT
  5
64
330
17
100
AcDbEntity
 67
     1
  8
VIEWPORT
100
AcDbViewport
 10
210.0
 20
148.5
 30
0.0
 40
420.0
 41
297.0
 68
     1
 69
     2
1001
ACAD
1000
MVIEW
1002
{
1070
    16
1010
0.0
1020
0.0
1030
0.0
1010
0.0
1020
0.0
1030
1.0
1040
0.0
1040
302.9399999999998
1040
210.0
1040
148.5
1040
50.0
1040
0.0
1040
0.0
1070
     0
1070
   100
1070
     1
1070
     0
1070
     0
1070
     0
1070
     0
1070
     0
1040
0.0
1040
0.0
1040
0.0
1040
5.0
1040
5.0
1040
0.0
1040
0.0
1070
     0
1002
{
1002
}
1002
}
  0
ENDSEC
  0
SECTION
  2
OBJECTS
  0
DICTIONARY
  5
C
330
0
100
AcDbDictionary
  3
ACAD_GROUP
350
D
  3
ACAD_LAYOUT
350
49D
  3
ACAD_MLINESTYLE
350
E
  3
ACAD_PLOTSETTINGS
350
49E
1001
ACAD
1000
TREAT_AS_HARD
1070
     0
  0
DICTIONARY
  5
67C
330
1A
100
AcDbDictionary
  3
ACAD_LAYOUTSELFREF
350
75A
1001
ACAD
1000
TREAT_AS_HARD
1070
     1
  0
DICTIONARY
  5
67A
330
17
100
AcDbDictionary
  3
ACAD_LAYOUTSELFREF
350
759
1001
ACAD
1000
TREAT_AS_HARD
1070
     1
  0
DICTIONARY
  5
D
102
{ACAD_REACTORS
330
C
102
}
330
C
100
AcDbDictionary
1001
ACAD
1000
TREAT_AS_HARD
1070
     0
  0
DICTIONARY
  5
49D
102
{ACAD_REACTORS
330
C
102
}
330
C
100
AcDbDictionary
1001
ACAD
1000
TREAT_AS_HARD
1070
     0
  0
DICTIONARY
  5
E
102
{ACAD_REACTORS
330
C
102
}
330
C
100
AcDbDictionary
  3
STANDARD
350
13
1001
ACAD
1000
TREAT_AS_HARD
1070
     0
  0
DICTIONARY
  5
49E
102
{ACAD_REACTORS
330
C
102
}
330
C
100
AcDbDictionary
1001
ACAD
1000
TREAT_AS_HARD
1070
     0
  0
XRECORD
  5
75A
102
{ACAD_REACTORS
330
67C
102
}
330
67C
100
AcDbXrecord
340
1A
  0
XRECORD
  5
759
102
{ACAD_REACTORS
330
67A
102
}
330
67A
100
AcDbXrecord
340
17
  0
MLINESTYLE
  5
13
102
{ACAD_REACTORS
330
E
102
}
330
E
100
AcDbMlineStyle
  2
STANDARD
 70
     0
  3

 62
     0
 51
90.0
 52
90.0
 71
     2
 49
0.5
 62
   256
  6
BYLAYER
 49
-0.5
 62
   256
  6
BYLAYER
  0
ENDSEC
  0
EOF
