  0
SECTION
  2
HEADER
  9
$ACADVER
  1
AC1012
  9
$DWGCODEPAGE
  3
dos932
  9
$INSBASE
 10
0.0
 20
0.0
 30
0.0
  9
$EXTMIN
 10
5.0
 20
2.449000558492456
 30
0.0
  9
$EXTMAX
 10
403.0
 20
282.0
 30
0.0
  9
$LIMMIN
 10
0.0
 20
0.0
  9
$LIMMAX
 10
420.0
 20
297.0
  9
$ORTHOMODE
 70
     0
  9
$REGENMODE
 70
     1
  9
$FILLMODE
 70
     1
  9
$QTEXTMODE
 70
     0
  9
$MIRRTEXT
 70
     1
  9
$DRAGMODE
 70
     2
  9
$LTSCALE
 40
1.0
  9
$OSMODE
 70
    37
  9
$ATTMODE
 70
     1
  9
$TEXTSIZE
 40
2.5
  9
$TRACEWID
 40
1.0
  9
$TEXTSTYLE
  7
STANDARD
  9
$CLAYER
  8
SUNPOU
  9
$CELTYPE
  6
BYLAYER
  9
$CECOLOR
 62
   256
  9
$CELTSCALE
 40
1.0
  9
$DELOBJ
 70
     1
  9
$DISPSILH
 70
     0
  9
$DIMSCALE
 40
1.0
  9
$DIMASZ
 40
3.0
  9
$DIMEXO
 40
3.0
  9
$DIMDLI
 40
7.0
  9
$DIMRND
 40
0.0
  9
$DIMDLE
 40
0.0
  9
$DIMEXE
 40
1.5
  9
$DIMTP
 40
0.0
  9
$DIMTM
 40
0.0
  9
$DIMTXT
 40
3.0
  9
$DIMCEN
 40
150.0
  9
$DIMTSZ
 40
0.0
  9
$DIMTOL
 70
     0
  9
$DIMLIM
 70
     0
  9
$DIMTIH
 70
     0
  9
$DIMTOH
 70
     0
  9
$DIMSE1
 70
     0
  9
$DIMSE2
 70
     0
  9
$DIMTAD
 70
     3
  9
$DIMZIN
 70
     0
  9
$DIMBLK
  1

  9
$DIMASO
 70
     1
  9
$DIMSHO
 70
     1
  9
$DIMPOST
  1

  9
$DIMAPOST
  1

  9
$DIMALT
 70
     0
  9
$DIMALTD
 70
     2
  9
$DIMALTF
 40
25.4
  9
$DIMLFAC
 40
1.0
  9
$DIMTOFL
 70
     1
  9
$DIMTVP
 40
0.0
  9
$DIMTIX
 70
     0
  9
$DIMSOXD
 70
     0
  9
$DIMSAH
 70
     1
  9
$DIMBLK1
  1
OPEN
  9
$DIMBLK2
  1
OPEN
  9
$DIMSTYLE
  2
STANDARD
  9
$DIMCLRD
 70
   256
  9
$DIMCLRE
 70
   256
  9
$DIMCLRT
 70
   256
  9
$DIMTFAC
 40
1.0
  9
$DIMGAP
 40
1.0
  9
$DIMJUST
 70
     0
  9
$DIMSD1
 70
     0
  9
$DIMSD2
 70
     0
  9
$DIMTOLJ
 70
     1
  9
$DIMTZIN
 70
     0
  9
$DIMALTZ
 70
     0
  9
$DIMALTTZ
 70
     0
  9
$DIMFIT
 70
     3
  9
$DIMUPT
 70
     0
  9
$DIMUNIT
 70
     2
  9
$DIMDEC
 70
     0
  9
$DIMTDEC
 70
     0
  9
$DIMALTU
 70
     2
  9
$DIMALTTD
 70
     2
  9
$DIMTXSTY
  7
STANDARD
  9
$DIMAUNIT
 70
     0
  9
$LUNITS
 70
     2
  9
$LUPREC
 70
     4
  9
$SKETCHINC
 40
1.0
  9
$FILLETRAD
 40
10.0
  9
$AUNITS
 70
     0
  9
$AUPREC
 70
     0
  9
$MENU
  1
.
  9
$ELEVATION
 40
0.0
  9
$PELEVATION
 40
0.0
  9
$THICKNESS
 40
0.0
  9
$LIMCHECK
 70
     0
  9
$BLIPMODE
 70
     0
  9
$CHAMFERA
 40
10.0
  9
$CHAMFERB
 40
10.0
  9
$CHAMFERC
 40
20.0
  9
$CHAMFERD
 40
0.0
  9
$SKPOLY
 70
     0
  9
$TDCREATE
 40
2451070.675722106
  9
$TDUPDATE
 40
2452393.840738726
  9
$TDINDWG
 40
0.0174935995
  9
$TDUSRTIMER
 40
0.0174935995
  9
$USRTIMER
 70
     1
  9
$ANGBASE
 50
0.0
  9
$ANGDIR
 70
     0
  9
$PDMODE
 70
     0
  9
$PDSIZE
 40
0.0
  9
$PLINEWID
 40
0.0
  9
$COORDS
 70
     1
  9
$SPLFRAME
 70
     0
  9
$SPLINETYPE
 70
     6
  9
$SPLINESEGS
 70
     8
  9
$ATTDIA
 70
     0
  9
$ATTREQ
 70
     1
  9
$HANDLING
 70
 10241
  9
$HANDSEED
  5
81B
  9
$SURFTAB1
 70
     6
  9
$SURFTAB2
 70
     6
  9
$SURFTYPE
 70
     6
  9
$SURFU
 70
     6
  9
$SURFV
 70
     6
  9
$UCSNAME
  2

  9
$UCSORG
 10
0.0
 20
0.0
 30
0.0
  9
$UCSXDIR
 10
1.0
 20
0.0
 30
0.0
  9
$UCSYDIR
 10
0.0
 20
1.0
 30
0.0
  9
$PUCSNAME
  2

  9
$PUCSORG
 10
0.0
 20
0.0
 30
0.0
  9
$PUCSXDIR
 10
1.0
 20
0.0
 30
0.0
  9
$PUCSYDIR
 10
0.0
 20
1.0
 30
0.0
  9
$USERI1
 70
     0
  9
$USERI2
 70
     0
  9
$USERI3
 70
     0
  9
$USERI4
 70
     0
  9
$USERI5
 70
     0
  9
$USERR1
 40
0.0
  9
$USERR2
 40
0.0
  9
$USERR3
 40
0.0
  9
$USERR4
 40
0.0
  9
$USERR5
 40
0.0
  9
$WORLDVIEW
 70
     1
  9
$SHADEDGE
 70
     3
  9
$SHADEDIF
 70
    70
  9
$TILEMODE
 70
     1
  9
$MAXACTVP
 70
    16
  9
$PINSBASE
 10
0.0
 20
0.0
 30
0.0
  9
$PLIMCHECK
 70
     0
  9
$PEXTMIN
 10
0.0
 20
0.0
 30
0.0
  9
$PEXTMAX
 10
420.0
 20
297.0
 30
0.0
  9
$PLIMMIN
 10
0.0
 20
0.0
  9
$PLIMMAX
 10
420.0
 20
297.0
  9
$UNITMODE
 70
     0
  9
$VISRETAIN
 70
     0
  9
$PLINEGEN
 70
     0
  9
$PSLTSCALE
 70
     1
  9
$TREEDEPTH
 70
  3020
  9
$PICKSTYLE
 70
     1
  9
$CMLSTYLE
  2
STANDARD
  9
$CMLJUST
 70
     0
  9
$CMLSCALE
 40
1.0
  9
$SAVEIMAGES
 70
     1
  0
ENDSEC
  0
SECTION
  2
CLASSES
  0
CLASS
  1
ACDBDICTIONARYWDFLT
  2
AcDbDictionaryWithDefault
  3
AutoCAD 2000
 90
    32768
280
     0
281
     0
  0
CLASS
  1
ACDBPLACEHOLDER
  2
AcDbPlaceHolder
  3
AutoCAD 2000
 90
    32768
280
     0
281
     0
  0
CLASS
  1
LAYOUT
  2
AcDbLayout
  3
AutoCAD 2000
 90
    32768
280
     0
281
     0
  0
CLASS
  1
LONG_TRANSACTION
  2
AcDbLongTransaction
  3
AutoCAD 2000
 90
    32768
280
     0
281
     0
  0
CLASS
  1
LWPOLYLINE
  2
AcDbPolyline
  3
AutoCAD 2000
 90
    32768
280
     0
281
     1
  0
CLASS
  1
HATCH
  2
AcDbHatch
  3
AutoCAD 2000
 90
    32768
280
     0
281
     1
  0
CLASS
  1
XRECORD
  2
AcDbXrecord
  3
AutoCAD 2000
 90
    32768
280
     0
281
     0
  0
CLASS
  1
LONG_TRANSACTION
  2
AcDbLongTransaction
  3
AutoCAD 2000
 90
    32768
280
     0
281
     0
  0
CLASS
  1
LWPOLYLINE
  2
AcDbPolyline
  3
AutoCAD 2000
 90
    32768
280
     0
281
     1
  0
CLASS
  1
HATCH
  2
AcDbHatch
  3
AutoCAD 2000
 90
    32768
280
     0
281
     1
  0
CLASS
  1
XRECORD
  2
AcDbXrecord
  3
AutoCAD 2000
 90
    32768
280
     0
281
     0
  0
CLASS
  1
LONG_TRANSACTION
  2
AcDbLongTransaction
  3
AutoCAD 2000
 90
    32768
280
     0
281
     0
  0
CLASS
  1
LWPOLYLINE
  2
AcDbPolyline
  3
AutoCAD 2000
 90
    32768
280
     0
281
     1
  0
CLASS
  1
HATCH
  2
AcDbHatch
  3
AutoCAD 2000
 90
    32768
280
     0
281
     1
  0
CLASS
  1
XRECORD
  2
AcDbXrecord
  3
AutoCAD 2000
 90
    32768
280
     0
281
     0
  0
CLASS
  1
LONG_TRANSACTION
  2
AcDbLongTransaction
  3
AutoCAD 2000
 90
    32768
280
     0
281
     0
  0
CLASS
  1
LWPOLYLINE
  2
AcDbPolyline
  3
AutoCAD 2000
 90
    32768
280
     0
281
     1
  0
CLASS
  1
HATCH
  2
AcDbHatch
  3
AutoCAD 2000
 90
    32768
280
     0
281
     1
  0
CLASS
  1
XRECORD
  2
AcDbXrecord
  3
AutoCAD 2000
 90
    32768
280
     0
281
     0
  0
ENDSEC
  0
SECTION
  2
TABLES
  0
TABLE
  2
VPORT
  5
8
330
0
100
AcDbSymbolTable
 70
     2
  0
VPORT
  5
818
330
8
100
AcDbSymbolTableRecord
100
AcDbViewportTableRecord
  2
*ACTIVE
 70
     0
 10
0.0
 20
0.0
 11
1.0
 21
1.0
 12
283.1112132067531
 22
155.8609523223196
 13
0.0
 23
0.0
 14
5.0
 24
5.0
 15
0.0
 25
0.0
 16
0.0
 26
0.0
 36
1.0
 17
0.0
 27
0.0
 37
0.0
 40
331.0191779244177
 41
2.169459962756052
 42
50.0
 43
0.0
 44
0.0
 50
0.0
 51
0.0
 71
     0
 72
   100
 73
     1
 74
     0
 75
     0
 76
     0
 77
     0
 78
     0
  0
ENDTAB
  0
TABLE
  2
LTYPE
  5
5
330
0
100
AcDbSymbolTable
 70
     2
  0
LTYPE
  5
14
330
5
100
AcDbSymbolTableRecord
100
AcDbLinetypeTableRecord
  2
BYBLOCK
 70
     0
  3

 72
    65
 73
     0
 40
0.0
  0
LTYPE
  5
15
330
5
100
AcDbSymbolTableRecord
100
AcDbLinetypeTableRecord
  2
BYLAYER
 70
     0
  3

 72
    65
 73
     0
 40
0.0
  0
LTYPE
  5
16
330
5
100
AcDbSymbolTableRecord
100
AcDbLinetypeTableRecord
  2
CONTINUOUS
 70
     0
  3
Solid line
 72
    65
 73
     0
 40
0.0
  0
LTYPE
  5
120
330
5
100
AcDbSymbolTableRecord
100
AcDbLinetypeTableRecord
  2
CENTER
 70
     0
  3
____ _ ____ _ ____ _ ____ _ ____ _ ____ _ ____ 
 72
    65
 73
     4
 40
2.0
 49
1.25
 74
     0
 49
-0.25
 74
     0
 49
0.25
 74
     0
 49
-0.25
 74
     0
  0
ENDTAB
  0
TABLE
  2
LAYER
  5
2
330
0
100
AcDbSymbolTable
 70
     7
  0
LAYER
  5
F
330
2
100
AcDbSymbolTableRecord
100
AcDbLayerTableRecord
  2
0
 70
     0
 62
     7
  6
CONTINUOUS
  0
LAYER
  5
62
330
2
100
AcDbSymbolTableRecord
100
AcDbLayerTableRecord
  2
VIEWPORT
 70
     0
 62
     7
  6
CONTINUOUS
  0
LAYER
  5
6B
330
2
100
AcDbSymbolTableRecord
100
AcDbLayerTableRecord
  2
ZUWAKU
 70
     0
 62
     7
  6
CONTINUOUS
  0
LAYER
  5
134
330
2
100
AcDbSymbolTableRecord
100
AcDbLayerTableRecord
  2
SUNPOU
 70
     0
 62
     4
  6
CONTINUOUS
  0
LAYER
  5
135
330
2
100
AcDbSymbolTableRecord
100
AcDbLayerTableRecord
  2
CENTER_L
 70
     0
 62
     1
  6
CENTER
  0
LAYER
  5
136
330
2
100
AcDbSymbolTableRecord
100
AcDbLayerTableRecord
  2
SEIHIN
 70
     0
 62
     3
  6
CONTINUOUS
  0
LAYER
  5
1B6
330
2
100
AcDbSymbolTableRecord
100
AcDbLayerTableRecord
  2
DEFPOINTS
 70
     0
 62
     7
  6
CONTINUOUS
  0
ENDTAB
  0
TABLE
  2
STYLE
  5
3
330
0
100
AcDbSymbolTable
 70
     1
  0
STYLE
  5
10
330
3
100
AcDbSymbolTableRecord
100
AcDbTextStyleTableRecord
  2
STANDARD
 70
     0
 40
0.0
 41
1.0
 50
0.0
 71
     0
 42
2.5
  3
TXT
  4
bigfont.shx
  0
ENDTAB
  0
TABLE
  2
VIEW
  5
6
330
0
100
AcDbSymbolTable
 70
     0
  0
ENDTAB
  0
TABLE
  2
UCS
  5
7
330
0
100
AcDbSymbolTable
 70
     0
  0
ENDTAB
  0
TABLE
  2
APPID
  5
9
330
0
100
AcDbSymbolTable
 70
     1
  0
APPID
  5
11
330
9
100
AcDbSymbolTableRecord
100
AcDbRegAppTableRecord
  2
ACAD
 70
     0
  0
ENDTAB
  0
TABLE
  2
DIMSTYLE
  5
A
330
0
100
AcDbSymbolTable
 70
     1
  0
DIMSTYLE
105
1D
102
{ACAD_REACTORS
330
3A5
330
3B2
330
3BF
330
3CC
330
3E6
330
3F5
330
40F
330
41C
330
429
330
47F
102
}
330
A
100
AcDbSymbolTableRecord
100
AcDbDimStyleTableRecord
  2
STANDARD
 70
     0
  3

  4

  5

  6

  7

 40
1.0
 41
0.18
 42
0.0625
 43
0.38
 44
0.18
 45
0.0
 46
0.0
 47
0.0
 48
0.0
140
0.18
141
0.09
142
0.0
143
25.4
144
1.0
145
0.0
146
1.0
147
0.09
 71
     0
 72
     0
 73
     1
 74
     1
 75
     0
 76
     0
 77
     0
 78
     0
170
     0
171
     2
172
     0
173
     0
174
     0
175
     0
176
     0
177
     0
178
     0
270
     2
271
     4
272
     4
273
     2
274
     2
340
10
275
     0
280
     0
281
     0
282
     0
283
     1
284
     0
285
     0
286
     0
287
     3
288
     0
  0
ENDTAB
  0
TABLE
  2
BLOCK_RECORD
  5
1
330
0
100
AcDbSymbolTable
 70
    11
  0
BLOCK_RECORD
  5
1A
102
{ACAD_XDICTIONARY
360
748
102
}
330
1
100
AcDbSymbolTableRecord
100
AcDbBlockTableRecord
  2
*MODEL_SPACE
  0
BLOCK_RECORD
  5
17
102
{ACAD_XDICTIONARY
360
746
102
}
330
1
100
AcDbSymbolTableRecord
100
AcDbBlockTableRecord
  2
*PAPER_SPACE
  0
BLOCK_RECORD
  5
B2
330
1
100
AcDbSymbolTableRecord
100
AcDbBlockTableRecord
  2
_OPEN
  0
BLOCK_RECORD
  5
399
330
1
100
AcDbSymbolTableRecord
100
AcDbBlockTableRecord
  2
*D1
  0
BLOCK_RECORD
  5
3A6
330
1
100
AcDbSymbolTableRecord
100
AcDbBlockTableRecord
  2
*D2
  0
BLOCK_RECORD
  5
3B3
330
1
100
AcDbSymbolTableRecord
100
AcDbBlockTableRecord
  2
*D3
  0
BLOCK_RECORD
  5
3C0
330
1
100
AcDbSymbolTableRecord
100
AcDbBlockTableRecord
  2
*D4
  0
BLOCK_RECORD
  5
3DA
330
1
100
AcDbSymbolTableRecord
100
AcDbBlockTableRecord
  2
*D5
  0
BLOCK_RECORD
  5
3E9
330
1
100
AcDbSymbolTableRecord
100
AcDbBlockTableRecord
  2
*D6
  0
BLOCK_RECORD
  5
403
330
1
100
AcDbSymbolTableRecord
100
AcDbBlockTableRecord
  2
*D7
  0
BLOCK_RECORD
  5
410
330
1
100
AcDbSymbolTableRecord
100
AcDbBlockTableRecord
  2
*D8
  0
BLOCK_RECORD
  5
41D
330
1
100
AcDbSymbolTableRecord
100
AcDbBlockTableRecord
  2
*D9
  0
BLOCK_RECORD
  5
471
330
1
100
AcDbSymbolTableRecord
100
AcDbBlockTableRecord
  2
*D10
  0
ENDTAB
  0
ENDSEC
  0
SECTION
  2
BLOCKS
  0
BLOCK
  5
1B
330
1A
100
AcDbEntity
  8
0
100
AcDbBlockBegin
  2
*MODEL_SPACE
 70
     0
 10
0.0
 20
0.0
 30
0.0
  3
*MODEL_SPACE
  1

  0
ENDBLK
  5
1C
330
1A
100
AcDbEntity
  8
0
100
AcDbBlockEnd
  0
BLOCK
  5
18
330
17
100
AcDbEntity
 67
     1
  8
0
100
AcDbBlockBegin
  2
*PAPER_SPACE
 70
     0
 10
0.0
 20
0.0
 30
0.0
  3
*PAPER_SPACE
  1

  0
ENDBLK
  5
19
330
17
100
AcDbEntity
 67
     1
  8
0
100
AcDbBlockEnd
  0
BLOCK
  5
B3
330
B2
100
AcDbEntity
  8
0
100
AcDbBlockBegin
  2
_OPEN
 70
     0
 10
0.0
 20
0.0
 30
0.0
  3
_OPEN
  1

  0
LINE
  5
B4
330
B2
100
AcDbEntity
  8
0
  6
BYBLOCK
 62
     0
100
AcDbLine
 10
-1.0
 20
0.1666666666666666
 30
0.0
 11
0.0
 21
0.0
 31
0.0
  0
LINE
  5
B5
330
B2
100
AcDbEntity
  8
0
  6
BYBLOCK
 62
     0
100
AcDbLine
 10
0.0
 20
0.0
 30
0.0
 11
-1.0
 21
-0.1666666666666666
 31
0.0
  0
LINE
  5
B6
330
B2
100
AcDbEntity
  8
0
  6
BYBLOCK
 62
     0
100
AcDbLine
 10
0.0
 20
0.0
 30
0.0
 11
-1.0
 21
0.0
 31
0.0
  0
ENDBLK
  5
B7
330
B2
100
AcDbEntity
  8
0
100
AcDbBlockEnd
  0
BLOCK
  5
39A
330
399
100
AcDbEntity
  8
0
100
AcDbBlockBegin
  2
*D1
 70
     1
 10
0.0
 20
0.0
 30
0.0
  3
*D1
  1

  0
LINE
  5
750
330
399
100
AcDbEntity
  8
SUNPOU
100
AcDbLine
 10
269.1396097642121
 20
111.4276022513373
 30
0.0
 11
269.1396097642121
 21
72.99951363081993
 31
0.0
  0
LINE
  5
751
330
399
100
AcDbEntity
  8
SUNPOU
100
AcDbLine
 10
338.0328909471387
 20
114.1365560744795
 30
0.0
 11
338.0328909471387
 21
72.99951363081993
 31
0.0
  0
LINE
  5
752
330
399
100
AcDbEntity
  8
SUNPOU
100
AcDbLine
 10
272.1396097642121
 20
74.49951363081993
 30
0.0
 11
335.0328909471386
 21
74.49951363081993
 31
0.0
  0
INSERT
  5
753
330
399
100
AcDbEntity
  8
SUNPOU
100
AcDbBlockReference
  2
_OPEN
 10
269.1396097642121
 20
74.49951363081993
 30
0.0
 41
3.0
 42
3.0
 43
3.0
 50
180.0
  0
INSERT
  5
754
330
399
100
AcDbEntity
  8
SUNPOU
100
AcDbBlockReference
  2
_OPEN
 10
338.0328909471387
 20
74.49951363081993
 30
0.0
 41
3.0
 42
3.0
 43
3.0
  0
MTEXT
  5
755
330
399
100
AcDbEntity
  8
SUNPOU
100
AcDbMText
 10
303.5862503556754
 20
76.99951363081993
 30
0.0
 40
3.0
 41
0.0
 71
     5
 72
     1
  1
\A1;69
1001
ACAD
1000
MTEXTBEGIN
1070
    73
1070
     1
1070
    44
1040
1.0
1070
    74
1070
     0
1000
MTEXTEND
1000
MTEXTBEGIN
1070
    73
1070
     1
1070
    44
1040
1.0
1070
    74
1070
     0
1000
MTEXTEND
1000
MTEXTBEGIN
1070
    73
1070
     1
1070
    44
1040
1.0
1070
    74
1070
     0
1000
MTEXTEND
  0
POINT
  5
756
330
399
100
AcDbEntity
  8
DEFPOINTS
 62
     0
100
AcDbPoint
 10
269.1396097642121
 20
114.4276022513373
 30
0.0
  0
POINT
  5
757
330
399
100
AcDbEntity
  8
DEFPOINTS
 62
     0
100
AcDbPoint
 10
338.0328909471387
 20
117.1365560744795
 30
0.0
  0
POINT
  5
758
330
399
100
AcDbEntity
  8
DEFPOINTS
 62
     0
100
AcDbPoint
 10
338.0328909471387
 20
74.49951363081993
 30
0.0
  0
ENDBLK
  5
3A4
330
399
100
AcDbEntity
  8
0
100
AcDbBlockEnd
  0
BLOCK
  5
4E9
330
3A6
100
AcDbEntity
  8
0
100
AcDbBlockBegin
  2
*D2
 70
     1
 10
0.0
 20
0.0
 30
0.0
  3
*D2
  1

  0
LINE
  5
759
330
3A6
100
AcDbEntity
  8
SUNPOU
100
AcDbLine
 10
271.6895097642123
 20
181.4274022513374
 30
0.0
 11
271.6895097642123
 21
205.5301068963078
 31
0.0
  0
LINE
  5
75A
330
3A6
100
AcDbEntity
  8
SUNPOU
100
AcDbLine
 10
335.5895097642121
 20
181.4273022513372
 30
0.0
 11
335.5895097642121
 21
205.5301068963078
 31
0.0
  0
LINE
  5
75B
330
3A6
100
AcDbEntity
  8
SUNPOU
100
AcDbLine
 10
274.6895097642123
 20
204.0301068963078
 30
0.0
 11
332.5895097642121
 21
204.0301068963078
 31
0.0
  0
INSERT
  5
75C
330
3A6
100
AcDbEntity
  8
SUNPOU
100
AcDbBlockReference
  2
_OPEN
 10
271.6895097642123
 20
204.0301068963078
 30
0.0
 41
3.0
 42
3.0
 43
3.0
 50
180.0
  0
INSERT
  5
75D
330
3A6
100
AcDbEntity
  8
SUNPOU
100
AcDbBlockReference
  2
_OPEN
 10
335.5895097642121
 20
204.0301068963078
 30
0.0
 41
3.0
 42
3.0
 43
3.0
  0
MTEXT
  5
75E
330
3A6
100
AcDbEntity
  8
SUNPOU
100
AcDbMText
 10
303.6395097642122
 20
206.5301068963078
 30
0.0
 40
3.0
 41
0.0
 71
     5
 72
     1
  1
\A1;64
1001
ACAD
1000
MTEXTBEGIN
1070
    73
1070
     1
1070
    44
1040
1.0
1070
    74
1070
     0
1000
MTEXTEND
1000
MTEXTBEGIN
1070
    73
1070
     1
1070
    44
1040
1.0
1070
    74
1070
     0
1000
MTEXTEND
1000
MTEXTBEGIN
1070
    73
1070
     1
1070
    44
1040
1.0
1070
    74
1070
     0
1000
MTEXTEND
  0
POINT
  5
75F
330
3A6
100
AcDbEntity
  8
DEFPOINTS
 62
     0
100
AcDbPoint
 10
271.6895097642123
 20
178.4274022513374
 30
0.0
  0
POINT
  5
760
330
3A6
100
AcDbEntity
  8
DEFPOINTS
 62
     0
100
AcDbPoint
 10
335.5895097642121
 20
178.4273022513372
 30
0.0
  0
POINT
  5
761
330
3A6
100
AcDbEntity
  8
DEFPOINTS
 62
     0
100
AcDbPoint
 10
335.5895097642121
 20
204.0301068963078
 30
0.0
  0
ENDBLK
  5
4F3
330
3A6
100
AcDbEntity
  8
0
100
AcDbBlockEnd
  0
BLOCK
  5
3B4
330
3B3
100
AcDbEntity
  8
0
100
AcDbBlockBegin
  2
*D3
 70
     1
 10
0.0
 20
0.0
 30
0.0
  3
*D3
  1

  0
LINE
  5
762
330
3B3
100
AcDbEntity
  8
SUNPOU
100
AcDbLine
 10
153.5699074939342
 20
113.6043152774514
 30
0.0
 11
153.5699074939342
 21
72.99951363081993
 31
0.0
  0
LINE
  5
763
330
3B3
100
AcDbEntity
  8
SUNPOU
100
AcDbLine
 10
108.0233687582651
 20
113.0181056652983
 30
0.0
 11
108.0233687582651
 21
72.99951363081993
 31
0.0
  0
LINE
  5
764
330
3B3
100
AcDbEntity
  8
SUNPOU
100
AcDbLine
 10
150.5699074939342
 20
74.49951363081993
 30
0.0
 11
111.0233687582651
 21
74.49951363081993
 31
0.0
  0
INSERT
  5
765
330
3B3
100
AcDbEntity
  8
SUNPOU
100
AcDbBlockReference
  2
_OPEN
 10
153.5699074939342
 20
74.49951363081993
 30
0.0
 41
3.0
 42
3.0
 43
3.0
  0
INSERT
  5
766
330
3B3
100
AcDbEntity
  8
SUNPOU
100
AcDbBlockReference
  2
_OPEN
 10
108.0233687582651
 20
74.49951363081993
 30
0.0
 41
3.0
 42
3.0
 43
3.0
 50
180.0
  0
MTEXT
  5
767
330
3B3
100
AcDbEntity
  8
SUNPOU
100
AcDbMText
 10
130.7966381260997
 20
76.99951363081993
 30
0.0
 40
3.0
 41
0.0
 71
     5
 72
     1
  1
\A1;46
1001
ACAD
1000
MTEXTBEGIN
1070
    73
1070
     1
1070
    44
1040
1.0
1070
    74
1070
     0
1000
MTEXTEND
1000
MTEXTBEGIN
1070
    73
1070
     1
1070
    44
1040
1.0
1070
    74
1070
     0
1000
MTEXTEND
1000
MTEXTBEGIN
1070
    73
1070
     1
1070
    44
1040
1.0
1070
    74
1070
     0
1000
MTEXTEND
  0
POINT
  5
768
330
3B3
100
AcDbEntity
  8
DEFPOINTS
 62
     0
100
AcDbPoint
 10
153.5699074939342
 20
116.6043152774514
 30
0.0
  0
POINT
  5
769
330
3B3
100
AcDbEntity
  8
DEFPOINTS
 62
     0
100
AcDbPoint
 10
108.0233687582651
 20
116.0181056652983
 30
0.0
  0
POINT
  5
76A
330
3B3
100
AcDbEntity
  8
DEFPOINTS
 62
     0
100
AcDbPoint
 10
108.0233687582651
 20
74.49951363081993
 30
0.0
  0
ENDBLK
  5
3BE
330
3B3
100
AcDbEntity
  8
0
100
AcDbBlockEnd
  0
BLOCK
  5
3C1
330
3C0
100
AcDbEntity
  8
0
100
AcDbBlockBegin
  2
*D4
 70
     1
 10
0.0
 20
0.0
 30
0.0
  3
*D4
  1

  0
LINE
  5
76B
330
3C0
100
AcDbEntity
  8
SUNPOU
100
AcDbLine
 10
180.5914843643101
 20
188.4276022513372
 30
0.0
 11
206.2698514850612
 21
188.4276022513372
 31
0.0
  0
LINE
  5
76C
330
3C0
100
AcDbEntity
  8
SUNPOU
100
AcDbLine
 10
180.5913843643102
 20
124.4276022513373
 30
0.0
 11
206.2698514850612
 21
124.4276022513373
 31
0.0
  0
LINE
  5
76D
330
3C0
100
AcDbEntity
  8
SUNPOU
100
AcDbLine
 10
204.7698514850612
 20
185.4276022513372
 30
0.0
 11
204.7698514850612
 21
127.4276022513374
 31
0.0
  0
INSERT
  5
76E
330
3C0
100
AcDbEntity
  8
SUNPOU
100
AcDbBlockReference
  2
_OPEN
 10
204.7698514850612
 20
188.4276022513372
 30
0.0
 41
3.0
 42
3.0
 43
3.0
 50
90.0
  0
INSERT
  5
76F
330
3C0
100
AcDbEntity
  8
SUNPOU
100
AcDbBlockReference
  2
_OPEN
 10
204.7698514850612
 20
124.4276022513373
 30
0.0
 41
3.0
 42
3.0
 43
3.0
 50
270.0
  0
MTEXT
  5
770
330
3C0
100
AcDbEntity
  8
SUNPOU
100
AcDbMText
 10
202.2698514850612
 20
156.4276022513373
 30
0.0
 40
3.0
 41
0.0
 71
     5
 72
     1
  1
\A1;64
 11
0.0000000000000001
 21
1.0
 31
0.0
1001
ACAD
1000
MTEXTBEGIN
1070
    73
1070
     1
1070
    44
1040
1.0
1070
    74
1070
     0
1000
MTEXTEND
1000
MTEXTBEGIN
1070
    73
1070
     1
1070
    44
1040
1.0
1070
    74
1070
     0
1000
MTEXTEND
1000
MTEXTBEGIN
1070
    73
1070
     1
1070
    44
1040
1.0
1070
    74
1070
     0
1000
MTEXTEND
  0
POINT
  5
771
330
3C0
100
AcDbEntity
  8
DEFPOINTS
 62
     0
100
AcDbPoint
 10
177.5914843643102
 20
188.4276022513372
 30
0.0
  0
POINT
  5
772
330
3C0
100
AcDbEntity
  8
DEFPOINTS
 62
     0
100
AcDbPoint
 10
177.5913843643102
 20
124.4276022513373
 30
0.0
  0
POINT
  5
773
330
3C0
100
AcDbEntity
  8
DEFPOINTS
 62
     0
100
AcDbPoint
 10
204.7698514850612
 20
124.4276022513373
 30
0.0
  0
ENDBLK
  5
3CB
330
3C0
100
AcDbEntity
  8
0
100
AcDbBlockEnd
  0
BLOCK
  5
480
330
3DA
100
AcDbEntity
  8
0
100
AcDbBlockBegin
  2
*D5
 70
     1
 10
0.0
 20
0.0
 30
0.0
  3
*D5
  1

  0
LINE
  5
774
330
3DA
100
AcDbEntity
  8
SUNPOU
100
AcDbLine
 10
180.5914843643101
 20
188.4276022513372
 30
0.0
 11
217.529013105204
 21
188.4276022513372
 31
0.0
  0
LINE
  5
775
330
3DA
100
AcDbEntity
  8
SUNPOU
100
AcDbLine
 10
151.4448843643101
 20
94.40070225133743
 30
0.0
 11
217.529013105204
 21
94.40070225133743
 31
0.0
  0
LINE
  5
776
330
3DA
100
AcDbEntity
  8
SUNPOU
100
AcDbLine
 10
216.0290131052041
 20
185.4276022513372
 30
0.0
 11
216.0290131052041
 21
97.40070225133742
 31
0.0
  0
INSERT
  5
777
330
3DA
100
AcDbEntity
  8
SUNPOU
100
AcDbBlockReference
  2
_OPEN
 10
216.0290131052041
 20
188.4276022513372
 30
0.0
 41
3.0
 42
3.0
 43
3.0
 50
90.0
  0
INSERT
  5
778
330
3DA
100
AcDbEntity
  8
SUNPOU
100
AcDbBlockReference
  2
_OPEN
 10
216.0290131052041
 20
94.40070225133743
 30
0.0
 41
3.0
 42
3.0
 43
3.0
 50
270.0
  0
MTEXT
  5
779
330
3DA
100
AcDbEntity
  8
SUNPOU
100
AcDbMText
 10
213.529013105204
 20
141.4141522513373
 30
0.0
 40
3.0
 41
0.0
 71
     5
 72
     1
  1
\A1;94
 11
0.0000000000000001
 21
1.0
 31
0.0
1001
ACAD
1000
MTEXTBEGIN
1070
    73
1070
     1
1070
    44
1040
1.0
1070
    74
1070
     0
1000
MTEXTEND
1000
MTEXTBEGIN
1070
    73
1070
     1
1070
    44
1040
1.0
1070
    74
1070
     0
1000
MTEXTEND
1000
MTEXTBEGIN
1070
    73
1070
     1
1070
    44
1040
1.0
1070
    74
1070
     0
1000
MTEXTEND
  0
POINT
  5
77A
330
3DA
100
AcDbEntity
  8
DEFPOINTS
 62
     0
100
AcDbPoint
 10
177.5914843643102
 20
188.4276022513372
 30
0.0
  0
POINT
  5
77B
330
3DA
100
AcDbEntity
  8
DEFPOINTS
 62
     0
100
AcDbPoint
 10
148.4448843643101
 20
94.40070225133743
 30
0.0
  0
POINT
  5
77C
330
3DA
100
AcDbEntity
  8
DEFPOINTS
 62
     0
100
AcDbPoint
 10
216.0290131052041
 20
94.40070225133743
 30
0.0
  0
ENDBLK
  5
48A
330
3DA
100
AcDbEntity
  8
0
100
AcDbBlockEnd
  0
BLOCK
  5
4DE
330
3E9
100
AcDbEntity
  8
0
100
AcDbBlockBegin
  2
*D6
 70
     1
 10
0.0
 20
0.0
 30
0.0
  3
*D6
  1

  0
LINE
  5
77D
330
3E9
100
AcDbEntity
  8
SUNPOU
100
AcDbLine
 10
152.5914843643407
 20
191.4276413138372
 30
0.0
 11
152.5914843643407
 21
206.5870413010423
 31
0.0
  0
LINE
  5
77E
330
3E9
100
AcDbEntity
  8
SUNPOU
100
AcDbLine
 10
177.5914843643102
 20
191.4276022513372
 30
0.0
 11
177.5914843643102
 21
206.5870413010423
 31
0.0
  0
LINE
  5
77F
330
3E9
100
AcDbEntity
  8
SUNPOU
100
AcDbLine
 10
155.5914843643407
 20
205.0870413010424
 30
0.0
 11
174.5914843643102
 21
205.0870413010424
 31
0.0
  0
INSERT
  5
780
330
3E9
100
AcDbEntity
  8
SUNPOU
100
AcDbBlockReference
  2
_OPEN
 10
152.5914843643407
 20
205.0870413010424
 30
0.0
 41
3.0
 42
3.0
 43
3.0
 50
180.0
  0
INSERT
  5
781
330
3E9
100
AcDbEntity
  8
SUNPOU
100
AcDbBlockReference
  2
_OPEN
 10
177.5914843643102
 20
205.0870413010424
 30
0.0
 41
3.0
 42
3.0
 43
3.0
  0
MTEXT
  5
782
330
3E9
100
AcDbEntity
  8
SUNPOU
100
AcDbMText
 10
165.0914843643254
 20
207.5870413010424
 30
0.0
 40
3.0
 41
0.0
 71
     5
 72
     1
  1
\A1;※a 25
1001
ACAD
1000
MTEXTBEGIN
1070
    73
1070
     1
1070
    44
1040
1.0
1070
    74
1070
     0
1000
MTEXTEND
1000
MTEXTBEGIN
1070
    73
1070
     1
1070
    44
1040
1.0
1070
    74
1070
     0
1000
MTEXTEND
1000
MTEXTBEGIN
1070
    73
1070
     1
1070
    44
1040
1.0
1070
    74
1070
     0
1000
MTEXTEND
  0
POINT
  5
783
330
3E9
100
AcDbEntity
  8
DEFPOINTS
 62
     0
100
AcDbPoint
 10
152.5914843643407
 20
188.4276413138372
 30
0.0
  0
POINT
  5
784
330
3E9
100
AcDbEntity
  8
DEFPOINTS
 62
     0
100
AcDbPoint
 10
177.5914843643102
 20
188.4276022513372
 30
0.0
  0
POINT
  5
785
330
3E9
100
AcDbEntity
  8
DEFPOINTS
 62
     0
100
AcDbPoint
 10
177.5914843643102
 20
205.0870413010424
 30
0.0
  0
ENDBLK
  5
4E8
330
3E9
100
AcDbEntity
  8
0
100
AcDbBlockEnd
  0
BLOCK
  5
4D3
330
403
100
AcDbEntity
  8
0
100
AcDbBlockBegin
  2
*D7
 70
     1
 10
0.0
 20
0.0
 30
0.0
  3
*D7
  1

  0
LINE
  5
786
330
403
100
AcDbEntity
  8
SUNPOU
100
AcDbLine
 10
130.8199575576652
 20
166.4276627687092
 30
0.0
 11
130.8199575576652
 21
216.6140962418509
 31
0.0
  0
LINE
  5
787
330
403
100
AcDbEntity
  8
SUNPOU
100
AcDbLine
 10
177.5914843643102
 20
191.4276022513372
 30
0.0
 11
177.5914843643102
 21
216.6140962418509
 31
0.0
  0
LINE
  5
788
330
403
100
AcDbEntity
  8
SUNPOU
100
AcDbLine
 10
133.8199575576652
 20
215.1140962418509
 30
0.0
 11
174.5914843643102
 21
215.1140962418509
 31
0.0
  0
INSERT
  5
789
330
403
100
AcDbEntity
  8
SUNPOU
100
AcDbBlockReference
  2
_OPEN
 10
130.8199575576652
 20
215.1140962418509
 30
0.0
 41
3.0
 42
3.0
 43
3.0
 50
180.0
  0
INSERT
  5
78A
330
403
100
AcDbEntity
  8
SUNPOU
100
AcDbBlockReference
  2
_OPEN
 10
177.5914843643102
 20
215.1140962418509
 30
0.0
 41
3.0
 42
3.0
 43
3.0
  0
MTEXT
  5
78B
330
403
100
AcDbEntity
  8
SUNPOU
100
AcDbMText
 10
154.2057209609877
 20
217.6140962418509
 30
0.0
 40
3.0
 41
0.0
 71
     5
 72
     1
  1
\A1;47
1001
ACAD
1000
MTEXTBEGIN
1070
    73
1070
     1
1070
    44
1040
1.0
1070
    74
1070
     0
1000
MTEXTEND
1000
MTEXTBEGIN
1070
    73
1070
     1
1070
    44
1040
1.0
1070
    74
1070
     0
1000
MTEXTEND
1000
MTEXTBEGIN
1070
    73
1070
     1
1070
    44
1040
1.0
1070
    74
1070
     0
1000
MTEXTEND
  0
POINT
  5
78C
330
403
100
AcDbEntity
  8
DEFPOINTS
 62
     0
100
AcDbPoint
 10
130.8199575576652
 20
163.4276627687092
 30
0.0
  0
POINT
  5
78D
330
403
100
AcDbEntity
  8
DEFPOINTS
 62
     0
100
AcDbPoint
 10
177.5914843643102
 20
188.4276022513372
 30
0.0
  0
POINT
  5
78E
330
403
100
AcDbEntity
  8
DEFPOINTS
 62
     0
100
AcDbPoint
 10
177.5914843643102
 20
215.1140962418509
 30
0.0
  0
ENDBLK
  5
4DD
330
403
100
AcDbEntity
  8
0
100
AcDbBlockEnd
  0
BLOCK
  5
4C8
330
410
100
AcDbEntity
  8
0
100
AcDbBlockBegin
  2
*D8
 70
     1
 10
0.0
 20
0.0
 30
0.0
  3
*D8
  1

  0
LINE
  5
78F
330
410
100
AcDbEntity
  8
SUNPOU
100
AcDbLine
 10
107.54768436431
 20
155.9773022513374
 30
0.0
 11
107.54768436431
 21
225.9652250072345
 31
0.0
  0
LINE
  5
790
330
410
100
AcDbEntity
  8
SUNPOU
100
AcDbLine
 10
177.5914843643102
 20
191.4276022513372
 30
0.0
 11
177.5914843643102
 21
225.9652250072345
 31
0.0
  0
LINE
  5
791
330
410
100
AcDbEntity
  8
SUNPOU
100
AcDbLine
 10
110.54768436431
 20
224.4652250072346
 30
0.0
 11
174.5914843643102
 21
224.4652250072346
 31
0.0
  0
INSERT
  5
792
330
410
100
AcDbEntity
  8
SUNPOU
100
AcDbBlockReference
  2
_OPEN
 10
107.54768436431
 20
224.4652250072346
 30
0.0
 41
3.0
 42
3.0
 43
3.0
 50
180.0
  0
INSERT
  5
793
330
410
100
AcDbEntity
  8
SUNPOU
100
AcDbBlockReference
  2
_OPEN
 10
177.5914843643102
 20
224.4652250072346
 30
0.0
 41
3.0
 42
3.0
 43
3.0
  0
MTEXT
  5
794
330
410
100
AcDbEntity
  8
SUNPOU
100
AcDbMText
 10
142.5695843643101
 20
226.9652250072346
 30
0.0
 40
3.0
 41
0.0
 71
     5
 72
     1
  1
\A1;70
1001
ACAD
1000
MTEXTBEGIN
1070
    73
1070
     1
1070
    44
1040
1.0
1070
    74
1070
     0
1000
MTEXTEND
1000
MTEXTBEGIN
1070
    73
1070
     1
1070
    44
1040
1.0
1070
    74
1070
     0
1000
MTEXTEND
1000
MTEXTBEGIN
1070
    73
1070
     1
1070
    44
1040
1.0
1070
    74
1070
     0
1000
MTEXTEND
  0
POINT
  5
795
330
410
100
AcDbEntity
  8
DEFPOINTS
 62
     0
100
AcDbPoint
 10
107.54768436431
 20
152.9773022513374
 30
0.0
  0
POINT
  5
796
330
410
100
AcDbEntity
  8
DEFPOINTS
 62
     0
100
AcDbPoint
 10
177.5914843643102
 20
188.4276022513372
 30
0.0
  0
POINT
  5
797
330
410
100
AcDbEntity
  8
DEFPOINTS
 62
     0
100
AcDbPoint
 10
177.5914843643102
 20
224.4652250072346
 30
0.0
  0
ENDBLK
  5
4D2
330
410
100
AcDbEntity
  8
0
100
AcDbBlockEnd
  0
BLOCK
  5
4BD
330
41D
100
AcDbEntity
  8
0
100
AcDbBlockBegin
  2
*D9
 70
     1
 10
0.0
 20
0.0
 30
0.0
  3
*D9
  1

  0
LINE
  5
798
330
41D
100
AcDbEntity
  8
SUNPOU
100
AcDbLine
 10
105.0698843643101
 20
124.4008022513374
 30
0.0
 11
88.9303225945912
 21
124.4008022513374
 31
0.0
  0
LINE
  5
799
330
41D
100
AcDbEntity
  8
SUNPOU
100
AcDbLine
 10
110.1948843643101
 20
94.40080225133741
 30
0.0
 11
88.93032259459118
 21
94.40080225133742
 31
0.0
  0
LINE
  5
79A
330
41D
100
AcDbEntity
  8
SUNPOU
100
AcDbLine
 10
90.43032259459121
 20
121.4008022513374
 30
0.0
 11
90.43032259459121
 21
97.40080225133743
 31
0.0
  0
INSERT
  5
79B
330
41D
100
AcDbEntity
  8
SUNPOU
100
AcDbBlockReference
  2
_OPEN
 10
90.43032259459121
 20
124.4008022513374
 30
0.0
 41
3.0
 42
3.0
 43
3.0
 50
90.0
  0
INSERT
  5
79C
330
41D
100
AcDbEntity
  8
SUNPOU
100
AcDbBlockReference
  2
_OPEN
 10
90.43032259459119
 20
94.40080225133742
 30
0.0
 41
3.0
 42
3.0
 43
3.0
 50
270.0
  0
MTEXT
  5
79D
330
41D
100
AcDbEntity
  8
SUNPOU
100
AcDbMText
 10
87.93032259459117
 20
109.4008022513374
 30
0.0
 40
3.0
 41
0.0
 71
     5
 72
     1
  1
\A1;※b 30
 11
0.0000000000000001
 21
1.0
 31
0.0
1001
ACAD
1000
MTEXTBEGIN
1070
    73
1070
     1
1070
    44
1040
1.0
1070
    74
1070
     0
1000
MTEXTEND
1000
MTEXTBEGIN
1070
    73
1070
     1
1070
    44
1040
1.0
1070
    74
1070
     0
1000
MTEXTEND
1000
MTEXTBEGIN
1070
    73
1070
     1
1070
    44
1040
1.0
1070
    74
1070
     0
1000
MTEXTEND
  0
POINT
  5
79E
330
41D
100
AcDbEntity
  8
DEFPOINTS
 62
     0
100
AcDbPoint
 10
108.0698843643101
 20
124.4008022513374
 30
0.0
  0
POINT
  5
79F
330
41D
100
AcDbEntity
  8
DEFPOINTS
 62
     0
100
AcDbPoint
 10
113.1948843643101
 20
94.40080225133741
 30
0.0
  0
POINT
  5
7A0
330
41D
100
AcDbEntity
  8
DEFPOINTS
 62
     0
100
AcDbPoint
 10
90.43032259459119
 20
94.40080225133742
 30
0.0
  0
ENDBLK
  5
4C7
330
41D
100
AcDbEntity
  8
0
100
AcDbBlockEnd
  0
BLOCK
  5
472
330
471
100
AcDbEntity
  8
0
100
AcDbBlockBegin
  2
*D10
 70
     1
 10
0.0
 20
0.0
 30
0.0
  3
*D10
  1

  0
LINE
  5
7A1
330
471
100
AcDbEntity
  8
SUNPOU
100
AcDbLine
 10
180.5913843643102
 20
124.4276022513373
 30
0.0
 11
206.2698514850612
 21
124.4276022513373
 31
0.0
  0
LINE
  5
7A2
330
471
100
AcDbEntity
  8
SUNPOU
100
AcDbLine
 10
156.5698843643101
 20
114.4008022513374
 30
0.0
 11
206.2698514850612
 21
114.4008022513374
 31
0.0
  0
LINE
  5
7A3
330
471
100
AcDbEntity
  8
SUNPOU
100
AcDbLine
 10
204.7698514850612
 20
121.4276022513373
 30
0.0
 11
204.7698514850612
 21
117.4008022513374
 31
0.0
  0
INSERT
  5
7A4
330
471
100
AcDbEntity
  8
SUNPOU
100
AcDbBlockReference
  2
_OPEN
 10
204.7698514850612
 20
124.4276022513373
 30
0.0
 41
3.0
 42
3.0
 43
3.0
 50
90.0
  0
INSERT
  5
7A5
330
471
100
AcDbEntity
  8
SUNPOU
100
AcDbBlockReference
  2
_OPEN
 10
204.7698514850612
 20
114.4008022513374
 30
0.0
 41
3.0
 42
3.0
 43
3.0
 50
270.0
  0
MTEXT
  5
7A6
330
471
100
AcDbEntity
  8
SUNPOU
100
AcDbMText
 10
202.2698514850612
 20
119.4142022513374
 30
0.0
 40
3.0
 41
0.0
 71
     5
 72
     1
  1
\A1;10
 11
0.0000000000000001
 21
1.0
 31
0.0
1001
ACAD
1000
MTEXTBEGIN
1070
    73
1070
     1
1070
    44
1040
1.0
1070
    74
1070
     0
1000
MTEXTEND
1000
MTEXTBEGIN
1070
    73
1070
     1
1070
    44
1040
1.0
1070
    74
1070
     0
1000
MTEXTEND
1000
MTEXTBEGIN
1070
    73
1070
     1
1070
    44
1040
1.0
1070
    74
1070
     0
1000
MTEXTEND
  0
POINT
  5
7A7
330
471
100
AcDbEntity
  8
DEFPOINTS
 62
     0
100
AcDbPoint
 10
177.5913843643102
 20
124.4276022513373
 30
0.0
  0
POINT
  5
7A8
330
471
100
AcDbEntity
  8
DEFPOINTS
 62
     0
100
AcDbPoint
 10
153.5698843643101
 20
114.4008022513374
 30
0.0
  0
POINT
  5
7A9
330
471
100
AcDbEntity
  8
DEFPOINTS
 62
     0
100
AcDbPoint
 10
204.7698514850612
 20
114.4008022513374
 30
0.0
  0
ENDBLK
  5
47E
330
471
100
AcDbEntity
  8
0
100
AcDbBlockEnd
  0
ENDSEC
  0
SECTION
  2
ENTITIES
  0
LINE
  5
6C
330
1A
100
AcDbEntity
  8
ZUWAKU
  6
CONTINUOUS
 62
     7
100
AcDbLine
 10
403.0
 20
7.0
 30
0.0
 11
5.0
 21
7.0
 31
0.0
  0
LINE
  5
6D
330
1A
100
AcDbEntity
  8
ZUWAKU
  6
CONTINUOUS
 62
     7
100
AcDbLine
 10
5.0
 20
282.0
 30
0.0
 11
5.0
 21
7.0
 31
0.0
  0
LINE
  5
6E
330
1A
100
AcDbEntity
  8
ZUWAKU
  6
CONTINUOUS
 62
     7
100
AcDbLine
 10
403.0
 20
282.0
 30
0.0
 11
403.0
 21
7.0
 31
0.0
  0
LINE
  5
6F
330
1A
100
AcDbEntity
  8
ZUWAKU
  6
CONTINUOUS
 62
     7
100
AcDbLine
 10
403.0
 20
282.0
 30
0.0
 11
5.0
 21
282.0
 31
0.0
  0
LINE
  5
8E
330
1A
100
AcDbEntity
  8
ZUWAKU
 62
     7
 48
10.0
100
AcDbLine
 10
5.0
 20
13.0
 30
0.0
 11
403.0
 21
12.99999999999994
 31
0.0
  0
TEXT
  5
93
330
1A
100
AcDbEntity
  8
ZUWAKU
 62
     7
100
AcDbText
 10
8.003143713074223
 20
7.870178177610682
 30
0.0
 40
4.0
  1
品 種
100
AcDbText
  0
TEXT
  5
97
330
1A
100
AcDbEntity
  8
ZUWAKU
 62
     7
100
AcDbText
 10
107.7028028167073
 20
8.200497435100942
 30
0.0
 40
4.0
  1
品名・ｻ ｲ ｽﾞ
100
AcDbText
  0
LINE
  5
9A
330
1A
100
AcDbEntity
  8
ZUWAKU
 62
     7
 48
10.0
100
AcDbLine
 10
324.3551403257206
 20
6.999999999999836
 30
0.0
 11
324.3551403257206
 21
12.99999999999995
 31
0.0
  0
LINE
  5
9B
330
1A
100
AcDbEntity
  8
ZUWAKU
 62
     7
 48
10.0
100
AcDbLine
 10
307.142312366876
 20
6.999999999999836
 30
0.0
 11
307.142312366876
 21
12.99999999999995
 31
0.0
  0
TEXT
  5
9C
330
1A
100
AcDbEntity
  8
ZUWAKU
 62
     7
100
AcDbText
 10
310.1429253763237
 20
7.934661405801826
 30
0.0
 40
4.0
  1
品 番
100
AcDbText
  0
TEXT
  5
9E
330
1A
100
AcDbEntity
  8
ZUWAKU
 62
     7
 48
10.0
100
AcDbText
 10
322.9513761015196
 20
2.449000558492457
 30
0.0
 40
4.0
  1
積水化学工業株式会社  建材
100
AcDbText
  0
TEXT
  5
A1
330
1A
100
AcDbEntity
  8
ZUWAKU
 62
     7
100
AcDbText
 10
389.843492473331
 20
7.886151458996323
 30
0.0
 40
4.0
  1
1/1
100
AcDbText
  0
TEXT
  5
A2
330
1A
100
AcDbEntity
  8
ZUWAKU
 62
     7
100
AcDbText
 10
369.8225424558458
 20
7.729845637642938
 30
0.0
 40
4.0
  1
尺 度
100
AcDbText
  0
LINE
  5
A3
330
1A
100
AcDbEntity
  8
ZUWAKU
 62
     7
 48
10.0
100
AcDbLine
 10
366.8807110760169
 20
6.999999999999886
 30
0.0
 11
366.8807110760169
 21
12.99999999999994
 31
0.0
  0
TEXT
  5
A6
330
1A
100
AcDbEntity
  8
ZUWAKU
 62
     7
 48
10.0
100
AcDbText
 10
396.1622424237184
 20
2.480970960763784
 30
0.0
 40
4.0
  1
A3
100
AcDbText
  0
LINE
  5
F5
330
1A
100
AcDbEntity
  8
ZUWAKU
 62
     7
 48
10.0
100
AcDbLine
 10
22.25374857290876
 20
7.0
 30
0.0
 11
22.25374857290876
 21
13.0
 31
0.0
  0
LINE
  5
F6
330
1A
100
AcDbEntity
  8
ZUWAKU
 62
     7
 48
10.0
100
AcDbLine
 10
104.7316872784438
 20
7.0
 30
0.0
 11
104.7316872784438
 21
12.99999999999998
 31
0.0
  0
LINE
  5
F8
330
1A
100
AcDbEntity
  8
ZUWAKU
 62
     7
 48
10.0
100
AcDbLine
 10
138.0261803105822
 20
7.0
 30
0.0
 11
138.0261803105822
 21
12.99999999999998
 31
0.0
  0
LINE
  5
100
330
1A
100
AcDbEntity
  8
ZUWAKU
 62
     7
 48
10.0
100
AcDbLine
 10
384.3363149538092
 20
6.999999999999862
 30
0.0
 11
384.3363149538092
 21
12.99999999999994
 31
0.0
  0
TEXT
  5
238
330
1A
100
AcDbEntity
  8
ZUWAKU
 62
     7
100
AcDbText
 10
142.646020553844
 20
7.937394159420016
 30
0.0
 40
4.0
  1
はいといエルボ　Ｙ６０Ｈ－Ｒ６０－９０°
100
AcDbText
  0
ARC
  5
23B
330
1A
100
AcDbEntity
  8
SEIHIN
  6
CONTINUOUS
 62
     3
 48
5.0
100
AcDbCircle
 10
105.8480575722801
 20
152.3378668948563
 30
0.0
 40
10.7519927397269
100
AcDbArc
 50
279.8759093230405
 51
5.817026684346253
  0
LINE
  5
23C
330
1A
100
AcDbEntity
  8
SEIHIN
  6
CONTINUOUS
 62
     3
 48
5.0
100
AcDbLine
 10
108.0441843643101
 20
114.4008022513374
 30
0.0
 11
107.54768436431
 21
152.9772022513374
 31
0.0
  0
LINE
  5
23D
330
1A
100
AcDbEntity
  8
CENTER_L
  6
CENTER
 62
     1
 48
5.0
100
AcDbLine
 10
130.8198843643101
 20
87.66800225133739
 30
0.0
 11
130.8199575576652
 21
163.4276627687092
 31
0.0
  0
LINE
  5
23E
330
1A
100
AcDbEntity
  8
SEIHIN
  6
CONTINUOUS
 62
     3
 48
5.0
100
AcDbLine
 10
177.5913843643102
 20
124.4276022513373
 30
0.0
 11
177.5914843643102
 21
188.4276022513372
 31
0.0
  0
TEXT
  5
23F
330
1A
100
AcDbEntity
  8
ZUWAKU
 62
     7
100
AcDbText
 10
25.88204200343581
 20
7.882144154589347
 30
0.0
 40
4.0
  1
アートフェイス　たてとい
100
AcDbText
  0
LINE
  5
247
330
1A
100
AcDbEntity
  8
SEIHIN
  6
CONTINUOUS
 62
     3
 48
5.0
100
AcDbLine
 10
148.4448843643101
 20
94.40070225133743
 30
0.0
 11
130.8198843643101
 21
94.40070225133743
 31
0.0
  0
LINE
  5
248
330
1A
100
AcDbEntity
  8
SEIHIN
  6
CONTINUOUS
 62
     3
 48
5.0
100
AcDbLine
 10
148.9448843643101
 20
97.40070225133743
 30
0.0
 11
112.6948843643101
 21
97.40080225133747
 31
0.0
  0
LINE
  5
249
330
1A
100
AcDbEntity
  8
SEIHIN
  6
CONTINUOUS
 62
     3
 48
5.0
100
AcDbLine
 10
108.0698843643101
 20
114.4008022513374
 30
0.0
 11
153.5698843643101
 21
114.4008022513374
 31
0.0
  0
LINE
  5
24A
330
1A
100
AcDbEntity
  8
SEIHIN
  6
CONTINUOUS
 62
     3
 48
5.0
100
AcDbLine
 10
112.6948843643101
 20
114.4008022513374
 30
0.0
 11
112.6948843643101
 21
97.40080225133747
 31
0.0
  0
LINE
  5
24B
330
1A
100
AcDbEntity
  8
SEIHIN
  6
CONTINUOUS
 62
     3
 48
5.0
100
AcDbLine
 10
113.1948843643101
 20
94.40080225133741
 30
0.0
 11
130.8198843643101
 21
94.40070225133743
 31
0.0
  0
LINE
  5
24C
330
1A
100
AcDbEntity
  8
SEIHIN
  6
CONTINUOUS
 62
     3
 48
5.0
100
AcDbLine
 10
112.6948843643101
 20
97.40080225133747
 30
0.0
 11
113.1948843643101
 21
94.40080225133741
 31
0.0
  0
LINE
  5
24D
330
1A
100
AcDbEntity
  8
SEIHIN
  6
CONTINUOUS
 62
     3
 48
5.0
100
AcDbLine
 10
148.9448843643101
 20
114.4007022513374
 30
0.0
 11
148.9448843643101
 21
97.40070225133743
 31
0.0
  0
LINE
  5
24E
330
1A
100
AcDbEntity
  8
SEIHIN
  6
CONTINUOUS
 62
     3
 48
5.0
100
AcDbLine
 10
148.9448843643101
 20
97.40070225133743
 30
0.0
 11
148.4448843643101
 21
94.40070225133743
 31
0.0
  0
LINE
  5
24F
330
1A
100
AcDbEntity
  8
SEIHIN
  6
CONTINUOUS
 62
     3
 48
5.0
100
AcDbLine
 10
177.5913843643102
 20
124.4276022513373
 30
0.0
 11
154.06998436431
 21
124.4276022513373
 31
0.0
  0
LINE
  5
250
330
1A
100
AcDbEntity
  8
SEIHIN
  6
CONTINUOUS
 62
     3
 48
5.0
100
AcDbLine
 10
177.5913843643102
 20
133.4276022513372
 30
0.0
 11
150.9450843643101
 21
133.4276022513372
 31
0.0
  0
LINE
  5
251
330
1A
100
AcDbEntity
  8
SEIHIN
  6
CONTINUOUS
 62
     3
 48
5.0
100
AcDbLine
 10
153.5698843643101
 20
114.4008022513374
 30
0.0
 11
153.56998436431
 21
123.9276022513373
 31
0.0
  0
ARC
  5
252
330
1A
100
AcDbEntity
  8
SEIHIN
  6
CONTINUOUS
 62
     3
 48
5.0
100
AcDbCircle
 10
145.8502042562785
 20
125.2069593618669
 30
0.0
 40
7.758921218576249
100
AcDbArc
 50
354.2351128177792
 51
55.52885881382447
  0
ARC
  5
253
330
1A
100
AcDbEntity
  8
SEIHIN
  6
CONTINUOUS
 62
     3
 48
5.0
100
AcDbCircle
 10
150.9450843643101
 20
131.4276022513373
 30
0.0
 40
2.0
100
AcDbArc
 50
90.0
 51
180.0
  0
ARC
  5
254
330
1A
100
AcDbEntity
  8
SEIHIN
  6
CONTINUOUS
 62
     3
 48
5.0
100
AcDbCircle
 10
154.06998436431
 20
123.9276022513373
 30
0.0
 40
0.5
100
AcDbArc
 50
90.0
 51
180.0
  0
LINE
  5
257
330
1A
100
AcDbEntity
  8
SEIHIN
  6
CONTINUOUS
 62
     3
 48
5.0
100
AcDbLine
 10
177.5914843643102
 20
188.4276022513372
 30
0.0
 11
142.5448843643101
 21
188.4276022513372
 31
0.0
  0
LINE
  5
258
330
1A
100
AcDbEntity
  8
SEIHIN
  6
CONTINUOUS
 62
     3
 48
5.0
100
AcDbLine
 10
142.54478436431
 20
179.4276022513372
 30
0.0
 11
177.5913843643102
 21
179.4276022513372
 31
0.0
  0
LINE
  5
259
330
1A
100
AcDbEntity
  8
CENTER_L
  6
CENTER
 62
     1
 48
5.0
100
AcDbLine
 10
187.6104843643101
 20
156.4276022513372
 30
0.0
 11
123.8199507947892
 21
156.4276702280828
 31
0.0
  0
ARC
  5
25A
330
1A
100
AcDbEntity
  8
SEIHIN
  6
CONTINUOUS
 62
     3
 48
5.0
100
AcDbCircle
 10
142.5447859262974
 20
153.4276038335472
 30
0.0
 40
34.99999841792851
100
AcDbArc
 50
89.99983885477346
 51
180.737174090512
  0
ARC
  5
25B
330
1A
100
AcDbEntity
  8
SEIHIN
  6
CONTINUOUS
 62
     3
 48
5.0
100
AcDbCircle
 10
142.5447843642139
 20
153.4276022512412
 30
0.0
 40
26.0000000000961
100
AcDbArc
 50
89.99999999978824
 51
179.9997796314054
  0
LINE
  5
25C
330
1A
100
AcDbEntity
  8
SEIHIN
  6
CONTINUOUS
 62
     3
 48
5.0
100
AcDbLine
 10
335.589509764212
 20
156.4276022513372
 30
0.0
 11
335.589509764212
 21
134.4279022513374
 31
0.0
  0
LINE
  5
25D
330
1A
100
AcDbEntity
  8
SEIHIN
  6
CONTINUOUS
 62
     3
 48
5.0
100
AcDbLine
 10
333.9895097642123
 20
156.4276022513372
 30
0.0
 11
333.9895097642123
 21
135.8860022513374
 31
0.0
  0
LINE
  5
25E
330
1A
100
AcDbEntity
  8
SEIHIN
  6
CONTINUOUS
 62
     3
 48
5.0
100
AcDbLine
 10
271.6895097642123
 20
156.4276022513372
 30
0.0
 11
271.6895097642123
 21
134.4279022513374
 31
0.0
  0
LINE
  5
25F
330
1A
100
AcDbEntity
  8
SEIHIN
  6
CONTINUOUS
 62
     3
 48
5.0
100
AcDbLine
 10
273.2895097642122
 20
156.4276022513372
 30
0.0
 11
273.2895097642122
 21
135.8860022513374
 31
0.0
  0
LINE
  5
260
330
1A
100
AcDbEntity
  8
CENTER_L
  6
CENTER
 62
     1
 48
5.0
100
AcDbLine
 10
303.6395097642121
 20
89.39700225133748
 30
0.0
 11
303.6396097642121
 21
193.5359022513375
 31
0.0
  0
LINE
  5
261
330
1A
100
AcDbEntity
  8
SEIHIN
  6
CONTINUOUS
 62
     3
 48
5.0
100
AcDbLine
 10
324.997609764212
 20
186.7776022513374
 30
0.0
 11
326.6341097642121
 21
145.1610022513374
 31
0.0
  0
LINE
  5
262
330
1A
100
AcDbEntity
  8
SEIHIN
  6
CONTINUOUS
 62
     3
 48
5.0
100
AcDbLine
 10
282.281509764212
 20
186.7776022513374
 30
0.0
 11
280.6450097642121
 21
145.1610022513374
 31
0.0
  0
LINE
  5
263
330
1A
100
AcDbEntity
  8
SEIHIN
  6
CONTINUOUS
 62
     3
 48
5.0
100
AcDbLine
 10
335.585509764212
 20
179.3776022513374
 30
0.0
 11
338.1394097642122
 21
114.4276022513373
 31
0.0
  0
LINE
  5
264
330
1A
100
AcDbEntity
  8
SEIHIN
  6
CONTINUOUS
 62
     3
 48
5.0
100
AcDbLine
 10
271.6936097642122
 20
179.3776022513374
 30
0.0
 11
269.1396097642121
 21
114.4276022513373
 31
0.0
  0
TEXT
  5
265
330
1A
100
AcDbEntity
  8
SUNPOU
 62
     4
 48
5.0
100
AcDbText
 10
271.7835360441496
 20
22.24267365784396
 30
0.0
 40
4.0
  1
※b　はいとい用落とし口の差込み寸法を示す。
100
AcDbText
  0
TEXT
  5
266
330
1A
100
AcDbEntity
  8
SUNPOU
 62
     4
 48
5.0
100
AcDbText
 10
271.9463249760493
 20
28.6447592143204
 30
0.0
 40
4.0
  1
※a　たてといの差込み寸法を示す。
100
AcDbText
  0
TEXT
  5
267
330
1A
100
AcDbEntity
  8
ZUWAKU
 62
     7
100
AcDbText
 10
327.8709042195277
 20
7.766143294058458
 30
0.0
 40
4.0
  1
ＰＦ０４
100
AcDbText
  0
LINE
  5
26D
330
1A
100
AcDbEntity
  8
SEIHIN
  6
CONTINUOUS
 62
     3
 48
5.0
100
AcDbLine
 10
273.2895097642122
 20
136.4008022513374
 30
0.0
 11
303.6395097642121
 21
136.4008022513374
 31
0.0
  0
LINE
  5
26E
330
1A
100
AcDbEntity
  8
SEIHIN
  6
CONTINUOUS
 62
     3
 48
5.0
100
AcDbLine
 10
303.6395097642121
 20
126.0776022513374
 30
0.0
 11
283.1010097642122
 21
126.0776022513374
 31
0.0
  0
LINE
  5
26F
330
1A
100
AcDbEntity
  8
SEIHIN
  6
CONTINUOUS
 62
     3
 48
5.0
100
AcDbLine
 10
303.6395097642121
 20
124.4776022513374
 30
0.0
 11
279.5368097642122
 21
124.4776022513374
 31
0.0
  0
LINE
  5
270
330
1A
100
AcDbEntity
  8
SEIHIN
  6
CONTINUOUS
 62
     3
 48
5.0
100
AcDbLine
 10
303.6396097642121
 20
97.4276022513375
 30
0.0
 11
273.1895097642123
 21
97.4276022513375
 31
0.0
  0
LINE
  5
271
330
1A
100
AcDbEntity
  8
SEIHIN
  6
CONTINUOUS
 62
     3
 48
5.0
100
AcDbLine
 10
269.1396097642121
 20
114.4276022513373
 30
0.0
 11
303.6396097642121
 21
114.4276022513373
 31
0.0
  0
LINE
  5
272
330
1A
100
AcDbEntity
  8
SEIHIN
  6
CONTINUOUS
 62
     3
 48
5.0
100
AcDbLine
 10
303.6396097642121
 20
94.42760225133739
 30
0.0
 11
273.6895097642123
 21
94.42760225133739
 31
0.0
  0
LINE
  5
273
330
1A
100
AcDbEntity
  8
SEIHIN
  6
CONTINUOUS
 62
     3
 48
5.0
100
AcDbLine
 10
273.1895097642123
 20
97.4276022513375
 30
0.0
 11
273.1895097642123
 21
114.4276022513373
 31
0.0
  0
LINE
  5
274
330
1A
100
AcDbEntity
  8
SEIHIN
  6
CONTINUOUS
 62
     3
 48
5.0
100
AcDbLine
 10
273.1895097642123
 20
97.4276022513375
 30
0.0
 11
273.6895097642123
 21
94.42760225133739
 31
0.0
  0
ARC
  5
275
330
1A
100
AcDbEntity
  8
SEIHIN
  6
CONTINUOUS
 62
     3
 48
5.0
100
AcDbCircle
 10
268.6180886240984
 20
146.2839638114328
 30
0.0
 40
12.0621059434566
100
AcDbArc
 50
304.9795990227602
 51
357.4033836655126
  0
ARC
  5
276
330
1A
100
AcDbEntity
  8
SEIHIN
  6
CONTINUOUS
 62
     3
 48
5.0
100
AcDbCircle
 10
269.8868936949482
 20
124.4316183139583
 30
0.0
 40
9.00002738301953
100
AcDbArc
 50
5.739050184275606
 51
84.28441726553408
  0
ARC
  5
277
330
1A
100
AcDbEntity
  8
SEIHIN
  6
CONTINUOUS
 62
     3
 48
5.0
100
AcDbCircle
 10
271.6935373660742
 20
124.4775746592382
 30
0.0
 40
10.7000254390193
100
AcDbArc
 50
12.83983094284467
 51
77.18079196766041
  0
ARC
  5
278
330
1A
100
AcDbEntity
  8
SEIHIN
  6
CONTINUOUS
 62
     3
 48
5.0
100
AcDbCircle
 10
271.693488131195
 20
124.4776238756506
 30
0.0
 40
9.0000323627298
100
AcDbArc
 50
5.739011413132204
 51
84.28374504307695
  0
ARC
  5
279
330
1A
100
AcDbEntity
  8
SEIHIN
  6
CONTINUOUS
 62
     3
 48
5.0
100
AcDbCircle
 10
274.28952466899
 20
135.8859835736713
 30
0.0
 40
1.000014904952338
100
AcDbArc
 50
179.9989298645072
 51
257.1786648540359
  0
ARC
  5
27A
330
1A
100
AcDbEntity
  8
SEIHIN
  6
CONTINUOUS
 62
     3
 48
5.0
100
AcDbCircle
 10
270.8828458054134
 20
134.3818624226743
 30
0.0
 40
1.000036041994231
100
AcDbArc
 50
179.9977180679464
 51
264.2819942714405
  0
ARC
  5
27B
330
1A
100
AcDbEntity
  8
SEIHIN
  6
CONTINUOUS
 62
     3
 48
5.0
100
AcDbCircle
 10
272.6894960540244
 20
134.4279174024397
 30
0.0
 40
0.9999862899268931
100
AcDbArc
 50
180.0008681061131
 51
264.284573669125
  0
ARC
  5
27C
330
1A
100
AcDbEntity
  8
SEIHIN
  6
CONTINUOUS
 62
     3
 48
5.0
100
AcDbCircle
 10
279.8367028546293
 20
125.4316085012983
 30
0.0
 40
1.000006249984803
100
AcDbArc
 50
185.7394943855616
 51
270.0003958874742
  0
ARC
  5
27D
330
1A
100
AcDbEntity
  8
SEIHIN
  6
CONTINUOUS
 62
     3
 48
5.0
100
AcDbCircle
 10
283.1010104411228
 20
127.0776017113371
 30
0.0
 40
0.9999994599999533
100
AcDbArc
 50
192.8382578363186
 51
269.9999612158624
  0
ARC
  5
27E
330
1A
100
AcDbEntity
  8
SEIHIN
  6
CONTINUOUS
 62
     3
 48
5.0
100
AcDbCircle
 10
281.6434028546289
 20
125.4776085012983
 30
0.0
 40
1.000006249984771
100
AcDbArc
 50
185.7394943855599
 51
270.0003958874726
  0
LINE
  5
27F
330
1A
100
AcDbEntity
  8
SEIHIN
  6
CONTINUOUS
 62
     3
 48
5.0
100
AcDbLine
 10
334.0894097642122
 20
97.4276022513375
 30
0.0
 11
334.0894097642122
 21
114.4276022513373
 31
0.0
  0
LINE
  5
280
330
1A
100
AcDbEntity
  8
SEIHIN
  6
CONTINUOUS
 62
     3
 48
5.0
100
AcDbLine
 10
303.6394097642121
 20
94.42760225133739
 30
0.0
 11
333.5894097642122
 21
94.42760225133739
 31
0.0
  0
LINE
  5
281
330
1A
100
AcDbEntity
  8
SEIHIN
  6
CONTINUOUS
 62
     3
 48
5.0
100
AcDbLine
 10
303.6394097642121
 20
97.4276022513375
 30
0.0
 11
334.0894097642122
 21
97.4276022513375
 31
0.0
  0
LINE
  5
282
330
1A
100
AcDbEntity
  8
SEIHIN
  6
CONTINUOUS
 62
     3
 48
5.0
100
AcDbLine
 10
334.0894097642122
 20
97.4276022513375
 30
0.0
 11
333.5894097642122
 21
94.42760225133739
 31
0.0
  0
ARC
  5
283
330
1A
100
AcDbEntity
  8
SEIHIN
  6
CONTINUOUS
 62
     3
 48
5.0
100
AcDbCircle
 10
338.6608886799738
 20
146.2839405902323
 30
0.0
 40
12.06206271046385
100
AcDbArc
 50
182.5965152317296
 51
235.0205020799955
  0
LINE
  5
284
330
1A
100
AcDbEntity
  8
SEIHIN
  6
CONTINUOUS
 62
     3
 48
5.0
100
AcDbLine
 10
333.9895097642123
 20
136.4008022513374
 30
0.0
 11
303.6395097642121
 21
136.4008022513374
 31
0.0
  0
LINE
  5
285
330
1A
100
AcDbEntity
  8
SEIHIN
  6
CONTINUOUS
 62
     3
 48
5.0
100
AcDbLine
 10
303.6395097642121
 20
124.4776022513374
 30
0.0
 11
327.7422097642123
 21
124.4776022513374
 31
0.0
  0
ARC
  5
286
330
1A
100
AcDbEntity
  8
SEIHIN
  6
CONTINUOUS
 62
     3
 48
5.0
100
AcDbCircle
 10
335.5854821623502
 20
124.4775746592382
 30
0.0
 40
10.70002543901927
100
AcDbArc
 50
102.8192080323399
 51
167.1601690571555
  0
ARC
  5
287
330
1A
100
AcDbEntity
  8
SEIHIN
  6
CONTINUOUS
 62
     3
 48
5.0
100
AcDbCircle
 10
335.5855313972295
 20
124.4776238756507
 30
0.0
 40
9.000032362729745
100
AcDbArc
 50
95.71625495692325
 51
174.2609885868681
  0
LINE
  5
288
330
1A
100
AcDbEntity
  8
SEIHIN
  6
CONTINUOUS
 62
     3
 48
5.0
100
AcDbLine
 10
338.1394097642122
 20
114.4276022513373
 30
0.0
 11
303.6394097642121
 21
114.4276022513373
 31
0.0
  0
LINE
  5
289
330
1A
100
AcDbEntity
  8
SEIHIN
  6
CONTINUOUS
 62
     3
 48
5.0
100
AcDbLine
 10
303.6395097642121
 20
126.0776022513374
 30
0.0
 11
324.178009764212
 21
126.0776022513374
 31
0.0
  0
ARC
  5
28A
330
1A
100
AcDbEntity
  8
SEIHIN
  6
CONTINUOUS
 62
     3
 48
5.0
100
AcDbCircle
 10
324.1780230184211
 20
127.0776128237257
 30
0.0
 40
1.000010572476123
100
AcDbArc
 50
269.9992405977877
 51
347.1553577509052
  0
ARC
  5
28B
330
1A
100
AcDbEntity
  8
SEIHIN
  6
CONTINUOUS
 62
     3
 48
5.0
100
AcDbCircle
 10
332.9894948594345
 20
135.8859835736712
 30
0.0
 40
1.000014904952266
100
AcDbArc
 50
282.8213351459647
 51
0.0010701354964673
  0
ARC
  5
28C
330
1A
100
AcDbEntity
  8
SEIHIN
  6
CONTINUOUS
 62
     3
 48
5.0
100
AcDbCircle
 10
337.3922258107089
 20
124.4315182912005
 30
0.0
 40
9.000037362983606
100
AcDbArc
 50
95.7162160280183
 51
174.260316230897
  0
ARC
  5
28D
330
1A
100
AcDbEntity
  8
SEIHIN
  6
CONTINUOUS
 62
     3
 48
5.0
100
AcDbCircle
 10
327.4423166737954
 20
125.4315085012984
 30
0.0
 40
1.000006249984782
100
AcDbArc
 50
269.9996041125225
 51
354.260505614433
  0
ARC
  5
28E
330
1A
100
AcDbEntity
  8
SEIHIN
  6
CONTINUOUS
 62
     3
 48
5.0
100
AcDbCircle
 10
325.6356166737953
 20
125.4776085012984
 30
0.0
 40
1.000006249984903
100
AcDbArc
 50
269.9996041125192
 51
354.2605056144334
  0
ARC
  5
28F
330
1A
100
AcDbEntity
  8
SEIHIN
  6
CONTINUOUS
 62
     3
 48
5.0
100
AcDbCircle
 10
334.5895234744001
 20
134.4279174024397
 30
0.0
 40
0.9999862899268718
100
AcDbArc
 50
275.7154263308717
 51
359.9991318938869
  0
ARC
  5
290
330
1A
100
AcDbEntity
  8
SEIHIN
  6
CONTINUOUS
 62
     3
 48
5.0
100
AcDbCircle
 10
336.3962234744001
 20
134.3818174024395
 30
0.0
 40
0.9999862899268132
100
AcDbArc
 50
275.7154263308688
 51
359.9991318938834
  0
LINE
  5
297
330
1A
100
AcDbEntity
  8
SEIHIN
  6
CONTINUOUS
 62
     3
 48
5.0
100
AcDbLine
 10
303.6395097642121
 20
186.7776022513374
 30
0.0
 11
283.101109764212
 21
186.7776022513374
 31
0.0
  0
LINE
  5
298
330
1A
100
AcDbEntity
  8
SEIHIN
  6
CONTINUOUS
 62
     3
 48
5.0
100
AcDbLine
 10
303.6395097642121
 20
188.3776022513374
 30
0.0
 11
281.6435097642123
 21
188.3776022513374
 31
0.0
  0
LINE
  5
299
330
1A
100
AcDbEntity
  8
CENTER_L
  6
CENTER
 62
     1
 48
5.0
100
AcDbLine
 10
303.6396097642121
 20
156.4276022513372
 30
0.0
 11
265.4319097642122
 21
156.4276022513372
 31
0.0
  0
LINE
  5
29A
330
1A
100
AcDbEntity
  8
SEIHIN
  6
CONTINUOUS
 62
     3
 48
5.0
100
AcDbLine
 10
271.6895097642123
 20
156.4276022513372
 30
0.0
 11
271.6895097642123
 21
178.4274022513374
 31
0.0
  0
LINE
  5
29B
330
1A
100
AcDbEntity
  8
SEIHIN
  6
CONTINUOUS
 62
     3
 48
5.0
100
AcDbLine
 10
273.2895097642122
 20
156.4276022513372
 30
0.0
 11
273.2895097642122
 21
176.9692022513374
 31
0.0
  0
ARC
  5
29C
330
1A
100
AcDbEntity
  8
SEIHIN
  6
CONTINUOUS
 62
     3
 48
5.0
100
AcDbCircle
 10
271.6936373660742
 20
188.3776298434365
 30
0.0
 40
10.70002543901929
100
AcDbArc
 50
282.8192080323395
 51
347.1601690571553
  0
ARC
  5
29D
330
1A
100
AcDbEntity
  8
SEIHIN
  6
CONTINUOUS
 62
     3
 48
5.0
100
AcDbCircle
 10
271.6936492813493
 20
188.3776417521814
 30
0.0
 40
8.999977631673155
100
AcDbArc
 50
275.715258792214
 51
354.2605624731046
  0
ARC
  5
29E
330
1A
100
AcDbEntity
  8
SEIHIN
  6
CONTINUOUS
 62
     3
 48
5.0
100
AcDbCircle
 10
272.6894960540242
 20
178.4273871002351
 30
0.0
 40
0.9999862899268125
100
AcDbArc
 50
95.71542633087045
 51
179.9991318938836
  0
ARC
  5
29F
330
1A
100
AcDbEntity
  8
SEIHIN
  6
CONTINUOUS
 62
     3
 48
5.0
100
AcDbCircle
 10
274.2895135766976
 20
176.9692070284102
 30
0.0
 40
1.000003812496844
100
AcDbArc
 50
102.8149520132018
 51
180.0002737050665
  0
ARC
  5
2A0
330
1A
100
AcDbEntity
  8
SEIHIN
  6
CONTINUOUS
 62
     3
 48
5.0
100
AcDbCircle
 10
283.1010104411228
 20
185.7776027913376
 30
0.0
 40
0.9999994599999997
100
AcDbArc
 50
90.00003878414075
 51
167.1617421636854
  0
ARC
  5
2A1
330
1A
100
AcDbEntity
  8
SEIHIN
  6
CONTINUOUS
 62
     3
 48
5.0
100
AcDbCircle
 10
281.6435028546291
 20
187.3775960013763
 30
0.0
 40
1.00000624998496
100
AcDbArc
 50
89.99960411252571
 51
174.2605056144372
  0
ARC
  5
2A2
330
1A
100
AcDbEntity
  8
SEIHIN
  6
CONTINUOUS
 62
     3
 48
5.0
100
AcDbCircle
 10
335.5854821623502
 20
188.3776298434364
 30
0.0
 40
10.7000254390193
100
AcDbArc
 50
192.8398309428444
 51
257.18079196766
  0
LINE
  5
2A3
330
1A
100
AcDbEntity
  8
SEIHIN
  6
CONTINUOUS
 62
     3
 48
5.0
100
AcDbLine
 10
303.6396097642121
 20
188.3776022513374
 30
0.0
 11
325.6356097642119
 21
188.3776022513374
 31
0.0
  0
ARC
  5
2A4
330
1A
100
AcDbEntity
  8
SEIHIN
  6
CONTINUOUS
 62
     3
 48
5.0
100
AcDbCircle
 10
335.5855313972295
 20
188.3775806270241
 30
0.0
 40
9.000032362729767
100
AcDbArc
 50
185.7390114131318
 51
264.2837450430767
  0
LINE
  5
2A5
330
1A
100
AcDbEntity
  8
CENTER_L
  6
CENTER
 62
     1
 48
5.0
100
AcDbLine
 10
303.6395097642121
 20
156.4276022513372
 30
0.0
 11
341.8471097642121
 21
156.4276022513372
 31
0.0
  0
LINE
  5
2A6
330
1A
100
AcDbEntity
  8
SEIHIN
  6
CONTINUOUS
 62
     3
 48
5.0
100
AcDbLine
 10
303.6396097642121
 20
186.7776022513374
 30
0.0
 11
324.178009764212
 21
186.7776022513374
 31
0.0
  0
ARC
  5
2A7
330
1A
100
AcDbEntity
  8
SEIHIN
  6
CONTINUOUS
 62
     3
 48
5.0
100
AcDbCircle
 10
324.1780090873015
 20
185.7776027913375
 30
0.0
 40
0.9999994600001315
100
AcDbArc
 50
12.83825783631943
 51
89.99996121586251
  0
LINE
  5
2A8
330
1A
100
AcDbEntity
  8
SEIHIN
  6
CONTINUOUS
 62
     3
 48
5.0
100
AcDbLine
 10
333.9895097642123
 20
156.4276022513372
 30
0.0
 11
333.9895097642123
 21
176.9692022513374
 31
0.0
  0
LINE
  5
2A9
330
1A
100
AcDbEntity
  8
SEIHIN
  6
CONTINUOUS
 62
     3
 48
5.0
100
AcDbLine
 10
335.589509764212
 20
156.4276022513372
 30
0.0
 11
335.589509764212
 21
178.4273022513373
 31
0.0
  0
ARC
  5
2AA
330
1A
100
AcDbEntity
  8
SEIHIN
  6
CONTINUOUS
 62
     3
 48
5.0
100
AcDbCircle
 10
332.9894948594345
 20
176.9692209290036
 30
0.0
 40
1.000014904952167
100
AcDbArc
 50
359.9989298645063
 51
77.17866485404073
  0
ARC
  5
2AB
330
1A
100
AcDbEntity
  8
SEIHIN
  6
CONTINUOUS
 62
     3
 48
5.0
100
AcDbCircle
 10
334.5895234744001
 20
178.427287100235
 30
0.0
 40
0.9999862899268363
100
AcDbArc
 50
0.0008681061130897
 51
84.28457366912823
  0
ARC
  5
2AC
330
1A
100
AcDbEntity
  8
SEIHIN
  6
CONTINUOUS
 62
     3
 48
5.0
100
AcDbCircle
 10
325.6356166737951
 20
187.3775960013763
 30
0.0
 40
1.000006249984976
100
AcDbArc
 50
5.739494385562718
 51
90.00039588747428
  0
DIMENSION
  5
3A5
330
1A
100
AcDbEntity
  8
SUNPOU
 48
5.0
100
AcDbDimension
  2
*D1
 10
338.0328909471387
 20
74.49951363081993
 30
0.0
 11
303.5862503556754
 21
76.99951363081993
 31
0.0
 70
    32
  3
STANDARD
100
AcDbAlignedDimension
 13
269.1396097642121
 23
114.4276022513373
 33
0.0
 14
338.0328909471387
 24
117.1365560744795
 34
0.0
100
AcDbRotatedDimension
1001
ACAD
1000
DSTYLE
1002
{
1070
   372
1070
    -1
1070
   371
1070
    -1
1070
    41
1040
3.0
1070
    42
1040
3.0
1070
    43
1040
7.0
1070
    44
1040
1.5
1070
    73
1070
     0
1070
    74
1070
     0
1070
    77
1070
     3
1070
   140
1040
3.0
1070
   141
1040
150.0
1070
   147
1040
1.0
1070
   172
1070
     1
1070
   173
1070
     1
1070
   176
1070
   256
1070
   177
1070
   256
1070
   178
1070
   256
1070
   271
1070
     0
1070
   272
1070
     2
1070
     6
1000
OPEN
1070
     7
1000
OPEN
1002
}
  0
DIMENSION
  5
3B2
330
1A
100
AcDbEntity
  8
SUNPOU
 48
5.0
100
AcDbDimension
  2
*D2
 10
335.5895097642121
 20
204.0301068963078
 30
0.0
 11
303.6395097642122
 21
206.5301068963078
 31
0.0
 70
    32
  3
STANDARD
100
AcDbAlignedDimension
 13
271.6895097642123
 23
178.4274022513374
 33
0.0
 14
335.5895097642121
 24
178.4273022513372
 34
0.0
100
AcDbRotatedDimension
1001
ACAD
1000
DSTYLE
1002
{
1070
   372
1070
    -1
1070
   371
1070
    -1
1070
    41
1040
3.0
1070
    42
1040
3.0
1070
    43
1040
7.0
1070
    44
1040
1.5
1070
    73
1070
     0
1070
    74
1070
     0
1070
    77
1070
     3
1070
   140
1040
3.0
1070
   141
1040
150.0
1070
   147
1040
1.0
1070
   172
1070
     1
1070
   173
1070
     1
1070
   176
1070
   256
1070
   177
1070
   256
1070
   178
1070
   256
1070
   271
1070
     0
1070
   272
1070
     2
1070
     6
1000
OPEN
1070
     7
1000
OPEN
1002
}
  0
DIMENSION
  5
3BF
330
1A
100
AcDbEntity
  8
SUNPOU
 48
5.0
100
AcDbDimension
  2
*D3
 10
108.0233687582651
 20
74.49951363081993
 30
0.0
 11
130.7966381260997
 21
76.99951363081993
 31
0.0
 70
    32
  3
STANDARD
100
AcDbAlignedDimension
 13
153.5699074939342
 23
116.6043152774514
 33
0.0
 14
108.0233687582651
 24
116.0181056652983
 34
0.0
100
AcDbRotatedDimension
1001
ACAD
1000
DSTYLE
1002
{
1070
   372
1070
    -1
1070
   371
1070
    -1
1070
    41
1040
3.0
1070
    42
1040
3.0
1070
    43
1040
7.0
1070
    44
1040
1.5
1070
    73
1070
     0
1070
    74
1070
     0
1070
    77
1070
     3
1070
   140
1040
3.0
1070
   141
1040
150.0
1070
   147
1040
1.0
1070
   172
1070
     1
1070
   173
1070
     1
1070
   176
1070
   256
1070
   177
1070
   256
1070
   178
1070
   256
1070
   271
1070
     0
1070
   272
1070
     2
1070
     6
1000
OPEN
1070
     7
1000
OPEN
1002
}
  0
DIMENSION
  5
3CC
330
1A
100
AcDbEntity
  8
SUNPOU
 48
5.0
100
AcDbDimension
  2
*D4
 10
204.7698514850612
 20
124.4276022513373
 30
0.0
 11
202.2698514850612
 21
156.4276022513373
 31
0.0
 70
    32
  3
STANDARD
100
AcDbAlignedDimension
 13
177.5914843643102
 23
188.4276022513372
 33
0.0
 14
177.5913843643102
 24
124.4276022513373
 34
0.0
 50
90.0
100
AcDbRotatedDimension
1001
ACAD
1000
DSTYLE
1002
{
1070
   372
1070
    -1
1070
   371
1070
    -1
1070
    41
1040
3.0
1070
    42
1040
3.0
1070
    43
1040
7.0
1070
    44
1040
1.5
1070
    73
1070
     0
1070
    74
1070
     0
1070
    77
1070
     3
1070
   140
1040
3.0
1070
   141
1040
150.0
1070
   147
1040
1.0
1070
   172
1070
     1
1070
   173
1070
     1
1070
   176
1070
   256
1070
   177
1070
   256
1070
   178
1070
   256
1070
   271
1070
     0
1070
   272
1070
     2
1070
     6
1000
OPEN
1070
     7
1000
OPEN
1002
}
  0
DIMENSION
  5
3E6
330
1A
100
AcDbEntity
  8
SUNPOU
 48
5.0
100
AcDbDimension
  2
*D5
 10
216.0290131052041
 20
94.40070225133743
 30
0.0
 11
216.029013105204
 21
141.4141522513373
 31
0.0
 70
   160
  3
STANDARD
100
AcDbAlignedDimension
 13
177.5914843643102
 23
188.4276022513372
 33
0.0
 14
148.4448843643101
 24
94.40070225133743
 34
0.0
 50
90.0
100
AcDbRotatedDimension
1001
ACAD
1000
DSTYLE
1002
{
1070
   372
1070
    -1
1070
   371
1070
    -1
1070
    41
1040
3.0
1070
    42
1040
3.0
1070
    43
1040
7.0
1070
    44
1040
1.5
1070
    73
1070
     0
1070
    74
1070
     0
1070
    77
1070
     3
1070
   140
1040
3.0
1070
   141
1040
150.0
1070
   147
1040
1.0
1070
   172
1070
     1
1070
   173
1070
     1
1070
   176
1070
   256
1070
   177
1070
   256
1070
   178
1070
   256
1070
   271
1070
     0
1070
   272
1070
     2
1070
     6
1000
OPEN
1070
     7
1000
OPEN
1002
}
  0
DIMENSION
  5
3F5
330
1A
100
AcDbEntity
  8
SUNPOU
 48
5.0
100
AcDbDimension
  2
*D6
 10
177.5914843643102
 20
205.0870413010424
 30
0.0
 11
165.0914843643254
 21
207.5870413010424
 31
0.0
 70
    32
  1
※a <>
  3
STANDARD
100
AcDbAlignedDimension
 13
152.5914843643407
 23
188.4276413138372
 33
0.0
 14
177.5914843643102
 24
188.4276022513372
 34
0.0
100
AcDbRotatedDimension
1001
ACAD
1000
DSTYLE
1002
{
1070
   372
1070
    -1
1070
   371
1070
    -1
1070
    41
1040
3.0
1070
    42
1040
3.0
1070
    43
1040
7.0
1070
    44
1040
1.5
1070
    73
1070
     0
1070
    74
1070
     0
1070
    77
1070
     3
1070
   140
1040
3.0
1070
   141
1040
150.0
1070
   147
1040
1.0
1070
   172
1070
     1
1070
   173
1070
     1
1070
   176
1070
   256
1070
   177
1070
   256
1070
   178
1070
   256
1070
   271
1070
     0
1070
   272
1070
     2
1070
     6
1000
OPEN
1070
     7
1000
OPEN
1002
}
  0
DIMENSION
  5
40F
330
1A
100
AcDbEntity
  8
SUNPOU
 48
5.0
100
AcDbDimension
  2
*D7
 10
177.5914843643102
 20
215.1140962418509
 30
0.0
 11
154.2057209609877
 21
217.6140962418509
 31
0.0
 70
    32
  3
STANDARD
100
AcDbAlignedDimension
 13
130.8199575576652
 23
163.4276627687092
 33
0.0
 14
177.5914843643102
 24
188.4276022513372
 34
0.0
100
AcDbRotatedDimension
1001
ACAD
1000
DSTYLE
1002
{
1070
   372
1070
    -1
1070
   371
1070
    -1
1070
    41
1040
3.0
1070
    42
1040
3.0
1070
    43
1040
7.0
1070
    44
1040
1.5
1070
    73
1070
     0
1070
    74
1070
     0
1070
    77
1070
     3
1070
   140
1040
3.0
1070
   141
1040
150.0
1070
   147
1040
1.0
1070
   172
1070
     1
1070
   173
1070
     1
1070
   176
1070
   256
1070
   177
1070
   256
1070
   178
1070
   256
1070
   271
1070
     0
1070
   272
1070
     2
1070
     6
1000
OPEN
1070
     7
1000
OPEN
1002
}
  0
DIMENSION
  5
41C
330
1A
100
AcDbEntity
  8
SUNPOU
 48
5.0
100
AcDbDimension
  2
*D8
 10
177.5914843643102
 20
224.4652250072346
 30
0.0
 11
142.5695843643101
 21
226.9652250072346
 31
0.0
 70
    32
  3
STANDARD
100
AcDbAlignedDimension
 13
107.54768436431
 23
152.9773022513374
 33
0.0
 14
177.5914843643102
 24
188.4276022513372
 34
0.0
100
AcDbRotatedDimension
1001
ACAD
1000
DSTYLE
1002
{
1070
   372
1070
    -1
1070
   371
1070
    -1
1070
    41
1040
3.0
1070
    42
1040
3.0
1070
    43
1040
7.0
1070
    44
1040
1.5
1070
    73
1070
     0
1070
    74
1070
     0
1070
    77
1070
     3
1070
   140
1040
3.0
1070
   141
1040
150.0
1070
   147
1040
1.0
1070
   172
1070
     1
1070
   173
1070
     1
1070
   176
1070
   256
1070
   177
1070
   256
1070
   178
1070
   256
1070
   271
1070
     0
1070
   272
1070
     2
1070
     6
1000
OPEN
1070
     7
1000
OPEN
1002
}
  0
DIMENSION
  5
429
330
1A
100
AcDbEntity
  8
SUNPOU
 48
5.0
100
AcDbDimension
  2
*D9
 10
90.43032259459119
 20
94.40080225133742
 30
0.0
 11
87.93032259459117
 21
109.4008022513374
 31
0.0
 70
    32
  1
※b <>
  3
STANDARD
100
AcDbAlignedDimension
 13
108.0698843643101
 23
124.4008022513374
 33
0.0
 14
113.1948843643101
 24
94.40080225133741
 34
0.0
 50
90.0
100
AcDbRotatedDimension
1001
ACAD
1000
DSTYLE
1002
{
1070
   372
1070
    -1
1070
   371
1070
    -1
1070
    41
1040
3.0
1070
    42
1040
3.0
1070
    43
1040
7.0
1070
    44
1040
1.5
1070
    73
1070
     0
1070
    74
1070
     0
1070
    77
1070
     3
1070
   140
1040
3.0
1070
   141
1040
150.0
1070
   147
1040
1.0
1070
   172
1070
     1
1070
   173
1070
     1
1070
   176
1070
   256
1070
   177
1070
   256
1070
   178
1070
   256
1070
   271
1070
     0
1070
   272
1070
     2
1070
     6
1000
OPEN
1070
     7
1000
OPEN
1002
}
  0
DIMENSION
  5
47F
330
1A
100
AcDbEntity
  8
SUNPOU
 48
5.0
100
AcDbDimension
  2
*D10
 10
204.7698514850612
 20
114.4008022513374
 30
0.0
 11
202.2698514850612
 21
119.4142022513374
 31
0.0
 70
    32
  3
STANDARD
100
AcDbAlignedDimension
 13
177.5913843643102
 23
124.4276022513373
 33
0.0
 14
153.5698843643101
 24
114.4008022513374
 34
0.0
 50
90.0
100
AcDbRotatedDimension
1001
ACAD
1000
DSTYLE
1002
{
1070
   372
1070
    -1
1070
   371
1070
    -1
1070
    41
1040
3.0
1070
    42
1040
3.0
1070
    43
1040
7.0
1070
    44
1040
1.5
1070
    73
1070
     0
1070
    74
1070
     0
1070
    77
1070
     3
1070
   140
1040
3.0
1070
   141
1040
150.0
1070
   147
1040
1.0
1070
   172
1070
     1
1070
   173
1070
     1
1070
   176
1070
   256
1070
   177
1070
   256
1070
   178
1070
   256
1070
   271
1070
     0
1070
   272
1070
     2
1070
     6
1000
OPEN
1070
     7
1000
OPEN
1002
}
  0
VIEWPORT
  5
22
330
17
100
AcDbEntity
 67
     1
  8
0
100
AcDbViewport
 10
313.6808219178082
 20
148.5
 30
0.0
 40
627.3616438356165
 41
297.0
 68
     2
 69
     1
1001
ACAD
1000
MVIEW
1002
{
1070
    16
1010
0.0
1020
0.0
1030
0.0
1010
0.0
1020
0.0
1030
1.0
1040
0.0
1040
297.0
1040
313.6808219178082
1040
148.5
1040
50.0
1040
0.0
1040
0.0
1070
     0
1070
   100
1070
     1
1070
     0
1070
     0
1070
     0
1070
     0
1070
     0
1040
0.0
1040
0.0
1040
0.0
1040
1.0
1040
1.0
1040
10.0
1040
10.0
1070
     0
1002
{
1002
}
1002
}
  0
VIEWPORT
  5
64
330
17
100
AcDbEntity
 67
     1
  8
VIEWPORT
100
AcDbViewport
 10
210.0
 20
148.5
 30
0.0
 40
420.0
 41
297.0
 68
     1
 69
     2
1001
ACAD
1000
MVIEW
1002
{
1070
    16
1010
0.0
1020
0.0
1030
0.0
1010
0.0
1020
0.0
1030
1.0
1040
0.0
1040
302.9399999999998
1040
210.0
1040
148.5
1040
50.0
1040
0.0
1040
0.0
1070
     0
1070
   100
1070
     1
1070
     0
1070
     0
1070
     0
1070
     0
1070
     0
1040
0.0
1040
0.0
1040
0.0
1040
5.0
1040
5.0
1040
0.0
1040
0.0
1070
     0
1002
{
1002
}
1002
}
  0
ENDSEC
  0
SECTION
  2
OBJECTS
  0
DICTIONARY
  5
C
330
0
100
AcDbDictionary
  3
ACAD_GROUP
350
D
  3
ACAD_LAYOUT
350
4FD
  3
ACAD_MLINESTYLE
350
E
  3
ACAD_PLOTSETTINGS
350
4FE
1001
ACAD
1000
TREAT_AS_HARD
1070
     0
  0
DICTIONARY
  5
748
330
1A
100
AcDbDictionary
  3
ACAD_LAYOUTSELFREF
350
81A
1001
ACAD
1000
TREAT_AS_HARD
1070
     1
  0
DICTIONARY
  5
746
330
17
100
AcDbDictionary
  3
ACAD_LAYOUTSELFREF
350
819
1001
ACAD
1000
TREAT_AS_HARD
1070
     1
  0
DICTIONARY
  5
D
102
{ACAD_REACTORS
330
C
102
}
330
C
100
AcDbDictionary
1001
ACAD
1000
TREAT_AS_HARD
1070
     0
  0
DICTIONARY
  5
4FD
102
{ACAD_REACTORS
330
C
102
}
330
C
100
AcDbDictionary
1001
ACAD
1000
TREAT_AS_HARD
1070
     0
  0
DICTIONARY
  5
E
102
{ACAD_REACTORS
330
C
102
}
330
C
100
AcDbDictionary
  3
STANDARD
350
13
1001
ACAD
1000
TREAT_AS_HARD
1070
     0
  0
DICTIONARY
  5
4FE
102
{ACAD_REACTORS
330
C
102
}
330
C
100
AcDbDictionary
1001
ACAD
1000
TREAT_AS_HARD
1070
     0
  0
XRECORD
  5
81A
102
{ACAD_REACTORS
330
748
102
}
330
748
100
AcDbXrecord
340
1A
  0
XRECORD
  5
819
102
{ACAD_REACTORS
330
746
102
}
330
746
100
AcDbXrecord
340
17
  0
MLINESTYLE
  5
13
102
{ACAD_REACTORS
330
E
102
}
330
E
100
AcDbMlineStyle
  2
STANDARD
 70
     0
  3

 62
     0
 51
90.0
 52
90.0
 71
     2
 49
0.5
 62
   256
  6
BYLAYER
 49
-0.5
 62
   256
  6
BYLAYER
  0
ENDSEC
  0
EOF
