  0
SECTION
  2
HEADER
  9
$ACADVER
  1
AC1012
  9
$DWGCODEPAGE
  3
dos932
  9
$INSBASE
 10
0.0
 20
0.0
 30
0.0
  9
$EXTMIN
 10
5.0
 20
2.449000558492456
 30
0.0
  9
$EXTMAX
 10
403.0
 20
282.0
 30
0.0
  9
$LIMMIN
 10
0.0
 20
0.0
  9
$LIMMAX
 10
420.0
 20
297.0
  9
$ORTHOMODE
 70
     0
  9
$REGENMODE
 70
     1
  9
$FILLMODE
 70
     1
  9
$QTEXTMODE
 70
     0
  9
$MIRRTEXT
 70
     1
  9
$DRAGMODE
 70
     2
  9
$LTSCALE
 40
1.0
  9
$OSMODE
 70
    37
  9
$ATTMODE
 70
     1
  9
$TEXTSIZE
 40
2.5
  9
$TRACEWID
 40
1.0
  9
$TEXTSTYLE
  7
STANDARD
  9
$CLAYER
  8
ZUWAKU
  9
$CELTYPE
  6
BYLAYER
  9
$CECOLOR
 62
   256
  9
$CELTSCALE
 40
1.0
  9
$DELOBJ
 70
     1
  9
$DISPSILH
 70
     0
  9
$DIMSCALE
 40
1.0
  9
$DIMASZ
 40
3.0
  9
$DIMEXO
 40
3.0
  9
$DIMDLI
 40
7.0
  9
$DIMRND
 40
0.0
  9
$DIMDLE
 40
0.0
  9
$DIMEXE
 40
1.5
  9
$DIMTP
 40
0.0
  9
$DIMTM
 40
0.0
  9
$DIMTXT
 40
3.0
  9
$DIMCEN
 40
150.0
  9
$DIMTSZ
 40
0.0
  9
$DIMTOL
 70
     0
  9
$DIMLIM
 70
     0
  9
$DIMTIH
 70
     0
  9
$DIMTOH
 70
     0
  9
$DIMSE1
 70
     0
  9
$DIMSE2
 70
     0
  9
$DIMTAD
 70
     3
  9
$DIMZIN
 70
     0
  9
$DIMBLK
  1

  9
$DIMASO
 70
     1
  9
$DIMSHO
 70
     1
  9
$DIMPOST
  1

  9
$DIMAPOST
  1

  9
$DIMALT
 70
     0
  9
$DIMALTD
 70
     2
  9
$DIMALTF
 40
25.4
  9
$DIMLFAC
 40
1.0
  9
$DIMTOFL
 70
     1
  9
$DIMTVP
 40
0.0
  9
$DIMTIX
 70
     0
  9
$DIMSOXD
 70
     0
  9
$DIMSAH
 70
     1
  9
$DIMBLK1
  1
OPEN
  9
$DIMBLK2
  1
OPEN
  9
$DIMSTYLE
  2
STANDARD
  9
$DIMCLRD
 70
   256
  9
$DIMCLRE
 70
   256
  9
$DIMCLRT
 70
   256
  9
$DIMTFAC
 40
1.0
  9
$DIMGAP
 40
1.0
  9
$DIMJUST
 70
     0
  9
$DIMSD1
 70
     0
  9
$DIMSD2
 70
     0
  9
$DIMTOLJ
 70
     1
  9
$DIMTZIN
 70
     0
  9
$DIMALTZ
 70
     0
  9
$DIMALTTZ
 70
     0
  9
$DIMFIT
 70
     3
  9
$DIMUPT
 70
     0
  9
$DIMUNIT
 70
     2
  9
$DIMDEC
 70
     0
  9
$DIMTDEC
 70
     0
  9
$DIMALTU
 70
     2
  9
$DIMALTTD
 70
     2
  9
$DIMTXSTY
  7
STANDARD
  9
$DIMAUNIT
 70
     0
  9
$LUNITS
 70
     2
  9
$LUPREC
 70
     4
  9
$SKETCHINC
 40
1.0
  9
$FILLETRAD
 40
10.0
  9
$AUNITS
 70
     0
  9
$AUPREC
 70
     0
  9
$MENU
  1
.
  9
$ELEVATION
 40
0.0
  9
$PELEVATION
 40
0.0
  9
$THICKNESS
 40
0.0
  9
$LIMCHECK
 70
     0
  9
$BLIPMODE
 70
     0
  9
$CHAMFERA
 40
10.0
  9
$CHAMFERB
 40
10.0
  9
$CHAMFERC
 40
20.0
  9
$CHAMFERD
 40
0.0
  9
$SKPOLY
 70
     0
  9
$TDCREATE
 40
2451070.734084838
  9
$TDUPDATE
 40
2452393.841713043
  9
$TDINDWG
 40
0.0098035532
  9
$TDUSRTIMER
 40
0.0098035532
  9
$USRTIMER
 70
     1
  9
$ANGBASE
 50
0.0
  9
$ANGDIR
 70
     0
  9
$PDMODE
 70
     0
  9
$PDSIZE
 40
0.0
  9
$PLINEWID
 40
0.0
  9
$COORDS
 70
     1
  9
$SPLFRAME
 70
     0
  9
$SPLINETYPE
 70
     6
  9
$SPLINESEGS
 70
     8
  9
$ATTDIA
 70
     0
  9
$ATTREQ
 70
     1
  9
$HANDLING
 70
 10241
  9
$HANDSEED
  5
5DE
  9
$SURFTAB1
 70
     6
  9
$SURFTAB2
 70
     6
  9
$SURFTYPE
 70
     6
  9
$SURFU
 70
     6
  9
$SURFV
 70
     6
  9
$UCSNAME
  2

  9
$UCSORG
 10
0.0
 20
0.0
 30
0.0
  9
$UCSXDIR
 10
1.0
 20
0.0
 30
0.0
  9
$UCSYDIR
 10
0.0
 20
1.0
 30
0.0
  9
$PUCSNAME
  2

  9
$PUCSORG
 10
0.0
 20
0.0
 30
0.0
  9
$PUCSXDIR
 10
1.0
 20
0.0
 30
0.0
  9
$PUCSYDIR
 10
0.0
 20
1.0
 30
0.0
  9
$USERI1
 70
     0
  9
$USERI2
 70
     0
  9
$USERI3
 70
     0
  9
$USERI4
 70
     0
  9
$USERI5
 70
     0
  9
$USERR1
 40
0.0
  9
$USERR2
 40
0.0
  9
$USERR3
 40
0.0
  9
$USERR4
 40
0.0
  9
$USERR5
 40
0.0
  9
$WORLDVIEW
 70
     1
  9
$SHADEDGE
 70
     3
  9
$SHADEDIF
 70
    70
  9
$TILEMODE
 70
     1
  9
$MAXACTVP
 70
    16
  9
$PINSBASE
 10
0.0
 20
0.0
 30
0.0
  9
$PLIMCHECK
 70
     0
  9
$PEXTMIN
 10
0.0
 20
0.0
 30
0.0
  9
$PEXTMAX
 10
420.0
 20
297.0
 30
0.0
  9
$PLIMMIN
 10
0.0
 20
0.0
  9
$PLIMMAX
 10
420.0
 20
297.0
  9
$UNITMODE
 70
     0
  9
$VISRETAIN
 70
     0
  9
$PLINEGEN
 70
     0
  9
$PSLTSCALE
 70
     1
  9
$TREEDEPTH
 70
  3020
  9
$PICKSTYLE
 70
     1
  9
$CMLSTYLE
  2
STANDARD
  9
$CMLJUST
 70
     0
  9
$CMLSCALE
 40
1.0
  9
$SAVEIMAGES
 70
     1
  0
ENDSEC
  0
SECTION
  2
CLASSES
  0
CLASS
  1
ACDBDICTIONARYWDFLT
  2
AcDbDictionaryWithDefault
  3
AutoCAD 2000
 90
    32768
280
     0
281
     0
  0
CLASS
  1
ACDBPLACEHOLDER
  2
AcDbPlaceHolder
  3
AutoCAD 2000
 90
    32768
280
     0
281
     0
  0
CLASS
  1
LAYOUT
  2
AcDbLayout
  3
AutoCAD 2000
 90
    32768
280
     0
281
     0
  0
CLASS
  1
LONG_TRANSACTION
  2
AcDbLongTransaction
  3
AutoCAD 2000
 90
    32768
280
     0
281
     0
  0
CLASS
  1
LWPOLYLINE
  2
AcDbPolyline
  3
AutoCAD 2000
 90
    32768
280
     0
281
     1
  0
CLASS
  1
HATCH
  2
AcDbHatch
  3
AutoCAD 2000
 90
    32768
280
     0
281
     1
  0
CLASS
  1
XRECORD
  2
AcDbXrecord
  3
AutoCAD 2000
 90
    32768
280
     0
281
     0
  0
CLASS
  1
LONG_TRANSACTION
  2
AcDbLongTransaction
  3
AutoCAD 2000
 90
    32768
280
     0
281
     0
  0
CLASS
  1
LWPOLYLINE
  2
AcDbPolyline
  3
AutoCAD 2000
 90
    32768
280
     0
281
     1
  0
CLASS
  1
HATCH
  2
AcDbHatch
  3
AutoCAD 2000
 90
    32768
280
     0
281
     1
  0
CLASS
  1
XRECORD
  2
AcDbXrecord
  3
AutoCAD 2000
 90
    32768
280
     0
281
     0
  0
CLASS
  1
LONG_TRANSACTION
  2
AcDbLongTransaction
  3
AutoCAD 2000
 90
    32768
280
     0
281
     0
  0
CLASS
  1
LWPOLYLINE
  2
AcDbPolyline
  3
AutoCAD 2000
 90
    32768
280
     0
281
     1
  0
CLASS
  1
HATCH
  2
AcDbHatch
  3
AutoCAD 2000
 90
    32768
280
     0
281
     1
  0
CLASS
  1
XRECORD
  2
AcDbXrecord
  3
AutoCAD 2000
 90
    32768
280
     0
281
     0
  0
CLASS
  1
LONG_TRANSACTION
  2
AcDbLongTransaction
  3
AutoCAD 2000
 90
    32768
280
     0
281
     0
  0
CLASS
  1
LWPOLYLINE
  2
AcDbPolyline
  3
AutoCAD 2000
 90
    32768
280
     0
281
     1
  0
CLASS
  1
HATCH
  2
AcDbHatch
  3
AutoCAD 2000
 90
    32768
280
     0
281
     1
  0
CLASS
  1
XRECORD
  2
AcDbXrecord
  3
AutoCAD 2000
 90
    32768
280
     0
281
     0
  0
ENDSEC
  0
SECTION
  2
TABLES
  0
TABLE
  2
VPORT
  5
8
330
0
100
AcDbSymbolTable
 70
     2
  0
VPORT
  5
5DB
330
8
100
AcDbSymbolTableRecord
100
AcDbViewportTableRecord
  2
*ACTIVE
 70
     0
 10
0.0
 20
0.0
 11
1.0
 21
1.0
 12
293.1041199332113
 22
158.54822480711
 13
0.0
 23
0.0
 14
5.0
 24
5.0
 15
0.0
 25
0.0
 16
0.0
 26
0.0
 36
1.0
 17
0.0
 27
0.0
 37
0.0
 40
332.7710048284825
 41
2.169459962756052
 42
50.0
 43
0.0
 44
0.0
 50
0.0
 51
0.0
 71
     0
 72
   100
 73
     1
 74
     0
 75
     0
 76
     0
 77
     0
 78
     0
  0
ENDTAB
  0
TABLE
  2
LTYPE
  5
5
330
0
100
AcDbSymbolTable
 70
     2
  0
LTYPE
  5
14
330
5
100
AcDbSymbolTableRecord
100
AcDbLinetypeTableRecord
  2
BYBLOCK
 70
     0
  3

 72
    65
 73
     0
 40
0.0
  0
LTYPE
  5
15
330
5
100
AcDbSymbolTableRecord
100
AcDbLinetypeTableRecord
  2
BYLAYER
 70
     0
  3

 72
    65
 73
     0
 40
0.0
  0
LTYPE
  5
16
330
5
100
AcDbSymbolTableRecord
100
AcDbLinetypeTableRecord
  2
CONTINUOUS
 70
     0
  3
Solid line
 72
    65
 73
     0
 40
0.0
  0
LTYPE
  5
120
330
5
100
AcDbSymbolTableRecord
100
AcDbLinetypeTableRecord
  2
CENTER
 70
     0
  3
____ _ ____ _ ____ _ ____ _ ____ _ ____ _ ____ 
 72
    65
 73
     4
 40
2.0
 49
1.25
 74
     0
 49
-0.25
 74
     0
 49
0.25
 74
     0
 49
-0.25
 74
     0
  0
ENDTAB
  0
TABLE
  2
LAYER
  5
2
330
0
100
AcDbSymbolTable
 70
     7
  0
LAYER
  5
F
330
2
100
AcDbSymbolTableRecord
100
AcDbLayerTableRecord
  2
0
 70
     0
 62
     7
  6
CONTINUOUS
  0
LAYER
  5
62
330
2
100
AcDbSymbolTableRecord
100
AcDbLayerTableRecord
  2
VIEWPORT
 70
     0
 62
     7
  6
CONTINUOUS
  0
LAYER
  5
6B
330
2
100
AcDbSymbolTableRecord
100
AcDbLayerTableRecord
  2
ZUWAKU
 70
     0
 62
     7
  6
CONTINUOUS
  0
LAYER
  5
134
330
2
100
AcDbSymbolTableRecord
100
AcDbLayerTableRecord
  2
SUNPOU
 70
     0
 62
     4
  6
CONTINUOUS
  0
LAYER
  5
135
330
2
100
AcDbSymbolTableRecord
100
AcDbLayerTableRecord
  2
CENTER_L
 70
     0
 62
     1
  6
CENTER
  0
LAYER
  5
136
330
2
100
AcDbSymbolTableRecord
100
AcDbLayerTableRecord
  2
SEIHIN
 70
     0
 62
     3
  6
CONTINUOUS
  0
LAYER
  5
2FF
330
2
100
AcDbSymbolTableRecord
100
AcDbLayerTableRecord
  2
DEFPOINTS
 70
     0
 62
     7
  6
CONTINUOUS
  0
ENDTAB
  0
TABLE
  2
STYLE
  5
3
330
0
100
AcDbSymbolTable
 70
     1
  0
STYLE
  5
10
330
3
100
AcDbSymbolTableRecord
100
AcDbTextStyleTableRecord
  2
STANDARD
 70
     0
 40
0.0
 41
1.0
 50
0.0
 71
     0
 42
2.5
  3
TXT
  4
bigfont.shx
  0
ENDTAB
  0
TABLE
  2
VIEW
  5
6
330
0
100
AcDbSymbolTable
 70
     0
  0
ENDTAB
  0
TABLE
  2
UCS
  5
7
330
0
100
AcDbSymbolTable
 70
     0
  0
ENDTAB
  0
TABLE
  2
APPID
  5
9
330
0
100
AcDbSymbolTable
 70
     1
  0
APPID
  5
11
330
9
100
AcDbSymbolTableRecord
100
AcDbRegAppTableRecord
  2
ACAD
 70
     0
  0
ENDTAB
  0
TABLE
  2
DIMSTYLE
  5
A
330
0
100
AcDbSymbolTable
 70
     1
  0
DIMSTYLE
105
1D
102
{ACAD_REACTORS
330
304
330
32D
330
33A
330
347
330
354
330
361
102
}
330
A
100
AcDbSymbolTableRecord
100
AcDbDimStyleTableRecord
  2
STANDARD
 70
     0
  3

  4

  5

  6

  7

 40
1.0
 41
0.18
 42
0.0625
 43
0.38
 44
0.18
 45
0.0
 46
0.0
 47
0.0
 48
0.0
140
0.18
141
0.09
142
0.0
143
25.4
144
1.0
145
0.0
146
1.0
147
0.09
 71
     0
 72
     0
 73
     1
 74
     1
 75
     0
 76
     0
 77
     0
 78
     0
170
     0
171
     2
172
     0
173
     0
174
     0
175
     0
176
     0
177
     0
178
     0
270
     2
271
     4
272
     4
273
     2
274
     2
340
10
275
     0
280
     0
281
     0
282
     0
283
     1
284
     0
285
     0
286
     0
287
     3
288
     0
  0
ENDTAB
  0
TABLE
  2
BLOCK_RECORD
  5
1
330
0
100
AcDbSymbolTable
 70
     7
  0
BLOCK_RECORD
  5
1A
102
{ACAD_XDICTIONARY
360
52F
102
}
330
1
100
AcDbSymbolTableRecord
100
AcDbBlockTableRecord
  2
*MODEL_SPACE
  0
BLOCK_RECORD
  5
17
102
{ACAD_XDICTIONARY
360
52D
102
}
330
1
100
AcDbSymbolTableRecord
100
AcDbBlockTableRecord
  2
*PAPER_SPACE
  0
BLOCK_RECORD
  5
B2
330
1
100
AcDbSymbolTableRecord
100
AcDbBlockTableRecord
  2
_OPEN
  0
BLOCK_RECORD
  5
2F7
330
1
100
AcDbSymbolTableRecord
100
AcDbBlockTableRecord
  2
*D1
  0
BLOCK_RECORD
  5
321
330
1
100
AcDbSymbolTableRecord
100
AcDbBlockTableRecord
  2
*D2
  0
BLOCK_RECORD
  5
32E
330
1
100
AcDbSymbolTableRecord
100
AcDbBlockTableRecord
  2
*D3
  0
BLOCK_RECORD
  5
33B
330
1
100
AcDbSymbolTableRecord
100
AcDbBlockTableRecord
  2
*D4
  0
BLOCK_RECORD
  5
348
330
1
100
AcDbSymbolTableRecord
100
AcDbBlockTableRecord
  2
*D5
  0
BLOCK_RECORD
  5
355
330
1
100
AcDbSymbolTableRecord
100
AcDbBlockTableRecord
  2
*D6
  0
ENDTAB
  0
ENDSEC
  0
SECTION
  2
BLOCKS
  0
BLOCK
  5
1B
330
1A
100
AcDbEntity
  8
0
100
AcDbBlockBegin
  2
*MODEL_SPACE
 70
     0
 10
0.0
 20
0.0
 30
0.0
  3
*MODEL_SPACE
  1

  0
ENDBLK
  5
1C
330
1A
100
AcDbEntity
  8
0
100
AcDbBlockEnd
  0
BLOCK
  5
18
330
17
100
AcDbEntity
 67
     1
  8
0
100
AcDbBlockBegin
  2
*PAPER_SPACE
 70
     0
 10
0.0
 20
0.0
 30
0.0
  3
*PAPER_SPACE
  1

  0
ENDBLK
  5
19
330
17
100
AcDbEntity
 67
     1
  8
0
100
AcDbBlockEnd
  0
BLOCK
  5
B3
330
B2
100
AcDbEntity
  8
0
100
AcDbBlockBegin
  2
_OPEN
 70
     0
 10
0.0
 20
0.0
 30
0.0
  3
_OPEN
  1

  0
LINE
  5
B4
330
B2
100
AcDbEntity
  8
0
  6
BYBLOCK
 62
     0
100
AcDbLine
 10
-1.0
 20
0.1666666666666666
 30
0.0
 11
0.0
 21
0.0
 31
0.0
  0
LINE
  5
B5
330
B2
100
AcDbEntity
  8
0
  6
BYBLOCK
 62
     0
100
AcDbLine
 10
0.0
 20
0.0
 30
0.0
 11
-1.0
 21
-0.1666666666666666
 31
0.0
  0
LINE
  5
B6
330
B2
100
AcDbEntity
  8
0
  6
BYBLOCK
 62
     0
100
AcDbLine
 10
0.0
 20
0.0
 30
0.0
 11
-1.0
 21
0.0
 31
0.0
  0
ENDBLK
  5
B7
330
B2
100
AcDbEntity
  8
0
100
AcDbBlockEnd
  0
BLOCK
  5
2F8
330
2F7
100
AcDbEntity
  8
0
100
AcDbBlockBegin
  2
*D1
 70
     1
 10
0.0
 20
0.0
 30
0.0
  3
*D1
  1

  0
LINE
  5
537
330
2F7
100
AcDbEntity
  8
SUNPOU
100
AcDbLine
 10
160.1930367813032
 20
122.0240449774395
 30
0.0
 11
160.1930367813032
 21
140.9705017741297
 31
0.0
  0
LINE
  5
538
330
2F7
100
AcDbEntity
  8
SUNPOU
100
AcDbLine
 10
224.0930367813034
 20
122.0239449774394
 30
0.0
 11
224.0930367813034
 21
140.9705017741297
 31
0.0
  0
LINE
  5
539
330
2F7
100
AcDbEntity
  8
SUNPOU
100
AcDbLine
 10
163.1930367813033
 20
139.4705017741297
 30
0.0
 11
221.0930367813034
 21
139.4705017741297
 31
0.0
  0
INSERT
  5
53A
330
2F7
100
AcDbEntity
  8
SUNPOU
100
AcDbBlockReference
  2
_OPEN
 10
160.1930367813032
 20
139.4705017741297
 30
0.0
 41
3.0
 42
3.0
 43
3.0
 50
180.0
  0
INSERT
  5
53B
330
2F7
100
AcDbEntity
  8
SUNPOU
100
AcDbBlockReference
  2
_OPEN
 10
224.0930367813034
 20
139.4705017741297
 30
0.0
 41
3.0
 42
3.0
 43
3.0
  0
MTEXT
  5
53C
330
2F7
100
AcDbEntity
  8
SUNPOU
100
AcDbMText
 10
192.1430367813033
 20
141.9705017741297
 30
0.0
 40
3.0
 41
0.0
 71
     5
 72
     1
  1
\A1;64
1001
ACAD
1000
MTEXTBEGIN
1070
    73
1070
     1
1070
    44
1040
1.0
1070
    74
1070
     0
1000
MTEXTEND
1000
MTEXTBEGIN
1070
    73
1070
     1
1070
    44
1040
1.0
1070
    74
1070
     0
1000
MTEXTEND
1000
MTEXTBEGIN
1070
    73
1070
     1
1070
    44
1040
1.0
1070
    74
1070
     0
1000
MTEXTEND
  0
POINT
  5
53D
330
2F7
100
AcDbEntity
  8
DEFPOINTS
 62
     0
100
AcDbPoint
 10
160.1930367813032
 20
119.0240449774395
 30
0.0
  0
POINT
  5
53E
330
2F7
100
AcDbEntity
  8
DEFPOINTS
 62
     0
100
AcDbPoint
 10
224.0930367813034
 20
119.0239449774395
 30
0.0
  0
POINT
  5
53F
330
2F7
100
AcDbEntity
  8
DEFPOINTS
 62
     0
100
AcDbPoint
 10
224.0930367813034
 20
139.4705017741297
 30
0.0
  0
ENDBLK
  5
303
330
2F7
100
AcDbEntity
  8
0
100
AcDbBlockEnd
  0
BLOCK
  5
322
330
321
100
AcDbEntity
  8
0
100
AcDbBlockBegin
  2
*D2
 70
     1
 10
0.0
 20
0.0
 30
0.0
  3
*D2
  1

  0
LINE
  5
540
330
321
100
AcDbEntity
  8
SUNPOU
100
AcDbLine
 10
227.0930367813034
 20
119.0239449774395
 30
0.0
 11
251.7724110648137
 21
119.0239449774395
 31
0.0
  0
LINE
  5
541
330
321
100
AcDbEntity
  8
SUNPOU
100
AcDbLine
 10
227.0914367813034
 20
80.0238449774395
 30
0.0
 11
251.7724110648137
 21
80.0238449774395
 31
0.0
  0
LINE
  5
542
330
321
100
AcDbEntity
  8
SUNPOU
100
AcDbLine
 10
250.2724110648137
 20
116.0239449774395
 30
0.0
 11
250.2724110648137
 21
83.02384497743949
 31
0.0
  0
INSERT
  5
543
330
321
100
AcDbEntity
  8
SUNPOU
100
AcDbBlockReference
  2
_OPEN
 10
250.2724110648137
 20
119.0239449774395
 30
0.0
 41
3.0
 42
3.0
 43
3.0
 50
90.0
  0
INSERT
  5
544
330
321
100
AcDbEntity
  8
SUNPOU
100
AcDbBlockReference
  2
_OPEN
 10
250.2724110648137
 20
80.0238449774395
 30
0.0
 41
3.0
 42
3.0
 43
3.0
 50
270.0
  0
MTEXT
  5
545
330
321
100
AcDbEntity
  8
SUNPOU
100
AcDbMText
 10
247.7724110648136
 20
99.52389497743954
 30
0.0
 40
3.0
 41
0.0
 71
     5
 72
     1
  1
\A1;39
 11
0.0000000000000001
 21
1.0
 31
0.0
1001
ACAD
1000
MTEXTBEGIN
1070
    73
1070
     1
1070
    44
1040
1.0
1070
    74
1070
     0
1000
MTEXTEND
1000
MTEXTBEGIN
1070
    73
1070
     1
1070
    44
1040
1.0
1070
    74
1070
     0
1000
MTEXTEND
1000
MTEXTBEGIN
1070
    73
1070
     1
1070
    44
1040
1.0
1070
    74
1070
     0
1000
MTEXTEND
  0
POINT
  5
546
330
321
100
AcDbEntity
  8
DEFPOINTS
 62
     0
100
AcDbPoint
 10
224.0930367813034
 20
119.0239449774395
 30
0.0
  0
POINT
  5
547
330
321
100
AcDbEntity
  8
DEFPOINTS
 62
     0
100
AcDbPoint
 10
224.0914367813034
 20
80.0238449774395
 30
0.0
  0
POINT
  5
548
330
321
100
AcDbEntity
  8
DEFPOINTS
 62
     0
100
AcDbPoint
 10
250.2724110648137
 20
80.0238449774395
 30
0.0
  0
ENDBLK
  5
32C
330
321
100
AcDbEntity
  8
0
100
AcDbBlockEnd
  0
BLOCK
  5
32F
330
32E
100
AcDbEntity
  8
0
100
AcDbBlockBegin
  2
*D3
 70
     1
 10
0.0
 20
0.0
 30
0.0
  3
*D3
  1

  0
LINE
  5
549
330
32E
100
AcDbEntity
  8
SUNPOU
100
AcDbLine
 10
227.0930367813034
 20
119.0239449774395
 30
0.0
 11
262.7742264479822
 21
119.0239449774395
 31
0.0
  0
LINE
  5
54A
330
32E
100
AcDbEntity
  8
SUNPOU
100
AcDbLine
 10
223.0920367813034
 20
60.02384497743958
 30
0.0
 11
262.7742264479822
 21
60.02384497743957
 31
0.0
  0
LINE
  5
54B
330
32E
100
AcDbEntity
  8
SUNPOU
100
AcDbLine
 10
261.2742264479823
 20
116.0239449774395
 30
0.0
 11
261.2742264479823
 21
63.02384497743958
 31
0.0
  0
INSERT
  5
54C
330
32E
100
AcDbEntity
  8
SUNPOU
100
AcDbBlockReference
  2
_OPEN
 10
261.2742264479823
 20
119.0239449774395
 30
0.0
 41
3.0
 42
3.0
 43
3.0
 50
90.0
  0
INSERT
  5
54D
330
32E
100
AcDbEntity
  8
SUNPOU
100
AcDbBlockReference
  2
_OPEN
 10
261.2742264479823
 20
60.02384497743957
 30
0.0
 41
3.0
 42
3.0
 43
3.0
 50
270.0
  0
MTEXT
  5
54E
330
32E
100
AcDbEntity
  8
SUNPOU
100
AcDbMText
 10
258.7742264479822
 20
89.52389497743958
 30
0.0
 40
3.0
 41
0.0
 71
     5
 72
     1
  1
\A1;59
 11
0.0000000000000001
 21
1.0
 31
0.0
1001
ACAD
1000
MTEXTBEGIN
1070
    73
1070
     1
1070
    44
1040
1.0
1070
    74
1070
     0
1000
MTEXTEND
1000
MTEXTBEGIN
1070
    73
1070
     1
1070
    44
1040
1.0
1070
    74
1070
     0
1000
MTEXTEND
1000
MTEXTBEGIN
1070
    73
1070
     1
1070
    44
1040
1.0
1070
    74
1070
     0
1000
MTEXTEND
  0
POINT
  5
54F
330
32E
100
AcDbEntity
  8
DEFPOINTS
 62
     0
100
AcDbPoint
 10
224.0930367813034
 20
119.0239449774395
 30
0.0
  0
POINT
  5
550
330
32E
100
AcDbEntity
  8
DEFPOINTS
 62
     0
100
AcDbPoint
 10
220.0920367813034
 20
60.02384497743958
 30
0.0
  0
POINT
  5
551
330
32E
100
AcDbEntity
  8
DEFPOINTS
 62
     0
100
AcDbPoint
 10
261.2742264479823
 20
60.02384497743957
 30
0.0
  0
ENDBLK
  5
339
330
32E
100
AcDbEntity
  8
0
100
AcDbBlockEnd
  0
BLOCK
  5
379
330
33B
100
AcDbEntity
  8
0
100
AcDbBlockBegin
  2
*D4
 70
     1
 10
0.0
 20
0.0
 30
0.0
  3
*D4
  1

  0
LINE
  5
552
330
33B
100
AcDbEntity
  8
SUNPOU
100
AcDbLine
 10
157.1930367813033
 20
119.0240449774396
 30
0.0
 11
138.5042162108063
 21
119.0240449774396
 31
0.0
  0
LINE
  5
553
330
33B
100
AcDbEntity
  8
SUNPOU
100
AcDbLine
 10
157.1929976576726
 20
94.02404497747021
 30
0.0
 11
138.5042162108063
 21
94.02404497747021
 31
0.0
  0
LINE
  5
554
330
33B
100
AcDbEntity
  8
SUNPOU
100
AcDbLine
 10
140.0042162108063
 20
116.0240449774396
 30
0.0
 11
140.0042162108063
 21
97.02404497747021
 31
0.0
  0
INSERT
  5
555
330
33B
100
AcDbEntity
  8
SUNPOU
100
AcDbBlockReference
  2
_OPEN
 10
140.0042162108063
 20
119.0240449774396
 30
0.0
 41
3.0
 42
3.0
 43
3.0
 50
90.0
  0
INSERT
  5
556
330
33B
100
AcDbEntity
  8
SUNPOU
100
AcDbBlockReference
  2
_OPEN
 10
140.0042162108063
 20
94.02404497747021
 30
0.0
 41
3.0
 42
3.0
 43
3.0
 50
270.0
  0
MTEXT
  5
557
330
33B
100
AcDbEntity
  8
SUNPOU
100
AcDbMText
 10
137.5042162108063
 20
106.5240449774549
 30
0.0
 40
3.0
 41
0.0
 71
     5
 72
     1
  1
\A1;※ 25
 11
0.0000000000000001
 21
1.0
 31
0.0
1001
ACAD
1000
MTEXTBEGIN
1070
    73
1070
     1
1070
    44
1040
1.0
1070
    74
1070
     0
1000
MTEXTEND
1000
MTEXTBEGIN
1070
    73
1070
     1
1070
    44
1040
1.0
1070
    74
1070
     0
1000
MTEXTEND
1000
MTEXTBEGIN
1070
    73
1070
     1
1070
    44
1040
1.0
1070
    74
1070
     0
1000
MTEXTEND
  0
POINT
  5
558
330
33B
100
AcDbEntity
  8
DEFPOINTS
 62
     0
100
AcDbPoint
 10
160.1930367813032
 20
119.0240449774395
 30
0.0
  0
POINT
  5
559
330
33B
100
AcDbEntity
  8
DEFPOINTS
 62
     0
100
AcDbPoint
 10
160.1929976576726
 20
94.02404497747019
 30
0.0
  0
POINT
  5
55A
330
33B
100
AcDbEntity
  8
DEFPOINTS
 62
     0
100
AcDbPoint
 10
140.0042162108063
 20
94.02404497747021
 30
0.0
  0
ENDBLK
  5
383
330
33B
100
AcDbEntity
  8
0
100
AcDbBlockEnd
  0
BLOCK
  5
39A
330
348
100
AcDbEntity
  8
0
100
AcDbBlockBegin
  2
*D5
 70
     1
 10
0.0
 20
0.0
 30
0.0
  3
*D5
  1

  0
LINE
  5
55B
330
348
100
AcDbEntity
  8
SUNPOU
100
AcDbLine
 10
157.1914837296601
 20
90.02414497732941
 30
0.0
 11
138.5042162108063
 21
90.02414497732941
 31
0.0
  0
LINE
  5
55C
330
348
100
AcDbEntity
  8
SUNPOU
100
AcDbLine
 10
161.1938367813034
 20
60.0240449774395
 30
0.0
 11
138.5042162108063
 21
60.02404497743951
 31
0.0
  0
LINE
  5
55D
330
348
100
AcDbEntity
  8
SUNPOU
100
AcDbLine
 10
140.0042162108063
 20
87.0241449773294
 30
0.0
 11
140.0042162108063
 21
63.02404497743951
 31
0.0
  0
INSERT
  5
55E
330
348
100
AcDbEntity
  8
SUNPOU
100
AcDbBlockReference
  2
_OPEN
 10
140.0042162108063
 20
90.02414497732941
 30
0.0
 41
3.0
 42
3.0
 43
3.0
 50
90.0
  0
INSERT
  5
55F
330
348
100
AcDbEntity
  8
SUNPOU
100
AcDbBlockReference
  2
_OPEN
 10
140.0042162108063
 20
60.02404497743951
 30
0.0
 41
3.0
 42
3.0
 43
3.0
 50
270.0
  0
MTEXT
  5
560
330
348
100
AcDbEntity
  8
SUNPOU
100
AcDbMText
 10
137.5042162108063
 20
75.02409497738447
 30
0.0
 40
3.0
 41
0.0
 71
     5
 72
     1
  1
\A1;※ 30
 11
0.0000000000000001
 21
1.0
 31
0.0
1001
ACAD
1000
MTEXTBEGIN
1070
    73
1070
     1
1070
    44
1040
1.0
1070
    74
1070
     0
1000
MTEXTEND
1000
MTEXTBEGIN
1070
    73
1070
     1
1070
    44
1040
1.0
1070
    74
1070
     0
1000
MTEXTEND
1000
MTEXTBEGIN
1070
    73
1070
     1
1070
    44
1040
1.0
1070
    74
1070
     0
1000
MTEXTEND
  0
POINT
  5
561
330
348
100
AcDbEntity
  8
DEFPOINTS
 62
     0
100
AcDbPoint
 10
160.1914837296601
 20
90.02414497732939
 30
0.0
  0
POINT
  5
562
330
348
100
AcDbEntity
  8
DEFPOINTS
 62
     0
100
AcDbPoint
 10
164.1938367813034
 20
60.0240449774395
 30
0.0
  0
POINT
  5
563
330
348
100
AcDbEntity
  8
DEFPOINTS
 62
     0
100
AcDbPoint
 10
140.0042162108063
 20
60.02404497743951
 30
0.0
  0
ENDBLK
  5
3A4
330
348
100
AcDbEntity
  8
0
100
AcDbBlockEnd
  0
BLOCK
  5
356
330
355
100
AcDbEntity
  8
0
100
AcDbBlockBegin
  2
*D6
 70
     1
 10
0.0
 20
0.0
 30
0.0
  3
*D6
  1

  0
LINE
  5
564
330
355
100
AcDbEntity
  8
SUNPOU
100
AcDbLine
 10
217.1201367813032
 20
231.2551202714697
 30
0.0
 11
251.7724110648137
 21
231.2551202714697
 31
0.0
  0
LINE
  5
565
330
355
100
AcDbEntity
  8
SUNPOU
100
AcDbLine
 10
217.1201367813032
 20
167.2551202714696
 30
0.0
 11
251.7724110648137
 21
167.2551202714696
 31
0.0
  0
LINE
  5
566
330
355
100
AcDbEntity
  8
SUNPOU
100
AcDbLine
 10
250.2724110648137
 20
228.2551202714697
 30
0.0
 11
250.2724110648137
 21
170.2551202714696
 31
0.0
  0
INSERT
  5
567
330
355
100
AcDbEntity
  8
SUNPOU
100
AcDbBlockReference
  2
_OPEN
 10
250.2724110648137
 20
231.2551202714697
 30
0.0
 41
3.0
 42
3.0
 43
3.0
 50
90.0
  0
INSERT
  5
568
330
355
100
AcDbEntity
  8
SUNPOU
100
AcDbBlockReference
  2
_OPEN
 10
250.2724110648137
 20
167.2551202714696
 30
0.0
 41
3.0
 42
3.0
 43
3.0
 50
270.0
  0
MTEXT
  5
569
330
355
100
AcDbEntity
  8
SUNPOU
100
AcDbMText
 10
247.7724110648136
 20
199.2551202714697
 30
0.0
 40
3.0
 41
0.0
 71
     5
 72
     1
  1
\A1;64
 11
0.0000000000000001
 21
1.0
 31
0.0
1001
ACAD
1000
MTEXTBEGIN
1070
    73
1070
     1
1070
    44
1040
1.0
1070
    74
1070
     0
1000
MTEXTEND
1000
MTEXTBEGIN
1070
    73
1070
     1
1070
    44
1040
1.0
1070
    74
1070
     0
1000
MTEXTEND
1000
MTEXTBEGIN
1070
    73
1070
     1
1070
    44
1040
1.0
1070
    74
1070
     0
1000
MTEXTEND
  0
POINT
  5
56A
330
355
100
AcDbEntity
  8
DEFPOINTS
 62
     0
100
AcDbPoint
 10
214.1201367813033
 20
231.2551202714697
 30
0.0
  0
POINT
  5
56B
330
355
100
AcDbEntity
  8
DEFPOINTS
 62
     0
100
AcDbPoint
 10
214.1201367813033
 20
167.2551202714696
 30
0.0
  0
POINT
  5
56C
330
355
100
AcDbEntity
  8
DEFPOINTS
 62
     0
100
AcDbPoint
 10
250.2724110648137
 20
167.2551202714696
 30
0.0
  0
ENDBLK
  5
360
330
355
100
AcDbEntity
  8
0
100
AcDbBlockEnd
  0
ENDSEC
  0
SECTION
  2
ENTITIES
  0
LINE
  5
6C
330
1A
100
AcDbEntity
  8
ZUWAKU
  6
CONTINUOUS
 62
     7
100
AcDbLine
 10
403.0
 20
7.0
 30
0.0
 11
5.0
 21
7.0
 31
0.0
  0
LINE
  5
6D
330
1A
100
AcDbEntity
  8
ZUWAKU
  6
CONTINUOUS
 62
     7
100
AcDbLine
 10
5.0
 20
282.0
 30
0.0
 11
5.0
 21
7.0
 31
0.0
  0
LINE
  5
6E
330
1A
100
AcDbEntity
  8
ZUWAKU
  6
CONTINUOUS
 62
     7
100
AcDbLine
 10
403.0
 20
282.0
 30
0.0
 11
403.0
 21
7.0
 31
0.0
  0
LINE
  5
6F
330
1A
100
AcDbEntity
  8
ZUWAKU
  6
CONTINUOUS
 62
     7
100
AcDbLine
 10
403.0
 20
282.0
 30
0.0
 11
5.0
 21
282.0
 31
0.0
  0
LINE
  5
8E
330
1A
100
AcDbEntity
  8
ZUWAKU
 62
     7
 48
10.0
100
AcDbLine
 10
5.0
 20
13.0
 30
0.0
 11
403.0
 21
12.99999999999994
 31
0.0
  0
TEXT
  5
93
330
1A
100
AcDbEntity
  8
ZUWAKU
 62
     7
100
AcDbText
 10
8.003143713074223
 20
7.870178177610682
 30
0.0
 40
4.0
  1
品 種
100
AcDbText
  0
TEXT
  5
97
330
1A
100
AcDbEntity
  8
ZUWAKU
 62
     7
100
AcDbText
 10
107.7028028167073
 20
8.200497435100942
 30
0.0
 40
4.0
  1
品名・ｻ ｲ ｽﾞ
100
AcDbText
  0
LINE
  5
9A
330
1A
100
AcDbEntity
  8
ZUWAKU
 62
     7
 48
10.0
100
AcDbLine
 10
324.3551403257206
 20
6.999999999999836
 30
0.0
 11
324.3551403257206
 21
12.99999999999995
 31
0.0
  0
LINE
  5
9B
330
1A
100
AcDbEntity
  8
ZUWAKU
 62
     7
 48
10.0
100
AcDbLine
 10
307.142312366876
 20
6.999999999999836
 30
0.0
 11
307.142312366876
 21
12.99999999999995
 31
0.0
  0
TEXT
  5
9C
330
1A
100
AcDbEntity
  8
ZUWAKU
 62
     7
100
AcDbText
 10
310.1429253763237
 20
7.934661405801826
 30
0.0
 40
4.0
  1
品 番
100
AcDbText
  0
TEXT
  5
9E
330
1A
100
AcDbEntity
  8
ZUWAKU
 62
     7
 48
10.0
100
AcDbText
 10
322.9513761015196
 20
2.449000558492457
 30
0.0
 40
4.0
  1
積水化学工業株式会社  建材
100
AcDbText
  0
TEXT
  5
A1
330
1A
100
AcDbEntity
  8
ZUWAKU
 62
     7
100
AcDbText
 10
389.843492473331
 20
7.886151458996323
 30
0.0
 40
4.0
  1
1/1
100
AcDbText
  0
TEXT
  5
A2
330
1A
100
AcDbEntity
  8
ZUWAKU
 62
     7
100
AcDbText
 10
369.8225424558458
 20
7.729845637642938
 30
0.0
 40
4.0
  1
尺 度
100
AcDbText
  0
LINE
  5
A3
330
1A
100
AcDbEntity
  8
ZUWAKU
 62
     7
 48
10.0
100
AcDbLine
 10
366.8807110760169
 20
6.999999999999886
 30
0.0
 11
366.8807110760169
 21
12.99999999999994
 31
0.0
  0
TEXT
  5
A6
330
1A
100
AcDbEntity
  8
ZUWAKU
 62
     7
 48
10.0
100
AcDbText
 10
396.1622424237184
 20
2.480970960763784
 30
0.0
 40
4.0
  1
A3
100
AcDbText
  0
LINE
  5
F5
330
1A
100
AcDbEntity
  8
ZUWAKU
 62
     7
 48
10.0
100
AcDbLine
 10
22.25374857290876
 20
7.0
 30
0.0
 11
22.25374857290876
 21
13.0
 31
0.0
  0
LINE
  5
F6
330
1A
100
AcDbEntity
  8
ZUWAKU
 62
     7
 48
10.0
100
AcDbLine
 10
104.7316872784438
 20
7.0
 30
0.0
 11
104.7316872784438
 21
12.99999999999998
 31
0.0
  0
LINE
  5
F8
330
1A
100
AcDbEntity
  8
ZUWAKU
 62
     7
 48
10.0
100
AcDbLine
 10
138.0261803105822
 20
7.0
 30
0.0
 11
138.0261803105822
 21
12.99999999999998
 31
0.0
  0
LINE
  5
100
330
1A
100
AcDbEntity
  8
ZUWAKU
 62
     7
 48
10.0
100
AcDbLine
 10
384.3363149538092
 20
6.999999999999862
 30
0.0
 11
384.3363149538092
 21
12.99999999999994
 31
0.0
  0
ARC
  5
219
330
1A
100
AcDbEntity
  8
SEIHIN
  6
CONTINUOUS
 62
     3
100
AcDbCircle
 10
221.4930460988901
 20
219.5514086086618
 30
0.0
 40
0.9999906824812947
100
AcDbArc
 50
0.0006682358917724
 51
77.24440133638253
  0
ARC
  5
21A
330
1A
100
AcDbEntity
  8
SEIHIN
  6
CONTINUOUS
 62
     3
100
AcDbCircle
 10
224.070020278334
 20
231.2548366543994
 30
0.0
 40
8.999968223005238
100
AcDbArc
 50
185.7373761470948
 51
264.6811314030849
  0
ARC
  5
21B
330
1A
100
AcDbEntity
  8
SEIHIN
  6
CONTINUOUS
 62
     3
100
AcDbCircle
 10
221.4930460988902
 20
178.9588319342775
 30
0.0
 40
0.9999906824811903
100
AcDbArc
 50
282.7555986636121
 51
359.9993317641033
  0
ARC
  5
21E
330
1A
100
AcDbEntity
  8
SEIHIN
  6
CONTINUOUS
 62
     3
100
AcDbCircle
 10
224.0700202783341
 20
167.2554038885401
 30
0.0
 40
8.999968223005291
100
AcDbArc
 50
95.31886859691537
 51
174.2626238529055
  0
LINE
  5
225
330
1A
100
AcDbEntity
  8
SEIHIN
  6
CONTINUOUS
 62
     3
100
AcDbLine
 10
224.0914367813034
 20
80.0238449774395
 30
0.0
 11
160.1914367813033
 21
80.02414497743959
 31
0.0
  0
LINE
  5
226
330
1A
100
AcDbEntity
  8
SEIHIN
  6
CONTINUOUS
 62
     3
100
AcDbLine
 10
160.1930367813032
 20
119.0240449774395
 30
0.0
 11
224.0930367813034
 21
119.0239449774395
 31
0.0
  0
LINE
  5
227
330
1A
100
AcDbEntity
  8
CENTER_L
  6
CENTER
 62
     1
 48
5.0
100
AcDbLine
 10
192.1430367813032
 20
199.2551202714697
 30
0.0
 11
232.1430367813032
 21
199.2551202714697
 31
0.0
  0
TEXT
  5
229
330
1A
100
AcDbEntity
  8
ZUWAKU
 62
     7
100
AcDbText
 10
26.20104488850433
 20
7.872654727450047
 30
0.0
 40
4.0
  1
アートフェイス　たてとい
100
AcDbText
  0
TEXT
  5
22C
330
1A
100
AcDbEntity
  8
ZUWAKU
 62
     7
100
AcDbText
 10
143.6080516186462
 20
7.94966497640555
 30
0.0
 40
4.0
  1
角々ソケット　Ｙ６０Ｈ
100
AcDbText
  0
LINE
  5
230
330
1A
100
AcDbEntity
  8
SEIHIN
  6
CONTINUOUS
 62
     3
100
AcDbLine
 10
215.0914367813034
 20
80.02394497743949
 30
0.0
 11
215.0915367813034
 21
119.0238449774395
 31
0.0
  0
LINE
  5
231
330
1A
100
AcDbEntity
  8
CENTER_L
  6
CENTER
 62
     1
 48
5.0
100
AcDbLine
 10
192.1409367813033
 20
51.71574497743958
 30
0.0
 11
192.1411367813034
 21
123.8600449774396
 31
0.0
  0
LINE
  5
232
330
1A
100
AcDbEntity
  8
SEIHIN
  6
CONTINUOUS
 62
     3
100
AcDbLine
 10
169.1914367813033
 20
80.02404497743958
 30
0.0
 11
169.1915367813034
 21
119.0240449774395
 31
0.0
  0
LINE
  5
233
330
1A
100
AcDbEntity
  8
SEIHIN
  6
CONTINUOUS
 62
     3
100
AcDbLine
 10
160.1914367813033
 20
80.02414497743959
 30
0.0
 11
160.1915367813034
 21
119.0240449774395
 31
0.0
  0
LINE
  5
235
330
1A
100
AcDbEntity
  8
SEIHIN
  6
CONTINUOUS
 62
     3
100
AcDbLine
 10
220.5914367813034
 20
64.02384497743958
 30
0.0
 11
163.6914367813034
 21
64.02414497743959
 31
0.0
  0
LINE
  5
236
330
1A
100
AcDbEntity
  8
SEIHIN
  6
CONTINUOUS
 62
     3
100
AcDbLine
 10
220.0920367813034
 20
60.02384497743958
 30
0.0
 11
164.1938367813034
 21
60.0240449774395
 31
0.0
  0
LINE
  5
23B
330
1A
100
AcDbEntity
  8
SEIHIN
  6
CONTINUOUS
 62
     3
100
AcDbLine
 10
163.6914367813034
 20
80.02404497743958
 30
0.0
 11
163.6914367813034
 21
64.0240449774395
 31
0.0
  0
LINE
  5
23C
330
1A
100
AcDbEntity
  8
SEIHIN
  6
CONTINUOUS
 62
     3
100
AcDbLine
 10
163.6914367813034
 20
64.05594497743959
 30
0.0
 11
164.1914367813033
 21
60.04394497743959
 31
0.0
  0
LINE
  5
23D
330
1A
100
AcDbEntity
  8
SEIHIN
  6
CONTINUOUS
 62
     3
100
AcDbLine
 10
173.2914367813034
 20
64.0240449774395
 30
0.0
 11
173.2914367813034
 21
80.02404497743958
 31
0.0
  0
LINE
  5
23E
330
1A
100
AcDbEntity
  8
SEIHIN
  6
CONTINUOUS
 62
     3
100
AcDbLine
 10
173.2824367813034
 20
64.06274497743959
 30
0.0
 11
173.7824367813033
 21
60.05084497743959
 31
0.0
  0
LINE
  5
242
330
1A
100
AcDbEntity
  8
SEIHIN
  6
CONTINUOUS
 62
     3
100
AcDbLine
 10
220.5914367813034
 20
80.0238449774395
 30
0.0
 11
220.5914367813034
 21
64.02384497743958
 31
0.0
  0
LINE
  5
243
330
1A
100
AcDbEntity
  8
SEIHIN
  6
CONTINUOUS
 62
     3
100
AcDbLine
 10
210.9914367813032
 20
64.02394497743959
 30
0.0
 11
210.9914367813032
 21
80.02394497743949
 31
0.0
  0
LINE
  5
244
330
1A
100
AcDbEntity
  8
SEIHIN
  6
CONTINUOUS
 62
     3
100
AcDbLine
 10
210.9124367813034
 20
64.01974497743958
 30
0.0
 11
210.4124367813034
 21
60.0165449774396
 31
0.0
  0
LINE
  5
245
330
1A
100
AcDbEntity
  8
SEIHIN
  6
CONTINUOUS
 62
     3
100
AcDbLine
 10
220.5914367813034
 20
64.0217449774396
 30
0.0
 11
220.0914367813034
 21
60.01864497743949
 31
0.0
  0
LINE
  5
249
330
1A
100
AcDbEntity
  8
SEIHIN
  6
CONTINUOUS
 62
     3
100
AcDbLine
 10
160.1905367813034
 20
118.5240449774395
 30
0.0
 11
158.1905367813033
 21
115.0240449774395
 31
0.0
  0
LINE
  5
24A
330
1A
100
AcDbEntity
  8
SEIHIN
  6
CONTINUOUS
 62
     3
100
AcDbLine
 10
158.1905367813033
 20
114.0240449774395
 30
0.0
 11
160.1906367813034
 21
114.0240449774395
 31
0.0
  0
LINE
  5
24B
330
1A
100
AcDbEntity
  8
SEIHIN
  6
CONTINUOUS
 62
     3
100
AcDbLine
 10
158.1905367813033
 20
115.0240449774395
 30
0.0
 11
158.1905367813033
 21
114.0240449774395
 31
0.0
  0
LINE
  5
255
330
1A
100
AcDbEntity
  8
CENTER_L
  6
CENTER
 62
     1
 48
5.0
100
AcDbLine
 10
192.1430367813032
 20
199.2551202714697
 30
0.0
 11
152.1430367813032
 21
199.2551202714697
 31
0.0
  0
LINE
  5
256
330
1A
100
AcDbEntity
  8
SEIHIN
  6
CONTINUOUS
 62
     3
100
AcDbLine
 10
221.4930367813032
 20
199.2551202714697
 30
0.0
 11
221.4930367813032
 21
179.7321202714696
 31
0.0
  0
LINE
  5
257
330
1A
100
AcDbEntity
  8
SEIHIN
  6
CONTINUOUS
 62
     3
100
AcDbLine
 10
218.9430367813033
 20
199.2551202714697
 30
0.0
 11
218.9430367813033
 21
180.9137202714696
 31
0.0
  0
LINE
  5
258
330
1A
100
AcDbEntity
  8
SEIHIN
  6
CONTINUOUS
 62
     3
100
AcDbLine
 10
158.1430367813033
 20
195.7551202714697
 30
0.0
 11
158.1430367813033
 21
202.7551202714696
 31
0.0
  0
LINE
  5
259
330
1A
100
AcDbEntity
  8
SEIHIN
  6
CONTINUOUS
 62
     3
100
AcDbLine
 10
160.1430367813033
 20
199.2551202714697
 30
0.0
 11
160.1430367813033
 21
177.2123202714698
 31
0.0
  0
LINE
  5
25A
330
1A
100
AcDbEntity
  8
SEIHIN
  6
CONTINUOUS
 62
     3
100
AcDbLine
 10
161.7930367813033
 20
199.2551202714697
 30
0.0
 11
161.7929367813033
 21
178.9588202714696
 31
0.0
  0
LINE
  5
25B
330
1A
100
AcDbEntity
  8
SEIHIN
  6
CONTINUOUS
 62
     3
100
AcDbLine
 10
162.7930367813034
 20
199.2551202714697
 30
0.0
 11
162.7929367813034
 21
179.7321202714696
 31
0.0
  0
LINE
  5
25C
330
1A
100
AcDbEntity
  8
SEIHIN
  6
CONTINUOUS
 62
     3
100
AcDbLine
 10
165.3430367813034
 20
199.2551202714697
 30
0.0
 11
165.3430367813034
 21
180.9138202714698
 31
0.0
  0
LINE
  5
25D
330
1A
100
AcDbEntity
  8
CENTER_L
  6
CENTER
 62
     1
 48
5.0
100
AcDbLine
 10
192.1430367813032
 20
199.2551202714697
 30
0.0
 11
192.1430367813032
 21
159.2551202714697
 31
0.0
  0
LINE
  5
25E
330
1A
100
AcDbEntity
  8
SEIHIN
  6
CONTINUOUS
 62
     3
100
AcDbLine
 10
192.1430367813032
 20
167.2551202714696
 30
0.0
 11
170.1659367813034
 21
167.2551202714696
 31
0.0
  0
LINE
  5
25F
330
1A
100
AcDbEntity
  8
SEIHIN
  6
CONTINUOUS
 62
     3
100
AcDbLine
 10
192.1430367813032
 20
168.9051202714696
 30
0.0
 11
171.8467367813034
 21
168.9051202714696
 31
0.0
  0
LINE
  5
260
330
1A
100
AcDbEntity
  8
SEIHIN
  6
CONTINUOUS
 62
     3
100
AcDbLine
 10
192.1430367813032
 20
169.9051202714696
 30
0.0
 11
172.6200367813034
 21
169.9051202714696
 31
0.0
  0
LINE
  5
261
330
1A
100
AcDbEntity
  8
SEIHIN
  6
CONTINUOUS
 62
     3
100
AcDbLine
 10
192.1430367813032
 20
172.4551202714698
 30
0.0
 11
173.8016367813034
 21
172.4551202714698
 31
0.0
  0
ARC
  5
262
330
1A
100
AcDbEntity
  8
SEIHIN
  6
CONTINUOUS
 62
     3
100
AcDbCircle
 10
160.1430574565784
 20
167.2550995963602
 30
0.0
 40
12.00000186897731
100
AcDbArc
 50
16.30656480874565
 51
73.69413837520129
  0
ARC
  5
263
330
1A
100
AcDbEntity
  8
SEIHIN
  6
CONTINUOUS
 62
     3
100
AcDbCircle
 10
160.1431699063427
 20
167.254987146904
 30
0.0
 40
13.99993203757313
100
AcDbArc
 50
24.41527671318608
 51
65.58636938614672
  0
ARC
  5
264
330
1A
100
AcDbEntity
  8
SEIHIN
  6
CONTINUOUS
 62
     3
100
AcDbCircle
 10
160.2160584583942
 20
167.2553987522923
 30
0.0
 40
8.999963588269688
100
AcDbArc
 50
5.737411974729551
 51
84.6818011131647
  0
ARC
  5
265
330
1A
100
AcDbEntity
  8
SEIHIN
  6
CONTINUOUS
 62
     3
100
AcDbCircle
 10
160.1430367813033
 20
167.2551202714697
 30
0.0
 40
10.99998087271074
100
AcDbArc
 50
12.75818395117417
 51
77.24181604882469
  0
ARC
  5
266
330
1A
100
AcDbEntity
  8
SEIHIN
  6
CONTINUOUS
 62
     3
100
AcDbCircle
 10
173.8016331921761
 20
173.4551225839644
 30
0.0
 40
1.000002312501064
100
AcDbArc
 50
204.4123902896697
 51
270.0002056413751
  0
ARC
  5
267
330
1A
100
AcDbEntity
  8
SEIHIN
  6
CONTINUOUS
 62
     3
100
AcDbCircle
 10
170.1659298717203
 20
168.2551265214306
 30
0.0
 40
1.000006249984808
100
AcDbArc
 50
185.7394943855645
 51
270.0003958874742
  0
ARC
  5
268
330
1A
100
AcDbEntity
  8
SEIHIN
  6
CONTINUOUS
 62
     3
100
AcDbCircle
 10
171.8467484441111
 20
169.9051109538828
 30
0.0
 40
0.9999906824812033
100
AcDbArc
 50
192.7555986636228
 51
269.9993317641147
  0
ARC
  5
269
330
1A
100
AcDbEntity
  8
SEIHIN
  6
CONTINUOUS
 62
     3
100
AcDbCircle
 10
172.6200339358189
 20
170.9051224039651
 30
0.0
 40
1.000002132499572
100
AcDbArc
 50
196.3020788954832
 51
270.0001630339008
  0
ARC
  5
26A
330
1A
100
AcDbEntity
  8
SEIHIN
  6
CONTINUOUS
 62
     3
100
AcDbCircle
 10
162.7929274637164
 20
178.9588319342775
 30
0.0
 40
0.9999906824811526
100
AcDbArc
 50
180.0006682358942
 51
257.2444013363857
  0
ARC
  5
26B
330
1A
100
AcDbEntity
  8
SEIHIN
  6
CONTINUOUS
 62
     3
100
AcDbCircle
 10
161.1430397262946
 20
177.2123170395632
 30
0.0
 40
1.000002944996602
100
AcDbArc
 50
179.9998148259428
 51
264.6808909660804
  0
ARC
  5
26C
330
1A
100
AcDbEntity
  8
SEIHIN
  6
CONTINUOUS
 62
     3
100
AcDbCircle
 10
163.7928909242005
 20
179.7321814624522
 30
0.0
 40
0.9999541447693781
100
AcDbArc
 50
180.0035061458192
 51
253.6999818510485
  0
ARC
  5
26D
330
1A
100
AcDbEntity
  8
SEIHIN
  6
CONTINUOUS
 62
     3
100
AcDbCircle
 10
166.3430597607753
 20
180.9137846024144
 30
0.0
 40
1.000022980108005
100
AcDbArc
 50
179.9979563606293
 51
245.5805546225421
  0
LINE
  5
26E
330
1A
100
AcDbEntity
  8
SEIHIN
  6
CONTINUOUS
 62
     3
100
AcDbLine
 10
158.1430367813033
 20
195.7551202714697
 30
0.0
 11
160.1430367813033
 21
195.7551202714697
 31
0.0
  0
ARC
  5
26F
330
1A
100
AcDbEntity
  8
SEIHIN
  6
CONTINUOUS
 62
     3
100
AcDbCircle
 10
224.1430161060283
 20
167.25509959636
 30
0.0
 40
12.00000186897741
100
AcDbArc
 50
106.305861624798
 51
163.6934351912537
  0
ARC
  5
270
330
1A
100
AcDbEntity
  8
SEIHIN
  6
CONTINUOUS
 62
     3
100
AcDbCircle
 10
224.1429452183792
 20
167.2550287082762
 30
0.0
 40
13.99995270376309
100
AcDbArc
 50
114.414228466966
 51
155.5849484774575
  0
ARC
  5
271
330
1A
100
AcDbEntity
  8
SEIHIN
  6
CONTINUOUS
 62
     3
100
AcDbCircle
 10
224.1430367813033
 20
167.2551202714697
 30
0.0
 40
10.99998087271071
100
AcDbArc
 50
102.7581839511751
 51
167.2418160488259
  0
LINE
  5
272
330
1A
100
AcDbEntity
  8
SEIHIN
  6
CONTINUOUS
 62
     3
100
AcDbLine
 10
192.1430367813032
 20
167.2551202714696
 30
0.0
 11
214.1201367813033
 21
167.2551202714696
 31
0.0
  0
LINE
  5
273
330
1A
100
AcDbEntity
  8
SEIHIN
  6
CONTINUOUS
 62
     3
100
AcDbLine
 10
192.1430367813032
 20
168.9051202714696
 30
0.0
 11
212.4393367813034
 21
168.9051202714696
 31
0.0
  0
LINE
  5
274
330
1A
100
AcDbEntity
  8
SEIHIN
  6
CONTINUOUS
 62
     3
100
AcDbLine
 10
192.1430367813032
 20
169.9051202714696
 30
0.0
 11
211.6659367813034
 21
169.9051202714696
 31
0.0
  0
LINE
  5
275
330
1A
100
AcDbEntity
  8
SEIHIN
  6
CONTINUOUS
 62
     3
100
AcDbLine
 10
192.1430367813032
 20
172.4551202714698
 30
0.0
 11
210.4843367813034
 21
172.4551202714698
 31
0.0
  0
ARC
  5
276
330
1A
100
AcDbEntity
  8
SEIHIN
  6
CONTINUOUS
 62
     3
100
AcDbCircle
 10
210.4843724503587
 20
173.4551432509416
 30
0.0
 40
1.000022980108033
100
AcDbArc
 50
269.9979563606342
 51
335.5805546225535
  0
ARC
  5
277
330
1A
100
AcDbEntity
  8
SEIHIN
  6
CONTINUOUS
 62
     3
100
AcDbCircle
 10
212.4393251184956
 20
169.9051109538827
 30
0.0
 40
0.9999906824810958
100
AcDbArc
 50
270.0006682358901
 51
347.2444013363816
  0
ARC
  5
278
330
1A
100
AcDbEntity
  8
SEIHIN
  6
CONTINUOUS
 62
     3
100
AcDbCircle
 10
211.6659583594696
 20
170.905136441208
 30
0.0
 40
1.00001616997122
100
AcDbArc
 50
269.9987636821367
 51
343.6913487729164
  0
ARC
  5
27A
330
1A
100
AcDbEntity
  8
SEIHIN
  6
CONTINUOUS
 62
     3
100
AcDbCircle
 10
214.1201436908864
 20
168.2551265214307
 30
0.0
 40
1.000006249984874
100
AcDbArc
 50
269.9996041125225
 51
354.2605056144317
  0
ARC
  5
27C
330
1A
100
AcDbEntity
  8
SEIHIN
  6
CONTINUOUS
 62
     3
100
AcDbCircle
 10
217.9430344688087
 20
180.9137166823422
 30
0.0
 40
1.000002312500935
100
AcDbArc
 50
294.412390289675
 51
0.0002056413767464
  0
ARC
  5
27D
330
1A
100
AcDbEntity
  8
SEIHIN
  6
CONTINUOUS
 62
     3
100
AcDbCircle
 10
220.4930206115648
 20
179.7320986933033
 30
0.0
 40
1.000016169971168
100
AcDbArc
 50
286.3086512270912
 51
0.0012363178714112
  0
LINE
  5
27E
330
1A
100
AcDbEntity
  8
SEIHIN
  6
CONTINUOUS
 62
     3
100
AcDbLine
 10
192.1430367813032
 20
231.2551202714697
 30
0.0
 11
170.1659367813034
 21
231.2551202714697
 31
0.0
  0
LINE
  5
27F
330
1A
100
AcDbEntity
  8
SEIHIN
  6
CONTINUOUS
 62
     3
100
AcDbLine
 10
192.1430367813032
 20
229.6051202714697
 30
0.0
 11
171.8468367813033
 21
229.6051202714697
 31
0.0
  0
LINE
  5
280
330
1A
100
AcDbEntity
  8
SEIHIN
  6
CONTINUOUS
 62
     3
100
AcDbLine
 10
192.1430367813032
 20
228.6051202714697
 30
0.0
 11
172.6201367813033
 21
228.6051202714697
 31
0.0
  0
LINE
  5
281
330
1A
100
AcDbEntity
  8
SEIHIN
  6
CONTINUOUS
 62
     3
100
AcDbLine
 10
192.1430367813032
 20
226.0551202714696
 30
0.0
 11
173.8017367813033
 21
226.0551202714696
 31
0.0
  0
ARC
  5
282
330
1A
100
AcDbEntity
  8
SEIHIN
  6
CONTINUOUS
 62
     3
100
AcDbCircle
 10
160.1429867810672
 20
231.2551702717058
 30
0.0
 40
14.00006442820007
100
AcDbArc
 50
294.414657163942
 51
335.5853428360598
  0
ARC
  5
283
330
1A
100
AcDbEntity
  8
SEIHIN
  6
CONTINUOUS
 62
     3
100
AcDbCircle
 10
160.142986781045
 20
231.2551702717282
 30
0.0
 40
12.00004985792535
100
AcDbArc
 50
286.3061461890679
 51
343.693853810932
  0
ARC
  5
284
330
1A
100
AcDbEntity
  8
SEIHIN
  6
CONTINUOUS
 62
     3
100
AcDbCircle
 10
161.1430397262946
 20
221.2979235033762
 30
0.0
 40
1.000002944996604
100
AcDbArc
 50
95.31910903391956
 51
180.0001851740571
  0
ARC
  5
285
330
1A
100
AcDbEntity
  8
SEIHIN
  6
CONTINUOUS
 62
     3
100
AcDbCircle
 10
160.2160532842727
 20
231.2548366543994
 30
0.0
 40
8.999968223005229
100
AcDbArc
 50
275.3188685969151
 51
354.2626238529051
  0
ARC
  5
286
330
1A
100
AcDbEntity
  8
SEIHIN
  6
CONTINUOUS
 62
     3
100
AcDbCircle
 10
160.1429867810314
 20
231.2551702717415
 30
0.0
 40
11.00004068047729
100
AcDbArc
 50
282.758380443236
 51
347.2416195567652
  0
LINE
  5
287
330
1A
100
AcDbEntity
  8
SEIHIN
  6
CONTINUOUS
 62
     3
100
AcDbLine
 10
160.1430367813033
 20
199.2551202714697
 30
0.0
 11
160.1430367813033
 21
221.2979202714698
 31
0.0
  0
LINE
  5
288
330
1A
100
AcDbEntity
  8
SEIHIN
  6
CONTINUOUS
 62
     3
100
AcDbLine
 10
161.7930367813033
 20
199.2551202714697
 30
0.0
 11
161.7930367813033
 21
219.5514202714696
 31
0.0
  0
LINE
  5
289
330
1A
100
AcDbEntity
  8
SEIHIN
  6
CONTINUOUS
 62
     3
100
AcDbLine
 10
162.7930367813034
 20
199.2551202714697
 30
0.0
 11
162.7930367813034
 21
218.7781202714696
 31
0.0
  0
LINE
  5
28A
330
1A
100
AcDbEntity
  8
SEIHIN
  6
CONTINUOUS
 62
     3
100
AcDbLine
 10
165.3430367813034
 20
199.2551202714697
 30
0.0
 11
165.3430367813034
 21
217.5965202714698
 31
0.0
  0
LINE
  5
28B
330
1A
100
AcDbEntity
  8
SEIHIN
  6
CONTINUOUS
 62
     3
100
AcDbLine
 10
158.1430367813033
 20
202.7551202714696
 30
0.0
 11
160.1430367813033
 21
202.7551202714696
 31
0.0
  0
ARC
  5
28C
330
1A
100
AcDbEntity
  8
SEIHIN
  6
CONTINUOUS
 62
     3
100
AcDbCircle
 10
162.7930274637165
 20
219.5514086086618
 30
0.0
 40
0.9999906824812462
100
AcDbArc
 50
102.7555986636189
 51
179.9993317641115
  0
ARC
  5
28D
330
1A
100
AcDbEntity
  8
SEIHIN
  6
CONTINUOUS
 62
     3
100
AcDbCircle
 10
163.7930049627911
 20
218.7780778091107
 30
0.0
 40
0.9999681823892597
100
AcDbArc
 50
106.3065908337035
 51
179.9975670086363
  0
ARC
  5
28E
330
1A
100
AcDbEntity
  8
SEIHIN
  6
CONTINUOUS
 62
     3
100
AcDbCircle
 10
166.3429935644356
 20
217.5964531933109
 30
0.0
 40
0.9999567853819883
100
AcDbArc
 50
114.4107094151119
 51
179.9961565384989
  0
ARC
  5
28F
330
1A
100
AcDbEntity
  8
SEIHIN
  6
CONTINUOUS
 62
     3
100
AcDbCircle
 10
173.8017331921758
 20
225.0551179589752
 30
0.0
 40
1.000002312500885
100
AcDbArc
 50
89.99979435862
 51
155.5876097103255
  0
ARC
  5
290
330
1A
100
AcDbEntity
  8
SEIHIN
  6
CONTINUOUS
 62
     3
100
AcDbCircle
 10
172.620115203137
 20
227.6051041017314
 30
0.0
 40
1.000016169971249
100
AcDbArc
 50
89.99876368213511
 51
163.6913487729152
  0
ARC
  5
291
330
1A
100
AcDbEntity
  8
SEIHIN
  6
CONTINUOUS
 62
     3
100
AcDbCircle
 10
170.1659298717203
 20
230.2551140215088
 30
0.0
 40
1.000006249984832
100
AcDbArc
 50
89.99960411252571
 51
174.2605056144338
  0
ARC
  5
292
330
1A
100
AcDbEntity
  8
SEIHIN
  6
CONTINUOUS
 62
     3
100
AcDbCircle
 10
171.8467874048705
 20
228.6050808230261
 30
0.0
 40
1.000039449662711
100
AcDbArc
 50
89.99717105039565
 51
167.242169165469
  0
ARC
  5
293
330
1A
100
AcDbEntity
  8
SEIHIN
  6
CONTINUOUS
 62
     3
100
AcDbCircle
 10
224.1430367813031
 20
231.2551202714692
 30
0.0
 40
13.99999823214221
100
AcDbArc
 50
204.4145554142099
 51
245.5854445857869
  0
ARC
  5
294
330
1A
100
AcDbEntity
  8
SEIHIN
  6
CONTINUOUS
 62
     3
100
AcDbCircle
 10
224.1430367813033
 20
231.2551202714697
 30
0.0
 40
10.99998087271069
100
AcDbArc
 50
192.758183951174
 51
257.2418160488248
  0
ARC
  5
295
330
1A
100
AcDbEntity
  8
SEIHIN
  6
CONTINUOUS
 62
     3
100
AcDbCircle
 10
224.1430367813033
 20
231.25512027147
 30
0.0
 40
11.99998783041059
100
AcDbArc
 50
196.3059840874407
 51
253.6940159125605
  0
LINE
  5
296
330
1A
100
AcDbEntity
  8
CENTER_L
  6
CENTER
 62
     1
 48
5.0
100
AcDbLine
 10
192.1430367813032
 20
199.2551202714697
 30
0.0
 11
192.1430367813032
 21
239.2551202714697
 31
0.0
  0
LINE
  5
297
330
1A
100
AcDbEntity
  8
SEIHIN
  6
CONTINUOUS
 62
     3
100
AcDbLine
 10
221.4930367813032
 20
199.2551202714697
 30
0.0
 11
221.4930367813032
 21
218.7780202714697
 31
0.0
  0
LINE
  5
298
330
1A
100
AcDbEntity
  8
SEIHIN
  6
CONTINUOUS
 62
     3
100
AcDbLine
 10
218.9430367813033
 20
199.2551202714697
 30
0.0
 11
218.9430367813033
 21
217.5964202714698
 31
0.0
  0
ARC
  5
299
330
1A
100
AcDbEntity
  8
SEIHIN
  6
CONTINUOUS
 62
     3
100
AcDbCircle
 10
217.9430344688087
 20
217.5964238605971
 30
0.0
 40
1.000002312500942
100
AcDbArc
 50
359.9997943586232
 51
65.58760971032495
  0
ARC
  5
29A
330
1A
100
AcDbEntity
  8
SEIHIN
  6
CONTINUOUS
 62
     3
100
AcDbCircle
 10
220.4930206115648
 20
218.7780418496363
 30
0.0
 40
1.000016169971249
100
AcDbArc
 50
359.9987636821245
 51
73.69134877290477
  0
LINE
  5
29B
330
1A
100
AcDbEntity
  8
SEIHIN
  6
CONTINUOUS
 62
     3
100
AcDbLine
 10
192.1430367813032
 20
231.2551202714697
 30
0.0
 11
214.1201367813033
 21
231.2551202714697
 31
0.0
  0
LINE
  5
29C
330
1A
100
AcDbEntity
  8
SEIHIN
  6
CONTINUOUS
 62
     3
100
AcDbLine
 10
192.1430367813032
 20
229.6051202714697
 30
0.0
 11
212.4393367813034
 21
229.6051202714697
 31
0.0
  0
LINE
  5
29D
330
1A
100
AcDbEntity
  8
SEIHIN
  6
CONTINUOUS
 62
     3
100
AcDbLine
 10
192.1430367813032
 20
228.6051202714697
 30
0.0
 11
211.6659367813034
 21
228.6051202714697
 31
0.0
  0
LINE
  5
29E
330
1A
100
AcDbEntity
  8
SEIHIN
  6
CONTINUOUS
 62
     3
100
AcDbLine
 10
192.1430367813032
 20
226.0551202714696
 30
0.0
 11
210.4843367813034
 21
226.0551202714696
 31
0.0
  0
ARC
  5
29F
330
1A
100
AcDbEntity
  8
SEIHIN
  6
CONTINUOUS
 62
     3
100
AcDbCircle
 10
211.6659396267878
 20
227.6051181389744
 30
0.0
 40
1.000002132499371
100
AcDbArc
 50
16.30207889548152
 51
90.00016303389847
  0
ARC
  5
2A0
330
1A
100
AcDbEntity
  8
SEIHIN
  6
CONTINUOUS
 62
     3
100
AcDbCircle
 10
212.4393251184956
 20
228.6051295890568
 30
0.0
 40
0.9999906824810981
100
AcDbArc
 50
12.75559866361839
 51
89.99933176410985
  0
ARC
  5
2A1
330
1A
100
AcDbEntity
  8
SEIHIN
  6
CONTINUOUS
 62
     3
100
AcDbCircle
 10
210.4843403704309
 20
225.055117958975
 30
0.0
 40
1.00000231250097
100
AcDbArc
 50
24.41239028967757
 51
90.00020564138326
  0
ARC
  5
2A2
330
1A
100
AcDbEntity
  8
SEIHIN
  6
CONTINUOUS
 62
     3
100
AcDbCircle
 10
214.1201436908864
 20
230.2551140215088
 30
0.0
 40
1.000006249984873
100
AcDbArc
 50
5.73949438556904
 51
90.00039588747753
  0
TEXT
  5
2A3
330
1A
100
AcDbEntity
  8
ZUWAKU
 62
     7
100
AcDbText
 10
326.6755840719538
 20
7.656008029385503
 30
0.0
 40
4.0
  1
ＰＦ０５
100
AcDbText
  0
LINE
  5
2AB
330
1A
100
AcDbEntity
  8
SEIHIN
  6
CONTINUOUS
 62
     3
100
AcDbLine
 10
224.0914367813034
 20
80.0238449774395
 30
0.0
 11
224.0916367813034
 21
119.0239449774395
 31
0.0
  0
LINE
  5
2CA
330
1A
100
AcDbEntity
  8
SEIHIN
  6
CONTINUOUS
 62
     3
100
AcDbLine
 10
224.0916367813034
 20
118.5239449774394
 30
0.0
 11
226.0916367813034
 21
115.0239449774395
 31
0.0
  0
LINE
  5
2CB
330
1A
100
AcDbEntity
  8
SEIHIN
  6
CONTINUOUS
 62
     3
100
AcDbLine
 10
226.0916367813034
 20
115.0239449774395
 30
0.0
 11
226.0916367813034
 21
114.0239449774395
 31
0.0
  0
LINE
  5
2CC
330
1A
100
AcDbEntity
  8
SEIHIN
  6
CONTINUOUS
 62
     3
100
AcDbLine
 10
226.0916367813034
 20
114.0239449774395
 30
0.0
 11
224.0915367813032
 21
114.0239449774395
 31
0.0
  0
LINE
  5
2E1
330
1A
100
AcDbEntity
  8
SEIHIN
  6
CONTINUOUS
 62
     3
100
AcDbLine
 10
226.1430367813033
 20
195.7551202714697
 30
0.0
 11
226.1430367813033
 21
202.7551202714696
 31
0.0
  0
LINE
  5
2E2
330
1A
100
AcDbEntity
  8
SEIHIN
  6
CONTINUOUS
 62
     3
100
AcDbLine
 10
224.1430367813033
 20
199.2551202714697
 30
0.0
 11
224.1430367813033
 21
177.2123202714698
 31
0.0
  0
LINE
  5
2E3
330
1A
100
AcDbEntity
  8
SEIHIN
  6
CONTINUOUS
 62
     3
100
AcDbLine
 10
222.4930367813034
 20
199.2551202714697
 30
0.0
 11
222.4930367813034
 21
178.9588202714696
 31
0.0
  0
ARC
  5
2E8
330
1A
100
AcDbEntity
  8
SEIHIN
  6
CONTINUOUS
 62
     3
100
AcDbCircle
 10
223.143033836312
 20
177.2123170395631
 30
0.0
 40
1.000002944996491
100
AcDbArc
 50
275.3191090339291
 51
0.0001851740644627
  0
LINE
  5
2E9
330
1A
100
AcDbEntity
  8
SEIHIN
  6
CONTINUOUS
 62
     3
100
AcDbLine
 10
226.1430367813033
 20
195.7551202714697
 30
0.0
 11
224.1430367813033
 21
195.7551202714697
 31
0.0
  0
ARC
  5
2EC
330
1A
100
AcDbEntity
  8
SEIHIN
  6
CONTINUOUS
 62
     3
100
AcDbCircle
 10
223.143033836312
 20
221.2979235033764
 30
0.0
 40
1.000002944996474
100
AcDbArc
 50
359.9998148259347
 51
84.68089096607078
  0
LINE
  5
2EE
330
1A
100
AcDbEntity
  8
SEIHIN
  6
CONTINUOUS
 62
     3
100
AcDbLine
 10
224.1430367813033
 20
199.2551202714697
 30
0.0
 11
224.1430367813033
 21
221.2979202714698
 31
0.0
  0
LINE
  5
2EF
330
1A
100
AcDbEntity
  8
SEIHIN
  6
CONTINUOUS
 62
     3
100
AcDbLine
 10
222.4930367813034
 20
199.2551202714697
 30
0.0
 11
222.4930367813034
 21
219.5514202714696
 31
0.0
  0
LINE
  5
2F0
330
1A
100
AcDbEntity
  8
SEIHIN
  6
CONTINUOUS
 62
     3
100
AcDbLine
 10
226.1430367813033
 20
202.7551202714696
 30
0.0
 11
224.1430367813033
 21
202.7551202714696
 31
0.0
  0
DIMENSION
  5
304
330
1A
100
AcDbEntity
  8
SUNPOU
100
AcDbDimension
  2
*D1
 10
224.0930367813034
 20
139.4705017741297
 30
0.0
 11
192.1430367813033
 21
141.9705017741297
 31
0.0
 70
    32
  3
STANDARD
100
AcDbAlignedDimension
 13
160.1930367813032
 23
119.0240449774395
 33
0.0
 14
224.0930367813034
 24
119.0239449774395
 34
0.0
100
AcDbRotatedDimension
1001
ACAD
1000
DSTYLE
1002
{
1070
   372
1070
    -1
1070
   371
1070
    -1
1070
    41
1040
3.0
1070
    42
1040
3.0
1070
    43
1040
7.0
1070
    44
1040
1.5
1070
    73
1070
     0
1070
    74
1070
     0
1070
    77
1070
     3
1070
   140
1040
3.0
1070
   141
1040
150.0
1070
   147
1040
1.0
1070
   172
1070
     1
1070
   173
1070
     1
1070
   176
1070
   256
1070
   177
1070
   256
1070
   178
1070
   256
1070
   271
1070
     0
1070
   272
1070
     2
1070
     6
1000
OPEN
1070
     7
1000
OPEN
1002
}
  0
DIMENSION
  5
32D
330
1A
100
AcDbEntity
  8
SUNPOU
100
AcDbDimension
  2
*D2
 10
250.2724110648137
 20
80.0238449774395
 30
0.0
 11
247.7724110648136
 21
99.52389497743954
 31
0.0
 70
    32
  3
STANDARD
100
AcDbAlignedDimension
 13
224.0930367813034
 23
119.0239449774395
 33
0.0
 14
224.0914367813034
 24
80.0238449774395
 34
0.0
 50
90.0
100
AcDbRotatedDimension
1001
ACAD
1000
DSTYLE
1002
{
1070
   372
1070
    -1
1070
   371
1070
    -1
1070
    41
1040
3.0
1070
    42
1040
3.0
1070
    43
1040
7.0
1070
    44
1040
1.5
1070
    73
1070
     0
1070
    74
1070
     0
1070
    77
1070
     3
1070
   140
1040
3.0
1070
   141
1040
150.0
1070
   147
1040
1.0
1070
   172
1070
     1
1070
   173
1070
     1
1070
   176
1070
   256
1070
   177
1070
   256
1070
   178
1070
   256
1070
   271
1070
     0
1070
   272
1070
     2
1070
     6
1000
OPEN
1070
     7
1000
OPEN
1002
}
  0
DIMENSION
  5
33A
330
1A
100
AcDbEntity
  8
SUNPOU
100
AcDbDimension
  2
*D3
 10
261.2742264479823
 20
60.02384497743957
 30
0.0
 11
258.7742264479822
 21
89.52389497743958
 31
0.0
 70
    32
  3
STANDARD
100
AcDbAlignedDimension
 13
224.0930367813034
 23
119.0239449774395
 33
0.0
 14
220.0920367813034
 24
60.02384497743958
 34
0.0
 50
90.0
100
AcDbRotatedDimension
1001
ACAD
1000
DSTYLE
1002
{
1070
   372
1070
    -1
1070
   371
1070
    -1
1070
    41
1040
3.0
1070
    42
1040
3.0
1070
    43
1040
7.0
1070
    44
1040
1.5
1070
    73
1070
     0
1070
    74
1070
     0
1070
    77
1070
     3
1070
   140
1040
3.0
1070
   141
1040
150.0
1070
   147
1040
1.0
1070
   172
1070
     1
1070
   173
1070
     1
1070
   176
1070
   256
1070
   177
1070
   256
1070
   178
1070
   256
1070
   271
1070
     0
1070
   272
1070
     2
1070
     6
1000
OPEN
1070
     7
1000
OPEN
1002
}
  0
DIMENSION
  5
347
330
1A
100
AcDbEntity
  8
SUNPOU
100
AcDbDimension
  2
*D4
 10
140.0042162108063
 20
94.02404497747021
 30
0.0
 11
137.5042162108063
 21
106.5240449774549
 31
0.0
 70
    32
  1
※ <>
  3
STANDARD
100
AcDbAlignedDimension
 13
160.1930367813032
 23
119.0240449774395
 33
0.0
 14
160.1929976576726
 24
94.02404497747019
 34
0.0
 50
90.0
100
AcDbRotatedDimension
1001
ACAD
1000
DSTYLE
1002
{
1070
   372
1070
    -1
1070
   371
1070
    -1
1070
    41
1040
3.0
1070
    42
1040
3.0
1070
    43
1040
7.0
1070
    44
1040
1.5
1070
    73
1070
     0
1070
    74
1070
     0
1070
    77
1070
     3
1070
   140
1040
3.0
1070
   141
1040
150.0
1070
   147
1040
1.0
1070
   172
1070
     1
1070
   173
1070
     1
1070
   176
1070
   256
1070
   177
1070
   256
1070
   178
1070
   256
1070
   271
1070
     0
1070
   272
1070
     2
1070
     6
1000
OPEN
1070
     7
1000
OPEN
1002
}
  0
DIMENSION
  5
354
330
1A
100
AcDbEntity
  8
SUNPOU
100
AcDbDimension
  2
*D5
 10
140.0042162108063
 20
60.02404497743951
 30
0.0
 11
137.5042162108063
 21
75.02409497738447
 31
0.0
 70
    32
  1
※ <>
  3
STANDARD
100
AcDbAlignedDimension
 13
160.1914837296601
 23
90.02414497732939
 33
0.0
 14
164.1938367813034
 24
60.0240449774395
 34
0.0
 50
90.0
100
AcDbRotatedDimension
1001
ACAD
1000
DSTYLE
1002
{
1070
   372
1070
    -1
1070
   371
1070
    -1
1070
    41
1040
3.0
1070
    42
1040
3.0
1070
    43
1040
7.0
1070
    44
1040
1.5
1070
    73
1070
     0
1070
    74
1070
     0
1070
    77
1070
     3
1070
   140
1040
3.0
1070
   141
1040
150.0
1070
   147
1040
1.0
1070
   172
1070
     1
1070
   173
1070
     1
1070
   176
1070
   256
1070
   177
1070
   256
1070
   178
1070
   256
1070
   271
1070
     0
1070
   272
1070
     2
1070
     6
1000
OPEN
1070
     7
1000
OPEN
1002
}
  0
DIMENSION
  5
361
330
1A
100
AcDbEntity
  8
SUNPOU
100
AcDbDimension
  2
*D6
 10
250.2724110648137
 20
167.2551202714696
 30
0.0
 11
247.7724110648136
 21
199.2551202714697
 31
0.0
 70
    32
  3
STANDARD
100
AcDbAlignedDimension
 13
214.1201367813033
 23
231.2551202714697
 33
0.0
 14
214.1201367813033
 24
167.2551202714696
 34
0.0
 50
90.0
100
AcDbRotatedDimension
1001
ACAD
1000
DSTYLE
1002
{
1070
   372
1070
    -1
1070
   371
1070
    -1
1070
    41
1040
3.0
1070
    42
1040
3.0
1070
    43
1040
7.0
1070
    44
1040
1.5
1070
    73
1070
     0
1070
    74
1070
     0
1070
    77
1070
     3
1070
   140
1040
3.0
1070
   141
1040
150.0
1070
   147
1040
1.0
1070
   172
1070
     1
1070
   173
1070
     1
1070
   176
1070
   256
1070
   177
1070
   256
1070
   178
1070
   256
1070
   271
1070
     0
1070
   272
1070
     2
1070
     6
1000
OPEN
1070
     7
1000
OPEN
1002
}
  0
TEXT
  5
362
330
1A
100
AcDbEntity
  8
SUNPOU
 62
     4
100
AcDbText
 10
293.148695606889
 20
25.0485283480231
 30
0.0
 40
4.0
  1
※　たてといの差込み寸法を示す。
100
AcDbText
  0
VIEWPORT
  5
22
330
17
100
AcDbEntity
 67
     1
  8
0
100
AcDbViewport
 10
313.6808219178082
 20
148.5
 30
0.0
 40
627.3616438356165
 41
297.0
 68
     2
 69
     1
1001
ACAD
1000
MVIEW
1002
{
1070
    16
1010
0.0
1020
0.0
1030
0.0
1010
0.0
1020
0.0
1030
1.0
1040
0.0
1040
297.0
1040
313.6808219178082
1040
148.5
1040
50.0
1040
0.0
1040
0.0
1070
     0
1070
   100
1070
     1
1070
     0
1070
     0
1070
     0
1070
     0
1070
     0
1040
0.0
1040
0.0
1040
0.0
1040
1.0
1040
1.0
1040
10.0
1040
10.0
1070
     0
1002
{
1002
}
1002
}
  0
VIEWPORT
  5
64
330
17
100
AcDbEntity
 67
     1
  8
VIEWPORT
100
AcDbViewport
 10
210.0
 20
148.5
 30
0.0
 40
420.0
 41
297.0
 68
     1
 69
     2
1001
ACAD
1000
MVIEW
1002
{
1070
    16
1010
0.0
1020
0.0
1030
0.0
1010
0.0
1020
0.0
1030
1.0
1040
0.0
1040
302.9399999999998
1040
210.0
1040
148.5
1040
50.0
1040
0.0
1040
0.0
1070
     0
1070
   100
1070
     1
1070
     0
1070
     0
1070
     0
1070
     0
1070
     0
1040
0.0
1040
0.0
1040
0.0
1040
5.0
1040
5.0
1040
0.0
1040
0.0
1070
     0
1002
{
1002
}
1002
}
  0
ENDSEC
  0
SECTION
  2
OBJECTS
  0
DICTIONARY
  5
C
330
0
100
AcDbDictionary
  3
ACAD_GROUP
350
D
  3
ACAD_LAYOUT
350
3BC
  3
ACAD_MLINESTYLE
350
E
  3
ACAD_PLOTSETTINGS
350
3BD
1001
ACAD
1000
TREAT_AS_HARD
1070
     0
  0
DICTIONARY
  5
52F
330
1A
100
AcDbDictionary
  3
ACAD_LAYOUTSELFREF
350
5DD
1001
ACAD
1000
TREAT_AS_HARD
1070
     1
  0
DICTIONARY
  5
52D
330
17
100
AcDbDictionary
  3
ACAD_LAYOUTSELFREF
350
5DC
1001
ACAD
1000
TREAT_AS_HARD
1070
     1
  0
DICTIONARY
  5
D
102
{ACAD_REACTORS
330
C
102
}
330
C
100
AcDbDictionary
1001
ACAD
1000
TREAT_AS_HARD
1070
     0
  0
DICTIONARY
  5
3BC
102
{ACAD_REACTORS
330
C
102
}
330
C
100
AcDbDictionary
1001
ACAD
1000
TREAT_AS_HARD
1070
     0
  0
DICTIONARY
  5
E
102
{ACAD_REACTORS
330
C
102
}
330
C
100
AcDbDictionary
  3
STANDARD
350
13
1001
ACAD
1000
TREAT_AS_HARD
1070
     0
  0
DICTIONARY
  5
3BD
102
{ACAD_REACTORS
330
C
102
}
330
C
100
AcDbDictionary
1001
ACAD
1000
TREAT_AS_HARD
1070
     0
  0
XRECORD
  5
5DD
102
{ACAD_REACTORS
330
52F
102
}
330
52F
100
AcDbXrecord
340
1A
  0
XRECORD
  5
5DC
102
{ACAD_REACTORS
330
52D
102
}
330
52D
100
AcDbXrecord
340
17
  0
MLINESTYLE
  5
13
102
{ACAD_REACTORS
330
E
102
}
330
E
100
AcDbMlineStyle
  2
STANDARD
 70
     0
  3

 62
     0
 51
90.0
 52
90.0
 71
     2
 49
0.5
 62
   256
  6
BYLAYER
 49
-0.5
 62
   256
  6
BYLAYER
  0
ENDSEC
  0
EOF
