  0
SECTION
  2
HEADER
  9
$ACADVER
  1
AC1012
  9
$DWGCODEPAGE
  3
dos932
  9
$INSBASE
 10
0.0
 20
0.0
 30
0.0
  9
$EXTMIN
 10
5.0
 20
2.449000558492456
 30
0.0
  9
$EXTMAX
 10
403.0
 20
282.0
 30
0.0
  9
$LIMMIN
 10
0.0
 20
0.0
  9
$LIMMAX
 10
420.0
 20
297.0
  9
$ORTHOMODE
 70
     0
  9
$REGENMODE
 70
     1
  9
$FILLMODE
 70
     1
  9
$QTEXTMODE
 70
     0
  9
$MIRRTEXT
 70
     1
  9
$DRAGMODE
 70
     2
  9
$LTSCALE
 40
1.0
  9
$OSMODE
 70
    37
  9
$ATTMODE
 70
     1
  9
$TEXTSIZE
 40
2.5
  9
$TRACEWID
 40
1.0
  9
$TEXTSTYLE
  7
STANDARD
  9
$CLAYER
  8
SUNPOU
  9
$CELTYPE
  6
BYLAYER
  9
$CECOLOR
 62
   256
  9
$CELTSCALE
 40
1.0
  9
$DELOBJ
 70
     1
  9
$DISPSILH
 70
     0
  9
$DIMSCALE
 40
1.0
  9
$DIMASZ
 40
3.0
  9
$DIMEXO
 40
3.0
  9
$DIMDLI
 40
7.0
  9
$DIMRND
 40
0.0
  9
$DIMDLE
 40
0.0
  9
$DIMEXE
 40
1.5
  9
$DIMTP
 40
0.0
  9
$DIMTM
 40
0.0
  9
$DIMTXT
 40
3.0
  9
$DIMCEN
 40
150.0
  9
$DIMTSZ
 40
0.0
  9
$DIMTOL
 70
     0
  9
$DIMLIM
 70
     0
  9
$DIMTIH
 70
     0
  9
$DIMTOH
 70
     0
  9
$DIMSE1
 70
     0
  9
$DIMSE2
 70
     0
  9
$DIMTAD
 70
     3
  9
$DIMZIN
 70
     0
  9
$DIMBLK
  1

  9
$DIMASO
 70
     1
  9
$DIMSHO
 70
     1
  9
$DIMPOST
  1

  9
$DIMAPOST
  1

  9
$DIMALT
 70
     0
  9
$DIMALTD
 70
     2
  9
$DIMALTF
 40
25.4
  9
$DIMLFAC
 40
1.0
  9
$DIMTOFL
 70
     1
  9
$DIMTVP
 40
0.0
  9
$DIMTIX
 70
     0
  9
$DIMSOXD
 70
     0
  9
$DIMSAH
 70
     1
  9
$DIMBLK1
  1
OPEN
  9
$DIMBLK2
  1
OPEN
  9
$DIMSTYLE
  2
STANDARD
  9
$DIMCLRD
 70
   256
  9
$DIMCLRE
 70
   256
  9
$DIMCLRT
 70
   256
  9
$DIMTFAC
 40
1.0
  9
$DIMGAP
 40
1.0
  9
$DIMJUST
 70
     0
  9
$DIMSD1
 70
     0
  9
$DIMSD2
 70
     0
  9
$DIMTOLJ
 70
     1
  9
$DIMTZIN
 70
     0
  9
$DIMALTZ
 70
     0
  9
$DIMALTTZ
 70
     0
  9
$DIMFIT
 70
     3
  9
$DIMUPT
 70
     0
  9
$DIMUNIT
 70
     2
  9
$DIMDEC
 70
     0
  9
$DIMTDEC
 70
     0
  9
$DIMALTU
 70
     2
  9
$DIMALTTD
 70
     2
  9
$DIMTXSTY
  7
STANDARD
  9
$DIMAUNIT
 70
     0
  9
$LUNITS
 70
     2
  9
$LUPREC
 70
     4
  9
$SKETCHINC
 40
1.0
  9
$FILLETRAD
 40
1.0
  9
$AUNITS
 70
     0
  9
$AUPREC
 70
     0
  9
$MENU
  1
.
  9
$ELEVATION
 40
0.0
  9
$PELEVATION
 40
0.0
  9
$THICKNESS
 40
0.0
  9
$LIMCHECK
 70
     0
  9
$BLIPMODE
 70
     0
  9
$CHAMFERA
 40
10.0
  9
$CHAMFERB
 40
10.0
  9
$CHAMFERC
 40
20.0
  9
$CHAMFERD
 40
0.0
  9
$SKPOLY
 70
     0
  9
$TDCREATE
 40
2451074.362509027
  9
$TDUPDATE
 40
2452393.840376748
  9
$TDINDWG
 40
0.0151079398
  9
$TDUSRTIMER
 40
0.0151079398
  9
$USRTIMER
 70
     1
  9
$ANGBASE
 50
0.0
  9
$ANGDIR
 70
     0
  9
$PDMODE
 70
     0
  9
$PDSIZE
 40
0.0
  9
$PLINEWID
 40
0.0
  9
$COORDS
 70
     1
  9
$SPLFRAME
 70
     0
  9
$SPLINETYPE
 70
     6
  9
$SPLINESEGS
 70
     8
  9
$ATTDIA
 70
     0
  9
$ATTREQ
 70
     1
  9
$HANDLING
 70
 10241
  9
$HANDSEED
  5
9A2
  9
$SURFTAB1
 70
     6
  9
$SURFTAB2
 70
     6
  9
$SURFTYPE
 70
     6
  9
$SURFU
 70
     6
  9
$SURFV
 70
     6
  9
$UCSNAME
  2

  9
$UCSORG
 10
0.0
 20
0.0
 30
0.0
  9
$UCSXDIR
 10
1.0
 20
0.0
 30
0.0
  9
$UCSYDIR
 10
0.0
 20
1.0
 30
0.0
  9
$PUCSNAME
  2

  9
$PUCSORG
 10
0.0
 20
0.0
 30
0.0
  9
$PUCSXDIR
 10
1.0
 20
0.0
 30
0.0
  9
$PUCSYDIR
 10
0.0
 20
1.0
 30
0.0
  9
$USERI1
 70
     0
  9
$USERI2
 70
     0
  9
$USERI3
 70
     0
  9
$USERI4
 70
     0
  9
$USERI5
 70
     0
  9
$USERR1
 40
0.0
  9
$USERR2
 40
0.0
  9
$USERR3
 40
0.0
  9
$USERR4
 40
0.0
  9
$USERR5
 40
0.0
  9
$WORLDVIEW
 70
     1
  9
$SHADEDGE
 70
     3
  9
$SHADEDIF
 70
    70
  9
$TILEMODE
 70
     1
  9
$MAXACTVP
 70
    16
  9
$PINSBASE
 10
0.0
 20
0.0
 30
0.0
  9
$PLIMCHECK
 70
     0
  9
$PEXTMIN
 10
0.0
 20
0.0
 30
0.0
  9
$PEXTMAX
 10
420.0
 20
297.0
 30
0.0
  9
$PLIMMIN
 10
0.0
 20
0.0
  9
$PLIMMAX
 10
420.0
 20
297.0
  9
$UNITMODE
 70
     0
  9
$VISRETAIN
 70
     0
  9
$PLINEGEN
 70
     0
  9
$PSLTSCALE
 70
     1
  9
$TREEDEPTH
 70
  3020
  9
$PICKSTYLE
 70
     1
  9
$CMLSTYLE
  2
STANDARD
  9
$CMLJUST
 70
     0
  9
$CMLSCALE
 40
1.0
  9
$SAVEIMAGES
 70
     1
  0
ENDSEC
  0
SECTION
  2
CLASSES
  0
CLASS
  1
ACDBDICTIONARYWDFLT
  2
AcDbDictionaryWithDefault
  3
AutoCAD 2000
 90
    32768
280
     0
281
     0
  0
CLASS
  1
ACDBPLACEHOLDER
  2
AcDbPlaceHolder
  3
AutoCAD 2000
 90
    32768
280
     0
281
     0
  0
CLASS
  1
LAYOUT
  2
AcDbLayout
  3
AutoCAD 2000
 90
    32768
280
     0
281
     0
  0
CLASS
  1
LONG_TRANSACTION
  2
AcDbLongTransaction
  3
AutoCAD 2000
 90
    32768
280
     0
281
     0
  0
CLASS
  1
LWPOLYLINE
  2
AcDbPolyline
  3
AutoCAD 2000
 90
    32768
280
     0
281
     1
  0
CLASS
  1
HATCH
  2
AcDbHatch
  3
AutoCAD 2000
 90
    32768
280
     0
281
     1
  0
CLASS
  1
XRECORD
  2
AcDbXrecord
  3
AutoCAD 2000
 90
    32768
280
     0
281
     0
  0
CLASS
  1
LONG_TRANSACTION
  2
AcDbLongTransaction
  3
AutoCAD 2000
 90
    32768
280
     0
281
     0
  0
CLASS
  1
LWPOLYLINE
  2
AcDbPolyline
  3
AutoCAD 2000
 90
    32768
280
     0
281
     1
  0
CLASS
  1
HATCH
  2
AcDbHatch
  3
AutoCAD 2000
 90
    32768
280
     0
281
     1
  0
CLASS
  1
XRECORD
  2
AcDbXrecord
  3
AutoCAD 2000
 90
    32768
280
     0
281
     0
  0
CLASS
  1
LONG_TRANSACTION
  2
AcDbLongTransaction
  3
AutoCAD 2000
 90
    32768
280
     0
281
     0
  0
CLASS
  1
LWPOLYLINE
  2
AcDbPolyline
  3
AutoCAD 2000
 90
    32768
280
     0
281
     1
  0
CLASS
  1
HATCH
  2
AcDbHatch
  3
AutoCAD 2000
 90
    32768
280
     0
281
     1
  0
CLASS
  1
XRECORD
  2
AcDbXrecord
  3
AutoCAD 2000
 90
    32768
280
     0
281
     0
  0
CLASS
  1
LONG_TRANSACTION
  2
AcDbLongTransaction
  3
AutoCAD 2000
 90
    32768
280
     0
281
     0
  0
CLASS
  1
LWPOLYLINE
  2
AcDbPolyline
  3
AutoCAD 2000
 90
    32768
280
     0
281
     1
  0
CLASS
  1
HATCH
  2
AcDbHatch
  3
AutoCAD 2000
 90
    32768
280
     0
281
     1
  0
CLASS
  1
XRECORD
  2
AcDbXrecord
  3
AutoCAD 2000
 90
    32768
280
     0
281
     0
  0
ENDSEC
  0
SECTION
  2
TABLES
  0
TABLE
  2
VPORT
  5
8
330
0
100
AcDbSymbolTable
 70
     2
  0
VPORT
  5
996
330
8
100
AcDbSymbolTableRecord
100
AcDbViewportTableRecord
  2
*ACTIVE
 70
     0
 10
0.0
 20
0.0
 11
1.0
 21
1.0
 12
286.1389440444696
 22
155.0881293830066
 13
0.0
 23
0.0
 14
5.0
 24
5.0
 15
0.0
 25
0.0
 16
0.0
 26
0.0
 36
1.0
 17
0.0
 27
0.0
 37
0.0
 40
334.7058565383954
 41
2.169459962756052
 42
50.0
 43
0.0
 44
0.0
 50
0.0
 51
0.0
 71
     0
 72
   100
 73
     1
 74
     0
 75
     0
 76
     0
 77
     0
 78
     0
  0
ENDTAB
  0
TABLE
  2
LTYPE
  5
5
330
0
100
AcDbSymbolTable
 70
     2
  0
LTYPE
  5
14
330
5
100
AcDbSymbolTableRecord
100
AcDbLinetypeTableRecord
  2
BYBLOCK
 70
     0
  3

 72
    65
 73
     0
 40
0.0
  0
LTYPE
  5
15
330
5
100
AcDbSymbolTableRecord
100
AcDbLinetypeTableRecord
  2
BYLAYER
 70
     0
  3

 72
    65
 73
     0
 40
0.0
  0
LTYPE
  5
16
330
5
100
AcDbSymbolTableRecord
100
AcDbLinetypeTableRecord
  2
CONTINUOUS
 70
     0
  3
Solid line
 72
    65
 73
     0
 40
0.0
  0
LTYPE
  5
120
330
5
100
AcDbSymbolTableRecord
100
AcDbLinetypeTableRecord
  2
CENTER
 70
     0
  3
____ _ ____ _ ____ _ ____ _ ____ _ ____ _ ____ 
 72
    65
 73
     4
 40
2.0
 49
1.25
 74
     0
 49
-0.25
 74
     0
 49
0.25
 74
     0
 49
-0.25
 74
     0
  0
ENDTAB
  0
TABLE
  2
LAYER
  5
2
330
0
100
AcDbSymbolTable
 70
     7
  0
LAYER
  5
F
330
2
100
AcDbSymbolTableRecord
100
AcDbLayerTableRecord
  2
0
 70
     0
 62
     7
  6
CONTINUOUS
  0
LAYER
  5
62
330
2
100
AcDbSymbolTableRecord
100
AcDbLayerTableRecord
  2
VIEWPORT
 70
     0
 62
     7
  6
CONTINUOUS
  0
LAYER
  5
6B
330
2
100
AcDbSymbolTableRecord
100
AcDbLayerTableRecord
  2
ZUWAKU
 70
     0
 62
     7
  6
CONTINUOUS
  0
LAYER
  5
1C8
330
2
100
AcDbSymbolTableRecord
100
AcDbLayerTableRecord
  2
SEIHIN
 70
     0
 62
     3
  6
CONTINUOUS
  0
LAYER
  5
1C9
330
2
100
AcDbSymbolTableRecord
100
AcDbLayerTableRecord
  2
SUNPOU
 70
     0
 62
     4
  6
CONTINUOUS
  0
LAYER
  5
1CA
330
2
100
AcDbSymbolTableRecord
100
AcDbLayerTableRecord
  2
CENTER_L
 70
     0
 62
     1
  6
CENTER
  0
LAYER
  5
1CB
330
2
100
AcDbSymbolTableRecord
100
AcDbLayerTableRecord
  2
DEFPOINTS
 70
     0
 62
     7
  6
CONTINUOUS
  0
ENDTAB
  0
TABLE
  2
STYLE
  5
3
330
0
100
AcDbSymbolTable
 70
     1
  0
STYLE
  5
10
330
3
100
AcDbSymbolTableRecord
100
AcDbTextStyleTableRecord
  2
STANDARD
 70
     0
 40
0.0
 41
1.0
 50
0.0
 71
     0
 42
2.5
  3
TXT
  4
bigfont.shx
  0
ENDTAB
  0
TABLE
  2
VIEW
  5
6
330
0
100
AcDbSymbolTable
 70
     0
  0
ENDTAB
  0
TABLE
  2
UCS
  5
7
330
0
100
AcDbSymbolTable
 70
     0
  0
ENDTAB
  0
TABLE
  2
APPID
  5
9
330
0
100
AcDbSymbolTable
 70
     1
  0
APPID
  5
11
330
9
100
AcDbSymbolTableRecord
100
AcDbRegAppTableRecord
  2
ACAD
 70
     0
  0
ENDTAB
  0
TABLE
  2
DIMSTYLE
  5
A
330
0
100
AcDbSymbolTable
 70
     1
  0
DIMSTYLE
105
1D
102
{ACAD_REACTORS
330
415
330
422
330
42F
330
449
330
463
330
470
330
47D
330
48A
330
4A4
330
4B1
330
504
330
521
102
}
330
A
100
AcDbSymbolTableRecord
100
AcDbDimStyleTableRecord
  2
STANDARD
 70
     0
  3

  4

  5

  6

  7

 40
1.0
 41
0.18
 42
0.0625
 43
0.38
 44
0.18
 45
0.0
 46
0.0
 47
0.0
 48
0.0
140
0.18
141
0.09
142
0.0
143
25.4
144
1.0
145
0.0
146
1.0
147
0.09
 71
     0
 72
     0
 73
     1
 74
     1
 75
     0
 76
     0
 77
     0
 78
     0
170
     0
171
     2
172
     0
173
     0
174
     0
175
     0
176
     0
177
     0
178
     0
270
     2
271
     4
272
     4
273
     2
274
     2
340
10
275
     0
280
     0
281
     0
282
     0
283
     1
284
     0
285
     0
286
     0
287
     3
288
     0
  0
ENDTAB
  0
TABLE
  2
BLOCK_RECORD
  5
1
330
0
100
AcDbSymbolTable
 70
    13
  0
BLOCK_RECORD
  5
1A
102
{ACAD_XDICTIONARY
360
8A2
102
}
330
1
100
AcDbSymbolTableRecord
100
AcDbBlockTableRecord
  2
*MODEL_SPACE
  0
BLOCK_RECORD
  5
17
102
{ACAD_XDICTIONARY
360
8A0
102
}
330
1
100
AcDbSymbolTableRecord
100
AcDbBlockTableRecord
  2
*PAPER_SPACE
  0
BLOCK_RECORD
  5
B2
330
1
100
AcDbSymbolTableRecord
100
AcDbBlockTableRecord
  2
_OPEN
  0
BLOCK_RECORD
  5
409
330
1
100
AcDbSymbolTableRecord
100
AcDbBlockTableRecord
  2
*D1
  0
BLOCK_RECORD
  5
416
330
1
100
AcDbSymbolTableRecord
100
AcDbBlockTableRecord
  2
*D2
  0
BLOCK_RECORD
  5
423
330
1
100
AcDbSymbolTableRecord
100
AcDbBlockTableRecord
  2
*D3
  0
BLOCK_RECORD
  5
43D
330
1
100
AcDbSymbolTableRecord
100
AcDbBlockTableRecord
  2
*D4
  0
BLOCK_RECORD
  5
457
330
1
100
AcDbSymbolTableRecord
100
AcDbBlockTableRecord
  2
*D5
  0
BLOCK_RECORD
  5
464
330
1
100
AcDbSymbolTableRecord
100
AcDbBlockTableRecord
  2
*D6
  0
BLOCK_RECORD
  5
471
330
1
100
AcDbSymbolTableRecord
100
AcDbBlockTableRecord
  2
*D7
  0
BLOCK_RECORD
  5
47E
330
1
100
AcDbSymbolTableRecord
100
AcDbBlockTableRecord
  2
*D8
  0
BLOCK_RECORD
  5
498
330
1
100
AcDbSymbolTableRecord
100
AcDbBlockTableRecord
  2
*D9
  0
BLOCK_RECORD
  5
4A5
330
1
100
AcDbSymbolTableRecord
100
AcDbBlockTableRecord
  2
*D10
  0
BLOCK_RECORD
  5
4F8
330
1
100
AcDbSymbolTableRecord
100
AcDbBlockTableRecord
  2
*D11
  0
BLOCK_RECORD
  5
515
330
1
100
AcDbSymbolTableRecord
100
AcDbBlockTableRecord
  2
*D12
  0
ENDTAB
  0
ENDSEC
  0
SECTION
  2
BLOCKS
  0
BLOCK
  5
1B
330
1A
100
AcDbEntity
  8
0
100
AcDbBlockBegin
  2
*MODEL_SPACE
 70
     0
 10
0.0
 20
0.0
 30
0.0
  3
*MODEL_SPACE
  1

  0
ENDBLK
  5
1C
330
1A
100
AcDbEntity
  8
0
100
AcDbBlockEnd
  0
BLOCK
  5
18
330
17
100
AcDbEntity
 67
     1
  8
0
100
AcDbBlockBegin
  2
*PAPER_SPACE
 70
     0
 10
0.0
 20
0.0
 30
0.0
  3
*PAPER_SPACE
  1

  0
ENDBLK
  5
19
330
17
100
AcDbEntity
 67
     1
  8
0
100
AcDbBlockEnd
  0
BLOCK
  5
B3
330
B2
100
AcDbEntity
  8
0
100
AcDbBlockBegin
  2
_OPEN
 70
     0
 10
0.0
 20
0.0
 30
0.0
  3
_OPEN
  1

  0
LINE
  5
B4
330
B2
100
AcDbEntity
  8
0
  6
BYBLOCK
 62
     0
100
AcDbLine
 10
-1.0
 20
0.1666666666666666
 30
0.0
 11
0.0
 21
0.0
 31
0.0
  0
LINE
  5
B5
330
B2
100
AcDbEntity
  8
0
  6
BYBLOCK
 62
     0
100
AcDbLine
 10
0.0
 20
0.0
 30
0.0
 11
-1.0
 21
-0.1666666666666666
 31
0.0
  0
LINE
  5
B6
330
B2
100
AcDbEntity
  8
0
  6
BYBLOCK
 62
     0
100
AcDbLine
 10
0.0
 20
0.0
 30
0.0
 11
-1.0
 21
0.0
 31
0.0
  0
ENDBLK
  5
B7
330
B2
100
AcDbEntity
  8
0
100
AcDbBlockEnd
  0
BLOCK
  5
40A
330
409
100
AcDbEntity
  8
0
100
AcDbBlockBegin
  2
*D1
 70
     1
 10
0.0
 20
0.0
 30
0.0
  3
*D1
  1

  0
LINE
  5
8AA
330
409
100
AcDbEntity
  8
SUNPOU
100
AcDbLine
 10
288.4000005291672
 20
213.5631176157011
 30
0.0
 11
288.4000005291672
 21
230.6152968589695
 31
0.0
  0
LINE
  5
8AB
330
409
100
AcDbEntity
  8
SUNPOU
100
AcDbLine
 10
352.2991005291673
 20
213.563017615701
 30
0.0
 11
352.2991005291673
 21
230.6152968589695
 31
0.0
  0
LINE
  5
8AC
330
409
100
AcDbEntity
  8
SUNPOU
100
AcDbLine
 10
291.4000005291672
 20
229.1152968589695
 30
0.0
 11
349.2991005291674
 21
229.1152968589695
 31
0.0
  0
INSERT
  5
8AD
330
409
100
AcDbEntity
  8
SUNPOU
100
AcDbBlockReference
  2
_OPEN
 10
288.4000005291672
 20
229.1152968589695
 30
0.0
 41
3.0
 42
3.0
 43
3.0
 50
180.0
  0
INSERT
  5
8AE
330
409
100
AcDbEntity
  8
SUNPOU
100
AcDbBlockReference
  2
_OPEN
 10
352.2991005291673
 20
229.1152968589695
 30
0.0
 41
3.0
 42
3.0
 43
3.0
  0
MTEXT
  5
8AF
330
409
100
AcDbEntity
  8
SUNPOU
100
AcDbMText
 10
320.3495505291673
 20
231.6152968589696
 30
0.0
 40
3.0
 41
0.0
 71
     5
 72
     1
  1
\A1;64
1001
ACAD
1000
MTEXTBEGIN
1070
    73
1070
     1
1070
    44
1040
1.0
1070
    74
1070
     0
1000
MTEXTEND
1000
MTEXTBEGIN
1070
    73
1070
     1
1070
    44
1040
1.0
1070
    74
1070
     0
1000
MTEXTEND
1000
MTEXTBEGIN
1070
    73
1070
     1
1070
    44
1040
1.0
1070
    74
1070
     0
1000
MTEXTEND
  0
POINT
  5
8B0
330
409
100
AcDbEntity
  8
DEFPOINTS
 62
     0
100
AcDbPoint
 10
288.4000005291672
 20
210.5631176157011
 30
0.0
  0
POINT
  5
8B1
330
409
100
AcDbEntity
  8
DEFPOINTS
 62
     0
100
AcDbPoint
 10
352.2991005291673
 20
210.563017615701
 30
0.0
  0
POINT
  5
8B2
330
409
100
AcDbEntity
  8
DEFPOINTS
 62
     0
100
AcDbPoint
 10
352.2991005291673
 20
229.1152968589695
 30
0.0
  0
ENDBLK
  5
414
330
409
100
AcDbEntity
  8
0
100
AcDbBlockEnd
  0
BLOCK
  5
56C
330
416
100
AcDbEntity
  8
0
100
AcDbBlockBegin
  2
*D2
 70
     1
 10
0.0
 20
0.0
 30
0.0
  3
*D2
  1

  0
LINE
  5
8B3
330
416
100
AcDbEntity
  8
SUNPOU
100
AcDbLine
 10
142.2280045440611
 20
213.563017615701
 30
0.0
 11
142.2280045440611
 21
230.6152968589695
 31
0.0
  0
LINE
  5
8B4
330
416
100
AcDbEntity
  8
SUNPOU
100
AcDbLine
 10
78.32790454406131
 20
213.5631176157011
 30
0.0
 11
78.32790454406131
 21
230.6152968589695
 31
0.0
  0
LINE
  5
8B5
330
416
100
AcDbEntity
  8
SUNPOU
100
AcDbLine
 10
81.32790454406132
 20
229.1152968589695
 30
0.0
 11
139.2280045440611
 21
229.1152968589695
 31
0.0
  0
INSERT
  5
8B6
330
416
100
AcDbEntity
  8
SUNPOU
100
AcDbBlockReference
  2
_OPEN
 10
78.32790454406131
 20
229.1152968589695
 30
0.0
 41
3.0
 42
3.0
 43
3.0
 50
180.0
  0
INSERT
  5
8B7
330
416
100
AcDbEntity
  8
SUNPOU
100
AcDbBlockReference
  2
_OPEN
 10
142.2280045440611
 20
229.1152968589695
 30
0.0
 41
3.0
 42
3.0
 43
3.0
  0
MTEXT
  5
8B8
330
416
100
AcDbEntity
  8
SUNPOU
100
AcDbMText
 10
134.7280045440611
 20
231.6152968589696
 30
0.0
 40
3.0
 41
0.0
 71
     5
 72
     1
  1
\A1;64
1001
ACAD
1000
MTEXTBEGIN
1070
    73
1070
     1
1070
    44
1040
1.0
1070
    74
1070
     0
1000
MTEXTEND
1000
MTEXTBEGIN
1070
    73
1070
     1
1070
    44
1040
1.0
1070
    74
1070
     0
1000
MTEXTEND
1000
MTEXTBEGIN
1070
    73
1070
     1
1070
    44
1040
1.0
1070
    74
1070
     0
1000
MTEXTEND
  0
POINT
  5
8B9
330
416
100
AcDbEntity
  8
DEFPOINTS
 62
     0
100
AcDbPoint
 10
142.2280045440611
 20
210.563017615701
 30
0.0
  0
POINT
  5
8BA
330
416
100
AcDbEntity
  8
DEFPOINTS
 62
     0
100
AcDbPoint
 10
78.32790454406131
 20
210.5631176157011
 30
0.0
  0
POINT
  5
8BB
330
416
100
AcDbEntity
  8
DEFPOINTS
 62
     0
100
AcDbPoint
 10
78.32790454406131
 20
229.1152968589695
 30
0.0
  0
ENDBLK
  5
576
330
416
100
AcDbEntity
  8
0
100
AcDbBlockEnd
  0
BLOCK
  5
424
330
423
100
AcDbEntity
  8
0
100
AcDbBlockBegin
  2
*D3
 70
     1
 10
0.0
 20
0.0
 30
0.0
  3
*D3
  1

  0
LINE
  5
8BC
330
423
100
AcDbEntity
  8
SUNPOU
100
AcDbLine
 10
110.2775045440612
 20
223.5631176157011
 30
0.0
 11
110.2775045440612
 21
238.3495722873263
 31
0.0
  0
LINE
  5
8BD
330
423
100
AcDbEntity
  8
SUNPOU
100
AcDbLine
 10
179.475843118632
 20
160.4680263130572
 30
0.0
 11
179.475843118632
 21
238.3495722873263
 31
0.0
  0
LINE
  5
8BE
330
423
100
AcDbEntity
  8
SUNPOU
100
AcDbLine
 10
113.2775045440612
 20
236.8495722873264
 30
0.0
 11
176.475843118632
 21
236.8495722873264
 31
0.0
  0
INSERT
  5
8BF
330
423
100
AcDbEntity
  8
SUNPOU
100
AcDbBlockReference
  2
_OPEN
 10
110.2775045440612
 20
236.8495722873264
 30
0.0
 41
3.0
 42
3.0
 43
3.0
 50
180.0
  0
INSERT
  5
8C0
330
423
100
AcDbEntity
  8
SUNPOU
100
AcDbBlockReference
  2
_OPEN
 10
179.475843118632
 20
236.8495722873264
 30
0.0
 41
3.0
 42
3.0
 43
3.0
  0
MTEXT
  5
8C1
330
423
100
AcDbEntity
  8
SUNPOU
100
AcDbMText
 10
144.8766738313466
 20
239.3495722873264
 30
0.0
 40
3.0
 41
0.0
 71
     5
 72
     1
  1
\A1;69
1001
ACAD
1000
MTEXTBEGIN
1070
    73
1070
     1
1070
    44
1040
1.0
1070
    74
1070
     0
1000
MTEXTEND
1000
MTEXTBEGIN
1070
    73
1070
     1
1070
    44
1040
1.0
1070
    74
1070
     0
1000
MTEXTEND
1000
MTEXTBEGIN
1070
    73
1070
     1
1070
    44
1040
1.0
1070
    74
1070
     0
1000
MTEXTEND
  0
POINT
  5
8C2
330
423
100
AcDbEntity
  8
DEFPOINTS
 62
     0
100
AcDbPoint
 10
110.2775045440612
 20
220.5631176157011
 30
0.0
  0
POINT
  5
8C3
330
423
100
AcDbEntity
  8
DEFPOINTS
 62
     0
100
AcDbPoint
 10
179.475843118632
 20
157.4680263130572
 30
0.0
  0
POINT
  5
8C4
330
423
100
AcDbEntity
  8
DEFPOINTS
 62
     0
100
AcDbPoint
 10
179.475843118632
 20
236.8495722873264
 30
0.0
  0
ENDBLK
  5
42E
330
423
100
AcDbEntity
  8
0
100
AcDbBlockEnd
  0
BLOCK
  5
43E
330
43D
100
AcDbEntity
  8
0
100
AcDbBlockBegin
  2
*D4
 70
     1
 10
0.0
 20
0.0
 30
0.0
  3
*D4
  1

  0
LINE
  5
8C5
330
43D
100
AcDbEntity
  8
SUNPOU
100
AcDbLine
 10
75.32940454406127
 20
210.5631176157011
 30
0.0
 11
43.66205065771057
 21
210.5631176157011
 31
0.0
  0
LINE
  5
8C6
330
43D
100
AcDbEntity
  8
SUNPOU
100
AcDbLine
 10
107.2773939806871
 20
138.9265496742622
 30
0.0
 11
43.66205065771055
 21
138.9265496742622
 31
0.0
  0
LINE
  5
8C7
330
43D
100
AcDbEntity
  8
SUNPOU
100
AcDbLine
 10
45.16205065771056
 20
207.5631176157012
 30
0.0
 11
45.16205065771055
 21
141.9265496742622
 31
0.0
  0
INSERT
  5
8C8
330
43D
100
AcDbEntity
  8
SUNPOU
100
AcDbBlockReference
  2
_OPEN
 10
45.16205065771057
 20
210.5631176157011
 30
0.0
 41
3.0
 42
3.0
 43
3.0
 50
90.0
  0
INSERT
  5
8C9
330
43D
100
AcDbEntity
  8
SUNPOU
100
AcDbBlockReference
  2
_OPEN
 10
45.16205065771055
 20
138.9265496742622
 30
0.0
 41
3.0
 42
3.0
 43
3.0
 50
270.0
  0
MTEXT
  5
8CA
330
43D
100
AcDbEntity
  8
SUNPOU
100
AcDbMText
 10
42.66205065771053
 20
174.7448336449817
 30
0.0
 40
3.0
 41
0.0
 71
     5
 72
     1
  1
\A1;72
 11
0.0000000000000001
 21
1.0
 31
0.0
1001
ACAD
1000
MTEXTBEGIN
1070
    73
1070
     1
1070
    44
1040
1.0
1070
    74
1070
     0
1000
MTEXTEND
1000
MTEXTBEGIN
1070
    73
1070
     1
1070
    44
1040
1.0
1070
    74
1070
     0
1000
MTEXTEND
1000
MTEXTBEGIN
1070
    73
1070
     1
1070
    44
1040
1.0
1070
    74
1070
     0
1000
MTEXTEND
  0
POINT
  5
8CB
330
43D
100
AcDbEntity
  8
DEFPOINTS
 62
     0
100
AcDbPoint
 10
78.32940454406127
 20
210.5631176157011
 30
0.0
  0
POINT
  5
8CC
330
43D
100
AcDbEntity
  8
DEFPOINTS
 62
     0
100
AcDbPoint
 10
110.2773939806871
 20
138.9265496742622
 30
0.0
  0
POINT
  5
8CD
330
43D
100
AcDbEntity
  8
DEFPOINTS
 62
     0
100
AcDbPoint
 10
45.16205065771055
 20
138.9265496742622
 30
0.0
  0
ENDBLK
  5
448
330
43D
100
AcDbEntity
  8
0
100
AcDbBlockEnd
  0
BLOCK
  5
458
330
457
100
AcDbEntity
  8
0
100
AcDbBlockBegin
  2
*D5
 70
     1
 10
0.0
 20
0.0
 30
0.0
  3
*D5
  1

  0
LINE
  5
8CE
330
457
100
AcDbEntity
  8
SUNPOU
100
AcDbLine
 10
107.2773939806871
 20
138.9265496742622
 30
0.0
 11
43.66205065771056
 21
138.9265496742623
 31
0.0
  0
LINE
  5
8CF
330
457
100
AcDbEntity
  8
SUNPOU
100
AcDbLine
 10
75.32760454406115
 20
104.563117615701
 30
0.0
 11
43.66205065771055
 21
104.563117615701
 31
0.0
  0
LINE
  5
8D0
330
457
100
AcDbEntity
  8
SUNPOU
100
AcDbLine
 10
45.16205065771056
 20
135.9265496742622
 30
0.0
 11
45.16205065771055
 21
107.563117615701
 31
0.0
  0
INSERT
  5
8D1
330
457
100
AcDbEntity
  8
SUNPOU
100
AcDbBlockReference
  2
_OPEN
 10
45.16205065771056
 20
138.9265496742623
 30
0.0
 41
3.0
 42
3.0
 43
3.0
 50
90.0
  0
INSERT
  5
8D2
330
457
100
AcDbEntity
  8
SUNPOU
100
AcDbBlockReference
  2
_OPEN
 10
45.16205065771055
 20
104.563117615701
 30
0.0
 41
3.0
 42
3.0
 43
3.0
 50
270.0
  0
MTEXT
  5
8D3
330
457
100
AcDbEntity
  8
SUNPOU
100
AcDbMText
 10
42.66205065771053
 20
121.7448336449816
 30
0.0
 40
3.0
 41
0.0
 71
     5
 72
     1
  1
\A1;34
 11
0.0000000000000001
 21
1.0
 31
0.0
1001
ACAD
1000
MTEXTBEGIN
1070
    73
1070
     1
1070
    44
1040
1.0
1070
    74
1070
     0
1000
MTEXTEND
1000
MTEXTBEGIN
1070
    73
1070
     1
1070
    44
1040
1.0
1070
    74
1070
     0
1000
MTEXTEND
1000
MTEXTBEGIN
1070
    73
1070
     1
1070
    44
1040
1.0
1070
    74
1070
     0
1000
MTEXTEND
  0
POINT
  5
8D4
330
457
100
AcDbEntity
  8
DEFPOINTS
 62
     0
100
AcDbPoint
 10
110.2773939806871
 20
138.9265496742622
 30
0.0
  0
POINT
  5
8D5
330
457
100
AcDbEntity
  8
DEFPOINTS
 62
     0
100
AcDbPoint
 10
78.32760454406116
 20
104.563117615701
 30
0.0
  0
POINT
  5
8D6
330
457
100
AcDbEntity
  8
DEFPOINTS
 62
     0
100
AcDbPoint
 10
45.16205065771055
 20
104.563117615701
 30
0.0
  0
ENDBLK
  5
462
330
457
100
AcDbEntity
  8
0
100
AcDbBlockEnd
  0
BLOCK
  5
509
330
464
100
AcDbEntity
  8
0
100
AcDbBlockBegin
  2
*D6
 70
     1
 10
0.0
 20
0.0
 30
0.0
  3
*D6
  1

  0
LINE
  5
8D7
330
464
100
AcDbEntity
  8
SUNPOU
100
AcDbLine
 10
164.373777161855
 20
117.2365609575411
 30
0.0
 11
168.2727227552953
 21
102.6852564658583
 31
0.0
  0
LINE
  5
8D8
330
464
100
AcDbEntity
  8
SUNPOU
100
AcDbLine
 10
188.5219496590804
 20
123.706936916034
 30
0.0
 11
192.4208952525207
 21
109.1556324243513
 31
0.0
  0
LINE
  5
8D9
330
464
100
AcDbEntity
  8
SUNPOU
100
AcDbLine
 10
170.7822808974528
 20
104.910591930711
 30
0.0
 11
189.1348919953441
 21
109.8280776591657
 31
0.0
  0
INSERT
  5
8DA
330
464
100
AcDbEntity
  8
SUNPOU
100
AcDbBlockReference
  2
_OPEN
 10
167.8845001977857
 20
104.1341468156919
 30
0.0
 41
3.0
 42
3.0
 43
3.0
 50
194.9997623311601
  0
INSERT
  5
8DB
330
464
100
AcDbEntity
  8
SUNPOU
100
AcDbBlockReference
  2
_OPEN
 10
192.0326726950112
 20
110.6045227741848
 30
0.0
 41
3.0
 42
3.0
 43
3.0
 50
14.9997623311601
  0
MTEXT
  5
8DC
330
464
100
AcDbEntity
  8
SUNPOU
100
AcDbMText
 10
179.724136229231
 20
109.8947026652558
 30
0.0
 40
3.0
 41
0.0
 71
     5
 72
     1
  1
\A1;※ 25
 11
0.965926899889019
 21
0.2588150383397174
 31
0.0
1001
ACAD
1000
MTEXTBEGIN
1070
    73
1070
     1
1070
    44
1040
1.0
1070
    74
1070
     0
1000
MTEXTEND
1000
MTEXTBEGIN
1070
    73
1070
     1
1070
    44
1040
1.0
1070
    74
1070
     0
1000
MTEXTEND
1000
MTEXTBEGIN
1070
    73
1070
     1
1070
    44
1040
1.0
1070
    74
1070
     0
1000
MTEXTEND
  0
POINT
  5
8DD
330
464
100
AcDbEntity
  8
DEFPOINTS
 62
     0
100
AcDbPoint
 10
163.5973320468358
 20
120.1343416572081
 30
0.0
  0
POINT
  5
8DE
330
464
100
AcDbEntity
  8
DEFPOINTS
 62
     0
100
AcDbPoint
 10
187.7455045440613
 20
126.6047176157011
 30
0.0
  0
POINT
  5
8DF
330
464
100
AcDbEntity
  8
DEFPOINTS
 62
     0
100
AcDbPoint
 10
192.0326726950112
 20
110.6045227741848
 30
0.0
  0
ENDBLK
  5
513
330
464
100
AcDbEntity
  8
0
100
AcDbBlockEnd
  0
BLOCK
  5
472
330
471
100
AcDbEntity
  8
0
100
AcDbBlockBegin
  2
*D7
 70
     1
 10
0.0
 20
0.0
 30
0.0
  3
*D7
  1

  0
LINE
  5
8E0
330
471
100
AcDbEntity
  8
SUNPOU
100
AcDbLine
 10
174.1045871975719
 20
189.1053554387188
 30
0.0
 11
202.1364380195348
 21
196.6162669975955
 31
0.0
  0
LINE
  5
8E1
330
471
100
AcDbEntity
  8
SUNPOU
100
AcDbLine
 10
190.6427385761092
 20
127.3824888225748
 30
0.0
 11
218.6745893980721
 21
134.8934003814514
 31
0.0
  0
LINE
  5
8E2
330
471
100
AcDbEntity
  8
SUNPOU
100
AcDbLine
 10
201.4639845157973
 20
193.3302654325759
 30
0.0
 11
216.4492602482989
 21
137.4029641234531
 31
0.0
  0
INSERT
  5
8E3
330
471
100
AcDbEntity
  8
SUNPOU
100
AcDbBlockReference
  2
_OPEN
 10
200.6875466927794
 20
196.2280480860865
 30
0.0
 41
3.0
 42
3.0
 43
3.0
 50
104.9996181515957
  0
INSERT
  5
8E4
330
471
100
AcDbEntity
  8
SUNPOU
100
AcDbBlockReference
  2
_OPEN
 10
217.2256980713167
 20
134.5051814699425
 30
0.0
 41
3.0
 42
3.0
 43
3.0
 50
284.9996181515957
  0
MTEXT
  5
8E5
330
471
100
AcDbEntity
  8
SUNPOU
100
AcDbMText
 10
211.3714412599736
 20
166.013646297196
 30
0.0
 40
3.0
 41
0.0
 71
     5
 72
     1
  1
\A1;64
 11
0.2588126076726109
 21
-0.9659275511702226
 31
0.0
1001
ACAD
1000
MTEXTBEGIN
1070
    73
1070
     1
1070
    44
1040
1.0
1070
    74
1070
     0
1000
MTEXTEND
1000
MTEXTBEGIN
1070
    73
1070
     1
1070
    44
1040
1.0
1070
    74
1070
     0
1000
MTEXTEND
1000
MTEXTBEGIN
1070
    73
1070
     1
1070
    44
1040
1.0
1070
    74
1070
     0
1000
MTEXTEND
  0
POINT
  5
8E6
330
471
100
AcDbEntity
  8
DEFPOINTS
 62
     0
100
AcDbPoint
 10
171.2068045440612
 20
188.328917615701
 30
0.0
  0
POINT
  5
8E7
330
471
100
AcDbEntity
  8
DEFPOINTS
 62
     0
100
AcDbPoint
 10
187.7449559225985
 20
126.6060509995569
 30
0.0
  0
POINT
  5
8E8
330
471
100
AcDbEntity
  8
DEFPOINTS
 62
     0
100
AcDbPoint
 10
217.2256980713167
 20
134.5051814699425
 30
0.0
  0
ENDBLK
  5
47C
330
471
100
AcDbEntity
  8
0
100
AcDbBlockEnd
  0
BLOCK
  5
47F
330
47E
100
AcDbEntity
  8
0
100
AcDbBlockBegin
  2
*D8
 70
     1
 10
0.0
 20
0.0
 30
0.0
  3
*D8
  1

  0
LINE
  5
8E9
330
47E
100
AcDbEntity
  8
SUNPOU
100
AcDbLine
 10
141.2294045440612
 20
210.563017615701
 30
0.0
 11
233.8108383727217
 21
210.5630176157009
 31
0.0
  0
LINE
  5
8EA
330
47E
100
AcDbEntity
  8
SUNPOU
100
AcDbLine
 10
141.2285045440612
 20
84.56291761570117
 30
0.0
 11
233.8108383727217
 21
84.56291761570113
 31
0.0
  0
LINE
  5
8EB
330
47E
100
AcDbEntity
  8
SUNPOU
100
AcDbLine
 10
232.3108383727217
 20
207.563017615701
 30
0.0
 11
232.3108383727217
 21
87.56291761570114
 31
0.0
  0
INSERT
  5
8EC
330
47E
100
AcDbEntity
  8
SUNPOU
100
AcDbBlockReference
  2
_OPEN
 10
232.3108383727217
 20
210.5630176157009
 30
0.0
 41
3.0
 42
3.0
 43
3.0
 50
90.0
  0
INSERT
  5
8ED
330
47E
100
AcDbEntity
  8
SUNPOU
100
AcDbBlockReference
  2
_OPEN
 10
232.3108383727217
 20
84.56291761570113
 30
0.0
 41
3.0
 42
3.0
 43
3.0
 50
270.0
  0
MTEXT
  5
8EE
330
47E
100
AcDbEntity
  8
SUNPOU
100
AcDbMText
 10
229.8108383727217
 20
147.5629676157011
 30
0.0
 40
3.0
 41
0.0
 71
     5
 72
     1
  1
\A1;126
 11
0.0000000000000001
 21
1.0
 31
0.0
1001
ACAD
1000
MTEXTBEGIN
1070
    73
1070
     1
1070
    44
1040
1.0
1070
    74
1070
     0
1000
MTEXTEND
1000
MTEXTBEGIN
1070
    73
1070
     1
1070
    44
1040
1.0
1070
    74
1070
     0
1000
MTEXTEND
1000
MTEXTBEGIN
1070
    73
1070
     1
1070
    44
1040
1.0
1070
    74
1070
     0
1000
MTEXTEND
  0
POINT
  5
8EF
330
47E
100
AcDbEntity
  8
DEFPOINTS
 62
     0
100
AcDbPoint
 10
138.2294045440612
 20
210.563017615701
 30
0.0
  0
POINT
  5
8F0
330
47E
100
AcDbEntity
  8
DEFPOINTS
 62
     0
100
AcDbPoint
 10
138.2285045440612
 20
84.56291761570117
 30
0.0
  0
POINT
  5
8F1
330
47E
100
AcDbEntity
  8
DEFPOINTS
 62
     0
100
AcDbPoint
 10
232.3108383727217
 20
84.56291761570113
 30
0.0
  0
ENDBLK
  5
489
330
47E
100
AcDbEntity
  8
0
100
AcDbBlockEnd
  0
BLOCK
  5
499
330
498
100
AcDbEntity
  8
0
100
AcDbBlockBegin
  2
*D9
 70
     1
 10
0.0
 20
0.0
 30
0.0
  3
*D9
  1

  0
ARC
  5
999
330
498
100
AcDbEntity
  8
SUNPOU
100
AcDbCircle
 10
110.2773939806871
 20
138.9265496742622
 30
0.0
 40
21.58860512398761
100
AcDbArc
 50
22.96821930784885
 51
82.03155482683319
  0
INSERT
  5
99A
330
498
100
AcDbEntity
  8
SUNPOU
100
AcDbBlockReference
  2
_OPEN
 10
131.1303996826352
 20
144.5140378750536
 30
0.0
 41
3.0
 42
3.0
 43
3.0
 50
288.9840355201448
  0
INSERT
  5
99B
330
498
100
AcDbEntity
  8
SUNPOU
100
AcDbBlockReference
  2
_OPEN
 10
110.2774232189204
 20
160.51515479823
 30
0.0
 41
3.0
 42
3.0
 43
3.0
 50
176.0157386145372
  0
MTEXT
  5
99C
330
498
100
AcDbEntity
  8
SUNPOU
100
AcDbMText
 10
124.9416453269954
 20
158.0372961084468
 30
0.0
 40
3.0
 41
0.0
 71
     5
 72
     1
  1
\A1;75°
 11
0.7933521403924688
 21
-0.608762992744047
 31
0.0
  0
POINT
  5
99D
330
498
100
AcDbEntity
  8
DEFPOINTS
 62
     0
100
AcDbPoint
 10
126.8152551752365
 20
152.8034015618223
 30
0.0
  0
POINT
  5
99E
330
498
100
AcDbEntity
  8
DEFPOINTS
 62
     0
100
AcDbPoint
 10
110.2773045440611
 20
72.88931761570109
 30
0.0
  0
POINT
  5
99F
330
498
100
AcDbEntity
  8
DEFPOINTS
 62
     0
100
AcDbPoint
 10
103.4259045440611
 20
137.0907176157011
 30
0.0
  0
POINT
  5
9A0
330
498
100
AcDbEntity
  8
DEFPOINTS
 62
     0
100
AcDbPoint
 10
189.1352045440612
 20
160.0562176157011
 30
0.0
  0
POINT
  5
9A1
330
498
100
AcDbEntity
  8
DEFPOINTS
 62
     0
100
AcDbPoint
 10
110.2775045440612
 20
220.5631176157011
 30
0.0
  0
ENDBLK
  5
4A3
330
498
100
AcDbEntity
  8
0
100
AcDbBlockEnd
  0
BLOCK
  5
4A6
330
4A5
100
AcDbEntity
  8
0
100
AcDbBlockBegin
  2
*D10
 70
     1
 10
0.0
 20
0.0
 30
0.0
  3
*D10
  1

  0
LINE
  5
8FB
330
4A5
100
AcDbEntity
  8
SUNPOU
100
AcDbLine
 10
111.0538436172479
 20
136.0287701861223
 30
0.0
 11
113.6307990468139
 21
126.4113420439395
 31
0.0
  0
LINE
  5
8FC
330
4A5
100
AcDbEntity
  8
SUNPOU
100
AcDbLine
 10
180.2522927551928
 20
154.5702468249174
 30
0.0
 11
182.8292481847588
 21
144.9528186827345
 31
0.0
  0
LINE
  5
8FD
330
4A5
100
AcDbEntity
  8
SUNPOU
100
AcDbLine
 10
116.1403537166734
 20
128.6366814245703
 30
0.0
 11
179.5432438783384
 21
145.6252587902438
 31
0.0
  0
INSERT
  5
8FE
330
4A5
100
AcDbEntity
  8
SUNPOU
100
AcDbBlockReference
  2
_OPEN
 10
113.2425742285335
 20
127.8602317880095
 30
0.0
 41
3.0
 42
3.0
 43
3.0
 50
194.9998517324408
  0
INSERT
  5
8FF
330
4A5
100
AcDbEntity
  8
SUNPOU
100
AcDbBlockReference
  2
_OPEN
 10
182.4410233664783
 20
146.4017084268045
 30
0.0
 41
3.0
 42
3.0
 43
3.0
 50
14.99985173244083
  0
MTEXT
  5
900
330
4A5
100
AcDbEntity
  8
SUNPOU
100
AcDbMText
 10
147.1947574337052
 20
139.5457863475236
 30
0.0
 40
3.0
 41
0.0
 71
     5
 72
     1
  1
\A1;72
 11
0.9659264960466508
 21
0.2588165455202571
 31
0.0
1001
ACAD
1000
MTEXTBEGIN
1070
    73
1070
     1
1070
    44
1040
1.0
1070
    74
1070
     0
1000
MTEXTEND
1000
MTEXTBEGIN
1070
    73
1070
     1
1070
    44
1040
1.0
1070
    74
1070
     0
1000
MTEXTEND
1000
MTEXTBEGIN
1070
    73
1070
     1
1070
    44
1040
1.0
1070
    74
1070
     0
1000
MTEXTEND
  0
POINT
  5
901
330
4A5
100
AcDbEntity
  8
DEFPOINTS
 62
     0
100
AcDbPoint
 10
110.2773939806871
 20
138.9265496742623
 30
0.0
  0
POINT
  5
902
330
4A5
100
AcDbEntity
  8
DEFPOINTS
 62
     0
100
AcDbPoint
 10
179.475843118632
 20
157.4680263130573
 30
0.0
  0
POINT
  5
903
330
4A5
100
AcDbEntity
  8
DEFPOINTS
 62
     0
100
AcDbPoint
 10
182.4410233664783
 20
146.4017084268045
 30
0.0
  0
ENDBLK
  5
4B0
330
4A5
100
AcDbEntity
  8
0
100
AcDbBlockEnd
  0
BLOCK
  5
4F9
330
4F8
100
AcDbEntity
  8
0
100
AcDbBlockBegin
  2
*D11
 70
     1
 10
0.0
 20
0.0
 30
0.0
  3
*D11
  1

  0
LINE
  5
904
330
4F8
100
AcDbEntity
  8
SUNPOU
100
AcDbLine
 10
78.32760454406116
 20
101.563117615701
 30
0.0
 11
78.32760454406116
 21
59.14738699238478
 31
0.0
  0
LINE
  5
905
330
4F8
100
AcDbEntity
  8
SUNPOU
100
AcDbLine
 10
142.2278045440613
 20
110.6428176157011
 30
0.0
 11
142.2278045440613
 21
59.14738699238478
 31
0.0
  0
LINE
  5
906
330
4F8
100
AcDbEntity
  8
SUNPOU
100
AcDbLine
 10
81.32760454406115
 20
60.64738699238478
 30
0.0
 11
139.2278045440613
 21
60.64738699238478
 31
0.0
  0
INSERT
  5
907
330
4F8
100
AcDbEntity
  8
SUNPOU
100
AcDbBlockReference
  2
_OPEN
 10
78.32760454406116
 20
60.64738699238478
 30
0.0
 41
3.0
 42
3.0
 43
3.0
 50
180.0
  0
INSERT
  5
908
330
4F8
100
AcDbEntity
  8
SUNPOU
100
AcDbBlockReference
  2
_OPEN
 10
142.2278045440613
 20
60.64738699238478
 30
0.0
 41
3.0
 42
3.0
 43
3.0
  0
MTEXT
  5
909
330
4F8
100
AcDbEntity
  8
SUNPOU
100
AcDbMText
 10
110.2777045440612
 20
63.14738699238478
 30
0.0
 40
3.0
 41
0.0
 71
     5
 72
     1
  1
\A1;64
1001
ACAD
1000
MTEXTBEGIN
1070
    73
1070
     1
1070
    44
1040
1.0
1070
    74
1070
     0
1000
MTEXTEND
1000
MTEXTBEGIN
1070
    73
1070
     1
1070
    44
1040
1.0
1070
    74
1070
     0
1000
MTEXTEND
1000
MTEXTBEGIN
1070
    73
1070
     1
1070
    44
1040
1.0
1070
    74
1070
     0
1000
MTEXTEND
  0
POINT
  5
90A
330
4F8
100
AcDbEntity
  8
DEFPOINTS
 62
     0
100
AcDbPoint
 10
78.32760454406116
 20
104.563117615701
 30
0.0
  0
POINT
  5
90B
330
4F8
100
AcDbEntity
  8
DEFPOINTS
 62
     0
100
AcDbPoint
 10
142.2278045440613
 20
113.6428176157011
 30
0.0
  0
POINT
  5
90C
330
4F8
100
AcDbEntity
  8
DEFPOINTS
 62
     0
100
AcDbPoint
 10
142.2278045440613
 20
60.64738699238478
 30
0.0
  0
ENDBLK
  5
503
330
4F8
100
AcDbEntity
  8
0
100
AcDbBlockEnd
  0
BLOCK
  5
538
330
515
100
AcDbEntity
  8
0
100
AcDbBlockBegin
  2
*D12
 70
     1
 10
0.0
 20
0.0
 30
0.0
  3
*D12
  1

  0
LINE
  5
90D
330
515
100
AcDbEntity
  8
SUNPOU
100
AcDbLine
 10
141.2285045440612
 20
84.56291761570117
 30
0.0
 11
162.4175724693007
 21
84.56291761570115
 31
0.0
  0
LINE
  5
90E
330
515
100
AcDbEntity
  8
SUNPOU
100
AcDbLine
 10
145.2278514924915
 20
114.5629176155908
 30
0.0
 11
162.4175724693007
 21
114.5629176155908
 31
0.0
  0
LINE
  5
90F
330
515
100
AcDbEntity
  8
SUNPOU
100
AcDbLine
 10
160.9175724693006
 20
87.56291761570116
 30
0.0
 11
160.9175724693006
 21
111.5629176155908
 31
0.0
  0
INSERT
  5
910
330
515
100
AcDbEntity
  8
SUNPOU
100
AcDbBlockReference
  2
_OPEN
 10
160.9175724693006
 20
84.56291761570115
 30
0.0
 41
3.0
 42
3.0
 43
3.0
 50
270.0
  0
INSERT
  5
911
330
515
100
AcDbEntity
  8
SUNPOU
100
AcDbBlockReference
  2
_OPEN
 10
160.9175724693006
 20
114.5629176155908
 30
0.0
 41
3.0
 42
3.0
 43
3.0
 50
90.0
  0
MTEXT
  5
912
330
515
100
AcDbEntity
  8
SUNPOU
100
AcDbMText
 10
158.4175724693006
 20
99.56291761564605
 30
0.0
 40
3.0
 41
0.0
 71
     5
 72
     1
  1
\A1;※30
 11
0.0000000000000001
 21
1.0
 31
0.0
1001
ACAD
1000
MTEXTBEGIN
1070
    73
1070
     1
1070
    44
1040
1.0
1070
    74
1070
     0
1000
MTEXTEND
1000
MTEXTBEGIN
1070
    73
1070
     1
1070
    44
1040
1.0
1070
    74
1070
     0
1000
MTEXTEND
1000
MTEXTBEGIN
1070
    73
1070
     1
1070
    44
1040
1.0
1070
    74
1070
     0
1000
MTEXTEND
  0
POINT
  5
913
330
515
100
AcDbEntity
  8
DEFPOINTS
 62
     0
100
AcDbPoint
 10
138.2285045440612
 20
84.56291761570117
 30
0.0
  0
POINT
  5
914
330
515
100
AcDbEntity
  8
DEFPOINTS
 62
     0
100
AcDbPoint
 10
142.2278514924915
 20
114.5629176155908
 30
0.0
  0
POINT
  5
915
330
515
100
AcDbEntity
  8
DEFPOINTS
 62
     0
100
AcDbPoint
 10
160.9175724693006
 20
114.5629176155908
 30
0.0
  0
ENDBLK
  5
542
330
515
100
AcDbEntity
  8
0
100
AcDbBlockEnd
  0
ENDSEC
  0
SECTION
  2
ENTITIES
  0
LINE
  5
6C
330
1A
100
AcDbEntity
  8
ZUWAKU
  6
CONTINUOUS
 62
     7
100
AcDbLine
 10
403.0
 20
7.0
 30
0.0
 11
5.0
 21
7.0
 31
0.0
  0
LINE
  5
6D
330
1A
100
AcDbEntity
  8
ZUWAKU
  6
CONTINUOUS
 62
     7
100
AcDbLine
 10
5.0
 20
282.0
 30
0.0
 11
5.0
 21
7.0
 31
0.0
  0
LINE
  5
6E
330
1A
100
AcDbEntity
  8
ZUWAKU
  6
CONTINUOUS
 62
     7
100
AcDbLine
 10
403.0
 20
282.0
 30
0.0
 11
403.0
 21
7.0
 31
0.0
  0
LINE
  5
6F
330
1A
100
AcDbEntity
  8
ZUWAKU
  6
CONTINUOUS
 62
     7
100
AcDbLine
 10
403.0
 20
282.0
 30
0.0
 11
5.0
 21
282.0
 31
0.0
  0
LINE
  5
8E
330
1A
100
AcDbEntity
  8
ZUWAKU
 62
     7
 48
10.0
100
AcDbLine
 10
5.0
 20
13.0
 30
0.0
 11
403.0
 21
12.99999999999994
 31
0.0
  0
TEXT
  5
93
330
1A
100
AcDbEntity
  8
ZUWAKU
 62
     7
100
AcDbText
 10
8.003143713074223
 20
7.870178177610682
 30
0.0
 40
4.0
  1
品 種
100
AcDbText
  0
TEXT
  5
97
330
1A
100
AcDbEntity
  8
ZUWAKU
 62
     7
100
AcDbText
 10
107.7028028167073
 20
8.200497435100942
 30
0.0
 40
4.0
  1
品名・ｻ ｲ ｽﾞ
100
AcDbText
  0
LINE
  5
9A
330
1A
100
AcDbEntity
  8
ZUWAKU
 62
     7
 48
10.0
100
AcDbLine
 10
324.3551403257206
 20
6.999999999999836
 30
0.0
 11
324.3551403257206
 21
12.99999999999995
 31
0.0
  0
LINE
  5
9B
330
1A
100
AcDbEntity
  8
ZUWAKU
 62
     7
 48
10.0
100
AcDbLine
 10
307.142312366876
 20
6.999999999999836
 30
0.0
 11
307.142312366876
 21
12.99999999999995
 31
0.0
  0
TEXT
  5
9C
330
1A
100
AcDbEntity
  8
ZUWAKU
 62
     7
100
AcDbText
 10
310.1429253763237
 20
7.934661405801826
 30
0.0
 40
4.0
  1
品 番
100
AcDbText
  0
TEXT
  5
9E
330
1A
100
AcDbEntity
  8
ZUWAKU
 62
     7
 48
10.0
100
AcDbText
 10
322.9513761015196
 20
2.449000558492457
 30
0.0
 40
4.0
  1
積水化学工業株式会社  建材
100
AcDbText
  0
TEXT
  5
A1
330
1A
100
AcDbEntity
  8
ZUWAKU
 62
     7
100
AcDbText
 10
389.843492473331
 20
7.886151458996323
 30
0.0
 40
4.0
  1
1/1
100
AcDbText
  0
TEXT
  5
A2
330
1A
100
AcDbEntity
  8
ZUWAKU
 62
     7
100
AcDbText
 10
369.8225424558458
 20
7.729845637642938
 30
0.0
 40
4.0
  1
尺 度
100
AcDbText
  0
LINE
  5
A3
330
1A
100
AcDbEntity
  8
ZUWAKU
 62
     7
 48
10.0
100
AcDbLine
 10
366.8807110760169
 20
6.999999999999886
 30
0.0
 11
366.8807110760169
 21
12.99999999999994
 31
0.0
  0
TEXT
  5
A6
330
1A
100
AcDbEntity
  8
ZUWAKU
 62
     7
 48
10.0
100
AcDbText
 10
396.1622424237184
 20
2.480970960763784
 30
0.0
 40
4.0
  1
A3
100
AcDbText
  0
LINE
  5
F5
330
1A
100
AcDbEntity
  8
ZUWAKU
 62
     7
 48
10.0
100
AcDbLine
 10
22.25374857290876
 20
7.0
 30
0.0
 11
22.25374857290876
 21
13.0
 31
0.0
  0
LINE
  5
F6
330
1A
100
AcDbEntity
  8
ZUWAKU
 62
     7
 48
10.0
100
AcDbLine
 10
104.7316872784438
 20
7.0
 30
0.0
 11
104.7316872784438
 21
12.99999999999998
 31
0.0
  0
LINE
  5
F8
330
1A
100
AcDbEntity
  8
ZUWAKU
 62
     7
 48
10.0
100
AcDbLine
 10
138.0261803105822
 20
7.0
 30
0.0
 11
138.0261803105822
 21
12.99999999999998
 31
0.0
  0
LINE
  5
100
330
1A
100
AcDbEntity
  8
ZUWAKU
 62
     7
 48
10.0
100
AcDbLine
 10
384.3363149538092
 20
6.999999999999862
 30
0.0
 11
384.3363149538092
 21
12.99999999999994
 31
0.0
  0
LINE
  5
264
330
1A
100
AcDbEntity
  8
CENTER_L
 62
     1
 48
5.0
100
AcDbLine
 10
110.2773045440611
 20
72.88931761570109
 30
0.0
 11
110.2775045440612
 21
220.5631176157011
 31
0.0
  0
LINE
  5
265
330
1A
100
AcDbEntity
  8
SEIHIN
 62
     3
 48
5.0
100
AcDbLine
 10
87.32760454406127
 20
104.563117615701
 30
0.0
 11
87.32790454406131
 21
210.5631176157011
 31
0.0
  0
LINE
  5
266
330
1A
100
AcDbEntity
  8
SEIHIN
 62
     3
 48
5.0
100
AcDbLine
 10
78.32760454406116
 20
104.563117615701
 30
0.0
 11
78.32790454406131
 21
210.5631176157011
 31
0.0
  0
LINE
  5
267
330
1A
100
AcDbEntity
  8
SEIHIN
 62
     3
 48
5.0
100
AcDbLine
 10
171.2072045440612
 20
188.327517615701
 30
0.0
 11
187.7455045440613
 21
126.6047176157011
 31
0.0
  0
TEXT
  5
268
330
1A
100
AcDbEntity
  8
ZUWAKU
 62
     7
100
AcDbText
 10
25.15073007242387
 20
8.160237806787449
 30
0.0
 40
4.0
  1
アートフェイス　たてとい
100
AcDbText
  0
TEXT
  5
26B
330
1A
100
AcDbEntity
  8
ZUWAKU
 62
     7
100
AcDbText
 10
141.1313324528735
 20
7.9299153608506
 30
0.0
 40
4.0
  1
Ｙ管　Ｙ６０Ｈ－７５°
100
AcDbText
  0
LINE
  5
273
330
1A
100
AcDbEntity
  8
SEIHIN
 62
     3
 48
5.0
100
AcDbLine
 10
142.2278045440613
 20
104.562917615701
 30
0.0
 11
78.32790454406131
 21
104.563217615701
 31
0.0
  0
LINE
  5
274
330
1A
100
AcDbEntity
  8
CENTER_L
 62
     1
 48
5.0
100
AcDbLine
 10
103.4259045440611
 20
137.0907176157011
 30
0.0
 11
189.1352045440612
 21
160.0562176157011
 31
0.0
  0
LINE
  5
275
330
1A
100
AcDbEntity
  8
SEIHIN
 62
     3
 48
5.0
100
AcDbLine
 10
137.6748045440613
 20
122.5076176157011
 30
0.0
 11
185.4157045440611
 21
135.2995176157011
 31
0.0
  0
LINE
  5
276
330
1A
100
AcDbEntity
  8
SEIHIN
 62
     3
 48
5.0
100
AcDbLine
 10
133.2276045440612
 20
104.562917615701
 30
0.0
 11
133.2277045440611
 21
116.7120176157011
 31
0.0
  0
LINE
  5
277
330
1A
100
AcDbEntity
  8
SEIHIN
 62
     3
 48
5.0
100
AcDbLine
 10
138.7278045440613
 20
88.56291761570117
 30
0.0
 11
81.82780454406122
 21
88.56311761570115
 31
0.0
  0
LINE
  5
278
330
1A
100
AcDbEntity
  8
SEIHIN
 62
     3
 48
5.0
100
AcDbLine
 10
138.2285045440612
 20
84.56291761570117
 30
0.0
 11
82.33030454406128
 21
84.56311761570109
 31
0.0
  0
LINE
  5
279
330
1A
100
AcDbEntity
  8
SEIHIN
 62
     3
 48
5.0
100
AcDbLine
 10
81.82790454406131
 20
104.563117615701
 30
0.0
 11
81.82780454406122
 21
88.56311761570115
 31
0.0
  0
LINE
  5
27A
330
1A
100
AcDbEntity
  8
SEIHIN
 62
     3
 48
5.0
100
AcDbLine
 10
91.42780454406125
 20
88.56311761570115
 30
0.0
 11
91.42780454406125
 21
104.563117615701
 31
0.0
  0
LINE
  5
27B
330
1A
100
AcDbEntity
  8
SEIHIN
 62
     3
 48
5.0
100
AcDbLine
 10
81.82780454406122
 20
88.59491761570115
 30
0.0
 11
82.32780454406123
 21
84.58291761570114
 31
0.0
  0
LINE
  5
27C
330
1A
100
AcDbEntity
  8
SEIHIN
 62
     3
 48
5.0
100
AcDbLine
 10
91.41890454406132
 20
88.60181761570116
 30
0.0
 11
91.91890454406133
 21
84.58991761570116
 31
0.0
  0
LINE
  5
27D
330
1A
100
AcDbEntity
  8
SEIHIN
 62
     3
 48
5.0
100
AcDbLine
 10
138.7278045440613
 20
104.562917615701
 30
0.0
 11
138.7278045440613
 21
88.56291761570117
 31
0.0
  0
LINE
  5
27E
330
1A
100
AcDbEntity
  8
SEIHIN
 62
     3
 48
5.0
100
AcDbLine
 10
129.1278045440612
 20
88.56301761570108
 30
0.0
 11
129.1278045440612
 21
104.5630176157011
 31
0.0
  0
LINE
  5
27F
330
1A
100
AcDbEntity
  8
SEIHIN
 62
     3
 48
5.0
100
AcDbLine
 10
129.0488045440612
 20
88.55871761570117
 30
0.0
 11
128.5488045440611
 21
84.55561761570114
 31
0.0
  0
LINE
  5
280
330
1A
100
AcDbEntity
  8
SEIHIN
 62
     3
 48
5.0
100
AcDbLine
 10
138.7278045440613
 20
88.56081761570107
 30
0.0
 11
138.2278045440613
 21
84.55771761570117
 31
0.0
  0
LINE
  5
281
330
1A
100
AcDbEntity
  8
SEIHIN
 62
     3
 48
5.0
100
AcDbLine
 10
138.2278045440613
 20
104.562917615701
 30
0.0
 11
121.2926045440612
 21
104.562917615701
 31
0.0
  0
ARC
  5
282
330
1A
100
AcDbEntity
  8
SEIHIN
 62
     3
 48
5.0
100
AcDbCircle
 10
139.2277244510785
 20
116.7120435589172
 30
0.0
 40
6.000019907073416
100
AcDbArc
 50
105.0000047856002
 51
180.0002477386424
  0
LINE
  5
283
330
1A
100
AcDbEntity
  8
SEIHIN
 62
     3
 48
5.0
100
AcDbLine
 10
142.9691045440611
 20
114.6087176157011
 30
0.0
 11
187.7452045440611
 21
126.6061176157011
 31
0.0
  0
LINE
  5
284
330
1A
100
AcDbEntity
  8
SEIHIN
 62
     3
 48
5.0
100
AcDbLine
 10
142.2278045440613
 20
104.562917615701
 30
0.0
 11
142.2278045440613
 21
113.6428176157011
 31
0.0
  0
ARC
  5
285
330
1A
100
AcDbEntity
  8
SEIHIN
 62
     3
 48
5.0
100
AcDbCircle
 10
143.2277896063382
 20
113.6427981487173
 30
0.0
 40
0.9999850624663512
100
AcDbArc
 50
104.9982135493729
 51
179.9988846073297
  0
LINE
  5
287
330
1A
100
AcDbEntity
  8
SEIHIN
 62
     3
 48
5.0
100
AcDbLine
 10
142.2294045440612
 20
210.563017615701
 30
0.0
 11
138.2294045440612
 21
210.563017615701
 31
0.0
  0
LINE
  5
288
330
1A
100
AcDbEntity
  8
SEIHIN
 62
     3
 48
5.0
100
AcDbLine
 10
78.32940454406127
 20
210.5631176157011
 30
0.0
 11
142.2294045440612
 21
210.563017615701
 31
0.0
  0
ARC
  5
289
330
1A
100
AcDbEntity
  8
SEIHIN
 62
     3
 48
5.0
100
AcDbCircle
 10
139.2278244510785
 20
176.6545023404423
 30
0.0
 40
6.000019907036663
100
AcDbArc
 50
179.9998541325081
 51
284.999611179466
  0
LINE
  5
28A
330
1A
100
AcDbEntity
  8
SEIHIN
 62
     3
 48
5.0
100
AcDbLine
 10
133.2278045440613
 20
176.654517615701
 30
0.0
 11
133.2280045440611
 21
210.5629176157011
 31
0.0
  0
LINE
  5
28B
330
1A
100
AcDbEntity
  8
SEIHIN
 62
     3
 48
5.0
100
AcDbLine
 10
138.2294045440612
 20
210.563017615701
 30
0.0
 11
124.4139045440612
 21
210.563017615701
 31
0.0
  0
LINE
  5
28C
330
1A
100
AcDbEntity
  8
SEIHIN
 62
     3
 48
5.0
100
AcDbLine
 10
142.2279045440611
 20
181.8674176157012
 30
0.0
 11
142.2280045440611
 21
210.563017615701
 31
0.0
  0
LINE
  5
28D
330
1A
100
AcDbEntity
  8
SEIHIN
 62
     3
 48
5.0
100
AcDbLine
 10
140.7807045440611
 20
170.858917615701
 30
0.0
 11
173.5362045440613
 21
179.6356176157011
 31
0.0
  0
LINE
  5
28E
330
1A
100
AcDbEntity
  8
SEIHIN
 62
     3
 48
5.0
100
AcDbLine
 10
143.4867045440612
 20
180.9014176157011
 30
0.0
 11
171.2068045440612
 21
188.328917615701
 31
0.0
  0
ARC
  5
28F
330
1A
100
AcDbEntity
  8
SEIHIN
 62
     3
 48
5.0
100
AcDbCircle
 10
143.2279379029483
 20
181.8673920175306
 30
0.0
 40
1.000033359214858
100
AcDbArc
 50
179.9985333817883
 51
284.9963795636832
  0
LINE
  5
290
330
1A
100
AcDbEntity
  8
SEIHIN
 62
     3
 48
5.0
100
AcDbLine
 10
352.3497005291671
 20
157.4658176157011
 30
0.0
 11
352.3497005291671
 21
178.304217615701
 31
0.0
  0
LINE
  5
291
330
1A
100
AcDbEntity
  8
SEIHIN
 62
     3
 48
5.0
100
AcDbLine
 10
350.6997005291673
 20
157.4658176157011
 30
0.0
 11
350.6997005291673
 21
176.623417615701
 31
0.0
  0
LINE
  5
292
330
1A
100
AcDbEntity
  8
SEIHIN
 62
     3
 48
5.0
100
AcDbLine
 10
341.6997005291673
 20
177.6598176157011
 30
0.0
 11
341.6997005291673
 21
129.357317615701
 31
0.0
  0
LINE
  5
293
330
1A
100
AcDbEntity
  8
SEIHIN
 62
     3
 48
5.0
100
AcDbLine
 10
288.3494005291672
 20
157.465917615701
 30
0.0
 11
288.3494005291672
 21
178.3043176157011
 31
0.0
  0
LINE
  5
294
330
1A
100
AcDbEntity
  8
SEIHIN
 62
     3
 48
5.0
100
AcDbLine
 10
289.9994005291673
 20
157.465917615701
 30
0.0
 11
289.9994005291673
 21
176.623517615701
 31
0.0
  0
LINE
  5
295
330
1A
100
AcDbEntity
  8
SEIHIN
 62
     3
 48
5.0
100
AcDbLine
 10
298.9994005291673
 20
177.6598176157011
 30
0.0
 11
298.9995005291672
 21
129.357317615701
 31
0.0
  0
LINE
  5
296
330
1A
100
AcDbEntity
  8
CENTER_L
 62
     1
 48
5.0
100
AcDbLine
 10
320.3496005291674
 20
217.5630176160483
 30
0.0
 11
320.3496005291674
 21
77.20401761570116
 31
0.0
  0
LINE
  5
297
330
1A
100
AcDbEntity
  8
SEIHIN
 62
     3
 48
5.0
100
AcDbLine
 10
288.3998005291672
 20
104.563117615701
 30
0.0
 11
288.4000005291672
 21
210.5631176157011
 31
0.0
  0
LINE
  5
298
330
1A
100
AcDbEntity
  8
SEIHIN
 62
     3
 48
5.0
100
AcDbLine
 10
352.2991005291673
 20
104.5630176157011
 30
0.0
 11
352.2991005291673
 21
210.563017615701
 31
0.0
  0
TEXT
  5
299
330
1A
100
AcDbEntity
  8
SUNPOU
  6
CONTINUOUS
 62
     4
100
AcDbText
 10
314.557914445052
 20
22.79780326914721
 30
0.0
 40
4.0
  1
※　たてといの差込み寸法を示す。
100
AcDbText
  0
TEXT
  5
29A
330
1A
100
AcDbEntity
  8
ZUWAKU
 62
     7
100
AcDbText
 10
327.1013476411085
 20
8.060146781246274
 30
0.0
 40
4.0
  1
ＰＦ０９
100
AcDbText
  0
LINE
  5
29E
330
1A
100
AcDbEntity
  8
CENTER_L
 62
     1
 48
5.0
100
AcDbLine
 10
281.3999003497372
 20
157.4680263130573
 30
0.0
 11
359.2991005291675
 21
157.4680263130573
 31
0.0
  0
ARC
  5
2A5
330
1A
100
AcDbEntity
  8
SEIHIN
 62
     3
 48
5.0
100
AcDbCircle
 10
288.3494337809212
 20
114.6817841199023
 30
0.0
 40
9.000023006383248
100
AcDbArc
 50
5.319155805254199
 51
84.2623366445661
  0
LINE
  5
2A6
330
1A
100
AcDbEntity
  8
SEIHIN
 62
     3
 48
5.0
100
AcDbLine
 10
297.3998005291672
 20
104.563117615701
 30
0.0
 11
297.3999005291672
 21
126.6048176157011
 31
0.0
  0
LINE
  5
2A7
330
1A
100
AcDbEntity
  8
SEIHIN
 62
     3
 48
5.0
100
AcDbLine
 10
297.3999005291672
 20
126.6048176157011
 30
0.0
 11
297.3999005291672
 21
104.369017615701
 31
0.0
  0
LINE
  5
2A8
330
1A
100
AcDbEntity
  8
SEIHIN
 62
     3
 48
5.0
100
AcDbLine
 10
342.3926037610738
 20
114.6087176157011
 30
0.0
 11
298.306400529167
 21
114.6087176157011
 31
0.0
  0
LINE
  5
2A9
330
1A
100
AcDbEntity
  8
SEIHIN
 62
     3
 48
5.0
100
AcDbLine
 10
352.2991005291673
 20
104.5628176150752
 30
0.0
 11
288.4000005291672
 21
104.563217615701
 31
0.0
  0
LINE
  5
2AA
330
1A
100
AcDbEntity
  8
SEIHIN
 62
     3
 48
5.0
100
AcDbLine
 10
348.7949256537116
 20
88.5629176300242
 30
0.0
 11
291.9000005291672
 21
88.56311761570115
 31
0.0
  0
LINE
  5
2AB
330
1A
100
AcDbEntity
  8
SEIHIN
 62
     3
 48
5.0
100
AcDbLine
 10
348.2965084430752
 20
84.56291761531511
 30
0.0
 11
292.4024005291673
 21
84.56311761570109
 31
0.0
  0
LINE
  5
2AC
330
1A
100
AcDbEntity
  8
SEIHIN
 62
     3
 48
5.0
100
AcDbLine
 10
291.9000005291672
 20
104.563117615701
 30
0.0
 11
291.9000005291672
 21
88.56311761570115
 31
0.0
  0
LINE
  5
2AD
330
1A
100
AcDbEntity
  8
SEIHIN
 62
     3
 48
5.0
100
AcDbLine
 10
301.4999005291674
 20
88.56311761570115
 30
0.0
 11
301.5000005291671
 21
104.563117615701
 31
0.0
  0
LINE
  5
2AE
330
1A
100
AcDbEntity
  8
SEIHIN
 62
     3
 48
5.0
100
AcDbLine
 10
291.9000005291672
 20
88.59491761570115
 30
0.0
 11
292.4000005291672
 21
84.58291761570114
 31
0.0
  0
LINE
  5
2AF
330
1A
100
AcDbEntity
  8
SEIHIN
 62
     3
 48
5.0
100
AcDbLine
 10
301.4910005291673
 20
88.60181761570116
 30
0.0
 11
301.9910005291673
 21
84.58991761570116
 31
0.0
  0
ARC
  5
2B0
330
1A
100
AcDbEntity
  8
SEIHIN
 62
     3
 48
5.0
100
AcDbCircle
 10
298.3064023808894
 20
115.6087159281983
 30
0.0
 40
0.9999983124988613
100
AcDbArc
 50
185.3131128373832
 51
269.9998939039474
  0
LINE
  5
2B1
330
1A
100
AcDbEntity
  8
SEIHIN
 62
     3
 48
5.0
100
AcDbLine
 10
342.3924832899527
 20
126.6046176139645
 30
0.0
 11
298.306500529167
 21
126.6048176157011
 31
0.0
  0
LINE
  5
2B2
330
1A
100
AcDbEntity
  8
SEIHIN
 62
     3
 48
5.0
100
AcDbLine
 10
340.6459312114149
 20
128.2546176140719
 30
0.0
 11
300.0530005291672
 21
128.2548176157011
 31
0.0
  0
LINE
  5
2B3
330
1A
100
AcDbEntity
  8
SEIHIN
 62
     3
 48
5.0
100
AcDbLine
 10
288.3494005291672
 20
157.4662176157012
 30
0.0
 11
288.3493005291672
 21
136.6279176157012
 31
0.0
  0
LINE
  5
2B4
330
1A
100
AcDbEntity
  8
SEIHIN
 62
     3
 48
5.0
100
AcDbLine
 10
289.9994005291673
 20
157.4662176157012
 30
0.0
 11
289.9993005291673
 21
138.3086176157012
 31
0.0
  0
ARC
  5
2B5
330
1A
100
AcDbEntity
  8
SEIHIN
 62
     3
 48
5.0
100
AcDbCircle
 10
300.0529983697753
 20
129.2548193406981
 30
0.0
 40
1.000001724999372
100
AcDbArc
 50
192.7619787655728
 51
270.000123723822
  0
ARC
  5
2B6
330
1A
100
AcDbEntity
  8
SEIHIN
 62
     3
 48
5.0
100
AcDbCircle
 10
288.3495337809214
 20
126.6778841199024
 30
0.0
 40
9.000023006383123
100
AcDbArc
 50
5.319155805253506
 51
84.26233664456566
  0
ARC
  5
2B7
330
1A
100
AcDbEntity
  8
SEIHIN
 62
     3
 48
5.0
100
AcDbCircle
 10
289.3492067791279
 20
124.631810706118
 30
0.0
 40
1.000006249984775
100
AcDbArc
 50
179.9996041125242
 51
264.2605056144369
  0
ARC
  5
2B8
330
1A
100
AcDbEntity
  8
SEIHIN
 62
     3
 48
5.0
100
AcDbCircle
 10
298.3064972972605
 20
127.6048205606924
 30
0.0
 40
1.000002944996503
100
AcDbArc
 50
185.3191090339276
 51
270.0001851740636
  0
ARC
  5
2B9
330
1A
100
AcDbEntity
  8
SEIHIN
 62
     3
 48
5.0
100
AcDbCircle
 10
288.3492005291672
 20
126.6049176157011
 30
0.0
 40
10.99998087271068
100
AcDbArc
 50
12.75818395117446
 51
77.241816048825
  0
ARC
  5
2BA
330
1A
100
AcDbEntity
  8
SEIHIN
 62
     3
 48
5.0
100
AcDbCircle
 10
290.9992912115803
 20
138.3086292785087
 30
0.0
 40
0.9999906824811242
100
AcDbArc
 50
180.0006682358787
 51
257.2444013363701
  0
ARC
  5
2BB
330
1A
100
AcDbEntity
  8
SEIHIN
 62
     3
 48
5.0
100
AcDbCircle
 10
289.3493067791282
 20
136.627910706118
 30
0.0
 40
1.000006249984832
100
AcDbArc
 50
179.9996041125259
 51
264.2605056144339
  0
ARC
  5
2BC
330
1A
100
AcDbEntity
  8
SEIHIN
 62
     3
 48
5.0
100
AcDbCircle
 10
352.349416912097
 20
114.6817341186706
 30
0.0
 40
8.999968223005138
100
AcDbArc
 50
95.73737614709584
 51
174.6811314030859
  0
LINE
  5
2BD
330
1A
100
AcDbEntity
  8
SEIHIN
 62
     3
 48
5.0
100
AcDbLine
 10
343.2991005291674
 20
104.5630176157011
 30
0.0
 11
343.2991005291674
 21
126.6047176157011
 31
0.0
  0
LINE
  5
2BE
330
1A
100
AcDbEntity
  8
SEIHIN
 62
     3
 48
5.0
100
AcDbLine
 10
343.2991005291674
 20
126.6047176157011
 30
0.0
 11
343.2990014009922
 21
104.5628739546056
 31
0.0
  0
LINE
  5
2BF
330
1A
100
AcDbEntity
  8
SEIHIN
 62
     3
 48
5.0
100
AcDbLine
 10
348.7989005291672
 20
104.5630176157011
 30
0.0
 11
348.7989005291672
 21
88.56301761570108
 31
0.0
  0
LINE
  5
2C0
330
1A
100
AcDbEntity
  8
SEIHIN
 62
     3
 48
5.0
100
AcDbLine
 10
339.1989005291673
 20
88.56301761570108
 30
0.0
 11
339.1989005291673
 21
104.5630176157011
 31
0.0
  0
LINE
  5
2C1
330
1A
100
AcDbEntity
  8
SEIHIN
 62
     3
 48
5.0
100
AcDbLine
 10
339.2079005291673
 20
88.60181761570116
 30
0.0
 11
338.7079005291673
 21
84.58981761570115
 31
0.0
  0
LINE
  5
2C2
330
1A
100
AcDbEntity
  8
SEIHIN
 62
     3
 48
5.0
100
AcDbLine
 10
348.7989005291672
 20
88.59481761570108
 30
0.0
 11
348.2990005291674
 21
84.58291761570114
 31
0.0
  0
ARC
  5
2C3
330
1A
100
AcDbEntity
  8
SEIHIN
 62
     3
 48
5.0
100
AcDbCircle
 10
342.3926037610738
 20
115.6087205606924
 30
0.0
 40
1.000002944996521
100
AcDbArc
 50
269.9998148259379
 51
354.6808909660732
  0
LINE
  5
2C4
330
1A
100
AcDbEntity
  8
SEIHIN
 62
     3
 48
5.0
100
AcDbLine
 10
352.3497005291671
 20
157.4662176157012
 30
0.0
 11
352.3497005291671
 21
136.6278176157011
 31
0.0
  0
LINE
  5
2C5
330
1A
100
AcDbEntity
  8
SEIHIN
 62
     3
 48
5.0
100
AcDbLine
 10
350.6997005291673
 20
157.4661176157011
 30
0.0
 11
350.6997005291673
 21
138.3085176157011
 31
0.0
  0
ARC
  5
2C6
330
1A
100
AcDbEntity
  8
SEIHIN
 62
     3
 48
5.0
100
AcDbCircle
 10
351.3496942792062
 20
136.6278107061181
 30
0.0
 40
1.000006249984764
100
AcDbArc
 50
275.7394943855598
 51
0.0003958874714352
  0
ARC
  5
2C7
330
1A
100
AcDbEntity
  8
SEIHIN
 62
     3
 48
5.0
100
AcDbCircle
 10
351.3497992766688
 20
124.6317162311523
 30
0.0
 40
1.000001252499443
100
AcDbArc
 50
275.7334769822603
 51
0.0000793287025488
  0
ARC
  5
2C8
330
1A
100
AcDbEntity
  8
SEIHIN
 62
     3
 48
5.0
100
AcDbCircle
 10
352.3494169120967
 20
126.6778341186705
 30
0.0
 40
8.999968223005108
100
AcDbArc
 50
95.73737614709548
 51
174.6822736185272
  0
ARC
  5
2CB
330
1A
100
AcDbEntity
  8
SEIHIN
 62
     3
 48
5.0
100
AcDbCircle
 10
352.3497005291674
 20
126.6048176157011
 30
0.0
 40
10.99998087271065
100
AcDbArc
 50
102.7581839511748
 51
167.2429750575902
  0
ARC
  5
2CC
330
1A
100
AcDbEntity
  8
SEIHIN
 62
     3
 48
5.0
100
AcDbCircle
 10
349.6997098467541
 20
138.3085292785088
 30
0.0
 40
0.9999906824811517
100
AcDbArc
 50
282.7555986636227
 51
359.9993317641127
  0
LINE
  5
2D2
330
1A
100
AcDbEntity
  8
SEIHIN
 62
     3
 48
5.0
100
AcDbLine
 10
297.4000005291672
 20
188.3273176157011
 30
0.0
 11
297.4001005291672
 21
210.5631176157011
 31
0.0
  0
LINE
  5
2D3
330
1A
100
AcDbEntity
  8
SEIHIN
 62
     3
 48
5.0
100
AcDbLine
 10
342.3924971351733
 20
188.3273176157011
 30
0.0
 11
298.3066005291672
 21
188.3273176157011
 31
0.0
  0
LINE
  5
2D4
330
1A
100
AcDbEntity
  8
SEIHIN
 62
     3
 48
5.0
100
AcDbLine
 10
340.6460587811463
 20
186.6773176157011
 30
0.0
 11
300.0531005291672
 21
186.6773176157011
 31
0.0
  0
LINE
  5
2D5
330
1A
100
AcDbEntity
  8
SEIHIN
 62
     3
 48
5.0
100
AcDbLine
 10
340.6458085717564
 20
178.7631176152479
 30
0.0
 11
300.0533005291674
 21
178.762917615701
 31
0.0
  0
ARC
  5
2D6
330
1A
100
AcDbEntity
  8
SEIHIN
 62
     3
 48
5.0
100
AcDbCircle
 10
300.0531121919749
 20
185.6773269332878
 30
0.0
 40
0.9999906824812947
100
AcDbArc
 50
90.00066823587875
 51
167.2444013363722
  0
LINE
  5
2D7
330
1A
100
AcDbEntity
  8
SEIHIN
 62
     3
 48
5.0
100
AcDbLine
 10
299.1826005291672
 20
186.169417615701
 30
0.0
 11
299.2165005291673
 21
178.310517615701
 31
0.0
  0
ARC
  5
2D8
330
1A
100
AcDbEntity
  8
SEIHIN
 62
     3
 48
5.0
100
AcDbCircle
 10
288.3496341837883
 20
188.2542515173237
 30
0.0
 40
9.00001337306992
100
AcDbArc
 50
275.7370271158604
 51
354.6814752619542
  0
ARC
  5
2D9
330
1A
100
AcDbEntity
  8
SEIHIN
 62
     3
 48
5.0
100
AcDbCircle
 10
288.3495005291671
 20
180.412917615701
 30
0.0
 40
10.99998087271053
100
AcDbArc
 50
282.758183951175
 51
347.2418160488257
  0
ARC
  5
2DA
330
1A
100
AcDbEntity
  8
SEIHIN
 62
     3
 48
5.0
100
AcDbCircle
 10
290.9996022541642
 20
168.7092197750929
 30
0.0
 40
1.000001724999407
100
AcDbArc
 50
102.7619787655669
 51
180.0001237238188
  0
ARC
  5
2DB
330
1A
100
AcDbEntity
  8
SEIHIN
 62
     3
 48
5.0
100
AcDbCircle
 10
288.349300529167
 20
188.327217615701
 30
0.0
 40
10.99998087271075
100
AcDbArc
 50
282.7581839511751
 51
347.2418160488258
  0
ARC
  5
2DC
330
1A
100
AcDbEntity
  8
SEIHIN
 62
     3
 48
5.0
100
AcDbCircle
 10
289.3494067791282
 20
178.3043245252842
 30
0.0
 40
1.000006249984867
100
AcDbArc
 50
95.73949438555763
 51
180.0003958874702
  0
ARC
  5
2DD
330
1A
100
AcDbEntity
  8
SEIHIN
 62
     3
 48
5.0
100
AcDbCircle
 10
290.9993912115805
 20
176.6235059528933
 30
0.0
 40
0.9999906824811933
100
AcDbArc
 50
102.7555986636221
 51
179.9993317641151
  0
ARC
  5
2DE
330
1A
100
AcDbEntity
  8
SEIHIN
 62
     3
 48
5.0
100
AcDbCircle
 10
300.0532983697755
 20
177.762915890704
 30
0.0
 40
1.000001724999308
100
AcDbArc
 50
89.99987627617302
 51
167.2380212344209
  0
ARC
  5
2DF
330
1A
100
AcDbEntity
  8
SEIHIN
 62
     3
 48
5.0
100
AcDbCircle
 10
298.3065972972608
 20
187.3273146707098
 30
0.0
 40
1.000002944996559
100
AcDbArc
 50
89.99981482593797
 51
174.6808909660726
  0
LINE
  5
2E0
330
1A
100
AcDbEntity
  8
SEIHIN
 62
     3
 48
5.0
100
AcDbLine
 10
288.401500529167
 20
210.5631176157011
 30
0.0
 11
352.2991005291674
 21
210.5629176119447
 31
0.0
  0
LINE
  5
2E1
330
1A
100
AcDbEntity
  8
SEIHIN
 62
     3
 48
5.0
100
AcDbLine
 10
343.2991005291674
 20
188.3273176157011
 30
0.0
 11
343.2991005291674
 21
210.563017615701
 31
0.0
  0
LINE
  5
2E2
330
1A
100
AcDbEntity
  8
SEIHIN
 62
     3
 48
5.0
100
AcDbLine
 10
341.5166005291673
 20
186.1693176157011
 30
0.0
 11
341.4825005291672
 21
178.310517615701
 31
0.0
  0
ARC
  5
2E3
330
1A
100
AcDbEntity
  8
SEIHIN
 62
     3
 48
5.0
100
AcDbCircle
 10
352.3494172794612
 20
188.2542014774223
 30
0.0
 40
8.999968622593936
100
AcDbArc
 50
185.3183037134838
 51
264.2626217579957
  0
ARC
  5
2E5
330
1A
100
AcDbEntity
  8
SEIHIN
 62
     3
 48
5.0
100
AcDbCircle
 10
351.3496942792062
 20
178.304224525284
 30
0.0
 40
1.000006249984775
100
AcDbArc
 50
359.9996041125256
 51
84.26050561444034
  0
ARC
  5
2E6
330
1A
100
AcDbEntity
  8
SEIHIN
 62
     3
 48
5.0
100
AcDbCircle
 10
352.3496005291672
 20
180.4128176157011
 30
0.0
 40
10.99998087271059
100
AcDbArc
 50
192.7565354030696
 51
257.2418160488253
  0
ARC
  5
2E7
330
1A
100
AcDbEntity
  8
SEIHIN
 62
     3
 48
5.0
100
AcDbCircle
 10
349.6995098467539
 20
168.7091059528933
 30
0.0
 40
0.9999906824812379
100
AcDbArc
 50
0.0006682358815946
 51
77.24440133637537
  0
ARC
  5
2E8
330
1A
100
AcDbEntity
  8
SEIHIN
 62
     3
 48
5.0
100
AcDbCircle
 10
352.3498151638587
 20
188.3271029808801
 30
0.0
 40
10.99996983110342
100
AcDbArc
 50
192.7569652417137
 51
257.2417248687043
  0
ARC
  5
2EA
330
1A
100
AcDbEntity
  8
SEIHIN
 62
     3
 48
5.0
100
AcDbCircle
 10
349.6997098467541
 20
176.6234059528933
 30
0.0
 40
0.9999906824812947
100
AcDbArc
 50
0.0006682358815945
 51
77.24440133637219
  0
DIMENSION
  5
415
330
1A
100
AcDbEntity
  8
SUNPOU
 62
     4
100
AcDbDimension
  2
*D1
 10
352.2991005291673
 20
229.1152968589695
 30
0.0
 11
320.3495505291673
 21
231.6152968589696
 31
0.0
 70
    32
  3
STANDARD
100
AcDbAlignedDimension
 13
288.4000005291672
 23
210.5631176157011
 33
0.0
 14
352.2991005291673
 24
210.563017615701
 34
0.0
100
AcDbRotatedDimension
1001
ACAD
1000
DSTYLE
1002
{
1070
   372
1070
    -1
1070
   371
1070
    -1
1070
    41
1040
3.0
1070
    42
1040
3.0
1070
    43
1040
7.0
1070
    44
1040
1.5
1070
    73
1070
     0
1070
    74
1070
     0
1070
    77
1070
     3
1070
   140
1040
3.0
1070
   141
1040
150.0
1070
   147
1040
1.0
1070
   172
1070
     1
1070
   173
1070
     1
1070
   176
1070
   256
1070
   177
1070
   256
1070
   178
1070
   256
1070
   271
1070
     0
1070
   272
1070
     2
1070
     6
1000
OPEN
1070
     7
1000
OPEN
1002
}
  0
DIMENSION
  5
422
330
1A
100
AcDbEntity
  8
SUNPOU
 62
     4
100
AcDbDimension
  2
*D2
 10
78.32790454406131
 20
229.1152968589695
 30
0.0
 11
134.7280045440611
 21
231.6152968589696
 31
0.0
 70
    32
  3
STANDARD
100
AcDbAlignedDimension
 13
142.2280045440611
 23
210.563017615701
 33
0.0
 14
78.32790454406131
 24
210.5631176157011
 34
0.0
100
AcDbRotatedDimension
1001
ACAD
1000
DSTYLE
1002
{
1070
   372
1070
    -1
1070
   371
1070
    -1
1070
    41
1040
3.0
1070
    42
1040
3.0
1070
    43
1040
7.0
1070
    44
1040
1.5
1070
    73
1070
     0
1070
    74
1070
     0
1070
    77
1070
     3
1070
   140
1040
3.0
1070
   141
1040
150.0
1070
   147
1040
1.0
1070
   172
1070
     1
1070
   173
1070
     1
1070
   176
1070
   256
1070
   177
1070
   256
1070
   178
1070
   256
1070
   271
1070
     0
1070
   272
1070
     2
1070
   280
1070
     1
1070
     6
1000
OPEN
1070
     7
1000
OPEN
1002
}
  0
DIMENSION
  5
42F
330
1A
100
AcDbEntity
  8
SUNPOU
 62
     4
100
AcDbDimension
  2
*D3
 10
179.475843118632
 20
236.8495722873264
 30
0.0
 11
144.8766738313466
 21
239.3495722873264
 31
0.0
 70
    32
  3
STANDARD
100
AcDbAlignedDimension
 13
110.2775045440612
 23
220.5631176157011
 33
0.0
 14
179.475843118632
 24
157.4680263130572
 34
0.0
100
AcDbRotatedDimension
1001
ACAD
1000
DSTYLE
1002
{
1070
   372
1070
    -1
1070
   371
1070
    -1
1070
    41
1040
3.0
1070
    42
1040
3.0
1070
    43
1040
7.0
1070
    44
1040
1.5
1070
    73
1070
     0
1070
    74
1070
     0
1070
    77
1070
     3
1070
   140
1040
3.0
1070
   141
1040
150.0
1070
   147
1040
1.0
1070
   172
1070
     1
1070
   173
1070
     1
1070
   176
1070
   256
1070
   177
1070
   256
1070
   178
1070
   256
1070
   271
1070
     0
1070
   272
1070
     2
1070
     6
1000
OPEN
1070
     7
1000
OPEN
1002
}
  0
DIMENSION
  5
449
330
1A
100
AcDbEntity
  8
SUNPOU
 62
     4
100
AcDbDimension
  2
*D4
 10
45.16205065771055
 20
138.9265496742622
 30
0.0
 11
42.66205065771053
 21
174.7448336449817
 31
0.0
 70
    32
  3
STANDARD
100
AcDbAlignedDimension
 13
78.32940454406127
 23
210.5631176157011
 33
0.0
 14
110.2773939806871
 24
138.9265496742622
 34
0.0
 50
90.0
100
AcDbRotatedDimension
1001
ACAD
1000
DSTYLE
1002
{
1070
   372
1070
    -1
1070
   371
1070
    -1
1070
    41
1040
3.0
1070
    42
1040
3.0
1070
    43
1040
7.0
1070
    44
1040
1.5
1070
    73
1070
     0
1070
    74
1070
     0
1070
    77
1070
     3
1070
   140
1040
3.0
1070
   141
1040
150.0
1070
   147
1040
1.0
1070
   172
1070
     1
1070
   173
1070
     1
1070
   176
1070
   256
1070
   177
1070
   256
1070
   178
1070
   256
1070
   271
1070
     0
1070
   272
1070
     2
1070
     6
1000
OPEN
1070
     7
1000
OPEN
1002
}
  0
DIMENSION
  5
463
330
1A
100
AcDbEntity
  8
SUNPOU
 62
     4
100
AcDbDimension
  2
*D5
 10
45.16205065771055
 20
104.563117615701
 30
0.0
 11
42.66205065771053
 21
121.7448336449816
 31
0.0
 70
    32
  3
STANDARD
100
AcDbAlignedDimension
 13
110.2773939806871
 23
138.9265496742622
 33
0.0
 14
78.32760454406116
 24
104.563117615701
 34
0.0
 50
90.0
100
AcDbRotatedDimension
1001
ACAD
1000
DSTYLE
1002
{
1070
   372
1070
    -1
1070
   371
1070
    -1
1070
    41
1040
3.0
1070
    42
1040
3.0
1070
    43
1040
7.0
1070
    44
1040
1.5
1070
    73
1070
     0
1070
    74
1070
     0
1070
    77
1070
     3
1070
   140
1040
3.0
1070
   141
1040
150.0
1070
   147
1040
1.0
1070
   172
1070
     1
1070
   173
1070
     1
1070
   176
1070
   256
1070
   177
1070
   256
1070
   178
1070
   256
1070
   271
1070
     0
1070
   272
1070
     2
1070
     6
1000
OPEN
1070
     7
1000
OPEN
1002
}
  0
DIMENSION
  5
470
330
1A
100
AcDbEntity
  8
SUNPOU
 62
     4
100
AcDbDimension
  2
*D6
 10
192.0326726950112
 20
110.6045227741848
 30
0.0
 11
180.3711738250803
 21
107.4798854155332
 31
0.0
 70
   161
  1
※ <>
  3
STANDARD
100
AcDbAlignedDimension
 13
163.5973320468358
 23
120.1343416572081
 33
0.0
 14
187.7455045440613
 24
126.6047176157011
 34
0.0
1001
ACAD
1000
DSTYLE
1002
{
1070
   372
1070
    -1
1070
   371
1070
    -1
1070
    41
1040
3.0
1070
    42
1040
3.0
1070
    43
1040
7.0
1070
    44
1040
1.5
1070
    73
1070
     0
1070
    74
1070
     0
1070
    77
1070
     3
1070
   140
1040
3.0
1070
   141
1040
150.0
1070
   147
1040
1.0
1070
   172
1070
     1
1070
   173
1070
     1
1070
   176
1070
   256
1070
   177
1070
   256
1070
   178
1070
   256
1070
   271
1070
     0
1070
   272
1070
     2
1070
     6
1000
OPEN
1070
     7
1000
OPEN
1002
}
  0
DIMENSION
  5
47D
330
1A
100
AcDbEntity
  8
SUNPOU
 62
     4
100
AcDbDimension
  2
*D7
 10
217.2256980713167
 20
134.5051814699425
 30
0.0
 11
211.3714412599736
 21
166.013646297196
 31
0.0
 70
    33
  3
STANDARD
100
AcDbAlignedDimension
 13
171.2068045440612
 23
188.3289176157009
 33
0.0
 14
187.7449559225985
 24
126.6060509995569
 34
0.0
1001
ACAD
1000
DSTYLE
1002
{
1070
   372
1070
    -1
1070
   371
1070
    -1
1070
    41
1040
3.0
1070
    42
1040
3.0
1070
    43
1040
7.0
1070
    44
1040
1.5
1070
    73
1070
     0
1070
    74
1070
     0
1070
    77
1070
     3
1070
   140
1040
3.0
1070
   141
1040
150.0
1070
   147
1040
1.0
1070
   172
1070
     1
1070
   173
1070
     1
1070
   176
1070
   256
1070
   177
1070
   256
1070
   178
1070
   256
1070
   271
1070
     0
1070
   272
1070
     2
1070
     6
1000
OPEN
1070
     7
1000
OPEN
1002
}
  0
DIMENSION
  5
48A
330
1A
100
AcDbEntity
  8
SUNPOU
 62
     4
100
AcDbDimension
  2
*D8
 10
232.3108383727217
 20
84.56291761570113
 30
0.0
 11
229.8108383727217
 21
147.5629676157011
 31
0.0
 70
    32
  3
STANDARD
100
AcDbAlignedDimension
 13
138.2294045440612
 23
210.563017615701
 33
0.0
 14
138.2285045440612
 24
84.56291761570117
 34
0.0
 50
90.0
100
AcDbRotatedDimension
1001
ACAD
1000
DSTYLE
1002
{
1070
   372
1070
    -1
1070
   371
1070
    -1
1070
    41
1040
3.0
1070
    42
1040
3.0
1070
    43
1040
7.0
1070
    44
1040
1.5
1070
    73
1070
     0
1070
    74
1070
     0
1070
    77
1070
     3
1070
   140
1040
3.0
1070
   141
1040
150.0
1070
   147
1040
1.0
1070
   172
1070
     1
1070
   173
1070
     1
1070
   176
1070
   256
1070
   177
1070
   256
1070
   178
1070
   256
1070
   271
1070
     0
1070
   272
1070
     2
1070
     6
1000
OPEN
1070
     7
1000
OPEN
1002
}
  0
DIMENSION
  5
4A4
330
1A
100
AcDbEntity
  8
SUNPOU
 62
     4
100
AcDbDimension
  2
*D9
 10
110.2775045440612
 20
220.5631176157011
 30
0.0
 11
124.9416453269954
 21
158.0372961084468
 31
0.0
 70
    34
  3
STANDARD
100
AcDb2LineAngularDimension
 13
103.4259045440611
 23
137.0907176157011
 33
0.0
 14
189.1352045440612
 24
160.0562176157011
 34
0.0
 15
110.2773045440611
 25
72.88931761570109
 35
0.0
 16
126.8152551752365
 26
152.8034015618223
 36
0.0
1001
ACAD
1000
DSTYLE
1002
{
1070
   271
1070
     0
1070
   271
1070
     0
1070
   271
1070
     0
1070
   271
1070
     0
1070
   372
1070
    -1
1070
   371
1070
    -1
1070
    41
1040
3.0
1070
    42
1040
3.0
1070
    43
1040
7.0
1070
    44
1040
1.5
1070
    73
1070
     0
1070
    74
1070
     0
1070
    77
1070
     3
1070
   140
1040
3.0
1070
   141
1040
150.0
1070
   147
1040
1.0
1070
   172
1070
     1
1070
   173
1070
     1
1070
   176
1070
   256
1070
   177
1070
   256
1070
   178
1070
   256
1070
   271
1070
     0
1070
   272
1070
     2
1070
     6
1000
OPEN
1070
     7
1000
OPEN
1002
}
  0
DIMENSION
  5
4B1
330
1A
100
AcDbEntity
  8
SUNPOU
 62
     4
100
AcDbDimension
  2
*D10
 10
182.4410233664783
 20
146.4017084268045
 30
0.0
 11
147.1947574337052
 21
139.5457863475236
 31
0.0
 70
    33
  3
STANDARD
100
AcDbAlignedDimension
 13
110.2773939806871
 23
138.9265496742623
 33
0.0
 14
179.475843118632
 24
157.4680263130573
 34
0.0
1001
ACAD
1000
DSTYLE
1002
{
1070
   372
1070
    -1
1070
   371
1070
    -1
1070
    41
1040
3.0
1070
    42
1040
3.0
1070
    43
1040
7.0
1070
    44
1040
1.5
1070
    73
1070
     0
1070
    74
1070
     0
1070
    77
1070
     3
1070
   140
1040
3.0
1070
   141
1040
150.0
1070
   147
1040
1.0
1070
   172
1070
     1
1070
   173
1070
     1
1070
   176
1070
   256
1070
   177
1070
   256
1070
   178
1070
   256
1070
   271
1070
     0
1070
   272
1070
     2
1070
     6
1000
OPEN
1070
     7
1000
OPEN
1002
}
  0
DIMENSION
  5
504
330
1A
100
AcDbEntity
  8
SUNPOU
 62
     4
100
AcDbDimension
  2
*D11
 10
142.2278045440613
 20
60.64738699238478
 30
0.0
 11
110.2777045440612
 21
63.14738699238478
 31
0.0
 70
    32
  3
STANDARD
100
AcDbAlignedDimension
 13
78.32760454406116
 23
104.563117615701
 33
0.0
 14
142.2278045440613
 24
113.6428176157011
 34
0.0
100
AcDbRotatedDimension
1001
ACAD
1000
DSTYLE
1002
{
1070
   372
1070
    -1
1070
   371
1070
    -1
1070
    41
1040
3.0
1070
    42
1040
3.0
1070
    43
1040
7.0
1070
    44
1040
1.5
1070
    73
1070
     0
1070
    74
1070
     0
1070
    77
1070
     3
1070
   140
1040
3.0
1070
   141
1040
150.0
1070
   147
1040
1.0
1070
   172
1070
     1
1070
   173
1070
     1
1070
   176
1070
   256
1070
   177
1070
   256
1070
   178
1070
   256
1070
   271
1070
     0
1070
   272
1070
     2
1070
     6
1000
OPEN
1070
     7
1000
OPEN
1002
}
  0
DIMENSION
  5
521
330
1A
100
AcDbEntity
  8
SUNPOU
 62
     4
100
AcDbDimension
  2
*D12
 10
160.9175724693006
 20
114.5629176155908
 30
0.0
 11
158.4175724693006
 21
99.56291761564605
 31
0.0
 70
    32
  1
※<>
  3
STANDARD
100
AcDbAlignedDimension
 13
138.2285045440612
 23
84.56291761570117
 33
0.0
 14
142.2278514924915
 24
114.5629176155908
 34
0.0
 50
90.0
100
AcDbRotatedDimension
1001
ACAD
1000
DSTYLE
1002
{
1070
   372
1070
    -1
1070
   371
1070
    -1
1070
    41
1040
3.0
1070
    42
1040
3.0
1070
    43
1040
7.0
1070
    44
1040
1.5
1070
    73
1070
     0
1070
    74
1070
     0
1070
    77
1070
     3
1070
   140
1040
3.0
1070
   141
1040
150.0
1070
   147
1040
1.0
1070
   172
1070
     1
1070
   173
1070
     1
1070
   176
1070
   256
1070
   177
1070
   256
1070
   178
1070
   256
1070
   271
1070
     0
1070
   272
1070
     2
1070
     6
1000
OPEN
1070
     7
1000
OPEN
1002
}
  0
ARC
  5
552
330
1A
100
AcDbEntity
  8
SEIHIN
 62
     3
 48
5.0
100
AcDbCircle
 10
342.3924878265815
 20
127.6046176139542
 30
0.0
 40
1.0
100
AcDbArc
 50
269.9997400703193
 51
354.682273618527
  0
ARC
  5
553
330
1A
100
AcDbEntity
  8
SEIHIN
 62
     3
 48
5.0
100
AcDbCircle
 10
340.6459361384213
 20
129.2546176140598
 30
0.0
 40
1.0
100
AcDbArc
 50
269.9997177033283
 51
347.2429750575903
  0
ARC
  5
554
330
1A
100
AcDbEntity
  8
SEIHIN
 62
     3
 48
5.0
100
AcDbCircle
 10
342.3924971351733
 20
187.3273176157011
 30
0.0
 40
1.0
100
AcDbArc
 50
5.318303713483214
 51
90.0
  0
ARC
  5
555
330
1A
100
AcDbEntity
  8
SEIHIN
 62
     3
 48
5.0
100
AcDbCircle
 10
340.6460587811463
 20
185.6773176157011
 30
0.0
 40
1.0
100
AcDbArc
 50
12.75696524171258
 51
90.0
  0
ARC
  5
556
330
1A
100
AcDbEntity
  8
SEIHIN
 62
     3
 48
5.0
100
AcDbCircle
 10
340.6458134987628
 20
177.76311761526
 30
0.0
 40
1.0
100
AcDbArc
 50
12.75653540307024
 51
90.0002822966716
  0
VIEWPORT
  5
22
330
17
100
AcDbEntity
 67
     1
  8
0
100
AcDbViewport
 10
313.6808219178082
 20
148.5
 30
0.0
 40
627.3616438356165
 41
297.0
 68
     2
 69
     1
1001
ACAD
1000
MVIEW
1002
{
1070
    16
1010
0.0
1020
0.0
1030
0.0
1010
0.0
1020
0.0
1030
1.0
1040
0.0
1040
297.0
1040
313.6808219178082
1040
148.5
1040
50.0
1040
0.0
1040
0.0
1070
     0
1070
   100
1070
     1
1070
     0
1070
     0
1070
     0
1070
     0
1070
     0
1040
0.0
1040
0.0
1040
0.0
1040
1.0
1040
1.0
1040
10.0
1040
10.0
1070
     0
1002
{
1002
}
1002
}
  0
VIEWPORT
  5
64
330
17
100
AcDbEntity
 67
     1
  8
VIEWPORT
100
AcDbViewport
 10
210.0
 20
148.5
 30
0.0
 40
420.0
 41
297.0
 68
     1
 69
     2
1001
ACAD
1000
MVIEW
1002
{
1070
    16
1010
0.0
1020
0.0
1030
0.0
1010
0.0
1020
0.0
1030
1.0
1040
0.0
1040
302.9399999999998
1040
210.0
1040
148.5
1040
50.0
1040
0.0
1040
0.0
1070
     0
1070
   100
1070
     1
1070
     0
1070
     0
1070
     0
1070
     0
1070
     0
1040
0.0
1040
0.0
1040
0.0
1040
5.0
1040
5.0
1040
0.0
1040
0.0
1070
     0
1002
{
1002
}
1002
}
  0
ENDSEC
  0
SECTION
  2
OBJECTS
  0
DICTIONARY
  5
C
330
0
100
AcDbDictionary
  3
ACAD_GROUP
350
D
  3
ACAD_LAYOUT
350
57F
  3
ACAD_MLINESTYLE
350
E
  3
ACAD_PLOTSETTINGS
350
580
1001
ACAD
1000
TREAT_AS_HARD
1070
     0
  0
DICTIONARY
  5
8A2
330
1A
100
AcDbDictionary
  3
ACAD_LAYOUTSELFREF
350
998
1001
ACAD
1000
TREAT_AS_HARD
1070
     1
  0
DICTIONARY
  5
8A0
330
17
100
AcDbDictionary
  3
ACAD_LAYOUTSELFREF
350
997
1001
ACAD
1000
TREAT_AS_HARD
1070
     1
  0
DICTIONARY
  5
D
102
{ACAD_REACTORS
330
C
102
}
330
C
100
AcDbDictionary
1001
ACAD
1000
TREAT_AS_HARD
1070
     0
  0
DICTIONARY
  5
57F
102
{ACAD_REACTORS
330
C
102
}
330
C
100
AcDbDictionary
1001
ACAD
1000
TREAT_AS_HARD
1070
     0
  0
DICTIONARY
  5
E
102
{ACAD_REACTORS
330
C
102
}
330
C
100
AcDbDictionary
  3
STANDARD
350
13
1001
ACAD
1000
TREAT_AS_HARD
1070
     0
  0
DICTIONARY
  5
580
102
{ACAD_REACTORS
330
C
102
}
330
C
100
AcDbDictionary
1001
ACAD
1000
TREAT_AS_HARD
1070
     0
  0
XRECORD
  5
998
102
{ACAD_REACTORS
330
8A2
102
}
330
8A2
100
AcDbXrecord
340
1A
  0
XRECORD
  5
997
102
{ACAD_REACTORS
330
8A0
102
}
330
8A0
100
AcDbXrecord
340
17
  0
MLINESTYLE
  5
13
102
{ACAD_REACTORS
330
E
102
}
330
E
100
AcDbMlineStyle
  2
STANDARD
 70
     0
  3

 62
     0
 51
90.0
 52
90.0
 71
     2
 49
0.5
 62
   256
  6
BYLAYER
 49
-0.5
 62
   256
  6
BYLAYER
  0
ENDSEC
  0
EOF
