  0
SECTION
  2
HEADER
  9
$ACADVER
  1
AC1012
  9
$DWGCODEPAGE
  3
dos932
  9
$INSBASE
 10
0.0
 20
0.0
 30
0.0
  9
$EXTMIN
 10
10.0360127096485
 20
4.921601730540487
 30
-0.0000000349181948
  9
$EXTMAX
 10
806.2518329711769
 20
563.79062024433
 30
0.0000000814935746
  9
$LIMMIN
 10
0.0
 20
0.0
  9
$LIMMAX
 10
840.0
 20
594.0
  9
$ORTHOMODE
 70
     0
  9
$REGENMODE
 70
     1
  9
$FILLMODE
 70
     1
  9
$QTEXTMODE
 70
     0
  9
$MIRRTEXT
 70
     1
  9
$DRAGMODE
 70
     2
  9
$LTSCALE
 40
2.0
  9
$OSMODE
 70
  2495
  9
$ATTMODE
 70
     1
  9
$TEXTSIZE
 40
8.0
  9
$TRACEWID
 40
1.0
  9
$TEXTSTYLE
  7
STANDARD
  9
$CLAYER
  8
ZUWAKU
  9
$CELTYPE
  6
BYLAYER
  9
$CECOLOR
 62
   256
  9
$CELTSCALE
 40
1.0
  9
$DELOBJ
 70
     1
  9
$DISPSILH
 70
     0
  9
$DIMSCALE
 40
1.0
  9
$DIMASZ
 40
7.0
  9
$DIMEXO
 40
6.0
  9
$DIMDLI
 40
14.0
  9
$DIMRND
 40
0.0
  9
$DIMDLE
 40
0.0
  9
$DIMEXE
 40
3.0
  9
$DIMTP
 40
0.0
  9
$DIMTM
 40
0.0
  9
$DIMTXT
 40
6.0
  9
$DIMCEN
 40
150.0
  9
$DIMTSZ
 40
0.0
  9
$DIMTOL
 70
     0
  9
$DIMLIM
 70
     0
  9
$DIMTIH
 70
     0
  9
$DIMTOH
 70
     0
  9
$DIMSE1
 70
     0
  9
$DIMSE2
 70
     0
  9
$DIMTAD
 70
     3
  9
$DIMZIN
 70
     0
  9
$DIMBLK
  1

  9
$DIMASO
 70
     1
  9
$DIMSHO
 70
     1
  9
$DIMPOST
  1

  9
$DIMAPOST
  1

  9
$DIMALT
 70
     0
  9
$DIMALTD
 70
     2
  9
$DIMALTF
 40
25.4
  9
$DIMLFAC
 40
1.0
  9
$DIMTOFL
 70
     1
  9
$DIMTVP
 40
0.0
  9
$DIMTIX
 70
     0
  9
$DIMSOXD
 70
     0
  9
$DIMSAH
 70
     1
  9
$DIMBLK1
  1
OPEN
  9
$DIMBLK2
  1
OPEN
  9
$DIMSTYLE
  2
STANDARD
  9
$DIMCLRD
 70
   256
  9
$DIMCLRE
 70
   256
  9
$DIMCLRT
 70
   256
  9
$DIMTFAC
 40
1.0
  9
$DIMGAP
 40
2.0
  9
$DIMJUST
 70
     0
  9
$DIMSD1
 70
     0
  9
$DIMSD2
 70
     0
  9
$DIMTOLJ
 70
     1
  9
$DIMTZIN
 70
     0
  9
$DIMALTZ
 70
     0
  9
$DIMALTTZ
 70
     0
  9
$DIMFIT
 70
     3
  9
$DIMUPT
 70
     0
  9
$DIMUNIT
 70
     2
  9
$DIMDEC
 70
     0
  9
$DIMTDEC
 70
     0
  9
$DIMALTU
 70
     2
  9
$DIMALTTD
 70
     2
  9
$DIMTXSTY
  7
STANDARD
  9
$DIMAUNIT
 70
     0
  9
$LUNITS
 70
     2
  9
$LUPREC
 70
     4
  9
$SKETCHINC
 40
1.0
  9
$FILLETRAD
 40
1.0
  9
$AUNITS
 70
     0
  9
$AUPREC
 70
     0
  9
$MENU
  1
.
  9
$ELEVATION
 40
0.0
  9
$PELEVATION
 40
0.0
  9
$THICKNESS
 40
0.0
  9
$LIMCHECK
 70
     0
  9
$BLIPMODE
 70
     0
  9
$CHAMFERA
 40
20.0
  9
$CHAMFERB
 40
20.0
  9
$CHAMFERC
 40
40.0
  9
$CHAMFERD
 40
0.0
  9
$SKPOLY
 70
     0
  9
$TDCREATE
 40
2451071.949107986
  9
$TDUPDATE
 40
2454132.742856261
  9
$TDINDWG
 40
0.0254663542
  9
$TDUSRTIMER
 40
0.0254663542
  9
$USRTIMER
 70
     1
  9
$ANGBASE
 50
0.0
  9
$ANGDIR
 70
     0
  9
$PDMODE
 70
     0
  9
$PDSIZE
 40
0.0
  9
$PLINEWID
 40
0.0
  9
$COORDS
 70
     1
  9
$SPLFRAME
 70
     0
  9
$SPLINETYPE
 70
     6
  9
$SPLINESEGS
 70
     8
  9
$ATTDIA
 70
     0
  9
$ATTREQ
 70
     1
  9
$HANDLING
 70
 10241
  9
$HANDSEED
  5
A41
  9
$SURFTAB1
 70
     6
  9
$SURFTAB2
 70
     6
  9
$SURFTYPE
 70
     6
  9
$SURFU
 70
     6
  9
$SURFV
 70
     6
  9
$UCSNAME
  2

  9
$UCSORG
 10
0.0
 20
0.0
 30
0.0
  9
$UCSXDIR
 10
1.0
 20
0.0
 30
0.0
  9
$UCSYDIR
 10
0.0
 20
1.0
 30
0.0
  9
$PUCSNAME
  2

  9
$PUCSORG
 10
0.0
 20
0.0
 30
0.0
  9
$PUCSXDIR
 10
1.0
 20
0.0
 30
0.0
  9
$PUCSYDIR
 10
0.0
 20
1.0
 30
0.0
  9
$USERI1
 70
     0
  9
$USERI2
 70
     0
  9
$USERI3
 70
     0
  9
$USERI4
 70
     0
  9
$USERI5
 70
     0
  9
$USERR1
 40
0.0
  9
$USERR2
 40
0.0
  9
$USERR3
 40
0.0
  9
$USERR4
 40
0.0
  9
$USERR5
 40
0.0
  9
$WORLDVIEW
 70
     1
  9
$SHADEDGE
 70
     3
  9
$SHADEDIF
 70
    70
  9
$TILEMODE
 70
     1
  9
$MAXACTVP
 70
    16
  9
$PINSBASE
 10
0.0
 20
0.0
 30
0.0
  9
$PLIMCHECK
 70
     0
  9
$PEXTMIN
 10
0.0
 20
0.0
 30
0.0
  9
$PEXTMAX
 10
420.0
 20
297.0
 30
0.0
  9
$PLIMMIN
 10
0.0
 20
0.0
  9
$PLIMMAX
 10
420.0
 20
297.0
  9
$UNITMODE
 70
     0
  9
$VISRETAIN
 70
     0
  9
$PLINEGEN
 70
     0
  9
$PSLTSCALE
 70
     1
  9
$TREEDEPTH
 70
  3020
  9
$PICKSTYLE
 70
     1
  9
$CMLSTYLE
  2
STANDARD
  9
$CMLJUST
 70
     0
  9
$CMLSCALE
 40
1.0
  9
$SAVEIMAGES
 70
     1
  0
ENDSEC
  0
SECTION
  2
CLASSES
  0
CLASS
  1
ACDBDICTIONARYWDFLT
  2
AcDbDictionaryWithDefault
  3
AutoCAD 2000
 90
    32768
280
     0
281
     0
  0
CLASS
  1
ACDBPLACEHOLDER
  2
AcDbPlaceHolder
  3
AutoCAD 2000
 90
    32768
280
     0
281
     0
  0
CLASS
  1
LAYOUT
  2
AcDbLayout
  3
AutoCAD 2000
 90
    32768
280
     0
281
     0
  0
CLASS
  1
LONG_TRANSACTION
  2
AcDbLongTransaction
  3
AutoCAD 2000
 90
    32768
280
     0
281
     0
  0
CLASS
  1
LWPOLYLINE
  2
AcDbPolyline
  3
AutoCAD 2000
 90
    32768
280
     0
281
     1
  0
CLASS
  1
HATCH
  2
AcDbHatch
  3
AutoCAD 2000
 90
    32768
280
     0
281
     1
  0
CLASS
  1
XRECORD
  2
AcDbXrecord
  3
AutoCAD 2000
 90
    32768
280
     0
281
     0
  0
CLASS
  1
LONG_TRANSACTION
  2
AcDbLongTransaction
  3
AutoCAD 2000
 90
    32768
280
     0
281
     0
  0
CLASS
  1
LWPOLYLINE
  2
AcDbPolyline
  3
AutoCAD 2000
 90
    32768
280
     0
281
     1
  0
CLASS
  1
HATCH
  2
AcDbHatch
  3
AutoCAD 2000
 90
    32768
280
     0
281
     1
  0
CLASS
  1
XRECORD
  2
AcDbXrecord
  3
AutoCAD 2000
 90
    32768
280
     0
281
     0
  0
CLASS
  1
LONG_TRANSACTION
  2
AcDbLongTransaction
  3
AutoCAD 2000
 90
    32768
280
     0
281
     0
  0
CLASS
  1
LWPOLYLINE
  2
AcDbPolyline
  3
AutoCAD 2000
 90
    32768
280
     0
281
     1
  0
CLASS
  1
HATCH
  2
AcDbHatch
  3
AutoCAD 2000
 90
    32768
280
     0
281
     1
  0
CLASS
  1
XRECORD
  2
AcDbXrecord
  3
AutoCAD 2000
 90
    32768
280
     0
281
     0
  0
ENDSEC
  0
SECTION
  2
TABLES
  0
TABLE
  2
VPORT
  5
8
330
0
100
AcDbSymbolTable
 70
     4
  0
VPORT
  5
A3E
330
8
100
AcDbSymbolTableRecord
100
AcDbViewportTableRecord
  2
*ACTIVE
 70
     0
 10
0.0
 20
0.0
 11
1.0
 21
1.0
 12
420.0000000000001
 22
297.0
 13
0.0
 23
0.0
 14
5.0
 24
5.0
 15
0.0
 25
0.0
 16
0.0
 26
0.0
 36
1.0
 17
0.0
 27
0.0
 37
0.0
 40
598.540127388535
 41
1.535714285714285
 42
50.0
 43
0.0
 44
0.0
 50
0.0
 51
0.0
 71
     0
 72
   100
 73
     1
 74
     0
 75
     0
 76
     0
 77
     0
 78
     0
  0
ENDTAB
  0
TABLE
  2
LTYPE
  5
5
330
0
100
AcDbSymbolTable
 70
     2
  0
LTYPE
  5
14
330
5
100
AcDbSymbolTableRecord
100
AcDbLinetypeTableRecord
  2
BYBLOCK
 70
     0
  3

 72
    65
 73
     0
 40
0.0
  0
LTYPE
  5
15
330
5
100
AcDbSymbolTableRecord
100
AcDbLinetypeTableRecord
  2
BYLAYER
 70
     0
  3

 72
    65
 73
     0
 40
0.0
  0
LTYPE
  5
16
330
5
100
AcDbSymbolTableRecord
100
AcDbLinetypeTableRecord
  2
CONTINUOUS
 70
     0
  3
Solid line
 72
    65
 73
     0
 40
0.0
  0
LTYPE
  5
135
330
5
100
AcDbSymbolTableRecord
100
AcDbLinetypeTableRecord
  2
CENTER
 70
     0
  3
____ _ ____ _ ____ _ ____ _ ____ _ ____ _ ____ 
 72
    65
 73
     4
 40
2.0
 49
1.25
 74
     0
 49
-0.25
 74
     0
 49
0.25
 74
     0
 49
-0.25
 74
     0
  0
ENDTAB
  0
TABLE
  2
LAYER
  5
2
330
0
100
AcDbSymbolTable
 70
     7
  0
LAYER
  5
F
330
2
100
AcDbSymbolTableRecord
100
AcDbLayerTableRecord
  2
0
 70
     0
 62
     7
  6
CONTINUOUS
  0
LAYER
  5
62
330
2
100
AcDbSymbolTableRecord
100
AcDbLayerTableRecord
  2
VIEWPORT
 70
     0
 62
     7
  6
CONTINUOUS
  0
LAYER
  5
65
330
2
100
AcDbSymbolTableRecord
100
AcDbLayerTableRecord
  2
ZUWAKU
 70
     0
 62
     7
  6
CONTINUOUS
  0
LAYER
  5
147
330
2
100
AcDbSymbolTableRecord
100
AcDbLayerTableRecord
  2
SEIHIN
 70
     0
 62
     3
  6
CONTINUOUS
  0
LAYER
  5
148
330
2
100
AcDbSymbolTableRecord
100
AcDbLayerTableRecord
  2
SUNPOU
 70
     0
 62
     4
  6
CONTINUOUS
  0
LAYER
  5
149
330
2
100
AcDbSymbolTableRecord
100
AcDbLayerTableRecord
  2
CENTER_L
 70
     0
 62
     1
  6
CENTER
  0
LAYER
  5
390
330
2
100
AcDbSymbolTableRecord
100
AcDbLayerTableRecord
  2
DEFPOINTS
 70
     0
 62
     7
  6
CONTINUOUS
  0
ENDTAB
  0
TABLE
  2
STYLE
  5
3
330
0
100
AcDbSymbolTable
 70
     1
  0
STYLE
  5
10
330
3
100
AcDbSymbolTableRecord
100
AcDbTextStyleTableRecord
  2
STANDARD
 70
     0
 40
0.0
 41
1.0
 50
0.0
 71
     0
 42
8.0
  3
TXT
  4
bigfont.shx
  0
ENDTAB
  0
TABLE
  2
VIEW
  5
6
330
0
100
AcDbSymbolTable
 70
     0
  0
ENDTAB
  0
TABLE
  2
UCS
  5
7
330
0
100
AcDbSymbolTable
 70
     0
  0
ENDTAB
  0
TABLE
  2
APPID
  5
9
330
0
100
AcDbSymbolTable
 70
     1
  0
APPID
  5
11
330
9
100
AcDbSymbolTableRecord
100
AcDbRegAppTableRecord
  2
ACAD
 70
     0
  0
ENDTAB
  0
TABLE
  2
DIMSTYLE
  5
A
330
0
100
AcDbSymbolTable
 70
     1
  0
DIMSTYLE
105
1D
102
{ACAD_REACTORS
330
85A
330
85D
330
85F
330
860
330
861
330
869
330
8D0
330
8D1
330
8D2
330
518
330
3AF
330
3A2
330
395
330
57E
102
}
330
A
100
AcDbSymbolTableRecord
100
AcDbDimStyleTableRecord
  2
STANDARD
 70
     0
  3

  4

  5

  6

  7

 40
1.0
 41
0.18
 42
0.0625
 43
0.38
 44
0.18
 45
0.0
 46
0.0
 47
0.0
 48
0.0
140
0.18
141
0.09
142
0.0
143
25.4
144
1.0
145
0.0
146
1.0
147
0.09
 71
     0
 72
     0
 73
     1
 74
     1
 75
     0
 76
     0
 77
     0
 78
     0
170
     0
171
     2
172
     0
173
     0
174
     0
175
     0
176
     0
177
     0
178
     0
270
     2
271
     4
272
     4
273
     2
274
     2
340
10
275
     0
280
     0
281
     0
282
     0
283
     1
284
     0
285
     0
286
     0
287
     3
288
     0
  0
ENDTAB
  0
TABLE
  2
BLOCK_RECORD
  5
1
330
0
100
AcDbSymbolTable
 70
    25
  0
BLOCK_RECORD
  5
1A
102
{ACAD_XDICTIONARY
360
6DA
102
}
330
1
100
AcDbSymbolTableRecord
100
AcDbBlockTableRecord
  2
*MODEL_SPACE
  0
BLOCK_RECORD
  5
17
102
{ACAD_XDICTIONARY
360
6D8
102
}
330
1
100
AcDbSymbolTableRecord
100
AcDbBlockTableRecord
  2
*PAPER_SPACE
  0
BLOCK_RECORD
  5
6D
330
1
100
AcDbSymbolTableRecord
100
AcDbBlockTableRecord
  2
_OPEN
  0
BLOCK_RECORD
  5
388
330
1
100
AcDbSymbolTableRecord
100
AcDbBlockTableRecord
  2
*D1
  0
BLOCK_RECORD
  5
396
330
1
100
AcDbSymbolTableRecord
100
AcDbBlockTableRecord
  2
*D2
  0
BLOCK_RECORD
  5
3A3
330
1
100
AcDbSymbolTableRecord
100
AcDbBlockTableRecord
  2
*D3
  0
BLOCK_RECORD
  5
50C
330
1
100
AcDbSymbolTableRecord
100
AcDbBlockTableRecord
  2
*D4
  0
BLOCK_RECORD
  5
570
330
1
100
AcDbSymbolTableRecord
100
AcDbBlockTableRecord
  2
*D5
  0
BLOCK_RECORD
  5
74B
330
1
100
AcDbSymbolTableRecord
100
AcDbBlockTableRecord
  2
*D6
  0
BLOCK_RECORD
  5
757
330
1
100
AcDbSymbolTableRecord
100
AcDbBlockTableRecord
  2
*D7
  0
BLOCK_RECORD
  5
763
330
1
100
AcDbSymbolTableRecord
100
AcDbBlockTableRecord
  2
*D8
  0
BLOCK_RECORD
  5
771
330
1
100
AcDbSymbolTableRecord
100
AcDbBlockTableRecord
  2
*D9
  0
BLOCK_RECORD
  5
77D
330
1
100
AcDbSymbolTableRecord
100
AcDbBlockTableRecord
  2
*D10
  0
BLOCK_RECORD
  5
789
330
1
100
AcDbSymbolTableRecord
100
AcDbBlockTableRecord
  2
*D11
  0
BLOCK_RECORD
  5
795
330
1
100
AcDbSymbolTableRecord
100
AcDbBlockTableRecord
  2
*D12
  0
BLOCK_RECORD
  5
7A1
330
1
100
AcDbSymbolTableRecord
100
AcDbBlockTableRecord
  2
*D13
  0
BLOCK_RECORD
  5
7AD
330
1
100
AcDbSymbolTableRecord
100
AcDbBlockTableRecord
  2
*D14
  0
BLOCK_RECORD
  5
8F7
330
1
100
AcDbSymbolTableRecord
100
AcDbBlockTableRecord
  2
*D16
  0
BLOCK_RECORD
  5
903
330
1
100
AcDbSymbolTableRecord
100
AcDbBlockTableRecord
  2
*D17
  0
BLOCK_RECORD
  5
90F
330
1
100
AcDbSymbolTableRecord
100
AcDbBlockTableRecord
  2
*D18
  0
BLOCK_RECORD
  5
91D
330
1
100
AcDbSymbolTableRecord
100
AcDbBlockTableRecord
  2
*D19
  0
BLOCK_RECORD
  5
929
330
1
100
AcDbSymbolTableRecord
100
AcDbBlockTableRecord
  2
*D20
  0
BLOCK_RECORD
  5
935
330
1
100
AcDbSymbolTableRecord
100
AcDbBlockTableRecord
  2
*D21
  0
BLOCK_RECORD
  5
941
330
1
100
AcDbSymbolTableRecord
100
AcDbBlockTableRecord
  2
*D22
  0
BLOCK_RECORD
  5
94D
330
1
100
AcDbSymbolTableRecord
100
AcDbBlockTableRecord
  2
*D23
  0
BLOCK_RECORD
  5
959
330
1
100
AcDbSymbolTableRecord
100
AcDbBlockTableRecord
  2
*D24
  0
ENDTAB
  0
ENDSEC
  0
SECTION
  2
BLOCKS
  0
BLOCK
  5
1B
330
1A
100
AcDbEntity
  8
0
100
AcDbBlockBegin
  2
*MODEL_SPACE
 70
     0
 10
0.0
 20
0.0
 30
0.0
  3
*MODEL_SPACE
  1

  0
ENDBLK
  5
1C
330
1A
100
AcDbEntity
  8
0
100
AcDbBlockEnd
  0
BLOCK
  5
18
330
17
100
AcDbEntity
 67
     1
  8
0
100
AcDbBlockBegin
  2
*PAPER_SPACE
 70
     0
 10
0.0
 20
0.0
 30
0.0
  3
*PAPER_SPACE
  1

  0
ENDBLK
  5
19
330
17
100
AcDbEntity
 67
     1
  8
0
100
AcDbBlockEnd
  0
BLOCK
  5
6E
330
6D
100
AcDbEntity
  8
0
100
AcDbBlockBegin
  2
_OPEN
 70
     0
 10
0.0
 20
0.0
 30
0.0
  3
_OPEN
  1

  0
LINE
  5
6F
330
6D
100
AcDbEntity
  8
0
  6
BYBLOCK
 62
     0
100
AcDbLine
 10
-1.0
 20
0.1666666666666666
 30
0.0
 11
0.0
 21
0.0
 31
0.0
  0
LINE
  5
70
330
6D
100
AcDbEntity
  8
0
  6
BYBLOCK
 62
     0
100
AcDbLine
 10
0.0
 20
0.0
 30
0.0
 11
-1.0
 21
-0.1666666666666666
 31
0.0
  0
LINE
  5
71
330
6D
100
AcDbEntity
  8
0
  6
BYBLOCK
 62
     0
100
AcDbLine
 10
0.0
 20
0.0
 30
0.0
 11
-1.0
 21
0.0
 31
0.0
  0
ENDBLK
  5
72
330
6D
100
AcDbEntity
  8
0
100
AcDbBlockEnd
  0
BLOCK
  5
389
330
388
100
AcDbEntity
  8
0
100
AcDbBlockBegin
  2
*D1
 70
     1
 10
0.0
 20
0.0
 30
0.0
  3
*D1
  1

  0
LINE
  5
6E2
330
388
100
AcDbEntity
  8
SUNPOU
100
AcDbLine
 10
353.26051324587
 20
300.231179974463
 30
0.0
 11
353.26051324587
 21
327.9845947755575
 31
0.0
  0
LINE
  5
6E3
330
388
100
AcDbEntity
  8
SUNPOU
100
AcDbLine
 10
419.2605132456426
 20
300.23105750867
 30
0.0
 11
419.2605132456426
 21
327.9845947755575
 31
0.0
  0
LINE
  5
6E4
330
388
100
AcDbEntity
  8
SUNPOU
100
AcDbLine
 10
360.26051324587
 20
324.9845947755575
 30
0.0
 11
412.2605132456426
 21
324.9845947755575
 31
0.0
  0
INSERT
  5
6E5
330
388
100
AcDbEntity
  8
SUNPOU
100
AcDbBlockReference
  2
_OPEN
 10
353.26051324587
 20
324.9845947755575
 30
0.0
 41
7.0
 42
7.0
 43
7.0
 50
180.0
  0
INSERT
  5
6E6
330
388
100
AcDbEntity
  8
SUNPOU
100
AcDbBlockReference
  2
_OPEN
 10
419.2605132456426
 20
324.9845947755575
 30
0.0
 41
7.0
 42
7.0
 43
7.0
  0
MTEXT
  5
6E7
330
388
100
AcDbEntity
  8
SUNPOU
100
AcDbMText
 10
386.2605132457563
 20
329.9845947755575
 30
0.0
 40
6.0
 41
0.0
 71
     5
 72
     1
  1
\A1;66
1001
ACAD
1000
MTEXTBEGIN
1070
    73
1070
     1
1070
    44
1040
1.0
1070
    74
1070
     0
1000
MTEXTEND
1000
MTEXTBEGIN
1070
    73
1070
     1
1070
    44
1040
1.0
1070
    74
1070
     0
1000
MTEXTEND
  0
POINT
  5
6E8
330
388
100
AcDbEntity
  8
DEFPOINTS
 62
     0
100
AcDbPoint
 10
353.26051324587
 20
294.231179974463
 30
0.0
  0
POINT
  5
6E9
330
388
100
AcDbEntity
  8
DEFPOINTS
 62
     0
100
AcDbPoint
 10
419.2605132456426
 20
294.23105750867
 30
0.0
  0
POINT
  5
6EA
330
388
100
AcDbEntity
  8
DEFPOINTS
 62
     0
100
AcDbPoint
 10
419.2605132456426
 20
324.9845947755575
 30
0.0
  0
ENDBLK
  5
394
330
388
100
AcDbEntity
  8
0
100
AcDbBlockEnd
  0
BLOCK
  5
397
330
396
100
AcDbEntity
  8
0
100
AcDbBlockBegin
  2
*D2
 70
     1
 10
0.0
 20
0.0
 30
0.0
  3
*D2
  1

  0
LINE
  5
6EB
330
396
100
AcDbEntity
  8
SUNPOU
100
AcDbLine
 10
337.26001324587
 20
146.231279974463
 30
0.0
 11
337.26001324587
 21
116.4877048471853
 31
0.0
  0
LINE
  5
6EC
330
396
100
AcDbEntity
  8
SUNPOU
100
AcDbLine
 10
435.2604132197252
 20
146.2327837784564
 30
0.0
 11
435.2604132197252
 21
116.4877048471853
 31
0.0
  0
LINE
  5
6ED
330
396
100
AcDbEntity
  8
SUNPOU
100
AcDbLine
 10
344.26001324587
 20
119.4877048471853
 30
0.0
 11
428.2604132197252
 21
119.4877048471853
 31
0.0
  0
INSERT
  5
6EE
330
396
100
AcDbEntity
  8
SUNPOU
100
AcDbBlockReference
  2
_OPEN
 10
337.26001324587
 20
119.4877048471853
 30
0.0
 41
7.0
 42
7.0
 43
7.0
 50
180.0
  0
INSERT
  5
6EF
330
396
100
AcDbEntity
  8
SUNPOU
100
AcDbBlockReference
  2
_OPEN
 10
435.2604132197252
 20
119.4877048471853
 30
0.0
 41
7.0
 42
7.0
 43
7.0
  0
MTEXT
  5
6F0
330
396
100
AcDbEntity
  8
SUNPOU
100
AcDbMText
 10
386.2602132327976
 20
124.4877048471853
 30
0.0
 40
6.0
 41
0.0
 71
     5
 72
     1
  1
\A1;98
1001
ACAD
1000
MTEXTBEGIN
1070
    73
1070
     1
1070
    44
1040
1.0
1070
    74
1070
     0
1000
MTEXTEND
1000
MTEXTBEGIN
1070
    73
1070
     1
1070
    44
1040
1.0
1070
    74
1070
     0
1000
MTEXTEND
  0
POINT
  5
6F1
330
396
100
AcDbEntity
  8
DEFPOINTS
 62
     0
100
AcDbPoint
 10
337.26001324587
 20
152.231279974463
 30
0.0
  0
POINT
  5
6F2
330
396
100
AcDbEntity
  8
DEFPOINTS
 62
     0
100
AcDbPoint
 10
435.2604132197252
 20
152.2327837784564
 30
0.0
  0
POINT
  5
6F3
330
396
100
AcDbEntity
  8
DEFPOINTS
 62
     0
100
AcDbPoint
 10
435.2604132197252
 20
119.4877048471853
 30
0.0
  0
ENDBLK
  5
3A1
330
396
100
AcDbEntity
  8
0
100
AcDbBlockEnd
  0
BLOCK
  5
501
330
3A3
100
AcDbEntity
  8
0
100
AcDbBlockBegin
  2
*D3
 70
     1
 10
0.0
 20
0.0
 30
0.0
  3
*D3
  1

  0
LINE
  5
6F4
330
3A3
100
AcDbEntity
  8
SUNPOU
100
AcDbLine
 10
425.2605132456426
 20
294.23105750867
 30
0.0
 11
497.3315117242746
 21
294.23105750867
 31
0.0
  0
LINE
  5
6F5
330
3A3
100
AcDbEntity
  8
SUNPOU
100
AcDbLine
 10
441.2604132458699
 20
152.231079974463
 30
0.0
 11
497.3315117242746
 21
152.2310799744629
 31
0.0
  0
LINE
  5
6F6
330
3A3
100
AcDbEntity
  8
SUNPOU
100
AcDbLine
 10
494.3315117242746
 20
287.23105750867
 30
0.0
 11
494.3315117242746
 21
159.2310799744629
 31
0.0
  0
INSERT
  5
6F7
330
3A3
100
AcDbEntity
  8
SUNPOU
100
AcDbBlockReference
  2
_OPEN
 10
494.3315117242746
 20
294.23105750867
 30
0.0
 41
7.0
 42
7.0
 43
7.0
 50
90.0
  0
INSERT
  5
6F8
330
3A3
100
AcDbEntity
  8
SUNPOU
100
AcDbBlockReference
  2
_OPEN
 10
494.3315117242746
 20
152.2310799744629
 30
0.0
 41
7.0
 42
7.0
 43
7.0
 50
270.0
  0
MTEXT
  5
6F9
330
3A3
100
AcDbEntity
  8
SUNPOU
100
AcDbMText
 10
489.3315117242745
 20
223.2310687415665
 30
0.0
 40
6.0
 41
0.0
 71
     5
 72
     1
  1
\A1;142
 11
0.0000000000000001
 21
1.0
 31
0.0
1001
ACAD
1000
MTEXTBEGIN
1070
    73
1070
     1
1070
    44
1040
1.0
1070
    74
1070
     0
1000
MTEXTEND
1000
MTEXTBEGIN
1070
    73
1070
     1
1070
    44
1040
1.0
1070
    74
1070
     0
1000
MTEXTEND
  0
POINT
  5
6FA
330
3A3
100
AcDbEntity
  8
DEFPOINTS
 62
     0
100
AcDbPoint
 10
419.2605132456426
 20
294.23105750867
 30
0.0
  0
POINT
  5
6FB
330
3A3
100
AcDbEntity
  8
DEFPOINTS
 62
     0
100
AcDbPoint
 10
435.2604132458699
 20
152.231079974463
 30
0.0
  0
POINT
  5
6FC
330
3A3
100
AcDbEntity
  8
DEFPOINTS
 62
     0
100
AcDbPoint
 10
494.3315117242746
 20
152.2310799744629
 30
0.0
  0
ENDBLK
  5
50B
330
3A3
100
AcDbEntity
  8
0
100
AcDbBlockEnd
  0
BLOCK
  5
53E
330
50C
100
AcDbEntity
  8
0
100
AcDbBlockBegin
  2
*D4
 70
     1
 10
0.0
 20
0.0
 30
0.0
  3
*D4
  1

  0
LINE
  5
6FD
330
50C
100
AcDbEntity
  8
SUNPOU
100
AcDbLine
 10
425.2605132458699
 20
294.231179974463
 30
0.0
 11
480.672804799276
 21
294.231179974463
 31
0.0
  0
LINE
  5
6FE
330
50C
100
AcDbEntity
  8
SUNPOU
100
AcDbLine
 10
425.2605132458699
 20
204.231179974463
 30
0.0
 11
480.672804799276
 21
204.231179974463
 31
0.0
  0
LINE
  5
6FF
330
50C
100
AcDbEntity
  8
SUNPOU
100
AcDbLine
 10
477.672804799276
 20
287.231179974463
 30
0.0
 11
477.672804799276
 21
211.231179974463
 31
0.0
  0
INSERT
  5
700
330
50C
100
AcDbEntity
  8
SUNPOU
100
AcDbBlockReference
  2
_OPEN
 10
477.672804799276
 20
294.231179974463
 30
0.0
 41
7.0
 42
7.0
 43
7.0
 50
90.0
  0
INSERT
  5
701
330
50C
100
AcDbEntity
  8
SUNPOU
100
AcDbBlockReference
  2
_OPEN
 10
477.672804799276
 20
204.231179974463
 30
0.0
 41
7.0
 42
7.0
 43
7.0
 50
270.0
  0
MTEXT
  5
702
330
50C
100
AcDbEntity
  8
SUNPOU
100
AcDbMText
 10
472.6728047992759
 20
249.2311799744631
 30
0.0
 40
6.0
 41
0.0
 71
     5
 72
     1
  1
\A1;※a90
 11
0.0000000000000001
 21
1.0
 31
0.0
1001
ACAD
1000
MTEXTBEGIN
1070
    73
1070
     1
1070
    44
1040
1.0
1070
    74
1070
     0
1000
MTEXTEND
1000
MTEXTBEGIN
1070
    73
1070
     1
1070
    44
1040
1.0
1070
    74
1070
     0
1000
MTEXTEND
  0
POINT
  5
703
330
50C
100
AcDbEntity
  8
DEFPOINTS
 62
     0
100
AcDbPoint
 10
419.2605132458699
 20
294.231179974463
 30
0.0
  0
POINT
  5
704
330
50C
100
AcDbEntity
  8
DEFPOINTS
 62
     0
100
AcDbPoint
 10
419.2605132458699
 20
204.231179974463
 30
0.0
  0
POINT
  5
705
330
50C
100
AcDbEntity
  8
DEFPOINTS
 62
     0
100
AcDbPoint
 10
477.672804799276
 20
204.231179974463
 30
0.0
  0
ENDBLK
  5
548
330
50C
100
AcDbEntity
  8
0
100
AcDbBlockEnd
  0
BLOCK
  5
599
330
570
100
AcDbEntity
  8
0
100
AcDbBlockBegin
  2
*D5
 70
     1
 10
0.0
 20
0.0
 30
0.0
  3
*D5
  1

  0
LINE
  5
706
330
570
100
AcDbEntity
  8
SUNPOU
100
AcDbLine
 10
441.2604499804888
 20
170.2310799744255
 30
0.0
 11
480.6950791527424
 21
170.2310799744254
 31
0.0
  0
LINE
  5
707
330
570
100
AcDbEntity
  8
SUNPOU
100
AcDbLine
 10
441.2604132458699
 20
152.231079974463
 30
0.0
 11
480.6950791527424
 21
152.2310799744629
 31
0.0
  0
LINE
  5
708
330
570
100
AcDbEntity
  8
SUNPOU
100
AcDbLine
 10
477.6950791527424
 20
177.2310799744254
 30
0.0
 11
477.6950791527424
 21
184.2310799744254
 31
0.0
  0
LINE
  5
709
330
570
100
AcDbEntity
  8
SUNPOU
100
AcDbLine
 10
477.6950791527424
 20
145.2310799744629
 30
0.0
 11
477.6950791527424
 21
113.0310799744629
 31
0.0
  0
LINE
  5
70A
330
570
100
AcDbEntity
  8
SUNPOU
100
AcDbLine
 10
477.6950791527424
 20
170.2310799744254
 30
0.0
 11
477.6950791527424
 21
152.2310799744629
 31
0.0
  0
INSERT
  5
70B
330
570
100
AcDbEntity
  8
SUNPOU
100
AcDbBlockReference
  2
_OPEN
 10
477.6950791527424
 20
170.2310799744254
 30
0.0
 41
7.0
 42
7.0
 43
7.0
 50
270.0
  0
INSERT
  5
70C
330
570
100
AcDbEntity
  8
SUNPOU
100
AcDbBlockReference
  2
_OPEN
 10
477.6950791527424
 20
152.2310799744629
 30
0.0
 41
7.0
 42
7.0
 43
7.0
 50
90.0
  0
MTEXT
  5
70D
330
570
100
AcDbEntity
  8
SUNPOU
100
AcDbMText
 10
472.6950791527423
 20
125.631079974463
 30
0.0
 40
6.0
 41
0.0
 71
     5
 72
     1
  1
\A1;※b18
 11
0.0000000000000001
 21
1.0
 31
0.0
1001
ACAD
1000
MTEXTBEGIN
1070
    73
1070
     1
1070
    44
1040
1.0
1070
    74
1070
     0
1000
MTEXTEND
1000
MTEXTBEGIN
1070
    73
1070
     1
1070
    44
1040
1.0
1070
    74
1070
     0
1000
MTEXTEND
  0
POINT
  5
70E
330
570
100
AcDbEntity
  8
DEFPOINTS
 62
     0
100
AcDbPoint
 10
435.2604499804888
 20
170.2310799744255
 30
0.0
  0
POINT
  5
70F
330
570
100
AcDbEntity
  8
DEFPOINTS
 62
     0
100
AcDbPoint
 10
435.2604132458699
 20
152.231079974463
 30
0.0
  0
POINT
  5
710
330
570
100
AcDbEntity
  8
DEFPOINTS
 62
     0
100
AcDbPoint
 10
477.6950791527424
 20
152.2310799744629
 30
0.0
  0
ENDBLK
  5
5A5
330
570
100
AcDbEntity
  8
0
100
AcDbBlockEnd
  0
BLOCK
  5
755
330
74B
100
AcDbEntity
  8
0
100
AcDbBlockBegin
  2
*D6
 70
     1
 10
0.0
 20
0.0
 30
0.0
  3
*D6
  1

  0
LINE
  5
74C
330
74B
100
AcDbEntity
  8
SUNPOU
100
AcDbLine
 10
459.2825610275867
 20
168.2393777235584
 30
0.0
 11
409.0749607152575
 21
168.2393777235584
 31
0.0
  0
LINE
  5
74D
330
74B
100
AcDbEntity
  8
SUNPOU
100
AcDbLine
 10
442.3681289203978
 20
147.9893777235582
 30
0.0
 11
409.0749607152575
 21
147.9893777235582
 31
0.0
  0
LINE
  5
74E
330
74B
100
AcDbEntity
  8
SUNPOU
100
AcDbLine
 10
412.0749607152574
 20
161.2393777235584
 30
0.0
 11
412.0749607152574
 21
154.9893777235582
 31
0.0
  0
INSERT
  5
74F
330
74B
100
AcDbEntity
  8
SUNPOU
100
AcDbBlockReference
  2
_OPEN
 10
412.0749607152574
 20
168.2393777235584
 30
0.0
 41
7.0
 42
7.0
 43
7.0
 50
90.0
  0
INSERT
  5
750
330
74B
100
AcDbEntity
  8
SUNPOU
100
AcDbBlockReference
  2
_OPEN
 10
412.0749607152574
 20
147.9893777235582
 30
0.0
 41
7.0
 42
7.0
 43
7.0
 50
270.0
  0
MTEXT
  5
751
330
74B
100
AcDbEntity
  8
SUNPOU
100
AcDbMText
 10
407.0749607152574
 20
158.1143777235584
 30
0.0
 40
6.0
 41
0.0
 71
     5
 72
     1
  1
\A1;20
 11
0.0000000000000001
 21
1.0
 31
0.0
1001
ACAD
1000
MTEXTBEGIN
1070
    73
1070
     1
1070
    44
1040
1.0
1070
    74
1070
     0
1000
MTEXTEND
1000
MTEXTBEGIN
1070
    73
1070
     1
1070
    44
1040
1.0
1070
    74
1070
     0
1000
MTEXTEND
1000
MTEXTBEGIN
1070
    73
1070
     1
1070
    44
1040
1.0
1070
    74
1070
     0
1000
MTEXTEND
  0
POINT
  5
752
330
74B
100
AcDbEntity
  8
DEFPOINTS
 62
     0
100
AcDbPoint
 10
465.2825610275868
 20
168.2393777235584
 30
0.0
  0
POINT
  5
753
330
74B
100
AcDbEntity
  8
DEFPOINTS
 62
     0
100
AcDbPoint
 10
448.3681289203977
 20
147.9893777235582
 30
0.0
  0
POINT
  5
754
330
74B
100
AcDbEntity
  8
DEFPOINTS
 62
     0
100
AcDbPoint
 10
412.0749607152574
 20
147.9893777235582
 30
0.0
  0
ENDBLK
  5
756
330
74B
100
AcDbEntity
  8
0
100
AcDbBlockEnd
  0
BLOCK
  5
761
330
757
100
AcDbEntity
  8
0
100
AcDbBlockBegin
  2
*D7
 70
     1
 10
0.0
 20
0.0
 30
0.0
  3
*D7
  1

  0
LINE
  5
758
330
757
100
AcDbEntity
  8
SUNPOU
 62
     4
100
AcDbLine
 10
182.954894159787
 20
295.9895777235583
 30
0.0
 11
182.954894159787
 21
323.7429925246528
 31
0.0
  0
LINE
  5
759
330
757
100
AcDbEntity
  8
SUNPOU
 62
     4
100
AcDbLine
 10
248.9548941595596
 20
295.9894552577654
 30
0.0
 11
248.9548941595596
 21
323.7429925246528
 31
0.0
  0
LINE
  5
75A
330
757
100
AcDbEntity
  8
SUNPOU
 62
     4
100
AcDbLine
 10
189.954894159787
 20
320.7429925246529
 30
0.0
 11
241.9548941595596
 21
320.7429925246529
 31
0.0
  0
INSERT
  5
75B
330
757
100
AcDbEntity
  8
SUNPOU
 62
     4
100
AcDbBlockReference
  2
_OPEN
 10
182.954894159787
 20
320.7429925246529
 30
0.0
 41
7.0
 42
7.0
 43
7.0
 50
180.0
  0
INSERT
  5
75C
330
757
100
AcDbEntity
  8
SUNPOU
 62
     4
100
AcDbBlockReference
  2
_OPEN
 10
248.9548941595596
 20
320.7429925246529
 30
0.0
 41
7.0
 42
7.0
 43
7.0
  0
MTEXT
  5
75D
330
757
100
AcDbEntity
  8
SUNPOU
 62
     4
100
AcDbMText
 10
215.9548941596733
 20
325.7429925246528
 30
0.0
 40
6.0
 41
0.0
 71
     5
 72
     1
  1
\A1;66
1001
ACAD
1000
MTEXTBEGIN
1070
    73
1070
     1
1070
    44
1040
1.0
1070
    74
1070
     0
1000
MTEXTEND
1000
MTEXTBEGIN
1070
    73
1070
     1
1070
    44
1040
1.0
1070
    74
1070
     0
1000
MTEXTEND
1000
MTEXTBEGIN
1070
    73
1070
     1
1070
    44
1040
1.0
1070
    74
1070
     0
1000
MTEXTEND
  0
POINT
  5
75E
330
757
100
AcDbEntity
  8
DEFPOINTS
 62
     0
100
AcDbPoint
 10
182.954894159787
 20
289.9895777235584
 30
0.0
  0
POINT
  5
75F
330
757
100
AcDbEntity
  8
DEFPOINTS
 62
     0
100
AcDbPoint
 10
248.9548941595596
 20
289.9894552577654
 30
0.0
  0
POINT
  5
760
330
757
100
AcDbEntity
  8
DEFPOINTS
 62
     0
100
AcDbPoint
 10
248.9548941595596
 20
320.7429925246529
 30
0.0
  0
ENDBLK
  5
762
330
757
100
AcDbEntity
  8
0
100
AcDbBlockEnd
  0
BLOCK
  5
76F
330
763
100
AcDbEntity
  8
0
100
AcDbBlockBegin
  2
*D8
 70
     1
 10
0.0
 20
0.0
 30
0.0
  3
*D8
  1

  0
LINE
  5
764
330
763
100
AcDbEntity
  8
SUNPOU
 62
     4
100
AcDbLine
 10
270.9548308944058
 20
165.9894777235208
 30
0.0
 11
310.3894600666594
 21
165.9894777235208
 31
0.0
  0
LINE
  5
765
330
763
100
AcDbEntity
  8
SUNPOU
 62
     4
100
AcDbLine
 10
270.954794159787
 20
147.9894777235583
 30
0.0
 11
310.3894600666594
 21
147.9894777235583
 31
0.0
  0
LINE
  5
766
330
763
100
AcDbEntity
  8
SUNPOU
 62
     4
100
AcDbLine
 10
307.3894600666594
 20
172.9894777235208
 30
0.0
 11
307.3894600666594
 21
179.9894777235208
 31
0.0
  0
LINE
  5
767
330
763
100
AcDbEntity
  8
SUNPOU
 62
     4
100
AcDbLine
 10
307.3894600666594
 20
140.9894777235583
 30
0.0
 11
307.3894600666594
 21
108.7894777235583
 31
0.0
  0
LINE
  5
768
330
763
100
AcDbEntity
  8
SUNPOU
 62
     4
100
AcDbLine
 10
307.3894600666594
 20
165.9894777235208
 30
0.0
 11
307.3894600666594
 21
147.9894777235583
 31
0.0
  0
INSERT
  5
769
330
763
100
AcDbEntity
  8
SUNPOU
 62
     4
100
AcDbBlockReference
  2
_OPEN
 10
307.3894600666594
 20
165.9894777235208
 30
0.0
 41
7.0
 42
7.0
 43
7.0
 50
270.0
  0
INSERT
  5
76A
330
763
100
AcDbEntity
  8
SUNPOU
 62
     4
100
AcDbBlockReference
  2
_OPEN
 10
307.3894600666594
 20
147.9894777235583
 30
0.0
 41
7.0
 42
7.0
 43
7.0
 50
90.0
  0
MTEXT
  5
76B
330
763
100
AcDbEntity
  8
SUNPOU
 62
     4
100
AcDbMText
 10
302.3894600666594
 20
121.3894777235584
 30
0.0
 40
6.0
 41
0.0
 71
     5
 72
     1
  1
\A1;※b18
 11
0.0000000000000001
 21
1.0
 31
0.0
1001
ACAD
1000
MTEXTBEGIN
1070
    73
1070
     1
1070
    44
1040
1.0
1070
    74
1070
     0
1000
MTEXTEND
1000
MTEXTBEGIN
1070
    73
1070
     1
1070
    44
1040
1.0
1070
    74
1070
     0
1000
MTEXTEND
1000
MTEXTBEGIN
1070
    73
1070
     1
1070
    44
1040
1.0
1070
    74
1070
     0
1000
MTEXTEND
  0
POINT
  5
76C
330
763
100
AcDbEntity
  8
DEFPOINTS
 62
     0
100
AcDbPoint
 10
264.9548308944058
 20
165.9894777235208
 30
0.0
  0
POINT
  5
76D
330
763
100
AcDbEntity
  8
DEFPOINTS
 62
     0
100
AcDbPoint
 10
264.954794159787
 20
147.9894777235583
 30
0.0
  0
POINT
  5
76E
330
763
100
AcDbEntity
  8
DEFPOINTS
 62
     0
100
AcDbPoint
 10
307.3894600666594
 20
147.9894777235583
 30
0.0
  0
ENDBLK
  5
770
330
763
100
AcDbEntity
  8
0
100
AcDbBlockEnd
  0
BLOCK
  5
77B
330
771
100
AcDbEntity
  8
0
100
AcDbBlockBegin
  2
*D9
 70
     1
 10
0.0
 20
0.0
 30
0.0
  3
*D9
  1

  0
LINE
  5
772
330
771
100
AcDbEntity
  8
SUNPOU
 62
     4
100
AcDbLine
 10
254.9548941597868
 20
289.9895777235584
 30
0.0
 11
310.367185713193
 21
289.9895777235584
 31
0.0
  0
LINE
  5
773
330
771
100
AcDbEntity
  8
SUNPOU
 62
     4
100
AcDbLine
 10
254.9548941597868
 20
199.9895777235584
 30
0.0
 11
310.367185713193
 21
199.9895777235584
 31
0.0
  0
LINE
  5
774
330
771
100
AcDbEntity
  8
SUNPOU
 62
     4
100
AcDbLine
 10
307.367185713193
 20
282.9895777235583
 30
0.0
 11
307.367185713193
 21
206.9895777235584
 31
0.0
  0
INSERT
  5
775
330
771
100
AcDbEntity
  8
SUNPOU
 62
     4
100
AcDbBlockReference
  2
_OPEN
 10
307.367185713193
 20
289.9895777235584
 30
0.0
 41
7.0
 42
7.0
 43
7.0
 50
90.0
  0
INSERT
  5
776
330
771
100
AcDbEntity
  8
SUNPOU
 62
     4
100
AcDbBlockReference
  2
_OPEN
 10
307.367185713193
 20
199.9895777235584
 30
0.0
 41
7.0
 42
7.0
 43
7.0
 50
270.0
  0
MTEXT
  5
777
330
771
100
AcDbEntity
  8
SUNPOU
 62
     4
100
AcDbMText
 10
302.367185713193
 20
244.9895777235584
 30
0.0
 40
6.0
 41
0.0
 71
     5
 72
     1
  1
\A1;※a90
 11
0.0000000000000001
 21
1.0
 31
0.0
1001
ACAD
1000
MTEXTBEGIN
1070
    73
1070
     1
1070
    44
1040
1.0
1070
    74
1070
     0
1000
MTEXTEND
1000
MTEXTBEGIN
1070
    73
1070
     1
1070
    44
1040
1.0
1070
    74
1070
     0
1000
MTEXTEND
1000
MTEXTBEGIN
1070
    73
1070
     1
1070
    44
1040
1.0
1070
    74
1070
     0
1000
MTEXTEND
  0
POINT
  5
778
330
771
100
AcDbEntity
  8
DEFPOINTS
 62
     0
100
AcDbPoint
 10
248.9548941597868
 20
289.9895777235584
 30
0.0
  0
POINT
  5
779
330
771
100
AcDbEntity
  8
DEFPOINTS
 62
     0
100
AcDbPoint
 10
248.9548941597868
 20
199.9895777235584
 30
0.0
  0
POINT
  5
77A
330
771
100
AcDbEntity
  8
DEFPOINTS
 62
     0
100
AcDbPoint
 10
307.367185713193
 20
199.9895777235584
 30
0.0
  0
ENDBLK
  5
77C
330
771
100
AcDbEntity
  8
0
100
AcDbBlockEnd
  0
BLOCK
  5
787
330
77D
100
AcDbEntity
  8
0
100
AcDbBlockBegin
  2
*D10
 70
     1
 10
0.0
 20
0.0
 30
0.0
  3
*D10
  1

  0
LINE
  5
77E
330
77D
100
AcDbEntity
  8
SUNPOU
 62
     4
100
AcDbLine
 10
254.9548941595596
 20
289.9894552577654
 30
0.0
 11
327.0258926381916
 21
289.9894552577654
 31
0.0
  0
LINE
  5
77F
330
77D
100
AcDbEntity
  8
SUNPOU
 62
     4
100
AcDbLine
 10
270.954794159787
 20
147.9894777235583
 30
0.0
 11
327.0258926381916
 21
147.9894777235583
 31
0.0
  0
LINE
  5
780
330
77D
100
AcDbEntity
  8
SUNPOU
 62
     4
100
AcDbLine
 10
324.0258926381916
 20
282.9894552577654
 30
0.0
 11
324.0258926381916
 21
154.9894777235583
 31
0.0
  0
INSERT
  5
781
330
77D
100
AcDbEntity
  8
SUNPOU
 62
     4
100
AcDbBlockReference
  2
_OPEN
 10
324.0258926381916
 20
289.9894552577654
 30
0.0
 41
7.0
 42
7.0
 43
7.0
 50
90.0
  0
INSERT
  5
782
330
77D
100
AcDbEntity
  8
SUNPOU
 62
     4
100
AcDbBlockReference
  2
_OPEN
 10
324.0258926381916
 20
147.9894777235583
 30
0.0
 41
7.0
 42
7.0
 43
7.0
 50
270.0
  0
MTEXT
  5
783
330
77D
100
AcDbEntity
  8
SUNPOU
 62
     4
100
AcDbMText
 10
319.0258926381915
 20
218.9894664906619
 30
0.0
 40
6.0
 41
0.0
 71
     5
 72
     1
  1
\A1;142
 11
0.0000000000000001
 21
1.0
 31
0.0
1001
ACAD
1000
MTEXTBEGIN
1070
    73
1070
     1
1070
    44
1040
1.0
1070
    74
1070
     0
1000
MTEXTEND
1000
MTEXTBEGIN
1070
    73
1070
     1
1070
    44
1040
1.0
1070
    74
1070
     0
1000
MTEXTEND
1000
MTEXTBEGIN
1070
    73
1070
     1
1070
    44
1040
1.0
1070
    74
1070
     0
1000
MTEXTEND
  0
POINT
  5
784
330
77D
100
AcDbEntity
  8
DEFPOINTS
 62
     0
100
AcDbPoint
 10
248.9548941595596
 20
289.9894552577654
 30
0.0
  0
POINT
  5
785
330
77D
100
AcDbEntity
  8
DEFPOINTS
 62
     0
100
AcDbPoint
 10
264.954794159787
 20
147.9894777235583
 30
0.0
  0
POINT
  5
786
330
77D
100
AcDbEntity
  8
DEFPOINTS
 62
     0
100
AcDbPoint
 10
324.0258926381916
 20
147.9894777235583
 30
0.0
  0
ENDBLK
  5
788
330
77D
100
AcDbEntity
  8
0
100
AcDbBlockEnd
  0
BLOCK
  5
793
330
789
100
AcDbEntity
  8
0
100
AcDbBlockBegin
  2
*D11
 70
     1
 10
0.0
 20
0.0
 30
0.0
  3
*D11
  1

  0
LINE
  5
78A
330
789
100
AcDbEntity
  8
SUNPOU
 62
     4
100
AcDbLine
 10
166.9543941597871
 20
141.9896777235583
 30
0.0
 11
166.9543941597871
 21
112.2461025962807
 31
0.0
  0
LINE
  5
78B
330
789
100
AcDbEntity
  8
SUNPOU
 62
     4
100
AcDbLine
 10
264.9547941336422
 20
141.9911815275517
 30
0.0
 11
264.9547941336422
 21
112.2461025962807
 31
0.0
  0
LINE
  5
78C
330
789
100
AcDbEntity
  8
SUNPOU
 62
     4
100
AcDbLine
 10
173.9543941597871
 20
115.2461025962807
 30
0.0
 11
257.9547941336422
 21
115.2461025962807
 31
0.0
  0
INSERT
  5
78D
330
789
100
AcDbEntity
  8
SUNPOU
 62
     4
100
AcDbBlockReference
  2
_OPEN
 10
166.9543941597871
 20
115.2461025962807
 30
0.0
 41
7.0
 42
7.0
 43
7.0
 50
180.0
  0
INSERT
  5
78E
330
789
100
AcDbEntity
  8
SUNPOU
 62
     4
100
AcDbBlockReference
  2
_OPEN
 10
264.9547941336422
 20
115.2461025962807
 30
0.0
 41
7.0
 42
7.0
 43
7.0
  0
MTEXT
  5
78F
330
789
100
AcDbEntity
  8
SUNPOU
 62
     4
100
AcDbMText
 10
215.9545941467147
 20
120.2461025962807
 30
0.0
 40
6.0
 41
0.0
 71
     5
 72
     1
  1
\A1;φ98
1001
ACAD
1000
MTEXTBEGIN
1070
    73
1070
     1
1070
    44
1040
1.0
1070
    74
1070
     0
1000
MTEXTEND
1000
MTEXTBEGIN
1070
    73
1070
     1
1070
    44
1040
1.0
1070
    74
1070
     0
1000
MTEXTEND
  0
POINT
  5
790
330
789
100
AcDbEntity
  8
DEFPOINTS
 62
     0
100
AcDbPoint
 10
166.9543941597871
 20
147.9896777235583
 30
0.0
  0
POINT
  5
791
330
789
100
AcDbEntity
  8
DEFPOINTS
 62
     0
100
AcDbPoint
 10
264.9547941336422
 20
147.9911815275517
 30
0.0
  0
POINT
  5
792
330
789
100
AcDbEntity
  8
DEFPOINTS
 62
     0
100
AcDbPoint
 10
264.9547941336422
 20
115.2461025962807
 30
0.0
  0
ENDBLK
  5
794
330
789
100
AcDbEntity
  8
0
100
AcDbBlockEnd
  0
BLOCK
  5
79F
330
795
100
AcDbEntity
  8
0
100
AcDbBlockBegin
  2
*D12
 70
     1
 10
0.0
 20
0.0
 30
0.0
  3
*D12
  1

  0
LINE
  5
796
330
795
100
AcDbEntity
  8
SUNPOU
100
AcDbLine
 10
450.3681289203978
 20
141.9893777235582
 30
0.0
 11
450.3681289203978
 21
92.78730815220541
 31
0.0
  0
LINE
  5
797
330
795
100
AcDbEntity
  8
SUNPOU
100
AcDbLine
 10
544.3679396085533
 20
141.9893180166489
 30
0.0
 11
544.3679396085533
 21
92.78730815220541
 31
0.0
  0
LINE
  5
798
330
795
100
AcDbEntity
  8
SUNPOU
100
AcDbLine
 10
457.3681289203977
 20
95.78730815220541
 30
0.0
 11
537.3679396085533
 21
95.78730815220541
 31
0.0
  0
INSERT
  5
799
330
795
100
AcDbEntity
  8
SUNPOU
100
AcDbBlockReference
  2
_OPEN
 10
450.3681289203978
 20
95.78730815220541
 30
0.0
 41
7.0
 42
7.0
 43
7.0
 50
180.0
  0
INSERT
  5
79A
330
795
100
AcDbEntity
  8
SUNPOU
100
AcDbBlockReference
  2
_OPEN
 10
544.3679396085533
 20
95.78730815220541
 30
0.0
 41
7.0
 42
7.0
 43
7.0
  0
MTEXT
  5
79B
330
795
100
AcDbEntity
  8
SUNPOU
100
AcDbMText
 10
497.3680342644756
 20
100.7873081522054
 30
0.0
 40
6.0
 41
0.0
 71
     5
 72
     1
  1
\A1;φ94
1001
ACAD
1000
MTEXTBEGIN
1070
    73
1070
     1
1070
    44
1040
1.0
1070
    74
1070
     0
1000
MTEXTEND
1000
MTEXTBEGIN
1070
    73
1070
     1
1070
    44
1040
1.0
1070
    74
1070
     0
1000
MTEXTEND
1000
MTEXTBEGIN
1070
    73
1070
     1
1070
    44
1040
1.0
1070
    74
1070
     0
1000
MTEXTEND
  0
POINT
  5
79C
330
795
100
AcDbEntity
  8
DEFPOINTS
 62
     0
100
AcDbPoint
 10
450.3681289203978
 20
147.9893777235582
 30
0.0
  0
POINT
  5
79D
330
795
100
AcDbEntity
  8
DEFPOINTS
 62
     0
100
AcDbPoint
 10
544.3679396085533
 20
147.9893180166489
 30
0.0
  0
POINT
  5
79E
330
795
100
AcDbEntity
  8
DEFPOINTS
 62
     0
100
AcDbPoint
 10
544.3679396085533
 20
95.78730815220541
 30
0.0
  0
ENDBLK
  5
7A0
330
795
100
AcDbEntity
  8
0
100
AcDbBlockEnd
  0
BLOCK
  5
7AB
330
7A1
100
AcDbEntity
  8
0
100
AcDbBlockBegin
  2
*D13
 70
     1
 10
0.0
 20
0.0
 30
0.0
  3
*D13
  1

  0
LINE
  5
7A2
330
7A1
100
AcDbEntity
  8
SUNPOU
100
AcDbLine
 10
471.1180342644893
 20
141.9893777235582
 30
0.0
 11
471.1180342644893
 21
109.473519073009
 31
0.0
  0
LINE
  5
7A3
330
7A1
100
AcDbEntity
  8
SUNPOU
100
AcDbLine
 10
523.6180342644997
 20
141.9893777235582
 30
0.0
 11
523.6180342644997
 21
109.473519073009
 31
0.0
  0
LINE
  5
7A4
330
7A1
100
AcDbEntity
  8
SUNPOU
100
AcDbLine
 10
478.1180342644893
 20
112.473519073009
 30
0.0
 11
516.6180342644998
 21
112.473519073009
 31
0.0
  0
INSERT
  5
7A5
330
7A1
100
AcDbEntity
  8
SUNPOU
100
AcDbBlockReference
  2
_OPEN
 10
471.1180342644893
 20
112.473519073009
 30
0.0
 41
7.0
 42
7.0
 43
7.0
 50
180.0
  0
INSERT
  5
7A6
330
7A1
100
AcDbEntity
  8
SUNPOU
100
AcDbBlockReference
  2
_OPEN
 10
523.6180342644997
 20
112.473519073009
 30
0.0
 41
7.0
 42
7.0
 43
7.0
  0
MTEXT
  5
7A7
330
7A1
100
AcDbEntity
  8
SUNPOU
100
AcDbMText
 10
497.3680342644946
 20
117.473519073009
 30
0.0
 40
6.0
 41
0.0
 71
     5
 72
     1
  1
\A1;φ53
1001
ACAD
1000
MTEXTBEGIN
1070
    73
1070
     1
1070
    44
1040
1.0
1070
    74
1070
     0
1000
MTEXTEND
1000
MTEXTBEGIN
1070
    73
1070
     1
1070
    44
1040
1.0
1070
    74
1070
     0
1000
MTEXTEND
1000
MTEXTBEGIN
1070
    73
1070
     1
1070
    44
1040
1.0
1070
    74
1070
     0
1000
MTEXTEND
  0
POINT
  5
7A8
330
7A1
100
AcDbEntity
  8
DEFPOINTS
 62
     0
100
AcDbPoint
 10
471.1180342644893
 20
147.9893777235582
 30
0.0
  0
POINT
  5
7A9
330
7A1
100
AcDbEntity
  8
DEFPOINTS
 62
     0
100
AcDbPoint
 10
523.6180342644997
 20
147.9893777235582
 30
0.0
  0
POINT
  5
7AA
330
7A1
100
AcDbEntity
  8
DEFPOINTS
 62
     0
100
AcDbPoint
 10
523.6180342644997
 20
112.473519073009
 30
0.0
  0
ENDBLK
  5
7AC
330
7A1
100
AcDbEntity
  8
0
100
AcDbBlockEnd
  0
BLOCK
  5
7B7
330
7AD
100
AcDbEntity
  8
0
100
AcDbBlockBegin
  2
*D14
 70
     1
 10
0.0
 20
0.0
 30
0.0
  3
*D14
  1

  0
LINE
  5
7AE
330
7AD
100
AcDbEntity
  8
SUNPOU
 62
     4
100
AcDbLine
 10
458.5181289203979
 20
289.9893777235583
 30
0.0
 11
435.7094739628546
 21
289.9893777235583
 31
0.0
  0
LINE
  5
7AF
330
7AD
100
AcDbEntity
  8
SUNPOU
 62
     4
100
AcDbLine
 10
458.5181289203979
 20
199.9893777235584
 30
0.0
 11
435.7094739628546
 21
199.9893777235584
 31
0.0
  0
LINE
  5
7B0
330
7AD
100
AcDbEntity
  8
SUNPOU
 62
     4
100
AcDbLine
 10
438.7094739628546
 20
282.9893777235584
 30
0.0
 11
438.7094739628546
 21
206.9893777235584
 31
0.0
  0
INSERT
  5
7B1
330
7AD
100
AcDbEntity
  8
SUNPOU
 62
     4
100
AcDbBlockReference
  2
_OPEN
 10
438.7094739628546
 20
289.9893777235583
 30
0.0
 41
7.0
 42
7.0
 43
7.0
 50
90.0
  0
INSERT
  5
7B2
330
7AD
100
AcDbEntity
  8
SUNPOU
 62
     4
100
AcDbBlockReference
  2
_OPEN
 10
438.7094739628546
 20
199.9893777235584
 30
0.0
 41
7.0
 42
7.0
 43
7.0
 50
270.0
  0
MTEXT
  5
7B3
330
7AD
100
AcDbEntity
  8
SUNPOU
 62
     4
100
AcDbMText
 10
433.7094739628546
 20
244.9893777235584
 30
0.0
 40
6.0
 41
0.0
 71
     5
 72
     1
  1
\A1;\U+203Ba90
 11
0.0000000000000001
 21
1.0
 31
0.0
1001
ACAD
1000
MTEXTBEGIN
1070
    73
1070
     1
1070
    44
1040
1.0
1070
    74
1070
     0
1000
MTEXTEND
1000
MTEXTBEGIN
1070
    73
1070
     1
1070
    44
1040
1.0
1070
    74
1070
     0
1000
MTEXTEND
  0
POINT
  5
7B4
330
7AD
100
AcDbEntity
  8
DEFPOINTS
 62
     0
100
AcDbPoint
 10
464.5181289203978
 20
289.9893777235583
 30
0.0
  0
POINT
  5
7B5
330
7AD
100
AcDbEntity
  8
DEFPOINTS
 62
     0
100
AcDbPoint
 10
464.5181289203978
 20
199.9893777235584
 30
0.0
  0
POINT
  5
7B6
330
7AD
100
AcDbEntity
  8
DEFPOINTS
 62
     0
100
AcDbPoint
 10
438.7094739628546
 20
199.9893777235584
 30
0.0
  0
ENDBLK
  5
7B8
330
7AD
100
AcDbEntity
  8
0
100
AcDbBlockEnd
  0
BLOCK
  5
901
330
8F7
100
AcDbEntity
  8
0
100
AcDbBlockBegin
  2
*D16
 70
     1
 10
0.0
 20
0.0
 30
0.0
  3
*D16
  1

  0
LINE
  5
9F9
330
8F7
100
AcDbEntity
  8
SUNPOU
100
AcDbLine
 10
459.2825610275867
 20
168.2393777235584
 30
0.0
 11
409.0749607152575
 21
168.2393777235584
 31
0.0
  0
LINE
  5
9FA
330
8F7
100
AcDbEntity
  8
SUNPOU
100
AcDbLine
 10
442.3681289203978
 20
147.9893777235582
 30
0.0
 11
409.0749607152575
 21
147.9893777235582
 31
0.0
  0
LINE
  5
9FB
330
8F7
100
AcDbEntity
  8
SUNPOU
100
AcDbLine
 10
412.0749607152574
 20
161.2393777235584
 30
0.0
 11
412.0749607152574
 21
154.9893777235582
 31
0.0
  0
INSERT
  5
9FC
330
8F7
100
AcDbEntity
  8
SUNPOU
100
AcDbBlockReference
  2
_OPEN
 10
412.0749607152574
 20
168.2393777235584
 30
0.0
 41
7.0
 42
7.0
 43
7.0
 50
90.0
  0
INSERT
  5
9FD
330
8F7
100
AcDbEntity
  8
SUNPOU
100
AcDbBlockReference
  2
_OPEN
 10
412.0749607152574
 20
147.9893777235582
 30
0.0
 41
7.0
 42
7.0
 43
7.0
 50
270.0
  0
MTEXT
  5
9FE
330
8F7
100
AcDbEntity
  8
SUNPOU
100
AcDbMText
 10
407.0749607152574
 20
158.1143777235584
 30
0.0
 40
6.0
 41
0.0
 71
     5
 72
     1
  1
\A1;20
 11
0.0000000000000001
 21
1.0
 31
0.0
1001
ACAD
1000
MTEXTBEGIN
1070
    73
1070
     1
1070
    44
1040
1.0
1070
    74
1070
     0
1000
MTEXTEND
  0
POINT
  5
9FF
330
8F7
100
AcDbEntity
  8
DEFPOINTS
 62
     0
100
AcDbPoint
 10
465.2825610275868
 20
168.2393777235584
 30
0.0
  0
POINT
  5
A00
330
8F7
100
AcDbEntity
  8
DEFPOINTS
 62
     0
100
AcDbPoint
 10
448.3681289203977
 20
147.9893777235582
 30
0.0
  0
POINT
  5
A01
330
8F7
100
AcDbEntity
  8
DEFPOINTS
 62
     0
100
AcDbPoint
 10
412.0749607152574
 20
147.9893777235582
 30
0.0
  0
ENDBLK
  5
902
330
8F7
100
AcDbEntity
  8
0
100
AcDbBlockEnd
  0
BLOCK
  5
90D
330
903
100
AcDbEntity
  8
0
100
AcDbBlockBegin
  2
*D17
 70
     1
 10
0.0
 20
0.0
 30
0.0
  3
*D17
  1

  0
LINE
  5
A02
330
903
100
AcDbEntity
  8
SUNPOU
 62
     4
100
AcDbLine
 10
182.954894159787
 20
295.9895777235583
 30
0.0
 11
182.954894159787
 21
323.7429925246528
 31
0.0
  0
LINE
  5
A03
330
903
100
AcDbEntity
  8
SUNPOU
 62
     4
100
AcDbLine
 10
248.9548941595596
 20
295.9894552577654
 30
0.0
 11
248.9548941595596
 21
323.7429925246528
 31
0.0
  0
LINE
  5
A04
330
903
100
AcDbEntity
  8
SUNPOU
 62
     4
100
AcDbLine
 10
189.954894159787
 20
320.7429925246529
 30
0.0
 11
241.9548941595596
 21
320.7429925246529
 31
0.0
  0
INSERT
  5
A05
330
903
100
AcDbEntity
  8
SUNPOU
 62
     4
100
AcDbBlockReference
  2
_OPEN
 10
182.954894159787
 20
320.7429925246529
 30
0.0
 41
7.0
 42
7.0
 43
7.0
 50
180.0
  0
INSERT
  5
A06
330
903
100
AcDbEntity
  8
SUNPOU
 62
     4
100
AcDbBlockReference
  2
_OPEN
 10
248.9548941595596
 20
320.7429925246529
 30
0.0
 41
7.0
 42
7.0
 43
7.0
  0
MTEXT
  5
A07
330
903
100
AcDbEntity
  8
SUNPOU
 62
     4
100
AcDbMText
 10
215.9548941596733
 20
325.7429925246528
 30
0.0
 40
6.0
 41
0.0
 71
     5
 72
     1
  1
\A1;66
1001
ACAD
1000
MTEXTBEGIN
1070
    73
1070
     1
1070
    44
1040
1.0
1070
    74
1070
     0
1000
MTEXTEND
  0
POINT
  5
A08
330
903
100
AcDbEntity
  8
DEFPOINTS
 62
     0
100
AcDbPoint
 10
182.954894159787
 20
289.9895777235584
 30
0.0
  0
POINT
  5
A09
330
903
100
AcDbEntity
  8
DEFPOINTS
 62
     0
100
AcDbPoint
 10
248.9548941595596
 20
289.9894552577654
 30
0.0
  0
POINT
  5
A0A
330
903
100
AcDbEntity
  8
DEFPOINTS
 62
     0
100
AcDbPoint
 10
248.9548941595596
 20
320.7429925246529
 30
0.0
  0
ENDBLK
  5
90E
330
903
100
AcDbEntity
  8
0
100
AcDbBlockEnd
  0
BLOCK
  5
91B
330
90F
100
AcDbEntity
  8
0
100
AcDbBlockBegin
  2
*D18
 70
     1
 10
0.0
 20
0.0
 30
0.0
  3
*D18
  1

  0
LINE
  5
9DC
330
90F
100
AcDbEntity
  8
SUNPOU
 62
     4
100
AcDbLine
 10
270.9548308944058
 20
165.9894777235208
 30
0.0
 11
310.3894600666594
 21
165.9894777235208
 31
0.0
  0
LINE
  5
9DD
330
90F
100
AcDbEntity
  8
SUNPOU
 62
     4
100
AcDbLine
 10
270.954794159787
 20
147.9894777235583
 30
0.0
 11
310.3894600666594
 21
147.9894777235583
 31
0.0
  0
LINE
  5
9DE
330
90F
100
AcDbEntity
  8
SUNPOU
 62
     4
100
AcDbLine
 10
307.3894600666594
 20
172.9894777235208
 30
0.0
 11
307.3894600666594
 21
179.9894777235208
 31
0.0
  0
LINE
  5
9DF
330
90F
100
AcDbEntity
  8
SUNPOU
 62
     4
100
AcDbLine
 10
307.3894600666594
 20
140.9894777235583
 30
0.0
 11
307.3894600666594
 21
108.7894777235583
 31
0.0
  0
LINE
  5
9E0
330
90F
100
AcDbEntity
  8
SUNPOU
 62
     4
100
AcDbLine
 10
307.3894600666594
 20
165.9894777235208
 30
0.0
 11
307.3894600666594
 21
147.9894777235583
 31
0.0
  0
INSERT
  5
9E1
330
90F
100
AcDbEntity
  8
SUNPOU
 62
     4
100
AcDbBlockReference
  2
_OPEN
 10
307.3894600666594
 20
165.9894777235208
 30
0.0
 41
7.0
 42
7.0
 43
7.0
 50
270.0
  0
INSERT
  5
9E2
330
90F
100
AcDbEntity
  8
SUNPOU
 62
     4
100
AcDbBlockReference
  2
_OPEN
 10
307.3894600666594
 20
147.9894777235583
 30
0.0
 41
7.0
 42
7.0
 43
7.0
 50
90.0
  0
MTEXT
  5
9E3
330
90F
100
AcDbEntity
  8
SUNPOU
 62
     4
100
AcDbMText
 10
302.3894600666594
 20
121.3894777235584
 30
0.0
 40
6.0
 41
0.0
 71
     5
 72
     1
  1
\A1;※b18
 11
0.0000000000000001
 21
1.0
 31
0.0
1001
ACAD
1000
MTEXTBEGIN
1070
    73
1070
     1
1070
    44
1040
1.0
1070
    74
1070
     0
1000
MTEXTEND
  0
POINT
  5
9E4
330
90F
100
AcDbEntity
  8
DEFPOINTS
 62
     0
100
AcDbPoint
 10
264.9548308944058
 20
165.9894777235208
 30
0.0
  0
POINT
  5
9E5
330
90F
100
AcDbEntity
  8
DEFPOINTS
 62
     0
100
AcDbPoint
 10
264.954794159787
 20
147.9894777235583
 30
0.0
  0
POINT
  5
9E6
330
90F
100
AcDbEntity
  8
DEFPOINTS
 62
     0
100
AcDbPoint
 10
307.3894600666594
 20
147.9894777235583
 30
0.0
  0
ENDBLK
  5
91C
330
90F
100
AcDbEntity
  8
0
100
AcDbBlockEnd
  0
BLOCK
  5
927
330
91D
100
AcDbEntity
  8
0
100
AcDbBlockBegin
  2
*D19
 70
     1
 10
0.0
 20
0.0
 30
0.0
  3
*D19
  1

  0
LINE
  5
9CA
330
91D
100
AcDbEntity
  8
SUNPOU
 62
     4
100
AcDbLine
 10
254.9548941595596
 20
289.9894552577654
 30
0.0
 11
327.0258926381916
 21
289.9894552577654
 31
0.0
  0
LINE
  5
9CB
330
91D
100
AcDbEntity
  8
SUNPOU
 62
     4
100
AcDbLine
 10
270.954794159787
 20
147.9894777235583
 30
0.0
 11
327.0258926381916
 21
147.9894777235583
 31
0.0
  0
LINE
  5
9CC
330
91D
100
AcDbEntity
  8
SUNPOU
 62
     4
100
AcDbLine
 10
324.0258926381916
 20
282.9894552577654
 30
0.0
 11
324.0258926381916
 21
154.9894777235583
 31
0.0
  0
INSERT
  5
9CD
330
91D
100
AcDbEntity
  8
SUNPOU
 62
     4
100
AcDbBlockReference
  2
_OPEN
 10
324.0258926381916
 20
289.9894552577654
 30
0.0
 41
7.0
 42
7.0
 43
7.0
 50
90.0
  0
INSERT
  5
9CE
330
91D
100
AcDbEntity
  8
SUNPOU
 62
     4
100
AcDbBlockReference
  2
_OPEN
 10
324.0258926381916
 20
147.9894777235583
 30
0.0
 41
7.0
 42
7.0
 43
7.0
 50
270.0
  0
MTEXT
  5
9CF
330
91D
100
AcDbEntity
  8
SUNPOU
 62
     4
100
AcDbMText
 10
319.0258926381915
 20
218.9894664906619
 30
0.0
 40
6.0
 41
0.0
 71
     5
 72
     1
  1
\A1;142
 11
0.0000000000000001
 21
1.0
 31
0.0
1001
ACAD
1000
MTEXTBEGIN
1070
    73
1070
     1
1070
    44
1040
1.0
1070
    74
1070
     0
1000
MTEXTEND
  0
POINT
  5
9D0
330
91D
100
AcDbEntity
  8
DEFPOINTS
 62
     0
100
AcDbPoint
 10
248.9548941595596
 20
289.9894552577654
 30
0.0
  0
POINT
  5
9D1
330
91D
100
AcDbEntity
  8
DEFPOINTS
 62
     0
100
AcDbPoint
 10
264.954794159787
 20
147.9894777235583
 30
0.0
  0
POINT
  5
9D2
330
91D
100
AcDbEntity
  8
DEFPOINTS
 62
     0
100
AcDbPoint
 10
324.0258926381916
 20
147.9894777235583
 30
0.0
  0
ENDBLK
  5
928
330
91D
100
AcDbEntity
  8
0
100
AcDbBlockEnd
  0
BLOCK
  5
933
330
929
100
AcDbEntity
  8
0
100
AcDbBlockBegin
  2
*D20
 70
     1
 10
0.0
 20
0.0
 30
0.0
  3
*D20
  1

  0
LINE
  5
9C1
330
929
100
AcDbEntity
  8
SUNPOU
 62
     4
100
AcDbLine
 10
254.9548941597868
 20
289.9895777235584
 30
0.0
 11
310.367185713193
 21
289.9895777235584
 31
0.0
  0
LINE
  5
9C2
330
929
100
AcDbEntity
  8
SUNPOU
 62
     4
100
AcDbLine
 10
254.9548941597868
 20
199.9895777235584
 30
0.0
 11
310.367185713193
 21
199.9895777235584
 31
0.0
  0
LINE
  5
9C3
330
929
100
AcDbEntity
  8
SUNPOU
 62
     4
100
AcDbLine
 10
307.367185713193
 20
282.9895777235583
 30
0.0
 11
307.367185713193
 21
206.9895777235584
 31
0.0
  0
INSERT
  5
9C4
330
929
100
AcDbEntity
  8
SUNPOU
 62
     4
100
AcDbBlockReference
  2
_OPEN
 10
307.367185713193
 20
289.9895777235584
 30
0.0
 41
7.0
 42
7.0
 43
7.0
 50
90.0
  0
INSERT
  5
9C5
330
929
100
AcDbEntity
  8
SUNPOU
 62
     4
100
AcDbBlockReference
  2
_OPEN
 10
307.367185713193
 20
199.9895777235584
 30
0.0
 41
7.0
 42
7.0
 43
7.0
 50
270.0
  0
MTEXT
  5
9C6
330
929
100
AcDbEntity
  8
SUNPOU
 62
     4
100
AcDbMText
 10
302.367185713193
 20
244.9895777235584
 30
0.0
 40
6.0
 41
0.0
 71
     5
 72
     1
  1
\A1;※a90
 11
0.0000000000000001
 21
1.0
 31
0.0
1001
ACAD
1000
MTEXTBEGIN
1070
    73
1070
     1
1070
    44
1040
1.0
1070
    74
1070
     0
1000
MTEXTEND
  0
POINT
  5
9C7
330
929
100
AcDbEntity
  8
DEFPOINTS
 62
     0
100
AcDbPoint
 10
248.9548941597868
 20
289.9895777235584
 30
0.0
  0
POINT
  5
9C8
330
929
100
AcDbEntity
  8
DEFPOINTS
 62
     0
100
AcDbPoint
 10
248.9548941597868
 20
199.9895777235584
 30
0.0
  0
POINT
  5
9C9
330
929
100
AcDbEntity
  8
DEFPOINTS
 62
     0
100
AcDbPoint
 10
307.367185713193
 20
199.9895777235584
 30
0.0
  0
ENDBLK
  5
934
330
929
100
AcDbEntity
  8
0
100
AcDbBlockEnd
  0
BLOCK
  5
93F
330
935
100
AcDbEntity
  8
0
100
AcDbBlockBegin
  2
*D21
 70
     1
 10
0.0
 20
0.0
 30
0.0
  3
*D21
  1

  0
LINE
  5
9D3
330
935
100
AcDbEntity
  8
SUNPOU
 62
     4
100
AcDbLine
 10
166.9543941597871
 20
141.9896777235583
 30
0.0
 11
166.9543941597871
 21
112.2461025962807
 31
0.0
  0
LINE
  5
9D4
330
935
100
AcDbEntity
  8
SUNPOU
 62
     4
100
AcDbLine
 10
264.9547941336422
 20
141.9911815275517
 30
0.0
 11
264.9547941336422
 21
112.2461025962807
 31
0.0
  0
LINE
  5
9D5
330
935
100
AcDbEntity
  8
SUNPOU
 62
     4
100
AcDbLine
 10
173.9543941597871
 20
115.2461025962807
 30
0.0
 11
257.9547941336422
 21
115.2461025962807
 31
0.0
  0
INSERT
  5
9D6
330
935
100
AcDbEntity
  8
SUNPOU
 62
     4
100
AcDbBlockReference
  2
_OPEN
 10
166.9543941597871
 20
115.2461025962807
 30
0.0
 41
7.0
 42
7.0
 43
7.0
 50
180.0
  0
INSERT
  5
9D7
330
935
100
AcDbEntity
  8
SUNPOU
 62
     4
100
AcDbBlockReference
  2
_OPEN
 10
264.9547941336422
 20
115.2461025962807
 30
0.0
 41
7.0
 42
7.0
 43
7.0
  0
MTEXT
  5
9D8
330
935
100
AcDbEntity
  8
SUNPOU
 62
     4
100
AcDbMText
 10
215.9545941467147
 20
120.2461025962807
 30
0.0
 40
6.0
 41
0.0
 71
     5
 72
     1
  1
\A1;φ98
1001
ACAD
1000
MTEXTBEGIN
1070
    73
1070
     1
1070
    44
1040
1.0
1070
    74
1070
     0
1000
MTEXTEND
  0
POINT
  5
9D9
330
935
100
AcDbEntity
  8
DEFPOINTS
 62
     0
100
AcDbPoint
 10
166.9543941597871
 20
147.9896777235583
 30
0.0
  0
POINT
  5
9DA
330
935
100
AcDbEntity
  8
DEFPOINTS
 62
     0
100
AcDbPoint
 10
264.9547941336422
 20
147.9911815275517
 30
0.0
  0
POINT
  5
9DB
330
935
100
AcDbEntity
  8
DEFPOINTS
 62
     0
100
AcDbPoint
 10
264.9547941336422
 20
115.2461025962807
 30
0.0
  0
ENDBLK
  5
940
330
935
100
AcDbEntity
  8
0
100
AcDbBlockEnd
  0
BLOCK
  5
94B
330
941
100
AcDbEntity
  8
0
100
AcDbBlockBegin
  2
*D22
 70
     1
 10
0.0
 20
0.0
 30
0.0
  3
*D22
  1

  0
LINE
  5
9F0
330
941
100
AcDbEntity
  8
SUNPOU
100
AcDbLine
 10
471.1180342644893
 20
141.9893777235582
 30
0.0
 11
471.1180342644893
 21
109.473519073009
 31
0.0
  0
LINE
  5
9F1
330
941
100
AcDbEntity
  8
SUNPOU
100
AcDbLine
 10
523.6180342644997
 20
141.9893777235582
 30
0.0
 11
523.6180342644997
 21
109.473519073009
 31
0.0
  0
LINE
  5
9F2
330
941
100
AcDbEntity
  8
SUNPOU
100
AcDbLine
 10
478.1180342644893
 20
112.473519073009
 30
0.0
 11
516.6180342644998
 21
112.473519073009
 31
0.0
  0
INSERT
  5
9F3
330
941
100
AcDbEntity
  8
SUNPOU
100
AcDbBlockReference
  2
_OPEN
 10
471.1180342644893
 20
112.473519073009
 30
0.0
 41
7.0
 42
7.0
 43
7.0
 50
180.0
  0
INSERT
  5
9F4
330
941
100
AcDbEntity
  8
SUNPOU
100
AcDbBlockReference
  2
_OPEN
 10
523.6180342644997
 20
112.473519073009
 30
0.0
 41
7.0
 42
7.0
 43
7.0
  0
MTEXT
  5
9F5
330
941
100
AcDbEntity
  8
SUNPOU
100
AcDbMText
 10
497.3680342644946
 20
117.473519073009
 30
0.0
 40
6.0
 41
0.0
 71
     5
 72
     1
  1
\A1;φ53
1001
ACAD
1000
MTEXTBEGIN
1070
    73
1070
     1
1070
    44
1040
1.0
1070
    74
1070
     0
1000
MTEXTEND
  0
POINT
  5
9F6
330
941
100
AcDbEntity
  8
DEFPOINTS
 62
     0
100
AcDbPoint
 10
471.1180342644893
 20
147.9893777235582
 30
0.0
  0
POINT
  5
9F7
330
941
100
AcDbEntity
  8
DEFPOINTS
 62
     0
100
AcDbPoint
 10
523.6180342644997
 20
147.9893777235582
 30
0.0
  0
POINT
  5
9F8
330
941
100
AcDbEntity
  8
DEFPOINTS
 62
     0
100
AcDbPoint
 10
523.6180342644997
 20
112.473519073009
 30
0.0
  0
ENDBLK
  5
94C
330
941
100
AcDbEntity
  8
0
100
AcDbBlockEnd
  0
BLOCK
  5
957
330
94D
100
AcDbEntity
  8
0
100
AcDbBlockBegin
  2
*D23
 70
     1
 10
0.0
 20
0.0
 30
0.0
  3
*D23
  1

  0
LINE
  5
9E7
330
94D
100
AcDbEntity
  8
SUNPOU
100
AcDbLine
 10
450.3681289203978
 20
141.9893777235582
 30
0.0
 11
450.3681289203978
 21
92.78730815220541
 31
0.0
  0
LINE
  5
9E8
330
94D
100
AcDbEntity
  8
SUNPOU
100
AcDbLine
 10
544.3679396085533
 20
141.9893180166489
 30
0.0
 11
544.3679396085533
 21
92.78730815220541
 31
0.0
  0
LINE
  5
9E9
330
94D
100
AcDbEntity
  8
SUNPOU
100
AcDbLine
 10
457.3681289203977
 20
95.78730815220541
 30
0.0
 11
537.3679396085533
 21
95.78730815220541
 31
0.0
  0
INSERT
  5
9EA
330
94D
100
AcDbEntity
  8
SUNPOU
100
AcDbBlockReference
  2
_OPEN
 10
450.3681289203978
 20
95.78730815220541
 30
0.0
 41
7.0
 42
7.0
 43
7.0
 50
180.0
  0
INSERT
  5
9EB
330
94D
100
AcDbEntity
  8
SUNPOU
100
AcDbBlockReference
  2
_OPEN
 10
544.3679396085533
 20
95.78730815220541
 30
0.0
 41
7.0
 42
7.0
 43
7.0
  0
MTEXT
  5
9EC
330
94D
100
AcDbEntity
  8
SUNPOU
100
AcDbMText
 10
497.3680342644756
 20
100.7873081522054
 30
0.0
 40
6.0
 41
0.0
 71
     5
 72
     1
  1
\A1;φ94
1001
ACAD
1000
MTEXTBEGIN
1070
    73
1070
     1
1070
    44
1040
1.0
1070
    74
1070
     0
1000
MTEXTEND
  0
POINT
  5
9ED
330
94D
100
AcDbEntity
  8
DEFPOINTS
 62
     0
100
AcDbPoint
 10
450.3681289203978
 20
147.9893777235582
 30
0.0
  0
POINT
  5
9EE
330
94D
100
AcDbEntity
  8
DEFPOINTS
 62
     0
100
AcDbPoint
 10
544.3679396085533
 20
147.9893180166489
 30
0.0
  0
POINT
  5
9EF
330
94D
100
AcDbEntity
  8
DEFPOINTS
 62
     0
100
AcDbPoint
 10
544.3679396085533
 20
95.78730815220541
 30
0.0
  0
ENDBLK
  5
958
330
94D
100
AcDbEntity
  8
0
100
AcDbBlockEnd
  0
BLOCK
  5
963
330
959
100
AcDbEntity
  8
0
100
AcDbBlockBegin
  2
*D24
 70
     1
 10
0.0
 20
0.0
 30
0.0
  3
*D24
  1

  0
LINE
  5
9B8
330
959
100
AcDbEntity
  8
SUNPOU
 62
     4
100
AcDbLine
 10
458.5181289203979
 20
289.9893777235583
 30
0.0
 11
435.7094739628546
 21
289.9893777235583
 31
0.0
  0
LINE
  5
9B9
330
959
100
AcDbEntity
  8
SUNPOU
 62
     4
100
AcDbLine
 10
458.5181289203979
 20
199.9893777235584
 30
0.0
 11
435.7094739628546
 21
199.9893777235584
 31
0.0
  0
LINE
  5
9BA
330
959
100
AcDbEntity
  8
SUNPOU
 62
     4
100
AcDbLine
 10
438.7094739628546
 20
282.9893777235584
 30
0.0
 11
438.7094739628546
 21
206.9893777235584
 31
0.0
  0
INSERT
  5
9BB
330
959
100
AcDbEntity
  8
SUNPOU
 62
     4
100
AcDbBlockReference
  2
_OPEN
 10
438.7094739628546
 20
289.9893777235583
 30
0.0
 41
7.0
 42
7.0
 43
7.0
 50
90.0
  0
INSERT
  5
9BC
330
959
100
AcDbEntity
  8
SUNPOU
 62
     4
100
AcDbBlockReference
  2
_OPEN
 10
438.7094739628546
 20
199.9893777235584
 30
0.0
 41
7.0
 42
7.0
 43
7.0
 50
270.0
  0
MTEXT
  5
9BD
330
959
100
AcDbEntity
  8
SUNPOU
 62
     4
100
AcDbMText
 10
433.7094739628546
 20
244.9893777235584
 30
0.0
 40
6.0
 41
0.0
 71
     5
 72
     1
  1
\A1;\U+203Ba90
 11
0.0000000000000001
 21
1.0
 31
0.0
1001
ACAD
1000
MTEXTBEGIN
1070
    73
1070
     1
1070
    44
1040
1.0
1070
    74
1070
     0
1000
MTEXTEND
  0
POINT
  5
9BE
330
959
100
AcDbEntity
  8
DEFPOINTS
 62
     0
100
AcDbPoint
 10
464.5181289203978
 20
289.9893777235583
 30
0.0
  0
POINT
  5
9BF
330
959
100
AcDbEntity
  8
DEFPOINTS
 62
     0
100
AcDbPoint
 10
464.5181289203978
 20
199.9893777235584
 30
0.0
  0
POINT
  5
9C0
330
959
100
AcDbEntity
  8
DEFPOINTS
 62
     0
100
AcDbPoint
 10
438.7094739628546
 20
199.9893777235584
 30
0.0
  0
ENDBLK
  5
964
330
959
100
AcDbEntity
  8
0
100
AcDbBlockEnd
  0
ENDSEC
  0
SECTION
  2
ENTITIES
  0
TEXT
  5
11A
330
1A
100
AcDbEntity
  8
ZUWAKU
 62
     7
 48
10.0
100
AcDbText
 10
795.5579444309237
 20
4.974918402528146
 30
0.0
 40
8.0
  1
A1
100
AcDbText
  0
LINE
  5
11B
330
1A
100
AcDbEntity
  8
ZUWAKU
 62
     7
 48
10.0
100
AcDbLine
 10
10.05047808566086
 20
25.78258628282265
 30
0.0
 11
806.0504780856609
 21
25.78258628282253
 31
0.0
  0
LINE
  5
11C
330
1A
100
AcDbEntity
  8
ZUWAKU
  6
CONTINUOUS
 62
     7
100
AcDbLine
 10
806.0504780856609
 20
563.7825862828226
 30
0.0
 11
10.05047808566086
 21
563.7825862828226
 31
0.0
  0
LINE
  5
11D
330
1A
100
AcDbEntity
  8
ZUWAKU
  6
CONTINUOUS
 62
     7
100
AcDbLine
 10
806.0504780856609
 20
13.78258628282265
 30
0.0
 11
10.05047808566086
 21
13.78258628282265
 31
0.0
  0
LINE
  5
11E
330
1A
100
AcDbEntity
  8
ZUWAKU
  6
CONTINUOUS
 62
     7
100
AcDbLine
 10
10.05047808566086
 20
563.7825862828226
 30
0.0
 11
10.05047808566086
 21
13.78258628282265
 31
0.0
  0
LINE
  5
11F
330
1A
100
AcDbEntity
  8
ZUWAKU
 62
     7
 48
10.0
100
AcDbLine
 10
44.55797523147839
 20
13.78258628282265
 30
0.0
 11
44.5579752314784
 21
25.78258628282265
 31
0.0
  0
TEXT
  5
120
330
1A
100
AcDbEntity
  8
ZUWAKU
 62
     7
100
AcDbText
 10
16.05676551180931
 20
15.52294263804401
 30
0.0
 40
8.0
  1
品 種
100
AcDbText
  0
LINE
  5
121
330
1A
100
AcDbEntity
  8
ZUWAKU
 62
     7
 48
10.0
100
AcDbLine
 10
276.1028387068254
 20
13.78258628282265
 30
0.0
 11
276.1028387068254
 21
25.78258628282261
 31
0.0
  0
LINE
  5
122
330
1A
100
AcDbEntity
  8
ZUWAKU
 62
     7
 48
10.0
100
AcDbLine
 10
209.5138526425484
 20
13.78258628282265
 30
0.0
 11
209.5138526425485
 21
25.78258628282263
 31
0.0
  0
TEXT
  5
124
330
1A
100
AcDbEntity
  8
ZUWAKU
 62
     7
100
AcDbText
 10
215.4560837190756
 20
16.18358115302453
 30
0.0
 40
8.0
  1
品名・ｻ ｲ ｽﾞ
100
AcDbText
  0
LINE
  5
126
330
1A
100
AcDbEntity
  8
ZUWAKU
 62
     7
 48
10.0
100
AcDbLine
 10
768.7231079932794
 20
13.78258628282237
 30
0.0
 11
768.7231079932794
 21
25.78258628282254
 31
0.0
  0
LINE
  5
127
330
1A
100
AcDbEntity
  8
ZUWAKU
 62
     7
 48
10.0
100
AcDbLine
 10
733.8119002376948
 20
13.78258628282242
 30
0.0
 11
733.8119002376946
 21
25.78258628282254
 31
0.0
  0
TEXT
  5
128
330
1A
100
AcDbEntity
  8
ZUWAKU
 62
     7
100
AcDbText
 10
739.6955629973526
 20
15.24227755810852
 30
0.0
 40
8.0
  1
尺 度
100
AcDbText
  0
TEXT
  5
129
330
1A
100
AcDbEntity
  8
ZUWAKU
 62
     7
100
AcDbText
 10
779.7374630323229
 20
15.55488920081529
 30
0.0
 40
8.0
  1
1/2
100
AcDbText
  0
TEXT
  5
12B
330
1A
100
AcDbEntity
  8
ZUWAKU
 62
     7
100
AcDbText
 10
620.3363288383084
 20
15.6519090944263
 30
0.0
 40
8.0
  1
品 番
100
AcDbText
  0
LINE
  5
12C
330
1A
100
AcDbEntity
  8
ZUWAKU
 62
     7
 48
10.0
100
AcDbLine
 10
614.3351028194128
 20
13.78258628282232
 30
0.0
 11
614.3351028194128
 21
25.78258628282256
 31
0.0
  0
LINE
  5
12D
330
1A
100
AcDbEntity
  8
ZUWAKU
 62
     7
 48
10.0
100
AcDbLine
 10
648.7607587371021
 20
13.78258628282232
 30
0.0
 11
648.7607587371021
 21
25.78258628282255
 31
0.0
  0
TEXT
  5
12E
330
1A
100
AcDbEntity
  8
ZUWAKU
 62
     7
 48
10.0
100
AcDbText
 10
646.2758615931216
 20
4.949376903717848
 30
0.0
 40
8.0
  1
積水化学工業株式会社  建材
100
AcDbText
  0
LINE
  5
12F
330
1A
100
AcDbEntity
  8
ZUWAKU
  6
CONTINUOUS
 62
     7
100
AcDbLine
 10
806.0504780856609
 20
563.7825862828226
 30
0.0
 11
806.0504780856609
 21
13.78258628282265
 31
0.0
  0
TEXT
  5
274
330
1A
100
AcDbEntity
  8
ZUWAKU
 62
     7
100
AcDbText
 10
50.3519382305086
 20
16.10306189639755
 30
0.0
 40
8.0
  1
アートフェイス　たてとい
100
AcDbText
  0
TEXT
  5
277
330
1A
100
AcDbEntity
  8
ZUWAKU
 62
     7
100
AcDbText
 10
282.3131429914078
 20
15.64241700452384
 30
0.0
 40
8.0
  1
排水管カバー　Ｙ６０Ｈ
100
AcDbText
  0
TEXT
  5
329
330
1A
100
AcDbEntity
  8
ZUWAKU
 62
     7
100
AcDbText
 10
654.2531733678779
 20
15.90287984531518
 30
0.0
 40
8.0
  1
ＰＦ１１
100
AcDbText
  0
TEXT
  5
4E5
330
1A
100
AcDbEntity
  8
SUNPOU
 62
     4
 48
5.0
100
AcDbText
 10
627.1312188931251
 20
67.170427685434
 30
0.0
 40
8.0
  1
※a　たてといの差込み寸法を示す。
100
AcDbText
  0
TEXT
  5
4E6
330
1A
100
AcDbEntity
  8
SUNPOU
 62
     4
 48
5.0
100
AcDbText
 10
627.1312188931251
 20
54.71973684028184
 30
0.0
 40
8.0
  1
※b　排水管の差込み寸法を示す。
100
AcDbText
  0
DIMENSION
  5
85A
330
1A
100
AcDbEntity
  8
SUNPOU
100
AcDbDimension
  2
*D16
 10
412.0749607152574
 20
147.9893777235582
 30
0.0
 11
407.0749607152574
 21
158.1143777235584
 31
0.0
 70
    32
  3
STANDARD
100
AcDbAlignedDimension
 13
465.2825610275868
 23
168.2393777235584
 33
0.0
 14
448.3681289203977
 24
147.9893777235582
 34
0.0
 50
90.0
100
AcDbRotatedDimension
1001
ACAD
1000
DSTYLE
1002
{
1070
    41
1040
7.0
1070
    42
1040
6.0
1070
    43
1040
14.0
1070
    44
1040
3.0
1070
    73
1070
     0
1070
    74
1070
     0
1070
    77
1070
     3
1070
   140
1040
6.0
1070
   141
1040
150.0
1070
   147
1040
2.0
1070
   172
1070
     1
1070
   173
1070
     1
1070
   176
1070
   256
1070
   177
1070
   256
1070
   178
1070
   256
1070
   271
1070
     0
1070
   272
1070
     0
1070
   341
1005
6D
1070
     6
1000
OPEN
1070
     7
1000
OPEN
1070
   371
1070
    -1
1070
   372
1070
    -1
1002
}
  0
LINE
  5
85C
330
1A
100
AcDbEntity
  8
CENTER_L
  6
CENTER
 62
     1
 48
5.0
100
AcDbLine
 10
215.954894159787
 20
297.8653777235582
 30
0.0
 11
215.9545941597871
 21
139.9895777235583
 31
0.0
  0
DIMENSION
  5
85D
330
1A
100
AcDbEntity
  8
SUNPOU
 48
5.0
100
AcDbDimension
  2
*D17
 10
248.9548941595596
 20
320.7429925246529
 30
0.0
 11
215.9548941596733
 21
325.7429925246528
 31
0.0
 70
    32
  3
STANDARD
100
AcDbAlignedDimension
 13
182.954894159787
 23
289.9895777235584
 33
0.0
 14
248.9548941595596
 24
289.9894552577654
 34
0.0
100
AcDbRotatedDimension
1001
ACAD
1000
DSTYLE
1002
{
1070
   140
1040
6.0
1070
    74
1070
     0
1070
   172
1070
     1
1070
    73
1070
     0
1070
   272
1070
     2
1070
    77
1070
     3
1070
   173
1070
     1
1070
   147
1040
2.0
1070
    42
1040
6.0
1070
    44
1040
3.0
1070
    43
1040
14.0
1070
   271
1070
     0
1070
   178
1070
     4
1070
   177
1070
     4
1070
   176
1070
     4
1070
   141
1040
150.0
1070
     7
1000
_OPEN
1070
     6
1000
_OPEN
1070
    41
1040
7.0
1002
}
  0
DIMENSION
  5
85F
330
1A
100
AcDbEntity
  8
SUNPOU
 48
5.0
100
AcDbDimension
  2
*D18
 10
307.3894600666594
 20
147.9894777235583
 30
0.0
 11
302.3894600666594
 21
121.3894777235584
 31
0.0
 70
    32
  1
※b<>
  3
STANDARD
100
AcDbAlignedDimension
 13
264.9548308944058
 23
165.9894777235208
 33
0.0
 14
264.954794159787
 24
147.9894777235583
 34
0.0
 50
90.0
100
AcDbRotatedDimension
1001
ACAD
1000
DSTYLE
1002
{
1070
   140
1040
6.0
1070
    74
1070
     0
1070
   172
1070
     1
1070
    73
1070
     0
1070
   272
1070
     2
1070
    77
1070
     3
1070
   173
1070
     1
1070
   147
1040
2.0
1070
    42
1040
6.0
1070
    44
1040
3.0
1070
    43
1040
14.0
1070
   271
1070
     0
1070
   178
1070
     4
1070
   177
1070
     4
1070
   176
1070
     4
1070
   141
1040
150.0
1070
     7
1000
_OPEN
1070
     6
1000
_OPEN
1070
    41
1040
7.0
1002
}
  0
DIMENSION
  5
860
330
1A
100
AcDbEntity
  8
SUNPOU
 48
5.0
100
AcDbDimension
  2
*D19
 10
324.0258926381916
 20
147.9894777235583
 30
0.0
 11
319.0258926381915
 21
218.9894664906619
 31
0.0
 70
    32
  3
STANDARD
100
AcDbAlignedDimension
 13
248.9548941595596
 23
289.9894552577654
 33
0.0
 14
264.954794159787
 24
147.9894777235583
 34
0.0
 50
90.0
100
AcDbRotatedDimension
1001
ACAD
1000
DSTYLE
1002
{
1070
   140
1040
6.0
1070
    74
1070
     0
1070
   172
1070
     1
1070
    73
1070
     0
1070
   272
1070
     2
1070
    77
1070
     3
1070
   173
1070
     1
1070
   147
1040
2.0
1070
    42
1040
6.0
1070
    44
1040
3.0
1070
    43
1040
14.0
1070
   271
1070
     0
1070
   178
1070
     4
1070
   177
1070
     4
1070
   176
1070
     4
1070
   141
1040
150.0
1070
     7
1000
_OPEN
1070
     6
1000
_OPEN
1070
    41
1040
7.0
1002
}
  0
DIMENSION
  5
861
330
1A
100
AcDbEntity
  8
SUNPOU
 48
5.0
100
AcDbDimension
  2
*D20
 10
307.367185713193
 20
199.9895777235584
 30
0.0
 11
302.367185713193
 21
244.9895777235584
 31
0.0
 70
    32
  1
※a<>
  3
STANDARD
100
AcDbAlignedDimension
 13
248.9548941597868
 23
289.9895777235584
 33
0.0
 14
248.9548941597868
 24
199.9895777235584
 34
0.0
 50
90.0
100
AcDbRotatedDimension
1001
ACAD
1000
DSTYLE
1002
{
1070
   140
1040
6.0
1070
    74
1070
     0
1070
   172
1070
     1
1070
    73
1070
     0
1070
   272
1070
     2
1070
    77
1070
     3
1070
   173
1070
     1
1070
   147
1040
2.0
1070
    42
1040
6.0
1070
    44
1040
3.0
1070
    43
1040
14.0
1070
   271
1070
     0
1070
   178
1070
     4
1070
   177
1070
     4
1070
   176
1070
     4
1070
   141
1040
150.0
1070
     7
1000
_OPEN
1070
     6
1000
_OPEN
1070
    41
1040
7.0
1002
}
  0
LINE
  5
862
330
1A
100
AcDbEntity
  8
SEIHIN
  6
CONTINUOUS
 62
     3
 48
5.0
100
AcDbLine
 10
239.9548941597868
 20
289.9895777235584
 30
0.0
 11
239.9546963240179
 21
185.7869062565494
 31
0.0
  0
LINE
  5
863
330
1A
100
AcDbEntity
  8
SEIHIN
  6
CONTINUOUS
 62
     3
 48
5.0
100
AcDbLine
 10
248.9548941597868
 20
289.9895777235584
 30
0.0
 11
248.9546971451468
 21
183.8132657086323
 31
0.0
  0
LINE
  5
864
330
1A
100
AcDbEntity
  8
SEIHIN
  6
CONTINUOUS
 62
     3
 48
5.0
100
AcDbLine
 10
182.954894159787
 20
289.9895777235584
 30
0.0
 11
182.9546971458075
 21
183.8137203676318
 31
0.0
  0
LINE
  5
865
330
1A
100
AcDbEntity
  8
SEIHIN
  6
CONTINUOUS
 62
     3
 48
5.0
100
AcDbLine
 10
191.954894159787
 20
289.9895777235584
 30
0.0
 11
191.954696324291
 21
185.787149184608
 31
0.0
  0
LINE
  5
866
330
1A
100
AcDbEntity
  8
SEIHIN
  6
CONTINUOUS
 62
     3
 48
5.0
100
AcDbLine
 10
166.954794159787
 20
147.9896777231501
 30
0.0
 11
264.954794159787
 21
147.9894777235583
 31
0.0
  0
LINE
  5
867
330
1A
100
AcDbEntity
  8
SEIHIN
  6
CONTINUOUS
 62
     3
 48
5.0
100
AcDbLine
 10
167.2357780376632
 20
167.9896777235914
 30
0.0
 11
264.6735941597869
 21
167.9894777235583
 31
0.0
  0
LINE
  5
868
330
1A
100
AcDbEntity
  8
SEIHIN
  6
CONTINUOUS
 62
     3
 48
5.0
100
AcDbLine
 10
169.7580481553386
 20
169.9896763077399
 30
0.0
 11
262.1513212397426
 21
169.9894791394171
 31
0.0
  0
DIMENSION
  5
869
330
1A
100
AcDbEntity
  8
SUNPOU
 48
5.0
100
AcDbDimension
  2
*D21
 10
264.9547941336422
 20
115.2461025962807
 30
0.0
 11
215.9545941467147
 21
120.2461025962807
 31
0.0
 70
    32
  1
φ<>
  3
STANDARD
100
AcDbAlignedDimension
 13
166.9543941597871
 23
147.9896777235583
 33
0.0
 14
264.9547941336422
 24
147.9911815275517
 34
0.0
100
AcDbRotatedDimension
1001
ACAD
1000
DSTYLE
1002
{
1070
   140
1040
6.0
1070
    74
1070
     0
1070
   172
1070
     1
1070
    73
1070
     0
1070
   272
1070
     2
1070
    77
1070
     3
1070
   173
1070
     1
1070
   147
1040
2.0
1070
    42
1040
6.0
1070
    44
1040
3.0
1070
    43
1040
14.0
1070
   271
1070
     0
1070
   178
1070
     4
1070
   177
1070
     4
1070
   176
1070
     4
1070
   141
1040
150.0
1070
     7
1000
_OPEN
1070
     6
1000
_OPEN
1070
    41
1040
7.0
1002
}
  0
LINE
  5
86A
330
1A
100
AcDbEntity
  8
SEIHIN
  6
CONTINUOUS
 62
     3
 48
5.0
100
AcDbLine
 10
166.954794159787
 20
147.9895777235583
 30
0.0
 11
166.954794159787
 21
167.5401777235583
 31
0.0
  0
LINE
  5
86B
330
1A
100
AcDbEntity
  8
SEIHIN
  6
CONTINUOUS
 62
     3
 48
5.0
100
AcDbLine
 10
166.9543941597871
 20
147.9896777235583
 30
0.0
 11
166.954794159787
 21
167.5401777235583
 31
0.0
  0
ARC
  5
86C
330
1A
100
AcDbEntity
  8
SEIHIN
  6
CONTINUOUS
 62
     3
 48
5.0
100
AcDbCircle
 10
158.0992206406043
 20
186.8125715705905
 30
0.0
 40
33.871001237613
100
AcDbArc
 50
330.2197096099031
 51
358.2650217719197
  0
ARC
  5
86D
330
1A
100
AcDbEntity
  8
SEIHIN
  6
CONTINUOUS
 62
     3
 48
5.0
100
AcDbCircle
 10
155.823876911227
 20
185.0268156554104
 30
0.0
 40
27.15792714435965
100
AcDbArc
 50
326.3790487707363
 51
357.4398497391073
  0
ARC
  5
86E
330
1A
100
AcDbEntity
  8
SEIHIN
  6
CONTINUOUS
 62
     3
 48
5.0
100
AcDbCircle
 10
163.0220131576969
 20
189.0896063762709
 30
0.0
 40
20.0000401488415
100
AcDbArc
 50
288.2041317668135
 51
355.2966093079309
  0
ARC
  5
86F
330
1A
100
AcDbEntity
  8
SEIHIN
  6
CONTINUOUS
 62
     3
 48
5.0
100
AcDbCircle
 10
166.9545282345795
 20
169.9896135928769
 30
0.0
 40
1.999978397594209
100
AcDbArc
 50
281.5419368814342
 51
351.3951203822273
  0
ARC
  5
870
330
1A
100
AcDbEntity
  8
SEIHIN
  6
CONTINUOUS
 62
     3
 48
5.0
100
AcDbCircle
 10
167.4548051695446
 20
167.5401912103881
 30
0.0
 40
0.5000110099394163
100
AcDbArc
 50
101.5496846016659
 51
180.0015454428243
  0
ARC
  5
871
330
1A
100
AcDbEntity
  8
SEIHIN
  6
CONTINUOUS
 62
     3
 48
5.0
100
AcDbCircle
 10
169.4263039345869
 20
169.6156892931239
 30
0.0
 40
0.499920508784581
100
AcDbArc
 50
108.2081007353437
 51
171.4078071907213
  0
ARC
  5
872
330
1A
100
AcDbEntity
  8
SEIHIN
  6
CONTINUOUS
 62
     3
 48
5.0
100
AcDbCircle
 10
155.823876911227
 20
185.0268156554104
 30
0.0
 40
27.15792714435965
100
AcDbArc
 50
2.559937631208069
 51
2.560291289932888
  0
ARC
  5
873
330
1A
100
AcDbEntity
  8
SEIHIN
  6
CONTINUOUS
 62
     3
 48
5.0
100
AcDbCircle
 10
163.0220131576969
 20
189.0896063762709
 30
0.0
 40
20.0000401488415
100
AcDbArc
 50
4.703178062384377
 51
4.703730713936055
  0
LINE
  5
874
330
1A
100
AcDbEntity
  8
SEIHIN
  6
CONTINUOUS
 62
     3
 48
5.0
100
AcDbLine
 10
264.954794159787
 20
147.9894777235583
 30
0.0
 11
264.9544941597871
 21
167.5399777235583
 31
0.0
  0
LINE
  5
875
330
1A
100
AcDbEntity
  8
SEIHIN
  6
CONTINUOUS
 62
     3
 48
5.0
100
AcDbLine
 10
264.9544941597871
 20
147.9893777235582
 30
0.0
 11
264.9544941597871
 21
167.5399777235583
 31
0.0
  0
ARC
  5
876
330
1A
100
AcDbEntity
  8
SEIHIN
  6
CONTINUOUS
 62
     3
 48
5.0
100
AcDbCircle
 10
268.8874299245248
 20
189.0893237824644
 30
0.0
 40
20.00001003802188
100
AcDbArc
 50
184.7011085238924
 51
251.7953731426309
  0
ARC
  5
877
330
1A
100
AcDbEntity
  8
SEIHIN
  6
CONTINUOUS
 62
     3
 48
5.0
100
AcDbCircle
 10
276.0856143428786
 20
185.0266050941338
 30
0.0
 40
27.15803491518839
100
AcDbArc
 50
182.5606555865613
 51
213.6205199386453
  0
ARC
  5
878
330
1A
100
AcDbEntity
  8
SEIHIN
  6
CONTINUOUS
 62
     3
 48
5.0
100
AcDbCircle
 10
273.810191876694
 20
186.8121858149089
 30
0.0
 40
33.87101677378554
100
AcDbArc
 50
181.7344938297243
 51
209.7799133182756
  0
ARC
  5
879
330
1A
100
AcDbEntity
  8
SEIHIN
  6
CONTINUOUS
 62
     3
 48
5.0
100
AcDbCircle
 10
268.8874299245248
 20
189.0893237824644
 30
0.0
 40
20.00001003802188
100
AcDbArc
 50
175.2957373280884
 51
175.2986788466207
  0
ARC
  5
87A
330
1A
100
AcDbEntity
  8
SEIHIN
  6
CONTINUOUS
 62
     3
 48
5.0
100
AcDbCircle
 10
264.954931054784
 20
169.9894388839951
 30
0.0
 40
2.000037392397544
100
AcDbArc
 50
188.6024593059535
 51
258.4534092942723
  0
ARC
  5
87B
330
1A
100
AcDbEntity
  8
SEIHIN
  6
CONTINUOUS
 62
     3
 48
5.0
100
AcDbCircle
 10
264.4544831500295
 20
167.5399912103882
 30
0.0
 40
0.5000110099394477
100
AcDbArc
 50
359.9984545571722
 51
78.45031539832736
  0
ARC
  5
87C
330
1A
100
AcDbEntity
  8
SEIHIN
  6
CONTINUOUS
 62
     3
 48
5.0
100
AcDbCircle
 10
262.4830544974301
 20
169.6154063193865
 30
0.0
 40
0.4999774284321975
100
AcDbArc
 50
8.612413971237323
 51
71.80250272895388
  0
LINE
  5
87D
330
1A
100
AcDbEntity
  8
SEIHIN
  6
CONTINUOUS
 62
     3
 48
5.0
100
AcDbLine
 10
262.8147893516664
 20
169.9894777235685
 30
0.0
 11
262.8147941597871
 21
169.9894777235582
 31
0.0
  0
LINE
  5
87E
330
1A
100
AcDbEntity
  8
SEIHIN
  6
CONTINUOUS
 62
     3
 48
5.0
100
AcDbLine
 10
182.954894159787
 20
289.9895777235584
 30
0.0
 11
248.9548941597868
 21
289.9895777235584
 31
0.0
  0
LINE
  5
87F
330
1A
100
AcDbEntity
  8
CENTER_L
  6
CENTER
 62
     1
 48
5.0
100
AcDbLine
 10
215.954894159787
 20
437.9009538596666
 30
0.0
 11
157.403194159787
 21
437.9010538596666
 31
0.0
  0
ARC
  5
880
330
1A
100
AcDbEntity
  8
SEIHIN
  6
CONTINUOUS
 62
     3
 48
5.0
100
AcDbCircle
 10
215.9548941597358
 20
437.9009538597176
 30
0.0
 40
49.00000000005093
100
AcDbArc
 50
179.9998830698973
 51
270.0000000000585
  0
ARC
  5
881
330
1A
100
AcDbEntity
  8
SEIHIN
  6
CONTINUOUS
 62
     3
 48
5.0
100
AcDbCircle
 10
215.954894159787
 20
437.9009538596666
 30
0.0
 40
49.00000000010204
100
AcDbArc
 50
89.99988306983935
 51
179.9998830698377
  0
ARC
  5
882
330
1A
100
AcDbEntity
  8
SEIHIN
  6
CONTINUOUS
 62
     3
 48
5.0
100
AcDbCircle
 10
215.9548941597872
 20
437.9009538596666
 30
0.0
 40
47.00000000010644
100
AcDbArc
 50
89.99987809408313
 51
179.9998780940861
  0
ARC
  5
883
330
1A
100
AcDbEntity
  8
SEIHIN
  6
CONTINUOUS
 62
     3
 48
5.0
100
AcDbCircle
 10
215.9548941597358
 20
437.9009538597176
 30
0.0
 40
49.00000000005096
100
AcDbArc
 50
359.9999999999401
 51
89.99988306978073
  0
ARC
  5
884
330
1A
100
AcDbEntity
  8
SEIHIN
  6
CONTINUOUS
 62
     3
 48
5.0
100
AcDbCircle
 10
215.9548941597336
 20
437.9009538597199
 30
0.0
 40
47.00000000005318
100
AcDbArc
 50
359.9999999999348
 51
89.99987809401799
  0
LINE
  5
885
330
1A
100
AcDbEntity
  8
CENTER_L
  6
CENTER
 62
     1
 48
5.0
100
AcDbLine
 10
215.954894159787
 20
437.9009538596666
 30
0.0
 11
215.954994159787
 21
496.9212538596667
 31
0.0
  0
ARC
  5
886
330
1A
100
AcDbEntity
  8
SEIHIN
  6
CONTINUOUS
 62
     3
 48
5.0
100
AcDbCircle
 10
215.9548941597338
 20
437.9009538597198
 30
0.0
 40
47.00000000005309
100
AcDbArc
 50
179.9998780941509
 51
270.0000000000651
  0
LINE
  5
887
330
1A
100
AcDbEntity
  8
CENTER_L
  6
CENTER
 62
     1
 48
5.0
100
AcDbLine
 10
215.954894159787
 20
437.9009538596666
 30
0.0
 11
215.954894159787
 21
378.1089538596666
 31
0.0
  0
ARC
  5
888
330
1A
100
AcDbEntity
  8
SEIHIN
  6
CONTINUOUS
 62
     3
 48
5.0
100
AcDbCircle
 10
215.9548941598379
 20
437.9009538597176
 30
0.0
 40
49.00000000005096
100
AcDbArc
 50
269.9999999999413
 51
359.9998830697778
  0
ARC
  5
889
330
1A
100
AcDbEntity
  8
SEIHIN
  6
CONTINUOUS
 62
     3
 48
5.0
100
AcDbCircle
 10
215.9548941598402
 20
437.9009538597198
 30
0.0
 40
47.00000000005312
100
AcDbArc
 50
269.9999999999348
 51
359.9998780940212
  0
LINE
  5
88A
330
1A
100
AcDbEntity
  8
SEIHIN
  6
CONTINUOUS
 62
     3
 48
5.0
100
AcDbLine
 10
237.9319820773535
 20
405.9008538592665
 30
0.0
 11
193.9778941597869
 21
405.9010538596667
 31
0.0
  0
LINE
  5
88B
330
1A
100
AcDbEntity
  8
CENTER_L
  6
CENTER
 62
     1
 48
5.0
100
AcDbLine
 10
215.954894159787
 20
437.9009538596666
 30
0.0
 11
276.180194159787
 21
437.9009538596666
 31
0.0
  0
ARC
  5
88C
330
1A
100
AcDbEntity
  8
SEIHIN
  6
CONTINUOUS
 62
     3
 48
5.0
100
AcDbCircle
 10
215.9548941597868
 20
437.9009538596666
 30
0.0
 40
24.99999999999997
100
AcDbArc
 50
359.9999999999997
 51
90.0
  0
ARC
  5
88D
330
1A
100
AcDbEntity
  8
SEIHIN
  6
CONTINUOUS
 62
     3
 48
5.0
100
AcDbCircle
 10
215.954894159787
 20
437.9009538596666
 30
0.0
 40
24.99999999999991
100
AcDbArc
 50
270.0
 51
359.9999999999997
  0
LINE
  5
88E
330
1A
100
AcDbEntity
  8
SEIHIN
  6
CONTINUOUS
 62
     3
 48
5.0
100
AcDbLine
 10
234.296294218858
 20
411.1010538596667
 30
0.0
 11
197.6135941597872
 21
411.1010538596667
 31
0.0
  0
LINE
  5
88F
330
1A
100
AcDbEntity
  8
SEIHIN
  6
CONTINUOUS
 62
     3
 48
5.0
100
AcDbLine
 10
236.2511963191786
 20
407.5510538596668
 30
0.0
 11
195.658694159787
 21
407.5510538596668
 31
0.0
  0
LINE
  5
890
330
1A
100
AcDbEntity
  8
SEIHIN
  6
CONTINUOUS
 62
     3
 48
5.0
100
AcDbLine
 10
237.9321010693702
 20
469.9009538596667
 30
0.0
 11
193.9778941597869
 21
469.9009538596667
 31
0.0
  0
LINE
  5
891
330
1A
100
AcDbEntity
  8
SEIHIN
  6
CONTINUOUS
 62
     3
 48
5.0
100
AcDbLine
 10
236.2512824969794
 20
468.2509538596666
 30
0.0
 11
195.658694159787
 21
468.2509538596666
 31
0.0
  0
LINE
  5
892
330
1A
100
AcDbEntity
  8
SEIHIN
  6
CONTINUOUS
 62
     3
 48
5.0
100
AcDbLine
 10
234.2962938146006
 20
464.7009538596668
 30
0.0
 11
197.6135941597872
 21
464.7009538596668
 31
0.0
  0
ARC
  5
893
330
1A
100
AcDbEntity
  8
SEIHIN
  6
CONTINUOUS
 62
     3
 48
5.0
100
AcDbCircle
 10
215.954894159687
 20
437.9009538597666
 30
0.0
 40
25.00000000009995
100
AcDbArc
 50
179.9997708171111
 51
270.000000000228
  0
LINE
  5
894
330
1A
100
AcDbEntity
  8
SEIHIN
  6
CONTINUOUS
 62
     3
 48
5.0
100
AcDbLine
 10
189.1548941597871
 20
419.5597879631493
 30
0.0
 11
189.1548941597871
 21
456.2423538596667
 31
0.0
  0
LINE
  5
895
330
1A
100
AcDbEntity
  8
SEIHIN
  6
CONTINUOUS
 62
     3
 48
5.0
100
AcDbLine
 10
183.9547948684407
 20
415.8582757207451
 30
0.0
 11
183.954994159787
 21
460.1011538596667
 31
0.0
  0
LINE
  5
896
330
1A
100
AcDbEntity
  8
SEIHIN
  6
CONTINUOUS
 62
     3
 48
5.0
100
AcDbLine
 10
185.6047949764411
 20
417.6047690156952
 30
0.0
 11
185.6049941597871
 21
458.3644538596668
 31
0.0
  0
ARC
  5
897
330
1A
100
AcDbEntity
  8
SEIHIN
  6
CONTINUOUS
 62
     3
 48
5.0
100
AcDbCircle
 10
183.9548441595511
 20
405.9010038594307
 30
0.0
 40
14.00006442819989
100
AcDbArc
 50
24.41465716394216
 51
65.58534283605758
  0
LINE
  5
898
330
1A
100
AcDbEntity
  8
SEIHIN
  6
CONTINUOUS
 62
     3
 48
5.0
100
AcDbLine
 10
192.954894159787
 20
405.9009538596666
 30
0.0
 11
187.5269941597871
 21
400.4730538596666
 31
0.0
  0
ARC
  5
899
330
1A
100
AcDbEntity
  8
SEIHIN
  6
CONTINUOUS
 62
     3
 48
5.0
100
AcDbCircle
 10
184.0278525516416
 20
405.9012945333452
 30
0.0
 40
9.00003033609307
100
AcDbArc
 50
5.73761117976005
 51
84.68139283216348
  0
ARC
  5
89A
330
1A
100
AcDbEntity
  8
SEIHIN
  6
CONTINUOUS
 62
     3
 48
5.0
100
AcDbCircle
 10
183.9549144437485
 20
405.9009336889336
 30
0.0
 40
11.00006307506227
100
AcDbArc
 50
12.75819472533888
 51
77.2426696652624
  0
LINE
  5
89B
330
1A
100
AcDbEntity
  8
SEIHIN
  6
CONTINUOUS
 62
     3
 48
5.0
100
AcDbLine
 10
183.954894159787
 20
414.9009538596667
 30
0.0
 11
178.5269941597871
 21
409.4730538596667
 31
0.0
  0
ARC
  5
89C
330
1A
100
AcDbEntity
  8
SEIHIN
  6
CONTINUOUS
 62
     3
 48
5.0
100
AcDbCircle
 10
190.1548509429194
 20
419.5597209378256
 30
0.0
 40
0.9999567853821453
100
AcDbArc
 50
180.003843461496
 51
245.5892905848862
  0
LINE
  5
89D
330
1A
100
AcDbEntity
  8
SEIHIN
  6
CONTINUOUS
 62
     3
 48
5.0
100
AcDbLine
 10
185.6048941597871
 20
416.7765538596667
 30
0.0
 11
189.2617941597868
 21
419.1099538596668
 31
0.0
  0
ARC
  5
89E
330
1A
100
AcDbEntity
  8
SEIHIN
  6
CONTINUOUS
 62
     3
 48
5.0
100
AcDbCircle
 10
184.9547948684305
 20
415.8582712162609
 30
0.0
 40
1.0
100
AcDbArc
 50
179.9997419120667
 51
264.6813928321634
  0
ARC
  5
89F
330
1A
100
AcDbEntity
  8
SEIHIN
  6
CONTINUOUS
 62
     3
 48
5.0
100
AcDbCircle
 10
186.6047949764292
 20
417.6047641289217
 30
0.0
 40
1.0
100
AcDbArc
 50
179.9997200085048
 51
257.2426696652623
  0
ARC
  5
8A0
330
1A
100
AcDbEntity
  8
SEIHIN
  6
CONTINUOUS
 62
     3
 48
5.0
100
AcDbCircle
 10
193.9778872502038
 20
406.9010601096277
 30
0.0
 40
1.000006249984822
100
AcDbArc
 50
185.7394943855591
 51
270.00039588747
  0
ARC
  5
8A1
330
1A
100
AcDbEntity
  8
SEIHIN
  6
CONTINUOUS
 62
     3
 48
5.0
100
AcDbCircle
 10
195.6587058225945
 20
408.5510445420799
 30
0.0
 40
0.9999906824811144
100
AcDbArc
 50
192.7555986636291
 51
269.9993317641236
  0
ARC
  5
8A2
330
1A
100
AcDbEntity
  8
SEIHIN
  6
CONTINUOUS
 62
     3
 48
5.0
100
AcDbCircle
 10
197.6135905706596
 20
412.1010561721614
 30
0.0
 40
1.000002312501085
100
AcDbArc
 50
204.4123902896722
 51
270.00020564138
  0
LINE
  5
8A3
330
1A
100
AcDbEntity
  8
SEIHIN
  6
CONTINUOUS
 62
     3
 48
5.0
100
AcDbLine
 10
194.8304941597871
 20
407.5509538596667
 30
0.0
 11
197.1638941597871
 21
411.2077538596667
 31
0.0
  0
ARC
  5
8A4
330
1A
100
AcDbEntity
  8
SEIHIN
  6
CONTINUOUS
 62
     3
 48
5.0
100
AcDbCircle
 10
183.9550357220255
 20
469.901095421634
 30
0.0
 40
13.99997756560997
100
AcDbArc
 50
294.4139575620619
 51
335.5852193941835
  0
ARC
  5
8A5
330
1A
100
AcDbEntity
  8
SEIHIN
  6
CONTINUOUS
 62
     3
 48
5.0
100
AcDbCircle
 10
184.0279568620144
 20
469.9007173999594
 30
0.0
 40
9.000026468598807
100
AcDbArc
 50
274.4361655939333
 51
354.2623593844255
  0
ARC
  5
8A6
330
1A
100
AcDbEntity
  8
SEIHIN
  6
CONTINUOUS
 62
     3
 48
5.0
100
AcDbCircle
 10
183.9550145245912
 20
469.9010741107905
 30
0.0
 40
10.9999654829164
100
AcDbArc
 50
282.4373263349077
 51
347.2416897454225
  0
ARC
  5
8A7
330
1A
100
AcDbEntity
  8
SEIHIN
  6
CONTINUOUS
 62
     3
 48
5.0
100
AcDbCircle
 10
215.954894159687
 20
437.9009538595666
 30
0.0
 40
25.00000000009999
100
AcDbArc
 50
89.99999999977202
 51
179.9997708166527
  0
LINE
  5
8A8
330
1A
100
AcDbEntity
  8
SEIHIN
  6
CONTINUOUS
 62
     3
 48
5.0
100
AcDbLine
 10
192.954994159787
 20
469.9010538596667
 30
0.0
 11
187.5270941597871
 21
475.3290538596665
 31
0.0
  0
ARC
  5
8A9
330
1A
100
AcDbEntity
  8
SEIHIN
  6
CONTINUOUS
 62
     3
 48
5.0
100
AcDbCircle
 10
186.604995884784
 20
458.1973560190585
 30
0.0
 40
1.000001724999308
100
AcDbArc
 50
102.7619787655684
 51
180.0001237238219
  0
ARC
  5
8AA
330
1A
100
AcDbEntity
  8
SEIHIN
  6
CONTINUOUS
 62
     3
 48
5.0
100
AcDbCircle
 10
190.1548964722817
 20
456.2423574487942
 30
0.0
 40
1.000002312501087
100
AcDbArc
 50
114.4123902896794
 51
180.0002056413798
  0
LINE
  5
8AB
330
1A
100
AcDbEntity
  8
SEIHIN
  6
CONTINUOUS
 62
     3
 48
5.0
100
AcDbLine
 10
185.6049941597871
 20
459.0255538596665
 30
0.0
 11
189.2617941597868
 21
456.6920538596666
 31
0.0
  0
LINE
  5
8AC
330
1A
100
AcDbEntity
  8
SEIHIN
  6
CONTINUOUS
 62
     3
 48
5.0
100
AcDbLine
 10
183.954994159787
 20
460.9010538596667
 30
0.0
 11
178.5269941597871
 21
466.3290538596665
 31
0.0
  0
ARC
  5
8AD
330
1A
100
AcDbEntity
  8
SEIHIN
  6
CONTINUOUS
 62
     3
 48
5.0
100
AcDbCircle
 10
184.9549971047783
 20
459.9438570915731
 30
0.0
 40
1.000002944996524
100
AcDbArc
 50
95.31910903392224
 51
180.0001851740587
  0
LINE
  5
8AE
330
1A
100
AcDbEntity
  8
SEIHIN
  6
CONTINUOUS
 62
     3
 48
5.0
100
AcDbLine
 10
194.8304941597871
 20
468.2510538596667
 30
0.0
 11
197.1638941597871
 21
464.5942538596666
 31
0.0
  0
ARC
  5
8AF
330
1A
100
AcDbEntity
  8
SEIHIN
  6
CONTINUOUS
 62
     3
 48
5.0
100
AcDbCircle
 10
197.6135584907319
 20
463.7009308801948
 30
0.0
 40
1.00002298010809
100
AcDbArc
 50
89.99795636063881
 51
155.5805546225553
  0
ARC
  5
8B0
330
1A
100
AcDbEntity
  8
SEIHIN
  6
CONTINUOUS
 62
     3
 48
5.0
100
AcDbCircle
 10
195.6587058225945
 20
467.2509631772535
 30
0.0
 40
0.9999906824811242
100
AcDbArc
 50
90.00066823588287
 51
167.244401336371
  0
ARC
  5
8B1
330
1A
100
AcDbEntity
  8
SEIHIN
  6
CONTINUOUS
 62
     3
 48
5.0
100
AcDbCircle
 10
193.9778872502038
 20
468.9009476097058
 30
0.0
 40
1.000006249984832
100
AcDbArc
 50
89.99960411252992
 51
174.2605056144408
  0
LINE
  5
8B2
330
1A
100
AcDbEntity
  8
SEIHIN
  6
CONTINUOUS
 62
     3
 48
5.0
100
AcDbLine
 10
247.954994159787
 20
459.9437570915731
 30
0.0
 11
247.954994159787
 21
415.7008538596667
 31
0.0
  0
LINE
  5
8B3
330
1A
100
AcDbEntity
  8
SEIHIN
  6
CONTINUOUS
 62
     3
 48
5.0
100
AcDbLine
 10
246.3049941597871
 20
458.1972421968591
 30
0.0
 11
246.3049941597871
 21
417.4375538596668
 31
0.0
  0
LINE
  5
8B4
330
1A
100
AcDbEntity
  8
SEIHIN
  6
CONTINUOUS
 62
     3
 48
5.0
100
AcDbLine
 10
242.7549941597872
 20
456.242357448794
 30
0.0
 11
242.7549941597872
 21
419.5596538596667
 31
0.0
  0
ARC
  5
8B5
330
1A
100
AcDbEntity
  8
SEIHIN
  6
CONTINUOUS
 62
     3
 48
5.0
100
AcDbCircle
 10
247.9550857223835
 20
405.9010454219938
 30
0.0
 40
14.00004376163176
100
AcDbArc
 50
114.4148823566472
 51
155.585940687107
  0
ARC
  5
8B6
330
1A
100
AcDbEntity
  8
SEIHIN
  6
CONTINUOUS
 62
     3
 48
5.0
100
AcDbCircle
 10
247.8819760114656
 20
405.9012361191107
 30
0.0
 40
9.000076218016907
100
AcDbArc
 50
94.4357869848056
 51
174.2630746123028
  0
ARC
  5
8B7
330
1A
100
AcDbEntity
  8
SEIHIN
  6
CONTINUOUS
 62
     3
 48
5.0
100
AcDbCircle
 10
247.9549738758255
 20
405.9009336889337
 30
0.0
 40
11.00006307506214
100
AcDbArc
 50
102.4372146562037
 51
167.2418052746617
  0
LINE
  5
8B8
330
1A
100
AcDbEntity
  8
SEIHIN
  6
CONTINUOUS
 62
     3
 48
5.0
100
AcDbLine
 10
247.954994159787
 20
414.9009538596667
 30
0.0
 11
253.3828941597871
 21
409.4730538596667
 31
0.0
  0
LINE
  5
8B9
330
1A
100
AcDbEntity
  8
SEIHIN
  6
CONTINUOUS
 62
     3
 48
5.0
100
AcDbLine
 10
238.954994159787
 20
405.9009538596666
 30
0.0
 11
244.3828941597871
 21
400.4730538596666
 31
0.0
  0
ARC
  5
8BA
330
1A
100
AcDbEntity
  8
SEIHIN
  6
CONTINUOUS
 62
     3
 48
5.0
100
AcDbCircle
 10
236.2511963191786
 20
408.5510555846639
 30
0.0
 40
1.000001724999436
100
AcDbArc
 50
269.9998762761729
 51
347.2380212344216
  0
ARC
  5
8BB
330
1A
100
AcDbEntity
  8
SEIHIN
  6
CONTINUOUS
 62
     3
 48
5.0
100
AcDbCircle
 10
237.931986627565
 20
406.9008538592561
 30
0.0
 40
1.0
100
AcDbArc
 50
269.9997392920761
 51
354.2630746123027
  0
ARC
  5
8BC
330
1A
100
AcDbEntity
  8
SEIHIN
  6
CONTINUOUS
 62
     3
 48
5.0
100
AcDbCircle
 10
234.2963298288423
 20
412.1010768391387
 30
0.0
 40
1.000022980108033
100
AcDbArc
 50
269.9979563606323
 51
335.5805546225519
  0
LINE
  5
8BD
330
1A
100
AcDbEntity
  8
SEIHIN
  6
CONTINUOUS
 62
     3
 48
5.0
100
AcDbLine
 10
237.0793941597869
 20
407.5509538596667
 30
0.0
 11
234.7459941597871
 21
411.2077538596667
 31
0.0
  0
ARC
  5
8BE
330
1A
100
AcDbEntity
  8
SEIHIN
  6
CONTINUOUS
 62
     3
 48
5.0
100
AcDbCircle
 10
246.9549912147956
 20
415.8582506277601
 30
0.0
 40
1.000002944996635
100
AcDbArc
 50
275.3191090339222
 51
0.000185174058775
  0
LINE
  5
8BF
330
1A
100
AcDbEntity
  8
SEIHIN
  6
CONTINUOUS
 62
     3
 48
5.0
100
AcDbLine
 10
246.3049941597871
 20
416.7765538596667
 30
0.0
 11
242.6480941597869
 21
419.1099538596668
 31
0.0
  0
ARC
  5
8C0
330
1A
100
AcDbEntity
  8
SEIHIN
  6
CONTINUOUS
 62
     3
 48
5.0
100
AcDbCircle
 10
241.7549918472923
 20
419.5596502705394
 30
0.0
 40
1.000002312501255
100
AcDbArc
 50
294.4123902896723
 51
0.0002056413751582
  0
ARC
  5
8C1
330
1A
100
AcDbEntity
  8
SEIHIN
  6
CONTINUOUS
 62
     3
 48
5.0
100
AcDbCircle
 10
245.3050034773739
 20
417.6046655224743
 30
0.0
 40
0.9999906824812113
100
AcDbArc
 50
282.7555986636232
 51
359.9993317641181
  0
ARC
  5
8C2
330
1A
100
AcDbEntity
  8
SEIHIN
  6
CONTINUOUS
 62
     3
 48
5.0
100
AcDbCircle
 10
247.9549737949828
 20
469.9009741107905
 30
0.0
 40
10.9999654829164
100
AcDbArc
 50
192.7583102545774
 51
257.5626736650923
  0
ARC
  5
8C3
330
1A
100
AcDbEntity
  8
SEIHIN
  6
CONTINUOUS
 62
     3
 48
5.0
100
AcDbCircle
 10
247.9550357217542
 20
469.9009122974283
 30
0.0
 40
13.99997756561012
100
AcDbArc
 50
204.4139575620591
 51
245.585219394185
  0
ARC
  5
8C4
330
1A
100
AcDbEntity
  8
SEIHIN
  6
CONTINUOUS
 62
     3
 48
5.0
100
AcDbCircle
 10
245.3050034773739
 20
458.1972421968591
 30
0.0
 40
0.9999906824811597
100
AcDbArc
 50
0.0006682358851102
 51
77.2444013363768
  0
ARC
  5
8C5
330
1A
100
AcDbEntity
  8
SEIHIN
  6
CONTINUOUS
 62
     3
 48
5.0
100
AcDbCircle
 10
241.7549918472923
 20
456.242357448794
 30
0.0
 40
1.000002312501184
100
AcDbArc
 50
359.9997943586297
 51
65.58760971032779
  0
LINE
  5
8C6
330
1A
100
AcDbEntity
  8
SEIHIN
  6
CONTINUOUS
 62
     3
 48
5.0
100
AcDbLine
 10
246.3049941597871
 20
459.0254538596667
 30
0.0
 11
242.6481941597872
 21
456.6920538596666
 31
0.0
  0
ARC
  5
8C7
330
1A
100
AcDbEntity
  8
SEIHIN
  6
CONTINUOUS
 62
     3
 48
5.0
100
AcDbCircle
 10
247.8819814703151
 20
469.9006662641592
 30
0.0
 40
8.999971619680545
100
AcDbArc
 50
185.7373485193759
 51
265.5641265022651
  0
LINE
  5
8C8
330
1A
100
AcDbEntity
  8
SEIHIN
  6
CONTINUOUS
 62
     3
 48
5.0
100
AcDbLine
 10
238.954994159787
 20
469.9010538596667
 30
0.0
 11
244.3828941597871
 21
475.3289538596667
 31
0.0
  0
LINE
  5
8C9
330
1A
100
AcDbEntity
  8
SEIHIN
  6
CONTINUOUS
 62
     3
 48
5.0
100
AcDbLine
 10
237.0793941597869
 20
468.2510538596667
 30
0.0
 11
234.7459941597871
 21
464.5942538596666
 31
0.0
  0
ARC
  5
8CA
330
1A
100
AcDbEntity
  8
SEIHIN
  6
CONTINUOUS
 62
     3
 48
5.0
100
AcDbCircle
 10
234.2963298288423
 20
463.7009308801948
 30
0.0
 40
1.000022980108065
100
AcDbArc
 50
24.41944537744352
 51
90.00204363936118
  0
ARC
  5
8CB
330
1A
100
AcDbEntity
  8
SEIHIN
  6
CONTINUOUS
 62
     3
 48
5.0
100
AcDbCircle
 10
236.2512824969794
 20
467.2509631772536
 30
0.0
 40
0.9999906824810741
100
AcDbArc
 50
12.75559866362658
 51
89.99933176411714
  0
ARC
  5
8CC
330
1A
100
AcDbEntity
  8
SEIHIN
  6
CONTINUOUS
 62
     3
 48
5.0
100
AcDbCircle
 10
237.9321010693702
 20
468.9009476097058
 30
0.0
 40
1.000006249984842
100
AcDbArc
 50
5.739494385559106
 51
90.00039588747007
  0
ARC
  5
8CD
330
1A
100
AcDbEntity
  8
SEIHIN
  6
CONTINUOUS
 62
     3
 48
5.0
100
AcDbCircle
 10
246.9549912147956
 20
459.9437570915731
 30
0.0
 40
1.000002944996637
100
AcDbArc
 50
359.999814825941
 51
84.68089096607775
  0
LINE
  5
8CE
330
1A
100
AcDbEntity
  8
SEIHIN
  6
CONTINUOUS
 62
     3
 48
5.0
100
AcDbLine
 10
247.954994159787
 20
460.9009538596667
 30
0.0
 11
253.3828941597871
 21
466.3289538596667
 31
0.0
  0
LINE
  5
8CF
330
1A
100
AcDbEntity
  8
CENTER_L
  6
CENTER
 62
     1
 48
5.0
100
AcDbLine
 10
497.3680289203977
 20
139.5758777235583
 30
0.0
 11
497.3681289203978
 21
297.0112777235583
 31
0.0
  0
DIMENSION
  5
8D0
330
1A
100
AcDbEntity
  8
SUNPOU
100
AcDbDimension
  2
*D22
 10
523.6180342644997
 20
112.473519073009
 30
0.0
 11
497.3680342644946
 21
117.473519073009
 31
0.0
 70
    32
  1
φ<>
  3
STANDARD
100
AcDbAlignedDimension
 13
471.1180342644893
 23
147.9893777235582
 33
0.0
 14
523.6180342644997
 24
147.9893777235582
 34
0.0
100
AcDbRotatedDimension
1001
ACAD
1000
DSTYLE
1002
{
1070
    41
1040
7.0
1070
    42
1040
6.0
1070
    43
1040
14.0
1070
    44
1040
3.0
1070
    73
1070
     0
1070
    74
1070
     0
1070
    77
1070
     3
1070
   140
1040
6.0
1070
   141
1040
150.0
1070
   147
1040
2.0
1070
   172
1070
     1
1070
   173
1070
     1
1070
   176
1070
   256
1070
   177
1070
   256
1070
   178
1070
   256
1070
   271
1070
     0
1070
   272
1070
     0
1070
   341
1005
6D
1070
     6
1000
OPEN
1070
     7
1000
OPEN
1070
   371
1070
    -1
1070
   372
1070
    -1
1002
}
  0
DIMENSION
  5
8D1
330
1A
100
AcDbEntity
  8
SUNPOU
100
AcDbDimension
  2
*D23
 10
544.3679396085533
 20
95.78730815220541
 30
0.0
 11
497.3680342644756
 21
100.7873081522054
 31
0.0
 70
    32
  1
φ<>
  3
STANDARD
100
AcDbAlignedDimension
 13
450.3681289203978
 23
147.9893777235582
 33
0.0
 14
544.3679396085533
 24
147.9893180166489
 34
0.0
100
AcDbRotatedDimension
1001
ACAD
1000
DSTYLE
1002
{
1070
    41
1040
7.0
1070
    42
1040
6.0
1070
    43
1040
14.0
1070
    44
1040
3.0
1070
    73
1070
     0
1070
    74
1070
     0
1070
    77
1070
     3
1070
   140
1040
6.0
1070
   141
1040
150.0
1070
   147
1040
2.0
1070
   172
1070
     1
1070
   173
1070
     1
1070
   176
1070
   256
1070
   177
1070
   256
1070
   178
1070
   256
1070
   271
1070
     0
1070
   272
1070
     0
1070
   341
1005
6D
1070
     6
1000
OPEN
1070
     7
1000
OPEN
1070
   371
1070
    -1
1070
   372
1070
    -1
1002
}
  0
DIMENSION
  5
8D2
330
1A
100
AcDbEntity
  8
SUNPOU
 48
5.0
100
AcDbDimension
  2
*D24
 10
438.7094739628546
 20
199.9893777235584
 30
0.0
 11
433.7094739628546
 21
244.9893777235584
 31
0.0
 70
    32
  1
\U+203Ba<>
  3
STANDARD
100
AcDbAlignedDimension
 13
464.5181289203978
 23
289.9893777235583
 33
0.0
 14
464.5181289203978
 24
199.9893777235584
 34
0.0
 50
90.0
100
AcDbRotatedDimension
1001
ACAD
1000
DSTYLE
1002
{
1070
    41
1040
7.0
1070
    42
1040
6.0
1070
    43
1040
14.0
1070
    44
1040
3.0
1070
    73
1070
     0
1070
    74
1070
     0
1070
    77
1070
     3
1070
   140
1040
6.0
1070
   141
1040
150.0
1070
   147
1040
2.0
1070
   172
1070
     1
1070
   173
1070
     1
1070
   176
1070
     4
1070
   177
1070
     4
1070
   178
1070
     4
1070
   271
1070
     0
1070
   272
1070
     2
1070
     6
1000
OPEN
1070
     7
1000
OPEN
1002
}
  0
LINE
  5
8D3
330
1A
100
AcDbEntity
  8
SEIHIN
100
AcDbLine
 10
466.2681244602128
 20
289.9893777235583
 30
0.0
 11
467.2680482384739
 21
169.9893777235583
 31
0.0
  0
LINE
  5
8D4
330
1A
100
AcDbEntity
  8
SEIHIN
  6
CONTINUOUS
 62
     3
 48
5.0
100
AcDbLine
 10
464.5181289203978
 20
289.9893777235583
 30
0.0
 11
464.5181289203978
 21
189.1146777235583
 31
0.0
  0
LINE
  5
8D5
330
1A
100
AcDbEntity
  8
SEIHIN
  6
CONTINUOUS
 62
     3
 48
5.0
100
AcDbLine
 10
521.3681789203977
 20
289.9893777237624
 30
0.0
 11
521.3679810846287
 21
185.7867062567523
 31
0.0
  0
LINE
  5
8D6
330
1A
100
AcDbEntity
  8
SEIHIN
  6
CONTINUOUS
 62
     3
 48
5.0
100
AcDbLine
 10
530.3681789203976
 20
289.9893777237624
 30
0.0
 11
530.3679864087496
 21
186.2398451649662
 31
0.0
  0
LINE
  5
8D7
330
1A
100
AcDbEntity
  8
SEIHIN
100
AcDbLine
 10
476.2437407320642
 20
289.9893777235583
 30
0.0
 11
477.2436645103253
 21
169.9893777235583
 31
0.0
  0
LINE
  5
8D8
330
1A
100
AcDbEntity
  8
SEIHIN
  6
CONTINUOUS
 62
     3
 48
5.0
100
AcDbLine
 10
546.3680289203976
 20
147.9893777235582
 30
0.0
 11
448.3681289203977
 21
147.9893777235582
 31
0.0
  0
LINE
  5
8D9
330
1A
100
AcDbEntity
  8
SEIHIN
  6
CONTINUOUS
 62
     3
 48
5.0
100
AcDbLine
 10
467.2680482384739
 20
169.9893777235583
 30
0.0
 11
497.3681289203978
 21
169.9893777235583
 31
0.0
  0
LINE
  5
8DA
330
1A
100
AcDbEntity
  8
SEIHIN
  6
CONTINUOUS
 62
     3
 48
5.0
100
AcDbLine
 10
450.3681289203978
 20
147.9893777235582
 30
0.0
 11
450.3681289203978
 21
166.5252680367011
 31
0.0
  0
LINE
  5
8DB
330
1A
100
AcDbEntity
  8
SEIHIN
  6
CONTINUOUS
 62
     3
 48
5.0
100
AcDbLine
 10
448.3681289203977
 20
147.9893777235582
 30
0.0
 11
448.3681289203977
 21
167.5398777235583
 31
0.0
  0
LINE
  5
8DC
330
1A
100
AcDbEntity
  8
SEIHIN
100
AcDbLine
 10
471.1180471269076
 20
168.2393777235583
 30
0.0
 11
471.1180368052136
 21
151.9893777235581
 31
0.0
  0
LINE
  5
8DD
330
1A
100
AcDbEntity
  8
SEIHIN
100
AcDbLine
 10
473.118048238475
 20
169.9893777235583
 30
0.0
 11
473.1180342644895
 21
147.9893777235582
 31
0.0
  0
LINE
  5
8DE
330
1A
100
AcDbEntity
  8
SEIHIN
100
AcDbLine
 10
471.1180368052136
 20
151.9893777235582
 30
0.0
 11
472.1180342644893
 21
147.9893777235582
 31
0.0
  0
LINE
  5
8DF
330
1A
100
AcDbEntity
  8
SEIHIN
100
AcDbLine
 10
472.1180342644893
 20
147.9893777235582
 30
0.0
 11
473.1180342644895
 21
147.9893777235582
 31
0.0
  0
ARC
  5
8E0
330
1A
100
AcDbEntity
  8
SEIHIN
  6
CONTINUOUS
 62
     3
 48
5.0
100
AcDbCircle
 10
444.5181431347828
 20
189.1146972740042
 30
0.0
 40
19.99998578562451
100
AcDbArc
 50
287.9609969428475
 51
359.9999439920574
  0
LINE
  5
8E1
330
1A
100
AcDbEntity
  8
SEIHIN
  6
CONTINUOUS
 62
     3
 48
5.0
100
AcDbLine
 10
450.3681289203978
 20
166.5252680367011
 30
0.0
 11
471.1180460381374
 21
166.525268036701
 31
0.0
  0
ARC
  5
8E2
330
1A
100
AcDbEntity
  8
SEIHIN
  6
CONTINUOUS
 62
     3
 48
5.0
100
AcDbCircle
 10
444.5181431347828
 20
189.1146972740042
 30
0.0
 40
21.99998578562451
100
AcDbArc
 50
290.045504468405
 51
339.8512216725976
  0
LINE
  5
8E3
330
1A
100
AcDbEntity
  8
SEIHIN
  6
CONTINUOUS
 62
     3
 48
5.0
100
AcDbLine
 10
452.0589977841532
 20
168.4474554230762
 30
0.0
 11
465.2808271789244
 21
168.4474554230761
 31
0.0
  0
ARC
  5
8E4
330
1A
100
AcDbEntity
  8
SEIHIN
  6
CONTINUOUS
 62
     3
 48
5.0
100
AcDbCircle
 10
448.3681264192216
 20
169.9893750926771
 30
0.0
 40
2.000005962492334
100
AcDbArc
 50
281.5369972966482
 51
351.3586874962787
  0
ARC
  5
8E5
330
1A
100
AcDbEntity
  8
SEIHIN
  6
CONTINUOUS
 62
     3
 48
5.0
100
AcDbCircle
 10
448.8681299253958
 20
167.5398789544234
 30
0.0
 40
0.5000010049994278
100
AcDbArc
 50
101.5370530638521
 51
180.0001410464652
  0
ARC
  5
8E6
330
1A
100
AcDbEntity
  8
SEIHIN
  6
CONTINUOUS
 62
     3
 48
5.0
100
AcDbCircle
 10
448.3681264192216
 20
169.9893750926771
 30
0.0
 40
4.000005962492334
100
AcDbArc
 50
299.9999920597146
 51
337.3264983295659
  0
ARC
  5
8E7
330
1A
100
AcDbEntity
  8
SEIHIN
  6
CONTINUOUS
 62
     3
 48
5.0
100
AcDbCircle
 10
450.8397785752785
 20
169.6137361814237
 30
0.0
 40
0.50002783186045
100
AcDbArc
 50
107.9677808982455
 51
171.3571527189479
  0
LINE
  5
8E8
330
1A
100
AcDbEntity
  8
SEIHIN
100
AcDbLine
 10
465.1717592644764
 20
181.5366028344408
 30
0.0
 11
465.2825610275868
 21
168.2393777235583
 31
0.0
  0
LINE
  5
8E9
330
1A
100
AcDbEntity
  8
SEIHIN
  6
CONTINUOUS
 62
     3
 48
5.0
100
AcDbLine
 10
465.2825610275868
 20
168.2393777235583
 30
0.0
 11
471.1180471269076
 21
168.2393777235583
 31
0.0
  0
LINE
  5
8EA
330
1A
100
AcDbEntity
  8
SEIHIN
  6
CONTINUOUS
 62
     3
 48
5.0
100
AcDbLine
 10
546.3680789203976
 20
147.9892777237623
 30
0.0
 11
546.367778920398
 21
167.5397777237623
 31
0.0
  0
LINE
  5
8EB
330
1A
100
AcDbEntity
  8
SEIHIN
  6
CONTINUOUS
 62
     3
 48
5.0
100
AcDbLine
 10
497.3680469681178
 20
167.9893777236227
 30
0.0
 11
546.0868789203978
 21
167.9892777237623
 31
0.0
  0
LINE
  5
8EC
330
1A
100
AcDbEntity
  8
SEIHIN
  6
CONTINUOUS
 62
     3
 48
5.0
100
AcDbLine
 10
497.36804823848
 20
169.9893777236144
 30
0.0
 11
543.5646060003534
 21
169.9892791396212
 31
0.0
  0
ARC
  5
8ED
330
1A
100
AcDbEntity
  8
SEIHIN
  6
CONTINUOUS
 62
     3
 48
5.0
100
AcDbCircle
 10
550.3007146851355
 20
189.0891237826684
 30
0.0
 40
20.00001003802188
100
AcDbArc
 50
184.7011085239009
 51
251.7953731426309
  0
ARC
  5
8EE
330
1A
100
AcDbEntity
  8
SEIHIN
  6
CONTINUOUS
 62
     3
 48
5.0
100
AcDbCircle
 10
555.2234766373048
 20
186.8119858151129
 30
0.0
 40
33.87101677378554
100
AcDbArc
 50
181.7344938297243
 51
209.7799133182756
  0
ARC
  5
8EF
330
1A
100
AcDbEntity
  8
SEIHIN
  6
CONTINUOUS
 62
     3
 48
5.0
100
AcDbCircle
 10
557.4988991034892
 20
185.0264050943378
 30
0.0
 40
27.15803491518839
100
AcDbArc
 50
177.4394853906567
 51
213.6205199386453
  0
ARC
  5
8F0
330
1A
100
AcDbEntity
  8
SEIHIN
  6
CONTINUOUS
 62
     3
 48
5.0
100
AcDbCircle
 10
546.3682158153947
 20
169.9892388841991
 30
0.0
 40
2.000037392397544
100
AcDbArc
 50
188.6024593059535
 51
258.4534092942723
  0
ARC
  5
8F1
330
1A
100
AcDbEntity
  8
SEIHIN
  6
CONTINUOUS
 62
     3
 48
5.0
100
AcDbCircle
 10
545.8677679106403
 20
167.5397912105922
 30
0.0
 40
0.5000110099394477
100
AcDbArc
 50
359.9984545571722
 51
78.45031539832736
  0
ARC
  5
8F2
330
1A
100
AcDbEntity
  8
SEIHIN
  6
CONTINUOUS
 62
     3
 48
5.0
100
AcDbCircle
 10
543.8963392580411
 20
169.6152063195905
 30
0.0
 40
0.4999774284321975
100
AcDbArc
 50
8.612413971237323
 51
71.80250272895388
  0
LINE
  5
8F3
330
1A
100
AcDbEntity
  8
SEIHIN
  6
CONTINUOUS
 62
     3
 48
5.0
100
AcDbLine
 10
544.2280741122772
 20
169.9892777237725
 30
0.0
 11
544.2280789203977
 21
169.9892777237622
 31
0.0
  0
ARC
  5
8F4
330
1A
100
AcDbEntity
  8
SEIHIN
  6
CONTINUOUS
 62
     3
 48
5.0
100
AcDbCircle
 10
550.3007146851355
 20
189.0891237826684
 30
0.0
 40
20.00001003802188
100
AcDbArc
 50
175.2957373280884
 51
175.2986788466122
  0
LINE
  5
8F5
330
1A
100
AcDbEntity
  8
SEIHIN
  6
CONTINUOUS
 62
     3
 48
5.0
100
AcDbLine
 10
464.5181289203978
 20
289.9893777235583
 30
0.0
 11
497.3681289203978
 21
289.9893777235583
 31
0.0
  0
LINE
  5
8F6
330
1A
100
AcDbEntity
  8
SEIHIN
  6
CONTINUOUS
 62
     3
 48
5.0
100
AcDbLine
 10
530.2181289203977
 20
289.9893777235583
 30
0.0
 11
497.3681289203978
 21
289.9893777235583
 31
0.0
  0
VIEWPORT
  5
22
330
17
100
AcDbEntity
 67
     1
  8
0
100
AcDbViewport
 10
313.6808219178082
 20
148.5
 30
0.0
 40
627.3616438356165
 41
297.0
 68
     2
 69
     1
1001
ACAD
1000
MVIEW
1002
{
1070
    16
1010
0.0
1020
0.0
1030
0.0
1010
0.0
1020
0.0
1030
1.0
1040
0.0
1040
297.0
1040
313.6808219178082
1040
148.5
1040
50.0
1040
0.0
1040
0.0
1070
     0
1070
   100
1070
     1
1070
     0
1070
     0
1070
     0
1070
     0
1070
     0
1040
0.0
1040
0.0
1040
0.0
1040
1.0
1040
1.0
1040
10.0
1040
10.0
1070
     0
1002
{
1002
}
1002
}
  0
VIEWPORT
  5
64
330
17
100
AcDbEntity
 67
     1
  8
VIEWPORT
100
AcDbViewport
 10
210.0
 20
148.5
 30
0.0
 40
420.0
 41
297.0
 68
     1
 69
     2
1001
ACAD
1000
MVIEW
1002
{
1070
    16
1010
0.0
1020
0.0
1030
0.0
1010
0.0
1020
0.0
1030
1.0
1040
0.0
1040
605.8799999999998
1040
420.0
1040
297.0
1040
50.0
1040
0.0
1040
0.0
1070
     0
1070
   100
1070
     1
1070
     0
1070
     0
1070
     0
1070
     0
1070
     0
1040
0.0
1040
0.0
1040
0.0
1040
10.0
1040
10.0
1040
0.0
1040
0.0
1070
     0
1002
{
1002
}
1002
}
  0
ENDSEC
  0
SECTION
  2
OBJECTS
  0
DICTIONARY
  5
C
330
0
100
AcDbDictionary
  3
ACAD_GROUP
350
D
  3
ACAD_LAYOUT
350
5C0
  3
ACAD_MLINESTYLE
350
E
  3
ACAD_PLOTSETTINGS
350
5C1
1001
ACAD
1000
TREAT_AS_HARD
1070
     0
  0
DICTIONARY
  5
6DA
330
1A
100
AcDbDictionary
  3
ACAD_LAYOUTSELFREF
350
A40
1001
ACAD
1000
TREAT_AS_HARD
1070
     1
  0
DICTIONARY
  5
6D8
330
17
100
AcDbDictionary
  3
ACAD_LAYOUTSELFREF
350
A3F
1001
ACAD
1000
TREAT_AS_HARD
1070
     1
  0
DICTIONARY
  5
D
102
{ACAD_REACTORS
330
C
102
}
330
C
100
AcDbDictionary
1001
ACAD
1000
TREAT_AS_HARD
1070
     0
  0
DICTIONARY
  5
5C0
102
{ACAD_REACTORS
330
C
102
}
330
C
100
AcDbDictionary
1001
ACAD
1000
TREAT_AS_HARD
1070
     0
  0
DICTIONARY
  5
E
102
{ACAD_REACTORS
330
C
102
}
330
C
100
AcDbDictionary
  3
STANDARD
350
13
1001
ACAD
1000
TREAT_AS_HARD
1070
     0
  0
DICTIONARY
  5
5C1
102
{ACAD_REACTORS
330
C
102
}
330
C
100
AcDbDictionary
1001
ACAD
1000
TREAT_AS_HARD
1070
     0
  0
XRECORD
  5
A40
102
{ACAD_REACTORS
330
6DA
102
}
330
6DA
100
AcDbXrecord
340
1A
  0
XRECORD
  5
A3F
102
{ACAD_REACTORS
330
6D8
102
}
330
6D8
100
AcDbXrecord
340
17
  0
MLINESTYLE
  5
13
102
{ACAD_REACTORS
330
E
102
}
330
E
100
AcDbMlineStyle
  2
STANDARD
 70
     0
  3

 62
     0
 51
90.0
 52
90.0
 71
     2
 49
0.5
 62
   256
  6
BYLAYER
 49
-0.5
 62
   256
  6
BYLAYER
  0
ENDSEC
  0
EOF
