  0
SECTION
  2
HEADER
  9
$ACADVER
  1
AC1012
  9
$DWGCODEPAGE
  3
dos932
  9
$INSBASE
 10
0.0
 20
0.0
 30
0.0
  9
$EXTMIN
 10
10.05047808566086
 20
4.949376903717846
 30
0.0
  9
$EXTMAX
 10
806.2246110975902
 20
563.7825862828226
 30
0.0
  9
$LIMMIN
 10
0.0
 20
0.0
  9
$LIMMAX
 10
840.0
 20
594.0
  9
$ORTHOMODE
 70
     0
  9
$REGENMODE
 70
     1
  9
$FILLMODE
 70
     1
  9
$QTEXTMODE
 70
     0
  9
$MIRRTEXT
 70
     1
  9
$DRAGMODE
 70
     2
  9
$LTSCALE
 40
2.0
  9
$OSMODE
 70
    37
  9
$ATTMODE
 70
     1
  9
$TEXTSIZE
 40
5.0
  9
$TRACEWID
 40
1.0
  9
$TEXTSTYLE
  7
STANDARD
  9
$CLAYER
  8
ZUWAKU
  9
$CELTYPE
  6
BYLAYER
  9
$CECOLOR
 62
   256
  9
$CELTSCALE
 40
1.0
  9
$DELOBJ
 70
     1
  9
$DISPSILH
 70
     0
  9
$DIMSCALE
 40
1.0
  9
$DIMASZ
 40
7.0
  9
$DIMEXO
 40
6.0
  9
$DIMDLI
 40
14.0
  9
$DIMRND
 40
0.0
  9
$DIMDLE
 40
0.0
  9
$DIMEXE
 40
3.0
  9
$DIMTP
 40
0.0
  9
$DIMTM
 40
0.0
  9
$DIMTXT
 40
6.0
  9
$DIMCEN
 40
150.0
  9
$DIMTSZ
 40
0.0
  9
$DIMTOL
 70
     0
  9
$DIMLIM
 70
     0
  9
$DIMTIH
 70
     0
  9
$DIMTOH
 70
     0
  9
$DIMSE1
 70
     0
  9
$DIMSE2
 70
     0
  9
$DIMTAD
 70
     3
  9
$DIMZIN
 70
     0
  9
$DIMBLK
  1

  9
$DIMASO
 70
     1
  9
$DIMSHO
 70
     1
  9
$DIMPOST
  1

  9
$DIMAPOST
  1

  9
$DIMALT
 70
     0
  9
$DIMALTD
 70
     2
  9
$DIMALTF
 40
25.4
  9
$DIMLFAC
 40
1.0
  9
$DIMTOFL
 70
     1
  9
$DIMTVP
 40
0.0
  9
$DIMTIX
 70
     0
  9
$DIMSOXD
 70
     0
  9
$DIMSAH
 70
     1
  9
$DIMBLK1
  1
OPEN
  9
$DIMBLK2
  1
OPEN
  9
$DIMSTYLE
  2
STANDARD
  9
$DIMCLRD
 70
   256
  9
$DIMCLRE
 70
   256
  9
$DIMCLRT
 70
   256
  9
$DIMTFAC
 40
1.0
  9
$DIMGAP
 40
2.0
  9
$DIMJUST
 70
     0
  9
$DIMSD1
 70
     0
  9
$DIMSD2
 70
     0
  9
$DIMTOLJ
 70
     1
  9
$DIMTZIN
 70
     0
  9
$DIMALTZ
 70
     0
  9
$DIMALTTZ
 70
     0
  9
$DIMFIT
 70
     3
  9
$DIMUPT
 70
     0
  9
$DIMUNIT
 70
     2
  9
$DIMDEC
 70
     0
  9
$DIMTDEC
 70
     0
  9
$DIMALTU
 70
     2
  9
$DIMALTTD
 70
     2
  9
$DIMTXSTY
  7
STANDARD
  9
$DIMAUNIT
 70
     0
  9
$LUNITS
 70
     2
  9
$LUPREC
 70
     4
  9
$SKETCHINC
 40
1.0
  9
$FILLETRAD
 40
20.0
  9
$AUNITS
 70
     0
  9
$AUPREC
 70
     0
  9
$MENU
  1
.
  9
$ELEVATION
 40
0.0
  9
$PELEVATION
 40
0.0
  9
$THICKNESS
 40
0.0
  9
$LIMCHECK
 70
     0
  9
$BLIPMODE
 70
     0
  9
$CHAMFERA
 40
20.0
  9
$CHAMFERB
 40
20.0
  9
$CHAMFERC
 40
40.0
  9
$CHAMFERD
 40
0.0
  9
$SKPOLY
 70
     0
  9
$TDCREATE
 40
2450994.354346065
  9
$TDUPDATE
 40
2452393.845133472
  9
$TDINDWG
 40
0.0095802894
  9
$TDUSRTIMER
 40
0.0095802894
  9
$USRTIMER
 70
     1
  9
$ANGBASE
 50
0.0
  9
$ANGDIR
 70
     0
  9
$PDMODE
 70
     1
  9
$PDSIZE
 40
0.0
  9
$PLINEWID
 40
0.0
  9
$COORDS
 70
     1
  9
$SPLFRAME
 70
     0
  9
$SPLINETYPE
 70
     6
  9
$SPLINESEGS
 70
     8
  9
$ATTDIA
 70
     0
  9
$ATTREQ
 70
     1
  9
$HANDLING
 70
 10241
  9
$HANDSEED
  5
758
  9
$SURFTAB1
 70
     6
  9
$SURFTAB2
 70
     6
  9
$SURFTYPE
 70
     6
  9
$SURFU
 70
     6
  9
$SURFV
 70
     6
  9
$UCSNAME
  2

  9
$UCSORG
 10
0.0
 20
0.0
 30
0.0
  9
$UCSXDIR
 10
1.0
 20
0.0
 30
0.0
  9
$UCSYDIR
 10
0.0
 20
1.0
 30
0.0
  9
$PUCSNAME
  2

  9
$PUCSORG
 10
0.0
 20
0.0
 30
0.0
  9
$PUCSXDIR
 10
1.0
 20
0.0
 30
0.0
  9
$PUCSYDIR
 10
0.0
 20
1.0
 30
0.0
  9
$USERI1
 70
     0
  9
$USERI2
 70
     0
  9
$USERI3
 70
     0
  9
$USERI4
 70
     0
  9
$USERI5
 70
     0
  9
$USERR1
 40
0.0
  9
$USERR2
 40
0.0
  9
$USERR3
 40
0.0
  9
$USERR4
 40
0.0
  9
$USERR5
 40
0.0
  9
$WORLDVIEW
 70
     1
  9
$SHADEDGE
 70
     3
  9
$SHADEDIF
 70
    70
  9
$TILEMODE
 70
     1
  9
$MAXACTVP
 70
    16
  9
$PINSBASE
 10
0.0
 20
0.0
 30
0.0
  9
$PLIMCHECK
 70
     0
  9
$PEXTMIN
 10
0.0
 20
0.0
 30
0.0
  9
$PEXTMAX
 10
420.0
 20
297.0
 30
0.0
  9
$PLIMMIN
 10
0.0
 20
0.0
  9
$PLIMMAX
 10
420.0
 20
297.0
  9
$UNITMODE
 70
     0
  9
$VISRETAIN
 70
     0
  9
$PLINEGEN
 70
     0
  9
$PSLTSCALE
 70
     1
  9
$TREEDEPTH
 70
  3020
  9
$PICKSTYLE
 70
     1
  9
$CMLSTYLE
  2
STANDARD
  9
$CMLJUST
 70
     0
  9
$CMLSCALE
 40
1.0
  9
$SAVEIMAGES
 70
     1
  0
ENDSEC
  0
SECTION
  2
CLASSES
  0
CLASS
  1
ACDBDICTIONARYWDFLT
  2
AcDbDictionaryWithDefault
  3
AutoCAD 2000
 90
    32768
280
     0
281
     0
  0
CLASS
  1
ACDBPLACEHOLDER
  2
AcDbPlaceHolder
  3
AutoCAD 2000
 90
    32768
280
     0
281
     0
  0
CLASS
  1
LAYOUT
  2
AcDbLayout
  3
AutoCAD 2000
 90
    32768
280
     0
281
     0
  0
CLASS
  1
LONG_TRANSACTION
  2
AcDbLongTransaction
  3
AutoCAD 2000
 90
    32768
280
     0
281
     0
  0
CLASS
  1
LWPOLYLINE
  2
AcDbPolyline
  3
AutoCAD 2000
 90
    32768
280
     0
281
     1
  0
CLASS
  1
HATCH
  2
AcDbHatch
  3
AutoCAD 2000
 90
    32768
280
     0
281
     1
  0
CLASS
  1
XRECORD
  2
AcDbXrecord
  3
AutoCAD 2000
 90
    32768
280
     0
281
     0
  0
CLASS
  1
LONG_TRANSACTION
  2
AcDbLongTransaction
  3
AutoCAD 2000
 90
    32768
280
     0
281
     0
  0
CLASS
  1
LWPOLYLINE
  2
AcDbPolyline
  3
AutoCAD 2000
 90
    32768
280
     0
281
     1
  0
CLASS
  1
HATCH
  2
AcDbHatch
  3
AutoCAD 2000
 90
    32768
280
     0
281
     1
  0
CLASS
  1
XRECORD
  2
AcDbXrecord
  3
AutoCAD 2000
 90
    32768
280
     0
281
     0
  0
CLASS
  1
LONG_TRANSACTION
  2
AcDbLongTransaction
  3
AutoCAD 2000
 90
    32768
280
     0
281
     0
  0
CLASS
  1
LWPOLYLINE
  2
AcDbPolyline
  3
AutoCAD 2000
 90
    32768
280
     0
281
     1
  0
CLASS
  1
HATCH
  2
AcDbHatch
  3
AutoCAD 2000
 90
    32768
280
     0
281
     1
  0
CLASS
  1
XRECORD
  2
AcDbXrecord
  3
AutoCAD 2000
 90
    32768
280
     0
281
     0
  0
CLASS
  1
LONG_TRANSACTION
  2
AcDbLongTransaction
  3
AutoCAD 2000
 90
    32768
280
     0
281
     0
  0
CLASS
  1
LWPOLYLINE
  2
AcDbPolyline
  3
AutoCAD 2000
 90
    32768
280
     0
281
     1
  0
CLASS
  1
HATCH
  2
AcDbHatch
  3
AutoCAD 2000
 90
    32768
280
     0
281
     1
  0
CLASS
  1
XRECORD
  2
AcDbXrecord
  3
AutoCAD 2000
 90
    32768
280
     0
281
     0
  0
ENDSEC
  0
SECTION
  2
TABLES
  0
TABLE
  2
VPORT
  5
8
330
0
100
AcDbSymbolTable
 70
     2
  0
VPORT
  5
755
330
8
100
AcDbSymbolTableRecord
100
AcDbViewportTableRecord
  2
*ACTIVE
 70
     0
 10
0.0
 20
0.0
 11
1.0
 21
1.0
 12
548.9876368821089
 22
297.0
 13
0.0
 23
0.0
 14
5.0
 24
5.0
 15
0.0
 25
0.0
 16
0.0
 26
0.0
 36
1.0
 17
0.0
 27
0.0
 37
0.0
 40
600.75
 41
2.169459962756052
 42
50.0
 43
0.0
 44
0.0
 50
0.0
 51
0.0
 71
     0
 72
   100
 73
     1
 74
     0
 75
     0
 76
     0
 77
     0
 78
     0
  0
ENDTAB
  0
TABLE
  2
LTYPE
  5
5
330
0
100
AcDbSymbolTable
 70
     2
  0
LTYPE
  5
14
330
5
100
AcDbSymbolTableRecord
100
AcDbLinetypeTableRecord
  2
BYBLOCK
 70
     0
  3

 72
    65
 73
     0
 40
0.0
  0
LTYPE
  5
15
330
5
100
AcDbSymbolTableRecord
100
AcDbLinetypeTableRecord
  2
BYLAYER
 70
     0
  3

 72
    65
 73
     0
 40
0.0
  0
LTYPE
  5
16
330
5
100
AcDbSymbolTableRecord
100
AcDbLinetypeTableRecord
  2
CONTINUOUS
 70
     0
  3
Solid line
 72
    65
 73
     0
 40
0.0
  0
LTYPE
  5
135
330
5
100
AcDbSymbolTableRecord
100
AcDbLinetypeTableRecord
  2
CENTER
 70
     0
  3
____ _ ____ _ ____ _ ____ _ ____ _ ____ _ ____ 
 72
    65
 73
     4
 40
2.0
 49
1.25
 74
     0
 49
-0.25
 74
     0
 49
0.25
 74
     0
 49
-0.25
 74
     0
  0
ENDTAB
  0
TABLE
  2
LAYER
  5
2
330
0
100
AcDbSymbolTable
 70
     7
  0
LAYER
  5
F
330
2
100
AcDbSymbolTableRecord
100
AcDbLayerTableRecord
  2
0
 70
     0
 62
     7
  6
CONTINUOUS
  0
LAYER
  5
62
330
2
100
AcDbSymbolTableRecord
100
AcDbLayerTableRecord
  2
VIEWPORT
 70
     0
 62
     7
  6
CONTINUOUS
  0
LAYER
  5
65
330
2
100
AcDbSymbolTableRecord
100
AcDbLayerTableRecord
  2
ZUWAKU
 70
     0
 62
     7
  6
CONTINUOUS
  0
LAYER
  5
1D2
330
2
100
AcDbSymbolTableRecord
100
AcDbLayerTableRecord
  2
SEIHIN
 70
     0
 62
     3
  6
CONTINUOUS
  0
LAYER
  5
1D3
330
2
100
AcDbSymbolTableRecord
100
AcDbLayerTableRecord
  2
SUNPOU
 70
     0
 62
     4
  6
CONTINUOUS
  0
LAYER
  5
1D4
330
2
100
AcDbSymbolTableRecord
100
AcDbLayerTableRecord
  2
CENTER_L
 70
     0
 62
     1
  6
CENTER
  0
LAYER
  5
1D5
330
2
100
AcDbSymbolTableRecord
100
AcDbLayerTableRecord
  2
DEFPOINTS
 70
     0
 62
     7
  6
CONTINUOUS
  0
ENDTAB
  0
TABLE
  2
STYLE
  5
3
330
0
100
AcDbSymbolTable
 70
     1
  0
STYLE
  5
10
330
3
100
AcDbSymbolTableRecord
100
AcDbTextStyleTableRecord
  2
STANDARD
 70
     0
 40
0.0
 41
1.0
 50
0.0
 71
     0
 42
5.0
  3
TXT
  4
bigfont.shx
  0
ENDTAB
  0
TABLE
  2
VIEW
  5
6
330
0
100
AcDbSymbolTable
 70
     0
  0
ENDTAB
  0
TABLE
  2
UCS
  5
7
330
0
100
AcDbSymbolTable
 70
     0
  0
ENDTAB
  0
TABLE
  2
APPID
  5
9
330
0
100
AcDbSymbolTable
 70
     1
  0
APPID
  5
11
330
9
100
AcDbSymbolTableRecord
100
AcDbRegAppTableRecord
  2
ACAD
 70
     0
  0
ENDTAB
  0
TABLE
  2
DIMSTYLE
  5
A
330
0
100
AcDbSymbolTable
 70
     1
  0
DIMSTYLE
105
1D
102
{ACAD_REACTORS
330
279
330
27A
330
27B
330
28C
330
28D
330
2AE
330
2CB
330
2CC
330
2CD
330
2D3
102
}
330
A
100
AcDbSymbolTableRecord
100
AcDbDimStyleTableRecord
  2
STANDARD
 70
     0
  3

  4

  5

  6

  7

 40
1.0
 41
0.18
 42
0.0625
 43
0.38
 44
0.18
 45
0.0
 46
0.0
 47
0.0
 48
0.0
140
0.18
141
0.09
142
0.0
143
25.4
144
1.0
145
0.0
146
1.0
147
0.09
 71
     0
 72
     0
 73
     1
 74
     1
 75
     0
 76
     0
 77
     0
 78
     0
170
     0
171
     2
172
     0
173
     0
174
     0
175
     0
176
     0
177
     0
178
     0
270
     2
271
     4
272
     4
273
     2
274
     2
340
10
275
     0
280
     0
281
     0
282
     0
283
     1
284
     0
285
     0
286
     0
287
     3
288
     0
  0
ENDTAB
  0
TABLE
  2
BLOCK_RECORD
  5
1
330
0
100
AcDbSymbolTable
 70
    11
  0
BLOCK_RECORD
  5
1A
102
{ACAD_XDICTIONARY
360
685
102
}
330
1
100
AcDbSymbolTableRecord
100
AcDbBlockTableRecord
  2
*MODEL_SPACE
  0
BLOCK_RECORD
  5
17
102
{ACAD_XDICTIONARY
360
683
102
}
330
1
100
AcDbSymbolTableRecord
100
AcDbBlockTableRecord
  2
*PAPER_SPACE
  0
BLOCK_RECORD
  5
6D
330
1
100
AcDbSymbolTableRecord
100
AcDbBlockTableRecord
  2
_OPEN
  0
BLOCK_RECORD
  5
318
330
1
100
AcDbSymbolTableRecord
100
AcDbBlockTableRecord
  2
*D1
  0
BLOCK_RECORD
  5
324
330
1
100
AcDbSymbolTableRecord
100
AcDbBlockTableRecord
  2
*D2
  0
BLOCK_RECORD
  5
330
330
1
100
AcDbSymbolTableRecord
100
AcDbBlockTableRecord
  2
*D3
  0
BLOCK_RECORD
  5
33C
330
1
100
AcDbSymbolTableRecord
100
AcDbBlockTableRecord
  2
*D4
  0
BLOCK_RECORD
  5
348
330
1
100
AcDbSymbolTableRecord
100
AcDbBlockTableRecord
  2
*D5
  0
BLOCK_RECORD
  5
354
330
1
100
AcDbSymbolTableRecord
100
AcDbBlockTableRecord
  2
*D6
  0
BLOCK_RECORD
  5
360
330
1
100
AcDbSymbolTableRecord
100
AcDbBlockTableRecord
  2
*D7
  0
BLOCK_RECORD
  5
36C
330
1
100
AcDbSymbolTableRecord
100
AcDbBlockTableRecord
  2
*D8
  0
BLOCK_RECORD
  5
378
330
1
100
AcDbSymbolTableRecord
100
AcDbBlockTableRecord
  2
*D9
  0
BLOCK_RECORD
  5
384
330
1
100
AcDbSymbolTableRecord
100
AcDbBlockTableRecord
  2
*D10
  0
ENDTAB
  0
ENDSEC
  0
SECTION
  2
BLOCKS
  0
BLOCK
  5
1B
330
1A
100
AcDbEntity
  8
0
100
AcDbBlockBegin
  2
*MODEL_SPACE
 70
     0
 10
0.0
 20
0.0
 30
0.0
  3
*MODEL_SPACE
  1

  0
ENDBLK
  5
1C
330
1A
100
AcDbEntity
  8
0
100
AcDbBlockEnd
  0
BLOCK
  5
18
330
17
100
AcDbEntity
 67
     1
  8
0
100
AcDbBlockBegin
  2
*PAPER_SPACE
 70
     0
 10
0.0
 20
0.0
 30
0.0
  3
*PAPER_SPACE
  1

  0
ENDBLK
  5
19
330
17
100
AcDbEntity
 67
     1
  8
0
100
AcDbBlockEnd
  0
BLOCK
  5
6E
330
6D
100
AcDbEntity
  8
0
100
AcDbBlockBegin
  2
_OPEN
 70
     0
 10
0.0
 20
0.0
 30
0.0
  3
_OPEN
  1

  0
LINE
  5
6F
330
6D
100
AcDbEntity
  8
0
  6
BYBLOCK
 62
     0
100
AcDbLine
 10
-1.0
 20
0.1666666666666666
 30
0.0
 11
0.0
 21
0.0
 31
0.0
  0
LINE
  5
70
330
6D
100
AcDbEntity
  8
0
  6
BYBLOCK
 62
     0
100
AcDbLine
 10
0.0
 20
0.0
 30
0.0
 11
-1.0
 21
-0.1666666666666666
 31
0.0
  0
LINE
  5
71
330
6D
100
AcDbEntity
  8
0
  6
BYBLOCK
 62
     0
100
AcDbLine
 10
0.0
 20
0.0
 30
0.0
 11
-1.0
 21
0.0
 31
0.0
  0
ENDBLK
  5
72
330
6D
100
AcDbEntity
  8
0
100
AcDbBlockEnd
  0
BLOCK
  5
392
330
318
100
AcDbEntity
  8
0
100
AcDbBlockBegin
  2
*D1
 70
     1
 10
0.0
 20
0.0
 30
0.0
  3
*D1
  1

  0
LINE
  5
68D
330
318
100
AcDbEntity
  8
SUNPOU
100
AcDbLine
 10
422.776349629478
 20
160.2958705935481
 30
0.0
 11
422.776349629478
 21
109.7617582179493
 31
0.0
  0
LINE
  5
68E
330
318
100
AcDbEntity
  8
SUNPOU
100
AcDbLine
 10
487.4763496294779
 20
160.2958705935481
 30
0.0
 11
487.4763496294779
 21
109.7617582179493
 31
0.0
  0
LINE
  5
68F
330
318
100
AcDbEntity
  8
SUNPOU
100
AcDbLine
 10
429.7763496294781
 20
112.7617582179493
 30
0.0
 11
480.4763496294778
 21
112.7617582179493
 31
0.0
  0
INSERT
  5
690
330
318
100
AcDbEntity
  8
SUNPOU
100
AcDbBlockReference
  2
_OPEN
 10
422.776349629478
 20
112.7617582179493
 30
0.0
 41
7.0
 42
7.0
 43
7.0
 50
180.0
  0
INSERT
  5
691
330
318
100
AcDbEntity
  8
SUNPOU
100
AcDbBlockReference
  2
_OPEN
 10
487.4763496294779
 20
112.7617582179493
 30
0.0
 41
7.0
 42
7.0
 43
7.0
  0
MTEXT
  5
692
330
318
100
AcDbEntity
  8
SUNPOU
100
AcDbMText
 10
455.1263496294779
 20
117.7617582179493
 30
0.0
 40
6.0
 41
0.0
 71
     5
 72
     1
  1
\A1;□ 65
1001
ACAD
1000
MTEXTBEGIN
1070
    73
1070
     1
1070
    44
1040
1.0
1070
    74
1070
     0
1000
MTEXTEND
1000
MTEXTBEGIN
1070
    73
1070
     1
1070
    44
1040
1.0
1070
    74
1070
     0
1000
MTEXTEND
1000
MTEXTBEGIN
1070
    73
1070
     1
1070
    44
1040
1.0
1070
    74
1070
     0
1000
MTEXTEND
  0
POINT
  5
693
330
318
100
AcDbEntity
  8
DEFPOINTS
 62
     0
100
AcDbPoint
 10
422.776349629478
 20
166.2958705935481
 30
0.0
  0
POINT
  5
694
330
318
100
AcDbEntity
  8
DEFPOINTS
 62
     0
100
AcDbPoint
 10
487.4763496294779
 20
166.2958705935481
 30
0.0
  0
POINT
  5
695
330
318
100
AcDbEntity
  8
DEFPOINTS
 62
     0
100
AcDbPoint
 10
487.4763496294779
 20
112.7617582179493
 30
0.0
  0
ENDBLK
  5
39C
330
318
100
AcDbEntity
  8
0
100
AcDbBlockEnd
  0
BLOCK
  5
423
330
324
100
AcDbEntity
  8
0
100
AcDbBlockBegin
  2
*D2
 70
     1
 10
0.0
 20
0.0
 30
0.0
  3
*D2
  1

  0
LINE
  5
696
330
324
100
AcDbEntity
  8
SUNPOU
100
AcDbLine
 10
415.126449629478
 20
302.2958705935482
 30
0.0
 11
415.126449629478
 21
353.4508554408266
 31
0.0
  0
LINE
  5
697
330
324
100
AcDbEntity
  8
SUNPOU
100
AcDbLine
 10
562.1264496294781
 20
302.2958705935482
 30
0.0
 11
562.1264496294781
 21
353.4508554408266
 31
0.0
  0
LINE
  5
698
330
324
100
AcDbEntity
  8
SUNPOU
100
AcDbLine
 10
422.126449629478
 20
350.4508554408266
 30
0.0
 11
555.1264496294781
 21
350.4508554408266
 31
0.0
  0
INSERT
  5
699
330
324
100
AcDbEntity
  8
SUNPOU
100
AcDbBlockReference
  2
_OPEN
 10
415.126449629478
 20
350.4508554408266
 30
0.0
 41
7.0
 42
7.0
 43
7.0
 50
180.0
  0
INSERT
  5
69A
330
324
100
AcDbEntity
  8
SUNPOU
100
AcDbBlockReference
  2
_OPEN
 10
562.1264496294781
 20
350.4508554408266
 30
0.0
 41
7.0
 42
7.0
 43
7.0
  0
MTEXT
  5
69B
330
324
100
AcDbEntity
  8
SUNPOU
100
AcDbMText
 10
488.626449629478
 20
355.4508554408266
 30
0.0
 40
6.0
 41
0.0
 71
     5
 72
     1
  1
\A1;147
1001
ACAD
1000
MTEXTBEGIN
1070
    73
1070
     1
1070
    44
1040
1.0
1070
    74
1070
     0
1000
MTEXTEND
1000
MTEXTBEGIN
1070
    73
1070
     1
1070
    44
1040
1.0
1070
    74
1070
     0
1000
MTEXTEND
1000
MTEXTBEGIN
1070
    73
1070
     1
1070
    44
1040
1.0
1070
    74
1070
     0
1000
MTEXTEND
  0
POINT
  5
69C
330
324
100
AcDbEntity
  8
DEFPOINTS
 62
     0
100
AcDbPoint
 10
415.126449629478
 20
296.2958705935482
 30
0.0
  0
POINT
  5
69D
330
324
100
AcDbEntity
  8
DEFPOINTS
 62
     0
100
AcDbPoint
 10
562.1264496294781
 20
296.2958705935482
 30
0.0
  0
POINT
  5
69E
330
324
100
AcDbEntity
  8
DEFPOINTS
 62
     0
100
AcDbPoint
 10
562.1264496294781
 20
350.4508554408266
 30
0.0
  0
ENDBLK
  5
42D
330
324
100
AcDbEntity
  8
0
100
AcDbBlockEnd
  0
BLOCK
  5
42E
330
330
100
AcDbEntity
  8
0
100
AcDbBlockBegin
  2
*D3
 70
     1
 10
0.0
 20
0.0
 30
0.0
  3
*D3
  1

  0
LINE
  5
69F
330
330
100
AcDbEntity
  8
SUNPOU
100
AcDbLine
 10
415.126449629478
 20
302.2958705935482
 30
0.0
 11
415.126449629478
 21
334.589972451748
 31
0.0
  0
LINE
  5
6A0
330
330
100
AcDbEntity
  8
SUNPOU
100
AcDbLine
 10
455.124449629478
 20
197.2205705935482
 30
0.0
 11
455.124449629478
 21
334.589972451748
 31
0.0
  0
LINE
  5
6A1
330
330
100
AcDbEntity
  8
SUNPOU
100
AcDbLine
 10
422.126449629478
 20
331.589972451748
 30
0.0
 11
448.124449629478
 21
331.589972451748
 31
0.0
  0
INSERT
  5
6A2
330
330
100
AcDbEntity
  8
SUNPOU
100
AcDbBlockReference
  2
_OPEN
 10
415.126449629478
 20
331.589972451748
 30
0.0
 41
7.0
 42
7.0
 43
7.0
 50
180.0
  0
INSERT
  5
6A3
330
330
100
AcDbEntity
  8
SUNPOU
100
AcDbBlockReference
  2
_OPEN
 10
455.124449629478
 20
331.589972451748
 30
0.0
 41
7.0
 42
7.0
 43
7.0
  0
MTEXT
  5
6A4
330
330
100
AcDbEntity
  8
SUNPOU
100
AcDbMText
 10
435.125449629478
 20
336.589972451748
 30
0.0
 40
6.0
 41
0.0
 71
     5
 72
     1
  1
\A1;40
1001
ACAD
1000
MTEXTBEGIN
1070
    73
1070
     1
1070
    44
1040
1.0
1070
    74
1070
     0
1000
MTEXTEND
1000
MTEXTBEGIN
1070
    73
1070
     1
1070
    44
1040
1.0
1070
    74
1070
     0
1000
MTEXTEND
1000
MTEXTBEGIN
1070
    73
1070
     1
1070
    44
1040
1.0
1070
    74
1070
     0
1000
MTEXTEND
  0
POINT
  5
6A5
330
330
100
AcDbEntity
  8
DEFPOINTS
 62
     0
100
AcDbPoint
 10
415.126449629478
 20
296.2958705935482
 30
0.0
  0
POINT
  5
6A6
330
330
100
AcDbEntity
  8
DEFPOINTS
 62
     0
100
AcDbPoint
 10
455.124449629478
 20
191.2205705935482
 30
0.0
  0
POINT
  5
6A7
330
330
100
AcDbEntity
  8
DEFPOINTS
 62
     0
100
AcDbPoint
 10
455.124449629478
 20
331.589972451748
 30
0.0
  0
ENDBLK
  5
438
330
330
100
AcDbEntity
  8
0
100
AcDbBlockEnd
  0
BLOCK
  5
40D
330
33C
100
AcDbEntity
  8
0
100
AcDbBlockBegin
  2
*D4
 70
     1
 10
0.0
 20
0.0
 30
0.0
  3
*D4
  1

  0
LINE
  5
6A8
330
33C
100
AcDbEntity
  8
SUNPOU
100
AcDbLine
 10
409.1264496294781
 20
296.2958705935482
 30
0.0
 11
358.2499716703349
 21
296.2958705935482
 31
0.0
  0
LINE
  5
6A9
330
33C
100
AcDbEntity
  8
SUNPOU
100
AcDbLine
 10
421.226349629478
 20
146.2959705935482
 30
0.0
 11
358.2499716703349
 21
146.2959705935482
 31
0.0
  0
LINE
  5
6AA
330
33C
100
AcDbEntity
  8
SUNPOU
100
AcDbLine
 10
361.2499716703349
 20
289.2958705935482
 30
0.0
 11
361.2499716703349
 21
153.2959705935482
 31
0.0
  0
INSERT
  5
6AB
330
33C
100
AcDbEntity
  8
SUNPOU
100
AcDbBlockReference
  2
_OPEN
 10
361.2499716703349
 20
296.2958705935482
 30
0.0
 41
7.0
 42
7.0
 43
7.0
 50
90.0
  0
INSERT
  5
6AC
330
33C
100
AcDbEntity
  8
SUNPOU
100
AcDbBlockReference
  2
_OPEN
 10
361.2499716703349
 20
146.2959705935482
 30
0.0
 41
7.0
 42
7.0
 43
7.0
 50
270.0
  0
MTEXT
  5
6AD
330
33C
100
AcDbEntity
  8
SUNPOU
100
AcDbMText
 10
356.2499716703348
 20
221.2959205935483
 30
0.0
 40
6.0
 41
0.0
 71
     5
 72
     1
  1
\A1;150
 11
0.0000000000000001
 21
1.0
 31
0.0
1001
ACAD
1000
MTEXTBEGIN
1070
    73
1070
     1
1070
    44
1040
1.0
1070
    74
1070
     0
1000
MTEXTEND
1000
MTEXTBEGIN
1070
    73
1070
     1
1070
    44
1040
1.0
1070
    74
1070
     0
1000
MTEXTEND
1000
MTEXTBEGIN
1070
    73
1070
     1
1070
    44
1040
1.0
1070
    74
1070
     0
1000
MTEXTEND
  0
POINT
  5
6AE
330
33C
100
AcDbEntity
  8
DEFPOINTS
 62
     0
100
AcDbPoint
 10
415.126449629478
 20
296.2958705935482
 30
0.0
  0
POINT
  5
6AF
330
33C
100
AcDbEntity
  8
DEFPOINTS
 62
     0
100
AcDbPoint
 10
427.226349629478
 20
146.2959705935482
 30
0.0
  0
POINT
  5
6B0
330
33C
100
AcDbEntity
  8
DEFPOINTS
 62
     0
100
AcDbPoint
 10
361.2499716703349
 20
146.2959705935482
 30
0.0
  0
ENDBLK
  5
417
330
33C
100
AcDbEntity
  8
0
100
AcDbBlockEnd
  0
BLOCK
  5
402
330
348
100
AcDbEntity
  8
0
100
AcDbBlockBegin
  2
*D5
 70
     1
 10
0.0
 20
0.0
 30
0.0
  3
*D5
  1

  0
LINE
  5
6B1
330
348
100
AcDbEntity
  8
SUNPOU
100
AcDbLine
 10
409.1264496294781
 20
296.2958705935482
 30
0.0
 11
376.4352616516174
 21
296.2958705935482
 31
0.0
  0
LINE
  5
6B2
330
348
100
AcDbEntity
  8
SUNPOU
100
AcDbLine
 10
416.7763496294781
 20
166.2958705935481
 30
0.0
 11
376.4352616516174
 21
166.2958705935481
 31
0.0
  0
LINE
  5
6B3
330
348
100
AcDbEntity
  8
SUNPOU
100
AcDbLine
 10
379.4352616516174
 20
289.2958705935482
 30
0.0
 11
379.4352616516174
 21
173.2958705935481
 31
0.0
  0
INSERT
  5
6B4
330
348
100
AcDbEntity
  8
SUNPOU
100
AcDbBlockReference
  2
_OPEN
 10
379.4352616516174
 20
296.2958705935482
 30
0.0
 41
7.0
 42
7.0
 43
7.0
 50
90.0
  0
INSERT
  5
6B5
330
348
100
AcDbEntity
  8
SUNPOU
100
AcDbBlockReference
  2
_OPEN
 10
379.4352616516174
 20
166.2958705935481
 30
0.0
 41
7.0
 42
7.0
 43
7.0
 50
270.0
  0
MTEXT
  5
6B6
330
348
100
AcDbEntity
  8
SUNPOU
100
AcDbMText
 10
374.4352616516174
 20
231.2958705935482
 30
0.0
 40
6.0
 41
0.0
 71
     5
 72
     1
  1
\A1;130
 11
0.0000000000000001
 21
1.0
 31
0.0
1001
ACAD
1000
MTEXTBEGIN
1070
    73
1070
     1
1070
    44
1040
1.0
1070
    74
1070
     0
1000
MTEXTEND
1000
MTEXTBEGIN
1070
    73
1070
     1
1070
    44
1040
1.0
1070
    74
1070
     0
1000
MTEXTEND
1000
MTEXTBEGIN
1070
    73
1070
     1
1070
    44
1040
1.0
1070
    74
1070
     0
1000
MTEXTEND
  0
POINT
  5
6B7
330
348
100
AcDbEntity
  8
DEFPOINTS
 62
     0
100
AcDbPoint
 10
415.126449629478
 20
296.2958705935482
 30
0.0
  0
POINT
  5
6B8
330
348
100
AcDbEntity
  8
DEFPOINTS
 62
     0
100
AcDbPoint
 10
422.776349629478
 20
166.2958705935481
 30
0.0
  0
POINT
  5
6B9
330
348
100
AcDbEntity
  8
DEFPOINTS
 62
     0
100
AcDbPoint
 10
379.4352616516174
 20
166.2958705935481
 30
0.0
  0
ENDBLK
  5
40C
330
348
100
AcDbEntity
  8
0
100
AcDbBlockEnd
  0
BLOCK
  5
418
330
354
100
AcDbEntity
  8
0
100
AcDbBlockBegin
  2
*D6
 70
     1
 10
0.0
 20
0.0
 30
0.0
  3
*D6
  1

  0
LINE
  5
6BA
330
354
100
AcDbEntity
  8
SUNPOU
100
AcDbLine
 10
420.958649629478
 20
472.2962705935482
 30
0.0
 11
377.0185949849508
 21
472.2962705935483
 31
0.0
  0
LINE
  5
6BB
330
354
100
AcDbEntity
  8
SUNPOU
100
AcDbLine
 10
420.9585496294779
 20
390.2958705935482
 30
0.0
 11
377.0185949849508
 21
390.2958705935482
 31
0.0
  0
LINE
  5
6BC
330
354
100
AcDbEntity
  8
SUNPOU
100
AcDbLine
 10
380.0185949849508
 20
465.2962705935483
 30
0.0
 11
380.0185949849508
 21
397.2958705935482
 31
0.0
  0
INSERT
  5
6BD
330
354
100
AcDbEntity
  8
SUNPOU
100
AcDbBlockReference
  2
_OPEN
 10
380.0185949849508
 20
472.2962705935483
 30
0.0
 41
7.0
 42
7.0
 43
7.0
 50
90.0
  0
INSERT
  5
6BE
330
354
100
AcDbEntity
  8
SUNPOU
100
AcDbBlockReference
  2
_OPEN
 10
380.0185949849508
 20
390.2958705935482
 30
0.0
 41
7.0
 42
7.0
 43
7.0
 50
270.0
  0
MTEXT
  5
6BF
330
354
100
AcDbEntity
  8
SUNPOU
100
AcDbMText
 10
375.0185949849507
 20
431.2960705935483
 30
0.0
 40
6.0
 41
0.0
 71
     5
 72
     1
  1
\A1;82
 11
0.0000000000000001
 21
1.0
 31
0.0
1001
ACAD
1000
MTEXTBEGIN
1070
    73
1070
     1
1070
    44
1040
1.0
1070
    74
1070
     0
1000
MTEXTEND
1000
MTEXTBEGIN
1070
    73
1070
     1
1070
    44
1040
1.0
1070
    74
1070
     0
1000
MTEXTEND
1000
MTEXTBEGIN
1070
    73
1070
     1
1070
    44
1040
1.0
1070
    74
1070
     0
1000
MTEXTEND
  0
POINT
  5
6C0
330
354
100
AcDbEntity
  8
DEFPOINTS
 62
     0
100
AcDbPoint
 10
426.958649629478
 20
472.2962705935482
 30
0.0
  0
POINT
  5
6C1
330
354
100
AcDbEntity
  8
DEFPOINTS
 62
     0
100
AcDbPoint
 10
426.9585496294779
 20
390.2958705935482
 30
0.0
  0
POINT
  5
6C2
330
354
100
AcDbEntity
  8
DEFPOINTS
 62
     0
100
AcDbPoint
 10
380.0185949849508
 20
390.2958705935482
 30
0.0
  0
ENDBLK
  5
422
330
354
100
AcDbEntity
  8
0
100
AcDbBlockEnd
  0
BLOCK
  5
439
330
360
100
AcDbEntity
  8
0
100
AcDbBlockBegin
  2
*D7
 70
     1
 10
0.0
 20
0.0
 30
0.0
  3
*D7
  1

  0
LINE
  5
6C3
330
360
100
AcDbEntity
  8
SUNPOU
100
AcDbLine
 10
455.124449629478
 20
197.2205705935482
 30
0.0
 11
455.124449629478
 21
334.589972451748
 31
0.0
  0
LINE
  5
6C4
330
360
100
AcDbEntity
  8
SUNPOU
100
AcDbLine
 10
562.1264496294781
 20
302.2958705935482
 30
0.0
 11
562.1264496294781
 21
334.589972451748
 31
0.0
  0
LINE
  5
6C5
330
360
100
AcDbEntity
  8
SUNPOU
100
AcDbLine
 10
462.124449629478
 20
331.589972451748
 30
0.0
 11
555.1264496294781
 21
331.589972451748
 31
0.0
  0
INSERT
  5
6C6
330
360
100
AcDbEntity
  8
SUNPOU
100
AcDbBlockReference
  2
_OPEN
 10
455.124449629478
 20
331.589972451748
 30
0.0
 41
7.0
 42
7.0
 43
7.0
 50
180.0
  0
INSERT
  5
6C7
330
360
100
AcDbEntity
  8
SUNPOU
100
AcDbBlockReference
  2
_OPEN
 10
562.1264496294781
 20
331.589972451748
 30
0.0
 41
7.0
 42
7.0
 43
7.0
  0
MTEXT
  5
6C8
330
360
100
AcDbEntity
  8
SUNPOU
100
AcDbMText
 10
508.625449629478
 20
336.589972451748
 30
0.0
 40
6.0
 41
0.0
 71
     5
 72
     1
  1
\A1;107
1001
ACAD
1000
MTEXTBEGIN
1070
    73
1070
     1
1070
    44
1040
1.0
1070
    74
1070
     0
1000
MTEXTEND
1000
MTEXTBEGIN
1070
    73
1070
     1
1070
    44
1040
1.0
1070
    74
1070
     0
1000
MTEXTEND
1000
MTEXTBEGIN
1070
    73
1070
     1
1070
    44
1040
1.0
1070
    74
1070
     0
1000
MTEXTEND
  0
POINT
  5
6C9
330
360
100
AcDbEntity
  8
DEFPOINTS
 62
     0
100
AcDbPoint
 10
455.124449629478
 20
191.2205705935482
 30
0.0
  0
POINT
  5
6CA
330
360
100
AcDbEntity
  8
DEFPOINTS
 62
     0
100
AcDbPoint
 10
562.1264496294781
 20
296.2958705935482
 30
0.0
  0
POINT
  5
6CB
330
360
100
AcDbEntity
  8
DEFPOINTS
 62
     0
100
AcDbPoint
 10
562.1264496294781
 20
331.589972451748
 30
0.0
  0
ENDBLK
  5
443
330
360
100
AcDbEntity
  8
0
100
AcDbBlockEnd
  0
BLOCK
  5
444
330
36C
100
AcDbEntity
  8
0
100
AcDbBlockBegin
  2
*D8
 70
     1
 10
0.0
 20
0.0
 30
0.0
  3
*D8
  1

  0
LINE
  5
6CC
330
36C
100
AcDbEntity
  8
SUNPOU
100
AcDbLine
 10
568.126449629478
 20
296.2958705935482
 30
0.0
 11
617.4663817755477
 21
296.2958705935482
 31
0.0
  0
LINE
  5
6CD
330
36C
100
AcDbEntity
  8
SUNPOU
100
AcDbLine
 10
561.12626315761
 20
214.2959214773027
 30
0.0
 11
617.4663817755475
 21
214.2959214773027
 31
0.0
  0
LINE
  5
6CE
330
36C
100
AcDbEntity
  8
SUNPOU
100
AcDbLine
 10
614.4663817755477
 20
289.2958705935482
 30
0.0
 11
614.4663817755476
 21
221.2959214773027
 31
0.0
  0
INSERT
  5
6CF
330
36C
100
AcDbEntity
  8
SUNPOU
100
AcDbBlockReference
  2
_OPEN
 10
614.4663817755477
 20
296.2958705935482
 30
0.0
 41
7.0
 42
7.0
 43
7.0
 50
90.0
  0
INSERT
  5
6D0
330
36C
100
AcDbEntity
  8
SUNPOU
100
AcDbBlockReference
  2
_OPEN
 10
614.4663817755476
 20
214.2959214773027
 30
0.0
 41
7.0
 42
7.0
 43
7.0
 50
270.0
  0
MTEXT
  5
6D1
330
36C
100
AcDbEntity
  8
SUNPOU
100
AcDbMText
 10
609.4663817755475
 20
255.2958960354255
 30
0.0
 40
6.0
 41
0.0
 71
     5
 72
     1
  1
\A1;82
 11
0.0000000000000001
 21
1.0
 31
0.0
1001
ACAD
1000
MTEXTBEGIN
1070
    73
1070
     1
1070
    44
1040
1.0
1070
    74
1070
     0
1000
MTEXTEND
1000
MTEXTBEGIN
1070
    73
1070
     1
1070
    44
1040
1.0
1070
    74
1070
     0
1000
MTEXTEND
1000
MTEXTBEGIN
1070
    73
1070
     1
1070
    44
1040
1.0
1070
    74
1070
     0
1000
MTEXTEND
  0
POINT
  5
6D2
330
36C
100
AcDbEntity
  8
DEFPOINTS
 62
     0
100
AcDbPoint
 10
562.1264496294781
 20
296.2958705935482
 30
0.0
  0
POINT
  5
6D3
330
36C
100
AcDbEntity
  8
DEFPOINTS
 62
     0
100
AcDbPoint
 10
555.1262631576101
 20
214.2959214773027
 30
0.0
  0
POINT
  5
6D4
330
36C
100
AcDbEntity
  8
DEFPOINTS
 62
     0
100
AcDbPoint
 10
614.4663817755476
 20
214.2959214773027
 30
0.0
  0
ENDBLK
  5
44E
330
36C
100
AcDbEntity
  8
0
100
AcDbBlockEnd
  0
BLOCK
  5
44F
330
378
100
AcDbEntity
  8
0
100
AcDbBlockBegin
  2
*D9
 70
     1
 10
0.0
 20
0.0
 30
0.0
  3
*D9
  1

  0
LINE
  5
6D5
330
378
100
AcDbEntity
  8
SUNPOU
100
AcDbLine
 10
568.126449629478
 20
296.2958705935482
 30
0.0
 11
596.5332540060116
 21
296.2958705935482
 31
0.0
  0
LINE
  5
6D6
330
378
100
AcDbEntity
  8
SUNPOU
100
AcDbLine
 10
562.0691446349619
 20
236.2958705935482
 30
0.0
 11
596.5332540060115
 21
236.2958705935481
 31
0.0
  0
LINE
  5
6D7
330
378
100
AcDbEntity
  8
SUNPOU
100
AcDbLine
 10
593.5332540060117
 20
289.2958705935482
 30
0.0
 11
593.5332540060115
 21
243.2958705935481
 31
0.0
  0
INSERT
  5
6D8
330
378
100
AcDbEntity
  8
SUNPOU
100
AcDbBlockReference
  2
_OPEN
 10
593.5332540060117
 20
296.2958705935482
 30
0.0
 41
7.0
 42
7.0
 43
7.0
 50
90.0
  0
INSERT
  5
6D9
330
378
100
AcDbEntity
  8
SUNPOU
100
AcDbBlockReference
  2
_OPEN
 10
593.5332540060115
 20
236.2958705935481
 30
0.0
 41
7.0
 42
7.0
 43
7.0
 50
270.0
  0
MTEXT
  5
6DA
330
378
100
AcDbEntity
  8
SUNPOU
100
AcDbMText
 10
588.5332540060115
 20
266.2958705935482
 30
0.0
 40
6.0
 41
0.0
 71
     5
 72
     1
  1
\A1;※ 60
 11
0.0000000000000001
 21
1.0
 31
0.0
1001
ACAD
1000
MTEXTBEGIN
1070
    73
1070
     1
1070
    44
1040
1.0
1070
    74
1070
     0
1000
MTEXTEND
1000
MTEXTBEGIN
1070
    73
1070
     1
1070
    44
1040
1.0
1070
    74
1070
     0
1000
MTEXTEND
1000
MTEXTBEGIN
1070
    73
1070
     1
1070
    44
1040
1.0
1070
    74
1070
     0
1000
MTEXTEND
  0
POINT
  5
6DB
330
378
100
AcDbEntity
  8
DEFPOINTS
 62
     0
100
AcDbPoint
 10
562.1264496294781
 20
296.2958705935482
 30
0.0
  0
POINT
  5
6DC
330
378
100
AcDbEntity
  8
DEFPOINTS
 62
     0
100
AcDbPoint
 10
556.0691446349619
 20
236.2958705935482
 30
0.0
  0
POINT
  5
6DD
330
378
100
AcDbEntity
  8
DEFPOINTS
 62
     0
100
AcDbPoint
 10
593.5332540060115
 20
236.2958705935481
 30
0.0
  0
ENDBLK
  5
459
330
378
100
AcDbEntity
  8
0
100
AcDbBlockEnd
  0
BLOCK
  5
3F5
330
384
100
AcDbEntity
  8
0
100
AcDbBlockBegin
  2
*D10
 70
     1
 10
0.0
 20
0.0
 30
0.0
  3
*D10
  1

  0
LINE
  5
6DE
330
384
100
AcDbEntity
  8
SUNPOU
100
AcDbLine
 10
493.4263341615737
 20
176.2959705935362
 30
0.0
 11
525.9722772612985
 21
176.2959705935362
 31
0.0
  0
LINE
  5
6DF
330
384
100
AcDbEntity
  8
SUNPOU
100
AcDbLine
 10
489.0263496294781
 20
146.2958705935481
 30
0.0
 11
525.9722772612985
 21
146.2958705935481
 31
0.0
  0
LINE
  5
6E0
330
384
100
AcDbEntity
  8
SUNPOU
100
AcDbLine
 10
522.9722772612984
 20
169.2959705935362
 30
0.0
 11
522.9722772612984
 21
153.2958705935481
 31
0.0
  0
INSERT
  5
6E1
330
384
100
AcDbEntity
  8
SUNPOU
100
AcDbBlockReference
  2
_OPEN
 10
522.9722772612984
 20
176.2959705935362
 30
0.0
 41
7.0
 42
7.0
 43
7.0
 50
90.0
  0
INSERT
  5
6E2
330
384
100
AcDbEntity
  8
SUNPOU
100
AcDbBlockReference
  2
_OPEN
 10
522.9722772612984
 20
146.2958705935481
 30
0.0
 41
7.0
 42
7.0
 43
7.0
 50
270.0
  0
MTEXT
  5
6E3
330
384
100
AcDbEntity
  8
SUNPOU
100
AcDbMText
 10
517.9722772612985
 20
161.2959205935423
 30
0.0
 40
6.0
 41
0.0
 71
     5
 72
     1
  1
\A1;※ 30
 11
0.0000000000000001
 21
1.0
 31
0.0
1001
ACAD
1000
MTEXTBEGIN
1070
    73
1070
     1
1070
    44
1040
1.0
1070
    74
1070
     0
1000
MTEXTEND
1000
MTEXTBEGIN
1070
    73
1070
     1
1070
    44
1040
1.0
1070
    74
1070
     0
1000
MTEXTEND
1000
MTEXTBEGIN
1070
    73
1070
     1
1070
    44
1040
1.0
1070
    74
1070
     0
1000
MTEXTEND
  0
POINT
  5
6E4
330
384
100
AcDbEntity
  8
DEFPOINTS
 62
     0
100
AcDbPoint
 10
487.4263341615737
 20
176.2959705935362
 30
0.0
  0
POINT
  5
6E5
330
384
100
AcDbEntity
  8
DEFPOINTS
 62
     0
100
AcDbPoint
 10
483.026349629478
 20
146.2958705935481
 30
0.0
  0
POINT
  5
6E6
330
384
100
AcDbEntity
  8
DEFPOINTS
 62
     0
100
AcDbPoint
 10
522.9722772612984
 20
146.2958705935481
 30
0.0
  0
ENDBLK
  5
401
330
384
100
AcDbEntity
  8
0
100
AcDbBlockEnd
  0
ENDSEC
  0
SECTION
  2
ENTITIES
  0
TEXT
  5
11A
330
1A
100
AcDbEntity
  8
ZUWAKU
 62
     7
 48
10.0
100
AcDbText
 10
795.5579444309237
 20
4.974918402528146
 30
0.0
 40
8.0
  1
A1
100
AcDbText
  0
LINE
  5
11B
330
1A
100
AcDbEntity
  8
ZUWAKU
 62
     7
 48
10.0
100
AcDbLine
 10
10.05047808566086
 20
25.78258628282265
 30
0.0
 11
806.0504780856609
 21
25.78258628282253
 31
0.0
  0
LINE
  5
11C
330
1A
100
AcDbEntity
  8
ZUWAKU
  6
CONTINUOUS
 62
     7
100
AcDbLine
 10
806.0504780856609
 20
563.7825862828226
 30
0.0
 11
10.05047808566086
 21
563.7825862828226
 31
0.0
  0
LINE
  5
11D
330
1A
100
AcDbEntity
  8
ZUWAKU
  6
CONTINUOUS
 62
     7
100
AcDbLine
 10
806.0504780856609
 20
13.78258628282265
 30
0.0
 11
10.05047808566086
 21
13.78258628282265
 31
0.0
  0
LINE
  5
11E
330
1A
100
AcDbEntity
  8
ZUWAKU
  6
CONTINUOUS
 62
     7
100
AcDbLine
 10
10.05047808566086
 20
563.7825862828226
 30
0.0
 11
10.05047808566086
 21
13.78258628282265
 31
0.0
  0
LINE
  5
11F
330
1A
100
AcDbEntity
  8
ZUWAKU
 62
     7
 48
10.0
100
AcDbLine
 10
44.55797523147839
 20
13.78258628282265
 30
0.0
 11
44.5579752314784
 21
25.78258628282265
 31
0.0
  0
TEXT
  5
120
330
1A
100
AcDbEntity
  8
ZUWAKU
 62
     7
100
AcDbText
 10
16.05676551180931
 20
15.52294263804401
 30
0.0
 40
8.0
  1
品 種
100
AcDbText
  0
LINE
  5
121
330
1A
100
AcDbEntity
  8
ZUWAKU
 62
     7
 48
10.0
100
AcDbLine
 10
276.1028387068254
 20
13.78258628282265
 30
0.0
 11
276.1028387068254
 21
25.78258628282261
 31
0.0
  0
LINE
  5
122
330
1A
100
AcDbEntity
  8
ZUWAKU
 62
     7
 48
10.0
100
AcDbLine
 10
209.5138526425484
 20
13.78258628282265
 30
0.0
 11
209.5138526425485
 21
25.78258628282263
 31
0.0
  0
TEXT
  5
123
330
1A
100
AcDbEntity
  8
ZUWAKU
 62
     7
100
AcDbText
 10
282.3131429914078
 20
15.64241700452384
 30
0.0
 40
8.0
  1
合せマスＩＩ型　Ｙ６０Ｈ－Ｙ６０Ｈ・ＵＴ６０
100
AcDbText
  0
TEXT
  5
124
330
1A
100
AcDbEntity
  8
ZUWAKU
 62
     7
100
AcDbText
 10
215.4560837190756
 20
16.18358115302453
 30
0.0
 40
8.0
  1
品名・ｻ ｲ ｽﾞ
100
AcDbText
  0
TEXT
  5
125
330
1A
100
AcDbEntity
  8
ZUWAKU
 62
     7
100
AcDbText
 10
50.3519382305086
 20
16.10306189639755
 30
0.0
 40
8.0
  1
アートフェイス　たてとい
100
AcDbText
  0
LINE
  5
126
330
1A
100
AcDbEntity
  8
ZUWAKU
 62
     7
 48
10.0
100
AcDbLine
 10
768.7231079932794
 20
13.78258628282237
 30
0.0
 11
768.7231079932794
 21
25.78258628282254
 31
0.0
  0
LINE
  5
127
330
1A
100
AcDbEntity
  8
ZUWAKU
 62
     7
 48
10.0
100
AcDbLine
 10
733.8119002376948
 20
13.78258628282242
 30
0.0
 11
733.8119002376946
 21
25.78258628282254
 31
0.0
  0
TEXT
  5
128
330
1A
100
AcDbEntity
  8
ZUWAKU
 62
     7
100
AcDbText
 10
739.6955629973526
 20
15.24227755810852
 30
0.0
 40
8.0
  1
尺 度
100
AcDbText
  0
TEXT
  5
129
330
1A
100
AcDbEntity
  8
ZUWAKU
 62
     7
100
AcDbText
 10
779.7374630323229
 20
15.55488920081529
 30
0.0
 40
8.0
  1
1/2
100
AcDbText
  0
TEXT
  5
12A
330
1A
100
AcDbEntity
  8
ZUWAKU
 62
     7
100
AcDbText
 10
654.2531733678779
 20
15.90287984531518
 30
0.0
 40
8.0
  1
ＰＦ１３
100
AcDbText
  0
TEXT
  5
12B
330
1A
100
AcDbEntity
  8
ZUWAKU
 62
     7
100
AcDbText
 10
620.3363288383084
 20
15.6519090944263
 30
0.0
 40
8.0
  1
品 番
100
AcDbText
  0
LINE
  5
12C
330
1A
100
AcDbEntity
  8
ZUWAKU
 62
     7
 48
10.0
100
AcDbLine
 10
614.3351028194128
 20
13.78258628282232
 30
0.0
 11
614.3351028194128
 21
25.78258628282256
 31
0.0
  0
LINE
  5
12D
330
1A
100
AcDbEntity
  8
ZUWAKU
 62
     7
 48
10.0
100
AcDbLine
 10
648.7607587371021
 20
13.78258628282232
 30
0.0
 11
648.7607587371021
 21
25.78258628282255
 31
0.0
  0
TEXT
  5
12E
330
1A
100
AcDbEntity
  8
ZUWAKU
 62
     7
 48
10.0
100
AcDbText
 10
646.2758615931216
 20
4.949376903717848
 30
0.0
 40
8.0
  1
積水化学工業株式会社  建材
100
AcDbText
  0
LINE
  5
12F
330
1A
100
AcDbEntity
  8
ZUWAKU
  6
CONTINUOUS
 62
     7
100
AcDbLine
 10
806.0504780856609
 20
563.7825862828226
 30
0.0
 11
806.0504780856609
 21
13.78258628282265
 31
0.0
  0
DIMENSION
  5
279
330
1A
100
AcDbEntity
  8
SUNPOU
100
AcDbDimension
  2
*D1
 10
487.4763496294779
 20
112.7617582179493
 30
0.0
 11
455.1263496294779
 21
117.7617582179493
 31
0.0
 70
    32
  1
□ <>
  3
STANDARD
100
AcDbAlignedDimension
 13
422.776349629478
 23
166.2958705935481
 33
0.0
 14
487.4763496294779
 24
166.2958705935481
 34
0.0
100
AcDbRotatedDimension
1001
ACAD
1000
DSTYLE
1002
{
1070
   372
1070
    -1
1070
   371
1070
    -1
1070
    41
1040
7.0
1070
    42
1040
6.0
1070
    43
1040
14.0
1070
    44
1040
3.0
1070
    73
1070
     0
1070
    74
1070
     0
1070
    77
1070
     3
1070
   140
1040
6.0
1070
   141
1040
150.0
1070
   147
1040
2.0
1070
   172
1070
     1
1070
   173
1070
     1
1070
   176
1070
   256
1070
   177
1070
   256
1070
   178
1070
   256
1070
   271
1070
     0
1070
   272
1070
     2
1070
     6
1000
OPEN
1070
     7
1000
OPEN
1002
}
  0
DIMENSION
  5
27A
330
1A
100
AcDbEntity
  8
SUNPOU
 48
5.0
100
AcDbDimension
  2
*D2
 10
562.1264496294781
 20
350.4508554408266
 30
0.0
 11
488.626449629478
 21
355.4508554408266
 31
0.0
 70
    32
  3
STANDARD
100
AcDbAlignedDimension
 13
415.126449629478
 23
296.2958705935482
 33
0.0
 14
562.1264496294781
 24
296.2958705935482
 34
0.0
100
AcDbRotatedDimension
1001
ACAD
1000
DSTYLE
1002
{
1070
   372
1070
    -1
1070
   371
1070
    -1
1070
    41
1040
7.0
1070
    42
1040
6.0
1070
    43
1040
14.0
1070
    44
1040
3.0
1070
    73
1070
     0
1070
    74
1070
     0
1070
    77
1070
     3
1070
   140
1040
6.0
1070
   141
1040
150.0
1070
   147
1040
2.0
1070
   172
1070
     1
1070
   173
1070
     1
1070
   176
1070
   256
1070
   177
1070
   256
1070
   178
1070
   256
1070
   271
1070
     0
1070
   272
1070
     2
1070
     6
1000
OPEN
1070
     7
1000
OPEN
1002
}
  0
DIMENSION
  5
27B
330
1A
100
AcDbEntity
  8
SUNPOU
 48
5.0
100
AcDbDimension
  2
*D3
 10
455.124449629478
 20
331.589972451748
 30
0.0
 11
435.125449629478
 21
336.589972451748
 31
0.0
 70
    32
  3
STANDARD
100
AcDbAlignedDimension
 13
415.126449629478
 23
296.2958705935482
 33
0.0
 14
455.124449629478
 24
191.2205705935482
 34
0.0
100
AcDbRotatedDimension
1001
ACAD
1000
DSTYLE
1002
{
1070
   372
1070
    -1
1070
   371
1070
    -1
1070
    41
1040
7.0
1070
    42
1040
6.0
1070
    43
1040
14.0
1070
    44
1040
3.0
1070
    73
1070
     0
1070
    74
1070
     0
1070
    77
1070
     3
1070
   140
1040
6.0
1070
   141
1040
150.0
1070
   147
1040
2.0
1070
   172
1070
     1
1070
   173
1070
     1
1070
   176
1070
   256
1070
   177
1070
   256
1070
   178
1070
   256
1070
   271
1070
     0
1070
   272
1070
     2
1070
     6
1000
OPEN
1070
     7
1000
OPEN
1002
}
  0
LINE
  5
27C
330
1A
100
AcDbEntity
  8
SEIHIN
  6
CONTINUOUS
 62
     3
 48
5.0
100
AcDbLine
 10
429.2686496294781
 20
469.2962705935482
 30
0.0
 11
547.984249629478
 21
469.2957705935482
 31
0.0
  0
LINE
  5
27D
330
1A
100
AcDbEntity
  8
SEIHIN
  6
CONTINUOUS
 62
     3
 48
5.0
100
AcDbLine
 10
426.958649629478
 20
472.2962705935482
 30
0.0
 11
550.2942496294779
 21
472.295870593548
 31
0.0
  0
LINE
  5
27E
330
1A
100
AcDbEntity
  8
SEIHIN
  6
CONTINUOUS
 62
     3
 48
5.0
100
AcDbLine
 10
433.8347496294781
 20
463.2962705935481
 30
0.0
 11
453.626549629478
 21
463.2961705935481
 31
0.0
  0
LINE
  5
27F
330
1A
100
AcDbEntity
  8
SEIHIN
  6
CONTINUOUS
 62
     3
 48
5.0
100
AcDbLine
 10
433.8346496294779
 20
399.2958705935482
 30
0.0
 11
453.6264496294781
 21
399.2958705935482
 31
0.0
  0
ARC
  5
280
330
1A
100
AcDbEntity
  8
SEIHIN
  6
CONTINUOUS
 62
     3
 48
5.0
100
AcDbCircle
 10
455.1264496704634
 20
431.2958205935482
 30
0.0
 40
26.49999995906181
100
AcDbArc
 50
0.0001081052443199
 51
359.9998918947556
  0
LINE
  5
281
330
1A
100
AcDbEntity
  8
SEIHIN
  6
CONTINUOUS
 62
     3
 48
5.0
100
AcDbLine
 10
430.940249629478
 20
466.2962705935482
 30
0.0
 11
546.3125496294781
 21
466.2957705935482
 31
0.0
  0
LINE
  5
282
330
1A
100
AcDbEntity
  8
SEIHIN
  6
CONTINUOUS
 62
     3
 48
5.0
100
AcDbLine
 10
429.2685496294779
 20
393.295870593548
 30
0.0
 11
547.9841496294779
 21
393.2959705935483
 31
0.0
  0
LINE
  5
283
330
1A
100
AcDbEntity
  8
SEIHIN
  6
CONTINUOUS
 62
     3
 48
5.0
100
AcDbLine
 10
430.940149629478
 20
396.2958705935482
 30
0.0
 11
546.3125496294781
 21
396.2959705935483
 31
0.0
  0
LINE
  5
284
330
1A
100
AcDbEntity
  8
SEIHIN
  6
CONTINUOUS
 62
     3
 48
5.0
100
AcDbLine
 10
426.9585496294779
 20
390.2958705935482
 30
0.0
 11
550.294049629478
 21
390.2959705935483
 31
0.0
  0
LINE
  5
285
330
1A
100
AcDbEntity
  8
SEIHIN
  6
CONTINUOUS
 62
     3
 48
5.0
100
AcDbLine
 10
483.576349607383
 20
150.2957704167871
 30
0.0
 11
426.726349629478
 21
150.2959705935482
 31
0.0
  0
LINE
  5
286
330
1A
100
AcDbEntity
  8
SEIHIN
  6
CONTINUOUS
 62
     3
 48
5.0
100
AcDbLine
 10
483.0763496069869
 20
146.2957704136192
 30
0.0
 11
427.226349629478
 21
146.2959705935482
 31
0.0
  0
LINE
  5
287
330
1A
100
AcDbEntity
  8
SEIHIN
  6
CONTINUOUS
 62
     3
 48
5.0
100
AcDbLine
 10
422.776349629478
 20
166.2958705935481
 30
0.0
 11
487.4263496294778
 21
166.2959705935482
 31
0.0
  0
LINE
  5
288
330
1A
100
AcDbEntity
  8
CENTER_L
  6
CENTER
 62
     1
 48
5.0
100
AcDbLine
 10
569.865249629478
 20
431.295870593548
 30
0.0
 11
405.483849629478
 21
431.2960705935482
 31
0.0
  0
LINE
  5
289
330
1A
100
AcDbEntity
  8
SEIHIN
  6
CONTINUOUS
 62
     3
 48
5.0
100
AcDbLine
 10
561.1263496294781
 20
284.2958705935482
 30
0.0
 11
419.1263496294778
 21
284.2973705935483
 31
0.0
  0
LINE
  5
28A
330
1A
100
AcDbEntity
  8
SEIHIN
  6
CONTINUOUS
 62
     3
 48
5.0
100
AcDbLine
 10
415.126449629478
 20
294.2958705935481
 30
0.0
 11
562.1264496294781
 21
294.2958705935481
 31
0.0
  0
LINE
  5
28B
330
1A
100
AcDbEntity
  8
SEIHIN
  6
CONTINUOUS
 62
     3
 48
5.0
100
AcDbLine
 10
415.126449629478
 20
296.2958705935482
 30
0.0
 11
562.1264496294781
 21
296.2958705935482
 31
0.0
  0
DIMENSION
  5
28C
330
1A
100
AcDbEntity
  8
SUNPOU
 48
5.0
100
AcDbDimension
  2
*D4
 10
361.2499716703349
 20
146.2959705935482
 30
0.0
 11
356.2499716703348
 21
221.2959205935483
 31
0.0
 70
    32
  3
STANDARD
100
AcDbAlignedDimension
 13
415.126449629478
 23
296.2958705935482
 33
0.0
 14
427.226349629478
 24
146.2959705935482
 34
0.0
 50
90.0
100
AcDbRotatedDimension
1001
ACAD
1000
DSTYLE
1002
{
1070
   372
1070
    -1
1070
   371
1070
    -1
1070
    41
1040
7.0
1070
    42
1040
6.0
1070
    43
1040
14.0
1070
    44
1040
3.0
1070
    73
1070
     0
1070
    74
1070
     0
1070
    77
1070
     3
1070
   140
1040
6.0
1070
   141
1040
150.0
1070
   147
1040
2.0
1070
   172
1070
     1
1070
   173
1070
     1
1070
   176
1070
   256
1070
   177
1070
   256
1070
   178
1070
   256
1070
   271
1070
     0
1070
   272
1070
     2
1070
     6
1000
OPEN
1070
     7
1000
OPEN
1002
}
  0
DIMENSION
  5
28D
330
1A
100
AcDbEntity
  8
SUNPOU
 48
5.0
100
AcDbDimension
  2
*D5
 10
379.4352616516174
 20
166.2958705935481
 30
0.0
 11
374.4352616516174
 21
231.2958705935482
 31
0.0
 70
    32
  3
STANDARD
100
AcDbAlignedDimension
 13
415.126449629478
 23
296.2958705935482
 33
0.0
 14
422.776349629478
 24
166.2958705935481
 34
0.0
 50
90.0
100
AcDbRotatedDimension
1001
ACAD
1000
DSTYLE
1002
{
1070
   372
1070
    -1
1070
   371
1070
    -1
1070
    41
1040
7.0
1070
    42
1040
6.0
1070
    43
1040
14.0
1070
    44
1040
3.0
1070
    73
1070
     0
1070
    74
1070
     0
1070
    77
1070
     3
1070
   140
1040
6.0
1070
   141
1040
150.0
1070
   147
1040
2.0
1070
   172
1070
     1
1070
   173
1070
     1
1070
   176
1070
   256
1070
   177
1070
   256
1070
   178
1070
   256
1070
   271
1070
     0
1070
   272
1070
     2
1070
     6
1000
OPEN
1070
     7
1000
OPEN
1002
}
  0
LINE
  5
28E
330
1A
100
AcDbEntity
  8
SEIHIN
  6
CONTINUOUS
 62
     3
 48
5.0
100
AcDbLine
 10
425.1264496294781
 20
296.2958705935482
 30
0.0
 11
425.1264496294781
 21
294.2958705935481
 31
0.0
  0
LINE
  5
28F
330
1A
100
AcDbEntity
  8
SEIHIN
  6
CONTINUOUS
 62
     3
 48
5.0
100
AcDbLine
 10
415.126449629478
 20
296.2958705935482
 30
0.0
 11
415.126449629478
 21
294.2958705935481
 31
0.0
  0
LINE
  5
290
330
1A
100
AcDbEntity
  8
SEIHIN
  6
CONTINUOUS
 62
     3
 48
5.0
100
AcDbLine
 10
273.8383671356772
 20
296.297270593548
 30
0.0
 11
273.8383671356772
 21
294.297270593548
 31
0.0
  0
LINE
  5
291
330
1A
100
AcDbEntity
  8
SEIHIN
  6
CONTINUOUS
 62
     3
 48
5.0
100
AcDbLine
 10
263.8383671356772
 20
296.2973705935482
 30
0.0
 11
263.8382671356772
 21
294.297270593548
 31
0.0
  0
LINE
  5
292
330
1A
100
AcDbEntity
  8
SEIHIN
  6
CONTINUOUS
 62
     3
 48
5.0
100
AcDbLine
 10
203.8417671356772
 20
296.2975705935482
 30
0.0
 11
203.8417671356772
 21
294.2975705935482
 31
0.0
  0
LINE
  5
293
330
1A
100
AcDbEntity
  8
SEIHIN
  6
CONTINUOUS
 62
     3
 48
5.0
100
AcDbLine
 10
193.8417671356771
 20
296.2975705935482
 30
0.0
 11
193.8417671356771
 21
294.2975705935482
 31
0.0
  0
LINE
  5
294
330
1A
100
AcDbEntity
  8
CENTER_L
  6
CENTER
 62
     1
 48
5.0
100
AcDbLine
 10
233.8393671356772
 20
133.0187705935482
 30
0.0
 11
233.8400671356771
 21
308.1988705935482
 31
0.0
  0
LINE
  5
295
330
1A
100
AcDbEntity
  8
SEIHIN
  6
CONTINUOUS
 62
     3
 48
5.0
100
AcDbLine
 10
206.8417671356772
 20
284.2975705935482
 30
0.0
 11
210.4916671356772
 21
166.2975705935482
 31
0.0
  0
LINE
  5
296
330
1A
100
AcDbEntity
  8
SEIHIN
  6
CONTINUOUS
 62
     3
 48
5.0
100
AcDbLine
 10
197.8417671356771
 20
284.2974705935481
 30
0.0
 11
201.4916671356771
 21
166.2975705935482
 31
0.0
  0
LINE
  5
297
330
1A
100
AcDbEntity
  8
SEIHIN
  6
CONTINUOUS
 62
     3
 48
5.0
100
AcDbLine
 10
260.8382671356772
 20
284.2973705935483
 30
0.0
 11
257.1874671356772
 21
166.2973705935481
 31
0.0
  0
LINE
  5
298
330
1A
100
AcDbEntity
  8
SEIHIN
  6
CONTINUOUS
 62
     3
 48
5.0
100
AcDbLine
 10
269.8382671356772
 20
284.297270593548
 30
0.0
 11
266.1874671356771
 21
166.2972705935482
 31
0.0
  0
LINE
  5
299
330
1A
100
AcDbEntity
  8
SEIHIN
  6
CONTINUOUS
 62
     3
 48
5.0
100
AcDbLine
 10
262.2873796154252
 20
150.2973704315318
 30
0.0
 11
205.4415671356772
 21
150.2975705935481
 31
0.0
  0
LINE
  5
29A
330
1A
100
AcDbEntity
  8
SEIHIN
  6
CONTINUOUS
 62
     3
 48
5.0
100
AcDbLine
 10
261.7873796150622
 20
146.2973704286283
 30
0.0
 11
205.9415671356771
 21
146.2975705935481
 31
0.0
  0
LINE
  5
29B
330
1A
100
AcDbEntity
  8
SEIHIN
  6
CONTINUOUS
 62
     3
 48
5.0
100
AcDbLine
 10
201.4916671356771
 20
166.2975705935482
 30
0.0
 11
266.1874702295751
 21
166.2973705935385
 31
0.0
  0
LINE
  5
29C
330
1A
100
AcDbEntity
  8
SEIHIN
  6
CONTINUOUS
 62
     3
 48
5.0
100
AcDbLine
 10
205.3915671356772
 20
150.2975705935481
 30
0.0
 11
205.3915671356772
 21
166.2975705935482
 31
0.0
  0
LINE
  5
29D
330
1A
100
AcDbEntity
  8
SEIHIN
  6
CONTINUOUS
 62
     3
 48
5.0
100
AcDbLine
 10
205.3915671356772
 20
150.2975705935481
 30
0.0
 11
205.8915671356772
 21
146.2975705935481
 31
0.0
  0
LINE
  5
29E
330
1A
100
AcDbEntity
  8
SEIHIN
  6
CONTINUOUS
 62
     3
 48
5.0
100
AcDbLine
 10
262.2873671356773
 20
150.2972705935482
 30
0.0
 11
262.2874671356771
 21
166.2972705935482
 31
0.0
  0
LINE
  5
29F
330
1A
100
AcDbEntity
  8
SEIHIN
  6
CONTINUOUS
 62
     3
 48
5.0
100
AcDbLine
 10
262.2873671356773
 20
150.2972705935482
 30
0.0
 11
261.7873671356773
 21
146.2972705935482
 31
0.0
  0
LINE
  5
2A0
330
1A
100
AcDbEntity
  8
SEIHIN
  6
CONTINUOUS
 62
     3
 48
5.0
100
AcDbLine
 10
272.8382671474272
 20
284.298345610562
 30
0.0
 11
194.8417671356772
 21
284.2989955940343
 31
0.0
  0
LINE
  5
2A1
330
1A
100
AcDbEntity
  8
SEIHIN
  6
CONTINUOUS
 62
     3
 48
5.0
100
AcDbLine
 10
193.8417671356771
 20
294.2975705935482
 30
0.0
 11
273.8383671356772
 21
294.2973705910481
 31
0.0
  0
LINE
  5
2A2
330
1A
100
AcDbEntity
  8
SEIHIN
  6
CONTINUOUS
 62
     3
 48
5.0
100
AcDbLine
 10
203.8417671356772
 20
294.2975705935482
 30
0.0
 11
203.8417671356772
 21
284.2975705935482
 31
0.0
  0
LINE
  5
2A3
330
1A
100
AcDbEntity
  8
SEIHIN
  6
CONTINUOUS
 62
     3
 48
5.0
100
AcDbLine
 10
194.8417671356772
 20
294.2975705935482
 30
0.0
 11
194.8417671356772
 21
284.2975705935482
 31
0.0
  0
LINE
  5
2A4
330
1A
100
AcDbEntity
  8
SEIHIN
  6
CONTINUOUS
 62
     3
 48
5.0
100
AcDbLine
 10
263.8382671356772
 20
294.2973705935482
 30
0.0
 11
263.8382671356772
 21
284.297270593548
 31
0.0
  0
LINE
  5
2A5
330
1A
100
AcDbEntity
  8
SEIHIN
  6
CONTINUOUS
 62
     3
 48
5.0
100
AcDbLine
 10
272.8383671356772
 20
294.297270593548
 30
0.0
 11
272.8382671356772
 21
284.2971705935482
 31
0.0
  0
LINE
  5
2A6
330
1A
100
AcDbEntity
  8
SEIHIN
  6
CONTINUOUS
 62
     3
 48
5.0
100
AcDbLine
 10
428.126449629478
 20
284.2958705935482
 30
0.0
 11
431.776349629478
 21
166.2958705935481
 31
0.0
  0
LINE
  5
2A7
330
1A
100
AcDbEntity
  8
SEIHIN
  6
CONTINUOUS
 62
     3
 48
5.0
100
AcDbLine
 10
419.1263496294778
 20
284.2958705935482
 30
0.0
 11
422.776349629478
 21
166.2958705935481
 31
0.0
  0
LINE
  5
2A8
330
1A
100
AcDbEntity
  8
SEIHIN
  6
CONTINUOUS
 62
     3
 48
5.0
100
AcDbLine
 10
426.676349629478
 20
150.2958705935482
 30
0.0
 11
426.676349629478
 21
166.2958705935481
 31
0.0
  0
LINE
  5
2A9
330
1A
100
AcDbEntity
  8
SEIHIN
  6
CONTINUOUS
 62
     3
 48
5.0
100
AcDbLine
 10
426.676349629478
 20
150.2958705935482
 30
0.0
 11
427.1763496294778
 21
146.2958705935481
 31
0.0
  0
LINE
  5
2AA
330
1A
100
AcDbEntity
  8
SEIHIN
  6
CONTINUOUS
 62
     3
 48
5.0
100
AcDbLine
 10
416.1263496294778
 20
284.2958705935482
 30
0.0
 11
419.1263496294778
 21
284.2958705935482
 31
0.0
  0
LINE
  5
2AB
330
1A
100
AcDbEntity
  8
SEIHIN
  6
CONTINUOUS
 62
     3
 48
5.0
100
AcDbLine
 10
416.1264496294781
 20
294.2958705935481
 30
0.0
 11
416.1263496294778
 21
284.2958705935482
 31
0.0
  0
LINE
  5
2AC
330
1A
100
AcDbEntity
  8
SEIHIN
  6
CONTINUOUS
 62
     3
 48
5.0
100
AcDbLine
 10
425.1264496294781
 20
294.2958705935481
 30
0.0
 11
425.1263496294779
 21
284.2958705935482
 31
0.0
  0
LINE
  5
2AD
330
1A
100
AcDbEntity
  8
SEIHIN
  6
CONTINUOUS
 62
     3
 48
5.0
100
AcDbLine
 10
193.8417671356771
 20
296.2975705935482
 30
0.0
 11
273.8383671356772
 21
296.2975705935482
 31
0.0
  0
DIMENSION
  5
2AE
330
1A
100
AcDbEntity
  8
SUNPOU
 48
5.0
100
AcDbDimension
  2
*D6
 10
380.0185949849508
 20
390.2958705935482
 30
0.0
 11
375.0185949849507
 21
431.2960705935483
 31
0.0
 70
    32
  3
STANDARD
100
AcDbAlignedDimension
 13
426.958649629478
 23
472.2962705935482
 33
0.0
 14
426.9585496294779
 24
390.2958705935482
 34
0.0
 50
90.0
100
AcDbRotatedDimension
1001
ACAD
1000
DSTYLE
1002
{
1070
   372
1070
    -1
1070
   371
1070
    -1
1070
    41
1040
7.0
1070
    42
1040
6.0
1070
    43
1040
14.0
1070
    44
1040
3.0
1070
    73
1070
     0
1070
    74
1070
     0
1070
    77
1070
     3
1070
   140
1040
6.0
1070
   141
1040
150.0
1070
   147
1040
2.0
1070
   172
1070
     1
1070
   173
1070
     1
1070
   176
1070
   256
1070
   177
1070
   256
1070
   178
1070
   256
1070
   271
1070
     0
1070
   272
1070
     2
1070
     6
1000
OPEN
1070
     7
1000
OPEN
1002
}
  0
LINE
  5
2AF
330
1A
100
AcDbEntity
  8
SEIHIN
  6
CONTINUOUS
 62
     3
 48
5.0
100
AcDbLine
 10
424.126449629478
 20
409.0040886948986
 30
0.0
 11
424.126449629478
 21
453.5880705935481
 31
0.0
  0
LINE
  5
2B0
330
1A
100
AcDbEntity
  8
SEIHIN
  6
CONTINUOUS
 62
     3
 48
5.0
100
AcDbLine
 10
421.1264496294781
 20
406.109655846042
 30
0.0
 11
421.1264496294781
 21
456.4824705935482
 31
0.0
  0
LINE
  5
2B1
330
1A
100
AcDbEntity
  8
SEIHIN
  6
CONTINUOUS
 62
     3
 48
5.0
100
AcDbLine
 10
418.126449629478
 20
404.4379768916355
 30
0.0
 11
418.126449629478
 21
458.1541705935482
 31
0.0
  0
LINE
  5
2B2
330
1A
100
AcDbEntity
  8
SEIHIN
  6
CONTINUOUS
 62
     3
 48
5.0
100
AcDbLine
 10
415.126449629478
 20
402.1280859188799
 30
0.0
 11
415.126449629478
 21
460.4640705935483
 31
0.0
  0
ARC
  5
2B3
330
1A
100
AcDbEntity
  8
SEIHIN
  6
CONTINUOUS
 62
     3
 48
5.0
100
AcDbCircle
 10
420.1264496294781
 20
404.4379768916356
 30
0.0
 40
2.0
100
AcDbArc
 50
180.0000000000016
 51
250.5287589258814
  0
ARC
  5
2B4
330
1A
100
AcDbEntity
  8
SEIHIN
  6
CONTINUOUS
 62
     3
 48
5.0
100
AcDbCircle
 10
415.1263496294779
 20
390.2958705935482
 30
0.0
 40
10.00007164624343
100
AcDbArc
 50
9.594192533453533
 51
80.40550536072231
  0
ARC
  5
2B5
330
1A
100
AcDbEntity
  8
SEIHIN
  6
CONTINUOUS
 62
     3
 48
5.0
100
AcDbCircle
 10
417.1264496294781
 20
402.1280859188799
 30
0.0
 40
2.0
100
AcDbArc
 50
180.0
 51
260.4055053607214
  0
ARC
  5
2B6
330
1A
100
AcDbEntity
  8
SEIHIN
  6
CONTINUOUS
 62
     3
 48
5.0
100
AcDbCircle
 10
419.8087996292477
 20
394.978320593318
 30
0.0
 40
13.99998574546827
100
AcDbArc
 50
20.76304461266937
 51
69.23656294813085
  0
ARC
  5
2B7
330
1A
100
AcDbEntity
  8
SEIHIN
  6
CONTINUOUS
 62
     3
 48
5.0
100
AcDbCircle
 10
419.2820996292034
 20
394.4516205932734
 30
0.0
 40
11.00000470328544
100
AcDbArc
 50
13.71087970075338
 51
76.28874002910442
  0
ARC
  5
2B8
330
1A
100
AcDbEntity
  8
SEIHIN
  6
CONTINUOUS
 62
     3
 48
5.0
100
AcDbCircle
 10
415.1264269758254
 20
390.2957932470024
 30
0.0
 40
13.00005282575884
100
AcDbArc
 50
19.47181153931651
 51
70.52875892588052
  0
ARC
  5
2B9
330
1A
100
AcDbEntity
  8
SEIHIN
  6
CONTINUOUS
 62
     3
 48
5.0
100
AcDbCircle
 10
426.9585684291788
 20
392.2958547046718
 30
0.0
 40
1.999984111212061
100
AcDbArc
 50
189.5927150432863
 51
269.999461423963
  0
ARC
  5
2BA
330
1A
100
AcDbEntity
  8
SEIHIN
  6
CONTINUOUS
 62
     3
 48
5.0
100
AcDbCircle
 10
433.8346198406153
 20
400.2958911581252
 30
0.0
 40
1.000020565020762
100
AcDbArc
 50
200.7636170240443
 51
270.0017067410072
  0
ARC
  5
2BB
330
1A
100
AcDbEntity
  8
SEIHIN
  6
CONTINUOUS
 62
     3
 48
5.0
100
AcDbCircle
 10
430.9401555980016
 20
397.2958659060261
 30
0.0
 40
0.999995312495783
100
AcDbArc
 50
193.7093343745338
 51
269.999658027185
  0
ARC
  5
2BC
330
1A
100
AcDbEntity
  8
SEIHIN
  6
CONTINUOUS
 62
     3
 48
5.0
100
AcDbCircle
 10
429.268577396997
 20
395.2958509583553
 30
0.0
 40
1.999980365000028
100
AcDbArc
 50
199.4687971627546
 51
269.9992045113642
  0
ARC
  5
2BD
330
1A
100
AcDbEntity
  8
SEIHIN
  6
CONTINUOUS
 62
     3
 48
5.0
100
AcDbCircle
 10
422.126449629478
 20
406.109655846042
 30
0.0
 40
1.0
100
AcDbArc
 50
180.0
 51
256.2887400291054
  0
ARC
  5
2BE
330
1A
100
AcDbEntity
  8
SEIHIN
  6
CONTINUOUS
 62
     3
 48
5.0
100
AcDbCircle
 10
425.1264496294781
 20
409.0040886948986
 30
0.0
 40
1.0
100
AcDbArc
 50
180.0
 51
249.236562948131
  0
ARC
  5
2BF
330
1A
100
AcDbEntity
  8
SEIHIN
  6
CONTINUOUS
 62
     3
 48
5.0
100
AcDbCircle
 10
419.2821996292033
 20
468.1405205938228
 30
0.0
 40
11.00000470328539
100
AcDbArc
 50
283.7108797007538
 51
346.2891202992468
  0
ARC
  5
2C0
330
1A
100
AcDbEntity
  8
SEIHIN
  6
CONTINUOUS
 62
     3
 48
5.0
100
AcDbCircle
 10
419.8088496294779
 20
467.613870593548
 30
0.0
 40
14.00005022312419
100
AcDbArc
 50
290.7631634084769
 51
339.2368365915229
  0
ARC
  5
2C1
330
1A
100
AcDbEntity
  8
SEIHIN
  6
CONTINUOUS
 62
     3
 48
5.0
100
AcDbCircle
 10
420.1264299942851
 20
458.154142826029
 30
0.0
 40
1.999980364999888
100
AcDbArc
 50
109.468797162753
 51
179.9992045113626
  0
ARC
  5
2C2
330
1A
100
AcDbEntity
  8
SEIHIN
  6
CONTINUOUS
 62
     3
 48
5.0
100
AcDbCircle
 10
422.1264449419561
 20
456.4824646250245
 30
0.0
 40
0.9999953124958592
100
AcDbArc
 50
103.7093343745311
 51
179.9996580271801
  0
ARC
  5
2C3
330
1A
100
AcDbEntity
  8
SEIHIN
  6
CONTINUOUS
 62
     3
 48
5.0
100
AcDbCircle
 10
425.1264701940551
 20
453.5881003824107
 30
0.0
 40
1.000020565020769
100
AcDbArc
 50
110.7636170240477
 51
180.001706741008
  0
ARC
  5
2C4
330
1A
100
AcDbEntity
  8
SEIHIN
  6
CONTINUOUS
 62
     3
 48
5.0
100
AcDbCircle
 10
415.1264996291898
 20
472.2962205938363
 30
0.0
 40
10.00001401257235
100
AcDbArc
 50
279.5939578103328
 51
350.4060421896691
  0
ARC
  5
2C5
330
1A
100
AcDbEntity
  8
SEIHIN
  6
CONTINUOUS
 62
     3
 48
5.0
100
AcDbCircle
 10
417.1264337406017
 20
460.4640517938474
 30
0.0
 40
1.999984111212033
100
AcDbArc
 50
99.59271504328645
 51
179.9994614239638
  0
ARC
  5
2C6
330
1A
100
AcDbEntity
  8
SEIHIN
  6
CONTINUOUS
 62
     3
 48
5.0
100
AcDbCircle
 10
415.1265769757083
 20
472.2962979395803
 30
0.0
 40
12.99998901830091
100
AcDbArc
 50
289.470954086676
 51
340.5283227693798
  0
ARC
  5
2C7
330
1A
100
AcDbEntity
  8
SEIHIN
  6
CONTINUOUS
 62
     3
 48
5.0
100
AcDbCircle
 10
429.268677396997
 20
467.296290228741
 30
0.0
 40
1.999980365000003
100
AcDbArc
 50
90.00079548863451
 51
160.5312028372442
  0
ARC
  5
2C8
330
1A
100
AcDbEntity
  8
SEIHIN
  6
CONTINUOUS
 62
     3
 48
5.0
100
AcDbCircle
 10
430.9402555980016
 20
465.2962752810701
 30
0.0
 40
0.9999953124959317
100
AcDbArc
 50
90.0003419728133
 51
166.290665625468
  0
ARC
  5
2C9
330
1A
100
AcDbEntity
  8
SEIHIN
  6
CONTINUOUS
 62
     3
 48
5.0
100
AcDbCircle
 10
433.8347132342471
 20
462.2963145054764
 30
0.0
 40
0.9999560900946132
100
AcDbArc
 50
90.0036444448566
 51
159.2450609101328
  0
ARC
  5
2CA
330
1A
100
AcDbEntity
  8
SEIHIN
  6
CONTINUOUS
 62
     3
 48
5.0
100
AcDbCircle
 10
426.9586585690265
 20
470.2962781485767
 30
0.0
 40
1.999992444991589
100
AcDbArc
 50
90.00025610016509
 51
170.4041777326894
  0
DIMENSION
  5
2CB
330
1A
100
AcDbEntity
  8
SUNPOU
 48
5.0
100
AcDbDimension
  2
*D7
 10
562.1264496294781
 20
331.589972451748
 30
0.0
 11
508.625449629478
 21
336.589972451748
 31
0.0
 70
    32
  3
STANDARD
100
AcDbAlignedDimension
 13
455.124449629478
 23
191.2205705935482
 33
0.0
 14
562.1264496294781
 24
296.2958705935482
 34
0.0
100
AcDbRotatedDimension
1001
ACAD
1000
DSTYLE
1002
{
1070
   372
1070
    -1
1070
   371
1070
    -1
1070
    41
1040
7.0
1070
    42
1040
6.0
1070
    43
1040
14.0
1070
    44
1040
3.0
1070
    73
1070
     0
1070
    74
1070
     0
1070
    77
1070
     3
1070
   140
1040
6.0
1070
   141
1040
150.0
1070
   147
1040
2.0
1070
   172
1070
     1
1070
   173
1070
     1
1070
   176
1070
   256
1070
   177
1070
   256
1070
   178
1070
   256
1070
   271
1070
     0
1070
   272
1070
     2
1070
     6
1000
OPEN
1070
     7
1000
OPEN
1002
}
  0
DIMENSION
  5
2CC
330
1A
100
AcDbEntity
  8
SUNPOU
 48
5.0
100
AcDbDimension
  2
*D8
 10
614.4663817755476
 20
214.2959214773027
 30
0.0
 11
609.4663817755475
 21
255.2958960354255
 31
0.0
 70
    32
  3
STANDARD
100
AcDbAlignedDimension
 13
562.1264496294781
 23
296.2958705935482
 33
0.0
 14
555.1262631576101
 24
214.2959214773027
 34
0.0
 50
90.0
100
AcDbRotatedDimension
1001
ACAD
1000
DSTYLE
1002
{
1070
   372
1070
    -1
1070
   371
1070
    -1
1070
    41
1040
7.0
1070
    42
1040
6.0
1070
    43
1040
14.0
1070
    44
1040
3.0
1070
    73
1070
     0
1070
    74
1070
     0
1070
    77
1070
     3
1070
   140
1040
6.0
1070
   141
1040
150.0
1070
   147
1040
2.0
1070
   172
1070
     1
1070
   173
1070
     1
1070
   176
1070
   256
1070
   177
1070
   256
1070
   178
1070
   256
1070
   271
1070
     0
1070
   272
1070
     2
1070
     6
1000
OPEN
1070
     7
1000
OPEN
1002
}
  0
DIMENSION
  5
2CD
330
1A
100
AcDbEntity
  8
SUNPOU
 48
5.0
100
AcDbDimension
  2
*D9
 10
593.5332540060115
 20
236.2958705935481
 30
0.0
 11
588.5332540060115
 21
266.2958705935482
 31
0.0
 70
    32
  1
※ <>
  3
STANDARD
100
AcDbAlignedDimension
 13
562.1264496294781
 23
296.2958705935482
 33
0.0
 14
556.0691446349619
 24
236.2958705935482
 34
0.0
 50
90.0
100
AcDbRotatedDimension
1001
ACAD
1000
DSTYLE
1002
{
1070
   372
1070
    -1
1070
   371
1070
    -1
1070
    41
1040
7.0
1070
    42
1040
6.0
1070
    43
1040
14.0
1070
    44
1040
3.0
1070
    73
1070
     0
1070
    74
1070
     0
1070
    77
1070
     3
1070
   140
1040
6.0
1070
   141
1040
150.0
1070
   147
1040
2.0
1070
   172
1070
     1
1070
   173
1070
     1
1070
   176
1070
   256
1070
   177
1070
   256
1070
   178
1070
   256
1070
   271
1070
     0
1070
   272
1070
     2
1070
     6
1000
OPEN
1070
     7
1000
OPEN
1002
}
  0
LINE
  5
2CE
330
1A
100
AcDbEntity
  8
SEIHIN
  6
CONTINUOUS
 62
     3
 48
5.0
100
AcDbLine
 10
562.1264496294781
 20
296.2958705935482
 30
0.0
 11
562.1263496294781
 21
294.2952705935481
 31
0.0
  0
LINE
  5
2CF
330
1A
100
AcDbEntity
  8
SEIHIN
  6
CONTINUOUS
 62
     3
 48
5.0
100
AcDbLine
 10
552.126449629478
 20
296.2959705935481
 30
0.0
 11
552.1263496294779
 21
294.2959705935482
 31
0.0
  0
TEXT
  5
2D0
330
1A
100
AcDbEntity
  8
SUNPOU
 62
     4
 48
5.0
100
AcDbText
 10
625.1617783745131
 20
54.65345128121535
 30
0.0
 40
8.0
  1
※　たてといの差込み寸法を示す。
100
AcDbText
  0
LINE
  5
2D1
330
1A
100
AcDbEntity
  8
SEIHIN
  6
CONTINUOUS
 62
     3
 48
5.0
100
AcDbLine
 10
534.8664496294779
 20
214.4267705935481
 30
0.0
 11
484.0921496294779
 21
189.6587705935481
 31
0.0
  0
LINE
  5
2D2
330
1A
100
AcDbEntity
  8
SEIHIN
  6
CONTINUOUS
 62
     3
 48
5.0
100
AcDbLine
 10
539.0714496294779
 20
206.4642705935481
 30
0.0
 11
488.0379496294779
 21
181.5697705935481
 31
0.0
  0
DIMENSION
  5
2D3
330
1A
100
AcDbEntity
  8
SUNPOU
 48
5.0
100
AcDbDimension
  2
*D10
 10
522.9722772612984
 20
146.2958705935481
 30
0.0
 11
517.9722772612985
 21
161.2959205935423
 31
0.0
 70
    32
  1
※ <>
  3
STANDARD
100
AcDbAlignedDimension
 13
487.4263341615737
 23
176.2959705935362
 33
0.0
 14
483.026349629478
 24
146.2958705935481
 34
0.0
 50
90.0
100
AcDbRotatedDimension
1001
ACAD
1000
DSTYLE
1002
{
1070
   372
1070
    -1
1070
   371
1070
    -1
1070
    41
1040
7.0
1070
    42
1040
6.0
1070
    43
1040
14.0
1070
    44
1040
3.0
1070
    73
1070
     0
1070
    74
1070
     0
1070
    77
1070
     3
1070
   140
1040
6.0
1070
   141
1040
150.0
1070
   147
1040
2.0
1070
   172
1070
     1
1070
   173
1070
     1
1070
   176
1070
   256
1070
   177
1070
   256
1070
   178
1070
   256
1070
   271
1070
     0
1070
   272
1070
     2
1070
     6
1000
OPEN
1070
     7
1000
OPEN
1002
}
  0
LINE
  5
2D4
330
1A
100
AcDbEntity
  8
SEIHIN
  6
CONTINUOUS
 62
     3
 48
5.0
100
AcDbLine
 10
483.576349629478
 20
150.2957705935482
 30
0.0
 11
483.576349629478
 21
166.2958705935481
 31
0.0
  0
LINE
  5
2D5
330
1A
100
AcDbEntity
  8
CENTER_L
  6
CENTER
 62
     1
 48
5.0
100
AcDbLine
 10
455.1241819888016
 20
139.2958706009141
 30
0.0
 11
455.124449629478
 21
191.2205705935482
 31
0.0
  0
LINE
  5
2D6
330
1A
100
AcDbEntity
  8
SEIHIN
  6
CONTINUOUS
 62
     3
 48
5.0
100
AcDbLine
 10
483.576349629478
 20
150.2957705935482
 30
0.0
 11
483.076349629478
 21
146.2957705935482
 31
0.0
  0
LINE
  5
2D7
330
1A
100
AcDbEntity
  8
SEIHIN
  6
CONTINUOUS
 62
     3
 48
5.0
100
AcDbLine
 10
487.4763496294779
 20
180.6710705935482
 30
0.0
 11
487.4763496294779
 21
166.2958705935481
 31
0.0
  0
LINE
  5
2D8
330
1A
100
AcDbEntity
  8
SEIHIN
  6
CONTINUOUS
 62
     3
 48
5.0
100
AcDbLine
 10
478.4763496294779
 20
180.6710705935482
 30
0.0
 11
478.4763496294779
 21
166.2958705935481
 31
0.0
  0
ARC
  5
2D9
330
1A
100
AcDbEntity
  8
SEIHIN
  6
CONTINUOUS
 62
     3
 48
5.0
100
AcDbCircle
 10
488.4763486527277
 20
180.6710690303265
 30
0.0
 40
9.999999023250003
100
AcDbArc
 50
116.0031108094522
 51
179.9999910433986
  0
ARC
  5
2DA
330
1A
100
AcDbEntity
  8
SEIHIN
  6
CONTINUOUS
 62
     3
 48
5.0
100
AcDbCircle
 10
488.4763136906863
 20
180.6710130751607
 30
0.0
 40
0.9999640628626858
100
AcDbArc
 50
116.0005525978177
 51
179.9967043207164
  0
LINE
  5
2DB
330
1A
100
AcDbEntity
  8
SEIHIN
  6
CONTINUOUS
 62
     3
 48
5.0
100
AcDbLine
 10
549.126349629478
 20
284.2960705935481
 30
0.0
 11
546.9206496294779
 21
232.8296705935482
 31
0.0
  0
LINE
  5
2DC
330
1A
100
AcDbEntity
  8
SEIHIN
  6
CONTINUOUS
 62
     3
 48
5.0
100
AcDbLine
 10
558.126349629478
 20
284.2959705935482
 30
0.0
 11
555.8911496294781
 21
232.1427705935482
 31
0.0
  0
ARC
  5
2DD
330
1A
100
AcDbEntity
  8
SEIHIN
  6
CONTINUOUS
 62
     3
 48
5.0
100
AcDbCircle
 10
525.4403717839789
 20
233.7503044164898
 30
0.0
 40
21.4999977431575
100
AcDbArc
 50
296.003259105554
 51
357.5458339058176
  0
ARC
  5
2DE
330
1A
100
AcDbEntity
  8
SEIHIN
  6
CONTINUOUS
 62
     3
 48
5.0
100
AcDbCircle
 10
525.9187559051766
 20
233.4272801745191
 30
0.0
 40
29.99991012219977
100
AcDbArc
 50
296.00318470358
 51
357.5458186886212
  0
LINE
  5
2DF
330
1A
100
AcDbEntity
  8
SEIHIN
  6
CONTINUOUS
 62
     3
 48
5.0
100
AcDbLine
 10
552.126449629478
 20
294.2959705935482
 30
0.0
 11
552.1263496294779
 21
284.2959705935482
 31
0.0
  0
LINE
  5
2E0
330
1A
100
AcDbEntity
  8
SEIHIN
  6
CONTINUOUS
 62
     3
 48
5.0
100
AcDbLine
 10
561.1263496294781
 20
294.2958705935481
 30
0.0
 11
561.1263496294781
 21
284.2958705935482
 31
0.0
  0
LINE
  5
2E1
330
1A
100
AcDbEntity
  8
CENTER_L
  6
CENTER
 62
     1
 48
5.0
100
AcDbLine
 10
455.1264496294781
 20
431.295870593548
 30
0.0
 11
455.1263496294779
 21
385.6346705935482
 31
0.0
  0
LINE
  5
2E2
330
1A
100
AcDbEntity
  8
SEIHIN
  6
CONTINUOUS
 62
     3
 48
5.0
100
AcDbLine
 10
476.1508496294781
 20
399.2958705935482
 30
0.0
 11
520.6264496294778
 21
397.3942705935483
 31
0.0
  0
LINE
  5
2E3
330
1A
100
AcDbEntity
  8
SEIHIN
  6
CONTINUOUS
 62
     3
 48
5.0
100
AcDbLine
 10
476.150949629478
 20
463.2962705935481
 30
0.0
 11
520.626549629478
 21
465.1976705935481
 31
0.0
  0
LINE
  5
2E4
330
1A
100
AcDbEntity
  8
SEIHIN
  6
CONTINUOUS
 62
     3
 48
5.0
100
AcDbLine
 10
485.9189496294779
 20
408.3941705935481
 30
0.0
 11
555.8739496294781
 21
405.4456705935482
 31
0.0
  0
LINE
  5
2E5
330
1A
100
AcDbEntity
  8
SEIHIN
  6
CONTINUOUS
 62
     3
 48
5.0
100
AcDbLine
 10
485.9189496294779
 20
454.197770593548
 30
0.0
 11
555.8740496294781
 21
457.146170593548
 31
0.0
  0
LINE
  5
2E6
330
1A
100
AcDbEntity
  8
SEIHIN
  6
CONTINUOUS
 62
     3
 48
5.0
100
AcDbLine
 10
486.126449629478
 20
431.2961705935483
 30
0.0
 11
486.126449629478
 21
453.5879705935482
 31
0.0
  0
LINE
  5
2E7
330
1A
100
AcDbEntity
  8
CENTER_L
  6
CENTER
 62
     1
 48
5.0
100
AcDbLine
 10
455.1264496294781
 20
431.2961705935483
 30
0.0
 11
455.1264496294781
 21
476.9573705935482
 31
0.0
  0
LINE
  5
2E8
330
1A
100
AcDbEntity
  8
SEIHIN
  6
CONTINUOUS
 62
     3
 48
5.0
100
AcDbLine
 10
476.4181496294778
 20
399.2958705935482
 30
0.0
 11
456.6263496294779
 21
399.2958705935482
 31
0.0
  0
LINE
  5
2E9
330
1A
100
AcDbEntity
  8
SEIHIN
  6
CONTINUOUS
 62
     3
 48
5.0
100
AcDbLine
 10
453.6264496294781
 20
403.2703705935481
 30
0.0
 11
453.6264496294781
 21
396.2958705935482
 31
0.0
  0
LINE
  5
2EA
330
1A
100
AcDbEntity
  8
SEIHIN
  6
CONTINUOUS
 62
     3
 48
5.0
100
AcDbLine
 10
456.626449629478
 20
403.2703705935481
 30
0.0
 11
456.626449629478
 21
396.2958705935482
 31
0.0
  0
ARC
  5
2EB
330
1A
100
AcDbEntity
  8
SEIHIN
  6
CONTINUOUS
 62
     3
 48
5.0
100
AcDbCircle
 10
455.1264496294781
 20
403.2703705935481
 30
0.0
 40
1.5
100
AcDbArc
 50
0.0
 51
180.0
  0
LINE
  5
2EC
330
1A
100
AcDbEntity
  8
SEIHIN
  6
CONTINUOUS
 62
     3
 48
5.0
100
AcDbLine
 10
486.126449629478
 20
431.2957705935482
 30
0.0
 11
486.126349629478
 21
409.003970593548
 31
0.0
  0
ARC
  5
2ED
330
1A
100
AcDbEntity
  8
SEIHIN
  6
CONTINUOUS
 62
     3
 48
5.0
100
AcDbCircle
 10
490.4440301617756
 20
394.9782511256419
 30
0.0
 40
14.0000034708424
100
AcDbArc
 50
110.7635884249035
 51
159.2371165239993
  0
ARC
  5
2EE
330
1A
100
AcDbEntity
  8
SEIHIN
  6
CONTINUOUS
 62
     3
 48
5.0
100
AcDbCircle
 10
476.4181794183406
 20
400.2958911581254
 30
0.0
 40
1.000020565020877
100
AcDbArc
 50
269.9982932589886
 51
339.2363829759515
  0
ARC
  5
2EF
330
1A
100
AcDbEntity
  8
SEIHIN
  6
CONTINUOUS
 62
     3
 48
5.0
100
AcDbCircle
 10
485.126375817664
 20
409.0040085299396
 30
0.0
 40
0.9999738125336715
100
AcDbArc
 50
290.7617677892232
 51
359.9978263479496
  0
LINE
  5
2F0
330
1A
100
AcDbEntity
  8
SEIHIN
  6
CONTINUOUS
 62
     3
 48
5.0
100
AcDbLine
 10
476.4182496294779
 20
463.2962705935481
 30
0.0
 11
456.626449629478
 21
463.2961705935481
 31
0.0
  0
ARC
  5
2F1
330
1A
100
AcDbEntity
  8
SEIHIN
  6
CONTINUOUS
 62
     3
 48
5.0
100
AcDbCircle
 10
455.1264496294781
 20
459.3216705935481
 30
0.0
 40
1.5
100
AcDbArc
 50
180.0
 51
0.0
  0
LINE
  5
2F2
330
1A
100
AcDbEntity
  8
SEIHIN
  6
CONTINUOUS
 62
     3
 48
5.0
100
AcDbLine
 10
453.6264496294781
 20
459.3216705935481
 30
0.0
 11
453.626549629478
 21
466.2961705935481
 31
0.0
  0
LINE
  5
2F3
330
1A
100
AcDbEntity
  8
SEIHIN
  6
CONTINUOUS
 62
     3
 48
5.0
100
AcDbLine
 10
456.626449629478
 20
459.3216705935481
 30
0.0
 11
456.6265496294779
 21
466.2961705935481
 31
0.0
  0
ARC
  5
2F4
330
1A
100
AcDbEntity
  8
SEIHIN
  6
CONTINUOUS
 62
     3
 48
5.0
100
AcDbCircle
 10
490.444049629478
 20
467.6137705935481
 30
0.0
 40
13.99995671779017
100
AcDbArc
 50
200.7633084924271
 51
249.2366915075728
  0
ARC
  5
2F5
330
1A
100
AcDbEntity
  8
SEIHIN
  6
CONTINUOUS
 62
     3
 48
5.0
100
AcDbCircle
 10
485.1264290649011
 20
453.5880003824108
 30
0.0
 40
1.000020565020678
100
AcDbArc
 50
359.9982932589951
 51
69.23638297595871
  0
ARC
  5
2F6
330
1A
100
AcDbEntity
  8
SEIHIN
  6
CONTINUOUS
 62
     3
 48
5.0
100
AcDbCircle
 10
476.4181860247089
 20
462.2963145054763
 30
0.0
 40
0.9999560900947003
100
AcDbArc
 50
20.75493908987058
 51
89.99635555514664
  0
LINE
  5
2F7
330
1A
100
AcDbEntity
  8
SEIHIN
  6
CONTINUOUS
 62
     3
 48
5.0
100
AcDbLine
 10
559.1265496290321
 20
404.4380904000454
 30
0.0
 11
559.126349629478
 21
458.1537705935483
 31
0.0
  0
LINE
  5
2F8
330
1A
100
AcDbEntity
  8
SEIHIN
  6
CONTINUOUS
 62
     3
 48
5.0
100
AcDbLine
 10
556.1265496291334
 20
406.1097574041928
 30
0.0
 11
556.1263496294779
 21
456.482070593548
 31
0.0
  0
LINE
  5
2F9
330
1A
100
AcDbEntity
  8
SEIHIN
  6
CONTINUOUS
 62
     3
 48
5.0
100
AcDbLine
 10
562.1265496288272
 20
402.1281603861194
 30
0.0
 11
562.1263496294781
 21
460.4637705935482
 31
0.0
  0
LINE
  5
2FA
330
1A
100
AcDbEntity
  8
SEIHIN
  6
CONTINUOUS
 62
     3
 48
5.0
100
AcDbLine
 10
523.626449629478
 20
397.2659705935481
 30
0.0
 11
546.3125496294781
 21
396.2959705935483
 31
0.0
  0
LINE
  5
2FB
330
1A
100
AcDbEntity
  8
SEIHIN
  6
CONTINUOUS
 62
     3
 48
5.0
100
AcDbLine
 10
520.6264496294778
 20
403.2702705935482
 30
0.0
 11
520.6264496294778
 21
396.2957705935482
 31
0.0
  0
LINE
  5
2FC
330
1A
100
AcDbEntity
  8
SEIHIN
  6
CONTINUOUS
 62
     3
 48
5.0
100
AcDbLine
 10
523.626449629478
 20
403.2702705935482
 30
0.0
 11
523.626449629478
 21
396.2957705935482
 31
0.0
  0
ARC
  5
2FD
330
1A
100
AcDbEntity
  8
SEIHIN
  6
CONTINUOUS
 62
     3
 48
5.0
100
AcDbCircle
 10
522.126449629478
 20
403.2702705935482
 30
0.0
 40
1.500000000000085
100
AcDbArc
 50
0.0
 51
180.0
  0
ARC
  5
2FE
330
1A
100
AcDbEntity
  8
SEIHIN
  6
CONTINUOUS
 62
     3
 48
5.0
100
AcDbCircle
 10
547.9841218619589
 20
395.2959509583555
 30
0.0
 40
1.999980365000003
100
AcDbArc
 50
270.000795488634
 51
340.5312028372441
  0
ARC
  5
2FF
330
1A
100
AcDbEntity
  8
SEIHIN
  6
CONTINUOUS
 62
     3
 48
5.0
100
AcDbCircle
 10
557.9705657648771
 20
394.4516867290899
 30
0.0
 40
10.99995612787784
100
AcDbArc
 50
103.7096757116404
 51
166.2894131572552
  0
ARC
  5
300
330
1A
100
AcDbEntity
  8
SEIHIN
  6
CONTINUOUS
 62
     3
 48
5.0
100
AcDbCircle
 10
562.1262222832476
 20
390.2958432475159
 30
0.0
 40
12.99998901830091
100
AcDbArc
 50
109.4699092529045
 51
160.5283227693793
  0
ARC
  5
301
330
1A
100
AcDbEntity
  8
SEIHIN
  6
CONTINUOUS
 62
     3
 48
5.0
100
AcDbCircle
 10
546.3125436609543
 20
397.2959659060262
 30
0.0
 40
0.999995312495818
100
AcDbArc
 50
270.0003419728198
 51
346.2906656254704
  0
ARC
  5
302
330
1A
100
AcDbEntity
  8
SEIHIN
  6
CONTINUOUS
 62
     3
 48
5.0
100
AcDbCircle
 10
560.1265496288391
 20
402.1281535292665
 30
0.0
 40
2.0
100
AcDbArc
 50
279.5928888571231
 51
0.0001964343644973
  0
ARC
  5
303
330
1A
100
AcDbEntity
  8
SEIHIN
  6
CONTINUOUS
 62
     3
 48
5.0
100
AcDbCircle
 10
562.1263098004574
 20
390.2959307644274
 30
0.0
 40
10.00002234584393
100
AcDbArc
 50
99.59288885712318
 51
170.4061093631209
  0
ARC
  5
304
330
1A
100
AcDbEntity
  8
SEIHIN
  6
CONTINUOUS
 62
     3
 48
5.0
100
AcDbCircle
 10
550.2940406899297
 20
392.2959630385197
 30
0.0
 40
1.999992444991418
100
AcDbArc
 50
270.000256100165
 51
350.404177732687
  0
ARC
  5
305
330
1A
100
AcDbEntity
  8
SEIHIN
  6
CONTINUOUS
 62
     3
 48
5.0
100
AcDbCircle
 10
555.1265496291413
 20
406.1097534337646
 30
0.0
 40
1.0
100
AcDbArc
 50
283.7096757116404
 51
0.0002274887833764
  0
ARC
  5
306
330
1A
100
AcDbEntity
  8
SEIHIN
  6
CONTINUOUS
 62
     3
 48
5.0
100
AcDbCircle
 10
557.126549629046
 20
404.4380829534468
 30
0.0
 40
2.0
100
AcDbArc
 50
289.469909252905
 51
0.0002133293341761
  0
LINE
  5
307
330
1A
100
AcDbEntity
  8
SEIHIN
  6
CONTINUOUS
 62
     3
 48
5.0
100
AcDbLine
 10
523.626549629478
 20
465.325970593548
 30
0.0
 11
546.3125496294781
 21
466.2957705935482
 31
0.0
  0
ARC
  5
308
330
1A
100
AcDbEntity
  8
SEIHIN
  6
CONTINUOUS
 62
     3
 48
5.0
100
AcDbCircle
 10
522.1265496294781
 20
459.3216705935481
 30
0.0
 40
1.5
100
AcDbArc
 50
180.0
 51
0.0
  0
LINE
  5
309
330
1A
100
AcDbEntity
  8
SEIHIN
  6
CONTINUOUS
 62
     3
 48
5.0
100
AcDbLine
 10
523.626549629478
 20
459.3216705935481
 30
0.0
 11
523.626549629478
 21
466.2961705935481
 31
0.0
  0
LINE
  5
30A
330
1A
100
AcDbEntity
  8
SEIHIN
  6
CONTINUOUS
 62
     3
 48
5.0
100
AcDbLine
 10
520.626549629478
 20
459.3216705935481
 30
0.0
 11
520.626549629478
 21
466.2961705935481
 31
0.0
  0
ARC
  5
30B
330
1A
100
AcDbEntity
  8
SEIHIN
  6
CONTINUOUS
 62
     3
 48
5.0
100
AcDbCircle
 10
557.1263525982324
 20
458.1537663950122
 30
0.0
 40
1.999997031249934
100
AcDbArc
 50
0.0001202793775695
 51
70.52782664388722
  0
ARC
  5
30C
330
1A
100
AcDbEntity
  8
SEIHIN
  6
CONTINUOUS
 62
     3
 48
5.0
100
AcDbCircle
 10
557.9706996297526
 20
468.1402205938228
 30
0.0
 40
11.00000470328554
100
AcDbArc
 50
193.7108797007538
 51
256.2891202992465
  0
ARC
  5
30D
330
1A
100
AcDbEntity
  8
SEIHIN
  6
CONTINUOUS
 62
     3
 48
5.0
100
AcDbCircle
 10
555.1263424645293
 20
456.4820797174396
 30
0.0
 40
1.000007164990349
100
AcDbArc
 50
359.9994772432689
 51
76.28423463851179
  0
ARC
  5
30E
330
1A
100
AcDbEntity
  8
SEIHIN
  6
CONTINUOUS
 62
     3
 48
5.0
100
AcDbCircle
 10
547.9842454309419
 20
467.2957735623026
 30
0.0
 40
1.999997031250008
100
AcDbArc
 50
19.47217335611013
 51
89.99987972062079
  0
ARC
  5
30F
330
1A
100
AcDbEntity
  8
SEIHIN
  6
CONTINUOUS
 62
     3
 48
5.0
100
AcDbCircle
 10
562.1263496294781
 20
472.2958705935481
 30
0.0
 40
12.99997235150907
100
AcDbArc
 50
199.4711078932906
 51
250.528892106709
  0
ARC
  5
310
330
1A
100
AcDbEntity
  8
SEIHIN
  6
CONTINUOUS
 62
     3
 48
5.0
100
AcDbCircle
 10
546.3125587533697
 20
465.2957634285995
 30
0.0
 40
1.00000716499028
100
AcDbArc
 50
13.71576536149214
 51
90.0005227567343
  0
ARC
  5
311
330
1A
100
AcDbEntity
  8
SEIHIN
  6
CONTINUOUS
 62
     3
 48
5.0
100
AcDbCircle
 10
562.1263496294781
 20
472.2958705935483
 30
0.0
 40
9.999956378404881
100
AcDbArc
 50
189.5937230817995
 51
260.4062769182007
  0
ARC
  5
312
330
1A
100
AcDbEntity
  8
SEIHIN
  6
CONTINUOUS
 62
     3
 48
5.0
100
AcDbCircle
 10
560.1263571845065
 20
460.4636616539997
 30
0.0
 40
1.999992444991475
100
AcDbArc
 50
0.0002561001634702
 51
80.40417773268707
  0
ARC
  5
313
330
1A
100
AcDbEntity
  8
SEIHIN
  6
CONTINUOUS
 62
     3
 48
5.0
100
AcDbCircle
 10
550.2942308297772
 20
470.2958864824242
 30
0.0
 40
1.999984111212229
100
AcDbArc
 50
9.592715043290461
 51
89.99946142396707
  0
VIEWPORT
  5
22
330
17
100
AcDbEntity
 67
     1
  8
0
100
AcDbViewport
 10
313.6808219178082
 20
148.5
 30
0.0
 40
627.3616438356165
 41
297.0
 68
     2
 69
     1
1001
ACAD
1000
MVIEW
1002
{
1070
    16
1010
0.0
1020
0.0
1030
0.0
1010
0.0
1020
0.0
1030
1.0
1040
0.0
1040
297.0
1040
313.6808219178082
1040
148.5
1040
50.0
1040
0.0
1040
0.0
1070
     0
1070
   100
1070
     1
1070
     0
1070
     0
1070
     0
1070
     0
1070
     0
1040
0.0
1040
0.0
1040
0.0
1040
1.0
1040
1.0
1040
10.0
1040
10.0
1070
     0
1002
{
1002
}
1002
}
  0
VIEWPORT
  5
64
330
17
100
AcDbEntity
 67
     1
  8
VIEWPORT
100
AcDbViewport
 10
210.0
 20
148.5
 30
0.0
 40
420.0
 41
297.0
 68
     1
 69
     2
1001
ACAD
1000
MVIEW
1002
{
1070
    16
1010
0.0
1020
0.0
1030
0.0
1010
0.0
1020
0.0
1030
1.0
1040
0.0
1040
605.8799999999998
1040
420.0
1040
297.0
1040
50.0
1040
0.0
1040
0.0
1070
     0
1070
   100
1070
     1
1070
     0
1070
     0
1070
     0
1070
     0
1070
     0
1040
0.0
1040
0.0
1040
0.0
1040
10.0
1040
10.0
1040
0.0
1040
0.0
1070
     0
1002
{
1002
}
1002
}
  0
ENDSEC
  0
SECTION
  2
OBJECTS
  0
DICTIONARY
  5
C
330
0
100
AcDbDictionary
  3
ACAD_GROUP
350
D
  3
ACAD_LAYOUT
350
45E
  3
ACAD_MLINESTYLE
350
E
  3
ACAD_PLOTSETTINGS
350
45F
1001
ACAD
1000
TREAT_AS_HARD
1070
     0
  0
DICTIONARY
  5
685
330
1A
100
AcDbDictionary
  3
ACAD_LAYOUTSELFREF
350
757
1001
ACAD
1000
TREAT_AS_HARD
1070
     1
  0
DICTIONARY
  5
683
330
17
100
AcDbDictionary
  3
ACAD_LAYOUTSELFREF
350
756
1001
ACAD
1000
TREAT_AS_HARD
1070
     1
  0
DICTIONARY
  5
D
102
{ACAD_REACTORS
330
C
102
}
330
C
100
AcDbDictionary
1001
ACAD
1000
TREAT_AS_HARD
1070
     0
  0
DICTIONARY
  5
45E
102
{ACAD_REACTORS
330
C
102
}
330
C
100
AcDbDictionary
1001
ACAD
1000
TREAT_AS_HARD
1070
     0
  0
DICTIONARY
  5
E
102
{ACAD_REACTORS
330
C
102
}
330
C
100
AcDbDictionary
  3
STANDARD
350
13
1001
ACAD
1000
TREAT_AS_HARD
1070
     0
  0
DICTIONARY
  5
45F
102
{ACAD_REACTORS
330
C
102
}
330
C
100
AcDbDictionary
1001
ACAD
1000
TREAT_AS_HARD
1070
     0
  0
XRECORD
  5
757
102
{ACAD_REACTORS
330
685
102
}
330
685
100
AcDbXrecord
340
1A
  0
XRECORD
  5
756
102
{ACAD_REACTORS
330
683
102
}
330
683
100
AcDbXrecord
340
17
  0
MLINESTYLE
  5
13
102
{ACAD_REACTORS
330
E
102
}
330
E
100
AcDbMlineStyle
  2
STANDARD
 70
     0
  3

 62
     0
 51
90.0
 52
90.0
 71
     2
 49
0.5
 62
   256
  6
BYLAYER
 49
-0.5
 62
   256
  6
BYLAYER
  0
ENDSEC
  0
EOF
