  0
SECTION
  2
HEADER
  9
$ACADVER
  1
AC1015
  9
$ACADMAINTVER
 70
    20
  9
$DWGCODEPAGE
  3
ANSI_932
  9
$INSBASE
 10
0.0
 20
0.0
 30
0.0
  9
$EXTMIN
 10
14.9999991847701
 20
15.00000037419784
 30
0.0
  9
$EXTMAX
 10
812.5999991847702
 20
566.6000003741979
 30
0.0
  9
$LIMMIN
 10
0.0
 20
0.0
  9
$LIMMAX
 10
840.0
 20
594.0
  9
$ORTHOMODE
 70
     0
  9
$REGENMODE
 70
     1
  9
$FILLMODE
 70
     1
  9
$QTEXTMODE
 70
     0
  9
$MIRRTEXT
 70
     1
  9
$LTSCALE
 40
2.0
  9
$ATTMODE
 70
     1
  9
$TEXTSIZE
 40
5.0
  9
$TRACEWID
 40
1.0
  9
$TEXTSTYLE
  7
STANDARD
  9
$CLAYER
  8
NOKITOI
  9
$CELTYPE
  6
BYLAYER
  9
$CECOLOR
 62
   256
  9
$CELTSCALE
 40
1.0
  9
$DISPSILH
 70
     0
  9
$DIMSCALE
 40
1.0
  9
$DIMASZ
 40
7.0
  9
$DIMEXO
 40
6.0
  9
$DIMDLI
 40
14.0
  9
$DIMRND
 40
0.0
  9
$DIMDLE
 40
0.0
  9
$DIMEXE
 40
3.0
  9
$DIMTP
 40
0.0
  9
$DIMTM
 40
0.0
  9
$DIMTXT
 40
6.0
  9
$DIMCEN
 40
150.0
  9
$DIMTSZ
 40
0.0
  9
$DIMTOL
 70
     0
  9
$DIMLIM
 70
     0
  9
$DIMTIH
 70
     0
  9
$DIMTOH
 70
     0
  9
$DIMSE1
 70
     0
  9
$DIMSE2
 70
     0
  9
$DIMTAD
 70
     3
  9
$DIMZIN
 70
     0
  9
$DIMBLK
  1

  9
$DIMASO
 70
     1
  9
$DIMSHO
 70
     1
  9
$DIMPOST
  1

  9
$DIMAPOST
  1

  9
$DIMALT
 70
     0
  9
$DIMALTD
 70
     2
  9
$DIMALTF
 40
25.4
  9
$DIMLFAC
 40
1.0
  9
$DIMTOFL
 70
     1
  9
$DIMTVP
 40
0.0
  9
$DIMTIX
 70
     0
  9
$DIMSOXD
 70
     0
  9
$DIMSAH
 70
     1
  9
$DIMBLK1
  1
OPEN
  9
$DIMBLK2
  1
OPEN
  9
$DIMSTYLE
  2
DIM-2
  9
$DIMCLRD
 70
   256
  9
$DIMCLRE
 70
   256
  9
$DIMCLRT
 70
   256
  9
$DIMTFAC
 40
1.0
  9
$DIMGAP
 40
2.0
  9
$DIMJUST
 70
     0
  9
$DIMSD1
 70
     0
  9
$DIMSD2
 70
     0
  9
$DIMTOLJ
 70
     1
  9
$DIMTZIN
 70
     0
  9
$DIMALTZ
 70
     0
  9
$DIMALTTZ
 70
     0
  9
$DIMUPT
 70
     0
  9
$DIMDEC
 70
     0
  9
$DIMTDEC
 70
     0
  9
$DIMALTU
 70
     2
  9
$DIMALTTD
 70
     2
  9
$DIMTXSTY
  7
STANDARD
  9
$DIMAUNIT
 70
     0
  9
$DIMADEC
 70
     0
  9
$DIMALTRND
 40
0.0
  9
$DIMAZIN
 70
     0
  9
$DIMDSEP
 70
    46
  9
$DIMATFIT
 70
     3
  9
$DIMFRAC
 70
     0
  9
$DIMLDRBLK
  1
OPEN
  9
$DIMLUNIT
 70
     2
  9
$DIMLWD
 70
    -1
  9
$DIMLWE
 70
    -1
  9
$DIMTMOVE
 70
     0
  9
$LUNITS
 70
     2
  9
$LUPREC
 70
     4
  9
$SKETCHINC
 40
1.0
  9
$FILLETRAD
 40
20.0
  9
$AUNITS
 70
     0
  9
$AUPREC
 70
     0
  9
$MENU
  1
.
  9
$ELEVATION
 40
0.0
  9
$PELEVATION
 40
0.0
  9
$THICKNESS
 40
0.0
  9
$LIMCHECK
 70
     0
  9
$CHAMFERA
 40
0.0
  9
$CHAMFERB
 40
0.0
  9
$CHAMFERC
 40
40.0
  9
$CHAMFERD
 40
0.0
  9
$SKPOLY
 70
     0
  9
$TDCREATE
 40
2450994.354346065
  9
$TDUCREATE
 40
2450993.979346065
  9
$TDUPDATE
 40
2456827.667122558
  9
$TDUUPDATE
 40
2456827.292122558
  9
$TDINDWG
 40
0.0336079398
  9
$TDUSRTIMER
 40
0.0336079398
  9
$USRTIMER
 70
     1
  9
$ANGBASE
 50
0.0
  9
$ANGDIR
 70
     0
  9
$PDMODE
 70
     1
  9
$PDSIZE
 40
0.0
  9
$PLINEWID
 40
0.0
  9
$SPLFRAME
 70
     0
  9
$SPLINETYPE
 70
     6
  9
$SPLINESEGS
 70
     8
  9
$HANDSEED
  5
390B
  9
$SURFTAB1
 70
     6
  9
$SURFTAB2
 70
     6
  9
$SURFTYPE
 70
     6
  9
$SURFU
 70
     6
  9
$SURFV
 70
     6
  9
$UCSBASE
  2

  9
$UCSNAME
  2

  9
$UCSORG
 10
0.0
 20
0.0
 30
0.0
  9
$UCSXDIR
 10
1.0
 20
0.0
 30
0.0
  9
$UCSYDIR
 10
0.0
 20
1.0
 30
0.0
  9
$UCSORTHOREF
  2

  9
$UCSORTHOVIEW
 70
     0
  9
$UCSORGTOP
 10
0.0
 20
0.0
 30
0.0
  9
$UCSORGBOTTOM
 10
0.0
 20
0.0
 30
0.0
  9
$UCSORGLEFT
 10
0.0
 20
0.0
 30
0.0
  9
$UCSORGRIGHT
 10
0.0
 20
0.0
 30
0.0
  9
$UCSORGFRONT
 10
0.0
 20
0.0
 30
0.0
  9
$UCSORGBACK
 10
0.0
 20
0.0
 30
0.0
  9
$PUCSBASE
  2

  9
$PUCSNAME
  2

  9
$PUCSORG
 10
0.0
 20
0.0
 30
0.0
  9
$PUCSXDIR
 10
1.0
 20
0.0
 30
0.0
  9
$PUCSYDIR
 10
0.0
 20
1.0
 30
0.0
  9
$PUCSORTHOREF
  2

  9
$PUCSORTHOVIEW
 70
     0
  9
$PUCSORGTOP
 10
0.0
 20
0.0
 30
0.0
  9
$PUCSORGBOTTOM
 10
0.0
 20
0.0
 30
0.0
  9
$PUCSORGLEFT
 10
0.0
 20
0.0
 30
0.0
  9
$PUCSORGRIGHT
 10
0.0
 20
0.0
 30
0.0
  9
$PUCSORGFRONT
 10
0.0
 20
0.0
 30
0.0
  9
$PUCSORGBACK
 10
0.0
 20
0.0
 30
0.0
  9
$USERI1
 70
     0
  9
$USERI2
 70
     0
  9
$USERI3
 70
     0
  9
$USERI4
 70
     0
  9
$USERI5
 70
     0
  9
$USERR1
 40
0.0
  9
$USERR2
 40
0.0
  9
$USERR3
 40
0.0
  9
$USERR4
 40
0.0
  9
$USERR5
 40
0.0
  9
$WORLDVIEW
 70
     1
  9
$SHADEDGE
 70
     3
  9
$SHADEDIF
 70
    70
  9
$TILEMODE
 70
     1
  9
$MAXACTVP
 70
    16
  9
$PINSBASE
 10
0.0
 20
0.0
 30
0.0
  9
$PLIMCHECK
 70
     0
  9
$PEXTMIN
 10
0.0
 20
0.0
 30
0.0
  9
$PEXTMAX
 10
420.0
 20
297.0
 30
0.0
  9
$PLIMMIN
 10
0.0
 20
0.0
  9
$PLIMMAX
 10
420.0
 20
297.0
  9
$UNITMODE
 70
     0
  9
$VISRETAIN
 70
     0
  9
$PLINEGEN
 70
     0
  9
$PSLTSCALE
 70
     1
  9
$TREEDEPTH
 70
  3020
  9
$CMLSTYLE
  2
STANDARD
  9
$CMLJUST
 70
     0
  9
$CMLSCALE
 40
1.0
  9
$PROXYGRAPHICS
 70
     1
  9
$MEASUREMENT
 70
     1
  9
$CELWEIGHT
370
    -1
  9
$ENDCAPS
280
     0
  9
$JOINSTYLE
280
     0
  9
$LWDISPLAY
290
     0
  9
$INSUNITS
 70
     0
  9
$HYPERLINKBASE
  1

  9
$STYLESHEET
  1
print.ctb
  9
$XEDIT
290
     1
  9
$CEPSNTYPE
380
     0
  9
$PSTYLEMODE
290
     1
  9
$FINGERPRINTGUID
  2
{C56778C1-A286-4FAB-9BA7-CCD46472B6EF}
  9
$VERSIONGUID
  2
{3BB3C246-DA85-4488-9ABB-62552EEAFE8C}
  9
$EXTNAMES
290
     1
  9
$PSVPSCALE
 40
0.0
  9
$OLESTARTUP
290
     0
  0
ENDSEC
  0
SECTION
  2
CLASSES
  0
CLASS
  1
ACDBDICTIONARYWDFLT
  2
AcDbDictionaryWithDefault
  3
ObjectDBX Classes
 90
        0
280
     0
281
     0
  0
CLASS
  1
ACDBPLACEHOLDER
  2
AcDbPlaceHolder
  3
ObjectDBX Classes
 90
        0
280
     0
281
     0
  0
CLASS
  1
LAYOUT
  2
AcDbLayout
  3
ObjectDBX Classes
 90
        0
280
     0
281
     0
  0
CLASS
  1
DICTIONARYVAR
  2
AcDbDictionaryVar
  3
ObjectDBX Classes
 90
        0
280
     0
281
     0
  0
ENDSEC
  0
SECTION
  2
TABLES
  0
TABLE
  2
VPORT
  5
8
330
0
100
AcDbSymbolTable
 70
     2
  0
VPORT
  5
38FF
330
8
100
AcDbSymbolTableRecord
100
AcDbViewportTableRecord
  2
*Active
 70
     0
 10
0.0
 20
0.0
 11
1.0
 21
1.0
 12
608.7194096831622
 22
261.6700240149338
 13
0.0
 23
0.0
 14
5.0
 24
5.0
 15
0.0
 25
0.0
 16
0.0
 26
0.0
 36
1.0
 17
0.0
 27
0.0
 37
0.0
 40
824.3993928022208
 41
2.011264080100125
 42
50.0
 43
0.0
 44
0.0
 50
0.0
 51
0.0
 71
     0
 72
   100
 73
     1
 74
     0
 75
     0
 76
     0
 77
     0
 78
     0
281
     0
 65
     1
110
0.0
120
0.0
130
0.0
111
1.0
121
0.0
131
0.0
112
0.0
122
1.0
132
0.0
 79
     0
146
0.0
  0
ENDTAB
  0
TABLE
  2
LTYPE
  5
5
330
0
100
AcDbSymbolTable
 70
     4
  0
LTYPE
  5
14
330
5
100
AcDbSymbolTableRecord
100
AcDbLinetypeTableRecord
  2
BYBLOCK
 70
     0
  3

 72
    65
 73
     0
 40
0.0
  0
LTYPE
  5
15
330
5
100
AcDbSymbolTableRecord
100
AcDbLinetypeTableRecord
  2
BYLAYER
 70
     0
  3

 72
    65
 73
     0
 40
0.0
  0
LTYPE
  5
16
330
5
100
AcDbSymbolTableRecord
100
AcDbLinetypeTableRecord
  2
CONTINUOUS
 70
     0
  3
Solid line
 72
    65
 73
     0
 40
0.0
  0
LTYPE
  5
115
330
5
100
AcDbSymbolTableRecord
100
AcDbLinetypeTableRecord
  2
PHANTOM
 70
     0
  3
______  __  __  ______  __  __  ______  __  __ 
 72
    65
 73
     6
 40
2.5
 49
1.25
 74
     0
 49
-0.25
 74
     0
 49
0.25
 74
     0
 49
-0.25
 74
     0
 49
0.25
 74
     0
 49
-0.25
 74
     0
  0
LTYPE
  5
135
330
5
100
AcDbSymbolTableRecord
100
AcDbLinetypeTableRecord
  2
CENTER
 70
     0
  3
____ _ ____ _ ____ _ ____ _ ____ _ ____ _ ____ 
 72
    65
 73
     4
 40
2.0
 49
1.25
 74
     0
 49
-0.25
 74
     0
 49
0.25
 74
     0
 49
-0.25
 74
     0
  0
LTYPE
  5
2F6E
330
5
100
AcDbSymbolTableRecord
100
AcDbLinetypeTableRecord
  2
DASHED
 70
     0
  3
Dashed __ __ __ __ __ __ __ __ __ __ __ __ __ _
 72
    65
 73
     2
 40
19.05
 49
12.7
 74
     0
 49
-6.349999999999999
 74
     0
  0
ENDTAB
  0
TABLE
  2
LAYER
  5
2
330
0
100
AcDbSymbolTable
 70
     9
  0
LAYER
  5
F
330
2
100
AcDbSymbolTableRecord
100
AcDbLayerTableRecord
  2
0
 70
     0
 62
     7
  6
CONTINUOUS
370
    -3
390
673
  0
LAYER
  5
62
330
2
100
AcDbSymbolTableRecord
100
AcDbLayerTableRecord
  2
VIEWPORT
 70
     0
 62
     7
  6
CONTINUOUS
370
    -3
390
673
  0
LAYER
  5
65
330
2
100
AcDbSymbolTableRecord
100
AcDbLayerTableRecord
  2
ZUWAKU
 70
     0
 62
     7
  6
CONTINUOUS
370
    -3
390
673
  0
LAYER
  5
1EA
330
2
100
AcDbSymbolTableRecord
100
AcDbLayerTableRecord
  2
SEIHIN
 70
     0
 62
     3
  6
CONTINUOUS
370
    -3
390
673
  0
LAYER
  5
1EB
330
2
100
AcDbSymbolTableRecord
100
AcDbLayerTableRecord
  2
SUNPOU
 70
     0
 62
     4
  6
CONTINUOUS
370
    -3
390
673
  0
LAYER
  5
1EC
330
2
100
AcDbSymbolTableRecord
100
AcDbLayerTableRecord
  2
CENTER L
 70
     0
 62
     1
  6
CENTER
370
    -3
390
673
  0
LAYER
  5
1ED
330
2
100
AcDbSymbolTableRecord
100
AcDbLayerTableRecord
  2
NOKITOI
 70
     0
 62
     8
  6
PHANTOM
370
    -3
390
673
  0
LAYER
  5
1EE
330
2
100
AcDbSymbolTableRecord
100
AcDbLayerTableRecord
  2
DEFPOINTS
 70
     0
 62
     7
  6
CONTINUOUS
290
     0
370
    -3
390
673
  0
LAYER
  5
6B1
330
2
100
AcDbSymbolTableRecord
100
AcDbLayerTableRecord
  2
moji
 70
     0
 62
     2
  6
CONTINUOUS
370
    -3
390
673
  0
ENDTAB
  0
TABLE
  2
STYLE
  5
3
330
0
100
AcDbSymbolTable
 70
     2
  0
STYLE
  5
10
330
3
100
AcDbSymbolTableRecord
100
AcDbTextStyleTableRecord
  2
STANDARD
 70
     0
 40
0.0
 41
1.0
 50
0.0
 71
     0
 42
5.0
  3
TXT
  4
bigfont.shx
  0
STYLE
  5
6B2
330
3
100
AcDbSymbolTableRecord
100
AcDbTextStyleTableRecord
  2
ｽﾀｲﾙ1
 70
     0
 40
0.0
 41
1.0
 50
0.0
 71
     0
 42
2.5
  3

  4

1001
ACAD
1000
MS PGothic
1071
    32818
  0
ENDTAB
  0
TABLE
  2
VIEW
  5
6
330
0
100
AcDbSymbolTable
 70
     0
  0
ENDTAB
  0
TABLE
  2
UCS
  5
7
330
0
100
AcDbSymbolTable
 70
     0
  0
ENDTAB
  0
TABLE
  2
APPID
  5
9
330
0
100
AcDbSymbolTable
 70
     1
  0
APPID
  5
11
330
9
100
AcDbSymbolTableRecord
100
AcDbRegAppTableRecord
  2
ACAD
 70
     0
  0
ENDTAB
  0
TABLE
  2
DIMSTYLE
  5
A
330
0
100
AcDbSymbolTable
 70
     2
100
AcDbDimStyleTable
 71
     0
  0
DIMSTYLE
105
1D
102
{ACAD_REACTORS
330
374C
330
374B
330
374A
330
3717
330
3712
330
36ED
330
36EC
330
36EB
330
3689
330
3688
330
361B
330
361A
330
35B0
330
35AF
330
35AE
102
}
330
A
100
AcDbSymbolTableRecord
100
AcDbDimStyleTableRecord
  2
STANDARD
 70
     0
340
10
  0
DIMSTYLE
105
CD1
102
{ACAD_REACTORS
330
3751
330
3700
330
36FF
102
}
330
A
100
AcDbSymbolTableRecord
100
AcDbDimStyleTableRecord
  2
DIM-2
 70
     0
 41
7.0
 42
6.0
 43
14.0
 44
3.0
 73
     0
 74
     0
 77
     3
140
6.0
141
150.0
147
2.0
172
     1
173
     1
176
   256
177
   256
178
   256
271
     0
272
     0
340
10
341
6D
343
6D
344
6D
371
    -1
372
    -1
  0
ENDTAB
  0
TABLE
  2
BLOCK_RECORD
  5
1
330
0
100
AcDbSymbolTable
 70
    20
  0
BLOCK_RECORD
  5
1A
102
{ACAD_XDICTIONARY
360
6A3
102
}
330
1
100
AcDbSymbolTableRecord
100
AcDbBlockTableRecord
  2
*MODEL_SPACE
340
676
  0
BLOCK_RECORD
  5
17
102
{ACAD_XDICTIONARY
360
6A1
102
}
330
1
100
AcDbSymbolTableRecord
100
AcDbBlockTableRecord
  2
*PAPER_SPACE
340
677
  0
BLOCK_RECORD
  5
6D
330
1
100
AcDbSymbolTableRecord
100
AcDbBlockTableRecord
  2
_OPEN
340
0
102
{BLKREFS
331
3834
331
3835
331
383F
331
3840
331
3848
331
3849
331
3851
331
3852
331
385A
331
385B
331
3863
331
3864
331
386D
331
386E
331
3876
331
3877
331
3880
331
3881
331
3887
331
3888
331
3890
331
3891
331
3899
331
389A
331
38A2
331
38A3
331
38AB
331
38AC
331
38B4
331
38B5
331
38BD
331
38BE
331
38C6
331
38C7
331
38D0
331
38D1
102
}
  0
BLOCK_RECORD
  5
228D
330
1
100
AcDbSymbolTableRecord
100
AcDbBlockTableRecord
  2
*X1
340
0
102
{BLKREFS
331
780
102
}
  0
BLOCK_RECORD
  5
3758
330
1
100
AcDbSymbolTableRecord
100
AcDbBlockTableRecord
  2
*D2
340
0
  0
BLOCK_RECORD
  5
3764
330
1
100
AcDbSymbolTableRecord
100
AcDbBlockTableRecord
  2
*D3
340
0
  0
BLOCK_RECORD
  5
3772
330
1
100
AcDbSymbolTableRecord
100
AcDbBlockTableRecord
  2
*D4
340
0
  0
BLOCK_RECORD
  5
377E
330
1
100
AcDbSymbolTableRecord
100
AcDbBlockTableRecord
  2
*D5
340
0
  0
BLOCK_RECORD
  5
378A
330
1
100
AcDbSymbolTableRecord
100
AcDbBlockTableRecord
  2
*D6
340
0
  0
BLOCK_RECORD
  5
3796
330
1
100
AcDbSymbolTableRecord
100
AcDbBlockTableRecord
  2
*D7
340
0
  0
BLOCK_RECORD
  5
37A2
330
1
100
AcDbSymbolTableRecord
100
AcDbBlockTableRecord
  2
*D8
340
0
  0
BLOCK_RECORD
  5
37AF
330
1
100
AcDbSymbolTableRecord
100
AcDbBlockTableRecord
  2
*D9
340
0
  0
BLOCK_RECORD
  5
37BB
330
1
100
AcDbSymbolTableRecord
100
AcDbBlockTableRecord
  2
*D10
340
0
  0
BLOCK_RECORD
  5
37C6
330
1
100
AcDbSymbolTableRecord
100
AcDbBlockTableRecord
  2
*D11
340
0
  0
BLOCK_RECORD
  5
37D2
330
1
100
AcDbSymbolTableRecord
100
AcDbBlockTableRecord
  2
*D12
340
0
  0
BLOCK_RECORD
  5
37DE
330
1
100
AcDbSymbolTableRecord
100
AcDbBlockTableRecord
  2
*D13
340
0
  0
BLOCK_RECORD
  5
37EA
330
1
100
AcDbSymbolTableRecord
100
AcDbBlockTableRecord
  2
*D14
340
0
  0
BLOCK_RECORD
  5
37F6
330
1
100
AcDbSymbolTableRecord
100
AcDbBlockTableRecord
  2
*D15
340
0
  0
BLOCK_RECORD
  5
3802
330
1
100
AcDbSymbolTableRecord
100
AcDbBlockTableRecord
  2
*D16
340
0
  0
BLOCK_RECORD
  5
380E
330
1
100
AcDbSymbolTableRecord
100
AcDbBlockTableRecord
  2
*D17
340
0
  0
BLOCK_RECORD
  5
381A
330
1
100
AcDbSymbolTableRecord
100
AcDbBlockTableRecord
  2
*D18
340
0
  0
BLOCK_RECORD
  5
3826
330
1
100
AcDbSymbolTableRecord
100
AcDbBlockTableRecord
  2
*D19
340
0
  0
ENDTAB
  0
ENDSEC
  0
SECTION
  2
BLOCKS
  0
BLOCK
  5
1B
330
1A
100
AcDbEntity
  8
0
100
AcDbBlockBegin
  2
*MODEL_SPACE
 70
     0
 10
0.0
 20
0.0
 30
0.0
  3
*MODEL_SPACE
  1

  0
ENDBLK
  5
1C
330
1A
100
AcDbEntity
  8
0
100
AcDbBlockEnd
  0
BLOCK
  5
18
330
17
100
AcDbEntity
 67
     1
  8
0
100
AcDbBlockBegin
  2
*PAPER_SPACE
 70
     0
 10
0.0
 20
0.0
 30
0.0
  3
*PAPER_SPACE
  1

  0
ENDBLK
  5
19
330
17
100
AcDbEntity
 67
     1
  8
0
100
AcDbBlockEnd
  0
BLOCK
  5
6E
330
6D
100
AcDbEntity
  8
0
100
AcDbBlockBegin
  2
_OPEN
 70
     0
 10
0.0
 20
0.0
 30
0.0
  3
_OPEN
  1

  0
LINE
  5
6F
330
6D
100
AcDbEntity
  8
0
  6
ByBlock
 62
     0
100
AcDbLine
 10
-1.0
 20
0.1666666666666666
 30
0.0
 11
0.0
 21
0.0
 31
0.0
  0
LINE
  5
70
330
6D
100
AcDbEntity
  8
0
  6
ByBlock
 62
     0
100
AcDbLine
 10
0.0
 20
0.0
 30
0.0
 11
-1.0
 21
-0.1666666666666666
 31
0.0
  0
LINE
  5
71
330
6D
100
AcDbEntity
  8
0
  6
ByBlock
 62
     0
100
AcDbLine
 10
0.0
 20
0.0
 30
0.0
 11
-1.0
 21
0.0
 31
0.0
  0
ENDBLK
  5
72
330
6D
100
AcDbEntity
  8
0
100
AcDbBlockEnd
  0
BLOCK
  5
2421
330
228D
100
AcDbEntity
  8
0
100
AcDbBlockBegin
  2
*X1
 70
     1
 10
0.0
 20
0.0
 30
0.0
  3
*X1
  1

  0
LINE
  5
228E
330
228D
100
AcDbEntity
  8
0
 62
     0
100
AcDbLine
 10
84.04221133955109
 20
37.60416944448309
 30
0.0
 11
83.39638040983647
 21
38.25000037419773
 31
0.0
  0
LINE
  5
228F
330
228D
100
AcDbEntity
  8
0
 62
     0
100
AcDbLine
 10
84.04221133955109
 20
36.7061438323762
 30
0.0
 11
82.49835479772945
 21
38.25000037419778
 31
0.0
  0
LINE
  5
2290
330
228D
100
AcDbEntity
  8
0
 62
     0
100
AcDbLine
 10
84.04221133955109
 20
35.80811822026925
 30
0.0
 11
81.62107739353627
 21
38.22925216628403
 31
0.0
  0
LINE
  5
2291
330
228D
100
AcDbEntity
  8
0
 62
     0
100
AcDbLine
 10
84.04221133955122
 20
34.9100926081623
 30
0.0
 11
81.24221133955121
 21
37.71009260816226
 31
0.0
  0
LINE
  5
2292
330
228D
100
AcDbEntity
  8
0
 62
     0
100
AcDbLine
 10
84.04221133955116
 20
34.01206699605535
 30
0.0
 11
81.24221133955121
 21
36.81206699605537
 31
0.0
  0
LINE
  5
2293
330
228D
100
AcDbEntity
  8
0
 62
     0
100
AcDbLine
 10
84.04221133955116
 20
33.11404138394846
 30
0.0
 11
81.24221133955115
 21
35.91404138394842
 31
0.0
  0
LINE
  5
2294
330
228D
100
AcDbEntity
  8
0
 62
     0
100
AcDbLine
 10
79.14221133955118
 20
37.11601577184155
 30
0.0
 11
78.00822673719494
 21
38.25000037419778
 31
0.0
  0
LINE
  5
2295
330
228D
100
AcDbEntity
  8
0
 62
     0
100
AcDbLine
 10
84.04221133955116
 20
32.21601577184157
 30
0.0
 11
81.24221133955121
 21
35.01601577184158
 31
0.0
  0
LINE
  5
2296
330
228D
100
AcDbEntity
  8
0
 62
     0
100
AcDbLine
 10
79.14221133955118
 20
36.21799015973465
 30
0.0
 11
77.11020112508805
 21
38.25000037419778
 31
0.0
  0
LINE
  5
2297
330
228D
100
AcDbEntity
  8
0
 62
     0
100
AcDbLine
 10
84.04221133955116
 20
31.31799015973468
 30
0.0
 11
81.24221133955121
 21
34.11799015973463
 31
0.0
  0
LINE
  5
2298
330
228D
100
AcDbEntity
  8
0
 62
     0
100
AcDbLine
 10
79.14221133955118
 20
35.31996454762771
 30
0.0
 11
76.4367003744141
 21
38.02547551276479
 31
0.0
  0
LINE
  5
2299
330
228D
100
AcDbEntity
  8
0
 62
     0
100
AcDbLine
 10
84.04221133955116
 20
30.41996454762773
 30
0.0
 11
81.24221133955115
 21
33.21996454762768
 31
0.0
  0
LINE
  5
229A
330
228D
100
AcDbEntity
  8
0
 62
     0
100
AcDbLine
 10
79.14221133955118
 20
34.42193893552076
 30
0.0
 11
76.34221133955112
 21
37.22193893552083
 31
0.0
  0
LINE
  5
229B
330
228D
100
AcDbEntity
  8
0
 62
     0
100
AcDbLine
 10
84.04221133955116
 20
29.52193893552084
 30
0.0
 11
81.24221133955121
 21
32.32193893552079
 31
0.0
  0
LINE
  5
229C
330
228D
100
AcDbEntity
  8
0
 62
     0
100
AcDbLine
 10
79.14221133955118
 20
33.52391332341392
 30
0.0
 11
76.34221133955112
 21
36.32391332341399
 31
0.0
  0
LINE
  5
229D
330
228D
100
AcDbEntity
  8
0
 62
     0
100
AcDbLine
 10
84.04221133955122
 20
28.62391332341383
 30
0.0
 11
81.24221133955115
 21
31.4239133234139
 31
0.0
  0
LINE
  5
229E
330
228D
100
AcDbEntity
  8
0
 62
     0
100
AcDbLine
 10
79.14221133955113
 20
32.62588771130698
 30
0.0
 11
76.34221133955112
 21
35.42588771130704
 31
0.0
  0
LINE
  5
229F
330
228D
100
AcDbEntity
  8
0
 62
     0
100
AcDbLine
 10
84.04221133955122
 20
27.72588771130694
 30
0.0
 11
81.24221133955115
 21
30.52588771130701
 31
0.0
  0
LINE
  5
22A0
330
228D
100
AcDbEntity
  8
0
 62
     0
100
AcDbLine
 10
79.14221133955113
 20
31.72786209920008
 30
0.0
 11
76.34221133955105
 21
34.52786209920009
 31
0.0
  0
LINE
  5
22A1
330
228D
100
AcDbEntity
  8
0
 62
     0
100
AcDbLine
 10
84.04221133955116
 20
26.82786209919999
 30
0.0
 11
81.24221133955115
 21
29.62786209920006
 31
0.0
  0
LINE
  5
22A2
330
228D
100
AcDbEntity
  8
0
 62
     0
100
AcDbLine
 10
79.14221133955118
 20
30.82983648709319
 30
0.0
 11
76.34221133955112
 21
33.62983648709326
 31
0.0
  0
LINE
  5
22A3
330
228D
100
AcDbEntity
  8
0
 62
     0
100
AcDbLine
 10
72.84221133955117
 20
37.1298364870932
 30
0.0
 11
71.72204745244653
 21
38.25000037419784
 31
0.0
  0
LINE
  5
22A4
330
228D
100
AcDbEntity
  8
0
 62
     0
100
AcDbLine
 10
84.04221133955122
 20
25.92983648709316
 30
0.0
 11
81.24221133955115
 21
28.72983648709317
 31
0.0
  0
LINE
  5
22A5
330
228D
100
AcDbEntity
  8
0
 62
     0
100
AcDbLine
 10
79.14221133955113
 20
29.9318108749863
 30
0.0
 11
76.34221133955105
 21
32.73181087498631
 31
0.0
  0
LINE
  5
22A6
330
228D
100
AcDbEntity
  8
0
 62
     0
100
AcDbLine
 10
72.84221133955111
 20
36.23181087498625
 30
0.0
 11
70.82402184033958
 21
38.25000037419784
 31
0.0
  0
LINE
  5
22A7
330
228D
100
AcDbEntity
  8
0
 62
     0
100
AcDbLine
 10
84.04221133955122
 20
25.03181087498621
 30
0.0
 11
81.24221133955115
 21
27.83181087498628
 31
0.0
  0
LINE
  5
22A8
330
228D
100
AcDbEntity
  8
0
 62
     0
100
AcDbLine
 10
79.14221133955113
 20
29.03378526287935
 30
0.0
 11
76.34221133955112
 21
31.8337852628793
 31
0.0
  0
LINE
  5
22A9
330
228D
100
AcDbEntity
  8
0
 62
     0
100
AcDbLine
 10
72.84221133955111
 20
35.33378526287936
 30
0.0
 11
70.14244861622711
 21
38.03354798620336
 31
0.0
  0
LINE
  5
22AA
330
228D
100
AcDbEntity
  8
0
 62
     0
100
AcDbLine
 10
84.04221133955116
 20
24.13378526287932
 30
0.0
 11
81.24221133955108
 21
26.93378526287933
 31
0.0
  0
LINE
  5
22AB
330
228D
100
AcDbEntity
  8
0
 62
     0
100
AcDbLine
 10
79.14221133955113
 20
28.1357596507724
 30
0.0
 11
76.34221133955117
 21
30.93575965077241
 31
0.0
  0
LINE
  5
22AC
330
228D
100
AcDbEntity
  8
0
 62
     0
100
AcDbLine
 10
72.84221133955117
 20
34.43575965077241
 30
0.0
 11
70.0422113395511
 21
37.23575965077248
 31
0.0
  0
LINE
  5
22AD
330
228D
100
AcDbEntity
  8
0
 62
     0
100
AcDbLine
 10
84.04221133955122
 20
23.23575965077237
 30
0.0
 11
81.24221133955115
 21
26.03575965077244
 31
0.0
  0
LINE
  5
22AE
330
228D
100
AcDbEntity
  8
0
 62
     0
100
AcDbLine
 10
79.14221133955113
 20
27.23773403866557
 30
0.0
 11
76.34221133955117
 21
30.03773403866552
 31
0.0
  0
LINE
  5
22AF
330
228D
100
AcDbEntity
  8
0
 62
     0
100
AcDbLine
 10
72.84221133955123
 20
33.53773403866546
 30
0.0
 11
70.04221133955105
 21
36.33773403866559
 31
0.0
  0
LINE
  5
22B0
330
228D
100
AcDbEntity
  8
0
 62
     0
100
AcDbLine
 10
83.9702459846614
 20
22.40969939355529
 30
0.0
 11
81.24221133955115
 21
25.13773403866554
 31
0.0
  0
LINE
  5
22B1
330
228D
100
AcDbEntity
  8
0
 62
     0
100
AcDbLine
 10
79.14221133955113
 20
26.33970842655862
 30
0.0
 11
76.34221133955112
 21
29.13970842655857
 31
0.0
  0
LINE
  5
22B2
330
228D
100
AcDbEntity
  8
0
 62
     0
100
AcDbLine
 10
72.84221133955117
 20
32.63970842655857
 30
0.0
 11
70.04221133955105
 21
35.4397084265587
 31
0.0
  0
LINE
  5
22B3
330
228D
100
AcDbEntity
  8
0
 62
     0
100
AcDbLine
 10
83.33191939191204
 20
22.15000037419764
 30
0.0
 11
81.24221133955108
 21
24.23970842655865
 31
0.0
  0
LINE
  5
22B4
330
228D
100
AcDbEntity
  8
0
 62
     0
100
AcDbLine
 10
72.84221133955117
 20
31.74168281445162
 30
0.0
 11
70.0422113395511
 21
34.54168281445169
 31
0.0
  0
LINE
  5
22B5
330
228D
100
AcDbEntity
  8
0
 62
     0
100
AcDbLine
 10
79.14221133955106
 20
25.44168281445172
 30
0.0
 11
76.34221133955112
 21
28.24168281445168
 31
0.0
  0
LINE
  5
22B6
330
228D
100
AcDbEntity
  8
0
 62
     0
100
AcDbLine
 10
67.41721133955116
 20
37.16668281445163
 30
0.0
 11
66.33389377980501
 21
38.25000037419773
 31
0.0
  0
LINE
  5
22B7
330
228D
100
AcDbEntity
  8
0
 62
     0
100
AcDbLine
 10
82.43389377980504
 20
22.1500003741977
 30
0.0
 11
81.24221133955108
 21
23.3416828144517
 31
0.0
  0
LINE
  5
22B8
330
228D
100
AcDbEntity
  8
0
 62
     0
100
AcDbLine
 10
72.84221133955117
 20
30.84365720234473
 30
0.0
 11
70.04221133955116
 21
33.6436572023448
 31
0.0
  0
LINE
  5
22B9
330
228D
100
AcDbEntity
  8
0
 62
     0
100
AcDbLine
 10
67.41721133955116
 20
36.26865720234474
 30
0.0
 11
65.43586816769817
 21
38.25000037419778
 31
0.0
  0
LINE
  5
22BA
330
228D
100
AcDbEntity
  8
0
 62
     0
100
AcDbLine
 10
79.11625303890565
 20
24.5696155029903
 30
0.0
 11
76.34221133955112
 21
27.34365720234479
 31
0.0
  0
LINE
  5
22BB
330
228D
100
AcDbEntity
  8
0
 62
     0
100
AcDbLine
 10
72.84221133955117
 20
29.94563159023784
 30
0.0
 11
70.0422113395511
 21
32.74563159023791
 31
0.0
  0
LINE
  5
22BC
330
228D
100
AcDbEntity
  8
0
 62
     0
100
AcDbLine
 10
67.22163079343733
 20
35.56621213635168
 30
0.0
 11
64.53784255559117
 21
38.25000037419784
 31
0.0
  0
LINE
  5
22BD
330
228D
100
AcDbEntity
  8
0
 62
     0
100
AcDbLine
 10
78.92326774364841
 20
23.86457518614054
 30
0.0
 11
76.34221133955112
 21
26.44563159023789
 31
0.0
  0
LINE
  5
22BE
330
228D
100
AcDbEntity
  8
0
 62
     0
100
AcDbLine
 10
72.84221133955117
 20
29.04760597813089
 30
0.0
 11
70.0422113395511
 21
31.84760597813096
 31
0.0
  0
LINE
  5
22BF
330
228D
100
AcDbEntity
  8
0
 62
     0
100
AcDbLine
 10
66.43981694348434
 20
35.45000037419766
 30
0.0
 11
63.63981694348428
 21
38.25000037419773
 31
0.0
  0
LINE
  5
22C0
330
228D
100
AcDbEntity
  8
0
 62
     0
100
AcDbLine
 10
78.59823586772484
 20
23.29158144995716
 30
0.0
 11
76.2706956003916
 21
25.61912171729046
 31
0.0
  0
LINE
  5
22C1
330
228D
100
AcDbEntity
  8
0
 62
     0
100
AcDbLine
 10
72.84221133955117
 20
28.14958036602405
 30
0.0
 11
70.0422113395511
 21
30.94958036602406
 31
0.0
  0
LINE
  5
22C2
330
228D
100
AcDbEntity
  8
0
 62
     0
100
AcDbLine
 10
65.54179133137751
 20
35.45000037419772
 30
0.0
 11
62.80422460219995
 21
38.18756710337527
 31
0.0
  0
LINE
  5
22C3
330
228D
100
AcDbEntity
  8
0
 62
     0
100
AcDbLine
 10
78.16619407039979
 20
22.82559763517537
 30
0.0
 11
75.86910996192409
 21
25.12268174365107
 31
0.0
  0
LINE
  5
22C4
330
228D
100
AcDbEntity
  8
0
 62
     0
100
AcDbLine
 10
72.84221133955117
 20
27.25155475391711
 30
0.0
 11
70.0422113395511
 21
30.05155475391717
 31
0.0
  0
LINE
  5
22C5
330
228D
100
AcDbEntity
  8
0
 62
     0
100
AcDbLine
 10
64.64376571927051
 20
35.45000037419777
 30
0.0
 11
62.13958417766656
 21
37.95418191580166
 31
0.0
  0
LINE
  5
22C6
330
228D
100
AcDbEntity
  8
0
 62
     0
100
AcDbLine
 10
77.63003172547377
 20
22.46373436799451
 30
0.0
 11
75.1437657192705
 21
24.95000037419777
 31
0.0
  0
LINE
  5
22C7
330
228D
100
AcDbEntity
  8
0
 62
     0
100
AcDbLine
 10
72.84221133955111
 20
26.35352914181016
 30
0.0
 11
70.0422113395511
 21
29.15352914181023
 31
0.0
  0
LINE
  5
22C8
330
228D
100
AcDbEntity
  8
0
 62
     0
100
AcDbLine
 10
63.76752993518159
 20
35.42821054617969
 30
0.0
 11
61.59698324045638
 21
37.59875724090489
 31
0.0
  0
LINE
  5
22C9
330
228D
100
AcDbEntity
  8
0
 62
     0
100
AcDbLine
 10
76.97361916556246
 20
22.22212131579886
 30
0.0
 11
74.24574010716367
 21
24.95000037419766
 31
0.0
  0
LINE
  5
22CA
330
228D
100
AcDbEntity
  8
0
 62
     0
100
AcDbLine
 10
63.39221133955118
 20
34.9055035297032
 30
0.0
 11
61.15887118141182
 21
37.13884368784249
 31
0.0
  0
LINE
  5
22CB
330
228D
100
AcDbEntity
  8
0
 62
     0
100
AcDbLine
 10
76.14771449505667
 20
22.15000037419764
 30
0.0
 11
70.04221133955105
 21
28.25550352970333
 31
0.0
  0
LINE
  5
22CC
330
228D
100
AcDbEntity
  8
0
 62
     0
100
AcDbLine
 10
63.39221133955124
 20
34.00747791759631
 30
0.0
 11
60.8271002690588
 21
36.57258898808874
 31
0.0
  0
LINE
  5
22CD
330
228D
100
AcDbEntity
  8
0
 62
     0
100
AcDbLine
 10
75.24968888294973
 20
22.15000037419776
 30
0.0
 11
70.0422113395511
 21
27.35747791759644
 31
0.0
  0
LINE
  5
22CE
330
228D
100
AcDbEntity
  8
0
 62
     0
100
AcDbLine
 10
63.59875562065503
 20
32.90290802438557
 30
0.0
 11
60.62492174969469
 21
35.87674189534585
 31
0.0
  0
LINE
  5
22CF
330
228D
100
AcDbEntity
  8
0
 62
     0
100
AcDbLine
 10
74.35166327084283
 20
22.15000037419776
 30
0.0
 11
70.04221133955116
 21
26.45945230548944
 31
0.0
  0
LINE
  5
22D0
330
228D
100
AcDbEntity
  8
0
 62
     0
100
AcDbLine
 10
67.81581504224255
 20
27.7878229906911
 30
0.0
 11
60.59221133955111
 21
35.01142669338253
 31
0.0
  0
LINE
  5
22D1
330
228D
100
AcDbEntity
  8
0
 62
     0
100
AcDbLine
 10
58.49221133955109
 20
37.1114266933825
 30
0.0
 11
57.35363765873586
 21
38.25000037419778
 31
0.0
  0
LINE
  5
22D2
330
228D
100
AcDbEntity
  8
0
 62
     0
100
AcDbLine
 10
73.45363765873589
 20
22.15000037419776
 30
0.0
 11
70.0422113395511
 21
25.56142669338249
 31
0.0
  0
LINE
  5
22D3
330
228D
100
AcDbEntity
  8
0
 62
     0
100
AcDbLine
 10
67.94221133955108
 20
26.76340108127573
 30
0.0
 11
60.59221133955117
 21
34.11340108127564
 31
0.0
  0
LINE
  5
22D4
330
228D
100
AcDbEntity
  8
0
 62
     0
100
AcDbLine
 10
58.4922113395512
 20
36.21340108127555
 30
0.0
 11
56.45561204662897
 21
38.25000037419778
 31
0.0
  0
LINE
  5
22D5
330
228D
100
AcDbEntity
  8
0
 62
     0
100
AcDbLine
 10
72.53916416788411
 20
22.1664482529427
 30
0.0
 11
70.05865921829609
 21
24.64695320253071
 31
0.0
  0
LINE
  5
22D6
330
228D
100
AcDbEntity
  8
0
 62
     0
100
AcDbLine
 10
58.4922113395512
 20
35.31537546916866
 30
0.0
 11
55.78482145177588
 21
38.02276535694392
 31
0.0
  0
LINE
  5
22D7
330
228D
100
AcDbEntity
  8
0
 62
     0
100
AcDbLine
 10
67.94221133955113
 20
25.86537546916872
 30
0.0
 11
60.61562200743356
 21
33.1919648012863
 31
0.0
  0
LINE
  5
22D8
330
228D
100
AcDbEntity
  8
0
 62
     0
100
AcDbLine
 10
58.4922113395512
 20
34.41734985706171
 30
0.0
 11
55.69221133955114
 21
37.21734985706178
 31
0.0
  0
LINE
  5
22D9
330
228D
100
AcDbEntity
  8
0
 62
     0
100
AcDbLine
 10
67.94221133955108
 20
24.96734985706178
 30
0.0
 11
60.93374142527358
 21
31.97581977133933
 31
0.0
  0
LINE
  5
22DA
330
228D
100
AcDbEntity
  8
0
 62
     0
100
AcDbLine
 10
58.4922113395512
 20
33.51932424495482
 30
0.0
 11
55.69221133955114
 21
36.31932424495483
 31
0.0
  0
LINE
  5
22DB
330
228D
100
AcDbEntity
  8
0
 62
     0
100
AcDbLine
 10
67.83364952196212
 20
24.1778860625439
 30
0.0
 11
65.13801473292381
 21
26.87352085158221
 31
0.0
  0
LINE
  5
22DC
330
228D
100
AcDbEntity
  8
0
 62
     0
100
AcDbLine
 10
58.4922113395512
 20
32.62129863284793
 30
0.0
 11
55.69221133955114
 21
35.42129863284799
 31
0.0
  0
LINE
  5
22DD
330
228D
100
AcDbEntity
  8
0
 62
     0
100
AcDbLine
 10
53.40072443897418
 20
37.71278553342489
 30
0.0
 11
52.86350959820129
 21
38.25000037419784
 31
0.0
  0
LINE
  5
22DE
330
228D
100
AcDbEntity
  8
0
 62
     0
100
AcDbLine
 10
67.56577381420055
 20
23.54773615819858
 30
0.0
 11
65.14221133955124
 21
25.97129863284789
 31
0.0
  0
LINE
  5
22DF
330
228D
100
AcDbEntity
  8
0
 62
     0
100
AcDbLine
 10
58.49221133955115
 20
31.72327302074098
 30
0.0
 11
55.69221133955114
 21
34.52327302074105
 31
0.0
  0
LINE
  5
22E0
330
228D
100
AcDbEntity
  8
0
 62
     0
100
AcDbLine
 10
53.20179677472157
 20
37.01368758557055
 30
0.0
 11
51.96548398609434
 21
38.25000037419784
 31
0.0
  0
LINE
  5
22E1
330
228D
100
AcDbEntity
  8
0
 62
     0
100
AcDbLine
 10
67.18278701602526
 20
23.03269734426692
 30
0.0
 11
65.04492615666475
 21
25.17055820362742
 31
0.0
  0
LINE
  5
22E2
330
228D
100
AcDbEntity
  8
0
 62
     0
100
AcDbLine
 10
58.49221133955115
 20
30.82524740863409
 30
0.0
 11
55.69221133955108
 21
33.6252474086341
 31
0.0
  0
LINE
  5
22E3
330
228D
100
AcDbEntity
  8
0
 62
     0
100
AcDbLine
 10
52.98627062781588
 20
36.33118812036929
 30
0.0
 11
51.0770550643453
 21
38.24040368383993
 31
0.0
  0
LINE
  5
22E4
330
228D
100
AcDbEntity
  8
0
 62
     0
100
AcDbLine
 10
66.69646805090962
 20
22.62099069727554
 30
0.0
 11
64.36745837398746
 21
24.95000037419777
 31
0.0
  0
LINE
  5
22E5
330
228D
100
AcDbEntity
  8
0
 62
     0
100
AcDbLine
 10
58.4922113395512
 20
29.92722179652719
 30
0.0
 11
55.69221133955114
 21
32.72722179652726
 31
0.0
  0
LINE
  5
22E6
330
228D
100
AcDbEntity
  8
0
 62
     0
100
AcDbLine
 10
52.77074448091036
 20
35.64868865516803
 30
0.0
 11
50.64274448091032
 21
37.77668865516807
 31
0.0
  0
LINE
  5
22E7
330
228D
100
AcDbEntity
  8
0
 62
     0
100
AcDbLine
 10
66.10038410244925
 20
22.31904903362909
 30
0.0
 11
63.46943276188063
 21
24.95000037419777
 31
0.0
  0
LINE
  5
22E8
330
228D
100
AcDbEntity
  8
0
 62
     0
100
AcDbLine
 10
58.49221133955115
 20
29.0291961844203
 30
0.0
 11
55.69221133955108
 21
31.82919618442031
 31
0.0
  0
LINE
  5
22E9
330
228D
100
AcDbEntity
  8
0
 62
     0
100
AcDbLine
 10
52.55521833400462
 20
34.96618918996683
 30
0.0
 11
50.42721833400452
 21
37.09418918996693
 31
0.0
  0
LINE
  5
22EA
330
228D
100
AcDbEntity
  8
0
 62
     0
100
AcDbLine
 10
65.36271145080178
 20
22.15869607316967
 30
0.0
 11
62.57140714977362
 21
24.95000037419783
 31
0.0
  0
LINE
  5
22EB
330
228D
100
AcDbEntity
  8
0
 62
     0
100
AcDbLine
 10
58.49221133955115
 20
28.13117057231335
 30
0.0
 11
55.69221133955114
 21
30.93117057231331
 31
0.0
  0
LINE
  5
22EC
330
228D
100
AcDbEntity
  8
0
 62
     0
100
AcDbLine
 10
52.33969218709893
 20
34.28368972476557
 30
0.0
 11
50.21169218709883
 21
36.41168972476561
 31
0.0
  0
LINE
  5
22ED
330
228D
100
AcDbEntity
  8
0
 62
     0
100
AcDbLine
 10
64.47338153766674
 20
22.15000037419776
 30
0.0
 11
61.67338153766667
 21
24.95000037419783
 31
0.0
  0
LINE
  5
22EE
330
228D
100
AcDbEntity
  8
0
 62
     0
100
AcDbLine
 10
58.49221133955115
 20
27.23314496020646
 30
0.0
 11
55.69221133955119
 21
30.03314496020647
 31
0.0
  0
LINE
  5
22EF
330
228D
100
AcDbEntity
  8
0
 62
     0
100
AcDbLine
 10
52.1241660401933
 20
33.60119025956436
 30
0.0
 11
49.9961660401932
 21
35.72919025956441
 31
0.0
  0
LINE
  5
22F0
330
228D
100
AcDbEntity
  8
0
 62
     0
100
AcDbLine
 10
63.57535592555996
 20
22.1500003741977
 30
0.0
 11
61.14174422826346
 21
24.5836120714942
 31
0.0
  0
LINE
  5
22F1
330
228D
100
AcDbEntity
  8
0
 62
     0
100
AcDbLine
 10
51.90863989328767
 20
32.91869079436299
 30
0.0
 11
49.78063989328757
 21
35.04669079436315
 31
0.0
  0
LINE
  5
22F2
330
228D
100
AcDbEntity
  8
0
 62
     0
100
AcDbLine
 10
58.49221133955115
 20
26.33511934809957
 30
0.0
 11
55.69221133955119
 21
29.13511934809952
 31
0.0
  0
LINE
  5
22F3
330
228D
100
AcDbEntity
  8
0
 62
     0
100
AcDbLine
 10
47.64221133955118
 20
37.18511934809953
 30
0.0
 11
46.57733031345287
 21
38.25000037419778
 31
0.0
  0
LINE
  5
22F4
330
228D
100
AcDbEntity
  8
0
 62
     0
100
AcDbLine
 10
62.67733031345295
 20
22.15000037419776
 30
0.0
 11
61.1172113395512
 21
23.71011934809951
 31
0.0
  0
LINE
  5
22F5
330
228D
100
AcDbEntity
  8
0
 62
     0
100
AcDbLine
 10
51.69311374638187
 20
32.2361913291619
 30
0.0
 11
49.56511374638194
 21
34.36419132916183
 31
0.0
  0
LINE
  5
22F6
330
228D
100
AcDbEntity
  8
0
 62
     0
100
AcDbLine
 10
58.49221133955115
 20
25.43709373599262
 30
0.0
 11
55.69221133955114
 21
28.23709373599263
 31
0.0
  0
LINE
  5
22F7
330
228D
100
AcDbEntity
  8
0
 62
     0
100
AcDbLine
 10
47.64221133955118
 20
36.28709373599259
 30
0.0
 11
45.67930470134598
 21
38.25000037419778
 31
0.0
  0
LINE
  5
22F8
330
228D
100
AcDbEntity
  8
0
 62
     0
100
AcDbLine
 10
61.77930470134606
 20
22.15000037419764
 30
0.0
 11
61.11721133955114
 21
22.81209373599256
 31
0.0
  0
LINE
  5
22F9
330
228D
100
AcDbEntity
  8
0
 62
     0
100
AcDbLine
 10
51.47758759947624
 20
31.55369186396058
 30
0.0
 11
49.34958759947619
 21
33.68169186396062
 31
0.0
  0
LINE
  5
22FA
330
228D
100
AcDbEntity
  8
0
 62
     0
100
AcDbLine
 10
47.64221133955112
 20
35.38906812388564
 30
0.0
 11
44.96676641065351
 21
38.0645130527833
 31
0.0
  0
LINE
  5
22FB
330
228D
100
AcDbEntity
  8
0
 62
     0
100
AcDbLine
 10
58.49221133955109
 20
24.53906812388573
 30
0.0
 11
55.69221133955114
 21
27.33906812388568
 31
0.0
  0
LINE
  5
22FC
330
228D
100
AcDbEntity
  8
0
 62
     0
100
AcDbLine
 10
51.26206145257061
 20
30.87119239875938
 30
0.0
 11
49.13406145257062
 21
32.99919239875936
 31
0.0
  0
LINE
  5
22FD
330
228D
100
AcDbEntity
  8
0
 62
     0
100
AcDbLine
 10
47.64221133955118
 20
34.4910425117788
 30
0.0
 11
44.84221133955111
 21
37.29104251177882
 31
0.0
  0
LINE
  5
22FE
330
228D
100
AcDbEntity
  8
0
 62
     0
100
AcDbLine
 10
58.49221133955115
 20
23.64104251177884
 30
0.0
 11
55.69221133955114
 21
26.44104251177879
 31
0.0
  0
LINE
  5
22FF
330
228D
100
AcDbEntity
  8
0
 62
     0
100
AcDbLine
 10
51.05697294317855
 20
30.17825529604448
 30
0.0
 11
48.91853530566487
 21
32.31669293355816
 31
0.0
  0
LINE
  5
2300
330
228D
100
AcDbEntity
  8
0
 62
     0
100
AcDbLine
 10
47.64221133955118
 20
33.59301689967185
 30
0.0
 11
44.84221133955111
 21
36.39301689967192
 31
0.0
  0
LINE
  5
2301
330
228D
100
AcDbEntity
  8
0
 62
     0
100
AcDbLine
 10
58.49221133955109
 20
22.74301689967189
 30
0.0
 11
55.69221133955114
 21
25.5430168996719
 31
0.0
  0
LINE
  5
2302
330
228D
100
AcDbEntity
  8
0
 62
     0
100
AcDbLine
 10
51.47144630261255
 20
28.86575632450354
 30
0.0
 11
48.62798780998025
 21
31.70921481713583
 31
0.0
  0
LINE
  5
2303
330
228D
100
AcDbEntity
  8
0
 62
     0
100
AcDbLine
 10
47.64221133955124
 20
32.69499128756485
 30
0.0
 11
44.84221133955105
 21
35.49499128756497
 31
0.0
  0
LINE
  5
2304
330
228D
100
AcDbEntity
  8
0
 62
     0
100
AcDbLine
 10
58.15316634221876
 20
22.18403628489728
 30
0.0
 11
55.69221133955114
 21
24.64499128756495
 31
0.0
  0
LINE
  5
2305
330
228D
100
AcDbEntity
  8
0
 62
     0
100
AcDbLine
 10
51.88591966204654
 20
27.55325735296271
 30
0.0
 11
44.84221133955111
 21
34.59696567545814
 31
0.0
  0
LINE
  5
2306
330
228D
100
AcDbEntity
  8
0
 62
     0
100
AcDbLine
 10
42.39221133955124
 20
37.04696567545801
 30
0.0
 11
41.18917664081147
 21
38.25000037419778
 31
0.0
  0
LINE
  5
2307
330
228D
100
AcDbEntity
  8
0
 62
     0
100
AcDbLine
 10
57.28917664081149
 20
22.15000037419776
 30
0.0
 11
55.69221133955124
 21
23.746965675458
 31
0.0
  0
LINE
  5
2308
330
228D
100
AcDbEntity
  8
0
 62
     0
100
AcDbLine
 10
52.30039302148043
 20
26.24075838142187
 30
0.0
 11
44.84221133955111
 21
33.69894006335119
 31
0.0
  0
LINE
  5
2309
330
228D
100
AcDbEntity
  8
0
 62
     0
100
AcDbLine
 10
42.39221133955124
 20
36.14894006335106
 30
0.0
 11
40.29115102870446
 21
38.25000037419784
 31
0.0
  0
LINE
  5
230A
330
228D
100
AcDbEntity
  8
0
 62
     0
100
AcDbLine
 10
56.39115102870454
 20
22.1500003741977
 30
0.0
 11
55.69221133955119
 21
22.84894006335111
 31
0.0
  0
LINE
  5
230B
330
228D
100
AcDbEntity
  8
0
 62
     0
100
AcDbLine
 10
42.12530464416113
 20
35.51782114663422
 30
0.0
 11
39.42508292594971
 21
38.21804286484559
 31
0.0
  0
LINE
  5
230C
330
228D
100
AcDbEntity
  8
0
 62
     0
100
AcDbLine
 10
52.71486638091443
 20
24.92825940988093
 30
0.0
 11
44.84221133955105
 21
32.8009144512443
 31
0.0
  0
LINE
  5
230D
330
228D
100
AcDbEntity
  8
0
 62
     0
100
AcDbLine
 10
47.97972026189279
 20
28.76537991679567
 30
0.0
 11
44.84221133955111
 21
31.90288883913735
 31
0.0
  0
LINE
  5
230E
330
228D
100
AcDbEntity
  8
0
 62
     0
100
AcDbLine
 10
41.29509980449069
 20
35.45000037419772
 30
0.0
 11
38.68703985636244
 21
38.05806032232601
 31
0.0
  0
LINE
  5
230F
330
228D
100
AcDbEntity
  8
0
 62
     0
100
AcDbLine
 10
53.12933974034843
 20
23.61576043834003
 30
0.0
 11
49.03703204804049
 21
27.70806813064798
 31
0.0
  0
LINE
  5
2310
330
228D
100
AcDbEntity
  8
0
 62
     0
100
AcDbLine
 10
47.64221133955124
 20
28.20486322703033
 30
0.0
 11
44.84221133955105
 21
31.00486322703046
 31
0.0
  0
LINE
  5
2311
330
228D
100
AcDbEntity
  8
0
 62
     0
100
AcDbLine
 10
40.39707419238368
 20
35.45000037419783
 30
0.0
 11
38.04831844053172
 21
37.7987561260498
 31
0.0
  0
LINE
  5
2312
330
228D
100
AcDbEntity
  8
0
 62
     0
100
AcDbLine
 10
53.3643785980592
 20
22.48269596852231
 30
0.0
 11
49.45150540747443
 21
26.39556915910714
 31
0.0
  0
LINE
  5
2313
330
228D
100
AcDbEntity
  8
0
 62
     0
100
AcDbLine
 10
47.64221133955118
 20
27.30683761492344
 30
0.0
 11
44.84221133955105
 21
30.10683761492356
 31
0.0
  0
LINE
  5
2314
330
228D
100
AcDbEntity
  8
0
 62
     0
100
AcDbLine
 10
39.55396068984015
 20
35.39508826463447
 30
0.0
 11
37.48956946519718
 21
37.45947948927744
 31
0.0
  0
LINE
  5
2315
330
228D
100
AcDbEntity
  8
0
 62
     0
100
AcDbLine
 10
52.79904858027686
 20
22.15000037419776
 30
0.0
 11
49.86597876690848
 21
25.08307018756608
 31
0.0
  0
LINE
  5
2316
330
228D
100
AcDbEntity
  8
0
 62
     0
100
AcDbLine
 10
47.64221133955118
 20
26.40881200281649
 30
0.0
 11
44.84221133955105
 21
29.20881200281661
 31
0.0
  0
LINE
  5
2317
330
228D
100
AcDbEntity
  8
0
 62
     0
100
AcDbLine
 10
38.98210449700116
 20
35.06891884536651
 30
0.0
 11
37.0019142565854
 21
37.04910908578228
 31
0.0
  0
LINE
  5
2318
330
228D
100
AcDbEntity
  8
0
 62
     0
100
AcDbLine
 10
51.90102296816991
 20
22.15000037419776
 30
0.0
 11
50.28045212634243
 21
23.77057121602525
 31
0.0
  0
LINE
  5
2319
330
228D
100
AcDbEntity
  8
0
 62
     0
100
AcDbLine
 10
42.72764047234892
 20
30.42535725791192
 30
0.0
 11
41.21756822326517
 21
31.93542950699566
 31
0.0
  0
LINE
  5
231A
330
228D
100
AcDbEntity
  8
0
 62
     0
100
AcDbLine
 10
47.64221133955118
 20
25.5107863907096
 30
0.0
 11
44.84221133955105
 21
28.31078639070978
 31
0.0
  0
LINE
  5
231B
330
228D
100
AcDbEntity
  8
0
 62
     0
100
AcDbLine
 10
38.62598292687221
 20
34.52701480338863
 30
0.0
 11
36.58254823057416
 21
36.57044949968668
 31
0.0
  0
LINE
  5
231C
330
228D
100
AcDbEntity
  8
0
 62
     0
100
AcDbLine
 10
50.9526643518584
 20
22.20033337840243
 30
0.0
 11
50.70231018026709
 21
22.45068754999374
 31
0.0
  0
LINE
  5
231D
330
228D
100
AcDbEntity
  8
0
 62
     0
100
AcDbLine
 10
42.64112681220701
 20
29.61384530594688
 30
0.0
 11
40.40605627130014
 21
31.84891584685374
 31
0.0
  0
LINE
  5
231E
330
228D
100
AcDbEntity
  8
0
 62
     0
100
AcDbLine
 10
38.54221133955127
 20
33.71276077860262
 30
0.0
 11
36.2336092096125
 21
36.02136290854139
 31
0.0
  0
LINE
  5
231F
330
228D
100
AcDbEntity
  8
0
 62
     0
100
AcDbLine
 10
47.64221133955118
 20
24.61276077860271
 30
0.0
 11
44.84221133955105
 21
27.41276077860283
 31
0.0
  0
LINE
  5
2320
330
228D
100
AcDbEntity
  8
0
 62
     0
100
AcDbLine
 10
42.30927125290896
 20
29.04767525313793
 30
0.0
 11
39.83988621849119
 21
31.51706028755569
 31
0.0
  0
LINE
  5
2321
330
228D
100
AcDbEntity
  8
0
 62
     0
100
AcDbLine
 10
38.54221133955127
 20
32.81473516649567
 30
0.0
 11
35.96302950240232
 21
35.39391700364462
 31
0.0
  0
LINE
  5
2322
330
228D
100
AcDbEntity
  8
0
 62
     0
100
AcDbLine
 10
47.64221133955118
 20
23.71473516649576
 30
0.0
 11
44.84221133955111
 21
26.51473516649583
 31
0.0
  0
LINE
  5
2323
330
228D
100
AcDbEntity
  8
0
 62
     0
100
AcDbLine
 10
38.54221133955127
 20
31.91670955438878
 30
0.0
 11
35.78831562947647
 21
34.67060526446363
 31
0.0
  0
LINE
  5
2324
330
228D
100
AcDbEntity
  8
0
 62
     0
100
AcDbLine
 10
41.80743781077251
 20
28.65148308316759
 30
0.0
 11
39.44369404852086
 21
31.01522684541925
 31
0.0
  0
LINE
  5
2325
330
228D
100
AcDbEntity
  8
0
 62
     0
100
AcDbLine
 10
33.11721133955109
 20
37.34170955438896
 30
0.0
 11
32.20892051974221
 21
38.2500003741979
 31
0.0
  0
LINE
  5
2326
330
228D
100
AcDbEntity
  8
0
 62
     0
100
AcDbLine
 10
47.64221133955118
 20
22.81670955438892
 30
0.0
 11
44.84221133955111
 21
25.61670955438894
 31
0.0
  0
LINE
  5
2327
330
228D
100
AcDbEntity
  8
0
 62
     0
100
AcDbLine
 10
38.54221133955127
 20
31.01868394228188
 30
0.0
 11
35.74221133955115
 21
33.81868394228201
 31
0.0
  0
LINE
  5
2328
330
228D
100
AcDbEntity
  8
0
 62
     0
100
AcDbLine
 10
41.10711836834508
 20
28.45377691348807
 30
0.0
 11
39.24598787884134
 21
30.31490740299182
 31
0.0
  0
LINE
  5
2329
330
228D
100
AcDbEntity
  8
0
 62
     0
100
AcDbLine
 10
33.11721133955109
 20
36.44368394228207
 30
0.0
 11
31.31089490763526
 21
38.25000037419784
 31
0.0
  0
LINE
  5
232A
330
228D
100
AcDbEntity
  8
0
 62
     0
100
AcDbLine
 10
47.35430753828057
 20
22.20658774355257
 30
0.0
 11
44.84221133955111
 21
24.71868394228204
 31
0.0
  0
LINE
  5
232B
330
228D
100
AcDbEntity
  8
0
 62
     0
100
AcDbLine
 10
38.54221133955127
 20
30.12065833017493
 30
0.0
 11
35.74221133955109
 21
32.92065833017506
 31
0.0
  0
LINE
  5
232C
330
228D
100
AcDbEntity
  8
0
 62
     0
100
AcDbLine
 10
33.00817736928082
 20
35.65469230044539
 30
0.0
 11
30.41286929552837
 21
38.25000037419784
 31
0.0
  0
LINE
  5
232D
330
228D
100
AcDbEntity
  8
0
 62
     0
100
AcDbLine
 10
46.51286929552845
 20
22.1500003741977
 30
0.0
 11
44.84221133955111
 21
23.82065833017509
 31
0.0
  0
LINE
  5
232E
330
228D
100
AcDbEntity
  8
0
 62
     0
100
AcDbLine
 10
38.54221133955121
 20
29.22263271806804
 30
0.0
 11
35.74221133955109
 21
32.02263271806817
 31
0.0
  0
LINE
  5
232F
330
228D
100
AcDbEntity
  8
0
 62
     0
100
AcDbLine
 10
32.31484368342149
 20
35.45000037419777
 30
0.0
 11
29.51484368342153
 21
38.25000037419773
 31
0.0
  0
LINE
  5
2330
330
228D
100
AcDbEntity
  8
0
 62
     0
100
AcDbLine
 10
45.61484368342155
 20
22.1500003741977
 30
0.0
 11
44.84221133955105
 21
22.9226327180682
 31
0.0
  0
LINE
  5
2331
330
228D
100
AcDbEntity
  8
0
 62
     0
100
AcDbLine
 10
38.54221133955127
 20
28.32460710596115
 30
0.0
 11
35.74221133955115
 21
31.12460710596128
 31
0.0
  0
LINE
  5
2332
330
228D
100
AcDbEntity
  8
0
 62
     0
100
AcDbLine
 10
31.4168180713146
 20
35.45000037419777
 30
0.0
 11
28.6516887992097
 21
38.21512964630273
 31
0.0
  0
LINE
  5
2333
330
228D
100
AcDbEntity
  8
0
 62
     0
100
AcDbLine
 10
42.38960889071427
 20
24.47720955479809
 30
0.0
 11
41.91942052015156
 21
24.94739792536086
 31
0.0
  0
LINE
  5
2334
330
228D
100
AcDbEntity
  8
0
 62
     0
100
AcDbLine
 10
38.54221133955121
 20
27.4265814938542
 30
0.0
 11
35.74221133955109
 21
30.22658149385438
 31
0.0
  0
LINE
  5
2335
330
228D
100
AcDbEntity
  8
0
 62
     0
100
AcDbLine
 10
30.5187924592077
 20
35.45000037419777
 30
0.0
 11
27.95855399073122
 21
38.01023884267426
 31
0.0
  0
LINE
  5
2336
330
228D
100
AcDbEntity
  8
0
 62
     0
100
AcDbLine
 10
42.39221133955118
 20
23.57658149385423
 30
0.0
 11
41.0187924592077
 21
24.95000037419777
 31
0.0
  0
LINE
  5
2337
330
228D
100
AcDbEntity
  8
0
 62
     0
100
AcDbLine
 10
38.54221133955121
 20
26.52855588174731
 30
0.0
 11
35.74221133955109
 21
29.32855588174744
 31
0.0
  0
LINE
  5
2338
330
228D
100
AcDbEntity
  8
0
 62
     0
100
AcDbLine
 10
29.62076684710075
 20
35.45000037419772
 30
0.0
 11
27.39430733088398
 21
37.67645989041449
 31
0.0
  0
LINE
  5
2339
330
228D
100
AcDbEntity
  8
0
 62
     0
100
AcDbLine
 10
42.39221133955118
 20
22.67855588174734
 30
0.0
 11
40.12076684710075
 21
24.95000037419771
 31
0.0
  0
LINE
  5
233A
330
228D
100
AcDbEntity
  8
0
 62
     0
100
AcDbLine
 10
29.11047401948616
 20
35.06226758970553
 30
0.0
 11
26.93621451864323
 21
37.23652709054846
 31
0.0
  0
LINE
  5
233B
330
228D
100
AcDbEntity
  8
0
 62
     0
100
AcDbLine
 10
42.00447855505887
 20
22.16826305413281
 30
0.0
 11
35.74221133955109
 21
28.43053026964054
 31
0.0
  0
LINE
  5
233C
330
228D
100
AcDbEntity
  8
0
 62
     0
100
AcDbLine
 10
29.09221133955112
 20
34.18250465753357
 30
0.0
 11
26.58273331617414
 21
36.6919826809106
 31
0.0
  0
LINE
  5
233D
330
228D
100
AcDbEntity
  8
0
 62
     0
100
AcDbLine
 10
41.12471562288703
 20
22.1500003741977
 30
0.0
 11
35.74221133955109
 21
27.53250465753365
 31
0.0
  0
LINE
  5
233E
330
228D
100
AcDbEntity
  8
0
 62
     0
100
AcDbLine
 10
29.15434704768666
 20
33.22234333729108
 30
0.0
 11
26.35185321388042
 21
36.02483717109738
 31
0.0
  0
LINE
  5
233F
330
228D
100
AcDbEntity
  8
0
 62
     0
100
AcDbLine
 10
40.22669001078009
 20
22.15000037419764
 30
0.0
 11
35.74221133955109
 21
26.6344790454267
 31
0.0
  0
LINE
  5
2340
330
228D
100
AcDbEntity
  8
0
 62
     0
100
AcDbLine
 10
33.44658743077389
 20
28.03207734209701
 30
0.0
 11
26.2922113395511
 21
35.1864534333198
 31
0.0
  0
LINE
  5
2341
330
228D
100
AcDbEntity
  8
0
 62
     0
100
AcDbLine
 10
39.27539231161643
 20
22.20327246125447
 30
0.0
 11
35.79548342660786
 21
25.68318134626304
 31
0.0
  0
LINE
  5
2342
330
228D
100
AcDbEntity
  8
0
 62
     0
100
AcDbLine
 10
33.63848194485911
 20
26.9421572159049
 30
0.0
 11
26.29221133955116
 21
34.28842782121285
 31
0.0
  0
LINE
  5
2343
330
228D
100
AcDbEntity
  8
0
 62
     0
100
AcDbLine
 10
37.90158439901484
 20
22.67905476174911
 30
0.0
 11
36.27126572710245
 21
24.30937343366156
 31
0.0
  0
LINE
  5
2344
330
228D
100
AcDbEntity
  8
0
 62
     0
100
AcDbLine
 10
33.64221133955124
 20
26.04040220910582
 30
0.0
 11
26.29977578697356
 21
33.38283776168345
 31
0.0
  0
LINE
  5
2345
330
228D
100
AcDbEntity
  8
0
 62
     0
100
AcDbLine
 10
33.64221133955118
 20
25.14237659699893
 30
0.0
 11
26.52306654529741
 21
32.26152139125264
 31
0.0
  0
LINE
  5
2346
330
228D
100
AcDbEntity
  8
0
 62
     0
100
AcDbLine
 10
33.56969134341927
 20
24.31687098102401
 30
0.0
 11
30.80629969980021
 21
27.08026262464307
 31
0.0
  0
LINE
  5
2347
330
228D
100
AcDbEntity
  8
0
 62
     0
100
AcDbLine
 10
33.32775340439042
 20
23.66078330794591
 30
0.0
 11
30.84221133955117
 21
26.14632537278516
 31
0.0
  0
LINE
  5
2348
330
228D
100
AcDbEntity
  8
0
 62
     0
100
AcDbLine
 10
32.96563415700865
 20
23.12487694322073
 30
0.0
 11
30.8063123072505
 21
25.28419879297889
 31
0.0
  0
LINE
  5
2349
330
228D
100
AcDbEntity
  8
0
 62
     0
100
AcDbLine
 10
32.49940778474178
 20
22.69307770338071
 30
0.0
 11
30.24248511392466
 21
24.95000037419789
 31
0.0
  0
LINE
  5
234A
330
228D
100
AcDbEntity
  8
0
 62
     0
100
AcDbLine
 10
31.92614333700897
 20
22.36831653900663
 30
0.0
 11
29.34445950181771
 21
24.95000037419783
 31
0.0
  0
LINE
  5
234B
330
228D
100
AcDbEntity
  8
0
 62
     0
100
AcDbLine
 10
31.22073074792303
 20
22.17570351598562
 30
0.0
 11
28.44643388971088
 21
24.95000037419777
 31
0.0
  0
LINE
  5
234C
330
228D
100
AcDbEntity
  8
0
 62
     0
100
AcDbLine
 10
30.348408277604
 20
22.15000037419764
 30
0.0
 11
27.54840827760399
 21
24.95000037419771
 31
0.0
  0
LINE
  5
234D
330
228D
100
AcDbEntity
  8
0
 62
     0
100
AcDbLine
 10
29.45038266549705
 20
22.15000037419776
 30
0.0
 11
26.89705877067917
 21
24.7033242690157
 31
0.0
  0
LINE
  5
234E
330
228D
100
AcDbEntity
  8
0
 62
     0
100
AcDbLine
 10
28.55235705339016
 20
22.15000037419776
 30
0.0
 11
26.81721133955119
 21
23.88514608803672
 31
0.0
  0
LINE
  5
234F
330
228D
100
AcDbEntity
  8
0
 62
     0
100
AcDbLine
 10
27.65433144128321
 20
22.15000037419776
 30
0.0
 11
26.81721133955119
 21
22.98712047592977
 31
0.0
  0
LINE
  5
2350
330
228D
100
AcDbEntity
  8
0
 62
     0
100
AcDbLine
 10
83.63389862421815
 20
22.16313215131533
 30
0.0
 11
84.02907956243394
 21
22.55831308953111
 31
0.0
  0
LINE
  5
2351
330
228D
100
AcDbEntity
  8
0
 62
     0
100
AcDbLine
 10
82.7227412349937
 20
22.1500003741977
 30
0.0
 11
84.04221133955138
 21
23.4694704787554
 31
0.0
  0
LINE
  5
2352
330
228D
100
AcDbEntity
  8
0
 62
     0
100
AcDbLine
 10
81.8247156228868
 20
22.1500003741977
 30
0.0
 11
84.04221133955138
 21
24.36749609086229
 31
0.0
  0
LINE
  5
2353
330
228D
100
AcDbEntity
  8
0
 62
     0
100
AcDbLine
 10
81.27340890280306
 20
22.49671926622091
 30
0.0
 11
84.04221133955132
 21
25.26552170296924
 31
0.0
  0
LINE
  5
2354
330
228D
100
AcDbEntity
  8
0
 62
     0
100
AcDbLine
 10
81.24221133955126
 20
23.36354731507606
 30
0.0
 11
84.04221133955132
 21
26.16354731507608
 31
0.0
  0
LINE
  5
2355
330
228D
100
AcDbEntity
  8
0
 62
     0
100
AcDbLine
 10
81.24221133955131
 20
24.26157292718296
 30
0.0
 11
84.04221133955132
 21
27.06157292718302
 31
0.0
  0
LINE
  5
2356
330
228D
100
AcDbEntity
  8
0
 62
     0
100
AcDbLine
 10
81.24221133955126
 20
25.1595985392899
 30
0.0
 11
84.04221133955132
 21
27.95959853928997
 31
0.0
  0
LINE
  5
2357
330
228D
100
AcDbEntity
  8
0
 62
     0
100
AcDbLine
 10
81.24221133955126
 20
26.05762415139679
 30
0.0
 11
84.04221133955132
 21
28.85762415139686
 31
0.0
  0
LINE
  5
2358
330
228D
100
AcDbEntity
  8
0
 62
     0
100
AcDbLine
 10
77.66877620161654
 20
22.48418901346207
 30
0.0
 11
78.80802270028709
 21
23.62343551213269
 31
0.0
  0
LINE
  5
2359
330
228D
100
AcDbEntity
  8
0
 62
     0
100
AcDbLine
 10
81.24221133955126
 20
26.95564976350369
 30
0.0
 11
84.04221133955132
 21
29.75564976350375
 31
0.0
  0
LINE
  5
235A
330
228D
100
AcDbEntity
  8
0
 62
     0
100
AcDbLine
 10
76.43820803509374
 20
22.15164645904616
 30
0.0
 11
79.14056525470306
 21
24.85400367865543
 31
0.0
  0
LINE
  5
235B
330
228D
100
AcDbEntity
  8
0
 62
     0
100
AcDbLine
 10
81.24221133955126
 20
27.85367537561064
 30
0.0
 11
84.04221133955132
 21
30.65367537561065
 31
0.0
  0
LINE
  5
235C
330
228D
100
AcDbEntity
  8
0
 62
     0
100
AcDbLine
 10
75.53853633813833
 20
22.1500003741977
 30
0.0
 11
79.14221133955135
 21
25.75367537561067
 31
0.0
  0
LINE
  5
235D
330
228D
100
AcDbEntity
  8
0
 62
     0
100
AcDbLine
 10
81.24221133955126
 20
28.75170098771753
 30
0.0
 11
84.04221133955127
 21
31.5517009877176
 31
0.0
  0
LINE
  5
235E
330
228D
100
AcDbEntity
  8
0
 62
     0
100
AcDbLine
 10
74.64051072603144
 20
22.1500003741977
 30
0.0
 11
79.1422113395513
 21
26.65170098771762
 31
0.0
  0
LINE
  5
235F
330
228D
100
AcDbEntity
  8
0
 62
     0
100
AcDbLine
 10
81.24221133955126
 20
29.64972659982442
 30
0.0
 11
84.04221133955132
 21
32.44972659982449
 31
0.0
  0
LINE
  5
2360
330
228D
100
AcDbEntity
  8
0
 62
     0
100
AcDbLine
 10
73.7424851139246
 20
22.15000037419776
 30
0.0
 11
79.14221133955135
 21
27.54972659982451
 31
0.0
  0
LINE
  5
2361
330
228D
100
AcDbEntity
  8
0
 62
     0
100
AcDbLine
 10
76.23762013747023
 20
25.54316100985034
 30
0.0
 11
79.14221133955135
 21
28.4477522119314
 31
0.0
  0
LINE
  5
2362
330
228D
100
AcDbEntity
  8
0
 62
     0
100
AcDbLine
 10
81.24221133955126
 20
30.54775221193131
 30
0.0
 11
84.04221133955132
 21
33.34775221193138
 31
0.0
  0
LINE
  5
2363
330
228D
100
AcDbEntity
  8
0
 62
     0
100
AcDbLine
 10
72.84445950181759
 20
22.1500003741977
 30
0.0
 11
75.74905070389871
 21
25.05459157627877
 31
0.0
  0
LINE
  5
2364
330
228D
100
AcDbEntity
  8
0
 62
     0
100
AcDbLine
 10
76.34221133955122
 20
26.54577782403829
 30
0.0
 11
79.1422113395513
 21
29.34577782403835
 31
0.0
  0
LINE
  5
2365
330
228D
100
AcDbEntity
  8
0
 62
     0
100
AcDbLine
 10
81.24221133955121
 20
31.44577782403826
 30
0.0
 11
84.04221133955127
 21
34.24577782403833
 31
0.0
  0
LINE
  5
2366
330
228D
100
AcDbEntity
  8
0
 62
     0
100
AcDbLine
 10
72.05838364108791
 20
22.26195012557491
 30
0.0
 11
74.74643388971077
 21
24.95000037419777
 31
0.0
  0
LINE
  5
2367
330
228D
100
AcDbEntity
  8
0
 62
     0
100
AcDbLine
 10
76.34221133955128
 20
27.44380343614529
 30
0.0
 11
79.1422113395513
 21
30.24380343614524
 31
0.0
  0
LINE
  5
2368
330
228D
100
AcDbEntity
  8
0
 62
     0
100
AcDbLine
 10
81.24221133955121
 20
32.34380343614521
 30
0.0
 11
84.04221133955127
 21
35.14380343614522
 31
0.0
  0
LINE
  5
2369
330
228D
100
AcDbEntity
  8
0
 62
     0
100
AcDbLine
 10
71.43039677387776
 20
22.53198887047176
 30
0.0
 11
73.8492860632482
 21
24.9508781598422
 31
0.0
  0
LINE
  5
236A
330
228D
100
AcDbEntity
  8
0
 62
     0
100
AcDbLine
 10
76.34221133955134
 20
28.34182904825218
 30
0.0
 11
79.1422113395513
 21
31.14182904825213
 31
0.0
  0
LINE
  5
236B
330
228D
100
AcDbEntity
  8
0
 62
     0
100
AcDbLine
 10
81.24221133955126
 20
33.24182904825204
 30
0.0
 11
84.04221133955127
 21
36.04182904825211
 31
0.0
  0
LINE
  5
236C
330
228D
100
AcDbEntity
  8
0
 62
     0
100
AcDbLine
 10
70.91713689251259
 20
22.91675460121343
 30
0.0
 11
73.20580747453551
 21
25.20542518323634
 31
0.0
  0
LINE
  5
236D
330
228D
100
AcDbEntity
  8
0
 62
     0
100
AcDbLine
 10
76.34221133955134
 20
29.23985466035907
 30
0.0
 11
79.1422113395513
 21
32.03985466035908
 31
0.0
  0
LINE
  5
236E
330
228D
100
AcDbEntity
  8
0
 62
     0
100
AcDbLine
 10
81.24221133955121
 20
34.13985466035899
 30
0.0
 11
84.04221133955127
 21
36.93985466035906
 31
0.0
  0
LINE
  5
236F
330
228D
100
AcDbEntity
  8
0
 62
     0
100
AcDbLine
 10
70.50717271728757
 20
23.4048160380953
 30
0.0
 11
72.86856919612609
 21
25.76621251693388
 31
0.0
  0
LINE
  5
2370
330
228D
100
AcDbEntity
  8
0
 62
     0
100
AcDbLine
 10
76.34221133955128
 20
30.13788027246602
 30
0.0
 11
79.14221133955135
 21
32.93788027246609
 31
0.0
  0
LINE
  5
2371
330
228D
100
AcDbEntity
  8
0
 62
     0
100
AcDbLine
 10
81.24221133955121
 20
35.03788027246589
 30
0.0
 11
84.03206218600081
 21
37.82773111891555
 31
0.0
  0
LINE
  5
2372
330
228D
100
AcDbEntity
  8
0
 62
     0
100
AcDbLine
 10
70.20724783885356
 20
24.0029167717683
 30
0.0
 11
72.84221133955128
 21
26.63788027246596
 31
0.0
  0
LINE
  5
2373
330
228D
100
AcDbEntity
  8
0
 62
     0
100
AcDbLine
 10
76.34221133955134
 20
31.03590588457286
 30
0.0
 11
79.14221133955141
 21
33.83590588457292
 31
0.0
  0
LINE
  5
2374
330
228D
100
AcDbEntity
  8
0
 62
     0
100
AcDbLine
 10
81.24221133955121
 20
35.93590588457278
 30
0.0
 11
83.55494784092133
 21
38.2486423859429
 31
0.0
  0
LINE
  5
2375
330
228D
100
AcDbEntity
  8
0
 62
     0
100
AcDbLine
 10
70.04983430389711
 20
24.74352884891869
 30
0.0
 11
72.84221133955128
 21
27.53590588457285
 31
0.0
  0
LINE
  5
2376
330
228D
100
AcDbEntity
  8
0
 62
     0
100
AcDbLine
 10
76.34221133955128
 20
31.93393149667981
 30
0.0
 11
79.14221133955135
 21
34.73393149667987
 31
0.0
  0
LINE
  5
2377
330
228D
100
AcDbEntity
  8
0
 62
     0
100
AcDbLine
 10
81.24221133955121
 20
36.83393149667973
 30
0.0
 11
82.65828021706926
 21
38.25000037419778
 31
0.0
  0
LINE
  5
2378
330
228D
100
AcDbEntity
  8
0
 62
     0
100
AcDbLine
 10
70.04221133955133
 20
25.63393149667979
 30
0.0
 11
72.84221133955134
 21
28.43393149667986
 31
0.0
  0
LINE
  5
2379
330
228D
100
AcDbEntity
  8
0
 62
     0
100
AcDbLine
 10
76.34221133955128
 20
32.83195710878676
 30
0.0
 11
79.14221133955135
 21
35.63195710878677
 31
0.0
  0
LINE
  5
237A
330
228D
100
AcDbEntity
  8
0
 62
     0
100
AcDbLine
 10
70.04221133955127
 20
26.53195710878674
 30
0.0
 11
72.84221133955134
 21
29.33195710878681
 31
0.0
  0
LINE
  5
237B
330
228D
100
AcDbEntity
  8
0
 62
     0
100
AcDbLine
 10
81.24225805429871
 20
37.73200382353417
 30
0.0
 11
81.76020789021498
 21
38.2499536594504
 31
0.0
  0
LINE
  5
237C
330
228D
100
AcDbEntity
  8
0
 62
     0
100
AcDbLine
 10
65.72065570883927
 20
22.21040147807469
 30
0.0
 11
67.88181023567443
 21
24.37155600490991
 31
0.0
  0
LINE
  5
237D
330
228D
100
AcDbEntity
  8
0
 62
     0
100
AcDbLine
 10
70.04221133955127
 20
27.42998272089363
 30
0.0
 11
72.84221133955134
 21
30.2299827208937
 31
0.0
  0
LINE
  5
237E
330
228D
100
AcDbEntity
  8
0
 62
     0
100
AcDbLine
 10
76.34221133955128
 20
33.72998272089365
 30
0.0
 11
79.1422113395513
 21
36.52998272089372
 31
0.0
  0
LINE
  5
237F
330
228D
100
AcDbEntity
  8
0
 62
     0
100
AcDbLine
 10
64.7622289928554
 20
22.15000037419782
 30
0.0
 11
67.94221133955125
 21
25.32998272089367
 31
0.0
  0
LINE
  5
2380
330
228D
100
AcDbEntity
  8
0
 62
     0
100
AcDbLine
 10
70.04221133955127
 20
28.32800833300053
 30
0.0
 11
72.84221133955134
 21
31.1280083330006
 31
0.0
  0
LINE
  5
2381
330
228D
100
AcDbEntity
  8
0
 62
     0
100
AcDbLine
 10
76.34221133955128
 20
34.62800833300054
 30
0.0
 11
79.14221133955135
 21
37.42800833300061
 31
0.0
  0
LINE
  5
2382
330
228D
100
AcDbEntity
  8
0
 62
     0
100
AcDbLine
 10
63.8642033807485
 20
22.15000037419776
 30
0.0
 11
67.9422113395513
 21
26.2280083330005
 31
0.0
  0
LINE
  5
2383
330
228D
100
AcDbEntity
  8
0
 62
     0
100
AcDbLine
 10
70.04221133955127
 20
29.22603394510748
 30
0.0
 11
72.84221133955134
 21
32.02603394510749
 31
0.0
  0
LINE
  5
2384
330
228D
100
AcDbEntity
  8
0
 62
     0
100
AcDbLine
 10
76.34221133955128
 20
35.52603394510743
 30
0.0
 11
78.9484738847172
 21
38.1322964902734
 31
0.0
  0
LINE
  5
2385
330
228D
100
AcDbEntity
  8
0
 62
     0
100
AcDbLine
 10
62.96617776864161
 20
22.15000037419782
 30
0.0
 11
67.92789273913832
 21
27.11171534469452
 31
0.0
  0
LINE
  5
2386
330
228D
100
AcDbEntity
  8
0
 62
     0
100
AcDbLine
 10
70.04221133955127
 20
30.12405955721437
 30
0.0
 11
72.84221133955128
 21
32.92405955721444
 31
0.0
  0
LINE
  5
2387
330
228D
100
AcDbEntity
  8
0
 62
     0
100
AcDbLine
 10
76.34221133955122
 20
36.42405955721438
 30
0.0
 11
78.16815215653469
 21
38.25000037419784
 31
0.0
  0
LINE
  5
2388
330
228D
100
AcDbEntity
  8
0
 62
     0
100
AcDbLine
 10
62.06815215653467
 20
22.15000037419782
 30
0.0
 11
67.79298036850957
 21
27.87482858617267
 31
0.0
  0
LINE
  5
2389
330
228D
100
AcDbEntity
  8
0
 62
     0
100
AcDbLine
 10
70.04221133955127
 20
31.02208516932126
 30
0.0
 11
72.84221133955134
 21
33.82208516932133
 31
0.0
  0
LINE
  5
238A
330
228D
100
AcDbEntity
  8
0
 62
     0
100
AcDbLine
 10
65.14221133955141
 20
26.12208516932134
 30
0.0
 11
67.55239291159103
 21
28.53226674136096
 31
0.0
  0
LINE
  5
238B
330
228D
100
AcDbEntity
  8
0
 62
     0
100
AcDbLine
 10
76.34221133955128
 20
37.32208516932127
 30
0.0
 11
77.27012654442785
 21
38.25000037419784
 31
0.0
  0
LINE
  5
238C
330
228D
100
AcDbEntity
  8
0
 62
     0
100
AcDbLine
 10
61.2983818975589
 20
22.27825572732888
 30
0.0
 11
63.97012654442779
 21
24.95000037419777
 31
0.0
  0
LINE
  5
238D
330
228D
100
AcDbEntity
  8
0
 62
     0
100
AcDbLine
 10
65.122340764424
 20
27.00024020630087
 30
0.0
 11
67.22889360673048
 21
29.10679304860736
 31
0.0
  0
LINE
  5
238E
330
228D
100
AcDbEntity
  8
0
 62
     0
100
AcDbLine
 10
70.04221133955127
 20
31.92011078142815
 30
0.0
 11
72.84221133955128
 21
34.72011078142822
 31
0.0
  0
LINE
  5
238F
330
228D
100
AcDbEntity
  8
0
 62
     0
100
AcDbLine
 10
61.11721133955132
 20
22.9951107814282
 30
0.0
 11
63.07210093232083
 21
24.95000037419777
 31
0.0
  0
LINE
  5
2390
330
228D
100
AcDbEntity
  8
0
 62
     0
100
AcDbLine
 10
64.84795592728511
 20
27.623880981269
 30
0.0
 11
66.83302248880266
 21
29.60894754278655
 31
0.0
  0
LINE
  5
2391
330
228D
100
AcDbEntity
  8
0
 62
     0
100
AcDbLine
 10
70.04221133955121
 20
32.8181363935351
 30
0.0
 11
72.84221133955128
 21
35.61813639353517
 31
0.0
  0
LINE
  5
2392
330
228D
100
AcDbEntity
  8
0
 62
     0
100
AcDbLine
 10
61.11721133955126
 20
23.89313639353515
 30
0.0
 11
62.17407532021394
 21
24.95000037419783
 31
0.0
  0
LINE
  5
2393
330
228D
100
AcDbEntity
  8
0
 62
     0
100
AcDbLine
 10
70.04221133955127
 20
33.71616200564199
 30
0.0
 11
72.84221133955134
 21
36.516162005642
 31
0.0
  0
LINE
  5
2394
330
228D
100
AcDbEntity
  8
0
 62
     0
100
AcDbLine
 10
64.40668103016804
 20
28.08063169625871
 30
0.0
 11
66.38658001749035
 21
30.06053068358102
 31
0.0
  0
LINE
  5
2395
330
228D
100
AcDbEntity
  8
0
 62
     0
100
AcDbLine
 10
63.95766822411457
 20
28.52964450231218
 30
0.0
 11
65.93756721143688
 21
30.5095434896345
 31
0.0
  0
LINE
  5
2396
330
228D
100
AcDbEntity
  8
0
 62
     0
100
AcDbLine
 10
70.04221133955121
 20
34.61418761774889
 30
0.0
 11
72.84221133955128
 21
37.41418761774895
 31
0.0
  0
LINE
  5
2397
330
228D
100
AcDbEntity
  8
0
 62
     0
100
AcDbLine
 10
57.57802409600009
 20
22.15000037419776
 30
0.0
 11
58.49221133955126
 21
23.06418761774887
 31
0.0
  0
LINE
  5
2398
330
228D
100
AcDbEntity
  8
0
 62
     0
100
AcDbLine
 10
63.50865541806109
 20
28.97865730836566
 30
0.0
 11
65.48855440538341
 21
30.95855629568797
 31
0.0
  0
LINE
  5
2399
330
228D
100
AcDbEntity
  8
0
 62
     0
100
AcDbLine
 10
70.04221133955121
 20
35.51221322985583
 30
0.0
 11
72.65603043145262
 21
38.12603232175718
 31
0.0
  0
LINE
  5
239A
330
228D
100
AcDbEntity
  8
0
 62
     0
100
AcDbLine
 10
56.67999848389314
 20
22.15000037419776
 30
0.0
 11
58.49221133955132
 21
23.96221322985588
 31
0.0
  0
LINE
  5
239B
330
228D
100
AcDbEntity
  8
0
 62
     0
100
AcDbLine
 10
63.05964261200762
 20
29.42767011441913
 30
0.0
 11
65.03954159932994
 21
31.40756910174145
 31
0.0
  0
LINE
  5
239C
330
228D
100
AcDbEntity
  8
0
 62
     0
100
AcDbLine
 10
70.04221133955121
 20
36.41023884196272
 30
0.0
 11
71.88197287178628
 21
38.25000037419784
 31
0.0
  0
LINE
  5
239D
330
228D
100
AcDbEntity
  8
0
 62
     0
100
AcDbLine
 10
55.89358400964823
 20
22.26161151205975
 30
0.0
 11
58.49221133955126
 21
24.86023884196283
 31
0.0
  0
LINE
  5
239E
330
228D
100
AcDbEntity
  8
0
 62
     0
100
AcDbLine
 10
62.6106298059542
 20
29.87668292047255
 30
0.0
 11
64.59052879327652
 21
31.85658190779486
 31
0.0
  0
LINE
  5
239F
330
228D
100
AcDbEntity
  8
0
 62
     0
100
AcDbLine
 10
70.04221133955121
 20
37.30826445406961
 30
0.0
 11
70.98394725967949
 21
38.25000037419784
 31
0.0
  0
LINE
  5
23A0
330
228D
100
AcDbEntity
  8
0
 62
     0
100
AcDbLine
 10
55.69221133955131
 20
22.95826445406971
 30
0.0
 11
58.49221133955132
 21
25.75826445406966
 31
0.0
  0
LINE
  5
23A1
330
228D
100
AcDbEntity
  8
0
 62
     0
100
AcDbLine
 10
62.16161699990073
 20
30.32569572652602
 30
0.0
 11
64.14151598722305
 21
32.30559471384834
 31
0.0
  0
LINE
  5
23A2
330
228D
100
AcDbEntity
  8
0
 62
     0
100
AcDbLine
 10
55.69221133955131
 20
23.85629006617666
 30
0.0
 11
58.49221133955126
 21
26.65629006617661
 31
0.0
  0
LINE
  5
23A3
330
228D
100
AcDbEntity
  8
0
 62
     0
100
AcDbLine
 10
61.7146330988594
 20
30.77673743759169
 30
0.0
 11
63.69860663224142
 21
32.76071097097366
 31
0.0
  0
LINE
  5
23A4
330
228D
100
AcDbEntity
  8
0
 62
     0
100
AcDbLine
 10
55.69221133955131
 20
24.75431567828355
 30
0.0
 11
58.49221133955126
 21
27.55431567828356
 31
0.0
  0
LINE
  5
23A5
330
228D
100
AcDbEntity
  8
0
 62
     0
100
AcDbLine
 10
66.38789603546547
 20
35.45000037419777
 30
0.0
 11
67.41721133955133
 21
36.47931567828357
 31
0.0
  0
LINE
  5
23A6
330
228D
100
AcDbEntity
  8
0
 62
     0
100
AcDbLine
 10
53.19955511484107
 20
22.26165945357331
 30
0.0
 11
53.28920747629609
 21
22.3513118150284
 31
0.0
  0
LINE
  5
23A7
330
228D
100
AcDbEntity
  8
0
 62
     0
100
AcDbLine
 10
61.31663092003742
 20
31.27676087087656
 30
0.0
 11
63.41626519745602
 21
33.37639514829516
 31
0.0
  0
LINE
  5
23A8
330
228D
100
AcDbEntity
  8
0
 62
     0
100
AcDbLine
 10
55.69221133955131
 20
25.65234129039044
 30
0.0
 11
58.49221133955132
 21
28.4523412903904
 31
0.0
  0
LINE
  5
23A9
330
228D
100
AcDbEntity
  8
0
 62
     0
100
AcDbLine
 10
65.4898704233587
 20
35.45000037419783
 30
0.0
 11
67.41721133955133
 21
37.37734129039046
 31
0.0
  0
LINE
  5
23AA
330
228D
100
AcDbEntity
  8
0
 62
     0
100
AcDbLine
 10
52.18987042335863
 20
22.15000037419776
 30
0.0
 11
53.25564951966516
 21
23.21577947050429
 31
0.0
  0
LINE
  5
23AB
330
228D
100
AcDbEntity
  8
0
 62
     0
100
AcDbLine
 10
60.99079665564073
 20
31.84895221858682
 30
0.0
 11
63.39221133955141
 21
34.25036690249749
 31
0.0
  0
LINE
  5
23AC
330
228D
100
AcDbEntity
  8
0
 62
     0
100
AcDbLine
 10
55.69221133955131
 20
26.55036690249733
 30
0.0
 11
58.49221133955126
 21
29.35036690249734
 31
0.0
  0
LINE
  5
23AD
330
228D
100
AcDbEntity
  8
0
 62
     0
100
AcDbLine
 10
64.59184481125169
 20
35.45000037419777
 30
0.0
 11
67.25054240775341
 21
38.1086979706995
 31
0.0
  0
LINE
  5
23AE
330
228D
100
AcDbEntity
  8
0
 62
     0
100
AcDbLine
 10
51.29184481125162
 20
22.1500003741977
 30
0.0
 11
53.04012337275946
 21
23.89827893570555
 31
0.0
  0
LINE
  5
23AF
330
228D
100
AcDbEntity
  8
0
 62
     0
100
AcDbLine
 10
55.69221133955124
 20
27.44839251460428
 30
0.0
 11
58.49221133955126
 21
30.24839251460424
 31
0.0
  0
LINE
  5
23B0
330
228D
100
AcDbEntity
  8
0
 62
     0
100
AcDbLine
 10
60.74741459297064
 20
32.50359576802367
 30
0.0
 11
66.49381919914481
 21
38.25000037419784
 31
0.0
  0
LINE
  5
23B1
330
228D
100
AcDbEntity
  8
0
 62
     0
100
AcDbLine
 10
50.69983050059665
 20
22.45601167564968
 30
0.0
 11
52.82459722585378
 21
24.58077840090681
 31
0.0
  0
LINE
  5
23B2
330
228D
100
AcDbEntity
  8
0
 62
     0
100
AcDbLine
 10
55.69221133955124
 20
28.34641812671123
 30
0.0
 11
58.4922113395512
 21
31.14641812671119
 31
0.0
  0
LINE
  5
23B3
330
228D
100
AcDbEntity
  8
0
 62
     0
100
AcDbLine
 10
60.60870773388495
 20
33.26291452104494
 30
0.0
 11
65.59579358703792
 21
38.25000037419784
 31
0.0
  0
LINE
  5
23B4
330
228D
100
AcDbEntity
  8
0
 62
     0
100
AcDbLine
 10
50.48107107894804
 20
23.13527786610803
 30
0.0
 11
52.60907107894809
 21
25.26327786610807
 31
0.0
  0
LINE
  5
23B5
330
228D
100
AcDbEntity
  8
0
 62
     0
100
AcDbLine
 10
55.69221133955131
 20
29.24444373881807
 30
0.0
 11
58.49221133955126
 21
32.04444373881808
 31
0.0
  0
LINE
  5
23B6
330
228D
100
AcDbEntity
  8
0
 62
     0
100
AcDbLine
 10
60.59221133955128
 20
34.14444373881804
 30
0.0
 11
64.69776797493103
 21
38.25000037419784
 31
0.0
  0
LINE
  5
23B7
330
228D
100
AcDbEntity
  8
0
 62
     0
100
AcDbLine
 10
50.26554493204241
 20
23.81777733130923
 30
0.0
 11
52.39354493204252
 21
25.94577733130928
 31
0.0
  0
LINE
  5
23B8
330
228D
100
AcDbEntity
  8
0
 62
     0
100
AcDbLine
 10
55.69221133955124
 20
30.14246935092501
 30
0.0
 11
58.49221133955126
 21
32.94246935092497
 31
0.0
  0
LINE
  5
23B9
330
228D
100
AcDbEntity
  8
0
 62
     0
100
AcDbLine
 10
60.59221133955134
 20
35.04246935092505
 30
0.0
 11
63.79974236282413
 21
38.25000037419784
 31
0.0
  0
LINE
  5
23BA
330
228D
100
AcDbEntity
  8
0
 62
     0
100
AcDbLine
 10
50.05001878513667
 20
24.50027679651043
 30
0.0
 11
52.17801878513689
 21
26.62827679651065
 31
0.0
  0
LINE
  5
23BB
330
228D
100
AcDbEntity
  8
0
 62
     0
100
AcDbLine
 10
55.69221133955124
 20
31.0404949630319
 30
0.0
 11
58.49221133955132
 21
33.84049496303197
 31
0.0
  0
LINE
  5
23BC
330
228D
100
AcDbEntity
  8
0
 62
     0
100
AcDbLine
 10
49.83449263823104
 20
25.18277626171175
 30
0.0
 11
51.96249263823114
 21
27.3107762617118
 31
0.0
  0
LINE
  5
23BD
330
228D
100
AcDbEntity
  8
0
 62
     0
100
AcDbLine
 10
60.64552800967248
 20
35.9938116331532
 30
0.0
 11
62.84840008059581
 21
38.19668370407652
 31
0.0
  0
LINE
  5
23BE
330
228D
100
AcDbEntity
  8
0
 62
     0
100
AcDbLine
 10
46.80171675071704
 20
22.15000037419776
 30
0.0
 11
47.64221133955124
 21
22.99049496303195
 31
0.0
  0
LINE
  5
23BF
330
228D
100
AcDbEntity
  8
0
 62
     0
100
AcDbLine
 10
49.61896649132547
 20
25.86527572691295
 30
0.0
 11
51.74696649132551
 21
27.99327572691306
 31
0.0
  0
LINE
  5
23C0
330
228D
100
AcDbEntity
  8
0
 62
     0
100
AcDbLine
 10
55.69221133955124
 20
31.9385205751388
 30
0.0
 11
58.49221133955132
 21
34.73852057513886
 31
0.0
  0
LINE
  5
23C1
330
228D
100
AcDbEntity
  8
0
 62
     0
100
AcDbLine
 10
45.90369113861021
 20
22.1500003741977
 30
0.0
 11
47.64221133955129
 21
23.88852057513884
 31
0.0
  0
LINE
  5
23C2
330
228D
100
AcDbEntity
  8
0
 62
     0
100
AcDbLine
 10
49.40344034441977
 20
26.54777519211422
 30
0.0
 11
51.53144034441982
 21
28.67577519211432
 31
0.0
  0
LINE
  5
23C3
330
228D
100
AcDbEntity
  8
0
 62
     0
100
AcDbLine
 10
55.69221133955124
 20
32.83654618724574
 30
0.0
 11
58.49221133955132
 21
35.63654618724576
 31
0.0
  0
LINE
  5
23C4
330
228D
100
AcDbEntity
  8
0
 62
     0
100
AcDbLine
 10
45.08681527415456
 20
22.23115012184905
 30
0.0
 11
47.64221133955129
 21
24.78654618724573
 31
0.0
  0
LINE
  5
23C5
330
228D
100
AcDbEntity
  8
0
 62
     0
100
AcDbLine
 10
49.18791419751409
 20
27.23027465731548
 30
0.0
 11
51.31591419751413
 21
29.35827465731558
 31
0.0
  0
LINE
  5
23C6
330
228D
100
AcDbEntity
  8
0
 62
     0
100
AcDbLine
 10
55.69221133955124
 20
33.73457179935264
 30
0.0
 11
58.49221133955126
 21
36.53457179935271
 31
0.0
  0
LINE
  5
23C7
330
228D
100
AcDbEntity
  8
0
 62
     0
100
AcDbLine
 10
44.84221133955128
 20
22.88457179935267
 30
0.0
 11
47.64221133955135
 21
25.68457179935274
 31
0.0
  0
LINE
  5
23C8
330
228D
100
AcDbEntity
  8
0
 62
     0
100
AcDbLine
 10
48.97238805060846
 20
27.91277412251668
 30
0.0
 11
51.10038805060861
 21
30.04077412251684
 31
0.0
  0
LINE
  5
23C9
330
228D
100
AcDbEntity
  8
0
 62
     0
100
AcDbLine
 10
55.69221133955124
 20
34.63259741145953
 30
0.0
 11
58.49221133955132
 21
37.4325974114596
 31
0.0
  0
LINE
  5
23CA
330
228D
100
AcDbEntity
  8
0
 62
     0
100
AcDbLine
 10
44.84221133955128
 20
23.78259741145956
 30
0.0
 11
47.64221133955135
 21
26.58259741145963
 31
0.0
  0
LINE
  5
23CB
330
228D
100
AcDbEntity
  8
0
 62
     0
100
AcDbLine
 10
48.73758926363672
 20
28.57600094765195
 30
0.0
 11
51.36788333156761
 21
31.20629501558284
 31
0.0
  0
LINE
  5
23CC
330
228D
100
AcDbEntity
  8
0
 62
     0
100
AcDbLine
 10
55.69221133955131
 20
35.53062302356654
 30
0.0
 11
58.29593591705287
 21
38.13434760106805
 31
0.0
  0
LINE
  5
23CD
330
228D
100
AcDbEntity
  8
0
 62
     0
100
AcDbLine
 10
44.84221133955128
 20
24.68062302356651
 30
0.0
 11
47.64221133955135
 21
27.48062302356653
 31
0.0
  0
LINE
  5
23CE
330
228D
100
AcDbEntity
  8
0
 62
     0
100
AcDbLine
 10
48.05040389376933
 20
28.78684118989151
 30
0.0
 11
51.7823566910016
 21
32.51879398712379
 31
0.0
  0
LINE
  5
23CF
330
228D
100
AcDbEntity
  8
0
 62
     0
100
AcDbLine
 10
44.84221133955128
 20
25.57864863567341
 30
0.0
 11
47.65537052385758
 21
28.39180781997971
 31
0.0
  0
LINE
  5
23D0
330
228D
100
AcDbEntity
  8
0
 62
     0
100
AcDbLine
 10
55.69221133955131
 20
36.42864863567343
 30
0.0
 11
57.51356307807566
 21
38.25000037419784
 31
0.0
  0
LINE
  5
23D1
330
228D
100
AcDbEntity
  8
0
 62
     0
100
AcDbLine
 10
41.41356307807564
 20
22.15000037419776
 30
0.0
 11
42.39221133955129
 21
23.12864863567347
 31
0.0
  0
LINE
  5
23D2
330
228D
100
AcDbEntity
  8
0
 62
     0
100
AcDbLine
 10
44.84221133955123
 20
26.47667424778035
 30
0.0
 11
52.19683005043555
 21
33.83129295866468
 31
0.0
  0
LINE
  5
23D3
330
228D
100
AcDbEntity
  8
0
 62
     0
100
AcDbLine
 10
55.69221133955124
 20
37.32667424778038
 30
0.0
 11
56.61553746596871
 21
38.25000037419784
 31
0.0
  0
LINE
  5
23D4
330
228D
100
AcDbEntity
  8
0
 62
     0
100
AcDbLine
 10
40.51553746596868
 20
22.15000037419782
 30
0.0
 11
42.39221133955135
 21
24.02667424778048
 31
0.0
  0
LINE
  5
23D5
330
228D
100
AcDbEntity
  8
0
 62
     0
100
AcDbLine
 10
44.84221133955128
 20
27.37469985988719
 30
0.0
 11
52.61130340986966
 21
35.14379193020563
 31
0.0
  0
LINE
  5
23D6
330
228D
100
AcDbEntity
  8
0
 62
     0
100
AcDbLine
 10
39.6291924782119
 20
22.16168099854787
 30
0.0
 11
42.25087705594512
 21
24.78336557628103
 31
0.0
  0
LINE
  5
23D7
330
228D
100
AcDbEntity
  8
0
 62
     0
100
AcDbLine
 10
44.84221133955123
 20
28.27272547199413
 30
0.0
 11
48.16948624175489
 21
31.60000037419781
 31
0.0
  0
LINE
  5
23D8
330
228D
100
AcDbEntity
  8
0
 62
     0
100
AcDbLine
 10
48.93346907699561
 20
32.36398320943852
 30
0.0
 11
53.0257767693036
 21
36.45629090174651
 31
0.0
  0
LINE
  5
23D9
330
228D
100
AcDbEntity
  8
0
 62
     0
100
AcDbLine
 10
38.86103196076494
 20
22.29154609320779
 30
0.0
 11
41.51948624175486
 21
24.95000037419777
 31
0.0
  0
LINE
  5
23DA
330
228D
100
AcDbEntity
  8
0
 62
     0
100
AcDbLine
 10
44.84221133955123
 20
29.17075108410108
 30
0.0
 11
47.66020191025956
 21
31.98874165480936
 31
0.0
  0
LINE
  5
23DB
330
228D
100
AcDbEntity
  8
0
 62
     0
100
AcDbLine
 10
49.34794243642954
 20
33.67648218097935
 30
0.0
 11
53.40084822110492
 21
37.72938796565478
 31
0.0
  0
LINE
  5
23DC
330
228D
100
AcDbEntity
  8
0
 62
     0
100
AcDbLine
 10
38.19989770393852
 20
22.52843744848838
 30
0.0
 11
40.62146062964797
 21
24.95000037419777
 31
0.0
  0
LINE
  5
23DD
330
228D
100
AcDbEntity
  8
0
 62
     0
100
AcDbLine
 10
44.84221133955128
 20
30.06877669620792
 30
0.0
 11
47.64221133955129
 21
32.86877669620799
 31
0.0
  0
LINE
  5
23DE
330
228D
100
AcDbEntity
  8
0
 62
     0
100
AcDbLine
 10
49.76241579586366
 20
34.98898115252035
 30
0.0
 11
53.00683634853573
 21
38.23340170519242
 31
0.0
  0
LINE
  5
23DF
330
228D
100
AcDbEntity
  8
0
 62
     0
100
AcDbLine
 10
37.62229441977422
 20
22.84885977643086
 30
0.0
 11
39.73835627826708
 21
24.96492163492377
 31
0.0
  0
LINE
  5
23E0
330
228D
100
AcDbEntity
  8
0
 62
     0
100
AcDbLine
 10
44.84221133955123
 20
30.96680230831487
 30
0.0
 11
47.64221133955129
 21
33.76680230831494
 31
0.0
  0
LINE
  5
23E1
330
228D
100
AcDbEntity
  8
0
 62
     0
100
AcDbLine
 10
50.1768891552976
 20
36.30148012406119
 30
0.0
 11
52.12540940543414
 21
38.25000037419778
 31
0.0
  0
LINE
  5
23E2
330
228D
100
AcDbEntity
  8
0
 62
     0
100
AcDbLine
 10
37.11733945339216
 20
23.24193042215575
 30
0.0
 11
39.10404013724877
 21
25.22863110601236
 31
0.0
  0
LINE
  5
23E3
330
228D
100
AcDbEntity
  8
0
 62
     0
100
AcDbLine
 10
44.84221133955123
 20
31.86482792042176
 30
0.0
 11
47.64221133955129
 21
34.66482792042183
 31
0.0
  0
LINE
  5
23E4
330
228D
100
AcDbEntity
  8
0
 62
     0
100
AcDbLine
 10
41.50384547132773
 20
28.52646205219833
 30
0.0
 11
42.66574966155082
 21
29.68836624242141
 31
0.0
  0
LINE
  5
23E5
330
228D
100
AcDbEntity
  8
0
 62
     0
100
AcDbLine
 10
50.59136251473148
 20
37.61397909560208
 30
0.0
 11
51.2273837933273
 21
38.2500003741979
 31
0.0
  0
LINE
  5
23E6
330
228D
100
AcDbEntity
  8
0
 62
     0
100
AcDbLine
 10
36.68090238006232
 20
23.70351896093291
 30
0.0
 11
38.69378918597659
 21
25.71640576684718
 31
0.0
  0
LINE
  5
23E7
330
228D
100
AcDbEntity
  8
0
 62
     0
100
AcDbLine
 10
40.57887262969791
 20
28.49951482267545
 30
0.0
 11
42.69269689107369
 21
30.61333908405118
 31
0.0
  0
LINE
  5
23E8
330
228D
100
AcDbEntity
  8
0
 62
     0
100
AcDbLine
 10
44.84221133955128
 20
32.76285353252877
 30
0.0
 11
47.64221133955135
 21
35.56285353252884
 31
0.0
  0
LINE
  5
23E9
330
228D
100
AcDbEntity
  8
0
 62
     0
100
AcDbLine
 10
36.31388315511936
 20
24.23452534809684
 30
0.0
 11
38.54221133955127
 21
26.46285353252881
 31
0.0
  0
LINE
  5
23EA
330
228D
100
AcDbEntity
  8
0
 62
     0
100
AcDbLine
 10
39.96472606027771
 20
28.78339386536203
 30
0.0
 11
42.40881784838705
 21
31.22748565347143
 31
0.0
  0
LINE
  5
23EB
330
228D
100
AcDbEntity
  8
0
 62
     0
100
AcDbLine
 10
44.84221133955128
 20
33.66087914463566
 30
0.0
 11
47.64221133955135
 21
36.46087914463573
 31
0.0
  0
LINE
  5
23EC
330
228D
100
AcDbEntity
  8
0
 62
     0
100
AcDbLine
 10
36.02256564519462
 20
24.84123345027899
 30
0.0
 11
38.54221133955127
 21
27.36087914463565
 31
0.0
  0
LINE
  5
23ED
330
228D
100
AcDbEntity
  8
0
 62
     0
100
AcDbLine
 10
39.52676613328799
 20
29.24345955047932
 30
0.0
 11
41.94875216326983
 21
31.6654455804611
 31
0.0
  0
LINE
  5
23EE
330
228D
100
AcDbEntity
  8
0
 62
     0
100
AcDbLine
 10
44.84221133955128
 20
34.55890475674261
 30
0.0
 11
47.64221133955135
 21
37.35890475674262
 31
0.0
  0
LINE
  5
23EF
330
228D
100
AcDbEntity
  8
0
 62
     0
100
AcDbLine
 10
35.82142828101996
 20
25.53812169821128
 30
0.0
 11
38.54221133955127
 21
28.2589047567426
 31
0.0
  0
LINE
  5
23F0
330
228D
100
AcDbEntity
  8
0
 62
     0
100
AcDbLine
 10
39.27071540087963
 20
29.88543443017784
 30
0.0
 11
41.30677728357125
 21
31.92149631286952
 31
0.0
  0
LINE
  5
23F1
330
228D
100
AcDbEntity
  8
0
 62
     0
100
AcDbLine
 10
35.7422113395512
 20
26.35693036884948
 30
0.0
 11
38.54221133955127
 21
29.15693036884949
 31
0.0
  0
LINE
  5
23F2
330
228D
100
AcDbEntity
  8
0
 62
     0
100
AcDbLine
 10
44.84221133955128
 20
35.4569303688495
 30
0.0
 11
47.48496123119616
 21
38.09968026049444
 31
0.0
  0
LINE
  5
23F3
330
228D
100
AcDbEntity
  8
0
 62
     0
100
AcDbLine
 10
31.65621458167561
 20
22.27093361097388
 30
0.0
 11
33.52127810277534
 21
24.13599713207361
 31
0.0
  0
LINE
  5
23F4
330
228D
100
AcDbEntity
  8
0
 62
     0
100
AcDbLine
 10
39.38912848436041
 20
30.90187312576552
 30
0.0
 11
40.29033858798363
 21
31.80308322938873
 31
0.0
  0
LINE
  5
23F5
330
228D
100
AcDbEntity
  8
0
 62
     0
100
AcDbLine
 10
35.7422113395512
 20
27.25495598095631
 30
0.0
 11
38.54221133955127
 21
30.05495598095638
 31
0.0
  0
LINE
  5
23F6
330
228D
100
AcDbEntity
  8
0
 62
     0
100
AcDbLine
 10
44.84221133955128
 20
36.35495598095639
 30
0.0
 11
46.73725573279267
 21
38.25000037419778
 31
0.0
  0
LINE
  5
23F7
330
228D
100
AcDbEntity
  8
0
 62
     0
100
AcDbLine
 10
30.63725573279266
 20
22.15000037419776
 30
0.0
 11
33.64221133955141
 21
25.15495598095646
 31
0.0
  0
LINE
  5
23F8
330
228D
100
AcDbEntity
  8
0
 62
     0
100
AcDbLine
 10
35.7422113395512
 20
28.15298159306326
 30
0.0
 11
38.54221133955127
 21
30.95298159306333
 31
0.0
  0
LINE
  5
23F9
330
228D
100
AcDbEntity
  8
0
 62
     0
100
AcDbLine
 10
44.84221133955128
 20
37.25298159306329
 30
0.0
 11
45.83923012068578
 21
38.25000037419784
 31
0.0
  0
LINE
  5
23FA
330
228D
100
AcDbEntity
  8
0
 62
     0
100
AcDbLine
 10
29.73923012068565
 20
22.1500003741977
 30
0.0
 11
33.64221133955136
 21
26.05298159306341
 31
0.0
  0
LINE
  5
23FB
330
228D
100
AcDbEntity
  8
0
 62
     0
100
AcDbLine
 10
35.7422113395512
 20
29.05100720517015
 30
0.0
 11
38.54221133955121
 21
31.85100720517022
 31
0.0
  0
LINE
  5
23FC
330
228D
100
AcDbEntity
  8
0
 62
     0
100
AcDbLine
 10
28.84120450857881
 20
22.15000037419782
 30
0.0
 11
33.63827198699011
 21
26.94706785260911
 31
0.0
  0
LINE
  5
23FD
330
228D
100
AcDbEntity
  8
0
 62
     0
100
AcDbLine
 10
35.7422113395512
 20
29.9490328172771
 30
0.0
 11
38.54221133955127
 21
32.74903281727717
 31
0.0
  0
LINE
  5
23FE
330
228D
100
AcDbEntity
  8
0
 62
     0
100
AcDbLine
 10
41.24317889647199
 20
35.45000037419788
 30
0.0
 11
42.3922113395514
 21
36.59903281727731
 31
0.0
  0
LINE
  5
23FF
330
228D
100
AcDbEntity
  8
0
 62
     0
100
AcDbLine
 10
27.94317889647186
 20
22.15000037419776
 30
0.0
 11
33.52861015066878
 21
27.73543162839468
 31
0.0
  0
LINE
  5
2400
330
228D
100
AcDbEntity
  8
0
 62
     0
100
AcDbLine
 10
35.7422113395512
 20
30.847058429384
 30
0.0
 11
38.54221133955127
 21
33.64705842938401
 31
0.0
  0
LINE
  5
2401
330
228D
100
AcDbEntity
  8
0
 62
     0
100
AcDbLine
 10
30.84221133955129
 20
25.94705842938407
 30
0.0
 11
33.30627140662466
 21
28.41111849645745
 31
0.0
  0
LINE
  5
2402
330
228D
100
AcDbEntity
  8
0
 62
     0
100
AcDbLine
 10
40.34515328436498
 20
35.45000037419777
 30
0.0
 11
42.3922113395514
 21
37.49705842938414
 31
0.0
  0
LINE
  5
2403
330
228D
100
AcDbEntity
  8
0
 62
     0
100
AcDbLine
 10
27.10287915962493
 20
22.20772624945772
 30
0.0
 11
29.84515328436499
 21
24.95000037419777
 31
0.0
  0
LINE
  5
2404
330
228D
100
AcDbEntity
  8
0
 62
     0
100
AcDbLine
 10
35.74221133955115
 20
31.74508404149089
 30
0.0
 11
38.70802604533094
 21
34.71089874727068
 31
0.0
  0
LINE
  5
2405
330
228D
100
AcDbEntity
  8
0
 62
     0
100
AcDbLine
 10
30.84005224794203
 20
26.84292494988171
 30
0.0
 11
32.99783987195264
 21
29.00071257389237
 31
0.0
  0
LINE
  5
2406
330
228D
100
AcDbEntity
  8
0
 62
     0
100
AcDbLine
 10
39.28131296647848
 20
35.28418566841822
 30
0.0
 11
42.15874392463149
 21
38.16161662657118
 31
0.0
  0
LINE
  5
2407
330
228D
100
AcDbEntity
  8
0
 62
     0
100
AcDbLine
 10
26.81721133955131
 20
22.82008404149099
 30
0.0
 11
28.94712767225809
 21
24.95000037419777
 31
0.0
  0
LINE
  5
2408
330
228D
100
AcDbEntity
  8
0
 62
     0
100
AcDbLine
 10
30.62044922844132
 20
27.521347542488
 30
0.0
 11
32.61559790711374
 21
29.51649622116042
 31
0.0
  0
LINE
  5
2409
330
228D
100
AcDbEntity
  8
0
 62
     0
100
AcDbLine
 10
35.74221133955115
 20
32.64310965359783
 30
0.0
 11
41.34910206015121
 21
38.2500003741979
 31
0.0
  0
LINE
  5
240A
330
228D
100
AcDbEntity
  8
0
 62
     0
100
AcDbLine
 10
26.81721133955125
 20
23.71810965359793
 30
0.0
 11
28.04910206015114
 21
24.95000037419783
 31
0.0
  0
LINE
  5
240B
330
228D
100
AcDbEntity
  8
0
 62
     0
100
AcDbLine
 10
30.19419440013661
 20
27.99311832629013
 30
0.0
 11
32.17409338745898
 21
29.9730173136125
 31
0.0
  0
LINE
  5
240C
330
228D
100
AcDbEntity
  8
0
 62
     0
100
AcDbLine
 10
35.7422113395512
 20
33.54113526570467
 30
0.0
 11
40.45107644804426
 21
38.25000037419778
 31
0.0
  0
LINE
  5
240D
330
228D
100
AcDbEntity
  8
0
 62
     0
100
AcDbLine
 10
26.88616326157103
 20
24.68508718772455
 30
0.0
 11
27.08212452602464
 21
24.88104845217816
 31
0.0
  0
LINE
  5
240E
330
228D
100
AcDbEntity
  8
0
 62
     0
100
AcDbLine
 10
35.76218645370778
 20
34.4591359919682
 30
0.0
 11
39.53307572178079
 21
38.23002526004126
 31
0.0
  0
LINE
  5
240F
330
228D
100
AcDbEntity
  8
0
 62
     0
100
AcDbLine
 10
29.74518159408314
 20
28.4421311323436
 30
0.0
 11
31.72508058140551
 21
30.42203011966598
 31
0.0
  0
LINE
  5
2410
330
228D
100
AcDbEntity
  8
0
 62
     0
100
AcDbLine
 10
36.06164988597357
 20
35.65662503634098
 30
0.0
 11
38.33558667740806
 21
37.93056182777548
 31
0.0
  0
LINE
  5
2411
330
228D
100
AcDbEntity
  8
0
 62
     0
100
AcDbLine
 10
29.29616878802966
 20
28.89114393839708
 30
0.0
 11
31.27606777535203
 21
30.87104292571945
 31
0.0
  0
LINE
  5
2412
330
228D
100
AcDbEntity
  8
0
 62
     0
100
AcDbLine
 10
28.84715598197625
 20
29.34015674445049
 30
0.0
 11
30.82705496929856
 21
31.32005573177276
 31
0.0
  0
LINE
  5
2413
330
228D
100
AcDbEntity
  8
0
 62
     0
100
AcDbLine
 10
28.39814317592277
 20
29.78916955050397
 30
0.0
 11
30.37804216324508
 21
31.76906853782623
 31
0.0
  0
LINE
  5
2414
330
228D
100
AcDbEntity
  8
0
 62
     0
100
AcDbLine
 10
27.9491303698693
 20
30.23818235655745
 30
0.0
 11
29.92902935719161
 21
32.2180813438797
 31
0.0
  0
LINE
  5
2415
330
228D
100
AcDbEntity
  8
0
 62
     0
100
AcDbLine
 10
32.26292277540279
 20
35.45000037419788
 30
0.0
 11
33.11721133955115
 21
36.30428893834625
 31
0.0
  0
LINE
  5
2416
330
228D
100
AcDbEntity
  8
0
 62
     0
100
AcDbLine
 10
27.50020087784395
 20
30.68727847663905
 30
0.0
 11
29.48026652127641
 21
32.66734412007151
 31
0.0
  0
LINE
  5
2417
330
228D
100
AcDbEntity
  8
0
 62
     0
100
AcDbLine
 10
31.36489716329584
 20
35.45000037419777
 30
0.0
 11
33.11721133955126
 21
37.2023145504532
 31
0.0
  0
LINE
  5
2418
330
228D
100
AcDbEntity
  8
0
 62
     0
100
AcDbLine
 10
27.08873295329238
 20
31.17383616419426
 30
0.0
 11
29.15036963998847
 21
33.2354728508904
 31
0.0
  0
LINE
  5
2419
330
228D
100
AcDbEntity
  8
0
 62
     0
100
AcDbLine
 10
30.46687155118889
 20
35.45000037419777
 30
0.0
 11
33.03065243979012
 21
38.013781262799
 31
0.0
  0
LINE
  5
241A
330
228D
100
AcDbEntity
  8
0
 62
     0
100
AcDbLine
 10
26.74827234702991
 20
31.73140117003874
 30
0.0
 11
29.09221133955134
 21
34.07534016256017
 31
0.0
  0
LINE
  5
241B
330
228D
100
AcDbEntity
  8
0
 62
     0
100
AcDbLine
 10
29.56637928991188
 20
35.44753372502766
 30
0.0
 11
32.36884593908206
 21
38.25000037419784
 31
0.0
  0
LINE
  5
241C
330
228D
100
AcDbEntity
  8
0
 62
     0
100
AcDbLine
 10
26.48757905129782
 20
32.36873348641359
 30
0.0
 11
29.0946779887214
 21
34.97583242383723
 31
0.0
  0
LINE
  5
241D
330
228D
100
AcDbEntity
  8
0
 62
     0
100
AcDbLine
 10
26.32576708904975
 20
33.10494713627242
 30
0.0
 11
31.47082032697517
 21
38.25000037419784
 31
0.0
  0
LINE
  5
241E
330
228D
100
AcDbEntity
  8
0
 62
     0
100
AcDbLine
 10
26.29221133955133
 20
33.96941699888095
 30
0.0
 11
30.57279471486822
 21
38.25000037419784
 31
0.0
  0
LINE
  5
241F
330
228D
100
AcDbEntity
  8
0
 62
     0
100
AcDbLine
 10
26.29221133955133
 20
34.86744261098784
 30
0.0
 11
29.67476910276133
 21
38.25000037419784
 31
0.0
  0
LINE
  5
2420
330
228D
100
AcDbEntity
  8
0
 62
     0
100
AcDbLine
 10
26.31240334998955
 20
35.78566023353301
 30
0.0
 11
28.75655148021616
 21
38.22980836375961
 31
0.0
  0
ENDBLK
  5
2422
330
228D
100
AcDbEntity
  8
0
100
AcDbBlockEnd
  0
BLOCK
  5
3762
330
3758
100
AcDbEntity
  8
0
100
AcDbBlockBegin
  2
*D2
 70
     1
 10
0.0
 20
0.0
 30
0.0
  3
*D2
  1

  0
LINE
  5
3831
330
3758
100
AcDbEntity
  8
SUNPOU
100
AcDbLine
 10
306.4374964443584
 20
127.9574922806146
 30
0.0
 11
391.4360278563949
 21
127.9574922806145
 31
0.0
  0
LINE
  5
3832
330
3758
100
AcDbEntity
  8
SUNPOU
100
AcDbLine
 10
354.438843962857
 20
269.4576437788477
 30
0.0
 11
391.4360278563949
 21
269.4576437788476
 31
0.0
  0
LINE
  5
3833
330
3758
100
AcDbEntity
  8
SUNPOU
100
AcDbLine
 10
388.436027856395
 20
134.9574922806145
 30
0.0
 11
388.436027856395
 21
262.4576437788476
 31
0.0
  0
INSERT
  5
3834
330
3758
100
AcDbEntity
  8
SUNPOU
100
AcDbBlockReference
  2
_OPEN
 10
388.4360278563949
 20
127.9574922806145
 30
0.0
 41
7.0
 42
7.0
 43
7.0
 50
270.0
  0
INSERT
  5
3835
330
3758
100
AcDbEntity
  8
SUNPOU
100
AcDbBlockReference
  2
_OPEN
 10
388.436027856395
 20
269.4576437788476
 30
0.0
 41
7.0
 42
7.0
 43
7.0
 50
90.0
  0
MTEXT
  5
3836
330
3758
100
AcDbEntity
  8
SUNPOU
100
AcDbMText
 10
383.4360278563949
 20
198.7075680297311
 30
0.0
 40
6.0
 41
0.0
 71
     5
 72
     1
  1
\A1;142
 11
0.0000000000000001
 21
1.0
 31
0.0
 73
     1
 44
1.0
1001
ACAD
1000
MTEXTBEGIN
1070
    73
1070
     1
1070
    44
1040
1.0
1070
    74
1070
     0
1000
MTEXTEND
  0
POINT
  5
3837
330
3758
100
AcDbEntity
  8
DEFPOINTS
 62
     0
100
AcDbPoint
 10
300.4374964443584
 20
127.9574922806146
 30
0.0
  0
POINT
  5
3838
330
3758
100
AcDbEntity
  8
DEFPOINTS
 62
     0
100
AcDbPoint
 10
348.438843962857
 20
269.4576437788477
 30
0.0
  0
POINT
  5
3839
330
3758
100
AcDbEntity
  8
DEFPOINTS
 62
     0
100
AcDbPoint
 10
388.436027856395
 20
269.4576437788476
 30
0.0
  0
ENDBLK
  5
3763
330
3758
100
AcDbEntity
  8
0
100
AcDbBlockEnd
  0
BLOCK
  5
3770
330
3764
100
AcDbEntity
  8
0
100
AcDbBlockBegin
  2
*D3
 70
     1
 10
0.0
 20
0.0
 30
0.0
  3
*D3
  1

  0
LINE
  5
383A
330
3764
100
AcDbEntity
  8
SUNPOU
 62
     4
370
    -2
100
AcDbLine
 10
230.1596964443584
 20
134.9575922806145
 30
0.0
 11
198.1785875270493
 21
134.9575922806145
 31
0.0
  0
LINE
  5
383B
330
3764
100
AcDbEntity
  8
SUNPOU
 62
     4
370
    -2
100
AcDbLine
 10
227.1014399355595
 20
144.9576169719783
 30
0.0
 11
198.1785875270493
 21
144.9576169719783
 31
0.0
  0
LINE
  5
383C
330
3764
100
AcDbEntity
  8
SUNPOU
 62
     4
370
    -2
100
AcDbLine
 10
201.1785875270493
 20
127.9575922806145
 30
0.0
 11
201.1785875270493
 21
120.9575922806145
 31
0.0
  0
LINE
  5
383D
330
3764
100
AcDbEntity
  8
SUNPOU
 62
     4
370
    -2
100
AcDbLine
 10
201.1785875270493
 20
151.9576169719783
 30
0.0
 11
201.1785875270493
 21
180.3576169719783
 31
0.0
  0
LINE
  5
383E
330
3764
100
AcDbEntity
  8
SUNPOU
 62
     4
370
    -2
100
AcDbLine
 10
201.1785875270493
 20
134.9575922806145
 30
0.0
 11
201.1785875270493
 21
144.9576169719783
 31
0.0
  0
INSERT
  5
383F
330
3764
100
AcDbEntity
  8
SUNPOU
 62
     4
370
    -2
100
AcDbBlockReference
  2
_OPEN
 10
201.1785875270493
 20
134.9575922806145
 30
0.0
 41
7.0
 42
7.0
 43
7.0
 50
90.0
  0
INSERT
  5
3840
330
3764
100
AcDbEntity
  8
SUNPOU
 62
     4
370
    -2
100
AcDbBlockReference
  2
_OPEN
 10
201.1785875270493
 20
144.9576169719783
 30
0.0
 41
7.0
 42
7.0
 43
7.0
 50
270.0
  0
MTEXT
  5
3841
330
3764
100
AcDbEntity
  8
SUNPOU
 62
     4
100
AcDbMText
 10
196.1785875270493
 20
169.6576169719783
 30
0.0
 40
6.0
 41
0.0
 71
     5
 72
     1
  1
\A1;※ 10
 11
0.0000000000000001
 21
1.0
 31
0.0
 73
     1
 44
1.0
1001
ACAD
1000
MTEXTBEGIN
1070
    73
1070
     1
1070
    44
1040
1.0
1070
    74
1070
     0
1000
MTEXTEND
  0
POINT
  5
3842
330
3764
100
AcDbEntity
  8
DEFPOINTS
 62
     0
100
AcDbPoint
 10
236.1596964443584
 20
134.9575922806145
 30
0.0
  0
POINT
  5
3843
330
3764
100
AcDbEntity
  8
DEFPOINTS
 62
     0
100
AcDbPoint
 10
233.1014399355595
 20
144.9576169719783
 30
0.0
  0
POINT
  5
3844
330
3764
100
AcDbEntity
  8
DEFPOINTS
 62
     0
100
AcDbPoint
 10
201.1785875270493
 20
144.9576169719783
 30
0.0
  0
ENDBLK
  5
3771
330
3764
100
AcDbEntity
  8
0
100
AcDbBlockEnd
  0
BLOCK
  5
377C
330
3772
100
AcDbEntity
  8
0
100
AcDbBlockBegin
  2
*D4
 70
     1
 10
0.0
 20
0.0
 30
0.0
  3
*D4
  1

  0
LINE
  5
3845
330
3772
100
AcDbEntity
  8
SUNPOU
 62
     4
370
    -2
100
AcDbLine
 10
319.4384964443584
 20
153.4574922806145
 30
0.0
 11
319.4384964443584
 21
94.80497678087033
 31
0.0
  0
LINE
  5
3846
330
3772
100
AcDbEntity
  8
SUNPOU
 62
     4
370
    -2
100
AcDbLine
 10
221.4385964443584
 20
153.4575922806146
 30
0.0
 11
221.4385964443584
 21
94.80497678087033
 31
0.0
  0
LINE
  5
3847
330
3772
100
AcDbEntity
  8
SUNPOU
 62
     4
370
    -2
100
AcDbLine
 10
312.4384964443584
 20
97.80497678087034
 30
0.0
 11
228.4385964443584
 21
97.80497678087034
 31
0.0
  0
INSERT
  5
3848
330
3772
100
AcDbEntity
  8
SUNPOU
 62
     4
370
    -2
100
AcDbBlockReference
  2
_OPEN
 10
319.4384964443584
 20
97.80497678087034
 30
0.0
 41
7.0
 42
7.0
 43
7.0
  0
INSERT
  5
3849
330
3772
100
AcDbEntity
  8
SUNPOU
 62
     4
370
    -2
100
AcDbBlockReference
  2
_OPEN
 10
221.4385964443584
 20
97.80497678087034
 30
0.0
 41
7.0
 42
7.0
 43
7.0
 50
180.0
  0
MTEXT
  5
384A
330
3772
100
AcDbEntity
  8
SUNPOU
 62
     4
100
AcDbMText
 10
270.4385464443584
 20
102.8049767808703
 30
0.0
 40
6.0
 41
0.0
 71
     5
 72
     1
  1
\A1;98
 73
     1
 44
1.0
1001
ACAD
1000
MTEXTBEGIN
1070
    73
1070
     1
1070
    44
1040
1.0
1070
    74
1070
     0
1000
MTEXTEND
  0
POINT
  5
384B
330
3772
100
AcDbEntity
  8
DEFPOINTS
 62
     0
100
AcDbPoint
 10
319.4384964443584
 20
159.4574922806145
 30
0.0
  0
POINT
  5
384C
330
3772
100
AcDbEntity
  8
DEFPOINTS
 62
     0
100
AcDbPoint
 10
221.4385964443584
 20
159.4575922806146
 30
0.0
  0
POINT
  5
384D
330
3772
100
AcDbEntity
  8
DEFPOINTS
 62
     0
100
AcDbPoint
 10
221.4385964443584
 20
97.80497678087034
 30
0.0
  0
ENDBLK
  5
377D
330
3772
100
AcDbEntity
  8
0
100
AcDbBlockEnd
  0
BLOCK
  5
3788
330
377E
100
AcDbEntity
  8
0
100
AcDbBlockBegin
  2
*D5
 70
     1
 10
0.0
 20
0.0
 30
0.0
  3
*D5
  1

  0
LINE
  5
384E
330
377E
100
AcDbEntity
  8
SUNPOU
 62
     4
370
    -2
100
AcDbLine
 10
240.4395964443584
 20
121.9575922806146
 30
0.0
 11
240.4395964443584
 21
109.1677972202488
 31
0.0
  0
LINE
  5
384F
330
377E
100
AcDbEntity
  8
SUNPOU
 62
     4
370
    -2
100
AcDbLine
 10
300.4374964443584
 20
125.4574922806146
 30
0.0
 11
300.4374964443584
 21
109.1677972202488
 31
0.0
  0
LINE
  5
3850
330
377E
100
AcDbEntity
  8
SUNPOU
 62
     4
370
    -2
100
AcDbLine
 10
247.4395964443584
 20
112.1677972202488
 30
0.0
 11
293.4374964443584
 21
112.1677972202488
 31
0.0
  0
INSERT
  5
3851
330
377E
100
AcDbEntity
  8
SUNPOU
 62
     4
370
    -2
100
AcDbBlockReference
  2
_OPEN
 10
240.4395964443584
 20
112.1677972202488
 30
0.0
 41
7.0
 42
7.0
 43
7.0
 50
180.0
  0
INSERT
  5
3852
330
377E
100
AcDbEntity
  8
SUNPOU
 62
     4
370
    -2
100
AcDbBlockReference
  2
_OPEN
 10
300.4374964443584
 20
112.1677972202488
 30
0.0
 41
7.0
 42
7.0
 43
7.0
  0
MTEXT
  5
3853
330
377E
100
AcDbEntity
  8
SUNPOU
 62
     4
100
AcDbMText
 10
270.4385464443584
 20
117.1677972202489
 30
0.0
 40
6.0
 41
0.0
 71
     5
 72
     1
  1
\A1;φ 60
 73
     1
 44
1.0
1001
ACAD
1000
MTEXTBEGIN
1070
    73
1070
     1
1070
    44
1040
1.0
1070
    74
1070
     0
1000
MTEXTEND
  0
POINT
  5
3854
330
377E
100
AcDbEntity
  8
DEFPOINTS
 62
     0
100
AcDbPoint
 10
240.4395964443584
 20
127.9575922806146
 30
0.0
  0
POINT
  5
3855
330
377E
100
AcDbEntity
  8
DEFPOINTS
 62
     0
100
AcDbPoint
 10
300.4374964443584
 20
131.4574922806146
 30
0.0
  0
POINT
  5
3856
330
377E
100
AcDbEntity
  8
DEFPOINTS
 62
     0
100
AcDbPoint
 10
300.4374964443584
 20
112.1677972202488
 30
0.0
  0
ENDBLK
  5
3789
330
377E
100
AcDbEntity
  8
0
100
AcDbBlockEnd
  0
BLOCK
  5
3794
330
378A
100
AcDbEntity
  8
0
100
AcDbBlockBegin
  2
*D6
 70
     1
 10
0.0
 20
0.0
 30
0.0
  3
*D6
  1

  0
LINE
  5
3857
330
378A
100
AcDbEntity
  8
SUNPOU
 62
     4
370
    -2
100
AcDbLine
 10
199.4386964443583
 20
251.4576922806146
 30
0.0
 11
199.4386964443583
 21
229.9211646172049
 31
0.0
  0
LINE
  5
3858
330
378A
100
AcDbEntity
  8
SUNPOU
 62
     4
370
    -2
100
AcDbLine
 10
341.4386964443584
 20
251.4576922806146
 30
0.0
 11
341.4386964443584
 21
229.9211646172049
 31
0.0
  0
LINE
  5
3859
330
378A
100
AcDbEntity
  8
SUNPOU
 62
     4
370
    -2
100
AcDbLine
 10
206.4386964443583
 20
232.9211646172049
 30
0.0
 11
334.4386964443584
 21
232.9211646172049
 31
0.0
  0
INSERT
  5
385A
330
378A
100
AcDbEntity
  8
SUNPOU
 62
     4
370
    -2
100
AcDbBlockReference
  2
_OPEN
 10
199.4386964443583
 20
232.9211646172049
 30
0.0
 41
7.0
 42
7.0
 43
7.0
 50
180.0
  0
INSERT
  5
385B
330
378A
100
AcDbEntity
  8
SUNPOU
 62
     4
370
    -2
100
AcDbBlockReference
  2
_OPEN
 10
341.4386964443584
 20
232.9211646172049
 30
0.0
 41
7.0
 42
7.0
 43
7.0
  0
MTEXT
  5
385C
330
378A
100
AcDbEntity
  8
SUNPOU
 62
     4
100
AcDbMText
 10
270.4386964443584
 20
237.9211646172049
 30
0.0
 40
6.0
 41
0.0
 71
     5
 72
     1
  1
\A1;142
 73
     1
 44
1.0
1001
ACAD
1000
MTEXTBEGIN
1070
    73
1070
     1
1070
    44
1040
1.0
1070
    74
1070
     0
1000
MTEXTEND
  0
POINT
  5
385D
330
378A
100
AcDbEntity
  8
DEFPOINTS
 62
     0
100
AcDbPoint
 10
199.4386964443583
 20
257.4576922806146
 30
0.0
  0
POINT
  5
385E
330
378A
100
AcDbEntity
  8
DEFPOINTS
 62
     0
100
AcDbPoint
 10
341.4386964443584
 20
257.4576922806146
 30
0.0
  0
POINT
  5
385F
330
378A
100
AcDbEntity
  8
DEFPOINTS
 62
     0
100
AcDbPoint
 10
341.4386964443584
 20
232.9211646172049
 30
0.0
  0
ENDBLK
  5
3795
330
378A
100
AcDbEntity
  8
0
100
AcDbBlockEnd
  0
BLOCK
  5
37A0
330
3796
100
AcDbEntity
  8
0
100
AcDbBlockBegin
  2
*D7
 70
     1
 10
0.0
 20
0.0
 30
0.0
  3
*D7
  1

  0
LINE
  5
3860
330
3796
100
AcDbEntity
  8
SUNPOU
 62
     4
370
    -2
100
AcDbLine
 10
347.4386963529173
 20
257.4576922806144
 30
0.0
 11
373.4412246522939
 21
257.4576922806144
 31
0.0
  0
LINE
  5
3861
330
3796
100
AcDbEntity
  8
SUNPOU
 62
     4
370
    -2
100
AcDbLine
 10
306.4374964443584
 20
127.9574922806146
 30
0.0
 11
373.4412246522938
 21
127.9574922806145
 31
0.0
  0
LINE
  5
3862
330
3796
100
AcDbEntity
  8
SUNPOU
 62
     4
370
    -2
100
AcDbLine
 10
370.4412246522939
 20
250.4576922806144
 30
0.0
 11
370.4412246522939
 21
134.9574922806145
 31
0.0
  0
INSERT
  5
3863
330
3796
100
AcDbEntity
  8
SUNPOU
 62
     4
370
    -2
100
AcDbBlockReference
  2
_OPEN
 10
370.4412246522939
 20
257.4576922806144
 30
0.0
 41
7.0
 42
7.0
 43
7.0
 50
90.0
  0
INSERT
  5
3864
330
3796
100
AcDbEntity
  8
SUNPOU
 62
     4
370
    -2
100
AcDbBlockReference
  2
_OPEN
 10
370.4412246522938
 20
127.9574922806145
 30
0.0
 41
7.0
 42
7.0
 43
7.0
 50
270.0
  0
MTEXT
  5
3865
330
3796
100
AcDbEntity
  8
SUNPOU
 62
     4
100
AcDbMText
 10
365.4412246522938
 20
192.7075922806145
 30
0.0
 40
6.0
 41
0.0
 71
     5
 72
     1
  1
\A1;130
 11
0.0000000000000001
 21
1.0
 31
0.0
 73
     1
 44
1.0
1001
ACAD
1000
MTEXTBEGIN
1070
    73
1070
     1
1070
    44
1040
1.0
1070
    74
1070
     0
1000
MTEXTEND
  0
POINT
  5
3866
330
3796
100
AcDbEntity
  8
DEFPOINTS
 62
     0
100
AcDbPoint
 10
341.4386963529173
 20
257.4576922806144
 30
0.0
  0
POINT
  5
3867
330
3796
100
AcDbEntity
  8
DEFPOINTS
 62
     0
100
AcDbPoint
 10
300.4374964443584
 20
127.9574922806146
 30
0.0
  0
POINT
  5
3868
330
3796
100
AcDbEntity
  8
DEFPOINTS
 62
     0
100
AcDbPoint
 10
370.4412246522938
 20
127.9574922806145
 30
0.0
  0
ENDBLK
  5
37A1
330
3796
100
AcDbEntity
  8
0
100
AcDbBlockEnd
  0
BLOCK
  5
37AD
330
37A2
100
AcDbEntity
  8
0
100
AcDbBlockBegin
  2
*D8
 70
     1
 10
0.0
 20
0.0
 30
0.0
  3
*D8
  1

  0
LINE
  5
3869
330
37A2
100
AcDbEntity
  8
SUNPOU
100
AcDbLine
 10
495.6358888292247
 20
290.7711015540632
 30
0.0
 11
488.0214028804194
 21
290.7711015540632
 31
0.0
  0
LINE
  5
386A
330
37A2
100
AcDbEntity
  8
SUNPOU
100
AcDbLine
 10
497.6358888292248
 20
278.7711015540632
 30
0.0
 11
488.0214028804194
 21
278.7711015540632
 31
0.0
  0
LINE
  5
386B
330
37A2
100
AcDbEntity
  8
SUNPOU
100
AcDbLine
 10
491.0214028804193
 20
283.7711015540632
 30
0.0
 11
491.0214028804193
 21
285.7711015540632
 31
0.0
  0
LINE
  5
386C
330
37A2
100
AcDbEntity
  8
SUNPOU
100
AcDbLine
 10
491.0214028804193
 20
278.7711015540632
 30
0.0
 11
491.0214028804193
 21
259.7711015540632
 31
0.0
  0
INSERT
  5
386D
330
37A2
100
AcDbEntity
  8
SUNPOU
100
AcDbBlockReference
  2
_OPEN
 10
491.0214028804193
 20
290.7711015540632
 30
0.0
 41
7.0
 42
7.0
 43
7.0
 50
90.0
  0
INSERT
  5
386E
330
37A2
100
AcDbEntity
  8
SUNPOU
100
AcDbBlockReference
  2
_OPEN
 10
491.0214028804193
 20
278.7711015540632
 30
0.0
 41
7.0
 42
7.0
 43
7.0
 50
270.0
  0
MTEXT
  5
386F
330
37A2
100
AcDbEntity
  8
SUNPOU
100
AcDbMText
 10
486.0214028804192
 20
265.7711015540633
 30
0.0
 40
6.0
 41
0.0
 71
     5
 72
     1
  1
\A1;12
 11
0.0000000000000001
 21
1.0
 31
0.0
 73
     1
 44
1.0
1001
ACAD
1000
MTEXTBEGIN
1070
    73
1070
     1
1070
    44
1040
1.0
1070
    74
1070
     0
1000
MTEXTEND
  0
POINT
  5
3870
330
37A2
100
AcDbEntity
  8
DEFPOINTS
 62
     0
100
AcDbPoint
 10
501.6358888292248
 20
290.7711015540632
 30
0.0
  0
POINT
  5
3871
330
37A2
100
AcDbEntity
  8
DEFPOINTS
 62
     0
100
AcDbPoint
 10
503.6358888292247
 20
278.7711015540632
 30
0.0
  0
POINT
  5
3872
330
37A2
100
AcDbEntity
  8
DEFPOINTS
 62
     0
100
AcDbPoint
 10
491.0214028804193
 20
278.7711015540632
 30
0.0
  0
ENDBLK
  5
37AE
330
37A2
100
AcDbEntity
  8
0
100
AcDbBlockEnd
  0
BLOCK
  5
37B9
330
37AF
100
AcDbEntity
  8
0
100
AcDbBlockBegin
  2
*D9
 70
     1
 10
0.0
 20
0.0
 30
0.0
  3
*D9
  1

  0
LINE
  5
3873
330
37AF
100
AcDbEntity
  8
SUNPOU
100
AcDbLine
 10
495.6358888292247
 20
290.7711015540632
 30
0.0
 11
473.9500974369985
 21
290.7711015540632
 31
0.0
  0
LINE
  5
3874
330
37AF
100
AcDbEntity
  8
SUNPOU
100
AcDbLine
 10
527.4358888295146
 20
268.7711015540632
 30
0.0
 11
473.9500974369985
 21
268.7711015540632
 31
0.0
  0
LINE
  5
3875
330
37AF
100
AcDbEntity
  8
SUNPOU
100
AcDbLine
 10
476.9500974369984
 20
283.7711015540632
 30
0.0
 11
476.9500974369984
 21
275.7711015540631
 31
0.0
  0
INSERT
  5
3876
330
37AF
100
AcDbEntity
  8
SUNPOU
100
AcDbBlockReference
  2
_OPEN
 10
476.9500974369984
 20
290.7711015540632
 30
0.0
 41
7.0
 42
7.0
 43
7.0
 50
90.0
  0
INSERT
  5
3877
330
37AF
100
AcDbEntity
  8
SUNPOU
100
AcDbBlockReference
  2
_OPEN
 10
476.9500974369984
 20
268.7711015540632
 30
0.0
 41
7.0
 42
7.0
 43
7.0
 50
270.0
  0
MTEXT
  5
3878
330
37AF
100
AcDbEntity
  8
SUNPOU
100
AcDbMText
 10
471.9500974369984
 20
279.7711015540632
 30
0.0
 40
6.0
 41
0.0
 71
     5
 72
     1
  1
\A1;22
 11
0.0000000000000001
 21
1.0
 31
0.0
 73
     1
 44
1.0
1001
ACAD
1000
MTEXTBEGIN
1070
    73
1070
     1
1070
    44
1040
1.0
1070
    74
1070
     0
1000
MTEXTEND
  0
POINT
  5
3879
330
37AF
100
AcDbEntity
  8
DEFPOINTS
 62
     0
100
AcDbPoint
 10
501.6358888292248
 20
290.7711015540632
 30
0.0
  0
POINT
  5
387A
330
37AF
100
AcDbEntity
  8
DEFPOINTS
 62
     0
100
AcDbPoint
 10
533.4358888295146
 20
268.7711015540632
 30
0.0
  0
POINT
  5
387B
330
37AF
100
AcDbEntity
  8
DEFPOINTS
 62
     0
100
AcDbPoint
 10
476.9500974369984
 20
268.7711015540632
 30
0.0
  0
ENDBLK
  5
37BA
330
37AF
100
AcDbEntity
  8
0
100
AcDbBlockEnd
  0
BLOCK
  5
37C4
330
37BB
100
AcDbEntity
  8
0
100
AcDbBlockBegin
  2
*D10
 70
     1
 10
0.0
 20
0.0
 30
0.0
  3
*D10
  1

  0
LINE
  5
387C
330
37BB
100
AcDbEntity
  8
SUNPOU
 62
     4
370
    -2
100
AcDbLine
 10
648.8499065475026
 20
451.3363850436877
 30
0.0
 11
638.2000941449105
 21
469.4355976174323
 31
0.0
  0
LINE
  5
387D
330
37BB
100
AcDbEntity
  8
SUNPOU
 62
     4
370
    -2
100
AcDbLine
 10
629.0716835141172
 20
484.9492083949276
 30
0.0
 11
625.5217460465866
 21
490.9822792528425
 31
0.0
  0
MTEXT
  5
387E
330
37BB
100
AcDbEntity
  8
SUNPOU
 62
     4
100
AcDbMText
 10
649.609305407054
 20
459.9051255212674
 30
0.0
 40
6.0
 41
0.0
 71
     5
 72
     1
  1
\A1;\U+22054
 11
0.507133923932959
 21
-0.8618672654164095
 31
0.0
 73
     1
 44
1.0
1001
ACAD
1000
MTEXTBEGIN
1070
    73
1070
     1
1070
    44
1040
1.0
1070
    74
1070
     0
1000
MTEXTEND
  0
LINE
  5
387F
330
37BB
100
AcDbEntity
  8
SUNPOU
 62
     4
370
    -2
100
AcDbLine
 10
632.621620981648
 20
478.9161375370127
 30
0.0
 11
634.6501566773797
 21
475.4686684753472
 31
0.0
  0
INSERT
  5
3880
330
37BB
100
AcDbEntity
  8
SUNPOU
 62
     4
370
    -2
100
AcDbBlockReference
  2
_OPEN
 10
632.621620981648
 20
478.9161375370127
 30
0.0
 41
7.0
 42
7.0
 43
7.0
 50
300.4731097220891
  0
INSERT
  5
3881
330
37BB
100
AcDbEntity
  8
SUNPOU
 62
     4
370
    -2
100
AcDbBlockReference
  2
_OPEN
 10
634.6501566773797
 20
475.4686684753472
 30
0.0
 41
7.0
 42
7.0
 43
7.0
 50
120.4731097220891
  0
POINT
  5
3882
330
37BB
100
AcDbEntity
  8
DEFPOINTS
 62
     0
100
AcDbPoint
 10
634.6501566773797
 20
475.4686684753472
 30
0.0
  0
POINT
  5
3883
330
37BB
100
AcDbEntity
  8
DEFPOINTS
 62
     0
100
AcDbPoint
 10
632.621620981648
 20
478.9161375370127
 30
0.0
  0
ENDBLK
  5
37C5
330
37BB
100
AcDbEntity
  8
0
100
AcDbBlockEnd
  0
BLOCK
  5
37D0
330
37C6
100
AcDbEntity
  8
0
100
AcDbBlockBegin
  2
*D11
 70
     1
 10
0.0
 20
0.0
 30
0.0
  3
*D11
  1

  0
LINE
  5
3884
330
37C6
100
AcDbEntity
  8
SUNPOU
 62
     4
370
    -2
100
AcDbLine
 10
613.8358888295145
 20
469.3925030061802
 30
0.0
 11
682.6383170374501
 21
469.3925030061801
 31
0.0
  0
LINE
  5
3885
330
37C6
100
AcDbEntity
  8
SUNPOU
 62
     4
370
    -2
100
AcDbLine
 10
613.8357888295145
 20
376.9924030061803
 30
0.0
 11
682.6383170374501
 21
376.9924030061803
 31
0.0
  0
LINE
  5
3886
330
37C6
100
AcDbEntity
  8
SUNPOU
 62
     4
370
    -2
100
AcDbLine
 10
679.6383170374501
 20
462.39250300618
 30
0.0
 11
679.6383170374501
 21
383.9924030061803
 31
0.0
  0
INSERT
  5
3887
330
37C6
100
AcDbEntity
  8
SUNPOU
 62
     4
370
    -2
100
AcDbBlockReference
  2
_OPEN
 10
679.6383170374501
 20
469.3925030061801
 30
0.0
 41
7.0
 42
7.0
 43
7.0
 50
90.0
  0
INSERT
  5
3888
330
37C6
100
AcDbEntity
  8
SUNPOU
 62
     4
370
    -2
100
AcDbBlockReference
  2
_OPEN
 10
679.6383170374501
 20
376.9924030061803
 30
0.0
 41
7.0
 42
7.0
 43
7.0
 50
270.0
  0
MTEXT
  5
3889
330
37C6
100
AcDbEntity
  8
SUNPOU
 62
     4
100
AcDbMText
 10
674.63831703745
 20
423.1924530061802
 30
0.0
 40
6.0
 41
0.0
 71
     5
 72
     1
  1
\A1;□ 92
 11
0.0000000000000001
 21
1.0
 31
0.0
 73
     1
 44
1.0
1001
ACAD
1000
MTEXTBEGIN
1070
    73
1070
     1
1070
    44
1040
1.0
1070
    74
1070
     0
1000
MTEXTEND
  0
POINT
  5
388A
330
37C6
100
AcDbEntity
  8
DEFPOINTS
 62
     0
100
AcDbPoint
 10
607.8358888295144
 20
469.3925030061802
 30
0.0
  0
POINT
  5
388B
330
37C6
100
AcDbEntity
  8
DEFPOINTS
 62
     0
100
AcDbPoint
 10
607.8357888295145
 20
376.9924030061803
 30
0.0
  0
POINT
  5
388C
330
37C6
100
AcDbEntity
  8
DEFPOINTS
 62
     0
100
AcDbPoint
 10
679.6383170374501
 20
376.9924030061803
 30
0.0
  0
ENDBLK
  5
37D1
330
37C6
100
AcDbEntity
  8
0
100
AcDbBlockEnd
  0
BLOCK
  5
37DC
330
37D2
100
AcDbEntity
  8
0
100
AcDbBlockBegin
  2
*D12
 70
     1
 10
0.0
 20
0.0
 30
0.0
  3
*D12
  1

  0
LINE
  5
388D
330
37D2
100
AcDbEntity
  8
SUNPOU
 62
     4
370
    -2
100
AcDbLine
 10
633.6356888295145
 20
352.9797030061802
 30
0.0
 11
633.6356888295145
 21
320.2281888086405
 31
0.0
  0
LINE
  5
388E
330
37D2
100
AcDbEntity
  8
SUNPOU
 62
     4
370
    -2
100
AcDbLine
 10
525.6356801858601
 20
352.9807767196747
 30
0.0
 11
525.6356801858601
 21
320.2281888086405
 31
0.0
  0
LINE
  5
388F
330
37D2
100
AcDbEntity
  8
SUNPOU
 62
     4
370
    -2
100
AcDbLine
 10
626.6356888295145
 20
323.2281888086405
 30
0.0
 11
532.6356801858601
 21
323.2281888086405
 31
0.0
  0
INSERT
  5
3890
330
37D2
100
AcDbEntity
  8
SUNPOU
 62
     4
370
    -2
100
AcDbBlockReference
  2
_OPEN
 10
633.6356888295145
 20
323.2281888086405
 30
0.0
 41
7.0
 42
7.0
 43
7.0
  0
INSERT
  5
3891
330
37D2
100
AcDbEntity
  8
SUNPOU
 62
     4
370
    -2
100
AcDbBlockReference
  2
_OPEN
 10
525.6356801858601
 20
323.2281888086405
 30
0.0
 41
7.0
 42
7.0
 43
7.0
 50
180.0
  0
MTEXT
  5
3892
330
37D2
100
AcDbEntity
  8
SUNPOU
 62
     4
100
AcDbMText
 10
579.6356845076872
 20
328.2281888086405
 30
0.0
 40
6.0
 41
0.0
 71
     5
 72
     1
  1
\A1;108
 73
     1
 44
1.0
1001
ACAD
1000
MTEXTBEGIN
1070
    73
1070
     1
1070
    44
1040
1.0
1070
    74
1070
     0
1000
MTEXTEND
  0
POINT
  5
3893
330
37D2
100
AcDbEntity
  8
DEFPOINTS
 62
     0
100
AcDbPoint
 10
633.6356888295145
 20
358.9797030061802
 30
0.0
  0
POINT
  5
3894
330
37D2
100
AcDbEntity
  8
DEFPOINTS
 62
     0
100
AcDbPoint
 10
525.6356801858601
 20
358.9807767196747
 30
0.0
  0
POINT
  5
3895
330
37D2
100
AcDbEntity
  8
DEFPOINTS
 62
     0
100
AcDbPoint
 10
525.6356801858601
 20
323.2281888086405
 30
0.0
  0
ENDBLK
  5
37DD
330
37D2
100
AcDbEntity
  8
0
100
AcDbBlockEnd
  0
BLOCK
  5
37E8
330
37DE
100
AcDbEntity
  8
0
100
AcDbBlockBegin
  2
*D13
 70
     1
 10
0.0
 20
0.0
 30
0.0
  3
*D13
  1

  0
LINE
  5
3896
330
37DE
100
AcDbEntity
  8
SUNPOU
 62
     4
370
    -2
100
AcDbLine
 10
654.6358888295146
 20
501.1924030061804
 30
0.0
 11
720.3837755561417
 21
501.1924030061804
 31
0.0
  0
LINE
  5
3897
330
37DE
100
AcDbEntity
  8
SUNPOU
 62
     4
370
    -2
100
AcDbLine
 10
654.6356627424129
 20
345.1923030062179
 30
0.0
 11
720.3837755561417
 21
345.1923030062179
 31
0.0
  0
LINE
  5
3898
330
37DE
100
AcDbEntity
  8
SUNPOU
 62
     4
370
    -2
100
AcDbLine
 10
717.3837755561416
 20
494.1924030061803
 30
0.0
 11
717.3837755561416
 21
352.1923030062179
 31
0.0
  0
INSERT
  5
3899
330
37DE
100
AcDbEntity
  8
SUNPOU
 62
     4
370
    -2
100
AcDbBlockReference
  2
_OPEN
 10
717.3837755561416
 20
501.1924030061804
 30
0.0
 41
7.0
 42
7.0
 43
7.0
 50
90.0
  0
INSERT
  5
389A
330
37DE
100
AcDbEntity
  8
SUNPOU
 62
     4
370
    -2
100
AcDbBlockReference
  2
_OPEN
 10
717.3837755561416
 20
345.1923030062179
 30
0.0
 41
7.0
 42
7.0
 43
7.0
 50
270.0
  0
MTEXT
  5
389B
330
37DE
100
AcDbEntity
  8
SUNPOU
 62
     4
100
AcDbMText
 10
712.3837755561416
 20
423.1923530061992
 30
0.0
 40
6.0
 41
0.0
 71
     5
 72
     1
  1
\A1;156
 11
0.0000000000000001
 21
1.0
 31
0.0
 73
     1
 44
1.0
1001
ACAD
1000
MTEXTBEGIN
1070
    73
1070
     1
1070
    44
1040
1.0
1070
    74
1070
     0
1000
MTEXTEND
  0
POINT
  5
389C
330
37DE
100
AcDbEntity
  8
DEFPOINTS
 62
     0
100
AcDbPoint
 10
648.6358888295146
 20
501.1924030061804
 30
0.0
  0
POINT
  5
389D
330
37DE
100
AcDbEntity
  8
DEFPOINTS
 62
     0
100
AcDbPoint
 10
648.6356627424129
 20
345.1923030062179
 30
0.0
  0
POINT
  5
389E
330
37DE
100
AcDbEntity
  8
DEFPOINTS
 62
     0
100
AcDbPoint
 10
717.3837755561416
 20
345.1923030062179
 30
0.0
  0
ENDBLK
  5
37E9
330
37DE
100
AcDbEntity
  8
0
100
AcDbBlockEnd
  0
BLOCK
  5
37F4
330
37EA
100
AcDbEntity
  8
0
100
AcDbBlockBegin
  2
*D14
 70
     1
 10
0.0
 20
0.0
 30
0.0
  3
*D14
  1

  0
LINE
  5
389F
330
37EA
100
AcDbEntity
  8
SUNPOU
 62
     4
370
    -2
100
AcDbLine
 10
652.8300891537896
 20
477.0817772929209
 30
0.0
 11
701.5110450052689
 21
477.0817772929209
 31
0.0
  0
LINE
  5
38A0
330
37EA
100
AcDbEntity
  8
SUNPOU
 62
     4
370
    -2
100
AcDbLine
 10
648.9779888295145
 20
369.1923030061802
 30
0.0
 11
701.5110450052689
 21
369.1923030061802
 31
0.0
  0
LINE
  5
38A1
330
37EA
100
AcDbEntity
  8
SUNPOU
 62
     4
370
    -2
100
AcDbLine
 10
698.5110450052689
 20
470.0817772929209
 30
0.0
 11
698.5110450052689
 21
376.1923030061802
 31
0.0
  0
INSERT
  5
38A2
330
37EA
100
AcDbEntity
  8
SUNPOU
 62
     4
370
    -2
100
AcDbBlockReference
  2
_OPEN
 10
698.5110450052689
 20
477.0817772929209
 30
0.0
 41
7.0
 42
7.0
 43
7.0
 50
90.0
  0
INSERT
  5
38A3
330
37EA
100
AcDbEntity
  8
SUNPOU
 62
     4
370
    -2
100
AcDbBlockReference
  2
_OPEN
 10
698.5110450052689
 20
369.1923030061802
 30
0.0
 41
7.0
 42
7.0
 43
7.0
 50
270.0
  0
MTEXT
  5
38A4
330
37EA
100
AcDbEntity
  8
SUNPOU
 62
     4
100
AcDbMText
 10
693.5110450052688
 20
423.1370401495507
 30
0.0
 40
6.0
 41
0.0
 71
     5
 72
     1
  1
\A1;108
 11
0.0000000000000001
 21
1.0
 31
0.0
 73
     1
 44
1.0
1001
ACAD
1000
MTEXTBEGIN
1070
    73
1070
     1
1070
    44
1040
1.0
1070
    74
1070
     0
1000
MTEXTEND
  0
POINT
  5
38A5
330
37EA
100
AcDbEntity
  8
DEFPOINTS
 62
     0
100
AcDbPoint
 10
646.8300891537897
 20
477.0817772929209
 30
0.0
  0
POINT
  5
38A6
330
37EA
100
AcDbEntity
  8
DEFPOINTS
 62
     0
100
AcDbPoint
 10
642.9779888295144
 20
369.1923030061802
 30
0.0
  0
POINT
  5
38A7
330
37EA
100
AcDbEntity
  8
DEFPOINTS
 62
     0
100
AcDbPoint
 10
698.5110450052689
 20
369.1923030061802
 30
0.0
  0
ENDBLK
  5
37F5
330
37EA
100
AcDbEntity
  8
0
100
AcDbBlockEnd
  0
BLOCK
  5
3800
330
37F6
100
AcDbEntity
  8
0
100
AcDbBlockBegin
  2
*D15
 70
     1
 10
0.0
 20
0.0
 30
0.0
  3
*D15
  1

  0
LINE
  5
38A8
330
37F6
100
AcDbEntity
  8
SUNPOU
 62
     4
370
    -2
100
AcDbLine
 10
343.6329597316622
 20
477.0817772929209
 30
0.0
 11
392.3139155831414
 21
477.0817772929208
 31
0.0
  0
LINE
  5
38A9
330
37F6
100
AcDbEntity
  8
SUNPOU
 62
     4
370
    -2
100
AcDbLine
 10
339.780859407387
 20
369.1923030061802
 30
0.0
 11
392.3139155831414
 21
369.1923030061801
 31
0.0
  0
LINE
  5
38AA
330
37F6
100
AcDbEntity
  8
SUNPOU
 62
     4
370
    -2
100
AcDbLine
 10
389.3139155831414
 20
470.0817772929209
 30
0.0
 11
389.3139155831414
 21
376.1923030061801
 31
0.0
  0
INSERT
  5
38AB
330
37F6
100
AcDbEntity
  8
SUNPOU
 62
     4
370
    -2
100
AcDbBlockReference
  2
_OPEN
 10
389.3139155831414
 20
477.0817772929208
 30
0.0
 41
7.0
 42
7.0
 43
7.0
 50
90.0
  0
INSERT
  5
38AC
330
37F6
100
AcDbEntity
  8
SUNPOU
 62
     4
370
    -2
100
AcDbBlockReference
  2
_OPEN
 10
389.3139155831414
 20
369.1923030061801
 30
0.0
 41
7.0
 42
7.0
 43
7.0
 50
270.0
  0
MTEXT
  5
38AD
330
37F6
100
AcDbEntity
  8
SUNPOU
 62
     4
100
AcDbMText
 10
384.3139155831413
 20
423.1370401495506
 30
0.0
 40
6.0
 41
0.0
 71
     5
 72
     1
  1
\A1;108
 11
0.0000000000000001
 21
1.0
 31
0.0
 73
     1
 44
1.0
1001
ACAD
1000
MTEXTBEGIN
1070
    73
1070
     1
1070
    44
1040
1.0
1070
    74
1070
     0
1000
MTEXTEND
  0
POINT
  5
38AE
330
37F6
100
AcDbEntity
  8
DEFPOINTS
 62
     0
100
AcDbPoint
 10
337.6329597316622
 20
477.0817772929209
 30
0.0
  0
POINT
  5
38AF
330
37F6
100
AcDbEntity
  8
DEFPOINTS
 62
     0
100
AcDbPoint
 10
333.780859407387
 20
369.1923030061802
 30
0.0
  0
POINT
  5
38B0
330
37F6
100
AcDbEntity
  8
DEFPOINTS
 62
     0
100
AcDbPoint
 10
389.3139155831414
 20
369.1923030061801
 30
0.0
  0
ENDBLK
  5
3801
330
37F6
100
AcDbEntity
  8
0
100
AcDbBlockEnd
  0
BLOCK
  5
380C
330
3802
100
AcDbEntity
  8
0
100
AcDbBlockBegin
  2
*D16
 70
     1
 10
0.0
 20
0.0
 30
0.0
  3
*D16
  1

  0
LINE
  5
38B1
330
3802
100
AcDbEntity
  8
SUNPOU
 62
     4
370
    -2
100
AcDbLine
 10
345.4387594073871
 20
501.1924030061804
 30
0.0
 11
411.1866461340142
 21
501.1924030061803
 31
0.0
  0
LINE
  5
38B2
330
3802
100
AcDbEntity
  8
SUNPOU
 62
     4
370
    -2
100
AcDbLine
 10
345.4385333202854
 20
345.1923030062179
 30
0.0
 11
411.1866461340141
 21
345.1923030062179
 31
0.0
  0
LINE
  5
38B3
330
3802
100
AcDbEntity
  8
SUNPOU
 62
     4
370
    -2
100
AcDbLine
 10
408.1866461340141
 20
494.1924030061803
 30
0.0
 11
408.1866461340141
 21
352.1923030062179
 31
0.0
  0
INSERT
  5
38B4
330
3802
100
AcDbEntity
  8
SUNPOU
 62
     4
370
    -2
100
AcDbBlockReference
  2
_OPEN
 10
408.1866461340141
 20
501.1924030061803
 30
0.0
 41
7.0
 42
7.0
 43
7.0
 50
90.0
  0
INSERT
  5
38B5
330
3802
100
AcDbEntity
  8
SUNPOU
 62
     4
370
    -2
100
AcDbBlockReference
  2
_OPEN
 10
408.1866461340141
 20
345.1923030062179
 30
0.0
 41
7.0
 42
7.0
 43
7.0
 50
270.0
  0
MTEXT
  5
38B6
330
3802
100
AcDbEntity
  8
SUNPOU
 62
     4
100
AcDbMText
 10
403.1866461340141
 20
423.1923530061991
 30
0.0
 40
6.0
 41
0.0
 71
     5
 72
     1
  1
\A1;156
 11
0.0000000000000001
 21
1.0
 31
0.0
 73
     1
 44
1.0
1001
ACAD
1000
MTEXTBEGIN
1070
    73
1070
     1
1070
    44
1040
1.0
1070
    74
1070
     0
1000
MTEXTEND
  0
POINT
  5
38B7
330
3802
100
AcDbEntity
  8
DEFPOINTS
 62
     0
100
AcDbPoint
 10
339.4387594073871
 20
501.1924030061804
 30
0.0
  0
POINT
  5
38B8
330
3802
100
AcDbEntity
  8
DEFPOINTS
 62
     0
100
AcDbPoint
 10
339.4385333202854
 20
345.1923030062179
 30
0.0
  0
POINT
  5
38B9
330
3802
100
AcDbEntity
  8
DEFPOINTS
 62
     0
100
AcDbPoint
 10
408.1866461340141
 20
345.1923030062179
 30
0.0
  0
ENDBLK
  5
380D
330
3802
100
AcDbEntity
  8
0
100
AcDbBlockEnd
  0
BLOCK
  5
3818
330
380E
100
AcDbEntity
  8
0
100
AcDbBlockBegin
  2
*D17
 70
     1
 10
0.0
 20
0.0
 30
0.0
  3
*D17
  1

  0
LINE
  5
38BA
330
380E
100
AcDbEntity
  8
SUNPOU
 62
     4
370
    -2
100
AcDbLine
 10
324.4385594073869
 20
352.9797030061802
 30
0.0
 11
324.4385594073869
 21
320.2281888086405
 31
0.0
  0
LINE
  5
38BB
330
380E
100
AcDbEntity
  8
SUNPOU
 62
     4
370
    -2
100
AcDbLine
 10
216.4385507637326
 20
352.9807767196747
 30
0.0
 11
216.4385507637326
 21
320.2281888086405
 31
0.0
  0
LINE
  5
38BC
330
380E
100
AcDbEntity
  8
SUNPOU
 62
     4
370
    -2
100
AcDbLine
 10
317.438559407387
 20
323.2281888086405
 30
0.0
 11
223.4385507637326
 21
323.2281888086405
 31
0.0
  0
INSERT
  5
38BD
330
380E
100
AcDbEntity
  8
SUNPOU
 62
     4
370
    -2
100
AcDbBlockReference
  2
_OPEN
 10
324.4385594073869
 20
323.2281888086405
 30
0.0
 41
7.0
 42
7.0
 43
7.0
  0
INSERT
  5
38BE
330
380E
100
AcDbEntity
  8
SUNPOU
 62
     4
370
    -2
100
AcDbBlockReference
  2
_OPEN
 10
216.4385507637326
 20
323.2281888086405
 30
0.0
 41
7.0
 42
7.0
 43
7.0
 50
180.0
  0
MTEXT
  5
38BF
330
380E
100
AcDbEntity
  8
SUNPOU
 62
     4
100
AcDbMText
 10
270.4385550855597
 20
328.2281888086405
 30
0.0
 40
6.0
 41
0.0
 71
     5
 72
     1
  1
\A1;108
 73
     1
 44
1.0
1001
ACAD
1000
MTEXTBEGIN
1070
    73
1070
     1
1070
    44
1040
1.0
1070
    74
1070
     0
1000
MTEXTEND
  0
POINT
  5
38C0
330
380E
100
AcDbEntity
  8
DEFPOINTS
 62
     0
100
AcDbPoint
 10
324.4385594073869
 20
358.9797030061802
 30
0.0
  0
POINT
  5
38C1
330
380E
100
AcDbEntity
  8
DEFPOINTS
 62
     0
100
AcDbPoint
 10
216.4385507637326
 20
358.9807767196747
 30
0.0
  0
POINT
  5
38C2
330
380E
100
AcDbEntity
  8
DEFPOINTS
 62
     0
100
AcDbPoint
 10
216.4385507637326
 20
323.2281888086405
 30
0.0
  0
ENDBLK
  5
3819
330
380E
100
AcDbEntity
  8
0
100
AcDbBlockEnd
  0
BLOCK
  5
3824
330
381A
100
AcDbEntity
  8
0
100
AcDbBlockBegin
  2
*D18
 70
     1
 10
0.0
 20
0.0
 30
0.0
  3
*D18
  1

  0
LINE
  5
38C3
330
381A
100
AcDbEntity
  8
SUNPOU
 62
     4
370
    -2
100
AcDbLine
 10
304.6387594073869
 20
469.3925030061802
 30
0.0
 11
373.4411876153227
 21
469.3925030061802
 31
0.0
  0
LINE
  5
38C4
330
381A
100
AcDbEntity
  8
SUNPOU
 62
     4
370
    -2
100
AcDbLine
 10
304.638659407387
 20
376.9924030061803
 30
0.0
 11
373.4411876153227
 21
376.9924030061803
 31
0.0
  0
LINE
  5
38C5
330
381A
100
AcDbEntity
  8
SUNPOU
 62
     4
370
    -2
100
AcDbLine
 10
370.4411876153227
 20
462.3925030061801
 30
0.0
 11
370.4411876153226
 21
383.9924030061803
 31
0.0
  0
INSERT
  5
38C6
330
381A
100
AcDbEntity
  8
SUNPOU
 62
     4
370
    -2
100
AcDbBlockReference
  2
_OPEN
 10
370.4411876153227
 20
469.3925030061802
 30
0.0
 41
7.0
 42
7.0
 43
7.0
 50
90.0
  0
INSERT
  5
38C7
330
381A
100
AcDbEntity
  8
SUNPOU
 62
     4
370
    -2
100
AcDbBlockReference
  2
_OPEN
 10
370.4411876153226
 20
376.9924030061803
 30
0.0
 41
7.0
 42
7.0
 43
7.0
 50
270.0
  0
MTEXT
  5
38C8
330
381A
100
AcDbEntity
  8
SUNPOU
 62
     4
100
AcDbMText
 10
365.4411876153226
 20
423.1924530061802
 30
0.0
 40
6.0
 41
0.0
 71
     5
 72
     1
  1
\A1;□ 92
 11
0.0000000000000001
 21
1.0
 31
0.0
 73
     1
 44
1.0
1001
ACAD
1000
MTEXTBEGIN
1070
    73
1070
     1
1070
    44
1040
1.0
1070
    74
1070
     0
1000
MTEXTEND
  0
POINT
  5
38C9
330
381A
100
AcDbEntity
  8
DEFPOINTS
 62
     0
100
AcDbPoint
 10
298.6387594073869
 20
469.3925030061802
 30
0.0
  0
POINT
  5
38CA
330
381A
100
AcDbEntity
  8
DEFPOINTS
 62
     0
100
AcDbPoint
 10
298.638659407387
 20
376.9924030061803
 30
0.0
  0
POINT
  5
38CB
330
381A
100
AcDbEntity
  8
DEFPOINTS
 62
     0
100
AcDbPoint
 10
370.4411876153226
 20
376.9924030061803
 30
0.0
  0
ENDBLK
  5
3825
330
381A
100
AcDbEntity
  8
0
100
AcDbBlockEnd
  0
BLOCK
  5
382F
330
3826
100
AcDbEntity
  8
0
100
AcDbBlockBegin
  2
*D19
 70
     1
 10
0.0
 20
0.0
 30
0.0
  3
*D19
  1

  0
LINE
  5
38CC
330
3826
100
AcDbEntity
  8
SUNPOU
 62
     4
370
    -2
100
AcDbLine
 10
339.6527771253787
 20
451.3363850436896
 30
0.0
 11
329.0029647227847
 21
469.4355976174331
 31
0.0
  0
LINE
  5
38CD
330
3826
100
AcDbEntity
  8
SUNPOU
 62
     4
370
    -2
100
AcDbLine
 10
319.8745540919898
 20
484.9492083949276
 30
0.0
 11
316.3246166244585
 21
490.982279252842
 31
0.0
  0
MTEXT
  5
38CE
330
3826
100
AcDbEntity
  8
SUNPOU
 62
     4
100
AcDbMText
 10
340.4121759849291
 20
459.9051255212693
 30
0.0
 40
6.0
 41
0.0
 71
     5
 72
     1
  1
\A1;\U+22054
 11
0.5071339239330494
 21
-0.8618672654163564
 31
0.0
 73
     1
 44
1.0
1001
ACAD
1000
MTEXTBEGIN
1070
    73
1070
     1
1070
    44
1040
1.0
1070
    74
1070
     0
1000
MTEXTEND
  0
LINE
  5
38CF
330
3826
100
AcDbEntity
  8
SUNPOU
 62
     4
370
    -2
100
AcDbLine
 10
323.4244915595212
 20
478.9161375370131
 30
0.0
 11
325.4530272552533
 21
475.4686684753476
 31
0.0
  0
INSERT
  5
38D0
330
3826
100
AcDbEntity
  8
SUNPOU
 62
     4
370
    -2
100
AcDbBlockReference
  2
_OPEN
 10
323.4244915595212
 20
478.9161375370131
 30
0.0
 41
7.0
 42
7.0
 43
7.0
 50
300.4731097220952
  0
INSERT
  5
38D1
330
3826
100
AcDbEntity
  8
SUNPOU
 62
     4
370
    -2
100
AcDbBlockReference
  2
_OPEN
 10
325.4530272552533
 20
475.4686684753476
 30
0.0
 41
7.0
 42
7.0
 43
7.0
 50
120.4731097220951
  0
POINT
  5
38D2
330
3826
100
AcDbEntity
  8
DEFPOINTS
 62
     0
100
AcDbPoint
 10
325.4530272552533
 20
475.4686684753476
 30
0.0
  0
POINT
  5
38D3
330
3826
100
AcDbEntity
  8
DEFPOINTS
 62
     0
100
AcDbPoint
 10
323.4244915595212
 20
478.9161375370131
 30
0.0
  0
ENDBLK
  5
3830
330
3826
100
AcDbEntity
  8
0
100
AcDbBlockEnd
  0
ENDSEC
  0
SECTION
  2
ENTITIES
  0
LWPOLYLINE
  5
76D
330
1A
100
AcDbEntity
  8
ZUWAKU
100
AcDbPolyline
 90
        4
 70
     1
 43
0.0
 10
15.79999918477006
 20
565.8000003741979
 10
15.79999918477006
 20
15.80000037419791
 10
811.79999918477
 20
15.80000037419791
 10
811.79999918477
 20
565.8000003741979
  0
LWPOLYLINE
  5
76E
330
1A
100
AcDbEntity
  8
ZUWAKU
100
AcDbPolyline
 90
        4
 70
     1
 43
0.0
 10
15.39999918477008
 20
566.2000003741979
 10
15.39999918477008
 20
15.40000037419793
 10
812.1999991847701
 20
15.40000037419791
 10
812.1999991847701
 20
566.2000003741979
  0
LWPOLYLINE
  5
76F
330
1A
100
AcDbEntity
  8
ZUWAKU
100
AcDbPolyline
 90
        4
 70
     1
 43
0.0
 10
14.9999991847701
 20
566.6000003741978
 10
14.9999991847701
 20
15.00000037419784
 10
812.5999991847702
 20
15.0000003741979
 10
812.5999991847702
 20
566.6000003741979
  0
LWPOLYLINE
  5
770
330
1A
100
AcDbEntity
  8
ZUWAKU
100
AcDbPolyline
 90
        4
 70
     1
 43
0.0
 10
15.59999918477001
 20
566.0000003741979
 10
15.59999918477001
 20
15.60000037419786
 10
811.9999991847702
 20
15.60000037419791
 10
811.99999918477
 20
566.0000003741979
  0
LWPOLYLINE
  5
771
330
1A
100
AcDbEntity
  8
ZUWAKU
100
AcDbPolyline
 90
        4
 70
     1
 43
0.0
 10
15.19999918477003
 20
566.4000003741979
 10
15.19999918477003
 20
15.20000037419788
 10
812.39999918477
 20
15.20000037419791
 10
812.3999991847702
 20
566.4000003741979
  0
LINE
  5
772
330
1A
100
AcDbEntity
  8
ZUWAKU
100
AcDbLine
 10
14.9999991847701
 20
45.00000037419783
 30
0.0
 11
812.39999918477
 21
45.00000037419783
 31
0.0
  0
LINE
  5
773
330
1A
100
AcDbEntity
  8
ZUWAKU
100
AcDbLine
 10
14.9999991847701
 20
45.20000037419784
 30
0.0
 11
812.39999918477
 21
45.20000037419784
 31
0.0
  0
LINE
  5
774
330
1A
100
AcDbEntity
  8
ZUWAKU
100
AcDbLine
 10
14.9999991847701
 20
45.40000037419784
 30
0.0
 11
812.39999918477
 21
45.40000037419784
 31
0.0
  0
LINE
  5
775
330
1A
100
AcDbEntity
  8
ZUWAKU
100
AcDbLine
 10
14.9999991847701
 20
45.60000037419785
 30
0.0
 11
812.39999918477
 21
45.60000037419785
 31
0.0
  0
LINE
  5
776
330
1A
100
AcDbEntity
  8
ZUWAKU
100
AcDbLine
 10
14.9999991847701
 20
45.80000037419785
 30
0.0
 11
812.39999918477
 21
45.80000037419785
 31
0.0
  0
LINE
  5
777
330
1A
100
AcDbEntity
  8
ZUWAKU
100
AcDbLine
 10
223.6466004748381
 20
30.40000037419787
 30
0.0
 11
462.4243631557614
 21
30.40000037419787
 31
0.0
  0
LINE
  5
778
330
1A
100
AcDbEntity
  8
ZUWAKU
100
AcDbLine
 10
223.6466004748381
 20
30.60000037419787
 30
0.0
 11
462.4243631557614
 21
30.60000037419788
 31
0.0
  0
LINE
  5
779
330
1A
100
AcDbEntity
  8
ZUWAKU
100
AcDbLine
 10
223.6466004748381
 20
30.20000037419788
 30
0.0
 11
462.4243631557614
 21
30.20000037419787
 31
0.0
  0
TEXT
  5
77A
330
1A
100
AcDbEntity
  8
moji
100
AcDbText
 10
107.9577887729392
 20
27.7411785044726
 30
0.0
 40
6.0
  1
たてとい アートフェイスＹ６０Ｈ
 41
0.9
  7
ｽﾀｲﾙ1
100
AcDbText
  0
CIRCLE
  5
77B
330
1A
100
AcDbEntity
  8
ZUWAKU
100
AcDbCircle
 10
40.9922113395512
 20
30.20000037419784
 30
0.0
 40
1.75
  0
LINE
  5
77C
330
1A
100
AcDbEntity
  8
ZUWAKU
100
AcDbLine
 10
41.8672113395512
 20
22.15000037419784
 30
0.0
 11
39.94221133955125
 21
22.15000037419784
 31
0.0
  0
LINE
  5
77D
330
1A
100
AcDbEntity
  8
ZUWAKU
100
AcDbLine
 10
39.94221133955125
 20
24.95000037419784
 30
0.0
 11
41.8672113395512
 21
24.95000037419784
 31
0.0
  0
LINE
  5
77E
330
1A
100
AcDbEntity
  8
ZUWAKU
100
AcDbLine
 10
41.8672113395512
 20
35.45000037419784
 30
0.0
 11
39.94221133955125
 21
35.45000037419784
 31
0.0
  0
LINE
  5
77F
330
1A
100
AcDbEntity
  8
ZUWAKU
100
AcDbLine
 10
39.94221133955125
 20
38.2500003741978
 30
0.0
 11
41.8672113395512
 21
38.25000037419785
 31
0.0
  0
INSERT
  5
780
330
1A
100
AcDbEntity
  8
ZUWAKU
  6
Continuous
100
AcDbBlockReference
  2
*X1
 10
0.0
 20
0.0
 30
0.0
1001
ACAD
1000
HATCH
1002
{
1070
    19
1000
ANSI37
1040
0.2
1040
0.0
1000
R14_HATCH_DATA
1000
780
1011
1.0
1021
0.0
1031
0.0
1011
0.0
1021
1.0
1031
0.0
1011
0.0
1021
0.0
1031
1.0
1040
0.0
1010
0.0
1020
0.0
1030
1.0
1000
ANSI37
1070
     0
1070
     0
1071
        8
1071
        7
1070
     1
1070
     1
1071
       24
1040
29.50226184588996
1040
32.64484885518142
1040
-0.1989123673796348
1040
29.09221133955123
1040
33.63479834884247
1040
0.0
1040
29.09221133955123
1040
34.92500037419785
1040
-0.4142135623730912
1040
29.61721133955121
1040
35.45000037419784
1040
0.0
1040
32.59221133955112
1040
35.45000037419784
1040
0.4142135623731546
1040
33.11721133955121
1040
35.97500037419783
1040
0.0
1040
33.11721133955121
1040
37.72500037419785
1040
0.4142135623731586
1040
32.59221133955112
1040
38.25000037419785
1040
0.0
1040
29.09221133955123
1040
38.25000037419785
1040
0.4142135623730928
1040
26.29221133955127
1040
35.45000037419787
1040
0.0
1040
26.29221133955127
1040
33.6347983488426
1040
0.1989123673796619
1040
27.52236285856771
1040
30.664949867859
1040
0.0
1040
30.43216083321238
1040
27.75515189321434
1040
-0.1989123673796613
1040
30.84221133955123
1040
26.76520239955315
1040
0.0
1040
30.84221133955123
1040
25.47500037419784
1040
-0.4142135623730911
1040
30.31721133955125
1040
24.95000037419784
1040
0.0
1040
27.34221133955134
1040
24.95000037419784
1040
0.4142135623731526
1040
26.81721133955125
1040
24.42500037419785
1040
0.0
1040
26.81721133955125
1040
22.67500037419783
1040
0.4142135623731526
1040
27.34221133955134
1040
22.15000037419784
1040
0.0
1040
30.84221133955123
1040
22.15000037419784
1040
0.4142135623731044
1040
33.6422113395513
1040
24.95000037419782
1040
0.0
1040
33.6422113395513
1040
26.76520239955309
1040
0.1989123673796604
1040
32.41205982053475
1040
29.73505088053663
1040
0.0
1071
        0
1071
        7
1070
     1
1070
     1
1071
       16
1040
38.54221133955127
1040
34.05000037419785
1040
-0.4142135623730935
1040
39.94221133955125
1040
35.45000037419784
1040
0.0
1040
41.8672113395512
1040
35.45000037419784
1040
0.4142135623731546
1040
42.39221133955129
1040
35.97500037419783
1040
0.0
1040
42.39221133955129
1040
37.72500037419785
1040
0.4142135623730951
1040
41.86721133955131
1040
38.25000037419785
1040
0.0
1040
39.94221133955114
1040
38.2500003741978
1040
0.4142135623730892
1040
35.7422113395512
1040
34.05000037419778
1040
0.0
1040
35.7422113395512
1040
26.35000037419787
1040
0.4142135623730969
1040
39.94221133955125
1040
22.15000037419784
1040
0.0
1040
41.8672113395512
1040
22.15000037419784
1040
0.4142135623731526
1040
42.39221133955129
1040
22.67500037419783
1040
0.0
1040
42.39221133955129
1040
24.42500037419785
1040
0.4142135623730891
1040
41.86721133955131
1040
24.95000037419784
1040
0.0
1040
39.94221133955125
1040
24.95000037419784
1040
-0.4142135623730928
1040
38.54221133955127
1040
26.35000037419783
1040
0.0
1071
        0
1071
        7
1070
     1
1070
     1
1071
        2
1040
39.2422113395512
1040
30.20000037419784
1040
1.0
1040
42.7422113395512
1040
30.20000037419784
1040
1.0
1071
        0
1071
        7
1070
     1
1070
     1
1071
       26
1040
52.31485782172922
1040
34.20504756776127
1040
0.0
1040
53.37649745486704
1040
37.56690640603086
1040
0.5069206636600134
1040
52.87586655567167
1040
38.25000037419785
1040
0.0
1040
51.17697717606245
1040
38.25000037419785
1040
0.3272098845218764
1040
50.67634627686709
1040
37.88309434236481
1040
0.0
1040
48.80807640223531
1040
31.96690640603093
1040
-0.3272098845219541
1040
48.30744550303984
1040
31.60000037419784
1040
0.0
1040
48.16721133955138
1040
31.60000037419784
1040
-0.4142135623731526
1040
47.64221133955129
1040
32.12500037419783
1040
0.0
1040
47.64221133955129
1040
37.72500037419785
1040
0.4142135623730951
1040
47.11721133955132
1040
38.25000037419785
1040
0.0
1040
45.3672113395512
1040
38.25000037419785
1040
0.4142135623730871
1040
44.84221133955123
1040
37.72500037419786
1040
0.0
1040
44.84221133955123
1040
22.67500037419783
1040
0.4142135623730891
1040
45.3672113395512
1040
22.15000037419784
1040
0.0
1040
47.1172113395512
1040
22.15000037419784
1040
0.4142135623731526
1040
47.64221133955129
1040
22.67500037419783
1040
0.0
1040
47.64221133955129
1040
28.27500037419786
1040
-0.4142135623731526
1040
48.16721133955138
1040
28.80000037419785
1040
0.0
1040
48.30744550303996
1040
28.80000037419785
1040
-0.3272098845218915
1040
48.80807640223531
1040
28.43309434236477
1040
0.0
1040
50.67634627686709
1040
22.51690640603092
1040
0.3272098845218902
1040
51.17697717606245
1040
22.15000037419784
1040
0.0
1040
52.87586655567167
1040
22.15000037419784
1040
0.5069206636600335
1040
53.37649745486704
1040
22.83309434236485
1040
0.0
1040
51.05010607639338
1040
30.20000037419798
1040
0.0
1071
        0
1071
        7
1070
     1
1070
     1
1071
        8
1040
58.4922113395512
1040
37.72500037419785
1040
0.4142135623731546
1040
57.96721133955111
1040
38.25000037419785
1040
0.0
1040
56.21721133955134
1040
38.25000037419785
1040
0.4142135623731507
1040
55.69221133955124
1040
37.72500037419786
1040
0.0
1040
55.69221133955124
1040
22.67500037419783
1040
0.4142135623731526
1040
56.21721133955134
1040
22.15000037419784
1040
0.0
1040
57.96721133955111
1040
22.15000037419784
1040
0.4142135623731526
1040
58.4922113395512
1040
22.67500037419783
1040
0.0
1071
        0
1071
        7
1070
     1
1070
     1
1071
       24
1040
63.39221133955129
1040
34.92500037419785
1040
-0.4142135623731546
1040
63.91721133955138
1040
35.45000037419784
1040
0.0
1040
66.89221133955129
1040
35.45000037419784
1040
0.4142135623730911
1040
67.41721133955127
1040
35.97500037419783
1040
0.0
1040
67.41721133955127
1040
37.72500037419785
1040
0.4142135623730952
1040
66.89221133955129
1040
38.25000037419785
1040
0.0
1040
63.39221133955129
1040
38.25000037419785
1040
0.4142135623731048
1040
60.59221133955123
1040
35.45000037419787
1040
0.0
1040
60.59221133955123
1040
33.6347983488426
1040
0.1989123673796613
1040
61.82236285856777
1040
30.66494986785905
1040
0.0
1040
64.73216083321244
1040
27.75515189321438
1040
-0.1989123673796402
1040
65.14221133955129
1040
26.76520239955331
1040
0.0
1040
65.14221133955129
1040
25.47500037419784
1040
-0.4142135623730911
1040
64.61721133955132
1040
24.95000037419784
1040
0.0
1040
61.6422113395513
1040
24.95000037419784
1040
0.4142135623731526
1040
61.1172113395512
1040
24.42500037419785
1040
0.0
1040
61.1172113395512
1040
22.67500037419783
1040
0.4142135623730891
1040
61.64221133955118
1040
22.15000037419784
1040
0.0
1040
65.14221133955129
1040
22.15000037419784
1040
0.4142135623730925
1040
67.94221133955125
1040
24.95000037419782
1040
0.0
1040
67.94221133955125
1040
26.76520239955309
1040
0.1989123673796675
1040
66.71205982053471
1040
29.73505088053675
1040
0.0
1040
63.80226184589014
1040
32.64484885518127
1040
-0.1989123673796652
1040
63.39221133955129
1040
33.63479834884243
1040
0.0
1071
        0
1071
        7
1070
     1
1070
     1
1071
       16
1040
72.84221133955123
1040
37.72500037419784
1040
0.414213562373103
1040
72.31721133955125
1040
38.25000037419785
1040
0.0
1040
70.56721133955125
1040
38.25000037419785
1040
0.4142135623730871
1040
70.04221133955127
1040
37.72500037419786
1040
0.0
1040
70.04221133955127
1040
24.95000037419782
1040
0.4142135623730926
1040
72.84221133955123
1040
22.15000037419784
1040
0.0
1040
76.34221133955122
1040
22.15000037419784
1040
0.4142135623731044
1040
79.1422113395513
1040
24.95000037419782
1040
0.0
1040
79.1422113395513
1040
37.72500037419785
1040
0.4142135623730951
1040
78.61721133955132
1040
38.25000037419785
1040
0.0
1040
76.86721133955121
1040
38.25000037419785
1040
0.4142135623730871
1040
76.34221133955122
1040
37.72500037419786
1040
0.0
1040
76.34221133955122
1040
26.00000037419782
1040
-0.414213562373088
1040
75.29221133955127
1040
24.95000037419784
1040
0.0
1040
73.89221133955129
1040
24.95000037419784
1040
-0.4142135623731197
1040
72.84221133955123
1040
26.00000037419782
1040
0.0
1071
        0
1071
        7
1070
     1
1070
     1
1071
        8
1040
84.04221133955127
1040
37.72500037419786
1040
0.4142135623730871
1040
83.51721133955129
1040
38.25000037419785
1040
0.0
1040
81.7672113395513
1040
38.25000037419785
1040
0.4142135623731507
1040
81.24221133955121
1040
37.72500037419786
1040
0.0
1040
81.24221133955121
1040
22.67500037419783
1040
0.4142135623730891
1040
81.76721133955117
1040
22.15000037419784
1040
0.0
1040
83.51721133955129
1040
22.15000037419784
1040
0.4142135623730891
1040
84.04221133955127
1040
22.67500037419783
1040
0.0
1071
        0
1070
     0
1070
     1
1040
0.0
1040
0.2
1070
     0
1070
     2
1040
0.7853981633974483
1040
-885.9423051499089
1040
1.800000374197907
1040
-0.4490128060534576
1040
0.4490128060534577
1070
     0
1040
2.356194490192344
1040
-885.9423051499089
1040
1.800000374197907
1040
-0.4490128060534577
1040
-0.4490128060534576
1070
     0
1040
0.057451373970553
1071
        8
1040
31.07985414779341
1040
30.16717402008339
1040
0.0
1040
37.40451419120927
1040
33.84406255664885
1040
0.0
1040
40.16436707042976
1040
30.51188202026856
1040
0.0
1040
45.91405916640724
1040
31.20129802063934
1040
0.0
1040
56.83847120372684
1040
31.66091028818096
1040
0.0
1040
61.89820007989965
1040
34.41857669060505
1040
0.0
1040
71.55768515717046
1040
33.72915828929285
1040
0.0
1040
82.82707880439284
1040
34.18877055683447
1040
0.0
1002
}
  0
ARC
  5
781
330
1A
100
AcDbEntity
  8
ZUWAKU
100
AcDbCircle
 10
30.4922113395512
 20
33.63479834884254
 30
0.0
 40
4.199999999999999
100
AcDbArc
 50
180.0
 51
225.0
  0
LINE
  5
782
330
1A
100
AcDbEntity
  8
ZUWAKU
100
AcDbLine
 10
35.7422113395512
 20
26.35000037419785
 30
0.0
 11
35.7422113395512
 21
34.0500003741978
 31
0.0
  0
LINE
  5
783
330
1A
100
AcDbEntity
  8
ZUWAKU
100
AcDbLine
 10
38.54221133955127
 20
34.05000037419784
 30
0.0
 11
38.54221133955127
 21
26.35000037419785
 31
0.0
  0
ARC
  5
784
330
1A
100
AcDbEntity
  8
ZUWAKU
100
AcDbCircle
 10
30.4922113395512
 20
33.63479834884254
 30
0.0
 40
1.399999999999999
100
AcDbArc
 50
180.0000000000016
 51
224.9999999999988
  0
ARC
  5
785
330
1A
100
AcDbEntity
  8
ZUWAKU
100
AcDbCircle
 10
39.94221133955125
 20
26.35000037419785
 30
0.0
 40
4.199999999999999
100
AcDbArc
 50
180.0
 51
270.0
  0
ARC
  5
786
330
1A
100
AcDbEntity
  8
ZUWAKU
100
AcDbCircle
 10
30.84221133955123
 20
24.95000037419784
 30
0.0
 40
2.799999999999999
100
AcDbArc
 50
270.0
 51
0.0
  0
ARC
  5
787
330
1A
100
AcDbEntity
  8
ZUWAKU
100
AcDbCircle
 10
29.44221133955125
 20
26.76520239955315
 30
0.0
 40
4.199999999999999
100
AcDbArc
 50
0.0
 51
45.0
  0
LINE
  5
788
330
1A
100
AcDbEntity
  8
ZUWAKU
100
AcDbLine
 10
27.52236285856771
 20
30.66494986785902
 30
0.0
 11
30.43216083321238
 21
27.75515189321436
 31
0.0
  0
LINE
  5
789
330
1A
100
AcDbEntity
  8
ZUWAKU
100
AcDbLine
 10
27.34221133955123
 20
24.95000037419784
 30
0.0
 11
30.31721133955125
 21
24.95000037419784
 31
0.0
  0
LINE
  5
78A
330
1A
100
AcDbEntity
  8
ZUWAKU
100
AcDbLine
 10
27.34221133955123
 20
22.15000037419784
 30
0.0
 11
30.84221133955123
 21
22.15000037419784
 31
0.0
  0
ARC
  5
78B
330
1A
100
AcDbEntity
  8
ZUWAKU
100
AcDbCircle
 10
27.34221133955123
 20
24.42500037419784
 30
0.0
 40
0.525
100
AcDbArc
 50
90.0
 51
180.0
  0
ARC
  5
78C
330
1A
100
AcDbEntity
  8
ZUWAKU
100
AcDbCircle
 10
27.34221133955123
 20
22.67500037419784
 30
0.0
 40
0.525
100
AcDbArc
 50
180.0
 51
270.0
  0
LINE
  5
78D
330
1A
100
AcDbEntity
  8
ZUWAKU
100
AcDbLine
 10
26.81721133955125
 20
22.67500037419784
 30
0.0
 11
26.81721133955125
 21
24.42500037419784
 31
0.0
  0
ARC
  5
78E
330
1A
100
AcDbEntity
  8
ZUWAKU
100
AcDbCircle
 10
29.44221133955125
 20
26.76520239955319
 30
0.0
 40
1.399999999999999
100
AcDbArc
 50
0.0
 51
45.0
  0
ARC
  5
78F
330
1A
100
AcDbEntity
  8
ZUWAKU
100
AcDbCircle
 10
30.31721133955125
 20
25.47500037419785
 30
0.0
 40
0.525
100
AcDbArc
 50
270.0
 51
0.0
  0
LINE
  5
790
330
1A
100
AcDbEntity
  8
ZUWAKU
100
AcDbLine
 10
30.84221133955123
 20
25.47500037419785
 30
0.0
 11
30.84221133955123
 21
26.76520239955319
 31
0.0
  0
LINE
  5
791
330
1A
100
AcDbEntity
  8
ZUWAKU
100
AcDbLine
 10
32.41205982053475
 20
29.73505088053667
 30
0.0
 11
29.50226184589008
 21
32.64484885518135
 31
0.0
  0
ARC
  5
792
330
1A
100
AcDbEntity
  8
ZUWAKU
100
AcDbCircle
 10
39.94221133955125
 20
26.35000037419785
 30
0.0
 40
1.399999999999999
100
AcDbArc
 50
180.0
 51
270.0
  0
LINE
  5
793
330
1A
100
AcDbEntity
  8
ZUWAKU
100
AcDbLine
 10
33.6422113395513
 20
24.95000037419784
 30
0.0
 11
33.6422113395513
 21
26.76520239955319
 31
0.0
  0
ARC
  5
794
330
1A
100
AcDbEntity
  8
ZUWAKU
100
AcDbCircle
 10
32.59221133955123
 20
35.97500037419784
 30
0.0
 40
0.525
100
AcDbArc
 50
270.0
 51
0.0
  0
ARC
  5
795
330
1A
100
AcDbEntity
  8
ZUWAKU
100
AcDbCircle
 10
32.59221133955123
 20
37.72500037419784
 30
0.0
 40
0.525
100
AcDbArc
 50
0.0
 51
90.0
  0
ARC
  5
796
330
1A
100
AcDbEntity
  8
ZUWAKU
100
AcDbCircle
 10
29.09221133955123
 20
35.45000037419784
 30
0.0
 40
2.799999999999999
100
AcDbArc
 50
90.0
 51
180.0
  0
LINE
  5
797
330
1A
100
AcDbEntity
  8
ZUWAKU
100
AcDbLine
 10
26.29221133955127
 20
35.45000037419784
 30
0.0
 11
26.29221133955127
 21
33.6347983488425
 31
0.0
  0
LINE
  5
798
330
1A
100
AcDbEntity
  8
ZUWAKU
100
AcDbLine
 10
32.59221133955123
 20
35.45000037419784
 30
0.0
 11
29.61721133955121
 21
35.45000037419784
 31
0.0
  0
LINE
  5
799
330
1A
100
AcDbEntity
  8
ZUWAKU
100
AcDbLine
 10
29.09221133955123
 20
34.92500037419784
 30
0.0
 11
29.09221133955123
 21
33.6347983488425
 31
0.0
  0
ARC
  5
79A
330
1A
100
AcDbEntity
  8
ZUWAKU
100
AcDbCircle
 10
29.61721133955121
 20
34.92500037419784
 30
0.0
 40
0.525
100
AcDbArc
 50
90.0
 51
180.0
  0
LINE
  5
79B
330
1A
100
AcDbEntity
  8
ZUWAKU
100
AcDbLine
 10
29.09221133955123
 20
38.25000037419785
 30
0.0
 11
32.59221133955123
 21
38.25000037419785
 31
0.0
  0
ARC
  5
79C
330
1A
100
AcDbEntity
  8
ZUWAKU
100
AcDbCircle
 10
39.94221133955125
 20
34.0500003741978
 30
0.0
 40
4.199999999999999
100
AcDbArc
 50
90.0
 51
180.0
  0
ARC
  5
79D
330
1A
100
AcDbEntity
  8
ZUWAKU
100
AcDbCircle
 10
39.94221133955125
 20
34.05000037419784
 30
0.0
 40
1.399999999999999
100
AcDbArc
 50
90.0
 51
180.0
  0
LINE
  5
79E
330
1A
100
AcDbEntity
  8
ZUWAKU
100
AcDbLine
 10
33.11721133955121
 20
37.72500037419784
 30
0.0
 11
33.11721133955121
 21
35.97500037419784
 31
0.0
  0
LINE
  5
79F
330
1A
100
AcDbEntity
  8
ZUWAKU
100
AcDbLine
 10
50.67634627686709
 20
37.88309434236481
 30
0.0
 11
48.80807640223531
 21
31.96690640603087
 31
0.0
  0
LINE
  5
7A0
330
1A
100
AcDbEntity
  8
ZUWAKU
100
AcDbLine
 10
44.84221133955123
 20
37.72500037419784
 30
0.0
 11
44.84221133955123
 21
22.67500037419784
 31
0.0
  0
LINE
  5
7A1
330
1A
100
AcDbEntity
  8
ZUWAKU
100
AcDbLine
 10
47.64221133955129
 20
32.12500037419785
 30
0.0
 11
47.64221133955129
 21
37.72500037419784
 31
0.0
  0
LINE
  5
7A2
330
1A
100
AcDbEntity
  8
ZUWAKU
100
AcDbLine
 10
72.84221133955123
 20
26.00000037419784
 30
0.0
 11
72.84221133955123
 21
37.72500037419784
 31
0.0
  0
LINE
  5
7A3
330
1A
100
AcDbEntity
  8
ZUWAKU
100
AcDbLine
 10
70.04221133955127
 20
37.72500037419784
 30
0.0
 11
70.04221133955127
 21
24.95000037419784
 31
0.0
  0
LINE
  5
7A4
330
1A
100
AcDbEntity
  8
ZUWAKU
100
AcDbLine
 10
58.4922113395512
 20
22.67500037419784
 30
0.0
 11
58.4922113395512
 21
37.72500037419784
 31
0.0
  0
LINE
  5
7A5
330
1A
100
AcDbEntity
  8
ZUWAKU
100
AcDbLine
 10
55.69221133955124
 20
37.72500037419784
 30
0.0
 11
55.69221133955124
 21
22.67500037419784
 31
0.0
  0
LINE
  5
7A6
330
1A
100
AcDbEntity
  8
ZUWAKU
100
AcDbLine
 10
52.31485782172922
 20
34.20504756776127
 30
0.0
 11
51.05010607639338
 21
30.20000037419786
 31
0.0
  0
ARC
  5
7A7
330
1A
100
AcDbEntity
  8
ZUWAKU
100
AcDbCircle
 10
64.79221133955127
 20
33.63479834884254
 30
0.0
 40
4.199999999999999
100
AcDbArc
 50
180.0
 51
225.0
  0
ARC
  5
7A8
330
1A
100
AcDbEntity
  8
ZUWAKU
100
AcDbCircle
 10
64.79221133955127
 20
33.63479834884254
 30
0.0
 40
1.399999999999999
100
AcDbArc
 50
180.0000000000016
 51
224.9999999999988
  0
LINE
  5
7A9
330
1A
100
AcDbEntity
  8
ZUWAKU
100
AcDbLine
 10
81.24221133955121
 20
37.72500037419784
 30
0.0
 11
81.24221133955121
 21
22.67500037419784
 31
0.0
  0
LINE
  5
7AA
330
1A
100
AcDbEntity
  8
ZUWAKU
100
AcDbLine
 10
84.04221133955127
 20
22.67500037419784
 30
0.0
 11
84.04221133955127
 21
37.72500037419784
 31
0.0
  0
LINE
  5
7AB
330
1A
100
AcDbEntity
  8
ZUWAKU
100
AcDbLine
 10
76.34221133955122
 20
37.72500037419784
 30
0.0
 11
76.34221133955122
 21
26.00000037419784
 31
0.0
  0
LINE
  5
7AC
330
1A
100
AcDbEntity
  8
ZUWAKU
100
AcDbLine
 10
79.1422113395513
 20
24.95000037419784
 30
0.0
 11
79.1422113395513
 21
37.72500037419784
 31
0.0
  0
LINE
  5
7AD
330
1A
100
AcDbEntity
  8
ZUWAKU
100
AcDbLine
 10
94.12662873275849
 20
45.00000037419783
 30
0.0
 11
94.12662873275849
 21
15.80000037419791
 31
0.0
  0
LINE
  5
7AE
330
1A
100
AcDbEntity
  8
ZUWAKU
100
AcDbLine
 10
94.52662873275835
 20
45.00000037419783
 30
0.0
 11
94.52662873275858
 21
15.80000037419791
 31
0.0
  0
LINE
  5
7AF
330
1A
100
AcDbEntity
  8
ZUWAKU
100
AcDbLine
 10
94.3266287327583
 20
45.00000037419783
 30
0.0
 11
94.32662873275853
 21
15.80000037419791
 31
0.0
  0
LINE
  5
7B0
330
1A
100
AcDbEntity
  8
ZUWAKU
100
AcDbLine
 10
72.84221133955123
 20
22.15000037419784
 30
0.0
 11
76.34221133955122
 21
22.15000037419784
 31
0.0
  0
LINE
  5
7B1
330
1A
100
AcDbEntity
  8
ZUWAKU
100
AcDbLine
 10
75.29221133955127
 20
24.95000037419784
 30
0.0
 11
73.89221133955129
 21
24.95000037419784
 31
0.0
  0
LINE
  5
7B2
330
1A
100
AcDbEntity
  8
ZUWAKU
100
AcDbLine
 10
56.21721133955123
 20
22.15000037419784
 30
0.0
 11
57.96721133955123
 21
22.15000037419784
 31
0.0
  0
LINE
  5
7B3
330
1A
100
AcDbEntity
  8
ZUWAKU
100
AcDbLine
 10
50.67634627686709
 20
22.51690640603087
 30
0.0
 11
48.80807640223531
 21
28.43309434236481
 31
0.0
  0
ARC
  5
7B4
330
1A
100
AcDbEntity
  8
ZUWAKU
100
AcDbCircle
 10
48.16721133955127
 20
28.27500037419785
 30
0.0
 40
0.525
100
AcDbArc
 50
90.0
 51
180.0
  0
ARC
  5
7B5
330
1A
100
AcDbEntity
  8
ZUWAKU
100
AcDbCircle
 10
48.30744550303996
 20
28.27500037419785
 30
0.0
 40
0.525
100
AcDbArc
 50
17.52556837372303
 51
90.0
  0
ARC
  5
7B6
330
1A
100
AcDbEntity
  8
ZUWAKU
100
AcDbCircle
 10
45.3672113395512
 20
22.67500037419784
 30
0.0
 40
0.525
100
AcDbArc
 50
180.0
 51
270.0
  0
ARC
  5
7B7
330
1A
100
AcDbEntity
  8
ZUWAKU
100
AcDbCircle
 10
41.8672113395512
 20
24.42500037419784
 30
0.0
 40
0.525
100
AcDbArc
 50
0.0
 51
90.0
  0
ARC
  5
7B8
330
1A
100
AcDbEntity
  8
ZUWAKU
100
AcDbCircle
 10
41.8672113395512
 20
22.67500037419784
 30
0.0
 40
0.525
100
AcDbArc
 50
270.0
 51
0.0
  0
LINE
  5
7B9
330
1A
100
AcDbEntity
  8
ZUWAKU
100
AcDbLine
 10
42.39221133955129
 20
24.42500037419784
 30
0.0
 11
42.39221133955129
 21
22.67500037419784
 31
0.0
  0
LINE
  5
7BA
330
1A
100
AcDbEntity
  8
ZUWAKU
100
AcDbLine
 10
47.64221133955129
 20
22.67500037419784
 30
0.0
 11
47.64221133955129
 21
28.27500037419785
 31
0.0
  0
ARC
  5
7BB
330
1A
100
AcDbEntity
  8
ZUWAKU
100
AcDbCircle
 10
47.1172113395512
 20
22.67500037419784
 30
0.0
 40
0.525
100
AcDbArc
 50
270.0
 51
0.0
  0
LINE
  5
7BC
330
1A
100
AcDbEntity
  8
ZUWAKU
100
AcDbLine
 10
45.3672113395512
 20
22.15000037419784
 30
0.0
 11
47.1172113395512
 21
22.15000037419784
 31
0.0
  0
ARC
  5
7BD
330
1A
100
AcDbEntity
  8
ZUWAKU
100
AcDbCircle
 10
48.16721133955127
 20
32.12500037419785
 30
0.0
 40
0.525
100
AcDbArc
 50
180.0
 51
270.0
  0
LINE
  5
7BE
330
1A
100
AcDbEntity
  8
ZUWAKU
100
AcDbLine
 10
48.16721133955127
 20
28.80000037419785
 30
0.0
 11
48.30744550303996
 21
28.80000037419785
 31
0.0
  0
LINE
  5
7BF
330
1A
100
AcDbEntity
  8
ZUWAKU
100
AcDbLine
 10
48.30744550303996
 20
31.60000037419784
 30
0.0
 11
48.16721133955127
 21
31.60000037419784
 31
0.0
  0
ARC
  5
7C0
330
1A
100
AcDbEntity
  8
ZUWAKU
100
AcDbCircle
 10
48.30744550303996
 20
32.12500037419785
 30
0.0
 40
0.525
100
AcDbArc
 50
270.0
 51
342.474431626277
  0
ARC
  5
7C1
330
1A
100
AcDbEntity
  8
ZUWAKU
100
AcDbCircle
 10
51.17697717606256
 20
22.67500037419784
 30
0.0
 40
0.525
100
AcDbArc
 50
197.525568373723
 51
270.0
  0
LINE
  5
7C2
330
1A
100
AcDbEntity
  8
ZUWAKU
100
AcDbLine
 10
53.37649745486704
 20
22.83309434236482
 30
0.0
 11
51.05010607639338
 21
30.20000037419786
 31
0.0
  0
ARC
  5
7C3
330
1A
100
AcDbEntity
  8
ZUWAKU
100
AcDbCircle
 10
52.87586655567157
 20
22.67500037419784
 30
0.0
 40
0.525
100
AcDbArc
 50
270.0
 51
17.52556837372303
  0
LINE
  5
7C4
330
1A
100
AcDbEntity
  8
ZUWAKU
100
AcDbLine
 10
51.17697717606256
 20
22.15000037419784
 30
0.0
 11
52.87586655567157
 21
22.15000037419784
 31
0.0
  0
ARC
  5
7C5
330
1A
100
AcDbEntity
  8
ZUWAKU
100
AcDbCircle
 10
56.21721133955123
 20
22.67500037419784
 30
0.0
 40
0.525
100
AcDbArc
 50
180.0
 51
270.0
  0
ARC
  5
7C6
330
1A
100
AcDbEntity
  8
ZUWAKU
100
AcDbCircle
 10
65.14221133955129
 20
24.95000037419784
 30
0.0
 40
2.799999999999999
100
AcDbArc
 50
270.0
 51
0.0
  0
ARC
  5
7C7
330
1A
100
AcDbEntity
  8
ZUWAKU
100
AcDbCircle
 10
72.84221133955123
 20
24.95000037419784
 30
0.0
 40
2.799999999999999
100
AcDbArc
 50
180.0
 51
270.0
  0
LINE
  5
7C8
330
1A
100
AcDbEntity
  8
ZUWAKU
100
AcDbLine
 10
66.71205982053482
 20
29.73505088053667
 30
0.0
 11
63.80226184589003
 21
32.64484885518135
 31
0.0
  0
LINE
  5
7C9
330
1A
100
AcDbEntity
  8
ZUWAKU
100
AcDbLine
 10
61.82236285856777
 20
30.66494986785902
 30
0.0
 11
64.73216083321244
 21
27.75515189321436
 31
0.0
  0
LINE
  5
7CA
330
1A
100
AcDbEntity
  8
ZUWAKU
100
AcDbLine
 10
61.6422113395513
 20
22.15000037419784
 30
0.0
 11
65.14221133955129
 21
22.15000037419784
 31
0.0
  0
LINE
  5
7CB
330
1A
100
AcDbEntity
  8
ZUWAKU
100
AcDbLine
 10
61.6422113395513
 20
24.95000037419784
 30
0.0
 11
64.6172113395512
 21
24.95000037419784
 31
0.0
  0
ARC
  5
7CC
330
1A
100
AcDbEntity
  8
ZUWAKU
100
AcDbCircle
 10
61.6422113395513
 20
24.42500037419784
 30
0.0
 40
0.525
100
AcDbArc
 50
90.0
 51
180.0
  0
ARC
  5
7CD
330
1A
100
AcDbEntity
  8
ZUWAKU
100
AcDbCircle
 10
57.96721133955123
 20
22.67500037419784
 30
0.0
 40
0.525
100
AcDbArc
 50
270.0
 51
0.0
  0
ARC
  5
7CE
330
1A
100
AcDbEntity
  8
ZUWAKU
100
AcDbCircle
 10
61.6422113395513
 20
22.67500037419784
 30
0.0
 40
0.525
100
AcDbArc
 50
180.0
 51
270.0
  0
LINE
  5
7CF
330
1A
100
AcDbEntity
  8
ZUWAKU
100
AcDbLine
 10
61.1172113395512
 20
22.67500037419784
 30
0.0
 11
61.1172113395512
 21
24.42500037419784
 31
0.0
  0
ARC
  5
7D0
330
1A
100
AcDbEntity
  8
ZUWAKU
100
AcDbCircle
 10
64.6172113395512
 20
25.47500037419785
 30
0.0
 40
0.525
100
AcDbArc
 50
270.0
 51
0.0
  0
ARC
  5
7D1
330
1A
100
AcDbEntity
  8
ZUWAKU
100
AcDbCircle
 10
63.74221133955121
 20
26.76520239955319
 30
0.0
 40
1.399999999999999
100
AcDbArc
 50
0.0
 51
45.0
  0
LINE
  5
7D2
330
1A
100
AcDbEntity
  8
ZUWAKU
100
AcDbLine
 10
65.14221133955129
 20
25.47500037419785
 30
0.0
 11
65.14221133955129
 21
26.76520239955319
 31
0.0
  0
ARC
  5
7D3
330
1A
100
AcDbEntity
  8
ZUWAKU
100
AcDbCircle
 10
73.89221133955129
 20
26.00000037419784
 30
0.0
 40
1.049999999999999
100
AcDbArc
 50
180.0
 51
270.0
  0
ARC
  5
7D4
330
1A
100
AcDbEntity
  8
ZUWAKU
100
AcDbCircle
 10
63.74221133955121
 20
26.76520239955315
 30
0.0
 40
4.199999999999999
100
AcDbArc
 50
0.0
 51
45.0
  0
LINE
  5
7D5
330
1A
100
AcDbEntity
  8
ZUWAKU
100
AcDbLine
 10
67.94221133955125
 20
24.95000037419784
 30
0.0
 11
67.94221133955125
 21
26.76520239955319
 31
0.0
  0
ARC
  5
7D6
330
1A
100
AcDbEntity
  8
ZUWAKU
100
AcDbCircle
 10
76.34221133955122
 20
24.95000037419784
 30
0.0
 40
2.799999999999999
100
AcDbArc
 50
270.0
 51
0.0
  0
LINE
  5
7D7
330
1A
100
AcDbEntity
  8
ZUWAKU
100
AcDbLine
 10
81.7672113395513
 20
22.15000037419784
 30
0.0
 11
83.51721133955129
 21
22.15000037419784
 31
0.0
  0
ARC
  5
7D8
330
1A
100
AcDbEntity
  8
ZUWAKU
100
AcDbCircle
 10
75.29221133955127
 20
26.00000037419784
 30
0.0
 40
1.049999999999999
100
AcDbArc
 50
270.0
 51
0.0
  0
ARC
  5
7D9
330
1A
100
AcDbEntity
  8
ZUWAKU
100
AcDbCircle
 10
81.7672113395513
 20
22.67500037419784
 30
0.0
 40
0.525
100
AcDbArc
 50
180.0
 51
270.0
  0
ARC
  5
7DA
330
1A
100
AcDbEntity
  8
ZUWAKU
100
AcDbCircle
 10
83.51721133955129
 20
22.67500037419784
 30
0.0
 40
0.525
100
AcDbArc
 50
270.0
 51
0.0
  0
LINE
  5
7DB
330
1A
100
AcDbEntity
  8
ZUWAKU
100
AcDbLine
 10
57.96721133955123
 20
38.25000037419785
 30
0.0
 11
56.21721133955123
 21
38.25000037419785
 31
0.0
  0
LINE
  5
7DC
330
1A
100
AcDbEntity
  8
ZUWAKU
100
AcDbLine
 10
42.39221133955129
 20
37.72500037419784
 30
0.0
 11
42.39221133955129
 21
35.97500037419784
 31
0.0
  0
ARC
  5
7DD
330
1A
100
AcDbEntity
  8
ZUWAKU
100
AcDbCircle
 10
41.8672113395512
 20
35.97500037419784
 30
0.0
 40
0.525
100
AcDbArc
 50
270.0
 51
0.0
  0
ARC
  5
7DE
330
1A
100
AcDbEntity
  8
ZUWAKU
100
AcDbCircle
 10
45.3672113395512
 20
37.72500037419784
 30
0.0
 40
0.525
100
AcDbArc
 50
90.0
 51
180.0
  0
ARC
  5
7DF
330
1A
100
AcDbEntity
  8
ZUWAKU
100
AcDbCircle
 10
41.8672113395512
 20
37.72500037419784
 30
0.0
 40
0.525
100
AcDbArc
 50
0.0
 51
90.0
  0
LINE
  5
7E0
330
1A
100
AcDbEntity
  8
ZUWAKU
100
AcDbLine
 10
47.1172113395512
 20
38.25000037419785
 30
0.0
 11
45.3672113395512
 21
38.25000037419785
 31
0.0
  0
ARC
  5
7E1
330
1A
100
AcDbEntity
  8
ZUWAKU
100
AcDbCircle
 10
47.1172113395512
 20
37.72500037419784
 30
0.0
 40
0.525
100
AcDbArc
 50
0.0
 51
90.0
  0
ARC
  5
7E2
330
1A
100
AcDbEntity
  8
ZUWAKU
100
AcDbCircle
 10
51.17697717606256
 20
37.72500037419784
 30
0.0
 40
0.525
100
AcDbArc
 50
90.0
 51
162.474431626277
  0
LINE
  5
7E3
330
1A
100
AcDbEntity
  8
ZUWAKU
100
AcDbLine
 10
53.37649745486704
 20
37.56690640603088
 30
0.0
 11
52.31485782172922
 21
34.20504756776127
 31
0.0
  0
ARC
  5
7E4
330
1A
100
AcDbEntity
  8
ZUWAKU
100
AcDbCircle
 10
52.87586655567157
 20
37.72500037419784
 30
0.0
 40
0.525
100
AcDbArc
 50
342.474431626277
 51
90.0
  0
LINE
  5
7E5
330
1A
100
AcDbEntity
  8
ZUWAKU
100
AcDbLine
 10
51.17697717606256
 20
38.25000037419785
 30
0.0
 11
52.87586655567157
 21
38.25000037419785
 31
0.0
  0
ARC
  5
7E6
330
1A
100
AcDbEntity
  8
ZUWAKU
100
AcDbCircle
 10
56.21721133955123
 20
37.72500037419784
 30
0.0
 40
0.525
100
AcDbArc
 50
90.0
 51
180.0
  0
LINE
  5
7E7
330
1A
100
AcDbEntity
  8
ZUWAKU
100
AcDbLine
 10
66.89221133955129
 20
35.45000037419784
 30
0.0
 11
63.91721133955127
 21
35.45000037419784
 31
0.0
  0
LINE
  5
7E8
330
1A
100
AcDbEntity
  8
ZUWAKU
100
AcDbLine
 10
63.39221133955129
 20
38.25000037419785
 30
0.0
 11
66.89221133955129
 21
38.25000037419785
 31
0.0
  0
ARC
  5
7E9
330
1A
100
AcDbEntity
  8
ZUWAKU
100
AcDbCircle
 10
63.39221133955129
 20
35.45000037419784
 30
0.0
 40
2.799999999999999
100
AcDbArc
 50
90.0
 51
180.0
  0
LINE
  5
7EA
330
1A
100
AcDbEntity
  8
ZUWAKU
100
AcDbLine
 10
60.59221133955123
 20
35.45000037419784
 30
0.0
 11
60.59221133955123
 21
33.6347983488425
 31
0.0
  0
ARC
  5
7EB
330
1A
100
AcDbEntity
  8
ZUWAKU
100
AcDbCircle
 10
57.96721133955123
 20
37.72500037419784
 30
0.0
 40
0.525
100
AcDbArc
 50
0.0
 51
90.0
  0
LINE
  5
7EC
330
1A
100
AcDbEntity
  8
ZUWAKU
100
AcDbLine
 10
63.39221133955129
 20
34.92500037419784
 30
0.0
 11
63.39221133955129
 21
33.6347983488425
 31
0.0
  0
ARC
  5
7ED
330
1A
100
AcDbEntity
  8
ZUWAKU
100
AcDbCircle
 10
63.91721133955127
 20
34.92500037419784
 30
0.0
 40
0.525
100
AcDbArc
 50
90.0
 51
180.0
  0
LINE
  5
7EE
330
1A
100
AcDbEntity
  8
ZUWAKU
100
AcDbLine
 10
67.41721133955127
 20
37.72500037419784
 30
0.0
 11
67.41721133955127
 21
35.97500037419784
 31
0.0
  0
ARC
  5
7EF
330
1A
100
AcDbEntity
  8
ZUWAKU
100
AcDbCircle
 10
66.89221133955129
 20
35.97500037419784
 30
0.0
 40
0.525
100
AcDbArc
 50
270.0
 51
0.0
  0
ARC
  5
7F0
330
1A
100
AcDbEntity
  8
ZUWAKU
100
AcDbCircle
 10
66.89221133955129
 20
37.72500037419784
 30
0.0
 40
0.525
100
AcDbArc
 50
0.0
 51
90.0
  0
LINE
  5
7F1
330
1A
100
AcDbEntity
  8
ZUWAKU
100
AcDbLine
 10
72.31721133955125
 20
38.25000037419785
 30
0.0
 11
70.56721133955125
 21
38.25000037419785
 31
0.0
  0
ARC
  5
7F2
330
1A
100
AcDbEntity
  8
ZUWAKU
100
AcDbCircle
 10
70.56721133955125
 20
37.72500037419784
 30
0.0
 40
0.525
100
AcDbArc
 50
90.0
 51
180.0
  0
ARC
  5
7F3
330
1A
100
AcDbEntity
  8
ZUWAKU
100
AcDbCircle
 10
72.31721133955125
 20
37.72500037419784
 30
0.0
 40
0.525
100
AcDbArc
 50
0.0
 51
90.0
  0
LINE
  5
7F4
330
1A
100
AcDbEntity
  8
ZUWAKU
100
AcDbLine
 10
83.51721133955129
 20
38.25000037419785
 30
0.0
 11
81.7672113395513
 21
38.25000037419785
 31
0.0
  0
ARC
  5
7F5
330
1A
100
AcDbEntity
  8
ZUWAKU
100
AcDbCircle
 10
76.86721133955121
 20
37.72500037419784
 30
0.0
 40
0.525
100
AcDbArc
 50
90.0
 51
180.0
  0
LINE
  5
7F6
330
1A
100
AcDbEntity
  8
ZUWAKU
100
AcDbLine
 10
78.6172113395512
 20
38.25000037419785
 30
0.0
 11
76.86721133955121
 21
38.25000037419785
 31
0.0
  0
ARC
  5
7F7
330
1A
100
AcDbEntity
  8
ZUWAKU
100
AcDbCircle
 10
78.6172113395512
 20
37.72500037419784
 30
0.0
 40
0.525
100
AcDbArc
 50
0.0
 51
90.0
  0
ARC
  5
7F8
330
1A
100
AcDbEntity
  8
ZUWAKU
100
AcDbCircle
 10
81.7672113395513
 20
37.72500037419784
 30
0.0
 40
0.525
100
AcDbArc
 50
90.0
 51
180.0
  0
ARC
  5
7F9
330
1A
100
AcDbEntity
  8
ZUWAKU
100
AcDbCircle
 10
83.51721133955129
 20
37.72500037419784
 30
0.0
 40
0.525
100
AcDbArc
 50
0.0
 51
90.0
  0
TEXT
  5
7FA
330
1A
100
AcDbEntity
  8
moji
100
AcDbText
 10
254.8272018656212
 20
33.00492143160523
 30
0.0
 40
5.599999999999999
  1
飾りマス角型（フタ付き）
 41
0.9
  7
ｽﾀｲﾙ1
100
AcDbText
  0
LINE
  5
7FB
330
1A
100
AcDbEntity
  8
ZUWAKU
100
AcDbLine
 10
223.4466004748378
 20
45.00000037419783
 30
0.0
 11
223.4466004748381
 21
15.80000037419791
 31
0.0
  0
LINE
  5
7FC
330
1A
100
AcDbEntity
  8
ZUWAKU
100
AcDbLine
 10
223.6466004748379
 20
45.00000037419783
 30
0.0
 11
223.6466004748381
 21
15.80000037419791
 31
0.0
  0
LINE
  5
7FD
330
1A
100
AcDbEntity
  8
ZUWAKU
100
AcDbLine
 10
223.246600474838
 20
45.00000037419783
 30
0.0
 11
223.246600474838
 21
15.80000037419791
 31
0.0
  0
TEXT
  5
7FE
330
1A
100
AcDbEntity
  8
ZUWAKU
100
AcDbText
 10
224.7240454970476
 20
24.65535691258346
 30
0.0
 40
4.0
  1
サイズ
 41
0.9
  7
ｽﾀｲﾙ1
100
AcDbText
  0
TEXT
  5
800
330
1A
100
AcDbEntity
  8
ZUWAKU
100
AcDbText
 10
224.7240454970474
 20
39.05535691258342
 30
0.0
 40
4.0
  1
品名
 41
0.9
  7
ｽﾀｲﾙ1
100
AcDbText
  0
TEXT
  5
801
330
1A
100
AcDbEntity
  8
ZUWAKU
100
AcDbText
 10
673.2039368720725
 20
33.00492143160523
 30
0.0
 40
5.599999999999999
  1
　　．　　．　　
 41
0.9
  7
ｽﾀｲﾙ1
100
AcDbText
  0
LINE
  5
802
330
1A
100
AcDbEntity
  8
ZUWAKU
100
AcDbLine
 10
663.8172016949742
 20
30.60000037419787
 30
0.0
 11
712.2490097333114
 21
30.60000037419787
 31
0.0
  0
LINE
  5
803
330
1A
100
AcDbEntity
  8
ZUWAKU
100
AcDbLine
 10
663.8172016949745
 20
30.40000037419788
 30
0.0
 11
712.2490097333114
 21
30.40000037419787
 31
0.0
  0
LINE
  5
804
330
1A
100
AcDbEntity
  8
ZUWAKU
100
AcDbLine
 10
663.8172016949742
 20
30.20000037419787
 30
0.0
 11
712.2490097333114
 21
30.20000037419788
 31
0.0
  0
LINE
  5
805
330
1A
100
AcDbEntity
  8
ZUWAKU
100
AcDbLine
 10
520.1991786829109
 20
30.60000037419787
 30
0.0
 11
567.5269549508825
 21
30.60000037419787
 31
0.0
  0
LINE
  5
806
330
1A
100
AcDbEntity
  8
ZUWAKU
100
AcDbLine
 10
520.1991786829109
 20
30.40000037419787
 30
0.0
 11
567.5269549508825
 21
30.40000037419787
 31
0.0
  0
LINE
  5
807
330
1A
100
AcDbEntity
  8
ZUWAKU
100
AcDbLine
 10
520.1991786829109
 20
30.20000037419788
 30
0.0
 11
567.5269549508825
 21
30.20000037419788
 31
0.0
  0
LINE
  5
808
330
1A
100
AcDbEntity
  8
ZUWAKU
100
AcDbLine
 10
519.7991786829111
 20
45.00000037419783
 30
0.0
 11
519.7991786829111
 21
15.80000037419791
 31
0.0
  0
LINE
  5
809
330
1A
100
AcDbEntity
  8
ZUWAKU
100
AcDbLine
 10
520.1991786829109
 20
45.00000037419783
 30
0.0
 11
520.1991786829112
 21
15.80000037419791
 31
0.0
  0
LINE
  5
80A
330
1A
100
AcDbEntity
  8
ZUWAKU
100
AcDbLine
 10
519.9991786829109
 20
45.00000037419783
 30
0.0
 11
519.9991786829111
 21
15.80000037419791
 31
0.0
  0
TEXT
  5
80B
330
1A
100
AcDbEntity
  8
moji
100
AcDbText
 10
543.040907157083
 20
33.00492143160523
 30
0.0
 40
5.599999999999999
  1
Ａ３
 41
0.9
  7
ｽﾀｲﾙ1
100
AcDbText
  0
LINE
  5
80C
330
1A
100
AcDbEntity
  8
ZUWAKU
100
AcDbLine
 10
462.4243631557614
 20
45.00000037419783
 30
0.0
 11
462.4243631557614
 21
15.80000037419791
 31
0.0
  0
LINE
  5
80D
330
1A
100
AcDbEntity
  8
ZUWAKU
100
AcDbLine
 10
462.8243631557613
 20
45.00000037419783
 30
0.0
 11
462.8243631557616
 21
15.80000037419791
 31
0.0
  0
LINE
  5
80E
330
1A
100
AcDbEntity
  8
ZUWAKU
100
AcDbLine
 10
462.6243631557612
 20
45.00000037419783
 30
0.0
 11
462.6243631557615
 21
15.80000037419791
 31
0.0
  0
TEXT
  5
80F
330
1A
100
AcDbEntity
  8
moji
100
AcDbText
 10
479.594625188009
 20
26.94261809585782
 30
0.0
 40
5.599999999999999
  1
ＰＦ１４□
 41
0.9
  7
ｽﾀｲﾙ1
100
AcDbText
  0
TEXT
  5
810
330
1A
100
AcDbEntity
  8
ZUWAKU
100
AcDbText
 10
477.6937608402772
 20
17.61407128533733
 30
0.0
 40
3.0
  1
□には色品番が入ります
 41
0.9
  7
ｽﾀｲﾙ1
100
AcDbText
  0
TEXT
  5
811
330
1A
100
AcDbEntity
  8
ZUWAKU
100
AcDbText
 10
521.6766237051208
 20
24.65535691258346
 30
0.0
 40
4.0
  1
縮尺
 41
0.9
  7
ｽﾀｲﾙ1
100
AcDbText
  0
TEXT
  5
812
330
1A
100
AcDbEntity
  8
moji
100
AcDbText
 10
543.040907157083
 20
18.20492143160526
 30
0.0
 40
5.599999999999999
  1
１/２
 41
0.9
  7
ｽﾀｲﾙ1
100
AcDbText
  0
TEXT
  5
813
330
1A
100
AcDbEntity
  8
ZUWAKU
100
AcDbText
 10
464.3018081779709
 20
39.05535691258342
 30
0.0
 40
4.0
  1
品番
 41
0.9
  7
ｽﾀｲﾙ1
100
AcDbText
  0
TEXT
  5
814
330
1A
100
AcDbEntity
  8
ZUWAKU
100
AcDbText
 10
521.6766237051206
 20
39.05535691258342
 30
0.0
 40
4.0
  1
用紙
 41
0.9
  7
ｽﾀｲﾙ1
100
AcDbText
  0
LINE
  5
815
330
1A
100
AcDbEntity
  8
ZUWAKU
100
AcDbLine
 10
567.5269549508825
 20
45.00000037419783
 30
0.0
 11
567.5269549508825
 21
15.80000037419791
 31
0.0
  0
LINE
  5
816
330
1A
100
AcDbEntity
  8
ZUWAKU
100
AcDbLine
 10
567.9269549508823
 20
45.00000037419783
 30
0.0
 11
567.9269549508826
 21
15.80000037419791
 31
0.0
  0
LINE
  5
817
330
1A
100
AcDbEntity
  8
ZUWAKU
100
AcDbLine
 10
567.7269549508824
 20
45.00000037419783
 30
0.0
 11
567.7269549508825
 21
15.80000037419791
 31
0.0
  0
LINE
  5
818
330
1A
100
AcDbEntity
  8
ZUWAKU
100
AcDbLine
 10
663.4172016949746
 20
45.00000037419783
 30
0.0
 11
663.4172016949746
 21
15.80000037419791
 31
0.0
  0
LINE
  5
819
330
1A
100
AcDbEntity
  8
ZUWAKU
100
AcDbLine
 10
663.8172016949745
 20
45.00000037419783
 30
0.0
 11
663.8172016949747
 21
15.80000037419791
 31
0.0
  0
LINE
  5
81A
330
1A
100
AcDbEntity
  8
ZUWAKU
100
AcDbLine
 10
663.6172016949744
 20
45.00000037419783
 30
0.0
 11
663.6172016949747
 21
15.80000037419791
 31
0.0
  0
TEXT
  5
81B
330
1A
100
AcDbEntity
  8
ZUWAKU
100
AcDbText
 10
665.2946467171841
 20
39.05535691258342
 30
0.0
 40
4.0
  1
DATE
 41
0.9
  7
ｽﾀｲﾙ1
100
AcDbText
  0
TEXT
  5
81C
330
1A
100
AcDbEntity
  8
ZUWAKU
100
AcDbText
 10
722.1190697687439
 20
27.31464080937121
 30
0.0
 40
6.0
  1
積水化学工業株式会社
 41
0.9
  7
ｽﾀｲﾙ1
100
AcDbText
  0
LINE
  5
81D
330
1A
100
AcDbEntity
  8
ZUWAKU
100
AcDbLine
 10
712.8490097333113
 20
45.00000037419783
 30
0.0
 11
712.8490097333115
 21
15.80000037419791
 31
0.0
  0
LINE
  5
81E
330
1A
100
AcDbEntity
  8
ZUWAKU
100
AcDbLine
 10
712.6490097333112
 20
45.00000037419783
 30
0.0
 11
712.6490097333114
 21
15.80000037419791
 31
0.0
  0
LINE
  5
81F
330
1A
100
AcDbEntity
  8
ZUWAKU
100
AcDbLine
 10
712.4490097333114
 20
45.00000037419783
 30
0.0
 11
712.4490097333114
 21
15.80000037419791
 31
0.0
  0
LINE
  5
820
330
1A
100
AcDbEntity
  8
ZUWAKU
100
AcDbLine
 10
712.2490097333114
 20
45.00000037419783
 30
0.0
 11
712.2490097333114
 21
15.80000037419791
 31
0.0
  0
TEXT
  5
256A
330
1A
100
AcDbEntity
  8
moji
100
AcDbText
 10
255.1446427531778
 20
18.74884737750585
 30
0.0
 40
5.599999999999999
  1
Ｙ６０Ｈ・ＵＴ６０
 41
0.9
  7
ｽﾀｲﾙ1
100
AcDbText
  0
TEXT
  5
2A4F
330
1A
100
AcDbEntity
  8
SUNPOU
 62
     4
 48
5.0
100
AcDbText
 10
592.7464469526567
 20
76.69899586160586
 30
0.0
 40
8.0
  1
※　たてとい部品の差込み寸法を示す。
100
AcDbText
  0
DIMENSION
  5
35AE
330
1A
100
AcDbEntity
  8
SUNPOU
 48
5.0
100
AcDbDimension
  2
*D19
 10
323.4244915595212
 20
478.9161375370131
 30
0.0
 11
340.4121759849291
 21
459.9051255212693
 31
0.0
 70
    35
 71
     5
 42
4.0
  3
STANDARD
100
AcDbDiametricDimension
 15
325.4530272552533
 25
475.4686684753476
 35
0.0
 40
0.0
1001
ACAD
1000
DSTYLE
1002
{
1070
   140
1040
6.0
1070
    74
1070
     0
1070
   172
1070
     1
1070
    73
1070
     0
1070
   272
1070
     2
1070
    77
1070
     3
1070
   173
1070
     1
1070
   147
1040
2.0
1070
    42
1040
6.0
1070
    44
1040
3.0
1070
    43
1040
14.0
1070
   271
1070
     0
1070
   178
1070
     4
1070
   177
1070
     4
1070
   176
1070
     4
1070
   141
1040
7.0
1070
     7
1000
_OPEN
1070
     6
1000
_OPEN
1070
    41
1040
7.0
1002
}
  0
DIMENSION
  5
35AF
330
1A
100
AcDbEntity
  8
SUNPOU
 48
5.0
100
AcDbDimension
  2
*D18
 10
370.4411876153226
 20
376.9924030061803
 30
0.0
 11
365.4411876153226
 21
423.1924530061802
 31
0.0
 70
    32
  1
□ <>
 71
     5
 42
92.40009999999983
  3
STANDARD
100
AcDbAlignedDimension
 13
298.6387594073869
 23
469.3925030061802
 33
0.0
 14
298.638659407387
 24
376.9924030061803
 34
0.0
 50
90.0
100
AcDbRotatedDimension
1001
ACAD
1000
DSTYLE
1002
{
1070
   140
1040
6.0
1070
    74
1070
     0
1070
   172
1070
     1
1070
    73
1070
     0
1070
   272
1070
     2
1070
    77
1070
     3
1070
   173
1070
     1
1070
   147
1040
2.0
1070
    42
1040
6.0
1070
    44
1040
3.0
1070
    43
1040
14.0
1070
   271
1070
     0
1070
   178
1070
     4
1070
   177
1070
     4
1070
   176
1070
     4
1070
   141
1040
150.0
1070
     7
1000
_OPEN
1070
     6
1000
_OPEN
1070
    41
1040
7.0
1002
}
  0
DIMENSION
  5
35B0
330
1A
100
AcDbEntity
  8
SUNPOU
 48
5.0
100
AcDbDimension
  2
*D17
 10
216.4385507637326
 20
323.2281888086405
 30
0.0
 11
270.4385550855597
 21
328.2281888086405
 31
0.0
 70
    32
 71
     5
 42
108.0000086436544
  3
STANDARD
100
AcDbAlignedDimension
 13
324.4385594073869
 23
358.9797030061802
 33
0.0
 14
216.4385507637326
 24
358.9807767196747
 34
0.0
100
AcDbRotatedDimension
1001
ACAD
1000
DSTYLE
1002
{
1070
   140
1040
6.0
1070
    74
1070
     0
1070
   172
1070
     1
1070
    73
1070
     0
1070
   272
1070
     2
1070
    77
1070
     3
1070
   173
1070
     1
1070
   147
1040
2.0
1070
    42
1040
6.0
1070
    44
1040
3.0
1070
    43
1040
14.0
1070
   271
1070
     0
1070
   178
1070
     4
1070
   177
1070
     4
1070
   176
1070
     4
1070
   141
1040
150.0
1070
     7
1000
_OPEN
1070
     6
1000
_OPEN
1070
    41
1040
7.0
1002
}
  0
ARC
  5
35B1
330
1A
100
AcDbEntity
  8
SEIHIN
  6
Continuous
 62
     3
 48
5.0
100
AcDbCircle
 10
324.4387594073869
 20
477.1924030061803
 30
0.0
 40
8.0
100
AcDbArc
 50
180.0
 51
0.0
  0
LINE
  5
35B2
330
1A
100
AcDbEntity
  8
CENTER L
  6
CENTER
 62
     1
 48
5.0
100
AcDbLine
 10
313.4804594073869
 20
477.1924030061803
 30
0.0
 11
334.6513594073869
 21
477.1924030061803
 31
0.0
  0
ARC
  5
35B3
330
1A
100
AcDbEntity
  8
SEIHIN
  6
Continuous
 62
     3
 48
5.0
100
AcDbCircle
 10
324.4387594073869
 20
369.1924030061804
 30
0.0
 40
8.0
100
AcDbArc
 50
0.0
 51
180.0
  0
LINE
  5
35B4
330
1A
100
AcDbEntity
  8
CENTER L
  6
CENTER
 62
     1
 48
5.0
100
AcDbLine
 10
313.663859407387
 20
369.1924030061804
 30
0.0
 11
333.780859407387
 21
369.1923030061802
 31
0.0
  0
ARC
  5
35B5
330
1A
100
AcDbEntity
  8
SEIHIN
  6
Continuous
 62
     3
 48
5.0
100
AcDbCircle
 10
324.4387594073869
 20
369.1924030061804
 30
0.0
 40
8.0
100
AcDbArc
 50
180.0
 51
0.0
  0
ARC
  5
35B6
330
1A
100
AcDbEntity
  8
SEIHIN
  6
Continuous
 62
     3
 48
5.0
100
AcDbCircle
 10
324.4387594073869
 20
477.1924030061803
 30
0.0
 40
8.0
100
AcDbArc
 50
0.0
 51
180.0
  0
LINE
  5
35B7
330
1A
100
AcDbEntity
  8
SEIHIN
  6
Continuous
 62
     3
 48
5.0
100
AcDbLine
 10
271.938559407387
 20
346.9924030061803
 30
0.0
 11
339.4385594073869
 21
346.9924030061803
 31
0.0
  0
LINE
  5
35B8
330
1A
100
AcDbEntity
  8
SEIHIN
  6
Continuous
 62
     3
 48
5.0
100
AcDbLine
 10
270.4385594073869
 20
345.1924030061804
 30
0.0
 11
339.4385594073869
 21
345.1923030061802
 31
0.0
  0
LINE
  5
35B9
330
1A
100
AcDbEntity
  8
CENTER L
  6
CENTER
 62
     1
 48
5.0
100
AcDbLine
 10
185.2722594073871
 20
423.1924030061803
 30
0.0
 11
354.7401594073869
 21
423.1924030061803
 31
0.0
  0
LINE
  5
35BA
330
1A
100
AcDbEntity
  8
SEIHIN
  6
Continuous
 62
     3
 48
5.0
100
AcDbLine
 10
270.4387594073871
 20
501.1924030061804
 30
0.0
 11
339.4387594073871
 21
501.1924030061804
 31
0.0
  0
LINE
  5
35BB
330
1A
100
AcDbEntity
  8
SEIHIN
  6
Continuous
 62
     3
 48
5.0
100
AcDbLine
 10
270.4387594073871
 20
499.3925030061801
 30
0.0
 11
339.4387594073871
 21
499.3925030061801
 31
0.0
  0
ARC
  5
35BC
330
1A
100
AcDbEntity
  8
SEIHIN
  6
Continuous
 62
     3
 48
5.0
100
AcDbCircle
 10
298.6387594073869
 20
451.3925030061801
 30
0.0
 40
17.99999999999994
100
AcDbArc
 50
0.0
 51
90.0
  0
ARC
  5
35BD
330
1A
100
AcDbEntity
  8
SEIHIN
  6
DASHED
 62
     3
 48
0.1
100
AcDbCircle
 10
298.638809407387
 20
451.3924530061802
 30
0.0
 40
19.79995000006321
100
AcDbArc
 50
0.0001446866775417
 51
90.00014468667592
  0
ARC
  5
35BE
330
1A
100
AcDbEntity
  8
SEIHIN
  6
DASHED
 62
     3
 48
0.1
100
AcDbCircle
 10
298.638659407387
 20
394.9924030061803
 30
0.0
 40
19.79999999999992
100
AcDbArc
 50
270.0
 51
0.0000000000004071
  0
ARC
  5
35BF
330
1A
100
AcDbEntity
  8
SEIHIN
  6
Continuous
 62
     3
 48
5.0
100
AcDbCircle
 10
298.638659407387
 20
394.9924030061803
 30
0.0
 40
18.0
100
AcDbArc
 50
270.0
 51
0.0
  0
ARC
  5
35C0
330
1A
100
AcDbEntity
  8
SEIHIN
  6
Continuous
 62
     3
 48
5.0
100
AcDbCircle
 10
216.4387594073871
 20
477.1924030061803
 30
0.0
 40
8.0
100
AcDbArc
 50
180.0
 51
0.0
  0
ARC
  5
35C1
330
1A
100
AcDbEntity
  8
SEIHIN
  6
DASHED
 62
     3
 48
0.1
100
AcDbCircle
 10
242.238709407387
 20
451.3924530061802
 30
0.0
 40
19.79995000006315
100
AcDbArc
 50
89.99985531332409
 51
179.9998553133228
  0
LINE
  5
35C2
330
1A
100
AcDbEntity
  8
SEIHIN
  6
Continuous
 62
     3
 48
5.0
100
AcDbLine
 10
194.2387594073871
 20
423.1925030061803
 30
0.0
 11
194.2387594073871
 21
492.1924030061803
 31
0.0
  0
LINE
  5
35C3
330
1A
100
AcDbEntity
  8
SEIHIN
  6
Continuous
 62
     3
 48
5.0
100
AcDbLine
 10
192.4387594073869
 20
423.1925030061803
 30
0.0
 11
192.4387594073869
 21
492.1924030061803
 31
0.0
  0
LINE
  5
35C4
330
1A
100
AcDbEntity
  8
CENTER L
  6
CENTER
 62
     1
 48
5.0
100
AcDbLine
 10
270.4387594073871
 20
339.3790030061804
 30
0.0
 11
270.4388594073871
 21
506.8838030061803
 31
0.0
  0
LINE
  5
35C5
330
1A
100
AcDbEntity
  8
CENTER L
  6
CENTER
 62
     1
 48
5.0
100
AcDbLine
 10
216.4387594073871
 20
466.23420300618
 30
0.0
 11
216.4387594073871
 21
487.4052030061801
 31
0.0
  0
LINE
  5
35C6
330
1A
100
AcDbEntity
  8
SEIHIN
  6
Continuous
 62
     3
 48
5.0
100
AcDbLine
 10
194.2387594073871
 20
421.6926030061803
 30
0.0
 11
194.2386594073871
 21
354.1925030061801
 31
0.0
  0
LINE
  5
35C7
330
1A
100
AcDbEntity
  8
SEIHIN
  6
Continuous
 62
     3
 48
5.0
100
AcDbLine
 10
192.4387594073869
 20
423.1925030061803
 30
0.0
 11
192.4385594073869
 21
354.1925030061801
 31
0.0
  0
ARC
  5
35C8
330
1A
100
AcDbEntity
  8
SEIHIN
  6
DASHED
 62
     3
 48
0.1
100
AcDbCircle
 10
242.2386594073871
 20
394.9925030061803
 30
0.0
 40
19.80000000000012
100
AcDbArc
 50
180.0
 51
270.0
  0
ARC
  5
35C9
330
1A
100
AcDbEntity
  8
SEIHIN
  6
Continuous
 62
     3
 48
5.0
100
AcDbCircle
 10
242.2386594073871
 20
394.9925030061803
 30
0.0
 40
18.0
100
AcDbArc
 50
180.0
 51
270.0
  0
LINE
  5
35CA
330
1A
100
AcDbEntity
  8
SEIHIN
  6
Continuous
 62
     3
 48
5.0
100
AcDbLine
 10
238.438559407387
 20
347.6925030061801
 30
0.0
 11
260.4385594073869
 21
347.6924030061804
 31
0.0
  0
LINE
  5
35CB
330
1A
100
AcDbEntity
  8
SEIHIN
  6
Continuous
 62
     3
 48
5.0
100
AcDbLine
 10
238.438559407387
 20
357.1925030061803
 30
0.0
 11
280.4387594073869
 21
357.1924030061804
 31
0.0
  0
LINE
  5
35CC
330
1A
100
AcDbEntity
  8
SEIHIN
  6
DASHED
 62
     3
 48
0.1
100
AcDbLine
 10
270.4387594073871
 20
375.1924030061804
 30
0.0
 11
242.2386594073871
 21
375.1924030061804
 31
0.0
  0
LINE
  5
35CD
330
1A
100
AcDbEntity
  8
SEIHIN
  6
Continuous
 62
     3
 48
5.0
100
AcDbLine
 10
270.4387594073871
 20
376.9924030061803
 30
0.0
 11
242.2386594073871
 21
376.9925030061803
 31
0.0
  0
LINE
  5
35CE
330
1A
100
AcDbEntity
  8
SEIHIN
  6
Continuous
 62
     3
 48
5.0
100
AcDbLine
 10
270.4385594073869
 20
346.9924030061803
 30
0.0
 11
201.4385594073869
 21
346.9926030061802
 31
0.0
  0
LINE
  5
35CF
330
1A
100
AcDbEntity
  8
SEIHIN
  6
Continuous
 62
     3
 48
5.0
100
AcDbLine
 10
270.4385594073869
 20
345.1924030061804
 30
0.0
 11
201.4385594073869
 21
345.1925030061801
 31
0.0
  0
ARC
  5
35D0
330
1A
100
AcDbEntity
  8
SEIHIN
  6
Continuous
 62
     3
 48
5.0
100
AcDbCircle
 10
216.4387594073871
 20
369.1925030061804
 30
0.0
 40
8.0
100
AcDbArc
 50
0.0
 51
180.0
  0
LINE
  5
35D1
330
1A
100
AcDbEntity
  8
CENTER L
  6
CENTER
 62
     1
 48
5.0
100
AcDbLine
 10
227.3969594073872
 20
369.1925030061804
 30
0.0
 11
206.2259594073871
 21
369.1925030061804
 31
0.0
  0
ARC
  5
35D2
330
1A
100
AcDbEntity
  8
SEIHIN
  6
Continuous
 62
     3
 48
5.0
100
AcDbCircle
 10
216.4387594073871
 20
369.1925030061804
 30
0.0
 40
8.0
100
AcDbArc
 50
180.0
 51
0.0
  0
LINE
  5
35D3
330
1A
100
AcDbEntity
  8
CENTER L
  6
CENTER
 62
     1
 48
5.0
100
AcDbLine
 10
201.4385594073869
 20
362.1606030061802
 30
0.0
 11
201.4385594073869
 21
346.6788030061804
 31
0.0
  0
ARC
  5
35D4
330
1A
100
AcDbEntity
  8
SEIHIN
  6
Continuous
 62
     3
 48
5.0
100
AcDbCircle
 10
201.4385594073869
 20
354.1925030061801
 30
0.0
 40
5.499999999999971
100
AcDbArc
 50
0.0
 51
180.0
  0
ARC
  5
35D5
330
1A
100
AcDbEntity
  8
SEIHIN
  6
Continuous
 62
     3
 48
5.0
100
AcDbCircle
 10
201.4385594073869
 20
354.1925030061801
 30
0.0
 40
4.0
100
AcDbArc
 50
0.0
 51
180.0
  0
ARC
  5
35D6
330
1A
100
AcDbEntity
  8
SEIHIN
  6
Continuous
 62
     3
 48
5.0
100
AcDbCircle
 10
201.4385594073869
 20
354.1925030061801
 30
0.0
 40
5.499999999999971
100
AcDbArc
 50
180.0
 51
0.0
  0
ARC
  5
35D7
330
1A
100
AcDbEntity
  8
SEIHIN
  6
Continuous
 62
     3
 48
5.0
100
AcDbCircle
 10
201.4385594073869
 20
354.1925030061801
 30
0.0
 40
4.0
100
AcDbArc
 50
180.0
 51
0.0
  0
LINE
  5
35D8
330
1A
100
AcDbEntity
  8
CENTER L
  6
CENTER
 62
     1
 48
5.0
100
AcDbLine
 10
209.7639594073871
 20
354.1925030061801
 30
0.0
 11
192.291459407387
 21
354.1925030061801
 31
0.0
  0
ARC
  5
35D9
330
1A
100
AcDbEntity
  8
SEIHIN
  6
Continuous
 62
     3
 48
5.0
100
AcDbCircle
 10
201.4385594073869
 20
354.1925030061801
 30
0.0
 40
8.999999999999943
100
AcDbArc
 50
179.9999999999996
 51
270.0
  0
ARC
  5
35DA
330
1A
100
AcDbEntity
  8
SEIHIN
  6
Continuous
 62
     3
 48
5.0
100
AcDbCircle
 10
201.4385594073869
 20
354.1925030061801
 30
0.0
 40
7.199999999999903
100
AcDbArc
 50
180.0000000000004
 51
270.0
  0
ARC
  5
35DB
330
1A
100
AcDbEntity
  8
SEIHIN
  6
Continuous
 62
     3
 48
5.0
100
AcDbCircle
 10
201.4385594073869
 20
354.1925030061801
 30
0.0
 40
2.0
100
AcDbArc
 50
180.0
 51
0.0
  0
ARC
  5
35DC
330
1A
100
AcDbEntity
  8
SEIHIN
  6
Continuous
 62
     3
 48
5.0
100
AcDbCircle
 10
201.4385594073869
 20
354.1925030061801
 30
0.0
 40
2.0
100
AcDbArc
 50
0.0
 51
180.0
  0
ARC
  5
35DD
330
1A
100
AcDbEntity
  8
SEIHIN
  6
Continuous
 62
     3
 48
5.0
100
AcDbCircle
 10
216.4387594073871
 20
369.1925030061804
 30
0.0
 40
2.0
100
AcDbArc
 50
180.0
 51
0.0
  0
LINE
  5
35DE
330
1A
100
AcDbEntity
  8
CENTER L
  6
CENTER
 62
     1
 48
5.0
100
AcDbLine
 10
216.4387594073871
 20
379.9673030061803
 30
0.0
 11
216.4385594073869
 21
359.8502030061803
 31
0.0
  0
ARC
  5
35DF
330
1A
100
AcDbEntity
  8
SEIHIN
  6
Continuous
 62
     3
 48
5.0
100
AcDbCircle
 10
216.4387594073871
 20
369.1925030061804
 30
0.0
 40
2.0
100
AcDbArc
 50
0.0
 51
180.0
  0
LINE
  5
35E0
330
1A
100
AcDbEntity
  8
SEIHIN
  6
Continuous
 62
     3
 48
5.0
100
AcDbLine
 10
238.438559407387
 20
357.1925030061803
 30
0.0
 11
238.438559407387
 21
347.6925030061801
 31
0.0
  0
LINE
  5
35E1
330
1A
100
AcDbEntity
  8
SEIHIN
  6
DASHED
 62
     3
 48
0.1
100
AcDbLine
 10
270.4387594073871
 20
375.1924030061804
 30
0.0
 11
298.638659407387
 21
375.1924030061804
 31
0.0
  0
LINE
  5
35E2
330
1A
100
AcDbEntity
  8
SEIHIN
  6
Continuous
 62
     3
 48
5.0
100
AcDbLine
 10
270.4387594073871
 20
376.9924030061803
 30
0.0
 11
298.638659407387
 21
376.9924030061803
 31
0.0
  0
LINE
  5
35E3
330
1A
100
AcDbEntity
  8
SEIHIN
  6
Continuous
 62
     3
 48
5.0
100
AcDbLine
 10
280.438559407387
 20
352.1924030061804
 30
0.0
 11
263.438559407387
 21
352.1924030061804
 31
0.0
  0
ARC
  5
35E4
330
1A
100
AcDbEntity
  8
SEIHIN
  6
Continuous
 62
     3
 48
5.0
100
AcDbCircle
 10
270.4385594073869
 20
348.4924030061803
 30
0.0
 40
1.5
100
AcDbArc
 50
0.0
 51
180.0
  0
ARC
  5
35E5
330
1A
100
AcDbEntity
  8
SEIHIN
  6
Continuous
 62
     3
 48
5.0
100
AcDbCircle
 10
263.438559407387
 20
349.1924030061804
 30
0.0
 40
3.0
100
AcDbArc
 50
90.0
 51
180.0
  0
LINE
  5
35E6
330
1A
100
AcDbEntity
  8
SEIHIN
  6
Continuous
 62
     3
 48
5.0
100
AcDbLine
 10
260.4385594073869
 20
349.1924030061804
 30
0.0
 11
260.4385594073869
 21
347.6924030061804
 31
0.0
  0
LINE
  5
35E7
330
1A
100
AcDbEntity
  8
SEIHIN
  6
Continuous
 62
     3
 48
5.0
100
AcDbLine
 10
268.9385594073869
 20
348.4924030061803
 30
0.0
 11
268.9385594073869
 21
346.9924030061803
 31
0.0
  0
LINE
  5
35E8
330
1A
100
AcDbEntity
  8
SEIHIN
  6
Continuous
 62
     3
 48
5.0
100
AcDbLine
 10
271.938559407387
 20
348.4924030061803
 30
0.0
 11
271.938559407387
 21
346.9924030061803
 31
0.0
  0
LINE
  5
35E9
330
1A
100
AcDbEntity
  8
SEIHIN
  6
Continuous
 62
     3
 48
5.0
100
AcDbLine
 10
280.438559407387
 20
357.1924030061804
 30
0.0
 11
280.438559407387
 21
352.1924030061804
 31
0.0
  0
LINE
  5
35EA
330
1A
100
AcDbEntity
  8
SEIHIN
  6
DASHED
 62
     3
 48
0.1
100
AcDbLine
 10
270.4387594073871
 20
471.1924030061803
 30
0.0
 11
242.2387594073871
 21
471.1924030061803
 31
0.0
  0
LINE
  5
35EB
330
1A
100
AcDbEntity
  8
SEIHIN
  6
Continuous
 62
     3
 48
5.0
100
AcDbLine
 10
270.4387594073871
 20
469.3925030061802
 30
0.0
 11
242.2387594073871
 21
469.3925030061802
 31
0.0
  0
ARC
  5
35EC
330
1A
100
AcDbEntity
  8
SEIHIN
  6
Continuous
 62
     3
 48
5.0
100
AcDbCircle
 10
270.4387594073869
 20
423.1924030061803
 30
0.0
 40
27.54990000000004
100
AcDbArc
 50
180.0
 51
0.0
  0
ARC
  5
35ED
330
1A
100
AcDbEntity
  8
SEIHIN
  6
Continuous
 62
     3
 48
5.0
100
AcDbCircle
 10
270.4387594073869
 20
423.1924030061803
 30
0.0
 40
27.54990000000004
100
AcDbArc
 50
0.0
 51
180.0
  0
ARC
  5
35EE
330
1A
100
AcDbEntity
  8
SEIHIN
  6
Continuous
 62
     3
 48
5.0
100
AcDbCircle
 10
270.4387594073871
 20
423.1924030061803
 30
0.0
 40
39.10000000000005
100
AcDbArc
 50
180.0
 51
0.0
  0
ARC
  5
35EF
330
1A
100
AcDbEntity
  8
SEIHIN
  6
Continuous
 62
     3
 48
5.0
100
AcDbCircle
 10
270.4387594073871
 20
423.1924030061803
 30
0.0
 40
39.10000000000005
100
AcDbArc
 50
0.0
 51
180.0
  0
LINE
  5
35F0
330
1A
100
AcDbEntity
  8
SEIHIN
  6
Continuous
 62
     3
 48
5.0
100
AcDbLine
 10
203.4388594073871
 20
416.1924030061801
 30
0.0
 11
203.4388594073871
 21
430.1924030061804
 31
0.0
  0
LINE
  5
35F1
330
1A
100
AcDbEntity
  8
SEIHIN
  6
Continuous
 62
     3
 48
5.0
100
AcDbLine
 10
196.4388594073871
 20
424.6924030061803
 30
0.0
 11
196.4388594073871
 21
430.1924030061804
 31
0.0
  0
LINE
  5
35F2
330
1A
100
AcDbEntity
  8
SEIHIN
  6
DASHED
 62
     3
 48
0.1
100
AcDbLine
 10
222.4387594073871
 20
423.1924030061803
 30
0.0
 11
222.4387594073871
 21
451.3925030061803
 31
0.0
  0
LINE
  5
35F3
330
1A
100
AcDbEntity
  8
SEIHIN
  6
Continuous
 62
     3
 48
5.0
100
AcDbLine
 10
224.2387594073871
 20
423.1924030061803
 30
0.0
 11
224.2387594073871
 21
451.3925030061803
 31
0.0
  0
ARC
  5
35F4
330
1A
100
AcDbEntity
  8
SEIHIN
  6
Continuous
 62
     3
 48
5.0
100
AcDbCircle
 10
199.4388594073871
 20
416.1924030061801
 30
0.0
 40
2.999999999999914
100
AcDbArc
 50
180.0000000000016
 51
270.0
  0
ARC
  5
35F5
330
1A
100
AcDbEntity
  8
SEIHIN
  6
Continuous
 62
     3
 48
5.0
100
AcDbCircle
 10
200.4388594073871
 20
416.1924030061803
 30
0.0
 40
2.999999999999971
100
AcDbArc
 50
269.9999999999935
 51
359.9999999999972
  0
LINE
  5
35F6
330
1A
100
AcDbEntity
  8
SEIHIN
  6
Continuous
 62
     3
 48
5.0
100
AcDbLine
 10
199.4388594073871
 20
413.1924030061803
 30
0.0
 11
200.4388594073871
 21
413.1924030061803
 31
0.0
  0
ARC
  5
35F7
330
1A
100
AcDbEntity
  8
SEIHIN
  6
Continuous
 62
     3
 48
5.0
100
AcDbCircle
 10
195.738759407387
 20
423.1925030061801
 30
0.0
 40
1.5
100
AcDbArc
 50
270.0
 51
90.0
  0
LINE
  5
35F8
330
1A
100
AcDbEntity
  8
SEIHIN
  6
Continuous
 62
     3
 48
5.0
100
AcDbLine
 10
195.738759407387
 20
424.6925030061801
 30
0.0
 11
194.2387594073871
 21
424.6926030061803
 31
0.0
  0
LINE
  5
35F9
330
1A
100
AcDbEntity
  8
SEIHIN
  6
Continuous
 62
     3
 48
5.0
100
AcDbLine
 10
196.4388594073871
 20
416.1924030061801
 30
0.0
 11
196.4388594073871
 21
421.6924030061803
 31
0.0
  0
LINE
  5
35FA
330
1A
100
AcDbEntity
  8
SEIHIN
  6
Continuous
 62
     3
 48
5.0
100
AcDbLine
 10
195.738759407387
 20
421.69250300618
 30
0.0
 11
194.2387594073871
 21
421.6926030061803
 31
0.0
  0
LINE
  5
35FB
330
1A
100
AcDbEntity
  8
SEIHIN
  6
DASHED
 62
     3
 48
0.1
100
AcDbLine
 10
222.4387594073871
 20
423.1925030061803
 30
0.0
 11
222.4387594073871
 21
394.9925030061803
 31
0.0
  0
LINE
  5
35FC
330
1A
100
AcDbEntity
  8
SEIHIN
  6
Continuous
 62
     3
 48
5.0
100
AcDbLine
 10
224.2387594073871
 20
423.1925030061803
 30
0.0
 11
224.2386594073871
 21
394.9925030061803
 31
0.0
  0
ARC
  5
35FD
330
1A
100
AcDbEntity
  8
SEIHIN
  6
Continuous
 62
     3
 48
5.0
100
AcDbCircle
 10
242.2387594073871
 20
451.3925030061801
 30
0.0
 40
18.0
100
AcDbArc
 50
90.0
 51
179.9999999999996
  0
ARC
  5
35FE
330
1A
100
AcDbEntity
  8
SEIHIN
  6
Continuous
 62
     3
 48
5.0
100
AcDbCircle
 10
199.4388594073871
 20
430.1924030061804
 30
0.0
 40
3.0
100
AcDbArc
 50
90.0
 51
180.0
  0
LINE
  5
35FF
330
1A
100
AcDbEntity
  8
SEIHIN
  6
Continuous
 62
     3
 48
5.0
100
AcDbLine
 10
199.4388594073871
 20
433.1924030061803
 30
0.0
 11
200.4388594073871
 21
433.1924030061803
 31
0.0
  0
ARC
  5
3600
330
1A
100
AcDbEntity
  8
SEIHIN
  6
Continuous
 62
     3
 48
5.0
100
AcDbCircle
 10
200.4388594073871
 20
430.1924030061802
 30
0.0
 40
3.000000000000056
100
AcDbArc
 50
0.0000000000012213
 51
90.0
  0
LINE
  5
3601
330
1A
100
AcDbEntity
  8
SEIHIN
  6
DASHED
 62
     3
 48
0.1
100
AcDbLine
 10
318.4387594073871
 20
423.1924030061803
 30
0.0
 11
318.4387594073871
 21
451.3925030061803
 31
0.0
  0
LINE
  5
3602
330
1A
100
AcDbEntity
  8
SEIHIN
  6
Continuous
 62
     3
 48
5.0
100
AcDbLine
 10
316.6387594073869
 20
423.1924030061803
 30
0.0
 11
316.6387594073869
 21
451.3925030061803
 31
0.0
  0
LINE
  5
3603
330
1A
100
AcDbEntity
  8
SEIHIN
  6
DASHED
 62
     3
 48
0.1
100
AcDbLine
 10
318.4387594073871
 20
423.1924030061803
 30
0.0
 11
318.4387594073871
 21
394.9924030061803
 31
0.0
  0
LINE
  5
3604
330
1A
100
AcDbEntity
  8
SEIHIN
  6
Continuous
 62
     3
 48
5.0
100
AcDbLine
 10
316.6387594073869
 20
423.1924030061803
 30
0.0
 11
316.638659407387
 21
394.9924030061803
 31
0.0
  0
LINE
  5
3605
330
1A
100
AcDbEntity
  8
SEIHIN
  6
DASHED
 62
     3
 48
0.1
100
AcDbLine
 10
270.4387594073871
 20
471.1924030061803
 30
0.0
 11
298.6387594073869
 21
471.1924030061803
 31
0.0
  0
LINE
  5
3606
330
1A
100
AcDbEntity
  8
SEIHIN
  6
Continuous
 62
     3
 48
5.0
100
AcDbLine
 10
270.4387594073871
 20
469.3925030061802
 30
0.0
 11
298.6387594073869
 21
469.3925030061802
 31
0.0
  0
LINE
  5
3607
330
1A
100
AcDbEntity
  8
SEIHIN
  6
Continuous
 62
     3
 48
5.0
100
AcDbLine
 10
268.9387594073869
 20
499.3925030061801
 30
0.0
 11
201.4388594073871
 21
499.3925030061801
 31
0.0
  0
LINE
  5
3608
330
1A
100
AcDbEntity
  8
SEIHIN
  6
Continuous
 62
     3
 48
5.0
100
AcDbLine
 10
270.4387594073871
 20
501.1924030061804
 30
0.0
 11
201.4388594073871
 21
501.1924030061804
 31
0.0
  0
LINE
  5
3609
330
1A
100
AcDbEntity
  8
CENTER L
  6
CENTER
 62
     1
 48
5.0
100
AcDbLine
 10
227.213659407387
 20
477.1924030061803
 30
0.0
 11
207.0965594073871
 21
477.1924030061803
 31
0.0
  0
ARC
  5
360A
330
1A
100
AcDbEntity
  8
SEIHIN
  6
Continuous
 62
     3
 48
5.0
100
AcDbCircle
 10
216.4387594073871
 20
477.1924030061803
 30
0.0
 40
8.0
100
AcDbArc
 50
0.0
 51
180.0
  0
ARC
  5
360B
330
1A
100
AcDbEntity
  8
SEIHIN
  6
Continuous
 62
     3
 48
5.0
100
AcDbCircle
 10
201.4387594073869
 20
492.1924030061803
 30
0.0
 40
7.200099999999878
100
AcDbArc
 50
90.0
 51
179.9999999999996
  0
ARC
  5
360C
330
1A
100
AcDbEntity
  8
SEIHIN
  6
Continuous
 62
     3
 48
5.0
100
AcDbCircle
 10
201.4387594073869
 20
492.1924030061803
 30
0.0
 40
8.999999999999971
100
AcDbArc
 50
90.0
 51
180.0
  0
LINE
  5
360D
330
1A
100
AcDbEntity
  8
CENTER L
  6
CENTER
 62
     1
 48
5.0
100
AcDbLine
 10
201.4387594073869
 20
483.8672030061802
 30
0.0
 11
201.4388594073871
 21
501.3396030061803
 31
0.0
  0
ARC
  5
360E
330
1A
100
AcDbEntity
  8
SEIHIN
  6
Continuous
 62
     3
 48
5.0
100
AcDbCircle
 10
201.4387594073869
 20
492.1924030061803
 30
0.0
 40
5.499999999999943
100
AcDbArc
 50
0.0
 51
180.0
  0
ARC
  5
360F
330
1A
100
AcDbEntity
  8
SEIHIN
  6
Continuous
 62
     3
 48
5.0
100
AcDbCircle
 10
201.4387594073869
 20
492.1924030061803
 30
0.0
 40
3.999999999999943
100
AcDbArc
 50
180.0
 51
0.0
  0
ARC
  5
3610
330
1A
100
AcDbEntity
  8
SEIHIN
  6
Continuous
 62
     3
 48
5.0
100
AcDbCircle
 10
201.4387594073869
 20
492.1924030061803
 30
0.0
 40
3.999999999999943
100
AcDbArc
 50
0.0
 51
180.0
  0
ARC
  5
3611
330
1A
100
AcDbEntity
  8
SEIHIN
  6
Continuous
 62
     3
 48
5.0
100
AcDbCircle
 10
201.4387594073869
 20
492.1924030061803
 30
0.0
 40
5.499999999999943
100
AcDbArc
 50
180.0
 51
0.0
  0
LINE
  5
3612
330
1A
100
AcDbEntity
  8
CENTER L
  6
CENTER
 62
     1
 48
5.0
100
AcDbLine
 10
209.406859407387
 20
492.1924030061803
 30
0.0
 11
193.9250594073871
 21
492.19250300618
 31
0.0
  0
ARC
  5
3613
330
1A
100
AcDbEntity
  8
SEIHIN
  6
Continuous
 62
     3
 48
5.0
100
AcDbCircle
 10
201.4387594073869
 20
492.1924030061803
 30
0.0
 40
1.999999999999943
100
AcDbArc
 50
180.0
 51
0.0
  0
ARC
  5
3614
330
1A
100
AcDbEntity
  8
SEIHIN
  6
Continuous
 62
     3
 48
5.0
100
AcDbCircle
 10
201.4387594073869
 20
492.1924030061803
 30
0.0
 40
1.999999999999943
100
AcDbArc
 50
0.0
 51
180.0
  0
ARC
  5
3615
330
1A
100
AcDbEntity
  8
SEIHIN
  6
Continuous
 62
     3
 48
5.0
100
AcDbCircle
 10
216.4387594073871
 20
477.1924030061803
 30
0.0
 40
2.0
100
AcDbArc
 50
0.0
 51
180.0
  0
ARC
  5
3616
330
1A
100
AcDbEntity
  8
SEIHIN
  6
Continuous
 62
     3
 48
5.0
100
AcDbCircle
 10
216.4387594073871
 20
477.1924030061803
 30
0.0
 40
2.0
100
AcDbArc
 50
180.0
 51
0.0
  0
ARC
  5
3617
330
1A
100
AcDbEntity
  8
SEIHIN
  6
Continuous
 62
     3
 48
5.0
100
AcDbCircle
 10
270.4388594073871
 20
497.8925030061803
 30
0.0
 40
1.5
100
AcDbArc
 50
180.0
 51
0.0
  0
LINE
  5
3618
330
1A
100
AcDbEntity
  8
SEIHIN
  6
Continuous
 62
     3
 48
5.0
100
AcDbLine
 10
268.9387594073869
 20
497.8925030061803
 30
0.0
 11
268.9387594073869
 21
499.3925030061801
 31
0.0
  0
LINE
  5
3619
330
1A
100
AcDbEntity
  8
SEIHIN
  6
Continuous
 62
     3
 48
5.0
100
AcDbLine
 10
271.9388594073871
 20
497.8925030061803
 30
0.0
 11
271.9388594073871
 21
499.3925030061801
 31
0.0
  0
DIMENSION
  5
361A
330
1A
100
AcDbEntity
  8
SUNPOU
 48
5.0
100
AcDbDimension
  2
*D16
 10
408.1866461340141
 20
345.1923030062179
 30
0.0
 11
403.1866461340141
 21
423.1923530061991
 31
0.0
 70
    32
 71
     5
 42
156.0000999999624
  3
STANDARD
100
AcDbAlignedDimension
 13
339.4387594073871
 23
501.1924030061804
 33
0.0
 14
339.4385333202854
 24
345.1923030062179
 34
0.0
 50
90.0
100
AcDbRotatedDimension
1001
ACAD
1000
DSTYLE
1002
{
1070
   140
1040
6.0
1070
    74
1070
     0
1070
   172
1070
     1
1070
    73
1070
     0
1070
   272
1070
     2
1070
    77
1070
     3
1070
   173
1070
     1
1070
   147
1040
2.0
1070
    42
1040
6.0
1070
    44
1040
3.0
1070
    43
1040
14.0
1070
   271
1070
     0
1070
   178
1070
     4
1070
   177
1070
     4
1070
   176
1070
     4
1070
   141
1040
150.0
1070
     7
1000
_OPEN
1070
     6
1000
_OPEN
1070
    41
1040
7.0
1002
}
  0
DIMENSION
  5
361B
330
1A
100
AcDbEntity
  8
SUNPOU
 48
5.0
100
AcDbDimension
  2
*D15
 10
389.3139155831414
 20
369.1923030061801
 30
0.0
 11
384.3139155831413
 21
423.1370401495506
 31
0.0
 70
    32
 71
     5
 42
107.8894742867408
  3
STANDARD
100
AcDbAlignedDimension
 13
337.6329597316622
 23
477.0817772929209
 33
0.0
 14
333.780859407387
 24
369.1923030061802
 34
0.0
 50
90.0
100
AcDbRotatedDimension
1001
ACAD
1000
DSTYLE
1002
{
1070
   140
1040
6.0
1070
    74
1070
     0
1070
   172
1070
     1
1070
    73
1070
     0
1070
   272
1070
     2
1070
    77
1070
     3
1070
   173
1070
     1
1070
   147
1040
2.0
1070
    42
1040
6.0
1070
    44
1040
3.0
1070
    43
1040
14.0
1070
   271
1070
     0
1070
   178
1070
     4
1070
   177
1070
     4
1070
   176
1070
     4
1070
   141
1040
150.0
1070
     7
1000
_OPEN
1070
     6
1000
_OPEN
1070
    41
1040
7.0
1002
}
  0
LINE
  5
361C
330
1A
100
AcDbEntity
  8
SEIHIN
  6
Continuous
 62
     3
 48
5.0
100
AcDbLine
 10
348.4387594073869
 20
423.1924030061803
 30
0.0
 11
348.4387594073869
 21
492.1924030061803
 31
0.0
  0
LINE
  5
361D
330
1A
100
AcDbEntity
  8
SEIHIN
  6
Continuous
 62
     3
 48
5.0
100
AcDbLine
 10
346.6387594073872
 20
424.6924030061803
 30
0.0
 11
346.638659407387
 21
492.1924030061803
 31
0.0
  0
LINE
  5
361E
330
1A
100
AcDbEntity
  8
CENTER L
  6
CENTER
 62
     1
 48
5.0
100
AcDbLine
 10
324.4387594073869
 20
466.4176030061802
 30
0.0
 11
324.4387594073869
 21
486.5347030061801
 31
0.0
  0
LINE
  5
361F
330
1A
100
AcDbEntity
  8
SEIHIN
  6
Continuous
 62
     3
 48
5.0
100
AcDbLine
 10
346.6387594073872
 20
423.1923030061802
 30
0.0
 11
346.638659407387
 21
354.1923030061802
 31
0.0
  0
LINE
  5
3620
330
1A
100
AcDbEntity
  8
SEIHIN
  6
Continuous
 62
     3
 48
5.0
100
AcDbLine
 10
348.4387594073869
 20
423.1923030061802
 30
0.0
 11
348.438559407387
 21
354.1923030061802
 31
0.0
  0
ARC
  5
3621
330
1A
100
AcDbEntity
  8
SEIHIN
  6
Continuous
 62
     3
 48
5.0
100
AcDbCircle
 10
339.4385594073869
 20
354.1923030061802
 30
0.0
 40
4.0
100
AcDbArc
 50
0.0
 51
180.0
  0
LINE
  5
3622
330
1A
100
AcDbEntity
  8
CENTER L
  6
CENTER
 62
     1
 48
5.0
100
AcDbLine
 10
339.4385594073869
 20
362.5176030061804
 30
0.0
 11
339.4385594073869
 21
345.0452030061803
 31
0.0
  0
ARC
  5
3623
330
1A
100
AcDbEntity
  8
SEIHIN
  6
Continuous
 62
     3
 48
5.0
100
AcDbCircle
 10
339.4385594073869
 20
354.1923030061802
 30
0.0
 40
5.499999999999943
100
AcDbArc
 50
0.0
 51
180.0
  0
ARC
  5
3624
330
1A
100
AcDbEntity
  8
SEIHIN
  6
Continuous
 62
     3
 48
5.0
100
AcDbCircle
 10
339.4385594073869
 20
354.1923030061802
 30
0.0
 40
4.0
100
AcDbArc
 50
180.0
 51
0.0
  0
ARC
  5
3625
330
1A
100
AcDbEntity
  8
SEIHIN
  6
Continuous
 62
     3
 48
5.0
100
AcDbCircle
 10
339.4385594073869
 20
354.1923030061802
 30
0.0
 40
5.499999999999943
100
AcDbArc
 50
180.0
 51
0.0
  0
LINE
  5
3626
330
1A
100
AcDbEntity
  8
CENTER L
  6
CENTER
 62
     1
 48
5.0
100
AcDbLine
 10
331.4705594073871
 20
354.1923030061802
 30
0.0
 11
346.9523594073869
 21
354.1923030061802
 31
0.0
  0
ARC
  5
3627
330
1A
100
AcDbEntity
  8
SEIHIN
  6
Continuous
 62
     3
 48
5.0
100
AcDbCircle
 10
339.4385594073869
 20
354.1923030061802
 30
0.0
 40
9.0
100
AcDbArc
 50
270.0
 51
0.0
  0
ARC
  5
3628
330
1A
100
AcDbEntity
  8
SEIHIN
  6
Continuous
 62
     3
 48
5.0
100
AcDbCircle
 10
339.4385594073869
 20
354.1923030061802
 30
0.0
 40
7.200000000000073
100
AcDbArc
 50
270.0
 51
359.9999999999992
  0
ARC
  5
3629
330
1A
100
AcDbEntity
  8
SEIHIN
  6
Continuous
 62
     3
 48
5.0
100
AcDbCircle
 10
339.4385594073869
 20
354.1923030061802
 30
0.0
 40
2.0
100
AcDbArc
 50
0.0
 51
180.0
  0
ARC
  5
362A
330
1A
100
AcDbEntity
  8
SEIHIN
  6
Continuous
 62
     3
 48
5.0
100
AcDbCircle
 10
339.4385594073869
 20
354.1923030061802
 30
0.0
 40
2.0
100
AcDbArc
 50
180.0
 51
0.0
  0
ARC
  5
362B
330
1A
100
AcDbEntity
  8
SEIHIN
  6
Continuous
 62
     3
 48
5.0
100
AcDbCircle
 10
324.4387594073871
 20
369.1924030061804
 30
0.0
 40
2.0
100
AcDbArc
 50
180.0
 51
0.0
  0
LINE
  5
362C
330
1A
100
AcDbEntity
  8
CENTER L
  6
CENTER
 62
     1
 48
5.0
100
AcDbLine
 10
324.4387594073869
 20
380.1506030061803
 30
0.0
 11
324.4385594073869
 21
358.9797030061801
 31
0.0
  0
ARC
  5
362D
330
1A
100
AcDbEntity
  8
SEIHIN
  6
Continuous
 62
     3
 48
5.0
100
AcDbCircle
 10
324.4387594073871
 20
369.1924030061804
 30
0.0
 40
2.0
100
AcDbArc
 50
0.0
 51
180.0
  0
LINE
  5
362E
330
1A
100
AcDbEntity
  8
SEIHIN
  6
Continuous
 62
     3
 48
5.0
100
AcDbLine
 10
344.438559407387
 20
424.6923030061801
 30
0.0
 11
344.438559407387
 21
430.1924030061804
 31
0.0
  0
LINE
  5
362F
330
1A
100
AcDbEntity
  8
SEIHIN
  6
Continuous
 62
     3
 48
5.0
100
AcDbLine
 10
337.4385594073869
 20
416.1924030061801
 30
0.0
 11
337.4385594073869
 21
430.1924030061804
 31
0.0
  0
LINE
  5
3630
330
1A
100
AcDbEntity
  8
SEIHIN
  6
Continuous
 62
     3
 48
5.0
100
AcDbLine
 10
336.4387594073869
 20
391.1924030061804
 30
0.0
 11
336.4387594073869
 21
433.1924030061803
 31
0.0
  0
LINE
  5
3631
330
1A
100
AcDbEntity
  8
SEIHIN
  6
Continuous
 62
     3
 48
5.0
100
AcDbLine
 10
345.9387594073869
 20
391.1924030061804
 30
0.0
 11
345.9387594073869
 21
413.1924030061803
 31
0.0
  0
LINE
  5
3632
330
1A
100
AcDbEntity
  8
SEIHIN
  6
Continuous
 62
     3
 48
5.0
100
AcDbLine
 10
336.4387594073869
 20
391.1924030061804
 30
0.0
 11
345.9387594073869
 21
391.1924030061804
 31
0.0
  0
ARC
  5
3633
330
1A
100
AcDbEntity
  8
SEIHIN
  6
Continuous
 62
     3
 48
5.0
100
AcDbCircle
 10
340.438559407387
 20
416.1924030061801
 30
0.0
 40
2.999999999999857
100
AcDbArc
 50
180.0000000000004
 51
270.0
  0
ARC
  5
3634
330
1A
100
AcDbEntity
  8
SEIHIN
  6
Continuous
 62
     3
 48
5.0
100
AcDbCircle
 10
341.4385594073872
 20
416.1924030061801
 30
0.0
 40
2.999999999999857
100
AcDbArc
 50
270.0
 51
359.9999999999996
  0
LINE
  5
3635
330
1A
100
AcDbEntity
  8
SEIHIN
  6
Continuous
 62
     3
 48
5.0
100
AcDbLine
 10
344.4387594073869
 20
413.1924030061803
 30
0.0
 11
345.9387594073869
 21
413.1924030061803
 31
0.0
  0
ARC
  5
3636
330
1A
100
AcDbEntity
  8
SEIHIN
  6
Continuous
 62
     3
 48
5.0
100
AcDbCircle
 10
344.4388825632898
 20
416.1923700058171
 30
0.0
 40
2.99996700216473
100
AcDbArc
 50
239.9969200888131
 51
269.9976478696409
  0
LINE
  5
3637
330
1A
100
AcDbEntity
  8
SEIHIN
  6
Continuous
 62
     3
 48
5.0
100
AcDbLine
 10
341.4385594073869
 20
413.1924030061803
 30
0.0
 11
340.438559407387
 21
413.1924030061803
 31
0.0
  0
ARC
  5
3638
330
1A
100
AcDbEntity
  8
SEIHIN
  6
Continuous
 62
     3
 48
5.0
100
AcDbCircle
 10
345.138759407387
 20
423.1924030061803
 30
0.0
 40
1.5
100
AcDbArc
 50
90.0
 51
270.0
  0
LINE
  5
3639
330
1A
100
AcDbEntity
  8
SEIHIN
  6
Continuous
 62
     3
 48
5.0
100
AcDbLine
 10
344.438559407387
 20
416.1924030061801
 30
0.0
 11
344.438559407387
 21
421.6923030061803
 31
0.0
  0
LINE
  5
363A
330
1A
100
AcDbEntity
  8
SEIHIN
  6
Continuous
 62
     3
 48
5.0
100
AcDbLine
 10
345.138759407387
 20
424.6924030061803
 30
0.0
 11
346.6387594073872
 21
424.6924030061803
 31
0.0
  0
LINE
  5
363B
330
1A
100
AcDbEntity
  8
SEIHIN
  6
Continuous
 62
     3
 48
5.0
100
AcDbLine
 10
345.138759407387
 20
421.6924030061803
 30
0.0
 11
346.6387594073872
 21
421.6924030061803
 31
0.0
  0
LINE
  5
363C
330
1A
100
AcDbEntity
  8
SEIHIN
  6
Continuous
 62
     3
 48
5.0
100
AcDbLine
 10
348.4387594073869
 20
427.1924030061803
 30
0.0
 11
348.4387594073869
 21
454.7024030061804
 31
0.0
  0
ARC
  5
363D
330
1A
100
AcDbEntity
  8
SEIHIN
  6
Continuous
 62
     3
 48
5.0
100
AcDbCircle
 10
341.4385594073869
 20
430.1924030061804
 30
0.0
 40
2.999999999999943
100
AcDbArc
 50
359.9999999999988
 51
90.0
  0
ARC
  5
363E
330
1A
100
AcDbEntity
  8
SEIHIN
  6
Continuous
 62
     3
 48
5.0
100
AcDbCircle
 10
340.438559407387
 20
430.1924030061804
 30
0.0
 40
2.999999999999943
100
AcDbArc
 50
90.0
 51
180.0000000000012
  0
LINE
  5
363F
330
1A
100
AcDbEntity
  8
SEIHIN
  6
Continuous
 62
     3
 48
5.0
100
AcDbLine
 10
336.4387594073869
 20
433.1924030061803
 30
0.0
 11
341.4387594073869
 21
433.1924030061803
 31
0.0
  0
LINE
  5
3640
330
1A
100
AcDbEntity
  8
SEIHIN
  6
Continuous
 62
     3
 48
5.0
100
AcDbLine
 10
341.4385594073869
 20
433.1924030061803
 30
0.0
 11
340.438559407387
 21
433.1924030061803
 31
0.0
  0
ARC
  5
3641
330
1A
100
AcDbEntity
  8
SEIHIN
  6
Continuous
 62
     3
 48
5.0
100
AcDbCircle
 10
339.4387594073869
 20
492.1924030061803
 30
0.0
 40
8.999999999999943
100
AcDbArc
 50
359.9999999999996
 51
90.0
  0
ARC
  5
3642
330
1A
100
AcDbEntity
  8
SEIHIN
  6
Continuous
 62
     3
 48
5.0
100
AcDbCircle
 10
339.4387094073873
 20
492.1924530061802
 30
0.0
 40
7.200050000173528
100
AcDbArc
 50
359.9996021154058
 51
89.99960211540621
  0
LINE
  5
3643
330
1A
100
AcDbEntity
  8
CENTER L
  6
CENTER
 62
     1
 48
5.0
100
AcDbLine
 10
339.4387594073871
 20
484.2243030061803
 30
0.0
 11
339.4387594073871
 21
499.7061030061803
 31
0.0
  0
ARC
  5
3644
330
1A
100
AcDbEntity
  8
SEIHIN
  6
Continuous
 62
     3
 48
5.0
100
AcDbCircle
 10
339.4387594073869
 20
492.1924030061803
 30
0.0
 40
5.499999999999943
100
AcDbArc
 50
0.0
 51
180.0
  0
ARC
  5
3645
330
1A
100
AcDbEntity
  8
SEIHIN
  6
Continuous
 62
     3
 48
5.0
100
AcDbCircle
 10
339.4387594073869
 20
492.1924030061803
 30
0.0
 40
4.000000000000056
100
AcDbArc
 50
180.0
 51
0.0
  0
ARC
  5
3646
330
1A
100
AcDbEntity
  8
SEIHIN
  6
Continuous
 62
     3
 48
5.0
100
AcDbCircle
 10
339.4387594073869
 20
492.1924030061803
 30
0.0
 40
4.000000000000056
100
AcDbArc
 50
0.0
 51
180.0
  0
ARC
  5
3647
330
1A
100
AcDbEntity
  8
SEIHIN
  6
Continuous
 62
     3
 48
5.0
100
AcDbCircle
 10
339.4387594073869
 20
492.1924030061803
 30
0.0
 40
5.499999999999943
100
AcDbArc
 50
180.0
 51
0.0
  0
LINE
  5
3648
330
1A
100
AcDbEntity
  8
CENTER L
  6
CENTER
 62
     1
 48
5.0
100
AcDbLine
 10
331.1135594073871
 20
492.1924030061803
 30
0.0
 11
348.585859407387
 21
492.1924030061803
 31
0.0
  0
ARC
  5
3649
330
1A
100
AcDbEntity
  8
SEIHIN
  6
Continuous
 62
     3
 48
5.0
100
AcDbCircle
 10
324.4387594073871
 20
477.1924030061803
 30
0.0
 40
2.0
100
AcDbArc
 50
0.0
 51
180.0
  0
ARC
  5
364A
330
1A
100
AcDbEntity
  8
SEIHIN
  6
Continuous
 62
     3
 48
5.0
100
AcDbCircle
 10
324.4387594073871
 20
477.1924030061803
 30
0.0
 40
2.0
100
AcDbArc
 50
180.0
 51
0.0
  0
ARC
  5
364B
330
1A
100
AcDbEntity
  8
SEIHIN
  6
Continuous
 62
     3
 48
5.0
100
AcDbCircle
 10
339.4387594073869
 20
492.1924030061803
 30
0.0
 40
2.0
100
AcDbArc
 50
180.0
 51
0.0
  0
ARC
  5
364C
330
1A
100
AcDbEntity
  8
SEIHIN
  6
Continuous
 62
     3
 48
5.0
100
AcDbCircle
 10
339.4387594073869
 20
492.1924030061803
 30
0.0
 40
2.0
100
AcDbArc
 50
0.0
 51
180.0
  0
LINE
  5
364D
330
1A
100
AcDbEntity
  8
SEIHIN
  6
Continuous
 62
     3
 48
5.0
100
AcDbLine
 10
204.4388212724075
 20
391.1924818098554
 30
0.0
 11
194.9388212724143
 21
391.1924931528141
 31
0.0
  0
LINE
  5
364E
330
1A
100
AcDbEntity
  8
SEIHIN
  6
Continuous
 62
     3
 48
5.0
100
AcDbLine
 10
194.9388212724143
 20
391.1924931528141
 30
0.0
 11
194.9388475403184
 21
413.1924931527984
 31
0.0
  0
ARC
  5
364F
330
1A
100
AcDbEntity
  8
SEIHIN
  6
Continuous
 62
     3
 48
5.0
100
AcDbCircle
 10
196.4387279663619
 20
416.1924583615865
 30
0.0
 40
2.99996700216473
100
AcDbArc
 50
270.0022837194463
 51
300.0030115002748
  0
LINE
  5
3650
330
1A
100
AcDbEntity
  8
SEIHIN
  6
Continuous
 62
     3
 48
5.0
100
AcDbLine
 10
204.4388212724075
 20
391.1924818098554
 30
0.0
 11
204.4388714202244
 21
433.1924818098254
 31
0.0
  0
LINE
  5
3651
330
1A
100
AcDbEntity
  8
SEIHIN
  6
Continuous
 62
     3
 48
5.0
100
AcDbLine
 10
204.4388714202244
 20
433.1924818098254
 30
0.0
 11
199.4388714202278
 21
433.1924877798036
 31
0.0
  0
LINE
  5
3652
330
1A
100
AcDbEntity
  8
SEIHIN
  6
Continuous
 62
     3
 48
5.0
100
AcDbLine
 10
194.9388475403184
 20
413.1924931527984
 30
0.0
 11
196.4388475403184
 21
413.1924931527984
 31
0.0
  0
LINE
  5
3653
330
1A
100
AcDbEntity
  8
SEIHIN
  6
Continuous
 62
     3
 48
5.0
100
AcDbLine
 10
260.4385594073874
 20
497.1924030061804
 30
0.0
 11
260.4385594073874
 21
498.6924030061803
 31
0.0
  0
LINE
  5
3654
330
1A
100
AcDbEntity
  8
SEIHIN
  6
Continuous
 62
     3
 48
5.0
100
AcDbLine
 10
238.4385594073874
 20
489.1923030061806
 30
0.0
 11
238.4385594073874
 21
498.6923030061806
 31
0.0
  0
LINE
  5
3655
330
1A
100
AcDbEntity
  8
SEIHIN
  6
Continuous
 62
     3
 48
5.0
100
AcDbLine
 10
238.4385594073874
 20
498.6923030061806
 30
0.0
 11
260.4385594073874
 21
498.6924030061803
 31
0.0
  0
ARC
  5
3656
330
1A
100
AcDbEntity
  8
SEIHIN
  6
Continuous
 62
     3
 48
5.0
100
AcDbCircle
 10
263.4385594073874
 20
497.1924030061804
 30
0.0
 40
3.0
100
AcDbArc
 50
179.9999999999997
 51
270.0
  0
LINE
  5
3657
330
1A
100
AcDbEntity
  8
SEIHIN
  6
Continuous
 62
     3
 48
5.0
100
AcDbLine
 10
280.4385594073874
 20
494.1924030061803
 30
0.0
 11
263.4385594073874
 21
494.1924030061803
 31
0.0
  0
LINE
  5
3658
330
1A
100
AcDbEntity
  8
SEIHIN
  6
Continuous
 62
     3
 48
5.0
100
AcDbLine
 10
238.4385594073874
 20
489.1923030061806
 30
0.0
 11
280.4387594073873
 21
489.1924030061804
 31
0.0
  0
LINE
  5
3659
330
1A
100
AcDbEntity
  8
SEIHIN
  6
Continuous
 62
     3
 48
5.0
100
AcDbLine
 10
280.4385594073874
 20
489.1924030061804
 30
0.0
 11
280.4385594073874
 21
494.1924030061803
 31
0.0
  0
LINE
  5
365A
330
1A
100
AcDbEntity
  8
SEIHIN
  6
Continuous
 62
     3
 48
5.0
100
AcDbLine
 10
589.6356888295149
 20
489.1924030061804
 30
0.0
 11
589.6356888295149
 21
494.1924030061803
 31
0.0
  0
LINE
  5
365B
330
1A
100
AcDbEntity
  8
SEIHIN
  6
Continuous
 62
     3
 48
5.0
100
AcDbLine
 10
547.6356888295149
 20
489.1923030061806
 30
0.0
 11
589.6358888295148
 21
489.1924030061804
 31
0.0
  0
LINE
  5
365C
330
1A
100
AcDbEntity
  8
SEIHIN
  6
Continuous
 62
     3
 48
5.0
100
AcDbLine
 10
589.6356888295149
 20
494.1924030061803
 30
0.0
 11
572.6356888295149
 21
494.1924030061803
 31
0.0
  0
ARC
  5
365D
330
1A
100
AcDbEntity
  8
SEIHIN
  6
Continuous
 62
     3
 48
5.0
100
AcDbCircle
 10
572.6356888295149
 20
497.1924030061804
 30
0.0
 40
3.0
100
AcDbArc
 50
179.9999999999997
 51
270.0
  0
LINE
  5
365E
330
1A
100
AcDbEntity
  8
SEIHIN
  6
Continuous
 62
     3
 48
5.0
100
AcDbLine
 10
547.6356888295149
 20
498.6923030061806
 30
0.0
 11
569.6356888295149
 21
498.6924030061803
 31
0.0
  0
LINE
  5
365F
330
1A
100
AcDbEntity
  8
SEIHIN
  6
Continuous
 62
     3
 48
5.0
100
AcDbLine
 10
547.6356888295149
 20
489.1923030061806
 30
0.0
 11
547.6356888295149
 21
498.6923030061806
 31
0.0
  0
LINE
  5
3660
330
1A
100
AcDbEntity
  8
SEIHIN
  6
Continuous
 62
     3
 48
5.0
100
AcDbLine
 10
569.6356888295149
 20
497.1924030061804
 30
0.0
 11
569.6356888295149
 21
498.6924030061803
 31
0.0
  0
LINE
  5
3661
330
1A
100
AcDbEntity
  8
SEIHIN
  6
Continuous
 62
     3
 48
5.0
100
AcDbLine
 10
504.135976962446
 20
413.1924931527984
 30
0.0
 11
505.6359888295146
 21
413.1924931527984
 31
0.0
  0
LINE
  5
3662
330
1A
100
AcDbEntity
  8
SEIHIN
  6
Continuous
 62
     3
 48
5.0
100
AcDbLine
 10
513.6360008423519
 20
433.1924818098254
 30
0.0
 11
508.6360008423553
 21
433.1924877798036
 31
0.0
  0
LINE
  5
3663
330
1A
100
AcDbEntity
  8
SEIHIN
  6
Continuous
 62
     3
 48
5.0
100
AcDbLine
 10
513.635950694535
 20
391.1924818098554
 30
0.0
 11
513.6360008423519
 21
433.1924818098254
 31
0.0
  0
LINE
  5
3664
330
1A
100
AcDbEntity
  8
SEIHIN
  6
Continuous
 62
     3
 48
5.0
100
AcDbLine
 10
504.1359506945418
 20
391.1924931528141
 30
0.0
 11
504.135976962446
 21
413.1924931527984
 31
0.0
  0
LINE
  5
3665
330
1A
100
AcDbEntity
  8
SEIHIN
  6
Continuous
 62
     3
 48
5.0
100
AcDbLine
 10
513.635950694535
 20
391.1924818098554
 30
0.0
 11
504.1359506945418
 21
391.1924931528141
 31
0.0
  0
ARC
  5
3666
330
1A
100
AcDbEntity
  8
SEIHIN
  6
Continuous
 62
     3
 48
5.0
100
AcDbCircle
 10
648.6358888295144
 20
492.1924030061803
 30
0.0
 40
2.0
100
AcDbArc
 50
0.0
 51
180.0
  0
ARC
  5
3667
330
1A
100
AcDbEntity
  8
SEIHIN
  6
Continuous
 62
     3
 48
5.0
100
AcDbCircle
 10
648.6358888295144
 20
492.1924030061803
 30
0.0
 40
2.0
100
AcDbArc
 50
180.0
 51
0.0
  0
ARC
  5
3668
330
1A
100
AcDbEntity
  8
SEIHIN
  6
Continuous
 62
     3
 48
5.0
100
AcDbCircle
 10
633.6358888295146
 20
477.1924030061803
 30
0.0
 40
2.0
100
AcDbArc
 50
180.0
 51
0.0
  0
ARC
  5
3669
330
1A
100
AcDbEntity
  8
SEIHIN
  6
Continuous
 62
     3
 48
5.0
100
AcDbCircle
 10
633.6358888295146
 20
477.1924030061803
 30
0.0
 40
2.0
100
AcDbArc
 50
0.0
 51
180.0
  0
LINE
  5
366A
330
1A
100
AcDbEntity
  8
CENTER L
  6
CENTER
 62
     1
 48
5.0
100
AcDbLine
 10
640.3106888295146
 20
492.1924030061803
 30
0.0
 11
657.7829888295146
 21
492.1924030061803
 31
0.0
  0
ARC
  5
366B
330
1A
100
AcDbEntity
  8
SEIHIN
  6
Continuous
 62
     3
 48
5.0
100
AcDbCircle
 10
648.6358888295144
 20
492.1924030061803
 30
0.0
 40
5.499999999999943
100
AcDbArc
 50
180.0
 51
0.0
  0
ARC
  5
366C
330
1A
100
AcDbEntity
  8
SEIHIN
  6
Continuous
 62
     3
 48
5.0
100
AcDbCircle
 10
648.6358888295144
 20
492.1924030061803
 30
0.0
 40
4.000000000000056
100
AcDbArc
 50
0.0
 51
180.0
  0
ARC
  5
366D
330
1A
100
AcDbEntity
  8
SEIHIN
  6
Continuous
 62
     3
 48
5.0
100
AcDbCircle
 10
648.6358888295144
 20
492.1924030061803
 30
0.0
 40
4.000000000000056
100
AcDbArc
 50
180.0
 51
0.0
  0
ARC
  5
366E
330
1A
100
AcDbEntity
  8
SEIHIN
  6
Continuous
 62
     3
 48
5.0
100
AcDbCircle
 10
648.6358888295144
 20
492.1924030061803
 30
0.0
 40
5.499999999999943
100
AcDbArc
 50
0.0
 51
180.0
  0
LINE
  5
366F
330
1A
100
AcDbEntity
  8
CENTER L
  6
CENTER
 62
     1
 48
5.0
100
AcDbLine
 10
648.6358888295146
 20
484.2243030061803
 30
0.0
 11
648.6358888295146
 21
499.7061030061803
 31
0.0
  0
ARC
  5
3670
330
1A
100
AcDbEntity
  8
SEIHIN
  6
Continuous
 62
     3
 48
5.0
100
AcDbCircle
 10
648.6358388295148
 20
492.1924530061802
 30
0.0
 40
7.200050000173528
100
AcDbArc
 50
359.9996021154058
 51
89.99960211540621
  0
ARC
  5
3671
330
1A
100
AcDbEntity
  8
SEIHIN
  6
Continuous
 62
     3
 48
5.0
100
AcDbCircle
 10
648.6358888295144
 20
492.1924030061803
 30
0.0
 40
8.999999999999943
100
AcDbArc
 50
359.9999999999996
 51
90.0
  0
LINE
  5
3672
330
1A
100
AcDbEntity
  8
SEIHIN
  6
Continuous
 62
     3
 48
5.0
100
AcDbLine
 10
657.6358888295144
 20
427.1924030061803
 30
0.0
 11
657.6358888295144
 21
454.7024030061804
 31
0.0
  0
LINE
  5
3673
330
1A
100
AcDbEntity
  8
SEIHIN
  6
Continuous
 62
     3
 48
5.0
100
AcDbLine
 10
654.3358888295145
 20
421.6924030061803
 30
0.0
 11
655.8358888295146
 21
421.6924030061803
 31
0.0
  0
LINE
  5
3674
330
1A
100
AcDbEntity
  8
SEIHIN
  6
Continuous
 62
     3
 48
5.0
100
AcDbLine
 10
654.3358888295145
 20
424.6924030061803
 30
0.0
 11
655.8358888295146
 21
424.6924030061803
 31
0.0
  0
ARC
  5
3675
330
1A
100
AcDbEntity
  8
SEIHIN
  6
Continuous
 62
     3
 48
5.0
100
AcDbCircle
 10
654.3358888295145
 20
423.1924030061803
 30
0.0
 40
1.5
100
AcDbArc
 50
90.0
 51
270.0
  0
ARC
  5
3676
330
1A
100
AcDbEntity
  8
SEIHIN
  6
Continuous
 62
     3
 48
5.0
100
AcDbCircle
 10
633.6358888295146
 20
369.1924030061804
 30
0.0
 40
2.0
100
AcDbArc
 50
0.0
 51
180.0
  0
LINE
  5
3677
330
1A
100
AcDbEntity
  8
CENTER L
  6
CENTER
 62
     1
 48
5.0
100
AcDbLine
 10
633.6358888295144
 20
380.1506030061803
 30
0.0
 11
633.6356888295145
 21
358.9797030061801
 31
0.0
  0
ARC
  5
3678
330
1A
100
AcDbEntity
  8
SEIHIN
  6
Continuous
 62
     3
 48
5.0
100
AcDbCircle
 10
633.6358888295146
 20
369.1924030061804
 30
0.0
 40
2.0
100
AcDbArc
 50
180.0
 51
0.0
  0
ARC
  5
3679
330
1A
100
AcDbEntity
  8
SEIHIN
  6
Continuous
 62
     3
 48
5.0
100
AcDbCircle
 10
648.6356888295144
 20
354.1923030061802
 30
0.0
 40
2.0
100
AcDbArc
 50
180.0
 51
0.0
  0
ARC
  5
367A
330
1A
100
AcDbEntity
  8
SEIHIN
  6
Continuous
 62
     3
 48
5.0
100
AcDbCircle
 10
648.6356888295144
 20
354.1923030061802
 30
0.0
 40
2.0
100
AcDbArc
 50
0.0
 51
180.0
  0
ARC
  5
367B
330
1A
100
AcDbEntity
  8
SEIHIN
  6
Continuous
 62
     3
 48
5.0
100
AcDbCircle
 10
648.6356888295144
 20
354.1923030061802
 30
0.0
 40
7.200000000000073
100
AcDbArc
 50
270.0
 51
359.9999999999992
  0
ARC
  5
367C
330
1A
100
AcDbEntity
  8
SEIHIN
  6
Continuous
 62
     3
 48
5.0
100
AcDbCircle
 10
648.6356888295144
 20
354.1923030061802
 30
0.0
 40
9.0
100
AcDbArc
 50
270.0
 51
0.0
  0
LINE
  5
367D
330
1A
100
AcDbEntity
  8
CENTER L
  6
CENTER
 62
     1
 48
5.0
100
AcDbLine
 10
640.6676888295146
 20
354.1923030061802
 30
0.0
 11
656.1494888295144
 21
354.1923030061802
 31
0.0
  0
ARC
  5
367E
330
1A
100
AcDbEntity
  8
SEIHIN
  6
Continuous
 62
     3
 48
5.0
100
AcDbCircle
 10
648.6356888295144
 20
354.1923030061802
 30
0.0
 40
5.499999999999943
100
AcDbArc
 50
180.0
 51
0.0
  0
ARC
  5
367F
330
1A
100
AcDbEntity
  8
SEIHIN
  6
Continuous
 62
     3
 48
5.0
100
AcDbCircle
 10
648.6356888295144
 20
354.1923030061802
 30
0.0
 40
4.0
100
AcDbArc
 50
180.0
 51
0.0
  0
ARC
  5
3680
330
1A
100
AcDbEntity
  8
SEIHIN
  6
Continuous
 62
     3
 48
5.0
100
AcDbCircle
 10
648.6356888295144
 20
354.1923030061802
 30
0.0
 40
5.499999999999943
100
AcDbArc
 50
0.0
 51
180.0
  0
LINE
  5
3681
330
1A
100
AcDbEntity
  8
CENTER L
  6
CENTER
 62
     1
 48
5.0
100
AcDbLine
 10
648.6356888295144
 20
362.5176030061804
 30
0.0
 11
648.6356888295144
 21
345.0452030061803
 31
0.0
  0
ARC
  5
3682
330
1A
100
AcDbEntity
  8
SEIHIN
  6
Continuous
 62
     3
 48
5.0
100
AcDbCircle
 10
648.6356888295144
 20
354.1923030061802
 30
0.0
 40
4.0
100
AcDbArc
 50
0.0
 51
180.0
  0
LINE
  5
3683
330
1A
100
AcDbEntity
  8
SEIHIN
  6
Continuous
 62
     3
 48
5.0
100
AcDbLine
 10
657.6358888295144
 20
423.1923030061802
 30
0.0
 11
657.6356888295144
 21
354.1923030061802
 31
0.0
  0
LINE
  5
3684
330
1A
100
AcDbEntity
  8
SEIHIN
  6
Continuous
 62
     3
 48
5.0
100
AcDbLine
 10
655.8358888295146
 20
421.6924030061803
 30
0.0
 11
655.8357888295144
 21
354.1923030061802
 31
0.0
  0
LINE
  5
3685
330
1A
100
AcDbEntity
  8
CENTER L
  6
CENTER
 62
     1
 48
5.0
100
AcDbLine
 10
633.6358888295144
 20
466.4176030061802
 30
0.0
 11
633.6358888295144
 21
486.5347030061801
 31
0.0
  0
LINE
  5
3686
330
1A
100
AcDbEntity
  8
SEIHIN
  6
Continuous
 62
     3
 48
5.0
100
AcDbLine
 10
655.8358888295146
 20
424.6924030061803
 30
0.0
 11
655.8357888295144
 21
492.1924030061803
 31
0.0
  0
LINE
  5
3687
330
1A
100
AcDbEntity
  8
SEIHIN
  6
Continuous
 62
     3
 48
5.0
100
AcDbLine
 10
657.6358888295144
 20
423.1924030061803
 30
0.0
 11
657.6358888295144
 21
492.1924030061803
 31
0.0
  0
DIMENSION
  5
3688
330
1A
100
AcDbEntity
  8
SUNPOU
 48
5.0
100
AcDbDimension
  2
*D14
 10
698.5110450052689
 20
369.1923030061802
 30
0.0
 11
693.5110450052688
 21
423.1370401495507
 31
0.0
 70
    32
 71
     5
 42
107.8894742867408
  3
STANDARD
100
AcDbAlignedDimension
 13
646.8300891537897
 23
477.0817772929209
 33
0.0
 14
642.9779888295144
 24
369.1923030061802
 34
0.0
 50
90.0
100
AcDbRotatedDimension
1001
ACAD
1000
DSTYLE
1002
{
1070
   140
1040
6.0
1070
    74
1070
     0
1070
   172
1070
     1
1070
    73
1070
     0
1070
   272
1070
     2
1070
    77
1070
     3
1070
   173
1070
     1
1070
   147
1040
2.0
1070
    42
1040
6.0
1070
    44
1040
3.0
1070
    43
1040
14.0
1070
   271
1070
     0
1070
   178
1070
     4
1070
   177
1070
     4
1070
   176
1070
     4
1070
   141
1040
150.0
1070
     7
1000
_OPEN
1070
     6
1000
_OPEN
1070
    41
1040
7.0
1002
}
  0
DIMENSION
  5
3689
330
1A
100
AcDbEntity
  8
SUNPOU
 48
5.0
100
AcDbDimension
  2
*D13
 10
717.3837755561416
 20
345.1923030062179
 30
0.0
 11
712.3837755561416
 21
423.1923530061992
 31
0.0
 70
    32
 71
     5
 42
156.0000999999624
  3
STANDARD
100
AcDbAlignedDimension
 13
648.6358888295146
 23
501.1924030061804
 33
0.0
 14
648.6356627424129
 24
345.1923030062179
 34
0.0
 50
90.0
100
AcDbRotatedDimension
1001
ACAD
1000
DSTYLE
1002
{
1070
   140
1040
6.0
1070
    74
1070
     0
1070
   172
1070
     1
1070
    73
1070
     0
1070
   272
1070
     2
1070
    77
1070
     3
1070
   173
1070
     1
1070
   147
1040
2.0
1070
    42
1040
6.0
1070
    44
1040
3.0
1070
    43
1040
14.0
1070
   271
1070
     0
1070
   178
1070
     4
1070
   177
1070
     4
1070
   176
1070
     4
1070
   141
1040
150.0
1070
     7
1000
_OPEN
1070
     6
1000
_OPEN
1070
    41
1040
7.0
1002
}
  0
LINE
  5
368A
330
1A
100
AcDbEntity
  8
SEIHIN
  6
Continuous
 62
     3
 48
5.0
100
AcDbLine
 10
581.1359888295146
 20
497.8925030061803
 30
0.0
 11
581.1359888295146
 21
499.3925030061801
 31
0.0
  0
LINE
  5
368B
330
1A
100
AcDbEntity
  8
SEIHIN
  6
Continuous
 62
     3
 48
5.0
100
AcDbLine
 10
578.1358888295144
 20
497.8925030061803
 30
0.0
 11
578.1358888295144
 21
499.3925030061801
 31
0.0
  0
ARC
  5
368C
330
1A
100
AcDbEntity
  8
SEIHIN
  6
Continuous
 62
     3
 48
5.0
100
AcDbCircle
 10
579.6359888295146
 20
497.8925030061803
 30
0.0
 40
1.5
100
AcDbArc
 50
180.0
 51
0.0
  0
ARC
  5
368D
330
1A
100
AcDbEntity
  8
SEIHIN
  6
Continuous
 62
     3
 48
5.0
100
AcDbCircle
 10
525.6358888295146
 20
477.1924030061803
 30
0.0
 40
2.0
100
AcDbArc
 50
180.0
 51
0.0
  0
ARC
  5
368E
330
1A
100
AcDbEntity
  8
SEIHIN
  6
Continuous
 62
     3
 48
5.0
100
AcDbCircle
 10
525.6358888295146
 20
477.1924030061803
 30
0.0
 40
2.0
100
AcDbArc
 50
0.0
 51
180.0
  0
ARC
  5
368F
330
1A
100
AcDbEntity
  8
SEIHIN
  6
Continuous
 62
     3
 48
5.0
100
AcDbCircle
 10
510.6358888295144
 20
492.1924030061803
 30
0.0
 40
1.999999999999943
100
AcDbArc
 50
0.0
 51
180.0
  0
ARC
  5
3690
330
1A
100
AcDbEntity
  8
SEIHIN
  6
Continuous
 62
     3
 48
5.0
100
AcDbCircle
 10
510.6358888295144
 20
492.1924030061803
 30
0.0
 40
1.999999999999943
100
AcDbArc
 50
180.0
 51
0.0
  0
LINE
  5
3691
330
1A
100
AcDbEntity
  8
CENTER L
  6
CENTER
 62
     1
 48
5.0
100
AcDbLine
 10
518.6039888295145
 20
492.1924030061803
 30
0.0
 11
503.1221888295147
 21
492.19250300618
 31
0.0
  0
ARC
  5
3692
330
1A
100
AcDbEntity
  8
SEIHIN
  6
Continuous
 62
     3
 48
5.0
100
AcDbCircle
 10
510.6358888295144
 20
492.1924030061803
 30
0.0
 40
5.499999999999943
100
AcDbArc
 50
180.0
 51
0.0
  0
ARC
  5
3693
330
1A
100
AcDbEntity
  8
SEIHIN
  6
Continuous
 62
     3
 48
5.0
100
AcDbCircle
 10
510.6358888295144
 20
492.1924030061803
 30
0.0
 40
3.999999999999943
100
AcDbArc
 50
0.0
 51
180.0
  0
ARC
  5
3694
330
1A
100
AcDbEntity
  8
SEIHIN
  6
Continuous
 62
     3
 48
5.0
100
AcDbCircle
 10
510.6358888295144
 20
492.1924030061803
 30
0.0
 40
3.999999999999943
100
AcDbArc
 50
180.0
 51
0.0
  0
ARC
  5
3695
330
1A
100
AcDbEntity
  8
SEIHIN
  6
Continuous
 62
     3
 48
5.0
100
AcDbCircle
 10
510.6358888295144
 20
492.1924030061803
 30
0.0
 40
5.499999999999943
100
AcDbArc
 50
0.0
 51
180.0
  0
LINE
  5
3696
330
1A
100
AcDbEntity
  8
CENTER L
  6
CENTER
 62
     1
 48
5.0
100
AcDbLine
 10
510.6358888295144
 20
483.8672030061802
 30
0.0
 11
510.6359888295146
 21
501.3396030061803
 31
0.0
  0
ARC
  5
3697
330
1A
100
AcDbEntity
  8
SEIHIN
  6
Continuous
 62
     3
 48
5.0
100
AcDbCircle
 10
510.6358888295144
 20
492.1924030061803
 30
0.0
 40
8.999999999999971
100
AcDbArc
 50
90.0
 51
180.0
  0
ARC
  5
3698
330
1A
100
AcDbEntity
  8
SEIHIN
  6
Continuous
 62
     3
 48
5.0
100
AcDbCircle
 10
510.6358888295144
 20
492.1924030061803
 30
0.0
 40
7.200099999999878
100
AcDbArc
 50
90.0
 51
179.9999999999996
  0
ARC
  5
3699
330
1A
100
AcDbEntity
  8
SEIHIN
  6
Continuous
 62
     3
 48
5.0
100
AcDbCircle
 10
525.6358888295146
 20
477.1924030061803
 30
0.0
 40
8.0
100
AcDbArc
 50
0.0
 51
180.0
  0
LINE
  5
369A
330
1A
100
AcDbEntity
  8
CENTER L
  6
CENTER
 62
     1
 48
5.0
100
AcDbLine
 10
536.4107888295145
 20
477.1924030061803
 30
0.0
 11
516.2936888295146
 21
477.1924030061803
 31
0.0
  0
LINE
  5
369B
330
1A
100
AcDbEntity
  8
SEIHIN
  6
Continuous
 62
     3
 48
5.0
100
AcDbLine
 10
579.6358888295146
 20
501.1924030061804
 30
0.0
 11
510.6359888295146
 21
501.1924030061804
 31
0.0
  0
LINE
  5
369C
330
1A
100
AcDbEntity
  8
SEIHIN
  6
Continuous
 62
     3
 48
5.0
100
AcDbLine
 10
578.1358888295144
 20
499.3925030061801
 30
0.0
 11
510.6359888295146
 21
499.3925030061801
 31
0.0
  0
LINE
  5
369D
330
1A
100
AcDbEntity
  8
SEIHIN
  6
Continuous
 62
     3
 48
5.0
100
AcDbLine
 10
579.6358888295146
 20
469.3925030061802
 30
0.0
 11
607.8358888295144
 21
469.3925030061802
 31
0.0
  0
LINE
  5
369E
330
1A
100
AcDbEntity
  8
SEIHIN
  6
DASHED
 62
     3
 48
0.1
100
AcDbLine
 10
579.6358888295146
 20
471.1924030061803
 30
0.0
 11
607.8358888295144
 21
471.1924030061803
 31
0.0
  0
LINE
  5
369F
330
1A
100
AcDbEntity
  8
SEIHIN
  6
Continuous
 62
     3
 48
5.0
100
AcDbLine
 10
625.8358888295145
 20
423.1924030061803
 30
0.0
 11
625.8357888295145
 21
394.9924030061803
 31
0.0
  0
LINE
  5
36A0
330
1A
100
AcDbEntity
  8
SEIHIN
  6
DASHED
 62
     3
 48
0.1
100
AcDbLine
 10
627.6358888295146
 20
423.1924030061803
 30
0.0
 11
627.6358888295146
 21
394.9924030061803
 31
0.0
  0
LINE
  5
36A1
330
1A
100
AcDbEntity
  8
SEIHIN
  6
Continuous
 62
     3
 48
5.0
100
AcDbLine
 10
625.8358888295145
 20
423.1924030061803
 30
0.0
 11
625.8358888295145
 21
451.3925030061803
 31
0.0
  0
LINE
  5
36A2
330
1A
100
AcDbEntity
  8
SEIHIN
  6
DASHED
 62
     3
 48
0.1
100
AcDbLine
 10
627.6358888295146
 20
423.1924030061803
 30
0.0
 11
627.6358888295146
 21
451.3925030061803
 31
0.0
  0
LINE
  5
36A3
330
1A
100
AcDbEntity
  8
SEIHIN
  6
Continuous
 62
     3
 48
5.0
100
AcDbLine
 10
508.6359888295146
 20
433.1924030061803
 30
0.0
 11
509.6359888295146
 21
433.1924030061803
 31
0.0
  0
ARC
  5
36A4
330
1A
100
AcDbEntity
  8
SEIHIN
  6
Continuous
 62
     3
 48
5.0
100
AcDbCircle
 10
551.4358888295146
 20
451.3925030061801
 30
0.0
 40
18.0
100
AcDbArc
 50
90.0
 51
179.9999999999996
  0
LINE
  5
36A5
330
1A
100
AcDbEntity
  8
SEIHIN
  6
Continuous
 62
     3
 48
5.0
100
AcDbLine
 10
533.4358888295146
 20
423.1925030061803
 30
0.0
 11
533.4357888295146
 21
394.9925030061803
 31
0.0
  0
LINE
  5
36A6
330
1A
100
AcDbEntity
  8
SEIHIN
  6
DASHED
 62
     3
 48
0.1
100
AcDbLine
 10
531.6358888295146
 20
423.1925030061803
 30
0.0
 11
531.6358888295146
 21
394.9925030061803
 31
0.0
  0
LINE
  5
36A7
330
1A
100
AcDbEntity
  8
SEIHIN
  6
Continuous
 62
     3
 48
5.0
100
AcDbLine
 10
504.9358888295146
 20
421.69250300618
 30
0.0
 11
503.4358888295145
 21
421.6926030061803
 31
0.0
  0
LINE
  5
36A8
330
1A
100
AcDbEntity
  8
SEIHIN
  6
Continuous
 62
     3
 48
5.0
100
AcDbLine
 10
504.9358888295146
 20
424.6925030061801
 30
0.0
 11
503.4358888295145
 21
424.6926030061803
 31
0.0
  0
ARC
  5
36A9
330
1A
100
AcDbEntity
  8
SEIHIN
  6
Continuous
 62
     3
 48
5.0
100
AcDbCircle
 10
504.9358888295146
 20
423.1925030061801
 30
0.0
 40
1.5
100
AcDbArc
 50
270.0
 51
90.0
  0
LINE
  5
36AA
330
1A
100
AcDbEntity
  8
SEIHIN
  6
Continuous
 62
     3
 48
5.0
100
AcDbLine
 10
533.4358888295146
 20
423.1924030061803
 30
0.0
 11
533.4358888295146
 21
451.3925030061803
 31
0.0
  0
LINE
  5
36AB
330
1A
100
AcDbEntity
  8
SEIHIN
  6
DASHED
 62
     3
 48
0.1
100
AcDbLine
 10
531.6358888295146
 20
423.1924030061803
 30
0.0
 11
531.6358888295146
 21
451.3925030061803
 31
0.0
  0
LINE
  5
36B0
330
1A
100
AcDbEntity
  8
SEIHIN
  6
Continuous
 62
     3
 48
5.0
100
AcDbLine
 10
579.6358888295146
 20
469.3925030061802
 30
0.0
 11
551.4358888295146
 21
469.3925030061802
 31
0.0
  0
LINE
  5
36B1
330
1A
100
AcDbEntity
  8
SEIHIN
  6
DASHED
 62
     3
 48
0.1
100
AcDbLine
 10
579.6358888295146
 20
471.1924030061803
 30
0.0
 11
551.4358888295146
 21
471.1924030061803
 31
0.0
  0
LINE
  5
36B2
330
1A
100
AcDbEntity
  8
SEIHIN
  6
Continuous
 62
     3
 48
5.0
100
AcDbLine
 10
589.6356888295144
 20
357.1924030061804
 30
0.0
 11
589.6356888295144
 21
352.1924030061804
 31
0.0
  0
LINE
  5
36B3
330
1A
100
AcDbEntity
  8
SEIHIN
  6
Continuous
 62
     3
 48
5.0
100
AcDbLine
 10
581.1356888295144
 20
348.4924030061803
 30
0.0
 11
581.1356888295144
 21
346.9924030061803
 31
0.0
  0
LINE
  5
36B4
330
1A
100
AcDbEntity
  8
SEIHIN
  6
Continuous
 62
     3
 48
5.0
100
AcDbLine
 10
578.1356888295144
 20
348.4924030061803
 30
0.0
 11
578.1356888295144
 21
346.9924030061803
 31
0.0
  0
LINE
  5
36B5
330
1A
100
AcDbEntity
  8
SEIHIN
  6
Continuous
 62
     3
 48
5.0
100
AcDbLine
 10
569.6356888295144
 20
349.1924030061804
 30
0.0
 11
569.6356888295144
 21
347.6924030061804
 31
0.0
  0
ARC
  5
36B6
330
1A
100
AcDbEntity
  8
SEIHIN
  6
Continuous
 62
     3
 48
5.0
100
AcDbCircle
 10
572.6356888295144
 20
349.1924030061804
 30
0.0
 40
3.0
100
AcDbArc
 50
90.0
 51
180.0
  0
ARC
  5
36B7
330
1A
100
AcDbEntity
  8
SEIHIN
  6
Continuous
 62
     3
 48
5.0
100
AcDbCircle
 10
579.6356888295145
 20
348.4924030061803
 30
0.0
 40
1.5
100
AcDbArc
 50
0.0
 51
180.0
  0
LINE
  5
36B8
330
1A
100
AcDbEntity
  8
SEIHIN
  6
Continuous
 62
     3
 48
5.0
100
AcDbLine
 10
589.6356888295144
 20
352.1924030061804
 30
0.0
 11
572.6356888295144
 21
352.1924030061804
 31
0.0
  0
LINE
  5
36B9
330
1A
100
AcDbEntity
  8
SEIHIN
  6
Continuous
 62
     3
 48
5.0
100
AcDbLine
 10
579.6358888295146
 20
376.9924030061803
 30
0.0
 11
607.8357888295145
 21
376.9924030061803
 31
0.0
  0
LINE
  5
36BA
330
1A
100
AcDbEntity
  8
SEIHIN
  6
DASHED
 62
     3
 48
0.1
100
AcDbLine
 10
579.6358888295146
 20
375.1924030061804
 30
0.0
 11
607.8357888295145
 21
375.1924030061804
 31
0.0
  0
LINE
  5
36BB
330
1A
100
AcDbEntity
  8
SEIHIN
  6
Continuous
 62
     3
 48
5.0
100
AcDbLine
 10
547.6356888295144
 20
357.1925030061803
 30
0.0
 11
547.6356888295144
 21
347.6925030061801
 31
0.0
  0
ARC
  5
36BC
330
1A
100
AcDbEntity
  8
SEIHIN
  6
Continuous
 62
     3
 48
5.0
100
AcDbCircle
 10
525.6358888295146
 20
369.1925030061804
 30
0.0
 40
2.0
100
AcDbArc
 50
0.0
 51
180.0
  0
LINE
  5
36BD
330
1A
100
AcDbEntity
  8
CENTER L
  6
CENTER
 62
     1
 48
5.0
100
AcDbLine
 10
525.6358888295146
 20
379.9673030061803
 30
0.0
 11
525.6356888295145
 21
359.8502030061803
 31
0.0
  0
ARC
  5
36BE
330
1A
100
AcDbEntity
  8
SEIHIN
  6
Continuous
 62
     3
 48
5.0
100
AcDbCircle
 10
525.6358888295146
 20
369.1925030061804
 30
0.0
 40
2.0
100
AcDbArc
 50
180.0
 51
0.0
  0
ARC
  5
36BF
330
1A
100
AcDbEntity
  8
SEIHIN
  6
Continuous
 62
     3
 48
5.0
100
AcDbCircle
 10
510.6356888295144
 20
354.1925030061801
 30
0.0
 40
2.0
100
AcDbArc
 50
0.0
 51
180.0
  0
ARC
  5
36C0
330
1A
100
AcDbEntity
  8
SEIHIN
  6
Continuous
 62
     3
 48
5.0
100
AcDbCircle
 10
510.6356888295144
 20
354.1925030061801
 30
0.0
 40
2.0
100
AcDbArc
 50
180.0
 51
0.0
  0
ARC
  5
36C1
330
1A
100
AcDbEntity
  8
SEIHIN
  6
Continuous
 62
     3
 48
5.0
100
AcDbCircle
 10
510.6356888295144
 20
354.1925030061801
 30
0.0
 40
7.199999999999903
100
AcDbArc
 50
180.0000000000004
 51
270.0
  0
ARC
  5
36C2
330
1A
100
AcDbEntity
  8
SEIHIN
  6
Continuous
 62
     3
 48
5.0
100
AcDbCircle
 10
510.6356888295144
 20
354.1925030061801
 30
0.0
 40
8.999999999999943
100
AcDbArc
 50
179.9999999999996
 51
270.0
  0
LINE
  5
36C3
330
1A
100
AcDbEntity
  8
CENTER L
  6
CENTER
 62
     1
 48
5.0
100
AcDbLine
 10
518.9610888295146
 20
354.1925030061801
 30
0.0
 11
501.4885888295146
 21
354.1925030061801
 31
0.0
  0
ARC
  5
36C4
330
1A
100
AcDbEntity
  8
SEIHIN
  6
Continuous
 62
     3
 48
5.0
100
AcDbCircle
 10
510.6356888295144
 20
354.1925030061801
 30
0.0
 40
4.0
100
AcDbArc
 50
180.0
 51
0.0
  0
ARC
  5
36C5
330
1A
100
AcDbEntity
  8
SEIHIN
  6
Continuous
 62
     3
 48
5.0
100
AcDbCircle
 10
510.6356888295144
 20
354.1925030061801
 30
0.0
 40
5.499999999999971
100
AcDbArc
 50
180.0
 51
0.0
  0
ARC
  5
36C6
330
1A
100
AcDbEntity
  8
SEIHIN
  6
Continuous
 62
     3
 48
5.0
100
AcDbCircle
 10
510.6356888295144
 20
354.1925030061801
 30
0.0
 40
4.0
100
AcDbArc
 50
0.0
 51
180.0
  0
ARC
  5
36C7
330
1A
100
AcDbEntity
  8
SEIHIN
  6
Continuous
 62
     3
 48
5.0
100
AcDbCircle
 10
510.6356888295144
 20
354.1925030061801
 30
0.0
 40
5.499999999999971
100
AcDbArc
 50
0.0
 51
180.0
  0
LINE
  5
36C8
330
1A
100
AcDbEntity
  8
CENTER L
  6
CENTER
 62
     1
 48
5.0
100
AcDbLine
 10
510.6356888295144
 20
362.1606030061802
 30
0.0
 11
510.6356888295144
 21
346.6788030061804
 31
0.0
  0
ARC
  5
36C9
330
1A
100
AcDbEntity
  8
SEIHIN
  6
Continuous
 62
     3
 48
5.0
100
AcDbCircle
 10
525.6358888295146
 20
369.1925030061804
 30
0.0
 40
8.0
100
AcDbArc
 50
180.0
 51
0.0
  0
LINE
  5
36CA
330
1A
100
AcDbEntity
  8
CENTER L
  6
CENTER
 62
     1
 48
5.0
100
AcDbLine
 10
536.5940888295146
 20
369.1925030061804
 30
0.0
 11
515.4230888295146
 21
369.1925030061804
 31
0.0
  0
ARC
  5
36CB
330
1A
100
AcDbEntity
  8
SEIHIN
  6
Continuous
 62
     3
 48
5.0
100
AcDbCircle
 10
525.6358888295146
 20
369.1925030061804
 30
0.0
 40
8.0
100
AcDbArc
 50
0.0
 51
180.0
  0
LINE
  5
36CC
330
1A
100
AcDbEntity
  8
SEIHIN
  6
Continuous
 62
     3
 48
5.0
100
AcDbLine
 10
579.6356888295145
 20
345.1924030061804
 30
0.0
 11
510.6356888295144
 21
345.1925030061801
 31
0.0
  0
LINE
  5
36CD
330
1A
100
AcDbEntity
  8
SEIHIN
  6
Continuous
 62
     3
 48
5.0
100
AcDbLine
 10
578.1356888295144
 20
346.9924030061803
 30
0.0
 11
510.6356888295144
 21
346.9926030061802
 31
0.0
  0
LINE
  5
36CE
330
1A
100
AcDbEntity
  8
SEIHIN
  6
Continuous
 62
     3
 48
5.0
100
AcDbLine
 10
579.6358888295146
 20
376.9924030061803
 30
0.0
 11
551.4357888295146
 21
376.9925030061803
 31
0.0
  0
LINE
  5
36CF
330
1A
100
AcDbEntity
  8
SEIHIN
  6
DASHED
 62
     3
 48
0.1
100
AcDbLine
 10
579.6358888295146
 20
375.1924030061804
 30
0.0
 11
551.4357888295146
 21
375.1924030061804
 31
0.0
  0
LINE
  5
36D0
330
1A
100
AcDbEntity
  8
SEIHIN
  6
Continuous
 62
     3
 48
5.0
100
AcDbLine
 10
547.6356888295144
 20
357.1925030061803
 30
0.0
 11
589.6358888295144
 21
357.1924030061804
 31
0.0
  0
LINE
  5
36D1
330
1A
100
AcDbEntity
  8
SEIHIN
  6
Continuous
 62
     3
 48
5.0
100
AcDbLine
 10
547.6356888295144
 20
347.6925030061801
 30
0.0
 11
569.6356888295144
 21
347.6924030061804
 31
0.0
  0
ARC
  5
36D2
330
1A
100
AcDbEntity
  8
SEIHIN
  6
Continuous
 62
     3
 48
5.0
100
AcDbCircle
 10
551.4357888295146
 20
394.9925030061803
 30
0.0
 40
18.0
100
AcDbArc
 50
180.0
 51
270.0
  0
ARC
  5
36D3
330
1A
100
AcDbEntity
  8
SEIHIN
  6
DASHED
 62
     3
 48
0.1
100
AcDbCircle
 10
551.4357888295146
 20
394.9925030061803
 30
0.0
 40
19.80000000000012
100
AcDbArc
 50
180.0
 51
270.0
  0
LINE
  5
36D4
330
1A
100
AcDbEntity
  8
SEIHIN
  6
Continuous
 62
     3
 48
5.0
100
AcDbLine
 10
501.6358888295144
 20
423.1925030061803
 30
0.0
 11
501.6356888295145
 21
354.1925030061801
 31
0.0
  0
LINE
  5
36D5
330
1A
100
AcDbEntity
  8
SEIHIN
  6
Continuous
 62
     3
 48
5.0
100
AcDbLine
 10
503.4358888295145
 20
421.6926030061803
 30
0.0
 11
503.4357888295146
 21
354.1925030061801
 31
0.0
  0
LINE
  5
36D6
330
1A
100
AcDbEntity
  8
CENTER L
  6
CENTER
 62
     1
 48
5.0
100
AcDbLine
 10
525.6358888295146
 20
466.23420300618
 30
0.0
 11
525.6358888295146
 21
487.4052030061801
 31
0.0
  0
LINE
  5
36D7
330
1A
100
AcDbEntity
  8
CENTER L
  6
CENTER
 62
     1
 48
5.0
100
AcDbLine
 10
579.6358888295146
 20
339.3790030061804
 30
0.0
 11
579.6359867967632
 21
503.4788467444581
 31
0.0
  0
LINE
  5
36D8
330
1A
100
AcDbEntity
  8
SEIHIN
  6
Continuous
 62
     3
 48
5.0
100
AcDbLine
 10
501.6358888295144
 20
423.1925030061803
 30
0.0
 11
501.6358888295144
 21
492.1924030061803
 31
0.0
  0
LINE
  5
36D9
330
1A
100
AcDbEntity
  8
SEIHIN
  6
Continuous
 62
     3
 48
5.0
100
AcDbLine
 10
503.4358888295145
 20
424.6926030061803
 30
0.0
 11
503.4358888295145
 21
492.1924030061803
 31
0.0
  0
ARC
  5
36DA
330
1A
100
AcDbEntity
  8
SEIHIN
  6
DASHED
 62
     3
 48
0.1
100
AcDbCircle
 10
551.4358388295145
 20
451.3924530061802
 30
0.0
 40
19.79995000006315
100
AcDbArc
 50
89.99985531332409
 51
179.9998553133228
  0
ARC
  5
36DB
330
1A
100
AcDbEntity
  8
SEIHIN
  6
Continuous
 62
     3
 48
5.0
100
AcDbCircle
 10
525.6358888295146
 20
477.1924030061803
 30
0.0
 40
8.0
100
AcDbArc
 50
180.0
 51
0.0
  0
ARC
  5
36DC
330
1A
100
AcDbEntity
  8
SEIHIN
  6
Continuous
 62
     3
 48
5.0
100
AcDbCircle
 10
607.8357888295145
 20
394.9924030061803
 30
0.0
 40
18.0
100
AcDbArc
 50
270.0
 51
0.0
  0
ARC
  5
36DD
330
1A
100
AcDbEntity
  8
SEIHIN
  6
DASHED
 62
     3
 48
0.1
100
AcDbCircle
 10
607.8357888295145
 20
394.9924030061803
 30
0.0
 40
19.79999999999992
100
AcDbArc
 50
270.0
 51
0.0000000000004071
  0
ARC
  5
36DE
330
1A
100
AcDbEntity
  8
SEIHIN
  6
DASHED
 62
     3
 48
0.1
100
AcDbCircle
 10
607.8359388295146
 20
451.3924530061802
 30
0.0
 40
19.79995000006321
100
AcDbArc
 50
0.0001446866775417
 51
90.00014468667592
  0
ARC
  5
36DF
330
1A
100
AcDbEntity
  8
SEIHIN
  6
Continuous
 62
     3
 48
5.0
100
AcDbCircle
 10
607.8358888295144
 20
451.3925030061801
 30
0.0
 40
17.99999999999994
100
AcDbArc
 50
0.0
 51
90.0
  0
LINE
  5
36E0
330
1A
100
AcDbEntity
  8
SEIHIN
  6
Continuous
 62
     3
 48
5.0
100
AcDbLine
 10
581.1359888295146
 20
499.3925030061801
 30
0.0
 11
648.6358888295146
 21
499.3925030061801
 31
0.0
  0
LINE
  5
36E1
330
1A
100
AcDbEntity
  8
SEIHIN
  6
Continuous
 62
     3
 48
5.0
100
AcDbLine
 10
579.6358888295146
 20
501.1924030061804
 30
0.0
 11
648.6358888295146
 21
501.1924030061804
 31
0.0
  0
LINE
  5
36E2
330
1A
100
AcDbEntity
  8
CENTER L
  6
CENTER
 62
     1
 48
5.0
100
AcDbLine
 10
494.4693888295146
 20
423.1924030061803
 30
0.0
 11
663.9372888295144
 21
423.1924030061803
 31
0.0
  0
LINE
  5
36E3
330
1A
100
AcDbEntity
  8
SEIHIN
  6
Continuous
 62
     3
 48
5.0
100
AcDbLine
 10
579.6356888295145
 20
345.1924030061804
 30
0.0
 11
648.6356888295144
 21
345.1923030061802
 31
0.0
  0
LINE
  5
36E4
330
1A
100
AcDbEntity
  8
SEIHIN
  6
Continuous
 62
     3
 48
5.0
100
AcDbLine
 10
581.1356888295144
 20
346.9924030061803
 30
0.0
 11
648.6356888295144
 21
346.9924030061803
 31
0.0
  0
ARC
  5
36E5
330
1A
100
AcDbEntity
  8
SEIHIN
  6
Continuous
 62
     3
 48
5.0
100
AcDbCircle
 10
633.6358888295144
 20
477.1924030061803
 30
0.0
 40
8.0
100
AcDbArc
 50
0.0
 51
180.0
  0
ARC
  5
36E6
330
1A
100
AcDbEntity
  8
SEIHIN
  6
Continuous
 62
     3
 48
5.0
100
AcDbCircle
 10
633.6358888295144
 20
369.1924030061804
 30
0.0
 40
8.0
100
AcDbArc
 50
180.0
 51
0.0
  0
LINE
  5
36E7
330
1A
100
AcDbEntity
  8
CENTER L
  6
CENTER
 62
     1
 48
5.0
100
AcDbLine
 10
622.8609888295145
 20
369.1924030061804
 30
0.0
 11
642.9779888295144
 21
369.1923030061802
 31
0.0
  0
ARC
  5
36E8
330
1A
100
AcDbEntity
  8
SEIHIN
  6
Continuous
 62
     3
 48
5.0
100
AcDbCircle
 10
633.6358888295144
 20
369.1924030061804
 30
0.0
 40
8.0
100
AcDbArc
 50
0.0
 51
180.0
  0
LINE
  5
36E9
330
1A
100
AcDbEntity
  8
CENTER L
  6
CENTER
 62
     1
 48
5.0
100
AcDbLine
 10
622.6775888295144
 20
477.1924030061803
 30
0.0
 11
643.8484888295144
 21
477.1924030061803
 31
0.0
  0
ARC
  5
36EA
330
1A
100
AcDbEntity
  8
SEIHIN
  6
Continuous
 62
     3
 48
5.0
100
AcDbCircle
 10
633.6358888295144
 20
477.1924030061803
 30
0.0
 40
8.0
100
AcDbArc
 50
180.0
 51
0.0
  0
DIMENSION
  5
36EB
330
1A
100
AcDbEntity
  8
SUNPOU
 48
5.0
100
AcDbDimension
  2
*D12
 10
525.6356801858601
 20
323.2281888086405
 30
0.0
 11
579.6356845076872
 21
328.2281888086405
 31
0.0
 70
    32
 71
     5
 42
108.0000086436544
  3
STANDARD
100
AcDbAlignedDimension
 13
633.6356888295145
 23
358.9797030061802
 33
0.0
 14
525.6356801858601
 24
358.9807767196747
 34
0.0
100
AcDbRotatedDimension
1001
ACAD
1000
DSTYLE
1002
{
1070
   140
1040
6.0
1070
    74
1070
     0
1070
   172
1070
     1
1070
    73
1070
     0
1070
   272
1070
     2
1070
    77
1070
     3
1070
   173
1070
     1
1070
   147
1040
2.0
1070
    42
1040
6.0
1070
    44
1040
3.0
1070
    43
1040
14.0
1070
   271
1070
     0
1070
   178
1070
     4
1070
   177
1070
     4
1070
   176
1070
     4
1070
   141
1040
150.0
1070
     7
1000
_OPEN
1070
     6
1000
_OPEN
1070
    41
1040
7.0
1002
}
  0
DIMENSION
  5
36EC
330
1A
100
AcDbEntity
  8
SUNPOU
 48
5.0
100
AcDbDimension
  2
*D11
 10
679.6383170374501
 20
376.9924030061803
 30
0.0
 11
674.63831703745
 21
423.1924530061802
 31
0.0
 70
    32
  1
□ <>
 71
     5
 42
92.40009999999983
  3
STANDARD
100
AcDbAlignedDimension
 13
607.8358888295144
 23
469.3925030061802
 33
0.0
 14
607.8357888295145
 24
376.9924030061803
 34
0.0
 50
90.0
100
AcDbRotatedDimension
1001
ACAD
1000
DSTYLE
1002
{
1070
   140
1040
6.0
1070
    74
1070
     0
1070
   172
1070
     1
1070
    73
1070
     0
1070
   272
1070
     2
1070
    77
1070
     3
1070
   173
1070
     1
1070
   147
1040
2.0
1070
    42
1040
6.0
1070
    44
1040
3.0
1070
    43
1040
14.0
1070
   271
1070
     0
1070
   178
1070
     4
1070
   177
1070
     4
1070
   176
1070
     4
1070
   141
1040
150.0
1070
     7
1000
_OPEN
1070
     6
1000
_OPEN
1070
    41
1040
7.0
1002
}
  0
DIMENSION
  5
36ED
330
1A
100
AcDbEntity
  8
SUNPOU
 48
5.0
100
AcDbDimension
  2
*D10
 10
632.621620981648
 20
478.9161375370127
 30
0.0
 11
649.609305407054
 21
459.9051255212674
 31
0.0
 70
    35
 71
     5
 42
3.999999999999886
  3
STANDARD
100
AcDbDiametricDimension
 15
634.6501566773797
 25
475.4686684753472
 35
0.0
 40
0.0
1001
ACAD
1000
DSTYLE
1002
{
1070
   140
1040
6.0
1070
    74
1070
     0
1070
   172
1070
     1
1070
    73
1070
     0
1070
   272
1070
     2
1070
    77
1070
     3
1070
   173
1070
     1
1070
   147
1040
2.0
1070
    42
1040
6.0
1070
    44
1040
3.0
1070
    43
1040
14.0
1070
   271
1070
     0
1070
   178
1070
     4
1070
   177
1070
     4
1070
   176
1070
     4
1070
   141
1040
7.0
1070
     7
1000
_OPEN
1070
     6
1000
_OPEN
1070
    41
1040
7.0
1002
}
  0
LINE
  5
36EE
330
1A
100
AcDbEntity
  8
SEIHIN
100
AcDbLine
 10
501.6358888292248
 20
290.7711015540632
 30
0.0
 11
501.6358888292248
 21
280.7711015540632
 31
0.0
  0
LINE
  5
36EF
330
1A
100
AcDbEntity
  8
CENTER L
  6
CENTER
 62
     1
 48
5.0
100
AcDbLine
 10
579.6359045514122
 20
294.2246655484258
 30
0.0
 11
579.6359045514122
 21
262.9150141558913
 31
0.0
  0
LINE
  5
36F0
330
1A
100
AcDbEntity
  8
SEIHIN
100
AcDbLine
 10
501.6358888292248
 20
290.7711015540632
 30
0.0
 11
579.6359045514122
 21
290.7711015540632
 31
0.0
  0
LINE
  5
36F1
330
1A
100
AcDbEntity
  8
SEIHIN
100
AcDbLine
 10
533.4358888295146
 20
268.7711015540632
 30
0.0
 11
579.6359045514122
 21
268.7711015540632
 31
0.0
  0
LINE
  5
36F2
330
1A
100
AcDbEntity
  8
SEIHIN
100
AcDbLine
 10
503.6358888292247
 20
278.7711015540632
 30
0.0
 11
579.6359045514122
 21
278.7711015540632
 31
0.0
  0
LINE
  5
36F3
330
1A
100
AcDbEntity
  8
SEIHIN
100
AcDbLine
 10
533.4358888295146
 20
278.7711015540631
 30
0.0
 11
533.4358888295146
 21
268.7711015540632
 31
0.0
  0
ARC
  5
36F4
330
1A
100
AcDbEntity
  8
SEIHIN
100
AcDbCircle
 10
503.6358888292247
 20
280.7711015540632
 30
0.0
 40
2.0
100
AcDbArc
 50
180.0
 51
270.0
  0
LINE
  5
36F5
330
1A
100
AcDbEntity
  8
SEIHIN
100
AcDbLine
 10
508.6359888295146
 20
433.1924030061803
 30
0.0
 11
508.6359888295146
 21
416.1924931527984
 31
0.0
  0
ARC
  5
36F6
330
1A
100
AcDbEntity
  8
SEIHIN
 48
5.0
100
AcDbCircle
 10
505.6359888295146
 20
416.1924931527984
 30
0.0
 40
3.0
100
AcDbArc
 50
270.0
 51
0.0
  0
LINE
  5
36F7
330
1A
100
AcDbEntity
  8
SEIHIN
  6
Continuous
 62
     3
 48
5.0
100
AcDbLine
 10
645.6358888295144
 20
391.1924030061801
 30
0.0
 11
655.1358888295147
 21
391.1924030061801
 31
0.0
  0
LINE
  5
36F8
330
1A
100
AcDbEntity
  8
SEIHIN
  6
Continuous
 62
     3
 48
5.0
100
AcDbLine
 10
645.6358888295144
 20
391.1924030061801
 30
0.0
 11
645.6358888295144
 21
433.1924030061801
 31
0.0
  0
ARC
  5
36F9
330
1A
100
AcDbEntity
  8
SEIHIN
 48
5.0
100
AcDbCircle
 10
653.6358805444337
 20
416.1924047971855
 30
0.0
 40
3.0
100
AcDbArc
 50
179.999931589089
 51
269.9999315890872
  0
LINE
  5
36FA
330
1A
100
AcDbEntity
  8
SEIHIN
100
AcDbLine
 10
650.6359008422544
 20
433.1923182325423
 30
0.0
 11
650.635880544436
 21
416.1924083791725
 31
0.0
  0
LINE
  5
36FB
330
1A
100
AcDbEntity
  8
SEIHIN
  6
Continuous
 62
     3
 48
5.0
100
AcDbLine
 10
655.1358888295147
 20
391.1924030061801
 30
0.0
 11
655.1358888295147
 21
413.1924030061801
 31
0.0
  0
LINE
  5
36FC
330
1A
100
AcDbEntity
  8
SEIHIN
  6
Continuous
 62
     3
 48
5.0
100
AcDbLine
 10
655.1358888295147
 20
413.1924030061801
 30
0.0
 11
653.6358769624468
 21
413.1924047971877
 31
0.0
  0
LINE
  5
36FD
330
1A
100
AcDbEntity
  8
SEIHIN
  6
Continuous
 62
     3
 48
5.0
100
AcDbLine
 10
650.6359008422544
 20
433.1923182325423
 30
0.0
 11
649.635900842255
 21
433.192319426538
 31
0.0
  0
LINE
  5
36FE
330
1A
100
AcDbEntity
  8
SEIHIN
  6
Continuous
 62
     3
 48
5.0
100
AcDbLine
 10
645.6358888295144
 20
433.1924030061801
 30
0.0
 11
650.6358888295149
 21
433.1924030061801
 31
0.0
  0
DIMENSION
  5
36FF
330
1A
100
AcDbEntity
  8
SUNPOU
100
AcDbDimension
  2
*D9
 10
476.9500974369984
 20
268.7711015540632
 30
0.0
 11
471.9500974369984
 21
279.7711015540632
 31
0.0
 70
    32
 71
     5
 42
22.00000000000006
  3
DIM-2
100
AcDbAlignedDimension
 13
501.6358888292248
 23
290.7711015540632
 33
0.0
 14
533.4358888295146
 24
268.7711015540632
 34
0.0
 50
90.0
100
AcDbRotatedDimension
  0
DIMENSION
  5
3700
330
1A
100
AcDbEntity
  8
SUNPOU
100
AcDbDimension
  2
*D8
 10
491.0214028804193
 20
278.7711015540632
 30
0.0
 11
486.0214028804192
 21
265.7711015540633
 31
0.0
 70
    32
 71
     5
 42
12.0
  3
DIM-2
100
AcDbAlignedDimension
 13
501.6358888292248
 23
290.7711015540632
 33
0.0
 14
503.6358888292247
 24
278.7711015540632
 34
0.0
 50
90.0
100
AcDbRotatedDimension
  0
ARC
  5
3701
330
1A
100
AcDbEntity
  8
SEIHIN
100
AcDbCircle
 10
655.6359202735998
 20
280.7711015540632
 30
0.0
 40
2.0
100
AcDbArc
 50
270.0
 51
0.0
  0
LINE
  5
3702
330
1A
100
AcDbEntity
  8
SEIHIN
100
AcDbLine
 10
625.83592027331
 20
278.7711015540631
 30
0.0
 11
625.83592027331
 21
268.7711015540632
 31
0.0
  0
LINE
  5
3703
330
1A
100
AcDbEntity
  8
SEIHIN
100
AcDbLine
 10
657.6359202735998
 20
290.7711015540632
 30
0.0
 11
657.6359202735998
 21
280.7711015540632
 31
0.0
  0
LINE
  5
3704
330
1A
100
AcDbEntity
  8
SEIHIN
100
AcDbLine
 10
655.6359202735998
 20
278.7711015540632
 30
0.0
 11
579.6359045514122
 21
278.7711015540632
 31
0.0
  0
LINE
  5
3705
330
1A
100
AcDbEntity
  8
SEIHIN
100
AcDbLine
 10
625.83592027331
 20
268.7711015540632
 30
0.0
 11
579.6359045514122
 21
268.7711015540632
 31
0.0
  0
LINE
  5
3706
330
1A
100
AcDbEntity
  8
SEIHIN
100
AcDbLine
 10
657.6359202735998
 20
290.7711015540632
 30
0.0
 11
579.6359045514122
 21
290.7711015540632
 31
0.0
  0
LINE
  5
3707
330
1A
100
AcDbEntity
  8
CENTER L
  6
CENTER
 62
     1
 48
5.0
100
AcDbLine
 10
510.6356888295144
 20
294.0581059839741
 30
0.0
 11
510.6356888295144
 21
276.0486621076197
 31
0.0
  0
LINE
  5
3708
330
1A
100
AcDbEntity
  8
CENTER L
  6
CENTER
 62
     1
 48
5.0
100
AcDbLine
 10
525.6358253086841
 20
294.705929976381
 30
0.0
 11
525.6356888295145
 21
275.6599686433089
 31
0.0
  0
LINE
  5
3709
330
1A
100
AcDbEntity
  8
CENTER L
  6
CENTER
 62
     1
 48
5.0
100
AcDbLine
 10
633.6359837941404
 20
294.705929976381
 30
0.0
 11
633.6361202733101
 21
275.6599686433089
 31
0.0
  0
LINE
  5
370A
330
1A
100
AcDbEntity
  8
CENTER L
  6
CENTER
 62
     1
 48
5.0
100
AcDbLine
 10
648.6361202733101
 20
294.0581059839741
 30
0.0
 11
648.6361202733101
 21
276.0486621076197
 31
0.0
  0
LINE
  5
370B
330
1A
100
AcDbEntity
  8
SEIHIN
100
AcDbLine
 10
192.4386637861525
 20
269.4580028553082
 30
0.0
 11
192.4386637861525
 21
259.4579923276325
 31
0.0
  0
LINE
  5
370C
330
1A
100
AcDbEntity
  8
SEIHIN
  6
Continuous
 62
     3
 48
5.0
100
AcDbLine
 10
192.4386637861525
 20
269.4580028553082
 30
0.0
 11
270.4388811461517
 21
269.457592280214
 31
0.0
  0
LINE
  5
370D
330
1A
100
AcDbEntity
  8
SEIHIN
  6
Continuous
 62
     3
 48
5.0
100
AcDbLine
 10
194.4386532586154
 20
257.4579923276602
 30
0.0
 11
270.4388179809287
 21
257.4575922803802
 31
0.0
  0
LINE
  5
370E
330
1A
100
AcDbEntity
  8
SEIHIN
  6
DASHED
 62
     3
 48
0.1
100
AcDbLine
 10
196.4386647566045
 20
258.9577670318344
 30
0.0
 11
196.4386647566045
 21
261.467331298011
 31
0.0
  0
LINE
  5
370F
330
1A
100
AcDbEntity
  8
SEIHIN
  6
DASHED
 62
     3
 48
0.1
100
AcDbLine
 10
203.4389334017269
 20
261.4575986005647
 30
0.0
 11
203.4389179817904
 21
257.4579449523499
 31
0.0
  0
ARC
  5
3710
330
1A
100
AcDbEntity
  8
SEIHIN
  6
DASHED
 62
     3
 48
0.1
100
AcDbCircle
 10
199.9387923320867
 20
261.4576120947211
 30
0.0
 40
3.500141069666142
100
AcDbArc
 50
359.9997791065561
 51
180.1590993143693
  0
LINE
  5
3711
330
1A
100
AcDbEntity
  8
SEIHIN
  6
DASHED
 62
     3
 48
0.1
100
AcDbLine
 10
199.4388239240113
 20
258.9577551452369
 30
0.0
 11
196.4386647566045
 21
258.9577670318344
 31
0.0
  0
DIMENSION
  5
3712
330
1A
100
AcDbEntity
  8
SUNPOU
 48
5.0
100
AcDbDimension
  2
*D7
 10
370.4412246522938
 20
127.9574922806145
 30
0.0
 11
365.4412246522938
 21
192.7075922806145
 31
0.0
 70
    32
 71
     5
 42
129.5001999999998
  3
STANDARD
100
AcDbAlignedDimension
 13
341.4386963529173
 23
257.4576922806144
 33
0.0
 14
300.4374964443584
 24
127.9574922806146
 34
0.0
 50
90.0
100
AcDbRotatedDimension
1001
ACAD
1000
DSTYLE
1002
{
1070
    41
1040
7.0
1070
    42
1040
6.0
1070
    43
1040
14.0
1070
    44
1040
3.0
1070
    73
1070
     0
1070
    74
1070
     0
1070
    77
1070
     3
1070
   140
1040
6.0
1070
   141
1040
150.0
1070
   147
1040
2.0
1070
   172
1070
     1
1070
   173
1070
     1
1070
   176
1070
     4
1070
   177
1070
     4
1070
   178
1070
     4
1070
   271
1070
     0
1070
   272
1070
     2
1070
   343
1005
6D
1070
   344
1005
6D
1002
}
  0
LINE
  5
3713
330
1A
100
AcDbEntity
  8
SEIHIN
  6
DASHED
 62
     3
 48
0.1
100
AcDbLine
 10
341.438696284353
 20
258.9574814179126
 30
0.0
 11
344.4388554517832
 21
258.9574817379428
 31
0.0
  0
ARC
  5
3714
330
1A
100
AcDbEntity
  8
SEIHIN
  6
DASHED
 62
     3
 48
0.1
100
AcDbCircle
 10
340.9387375140245
 20
261.4573402949154
 30
0.0
 40
3.500141069666142
100
AcDbArc
 50
359.8406797921867
 51
180.0
  0
LINE
  5
3715
330
1A
100
AcDbEntity
  8
SEIHIN
  6
DASHED
 62
     3
 48
0.1
100
AcDbLine
 10
337.4385964443586
 20
261.4573402949154
 30
0.0
 11
337.4385964443586
 21
257.4576866466709
 31
0.0
  0
LINE
  5
3716
330
1A
100
AcDbEntity
  8
SEIHIN
  6
DASHED
 62
     3
 48
0.1
100
AcDbLine
 10
344.4388554517832
 20
258.9574817379428
 30
0.0
 11
344.4388651269514
 21
261.4670460041009
 31
0.0
  0
DIMENSION
  5
3717
330
1A
100
AcDbEntity
  8
SUNPOU
 48
5.0
100
AcDbDimension
  2
*D6
 10
341.4386964443584
 20
232.9211646172049
 30
0.0
 11
270.4386964443584
 21
232.9211646172049
 31
0.0
 70
   160
 71
     5
 42
142.0
  3
STANDARD
100
AcDbAlignedDimension
 13
199.4386964443583
 23
257.4576922806146
 33
0.0
 14
341.4386964443584
 24
257.4576922806146
 34
0.0
100
AcDbRotatedDimension
1001
ACAD
1000
DSTYLE
1002
{
1070
    41
1040
7.0
1070
    42
1040
6.0
1070
    43
1040
14.0
1070
    44
1040
3.0
1070
    73
1070
     0
1070
    74
1070
     0
1070
    77
1070
     3
1070
   140
1040
6.0
1070
   141
1040
150.0
1070
   147
1040
2.0
1070
   172
1070
     1
1070
   173
1070
     1
1070
   176
1070
     4
1070
   177
1070
     4
1070
   178
1070
     4
1070
   271
1070
     0
1070
   272
1070
     2
1070
   343
1005
6D
1070
   344
1005
6D
1002
}
  0
LINE
  5
3718
330
1A
100
AcDbEntity
  8
SEIHIN
  6
Continuous
 62
     3
 48
5.0
100
AcDbLine
 10
341.1424964443583
 20
255.4574922806145
 30
0.0
 11
341.4386964443584
 21
255.4574922806145
 31
0.0
  0
LINE
  5
3719
330
1A
100
AcDbEntity
  8
SEIHIN
  6
DASHED
 62
     3
 48
0.1
100
AcDbLine
 10
341.438696284353
 20
258.9574814179126
 30
0.0
 11
341.4386960119537
 21
257.457692280614
 31
0.0
  0
ARC
  5
371A
330
1A
100
AcDbEntity
  8
SEIHIN
  6
Continuous
 62
     3
 48
5.0
100
AcDbCircle
 10
341.1424727875929
 20
252.4574709599327
 30
0.0
 40
3.000021320775042
100
AcDbArc
 50
89.99954819227113
 51
174.0531204528092
  0
ARC
  5
371B
330
1A
100
AcDbEntity
  8
SEIHIN
  6
Continuous
 62
     3
 48
5.0
100
AcDbCircle
 10
332.1424279676189
 20
252.4575206908836
 30
0.0
 40
2.999971589896518
100
AcDbArc
 50
90.00060205562572
 51
174.0539764538054
  0
ARC
  5
371C
330
1A
100
AcDbEntity
  8
SEIHIN
  6
Continuous
 62
     3
 48
5.0
100
AcDbCircle
 10
301.4013978602877
 20
189.4574951799922
 30
0.0
 40
30.00004817871133
100
AcDbArc
 50
313.8891611108014
 51
354.0531074135306
  0
LINE
  5
371D
330
1A
100
AcDbEntity
  8
SEIHIN
  6
Continuous
 62
     3
 48
5.0
100
AcDbLine
 10
329.1585964443584
 20
252.7682922806146
 30
0.0
 11
322.2398964443585
 21
186.3493922806145
 31
0.0
  0
LINE
  5
371E
330
1A
100
AcDbEntity
  8
SEIHIN
  6
Continuous
 62
     3
 48
5.0
100
AcDbLine
 10
338.1585964443584
 20
252.7682922806146
 30
0.0
 11
331.2398964443582
 21
186.3492922806145
 31
0.0
  0
ARC
  5
371F
330
1A
100
AcDbEntity
  8
SEIHIN
  6
Continuous
 62
     3
 48
5.0
100
AcDbCircle
 10
208.735064921098
 20
252.4577206908837
 30
0.0
 40
2.999971589896497
100
AcDbArc
 50
5.946023546192546
 51
89.99939794436777
  0
LINE
  5
3720
330
1A
100
AcDbEntity
  8
SEIHIN
  6
Continuous
 62
     3
 48
5.0
100
AcDbLine
 10
199.7350964443585
 20
255.4576922806146
 30
0.0
 11
199.4387964443583
 21
255.4576922806146
 31
0.0
  0
LINE
  5
3721
330
1A
100
AcDbEntity
  8
SEIHIN
  6
DASHED
 62
     3
 48
0.1
100
AcDbLine
 10
199.4387023875908
 20
258.9577551457185
 30
0.0
 11
199.4387069733363
 21
257.4579660085346
 31
0.0
  0
ARC
  5
3722
330
1A
100
AcDbEntity
  8
SEIHIN
  6
Continuous
 62
     3
 48
5.0
100
AcDbCircle
 10
199.735064921098
 20
252.4577206908837
 30
0.0
 40
2.999971589896497
100
AcDbArc
 50
5.946023546192546
 51
89.99939794436777
  0
LINE
  5
3723
330
1A
100
AcDbEntity
  8
SEIHIN
  6
Continuous
 62
     3
 48
5.0
100
AcDbLine
 10
270.4385964443582
 20
255.4574922806145
 30
0.0
 11
199.7350964443585
 21
255.4576922806146
 31
0.0
  0
LINE
  5
3724
330
1A
100
AcDbEntity
  8
SEIHIN
  6
Continuous
 62
     3
 48
5.0
100
AcDbLine
 10
319.4386964443584
 20
159.4572922806145
 30
0.0
 11
319.4386964443584
 21
161.3508922806145
 31
0.0
  0
LINE
  5
3725
330
1A
100
AcDbEntity
  8
SEIHIN
  6
Continuous
 62
     3
 48
5.0
100
AcDbLine
 10
310.4386964443583
 20
159.4573922806146
 30
0.0
 11
310.4386964443583
 21
161.3508922806145
 31
0.0
  0
ARC
  5
3726
330
1A
100
AcDbEntity
  8
SEIHIN
  6
Continuous
 62
     3
 48
5.0
100
AcDbCircle
 10
319.4386854879563
 20
161.3508665380641
 30
0.0
 40
8.999989043634689
100
AcDbArc
 50
133.8892236900305
 51
179.9998361176354
  0
ARC
  5
3727
330
1A
100
AcDbEntity
  8
SEIHIN
  6
Continuous
 62
     3
 48
5.0
100
AcDbCircle
 10
304.7175366464821
 20
156.5038020852918
 30
0.0
 40
8.999959798545942
100
AcDbArc
 50
319.7815224649553
 51
359.9993009585913
  0
LINE
  5
3728
330
1A
100
AcDbEntity
  8
SEIHIN
  6
Continuous
 62
     3
 48
5.0
100
AcDbLine
 10
304.7694964443585
 20
159.4573922806146
 30
0.0
 11
304.7694964443585
 21
156.3203922806144
 31
0.0
  0
LINE
  5
3729
330
1A
100
AcDbEntity
  8
SEIHIN
  6
Continuous
 62
     3
 48
5.0
100
AcDbLine
 10
313.7174964443582
 20
159.4574922806144
 30
0.0
 11
313.7174964443582
 21
156.5036922806146
 31
0.0
  0
ARC
  5
372A
330
1A
100
AcDbEntity
  8
SEIHIN
  6
Continuous
 62
     3
 48
5.0
100
AcDbCircle
 10
295.7695366464825
 20
156.3205020852917
 30
0.0
 40
8.999959798545816
100
AcDbArc
 50
319.7815224649553
 51
359.9993009585909
  0
LINE
  5
372B
330
1A
100
AcDbEntity
  8
SEIHIN
  6
Continuous
 62
     3
 48
5.0
100
AcDbLine
 10
300.4374964443584
 20
134.9574922806146
 30
0.0
 11
300.4374964443584
 21
127.9574922806146
 31
0.0
  0
LINE
  5
372C
330
1A
100
AcDbEntity
  8
SEIHIN
  6
Continuous
 62
     3
 48
5.0
100
AcDbLine
 10
300.4374964443584
 20
127.9574922806146
 30
0.0
 11
300.4374964443584
 21
134.9574922806146
 31
0.0
  0
LINE
  5
372D
330
1A
100
AcDbEntity
  8
SEIHIN
  6
Continuous
 62
     3
 48
5.0
100
AcDbLine
 10
304.7173964443584
 20
134.9574922806146
 30
0.0
 11
300.4374964443584
 21
134.9574922806146
 31
0.0
  0
LINE
  5
372E
330
1A
100
AcDbEntity
  8
SEIHIN
  6
Continuous
 62
     3
 48
5.0
100
AcDbLine
 10
300.4374964443584
 20
134.9574922806146
 30
0.0
 11
304.7173964443584
 21
134.9574922806146
 31
0.0
  0
ARC
  5
372F
330
1A
100
AcDbEntity
  8
SEIHIN
  6
Continuous
 62
     3
 48
5.0
100
AcDbCircle
 10
325.5497227763338
 20
131.1384020797768
 30
0.0
 40
30.00001003059957
100
AcDbArc
 50
139.7823615645885
 51
172.6862314218202
  0
ARC
  5
3730
330
1A
100
AcDbEntity
  8
SEIHIN
  6
Continuous
 62
     3
 48
5.0
100
AcDbCircle
 10
334.4977444417575
 20
131.321792197975
 30
0.0
 40
29.99996838570201
100
AcDbArc
 50
139.7825197072553
 51
173.0392066434282
  0
LINE
  5
3731
330
1A
100
AcDbEntity
  8
SEIHIN
  6
Continuous
 62
     3
 48
5.0
100
AcDbLine
 10
270.4388964443583
 20
159.4574922806144
 30
0.0
 11
319.4384964443584
 21
159.4574922806144
 31
0.0
  0
LINE
  5
3732
330
1A
100
AcDbEntity
  8
SEIHIN
  6
Continuous
 62
     3
 48
5.0
100
AcDbLine
 10
270.7174964443584
 20
127.9574622806145
 30
0.0
 11
300.4374964443584
 21
127.9574922806146
 31
0.0
  0
LINE
  5
3733
330
1A
100
AcDbEntity
  8
SEIHIN
  6
Continuous
 62
     3
 48
5.0
100
AcDbLine
 10
270.7173964443584
 20
134.9574922806146
 30
0.0
 11
300.4374964443584
 21
134.9574922806146
 31
0.0
  0
LINE
  5
3734
330
1A
100
AcDbEntity
  8
SEIHIN
  6
Continuous
 62
     3
 48
5.0
100
AcDbLine
 10
230.4384964443584
 20
159.4574922806144
 30
0.0
 11
230.4384964443584
 21
161.3509922806145
 31
0.0
  0
ARC
  5
3735
330
1A
100
AcDbEntity
  8
SEIHIN
  6
Continuous
 62
     3
 48
5.0
100
AcDbCircle
 10
221.4384713666504
 20
161.3510512011657
 30
0.0
 40
9.000025077900771
100
AcDbArc
 50
359.9996249011657
 51
46.11067867465211
  0
ARC
  5
3736
330
1A
100
AcDbEntity
  8
SEIHIN
  6
Continuous
 62
     3
 48
5.0
100
AcDbCircle
 10
236.1596944219193
 20
156.5037978046898
 30
0.0
 40
8.999997978056695
100
AcDbArc
 50
179.9993985474482
 51
220.2174025986872
  0
LINE
  5
3737
330
1A
100
AcDbEntity
  8
SEIHIN
  6
Continuous
 62
     3
 48
5.0
100
AcDbLine
 10
227.1596964443584
 20
159.4575922806145
 30
0.0
 11
227.1596964443584
 21
156.5037922806145
 31
0.0
  0
LINE
  5
3738
330
1A
100
AcDbEntity
  8
SEIHIN
  6
Continuous
 62
     3
 48
5.0
100
AcDbLine
 10
236.1076964443585
 20
159.4574922806144
 30
0.0
 11
236.1076964443585
 21
156.3204922806146
 31
0.0
  0
ARC
  5
3739
330
1A
100
AcDbEntity
  8
SEIHIN
  6
Continuous
 62
     3
 48
5.0
100
AcDbCircle
 10
245.1077267067567
 20
156.3204096246303
 30
0.0
 40
9.000030262777938
100
AcDbArc
 50
179.9994737974304
 51
220.2173273487049
  0
LINE
  5
373A
330
1A
100
AcDbEntity
  8
SEIHIN
  6
Continuous
 62
     3
 48
5.0
100
AcDbLine
 10
240.4395964443584
 20
127.9575922806145
 30
0.0
 11
240.4396964443583
 21
134.9575922806144
 31
0.0
  0
LINE
  5
373B
330
1A
100
AcDbEntity
  8
SEIHIN
  6
Continuous
 62
     3
 48
5.0
100
AcDbLine
 10
240.4396964443583
 20
134.9575922806144
 30
0.0
 11
240.4395964443584
 21
127.9575922806145
 31
0.0
  0
LINE
  5
373C
330
1A
100
AcDbEntity
  8
SEIHIN
  6
Continuous
 62
     3
 48
5.0
100
AcDbLine
 10
240.4396964443583
 20
134.9575922806144
 30
0.0
 11
236.1596964443584
 21
134.9575922806144
 31
0.0
  0
LINE
  5
373D
330
1A
100
AcDbEntity
  8
SEIHIN
  6
Continuous
 62
     3
 48
5.0
100
AcDbLine
 10
236.1596964443584
 20
134.9575922806144
 30
0.0
 11
240.4396964443583
 21
134.9575922806144
 31
0.0
  0
ARC
  5
373E
330
1A
100
AcDbEntity
  8
SEIHIN
  6
Continuous
 62
     3
 48
5.0
100
AcDbCircle
 10
206.3794105184102
 20
131.3218300500972
 30
0.0
 40
30.00002568582135
100
AcDbArc
 50
6.961091974605602
 51
40.21779330873104
  0
ARC
  5
373F
330
1A
100
AcDbEntity
  8
SEIHIN
  6
Continuous
 62
     3
 48
5.0
100
AcDbCircle
 10
215.3273885536853
 20
131.1385102001781
 30
0.0
 40
29.99999070558738
100
AcDbArc
 50
7.313757679182064
 51
40.21764933440934
  0
LINE
  5
3740
330
1A
100
AcDbEntity
  8
SEIHIN
  6
Continuous
 62
     3
 48
5.0
100
AcDbLine
 10
221.4384964443584
 20
159.4574922806144
 30
0.0
 11
221.4384964443584
 21
161.3509922806145
 31
0.0
  0
ARC
  5
3741
330
1A
100
AcDbEntity
  8
SEIHIN
  6
Continuous
 62
     3
 48
5.0
100
AcDbCircle
 10
212.4384713666505
 20
161.3510512011657
 30
0.0
 40
9.000025077900771
100
AcDbArc
 50
359.9996249011657
 51
46.11067867465211
  0
ARC
  5
3742
330
1A
100
AcDbEntity
  8
SEIHIN
  6
Continuous
 62
     3
 48
5.0
100
AcDbCircle
 10
248.4759191534679
 20
189.4575457791912
 30
0.0
 40
29.99995723350375
100
AcDbArc
 50
185.9466238008269
 51
226.1106078705471
  0
ARC
  5
3743
330
1A
100
AcDbEntity
  8
SEIHIN
  6
Continuous
 62
     3
 48
5.0
100
AcDbCircle
 10
239.4759191534677
 20
189.4575457791912
 30
0.0
 40
29.99995723350375
100
AcDbArc
 50
185.9466238008269
 51
226.1106078705471
  0
LINE
  5
3744
330
1A
100
AcDbEntity
  8
SEIHIN
  6
Continuous
 62
     3
 48
5.0
100
AcDbLine
 10
270.1595964443582
 20
127.9574622806145
 30
0.0
 11
240.4395964443584
 21
127.9575922806145
 31
0.0
  0
LINE
  5
3745
330
1A
100
AcDbEntity
  8
SEIHIN
  6
Continuous
 62
     3
 48
5.0
100
AcDbLine
 10
270.4382964443582
 20
159.4574922806144
 30
0.0
 11
221.4385964443584
 21
159.4575922806145
 31
0.0
  0
LINE
  5
3746
330
1A
100
AcDbEntity
  8
SEIHIN
  6
Continuous
 62
     3
 48
5.0
100
AcDbLine
 10
270.1596964443583
 20
134.9574922806146
 30
0.0
 11
240.4396964443583
 21
134.9575922806144
 31
0.0
  0
LINE
  5
3747
330
1A
100
AcDbEntity
  8
SEIHIN
  6
Continuous
 62
     3
 48
5.0
100
AcDbLine
 10
211.7188964443583
 20
252.7684922806146
 30
0.0
 11
218.6373964443583
 21
186.3494922806146
 31
0.0
  0
LINE
  5
3748
330
1A
100
AcDbEntity
  8
SEIHIN
  6
Continuous
 62
     3
 48
5.0
100
AcDbLine
 10
202.7188964443583
 20
252.7684922806146
 30
0.0
 11
209.6372964443585
 21
186.3494922806146
 31
0.0
  0
LINE
  5
3749
330
1A
100
AcDbEntity
  8
CENTER L
  6
CENTER
 62
     1
 48
5.0
100
AcDbLine
 10
270.4387742302965
 20
273.3252060463236
 30
0.0
 11
270.4384964443584
 21
122.1804022806145
 31
0.0
  0
DIMENSION
  5
374A
330
1A
100
AcDbEntity
  8
SUNPOU
 48
5.0
100
AcDbDimension
  2
*D5
 10
300.4374964443584
 20
112.1677972202488
 30
0.0
 11
270.4385464443584
 21
117.1677972202489
 31
0.0
 70
    32
  1
φ <>
 71
     5
 42
59.99790000000007
  3
STANDARD
100
AcDbAlignedDimension
 13
240.4395964443584
 23
127.9575922806146
 33
0.0
 14
300.4374964443584
 24
131.4574922806146
 34
0.0
100
AcDbRotatedDimension
1001
ACAD
1000
DSTYLE
1002
{
1070
   140
1040
6.0
1070
    74
1070
     0
1070
   172
1070
     1
1070
    73
1070
     0
1070
   272
1070
     2
1070
    77
1070
     3
1070
   173
1070
     1
1070
   147
1040
2.0
1070
    42
1040
6.0
1070
    44
1040
3.0
1070
    43
1040
14.0
1070
   271
1070
     0
1070
   178
1070
     4
1070
   177
1070
     4
1070
   176
1070
     4
1070
   141
1040
150.0
1070
     7
1000
_OPEN
1070
     6
1000
_OPEN
1070
    41
1040
7.0
1002
}
  0
DIMENSION
  5
374B
330
1A
100
AcDbEntity
  8
SUNPOU
 48
5.0
100
AcDbDimension
  2
*D4
 10
221.4385964443584
 20
97.80497678087034
 30
0.0
 11
270.4385464443584
 21
102.8049767808703
 31
0.0
 70
    32
 71
     5
 42
97.99990000000002
  3
STANDARD
100
AcDbAlignedDimension
 13
319.4384964443584
 23
159.4574922806145
 33
0.0
 14
221.4385964443584
 24
159.4575922806146
 34
0.0
100
AcDbRotatedDimension
1001
ACAD
1000
DSTYLE
1002
{
1070
   140
1040
6.0
1070
    74
1070
     0
1070
   172
1070
     1
1070
    73
1070
     0
1070
   272
1070
     2
1070
    77
1070
     3
1070
   173
1070
     1
1070
   147
1040
2.0
1070
    42
1040
6.0
1070
    44
1040
3.0
1070
    43
1040
14.0
1070
   271
1070
     0
1070
   178
1070
     4
1070
   177
1070
     4
1070
   176
1070
     4
1070
   141
1040
150.0
1070
     7
1000
_OPEN
1070
     6
1000
_OPEN
1070
    41
1040
7.0
1002
}
  0
DIMENSION
  5
374C
330
1A
100
AcDbEntity
  8
SUNPOU
 48
5.0
100
AcDbDimension
  2
*D3
 10
201.1785875270493
 20
144.9576169719783
 30
0.0
 11
196.1785875270493
 21
169.6576169719783
 31
0.0
 70
    32
  1
※ <>
 71
     5
 42
10.00002469136382
  3
STANDARD
100
AcDbAlignedDimension
 13
236.1596964443584
 23
134.9575922806145
 33
0.0
 14
233.1014399355595
 24
144.9576169719783
 34
0.0
 50
90.0
100
AcDbRotatedDimension
1001
ACAD
1000
DSTYLE
1002
{
1070
   140
1040
6.0
1070
    74
1070
     0
1070
   172
1070
     1
1070
    73
1070
     0
1070
   272
1070
     2
1070
    77
1070
     3
1070
   173
1070
     1
1070
   147
1040
2.0
1070
    42
1040
6.0
1070
    44
1040
3.0
1070
    43
1040
14.0
1070
   271
1070
     0
1070
   178
1070
     4
1070
   177
1070
     4
1070
   176
1070
     4
1070
   141
1040
150.0
1070
     7
1000
_OPEN
1070
     6
1000
_OPEN
1070
    41
1040
7.0
1002
}
  0
LINE
  5
374D
330
1A
100
AcDbEntity
  8
SEIHIN
  6
Continuous
 62
     3
 48
5.0
100
AcDbLine
 10
270.4388964443583
 20
255.4574922806145
 30
0.0
 11
341.1423964443584
 21
255.4574922806145
 31
0.0
  0
LINE
  5
374E
330
1A
100
AcDbEntity
  8
SEIHIN
  6
Continuous
 62
     3
 48
5.0
100
AcDbLine
 10
346.4837758959941
 20
257.4576993863602
 30
0.0
 11
270.4386964443584
 21
257.4575922806145
 31
0.0
  0
ARC
  5
374F
330
1A
100
AcDbEntity
  8
SEIHIN
  6
Continuous
 62
     3
 48
5.0
100
AcDbCircle
 10
292.401437291579
 20
189.4575759234692
 30
0.0
 40
30.00000696452623
100
AcDbArc
 50
313.8891323339115
 51
354.0531361904233
  0
ARC
  5
3750
330
1A
100
AcDbEntity
  8
SEIHIN
  6
Continuous
 62
     3
 48
5.0
100
AcDbCircle
 10
328.4387215224433
 20
161.3508512011429
 30
0.0
 40
9.000025078178644
100
AcDbArc
 50
133.8893213269749
 51
179.9997384806901
  0
DIMENSION
  5
3751
330
1A
100
AcDbEntity
  8
SUNPOU
100
AcDbDimension
  2
*D2
 10
388.436027856395
 20
269.4576437788476
 30
0.0
 11
383.4360278563949
 21
198.7075680297311
 31
0.0
 70
    32
 71
     5
 42
141.5001514982331
  3
DIM-2
100
AcDbAlignedDimension
 13
300.4374964443584
 23
127.9574922806146
 33
0.0
 14
348.438843962857
 24
269.4576437788477
 34
0.0
 50
90.0
100
AcDbRotatedDimension
  0
ARC
  5
3752
330
1A
100
AcDbEntity
  8
SEIHIN
 48
5.0
100
AcDbCircle
 10
194.4386637861525
 20
259.4579923276325
 30
0.0
 40
2.0
100
AcDbArc
 50
180.0
 51
269.9996984082765
  0
LINE
  5
3753
330
1A
100
AcDbEntity
  8
SEIHIN
  6
Continuous
 62
     3
 48
5.0
100
AcDbLine
 10
348.4388439579925
 20
269.4571817064595
 30
0.0
 11
270.4386265979934
 21
269.4575922815539
 31
0.0
  0
ARC
  5
3754
330
1A
100
AcDbEntity
  8
SEIHIN
 48
5.0
100
AcDbCircle
 10
346.4387386826206
 20
259.4571922344123
 30
0.0
 40
2.0
100
AcDbArc
 50
269.9996984082765
 51
359.9993968165507
  0
LINE
  5
3755
330
1A
100
AcDbEntity
  8
SEIHIN
100
AcDbLine
 10
348.4388439579925
 20
269.4571817064595
 30
0.0
 11
348.4387386825099
 21
259.457171179338
 31
0.0
  0
LINE
  5
3756
330
1A
100
AcDbEntity
  8
SEIHIN
100
AcDbLine
 10
199.4386964443583
 20
257.4576922806146
 30
0.0
 11
199.4387964443583
 21
255.4576922806146
 31
0.0
  0
LINE
  5
3757
330
1A
100
AcDbEntity
  8
SEIHIN
100
AcDbLine
 10
341.4386964443584
 20
257.4576922806146
 30
0.0
 11
341.4386964443584
 21
255.4574922806145
 31
0.0
  0
VIEWPORT
  5
22
102
{ACAD_XDICTIONARY
360
3903
102
}
330
17
100
AcDbEntity
 67
     1
  8
0
100
AcDbViewport
 10
313.6808219178083
 20
148.5
 30
0.0
 40
627.3616438356165
 41
297.0
 68
     2
 69
     1
 12
313.6808219178083
 22
148.5
 13
0.0
 23
0.0
 14
1.0
 24
1.0
 15
10.0
 25
10.0
 16
0.0
 26
0.0
 36
1.0
 17
0.0
 27
0.0
 37
0.0
 42
50.0
 43
0.0
 44
0.0
 45
297.0
 50
0.0
 51
0.0
 72
   100
 90
    32768
  1

281
     0
 71
     1
 74
     0
110
0.0
120
0.0
130
0.0
111
1.0
121
0.0
131
0.0
112
0.0
122
1.0
132
0.0
 79
     0
146
0.0
  0
VIEWPORT
  5
64
102
{ACAD_XDICTIONARY
360
3905
102
}
330
17
100
AcDbEntity
 67
     1
  8
VIEWPORT
100
AcDbViewport
 10
210.0
 20
148.5
 30
0.0
 40
420.0
 41
297.0
 68
     1
 69
     2
 12
420.0
 22
297.0
 13
0.0
 23
0.0
 14
10.0
 24
10.0
 15
0.0
 25
0.0
 16
0.0
 26
0.0
 36
1.0
 17
0.0
 27
0.0
 37
0.0
 42
50.0
 43
0.0
 44
0.0
 45
605.8799999999998
 50
0.0
 51
0.0
 72
   100
 90
    32768
  1

281
     0
 71
     1
 74
     0
110
0.0
120
0.0
130
0.0
111
1.0
121
0.0
131
0.0
112
0.0
122
1.0
132
0.0
 79
     0
146
0.0
  0
ENDSEC
  0
SECTION
  2
OBJECTS
  0
DICTIONARY
  5
C
330
0
100
AcDbDictionary
281
     1
  3
ACAD_COLOR
350
2CFA
  3
ACAD_GROUP
350
D
  3
ACAD_LAYOUT
350
674
  3
ACAD_MATERIAL
350
2CF9
  3
ACAD_MLINESTYLE
350
E
  3
ACAD_PLOTSETTINGS
350
675
  3
ACAD_PLOTSTYLENAME
350
672
  3
ACDBHEADERROUNDTRIPXREC
350
3900
  3
AcDbVariableDictionary
350
38FC
  0
DICTIONARY
  5
6A3
330
1A
100
AcDbDictionary
280
     1
281
     1
  3
ACAD_LAYOUTSELFREF
360
2CD4
  0
DICTIONARY
  5
6A1
330
17
100
AcDbDictionary
280
     1
281
     1
  3
ACAD_LAYOUTSELFREF
360
2CD3
  0
DICTIONARY
  5
3903
330
22
100
AcDbDictionary
280
     1
281
     1
  3
ACAD_XREC_ROUNDTRIP
360
3904
  0
DICTIONARY
  5
3905
330
64
100
AcDbDictionary
280
     1
281
     1
  3
ACAD_XREC_ROUNDTRIP
360
3906
  0
DICTIONARY
  5
2CFA
102
{ACAD_REACTORS
330
C
102
}
330
C
100
AcDbDictionary
281
     1
  0
DICTIONARY
  5
D
102
{ACAD_REACTORS
330
C
102
}
330
C
100
AcDbDictionary
281
     1
  0
DICTIONARY
  5
674
102
{ACAD_REACTORS
330
C
102
}
330
C
100
AcDbDictionary
281
     1
  3
Model
350
676
  3
ﾚｲｱｳﾄ1
350
677
  0
DICTIONARY
  5
2CF9
102
{ACAD_REACTORS
330
C
102
}
330
C
100
AcDbDictionary
281
     1
  0
DICTIONARY
  5
E
102
{ACAD_REACTORS
330
C
102
}
330
C
100
AcDbDictionary
281
     1
  3
STANDARD
350
13
  0
DICTIONARY
  5
675
102
{ACAD_REACTORS
330
C
102
}
330
C
100
AcDbDictionary
281
     1
  0
ACDBDICTIONARYWDFLT
  5
672
102
{ACAD_REACTORS
330
C
102
}
330
C
100
AcDbDictionary
281
     1
  3
Normal
350
673
100
AcDbDictionaryWithDefault
340
673
1001
ACAD
1000
TREAT_AS_HARD
1070
     0
1000
TREAT_AS_HARD
1070
     0
1000
TREAT_AS_HARD
1070
     0
1000
TREAT_AS_HARD
1070
     0
  0
DICTIONARY
  5
3900
102
{ACAD_REACTORS
330
C
102
}
330
C
100
AcDbDictionary
281
     1
  3
COLORDICT
350
3902
  3
MATERIALDICT
350
3901
  0
DICTIONARY
  5
38FC
102
{ACAD_REACTORS
330
C
102
}
330
C
100
AcDbDictionary
281
     1
  3
DIMASSOC
350
38FD
  3
PROJECTNAME
350
38FE
  0
XRECORD
  5
2CD4
102
{ACAD_REACTORS
330
6A3
102
}
330
6A3
100
AcDbXrecord
280
     1
340
1A
  0
XRECORD
  5
2CD3
102
{ACAD_REACTORS
330
6A1
102
}
330
6A1
100
AcDbXrecord
280
     1
340
17
  0
XRECORD
  5
3904
102
{ACAD_REACTORS
330
3903
102
}
330
3903
100
AcDbXrecord
280
     1
102
SHADEPLOT
 70
     0
  0
XRECORD
  5
3906
102
{ACAD_REACTORS
330
3905
102
}
330
3905
100
AcDbXrecord
280
     1
102
SHADEPLOT
 70
     0
  0
LAYOUT
  5
676
102
{ACAD_XDICTIONARY
360
3907
102
}
102
{ACAD_REACTORS
330
674
102
}
330
674
100
AcDbPlotSettings
  1

  2
Acrobat Distiller
  4
A3
  6

 40
3.174999952316284
 41
3.174999952316284
 42
3.17498779296875
 43
3.17498779296875
 44
297.0318298339844
 45
420.1583251953125
 46
0.0
 47
0.0
 48
-33.76845281574833
 49
-14.97380759834459
140
814.9805907970753
141
567.90316502265
142
1.0
143
2.0
 70
 11952
 72
     1
 73
     1
 74
     2
  7
print.ctb
 75
    17
147
0.5
148
0.0
149
0.0
100
AcDbLayout
  1
Model
 70
     1
 71
     0
 10
0.0
 20
0.0
 11
12.0
 21
9.0
 12
0.0
 22
0.0
 32
0.0
 14
0.0
 24
0.0
 34
0.0
 15
0.0
 25
0.0
 35
0.0
146
0.0
 13
0.0
 23
0.0
 33
0.0
 16
1.0
 26
0.0
 36
0.0
 17
0.0
 27
1.0
 37
0.0
 76
     0
330
1A
  0
LAYOUT
  5
677
102
{ACAD_XDICTIONARY
360
3909
102
}
102
{ACAD_REACTORS
330
674
102
}
330
674
100
AcDbPlotSettings
  1

  2
Acrobat Distiller
  4

  6

 40
0.0
 41
0.0
 42
0.0
 43
0.0
 44
0.0
 45
0.0
 46
0.0
 47
0.0
 48
0.0
 49
0.0
140
0.0
141
0.0
142
1.0
143
1.0
 70
   688
 72
     0
 73
     0
 74
     5
  7
print.ctb
 75
    16
147
1.0
148
0.0
149
0.0
100
AcDbLayout
  1
ﾚｲｱｳﾄ1
 70
     1
 71
     1
 10
0.0
 20
0.0
 11
420.0
 21
297.0
 12
0.0
 22
0.0
 32
0.0
 14
0.0
 24
0.0
 34
0.0
 15
420.0
 25
297.0
 35
0.0
146
0.0
 13
0.0
 23
0.0
 33
0.0
 16
1.0
 26
0.0
 36
0.0
 17
0.0
 27
1.0
 37
0.0
 76
     0
330
17
331
64
  0
MLINESTYLE
  5
13
102
{ACAD_REACTORS
330
E
102
}
330
E
100
AcDbMlineStyle
  2
STANDARD
 70
     0
  3

 62
     0
 51
90.0
 52
90.0
 71
     2
 49
0.5
 62
   256
  6
BYLAYER
 49
-0.5
 62
   256
  6
BYLAYER
  0
ACDBPLACEHOLDER
  5
673
102
{ACAD_REACTORS
330
672
102
}
330
672
  0
XRECORD
  5
3902
102
{ACAD_REACTORS
330
3900
102
}
330
3900
100
AcDbXrecord
280
     1
340
2CFA
  0
XRECORD
  5
3901
102
{ACAD_REACTORS
330
3900
102
}
330
3900
100
AcDbXrecord
280
     1
340
2CF9
  0
DICTIONARYVAR
  5
38FD
102
{ACAD_REACTORS
330
38FC
102
}
330
38FC
100
DictionaryVariables
280
     0
  1
1
  0
DICTIONARYVAR
  5
38FE
102
{ACAD_REACTORS
330
38FC
102
}
330
38FC
100
DictionaryVariables
280
     0
  1

  0
DICTIONARY
  5
3907
330
676
100
AcDbDictionary
280
     1
281
     1
  3
ACAD_XREC_ROUNDTRIP
360
3908
  0
DICTIONARY
  5
3909
330
677
100
AcDbDictionary
280
     1
281
     1
  3
ACAD_XREC_ROUNDTRIP
360
390A
  0
XRECORD
  5
3908
102
{ACAD_REACTORS
330
3907
102
}
330
3907
100
AcDbXrecord
280
     1
102
SHADEPLOT
 70
     0
102
SHADEPLOTRESLEVEL
 70
     2
102
SHADEPLOTCUSTOMDPI
 70
   300
  0
XRECORD
  5
390A
102
{ACAD_REACTORS
330
3909
102
}
330
3909
100
AcDbXrecord
280
     1
102
SHADEPLOT
 70
     0
102
SHADEPLOTRESLEVEL
 70
     2
102
SHADEPLOTCUSTOMDPI
 70
   300
  0
ENDSEC
  0
EOF
