  0
SECTION
  2
HEADER
  9
$ACADVER
  1
AC1012
  9
$DWGCODEPAGE
  3
dos932
  9
$INSBASE
 10
0.0
 20
0.0
 30
0.0
  9
$EXTMIN
 10
10.05047808566086
 20
4.949376903717846
 30
0.0
  9
$EXTMAX
 10
806.2246110975902
 20
563.7825862828226
 30
0.0
  9
$LIMMIN
 10
0.0
 20
0.0
  9
$LIMMAX
 10
840.0
 20
594.0
  9
$ORTHOMODE
 70
     1
  9
$REGENMODE
 70
     1
  9
$FILLMODE
 70
     1
  9
$QTEXTMODE
 70
     0
  9
$MIRRTEXT
 70
     1
  9
$DRAGMODE
 70
     2
  9
$LTSCALE
 40
10.0
  9
$OSMODE
 70
    37
  9
$ATTMODE
 70
     1
  9
$TEXTSIZE
 40
5.0
  9
$TRACEWID
 40
1.0
  9
$TEXTSTYLE
  7
STANDARD
  9
$CLAYER
  8
SUNPOU
  9
$CELTYPE
  6
BYLAYER
  9
$CECOLOR
 62
   256
  9
$CELTSCALE
 40
1.0
  9
$DELOBJ
 70
     1
  9
$DISPSILH
 70
     0
  9
$DIMSCALE
 40
1.0
  9
$DIMASZ
 40
7.0
  9
$DIMEXO
 40
6.0
  9
$DIMDLI
 40
14.0
  9
$DIMRND
 40
0.0
  9
$DIMDLE
 40
0.0
  9
$DIMEXE
 40
3.0
  9
$DIMTP
 40
0.0
  9
$DIMTM
 40
0.0
  9
$DIMTXT
 40
6.0
  9
$DIMCEN
 40
10.0
  9
$DIMTSZ
 40
0.0
  9
$DIMTOL
 70
     0
  9
$DIMLIM
 70
     0
  9
$DIMTIH
 70
     0
  9
$DIMTOH
 70
     0
  9
$DIMSE1
 70
     0
  9
$DIMSE2
 70
     0
  9
$DIMTAD
 70
     3
  9
$DIMZIN
 70
     0
  9
$DIMBLK
  1

  9
$DIMASO
 70
     1
  9
$DIMSHO
 70
     1
  9
$DIMPOST
  1

  9
$DIMAPOST
  1

  9
$DIMALT
 70
     0
  9
$DIMALTD
 70
     2
  9
$DIMALTF
 40
25.4
  9
$DIMLFAC
 40
1.0
  9
$DIMTOFL
 70
     1
  9
$DIMTVP
 40
0.0
  9
$DIMTIX
 70
     0
  9
$DIMSOXD
 70
     0
  9
$DIMSAH
 70
     1
  9
$DIMBLK1
  1
OPEN
  9
$DIMBLK2
  1
OPEN
  9
$DIMSTYLE
  2
STANDARD
  9
$DIMCLRD
 70
   256
  9
$DIMCLRE
 70
   256
  9
$DIMCLRT
 70
   256
  9
$DIMTFAC
 40
1.0
  9
$DIMGAP
 40
2.0
  9
$DIMJUST
 70
     0
  9
$DIMSD1
 70
     0
  9
$DIMSD2
 70
     0
  9
$DIMTOLJ
 70
     1
  9
$DIMTZIN
 70
     0
  9
$DIMALTZ
 70
     0
  9
$DIMALTTZ
 70
     0
  9
$DIMFIT
 70
     3
  9
$DIMUPT
 70
     0
  9
$DIMUNIT
 70
     2
  9
$DIMDEC
 70
     0
  9
$DIMTDEC
 70
     0
  9
$DIMALTU
 70
     2
  9
$DIMALTTD
 70
     2
  9
$DIMTXSTY
  7
STANDARD
  9
$DIMAUNIT
 70
     0
  9
$LUNITS
 70
     2
  9
$LUPREC
 70
     4
  9
$SKETCHINC
 40
1.0
  9
$FILLETRAD
 40
0.5
  9
$AUNITS
 70
     0
  9
$AUPREC
 70
     0
  9
$MENU
  1
.
  9
$ELEVATION
 40
0.0
  9
$PELEVATION
 40
0.0
  9
$THICKNESS
 40
0.0
  9
$LIMCHECK
 70
     0
  9
$BLIPMODE
 70
     0
  9
$CHAMFERA
 40
20.0
  9
$CHAMFERB
 40
20.0
  9
$CHAMFERC
 40
40.0
  9
$CHAMFERD
 40
0.0
  9
$SKPOLY
 70
     0
  9
$TDCREATE
 40
2451523.642063079
  9
$TDUPDATE
 40
2452393.845574953
  9
$TDINDWG
 40
0.1533423380
  9
$TDUSRTIMER
 40
0.1533423380
  9
$USRTIMER
 70
     1
  9
$ANGBASE
 50
0.0
  9
$ANGDIR
 70
     0
  9
$PDMODE
 70
     0
  9
$PDSIZE
 40
0.0
  9
$PLINEWID
 40
0.0
  9
$COORDS
 70
     1
  9
$SPLFRAME
 70
     0
  9
$SPLINETYPE
 70
     6
  9
$SPLINESEGS
 70
     8
  9
$ATTDIA
 70
     0
  9
$ATTREQ
 70
     1
  9
$HANDLING
 70
 10241
  9
$HANDSEED
  5
1661
  9
$SURFTAB1
 70
     6
  9
$SURFTAB2
 70
     6
  9
$SURFTYPE
 70
     6
  9
$SURFU
 70
     6
  9
$SURFV
 70
     6
  9
$UCSNAME
  2

  9
$UCSORG
 10
0.0
 20
0.0
 30
0.0
  9
$UCSXDIR
 10
1.0
 20
0.0
 30
0.0
  9
$UCSYDIR
 10
0.0
 20
1.0
 30
0.0
  9
$PUCSNAME
  2

  9
$PUCSORG
 10
0.0
 20
0.0
 30
0.0
  9
$PUCSXDIR
 10
1.0
 20
0.0
 30
0.0
  9
$PUCSYDIR
 10
0.0
 20
1.0
 30
0.0
  9
$USERI1
 70
     0
  9
$USERI2
 70
     0
  9
$USERI3
 70
     0
  9
$USERI4
 70
     0
  9
$USERI5
 70
     0
  9
$USERR1
 40
0.0
  9
$USERR2
 40
0.0
  9
$USERR3
 40
0.0
  9
$USERR4
 40
0.0
  9
$USERR5
 40
0.0
  9
$WORLDVIEW
 70
     1
  9
$SHADEDGE
 70
     3
  9
$SHADEDIF
 70
    70
  9
$TILEMODE
 70
     1
  9
$MAXACTVP
 70
    16
  9
$PINSBASE
 10
0.0
 20
0.0
 30
0.0
  9
$PLIMCHECK
 70
     0
  9
$PEXTMIN
 10
0.0
 20
0.0
 30
0.0
  9
$PEXTMAX
 10
420.0
 20
297.0
 30
0.0
  9
$PLIMMIN
 10
0.0
 20
0.0
  9
$PLIMMAX
 10
420.0
 20
297.0
  9
$UNITMODE
 70
     0
  9
$VISRETAIN
 70
     0
  9
$PLINEGEN
 70
     0
  9
$PSLTSCALE
 70
     1
  9
$TREEDEPTH
 70
  3020
  9
$PICKSTYLE
 70
     1
  9
$CMLSTYLE
  2
STANDARD
  9
$CMLJUST
 70
     0
  9
$CMLSCALE
 40
1.0
  9
$SAVEIMAGES
 70
     1
  0
ENDSEC
  0
SECTION
  2
CLASSES
  0
CLASS
  1
ACDBDICTIONARYWDFLT
  2
AcDbDictionaryWithDefault
  3
AutoCAD 2000
 90
    32768
280
     0
281
     0
  0
CLASS
  1
ACDBPLACEHOLDER
  2
AcDbPlaceHolder
  3
AutoCAD 2000
 90
    32768
280
     0
281
     0
  0
CLASS
  1
LAYOUT
  2
AcDbLayout
  3
AutoCAD 2000
 90
    32768
280
     0
281
     0
  0
CLASS
  1
DICTIONARYVAR
  2
AcDbDictionaryVar
  3
AutoCAD 2000
 90
    32768
280
     0
281
     0
  0
CLASS
  1
LONG_TRANSACTION
  2
AcDbLongTransaction
  3
AutoCAD 2000
 90
    32768
280
     0
281
     0
  0
CLASS
  1
LWPOLYLINE
  2
AcDbPolyline
  3
AutoCAD 2000
 90
    32768
280
     0
281
     1
  0
CLASS
  1
HATCH
  2
AcDbHatch
  3
AutoCAD 2000
 90
    32768
280
     0
281
     1
  0
CLASS
  1
XRECORD
  2
AcDbXrecord
  3
AutoCAD 2000
 90
    32768
280
     0
281
     0
  0
CLASS
  1
LONG_TRANSACTION
  2
AcDbLongTransaction
  3
AutoCAD 2000
 90
    32768
280
     0
281
     0
  0
CLASS
  1
LWPOLYLINE
  2
AcDbPolyline
  3
AutoCAD 2000
 90
    32768
280
     0
281
     1
  0
CLASS
  1
HATCH
  2
AcDbHatch
  3
AutoCAD 2000
 90
    32768
280
     0
281
     1
  0
CLASS
  1
XRECORD
  2
AcDbXrecord
  3
AutoCAD 2000
 90
    32768
280
     0
281
     0
  0
CLASS
  1
LONG_TRANSACTION
  2
AcDbLongTransaction
  3
AutoCAD 2000
 90
    32768
280
     0
281
     0
  0
CLASS
  1
LWPOLYLINE
  2
AcDbPolyline
  3
AutoCAD 2000
 90
    32768
280
     0
281
     1
  0
CLASS
  1
HATCH
  2
AcDbHatch
  3
AutoCAD 2000
 90
    32768
280
     0
281
     1
  0
CLASS
  1
XRECORD
  2
AcDbXrecord
  3
AutoCAD 2000
 90
    32768
280
     0
281
     0
  0
CLASS
  1
LONG_TRANSACTION
  2
AcDbLongTransaction
  3
AutoCAD 2000
 90
    32768
280
     0
281
     0
  0
CLASS
  1
LWPOLYLINE
  2
AcDbPolyline
  3
AutoCAD 2000
 90
    32768
280
     0
281
     1
  0
CLASS
  1
HATCH
  2
AcDbHatch
  3
AutoCAD 2000
 90
    32768
280
     0
281
     1
  0
CLASS
  1
XRECORD
  2
AcDbXrecord
  3
AutoCAD 2000
 90
    32768
280
     0
281
     0
  0
CLASS
  1
LONG_TRANSACTION
  2
AcDbLongTransaction
  3
AutoCAD 2000
 90
    32768
280
     0
281
     0
  0
CLASS
  1
LWPOLYLINE
  2
AcDbPolyline
  3
AutoCAD 2000
 90
    32768
280
     0
281
     1
  0
CLASS
  1
HATCH
  2
AcDbHatch
  3
AutoCAD 2000
 90
    32768
280
     0
281
     1
  0
CLASS
  1
XRECORD
  2
AcDbXrecord
  3
AutoCAD 2000
 90
    32768
280
     0
281
     0
  0
CLASS
  1
LONG_TRANSACTION
  2
AcDbLongTransaction
  3
AutoCAD 2000
 90
    32768
280
     0
281
     0
  0
CLASS
  1
LWPOLYLINE
  2
AcDbPolyline
  3
AutoCAD 2000
 90
    32768
280
     0
281
     1
  0
CLASS
  1
HATCH
  2
AcDbHatch
  3
AutoCAD 2000
 90
    32768
280
     0
281
     1
  0
CLASS
  1
XRECORD
  2
AcDbXrecord
  3
AutoCAD 2000
 90
    32768
280
     0
281
     0
  0
CLASS
  1
LONG_TRANSACTION
  2
AcDbLongTransaction
  3
AutoCAD 2000
 90
    32768
280
     0
281
     0
  0
CLASS
  1
LWPOLYLINE
  2
AcDbPolyline
  3
AutoCAD 2000
 90
    32768
280
     0
281
     1
  0
CLASS
  1
HATCH
  2
AcDbHatch
  3
AutoCAD 2000
 90
    32768
280
     0
281
     1
  0
CLASS
  1
XRECORD
  2
AcDbXrecord
  3
AutoCAD 2000
 90
    32768
280
     0
281
     0
  0
CLASS
  1
LONG_TRANSACTION
  2
AcDbLongTransaction
  3
AutoCAD 2000
 90
    32768
280
     0
281
     0
  0
CLASS
  1
LWPOLYLINE
  2
AcDbPolyline
  3
AutoCAD 2000
 90
    32768
280
     0
281
     1
  0
CLASS
  1
HATCH
  2
AcDbHatch
  3
AutoCAD 2000
 90
    32768
280
     0
281
     1
  0
CLASS
  1
XRECORD
  2
AcDbXrecord
  3
AutoCAD 2000
 90
    32768
280
     0
281
     0
  0
ENDSEC
  0
SECTION
  2
TABLES
  0
TABLE
  2
VPORT
  5
8
330
0
100
AcDbSymbolTable
 70
     2
  0
VPORT
  5
1651
330
8
100
AcDbSymbolTableRecord
100
AcDbViewportTableRecord
  2
*ACTIVE
 70
     0
 10
0.0
 20
0.0
 11
1.0
 21
1.0
 12
545.6791665019957
 22
297.0
 13
0.0
 23
0.0
 14
5.0
 24
5.0
 15
0.0
 25
0.0
 16
0.0
 26
0.0
 36
1.0
 17
0.0
 27
0.0
 37
0.0
 40
600.5635359116023
 41
2.169459962756052
 42
50.0
 43
0.0
 44
0.0
 50
0.0
 51
0.0
 71
     0
 72
   100
 73
     1
 74
     0
 75
     0
 76
     0
 77
     0
 78
     0
  0
ENDTAB
  0
TABLE
  2
LTYPE
  5
5
330
0
100
AcDbSymbolTable
 70
     2
  0
LTYPE
  5
14
330
5
100
AcDbSymbolTableRecord
100
AcDbLinetypeTableRecord
  2
BYBLOCK
 70
     0
  3

 72
    65
 73
     0
 40
0.0
  0
LTYPE
  5
15
330
5
100
AcDbSymbolTableRecord
100
AcDbLinetypeTableRecord
  2
BYLAYER
 70
     0
  3

 72
    65
 73
     0
 40
0.0
  0
LTYPE
  5
16
330
5
100
AcDbSymbolTableRecord
100
AcDbLinetypeTableRecord
  2
CONTINUOUS
 70
     0
  3
Solid line
 72
    65
 73
     0
 40
0.0
  0
LTYPE
  5
135
330
5
100
AcDbSymbolTableRecord
100
AcDbLinetypeTableRecord
  2
CENTER
 70
     0
  3
____ _ ____ _ ____ _ ____ _ ____ _ ____ _ ____ 
 72
    65
 73
     4
 40
2.0
 49
1.25
 74
     0
 49
-0.25
 74
     0
 49
0.25
 74
     0
 49
-0.25
 74
     0
  0
ENDTAB
  0
TABLE
  2
LAYER
  5
2
330
0
100
AcDbSymbolTable
 70
     7
  0
LAYER
  5
F
330
2
100
AcDbSymbolTableRecord
100
AcDbLayerTableRecord
  2
0
 70
     0
 62
     7
  6
CONTINUOUS
  0
LAYER
  5
62
330
2
100
AcDbSymbolTableRecord
100
AcDbLayerTableRecord
  2
VIEWPORT
 70
     0
 62
     7
  6
CONTINUOUS
  0
LAYER
  5
65
330
2
100
AcDbSymbolTableRecord
100
AcDbLayerTableRecord
  2
ZUWAKU
 70
     0
 62
     7
  6
CONTINUOUS
  0
LAYER
  5
199
330
2
100
AcDbSymbolTableRecord
100
AcDbLayerTableRecord
  2
SEIHIN
 70
     0
 62
     3
  6
CONTINUOUS
  0
LAYER
  5
19A
330
2
100
AcDbSymbolTableRecord
100
AcDbLayerTableRecord
  2
SUNPOU
 70
     0
 62
     4
  6
CONTINUOUS
  0
LAYER
  5
19B
330
2
100
AcDbSymbolTableRecord
100
AcDbLayerTableRecord
  2
CENTER_L
 70
     0
 62
     1
  6
CENTER
  0
LAYER
  5
19C
330
2
100
AcDbSymbolTableRecord
100
AcDbLayerTableRecord
  2
DEFPOINTS
 70
     0
 62
     7
  6
CONTINUOUS
  0
ENDTAB
  0
TABLE
  2
STYLE
  5
3
330
0
100
AcDbSymbolTable
 70
     1
  0
STYLE
  5
10
330
3
100
AcDbSymbolTableRecord
100
AcDbTextStyleTableRecord
  2
STANDARD
 70
     0
 40
0.0
 41
1.0
 50
0.0
 71
     0
 42
5.0
  3
TXT
  4
c:\PROGRAM FILES\AUTOCAD LT\ms\bigfont.shx
  0
ENDTAB
  0
TABLE
  2
VIEW
  5
6
330
0
100
AcDbSymbolTable
 70
     0
  0
ENDTAB
  0
TABLE
  2
UCS
  5
7
330
0
100
AcDbSymbolTable
 70
     0
  0
ENDTAB
  0
TABLE
  2
APPID
  5
9
330
0
100
AcDbSymbolTable
 70
     1
  0
APPID
  5
11
330
9
100
AcDbSymbolTableRecord
100
AcDbRegAppTableRecord
  2
ACAD
 70
     0
  0
ENDTAB
  0
TABLE
  2
DIMSTYLE
  5
A
330
0
100
AcDbSymbolTable
 70
     1
  0
DIMSTYLE
105
1D
102
{ACAD_REACTORS
330
329
330
B8E
330
B9C
330
BAB
330
BCC
330
BD9
330
BE6
330
C05
330
C11
330
C1E
330
C2B
330
C3A
330
C61
330
C6F
330
CE0
330
CED
330
D67
330
D74
330
D81
330
D8E
330
BC3
330
BFC
102
}
330
A
100
AcDbSymbolTableRecord
100
AcDbDimStyleTableRecord
  2
STANDARD
 70
     0
  3

  4

  5

  6

  7

 40
1.0
 41
0.18
 42
0.0625
 43
0.38
 44
0.18
 45
0.0
 46
0.0
 47
0.0
 48
0.0
140
0.18
141
0.09
142
0.0
143
25.4
144
1.0
145
0.0
146
1.0
147
0.09
 71
     0
 72
     0
 73
     1
 74
     1
 75
     0
 76
     0
 77
     0
 78
     0
170
     0
171
     2
172
     0
173
     0
174
     0
175
     0
176
     0
177
     0
178
     0
270
     2
271
     4
272
     4
273
     2
274
     2
340
10
275
     0
280
     0
281
     0
282
     0
283
     1
284
     0
285
     0
286
     0
287
     3
288
     0
  0
ENDTAB
  0
TABLE
  2
BLOCK_RECORD
  5
1
330
0
100
AcDbSymbolTable
 70
    26
  0
BLOCK_RECORD
  5
1A
102
{ACAD_XDICTIONARY
360
103A
102
}
330
1
100
AcDbSymbolTableRecord
100
AcDbBlockTableRecord
  2
*MODEL_SPACE
  0
BLOCK_RECORD
  5
17
102
{ACAD_XDICTIONARY
360
1038
102
}
330
1
100
AcDbSymbolTableRecord
100
AcDbBlockTableRecord
  2
*PAPER_SPACE
  0
BLOCK_RECORD
  5
6D
330
1
100
AcDbSymbolTableRecord
100
AcDbBlockTableRecord
  2
_OPEN
  0
BLOCK_RECORD
  5
32A
330
1
100
AcDbSymbolTableRecord
100
AcDbBlockTableRecord
  2
*D1
  0
BLOCK_RECORD
  5
B8F
330
1
100
AcDbSymbolTableRecord
100
AcDbBlockTableRecord
  2
*D2
  0
BLOCK_RECORD
  5
B9D
330
1
100
AcDbSymbolTableRecord
100
AcDbBlockTableRecord
  2
*D3
  0
BLOCK_RECORD
  5
BAC
330
1
100
AcDbSymbolTableRecord
100
AcDbBlockTableRecord
  2
*D4
  0
BLOCK_RECORD
  5
BC4
330
1
100
AcDbSymbolTableRecord
100
AcDbBlockTableRecord
  2
*D5
  0
BLOCK_RECORD
  5
BCD
330
1
100
AcDbSymbolTableRecord
100
AcDbBlockTableRecord
  2
*D6
  0
BLOCK_RECORD
  5
BDA
330
1
100
AcDbSymbolTableRecord
100
AcDbBlockTableRecord
  2
*D7
  0
BLOCK_RECORD
  5
BE7
330
1
100
AcDbSymbolTableRecord
100
AcDbBlockTableRecord
  2
*D8
  0
BLOCK_RECORD
  5
BFD
330
1
100
AcDbSymbolTableRecord
100
AcDbBlockTableRecord
  2
*D9
  0
BLOCK_RECORD
  5
C06
330
1
100
AcDbSymbolTableRecord
100
AcDbBlockTableRecord
  2
*D10
  0
BLOCK_RECORD
  5
C12
330
1
100
AcDbSymbolTableRecord
100
AcDbBlockTableRecord
  2
*D11
  0
BLOCK_RECORD
  5
C1F
330
1
100
AcDbSymbolTableRecord
100
AcDbBlockTableRecord
  2
*D12
  0
BLOCK_RECORD
  5
C2C
330
1
100
AcDbSymbolTableRecord
100
AcDbBlockTableRecord
  2
*D13
  0
BLOCK_RECORD
  5
C3B
330
1
100
AcDbSymbolTableRecord
100
AcDbBlockTableRecord
  2
*D14
  0
BLOCK_RECORD
  5
C62
330
1
100
AcDbSymbolTableRecord
100
AcDbBlockTableRecord
  2
*D15
  0
BLOCK_RECORD
  5
C70
330
1
100
AcDbSymbolTableRecord
100
AcDbBlockTableRecord
  2
*D16
  0
BLOCK_RECORD
  5
CE1
330
1
100
AcDbSymbolTableRecord
100
AcDbBlockTableRecord
  2
*D17
  0
BLOCK_RECORD
  5
CEE
330
1
100
AcDbSymbolTableRecord
100
AcDbBlockTableRecord
  2
*D18
  0
BLOCK_RECORD
  5
D68
330
1
100
AcDbSymbolTableRecord
100
AcDbBlockTableRecord
  2
*D19
  0
BLOCK_RECORD
  5
D75
330
1
100
AcDbSymbolTableRecord
100
AcDbBlockTableRecord
  2
*D20
  0
BLOCK_RECORD
  5
D82
330
1
100
AcDbSymbolTableRecord
100
AcDbBlockTableRecord
  2
*D21
  0
BLOCK_RECORD
  5
D8F
330
1
100
AcDbSymbolTableRecord
100
AcDbBlockTableRecord
  2
*D22
  0
BLOCK_RECORD
  5
104D
330
1
100
AcDbSymbolTableRecord
100
AcDbBlockTableRecord
  2
*X23
  0
BLOCK_RECORD
  5
105C
330
1
100
AcDbSymbolTableRecord
100
AcDbBlockTableRecord
  2
*X24
  0
BLOCK_RECORD
  5
107B
330
1
100
AcDbSymbolTableRecord
100
AcDbBlockTableRecord
  2
*X25
  0
ENDTAB
  0
ENDSEC
  0
SECTION
  2
BLOCKS
  0
BLOCK
  5
1B
330
1A
100
AcDbEntity
  8
0
100
AcDbBlockBegin
  2
*MODEL_SPACE
 70
     0
 10
0.0
 20
0.0
 30
0.0
  3
*MODEL_SPACE
  1

  0
ENDBLK
  5
1C
330
1A
100
AcDbEntity
  8
0
100
AcDbBlockEnd
  0
BLOCK
  5
18
330
17
100
AcDbEntity
 67
     1
  8
0
100
AcDbBlockBegin
  2
*PAPER_SPACE
 70
     0
 10
0.0
 20
0.0
 30
0.0
  3
*PAPER_SPACE
  1

  0
ENDBLK
  5
19
330
17
100
AcDbEntity
 67
     1
  8
0
100
AcDbBlockEnd
  0
BLOCK
  5
6E
330
6D
100
AcDbEntity
  8
0
100
AcDbBlockBegin
  2
_OPEN
 70
     0
 10
0.0
 20
0.0
 30
0.0
  3
_OPEN
  1

  0
LINE
  5
6F
330
6D
100
AcDbEntity
  8
0
  6
BYBLOCK
 62
     0
100
AcDbLine
 10
-1.0
 20
0.1666666666666666
 30
0.0
 11
0.0
 21
0.0
 31
0.0
  0
LINE
  5
70
330
6D
100
AcDbEntity
  8
0
  6
BYBLOCK
 62
     0
100
AcDbLine
 10
0.0
 20
0.0
 30
0.0
 11
-1.0
 21
-0.1666666666666666
 31
0.0
  0
LINE
  5
71
330
6D
100
AcDbEntity
  8
0
  6
BYBLOCK
 62
     0
100
AcDbLine
 10
0.0
 20
0.0
 30
0.0
 11
-1.0
 21
0.0
 31
0.0
  0
ENDBLK
  5
72
330
6D
100
AcDbEntity
  8
0
100
AcDbBlockEnd
  0
BLOCK
  5
334
330
32A
100
AcDbEntity
  8
0
100
AcDbBlockBegin
  2
*D1
 70
     1
 10
0.0
 20
0.0
 30
0.0
  3
*D1
  1

  0
LINE
  5
1514
330
32A
100
AcDbEntity
  8
SUNPOU
100
AcDbLine
 10
198.8095896973881
 20
257.4257115103968
 30
0.0
 11
236.1464123576247
 21
257.4257115103968
 31
0.0
  0
LINE
  5
1515
330
32A
100
AcDbEntity
  8
SUNPOU
100
AcDbLine
 10
194.2996896973881
 20
213.9257115103968
 30
0.0
 11
236.1464123576247
 21
213.9257115103968
 31
0.0
  0
LINE
  5
1516
330
32A
100
AcDbEntity
  8
SUNPOU
100
AcDbLine
 10
233.1464123576247
 20
250.4257115103968
 30
0.0
 11
233.1464123576247
 21
220.9257115103968
 31
0.0
  0
INSERT
  5
1517
330
32A
100
AcDbEntity
  8
SUNPOU
100
AcDbBlockReference
  2
_OPEN
 10
233.1464123576247
 20
257.4257115103968
 30
0.0
 41
7.0
 42
7.0
 43
7.0
 50
90.0
  0
INSERT
  5
1518
330
32A
100
AcDbEntity
  8
SUNPOU
100
AcDbBlockReference
  2
_OPEN
 10
233.1464123576247
 20
213.9257115103968
 30
0.0
 41
7.0
 42
7.0
 43
7.0
 50
270.0
  0
MTEXT
  5
1519
330
32A
100
AcDbEntity
  8
SUNPOU
100
AcDbMText
 10
228.1464123576247
 20
235.6757115103969
 30
0.0
 40
6.0
 41
0.0
 71
     5
 72
     1
  1
\A1;44
 11
0.0000000000000001
 21
1.0
 31
0.0
1001
ACAD
1000
MTEXTBEGIN
1070
    73
1070
     1
1070
    44
1040
1.0
1070
    74
1070
     0
1000
MTEXTEND
1000
MTEXTBEGIN
1070
    73
1070
     1
1070
    44
1040
1.0
1070
    74
1070
     0
1000
MTEXTEND
1000
MTEXTBEGIN
1070
    73
1070
     1
1070
    44
1040
1.0
1070
    74
1070
     0
1000
MTEXTEND
  0
POINT
  5
151A
330
32A
100
AcDbEntity
  8
DEFPOINTS
 62
     0
100
AcDbPoint
 10
192.8095896973881
 20
257.4257115103968
 30
0.0
  0
POINT
  5
151B
330
32A
100
AcDbEntity
  8
DEFPOINTS
 62
     0
100
AcDbPoint
 10
188.2996896973881
 20
213.9257115103968
 30
0.0
  0
POINT
  5
151C
330
32A
100
AcDbEntity
  8
DEFPOINTS
 62
     0
100
AcDbPoint
 10
233.1464123576247
 20
213.9257115103968
 30
0.0
  0
ENDBLK
  5
335
330
32A
100
AcDbEntity
  8
0
100
AcDbBlockEnd
  0
BLOCK
  5
B99
330
B8F
100
AcDbEntity
  8
0
100
AcDbBlockBegin
  2
*D2
 70
     1
 10
0.0
 20
0.0
 30
0.0
  3
*D2
  1

  0
LINE
  5
151D
330
B8F
100
AcDbEntity
  8
SUNPOU
100
AcDbLine
 10
110.7899896973881
 20
263.4258115103969
 30
0.0
 11
110.7899896973881
 21
291.3245282477674
 31
0.0
  0
LINE
  5
151E
330
B8F
100
AcDbEntity
  8
SUNPOU
100
AcDbLine
 10
196.8095896973882
 20
263.42570638348
 30
0.0
 11
196.8095896973882
 21
291.3245282477674
 31
0.0
  0
LINE
  5
151F
330
B8F
100
AcDbEntity
  8
SUNPOU
100
AcDbLine
 10
117.7899896973881
 20
288.3245282477673
 30
0.0
 11
189.8095896973882
 21
288.3245282477673
 31
0.0
  0
INSERT
  5
1520
330
B8F
100
AcDbEntity
  8
SUNPOU
100
AcDbBlockReference
  2
_OPEN
 10
110.7899896973881
 20
288.3245282477673
 30
0.0
 41
7.0
 42
7.0
 43
7.0
 50
180.0
  0
INSERT
  5
1521
330
B8F
100
AcDbEntity
  8
SUNPOU
100
AcDbBlockReference
  2
_OPEN
 10
196.8095896973882
 20
288.3245282477673
 30
0.0
 41
7.0
 42
7.0
 43
7.0
  0
MTEXT
  5
1522
330
B8F
100
AcDbEntity
  8
SUNPOU
100
AcDbMText
 10
153.7997896973882
 20
293.3245282477674
 30
0.0
 40
6.0
 41
0.0
 71
     5
 72
     1
  1
\A1;86
1001
ACAD
1000
MTEXTBEGIN
1070
    73
1070
     1
1070
    44
1040
1.0
1070
    74
1070
     0
1000
MTEXTEND
1000
MTEXTBEGIN
1070
    73
1070
     1
1070
    44
1040
1.0
1070
    74
1070
     0
1000
MTEXTEND
1000
MTEXTBEGIN
1070
    73
1070
     1
1070
    44
1040
1.0
1070
    74
1070
     0
1000
MTEXTEND
  0
POINT
  5
1523
330
B8F
100
AcDbEntity
  8
DEFPOINTS
 62
     0
100
AcDbPoint
 10
110.7899896973881
 20
257.4258115103968
 30
0.0
  0
POINT
  5
1524
330
B8F
100
AcDbEntity
  8
DEFPOINTS
 62
     0
100
AcDbPoint
 10
196.8095896973882
 20
257.42570638348
 30
0.0
  0
POINT
  5
1525
330
B8F
100
AcDbEntity
  8
DEFPOINTS
 62
     0
100
AcDbPoint
 10
196.8095896973882
 20
288.3245282477673
 30
0.0
  0
ENDBLK
  5
B9A
330
B8F
100
AcDbEntity
  8
0
100
AcDbBlockEnd
  0
BLOCK
  5
BA9
330
B9D
100
AcDbEntity
  8
0
100
AcDbBlockBegin
  2
*D3
 70
     1
 10
0.0
 20
0.0
 30
0.0
  3
*D3
  1

  0
LINE
  5
1526
330
B9D
100
AcDbEntity
  8
SUNPOU
100
AcDbLine
 10
195.8022442046294
 20
223.9257071552084
 30
0.0
 11
218.4436263720126
 21
223.9257071552084
 31
0.0
  0
LINE
  5
1527
330
B9D
100
AcDbEntity
  8
SUNPOU
100
AcDbLine
 10
194.2996896973882
 20
213.9257115103968
 30
0.0
 11
218.4436263720126
 21
213.9257115103968
 31
0.0
  0
LINE
  5
1528
330
B9D
100
AcDbEntity
  8
SUNPOU
100
AcDbLine
 10
215.4436263720126
 20
230.9257071552083
 30
0.0
 11
215.4436263720126
 21
237.9257071552083
 31
0.0
  0
LINE
  5
1529
330
B9D
100
AcDbEntity
  8
SUNPOU
100
AcDbLine
 10
215.4436263720126
 20
206.9257115103968
 30
0.0
 11
215.4436263720126
 21
182.1257115103968
 31
0.0
  0
LINE
  5
152A
330
B9D
100
AcDbEntity
  8
SUNPOU
100
AcDbLine
 10
215.4436263720126
 20
223.9257071552084
 30
0.0
 11
215.4436263720126
 21
213.9257115103968
 31
0.0
  0
INSERT
  5
152B
330
B9D
100
AcDbEntity
  8
SUNPOU
100
AcDbBlockReference
  2
_OPEN
 10
215.4436263720126
 20
223.9257071552084
 30
0.0
 41
7.0
 42
7.0
 43
7.0
 50
270.0
  0
INSERT
  5
152C
330
B9D
100
AcDbEntity
  8
SUNPOU
100
AcDbBlockReference
  2
_OPEN
 10
215.4436263720126
 20
213.9257115103968
 30
0.0
 41
7.0
 42
7.0
 43
7.0
 50
90.0
  0
MTEXT
  5
152D
330
B9D
100
AcDbEntity
  8
SUNPOU
100
AcDbMText
 10
210.4436263720125
 20
191.0257115103968
 30
0.0
 40
6.0
 41
0.0
 71
     5
 72
     1
  1
\A1;\U+203B10
 11
0.0000000000000001
 21
1.0
 31
0.0
1001
ACAD
1000
MTEXTBEGIN
1070
    73
1070
     1
1070
    44
1040
1.0
1070
    74
1070
     0
1000
MTEXTEND
1000
MTEXTBEGIN
1070
    73
1070
     1
1070
    44
1040
1.0
1070
    74
1070
     0
1000
MTEXTEND
1000
MTEXTBEGIN
1070
    73
1070
     1
1070
    44
1040
1.0
1070
    74
1070
     0
1000
MTEXTEND
  0
POINT
  5
152E
330
B9D
100
AcDbEntity
  8
DEFPOINTS
 62
     0
100
AcDbPoint
 10
189.8022442046294
 20
223.9257071552084
 30
0.0
  0
POINT
  5
152F
330
B9D
100
AcDbEntity
  8
DEFPOINTS
 62
     0
100
AcDbPoint
 10
188.2996896973882
 20
213.9257115103968
 30
0.0
  0
POINT
  5
1530
330
B9D
100
AcDbEntity
  8
DEFPOINTS
 62
     0
100
AcDbPoint
 10
215.4436263720126
 20
213.9257115103968
 30
0.0
  0
ENDBLK
  5
BAA
330
B9D
100
AcDbEntity
  8
0
100
AcDbBlockEnd
  0
BLOCK
  5
BB6
330
BAC
100
AcDbEntity
  8
0
100
AcDbBlockBegin
  2
*D4
 70
     1
 10
0.0
 20
0.0
 30
0.0
  3
*D4
  1

  0
LINE
  5
1531
330
BAC
100
AcDbEntity
  8
SUNPOU
100
AcDbLine
 10
117.7996896973882
 20
211.9258115103968
 30
0.0
 11
117.7996896973882
 21
176.7330059013993
 31
0.0
  0
LINE
  5
1532
330
BAC
100
AcDbEntity
  8
SUNPOU
100
AcDbLine
 10
189.799689697388
 20
211.9257115103968
 30
0.0
 11
189.799689697388
 21
176.7330059013993
 31
0.0
  0
LINE
  5
1533
330
BAC
100
AcDbEntity
  8
SUNPOU
100
AcDbLine
 10
124.7996896973882
 20
179.7330059013993
 30
0.0
 11
182.7996896973879
 21
179.7330059013993
 31
0.0
  0
INSERT
  5
1534
330
BAC
100
AcDbEntity
  8
SUNPOU
100
AcDbBlockReference
  2
_OPEN
 10
117.7996896973882
 20
179.7330059013993
 30
0.0
 41
7.0
 42
7.0
 43
7.0
 50
180.0
  0
INSERT
  5
1535
330
BAC
100
AcDbEntity
  8
SUNPOU
100
AcDbBlockReference
  2
_OPEN
 10
189.799689697388
 20
179.7330059013993
 30
0.0
 41
7.0
 42
7.0
 43
7.0
  0
MTEXT
  5
1536
330
BAC
100
AcDbEntity
  8
SUNPOU
100
AcDbMText
 10
153.7996896973881
 20
184.7330059013993
 30
0.0
 40
6.0
 41
0.0
 71
     5
 72
     1
  1
\A1;72
1001
ACAD
1000
MTEXTBEGIN
1070
    73
1070
     1
1070
    44
1040
1.0
1070
    74
1070
     0
1000
MTEXTEND
1000
MTEXTBEGIN
1070
    73
1070
     1
1070
    44
1040
1.0
1070
    74
1070
     0
1000
MTEXTEND
1000
MTEXTBEGIN
1070
    73
1070
     1
1070
    44
1040
1.0
1070
    74
1070
     0
1000
MTEXTEND
  0
POINT
  5
1537
330
BAC
100
AcDbEntity
  8
DEFPOINTS
 62
     0
100
AcDbPoint
 10
117.7996896973882
 20
217.9258115103968
 30
0.0
  0
POINT
  5
1538
330
BAC
100
AcDbEntity
  8
DEFPOINTS
 62
     0
100
AcDbPoint
 10
189.799689697388
 20
217.9257115103968
 30
0.0
  0
POINT
  5
1539
330
BAC
100
AcDbEntity
  8
DEFPOINTS
 62
     0
100
AcDbPoint
 10
189.799689697388
 20
179.7330059013993
 30
0.0
  0
ENDBLK
  5
BB7
330
BAC
100
AcDbEntity
  8
0
100
AcDbBlockEnd
  0
BLOCK
  5
BCA
330
BC4
100
AcDbEntity
  8
0
100
AcDbBlockBegin
  2
*D5
 70
     1
 10
0.0
 20
0.0
 30
0.0
  3
*D5
  1

  0
LINE
  5
1654
330
BC4
100
AcDbEntity
  8
SUNPOU
100
AcDbLine
 10
136.1850234366666
 20
378.5137234702141
 30
0.0
 11
171.4144823655389
 21
408.0921822464738
 31
0.0
  0
MTEXT
  5
1655
330
BC4
100
AcDbEntity
  8
SUNPOU
100
AcDbMText
 10
161.0899440753455
 20
407.1396728992254
 30
0.0
 40
6.0
 41
0.0
 71
     5
 72
     1
  1
\A1;\U+220560
 11
0.7658578028015711
 21
0.6430099733969527
 31
0.0
  0
INSERT
  5
1656
330
BC4
100
AcDbEntity
  8
SUNPOU
100
AcDbBlockReference
  2
_OPEN
 10
130.8240188170556
 20
374.0126536564354
 30
0.0
 41
7.0
 42
7.0
 43
7.0
 50
220.0166335705401
  0
INSERT
  5
1657
330
BC4
100
AcDbEntity
  8
SUNPOU
100
AcDbBlockReference
  2
_OPEN
 10
176.7754869851498
 20
412.5932520602525
 30
0.0
 41
7.0
 42
7.0
 43
7.0
 50
40.01663357054016
  0
POINT
  5
1658
330
BC4
100
AcDbEntity
  8
DEFPOINTS
 62
     0
100
AcDbPoint
 10
176.7754869851498
 20
412.5932520602525
 30
0.0
  0
POINT
  5
1659
330
BC4
100
AcDbEntity
  8
DEFPOINTS
 62
     0
100
AcDbPoint
 10
130.8240188170556
 20
374.0126536564354
 30
0.0
  0
ENDBLK
  5
BCB
330
BC4
100
AcDbEntity
  8
0
100
AcDbBlockEnd
  0
BLOCK
  5
BD7
330
BCD
100
AcDbEntity
  8
0
100
AcDbBlockBegin
  2
*D6
 70
     1
 10
0.0
 20
0.0
 30
0.0
  3
*D6
  1

  0
LINE
  5
153A
330
BCD
100
AcDbEntity
  8
SUNPOU
100
AcDbLine
 10
193.3228181711804
 20
436.3127537511117
 30
0.0
 11
241.5709359926077
 21
436.3127537511117
 31
0.0
  0
LINE
  5
153B
330
BCD
100
AcDbEntity
  8
SUNPOU
100
AcDbLine
 10
193.3227199567161
 20
350.2931537511118
 30
0.0
 11
241.5709359926077
 21
350.2931537511118
 31
0.0
  0
LINE
  5
153C
330
BCD
100
AcDbEntity
  8
SUNPOU
100
AcDbLine
 10
238.5709359926077
 20
429.3127537511118
 30
0.0
 11
238.5709359926077
 21
357.2931537511117
 31
0.0
  0
INSERT
  5
153D
330
BCD
100
AcDbEntity
  8
SUNPOU
100
AcDbBlockReference
  2
_OPEN
 10
238.5709359926077
 20
436.3127537511117
 30
0.0
 41
7.0
 42
7.0
 43
7.0
 50
90.0
  0
INSERT
  5
153E
330
BCD
100
AcDbEntity
  8
SUNPOU
100
AcDbBlockReference
  2
_OPEN
 10
238.5709359926077
 20
350.2931537511118
 30
0.0
 41
7.0
 42
7.0
 43
7.0
 50
270.0
  0
MTEXT
  5
153F
330
BCD
100
AcDbEntity
  8
SUNPOU
100
AcDbMText
 10
233.5709359926076
 20
393.3029537511119
 30
0.0
 40
6.0
 41
0.0
 71
     5
 72
     1
  1
\A1;86
 11
0.0000000000000001
 21
1.0
 31
0.0
1001
ACAD
1000
MTEXTBEGIN
1070
    73
1070
     1
1070
    44
1040
1.0
1070
    74
1070
     0
1000
MTEXTEND
1000
MTEXTBEGIN
1070
    73
1070
     1
1070
    44
1040
1.0
1070
    74
1070
     0
1000
MTEXTEND
1000
MTEXTBEGIN
1070
    73
1070
     1
1070
    44
1040
1.0
1070
    74
1070
     0
1000
MTEXTEND
  0
POINT
  5
1540
330
BCD
100
AcDbEntity
  8
DEFPOINTS
 62
     0
100
AcDbPoint
 10
187.3228181711804
 20
436.3127537511117
 30
0.0
  0
POINT
  5
1541
330
BCD
100
AcDbEntity
  8
DEFPOINTS
 62
     0
100
AcDbPoint
 10
187.3227199567161
 20
350.2931537511118
 30
0.0
  0
POINT
  5
1542
330
BCD
100
AcDbEntity
  8
DEFPOINTS
 62
     0
100
AcDbPoint
 10
238.5709359926077
 20
350.2931537511118
 30
0.0
  0
ENDBLK
  5
BD8
330
BCD
100
AcDbEntity
  8
0
100
AcDbBlockEnd
  0
BLOCK
  5
BE4
330
BDA
100
AcDbEntity
  8
0
100
AcDbBlockBegin
  2
*D7
 70
     1
 10
0.0
 20
0.0
 30
0.0
  3
*D7
  1

  0
LINE
  5
1543
330
BDA
100
AcDbEntity
  8
SUNPOU
100
AcDbLine
 10
432.4760974577531
 20
433.3030028583439
 30
0.0
 11
477.1037612020391
 21
433.3030028583439
 31
0.0
  0
LINE
  5
1544
330
BDA
100
AcDbEntity
  8
SUNPOU
100
AcDbLine
 10
432.4760974577531
 20
353.3030028583439
 30
0.0
 11
477.1037612020391
 21
353.3030028583439
 31
0.0
  0
LINE
  5
1545
330
BDA
100
AcDbEntity
  8
SUNPOU
100
AcDbLine
 10
474.1037612020391
 20
426.3030028583439
 30
0.0
 11
474.1037612020391
 21
360.3030028583439
 31
0.0
  0
INSERT
  5
1546
330
BDA
100
AcDbEntity
  8
SUNPOU
100
AcDbBlockReference
  2
_OPEN
 10
474.1037612020391
 20
433.3030028583439
 30
0.0
 41
7.0
 42
7.0
 43
7.0
 50
90.0
  0
INSERT
  5
1547
330
BDA
100
AcDbEntity
  8
SUNPOU
100
AcDbBlockReference
  2
_OPEN
 10
474.1037612020391
 20
353.3030028583439
 30
0.0
 41
7.0
 42
7.0
 43
7.0
 50
270.0
  0
MTEXT
  5
1548
330
BDA
100
AcDbEntity
  8
SUNPOU
100
AcDbMText
 10
469.103761202039
 20
393.3030028583439
 30
0.0
 40
6.0
 41
0.0
 71
     5
 72
     1
  1
\A1;80
 11
0.0000000000000001
 21
1.0
 31
0.0
1001
ACAD
1000
MTEXTBEGIN
1070
    73
1070
     1
1070
    44
1040
1.0
1070
    74
1070
     0
1000
MTEXTEND
1000
MTEXTBEGIN
1070
    73
1070
     1
1070
    44
1040
1.0
1070
    74
1070
     0
1000
MTEXTEND
1000
MTEXTBEGIN
1070
    73
1070
     1
1070
    44
1040
1.0
1070
    74
1070
     0
1000
MTEXTEND
  0
POINT
  5
1549
330
BDA
100
AcDbEntity
  8
DEFPOINTS
 62
     0
100
AcDbPoint
 10
426.4760974577531
 20
433.3030028583439
 30
0.0
  0
POINT
  5
154A
330
BDA
100
AcDbEntity
  8
DEFPOINTS
 62
     0
100
AcDbPoint
 10
426.4760974577531
 20
353.3030028583439
 30
0.0
  0
POINT
  5
154B
330
BDA
100
AcDbEntity
  8
DEFPOINTS
 62
     0
100
AcDbPoint
 10
474.1037612020391
 20
353.3030028583439
 30
0.0
  0
ENDBLK
  5
BE5
330
BDA
100
AcDbEntity
  8
0
100
AcDbBlockEnd
  0
BLOCK
  5
BF1
330
BE7
100
AcDbEntity
  8
0
100
AcDbBlockBegin
  2
*D8
 70
     1
 10
0.0
 20
0.0
 30
0.0
  3
*D8
  1

  0
LINE
  5
154C
330
BE7
100
AcDbEntity
  8
SUNPOU
100
AcDbLine
 10
436.4760974577531
 20
357.3030028583439
 30
0.0
 11
436.4760974577531
 21
323.9275843445839
 31
0.0
  0
LINE
  5
154D
330
BE7
100
AcDbEntity
  8
SUNPOU
100
AcDbLine
 10
356.4760974577531
 20
357.3030028583439
 30
0.0
 11
356.4760974577531
 21
323.9275843445839
 31
0.0
  0
LINE
  5
154E
330
BE7
100
AcDbEntity
  8
SUNPOU
100
AcDbLine
 10
429.476097457753
 20
326.9275843445839
 30
0.0
 11
363.4760974577531
 21
326.9275843445839
 31
0.0
  0
INSERT
  5
154F
330
BE7
100
AcDbEntity
  8
SUNPOU
100
AcDbBlockReference
  2
_OPEN
 10
436.4760974577531
 20
326.9275843445839
 30
0.0
 41
7.0
 42
7.0
 43
7.0
  0
INSERT
  5
1550
330
BE7
100
AcDbEntity
  8
SUNPOU
100
AcDbBlockReference
  2
_OPEN
 10
356.4760974577531
 20
326.9275843445839
 30
0.0
 41
7.0
 42
7.0
 43
7.0
 50
180.0
  0
MTEXT
  5
1551
330
BE7
100
AcDbEntity
  8
SUNPOU
100
AcDbMText
 10
396.4760974577531
 20
331.9275843445839
 30
0.0
 40
6.0
 41
0.0
 71
     5
 72
     1
  1
\A1;80
1001
ACAD
1000
MTEXTBEGIN
1070
    73
1070
     1
1070
    44
1040
1.0
1070
    74
1070
     0
1000
MTEXTEND
1000
MTEXTBEGIN
1070
    73
1070
     1
1070
    44
1040
1.0
1070
    74
1070
     0
1000
MTEXTEND
1000
MTEXTBEGIN
1070
    73
1070
     1
1070
    44
1040
1.0
1070
    74
1070
     0
1000
MTEXTEND
  0
POINT
  5
1552
330
BE7
100
AcDbEntity
  8
DEFPOINTS
 62
     0
100
AcDbPoint
 10
436.4760974577531
 20
363.3030028583439
 30
0.0
  0
POINT
  5
1553
330
BE7
100
AcDbEntity
  8
DEFPOINTS
 62
     0
100
AcDbPoint
 10
356.4760974577531
 20
363.3030028583439
 30
0.0
  0
POINT
  5
1554
330
BE7
100
AcDbEntity
  8
DEFPOINTS
 62
     0
100
AcDbPoint
 10
356.4760974577531
 20
326.9275843445839
 30
0.0
  0
ENDBLK
  5
BF2
330
BE7
100
AcDbEntity
  8
0
100
AcDbBlockEnd
  0
BLOCK
  5
C03
330
BFD
100
AcDbEntity
  8
0
100
AcDbBlockBegin
  2
*D9
 70
     1
 10
0.0
 20
0.0
 30
0.0
  3
*D9
  1

  0
LINE
  5
165A
330
BFD
100
AcDbEntity
  8
SUNPOU
100
AcDbLine
 10
377.0202742097298
 20
369.1685680868046
 30
0.0
 11
400.1618147203634
 21
397.8750377564222
 31
0.0
  0
LINE
  5
165B
330
BFD
100
AcDbEntity
  8
SUNPOU
100
AcDbLine
 10
415.9319207057763
 20
417.4374376298832
 30
0.0
 11
412.7139587513461
 21
413.4456408348345
 31
0.0
  0
MTEXT
  5
165C
330
BFD
100
AcDbEntity
  8
SUNPOU
100
AcDbMText
 10
402.8076195763814
 20
408.5868564014321
 30
0.0
 40
6.0
 41
0.0
 71
     5
 72
     1
  1
\A1;\U+220576
 11
0.6276072015491363
 21
0.7785301539206185
 31
0.0
  0
INSERT
  5
165D
330
BFD
100
AcDbEntity
  8
SUNPOU
100
AcDbBlockReference
  2
_OPEN
 10
372.6270237988858
 20
363.7188570093603
 30
0.0
 41
7.0
 42
7.0
 43
7.0
 50
231.1261939901826
  0
INSERT
  5
165E
330
BFD
100
AcDbEntity
  8
SUNPOU
100
AcDbBlockReference
  2
_OPEN
 10
420.3251711166203
 20
422.8871487073274
 30
0.0
 41
7.0
 42
7.0
 43
7.0
 50
51.12619399018261
  0
POINT
  5
165F
330
BFD
100
AcDbEntity
  8
DEFPOINTS
 62
     0
100
AcDbPoint
 10
420.3251711166203
 20
422.8871487073274
 30
0.0
  0
POINT
  5
1660
330
BFD
100
AcDbEntity
  8
DEFPOINTS
 62
     0
100
AcDbPoint
 10
372.6270237988858
 20
363.7188570093603
 30
0.0
  0
ENDBLK
  5
C04
330
BFD
100
AcDbEntity
  8
0
100
AcDbBlockEnd
  0
BLOCK
  5
C0F
330
C06
100
AcDbEntity
  8
0
100
AcDbBlockBegin
  2
*D10
 70
     1
 10
0.0
 20
0.0
 30
0.0
  3
*D10
  1

  0
LINE
  5
12FB
330
C06
100
AcDbEntity
  8
SUNPOU
100
AcDbLine
 10
456.5800890888884
 20
403.7198253402066
 30
0.0
 11
429.9766829592702
 21
399.1091006355003
 31
0.0
  0
LINE
  5
12FC
330
C06
100
AcDbEntity
  8
SUNPOU
100
AcDbLine
 10
362.9755119562357
 20
387.496905081187
 30
0.0
 11
356.0783325892976
 21
386.3015320095965
 31
0.0
  0
MTEXT
  5
12FD
330
C06
100
AcDbEntity
  8
SUNPOU
100
AcDbMText
 10
445.8731377992694
 20
406.9387062143189
 30
0.0
 40
6.0
 41
0.0
 71
     5
 72
     1
  1
\A1;\U+220554
 11
0.9853113381340101
 21
0.1707675816557898
 31
0.0
1001
ACAD
1000
MTEXTBEGIN
1070
    73
1070
     1
1070
    44
1040
1.0
1070
    74
1070
     0
1000
MTEXTEND
1000
MTEXTBEGIN
1070
    73
1070
     1
1070
    44
1040
1.0
1070
    74
1070
     0
1000
MTEXTEND
1000
MTEXTBEGIN
1070
    73
1070
     1
1070
    44
1040
1.0
1070
    74
1070
     0
1000
MTEXTEND
1000
MTEXTBEGIN
1070
    73
1070
     1
1070
    44
1040
1.0
1070
    74
1070
     0
1000
MTEXTEND
  0
LINE
  5
12FE
330
C06
100
AcDbEntity
  8
SUNPOU
100
AcDbLine
 10
369.8726913231737
 20
388.6922781527776
 30
0.0
 11
423.079503592332
 21
397.9137275639098
 31
0.0
  0
INSERT
  5
12FF
330
C06
100
AcDbEntity
  8
SUNPOU
100
AcDbBlockReference
  2
_OPEN
 10
369.8726913231737
 20
388.6922781527776
 30
0.0
 41
7.0
 42
7.0
 43
7.0
 50
9.832450863455672
  0
INSERT
  5
1300
330
C06
100
AcDbEntity
  8
SUNPOU
100
AcDbBlockReference
  2
_OPEN
 10
423.079503592332
 20
397.9137275639098
 30
0.0
 41
7.0
 42
7.0
 43
7.0
 50
189.8324508634556
  0
POINT
  5
1301
330
C06
100
AcDbEntity
  8
DEFPOINTS
 62
     0
100
AcDbPoint
 10
423.079503592332
 20
397.9137275639098
 30
0.0
  0
POINT
  5
1302
330
C06
100
AcDbEntity
  8
DEFPOINTS
 62
     0
100
AcDbPoint
 10
369.8726913231737
 20
388.6922781527776
 30
0.0
  0
ENDBLK
  5
C10
330
C06
100
AcDbEntity
  8
0
100
AcDbBlockEnd
  0
BLOCK
  5
C1C
330
C12
100
AcDbEntity
  8
0
100
AcDbBlockBegin
  2
*D11
 70
     1
 10
0.0
 20
0.0
 30
0.0
  3
*D11
  1

  0
LINE
  5
1555
330
C12
100
AcDbEntity
  8
SUNPOU
100
AcDbLine
 10
366.476112457753
 20
165.4257615137137
 30
0.0
 11
366.476112457753
 21
137.3499560254213
 31
0.0
  0
LINE
  5
1556
330
C12
100
AcDbEntity
  8
SUNPOU
100
AcDbLine
 10
426.476112457753
 20
165.4257615137137
 30
0.0
 11
426.476112457753
 21
137.3499560254213
 31
0.0
  0
LINE
  5
1557
330
C12
100
AcDbEntity
  8
SUNPOU
100
AcDbLine
 10
373.476112457753
 20
140.3499560254213
 30
0.0
 11
419.476112457753
 21
140.3499560254213
 31
0.0
  0
INSERT
  5
1558
330
C12
100
AcDbEntity
  8
SUNPOU
100
AcDbBlockReference
  2
_OPEN
 10
366.476112457753
 20
140.3499560254213
 30
0.0
 41
7.0
 42
7.0
 43
7.0
 50
180.0
  0
INSERT
  5
1559
330
C12
100
AcDbEntity
  8
SUNPOU
100
AcDbBlockReference
  2
_OPEN
 10
426.476112457753
 20
140.3499560254213
 30
0.0
 41
7.0
 42
7.0
 43
7.0
  0
MTEXT
  5
155A
330
C12
100
AcDbEntity
  8
SUNPOU
100
AcDbMText
 10
396.476112457753
 20
145.3499560254213
 30
0.0
 40
6.0
 41
0.0
 71
     5
 72
     1
  1
\A1;φ60
1001
ACAD
1000
MTEXTBEGIN
1070
    73
1070
     1
1070
    44
1040
1.0
1070
    74
1070
     0
1000
MTEXTEND
1000
MTEXTBEGIN
1070
    73
1070
     1
1070
    44
1040
1.0
1070
    74
1070
     0
1000
MTEXTEND
1000
MTEXTBEGIN
1070
    73
1070
     1
1070
    44
1040
1.0
1070
    74
1070
     0
1000
MTEXTEND
  0
POINT
  5
155B
330
C12
100
AcDbEntity
  8
DEFPOINTS
 62
     0
100
AcDbPoint
 10
366.476112457753
 20
171.4257615137136
 30
0.0
  0
POINT
  5
155C
330
C12
100
AcDbEntity
  8
DEFPOINTS
 62
     0
100
AcDbPoint
 10
426.476112457753
 20
171.4257615137136
 30
0.0
  0
POINT
  5
155D
330
C12
100
AcDbEntity
  8
DEFPOINTS
 62
     0
100
AcDbPoint
 10
426.476112457753
 20
140.3499560254213
 30
0.0
  0
ENDBLK
  5
C1D
330
C12
100
AcDbEntity
  8
0
100
AcDbBlockEnd
  0
BLOCK
  5
C29
330
C1F
100
AcDbEntity
  8
0
100
AcDbBlockBegin
  2
*D12
 70
     1
 10
0.0
 20
0.0
 30
0.0
  3
*D12
  1

  0
LINE
  5
155E
330
C1F
100
AcDbEntity
  8
SUNPOU
100
AcDbLine
 10
356.4760974577531
 20
263.4257615104136
 30
0.0
 11
356.4760974577531
 21
293.0451501695033
 31
0.0
  0
LINE
  5
155F
330
C1F
100
AcDbEntity
  8
SUNPOU
100
AcDbLine
 10
436.4760974577531
 20
263.4257615104136
 30
0.0
 11
436.4760974577531
 21
293.0451501695033
 31
0.0
  0
LINE
  5
1560
330
C1F
100
AcDbEntity
  8
SUNPOU
100
AcDbLine
 10
363.4760974577531
 20
290.0451501695033
 30
0.0
 11
429.476097457753
 21
290.0451501695033
 31
0.0
  0
INSERT
  5
1561
330
C1F
100
AcDbEntity
  8
SUNPOU
100
AcDbBlockReference
  2
_OPEN
 10
356.4760974577531
 20
290.0451501695033
 30
0.0
 41
7.0
 42
7.0
 43
7.0
 50
180.0
  0
INSERT
  5
1562
330
C1F
100
AcDbEntity
  8
SUNPOU
100
AcDbBlockReference
  2
_OPEN
 10
436.4760974577531
 20
290.0451501695033
 30
0.0
 41
7.0
 42
7.0
 43
7.0
  0
MTEXT
  5
1563
330
C1F
100
AcDbEntity
  8
SUNPOU
100
AcDbMText
 10
396.4760974577531
 20
295.0451501695033
 30
0.0
 40
6.0
 41
0.0
 71
     5
 72
     1
  1
\A1;φ80
1001
ACAD
1000
MTEXTBEGIN
1070
    73
1070
     1
1070
    44
1040
1.0
1070
    74
1070
     0
1000
MTEXTEND
1000
MTEXTBEGIN
1070
    73
1070
     1
1070
    44
1040
1.0
1070
    74
1070
     0
1000
MTEXTEND
1000
MTEXTBEGIN
1070
    73
1070
     1
1070
    44
1040
1.0
1070
    74
1070
     0
1000
MTEXTEND
  0
POINT
  5
1564
330
C1F
100
AcDbEntity
  8
DEFPOINTS
 62
     0
100
AcDbPoint
 10
356.4760974577531
 20
257.4257615104136
 30
0.0
  0
POINT
  5
1565
330
C1F
100
AcDbEntity
  8
DEFPOINTS
 62
     0
100
AcDbPoint
 10
436.4760974577531
 20
257.4257615104136
 30
0.0
  0
POINT
  5
1566
330
C1F
100
AcDbEntity
  8
DEFPOINTS
 62
     0
100
AcDbPoint
 10
436.4760974577531
 20
290.0451501695033
 30
0.0
  0
ENDBLK
  5
C2A
330
C1F
100
AcDbEntity
  8
0
100
AcDbBlockEnd
  0
BLOCK
  5
C38
330
C2C
100
AcDbEntity
  8
0
100
AcDbBlockBegin
  2
*D13
 70
     1
 10
0.0
 20
0.0
 30
0.0
  3
*D13
  1

  0
LINE
  5
12DE
330
C2C
100
AcDbEntity
  8
SUNPOU
100
AcDbLine
 10
420.476112457753
 20
235.4257615137136
 30
0.0
 11
433.6477800424745
 21
235.4257615137136
 31
0.0
  0
LINE
  5
12DF
330
C2C
100
AcDbEntity
  8
SUNPOU
100
AcDbLine
 10
420.476112457753
 20
248.4257615107137
 30
0.0
 11
433.6477800424745
 21
248.4257615107137
 31
0.0
  0
LINE
  5
12E0
330
C2C
100
AcDbEntity
  8
SUNPOU
100
AcDbLine
 10
430.6477800424745
 20
228.4257615137136
 30
0.0
 11
430.6477800424745
 21
221.4257615137137
 31
0.0
  0
LINE
  5
12E1
330
C2C
100
AcDbEntity
  8
SUNPOU
100
AcDbLine
 10
430.6477800424745
 20
255.4257615107137
 30
0.0
 11
430.6477800424745
 21
262.4257615107136
 31
0.0
  0
LINE
  5
12E2
330
C2C
100
AcDbEntity
  8
SUNPOU
100
AcDbLine
 10
430.6477800424745
 20
235.4257615137136
 30
0.0
 11
430.6477800424745
 21
248.4257615107137
 31
0.0
  0
INSERT
  5
12E3
330
C2C
100
AcDbEntity
  8
SUNPOU
100
AcDbBlockReference
  2
_OPEN
 10
430.6477800424745
 20
235.4257615137136
 30
0.0
 41
7.0
 42
7.0
 43
7.0
 50
90.0
  0
INSERT
  5
12E4
330
C2C
100
AcDbEntity
  8
SUNPOU
100
AcDbBlockReference
  2
_OPEN
 10
430.6477800424745
 20
248.4257615107137
 30
0.0
 41
7.0
 42
7.0
 43
7.0
 50
270.0
  0
MTEXT
  5
12E5
330
C2C
100
AcDbEntity
  8
SUNPOU
100
AcDbMText
 10
425.6477800424745
 20
241.9257615122137
 30
0.0
 40
6.0
 41
0.0
 71
     5
 72
     1
  1
\A1;13
 11
0.0000000000000001
 21
1.0
 31
0.0
1001
ACAD
1000
MTEXTBEGIN
1070
    73
1070
     1
1070
    44
1040
1.0
1070
    74
1070
     0
1000
MTEXTEND
1000
MTEXTBEGIN
1070
    73
1070
     1
1070
    44
1040
1.0
1070
    74
1070
     0
1000
MTEXTEND
1000
MTEXTBEGIN
1070
    73
1070
     1
1070
    44
1040
1.0
1070
    74
1070
     0
1000
MTEXTEND
1000
MTEXTBEGIN
1070
    73
1070
     1
1070
    44
1040
1.0
1070
    74
1070
     0
1000
MTEXTEND
  0
POINT
  5
12E6
330
C2C
100
AcDbEntity
  8
DEFPOINTS
 62
     0
100
AcDbPoint
 10
414.476112457753
 20
235.4257615137136
 30
0.0
  0
POINT
  5
12E7
330
C2C
100
AcDbEntity
  8
DEFPOINTS
 62
     0
100
AcDbPoint
 10
414.476112457753
 20
248.4257615107137
 30
0.0
  0
POINT
  5
12E8
330
C2C
100
AcDbEntity
  8
DEFPOINTS
 62
     0
100
AcDbPoint
 10
430.6477800424745
 20
248.4257615107137
 30
0.0
  0
ENDBLK
  5
C39
330
C2C
100
AcDbEntity
  8
0
100
AcDbBlockEnd
  0
BLOCK
  5
C45
330
C3B
100
AcDbEntity
  8
0
100
AcDbBlockBegin
  2
*D14
 70
     1
 10
0.0
 20
0.0
 30
0.0
  3
*D14
  1

  0
LINE
  5
1567
330
C3B
100
AcDbEntity
  8
SUNPOU
100
AcDbLine
 10
416.476112456253
 20
252.4257615137137
 30
0.0
 11
416.476112456253
 21
278.4132865338206
 31
0.0
  0
LINE
  5
1568
330
C3B
100
AcDbEntity
  8
SUNPOU
100
AcDbLine
 10
376.476112459253
 20
252.4257615137137
 30
0.0
 11
376.476112459253
 21
278.4132865338206
 31
0.0
  0
LINE
  5
1569
330
C3B
100
AcDbEntity
  8
SUNPOU
100
AcDbLine
 10
409.4761124562531
 20
275.4132865338206
 30
0.0
 11
383.476112459253
 21
275.4132865338206
 31
0.0
  0
INSERT
  5
156A
330
C3B
100
AcDbEntity
  8
SUNPOU
100
AcDbBlockReference
  2
_OPEN
 10
416.476112456253
 20
275.4132865338206
 30
0.0
 41
7.0
 42
7.0
 43
7.0
  0
INSERT
  5
156B
330
C3B
100
AcDbEntity
  8
SUNPOU
100
AcDbBlockReference
  2
_OPEN
 10
376.476112459253
 20
275.4132865338206
 30
0.0
 41
7.0
 42
7.0
 43
7.0
 50
180.0
  0
MTEXT
  5
156C
330
C3B
100
AcDbEntity
  8
SUNPOU
100
AcDbMText
 10
396.476112457753
 20
280.4132865338205
 30
0.0
 40
6.0
 41
0.0
 71
     5
 72
     1
  1
\A1;40
1001
ACAD
1000
MTEXTBEGIN
1070
    73
1070
     1
1070
    44
1040
1.0
1070
    74
1070
     0
1000
MTEXTEND
1000
MTEXTBEGIN
1070
    73
1070
     1
1070
    44
1040
1.0
1070
    74
1070
     0
1000
MTEXTEND
1000
MTEXTBEGIN
1070
    73
1070
     1
1070
    44
1040
1.0
1070
    74
1070
     0
1000
MTEXTEND
  0
POINT
  5
156D
330
C3B
100
AcDbEntity
  8
DEFPOINTS
 62
     0
100
AcDbPoint
 10
416.476112456253
 20
246.4257615137137
 30
0.0
  0
POINT
  5
156E
330
C3B
100
AcDbEntity
  8
DEFPOINTS
 62
     0
100
AcDbPoint
 10
376.476112459253
 20
246.4257615137137
 30
0.0
  0
POINT
  5
156F
330
C3B
100
AcDbEntity
  8
DEFPOINTS
 62
     0
100
AcDbPoint
 10
376.476112459253
 20
275.4132865338206
 30
0.0
  0
ENDBLK
  5
C46
330
C3B
100
AcDbEntity
  8
0
100
AcDbBlockEnd
  0
BLOCK
  5
C6C
330
C62
100
AcDbEntity
  8
0
100
AcDbBlockBegin
  2
*D15
 70
     1
 10
0.0
 20
0.0
 30
0.0
  3
*D15
  1

  0
LINE
  5
1570
330
C62
100
AcDbEntity
  8
SUNPOU
100
AcDbLine
 10
376.976097457753
 20
205.4257615137137
 30
0.0
 11
376.976097457753
 21
216.8844335671556
 31
0.0
  0
LINE
  5
1571
330
C62
100
AcDbEntity
  8
SUNPOU
100
AcDbLine
 10
416.976097457753
 20
205.4257615137137
 30
0.0
 11
416.976097457753
 21
216.8844335671556
 31
0.0
  0
LINE
  5
1572
330
C62
100
AcDbEntity
  8
SUNPOU
100
AcDbLine
 10
383.9760974577531
 20
213.8844335671556
 30
0.0
 11
409.9760974577531
 21
213.8844335671556
 31
0.0
  0
INSERT
  5
1573
330
C62
100
AcDbEntity
  8
SUNPOU
100
AcDbBlockReference
  2
_OPEN
 10
376.976097457753
 20
213.8844335671556
 30
0.0
 41
7.0
 42
7.0
 43
7.0
 50
180.0
  0
INSERT
  5
1574
330
C62
100
AcDbEntity
  8
SUNPOU
100
AcDbBlockReference
  2
_OPEN
 10
416.976097457753
 20
213.8844335671556
 30
0.0
 41
7.0
 42
7.0
 43
7.0
  0
MTEXT
  5
1575
330
C62
100
AcDbEntity
  8
SUNPOU
100
AcDbMText
 10
396.976097457753
 20
218.8844335671556
 30
0.0
 40
6.0
 41
0.0
 71
     5
 72
     1
  1
\A1;40
1001
ACAD
1000
MTEXTBEGIN
1070
    73
1070
     1
1070
    44
1040
1.0
1070
    74
1070
     0
1000
MTEXTEND
1000
MTEXTBEGIN
1070
    73
1070
     1
1070
    44
1040
1.0
1070
    74
1070
     0
1000
MTEXTEND
1000
MTEXTBEGIN
1070
    73
1070
     1
1070
    44
1040
1.0
1070
    74
1070
     0
1000
MTEXTEND
  0
POINT
  5
1576
330
C62
100
AcDbEntity
  8
DEFPOINTS
 62
     0
100
AcDbPoint
 10
376.976097457753
 20
199.4257615137136
 30
0.0
  0
POINT
  5
1577
330
C62
100
AcDbEntity
  8
DEFPOINTS
 62
     0
100
AcDbPoint
 10
416.976097457753
 20
199.4257615137136
 30
0.0
  0
POINT
  5
1578
330
C62
100
AcDbEntity
  8
DEFPOINTS
 62
     0
100
AcDbPoint
 10
416.976097457753
 20
213.8844335671556
 30
0.0
  0
ENDBLK
  5
C6D
330
C62
100
AcDbEntity
  8
0
100
AcDbBlockEnd
  0
BLOCK
  5
C7C
330
C70
100
AcDbEntity
  8
0
100
AcDbBlockBegin
  2
*D16
 70
     1
 10
0.0
 20
0.0
 30
0.0
  3
*D16
  1

  0
LINE
  5
1579
330
C70
100
AcDbEntity
  8
SUNPOU
100
AcDbLine
 10
442.4761274577531
 20
191.4257615137136
 30
0.0
 11
455.9044086719167
 21
191.4257615137136
 31
0.0
  0
LINE
  5
157A
330
C70
100
AcDbEntity
  8
SUNPOU
100
AcDbLine
 10
420.976097457753
 20
201.4257615137136
 30
0.0
 11
455.9044086719167
 21
201.4257615137136
 31
0.0
  0
LINE
  5
157B
330
C70
100
AcDbEntity
  8
SUNPOU
100
AcDbLine
 10
452.9044086719168
 20
184.4257615137136
 30
0.0
 11
452.9044086719168
 21
177.4257615137136
 31
0.0
  0
LINE
  5
157C
330
C70
100
AcDbEntity
  8
SUNPOU
100
AcDbLine
 10
452.9044086719168
 20
208.4257615137136
 30
0.0
 11
452.9044086719168
 21
226.4257615137136
 31
0.0
  0
LINE
  5
157D
330
C70
100
AcDbEntity
  8
SUNPOU
100
AcDbLine
 10
452.9044086719168
 20
191.4257615137136
 30
0.0
 11
452.9044086719168
 21
201.4257615137136
 31
0.0
  0
INSERT
  5
157E
330
C70
100
AcDbEntity
  8
SUNPOU
100
AcDbBlockReference
  2
_OPEN
 10
452.9044086719168
 20
191.4257615137136
 30
0.0
 41
7.0
 42
7.0
 43
7.0
 50
90.0
  0
INSERT
  5
157F
330
C70
100
AcDbEntity
  8
SUNPOU
100
AcDbBlockReference
  2
_OPEN
 10
452.9044086719168
 20
201.4257615137136
 30
0.0
 41
7.0
 42
7.0
 43
7.0
 50
270.0
  0
MTEXT
  5
1580
330
C70
100
AcDbEntity
  8
SUNPOU
100
AcDbMText
 10
447.9044086719167
 20
220.9257615137137
 30
0.0
 40
6.0
 41
0.0
 71
     5
 72
     1
  1
\A1;10
 11
0.0000000000000001
 21
1.0
 31
0.0
1001
ACAD
1000
MTEXTBEGIN
1070
    73
1070
     1
1070
    44
1040
1.0
1070
    74
1070
     0
1000
MTEXTEND
1000
MTEXTBEGIN
1070
    73
1070
     1
1070
    44
1040
1.0
1070
    74
1070
     0
1000
MTEXTEND
1000
MTEXTBEGIN
1070
    73
1070
     1
1070
    44
1040
1.0
1070
    74
1070
     0
1000
MTEXTEND
  0
POINT
  5
1581
330
C70
100
AcDbEntity
  8
DEFPOINTS
 62
     0
100
AcDbPoint
 10
436.4761274577531
 20
191.4257615137136
 30
0.0
  0
POINT
  5
1582
330
C70
100
AcDbEntity
  8
DEFPOINTS
 62
     0
100
AcDbPoint
 10
414.9760974577531
 20
201.4257615137136
 30
0.0
  0
POINT
  5
1583
330
C70
100
AcDbEntity
  8
DEFPOINTS
 62
     0
100
AcDbPoint
 10
452.9044086719168
 20
201.4257615137136
 30
0.0
  0
ENDBLK
  5
C7D
330
C70
100
AcDbEntity
  8
0
100
AcDbBlockEnd
  0
BLOCK
  5
CEB
330
CE1
100
AcDbEntity
  8
0
100
AcDbBlockBegin
  2
*D17
 70
     1
 10
0.0
 20
0.0
 30
0.0
  3
*D17
  1

  0
LINE
  5
1584
330
CE1
100
AcDbEntity
  8
SUNPOU
100
AcDbLine
 10
442.4761274577531
 20
189.4257615137137
 30
0.0
 11
475.9654955019359
 21
189.4257615137136
 31
0.0
  0
LINE
  5
1585
330
CE1
100
AcDbEntity
  8
SUNPOU
100
AcDbLine
 10
442.4761274577531
 20
257.4257615104136
 30
0.0
 11
475.9654955019359
 21
257.4257615104136
 31
0.0
  0
LINE
  5
1586
330
CE1
100
AcDbEntity
  8
SUNPOU
100
AcDbLine
 10
472.9654955019359
 20
196.4257615137136
 30
0.0
 11
472.9654955019359
 21
250.4257615104136
 31
0.0
  0
INSERT
  5
1587
330
CE1
100
AcDbEntity
  8
SUNPOU
100
AcDbBlockReference
  2
_OPEN
 10
472.9654955019359
 20
189.4257615137136
 30
0.0
 41
7.0
 42
7.0
 43
7.0
 50
270.0
  0
INSERT
  5
1588
330
CE1
100
AcDbEntity
  8
SUNPOU
100
AcDbBlockReference
  2
_OPEN
 10
472.9654955019359
 20
257.4257615104136
 30
0.0
 41
7.0
 42
7.0
 43
7.0
 50
90.0
  0
MTEXT
  5
1589
330
CE1
100
AcDbEntity
  8
SUNPOU
100
AcDbMText
 10
467.9654955019358
 20
223.4257615120637
 30
0.0
 40
6.0
 41
0.0
 71
     5
 72
     1
  1
\A1;68
 11
0.0000000000000001
 21
1.0
 31
0.0
1001
ACAD
1000
MTEXTBEGIN
1070
    73
1070
     1
1070
    44
1040
1.0
1070
    74
1070
     0
1000
MTEXTEND
1000
MTEXTBEGIN
1070
    73
1070
     1
1070
    44
1040
1.0
1070
    74
1070
     0
1000
MTEXTEND
1000
MTEXTBEGIN
1070
    73
1070
     1
1070
    44
1040
1.0
1070
    74
1070
     0
1000
MTEXTEND
  0
POINT
  5
158A
330
CE1
100
AcDbEntity
  8
DEFPOINTS
 62
     0
100
AcDbPoint
 10
436.4761274577531
 20
189.4257615137137
 30
0.0
  0
POINT
  5
158B
330
CE1
100
AcDbEntity
  8
DEFPOINTS
 62
     0
100
AcDbPoint
 10
436.4761274577531
 20
257.4257615104136
 30
0.0
  0
POINT
  5
158C
330
CE1
100
AcDbEntity
  8
DEFPOINTS
 62
     0
100
AcDbPoint
 10
472.9654955019359
 20
257.4257615104136
 30
0.0
  0
ENDBLK
  5
CEC
330
CE1
100
AcDbEntity
  8
0
100
AcDbBlockEnd
  0
BLOCK
  5
CF8
330
CEE
100
AcDbEntity
  8
0
100
AcDbBlockBegin
  2
*D18
 70
     1
 10
0.0
 20
0.0
 30
0.0
  3
*D18
  1

  0
LINE
  5
158D
330
CEE
100
AcDbEntity
  8
SUNPOU
100
AcDbLine
 10
442.4761274577531
 20
257.4257615104136
 30
0.0
 11
492.7809481207841
 21
257.4257615104136
 31
0.0
  0
LINE
  5
158E
330
CEE
100
AcDbEntity
  8
SUNPOU
100
AcDbLine
 10
430.726112457753
 20
169.4257615137136
 30
0.0
 11
492.7809481207841
 21
169.4257615137136
 31
0.0
  0
LINE
  5
158F
330
CEE
100
AcDbEntity
  8
SUNPOU
100
AcDbLine
 10
489.7809481207842
 20
250.4257615104136
 30
0.0
 11
489.7809481207842
 21
176.4257615137136
 31
0.0
  0
INSERT
  5
1590
330
CEE
100
AcDbEntity
  8
SUNPOU
100
AcDbBlockReference
  2
_OPEN
 10
489.7809481207842
 20
257.4257615104136
 30
0.0
 41
7.0
 42
7.0
 43
7.0
 50
90.0
  0
INSERT
  5
1591
330
CEE
100
AcDbEntity
  8
SUNPOU
100
AcDbBlockReference
  2
_OPEN
 10
489.7809481207842
 20
169.4257615137136
 30
0.0
 41
7.0
 42
7.0
 43
7.0
 50
270.0
  0
MTEXT
  5
1592
330
CEE
100
AcDbEntity
  8
SUNPOU
100
AcDbMText
 10
484.7809481207841
 20
213.4257615120637
 30
0.0
 40
6.0
 41
0.0
 71
     5
 72
     1
  1
\A1;88
 11
0.0000000000000001
 21
1.0
 31
0.0
1001
ACAD
1000
MTEXTBEGIN
1070
    73
1070
     1
1070
    44
1040
1.0
1070
    74
1070
     0
1000
MTEXTEND
1000
MTEXTBEGIN
1070
    73
1070
     1
1070
    44
1040
1.0
1070
    74
1070
     0
1000
MTEXTEND
1000
MTEXTBEGIN
1070
    73
1070
     1
1070
    44
1040
1.0
1070
    74
1070
     0
1000
MTEXTEND
  0
POINT
  5
1593
330
CEE
100
AcDbEntity
  8
DEFPOINTS
 62
     0
100
AcDbPoint
 10
436.4761274577531
 20
257.4257615104136
 30
0.0
  0
POINT
  5
1594
330
CEE
100
AcDbEntity
  8
DEFPOINTS
 62
     0
100
AcDbPoint
 10
424.726112457753
 20
169.4257615137136
 30
0.0
  0
POINT
  5
1595
330
CEE
100
AcDbEntity
  8
DEFPOINTS
 62
     0
100
AcDbPoint
 10
489.7809481207842
 20
169.4257615137136
 30
0.0
  0
ENDBLK
  5
CF9
330
CEE
100
AcDbEntity
  8
0
100
AcDbBlockEnd
  0
BLOCK
  5
D72
330
D68
100
AcDbEntity
  8
0
100
AcDbBlockBegin
  2
*D19
 70
     1
 10
0.0
 20
0.0
 30
0.0
  3
*D19
  1

  0
LINE
  5
1596
330
D68
100
AcDbEntity
  8
SUNPOU
100
AcDbLine
 10
717.1087572779056
 20
497.1041003855397
 30
0.0
 11
761.6145502157523
 21
497.1041003855397
 31
0.0
  0
LINE
  5
1597
330
D68
100
AcDbEntity
  8
SUNPOU
100
AcDbLine
 10
719.1185854050567
 20
428.8040503888228
 30
0.0
 11
761.6145502157523
 21
428.8040503888228
 31
0.0
  0
LINE
  5
1598
330
D68
100
AcDbEntity
  8
SUNPOU
100
AcDbLine
 10
758.6145502157523
 20
490.1041003855397
 30
0.0
 11
758.6145502157523
 21
435.8040503888228
 31
0.0
  0
INSERT
  5
1599
330
D68
100
AcDbEntity
  8
SUNPOU
100
AcDbBlockReference
  2
_OPEN
 10
758.6145502157523
 20
497.1041003855397
 30
0.0
 41
7.0
 42
7.0
 43
7.0
 50
90.0
  0
INSERT
  5
159A
330
D68
100
AcDbEntity
  8
SUNPOU
100
AcDbBlockReference
  2
_OPEN
 10
758.6145502157523
 20
428.8040503888228
 30
0.0
 41
7.0
 42
7.0
 43
7.0
 50
270.0
  0
MTEXT
  5
159B
330
D68
100
AcDbEntity
  8
SUNPOU
100
AcDbMText
 10
753.6145502157522
 20
462.9540753871814
 30
0.0
 40
6.0
 41
0.0
 71
     5
 72
     1
  1
\A1;68
 11
0.0000000000000001
 21
1.0
 31
0.0
1001
ACAD
1000
MTEXTBEGIN
1070
    73
1070
     1
1070
    44
1040
1.0
1070
    74
1070
     0
1000
MTEXTEND
1000
MTEXTBEGIN
1070
    73
1070
     1
1070
    44
1040
1.0
1070
    74
1070
     0
1000
MTEXTEND
1000
MTEXTBEGIN
1070
    73
1070
     1
1070
    44
1040
1.0
1070
    74
1070
     0
1000
MTEXTEND
  0
POINT
  5
159C
330
D68
100
AcDbEntity
  8
DEFPOINTS
 62
     0
100
AcDbPoint
 10
711.1087572779056
 20
497.1041003855397
 30
0.0
  0
POINT
  5
159D
330
D68
100
AcDbEntity
  8
DEFPOINTS
 62
     0
100
AcDbPoint
 10
713.1185854050568
 20
428.8040503888228
 30
0.0
  0
POINT
  5
159E
330
D68
100
AcDbEntity
  8
DEFPOINTS
 62
     0
100
AcDbPoint
 10
758.6145502157523
 20
428.8040503888228
 30
0.0
  0
ENDBLK
  5
D73
330
D68
100
AcDbEntity
  8
0
100
AcDbBlockEnd
  0
BLOCK
  5
D7F
330
D75
100
AcDbEntity
  8
0
100
AcDbBlockBegin
  2
*D20
 70
     1
 10
0.0
 20
0.0
 30
0.0
  3
*D20
  1

  0
LINE
  5
159F
330
D75
100
AcDbEntity
  8
SUNPOU
100
AcDbLine
 10
716.1087572779056
 20
497.1041003855397
 30
0.0
 11
742.8739738256027
 21
497.1041003855397
 31
0.0
  0
LINE
  5
15A0
330
D75
100
AcDbEntity
  8
SUNPOU
100
AcDbLine
 10
713.6087572779056
 20
472.1041003888396
 30
0.0
 11
742.8739738256027
 21
472.1041003888396
 31
0.0
  0
LINE
  5
15A1
330
D75
100
AcDbEntity
  8
SUNPOU
100
AcDbLine
 10
739.8739738256026
 20
490.1041003855397
 30
0.0
 11
739.8739738256026
 21
479.1041003888397
 31
0.0
  0
INSERT
  5
15A2
330
D75
100
AcDbEntity
  8
SUNPOU
100
AcDbBlockReference
  2
_OPEN
 10
739.8739738256026
 20
497.1041003855397
 30
0.0
 41
7.0
 42
7.0
 43
7.0
 50
90.0
  0
INSERT
  5
15A3
330
D75
100
AcDbEntity
  8
SUNPOU
100
AcDbBlockReference
  2
_OPEN
 10
739.8739738256026
 20
472.1041003888396
 30
0.0
 41
7.0
 42
7.0
 43
7.0
 50
270.0
  0
MTEXT
  5
15A4
330
D75
100
AcDbEntity
  8
SUNPOU
100
AcDbMText
 10
734.8739738256025
 20
484.6041003871897
 30
0.0
 40
6.0
 41
0.0
 71
     5
 72
     1
  1
\A1;25
 11
0.0000000000000001
 21
1.0
 31
0.0
1001
ACAD
1000
MTEXTBEGIN
1070
    73
1070
     1
1070
    44
1040
1.0
1070
    74
1070
     0
1000
MTEXTEND
1000
MTEXTBEGIN
1070
    73
1070
     1
1070
    44
1040
1.0
1070
    74
1070
     0
1000
MTEXTEND
1000
MTEXTBEGIN
1070
    73
1070
     1
1070
    44
1040
1.0
1070
    74
1070
     0
1000
MTEXTEND
  0
POINT
  5
15A5
330
D75
100
AcDbEntity
  8
DEFPOINTS
 62
     0
100
AcDbPoint
 10
710.1087572779056
 20
497.1041003855397
 30
0.0
  0
POINT
  5
15A6
330
D75
100
AcDbEntity
  8
DEFPOINTS
 62
     0
100
AcDbPoint
 10
707.6087572779056
 20
472.1041003888396
 30
0.0
  0
POINT
  5
15A7
330
D75
100
AcDbEntity
  8
DEFPOINTS
 62
     0
100
AcDbPoint
 10
739.8739738256026
 20
472.1041003888396
 30
0.0
  0
ENDBLK
  5
D80
330
D75
100
AcDbEntity
  8
0
100
AcDbBlockEnd
  0
BLOCK
  5
D8C
330
D82
100
AcDbEntity
  8
0
100
AcDbBlockBegin
  2
*D21
 70
     1
 10
0.0
 20
0.0
 30
0.0
  3
*D21
  1

  0
LINE
  5
15A8
330
D82
100
AcDbEntity
  8
SUNPOU
100
AcDbLine
 10
703.1087722779057
 20
443.1041003888396
 30
0.0
 11
742.8739738256027
 21
443.1041003888396
 31
0.0
  0
LINE
  5
15A9
330
D82
100
AcDbEntity
  8
SUNPOU
100
AcDbLine
 10
713.6087572779056
 20
472.1041003888396
 30
0.0
 11
742.8739738256027
 21
472.1041003888396
 31
0.0
  0
LINE
  5
15AA
330
D82
100
AcDbEntity
  8
SUNPOU
100
AcDbLine
 10
739.8739738256026
 20
450.1041003888397
 30
0.0
 11
739.8739738256026
 21
465.1041003888397
 31
0.0
  0
INSERT
  5
15AB
330
D82
100
AcDbEntity
  8
SUNPOU
100
AcDbBlockReference
  2
_OPEN
 10
739.8739738256026
 20
443.1041003888396
 30
0.0
 41
7.0
 42
7.0
 43
7.0
 50
270.0
  0
INSERT
  5
15AC
330
D82
100
AcDbEntity
  8
SUNPOU
100
AcDbBlockReference
  2
_OPEN
 10
739.8739738256026
 20
472.1041003888396
 30
0.0
 41
7.0
 42
7.0
 43
7.0
 50
90.0
  0
MTEXT
  5
15AD
330
D82
100
AcDbEntity
  8
SUNPOU
100
AcDbMText
 10
734.8739738256025
 20
457.6041003888398
 30
0.0
 40
6.0
 41
0.0
 71
     5
 72
     1
  1
\A1;29
 11
0.0000000000000001
 21
1.0
 31
0.0
1001
ACAD
1000
MTEXTBEGIN
1070
    73
1070
     1
1070
    44
1040
1.0
1070
    74
1070
     0
1000
MTEXTEND
1000
MTEXTBEGIN
1070
    73
1070
     1
1070
    44
1040
1.0
1070
    74
1070
     0
1000
MTEXTEND
1000
MTEXTBEGIN
1070
    73
1070
     1
1070
    44
1040
1.0
1070
    74
1070
     0
1000
MTEXTEND
  0
POINT
  5
15AE
330
D82
100
AcDbEntity
  8
DEFPOINTS
 62
     0
100
AcDbPoint
 10
697.1087722779056
 20
443.1041003888396
 30
0.0
  0
POINT
  5
15AF
330
D82
100
AcDbEntity
  8
DEFPOINTS
 62
     0
100
AcDbPoint
 10
707.6087572779056
 20
472.1041003888396
 30
0.0
  0
POINT
  5
15B0
330
D82
100
AcDbEntity
  8
DEFPOINTS
 62
     0
100
AcDbPoint
 10
739.8739738256026
 20
472.1041003888396
 30
0.0
  0
ENDBLK
  5
D8D
330
D82
100
AcDbEntity
  8
0
100
AcDbBlockEnd
  0
BLOCK
  5
D99
330
D8F
100
AcDbEntity
  8
0
100
AcDbBlockBegin
  2
*D22
 70
     1
 10
0.0
 20
0.0
 30
0.0
  3
*D22
  1

  0
LINE
  5
15B1
330
D8F
100
AcDbEntity
  8
SUNPOU
100
AcDbLine
 10
719.1185854050567
 20
428.8040503888228
 30
0.0
 11
761.6145502157523
 21
428.8040503888228
 31
0.0
  0
LINE
  5
15B2
330
D8F
100
AcDbEntity
  8
SUNPOU
100
AcDbLine
 10
710.6087852825899
 20
385.3046141643236
 30
0.0
 11
761.6145502157523
 21
385.3046141643236
 31
0.0
  0
LINE
  5
15B3
330
D8F
100
AcDbEntity
  8
SUNPOU
100
AcDbLine
 10
758.6145502157523
 20
421.8040503888229
 30
0.0
 11
758.6145502157523
 21
392.3046141643236
 31
0.0
  0
INSERT
  5
15B4
330
D8F
100
AcDbEntity
  8
SUNPOU
100
AcDbBlockReference
  2
_OPEN
 10
758.6145502157523
 20
428.8040503888228
 30
0.0
 41
7.0
 42
7.0
 43
7.0
 50
90.0
  0
INSERT
  5
15B5
330
D8F
100
AcDbEntity
  8
SUNPOU
100
AcDbBlockReference
  2
_OPEN
 10
758.6145502157523
 20
385.3046141643236
 30
0.0
 41
7.0
 42
7.0
 43
7.0
 50
270.0
  0
MTEXT
  5
15B6
330
D8F
100
AcDbEntity
  8
SUNPOU
100
AcDbMText
 10
753.6145502157522
 20
407.0543322765733
 30
0.0
 40
6.0
 41
0.0
 71
     5
 72
     1
  1
\A1;43
 11
0.0000000000000001
 21
1.0
 31
0.0
1001
ACAD
1000
MTEXTBEGIN
1070
    73
1070
     1
1070
    44
1040
1.0
1070
    74
1070
     0
1000
MTEXTEND
1000
MTEXTBEGIN
1070
    73
1070
     1
1070
    44
1040
1.0
1070
    74
1070
     0
1000
MTEXTEND
1000
MTEXTBEGIN
1070
    73
1070
     1
1070
    44
1040
1.0
1070
    74
1070
     0
1000
MTEXTEND
  0
POINT
  5
15B7
330
D8F
100
AcDbEntity
  8
DEFPOINTS
 62
     0
100
AcDbPoint
 10
713.1185854050568
 20
428.8040503888228
 30
0.0
  0
POINT
  5
15B8
330
D8F
100
AcDbEntity
  8
DEFPOINTS
 62
     0
100
AcDbPoint
 10
704.6087852825898
 20
385.3046141643236
 30
0.0
  0
POINT
  5
15B9
330
D8F
100
AcDbEntity
  8
DEFPOINTS
 62
     0
100
AcDbPoint
 10
758.6145502157523
 20
385.3046141643236
 30
0.0
  0
ENDBLK
  5
D9A
330
D8F
100
AcDbEntity
  8
0
100
AcDbBlockEnd
  0
BLOCK
  5
105A
330
104D
100
AcDbEntity
  8
0
100
AcDbBlockBegin
  2
*X23
 70
     1
 10
0.0
 20
0.0
 30
0.0
  3
*X23
  1

  0
LINE
  5
104E
330
104D
100
AcDbEntity
  8
0
 62
     0
100
AcDbLine
 10
713.1185854050567
 20
427.3739419707255
 30
0.0
 11
711.6884802808688
 21
428.8040470949134
 31
0.0
  0
LINE
  5
104F
330
104D
100
AcDbEntity
  8
0
 62
     0
100
AcDbLine
 10
712.6374436685185
 20
423.3649556467291
 30
0.0
 11
711.5761475513222
 21
424.4262517639254
 31
0.0
  0
LINE
  5
1050
330
104D
100
AcDbEntity
  8
0
 62
     0
100
AcDbLine
 10
710.6119023128431
 20
420.9003689418701
 30
0.0
 11
709.5383965326022
 21
421.9738747221109
 31
0.0
  0
LINE
  5
1051
330
104D
100
AcDbEntity
  8
0
 62
     0
100
AcDbLine
 10
708.8746545417158
 20
418.1474886524628
 30
0.0
 11
707.7718311929095
 21
419.2503120012692
 31
0.0
  0
LINE
  5
1052
330
104D
100
AcDbEntity
  8
0
 62
     0
100
AcDbLine
 10
707.4520044951111
 20
415.0800106385328
 30
0.0
 11
706.2982620954496
 21
416.2337530381942
 31
0.0
  0
LINE
  5
1053
330
104D
100
AcDbEntity
  8
0
 62
     0
100
AcDbLine
 10
706.3939583906269
 20
411.6479286824824
 30
0.0
 11
705.1581679955516
 21
412.8837190775579
 31
0.0
  0
LINE
  5
1054
330
104D
100
AcDbEntity
  8
0
 62
     0
100
AcDbLine
 10
706.1011376297821
 20
407.4506213827927
 30
0.0
 11
702.5021852825903
 21
411.0495737299845
 31
0.0
  0
LINE
  5
1055
330
104D
100
AcDbEntity
  8
0
 62
     0
100
AcDbLine
 10
706.1030307966005
 20
402.9586001554398
 30
0.0
 11
704.1021432184899
 21
404.9594877335505
 31
0.0
  0
LINE
  5
1056
330
104D
100
AcDbEntity
  8
0
 62
     0
100
AcDbLine
 10
706.1049239634187
 20
398.4665789280868
 30
0.0
 11
704.1040457255538
 21
400.4674571659518
 31
0.0
  0
LINE
  5
1057
330
104D
100
AcDbEntity
  8
0
 62
     0
100
AcDbLine
 10
706.1068171302372
 20
393.9745577007339
 30
0.0
 11
702.7767606666475
 21
397.3046141643236
 31
0.0
  0
LINE
  5
1058
330
104D
100
AcDbEntity
  8
0
 62
     0
100
AcDbLine
 10
706.1087102970556
 20
389.482536473381
 30
0.0
 11
704.1078527240959
 21
391.4833940463406
 31
0.0
  0
LINE
  5
1059
330
104D
100
AcDbEntity
  8
0
 62
     0
100
AcDbLine
 10
704.9327087179504
 20
386.1684099919516
 30
0.0
 11
702.5461038482374
 21
388.5550148616646
 31
0.0
  0
ENDBLK
  5
105B
330
104D
100
AcDbEntity
  8
0
100
AcDbBlockEnd
  0
BLOCK
  5
1079
330
105C
100
AcDbEntity
  8
0
100
AcDbBlockBegin
  2
*X24
 70
     1
 10
0.0
 20
0.0
 30
0.0
  3
*X24
  1

  0
LINE
  5
105D
330
105C
100
AcDbEntity
  8
0
 62
     0
100
AcDbLine
 10
702.7024258569331
 20
428.8046141643237
 30
0.0
 11
700.1087644023108
 21
426.2109527097015
 31
0.0
  0
LINE
  5
105E
330
105C
100
AcDbEntity
  8
0
 62
     0
100
AcDbLine
 10
702.10878528259
 20
423.720845529446
 30
0.0
 11
700.108743992545
 21
421.7208042394011
 31
0.0
  0
LINE
  5
105F
330
105C
100
AcDbEntity
  8
0
 62
     0
100
AcDbLine
 10
707.1925539174676
 20
428.8046141643238
 30
0.0
 11
705.6919945339272
 21
427.3040547807831
 31
0.0
  0
LINE
  5
1060
330
105C
100
AcDbEntity
  8
0
 62
     0
100
AcDbLine
 10
702.1087852825901
 20
419.2307174689115
 30
0.0
 11
700.1087235827792
 21
417.2306557691008
 31
0.0
  0
LINE
  5
1061
330
105C
100
AcDbEntity
  8
0
 62
     0
100
AcDbLine
 10
702.2886965278522
 20
414.9205006536391
 30
0.0
 11
700.1087031730136
 21
412.7405072988006
 31
0.0
  0
LINE
  5
1062
330
105C
100
AcDbEntity
  8
0
 62
     0
100
AcDbLine
 10
702.1087852825899
 20
410.2504613478423
 30
0.0
 11
697.60878528259
 21
405.7504613478423
 31
0.0
  0
LINE
  5
1063
330
105C
100
AcDbEntity
  8
0
 62
     0
100
AcDbLine
 10
704.3087852825903
 20
412.4504613478426
 30
0.0
 11
703.6629380990714
 21
411.8046141643237
 31
0.0
  0
LINE
  5
1064
330
105C
100
AcDbEntity
  8
0
 62
     0
100
AcDbLine
 10
699.308776757901
 20
402.9603247626186
 30
0.0
 11
697.6087852825899
 21
401.2603332873076
 31
0.0
  0
LINE
  5
1065
330
105C
100
AcDbEntity
  8
0
 62
     0
100
AcDbLine
 10
703.8010872702716
 20
407.4526352749893
 30
0.0
 11
702.1530661596059
 21
405.8046141643236
 31
0.0
  0
LINE
  5
1066
330
105C
100
AcDbEntity
  8
0
 62
     0
100
AcDbLine
 10
699.3087604301033
 20
398.4701803742865
 30
0.0
 11
697.6087852825899
 21
396.7702052267731
 31
0.0
  0
LINE
  5
1067
330
105C
100
AcDbEntity
  8
0
 62
     0
100
AcDbLine
 10
699.3087441023056
 20
393.9800359859542
 30
0.0
 11
697.6087852825899
 21
392.2800771662386
 31
0.0
  0
LINE
  5
1068
330
105C
100
AcDbEntity
  8
0
 62
     0
100
AcDbLine
 10
699.3087277745078
 20
389.4898915976219
 30
0.0
 11
697.6087852825899
 21
387.789949105704
 31
0.0
  0
LINE
  5
1069
330
105C
100
AcDbEntity
  8
0
 62
     0
100
AcDbLine
 10
699.30871144671
 20
384.9997472092896
 30
0.0
 11
697.6087852825899
 21
383.2998210451694
 31
0.0
  0
LINE
  5
106A
330
105C
100
AcDbEntity
  8
0
 62
     0
100
AcDbLine
 10
699.3086951189122
 20
380.5096028209573
 30
0.0
 11
699.1031586448066
 21
380.3040663468516
 31
0.0
  0
LINE
  5
106B
330
105C
100
AcDbEntity
  8
0
 62
     0
100
AcDbLine
 10
708.6983483877961
 20
427.3040509274515
 30
0.0
 11
707.1977851509241
 21
428.8046141643235
 31
0.0
  0
LINE
  5
106C
330
105C
100
AcDbEntity
  8
0
 62
     0
100
AcDbLine
 10
704.2082145721259
 20
427.3040566825873
 30
0.0
 11
702.7076570903895
 21
428.8046141643236
 31
0.0
  0
LINE
  5
106D
330
105C
100
AcDbEntity
  8
0
 62
     0
100
AcDbLine
 10
702.1087852825899
 20
424.9133579115888
 30
0.0
 11
700.1087675951421
 21
426.9133755990365
 31
0.0
  0
LINE
  5
106E
330
105C
100
AcDbEntity
  8
0
 62
     0
100
AcDbLine
 10
702.1087852825898
 20
420.4232298510541
 30
0.0
 11
700.1087471855619
 21
422.423267948082
 31
0.0
  0
LINE
  5
106F
330
105C
100
AcDbEntity
  8
0
 62
     0
100
AcDbLine
 10
702.1087852825898
 20
415.9331017905196
 30
0.0
 11
700.1087267759816
 21
417.9331602971278
 31
0.0
  0
LINE
  5
1070
330
105C
100
AcDbEntity
  8
0
 62
     0
100
AcDbLine
 10
704.3087852825902
 20
413.7331017905193
 30
0.0
 11
703.2372729087858
 21
414.8046141643235
 31
0.0
  0
LINE
  5
1071
330
105C
100
AcDbEntity
  8
0
 62
     0
100
AcDbLine
 10
702.124149251048
 20
411.4276097615269
 30
0.0
 11
700.1087063664015
 21
413.4430526461734
 31
0.0
  0
LINE
  5
1072
330
105C
100
AcDbEntity
  8
0
 62
     0
100
AcDbLine
 10
703.2570167877167
 20
405.8046141643236
 30
0.0
 11
700.1086859568212
 21
408.9529449952191
 31
0.0
  0
LINE
  5
1073
330
105C
100
AcDbEntity
  8
0
 62
     0
100
AcDbLine
 10
699.3087851302391
 20
405.2627177612666
 30
0.0
 11
697.6087852825899
 21
406.9627176089157
 31
0.0
  0
LINE
  5
1074
330
105C
100
AcDbEntity
  8
0
 62
     0
100
AcDbLine
 10
699.30876880256
 20
400.772606028411
 30
0.0
 11
697.6087852825899
 21
402.4725895483812
 31
0.0
  0
LINE
  5
1075
330
105C
100
AcDbEntity
  8
0
 62
     0
100
AcDbLine
 10
699.3087524748812
 20
396.2824942955554
 30
0.0
 11
697.6087852825899
 21
397.9824614878467
 31
0.0
  0
LINE
  5
1076
330
105C
100
AcDbEntity
  8
0
 62
     0
100
AcDbLine
 10
699.3087361472022
 20
391.7923825626999
 30
0.0
 11
697.6087852825899
 21
393.4923334273121
 31
0.0
  0
LINE
  5
1077
330
105C
100
AcDbEntity
  8
0
 62
     0
100
AcDbLine
 10
699.3087198195231
 20
387.3022708298442
 30
0.0
 11
697.6087852825899
 21
389.0022053667775
 31
0.0
  0
LINE
  5
1078
330
105C
100
AcDbEntity
  8
0
 62
     0
100
AcDbLine
 10
699.3087034918442
 20
382.8121590969887
 30
0.0
 11
697.6087852825899
 21
384.5120773062429
 31
0.0
  0
ENDBLK
  5
107A
330
105C
100
AcDbEntity
  8
0
100
AcDbBlockEnd
  0
BLOCK
  5
1091
330
107B
100
AcDbEntity
  8
0
100
AcDbBlockBegin
  2
*X25
 70
     1
 10
0.0
 20
0.0
 30
0.0
  3
*X25
  1

  0
LINE
  5
107C
330
107B
100
AcDbEntity
  8
0
 62
     0
100
AcDbLine
 10
697.1087722779056
 20
409.7405764036926
 30
0.0
 11
698.3587722779057
 21
410.9905764036926
 31
0.0
  0
LINE
  5
107D
330
107B
100
AcDbEntity
  8
0
 62
     0
100
AcDbLine
 10
697.1087722779056
 20
414.2307044642271
 30
0.0
 11
698.3587722779057
 21
415.4807044642272
 31
0.0
  0
LINE
  5
107E
330
107B
100
AcDbEntity
  8
0
 62
     0
100
AcDbLine
 10
707.4920401419835
 20
429.1041003888397
 30
0.0
 11
709.4920401419834
 21
431.1041003888396
 31
0.0
  0
LINE
  5
107F
330
107B
100
AcDbEntity
  8
0
 62
     0
100
AcDbLine
 10
697.1087722779055
 20
418.7208325247619
 30
0.0
 11
698.3587722779056
 21
419.9708325247617
 31
0.0
  0
LINE
  5
1080
330
107B
100
AcDbEntity
  8
0
 62
     0
100
AcDbLine
 10
703.0019120814488
 20
429.1041003888397
 30
0.0
 11
705.0019120814488
 21
431.1041003888397
 31
0.0
  0
LINE
  5
1081
330
107B
100
AcDbEntity
  8
0
 62
     0
100
AcDbLine
 10
697.1087722779055
 20
423.2109605852964
 30
0.0
 11
698.3587722779057
 21
424.4609605852964
 31
0.0
  0
LINE
  5
1082
330
107B
100
AcDbEntity
  8
0
 62
     0
100
AcDbLine
 10
698.5117840209142
 20
429.1041003888397
 30
0.0
 11
700.5117840209143
 21
431.1041003888397
 31
0.0
  0
LINE
  5
1083
330
107B
100
AcDbEntity
  8
0
 62
     0
100
AcDbLine
 10
697.1087722779055
 20
427.701088645831
 30
0.0
 11
698.3587722779057
 21
428.9510886458309
 31
0.0
  0
LINE
  5
1084
330
107B
100
AcDbEntity
  8
0
 62
     0
100
AcDbLine
 10
697.1087722779056
 20
432.1912167063654
 30
0.0
 11
699.1087572779056
 21
434.1912017063654
 31
0.0
  0
LINE
  5
1085
330
107B
100
AcDbEntity
  8
0
 62
     0
100
AcDbLine
 10
697.1087722779056
 20
436.6813447669001
 30
0.0
 11
699.1087572779056
 21
438.6813297669
 31
0.0
  0
LINE
  5
1086
330
107B
100
AcDbEntity
  8
0
 62
     0
100
AcDbLine
 10
697.1087722779056
 20
441.1714728274347
 30
0.0
 11
699.1499201570469
 21
443.212620706576
 31
0.0
  0
LINE
  5
1087
330
107B
100
AcDbEntity
  8
0
 62
     0
100
AcDbLine
 10
698.6716858159176
 20
447.2245144259812
 30
0.0
 11
701.8938873051514
 21
450.446715915215
 31
0.0
  0
LINE
  5
1088
330
107B
100
AcDbEntity
  8
0
 62
     0
100
AcDbLine
 10
701.4156469356143
 20
454.4586036062125
 30
0.0
 11
704.6378544532558
 21
457.680811123854
 31
0.0
  0
LINE
  5
1089
330
107B
100
AcDbEntity
  8
0
 62
     0
100
AcDbLine
 10
704.1596080553111
 20
461.6926927864439
 30
0.0
 11
707.3818216013603
 21
464.9149063324931
 31
0.0
  0
LINE
  5
108A
330
107B
100
AcDbEntity
  8
0
 62
     0
100
AcDbLine
 10
706.9035691750079
 20
468.9267819666754
 30
0.0
 11
710.1087572779056
 21
472.1319700695729
 31
0.0
  0
LINE
  5
108B
330
107B
100
AcDbEntity
  8
0
 62
     0
100
AcDbLine
 10
708.1087572779057
 20
474.6220981301076
 30
0.0
 11
710.1087572779057
 21
476.6220981301075
 31
0.0
  0
LINE
  5
108C
330
107B
100
AcDbEntity
  8
0
 62
     0
100
AcDbLine
 10
708.1087572779056
 20
479.1122261906421
 30
0.0
 11
710.1087572779056
 21
481.1122261906422
 31
0.0
  0
LINE
  5
108D
330
107B
100
AcDbEntity
  8
0
 62
     0
100
AcDbLine
 10
708.1087572779056
 20
483.6023542511767
 30
0.0
 11
710.1087572779056
 21
485.6023542511767
 31
0.0
  0
LINE
  5
108E
330
107B
100
AcDbEntity
  8
0
 62
     0
100
AcDbLine
 10
708.1087572779056
 20
488.0924823117112
 30
0.0
 11
710.1087572779056
 21
490.0924823117112
 31
0.0
  0
LINE
  5
108F
330
107B
100
AcDbEntity
  8
0
 62
     0
100
AcDbLine
 10
708.1087572779056
 20
492.5826103722458
 30
0.0
 11
710.1087572779056
 21
494.5826103722459
 31
0.0
  0
LINE
  5
1090
330
107B
100
AcDbEntity
  8
0
 62
     0
100
AcDbLine
 10
708.1087572779056
 20
497.0727384327804
 30
0.0
 11
708.1401192306648
 21
497.1041003855396
 31
0.0
  0
ENDBLK
  5
1092
330
107B
100
AcDbEntity
  8
0
100
AcDbBlockEnd
  0
ENDSEC
  0
SECTION
  2
ENTITIES
  0
TEXT
  5
11A
330
1A
100
AcDbEntity
  8
ZUWAKU
 48
5.0
100
AcDbText
 10
795.5579444309237
 20
4.974918402528146
 30
0.0
 40
8.0
  1
A1
100
AcDbText
  0
LINE
  5
11B
330
1A
100
AcDbEntity
  8
ZUWAKU
 48
5.0
100
AcDbLine
 10
10.05047808566086
 20
25.78258628282265
 30
0.0
 11
806.0504780856609
 21
25.78258628282253
 31
0.0
  0
LINE
  5
11C
330
1A
100
AcDbEntity
  8
ZUWAKU
 48
5.0
100
AcDbLine
 10
806.0504780856609
 20
563.7825862828226
 30
0.0
 11
10.05047808566086
 21
563.7825862828226
 31
0.0
  0
LINE
  5
11D
330
1A
100
AcDbEntity
  8
ZUWAKU
 48
5.0
100
AcDbLine
 10
806.0504780856609
 20
13.78258628282265
 30
0.0
 11
10.05047808566086
 21
13.78258628282265
 31
0.0
  0
LINE
  5
11E
330
1A
100
AcDbEntity
  8
ZUWAKU
 48
5.0
100
AcDbLine
 10
10.05047808566086
 20
563.7825862828226
 30
0.0
 11
10.05047808566086
 21
13.78258628282265
 31
0.0
  0
LINE
  5
11F
330
1A
100
AcDbEntity
  8
ZUWAKU
 48
5.0
100
AcDbLine
 10
44.55797523147839
 20
13.78258628282265
 30
0.0
 11
44.5579752314784
 21
25.78258628282265
 31
0.0
  0
TEXT
  5
120
330
1A
100
AcDbEntity
  8
ZUWAKU
 48
5.0
100
AcDbText
 10
16.05676551180931
 20
15.52294263804401
 30
0.0
 40
8.0
  1
品 種
100
AcDbText
  0
LINE
  5
121
330
1A
100
AcDbEntity
  8
ZUWAKU
 48
5.0
100
AcDbLine
 10
276.1028387068254
 20
13.78258628282265
 30
0.0
 11
276.1028387068254
 21
25.78258628282261
 31
0.0
  0
LINE
  5
122
330
1A
100
AcDbEntity
  8
ZUWAKU
 48
5.0
100
AcDbLine
 10
209.5138526425484
 20
13.78258628282265
 30
0.0
 11
209.5138526425485
 21
25.78258628282263
 31
0.0
  0
TEXT
  5
123
330
1A
100
AcDbEntity
  8
ZUWAKU
 48
5.0
100
AcDbText
 10
282.3131429914078
 20
15.64241700452384
 30
0.0
 40
8.0
  1
中継ドレン　Ｙ６０Ｈ・ＵＴ６０
100
AcDbText
  0
TEXT
  5
124
330
1A
100
AcDbEntity
  8
ZUWAKU
 48
5.0
100
AcDbText
 10
215.4560837190756
 20
16.18358115302453
 30
0.0
 40
8.0
  1
品名・ｻ ｲ ｽﾞ
100
AcDbText
  0
TEXT
  5
125
330
1A
100
AcDbEntity
  8
ZUWAKU
 48
5.0
100
AcDbText
 10
50.3519382305086
 20
16.10306189639755
 30
0.0
 40
8.0
  1
アートフェイス　たてとい
100
AcDbText
  0
LINE
  5
126
330
1A
100
AcDbEntity
  8
ZUWAKU
 48
5.0
100
AcDbLine
 10
768.7231079932794
 20
13.78258628282237
 30
0.0
 11
768.7231079932794
 21
25.78258628282254
 31
0.0
  0
LINE
  5
127
330
1A
100
AcDbEntity
  8
ZUWAKU
 48
5.0
100
AcDbLine
 10
733.8119002376948
 20
13.78258628282242
 30
0.0
 11
733.8119002376946
 21
25.78258628282254
 31
0.0
  0
TEXT
  5
128
330
1A
100
AcDbEntity
  8
ZUWAKU
 48
5.0
100
AcDbText
 10
739.6955629973526
 20
15.24227755810852
 30
0.0
 40
8.0
  1
尺 度
100
AcDbText
  0
TEXT
  5
129
330
1A
100
AcDbEntity
  8
ZUWAKU
 48
5.0
100
AcDbText
 10
779.7374630323229
 20
15.55488920081529
 30
0.0
 40
8.0
  1
1/2
100
AcDbText
  0
TEXT
  5
12A
330
1A
100
AcDbEntity
  8
ZUWAKU
 48
5.0
100
AcDbText
 10
654.2531733678779
 20
15.90287984531518
 30
0.0
 40
8.0
  1
ＰＦ１５
100
AcDbText
  0
TEXT
  5
12B
330
1A
100
AcDbEntity
  8
ZUWAKU
 48
5.0
100
AcDbText
 10
620.3363288383084
 20
15.6519090944263
 30
0.0
 40
8.0
  1
品 番
100
AcDbText
  0
LINE
  5
12C
330
1A
100
AcDbEntity
  8
ZUWAKU
 48
5.0
100
AcDbLine
 10
614.3351028194128
 20
13.78258628282232
 30
0.0
 11
614.3351028194128
 21
25.78258628282256
 31
0.0
  0
LINE
  5
12D
330
1A
100
AcDbEntity
  8
ZUWAKU
 48
5.0
100
AcDbLine
 10
648.7607587371021
 20
13.78258628282232
 30
0.0
 11
648.7607587371021
 21
25.78258628282255
 31
0.0
  0
TEXT
  5
12E
330
1A
100
AcDbEntity
  8
ZUWAKU
 48
5.0
100
AcDbText
 10
646.2758615931216
 20
4.949376903717848
 30
0.0
 40
8.0
  1
積水化学工業株式会社  建材
100
AcDbText
  0
LINE
  5
12F
330
1A
100
AcDbEntity
  8
ZUWAKU
 48
5.0
100
AcDbLine
 10
806.0504780856609
 20
563.7825862828226
 30
0.0
 11
806.0504780856609
 21
13.78258628282265
 31
0.0
  0
LINE
  5
218
330
1A
100
AcDbEntity
  8
CENTER_L
100
AcDbLine
 10
153.7997529372212
 20
338.3029028583438
 30
0.0
 11
153.7998529372214
 21
450.3029028583438
 31
0.0
  0
LINE
  5
21C
330
1A
100
AcDbEntity
  8
CENTER_L
100
AcDbLine
 10
153.7997896973879
 20
266.1149115103968
 30
0.0
 11
153.7996896973882
 21
199.9227115103968
 31
0.0
  0
LINE
  5
21E
330
1A
100
AcDbEntity
  8
SEIHIN
 48
5.0
100
AcDbLine
 10
196.8095896973882
 20
252.4257012539866
 30
0.0
 11
153.8095896973882
 21
252.4258115103968
 31
0.0
  0
LINE
  5
221
330
1A
100
AcDbEntity
  8
SEIHIN
 48
5.0
100
AcDbLine
 10
153.7996896973882
 20
217.9258115103968
 30
0.0
 11
189.799689697388
 21
217.9257115103968
 31
0.0
  0
LINE
  5
223
330
1A
100
AcDbEntity
  8
SEIHIN
 48
5.0
100
AcDbLine
 10
153.7996896973882
 20
213.9258115103968
 30
0.0
 11
188.2996896973882
 21
213.9257115103968
 31
0.0
  0
LINE
  5
227
330
1A
100
AcDbEntity
  8
SEIHIN
 48
5.0
100
AcDbLine
 10
153.7997896973879
 20
213.9258115103968
 30
0.0
 11
119.2996896973882
 21
213.9258115103968
 31
0.0
  0
LINE
  5
228
330
1A
100
AcDbEntity
  8
SEIHIN
 48
5.0
100
AcDbLine
 10
153.7997896973879
 20
217.9258115103968
 30
0.0
 11
117.7996896973882
 21
217.9258115103968
 31
0.0
  0
LINE
  5
22B
330
1A
100
AcDbEntity
  8
SEIHIN
 48
5.0
100
AcDbLine
 10
117.7996896973882
 20
217.9258115103968
 30
0.0
 11
119.2996896973882
 21
213.9258115103968
 31
0.0
  0
LINE
  5
22C
330
1A
100
AcDbEntity
  8
SEIHIN
 48
5.0
100
AcDbLine
 10
126.7996896973882
 20
217.9258115103968
 30
0.0
 11
128.2996896973882
 21
213.9258115103968
 31
0.0
  0
LINE
  5
22D
330
1A
100
AcDbEntity
  8
SEIHIN
 48
5.0
100
AcDbLine
 10
124.5997896973881
 20
213.9259115103967
 30
0.0
 11
124.5997896973881
 21
208.9258961477671
 31
0.0
  0
LINE
  5
22F
330
1A
100
AcDbEntity
  8
SEIHIN
 48
5.0
100
AcDbLine
 10
110.7899896973881
 20
252.4258115103969
 30
0.0
 11
153.7899896973881
 21
252.4258115103968
 31
0.0
  0
LINE
  5
234
330
1A
100
AcDbEntity
  8
SEIHIN
 48
5.0
100
AcDbLine
 10
110.7899896973881
 20
257.4258115103968
 30
0.0
 11
110.7899896973881
 21
252.4258115103968
 31
0.0
  0
LINE
  5
235
330
1A
100
AcDbEntity
  8
SEIHIN
 48
5.0
100
AcDbLine
 10
119.7899896973881
 20
257.4258115103968
 30
0.0
 11
119.7899896973881
 21
252.4258115103968
 31
0.0
  0
LINE
  5
23A
330
1A
100
AcDbEntity
  8
SEIHIN
 48
5.0
100
AcDbLine
 10
189.8086304773606
 20
238.9257071367604
 30
0.0
 11
189.799689697388
 21
217.9257115103968
 31
0.0
  0
LINE
  5
23B
330
1A
100
AcDbEntity
  8
SEIHIN
 48
5.0
100
AcDbLine
 10
180.799784994359
 20
238.9257332493561
 30
0.0
 11
180.7996896973882
 21
217.9257115103968
 31
0.0
  0
LINE
  5
23C
330
1A
100
AcDbEntity
  8
SEIHIN
 48
5.0
100
AcDbLine
 10
180.7996896973882
 20
217.9257115103968
 30
0.0
 11
179.2996896973882
 21
213.9258115103968
 31
0.0
  0
LINE
  5
23D
330
1A
100
AcDbEntity
  8
SEIHIN
 48
5.0
100
AcDbLine
 10
182.999689697388
 20
213.9258115103968
 30
0.0
 11
182.999689697388
 21
208.9257268726946
 31
0.0
  0
LINE
  5
23E
330
1A
100
AcDbEntity
  8
SEIHIN
 48
5.0
100
AcDbLine
 10
189.799689697388
 20
217.9257115103968
 30
0.0
 11
188.2996896973882
 21
213.9257115103968
 31
0.0
  0
LINE
  5
240
330
1A
100
AcDbEntity
  8
SEIHIN
 48
5.0
100
AcDbLine
 10
187.8095896973882
 20
257.4257115103968
 30
0.0
 11
187.8095896973882
 21
252.4257115103968
 31
0.0
  0
LINE
  5
241
330
1A
100
AcDbEntity
  8
SEIHIN
 48
5.0
100
AcDbLine
 10
196.8095896973882
 20
257.4257115103968
 30
0.0
 11
196.8095896973882
 21
252.4257115103968
 31
0.0
  0
LINE
  5
244
330
1A
100
AcDbEntity
  8
CENTER_L
100
AcDbLine
 10
95.43835293722128
 20
393.3030028583439
 30
0.0
 11
209.7997529372213
 21
393.3030028583439
 31
0.0
  0
ARC
  5
248
330
1A
100
AcDbEntity
  8
SEIHIN
 48
5.0
100
AcDbCircle
 10
153.7997529011027
 20
393.3029528583439
 30
0.0
 40
27.500000036164
100
AcDbArc
 50
0.0001041741451945
 51
359.9998958258548
  0
TEXT
  5
249
330
1A
100
AcDbEntity
  8
SUNPOU
100
AcDbText
 10
588.7491906693539
 20
49.0603817908078
 30
0.0
 40
8.0
  1
※　エルボの差込寸法を示す。
100
AcDbText
  0
LINE
  5
323
330
1A
100
AcDbEntity
  8
SUNPOU
100
AcDbLine
 10
191.2996896973882
 20
213.9257115103968
 30
0.0
 11
214.2844459087619
 21
213.9257115103968
 31
0.0
  0
DIMENSION
  5
329
330
1A
100
AcDbEntity
  8
SUNPOU
100
AcDbDimension
  2
*D1
 10
233.1464123576247
 20
213.9257115103968
 30
0.0
 11
228.1464123576247
 21
235.6757115103969
 31
0.0
 70
    32
  3
STANDARD
100
AcDbAlignedDimension
 13
192.8095896973881
 23
257.4257115103968
 33
0.0
 14
188.2996896973881
 24
213.9257115103968
 34
0.0
 50
90.0
100
AcDbRotatedDimension
1001
ACAD
1000
DSTYLE
1002
{
1070
   372
1070
    -1
1070
   371
1070
    -1
1070
    41
1040
7.0
1070
    42
1040
6.0
1070
    43
1040
14.0
1070
    44
1040
3.0
1070
    73
1070
     0
1070
    74
1070
     0
1070
    77
1070
     3
1070
   140
1040
6.0
1070
   141
1040
10.0
1070
   147
1040
2.0
1070
   172
1070
     1
1070
   173
1070
     1
1070
   176
1070
   256
1070
   177
1070
   256
1070
   178
1070
   256
1070
   271
1070
     0
1070
   272
1070
     2
1070
   341
1005
6D
1070
     6
1000
OPEN
1070
     7
1000
OPEN
1002
}
  0
LINE
  5
336
330
1A
100
AcDbEntity
  8
SEIHIN
100
AcDbLine
 10
110.7899896973881
 20
257.4258166373136
 30
0.0
 11
196.8095896973882
 21
257.42570638348
 31
0.0
  0
LINE
  5
33D
330
1A
100
AcDbEntity
  8
SEIHIN
100
AcDbLine
 10
185.9929973252936
 20
434.8127537511118
 30
0.0
 11
121.6066868177554
 21
434.8127537511118
 31
0.0
  0
LINE
  5
33E
330
1A
100
AcDbEntity
  8
SEIHIN
100
AcDbLine
 10
187.3228181711804
 20
436.3127537511117
 30
0.0
 11
120.2768789553241
 21
436.3127537511117
 31
0.0
  0
ARC
  5
347
330
1A
100
AcDbEntity
  8
SEIHIN
100
AcDbCircle
 10
196.8095529372215
 20
350.2931537511118
 30
0.0
 40
9.0
100
AcDbArc
 50
93.01696130981605
 51
176.9830386901841
  0
ARC
  5
349
330
1A
100
AcDbEntity
  8
SEIHIN
100
AcDbCircle
 10
196.8095529372215
 20
350.2931537511118
 30
0.0
 40
10.5
100
AcDbArc
 50
100.4756816963898
 51
169.5243183036099
  0
LINE
  5
34A
330
1A
100
AcDbEntity
  8
SEIHIN
100
AcDbLine
 10
195.3095529372213
 20
361.1098075775037
 30
0.0
 11
195.3095529372215
 21
425.4961180850417
 31
0.0
  0
LINE
  5
34B
330
1A
100
AcDbEntity
  8
SEIHIN
100
AcDbLine
 10
185.9928991108295
 20
351.7931537511117
 30
0.0
 11
121.606624923013
 21
351.7931537511118
 31
0.0
  0
LINE
  5
34C
330
1A
100
AcDbEntity
  8
SEIHIN
100
AcDbLine
 10
196.8095529372215
 20
359.7799867316169
 30
0.0
 11
196.8095529372215
 21
426.8259259474731
 31
0.0
  0
LINE
  5
34D
330
1A
100
AcDbEntity
  8
SEIHIN
100
AcDbLine
 10
187.3227199567161
 20
350.2931537511118
 30
0.0
 11
120.2767910935734
 21
350.2931537511118
 31
0.0
  0
ARC
  5
34F
330
1A
100
AcDbEntity
  8
SEIHIN
100
AcDbCircle
 10
196.3095529372213
 20
359.7799867316169
 30
0.0
 40
0.5
100
AcDbArc
 50
273.0169613098176
 51
0.0
  0
ARC
  5
350
330
1A
100
AcDbEntity
  8
SEIHIN
100
AcDbCircle
 10
187.3227199567161
 20
350.7931537511117
 30
0.0
 40
0.5
100
AcDbArc
 50
270.0
 51
356.9830386901823
  0
ARC
  5
351
330
1A
100
AcDbEntity
  8
SEIHIN
100
AcDbCircle
 10
194.8095529372215
 20
361.1098075775037
 30
0.0
 40
0.5
100
AcDbArc
 50
280.4756816963898
 51
0.0
  0
ARC
  5
352
330
1A
100
AcDbEntity
  8
SEIHIN
100
AcDbCircle
 10
185.9928991108295
 20
352.2931537511118
 30
0.0
 40
0.5
100
AcDbArc
 50
270.0
 51
349.5243183036127
  0
ARC
  5
359
330
1A
100
AcDbEntity
  8
SEIHIN
100
AcDbCircle
 10
110.7899529372214
 20
350.2932519655761
 30
0.0
 40
10.5
100
AcDbArc
 50
10.47516145513433
 51
79.52431830360994
  0
ARC
  5
35A
330
1A
100
AcDbEntity
  8
SEIHIN
100
AcDbCircle
 10
110.7899529372214
 20
350.2932519655761
 30
0.0
 40
9.0
100
AcDbArc
 50
3.0163681431854
 51
86.98303869018408
  0
ARC
  5
35B
330
1A
100
AcDbEntity
  8
SEIHIN
100
AcDbCircle
 10
112.7899529372214
 20
361.109905791968
 30
0.0
 40
0.5
100
AcDbArc
 50
180.0
 51
259.5243183036127
  0
ARC
  5
35C
330
1A
100
AcDbEntity
  8
SEIHIN
100
AcDbCircle
 10
111.2899529372214
 20
359.7800849460812
 30
0.0
 40
0.5
100
AcDbArc
 50
180.0
 51
266.9830386901823
  0
LINE
  5
361
330
1A
100
AcDbEntity
  8
SEIHIN
100
AcDbLine
 10
112.2899529372214
 20
361.109905791968
 30
0.0
 11
112.2899529372214
 21
425.4961799797844
 31
0.0
  0
LINE
  5
362
330
1A
100
AcDbEntity
  8
SEIHIN
100
AcDbLine
 10
110.7899529372214
 20
359.7800849460812
 30
0.0
 11
110.7899529372214
 21
426.8260138092239
 31
0.0
  0
ARC
  5
363
330
1A
100
AcDbEntity
  8
SEIHIN
100
AcDbCircle
 10
120.2767910935734
 20
350.7931537511118
 30
0.0
 40
0.5
100
AcDbArc
 50
183.0163681431886
 51
270.0
  0
ARC
  5
364
330
1A
100
AcDbEntity
  8
SEIHIN
100
AcDbCircle
 10
121.606624923013
 20
352.2931537511118
 30
0.0
 40
0.5
100
AcDbArc
 50
190.4751614551357
 51
270.0
  0
ARC
  5
366
330
1A
100
AcDbEntity
  8
SEIHIN
100
AcDbCircle
 10
110.7900511516855
 20
436.312851965576
 30
0.0
 40
10.5
100
AcDbArc
 50
280.4751614551349
 51
349.5237980614814
  0
ARC
  5
367
330
1A
100
AcDbEntity
  8
SEIHIN
100
AcDbCircle
 10
110.7900511516855
 20
436.312851965576
 30
0.0
 40
9.0
100
AcDbArc
 50
273.0163681431859
 51
356.9824455232292
  0
ARC
  5
36C
330
1A
100
AcDbEntity
  8
SEIHIN
100
AcDbCircle
 10
196.8096511516856
 20
436.3127537511117
 30
0.0
 40
10.5
100
AcDbArc
 50
190.4756816963897
 51
259.5237980614817
  0
ARC
  5
36D
330
1A
100
AcDbEntity
  8
SEIHIN
100
AcDbCircle
 10
196.8096511516856
 20
436.3127537511117
 30
0.0
 40
9.0
100
AcDbArc
 50
183.0169613098155
 51
266.9824455232304
  0
ARC
  5
373
330
1A
100
AcDbEntity
  8
SEIHIN
100
AcDbCircle
 10
112.7899529372214
 20
425.4961799797844
 30
0.0
 40
0.5
100
AcDbArc
 50
100.4751614551351
 51
179.9999999999934
  0
ARC
  5
374
330
1A
100
AcDbEntity
  8
SEIHIN
100
AcDbCircle
 10
111.2899529372214
 20
426.8260138092239
 30
0.0
 40
0.5
100
AcDbArc
 50
93.01636814318539
 51
180.0
  0
ARC
  5
377
330
1A
100
AcDbEntity
  8
SEIHIN
100
AcDbCircle
 10
185.9929973252936
 20
434.3127537511118
 30
0.0
 40
0.5
100
AcDbArc
 50
10.47568169638665
 51
90.0
  0
ARC
  5
378
330
1A
100
AcDbEntity
  8
SEIHIN
100
AcDbCircle
 10
187.3228181711804
 20
435.8127537511117
 30
0.0
 40
0.5
100
AcDbArc
 50
3.016961309817649
 51
89.99999999999674
  0
CIRCLE
  5
379
330
1A
100
AcDbEntity
  8
SEIHIN
100
AcDbCircle
 10
153.7997529011027
 20
393.3029528583439
 30
0.0
 40
39.0
  0
LINE
  5
389
330
1A
100
AcDbEntity
  8
SEIHIN
 48
5.0
100
AcDbLine
 10
124.5997896973881
 20
208.9258961477671
 30
0.0
 11
182.999689697388
 21
208.9257268726946
 31
0.0
  0
ARC
  5
38A
330
1A
100
AcDbEntity
  8
SEIHIN
100
AcDbCircle
 10
215.2116801956728
 20
234.4026257325328
 30
0.0
 40
25.80258127359184
100
AcDbArc
 50
135.6933024948204
 51
169.9041338457919
  0
ARC
  5
38B
330
1A
100
AcDbEntity
  8
SEIHIN
100
AcDbCircle
 10
206.2116801956729
 20
234.5134257325328
 30
0.0
 40
25.80258127359184
100
AcDbArc
 50
135.6933024948204
 51
169.9041338457919
  0
ARC
  5
38C
330
1A
100
AcDbEntity
  8
SEIHIN
100
AcDbCircle
 10
92.38780338058385
 20
234.4028112889529
 30
0.0
 40
25.80258127359184
100
AcDbArc
 50
10.0956930347787
 51
44.30652438575018
  0
ARC
  5
38D
330
1A
100
AcDbEntity
  8
SEIHIN
100
AcDbCircle
 10
101.3878037153254
 20
234.513584095416
 30
0.0
 40
25.80258127359184
100
AcDbArc
 50
10.0956930347787
 51
44.30652438575018
  0
LINE
  5
38E
330
1A
100
AcDbEntity
  8
SEIHIN
100
AcDbLine
 10
126.7908671000305
 20
239.0365887442056
 30
0.0
 11
126.7996896973882
 21
217.9258115103968
 31
0.0
  0
LINE
  5
38F
330
1A
100
AcDbEntity
  8
SEIHIN
100
AcDbLine
 10
117.7908667652889
 20
238.9258159377424
 30
0.0
 11
117.7996896973882
 21
217.9258115103968
 31
0.0
  0
ARC
  5
390
330
1A
100
AcDbEntity
  8
SEIHIN
100
AcDbCircle
 10
121.6066868177554
 20
434.3127537511119
 30
0.0
 40
0.5
100
AcDbArc
 50
90.0
 51
169.523798061482
  0
ARC
  5
391
330
1A
100
AcDbEntity
  8
SEIHIN
100
AcDbCircle
 10
120.2768789553241
 20
435.8127537511117
 30
0.0
 40
0.5
100
AcDbArc
 50
90.0
 51
176.9824455232295
  0
ARC
  5
392
330
1A
100
AcDbEntity
  8
SEIHIN
100
AcDbCircle
 10
194.8095529372215
 20
425.4961180850417
 30
0.0
 40
0.5
100
AcDbArc
 50
0.0000000000065138
 51
79.52379806148258
  0
ARC
  5
393
330
1A
100
AcDbEntity
  8
SEIHIN
100
AcDbCircle
 10
196.3095529372215
 20
426.8259259474731
 30
0.0
 40
0.5
100
AcDbArc
 50
0.0
 51
86.98244552322972
  0
CIRCLE
  5
394
330
1A
100
AcDbEntity
  8
SEIHIN
100
AcDbCircle
 10
153.7997529011027
 20
393.3029528583439
 30
0.0
 40
30.0
  0
LINE
  5
567
330
1A
100
AcDbEntity
  8
SEIHIN
100
AcDbLine
 10
571.9667162046014
 20
257.4257615104136
 30
0.0
 11
531.9667012046013
 21
257.4257615104136
 31
0.0
  0
LINE
  5
568
330
1A
100
AcDbEntity
  8
SEIHIN
100
AcDbLine
 10
571.9667162046014
 20
257.4257615104136
 30
0.0
 11
531.9667012046013
 21
257.4257615104136
 31
0.0
  0
ARC
  5
569
330
1A
100
AcDbEntity
  8
SEIHIN
100
AcDbCircle
 10
535.3257012046014
 20
246.4257615137137
 30
0.0
 40
1.999999998499999
100
AcDbArc
 50
0.0
 51
90.0
  0
ARC
  5
56A
330
1A
100
AcDbEntity
  8
SEIHIN
100
AcDbCircle
 10
535.3257012046014
 20
237.4257615137136
 30
0.0
 40
2.0
100
AcDbArc
 50
270.0
 51
0.0
  0
LINE
  5
56B
330
1A
100
AcDbEntity
  8
SEIHIN
100
AcDbLine
 10
531.9667012046013
 20
232.4257615137137
 30
0.0
 11
542.9667012046013
 21
203.4257615137136
 31
0.0
  0
LINE
  5
56D
330
1A
100
AcDbEntity
  8
SEIHIN
100
AcDbLine
 10
571.9667162046014
 20
232.4257615137137
 30
0.0
 11
531.9667012046013
 21
232.4257615137137
 31
0.0
  0
LINE
  5
56E
330
1A
100
AcDbEntity
  8
SEIHIN
100
AcDbLine
 10
534.4667012046013
 20
232.4257615137137
 30
0.0
 11
571.9667162046014
 21
232.4257615137137
 31
0.0
  0
LINE
  5
56F
330
1A
100
AcDbEntity
  8
SEIHIN
100
AcDbLine
 10
531.9667012046013
 20
189.4257615137137
 30
0.0
 11
571.9667162046014
 21
189.4257615137137
 31
0.0
  0
LINE
  5
572
330
1A
100
AcDbEntity
  8
SEIHIN
100
AcDbLine
 10
436.4760974577531
 20
257.4257615104136
 30
0.0
 11
356.4760974577531
 21
257.4257615104136
 31
0.0
  0
LINE
  5
573
330
1A
100
AcDbEntity
  8
SEIHIN
100
AcDbLine
 10
436.4760974577531
 20
257.4257615104136
 30
0.0
 11
356.4760974577531
 21
257.4257615104136
 31
0.0
  0
LINE
  5
574
330
1A
100
AcDbEntity
  8
SEIHIN
100
AcDbLine
 10
358.9760974577531
 20
232.4257615137137
 30
0.0
 11
436.476127457753
 21
232.4257615137136
 31
0.0
  0
LINE
  5
575
330
1A
100
AcDbEntity
  8
SEIHIN
100
AcDbLine
 10
368.226112457753
 20
169.4257615137136
 30
0.0
 11
424.726112457753
 21
169.4257615137136
 31
0.0
  0
LINE
  5
577
330
1A
100
AcDbEntity
  8
SEIHIN
100
AcDbLine
 10
366.476112457753
 20
187.4257615137137
 30
0.0
 11
426.476112457753
 21
187.4257615137137
 31
0.0
  0
LINE
  5
578
330
1A
100
AcDbEntity
  8
SEIHIN
100
AcDbLine
 10
366.476112457753
 20
171.4257615137136
 30
0.0
 11
426.476112457753
 21
171.4257615137136
 31
0.0
  0
LINE
  5
579
330
1A
100
AcDbEntity
  8
SEIHIN
100
AcDbLine
 10
367.4760974577531
 20
203.4257615137136
 30
0.0
 11
425.476127457753
 21
203.4257615137136
 31
0.0
  0
LINE
  5
57A
330
1A
100
AcDbEntity
  8
SEIHIN
100
AcDbLine
 10
434.4760974577531
 20
232.4257615137137
 30
0.0
 11
356.4760974577531
 21
232.4257615137137
 31
0.0
  0
LINE
  5
57B
330
1A
100
AcDbEntity
  8
SEIHIN
100
AcDbLine
 10
356.4760974577531
 20
191.4257615137136
 30
0.0
 11
436.4761274577531
 21
191.4257615137136
 31
0.0
  0
LINE
  5
57C
330
1A
100
AcDbEntity
  8
SEIHIN
100
AcDbLine
 10
356.4760974577531
 20
189.4257615137137
 30
0.0
 11
436.4761274577531
 21
189.4257615137137
 31
0.0
  0
LINE
  5
57D
330
1A
100
AcDbEntity
  8
SEIHIN
100
AcDbLine
 10
368.226112457753
 20
189.4257615137137
 30
0.0
 11
368.226112457753
 21
187.4257615137137
 31
0.0
  0
LINE
  5
57E
330
1A
100
AcDbEntity
  8
SUNPOU
100
AcDbLine
 10
352.4317502132494
 20
156.8021406742896
 30
0.0
 11
293.7659914932492
 21
156.8021406742896
 31
0.0
  0
MTEXT
  5
57F
330
1A
100
AcDbEntity
  8
SUNPOU
100
AcDbMText
 10
296.4118912932492
 20
164.5228967962896
 30
0.0
 40
6.306206802
 41
0.0
 71
     1
 72
     1
  1
{\W1.197917;Ｍ６０　Ｐ４ }
1001
ACAD
1000
MTEXTBEGIN
1070
    73
1070
     1
1070
    44
1040
1.0
1070
    74
1070
     0
1000
MTEXTEND
1000
MTEXTBEGIN
1070
    73
1070
     1
1070
    44
1040
1.0
1070
    74
1070
     0
1000
MTEXTEND
1000
MTEXTBEGIN
1070
    73
1070
     1
1070
    44
1040
1.0
1070
    74
1070
     0
1000
MTEXTEND
1000
MTEXTBEGIN
1070
    73
1070
     1
1070
    44
1040
1.0
1070
    74
1070
     0
1000
MTEXTEND
1000
MTEXTBEGIN
1070
    73
1070
     1
1070
    44
1040
1.0
1070
    74
1070
     0
1000
MTEXTEND
1000
MTEXTBEGIN
1070
    73
1070
     1
1070
    44
1040
1.0
1070
    74
1070
     0
1000
MTEXTEND
1000
MTEXTBEGIN
1070
    73
1070
     1
1070
    44
1040
1.0
1070
    74
1070
     0
1000
MTEXTEND
1000
MTEXTBEGIN
1070
    73
1070
     1
1070
    44
1040
1.0
1070
    74
1070
     0
1000
MTEXTEND
1000
MTEXTBEGIN
1070
    73
1070
     1
1070
    44
1040
1.0
1070
    74
1070
     0
1000
MTEXTEND
1000
MTEXTBEGIN
1070
    73
1070
     1
1070
    44
1040
1.0
1070
    74
1070
     0
1000
MTEXTEND
  0
MTEXT
  5
580
330
1A
100
AcDbEntity
  8
SUNPOU
100
AcDbMText
 10
296.4118912932492
 20
155.7642760762897
 30
0.0
 40
6.306206802
 41
0.0
 71
     1
 72
     1
  1
{\W1.481481;細目３条}
1001
ACAD
1000
MTEXTBEGIN
1070
    73
1070
     1
1070
    44
1040
1.0
1070
    74
1070
     0
1000
MTEXTEND
1000
MTEXTBEGIN
1070
    73
1070
     1
1070
    44
1040
1.0
1070
    74
1070
     0
1000
MTEXTEND
1000
MTEXTBEGIN
1070
    73
1070
     1
1070
    44
1040
1.0
1070
    74
1070
     0
1000
MTEXTEND
1000
MTEXTBEGIN
1070
    73
1070
     1
1070
    44
1040
1.0
1070
    74
1070
     0
1000
MTEXTEND
1000
MTEXTBEGIN
1070
    73
1070
     1
1070
    44
1040
1.0
1070
    74
1070
     0
1000
MTEXTEND
1000
MTEXTBEGIN
1070
    73
1070
     1
1070
    44
1040
1.0
1070
    74
1070
     0
1000
MTEXTEND
1000
MTEXTBEGIN
1070
    73
1070
     1
1070
    44
1040
1.0
1070
    74
1070
     0
1000
MTEXTEND
1000
MTEXTBEGIN
1070
    73
1070
     1
1070
    44
1040
1.0
1070
    74
1070
     0
1000
MTEXTEND
1000
MTEXTBEGIN
1070
    73
1070
     1
1070
    44
1040
1.0
1070
    74
1070
     0
1000
MTEXTEND
1000
MTEXTBEGIN
1070
    73
1070
     1
1070
    44
1040
1.0
1070
    74
1070
     0
1000
MTEXTEND
  0
LINE
  5
581
330
1A
100
AcDbEntity
  8
SUNPOU
100
AcDbLine
 10
366.476112457753
 20
179.4257615137136
 30
0.0
 11
352.4317502132494
 21
156.8021406742896
 31
0.0
  0
LINE
  5
582
330
1A
100
AcDbEntity
  8
SEIHIN
100
AcDbLine
 10
366.476112457753
 20
187.4257615137137
 30
0.0
 11
366.476112457753
 21
171.4257615137136
 31
0.0
  0
LINE
  5
584
330
1A
100
AcDbEntity
  8
SEIHIN
100
AcDbLine
 10
356.4760974577531
 20
257.4257615104136
 30
0.0
 11
356.4760974577531
 21
232.4257615137137
 31
0.0
  0
LINE
  5
586
330
1A
100
AcDbEntity
  8
SEIHIN
100
AcDbLine
 10
356.4760974577531
 20
232.4257615137137
 30
0.0
 11
367.4760974577531
 21
203.4257615137136
 31
0.0
  0
LINE
  5
587
330
1A
100
AcDbEntity
  8
SEIHIN
100
AcDbLine
 10
367.4760974577531
 20
191.4257615137136
 30
0.0
 11
367.4760974577531
 21
203.4257615137136
 31
0.0
  0
LINE
  5
588
330
1A
100
AcDbEntity
  8
SEIHIN
100
AcDbLine
 10
356.4760974577531
 20
191.4257615137136
 30
0.0
 11
356.4760974577531
 21
189.4257615137137
 31
0.0
  0
LINE
  5
58C
330
1A
100
AcDbEntity
  8
SEIHIN
100
AcDbLine
 10
424.726112457753
 20
189.4257615137137
 30
0.0
 11
424.726112457753
 21
187.4257615137137
 31
0.0
  0
LINE
  5
58D
330
1A
100
AcDbEntity
  8
CENTER_L
100
AcDbLine
 10
396.476112457753
 20
264.4257615104137
 30
0.0
 11
396.476112457753
 21
162.4257615137137
 31
0.0
  0
LINE
  5
58E
330
1A
100
AcDbEntity
  8
SEIHIN
100
AcDbLine
 10
426.476112457753
 20
187.4257615137137
 30
0.0
 11
426.476112457753
 21
171.4257615137136
 31
0.0
  0
LINE
  5
590
330
1A
100
AcDbEntity
  8
SEIHIN
100
AcDbLine
 10
436.4761274577531
 20
257.4257615104136
 30
0.0
 11
436.4761274577531
 21
232.4257615137137
 31
0.0
  0
LINE
  5
592
330
1A
100
AcDbEntity
  8
SEIHIN
100
AcDbLine
 10
396.476112457753
 20
191.4257615137136
 30
0.0
 11
415.9760974577531
 21
191.4257615137136
 31
0.0
  0
LINE
  5
593
330
1A
100
AcDbEntity
  8
SEIHIN
100
AcDbLine
 10
378.976097457753
 20
201.4257615137136
 30
0.0
 11
414.9760974577531
 21
201.4257615137136
 31
0.0
  0
ARC
  5
594
330
1A
100
AcDbEntity
  8
SEIHIN
100
AcDbCircle
 10
378.976097457753
 20
199.4257615137136
 30
0.0
 40
2.000000000000003
100
AcDbArc
 50
90.0
 51
180.0
  0
LINE
  5
595
330
1A
100
AcDbEntity
  8
SEIHIN
100
AcDbLine
 10
376.976097457753
 20
192.4257615137136
 30
0.0
 11
376.976097457753
 21
199.4257615137136
 31
0.0
  0
ARC
  5
596
330
1A
100
AcDbEntity
  8
SEIHIN
100
AcDbCircle
 10
377.9760974577531
 20
192.4257615137136
 30
0.0
 40
1.0
100
AcDbArc
 50
180.0
 51
270.0
  0
LINE
  5
597
330
1A
100
AcDbEntity
  8
SEIHIN
100
AcDbLine
 10
436.4761274577531
 20
232.4257615137137
 30
0.0
 11
425.4761274577531
 21
203.4257615137136
 31
0.0
  0
LINE
  5
599
330
1A
100
AcDbEntity
  8
SEIHIN
100
AcDbLine
 10
425.4761274577531
 20
191.4257615137136
 30
0.0
 11
425.4761274577531
 21
203.4257615137136
 31
0.0
  0
ARC
  5
59A
330
1A
100
AcDbEntity
  8
SEIHIN
100
AcDbCircle
 10
414.9760974577531
 20
199.4257615137136
 30
0.0
 40
2.0
100
AcDbArc
 50
0.0
 51
90.0
  0
LINE
  5
59B
330
1A
100
AcDbEntity
  8
SEIHIN
100
AcDbLine
 10
416.976097457753
 20
192.4257615137136
 30
0.0
 11
416.976097457753
 21
199.4257615137136
 31
0.0
  0
ARC
  5
59C
330
1A
100
AcDbEntity
  8
SEIHIN
100
AcDbCircle
 10
415.9760974577531
 20
192.4257615137136
 30
0.0
 40
1.0
100
AcDbArc
 50
270.0
 51
0.0
  0
LINE
  5
59D
330
1A
100
AcDbEntity
  8
SEIHIN
100
AcDbLine
 10
436.4761274577531
 20
191.4257615137136
 30
0.0
 11
436.4761274577531
 21
189.4257615137137
 31
0.0
  0
LINE
  5
59F
330
1A
100
AcDbEntity
  8
SEIHIN
100
AcDbLine
 10
434.4760974577531
 20
257.4257615104136
 30
0.0
 11
396.4760974577531
 21
257.4257615104136
 31
0.0
  0
LINE
  5
5A0
330
1A
100
AcDbEntity
  8
SEIHIN
100
AcDbLine
 10
378.476112457753
 20
248.4257615107137
 30
0.0
 11
414.476112457753
 21
248.4257615107137
 31
0.0
  0
LINE
  5
5A1
330
1A
100
AcDbEntity
  8
SEIHIN
100
AcDbLine
 10
378.476112457753
 20
235.4257615137136
 30
0.0
 11
414.476112457753
 21
235.4257615137136
 31
0.0
  0
ARC
  5
5A2
330
1A
100
AcDbEntity
  8
SEIHIN
100
AcDbCircle
 10
378.476112457753
 20
246.4257615137137
 30
0.0
 40
1.999999998499999
100
AcDbArc
 50
90.0
 51
180.0
  0
LINE
  5
5A3
330
1A
100
AcDbEntity
  8
SEIHIN
100
AcDbLine
 10
376.476112457753
 20
246.4257615137137
 30
0.0
 11
376.476112457753
 21
237.4257615137136
 31
0.0
  0
ARC
  5
5A4
330
1A
100
AcDbEntity
  8
SEIHIN
100
AcDbCircle
 10
378.476112457753
 20
237.4257615137136
 30
0.0
 40
2.0
100
AcDbArc
 50
180.0
 51
270.0
  0
ARC
  5
5A6
330
1A
100
AcDbEntity
  8
SEIHIN
100
AcDbCircle
 10
414.476112457753
 20
246.4257615137137
 30
0.0
 40
1.999999998499999
100
AcDbArc
 50
0.0
 51
90.0
  0
LINE
  5
5A7
330
1A
100
AcDbEntity
  8
SEIHIN
100
AcDbLine
 10
416.476112457753
 20
246.4257615137137
 30
0.0
 11
416.476112457753
 21
237.4257615137136
 31
0.0
  0
ARC
  5
5A8
330
1A
100
AcDbEntity
  8
SEIHIN
100
AcDbCircle
 10
414.476112457753
 20
237.4257615137136
 30
0.0
 40
2.0
100
AcDbArc
 50
270.0
 51
0.0
  0
LINE
  5
5A9
330
1A
100
AcDbEntity
  8
SEIHIN
100
AcDbLine
 10
531.9667012046013
 20
235.4257615137136
 30
0.0
 11
531.9667012046013
 21
232.4257615137137
 31
0.0
  0
LINE
  5
5AA
330
1A
100
AcDbEntity
  8
SEIHIN
100
AcDbLine
 10
531.9667012046013
 20
191.4257615137136
 30
0.0
 11
531.9667012046013
 21
189.4257615137137
 31
0.0
  0
LINE
  5
5AB
330
1A
100
AcDbEntity
  8
SEIHIN
100
AcDbLine
 10
531.9667012046013
 20
257.4257615104136
 30
0.0
 11
531.9667012046013
 21
248.4257615107137
 31
0.0
  0
LINE
  5
5AC
330
1A
100
AcDbEntity
  8
SEIHIN
100
AcDbLine
 10
535.3257012046014
 20
235.4257615137136
 30
0.0
 11
531.9667012046013
 21
235.4257615137136
 31
0.0
  0
LINE
  5
5AD
330
1A
100
AcDbEntity
  8
SEIHIN
100
AcDbLine
 10
535.3257012046014
 20
248.4257615107137
 30
0.0
 11
531.9667012046013
 21
248.4257615107137
 31
0.0
  0
LINE
  5
5B1
330
1A
100
AcDbEntity
  8
SEIHIN
100
AcDbLine
 10
396.4760974577531
 20
433.3030028583439
 30
0.0
 11
366.476097457753
 21
433.3030028583439
 31
0.0
  0
LINE
  5
5B2
330
1A
100
AcDbEntity
  8
SEIHIN
100
AcDbLine
 10
396.4760974577531
 20
353.3030028583439
 30
0.0
 11
366.476097457753
 21
353.3030028583439
 31
0.0
  0
LINE
  5
5B3
330
1A
100
AcDbEntity
  8
CENTER_L
100
AcDbLine
 10
349.476097457753
 20
393.3030028583439
 30
0.0
 11
443.4760974577531
 21
393.3030028583439
 31
0.0
  0
CIRCLE
  5
5B4
330
1A
100
AcDbEntity
  8
SEIHIN
100
AcDbCircle
 10
396.4760974577531
 20
393.3030028583439
 30
0.0
 40
38.0
  0
CIRCLE
  5
5B5
330
1A
100
AcDbEntity
  8
SEIHIN
100
AcDbCircle
 10
396.4760974577531
 20
393.3030028583439
 30
0.0
 40
40.0
  0
CIRCLE
  5
5B6
330
1A
100
AcDbEntity
  8
SEIHIN
100
AcDbCircle
 10
396.4760974577531
 20
393.3030028583439
 30
0.0
 40
27.00000000503483
  0
LINE
  5
5B7
330
1A
100
AcDbEntity
  8
SEIHIN
100
AcDbLine
 10
356.4760974577531
 20
393.3030028583439
 30
0.0
 11
356.4760974577531
 21
423.3030028583439
 31
0.0
  0
LINE
  5
5B8
330
1A
100
AcDbEntity
  8
SEIHIN
100
AcDbLine
 10
356.4760974577531
 20
393.3030028583439
 30
0.0
 11
356.4760974577531
 21
363.3030028583439
 31
0.0
  0
ARC
  5
5B9
330
1A
100
AcDbEntity
  8
SEIHIN
100
AcDbCircle
 10
366.476097457753
 20
363.3030028583439
 30
0.0
 40
10.0
100
AcDbArc
 50
180.0
 51
270.0
  0
ARC
  5
5BA
330
1A
100
AcDbEntity
  8
SEIHIN
100
AcDbCircle
 10
366.476097457753
 20
423.3030028583439
 30
0.0
 40
10.0
100
AcDbArc
 50
90.0
 51
180.0
  0
LINE
  5
5BC
330
1A
100
AcDbEntity
  8
CENTER_L
100
AcDbLine
 10
396.4760974577531
 20
440.3030028583438
 30
0.0
 11
396.4760974577531
 21
346.3030028583438
 31
0.0
  0
LINE
  5
5BD
330
1A
100
AcDbEntity
  8
SEIHIN
100
AcDbLine
 10
436.4760974577531
 20
393.3030028583439
 30
0.0
 11
436.4760974577531
 21
423.3030028583439
 31
0.0
  0
LINE
  5
5BE
330
1A
100
AcDbEntity
  8
SEIHIN
100
AcDbLine
 10
436.4760974577531
 20
393.3030028583439
 30
0.0
 11
436.4760974577531
 21
363.3030028583439
 31
0.0
  0
LINE
  5
5BF
330
1A
100
AcDbEntity
  8
SEIHIN
100
AcDbLine
 10
396.4760974577531
 20
353.3030028583439
 30
0.0
 11
426.4760974577531
 21
353.3030028583439
 31
0.0
  0
ARC
  5
5C0
330
1A
100
AcDbEntity
  8
SEIHIN
100
AcDbCircle
 10
426.4760974577531
 20
363.3030028583439
 30
0.0
 40
10.0
100
AcDbArc
 50
270.0
 51
0.0
  0
LINE
  5
5C1
330
1A
100
AcDbEntity
  8
SEIHIN
100
AcDbLine
 10
396.4760974577531
 20
433.3030028583439
 30
0.0
 11
426.4760974577531
 21
433.3030028583439
 31
0.0
  0
ARC
  5
5C2
330
1A
100
AcDbEntity
  8
SEIHIN
100
AcDbCircle
 10
426.4760974577531
 20
423.3030028583439
 30
0.0
 40
10.0
100
AcDbArc
 50
0.0
 51
90.0
  0
LINE
  5
5C3
330
1A
100
AcDbEntity
  8
SEIHIN
100
AcDbLine
 10
630.1087572779056
 20
429.1041003888397
 30
0.0
 11
670.1087722779057
 21
429.1041003888397
 31
0.0
  0
LINE
  5
5C4
330
1A
100
AcDbEntity
  8
SEIHIN
100
AcDbLine
 10
630.1087572779056
 20
431.1041003888397
 30
0.0
 11
670.1087722779057
 21
431.1041003888397
 31
0.0
  0
LINE
  5
5C6
330
1A
100
AcDbEntity
  8
SEIHIN
100
AcDbLine
 10
630.1087572779056
 20
472.1041003888396
 30
0.0
 11
641.1087572779056
 21
443.1041003888396
 31
0.0
  0
LINE
  5
5C7
330
1A
100
AcDbEntity
  8
SEIHIN
100
AcDbLine
 10
708.1087572779056
 20
472.1041003888396
 30
0.0
 11
630.1087572779056
 21
472.1041003888396
 31
0.0
  0
LINE
  5
5C8
330
1A
100
AcDbEntity
  8
SEIHIN
100
AcDbLine
 10
632.6087572779056
 20
472.1041003888396
 30
0.0
 11
707.6087572779056
 21
472.1041003888396
 31
0.0
  0
LINE
  5
5C9
330
1A
100
AcDbEntity
  8
SEIHIN
100
AcDbLine
 10
710.1087572779056
 20
497.1041003855397
 30
0.0
 11
630.1087572779056
 21
497.1041003855397
 31
0.0
  0
LINE
  5
5CA
330
1A
100
AcDbEntity
  8
SEIHIN
100
AcDbLine
 10
710.1087572779056
 20
497.1041003855397
 30
0.0
 11
630.1087572779056
 21
497.1041003855397
 31
0.0
  0
LINE
  5
5CB
330
1A
100
AcDbEntity
  8
SEIHIN
100
AcDbLine
 10
600.2167162546014
 20
189.4257615137137
 30
0.0
 11
600.2167162546014
 21
169.4257615137136
 31
0.0
  0
LINE
  5
5CC
330
1A
100
AcDbEntity
  8
SEIHIN
100
AcDbLine
 10
543.7167162046014
 20
189.4257615137137
 30
0.0
 11
543.7167162046014
 21
169.4257615137136
 31
0.0
  0
LINE
  5
5CD
330
1A
100
AcDbEntity
  8
CENTER_L
100
AcDbLine
 10
571.9667162046014
 20
162.4257615137137
 30
0.0
 11
571.9667162046014
 21
264.4257615104136
 31
0.0
  0
LINE
  5
5CE
330
1A
100
AcDbEntity
  8
SEIHIN
100
AcDbLine
 10
600.2167162546014
 20
169.4257615137136
 30
0.0
 11
571.9667162046014
 21
169.4257615137136
 31
0.0
  0
LINE
  5
5CF
330
1A
100
AcDbEntity
  8
SEIHIN
100
AcDbLine
 10
601.9667162546014
 20
187.4257615137137
 30
0.0
 11
571.9667162046014
 21
187.4257615137137
 31
0.0
  0
LINE
  5
5D0
330
1A
100
AcDbEntity
  8
SEIHIN
100
AcDbLine
 10
601.9667162546014
 20
171.4257615137136
 30
0.0
 11
571.9667162046014
 21
171.4257615137136
 31
0.0
  0
LINE
  5
5D1
330
1A
100
AcDbEntity
  8
SEIHIN
100
AcDbLine
 10
543.7167162046014
 20
169.4257615137136
 30
0.0
 11
571.9667162046014
 21
169.4257615137136
 31
0.0
  0
LINE
  5
5D2
330
1A
100
AcDbEntity
  8
SEIHIN
100
AcDbLine
 10
541.9667162046014
 20
171.4257615137136
 30
0.0
 11
571.9667162046014
 21
171.4257615137136
 31
0.0
  0
LINE
  5
5D3
330
1A
100
AcDbEntity
  8
SEIHIN
100
AcDbLine
 10
541.9667162046014
 20
187.4257615137137
 30
0.0
 11
571.9667162046014
 21
187.4257615137137
 31
0.0
  0
LINE
  5
5D4
330
1A
100
AcDbEntity
  8
SEIHIN
100
AcDbLine
 10
541.9667162046014
 20
187.4257615137137
 30
0.0
 11
541.9667162046014
 21
171.4257615137136
 31
0.0
  0
LINE
  5
5D5
330
1A
100
AcDbEntity
  8
SEIHIN
100
AcDbLine
 10
601.9667162546014
 20
187.4257615137137
 30
0.0
 11
601.9667162546014
 21
171.4257615137136
 31
0.0
  0
LINE
  5
5D6
330
1A
100
AcDbEntity
  8
SEIHIN
100
AcDbLine
 10
611.9667312546014
 20
235.4257615137136
 30
0.0
 11
611.9667312546014
 21
232.4257615137137
 31
0.0
  0
LINE
  5
5D7
330
1A
100
AcDbEntity
  8
SEIHIN
100
AcDbLine
 10
609.4667312546014
 20
232.4257615137137
 30
0.0
 11
571.9667162046014
 21
232.4257615137137
 31
0.0
  0
LINE
  5
5D8
330
1A
100
AcDbEntity
  8
SEIHIN
100
AcDbLine
 10
571.9667162046014
 20
232.4257615137137
 30
0.0
 11
611.9667312546014
 21
232.4257615137137
 31
0.0
  0
LINE
  5
5DA
330
1A
100
AcDbEntity
  8
SEIHIN
100
AcDbLine
 10
611.9667312546014
 20
189.4257615137137
 30
0.0
 11
571.9667162046014
 21
189.4257615137137
 31
0.0
  0
LINE
  5
5DB
330
1A
100
AcDbEntity
  8
SEIHIN
100
AcDbLine
 10
600.9667312546014
 20
203.4257615137136
 30
0.0
 11
571.9667162046014
 21
203.4257615137136
 31
0.0
  0
LINE
  5
5DC
330
1A
100
AcDbEntity
  8
SEIHIN
100
AcDbLine
 10
542.9667012046013
 20
203.4257615137136
 30
0.0
 11
571.9667162046014
 21
203.4257615137136
 31
0.0
  0
LINE
  5
5DD
330
1A
100
AcDbEntity
  8
SEIHIN
100
AcDbLine
 10
553.7417012046014
 20
199.4257615137136
 30
0.0
 11
553.7417012046014
 21
191.4257615137136
 31
0.0
  0
LINE
  5
5DE
330
1A
100
AcDbEntity
  8
SEIHIN
100
AcDbLine
 10
551.7417012046014
 20
201.4257615137136
 30
0.0
 11
542.9667012046013
 21
201.4257615137136
 31
0.0
  0
LINE
  5
5DF
330
1A
100
AcDbEntity
  8
SEIHIN
100
AcDbLine
 10
542.9667012046013
 20
201.4257615137136
 30
0.0
 11
542.9667012046013
 21
203.4257615137136
 31
0.0
  0
ARC
  5
5E0
330
1A
100
AcDbEntity
  8
SEIHIN
100
AcDbCircle
 10
551.7417012046014
 20
199.4257615137136
 30
0.0
 40
2.0
100
AcDbArc
 50
0.0
 51
90.0
  0
LINE
  5
5E1
330
1A
100
AcDbEntity
  8
SEIHIN
100
AcDbLine
 10
611.9667312546014
 20
232.4257615137137
 30
0.0
 11
600.9667312546014
 21
203.4257615137136
 31
0.0
  0
LINE
  5
5E2
330
1A
100
AcDbEntity
  8
SEIHIN
100
AcDbLine
 10
592.1917312546013
 20
201.4257615137136
 30
0.0
 11
600.9667312546014
 21
201.4257615137136
 31
0.0
  0
LINE
  5
5E3
330
1A
100
AcDbEntity
  8
SEIHIN
100
AcDbLine
 10
590.1917312546013
 20
199.4257615137136
 30
0.0
 11
590.1917312546013
 21
191.4257615137136
 31
0.0
  0
ARC
  5
5E4
330
1A
100
AcDbEntity
  8
SEIHIN
100
AcDbCircle
 10
592.1917312546013
 20
199.4257615137136
 30
0.0
 40
2.0
100
AcDbArc
 50
90.0
 51
180.0
  0
LINE
  5
5E5
330
1A
100
AcDbEntity
  8
SEIHIN
100
AcDbLine
 10
611.9667312546014
 20
191.4257615137136
 30
0.0
 11
611.9667312546014
 21
189.4257615137137
 31
0.0
  0
LINE
  5
5E6
330
1A
100
AcDbEntity
  8
SEIHIN
100
AcDbLine
 10
600.9667312546014
 20
201.4257615137136
 30
0.0
 11
600.9667312546014
 21
203.4257615137136
 31
0.0
  0
LINE
  5
5E7
330
1A
100
AcDbEntity
  8
SEIHIN
100
AcDbLine
 10
571.9667162046014
 20
257.4257615104136
 30
0.0
 11
611.9667312546014
 21
257.4257615104136
 31
0.0
  0
LINE
  5
5E8
330
1A
100
AcDbEntity
  8
SEIHIN
100
AcDbLine
 10
571.9667162046014
 20
257.4257615104136
 30
0.0
 11
611.9667312546014
 21
257.4257615104136
 31
0.0
  0
LINE
  5
5E9
330
1A
100
AcDbEntity
  8
SEIHIN
100
AcDbLine
 10
537.3257012046013
 20
246.4257615137137
 30
0.0
 11
537.3257012046013
 21
237.4257615137136
 31
0.0
  0
LINE
  5
5EA
330
1A
100
AcDbEntity
  8
SEIHIN
100
AcDbLine
 10
611.9667312546014
 20
257.4257615104136
 30
0.0
 11
611.9667312546014
 21
248.4257615107137
 31
0.0
  0
LINE
  5
5EB
330
1A
100
AcDbEntity
  8
SEIHIN
100
AcDbLine
 10
606.6077312546013
 20
246.4257615137137
 30
0.0
 11
606.6077312546013
 21
237.4257615137136
 31
0.0
  0
LINE
  5
5EC
330
1A
100
AcDbEntity
  8
SEIHIN
100
AcDbLine
 10
608.6077312546014
 20
235.4257615137136
 30
0.0
 11
611.9667312546014
 21
235.4257615137136
 31
0.0
  0
ARC
  5
5ED
330
1A
100
AcDbEntity
  8
SEIHIN
100
AcDbCircle
 10
608.6077312546014
 20
237.4257615137136
 30
0.0
 40
2.0
100
AcDbArc
 50
180.0
 51
270.0
  0
LINE
  5
5EE
330
1A
100
AcDbEntity
  8
SEIHIN
100
AcDbLine
 10
608.6077312546014
 20
248.4257615107137
 30
0.0
 11
611.9667312546014
 21
248.4257615107137
 31
0.0
  0
ARC
  5
5EF
330
1A
100
AcDbEntity
  8
SEIHIN
100
AcDbCircle
 10
608.6077312546014
 20
246.4257615137137
 30
0.0
 40
1.999999998499999
100
AcDbArc
 50
90.0
 51
180.0
  0
LINE
  5
5F0
330
1A
100
AcDbEntity
  8
SEIHIN
100
AcDbLine
 10
630.1087572779056
 20
497.1041003855397
 30
0.0
 11
630.1087572779056
 21
472.1041003888396
 31
0.0
  0
LINE
  5
5F1
330
1A
100
AcDbEntity
  8
SEIHIN
100
AcDbLine
 10
630.1087572779056
 20
431.1041003888397
 30
0.0
 11
630.1087572779056
 21
429.1041003888397
 31
0.0
  0
LINE
  5
5F2
330
1A
100
AcDbEntity
  8
CENTER_L
100
AcDbLine
 10
670.1087722779057
 20
504.1041003855396
 30
0.0
 11
670.1087722779058
 21
373.3041503885217
 31
0.0
  0
LINE
  5
5F4
330
1A
100
AcDbEntity
  8
SEIHIN
100
AcDbLine
 10
641.8587722779057
 20
429.1041003888397
 30
0.0
 11
641.8587722779057
 21
428.8041365976897
 31
0.0
  0
LINE
  5
5F5
330
1A
100
AcDbEntity
  8
SEIHIN
100
AcDbLine
 10
697.1087722779056
 20
443.1041003888396
 30
0.0
 11
697.1087722779056
 21
409.1041003888396
 31
0.0
1001
ACAD
1000
ASC_BOUNDS
1002
{
1070
    19
1005
B70
1002
}
  0
LINE
  5
5F6
330
1A
100
AcDbEntity
  8
SEIHIN
100
AcDbLine
 10
698.3587722779057
 20
429.1041003888397
 30
0.0
 11
698.3587722779057
 21
409.1041003888396
 31
0.0
1001
ACAD
1000
ASC_BOUNDS
1002
{
1070
    19
1005
B70
1002
}
  0
LINE
  5
600
330
1A
100
AcDbEntity
  8
SEIHIN
100
AcDbLine
 10
697.1087722779056
 20
409.1041003888396
 30
0.0
 11
698.3587722779057
 21
409.1041003888396
 31
0.0
1001
ACAD
1000
ASC_BOUNDS
1002
{
1070
    19
1005
B70
1002
}
  0
LINE
  5
602
330
1A
100
AcDbEntity
  8
SEIHIN
100
AcDbLine
 10
700.1087722779057
 20
427.1041003888397
 30
0.0
 11
700.1087722779057
 21
411.1041003888397
 31
0.0
  0
LINE
  5
603
330
1A
100
AcDbEntity
  8
SEIHIN
100
AcDbLine
 10
700.1087722779057
 20
411.1041003888397
 30
0.0
 11
698.3587722779057
 21
411.1041003888397
 31
0.0
  0
LINE
  5
604
330
1A
100
AcDbEntity
  8
SEIHIN
100
AcDbLine
 10
700.1087722779057
 20
427.1041003888397
 30
0.0
 11
698.3587722779057
 21
427.1041003888397
 31
0.0
  0
LINE
  5
607
330
1A
100
AcDbEntity
  8
SEIHIN
100
AcDbLine
 10
708.1087572779056
 20
497.1041003855397
 30
0.0
 11
708.1087572779056
 21
472.1041003888396
 31
0.0
1001
ACAD
1000
ASC_BOUNDS
1002
{
1070
    19
1005
B70
1002
}
  0
LINE
  5
608
330
1A
100
AcDbEntity
  8
SEIHIN
100
AcDbLine
 10
710.1087572779056
 20
497.1041003855397
 30
0.0
 11
710.1087572779056
 21
472.1041003888396
 31
0.0
1001
ACAD
1000
ASC_BOUNDS
1002
{
1070
    19
1005
B70
1002
}
  0
LINE
  5
609
330
1A
100
AcDbEntity
  8
SEIHIN
100
AcDbLine
 10
652.6087572779056
 20
441.1041003888397
 30
0.0
 11
688.6087572779056
 21
441.1041003888397
 31
0.0
  0
LINE
  5
60A
330
1A
100
AcDbEntity
  8
SEIHIN
100
AcDbLine
 10
641.1087572779056
 20
443.1041003888396
 30
0.0
 11
697.1087722779056
 21
443.1041003888396
 31
0.0
  0
LINE
  5
60B
330
1A
100
AcDbEntity
  8
SEIHIN
100
AcDbLine
 10
670.1087722779057
 20
431.1041003888397
 30
0.0
 11
689.6087572779056
 21
431.1041003888397
 31
0.0
  0
ARC
  5
60C
330
1A
100
AcDbEntity
  8
SEIHIN
100
AcDbCircle
 10
652.6087572779056
 20
439.1041003888396
 30
0.0
 40
2.000000000000003
100
AcDbArc
 50
90.0
 51
180.0
  0
LINE
  5
60D
330
1A
100
AcDbEntity
  8
SEIHIN
100
AcDbLine
 10
641.1087572779056
 20
431.1041003888397
 30
0.0
 11
641.1087572779056
 21
443.1041003888396
 31
0.0
  0
LINE
  5
60E
330
1A
100
AcDbEntity
  8
SEIHIN
100
AcDbLine
 10
650.6087572779056
 20
432.1041003888397
 30
0.0
 11
650.6087572779056
 21
439.1041003888396
 31
0.0
  0
ARC
  5
60F
330
1A
100
AcDbEntity
  8
SEIHIN
100
AcDbCircle
 10
651.6087572779056
 20
432.1041003888397
 30
0.0
 40
1.0
100
AcDbArc
 50
180.0
 51
270.0
  0
LINE
  5
611
330
1A
100
AcDbEntity
  8
SEIHIN
100
AcDbLine
 10
710.1087572779056
 20
472.1041003888396
 30
0.0
 11
699.1087572779056
 21
443.1041003888396
 31
0.0
1001
ACAD
1000
ASC_BOUNDS
1002
{
1070
    19
1005
B70
1002
}
  0
LINE
  5
612
330
1A
100
AcDbEntity
  8
SEIHIN
100
AcDbLine
 10
697.1087722779056
 20
443.1041003888396
 30
0.0
 11
708.1087572779056
 21
472.1041003888396
 31
0.0
1001
ACAD
1000
ASC_BOUNDS
1002
{
1070
    19
1005
B70
1002
}
  0
ARC
  5
619
330
1A
100
AcDbEntity
  8
SEIHIN
100
AcDbCircle
 10
688.6087572779056
 20
439.1041003888396
 30
0.0
 40
2.0
100
AcDbArc
 50
0.0
 51
90.0
  0
LINE
  5
61A
330
1A
100
AcDbEntity
  8
SEIHIN
100
AcDbLine
 10
690.6087572779056
 20
432.1041003888397
 30
0.0
 11
690.6087572779056
 21
439.1041003888396
 31
0.0
  0
ARC
  5
61B
330
1A
100
AcDbEntity
  8
SEIHIN
100
AcDbCircle
 10
689.6087572779056
 20
432.1041003888397
 30
0.0
 40
1.0
100
AcDbArc
 50
270.0
 51
0.0
  0
LINE
  5
61C
330
1A
100
AcDbEntity
  8
SEIHIN
100
AcDbLine
 10
699.1087572779056
 20
431.1041003888397
 30
0.0
 11
699.1087572779056
 21
443.1041003888396
 31
0.0
1001
ACAD
1000
ASC_BOUNDS
1002
{
1070
    19
1005
B70
1002
}
  0
LINE
  5
61E
330
1A
100
AcDbEntity
  8
SEIHIN
100
AcDbLine
 10
710.1087572779056
 20
429.1041003888397
 30
0.0
 11
698.3587722779057
 21
429.1041003888397
 31
0.0
1001
ACAD
1000
ASC_BOUNDS
1002
{
1070
    19
1005
B70
1002
}
  0
LINE
  5
61F
330
1A
100
AcDbEntity
  8
SEIHIN
100
AcDbLine
 10
699.1087572779056
 20
431.1041003888397
 30
0.0
 11
710.1087572779056
 21
431.1041003888397
 31
0.0
1001
ACAD
1000
ASC_BOUNDS
1002
{
1070
    19
1005
B70
1002
}
  0
LINE
  5
623
330
1A
100
AcDbEntity
  8
SEIHIN
100
AcDbLine
 10
710.1087572779056
 20
431.1041003888397
 30
0.0
 11
710.1087572779056
 21
429.1041003888397
 31
0.0
1001
ACAD
1000
ASC_BOUNDS
1002
{
1070
    19
1005
B70
1002
}
  0
LINE
  5
624
330
1A
100
AcDbEntity
  8
SEIHIN
100
AcDbLine
 10
709.8873662549058
 20
429.1041003888397
 30
0.0
 11
710.1087572779056
 21
429.3254914088397
 31
0.0
  0
LINE
  5
62A
330
1A
100
AcDbEntity
  8
SEIHIN
100
AcDbLine
 10
652.1087722779057
 20
475.1041003888397
 30
0.0
 11
688.1087722779057
 21
475.1041003888397
 31
0.0
  0
LINE
  5
62B
330
1A
100
AcDbEntity
  8
SEIHIN
100
AcDbLine
 10
652.1087722779057
 20
488.1041003858397
 30
0.0
 11
688.1087722779057
 21
488.1041003858397
 31
0.0
  0
LINE
  5
62C
330
1A
100
AcDbEntity
  8
SEIHIN
100
AcDbLine
 10
708.1087572779056
 20
497.1041003855397
 30
0.0
 11
670.1087572779056
 21
497.1041003855397
 31
0.0
  0
ARC
  5
62D
330
1A
100
AcDbEntity
  8
SEIHIN
100
AcDbCircle
 10
652.1087722779057
 20
486.1041003888397
 30
0.0
 40
1.999999998499999
100
AcDbArc
 50
90.0
 51
180.0
  0
LINE
  5
62E
330
1A
100
AcDbEntity
  8
SEIHIN
100
AcDbLine
 10
650.1087722779057
 20
486.1041003888397
 30
0.0
 11
650.1087722779057
 21
477.1041003888397
 31
0.0
  0
ARC
  5
62F
330
1A
100
AcDbEntity
  8
SEIHIN
100
AcDbCircle
 10
652.1087722779057
 20
477.1041003888397
 30
0.0
 40
2.0
100
AcDbArc
 50
180.0
 51
270.0
  0
ARC
  5
630
330
1A
100
AcDbEntity
  8
SEIHIN
100
AcDbCircle
 10
688.1087722779057
 20
486.1041003888397
 30
0.0
 40
1.999999998499999
100
AcDbArc
 50
0.0
 51
90.0
  0
LINE
  5
631
330
1A
100
AcDbEntity
  8
SEIHIN
100
AcDbLine
 10
690.1087722779057
 20
486.1041003888397
 30
0.0
 11
690.1087722779057
 21
477.1041003888397
 31
0.0
  0
ARC
  5
632
330
1A
100
AcDbEntity
  8
SEIHIN
100
AcDbCircle
 10
688.1087722779057
 20
477.1041003888397
 30
0.0
 40
2.0
100
AcDbArc
 50
270.0
 51
0.0
  0
LINE
  5
637
330
1A
100
AcDbEntity
  8
SEIHIN
100
AcDbLine
 10
709.6087572779055
 20
497.1041003855397
 30
0.0
 11
708.1087572779056
 21
497.1041003855397
 31
0.0
1001
ACAD
1000
ASC_BOUNDS
1002
{
1070
    19
1005
B70
1002
}
  0
LINE
  5
8D9
330
1A
100
AcDbEntity
  8
SEIHIN
100
AcDbLine
 10
711.6185854050568
 20
428.8040471844999
 30
0.0
 11
713.118586089994
 21
428.8040452619052
 31
0.0
1001
ACAD
1000
ASC_BOUNDS
1002
{
1070
    19
1005
B68
1002
}
  0
LINE
  5
8DA
330
1A
100
AcDbEntity
  8
SEIHIN
 48
5.0
100
AcDbLine
 10
697.6087852825898
 20
380.3040706783685
 30
0.0
 11
699.3086860899938
 21
380.3040657511198
 31
0.0
1001
ACAD
1000
ASC_BOUNDS
1002
{
1070
    19
1005
B69
1002
}
  0
LINE
  5
8DB
330
1A
100
AcDbEntity
  8
SEIHIN
 48
5.0
100
AcDbLine
 10
697.6087852825899
 20
407.8046141643236
 30
0.0
 11
699.1086852825901
 21
407.8046141643236
 31
0.0
1001
ACAD
1000
ASC_BOUNDS
1002
{
1070
    19
1005
B69
1002
}
  0
LINE
  5
8DC
330
1A
100
AcDbEntity
  8
SEIHIN
 48
5.0
100
AcDbLine
 10
636.098986089994
 20
428.8041503888219
 30
0.0
 11
636.098986089994
 21
423.8041503888219
 31
0.0
  0
LINE
  5
8DD
330
1A
100
AcDbEntity
  8
SEIHIN
 48
5.0
100
AcDbLine
 10
627.0989860899939
 20
428.8041503888219
 30
0.0
 11
627.0989860899939
 21
423.8041503888219
 31
0.0
  0
ARC
  5
8DE
330
1A
100
AcDbEntity
  8
SEIHIN
100
AcDbCircle
 10
617.6968001079313
 20
405.8919229738412
 30
0.0
 40
25.80258127359184
100
AcDbArc
 50
10.0956930347787
 51
44.30652438575018
  0
LINE
  5
8E0
330
1A
100
AcDbEntity
  8
SEIHIN
 48
5.0
100
AcDbLine
 10
670.1087860899938
 20
385.304150388822
 30
0.0
 11
635.6086860899941
 21
385.304150388822
 31
0.0
  0
LINE
  5
8E1
330
1A
100
AcDbEntity
  8
SEIHIN
 48
5.0
100
AcDbLine
 10
670.1087860899938
 20
389.304150388822
 30
0.0
 11
634.1086860899941
 21
389.304150388822
 31
0.0
  0
LINE
  5
8E2
330
1A
100
AcDbEntity
  8
SEIHIN
 48
5.0
100
AcDbLine
 10
627.0989860899939
 20
423.8041503888219
 30
0.0
 11
670.098986089994
 21
423.8041503888219
 31
0.0
  0
LINE
  5
8E3
330
1A
100
AcDbEntity
  8
SEIHIN
100
AcDbLine
 10
643.0998634926363
 20
410.4149276226308
 30
0.0
 11
643.1086860899941
 21
389.304150388822
 31
0.0
  0
LINE
  5
8E4
330
1A
100
AcDbEntity
  8
SEIHIN
100
AcDbLine
 10
634.0998631578949
 20
410.3041548161676
 30
0.0
 11
634.1086860899941
 21
389.304150388822
 31
0.0
  0
LINE
  5
8E5
330
1A
100
AcDbEntity
  8
SEIHIN
 48
5.0
100
AcDbLine
 10
634.1086860899941
 20
389.304150388822
 30
0.0
 11
635.6086860899941
 21
385.304150388822
 31
0.0
  0
LINE
  5
8E6
330
1A
100
AcDbEntity
  8
SEIHIN
 48
5.0
100
AcDbLine
 10
640.908786089994
 20
385.3042503888218
 30
0.0
 11
640.908786089994
 21
380.3042350261922
 31
0.0
  0
LINE
  5
8E7
330
1A
100
AcDbEntity
  8
SEIHIN
 48
5.0
100
AcDbLine
 10
643.1086860899941
 20
389.304150388822
 30
0.0
 11
644.608686089994
 21
385.304150388822
 31
0.0
  0
ARC
  5
8E8
330
1A
100
AcDbEntity
  8
SEIHIN
100
AcDbCircle
 10
608.6967997731899
 20
405.781150167378
 30
0.0
 40
25.80258127359184
100
AcDbArc
 50
10.0956930347787
 51
44.30652438575018
  0
LINE
  5
8E9
330
1A
100
AcDbEntity
  8
SEIHIN
 48
5.0
100
AcDbLine
 10
700.108776191681
 20
428.8046141643236
 30
0.0
 11
700.1086852825901
 21
408.8046141643236
 31
0.0
1001
ACAD
1000
ASC_BOUNDS
1002
{
1070
    19
1005
B69
1002
}
  0
ARC
  5
8EA
330
1A
100
AcDbEntity
  8
SEIHIN
100
AcDbCircle
 10
731.5206759033417
 20
405.7809646109588
 30
0.0
 40
27.30258127359184
100
AcDbArc
 50
136.7980543052065
 51
168.1492299675223
1001
ACAD
1000
ASC_BOUNDS
1002
{
1070
    19
1005
B68
1002
}
  0
LINE
  5
8EB
330
1A
100
AcDbEntity
  8
SEIHIN
 48
5.0
100
AcDbLine
 10
713.1185854050568
 20
428.8040503888228
 30
0.0
 11
713.1185854050568
 21
423.8678732930207
 31
0.0
1001
ACAD
1000
ASC_BOUNDS
1002
{
1070
    19
1005
B68
1002
}
  0
LINE
  5
8EC
330
1A
100
AcDbEntity
  8
SEIHIN
 48
5.0
100
AcDbLine
 10
702.1087852825899
 20
426.3046141643236
 30
0.0
 11
702.1087852825899
 21
415.3046141643236
 31
0.0
1001
ACAD
1000
ASC_BOUNDS
1002
{
1070
    19
1005
B69
1002
}
  0
LINE
  5
8ED
330
1A
100
AcDbEntity
  8
SEIHIN
 48
5.0
100
AcDbLine
 10
706.0999773089429
 20
410.2037785741552
 30
0.0
 11
706.1087852825899
 21
389.3046141643236
 31
0.0
1001
ACAD
1000
ASC_BOUNDS
1002
{
1070
    19
1005
B68
1002
}
  0
LINE
  5
8EE
330
1A
100
AcDbEntity
  8
SEIHIN
 48
5.0
100
AcDbLine
 10
699.3087852825897
 20
405.3046141643235
 30
0.0
 11
699.3086943715048
 21
380.3040657510958
 31
0.0
1001
ACAD
1000
ASC_BOUNDS
1002
{
1070
    19
1005
B69
1002
}
  0
LINE
  5
8EF
330
1A
100
AcDbEntity
  8
SEIHIN
 48
5.0
100
AcDbLine
 10
697.6087852825899
 20
407.8046141643236
 30
0.0
 11
697.6087852825899
 21
380.3040706783685
 31
0.0
1001
ACAD
1000
ASC_BOUNDS
1002
{
1070
    19
1005
B69
1002
}
  0
LINE
  5
8F0
330
1A
100
AcDbEntity
  8
SEIHIN
 48
5.0
100
AcDbLine
 10
704.1004794143544
 20
408.8879141643236
 30
0.0
 11
704.1053852825898
 21
397.3046141643236
 31
0.0
1001
ACAD
1000
ASC_BOUNDS
1002
{
1070
    19
1005
B68
1002
}
  0
LINE
  5
8F1
330
1A
100
AcDbEntity
  8
SEIHIN
 48
5.0
100
AcDbLine
 10
704.1053852825898
 20
397.3046141643236
 30
0.0
 11
701.3087561916941
 21
397.3046141643235
 31
0.0
1001
ACAD
1000
ASC_BOUNDS
1002
{
1070
    19
1005
B68
1002
}
  0
LINE
  5
8F2
330
1A
100
AcDbEntity
  8
SEIHIN
 48
5.0
100
AcDbLine
 10
704.1061852825901
 20
395.3046141643236
 30
0.0
 11
701.3087489189668
 21
395.3046141643236
 31
0.0
1001
ACAD
1000
ASC_BOUNDS
1002
{
1070
    19
1005
B68
1002
}
  0
LINE
  5
8F3
330
1A
100
AcDbEntity
  8
SEIHIN
 48
5.0
100
AcDbLine
 10
702.3586852825901
 20
389.3046141643236
 30
0.0
 11
699.3087852825897
 21
389.3046141643236
 31
0.0
  0
LINE
  5
8F4
330
1A
100
AcDbEntity
  8
SEIHIN
 48
5.0
100
AcDbLine
 10
704.6087852825898
 20
385.3046141643236
 30
0.0
 11
703.3587852825899
 21
385.3046141643236
 31
0.0
1001
ACAD
1000
ASC_BOUNDS
1002
{
1070
    19
1005
B68
1002
}
  0
LINE
  5
8F5
330
1A
100
AcDbEntity
  8
SEIHIN
 48
5.0
100
AcDbLine
 10
702.3587852825898
 20
389.8046141643236
 30
0.0
 11
702.3587852825898
 21
389.3046141643236
 31
0.0
1001
ACAD
1000
ASC_BOUNDS
1002
{
1070
    19
1005
B68
1002
}
  0
LINE
  5
8F6
330
1A
100
AcDbEntity
  8
SEIHIN
 48
5.0
100
AcDbLine
 10
706.1087852825899
 20
389.3046141643236
 30
0.0
 11
704.6087852825898
 21
385.3046141643236
 31
0.0
1001
ACAD
1000
ASC_BOUNDS
1002
{
1070
    19
1005
B68
1002
}
  0
LINE
  5
8F7
330
1A
100
AcDbEntity
  8
SEIHIN
 48
5.0
100
AcDbLine
 10
702.3586852825901
 20
389.3046141643236
 30
0.0
 11
703.3587852825899
 21
385.3046141643236
 31
0.0
1001
ACAD
1000
ASC_BOUNDS
1002
{
1070
    19
1005
B68
1002
}
  0
LINE
  5
8F8
330
1A
100
AcDbEntity
  8
SEIHIN
 48
5.0
100
AcDbLine
 10
704.1087852825898
 20
389.8046141643236
 30
0.0
 11
702.3587852825898
 21
389.8046141643236
 31
0.0
1001
ACAD
1000
ASC_BOUNDS
1002
{
1070
    19
1005
B68
1002
}
  0
LINE
  5
8F9
330
1A
100
AcDbEntity
  8
SEIHIN
 48
5.0
100
AcDbLine
 10
704.1061852825901
 20
395.3046141643236
 30
0.0
 11
704.1085852825899
 21
389.8046141643236
 31
0.0
1001
ACAD
1000
ASC_BOUNDS
1002
{
1070
    19
1005
B68
1002
}
  0
LINE
  5
8FA
330
1A
100
AcDbEntity
  8
SEIHIN
 48
5.0
100
AcDbLine
 10
699.8087852825902
 20
405.8046141643236
 30
0.0
 11
703.8087852825902
 21
405.8046141643236
 31
0.0
1001
ACAD
1000
ASC_BOUNDS
1002
{
1070
    19
1005
B69
1002
}
  0
ARC
  5
8FB
330
1A
100
AcDbEntity
  8
SEIHIN
 48
5.0
100
AcDbCircle
 10
699.8087852825902
 20
405.3046141643235
 30
0.0
 40
0.5000000000000995
100
AcDbArc
 50
90.0
 51
179.9999999999983
1001
ACAD
1000
ASC_BOUNDS
1002
{
1070
    19
1005
B69
1002
}
  0
ARC
  5
8FC
330
1A
100
AcDbEntity
  8
SEIHIN
 48
5.0
100
AcDbCircle
 10
699.1086852825901
 20
408.8046141643236
 30
0.0
 40
1.0
100
AcDbArc
 50
270.0
 51
0.0
1001
ACAD
1000
ASC_BOUNDS
1002
{
1070
    19
1005
B69
1002
}
  0
ARC
  5
8FD
330
1A
100
AcDbEntity
  8
SEIHIN
100
AcDbCircle
 10
731.5206759033417
 20
405.7809646109588
 30
0.0
 40
25.80258127359184
100
AcDbArc
 50
135.4948926842638
 51
170.1302050794738
1001
ACAD
1000
ASC_BOUNDS
1002
{
1070
    19
1005
B68
1002
}
  0
LINE
  5
8FE
330
1A
100
AcDbEntity
  8
SEIHIN
 48
5.0
100
AcDbLine
 10
704.3087852825902
 20
414.3046141643236
 30
0.0
 11
704.3087852825902
 21
412.3046141643236
 31
0.0
1001
ACAD
1000
ASC_BOUNDS
1002
{
1070
    19
1005
B69
1002
}
  0
ARC
  5
900
330
1A
100
AcDbEntity
  8
SEIHIN
 48
5.0
100
AcDbCircle
 10
702.6087852825899
 20
411.3046141643236
 30
0.0
 40
0.5
100
AcDbArc
 50
90.0
 51
180.0
1001
ACAD
1000
ASC_BOUNDS
1002
{
1070
    19
1005
B69
1002
}
  0
LINE
  5
901
330
1A
100
AcDbEntity
  8
SEIHIN
 48
5.0
100
AcDbLine
 10
702.6087852825899
 20
411.8046141643236
 30
0.0
 11
703.8087852825902
 21
411.8046141643236
 31
0.0
1001
ACAD
1000
ASC_BOUNDS
1002
{
1070
    19
1005
B69
1002
}
  0
ARC
  5
902
330
1A
100
AcDbEntity
  8
SEIHIN
 48
5.0
100
AcDbCircle
 10
702.6087852825899
 20
409.3046141643236
 30
0.0
 40
0.5
100
AcDbArc
 50
180.0
 51
270.0
1001
ACAD
1000
ASC_BOUNDS
1002
{
1070
    19
1005
B69
1002
}
  0
LINE
  5
903
330
1A
100
AcDbEntity
  8
SEIHIN
 48
5.0
100
AcDbLine
 10
704.1004794143543
 20
408.8879141643235
 30
0.0
 11
702.5021852825902
 21
408.8879141643235
 31
0.0
1001
ACAD
1000
ASC_BOUNDS
1002
{
1070
    19
1005
B68
1002
}
  0
LINE
  5
904
330
1A
100
AcDbEntity
  8
SEIHIN
 48
5.0
100
AcDbLine
 10
702.6087852825899
 20
408.8046141643236
 30
0.0
 11
703.8005146674478
 21
408.8046141643236
 31
0.0
1001
ACAD
1000
ASC_BOUNDS
1002
{
1070
    19
1005
B69
1002
}
  0
LINE
  5
905
330
1A
100
AcDbEntity
  8
SEIHIN
 48
5.0
100
AcDbLine
 10
702.5021852825902
 20
408.8879141643235
 30
0.0
 11
702.5021852825902
 21
411.3879141643236
 31
0.0
1001
ACAD
1000
ASC_BOUNDS
1002
{
1070
    19
1005
B68
1002
}
  0
LINE
  5
906
330
1A
100
AcDbEntity
  8
SEIHIN
 48
5.0
100
AcDbLine
 10
702.1087852825899
 20
411.3046141643236
 30
0.0
 11
702.1087852825899
 21
409.3046141643236
 31
0.0
1001
ACAD
1000
ASC_BOUNDS
1002
{
1070
    19
1005
B69
1002
}
  0
ARC
  5
907
330
1A
100
AcDbEntity
  8
SEIHIN
 48
5.0
100
AcDbCircle
 10
703.8087852825902
 20
412.3046141643236
 30
0.0
 40
0.5
100
AcDbArc
 50
270.0
 51
0.0
1001
ACAD
1000
ASC_BOUNDS
1002
{
1070
    19
1005
B69
1002
}
  0
LINE
  5
90A
330
1A
100
AcDbEntity
  8
SEIHIN
 48
5.0
100
AcDbLine
 10
704.8000273163945
 20
411.3879141643236
 30
0.0
 11
702.5021852825902
 21
411.3879141643236
 31
0.0
1001
ACAD
1000
ASC_BOUNDS
1002
{
1070
    19
1005
B68
1002
}
  0
ARC
  5
90B
330
1A
100
AcDbEntity
  8
SEIHIN
 48
5.0
100
AcDbCircle
 10
702.6087852825899
 20
415.3046141643236
 30
0.0
 40
0.5
100
AcDbArc
 50
180.0
 51
270.0
1001
ACAD
1000
ASC_BOUNDS
1002
{
1070
    19
1005
B69
1002
}
  0
LINE
  5
90C
330
1A
100
AcDbEntity
  8
SEIHIN
 48
5.0
100
AcDbLine
 10
702.6087852825899
 20
414.8046141643236
 30
0.0
 11
703.8087852825902
 21
414.8046141643236
 31
0.0
1001
ACAD
1000
ASC_BOUNDS
1002
{
1070
    19
1005
B69
1002
}
  0
ARC
  5
90D
330
1A
100
AcDbEntity
  8
SEIHIN
 48
5.0
100
AcDbCircle
 10
703.8087852825902
 20
414.3046141643236
 30
0.0
 40
0.5
100
AcDbArc
 50
0.0
 51
90.0
1001
ACAD
1000
ASC_BOUNDS
1002
{
1070
    19
1005
B69
1002
}
  0
LINE
  5
90E
330
1A
100
AcDbEntity
  8
SEIHIN
100
AcDbLine
 10
702.1087852825899
 20
427.304059373487
 30
0.0
 11
709.1087700329303
 21
427.3040504014022
 31
0.0
1001
ACAD
1000
ASC_BOUNDS
1002
{
1070
    19
1005
B69
1002
}
  0
LINE
  5
90F
330
1A
100
AcDbEntity
  8
SEIHIN
 48
5.0
100
AcDbLine
 10
709.09898528259
 20
428.8046141643236
 30
0.0
 11
700.108776191681
 21
428.8046141643236
 31
0.0
1001
ACAD
1000
ASC_BOUNDS
1002
{
1070
    19
1005
B69
1002
}
  0
LINE
  5
910
330
1A
100
AcDbEntity
  8
SEIHIN
 48
5.0
100
AcDbLine
 10
702.1087852825899
 20
428.8046141643236
 30
0.0
 11
702.1087852825899
 21
428.8040593734884
 31
0.0
1001
ACAD
1000
ASC_BOUNDS
1002
{
1070
    19
1005
B69
1002
}
  0
LINE
  5
911
330
1A
100
AcDbEntity
  8
SEIHIN
 48
5.0
100
AcDbLine
 10
702.1087852825899
 20
427.304059373487
 30
0.0
 11
702.1087852825899
 21
426.3046141643236
 31
0.0
1001
ACAD
1000
ASC_BOUNDS
1002
{
1070
    19
1005
B69
1002
}
  0
LINE
  5
912
330
1A
100
AcDbEntity
  8
SEIHIN
 48
5.0
100
AcDbLine
 10
709.1087722787183
 20
428.8046141643236
 30
0.0
 11
709.1087700329303
 21
427.3040504014022
 31
0.0
1001
ACAD
1000
ASC_BOUNDS
1002
{
1070
    19
1005
B69
1002
}
  0
LINE
  5
913
330
1A
100
AcDbEntity
  8
SEIHIN
 48
5.0
100
AcDbLine
 10
711.6185854050568
 20
428.8040503888228
 30
0.0
 11
711.6185854050568
 21
424.4715434676762
 31
0.0
1001
ACAD
1000
ASC_BOUNDS
1002
{
1070
    19
1005
B68
1002
}
  0
TEXT
  5
9FB
330
1A
100
AcDbEntity
  8
SUNPOU
100
AcDbText
 10
654.0119424029903
 20
343.6497772586807
 30
0.0
 40
8.0
  1
組み合わせ
100
AcDbText
  0
LINE
  5
B64
330
1A
100
AcDbEntity
  8
SEIHIN
 48
5.0
100
AcDbLine
 10
703.8005146674478
 20
408.8046141643236
 30
0.0
 11
703.8017852556832
 21
405.8046141643236
 31
0.0
1001
ACAD
1000
ASC_BOUNDS
1002
{
1070
    19
1005
B69
1002
}
  0
LINE
  5
B65
330
1A
100
AcDbEntity
  8
SEIHIN
 48
5.0
100
AcDbLine
 10
701.3087561916941
 20
397.3046141643235
 30
0.0
 11
701.3087489189668
 21
395.3046141643236
 31
0.0
1001
ACAD
1000
ASC_BOUNDS
1002
{
1070
    19
1005
B68
1002
}
  0
INSERT
  5
B68
330
1A
100
AcDbEntity
  8
SEIHIN
100
AcDbBlockReference
  2
*X23
 10
0.0
 20
0.0
 30
0.0
1001
ACAD
1000
HATCH
1002
{
1070
    19
1000
ANSI31
1040
1.0
1040
1.570796326794896
1000
ASC_BOUNDS
1070
     1
1070
     2
1070
    19
1005
8F4
1005
8F5
1005
8F6
1005
8F7
1005
8F8
1005
8ED
1005
8F1
1005
8F2
1005
8F9
1005
B65
1005
8F0
1005
903
1005
905
1005
90A
1005
8D9
1005
8EA
1005
8EB
1005
8FD
1005
913
1000
ASC_SEEDPOINT
1011
0.0
1021
0.0
1031
0.0
1000
R14_HATCH_DATA
1000
B68
1011
1.0
1021
0.0
1031
0.0
1011
0.0
1021
1.0
1031
0.0
1011
0.0
1021
0.0
1031
1.0
1040
0.0
1010
0.0
1020
0.0
1030
1.0
1000
ANSI31
1070
     0
1070
     1
1071
        1
1071
       33
1071
       19
1070
     1
1040
711.6185854050568
1040
428.8040503888228
1040
711.6185854050568
1040
424.4715434676762
1070
     2
1040
731.5206759033417
1040
405.7809646109588
1040
25.80258127359184
1040
2.364831996976781
1040
2.96933223573
1070
     1
1070
     1
1040
713.1185854050568
1040
428.8040503888228
1040
713.1185854050568
1040
423.8678732930207
1070
     2
1040
731.5206759033417
1040
405.7809646109588
1040
27.30258127359184
1040
2.387576457947857
1040
2.934757697626383
1070
     1
1070
     1
1040
711.6185854050568
1040
428.8040471844999
1040
713.118586089994
1040
428.8040452619052
1070
     1
1040
704.8000273163945
1040
411.3879141643236
1040
702.5021852825902
1040
411.3879141643236
1070
     1
1040
702.5021852825902
1040
408.8879141643235
1040
702.5021852825902
1040
411.3879141643236
1070
     1
1040
704.1004794143543
1040
408.8879141643235
1040
702.5021852825902
1040
408.8879141643235
1070
     1
1040
704.1004794143544
1040
408.8879141643236
1040
704.1053852825898
1040
397.3046141643236
1070
     1
1040
701.3087561916941
1040
397.3046141643235
1040
701.3087489189668
1040
395.3046141643236
1070
     1
1040
704.1061852825901
1040
395.3046141643236
1040
704.1085852825899
1040
389.8046141643236
1070
     1
1040
704.1061852825901
1040
395.3046141643236
1040
701.3087489189668
1040
395.3046141643236
1070
     1
1040
704.1053852825898
1040
397.3046141643236
1040
701.3087561916941
1040
397.3046141643235
1070
     1
1040
706.0999773089429
1040
410.2037785741552
1040
706.1087852825899
1040
389.3046141643236
1070
     1
1040
704.1087852825898
1040
389.8046141643236
1040
702.3587852825898
1040
389.8046141643236
1070
     1
1040
702.3586852825901
1040
389.3046141643236
1040
703.3587852825899
1040
385.3046141643236
1070
     1
1040
706.1087852825899
1040
389.3046141643236
1040
704.6087852825898
1040
385.3046141643236
1070
     1
1040
702.3587852825898
1040
389.8046141643236
1040
702.3587852825898
1040
389.3046141643236
1070
     1
1040
704.6087852825898
1040
385.3046141643236
1040
703.3587852825899
1040
385.3046141643236
1071
       19
1005
913
1005
8FD
1005
8EB
1005
8EA
1005
8D9
1005
90A
1005
905
1005
903
1005
8F0
1005
B65
1005
8F9
1005
8F2
1005
8F1
1005
8ED
1005
8F8
1005
8F7
1005
8F6
1005
8F5
1005
8F4
1070
     0
1070
     1
1040
1.570796326794896
1040
1.0
1070
     0
1070
     1
1040
2.356194490192344
1040
0.0
1040
0.0
1040
-2.245064030267288
1040
-2.245064030267287
1070
     0
1071
        1
1040
0.0
1040
0.0
1040
0.0
1002
}
  0
INSERT
  5
B69
330
1A
100
AcDbEntity
  8
SEIHIN
100
AcDbBlockReference
  2
*X24
 10
0.0
 20
0.0
 30
0.0
1001
ACAD
1000
HATCH
1002
{
1070
    19
1000
ANSI37
1040
1.0
1040
1.570796326794896
1000
ASC_BOUNDS
1070
     1
1070
     2
1070
    25
1005
8DA
1005
8DB
1005
8EE
1005
8EF
1005
8FB
1005
8FC
1005
8FA
1005
904
1005
B64
1005
902
1005
906
1005
8FE
1005
900
1005
901
1005
907
1005
90B
1005
90C
1005
90D
1005
8EC
1005
8E9
1005
90F
1005
910
1005
90E
1005
911
1005
912
1000
ASC_SEEDPOINT
1011
0.0
1021
0.0
1031
0.0
1000
R14_HATCH_DATA
1000
B69
1011
1.0
1021
0.0
1031
0.0
1011
0.0
1021
1.0
1031
0.0
1011
0.0
1021
0.0
1031
1.0
1040
0.0
1010
0.0
1020
0.0
1030
1.0
1000
ANSI37
1070
     0
1070
     1
1071
        1
1071
       33
1071
       25
1070
     1
1040
709.1087722787183
1040
428.8046141643236
1040
709.1087700329303
1040
427.3040504014022
1070
     1
1040
702.1087852825899
1040
427.304059373487
1040
702.1087852825899
1040
426.3046141643236
1070
     1
1040
702.1087852825899
1040
427.304059373487
1040
709.1087700329303
1040
427.3040504014022
1070
     1
1040
702.1087852825899
1040
428.8046141643236
1040
702.1087852825899
1040
428.8040593734884
1070
     1
1040
709.09898528259
1040
428.8046141643236
1040
700.108776191681
1040
428.8046141643236
1070
     1
1040
700.108776191681
1040
428.8046141643236
1040
700.1086852825901
1040
408.8046141643236
1070
     1
1040
702.1087852825899
1040
426.3046141643236
1040
702.1087852825899
1040
415.3046141643236
1070
     2
1040
703.8087852825902
1040
414.3046141643236
1040
0.5
1040
0.0
1040
1.570796326794896
1070
     1
1070
     1
1040
702.6087852825899
1040
414.8046141643236
1040
703.8087852825902
1040
414.8046141643236
1070
     2
1040
702.6087852825899
1040
415.3046141643236
1040
0.5
1040
3.141592653589793
1040
4.712388980384689
1070
     1
1070
     2
1040
703.8087852825902
1040
412.3046141643236
1040
0.5
1040
4.712388980384689
1040
6.283185307179586
1070
     1
1070
     1
1040
702.6087852825899
1040
411.8046141643236
1040
703.8087852825902
1040
411.8046141643236
1070
     2
1040
702.6087852825899
1040
411.3046141643236
1040
0.5
1040
1.570796326794896
1040
3.141592653589793
1070
     1
1070
     1
1040
704.3087852825902
1040
414.3046141643236
1040
704.3087852825902
1040
412.3046141643236
1070
     1
1040
702.1087852825899
1040
411.3046141643236
1040
702.1087852825899
1040
409.3046141643236
1070
     2
1040
702.6087852825899
1040
409.3046141643236
1040
0.5
1040
3.141592653589793
1040
4.712388980384689
1070
     1
1070
     1
1040
703.8005146674478
1040
408.8046141643236
1040
703.8017852556832
1040
405.8046141643236
1070
     1
1040
702.6087852825899
1040
408.8046141643236
1040
703.8005146674478
1040
408.8046141643236
1070
     1
1040
699.8087852825902
1040
405.8046141643236
1040
703.8087852825902
1040
405.8046141643236
1070
     2
1040
699.1086852825901
1040
408.8046141643236
1040
1.0
1040
4.712388980384689
1040
6.283185307179586
1070
     1
1070
     2
1040
699.8087852825902
1040
405.3046141643235
1040
0.5000000000000995
1040
1.570796326794896
1040
3.141592653589764
1070
     1
1070
     1
1040
697.6087852825899
1040
407.8046141643236
1040
697.6087852825899
1040
380.3040706783685
1070
     1
1040
699.3087852825897
1040
405.3046141643235
1040
699.3086943715048
1040
380.3040657510958
1070
     1
1040
697.6087852825899
1040
407.8046141643236
1040
699.1086852825901
1040
407.8046141643236
1070
     1
1040
697.6087852825898
1040
380.3040706783685
1040
699.3086860899938
1040
380.3040657511198
1071
       25
1005
912
1005
911
1005
90E
1005
910
1005
90F
1005
8E9
1005
8EC
1005
90D
1005
90C
1005
90B
1005
907
1005
901
1005
900
1005
8FE
1005
906
1005
902
1005
B64
1005
904
1005
8FA
1005
8FC
1005
8FB
1005
8EF
1005
8EE
1005
8DB
1005
8DA
1070
     0
1070
     1
1040
1.570796326794896
1040
1.0
1070
     0
1070
     2
1040
2.356194490192344
1040
0.0
1040
0.0
1040
-2.245064030267288
1040
-2.245064030267287
1070
     0
1040
3.926990816987241
1040
0.0
1040
0.0
1040
2.245064030267287
1040
-2.245064030267288
1070
     0
1071
        1
1040
0.0
1040
0.0
1040
0.0
1002
}
  0
INSERT
  5
B70
330
1A
100
AcDbEntity
  8
SEIHIN
100
AcDbBlockReference
  2
*X25
 10
0.0
 20
0.0
 30
0.0
1001
ACAD
1000
HATCH
1002
{
1070
    19
1000
ANSI31
1040
1.0
1040
0.0
1000
ASC_BOUNDS
1070
     1
1070
     2
1070
    12
1005
600
1005
5F6
1005
61E
1005
623
1005
61F
1005
5F5
1005
61C
1005
611
1005
612
1005
608
1005
607
1005
637
1000
ASC_SEEDPOINT
1011
0.0
1021
0.0
1031
0.0
1000
R14_HATCH_DATA
1000
B70
1011
1.0
1021
0.0
1031
0.0
1011
0.0
1021
1.0
1031
0.0
1011
0.0
1021
0.0
1031
1.0
1040
0.0
1010
0.0
1020
0.0
1030
1.0
1000
ANSI31
1070
     0
1070
     1
1071
        1
1071
       33
1071
       12
1070
     1
1040
709.6087572779055
1040
497.1041003855397
1040
708.1087572779056
1040
497.1041003855397
1070
     1
1040
708.1087572779056
1040
497.1041003855397
1040
708.1087572779056
1040
472.1041003888396
1070
     1
1040
710.1087572779056
1040
497.1041003855397
1040
710.1087572779056
1040
472.1041003888396
1070
     1
1040
697.1087722779056
1040
443.1041003888396
1040
708.1087572779056
1040
472.1041003888396
1070
     1
1040
710.1087572779056
1040
472.1041003888396
1040
699.1087572779056
1040
443.1041003888396
1070
     1
1040
699.1087572779056
1040
431.1041003888397
1040
699.1087572779056
1040
443.1041003888396
1070
     1
1040
697.1087722779056
1040
443.1041003888396
1040
697.1087722779056
1040
409.1041003888396
1070
     1
1040
699.1087572779056
1040
431.1041003888397
1040
710.1087572779056
1040
431.1041003888397
1070
     1
1040
710.1087572779056
1040
431.1041003888397
1040
710.1087572779056
1040
429.1041003888397
1070
     1
1040
710.1087572779056
1040
429.1041003888397
1040
698.3587722779057
1040
429.1041003888397
1070
     1
1040
698.3587722779057
1040
429.1041003888397
1040
698.3587722779057
1040
409.1041003888396
1070
     1
1040
697.1087722779056
1040
409.1041003888396
1040
698.3587722779057
1040
409.1041003888396
1071
       12
1005
637
1005
607
1005
608
1005
612
1005
611
1005
61C
1005
5F5
1005
61F
1005
623
1005
61E
1005
5F6
1005
600
1070
     0
1070
     1
1040
0.0
1040
1.0
1070
     0
1070
     1
1040
0.7853981633974483
1040
0.0
1040
0.0
1040
-2.245064030267287
1040
2.245064030267288
1070
     0
1071
        1
1040
0.0
1040
0.0
1040
0.0
1002
}
  0
LINE
  5
B71
330
1A
100
AcDbEntity
  8
SEIHIN
100
AcDbLine
 10
640.908786089994
 20
380.3042350261922
 30
0.0
 11
699.3086943715048
 21
380.3040657510958
 31
0.0
  0
LINE
  5
B72
330
1A
100
AcDbEntity
  8
SEIHIN
100
AcDbLine
 10
703.3587852825899
 20
385.3046141643236
 30
0.0
 11
699.308712555317
 21
385.3046141643236
 31
0.0
  0
LINE
  5
B73
330
1A
100
AcDbEntity
  8
SEIHIN
100
AcDbLine
 10
702.3587852825898
 20
389.8046141643236
 30
0.0
 11
699.3087289189535
 21
389.8046141643236
 31
0.0
  0
LINE
  5
B74
330
1A
100
AcDbEntity
  8
SEIHIN
100
AcDbLine
 10
701.3087489189668
 20
395.3046141643236
 30
0.0
 11
699.3087489189532
 21
395.3046141643236
 31
0.0
  0
LINE
  5
B77
330
1A
100
AcDbEntity
  8
SEIHIN
100
AcDbLine
 10
701.3087561916941
 20
397.3046141643235
 30
0.0
 11
699.3087561916808
 21
397.3046141643235
 31
0.0
  0
LINE
  5
B78
330
1A
100
AcDbEntity
  8
SEIHIN
100
AcDbLine
 10
711.6185854050568
 20
428.8040503888228
 30
0.0
 11
698.3587722779057
 21
428.8040503888228
 31
0.0
  0
LINE
  5
B79
330
1A
100
AcDbEntity
  8
SEIHIN
100
AcDbLine
 10
627.0989860899939
 20
428.8041503888219
 30
0.0
 11
670.1087722779057
 21
428.8041503888219
 31
0.0
  0
LINE
  5
B7E
330
1A
100
AcDbEntity
  8
SEIHIN
100
AcDbLine
 10
531.9667012046013
 20
191.4257615137136
 30
0.0
 11
611.9667312546014
 21
191.4257615137136
 31
0.0
  0
LINE
  5
B80
330
1A
100
AcDbEntity
  8
SEIHIN
100
AcDbLine
 10
112.2899529372214
 20
425.4961799797844
 30
0.0
 11
121.9605797357505
 21
415.8255426771616
 31
0.0
  0
LINE
  5
B87
330
1A
100
AcDbEntity
  8
SEIHIN
100
AcDbLine
 10
195.3096511516856
 20
361.1098257369032
 30
0.0
 11
185.6390082183219
 21
370.7804791743782
 31
0.0
  0
LINE
  5
B88
330
1A
100
AcDbEntity
  8
SEIHIN
100
AcDbLine
 10
185.9928809377772
 20
434.8127537375657
 30
0.0
 11
176.3222841507773
 21
425.1421674546155
 31
0.0
  0
LINE
  5
B89
330
1A
100
AcDbEntity
  8
SEIHIN
100
AcDbLine
 10
121.606624923013
 20
351.7931537511118
 30
0.0
 11
131.2772206479007
 21
361.463738971951
 31
0.0
  0
LINE
  5
B8A
330
1A
100
AcDbEntity
  8
SEIHIN
100
AcDbLine
 10
131.277313800466
 20
425.1422326391133
 30
0.0
 11
121.6067049780775
 21
434.812851965576
 31
0.0
  0
LINE
  5
B8B
330
1A
100
AcDbEntity
  8
SEIHIN
100
AcDbLine
 10
176.3223081366807
 20
361.4637552293153
 30
0.0
 11
185.9928991108295
 21
351.7931537511117
 31
0.0
  0
LINE
  5
B8C
330
1A
100
AcDbEntity
  8
SEIHIN
100
AcDbLine
 10
185.6389912511094
 20
415.8254505282618
 30
0.0
 11
195.3095529236753
 21
425.4960016968159
 31
0.0
  0
LINE
  5
B8D
330
1A
100
AcDbEntity
  8
SEIHIN
100
AcDbLine
 10
121.9605138412184
 20
370.7804561919541
 30
0.0
 11
112.2899529372214
 21
361.1099057919679
 31
0.0
  0
DIMENSION
  5
B8E
330
1A
100
AcDbEntity
  8
SUNPOU
100
AcDbDimension
  2
*D2
 10
196.8095896973882
 20
288.3245282477673
 30
0.0
 11
153.7997896973882
 21
293.3245282477674
 31
0.0
 70
    32
  3
STANDARD
100
AcDbAlignedDimension
 13
110.7899896973881
 23
257.4258115103968
 33
0.0
 14
196.8095896973882
 24
257.42570638348
 34
0.0
100
AcDbRotatedDimension
1001
ACAD
1000
DSTYLE
1002
{
1070
   372
1070
    -1
1070
   371
1070
    -1
1070
    41
1040
7.0
1070
    42
1040
6.0
1070
    43
1040
14.0
1070
    44
1040
3.0
1070
    73
1070
     0
1070
    74
1070
     0
1070
    77
1070
     3
1070
   140
1040
6.0
1070
   141
1040
10.0
1070
   147
1040
2.0
1070
   172
1070
     1
1070
   173
1070
     1
1070
   176
1070
   256
1070
   177
1070
   256
1070
   178
1070
   256
1070
   271
1070
     0
1070
   272
1070
     2
1070
   341
1005
6D
1070
     6
1000
OPEN
1070
     7
1000
OPEN
1002
}
  0
DIMENSION
  5
B9C
330
1A
100
AcDbEntity
  8
SUNPOU
100
AcDbDimension
  2
*D3
 10
215.4436263720126
 20
213.9257115103968
 30
0.0
 11
210.4436263720125
 21
191.0257115103968
 31
0.0
 70
    32
  1
\U+203B<>
  3
STANDARD
100
AcDbAlignedDimension
 13
189.8022442046294
 23
223.9257071552084
 33
0.0
 14
188.2996896973882
 24
213.9257115103968
 34
0.0
 50
90.0
100
AcDbRotatedDimension
1001
ACAD
1000
DSTYLE
1002
{
1070
   372
1070
    -1
1070
   371
1070
    -1
1070
    41
1040
7.0
1070
    42
1040
6.0
1070
    43
1040
14.0
1070
    44
1040
3.0
1070
    73
1070
     0
1070
    74
1070
     0
1070
    77
1070
     3
1070
   140
1040
6.0
1070
   141
1040
10.0
1070
   147
1040
2.0
1070
   172
1070
     1
1070
   173
1070
     1
1070
   176
1070
   256
1070
   177
1070
   256
1070
   178
1070
   256
1070
   271
1070
     0
1070
   272
1070
     2
1070
   341
1005
6D
1070
     6
1000
OPEN
1070
     7
1000
OPEN
1002
}
  0
DIMENSION
  5
BAB
330
1A
100
AcDbEntity
  8
SUNPOU
100
AcDbDimension
  2
*D4
 10
189.799689697388
 20
179.7330059013993
 30
0.0
 11
153.7996896973881
 21
184.7330059013993
 31
0.0
 70
    32
  3
STANDARD
100
AcDbAlignedDimension
 13
117.7996896973882
 23
217.9258115103968
 33
0.0
 14
189.799689697388
 24
217.9257115103968
 34
0.0
100
AcDbRotatedDimension
1001
ACAD
1000
DSTYLE
1002
{
1070
   372
1070
    -1
1070
   371
1070
    -1
1070
    41
1040
7.0
1070
    42
1040
6.0
1070
    43
1040
14.0
1070
    44
1040
3.0
1070
    73
1070
     0
1070
    74
1070
     0
1070
    77
1070
     3
1070
   140
1040
6.0
1070
   141
1040
10.0
1070
   147
1040
2.0
1070
   172
1070
     1
1070
   173
1070
     1
1070
   176
1070
   256
1070
   177
1070
   256
1070
   178
1070
   256
1070
   271
1070
     0
1070
   272
1070
     2
1070
   341
1005
6D
1070
     6
1000
OPEN
1070
     7
1000
OPEN
1002
}
  0
DIMENSION
  5
BC3
330
1A
100
AcDbEntity
  8
SUNPOU
100
AcDbDimension
  2
*D5
 10
130.8240188170556
 20
374.0126536564354
 30
0.0
 11
161.0899440753455
 21
407.1396728992254
 31
0.0
 70
   163
  3
STANDARD
100
AcDbDiametricDimension
 15
176.7754869851498
 25
412.5932520602525
 35
0.0
 40
0.0
1001
ACAD
1000
DSTYLE
1002
{
1070
   287
1070
     5
1070
   287
1070
     5
1070
   287
1070
     5
1070
    41
1040
7.0
1070
    42
1040
6.0
1070
    43
1040
14.0
1070
    44
1040
3.0
1070
    73
1070
     0
1070
    74
1070
     0
1070
    77
1070
     3
1070
   140
1040
6.0
1070
   141
1040
10.0
1070
   147
1040
2.0
1070
   172
1070
     1
1070
   173
1070
     1
1070
   176
1070
   256
1070
   177
1070
   256
1070
   178
1070
   256
1070
   271
1070
     0
1070
   272
1070
     2
1070
   279
1070
     2
1070
   288
1070
     1
1070
   341
1005
6D
1070
     6
1000
OPEN
1070
     7
1000
OPEN
1002
}
  0
DIMENSION
  5
BCC
330
1A
100
AcDbEntity
  8
SUNPOU
100
AcDbDimension
  2
*D6
 10
238.5709359926077
 20
350.2931537511118
 30
0.0
 11
233.5709359926076
 21
393.3029537511119
 31
0.0
 70
    32
  3
STANDARD
100
AcDbAlignedDimension
 13
187.3228181711804
 23
436.3127537511117
 33
0.0
 14
187.3227199567161
 24
350.2931537511118
 34
0.0
 50
90.0
100
AcDbRotatedDimension
1001
ACAD
1000
DSTYLE
1002
{
1070
   372
1070
    -1
1070
   371
1070
    -1
1070
    41
1040
7.0
1070
    42
1040
6.0
1070
    43
1040
14.0
1070
    44
1040
3.0
1070
    73
1070
     0
1070
    74
1070
     0
1070
    77
1070
     3
1070
   140
1040
6.0
1070
   141
1040
10.0
1070
   147
1040
2.0
1070
   172
1070
     1
1070
   173
1070
     1
1070
   176
1070
   256
1070
   177
1070
   256
1070
   178
1070
   256
1070
   271
1070
     0
1070
   272
1070
     2
1070
   341
1005
6D
1070
     6
1000
OPEN
1070
     7
1000
OPEN
1002
}
  0
DIMENSION
  5
BD9
330
1A
100
AcDbEntity
  8
SUNPOU
100
AcDbDimension
  2
*D7
 10
474.1037612020391
 20
353.3030028583439
 30
0.0
 11
469.103761202039
 21
393.3030028583439
 31
0.0
 70
    32
  3
STANDARD
100
AcDbAlignedDimension
 13
426.4760974577531
 23
433.3030028583439
 33
0.0
 14
426.4760974577531
 24
353.3030028583439
 34
0.0
 50
90.0
100
AcDbRotatedDimension
1001
ACAD
1000
DSTYLE
1002
{
1070
   372
1070
    -1
1070
   371
1070
    -1
1070
    41
1040
7.0
1070
    42
1040
6.0
1070
    43
1040
14.0
1070
    44
1040
3.0
1070
    73
1070
     0
1070
    74
1070
     0
1070
    77
1070
     3
1070
   140
1040
6.0
1070
   141
1040
10.0
1070
   147
1040
2.0
1070
   172
1070
     1
1070
   173
1070
     1
1070
   176
1070
   256
1070
   177
1070
   256
1070
   178
1070
   256
1070
   271
1070
     0
1070
   272
1070
     2
1070
   341
1005
6D
1070
     6
1000
OPEN
1070
     7
1000
OPEN
1002
}
  0
DIMENSION
  5
BE6
330
1A
100
AcDbEntity
  8
SUNPOU
100
AcDbDimension
  2
*D8
 10
356.4760974577531
 20
326.9275843445839
 30
0.0
 11
396.4760974577531
 21
331.9275843445839
 31
0.0
 70
    32
  3
STANDARD
100
AcDbAlignedDimension
 13
436.4760974577531
 23
363.3030028583439
 33
0.0
 14
356.4760974577531
 24
363.3030028583439
 34
0.0
100
AcDbRotatedDimension
1001
ACAD
1000
DSTYLE
1002
{
1070
   372
1070
    -1
1070
   371
1070
    -1
1070
    41
1040
7.0
1070
    42
1040
6.0
1070
    43
1040
14.0
1070
    44
1040
3.0
1070
    73
1070
     0
1070
    74
1070
     0
1070
    77
1070
     3
1070
   140
1040
6.0
1070
   141
1040
10.0
1070
   147
1040
2.0
1070
   172
1070
     1
1070
   173
1070
     1
1070
   176
1070
   256
1070
   177
1070
   256
1070
   178
1070
   256
1070
   271
1070
     0
1070
   272
1070
     2
1070
   341
1005
6D
1070
     6
1000
OPEN
1070
     7
1000
OPEN
1002
}
  0
DIMENSION
  5
BFC
330
1A
100
AcDbEntity
  8
SUNPOU
100
AcDbDimension
  2
*D9
 10
372.6270237988858
 20
363.7188570093603
 30
0.0
 11
402.8076195763814
 21
408.5868564014321
 31
0.0
 70
   163
  3
STANDARD
100
AcDbDiametricDimension
 15
420.3251711166203
 25
422.8871487073274
 35
0.0
 40
0.0
1001
ACAD
1000
DSTYLE
1002
{
1070
   287
1070
     5
1070
   287
1070
     5
1070
   287
1070
     5
1070
    41
1040
7.0
1070
    42
1040
6.0
1070
    43
1040
14.0
1070
    44
1040
3.0
1070
    73
1070
     0
1070
    74
1070
     0
1070
    77
1070
     3
1070
   140
1040
6.0
1070
   141
1040
10.0
1070
   147
1040
2.0
1070
   172
1070
     1
1070
   173
1070
     1
1070
   176
1070
   256
1070
   177
1070
   256
1070
   178
1070
   256
1070
   271
1070
     0
1070
   272
1070
     2
1070
   279
1070
     2
1070
   288
1070
     1
1070
   341
1005
6D
1070
     6
1000
OPEN
1070
     7
1000
OPEN
1002
}
  0
DIMENSION
  5
C05
330
1A
100
AcDbEntity
  8
SUNPOU
100
AcDbDimension
  2
*D10
 10
369.8726913231737
 20
388.6922781527776
 30
0.0
 11
445.8731377992694
 21
406.9387062143189
 31
0.0
 70
    35
  3
STANDARD
100
AcDbDiametricDimension
 15
423.079503592332
 25
397.9137275639098
 35
0.0
 40
0.0
1001
ACAD
1000
DSTYLE
1002
{
1070
    41
1040
7.0
1070
    42
1040
6.0
1070
    43
1040
14.0
1070
    44
1040
3.0
1070
    73
1070
     0
1070
    74
1070
     0
1070
    77
1070
     3
1070
   140
1040
6.0
1070
   141
1040
10.0
1070
   147
1040
2.0
1070
   172
1070
     1
1070
   173
1070
     1
1070
   176
1070
   256
1070
   177
1070
   256
1070
   178
1070
   256
1070
   271
1070
     0
1070
   272
1070
     2
1070
   288
1070
     1
1070
   341
1005
6D
1070
     6
1000
OPEN
1070
     7
1000
OPEN
1002
}
  0
DIMENSION
  5
C11
330
1A
100
AcDbEntity
  8
SUNPOU
100
AcDbDimension
  2
*D11
 10
426.476112457753
 20
140.3499560254213
 30
0.0
 11
396.476112457753
 21
145.3499560254213
 31
0.0
 70
    32
  1
φ<>
  3
STANDARD
100
AcDbAlignedDimension
 13
366.476112457753
 23
171.4257615137136
 33
0.0
 14
426.476112457753
 24
171.4257615137136
 34
0.0
100
AcDbRotatedDimension
1001
ACAD
1000
DSTYLE
1002
{
1070
   372
1070
    -1
1070
   371
1070
    -1
1070
    41
1040
7.0
1070
    42
1040
6.0
1070
    43
1040
14.0
1070
    44
1040
3.0
1070
    73
1070
     0
1070
    74
1070
     0
1070
    77
1070
     3
1070
   140
1040
6.0
1070
   141
1040
10.0
1070
   147
1040
2.0
1070
   172
1070
     1
1070
   173
1070
     1
1070
   176
1070
   256
1070
   177
1070
   256
1070
   178
1070
   256
1070
   271
1070
     0
1070
   272
1070
     2
1070
   341
1005
6D
1070
     6
1000
OPEN
1070
     7
1000
OPEN
1002
}
  0
DIMENSION
  5
C1E
330
1A
100
AcDbEntity
  8
SUNPOU
100
AcDbDimension
  2
*D12
 10
436.4760974577531
 20
290.0451501695033
 30
0.0
 11
396.4760974577531
 21
295.0451501695033
 31
0.0
 70
    32
  1
φ<>
  3
STANDARD
100
AcDbAlignedDimension
 13
356.4760974577531
 23
257.4257615104136
 33
0.0
 14
436.4760974577531
 24
257.4257615104136
 34
0.0
100
AcDbRotatedDimension
1001
ACAD
1000
DSTYLE
1002
{
1070
   372
1070
    -1
1070
   371
1070
    -1
1070
    41
1040
7.0
1070
    42
1040
6.0
1070
    43
1040
14.0
1070
    44
1040
3.0
1070
    73
1070
     0
1070
    74
1070
     0
1070
    77
1070
     3
1070
   140
1040
6.0
1070
   141
1040
10.0
1070
   147
1040
2.0
1070
   172
1070
     1
1070
   173
1070
     1
1070
   176
1070
   256
1070
   177
1070
   256
1070
   178
1070
   256
1070
   271
1070
     0
1070
   272
1070
     2
1070
   341
1005
6D
1070
     6
1000
OPEN
1070
     7
1000
OPEN
1002
}
  0
DIMENSION
  5
C2B
330
1A
100
AcDbEntity
  8
SUNPOU
100
AcDbDimension
  2
*D13
 10
430.6477800424745
 20
248.4257615107137
 30
0.0
 11
425.6477800424745
 21
241.9257615122137
 31
0.0
 70
    32
  3
STANDARD
100
AcDbAlignedDimension
 13
414.476112457753
 23
235.4257615137136
 33
0.0
 14
414.476112457753
 24
248.4257615107137
 34
0.0
 50
90.0
100
AcDbRotatedDimension
1001
ACAD
1000
DSTYLE
1002
{
1070
    41
1040
7.0
1070
    42
1040
6.0
1070
    43
1040
14.0
1070
    44
1040
3.0
1070
    73
1070
     0
1070
    74
1070
     0
1070
    77
1070
     3
1070
   140
1040
6.0
1070
   141
1040
10.0
1070
   147
1040
2.0
1070
   172
1070
     1
1070
   173
1070
     1
1070
   176
1070
   256
1070
   177
1070
   256
1070
   178
1070
   256
1070
   271
1070
     0
1070
   272
1070
     2
1070
   341
1005
6D
1070
     6
1000
OPEN
1070
     7
1000
OPEN
1002
}
  0
DIMENSION
  5
C3A
330
1A
100
AcDbEntity
  8
SUNPOU
100
AcDbDimension
  2
*D14
 10
376.476112459253
 20
275.4132865338206
 30
0.0
 11
396.476112457753
 21
280.4132865338205
 31
0.0
 70
    32
  3
STANDARD
100
AcDbAlignedDimension
 13
416.476112456253
 23
246.4257615137137
 33
0.0
 14
376.476112459253
 24
246.4257615137137
 34
0.0
100
AcDbRotatedDimension
1001
ACAD
1000
DSTYLE
1002
{
1070
   372
1070
    -1
1070
   371
1070
    -1
1070
    41
1040
7.0
1070
    42
1040
6.0
1070
    43
1040
14.0
1070
    44
1040
3.0
1070
    73
1070
     0
1070
    74
1070
     0
1070
    77
1070
     3
1070
   140
1040
6.0
1070
   141
1040
10.0
1070
   147
1040
2.0
1070
   172
1070
     1
1070
   173
1070
     1
1070
   176
1070
   256
1070
   177
1070
   256
1070
   178
1070
   256
1070
   271
1070
     0
1070
   272
1070
     2
1070
   341
1005
6D
1070
     6
1000
OPEN
1070
     7
1000
OPEN
1002
}
  0
DIMENSION
  5
C61
330
1A
100
AcDbEntity
  8
SUNPOU
100
AcDbDimension
  2
*D15
 10
416.976097457753
 20
213.8844335671556
 30
0.0
 11
396.976097457753
 21
218.8844335671556
 31
0.0
 70
    32
  3
STANDARD
100
AcDbAlignedDimension
 13
376.976097457753
 23
199.4257615137136
 33
0.0
 14
416.976097457753
 24
199.4257615137136
 34
0.0
100
AcDbRotatedDimension
1001
ACAD
1000
DSTYLE
1002
{
1070
   372
1070
    -1
1070
   371
1070
    -1
1070
    41
1040
7.0
1070
    42
1040
6.0
1070
    43
1040
14.0
1070
    44
1040
3.0
1070
    73
1070
     0
1070
    74
1070
     0
1070
    77
1070
     3
1070
   140
1040
6.0
1070
   141
1040
10.0
1070
   147
1040
2.0
1070
   172
1070
     1
1070
   173
1070
     1
1070
   176
1070
   256
1070
   177
1070
   256
1070
   178
1070
   256
1070
   271
1070
     0
1070
   272
1070
     2
1070
   341
1005
6D
1070
     6
1000
OPEN
1070
     7
1000
OPEN
1002
}
  0
DIMENSION
  5
C6F
330
1A
100
AcDbEntity
  8
SUNPOU
100
AcDbDimension
  2
*D16
 10
452.9044086719168
 20
201.4257615137136
 30
0.0
 11
447.9044086719167
 21
220.9257615137137
 31
0.0
 70
    32
  3
STANDARD
100
AcDbAlignedDimension
 13
436.4761274577531
 23
191.4257615137136
 33
0.0
 14
414.9760974577531
 24
201.4257615137136
 34
0.0
 50
90.0
100
AcDbRotatedDimension
1001
ACAD
1000
DSTYLE
1002
{
1070
   372
1070
    -1
1070
   371
1070
    -1
1070
    41
1040
7.0
1070
    42
1040
6.0
1070
    43
1040
14.0
1070
    44
1040
3.0
1070
    73
1070
     0
1070
    74
1070
     0
1070
    77
1070
     3
1070
   140
1040
6.0
1070
   141
1040
10.0
1070
   147
1040
2.0
1070
   172
1070
     1
1070
   173
1070
     1
1070
   176
1070
   256
1070
   177
1070
   256
1070
   178
1070
   256
1070
   271
1070
     0
1070
   272
1070
     2
1070
   341
1005
6D
1070
     6
1000
OPEN
1070
     7
1000
OPEN
1002
}
  0
DIMENSION
  5
CE0
330
1A
100
AcDbEntity
  8
SUNPOU
100
AcDbDimension
  2
*D17
 10
472.9654955019359
 20
257.4257615104136
 30
0.0
 11
467.9654955019358
 21
223.4257615120637
 31
0.0
 70
    32
  3
STANDARD
100
AcDbAlignedDimension
 13
436.4761274577531
 23
189.4257615137137
 33
0.0
 14
436.4761274577531
 24
257.4257615104136
 34
0.0
 50
90.0
100
AcDbRotatedDimension
1001
ACAD
1000
DSTYLE
1002
{
1070
   372
1070
    -1
1070
   371
1070
    -1
1070
    41
1040
7.0
1070
    42
1040
6.0
1070
    43
1040
14.0
1070
    44
1040
3.0
1070
    73
1070
     0
1070
    74
1070
     0
1070
    77
1070
     3
1070
   140
1040
6.0
1070
   141
1040
10.0
1070
   147
1040
2.0
1070
   172
1070
     1
1070
   173
1070
     1
1070
   176
1070
   256
1070
   177
1070
   256
1070
   178
1070
   256
1070
   271
1070
     0
1070
   272
1070
     2
1070
   341
1005
6D
1070
     6
1000
OPEN
1070
     7
1000
OPEN
1002
}
  0
DIMENSION
  5
CED
330
1A
100
AcDbEntity
  8
SUNPOU
100
AcDbDimension
  2
*D18
 10
489.7809481207842
 20
169.4257615137136
 30
0.0
 11
484.7809481207841
 21
213.4257615120637
 31
0.0
 70
    32
  3
STANDARD
100
AcDbAlignedDimension
 13
436.4761274577531
 23
257.4257615104136
 33
0.0
 14
424.726112457753
 24
169.4257615137136
 34
0.0
 50
90.0
100
AcDbRotatedDimension
1001
ACAD
1000
DSTYLE
1002
{
1070
   372
1070
    -1
1070
   371
1070
    -1
1070
    41
1040
7.0
1070
    42
1040
6.0
1070
    43
1040
14.0
1070
    44
1040
3.0
1070
    73
1070
     0
1070
    74
1070
     0
1070
    77
1070
     3
1070
   140
1040
6.0
1070
   141
1040
10.0
1070
   147
1040
2.0
1070
   172
1070
     1
1070
   173
1070
     1
1070
   176
1070
   256
1070
   177
1070
   256
1070
   178
1070
   256
1070
   271
1070
     0
1070
   272
1070
     2
1070
   341
1005
6D
1070
     6
1000
OPEN
1070
     7
1000
OPEN
1002
}
  0
TEXT
  5
D09
330
1A
100
AcDbEntity
  8
SUNPOU
100
AcDbText
 10
140.4144615497421
 20
115.2841071172882
 30
0.0
 40
8.0
  1
本　　　体
100
AcDbText
  0
TEXT
  5
D0A
330
1A
100
AcDbEntity
  8
SUNPOU
100
AcDbText
 10
460.6202972940168
 20
115.2841071172882
 30
0.0
 40
8.0
  1
中継ドレンキャップ
100
AcDbText
  0
DIMENSION
  5
D67
330
1A
100
AcDbEntity
  8
SUNPOU
100
AcDbDimension
  2
*D19
 10
758.6145502157523
 20
428.8040503888228
 30
0.0
 11
753.6145502157522
 21
462.9540753871814
 31
0.0
 70
    32
  3
STANDARD
100
AcDbAlignedDimension
 13
711.1087572779056
 23
497.1041003855397
 33
0.0
 14
713.1185854050568
 24
428.8040503888228
 34
0.0
 50
90.0
100
AcDbRotatedDimension
1001
ACAD
1000
DSTYLE
1002
{
1070
   372
1070
    -1
1070
   371
1070
    -1
1070
    41
1040
7.0
1070
    42
1040
6.0
1070
    43
1040
14.0
1070
    44
1040
3.0
1070
    73
1070
     0
1070
    74
1070
     0
1070
    77
1070
     3
1070
   140
1040
6.0
1070
   141
1040
10.0
1070
   147
1040
2.0
1070
   172
1070
     1
1070
   173
1070
     1
1070
   176
1070
   256
1070
   177
1070
   256
1070
   178
1070
   256
1070
   271
1070
     0
1070
   272
1070
     2
1070
   341
1005
6D
1070
     6
1000
OPEN
1070
     7
1000
OPEN
1002
}
  0
DIMENSION
  5
D74
330
1A
100
AcDbEntity
  8
SUNPOU
100
AcDbDimension
  2
*D20
 10
739.8739738256026
 20
472.1041003888396
 30
0.0
 11
734.8739738256025
 21
484.6041003871897
 31
0.0
 70
    32
  3
STANDARD
100
AcDbAlignedDimension
 13
710.1087572779056
 23
497.1041003855397
 33
0.0
 14
707.6087572779056
 24
472.1041003888396
 34
0.0
 50
90.0
100
AcDbRotatedDimension
1001
ACAD
1000
DSTYLE
1002
{
1070
   372
1070
    -1
1070
   371
1070
    -1
1070
    41
1040
7.0
1070
    42
1040
6.0
1070
    43
1040
14.0
1070
    44
1040
3.0
1070
    73
1070
     0
1070
    74
1070
     0
1070
    77
1070
     3
1070
   140
1040
6.0
1070
   141
1040
10.0
1070
   147
1040
2.0
1070
   172
1070
     1
1070
   173
1070
     1
1070
   176
1070
   256
1070
   177
1070
   256
1070
   178
1070
   256
1070
   271
1070
     0
1070
   272
1070
     2
1070
   341
1005
6D
1070
     6
1000
OPEN
1070
     7
1000
OPEN
1002
}
  0
DIMENSION
  5
D81
330
1A
100
AcDbEntity
  8
SUNPOU
100
AcDbDimension
  2
*D21
 10
739.8739738256026
 20
472.1041003888396
 30
0.0
 11
734.8739738256025
 21
457.6041003888398
 31
0.0
 70
    32
  3
STANDARD
100
AcDbAlignedDimension
 13
697.1087722779056
 23
443.1041003888396
 33
0.0
 14
707.6087572779056
 24
472.1041003888396
 34
0.0
 50
90.0
100
AcDbRotatedDimension
1001
ACAD
1000
DSTYLE
1002
{
1070
   372
1070
    -1
1070
   371
1070
    -1
1070
    41
1040
7.0
1070
    42
1040
6.0
1070
    43
1040
14.0
1070
    44
1040
3.0
1070
    73
1070
     0
1070
    74
1070
     0
1070
    77
1070
     3
1070
   140
1040
6.0
1070
   141
1040
10.0
1070
   147
1040
2.0
1070
   172
1070
     1
1070
   173
1070
     1
1070
   176
1070
   256
1070
   177
1070
   256
1070
   178
1070
   256
1070
   271
1070
     0
1070
   272
1070
     2
1070
   341
1005
6D
1070
     6
1000
OPEN
1070
     7
1000
OPEN
1002
}
  0
DIMENSION
  5
D8E
330
1A
100
AcDbEntity
  8
SUNPOU
100
AcDbDimension
  2
*D22
 10
758.6145502157523
 20
385.3046141643236
 30
0.0
 11
753.6145502157522
 21
407.0543322765733
 31
0.0
 70
    32
  3
STANDARD
100
AcDbAlignedDimension
 13
713.1185854050568
 23
428.8040503888228
 33
0.0
 14
704.6087852825898
 24
385.3046141643236
 34
0.0
 50
90.0
100
AcDbRotatedDimension
1001
ACAD
1000
DSTYLE
1002
{
1070
   372
1070
    -1
1070
   371
1070
    -1
1070
    41
1040
7.0
1070
    42
1040
6.0
1070
    43
1040
14.0
1070
    44
1040
3.0
1070
    73
1070
     0
1070
    74
1070
     0
1070
    77
1070
     3
1070
   140
1040
6.0
1070
   141
1040
10.0
1070
   147
1040
2.0
1070
   172
1070
     1
1070
   173
1070
     1
1070
   176
1070
   256
1070
   177
1070
   256
1070
   178
1070
   256
1070
   271
1070
     0
1070
   272
1070
     2
1070
   341
1005
6D
1070
     6
1000
OPEN
1070
     7
1000
OPEN
1002
}
  0
LINE
  5
1151
330
1A
100
AcDbEntity
  8
SEIHIN
100
AcDbLine
 10
697.1087722779056
 20
409.1041003888396
 30
0.0
 11
670.1087722779057
 21
409.1041003888396
 31
0.0
  0
LINE
  5
1152
330
1A
100
AcDbEntity
  8
SEIHIN
100
AcDbLine
 10
697.6087852825899
 20
407.8046141643236
 30
0.0
 11
670.1087722779057
 21
407.8046141643236
 31
0.0
  0
LINE
  5
1154
330
1A
100
AcDbEntity
  8
SEIHIN
100
AcDbLine
 10
119.290866632901
 20
368.550624445766
 30
0.0
 11
119.290866632901
 21
375.133286693873
 31
0.0
  0
LINE
  5
1155
330
1A
100
AcDbEntity
  8
SEIHIN
100
AcDbLine
 10
178.5521717175025
 20
358.7940587072781
 30
0.0
 11
171.9694040939721
 21
358.7940587072781
 31
0.0
  0
LINE
  5
1156
330
1A
100
AcDbEntity
  8
SEIHIN
100
AcDbLine
 10
188.3087374559904
 20
418.0553637918796
 30
0.0
 11
188.3087374559904
 21
411.4724323498021
 31
0.0
  0
LINE
  5
1157
330
1A
100
AcDbEntity
  8
SEIHIN
100
AcDbLine
 10
129.0474323713888
 20
427.8119295303675
 30
0.0
 11
135.6302584378623
 21
427.8119295303675
 31
0.0
  0
ARC
  5
1159
330
1A
100
AcDbEntity
  8
SEIHIN
100
AcDbCircle
 10
189.4318451481517
 20
428.9349557612343
 30
0.0
 40
10.5
100
AcDbArc
 50
188.4848468827519
 51
261.5147241134971
  0
ARC
  5
115E
330
1A
100
AcDbEntity
  8
SEIHIN
100
AcDbCircle
 10
187.8087374559904
 20
418.0553637918796
 30
0.0
 40
0.5
100
AcDbArc
 50
0.0
 51
81.5147241134956
  0
ARC
  5
115F
330
1A
100
AcDbEntity
  8
SEIHIN
100
AcDbCircle
 10
178.5522410260378
 20
427.3119295303675
 30
0.0
 40
0.5
100
AcDbArc
 50
8.48484688275486
 51
90.0
  0
ARC
  5
1160
330
1A
100
AcDbEntity
  8
SEIHIN
100
AcDbCircle
 10
119.7908666329009
 20
418.0554331004148
 30
0.0
 40
0.5
100
AcDbArc
 50
98.48484688275483
 51
180.0
  0
ARC
  5
1161
330
1A
100
AcDbEntity
  8
SEIHIN
100
AcDbCircle
 10
129.0474323713888
 20
427.3119295303675
 30
0.0
 40
0.5
100
AcDbArc
 50
89.99999999999998
 51
171.5147241134955
  0
ARC
  5
1162
330
1A
100
AcDbEntity
  8
SEIHIN
100
AcDbCircle
 10
118.1678404020342
 20
428.9350372225288
 30
0.0
 40
10.5
100
AcDbArc
 50
278.4848468827519
 51
351.5147241134971
  0
ARC
  5
1163
330
1A
100
AcDbEntity
  8
SEIHIN
100
AcDbCircle
 10
129.0473630628536
 20
359.2940587072781
 30
0.0
 40
0.5
100
AcDbArc
 50
188.4848468827548
 51
270.0
  0
ARC
  5
1164
330
1A
100
AcDbEntity
  8
SEIHIN
100
AcDbCircle
 10
119.7908666329009
 20
368.550624445766
 30
0.0
 40
0.5
100
AcDbArc
 50
179.9999999999999
 51
261.5147241134956
  0
ARC
  5
1165
330
1A
100
AcDbEntity
  8
SEIHIN
100
AcDbCircle
 10
118.1677589407396
 20
357.6710324764113
 30
0.0
 40
10.5
100
AcDbArc
 50
8.48484688275187
 51
81.5147241134972
  0
ARC
  5
1166
330
1A
100
AcDbEntity
  8
SEIHIN
100
AcDbCircle
 10
187.8087374559903
 20
368.5505551372307
 30
0.0
 40
0.5
100
AcDbArc
 50
278.4848468827548
 51
359.9999999999999
  0
ARC
  5
1167
330
1A
100
AcDbEntity
  8
SEIHIN
100
AcDbCircle
 10
178.5521717175025
 20
359.2940587072781
 30
0.0
 40
0.5
100
AcDbArc
 50
269.9999999999999
 51
351.5147241134955
  0
ARC
  5
1168
330
1A
100
AcDbEntity
  8
SEIHIN
100
AcDbCircle
 10
189.4317636868571
 20
357.6709510151167
 30
0.0
 40
10.5
100
AcDbArc
 50
98.48484688275185
 51
171.5147241134971
  0
LINE
  5
1169
330
1A
100
AcDbEntity
  8
SEIHIN
100
AcDbLine
 10
188.3087374559904
 20
375.1334733668857
 30
0.0
 11
188.3087374559904
 21
368.5505551372307
 31
0.0
  0
LINE
  5
116A
330
1A
100
AcDbEntity
  8
SEIHIN
100
AcDbLine
 10
171.9692473643432
 20
427.8119295303675
 30
0.0
 11
178.5522410260378
 21
427.8119295303675
 31
0.0
  0
LINE
  5
116B
330
1A
100
AcDbEntity
  8
SEIHIN
100
AcDbLine
 10
119.290866632901
 20
411.4726190228148
 30
0.0
 11
119.290866632901
 21
418.0554331004148
 31
0.0
  0
LINE
  5
116C
330
1A
100
AcDbEntity
  8
SEIHIN
100
AcDbLine
 10
135.6301017082334
 20
358.7940587072781
 30
0.0
 11
129.0473630628536
 21
358.7940587072781
 31
0.0
  0
LINE
  5
11D7
330
1A
100
AcDbEntity
  8
SEIHIN
100
AcDbLine
 10
424.726112457753
 20
171.4257615137136
 30
0.0
 11
424.726112457753
 21
169.4257615137136
 31
0.0
  0
LINE
  5
11D8
330
1A
100
AcDbEntity
  8
SEIHIN
100
AcDbLine
 10
368.226112457753
 20
171.4257615137136
 30
0.0
 11
368.226112457753
 21
169.4257615137136
 31
0.0
  0
LINE
  5
11D9
330
1A
100
AcDbEntity
  8
SEIHIN
100
AcDbLine
 10
424.726112457753
 20
187.4257615137137
 30
0.0
 11
424.726112457753
 21
171.4257615137136
 31
0.0
  0
LINE
  5
11DA
330
1A
100
AcDbEntity
  8
SEIHIN
100
AcDbLine
 10
424.726112457753
 20
171.4257615137136
 30
0.0
 11
368.226112457753
 21
171.4257615137136
 31
0.0
  0
LINE
  5
11DB
330
1A
100
AcDbEntity
  8
SEIHIN
100
AcDbLine
 10
368.226112457753
 20
171.4257615137136
 30
0.0
 11
368.226112457753
 21
187.4257615137137
 31
0.0
  0
VIEWPORT
  5
22
330
17
100
AcDbEntity
 67
     1
  8
0
100
AcDbViewport
 10
313.6808219178082
 20
148.5
 30
0.0
 40
627.3616438356165
 41
297.0
 68
     2
 69
     1
1001
ACAD
1000
MVIEW
1002
{
1070
    16
1010
0.0
1020
0.0
1030
0.0
1010
0.0
1020
0.0
1030
1.0
1040
0.0
1040
297.0
1040
313.6808219178082
1040
148.5
1040
50.0
1040
0.0
1040
0.0
1070
     0
1070
   100
1070
     1
1070
     0
1070
     0
1070
     0
1070
     0
1070
     0
1040
0.0
1040
0.0
1040
0.0
1040
1.0
1040
1.0
1040
10.0
1040
10.0
1070
     0
1002
{
1002
}
1002
}
  0
VIEWPORT
  5
64
330
17
100
AcDbEntity
 67
     1
  8
VIEWPORT
100
AcDbViewport
 10
210.0
 20
148.5
 30
0.0
 40
420.0
 41
297.0
 68
     1
 69
     2
1001
ACAD
1000
MVIEW
1002
{
1070
    16
1010
0.0
1020
0.0
1030
0.0
1010
0.0
1020
0.0
1030
1.0
1040
0.0
1040
605.8799999999998
1040
420.0
1040
297.0
1040
50.0
1040
0.0
1040
0.0
1070
     0
1070
   100
1070
     1
1070
     0
1070
     0
1070
     0
1070
     0
1070
     0
1040
0.0
1040
0.0
1040
0.0
1040
10.0
1040
10.0
1040
0.0
1040
0.0
1070
     0
1002
{
1002
}
1002
}
  0
ENDSEC
  0
SECTION
  2
OBJECTS
  0
DICTIONARY
  5
C
330
0
100
AcDbDictionary
  3
ACAD_GROUP
350
D
  3
ACAD_LAYOUT
350
14C
  3
ACAD_MLINESTYLE
350
E
  3
ACAD_PLOTSETTINGS
350
14D
1001
ACAD
1000
TREAT_AS_HARD
1070
     0
  0
DICTIONARY
  5
103A
330
1A
100
AcDbDictionary
  3
ACAD_LAYOUTSELFREF
350
1653
1001
ACAD
1000
TREAT_AS_HARD
1070
     1
  0
DICTIONARY
  5
1038
330
17
100
AcDbDictionary
  3
ACAD_LAYOUTSELFREF
350
1652
1001
ACAD
1000
TREAT_AS_HARD
1070
     1
  0
DICTIONARY
  5
D
102
{ACAD_REACTORS
330
C
102
}
330
C
100
AcDbDictionary
1001
ACAD
1000
TREAT_AS_HARD
1070
     0
  0
DICTIONARY
  5
14C
102
{ACAD_REACTORS
330
C
102
}
330
C
100
AcDbDictionary
1001
ACAD
1000
TREAT_AS_HARD
1070
     0
  0
DICTIONARY
  5
E
102
{ACAD_REACTORS
330
C
102
}
330
C
100
AcDbDictionary
  3
STANDARD
350
13
1001
ACAD
1000
TREAT_AS_HARD
1070
     0
  0
DICTIONARY
  5
14D
102
{ACAD_REACTORS
330
C
102
}
330
C
100
AcDbDictionary
1001
ACAD
1000
TREAT_AS_HARD
1070
     0
  0
XRECORD
  5
1653
102
{ACAD_REACTORS
330
103A
102
}
330
103A
100
AcDbXrecord
340
1A
  0
XRECORD
  5
1652
102
{ACAD_REACTORS
330
1038
102
}
330
1038
100
AcDbXrecord
340
17
  0
MLINESTYLE
  5
13
102
{ACAD_REACTORS
330
E
102
}
330
E
100
AcDbMlineStyle
  2
STANDARD
 70
     0
  3

 62
     0
 51
90.0
 52
90.0
 71
     2
 49
0.5
 62
   256
  6
BYLAYER
 49
-0.5
 62
   256
  6
BYLAYER
  0
ENDSEC
  0
EOF
