  0
SECTION
  2
HEADER
  9
$ACADVER
  1
AC1012
  9
$DWGCODEPAGE
  3
dos932
  9
$INSBASE
 10
0.0
 20
0.0
 30
0.0
  9
$EXTMIN
 10
4.985962897755712
 20
2.438141563486055
 30
-0.0000000000112498
  9
$EXTMAX
 10
403.0297861143829
 20
282.0086066310859
 30
0.0000000000002956
  9
$LIMMIN
 10
0.0
 20
0.0
  9
$LIMMAX
 10
420.0
 20
297.0
  9
$ORTHOMODE
 70
     0
  9
$REGENMODE
 70
     1
  9
$FILLMODE
 70
     1
  9
$QTEXTMODE
 70
     0
  9
$MIRRTEXT
 70
     1
  9
$DRAGMODE
 70
     2
  9
$LTSCALE
 40
1.0
  9
$OSMODE
 70
  2095
  9
$ATTMODE
 70
     1
  9
$TEXTSIZE
 40
2.5
  9
$TRACEWID
 40
1.0
  9
$TEXTSTYLE
  7
STANDARD
  9
$CLAYER
  8
ZUWAKU
  9
$CELTYPE
  6
BYLAYER
  9
$CECOLOR
 62
   256
  9
$CELTSCALE
 40
1.0
  9
$DELOBJ
 70
     1
  9
$DISPSILH
 70
     0
  9
$DIMSCALE
 40
1.0
  9
$DIMASZ
 40
3.0
  9
$DIMEXO
 40
3.0
  9
$DIMDLI
 40
7.0
  9
$DIMRND
 40
0.0
  9
$DIMDLE
 40
0.0
  9
$DIMEXE
 40
1.5
  9
$DIMTP
 40
0.0
  9
$DIMTM
 40
0.0
  9
$DIMTXT
 40
3.0
  9
$DIMCEN
 40
150.0
  9
$DIMTSZ
 40
0.0
  9
$DIMTOL
 70
     0
  9
$DIMLIM
 70
     0
  9
$DIMTIH
 70
     0
  9
$DIMTOH
 70
     0
  9
$DIMSE1
 70
     0
  9
$DIMSE2
 70
     0
  9
$DIMTAD
 70
     3
  9
$DIMZIN
 70
     0
  9
$DIMBLK
  1

  9
$DIMASO
 70
     1
  9
$DIMSHO
 70
     1
  9
$DIMPOST
  1

  9
$DIMAPOST
  1

  9
$DIMALT
 70
     0
  9
$DIMALTD
 70
     2
  9
$DIMALTF
 40
25.4
  9
$DIMLFAC
 40
1.0
  9
$DIMTOFL
 70
     1
  9
$DIMTVP
 40
0.0
  9
$DIMTIX
 70
     0
  9
$DIMSOXD
 70
     0
  9
$DIMSAH
 70
     1
  9
$DIMBLK1
  1
OPEN
  9
$DIMBLK2
  1
OPEN
  9
$DIMSTYLE
  2
STANDARD
  9
$DIMCLRD
 70
   256
  9
$DIMCLRE
 70
   256
  9
$DIMCLRT
 70
   256
  9
$DIMTFAC
 40
1.0
  9
$DIMGAP
 40
1.0
  9
$DIMJUST
 70
     0
  9
$DIMSD1
 70
     0
  9
$DIMSD2
 70
     0
  9
$DIMTOLJ
 70
     1
  9
$DIMTZIN
 70
     0
  9
$DIMALTZ
 70
     0
  9
$DIMALTTZ
 70
     0
  9
$DIMFIT
 70
     3
  9
$DIMUPT
 70
     0
  9
$DIMUNIT
 70
     2
  9
$DIMDEC
 70
     0
  9
$DIMTDEC
 70
     0
  9
$DIMALTU
 70
     2
  9
$DIMALTTD
 70
     2
  9
$DIMTXSTY
  7
STANDARD
  9
$DIMAUNIT
 70
     0
  9
$LUNITS
 70
     2
  9
$LUPREC
 70
     4
  9
$SKETCHINC
 40
1.0
  9
$FILLETRAD
 40
10.0
  9
$AUNITS
 70
     0
  9
$AUPREC
 70
     0
  9
$MENU
  1
.
  9
$ELEVATION
 40
0.0
  9
$PELEVATION
 40
0.0
  9
$THICKNESS
 40
0.0
  9
$LIMCHECK
 70
     0
  9
$BLIPMODE
 70
     0
  9
$CHAMFERA
 40
10.0
  9
$CHAMFERB
 40
10.0
  9
$CHAMFERC
 40
20.0
  9
$CHAMFERD
 40
0.0
  9
$SKPOLY
 70
     0
  9
$TDCREATE
 40
2451070.741299536
  9
$TDUPDATE
 40
2452978.442885011
  9
$TDINDWG
 40
0.0135082523
  9
$TDUSRTIMER
 40
0.0135082523
  9
$USRTIMER
 70
     1
  9
$ANGBASE
 50
0.0
  9
$ANGDIR
 70
     0
  9
$PDMODE
 70
     0
  9
$PDSIZE
 40
0.0
  9
$PLINEWID
 40
0.0
  9
$COORDS
 70
     1
  9
$SPLFRAME
 70
     0
  9
$SPLINETYPE
 70
     6
  9
$SPLINESEGS
 70
     8
  9
$ATTDIA
 70
     0
  9
$ATTREQ
 70
     1
  9
$HANDLING
 70
 10241
  9
$HANDSEED
  5
583
  9
$SURFTAB1
 70
     6
  9
$SURFTAB2
 70
     6
  9
$SURFTYPE
 70
     6
  9
$SURFU
 70
     6
  9
$SURFV
 70
     6
  9
$UCSNAME
  2

  9
$UCSORG
 10
0.0
 20
0.0
 30
0.0
  9
$UCSXDIR
 10
1.0
 20
0.0
 30
0.0
  9
$UCSYDIR
 10
0.0
 20
1.0
 30
0.0
  9
$PUCSNAME
  2

  9
$PUCSORG
 10
0.0
 20
0.0
 30
0.0
  9
$PUCSXDIR
 10
1.0
 20
0.0
 30
0.0
  9
$PUCSYDIR
 10
0.0
 20
1.0
 30
0.0
  9
$USERI1
 70
     0
  9
$USERI2
 70
     0
  9
$USERI3
 70
     0
  9
$USERI4
 70
     0
  9
$USERI5
 70
     0
  9
$USERR1
 40
0.0
  9
$USERR2
 40
0.0
  9
$USERR3
 40
0.0
  9
$USERR4
 40
0.0
  9
$USERR5
 40
0.0
  9
$WORLDVIEW
 70
     1
  9
$SHADEDGE
 70
     3
  9
$SHADEDIF
 70
    70
  9
$TILEMODE
 70
     1
  9
$MAXACTVP
 70
    16
  9
$PINSBASE
 10
0.0
 20
0.0
 30
0.0
  9
$PLIMCHECK
 70
     0
  9
$PEXTMIN
 10
0.0
 20
0.0
 30
0.0
  9
$PEXTMAX
 10
420.0
 20
297.0
 30
0.0
  9
$PLIMMIN
 10
0.0
 20
0.0
  9
$PLIMMAX
 10
420.0
 20
297.0
  9
$UNITMODE
 70
     0
  9
$VISRETAIN
 70
     0
  9
$PLINEGEN
 70
     0
  9
$PSLTSCALE
 70
     1
  9
$TREEDEPTH
 70
  3020
  9
$PICKSTYLE
 70
     1
  9
$CMLSTYLE
  2
STANDARD
  9
$CMLJUST
 70
     0
  9
$CMLSCALE
 40
1.0
  9
$SAVEIMAGES
 70
     1
  0
ENDSEC
  0
SECTION
  2
CLASSES
  0
CLASS
  1
ACDBDICTIONARYWDFLT
  2
AcDbDictionaryWithDefault
  3
AutoCAD 2000
 90
    32768
280
     0
281
     0
  0
CLASS
  1
ACDBPLACEHOLDER
  2
AcDbPlaceHolder
  3
AutoCAD 2000
 90
    32768
280
     0
281
     0
  0
CLASS
  1
LAYOUT
  2
AcDbLayout
  3
AutoCAD 2000
 90
    32768
280
     0
281
     0
  0
CLASS
  1
LONG_TRANSACTION
  2
AcDbLongTransaction
  3
AutoCAD 2000
 90
    32768
280
     0
281
     0
  0
CLASS
  1
LWPOLYLINE
  2
AcDbPolyline
  3
AutoCAD 2000
 90
    32768
280
     0
281
     1
  0
CLASS
  1
HATCH
  2
AcDbHatch
  3
AutoCAD 2000
 90
    32768
280
     0
281
     1
  0
CLASS
  1
XRECORD
  2
AcDbXrecord
  3
AutoCAD 2000
 90
    32768
280
     0
281
     0
  0
CLASS
  1
LONG_TRANSACTION
  2
AcDbLongTransaction
  3
AutoCAD 2000
 90
    32768
280
     0
281
     0
  0
CLASS
  1
LWPOLYLINE
  2
AcDbPolyline
  3
AutoCAD 2000
 90
    32768
280
     0
281
     1
  0
CLASS
  1
HATCH
  2
AcDbHatch
  3
AutoCAD 2000
 90
    32768
280
     0
281
     1
  0
CLASS
  1
XRECORD
  2
AcDbXrecord
  3
AutoCAD 2000
 90
    32768
280
     0
281
     0
  0
CLASS
  1
LONG_TRANSACTION
  2
AcDbLongTransaction
  3
AutoCAD 2000
 90
    32768
280
     0
281
     0
  0
CLASS
  1
LWPOLYLINE
  2
AcDbPolyline
  3
AutoCAD 2000
 90
    32768
280
     0
281
     1
  0
CLASS
  1
HATCH
  2
AcDbHatch
  3
AutoCAD 2000
 90
    32768
280
     0
281
     1
  0
CLASS
  1
XRECORD
  2
AcDbXrecord
  3
AutoCAD 2000
 90
    32768
280
     0
281
     0
  0
CLASS
  1
LONG_TRANSACTION
  2
AcDbLongTransaction
  3
AutoCAD 2000
 90
    32768
280
     0
281
     0
  0
CLASS
  1
LWPOLYLINE
  2
AcDbPolyline
  3
AutoCAD 2000
 90
    32768
280
     0
281
     1
  0
CLASS
  1
HATCH
  2
AcDbHatch
  3
AutoCAD 2000
 90
    32768
280
     0
281
     1
  0
CLASS
  1
XRECORD
  2
AcDbXrecord
  3
AutoCAD 2000
 90
    32768
280
     0
281
     0
  0
ENDSEC
  0
SECTION
  2
TABLES
  0
TABLE
  2
VPORT
  5
8
330
0
100
AcDbSymbolTable
 70
     4
  0
VPORT
  5
571
330
8
100
AcDbSymbolTableRecord
100
AcDbViewportTableRecord
  2
*ACTIVE
 70
     0
 10
0.0
 20
0.0
 11
1.0
 21
1.0
 12
210.0
 22
148.4999999999999
 13
0.0
 23
0.0
 14
5.0
 24
5.0
 15
0.0
 25
0.0
 16
0.0
 26
0.0
 36
1.0
 17
0.0
 27
0.0
 37
0.0
 40
300.3433395872419
 41
1.781954887218045
 42
50.0
 43
0.0
 44
0.0
 50
0.0
 51
0.0
 71
     0
 72
   100
 73
     1
 74
     0
 75
     0
 76
     0
 77
     0
 78
     0
  0
ENDTAB
  0
TABLE
  2
LTYPE
  5
5
330
0
100
AcDbSymbolTable
 70
     2
  0
LTYPE
  5
14
330
5
100
AcDbSymbolTableRecord
100
AcDbLinetypeTableRecord
  2
BYBLOCK
 70
     0
  3

 72
    65
 73
     0
 40
0.0
  0
LTYPE
  5
15
330
5
100
AcDbSymbolTableRecord
100
AcDbLinetypeTableRecord
  2
BYLAYER
 70
     0
  3

 72
    65
 73
     0
 40
0.0
  0
LTYPE
  5
16
330
5
100
AcDbSymbolTableRecord
100
AcDbLinetypeTableRecord
  2
CONTINUOUS
 70
     0
  3
Solid line
 72
    65
 73
     0
 40
0.0
  0
LTYPE
  5
120
330
5
100
AcDbSymbolTableRecord
100
AcDbLinetypeTableRecord
  2
CENTER
 70
     0
  3
____ _ ____ _ ____ _ ____ _ ____ _ ____ _ ____ 
 72
    65
 73
     4
 40
2.0
 49
1.25
 74
     0
 49
-0.25
 74
     0
 49
0.25
 74
     0
 49
-0.25
 74
     0
  0
ENDTAB
  0
TABLE
  2
LAYER
  5
2
330
0
100
AcDbSymbolTable
 70
     7
  0
LAYER
  5
F
330
2
100
AcDbSymbolTableRecord
100
AcDbLayerTableRecord
  2
0
 70
     0
 62
     7
  6
CONTINUOUS
  0
LAYER
  5
62
330
2
100
AcDbSymbolTableRecord
100
AcDbLayerTableRecord
  2
VIEWPORT
 70
     0
 62
     7
  6
CONTINUOUS
  0
LAYER
  5
6B
330
2
100
AcDbSymbolTableRecord
100
AcDbLayerTableRecord
  2
ZUWAKU
 70
     0
 62
     7
  6
CONTINUOUS
  0
LAYER
  5
134
330
2
100
AcDbSymbolTableRecord
100
AcDbLayerTableRecord
  2
SUNPOU
 70
     0
 62
     4
  6
CONTINUOUS
  0
LAYER
  5
135
330
2
100
AcDbSymbolTableRecord
100
AcDbLayerTableRecord
  2
CENTER_L
 70
     0
 62
     1
  6
CENTER
  0
LAYER
  5
136
330
2
100
AcDbSymbolTableRecord
100
AcDbLayerTableRecord
  2
SEIHIN
 70
     0
 62
     3
  6
CONTINUOUS
  0
LAYER
  5
306
330
2
100
AcDbSymbolTableRecord
100
AcDbLayerTableRecord
  2
DEFPOINTS
 70
     0
 62
     7
  6
CONTINUOUS
  0
ENDTAB
  0
TABLE
  2
STYLE
  5
3
330
0
100
AcDbSymbolTable
 70
     1
  0
STYLE
  5
10
330
3
100
AcDbSymbolTableRecord
100
AcDbTextStyleTableRecord
  2
STANDARD
 70
     0
 40
0.0
 41
1.0
 50
0.0
 71
     0
 42
2.5
  3
TXT
  4
bigfont.shx
  0
ENDTAB
  0
TABLE
  2
VIEW
  5
6
330
0
100
AcDbSymbolTable
 70
     0
  0
ENDTAB
  0
TABLE
  2
UCS
  5
7
330
0
100
AcDbSymbolTable
 70
     0
  0
ENDTAB
  0
TABLE
  2
APPID
  5
9
330
0
100
AcDbSymbolTable
 70
     1
  0
APPID
  5
11
330
9
100
AcDbSymbolTableRecord
100
AcDbRegAppTableRecord
  2
ACAD
 70
     0
  0
ENDTAB
  0
TABLE
  2
DIMSTYLE
  5
A
330
0
100
AcDbSymbolTable
 70
     1
  0
DIMSTYLE
105
1D
102
{ACAD_REACTORS
330
30B
330
319
330
326
330
333
330
340
330
351
330
3C0
102
}
330
A
100
AcDbSymbolTableRecord
100
AcDbDimStyleTableRecord
  2
STANDARD
 70
     0
  3

  4

  5

  6

  7

 40
1.0
 41
0.18
 42
0.0625
 43
0.38
 44
0.18
 45
0.0
 46
0.0
 47
0.0
 48
0.0
140
0.18
141
0.09
142
0.0
143
25.4
144
1.0
145
0.0
146
1.0
147
0.09
 71
     0
 72
     0
 73
     1
 74
     1
 75
     0
 76
     0
 77
     0
 78
     0
170
     0
171
     2
172
     0
173
     0
174
     0
175
     0
176
     0
177
     0
178
     0
270
     2
271
     4
272
     4
273
     2
274
     2
340
10
275
     0
280
     0
281
     0
282
     0
283
     1
284
     0
285
     0
286
     0
287
     3
288
     0
  0
ENDTAB
  0
TABLE
  2
BLOCK_RECORD
  5
1
330
0
100
AcDbSymbolTable
 70
     8
  0
BLOCK_RECORD
  5
1A
102
{ACAD_XDICTIONARY
360
474
102
}
330
1
100
AcDbSymbolTableRecord
100
AcDbBlockTableRecord
  2
*MODEL_SPACE
  0
BLOCK_RECORD
  5
17
102
{ACAD_XDICTIONARY
360
472
102
}
330
1
100
AcDbSymbolTableRecord
100
AcDbBlockTableRecord
  2
*PAPER_SPACE
  0
BLOCK_RECORD
  5
B2
330
1
100
AcDbSymbolTableRecord
100
AcDbBlockTableRecord
  2
_OPEN
  0
BLOCK_RECORD
  5
2FE
330
1
100
AcDbSymbolTableRecord
100
AcDbBlockTableRecord
  2
*D1
  0
BLOCK_RECORD
  5
30D
330
1
100
AcDbSymbolTableRecord
100
AcDbBlockTableRecord
  2
*D2
  0
BLOCK_RECORD
  5
31A
330
1
100
AcDbSymbolTableRecord
100
AcDbBlockTableRecord
  2
*D3
  0
BLOCK_RECORD
  5
327
330
1
100
AcDbSymbolTableRecord
100
AcDbBlockTableRecord
  2
*D4
  0
BLOCK_RECORD
  5
334
330
1
100
AcDbSymbolTableRecord
100
AcDbBlockTableRecord
  2
*D5
  0
BLOCK_RECORD
  5
341
330
1
100
AcDbSymbolTableRecord
100
AcDbBlockTableRecord
  2
*D6
  0
BLOCK_RECORD
  5
3C1
330
1
100
AcDbSymbolTableRecord
100
AcDbBlockTableRecord
  2
*D7
  0
ENDTAB
  0
ENDSEC
  0
SECTION
  2
BLOCKS
  0
BLOCK
  5
1B
330
1A
100
AcDbEntity
  8
0
100
AcDbBlockBegin
  2
*MODEL_SPACE
 70
     0
 10
0.0
 20
0.0
 30
0.0
  3
*MODEL_SPACE
  1

  0
ENDBLK
  5
1C
330
1A
100
AcDbEntity
  8
0
100
AcDbBlockEnd
  0
BLOCK
  5
18
330
17
100
AcDbEntity
 67
     1
  8
0
100
AcDbBlockBegin
  2
*PAPER_SPACE
 70
     0
 10
0.0
 20
0.0
 30
0.0
  3
*PAPER_SPACE
  1

  0
ENDBLK
  5
19
330
17
100
AcDbEntity
 67
     1
  8
0
100
AcDbBlockEnd
  0
BLOCK
  5
B3
330
B2
100
AcDbEntity
  8
0
100
AcDbBlockBegin
  2
_OPEN
 70
     0
 10
0.0
 20
0.0
 30
0.0
  3
_OPEN
  1

  0
LINE
  5
B4
330
B2
100
AcDbEntity
  8
0
  6
BYBLOCK
 62
     0
100
AcDbLine
 10
-1.0
 20
0.1666666666666666
 30
0.0
 11
0.0
 21
0.0
 31
0.0
  0
LINE
  5
B5
330
B2
100
AcDbEntity
  8
0
  6
BYBLOCK
 62
     0
100
AcDbLine
 10
0.0
 20
0.0
 30
0.0
 11
-1.0
 21
-0.1666666666666666
 31
0.0
  0
LINE
  5
B6
330
B2
100
AcDbEntity
  8
0
  6
BYBLOCK
 62
     0
100
AcDbLine
 10
0.0
 20
0.0
 30
0.0
 11
-1.0
 21
0.0
 31
0.0
  0
ENDBLK
  5
B7
330
B2
100
AcDbEntity
  8
0
100
AcDbBlockEnd
  0
BLOCK
  5
2FF
330
2FE
100
AcDbEntity
  8
0
100
AcDbBlockBegin
  2
*D1
 70
     1
 10
0.0
 20
0.0
 30
0.0
  3
*D1
  1

  0
LINE
  5
409
330
2FE
100
AcDbEntity
  8
SUNPOU
 62
     4
100
AcDbLine
 10
175.8742706321615
 20
148.2157811952989
 30
0.0
 11
175.8742706321615
 21
167.3991105837354
 31
0.0
  0
LINE
  5
40A
330
2FE
100
AcDbEntity
  8
SUNPOU
 62
     4
100
AcDbLine
 10
239.7742706316182
 20
148.2153078672248
 30
0.0
 11
239.7742706316182
 21
167.3991105837354
 31
0.0
  0
LINE
  5
40B
330
2FE
100
AcDbEntity
  8
SUNPOU
 62
     4
100
AcDbLine
 10
178.8742706321615
 20
165.8991105837354
 30
0.0
 11
236.7742706316182
 21
165.8991105837354
 31
0.0
  0
INSERT
  5
40C
330
2FE
100
AcDbEntity
  8
SUNPOU
 62
     4
100
AcDbBlockReference
  2
_OPEN
 10
175.8742706321615
 20
165.8991105837354
 30
0.0
 41
3.0
 42
3.0
 43
3.0
 50
180.0
  0
INSERT
  5
40D
330
2FE
100
AcDbEntity
  8
SUNPOU
 62
     4
100
AcDbBlockReference
  2
_OPEN
 10
239.7742706316182
 20
165.8991105837354
 30
0.0
 41
3.0
 42
3.0
 43
3.0
  0
MTEXT
  5
40E
330
2FE
100
AcDbEntity
  8
SUNPOU
 62
     4
100
AcDbMText
 10
207.8242706318898
 20
168.3991105837354
 30
0.0
 40
3.0
 41
0.0
 71
     5
 72
     1
  1
\A1;64
1001
ACAD
1000
MTEXTBEGIN
1070
    73
1070
     1
1070
    44
1040
1.0
1070
    74
1070
     0
1000
MTEXTEND
1000
MTEXTBEGIN
1070
    73
1070
     1
1070
    44
1040
1.0
1070
    74
1070
     0
1000
MTEXTEND
1000
MTEXTBEGIN
1070
    73
1070
     1
1070
    44
1040
1.0
1070
    74
1070
     0
1000
MTEXTEND
1000
MTEXTBEGIN
1070
    73
1070
     1
1070
    44
1040
1.0
1070
    74
1070
     0
1000
MTEXTEND
  0
POINT
  5
40F
330
2FE
100
AcDbEntity
  8
DEFPOINTS
 62
     0
100
AcDbPoint
 10
175.8742706321615
 20
145.2157811952989
 30
0.0
  0
POINT
  5
410
330
2FE
100
AcDbEntity
  8
DEFPOINTS
 62
     0
100
AcDbPoint
 10
239.7742706316182
 20
145.2153078672248
 30
0.0
  0
POINT
  5
411
330
2FE
100
AcDbEntity
  8
DEFPOINTS
 62
     0
100
AcDbPoint
 10
239.7742706316182
 20
165.8991105837354
 30
0.0
  0
ENDBLK
  5
30A
330
2FE
100
AcDbEntity
  8
0
100
AcDbBlockEnd
  0
BLOCK
  5
368
330
30D
100
AcDbEntity
  8
0
100
AcDbBlockBegin
  2
*D2
 70
     1
 10
0.0
 20
0.0
 30
0.0
  3
*D2
  1

  0
LINE
  5
43C
330
30D
100
AcDbEntity
  8
SUNPOU
 62
     4
100
AcDbLine
 10
172.8741706321615
 20
145.2154811952989
 30
0.0
 11
151.847879270723
 21
145.2154811952989
 31
0.0
  0
LINE
  5
43D
330
30D
100
AcDbEntity
  8
SUNPOU
 62
     4
100
AcDbLine
 10
172.8741315085308
 20
120.2154811953295
 30
0.0
 11
151.847879270723
 21
120.2154811953295
 31
0.0
  0
LINE
  5
43E
330
30D
100
AcDbEntity
  8
SUNPOU
 62
     4
100
AcDbLine
 10
153.347879270723
 20
142.2154811952989
 30
0.0
 11
153.347879270723
 21
123.2154811953295
 31
0.0
  0
INSERT
  5
43F
330
30D
100
AcDbEntity
  8
SUNPOU
 62
     4
100
AcDbBlockReference
  2
_OPEN
 10
153.347879270723
 20
145.2154811952989
 30
0.0
 41
3.0
 42
3.0
 43
3.0
 50
90.0
  0
INSERT
  5
440
330
30D
100
AcDbEntity
  8
SUNPOU
 62
     4
100
AcDbBlockReference
  2
_OPEN
 10
153.347879270723
 20
120.2154811953295
 30
0.0
 41
3.0
 42
3.0
 43
3.0
 50
270.0
  0
MTEXT
  5
441
330
30D
100
AcDbEntity
  8
SUNPOU
 62
     4
100
AcDbMText
 10
150.847879270723
 20
132.7154811953143
 30
0.0
 40
3.0
 41
0.0
 71
     5
 72
     1
  1
\A1;※ 25
 11
0.0000000000000001
 21
1.0
 31
0.0
1001
ACAD
1000
MTEXTBEGIN
1070
    73
1070
     1
1070
    44
1040
1.0
1070
    74
1070
     0
1000
MTEXTEND
1000
MTEXTBEGIN
1070
    73
1070
     1
1070
    44
1040
1.0
1070
    74
1070
     0
1000
MTEXTEND
1000
MTEXTBEGIN
1070
    73
1070
     1
1070
    44
1040
1.0
1070
    74
1070
     0
1000
MTEXTEND
1000
MTEXTBEGIN
1070
    73
1070
     1
1070
    44
1040
1.0
1070
    74
1070
     0
1000
MTEXTEND
  0
POINT
  5
442
330
30D
100
AcDbEntity
  8
DEFPOINTS
 62
     0
100
AcDbPoint
 10
175.8741706321615
 20
145.2154811952989
 30
0.0
  0
POINT
  5
443
330
30D
100
AcDbEntity
  8
DEFPOINTS
 62
     0
100
AcDbPoint
 10
175.8741315085308
 20
120.2154811953295
 30
0.0
  0
POINT
  5
444
330
30D
100
AcDbEntity
  8
DEFPOINTS
 62
     0
100
AcDbPoint
 10
153.347879270723
 20
120.2154811953295
 30
0.0
  0
ENDBLK
  5
372
330
30D
100
AcDbEntity
  8
0
100
AcDbBlockEnd
  0
BLOCK
  5
31B
330
31A
100
AcDbEntity
  8
0
100
AcDbBlockBegin
  2
*D3
 70
     1
 10
0.0
 20
0.0
 30
0.0
  3
*D3
  1

  0
LINE
  5
433
330
31A
100
AcDbEntity
  8
SUNPOU
 62
     4
100
AcDbLine
 10
204.8237438714498
 20
145.2154311959668
 30
0.0
 11
142.5176579056433
 21
145.2154311959668
 31
0.0
  0
LINE
  5
434
330
31A
100
AcDbEntity
  8
SUNPOU
 62
     4
100
AcDbLine
 10
204.8236335050716
 20
114.2924275237539
 30
0.0
 11
142.5176579056433
 21
114.2924275237539
 31
0.0
  0
LINE
  5
435
330
31A
100
AcDbEntity
  8
SUNPOU
 62
     4
100
AcDbLine
 10
144.0176579056433
 20
142.2154311959668
 30
0.0
 11
144.0176579056433
 21
117.2924275237539
 31
0.0
  0
INSERT
  5
436
330
31A
100
AcDbEntity
  8
SUNPOU
 62
     4
100
AcDbBlockReference
  2
_OPEN
 10
144.0176579056433
 20
145.2154311959668
 30
0.0
 41
3.0
 42
3.0
 43
3.0
 50
90.0
  0
INSERT
  5
437
330
31A
100
AcDbEntity
  8
SUNPOU
 62
     4
100
AcDbBlockReference
  2
_OPEN
 10
144.0176579056433
 20
114.2924275237539
 30
0.0
 41
3.0
 42
3.0
 43
3.0
 50
270.0
  0
MTEXT
  5
438
330
31A
100
AcDbEntity
  8
SUNPOU
 62
     4
100
AcDbMText
 10
141.5176579056432
 20
129.7539293598604
 30
0.0
 40
3.0
 41
0.0
 71
     5
 72
     1
  1
\A1;31
 11
0.0000000000000001
 21
1.0
 31
0.0
1001
ACAD
1000
MTEXTBEGIN
1070
    73
1070
     1
1070
    44
1040
1.0
1070
    74
1070
     0
1000
MTEXTEND
1000
MTEXTBEGIN
1070
    73
1070
     1
1070
    44
1040
1.0
1070
    74
1070
     0
1000
MTEXTEND
1000
MTEXTBEGIN
1070
    73
1070
     1
1070
    44
1040
1.0
1070
    74
1070
     0
1000
MTEXTEND
1000
MTEXTBEGIN
1070
    73
1070
     1
1070
    44
1040
1.0
1070
    74
1070
     0
1000
MTEXTEND
  0
POINT
  5
439
330
31A
100
AcDbEntity
  8
DEFPOINTS
 62
     0
100
AcDbPoint
 10
207.8237438714499
 20
145.2154311959668
 30
0.0
  0
POINT
  5
43A
330
31A
100
AcDbEntity
  8
DEFPOINTS
 62
     0
100
AcDbPoint
 10
207.8236335050716
 20
114.2924275237539
 30
0.0
  0
POINT
  5
43B
330
31A
100
AcDbEntity
  8
DEFPOINTS
 62
     0
100
AcDbPoint
 10
144.0176579056433
 20
114.2924275237539
 30
0.0
  0
ENDBLK
  5
325
330
31A
100
AcDbEntity
  8
0
100
AcDbBlockEnd
  0
BLOCK
  5
389
330
327
100
AcDbEntity
  8
0
100
AcDbBlockBegin
  2
*D4
 70
     1
 10
0.0
 20
0.0
 30
0.0
  3
*D4
  1

  0
LINE
  5
412
330
327
100
AcDbEntity
  8
SUNPOU
 62
     4
100
AcDbLine
 10
204.8459937452858
 20
113.9268301209422
 30
0.0
 11
143.4919340015285
 21
106.3937211138652
 31
0.0
  0
LINE
  5
413
330
327
100
AcDbEntity
  8
SUNPOU
 62
     4
100
AcDbLine
 10
207.892654003297
 20
89.11304137670056
 30
0.0
 11
146.5385942595397
 21
81.5799323696236
 31
0.0
  0
LINE
  5
414
330
327
100
AcDbEntity
  8
SUNPOU
 62
     4
100
AcDbLine
 10
145.3463512842331
 20
103.5988800554852
 30
0.0
 11
147.6618167366209
 21
84.74037083081528
 31
0.0
  0
INSERT
  5
415
330
327
100
AcDbEntity
  8
SUNPOU
 62
     4
100
AcDbBlockReference
  2
_OPEN
 10
144.9807538814214
 20
106.576519815271
 30
0.0
 41
3.0
 42
3.0
 43
3.0
 50
96.99979550732702
  0
INSERT
  5
416
330
327
100
AcDbEntity
  8
SUNPOU
 62
     4
100
AcDbBlockReference
  2
_OPEN
 10
148.0274141394327
 20
81.76273107102947
 30
0.0
 41
3.0
 42
3.0
 43
3.0
 50
276.999795507327
  0
MTEXT
  5
417
330
327
100
AcDbEntity
  8
SUNPOU
 62
     4
100
AcDbMText
 10
148.9854504769152
 20
94.47428994549335
 30
0.0
 40
3.0
 41
0.0
 71
     5
 72
     1
  1
\A1;※ 25
 11
0.1218658009372415
 21
-0.9925465865952716
 31
0.0
1001
ACAD
1000
MTEXTBEGIN
1070
    73
1070
     1
1070
    44
1040
1.0
1070
    74
1070
     0
1000
MTEXTEND
1000
MTEXTBEGIN
1070
    73
1070
     1
1070
    44
1040
1.0
1070
    74
1070
     0
1000
MTEXTEND
1000
MTEXTBEGIN
1070
    73
1070
     1
1070
    44
1040
1.0
1070
    74
1070
     0
1000
MTEXTEND
1000
MTEXTBEGIN
1070
    73
1070
     1
1070
    44
1040
1.0
1070
    74
1070
     0
1000
MTEXTEND
  0
POINT
  5
418
330
327
100
AcDbEntity
  8
DEFPOINTS
 62
     0
100
AcDbPoint
 10
207.8236335050716
 20
114.2924275237539
 30
0.0
  0
POINT
  5
419
330
327
100
AcDbEntity
  8
DEFPOINTS
 62
     0
100
AcDbPoint
 10
210.8702937630828
 20
89.47863877951229
 30
0.0
  0
POINT
  5
41A
330
327
100
AcDbEntity
  8
DEFPOINTS
 62
     0
100
AcDbPoint
 10
148.0274141394327
 20
81.76273107102947
 30
0.0
  0
ENDBLK
  5
393
330
327
100
AcDbEntity
  8
0
100
AcDbBlockEnd
  0
BLOCK
  5
3AA
330
334
100
AcDbEntity
  8
0
100
AcDbBlockBegin
  2
*D5
 70
     1
 10
0.0
 20
0.0
 30
0.0
  3
*D5
  1

  0
LINE
  5
445
330
334
100
AcDbEntity
  8
SUNPOU
 62
     4
100
AcDbLine
 10
234.0851513754856
 20
249.9017765040478
 30
0.0
 11
266.1939999947589
 21
249.9017765040478
 31
0.0
  0
LINE
  5
446
330
334
100
AcDbEntity
  8
SUNPOU
 62
     4
100
AcDbLine
 10
234.0846513754855
 20
185.9016765040477
 30
0.0
 11
266.1939999947589
 21
185.9016765040477
 31
0.0
  0
LINE
  5
447
330
334
100
AcDbEntity
  8
SUNPOU
 62
     4
100
AcDbLine
 10
264.693999994759
 20
246.9017765040478
 30
0.0
 11
264.693999994759
 21
188.9016765040477
 31
0.0
  0
INSERT
  5
448
330
334
100
AcDbEntity
  8
SUNPOU
 62
     4
100
AcDbBlockReference
  2
_OPEN
 10
264.693999994759
 20
249.9017765040478
 30
0.0
 41
3.0
 42
3.0
 43
3.0
 50
90.0
  0
INSERT
  5
449
330
334
100
AcDbEntity
  8
SUNPOU
 62
     4
100
AcDbBlockReference
  2
_OPEN
 10
264.693999994759
 20
185.9016765040477
 30
0.0
 41
3.0
 42
3.0
 43
3.0
 50
270.0
  0
MTEXT
  5
44A
330
334
100
AcDbEntity
  8
SUNPOU
 62
     4
100
AcDbMText
 10
262.1939999947589
 20
217.9017265040478
 30
0.0
 40
3.0
 41
0.0
 71
     5
 72
     1
  1
\A1;64
 11
0.0000000000000001
 21
1.0
 31
0.0
1001
ACAD
1000
MTEXTBEGIN
1070
    73
1070
     1
1070
    44
1040
1.0
1070
    74
1070
     0
1000
MTEXTEND
1000
MTEXTBEGIN
1070
    73
1070
     1
1070
    44
1040
1.0
1070
    74
1070
     0
1000
MTEXTEND
1000
MTEXTBEGIN
1070
    73
1070
     1
1070
    44
1040
1.0
1070
    74
1070
     0
1000
MTEXTEND
1000
MTEXTBEGIN
1070
    73
1070
     1
1070
    44
1040
1.0
1070
    74
1070
     0
1000
MTEXTEND
  0
POINT
  5
44B
330
334
100
AcDbEntity
  8
DEFPOINTS
 62
     0
100
AcDbPoint
 10
231.0851513754856
 20
249.9017765040478
 30
0.0
  0
POINT
  5
44C
330
334
100
AcDbEntity
  8
DEFPOINTS
 62
     0
100
AcDbPoint
 10
231.0846513754856
 20
185.9016765040477
 30
0.0
  0
POINT
  5
44D
330
334
100
AcDbEntity
  8
DEFPOINTS
 62
     0
100
AcDbPoint
 10
264.693999994759
 20
185.9016765040477
 30
0.0
  0
ENDBLK
  5
3B4
330
334
100
AcDbEntity
  8
0
100
AcDbBlockEnd
  0
BLOCK
  5
342
330
341
100
AcDbEntity
  8
0
100
AcDbBlockBegin
  2
*D6
 70
     1
 10
0.0
 20
0.0
 30
0.0
  3
*D6
  1

  0
LINE
  5
574
330
341
100
AcDbEntity
  8
SUNPOU
 62
     4
100
AcDbLine
 10
207.8235940990445
 20
103.251449842959
 30
0.0
 11
207.8234762559173
 21
70.23357328651063
 31
0.0
  0
LINE
  5
575
330
341
100
AcDbEntity
  8
SUNPOU
 62
     4
100
AcDbLine
 10
212.0889517724558
 20
79.5531729135551
 30
0.0
 11
213.1929010651046
 21
70.56196214100096
 31
0.0
  0
ARC
  5
576
330
341
100
AcDbEntity
  8
SUNPOU
 62
     4
100
AcDbCircle
 10
207.8236335050715
 20
114.2924275237544
 30
0.0
 40
42.55885423752444
100
AcDbArc
 50
261.9154609947192
 51
269.9997955073271
  0
LINE
  5
577
330
341
100
AcDbEntity
  8
SUNPOU
 62
     4
100
AcDbLine
 10
201.8384084652152
 20
72.15653836459314
 30
0.0
 11
193.3238783336854
 21
73.3659913976915
 31
0.0
  0
ARC
  5
578
330
341
100
AcDbEntity
  8
SUNPOU
 62
     4
100
AcDbCircle
 10
207.8236335050715
 20
114.2924275237544
 30
0.0
 40
42.55885423752444
100
AcDbArc
 50
261.9204922061023
 51
265.9601438567147
  0
ARC
  5
579
330
341
100
AcDbEntity
  8
SUNPOU
 62
     4
100
AcDbCircle
 10
207.8236335050715
 20
114.2924275237544
 30
0.0
 40
42.55885423752444
100
AcDbArc
 50
281.0394471579394
 51
285.0790988085518
  0
ARC
  5
57A
330
341
100
AcDbEntity
  8
SUNPOU
 62
     4
100
AcDbCircle
 10
207.8236335050715
 20
114.2924275237544
 30
0.0
 40
42.55885423752444
100
AcDbArc
 50
269.9997955073271
 51
276.999795507327
  0
INSERT
  5
57B
330
341
100
AcDbEntity
  8
SUNPOU
 62
     4
100
AcDbBlockReference
  2
_OPEN
 10
207.823481609523
 20
71.73357328650109
 30
0.0
 41
3.0
 42
3.0
 43
3.0
 50
357.9799696820209
  0
INSERT
  5
57C
330
341
100
AcDbEntity
  8
SUNPOU
 62
     4
100
AcDbBlockReference
  2
_OPEN
 10
213.0101023636988
 20
72.05078202089388
 30
0.0
 41
3.0
 42
3.0
 43
3.0
 50
189.0196213326332
  0
MTEXT
  5
57D
330
341
100
AcDbEntity
  8
SUNPOU
 62
     4
100
AcDbMText
 10
197.9327285834905
 20
75.23641898914518
 30
0.0
 40
3.0
 41
0.0
 71
     5
 72
     1
  1
\A1;7°
 11
0.9900616432011416
 21
-0.140634073616088
 31
0.0
  0
POINT
  5
57E
330
341
100
AcDbEntity
  8
DEFPOINTS
 62
     0
100
AcDbPoint
 10
211.2860140891992
 20
71.87464829497461
 30
0.0
  0
POINT
  5
57F
330
341
100
AcDbEntity
  8
DEFPOINTS
 62
     0
100
AcDbPoint
 10
207.8236048062558
 20
106.2514498429399
 30
0.0
  0
POINT
  5
580
330
341
100
AcDbEntity
  8
DEFPOINTS
 62
     0
100
AcDbPoint
 10
211.7233543696441
 20
82.53081267334092
 30
0.0
  0
POINT
  5
581
330
341
100
AcDbEntity
  8
DEFPOINTS
 62
     0
100
AcDbPoint
 10
206.8437133196745
 20
122.2734724737855
 30
0.0
  0
POINT
  5
582
330
341
100
AcDbEntity
  8
DEFPOINTS
 62
     0
100
AcDbPoint
 10
207.8237706321615
 20
152.7133811952988
 30
0.0
  0
ENDBLK
  5
350
330
341
100
AcDbEntity
  8
0
100
AcDbBlockEnd
  0
BLOCK
  5
3CB
330
3C1
100
AcDbEntity
  8
0
100
AcDbBlockBegin
  2
*D7
 70
     1
 10
0.0
 20
0.0
 30
0.0
  3
*D7
  1

  0
LINE
  5
48D
330
3C1
100
AcDbEntity
  8
ZUWAKU
 62
     4
100
AcDbLine
 10
181.260159707573
 20
86.85064041307896
 30
0.0
 11
185.7430316052444
 21
50.33865720093101
 31
0.0
  0
LINE
  5
48E
330
3C1
100
AcDbEntity
  8
ZUWAKU
 62
     4
100
AcDbLine
 10
240.7137597075732
 20
94.15024041307898
 30
0.0
 11
245.1966316052446
 21
57.63825720093104
 31
0.0
  0
LINE
  5
48F
330
3C1
100
AcDbEntity
  8
ZUWAKU
 62
     4
100
AcDbLine
 10
188.5378778497585
 20
52.19306666745264
 30
0.0
 11
242.0361962853188
 21
58.7614885166294
 31
0.0
  0
INSERT
  5
490
330
3C1
100
AcDbEntity
  8
ZUWAKU
 62
     4
100
AcDbBlockReference
  2
_OPEN
 10
185.5602370675385
 20
51.82747759204101
 30
0.0
 41
3.0
 42
3.0
 43
3.0
 50
186.9996352714233
  0
INSERT
  5
491
330
3C1
100
AcDbEntity
  8
ZUWAKU
 62
     4
100
AcDbBlockReference
  2
_OPEN
 10
245.0138370675387
 20
59.12707759204103
 30
0.0
 41
3.0
 42
3.0
 43
3.0
 50
6.999635271423375
  0
MTEXT
  5
492
330
3C1
100
AcDbEntity
  8
ZUWAKU
 62
     4
100
AcDbMText
 10
214.9823795046956
 20
57.95864491055768
 30
0.0
 40
3.0
 41
0.0
 71
     5
 72
     1
  1
\A1;60
 11
0.9925469274066628
 21
0.121863025137211
 31
0.0
1001
ACAD
1000
MTEXTBEGIN
1070
    73
1070
     1
1070
    44
1040
1.0
1070
    74
1070
     0
1000
MTEXTEND
1000
MTEXTBEGIN
1070
    73
1070
     1
1070
    44
1040
1.0
1070
    74
1070
     0
1000
MTEXTEND
1000
MTEXTBEGIN
1070
    73
1070
     1
1070
    44
1040
1.0
1070
    74
1070
     0
1000
MTEXTEND
  0
POINT
  5
493
330
3C1
100
AcDbEntity
  8
DEFPOINTS
 62
     0
100
AcDbPoint
 10
180.8945706321613
 20
89.82828119529896
 30
0.0
  0
POINT
  5
494
330
3C1
100
AcDbEntity
  8
DEFPOINTS
 62
     0
100
AcDbPoint
 10
240.3481706321615
 20
97.12788119529896
 30
0.0
  0
POINT
  5
495
330
3C1
100
AcDbEntity
  8
DEFPOINTS
 62
     0
100
AcDbPoint
 10
245.0138370675387
 20
59.12707759204103
 30
0.0
  0
ENDBLK
  5
3CC
330
3C1
100
AcDbEntity
  8
0
100
AcDbBlockEnd
  0
ENDSEC
  0
SECTION
  2
ENTITIES
  0
LINE
  5
6C
330
1A
100
AcDbEntity
  8
ZUWAKU
  6
CONTINUOUS
 62
     7
100
AcDbLine
 10
403.0
 20
7.0
 30
0.0
 11
5.0
 21
7.0
 31
0.0
  0
LINE
  5
6D
330
1A
100
AcDbEntity
  8
ZUWAKU
  6
CONTINUOUS
 62
     7
100
AcDbLine
 10
5.0
 20
282.0
 30
0.0
 11
5.0
 21
7.0
 31
0.0
  0
LINE
  5
6E
330
1A
100
AcDbEntity
  8
ZUWAKU
  6
CONTINUOUS
 62
     7
100
AcDbLine
 10
403.0
 20
282.0
 30
0.0
 11
403.0
 21
7.0
 31
0.0
  0
LINE
  5
6F
330
1A
100
AcDbEntity
  8
ZUWAKU
  6
CONTINUOUS
 62
     7
100
AcDbLine
 10
403.0
 20
282.0
 30
0.0
 11
5.0
 21
282.0
 31
0.0
  0
LINE
  5
8E
330
1A
100
AcDbEntity
  8
ZUWAKU
 62
     7
 48
10.0
100
AcDbLine
 10
5.0
 20
13.0
 30
0.0
 11
403.0
 21
12.99999999999994
 31
0.0
  0
TEXT
  5
93
330
1A
100
AcDbEntity
  8
ZUWAKU
 62
     7
100
AcDbText
 10
8.003143713074223
 20
7.870178177610682
 30
0.0
 40
4.0
  1
品 種
100
AcDbText
  0
TEXT
  5
97
330
1A
100
AcDbEntity
  8
ZUWAKU
 62
     7
100
AcDbText
 10
107.7028028167073
 20
8.200497435100942
 30
0.0
 40
4.0
  1
品名・ｻ ｲ ｽﾞ
100
AcDbText
  0
LINE
  5
9A
330
1A
100
AcDbEntity
  8
ZUWAKU
 62
     7
 48
10.0
100
AcDbLine
 10
324.3551403257206
 20
6.999999999999836
 30
0.0
 11
324.3551403257206
 21
12.99999999999995
 31
0.0
  0
LINE
  5
9B
330
1A
100
AcDbEntity
  8
ZUWAKU
 62
     7
 48
10.0
100
AcDbLine
 10
307.142312366876
 20
6.999999999999836
 30
0.0
 11
307.142312366876
 21
12.99999999999995
 31
0.0
  0
TEXT
  5
9C
330
1A
100
AcDbEntity
  8
ZUWAKU
 62
     7
100
AcDbText
 10
310.1429253763237
 20
7.934661405801826
 30
0.0
 40
4.0
  1
品 番
100
AcDbText
  0
TEXT
  5
9E
330
1A
100
AcDbEntity
  8
ZUWAKU
 62
     7
 48
10.0
100
AcDbText
 10
322.9513761015196
 20
2.449000558492457
 30
0.0
 40
4.0
  1
積水化学工業株式会社  建材
100
AcDbText
  0
TEXT
  5
A1
330
1A
100
AcDbEntity
  8
ZUWAKU
 62
     7
100
AcDbText
 10
389.843492473331
 20
7.886151458996323
 30
0.0
 40
4.0
  1
1/1
100
AcDbText
  0
TEXT
  5
A2
330
1A
100
AcDbEntity
  8
ZUWAKU
 62
     7
100
AcDbText
 10
369.8225424558458
 20
7.729845637642938
 30
0.0
 40
4.0
  1
尺 度
100
AcDbText
  0
LINE
  5
A3
330
1A
100
AcDbEntity
  8
ZUWAKU
 62
     7
 48
10.0
100
AcDbLine
 10
366.8807110760169
 20
6.999999999999886
 30
0.0
 11
366.8807110760169
 21
12.99999999999994
 31
0.0
  0
TEXT
  5
A6
330
1A
100
AcDbEntity
  8
ZUWAKU
 62
     7
 48
10.0
100
AcDbText
 10
396.1622424237184
 20
2.480970960763784
 30
0.0
 40
4.0
  1
A3
100
AcDbText
  0
LINE
  5
F5
330
1A
100
AcDbEntity
  8
ZUWAKU
 62
     7
 48
10.0
100
AcDbLine
 10
22.25374857290876
 20
7.0
 30
0.0
 11
22.25374857290876
 21
13.0
 31
0.0
  0
LINE
  5
F6
330
1A
100
AcDbEntity
  8
ZUWAKU
 62
     7
 48
10.0
100
AcDbLine
 10
104.7316872784438
 20
7.0
 30
0.0
 11
104.7316872784438
 21
12.99999999999998
 31
0.0
  0
LINE
  5
F8
330
1A
100
AcDbEntity
  8
ZUWAKU
 62
     7
 48
10.0
100
AcDbLine
 10
138.0261803105822
 20
7.0
 30
0.0
 11
138.0261803105822
 21
12.99999999999998
 31
0.0
  0
LINE
  5
100
330
1A
100
AcDbEntity
  8
ZUWAKU
 62
     7
 48
10.0
100
AcDbLine
 10
384.3363149538092
 20
6.999999999999862
 30
0.0
 11
384.3363149538092
 21
12.99999999999994
 31
0.0
  0
LINE
  5
221
330
1A
100
AcDbEntity
  8
SEIHIN
  6
CONTINUOUS
 62
     3
 48
5.0
100
AcDbLine
 10
188.8403513754856
 20
248.2518765040479
 30
0.0
 11
229.3312513754856
 21
248.2518765040479
 31
0.0
  0
LINE
  5
222
330
1A
100
AcDbEntity
  8
SEIHIN
  6
CONTINUOUS
 62
     3
 48
5.0
100
AcDbLine
 10
209.0858513754857
 20
249.9019765040479
 30
0.0
 11
231.0851513754856
 21
249.9017765040478
 31
0.0
  0
LINE
  5
223
330
1A
100
AcDbEntity
  8
SEIHIN
  6
CONTINUOUS
 62
     3
 48
5.0
100
AcDbLine
 10
189.5058513754856
 20
246.9018765040479
 30
0.0
 11
228.0673513754857
 21
246.9018765040479
 31
0.0
  0
LINE
  5
224
330
1A
100
AcDbEntity
  8
SEIHIN
  6
CONTINUOUS
 62
     3
 48
5.0
100
AcDbLine
 10
209.0854513754857
 20
185.9018765040477
 30
0.0
 11
231.0846513754856
 21
185.9016765040477
 31
0.0
  0
LINE
  5
225
330
1A
100
AcDbEntity
  8
SEIHIN
  6
CONTINUOUS
 62
     3
 48
5.0
100
AcDbLine
 10
189.5053513754857
 20
188.9021765040477
 30
0.0
 11
228.0668513754858
 21
188.9015765040479
 31
0.0
  0
LINE
  5
226
330
1A
100
AcDbEntity
  8
SEIHIN
  6
CONTINUOUS
 62
     3
 48
5.0
100
AcDbLine
 10
188.8398513754857
 20
187.5521765040478
 30
0.0
 11
229.3307513754857
 21
187.5515765040479
 31
0.0
  0
LINE
  5
22B
330
1A
100
AcDbEntity
  8
SEIHIN
  6
CONTINUOUS
 62
     3
 48
5.0
100
AcDbLine
 10
240.3481706321616
 20
97.12788119529898
 30
0.0
 11
180.8945706321614
 21
89.82828119529896
 31
0.0
  0
LINE
  5
22C
330
1A
100
AcDbEntity
  8
SEIHIN
  6
CONTINUOUS
 62
     3
 48
5.0
100
AcDbLine
 10
240.8356706321614
 20
93.15778119529898
 30
0.0
 11
181.3820706321614
 21
85.85808119529898
 31
0.0
  0
LINE
  5
22D
330
1A
100
AcDbEntity
  8
SEIHIN
  6
CONTINUOUS
 62
     3
 48
5.0
100
AcDbLine
 10
175.8740706321614
 20
110.3695811952989
 30
0.0
 11
239.7740706321614
 21
118.2153811952989
 31
0.0
  0
LINE
  5
22E
330
1A
100
AcDbEntity
  8
SEIHIN
  6
CONTINUOUS
 62
     3
 48
5.0
100
AcDbLine
 10
239.7741706321615
 20
145.2153811952989
 30
0.0
 11
175.8741706321615
 21
145.2154811952989
 31
0.0
  0
LINE
  5
231
330
1A
100
AcDbEntity
  8
CENTER_L
  6
CENTER
 62
     1
 48
5.0
100
AcDbLine
 10
209.0856513754858
 20
217.9018765040479
 30
0.0
 11
249.0856513754858
 21
217.9015765040479
 31
0.0
  0
TEXT
  5
234
330
1A
100
AcDbEntity
  8
ZUWAKU
 62
     7
100
AcDbText
 10
25.15073007242387
 20
8.160237806787449
 30
0.0
 40
4.0
  1
ライナートップ　たてとい
100
AcDbText
  0
TEXT
  5
23A
330
1A
100
AcDbEntity
  8
ZUWAKU
 62
     7
100
AcDbText
 10
141.1313324528735
 20
7.9299153608506
 30
0.0
 40
4.0
  1
変角ソケット　Ｙ６０H－７°
100
AcDbText
  0
LINE
  5
252
330
1A
100
AcDbEntity
  8
SEIHIN
  6
CONTINUOUS
 62
     3
 48
5.0
100
AcDbLine
 10
184.8740706321615
 20
111.4745811952988
 30
0.0
 11
184.8742706321615
 21
145.2156811952988
 31
0.0
  0
LINE
  5
253
330
1A
100
AcDbEntity
  8
CENTER_L
  6
CENTER
 62
     1
 48
5.0
100
AcDbLine
 10
207.8236048062558
 20
106.2514498429399
 30
0.0
 11
207.8237706321615
 21
152.7133811952988
 31
0.0
  0
LINE
  5
254
330
1A
100
AcDbEntity
  8
SEIHIN
  6
CONTINUOUS
 62
     3
 48
5.0
100
AcDbLine
 10
175.8740706321614
 20
110.3695811952989
 30
0.0
 11
175.8742706321615
 21
145.2157811952989
 31
0.0
  0
LINE
  5
257
330
1A
100
AcDbEntity
  8
SEIHIN
  6
CONTINUOUS
 62
     3
 48
5.0
100
AcDbLine
 10
178.3354706321614
 20
110.6717811952989
 30
0.0
 11
181.3820706321614
 21
85.85808119529898
 31
0.0
  0
LINE
  5
25E
330
1A
100
AcDbEntity
  8
SEIHIN
  6
CONTINUOUS
 62
     3
 48
5.0
100
AcDbLine
 10
190.4142706321614
 20
86.9670811952989
 30
0.0
 11
187.3676706321615
 21
111.7806811952989
 31
0.0
  0
LINE
  5
261
330
1A
100
AcDbEntity
  8
SEIHIN
  6
CONTINUOUS
 62
     3
 48
5.0
100
AcDbLine
 10
183.6362513754856
 20
217.9019765040479
 30
0.0
 11
183.6362513754856
 21
235.2049765040479
 31
0.0
  0
LINE
  5
262
330
1A
100
AcDbEntity
  8
CENTER_L
  6
CENTER
 62
     1
 48
5.0
100
AcDbLine
 10
209.0856513754858
 20
217.9018765040479
 30
0.0
 11
209.0859513754857
 21
257.9018765040478
 31
0.0
  0
LINE
  5
263
330
1A
100
AcDbEntity
  8
SEIHIN
  6
CONTINUOUS
 62
     3
 48
5.0
100
AcDbLine
 10
178.7356513754857
 20
217.9019765040479
 30
0.0
 11
178.7356513754857
 21
238.1869765040477
 31
0.0
  0
LINE
  5
264
330
1A
100
AcDbEntity
  8
SEIHIN
  6
CONTINUOUS
 62
     3
 48
5.0
100
AcDbLine
 10
180.3458513754858
 20
217.9019765040479
 30
0.0
 11
180.3458513754858
 21
237.3279765040479
 31
0.0
  0
LINE
  5
265
330
1A
100
AcDbEntity
  8
SEIHIN
  6
CONTINUOUS
 62
     3
 48
5.0
100
AcDbLine
 10
180.0856513754858
 20
217.9019765040479
 30
0.0
 11
180.0856513754858
 21
237.5164765040477
 31
0.0
  0
LINE
  5
266
330
1A
100
AcDbEntity
  8
SEIHIN
  6
CONTINUOUS
 62
     3
 48
5.0
100
AcDbLine
 10
177.1357513754858
 20
217.9019765040479
 30
0.0
 11
177.1357513754858
 21
239.9521765040477
 31
0.0
  0
LINE
  5
267
330
1A
100
AcDbEntity
  8
CENTER_L
  6
CENTER
 62
     1
 48
5.0
100
AcDbLine
 10
209.0856513754858
 20
217.9018765040479
 30
0.0
 11
209.0853513754856
 21
177.9018765040478
 31
0.0
  0
LINE
  5
26D
330
1A
100
AcDbEntity
  8
CENTER_L
  6
CENTER
 62
     1
 48
5.0
100
AcDbLine
 10
209.0856513754858
 20
217.9018765040479
 30
0.0
 11
169.0856513754858
 21
217.9022765040479
 31
0.0
  0
ARC
  5
26E
330
1A
100
AcDbEntity
  8
SEIHIN
  6
CONTINUOUS
 62
     3
 48
5.0
100
AcDbCircle
 10
177.1360942491412
 20
185.9019226012137
 30
0.0
 40
15.49998678332072
100
AcDbArc
 50
14.03073738989285
 51
62.96634755120878
  0
ARC
  5
26F
330
1A
100
AcDbEntity
  8
SEIHIN
  6
CONTINUOUS
 62
     3
 48
5.0
100
AcDbCircle
 10
177.1360431101497
 20
185.9019847352342
 30
0.0
 40
11.99993989547786
100
AcDbArc
 50
17.92122966427134
 51
72.31588807610982
  0
ARC
  5
270
330
1A
100
AcDbEntity
  8
SEIHIN
  6
CONTINUOUS
 62
     3
 48
5.0
100
AcDbCircle
 10
177.1360093238282
 20
185.9020183719188
 30
0.0
 40
10.99995927772014
100
AcDbArc
 50
12.75905393921388
 51
77.49138292256529
  0
ARC
  5
271
330
1A
100
AcDbEntity
  8
SEIHIN
  6
CONTINUOUS
 62
     3
 48
5.0
100
AcDbCircle
 10
177.1360460433905
 20
185.9019818356066
 30
0.0
 40
9.000017772760838
100
AcDbArc
 50
5.73912499311702
 51
84.26656518037821
  0
ARC
  5
272
330
1A
100
AcDbEntity
  8
SEIHIN
  6
CONTINUOUS
 62
     3
 48
5.0
100
AcDbCircle
 10
177.1360523009574
 20
185.9019755631098
 30
0.0
 40
12.26000296594595
100
AcDbArc
 50
17.55855170498531
 51
71.49190278935869
  0
LINE
  5
273
330
1A
100
AcDbEntity
  8
SEIHIN
  6
CONTINUOUS
 62
     3
 48
5.0
100
AcDbLine
 10
180.3458513754858
 20
217.9021765040477
 30
0.0
 11
180.3454513754857
 21
198.4761765040477
 31
0.0
  0
LINE
  5
274
330
1A
100
AcDbEntity
  8
SEIHIN
  6
CONTINUOUS
 62
     3
 48
5.0
100
AcDbLine
 10
183.6362513754856
 20
217.9020765040477
 30
0.0
 11
183.6359513754858
 21
200.5989765040479
 31
0.0
  0
LINE
  5
275
330
1A
100
AcDbEntity
  8
SEIHIN
  6
CONTINUOUS
 62
     3
 48
5.0
100
AcDbLine
 10
180.0856513754858
 20
217.9021765040477
 30
0.0
 11
180.0853513754856
 21
198.2876765040479
 31
0.0
  0
LINE
  5
276
330
1A
100
AcDbEntity
  8
SEIHIN
  6
CONTINUOUS
 62
     3
 48
5.0
100
AcDbLine
 10
178.7356513754857
 20
217.9021765040477
 30
0.0
 11
178.7352513754856
 21
197.6171765040479
 31
0.0
  0
LINE
  5
277
330
1A
100
AcDbEntity
  8
SEIHIN
  6
CONTINUOUS
 62
     3
 48
5.0
100
AcDbLine
 10
177.1357513754858
 20
217.9021765040477
 30
0.0
 11
177.1353513754857
 21
195.8519765040479
 31
0.0
  0
ARC
  5
278
330
1A
100
AcDbEntity
  8
SEIHIN
  6
CONTINUOUS
 62
     3
 48
5.0
100
AcDbCircle
 10
178.1352526279842
 20
195.8519751194988
 30
0.0
 40
1.000001252499422
100
AcDbArc
 50
179.9999206712817
 51
264.26652301772
  0
ARC
  5
279
330
1A
100
AcDbEntity
  8
SEIHIN
  6
CONTINUOUS
 62
     3
 48
5.0
100
AcDbCircle
 10
181.0853819445512
 20
198.2875346717466
 30
0.0
 40
1.00003056994053
100
AcDbArc
 50
179.9976032589663
 51
252.3127365812085
  0
ARC
  5
27A
330
1A
100
AcDbEntity
  8
SEIHIN
  6
CONTINUOUS
 62
     3
 48
5.0
100
AcDbCircle
 10
181.1352592604237
 20
198.2714656672033
 30
0.0
 40
1.000007884996647
100
AcDbArc
 50
179.9993790994389
 51
252.0789949436212
  0
ARC
  5
27B
330
1A
100
AcDbEntity
  8
SEIHIN
  6
CONTINUOUS
 62
     3
 48
5.0
100
AcDbCircle
 10
181.3455237472222
 20
198.4760148912132
 30
0.0
 40
0.9999723724733971
100
AcDbArc
 50
180.0021994833384
 51
251.4893367108129
  0
ARC
  5
27C
330
1A
100
AcDbEntity
  8
SEIHIN
  6
CONTINUOUS
 62
     3
 48
5.0
100
AcDbCircle
 10
179.7352706876127
 20
197.6171524377981
 30
0.0
 40
1.000019312416666
100
AcDbArc
 50
179.9986211320921
 51
257.4896993747509
  0
LINE
  5
27D
330
1A
100
AcDbEntity
  8
SEIHIN
  6
CONTINUOUS
 62
     3
 48
5.0
100
AcDbLine
 10
183.8558513754858
 20
199.9732765040477
 30
0.0
 11
180.3458513754858
 21
199.9732765040477
 31
0.0
  0
ARC
  5
27E
330
1A
100
AcDbEntity
  8
SEIHIN
  6
CONTINUOUS
 62
     3
 48
5.0
100
AcDbCircle
 10
184.6359532879822
 20
200.5989733807464
 30
0.0
 40
1.000001912501278
100
AcDbArc
 50
179.9998210483471
 51
242.9607324224812
  0
LINE
  5
27F
330
1A
100
AcDbEntity
  8
SEIHIN
  6
CONTINUOUS
 62
     3
 48
5.0
100
AcDbLine
 10
188.8398513754857
 20
187.5521765040478
 30
0.0
 11
209.0851513754856
 21
187.5518765040479
 31
0.0
  0
LINE
  5
280
330
1A
100
AcDbEntity
  8
SEIHIN
  6
CONTINUOUS
 62
     3
 48
5.0
100
AcDbLine
 10
189.5053513754857
 20
188.9019765040479
 30
0.0
 11
209.0851513754856
 21
188.9015765040479
 31
0.0
  0
LINE
  5
281
330
1A
100
AcDbEntity
  8
SEIHIN
  6
CONTINUOUS
 62
     3
 48
5.0
100
AcDbLine
 10
209.0853513754856
 20
185.9015765040479
 30
0.0
 11
187.0859513754856
 21
185.9018765040477
 31
0.0
  0
LINE
  5
282
330
1A
100
AcDbEntity
  8
SEIHIN
  6
CONTINUOUS
 62
     3
 48
5.0
100
AcDbLine
 10
209.0852513754858
 20
185.9017765040479
 30
0.0
 11
187.0424513754858
 21
185.9020765040479
 31
0.0
  0
LINE
  5
283
330
1A
100
AcDbEntity
  8
SEIHIN
  6
CONTINUOUS
 62
     3
 48
5.0
100
AcDbLine
 10
188.8397513754858
 20
187.5520765040477
 30
0.0
 11
209.0850513754857
 21
187.5516765040479
 31
0.0
  0
LINE
  5
284
330
1A
100
AcDbEntity
  8
SEIHIN
  6
CONTINUOUS
 62
     3
 48
5.0
100
AcDbLine
 10
189.5053513754857
 20
188.9021765040477
 30
0.0
 11
209.0852513754858
 21
188.9018765040479
 31
0.0
  0
ARC
  5
285
330
1A
100
AcDbEntity
  8
SEIHIN
  6
CONTINUOUS
 62
     3
 48
5.0
100
AcDbCircle
 10
187.0859389342906
 20
186.9018877564212
 30
0.0
 40
1.000011252450792
100
AcDbArc
 50
185.7455120485523
 51
270.0007128199461
  0
ARC
  5
286
330
1A
100
AcDbEntity
  8
SEIHIN
  6
CONTINUOUS
 62
     3
 48
5.0
100
AcDbCircle
 10
189.5053405386412
 20
189.9019843889857
 30
0.0
 40
1.000007884996536
100
AcDbArc
 50
197.9210050563745
 51
270.0006209005586
  0
ARC
  5
287
330
1A
100
AcDbEntity
  8
SEIHIN
  6
CONTINUOUS
 62
     3
 48
5.0
100
AcDbCircle
 10
189.7783532698714
 20
189.901975116546
 30
0.0
 40
0.9999986124999091
100
AcDbArc
 50
197.5596794839164
 51
269.9998914595494
  0
ARC
  5
288
330
1A
100
AcDbEntity
  8
SEIHIN
  6
CONTINUOUS
 62
     3
 48
5.0
100
AcDbCircle
 10
188.8398492160939
 20
188.5520782290448
 30
0.0
 40
1.000001724999436
100
AcDbArc
 50
192.7619787655742
 51
270.0001237238253
  0
ARC
  5
289
330
1A
100
AcDbEntity
  8
SEIHIN
  6
CONTINUOUS
 62
     3
 48
5.0
100
AcDbCircle
 10
193.1438367129632
 20
189.9018879539168
 30
0.0
 40
1.000011449976471
100
AcDbArc
 50
194.0287459892467
 51
270.0008400910415
  0
ARC
  5
28A
330
1A
100
AcDbEntity
  8
SEIHIN
  6
CONTINUOUS
 62
     3
 48
5.0
100
AcDbCircle
 10
177.1367124685852
 20
249.902253312755
 30
0.0
 40
15.49999890552674
100
AcDbArc
 50
297.0335539746504
 51
345.9688055145455
  0
ARC
  5
28B
330
1A
100
AcDbEntity
  8
SEIHIN
  6
CONTINUOUS
 62
     3
 48
5.0
100
AcDbCircle
 10
177.1366516302995
 20
249.9021767588331
 30
0.0
 40
9.000022773026817
100
AcDbArc
 50
275.7333958774452
 51
354.2602026376409
  0
ARC
  5
28C
330
1A
100
AcDbEntity
  8
SEIHIN
  6
CONTINUOUS
 62
     3
 48
5.0
100
AcDbCircle
 10
177.1366523009576
 20
249.9021774449859
 30
0.0
 40
12.2600029659458
100
AcDbArc
 50
288.5080972106405
 51
342.4414482950138
  0
ARC
  5
28D
330
1A
100
AcDbEntity
  8
SEIHIN
  6
CONTINUOUS
 62
     3
 48
5.0
100
AcDbCircle
 10
177.1366738780731
 20
249.9021989083328
 30
0.0
 40
11.0000080429712
100
AcDbArc
 50
282.508216307151
 51
347.2406603276656
  0
ARC
  5
28E
330
1A
100
AcDbEntity
  8
SEIHIN
  6
CONTINUOUS
 62
     3
 48
5.0
100
AcDbCircle
 10
177.136740716347
 20
249.902265475305
 30
0.0
 40
12.00000285559364
100
AcDbArc
 50
287.6835269295039
 51
342.077877965274
  0
ARC
  5
28F
330
1A
100
AcDbEntity
  8
SEIHIN
  6
CONTINUOUS
 62
     3
 48
5.0
100
AcDbCircle
 10
179.7356706876128
 20
238.1870005702976
 30
0.0
 40
1.000019312416698
100
AcDbArc
 50
102.5103006252671
 51
180.0013788679233
  0
LINE
  5
290
330
1A
100
AcDbEntity
  8
SEIHIN
  6
CONTINUOUS
 62
     3
 48
5.0
100
AcDbLine
 10
183.8561513754857
 20
235.8307765040478
 30
0.0
 11
180.3458513754858
 21
235.8307765040478
 31
0.0
  0
ARC
  5
291
330
1A
100
AcDbEntity
  8
SEIHIN
  6
CONTINUOUS
 62
     3
 48
5.0
100
AcDbCircle
 10
181.0856819445514
 20
237.516518336349
 30
0.0
 40
1.000030569940581
100
AcDbArc
 50
107.6872634188044
 51
180.0023967410421
  0
ARC
  5
292
330
1A
100
AcDbEntity
  8
SEIHIN
  6
CONTINUOUS
 62
     3
 48
5.0
100
AcDbCircle
 10
181.3458552879704
 20
237.3279819393933
 30
0.0
 40
1.000003912499417
100
AcDbArc
 50
108.5059219228382
 51
180.0003114211332
  0
ARC
  5
293
330
1A
100
AcDbEntity
  8
SEIHIN
  6
CONTINUOUS
 62
     3
 48
5.0
100
AcDbCircle
 10
181.1355438779295
 20
237.5325662006405
 30
0.0
 40
0.9999925024968556
100
AcDbArc
 50
107.9143421204271
 51
179.9994096538197
  0
ARC
  5
294
330
1A
100
AcDbEntity
  8
SEIHIN
  6
CONTINUOUS
 62
     3
 48
5.0
100
AcDbCircle
 10
184.6362978233282
 20
235.2050523542349
 30
0.0
 40
1.000046450719081
100
AcDbArc
 50
117.0408299053685
 51
180.0043456937365
  0
ARC
  5
295
330
1A
100
AcDbEntity
  8
SEIHIN
  6
CONTINUOUS
 62
     3
 48
5.0
100
AcDbCircle
 10
178.1357576254467
 20
239.9521834136308
 30
0.0
 40
1.000006249984811
100
AcDbArc
 50
95.7394943855661
 51
180.0003958874742
  0
LINE
  5
296
330
1A
100
AcDbEntity
  8
SEIHIN
  6
CONTINUOUS
 62
     3
 48
5.0
100
AcDbLine
 10
209.0858513754857
 20
249.9019765040479
 30
0.0
 11
187.0865513754858
 21
249.9021765040478
 31
0.0
  0
ARC
  5
297
330
1A
100
AcDbEntity
  8
SEIHIN
  6
CONTINUOUS
 62
     3
 48
5.0
100
AcDbCircle
 10
189.7788532698717
 20
245.9018778915497
 30
0.0
 40
0.9999986124999262
100
AcDbArc
 50
90.00010854046681
 51
162.4403205161002
  0
ARC
  5
298
330
1A
100
AcDbEntity
  8
SEIHIN
  6
CONTINUOUS
 62
     3
 48
5.0
100
AcDbCircle
 10
189.5058847779781
 20
245.9019008046384
 30
0.0
 40
0.9999756999672953
100
AcDbArc
 50
90.00191386835156
 51
162.0743147910798
  0
ARC
  5
299
330
1A
100
AcDbEntity
  8
SEIHIN
  6
CONTINUOUS
 62
     3
 48
5.0
100
AcDbCircle
 10
188.8403492160938
 20
247.2518747790509
 30
0.0
 40
1.000001724999251
100
AcDbArc
 50
89.99987627617791
 51
167.23802123443
  0
ARC
  5
29A
330
1A
100
AcDbEntity
  8
SEIHIN
  6
CONTINUOUS
 62
     3
 48
5.0
100
AcDbCircle
 10
187.0865444659027
 20
248.9021702540869
 30
0.0
 40
1.000006249984803
100
AcDbArc
 50
89.99960411252571
 51
174.2605056144354
  0
ARC
  5
29B
330
1A
100
AcDbEntity
  8
SEIHIN
  6
CONTINUOUS
 62
     3
 48
5.0
100
AcDbCircle
 10
193.1443833116433
 20
245.9019014396697
 30
0.0
 40
0.9999750648881626
100
AcDbArc
 50
90.00182985267047
 51
165.9669760808192
  0
TEXT
  5
29E
330
1A
100
AcDbEntity
  8
ZUWAKU
 62
     7
100
AcDbText
 10
327.1013476411085
 20
8.060146781246267
 30
0.0
 40
4.0
  1
PF19
100
AcDbText
  0
LINE
  5
2AC
330
1A
100
AcDbEntity
  8
SEIHIN
  6
CONTINUOUS
 62
     3
 48
5.0
100
AcDbLine
 10
237.7890706321615
 20
117.9713811952989
 30
0.0
 11
240.8356706321614
 21
93.15778119529898
 31
0.0
  0
LINE
  5
2AD
330
1A
100
AcDbEntity
  8
SEIHIN
  6
CONTINUOUS
 62
     3
 48
5.0
100
AcDbLine
 10
231.8034706321614
 20
92.04878119529897
 30
0.0
 11
228.7568706321614
 21
116.8624811952989
 31
0.0
  0
LINE
  5
2B4
330
1A
100
AcDbEntity
  8
SEIHIN
  6
CONTINUOUS
 62
     3
 48
5.0
100
AcDbLine
 10
230.7740706321614
 20
117.1102811952989
 30
0.0
 11
230.7742706321615
 21
145.2153811952989
 31
0.0
  0
LINE
  5
2B5
330
1A
100
AcDbEntity
  8
SEIHIN
  6
CONTINUOUS
 62
     3
 48
5.0
100
AcDbLine
 10
239.7740706321614
 20
118.2150811952988
 30
0.0
 11
239.7742706321614
 21
145.2153811952989
 31
0.0
  0
LINE
  5
2CA
330
1A
100
AcDbEntity
  8
SEIHIN
  6
CONTINUOUS
 62
     3
 48
5.0
100
AcDbLine
 10
239.4356513754856
 20
217.9018765040479
 30
0.0
 11
239.4356513754856
 21
238.1865765040477
 31
0.0
  0
LINE
  5
2CB
330
1A
100
AcDbEntity
  8
SEIHIN
  6
CONTINUOUS
 62
     3
 48
5.0
100
AcDbLine
 10
237.8143513754856
 20
217.9018765040479
 30
0.0
 11
237.8143513754856
 21
236.9691765040477
 31
0.0
  0
LINE
  5
2CC
330
1A
100
AcDbEntity
  8
SEIHIN
  6
CONTINUOUS
 62
     3
 48
5.0
100
AcDbLine
 10
242.0972513754858
 20
217.9018765040479
 30
0.0
 11
242.0972513754858
 21
238.0857765040477
 31
0.0
  0
LINE
  5
2CD
330
1A
100
AcDbEntity
  8
SEIHIN
  6
CONTINUOUS
 62
     3
 48
5.0
100
AcDbLine
 10
241.0856513754858
 20
217.9018765040479
 30
0.0
 11
241.0856513754858
 21
239.9468765040479
 31
0.0
  0
LINE
  5
2D4
330
1A
100
AcDbEntity
  8
SEIHIN
  6
CONTINUOUS
 62
     3
 48
5.0
100
AcDbLine
 10
242.0972513754858
 20
217.9014765040477
 30
0.0
 11
242.0969513754856
 21
197.7175765040477
 31
0.0
  0
LINE
  5
2D5
330
1A
100
AcDbEntity
  8
SEIHIN
  6
CONTINUOUS
 62
     3
 48
5.0
100
AcDbLine
 10
237.8143513754856
 20
217.9014765040477
 30
0.0
 11
237.8140513754856
 21
198.8341765040478
 31
0.0
  0
LINE
  5
2D6
330
1A
100
AcDbEntity
  8
SEIHIN
  6
CONTINUOUS
 62
     3
 48
5.0
100
AcDbLine
 10
239.4356513754856
 20
217.9014765040477
 30
0.0
 11
239.4353513754857
 21
197.6167765040477
 31
0.0
  0
LINE
  5
2D7
330
1A
100
AcDbEntity
  8
SEIHIN
  6
CONTINUOUS
 62
     3
 48
5.0
100
AcDbLine
 10
241.0856513754858
 20
217.9013765040479
 30
0.0
 11
241.0852513754857
 21
195.8563765040477
 31
0.0
  0
ARC
  5
2D8
330
1A
100
AcDbEntity
  8
SEIHIN
  6
CONTINUOUS
 62
     3
 48
5.0
100
AcDbCircle
 10
243.9091111962538
 20
186.0516923897479
 30
0.0
 40
10.99996946350171
100
AcDbArc
 50
142.6722956467543
 51
166.2615473324108
  0
ARC
  5
2DB
330
1A
100
AcDbEntity
  8
SEIHIN
  6
CONTINUOUS
 62
     3
 48
5.0
100
AcDbCircle
 10
241.0862630086284
 20
185.9015883841848
 30
0.0
 40
12.61996046250382
100
AcDbArc
 50
108.2815391398011
 51
162.9222725418509
  0
ARC
  5
2DC
330
1A
100
AcDbEntity
  8
SEIHIN
  6
CONTINUOUS
 62
     3
 48
5.0
100
AcDbCircle
 10
241.034515515588
 20
185.9015407981281
 30
0.0
 40
11.00000714845636
100
AcDbArc
 50
102.5102802185905
 51
167.2427244586535
  0
ARC
  5
2DD
330
1A
100
AcDbEntity
  8
SEIHIN
  6
CONTINUOUS
 62
     3
 48
5.0
100
AcDbCircle
 10
241.034581296111
 20
185.9016062733843
 30
0.0
 40
9.000029795247611
100
AcDbArc
 50
95.44829551381154
 51
174.261678882272
  0
ARC
  5
2DF
330
1A
100
AcDbEntity
  8
SEIHIN
  6
CONTINUOUS
 62
     3
 48
5.0
100
AcDbCircle
 10
231.0846582850687
 20
186.9016827540088
 30
0.0
 40
1.00000624998496
100
AcDbArc
 50
269.9996041125249
 51
354.2605056144371
  0
ARC
  5
2E0
330
1A
100
AcDbEntity
  8
SEIHIN
  6
CONTINUOUS
 62
     3
 48
5.0
100
AcDbCircle
 10
229.3307535348775
 20
188.5515782290449
 30
0.0
 40
1.000001724999354
100
AcDbArc
 50
269.9998762761779
 51
347.2380212344289
  0
ARC
  5
2E1
330
1A
100
AcDbEntity
  8
SEIHIN
  6
CONTINUOUS
 62
     3
 48
5.0
100
AcDbCircle
 10
228.0669330285331
 20
189.901562946364
 30
0.0
 40
0.9999864424844361
100
AcDbArc
 50
270.0010512172086
 51
342.926967818603
  0
ARC
  5
2E2
330
1A
100
AcDbEntity
  8
SEIHIN
  6
CONTINUOUS
 62
     3
 48
5.0
100
AcDbCircle
 10
232.2524590860032
 20
188.901682556511
 30
0.0
 40
1.000006052492995
100
AcDbArc
 50
269.9995582225684
 51
346.2606926187641
  0
ARC
  5
2E3
330
1A
100
AcDbEntity
  8
SEIHIN
  6
CONTINUOUS
 62
     3
 48
5.0
100
AcDbCircle
 10
236.8140618905961
 20
198.8341910522095
 30
0.0
 40
0.9999894849953056
100
AcDbArc
 50
288.2819163487206
 51
359.9991664429703
  0
LINE
  5
2E4
330
1A
100
AcDbEntity
  8
SEIHIN
  6
CONTINUOUS
 62
     3
 48
5.0
100
AcDbLine
 10
241.0968513754857
 20
196.9015765040479
 30
0.0
 11
241.0852513754857
 21
196.9015765040479
 31
0.0
  0
ARC
  5
2E5
330
1A
100
AcDbEntity
  8
SEIHIN
  6
CONTINUOUS
 62
     3
 48
5.0
100
AcDbCircle
 10
241.0969177366172
 20
197.717543253127
 30
0.0
 40
1.000033639421111
100
AcDbArc
 50
269.337303839496
 51
0.0019050733354871
  0
ARC
  5
2E6
330
1A
100
AcDbEntity
  8
SEIHIN
  6
CONTINUOUS
 62
     3
 48
5.0
100
AcDbCircle
 10
238.4353320633588
 20
197.6167524377981
 30
0.0
 40
1.000019312416567
100
AcDbArc
 50
282.5103006252446
 51
0.0013788679029381
  0
ARC
  5
2E7
330
1A
100
AcDbEntity
  8
SEIHIN
  6
CONTINUOUS
 62
     3
 48
5.0
100
AcDbCircle
 10
240.0852448105289
 20
195.8564692834979
 30
0.0
 40
1.000006564982969
100
AcDbArc
 50
275.4459062204024
 51
0.0004137043233621
  0
ARC
  5
2E8
330
1A
100
AcDbEntity
  8
SEIHIN
  6
CONTINUOUS
 62
     3
 48
5.0
100
AcDbCircle
 10
243.9096751281804
 20
249.7515267787897
 30
0.0
 40
10.99999978171769
100
AcDbArc
 50
193.7376963966035
 51
217.3273622706402
  0
ARC
  5
2E9
330
1A
100
AcDbEntity
  8
SEIHIN
  6
CONTINUOUS
 62
     3
 48
5.0
100
AcDbCircle
 10
241.0350257139354
 20
249.9017020358713
 30
0.0
 40
8.999980021102999
100
AcDbArc
 50
185.7387067920043
 51
264.5520297170462
  0
ARC
  5
2EA
330
1A
100
AcDbEntity
  8
SEIHIN
  6
CONTINUOUS
 62
     3
 48
5.0
100
AcDbCircle
 10
241.0350301305893
 20
249.9016976579088
 30
0.0
 40
10.99999610774409
100
AcDbArc
 50
192.756676792098
 51
257.4896290447048
  0
ARC
  5
2EB
330
1A
100
AcDbEntity
  8
SEIHIN
  6
CONTINUOUS
 62
     3
 48
5.0
100
AcDbCircle
 10
241.0867645343881
 20
249.9017630657572
 30
0.0
 40
12.61999083063084
100
AcDbArc
 50
197.0781526512825
 51
251.7180209709373
  0
ARC
  5
2EC
330
1A
100
AcDbEntity
  8
SEIHIN
  6
CONTINUOUS
 62
     3
 48
5.0
100
AcDbCircle
 10
229.3312535348774
 20
247.2518747790509
 30
0.0
 40
1.000001724999315
100
AcDbArc
 50
12.76197876557314
 51
90.00012372382533
  0
ARC
  5
2ED
330
1A
100
AcDbEntity
  8
SEIHIN
  6
CONTINUOUS
 62
     3
 48
5.0
100
AcDbCircle
 10
228.067352898044
 20
245.9018753790492
 30
0.0
 40
1.00000112499981
100
AcDbArc
 50
17.07964767442683
 51
90.00008723606203
  0
ARC
  5
2EE
330
1A
100
AcDbEntity
  8
SEIHIN
  6
CONTINUOUS
 62
     3
 48
5.0
100
AcDbCircle
 10
232.2529590860032
 20
246.9017704515844
 30
0.0
 40
1.00000605249314
100
AcDbArc
 50
13.73930738124595
 51
90.00044177744211
  0
ARC
  5
2EF
330
1A
100
AcDbEntity
  8
SEIHIN
  6
CONTINUOUS
 62
     3
 48
5.0
100
AcDbCircle
 10
231.0851582850687
 20
248.9017702540868
 30
0.0
 40
1.000006249984891
100
AcDbArc
 50
5.739494385563205
 51
90.0003958874759
  0
ARC
  5
2F0
330
1A
100
AcDbEntity
  8
SEIHIN
  6
CONTINUOUS
 62
     3
 48
5.0
100
AcDbCircle
 10
238.4356320633585
 20
238.1866005702977
 30
0.0
 40
1.000019312416666
100
AcDbArc
 50
359.9986211320783
 51
77.4896993747341
  0
ARC
  5
2F1
330
1A
100
AcDbEntity
  8
SEIHIN
  6
CONTINUOUS
 62
     3
 48
5.0
100
AcDbCircle
 10
241.0972677332532
 20
238.0857603349486
 30
0.0
 40
0.9999836423632151
100
AcDbArc
 50
0.0009264362944413
 51
90.66559413094195
  0
ARC
  5
2F2
330
1A
100
AcDbEntity
  8
SEIHIN
  6
CONTINUOUS
 62
     3
 48
5.0
100
AcDbCircle
 10
236.8143144143517
 20
236.969227639867
 30
0.0
 40
1.000036962441303
100
AcDbArc
 50
359.997070241664
 51
71.71611760945615
  0
LINE
  5
2F3
330
1A
100
AcDbEntity
  8
SEIHIN
  6
CONTINUOUS
 62
     3
 48
5.0
100
AcDbLine
 10
241.0972513754857
 20
238.9016765040477
 30
0.0
 11
241.0856513754858
 21
238.9016765040477
 31
0.0
  0
ARC
  5
2F4
330
1A
100
AcDbEntity
  8
SEIHIN
  6
CONTINUOUS
 62
     3
 48
5.0
100
AcDbCircle
 10
240.0856448105289
 20
239.9468837245979
 30
0.0
 40
1.000006564982959
100
AcDbArc
 50
359.9995862956766
 51
84.55409377959753
  0
LINE
  5
2F6
330
1A
100
AcDbEntity
  8
CENTER_L
  6
CENTER
 62
     1
 48
5.0
100
AcDbLine
 10
211.7233543696441
 20
82.53081267334094
 30
0.0
 11
206.8437133196745
 21
122.2734724737855
 31
0.0
  0
DIMENSION
  5
30B
330
1A
100
AcDbEntity
  8
SUNPOU
 62
     4
 48
5.0
100
AcDbDimension
  2
*D1
 10
239.7742706316182
 20
165.8991105837354
 30
0.0
 11
207.8242706318898
 21
168.3991105837354
 31
0.0
 70
    32
  3
STANDARD
100
AcDbAlignedDimension
 13
175.8742706321615
 23
145.2157811952989
 33
0.0
 14
239.7742706316182
 24
145.2153078672248
 34
0.0
100
AcDbRotatedDimension
1001
ACAD
1000
DSTYLE
1002
{
1070
   140
1040
3.0
1070
    74
1070
     0
1070
   172
1070
     1
1070
    73
1070
     0
1070
   272
1070
     2
1070
    77
1070
     3
1070
   173
1070
     1
1070
   147
1040
1.0
1070
    42
1040
3.0
1070
    44
1040
1.5
1070
    43
1040
7.0
1070
   271
1070
     0
1070
   178
1070
     4
1070
   177
1070
     4
1070
   176
1070
     4
1070
   141
1040
150.0
1070
     7
1000
_OPEN
1070
     6
1000
_OPEN
1070
    41
1040
3.0
1002
}
  0
DIMENSION
  5
319
330
1A
100
AcDbEntity
  8
SUNPOU
 62
     4
 48
5.0
100
AcDbDimension
  2
*D2
 10
153.347879270723
 20
120.2154811953295
 30
0.0
 11
150.847879270723
 21
132.7154811953143
 31
0.0
 70
    32
  1
※ <>
  3
STANDARD
100
AcDbAlignedDimension
 13
175.8741706321615
 23
145.2154811952989
 33
0.0
 14
175.8741315085308
 24
120.2154811953295
 34
0.0
 50
90.0
100
AcDbRotatedDimension
1001
ACAD
1000
DSTYLE
1002
{
1070
   140
1040
3.0
1070
    74
1070
     0
1070
   172
1070
     1
1070
    73
1070
     0
1070
   272
1070
     2
1070
    77
1070
     3
1070
   173
1070
     1
1070
   147
1040
1.0
1070
    42
1040
3.0
1070
    44
1040
1.5
1070
    43
1040
7.0
1070
   271
1070
     0
1070
   178
1070
     4
1070
   177
1070
     4
1070
   176
1070
     4
1070
   141
1040
150.0
1070
     7
1000
_OPEN
1070
     6
1000
_OPEN
1070
    41
1040
3.0
1002
}
  0
DIMENSION
  5
326
330
1A
100
AcDbEntity
  8
SUNPOU
 62
     4
 48
5.0
100
AcDbDimension
  2
*D3
 10
144.0176579056433
 20
114.2924275237539
 30
0.0
 11
141.5176579056432
 21
129.7539293598604
 31
0.0
 70
    32
  3
STANDARD
100
AcDbAlignedDimension
 13
207.8237438714499
 23
145.2154311959668
 33
0.0
 14
207.8236335050716
 24
114.2924275237539
 34
0.0
 50
90.0
100
AcDbRotatedDimension
1001
ACAD
1000
DSTYLE
1002
{
1070
   140
1040
3.0
1070
    74
1070
     0
1070
   172
1070
     1
1070
    73
1070
     0
1070
   272
1070
     2
1070
    77
1070
     3
1070
   173
1070
     1
1070
   147
1040
1.0
1070
    42
1040
3.0
1070
    44
1040
1.5
1070
    43
1040
7.0
1070
   271
1070
     0
1070
   178
1070
     4
1070
   177
1070
     4
1070
   176
1070
     4
1070
   141
1040
150.0
1070
     7
1000
_OPEN
1070
     6
1000
_OPEN
1070
    41
1040
3.0
1002
}
  0
DIMENSION
  5
333
330
1A
100
AcDbEntity
  8
SUNPOU
 62
     4
 48
5.0
100
AcDbDimension
  2
*D4
 10
148.0274141394327
 20
81.76273107102947
 30
0.0
 11
148.9854504769152
 21
94.47428994549335
 31
0.0
 70
    33
  1
※ <>
  3
STANDARD
100
AcDbAlignedDimension
 13
207.8236335050716
 23
114.2924275237539
 33
0.0
 14
210.8702937630829
 24
89.47863877951233
 34
0.0
1001
ACAD
1000
DSTYLE
1002
{
1070
   140
1040
3.0
1070
    74
1070
     0
1070
   172
1070
     1
1070
    73
1070
     0
1070
   272
1070
     2
1070
    77
1070
     3
1070
   173
1070
     1
1070
   147
1040
1.0
1070
    42
1040
3.0
1070
    44
1040
1.5
1070
    43
1040
7.0
1070
   271
1070
     0
1070
   178
1070
     4
1070
   177
1070
     4
1070
   176
1070
     4
1070
   141
1040
150.0
1070
     7
1000
_OPEN
1070
     6
1000
_OPEN
1070
    41
1040
3.0
1002
}
  0
DIMENSION
  5
340
330
1A
100
AcDbEntity
  8
SUNPOU
 62
     4
 48
5.0
100
AcDbDimension
  2
*D5
 10
264.693999994759
 20
185.9016765040477
 30
0.0
 11
262.1939999947589
 21
217.9017265040478
 31
0.0
 70
    32
  3
STANDARD
100
AcDbAlignedDimension
 13
231.0851513754856
 23
249.9017765040478
 33
0.0
 14
231.0846513754856
 24
185.9016765040477
 34
0.0
 50
90.0
100
AcDbRotatedDimension
1001
ACAD
1000
DSTYLE
1002
{
1070
   140
1040
3.0
1070
    74
1070
     0
1070
   172
1070
     1
1070
    73
1070
     0
1070
   272
1070
     2
1070
    77
1070
     3
1070
   173
1070
     1
1070
   147
1040
1.0
1070
    42
1040
3.0
1070
    44
1040
1.5
1070
    43
1040
7.0
1070
   271
1070
     0
1070
   178
1070
     4
1070
   177
1070
     4
1070
   176
1070
     4
1070
   141
1040
150.0
1070
     7
1000
_OPEN
1070
     6
1000
_OPEN
1070
    41
1040
3.0
1002
}
  0
DIMENSION
  5
351
330
1A
100
AcDbEntity
  8
SUNPOU
 62
     4
 48
5.0
100
AcDbDimension
  2
*D6
 10
207.8237706321615
 20
152.7133811952988
 30
0.0
 11
197.9327285834905
 21
75.23641898914519
 31
0.0
 70
    34
  3
STANDARD
100
AcDb2LineAngularDimension
 13
211.7233543696441
 23
82.53081267334094
 33
0.0
 14
206.8437133196745
 24
122.2734724737855
 34
0.0
 15
207.8236048062558
 25
106.2514498429399
 35
0.0
 16
211.2860140891992
 26
71.87464829497461
 36
0.0
1001
ACAD
1000
DSTYLE
1002
{
1070
   271
1070
     0
1070
   271
1070
     0
1070
   271
1070
     0
1070
   271
1070
     0
1070
   140
1040
3.0
1070
    74
1070
     0
1070
   172
1070
     1
1070
    73
1070
     0
1070
   272
1070
     2
1070
    77
1070
     3
1070
   173
1070
     1
1070
   147
1040
1.0
1070
    42
1040
3.0
1070
    44
1040
1.5
1070
    43
1040
7.0
1070
   271
1070
     0
1070
   178
1070
     4
1070
   177
1070
     4
1070
   176
1070
     4
1070
   141
1040
150.0
1070
     7
1000
_OPEN
1070
     6
1000
_OPEN
1070
    41
1040
3.0
1002
}
  0
TEXT
  5
394
330
1A
100
AcDbEntity
  8
SUNPOU
 62
     4
 48
5.0
100
AcDbText
 10
286.4141723184498
 20
29.18562760325546
 30
0.0
 40
4.0
  1
※　たてといの差込み寸法を示す。
100
AcDbText
  0
DIMENSION
  5
3C0
330
1A
100
AcDbEntity
  8
ZUWAKU
100
AcDbDimension
  2
*D7
 10
245.0138370675387
 20
59.12707759204103
 30
0.0
 11
214.9823795046956
 21
57.95864491055768
 31
0.0
 70
    33
  3
STANDARD
100
AcDbAlignedDimension
 13
180.8945706321614
 23
89.82828119529896
 33
0.0
 14
240.3481706321616
 24
97.12788119529898
 34
0.0
1001
ACAD
1000
DSTYLE
1002
{
1070
    41
1040
3.0
1070
    42
1040
3.0
1070
    43
1040
7.0
1070
    44
1040
1.5
1070
    73
1070
     0
1070
    74
1070
     0
1070
    77
1070
     3
1070
   140
1040
3.0
1070
   141
1040
150.0
1070
   147
1040
1.0
1070
   172
1070
     1
1070
   173
1070
     1
1070
   176
1070
     4
1070
   177
1070
     4
1070
   178
1070
     4
1070
   271
1070
     0
1070
   272
1070
     2
1070
   341
1005
B2
1070
     6
1000
OPEN
1070
     7
1000
OPEN
1002
}
  0
VIEWPORT
  5
22
330
17
100
AcDbEntity
 67
     1
  8
0
100
AcDbViewport
 10
313.6808219178082
 20
148.5
 30
0.0
 40
627.3616438356165
 41
297.0
 68
     2
 69
     1
1001
ACAD
1000
MVIEW
1002
{
1070
    16
1010
0.0
1020
0.0
1030
0.0
1010
0.0
1020
0.0
1030
1.0
1040
0.0
1040
297.0
1040
313.6808219178082
1040
148.5
1040
50.0
1040
0.0
1040
0.0
1070
     0
1070
   100
1070
     1
1070
     0
1070
     0
1070
     0
1070
     0
1070
     0
1040
0.0
1040
0.0
1040
0.0
1040
1.0
1040
1.0
1040
10.0
1040
10.0
1070
     0
1002
{
1002
}
1002
}
  0
VIEWPORT
  5
64
330
17
100
AcDbEntity
 67
     1
  8
VIEWPORT
100
AcDbViewport
 10
210.0
 20
148.5
 30
0.0
 40
420.0
 41
297.0
 68
     1
 69
     2
1001
ACAD
1000
MVIEW
1002
{
1070
    16
1010
0.0
1020
0.0
1030
0.0
1010
0.0
1020
0.0
1030
1.0
1040
0.0
1040
302.9399999999998
1040
210.0
1040
148.5
1040
50.0
1040
0.0
1040
0.0
1070
     0
1070
   100
1070
     1
1070
     0
1070
     0
1070
     0
1070
     0
1070
     0
1040
0.0
1040
0.0
1040
0.0
1040
5.0
1040
5.0
1040
0.0
1040
0.0
1070
     0
1002
{
1002
}
1002
}
  0
ENDSEC
  0
SECTION
  2
OBJECTS
  0
DICTIONARY
  5
C
330
0
100
AcDbDictionary
  3
ACAD_GROUP
350
D
  3
ACAD_LAYOUT
350
3B9
  3
ACAD_MLINESTYLE
350
E
  3
ACAD_PLOTSETTINGS
350
3BA
1001
ACAD
1000
TREAT_AS_HARD
1070
     0
  0
DICTIONARY
  5
474
330
1A
100
AcDbDictionary
  3
ACAD_LAYOUTSELFREF
350
573
1001
ACAD
1000
TREAT_AS_HARD
1070
     1
  0
DICTIONARY
  5
472
330
17
100
AcDbDictionary
  3
ACAD_LAYOUTSELFREF
350
572
1001
ACAD
1000
TREAT_AS_HARD
1070
     1
  0
DICTIONARY
  5
D
102
{ACAD_REACTORS
330
C
102
}
330
C
100
AcDbDictionary
1001
ACAD
1000
TREAT_AS_HARD
1070
     0
  0
DICTIONARY
  5
3B9
102
{ACAD_REACTORS
330
C
102
}
330
C
100
AcDbDictionary
1001
ACAD
1000
TREAT_AS_HARD
1070
     0
  0
DICTIONARY
  5
E
102
{ACAD_REACTORS
330
C
102
}
330
C
100
AcDbDictionary
  3
STANDARD
350
13
1001
ACAD
1000
TREAT_AS_HARD
1070
     0
  0
DICTIONARY
  5
3BA
102
{ACAD_REACTORS
330
C
102
}
330
C
100
AcDbDictionary
1001
ACAD
1000
TREAT_AS_HARD
1070
     0
  0
XRECORD
  5
573
102
{ACAD_REACTORS
330
474
102
}
330
474
100
AcDbXrecord
340
1A
  0
XRECORD
  5
572
102
{ACAD_REACTORS
330
472
102
}
330
472
100
AcDbXrecord
340
17
  0
MLINESTYLE
  5
13
102
{ACAD_REACTORS
330
E
102
}
330
E
100
AcDbMlineStyle
  2
STANDARD
 70
     0
  3

 62
     0
 51
90.0
 52
90.0
 71
     2
 49
0.5
 62
   256
  6
BYLAYER
 49
-0.5
 62
   256
  6
BYLAYER
  0
ENDSEC
  0
EOF
