  0
SECTION
  2
HEADER
  9
$ACADVER
  1
AC1012
  9
$DWGCODEPAGE
  3
dos932
  9
$INSBASE
 10
0.0
 20
0.0
 30
0.0
  9
$EXTMIN
 10
5.0
 20
2.449000558492456
 30
0.0
  9
$EXTMAX
 10
403.0
 20
282.0
 30
0.0
  9
$LIMMIN
 10
0.0
 20
0.0
  9
$LIMMAX
 10
420.0
 20
297.0
  9
$ORTHOMODE
 70
     1
  9
$REGENMODE
 70
     1
  9
$FILLMODE
 70
     1
  9
$QTEXTMODE
 70
     0
  9
$MIRRTEXT
 70
     1
  9
$DRAGMODE
 70
     2
  9
$LTSCALE
 40
1.0
  9
$OSMODE
 70
    37
  9
$ATTMODE
 70
     1
  9
$TEXTSIZE
 40
2.5
  9
$TRACEWID
 40
1.0
  9
$TEXTSTYLE
  7
STANDARD
  9
$CLAYER
  8
SEIHIN
  9
$CELTYPE
  6
BYLAYER
  9
$CECOLOR
 62
   256
  9
$CELTSCALE
 40
1.0
  9
$DELOBJ
 70
     1
  9
$DISPSILH
 70
     0
  9
$DIMSCALE
 40
1.0
  9
$DIMASZ
 40
3.0
  9
$DIMEXO
 40
3.0
  9
$DIMDLI
 40
7.0
  9
$DIMRND
 40
0.0
  9
$DIMDLE
 40
0.0
  9
$DIMEXE
 40
1.5
  9
$DIMTP
 40
0.0
  9
$DIMTM
 40
0.0
  9
$DIMTXT
 40
3.0
  9
$DIMCEN
 40
150.0
  9
$DIMTSZ
 40
0.0
  9
$DIMTOL
 70
     0
  9
$DIMLIM
 70
     0
  9
$DIMTIH
 70
     0
  9
$DIMTOH
 70
     0
  9
$DIMSE1
 70
     0
  9
$DIMSE2
 70
     0
  9
$DIMTAD
 70
     3
  9
$DIMZIN
 70
     0
  9
$DIMBLK
  1

  9
$DIMASO
 70
     1
  9
$DIMSHO
 70
     1
  9
$DIMPOST
  1

  9
$DIMAPOST
  1

  9
$DIMALT
 70
     0
  9
$DIMALTD
 70
     2
  9
$DIMALTF
 40
25.4
  9
$DIMLFAC
 40
1.0
  9
$DIMTOFL
 70
     1
  9
$DIMTVP
 40
0.0
  9
$DIMTIX
 70
     0
  9
$DIMSOXD
 70
     0
  9
$DIMSAH
 70
     1
  9
$DIMBLK1
  1
OPEN
  9
$DIMBLK2
  1
OPEN
  9
$DIMSTYLE
  2
STANDARD
  9
$DIMCLRD
 70
   256
  9
$DIMCLRE
 70
   256
  9
$DIMCLRT
 70
   256
  9
$DIMTFAC
 40
1.0
  9
$DIMGAP
 40
1.0
  9
$DIMJUST
 70
     0
  9
$DIMSD1
 70
     0
  9
$DIMSD2
 70
     0
  9
$DIMTOLJ
 70
     1
  9
$DIMTZIN
 70
     0
  9
$DIMALTZ
 70
     0
  9
$DIMALTTZ
 70
     0
  9
$DIMFIT
 70
     3
  9
$DIMUPT
 70
     0
  9
$DIMUNIT
 70
     2
  9
$DIMDEC
 70
     0
  9
$DIMTDEC
 70
     0
  9
$DIMALTU
 70
     2
  9
$DIMALTTD
 70
     2
  9
$DIMTXSTY
  7
STANDARD
  9
$DIMAUNIT
 70
     0
  9
$LUNITS
 70
     2
  9
$LUPREC
 70
     4
  9
$SKETCHINC
 40
1.0
  9
$FILLETRAD
 40
0.8
  9
$AUNITS
 70
     0
  9
$AUPREC
 70
     0
  9
$MENU
  1
.
  9
$ELEVATION
 40
0.0
  9
$PELEVATION
 40
0.0
  9
$THICKNESS
 40
0.0
  9
$LIMCHECK
 70
     0
  9
$BLIPMODE
 70
     0
  9
$CHAMFERA
 40
10.0
  9
$CHAMFERB
 40
10.0
  9
$CHAMFERC
 40
20.0
  9
$CHAMFERD
 40
0.0
  9
$SKPOLY
 70
     0
  9
$TDCREATE
 40
2451070.697080092
  9
$TDUPDATE
 40
2453650.563069109
  9
$TDINDWG
 40
0.0547776968
  9
$TDUSRTIMER
 40
0.0547776968
  9
$USRTIMER
 70
     1
  9
$ANGBASE
 50
0.0
  9
$ANGDIR
 70
     0
  9
$PDMODE
 70
     0
  9
$PDSIZE
 40
0.0
  9
$PLINEWID
 40
0.0
  9
$COORDS
 70
     1
  9
$SPLFRAME
 70
     0
  9
$SPLINETYPE
 70
     6
  9
$SPLINESEGS
 70
     8
  9
$ATTDIA
 70
     0
  9
$ATTREQ
 70
     1
  9
$HANDLING
 70
 10241
  9
$HANDSEED
  5
602
  9
$SURFTAB1
 70
     6
  9
$SURFTAB2
 70
     6
  9
$SURFTYPE
 70
     6
  9
$SURFU
 70
     6
  9
$SURFV
 70
     6
  9
$UCSNAME
  2

  9
$UCSORG
 10
0.0
 20
0.0
 30
0.0
  9
$UCSXDIR
 10
1.0
 20
0.0
 30
0.0
  9
$UCSYDIR
 10
0.0
 20
1.0
 30
0.0
  9
$PUCSNAME
  2

  9
$PUCSORG
 10
0.0
 20
0.0
 30
0.0
  9
$PUCSXDIR
 10
1.0
 20
0.0
 30
0.0
  9
$PUCSYDIR
 10
0.0
 20
1.0
 30
0.0
  9
$USERI1
 70
     0
  9
$USERI2
 70
     0
  9
$USERI3
 70
     0
  9
$USERI4
 70
     0
  9
$USERI5
 70
     0
  9
$USERR1
 40
0.0
  9
$USERR2
 40
0.0
  9
$USERR3
 40
0.0
  9
$USERR4
 40
0.0
  9
$USERR5
 40
0.0
  9
$WORLDVIEW
 70
     1
  9
$SHADEDGE
 70
     3
  9
$SHADEDIF
 70
    70
  9
$TILEMODE
 70
     1
  9
$MAXACTVP
 70
    16
  9
$PINSBASE
 10
0.0
 20
0.0
 30
0.0
  9
$PLIMCHECK
 70
     0
  9
$PEXTMIN
 10
-0.0128164049386896
 20
-0.0090630292066862
 30
-0.0015258207003583
  9
$PEXTMAX
 10
420.0128183607161
 20
297.0090644122207
 30
0.0000000349246037
  9
$PLIMMIN
 10
-8.813939201064425
 20
-8.810187254301395
  9
$PLIMMAX
 10
436.0947963326184
 20
305.9370567897267
  9
$UNITMODE
 70
     0
  9
$VISRETAIN
 70
     0
  9
$PLINEGEN
 70
     0
  9
$PSLTSCALE
 70
     1
  9
$TREEDEPTH
 70
  3020
  9
$PICKSTYLE
 70
     1
  9
$CMLSTYLE
  2
STANDARD
  9
$CMLJUST
 70
     0
  9
$CMLSCALE
 40
1.0
  9
$SAVEIMAGES
 70
     1
  0
ENDSEC
  0
SECTION
  2
CLASSES
  0
CLASS
  1
ACDBDICTIONARYWDFLT
  2
AcDbDictionaryWithDefault
  3
AutoCAD 2000
 90
    32768
280
     0
281
     0
  0
CLASS
  1
ACDBPLACEHOLDER
  2
AcDbPlaceHolder
  3
AutoCAD 2000
 90
    32768
280
     0
281
     0
  0
CLASS
  1
LAYOUT
  2
AcDbLayout
  3
AutoCAD 2000
 90
    32768
280
     0
281
     0
  0
CLASS
  1
LONG_TRANSACTION
  2
AcDbLongTransaction
  3
AutoCAD 2000
 90
    32768
280
     0
281
     0
  0
CLASS
  1
LWPOLYLINE
  2
AcDbPolyline
  3
AutoCAD 2000
 90
    32768
280
     0
281
     1
  0
CLASS
  1
HATCH
  2
AcDbHatch
  3
AutoCAD 2000
 90
    32768
280
     0
281
     1
  0
CLASS
  1
XRECORD
  2
AcDbXrecord
  3
AutoCAD 2000
 90
    32768
280
     0
281
     0
  0
CLASS
  1
LONG_TRANSACTION
  2
AcDbLongTransaction
  3
AutoCAD 2000
 90
    32768
280
     0
281
     0
  0
CLASS
  1
LWPOLYLINE
  2
AcDbPolyline
  3
AutoCAD 2000
 90
    32768
280
     0
281
     1
  0
CLASS
  1
HATCH
  2
AcDbHatch
  3
AutoCAD 2000
 90
    32768
280
     0
281
     1
  0
CLASS
  1
XRECORD
  2
AcDbXrecord
  3
AutoCAD 2000
 90
    32768
280
     0
281
     0
  0
CLASS
  1
LONG_TRANSACTION
  2
AcDbLongTransaction
  3
AutoCAD 2000
 90
    32768
280
     0
281
     0
  0
CLASS
  1
LWPOLYLINE
  2
AcDbPolyline
  3
AutoCAD 2000
 90
    32768
280
     0
281
     1
  0
CLASS
  1
HATCH
  2
AcDbHatch
  3
AutoCAD 2000
 90
    32768
280
     0
281
     1
  0
CLASS
  1
XRECORD
  2
AcDbXrecord
  3
AutoCAD 2000
 90
    32768
280
     0
281
     0
  0
ENDSEC
  0
SECTION
  2
TABLES
  0
TABLE
  2
VPORT
  5
8
330
0
100
AcDbSymbolTable
 70
     2
  0
VPORT
  5
5F5
330
8
100
AcDbSymbolTableRecord
100
AcDbViewportTableRecord
  2
*ACTIVE
 70
     0
 10
0.0
 20
0.0
 11
1.0
 21
1.0
 12
210.0
 22
183.1896693881395
 13
0.0
 23
0.0
 14
5.0
 24
5.0
 15
0.0
 25
0.0
 16
0.0
 26
0.0
 36
1.0
 17
0.0
 27
0.0
 37
0.0
 40
369.9793387762789
 41
1.527918781725888
 42
50.0
 43
0.0
 44
0.0
 50
0.0
 51
0.0
 71
     0
 72
   100
 73
     1
 74
     0
 75
     0
 76
     0
 77
     0
 78
     0
  0
ENDTAB
  0
TABLE
  2
LTYPE
  5
5
330
0
100
AcDbSymbolTable
 70
     2
  0
LTYPE
  5
14
330
5
100
AcDbSymbolTableRecord
100
AcDbLinetypeTableRecord
  2
BYBLOCK
 70
     0
  3

 72
    65
 73
     0
 40
0.0
  0
LTYPE
  5
15
330
5
100
AcDbSymbolTableRecord
100
AcDbLinetypeTableRecord
  2
BYLAYER
 70
     0
  3

 72
    65
 73
     0
 40
0.0
  0
LTYPE
  5
16
330
5
100
AcDbSymbolTableRecord
100
AcDbLinetypeTableRecord
  2
CONTINUOUS
 70
     0
  3
Solid line
 72
    65
 73
     0
 40
0.0
  0
LTYPE
  5
120
330
5
100
AcDbSymbolTableRecord
100
AcDbLinetypeTableRecord
  2
CENTER
 70
     0
  3
____ _ ____ _ ____ _ ____ _ ____ _ ____ _ ____ 
 72
    65
 73
     4
 40
2.0
 49
1.25
 74
     0
 49
-0.25
 74
     0
 49
0.25
 74
     0
 49
-0.25
 74
     0
  0
ENDTAB
  0
TABLE
  2
LAYER
  5
2
330
0
100
AcDbSymbolTable
 70
     7
  0
LAYER
  5
F
330
2
100
AcDbSymbolTableRecord
100
AcDbLayerTableRecord
  2
0
 70
     0
 62
     7
  6
CONTINUOUS
  0
LAYER
  5
62
330
2
100
AcDbSymbolTableRecord
100
AcDbLayerTableRecord
  2
VIEWPORT
 70
     0
 62
     7
  6
CONTINUOUS
  0
LAYER
  5
6B
330
2
100
AcDbSymbolTableRecord
100
AcDbLayerTableRecord
  2
ZUWAKU
 70
     0
 62
     7
  6
CONTINUOUS
  0
LAYER
  5
134
330
2
100
AcDbSymbolTableRecord
100
AcDbLayerTableRecord
  2
SUNPOU
 70
     0
 62
     4
  6
CONTINUOUS
  0
LAYER
  5
135
330
2
100
AcDbSymbolTableRecord
100
AcDbLayerTableRecord
  2
CENTER_L
 70
     0
 62
     1
  6
CENTER
  0
LAYER
  5
136
330
2
100
AcDbSymbolTableRecord
100
AcDbLayerTableRecord
  2
SEIHIN
 70
     0
 62
     3
  6
CONTINUOUS
  0
LAYER
  5
147
330
2
100
AcDbSymbolTableRecord
100
AcDbLayerTableRecord
  2
DEFPOINTS
 70
     0
 62
     7
  6
CONTINUOUS
  0
ENDTAB
  0
TABLE
  2
STYLE
  5
3
330
0
100
AcDbSymbolTable
 70
     1
  0
STYLE
  5
10
330
3
100
AcDbSymbolTableRecord
100
AcDbTextStyleTableRecord
  2
STANDARD
 70
     0
 40
0.0
 41
1.0
 50
0.0
 71
     0
 42
2.5
  3
TXT
  4
bigfont.shx
  0
ENDTAB
  0
TABLE
  2
VIEW
  5
6
330
0
100
AcDbSymbolTable
 70
     0
  0
ENDTAB
  0
TABLE
  2
UCS
  5
7
330
0
100
AcDbSymbolTable
 70
     0
  0
ENDTAB
  0
TABLE
  2
APPID
  5
9
330
0
100
AcDbSymbolTable
 70
     1
  0
APPID
  5
11
330
9
100
AcDbSymbolTableRecord
100
AcDbRegAppTableRecord
  2
ACAD
 70
     0
  0
ENDTAB
  0
TABLE
  2
DIMSTYLE
  5
A
330
0
100
AcDbSymbolTable
 70
     1
  0
DIMSTYLE
105
1D
102
{ACAD_REACTORS
330
21E
330
2E7
330
2F4
330
301
330
343
330
350
330
41A
330
49E
330
4AB
102
}
330
A
100
AcDbSymbolTableRecord
100
AcDbDimStyleTableRecord
  2
STANDARD
 70
     0
  3

  4

  5

  6

  7

 40
1.0
 41
0.18
 42
0.0625
 43
0.38
 44
0.18
 45
0.0
 46
0.0
 47
0.0
 48
0.0
140
0.18
141
0.09
142
0.0
143
25.4
144
1.0
145
0.0
146
1.0
147
0.09
 71
     0
 72
     0
 73
     1
 74
     1
 75
     0
 76
     0
 77
     0
 78
     0
170
     0
171
     2
172
     0
173
     0
174
     0
175
     0
176
     0
177
     0
178
     0
270
     2
271
     4
272
     4
273
     2
274
     2
340
10
275
     0
280
     0
281
     0
282
     0
283
     1
284
     0
285
     0
286
     0
287
     3
288
     0
  0
ENDTAB
  0
TABLE
  2
BLOCK_RECORD
  5
1
330
0
100
AcDbSymbolTable
 70
    10
  0
BLOCK_RECORD
  5
1A
102
{ACAD_XDICTIONARY
360
53A
102
}
330
1
100
AcDbSymbolTableRecord
100
AcDbBlockTableRecord
  2
*MODEL_SPACE
  0
BLOCK_RECORD
  5
17
102
{ACAD_XDICTIONARY
360
538
102
}
330
1
100
AcDbSymbolTableRecord
100
AcDbBlockTableRecord
  2
*PAPER_SPACE
  0
BLOCK_RECORD
  5
B2
330
1
100
AcDbSymbolTableRecord
100
AcDbBlockTableRecord
  2
_OPEN
  0
BLOCK_RECORD
  5
2C2
330
1
100
AcDbSymbolTableRecord
100
AcDbBlockTableRecord
  2
*D1
  0
BLOCK_RECORD
  5
2DB
330
1
100
AcDbSymbolTableRecord
100
AcDbBlockTableRecord
  2
*D2
  0
BLOCK_RECORD
  5
2E8
330
1
100
AcDbSymbolTableRecord
100
AcDbBlockTableRecord
  2
*D3
  0
BLOCK_RECORD
  5
2F5
330
1
100
AcDbSymbolTableRecord
100
AcDbBlockTableRecord
  2
*D4
  0
BLOCK_RECORD
  5
337
330
1
100
AcDbSymbolTableRecord
100
AcDbBlockTableRecord
  2
*D5
  0
BLOCK_RECORD
  5
344
330
1
100
AcDbSymbolTableRecord
100
AcDbBlockTableRecord
  2
*D6
  0
BLOCK_RECORD
  5
41B
330
1
100
AcDbSymbolTableRecord
100
AcDbBlockTableRecord
  2
*D7
  0
BLOCK_RECORD
  5
49F
330
1
100
AcDbSymbolTableRecord
100
AcDbBlockTableRecord
  2
*D8
  0
BLOCK_RECORD
  5
4AC
330
1
100
AcDbSymbolTableRecord
100
AcDbBlockTableRecord
  2
*D9
  0
ENDTAB
  0
ENDSEC
  0
SECTION
  2
BLOCKS
  0
BLOCK
  5
1B
330
1A
100
AcDbEntity
  8
0
100
AcDbBlockBegin
  2
*MODEL_SPACE
 70
     0
 10
0.0
 20
0.0
 30
0.0
  3
*MODEL_SPACE
  1

  0
ENDBLK
  5
1C
330
1A
100
AcDbEntity
  8
0
100
AcDbBlockEnd
  0
BLOCK
  5
18
330
17
100
AcDbEntity
 67
     1
  8
0
100
AcDbBlockBegin
  2
*PAPER_SPACE
 70
     0
 10
0.0
 20
0.0
 30
0.0
  3
*PAPER_SPACE
  1

  0
ENDBLK
  5
19
330
17
100
AcDbEntity
 67
     1
  8
0
100
AcDbBlockEnd
  0
BLOCK
  5
B3
330
B2
100
AcDbEntity
  8
0
100
AcDbBlockBegin
  2
_OPEN
 70
     0
 10
0.0
 20
0.0
 30
0.0
  3
_OPEN
  1

  0
LINE
  5
B4
330
B2
100
AcDbEntity
  8
0
  6
BYBLOCK
 62
     0
100
AcDbLine
 10
-1.0
 20
0.1666666666666666
 30
0.0
 11
0.0
 21
0.0
 31
0.0
  0
LINE
  5
B5
330
B2
100
AcDbEntity
  8
0
  6
BYBLOCK
 62
     0
100
AcDbLine
 10
0.0
 20
0.0
 30
0.0
 11
-1.0
 21
-0.1666666666666666
 31
0.0
  0
LINE
  5
B6
330
B2
100
AcDbEntity
  8
0
  6
BYBLOCK
 62
     0
100
AcDbLine
 10
0.0
 20
0.0
 30
0.0
 11
-1.0
 21
0.0
 31
0.0
  0
ENDBLK
  5
B7
330
B2
100
AcDbEntity
  8
0
100
AcDbBlockEnd
  0
BLOCK
  5
2CE
330
2C2
100
AcDbEntity
  8
0
100
AcDbBlockBegin
  2
*D1
 70
     1
 10
0.0
 20
0.0
 30
0.0
  3
*D1
  1

  0
LINE
  5
565
330
2C2
100
AcDbEntity
  8
SUNPOU
  6
CONTINUOUS
 62
     4
100
AcDbLine
 10
89.41515446215673
 20
199.3707648573264
 30
0.0
 11
89.41515446215673
 21
218.8250703142892
 31
0.0
  0
LINE
  5
566
330
2C2
100
AcDbEntity
  8
SUNPOU
  6
CONTINUOUS
 62
     4
100
AcDbLine
 10
153.3151544621568
 20
199.3707648573264
 30
0.0
 11
153.3151544621568
 21
218.8250703142892
 31
0.0
  0
LINE
  5
567
330
2C2
100
AcDbEntity
  8
SUNPOU
  6
CONTINUOUS
 62
     4
100
AcDbLine
 10
92.41515446215672
 20
217.3250703142892
 30
0.0
 11
150.3151544621568
 21
217.3250703142892
 31
0.0
  0
INSERT
  5
568
330
2C2
100
AcDbEntity
  8
SUNPOU
  6
CONTINUOUS
 62
     4
100
AcDbBlockReference
  2
_OPEN
 10
89.41515446215673
 20
217.3250703142892
 30
0.0
 41
3.0
 42
3.0
 43
3.0
 50
180.0
  0
INSERT
  5
569
330
2C2
100
AcDbEntity
  8
SUNPOU
  6
CONTINUOUS
 62
     4
100
AcDbBlockReference
  2
_OPEN
 10
153.3151544621568
 20
217.3250703142892
 30
0.0
 41
3.0
 42
3.0
 43
3.0
  0
MTEXT
  5
56A
330
2C2
100
AcDbEntity
  8
SUNPOU
  6
CONTINUOUS
 62
     4
100
AcDbMText
 10
121.3651544621567
 20
219.8250703142892
 30
0.0
 40
3.0
 41
0.0
 71
     5
 72
     1
  1
\A1;64
1001
ACAD
1000
MTEXTBEGIN
1070
    73
1070
     1
1070
    44
1040
1.0
1070
    74
1070
     0
1000
MTEXTEND
1000
MTEXTBEGIN
1070
    73
1070
     1
1070
    44
1040
1.0
1070
    74
1070
     0
1000
MTEXTEND
  0
POINT
  5
56B
330
2C2
100
AcDbEntity
  8
DEFPOINTS
  6
CONTINUOUS
 62
     0
100
AcDbPoint
 10
89.41515446215673
 20
196.3707648573264
 30
0.0
  0
POINT
  5
56C
330
2C2
100
AcDbEntity
  8
DEFPOINTS
  6
CONTINUOUS
 62
     0
100
AcDbPoint
 10
153.3151544621568
 20
196.3707648573264
 30
0.0
  0
POINT
  5
56D
330
2C2
100
AcDbEntity
  8
DEFPOINTS
  6
CONTINUOUS
 62
     0
100
AcDbPoint
 10
153.3151544621568
 20
217.3250703142892
 30
0.0
  0
ENDBLK
  5
2D8
330
2C2
100
AcDbEntity
  8
0
100
AcDbBlockEnd
  0
BLOCK
  5
388
330
2DB
100
AcDbEntity
  8
0
100
AcDbBlockBegin
  2
*D2
 70
     1
 10
0.0
 20
0.0
 30
0.0
  3
*D2
  1

  0
LINE
  5
56E
330
2DB
100
AcDbEntity
  8
SUNPOU
  6
CONTINUOUS
 62
     4
100
AcDbLine
 10
86.41515446215672
 20
196.3707648573264
 30
0.0
 11
68.20871182540646
 21
196.3707648573264
 31
0.0
  0
LINE
  5
56F
330
2DB
100
AcDbEntity
  8
SUNPOU
  6
CONTINUOUS
 62
     4
100
AcDbLine
 10
86.41515446215672
 20
171.3707648573264
 30
0.0
 11
68.20871182540646
 21
171.3707648573264
 31
0.0
  0
LINE
  5
570
330
2DB
100
AcDbEntity
  8
SUNPOU
  6
CONTINUOUS
 62
     4
100
AcDbLine
 10
69.70871182540645
 20
193.3707648573264
 30
0.0
 11
69.70871182540645
 21
174.3707648573264
 31
0.0
  0
INSERT
  5
571
330
2DB
100
AcDbEntity
  8
SUNPOU
  6
CONTINUOUS
 62
     4
100
AcDbBlockReference
  2
_OPEN
 10
69.70871182540645
 20
196.3707648573264
 30
0.0
 41
3.0
 42
3.0
 43
3.0
 50
90.0
  0
INSERT
  5
572
330
2DB
100
AcDbEntity
  8
SUNPOU
  6
CONTINUOUS
 62
     4
100
AcDbBlockReference
  2
_OPEN
 10
69.70871182540645
 20
171.3707648573264
 30
0.0
 41
3.0
 42
3.0
 43
3.0
 50
270.0
  0
MTEXT
  5
573
330
2DB
100
AcDbEntity
  8
SUNPOU
  6
CONTINUOUS
 62
     4
100
AcDbMText
 10
67.20871182540642
 20
183.8707648573264
 30
0.0
 40
3.0
 41
0.0
 71
     5
 72
     1
  1
\A1;※ 25
 11
0.0000000000000001
 21
1.0
 31
0.0
1001
ACAD
1000
MTEXTBEGIN
1070
    73
1070
     1
1070
    44
1040
1.0
1070
    74
1070
     0
1000
MTEXTEND
1000
MTEXTBEGIN
1070
    73
1070
     1
1070
    44
1040
1.0
1070
    74
1070
     0
1000
MTEXTEND
  0
POINT
  5
574
330
2DB
100
AcDbEntity
  8
DEFPOINTS
  6
CONTINUOUS
 62
     0
100
AcDbPoint
 10
89.41515446215673
 20
196.3707648573264
 30
0.0
  0
POINT
  5
575
330
2DB
100
AcDbEntity
  8
DEFPOINTS
  6
CONTINUOUS
 62
     0
100
AcDbPoint
 10
89.41515446215673
 20
171.3707648573264
 30
0.0
  0
POINT
  5
576
330
2DB
100
AcDbEntity
  8
DEFPOINTS
  6
CONTINUOUS
 62
     0
100
AcDbPoint
 10
69.70871182540645
 20
171.3707648573264
 30
0.0
  0
ENDBLK
  5
392
330
2DB
100
AcDbEntity
  8
0
100
AcDbBlockEnd
  0
BLOCK
  5
2E9
330
2E8
100
AcDbEntity
  8
0
100
AcDbBlockBegin
  2
*D3
 70
     1
 10
0.0
 20
0.0
 30
0.0
  3
*D3
  1

  0
LINE
  5
577
330
2E8
100
AcDbEntity
  8
SUNPOU
  6
CONTINUOUS
 62
     4
100
AcDbLine
 10
86.41515446215672
 20
196.3707648573264
 30
0.0
 11
58.72935378819125
 21
196.3707648573264
 31
0.0
  0
LINE
  5
578
330
2E8
100
AcDbEntity
  8
SUNPOU
  6
CONTINUOUS
 62
     4
100
AcDbLine
 10
118.3631544621568
 20
146.8551648573263
 30
0.0
 11
58.72935378819125
 21
146.8551648573263
 31
0.0
  0
LINE
  5
579
330
2E8
100
AcDbEntity
  8
SUNPOU
  6
CONTINUOUS
 62
     4
100
AcDbLine
 10
60.22935378819125
 20
193.3707648573264
 30
0.0
 11
60.22935378819124
 21
149.8551648573263
 31
0.0
  0
INSERT
  5
57A
330
2E8
100
AcDbEntity
  8
SUNPOU
  6
CONTINUOUS
 62
     4
100
AcDbBlockReference
  2
_OPEN
 10
60.22935378819125
 20
196.3707648573264
 30
0.0
 41
3.0
 42
3.0
 43
3.0
 50
90.0
  0
INSERT
  5
57B
330
2E8
100
AcDbEntity
  8
SUNPOU
  6
CONTINUOUS
 62
     4
100
AcDbBlockReference
  2
_OPEN
 10
60.22935378819124
 20
146.8551648573263
 30
0.0
 41
3.0
 42
3.0
 43
3.0
 50
270.0
  0
MTEXT
  5
57C
330
2E8
100
AcDbEntity
  8
SUNPOU
  6
CONTINUOUS
 62
     4
100
AcDbMText
 10
57.72935378819122
 20
171.6129648573263
 30
0.0
 40
3.0
 41
0.0
 71
     5
 72
     1
  1
\A1;50
 11
0.0000000000000001
 21
1.0
 31
0.0
1001
ACAD
1000
MTEXTBEGIN
1070
    73
1070
     1
1070
    44
1040
1.0
1070
    74
1070
     0
1000
MTEXTEND
1000
MTEXTBEGIN
1070
    73
1070
     1
1070
    44
1040
1.0
1070
    74
1070
     0
1000
MTEXTEND
  0
POINT
  5
57D
330
2E8
100
AcDbEntity
  8
DEFPOINTS
  6
CONTINUOUS
 62
     0
100
AcDbPoint
 10
89.41515446215673
 20
196.3707648573264
 30
0.0
  0
POINT
  5
57E
330
2E8
100
AcDbEntity
  8
DEFPOINTS
  6
CONTINUOUS
 62
     0
100
AcDbPoint
 10
121.3631544621568
 20
146.8551648573263
 30
0.0
  0
POINT
  5
57F
330
2E8
100
AcDbEntity
  8
DEFPOINTS
  6
CONTINUOUS
 62
     0
100
AcDbPoint
 10
60.22935378819124
 20
146.8551648573263
 30
0.0
  0
ENDBLK
  5
2F3
330
2E8
100
AcDbEntity
  8
0
100
AcDbBlockEnd
  0
BLOCK
  5
367
330
2F5
100
AcDbEntity
  8
0
100
AcDbBlockBegin
  2
*D4
 70
     1
 10
0.0
 20
0.0
 30
0.0
  3
*D4
  1

  0
LINE
  5
580
330
2F5
100
AcDbEntity
  8
SUNPOU
  6
CONTINUOUS
 62
     4
100
AcDbLine
 10
153.5766155591605
 20
174.3593470318212
 30
0.0
 11
155.108851572176
 21
191.8726702369461
 31
0.0
  0
LINE
  5
581
330
2F5
100
AcDbEntity
  8
SUNPOU
  6
CONTINUOUS
 62
     4
100
AcDbLine
 10
183.4624368073085
 20
171.7446444389087
 30
0.0
 11
184.994672820324
 21
189.2579676440337
 31
0.0
  0
LINE
  5
582
330
2F5
100
AcDbEntity
  8
SUNPOU
  6
CONTINUOUS
 62
     4
100
AcDbLine
 10
157.9667001846884
 20
190.1169079216083
 30
0.0
 11
181.8753538005461
 21
188.0251461432264
 31
0.0
  0
INSERT
  5
583
330
2F5
100
AcDbEntity
  8
SUNPOU
  6
CONTINUOUS
 62
     4
100
AcDbBlockReference
  2
_OPEN
 10
154.9781163685433
 20
190.3783783288736
 30
0.0
 41
3.0
 42
3.0
 43
3.0
 50
174.9999390532223
  0
INSERT
  5
584
330
2F5
100
AcDbEntity
  8
SUNPOU
  6
CONTINUOUS
 62
     4
100
AcDbBlockReference
  2
_OPEN
 10
184.8639376166913
 20
187.7636757359611
 30
0.0
 41
3.0
 42
3.0
 43
3.0
 50
354.9999390532223
  0
MTEXT
  5
585
330
2F5
100
AcDbEntity
  8
SUNPOU
  6
CONTINUOUS
 62
     4
100
AcDbMText
 10
170.1389189986717
 20
191.5615135458716
 30
0.0
 40
3.0
 41
0.0
 71
     5
 72
     1
  1
\A1;※ 30
 11
0.9961946053817063
 21
-0.0871568024217637
 31
0.0
1001
ACAD
1000
MTEXTBEGIN
1070
    73
1070
     1
1070
    44
1040
1.0
1070
    74
1070
     0
1000
MTEXTEND
1000
MTEXTBEGIN
1070
    73
1070
     1
1070
    44
1040
1.0
1070
    74
1070
     0
1000
MTEXTEND
  0
POINT
  5
586
330
2F5
100
AcDbEntity
  8
DEFPOINTS
  6
CONTINUOUS
 62
     0
100
AcDbPoint
 10
153.3151451518952
 20
171.3707632156761
 30
0.0
  0
POINT
  5
587
330
2F5
100
AcDbEntity
  8
DEFPOINTS
  6
CONTINUOUS
 62
     0
100
AcDbPoint
 10
183.2009664000432
 20
168.7560606227636
 30
0.0
  0
POINT
  5
588
330
2F5
100
AcDbEntity
  8
DEFPOINTS
  6
CONTINUOUS
 62
     0
100
AcDbPoint
 10
184.8639376166913
 20
187.7636757359611
 30
0.0
  0
ENDBLK
  5
371
330
2F5
100
AcDbEntity
  8
0
100
AcDbBlockEnd
  0
BLOCK
  5
338
330
337
100
AcDbEntity
  8
0
100
AcDbBlockBegin
  2
*D5
 70
     1
 10
0.0
 20
0.0
 30
0.0
  3
*D5
  1

  0
LINE
  5
589
330
337
100
AcDbEntity
  8
SUNPOU
  6
CONTINUOUS
 62
     4
100
AcDbLine
 10
166.2656731582982
 20
170.2377034840764
 30
0.0
 11
209.7584092764083
 21
166.4324634283693
 31
0.0
  0
LINE
  5
58A
330
337
100
AcDbEntity
  8
SUNPOU
  6
CONTINUOUS
 62
     4
100
AcDbLine
 10
160.69625018442
 20
106.580893352025
 30
0.0
 11
204.1889863025302
 21
102.7756532963179
 31
0.0
  0
LINE
  5
58B
330
337
100
AcDbEntity
  8
SUNPOU
  6
CONTINUOUS
 62
     4
100
AcDbLine
 10
208.002642260685
 20
163.5746177036147
 30
0.0
 11
202.9561699321606
 21
105.8949743437493
 31
0.0
  0
INSERT
  5
58C
330
337
100
AcDbEntity
  8
SUNPOU
  6
CONTINUOUS
 62
     4
100
AcDbBlockReference
  2
_OPEN
 10
208.2641175833618
 20
166.5632010897077
 30
0.0
 41
3.0
 42
3.0
 43
3.0
 50
84.99984481716472
  0
INSERT
  5
58D
330
337
100
AcDbEntity
  8
SUNPOU
  6
CONTINUOUS
 62
     4
100
AcDbBlockReference
  2
_OPEN
 10
202.6946946094837
 20
102.9063909576563
 30
0.0
 41
3.0
 42
3.0
 43
3.0
 50
264.9998448171646
  0
MTEXT
  5
58E
330
337
100
AcDbEntity
  8
SUNPOU
  6
CONTINUOUS
 62
     4
100
AcDbMText
 10
202.9889199413453
 20
134.9526921259128
 30
0.0
 40
3.0
 41
0.0
 71
     5
 72
     1
  1
\A1;64
 11
0.0871584408922818
 21
0.9961944620309965
 31
0.0
1001
ACAD
1000
MTEXTBEGIN
1070
    73
1070
     1
1070
    44
1040
1.0
1070
    74
1070
     0
1000
MTEXTEND
1000
MTEXTBEGIN
1070
    73
1070
     1
1070
    44
1040
1.0
1070
    74
1070
     0
1000
MTEXTEND
  0
POINT
  5
58F
330
337
100
AcDbEntity
  8
DEFPOINTS
  6
CONTINUOUS
 62
     0
100
AcDbPoint
 10
163.2770897722052
 20
170.4991788067532
 30
0.0
  0
POINT
  5
590
330
337
100
AcDbEntity
  8
DEFPOINTS
  6
CONTINUOUS
 62
     0
100
AcDbPoint
 10
157.707666798327
 20
106.8423686747018
 30
0.0
  0
POINT
  5
591
330
337
100
AcDbEntity
  8
DEFPOINTS
  6
CONTINUOUS
 62
     0
100
AcDbPoint
 10
202.6946946094837
 20
102.9063909576563
 30
0.0
  0
ENDBLK
  5
342
330
337
100
AcDbEntity
  8
0
100
AcDbBlockEnd
  0
BLOCK
  5
345
330
344
100
AcDbEntity
  8
0
100
AcDbBlockBegin
  2
*D6
 70
     1
 10
0.0
 20
0.0
 30
0.0
  3
*D6
  1

  0
LINE
  5
592
330
344
100
AcDbEntity
  8
SUNPOU
  6
CONTINUOUS
 62
     4
100
AcDbLine
 10
249.4151544621568
 20
199.3707648573264
 30
0.0
 11
249.4151544621568
 21
218.8250703142892
 31
0.0
  0
LINE
  5
593
330
344
100
AcDbEntity
  8
SUNPOU
  6
CONTINUOUS
 62
     4
100
AcDbLine
 10
313.3114544621566
 20
199.3706648573264
 30
0.0
 11
313.3114544621566
 21
218.8250703142892
 31
0.0
  0
LINE
  5
594
330
344
100
AcDbEntity
  8
SUNPOU
  6
CONTINUOUS
 62
     4
100
AcDbLine
 10
252.4151544621568
 20
217.3250703142892
 30
0.0
 11
310.3114544621567
 21
217.3250703142892
 31
0.0
  0
INSERT
  5
595
330
344
100
AcDbEntity
  8
SUNPOU
  6
CONTINUOUS
 62
     4
100
AcDbBlockReference
  2
_OPEN
 10
249.4151544621568
 20
217.3250703142892
 30
0.0
 41
3.0
 42
3.0
 43
3.0
 50
180.0
  0
INSERT
  5
596
330
344
100
AcDbEntity
  8
SUNPOU
  6
CONTINUOUS
 62
     4
100
AcDbBlockReference
  2
_OPEN
 10
313.3114544621566
 20
217.3250703142892
 30
0.0
 41
3.0
 42
3.0
 43
3.0
  0
MTEXT
  5
597
330
344
100
AcDbEntity
  8
SUNPOU
  6
CONTINUOUS
 62
     4
100
AcDbMText
 10
281.3633044621567
 20
219.8250703142892
 30
0.0
 40
3.0
 41
0.0
 71
     5
 72
     1
  1
\A1;64
1001
ACAD
1000
MTEXTBEGIN
1070
    73
1070
     1
1070
    44
1040
1.0
1070
    74
1070
     0
1000
MTEXTEND
1000
MTEXTBEGIN
1070
    73
1070
     1
1070
    44
1040
1.0
1070
    74
1070
     0
1000
MTEXTEND
  0
POINT
  5
598
330
344
100
AcDbEntity
  8
DEFPOINTS
  6
CONTINUOUS
 62
     0
100
AcDbPoint
 10
249.4151544621568
 20
196.3707648573264
 30
0.0
  0
POINT
  5
599
330
344
100
AcDbEntity
  8
DEFPOINTS
  6
CONTINUOUS
 62
     0
100
AcDbPoint
 10
313.3114544621566
 20
196.3706648573264
 30
0.0
  0
POINT
  5
59A
330
344
100
AcDbEntity
  8
DEFPOINTS
  6
CONTINUOUS
 62
     0
100
AcDbPoint
 10
313.3114544621566
 20
217.3250703142892
 30
0.0
  0
ENDBLK
  5
34F
330
344
100
AcDbEntity
  8
0
100
AcDbBlockEnd
  0
BLOCK
  5
426
330
41B
100
AcDbEntity
  8
0
100
AcDbBlockBegin
  2
*D7
 70
     1
 10
0.0
 20
0.0
 30
0.0
  3
*D7
  1

  0
LINE
  5
5F8
330
41B
100
AcDbEntity
  8
SUNPOU
 62
     4
100
AcDbLine
 10
121.3631544621568
 20
128.3075890164816
 30
0.0
 11
121.3631544621568
 21
125.6604458673118
 31
0.0
  0
ARC
  5
5F9
330
41B
100
AcDbEntity
  8
SUNPOU
 62
     4
100
AcDbCircle
 10
121.3631544621568
 20
142.0958467044517
 30
0.0
 40
14.93540083713993
100
AcDbArc
 50
281.5281553127054
 51
343.4717364027798
  0
INSERT
  5
5FA
330
41B
100
AcDbEntity
  8
SUNPOU
 62
     4
100
AcDbBlockReference
  2
_OPEN
 10
121.3631544621568
 20
127.1604458673118
 30
0.0
 41
3.0
 42
3.0
 43
3.0
 50
185.7640776563527
  0
INSERT
  5
5FB
330
41B
100
AcDbEntity
  8
SUNPOU
 62
     4
100
AcDbBlockReference
  2
_OPEN
 10
136.2417191298422
 20
140.794112631938
 30
0.0
 41
3.0
 42
3.0
 43
3.0
 50
79.23581405913257
  0
MTEXT
  5
5FC
330
41B
100
AcDbEntity
  8
SUNPOU
 62
     4
100
AcDbMText
 10
129.7643808317805
 20
132.9274995542463
 30
0.0
 40
3.0
 41
0.0
 71
     5
 72
     1
  1
\A1;85°
 11
0.73727797521596
 21
0.6755895109172835
 31
0.0
  0
POINT
  5
5FD
330
41B
100
AcDbEntity
  8
DEFPOINTS
 62
     0
100
AcDbPoint
 10
128.4514929400548
 20
128.9496816442986
 30
0.0
  0
POINT
  5
5FE
330
41B
100
AcDbEntity
  8
DEFPOINTS
 62
     0
100
AcDbPoint
 10
121.3631544621568
 20
131.3075890164816
 30
0.0
  0
POINT
  5
5FF
330
41B
100
AcDbEntity
  8
DEFPOINTS
 62
     0
100
AcDbPoint
 10
114.7187102362323
 20
142.6771729032475
 30
0.0
  0
POINT
  5
600
330
41B
100
AcDbEntity
  8
DEFPOINTS
 62
     0
100
AcDbPoint
 10
193.6701533971897
 20
135.7696663035041
 30
0.0
  0
POINT
  5
601
330
41B
100
AcDbEntity
  8
DEFPOINTS
 62
     0
100
AcDbPoint
 10
121.3631544621568
 20
206.3707648573264
 30
0.0
  0
ENDBLK
  5
427
330
41B
100
AcDbEntity
  8
0
100
AcDbBlockEnd
  0
BLOCK
  5
4A9
330
49F
100
AcDbEntity
  8
0
100
AcDbBlockBegin
  2
*D8
 70
     1
 10
0.0
 20
0.0
 30
0.0
  3
*D8
  1

  0
LINE
  5
5A5
330
49F
100
AcDbEntity
  8
ZUWAKU
 62
     4
100
AcDbLine
 10
153.5766204745721
 20
174.359346601769
 30
0.0
 11
154.4622234722823
 21
184.4815194268582
 31
0.0
  0
LINE
  5
5A6
330
49F
100
AcDbEntity
  8
ZUWAKU
 62
     4
100
AcDbLine
 10
163.5385650948821
 20
173.4877621928462
 30
0.0
 11
164.4241680925923
 21
183.6099350179354
 31
0.0
  0
LINE
  5
5A7
330
49F
100
AcDbEntity
  8
ZUWAKU
 62
     4
100
AcDbLine
 10
157.3200691970369
 20
182.7257524111349
 30
0.0
 11
161.3048470451609
 21
182.3771186475658
 31
0.0
  0
INSERT
  5
5A8
330
49F
100
AcDbEntity
  8
ZUWAKU
 62
     4
100
AcDbBlockReference
  2
_OPEN
 10
154.3314858109439
 20
182.9872277338118
 30
0.0
 41
3.0
 42
3.0
 43
3.0
 50
174.9998448171647
  0
INSERT
  5
5A9
330
49F
100
AcDbEntity
  8
ZUWAKU
 62
     4
100
AcDbBlockReference
  2
_OPEN
 10
164.2934304312539
 20
182.1156433248889
 30
0.0
 41
3.0
 42
3.0
 43
3.0
 50
354.9998448171646
  0
MTEXT
  5
5AA
330
49F
100
AcDbEntity
  8
ZUWAKU
 62
     4
100
AcDbMText
 10
159.5303542233296
 20
185.0419216844279
 30
0.0
 40
3.0
 41
0.0
 71
     5
 72
     1
  1
\A1;10
 11
0.9961944620309965
 21
-0.0871584408922818
 31
0.0
1001
ACAD
1000
MTEXTBEGIN
1070
    73
1070
     1
1070
    44
1040
1.0
1070
    74
1070
     0
1000
MTEXTEND
1000
MTEXTBEGIN
1070
    73
1070
     1
1070
    44
1040
1.0
1070
    74
1070
     0
1000
MTEXTEND
  0
POINT
  5
5AB
330
49F
100
AcDbEntity
  8
DEFPOINTS
 62
     0
100
AcDbPoint
 10
153.3151451518952
 20
171.370763215676
 30
0.0
  0
POINT
  5
5AC
330
49F
100
AcDbEntity
  8
DEFPOINTS
 62
     0
100
AcDbPoint
 10
163.2770897722052
 20
170.4991788067532
 30
0.0
  0
POINT
  5
5AD
330
49F
100
AcDbEntity
  8
DEFPOINTS
 62
     0
100
AcDbPoint
 10
164.2934304312539
 20
182.1156433248889
 30
0.0
  0
ENDBLK
  5
4AA
330
49F
100
AcDbEntity
  8
0
100
AcDbBlockEnd
  0
BLOCK
  5
4B6
330
4AC
100
AcDbEntity
  8
0
100
AcDbBlockBegin
  2
*D9
 70
     1
 10
0.0
 20
0.0
 30
0.0
  3
*D9
  1

  0
LINE
  5
5AE
330
4AC
100
AcDbEntity
  8
ZUWAKU
 62
     4
100
AcDbLine
 10
121.1016815857255
 20
139.1072631043343
 30
0.0
 11
116.5361359616201
 21
86.92397371685769
 31
0.0
  0
LINE
  5
5AF
330
4AC
100
AcDbEntity
  8
ZUWAKU
 62
     4
100
AcDbLine
 10
160.2310473662001
 20
135.6838126701051
 30
0.0
 11
155.6655017420947
 21
83.50052328262851
 31
0.0
  0
LINE
  5
5B0
330
4AC
100
AcDbEntity
  8
ZUWAKU
 62
     4
100
AcDbLine
 10
119.6554559999532
 20
88.15679264048512
 30
0.0
 11
152.8076545801929
 21
85.25628795911849
 31
0.0
  0
INSERT
  5
5B1
330
4AC
100
AcDbEntity
  8
ZUWAKU
 62
     4
100
AcDbBlockReference
  2
_OPEN
 10
116.6668723998358
 20
88.41826551691639
 30
0.0
 41
3.0
 42
3.0
 43
3.0
 50
174.9998917154853
  0
INSERT
  5
5B2
330
4AC
100
AcDbEntity
  8
ZUWAKU
 62
     4
100
AcDbBlockReference
  2
_OPEN
 10
155.7962381803104
 20
84.99481508268722
 30
0.0
 41
3.0
 42
3.0
 43
3.0
 50
354.9998917154853
  0
MTEXT
  5
5B3
330
4AC
100
AcDbEntity
  8
ZUWAKU
 62
     4
100
AcDbMText
 10
136.4494493537658
 20
89.19702663323299
 30
0.0
 40
3.0
 41
0.0
 71
     5
 72
     1
  1
\A1;39
 11
0.9961945333724708
 21
-0.0871576254770914
 31
0.0
1001
ACAD
1000
MTEXTBEGIN
1070
    73
1070
     1
1070
    44
1040
1.0
1070
    74
1070
     0
1000
MTEXTEND
1000
MTEXTBEGIN
1070
    73
1070
     1
1070
    44
1040
1.0
1070
    74
1070
     0
1000
MTEXTEND
  0
POINT
  5
5B4
330
4AC
100
AcDbEntity
  8
DEFPOINTS
 62
     0
100
AcDbPoint
 10
121.3631544621568
 20
142.0958467044517
 30
0.0
  0
POINT
  5
5B5
330
4AC
100
AcDbEntity
  8
DEFPOINTS
 62
     0
100
AcDbPoint
 10
160.4925202426314
 20
138.6723962702225
 30
0.0
  0
POINT
  5
5B6
330
4AC
100
AcDbEntity
  8
DEFPOINTS
 62
     0
100
AcDbPoint
 10
155.7962381803104
 20
84.99481508268722
 30
0.0
  0
ENDBLK
  5
4B7
330
4AC
100
AcDbEntity
  8
0
100
AcDbBlockEnd
  0
ENDSEC
  0
SECTION
  2
ENTITIES
  0
LINE
  5
6C
330
1A
100
AcDbEntity
  8
ZUWAKU
  6
CONTINUOUS
 62
     7
100
AcDbLine
 10
403.0
 20
7.0
 30
0.0
 11
5.0
 21
7.0
 31
0.0
  0
LINE
  5
6D
330
1A
100
AcDbEntity
  8
ZUWAKU
  6
CONTINUOUS
 62
     7
100
AcDbLine
 10
5.0
 20
282.0
 30
0.0
 11
5.0
 21
7.0
 31
0.0
  0
LINE
  5
6E
330
1A
100
AcDbEntity
  8
ZUWAKU
  6
CONTINUOUS
 62
     7
100
AcDbLine
 10
403.0
 20
282.0
 30
0.0
 11
403.0
 21
7.0
 31
0.0
  0
LINE
  5
6F
330
1A
100
AcDbEntity
  8
ZUWAKU
  6
CONTINUOUS
 62
     7
100
AcDbLine
 10
403.0
 20
282.0
 30
0.0
 11
5.0
 21
282.0
 31
0.0
  0
LINE
  5
8E
330
1A
100
AcDbEntity
  8
ZUWAKU
 62
     7
 48
10.0
100
AcDbLine
 10
5.0
 20
13.0
 30
0.0
 11
403.0
 21
12.99999999999994
 31
0.0
  0
TEXT
  5
93
330
1A
100
AcDbEntity
  8
ZUWAKU
 62
     7
100
AcDbText
 10
8.003143713074223
 20
7.870178177610682
 30
0.0
 40
4.0
  1
品 種
100
AcDbText
  0
TEXT
  5
97
330
1A
100
AcDbEntity
  8
ZUWAKU
 62
     7
100
AcDbText
 10
107.7028028167073
 20
8.200497435100942
 30
0.0
 40
4.0
  1
品名・ｻ ｲ ｽﾞ
100
AcDbText
  0
LINE
  5
9A
330
1A
100
AcDbEntity
  8
ZUWAKU
 62
     7
 48
10.0
100
AcDbLine
 10
324.3551403257206
 20
6.999999999999836
 30
0.0
 11
324.3551403257206
 21
12.99999999999995
 31
0.0
  0
LINE
  5
9B
330
1A
100
AcDbEntity
  8
ZUWAKU
 62
     7
 48
10.0
100
AcDbLine
 10
307.142312366876
 20
6.999999999999836
 30
0.0
 11
307.142312366876
 21
12.99999999999995
 31
0.0
  0
TEXT
  5
9C
330
1A
100
AcDbEntity
  8
ZUWAKU
 62
     7
100
AcDbText
 10
310.1429253763237
 20
7.934661405801826
 30
0.0
 40
4.0
  1
品 番
100
AcDbText
  0
TEXT
  5
9E
330
1A
100
AcDbEntity
  8
ZUWAKU
 62
     7
 48
10.0
100
AcDbText
 10
322.9513761015196
 20
2.449000558492457
 30
0.0
 40
4.0
  1
積水化学工業株式会社  建材
100
AcDbText
  0
TEXT
  5
A1
330
1A
100
AcDbEntity
  8
ZUWAKU
 62
     7
100
AcDbText
 10
389.843492473331
 20
7.886151458996323
 30
0.0
 40
4.0
  1
1/1
100
AcDbText
  0
TEXT
  5
A2
330
1A
100
AcDbEntity
  8
ZUWAKU
 62
     7
100
AcDbText
 10
369.8225424558458
 20
7.729845637642938
 30
0.0
 40
4.0
  1
尺 度
100
AcDbText
  0
LINE
  5
A3
330
1A
100
AcDbEntity
  8
ZUWAKU
 62
     7
 48
10.0
100
AcDbLine
 10
366.8807110760169
 20
6.999999999999886
 30
0.0
 11
366.8807110760169
 21
12.99999999999994
 31
0.0
  0
TEXT
  5
A6
330
1A
100
AcDbEntity
  8
ZUWAKU
 62
     7
 48
10.0
100
AcDbText
 10
396.1622424237184
 20
2.480970960763784
 30
0.0
 40
4.0
  1
A3
100
AcDbText
  0
LINE
  5
F5
330
1A
100
AcDbEntity
  8
ZUWAKU
 62
     7
 48
10.0
100
AcDbLine
 10
22.25374857290876
 20
7.0
 30
0.0
 11
22.25374857290876
 21
13.0
 31
0.0
  0
LINE
  5
F6
330
1A
100
AcDbEntity
  8
ZUWAKU
 62
     7
 48
10.0
100
AcDbLine
 10
104.7316872784438
 20
7.0
 30
0.0
 11
104.7316872784438
 21
12.99999999999998
 31
0.0
  0
LINE
  5
F8
330
1A
100
AcDbEntity
  8
ZUWAKU
 62
     7
 48
10.0
100
AcDbLine
 10
138.0261803105822
 20
7.0
 30
0.0
 11
138.0261803105822
 21
12.99999999999998
 31
0.0
  0
LINE
  5
100
330
1A
100
AcDbEntity
  8
ZUWAKU
 62
     7
 48
10.0
100
AcDbLine
 10
384.3363149538092
 20
6.999999999999862
 30
0.0
 11
384.3363149538092
 21
12.99999999999994
 31
0.0
  0
LINE
  5
207
330
1A
100
AcDbEntity
  8
CENTER_L
  6
CENTER
 62
     1
 48
5.0
100
AcDbLine
 10
114.7187102362323
 20
142.6771729032475
 30
0.0
 11
193.6701533971898
 21
135.7696663035041
 31
0.0
  0
LINE
  5
208
330
1A
100
AcDbEntity
  8
SEIHIN
  6
CONTINUOUS
 62
     3
 48
5.0
100
AcDbLine
 10
178.9131799571924
 20
165.6177982339078
 30
0.0
 11
182.857473554401
 21
164.7708505914769
 31
0.0
  0
LINE
  5
209
330
1A
100
AcDbEntity
  8
SEIHIN
  6
CONTINUOUS
 62
     3
 48
5.0
100
AcDbLine
 10
182.8523991808312
 20
164.7719866957301
 30
0.0
 11
177.9804674142112
 21
109.0864969082515
 31
0.0
  0
LINE
  5
20A
330
1A
100
AcDbEntity
  8
SEIHIN
  6
CONTINUOUS
 62
     3
 48
5.0
100
AcDbLine
 10
178.0717645181353
 20
155.9754997968694
 30
0.0
 11
182.0160581153439
 21
155.1285521544385
 31
0.0
  0
LINE
  5
20B
330
1A
100
AcDbEntity
  8
CENTER_L
  6
CENTER
 62
     1
 48
5.0
100
AcDbLine
 10
121.3631544621568
 20
131.3075890164816
 30
0.0
 11
121.3631544621568
 21
206.3707648573264
 31
0.0
  0
LINE
  5
20C
330
1A
100
AcDbEntity
  8
SEIHIN
  6
CONTINUOUS
 62
     3
 48
5.0
100
AcDbLine
 10
163.2770897722052
 20
170.4991788067532
 30
0.0
 11
157.7076667983271
 21
106.8423686747019
 31
0.0
  0
LINE
  5
20F
330
1A
100
AcDbEntity
  8
SEIHIN
  6
CONTINUOUS
 62
     3
 48
5.0
100
AcDbLine
 10
178.9111061527796
 20
165.6180418222044
 30
0.0
 11
173.9518530773318
 21
108.9345265996667
 31
0.0
  0
TEXT
  5
210
330
1A
100
AcDbEntity
  8
ZUWAKU
 62
     7
100
AcDbText
 10
25.15073007242387
 20
8.160237806787449
 30
0.0
 40
4.0
  1
ライナートップ　たてとい
100
AcDbText
  0
TEXT
  5
213
330
1A
100
AcDbEntity
  8
ZUWAKU
 62
     7
100
AcDbText
 10
141.1313324528735
 20
7.9299153608506
 30
0.0
 40
4.0
  1
角々エルボ　Ｙ６０Ｈ－８５°
100
AcDbText
  0
LINE
  5
217
330
1A
100
AcDbEntity
  8
SEIHIN
  6
CONTINUOUS
 62
     3
 48
5.0
100
AcDbLine
 10
157.7076667983271
 20
106.8423686747019
 30
0.0
 11
144.1858395079031
 21
108.0253685228479
 31
0.0
  0
LINE
  5
218
330
1A
100
AcDbEntity
  8
SEIHIN
  6
CONTINUOUS
 62
     3
 48
5.0
100
AcDbLine
 10
158.0127517475424
 20
110.3290161294587
 30
0.0
 11
173.9518530773318
 21
108.9345265996667
 31
0.0
  0
LINE
  5
219
330
1A
100
AcDbEntity
  8
SEIHIN
  6
CONTINUOUS
 62
     3
 48
5.0
100
AcDbLine
 10
173.9201955642576
 20
108.937271024187
 30
0.0
 11
177.9604993706217
 21
109.0857176552668
 31
0.0
  0
LINE
  5
21A
330
1A
100
AcDbEntity
  8
SEIHIN
  6
CONTINUOUS
 62
     3
 48
5.0
100
AcDbLine
 10
158.4921022752818
 20
115.8080939790202
 30
0.0
 11
144.9698973379227
 21
116.9912178945114
 31
0.0
  0
LINE
  5
21B
330
1A
100
AcDbEntity
  8
SEIHIN
  6
CONTINUOUS
 62
     3
 48
5.0
100
AcDbLine
 10
174.7885827145538
 20
118.4980140396226
 30
0.0
 11
158.849481384764
 21
119.8925035694146
 31
0.0
  0
LINE
  5
21C
330
1A
100
AcDbEntity
  8
SEIHIN
  6
CONTINUOUS
 62
     3
 48
5.0
100
AcDbLine
 10
174.7491442585349
 20
118.4924815730056
 30
0.0
 11
178.7894480648993
 21
118.6409282040855
 31
0.0
  0
LINE
  5
21D
330
1A
100
AcDbEntity
  8
SEIHIN
  6
CONTINUOUS
 62
     3
 48
5.0
100
AcDbLine
 10
178.074376515558
 20
156.0545543822485
 30
0.0
 11
162.1352751857683
 21
157.4490439120405
 31
0.0
  0
DIMENSION
  5
21E
330
1A
100
AcDbEntity
  8
SUNPOU
  6
CONTINUOUS
 62
     4
100
AcDbDimension
  2
*D1
 10
153.3151544621568
 20
217.3250703142892
 30
0.0
 11
121.3651544621567
 21
219.8250703142892
 31
0.0
 70
    32
  3
STANDARD
100
AcDbAlignedDimension
 13
89.41515446215673
 23
196.3707648573264
 33
0.0
 14
153.3151544621568
 24
196.3707648573264
 34
0.0
100
AcDbRotatedDimension
1001
ACAD
1000
DSTYLE
1002
{
1070
   140
1040
3.0
1070
    74
1070
     0
1070
   172
1070
     1
1070
    73
1070
     0
1070
   272
1070
     2
1070
    77
1070
     3
1070
   173
1070
     1
1070
   147
1040
1.0
1070
    42
1040
3.0
1070
    44
1040
1.5
1070
    43
1040
7.0
1070
   271
1070
     0
1070
   178
1070
     4
1070
   177
1070
     4
1070
   176
1070
     4
1070
   141
1040
150.0
1070
     7
1000
_OPEN
1070
     6
1000
_OPEN
1070
    41
1040
3.0
1002
}
  0
LINE
  5
21F
330
1A
100
AcDbEntity
  8
SEIHIN
  6
CONTINUOUS
 62
     3
 48
5.0
100
AcDbLine
 10
89.41515446215673
 20
196.3707648573264
 30
0.0
 11
153.3151544621568
 21
196.3707648573264
 31
0.0
  0
LINE
  5
220
330
1A
100
AcDbEntity
  8
SEIHIN
  6
CONTINUOUS
 62
     3
 48
5.0
100
AcDbLine
 10
89.41515446215673
 20
196.3707648573264
 30
0.0
 11
89.41515446215673
 21
167.7970529989376
 31
0.0
  0
LINE
  5
221
330
1A
100
AcDbEntity
  8
SEIHIN
  6
CONTINUOUS
 62
     3
 48
5.0
100
AcDbLine
 10
98.41515446215673
 20
196.3707648573264
 30
0.0
 11
98.41515446215669
 21
167.7971200034146
 31
0.0
  0
LINE
  5
223
330
1A
100
AcDbEntity
  8
SEIHIN
  6
CONTINUOUS
 62
     3
 48
5.0
100
AcDbLine
 10
144.3151544621568
 20
196.3707648573264
 30
0.0
 11
144.3151544621568
 21
171.3707576504579
 31
0.0
  0
LINE
  5
224
330
1A
100
AcDbEntity
  8
SEIHIN
  6
CONTINUOUS
 62
     3
 48
5.0
100
AcDbLine
 10
124.8651544621568
 20
195.8707648573264
 30
0.0
 11
124.8651544621568
 21
191.3707648573264
 31
0.0
  0
LINE
  5
225
330
1A
100
AcDbEntity
  8
SEIHIN
  6
CONTINUOUS
 62
     3
 48
5.0
100
AcDbLine
 10
117.8612544621566
 20
195.8707648573264
 30
0.0
 11
117.8612544621566
 21
191.3707648573264
 31
0.0
  0
LINE
  5
226
330
1A
100
AcDbEntity
  8
SEIHIN
  6
CONTINUOUS
 62
     3
 48
5.0
100
AcDbLine
 10
117.8612544621566
 20
191.8707648573264
 30
0.0
 11
121.3612544621566
 21
191.8707648573264
 31
0.0
  0
LINE
  5
227
330
1A
100
AcDbEntity
  8
SEIHIN
  6
CONTINUOUS
 62
     3
 48
5.0
100
AcDbLine
 10
117.8612544621566
 20
191.3707648573264
 30
0.0
 11
121.3612544621566
 21
191.3707648573264
 31
0.0
  0
LINE
  5
228
330
1A
100
AcDbEntity
  8
SEIHIN
  6
CONTINUOUS
 62
     3
 48
5.0
100
AcDbLine
 10
124.8651544621568
 20
191.8707648573264
 30
0.0
 11
121.3651544621568
 21
191.8707648573264
 31
0.0
  0
LINE
  5
229
330
1A
100
AcDbEntity
  8
SEIHIN
  6
CONTINUOUS
 62
     3
 48
5.0
100
AcDbLine
 10
124.8651544621568
 20
191.3707648573264
 30
0.0
 11
121.3651544621568
 21
191.3707648573264
 31
0.0
  0
LINE
  5
22A
330
1A
100
AcDbEntity
  8
SEIHIN
  6
CONTINUOUS
 62
     3
 48
5.0
100
AcDbLine
 10
117.8612544621566
 20
195.8707648573264
 30
0.0
 11
121.3612544621566
 21
195.8707648573264
 31
0.0
  0
LINE
  5
22B
330
1A
100
AcDbEntity
  8
SEIHIN
  6
CONTINUOUS
 62
     3
 48
5.0
100
AcDbLine
 10
124.8651544621568
 20
195.8707648573264
 30
0.0
 11
121.3651544621568
 21
195.8707648573264
 31
0.0
  0
LINE
  5
22C
330
1A
100
AcDbEntity
  8
SEIHIN
  6
CONTINUOUS
 62
     3
 48
5.0
100
AcDbLine
 10
153.3151544621568
 20
196.3707648573264
 30
0.0
 11
153.3151544621568
 21
172.2870685879528
 31
0.0
  0
LINE
  5
22D
330
1A
100
AcDbEntity
  8
SEIHIN
  6
CONTINUOUS
 62
     3
 48
5.0
100
AcDbLine
 10
163.2770897722052
 20
170.4991788067532
 30
0.0
 11
154.2279984789711
 21
171.2908739108967
 31
0.0
  0
LINE
  5
22E
330
1A
100
AcDbEntity
  8
SEIHIN
  6
CONTINUOUS
 62
     3
 48
5.0
100
AcDbLine
 10
162.9720048229901
 20
167.0125313519964
 30
0.0
 11
178.9111061527796
 21
165.6180418222044
 31
0.0
  0
LINE
  5
22F
330
1A
100
AcDbEntity
  8
SEIHIN
  6
CONTINUOUS
 62
     3
 48
5.0
100
AcDbLine
 10
162.4926542952507
 20
161.5334535024347
 30
0.0
 11
152.5307541928965
 21
162.4050052437948
 31
0.0
  0
LINE
  5
231
330
1A
100
AcDbEntity
  8
SEIHIN
  6
CONTINUOUS
 62
     3
 48
5.0
100
AcDbLine
 10
153.3151544621568
 20
196.3707648573264
 30
0.0
 11
149.3151544621567
 21
196.3707648573264
 31
0.0
  0
LINE
  5
232
330
1A
100
AcDbEntity
  8
SEIHIN
  6
CONTINUOUS
 62
     3
 48
5.0
100
AcDbLine
 10
249.4151544621568
 20
196.3707648573264
 30
0.0
 11
249.4151544621567
 21
116.7954396467926
 31
0.0
  0
ARC
  5
237
330
1A
100
AcDbEntity
  8
SEIHIN
100
AcDbCircle
 10
251.7477546746565
 20
159.5446790783881
 30
0.0
 40
1.000000212500015
100
AcDbArc
 50
103.9278681248356
 51
180.0000155635246
  0
ARC
  5
23C
330
1A
100
AcDbEntity
  8
SEIHIN
100
AcDbCircle
 10
249.4151886341847
 20
170.4992130330398
 30
0.0
 40
8.999982422508896
100
AcDbArc
 50
275.829825931104
 51
354.2605899193876
  0
ARC
  5
23D
330
1A
100
AcDbEntity
  8
SEIHIN
100
AcDbCircle
 10
248.9797406547235
 20
170.7065643861926
 30
0.0
 40
10.49995768516079
100
AcDbArc
 50
283.9271501808606
 51
348.5616332301706
  0
LINE
  5
242
330
1A
100
AcDbEntity
  8
CENTER_L
  6
CENTER
 62
     1
 48
5.0
100
AcDbLine
 10
281.3632544621566
 20
204.3866648573262
 30
0.0
 11
281.3631544621566
 21
95.53566485732638
 31
0.0
  0
LINE
  5
243
330
1A
100
AcDbEntity
  8
SEIHIN
  6
CONTINUOUS
 62
     3
 48
5.0
100
AcDbLine
 10
252.8639544621567
 20
132.7408648573263
 30
0.0
 11
252.8639544621566
 21
160.9514634390822
 31
0.0
  0
LINE
  5
245
330
1A
100
AcDbEntity
  8
CENTER_L
  6
CENTER
 62
     1
 48
5.0
100
AcDbLine
 10
242.4308583064164
 20
136.9292418019908
 30
0.0
 11
320.2956583064164
 21
136.9292418019908
 31
0.0
  0
TEXT
  5
248
330
1A
100
AcDbEntity
  8
ZUWAKU
 62
     7
100
AcDbText
 10
327.1013476411085
 20
8.060146781246267
 30
0.0
 40
4.0
  1
ＰＦ３１
100
AcDbText
  0
LINE
  5
24F
330
1A
100
AcDbEntity
  8
SEIHIN
100
AcDbLine
 10
263.2631042339206
 20
110.0844766444609
 30
0.0
 11
263.2632042339206
 21
112.5390227741934
 31
0.0
  0
LINE
  5
26D
330
1A
100
AcDbEntity
  8
SEIHIN
  6
CONTINUOUS
 62
     3
 48
5.0
100
AcDbLine
 10
250.7476544621567
 20
137.0067648573264
 30
0.0
 11
250.7475578351412
 21
117.7423333971283
 31
0.0
  0
LINE
  5
26E
330
1A
100
AcDbEntity
  8
SEIHIN
  6
CONTINUOUS
 62
     3
 48
5.0
100
AcDbLine
 10
254.1808544621568
 20
132.7408648573263
 30
0.0
 11
254.1807313829918
 21
153.3779176682231
 31
0.0
  0
LINE
  5
26F
330
1A
100
AcDbEntity
  8
SEIHIN
  6
CONTINUOUS
 62
     3
 48
5.0
100
AcDbLine
 10
253.2755544621565
 20
132.7408648573263
 30
0.0
 11
253.2754314682108
 21
154.0642022387461
 31
0.0
  0
LINE
  5
270
330
1A
100
AcDbEntity
  8
SEIHIN
  6
CONTINUOUS
 62
     3
 48
5.0
100
AcDbLine
 10
261.0176671547404
 20
158.7150711454231
 30
0.0
 11
261.0175544621568
 21
117.0698648573264
 31
0.0
  0
ARC
  5
271
330
1A
100
AcDbEntity
  8
SEIHIN
100
AcDbCircle
 10
250.0656638599085
 20
107.9184554599994
 30
0.0
 40
13.99097789970766
100
AcDbArc
 50
22.23457682839358
 51
70.52864340027079
  0
LINE
  5
272
330
1A
100
AcDbEntity
  8
SEIHIN
  6
CONTINUOUS
 62
     3
 48
5.0
100
AcDbLine
 10
252.8640544621568
 20
132.7463648573264
 30
0.0
 11
252.8639859240131
 21
120.5933183103792
 31
0.0
  0
LINE
  5
273
330
1A
100
AcDbEntity
  8
SEIHIN
  6
CONTINUOUS
 62
     3
 48
5.0
100
AcDbLine
 10
254.1808544621568
 20
132.7462648573263
 30
0.0
 11
254.1807805700809
 21
120.3565588262984
 31
0.0
  0
LINE
  5
274
330
1A
100
AcDbEntity
  8
SEIHIN
  6
CONTINUOUS
 62
     3
 48
5.0
100
AcDbLine
 10
253.2755544621565
 20
132.7463648573264
 30
0.0
 11
253.2754797037035
 21
119.7854918499441
 31
0.0
  0
ARC
  5
27C
330
1A
100
AcDbEntity
  8
SEIHIN
100
AcDbCircle
 10
255.0037338966368
 20
121.8851939405835
 30
0.0
 40
0.822979434993894
100
AcDbArc
 50
180.0020247746312
 51
250.5322531920072
  0
LINE
  5
27E
330
1A
100
AcDbEntity
  8
SEIHIN
  6
CONTINUOUS
 62
     3
 48
5.0
100
AcDbLine
 10
250.7476544621567
 20
137.0067648573264
 30
0.0
 11
250.7477677501687
 21
159.5395239010371
 31
0.0
  0
LINE
  5
298
330
1A
100
AcDbEntity
  8
SEIHIN
  6
CONTINUOUS
 62
     3
 48
5.0
100
AcDbLine
 10
313.3114544621566
 20
196.3706648573264
 30
0.0
 11
281.3633544621568
 21
196.3707648573264
 31
0.0
  0
LINE
  5
299
330
1A
100
AcDbEntity
  8
SEIHIN
  6
CONTINUOUS
 62
     3
 48
5.0
100
AcDbLine
 10
249.4151544621568
 20
196.3707648573264
 30
0.0
 11
281.3632544621566
 21
196.3707648573264
 31
0.0
  0
LINE
  5
29A
330
1A
100
AcDbEntity
  8
SEIHIN
100
AcDbLine
 10
260.2513544621566
 20
169.4259788067533
 30
0.0
 11
302.4751391679637
 21
169.4259788067533
 31
0.0
  0
LINE
  5
29E
330
1A
100
AcDbEntity
  8
SEIHIN
100
AcDbLine
 10
259.3650544621567
 20
170.4991788067532
 30
0.0
 11
303.3613988614046
 21
170.4991788067532
 31
0.0
  0
LINE
  5
29F
330
1A
100
AcDbEntity
  8
SEIHIN
100
AcDbLine
 10
259.3651544621568
 20
171.3707648573264
 30
0.0
 11
303.3120998319261
 21
171.3707648573264
 31
0.0
  0
LINE
  5
2A1
330
1A
100
AcDbEntity
  8
SEIHIN
  6
CONTINUOUS
 62
     3
 48
5.0
100
AcDbLine
 10
258.4151544621568
 20
196.3707648573264
 30
0.0
 11
258.4151544621567
 21
171.3707376359427
 31
0.0
  0
ARC
  5
2A2
330
1A
100
AcDbEntity
  8
SEIHIN
100
AcDbCircle
 10
250.4308367843442
 20
160.5509592334869
 30
0.0
 40
0.9999823223790524
100
AcDbArc
 50
95.82463889301752
 51
179.9988785146157
  0
ARC
  5
2A3
330
1A
100
AcDbEntity
  8
SEIHIN
100
AcDbCircle
 10
260.251319335839
 20
168.4259500750789
 30
0.0
 40
1.000028732291432
100
AcDbArc
 50
89.9979874680781
 51
168.5610883028044
  0
ARC
  5
2A4
330
1A
100
AcDbEntity
  8
SEIHIN
100
AcDbCircle
 10
259.3650475525736
 20
169.4991725567924
 30
0.0
 40
1.000006249984755
100
AcDbArc
 50
89.9996041125223
 51
174.2605056144314
  0
ARC
  5
2A5
330
1A
100
AcDbEntity
  8
SEIHIN
100
AcDbCircle
 10
259.3651475525737
 20
170.3707586073655
 30
0.0
 40
1.000006249984812
100
AcDbArc
 50
89.99960411252592
 51
174.2605056144349
  0
LINE
  5
2AB
330
1A
100
AcDbEntity
  8
SEIHIN
  6
CONTINUOUS
 62
     3
 48
5.0
100
AcDbLine
 10
249.4151544621568
 20
195.8707648573264
 30
0.0
 11
247.4151544621566
 21
191.8707648573264
 31
0.0
  0
LINE
  5
2AC
330
1A
100
AcDbEntity
  8
SEIHIN
  6
CONTINUOUS
 62
     3
 48
5.0
100
AcDbLine
 10
247.4151544621566
 20
191.3707648573264
 30
0.0
 11
249.4151544621568
 21
191.3707648573264
 31
0.0
  0
LINE
  5
2AD
330
1A
100
AcDbEntity
  8
SEIHIN
  6
CONTINUOUS
 62
     3
 48
5.0
100
AcDbLine
 10
247.4151544621566
 20
191.8707648573264
 30
0.0
 11
247.4151544621566
 21
191.3707648573264
 31
0.0
  0
LINE
  5
2AE
330
1A
100
AcDbEntity
  8
SEIHIN
  6
CONTINUOUS
 62
     3
 48
5.0
100
AcDbLine
 10
304.3114544621567
 20
196.3707648573264
 30
0.0
 11
304.3114544621567
 21
171.3388456416533
 31
0.0
  0
LINE
  5
2BF
330
1A
100
AcDbEntity
  8
SEIHIN
  6
CONTINUOUS
 62
     3
 48
5.0
100
AcDbLine
 10
313.3114544621566
 20
195.8705648573263
 30
0.0
 11
315.3114544621568
 21
191.8705648573263
 31
0.0
  0
LINE
  5
2C0
330
1A
100
AcDbEntity
  8
SEIHIN
  6
CONTINUOUS
 62
     3
 48
5.0
100
AcDbLine
 10
315.3114544621568
 20
191.3706648573263
 30
0.0
 11
313.3114544621566
 21
191.3706648573263
 31
0.0
  0
LINE
  5
2C1
330
1A
100
AcDbEntity
  8
SEIHIN
  6
CONTINUOUS
 62
     3
 48
5.0
100
AcDbLine
 10
315.3114544621568
 20
191.8705648573263
 30
0.0
 11
315.3114544621568
 21
191.3706648573263
 31
0.0
  0
DIMENSION
  5
2E7
330
1A
100
AcDbEntity
  8
SUNPOU
  6
CONTINUOUS
 62
     4
100
AcDbDimension
  2
*D2
 10
69.70871182540645
 20
171.3707648573264
 30
0.0
 11
67.20871182540642
 21
183.8707648573264
 31
0.0
 70
    32
  1
※ <>
  3
STANDARD
100
AcDbAlignedDimension
 13
89.41515446215673
 23
196.3707648573264
 33
0.0
 14
89.41515446215673
 24
171.3707648573264
 34
0.0
 50
90.0
100
AcDbRotatedDimension
1001
ACAD
1000
DSTYLE
1002
{
1070
   140
1040
3.0
1070
    74
1070
     0
1070
   172
1070
     1
1070
    73
1070
     0
1070
   272
1070
     2
1070
    77
1070
     3
1070
   173
1070
     1
1070
   147
1040
1.0
1070
    42
1040
3.0
1070
    44
1040
1.5
1070
    43
1040
7.0
1070
   271
1070
     0
1070
   178
1070
     4
1070
   177
1070
     4
1070
   176
1070
     4
1070
   141
1040
150.0
1070
     7
1000
_OPEN
1070
     6
1000
_OPEN
1070
    41
1040
3.0
1002
}
  0
DIMENSION
  5
2F4
330
1A
100
AcDbEntity
  8
SUNPOU
  6
CONTINUOUS
 62
     4
100
AcDbDimension
  2
*D3
 10
60.22935378819124
 20
146.8551648573263
 30
0.0
 11
57.72935378819122
 21
171.6129648573263
 31
0.0
 70
    32
  3
STANDARD
100
AcDbAlignedDimension
 13
89.41515446215673
 23
196.3707648573264
 33
0.0
 14
121.3631544621568
 24
146.8551648573263
 34
0.0
 50
90.0
100
AcDbRotatedDimension
1001
ACAD
1000
DSTYLE
1002
{
1070
   140
1040
3.0
1070
    74
1070
     0
1070
   172
1070
     1
1070
    73
1070
     0
1070
   272
1070
     2
1070
    77
1070
     3
1070
   173
1070
     1
1070
   147
1040
1.0
1070
    42
1040
3.0
1070
    44
1040
1.5
1070
    43
1040
7.0
1070
   271
1070
     0
1070
   178
1070
     4
1070
   177
1070
     4
1070
   176
1070
     4
1070
   141
1040
150.0
1070
     7
1000
_OPEN
1070
     6
1000
_OPEN
1070
    41
1040
3.0
1002
}
  0
DIMENSION
  5
301
330
1A
100
AcDbEntity
  8
SUNPOU
  6
CONTINUOUS
 62
     4
100
AcDbDimension
  2
*D4
 10
184.8639376166913
 20
187.7636757359611
 30
0.0
 11
170.1389189986717
 21
191.5615135458716
 31
0.0
 70
    33
  1
※ <>
  3
STANDARD
100
AcDbAlignedDimension
 13
153.3151451518952
 23
171.3707632156761
 33
0.0
 14
183.2009664000432
 24
168.7560606227636
 34
0.0
1001
ACAD
1000
DSTYLE
1002
{
1070
   140
1040
3.0
1070
    74
1070
     0
1070
   172
1070
     1
1070
    73
1070
     0
1070
   272
1070
     2
1070
    77
1070
     3
1070
   173
1070
     1
1070
   147
1040
1.0
1070
    42
1040
3.0
1070
    44
1040
1.5
1070
    43
1040
7.0
1070
   271
1070
     0
1070
   178
1070
     4
1070
   177
1070
     4
1070
   176
1070
     4
1070
   141
1040
150.0
1070
     7
1000
_OPEN
1070
     6
1000
_OPEN
1070
    41
1040
3.0
1002
}
  0
DIMENSION
  5
343
330
1A
100
AcDbEntity
  8
SUNPOU
  6
CONTINUOUS
 62
     4
100
AcDbDimension
  2
*D5
 10
202.6946946094837
 20
102.9063909576563
 30
0.0
 11
202.9889199413453
 21
134.9526921259128
 31
0.0
 70
    33
  3
STANDARD
100
AcDbAlignedDimension
 13
163.2770897722052
 23
170.4991788067532
 33
0.0
 14
157.7076667983271
 24
106.8423686747019
 34
0.0
1001
ACAD
1000
DSTYLE
1002
{
1070
   140
1040
3.0
1070
    74
1070
     0
1070
   172
1070
     1
1070
    73
1070
     0
1070
   272
1070
     2
1070
    77
1070
     3
1070
   173
1070
     1
1070
   147
1040
1.0
1070
    42
1040
3.0
1070
    44
1040
1.5
1070
    43
1040
7.0
1070
   271
1070
     0
1070
   178
1070
     4
1070
   177
1070
     4
1070
   176
1070
     4
1070
   141
1040
150.0
1070
     7
1000
_OPEN
1070
     6
1000
_OPEN
1070
    41
1040
3.0
1002
}
  0
DIMENSION
  5
350
330
1A
100
AcDbEntity
  8
SUNPOU
  6
CONTINUOUS
 62
     4
100
AcDbDimension
  2
*D6
 10
313.3114544621566
 20
217.3250703142892
 30
0.0
 11
281.3633044621567
 21
219.8250703142892
 31
0.0
 70
    32
  3
STANDARD
100
AcDbAlignedDimension
 13
249.4151544621568
 23
196.3707648573264
 33
0.0
 14
313.3114544621566
 24
196.3706648573264
 34
0.0
100
AcDbRotatedDimension
1001
ACAD
1000
DSTYLE
1002
{
1070
   140
1040
3.0
1070
    74
1070
     0
1070
   172
1070
     1
1070
    73
1070
     0
1070
   272
1070
     2
1070
    77
1070
     3
1070
   173
1070
     1
1070
   147
1040
1.0
1070
    42
1040
3.0
1070
    44
1040
1.5
1070
    43
1040
7.0
1070
   271
1070
     0
1070
   178
1070
     4
1070
   177
1070
     4
1070
   176
1070
     4
1070
   141
1040
150.0
1070
     7
1000
_OPEN
1070
     6
1000
_OPEN
1070
    41
1040
3.0
1002
}
  0
TEXT
  5
393
330
1A
100
AcDbEntity
  8
SUNPOU
  6
CONTINUOUS
 62
     4
100
AcDbText
 10
280.733614248973
 20
26.36246429608633
 30
0.0
 40
4.0
  1
※　たてといの差込み寸法を示す。
100
AcDbText
  0
ARC
  5
416
330
1A
100
AcDbEntity
  8
SEIHIN
  6
CONTINUOUS
 62
     3
 48
5.0
100
AcDbCircle
 10
153.3151544621568
 20
171.3707576504579
 30
0.0
 40
9.0
100
AcDbArc
 50
180.0
 51
265.0000090455741
  0
ARC
  5
417
330
1A
100
AcDbEntity
  8
SEIHIN
  6
CONTINUOUS
 62
     3
 48
5.0
100
AcDbCircle
 10
149.4151544621566
 20
167.7971200034146
 30
0.0
 40
51.0
100
AcDbArc
 50
179.9999999999999
 51
264.9996456148746
  0
ARC
  5
418
330
1A
100
AcDbEntity
  8
SEIHIN
  6
CONTINUOUS
 62
     3
 48
5.0
100
AcDbCircle
 10
149.4151544621567
 20
167.7970529989376
 30
0.0
 40
60.0
100
AcDbArc
 50
180.0
 51
265.000028384055
  0
DIMENSION
  5
41A
330
1A
100
AcDbEntity
  8
SUNPOU
100
AcDbDimension
  2
*D7
 10
121.3631544621568
 20
206.3707648573264
 30
0.0
 11
129.7643808317805
 21
132.9274995542463
 31
0.0
 70
    34
  3
STANDARD
100
AcDb2LineAngularDimension
 13
114.7187102362323
 23
142.6771729032475
 33
0.0
 14
193.6701533971898
 24
135.7696663035041
 34
0.0
 15
121.3631544621568
 25
131.3075890164816
 35
0.0
 16
128.4514929400548
 26
128.9496816442986
 36
0.0
1001
ACAD
1000
DSTYLE
1002
{
1070
   271
1070
     0
1070
   271
1070
     0
1070
   271
1070
     0
1070
    41
1040
3.0
1070
    42
1040
3.0
1070
    43
1040
7.0
1070
    44
1040
1.5
1070
    73
1070
     0
1070
    74
1070
     0
1070
    77
1070
     3
1070
   140
1040
3.0
1070
   141
1040
150.0
1070
   147
1040
1.0
1070
   172
1070
     1
1070
   173
1070
     1
1070
   176
1070
     4
1070
   177
1070
     4
1070
   178
1070
     4
1070
   271
1070
     0
1070
   272
1070
     2
1070
   341
1005
B2
1070
     6
1000
OPEN
1070
     7
1000
OPEN
1002
}
  0
LINE
  5
428
330
1A
100
AcDbEntity
  8
SEIHIN
100
AcDbLine
 10
263.1081108462907
 20
165.6180418222044
 30
0.0
 11
299.6183268455307
 21
165.6180418222044
 31
0.0
  0
ARC
  5
42B
330
1A
100
AcDbEntity
  8
SEIHIN
100
AcDbCircle
 10
251.4248328794938
 20
167.0569434725677
 30
0.0
 40
11.09586754505307
100
AcDbArc
 50
280.8493227871894
 51
349.1517557812837
  0
LINE
  5
42C
330
1A
100
AcDbEntity
  8
SEIHIN
100
AcDbLine
 10
263.2174415961932
 20
164.7710941797735
 30
0.0
 11
299.5089888728303
 21
164.7710941797735
 31
0.0
  0
ARC
  5
432
330
1A
100
AcDbEntity
  8
SEIHIN
100
AcDbCircle
 10
251.7086429364249
 20
165.4198005791142
 30
0.0
 40
10.79962054649123
100
AcDbArc
 50
281.7733172056566
 51
352.8254482291802
  0
ARC
  5
433
330
1A
100
AcDbEntity
  8
SEIHIN
100
AcDbCircle
 10
251.4421736007625
 20
165.2619116063103
 30
0.0
 40
11.59962054649123
100
AcDbArc
 50
286.5813429082304
 51
349.3671961453439
  0
LINE
  5
436
330
1A
100
AcDbEntity
  8
SEIHIN
100
AcDbLine
 10
263.6288910432967
 20
163.7740069595207
 30
0.0
 11
299.0975356732004
 21
163.7740069595207
 31
0.0
  0
ARC
  5
43A
330
1A
100
AcDbEntity
  8
SEIHIN
100
AcDbCircle
 10
254.0754314681975
 20
154.0642068531813
 30
0.0
 40
0.8
100
AcDbArc
 50
101.7733172056569
 51
180.000330484573
  0
ARC
  5
43B
330
1A
100
AcDbEntity
  8
SEIHIN
100
AcDbCircle
 10
263.2174415961932
 20
163.9710941797735
 30
0.0
 40
0.8
100
AcDbArc
 50
90.0
 51
172.8254482291809
  0
ARC
  5
43C
330
1A
100
AcDbEntity
  8
SEIHIN
100
AcDbCircle
 10
263.1081108462907
 20
164.8180418222044
 30
0.0
 40
0.8
100
AcDbArc
 50
90.0
 51
169.1517557812836
  0
ARC
  5
43D
330
1A
100
AcDbEntity
  8
SEIHIN
100
AcDbCircle
 10
253.6639544621567
 20
155.373707654204
 30
0.0
 40
0.8
100
AcDbArc
 50
100.849322787189
 51
180.0
  0
LINE
  5
43F
330
1A
100
AcDbEntity
  8
SEIHIN
100
AcDbLine
 10
263.2174415961932
 20
109.0873894242081
 30
0.0
 11
299.5161973723721
 21
109.0873894242081
 31
0.0
  0
LINE
  5
440
330
1A
100
AcDbEntity
  8
SEIHIN
100
AcDbLine
 10
263.2632042339206
 20
110.0844766444609
 30
0.0
 11
299.4704273514718
 21
110.0844766444609
 31
0.0
  0
ARC
  5
441
330
1A
100
AcDbEntity
  8
SEIHIN
100
AcDbCircle
 10
263.2174415961932
 20
109.8873894242081
 30
0.0
 40
0.8
100
AcDbArc
 50
187.174551770819
 51
270.0
  0
ARC
  5
442
330
1A
100
AcDbEntity
  8
SEIHIN
100
AcDbCircle
 10
263.2632042339206
 20
110.8844766444609
 30
0.0
 40
0.8
100
AcDbArc
 50
190.6328038546562
 51
270.0
  0
ARC
  5
443
330
1A
100
AcDbEntity
  8
SEIHIN
100
AcDbCircle
 10
251.0764867913865
 20
108.5965719976713
 30
0.0
 40
11.59962054649123
100
AcDbArc
 50
10.63280385465613
 51
71.64715384781918
  0
ARC
  5
444
330
1A
100
AcDbEntity
  8
SEIHIN
100
AcDbCircle
 10
251.7086429364249
 20
108.4386830248674
 30
0.0
 40
10.79962054649123
100
AcDbArc
 50
7.174551770819824
 51
78.2266827943434
  0
ARC
  5
445
330
1A
100
AcDbEntity
  8
SEIHIN
100
AcDbCircle
 10
254.0754314681975
 20
119.7942767508003
 30
0.0
 40
0.8
100
AcDbArc
 50
179.9996695154269
 51
258.2266827943429
  0
ARC
  5
446
330
1A
100
AcDbEntity
  8
SEIHIN
100
AcDbCircle
 10
254.9807306967041
 20
120.3654916262846
 30
0.0
 40
0.8
100
AcDbArc
 50
179.9996582885757
 51
251.647153847819
  0
ARC
  5
44E
330
1A
100
AcDbEntity
  8
SEIHIN
  6
CONTINUOUS
 62
     3
 48
5.0
100
AcDbCircle
 10
154.3151544621568
 20
172.2870685879528
 30
0.0
 40
1.0
100
AcDbArc
 50
180.0
 51
264.9999861712914
  0
ARC
  5
450
330
1A
100
AcDbEntity
  8
SEIHIN
100
AcDbCircle
 10
254.9807313829776
 20
153.3779224394147
 30
0.0
 40
0.8
100
AcDbArc
 50
106.581342908231
 51
180.0003417114242
  0
ARC
  5
451
330
1A
100
AcDbEntity
  8
SEIHIN
100
AcDbCircle
 10
263.6288910432967
 20
162.9740069595207
 30
0.0
 40
0.8
100
AcDbArc
 50
90.0
 51
169.3671961453437
  0
LINE
  5
453
330
1A
100
AcDbEntity
  8
SEIHIN
100
AcDbLine
 10
262.3540902136995
 20
169.4259788067533
 30
0.0
 11
262.3540799725676
 21
165.6413992499292
 31
0.0
  0
LINE
  5
455
330
1A
100
AcDbEntity
  8
SEIHIN
100
AcDbLine
 10
259.1824605520873
 20
106.8456137336919
 30
0.0
 11
303.5357956526538
 21
106.8456137336919
 31
0.0
  0
ARC
  5
456
330
1A
100
AcDbEntity
  8
SEIHIN
100
AcDbCircle
 10
249.4151886341847
 20
106.8455795074053
 30
0.0
 40
8.999982422508896
100
AcDbArc
 50
4.682626054256646
 51
84.2610161787914
  0
LINE
  5
458
330
1A
100
AcDbEntity
  8
SEIHIN
100
AcDbLine
 10
260.2513544621566
 20
107.9188137336917
 30
0.0
 11
302.4662060753433
 21
107.9188137336917
 31
0.0
  0
ARC
  5
459
330
1A
100
AcDbEntity
  8
SEIHIN
100
AcDbCircle
 10
248.9797406547235
 20
106.6382281542525
 30
0.0
 40
10.49995768516079
100
AcDbArc
 50
11.43836676982936
 51
76.07284981913934
  0
ARC
  5
45A
330
1A
100
AcDbEntity
  8
SEIHIN
100
AcDbCircle
 10
260.251319335839
 20
108.9188424653662
 30
0.0
 40
1.000028732291432
100
AcDbArc
 50
191.4389116971955
 51
270.0020125319218
  0
ARC
  5
45B
330
1A
100
AcDbEntity
  8
SEIHIN
100
AcDbCircle
 10
251.7477546746565
 20
117.8001134620569
 30
0.0
 40
1.000000212500015
100
AcDbArc
 50
179.9999844364753
 51
256.0721318751642
  0
ARC
  5
45D
330
1A
100
AcDbEntity
  8
SEIHIN
100
AcDbCircle
 10
259.1824605520873
 20
107.6456137336918
 30
0.0
 40
0.8
100
AcDbArc
 50
184.6826260542562
 51
270.0
  0
ARC
  5
460
330
1A
100
AcDbEntity
  8
SEIHIN
100
AcDbCircle
 10
250.4151544621567
 20
116.7954396467926
 30
0.0
 40
1.0
100
AcDbArc
 50
180.0
 51
264.2610161787917
  0
ARC
  5
462
330
1A
100
AcDbEntity
  8
SEIHIN
100
AcDbCircle
 10
253.8639828023277
 20
120.5958169822359
 30
0.0
 40
1.0
100
AcDbArc
 50
179.9996768755594
 51
233.9491454053728
  0
LINE
  5
466
330
1A
100
AcDbEntity
  8
SEIHIN
100
AcDbLine
 10
263.9419485772577
 20
112.5910334306041
 30
0.0
 11
298.7923946200839
 21
112.5910334306041
 31
0.0
  0
ARC
  5
467
330
1A
100
AcDbEntity
  8
SEIHIN
100
AcDbCircle
 10
263.9419485772577
 20
113.5910334306041
 30
0.0
 40
1.0
100
AcDbArc
 50
202.2345768283943
 51
270.0
  0
LINE
  5
468
330
1A
100
AcDbEntity
  8
SEIHIN
  6
CONTINUOUS
 62
     3
 48
5.0
100
AcDbLine
 10
301.7087578537385
 20
158.7150337630465
 30
0.0
 11
301.7087940285019
 21
117.0698274748131
 31
0.0
  0
LINE
  5
469
330
1A
100
AcDbEntity
  8
SEIHIN
  6
CONTINUOUS
 62
     3
 48
5.0
100
AcDbLine
 10
309.8624228219765
 20
132.7408124935737
 30
0.0
 11
309.8624746553976
 21
160.951411075282
 31
0.0
  0
LINE
  5
46A
330
1A
100
AcDbEntity
  8
SEIHIN
  6
CONTINUOUS
 62
     3
 48
5.0
100
AcDbLine
 10
308.5455228219787
 20
132.7408149132115
 30
0.0
 11
308.5456838191284
 21
153.3778677238474
 31
0.0
  0
LINE
  5
46B
330
1A
100
AcDbEntity
  8
SEIHIN
  6
CONTINUOUS
 62
     3
 48
5.0
100
AcDbLine
 10
311.9787306600268
 20
137.0067086051319
 30
0.0
 11
311.9786587731209
 21
159.5394676490128
 31
0.0
  0
LINE
  5
46C
330
1A
100
AcDbEntity
  8
SEIHIN
  6
CONTINUOUS
 62
     3
 48
5.0
100
AcDbLine
 10
309.4508228219773
 20
132.7408132498368
 30
0.0
 11
309.4509849948693
 21
154.0641506309947
 31
0.0
  0
LINE
  5
46D
330
1A
100
AcDbEntity
  8
SEIHIN
  6
CONTINUOUS
 62
     3
 48
5.0
100
AcDbLine
 10
309.8623228320821
 20
132.7463124937575
 30
0.0
 11
309.8623690405336
 21
120.5932659467049
 31
0.0
  0
LINE
  5
46E
330
1A
100
AcDbEntity
  8
SEIHIN
  6
CONTINUOUS
 62
     3
 48
5.0
100
AcDbLine
 10
311.9787306600268
 20
137.0067086051319
 30
0.0
 11
311.9787918910763
 21
117.7422771447888
 31
0.0
  0
LINE
  5
46F
330
1A
100
AcDbEntity
  8
SEIHIN
  6
CONTINUOUS
 62
     3
 48
5.0
100
AcDbLine
 10
308.5455228319005
 20
132.7462149132115
 30
0.0
 11
308.5455739594523
 21
120.3565088820687
 31
0.0
  0
LINE
  5
470
330
1A
100
AcDbEntity
  8
SEIHIN
  6
CONTINUOUS
 62
     3
 48
5.0
100
AcDbLine
 10
309.4508228320829
 20
132.7463132498369
 30
0.0
 11
309.4508737765645
 21
119.7854402423391
 31
0.0
  0
ARC
  5
471
330
1A
100
AcDbEntity
  8
SEIHIN
100
AcDbCircle
 10
312.6606678161697
 20
107.9183979547822
 30
0.0
 40
13.99097789970766
100
AcDbArc
 50
109.4712513259521
 51
157.7653178978294
  0
ARC
  5
472
330
1A
100
AcDbEntity
  8
SEIHIN
100
AcDbCircle
 10
311.0176896955087
 20
108.4386285384165
 30
0.0
 40
10.79962054649123
100
AcDbArc
 50
101.7732119318795
 51
172.8253429554031
  0
ARC
  5
473
330
1A
100
AcDbEntity
  8
SEIHIN
100
AcDbCircle
 10
313.3111410706181
 20
106.8455208070236
 30
0.0
 40
8.999982422508896
100
AcDbArc
 50
95.7388785474316
 51
175.3172686719663
  0
ARC
  5
474
330
1A
100
AcDbEntity
  8
SEIHIN
100
AcDbCircle
 10
302.4750141783414
 20
108.9188036750061
 30
0.0
 40
1.000028732291432
100
AcDbArc
 50
269.9978821943011
 51
348.5609830290274
  0
ARC
  5
475
330
1A
100
AcDbEntity
  8
SEIHIN
100
AcDbCircle
 10
313.7465886690965
 20
106.6381686537904
 30
0.0
 40
10.49995768516079
100
AcDbArc
 50
103.9270449070836
 51
168.5615279563936
  0
ARC
  5
476
330
1A
100
AcDbEntity
  8
SEIHIN
100
AcDbCircle
 10
311.6498461306471
 20
108.5965163497128
 30
0.0
 40
11.59962054649123
100
AcDbArc
 50
108.3527408784037
 51
169.3670908715668
  0
ARC
  5
477
330
1A
100
AcDbEntity
  8
SEIHIN
100
AcDbCircle
 10
303.5438706226941
 20
107.6455729794405
 30
0.0
 40
0.8
100
AcDbArc
 50
269.999894726223
 51
355.3172686719668
  0
ARC
  5
478
330
1A
100
AcDbEntity
  8
SEIHIN
100
AcDbCircle
 10
310.9785951577263
 20
117.800059047453
 30
0.0
 40
1.000000212500015
100
AcDbArc
 50
283.9277628510586
 51
359.9999102897477
  0
ARC
  5
479
330
1A
100
AcDbEntity
  8
SEIHIN
100
AcDbCircle
 10
312.3111935242623
 20
116.7953827837054
 30
0.0
 40
1.0
100
AcDbArc
 50
275.7388785474312
 51
359.999894726223
  0
ARC
  5
47A
330
1A
100
AcDbEntity
  8
SEIHIN
100
AcDbCircle
 10
308.6509220282131
 20
119.794226613006
 30
0.0
 40
0.8
100
AcDbArc
 50
281.7732119318799
 51
0.0002252107960557
  0
ARC
  5
47B
330
1A
100
AcDbEntity
  8
SEIHIN
100
AcDbCircle
 10
308.8623721668117
 20
120.5957664559299
 30
0.0
 40
1.0
100
AcDbArc
 50
306.0507493208502
 51
0.0002178506635771
  0
ARC
  5
47C
330
1A
100
AcDbEntity
  8
SEIHIN
100
AcDbCircle
 10
307.7456238492434
 20
120.3654431518625
 30
0.0
 40
0.8
100
AcDbArc
 50
288.3527408784039
 51
0.0002364376472281
  0
ARC
  5
47D
330
1A
100
AcDbEntity
  8
SEIHIN
100
AcDbCircle
 10
307.7226234415722
 20
121.8851455084243
 30
0.0
 40
0.822979434993894
100
AcDbArc
 50
289.4676415342158
 51
359.9978699515917
  0
ARC
  5
47E
330
1A
100
AcDbEntity
  8
SEIHIN
100
AcDbCircle
 10
298.7843935214914
 20
113.5910014213025
 30
0.0
 40
1.0
100
AcDbArc
 50
269.999894726223
 51
337.7653178978287
  0
LINE
  5
47F
330
1A
100
AcDbEntity
  8
SEIHIN
100
AcDbLine
 10
299.463231421971
 20
110.0844433878742
 30
0.0
 11
299.4631359318903
 21
112.5389895177863
 31
0.0
  0
ARC
  5
480
330
1A
100
AcDbEntity
  8
SEIHIN
100
AcDbCircle
 10
299.4631328918702
 20
110.8844433880566
 30
0.0
 40
0.8
100
AcDbArc
 50
269.999894726223
 51
349.3670908715667
  0
ARC
  5
481
330
1A
100
AcDbEntity
  8
SEIHIN
100
AcDbCircle
 10
299.5088936975753
 20
109.8873560837224
 30
0.0
 40
0.8
100
AcDbArc
 50
269.999894726223
 51
352.8253429554039
  0
ARC
  5
482
330
1A
100
AcDbEntity
  8
SEIHIN
100
AcDbCircle
 10
311.017794391134
 20
165.419746092567
 30
0.0
 40
10.79962054649123
100
AcDbArc
 50
187.1742805132925
 51
258.2265775205664
  0
ARC
  5
483
330
1A
100
AcDbEntity
  8
SEIHIN
100
AcDbCircle
 10
311.2842634366948
 20
165.2618566301596
 30
0.0
 40
11.59962054649123
100
AcDbArc
 50
190.6325453847202
 51
253.4185518179925
  0
ARC
  5
484
330
1A
100
AcDbEntity
  8
SEIHIN
100
AcDbCircle
 10
313.3112580261509
 20
170.4991543325507
 30
0.0
 40
8.999982422508896
100
AcDbArc
 50
185.7390396656611
 51
264.1700687951189
  0
ARC
  5
485
330
1A
100
AcDbEntity
  8
SEIHIN
100
AcDbCircle
 10
313.7467063865933
 20
170.7065048856223
 30
0.0
 40
10.49995768516079
100
AcDbArc
 50
191.4379946168744
 51
256.0727445453623
  0
ARC
  5
488
330
1A
100
AcDbEntity
  8
SEIHIN
100
AcDbCircle
 10
311.3016074561085
 20
167.0568884645525
 30
0.0
 40
11.09586754505307
100
AcDbArc
 50
190.8481389449392
 51
259.1505719390335
  0
ARC
  5
48A
330
1A
100
AcDbEntity
  8
SEIHIN
100
AcDbCircle
 10
310.9786718581068
 20
159.5446246637138
 30
0.0
 40
1.000000212500015
100
AcDbArc
 50
359.9998791626982
 51
76.07202660138733
  0
ARC
  5
48B
330
1A
100
AcDbEntity
  8
SEIHIN
100
AcDbCircle
 10
308.6509849948925
 20
154.064156715329
 30
0.0
 40
0.8
100
AcDbArc
 50
359.9995642416499
 51
78.22657752056601
  0
ARC
  5
48C
330
1A
100
AcDbEntity
  8
SEIHIN
100
AcDbCircle
 10
307.7456838191527
 20
153.3778739649382
 30
0.0
 40
0.8
100
AcDbArc
 50
359.9995530147988
 51
73.41855181799195
  0
ARC
  5
48D
330
1A
100
AcDbEntity
  8
SEIHIN
100
AcDbCircle
 10
309.0624644069753
 20
155.3736567603124
 30
0.0
 40
0.8
100
AcDbArc
 50
359.999894726223
 51
79.15057193903397
  0
ARC
  5
48E
330
1A
100
AcDbEntity
  8
SEIHIN
100
AcDbCircle
 10
312.29559159733
 20
160.5509023991401
 30
0.0
 40
0.9999823223790524
100
AcDbArc
 50
0.0010162116071969
 51
84.17525583320548
  0
LINE
  5
48F
330
1A
100
AcDbEntity
  8
SEIHIN
100
AcDbLine
 10
300.3723544747253
 20
169.4259438798678
 30
0.0
 11
300.3723577621689
 21
165.6413643230312
 31
0.0
  0
ARC
  5
491
330
1A
100
AcDbEntity
  8
SEIHIN
100
AcDbCircle
 10
299.6183253756315
 20
164.8180082807445
 30
0.0
 40
0.8
100
AcDbArc
 50
10.84813894493937
 51
89.99989472622299
  0
LINE
  5
493
330
1A
100
AcDbEntity
  8
SEIHIN
  6
CONTINUOUS
 62
     3
 48
5.0
100
AcDbLine
 10
313.3113397338961
 20
196.3707061567308
 30
0.0
 11
313.3111935242606
 21
116.7953809463314
 31
0.0
  0
ARC
  5
494
330
1A
100
AcDbEntity
  8
SEIHIN
100
AcDbCircle
 10
302.4751391679637
 20
168.4259788067533
 30
0.0
 40
1.0
100
AcDbArc
 50
11.43799461687478
 51
90.0
  0
ARC
  5
495
330
1A
100
AcDbEntity
  8
SEIHIN
100
AcDbCircle
 10
303.3613988614046
 20
169.4991788067532
 30
0.0
 40
1.0
100
AcDbArc
 50
5.739039665661565
 51
90.0
  0
ARC
  5
496
330
1A
100
AcDbEntity
  8
SEIHIN
100
AcDbCircle
 10
303.3120998319261
 20
170.3707648573264
 30
0.0
 40
1.0
100
AcDbArc
 50
0.7356390107544116
 51
90.0
  0
ARC
  5
498
330
1A
100
AcDbEntity
  8
SEIHIN
100
AcDbCircle
 10
299.0975356732004
 20
162.9740069595207
 30
0.0
 40
0.8
100
AcDbArc
 50
10.63254538471977
 51
90.0
  0
ARC
  5
499
330
1A
100
AcDbEntity
  8
SEIHIN
100
AcDbCircle
 10
299.5089888728303
 20
163.9710941797736
 30
0.0
 40
0.8
100
AcDbArc
 50
7.174280513292512
 51
90.0
  0
ARC
  5
49B
330
1A
100
AcDbEntity
  8
SEIHIN
100
AcDbCircle
 10
313.2668889082858
 20
171.2835816248633
 30
0.0
 40
8.999982422508896
100
AcDbArc
 50
184.7392735227199
 51
264.1700687951189
  0
ARC
  5
49C
330
1A
100
AcDbEntity
  8
SEIHIN
100
AcDbCircle
 10
249.4152886341847
 20
171.3707990836129
 30
0.0
 40
8.999982422508896
100
AcDbArc
 50
275.829825931104
 51
354.260589919388
  0
DIMENSION
  5
49E
330
1A
100
AcDbEntity
  8
ZUWAKU
100
AcDbDimension
  2
*D8
 10
164.2934304312539
 20
182.1156433248889
 30
0.0
 11
159.5303542233296
 21
185.0419216844279
 31
0.0
 70
    33
  3
STANDARD
100
AcDbAlignedDimension
 13
153.3151451518952
 23
171.370763215676
 33
0.0
 14
163.2770897722052
 24
170.4991788067532
 34
0.0
1001
ACAD
1000
DSTYLE
1002
{
1070
    41
1040
3.0
1070
    42
1040
3.0
1070
    43
1040
7.0
1070
    44
1040
1.5
1070
    73
1070
     0
1070
    74
1070
     0
1070
    77
1070
     3
1070
   140
1040
3.0
1070
   141
1040
150.0
1070
   147
1040
1.0
1070
   172
1070
     1
1070
   173
1070
     1
1070
   176
1070
     4
1070
   177
1070
     4
1070
   178
1070
     4
1070
   271
1070
     0
1070
   272
1070
     2
1070
   341
1005
B2
1070
     6
1000
OPEN
1070
     7
1000
OPEN
1002
}
  0
DIMENSION
  5
4AB
330
1A
100
AcDbEntity
  8
ZUWAKU
100
AcDbDimension
  2
*D9
 10
155.7962381803104
 20
84.99481508268722
 30
0.0
 11
136.4494493537658
 21
89.19702663323299
 31
0.0
 70
    33
  3
STANDARD
100
AcDbAlignedDimension
 13
121.3631544621568
 23
142.0958467044517
 33
0.0
 14
160.4925202426314
 24
138.6723962702225
 34
0.0
1001
ACAD
1000
DSTYLE
1002
{
1070
    41
1040
3.0
1070
    42
1040
3.0
1070
    43
1040
7.0
1070
    44
1040
1.5
1070
    73
1070
     0
1070
    74
1070
     0
1070
    77
1070
     3
1070
   140
1040
3.0
1070
   141
1040
150.0
1070
   147
1040
1.0
1070
   172
1070
     1
1070
   173
1070
     1
1070
   176
1070
     4
1070
   177
1070
     4
1070
   178
1070
     4
1070
   271
1070
     0
1070
   272
1070
     2
1070
   341
1005
B2
1070
     6
1000
OPEN
1070
     7
1000
OPEN
1002
}
  0
VIEWPORT
  5
22
330
17
100
AcDbEntity
 67
     1
  8
0
100
AcDbViewport
 10
313.6808219178082
 20
166.8012120854653
 30
0.0
 40
627.3616438356164
 41
333.6024241709306
 68
     2
 69
     1
1001
ACAD
1000
MVIEW
1002
{
1070
    16
1010
0.0
1020
0.0
1030
0.0
1010
0.0
1020
0.0
1030
1.0
1040
0.0
1040
333.6024241709306
1040
313.6808219178082
1040
166.8012120854653
1040
50.0
1040
0.0
1040
0.0
1070
     0
1070
   100
1070
     1
1070
     0
1070
     0
1070
     0
1070
     0
1070
     0
1040
0.0
1040
0.0
1040
0.0
1040
1.0
1040
1.0
1040
10.0
1040
10.0
1070
     0
1002
{
1002
}
1002
}
  0
VIEWPORT
  5
64
330
17
100
AcDbEntity
 67
     1
  8
VIEWPORT
100
AcDbViewport
 10
210.0
 20
148.5
 30
0.0
 40
420.0
 41
297.0
 68
     1
 69
     2
1001
ACAD
1000
MVIEW
1002
{
1070
    16
1010
0.0
1020
0.0
1030
0.0
1010
0.0
1020
0.0
1030
1.0
1040
0.0
1040
302.9399999999998
1040
210.0
1040
148.5
1040
50.0
1040
0.0
1040
0.0
1070
     0
1070
   100
1070
     1
1070
     0
1070
     0
1070
     0
1070
     0
1070
     0
1040
0.0
1040
0.0
1040
0.0
1040
5.0
1040
5.0
1040
0.0
1040
0.0
1070
     0
1002
{
1002
}
1002
}
  0
ENDSEC
  0
SECTION
  2
OBJECTS
  0
DICTIONARY
  5
C
330
0
100
AcDbDictionary
  3
ACAD_GROUP
350
D
  3
ACAD_LAYOUT
350
3A9
  3
ACAD_MLINESTYLE
350
E
  3
ACAD_PLOTSETTINGS
350
3AA
1001
ACAD
1000
TREAT_AS_HARD
1070
     0
  0
DICTIONARY
  5
53A
330
1A
100
AcDbDictionary
  3
ACAD_LAYOUTSELFREF
350
5F7
1001
ACAD
1000
TREAT_AS_HARD
1070
     1
  0
DICTIONARY
  5
538
330
17
100
AcDbDictionary
  3
ACAD_LAYOUTSELFREF
350
5F6
1001
ACAD
1000
TREAT_AS_HARD
1070
     1
  0
DICTIONARY
  5
D
102
{ACAD_REACTORS
330
C
102
}
330
C
100
AcDbDictionary
1001
ACAD
1000
TREAT_AS_HARD
1070
     0
  0
DICTIONARY
  5
3A9
102
{ACAD_REACTORS
330
C
102
}
330
C
100
AcDbDictionary
1001
ACAD
1000
TREAT_AS_HARD
1070
     0
  0
DICTIONARY
  5
E
102
{ACAD_REACTORS
330
C
102
}
330
C
100
AcDbDictionary
  3
STANDARD
350
13
1001
ACAD
1000
TREAT_AS_HARD
1070
     0
  0
DICTIONARY
  5
3AA
102
{ACAD_REACTORS
330
C
102
}
330
C
100
AcDbDictionary
1001
ACAD
1000
TREAT_AS_HARD
1070
     0
  0
XRECORD
  5
5F7
102
{ACAD_REACTORS
330
53A
102
}
330
53A
100
AcDbXrecord
340
1A
  0
XRECORD
  5
5F6
102
{ACAD_REACTORS
330
538
102
}
330
538
100
AcDbXrecord
340
17
  0
MLINESTYLE
  5
13
102
{ACAD_REACTORS
330
E
102
}
330
E
100
AcDbMlineStyle
  2
STANDARD
 70
     0
  3

 62
     0
 51
90.0
 52
90.0
 71
     2
 49
0.5
 62
   256
  6
BYLAYER
 49
-0.5
 62
   256
  6
BYLAYER
  0
ENDSEC
  0
EOF
