  0
SECTION
  2
HEADER
  9
$ACADVER
  1
AC1015
  9
$ACADMAINTVER
 70
    11
  9
$DWGCODEPAGE
  3
ANSI_932
  9
$INSBASE
 10
0.0
 20
0.0
 30
0.0
  9
$EXTMIN
 10
5.0
 20
2.449000558492456
 30
0.0
  9
$EXTMAX
 10
403.0
 20
282.0
 30
0.0
  9
$LIMMIN
 10
0.0
 20
0.0
  9
$LIMMAX
 10
420.0
 20
297.0
  9
$ORTHOMODE
 70
     1
  9
$REGENMODE
 70
     1
  9
$FILLMODE
 70
     1
  9
$QTEXTMODE
 70
     0
  9
$MIRRTEXT
 70
     1
  9
$LTSCALE
 40
5.0
  9
$ATTMODE
 70
     1
  9
$TEXTSIZE
 40
2.5
  9
$TRACEWID
 40
1.0
  9
$TEXTSTYLE
  7
STANDARD
  9
$CLAYER
  8
CENTER L
  9
$CELTYPE
  6
BYLAYER
  9
$CECOLOR
 62
   256
  9
$CELTSCALE
 40
1.0
  9
$DISPSILH
 70
     0
  9
$DIMSCALE
 40
1.0
  9
$DIMASZ
 40
3.0
  9
$DIMEXO
 40
3.0
  9
$DIMDLI
 40
7.0
  9
$DIMRND
 40
0.0
  9
$DIMDLE
 40
0.0
  9
$DIMEXE
 40
1.5
  9
$DIMTP
 40
0.0
  9
$DIMTM
 40
0.0
  9
$DIMTXT
 40
3.0
  9
$DIMCEN
 40
3.0
  9
$DIMTSZ
 40
0.0
  9
$DIMTOL
 70
     0
  9
$DIMLIM
 70
     0
  9
$DIMTIH
 70
     0
  9
$DIMTOH
 70
     0
  9
$DIMSE1
 70
     0
  9
$DIMSE2
 70
     0
  9
$DIMTAD
 70
     3
  9
$DIMZIN
 70
     0
  9
$DIMBLK
  1

  9
$DIMASO
 70
     1
  9
$DIMSHO
 70
     1
  9
$DIMPOST
  1

  9
$DIMAPOST
  1

  9
$DIMALT
 70
     0
  9
$DIMALTD
 70
     2
  9
$DIMALTF
 40
25.4
  9
$DIMLFAC
 40
1.0
  9
$DIMTOFL
 70
     1
  9
$DIMTVP
 40
0.0
  9
$DIMTIX
 70
     0
  9
$DIMSOXD
 70
     0
  9
$DIMSAH
 70
     1
  9
$DIMBLK1
  1
OPEN
  9
$DIMBLK2
  1
OPEN
  9
$DIMSTYLE
  2
STANDARD
  9
$DIMCLRD
 70
   256
  9
$DIMCLRE
 70
   256
  9
$DIMCLRT
 70
   256
  9
$DIMTFAC
 40
1.0
  9
$DIMGAP
 40
1.0
  9
$DIMJUST
 70
     0
  9
$DIMSD1
 70
     0
  9
$DIMSD2
 70
     0
  9
$DIMTOLJ
 70
     1
  9
$DIMTZIN
 70
     0
  9
$DIMALTZ
 70
     0
  9
$DIMALTTZ
 70
     0
  9
$DIMUPT
 70
     0
  9
$DIMDEC
 70
     0
  9
$DIMTDEC
 70
     0
  9
$DIMALTU
 70
     2
  9
$DIMALTTD
 70
     2
  9
$DIMTXSTY
  7
STANDARD
  9
$DIMAUNIT
 70
     0
  9
$DIMADEC
 70
     0
  9
$DIMALTRND
 40
0.0
  9
$DIMAZIN
 70
     0
  9
$DIMDSEP
 70
    46
  9
$DIMATFIT
 70
     3
  9
$DIMFRAC
 70
     0
  9
$DIMLDRBLK
  1
OPEN
  9
$DIMLUNIT
 70
     2
  9
$DIMLWD
 70
    -1
  9
$DIMLWE
 70
    -1
  9
$DIMTMOVE
 70
     0
  9
$LUNITS
 70
     2
  9
$LUPREC
 70
     4
  9
$SKETCHINC
 40
1.0
  9
$FILLETRAD
 40
0.5
  9
$AUNITS
 70
     0
  9
$AUPREC
 70
     0
  9
$MENU
  1
.
  9
$ELEVATION
 40
0.0
  9
$PELEVATION
 40
0.0
  9
$THICKNESS
 40
0.0
  9
$LIMCHECK
 70
     0
  9
$CHAMFERA
 40
10.0
  9
$CHAMFERB
 40
10.0
  9
$CHAMFERC
 40
20.0
  9
$CHAMFERD
 40
0.0
  9
$SKPOLY
 70
     0
  9
$TDCREATE
 40
2451572.350838425
  9
$TDUCREATE
 40
2451571.975838426
  9
$TDUPDATE
 40
2454680.620131863
  9
$TDUUPDATE
 40
2454680.245131863
  9
$TDINDWG
 40
0.1929127546
  9
$TDUSRTIMER
 40
0.1929127546
  9
$USRTIMER
 70
     1
  9
$ANGBASE
 50
0.0
  9
$ANGDIR
 70
     0
  9
$PDMODE
 70
     0
  9
$PDSIZE
 40
0.0
  9
$PLINEWID
 40
0.0
  9
$SPLFRAME
 70
     0
  9
$SPLINETYPE
 70
     6
  9
$SPLINESEGS
 70
     8
  9
$HANDSEED
  5
D47
  9
$SURFTAB1
 70
     6
  9
$SURFTAB2
 70
     6
  9
$SURFTYPE
 70
     6
  9
$SURFU
 70
     6
  9
$SURFV
 70
     6
  9
$UCSBASE
  2

  9
$UCSNAME
  2

  9
$UCSORG
 10
0.0
 20
0.0
 30
0.0
  9
$UCSXDIR
 10
1.0
 20
0.0
 30
0.0
  9
$UCSYDIR
 10
0.0
 20
1.0
 30
0.0
  9
$UCSORTHOREF
  2

  9
$UCSORTHOVIEW
 70
     0
  9
$UCSORGTOP
 10
0.0
 20
0.0
 30
0.0
  9
$UCSORGBOTTOM
 10
0.0
 20
0.0
 30
0.0
  9
$UCSORGLEFT
 10
0.0
 20
0.0
 30
0.0
  9
$UCSORGRIGHT
 10
0.0
 20
0.0
 30
0.0
  9
$UCSORGFRONT
 10
0.0
 20
0.0
 30
0.0
  9
$UCSORGBACK
 10
0.0
 20
0.0
 30
0.0
  9
$PUCSBASE
  2

  9
$PUCSNAME
  2

  9
$PUCSORG
 10
0.0
 20
0.0
 30
0.0
  9
$PUCSXDIR
 10
1.0
 20
0.0
 30
0.0
  9
$PUCSYDIR
 10
0.0
 20
1.0
 30
0.0
  9
$PUCSORTHOREF
  2

  9
$PUCSORTHOVIEW
 70
     0
  9
$PUCSORGTOP
 10
0.0
 20
0.0
 30
0.0
  9
$PUCSORGBOTTOM
 10
0.0
 20
0.0
 30
0.0
  9
$PUCSORGLEFT
 10
0.0
 20
0.0
 30
0.0
  9
$PUCSORGRIGHT
 10
0.0
 20
0.0
 30
0.0
  9
$PUCSORGFRONT
 10
0.0
 20
0.0
 30
0.0
  9
$PUCSORGBACK
 10
0.0
 20
0.0
 30
0.0
  9
$USERI1
 70
     0
  9
$USERI2
 70
     0
  9
$USERI3
 70
     0
  9
$USERI4
 70
     0
  9
$USERI5
 70
     0
  9
$USERR1
 40
0.0
  9
$USERR2
 40
0.0
  9
$USERR3
 40
0.0
  9
$USERR4
 40
0.0
  9
$USERR5
 40
0.0
  9
$WORLDVIEW
 70
     1
  9
$SHADEDGE
 70
     3
  9
$SHADEDIF
 70
    70
  9
$TILEMODE
 70
     1
  9
$MAXACTVP
 70
    16
  9
$PINSBASE
 10
0.0
 20
0.0
 30
0.0
  9
$PLIMCHECK
 70
     0
  9
$PEXTMIN
 10
0.0
 20
0.0
 30
0.0
  9
$PEXTMAX
 10
420.0
 20
297.0
 30
0.0
  9
$PLIMMIN
 10
0.0
 20
0.0
  9
$PLIMMAX
 10
420.0
 20
297.0
  9
$UNITMODE
 70
     0
  9
$VISRETAIN
 70
     0
  9
$PLINEGEN
 70
     0
  9
$PSLTSCALE
 70
     1
  9
$TREEDEPTH
 70
  3020
  9
$CMLSTYLE
  2
STANDARD
  9
$CMLJUST
 70
     0
  9
$CMLSCALE
 40
1.0
  9
$PROXYGRAPHICS
 70
     1
  9
$MEASUREMENT
 70
     1
  9
$CELWEIGHT
370
    -1
  9
$ENDCAPS
280
     0
  9
$JOINSTYLE
280
     0
  9
$LWDISPLAY
290
     0
  9
$INSUNITS
 70
     0
  9
$HYPERLINKBASE
  1

  9
$STYLESHEET
  1
monochrome.ctb
  9
$XEDIT
290
     1
  9
$CEPSNTYPE
380
     0
  9
$PSTYLEMODE
290
     1
  9
$FINGERPRINTGUID
  2
{4E8D0500-CDD1-11D3-932C-444553540000}
  9
$VERSIONGUID
  2
{E08A9A69-C8C4-4CAE-823A-A1B8F037BD67}
  9
$EXTNAMES
290
     1
  9
$PSVPSCALE
 40
0.0
  9
$OLESTARTUP
290
     0
  0
ENDSEC
  0
SECTION
  2
CLASSES
  0
CLASS
  1
ACDBDICTIONARYWDFLT
  2
AcDbDictionaryWithDefault
  3
AutoCAD 2000
 90
        0
280
     0
281
     0
  0
CLASS
  1
ACDBPLACEHOLDER
  2
AcDbPlaceHolder
  3
AutoCAD 2000
 90
        0
280
     0
281
     0
  0
CLASS
  1
LAYOUT
  2
AcDbLayout
  3
AutoCAD 2000
 90
        0
280
     0
281
     0
  0
CLASS
  1
LONG_TRANSACTION
  2
AcDbLongTransaction
  3
AutoCAD 2000
 90
    32768
280
     0
281
     0
  0
CLASS
  1
LWPOLYLINE
  2
AcDbPolyline
  3
AutoCAD 2000
 90
    32768
280
     0
281
     1
  0
CLASS
  1
HATCH
  2
AcDbHatch
  3
AutoCAD 2000
 90
    32768
280
     0
281
     1
  0
CLASS
  1
XRECORD
  2
AcDbXrecord
  3
AutoCAD 2000
 90
    32768
280
     0
281
     0
  0
CLASS
  1
LONG_TRANSACTION
  2
AcDbLongTransaction
  3
AutoCAD 2000
 90
    32768
280
     0
281
     0
  0
CLASS
  1
LWPOLYLINE
  2
AcDbPolyline
  3
AutoCAD 2000
 90
    32768
280
     0
281
     1
  0
CLASS
  1
HATCH
  2
AcDbHatch
  3
AutoCAD 2000
 90
    32768
280
     0
281
     1
  0
CLASS
  1
XRECORD
  2
AcDbXrecord
  3
AutoCAD 2000
 90
    32768
280
     0
281
     0
  0
CLASS
  1
LONG_TRANSACTION
  2
AcDbLongTransaction
  3
AutoCAD 2000
 90
    32768
280
     0
281
     0
  0
CLASS
  1
LWPOLYLINE
  2
AcDbPolyline
  3
AutoCAD 2000
 90
    32768
280
     0
281
     1
  0
CLASS
  1
HATCH
  2
AcDbHatch
  3
AutoCAD 2000
 90
    32768
280
     0
281
     1
  0
CLASS
  1
XRECORD
  2
AcDbXrecord
  3
AutoCAD 2000
 90
    32768
280
     0
281
     0
  0
CLASS
  1
LONG_TRANSACTION
  2
AcDbLongTransaction
  3
AutoCAD 2000
 90
    32768
280
     0
281
     0
  0
CLASS
  1
LWPOLYLINE
  2
AcDbPolyline
  3
AutoCAD 2000
 90
    32768
280
     0
281
     1
  0
CLASS
  1
HATCH
  2
AcDbHatch
  3
AutoCAD 2000
 90
    32768
280
     0
281
     1
  0
CLASS
  1
XRECORD
  2
AcDbXrecord
  3
AutoCAD 2000
 90
    32768
280
     0
281
     0
  0
CLASS
  1
LONG_TRANSACTION
  2
AcDbLongTransaction
  3
AutoCAD 2000
 90
    32768
280
     0
281
     0
  0
CLASS
  1
LWPOLYLINE
  2
AcDbPolyline
  3
AutoCAD 2000
 90
    32768
280
     0
281
     1
  0
CLASS
  1
HATCH
  2
AcDbHatch
  3
AutoCAD 2000
 90
    32768
280
     0
281
     1
  0
CLASS
  1
XRECORD
  2
AcDbXrecord
  3
AutoCAD 2000
 90
    32768
280
     0
281
     0
  0
CLASS
  1
LONG_TRANSACTION
  2
AcDbLongTransaction
  3
AutoCAD 2000
 90
    32768
280
     0
281
     0
  0
CLASS
  1
LWPOLYLINE
  2
AcDbPolyline
  3
AutoCAD 2000
 90
    32768
280
     0
281
     1
  0
CLASS
  1
HATCH
  2
AcDbHatch
  3
AutoCAD 2000
 90
    32768
280
     0
281
     1
  0
CLASS
  1
XRECORD
  2
AcDbXrecord
  3
AutoCAD 2000
 90
    32768
280
     0
281
     0
  0
ENDSEC
  0
SECTION
  2
TABLES
  0
TABLE
  2
VPORT
  5
8
330
0
100
AcDbSymbolTable
 70
     2
  0
VPORT
  5
D46
330
8
100
AcDbSymbolTableRecord
100
AcDbViewportTableRecord
  2
*Active
 70
     0
 10
0.0
 20
0.0
 11
1.0
 21
1.0
 12
221.3569551341743
 22
225.2343388647706
 13
0.0
 23
0.0
 14
5.0
 24
5.0
 15
0.0
 25
0.0
 16
0.0
 26
0.0
 36
1.0
 17
0.0
 27
0.0
 37
0.0
 40
454.1669094325735
 41
1.577931034482758
 42
50.0
 43
0.0
 44
0.0
 50
0.0
 51
0.0
 71
     0
 72
   100
 73
     1
 74
     0
 75
     0
 76
     0
 77
     0
 78
     0
281
     0
 65
     1
110
0.0
120
0.0
130
0.0
111
1.0
121
0.0
131
0.0
112
0.0
122
1.0
132
0.0
 79
     0
146
0.0
  0
ENDTAB
  0
TABLE
  2
LTYPE
  5
5
330
0
100
AcDbSymbolTable
 70
     2
  0
LTYPE
  5
14
330
5
100
AcDbSymbolTableRecord
100
AcDbLinetypeTableRecord
  2
BYBLOCK
 70
     0
  3

 72
    65
 73
     0
 40
0.0
  0
LTYPE
  5
15
330
5
100
AcDbSymbolTableRecord
100
AcDbLinetypeTableRecord
  2
BYLAYER
 70
     0
  3

 72
    65
 73
     0
 40
0.0
  0
LTYPE
  5
16
330
5
100
AcDbSymbolTableRecord
100
AcDbLinetypeTableRecord
  2
CONTINUOUS
 70
     0
  3
Solid line
 72
    65
 73
     0
 40
0.0
  0
LTYPE
  5
120
330
5
100
AcDbSymbolTableRecord
100
AcDbLinetypeTableRecord
  2
CENTER
 70
     0
  3
____ _ ____ _ ____ _ ____ _ ____ _ ____ _ ____ 
 72
    65
 73
     4
 40
2.0
 49
1.25
 74
     0
 49
-0.25
 74
     0
 49
0.25
 74
     0
 49
-0.25
 74
     0
  0
ENDTAB
  0
TABLE
  2
LAYER
  5
2
330
0
100
AcDbSymbolTable
 70
     7
  0
LAYER
  5
F
330
2
100
AcDbSymbolTableRecord
100
AcDbLayerTableRecord
  2
0
 70
     0
 62
     7
  6
CONTINUOUS
370
    -3
390
140
  0
LAYER
  5
62
330
2
100
AcDbSymbolTableRecord
100
AcDbLayerTableRecord
  2
VIEWPORT
 70
     0
 62
     7
  6
CONTINUOUS
370
    -3
390
140
  0
LAYER
  5
6B
330
2
100
AcDbSymbolTableRecord
100
AcDbLayerTableRecord
  2
ZUWAKU
 70
     0
 62
     7
  6
CONTINUOUS
370
    -3
390
140
  0
LAYER
  5
26F
330
2
100
AcDbSymbolTableRecord
100
AcDbLayerTableRecord
  2
Defpoints
 70
     0
 62
     7
  6
CONTINUOUS
290
     0
370
    -3
390
140
  0
LAYER
  5
347
330
2
100
AcDbSymbolTableRecord
100
AcDbLayerTableRecord
  2
SEIHIN
 70
     0
 62
     3
  6
CONTINUOUS
370
    -3
390
140
  0
LAYER
  5
348
330
2
100
AcDbSymbolTableRecord
100
AcDbLayerTableRecord
  2
SUNPOU
 70
     0
 62
     4
  6
CONTINUOUS
370
    -3
390
140
  0
LAYER
  5
349
330
2
100
AcDbSymbolTableRecord
100
AcDbLayerTableRecord
  2
CENTER L
 70
     0
 62
     1
  6
CENTER
370
    -3
390
140
  0
ENDTAB
  0
TABLE
  2
STYLE
  5
3
330
0
100
AcDbSymbolTable
 70
     1
  0
STYLE
  5
10
330
3
100
AcDbSymbolTableRecord
100
AcDbTextStyleTableRecord
  2
STANDARD
 70
     0
 40
0.0
 41
1.0
 50
0.0
 71
     0
 42
2.5
  3
TXT
  4
c:\PROGRAM FILES\AUTOCAD LT\ms\bigfont.shx
  0
ENDTAB
  0
TABLE
  2
VIEW
  5
6
330
0
100
AcDbSymbolTable
 70
     0
  0
ENDTAB
  0
TABLE
  2
UCS
  5
7
330
0
100
AcDbSymbolTable
 70
     0
  0
ENDTAB
  0
TABLE
  2
APPID
  5
9
330
0
100
AcDbSymbolTable
 70
     1
  0
APPID
  5
11
330
9
100
AcDbSymbolTableRecord
100
AcDbRegAppTableRecord
  2
ACAD
 70
     0
  0
ENDTAB
  0
TABLE
  2
DIMSTYLE
  5
A
330
0
100
AcDbSymbolTable
 70
     1
100
AcDbDimStyleTable
 71
     0
  0
DIMSTYLE
105
1D
102
{ACAD_REACTORS
330
933
330
941
330
94E
330
95B
330
968
330
975
330
982
330
98F
330
99D
330
9AA
102
}
330
A
100
AcDbSymbolTableRecord
100
AcDbDimStyleTableRecord
  2
STANDARD
 70
     0
340
10
  0
ENDTAB
  0
TABLE
  2
BLOCK_RECORD
  5
1
330
0
100
AcDbSymbolTable
 70
    11
  0
BLOCK_RECORD
  5
1A
102
{ACAD_XDICTIONARY
360
86D
102
}
330
1
100
AcDbSymbolTableRecord
100
AcDbBlockTableRecord
  2
*MODEL_SPACE
340
143
  0
BLOCK_RECORD
  5
17
102
{ACAD_XDICTIONARY
360
86B
102
}
330
1
100
AcDbSymbolTableRecord
100
AcDbBlockTableRecord
  2
*PAPER_SPACE
340
144
  0
BLOCK_RECORD
  5
B2
330
1
100
AcDbSymbolTableRecord
100
AcDbBlockTableRecord
  2
_OPEN
340
0
102
{BLKREFS
331
D35
331
D36
331
BCB
331
BCC
331
BD4
331
BD5
331
BDD
331
BDE
331
BE6
331
BE7
331
BEF
331
BF0
331
BF8
331
BF9
331
C01
331
C02
331
C0A
331
C0B
331
C13
331
C14
102
}
  0
BLOCK_RECORD
  5
934
330
1
100
AcDbSymbolTableRecord
100
AcDbBlockTableRecord
  2
*D1
340
0
  0
BLOCK_RECORD
  5
942
330
1
100
AcDbSymbolTableRecord
100
AcDbBlockTableRecord
  2
*D2
340
0
  0
BLOCK_RECORD
  5
94F
330
1
100
AcDbSymbolTableRecord
100
AcDbBlockTableRecord
  2
*D3
340
0
  0
BLOCK_RECORD
  5
95C
330
1
100
AcDbSymbolTableRecord
100
AcDbBlockTableRecord
  2
*D4
340
0
  0
BLOCK_RECORD
  5
969
330
1
100
AcDbSymbolTableRecord
100
AcDbBlockTableRecord
  2
*D5
340
0
  0
BLOCK_RECORD
  5
976
330
1
100
AcDbSymbolTableRecord
100
AcDbBlockTableRecord
  2
*D6
340
0
  0
BLOCK_RECORD
  5
983
330
1
100
AcDbSymbolTableRecord
100
AcDbBlockTableRecord
  2
*D7
340
0
  0
BLOCK_RECORD
  5
990
330
1
100
AcDbSymbolTableRecord
100
AcDbBlockTableRecord
  2
*D8
340
0
  0
BLOCK_RECORD
  5
99E
330
1
100
AcDbSymbolTableRecord
100
AcDbBlockTableRecord
  2
*D9
340
0
  0
BLOCK_RECORD
  5
9AB
330
1
100
AcDbSymbolTableRecord
100
AcDbBlockTableRecord
  2
*D10
340
0
  0
ENDTAB
  0
ENDSEC
  0
SECTION
  2
BLOCKS
  0
BLOCK
  5
1B
330
1A
100
AcDbEntity
  8
0
100
AcDbBlockBegin
  2
*MODEL_SPACE
 70
     0
 10
0.0
 20
0.0
 30
0.0
  3
*MODEL_SPACE
  1

  0
ENDBLK
  5
1C
330
1A
100
AcDbEntity
  8
0
100
AcDbBlockEnd
  0
BLOCK
  5
18
330
17
100
AcDbEntity
 67
     1
  8
0
100
AcDbBlockBegin
  2
*PAPER_SPACE
 70
     0
 10
0.0
 20
0.0
 30
0.0
  3
*PAPER_SPACE
  1

  0
ENDBLK
  5
19
330
17
100
AcDbEntity
 67
     1
  8
0
100
AcDbBlockEnd
  0
BLOCK
  5
B3
330
B2
100
AcDbEntity
  8
0
100
AcDbBlockBegin
  2
_OPEN
 70
     0
 10
0.0
 20
0.0
 30
0.0
  3
_OPEN
  1

  0
LINE
  5
B4
330
B2
100
AcDbEntity
  8
0
  6
ByBlock
 62
     0
100
AcDbLine
 10
-1.0
 20
0.1666666666666666
 30
0.0
 11
0.0
 21
0.0
 31
0.0
  0
LINE
  5
B5
330
B2
100
AcDbEntity
  8
0
  6
ByBlock
 62
     0
100
AcDbLine
 10
0.0
 20
0.0
 30
0.0
 11
-1.0
 21
-0.1666666666666666
 31
0.0
  0
LINE
  5
B6
330
B2
100
AcDbEntity
  8
0
  6
ByBlock
 62
     0
100
AcDbLine
 10
0.0
 20
0.0
 30
0.0
 11
-1.0
 21
0.0
 31
0.0
  0
ENDBLK
  5
B7
330
B2
100
AcDbEntity
  8
0
100
AcDbBlockEnd
  0
BLOCK
  5
93F
330
934
100
AcDbEntity
  8
0
100
AcDbBlockBegin
  2
*D1
 70
     1
 10
0.0
 20
0.0
 30
0.0
  3
*D1
  1

  0
LINE
  5
D33
330
934
100
AcDbEntity
  8
SUNPOU
100
AcDbLine
 10
116.4891279190392
 20
121.9134417760501
 30
0.0
 11
104.2152456100608
 21
120.8396162157312
 31
0.0
  0
ARC
  5
D34
330
934
100
AcDbEntity
  8
SUNPOU
100
AcDbCircle
 10
126.451074899898
 20
122.7849992041967
 30
0.0
 40
20.82076654549731
100
AcDbArc
 50
193.2627302213315
 51
261.7372697825222
  0
INSERT
  5
D35
330
934
100
AcDbEntity
  8
SUNPOU
100
AcDbBlockReference
  2
_OPEN
 10
105.7095376571896
 20
120.9703498299532
 30
0.0
 41
3.0
 42
3.0
 43
3.0
 50
99.13136511259267
  0
INSERT
  5
D36
330
934
100
AcDbEntity
  8
SUNPOU
100
AcDbBlockReference
  2
_OPEN
 10
126.451074899898
 20
101.9642326586994
 30
0.0
 41
3.0
 42
3.0
 43
3.0
 50
355.8686348912611
  0
MTEXT
  5
D37
330
934
100
AcDbEntity
  8
SUNPOU
100
AcDbMText
 10
114.0737444262017
 20
109.2775132367962
 30
0.0
 40
3.0
 41
0.0
 71
     5
 72
     5
  1
\A1;85°
 11
0.7372773368328448
 21
-0.675590207590865
 31
0.0
 73
     1
 44
1.0
  0
POINT
  5
D38
330
934
100
AcDbEntity
  8
Defpoints
 62
     0
100
AcDbPoint
 10
109.0555782273738
 20
111.3438010563496
 30
0.0
  0
POINT
  5
D39
330
934
100
AcDbEntity
  8
Defpoints
 62
     0
100
AcDbPoint
 10
191.184703799898
 20
128.4484578862283
 30
0.0
  0
POINT
  5
D3A
330
934
100
AcDbEntity
  8
Defpoints
 62
     0
100
AcDbPoint
 10
126.451074899898
 20
129.7849992041967
 30
0.0
  0
POINT
  5
D3B
330
934
100
AcDbEntity
  8
Defpoints
 62
     0
100
AcDbPoint
 10
126.451074899898
 20
41.50821815622827
 30
0.0
  0
POINT
  5
D3C
330
934
100
AcDbEntity
  8
Defpoints
 62
     0
100
AcDbPoint
 10
119.4777120132968
 20
122.1749090044941
 30
0.0
  0
ENDBLK
  5
940
330
934
100
AcDbEntity
  8
0
100
AcDbBlockEnd
  0
BLOCK
  5
94C
330
942
100
AcDbEntity
  8
0
100
AcDbBlockBegin
  2
*D2
 70
     1
 10
0.0
 20
0.0
 30
0.0
  3
*D2
  1

  0
LINE
  5
BC8
330
942
100
AcDbEntity
  8
SUNPOU
370
    -2
100
AcDbLine
 10
176.6858252726653
 20
164.7730232805918
 30
0.0
 11
176.0385929303825
 21
172.1709228337246
 31
0.0
  0
LINE
  5
BC9
330
942
100
AcDbEntity
  8
SUNPOU
370
    -2
100
AcDbLine
 10
151.7809578196351
 20
162.594129720319
 30
0.0
 11
151.1337254773524
 21
169.9920292734517
 31
0.0
  0
LINE
  5
BCA
330
942
100
AcDbEntity
  8
SUNPOU
370
    -2
100
AcDbLine
 10
173.1807424496353
 20
170.4151635593101
 30
0.0
 11
154.2530431853324
 21
168.7592044535027
 31
0.0
  0
INSERT
  5
BCB
330
942
100
AcDbEntity
  8
SUNPOU
370
    -2
100
AcDbBlockReference
  2
_OPEN
 10
176.1693265439989
 20
170.6766307865428
 30
0.0
 41
3.0
 42
3.0
 43
3.0
 50
4.999999980632274
  0
INSERT
  5
BCC
330
942
100
AcDbEntity
  8
SUNPOU
370
    -2
100
AcDbBlockReference
  2
_OPEN
 10
151.2644590909687
 20
168.4977372262699
 30
0.0
 41
3.0
 42
3.0
 43
3.0
 50
184.9999999806323
  0
MTEXT
  5
BCD
330
942
100
AcDbEntity
  8
SUNPOU
100
AcDbMText
 10
163.4990034614565
 20
172.0776707517094
 30
0.0
 40
3.0
 41
0.0
 71
     5
 72
     5
  1
\A1;25
 11
0.9961946981212069
 21
0.0871557424109144
 31
0.0
 73
     1
 44
1.0
1001
ACAD
1000
MTEXTBEGIN
1070
    73
1070
     1
1070
    44
1040
1.0
1070
    74
1070
     0
1000
MTEXTEND
1000
MTEXTBEGIN
1070
    73
1070
     1
1070
    44
1040
1.0
1070
    74
1070
     0
1000
MTEXTEND
  0
POINT
  5
BCE
330
942
100
AcDbEntity
  8
Defpoints
 62
     0
100
AcDbPoint
 10
176.947292499898
 20
161.7844391862282
 30
0.0
  0
POINT
  5
BCF
330
942
100
AcDbEntity
  8
Defpoints
 62
     0
100
AcDbPoint
 10
152.0424250468678
 20
159.6055456259554
 30
0.0
  0
POINT
  5
BD0
330
942
100
AcDbEntity
  8
Defpoints
 62
     0
100
AcDbPoint
 10
151.2644590909687
 20
168.4977372262699
 30
0.0
  0
ENDBLK
  5
94D
330
942
100
AcDbEntity
  8
0
100
AcDbBlockEnd
  0
BLOCK
  5
959
330
94F
100
AcDbEntity
  8
0
100
AcDbBlockBegin
  2
*D3
 70
     1
 10
0.0
 20
0.0
 30
0.0
  3
*D3
  1

  0
LINE
  5
BD1
330
94F
100
AcDbEntity
  8
SUNPOU
370
    -2
100
AcDbLine
 10
179.6883405961295
 20
130.4541159459905
 30
0.0
 11
175.3240718361876
 21
180.3379360967895
 31
0.0
  0
LINE
  5
BD2
330
94F
100
AcDbEntity
  8
SUNPOU
370
    -2
100
AcDbLine
 10
126.1896076714541
 20
125.7735832984544
 30
0.0
 11
121.8253389115122
 21
175.6574034492533
 31
0.0
  0
LINE
  5
BD3
330
94F
100
AcDbEntity
  8
SUNPOU
370
    -2
100
AcDbLine
 10
172.4662213561519
 20
178.5821768212166
 30
0.0
 11
124.9446566199918
 21
174.4245786305684
 31
0.0
  0
INSERT
  5
BD4
330
94F
100
AcDbEntity
  8
SUNPOU
370
    -2
100
AcDbBlockReference
  2
_OPEN
 10
175.4548054504096
 20
178.8436440496606
 30
0.0
 41
3.0
 42
3.0
 43
3.0
 50
5.000000003853779
  0
INSERT
  5
BD5
330
94F
100
AcDbEntity
  8
SUNPOU
370
    -2
100
AcDbBlockReference
  2
_OPEN
 10
121.9560725257342
 20
174.1631114021244
 30
0.0
 41
3.0
 42
3.0
 43
3.0
 50
185.0000000038538
  0
MTEXT
  5
BD6
330
94F
100
AcDbEntity
  8
SUNPOU
100
AcDbMText
 10
148.4875496310352
 20
178.9938644711072
 30
0.0
 40
3.0
 41
0.0
 71
     5
 72
     5
  1
\A1;54
 11
0.9961946980858833
 21
0.0871557428146639
 31
0.0
 73
     1
 44
1.0
1001
ACAD
1000
MTEXTBEGIN
1070
    73
1070
     1
1070
    44
1040
1.0
1070
    74
1070
     0
1000
MTEXTEND
1000
MTEXTBEGIN
1070
    73
1070
     1
1070
    44
1040
1.0
1070
    74
1070
     0
1000
MTEXTEND
  0
POINT
  5
BD7
330
94F
100
AcDbEntity
  8
Defpoints
 62
     0
100
AcDbPoint
 10
179.9498078245735
 20
127.4655318517329
 30
0.0
  0
POINT
  5
BD8
330
94F
100
AcDbEntity
  8
Defpoints
 62
     0
100
AcDbPoint
 10
126.4510748998981
 20
122.7849992041967
 30
0.0
  0
POINT
  5
BD9
330
94F
100
AcDbEntity
  8
Defpoints
 62
     0
100
AcDbPoint
 10
121.9560725257342
 20
174.1631114021244
 30
0.0
  0
ENDBLK
  5
95A
330
94F
100
AcDbEntity
  8
0
100
AcDbBlockEnd
  0
BLOCK
  5
966
330
95C
100
AcDbEntity
  8
0
100
AcDbBlockBegin
  2
*D4
 70
     1
 10
0.0
 20
0.0
 30
0.0
  3
*D4
  1

  0
LINE
  5
BDA
330
95C
100
AcDbEntity
  8
SUNPOU
370
    -2
100
AcDbLine
 10
161.401074899898
 20
76.50821815622826
 30
0.0
 11
177.5518835266234
 21
76.50821815622826
 31
0.0
  0
LINE
  5
BDB
330
95C
100
AcDbEntity
  8
SUNPOU
370
    -2
100
AcDbLine
 10
161.401074899898
 20
51.50821815622828
 30
0.0
 11
177.5518835266234
 21
51.50821815622827
 31
0.0
  0
LINE
  5
BDC
330
95C
100
AcDbEntity
  8
SUNPOU
370
    -2
100
AcDbLine
 10
176.0518835266234
 20
73.50821815622826
 30
0.0
 11
176.0518835266234
 21
54.50821815622827
 31
0.0
  0
INSERT
  5
BDD
330
95C
100
AcDbEntity
  8
SUNPOU
370
    -2
100
AcDbBlockReference
  2
_OPEN
 10
176.0518835266234
 20
76.50821815622826
 30
0.0
 41
3.0
 42
3.0
 43
3.0
 50
90.0
  0
INSERT
  5
BDE
330
95C
100
AcDbEntity
  8
SUNPOU
370
    -2
100
AcDbBlockReference
  2
_OPEN
 10
176.0518835266234
 20
51.50821815622827
 30
0.0
 41
3.0
 42
3.0
 43
3.0
 50
270.0
  0
MTEXT
  5
BDF
330
95C
100
AcDbEntity
  8
SUNPOU
100
AcDbMText
 10
173.5518835266234
 20
64.0082181562283
 30
0.0
 40
3.0
 41
0.0
 71
     5
 72
     5
  1
\A1;25
 11
0.0000000000000001
 21
1.0
 31
0.0
 73
     1
 44
1.0
1001
ACAD
1000
MTEXTBEGIN
1070
    73
1070
     1
1070
    44
1040
1.0
1070
    74
1070
     0
1000
MTEXTEND
1000
MTEXTBEGIN
1070
    73
1070
     1
1070
    44
1040
1.0
1070
    74
1070
     0
1000
MTEXTEND
  0
POINT
  5
BE0
330
95C
100
AcDbEntity
  8
Defpoints
 62
     0
100
AcDbPoint
 10
158.401074899898
 20
76.50821815622828
 30
0.0
  0
POINT
  5
BE1
330
95C
100
AcDbEntity
  8
Defpoints
 62
     0
100
AcDbPoint
 10
158.401074899898
 20
51.50821815622828
 30
0.0
  0
POINT
  5
BE2
330
95C
100
AcDbEntity
  8
Defpoints
 62
     0
100
AcDbPoint
 10
176.0518835266234
 20
51.50821815622827
 30
0.0
  0
ENDBLK
  5
967
330
95C
100
AcDbEntity
  8
0
100
AcDbBlockEnd
  0
BLOCK
  5
973
330
969
100
AcDbEntity
  8
0
100
AcDbBlockBegin
  2
*D5
 70
     1
 10
0.0
 20
0.0
 30
0.0
  3
*D5
  1

  0
LINE
  5
BE3
330
969
100
AcDbEntity
  8
SUNPOU
370
    -2
100
AcDbLine
 10
94.50107489989809
 20
48.50821815622828
 30
0.0
 11
94.50107489989809
 21
28.05720052470246
 31
0.0
  0
LINE
  5
BE4
330
969
100
AcDbEntity
  8
SUNPOU
370
    -2
100
AcDbLine
 10
158.401074899898
 20
48.50821815622828
 30
0.0
 11
158.401074899898
 21
28.05720052470246
 31
0.0
  0
LINE
  5
BE5
330
969
100
AcDbEntity
  8
SUNPOU
370
    -2
100
AcDbLine
 10
97.50107489989808
 20
29.55720052470246
 30
0.0
 11
155.401074899898
 21
29.55720052470246
 31
0.0
  0
INSERT
  5
BE6
330
969
100
AcDbEntity
  8
SUNPOU
370
    -2
100
AcDbBlockReference
  2
_OPEN
 10
94.50107489989809
 20
29.55720052470246
 30
0.0
 41
3.0
 42
3.0
 43
3.0
 50
180.0
  0
INSERT
  5
BE7
330
969
100
AcDbEntity
  8
SUNPOU
370
    -2
100
AcDbBlockReference
  2
_OPEN
 10
158.401074899898
 20
29.55720052470246
 30
0.0
 41
3.0
 42
3.0
 43
3.0
  0
MTEXT
  5
BE8
330
969
100
AcDbEntity
  8
SUNPOU
100
AcDbMText
 10
126.451074899898
 20
32.05720052470246
 30
0.0
 40
3.0
 41
0.0
 71
     5
 72
     5
  1
\A1;64
 73
     1
 44
1.0
1001
ACAD
1000
MTEXTBEGIN
1070
    73
1070
     1
1070
    44
1040
1.0
1070
    74
1070
     0
1000
MTEXTEND
1000
MTEXTBEGIN
1070
    73
1070
     1
1070
    44
1040
1.0
1070
    74
1070
     0
1000
MTEXTEND
  0
POINT
  5
BE9
330
969
100
AcDbEntity
  8
Defpoints
 62
     0
100
AcDbPoint
 10
94.50107489989809
 20
51.50821815622828
 30
0.0
  0
POINT
  5
BEA
330
969
100
AcDbEntity
  8
Defpoints
 62
     0
100
AcDbPoint
 10
158.401074899898
 20
51.50821815622828
 30
0.0
  0
POINT
  5
BEB
330
969
100
AcDbEntity
  8
Defpoints
 62
     0
100
AcDbPoint
 10
158.401074899898
 20
29.55720052470246
 30
0.0
  0
ENDBLK
  5
974
330
969
100
AcDbEntity
  8
0
100
AcDbBlockEnd
  0
BLOCK
  5
980
330
976
100
AcDbEntity
  8
0
100
AcDbBlockBegin
  2
*D6
 70
     1
 10
0.0
 20
0.0
 30
0.0
  3
*D6
  1

  0
LINE
  5
BEC
330
976
100
AcDbEntity
  8
SUNPOU
370
    -2
100
AcDbLine
 10
219.501074899898
 20
48.50821816622829
 30
0.0
 11
219.501074899898
 21
28.05720052470246
 31
0.0
  0
LINE
  5
BED
330
976
100
AcDbEntity
  8
SUNPOU
370
    -2
100
AcDbLine
 10
283.401074899898
 20
48.50821816622829
 30
0.0
 11
283.401074899898
 21
28.05720052470246
 31
0.0
  0
LINE
  5
BEE
330
976
100
AcDbEntity
  8
SUNPOU
370
    -2
100
AcDbLine
 10
222.5010748998981
 20
29.55720052470246
 30
0.0
 11
280.401074899898
 21
29.55720052470246
 31
0.0
  0
INSERT
  5
BEF
330
976
100
AcDbEntity
  8
SUNPOU
370
    -2
100
AcDbBlockReference
  2
_OPEN
 10
219.501074899898
 20
29.55720052470246
 30
0.0
 41
3.0
 42
3.0
 43
3.0
 50
180.0
  0
INSERT
  5
BF0
330
976
100
AcDbEntity
  8
SUNPOU
370
    -2
100
AcDbBlockReference
  2
_OPEN
 10
283.401074899898
 20
29.55720052470246
 30
0.0
 41
3.0
 42
3.0
 43
3.0
  0
MTEXT
  5
BF1
330
976
100
AcDbEntity
  8
SUNPOU
100
AcDbMText
 10
251.451074899898
 20
32.05720052470246
 30
0.0
 40
3.0
 41
0.0
 71
     5
 72
     5
  1
\A1;64
 73
     1
 44
1.0
1001
ACAD
1000
MTEXTBEGIN
1070
    73
1070
     1
1070
    44
1040
1.0
1070
    74
1070
     0
1000
MTEXTEND
1000
MTEXTBEGIN
1070
    73
1070
     1
1070
    44
1040
1.0
1070
    74
1070
     0
1000
MTEXTEND
  0
POINT
  5
BF2
330
976
100
AcDbEntity
  8
Defpoints
 62
     0
100
AcDbPoint
 10
219.501074899898
 20
51.50821816622829
 30
0.0
  0
POINT
  5
BF3
330
976
100
AcDbEntity
  8
Defpoints
 62
     0
100
AcDbPoint
 10
283.401074899898
 20
51.50821816622829
 30
0.0
  0
POINT
  5
BF4
330
976
100
AcDbEntity
  8
Defpoints
 62
     0
100
AcDbPoint
 10
283.401074899898
 20
29.55720052470246
 30
0.0
  0
ENDBLK
  5
981
330
976
100
AcDbEntity
  8
0
100
AcDbBlockEnd
  0
BLOCK
  5
98D
330
983
100
AcDbEntity
  8
0
100
AcDbBlockBegin
  2
*D7
 70
     1
 10
0.0
 20
0.0
 30
0.0
  3
*D7
  1

  0
LINE
  5
BF5
330
983
100
AcDbEntity
  8
SUNPOU
370
    -2
100
AcDbLine
 10
91.50107489989808
 20
51.50821815622828
 30
0.0
 11
69.60655951427179
 21
51.50821815622829
 31
0.0
  0
LINE
  5
BF6
330
983
100
AcDbEntity
  8
SUNPOU
370
    -2
100
AcDbLine
 10
91.50107489989808
 20
91.5082181862283
 30
0.0
 11
69.60655951427179
 21
91.5082181862283
 31
0.0
  0
LINE
  5
BF7
330
983
100
AcDbEntity
  8
SUNPOU
370
    -2
100
AcDbLine
 10
71.1065595142718
 20
54.50821815622829
 30
0.0
 11
71.1065595142718
 21
88.50821818622831
 31
0.0
  0
INSERT
  5
BF8
330
983
100
AcDbEntity
  8
SUNPOU
370
    -2
100
AcDbBlockReference
  2
_OPEN
 10
71.1065595142718
 20
51.50821815622829
 30
0.0
 41
3.0
 42
3.0
 43
3.0
 50
270.0
  0
INSERT
  5
BF9
330
983
100
AcDbEntity
  8
SUNPOU
370
    -2
100
AcDbBlockReference
  2
_OPEN
 10
71.1065595142718
 20
91.5082181862283
 30
0.0
 41
3.0
 42
3.0
 43
3.0
 50
90.0
  0
MTEXT
  5
BFA
330
983
100
AcDbEntity
  8
SUNPOU
100
AcDbMText
 10
68.60655951427178
 20
71.50821817122831
 30
0.0
 40
3.0
 41
0.0
 71
     5
 72
     5
  1
\A1;40
 11
0.0000000000000001
 21
1.0
 31
0.0
 73
     1
 44
1.0
1001
ACAD
1000
MTEXTBEGIN
1070
    73
1070
     1
1070
    44
1040
1.0
1070
    74
1070
     0
1000
MTEXTEND
1000
MTEXTBEGIN
1070
    73
1070
     1
1070
    44
1040
1.0
1070
    74
1070
     0
1000
MTEXTEND
  0
POINT
  5
BFB
330
983
100
AcDbEntity
  8
Defpoints
 62
     0
100
AcDbPoint
 10
94.50107489989809
 20
51.50821815622828
 30
0.0
  0
POINT
  5
BFC
330
983
100
AcDbEntity
  8
Defpoints
 62
     0
100
AcDbPoint
 10
94.50107489989809
 20
91.5082181862283
 30
0.0
  0
POINT
  5
BFD
330
983
100
AcDbEntity
  8
Defpoints
 62
     0
100
AcDbPoint
 10
71.1065595142718
 20
91.5082181862283
 30
0.0
  0
ENDBLK
  5
98E
330
983
100
AcDbEntity
  8
0
100
AcDbBlockEnd
  0
BLOCK
  5
99A
330
990
100
AcDbEntity
  8
0
100
AcDbBlockBegin
  2
*D8
 70
     1
 10
0.0
 20
0.0
 30
0.0
  3
*D8
  1

  0
LINE
  5
BFE
330
990
100
AcDbEntity
  8
SUNPOU
370
    -2
100
AcDbLine
 10
123.451074899898
 20
122.7849992041967
 30
0.0
 11
60.15029171065227
 21
122.7849992041968
 31
0.0
  0
LINE
  5
BFF
330
990
100
AcDbEntity
  8
SUNPOU
370
    -2
100
AcDbLine
 10
91.50107489989808
 20
51.50821815622828
 30
0.0
 11
60.15029171065226
 21
51.50821815622829
 31
0.0
  0
LINE
  5
C00
330
990
100
AcDbEntity
  8
SUNPOU
370
    -2
100
AcDbLine
 10
61.65029171065227
 20
119.7849992041968
 30
0.0
 11
61.65029171065225
 21
54.50821815622829
 31
0.0
  0
INSERT
  5
C01
330
990
100
AcDbEntity
  8
SUNPOU
370
    -2
100
AcDbBlockReference
  2
_OPEN
 10
61.65029171065227
 20
122.7849992041968
 30
0.0
 41
3.0
 42
3.0
 43
3.0
 50
90.0
  0
INSERT
  5
C02
330
990
100
AcDbEntity
  8
SUNPOU
370
    -2
100
AcDbBlockReference
  2
_OPEN
 10
61.65029171065225
 20
51.50821815622829
 30
0.0
 41
3.0
 42
3.0
 43
3.0
 50
270.0
  0
MTEXT
  5
C03
330
990
100
AcDbEntity
  8
SUNPOU
100
AcDbMText
 10
59.15029171065224
 20
87.14660868021256
 30
0.0
 40
3.0
 41
0.0
 71
     5
 72
     5
  1
\A1;71
 11
0.0000000000000001
 21
1.0
 31
0.0
 73
     1
 44
1.0
1001
ACAD
1000
MTEXTBEGIN
1070
    73
1070
     1
1070
    44
1040
1.0
1070
    74
1070
     0
1000
MTEXTEND
1000
MTEXTBEGIN
1070
    73
1070
     1
1070
    44
1040
1.0
1070
    74
1070
     0
1000
MTEXTEND
  0
POINT
  5
C04
330
990
100
AcDbEntity
  8
Defpoints
 62
     0
100
AcDbPoint
 10
126.451074899898
 20
122.7849992041967
 30
0.0
  0
POINT
  5
C05
330
990
100
AcDbEntity
  8
Defpoints
 62
     0
100
AcDbPoint
 10
94.50107489989809
 20
51.50821815622828
 30
0.0
  0
POINT
  5
C06
330
990
100
AcDbEntity
  8
Defpoints
 62
     0
100
AcDbPoint
 10
61.65029171065225
 20
51.50821815622829
 30
0.0
  0
ENDBLK
  5
99B
330
990
100
AcDbEntity
  8
0
100
AcDbBlockEnd
  0
BLOCK
  5
9A8
330
99E
100
AcDbEntity
  8
0
100
AcDbBlockBegin
  2
*D9
 70
     1
 10
0.0
 20
0.0
 30
0.0
  3
*D9
  1

  0
LINE
  5
C07
330
99E
100
AcDbEntity
  8
SUNPOU
370
    -2
100
AcDbLine
 10
180.1537659538387
 20
159.5554196275835
 30
0.0
 11
194.1478564970048
 21
160.7797439016992
 31
0.0
  0
LINE
  5
C08
330
99E
100
AcDbEntity
  8
SUNPOU
370
    -2
100
AcDbLine
 10
185.7230178942617
 20
95.89857841346105
 30
0.0
 11
199.7171084374277
 21
97.1229026875768
 31
0.0
  0
LINE
  5
C09
330
99E
100
AcDbEntity
  8
SUNPOU
370
    -2
100
AcDbLine
 10
192.9150316770557
 20
157.6604261937192
 30
0.0
 11
197.9613491630132
 21
99.98075316832405
 31
0.0
  0
INSERT
  5
C0A
330
99E
100
AcDbEntity
  8
SUNPOU
370
    -2
100
AcDbBlockReference
  2
_OPEN
 10
192.653564449823
 20
160.6490102880829
 30
0.0
 41
3.0
 42
3.0
 43
3.0
 50
94.99999998063231
  0
INSERT
  5
C0B
330
99E
100
AcDbEntity
  8
SUNPOU
370
    -2
100
AcDbBlockReference
  2
_OPEN
 10
198.2228163902459
 20
96.99216907396042
 30
0.0
 41
3.0
 42
3.0
 43
3.0
 50
274.9999999806323
  0
MTEXT
  5
C0C
330
99E
100
AcDbEntity
  8
SUNPOU
100
AcDbMText
 10
197.9286771653375
 20
129.0384790370489
 30
0.0
 40
3.0
 41
0.0
 71
     5
 72
     5
  1
\A1;64
 11
0.0871557424109149
 21
-0.9961946981212067
 31
0.0
 73
     1
 44
1.0
1001
ACAD
1000
MTEXTBEGIN
1070
    73
1070
     1
1070
    44
1040
1.0
1070
    74
1070
     0
1000
MTEXTEND
1000
MTEXTBEGIN
1070
    73
1070
     1
1070
    44
1040
1.0
1070
    74
1070
     0
1000
MTEXTEND
  0
POINT
  5
C0D
330
99E
100
AcDbEntity
  8
Defpoints
 62
     0
100
AcDbPoint
 10
177.1651818594751
 20
159.2939524003508
 30
0.0
  0
POINT
  5
C0E
330
99E
100
AcDbEntity
  8
Defpoints
 62
     0
100
AcDbPoint
 10
182.7344337998981
 20
95.63711118622832
 30
0.0
  0
POINT
  5
C0F
330
99E
100
AcDbEntity
  8
Defpoints
 62
     0
100
AcDbPoint
 10
198.2228163902459
 20
96.99216907396042
 30
0.0
  0
ENDBLK
  5
9A9
330
99E
100
AcDbEntity
  8
0
100
AcDbBlockEnd
  0
BLOCK
  5
9B5
330
9AB
100
AcDbEntity
  8
0
100
AcDbBlockBegin
  2
*D10
 70
     1
 10
0.0
 20
0.0
 30
0.0
  3
*D10
  1

  0
LINE
  5
C10
330
9AB
100
AcDbEntity
  8
SUNPOU
370
    -2
100
AcDbLine
 10
219.501074899898
 20
152.3799455862283
 30
0.0
 11
219.501074899898
 21
183.2781344797419
 31
0.0
  0
LINE
  5
C11
330
9AB
100
AcDbEntity
  8
SUNPOU
370
    -2
100
AcDbLine
 10
283.401074899898
 20
152.3799455862283
 30
0.0
 11
283.401074899898
 21
183.2781344797419
 31
0.0
  0
LINE
  5
C12
330
9AB
100
AcDbEntity
  8
SUNPOU
370
    -2
100
AcDbLine
 10
222.5010748998981
 20
181.778134479742
 30
0.0
 11
280.401074899898
 21
181.778134479742
 31
0.0
  0
INSERT
  5
C13
330
9AB
100
AcDbEntity
  8
SUNPOU
370
    -2
100
AcDbBlockReference
  2
_OPEN
 10
219.501074899898
 20
181.778134479742
 30
0.0
 41
3.0
 42
3.0
 43
3.0
 50
180.0
  0
INSERT
  5
C14
330
9AB
100
AcDbEntity
  8
SUNPOU
370
    -2
100
AcDbBlockReference
  2
_OPEN
 10
283.401074899898
 20
181.778134479742
 30
0.0
 41
3.0
 42
3.0
 43
3.0
  0
MTEXT
  5
C15
330
9AB
100
AcDbEntity
  8
SUNPOU
100
AcDbMText
 10
251.451074899898
 20
184.2781344797419
 30
0.0
 40
3.0
 41
0.0
 71
     5
 72
     5
  1
\A1;64
 73
     1
 44
1.0
1001
ACAD
1000
MTEXTBEGIN
1070
    73
1070
     1
1070
    44
1040
1.0
1070
    74
1070
     0
1000
MTEXTEND
1000
MTEXTBEGIN
1070
    73
1070
     1
1070
    44
1040
1.0
1070
    74
1070
     0
1000
MTEXTEND
  0
POINT
  5
C16
330
9AB
100
AcDbEntity
  8
Defpoints
 62
     0
100
AcDbPoint
 10
219.501074899898
 20
149.3799455862283
 30
0.0
  0
POINT
  5
C17
330
9AB
100
AcDbEntity
  8
Defpoints
 62
     0
100
AcDbPoint
 10
283.401074899898
 20
149.3799455862283
 30
0.0
  0
POINT
  5
C18
330
9AB
100
AcDbEntity
  8
Defpoints
 62
     0
100
AcDbPoint
 10
283.401074899898
 20
181.778134479742
 30
0.0
  0
ENDBLK
  5
9B6
330
9AB
100
AcDbEntity
  8
0
100
AcDbBlockEnd
  0
ENDSEC
  0
SECTION
  2
ENTITIES
  0
LINE
  5
6C
330
1A
100
AcDbEntity
  8
ZUWAKU
 48
5.0
100
AcDbLine
 10
403.0
 20
7.0
 30
0.0
 11
5.0
 21
7.0
 31
0.0
  0
LINE
  5
6D
330
1A
100
AcDbEntity
  8
ZUWAKU
 48
5.0
100
AcDbLine
 10
5.0
 20
282.0
 30
0.0
 11
5.0
 21
7.0
 31
0.0
  0
LINE
  5
6E
330
1A
100
AcDbEntity
  8
ZUWAKU
 48
5.0
100
AcDbLine
 10
403.0
 20
282.0
 30
0.0
 11
403.0
 21
7.0
 31
0.0
  0
LINE
  5
6F
330
1A
100
AcDbEntity
  8
ZUWAKU
 48
5.0
100
AcDbLine
 10
403.0
 20
282.0
 30
0.0
 11
5.0
 21
282.0
 31
0.0
  0
LINE
  5
8E
330
1A
100
AcDbEntity
  8
ZUWAKU
 48
5.0
100
AcDbLine
 10
5.0
 20
13.0
 30
0.0
 11
403.0
 21
12.99999999999994
 31
0.0
  0
TEXT
  5
92
330
1A
100
AcDbEntity
  8
ZUWAKU
 48
5.0
100
AcDbText
 10
25.15073007242387
 20
8.160237806787449
 30
0.0
 40
4.0
  1
ライナートップ　たてとい
100
AcDbText
  0
TEXT
  5
93
330
1A
100
AcDbEntity
  8
ZUWAKU
 48
5.0
100
AcDbText
 10
8.003143713074223
 20
7.870178177610682
 30
0.0
 40
4.0
  1
品 種
100
AcDbText
  0
TEXT
  5
97
330
1A
100
AcDbEntity
  8
ZUWAKU
 48
5.0
100
AcDbText
 10
107.7028028167073
 20
8.200497435100942
 30
0.0
 40
4.0
  1
品名・ｻ ｲ ｽﾞ
100
AcDbText
  0
TEXT
  5
99
330
1A
100
AcDbEntity
  8
ZUWAKU
 48
5.0
100
AcDbText
 10
141.1313324528735
 20
7.9299153608506
 30
0.0
 40
4.0
  1
ターンエルボ　Ｙ６０Ｈ－８５°
100
AcDbText
  0
LINE
  5
9A
330
1A
100
AcDbEntity
  8
ZUWAKU
 48
5.0
100
AcDbLine
 10
324.3551403257206
 20
6.999999999999836
 30
0.0
 11
324.3551403257206
 21
12.99999999999995
 31
0.0
  0
LINE
  5
9B
330
1A
100
AcDbEntity
  8
ZUWAKU
 48
5.0
100
AcDbLine
 10
307.142312366876
 20
6.999999999999836
 30
0.0
 11
307.142312366876
 21
12.99999999999995
 31
0.0
  0
TEXT
  5
9C
330
1A
100
AcDbEntity
  8
ZUWAKU
 48
5.0
100
AcDbText
 10
310.1429253763237
 20
7.934661405801826
 30
0.0
 40
4.0
  1
品 番
100
AcDbText
  0
TEXT
  5
9D
330
1A
100
AcDbEntity
  8
ZUWAKU
 48
5.0
100
AcDbText
 10
327.1013476411085
 20
8.060146781246267
 30
0.0
 40
4.0
  1
ＰＦ３４
100
AcDbText
  0
TEXT
  5
9E
330
1A
100
AcDbEntity
  8
ZUWAKU
 48
5.0
100
AcDbText
 10
322.9513761015196
 20
2.449000558492457
 30
0.0
 40
4.0
  1
積水化学工業株式会社  建材
100
AcDbText
  0
TEXT
  5
A1
330
1A
100
AcDbEntity
  8
ZUWAKU
 48
5.0
100
AcDbText
 10
389.843492473331
 20
7.886151458996323
 30
0.0
 40
4.0
  1
1/1
100
AcDbText
  0
TEXT
  5
A2
330
1A
100
AcDbEntity
  8
ZUWAKU
 48
5.0
100
AcDbText
 10
369.8225424558458
 20
7.729845637642938
 30
0.0
 40
4.0
  1
尺 度
100
AcDbText
  0
LINE
  5
A3
330
1A
100
AcDbEntity
  8
ZUWAKU
 48
5.0
100
AcDbLine
 10
366.8807110760169
 20
6.999999999999886
 30
0.0
 11
366.8807110760169
 21
12.99999999999994
 31
0.0
  0
TEXT
  5
A6
330
1A
100
AcDbEntity
  8
ZUWAKU
 48
5.0
100
AcDbText
 10
396.1622424237184
 20
2.480970960763784
 30
0.0
 40
4.0
  1
A3
100
AcDbText
  0
LINE
  5
F5
330
1A
100
AcDbEntity
  8
ZUWAKU
 48
5.0
100
AcDbLine
 10
22.25374857290876
 20
7.0
 30
0.0
 11
22.25374857290876
 21
13.0
 31
0.0
  0
LINE
  5
F6
330
1A
100
AcDbEntity
  8
ZUWAKU
 48
5.0
100
AcDbLine
 10
104.7316872784438
 20
7.0
 30
0.0
 11
104.7316872784438
 21
12.99999999999998
 31
0.0
  0
LINE
  5
F8
330
1A
100
AcDbEntity
  8
ZUWAKU
 48
5.0
100
AcDbLine
 10
138.0261803105822
 20
7.0
 30
0.0
 11
138.0261803105822
 21
12.99999999999998
 31
0.0
  0
LINE
  5
100
330
1A
100
AcDbEntity
  8
ZUWAKU
 48
5.0
100
AcDbLine
 10
384.3363149538092
 20
6.999999999999862
 30
0.0
 11
384.3363149538092
 21
12.99999999999994
 31
0.0
  0
TEXT
  5
528
330
1A
100
AcDbEntity
  8
SUNPOU
 48
5.0
100
AcDbText
 10
310.1202948933157
 20
19.1764448133261
 30
0.0
 40
4.0
  1
※　たてといの差込み寸法を示す
100
AcDbText
  0
LINE
  5
706
330
1A
100
AcDbEntity
  8
SEIHIN
100
AcDbLine
 10
126.467367899898
 20
199.2376338916105
 30
0.0
 11
181.9500320998981
 21
199.2376338916105
 31
0.0
  0
LINE
  5
707
330
1A
100
AcDbEntity
  8
SEIHIN
100
AcDbLine
 10
126.441723799898
 20
263.1376338916105
 30
0.0
 11
181.950032099898
 21
263.1376338916105
 31
0.0
  0
LINE
  5
708
330
1A
100
AcDbEntity
  8
SEIHIN
100
AcDbLine
 10
125.6690725998981
 20
252.4376338916105
 30
0.0
 11
176.947292499898
 21
252.4376338916105
 31
0.0
  0
LINE
  5
709
330
1A
100
AcDbEntity
  8
SEIHIN
100
AcDbLine
 10
125.6690725998981
 20
209.9376338916105
 30
0.0
 11
176.947292499898
 21
209.9376338916105
 31
0.0
  0
LINE
  5
70A
330
1A
100
AcDbEntity
  8
CENTER L
100
AcDbLine
 10
86.93593919989808
 20
231.1876338916105
 30
0.0
 11
189.9751770178502
 21
231.1876338916105
 31
0.0
  0
LINE
  5
70B
330
1A
100
AcDbEntity
  8
SEIHIN
100
AcDbLine
 10
181.9500320998981
 20
104.6028634862283
 30
0.0
 11
126.451074899898
 21
99.74733388622832
 31
0.0
  0
LINE
  5
70C
330
1A
100
AcDbEntity
  8
SEIHIN
100
AcDbLine
 10
177.949583599898
 20
150.3282001862283
 30
0.0
 11
127.354110699898
 21
145.9016698862283
 31
0.0
  0
LINE
  5
70D
330
1A
100
AcDbEntity
  8
SEIHIN
100
AcDbLine
 10
182.734433799898
 20
95.63711118622832
 30
0.0
 11
158.401074899898
 21
93.50821818622831
 31
0.0
  0
LINE
  5
70E
330
1A
100
AcDbEntity
  8
SEIHIN
100
AcDbLine
 10
175.670889799898
 20
159.1632187862282
 30
0.0
 11
103.5010748998981
 21
152.8491781862283
 31
0.0
  0
LINE
  5
710
330
1A
100
AcDbEntity
  8
CENTER L
100
AcDbLine
 10
191.1847037998981
 20
128.4484578862283
 30
0.0
 11
119.4777120132969
 21
122.1749090044941
 31
0.0
  0
LINE
  5
711
330
1A
100
AcDbEntity
  8
SEIHIN
100
AcDbLine
 10
94.50107489989809
 20
133.6398047862283
 30
0.0
 11
94.50107489989809
 21
91.5082181862283
 31
0.0
  0
LINE
  5
713
330
1A
100
AcDbEntity
  8
SEIHIN
100
AcDbLine
 10
158.401074899898
 20
91.5082181862283
 30
0.0
 11
94.50107489989809
 21
91.5082181862283
 31
0.0
  0
ARC
  5
714
330
1A
100
AcDbEntity
  8
SEIHIN
100
AcDbCircle
 10
126.451074899898
 20
66.40821815622832
 30
0.0
 40
25.10000001648449
100
AcDbArc
 50
90.0
 51
156.1125435390508
  0
LINE
  5
715
330
1A
100
AcDbEntity
  8
SEIHIN
100
AcDbLine
 10
158.401074899898
 20
51.50821815622828
 30
0.0
 11
94.50107489989809
 21
51.50821815622828
 31
0.0
  0
LINE
  5
716
330
1A
100
AcDbEntity
  8
SEIHIN
100
AcDbLine
 10
158.401074899898
 20
91.5082181862283
 30
0.0
 11
94.50107489989809
 21
91.5082181862283
 31
0.0
  0
LINE
  5
718
330
1A
100
AcDbEntity
  8
SEIHIN
100
AcDbLine
 10
94.50107489989809
 20
51.50821815622828
 30
0.0
 11
94.50107489989809
 21
91.5082181862283
 31
0.0
  0
LINE
  5
71A
330
1A
100
AcDbEntity
  8
SEIHIN
100
AcDbLine
 10
103.5010748998981
 20
51.50821815622828
 30
0.0
 11
103.5010748998981
 21
76.5722472462283
 31
0.0
  0
ARC
  5
71B
330
1A
100
AcDbEntity
  8
SEIHIN
100
AcDbCircle
 10
99.0010748998981
 20
76.57224787622829
 30
0.0
 40
4.500000000000035
100
AcDbArc
 50
359.999991978591
 51
179.9999956709868
  0
ARC
  5
71C
330
1A
100
AcDbEntity
  8
SEIHIN
100
AcDbCircle
 10
126.451074899898
 20
66.40821815622832
 30
0.0
 40
25.10000001648449
100
AcDbArc
 50
23.88745646094911
 51
90.0
  0
LINE
  5
71D
330
1A
100
AcDbEntity
  8
SEIHIN
100
AcDbLine
 10
158.401074899898
 20
51.50821815622828
 30
0.0
 11
158.401074899898
 21
91.5082181862283
 31
0.0
  0
LINE
  5
71E
330
1A
100
AcDbEntity
  8
CENTER L
100
AcDbLine
 10
126.451074899898
 20
129.7849992041967
 30
0.0
 11
126.451074899898
 21
44.50821815622828
 31
0.0
  0
LINE
  5
71F
330
1A
100
AcDbEntity
  8
SEIHIN
100
AcDbLine
 10
149.401074899898
 20
51.50821815622828
 30
0.0
 11
149.401074899898
 21
76.5722472462283
 31
0.0
  0
ARC
  5
720
330
1A
100
AcDbEntity
  8
SEIHIN
100
AcDbCircle
 10
153.901074899898
 20
76.57224787622829
 30
0.0
 40
4.500000000000028
100
AcDbArc
 50
0.0000043290131818
 51
180.0000080214089
  0
ARC
  5
721
330
1A
100
AcDbEntity
  8
SEIHIN
100
AcDbCircle
 10
122.093849599898
 20
65.01961315622827
 30
0.0
 40
35.00000001157952
100
AcDbArc
 50
54.48467256939451
 51
82.84857087626708
  0
LINE
  5
722
330
1A
100
AcDbEntity
  8
SEIHIN
100
AcDbLine
 10
126.451074899898
 20
93.79118128622826
 30
0.0
 11
126.451074899898
 21
93.50821818622831
 31
0.0
  0
LINE
  5
723
330
1A
100
AcDbEntity
  8
SEIHIN
100
AcDbLine
 10
158.401074899898
 20
93.50821818622831
 30
0.0
 11
142.426074899898
 21
93.50821818622831
 31
0.0
  0
LINE
  5
724
330
1A
100
AcDbEntity
  8
SEIHIN
100
AcDbLine
 10
158.401074899898
 20
93.50821818622831
 30
0.0
 11
158.401074899898
 21
91.5082181862283
 31
0.0
  0
ELLIPSE
  5
725
330
1A
100
AcDbEntity
  8
SEIHIN
100
AcDbEllipse
 10
125.6690725998981
 20
231.1876338916105
 30
0.0
 11
22.16799771310169
 21
0.0
 31
0.0
210
0.0
220
0.0
230
1.0
 40
0.9585890559393211
 41
1.570796326794896
 42
4.712388980384703
  0
ARC
  5
726
330
1A
100
AcDbEntity
  8
SEIHIN
100
AcDbCircle
 10
126.451070599898
 20
231.1876351916105
 30
0.0
 40
31.95000001185192
100
AcDbArc
 50
90.01676157115717
 51
270.0292258700849
  0
ARC
  5
727
330
1A
100
AcDbEntity
  8
SEIHIN
100
AcDbCircle
 10
128.127533499898
 20
129.9082181862282
 30
0.0
 40
25.00000003272469
100
AcDbArc
 50
95.00000213672521
 51
176.3305622003597
  0
ARC
  5
728
330
1A
100
AcDbEntity
  8
SEIHIN
100
AcDbCircle
 10
129.794469999898
 20
118.0082181862283
 30
0.0
 40
27.99999999188479
100
AcDbArc
 50
94.99999692114871
 51
151.174550796105
  0
ARC
  5
729
330
1A
100
AcDbEntity
  8
SEIHIN
100
AcDbCircle
 10
119.501074899898
 20
133.6398054862282
 30
0.0
 40
24.99999999527506
100
AcDbArc
 50
129.7918195175951
 51
180.0000016042811
  0
LINE
  5
72A
330
1A
100
AcDbEntity
  8
SEIHIN
100
AcDbLine
 10
122.8414813998981
 20
252.4376338916105
 30
0.0
 11
147.837070299898
 21
252.4376338916105
 31
0.0
  0
LINE
  5
72B
330
1A
100
AcDbEntity
  8
SEIHIN
100
AcDbLine
 10
281.8010748998981
 20
147.6841257862282
 30
0.0
 11
281.8010748998981
 21
107.2469377862282
 31
0.0
  0
LINE
  5
72D
330
1A
100
AcDbEntity
  8
SEIHIN
100
AcDbLine
 10
283.401074899898
 20
149.3799455862283
 30
0.0
 11
283.401074899898
 21
105.5511141862282
 31
0.0
  0
LINE
  5
72E
330
1A
100
AcDbEntity
  8
CENTER L
100
AcDbLine
 10
251.4510748998981
 20
166.5082181862283
 30
0.0
 11
251.4510748998981
 21
44.50821815622827
 31
0.0
  0
LINE
  5
72F
330
1A
100
AcDbEntity
  8
SEIHIN
100
AcDbLine
 10
219.501074899898
 20
149.3799455862283
 30
0.0
 11
219.501074899898
 21
105.5511141862282
 31
0.0
  0
LINE
  5
730
330
1A
100
AcDbEntity
  8
SEIHIN
100
AcDbLine
 10
221.101074899898
 20
147.6841257862282
 30
0.0
 11
221.101074899898
 21
107.2469377862282
 31
0.0
  0
LINE
  5
731
330
1A
100
AcDbEntity
  8
SEIHIN
100
AcDbLine
 10
176.947292499898
 20
161.7844391862282
 30
0.0
 11
182.734433799898
 21
95.63711118622832
 31
0.0
  0
LINE
  5
734
330
1A
100
AcDbEntity
  8
SEIHIN
100
AcDbLine
 10
228.7078620998981
 20
102.2066924862282
 30
0.0
 11
274.194287699898
 21
102.2066924862282
 31
0.0
  0
LINE
  5
735
330
1A
100
AcDbEntity
  8
SEIHIN
100
AcDbLine
 10
219.501074899898
 20
91.5082181862283
 30
0.0
 11
283.401074899898
 21
91.5082181862283
 31
0.0
  0
LINE
  5
736
330
1A
100
AcDbEntity
  8
SEIHIN
100
AcDbLine
 10
283.401074899898
 20
51.50821816622829
 30
0.0
 11
219.501074899898
 21
51.50821816622829
 31
0.0
  0
LINE
  5
737
330
1A
100
AcDbEntity
  8
SEIHIN
100
AcDbLine
 10
283.401074899898
 20
91.5082181862283
 30
0.0
 11
219.501074899898
 21
91.5082181862283
 31
0.0
  0
ARC
  5
738
330
1A
100
AcDbEntity
  8
SEIHIN
100
AcDbCircle
 10
251.4510748998981
 20
66.40821816622827
 30
0.0
 40
25.10000000945979
100
AcDbArc
 50
90.0
 51
156.1125435599208
  0
LINE
  5
73A
330
1A
100
AcDbEntity
  8
SEIHIN
100
AcDbLine
 10
231.151105199898
 20
97.23102268622831
 30
0.0
 11
251.4510748998981
 21
97.23102268622831
 31
0.0
  0
LINE
  5
73B
330
1A
100
AcDbEntity
  8
SEIHIN
100
AcDbLine
 10
229.276825199898
 20
95.63711118622832
 30
0.0
 11
251.4510748998981
 21
95.63711118622832
 31
0.0
  0
LINE
  5
73C
330
1A
100
AcDbEntity
  8
SEIHIN
100
AcDbLine
 10
219.501074899898
 20
51.50821816622829
 30
0.0
 11
219.501074899898
 21
91.5082181862283
 31
0.0
  0
LINE
  5
73D
330
1A
100
AcDbEntity
  8
SEIHIN
100
AcDbLine
 10
228.5010748998981
 20
51.50821816622829
 30
0.0
 11
228.5010748998981
 21
76.5722472462283
 31
0.0
  0
ARC
  5
73E
330
1A
100
AcDbEntity
  8
SEIHIN
100
AcDbCircle
 10
224.001074899898
 20
76.57224787622829
 30
0.0
 40
4.500000000000028
100
AcDbArc
 50
359.999991978591
 51
179.9999956709868
  0
ELLIPSE
  5
73F
330
1A
100
AcDbEntity
  8
SEIHIN
100
AcDbEllipse
 10
219.501074899898
 20
95.63711118622832
 30
0.0
 11
0.0
 21
-8.965752281560252
 31
0.0
210
0.0
220
0.0
230
1.0
 40
0.9843389593016421
 41
1.671466063050053
 42
3.039802392308348
  0
ARC
  5
740
330
1A
100
AcDbEntity
  8
SEIHIN
100
AcDbCircle
 10
222.1010748998981
 20
107.2469377862282
 30
0.0
 40
0.9999999874684661
100
AcDbArc
 50
180.0
 51
264.3370142650097
  0
LINE
  5
741
330
1A
100
AcDbEntity
  8
SEIHIN
100
AcDbLine
 10
219.501074899898
 20
105.5511141862282
 30
0.0
 11
219.501074899898
 21
91.5082181862283
 31
0.0
  0
ARC
  5
742
330
1A
100
AcDbEntity
  8
SEIHIN
100
AcDbCircle
 10
220.5010748998981
 20
105.5511141862282
 30
0.0
 40
0.9999999642157668
100
AcDbArc
 50
180.0
 51
264.0755553310452
  0
ARC
  5
743
330
1A
100
AcDbEntity
  8
SEIHIN
100
AcDbCircle
 10
229.276825199898
 20
96.63711118622831
 30
0.0
 40
0.9999999885518583
100
AcDbArc
 50
185.678353170572
 51
270.0
  0
ELLIPSE
  5
744
330
1A
100
AcDbEntity
  8
SEIHIN
100
AcDbEllipse
 10
221.101074899898
 20
97.23102268622831
 30
0.0
 11
-9.100000000625625
 21
0.0
 31
0.0
210
0.0
220
0.0
230
1.0
 40
0.9961946979196254
 41
-3.042115347694618
 42
-1.670005485604088
  0
ARC
  5
745
330
1A
100
AcDbEntity
  8
SEIHIN
100
AcDbCircle
 10
231.151105199898
 20
98.23102268622831
 30
0.0
 40
1.000000017455553
100
AcDbArc
 50
185.7211927025268
 51
270.0
  0
ARC
  5
746
330
1A
100
AcDbEntity
  8
SEIHIN
100
AcDbCircle
 10
251.4510748998981
 20
66.40821816622827
 30
0.0
 40
25.10000000945979
100
AcDbArc
 50
23.88745644007911
 51
90.0
  0
LINE
  5
747
330
1A
100
AcDbEntity
  8
SEIHIN
100
AcDbLine
 10
283.401074899898
 20
51.50821816622829
 30
0.0
 11
283.401074899898
 21
91.5082181862283
 31
0.0
  0
LINE
  5
748
330
1A
100
AcDbEntity
  8
SEIHIN
100
AcDbLine
 10
274.401074899898
 20
51.50821816622829
 30
0.0
 11
274.401074899898
 21
76.5722472462283
 31
0.0
  0
ARC
  5
749
330
1A
100
AcDbEntity
  8
SEIHIN
100
AcDbCircle
 10
278.901074899898
 20
76.57224787622829
 30
0.0
 40
4.500000000000028
100
AcDbArc
 50
0.0000043290131818
 51
180.0000080214089
  0
LINE
  5
74A
330
1A
100
AcDbEntity
  8
SEIHIN
100
AcDbLine
 10
273.6253245998981
 20
95.63711118622832
 30
0.0
 11
251.4510748998981
 21
95.63711118622832
 31
0.0
  0
LINE
  5
74B
330
1A
100
AcDbEntity
  8
SEIHIN
100
AcDbLine
 10
271.7510445998981
 20
97.23102268622831
 30
0.0
 11
251.4510748998981
 21
97.23102268622831
 31
0.0
  0
ELLIPSE
  5
74C
330
1A
100
AcDbEntity
  8
SEIHIN
100
AcDbEllipse
 10
283.401074899898
 20
95.63711118622832
 30
0.0
 11
0.0
 21
-8.965752281560252
 31
0.0
210
0.0
220
0.0
230
-1.0
 40
0.9843389593016421
 41
1.671466063050053
 42
3.039802392308345
  0
LINE
  5
74D
330
1A
100
AcDbEntity
  8
SEIHIN
100
AcDbLine
 10
283.401074899898
 20
105.5511141862282
 30
0.0
 11
283.401074899898
 21
91.5082181862283
 31
0.0
  0
ARC
  5
74E
330
1A
100
AcDbEntity
  8
SEIHIN
100
AcDbCircle
 10
273.6253245998981
 20
96.63711118622831
 30
0.0
 40
0.9999999885518583
100
AcDbArc
 50
270.0
 51
354.3216468294279
  0
ELLIPSE
  5
74F
330
1A
100
AcDbEntity
  8
SEIHIN
100
AcDbEllipse
 10
281.8010748998981
 20
97.23102268622831
 30
0.0
 11
9.100000000625625
 21
0.0
 31
0.0
210
0.0
220
0.0
230
-1.0
 40
0.9961946979196254
 41
-3.042115347694618
 42
-1.670005485604088
  0
ARC
  5
750
330
1A
100
AcDbEntity
  8
SEIHIN
100
AcDbCircle
 10
271.7510445998981
 20
98.23102268622831
 30
0.0
 40
1.000000017455553
100
AcDbArc
 50
270.0
 51
354.2788072974731
  0
ARC
  5
751
330
1A
100
AcDbEntity
  8
SEIHIN
100
AcDbCircle
 10
280.8010748998981
 20
107.2469377862282
 30
0.0
 40
0.9999999874684649
100
AcDbArc
 50
275.6629857349886
 51
0.0
  0
ARC
  5
752
330
1A
100
AcDbEntity
  8
SEIHIN
100
AcDbCircle
 10
282.401074899898
 20
105.5511141862282
 30
0.0
 40
0.9999999642157668
100
AcDbArc
 50
275.9244446689547
 51
0.0
  0
LINE
  5
753
330
1A
100
AcDbEntity
  8
SEIHIN
100
AcDbLine
 10
176.947292499898
 20
199.2376338916105
 30
0.0
 11
176.947292499898
 21
263.1376338916105
 31
0.0
  0
LINE
  5
754
330
1A
100
AcDbEntity
  8
SEIHIN
100
AcDbLine
 10
175.453000499898
 20
209.9376338916105
 30
0.0
 11
175.453000499898
 21
252.4376338916105
 31
0.0
  0
LINE
  5
755
330
1A
100
AcDbEntity
  8
SEIHIN
100
AcDbLine
 10
176.947292499898
 20
199.2376338916105
 30
0.0
 11
176.947292499898
 21
263.1376338916105
 31
0.0
  0
LINE
  5
757
330
1A
100
AcDbEntity
  8
SEIHIN
100
AcDbLine
 10
229.3198318998981
 20
161.6410021862283
 30
0.0
 11
251.418621999898
 21
161.7844391862282
 31
0.0
  0
LINE
  5
758
330
1A
100
AcDbEntity
  8
SEIHIN
100
AcDbLine
 10
231.151105199898
 20
157.7000408862282
 30
0.0
 11
251.4510748998981
 21
157.7000408862282
 31
0.0
  0
LINE
  5
759
330
1A
100
AcDbEntity
  8
SEIHIN
100
AcDbLine
 10
176.947292499898
 20
161.7844391862282
 30
0.0
 11
175.453000499898
 21
161.6537055862282
 31
0.0
  0
LINE
  5
75A
330
1A
100
AcDbEntity
  8
SEIHIN
100
AcDbLine
 10
175.453000499898
 20
161.6537055862282
 30
0.0
 11
175.670889799898
 21
159.1632187862282
 31
0.0
  0
ELLIPSE
  5
75B
330
1A
100
AcDbEntity
  8
SEIHIN
100
AcDbEllipse
 10
219.501074899898
 20
159.2930176862282
 30
0.0
 11
0.0
 21
-8.964817534296768
 31
0.0
210
0.0
220
0.0
230
-1.0
 40
0.9844313657305512
 41
-1.570796326794896
 42
-0.1017917592992169
  0
LINE
  5
75C
330
1A
100
AcDbEntity
  8
SEIHIN
100
AcDbLine
 10
230.480168499898
 20
157.4415554862283
 30
0.0
 11
230.480168499898
 21
138.3635351865261
 31
0.0
  0
ELLIPSE
  5
75D
330
1A
100
AcDbEntity
  8
SEIHIN
100
AcDbEllipse
 10
221.101074899898
 20
157.7000408862282
 30
0.0
 11
9.100000000625625
 21
0.0
 31
0.0
210
0.0
220
0.0
230
-1.0
 40
0.9961946979196254
 41
0.0994773058951751
 42
1.471587167985704
  0
ARC
  5
75E
330
1A
100
AcDbEntity
  8
SEIHIN
100
AcDbCircle
 10
222.1010748998981
 20
147.6841257862282
 30
0.0
 40
1.000000037224446
100
AcDbArc
 50
95.6629851696136
 51
180.0
  0
ARC
  5
75F
330
1A
100
AcDbEntity
  8
SEIHIN
100
AcDbCircle
 10
220.5010748998981
 20
149.3799455862283
 30
0.0
 40
0.9999999670390621
100
AcDbArc
 50
95.92422574231287
 51
180.0
  0
ARC
  5
760
330
1A
100
AcDbEntity
  8
SEIHIN
100
AcDbCircle
 10
229.3263224998981
 20
160.6410231862282
 30
0.0
 40
1.000000032082337
100
AcDbArc
 50
90.3718865738099
 51
180.0
  0
LINE
  5
761
330
1A
100
AcDbEntity
  8
SEIHIN
100
AcDbLine
 10
228.3263224998981
 20
159.2930176862282
 30
0.0
 11
228.3263224998981
 21
160.6410231862282
 31
0.0
  0
ARC
  5
762
330
1A
100
AcDbEntity
  8
SEIHIN
100
AcDbCircle
 10
231.151105199898
 20
156.7000408862282
 30
0.0
 40
1.000000022439945
100
AcDbArc
 50
90.0
 51
174.2788015964358
  0
LINE
  5
763
330
1A
100
AcDbEntity
  8
SEIHIN
100
AcDbLine
 10
273.5498649998981
 20
161.6410021862283
 30
0.0
 11
251.4510748998981
 21
161.7844391862282
 31
0.0
  0
LINE
  5
764
330
1A
100
AcDbEntity
  8
SEIHIN
100
AcDbLine
 10
271.7510445998981
 20
157.7000408862282
 30
0.0
 11
251.4510748998981
 21
157.7000408862282
 31
0.0
  0
LINE
  5
765
330
1A
100
AcDbEntity
  8
SEIHIN
100
AcDbLine
 10
272.4219812998981
 20
157.4415554862283
 30
0.0
 11
272.4219812998981
 21
138.3635351865261
 31
0.0
  0
ELLIPSE
  5
766
330
1A
100
AcDbEntity
  8
SEIHIN
100
AcDbEllipse
 10
281.8010748998981
 20
157.7000408862282
 30
0.0
 11
-9.100000000625625
 21
0.0
 31
0.0
210
0.0
220
0.0
230
1.0
 40
0.9961946979196254
 41
0.0994773058951748
 42
1.471587167985704
  0
ELLIPSE
  5
767
330
1A
100
AcDbEntity
  8
SEIHIN
100
AcDbEllipse
 10
283.401074899898
 20
159.2930176862282
 30
0.0
 11
0.0
 21
-8.964817534296768
 31
0.0
210
0.0
220
0.0
230
1.0
 40
0.9844313657305512
 41
-1.570796326794896
 42
-0.1017917592992201
  0
ARC
  5
768
330
1A
100
AcDbEntity
  8
SEIHIN
100
AcDbCircle
 10
280.8010748998981
 20
147.6841257862282
 30
0.0
 40
1.000000037224445
100
AcDbArc
 50
0.0
 51
84.33701483038801
  0
ARC
  5
769
330
1A
100
AcDbEntity
  8
SEIHIN
100
AcDbCircle
 10
282.401074899898
 20
149.3799455862283
 30
0.0
 40
0.9999999670390621
100
AcDbArc
 50
0.0
 51
84.07577425768712
  0
ARC
  5
76A
330
1A
100
AcDbEntity
  8
SEIHIN
100
AcDbCircle
 10
271.7510445998981
 20
156.7000408862282
 30
0.0
 40
1.000000022439945
100
AcDbArc
 50
5.721198403564097
 51
90.0
  0
ARC
  5
76B
330
1A
100
AcDbEntity
  8
SEIHIN
100
AcDbCircle
 10
273.575827299898
 20
160.6410231862282
 30
0.0
 40
1.000000032082337
100
AcDbArc
 50
0.0
 51
89.6281134261901
  0
LINE
  5
76C
330
1A
100
AcDbEntity
  8
SEIHIN
100
AcDbLine
 10
274.575827299898
 20
159.2930176862282
 30
0.0
 11
274.575827299898
 21
160.6410231862282
 31
0.0
  0
LINE
  5
844
330
1A
100
AcDbEntity
  8
CENTER L
100
AcDbLine
 10
126.451074899898
 20
273.2119795805676
 30
0.0
 11
126.451074899898
 21
188.2119795505676
 31
0.0
  0
LINE
  5
90F
330
1A
100
AcDbEntity
  8
SEIHIN
100
AcDbLine
 10
182.5949846147038
 20
210.2167274916105
 30
0.0
 11
182.5949846147038
 21
252.1585402916104
 31
0.0
  0
LINE
  5
910
330
1A
100
AcDbEntity
  8
SEIHIN
100
AcDbLine
 10
182.734433799898
 20
208.0628814595282
 30
0.0
 11
182.734433799898
 21
254.3123863236927
 31
0.0
  0
ARC
  5
915
330
1A
100
AcDbEntity
  8
SEIHIN
100
AcDbCircle
 10
413.2850678617977
 20
186.2010768630484
 30
0.0
 40
231.9367715211718
100
AcDbArc
 50
174.0567159406382
 51
176.3818994982456
  0
ARC
  5
91A
330
1A
100
AcDbEntity
  8
SEIHIN
100
AcDbCircle
 10
23.89855991309662
 20
193.7490210907618
 30
0.0
 40
154.148768252698
100
AcDbArc
 50
2.040501769387986
 51
6.13260852270919
  0
ARC
  5
91B
330
1A
100
AcDbEntity
  8
SEIHIN
100
AcDbCircle
 10
-53.38545221265071
 20
186.2010768630484
 30
0.0
 40
231.9367715211718
100
AcDbArc
 50
3.618100501754336
 51
5.943284059361721
  0
LINE
  5
91C
330
1A
100
AcDbEntity
  8
SEIHIN
100
AcDbLine
 10
181.8105829112884
 20
200.837633854386
 30
0.0
 11
178.0890327378586
 21
200.837633854386
 31
0.0
  0
ARC
  5
91E
330
1A
100
AcDbEntity
  8
SEIHIN
100
AcDbCircle
 10
311.3044420026116
 20
192.1878963946864
 30
0.0
 40
129.5463706942606
100
AcDbArc
 50
172.9611178934895
 51
176.8805005497022
  0
ARC
  5
91F
330
1A
100
AcDbEntity
  8
SEIHIN
100
AcDbCircle
 10
-53.38545221265071
 20
276.1741909201725
 30
0.0
 40
231.9367715211718
100
AcDbArc
 50
354.0567159406383
 51
356.3818994982456
  0
ARC
  5
920
330
1A
100
AcDbEntity
  8
SEIHIN
100
AcDbCircle
 10
23.89855991309662
 20
268.6262466924592
 30
0.0
 40
154.148768252698
100
AcDbArc
 50
353.8673914772907
 51
357.959498230612
  0
ARC
  5
921
330
1A
100
AcDbEntity
  8
SEIHIN
100
AcDbCircle
 10
413.2850678617977
 20
276.1741909201725
 30
0.0
 40
231.9367715211718
100
AcDbArc
 50
183.6181005017543
 51
185.9432840593617
  0
ARC
  5
922
330
1A
100
AcDbEntity
  8
SEIHIN
100
AcDbCircle
 10
311.3044420026116
 20
270.1873713885345
 30
0.0
 40
129.5463706942606
100
AcDbArc
 50
183.1194994502977
 51
187.0388821065104
  0
LINE
  5
923
330
1A
100
AcDbEntity
  8
SEIHIN
100
AcDbLine
 10
181.8105829112884
 20
261.5376339288349
 30
0.0
 11
178.0890327378586
 21
261.5376339288349
 31
0.0
  0
LINE
  5
929
330
1A
100
AcDbEntity
  8
SEIHIN
100
AcDbLine
 10
177.3046310344431
 20
252.1585402916104
 30
0.0
 11
177.3046310344431
 21
210.2167274916105
 31
0.0
  0
LINE
  5
92A
330
1A
100
AcDbEntity
  8
SEIHIN
100
AcDbLine
 10
177.1651818492489
 20
252.1585402916106
 30
0.0
 11
177.1651818492489
 21
210.2167274916104
 31
0.0
  0
LINE
  5
92D
330
1A
100
AcDbEntity
  8
SEIHIN
100
AcDbLine
 10
177.3046310344431
 20
252.1585402916105
 30
0.0
 11
182.5949846147038
 21
252.1585402916106
 31
0.0
  0
LINE
  5
92E
330
1A
100
AcDbEntity
  8
SEIHIN
100
AcDbLine
 10
177.3046310344431
 20
210.2167274916104
 30
0.0
 11
182.5949846147038
 21
210.2167274916108
 31
0.0
  0
DIMENSION
  5
933
330
1A
100
AcDbEntity
  8
SUNPOU
100
AcDbDimension
  2
*D1
 10
119.4777120132969
 20
122.1749090044941
 30
0.0
 11
114.0737444262017
 21
109.2775132367962
 31
0.0
 70
    34
 71
     5
 42
-1.0
  3
STANDARD
100
AcDb2LineAngularDimension
 13
126.451074899898
 23
129.7849992041967
 33
0.0
 14
126.451074899898
 24
41.50821815622828
 34
0.0
 15
191.1847037998981
 25
128.4484578862283
 35
0.0
 16
109.0555782273738
 26
111.3438010563496
 36
0.0
1001
ACAD
1000
DSTYLE
1002
{
1070
   271
1070
     0
1070
   271
1070
     0
1070
   271
1070
     0
1070
   271
1070
     0
1070
   271
1070
     0
1070
    41
1040
3.0
1070
    42
1040
3.0
1070
    43
1040
7.0
1070
    44
1040
1.5
1070
    73
1070
     0
1070
    74
1070
     0
1070
    77
1070
     3
1070
   140
1040
3.0
1070
   141
1040
3.0
1070
   147
1040
1.0
1070
   172
1070
     1
1070
   173
1070
     1
1070
   176
1070
   256
1070
   177
1070
   256
1070
   178
1070
   256
1070
   271
1070
     0
1070
   272
1070
     0
1070
   341
1005
B2
1070
     6
1000
OPEN
1070
     7
1000
OPEN
1002
}
  0
DIMENSION
  5
941
330
1A
100
AcDbEntity
  8
SUNPOU
100
AcDbDimension
  2
*D2
 10
151.2644590909687
 20
168.4977372262699
 30
0.0
 11
163.4990034614565
 21
172.0776707517094
 31
0.0
 70
    33
 71
     5
 42
-1.0
  3
STANDARD
100
AcDbAlignedDimension
 13
176.947292499898
 23
161.7844391862282
 33
0.0
 14
152.0424250468679
 24
159.6055456259554
 34
0.0
1001
ACAD
1000
DSTYLE
1002
{
1070
    41
1040
3.0
1070
    42
1040
3.0
1070
    43
1040
7.0
1070
    44
1040
1.5
1070
    73
1070
     0
1070
    74
1070
     0
1070
    77
1070
     3
1070
   140
1040
3.0
1070
   141
1040
3.0
1070
   147
1040
1.0
1070
   172
1070
     1
1070
   173
1070
     1
1070
   176
1070
   256
1070
   177
1070
   256
1070
   178
1070
   256
1070
   271
1070
     0
1070
   272
1070
     0
1070
   341
1005
B2
1070
     6
1000
OPEN
1070
     7
1000
OPEN
1002
}
  0
DIMENSION
  5
94E
330
1A
100
AcDbEntity
  8
SUNPOU
100
AcDbDimension
  2
*D3
 10
121.9560725257342
 20
174.1631114021244
 30
0.0
 11
148.4875496310352
 21
178.9938644711072
 31
0.0
 70
    33
 71
     5
 42
-1.0
  3
STANDARD
100
AcDbAlignedDimension
 13
179.9498078245735
 23
127.4655318517329
 33
0.0
 14
126.451074899898
 24
122.7849992041967
 34
0.0
1001
ACAD
1000
DSTYLE
1002
{
1070
    41
1040
3.0
1070
    42
1040
3.0
1070
    43
1040
7.0
1070
    44
1040
1.5
1070
    73
1070
     0
1070
    74
1070
     0
1070
    77
1070
     3
1070
   140
1040
3.0
1070
   141
1040
3.0
1070
   147
1040
1.0
1070
   172
1070
     1
1070
   173
1070
     1
1070
   176
1070
   256
1070
   177
1070
   256
1070
   178
1070
   256
1070
   271
1070
     0
1070
   272
1070
     0
1070
   341
1005
B2
1070
     6
1000
OPEN
1070
     7
1000
OPEN
1002
}
  0
DIMENSION
  5
95B
330
1A
100
AcDbEntity
  8
SUNPOU
100
AcDbDimension
  2
*D4
 10
176.0518835266234
 20
51.50821815622827
 30
0.0
 11
173.5518835266234
 21
64.0082181562283
 31
0.0
 70
    32
 71
     5
 42
-1.0
  3
STANDARD
100
AcDbAlignedDimension
 13
158.401074899898
 23
76.50821815622828
 33
0.0
 14
158.401074899898
 24
51.50821815622828
 34
0.0
 50
90.0
100
AcDbRotatedDimension
1001
ACAD
1000
DSTYLE
1002
{
1070
    41
1040
3.0
1070
    42
1040
3.0
1070
    43
1040
7.0
1070
    44
1040
1.5
1070
    73
1070
     0
1070
    74
1070
     0
1070
    77
1070
     3
1070
   140
1040
3.0
1070
   141
1040
3.0
1070
   147
1040
1.0
1070
   172
1070
     1
1070
   173
1070
     1
1070
   176
1070
   256
1070
   177
1070
   256
1070
   178
1070
   256
1070
   271
1070
     0
1070
   272
1070
     0
1070
   341
1005
B2
1070
     6
1000
OPEN
1070
     7
1000
OPEN
1002
}
  0
DIMENSION
  5
968
330
1A
100
AcDbEntity
  8
SUNPOU
100
AcDbDimension
  2
*D5
 10
158.401074899898
 20
29.55720052470246
 30
0.0
 11
126.451074899898
 21
32.05720052470246
 31
0.0
 70
    32
 71
     5
 42
-1.0
  3
STANDARD
100
AcDbAlignedDimension
 13
94.50107489989809
 23
51.50821815622828
 33
0.0
 14
158.401074899898
 24
51.50821815622828
 34
0.0
100
AcDbRotatedDimension
1001
ACAD
1000
DSTYLE
1002
{
1070
    41
1040
3.0
1070
    42
1040
3.0
1070
    43
1040
7.0
1070
    44
1040
1.5
1070
    73
1070
     0
1070
    74
1070
     0
1070
    77
1070
     3
1070
   140
1040
3.0
1070
   141
1040
3.0
1070
   147
1040
1.0
1070
   172
1070
     1
1070
   173
1070
     1
1070
   176
1070
   256
1070
   177
1070
   256
1070
   178
1070
   256
1070
   271
1070
     0
1070
   272
1070
     0
1070
   341
1005
B2
1070
     6
1000
OPEN
1070
     7
1000
OPEN
1002
}
  0
DIMENSION
  5
975
330
1A
100
AcDbEntity
  8
SUNPOU
100
AcDbDimension
  2
*D6
 10
283.401074899898
 20
29.55720052470246
 30
0.0
 11
251.451074899898
 21
32.05720052470246
 31
0.0
 70
    32
 71
     5
 42
-1.0
  3
STANDARD
100
AcDbAlignedDimension
 13
219.501074899898
 23
51.50821816622829
 33
0.0
 14
283.401074899898
 24
51.50821816622829
 34
0.0
100
AcDbRotatedDimension
1001
ACAD
1000
DSTYLE
1002
{
1070
    41
1040
3.0
1070
    42
1040
3.0
1070
    43
1040
7.0
1070
    44
1040
1.5
1070
    73
1070
     0
1070
    74
1070
     0
1070
    77
1070
     3
1070
   140
1040
3.0
1070
   141
1040
3.0
1070
   147
1040
1.0
1070
   172
1070
     1
1070
   173
1070
     1
1070
   176
1070
   256
1070
   177
1070
   256
1070
   178
1070
   256
1070
   271
1070
     0
1070
   272
1070
     0
1070
   341
1005
B2
1070
     6
1000
OPEN
1070
     7
1000
OPEN
1002
}
  0
DIMENSION
  5
982
330
1A
100
AcDbEntity
  8
SUNPOU
100
AcDbDimension
  2
*D7
 10
71.1065595142718
 20
91.5082181862283
 30
0.0
 11
68.60655951427178
 21
71.50821817122831
 31
0.0
 70
    32
 71
     5
 42
-1.0
  3
STANDARD
100
AcDbAlignedDimension
 13
94.50107489989809
 23
51.50821815622828
 33
0.0
 14
94.50107489989809
 24
91.5082181862283
 34
0.0
 50
90.0
100
AcDbRotatedDimension
1001
ACAD
1000
DSTYLE
1002
{
1070
    41
1040
3.0
1070
    42
1040
3.0
1070
    43
1040
7.0
1070
    44
1040
1.5
1070
    73
1070
     0
1070
    74
1070
     0
1070
    77
1070
     3
1070
   140
1040
3.0
1070
   141
1040
3.0
1070
   147
1040
1.0
1070
   172
1070
     1
1070
   173
1070
     1
1070
   176
1070
   256
1070
   177
1070
   256
1070
   178
1070
   256
1070
   271
1070
     0
1070
   272
1070
     0
1070
   341
1005
B2
1070
     6
1000
OPEN
1070
     7
1000
OPEN
1002
}
  0
DIMENSION
  5
98F
330
1A
100
AcDbEntity
  8
SUNPOU
100
AcDbDimension
  2
*D8
 10
61.65029171065225
 20
51.50821815622829
 30
0.0
 11
59.15029171065224
 21
87.14660868021256
 31
0.0
 70
    32
 71
     5
 42
-1.0
  3
STANDARD
100
AcDbAlignedDimension
 13
126.451074899898
 23
122.7849992041967
 33
0.0
 14
94.50107489989809
 24
51.50821815622828
 34
0.0
 50
90.0
100
AcDbRotatedDimension
1001
ACAD
1000
DSTYLE
1002
{
1070
    41
1040
3.0
1070
    42
1040
3.0
1070
    43
1040
7.0
1070
    44
1040
1.5
1070
    73
1070
     0
1070
    74
1070
     0
1070
    77
1070
     3
1070
   140
1040
3.0
1070
   141
1040
3.0
1070
   147
1040
1.0
1070
   172
1070
     1
1070
   173
1070
     1
1070
   176
1070
   256
1070
   177
1070
   256
1070
   178
1070
   256
1070
   271
1070
     0
1070
   272
1070
     0
1070
   341
1005
B2
1070
     6
1000
OPEN
1070
     7
1000
OPEN
1002
}
  0
TEXT
  5
99C
330
1A
100
AcDbEntity
  8
SUNPOU
100
AcDbText
 10
173.1217680991039
 20
68.65096582845422
 30
0.0
 40
4.0
  1
※
 50
90.0
100
AcDbText
  0
DIMENSION
  5
99D
330
1A
100
AcDbEntity
  8
SUNPOU
100
AcDbDimension
  2
*D9
 10
198.2228163902459
 20
96.99216907396042
 30
0.0
 11
197.9286771653375
 21
129.0384790370489
 31
0.0
 70
    33
 71
     5
 42
-1.0
  3
STANDARD
100
AcDbAlignedDimension
 13
177.1651818594751
 23
159.2939524003507
 33
0.0
 14
182.734433799898
 24
95.63711118622832
 34
0.0
1001
ACAD
1000
DSTYLE
1002
{
1070
    41
1040
3.0
1070
    42
1040
3.0
1070
    43
1040
7.0
1070
    44
1040
1.5
1070
    73
1070
     0
1070
    74
1070
     0
1070
    77
1070
     3
1070
   140
1040
3.0
1070
   141
1040
3.0
1070
   147
1040
1.0
1070
   172
1070
     1
1070
   173
1070
     1
1070
   176
1070
   256
1070
   177
1070
   256
1070
   178
1070
   256
1070
   271
1070
     0
1070
   272
1070
     0
1070
   341
1005
B2
1070
     6
1000
OPEN
1070
     7
1000
OPEN
1002
}
  0
DIMENSION
  5
9AA
330
1A
100
AcDbEntity
  8
SUNPOU
100
AcDbDimension
  2
*D10
 10
283.401074899898
 20
181.778134479742
 30
0.0
 11
251.451074899898
 21
184.2781344797419
 31
0.0
 70
    32
 71
     5
 42
-1.0
  3
STANDARD
100
AcDbAlignedDimension
 13
219.501074899898
 23
149.3799455862283
 33
0.0
 14
283.401074899898
 24
149.3799455862283
 34
0.0
100
AcDbRotatedDimension
1001
ACAD
1000
DSTYLE
1002
{
1070
    41
1040
3.0
1070
    42
1040
3.0
1070
    43
1040
7.0
1070
    44
1040
1.5
1070
    73
1070
     0
1070
    74
1070
     0
1070
    77
1070
     3
1070
   140
1040
3.0
1070
   141
1040
3.0
1070
   147
1040
1.0
1070
   172
1070
     1
1070
   173
1070
     1
1070
   176
1070
   256
1070
   177
1070
   256
1070
   178
1070
   256
1070
   271
1070
     0
1070
   272
1070
     0
1070
   341
1005
B2
1070
     6
1000
OPEN
1070
     7
1000
OPEN
1002
}
  0
LINE
  5
A12
330
1A
100
AcDbEntity
  8
CENTER L
100
AcDbLine
 10
212.501074899898
 20
127.4655318517329
 30
0.0
 11
290.4010748998981
 21
127.4655318517329
 31
0.0
  0
TEXT
  5
AA3
330
1A
100
AcDbEntity
  8
SUNPOU
 48
5.0
100
AcDbText
 10
168.0754157518042
 20
172.4845928624785
 30
0.0
 40
4.0
  1
※
 50
4.999999999999999
100
AcDbText
  0
ARC
  5
CB5
330
1A
100
AcDbEntity
  8
SEIHIN
  6
Continuous
 62
     3
 48
5.0
100
AcDbCircle
 10
94.45155301622808
 20
263.1150118473542
 30
0.0
 40
9.000072755827357
100
AcDbArc
 50
275.7379843006774
 51
354.6812287872167
  0
LINE
  5
CB8
330
1A
100
AcDbEntity
  8
SEIHIN
  6
Continuous
 62
     3
 48
5.0
100
AcDbLine
 10
94.45107489989808
 20
231.1879338916106
 30
0.0
 11
94.4508748998982
 21
209.2108338916105
 31
0.0
  0
LINE
  5
CB9
330
1A
100
AcDbEntity
  8
SEIHIN
  6
Continuous
 62
     3
 48
5.0
100
AcDbLine
 10
126.450774899898
 20
199.1875338916106
 30
0.0
 11
104.4079748998981
 21
199.1878338916106
 31
0.0
  0
ARC
  5
CBB
330
1A
100
AcDbEntity
  8
SEIHIN
  6
Continuous
 62
     3
 48
5.0
100
AcDbCircle
 10
94.45105851696846
 20
199.26095039458
 30
0.0
 40
8.999968223005245
100
AcDbArc
 50
5.318868596914674
 51
84.26262385290394
  0
ARC
  5
CBC
330
1A
100
AcDbEntity
  8
SEIHIN
  6
Continuous
 62
     3
 48
5.0
100
AcDbCircle
 10
95.4508811498591
 20
209.2108269820275
 30
0.0
 40
1.000006249984775
100
AcDbArc
 50
179.9996041125315
 51
264.2605056144403
  0
ARC
  5
CBE
330
1A
100
AcDbEntity
  8
SEIHIN
  6
Continuous
 62
     3
 48
5.0
100
AcDbCircle
 10
104.4079767516204
 20
200.1877322041077
 30
0.0
 40
0.9999983124988613
100
AcDbArc
 50
185.3131128373838
 51
269.9998939039472
  0
LINE
  5
CC3
330
1A
100
AcDbEntity
  8
SEIHIN
  6
Continuous
 62
     3
 48
5.0
100
AcDbLine
 10
94.45107489989808
 20
231.1879338916106
 30
0.0
 11
94.45127489989809
 21
253.1650338916106
 31
0.0
  0
ARC
  5
CC7
330
1A
100
AcDbEntity
  8
SEIHIN
  6
Continuous
 62
     3
 48
5.0
100
AcDbCircle
 10
95.45128114985908
 20
253.1650408011936
 30
0.0
 40
1.000006249984867
100
AcDbArc
 50
95.73949438555805
 51
180.00039588747
  0
LINE
  5
CCB
330
1A
100
AcDbEntity
  8
SEIHIN
  6
Continuous
 62
     3
 48
5.0
100
AcDbLine
 10
126.4513748998982
 20
263.1877338916106
 30
0.0
 11
104.4085748998982
 21
263.1879338916106
 31
0.0
  0
ARC
  5
CCC
330
1A
100
AcDbEntity
  8
SEIHIN
  6
Continuous
 62
     3
 48
5.0
100
AcDbCircle
 10
104.4085716679916
 20
262.1879309466192
 30
0.0
 40
1.000002944996545
100
AcDbArc
 50
89.99981482593979
 51
174.6808909660761
  0
VIEWPORT
  5
22
330
17
100
AcDbEntity
 67
     1
  8
0
100
AcDbViewport
 10
313.6808219178082
 20
148.5
 30
0.0
 40
627.3616438356165
 41
297.0
 68
     2
 69
     1
 12
313.6808219178082
 22
148.5
 13
0.0
 23
0.0
 14
1.0
 24
1.0
 15
10.0
 25
10.0
 16
0.0
 26
0.0
 36
1.0
 17
0.0
 27
0.0
 37
0.0
 42
50.0
 43
0.0
 44
0.0
 45
297.0
 50
0.0
 51
0.0
 72
   100
 90
    32768
  1

281
     0
 71
     1
 74
     0
110
0.0
120
0.0
130
0.0
111
1.0
121
0.0
131
0.0
112
0.0
122
1.0
132
0.0
 79
     0
146
0.0
  0
VIEWPORT
  5
64
330
17
100
AcDbEntity
 67
     1
  8
VIEWPORT
100
AcDbViewport
 10
210.0
 20
148.5
 30
0.0
 40
420.0
 41
297.0
 68
     1
 69
     2
 12
210.0
 22
148.5
 13
0.0
 23
0.0
 14
5.0
 24
5.0
 15
0.0
 25
0.0
 16
0.0
 26
0.0
 36
1.0
 17
0.0
 27
0.0
 37
0.0
 42
50.0
 43
0.0
 44
0.0
 45
302.9399999999998
 50
0.0
 51
0.0
 72
   100
 90
    32768
  1

281
     0
 71
     1
 74
     0
110
0.0
120
0.0
130
0.0
111
1.0
121
0.0
131
0.0
112
0.0
122
1.0
132
0.0
 79
     0
146
0.0
  0
ENDSEC
  0
SECTION
  2
OBJECTS
  0
DICTIONARY
  5
C
330
0
100
AcDbDictionary
281
     1
  3
ACAD_GROUP
350
D
  3
ACAD_LAYOUT
350
141
  3
ACAD_MLINESTYLE
350
E
  3
ACAD_PLOTSETTINGS
350
142
  3
ACAD_PLOTSTYLENAME
350
13F
  0
DICTIONARY
  5
86D
330
1A
100
AcDbDictionary
280
     1
281
     1
  3
ACAD_LAYOUTSELFREF
360
D2C
  0
DICTIONARY
  5
86B
330
17
100
AcDbDictionary
280
     1
281
     1
  3
ACAD_LAYOUTSELFREF
360
D2B
  0
DICTIONARY
  5
D
102
{ACAD_REACTORS
330
C
102
}
330
C
100
AcDbDictionary
281
     1
  0
DICTIONARY
  5
141
102
{ACAD_REACTORS
330
C
102
}
330
C
100
AcDbDictionary
281
     1
  3
Model
350
143
  3
ﾚｲｱｳﾄ1
350
144
  0
DICTIONARY
  5
E
102
{ACAD_REACTORS
330
C
102
}
330
C
100
AcDbDictionary
281
     1
  3
STANDARD
350
13
  0
DICTIONARY
  5
142
102
{ACAD_REACTORS
330
C
102
}
330
C
100
AcDbDictionary
281
     1
  0
ACDBDICTIONARYWDFLT
  5
13F
102
{ACAD_REACTORS
330
C
102
}
330
C
100
AcDbDictionary
281
     1
  3
Normal
350
140
100
AcDbDictionaryWithDefault
340
140
1001
ACAD
1000
TREAT_AS_HARD
1070
     0
1000
TREAT_AS_HARD
1070
     0
1000
TREAT_AS_HARD
1070
     0
1000
TREAT_AS_HARD
1070
     0
1000
TREAT_AS_HARD
1070
     0
1000
TREAT_AS_HARD
1070
     0
  0
XRECORD
  5
D2C
102
{ACAD_REACTORS
330
86D
102
}
330
86D
100
AcDbXrecord
280
     1
340
1A
  0
XRECORD
  5
D2B
102
{ACAD_REACTORS
330
86B
102
}
330
86B
100
AcDbXrecord
280
     1
340
17
  0
LAYOUT
  5
143
102
{ACAD_REACTORS
330
141
102
}
330
141
100
AcDbPlotSettings
  1

  2
LP-9200C(CC9E34)
  4
A3
  6

 40
5.873749732971191
 41
5.873747825622558
 42
5.873748779296875
 43
5.873748779296875
 44
297.0106506347656
 45
419.9466552734374
 46
2.85
 47
5.08
 48
0.0
 49
0.0
140
0.0
141
0.0
142
1.0
143
1.0
 70
 11956
 72
     1
 73
     1
 74
     1
  7
monochrome.ctb
 75
    16
147
1.0
148
-4.985962897755712
149
-2.438141563486055
100
AcDbLayout
  1
Model
 70
     1
 71
     0
 10
0.0
 20
0.0
 11
12.0
 21
9.0
 12
0.0
 22
0.0
 32
0.0
 14
0.0
 24
0.0
 34
0.0
 15
0.0
 25
0.0
 35
0.0
146
0.0
 13
0.0
 23
0.0
 33
0.0
 16
1.0
 26
0.0
 36
0.0
 17
0.0
 27
1.0
 37
0.0
 76
     0
330
1A
  0
LAYOUT
  5
144
102
{ACAD_REACTORS
330
141
102
}
330
141
100
AcDbPlotSettings
  1

  2
Canon LBP-A404 LIPS3
  4

  6

 40
0.0
 41
0.0
 42
0.0
 43
0.0
 44
0.0
 45
0.0
 46
0.0
 47
0.0
 48
0.0
 49
0.0
140
0.0
141
0.0
142
1.0
143
1.0
 70
   688
 72
     0
 73
     0
 74
     5
  7
monochrome.ctb
 75
    16
147
1.0
148
0.0
149
0.0
100
AcDbLayout
  1
ﾚｲｱｳﾄ1
 70
     1
 71
     1
 10
0.0
 20
0.0
 11
420.0
 21
297.0
 12
0.0
 22
0.0
 32
0.0
 14
0.0
 24
0.0
 34
0.0
 15
420.0
 25
297.0
 35
0.0
146
0.0
 13
0.0
 23
0.0
 33
0.0
 16
1.0
 26
0.0
 36
0.0
 17
0.0
 27
1.0
 37
0.0
 76
     0
330
17
331
64
  0
MLINESTYLE
  5
13
102
{ACAD_REACTORS
330
E
102
}
330
E
100
AcDbMlineStyle
  2
STANDARD
 70
     0
  3

 62
     0
 51
90.0
 52
90.0
 71
     2
 49
0.5
 62
   256
  6
BYLAYER
 49
-0.5
 62
   256
  6
BYLAYER
  0
ACDBPLACEHOLDER
  5
140
102
{ACAD_REACTORS
330
13F
102
}
330
13F
  0
ENDSEC
  0
EOF
