  0
SECTION
  2
HEADER
  9
$ACADVER
  1
AC1014
  9
$ACADMAINTVER
 70
     9
  9
$DWGCODEPAGE
  3
ANSI_932
  9
$INSBASE
 10
0.0
 20
0.0
 30
0.0
  9
$EXTMIN
 10
-0.0128164049386896
 20
-0.0090630292066862
 30
-0.0000000100097048
  9
$EXTMAX
 10
398.8000497813338
 20
275.8226172440017
 30
0.0000000100102961
  9
$LIMMIN
 10
0.0
 20
0.0
  9
$LIMMAX
 10
420.0
 20
297.0
  9
$ORTHOMODE
 70
     0
  9
$REGENMODE
 70
     1
  9
$FILLMODE
 70
     1
  9
$QTEXTMODE
 70
     0
  9
$MIRRTEXT
 70
     1
  9
$DRAGMODE
 70
     2
  9
$LTSCALE
 40
1.0
  9
$OSMODE
 70
    37
  9
$ATTMODE
 70
     1
  9
$TEXTSIZE
 40
2.5
  9
$TRACEWID
 40
1.0
  9
$TEXTSTYLE
  7
STANDARD
  9
$CLAYER
  8
SUNPOU
  9
$CELTYPE
  6
BYLAYER
  9
$CECOLOR
 62
   256
  9
$CELTSCALE
 40
1.0
  9
$DELOBJ
 70
     1
  9
$DISPSILH
 70
     0
  9
$DIMSCALE
 40
1.0
  9
$DIMASZ
 40
3.0
  9
$DIMEXO
 40
3.0
  9
$DIMDLI
 40
7.0
  9
$DIMRND
 40
0.0
  9
$DIMDLE
 40
0.0
  9
$DIMEXE
 40
1.5
  9
$DIMTP
 40
0.0
  9
$DIMTM
 40
0.0
  9
$DIMTXT
 40
3.0
  9
$DIMCEN
 40
150.0
  9
$DIMTSZ
 40
0.0
  9
$DIMTOL
 70
     0
  9
$DIMLIM
 70
     0
  9
$DIMTIH
 70
     0
  9
$DIMTOH
 70
     0
  9
$DIMSE1
 70
     0
  9
$DIMSE2
 70
     0
  9
$DIMTAD
 70
     3
  9
$DIMZIN
 70
     0
  9
$DIMBLK
  1

  9
$DIMASO
 70
     1
  9
$DIMSHO
 70
     1
  9
$DIMPOST
  1

  9
$DIMAPOST
  1

  9
$DIMALT
 70
     0
  9
$DIMALTD
 70
     2
  9
$DIMALTF
 40
25.4
  9
$DIMLFAC
 40
1.0
  9
$DIMTOFL
 70
     1
  9
$DIMTVP
 40
0.0
  9
$DIMTIX
 70
     0
  9
$DIMSOXD
 70
     0
  9
$DIMSAH
 70
     1
  9
$DIMBLK1
  1
OPEN
  9
$DIMBLK2
  1
OPEN
  9
$DIMSTYLE
  2
STANDARD
  9
$DIMCLRD
 70
   256
  9
$DIMCLRE
 70
   256
  9
$DIMCLRT
 70
   256
  9
$DIMTFAC
 40
1.0
  9
$DIMGAP
 40
1.0
  9
$DIMJUST
 70
     0
  9
$DIMSD1
 70
     0
  9
$DIMSD2
 70
     0
  9
$DIMTOLJ
 70
     1
  9
$DIMTZIN
 70
     0
  9
$DIMALTZ
 70
     0
  9
$DIMALTTZ
 70
     0
  9
$DIMFIT
 70
     3
  9
$DIMUPT
 70
     0
  9
$DIMUNIT
 70
     2
  9
$DIMDEC
 70
     0
  9
$DIMTDEC
 70
     0
  9
$DIMALTU
 70
     2
  9
$DIMALTTD
 70
     2
  9
$DIMTXSTY
  7
STANDARD
  9
$DIMAUNIT
 70
     0
  9
$LUNITS
 70
     2
  9
$LUPREC
 70
     4
  9
$SKETCHINC
 40
1.0
  9
$FILLETRAD
 40
10.0
  9
$AUNITS
 70
     0
  9
$AUPREC
 70
     0
  9
$MENU
  1
.
  9
$ELEVATION
 40
0.0
  9
$PELEVATION
 40
0.0
  9
$THICKNESS
 40
0.0
  9
$LIMCHECK
 70
     0
  9
$BLIPMODE
 70
     0
  9
$CHAMFERA
 40
10.0
  9
$CHAMFERB
 40
10.0
  9
$CHAMFERC
 40
20.0
  9
$CHAMFERD
 40
0.0
  9
$SKPOLY
 70
     0
  9
$TDCREATE
 40
2451073.707228704
  9
$TDUPDATE
 40
2454594.389061770
  9
$TDINDWG
 40
0.0257433449
  9
$TDUSRTIMER
 40
0.0257433449
  9
$USRTIMER
 70
     1
  9
$ANGBASE
 50
0.0
  9
$ANGDIR
 70
     0
  9
$PDMODE
 70
     0
  9
$PDSIZE
 40
0.0
  9
$PLINEWID
 40
0.0
  9
$COORDS
 70
     0
  9
$SPLFRAME
 70
     0
  9
$SPLINETYPE
 70
     6
  9
$SPLINESEGS
 70
     8
  9
$ATTDIA
 70
     0
  9
$ATTREQ
 70
     1
  9
$HANDLING
 70
 10241
  9
$HANDSEED
  5
B35
  9
$SURFTAB1
 70
     6
  9
$SURFTAB2
 70
     6
  9
$SURFTYPE
 70
     6
  9
$SURFU
 70
     6
  9
$SURFV
 70
     6
  9
$UCSNAME
  2

  9
$UCSORG
 10
0.0
 20
0.0
 30
0.0
  9
$UCSXDIR
 10
1.0
 20
0.0
 30
0.0
  9
$UCSYDIR
 10
0.0
 20
1.0
 30
0.0
  9
$PUCSNAME
  2

  9
$PUCSORG
 10
0.0
 20
0.0
 30
0.0
  9
$PUCSXDIR
 10
1.0
 20
0.0
 30
0.0
  9
$PUCSYDIR
 10
0.0
 20
1.0
 30
0.0
  9
$USERI1
 70
     0
  9
$USERI2
 70
     0
  9
$USERI3
 70
     0
  9
$USERI4
 70
     0
  9
$USERI5
 70
     0
  9
$USERR1
 40
0.0
  9
$USERR2
 40
0.0
  9
$USERR3
 40
0.0
  9
$USERR4
 40
0.0
  9
$USERR5
 40
0.0
  9
$WORLDVIEW
 70
     1
  9
$SHADEDGE
 70
     3
  9
$SHADEDIF
 70
    70
  9
$TILEMODE
 70
     1
  9
$MAXACTVP
 70
    16
  9
$PINSBASE
 10
0.0
 20
0.0
 30
0.0
  9
$PLIMCHECK
 70
     0
  9
$PEXTMIN
 10
0.0
 20
0.0
 30
0.0
  9
$PEXTMAX
 10
420.0
 20
297.0
 30
0.0
  9
$PLIMMIN
 10
0.0
 20
0.0
  9
$PLIMMAX
 10
420.0
 20
297.0
  9
$UNITMODE
 70
     0
  9
$VISRETAIN
 70
     0
  9
$PLINEGEN
 70
     0
  9
$PSLTSCALE
 70
     1
  9
$TREEDEPTH
 70
  3020
  9
$PICKSTYLE
 70
     1
  9
$CMLSTYLE
  2
STANDARD
  9
$CMLJUST
 70
     0
  9
$CMLSCALE
 40
1.0
  9
$PROXYGRAPHICS
 70
     1
  9
$MEASUREMENT
 70
     1
  0
ENDSEC
  0
SECTION
  2
CLASSES
  0
CLASS
  1
ACDBDICTIONARYWDFLT
  2
AcDbDictionaryWithDefault
  3
AutoCAD 2000
 90
        0
280
     0
281
     0
  0
CLASS
  1
ACDBPLACEHOLDER
  2
AcDbPlaceHolder
  3
AutoCAD 2000
 90
        0
280
     0
281
     0
  0
CLASS
  1
LAYOUT
  2
AcDbLayout
  3
AutoCAD 2000
 90
        0
280
     0
281
     0
  0
CLASS
  1
LONG_TRANSACTION
  2
AcDbLongTransaction
  3
AutoCAD 2000
 90
        0
280
     0
281
     0
  0
CLASS
  1
LWPOLYLINE
  2
AcDbPolyline
  3
AutoCAD 2000
 90
        0
280
     0
281
     1
  0
CLASS
  1
HATCH
  2
AcDbHatch
  3
AutoCAD 2000
 90
        0
280
     0
281
     1
  0
CLASS
  1
XRECORD
  2
AcDbXrecord
  3
AutoCAD 2000
 90
        0
280
     0
281
     0
  0
CLASS
  1
LONG_TRANSACTION
  2
AcDbLongTransaction
  3
AutoCAD 2000
 90
        0
280
     0
281
     0
  0
CLASS
  1
LWPOLYLINE
  2
AcDbPolyline
  3
AutoCAD 2000
 90
        0
280
     0
281
     1
  0
CLASS
  1
HATCH
  2
AcDbHatch
  3
AutoCAD 2000
 90
        0
280
     0
281
     1
  0
CLASS
  1
XRECORD
  2
AcDbXrecord
  3
AutoCAD 2000
 90
        0
280
     0
281
     0
  0
CLASS
  1
LONG_TRANSACTION
  2
AcDbLongTransaction
  3
AutoCAD 2000
 90
        0
280
     0
281
     0
  0
CLASS
  1
LWPOLYLINE
  2
AcDbPolyline
  3
AutoCAD 2000
 90
        0
280
     0
281
     1
  0
CLASS
  1
HATCH
  2
AcDbHatch
  3
AutoCAD 2000
 90
        0
280
     0
281
     1
  0
CLASS
  1
XRECORD
  2
AcDbXrecord
  3
AutoCAD 2000
 90
        0
280
     0
281
     0
  0
ENDSEC
  0
SECTION
  2
TABLES
  0
TABLE
  2
VPORT
  5
8
330
0
100
AcDbSymbolTable
 70
     4
  0
VPORT
  5
AE4
330
8
100
AcDbSymbolTableRecord
100
AcDbViewportTableRecord
  2
*ACTIVE
 70
     0
 10
0.0
 20
0.0
 11
1.0
 21
1.0
 12
204.462807980944
 22
122.86769669833
 13
0.0
 23
0.0
 14
5.0
 24
5.0
 15
0.0
 25
0.0
 16
0.0
 26
0.0
 36
1.0
 17
0.0
 27
0.0
 37
0.0
 40
437.9982950476956
 41
1.570153061224489
 42
50.0
 43
0.0
 44
0.0
 50
0.0
 51
0.0
 71
     0
 72
   100
 73
     1
 74
     0
 75
     0
 76
     0
 77
     0
 78
     0
  0
ENDTAB
  0
TABLE
  2
LTYPE
  5
5
330
0
100
AcDbSymbolTable
 70
     3
  0
LTYPE
  5
14
330
5
100
AcDbSymbolTableRecord
100
AcDbLinetypeTableRecord
  2
BYBLOCK
 70
     0
  3

 72
    65
 73
     0
 40
0.0
  0
LTYPE
  5
15
330
5
100
AcDbSymbolTableRecord
100
AcDbLinetypeTableRecord
  2
BYLAYER
 70
     0
  3

 72
    65
 73
     0
 40
0.0
  0
LTYPE
  5
16
330
5
100
AcDbSymbolTableRecord
100
AcDbLinetypeTableRecord
  2
CONTINUOUS
 70
     0
  3
Solid line
 72
    65
 73
     0
 40
0.0
  0
LTYPE
  5
120
330
5
100
AcDbSymbolTableRecord
100
AcDbLinetypeTableRecord
  2
CENTER
 70
     0
  3
____ _ ____ _ ____ _ ____ _ ____ _ ____ _ ____ 
 72
    65
 73
     4
 40
2.0
 49
1.25
 74
     0
 49
-0.25
 74
     0
 49
0.25
 74
     0
 49
-0.25
 74
     0
  0
ENDTAB
  0
TABLE
  2
LAYER
  5
2
330
0
100
AcDbSymbolTable
 70
    11
  0
LAYER
  5
F
330
2
100
AcDbSymbolTableRecord
100
AcDbLayerTableRecord
  2
0
 70
     0
 62
     7
  6
CONTINUOUS
  0
LAYER
  5
62
330
2
100
AcDbSymbolTableRecord
100
AcDbLayerTableRecord
  2
VIEWPORT
 70
     0
 62
     7
  6
CONTINUOUS
  0
LAYER
  5
6B
330
2
100
AcDbSymbolTableRecord
100
AcDbLayerTableRecord
  2
ZUWAKU
 70
     0
 62
     7
  6
CONTINUOUS
  0
LAYER
  5
1DD
330
2
100
AcDbSymbolTableRecord
100
AcDbLayerTableRecord
  2
SEIHIN
 70
     0
 62
     3
  6
CONTINUOUS
  0
LAYER
  5
1DE
330
2
100
AcDbSymbolTableRecord
100
AcDbLayerTableRecord
  2
SUNPOU
 70
     0
 62
     4
  6
CONTINUOUS
  0
LAYER
  5
1DF
330
2
100
AcDbSymbolTableRecord
100
AcDbLayerTableRecord
  2
CENTER_L
 70
     0
 62
     1
  6
CENTER
  0
LAYER
  5
1E0
330
2
100
AcDbSymbolTableRecord
100
AcDbLayerTableRecord
  2
DEFPOINTS
 70
     0
 62
     7
  6
CONTINUOUS
  0
LAYER
  5
93C
330
2
100
AcDbSymbolTableRecord
100
AcDbLayerTableRecord
  2
MOJI
 70
     0
 62
     2
  6
CONTINUOUS
  0
ENDTAB
  0
TABLE
  2
STYLE
  5
3
330
0
100
AcDbSymbolTable
 70
     3
  0
STYLE
  5
10
330
3
100
AcDbSymbolTableRecord
100
AcDbTextStyleTableRecord
  2
STANDARD
 70
     0
 40
0.0
 41
1.0
 50
0.0
 71
     0
 42
2.5
  3
TXT
  4
bigfont.shx
  0
STYLE
  5
93D
330
3
100
AcDbSymbolTableRecord
100
AcDbTextStyleTableRecord
  2
ｽﾀｲﾙ1
 70
     0
 40
0.0
 41
1.0
 50
0.0
 71
     0
 42
2.5
  3
MS PGothic.ttf
  4

1001
ACAD
1000
MS PGothic
1071
    32818
  0
ENDTAB
  0
TABLE
  2
VIEW
  5
6
330
0
100
AcDbSymbolTable
 70
     0
  0
ENDTAB
  0
TABLE
  2
UCS
  5
7
330
0
100
AcDbSymbolTable
 70
     0
  0
ENDTAB
  0
TABLE
  2
APPID
  5
9
330
0
100
AcDbSymbolTable
 70
     1
  0
APPID
  5
11
330
9
100
AcDbSymbolTableRecord
100
AcDbRegAppTableRecord
  2
ACAD
 70
     0
  0
ENDTAB
  0
TABLE
  2
DIMSTYLE
  5
A
330
0
100
AcDbSymbolTable
 70
     2
  0
DIMSTYLE
105
1D
102
{ACAD_REACTORS
330
75D
330
770
330
87A
330
8AB
330
890
330
89D
330
8C2
330
8CF
330
8DC
330
8E9
330
464
330
42F
330
43C
330
421
330
3E9
330
407
330
414
102
}
330
A
100
AcDbSymbolTableRecord
100
AcDbDimStyleTableRecord
  2
STANDARD
 70
     0
  3

  4

  5

  6

  7

 40
1.0
 41
0.18
 42
0.0625
 43
0.38
 44
0.18
 45
0.0
 46
0.0
 47
0.0
 48
0.0
140
0.18
141
0.09
142
0.0
143
25.4
144
1.0
145
0.0
146
1.0
147
0.09
 71
     0
 72
     0
 73
     1
 74
     1
 75
     0
 76
     0
 77
     0
 78
     0
170
     0
171
     2
172
     0
173
     0
174
     0
175
     0
176
     0
177
     0
178
     0
270
     2
271
     4
272
     4
273
     2
274
     2
340
10
275
     0
280
     0
281
     0
282
     0
283
     1
284
     0
285
     0
286
     0
287
     3
288
     0
  0
ENDTAB
  0
TABLE
  2
BLOCK_RECORD
  5
1
330
0
100
AcDbSymbolTable
 70
    29
  0
BLOCK_RECORD
  5
1A
102
{ACAD_XDICTIONARY
360
65F
102
}
330
1
100
AcDbSymbolTableRecord
100
AcDbBlockTableRecord
  2
*MODEL_SPACE
  0
BLOCK_RECORD
  5
17
102
{ACAD_XDICTIONARY
360
65D
102
}
330
1
100
AcDbSymbolTableRecord
100
AcDbBlockTableRecord
  2
*PAPER_SPACE
  0
BLOCK_RECORD
  5
B2
330
1
100
AcDbSymbolTableRecord
100
AcDbBlockTableRecord
  2
_OPEN
  0
BLOCK_RECORD
  5
79F
330
1
100
AcDbSymbolTableRecord
100
AcDbBlockTableRecord
  2
*D15
  0
BLOCK_RECORD
  5
7AB
330
1
100
AcDbSymbolTableRecord
100
AcDbBlockTableRecord
  2
*D16
  0
BLOCK_RECORD
  5
87B
330
1
100
AcDbSymbolTableRecord
100
AcDbBlockTableRecord
  2
*D20
  0
BLOCK_RECORD
  5
8AC
330
1
100
AcDbSymbolTableRecord
100
AcDbBlockTableRecord
  2
*D23
  0
BLOCK_RECORD
  5
8D0
330
1
100
AcDbSymbolTableRecord
100
AcDbBlockTableRecord
  2
*D25
  0
BLOCK_RECORD
  5
8DD
330
1
100
AcDbSymbolTableRecord
100
AcDbBlockTableRecord
  2
*D26
  0
ENDTAB
  0
ENDSEC
  0
SECTION
  2
BLOCKS
  0
BLOCK
  5
1B
330
1A
100
AcDbEntity
  8
0
100
AcDbBlockBegin
  2
*MODEL_SPACE
 70
     0
 10
0.0
 20
0.0
 30
0.0
  3
*MODEL_SPACE
  1

  0
ENDBLK
  5
1C
330
1A
100
AcDbEntity
  8
0
100
AcDbBlockEnd
  0
BLOCK
  5
18
330
17
100
AcDbEntity
 67
     1
  8
0
100
AcDbBlockBegin
  2
*PAPER_SPACE
 70
     0
 10
0.0
 20
0.0
 30
0.0
  3
*PAPER_SPACE
  1

  0
ENDBLK
  5
19
330
17
100
AcDbEntity
 67
     1
  8
0
100
AcDbBlockEnd
  0
BLOCK
  5
B3
330
B2
100
AcDbEntity
  8
0
100
AcDbBlockBegin
  2
_OPEN
 70
     0
 10
0.0
 20
0.0
 30
0.0
  3
_OPEN
  1

  0
LINE
  5
B4
330
B2
100
AcDbEntity
  8
0
  6
BYBLOCK
 62
     0
100
AcDbLine
 10
-1.0
 20
0.1666666666666666
 30
0.0
 11
0.0
 21
0.0
 31
0.0
  0
LINE
  5
B5
330
B2
100
AcDbEntity
  8
0
  6
BYBLOCK
 62
     0
100
AcDbLine
 10
0.0
 20
0.0
 30
0.0
 11
-1.0
 21
-0.1666666666666666
 31
0.0
  0
LINE
  5
B6
330
B2
100
AcDbEntity
  8
0
  6
BYBLOCK
 62
     0
100
AcDbLine
 10
0.0
 20
0.0
 30
0.0
 11
-1.0
 21
0.0
 31
0.0
  0
ENDBLK
  5
B7
330
B2
100
AcDbEntity
  8
0
100
AcDbBlockEnd
  0
BLOCK
  5
7A9
330
79F
100
AcDbEntity
  8
0
100
AcDbBlockBegin
  2
*D15
 70
     1
 10
0.0
 20
0.0
 30
0.0
  3
*D15
  1

  0
LINE
  5
B08
330
79F
100
AcDbEntity
  8
SUNPOU
100
AcDbLine
 10
101.6296341357922
 20
197.4489559623008
 30
0.0
 11
101.6296341357922
 21
213.2246545669242
 31
0.0
  0
LINE
  5
B09
330
79F
100
AcDbEntity
  8
SUNPOU
100
AcDbLine
 10
165.0296341357923
 20
197.4489559623008
 30
0.0
 11
165.0296341357923
 21
213.2246545669242
 31
0.0
  0
LINE
  5
B0A
330
79F
100
AcDbEntity
  8
SUNPOU
100
AcDbLine
 10
104.6296341357922
 20
211.7246545669241
 30
0.0
 11
162.0296341357923
 21
211.7246545669241
 31
0.0
  0
INSERT
  5
B0B
330
79F
100
AcDbEntity
  8
SUNPOU
100
AcDbBlockReference
  2
_OPEN
 10
101.6296341357922
 20
211.7246545669241
 30
0.0
 41
3.0
 42
3.0
 43
3.0
 50
180.0
  0
INSERT
  5
B0C
330
79F
100
AcDbEntity
  8
SUNPOU
100
AcDbBlockReference
  2
_OPEN
 10
165.0296341357923
 20
211.7246545669241
 30
0.0
 41
3.0
 42
3.0
 43
3.0
  0
MTEXT
  5
B0D
330
79F
100
AcDbEntity
  8
SUNPOU
100
AcDbMText
 10
133.3296341357922
 20
214.2246545669241
 30
0.0
 40
3.0
 41
0.0
 71
     5
 72
     1
  1
\A1;φ63
  0
POINT
  5
B0E
330
79F
100
AcDbEntity
  8
DEFPOINTS
 62
     0
100
AcDbPoint
 10
101.6296341357922
 20
194.4489559623008
 30
0.0
  0
POINT
  5
B0F
330
79F
100
AcDbEntity
  8
DEFPOINTS
 62
     0
100
AcDbPoint
 10
165.0296341357923
 20
194.4489559623008
 30
0.0
  0
POINT
  5
B10
330
79F
100
AcDbEntity
  8
DEFPOINTS
 62
     0
100
AcDbPoint
 10
165.0296341357923
 20
211.7246545669241
 30
0.0
  0
ENDBLK
  5
7AA
330
79F
100
AcDbEntity
  8
0
100
AcDbBlockEnd
  0
BLOCK
  5
7B5
330
7AB
100
AcDbEntity
  8
0
100
AcDbBlockBegin
  2
*D16
 70
     1
 10
0.0
 20
0.0
 30
0.0
  3
*D16
  1

  0
LINE
  5
B11
330
7AB
100
AcDbEntity
  8
SUNPOU
100
AcDbLine
 10
178.0251793604196
 20
169.1086556343782
 30
0.0
 11
216.8451832501487
 21
168.0921180572187
 31
0.0
  0
LINE
  5
B12
330
7AB
100
AcDbEntity
  8
SUNPOU
100
AcDbLine
 10
176.3655608377196
 20
105.7303812308781
 30
0.0
 11
215.1855647274487
 21
104.7138436537187
 31
0.0
  0
LINE
  5
B13
330
7AB
100
AcDbEntity
  8
SUNPOU
100
AcDbLine
 10
215.2671664177627
 20
165.1324115047533
 30
0.0
 11
213.764609584908
 21
107.7520810511067
 31
0.0
  0
INSERT
  5
B14
330
7AB
100
AcDbEntity
  8
SUNPOU
100
AcDbBlockReference
  2
_OPEN
 10
215.3456972626853
 20
168.13138347968
 30
0.0
 41
3.0
 42
3.0
 43
3.0
 50
88.50000000001847
  0
INSERT
  5
B15
330
7AB
100
AcDbEntity
  8
SUNPOU
100
AcDbBlockReference
  2
_OPEN
 10
213.6860787399853
 20
104.75310907618
 30
0.0
 41
3.0
 42
3.0
 43
3.0
 50
268.5000000000184
  0
MTEXT
  5
B16
330
7AB
100
AcDbEntity
  8
SUNPOU
100
AcDbMText
 10
212.0167446888964
 20
136.5076886486989
 30
0.0
 40
3.0
 41
0.0
 71
     5
 72
     1
  1
\A1;φ63
 11
0.0261769483075511
 21
0.9996573249755659
 31
0.0
  0
POINT
  5
B17
330
7AB
100
AcDbEntity
  8
DEFPOINTS
 62
     0
100
AcDbPoint
 10
175.0262073854929
 20
169.1871864793008
 30
0.0
  0
POINT
  5
B18
330
7AB
100
AcDbEntity
  8
DEFPOINTS
 62
     0
100
AcDbPoint
 10
173.3665888627929
 20
105.8089120758008
 30
0.0
  0
POINT
  5
B19
330
7AB
100
AcDbEntity
  8
DEFPOINTS
 62
     0
100
AcDbPoint
 10
213.6860787399853
 20
104.75310907618
 30
0.0
  0
ENDBLK
  5
7B6
330
7AB
100
AcDbEntity
  8
0
100
AcDbBlockEnd
  0
BLOCK
  5
885
330
87B
100
AcDbEntity
  8
0
100
AcDbBlockBegin
  2
*D20
 70
     1
 10
0.0
 20
0.0
 30
0.0
  3
*D20
  1

  0
LINE
  5
ADA
330
87B
100
AcDbEntity
  8
SUNPOU
100
AcDbLine
 10
98.67666575316082
 20
194.4489559623008
 30
0.0
 11
79.10860517946739
 21
194.4489559623008
 31
0.0
  0
LINE
  5
ADB
330
87B
100
AcDbEntity
  8
SUNPOU
100
AcDbLine
 10
98.67666575316082
 20
169.4489559623008
 30
0.0
 11
79.10860517946739
 21
169.4489559623008
 31
0.0
  0
LINE
  5
ADC
330
87B
100
AcDbEntity
  8
SUNPOU
100
AcDbLine
 10
80.60860517946739
 20
191.4489559623008
 30
0.0
 11
80.60860517946739
 21
172.4489559623008
 31
0.0
  0
INSERT
  5
ADD
330
87B
100
AcDbEntity
  8
SUNPOU
100
AcDbBlockReference
  2
_OPEN
 10
80.60860517946739
 20
194.4489559623008
 30
0.0
 41
3.0
 42
3.0
 43
3.0
 50
90.0
  0
INSERT
  5
ADE
330
87B
100
AcDbEntity
  8
SUNPOU
100
AcDbBlockReference
  2
_OPEN
 10
80.60860517946739
 20
169.4489559623008
 30
0.0
 41
3.0
 42
3.0
 43
3.0
 50
270.0
  0
MTEXT
  5
ADF
330
87B
100
AcDbEntity
  8
SUNPOU
100
AcDbMText
 10
78.10860517946736
 20
181.9489559623008
 30
0.0
 40
3.0
 41
0.0
 71
     5
 72
     1
  1
\A1;※ 25
 11
0.0000000000000001
 21
1.0
 31
0.0
1001
ACAD
1000
MTEXTBEGIN
1070
    73
1070
     1
1070
    44
1040
1.0
1070
    74
1070
     0
1000
MTEXTEND
  0
POINT
  5
AE0
330
87B
100
AcDbEntity
  8
DEFPOINTS
 62
     0
100
AcDbPoint
 10
101.6766657531608
 20
194.4489559623008
 30
0.0
  0
POINT
  5
AE1
330
87B
100
AcDbEntity
  8
DEFPOINTS
 62
     0
100
AcDbPoint
 10
101.6766657531608
 20
169.4489559623008
 30
0.0
  0
POINT
  5
AE2
330
87B
100
AcDbEntity
  8
DEFPOINTS
 62
     0
100
AcDbPoint
 10
80.60860517946739
 20
169.4489559623008
 30
0.0
  0
ENDBLK
  5
886
330
87B
100
AcDbEntity
  8
0
100
AcDbBlockEnd
  0
BLOCK
  5
8B6
330
8AC
100
AcDbEntity
  8
0
100
AcDbBlockBegin
  2
*D23
 70
     1
 10
0.0
 20
0.0
 30
0.0
  3
*D23
  1

  0
LINE
  5
B1A
330
8AC
100
AcDbEntity
  8
SUNPOU
100
AcDbLine
 10
173.2880580178702
 20
102.8099401008741
 30
0.0
 11
172.8617580967564
 21
86.53020291489218
 31
0.0
  0
LINE
  5
B1B
330
8AC
100
AcDbEntity
  8
SUNPOU
100
AcDbLine
 10
163.2914847681146
 20
103.0717095839496
 30
0.0
 11
162.8651848470007
 21
86.79197239796769
 31
0.0
  0
LINE
  5
B1C
330
8AC
100
AcDbEntity
  8
SUNPOU
100
AcDbLine
 10
169.902051544291
 20
88.10821974727819
 30
0.0
 11
165.9034222443887
 21
88.21292754050839
 31
0.0
  0
INSERT
  5
B1D
330
8AC
100
AcDbEntity
  8
SUNPOU
100
AcDbBlockReference
  2
_OPEN
 10
172.9010235192177
 20
88.02968890235552
 30
0.0
 41
3.0
 42
3.0
 43
3.0
 50
358.5000000000184
  0
INSERT
  5
B1E
330
8AC
100
AcDbEntity
  8
SUNPOU
100
AcDbBlockReference
  2
_OPEN
 10
162.904450269462
 20
88.29145838543103
 30
0.0
 41
3.0
 42
3.0
 43
3.0
 50
178.5000000000184
  0
MTEXT
  5
B1F
330
8AC
100
AcDbEntity
  8
SUNPOU
100
AcDbMText
 10
167.9681792651087
 20
90.65971695633221
 30
0.0
 40
3.0
 41
0.0
 71
     5
 72
     1
  1
\A1;\U+203B10
 11
0.9996573249755659
 21
-0.026176948307551
 31
0.0
  0
POINT
  5
B20
330
8AC
100
AcDbEntity
  8
DEFPOINTS
 62
     0
100
AcDbPoint
 10
173.3665888627929
 20
105.8089120758008
 30
0.0
  0
POINT
  5
B21
330
8AC
100
AcDbEntity
  8
DEFPOINTS
 62
     0
100
AcDbPoint
 10
163.3700156130372
 20
106.0706815588763
 30
0.0
  0
POINT
  5
B22
330
8AC
100
AcDbEntity
  8
DEFPOINTS
 62
     0
100
AcDbPoint
 10
162.904450269462
 20
88.29145838543103
 30
0.0
  0
ENDBLK
  5
8B7
330
8AC
100
AcDbEntity
  8
0
100
AcDbBlockEnd
  0
BLOCK
  5
8DA
330
8D0
100
AcDbEntity
  8
0
100
AcDbBlockBegin
  2
*D25
 70
     1
 10
0.0
 20
0.0
 30
0.0
  3
*D25
  1

  0
LINE
  5
B23
330
8D0
100
AcDbEntity
  8
SUNPOU
100
AcDbLine
 10
133.3296341357922
 20
122.6324846081341
 30
0.0
 11
133.3296341357922
 21
77.54178196157852
 31
0.0
  0
LINE
  5
B24
330
8D0
100
AcDbEntity
  8
SUNPOU
100
AcDbLine
 10
173.3665888627929
 20
102.8089120758008
 30
0.0
 11
173.3665888627929
 21
77.54178196157852
 31
0.0
  0
LINE
  5
B25
330
8D0
100
AcDbEntity
  8
SUNPOU
100
AcDbLine
 10
136.3296341357922
 20
79.04178196157852
 30
0.0
 11
170.3665888627929
 21
79.04178196157852
 31
0.0
  0
INSERT
  5
B26
330
8D0
100
AcDbEntity
  8
SUNPOU
100
AcDbBlockReference
  2
_OPEN
 10
133.3296341357922
 20
79.04178196157852
 30
0.0
 41
3.0
 42
3.0
 43
3.0
 50
180.0
  0
INSERT
  5
B27
330
8D0
100
AcDbEntity
  8
SUNPOU
100
AcDbBlockReference
  2
_OPEN
 10
173.3665888627929
 20
79.04178196157852
 30
0.0
 41
3.0
 42
3.0
 43
3.0
  0
MTEXT
  5
B28
330
8D0
100
AcDbEntity
  8
SUNPOU
100
AcDbMText
 10
153.3481114992925
 20
81.54178196157852
 30
0.0
 40
3.0
 41
0.0
 71
     5
 72
     1
  1
\A1;40
  0
POINT
  5
B29
330
8D0
100
AcDbEntity
  8
DEFPOINTS
 62
     0
100
AcDbPoint
 10
133.3296341357922
 20
125.6324846081341
 30
0.0
  0
POINT
  5
B2A
330
8D0
100
AcDbEntity
  8
DEFPOINTS
 62
     0
100
AcDbPoint
 10
173.3665888627929
 20
105.8089120758008
 30
0.0
  0
POINT
  5
B2B
330
8D0
100
AcDbEntity
  8
DEFPOINTS
 62
     0
100
AcDbPoint
 10
173.3665888627929
 20
79.04178196157852
 30
0.0
  0
ENDBLK
  5
8DB
330
8D0
100
AcDbEntity
  8
0
100
AcDbBlockEnd
  0
BLOCK
  5
8E7
330
8DD
100
AcDbEntity
  8
0
100
AcDbBlockBegin
  2
*D26
 70
     1
 10
0.0
 20
0.0
 30
0.0
  3
*D26
  1

  0
LINE
  5
B2C
330
8DD
100
AcDbEntity
  8
SUNPOU
100
AcDbLine
 10
133.3296341357922
 20
119.6324846081341
 30
0.0
 11
133.3296341357922
 21
67.98563046749734
 31
0.0
  0
LINE
  5
B2D
330
8DD
100
AcDbEntity
  8
SUNPOU
100
AcDbLine
 10
193.4657520029933
 20
106.3339852758008
 30
0.0
 11
193.4657520029933
 21
67.98563046749734
 31
0.0
  0
LINE
  5
B2E
330
8DD
100
AcDbEntity
  8
SUNPOU
100
AcDbLine
 10
136.3296341357922
 20
69.48563046749734
 30
0.0
 11
190.4657520029933
 21
69.48563046749734
 31
0.0
  0
INSERT
  5
B2F
330
8DD
100
AcDbEntity
  8
SUNPOU
100
AcDbBlockReference
  2
_OPEN
 10
133.3296341357922
 20
69.48563046749734
 30
0.0
 41
3.0
 42
3.0
 43
3.0
 50
180.0
  0
INSERT
  5
B30
330
8DD
100
AcDbEntity
  8
SUNPOU
100
AcDbBlockReference
  2
_OPEN
 10
193.4657520029933
 20
69.48563046749734
 30
0.0
 41
3.0
 42
3.0
 43
3.0
  0
MTEXT
  5
B31
330
8DD
100
AcDbEntity
  8
SUNPOU
100
AcDbMText
 10
163.3976930693927
 20
71.98563046749734
 30
0.0
 40
3.0
 41
0.0
 71
     5
 72
     1
  1
\A1;60
  0
POINT
  5
B32
330
8DD
100
AcDbEntity
  8
DEFPOINTS
 62
     0
100
AcDbPoint
 10
133.3296341357922
 20
122.6324846081341
 30
0.0
  0
POINT
  5
B33
330
8DD
100
AcDbEntity
  8
DEFPOINTS
 62
     0
100
AcDbPoint
 10
193.4657520029933
 20
109.3339852758008
 30
0.0
  0
POINT
  5
B34
330
8DD
100
AcDbEntity
  8
DEFPOINTS
 62
     0
100
AcDbPoint
 10
193.4657520029933
 20
69.48563046749734
 30
0.0
  0
ENDBLK
  5
8E8
330
8DD
100
AcDbEntity
  8
0
100
AcDbBlockEnd
  0
ENDSEC
  0
SECTION
  2
ENTITIES
  0
TEXT
  5
51B
330
1A
100
AcDbEntity
  8
SUNPOU
 62
     4
 48
5.0
100
AcDbText
 10
308.5568509179038
 20
22.84262542874063
 30
0.0
 40
4.0
  1
※　たてといの差込み寸法を示す。
100
AcDbText
  0
ELLIPSE
  5
750
330
1A
100
AcDbEntity
  8
SEIHIN
  6
CONTINUOUS
 62
     3
 48
5.0
100
AcDbEllipse
 10
289.9664010224717
 20
-1041.125203753399
 30
0.0
 11
0.0
 21
1210.574159715739
 31
0.0
210
0.0
220
0.0
230
1.0
 40
0.0261859216
 41
0.0529182337902788
 42
0.0690141078444003
  0
ELLIPSE
  5
753
330
1A
100
AcDbEntity
  8
SEIHIN
  6
CONTINUOUS
 62
     3
 48
5.0
100
AcDbEllipse
 10
289.9664010224717
 20
-1041.125203753399
 30
0.0
 11
0.0
 21
1210.574159715739
 31
0.0
210
0.0
220
0.0
230
1.0
 40
0.0261859216
 41
6.214171199335709
 42
6.230267073389825
  0
LINE
  5
759
330
1A
100
AcDbEntity
  8
CENTER_L
  6
CENTER
 62
     1
 48
5.0
100
AcDbLine
 10
203.3544637887557
 20
136.7345184569604
 30
0.0
 11
121.1471928418587
 21
138.8871916063578
 31
0.0
  0
LINE
  5
75A
330
1A
100
AcDbEntity
  8
SEIHIN
  6
CONTINUOUS
 62
     3
 48
5.0
100
AcDbLine
 10
101.6296341357922
 20
108.1744887814008
 30
0.0
 11
133.3296341357922
 21
138.5681831541008
 31
0.0
  0
LINE
  5
75B
330
1A
100
AcDbEntity
  8
SEIHIN
  6
CONTINUOUS
 62
     3
 48
5.0
100
AcDbLine
 10
133.3296341357922
 20
138.5681831541008
 30
0.0
 11
102.1165456615922
 21
107.6746601189008
 31
0.0
  0
LINE
  5
75C
330
1A
100
AcDbEntity
  8
SEIHIN
  6
CONTINUOUS
 62
     3
 48
5.0
100
AcDbLine
 10
102.1165456615922
 20
107.6746601189008
 30
0.0
 11
173.3665888627929
 21
105.8089120758008
 31
0.0
  0
DIMENSION
  5
75D
330
1A
100
AcDbEntity
  8
SUNPOU
 48
5.0
100
AcDbDimension
  2
*D15
 10
165.0296341357923
 20
211.7246545669241
 30
0.0
 11
133.3296341357922
 21
214.2246545669241
 31
0.0
 70
    32
  1
φ<>
  3
STANDARD
100
AcDbAlignedDimension
 13
101.6296341357922
 23
194.4489559623008
 33
0.0
 14
165.0296341357923
 24
194.4489559623008
 34
0.0
100
AcDbRotatedDimension
1001
ACAD
1000
DSTYLE
1002
{
1070
    41
1040
3.0
1070
    42
1040
3.0
1070
    43
1040
7.0
1070
    44
1040
1.5
1070
    73
1070
     0
1070
    74
1070
     0
1070
    77
1070
     3
1070
   140
1040
3.0
1070
   141
1040
150.0
1070
   147
1040
1.0
1070
   172
1070
     1
1070
   173
1070
     1
1070
   176
1070
   256
1070
   177
1070
   256
1070
   178
1070
   256
1070
   271
1070
     0
1070
   272
1070
     2
1070
     6
1000
OPEN
1070
     7
1000
OPEN
1002
}
  0
LINE
  5
75E
330
1A
100
AcDbEntity
  8
SEIHIN
  6
CONTINUOUS
 62
     3
 48
5.0
100
AcDbLine
 10
101.7491417393922
 20
194.4489559623008
 30
0.0
 11
165.0138573390923
 21
194.4489559623008
 31
0.0
  0
LINE
  5
75F
330
1A
100
AcDbEntity
  8
SEIHIN
  6
CONTINUOUS
 62
     3
 48
5.0
100
AcDbLine
 10
101.6296341357922
 20
189.4489559623008
 30
0.0
 11
101.6296341357922
 21
108.1744887814008
 31
0.0
  0
ARC
  5
760
330
1A
100
AcDbEntity
  8
SEIHIN
  6
CONTINUOUS
 62
     3
 48
5.0
100
AcDbCircle
 10
102.1296341357922
 20
108.1744887814008
 30
0.0
 40
0.5000000000000285
100
AcDbArc
 50
180.0
 51
268.5000000000005
  0
LINE
  5
761
330
1A
100
AcDbEntity
  8
SEIHIN
  6
CONTINUOUS
 62
     3
 48
5.0
100
AcDbLine
 10
100.1296341357922
 20
189.4489559623008
 30
0.0
 11
101.6296341357922
 21
194.4489559623008
 31
0.0
  0
LINE
  5
762
330
1A
100
AcDbEntity
  8
SEIHIN
  6
CONTINUOUS
 62
     3
 48
5.0
100
AcDbLine
 10
101.7491417393922
 20
194.4489559623008
 30
0.0
 11
101.6296341357922
 21
194.4489559623008
 31
0.0
  0
LINE
  5
763
330
1A
100
AcDbEntity
  8
SEIHIN
  6
CONTINUOUS
 62
     3
 48
5.0
100
AcDbLine
 10
101.7283683382921
 20
189.4489559623008
 30
0.0
 11
100.1296341357922
 21
189.4489559623008
 31
0.0
  0
CIRCLE
  5
765
330
1A
100
AcDbEntity
  8
SEIHIN
  6
CONTINUOUS
 62
     3
 48
5.0
100
AcDbCircle
 10
289.9671292742717
 20
137.4980429913008
 30
0.0
 40
30.78943933159638
  0
CIRCLE
  5
766
330
1A
100
AcDbEntity
  8
SEIHIN
  6
CONTINUOUS
 62
     3
 48
5.0
100
AcDbCircle
 10
289.9656768614717
 20
137.5111377517008
 30
0.0
 40
30.28961695541591
  0
CIRCLE
  5
767
330
1A
100
AcDbEntity
  8
SEIHIN
  6
CONTINUOUS
 62
     3
 48
5.0
100
AcDbCircle
 10
289.9671421990717
 20
137.4980492775008
 30
0.0
 40
31.6891372103928
  0
ARC
  5
768
330
1A
100
AcDbEntity
  8
SEIHIN
  6
CONTINUOUS
 62
     3
 48
5.0
100
AcDbCircle
 10
289.9548942274717
 20
137.7608220394008
 30
0.0
 40
28.88828453251455
100
AcDbArc
 50
94.31690105000056
 51
250.2655299582998
  0
ARC
  5
769
330
1A
100
AcDbEntity
  8
SEIHIN
  6
CONTINUOUS
 62
     3
 48
5.0
100
AcDbCircle
 10
290.5607945021717
 20
138.1141157089008
 30
0.0
 40
26.8089970583716
100
AcDbArc
 50
160.8778457926993
 51
255.4844056619
  0
LINE
  5
76B
330
1A
100
AcDbEntity
  8
SEIHIN
  6
CONTINUOUS
 62
     3
 48
5.0
100
AcDbLine
 10
258.2664010224717
 20
194.4489559623008
 30
0.0
 11
288.9664010224717
 21
194.4489559623008
 31
0.0
  0
LINE
  5
76C
330
1A
100
AcDbEntity
  8
SEIHIN
  6
CONTINUOUS
 62
     3
 48
5.0
100
AcDbLine
 10
194.9133372443933
 20
164.6150353470007
 30
0.0
 11
193.4657520029933
 21
109.3339852758008
 31
0.0
  0
LINE
  5
76D
330
1A
100
AcDbEntity
  8
SEIHIN
  6
CONTINUOUS
 62
     3
 48
5.0
100
AcDbLine
 10
192.9396831448933
 20
108.8347645698008
 30
0.0
 11
194.4141165383934
 21
165.1411042051008
 31
0.0
  0
LINE
  5
76E
330
1A
100
AcDbEntity
  8
SEIHIN
  6
CONTINUOUS
 62
     3
 48
5.0
100
AcDbLine
 10
175.0262073854929
 20
169.1871864793008
 30
0.0
 11
173.3665888627929
 21
105.8089120758008
 31
0.0
  0
LINE
  5
76F
330
1A
100
AcDbEntity
  8
CENTER_L
  6
CENTER
 62
     1
 48
5.0
100
AcDbLine
 10
133.3814995392422
 20
201.5348283581341
 30
0.0
 11
133.3296341357922
 21
125.6324846081341
 31
0.0
  0
DIMENSION
  5
770
330
1A
100
AcDbEntity
  8
SUNPOU
 48
5.0
100
AcDbDimension
  2
*D16
 10
213.6860787399853
 20
104.75310907618
 30
0.0
 11
212.0167446888964
 21
136.5076886486989
 31
0.0
 70
    33
  1
φ<>
  3
STANDARD
100
AcDbAlignedDimension
 13
175.0262073854929
 23
169.1871864793008
 33
0.0
 14
173.3665888627929
 24
105.8089120758008
 34
0.0
1001
ACAD
1000
DSTYLE
1002
{
1070
    41
1040
3.0
1070
    42
1040
3.0
1070
    43
1040
7.0
1070
    44
1040
1.5
1070
    73
1070
     0
1070
    74
1070
     0
1070
    77
1070
     3
1070
   140
1040
3.0
1070
   141
1040
150.0
1070
   147
1040
1.0
1070
   172
1070
     1
1070
   173
1070
     1
1070
   176
1070
   256
1070
   177
1070
   256
1070
   178
1070
   256
1070
   271
1070
     0
1070
   272
1070
     2
1070
     6
1000
OPEN
1070
     7
1000
OPEN
1002
}
  0
LINE
  5
771
330
1A
100
AcDbEntity
  8
SEIHIN
  6
CONTINUOUS
 62
     3
 48
5.0
100
AcDbLine
 10
258.2664010224717
 20
138.5681831541008
 30
0.0
 11
258.2664010224717
 21
137.4980492775008
 31
0.0
  0
LINE
  5
772
330
1A
100
AcDbEntity
  8
SEIHIN
  6
CONTINUOUS
 62
     3
 48
5.0
100
AcDbLine
 10
173.4464285550929
 20
108.8578669170008
 30
0.0
 11
192.9396831448933
 21
108.8347645698008
 31
0.0
  0
LINE
  5
773
330
1A
100
AcDbEntity
  8
SEIHIN
  6
CONTINUOUS
 62
     3
 48
5.0
100
AcDbLine
 10
192.9396831448933
 20
108.8347645698008
 30
0.0
 11
193.4657520029933
 21
109.3339852758008
 31
0.0
  0
LINE
  5
774
330
1A
100
AcDbEntity
  8
SEIHIN
  6
CONTINUOUS
 62
     3
 48
5.0
100
AcDbLine
 10
194.4141165383934
 20
165.1411042051008
 30
0.0
 11
174.946367693193
 21
166.1382316381008
 31
0.0
  0
LINE
  5
775
330
1A
100
AcDbEntity
  8
SEIHIN
  6
CONTINUOUS
 62
     3
 48
5.0
100
AcDbLine
 10
165.0296341357923
 20
169.9360343978008
 30
0.0
 11
165.0296341357923
 21
189.4489559623008
 31
0.0
  0
LINE
  5
776
330
1A
100
AcDbEntity
  8
SEIHIN
  6
CONTINUOUS
 62
     3
 48
5.0
100
AcDbLine
 10
133.3296341357922
 20
138.5681831541008
 30
0.0
 11
165.0296341357923
 21
169.9360343978008
 31
0.0
  0
LINE
  5
777
330
1A
100
AcDbEntity
  8
SEIHIN
  6
CONTINUOUS
 62
     3
 48
5.0
100
AcDbLine
 10
165.5165456615924
 20
169.4362057353008
 30
0.0
 11
133.3296341357922
 21
138.5681831541008
 31
0.0
  0
LINE
  5
778
330
1A
100
AcDbEntity
  8
SEIHIN
  6
CONTINUOUS
 62
     3
 48
5.0
100
AcDbLine
 10
175.0262073854929
 20
169.1871864793008
 30
0.0
 11
165.5165456615924
 21
169.4362057353008
 31
0.0
  0
ARC
  5
779
330
1A
100
AcDbEntity
  8
SEIHIN
  6
CONTINUOUS
 62
     3
 48
5.0
100
AcDbCircle
 10
165.5296341357924
 20
169.9360343978008
 30
0.0
 40
0.499999999999973
100
AcDbArc
 50
183.2069967834987
 51
265.0158038063979
  0
LINE
  5
77A
330
1A
100
AcDbEntity
  8
SEIHIN
  6
CONTINUOUS
 62
     3
 48
5.0
100
AcDbLine
 10
165.0296341357923
 20
194.4489559623008
 30
0.0
 11
166.7296341357924
 21
189.4489559623008
 31
0.0
  0
LINE
  5
77B
330
1A
100
AcDbEntity
  8
SEIHIN
  6
CONTINUOUS
 62
     3
 48
5.0
100
AcDbLine
 10
164.9308999331923
 20
189.4489559623008
 30
0.0
 11
166.7296341357924
 21
189.4489559623008
 31
0.0
  0
LINE
  5
77C
330
1A
100
AcDbEntity
  8
SEIHIN
  6
CONTINUOUS
 62
     3
 48
5.0
100
AcDbLine
 10
164.9308999331923
 20
189.4489559623008
 30
0.0
 11
164.9308999331923
 21
194.4489559623008
 31
0.0
  0
LINE
  5
77D
330
1A
100
AcDbEntity
  8
SEIHIN
  6
CONTINUOUS
 62
     3
 48
5.0
100
AcDbLine
 10
165.0138573390923
 20
194.4489559623008
 30
0.0
 11
165.0296341357923
 21
194.4489559623008
 31
0.0
  0
LINE
  5
77E
330
1A
100
AcDbEntity
  8
SEIHIN
  6
CONTINUOUS
 62
     3
 48
5.0
100
AcDbLine
 10
258.2664010224717
 20
194.4489559623008
 30
0.0
 11
258.2664010224717
 21
138.5681831541008
 31
0.0
  0
LINE
  5
77F
330
1A
100
AcDbEntity
  8
SEIHIN
  6
CONTINUOUS
 62
     3
 48
5.0
100
AcDbLine
 10
194.9133372443933
 20
164.6150353470007
 30
0.0
 11
194.4141165383934
 21
165.1411042051008
 31
0.0
  0
CIRCLE
  5
780
330
1A
100
AcDbEntity
  8
SEIHIN
  6
CONTINUOUS
 62
     3
 48
5.0
100
AcDbCircle
 10
289.9657264649717
 20
136.9745040778008
 30
0.0
 40
26.6408614855253
  0
LINE
  5
781
330
1A
100
AcDbEntity
  8
CENTER_L
  6
CENTER
 62
     1
 48
5.0
100
AcDbLine
 10
289.9664010224717
 20
200.861812275646
 30
0.0
 11
289.9664010224717
 21
97.20235281618659
 31
0.0
  0
CIRCLE
  5
782
330
1A
100
AcDbEntity
  8
SEIHIN
  6
CONTINUOUS
 62
     3
 48
5.0
100
AcDbCircle
 10
289.9657045422717
 20
136.9879406758008
 30
0.0
 40
28.15316353791928
  0
ARC
  5
783
330
1A
100
AcDbEntity
  8
SEIHIN
  6
CONTINUOUS
 62
     3
 48
5.0
100
AcDbCircle
 10
289.9779078175717
 20
137.7608220394008
 30
0.0
 40
28.88828453251458
100
AcDbArc
 50
289.7344700417001
 51
85.68309894999943
  0
CIRCLE
  5
784
330
1A
100
AcDbEntity
  8
SEIHIN
  6
CONTINUOUS
 62
     3
 48
5.0
100
AcDbCircle
 10
289.9657095129717
 20
136.9745103114008
 30
0.0
 40
27.64052504422426
  0
LINE
  5
785
330
1A
100
AcDbEntity
  8
SEIHIN
  6
CONTINUOUS
 62
     3
 48
5.0
100
AcDbLine
 10
321.6664010224717
 20
137.4980492775008
 30
0.0
 11
321.6664010224717
 21
138.5681831541008
 31
0.0
  0
LINE
  5
787
330
1A
100
AcDbEntity
  8
SEIHIN
  6
CONTINUOUS
 62
     3
 48
5.0
100
AcDbLine
 10
318.8664010225717
 20
137.7598187606008
 30
0.0
 11
318.8664010225717
 21
138.2261891857008
 31
0.0
  0
ARC
  5
788
330
1A
100
AcDbEntity
  8
SEIHIN
  6
CONTINUOUS
 62
     3
 48
5.0
100
AcDbCircle
 10
289.3834794181717
 20
138.1092781643008
 30
0.0
 40
26.80144040578715
100
AcDbArc
 50
284.4944448064995
 51
17.92302899809951
  0
LINE
  5
789
330
1A
100
AcDbEntity
  8
SEIHIN
  6
CONTINUOUS
 62
     3
 48
5.0
100
AcDbLine
 10
261.0664010224717
 20
138.2261891857008
 30
0.0
 11
261.0664010224717
 21
137.7598187606008
 31
0.0
  0
ARC
  5
78A
330
1A
100
AcDbEntity
  8
SEIHIN
  6
CONTINUOUS
 62
     3
 48
5.0
100
AcDbCircle
 10
289.9664010224717
 20
137.8221504993008
 30
0.0
 40
26.38215172642871
100
AcDbArc
 50
256.5752198104993
 51
283.4247801895006
  0
LINE
  5
78D
330
1A
100
AcDbEntity
  8
SEIHIN
  6
CONTINUOUS
 62
     3
 48
5.0
100
AcDbLine
 10
281.3676925041717
 20
110.1781117202008
 30
0.0
 11
281.5870278514717
 21
110.1097798955008
 31
0.0
  0
LINE
  5
78E
330
1A
100
AcDbEntity
  8
SEIHIN
  6
CONTINUOUS
 62
     3
 48
5.0
100
AcDbLine
 10
280.2004298259717
 20
110.5692165797008
 30
0.0
 11
281.3676925041717
 21
110.1781117202008
 31
0.0
  0
LINE
  5
790
330
1A
100
AcDbEntity
  8
SEIHIN
  6
CONTINUOUS
 62
     3
 48
5.0
100
AcDbLine
 10
298.3457741935717
 20
110.1097798955008
 30
0.0
 11
298.5651095408717
 21
110.1781117202008
 31
0.0
  0
LINE
  5
791
330
1A
100
AcDbEntity
  8
SEIHIN
  6
CONTINUOUS
 62
     3
 48
5.0
100
AcDbLine
 10
298.5651095408717
 20
110.1781117202008
 30
0.0
 11
299.7323722190717
 21
110.5692165797008
 31
0.0
  0
LINE
  5
792
330
1A
100
AcDbEntity
  8
SEIHIN
  6
CONTINUOUS
 62
     3
 48
5.0
100
AcDbLine
 10
321.6664010224717
 20
138.5681831541008
 30
0.0
 11
321.6664010224717
 21
194.4489559623008
 31
0.0
  0
ARC
  5
794
330
1A
100
AcDbEntity
  8
SEIHIN
  6
CONTINUOUS
 62
     3
 48
5.0
100
AcDbCircle
 10
289.9664010224717
 20
137.7400371257008
 30
0.0
 40
28.90987832667628
100
AcDbArc
 50
85.66345933670083
 51
94.33654066329918
  0
LINE
  5
795
330
1A
100
AcDbEntity
  8
SEIHIN
  6
CONTINUOUS
 62
     3
 48
5.0
100
AcDbLine
 10
321.6664010224717
 20
194.4489559623008
 30
0.0
 11
290.9664010224717
 21
194.4489559623008
 31
0.0
  0
LINE
  5
79A
330
1A
100
AcDbEntity
  8
SEIHIN
  6
CONTINUOUS
 62
     3
 48
5.0
100
AcDbLine
 10
290.9664010224717
 20
194.4489559623008
 30
0.0
 11
292.4664010224717
 21
189.4489559623008
 31
0.0
  0
LINE
  5
79B
330
1A
100
AcDbEntity
  8
SEIHIN
  6
CONTINUOUS
 62
     3
 48
5.0
100
AcDbLine
 10
288.9664010224717
 20
194.4489559623008
 30
0.0
 11
290.9664010224717
 21
194.4489559623008
 31
0.0
  0
LINE
  5
79C
330
1A
100
AcDbEntity
  8
SEIHIN
  6
CONTINUOUS
 62
     3
 48
5.0
100
AcDbLine
 10
288.9664010224717
 20
194.4489559623008
 30
0.0
 11
287.4664010224717
 21
189.4489559623008
 31
0.0
  0
LINE
  5
79D
330
1A
100
AcDbEntity
  8
SEIHIN
  6
CONTINUOUS
 62
     3
 48
5.0
100
AcDbLine
 10
292.4664010224717
 20
189.4489559623008
 30
0.0
 11
287.4664010224717
 21
189.4489559623008
 31
0.0
  0
LINE
  5
83E
330
1A
100
AcDbEntity
  8
CENTER_L
  6
CENTER
 62
     1
 48
5.0
100
AcDbLine
 10
247.5163811484217
 20
136.7345184569604
 30
0.0
 11
328.8427276205127
 21
136.7345184569604
 31
0.0
  0
DIMENSION
  5
87A
330
1A
100
AcDbEntity
  8
SUNPOU
 48
5.0
100
AcDbDimension
  2
*D20
 10
80.60860517946739
 20
169.4489559623008
 30
0.0
 11
78.10860517946736
 21
181.9489559623008
 31
0.0
 70
    32
  1
※ <>
  3
STANDARD
100
AcDbAlignedDimension
 13
101.6766657531608
 23
194.4489559623008
 33
0.0
 14
101.6766657531608
 24
169.4489559623008
 34
0.0
 50
90.0
100
AcDbRotatedDimension
1001
ACAD
1000
DSTYLE
1002
{
1070
   140
1040
3.0
1070
    74
1070
     0
1070
   172
1070
     1
1070
    73
1070
     0
1070
   272
1070
     2
1070
    77
1070
     3
1070
   173
1070
     1
1070
   147
1040
1.0
1070
    42
1040
3.0
1070
    44
1040
1.5
1070
    43
1040
7.0
1070
   271
1070
     0
1070
   178
1070
   256
1070
   177
1070
   256
1070
   176
1070
   256
1070
   141
1040
150.0
1070
     7
1000
_OPEN
1070
     6
1000
_OPEN
1070
    41
1040
3.0
1002
}
  0
DIMENSION
  5
8AB
330
1A
100
AcDbEntity
  8
SUNPOU
100
AcDbDimension
  2
*D23
 10
162.904450269462
 20
88.29145838543103
 30
0.0
 11
167.9681792651087
 21
90.65971695633221
 31
0.0
 70
    33
  1
\U+203B<>
  3
STANDARD
100
AcDbAlignedDimension
 13
173.3665888627929
 23
105.8089120758008
 33
0.0
 14
163.3700156130372
 24
106.0706815588763
 34
0.0
1001
ACAD
1000
DSTYLE
1002
{
1070
    41
1040
3.0
1070
    42
1040
3.0
1070
    43
1040
7.0
1070
    44
1040
1.5
1070
    73
1070
     0
1070
    74
1070
     0
1070
    77
1070
     3
1070
   140
1040
3.0
1070
   141
1040
150.0
1070
   147
1040
1.0
1070
   172
1070
     1
1070
   173
1070
     1
1070
   176
1070
   256
1070
   177
1070
   256
1070
   178
1070
   256
1070
   271
1070
     0
1070
   272
1070
     0
1070
   341
1005
B2
1070
     6
1000
OPEN
1070
     7
1000
OPEN
1070
   371
1070
    -1
1070
   372
1070
    -1
1002
}
  0
DIMENSION
  5
8CF
330
1A
100
AcDbEntity
  8
SUNPOU
100
AcDbDimension
  2
*D25
 10
173.3665888627929
 20
79.04178196157852
 30
0.0
 11
153.3481114992925
 21
81.54178196157852
 31
0.0
 70
    32
  3
STANDARD
100
AcDbAlignedDimension
 13
133.3296341357922
 23
125.6324846081341
 33
0.0
 14
173.3665888627929
 24
105.8089120758008
 34
0.0
100
AcDbRotatedDimension
1001
ACAD
1000
DSTYLE
1002
{
1070
    41
1040
3.0
1070
    42
1040
3.0
1070
    43
1040
7.0
1070
    44
1040
1.5
1070
    73
1070
     0
1070
    74
1070
     0
1070
    77
1070
     3
1070
   140
1040
3.0
1070
   141
1040
150.0
1070
   147
1040
1.0
1070
   172
1070
     1
1070
   173
1070
     1
1070
   176
1070
   256
1070
   177
1070
   256
1070
   178
1070
   256
1070
   271
1070
     0
1070
   272
1070
     0
1070
   341
1005
B2
1070
     6
1000
OPEN
1070
     7
1000
OPEN
1070
   371
1070
    -1
1070
   372
1070
    -1
1002
}
  0
DIMENSION
  5
8DC
330
1A
100
AcDbEntity
  8
SUNPOU
100
AcDbDimension
  2
*D26
 10
193.4657520029933
 20
69.48563046749734
 30
0.0
 11
163.3976930693927
 21
71.98563046749734
 31
0.0
 70
    32
  3
STANDARD
100
AcDbAlignedDimension
 13
133.3296341357922
 23
122.6324846081341
 33
0.0
 14
193.4657520029933
 24
109.3339852758008
 34
0.0
100
AcDbRotatedDimension
1001
ACAD
1000
DSTYLE
1002
{
1070
    41
1040
3.0
1070
    42
1040
3.0
1070
    43
1040
7.0
1070
    44
1040
1.5
1070
    73
1070
     0
1070
    74
1070
     0
1070
    77
1070
     3
1070
   140
1040
3.0
1070
   141
1040
150.0
1070
   147
1040
1.0
1070
   172
1070
     1
1070
   173
1070
     1
1070
   176
1070
   256
1070
   177
1070
   256
1070
   178
1070
   256
1070
   271
1070
     0
1070
   272
1070
     0
1070
   341
1005
B2
1070
     6
1000
OPEN
1070
     7
1000
OPEN
1070
   371
1070
    -1
1070
   372
1070
    -1
1002
}
  0
LINE
  5
901
330
1A
100
AcDbEntity
  8
SUNPOU
100
AcDbLine
 10
133.3275841836256
 20
122.6324853085183
 30
0.0
 11
133.3267684484262
 21
121.4386989038715
 31
0.0
  0
ARC
  5
902
330
1A
100
AcDbEntity
  8
SUNPOU
100
AcDbCircle
 10
133.3384731674502
 20
138.5679516959291
 30
0.0
 40
15.62925679107714
100
AcDbArc
 50
280.9755960583681
 51
347.4852527361584
  0
INSERT
  5
903
330
1A
100
AcDbEntity
  8
SUNPOU
100
AcDbBlockReference
  2
_OPEN
 10
133.3277934245095
 20
122.9386985536794
 30
0.0
 41
3.0
 42
3.0
 43
3.0
 50
185.4682224264352
  0
INSERT
  5
904
330
1A
100
AcDbEntity
  8
SUNPOU
100
AcDbBlockReference
  2
_OPEN
 10
148.9623742025746
 20
138.1588254488252
 30
0.0
 41
3.0
 42
3.0
 43
3.0
 50
82.99262636809137
  0
MTEXT
  5
905
330
1A
100
AcDbEntity
  8
SUNPOU
100
AcDbMText
 10
143.2693941457695
 20
131.3847574697403
 30
0.0
 40
3.0
 41
0.0
 71
     5
 72
     1
  1
\A1;89°
 11
0.5807485296523988
 21
0.8140830088551027
 31
0.0
1001
ACAD
1000
MTEXTBEGIN
1070
    73
1070
     1
1070
    44
1040
1.0
1070
    74
1070
     0
1000
MTEXTEND
  0
LINE
  5
9F8
330
1A
100
AcDbEntity
  8
ZUWAKU
100
AcDbLine
 10
104.323300388521
 20
7.600000339449703
 30
0.0
 11
223.7121817289827
 21
7.600000339449699
 31
0.0
  0
LINE
  5
9F9
330
1A
100
AcDbEntity
  8
ZUWAKU
100
AcDbLine
 10
104.323300388521
 20
7.800000339449701
 30
0.0
 11
223.7121817289827
 21
7.800000339449704
 31
0.0
  0
LINE
  5
9FA
330
1A
100
AcDbEntity
  8
ZUWAKU
100
AcDbLine
 10
104.323300388521
 20
7.700000339449701
 30
0.0
 11
223.7121817289827
 21
7.700000339449701
 31
0.0
  0
LINE
  5
9FB
330
1A
100
AcDbEntity
  8
ZUWAKU
100
AcDbLine
 10
-0.0000002565129762
 20
15.40000033944969
 30
0.0
 11
398.6999997434869
 21
15.40000033944969
 31
0.0
  0
LINE
  5
9FC
330
1A
100
AcDbEntity
  8
ZUWAKU
100
AcDbLine
 10
-0.0000002565129762
 20
15.30000033944968
 30
0.0
 11
398.6999997434869
 21
15.30000033944968
 31
0.0
  0
LINE
  5
9FD
330
1A
100
AcDbEntity
  8
ZUWAKU
100
AcDbLine
 10
-0.0000002565129762
 20
15.20000033944968
 30
0.0
 11
398.6999997434869
 21
15.20000033944968
 31
0.0
  0
LINE
  5
9FE
330
1A
100
AcDbEntity
  8
ZUWAKU
100
AcDbLine
 10
-0.0000002565129762
 20
15.10000033944968
 30
0.0
 11
398.6999997434869
 21
15.10000033944968
 31
0.0
  0
LINE
  5
9FF
330
1A
100
AcDbEntity
  8
ZUWAKU
100
AcDbLine
 10
-0.0000002565129762
 20
15.00000033944968
 30
0.0
 11
398.6999997434869
 21
15.00000033944968
 31
0.0
  0
LWPOLYLINE
  5
A00
330
1A
100
AcDbEntity
  8
ZUWAKU
100
AcDbPolyline
 90
        4
 70
     1
 43
0.0
 10
0.0999997434869897
 20
275.7000003394497
 10
0.0999997434869897
 20
0.1000003394497071
 10
398.6999997434869
 20
0.1000003394497186
 10
398.699999743487
 20
275.7000003394497
  0
LWPOLYLINE
  5
A01
330
1A
100
AcDbEntity
  8
ZUWAKU
100
AcDbPolyline
 90
        4
 70
     1
 43
0.0
 10
0.2999997434869783
 20
275.5000003394497
 10
0.2999997434869783
 20
0.3000003394496957
 10
398.4999997434871
 20
0.3000003394497188
 10
398.499999743487
 20
275.5000003394497
  0
LWPOLYLINE
  5
A02
330
1A
100
AcDbEntity
  8
ZUWAKU
100
AcDbPolyline
 90
        4
 70
     1
 43
0.0
 10
-0.0000002565129762
 20
275.8000003394497
 10
-0.0000002565129762
 20
0.0000003394496844
 10
398.799999743487
 20
0.0000003394497181
 10
398.799999743487
 20
275.8000003394497
  0
LWPOLYLINE
  5
A03
330
1A
100
AcDbEntity
  8
ZUWAKU
100
AcDbPolyline
 90
        4
 70
     1
 43
0.0
 10
0.1999997434870124
 20
275.6000003394496
 10
0.1999997434870124
 20
0.2000003394497298
 10
398.599999743487
 20
0.2000003394497183
 10
398.599999743487
 20
275.6000003394496
  0
LWPOLYLINE
  5
A04
330
1A
100
AcDbEntity
  8
ZUWAKU
100
AcDbPolyline
 90
        4
 70
     1
 43
0.0
 10
0.3999997434870011
 20
275.4000003394497
 10
0.3999997434870011
 20
0.4000003394497185
 10
398.399999743487
 20
0.4000003394497185
 10
398.399999743487
 20
275.4000003394497
  0
TEXT
  5
A05
330
1A
100
AcDbEntity
  8
MOJI
100
AcDbText
 10
46.47889453757159
 20
6.370589404587065
 30
0.0
 40
3.0
  1
たてとい　丸トップ
 41
0.9
  7
ｽﾀｲﾙ1
100
AcDbText
  0
HATCH
  5
A06
330
1A
100
AcDbEntity
  8
ZUWAKU
100
AcDbHatch
 10
0.0
 20
0.0
 30
0.0
210
0.0
220
0.0
230
1.0
  2
ANSI37
 70
     0
 71
     0
 91
        8
 92
        7
 72
     1
 73
     1
 93
       24
 10
7.251131074046952
 20
8.822424579941475
 42
-0.1989123673796348
 10
7.046105820877585
 20
9.317399326772001
 42
0.0
 10
7.046105820877585
 20
9.96250033944969
 42
-0.4142135623730912
 10
7.308605820877573
 20
10.22500033944968
 42
0.0
 10
8.796105820877528
 20
10.22500033944968
 42
0.4142135623731546
 10
9.058605820877573
 20
10.48750033944968
 42
0.0
 10
9.058605820877573
 20
11.36250033944968
 42
0.4142135623731586
 10
8.796105820877528
 20
11.62500033944968
 42
0.0
 10
7.046105820877585
 20
11.62500033944968
 42
0.4142135623730928
 10
5.646105820877608
 20
10.2250003394497
 42
0.0
 10
5.646105820877608
 20
9.317399326772065
 42
0.1989123673796619
 10
6.261181580385823
 20
7.832475086280261
 42
0.0
 10
7.716080567708161
 20
6.377576098957932
 42
-0.1989123673796613
 10
7.921105820877585
 20
5.882601352127339
 42
0.0
 10
7.921105820877585
 20
5.237500339449681
 42
-0.4142135623730911
 10
7.658605820877596
 20
4.975000339449685
 42
0.0
 10
6.171105820877642
 20
4.975000339449685
 42
0.4142135623731526
 10
5.908605820877596
 20
4.712500339449691
 42
0.0
 10
5.908605820877596
 20
3.837500339449681
 42
0.4142135623731526
 10
6.171105820877642
 20
3.575000339449687
 42
0.0
 10
7.921105820877585
 20
3.575000339449687
 42
0.4142135623731044
 10
9.321105820877619
 20
4.975000339449675
 42
0.0
 10
9.321105820877619
 20
5.882601352127311
 42
0.1989123673796604
 10
8.706030061369347
 20
7.367525592619081
 42
0.0
 97
        0
 92
        7
 72
     1
 73
     1
 93
       16
 10
11.7711058208776
 20
9.52500033944969
 42
-0.4142135623730935
 10
12.47110582087759
 20
10.22500033944968
 42
0.0
 10
13.43360582087757
 20
10.22500033944968
 42
0.4142135623731546
 10
13.69610582087761
 20
10.48750033944968
 42
0.0
 10
13.69610582087761
 20
11.36250033944968
 42
0.4142135623730951
 10
13.43360582087763
 20
11.62500033944968
 42
0.0
 10
12.47110582087754
 20
11.62500033944966
 42
0.4142135623730892
 10
10.37110582087757
 20
9.525000339449654
 42
0.0
 10
10.37110582087757
 20
5.675000339449699
 42
0.4142135623730969
 10
12.47110582087759
 20
3.575000339449687
 42
0.0
 10
13.43360582087757
 20
3.575000339449687
 42
0.4142135623731526
 10
13.69610582087761
 20
3.837500339449681
 42
0.0
 10
13.69610582087761
 20
4.712500339449691
 42
0.4142135623730891
 10
13.43360582087763
 20
4.975000339449685
 42
0.0
 10
12.47110582087759
 20
4.975000339449685
 42
-0.4142135623730928
 10
11.7711058208776
 20
5.675000339449679
 42
0.0
 97
        0
 92
        7
 72
     1
 73
     1
 93
        2
 10
12.12110582087757
 20
7.600000339449685
 42
1.0
 10
13.87110582087757
 20
7.600000339449685
 42
1.0
 97
        0
 92
        7
 72
     1
 73
     1
 93
       26
 10
18.65742906196658
 20
9.602523936231399
 42
0.0
 10
19.18824887853548
 20
11.28345335536619
 42
0.5069206636600134
 10
18.93793342893781
 20
11.62500033944968
 42
0.0
 10
18.08848873913319
 20
11.62500033944968
 42
0.3272098845218764
 10
17.83817328953551
 20
11.44154732353317
 42
0.0
 10
16.90403835221963
 20
8.483453355366226
 42
-0.3272098845219541
 10
16.65372290262189
 20
8.300000339449685
 42
0.0
 10
16.58360582087766
 20
8.300000339449685
 42
-0.4142135623731526
 10
16.32110582087761
 20
8.562500339449679
 42
0.0
 10
16.32110582087761
 20
11.36250033944968
 42
0.4142135623730951
 10
16.05860582087763
 20
11.62500033944968
 42
0.0
 10
15.18360582087757
 20
11.62500033944968
 42
0.4142135623730871
 10
14.92110582087758
 20
11.36250033944969
 42
0.0
 10
14.92110582087758
 20
3.837500339449681
 42
0.4142135623730891
 10
15.18360582087757
 20
3.575000339449687
 42
0.0
 10
16.05860582087757
 20
3.575000339449687
 42
0.4142135623731526
 10
16.32110582087761
 20
3.837500339449681
 42
0.0
 10
16.32110582087761
 20
6.637500339449692
 42
-0.4142135623731526
 10
16.58360582087766
 20
6.900000339449686
 42
0.0
 10
16.65372290262195
 20
6.900000339449686
 42
-0.3272098845218915
 10
16.90403835221963
 20
6.716547323533148
 42
0.0
 10
17.83817328953551
 20
3.758453355366222
 42
0.3272098845218902
 10
18.08848873913319
 20
3.575000339449687
 42
0.0
 10
18.93793342893781
 20
3.575000339449687
 42
0.5069206636600335
 10
19.18824887853548
 20
3.91654732353319
 42
0.0
 10
18.02505318929866
 20
7.600000339449755
 42
0.0
 97
        0
 92
        7
 72
     1
 73
     1
 93
        8
 10
21.74610582087757
 20
11.36250033944969
 42
0.4142135623731546
 10
21.48360582087752
 20
11.62500033944968
 42
0.0
 10
20.60860582087764
 20
11.62500033944968
 42
0.4142135623731507
 10
20.34610582087759
 20
11.36250033944969
 42
0.0
 10
20.34610582087759
 20
3.837500339449681
 42
0.4142135623731526
 10
20.60860582087764
 20
3.575000339449687
 42
0.0
 10
21.48360582087752
 20
3.575000339449687
 42
0.4142135623731526
 10
21.74610582087757
 20
3.837500339449681
 42
0.0
 97
        0
 92
        7
 72
     1
 73
     1
 93
       24
 10
24.19610582087762
 20
9.96250033944969
 42
-0.4142135623731546
 10
24.45860582087766
 20
10.22500033944968
 42
0.0
 10
25.94610582087762
 20
10.22500033944968
 42
0.4142135623730911
 10
26.20860582087761
 20
10.48750033944968
 42
0.0
 10
26.20860582087761
 20
11.36250033944968
 42
0.4142135623730952
 10
25.94610582087762
 20
11.62500033944968
 42
0.0
 10
24.19610582087762
 20
11.62500033944968
 42
0.4142135623731048
 10
22.79610582087758
 20
10.2250003394497
 42
0.0
 10
22.79610582087758
 20
9.317399326772065
 42
0.1989123673796613
 10
23.41118158038586
 20
7.83247508628029
 42
0.0
 10
24.86608056770819
 20
6.377576098957955
 42
-0.1989123673796402
 10
25.07110582087761
 20
5.882601352127419
 42
0.0
 10
25.07110582087761
 20
5.237500339449681
 42
-0.4142135623730911
 10
24.80860582087763
 20
4.975000339449685
 42
0.0
 10
23.32110582087762
 20
4.975000339449685
 42
0.4142135623731526
 10
23.05860582087757
 20
4.712500339449691
 42
0.0
 10
23.05860582087757
 20
3.837500339449681
 42
0.4142135623730891
 10
23.32110582087756
 20
3.575000339449687
 42
0.0
 10
25.07110582087761
 20
3.575000339449687
 42
0.4142135623730925
 10
26.47110582087759
 20
4.975000339449675
 42
0.0
 10
26.47110582087759
 20
5.882601352127311
 42
0.1989123673796675
 10
25.85603006136932
 20
7.367525592619138
 42
0.0
 10
24.40113107404704
 20
8.822424579941396
 42
-0.1989123673796652
 10
24.19610582087762
 20
9.31739932677198
 42
0.0
 97
        0
 92
        7
 72
     1
 73
     1
 93
       16
 10
28.92110582087758
 20
11.36250033944968
 42
0.414213562373103
 10
28.65860582087759
 20
11.62500033944968
 42
0.0
 10
27.78360582087759
 20
11.62500033944968
 42
0.4142135623730871
 10
27.52110582087761
 20
11.36250033944969
 42
0.0
 10
27.52110582087761
 20
4.975000339449675
 42
0.4142135623730926
 10
28.92110582087758
 20
3.575000339449687
 42
0.0
 10
30.67110582087758
 20
3.575000339449687
 42
0.4142135623731044
 10
32.07110582087762
 20
4.975000339449675
 42
0.0
 10
32.07110582087762
 20
11.36250033944968
 42
0.4142135623730951
 10
31.80860582087763
 20
11.62500033944968
 42
0.0
 10
30.93360582087757
 20
11.62500033944968
 42
0.4142135623730871
 10
30.67110582087758
 20
11.36250033944969
 42
0.0
 10
30.67110582087758
 20
5.500000339449673
 42
-0.414213562373088
 10
30.1461058208776
 20
4.975000339449685
 42
0.0
 10
29.44610582087761
 20
4.975000339449685
 42
-0.4142135623731197
 10
28.92110582087758
 20
5.500000339449673
 42
0.0
 97
        0
 92
        7
 72
     1
 73
     1
 93
        8
 10
34.5211058208776
 20
11.36250033944969
 42
0.4142135623730871
 10
34.25860582087762
 20
11.62500033944968
 42
0.0
 10
33.38360582087762
 20
11.62500033944968
 42
0.4142135623731507
 10
33.12110582087757
 20
11.36250033944969
 42
0.0
 10
33.12110582087757
 20
3.837500339449681
 42
0.4142135623730891
 10
33.38360582087756
 20
3.575000339449687
 42
0.0
 10
34.25860582087762
 20
3.575000339449687
 42
0.4142135623730891
 10
34.5211058208776
 20
3.837500339449681
 42
0.0
 97
        0
 75
     0
 76
     1
 52
0.0
 41
0.1
 77
     0
 78
     2
 53
45.0
 43
-450.4711524238524
 44
-6.599999660550281
 45
-0.2245064030267288
 46
0.2245064030267288
 79
     0
 53
135.0
 43
-450.4711524238524
 44
-6.599999660550281
 45
-0.2245064030267288
 46
-0.2245064030267288
 79
     0
 47
0.057451373970553
 98
        8
 10
8.039927224998677
 20
7.583587162392461
 10
11.2022572467066
 20
9.42203143067519
 10
12.58218368631685
 20
7.755941162485044
 10
15.45702973430559
 20
8.100649162670435
 10
20.91923575296539
 20
8.330455296441243
 10
23.44910019105179
 20
9.70928849765329
 10
28.2788427296872
 20
9.364579296997192
 10
33.91353955329839
 20
9.594385430767999
  0
LINE
  5
A07
330
1A
100
AcDbEntity
  8
ZUWAKU
100
AcDbLine
 10
12.47110582087759
 20
11.62500033944966
 30
0.0
 11
13.43360582087757
 21
11.62500033944968
 31
0.0
  0
LINE
  5
A08
330
1A
100
AcDbEntity
  8
ZUWAKU
100
AcDbLine
 10
13.43360582087757
 20
10.22500033944968
 30
0.0
 11
12.47110582087759
 21
10.22500033944968
 31
0.0
  0
LINE
  5
A09
330
1A
100
AcDbEntity
  8
ZUWAKU
100
AcDbLine
 10
12.47110582087759
 20
4.975000339449685
 30
0.0
 11
13.43360582087757
 21
4.975000339449685
 31
0.0
  0
LINE
  5
A0A
330
1A
100
AcDbEntity
  8
ZUWAKU
100
AcDbLine
 10
13.43360582087757
 20
3.575000339449687
 30
0.0
 11
12.47110582087759
 21
3.575000339449687
 31
0.0
  0
CIRCLE
  5
A0B
330
1A
100
AcDbEntity
  8
ZUWAKU
100
AcDbCircle
 10
12.99610582087757
 20
7.600000339449685
 30
0.0
 40
0.875
  0
ARC
  5
A0C
330
1A
100
AcDbEntity
  8
ZUWAKU
100
AcDbCircle
 10
7.746105820877573
 20
9.317399326772036
 30
0.0
 40
0.7
100
AcDbArc
 50
180.0000000000016
 51
224.9999999999988
  0
LINE
  5
A0D
330
1A
100
AcDbEntity
  8
ZUWAKU
100
AcDbLine
 10
11.7711058208776
 20
9.525000339449686
 30
0.0
 11
11.7711058208776
 21
5.675000339449688
 31
0.0
  0
LINE
  5
A0E
330
1A
100
AcDbEntity
  8
ZUWAKU
100
AcDbLine
 10
10.37110582087757
 20
5.675000339449688
 30
0.0
 11
10.37110582087757
 21
9.525000339449665
 31
0.0
  0
ARC
  5
A0F
330
1A
100
AcDbEntity
  8
ZUWAKU
100
AcDbCircle
 10
7.746105820877573
 20
9.317399326772036
 30
0.0
 40
2.099999999999999
100
AcDbArc
 50
180.0
 51
225.0
  0
ARC
  5
A10
330
1A
100
AcDbEntity
  8
ZUWAKU
100
AcDbCircle
 10
7.921105820877585
 20
4.975000339449685
 30
0.0
 40
1.399999999999999
100
AcDbArc
 50
270.0
 51
0.0
  0
ARC
  5
A11
330
1A
100
AcDbEntity
  8
ZUWAKU
100
AcDbCircle
 10
12.47110582087759
 20
5.675000339449688
 30
0.0
 40
2.099999999999999
100
AcDbArc
 50
180.0
 51
270.0
  0
ARC
  5
A12
330
1A
100
AcDbEntity
  8
ZUWAKU
100
AcDbCircle
 10
7.221105820877596
 20
5.882601352127338
 30
0.0
 40
2.099999999999999
100
AcDbArc
 50
0.0
 51
45.0
  0
LINE
  5
A13
330
1A
100
AcDbEntity
  8
ZUWAKU
100
AcDbLine
 10
8.706030061369347
 20
7.367525592619099
 30
0.0
 11
7.251131074047009
 21
8.822424579941436
 31
0.0
  0
LINE
  5
A14
330
1A
100
AcDbEntity
  8
ZUWAKU
100
AcDbLine
 10
7.921105820877585
 20
5.237500339449688
 30
0.0
 11
7.921105820877585
 21
5.882601352127359
 31
0.0
  0
ARC
  5
A15
330
1A
100
AcDbEntity
  8
ZUWAKU
100
AcDbCircle
 10
7.658605820877596
 20
5.237500339449688
 30
0.0
 40
0.2625
100
AcDbArc
 50
270.0
 51
0.0
  0
ARC
  5
A16
330
1A
100
AcDbEntity
  8
ZUWAKU
100
AcDbCircle
 10
7.221105820877596
 20
5.882601352127359
 30
0.0
 40
0.7
100
AcDbArc
 50
0.0
 51
45.0
  0
LINE
  5
A17
330
1A
100
AcDbEntity
  8
ZUWAKU
100
AcDbLine
 10
5.908605820877596
 20
3.837500339449686
 30
0.0
 11
5.908605820877596
 21
4.712500339449686
 31
0.0
  0
ARC
  5
A18
330
1A
100
AcDbEntity
  8
ZUWAKU
100
AcDbCircle
 10
6.171105820877585
 20
3.837500339449686
 30
0.0
 40
0.2625
100
AcDbArc
 50
180.0
 51
270.0
  0
ARC
  5
A19
330
1A
100
AcDbEntity
  8
ZUWAKU
100
AcDbCircle
 10
6.171105820877585
 20
4.712500339449686
 30
0.0
 40
0.2625
100
AcDbArc
 50
90.0
 51
180.0
  0
LINE
  5
A1A
330
1A
100
AcDbEntity
  8
ZUWAKU
100
AcDbLine
 10
6.171105820877585
 20
3.575000339449687
 30
0.0
 11
7.921105820877585
 21
3.575000339449687
 31
0.0
  0
LINE
  5
A1B
330
1A
100
AcDbEntity
  8
ZUWAKU
100
AcDbLine
 10
6.171105820877585
 20
4.975000339449685
 30
0.0
 11
7.658605820877596
 21
4.975000339449685
 31
0.0
  0
LINE
  5
A1C
330
1A
100
AcDbEntity
  8
ZUWAKU
100
AcDbLine
 10
6.261181580385823
 20
7.832475086280275
 30
0.0
 11
7.716080567708161
 21
6.377576098957945
 31
0.0
  0
LINE
  5
A1D
330
1A
100
AcDbEntity
  8
ZUWAKU
100
AcDbLine
 10
9.321105820877619
 20
4.975000339449685
 30
0.0
 11
9.321105820877619
 21
5.882601352127359
 31
0.0
  0
ARC
  5
A1E
330
1A
100
AcDbEntity
  8
ZUWAKU
100
AcDbCircle
 10
12.47110582087759
 20
5.675000339449688
 30
0.0
 40
0.7
100
AcDbArc
 50
180.0
 51
270.0
  0
ARC
  5
A1F
330
1A
100
AcDbEntity
  8
ZUWAKU
100
AcDbCircle
 10
8.796105820877585
 20
11.36250033944968
 30
0.0
 40
0.2625
100
AcDbArc
 50
0.0
 51
90.0
  0
ARC
  5
A20
330
1A
100
AcDbEntity
  8
ZUWAKU
100
AcDbCircle
 10
8.796105820877585
 20
10.48750033944968
 30
0.0
 40
0.2625
100
AcDbArc
 50
270.0
 51
0.0
  0
LINE
  5
A21
330
1A
100
AcDbEntity
  8
ZUWAKU
100
AcDbLine
 10
7.046105820877585
 20
11.62500033944968
 30
0.0
 11
8.796105820877585
 21
11.62500033944968
 31
0.0
  0
ARC
  5
A22
330
1A
100
AcDbEntity
  8
ZUWAKU
100
AcDbCircle
 10
7.308605820877573
 20
9.962500339449686
 30
0.0
 40
0.2625
100
AcDbArc
 50
90.0
 51
180.0
  0
LINE
  5
A23
330
1A
100
AcDbEntity
  8
ZUWAKU
100
AcDbLine
 10
7.046105820877585
 20
9.962500339449686
 30
0.0
 11
7.046105820877585
 21
9.317399326772015
 31
0.0
  0
LINE
  5
A24
330
1A
100
AcDbEntity
  8
ZUWAKU
100
AcDbLine
 10
8.796105820877585
 20
10.22500033944968
 30
0.0
 11
7.308605820877573
 21
10.22500033944968
 31
0.0
  0
LINE
  5
A25
330
1A
100
AcDbEntity
  8
ZUWAKU
100
AcDbLine
 10
5.646105820877608
 20
10.22500033944968
 30
0.0
 11
5.646105820877608
 21
9.317399326772015
 31
0.0
  0
ARC
  5
A26
330
1A
100
AcDbEntity
  8
ZUWAKU
100
AcDbCircle
 10
7.046105820877585
 20
10.22500033944968
 30
0.0
 40
1.399999999999999
100
AcDbArc
 50
90.0
 51
180.0
  0
LINE
  5
A27
330
1A
100
AcDbEntity
  8
ZUWAKU
100
AcDbLine
 10
9.058605820877573
 20
11.36250033944968
 30
0.0
 11
9.058605820877573
 21
10.48750033944968
 31
0.0
  0
ARC
  5
A28
330
1A
100
AcDbEntity
  8
ZUWAKU
100
AcDbCircle
 10
12.47110582087759
 20
9.525000339449686
 30
0.0
 40
0.7
100
AcDbArc
 50
90.0
 51
180.0
  0
ARC
  5
A29
330
1A
100
AcDbEntity
  8
ZUWAKU
100
AcDbCircle
 10
12.47110582087759
 20
9.525000339449665
 30
0.0
 40
2.099999999999999
100
AcDbArc
 50
90.0
 51
180.0
  0
LINE
  5
A2A
330
1A
100
AcDbEntity
  8
ZUWAKU
100
AcDbLine
 10
39.66331451748112
 20
15.00000033944968
 30
0.0
 11
39.66331451748123
 21
0.4000003394497185
 31
0.0
  0
LINE
  5
A2B
330
1A
100
AcDbEntity
  8
ZUWAKU
100
AcDbLine
 10
39.76331451748114
 20
15.00000033944968
 30
0.0
 11
39.76331451748126
 21
0.4000003394497185
 31
0.0
  0
LINE
  5
A2C
330
1A
100
AcDbEntity
  8
ZUWAKU
100
AcDbLine
 10
39.56331451748122
 20
15.00000033944968
 30
0.0
 11
39.56331451748122
 21
0.4000003394497185
 31
0.0
  0
LINE
  5
A2D
330
1A
100
AcDbEntity
  8
ZUWAKU
100
AcDbLine
 10
32.07110582087762
 20
4.975000339449685
 30
0.0
 11
32.07110582087762
 21
11.36250033944968
 31
0.0
  0
LINE
  5
A2E
330
1A
100
AcDbEntity
  8
ZUWAKU
100
AcDbLine
 10
30.67110582087758
 20
11.36250033944968
 30
0.0
 11
30.67110582087758
 21
5.500000339449684
 31
0.0
  0
LINE
  5
A2F
330
1A
100
AcDbEntity
  8
ZUWAKU
100
AcDbLine
 10
34.5211058208776
 20
3.837500339449686
 30
0.0
 11
34.5211058208776
 21
11.36250033944968
 31
0.0
  0
LINE
  5
A30
330
1A
100
AcDbEntity
  8
ZUWAKU
100
AcDbLine
 10
33.12110582087757
 20
11.36250033944968
 30
0.0
 11
33.12110582087757
 21
3.837500339449686
 31
0.0
  0
ARC
  5
A31
330
1A
100
AcDbEntity
  8
ZUWAKU
100
AcDbCircle
 10
24.8961058208776
 20
9.317399326772036
 30
0.0
 40
0.7
100
AcDbArc
 50
180.0000000000016
 51
224.9999999999988
  0
ARC
  5
A32
330
1A
100
AcDbEntity
  8
ZUWAKU
100
AcDbCircle
 10
24.8961058208776
 20
9.317399326772036
 30
0.0
 40
2.099999999999999
100
AcDbArc
 50
180.0
 51
225.0
  0
LINE
  5
A33
330
1A
100
AcDbEntity
  8
ZUWAKU
100
AcDbLine
 10
18.65742906196658
 20
9.602523936231399
 30
0.0
 11
18.02505318929866
 21
7.600000339449696
 31
0.0
  0
LINE
  5
A34
330
1A
100
AcDbEntity
  8
ZUWAKU
100
AcDbLine
 10
20.34610582087759
 20
11.36250033944968
 30
0.0
 11
20.34610582087759
 21
3.837500339449686
 31
0.0
  0
LINE
  5
A35
330
1A
100
AcDbEntity
  8
ZUWAKU
100
AcDbLine
 10
21.74610582087757
 20
3.837500339449686
 30
0.0
 11
21.74610582087757
 21
11.36250033944968
 31
0.0
  0
LINE
  5
A36
330
1A
100
AcDbEntity
  8
ZUWAKU
100
AcDbLine
 10
27.52110582087761
 20
11.36250033944968
 30
0.0
 11
27.52110582087761
 21
4.975000339449685
 31
0.0
  0
LINE
  5
A37
330
1A
100
AcDbEntity
  8
ZUWAKU
100
AcDbLine
 10
28.92110582087758
 20
5.500000339449684
 30
0.0
 11
28.92110582087758
 21
11.36250033944968
 31
0.0
  0
LINE
  5
A38
330
1A
100
AcDbEntity
  8
ZUWAKU
100
AcDbLine
 10
16.32110582087761
 20
8.562500339449687
 30
0.0
 11
16.32110582087761
 21
11.36250033944968
 31
0.0
  0
LINE
  5
A39
330
1A
100
AcDbEntity
  8
ZUWAKU
100
AcDbLine
 10
14.92110582087758
 20
11.36250033944968
 30
0.0
 11
14.92110582087758
 21
3.837500339449686
 31
0.0
  0
LINE
  5
A3A
330
1A
100
AcDbEntity
  8
ZUWAKU
100
AcDbLine
 10
17.83817328953551
 20
11.44154732353317
 30
0.0
 11
16.90403835221963
 21
8.483453355366201
 31
0.0
  0
LINE
  5
A3B
330
1A
100
AcDbEntity
  8
ZUWAKU
100
AcDbLine
 10
30.1461058208776
 20
4.975000339449685
 30
0.0
 11
29.44610582087761
 21
4.975000339449685
 31
0.0
  0
LINE
  5
A3C
330
1A
100
AcDbEntity
  8
ZUWAKU
100
AcDbLine
 10
28.92110582087758
 20
3.575000339449687
 30
0.0
 11
30.67110582087758
 21
3.575000339449687
 31
0.0
  0
LINE
  5
A3D
330
1A
100
AcDbEntity
  8
ZUWAKU
100
AcDbLine
 10
20.60860582087758
 20
3.575000339449687
 30
0.0
 11
21.48360582087758
 21
3.575000339449687
 31
0.0
  0
LINE
  5
A3E
330
1A
100
AcDbEntity
  8
ZUWAKU
100
AcDbLine
 10
17.83817328953551
 20
3.758453355366199
 30
0.0
 11
16.90403835221963
 21
6.71654732353317
 31
0.0
  0
ARC
  5
A3F
330
1A
100
AcDbEntity
  8
ZUWAKU
100
AcDbCircle
 10
16.65372290262195
 20
8.562500339449687
 30
0.0
 40
0.2625
100
AcDbArc
 50
270.0
 51
342.4744316262769
  0
LINE
  5
A40
330
1A
100
AcDbEntity
  8
ZUWAKU
100
AcDbLine
 10
16.65372290262195
 20
8.300000339449685
 30
0.0
 11
16.5836058208776
 21
8.300000339449685
 31
0.0
  0
LINE
  5
A41
330
1A
100
AcDbEntity
  8
ZUWAKU
100
AcDbLine
 10
16.5836058208776
 20
6.900000339449686
 30
0.0
 11
16.65372290262195
 21
6.900000339449686
 31
0.0
  0
ARC
  5
A42
330
1A
100
AcDbEntity
  8
ZUWAKU
100
AcDbCircle
 10
16.5836058208776
 20
8.562500339449687
 30
0.0
 40
0.2625
100
AcDbArc
 50
180.0
 51
270.0
  0
LINE
  5
A43
330
1A
100
AcDbEntity
  8
ZUWAKU
100
AcDbLine
 10
15.18360582087757
 20
3.575000339449687
 30
0.0
 11
16.05860582087757
 21
3.575000339449687
 31
0.0
  0
ARC
  5
A44
330
1A
100
AcDbEntity
  8
ZUWAKU
100
AcDbCircle
 10
16.05860582087757
 20
3.837500339449686
 30
0.0
 40
0.2625
100
AcDbArc
 50
270.0
 51
0.0
  0
LINE
  5
A45
330
1A
100
AcDbEntity
  8
ZUWAKU
100
AcDbLine
 10
16.32110582087761
 20
3.837500339449686
 30
0.0
 11
16.32110582087761
 21
6.637500339449687
 31
0.0
  0
LINE
  5
A46
330
1A
100
AcDbEntity
  8
ZUWAKU
100
AcDbLine
 10
13.69610582087761
 20
4.712500339449686
 30
0.0
 11
13.69610582087761
 21
3.837500339449686
 31
0.0
  0
ARC
  5
A47
330
1A
100
AcDbEntity
  8
ZUWAKU
100
AcDbCircle
 10
13.43360582087757
 20
3.837500339449686
 30
0.0
 40
0.2625
100
AcDbArc
 50
270.0
 51
0.0
  0
ARC
  5
A48
330
1A
100
AcDbEntity
  8
ZUWAKU
100
AcDbCircle
 10
13.43360582087757
 20
4.712500339449686
 30
0.0
 40
0.2625
100
AcDbArc
 50
0.0
 51
90.0
  0
ARC
  5
A49
330
1A
100
AcDbEntity
  8
ZUWAKU
100
AcDbCircle
 10
15.18360582087757
 20
3.837500339449686
 30
0.0
 40
0.2625
100
AcDbArc
 50
180.0
 51
270.0
  0
ARC
  5
A4A
330
1A
100
AcDbEntity
  8
ZUWAKU
100
AcDbCircle
 10
16.65372290262195
 20
6.637500339449687
 30
0.0
 40
0.2625
100
AcDbArc
 50
17.52556837372303
 51
90.0
  0
ARC
  5
A4B
330
1A
100
AcDbEntity
  8
ZUWAKU
100
AcDbCircle
 10
16.5836058208776
 20
6.637500339449687
 30
0.0
 40
0.2625
100
AcDbArc
 50
90.0
 51
180.0
  0
ARC
  5
A4C
330
1A
100
AcDbEntity
  8
ZUWAKU
100
AcDbCircle
 10
20.60860582087758
 20
3.837500339449686
 30
0.0
 40
0.2625
100
AcDbArc
 50
180.0
 51
270.0
  0
LINE
  5
A4D
330
1A
100
AcDbEntity
  8
ZUWAKU
100
AcDbLine
 10
18.08848873913325
 20
3.575000339449687
 30
0.0
 11
18.93793342893775
 21
3.575000339449687
 31
0.0
  0
ARC
  5
A4E
330
1A
100
AcDbEntity
  8
ZUWAKU
100
AcDbCircle
 10
18.93793342893775
 20
3.837500339449686
 30
0.0
 40
0.2625
100
AcDbArc
 50
270.0
 51
17.52556837372303
  0
LINE
  5
A4F
330
1A
100
AcDbEntity
  8
ZUWAKU
100
AcDbLine
 10
19.18824887853548
 20
3.916547323533173
 30
0.0
 11
18.02505318929866
 21
7.600000339449696
 31
0.0
  0
ARC
  5
A50
330
1A
100
AcDbEntity
  8
ZUWAKU
100
AcDbCircle
 10
18.08848873913325
 20
3.837500339449686
 30
0.0
 40
0.2625
100
AcDbArc
 50
197.525568373723
 51
270.0
  0
ARC
  5
A51
330
1A
100
AcDbEntity
  8
ZUWAKU
100
AcDbCircle
 10
28.92110582087758
 20
4.975000339449685
 30
0.0
 40
1.399999999999999
100
AcDbArc
 50
180.0
 51
270.0
  0
ARC
  5
A52
330
1A
100
AcDbEntity
  8
ZUWAKU
100
AcDbCircle
 10
25.07110582087761
 20
4.975000339449685
 30
0.0
 40
1.399999999999999
100
AcDbArc
 50
270.0
 51
0.0
  0
LINE
  5
A53
330
1A
100
AcDbEntity
  8
ZUWAKU
100
AcDbLine
 10
25.85603006136938
 20
7.367525592619099
 30
0.0
 11
24.40113107404698
 21
8.822424579941436
 31
0.0
  0
LINE
  5
A54
330
1A
100
AcDbEntity
  8
ZUWAKU
100
AcDbLine
 10
25.07110582087761
 20
5.237500339449688
 30
0.0
 11
25.07110582087761
 21
5.882601352127359
 31
0.0
  0
ARC
  5
A55
330
1A
100
AcDbEntity
  8
ZUWAKU
100
AcDbCircle
 10
24.37110582087757
 20
5.882601352127359
 30
0.0
 40
0.7
100
AcDbArc
 50
0.0
 51
45.0
  0
ARC
  5
A56
330
1A
100
AcDbEntity
  8
ZUWAKU
100
AcDbCircle
 10
24.80860582087757
 20
5.237500339449688
 30
0.0
 40
0.2625
100
AcDbArc
 50
270.0
 51
0.0
  0
LINE
  5
A57
330
1A
100
AcDbEntity
  8
ZUWAKU
100
AcDbLine
 10
23.05860582087757
 20
3.837500339449686
 30
0.0
 11
23.05860582087757
 21
4.712500339449686
 31
0.0
  0
ARC
  5
A58
330
1A
100
AcDbEntity
  8
ZUWAKU
100
AcDbCircle
 10
23.32110582087762
 20
3.837500339449686
 30
0.0
 40
0.2625
100
AcDbArc
 50
180.0
 51
270.0
  0
ARC
  5
A59
330
1A
100
AcDbEntity
  8
ZUWAKU
100
AcDbCircle
 10
21.48360582087758
 20
3.837500339449686
 30
0.0
 40
0.2625
100
AcDbArc
 50
270.0
 51
0.0
  0
ARC
  5
A5A
330
1A
100
AcDbEntity
  8
ZUWAKU
100
AcDbCircle
 10
23.32110582087762
 20
4.712500339449686
 30
0.0
 40
0.2625
100
AcDbArc
 50
90.0
 51
180.0
  0
LINE
  5
A5B
330
1A
100
AcDbEntity
  8
ZUWAKU
100
AcDbLine
 10
23.32110582087762
 20
4.975000339449685
 30
0.0
 11
24.80860582087757
 21
4.975000339449685
 31
0.0
  0
LINE
  5
A5C
330
1A
100
AcDbEntity
  8
ZUWAKU
100
AcDbLine
 10
23.32110582087762
 20
3.575000339449687
 30
0.0
 11
25.07110582087761
 21
3.575000339449687
 31
0.0
  0
LINE
  5
A5D
330
1A
100
AcDbEntity
  8
ZUWAKU
100
AcDbLine
 10
23.41118158038586
 20
7.832475086280275
 30
0.0
 11
24.86608056770819
 21
6.377576098957945
 31
0.0
  0
LINE
  5
A5E
330
1A
100
AcDbEntity
  8
ZUWAKU
100
AcDbLine
 10
26.47110582087759
 20
4.975000339449685
 30
0.0
 11
26.47110582087759
 21
5.882601352127359
 31
0.0
  0
ARC
  5
A5F
330
1A
100
AcDbEntity
  8
ZUWAKU
100
AcDbCircle
 10
24.37110582087757
 20
5.882601352127338
 30
0.0
 40
2.099999999999999
100
AcDbArc
 50
0.0
 51
45.0
  0
ARC
  5
A60
330
1A
100
AcDbEntity
  8
ZUWAKU
100
AcDbCircle
 10
29.44610582087761
 20
5.500000339449684
 30
0.0
 40
0.525
100
AcDbArc
 50
180.0
 51
270.0
  0
ARC
  5
A61
330
1A
100
AcDbEntity
  8
ZUWAKU
100
AcDbCircle
 10
30.67110582087758
 20
4.975000339449685
 30
0.0
 40
1.399999999999999
100
AcDbArc
 50
270.0
 51
0.0
  0
LINE
  5
A62
330
1A
100
AcDbEntity
  8
ZUWAKU
100
AcDbLine
 10
33.38360582087762
 20
3.575000339449687
 30
0.0
 11
34.25860582087762
 21
3.575000339449687
 31
0.0
  0
ARC
  5
A63
330
1A
100
AcDbEntity
  8
ZUWAKU
100
AcDbCircle
 10
33.38360582087762
 20
3.837500339449686
 30
0.0
 40
0.2625
100
AcDbArc
 50
180.0
 51
270.0
  0
ARC
  5
A64
330
1A
100
AcDbEntity
  8
ZUWAKU
100
AcDbCircle
 10
30.1461058208776
 20
5.500000339449684
 30
0.0
 40
0.525
100
AcDbArc
 50
270.0
 51
0.0
  0
ARC
  5
A65
330
1A
100
AcDbEntity
  8
ZUWAKU
100
AcDbCircle
 10
34.25860582087762
 20
3.837500339449686
 30
0.0
 40
0.2625
100
AcDbArc
 50
270.0
 51
0.0
  0
LINE
  5
A66
330
1A
100
AcDbEntity
  8
ZUWAKU
100
AcDbLine
 10
21.48360582087758
 20
11.62500033944968
 30
0.0
 11
20.60860582087758
 21
11.62500033944968
 31
0.0
  0
ARC
  5
A67
330
1A
100
AcDbEntity
  8
ZUWAKU
100
AcDbCircle
 10
16.05860582087757
 20
11.36250033944968
 30
0.0
 40
0.2625
100
AcDbArc
 50
0.0
 51
90.0
  0
LINE
  5
A68
330
1A
100
AcDbEntity
  8
ZUWAKU
100
AcDbLine
 10
16.05860582087757
 20
11.62500033944968
 30
0.0
 11
15.18360582087757
 21
11.62500033944968
 31
0.0
  0
ARC
  5
A69
330
1A
100
AcDbEntity
  8
ZUWAKU
100
AcDbCircle
 10
13.43360582087757
 20
11.36250033944968
 30
0.0
 40
0.2625
100
AcDbArc
 50
0.0
 51
90.0
  0
ARC
  5
A6A
330
1A
100
AcDbEntity
  8
ZUWAKU
100
AcDbCircle
 10
15.18360582087757
 20
11.36250033944968
 30
0.0
 40
0.2625
100
AcDbArc
 50
90.0
 51
180.0
  0
ARC
  5
A6B
330
1A
100
AcDbEntity
  8
ZUWAKU
100
AcDbCircle
 10
13.43360582087757
 20
10.48750033944968
 30
0.0
 40
0.2625
100
AcDbArc
 50
270.0
 51
0.0
  0
LINE
  5
A6C
330
1A
100
AcDbEntity
  8
ZUWAKU
100
AcDbLine
 10
13.69610582087761
 20
11.36250033944968
 30
0.0
 11
13.69610582087761
 21
10.48750033944968
 31
0.0
  0
ARC
  5
A6D
330
1A
100
AcDbEntity
  8
ZUWAKU
100
AcDbCircle
 10
20.60860582087758
 20
11.36250033944968
 30
0.0
 40
0.2625
100
AcDbArc
 50
90.0
 51
180.0
  0
LINE
  5
A6E
330
1A
100
AcDbEntity
  8
ZUWAKU
100
AcDbLine
 10
18.08848873913325
 20
11.62500033944968
 30
0.0
 11
18.93793342893775
 21
11.62500033944968
 31
0.0
  0
ARC
  5
A6F
330
1A
100
AcDbEntity
  8
ZUWAKU
100
AcDbCircle
 10
18.93793342893775
 20
11.36250033944968
 30
0.0
 40
0.2625
100
AcDbArc
 50
342.4744316262769
 51
90.0
  0
LINE
  5
A70
330
1A
100
AcDbEntity
  8
ZUWAKU
100
AcDbLine
 10
19.18824887853548
 20
11.2834533553662
 30
0.0
 11
18.65742906196658
 21
9.602523936231399
 31
0.0
  0
ARC
  5
A71
330
1A
100
AcDbEntity
  8
ZUWAKU
100
AcDbCircle
 10
18.08848873913325
 20
11.36250033944968
 30
0.0
 40
0.2625
100
AcDbArc
 50
90.0
 51
162.4744316262769
  0
LINE
  5
A72
330
1A
100
AcDbEntity
  8
ZUWAKU
100
AcDbLine
 10
24.19610582087762
 20
11.62500033944968
 30
0.0
 11
25.94610582087762
 21
11.62500033944968
 31
0.0
  0
LINE
  5
A73
330
1A
100
AcDbEntity
  8
ZUWAKU
100
AcDbLine
 10
25.94610582087762
 20
10.22500033944968
 30
0.0
 11
24.4586058208776
 21
10.22500033944968
 31
0.0
  0
ARC
  5
A74
330
1A
100
AcDbEntity
  8
ZUWAKU
100
AcDbCircle
 10
24.4586058208776
 20
9.962500339449686
 30
0.0
 40
0.2625
100
AcDbArc
 50
90.0
 51
180.0
  0
LINE
  5
A75
330
1A
100
AcDbEntity
  8
ZUWAKU
100
AcDbLine
 10
24.19610582087762
 20
9.962500339449686
 30
0.0
 11
24.19610582087762
 21
9.317399326772015
 31
0.0
  0
ARC
  5
A76
330
1A
100
AcDbEntity
  8
ZUWAKU
100
AcDbCircle
 10
21.48360582087758
 20
11.36250033944968
 30
0.0
 40
0.2625
100
AcDbArc
 50
0.0
 51
90.0
  0
LINE
  5
A77
330
1A
100
AcDbEntity
  8
ZUWAKU
100
AcDbLine
 10
22.79610582087758
 20
10.22500033944968
 30
0.0
 11
22.79610582087758
 21
9.317399326772015
 31
0.0
  0
ARC
  5
A78
330
1A
100
AcDbEntity
  8
ZUWAKU
100
AcDbCircle
 10
24.19610582087762
 20
10.22500033944968
 30
0.0
 40
1.399999999999999
100
AcDbArc
 50
90.0
 51
180.0
  0
ARC
  5
A79
330
1A
100
AcDbEntity
  8
ZUWAKU
100
AcDbCircle
 10
28.65860582087759
 20
11.36250033944968
 30
0.0
 40
0.2625
100
AcDbArc
 50
0.0
 51
90.0
  0
ARC
  5
A7A
330
1A
100
AcDbEntity
  8
ZUWAKU
100
AcDbCircle
 10
27.78360582087759
 20
11.36250033944968
 30
0.0
 40
0.2625
100
AcDbArc
 50
90.0
 51
180.0
  0
LINE
  5
A7B
330
1A
100
AcDbEntity
  8
ZUWAKU
100
AcDbLine
 10
28.65860582087759
 20
11.62500033944968
 30
0.0
 11
27.78360582087759
 21
11.62500033944968
 31
0.0
  0
ARC
  5
A7C
330
1A
100
AcDbEntity
  8
ZUWAKU
100
AcDbCircle
 10
25.94610582087762
 20
11.36250033944968
 30
0.0
 40
0.2625
100
AcDbArc
 50
0.0
 51
90.0
  0
ARC
  5
A7D
330
1A
100
AcDbEntity
  8
ZUWAKU
100
AcDbCircle
 10
25.94610582087762
 20
10.48750033944968
 30
0.0
 40
0.2625
100
AcDbArc
 50
270.0
 51
0.0
  0
LINE
  5
A7E
330
1A
100
AcDbEntity
  8
ZUWAKU
100
AcDbLine
 10
26.20860582087761
 20
11.36250033944968
 30
0.0
 11
26.20860582087761
 21
10.48750033944968
 31
0.0
  0
LINE
  5
A7F
330
1A
100
AcDbEntity
  8
ZUWAKU
100
AcDbLine
 10
34.25860582087762
 20
11.62500033944968
 30
0.0
 11
33.38360582087762
 21
11.62500033944968
 31
0.0
  0
ARC
  5
A80
330
1A
100
AcDbEntity
  8
ZUWAKU
100
AcDbCircle
 10
33.38360582087762
 20
11.36250033944968
 30
0.0
 40
0.2625
100
AcDbArc
 50
90.0
 51
180.0
  0
ARC
  5
A81
330
1A
100
AcDbEntity
  8
ZUWAKU
100
AcDbCircle
 10
31.80860582087757
 20
11.36250033944968
 30
0.0
 40
0.2625
100
AcDbArc
 50
0.0
 51
90.0
  0
LINE
  5
A82
330
1A
100
AcDbEntity
  8
ZUWAKU
100
AcDbLine
 10
31.80860582087757
 20
11.62500033944968
 30
0.0
 11
30.93360582087757
 21
11.62500033944968
 31
0.0
  0
ARC
  5
A83
330
1A
100
AcDbEntity
  8
ZUWAKU
100
AcDbCircle
 10
30.93360582087757
 20
11.36250033944968
 30
0.0
 40
0.2625
100
AcDbArc
 50
90.0
 51
180.0
  0
ARC
  5
A84
330
1A
100
AcDbEntity
  8
ZUWAKU
100
AcDbCircle
 10
34.25860582087762
 20
11.36250033944968
 30
0.0
 40
0.2625
100
AcDbArc
 50
0.0
 51
90.0
  0
TEXT
  5
A85
330
1A
100
AcDbEntity
  8
MOJI
100
AcDbText
 10
119.9136010839125
 20
1.602460868153395
 30
0.0
 40
2.799999999999999
  1
ＵＴ６０－９０°
 41
0.9
  7
ｽﾀｲﾙ1
100
AcDbText
  0
TEXT
  5
A86
330
1A
100
AcDbEntity
  8
MOJI
100
AcDbText
 10
119.9136010839125
 20
9.002460868153377
 30
0.0
 40
2.799999999999999
  1
エルボ（Ｓ式）
 41
0.9
  7
ｽﾀｲﾙ1
100
AcDbText
  0
LINE
  5
A87
330
1A
100
AcDbEntity
  8
ZUWAKU
100
AcDbLine
 10
104.123300388521
 20
15.00000033944968
 30
0.0
 11
104.123300388521
 21
0.4000003394497185
 31
0.0
  0
LINE
  5
A88
330
1A
100
AcDbEntity
  8
ZUWAKU
100
AcDbLine
 10
104.3233003885209
 20
15.00000033944968
 30
0.0
 11
104.323300388521
 21
0.4000003394497185
 31
0.0
  0
LINE
  5
A89
330
1A
100
AcDbEntity
  8
ZUWAKU
100
AcDbLine
 10
104.2233003885209
 20
15.00000033944968
 30
0.0
 11
104.223300388521
 21
0.4000003394497185
 31
0.0
  0
TEXT
  5
A8A
330
1A
100
AcDbEntity
  8
ZUWAKU
100
AcDbText
 10
104.8620228996258
 20
4.827678608642493
 30
0.0
 40
2.0
  1
サイズ
 41
0.9
  7
ｽﾀｲﾙ1
100
AcDbText
  0
TEXT
  5
A8B
330
1A
100
AcDbEntity
  8
ZUWAKU
100
AcDbText
 10
104.8620228996256
 20
12.02767860864247
 30
0.0
 40
2.0
  1
品名
 41
0.9
  7
ｽﾀｲﾙ1
100
AcDbText
  0
LINE
  5
A8C
330
1A
100
AcDbEntity
  8
ZUWAKU
100
AcDbLine
 10
324.4086009985891
 20
7.600000339449699
 30
0.0
 11
348.6245050177576
 21
7.600000339449701
 31
0.0
  0
LINE
  5
A8D
330
1A
100
AcDbEntity
  8
ZUWAKU
100
AcDbLine
 10
324.4086009985892
 20
7.700000339449703
 30
0.0
 11
348.6245050177576
 21
7.700000339449701
 31
0.0
  0
LINE
  5
A8E
330
1A
100
AcDbEntity
  8
ZUWAKU
100
AcDbLine
 10
324.4086009985891
 20
7.800000339449701
 30
0.0
 11
348.6245050177576
 21
7.800000339449701
 31
0.0
  0
TEXT
  5
A8F
330
1A
100
AcDbEntity
  8
ZUWAKU
100
AcDbText
 10
329.1019685871382
 20
9.002460868153377
 30
0.0
 40
2.799999999999999
  1
　　．　　．　　
 41
0.9
  7
ｽﾀｲﾙ1
100
AcDbText
  0
LINE
  5
A90
330
1A
100
AcDbEntity
  8
ZUWAKU
100
AcDbLine
 10
252.5995894925574
 20
7.600000339449703
 30
0.0
 11
276.2634776265432
 21
7.600000339449703
 31
0.0
  0
LINE
  5
A91
330
1A
100
AcDbEntity
  8
ZUWAKU
100
AcDbLine
 10
252.5995894925574
 20
7.700000339449701
 30
0.0
 11
276.2634776265432
 21
7.700000339449701
 31
0.0
  0
LINE
  5
A92
330
1A
100
AcDbEntity
  8
ZUWAKU
100
AcDbLine
 10
252.5995894925574
 20
7.800000339449701
 30
0.0
 11
276.2634776265432
 21
7.800000339449701
 31
0.0
  0
TEXT
  5
A93
330
1A
100
AcDbEntity
  8
MOJI
100
AcDbText
 10
230.835594633569
 20
5.497249838127743
 30
0.0
 40
2.799999999999999
  1
ＰＦ６５ＬＭ
 41
0.9
  7
ｽﾀｲﾙ1
100
AcDbText
  0
LINE
  5
A94
330
1A
100
AcDbEntity
  8
ZUWAKU
100
AcDbLine
 10
223.8121817289826
 20
15.00000033944968
 30
0.0
 11
223.8121817289827
 21
0.4000003394497185
 31
0.0
  0
LINE
  5
A95
330
1A
100
AcDbEntity
  8
ZUWAKU
100
AcDbLine
 10
223.9121817289826
 20
15.00000033944968
 30
0.0
 11
223.9121817289827
 21
0.4000003394497185
 31
0.0
  0
LINE
  5
A96
330
1A
100
AcDbEntity
  8
ZUWAKU
100
AcDbLine
 10
223.7121817289827
 20
15.00000033944968
 30
0.0
 11
223.7121817289827
 21
0.4000003394497185
 31
0.0
  0
TEXT
  5
A97
330
1A
100
AcDbEntity
  8
MOJI
100
AcDbText
 10
264.0204537296434
 20
9.002460868153377
 30
0.0
 40
2.799999999999999
  1
Ａ３
 41
0.9
  7
ｽﾀｲﾙ1
100
AcDbText
  0
LINE
  5
A98
330
1A
100
AcDbEntity
  8
ZUWAKU
100
AcDbLine
 10
252.4995894925574
 20
15.00000033944968
 30
0.0
 11
252.4995894925575
 21
0.4000003394497185
 31
0.0
  0
LINE
  5
A99
330
1A
100
AcDbEntity
  8
ZUWAKU
100
AcDbLine
 10
252.5995894925574
 20
15.00000033944968
 30
0.0
 11
252.5995894925575
 21
0.4000003394497185
 31
0.0
  0
LINE
  5
A9A
330
1A
100
AcDbEntity
  8
ZUWAKU
100
AcDbLine
 10
252.3995894925575
 20
15.00000033944968
 30
0.0
 11
252.3995894925575
 21
0.4000003394497185
 31
0.0
  0
TEXT
  5
A9C
330
1A
100
AcDbEntity
  8
ZUWAKU
100
AcDbText
 10
253.3383120036623
 20
4.827678608642493
 30
0.0
 40
2.0
  1
縮尺
 41
0.9
  7
ｽﾀｲﾙ1
100
AcDbText
  0
TEXT
  5
A9D
330
1A
100
AcDbEntity
  8
MOJI
100
AcDbText
 10
264.0204537296434
 20
1.602460868153395
 30
0.0
 40
2.799999999999999
  1
１/１
 41
0.9
  7
ｽﾀｲﾙ1
100
AcDbText
  0
TEXT
  5
A9E
330
1A
100
AcDbEntity
  8
ZUWAKU
100
AcDbText
 10
224.6509042400874
 20
12.02767860864247
 30
0.0
 40
2.0
  1
品番
 41
0.9
  7
ｽﾀｲﾙ1
100
AcDbText
  0
TEXT
  5
A9F
330
1A
100
AcDbEntity
  8
ZUWAKU
100
AcDbText
 10
253.3383120036623
 20
12.02767860864247
 30
0.0
 40
2.0
  1
用紙
 41
0.9
  7
ｽﾀｲﾙ1
100
AcDbText
  0
LINE
  5
AA0
330
1A
100
AcDbEntity
  8
ZUWAKU
100
AcDbLine
 10
324.3086009985892
 20
15.00000033944968
 30
0.0
 11
324.3086009985893
 21
0.4000003394497185
 31
0.0
  0
LINE
  5
AA1
330
1A
100
AcDbEntity
  8
ZUWAKU
100
AcDbLine
 10
324.4086009985892
 20
15.00000033944968
 30
0.0
 11
324.4086009985893
 21
0.4000003394497185
 31
0.0
  0
LINE
  5
AA2
330
1A
100
AcDbEntity
  8
ZUWAKU
100
AcDbLine
 10
324.2086009985893
 20
15.00000033944968
 30
0.0
 11
324.2086009985893
 21
0.4000003394497185
 31
0.0
  0
LINE
  5
AA3
330
1A
100
AcDbEntity
  8
ZUWAKU
100
AcDbLine
 10
276.3634776265431
 20
15.00000033944968
 30
0.0
 11
276.3634776265432
 21
0.4000003394497185
 31
0.0
  0
LINE
  5
AA4
330
1A
100
AcDbEntity
  8
ZUWAKU
100
AcDbLine
 10
276.4634776265431
 20
15.00000033944968
 30
0.0
 11
276.4634776265432
 21
0.4000003394497185
 31
0.0
  0
LINE
  5
AA5
330
1A
100
AcDbEntity
  8
ZUWAKU
100
AcDbLine
 10
276.2634776265432
 20
15.00000033944968
 30
0.0
 11
276.2634776265432
 21
0.4000003394497185
 31
0.0
  0
TEXT
  5
AA6
330
1A
100
AcDbEntity
  8
ZUWAKU
100
AcDbText
 10
325.147323509694
 20
12.02767860864247
 30
0.0
 40
2.0
  1
DATE
 41
0.9
  7
ｽﾀｲﾙ1
100
AcDbText
  0
LINE
  5
AA7
330
1A
100
AcDbEntity
  8
ZUWAKU
100
AcDbLine
 10
348.6245050177576
 20
15.00000033944968
 30
0.0
 11
348.6245050177576
 21
0.4000003394497185
 31
0.0
  0
LINE
  5
AA8
330
1A
100
AcDbEntity
  8
ZUWAKU
100
AcDbLine
 10
348.7245050177576
 20
15.00000033944968
 30
0.0
 11
348.7245050177576
 21
0.4000003394497185
 31
0.0
  0
LINE
  5
AA9
330
1A
100
AcDbEntity
  8
ZUWAKU
100
AcDbLine
 10
348.8245050177575
 20
15.00000033944968
 30
0.0
 11
348.8245050177577
 21
0.4000003394497185
 31
0.0
  0
LINE
  5
AAA
330
1A
100
AcDbEntity
  8
ZUWAKU
100
AcDbLine
 10
348.9245050177576
 20
15.00000033944968
 30
0.0
 11
348.9245050177577
 21
0.4000003394497185
 31
0.0
  0
TEXT
  5
AAB
330
1A
100
AcDbEntity
  8
ZUWAKU
100
AcDbText
 10
354.2640418396089
 20
8.776920007293085
 30
0.0
 40
3.0
  1
積水化学工業株式会社
 41
0.9
  7
ｽﾀｲﾙ1
100
AcDbText
  0
TEXT
  5
AAC
330
1A
100
AcDbEntity
  8
ZUWAKU
100
AcDbText
 10
354.2640418396089
 20
3.324420496376717
 30
0.0
 40
3.0
  1
建材事業部
 41
0.9
  7
ｽﾀｲﾙ1
100
AcDbText
  0
VIEWPORT
  5
22
330
17
100
AcDbEntity
 67
     1
  8
0
100
AcDbViewport
 10
313.6808219178082
 20
148.5
 30
0.0
 40
627.3616438356165
 41
297.0
 68
     2
 69
     1
1001
ACAD
1000
MVIEW
1002
{
1070
    16
1010
0.0
1020
0.0
1030
0.0
1010
0.0
1020
0.0
1030
1.0
1040
0.0
1040
297.0
1040
313.6808219178082
1040
148.5
1040
50.0
1040
0.0
1040
0.0
1070
     0
1070
   100
1070
     1
1070
     0
1070
     0
1070
     0
1070
     0
1070
     0
1040
0.0
1040
0.0
1040
0.0
1040
1.0
1040
1.0
1040
10.0
1040
10.0
1070
     0
1002
{
1002
}
1002
}
  0
VIEWPORT
  5
64
330
17
100
AcDbEntity
 67
     1
  8
VIEWPORT
100
AcDbViewport
 10
210.0
 20
148.5
 30
0.0
 40
420.0
 41
297.0
 68
     1
 69
     2
1001
ACAD
1000
MVIEW
1002
{
1070
    16
1010
0.0
1020
0.0
1030
0.0
1010
0.0
1020
0.0
1030
1.0
1040
0.0
1040
302.9399999999998
1040
210.0
1040
148.5
1040
50.0
1040
0.0
1040
0.0
1070
     0
1070
   100
1070
     1
1070
     0
1070
     0
1070
     0
1070
     0
1070
     0
1040
0.0
1040
0.0
1040
0.0
1040
5.0
1040
5.0
1040
0.0
1040
0.0
1070
     0
1002
{
1002
}
1002
}
  0
ENDSEC
  0
SECTION
  2
OBJECTS
  0
DICTIONARY
  5
C
330
0
100
AcDbDictionary
  3
ACAD_GROUP
350
D
  3
ACAD_LAYOUT
350
530
  3
ACAD_MLINESTYLE
350
E
  3
ACAD_PLOTSETTINGS
350
531
  3
ACAD_PLOTSTYLENAME
350
52E
  3
ACDBHEADERROUNDTRIPXREC
350
AE5
  0
DICTIONARY
  5
65F
330
1A
100
AcDbDictionary
280
     1
  3
ACAD_LAYOUTSELFREF
360
B07
  0
DICTIONARY
  5
65D
330
17
100
AcDbDictionary
280
     1
  3
ACAD_LAYOUTSELFREF
360
B06
  0
DICTIONARY
  5
D
102
{ACAD_REACTORS
330
C
102
}
330
C
100
AcDbDictionary
  0
DICTIONARY
  5
530
102
{ACAD_REACTORS
330
C
102
}
330
C
100
AcDbDictionary
  0
DICTIONARY
  5
E
102
{ACAD_REACTORS
330
C
102
}
330
C
100
AcDbDictionary
  3
STANDARD
350
13
  0
DICTIONARY
  5
531
102
{ACAD_REACTORS
330
C
102
}
330
C
100
AcDbDictionary
  0
ACDBDICTIONARYWDFLT
  5
52E
102
{ACAD_REACTORS
330
C
102
}
330
C
100
AcDbDictionary
281
     1
  3
Normal
350
52F
100
AcDbDictionaryWithDefault
340
52F
1001
ACAD
1000
TREAT_AS_HARD
1070
     0
1000
TREAT_AS_HARD
1070
     0
  0
DICTIONARY
  5
AE5
102
{ACAD_REACTORS
330
C
102
}
330
C
100
AcDbDictionary
  3
TSTACKALIGN
350
AE6
  3
TSTACKSIZE
350
AE7
  3
HYPERLINKBASE
350
AE8
  3
STYLESHEET
350
AE9
  3
LAYOUTDICT
350
AEA
  3
PLOTSETDICT
350
AEB
  3
PLOTSTYLNAMDICT
350
AEC
  3
LWETCUNION
350
AED
  3
INSUNITS
350
AEE
  3
CEPSNTYPE
350
AEF
  3
FINGERPRINTGUID
350
AF0
  3
VERSIONGUID
350
AF1
  3
PSVPSCALE
350
AF2
  3
DIMSTYLEDATA
350
AF3
  3
PUCSORTHOREF
350
AF4
  3
PUCSORTHOVIEW
350
AF5
  3
PUCSBASE
350
AF6
  3
PUCSORGTOP
350
AF7
  3
PUCSORGBOTTOM
350
AF8
  3
PUCSORGLEFT
350
AF9
  3
PUCSORGRIGHT
350
AFA
  3
PUCSORGFRONT
350
AFB
  3
PUCSORGBACK
350
AFC
  3
UCSORTHOREF
350
AFD
  3
UCSORTHOVIEW
350
AFE
  3
UCSBASE
350
AFF
  3
UCSORGTOP
350
B00
  3
UCSORGBOTTOM
350
B01
  3
UCSORGLEFT
350
B02
  3
UCSORGRIGHT
350
B03
  3
UCSORGFRONT
350
B04
  3
UCSORGBACK
350
B05
  0
XRECORD
  5
B07
102
{ACAD_REACTORS
330
65F
102
}
330
65F
100
AcDbXrecord
340
1A
  0
XRECORD
  5
B06
102
{ACAD_REACTORS
330
65D
102
}
330
65D
100
AcDbXrecord
340
17
  0
MLINESTYLE
  5
13
102
{ACAD_REACTORS
330
E
102
}
330
E
100
AcDbMlineStyle
  2
STANDARD
 70
     0
  3

 62
     0
 51
90.0
 52
90.0
 71
     2
 49
0.5
 62
   256
  6
BYLAYER
 49
-0.5
 62
   256
  6
BYLAYER
  0
ACDBPLACEHOLDER
  5
52F
102
{ACAD_REACTORS
330
52E
102
}
330
52E
100
AcDbPlaceHolder
280
     0
  0
XRECORD
  5
AE6
102
{ACAD_REACTORS
330
AE5
102
}
330
AE5
100
AcDbXrecord
 90
        1
  0
XRECORD
  5
AE7
102
{ACAD_REACTORS
330
AE5
102
}
330
AE5
100
AcDbXrecord
 90
       70
  0
XRECORD
  5
AE8
102
{ACAD_REACTORS
330
AE5
102
}
330
AE5
100
AcDbXrecord
  1

  0
XRECORD
  5
AE9
102
{ACAD_REACTORS
330
AE5
102
}
330
AE5
100
AcDbXrecord
  1
systemprinter.ctb
  0
XRECORD
  5
AEA
102
{ACAD_REACTORS
330
AE5
102
}
330
AE5
100
AcDbXrecord
340
530
  0
XRECORD
  5
AEB
102
{ACAD_REACTORS
330
AE5
102
}
330
AE5
100
AcDbXrecord
340
531
  0
XRECORD
  5
AEC
102
{ACAD_REACTORS
330
AE5
102
}
330
AE5
100
AcDbXrecord
340
52E
  0
XRECORD
  5
AED
102
{ACAD_REACTORS
330
AE5
102
}
330
AE5
100
AcDbXrecord
 90
    10781
  0
XRECORD
  5
AEE
102
{ACAD_REACTORS
330
AE5
102
}
330
AE5
100
AcDbXrecord
 90
        0
  0
XRECORD
  5
AEF
102
{ACAD_REACTORS
330
AE5
102
}
330
AE5
100
AcDbXrecord
 90
        0
  0
XRECORD
  5
AF0
102
{ACAD_REACTORS
330
AE5
102
}
330
AE5
100
AcDbXrecord
  1
{21ABE8D6-C397-46E3-8DAD-97F9EBDA1BCB}
  0
XRECORD
  5
AF1
102
{ACAD_REACTORS
330
AE5
102
}
330
AE5
100
AcDbXrecord
  1
{00A73416-A17B-407A-B35D-128C470D9DBC}
  0
XRECORD
  5
AF2
102
{ACAD_REACTORS
330
AE5
102
}
330
AE5
100
AcDbXrecord
 40
0.0
  0
XRECORD
  5
AF3
102
{ACAD_REACTORS
330
AE5
102
}
330
AE5
100
AcDbXrecord
1000
DSTYLE
1002
{
1070
   341
340
B2
1070
   343
340
B2
1070
   344
340
B2
1070
   371
 70
    -1
1070
   372
 70
    -1
1002
}
  0
XRECORD
  5
AF4
102
{ACAD_REACTORS
330
AE5
102
}
330
AE5
100
AcDbXrecord
340
0
  0
XRECORD
  5
AF5
102
{ACAD_REACTORS
330
AE5
102
}
330
AE5
100
AcDbXrecord
 70
     0
  0
XRECORD
  5
AF6
102
{ACAD_REACTORS
330
AE5
102
}
330
AE5
100
AcDbXrecord
340
0
  0
XRECORD
  5
AF7
102
{ACAD_REACTORS
330
AE5
102
}
330
AE5
100
AcDbXrecord
 10
0.0
 20
0.0
 30
0.0
  0
XRECORD
  5
AF8
102
{ACAD_REACTORS
330
AE5
102
}
330
AE5
100
AcDbXrecord
 10
0.0
 20
0.0
 30
0.0
  0
XRECORD
  5
AF9
102
{ACAD_REACTORS
330
AE5
102
}
330
AE5
100
AcDbXrecord
 10
0.0
 20
0.0
 30
0.0
  0
XRECORD
  5
AFA
102
{ACAD_REACTORS
330
AE5
102
}
330
AE5
100
AcDbXrecord
 10
0.0
 20
0.0
 30
0.0
  0
XRECORD
  5
AFB
102
{ACAD_REACTORS
330
AE5
102
}
330
AE5
100
AcDbXrecord
 10
0.0
 20
0.0
 30
0.0
  0
XRECORD
  5
AFC
102
{ACAD_REACTORS
330
AE5
102
}
330
AE5
100
AcDbXrecord
 10
0.0
 20
0.0
 30
0.0
  0
XRECORD
  5
AFD
102
{ACAD_REACTORS
330
AE5
102
}
330
AE5
100
AcDbXrecord
340
0
  0
XRECORD
  5
AFE
102
{ACAD_REACTORS
330
AE5
102
}
330
AE5
100
AcDbXrecord
 70
     0
  0
XRECORD
  5
AFF
102
{ACAD_REACTORS
330
AE5
102
}
330
AE5
100
AcDbXrecord
340
0
  0
XRECORD
  5
B00
102
{ACAD_REACTORS
330
AE5
102
}
330
AE5
100
AcDbXrecord
 10
0.0
 20
0.0
 30
0.0
  0
XRECORD
  5
B01
102
{ACAD_REACTORS
330
AE5
102
}
330
AE5
100
AcDbXrecord
 10
0.0
 20
0.0
 30
0.0
  0
XRECORD
  5
B02
102
{ACAD_REACTORS
330
AE5
102
}
330
AE5
100
AcDbXrecord
 10
0.0
 20
0.0
 30
0.0
  0
XRECORD
  5
B03
102
{ACAD_REACTORS
330
AE5
102
}
330
AE5
100
AcDbXrecord
 10
0.0
 20
0.0
 30
0.0
  0
XRECORD
  5
B04
102
{ACAD_REACTORS
330
AE5
102
}
330
AE5
100
AcDbXrecord
 10
0.0
 20
0.0
 30
0.0
  0
XRECORD
  5
B05
102
{ACAD_REACTORS
330
AE5
102
}
330
AE5
100
AcDbXrecord
 10
0.0
 20
0.0
 30
0.0
  0
ENDSEC
  0
EOF
