  0
SECTION
  2
HEADER
  9
$ACADVER
  1
AC1012
  9
$DWGCODEPAGE
  3
dos932
  9
$INSBASE
 10
0.0
 20
0.0
 30
0.0
  9
$EXTMIN
 10
6.972657236005943
 20
6.992661222108495
 30
-0.000000000000013
  9
$EXTMAX
 10
405.8175668793469
 20
282.8016821935326
 30
0.0000000000000023
  9
$LIMMIN
 10
0.0
 20
0.0
  9
$LIMMAX
 10
420.0
 20
297.0
  9
$ORTHOMODE
 70
     1
  9
$REGENMODE
 70
     1
  9
$FILLMODE
 70
     1
  9
$QTEXTMODE
 70
     0
  9
$MIRRTEXT
 70
     1
  9
$DRAGMODE
 70
     2
  9
$LTSCALE
 40
1.0
  9
$OSMODE
 70
    63
  9
$ATTMODE
 70
     1
  9
$TEXTSIZE
 40
2.5
  9
$TRACEWID
 40
1.0
  9
$TEXTSTYLE
  7
STANDARD
  9
$CLAYER
  8
0
  9
$CELTYPE
  6
BYLAYER
  9
$CECOLOR
 62
   256
  9
$CELTSCALE
 40
1.0
  9
$DELOBJ
 70
     1
  9
$DISPSILH
 70
     0
  9
$DIMSCALE
 40
1.0
  9
$DIMASZ
 40
3.0
  9
$DIMEXO
 40
3.0
  9
$DIMDLI
 40
7.0
  9
$DIMRND
 40
0.0
  9
$DIMDLE
 40
0.0
  9
$DIMEXE
 40
1.5
  9
$DIMTP
 40
0.0
  9
$DIMTM
 40
0.0
  9
$DIMTXT
 40
3.0
  9
$DIMCEN
 40
150.0
  9
$DIMTSZ
 40
0.0
  9
$DIMTOL
 70
     0
  9
$DIMLIM
 70
     0
  9
$DIMTIH
 70
     0
  9
$DIMTOH
 70
     0
  9
$DIMSE1
 70
     0
  9
$DIMSE2
 70
     0
  9
$DIMTAD
 70
     3
  9
$DIMZIN
 70
     0
  9
$DIMBLK
  1

  9
$DIMASO
 70
     1
  9
$DIMSHO
 70
     1
  9
$DIMPOST
  1

  9
$DIMAPOST
  1

  9
$DIMALT
 70
     0
  9
$DIMALTD
 70
     2
  9
$DIMALTF
 40
25.4
  9
$DIMLFAC
 40
1.0
  9
$DIMTOFL
 70
     1
  9
$DIMTVP
 40
0.0
  9
$DIMTIX
 70
     0
  9
$DIMSOXD
 70
     0
  9
$DIMSAH
 70
     1
  9
$DIMBLK1
  1
OPEN
  9
$DIMBLK2
  1
OPEN
  9
$DIMSTYLE
  2
STANDARD
  9
$DIMCLRD
 70
   256
  9
$DIMCLRE
 70
   256
  9
$DIMCLRT
 70
   256
  9
$DIMTFAC
 40
1.0
  9
$DIMGAP
 40
1.0
  9
$DIMJUST
 70
     0
  9
$DIMSD1
 70
     0
  9
$DIMSD2
 70
     0
  9
$DIMTOLJ
 70
     1
  9
$DIMTZIN
 70
     0
  9
$DIMALTZ
 70
     0
  9
$DIMALTTZ
 70
     0
  9
$DIMFIT
 70
     3
  9
$DIMUPT
 70
     0
  9
$DIMUNIT
 70
     2
  9
$DIMDEC
 70
     0
  9
$DIMTDEC
 70
     0
  9
$DIMALTU
 70
     2
  9
$DIMALTTD
 70
     2
  9
$DIMTXSTY
  7
STANDARD
  9
$DIMAUNIT
 70
     0
  9
$LUNITS
 70
     2
  9
$LUPREC
 70
     4
  9
$SKETCHINC
 40
1.0
  9
$FILLETRAD
 40
1.0
  9
$AUNITS
 70
     0
  9
$AUPREC
 70
     0
  9
$MENU
  1
.
  9
$ELEVATION
 40
0.0
  9
$PELEVATION
 40
0.0
  9
$THICKNESS
 40
0.0
  9
$LIMCHECK
 70
     0
  9
$BLIPMODE
 70
     0
  9
$CHAMFERA
 40
10.0
  9
$CHAMFERB
 40
10.0
  9
$CHAMFERC
 40
20.0
  9
$CHAMFERD
 40
0.0
  9
$SKPOLY
 70
     0
  9
$TDCREATE
 40
2451204.541313194
  9
$TDUPDATE
 40
2455406.618201956
  9
$TDINDWG
 40
0.0615634954
  9
$TDUSRTIMER
 40
0.0615634954
  9
$USRTIMER
 70
     1
  9
$ANGBASE
 50
0.0
  9
$ANGDIR
 70
     0
  9
$PDMODE
 70
     0
  9
$PDSIZE
 40
0.0
  9
$PLINEWID
 40
0.0
  9
$COORDS
 70
     0
  9
$SPLFRAME
 70
     0
  9
$SPLINETYPE
 70
     6
  9
$SPLINESEGS
 70
     8
  9
$ATTDIA
 70
     0
  9
$ATTREQ
 70
     1
  9
$HANDLING
 70
 10241
  9
$HANDSEED
  5
260C
  9
$SURFTAB1
 70
     6
  9
$SURFTAB2
 70
     6
  9
$SURFTYPE
 70
     6
  9
$SURFU
 70
     6
  9
$SURFV
 70
     6
  9
$UCSNAME
  2

  9
$UCSORG
 10
0.0
 20
0.0
 30
0.0
  9
$UCSXDIR
 10
1.0
 20
0.0
 30
0.0
  9
$UCSYDIR
 10
0.0
 20
1.0
 30
0.0
  9
$PUCSNAME
  2

  9
$PUCSORG
 10
0.0
 20
0.0
 30
0.0
  9
$PUCSXDIR
 10
1.0
 20
0.0
 30
0.0
  9
$PUCSYDIR
 10
0.0
 20
1.0
 30
0.0
  9
$USERI1
 70
     0
  9
$USERI2
 70
     0
  9
$USERI3
 70
     0
  9
$USERI4
 70
     0
  9
$USERI5
 70
     0
  9
$USERR1
 40
0.0
  9
$USERR2
 40
0.0
  9
$USERR3
 40
0.0
  9
$USERR4
 40
0.0
  9
$USERR5
 40
0.0
  9
$WORLDVIEW
 70
     1
  9
$SHADEDGE
 70
     3
  9
$SHADEDIF
 70
    70
  9
$TILEMODE
 70
     1
  9
$MAXACTVP
 70
    16
  9
$PINSBASE
 10
0.0
 20
0.0
 30
0.0
  9
$PLIMCHECK
 70
     0
  9
$PEXTMIN
 10
0.0
 20
0.0
 30
0.0
  9
$PEXTMAX
 10
420.0
 20
297.0
 30
0.0
  9
$PLIMMIN
 10
0.0
 20
0.0
  9
$PLIMMAX
 10
420.0
 20
297.0
  9
$UNITMODE
 70
     0
  9
$VISRETAIN
 70
     0
  9
$PLINEGEN
 70
     0
  9
$PSLTSCALE
 70
     1
  9
$TREEDEPTH
 70
  3020
  9
$PICKSTYLE
 70
     1
  9
$CMLSTYLE
  2
STANDARD
  9
$CMLJUST
 70
     0
  9
$CMLSCALE
 40
1.0
  9
$SAVEIMAGES
 70
     1
  0
ENDSEC
  0
SECTION
  2
CLASSES
  0
CLASS
  1
ACDBDICTIONARYWDFLT
  2
AcDbDictionaryWithDefault
  3
AutoCAD 2000
 90
    32768
280
     0
281
     0
  0
CLASS
  1
ACDBPLACEHOLDER
  2
AcDbPlaceHolder
  3
AutoCAD 2000
 90
    32768
280
     0
281
     0
  0
CLASS
  1
LAYOUT
  2
AcDbLayout
  3
AutoCAD 2000
 90
    32768
280
     0
281
     0
  0
CLASS
  1
LONG_TRANSACTION
  2
AcDbLongTransaction
  3
AutoCAD 2000
 90
    32768
280
     0
281
     0
  0
CLASS
  1
LWPOLYLINE
  2
AcDbPolyline
  3
AutoCAD 2000
 90
    32768
280
     0
281
     1
  0
CLASS
  1
HATCH
  2
AcDbHatch
  3
AutoCAD 2000
 90
    32768
280
     0
281
     1
  0
CLASS
  1
XRECORD
  2
AcDbXrecord
  3
AutoCAD 2000
 90
    32768
280
     0
281
     0
  0
CLASS
  1
LONG_TRANSACTION
  2
AcDbLongTransaction
  3
AutoCAD 2000
 90
    32768
280
     0
281
     0
  0
CLASS
  1
LWPOLYLINE
  2
AcDbPolyline
  3
AutoCAD 2000
 90
    32768
280
     0
281
     1
  0
CLASS
  1
HATCH
  2
AcDbHatch
  3
AutoCAD 2000
 90
    32768
280
     0
281
     1
  0
CLASS
  1
XRECORD
  2
AcDbXrecord
  3
AutoCAD 2000
 90
    32768
280
     0
281
     0
  0
CLASS
  1
LONG_TRANSACTION
  2
AcDbLongTransaction
  3
AutoCAD 2000
 90
    32768
280
     0
281
     0
  0
CLASS
  1
LWPOLYLINE
  2
AcDbPolyline
  3
AutoCAD 2000
 90
    32768
280
     0
281
     1
  0
CLASS
  1
HATCH
  2
AcDbHatch
  3
AutoCAD 2000
 90
    32768
280
     0
281
     1
  0
CLASS
  1
XRECORD
  2
AcDbXrecord
  3
AutoCAD 2000
 90
    32768
280
     0
281
     0
  0
CLASS
  1
LONG_TRANSACTION
  2
AcDbLongTransaction
  3
AutoCAD 2000
 90
    32768
280
     0
281
     0
  0
CLASS
  1
LWPOLYLINE
  2
AcDbPolyline
  3
AutoCAD 2000
 90
    32768
280
     0
281
     1
  0
CLASS
  1
HATCH
  2
AcDbHatch
  3
AutoCAD 2000
 90
    32768
280
     0
281
     1
  0
CLASS
  1
XRECORD
  2
AcDbXrecord
  3
AutoCAD 2000
 90
    32768
280
     0
281
     0
  0
CLASS
  1
LONG_TRANSACTION
  2
AcDbLongTransaction
  3
AutoCAD 2000
 90
    32768
280
     0
281
     0
  0
CLASS
  1
LWPOLYLINE
  2
AcDbPolyline
  3
AutoCAD 2000
 90
    32768
280
     0
281
     1
  0
CLASS
  1
HATCH
  2
AcDbHatch
  3
AutoCAD 2000
 90
    32768
280
     0
281
     1
  0
CLASS
  1
XRECORD
  2
AcDbXrecord
  3
AutoCAD 2000
 90
    32768
280
     0
281
     0
  0
CLASS
  1
LONG_TRANSACTION
  2
AcDbLongTransaction
  3
AutoCAD 2000
 90
    32768
280
     0
281
     0
  0
CLASS
  1
LWPOLYLINE
  2
AcDbPolyline
  3
AutoCAD 2000
 90
    32768
280
     0
281
     1
  0
CLASS
  1
HATCH
  2
AcDbHatch
  3
AutoCAD 2000
 90
    32768
280
     0
281
     1
  0
CLASS
  1
XRECORD
  2
AcDbXrecord
  3
AutoCAD 2000
 90
    32768
280
     0
281
     0
  0
CLASS
  1
LONG_TRANSACTION
  2
AcDbLongTransaction
  3
AutoCAD 2000
 90
    32768
280
     0
281
     0
  0
CLASS
  1
LWPOLYLINE
  2
AcDbPolyline
  3
AutoCAD 2000
 90
    32768
280
     0
281
     1
  0
CLASS
  1
HATCH
  2
AcDbHatch
  3
AutoCAD 2000
 90
    32768
280
     0
281
     1
  0
CLASS
  1
XRECORD
  2
AcDbXrecord
  3
AutoCAD 2000
 90
    32768
280
     0
281
     0
  0
CLASS
  1
DICTIONARYVAR
  2
AcDbDictionaryVar
  3
AutoCAD 2000
 90
    32768
280
     0
281
     0
  0
CLASS
  1
LONG_TRANSACTION
  2
AcDbLongTransaction
  3
AutoCAD 2000
 90
    32768
280
     0
281
     0
  0
CLASS
  1
LWPOLYLINE
  2
AcDbPolyline
  3
AutoCAD 2000
 90
    32768
280
     0
281
     1
  0
CLASS
  1
HATCH
  2
AcDbHatch
  3
AutoCAD 2000
 90
    32768
280
     0
281
     1
  0
CLASS
  1
XRECORD
  2
AcDbXrecord
  3
AutoCAD 2000
 90
    32768
280
     0
281
     0
  0
CLASS
  1
LONG_TRANSACTION
  2
AcDbLongTransaction
  3
AutoCAD 2000
 90
    32768
280
     0
281
     0
  0
CLASS
  1
LWPOLYLINE
  2
AcDbPolyline
  3
AutoCAD 2000
 90
    32768
280
     0
281
     1
  0
CLASS
  1
HATCH
  2
AcDbHatch
  3
AutoCAD 2000
 90
    32768
280
     0
281
     1
  0
CLASS
  1
XRECORD
  2
AcDbXrecord
  3
AutoCAD 2000
 90
    32768
280
     0
281
     0
  0
ENDSEC
  0
SECTION
  2
TABLES
  0
TABLE
  2
VPORT
  5
8
330
0
100
AcDbSymbolTable
 70
     4
  0
VPORT
  5
25E6
330
8
100
AcDbSymbolTableRecord
100
AcDbViewportTableRecord
  2
*ACTIVE
 70
     0
 10
0.0
 20
0.0
 11
1.0
 21
1.0
 12
210.0
 22
148.4999999999999
 13
0.0
 23
0.0
 14
5.0
 24
5.0
 15
0.0
 25
0.0
 16
0.0
 26
0.0
 36
1.0
 17
0.0
 27
0.0
 37
0.0
 40
299.5863570391871
 41
1.65406976744186
 42
50.0
 43
0.0
 44
0.0
 50
0.0
 51
0.0
 71
     0
 72
   100
 73
     1
 74
     0
 75
     0
 76
     0
 77
     0
 78
     0
  0
ENDTAB
  0
TABLE
  2
LTYPE
  5
5
330
0
100
AcDbSymbolTable
 70
     2
  0
LTYPE
  5
14
330
5
100
AcDbSymbolTableRecord
100
AcDbLinetypeTableRecord
  2
BYBLOCK
 70
     0
  3

 72
    65
 73
     0
 40
0.0
  0
LTYPE
  5
15
330
5
100
AcDbSymbolTableRecord
100
AcDbLinetypeTableRecord
  2
BYLAYER
 70
     0
  3

 72
    65
 73
     0
 40
0.0
  0
LTYPE
  5
16
330
5
100
AcDbSymbolTableRecord
100
AcDbLinetypeTableRecord
  2
CONTINUOUS
 70
     0
  3
Solid line
 72
    65
 73
     0
 40
0.0
  0
LTYPE
  5
120
330
5
100
AcDbSymbolTableRecord
100
AcDbLinetypeTableRecord
  2
CENTER
 70
     0
  3
____ _ ____ _ ____ _ ____ _ ____ _ ____ _ ____ 
 72
    65
 73
     4
 40
2.0
 49
1.25
 74
     0
 49
-0.25
 74
     0
 49
0.25
 74
     0
 49
-0.25
 74
     0
  0
ENDTAB
  0
TABLE
  2
LAYER
  5
2
330
0
100
AcDbSymbolTable
 70
     8
  0
LAYER
  5
F
330
2
100
AcDbSymbolTableRecord
100
AcDbLayerTableRecord
  2
0
 70
     0
 62
     7
  6
CONTINUOUS
  0
LAYER
  5
62
330
2
100
AcDbSymbolTableRecord
100
AcDbLayerTableRecord
  2
VIEWPORT
 70
     0
 62
     7
  6
CONTINUOUS
  0
LAYER
  5
6B
330
2
100
AcDbSymbolTableRecord
100
AcDbLayerTableRecord
  2
ZUWAKU
 70
     0
 62
     7
  6
CONTINUOUS
  0
LAYER
  5
13D
330
2
100
AcDbSymbolTableRecord
100
AcDbLayerTableRecord
  2
SEIHIN
 70
     0
 62
     3
  6
CONTINUOUS
  0
LAYER
  5
13E
330
2
100
AcDbSymbolTableRecord
100
AcDbLayerTableRecord
  2
SUNPOU
 70
     0
 62
     4
  6
CONTINUOUS
  0
LAYER
  5
13F
330
2
100
AcDbSymbolTableRecord
100
AcDbLayerTableRecord
  2
CENTER_L
 70
     0
 62
     1
  6
CENTER
  0
LAYER
  5
140
330
2
100
AcDbSymbolTableRecord
100
AcDbLayerTableRecord
  2
DEFPOINTS
 70
     0
 62
     7
  6
CONTINUOUS
  0
LAYER
  5
4BA
330
2
100
AcDbSymbolTableRecord
100
AcDbLayerTableRecord
  2
MOJI
 70
     0
 62
     2
  6
CONTINUOUS
  0
ENDTAB
  0
TABLE
  2
STYLE
  5
3
330
0
100
AcDbSymbolTable
 70
     2
  0
STYLE
  5
10
330
3
100
AcDbSymbolTableRecord
100
AcDbTextStyleTableRecord
  2
STANDARD
 70
     0
 40
0.0
 41
1.0
 50
0.0
 71
     0
 42
2.5
  3
TXT
  4
bigfont.shx
  0
STYLE
  5
4BB
330
3
100
AcDbSymbolTableRecord
100
AcDbTextStyleTableRecord
  2
ｽﾀｲﾙ1
 70
     0
 40
0.0
 41
1.0
 50
0.0
 71
     0
 42
2.5
  3
MS PGothic.ttf
  4

1001
ACAD
1000
MS PGothic
1071
    32818
  0
ENDTAB
  0
TABLE
  2
VIEW
  5
6
330
0
100
AcDbSymbolTable
 70
     0
  0
ENDTAB
  0
TABLE
  2
UCS
  5
7
330
0
100
AcDbSymbolTable
 70
     0
  0
ENDTAB
  0
TABLE
  2
APPID
  5
9
330
0
100
AcDbSymbolTable
 70
     1
  0
APPID
  5
11
330
9
100
AcDbSymbolTableRecord
100
AcDbRegAppTableRecord
  2
ACAD
 70
     0
  0
ENDTAB
  0
TABLE
  2
DIMSTYLE
  5
A
330
0
100
AcDbSymbolTable
 70
     1
  0
DIMSTYLE
105
1D
102
{ACAD_REACTORS
330
2219
330
221A
330
221B
330
221C
330
2226
330
2227
330
222F
330
2230
330
223E
330
2261
102
}
330
A
100
AcDbSymbolTableRecord
100
AcDbDimStyleTableRecord
  2
STANDARD
 70
     0
  3

  4

  5

  6

  7

 40
1.0
 41
0.18
 42
0.0625
 43
0.38
 44
0.18
 45
0.0
 46
0.0
 47
0.0
 48
0.0
140
0.18
141
0.09
142
0.0
143
25.4
144
1.0
145
0.0
146
1.0
147
0.09
 71
     0
 72
     0
 73
     1
 74
     1
 75
     0
 76
     0
 77
     0
 78
     0
170
     0
171
     2
172
     0
173
     0
174
     0
175
     0
176
     0
177
     0
178
     0
270
     2
271
     4
272
     4
273
     2
274
     2
340
10
275
     0
280
     0
281
     0
282
     0
283
     1
284
     0
285
     0
286
     0
287
     3
288
     0
  0
ENDTAB
  0
TABLE
  2
BLOCK_RECORD
  5
1
330
0
100
AcDbSymbolTable
 70
    12
  0
BLOCK_RECORD
  5
1A
102
{ACAD_XDICTIONARY
360
444
102
}
330
1
100
AcDbSymbolTableRecord
100
AcDbBlockTableRecord
  2
*MODEL_SPACE
  0
BLOCK_RECORD
  5
17
102
{ACAD_XDICTIONARY
360
442
102
}
330
1
100
AcDbSymbolTableRecord
100
AcDbBlockTableRecord
  2
*PAPER_SPACE
  0
BLOCK_RECORD
  5
B2
330
1
100
AcDbSymbolTableRecord
100
AcDbBlockTableRecord
  2
_OPEN
  0
BLOCK_RECORD
  5
9E0
330
1
100
AcDbSymbolTableRecord
100
AcDbBlockTableRecord
  2
*X1
  0
BLOCK_RECORD
  5
2271
330
1
100
AcDbSymbolTableRecord
100
AcDbBlockTableRecord
  2
*D2
  0
BLOCK_RECORD
  5
227E
330
1
100
AcDbSymbolTableRecord
100
AcDbBlockTableRecord
  2
*D3
  0
BLOCK_RECORD
  5
228A
330
1
100
AcDbSymbolTableRecord
100
AcDbBlockTableRecord
  2
*D4
  0
BLOCK_RECORD
  5
2296
330
1
100
AcDbSymbolTableRecord
100
AcDbBlockTableRecord
  2
*D5
  0
BLOCK_RECORD
  5
22A2
330
1
100
AcDbSymbolTableRecord
100
AcDbBlockTableRecord
  2
*D6
  0
BLOCK_RECORD
  5
22AE
330
1
100
AcDbSymbolTableRecord
100
AcDbBlockTableRecord
  2
*D7
  0
BLOCK_RECORD
  5
22BA
330
1
100
AcDbSymbolTableRecord
100
AcDbBlockTableRecord
  2
*D8
  0
BLOCK_RECORD
  5
22C6
330
1
100
AcDbSymbolTableRecord
100
AcDbBlockTableRecord
  2
*D9
  0
BLOCK_RECORD
  5
22D2
330
1
100
AcDbSymbolTableRecord
100
AcDbBlockTableRecord
  2
*D10
  0
BLOCK_RECORD
  5
22DE
330
1
100
AcDbSymbolTableRecord
100
AcDbBlockTableRecord
  2
*D11
  0
ENDTAB
  0
ENDSEC
  0
SECTION
  2
BLOCKS
  0
BLOCK
  5
1B
330
1A
100
AcDbEntity
  8
0
100
AcDbBlockBegin
  2
*MODEL_SPACE
 70
     0
 10
0.0
 20
0.0
 30
0.0
  3
*MODEL_SPACE
  1

  0
ENDBLK
  5
1C
330
1A
100
AcDbEntity
  8
0
100
AcDbBlockEnd
  0
BLOCK
  5
18
330
17
100
AcDbEntity
 67
     1
  8
0
100
AcDbBlockBegin
  2
*PAPER_SPACE
 70
     0
 10
0.0
 20
0.0
 30
0.0
  3
*PAPER_SPACE
  1

  0
ENDBLK
  5
19
330
17
100
AcDbEntity
 67
     1
  8
0
100
AcDbBlockEnd
  0
BLOCK
  5
B3
330
B2
100
AcDbEntity
  8
0
100
AcDbBlockBegin
  2
_OPEN
 70
     0
 10
0.0
 20
0.0
 30
0.0
  3
_OPEN
  1

  0
LINE
  5
B4
330
B2
100
AcDbEntity
  8
0
  6
BYBLOCK
 62
     0
100
AcDbLine
 10
-1.0
 20
0.1666666666666666
 30
0.0
 11
0.0
 21
0.0
 31
0.0
  0
LINE
  5
B5
330
B2
100
AcDbEntity
  8
0
  6
BYBLOCK
 62
     0
100
AcDbLine
 10
0.0
 20
0.0
 30
0.0
 11
-1.0
 21
-0.1666666666666666
 31
0.0
  0
LINE
  5
B6
330
B2
100
AcDbEntity
  8
0
  6
BYBLOCK
 62
     0
100
AcDbLine
 10
0.0
 20
0.0
 30
0.0
 11
-1.0
 21
0.0
 31
0.0
  0
ENDBLK
  5
B7
330
B2
100
AcDbEntity
  8
0
100
AcDbBlockEnd
  0
BLOCK
  5
B74
330
9E0
100
AcDbEntity
  8
0
100
AcDbBlockBegin
  2
*X1
 70
     1
 10
0.0
 20
0.0
 30
0.0
  3
*X1
  1

  0
LINE
  5
9E1
330
9E0
100
AcDbEntity
  8
0
 62
     0
100
AcDbLine
 10
34.5211058208776
 20
11.30208487459222
 30
0.0
 11
34.19819035602015
 21
11.62500033944971
 31
0.0
  0
LINE
  5
9E2
330
9E0
100
AcDbEntity
  8
0
 62
     0
100
AcDbLine
 10
34.5211058208776
 20
10.85307206853878
 30
0.0
 11
33.74917754996667
 21
11.62500033944971
 31
0.0
  0
LINE
  5
9E3
330
9E0
100
AcDbEntity
  8
0
 62
     0
100
AcDbLine
 10
34.52110582087758
 20
10.4040592624853
 30
0.0
 11
33.3105388478701
 21
11.61462623549277
 31
0.0
  0
LINE
  5
9E4
330
9E0
100
AcDbEntity
  8
0
 62
     0
100
AcDbLine
 10
34.5211058208776
 20
9.955046456431887
 30
0.0
 11
33.12110582087757
 21
11.35504645643189
 31
0.0
  0
LINE
  5
9E5
330
9E0
100
AcDbEntity
  8
0
 62
     0
100
AcDbLine
 10
34.5211058208776
 20
9.506033650378412
 30
0.0
 11
33.12110582087757
 21
10.90603365037844
 31
0.0
  0
LINE
  5
9E6
330
9E0
100
AcDbEntity
  8
0
 62
     0
100
AcDbLine
 10
34.52110582087758
 20
9.057020844324938
 30
0.0
 11
33.12110582087754
 21
10.45702084432497
 31
0.0
  0
LINE
  5
9E7
330
9E0
100
AcDbEntity
  8
0
 62
     0
100
AcDbLine
 10
32.07110582087756
 20
11.05800803827153
 30
0.0
 11
31.50411351969941
 21
11.62500033944971
 31
0.0
  0
LINE
  5
9E8
330
9E0
100
AcDbEntity
  8
0
 62
     0
100
AcDbLine
 10
34.5211058208776
 20
8.60800803827152
 30
0.0
 11
33.12110582087757
 21
10.00800803827155
 31
0.0
  0
LINE
  5
9E9
330
9E0
100
AcDbEntity
  8
0
 62
     0
100
AcDbLine
 10
32.07110582087756
 20
10.60899523221809
 30
0.0
 11
31.05510071364594
 21
11.62500033944968
 31
0.0
  0
LINE
  5
9EA
330
9E0
100
AcDbEntity
  8
0
 62
     0
100
AcDbLine
 10
34.52110582087758
 20
8.158995232218046
 30
0.0
 11
33.12110582087757
 21
9.55899523221808
 31
0.0
  0
LINE
  5
9EB
330
9E0
100
AcDbEntity
  8
0
 62
     0
100
AcDbLine
 10
32.07110582087756
 20
10.15998242616461
 30
0.0
 11
30.71835033830902
 21
11.51273790873315
 31
0.0
  0
LINE
  5
9EC
330
9E0
100
AcDbEntity
  8
0
 62
     0
100
AcDbLine
 10
34.52110582087758
 20
7.7099824261646
 30
0.0
 11
33.12110582087754
 21
9.109982426164606
 31
0.0
  0
LINE
  5
9ED
330
9E0
100
AcDbEntity
  8
0
 62
     0
100
AcDbLine
 10
32.07110582087762
 20
9.710969620111114
 30
0.0
 11
30.67110582087753
 21
11.11096962011117
 31
0.0
  0
LINE
  5
9EE
330
9E0
100
AcDbEntity
  8
0
 62
     0
100
AcDbLine
 10
34.5211058208776
 20
7.260969620111126
 30
0.0
 11
33.12110582087757
 21
8.66096962011116
 31
0.0
  0
LINE
  5
9EF
330
9E0
100
AcDbEntity
  8
0
 62
     0
100
AcDbLine
 10
32.07110582087759
 20
9.261956814057668
 30
0.0
 11
30.67110582087753
 21
10.66195681405776
 31
0.0
  0
LINE
  5
9F0
330
9E0
100
AcDbEntity
  8
0
 62
     0
100
AcDbLine
 10
34.52110582087758
 20
6.81195681405768
 30
0.0
 11
33.12110582087754
 21
8.211956814057714
 31
0.0
  0
LINE
  5
9F1
330
9E0
100
AcDbEntity
  8
0
 62
     0
100
AcDbLine
 10
32.07110582087759
 20
8.812944008004222
 30
0.0
 11
30.67110582087753
 21
10.21294400800428
 31
0.0
  0
LINE
  5
9F2
330
9E0
100
AcDbEntity
  8
0
 62
     0
100
AcDbLine
 10
34.52110582087758
 20
6.362944008004234
 30
0.0
 11
33.12110582087754
 21
7.762944008004268
 31
0.0
  0
LINE
  5
9F3
330
9E0
100
AcDbEntity
  8
0
 62
     0
100
AcDbLine
 10
32.07110582087756
 20
8.363931201950748
 30
0.0
 11
30.6711058208775
 21
9.763931201950811
 31
0.0
  0
LINE
  5
9F4
330
9E0
100
AcDbEntity
  8
0
 62
     0
100
AcDbLine
 10
34.52110582087755
 20
5.913931201950759
 30
0.0
 11
33.12110582087754
 21
7.313931201950794
 31
0.0
  0
LINE
  5
9F5
330
9E0
100
AcDbEntity
  8
0
 62
     0
100
AcDbLine
 10
32.07110582087759
 20
7.914918395897331
 30
0.0
 11
30.67110582087753
 21
9.314918395897393
 31
0.0
  0
LINE
  5
9F6
330
9E0
100
AcDbEntity
  8
0
 62
     0
100
AcDbLine
 10
28.92110582087756
 20
11.06491839589736
 30
0.0
 11
28.36102387732523
 21
11.62500033944968
 31
0.0
  0
LINE
  5
9F7
330
9E0
100
AcDbEntity
  8
0
 62
     0
100
AcDbLine
 10
34.52110582087758
 20
5.464918395897342
 30
0.0
 11
33.12110582087754
 21
6.864918395897348
 31
0.0
  0
LINE
  5
9F8
330
9E0
100
AcDbEntity
  8
0
 62
     0
100
AcDbLine
 10
32.07110582087759
 20
7.465905589843856
 30
0.0
 11
30.6711058208775
 21
8.865905589843919
 31
0.0
  0
LINE
  5
9F9
330
9E0
100
AcDbEntity
  8
0
 62
     0
100
AcDbLine
 10
28.92110582087752
 20
10.61590558984389
 30
0.0
 11
27.91201107127176
 21
11.62500033944968
 31
0.0
  0
LINE
  5
9FA
330
9E0
100
AcDbEntity
  8
0
 62
     0
100
AcDbLine
 10
34.52110582087758
 20
5.015905589843868
 30
0.0
 11
33.12110582087754
 21
6.415905589843902
 31
0.0
  0
LINE
  5
9FB
330
9E0
100
AcDbEntity
  8
0
 62
     0
100
AcDbLine
 10
32.07110582087756
 20
7.01689278379041
 30
0.0
 11
30.67110582087753
 21
8.416892783790416
 31
0.0
  0
LINE
  5
9FC
330
9E0
100
AcDbEntity
  8
0
 62
     0
100
AcDbLine
 10
28.92110582087752
 20
10.16689278379044
 30
0.0
 11
27.57122445921552
 21
11.51677414545244
 31
0.0
  0
LINE
  5
9FD
330
9E0
100
AcDbEntity
  8
0
 62
     0
100
AcDbLine
 10
34.52110582087755
 20
4.566892783790422
 30
0.0
 11
33.12110582087751
 21
5.966892783790427
 31
0.0
  0
LINE
  5
9FE
330
9E0
100
AcDbEntity
  8
0
 62
     0
100
AcDbLine
 10
32.07110582087759
 20
6.567879977736936
 30
0.0
 11
30.67110582087755
 21
7.96787997773697
 31
0.0
  0
LINE
  5
9FF
330
9E0
100
AcDbEntity
  8
0
 62
     0
100
AcDbLine
 10
28.92110582087756
 20
9.71787997773697
 30
0.0
 11
27.52110582087755
 21
11.11787997773697
 31
0.0
  0
LINE
  5
A00
330
9E0
100
AcDbEntity
  8
0
 62
     0
100
AcDbLine
 10
34.52110582087758
 20
4.117879977736947
 30
0.0
 11
33.12110582087754
 21
5.517879977736981
 31
0.0
  0
LINE
  5
A01
330
9E0
100
AcDbEntity
  8
0
 62
     0
100
AcDbLine
 10
32.07110582087756
 20
6.11886717168349
 30
0.0
 11
30.67110582087755
 21
7.518867171683524
 31
0.0
  0
LINE
  5
A02
330
9E0
100
AcDbEntity
  8
0
 62
     0
100
AcDbLine
 10
28.92110582087758
 20
9.268867171683496
 30
0.0
 11
27.52110582087755
 21
10.66886717168353
 31
0.0
  0
LINE
  5
A03
330
9E0
100
AcDbEntity
  8
0
 62
     0
100
AcDbLine
 10
34.48512314343267
 20
3.704849849128407
 30
0.0
 11
33.12110582087754
 21
5.068867171683535
 31
0.0
  0
LINE
  5
A04
330
9E0
100
AcDbEntity
  8
0
 62
     0
100
AcDbLine
 10
32.07110582087759
 20
5.669854365629987
 30
0.0
 11
30.67110582087753
 21
7.06985436563005
 31
0.0
  0
LINE
  5
A05
330
9E0
100
AcDbEntity
  8
0
 62
     0
100
AcDbLine
 10
28.92110582087756
 20
8.81985436563005
 30
0.0
 11
27.52110582087752
 21
10.21985436563005
 31
0.0
  0
LINE
  5
A06
330
9E0
100
AcDbEntity
  8
0
 62
     0
100
AcDbLine
 10
34.16595984705793
 20
3.575000339449672
 30
0.0
 11
33.12110582087751
 21
4.619854365630089
 31
0.0
  0
LINE
  5
A07
330
9E0
100
AcDbEntity
  8
0
 62
     0
100
AcDbLine
 10
28.92110582087756
 20
8.370841559576575
 30
0.0
 11
27.52110582087752
 21
9.770841559576609
 31
0.0
  0
LINE
  5
A08
330
9E0
100
AcDbEntity
  8
0
 62
     0
100
AcDbLine
 10
32.07110582087759
 20
5.220841559576541
 30
0.0
 11
30.67110582087753
 21
6.620841559576604
 31
0.0
  0
LINE
  5
A09
330
9E0
100
AcDbEntity
  8
0
 62
     0
100
AcDbLine
 10
26.20860582087755
 20
11.08334155957658
 30
0.0
 11
25.66694704100447
 21
11.62500033944962
 31
0.0
  0
LINE
  5
A0A
330
9E0
100
AcDbEntity
  8
0
 62
     0
100
AcDbLine
 10
33.71694704100448
 20
3.575000339449616
 30
0.0
 11
33.12110582087751
 21
4.170841559576615
 31
0.0
  0
LINE
  5
A0B
330
9E0
100
AcDbEntity
  8
0
 62
     0
100
AcDbLine
 10
28.92110582087756
 20
7.921828753523129
 30
0.0
 11
27.52110582087758
 21
9.321828753523135
 31
0.0
  0
LINE
  5
A0C
330
9E0
100
AcDbEntity
  8
0
 62
     0
100
AcDbLine
 10
26.20860582087755
 20
10.63432875352313
 30
0.0
 11
25.21793423495106
 21
11.62500033944965
 31
0.0
  0
LINE
  5
A0D
330
9E0
100
AcDbEntity
  8
0
 62
     0
100
AcDbLine
 10
32.0581266705548
 20
4.784807903845916
 30
0.0
 11
30.67110582087753
 21
6.171828753523158
 31
0.0
  0
LINE
  5
A0E
330
9E0
100
AcDbEntity
  8
0
 62
     0
100
AcDbLine
 10
28.92110582087756
 20
7.472815947469683
 30
0.0
 11
27.52110582087758
 21
8.872815947469661
 31
0.0
  0
LINE
  5
A0F
330
9E0
100
AcDbEntity
  8
0
 62
     0
100
AcDbLine
 10
26.11081554782063
 20
10.2831062205266
 30
0.0
 11
24.76892142889755
 21
11.62500033944968
 31
0.0
  0
LINE
  5
A10
330
9E0
100
AcDbEntity
  8
0
 62
     0
100
AcDbLine
 10
31.96163402292617
 20
4.432287745421035
 30
0.0
 11
30.67110582087753
 21
5.722815947469712
 31
0.0
  0
LINE
  5
A11
330
9E0
100
AcDbEntity
  8
0
 62
     0
100
AcDbLine
 10
28.92110582087756
 20
7.023803141416209
 30
0.0
 11
27.52110582087755
 21
8.423803141416215
 31
0.0
  0
LINE
  5
A12
330
9E0
100
AcDbEntity
  8
0
 62
     0
100
AcDbLine
 10
25.71990862284406
 20
10.22500033944967
 30
0.0
 11
24.31990862284411
 21
11.62500033944962
 31
0.0
  0
LINE
  5
A13
330
9E0
100
AcDbEntity
  8
0
 62
     0
100
AcDbLine
 10
31.79911808496439
 20
4.145790877329346
 30
0.0
 11
30.63534795129777
 21
5.309561010995992
 31
0.0
  0
LINE
  5
A14
330
9E0
100
AcDbEntity
  8
0
 62
     0
100
AcDbLine
 10
28.92110582087756
 20
6.574790335362791
 30
0.0
 11
27.52110582087758
 21
7.974790335362769
 31
0.0
  0
LINE
  5
A15
330
9E0
100
AcDbEntity
  8
0
 62
     0
100
AcDbLine
 10
25.27089581679064
 20
10.2250003394497
 30
0.0
 11
23.90211245220194
 21
11.5937837040384
 31
0.0
  0
LINE
  5
A16
330
9E0
100
AcDbEntity
  8
0
 62
     0
100
AcDbLine
 10
31.58309718630187
 20
3.912798969938449
 30
0.0
 11
30.43455513206402
 21
5.0613410241763
 31
0.0
  0
LINE
  5
A17
330
9E0
100
AcDbEntity
  8
0
 62
     0
100
AcDbLine
 10
28.92110582087756
 20
6.125777529309317
 30
0.0
 11
27.52110582087755
 21
7.525777529309294
 31
0.0
  0
LINE
  5
A18
330
9E0
100
AcDbEntity
  8
0
 62
     0
100
AcDbLine
 10
24.82188301073716
 20
10.2250003394497
 30
0.0
 11
23.56979223993525
 21
11.47709111025159
 31
0.0
  0
LINE
  5
A19
330
9E0
100
AcDbEntity
  8
0
 62
     0
100
AcDbLine
 10
31.31501601383885
 20
3.731867336348017
 30
0.0
 11
30.07188301073716
 21
4.975000339449678
 31
0.0
  0
LINE
  5
A1A
330
9E0
100
AcDbEntity
  8
0
 62
     0
100
AcDbLine
 10
28.92110582087752
 20
5.676764723255843
 30
0.0
 11
27.52110582087755
 21
7.076764723255848
 31
0.0
  0
LINE
  5
A1B
330
9E0
100
AcDbEntity
  8
0
 62
     0
100
AcDbLine
 10
24.38376511869276
 20
10.2141054254406
 30
0.0
 11
23.29849177133016
 21
11.29937877280321
 31
0.0
  0
LINE
  5
A1C
330
9E0
100
AcDbEntity
  8
0
 62
     0
100
AcDbLine
 10
30.9868097338832
 20
3.611060810250194
 30
0.0
 11
29.62287020468372
 21
4.975000339449678
 31
0.0
  0
LINE
  5
A1D
330
9E0
100
AcDbEntity
  8
0
 62
     0
100
AcDbLine
 10
24.19610582087759
 20
9.952751917202306
 30
0.0
 11
23.07943574180788
 21
11.06942199627201
 31
0.0
  0
LINE
  5
A1E
330
9E0
100
AcDbEntity
  8
0
 62
     0
100
AcDbLine
 10
30.57385739863028
 20
3.575000339449644
 30
0.0
 11
27.52110582087755
 21
6.627751917202374
 31
0.0
  0
LINE
  5
A1F
330
9E0
100
AcDbEntity
  8
0
 62
     0
100
AcDbLine
 10
24.19610582087762
 20
9.503739111148888
 30
0.0
 11
22.91355028563137
 21
10.78629464639513
 31
0.0
  0
LINE
  5
A20
330
9E0
100
AcDbEntity
  8
0
 62
     0
100
AcDbLine
 10
30.12484459257683
 20
3.575000339449644
 30
0.0
 11
27.52110582087755
 21
6.178739111148956
 31
0.0
  0
LINE
  5
A21
330
9E0
100
AcDbEntity
  8
0
 62
     0
100
AcDbLine
 10
24.29937796142948
 20
8.951454164543548
 30
0.0
 11
22.81246102594931
 21
10.43837110002368
 31
0.0
  0
LINE
  5
A22
330
9E0
100
AcDbEntity
  8
0
 62
     0
100
AcDbLine
 10
29.67583178652338
 20
3.575000339449644
 30
0.0
 11
27.52110582087755
 21
5.729726305095482
 31
0.0
  0
LINE
  5
A23
330
9E0
100
AcDbEntity
  8
0
 62
     0
100
AcDbLine
 10
26.40790767222324
 20
6.393911647696313
 30
0.0
 11
22.79610582087755
 21
10.00571349904197
 31
0.0
  0
LINE
  5
A24
330
9E0
100
AcDbEntity
  8
0
 62
     0
100
AcDbLine
 10
21.74610582087751
 20
11.05571349904201
 30
0.0
 11
21.17681898046987
 21
11.62500033944968
 31
0.0
  0
LINE
  5
A25
330
9E0
100
AcDbEntity
  8
0
 62
     0
100
AcDbLine
 10
29.22681898046991
 20
3.575000339449644
 30
0.0
 11
27.52110582087752
 21
5.280713499042008
 31
0.0
  0
LINE
  5
A26
330
9E0
100
AcDbEntity
  8
0
 62
     0
100
AcDbLine
 10
26.47110582087759
 20
5.881700692988545
 30
0.0
 11
22.79610582087758
 21
9.556700692988556
 31
0.0
  0
LINE
  5
A27
330
9E0
100
AcDbEntity
  8
0
 62
     0
100
AcDbLine
 10
21.74610582087757
 20
10.60670069298853
 30
0.0
 11
20.7278061744164
 21
11.62500033944974
 31
0.0
  0
LINE
  5
A28
330
9E0
100
AcDbEntity
  8
0
 62
     0
100
AcDbLine
 10
28.76958223504402
 20
3.583224278822115
 30
0.0
 11
27.52932976025002
 21
4.82347675361612
 31
0.0
  0
LINE
  5
A29
330
9E0
100
AcDbEntity
  8
0
 62
     0
100
AcDbLine
 10
21.74610582087757
 20
10.15768788693509
 30
0.0
 11
20.39241087698991
 21
11.51138283082272
 31
0.0
  0
LINE
  5
A2A
330
9E0
100
AcDbEntity
  8
0
 62
     0
100
AcDbLine
 10
26.47110582087757
 20
5.43268788693507
 30
0.0
 11
22.80781115481875
 21
9.095982552993916
 31
0.0
  0
LINE
  5
A2B
330
9E0
100
AcDbEntity
  8
0
 62
     0
100
AcDbLine
 10
21.74610582087757
 20
9.708675080881619
 30
0.0
 11
20.34610582087756
 21
11.10867508088159
 31
0.0
  0
LINE
  5
A2C
330
9E0
100
AcDbEntity
  8
0
 62
     0
100
AcDbLine
 10
26.47110582087751
 20
4.983675080881653
 30
0.0
 11
22.96687086373876
 21
8.48791003802043
 31
0.0
  0
LINE
  5
A2D
330
9E0
100
AcDbEntity
  8
0
 62
     0
100
AcDbLine
 10
21.74610582087757
 20
9.259662274828173
 30
0.0
 11
20.34610582087759
 21
10.65966227482814
 31
0.0
  0
LINE
  5
A2E
330
9E0
100
AcDbEntity
  8
0
 62
     0
100
AcDbLine
 10
26.41682491208303
 20
4.588943183622717
 30
0.0
 11
25.06900751756387
 21
5.936760578141871
 31
0.0
  0
LINE
  5
A2F
330
9E0
100
AcDbEntity
  8
0
 62
     0
100
AcDbLine
 10
21.74610582087757
 20
8.810649468774727
 30
0.0
 11
20.34610582087756
 21
10.2106494687747
 31
0.0
  0
LINE
  5
A30
330
9E0
100
AcDbEntity
  8
0
 62
     0
100
AcDbLine
 10
19.20036237058906
 20
11.35639291906321
 30
0.0
 11
18.93175495020261
 21
11.62500033944968
 31
0.0
  0
LINE
  5
A31
330
9E0
100
AcDbEntity
  8
0
 62
     0
100
AcDbLine
 10
26.28288705820224
 20
4.273868231450052
 30
0.0
 11
25.07110582087759
 21
5.48564946877471
 31
0.0
  0
LINE
  5
A32
330
9E0
100
AcDbEntity
  8
0
 62
     0
100
AcDbLine
 10
21.74610582087754
 20
8.361636662721252
 30
0.0
 11
20.34610582087756
 21
9.761636662721258
 31
0.0
  0
LINE
  5
A33
330
9E0
100
AcDbEntity
  8
0
 62
     0
100
AcDbLine
 10
19.10089853846275
 20
11.00684394513604
 30
0.0
 11
18.48274214414914
 21
11.62500033944968
 31
0.0
  0
LINE
  5
A34
330
9E0
100
AcDbEntity
  8
0
 62
     0
100
AcDbLine
 10
26.0913936591146
 20
4.016348824484225
 30
0.0
 11
25.02246322943435
 21
5.085279254164476
 31
0.0
  0
LINE
  5
A35
330
9E0
100
AcDbEntity
  8
0
 62
     0
100
AcDbLine
 10
21.74610582087754
 20
7.912623856667806
 30
0.0
 11
20.34610582087756
 21
9.312623856667784
 31
0.0
  0
LINE
  5
A36
330
9E0
100
AcDbEntity
  8
0
 62
     0
100
AcDbLine
 10
18.99313546500991
 20
10.6655942125354
 30
0.0
 11
18.03852768327462
 21
11.62020199427072
 31
0.0
  0
LINE
  5
A37
330
9E0
100
AcDbEntity
  8
0
 62
     0
100
AcDbLine
 10
25.84823417655679
 20
3.810495500988537
 30
0.0
 11
24.68372933809567
 21
4.975000339449678
 31
0.0
  0
LINE
  5
A38
330
9E0
100
AcDbEntity
  8
0
 62
     0
100
AcDbLine
 10
21.74610582087757
 20
7.46361105061436
 30
0.0
 11
20.34610582087756
 21
8.863611050614338
 31
0.0
  0
LINE
  5
A39
330
9E0
100
AcDbEntity
  8
0
 62
     0
100
AcDbLine
 10
18.88537239155715
 20
10.32434447993477
 30
0.0
 11
17.82137239155713
 21
11.3883444799348
 31
0.0
  0
LINE
  5
A3A
330
9E0
100
AcDbEntity
  8
0
 62
     0
100
AcDbLine
 10
25.5501922023266
 20
3.659524669165307
 30
0.0
 11
24.23471653204222
 21
4.975000339449707
 31
0.0
  0
LINE
  5
A3B
330
9E0
100
AcDbEntity
  8
0
 62
     0
100
AcDbLine
 10
21.74610582087754
 20
7.014598244560914
 30
0.0
 11
20.34610582087756
 21
8.414598244560892
 31
0.0
  0
LINE
  5
A3C
330
9E0
100
AcDbEntity
  8
0
 62
     0
100
AcDbLine
 10
18.77760931810422
 20
9.983094747334234
 30
0.0
 11
17.71360931810423
 21
11.04709474733422
 31
0.0
  0
LINE
  5
A3D
330
9E0
100
AcDbEntity
  8
0
 62
     0
100
AcDbLine
 10
25.18135587650286
 20
3.579348188935597
 30
0.0
 11
23.78570372598878
 21
4.975000339449678
 31
0.0
  0
LINE
  5
A3E
330
9E0
100
AcDbEntity
  8
0
 62
     0
100
AcDbLine
 10
21.74610582087754
 20
6.56558543850744
 30
0.0
 11
20.34610582087754
 21
7.965585438507417
 31
0.0
  0
LINE
  5
A3F
330
9E0
100
AcDbEntity
  8
0
 62
     0
100
AcDbLine
 10
18.66984624465144
 20
9.641845014733547
 30
0.0
 11
17.60584624465138
 21
10.70584501473357
 31
0.0
  0
LINE
  5
A40
330
9E0
100
AcDbEntity
  8
0
 62
     0
100
AcDbLine
 10
24.73669091993534
 20
3.575000339449644
 30
0.0
 11
23.33669091993531
 21
4.975000339449678
 31
0.0
  0
LINE
  5
A41
330
9E0
100
AcDbEntity
  8
0
 62
     0
100
AcDbLine
 10
21.74610582087754
 20
6.116572632453994
 30
0.0
 11
20.34610582087756
 21
7.516572632454
 31
0.0
  0
LINE
  5
A42
330
9E0
100
AcDbEntity
  8
0
 62
     0
100
AcDbLine
 10
18.56208317119862
 20
9.300595282132945
 30
0.0
 11
17.49808317119857
 21
10.36459528213296
 31
0.0
  0
LINE
  5
A43
330
9E0
100
AcDbEntity
  8
0
 62
     0
100
AcDbLine
 10
24.28767811388189
 20
3.575000339449672
 30
0.0
 11
23.0708722652337
 21
4.791806188097865
 31
0.0
  0
LINE
  5
A44
330
9E0
100
AcDbEntity
  8
0
 62
     0
100
AcDbLine
 10
18.4543200977458
 20
8.959345549532258
 30
0.0
 11
17.39032009774575
 21
10.02334554953233
 31
0.0
  0
LINE
  5
A45
330
9E0
100
AcDbEntity
  8
0
 62
     0
100
AcDbLine
 10
21.74610582087754
 20
5.667559826400548
 30
0.0
 11
20.34610582087756
 21
7.067559826400525
 31
0.0
  0
LINE
  5
A46
330
9E0
100
AcDbEntity
  8
0
 62
     0
100
AcDbLine
 10
16.32110582087756
 20
11.09255982640053
 30
0.0
 11
15.78866530782841
 21
11.62500033944965
 31
0.0
  0
LINE
  5
A47
330
9E0
100
AcDbEntity
  8
0
 62
     0
100
AcDbLine
 10
23.83866530782845
 20
3.575000339449644
 30
0.0
 11
23.05860582087757
 21
4.35505982640052
 31
0.0
  0
LINE
  5
A48
330
9E0
100
AcDbEntity
  8
0
 62
     0
100
AcDbLine
 10
18.3465570242929
 20
8.618095816931713
 30
0.0
 11
17.28255702429294
 21
9.682095816931678
 31
0.0
  0
LINE
  5
A49
330
9E0
100
AcDbEntity
  8
0
 62
     0
100
AcDbLine
 10
21.74610582087754
 20
5.218547020347074
 30
0.0
 11
20.34610582087754
 21
6.618547020347079
 31
0.0
  0
LINE
  5
A4A
330
9E0
100
AcDbEntity
  8
0
 62
     0
100
AcDbLine
 10
16.32110582087756
 20
10.64354702034705
 30
0.0
 11
15.33965250177496
 21
11.62500033944965
 31
0.0
  0
LINE
  5
A4B
330
9E0
100
AcDbEntity
  8
0
 62
     0
100
AcDbLine
 10
23.38965250177494
 20
3.575000339449672
 30
0.0
 11
23.05860582087754
 21
3.906047020347045
 31
0.0
  0
LINE
  5
A4C
330
9E0
100
AcDbEntity
  8
0
 62
     0
100
AcDbLine
 10
18.23879395084009
 20
8.276846084331054
 30
0.0
 11
17.17479395084007
 21
9.340846084331076
 31
0.0
  0
LINE
  5
A4D
330
9E0
100
AcDbEntity
  8
0
 62
     0
100
AcDbLine
 10
16.32110582087753
 20
10.19453421429358
 30
0.0
 11
14.98338335642873
 21
11.53225667874241
 31
0.0
  0
LINE
  5
A4E
330
9E0
100
AcDbEntity
  8
0
 62
     0
100
AcDbLine
 10
21.74610582087751
 20
4.769534214293628
 30
0.0
 11
20.34610582087754
 21
6.169534214293605
 31
0.0
  0
LINE
  5
A4F
330
9E0
100
AcDbEntity
  8
0
 62
     0
100
AcDbLine
 10
18.13103087738727
 20
7.935596351730453
 30
0.0
 11
17.06703087738728
 21
8.999596351730446
 31
0.0
  0
LINE
  5
A50
330
9E0
100
AcDbEntity
  8
0
 62
     0
100
AcDbLine
 10
16.32110582087756
 20
9.745521408240165
 30
0.0
 11
14.92110582087752
 21
11.14552140824017
 31
0.0
  0
LINE
  5
A51
330
9E0
100
AcDbEntity
  8
0
 62
     0
100
AcDbLine
 10
21.74610582087754
 20
4.320521408240182
 30
0.0
 11
20.34610582087754
 21
5.720521408240159
 31
0.0
  0
LINE
  5
A52
330
9E0
100
AcDbEntity
  8
0
 62
     0
100
AcDbLine
 10
18.02848662269124
 20
7.589127800373006
 30
0.0
 11
16.95926780393441
 21
8.658346619129844
 31
0.0
  0
LINE
  5
A53
330
9E0
100
AcDbEntity
  8
0
 62
     0
100
AcDbLine
 10
16.32110582087756
 20
9.29650860218669
 30
0.0
 11
14.92110582087752
 21
10.69650860218672
 31
0.0
  0
LINE
  5
A54
330
9E0
100
AcDbEntity
  8
0
 62
     0
100
AcDbLine
 10
21.74610582087751
 20
3.871508602186708
 30
0.0
 11
20.34610582087754
 21
5.271508602186713
 31
0.0
  0
LINE
  5
A55
330
9E0
100
AcDbEntity
  8
0
 62
     0
100
AcDbLine
 10
18.23572330240824
 20
6.932878314602533
 30
0.0
 11
16.8139940560921
 21
8.35460756091868
 31
0.0
  0
LINE
  5
A56
330
9E0
100
AcDbEntity
  8
0
 62
     0
100
AcDbLine
 10
16.32110582087759
 20
8.847495796133188
 30
0.0
 11
14.9211058208775
 21
10.24749579613325
 31
0.0
  0
LINE
  5
A57
330
9E0
100
AcDbEntity
  8
0
 62
     0
100
AcDbLine
 10
21.57658332221135
 20
3.592018294799402
 30
0.0
 11
20.34610582087756
 21
4.82249579613321
 31
0.0
  0
LINE
  5
A58
330
9E0
100
AcDbEntity
  8
0
 62
     0
100
AcDbLine
 10
18.44295998212524
 20
6.276628828832116
 30
0.0
 11
14.92110582087752
 21
9.798482990079833
 31
0.0
  0
LINE
  5
A59
330
9E0
100
AcDbEntity
  8
0
 62
     0
100
AcDbLine
 10
13.69610582087759
 20
11.02348299007977
 30
0.0
 11
13.0945884715077
 21
11.62500033944965
 31
0.0
  0
LINE
  5
A5A
330
9E0
100
AcDbEntity
  8
0
 62
     0
100
AcDbLine
 10
21.14458847150771
 20
3.575000339449644
 30
0.0
 11
20.34610582087759
 21
4.373482990079764
 31
0.0
  0
LINE
  5
A5B
330
9E0
100
AcDbEntity
  8
0
 62
     0
100
AcDbLine
 10
18.65019666184227
 20
5.620379343061614
 30
0.0
 11
14.92110582087752
 21
9.349470184026358
 31
0.0
  0
LINE
  5
A5C
330
9E0
100
AcDbEntity
  8
0
 62
     0
100
AcDbLine
 10
13.69610582087759
 20
10.57447018402629
 30
0.0
 11
12.6455756654542
 21
11.62500033944968
 31
0.0
  0
LINE
  5
A5D
330
9E0
100
AcDbEntity
  8
0
 62
     0
100
AcDbLine
 10
20.69557566545424
 20
3.575000339449616
 30
0.0
 11
20.34610582087756
 21
3.924470184026318
 31
0.0
  0
LINE
  5
A5E
330
9E0
100
AcDbEntity
  8
0
 62
     0
100
AcDbLine
 10
13.56265247318253
 20
10.25891072566787
 30
0.0
 11
12.21254161407682
 21
11.60902158477355
 31
0.0
  0
LINE
  5
A5F
330
9E0
100
AcDbEntity
  8
0
 62
     0
100
AcDbLine
 10
18.85743334155924
 20
4.964129857291169
 30
0.0
 11
14.92110582087755
 21
8.900457377972855
 31
0.0
  0
LINE
  5
A60
330
9E0
100
AcDbEntity
  8
0
 62
     0
100
AcDbLine
 10
16.48986028204836
 20
6.882690110748598
 30
0.0
 11
14.92110582087755
 21
8.45144457191941
 31
0.0
  0
LINE
  5
A61
330
9E0
100
AcDbEntity
  8
0
 62
     0
100
AcDbLine
 10
13.14755005334731
 20
10.22500033944962
 30
0.0
 11
11.84352007928319
 21
11.52903031351377
 31
0.0
  0
LINE
  5
A62
330
9E0
100
AcDbEntity
  8
0
 62
     0
100
AcDbLine
 10
19.06467002127627
 20
4.307880371520695
 30
0.0
 11
17.01851617512221
 21
6.354034217674751
 31
0.0
  0
LINE
  5
A63
330
9E0
100
AcDbEntity
  8
0
 62
     0
100
AcDbLine
 10
16.32110582087759
 20
6.602431765865929
 30
0.0
 11
14.92110582087755
 21
8.002431765865964
 31
0.0
  0
LINE
  5
A64
330
9E0
100
AcDbEntity
  8
0
 62
     0
100
AcDbLine
 10
12.69853724729381
 20
10.22500033944967
 30
0.0
 11
11.52415937136783
 21
11.39937821537566
 31
0.0
  0
LINE
  5
A65
330
9E0
100
AcDbEntity
  8
0
 62
     0
100
AcDbLine
 10
19.18218945013157
 20
3.741348136611918
 30
0.0
 11
17.22575285483927
 21
5.697784731904249
 31
0.0
  0
LINE
  5
A66
330
9E0
100
AcDbEntity
  8
0
 62
     0
100
AcDbLine
 10
16.32110582087756
 20
6.153418959812483
 30
0.0
 11
14.92110582087752
 21
7.553418959812489
 31
0.0
  0
LINE
  5
A67
330
9E0
100
AcDbEntity
  8
0
 62
     0
100
AcDbLine
 10
12.27698049602204
 20
10.19754428466799
 30
0.0
 11
11.24478488370056
 21
11.22973989698948
 31
0.0
  0
LINE
  5
A68
330
9E0
100
AcDbEntity
  8
0
 62
     0
100
AcDbLine
 10
18.8995244412404
 20
3.575000339449644
 30
0.0
 11
17.43298953455627
 21
5.041535246133776
 31
0.0
  0
LINE
  5
A69
330
9E0
100
AcDbEntity
  8
0
 62
     0
100
AcDbLine
 10
16.32110582087756
 20
5.704406153759009
 30
0.0
 11
14.92110582087752
 21
7.104406153759043
 31
0.0
  0
LINE
  5
A6A
330
9E0
100
AcDbEntity
  8
0
 62
     0
100
AcDbLine
 10
11.99105239960255
 20
10.03445957503402
 30
0.0
 11
11.00095727939466
 21
11.0245546952419
 31
0.0
  0
LINE
  5
A6B
330
9E0
100
AcDbEntity
  8
0
 62
     0
100
AcDbLine
 10
18.45051163518692
 20
3.575000339449644
 30
0.0
 11
17.64022621427327
 21
4.385285760363302
 31
0.0
  0
LINE
  5
A6C
330
9E0
100
AcDbEntity
  8
0
 62
     0
100
AcDbLine
 10
13.86382038727643
 20
7.712678781306721
 30
0.0
 11
13.10878426273456
 21
8.467714905848595
 31
0.0
  0
LINE
  5
A6D
330
9E0
100
AcDbEntity
  8
0
 62
     0
100
AcDbLine
 10
16.32110582087761
 20
5.255393347705535
 30
0.0
 11
14.92110582087755
 21
6.655393347705597
 31
0.0
  0
LINE
  5
A6E
330
9E0
100
AcDbEntity
  8
0
 62
     0
100
AcDbLine
 10
11.81299161453807
 20
9.763507554045077
 30
0.0
 11
10.79127426638905
 21
10.7852249021941
 31
0.0
  0
LINE
  5
A6F
330
9E0
100
AcDbEntity
  8
0
 62
     0
100
AcDbLine
 10
17.97633232703117
 20
3.600166841551981
 30
0.0
 11
17.85115524123551
 21
3.725343927347637
 31
0.0
  0
LINE
  5
A70
330
9E0
100
AcDbEntity
  8
0
 62
     0
100
AcDbLine
 10
13.82056355720547
 20
7.306922805324205
 30
0.0
 11
12.70302828675204
 21
8.424458075777636
 31
0.0
  0
LINE
  5
A71
330
9E0
100
AcDbEntity
  8
0
 62
     0
100
AcDbLine
 10
11.7711058208776
 20
9.356380541652072
 30
0.0
 11
10.61680475590822
 21
10.51068160662146
 31
0.0
  0
LINE
  5
A72
330
9E0
100
AcDbEntity
  8
0
 62
     0
100
AcDbLine
 10
16.32110582087759
 20
4.80638054165206
 30
0.0
 11
14.92110582087752
 21
6.206380541652151
 31
0.0
  0
LINE
  5
A73
330
9E0
100
AcDbEntity
  8
0
 62
     0
100
AcDbLine
 10
13.65463577755645
 20
7.023837778919727
 30
0.0
 11
12.41994326034756
 21
8.258530296128611
 31
0.0
  0
LINE
  5
A74
330
9E0
100
AcDbEntity
  8
0
 62
     0
100
AcDbLine
 10
11.7711058208776
 20
8.907367735598597
 30
0.0
 11
10.48151490230313
 21
10.19695865417307
 31
0.0
  0
LINE
  5
A75
330
9E0
100
AcDbEntity
  8
0
 62
     0
100
AcDbLine
 10
16.32110582087759
 20
4.357367735598614
 30
0.0
 11
14.92110582087755
 21
5.757367735598649
 31
0.0
  0
LINE
  5
A76
330
9E0
100
AcDbEntity
  8
0
 62
     0
100
AcDbLine
 10
11.7711058208776
 20
8.458354929545151
 30
0.0
 11
10.3941579658402
 21
9.83530278458258
 31
0.0
  0
LINE
  5
A77
330
9E0
100
AcDbEntity
  8
0
 62
     0
100
AcDbLine
 10
13.40371905648822
 20
6.82574169393456
 30
0.0
 11
12.22184717536239
 21
8.007613575060389
 31
0.0
  0
LINE
  5
A78
330
9E0
100
AcDbEntity
  8
0
 62
     0
100
AcDbLine
 10
9.058605820877573
 20
11.17085492954521
 30
0.0
 11
8.604460410973075
 21
11.62500033944971
 31
0.0
  0
LINE
  5
A79
330
9E0
100
AcDbEntity
  8
0
 62
     0
100
AcDbLine
 10
16.32110582087761
 20
3.908354929545168
 30
0.0
 11
14.92110582087758
 21
5.308354929545203
 31
0.0
  0
LINE
  5
A7A
330
9E0
100
AcDbEntity
  8
0
 62
     0
100
AcDbLine
 10
11.7711058208776
 20
8.009342123491705
 30
0.0
 11
10.37110582087757
 21
9.40934212349174
 31
0.0
  0
LINE
  5
A7B
330
9E0
100
AcDbEntity
  8
0
 62
     0
100
AcDbLine
 10
13.05355933527451
 20
6.7268886090948
 30
0.0
 11
12.12299409052263
 21
7.657453853846675
 31
0.0
  0
LINE
  5
A7C
330
9E0
100
AcDbEntity
  8
0
 62
     0
100
AcDbLine
 10
9.058605820877545
 20
10.72184212349174
 30
0.0
 11
8.155447604919601
 21
11.62500033944968
 31
0.0
  0
LINE
  5
A7D
330
9E0
100
AcDbEntity
  8
0
 62
     0
100
AcDbLine
 10
16.17715392024226
 20
3.603294024127052
 30
0.0
 11
14.92110582087755
 21
4.859342123491728
 31
0.0
  0
LINE
  5
A7E
330
9E0
100
AcDbEntity
  8
0
 62
     0
100
AcDbLine
 10
11.7711058208776
 20
7.560329317438231
 30
0.0
 11
10.37110582087757
 21
8.960329317438265
 31
0.0
  0
LINE
  5
A7F
330
9E0
100
AcDbEntity
  8
0
 62
     0
100
AcDbLine
 10
9.004088835742379
 20
10.32734630257346
 30
0.0
 11
7.706434798866098
 21
11.62500033944971
 31
0.0
  0
LINE
  5
A80
330
9E0
100
AcDbEntity
  8
0
 62
     0
100
AcDbLine
 10
15.75643479886616
 20
3.575000339449672
 30
0.0
 11
14.92110582087755
 21
4.410329317438282
 31
0.0
  0
LINE
  5
A81
330
9E0
100
AcDbEntity
  8
0
 62
     0
100
AcDbLine
 10
11.77110582087758
 20
7.111316511384785
 30
0.0
 11
10.37110582087754
 21
8.511316511384791
 31
0.0
  0
LINE
  5
A82
330
9E0
100
AcDbEntity
  8
0
 62
     0
100
AcDbLine
 10
8.657421992812714
 20
10.22500033944965
 30
0.0
 11
7.257421992812652
 21
11.62500033944971
 31
0.0
  0
LINE
  5
A83
330
9E0
100
AcDbEntity
  8
0
 62
     0
100
AcDbLine
 10
15.30742199281269
 20
3.575000339449644
 30
0.0
 11
14.92110582087755
 21
3.961316511384808
 31
0.0
  0
LINE
  5
A84
330
9E0
100
AcDbEntity
  8
0
 62
     0
100
AcDbLine
 10
11.7711058208776
 20
6.662303705331339
 30
0.0
 11
10.37110582087757
 21
8.062303705331373
 31
0.0
  0
LINE
  5
A85
330
9E0
100
AcDbEntity
  8
0
 62
     0
100
AcDbLine
 10
8.208409186759269
 20
10.22500033944965
 30
0.0
 11
6.825844550706818
 21
11.60756497550212
 31
0.0
  0
LINE
  5
A86
330
9E0
100
AcDbEntity
  8
0
 62
     0
100
AcDbLine
 10
13.6948045964591
 20
4.738604929749811
 30
0.0
 11
13.45971041117775
 21
4.973699115031195
 31
0.0
  0
LINE
  5
A87
330
9E0
100
AcDbEntity
  8
0
 62
     0
100
AcDbLine
 10
11.77110582087758
 20
6.213290899277865
 30
0.0
 11
10.37110582087757
 21
7.613290899277899
 31
0.0
  0
LINE
  5
A88
330
9E0
100
AcDbEntity
  8
0
 62
     0
100
AcDbLine
 10
7.759396380705823
 20
10.22500033944965
 30
0.0
 11
6.47927714646758
 21
11.50511957368789
 31
0.0
  0
LINE
  5
A89
330
9E0
100
AcDbEntity
  8
0
 62
     0
100
AcDbLine
 10
13.69610582087761
 20
4.288290899277853
 30
0.0
 11
13.00939638070579
 21
4.975000339449678
 31
0.0
  0
LINE
  5
A8A
330
9E0
100
AcDbEntity
  8
0
 62
     0
100
AcDbLine
 10
11.77110582087758
 20
5.764278093224419
 30
0.0
 11
10.3711058208776
 21
7.164278093224396
 31
0.0
  0
LINE
  5
A8B
330
9E0
100
AcDbEntity
  8
0
 62
     0
100
AcDbLine
 10
7.310383574652348
 20
10.22500033944962
 30
0.0
 11
6.197153816543959
 21
11.33823009755801
 31
0.0
  0
LINE
  5
A8C
330
9E0
100
AcDbEntity
  8
0
 62
     0
100
AcDbLine
 10
13.69610582087759
 20
3.839278093224379
 30
0.0
 11
12.56038357465234
 21
4.975000339449621
 31
0.0
  0
LINE
  5
A8D
330
9E0
100
AcDbEntity
  8
0
 62
     0
100
AcDbLine
 10
7.055237160845052
 20
10.03113394720352
 30
0.0
 11
5.968107410423584
 21
11.11826369762499
 31
0.0
  0
LINE
  5
A8E
330
9E0
100
AcDbEntity
  8
0
 62
     0
100
AcDbLine
 10
13.50223942863141
 20
3.584131679417168
 30
0.0
 11
10.3711058208776
 21
6.715265287170979
 31
0.0
  0
LINE
  5
A8F
330
9E0
100
AcDbEntity
  8
0
 62
     0
100
AcDbLine
 10
7.046105820877585
 20
9.591252481117521
 30
0.0
 11
5.791366809189042
 21
10.84599149280606
 31
0.0
  0
LINE
  5
A90
330
9E0
100
AcDbEntity
  8
0
 62
     0
100
AcDbLine
 10
13.06235796254546
 20
3.575000339449644
 30
0.0
 11
10.3711058208776
 21
6.266252481117504
 31
0.0
  0
LINE
  5
A91
330
9E0
100
AcDbEntity
  8
0
 62
     0
100
AcDbLine
 10
7.077173674945299
 20
9.111171820996304
 30
0.0
 11
5.67592675804218
 21
10.51241873789945
 31
0.0
  0
LINE
  5
A92
330
9E0
100
AcDbEntity
  8
0
 62
     0
100
AcDbLine
 10
12.61334515649195
 20
3.575000339449672
 30
0.0
 11
10.37110582087757
 21
5.81723967506403
 31
0.0
  0
LINE
  5
A93
330
9E0
100
AcDbEntity
  8
0
 62
     0
100
AcDbLine
 10
9.223293866488916
 20
6.51603882339927
 30
0.0
 11
5.646105820877608
 21
10.09322686901057
 31
0.0
  0
LINE
  5
A94
330
9E0
100
AcDbEntity
  8
0
 62
     0
100
AcDbLine
 10
12.13769630691018
 20
3.601636382978
 30
0.0
 11
10.3977418644059
 21
5.341590825482285
 31
0.0
  0
LINE
  5
A95
330
9E0
100
AcDbEntity
  8
0
 62
     0
100
AcDbLine
 10
9.319241123531526
 20
5.971078760303214
 30
0.0
 11
5.646105820877551
 21
9.644214062957189
 31
0.0
  0
LINE
  5
A96
330
9E0
100
AcDbEntity
  8
0
 62
     0
100
AcDbLine
 10
11.45079235060939
 20
3.839527533225322
 30
0.0
 11
10.63563301465319
 21
4.654686869181546
 31
0.0
  0
LINE
  5
A97
330
9E0
100
AcDbEntity
  8
0
 62
     0
100
AcDbLine
 10
9.321105820877619
 20
5.520201256903646
 30
0.0
 11
5.649888044588749
 21
9.191419033192488
 31
0.0
  0
LINE
  5
A98
330
9E0
100
AcDbEntity
  8
0
 62
     0
100
AcDbLine
 10
9.321105820877562
 20
5.071188450850229
 30
0.0
 11
5.761533423750677
 21
8.630760847977086
 31
0.0
  0
LINE
  5
A99
330
9E0
100
AcDbEntity
  8
0
 62
     0
100
AcDbLine
 10
9.284845822811604
 20
4.65843564286277
 30
0.0
 11
7.903150001002074
 21
6.040131464672299
 31
0.0
  0
LINE
  5
A9A
330
9E0
100
AcDbEntity
  8
0
 62
     0
100
AcDbLine
 10
9.163876853297182
 20
4.330391806323717
 30
0.0
 11
7.921105820877556
 21
5.573162838743343
 31
0.0
  0
LINE
  5
A9B
330
9E0
100
AcDbEntity
  8
0
 62
     0
100
AcDbLine
 10
8.982817229606297
 20
4.062438623961128
 30
0.0
 11
7.903156304727218
 21
5.142099548840207
 31
0.0
  0
LINE
  5
A9C
330
9E0
100
AcDbEntity
  8
0
 62
     0
100
AcDbLine
 10
8.74970404347286
 20
3.846539004041119
 30
0.0
 11
7.621242708064301
 21
4.975000339449707
 31
0.0
  0
LINE
  5
A9D
330
9E0
100
AcDbEntity
  8
0
 62
     0
100
AcDbLine
 10
8.463071819606454
 20
3.684158421854078
 30
0.0
 11
7.172229902010826
 21
4.975000339449678
 31
0.0
  0
LINE
  5
A9E
330
9E0
100
AcDbEntity
  8
0
 62
     0
100
AcDbLine
 10
8.110365525063485
 20
3.587851910343573
 30
0.0
 11
6.72321709595738
 21
4.975000339449678
 31
0.0
  0
LINE
  5
A9F
330
9E0
100
AcDbEntity
  8
0
 62
     0
100
AcDbLine
 10
7.674204289903912
 20
3.575000339449672
 30
0.0
 11
6.274204289903906
 21
4.975000339449678
 31
0.0
  0
LINE
  5
AA0
330
9E0
100
AcDbEntity
  8
0
 62
     0
100
AcDbLine
 10
7.225191483850494
 20
3.575000339449644
 30
0.0
 11
5.948529536441554
 21
4.851662286858612
 31
0.0
  0
LINE
  5
AA1
330
9E0
100
AcDbEntity
  8
0
 62
     0
100
AcDbLine
 10
6.776178677796991
 20
3.575000339449672
 30
0.0
 11
5.908605820877596
 21
4.442573196369068
 31
0.0
  0
LINE
  5
AA2
330
9E0
100
AcDbEntity
  8
0
 62
     0
100
AcDbLine
 10
6.327165871743574
 20
3.575000339449644
 30
0.0
 11
5.908605820877596
 21
3.993560390315622
 31
0.0
  0
LINE
  5
AA3
330
9E0
100
AcDbEntity
  8
0
 62
     0
100
AcDbLine
 10
34.31694946321104
 20
3.581566228008426
 30
0.0
 11
34.51453993231893
 21
3.77915669711632
 31
0.0
  0
LINE
  5
AA4
330
9E0
100
AcDbEntity
  8
0
 62
     0
100
AcDbLine
 10
33.86137076859887
 20
3.575000339449644
 30
0.0
 11
34.52110582087766
 21
4.234735391728463
 31
0.0
  0
LINE
  5
AA5
330
9E0
100
AcDbEntity
  8
0
 62
     0
100
AcDbLine
 10
33.4123579625454
 20
3.575000339449672
 30
0.0
 11
34.52110582087766
 21
4.683748197781909
 31
0.0
  0
LINE
  5
AA6
330
9E0
100
AcDbEntity
  8
0
 62
     0
100
AcDbLine
 10
33.13670460250349
 20
3.748359785461218
 30
0.0
 11
34.52110582087764
 21
5.132761003835383
 31
0.0
  0
LINE
  5
AA7
330
9E0
100
AcDbEntity
  8
0
 62
     0
100
AcDbLine
 10
33.1211058208776
 20
4.181773809888795
 30
0.0
 11
34.52110582087764
 21
5.581773809888801
 31
0.0
  0
LINE
  5
AA8
330
9E0
100
AcDbEntity
  8
0
 62
     0
100
AcDbLine
 10
33.12110582087763
 20
4.630786615942241
 30
0.0
 11
34.52110582087764
 21
6.030786615942275
 31
0.0
  0
LINE
  5
AA9
330
9E0
100
AcDbEntity
  8
0
 62
     0
100
AcDbLine
 10
33.1211058208776
 20
5.079799421995716
 30
0.0
 11
34.52110582087764
 21
6.47979942199575
 31
0.0
  0
LINE
  5
AAA
330
9E0
100
AcDbEntity
  8
0
 62
     0
100
AcDbLine
 10
33.1211058208776
 20
5.528812228049162
 30
0.0
 11
34.52110582087764
 21
6.928812228049196
 31
0.0
  0
LINE
  5
AAB
330
9E0
100
AcDbEntity
  8
0
 62
     0
100
AcDbLine
 10
31.33438825191024
 20
3.7420946590818
 30
0.0
 11
31.90401150124552
 21
4.311717908417108
 31
0.0
  0
LINE
  5
AAC
330
9E0
100
AcDbEntity
  8
0
 62
     0
100
AcDbLine
 10
33.1211058208776
 20
5.977825034102608
 30
0.0
 11
34.52110582087764
 21
7.377825034102642
 31
0.0
  0
LINE
  5
AAD
330
9E0
100
AcDbEntity
  8
0
 62
     0
100
AcDbLine
 10
30.71910416864884
 20
3.575823381873846
 30
0.0
 11
32.0702827784535
 21
4.92700199167848
 31
0.0
  0
LINE
  5
AAE
330
9E0
100
AcDbEntity
  8
0
 62
     0
100
AcDbLine
 10
33.1211058208776
 20
6.426837840156082
 30
0.0
 11
34.52110582087764
 21
7.826837840156088
 31
0.0
  0
LINE
  5
AAF
330
9E0
100
AcDbEntity
  8
0
 62
     0
100
AcDbLine
 10
30.26926832017122
 20
3.575000339449701
 30
0.0
 11
32.07110582087764
 21
5.376837840156099
 31
0.0
  0
LINE
  5
AB0
330
9E0
100
AcDbEntity
  8
0
 62
     0
100
AcDbLine
 10
33.1211058208776
 20
6.875850646209528
 30
0.0
 11
34.5211058208776
 21
8.275850646209562
 31
0.0
  0
LINE
  5
AB1
330
9E0
100
AcDbEntity
  8
0
 62
     0
100
AcDbLine
 10
29.82025551411775
 20
3.575000339449701
 30
0.0
 11
32.07110582087762
 21
5.825850646209573
 31
0.0
  0
LINE
  5
AB2
330
9E0
100
AcDbEntity
  8
0
 62
     0
100
AcDbLine
 10
33.1211058208776
 20
7.324863452262974
 30
0.0
 11
34.52110582087764
 21
8.724863452263008
 31
0.0
  0
LINE
  5
AB3
330
9E0
100
AcDbEntity
  8
0
 62
     0
100
AcDbLine
 10
29.37124270806427
 20
3.575000339449644
 30
0.0
 11
32.07110582087764
 21
6.274863452263019
 31
0.0
  0
LINE
  5
AB4
330
9E0
100
AcDbEntity
  8
0
 62
     0
100
AcDbLine
 10
30.61881021983708
 20
5.271580657275933
 30
0.0
 11
32.07110582087764
 21
6.723876258316465
 31
0.0
  0
LINE
  5
AB5
330
9E0
100
AcDbEntity
  8
0
 62
     0
100
AcDbLine
 10
33.1211058208776
 20
7.77387625831642
 30
0.0
 11
34.52110582087764
 21
9.173876258316454
 31
0.0
  0
LINE
  5
AB6
330
9E0
100
AcDbEntity
  8
0
 62
     0
100
AcDbLine
 10
28.92222990201085
 20
3.575000339449701
 30
0.0
 11
30.37452550305133
 21
5.027295940490148
 31
0.0
  0
LINE
  5
AB7
330
9E0
100
AcDbEntity
  8
0
 62
     0
100
AcDbLine
 10
30.67110582087755
 20
5.772889064369877
 30
0.0
 11
32.07110582087762
 21
7.17288906436994
 31
0.0
  0
LINE
  5
AB8
330
9E0
100
AcDbEntity
  8
0
 62
     0
100
AcDbLine
 10
33.12110582087757
 20
8.222889064369894
 30
0.0
 11
34.5211058208776
 21
9.622889064369928
 31
0.0
  0
LINE
  5
AB9
330
9E0
100
AcDbEntity
  8
0
 62
     0
100
AcDbLine
 10
28.52919197164593
 20
3.630975215138221
 30
0.0
 11
29.87321709595738
 21
4.975000339449707
 31
0.0
  0
LINE
  5
ABA
330
9E0
100
AcDbEntity
  8
0
 62
     0
100
AcDbLine
 10
30.67110582087755
 20
6.221901870423323
 30
0.0
 11
32.07110582087762
 21
7.621901870423386
 31
0.0
  0
LINE
  5
ABB
330
9E0
100
AcDbEntity
  8
0
 62
     0
100
AcDbLine
 10
33.12110582087757
 20
8.671901870423369
 30
0.0
 11
34.5211058208776
 21
10.07190187042337
 31
0.0
  0
LINE
  5
ABC
330
9E0
100
AcDbEntity
  8
0
 62
     0
100
AcDbLine
 10
28.21519853804085
 20
3.765994587586646
 30
0.0
 11
29.42464318272607
 21
4.975439232271867
 31
0.0
  0
LINE
  5
ABD
330
9E0
100
AcDbEntity
  8
0
 62
     0
100
AcDbLine
 10
30.67110582087755
 20
6.670914676476769
 30
0.0
 11
32.07110582087762
 21
8.070914676476832
 31
0.0
  0
LINE
  5
ABE
330
9E0
100
AcDbEntity
  8
0
 62
     0
100
AcDbLine
 10
33.1211058208776
 20
9.120914676476786
 30
0.0
 11
34.5211058208776
 21
10.52091467647682
 31
0.0
  0
LINE
  5
ABF
330
9E0
100
AcDbEntity
  8
0
 62
     0
100
AcDbLine
 10
27.95856859735832
 20
3.958377452957506
 30
0.0
 11
29.10290388836972
 21
5.102712743968936
 31
0.0
  0
LINE
  5
AC0
330
9E0
100
AcDbEntity
  8
0
 62
     0
100
AcDbLine
 10
30.67110582087755
 20
7.119927482530215
 30
0.0
 11
32.07110582087762
 21
8.519927482530306
 31
0.0
  0
LINE
  5
AC1
330
9E0
100
AcDbEntity
  8
0
 62
     0
100
AcDbLine
 10
33.12110582087757
 20
9.56992748253026
 30
0.0
 11
34.5211058208776
 21
10.96992748253029
 31
0.0
  0
LINE
  5
AC2
330
9E0
100
AcDbEntity
  8
0
 62
     0
100
AcDbLine
 10
27.75358650974576
 20
4.202408171398417
 30
0.0
 11
28.93428474916501
 21
5.383106410817703
 31
0.0
  0
LINE
  5
AC3
330
9E0
100
AcDbEntity
  8
0
 62
     0
100
AcDbLine
 10
30.67110582087753
 20
7.568940288583689
 30
0.0
 11
32.07110582087762
 21
8.968940288583752
 31
0.0
  0
LINE
  5
AC4
330
9E0
100
AcDbEntity
  8
0
 62
     0
100
AcDbLine
 10
33.12110582087757
 20
10.0189402885837
 30
0.0
 11
34.51603124410238
 21
11.41386571180854
 31
0.0
  0
LINE
  5
AC5
330
9E0
100
AcDbEntity
  8
0
 62
     0
100
AcDbLine
 10
27.60362407052875
 20
4.501458538234913
 30
0.0
 11
28.92110582087756
 21
5.818940288583718
 31
0.0
  0
LINE
  5
AC6
330
9E0
100
AcDbEntity
  8
0
 62
     0
100
AcDbLine
 10
30.67110582087758
 20
8.017953094637164
 30
0.0
 11
32.07110582087762
 21
9.417953094637198
 31
0.0
  0
LINE
  5
AC7
330
9E0
100
AcDbEntity
  8
0
 62
     0
100
AcDbLine
 10
33.12110582087757
 20
10.46795309463715
 30
0.0
 11
34.27747407156263
 21
11.62432134532221
 31
0.0
  0
LINE
  5
AC8
330
9E0
100
AcDbEntity
  8
0
 62
     0
100
AcDbLine
 10
27.52491730305052
 20
4.871764576810107
 30
0.0
 11
28.92110582087758
 21
6.267953094637164
 31
0.0
  0
LINE
  5
AC9
330
9E0
100
AcDbEntity
  8
0
 62
     0
100
AcDbLine
 10
30.67110582087758
 20
8.466965900690638
 30
0.0
 11
32.07110582087762
 21
9.866965900690644
 31
0.0
  0
LINE
  5
ACA
330
9E0
100
AcDbEntity
  8
0
 62
     0
100
AcDbLine
 10
33.1211058208776
 20
10.91696590069065
 30
0.0
 11
33.8291402596366
 21
11.62500033944965
 31
0.0
  0
LINE
  5
ACB
330
9E0
100
AcDbEntity
  8
0
 62
     0
100
AcDbLine
 10
27.52110582087758
 20
5.316965900690632
 30
0.0
 11
28.92110582087761
 21
6.716965900690667
 31
0.0
  0
LINE
  5
ACC
330
9E0
100
AcDbEntity
  8
0
 62
     0
100
AcDbLine
 10
30.67110582087758
 20
8.915978706744084
 30
0.0
 11
32.07110582087759
 21
10.31597870674411
 31
0.0
  0
LINE
  5
ACD
330
9E0
100
AcDbEntity
  8
0
 62
     0
100
AcDbLine
 10
27.52110582087758
 20
5.765978706744078
 30
0.0
 11
28.92110582087758
 21
7.165978706744112
 31
0.0
  0
LINE
  5
ACE
330
9E0
100
AcDbEntity
  8
0
 62
     0
100
AcDbLine
 10
33.12112917825132
 20
11.36600206411785
 30
0.0
 11
33.38010409620946
 21
11.62497698207596
 31
0.0
  0
LINE
  5
ACF
330
9E0
100
AcDbEntity
  8
0
 62
     0
100
AcDbLine
 10
25.36032800552161
 20
3.605200891388108
 30
0.0
 11
26.44090526893918
 21
4.685778154805717
 31
0.0
  0
LINE
  5
AD0
330
9E0
100
AcDbEntity
  8
0
 62
     0
100
AcDbLine
 10
27.52110582087755
 20
6.214991512797553
 30
0.0
 11
28.92110582087758
 21
7.614991512797587
 31
0.0
  0
LINE
  5
AD1
330
9E0
100
AcDbEntity
  8
0
 62
     0
100
AcDbLine
 10
30.67110582087755
 20
9.364991512797558
 30
0.0
 11
32.07110582087759
 21
10.76499151279759
 31
0.0
  0
LINE
  5
AD2
330
9E0
100
AcDbEntity
  8
0
 62
     0
100
AcDbLine
 10
24.8811146475297
 20
3.575000339449701
 30
0.0
 11
26.47110582087757
 21
5.164991512797541
 31
0.0
  0
LINE
  5
AD3
330
9E0
100
AcDbEntity
  8
0
 62
     0
100
AcDbLine
 10
27.52110582087758
 20
6.664004318850999
 30
0.0
 11
28.92110582087761
 21
8.064004318851004
 31
0.0
  0
LINE
  5
AD4
330
9E0
100
AcDbEntity
  8
0
 62
     0
100
AcDbLine
 10
30.67110582087758
 20
9.814004318850976
 30
0.0
 11
32.07110582087762
 21
11.21400431885101
 31
0.0
  0
LINE
  5
AD5
330
9E0
100
AcDbEntity
  8
0
 62
     0
100
AcDbLine
 10
24.43210184147622
 20
3.575000339449644
 30
0.0
 11
26.47110582087762
 21
5.614004318851016
 31
0.0
  0
LINE
  5
AD6
330
9E0
100
AcDbEntity
  8
0
 62
     0
100
AcDbLine
 10
27.52110582087758
 20
7.113017124904445
 30
0.0
 11
28.92110582087758
 21
8.513017124904479
 31
0.0
  0
LINE
  5
AD7
330
9E0
100
AcDbEntity
  8
0
 62
     0
100
AcDbLine
 10
30.67110582087755
 20
10.26301712490445
 30
0.0
 11
31.97423709346057
 21
11.56614839748746
 31
0.0
  0
LINE
  5
AD8
330
9E0
100
AcDbEntity
  8
0
 62
     0
100
AcDbLine
 10
23.98308903542277
 20
3.575000339449672
 30
0.0
 11
26.46394652067113
 21
6.055857824698023
 31
0.0
  0
LINE
  5
AD9
330
9E0
100
AcDbEntity
  8
0
 62
     0
100
AcDbLine
 10
27.52110582087755
 20
7.562029930957919
 30
0.0
 11
28.92110582087758
 21
8.962029930957953
 31
0.0
  0
LINE
  5
ADA
330
9E0
100
AcDbEntity
  8
0
 62
     0
100
AcDbLine
 10
30.67110582087755
 20
10.71202993095792
 30
0.0
 11
31.58407622936931
 21
11.62500033944968
 31
0.0
  0
LINE
  5
ADB
330
9E0
100
AcDbEntity
  8
0
 62
     0
100
AcDbLine
 10
23.5340762293693
 20
3.575000339449672
 30
0.0
 11
26.39649033535675
 21
6.437414445437099
 31
0.0
  0
LINE
  5
ADC
330
9E0
100
AcDbEntity
  8
0
 62
     0
100
AcDbLine
 10
27.52110582087758
 20
8.011042737011337
 30
0.0
 11
28.92110582087758
 21
9.411042737011371
 31
0.0
  0
LINE
  5
ADD
330
9E0
100
AcDbEntity
  8
0
 62
     0
100
AcDbLine
 10
25.07110582087761
 20
5.561042737011405
 30
0.0
 11
26.27619660689748
 21
6.766133523031243
 31
0.0
  0
LINE
  5
ADE
330
9E0
100
AcDbEntity
  8
0
 62
     0
100
AcDbLine
 10
30.67110582087758
 20
11.16104273701134
 30
0.0
 11
31.13506342331592
 21
11.62500033944971
 31
0.0
  0
LINE
  5
ADF
330
9E0
100
AcDbEntity
  8
0
 62
     0
100
AcDbLine
 10
23.14919109988142
 20
3.639128016015206
 30
0.0
 11
24.48506342331586
 21
4.97500033944965
 31
0.0
  0
LINE
  5
AE0
330
9E0
100
AcDbEntity
  8
0
 62
     0
100
AcDbLine
 10
25.06117053331397
 20
6.000120255501201
 30
0.0
 11
26.11444695446721
 21
7.053396676654443
 31
0.0
  0
LINE
  5
AE1
330
9E0
100
AcDbEntity
  8
0
 62
     0
100
AcDbLine
 10
27.52110582087761
 20
8.460055543064839
 30
0.0
 11
28.92110582087761
 21
9.860055543064873
 31
0.0
  0
LINE
  5
AE2
330
9E0
100
AcDbEntity
  8
0
 62
     0
100
AcDbLine
 10
23.05860582087757
 20
3.997555543064834
 30
0.0
 11
24.03605061726239
 21
4.97500033944965
 31
0.0
  0
LINE
  5
AE3
330
9E0
100
AcDbEntity
  8
0
 62
     0
100
AcDbLine
 10
24.92397811474452
 20
6.311940642985263
 30
0.0
 11
25.9165113955033
 21
7.304473923744041
 31
0.0
  0
LINE
  5
AE4
330
9E0
100
AcDbEntity
  8
0
 62
     0
100
AcDbLine
 10
27.52110582087758
 20
8.909068349118314
 30
0.0
 11
28.92110582087761
 21
10.30906834911834
 31
0.0
  0
LINE
  5
AE5
330
9E0
100
AcDbEntity
  8
0
 62
     0
100
AcDbLine
 10
23.05860582087757
 20
4.44656834911828
 30
0.0
 11
23.58703781120894
 21
4.975000339449678
 31
0.0
  0
LINE
  5
AE6
330
9E0
100
AcDbEntity
  8
0
 62
     0
100
AcDbLine
 10
27.52110582087761
 20
9.35808115517176
 30
0.0
 11
28.92110582087764
 21
10.75808115517176
 31
0.0
  0
LINE
  5
AE7
330
9E0
100
AcDbEntity
  8
0
 62
     0
100
AcDbLine
 10
24.70334066618599
 20
6.540316000480117
 30
0.0
 11
25.69329015984718
 21
7.530265494141332
 31
0.0
  0
LINE
  5
AE8
330
9E0
100
AcDbEntity
  8
0
 62
     0
100
AcDbLine
 10
24.47883426315925
 20
6.764822403506855
 30
0.0
 11
25.46878375682041
 21
7.754771897168012
 31
0.0
  0
LINE
  5
AE9
330
9E0
100
AcDbEntity
  8
0
 62
     0
100
AcDbLine
 10
27.52110582087758
 20
9.807093961225206
 30
0.0
 11
28.92110582087761
 21
11.20709396122524
 31
0.0
  0
LINE
  5
AEA
330
9E0
100
AcDbEntity
  8
0
 62
     0
100
AcDbLine
 10
21.28901219910204
 20
3.575000339449672
 30
0.0
 11
21.7461058208776
 21
4.0320939612252
 31
0.0
  0
LINE
  5
AEB
330
9E0
100
AcDbEntity
  8
0
 62
     0
100
AcDbLine
 10
24.25432786013255
 20
6.989328806533649
 30
0.0
 11
25.24427735379367
 21
7.979278300194749
 31
0.0
  0
LINE
  5
AEC
330
9E0
100
AcDbEntity
  8
0
 62
     0
100
AcDbLine
 10
27.52110582087758
 20
10.25610676727868
 30
0.0
 11
28.82801536682828
 21
11.56301631322935
 31
0.0
  0
LINE
  5
AED
330
9E0
100
AcDbEntity
  8
0
 62
     0
100
AcDbLine
 10
20.8399993930486
 20
3.575000339449672
 30
0.0
 11
21.74610582087757
 21
4.481106767278674
 31
0.0
  0
LINE
  5
AEE
330
9E0
100
AcDbEntity
  8
0
 62
     0
100
AcDbLine
 10
24.02982145710578
 20
7.213835209560329
 30
0.0
 11
25.01977095076694
 21
8.203784703221487
 31
0.0
  0
LINE
  5
AEF
330
9E0
100
AcDbEntity
  8
0
 62
     0
100
AcDbLine
 10
27.52110582087758
 20
10.70511957333212
 30
0.0
 11
28.44098658699513
 21
11.62500033944971
 31
0.0
  0
LINE
  5
AF0
330
9E0
100
AcDbEntity
  8
0
 62
     0
100
AcDbLine
 10
20.44679215592609
 20
3.630805908380636
 30
0.0
 11
21.7461058208776
 21
4.930119573332177
 31
0.0
  0
LINE
  5
AF1
330
9E0
100
AcDbEntity
  8
0
 62
     0
100
AcDbLine
 10
23.80531505407907
 20
7.438341612587038
 30
0.0
 11
24.79526454774023
 21
8.428291106248195
 31
0.0
  0
LINE
  5
AF2
330
9E0
100
AcDbEntity
  8
0
 62
     0
100
AcDbLine
 10
27.52110582087758
 20
11.15413237938557
 30
0.0
 11
27.99197378094172
 21
11.62500033944968
 31
0.0
  0
LINE
  5
AF3
330
9E0
100
AcDbEntity
  8
0
 62
     0
100
AcDbLine
 10
20.34610582087756
 20
3.979132379385532
 30
0.0
 11
21.74610582087763
 21
5.379132379385595
 31
0.0
  0
LINE
  5
AF4
330
9E0
100
AcDbEntity
  8
0
 62
     0
100
AcDbLine
 10
23.58080865105233
 20
7.662848015613775
 30
0.0
 11
24.57075814471349
 21
8.652797509274932
 31
0.0
  0
LINE
  5
AF5
330
9E0
100
AcDbEntity
  8
0
 62
     0
100
AcDbLine
 10
20.34610582087759
 20
4.428145185439035
 30
0.0
 11
21.7461058208776
 21
5.828145185439069
 31
0.0
  0
LINE
  5
AF6
330
9E0
100
AcDbEntity
  8
0
 62
     0
100
AcDbLine
 10
23.35731670053167
 20
7.88836887114661
 30
0.0
 11
24.34930346722268
 21
8.880355637837595
 31
0.0
  0
LINE
  5
AF7
330
9E0
100
AcDbEntity
  8
0
 62
     0
100
AcDbLine
 10
20.34610582087756
 20
4.877157991492509
 30
0.0
 11
21.7461058208776
 21
6.277157991492543
 31
0.0
  0
LINE
  5
AF8
330
9E0
100
AcDbEntity
  8
0
 62
     0
100
AcDbLine
 10
25.69394816883476
 20
10.22500033944967
 30
0.0
 11
26.20860582087757
 21
10.73965799149252
 31
0.0
  0
LINE
  5
AF9
330
9E0
100
AcDbEntity
  8
0
 62
     0
100
AcDbLine
 10
19.0997777085225
 20
3.630829879137422
 30
0.0
 11
19.14460388925002
 21
3.675656059864962
 31
0.0
  0
LINE
  5
AFA
330
9E0
100
AcDbEntity
  8
0
 62
     0
100
AcDbLine
 10
23.15831561112068
 20
8.138380587789043
 30
0.0
 11
24.20813274982998
 21
9.188197726498344
 31
0.0
  0
LINE
  5
AFB
330
9E0
100
AcDbEntity
  8
0
 62
     0
100
AcDbLine
 10
20.34610582087759
 20
5.326170797545927
 30
0.0
 11
21.74610582087763
 21
6.726170797545961
 31
0.0
  0
LINE
  5
AFC
330
9E0
100
AcDbEntity
  8
0
 62
     0
100
AcDbLine
 10
25.24493536278132
 20
10.22500033944967
 30
0.0
 11
26.20860582087761
 21
11.18867079754593
 31
0.0
  0
LINE
  5
AFD
330
9E0
100
AcDbEntity
  8
0
 62
     0
100
AcDbLine
 10
18.59493536278128
 20
3.575000339449644
 30
0.0
 11
19.12782491093452
 21
4.107889887602851
 31
0.0
  0
LINE
  5
AFE
330
9E0
100
AcDbEntity
  8
0
 62
     0
100
AcDbLine
 10
22.99539847892233
 20
8.424476261644173
 30
0.0
 11
24.19610582087765
 21
9.625183603599452
 31
0.0
  0
LINE
  5
AFF
330
9E0
100
AcDbEntity
  8
0
 62
     0
100
AcDbLine
 10
20.34610582087756
 20
5.775183603599401
 30
0.0
 11
21.7461058208776
 21
7.175183603599435
 31
0.0
  0
LINE
  5
B00
330
9E0
100
AcDbEntity
  8
0
 62
     0
100
AcDbLine
 10
24.79592255672787
 20
10.22500033944967
 30
0.0
 11
26.12527135497868
 21
11.55434913770051
 31
0.0
  0
LINE
  5
B01
330
9E0
100
AcDbEntity
  8
0
 62
     0
100
AcDbLine
 10
18.14592255672783
 20
3.575000339449644
 30
0.0
 11
19.0200618374817
 21
4.449139620203538
 31
0.0
  0
LINE
  5
B02
330
9E0
100
AcDbEntity
  8
0
 62
     0
100
AcDbLine
 10
20.34610582087756
 20
6.224196409652876
 30
0.0
 11
21.7461058208776
 21
7.624196409652881
 31
0.0
  0
LINE
  5
B03
330
9E0
100
AcDbEntity
  8
0
 62
     0
100
AcDbLine
 10
22.87370744758729
 20
8.7517980363626
 30
0.0
 11
25.74690975067443
 21
11.62500033944971
 31
0.0
  0
LINE
  5
B04
330
9E0
100
AcDbEntity
  8
0
 62
     0
100
AcDbLine
 10
17.84991540140029
 20
3.728005990175603
 30
0.0
 11
18.91229876402886
 21
4.790389352804169
 31
0.0
  0
LINE
  5
B05
330
9E0
100
AcDbEntity
  8
0
 62
     0
100
AcDbLine
 10
20.34610582087756
 20
6.673209215706322
 30
0.0
 11
21.74610582087757
 21
8.073209215706356
 31
0.0
  0
LINE
  5
B06
330
9E0
100
AcDbEntity
  8
0
 62
     0
100
AcDbLine
 10
22.80435401804445
 20
9.131457412873231
 30
0.0
 11
25.29789694462095
 21
11.62500033944974
 31
0.0
  0
LINE
  5
B07
330
9E0
100
AcDbEntity
  8
0
 62
     0
100
AcDbLine
 10
17.74053569057599
 20
4.067639085404778
 30
0.0
 11
18.80453569057598
 21
5.131639085404771
 31
0.0
  0
LINE
  5
B08
330
9E0
100
AcDbEntity
  8
0
 62
     0
100
AcDbLine
 10
20.34610582087756
 20
7.122222021759768
 30
0.0
 11
21.7461058208776
 21
8.522222021759802
 31
0.0
  0
LINE
  5
B09
330
9E0
100
AcDbEntity
  8
0
 62
     0
100
AcDbLine
 10
22.79610582087761
 20
9.572222021759785
 30
0.0
 11
24.84888413856748
 21
11.62500033944968
 31
0.0
  0
LINE
  5
B0A
330
9E0
100
AcDbEntity
  8
0
 62
     0
100
AcDbLine
 10
17.63277261712318
 20
4.40888881800538
 30
0.0
 11
18.69677261712323
 21
5.472888818005401
 31
0.0
  0
LINE
  5
B0B
330
9E0
100
AcDbEntity
  8
0
 62
     0
100
AcDbLine
 10
20.34610582087759
 20
7.57123482781327
 30
0.0
 11
21.7461058208776
 21
8.971234827813248
 31
0.0
  0
LINE
  5
B0C
330
9E0
100
AcDbEntity
  8
0
 62
     0
100
AcDbLine
 10
22.79610582087758
 20
10.02123482781325
 30
0.0
 11
24.39987133251404
 21
11.62500033944968
 31
0.0
  0
LINE
  5
B0D
330
9E0
100
AcDbEntity
  8
0
 62
     0
100
AcDbLine
 10
17.5250095436703
 20
4.750138550605981
 30
0.0
 11
18.58900954367038
 21
5.814138550606031
 31
0.0
  0
LINE
  5
B0E
330
9E0
100
AcDbEntity
  8
0
 62
     0
100
AcDbLine
 10
20.34610582087759
 20
8.020247633866716
 30
0.0
 11
21.74610582087757
 21
9.420247633866722
 31
0.0
  0
LINE
  5
B0F
330
9E0
100
AcDbEntity
  8
0
 62
     0
100
AcDbLine
 10
17.41724647021749
 20
5.09138828320664
 30
0.0
 11
18.48124647021754
 21
6.155388283206661
 31
0.0
  0
LINE
  5
B10
330
9E0
100
AcDbEntity
  8
0
 62
     0
100
AcDbLine
 10
22.82276415593821
 20
10.49690596892736
 30
0.0
 11
23.92420019139987
 21
11.59834200438902
 31
0.0
  0
LINE
  5
B11
330
9E0
100
AcDbEntity
  8
0
 62
     0
100
AcDbLine
 10
15.90085852646055
 20
3.575000339449672
 30
0.0
 11
16.32110582087759
 21
3.995247633866739
 31
0.0
  0
LINE
  5
B12
330
9E0
100
AcDbEntity
  8
0
 62
     0
100
AcDbLine
 10
17.3094833967647
 20
5.432638015807242
 30
0.0
 11
18.37348339676466
 21
6.496638015807235
 31
0.0
  0
LINE
  5
B13
330
9E0
100
AcDbEntity
  8
0
 62
     0
100
AcDbLine
 10
20.34610582087759
 20
8.469260439920162
 30
0.0
 11
21.7461058208776
 21
9.86926043992014
 31
0.0
  0
LINE
  5
B14
330
9E0
100
AcDbEntity
  8
0
 62
     0
100
AcDbLine
 10
15.4518457204071
 20
3.575000339449672
 30
0.0
 11
16.32110582087761
 21
4.444260439920185
 31
0.0
  0
LINE
  5
B15
330
9E0
100
AcDbEntity
  8
0
 62
     0
100
AcDbLine
 10
17.20172032331186
 20
5.773887748407872
 30
0.0
 11
18.26572032331188
 21
6.837887748407922
 31
0.0
  0
LINE
  5
B16
330
9E0
100
AcDbEntity
  8
0
 62
     0
100
AcDbLine
 10
20.34610582087759
 20
8.918273245973637
 30
0.0
 11
21.74610582087757
 21
10.31827324597361
 31
0.0
  0
LINE
  5
B17
330
9E0
100
AcDbEntity
  8
0
 62
     0
100
AcDbLine
 10
15.04340778817925
 20
3.615575213275292
 30
0.0
 11
16.32110582087761
 21
4.893273245973631
 31
0.0
  0
LINE
  5
B18
330
9E0
100
AcDbEntity
  8
0
 62
     0
100
AcDbLine
 10
17.09395724985895
 20
6.115137481008474
 30
0.0
 11
18.15795724985903
 21
7.179137481008552
 31
0.0
  0
LINE
  5
B19
330
9E0
100
AcDbEntity
  8
0
 62
     0
100
AcDbLine
 10
20.34610582087759
 20
9.367286052027083
 30
0.0
 11
21.74610582087757
 21
10.76728605202708
 31
0.0
  0
LINE
  5
B1A
330
9E0
100
AcDbEntity
  8
0
 62
     0
100
AcDbLine
 10
14.92110582087755
 20
3.942286052027071
 30
0.0
 11
16.32110582087759
 21
5.342286052027105
 31
0.0
  0
LINE
  5
B1B
330
9E0
100
AcDbEntity
  8
0
 62
     0
100
AcDbLine
 10
16.9861941764062
 20
6.456387213609104
 30
0.0
 11
18.05019417640622
 21
7.520387213609154
 31
0.0
  0
LINE
  5
B1C
330
9E0
100
AcDbEntity
  8
0
 62
     0
100
AcDbLine
 10
20.34610582087759
 20
9.816298858080529
 30
0.0
 11
21.74610582087757
 21
11.2162988580805
 31
0.0
  0
LINE
  5
B1D
330
9E0
100
AcDbEntity
  8
0
 62
     0
100
AcDbLine
 10
14.92110582087758
 20
4.391298858080517
 30
0.0
 11
16.32110582087761
 21
5.791298858080523
 31
0.0
  0
LINE
  5
B1E
330
9E0
100
AcDbEntity
  8
0
 62
     0
100
AcDbLine
 10
16.86879478292033
 20
6.788000626176739
 30
0.0
 11
18.18394181688577
 21
8.103147660142184
 31
0.0
  0
LINE
  5
B1F
330
9E0
100
AcDbEntity
  8
0
 62
     0
100
AcDbLine
 10
20.34610582087759
 20
10.26531166413397
 30
0.0
 11
21.6479681096284
 21
11.56717395288478
 31
0.0
  0
LINE
  5
B20
330
9E0
100
AcDbEntity
  8
0
 62
     0
100
AcDbLine
 10
14.92110582087758
 20
4.840311664133963
 30
0.0
 11
16.32110582087759
 21
6.240311664133997
 31
0.0
  0
LINE
  5
B21
330
9E0
100
AcDbEntity
  8
0
 62
     0
100
AcDbLine
 10
16.52520209798663
 20
6.893420747296516
 30
0.0
 11
18.39117849660274
 21
8.759397145912629
 31
0.0
  0
LINE
  5
B22
330
9E0
100
AcDbEntity
  8
0
 62
     0
100
AcDbLine
 10
14.92110582087755
 20
5.289324470187438
 30
0.0
 11
16.32768541303076
 21
6.695904062340616
 31
0.0
  0
LINE
  5
B23
330
9E0
100
AcDbEntity
  8
0
 62
     0
100
AcDbLine
 10
20.34610582087756
 20
10.71432447018745
 30
0.0
 11
21.2567816901398
 21
11.62500033944968
 31
0.0
  0
LINE
  5
B24
330
9E0
100
AcDbEntity
  8
0
 62
     0
100
AcDbLine
 10
13.20678169013979
 20
3.575000339449644
 30
0.0
 11
13.69610582087761
 21
4.0643244701875
 31
0.0
  0
LINE
  5
B25
330
9E0
100
AcDbEntity
  8
0
 62
     0
100
AcDbLine
 10
14.92110582087755
 20
5.738337276240883
 30
0.0
 11
18.59841517631972
 21
9.415646631683046
 31
0.0
  0
LINE
  5
B26
330
9E0
100
AcDbEntity
  8
0
 62
     0
100
AcDbLine
 10
20.34610582087759
 20
11.16333727624095
 30
0.0
 11
20.80776888408633
 21
11.62500033944968
 31
0.0
  0
LINE
  5
B27
330
9E0
100
AcDbEntity
  8
0
 62
     0
100
AcDbLine
 10
12.75776888408631
 20
3.575000339449672
 30
0.0
 11
13.69610582087761
 21
4.513337276240974
 31
0.0
  0
LINE
  5
B28
330
9E0
100
AcDbEntity
  8
0
 62
     0
100
AcDbLine
 10
14.92110582087755
 20
6.187350082294329
 30
0.0
 11
18.80565185603674
 21
10.07189611745349
 31
0.0
  0
LINE
  5
B29
330
9E0
100
AcDbEntity
  8
0
 62
     0
100
AcDbLine
 10
12.31459639020792
 20
3.580840651624697
 30
0.0
 11
13.62543867907453
 21
4.891682940491278
 31
0.0
  0
LINE
  5
B2A
330
9E0
100
AcDbEntity
  8
0
 62
     0
100
AcDbLine
 10
14.92110582087755
 20
6.636362888347804
 30
0.0
 11
16.58474327197942
 21
8.300000339449667
 31
0.0
  0
LINE
  5
B2B
330
9E0
100
AcDbEntity
  8
0
 62
     0
100
AcDbLine
 10
16.96673468959977
 20
8.681991757070022
 30
0.0
 11
19.01288853575374
 21
10.72814560322396
 31
0.0
  0
LINE
  5
B2C
330
9E0
100
AcDbEntity
  8
0
 62
     0
100
AcDbLine
 10
11.93051613148443
 20
3.645773198954657
 30
0.0
 11
13.25974327197946
 21
4.975000339449678
 31
0.0
  0
LINE
  5
B2D
330
9E0
100
AcDbEntity
  8
0
 62
     0
100
AcDbLine
 10
14.92110582087758
 20
7.085375694401307
 30
0.0
 11
16.33010110623175
 21
8.494370979755444
 31
0.0
  0
LINE
  5
B2E
330
9E0
100
AcDbEntity
  8
0
 62
     0
100
AcDbLine
 10
17.17397136931674
 20
9.338241242840439
 30
0.0
 11
19.20042426165443
 21
11.36469413517815
 31
0.0
  0
LINE
  5
B2F
330
9E0
100
AcDbEntity
  8
0
 62
     0
100
AcDbLine
 10
11.59994900307123
 20
3.764218876594952
 30
0.0
 11
12.81073046592598
 21
4.975000339449707
 31
0.0
  0
LINE
  5
B30
330
9E0
100
AcDbEntity
  8
0
 62
     0
100
AcDbLine
 10
14.92110582087761
 20
7.534388500454724
 30
0.0
 11
16.32110582087761
 21
8.934388500454758
 31
0.0
  0
LINE
  5
B31
330
9E0
100
AcDbEntity
  8
0
 62
     0
100
AcDbLine
 10
17.38120804903371
 20
9.994490728610855
 30
0.0
 11
19.00341832536983
 21
11.61670100494697
 31
0.0
  0
LINE
  5
B32
330
9E0
100
AcDbEntity
  8
0
 62
     0
100
AcDbLine
 10
11.31114736098908
 20
3.924430040566193
 30
0.0
 11
12.36917829023551
 21
4.982460969812649
 31
0.0
  0
LINE
  5
B33
330
9E0
100
AcDbEntity
  8
0
 62
     0
100
AcDbLine
 10
14.92110582087758
 20
7.983401306508199
 30
0.0
 11
16.32110582087761
 21
9.383401306508233
 31
0.0
  0
LINE
  5
B34
330
9E0
100
AcDbEntity
  8
0
 62
     0
100
AcDbLine
 10
17.58844472875071
 20
10.65074021438132
 30
0.0
 11
18.56270485381907
 21
11.62500033944968
 31
0.0
  0
LINE
  5
B35
330
9E0
100
AcDbEntity
  8
0
 62
     0
100
AcDbLine
 10
11.05866987779805
 20
4.120965363428638
 30
0.0
 11
12.05202021972636
 21
5.114315705356943
 31
0.0
  0
LINE
  5
B36
330
9E0
100
AcDbEntity
  8
0
 62
     0
100
AcDbLine
 10
14.92110582087758
 20
8.432414112561644
 30
0.0
 11
16.32110582087761
 21
9.832414112561679
 31
0.0
  0
LINE
  5
B37
330
9E0
100
AcDbEntity
  8
0
 62
     0
100
AcDbLine
 10
13.25192288676584
 20
6.763231178449927
 30
0.0
 11
13.83287498187738
 21
7.344183273561469
 31
0.0
  0
LINE
  5
B38
330
9E0
100
AcDbEntity
  8
0
 62
     0
100
AcDbLine
 10
17.79568140846768
 20
11.30698970015177
 30
0.0
 11
18.11369204776562
 21
11.62500033944971
 31
0.0
  0
LINE
  5
B39
330
9E0
100
AcDbEntity
  8
0
 62
     0
100
AcDbLine
 10
10.84045134113313
 20
4.35175963281722
 30
0.0
 11
11.84689474409026
 21
5.358203035774351
 31
0.0
  0
LINE
  5
B3A
330
9E0
100
AcDbEntity
  8
0
 62
     0
100
AcDbLine
 10
12.78943646595092
 20
6.74975756368849
 30
0.0
 11
13.84634859663882
 21
7.806669694376353
 31
0.0
  0
LINE
  5
B3B
330
9E0
100
AcDbEntity
  8
0
 62
     0
100
AcDbLine
 10
14.92110582087755
 20
8.881426918615119
 30
0.0
 11
16.32110582087759
 21
10.28142691861515
 31
0.0
  0
LINE
  5
B3C
330
9E0
100
AcDbEntity
  8
0
 62
     0
100
AcDbLine
 10
10.65694172866165
 20
4.617262826399183
 30
0.0
 11
11.7711058208776
 21
5.73142691861517
 31
0.0
  0
LINE
  5
B3D
330
9E0
100
AcDbEntity
  8
0
 62
     0
100
AcDbLine
 10
12.48236318124082
 20
6.891697085031779
 30
0.0
 11
13.7044090752955
 21
8.113742979086481
 31
0.0
  0
LINE
  5
B3E
330
9E0
100
AcDbEntity
  8
0
 62
     0
100
AcDbLine
 10
14.92110582087758
 20
9.330439724668565
 30
0.0
 11
16.32110582087761
 21
10.73043972466857
 31
0.0
  0
LINE
  5
B3F
330
9E0
100
AcDbEntity
  8
0
 62
     0
100
AcDbLine
 10
10.51128297369928
 20
4.92061687749026
 30
0.0
 11
11.7711058208776
 21
6.180439724668588
 31
0.0
  0
LINE
  5
B40
330
9E0
100
AcDbEntity
  8
0
 62
     0
100
AcDbLine
 10
12.26338321774596
 20
7.121729927590422
 30
0.0
 11
13.47437623273688
 21
8.332722942581312
 31
0.0
  0
LINE
  5
B41
330
9E0
100
AcDbEntity
  8
0
 62
     0
100
AcDbLine
 10
14.92110582087758
 20
9.779452530722011
 30
0.0
 11
16.32110582087759
 21
11.17945253072204
 31
0.0
  0
LINE
  5
B42
330
9E0
100
AcDbEntity
  8
0
 62
     0
100
AcDbLine
 10
10.41071429161195
 20
5.269061001456407
 30
0.0
 11
11.7711058208776
 21
6.629452530722062
 31
0.0
  0
LINE
  5
B43
330
9E0
100
AcDbEntity
  8
0
 62
     0
100
AcDbLine
 10
12.13535785154178
 20
7.442717367439684
 30
0.0
 11
13.15338879288759
 21
8.460748308785525
 31
0.0
  0
LINE
  5
B44
330
9E0
100
AcDbEntity
  8
0
 62
     0
100
AcDbLine
 10
10.37110582087751
 20
5.678465336775445
 30
0.0
 11
11.7711058208776
 21
7.078465336775508
 31
0.0
  0
LINE
  5
B45
330
9E0
100
AcDbEntity
  8
0
 62
     0
100
AcDbLine
 10
14.92110582087755
 20
10.22846533677548
 30
0.0
 11
16.24248076670005
 21
11.54984028259798
 31
0.0
  0
LINE
  5
B46
330
9E0
100
AcDbEntity
  8
0
 62
     0
100
AcDbLine
 10
8.328107441939778
 20
3.635466957837707
 30
0.0
 11
9.260639202489642
 21
4.56799871838757
 31
0.0
  0
LINE
  5
B47
330
9E0
100
AcDbEntity
  8
0
 62
     0
100
AcDbLine
 10
12.19456439328217
 20
7.950936715233524
 30
0.0
 11
12.64516944509378
 21
8.401541767045131
 31
0.0
  0
LINE
  5
B48
330
9E0
100
AcDbEntity
  8
0
 62
     0
100
AcDbLine
 10
10.37110582087754
 20
6.127478142828891
 30
0.0
 11
11.7711058208776
 21
7.527478142828954
 31
0.0
  0
LINE
  5
B49
330
9E0
100
AcDbEntity
  8
0
 62
     0
100
AcDbLine
 10
14.92110582087758
 20
10.6774781428289
 30
0.0
 11
15.86862801749836
 21
11.62500033944971
 31
0.0
  0
LINE
  5
B4A
330
9E0
100
AcDbEntity
  8
0
 62
     0
100
AcDbLine
 10
7.818628017498298
 20
3.575000339449644
 30
0.0
 11
9.321105820877619
 21
5.077478142828965
 31
0.0
  0
LINE
  5
B4B
330
9E0
100
AcDbEntity
  8
0
 62
     0
100
AcDbLine
 10
10.37110582087754
 20
6.576490948882337
 30
0.0
 11
11.7711058208776
 21
7.976490948882428
 31
0.0
  0
LINE
  5
B4C
330
9E0
100
AcDbEntity
  8
0
 62
     0
100
AcDbLine
 10
14.92110582087755
 20
11.12649094888237
 30
0.0
 11
15.41961521144486
 21
11.62500033944968
 31
0.0
  0
LINE
  5
B4D
330
9E0
100
AcDbEntity
  8
0
 62
     0
100
AcDbLine
 10
7.369615211444852
 20
3.575000339449644
 30
0.0
 11
9.321105820877619
 21
5.52649094888244
 31
0.0
  0
LINE
  5
B4E
330
9E0
100
AcDbEntity
  8
0
 62
     0
100
AcDbLine
 10
10.37110582087751
 20
7.025503754935812
 30
0.0
 11
11.77110582087758
 21
8.425503754935874
 31
0.0
  0
LINE
  5
B4F
330
9E0
100
AcDbEntity
  8
0
 62
     0
100
AcDbLine
 10
6.920602405391377
 20
3.575000339449672
 30
0.0
 11
9.319136144597024
 21
5.973534078655319
 31
0.0
  0
LINE
  5
B50
330
9E0
100
AcDbEntity
  8
0
 62
     0
100
AcDbLine
 10
10.37110582087757
 20
7.474516560989314
 30
0.0
 11
11.7711058208776
 21
8.874516560989349
 31
0.0
  0
LINE
  5
B51
330
9E0
100
AcDbEntity
  8
0
 62
     0
100
AcDbLine
 10
13.12158959933796
 20
10.2250003394497
 30
0.0
 11
13.69610582087764
 21
10.79951656098936
 31
0.0
  0
LINE
  5
B52
330
9E0
100
AcDbEntity
  8
0
 62
     0
100
AcDbLine
 10
6.471589599337931
 20
3.575000339449672
 30
0.0
 11
9.264305226436363
 21
6.367715966548104
 31
0.0
  0
LINE
  5
B53
330
9E0
100
AcDbEntity
  8
0
 62
     0
100
AcDbLine
 10
10.37110582087757
 20
7.92352936704276
 30
0.0
 11
11.7711058208776
 21
9.323529367042766
 31
0.0
  0
LINE
  5
B54
330
9E0
100
AcDbEntity
  8
0
 62
     0
100
AcDbLine
 10
7.921105820877585
 20
5.473529367042772
 30
0.0
 11
9.153135854414301
 21
6.705559400579488
 31
0.0
  0
LINE
  5
B55
330
9E0
100
AcDbEntity
  8
0
 62
     0
100
AcDbLine
 10
12.67257679328452
 20
10.22500033944967
 30
0.0
 11
13.69610582087761
 21
11.2485293670428
 31
0.0
  0
LINE
  5
B56
330
9E0
100
AcDbEntity
  8
0
 62
     0
100
AcDbLine
 10
6.051439730914438
 20
3.603863277079625
 30
0.0
 11
7.42257679328452
 21
4.975000339449678
 31
0.0
  0
LINE
  5
B57
330
9E0
100
AcDbEntity
  8
0
 62
     0
100
AcDbLine
 10
10.37110582087754
 20
8.372542173096206
 30
0.0
 11
11.85401317376744
 21
9.855449525986102
 31
0.0
  0
LINE
  5
B58
330
9E0
100
AcDbEntity
  8
0
 62
     0
100
AcDbLine
 10
7.920026275072984
 20
5.921462627291617
 30
0.0
 11
8.998920087078289
 21
7.00035643929695
 31
0.0
  0
LINE
  5
B59
330
9E0
100
AcDbEntity
  8
0
 62
     0
100
AcDbLine
 10
12.14065663434121
 20
10.14209298655987
 30
0.0
 11
13.57937211341772
 21
11.58080846563635
 31
0.0
  0
LINE
  5
B5A
330
9E0
100
AcDbEntity
  8
0
 62
     0
100
AcDbLine
 10
5.908605820877568
 20
3.910042173096229
 30
0.0
 11
6.973563987231045
 21
4.975000339449707
 31
0.0
  0
LINE
  5
B5B
330
9E0
100
AcDbEntity
  8
0
 62
     0
100
AcDbLine
 10
7.810224765322629
 20
6.260673923594765
 30
0.0
 11
8.80779910465884
 21
7.258248262930976
 31
0.0
  0
LINE
  5
B5C
330
9E0
100
AcDbEntity
  8
0
 62
     0
100
AcDbLine
 10
10.37110582087754
 20
8.821554979149681
 30
0.0
 11
13.17455118117757
 21
11.62500033944971
 31
0.0
  0
LINE
  5
B5D
330
9E0
100
AcDbEntity
  8
0
 62
     0
100
AcDbLine
 10
5.908605820877568
 20
4.359054979149703
 30
0.0
 11
6.524551181177542
 21
4.975000339449678
 31
0.0
  0
LINE
  5
B5E
330
9E0
100
AcDbEntity
  8
0
 62
     0
100
AcDbLine
 10
7.597097351170219
 20
6.496559315495773
 30
0.0
 11
8.587046844831462
 21
7.486508809157015
 31
0.0
  0
LINE
  5
B5F
330
9E0
100
AcDbEntity
  8
0
 62
     0
100
AcDbLine
 10
10.37110582087757
 20
9.270567785203098
 30
0.0
 11
12.72553837512413
 21
11.62500033944968
 31
0.0
  0
LINE
  5
B60
330
9E0
100
AcDbEntity
  8
0
 62
     0
100
AcDbLine
 10
5.943081781887485
 20
4.842543746213038
 30
0.0
 11
6.041062414114293
 21
4.940524378439846
 31
0.0
  0
LINE
  5
B61
330
9E0
100
AcDbEntity
  8
0
 62
     0
100
AcDbLine
 10
10.38109337795586
 20
9.729568148334863
 30
0.0
 11
12.26653801199236
 21
11.61501278237139
 31
0.0
  0
LINE
  5
B62
330
9E0
100
AcDbEntity
  8
0
 62
     0
100
AcDbLine
 10
7.372590948143539
 20
6.721065718522567
 30
0.0
 11
8.362540441804725
 21
7.711015212183752
 31
0.0
  0
LINE
  5
B63
330
9E0
100
AcDbEntity
  8
0
 62
     0
100
AcDbLine
 10
10.53082509408875
 20
10.32831267052125
 30
0.0
 11
11.667793489806
 21
11.4652810662385
 31
0.0
  0
LINE
  5
B64
330
9E0
100
AcDbEntity
  8
0
 62
     0
100
AcDbLine
 10
7.148084545116802
 20
6.945572121549304
 30
0.0
 11
8.138034038777988
 21
7.93552161521049
 31
0.0
  0
LINE
  5
B65
330
9E0
100
AcDbEntity
  8
0
 62
     0
100
AcDbLine
 10
6.923578142090093
 20
7.170078524576013
 30
0.0
 11
7.913527635751279
 21
8.160028018237198
 31
0.0
  0
LINE
  5
B66
330
9E0
100
AcDbEntity
  8
0
 62
     0
100
AcDbLine
 10
6.699071739063356
 20
7.39458492760275
 30
0.0
 11
7.689021232724542
 21
8.384534421263936
 31
0.0
  0
LINE
  5
B67
330
9E0
100
AcDbEntity
  8
0
 62
     0
100
AcDbLine
 10
6.474565336036562
 20
7.61909133062943
 30
0.0
 11
7.464514829697804
 21
8.609040824290673
 31
0.0
  0
LINE
  5
B68
330
9E0
100
AcDbEntity
  8
0
 62
     0
100
AcDbLine
 10
8.631461538803364
 20
10.2250003394497
 30
0.0
 11
9.058605820877545
 21
10.65214462152388
 31
0.0
  0
LINE
  5
B69
330
9E0
100
AcDbEntity
  8
0
 62
     0
100
AcDbLine
 10
6.250100590023947
 20
7.84363939067029
 30
0.0
 11
7.240133411740174
 21
8.833672212386517
 31
0.0
  0
LINE
  5
B6A
330
9E0
100
AcDbEntity
  8
0
 62
     0
100
AcDbLine
 10
8.18244873274989
 20
10.22500033944965
 30
0.0
 11
9.058605820877602
 21
11.10115742757736
 31
0.0
  0
LINE
  5
B6B
330
9E0
100
AcDbEntity
  8
0
 62
     0
100
AcDbLine
 10
6.044366627748161
 20
8.086918234447892
 30
0.0
 11
7.075184971096206
 21
9.117736577795966
 31
0.0
  0
LINE
  5
B6C
330
9E0
100
AcDbEntity
  8
0
 62
     0
100
AcDbLine
 10
7.733435926696472
 20
10.22500033944967
 30
0.0
 11
9.01532637099703
 21
11.50689078375026
 31
0.0
  0
LINE
  5
B6D
330
9E0
100
AcDbEntity
  8
0
 62
     0
100
AcDbLine
 10
5.874136324616927
 20
8.365700737370133
 30
0.0
 11
7.046105820877585
 21
9.537670233630819
 31
0.0
  0
LINE
  5
B6E
330
9E0
100
AcDbEntity
  8
0
 62
     0
100
AcDbLine
 10
7.283189796057911
 20
10.22376701486459
 30
0.0
 11
8.684423120643003
 21
11.62500033944968
 31
0.0
  0
LINE
  5
B6F
330
9E0
100
AcDbEntity
  8
0
 62
     0
100
AcDbLine
 10
5.743789676750878
 20
8.684366895557559
 30
0.0
 11
7.047339145462672
 21
9.987916364269381
 31
0.0
  0
LINE
  5
B70
330
9E0
100
AcDbEntity
  8
0
 62
     0
100
AcDbLine
 10
5.662883695626845
 20
9.052473720486972
 30
0.0
 11
8.235410314589557
 21
11.62500033944968
 31
0.0
  0
LINE
  5
B71
330
9E0
100
AcDbEntity
  8
0
 62
     0
100
AcDbLine
 10
5.646105820877608
 20
9.48470865179118
 30
0.0
 11
7.786397508536083
 21
11.62500033944968
 31
0.0
  0
LINE
  5
B72
330
9E0
100
AcDbEntity
  8
0
 62
     0
100
AcDbLine
 10
5.646105820877579
 20
9.933721457844654
 30
0.0
 11
7.337384702482637
 21
11.62500033944968
 31
0.0
  0
LINE
  5
B73
330
9E0
100
AcDbEntity
  8
0
 62
     0
100
AcDbLine
 10
5.656201826096747
 20
10.39283026911727
 30
0.0
 11
6.878275891210051
 21
11.61490433423057
 31
0.0
  0
ENDBLK
  5
B75
330
9E0
100
AcDbEntity
  8
0
100
AcDbBlockEnd
  0
BLOCK
  5
227C
330
2271
100
AcDbEntity
  8
0
100
AcDbBlockBegin
  2
*D2
 70
     1
 10
0.0
 20
0.0
 30
0.0
  3
*D2
  1

  0
LINE
  5
2602
330
2271
100
AcDbEntity
  8
SUNPOU
 62
     4
100
AcDbLine
 10
134.771298011613
 20
132.9835665688875
 30
0.0
 11
134.7712733894809
 21
123.6087144042113
 31
0.0
  0
ARC
  5
2603
330
2271
100
AcDbEntity
  8
SUNPOU
 62
     4
100
AcDbCircle
 10
134.7713256263004
 20
143.4978311784801
 30
0.0
 40
18.3891167743374
100
AcDbArc
 50
279.3574781112803
 51
335.6423093429254
  0
INSERT
  5
2604
330
2271
100
AcDbEntity
  8
SUNPOU
 62
     4
100
AcDbBlockReference
  2
_OPEN
 10
134.7712773290842
 20
125.1087144042061
 30
0.0
 41
3.0
 42
3.0
 43
3.0
 50
184.6786638147603
  0
INSERT
  5
2605
330
2271
100
AcDbEntity
  8
SUNPOU
 62
     4
100
AcDbBlockReference
  2
_OPEN
 10
152.5338432857243
 20
138.7383582939191
 30
0.0
 41
3.0
 42
3.0
 43
3.0
 50
70.32112363944557
  0
MTEXT
  5
2606
330
2271
100
AcDbEntity
  8
SUNPOU
 62
     4
100
AcDbMText
 10
144.4439836783427
 20
130.8921293702985
 30
0.0
 40
3.0
 41
0.0
 71
     5
 72
     1
  1
\A1;75°
 11
0.7933544694278492
 21
0.6087599574864102
 31
0.0
  0
POINT
  5
2607
330
2271
100
AcDbEntity
  8
DEFPOINTS
 62
     0
100
AcDbPoint
 10
142.5428669932415
 20
126.8316150355717
 30
0.0
  0
POINT
  5
2608
330
2271
100
AcDbEntity
  8
DEFPOINTS
 62
     0
100
AcDbPoint
 10
194.3751759650466
 20
127.5269584147205
 30
0.0
  0
POINT
  5
2609
330
2271
100
AcDbEntity
  8
DEFPOINTS
 62
     0
100
AcDbPoint
 10
134.7714759650466
 20
200.7391584147205
 30
0.0
  0
POINT
  5
260A
330
2271
100
AcDbEntity
  8
DEFPOINTS
 62
     0
100
AcDbPoint
 10
134.7713058908195
 20
135.9835665688772
 30
0.0
  0
POINT
  5
260B
330
2271
100
AcDbEntity
  8
DEFPOINTS
 62
     0
100
AcDbPoint
 10
127.5131054809811
 20
145.4426738316551
 30
0.0
  0
ENDBLK
  5
227D
330
2271
100
AcDbEntity
  8
0
100
AcDbBlockEnd
  0
BLOCK
  5
2288
330
227E
100
AcDbEntity
  8
0
100
AcDbBlockBegin
  2
*D3
 70
     1
 10
0.0
 20
0.0
 30
0.0
  3
*D3
  1

  0
LINE
  5
24A6
330
227E
100
AcDbEntity
  8
SUNPOU
 62
     4
100
AcDbLine
 10
179.2674501671836
 20
164.6003890505928
 30
0.0
 11
220.1209024445009
 21
153.6535547220957
 31
0.0
  0
LINE
  5
24A7
330
227E
100
AcDbEntity
  8
SUNPOU
 62
     4
100
AcDbLine
 10
162.7286501671835
 20
102.8777890505928
 30
0.0
 11
203.5821024445008
 21
91.93095472209574
 31
0.0
  0
LINE
  5
24A8
330
227E
100
AcDbEntity
  8
SUNPOU
 62
     4
100
AcDbLine
 10
217.8955459793046
 20
151.1440152020224
 30
0.0
 11
202.9096847075599
 21
95.21696360629661
 31
0.0
  0
INSERT
  5
24A9
330
227E
100
AcDbEntity
  8
SUNPOU
 62
     4
100
AcDbBlockReference
  2
_OPEN
 10
218.6720153434323
 20
154.0417894041594
 30
0.0
 41
3.0
 42
3.0
 43
3.0
 50
74.99975820773665
  0
INSERT
  5
24AA
330
227E
100
AcDbEntity
  8
SUNPOU
 62
     4
100
AcDbBlockReference
  2
_OPEN
 10
202.1332153434322
 20
92.31918940415955
 30
0.0
 41
3.0
 42
3.0
 43
3.0
 50
254.9997582077366
  0
MTEXT
  5
24AB
330
227E
100
AcDbEntity
  8
SUNPOU
 62
     4
100
AcDbMText
 10
207.987803508318
 20
123.8275472075992
 30
0.0
 40
3.0
 41
0.0
 71
     5
 72
     1
  1
\A1;φ 64
 11
0.2588231213758815
 21
0.9659247340456944
 31
0.0
1001
ACAD
1000
MTEXTBEGIN
1070
    73
1070
     1
1070
    44
1040
1.0
1070
    74
1070
     0
1000
MTEXTEND
1000
MTEXTBEGIN
1070
    73
1070
     1
1070
    44
1040
1.0
1070
    74
1070
     0
1000
MTEXTEND
  0
POINT
  5
24AC
330
227E
100
AcDbEntity
  8
DEFPOINTS
 62
     0
100
AcDbPoint
 10
176.3696759650465
 20
165.3768584147204
 30
0.0
  0
POINT
  5
24AD
330
227E
100
AcDbEntity
  8
DEFPOINTS
 62
     0
100
AcDbPoint
 10
159.8308759650464
 20
103.6542584147205
 30
0.0
  0
POINT
  5
24AE
330
227E
100
AcDbEntity
  8
DEFPOINTS
 62
     0
100
AcDbPoint
 10
202.1332153434322
 20
92.31918940415955
 30
0.0
  0
ENDBLK
  5
2289
330
227E
100
AcDbEntity
  8
0
100
AcDbBlockEnd
  0
BLOCK
  5
2294
330
228A
100
AcDbEntity
  8
0
100
AcDbBlockBegin
  2
*D4
 70
     1
 10
0.0
 20
0.0
 30
0.0
  3
*D4
  1

  0
LINE
  5
24DC
330
228A
100
AcDbEntity
  8
SUNPOU
 62
     4
100
AcDbLine
 10
134.7713256263004
 20
146.4978311784801
 30
0.0
 11
134.7713256263004
 21
157.6040182093807
 31
0.0
  0
LINE
  5
24DD
330
228A
100
AcDbEntity
  8
SUNPOU
 62
     4
100
AcDbLine
 10
168.1132433116081
 20
137.5638525508336
 30
0.0
 11
168.1132433116081
 21
157.6040182093807
 31
0.0
  0
LINE
  5
24DE
330
228A
100
AcDbEntity
  8
SUNPOU
 62
     4
100
AcDbLine
 10
137.7713256263005
 20
156.1040182093807
 30
0.0
 11
165.1132433116081
 21
156.1040182093807
 31
0.0
  0
INSERT
  5
24DF
330
228A
100
AcDbEntity
  8
SUNPOU
 62
     4
100
AcDbBlockReference
  2
_OPEN
 10
134.7713256263004
 20
156.1040182093807
 30
0.0
 41
3.0
 42
3.0
 43
3.0
 50
180.0
  0
INSERT
  5
24E0
330
228A
100
AcDbEntity
  8
SUNPOU
 62
     4
100
AcDbBlockReference
  2
_OPEN
 10
168.1132433116081
 20
156.1040182093807
 30
0.0
 41
3.0
 42
3.0
 43
3.0
  0
MTEXT
  5
24E1
330
228A
100
AcDbEntity
  8
SUNPOU
 62
     4
100
AcDbMText
 10
151.4422844689543
 20
158.6040182093807
 30
0.0
 40
3.0
 41
0.0
 71
     5
 72
     1
  1
\A1;33
1001
ACAD
1000
MTEXTBEGIN
1070
    73
1070
     1
1070
    44
1040
1.0
1070
    74
1070
     0
1000
MTEXTEND
1000
MTEXTBEGIN
1070
    73
1070
     1
1070
    44
1040
1.0
1070
    74
1070
     0
1000
MTEXTEND
  0
POINT
  5
24E2
330
228A
100
AcDbEntity
  8
DEFPOINTS
 62
     0
100
AcDbPoint
 10
134.7713256263004
 20
143.4978311784801
 30
0.0
  0
POINT
  5
24E3
330
228A
100
AcDbEntity
  8
DEFPOINTS
 62
     0
100
AcDbPoint
 10
168.1132433116081
 20
134.5638525508336
 30
0.0
  0
POINT
  5
24E4
330
228A
100
AcDbEntity
  8
DEFPOINTS
 62
     0
100
AcDbPoint
 10
168.1132433116081
 20
156.1040182093807
 30
0.0
  0
ENDBLK
  5
2295
330
228A
100
AcDbEntity
  8
0
100
AcDbBlockEnd
  0
BLOCK
  5
22A0
330
2296
100
AcDbEntity
  8
0
100
AcDbBlockBegin
  2
*D5
 70
     1
 10
0.0
 20
0.0
 30
0.0
  3
*D5
  1

  0
LINE
  5
24CA
330
2296
100
AcDbEntity
  8
SUNPOU
 62
     4
100
AcDbLine
 10
99.82337596504658
 20
193.0133584147204
 30
0.0
 11
71.32939267952931
 21
193.0133584147204
 31
0.0
  0
LINE
  5
24CB
330
2296
100
AcDbEntity
  8
SUNPOU
 62
     4
100
AcDbLine
 10
131.7713256263004
 20
143.4978311784801
 30
0.0
 11
71.32939267952929
 21
143.4978311784801
 31
0.0
  0
LINE
  5
24CC
330
2296
100
AcDbEntity
  8
SUNPOU
 62
     4
100
AcDbLine
 10
72.8293926795293
 20
190.0133584147204
 30
0.0
 11
72.82939267952929
 21
146.4978311784801
 31
0.0
  0
INSERT
  5
24CD
330
2296
100
AcDbEntity
  8
SUNPOU
 62
     4
100
AcDbBlockReference
  2
_OPEN
 10
72.8293926795293
 20
193.0133584147204
 30
0.0
 41
3.0
 42
3.0
 43
3.0
 50
90.0
  0
INSERT
  5
24CE
330
2296
100
AcDbEntity
  8
SUNPOU
 62
     4
100
AcDbBlockReference
  2
_OPEN
 10
72.82939267952929
 20
143.4978311784801
 30
0.0
 41
3.0
 42
3.0
 43
3.0
 50
270.0
  0
MTEXT
  5
24CF
330
2296
100
AcDbEntity
  8
SUNPOU
 62
     4
100
AcDbMText
 10
70.32939267952928
 20
168.2555947966003
 30
0.0
 40
3.0
 41
0.0
 71
     5
 72
     1
  1
\A1;50
 11
0.0000000000000001
 21
1.0
 31
0.0
1001
ACAD
1000
MTEXTBEGIN
1070
    73
1070
     1
1070
    44
1040
1.0
1070
    74
1070
     0
1000
MTEXTEND
1000
MTEXTBEGIN
1070
    73
1070
     1
1070
    44
1040
1.0
1070
    74
1070
     0
1000
MTEXTEND
  0
POINT
  5
24D0
330
2296
100
AcDbEntity
  8
DEFPOINTS
 62
     0
100
AcDbPoint
 10
102.8233759650465
 20
193.0133584147204
 30
0.0
  0
POINT
  5
24D1
330
2296
100
AcDbEntity
  8
DEFPOINTS
 62
     0
100
AcDbPoint
 10
134.7713256263004
 20
143.4978311784801
 30
0.0
  0
POINT
  5
24D2
330
2296
100
AcDbEntity
  8
DEFPOINTS
 62
     0
100
AcDbPoint
 10
72.82939267952929
 20
143.4978311784801
 30
0.0
  0
ENDBLK
  5
22A1
330
2296
100
AcDbEntity
  8
0
100
AcDbBlockEnd
  0
BLOCK
  5
22AC
330
22A2
100
AcDbEntity
  8
0
100
AcDbBlockBegin
  2
*D6
 70
     1
 10
0.0
 20
0.0
 30
0.0
  3
*D6
  1

  0
LINE
  5
24AF
330
22A2
100
AcDbEntity
  8
SUNPOU
 62
     4
100
AcDbLine
 10
133.9948653520578
 20
140.6000545406899
 30
0.0
 11
117.7358356115159
 21
79.92079238367601
 31
0.0
  0
LINE
  5
24B0
330
22A2
100
AcDbEntity
  8
SUNPOU
 62
     4
100
AcDbLine
 10
186.6552582417207
 20
126.4896836544038
 30
0.0
 11
170.3962285011788
 21
65.81042149738997
 31
0.0
  0
LINE
  5
24B1
330
22A2
100
AcDbEntity
  8
SUNPOU
 62
     4
100
AcDbLine
 10
121.0218423864275
 20
80.59322042832844
 30
0.0
 11
167.8866820005099
 21
68.03577009052779
 31
0.0
  0
INSERT
  5
24B2
330
22A2
100
AcDbEntity
  8
SUNPOU
 62
     4
100
AcDbBlockReference
  2
_OPEN
 10
118.1240657486373
 20
81.36968070257115
 30
0.0
 41
3.0
 42
3.0
 43
3.0
 50
164.9999379359656
  0
INSERT
  5
24B3
330
22A2
100
AcDbEntity
  8
SUNPOU
 62
     4
100
AcDbBlockReference
  2
_OPEN
 10
170.7844586383002
 20
67.25930981628509
 30
0.0
 41
3.0
 42
3.0
 43
3.0
 50
344.9999379359656
  0
MTEXT
  5
24B4
330
22A2
100
AcDbEntity
  8
SUNPOU
 62
     4
100
AcDbMText
 10
145.1013124220043
 20
76.72930912425332
 30
0.0
 40
3.0
 41
0.0
 71
     5
 72
     1
  1
\A1;55
 11
0.9659255459300835
 21
-0.2588200914142296
 31
0.0
1001
ACAD
1000
MTEXTBEGIN
1070
    73
1070
     1
1070
    44
1040
1.0
1070
    74
1070
     0
1000
MTEXTEND
1000
MTEXTBEGIN
1070
    73
1070
     1
1070
    44
1040
1.0
1070
    74
1070
     0
1000
MTEXTEND
  0
POINT
  5
24B5
330
22A2
100
AcDbEntity
  8
DEFPOINTS
 62
     0
100
AcDbPoint
 10
134.7713256263004
 20
143.4978311784801
 30
0.0
  0
POINT
  5
24B6
330
22A2
100
AcDbEntity
  8
DEFPOINTS
 62
     0
100
AcDbPoint
 10
187.4317185159634
 20
129.3874602921941
 30
0.0
  0
POINT
  5
24B7
330
22A2
100
AcDbEntity
  8
DEFPOINTS
 62
     0
100
AcDbPoint
 10
170.7844586383002
 20
67.25930981628509
 30
0.0
  0
ENDBLK
  5
22AD
330
22A2
100
AcDbEntity
  8
0
100
AcDbBlockEnd
  0
BLOCK
  5
22B8
330
22AE
100
AcDbEntity
  8
0
100
AcDbBlockBegin
  2
*D7
 70
     1
 10
0.0
 20
0.0
 30
0.0
  3
*D7
  1

  0
LINE
  5
24B8
330
22AE
100
AcDbEntity
  8
SUNPOU
 62
     4
100
AcDbLine
 10
133.9948653520578
 20
140.6000545406899
 30
0.0
 11
120.3495713940363
 21
89.67534485621746
 31
0.0
  0
LINE
  5
24B9
330
22AE
100
AcDbEntity
  8
SUNPOU
 62
     4
100
AcDbLine
 10
167.3367830373654
 20
131.6660759130434
 30
0.0
 11
153.691489079344
 21
80.74136622857102
 31
0.0
  0
LINE
  5
24BA
330
22AE
100
AcDbEntity
  8
SUNPOU
 62
     4
100
AcDbLine
 10
123.6355781689479
 20
90.34777290086987
 30
0.0
 11
151.1819425786751
 21
82.96671482170882
 31
0.0
  0
INSERT
  5
24BB
330
22AE
100
AcDbEntity
  8
SUNPOU
 62
     4
100
AcDbBlockReference
  2
_OPEN
 10
120.7378015311577
 20
91.12423317511256
 30
0.0
 41
3.0
 42
3.0
 43
3.0
 50
164.9999379359655
  0
INSERT
  5
24BC
330
22AE
100
AcDbEntity
  8
SUNPOU
 62
     4
100
AcDbBlockReference
  2
_OPEN
 10
154.0797192164653
 20
82.19025454746613
 30
0.0
 41
3.0
 42
3.0
 43
3.0
 50
344.9999379359656
  0
MTEXT
  5
24BD
330
22AE
100
AcDbEntity
  8
SUNPOU
 62
     4
100
AcDbMText
 10
138.0558106023471
 20
89.07205772611458
 30
0.0
 40
3.0
 41
0.0
 71
     5
 72
     1
  1
\A1;35
 11
0.9659255459300833
 21
-0.2588200914142305
 31
0.0
1001
ACAD
1000
MTEXTBEGIN
1070
    73
1070
     1
1070
    44
1040
1.0
1070
    74
1070
     0
1000
MTEXTEND
1000
MTEXTBEGIN
1070
    73
1070
     1
1070
    44
1040
1.0
1070
    74
1070
     0
1000
MTEXTEND
  0
POINT
  5
24BE
330
22AE
100
AcDbEntity
  8
DEFPOINTS
 62
     0
100
AcDbPoint
 10
134.7713256263004
 20
143.4978311784801
 30
0.0
  0
POINT
  5
24BF
330
22AE
100
AcDbEntity
  8
DEFPOINTS
 62
     0
100
AcDbPoint
 10
168.1132433116081
 20
134.5638525508336
 30
0.0
  0
POINT
  5
24C0
330
22AE
100
AcDbEntity
  8
DEFPOINTS
 62
     0
100
AcDbPoint
 10
154.0797192164653
 20
82.19025454746613
 30
0.0
  0
ENDBLK
  5
22B9
330
22AE
100
AcDbEntity
  8
0
100
AcDbBlockEnd
  0
BLOCK
  5
22C4
330
22BA
100
AcDbEntity
  8
0
100
AcDbBlockBegin
  2
*D8
 70
     1
 10
0.0
 20
0.0
 30
0.0
  3
*D8
  1

  0
LINE
  5
24C1
330
22BA
100
AcDbEntity
  8
SUNPOU
 62
     4
100
AcDbLine
 10
99.82337596504658
 20
193.0133584147204
 30
0.0
 11
80.55529014754302
 21
193.0133584147204
 31
0.0
  0
LINE
  5
24C2
330
22BA
100
AcDbEntity
  8
SUNPOU
 62
     4
100
AcDbLine
 10
99.82337596504658
 20
168.0133584147204
 30
0.0
 11
80.55529014754302
 21
168.0133584147204
 31
0.0
  0
LINE
  5
24C3
330
22BA
100
AcDbEntity
  8
SUNPOU
 62
     4
100
AcDbLine
 10
82.05529014754302
 20
190.0133584147204
 30
0.0
 11
82.05529014754302
 21
171.0133584147204
 31
0.0
  0
INSERT
  5
24C4
330
22BA
100
AcDbEntity
  8
SUNPOU
 62
     4
100
AcDbBlockReference
  2
_OPEN
 10
82.05529014754302
 20
193.0133584147204
 30
0.0
 41
3.0
 42
3.0
 43
3.0
 50
90.0
  0
INSERT
  5
24C5
330
22BA
100
AcDbEntity
  8
SUNPOU
 62
     4
100
AcDbBlockReference
  2
_OPEN
 10
82.05529014754302
 20
168.0133584147204
 30
0.0
 41
3.0
 42
3.0
 43
3.0
 50
270.0
  0
MTEXT
  5
24C6
330
22BA
100
AcDbEntity
  8
SUNPOU
 62
     4
100
AcDbMText
 10
79.55529014754299
 20
180.5133584147204
 30
0.0
 40
3.0
 41
0.0
 71
     5
 72
     1
  1
\A1;※ 25
 11
0.0000000000000001
 21
1.0
 31
0.0
1001
ACAD
1000
MTEXTBEGIN
1070
    73
1070
     1
1070
    44
1040
1.0
1070
    74
1070
     0
1000
MTEXTEND
1000
MTEXTBEGIN
1070
    73
1070
     1
1070
    44
1040
1.0
1070
    74
1070
     0
1000
MTEXTEND
  0
POINT
  5
24C7
330
22BA
100
AcDbEntity
  8
DEFPOINTS
 62
     0
100
AcDbPoint
 10
102.8233759650465
 20
193.0133584147204
 30
0.0
  0
POINT
  5
24C8
330
22BA
100
AcDbEntity
  8
DEFPOINTS
 62
     0
100
AcDbPoint
 10
102.8233759650465
 20
168.0133584147204
 30
0.0
  0
POINT
  5
24C9
330
22BA
100
AcDbEntity
  8
DEFPOINTS
 62
     0
100
AcDbPoint
 10
82.05529014754302
 20
168.0133584147204
 30
0.0
  0
ENDBLK
  5
22C5
330
22BA
100
AcDbEntity
  8
0
100
AcDbBlockEnd
  0
BLOCK
  5
22D0
330
22C6
100
AcDbEntity
  8
0
100
AcDbBlockBegin
  2
*D9
 70
     1
 10
0.0
 20
0.0
 30
0.0
  3
*D9
  1

  0
LINE
  5
24D3
330
22C6
100
AcDbEntity
  8
SUNPOU
 62
     4
100
AcDbLine
 10
102.8233759650465
 20
196.0134584147204
 30
0.0
 11
102.8233759650465
 21
218.8231603901796
 31
0.0
  0
LINE
  5
24D4
330
22C6
100
AcDbEntity
  8
SUNPOU
 62
     4
100
AcDbLine
 10
166.7233759650466
 20
196.0133584147204
 30
0.0
 11
166.7233759650466
 21
218.8231603901796
 31
0.0
  0
LINE
  5
24D5
330
22C6
100
AcDbEntity
  8
SUNPOU
 62
     4
100
AcDbLine
 10
105.8233759650465
 20
217.3231603901796
 30
0.0
 11
163.7233759650466
 21
217.3231603901796
 31
0.0
  0
INSERT
  5
24D6
330
22C6
100
AcDbEntity
  8
SUNPOU
 62
     4
100
AcDbBlockReference
  2
_OPEN
 10
102.8233759650465
 20
217.3231603901796
 30
0.0
 41
3.0
 42
3.0
 43
3.0
 50
180.0
  0
INSERT
  5
24D7
330
22C6
100
AcDbEntity
  8
SUNPOU
 62
     4
100
AcDbBlockReference
  2
_OPEN
 10
166.7233759650466
 20
217.3231603901796
 30
0.0
 41
3.0
 42
3.0
 43
3.0
  0
MTEXT
  5
24D8
330
22C6
100
AcDbEntity
  8
SUNPOU
 62
     4
100
AcDbMText
 10
134.7733759650466
 20
219.8231603901796
 30
0.0
 40
3.0
 41
0.0
 71
     5
 72
     1
  1
\A1;64
1001
ACAD
1000
MTEXTBEGIN
1070
    73
1070
     1
1070
    44
1040
1.0
1070
    74
1070
     0
1000
MTEXTEND
1000
MTEXTBEGIN
1070
    73
1070
     1
1070
    44
1040
1.0
1070
    74
1070
     0
1000
MTEXTEND
  0
POINT
  5
24D9
330
22C6
100
AcDbEntity
  8
DEFPOINTS
 62
     0
100
AcDbPoint
 10
102.8233759650465
 20
193.0134584147204
 30
0.0
  0
POINT
  5
24DA
330
22C6
100
AcDbEntity
  8
DEFPOINTS
 62
     0
100
AcDbPoint
 10
166.7233759650466
 20
193.0133584147204
 30
0.0
  0
POINT
  5
24DB
330
22C6
100
AcDbEntity
  8
DEFPOINTS
 62
     0
100
AcDbPoint
 10
166.7233759650466
 20
217.3231603901796
 30
0.0
  0
ENDBLK
  5
22D1
330
22C6
100
AcDbEntity
  8
0
100
AcDbBlockEnd
  0
BLOCK
  5
22DC
330
22D2
100
AcDbEntity
  8
0
100
AcDbBlockBegin
  2
*D10
 70
     1
 10
0.0
 20
0.0
 30
0.0
  3
*D10
  1

  0
LINE
  5
24E5
330
22D2
100
AcDbEntity
  8
SUNPOU
 62
     4
100
AcDbLine
 10
167.4868971568206
 20
170.8628385279571
 30
0.0
 11
172.1926457981521
 21
188.4248082957297
 31
0.0
  0
LINE
  5
24E6
330
22D2
100
AcDbEntity
  8
SUNPOU
 62
     4
100
AcDbLine
 10
196.4645654654242
 20
163.0982412148243
 30
0.0
 11
201.1703141067557
 21
180.660210982597
 31
0.0
  0
LINE
  5
24E7
330
22D2
100
AcDbEntity
  8
SUNPOU
 62
     4
100
AcDbLine
 10
174.7021908050125
 20
186.1994580180112
 30
0.0
 11
197.8843068804646
 21
179.9877851437398
 31
0.0
  0
INSERT
  5
24E8
330
22D2
100
AcDbEntity
  8
SUNPOU
 62
     4
100
AcDbBlockReference
  2
_OPEN
 10
171.8044146884368
 20
186.9759202374418
 30
0.0
 41
3.0
 42
3.0
 43
3.0
 50
164.9998994750744
  0
INSERT
  5
24E9
330
22D2
100
AcDbEntity
  8
SUNPOU
 62
     4
100
AcDbBlockReference
  2
_OPEN
 10
200.7820829970404
 20
179.2113229243091
 30
0.0
 41
3.0
 42
3.0
 43
3.0
 50
344.9998994750744
  0
MTEXT
  5
24EA
330
22D2
100
AcDbEntity
  8
SUNPOU
 62
     4
100
AcDbMText
 10
186.9403006922642
 20
185.5084350113553
 30
0.0
 40
3.0
 41
0.0
 71
     5
 72
     1
  1
\A1;※ 30
 11
0.9659253721919142
 21
-0.2588207398102246
 31
0.0
1001
ACAD
1000
MTEXTBEGIN
1070
    73
1070
     1
1070
    44
1040
1.0
1070
    74
1070
     0
1000
MTEXTEND
1000
MTEXTBEGIN
1070
    73
1070
     1
1070
    44
1040
1.0
1070
    74
1070
     0
1000
MTEXTEND
  0
POINT
  5
24EB
330
22D2
100
AcDbEntity
  8
DEFPOINTS
 62
     0
100
AcDbPoint
 10
166.71043493739
 20
167.9650624113813
 30
0.0
  0
POINT
  5
24EC
330
22D2
100
AcDbEntity
  8
DEFPOINTS
 62
     0
100
AcDbPoint
 10
195.6881032459936
 20
160.2004650982486
 30
0.0
  0
POINT
  5
24ED
330
22D2
100
AcDbEntity
  8
DEFPOINTS
 62
     0
100
AcDbPoint
 10
200.7820829970404
 20
179.2113229243091
 30
0.0
  0
ENDBLK
  5
22DD
330
22D2
100
AcDbEntity
  8
0
100
AcDbBlockEnd
  0
BLOCK
  5
22E8
330
22DE
100
AcDbEntity
  8
0
100
AcDbBlockBegin
  2
*D11
 70
     1
 10
0.0
 20
0.0
 30
0.0
  3
*D11
  1

  0
LINE
  5
24EE
330
22DE
100
AcDbEntity
  8
SUNPOU
 62
     4
100
AcDbLine
 10
272.8233759650464
 20
196.0133584147204
 30
0.0
 11
272.8233759650464
 21
218.8231603901796
 31
0.0
  0
LINE
  5
24EF
330
22DE
100
AcDbEntity
  8
SUNPOU
 62
     4
100
AcDbLine
 10
336.7233759650464
 20
196.0131584147205
 30
0.0
 11
336.7233759650464
 21
218.8231603901796
 31
0.0
  0
LINE
  5
24F0
330
22DE
100
AcDbEntity
  8
SUNPOU
 62
     4
100
AcDbLine
 10
275.8233759650464
 20
217.3231603901796
 30
0.0
 11
333.7233759650464
 21
217.3231603901796
 31
0.0
  0
INSERT
  5
24F1
330
22DE
100
AcDbEntity
  8
SUNPOU
 62
     4
100
AcDbBlockReference
  2
_OPEN
 10
272.8233759650464
 20
217.3231603901796
 30
0.0
 41
3.0
 42
3.0
 43
3.0
 50
180.0
  0
INSERT
  5
24F2
330
22DE
100
AcDbEntity
  8
SUNPOU
 62
     4
100
AcDbBlockReference
  2
_OPEN
 10
336.7233759650464
 20
217.3231603901796
 30
0.0
 41
3.0
 42
3.0
 43
3.0
  0
MTEXT
  5
24F3
330
22DE
100
AcDbEntity
  8
SUNPOU
 62
     4
100
AcDbMText
 10
304.7733759650464
 20
219.8231603901796
 30
0.0
 40
3.0
 41
0.0
 71
     5
 72
     1
  1
\A1;64
1001
ACAD
1000
MTEXTBEGIN
1070
    73
1070
     1
1070
    44
1040
1.0
1070
    74
1070
     0
1000
MTEXTEND
1000
MTEXTBEGIN
1070
    73
1070
     1
1070
    44
1040
1.0
1070
    74
1070
     0
1000
MTEXTEND
  0
POINT
  5
24F4
330
22DE
100
AcDbEntity
  8
DEFPOINTS
 62
     0
100
AcDbPoint
 10
272.8233759650464
 20
193.0133584147204
 30
0.0
  0
POINT
  5
24F5
330
22DE
100
AcDbEntity
  8
DEFPOINTS
 62
     0
100
AcDbPoint
 10
336.7233759650464
 20
193.0131584147205
 30
0.0
  0
POINT
  5
24F6
330
22DE
100
AcDbEntity
  8
DEFPOINTS
 62
     0
100
AcDbPoint
 10
336.7233759650464
 20
217.3231603901796
 30
0.0
  0
ENDBLK
  5
22E9
330
22DE
100
AcDbEntity
  8
0
100
AcDbBlockEnd
  0
ENDSEC
  0
SECTION
  2
ENTITIES
  0
LINE
  5
577
330
1A
100
AcDbEntity
  8
ZUWAKU
100
AcDbLine
 10
111.323300388521
 20
14.6000003394497
 30
0.0
 11
230.7121817289827
 21
14.6000003394497
 31
0.0
  0
LINE
  5
578
330
1A
100
AcDbEntity
  8
ZUWAKU
100
AcDbLine
 10
111.323300388521
 20
14.8000003394497
 30
0.0
 11
230.7121817289827
 21
14.8000003394497
 31
0.0
  0
LINE
  5
579
330
1A
100
AcDbEntity
  8
ZUWAKU
100
AcDbLine
 10
111.323300388521
 20
14.7000003394497
 30
0.0
 11
230.7121817289827
 21
14.7000003394497
 31
0.0
  0
LINE
  5
57A
330
1A
100
AcDbEntity
  8
ZUWAKU
100
AcDbLine
 10
6.999999743487023
 20
22.40000033944969
 30
0.0
 11
405.699999743487
 21
22.40000033944969
 31
0.0
  0
LINE
  5
57B
330
1A
100
AcDbEntity
  8
ZUWAKU
100
AcDbLine
 10
6.999999743487023
 20
22.30000033944969
 30
0.0
 11
405.699999743487
 21
22.30000033944969
 31
0.0
  0
LINE
  5
57C
330
1A
100
AcDbEntity
  8
ZUWAKU
100
AcDbLine
 10
6.999999743487023
 20
22.20000033944968
 30
0.0
 11
405.699999743487
 21
22.20000033944968
 31
0.0
  0
LINE
  5
57D
330
1A
100
AcDbEntity
  8
ZUWAKU
100
AcDbLine
 10
6.999999743487023
 20
22.10000033944968
 30
0.0
 11
405.699999743487
 21
22.10000033944968
 31
0.0
  0
LINE
  5
57E
330
1A
100
AcDbEntity
  8
ZUWAKU
100
AcDbLine
 10
6.999999743487023
 20
22.00000033944968
 30
0.0
 11
405.699999743487
 21
22.00000033944968
 31
0.0
  0
POLYLINE
  5
57F
330
1A
100
AcDbEntity
  8
ZUWAKU
100
AcDb2dPolyline
 66
     1
 10
0.0
 20
0.0
 30
0.0
 70
     1
  0
VERTEX
  5
25E9
330
57F
100
AcDbEntity
  8
ZUWAKU
100
AcDbVertex
100
AcDb2dVertex
 10
7.099999743486989
 20
282.7000003394497
 30
0.0
  0
VERTEX
  5
25EA
330
57F
100
AcDbEntity
  8
ZUWAKU
100
AcDbVertex
100
AcDb2dVertex
 10
7.099999743486989
 20
7.100000339449707
 30
0.0
  0
VERTEX
  5
25EB
330
57F
100
AcDbEntity
  8
ZUWAKU
100
AcDbVertex
100
AcDb2dVertex
 10
405.699999743487
 20
7.100000339449718
 30
0.0
  0
VERTEX
  5
25EC
330
57F
100
AcDbEntity
  8
ZUWAKU
100
AcDbVertex
100
AcDb2dVertex
 10
405.699999743487
 20
282.7000003394497
 30
0.0
  0
SEQEND
  5
25ED
330
57F
100
AcDbEntity
  8
ZUWAKU
  0
POLYLINE
  5
580
330
1A
100
AcDbEntity
  8
ZUWAKU
100
AcDb2dPolyline
 66
     1
 10
0.0
 20
0.0
 30
0.0
 70
     1
  0
VERTEX
  5
25EE
330
580
100
AcDbEntity
  8
ZUWAKU
100
AcDbVertex
100
AcDb2dVertex
 10
7.299999743486978
 20
282.5000003394497
 30
0.0
  0
VERTEX
  5
25EF
330
580
100
AcDbEntity
  8
ZUWAKU
100
AcDbVertex
100
AcDb2dVertex
 10
7.299999743486978
 20
7.300000339449695
 30
0.0
  0
VERTEX
  5
25F0
330
580
100
AcDbEntity
  8
ZUWAKU
100
AcDbVertex
100
AcDb2dVertex
 10
405.4999997434871
 20
7.300000339449718
 30
0.0
  0
VERTEX
  5
25F1
330
580
100
AcDbEntity
  8
ZUWAKU
100
AcDbVertex
100
AcDb2dVertex
 10
405.499999743487
 20
282.5000003394497
 30
0.0
  0
SEQEND
  5
25F2
330
580
100
AcDbEntity
  8
ZUWAKU
  0
POLYLINE
  5
581
330
1A
100
AcDbEntity
  8
ZUWAKU
100
AcDb2dPolyline
 66
     1
 10
0.0
 20
0.0
 30
0.0
 70
     1
  0
VERTEX
  5
25F3
330
581
100
AcDbEntity
  8
ZUWAKU
100
AcDbVertex
100
AcDb2dVertex
 10
6.999999743487023
 20
282.8000003394496
 30
0.0
  0
VERTEX
  5
25F4
330
581
100
AcDbEntity
  8
ZUWAKU
100
AcDbVertex
100
AcDb2dVertex
 10
6.999999743487023
 20
7.000000339449684
 30
0.0
  0
VERTEX
  5
25F5
330
581
100
AcDbEntity
  8
ZUWAKU
100
AcDbVertex
100
AcDb2dVertex
 10
405.7999997434871
 20
7.000000339449718
 30
0.0
  0
VERTEX
  5
25F6
330
581
100
AcDbEntity
  8
ZUWAKU
100
AcDbVertex
100
AcDb2dVertex
 10
405.7999997434871
 20
282.8000003394497
 30
0.0
  0
SEQEND
  5
25F7
330
581
100
AcDbEntity
  8
ZUWAKU
  0
POLYLINE
  5
582
330
1A
100
AcDbEntity
  8
ZUWAKU
100
AcDb2dPolyline
 66
     1
 10
0.0
 20
0.0
 30
0.0
 70
     1
  0
VERTEX
  5
25F8
330
582
100
AcDbEntity
  8
ZUWAKU
100
AcDbVertex
100
AcDb2dVertex
 10
7.199999743487012
 20
282.6000003394497
 30
0.0
  0
VERTEX
  5
25F9
330
582
100
AcDbEntity
  8
ZUWAKU
100
AcDbVertex
100
AcDb2dVertex
 10
7.199999743487012
 20
7.200000339449729
 30
0.0
  0
VERTEX
  5
25FA
330
582
100
AcDbEntity
  8
ZUWAKU
100
AcDbVertex
100
AcDb2dVertex
 10
405.599999743487
 20
7.200000339449718
 30
0.0
  0
VERTEX
  5
25FB
330
582
100
AcDbEntity
  8
ZUWAKU
100
AcDbVertex
100
AcDb2dVertex
 10
405.599999743487
 20
282.6000003394497
 30
0.0
  0
SEQEND
  5
25FC
330
582
100
AcDbEntity
  8
ZUWAKU
  0
POLYLINE
  5
583
330
1A
100
AcDbEntity
  8
ZUWAKU
100
AcDb2dPolyline
 66
     1
 10
0.0
 20
0.0
 30
0.0
 70
     1
  0
VERTEX
  5
25FD
330
583
100
AcDbEntity
  8
ZUWAKU
100
AcDbVertex
100
AcDb2dVertex
 10
7.399999743487001
 20
282.4000003394497
 30
0.0
  0
VERTEX
  5
25FE
330
583
100
AcDbEntity
  8
ZUWAKU
100
AcDbVertex
100
AcDb2dVertex
 10
7.399999743487001
 20
7.400000339449718
 30
0.0
  0
VERTEX
  5
25FF
330
583
100
AcDbEntity
  8
ZUWAKU
100
AcDbVertex
100
AcDb2dVertex
 10
405.3999997434869
 20
7.400000339449718
 30
0.0
  0
VERTEX
  5
2600
330
583
100
AcDbEntity
  8
ZUWAKU
100
AcDbVertex
100
AcDb2dVertex
 10
405.3999997434869
 20
282.4000003394497
 30
0.0
  0
SEQEND
  5
2601
330
583
100
AcDbEntity
  8
ZUWAKU
  0
TEXT
  5
584
330
1A
100
AcDbEntity
  8
MOJI
100
AcDbText
 10
53.47889453757159
 20
13.37058940458706
 30
0.0
 40
3.0
  1
たてといアートフェイスＹ６０Ｈ
 41
0.9
  7
ｽﾀｲﾙ1
100
AcDbText
  0
INSERT
  5
585
330
1A
100
AcDbEntity
  8
ZUWAKU
  6
CONTINUOUS
100
AcDbBlockReference
  2
*X1
 10
7.0
 20
7.0
 30
0.0
1001
ACAD
1000
HATCH
1002
{
1070
    19
1000
ANSI37
1040
0.1
1040
0.0
1000
R14_HATCH_DATA
1000
585
1011
8.0
1021
7.0
1031
0.0
1011
7.0
1021
8.0
1031
0.0
1011
7.0
1021
7.0
1031
1.0
1040
0.0
1010
0.0
1020
0.0
1030
1.0
1000
ANSI37
1070
     0
1070
     0
1071
        8
1071
        7
1070
     1
1070
     1
1071
       24
1040
7.251131074046952
1040
8.822424579941475
1040
-0.1989123673796348
1040
7.046105820877585
1040
9.317399326772001
1040
0.0
1040
7.046105820877585
1040
9.96250033944969
1040
-0.4142135623730912
1040
7.308605820877573
1040
10.22500033944968
1040
0.0
1040
8.796105820877528
1040
10.22500033944968
1040
0.4142135623731546
1040
9.058605820877573
1040
10.48750033944968
1040
0.0
1040
9.058605820877573
1040
11.36250033944968
1040
0.4142135623731586
1040
8.796105820877528
1040
11.62500033944968
1040
0.0
1040
7.046105820877585
1040
11.62500033944968
1040
0.4142135623730928
1040
5.646105820877608
1040
10.2250003394497
1040
0.0
1040
5.646105820877608
1040
9.317399326772065
1040
0.1989123673796619
1040
6.261181580385823
1040
7.832475086280261
1040
0.0
1040
7.716080567708161
1040
6.377576098957932
1040
-0.1989123673796613
1040
7.921105820877585
1040
5.882601352127339
1040
0.0
1040
7.921105820877585
1040
5.237500339449681
1040
-0.4142135623730911
1040
7.658605820877596
1040
4.975000339449685
1040
0.0
1040
6.171105820877642
1040
4.975000339449685
1040
0.4142135623731526
1040
5.908605820877596
1040
4.712500339449691
1040
0.0
1040
5.908605820877596
1040
3.837500339449681
1040
0.4142135623731526
1040
6.171105820877642
1040
3.575000339449687
1040
0.0
1040
7.921105820877585
1040
3.575000339449687
1040
0.4142135623731044
1040
9.321105820877619
1040
4.975000339449675
1040
0.0
1040
9.321105820877619
1040
5.882601352127311
1040
0.1989123673796604
1040
8.706030061369347
1040
7.367525592619081
1040
0.0
1071
        0
1071
        7
1070
     1
1070
     1
1071
       16
1040
11.7711058208776
1040
9.52500033944969
1040
-0.4142135623730935
1040
12.47110582087759
1040
10.22500033944968
1040
0.0
1040
13.43360582087757
1040
10.22500033944968
1040
0.4142135623731546
1040
13.69610582087761
1040
10.48750033944968
1040
0.0
1040
13.69610582087761
1040
11.36250033944968
1040
0.4142135623730951
1040
13.43360582087763
1040
11.62500033944968
1040
0.0
1040
12.47110582087754
1040
11.62500033944966
1040
0.4142135623730892
1040
10.37110582087757
1040
9.525000339449654
1040
0.0
1040
10.37110582087757
1040
5.675000339449699
1040
0.4142135623730969
1040
12.47110582087759
1040
3.575000339449687
1040
0.0
1040
13.43360582087757
1040
3.575000339449687
1040
0.4142135623731526
1040
13.69610582087761
1040
3.837500339449681
1040
0.0
1040
13.69610582087761
1040
4.712500339449691
1040
0.4142135623730891
1040
13.43360582087763
1040
4.975000339449685
1040
0.0
1040
12.47110582087759
1040
4.975000339449685
1040
-0.4142135623730928
1040
11.7711058208776
1040
5.675000339449679
1040
0.0
1071
        0
1071
        7
1070
     1
1070
     1
1071
        2
1040
12.12110582087757
1040
7.600000339449685
1040
1.0
1040
13.87110582087757
1040
7.600000339449685
1040
1.0
1071
        0
1071
        7
1070
     1
1070
     1
1071
       26
1040
18.65742906196658
1040
9.602523936231399
1040
0.0
1040
19.18824887853548
1040
11.28345335536619
1040
0.5069206636600134
1040
18.93793342893781
1040
11.62500033944968
1040
0.0
1040
18.08848873913319
1040
11.62500033944968
1040
0.3272098845218764
1040
17.83817328953551
1040
11.44154732353317
1040
0.0
1040
16.90403835221963
1040
8.483453355366226
1040
-0.3272098845219541
1040
16.65372290262189
1040
8.300000339449685
1040
0.0
1040
16.58360582087766
1040
8.300000339449685
1040
-0.4142135623731526
1040
16.32110582087761
1040
8.562500339449679
1040
0.0
1040
16.32110582087761
1040
11.36250033944968
1040
0.4142135623730951
1040
16.05860582087763
1040
11.62500033944968
1040
0.0
1040
15.18360582087757
1040
11.62500033944968
1040
0.4142135623730871
1040
14.92110582087758
1040
11.36250033944969
1040
0.0
1040
14.92110582087758
1040
3.837500339449681
1040
0.4142135623730891
1040
15.18360582087757
1040
3.575000339449687
1040
0.0
1040
16.05860582087757
1040
3.575000339449687
1040
0.4142135623731526
1040
16.32110582087761
1040
3.837500339449681
1040
0.0
1040
16.32110582087761
1040
6.637500339449692
1040
-0.4142135623731526
1040
16.58360582087766
1040
6.900000339449686
1040
0.0
1040
16.65372290262195
1040
6.900000339449686
1040
-0.3272098845218915
1040
16.90403835221963
1040
6.716547323533148
1040
0.0
1040
17.83817328953551
1040
3.758453355366222
1040
0.3272098845218902
1040
18.08848873913319
1040
3.575000339449687
1040
0.0
1040
18.93793342893781
1040
3.575000339449687
1040
0.5069206636600335
1040
19.18824887853548
1040
3.91654732353319
1040
0.0
1040
18.02505318929866
1040
7.600000339449755
1040
0.0
1071
        0
1071
        7
1070
     1
1070
     1
1071
        8
1040
21.74610582087757
1040
11.36250033944969
1040
0.4142135623731546
1040
21.48360582087752
1040
11.62500033944968
1040
0.0
1040
20.60860582087764
1040
11.62500033944968
1040
0.4142135623731507
1040
20.34610582087759
1040
11.36250033944969
1040
0.0
1040
20.34610582087759
1040
3.837500339449681
1040
0.4142135623731526
1040
20.60860582087764
1040
3.575000339449687
1040
0.0
1040
21.48360582087752
1040
3.575000339449687
1040
0.4142135623731526
1040
21.74610582087757
1040
3.837500339449681
1040
0.0
1071
        0
1071
        7
1070
     1
1070
     1
1071
       24
1040
24.19610582087762
1040
9.96250033944969
1040
-0.4142135623731546
1040
24.45860582087766
1040
10.22500033944968
1040
0.0
1040
25.94610582087762
1040
10.22500033944968
1040
0.4142135623730911
1040
26.20860582087761
1040
10.48750033944968
1040
0.0
1040
26.20860582087761
1040
11.36250033944968
1040
0.4142135623730952
1040
25.94610582087762
1040
11.62500033944968
1040
0.0
1040
24.19610582087762
1040
11.62500033944968
1040
0.4142135623731048
1040
22.79610582087758
1040
10.2250003394497
1040
0.0
1040
22.79610582087758
1040
9.317399326772065
1040
0.1989123673796613
1040
23.41118158038586
1040
7.83247508628029
1040
0.0
1040
24.86608056770819
1040
6.377576098957955
1040
-0.1989123673796402
1040
25.07110582087761
1040
5.882601352127419
1040
0.0
1040
25.07110582087761
1040
5.237500339449681
1040
-0.4142135623730911
1040
24.80860582087763
1040
4.975000339449685
1040
0.0
1040
23.32110582087762
1040
4.975000339449685
1040
0.4142135623731526
1040
23.05860582087757
1040
4.712500339449691
1040
0.0
1040
23.05860582087757
1040
3.837500339449681
1040
0.4142135623730891
1040
23.32110582087756
1040
3.575000339449687
1040
0.0
1040
25.07110582087761
1040
3.575000339449687
1040
0.4142135623730925
1040
26.47110582087759
1040
4.975000339449675
1040
0.0
1040
26.47110582087759
1040
5.882601352127311
1040
0.1989123673796675
1040
25.85603006136932
1040
7.367525592619138
1040
0.0
1040
24.40113107404704
1040
8.822424579941396
1040
-0.1989123673796652
1040
24.19610582087762
1040
9.31739932677198
1040
0.0
1071
        0
1071
        7
1070
     1
1070
     1
1071
       16
1040
28.92110582087758
1040
11.36250033944968
1040
0.414213562373103
1040
28.65860582087759
1040
11.62500033944968
1040
0.0
1040
27.78360582087759
1040
11.62500033944968
1040
0.4142135623730871
1040
27.52110582087761
1040
11.36250033944969
1040
0.0
1040
27.52110582087761
1040
4.975000339449675
1040
0.4142135623730926
1040
28.92110582087758
1040
3.575000339449687
1040
0.0
1040
30.67110582087758
1040
3.575000339449687
1040
0.4142135623731044
1040
32.07110582087762
1040
4.975000339449675
1040
0.0
1040
32.07110582087762
1040
11.36250033944968
1040
0.4142135623730951
1040
31.80860582087763
1040
11.62500033944968
1040
0.0
1040
30.93360582087757
1040
11.62500033944968
1040
0.4142135623730871
1040
30.67110582087758
1040
11.36250033944969
1040
0.0
1040
30.67110582087758
1040
5.500000339449673
1040
-0.414213562373088
1040
30.1461058208776
1040
4.975000339449685
1040
0.0
1040
29.44610582087761
1040
4.975000339449685
1040
-0.4142135623731197
1040
28.92110582087758
1040
5.500000339449673
1040
0.0
1071
        0
1071
        7
1070
     1
1070
     1
1071
        8
1040
34.5211058208776
1040
11.36250033944969
1040
0.4142135623730871
1040
34.25860582087762
1040
11.62500033944968
1040
0.0
1040
33.38360582087762
1040
11.62500033944968
1040
0.4142135623731507
1040
33.12110582087757
1040
11.36250033944969
1040
0.0
1040
33.12110582087757
1040
3.837500339449681
1040
0.4142135623730891
1040
33.38360582087756
1040
3.575000339449687
1040
0.0
1040
34.25860582087762
1040
3.575000339449687
1040
0.4142135623730891
1040
34.5211058208776
1040
3.837500339449681
1040
0.0
1071
        0
1070
     0
1070
     1
1040
0.0
1040
0.1
1070
     0
1070
     2
1040
0.7853981633974483
1040
-450.4711524238524
1040
-6.599999660550281
1040
-0.2245064030267288
1040
0.2245064030267288
1070
     0
1040
2.356194490192344
1040
-450.4711524238524
1040
-6.599999660550281
1040
-0.2245064030267288
1040
-0.2245064030267288
1070
     0
1040
0.057451373970553
1071
        8
1040
8.039927224998677
1040
7.583587162392461
1040
0.0
1040
11.2022572467066
1040
9.42203143067519
1040
0.0
1040
12.58218368631685
1040
7.755941162485044
1040
0.0
1040
15.45702973430559
1040
8.100649162670435
1040
0.0
1040
20.91923575296539
1040
8.330455296441243
1040
0.0
1040
23.44910019105179
1040
9.70928849765329
1040
0.0
1040
28.2788427296872
1040
9.364579296997192
1040
0.0
1040
33.91353955329839
1040
9.594385430767999
1040
0.0
1002
}
  0
LINE
  5
586
330
1A
100
AcDbEntity
  8
ZUWAKU
100
AcDbLine
 10
19.47110582087759
 20
18.62500033944966
 30
0.0
 11
20.43360582087757
 21
18.62500033944968
 31
0.0
  0
LINE
  5
587
330
1A
100
AcDbEntity
  8
ZUWAKU
100
AcDbLine
 10
20.43360582087757
 20
17.22500033944968
 30
0.0
 11
19.47110582087759
 21
17.22500033944968
 31
0.0
  0
LINE
  5
588
330
1A
100
AcDbEntity
  8
ZUWAKU
100
AcDbLine
 10
19.47110582087759
 20
11.97500033944968
 30
0.0
 11
20.43360582087757
 21
11.97500033944968
 31
0.0
  0
LINE
  5
589
330
1A
100
AcDbEntity
  8
ZUWAKU
100
AcDbLine
 10
20.43360582087757
 20
10.57500033944968
 30
0.0
 11
19.47110582087759
 21
10.57500033944968
 31
0.0
  0
CIRCLE
  5
58A
330
1A
100
AcDbEntity
  8
ZUWAKU
100
AcDbCircle
 10
19.99610582087757
 20
14.60000033944968
 30
0.0
 40
0.875
  0
ARC
  5
58B
330
1A
100
AcDbEntity
  8
ZUWAKU
100
AcDbCircle
 10
14.74610582087757
 20
16.31739932677203
 30
0.0
 40
0.7
100
AcDbArc
 50
180.0000000000016
 51
224.9999999999988
  0
LINE
  5
58C
330
1A
100
AcDbEntity
  8
ZUWAKU
100
AcDbLine
 10
18.7711058208776
 20
16.52500033944968
 30
0.0
 11
18.7711058208776
 21
12.67500033944968
 31
0.0
  0
LINE
  5
58D
330
1A
100
AcDbEntity
  8
ZUWAKU
100
AcDbLine
 10
17.37110582087757
 20
12.67500033944968
 30
0.0
 11
17.37110582087757
 21
16.52500033944966
 31
0.0
  0
ARC
  5
58E
330
1A
100
AcDbEntity
  8
ZUWAKU
100
AcDbCircle
 10
14.74610582087757
 20
16.31739932677203
 30
0.0
 40
2.099999999999999
100
AcDbArc
 50
180.0
 51
225.0
  0
ARC
  5
58F
330
1A
100
AcDbEntity
  8
ZUWAKU
100
AcDbCircle
 10
14.92110582087758
 20
11.97500033944968
 30
0.0
 40
1.399999999999999
100
AcDbArc
 50
270.0
 51
0.0
  0
ARC
  5
590
330
1A
100
AcDbEntity
  8
ZUWAKU
100
AcDbCircle
 10
19.47110582087759
 20
12.67500033944968
 30
0.0
 40
2.099999999999999
100
AcDbArc
 50
180.0
 51
270.0
  0
ARC
  5
591
330
1A
100
AcDbEntity
  8
ZUWAKU
100
AcDbCircle
 10
14.22110582087759
 20
12.88260135212733
 30
0.0
 40
2.099999999999999
100
AcDbArc
 50
0.0
 51
45.0
  0
LINE
  5
592
330
1A
100
AcDbEntity
  8
ZUWAKU
100
AcDbLine
 10
15.70603006136934
 20
14.36752559261909
 30
0.0
 11
14.251131074047
 21
15.82242457994143
 31
0.0
  0
LINE
  5
593
330
1A
100
AcDbEntity
  8
ZUWAKU
100
AcDbLine
 10
14.92110582087758
 20
12.23750033944968
 30
0.0
 11
14.92110582087758
 21
12.88260135212736
 31
0.0
  0
ARC
  5
594
330
1A
100
AcDbEntity
  8
ZUWAKU
100
AcDbCircle
 10
14.65860582087759
 20
12.23750033944968
 30
0.0
 40
0.2625
100
AcDbArc
 50
270.0
 51
0.0
  0
ARC
  5
595
330
1A
100
AcDbEntity
  8
ZUWAKU
100
AcDbCircle
 10
14.22110582087759
 20
12.88260135212736
 30
0.0
 40
0.7
100
AcDbArc
 50
0.0
 51
45.0
  0
LINE
  5
596
330
1A
100
AcDbEntity
  8
ZUWAKU
100
AcDbLine
 10
12.90860582087759
 20
10.83750033944968
 30
0.0
 11
12.90860582087759
 21
11.71250033944968
 31
0.0
  0
ARC
  5
597
330
1A
100
AcDbEntity
  8
ZUWAKU
100
AcDbCircle
 10
13.17110582087758
 20
10.83750033944968
 30
0.0
 40
0.2625
100
AcDbArc
 50
180.0
 51
270.0
  0
ARC
  5
598
330
1A
100
AcDbEntity
  8
ZUWAKU
100
AcDbCircle
 10
13.17110582087758
 20
11.71250033944968
 30
0.0
 40
0.2625
100
AcDbArc
 50
90.0
 51
180.0
  0
LINE
  5
599
330
1A
100
AcDbEntity
  8
ZUWAKU
100
AcDbLine
 10
13.17110582087758
 20
10.57500033944968
 30
0.0
 11
14.92110582087758
 21
10.57500033944968
 31
0.0
  0
LINE
  5
59A
330
1A
100
AcDbEntity
  8
ZUWAKU
100
AcDbLine
 10
13.17110582087758
 20
11.97500033944968
 30
0.0
 11
14.65860582087759
 21
11.97500033944968
 31
0.0
  0
LINE
  5
59B
330
1A
100
AcDbEntity
  8
ZUWAKU
100
AcDbLine
 10
13.26118158038582
 20
14.83247508628027
 30
0.0
 11
14.71608056770816
 21
13.37757609895794
 31
0.0
  0
LINE
  5
59C
330
1A
100
AcDbEntity
  8
ZUWAKU
100
AcDbLine
 10
16.32110582087761
 20
11.97500033944968
 30
0.0
 11
16.32110582087761
 21
12.88260135212736
 31
0.0
  0
ARC
  5
59D
330
1A
100
AcDbEntity
  8
ZUWAKU
100
AcDbCircle
 10
19.47110582087759
 20
12.67500033944968
 30
0.0
 40
0.7
100
AcDbArc
 50
180.0
 51
270.0
  0
ARC
  5
59E
330
1A
100
AcDbEntity
  8
ZUWAKU
100
AcDbCircle
 10
15.79610582087758
 20
18.36250033944968
 30
0.0
 40
0.2625
100
AcDbArc
 50
0.0
 51
90.0
  0
ARC
  5
59F
330
1A
100
AcDbEntity
  8
ZUWAKU
100
AcDbCircle
 10
15.79610582087758
 20
17.48750033944968
 30
0.0
 40
0.2625
100
AcDbArc
 50
270.0
 51
0.0
  0
LINE
  5
5A0
330
1A
100
AcDbEntity
  8
ZUWAKU
100
AcDbLine
 10
14.04610582087758
 20
18.62500033944968
 30
0.0
 11
15.79610582087758
 21
18.62500033944968
 31
0.0
  0
ARC
  5
5A1
330
1A
100
AcDbEntity
  8
ZUWAKU
100
AcDbCircle
 10
14.30860582087757
 20
16.96250033944968
 30
0.0
 40
0.2625
100
AcDbArc
 50
90.0
 51
180.0
  0
LINE
  5
5A2
330
1A
100
AcDbEntity
  8
ZUWAKU
100
AcDbLine
 10
14.04610582087758
 20
16.96250033944968
 30
0.0
 11
14.04610582087758
 21
16.31739932677201
 31
0.0
  0
LINE
  5
5A3
330
1A
100
AcDbEntity
  8
ZUWAKU
100
AcDbLine
 10
15.79610582087758
 20
17.22500033944968
 30
0.0
 11
14.30860582087757
 21
17.22500033944968
 31
0.0
  0
LINE
  5
5A4
330
1A
100
AcDbEntity
  8
ZUWAKU
100
AcDbLine
 10
12.6461058208776
 20
17.22500033944968
 30
0.0
 11
12.6461058208776
 21
16.31739932677201
 31
0.0
  0
ARC
  5
5A5
330
1A
100
AcDbEntity
  8
ZUWAKU
100
AcDbCircle
 10
14.04610582087758
 20
17.22500033944968
 30
0.0
 40
1.399999999999999
100
AcDbArc
 50
90.0
 51
180.0
  0
LINE
  5
5A6
330
1A
100
AcDbEntity
  8
ZUWAKU
100
AcDbLine
 10
16.05860582087757
 20
18.36250033944968
 30
0.0
 11
16.05860582087757
 21
17.48750033944968
 31
0.0
  0
ARC
  5
5A7
330
1A
100
AcDbEntity
  8
ZUWAKU
100
AcDbCircle
 10
19.47110582087759
 20
16.52500033944968
 30
0.0
 40
0.7
100
AcDbArc
 50
90.0
 51
180.0
  0
ARC
  5
5A8
330
1A
100
AcDbEntity
  8
ZUWAKU
100
AcDbCircle
 10
19.47110582087759
 20
16.52500033944966
 30
0.0
 40
2.099999999999999
100
AcDbArc
 50
90.0
 51
180.0
  0
LINE
  5
5A9
330
1A
100
AcDbEntity
  8
ZUWAKU
100
AcDbLine
 10
46.66331451748113
 20
22.00000033944968
 30
0.0
 11
46.66331451748123
 21
7.400000339449718
 31
0.0
  0
LINE
  5
5AA
330
1A
100
AcDbEntity
  8
ZUWAKU
100
AcDbLine
 10
46.76331451748114
 20
22.00000033944968
 30
0.0
 11
46.76331451748126
 21
7.400000339449718
 31
0.0
  0
LINE
  5
5AB
330
1A
100
AcDbEntity
  8
ZUWAKU
100
AcDbLine
 10
46.56331451748122
 20
22.00000033944968
 30
0.0
 11
46.56331451748122
 21
7.400000339449718
 31
0.0
  0
LINE
  5
5AC
330
1A
100
AcDbEntity
  8
ZUWAKU
100
AcDbLine
 10
39.07110582087762
 20
11.97500033944968
 30
0.0
 11
39.07110582087762
 21
18.36250033944968
 31
0.0
  0
LINE
  5
5AD
330
1A
100
AcDbEntity
  8
ZUWAKU
100
AcDbLine
 10
37.67110582087758
 20
18.36250033944968
 30
0.0
 11
37.67110582087758
 21
12.50000033944968
 31
0.0
  0
LINE
  5
5AE
330
1A
100
AcDbEntity
  8
ZUWAKU
100
AcDbLine
 10
41.5211058208776
 20
10.83750033944968
 30
0.0
 11
41.5211058208776
 21
18.36250033944968
 31
0.0
  0
LINE
  5
5AF
330
1A
100
AcDbEntity
  8
ZUWAKU
100
AcDbLine
 10
40.12110582087757
 20
18.36250033944968
 30
0.0
 11
40.12110582087757
 21
10.83750033944968
 31
0.0
  0
ARC
  5
5B0
330
1A
100
AcDbEntity
  8
ZUWAKU
100
AcDbCircle
 10
31.89610582087761
 20
16.31739932677203
 30
0.0
 40
0.7
100
AcDbArc
 50
180.0000000000016
 51
224.9999999999988
  0
ARC
  5
5B1
330
1A
100
AcDbEntity
  8
ZUWAKU
100
AcDbCircle
 10
31.89610582087761
 20
16.31739932677203
 30
0.0
 40
2.099999999999999
100
AcDbArc
 50
180.0
 51
225.0
  0
LINE
  5
5B2
330
1A
100
AcDbEntity
  8
ZUWAKU
100
AcDbLine
 10
25.65742906196658
 20
16.6025239362314
 30
0.0
 11
25.02505318929866
 21
14.60000033944969
 31
0.0
  0
LINE
  5
5B3
330
1A
100
AcDbEntity
  8
ZUWAKU
100
AcDbLine
 10
27.34610582087759
 20
18.36250033944968
 30
0.0
 11
27.34610582087759
 21
10.83750033944968
 31
0.0
  0
LINE
  5
5B4
330
1A
100
AcDbEntity
  8
ZUWAKU
100
AcDbLine
 10
28.74610582087757
 20
10.83750033944968
 30
0.0
 11
28.74610582087757
 21
18.36250033944968
 31
0.0
  0
LINE
  5
5B5
330
1A
100
AcDbEntity
  8
ZUWAKU
100
AcDbLine
 10
34.5211058208776
 20
18.36250033944968
 30
0.0
 11
34.5211058208776
 21
11.97500033944968
 31
0.0
  0
LINE
  5
5B6
330
1A
100
AcDbEntity
  8
ZUWAKU
100
AcDbLine
 10
35.92110582087758
 20
12.50000033944968
 30
0.0
 11
35.92110582087758
 21
18.36250033944968
 31
0.0
  0
LINE
  5
5B7
330
1A
100
AcDbEntity
  8
ZUWAKU
100
AcDbLine
 10
23.32110582087762
 20
15.56250033944968
 30
0.0
 11
23.32110582087762
 21
18.36250033944968
 31
0.0
  0
LINE
  5
5B8
330
1A
100
AcDbEntity
  8
ZUWAKU
100
AcDbLine
 10
21.92110582087758
 20
18.36250033944968
 30
0.0
 11
21.92110582087758
 21
10.83750033944968
 31
0.0
  0
LINE
  5
5B9
330
1A
100
AcDbEntity
  8
ZUWAKU
100
AcDbLine
 10
24.83817328953552
 20
18.44154732353317
 30
0.0
 11
23.90403835221963
 21
15.4834533553662
 31
0.0
  0
LINE
  5
5BA
330
1A
100
AcDbEntity
  8
ZUWAKU
100
AcDbLine
 10
37.14610582087761
 20
11.97500033944968
 30
0.0
 11
36.44610582087762
 21
11.97500033944968
 31
0.0
  0
LINE
  5
5BB
330
1A
100
AcDbEntity
  8
ZUWAKU
100
AcDbLine
 10
35.92110582087758
 20
10.57500033944968
 30
0.0
 11
37.67110582087758
 21
10.57500033944968
 31
0.0
  0
LINE
  5
5BC
330
1A
100
AcDbEntity
  8
ZUWAKU
100
AcDbLine
 10
27.60860582087758
 20
10.57500033944968
 30
0.0
 11
28.48360582087758
 21
10.57500033944968
 31
0.0
  0
LINE
  5
5BD
330
1A
100
AcDbEntity
  8
ZUWAKU
100
AcDbLine
 10
24.83817328953552
 20
10.75845335536619
 30
0.0
 11
23.90403835221963
 21
13.71654732353317
 31
0.0
  0
ARC
  5
5BE
330
1A
100
AcDbEntity
  8
ZUWAKU
100
AcDbCircle
 10
23.65372290262194
 20
15.56250033944968
 30
0.0
 40
0.2625
100
AcDbArc
 50
270.0
 51
342.4744316262769
  0
LINE
  5
5BF
330
1A
100
AcDbEntity
  8
ZUWAKU
100
AcDbLine
 10
23.65372290262194
 20
15.30000033944968
 30
0.0
 11
23.5836058208776
 21
15.30000033944968
 31
0.0
  0
LINE
  5
5C0
330
1A
100
AcDbEntity
  8
ZUWAKU
100
AcDbLine
 10
23.5836058208776
 20
13.90000033944968
 30
0.0
 11
23.65372290262194
 21
13.90000033944968
 31
0.0
  0
ARC
  5
5C1
330
1A
100
AcDbEntity
  8
ZUWAKU
100
AcDbCircle
 10
23.5836058208776
 20
15.56250033944968
 30
0.0
 40
0.2625
100
AcDbArc
 50
180.0
 51
270.0
  0
LINE
  5
5C2
330
1A
100
AcDbEntity
  8
ZUWAKU
100
AcDbLine
 10
22.18360582087757
 20
10.57500033944968
 30
0.0
 11
23.05860582087757
 21
10.57500033944968
 31
0.0
  0
ARC
  5
5C3
330
1A
100
AcDbEntity
  8
ZUWAKU
100
AcDbCircle
 10
23.05860582087757
 20
10.83750033944968
 30
0.0
 40
0.2625
100
AcDbArc
 50
270.0
 51
0.0
  0
LINE
  5
5C4
330
1A
100
AcDbEntity
  8
ZUWAKU
100
AcDbLine
 10
23.32110582087762
 20
10.83750033944968
 30
0.0
 11
23.32110582087762
 21
13.63750033944968
 31
0.0
  0
LINE
  5
5C5
330
1A
100
AcDbEntity
  8
ZUWAKU
100
AcDbLine
 10
20.69610582087761
 20
11.71250033944968
 30
0.0
 11
20.69610582087761
 21
10.83750033944968
 31
0.0
  0
ARC
  5
5C6
330
1A
100
AcDbEntity
  8
ZUWAKU
100
AcDbCircle
 10
20.43360582087757
 20
10.83750033944968
 30
0.0
 40
0.2625
100
AcDbArc
 50
270.0
 51
0.0
  0
ARC
  5
5C7
330
1A
100
AcDbEntity
  8
ZUWAKU
100
AcDbCircle
 10
20.43360582087757
 20
11.71250033944968
 30
0.0
 40
0.2625
100
AcDbArc
 50
0.0
 51
90.0
  0
ARC
  5
5C8
330
1A
100
AcDbEntity
  8
ZUWAKU
100
AcDbCircle
 10
22.18360582087757
 20
10.83750033944968
 30
0.0
 40
0.2625
100
AcDbArc
 50
180.0
 51
270.0
  0
ARC
  5
5C9
330
1A
100
AcDbEntity
  8
ZUWAKU
100
AcDbCircle
 10
23.65372290262194
 20
13.63750033944968
 30
0.0
 40
0.2625
100
AcDbArc
 50
17.52556837372303
 51
90.0
  0
ARC
  5
5CA
330
1A
100
AcDbEntity
  8
ZUWAKU
100
AcDbCircle
 10
23.5836058208776
 20
13.63750033944968
 30
0.0
 40
0.2625
100
AcDbArc
 50
90.0
 51
180.0
  0
ARC
  5
5CB
330
1A
100
AcDbEntity
  8
ZUWAKU
100
AcDbCircle
 10
27.60860582087758
 20
10.83750033944968
 30
0.0
 40
0.2625
100
AcDbArc
 50
180.0
 51
270.0
  0
LINE
  5
5CC
330
1A
100
AcDbEntity
  8
ZUWAKU
100
AcDbLine
 10
25.08848873913325
 20
10.57500033944968
 30
0.0
 11
25.93793342893775
 21
10.57500033944968
 31
0.0
  0
ARC
  5
5CD
330
1A
100
AcDbEntity
  8
ZUWAKU
100
AcDbCircle
 10
25.93793342893775
 20
10.83750033944968
 30
0.0
 40
0.2625
100
AcDbArc
 50
270.0
 51
17.52556837372303
  0
LINE
  5
5CE
330
1A
100
AcDbEntity
  8
ZUWAKU
100
AcDbLine
 10
26.18824887853548
 20
10.91654732353317
 30
0.0
 11
25.02505318929866
 21
14.60000033944969
 31
0.0
  0
ARC
  5
5CF
330
1A
100
AcDbEntity
  8
ZUWAKU
100
AcDbCircle
 10
25.08848873913325
 20
10.83750033944968
 30
0.0
 40
0.2625
100
AcDbArc
 50
197.525568373723
 51
270.0
  0
ARC
  5
5D0
330
1A
100
AcDbEntity
  8
ZUWAKU
100
AcDbCircle
 10
35.92110582087758
 20
11.97500033944968
 30
0.0
 40
1.399999999999999
100
AcDbArc
 50
180.0
 51
270.0
  0
ARC
  5
5D1
330
1A
100
AcDbEntity
  8
ZUWAKU
100
AcDbCircle
 10
32.07110582087762
 20
11.97500033944968
 30
0.0
 40
1.399999999999999
100
AcDbArc
 50
270.0
 51
0.0
  0
LINE
  5
5D2
330
1A
100
AcDbEntity
  8
ZUWAKU
100
AcDbLine
 10
32.85603006136938
 20
14.36752559261909
 30
0.0
 11
31.40113107404698
 21
15.82242457994143
 31
0.0
  0
LINE
  5
5D3
330
1A
100
AcDbEntity
  8
ZUWAKU
100
AcDbLine
 10
32.07110582087762
 20
12.23750033944968
 30
0.0
 11
32.07110582087762
 21
12.88260135212736
 31
0.0
  0
ARC
  5
5D4
330
1A
100
AcDbEntity
  8
ZUWAKU
100
AcDbCircle
 10
31.37110582087757
 20
12.88260135212736
 30
0.0
 40
0.7
100
AcDbArc
 50
0.0
 51
45.0
  0
ARC
  5
5D5
330
1A
100
AcDbEntity
  8
ZUWAKU
100
AcDbCircle
 10
31.80860582087757
 20
12.23750033944968
 30
0.0
 40
0.2625
100
AcDbArc
 50
270.0
 51
0.0
  0
LINE
  5
5D6
330
1A
100
AcDbEntity
  8
ZUWAKU
100
AcDbLine
 10
30.05860582087757
 20
10.83750033944968
 30
0.0
 11
30.05860582087757
 21
11.71250033944968
 31
0.0
  0
ARC
  5
5D7
330
1A
100
AcDbEntity
  8
ZUWAKU
100
AcDbCircle
 10
30.32110582087762
 20
10.83750033944968
 30
0.0
 40
0.2625
100
AcDbArc
 50
180.0
 51
270.0
  0
ARC
  5
5D8
330
1A
100
AcDbEntity
  8
ZUWAKU
100
AcDbCircle
 10
28.48360582087758
 20
10.83750033944968
 30
0.0
 40
0.2625
100
AcDbArc
 50
270.0
 51
0.0
  0
ARC
  5
5D9
330
1A
100
AcDbEntity
  8
ZUWAKU
100
AcDbCircle
 10
30.32110582087762
 20
11.71250033944968
 30
0.0
 40
0.2625
100
AcDbArc
 50
90.0
 51
180.0
  0
LINE
  5
5DA
330
1A
100
AcDbEntity
  8
ZUWAKU
100
AcDbLine
 10
30.32110582087762
 20
11.97500033944968
 30
0.0
 11
31.80860582087757
 21
11.97500033944968
 31
0.0
  0
LINE
  5
5DB
330
1A
100
AcDbEntity
  8
ZUWAKU
100
AcDbLine
 10
30.32110582087762
 20
10.57500033944968
 30
0.0
 11
32.07110582087762
 21
10.57500033944968
 31
0.0
  0
LINE
  5
5DC
330
1A
100
AcDbEntity
  8
ZUWAKU
100
AcDbLine
 10
30.41118158038585
 20
14.83247508628027
 30
0.0
 11
31.86608056770819
 21
13.37757609895794
 31
0.0
  0
LINE
  5
5DD
330
1A
100
AcDbEntity
  8
ZUWAKU
100
AcDbLine
 10
33.4711058208776
 20
11.97500033944968
 30
0.0
 11
33.4711058208776
 21
12.88260135212736
 31
0.0
  0
ARC
  5
5DE
330
1A
100
AcDbEntity
  8
ZUWAKU
100
AcDbCircle
 10
31.37110582087757
 20
12.88260135212733
 30
0.0
 40
2.099999999999999
100
AcDbArc
 50
0.0
 51
45.0
  0
ARC
  5
5DF
330
1A
100
AcDbEntity
  8
ZUWAKU
100
AcDbCircle
 10
36.44610582087762
 20
12.50000033944968
 30
0.0
 40
0.525
100
AcDbArc
 50
180.0
 51
270.0
  0
ARC
  5
5E0
330
1A
100
AcDbEntity
  8
ZUWAKU
100
AcDbCircle
 10
37.67110582087758
 20
11.97500033944968
 30
0.0
 40
1.399999999999999
100
AcDbArc
 50
270.0
 51
0.0
  0
LINE
  5
5E1
330
1A
100
AcDbEntity
  8
ZUWAKU
100
AcDbLine
 10
40.38360582087761
 20
10.57500033944968
 30
0.0
 11
41.25860582087762
 21
10.57500033944968
 31
0.0
  0
ARC
  5
5E2
330
1A
100
AcDbEntity
  8
ZUWAKU
100
AcDbCircle
 10
40.38360582087761
 20
10.83750033944968
 30
0.0
 40
0.2625
100
AcDbArc
 50
180.0
 51
270.0
  0
ARC
  5
5E3
330
1A
100
AcDbEntity
  8
ZUWAKU
100
AcDbCircle
 10
37.14610582087761
 20
12.50000033944968
 30
0.0
 40
0.525
100
AcDbArc
 50
270.0
 51
0.0
  0
ARC
  5
5E4
330
1A
100
AcDbEntity
  8
ZUWAKU
100
AcDbCircle
 10
41.25860582087762
 20
10.83750033944968
 30
0.0
 40
0.2625
100
AcDbArc
 50
270.0
 51
0.0
  0
LINE
  5
5E5
330
1A
100
AcDbEntity
  8
ZUWAKU
100
AcDbLine
 10
28.48360582087758
 20
18.62500033944968
 30
0.0
 11
27.60860582087758
 21
18.62500033944968
 31
0.0
  0
ARC
  5
5E6
330
1A
100
AcDbEntity
  8
ZUWAKU
100
AcDbCircle
 10
23.05860582087757
 20
18.36250033944968
 30
0.0
 40
0.2625
100
AcDbArc
 50
0.0
 51
90.0
  0
LINE
  5
5E7
330
1A
100
AcDbEntity
  8
ZUWAKU
100
AcDbLine
 10
23.05860582087757
 20
18.62500033944968
 30
0.0
 11
22.18360582087757
 21
18.62500033944968
 31
0.0
  0
ARC
  5
5E8
330
1A
100
AcDbEntity
  8
ZUWAKU
100
AcDbCircle
 10
20.43360582087757
 20
18.36250033944968
 30
0.0
 40
0.2625
100
AcDbArc
 50
0.0
 51
90.0
  0
ARC
  5
5E9
330
1A
100
AcDbEntity
  8
ZUWAKU
100
AcDbCircle
 10
22.18360582087757
 20
18.36250033944968
 30
0.0
 40
0.2625
100
AcDbArc
 50
90.0
 51
180.0
  0
ARC
  5
5EA
330
1A
100
AcDbEntity
  8
ZUWAKU
100
AcDbCircle
 10
20.43360582087757
 20
17.48750033944968
 30
0.0
 40
0.2625
100
AcDbArc
 50
270.0
 51
0.0
  0
LINE
  5
5EB
330
1A
100
AcDbEntity
  8
ZUWAKU
100
AcDbLine
 10
20.69610582087761
 20
18.36250033944968
 30
0.0
 11
20.69610582087761
 21
17.48750033944968
 31
0.0
  0
ARC
  5
5EC
330
1A
100
AcDbEntity
  8
ZUWAKU
100
AcDbCircle
 10
27.60860582087758
 20
18.36250033944968
 30
0.0
 40
0.2625
100
AcDbArc
 50
90.0
 51
180.0
  0
LINE
  5
5ED
330
1A
100
AcDbEntity
  8
ZUWAKU
100
AcDbLine
 10
25.08848873913325
 20
18.62500033944968
 30
0.0
 11
25.93793342893775
 21
18.62500033944968
 31
0.0
  0
ARC
  5
5EE
330
1A
100
AcDbEntity
  8
ZUWAKU
100
AcDbCircle
 10
25.93793342893775
 20
18.36250033944968
 30
0.0
 40
0.2625
100
AcDbArc
 50
342.4744316262769
 51
90.0
  0
LINE
  5
5EF
330
1A
100
AcDbEntity
  8
ZUWAKU
100
AcDbLine
 10
26.18824887853548
 20
18.2834533553662
 30
0.0
 11
25.65742906196658
 21
16.6025239362314
 31
0.0
  0
ARC
  5
5F0
330
1A
100
AcDbEntity
  8
ZUWAKU
100
AcDbCircle
 10
25.08848873913325
 20
18.36250033944968
 30
0.0
 40
0.2625
100
AcDbArc
 50
90.0
 51
162.4744316262769
  0
LINE
  5
5F1
330
1A
100
AcDbEntity
  8
ZUWAKU
100
AcDbLine
 10
31.19610582087762
 20
18.62500033944968
 30
0.0
 11
32.94610582087762
 21
18.62500033944968
 31
0.0
  0
LINE
  5
5F2
330
1A
100
AcDbEntity
  8
ZUWAKU
100
AcDbLine
 10
32.94610582087762
 20
17.22500033944968
 30
0.0
 11
31.4586058208776
 21
17.22500033944968
 31
0.0
  0
ARC
  5
5F3
330
1A
100
AcDbEntity
  8
ZUWAKU
100
AcDbCircle
 10
31.4586058208776
 20
16.96250033944968
 30
0.0
 40
0.2625
100
AcDbArc
 50
90.0
 51
180.0
  0
LINE
  5
5F4
330
1A
100
AcDbEntity
  8
ZUWAKU
100
AcDbLine
 10
31.19610582087762
 20
16.96250033944968
 30
0.0
 11
31.19610582087762
 21
16.31739932677201
 31
0.0
  0
ARC
  5
5F5
330
1A
100
AcDbEntity
  8
ZUWAKU
100
AcDbCircle
 10
28.48360582087758
 20
18.36250033944968
 30
0.0
 40
0.2625
100
AcDbArc
 50
0.0
 51
90.0
  0
LINE
  5
5F6
330
1A
100
AcDbEntity
  8
ZUWAKU
100
AcDbLine
 10
29.79610582087758
 20
17.22500033944968
 30
0.0
 11
29.79610582087758
 21
16.31739932677201
 31
0.0
  0
ARC
  5
5F7
330
1A
100
AcDbEntity
  8
ZUWAKU
100
AcDbCircle
 10
31.19610582087762
 20
17.22500033944968
 30
0.0
 40
1.399999999999999
100
AcDbArc
 50
90.0
 51
180.0
  0
ARC
  5
5F8
330
1A
100
AcDbEntity
  8
ZUWAKU
100
AcDbCircle
 10
35.6586058208776
 20
18.36250033944968
 30
0.0
 40
0.2625
100
AcDbArc
 50
0.0
 51
90.0
  0
ARC
  5
5F9
330
1A
100
AcDbEntity
  8
ZUWAKU
100
AcDbCircle
 10
34.78360582087759
 20
18.36250033944968
 30
0.0
 40
0.2625
100
AcDbArc
 50
90.0
 51
180.0
  0
LINE
  5
5FA
330
1A
100
AcDbEntity
  8
ZUWAKU
100
AcDbLine
 10
35.6586058208776
 20
18.62500033944968
 30
0.0
 11
34.78360582087759
 21
18.62500033944968
 31
0.0
  0
ARC
  5
5FB
330
1A
100
AcDbEntity
  8
ZUWAKU
100
AcDbCircle
 10
32.94610582087762
 20
18.36250033944968
 30
0.0
 40
0.2625
100
AcDbArc
 50
0.0
 51
90.0
  0
ARC
  5
5FC
330
1A
100
AcDbEntity
  8
ZUWAKU
100
AcDbCircle
 10
32.94610582087762
 20
17.48750033944968
 30
0.0
 40
0.2625
100
AcDbArc
 50
270.0
 51
0.0
  0
LINE
  5
5FD
330
1A
100
AcDbEntity
  8
ZUWAKU
100
AcDbLine
 10
33.2086058208776
 20
18.36250033944968
 30
0.0
 11
33.2086058208776
 21
17.48750033944968
 31
0.0
  0
LINE
  5
5FE
330
1A
100
AcDbEntity
  8
ZUWAKU
100
AcDbLine
 10
41.25860582087762
 20
18.62500033944968
 30
0.0
 11
40.38360582087761
 21
18.62500033944968
 31
0.0
  0
ARC
  5
5FF
330
1A
100
AcDbEntity
  8
ZUWAKU
100
AcDbCircle
 10
40.38360582087761
 20
18.36250033944968
 30
0.0
 40
0.2625
100
AcDbArc
 50
90.0
 51
180.0
  0
ARC
  5
600
330
1A
100
AcDbEntity
  8
ZUWAKU
100
AcDbCircle
 10
38.80860582087757
 20
18.36250033944968
 30
0.0
 40
0.2625
100
AcDbArc
 50
0.0
 51
90.0
  0
LINE
  5
601
330
1A
100
AcDbEntity
  8
ZUWAKU
100
AcDbLine
 10
38.80860582087757
 20
18.62500033944968
 30
0.0
 11
37.93360582087757
 21
18.62500033944968
 31
0.0
  0
ARC
  5
602
330
1A
100
AcDbEntity
  8
ZUWAKU
100
AcDbCircle
 10
37.93360582087757
 20
18.36250033944968
 30
0.0
 40
0.2625
100
AcDbArc
 50
90.0
 51
180.0
  0
ARC
  5
603
330
1A
100
AcDbEntity
  8
ZUWAKU
100
AcDbCircle
 10
41.25860582087762
 20
18.36250033944968
 30
0.0
 40
0.2625
100
AcDbArc
 50
0.0
 51
90.0
  0
LINE
  5
606
330
1A
100
AcDbEntity
  8
ZUWAKU
100
AcDbLine
 10
111.1233003885209
 20
22.00000033944968
 30
0.0
 11
111.1233003885209
 21
7.400000339449718
 31
0.0
  0
LINE
  5
607
330
1A
100
AcDbEntity
  8
ZUWAKU
100
AcDbLine
 10
111.3233003885209
 20
22.00000033944968
 30
0.0
 11
111.323300388521
 21
7.400000339449718
 31
0.0
  0
LINE
  5
608
330
1A
100
AcDbEntity
  8
ZUWAKU
100
AcDbLine
 10
111.2233003885209
 20
22.00000033944968
 30
0.0
 11
111.223300388521
 21
7.400000339449718
 31
0.0
  0
TEXT
  5
609
330
1A
100
AcDbEntity
  8
ZUWAKU
100
AcDbText
 10
111.8620228996258
 20
11.82767860864249
 30
0.0
 40
2.0
  1
サイズ
 41
0.9
  7
ｽﾀｲﾙ1
100
AcDbText
  0
TEXT
  5
60A
330
1A
100
AcDbEntity
  8
ZUWAKU
100
AcDbText
 10
111.8620228996256
 20
19.02767860864247
 30
0.0
 40
2.0
  1
品名
 41
0.9
  7
ｽﾀｲﾙ1
100
AcDbText
  0
LINE
  5
60C
330
1A
100
AcDbEntity
  8
ZUWAKU
100
AcDbLine
 10
331.4086009985891
 20
14.6000003394497
 30
0.0
 11
355.6245050177576
 21
14.6000003394497
 31
0.0
  0
LINE
  5
60D
330
1A
100
AcDbEntity
  8
ZUWAKU
100
AcDbLine
 10
331.4086009985892
 20
14.7000003394497
 30
0.0
 11
355.6245050177576
 21
14.7000003394497
 31
0.0
  0
LINE
  5
60E
330
1A
100
AcDbEntity
  8
ZUWAKU
100
AcDbLine
 10
331.4086009985891
 20
14.8000003394497
 30
0.0
 11
355.6245050177576
 21
14.8000003394497
 31
0.0
  0
LINE
  5
610
330
1A
100
AcDbEntity
  8
ZUWAKU
100
AcDbLine
 10
259.5995894925574
 20
14.6000003394497
 30
0.0
 11
283.2634776265432
 21
14.6000003394497
 31
0.0
  0
LINE
  5
611
330
1A
100
AcDbEntity
  8
ZUWAKU
100
AcDbLine
 10
259.5995894925574
 20
14.7000003394497
 30
0.0
 11
283.2634776265432
 21
14.7000003394497
 31
0.0
  0
LINE
  5
612
330
1A
100
AcDbEntity
  8
ZUWAKU
100
AcDbLine
 10
259.5995894925574
 20
14.8000003394497
 30
0.0
 11
283.2634776265432
 21
14.8000003394497
 31
0.0
  0
TEXT
  5
613
330
1A
100
AcDbEntity
  8
MOJI
100
AcDbText
 10
238.7841524247672
 20
12.97130920027967
 30
0.0
 40
2.799999999999999
  1
ＰＦ７３□
 41
0.9
  7
ｽﾀｲﾙ1
100
AcDbText
  0
LINE
  5
614
330
1A
100
AcDbEntity
  8
ZUWAKU
100
AcDbLine
 10
230.8121817289826
 20
22.00000033944968
 30
0.0
 11
230.8121817289827
 21
7.400000339449718
 31
0.0
  0
LINE
  5
615
330
1A
100
AcDbEntity
  8
ZUWAKU
100
AcDbLine
 10
230.9121817289826
 20
22.00000033944968
 30
0.0
 11
230.9121817289827
 21
7.400000339449718
 31
0.0
  0
LINE
  5
616
330
1A
100
AcDbEntity
  8
ZUWAKU
100
AcDbLine
 10
230.7121817289827
 20
22.00000033944968
 30
0.0
 11
230.7121817289827
 21
7.400000339449718
 31
0.0
  0
TEXT
  5
617
330
1A
100
AcDbEntity
  8
MOJI
100
AcDbText
 10
271.0204537296434
 20
16.00246086815337
 30
0.0
 40
2.799999999999999
  1
Ａ３
 41
0.9
  7
ｽﾀｲﾙ1
100
AcDbText
  0
LINE
  5
618
330
1A
100
AcDbEntity
  8
ZUWAKU
100
AcDbLine
 10
259.4995894925574
 20
22.00000033944968
 30
0.0
 11
259.4995894925575
 21
7.400000339449718
 31
0.0
  0
LINE
  5
619
330
1A
100
AcDbEntity
  8
ZUWAKU
100
AcDbLine
 10
259.5995894925574
 20
22.00000033944968
 30
0.0
 11
259.5995894925575
 21
7.400000339449718
 31
0.0
  0
LINE
  5
61A
330
1A
100
AcDbEntity
  8
ZUWAKU
100
AcDbLine
 10
259.3995894925575
 20
22.00000033944968
 30
0.0
 11
259.3995894925575
 21
7.400000339449718
 31
0.0
  0
TEXT
  5
61B
330
1A
100
AcDbEntity
  8
ZUWAKU
100
AcDbText
 10
238.3468805712406
 20
8.30703579501943
 30
0.0
 40
1.5
  1
□には色品番が入ります
 41
0.9
  7
ｽﾀｲﾙ1
100
AcDbText
  0
TEXT
  5
61C
330
1A
100
AcDbEntity
  8
ZUWAKU
100
AcDbText
 10
260.3383120036624
 20
11.82767860864249
 30
0.0
 40
2.0
  1
縮尺
 41
0.9
  7
ｽﾀｲﾙ1
100
AcDbText
  0
TEXT
  5
61D
330
1A
100
AcDbEntity
  8
MOJI
100
AcDbText
 10
271.0204537296434
 20
8.602460868153395
 30
0.0
 40
2.799999999999999
  1
１/１
 41
0.9
  7
ｽﾀｲﾙ1
100
AcDbText
  0
TEXT
  5
61E
330
1A
100
AcDbEntity
  8
ZUWAKU
100
AcDbText
 10
231.6509042400874
 20
19.02767860864247
 30
0.0
 40
2.0
  1
品番
 41
0.9
  7
ｽﾀｲﾙ1
100
AcDbText
  0
TEXT
  5
61F
330
1A
100
AcDbEntity
  8
ZUWAKU
100
AcDbText
 10
260.3383120036622
 20
19.02767860864247
 30
0.0
 40
2.0
  1
用紙
 41
0.9
  7
ｽﾀｲﾙ1
100
AcDbText
  0
LINE
  5
620
330
1A
100
AcDbEntity
  8
ZUWAKU
100
AcDbLine
 10
331.3086009985892
 20
22.00000033944968
 30
0.0
 11
331.3086009985893
 21
7.400000339449718
 31
0.0
  0
LINE
  5
621
330
1A
100
AcDbEntity
  8
ZUWAKU
100
AcDbLine
 10
331.4086009985892
 20
22.00000033944968
 30
0.0
 11
331.4086009985893
 21
7.400000339449718
 31
0.0
  0
LINE
  5
622
330
1A
100
AcDbEntity
  8
ZUWAKU
100
AcDbLine
 10
331.2086009985893
 20
22.00000033944968
 30
0.0
 11
331.2086009985893
 21
7.400000339449718
 31
0.0
  0
LINE
  5
623
330
1A
100
AcDbEntity
  8
ZUWAKU
100
AcDbLine
 10
283.3634776265431
 20
22.00000033944968
 30
0.0
 11
283.3634776265432
 21
7.400000339449718
 31
0.0
  0
LINE
  5
624
330
1A
100
AcDbEntity
  8
ZUWAKU
100
AcDbLine
 10
283.4634776265431
 20
22.00000033944968
 30
0.0
 11
283.4634776265433
 21
7.400000339449718
 31
0.0
  0
LINE
  5
625
330
1A
100
AcDbEntity
  8
ZUWAKU
100
AcDbLine
 10
283.2634776265432
 20
22.00000033944968
 30
0.0
 11
283.2634776265432
 21
7.400000339449718
 31
0.0
  0
TEXT
  5
626
330
1A
100
AcDbEntity
  8
ZUWAKU
100
AcDbText
 10
332.147323509694
 20
19.02767860864247
 30
0.0
 40
2.0
  1
DATE
 41
0.9
  7
ｽﾀｲﾙ1
100
AcDbText
  0
LINE
  5
627
330
1A
100
AcDbEntity
  8
ZUWAKU
100
AcDbLine
 10
355.6245050177576
 20
22.00000033944968
 30
0.0
 11
355.6245050177576
 21
7.400000339449718
 31
0.0
  0
LINE
  5
628
330
1A
100
AcDbEntity
  8
ZUWAKU
100
AcDbLine
 10
355.7245050177576
 20
22.00000033944968
 30
0.0
 11
355.7245050177576
 21
7.400000339449718
 31
0.0
  0
LINE
  5
629
330
1A
100
AcDbEntity
  8
ZUWAKU
100
AcDbLine
 10
355.8245050177575
 20
22.00000033944968
 30
0.0
 11
355.8245050177577
 21
7.400000339449718
 31
0.0
  0
LINE
  5
62A
330
1A
100
AcDbEntity
  8
ZUWAKU
100
AcDbLine
 10
355.9245050177576
 20
22.00000033944968
 30
0.0
 11
355.9245050177577
 21
7.400000339449718
 31
0.0
  0
TEXT
  5
62B
330
1A
100
AcDbEntity
  8
ZUWAKU
100
AcDbText
 10
361.2640418396089
 20
15.77692000729308
 30
0.0
 40
3.0
  1
積水化学工業株式会社
 41
0.9
  7
ｽﾀｲﾙ1
100
AcDbText
  0
TEXT
  5
62C
330
1A
100
AcDbEntity
  8
ZUWAKU
100
AcDbText
 10
361.2640418396089
 20
10.32442049637671
 30
0.0
 40
3.0
  1
建材事業部
 41
0.9
  7
ｽﾀｲﾙ1
100
AcDbText
  0
TEXT
  5
149A
330
1A
100
AcDbEntity
  8
MOJI
100
AcDbText
 10
126.6730248442844
 20
16.4749905891615
 30
0.0
 40
2.799999999999999
  1
角丸エルボ
 41
0.9
  7
ｽﾀｲﾙ1
100
AcDbText
  0
TEXT
  5
149B
330
1A
100
AcDbEntity
  8
MOJI
100
AcDbText
 10
126.3864265374658
 20
9.313206752988428
 30
0.0
 40
2.799999999999999
  1
Ｙ６０Ｈ－ＵＴ６０－７５°
 41
0.9
  7
ｽﾀｲﾙ1
100
AcDbText
  0
DIMENSION
  5
2219
330
1A
100
AcDbEntity
  8
SUNPOU
 62
     4
100
AcDbDimension
  2
*D2
 10
127.5131054809811
 20
145.4426738316551
 30
0.0
 11
144.4439836783427
 21
130.8921293702985
 31
0.0
 70
    34
  3
STANDARD
100
AcDb2LineAngularDimension
 13
134.7714759650466
 23
200.7391584147205
 33
0.0
 14
134.7713058908195
 24
135.9835665688772
 34
0.0
 15
194.3751759650466
 25
127.5269584147206
 35
0.0
 16
142.5428669932415
 26
126.8316150355717
 36
0.0
1001
ACAD
1000
DSTYLE
1002
{
1070
   271
1070
     0
1070
   271
1070
     0
1070
   271
1070
     0
1070
   271
1070
     0
1070
   140
1040
3.0
1070
    74
1070
     0
1070
   172
1070
     1
1070
    73
1070
     0
1070
   272
1070
     2
1070
    77
1070
     3
1070
   173
1070
     1
1070
   147
1040
1.0
1070
    42
1040
3.0
1070
    44
1040
1.5
1070
    43
1040
7.0
1070
   271
1070
     0
1070
   178
1070
     4
1070
   177
1070
     4
1070
   176
1070
     4
1070
   141
1040
150.0
1070
     7
1000
_OPEN
1070
     6
1000
_OPEN
1070
    41
1040
3.0
1002
}
  0
DIMENSION
  5
221A
330
1A
100
AcDbEntity
  8
SUNPOU
 62
     4
100
AcDbDimension
  2
*D3
 10
202.1332153434322
 20
92.31918940415955
 30
0.0
 11
207.987803508318
 21
123.8275472075992
 31
0.0
 70
    33
  1
φ <>
  3
STANDARD
100
AcDbAlignedDimension
 13
176.3696759650465
 23
165.3768584147204
 33
0.0
 14
159.8308759650465
 24
103.6542584147205
 34
0.0
1001
ACAD
1000
DSTYLE
1002
{
1070
   140
1040
3.0
1070
    74
1070
     0
1070
   172
1070
     1
1070
    73
1070
     0
1070
   272
1070
     2
1070
    77
1070
     3
1070
   173
1070
     1
1070
   147
1040
1.0
1070
    42
1040
3.0
1070
    44
1040
1.5
1070
    43
1040
7.0
1070
   271
1070
     0
1070
   178
1070
     4
1070
   177
1070
     4
1070
   176
1070
     4
1070
   141
1040
150.0
1070
     7
1000
_OPEN
1070
     6
1000
_OPEN
1070
    41
1040
3.0
1002
}
  0
DIMENSION
  5
221B
330
1A
100
AcDbEntity
  8
SUNPOU
 62
     4
100
AcDbDimension
  2
*D4
 10
168.1132433116081
 20
156.1040182093807
 30
0.0
 11
151.4422844689543
 21
158.6040182093807
 31
0.0
 70
    32
  3
STANDARD
100
AcDbAlignedDimension
 13
134.7713256263004
 23
143.4978311784801
 33
0.0
 14
168.1132433116081
 24
134.5638525508336
 34
0.0
100
AcDbRotatedDimension
1001
ACAD
1000
DSTYLE
1002
{
1070
   140
1040
3.0
1070
    74
1070
     0
1070
   172
1070
     1
1070
    73
1070
     0
1070
   272
1070
     2
1070
    77
1070
     3
1070
   173
1070
     1
1070
   147
1040
1.0
1070
    42
1040
3.0
1070
    44
1040
1.5
1070
    43
1040
7.0
1070
   271
1070
     0
1070
   178
1070
     4
1070
   177
1070
     4
1070
   176
1070
     4
1070
   141
1040
150.0
1070
     7
1000
_OPEN
1070
     6
1000
_OPEN
1070
    41
1040
3.0
1002
}
  0
DIMENSION
  5
221C
330
1A
100
AcDbEntity
  8
SUNPOU
 62
     4
100
AcDbDimension
  2
*D5
 10
72.82939267952929
 20
143.4978311784801
 30
0.0
 11
70.32939267952928
 21
168.2555947966003
 31
0.0
 70
    32
  3
STANDARD
100
AcDbAlignedDimension
 13
102.8233759650465
 23
193.0133584147204
 33
0.0
 14
134.7713256263004
 24
143.4978311784801
 34
0.0
 50
90.0
100
AcDbRotatedDimension
1001
ACAD
1000
DSTYLE
1002
{
1070
   140
1040
3.0
1070
    74
1070
     0
1070
   172
1070
     1
1070
    73
1070
     0
1070
   272
1070
     2
1070
    77
1070
     3
1070
   173
1070
     1
1070
   147
1040
1.0
1070
    42
1040
3.0
1070
    44
1040
1.5
1070
    43
1040
7.0
1070
   271
1070
     0
1070
   178
1070
     4
1070
   177
1070
     4
1070
   176
1070
     4
1070
   141
1040
150.0
1070
     7
1000
_OPEN
1070
     6
1000
_OPEN
1070
    41
1040
3.0
1002
}
  0
ARC
  5
221D
330
1A
100
AcDbEntity
  8
SEIHIN
  6
CONTINUOUS
 62
     3
 48
5.0
100
AcDbCircle
 10
214.1052739250674
 20
146.7949964067974
 30
0.0
 40
56.50153120360075
100
AcDbArc
 50
176.2708477088084
 51
189.8763049881405
  0
ARC
  5
221E
330
1A
100
AcDbEntity
  8
SEIHIN
  6
CONTINUOUS
 62
     3
 48
5.0
100
AcDbCircle
 10
162.7282560092974
 20
164.8998844537279
 30
0.0
 40
51.00001132480409
100
AcDbArc
 50
176.4998899741209
 51
258.4317621750097
  0
ARC
  5
221F
330
1A
100
AcDbEntity
  8
SEIHIN
  6
CONTINUOUS
 62
     3
 48
5.0
100
AcDbCircle
 10
162.8233154776266
 20
167.9533100772097
 30
0.0
 40
59.99996966112373
100
AcDbArc
 50
179.9425625299349
 51
258.5846030741285
  0
ARC
  5
2220
330
1A
100
AcDbEntity
  8
SEIHIN
  6
CONTINUOUS
 62
     3
 48
5.0
100
AcDbCircle
 10
162.7430856869908
 20
164.9106457313668
 30
0.0
 40
59.9999921642498
100
AcDbArc
 50
177.0357095248661
 51
257.9054714102174
  0
LINE
  5
2221
330
1A
100
AcDbEntity
  8
SEIHIN
  6
CONTINUOUS
 62
     3
 48
5.0
100
AcDbLine
 10
166.7233759650466
 20
168.0133584147204
 30
0.0
 11
158.4410759650464
 21
137.1037584147204
 31
0.0
  0
LINE
  5
2222
330
1A
100
AcDbEntity
  8
CENTER_L
  6
CENTER
 62
     1
 48
5.0
100
AcDbLine
 10
134.7714759650466
 20
200.7391584147205
 30
0.0
 11
134.7713058908195
 21
135.9835665688772
 31
0.0
  0
LINE
  5
2223
330
1A
100
AcDbEntity
  8
SEIHIN
  6
CONTINUOUS
 62
     3
 48
5.0
100
AcDbLine
 10
183.5550759650465
 20
130.3744584147206
 30
0.0
 11
190.9056759650466
 21
157.8066584147205
 31
0.0
  0
LINE
  5
2224
330
1A
100
AcDbEntity
  8
SEIHIN
  6
CONTINUOUS
 62
     3
 48
5.0
100
AcDbLine
 10
176.3696759650465
 20
165.3768584147204
 30
0.0
 11
168.1002759650466
 21
134.5154584147205
 31
0.0
  0
LINE
  5
2225
330
1A
100
AcDbEntity
  8
SEIHIN
  6
CONTINUOUS
 62
     3
 48
5.0
100
AcDbLine
 10
187.4187759650465
 20
129.3391584147206
 30
0.0
 11
194.6398759650465
 21
156.2884584147205
 31
0.0
  0
DIMENSION
  5
2226
330
1A
100
AcDbEntity
  8
SUNPOU
 62
     4
100
AcDbDimension
  2
*D6
 10
170.7844586383002
 20
67.25930981628509
 30
0.0
 11
145.1013124220043
 21
76.72930912425332
 31
0.0
 70
    33
  3
STANDARD
100
AcDbAlignedDimension
 13
134.7713256263004
 23
143.4978311784801
 33
0.0
 14
187.4317185159634
 24
129.3874602921941
 34
0.0
1001
ACAD
1000
DSTYLE
1002
{
1070
   140
1040
3.0
1070
    74
1070
     0
1070
   172
1070
     1
1070
    73
1070
     0
1070
   272
1070
     2
1070
    77
1070
     3
1070
   173
1070
     1
1070
   147
1040
1.0
1070
    42
1040
3.0
1070
    44
1040
1.5
1070
    43
1040
7.0
1070
   271
1070
     0
1070
   178
1070
     4
1070
   177
1070
     4
1070
   176
1070
     4
1070
   141
1040
150.0
1070
     7
1000
_OPEN
1070
     6
1000
_OPEN
1070
    41
1040
3.0
1002
}
  0
DIMENSION
  5
2227
330
1A
100
AcDbEntity
  8
SUNPOU
 62
     4
100
AcDbDimension
  2
*D7
 10
154.0797192164653
 20
82.19025454746613
 30
0.0
 11
138.0558106023471
 21
89.07205772611458
 31
0.0
 70
    33
  3
STANDARD
100
AcDbAlignedDimension
 13
134.7713256263004
 23
143.4978311784801
 33
0.0
 14
168.1132433116081
 24
134.5638525508337
 34
0.0
1001
ACAD
1000
DSTYLE
1002
{
1070
   140
1040
3.0
1070
    74
1070
     0
1070
   172
1070
     1
1070
    73
1070
     0
1070
   272
1070
     2
1070
    77
1070
     3
1070
   173
1070
     1
1070
   147
1040
1.0
1070
    42
1040
3.0
1070
    44
1040
1.5
1070
    43
1040
7.0
1070
   271
1070
     0
1070
   178
1070
     4
1070
   177
1070
     4
1070
   176
1070
     4
1070
   141
1040
150.0
1070
     7
1000
_OPEN
1070
     6
1000
_OPEN
1070
    41
1040
3.0
1002
}
  0
LINE
  5
2228
330
1A
100
AcDbEntity
  8
SEIHIN
  6
CONTINUOUS
 62
     3
 48
5.0
100
AcDbLine
 10
159.8308759650465
 20
103.6542584147205
 30
0.0
 11
150.2492759650465
 21
106.2216584147205
 31
0.0
  0
LINE
  5
2229
330
1A
100
AcDbEntity
  8
CENTER_L
  6
CENTER
 62
     1
 48
5.0
100
AcDbLine
 10
194.3751759650466
 20
127.5269584147205
 30
0.0
 11
127.5131054809811
 21
145.4426738316551
 31
0.0
  0
LINE
  5
222A
330
1A
100
AcDbEntity
  8
SEIHIN
  6
CONTINUOUS
 62
     3
 48
5.0
100
AcDbLine
 10
187.4187759650465
 20
129.3389584147206
 30
0.0
 11
180.1975759650466
 21
102.3897584147205
 31
0.0
  0
LINE
  5
222B
330
1A
100
AcDbEntity
  8
SEIHIN
  6
CONTINUOUS
 62
     3
 48
5.0
100
AcDbLine
 10
159.8308759650465
 20
103.6542584147205
 30
0.0
 11
168.1002759650466
 21
134.5156584147205
 31
0.0
  0
LINE
  5
222C
330
1A
100
AcDbEntity
  8
SEIHIN
  6
CONTINUOUS
 62
     3
 48
5.0
100
AcDbLine
 10
183.5550759650465
 20
130.3742584147206
 30
0.0
 11
176.2044759650464
 21
102.9420584147205
 31
0.0
  0
LINE
  5
222D
330
1A
100
AcDbEntity
  8
SEIHIN
  6
CONTINUOUS
 62
     3
 48
5.0
100
AcDbLine
 10
176.1915759650464
 20
102.8937584147205
 30
0.0
 11
160.7367759650466
 21
107.0349584147205
 31
0.0
  0
LINE
  5
222E
330
1A
100
AcDbEntity
  8
SEIHIN
  6
CONTINUOUS
 62
     3
 48
5.0
100
AcDbLine
 10
176.1915759650464
 20
102.8937584147205
 30
0.0
 11
180.1846759650466
 21
102.3414584147205
 31
0.0
  0
DIMENSION
  5
222F
330
1A
100
AcDbEntity
  8
SUNPOU
 62
     4
100
AcDbDimension
  2
*D8
 10
82.05529014754302
 20
168.0133584147204
 30
0.0
 11
79.55529014754299
 21
180.5133584147204
 31
0.0
 70
    32
  1
※ <>
  3
STANDARD
100
AcDbAlignedDimension
 13
102.8233759650465
 23
193.0133584147204
 33
0.0
 14
102.8233759650465
 24
168.0133584147204
 34
0.0
 50
90.0
100
AcDbRotatedDimension
1001
ACAD
1000
DSTYLE
1002
{
1070
   140
1040
3.0
1070
    74
1070
     0
1070
   172
1070
     1
1070
    73
1070
     0
1070
   272
1070
     2
1070
    77
1070
     3
1070
   173
1070
     1
1070
   147
1040
1.0
1070
    42
1040
3.0
1070
    44
1040
1.5
1070
    43
1040
7.0
1070
   271
1070
     0
1070
   178
1070
     4
1070
   177
1070
     4
1070
   176
1070
     4
1070
   141
1040
150.0
1070
     7
1000
_OPEN
1070
     6
1000
_OPEN
1070
    41
1040
3.0
1002
}
  0
DIMENSION
  5
2230
330
1A
100
AcDbEntity
  8
SUNPOU
 62
     4
100
AcDbDimension
  2
*D9
 10
166.7233759650466
 20
217.3231603901796
 30
0.0
 11
134.7733759650466
 21
219.8231603901796
 31
0.0
 70
    32
  3
STANDARD
100
AcDbAlignedDimension
 13
102.8233759650465
 23
193.0134584147204
 33
0.0
 14
166.7233759650466
 24
193.0133584147204
 34
0.0
100
AcDbRotatedDimension
1001
ACAD
1000
DSTYLE
1002
{
1070
   140
1040
3.0
1070
    74
1070
     0
1070
   172
1070
     1
1070
    73
1070
     0
1070
   272
1070
     2
1070
    77
1070
     3
1070
   173
1070
     1
1070
   147
1040
1.0
1070
    42
1040
3.0
1070
    44
1040
1.5
1070
    43
1040
7.0
1070
   271
1070
     0
1070
   178
1070
     4
1070
   177
1070
     4
1070
   176
1070
     4
1070
   141
1040
150.0
1070
     7
1000
_OPEN
1070
     6
1000
_OPEN
1070
    41
1040
3.0
1002
}
  0
LINE
  5
2231
330
1A
100
AcDbEntity
  8
SEIHIN
  6
CONTINUOUS
 62
     3
 48
5.0
100
AcDbLine
 10
102.8233759650465
 20
193.0133584147204
 30
0.0
 11
166.7233759650466
 21
193.0133584147204
 31
0.0
  0
LINE
  5
2232
330
1A
100
AcDbEntity
  8
SEIHIN
  6
CONTINUOUS
 62
     3
 48
5.0
100
AcDbLine
 10
138.2733759650465
 20
192.5133584147205
 30
0.0
 11
138.2733759650465
 21
188.0133584147205
 31
0.0
  0
LINE
  5
2233
330
1A
100
AcDbEntity
  8
SEIHIN
  6
CONTINUOUS
 62
     3
 48
5.0
100
AcDbLine
 10
131.2694759650464
 20
192.5133584147205
 30
0.0
 11
131.2694759650464
 21
188.0133584147205
 31
0.0
  0
LINE
  5
2234
330
1A
100
AcDbEntity
  8
SEIHIN
  6
CONTINUOUS
 62
     3
 48
5.0
100
AcDbLine
 10
111.8233759650464
 20
193.0134584147204
 30
0.0
 11
111.8233759650464
 21
168.0134584147204
 31
0.0
  0
LINE
  5
2235
330
1A
100
AcDbEntity
  8
SEIHIN
  6
CONTINUOUS
 62
     3
 48
5.0
100
AcDbLine
 10
102.8233759650465
 20
193.0134584147204
 30
0.0
 11
102.8233759650465
 21
168.0134584147204
 31
0.0
  0
LINE
  5
2236
330
1A
100
AcDbEntity
  8
SEIHIN
  6
CONTINUOUS
 62
     3
 48
5.0
100
AcDbLine
 10
138.2733759650465
 20
188.0133584147205
 30
0.0
 11
134.7733759650465
 21
188.0133584147205
 31
0.0
  0
LINE
  5
2237
330
1A
100
AcDbEntity
  8
SEIHIN
  6
CONTINUOUS
 62
     3
 48
5.0
100
AcDbLine
 10
138.2733759650465
 20
188.5133584147205
 30
0.0
 11
134.7733759650465
 21
188.5133584147205
 31
0.0
  0
LINE
  5
2238
330
1A
100
AcDbEntity
  8
SEIHIN
  6
CONTINUOUS
 62
     3
 48
5.0
100
AcDbLine
 10
131.2694759650464
 20
188.0133584147205
 30
0.0
 11
134.7694759650464
 21
188.0133584147205
 31
0.0
  0
LINE
  5
2239
330
1A
100
AcDbEntity
  8
SEIHIN
  6
CONTINUOUS
 62
     3
 48
5.0
100
AcDbLine
 10
131.2694759650464
 20
188.5133584147205
 30
0.0
 11
134.7694759650464
 21
188.5133584147205
 31
0.0
  0
LINE
  5
223A
330
1A
100
AcDbEntity
  8
SEIHIN
  6
CONTINUOUS
 62
     3
 48
5.0
100
AcDbLine
 10
138.2733759650465
 20
192.5133584147205
 30
0.0
 11
134.7733759650465
 21
192.5133584147205
 31
0.0
  0
LINE
  5
223B
330
1A
100
AcDbEntity
  8
SEIHIN
  6
CONTINUOUS
 62
     3
 48
5.0
100
AcDbLine
 10
131.2694759650464
 20
192.5133584147205
 30
0.0
 11
134.7694759650464
 21
192.5133584147205
 31
0.0
  0
LINE
  5
223C
330
1A
100
AcDbEntity
  8
SEIHIN
  6
CONTINUOUS
 62
     3
 48
5.0
100
AcDbLine
 10
166.7233759650466
 20
193.0133584147204
 30
0.0
 11
166.7233759650466
 21
168.7289204433569
 31
0.0
  0
LINE
  5
223D
330
1A
100
AcDbEntity
  8
SEIHIN
  6
CONTINUOUS
 62
     3
 48
5.0
100
AcDbLine
 10
157.7233759650466
 20
193.0133584147204
 30
0.0
 11
157.7233759650466
 21
150.4697584147204
 31
0.0
  0
DIMENSION
  5
223E
330
1A
100
AcDbEntity
  8
SUNPOU
 62
     4
100
AcDbDimension
  2
*D10
 10
200.7820829970404
 20
179.2113229243091
 30
0.0
 11
186.9403006922642
 21
185.5084350113553
 31
0.0
 70
    33
  1
※ <>
  3
STANDARD
100
AcDbAlignedDimension
 13
166.71043493739
 23
167.9650624113813
 33
0.0
 14
195.6881032459936
 24
160.2004650982486
 34
0.0
1001
ACAD
1000
DSTYLE
1002
{
1070
   140
1040
3.0
1070
    74
1070
     0
1070
   172
1070
     1
1070
    73
1070
     0
1070
   272
1070
     2
1070
    77
1070
     3
1070
   173
1070
     1
1070
   147
1040
1.0
1070
    42
1040
3.0
1070
    44
1040
1.5
1070
    43
1040
7.0
1070
   271
1070
     0
1070
   178
1070
     4
1070
   177
1070
     4
1070
   176
1070
     4
1070
   141
1040
150.0
1070
     7
1000
_OPEN
1070
     6
1000
_OPEN
1070
    41
1040
3.0
1002
}
  0
LINE
  5
223F
330
1A
100
AcDbEntity
  8
SEIHIN
  6
CONTINUOUS
 62
     3
 48
5.0
100
AcDbLine
 10
190.9186759650464
 20
157.8549584147205
 30
0.0
 11
175.4638759650466
 21
161.9961584147204
 31
0.0
  0
LINE
  5
2240
330
1A
100
AcDbEntity
  8
SEIHIN
  6
CONTINUOUS
 62
     3
 48
5.0
100
AcDbLine
 10
176.3696759650465
 20
165.3768584147204
 30
0.0
 11
167.4645552252364
 21
167.762995071165
 31
0.0
  0
LINE
  5
2242
330
1A
100
AcDbEntity
  8
SEIHIN
  6
CONTINUOUS
 62
     3
 48
5.0
100
AcDbLine
 10
190.9186759650464
 20
157.8549584147205
 30
0.0
 11
194.6528759650466
 21
156.3366584147205
 31
0.0
  0
LINE
  5
2243
330
1A
100
AcDbEntity
  8
SEIHIN
  6
CONTINUOUS
 62
     3
 48
5.0
100
AcDbLine
 10
166.7233759650466
 20
193.0133584147204
 30
0.0
 11
162.7233759650466
 21
193.0133584147204
 31
0.0
  0
ARC
  5
2244
330
1A
100
AcDbEntity
  8
SEIHIN
  6
CONTINUOUS
 62
     3
 48
5.0
100
AcDbCircle
 10
305.4618875359703
 20
129.2636471988456
 30
0.0
 40
26.12248899368105
100
AcDbArc
 50
0.2748524971731025
 51
91.51054165016063
  0
ARC
  5
2245
330
1A
100
AcDbEntity
  8
SEIHIN
  6
CONTINUOUS
 62
     3
 48
5.0
100
AcDbCircle
 10
305.4386612487899
 20
129.1902726698905
 30
0.0
 40
27.15454160301716
100
AcDbArc
 50
0.4192284433293509
 51
91.40430711359533
  0
ARC
  5
2246
330
1A
100
AcDbEntity
  8
SEIHIN
  6
CONTINUOUS
 62
     3
 48
5.0
100
AcDbCircle
 10
304.991188225241
 20
134.5592439264152
 30
0.0
 40
29.95320643703998
100
AcDbArc
 50
358.3498834502388
 51
90.41664431648461
  0
ARC
  5
2247
330
1A
100
AcDbEntity
  8
SEIHIN
  6
CONTINUOUS
 62
     3
 48
5.0
100
AcDbCircle
 10
305.704767136313
 20
134.68196860459
 30
0.0
 40
30.7090174048269
100
AcDbArc
 50
358.0940172211076
 51
91.73802266057661
  0
ARC
  5
2248
330
1A
100
AcDbEntity
  8
SEIHIN
  6
CONTINUOUS
 62
     3
 48
5.0
100
AcDbCircle
 10
305.6309350475388
 20
136.9978033181324
 30
0.0
 40
31.02740829539988
100
AcDbArc
 50
352.0918230819192
 51
91.58378596899831
  0
ARC
  5
2249
330
1A
100
AcDbEntity
  8
SEIHIN
  6
CONTINUOUS
 62
     3
 48
5.0
100
AcDbCircle
 10
304.084715951974
 20
129.2636971745176
 30
0.0
 40
26.12244031240056
100
AcDbArc
 50
88.4893492464101
 51
179.7252566062534
  0
ARC
  5
224A
330
1A
100
AcDbEntity
  8
SEIHIN
  6
CONTINUOUS
 62
     3
 48
5.0
100
AcDbCircle
 10
304.1079403243587
 20
129.1902238907184
 30
0.0
 40
27.15459160169716
100
AcDbArc
 50
88.59558918829687
 51
179.5806694025184
  0
ARC
  5
224B
330
1A
100
AcDbEntity
  8
SEIHIN
  6
CONTINUOUS
 62
     3
 48
5.0
100
AcDbCircle
 10
304.5555126915597
 20
134.559301815473
 30
0.0
 40
29.95314892051289
100
AcDbArc
 50
89.5832573002673
 51
181.6345152876517
  0
ARC
  5
224C
330
1A
100
AcDbEntity
  8
SEIHIN
  6
CONTINUOUS
 62
     3
 48
5.0
100
AcDbCircle
 10
303.8418946348067
 20
134.6819799626076
 30
0.0
 40
30.70901182006399
100
AcDbArc
 50
88.26162206808689
 51
181.9025255792173
  0
ARC
  5
224D
330
1A
100
AcDbEntity
  8
SEIHIN
  6
CONTINUOUS
 62
     3
 48
5.0
100
AcDbCircle
 10
303.915695083397
 20
136.99778228306
 30
0.0
 40
31.02743545347796
100
AcDbArc
 50
88.41580568304166
 51
188.1988367002591
  0
LINE
  5
224E
330
1A
100
AcDbEntity
  8
SEIHIN
  6
CONTINUOUS
 62
     3
 48
5.0
100
AcDbLine
 10
336.7233759650464
 20
193.0131584147205
 30
0.0
 11
336.6518821365179
 21
136.3646309622873
 31
0.0
  0
LINE
  5
224F
330
1A
100
AcDbEntity
  8
SEIHIN
  6
CONTINUOUS
 62
     3
 48
5.0
100
AcDbLine
 10
272.8233759650464
 20
193.0133584147204
 30
0.0
 11
272.8895379038995
 21
137.2794229989701
 31
0.0
  0
LINE
  5
2250
330
1A
100
AcDbEntity
  8
CENTER_L
  6
CENTER
 62
     1
 48
5.0
100
AcDbLine
 10
304.7734759650466
 20
202.5238584147204
 30
0.0
 11
304.7732759650466
 21
93.01335841472049
 31
0.0
  0
TEXT
  5
2251
330
1A
100
AcDbEntity
  8
SUNPOU
 62
     4
100
AcDbText
 10
287.2216429284192
 20
42.44335081817059
 30
0.0
 40
4.0
  1
※　たてといの差込み寸法を示す。
100
AcDbText
  0
LINE
  5
2252
330
1A
100
AcDbEntity
  8
CENTER_L
  6
CENTER
 62
     1
 48
5.0
100
AcDbLine
 10
265.8232652016926
 20
129.3874602921941
 30
0.0
 11
343.723265201869
 21
129.3874602921941
 31
0.0
  0
ARC
  5
2253
330
1A
100
AcDbEntity
  8
SEIHIN
  6
CONTINUOUS
 62
     3
 48
5.0
100
AcDbCircle
 10
304.1079394588044
 20
129.5875937774181
 30
0.0
 40
27.15459001062177
100
AcDbArc
 50
180.4191213875788
 51
271.4042016589646
  0
ARC
  5
2254
330
1A
100
AcDbEntity
  8
SEIHIN
  6
CONTINUOUS
 62
     3
 48
5.0
100
AcDbCircle
 10
304.0847146276847
 20
129.5142209384291
 30
0.0
 40
26.12243899428112
100
AcDbArc
 50
180.2747462228255
 51
271.5104343237424
  0
ARC
  5
2255
330
1A
100
AcDbEntity
  8
SEIHIN
  6
CONTINUOUS
 62
     3
 48
5.0
100
AcDbCircle
 10
304.0846643941229
 20
129.5142696305955
 30
0.0
 40
26.12248899368128
100
AcDbArc
 50
180.2748524971731
 51
271.5105416501606
  0
ARC
  5
2256
330
1A
100
AcDbEntity
  8
SEIHIN
  6
CONTINUOUS
 62
     3
 48
5.0
100
AcDbCircle
 10
304.0847354529375
 20
138.185810188652
 30
0.0
 40
26.12242769931444
100
AcDbArc
 50
190.4268802556029
 51
271.5103892839162
  0
ARC
  5
2257
330
1A
100
AcDbEntity
  8
SEIHIN
  6
CONTINUOUS
 62
     3
 48
5.0
100
AcDbCircle
 10
303.8522362331736
 20
134.2989473317186
 30
0.0
 40
30.7090218466737
100
AcDbArc
 50
181.1876120026899
 51
234.9724606337802
  0
ARC
  5
2258
330
1A
100
AcDbEntity
  8
SEIHIN
  6
CONTINUOUS
 62
     3
 48
5.0
100
AcDbCircle
 10
304.5581828780124
 20
134.4600292951442
 30
0.0
 40
29.95315101705806
100
AcDbArc
 50
181.4445534236084
 51
213.5422615884106
  0
LINE
  5
2259
330
1A
100
AcDbEntity
  8
SEIHIN
  6
CONTINUOUS
 62
     3
 48
5.0
100
AcDbLine
 10
276.2732759650466
 20
130.4227584147205
 30
0.0
 11
276.2732759650466
 21
144.4237584147204
 31
0.0
  0
ARC
  5
225A
330
1A
100
AcDbEntity
  8
SEIHIN
  6
CONTINUOUS
 62
     3
 48
5.0
100
AcDbCircle
 10
305.4386612487899
 20
129.5875441595505
 30
0.0
 40
27.15454160301713
100
AcDbArc
 50
268.5956928864046
 51
359.5807715566704
  0
ARC
  5
225B
330
1A
100
AcDbEntity
  8
SEIHIN
  6
CONTINUOUS
 62
     3
 48
5.0
100
AcDbCircle
 10
305.4618864527698
 20
129.5142685805547
 30
0.0
 40
26.12249055172557
100
AcDbArc
 50
268.4892414053019
 51
359.7249304847719
  0
ARC
  5
225C
330
1A
100
AcDbEntity
  8
SEIHIN
  6
CONTINUOUS
 62
     3
 48
5.0
100
AcDbCircle
 10
305.4618362190225
 20
129.5142198885814
 30
0.0
 40
26.12244055232836
100
AcDbArc
 50
268.4893487317178
 51
359.7250367582757
  0
ARC
  5
225D
330
1A
100
AcDbEntity
  8
SEIHIN
  6
CONTINUOUS
 62
     3
 48
5.0
100
AcDbCircle
 10
305.4618786307283
 20
138.1858606017831
 30
0.0
 40
26.12248236950313
100
AcDbArc
 50
268.4892580944369
 51
350.2451644992049
  0
ARC
  5
225E
330
1A
100
AcDbEntity
  8
SEIHIN
  6
CONTINUOUS
 62
     3
 48
5.0
100
AcDbCircle
 10
305.6944012517459
 20
134.2989150038968
 30
0.0
 40
30.70902815609481
100
AcDbArc
 50
305.027336183428
 51
358.8089709947008
  0
ARC
  5
225F
330
1A
100
AcDbEntity
  8
SEIHIN
  6
CONTINUOUS
 62
     3
 48
5.0
100
AcDbCircle
 10
304.9884798072638
 20
134.4600745991089
 30
0.0
 40
29.9532223410974
100
AcDbArc
 50
326.4574953840166
 51
358.5396495649702
  0
LINE
  5
2260
330
1A
100
AcDbEntity
  8
SEIHIN
  6
CONTINUOUS
 62
     3
 48
5.0
100
AcDbLine
 10
333.2732759650466
 20
130.4227584147205
 30
0.0
 11
333.2732759650466
 21
144.4242584147206
 31
0.0
  0
DIMENSION
  5
2261
330
1A
100
AcDbEntity
  8
SUNPOU
 62
     4
100
AcDbDimension
  2
*D11
 10
336.7233759650464
 20
217.3231603901796
 30
0.0
 11
304.7733759650464
 21
219.8231603901796
 31
0.0
 70
    32
  3
STANDARD
100
AcDbAlignedDimension
 13
272.8233759650464
 23
193.0133584147204
 33
0.0
 14
336.7233759650464
 24
193.0131584147205
 34
0.0
100
AcDbRotatedDimension
1001
ACAD
1000
DSTYLE
1002
{
1070
   140
1040
3.0
1070
    74
1070
     0
1070
   172
1070
     1
1070
    73
1070
     0
1070
   272
1070
     2
1070
    77
1070
     3
1070
   173
1070
     1
1070
   147
1040
1.0
1070
    42
1040
3.0
1070
    44
1040
1.5
1070
    43
1040
7.0
1070
   271
1070
     0
1070
   178
1070
     4
1070
   177
1070
     4
1070
   176
1070
     4
1070
   141
1040
150.0
1070
     7
1000
_OPEN
1070
     6
1000
_OPEN
1070
    41
1040
3.0
1002
}
  0
LINE
  5
2262
330
1A
100
AcDbEntity
  8
SEIHIN
  6
CONTINUOUS
 62
     3
 48
5.0
100
AcDbLine
 10
304.7733759650466
 20
168.0133584147204
 30
0.0
 11
281.8233759650464
 21
168.0133584147204
 31
0.0
  0
LINE
  5
2263
330
1A
100
AcDbEntity
  8
SEIHIN
  6
CONTINUOUS
 62
     3
 48
5.0
100
AcDbLine
 10
272.8233759650464
 20
193.0133584147204
 30
0.0
 11
304.7714759650466
 21
193.0133584147204
 31
0.0
  0
LINE
  5
2264
330
1A
100
AcDbEntity
  8
SEIHIN
  6
CONTINUOUS
 62
     3
 48
5.0
100
AcDbLine
 10
272.8233759650464
 20
192.5133584147205
 30
0.0
 11
270.8233759650465
 21
188.5133584147205
 31
0.0
  0
LINE
  5
2265
330
1A
100
AcDbEntity
  8
SEIHIN
  6
CONTINUOUS
 62
     3
 48
5.0
100
AcDbLine
 10
281.8233759650464
 20
193.0134584147204
 30
0.0
 11
281.8233759650464
 21
168.0133584147204
 31
0.0
  0
ARC
  5
2266
330
1A
100
AcDbEntity
  8
SEIHIN
  6
CONTINUOUS
 62
     3
 48
5.0
100
AcDbCircle
 10
225.5072158129803
 20
176.3300124906817
 30
0.0
 40
56.92694115524183
100
AcDbArc
 50
336.4425102031669
 51
351.5993955608041
  0
ARC
  5
2267
330
1A
100
AcDbEntity
  8
SEIHIN
  6
CONTINUOUS
 62
     3
 48
5.0
100
AcDbCircle
 10
225.5072158129803
 20
176.3300124906817
 30
0.0
 40
56.92694115524183
100
AcDbArc
 50
330.2775099737278
 51
330.2778417728644
  0
LINE
  5
2268
330
1A
100
AcDbEntity
  8
SEIHIN
  6
CONTINUOUS
 62
     3
 48
5.0
100
AcDbLine
 10
270.8233759650465
 20
188.0133584147205
 30
0.0
 11
272.8233759650464
 21
188.0133584147205
 31
0.0
  0
LINE
  5
2269
330
1A
100
AcDbEntity
  8
SEIHIN
  6
CONTINUOUS
 62
     3
 48
5.0
100
AcDbLine
 10
270.8233759650465
 20
188.5133584147205
 30
0.0
 11
270.8233759650465
 21
188.0133584147205
 31
0.0
  0
LINE
  5
226A
330
1A
100
AcDbEntity
  8
SEIHIN
  6
CONTINUOUS
 62
     3
 48
5.0
100
AcDbLine
 10
336.7233759650464
 20
192.5131584147204
 30
0.0
 11
338.7234759650466
 21
188.5131584147204
 31
0.0
  0
LINE
  5
226B
330
1A
100
AcDbEntity
  8
SEIHIN
  6
CONTINUOUS
 62
     3
 48
5.0
100
AcDbLine
 10
327.7233759650466
 20
193.0133584147204
 30
0.0
 11
327.7233759650466
 21
168.0132584147205
 31
0.0
  0
LINE
  5
226C
330
1A
100
AcDbEntity
  8
SEIHIN
  6
CONTINUOUS
 62
     3
 48
5.0
100
AcDbLine
 10
304.7733759650466
 20
168.0133584147204
 30
0.0
 11
327.7233759650466
 21
168.0132584147205
 31
0.0
  0
ARC
  5
226D
330
1A
100
AcDbEntity
  8
SEIHIN
  6
CONTINUOUS
 62
     3
 48
5.0
100
AcDbCircle
 10
384.0397936720544
 20
176.329464215027
 30
0.0
 40
56.92694115524183
100
AcDbArc
 50
188.4002081309869
 51
203.5570934886237
  0
LINE
  5
226E
330
1A
100
AcDbEntity
  8
SEIHIN
  6
CONTINUOUS
 62
     3
 48
5.0
100
AcDbLine
 10
338.7234759650466
 20
188.0131584147204
 30
0.0
 11
336.7233759650464
 21
188.0131584147204
 31
0.0
  0
LINE
  5
226F
330
1A
100
AcDbEntity
  8
SEIHIN
  6
CONTINUOUS
 62
     3
 48
5.0
100
AcDbLine
 10
338.7234759650466
 20
188.5131584147204
 30
0.0
 11
338.7234759650466
 21
188.0131584147204
 31
0.0
  0
LINE
  5
2270
330
1A
100
AcDbEntity
  8
SEIHIN
  6
CONTINUOUS
 62
     3
 48
5.0
100
AcDbLine
 10
304.7733759650466
 20
193.0133584147204
 30
0.0
 11
336.7233759650464
 21
193.0133584147204
 31
0.0
  0
ARC
  5
24FA
330
1A
100
AcDbEntity
  8
SEIHIN
  6
CONTINUOUS
 62
     3
 48
5.0
100
AcDbCircle
 10
304.7732759650466
 20
129.3341763260442
 30
0.0
 40
28.52078208892223
100
AcDbArc
 50
2.187398395284301
 51
177.8126016047156
  0
ARC
  5
24FC
330
1A
100
AcDbEntity
  8
SEIHIN
100
AcDbCircle
 10
304.7732759650467
 20
131.410882919782
 30
0.0
 40
28.51712450506719
100
AcDbArc
 50
181.9857085862949
 51
205.9470739576588
  0
ARC
  5
24FD
330
1A
100
AcDbEntity
  8
SEIHIN
100
AcDbCircle
 10
304.7732759650467
 20
131.410882919782
 30
0.0
 40
28.51712450506719
100
AcDbArc
 50
334.0535704329521
 51
358.0142914137025
  0
ARC
  5
250C
330
1A
100
AcDbEntity
  8
SEIHIN
  6
CONTINUOUS
 62
     3
 48
5.0
100
AcDbCircle
 10
167.7233759650466
 20
168.7289204433569
 30
0.0
 40
1.0
100
AcDbArc
 50
180.0
 51
254.9998994750743
  0
VIEWPORT
  5
22
330
17
100
AcDbEntity
 67
     1
  8
0
100
AcDbViewport
 10
313.6808219178082
 20
148.5
 30
0.0
 40
627.3616438356165
 41
297.0
 68
     2
 69
     1
1001
ACAD
1000
MVIEW
1002
{
1070
    16
1010
0.0
1020
0.0
1030
0.0
1010
0.0
1020
0.0
1030
1.0
1040
0.0
1040
297.0
1040
313.6808219178082
1040
148.5
1040
50.0
1040
0.0
1040
0.0
1070
     0
1070
   100
1070
     1
1070
     0
1070
     0
1070
     0
1070
     0
1070
     0
1040
0.0
1040
0.0
1040
0.0
1040
1.0
1040
1.0
1040
10.0
1040
10.0
1070
     0
1002
{
1002
}
1002
}
  0
VIEWPORT
  5
64
330
17
100
AcDbEntity
 67
     1
  8
VIEWPORT
100
AcDbViewport
 10
210.0
 20
148.5
 30
0.0
 40
420.0
 41
297.0
 68
     1
 69
     2
1001
ACAD
1000
MVIEW
1002
{
1070
    16
1010
0.0
1020
0.0
1030
0.0
1010
0.0
1020
0.0
1030
1.0
1040
0.0
1040
302.9399999999998
1040
210.0
1040
148.5
1040
50.0
1040
0.0
1040
0.0
1070
     0
1070
   100
1070
     1
1070
     0
1070
     0
1070
     0
1070
     0
1070
     0
1040
0.0
1040
0.0
1040
0.0
1040
5.0
1040
5.0
1040
0.0
1040
0.0
1070
     0
1002
{
1002
}
1002
}
  0
ENDSEC
  0
SECTION
  2
OBJECTS
  0
DICTIONARY
  5
C
330
0
100
AcDbDictionary
  3
ACAD_GROUP
350
D
  3
ACAD_LAYOUT
350
415
  3
ACAD_MLINESTYLE
350
E
  3
ACAD_PLOTSETTINGS
350
416
1001
ACAD
1000
TREAT_AS_HARD
1070
     0
  0
DICTIONARY
  5
444
330
1A
100
AcDbDictionary
  3
ACAD_LAYOUTSELFREF
350
25E8
1001
ACAD
1000
TREAT_AS_HARD
1070
     1
  0
DICTIONARY
  5
442
330
17
100
AcDbDictionary
  3
ACAD_LAYOUTSELFREF
350
25E7
1001
ACAD
1000
TREAT_AS_HARD
1070
     1
  0
DICTIONARY
  5
D
102
{ACAD_REACTORS
330
C
102
}
330
C
100
AcDbDictionary
1001
ACAD
1000
TREAT_AS_HARD
1070
     0
  0
DICTIONARY
  5
415
102
{ACAD_REACTORS
330
C
102
}
330
C
100
AcDbDictionary
1001
ACAD
1000
TREAT_AS_HARD
1070
     0
  0
DICTIONARY
  5
E
102
{ACAD_REACTORS
330
C
102
}
330
C
100
AcDbDictionary
  3
STANDARD
350
13
1001
ACAD
1000
TREAT_AS_HARD
1070
     0
  0
DICTIONARY
  5
416
102
{ACAD_REACTORS
330
C
102
}
330
C
100
AcDbDictionary
1001
ACAD
1000
TREAT_AS_HARD
1070
     0
  0
XRECORD
  5
25E8
102
{ACAD_REACTORS
330
444
102
}
330
444
100
AcDbXrecord
340
1A
  0
XRECORD
  5
25E7
102
{ACAD_REACTORS
330
442
102
}
330
442
100
AcDbXrecord
340
17
  0
MLINESTYLE
  5
13
102
{ACAD_REACTORS
330
E
102
}
330
E
100
AcDbMlineStyle
  2
STANDARD
 70
     0
  3

 62
     0
 51
90.0
 52
90.0
 71
     2
 49
0.5
 62
   256
  6
BYLAYER
 49
-0.5
 62
   256
  6
BYLAYER
  0
ENDSEC
  0
EOF
