  0
SECTION
  2
HEADER
  9
$ACADVER
  1
AC1015
  9
$ACADMAINTVER
 70
    20
  9
$DWGCODEPAGE
  3
ANSI_932
  9
$INSBASE
 10
0.0
 20
0.0
 30
0.0
  9
$EXTMIN
 10
-0.0128168878524093
 20
-0.0090630678515709
 30
-0.0015258207003583
  9
$EXTMAX
 10
398.8000497569587
 20
275.8226172412463
 30
0.0000000349246037
  9
$LIMMIN
 10
0.0
 20
0.0
  9
$LIMMAX
 10
420.0
 20
297.0
  9
$ORTHOMODE
 70
     0
  9
$REGENMODE
 70
     1
  9
$FILLMODE
 70
     1
  9
$QTEXTMODE
 70
     0
  9
$MIRRTEXT
 70
     1
  9
$LTSCALE
 40
1.0
  9
$ATTMODE
 70
     1
  9
$TEXTSIZE
 40
2.5
  9
$TRACEWID
 40
1.0
  9
$TEXTSTYLE
  7
STANDARD
  9
$CLAYER
  8
SUNPOU
  9
$CELTYPE
  6
BYLAYER
  9
$CECOLOR
 62
   256
  9
$CELTSCALE
 40
1.0
  9
$DISPSILH
 70
     0
  9
$DIMSCALE
 40
1.0
  9
$DIMASZ
 40
3.0
  9
$DIMEXO
 40
3.0
  9
$DIMDLI
 40
7.0
  9
$DIMRND
 40
0.0
  9
$DIMDLE
 40
0.0
  9
$DIMEXE
 40
1.5
  9
$DIMTP
 40
0.0
  9
$DIMTM
 40
0.0
  9
$DIMTXT
 40
3.0
  9
$DIMCEN
 40
150.0
  9
$DIMTSZ
 40
0.0
  9
$DIMTOL
 70
     0
  9
$DIMLIM
 70
     0
  9
$DIMTIH
 70
     0
  9
$DIMTOH
 70
     0
  9
$DIMSE1
 70
     0
  9
$DIMSE2
 70
     0
  9
$DIMTAD
 70
     1
  9
$DIMZIN
 70
     0
  9
$DIMBLK
  1

  9
$DIMASO
 70
     1
  9
$DIMSHO
 70
     1
  9
$DIMPOST
  1

  9
$DIMAPOST
  1

  9
$DIMALT
 70
     0
  9
$DIMALTD
 70
     2
  9
$DIMALTF
 40
25.4
  9
$DIMLFAC
 40
1.0
  9
$DIMTOFL
 70
     1
  9
$DIMTVP
 40
0.0
  9
$DIMTIX
 70
     0
  9
$DIMSOXD
 70
     0
  9
$DIMSAH
 70
     1
  9
$DIMBLK1
  1
OPEN
  9
$DIMBLK2
  1
OPEN
  9
$DIMSTYLE
  2
STANDARD
  9
$DIMCLRD
 70
   256
  9
$DIMCLRE
 70
   256
  9
$DIMCLRT
 70
   256
  9
$DIMTFAC
 40
1.0
  9
$DIMGAP
 40
1.0
  9
$DIMJUST
 70
     0
  9
$DIMSD1
 70
     0
  9
$DIMSD2
 70
     0
  9
$DIMTOLJ
 70
     1
  9
$DIMTZIN
 70
     0
  9
$DIMALTZ
 70
     0
  9
$DIMALTTZ
 70
     0
  9
$DIMUPT
 70
     0
  9
$DIMDEC
 70
     0
  9
$DIMTDEC
 70
     0
  9
$DIMALTU
 70
     2
  9
$DIMALTTD
 70
     2
  9
$DIMTXSTY
  7
STANDARD
  9
$DIMAUNIT
 70
     0
  9
$DIMADEC
 70
     0
  9
$DIMALTRND
 40
0.0
  9
$DIMAZIN
 70
     0
  9
$DIMDSEP
 70
    46
  9
$DIMATFIT
 70
     3
  9
$DIMFRAC
 70
     0
  9
$DIMLDRBLK
  1
OPEN
  9
$DIMLUNIT
 70
     2
  9
$DIMLWD
 70
    -1
  9
$DIMLWE
 70
    -1
  9
$DIMTMOVE
 70
     0
  9
$LUNITS
 70
     2
  9
$LUPREC
 70
     4
  9
$SKETCHINC
 40
1.0
  9
$FILLETRAD
 40
0.6
  9
$AUNITS
 70
     0
  9
$AUPREC
 70
     0
  9
$MENU
  1
.
  9
$ELEVATION
 40
0.0
  9
$PELEVATION
 40
0.0
  9
$THICKNESS
 40
0.0
  9
$LIMCHECK
 70
     0
  9
$CHAMFERA
 40
10.0
  9
$CHAMFERB
 40
10.0
  9
$CHAMFERC
 40
20.0
  9
$CHAMFERD
 40
0.0
  9
$SKPOLY
 70
     0
  9
$TDCREATE
 40
2451100.394552546
  9
$TDUCREATE
 40
2451100.019552546
  9
$TDUPDATE
 40
2456667.687318554
  9
$TDUUPDATE
 40
2456667.312318553
  9
$TDINDWG
 40
0.1968359954
  9
$TDUSRTIMER
 40
0.1968358218
  9
$USRTIMER
 70
     1
  9
$ANGBASE
 50
0.0
  9
$ANGDIR
 70
     0
  9
$PDMODE
 70
     0
  9
$PDSIZE
 40
0.0
  9
$PLINEWID
 40
0.0
  9
$SPLFRAME
 70
     0
  9
$SPLINETYPE
 70
     6
  9
$SPLINESEGS
 70
     8
  9
$HANDSEED
  5
1934
  9
$SURFTAB1
 70
     6
  9
$SURFTAB2
 70
     6
  9
$SURFTYPE
 70
     6
  9
$SURFU
 70
     6
  9
$SURFV
 70
     6
  9
$UCSBASE
  2

  9
$UCSNAME
  2

  9
$UCSORG
 10
0.0
 20
0.0
 30
0.0
  9
$UCSXDIR
 10
1.0
 20
0.0
 30
0.0
  9
$UCSYDIR
 10
0.0
 20
1.0
 30
0.0
  9
$UCSORTHOREF
  2

  9
$UCSORTHOVIEW
 70
     0
  9
$UCSORGTOP
 10
0.0
 20
0.0
 30
0.0
  9
$UCSORGBOTTOM
 10
0.0
 20
0.0
 30
0.0
  9
$UCSORGLEFT
 10
0.0
 20
0.0
 30
0.0
  9
$UCSORGRIGHT
 10
0.0
 20
0.0
 30
0.0
  9
$UCSORGFRONT
 10
0.0
 20
0.0
 30
0.0
  9
$UCSORGBACK
 10
0.0
 20
0.0
 30
0.0
  9
$PUCSBASE
  2

  9
$PUCSNAME
  2

  9
$PUCSORG
 10
0.0
 20
0.0
 30
0.0
  9
$PUCSXDIR
 10
1.0
 20
0.0
 30
0.0
  9
$PUCSYDIR
 10
0.0
 20
1.0
 30
0.0
  9
$PUCSORTHOREF
  2

  9
$PUCSORTHOVIEW
 70
     0
  9
$PUCSORGTOP
 10
0.0
 20
0.0
 30
0.0
  9
$PUCSORGBOTTOM
 10
0.0
 20
0.0
 30
0.0
  9
$PUCSORGLEFT
 10
0.0
 20
0.0
 30
0.0
  9
$PUCSORGRIGHT
 10
0.0
 20
0.0
 30
0.0
  9
$PUCSORGFRONT
 10
0.0
 20
0.0
 30
0.0
  9
$PUCSORGBACK
 10
0.0
 20
0.0
 30
0.0
  9
$USERI1
 70
     0
  9
$USERI2
 70
     0
  9
$USERI3
 70
     0
  9
$USERI4
 70
     0
  9
$USERI5
 70
     0
  9
$USERR1
 40
0.0
  9
$USERR2
 40
0.0
  9
$USERR3
 40
0.0
  9
$USERR4
 40
0.0
  9
$USERR5
 40
0.0
  9
$WORLDVIEW
 70
     1
  9
$SHADEDGE
 70
     3
  9
$SHADEDIF
 70
    70
  9
$TILEMODE
 70
     1
  9
$MAXACTVP
 70
    16
  9
$PINSBASE
 10
0.0
 20
0.0
 30
0.0
  9
$PLIMCHECK
 70
     0
  9
$PEXTMIN
 10
-99.29887869967842
 20
-72.01523397057425
 30
0.0
  9
$PEXTMAX
 10
425.1808226904436
 20
294.1011117243211
 30
0.0
  9
$PLIMMIN
 10
-51.7463473113246
 20
-38.36068020479264
  9
$PLIMMAX
 10
368.4119778839879
 20
258.6923288284105
  9
$UNITMODE
 70
     0
  9
$VISRETAIN
 70
     0
  9
$PLINEGEN
 70
     0
  9
$PSLTSCALE
 70
     1
  9
$TREEDEPTH
 70
  3020
  9
$CMLSTYLE
  2
STANDARD
  9
$CMLJUST
 70
     0
  9
$CMLSCALE
 40
1.0
  9
$PROXYGRAPHICS
 70
     1
  9
$MEASUREMENT
 70
     1
  9
$CELWEIGHT
370
    -1
  9
$ENDCAPS
280
     0
  9
$JOINSTYLE
280
     0
  9
$LWDISPLAY
290
     0
  9
$INSUNITS
 70
     0
  9
$HYPERLINKBASE
  1

  9
$STYLESHEET
  1
monochrome.ctb
  9
$XEDIT
290
     1
  9
$CEPSNTYPE
380
     0
  9
$PSTYLEMODE
290
     1
  9
$FINGERPRINTGUID
  2
{137E7082-72B8-11D5-AA3E-50A453C10000}
  9
$VERSIONGUID
  2
{32D2F862-7561-4D81-AE52-DEC48CCFC0C3}
  9
$EXTNAMES
290
     1
  9
$PSVPSCALE
 40
0.0
  9
$OLESTARTUP
290
     0
  0
ENDSEC
  0
SECTION
  2
CLASSES
  0
CLASS
  1
ACDBDICTIONARYWDFLT
  2
AcDbDictionaryWithDefault
  3
ObjectDBX Classes
 90
        0
280
     0
281
     0
  0
CLASS
  1
DICTIONARYVAR
  2
AcDbDictionaryVar
  3
ObjectDBX Classes
 90
        0
280
     0
281
     0
  0
CLASS
  1
ACDBPLACEHOLDER
  2
AcDbPlaceHolder
  3
ObjectDBX Classes
 90
        0
280
     0
281
     0
  0
CLASS
  1
LAYOUT
  2
AcDbLayout
  3
ObjectDBX Classes
 90
        0
280
     0
281
     0
  0
ENDSEC
  0
SECTION
  2
TABLES
  0
TABLE
  2
VPORT
  5
8
330
0
100
AcDbSymbolTable
 70
     2
  0
VPORT
  5
1927
330
8
100
AcDbSymbolTableRecord
100
AcDbViewportTableRecord
  2
*Active
 70
     0
 10
0.0
 20
0.0
 11
1.0
 21
1.0
 12
198.1519820382409
 22
139.2982189259336
 13
0.0
 23
0.0
 14
5.0
 24
5.0
 15
0.0
 25
0.0
 16
0.0
 26
0.0
 36
1.0
 17
0.0
 27
0.0
 37
0.0
 40
386.3249840288842
 41
2.128775834658187
 42
50.0
 43
0.0
 44
0.0
 50
0.0
 51
0.0
 71
     0
 72
   100
 73
     1
 74
     0
 75
     0
 76
     0
 77
     0
 78
     0
281
     0
 65
     1
110
0.0
120
0.0
130
0.0
111
1.0
121
0.0
131
0.0
112
0.0
122
1.0
132
0.0
 79
     0
146
0.0
  0
ENDTAB
  0
TABLE
  2
LTYPE
  5
5
330
0
100
AcDbSymbolTable
 70
     4
  0
LTYPE
  5
14
330
5
100
AcDbSymbolTableRecord
100
AcDbLinetypeTableRecord
  2
BYBLOCK
 70
     0
  3

 72
    65
 73
     0
 40
0.0
  0
LTYPE
  5
15
330
5
100
AcDbSymbolTableRecord
100
AcDbLinetypeTableRecord
  2
BYLAYER
 70
     0
  3

 72
    65
 73
     0
 40
0.0
  0
LTYPE
  5
16
330
5
100
AcDbSymbolTableRecord
100
AcDbLinetypeTableRecord
  2
CONTINUOUS
 70
     0
  3
Solid line
 72
    65
 73
     0
 40
0.0
  0
LTYPE
  5
120
330
5
100
AcDbSymbolTableRecord
100
AcDbLinetypeTableRecord
  2
CENTER
 70
     0
  3
____ _ ____ _ ____ _ ____ _ ____ _ ____ _ ____ 
 72
    65
 73
     4
 40
2.0
 49
1.25
 74
     0
 49
-0.25
 74
     0
 49
0.25
 74
     0
 49
-0.25
 74
     0
  0
LTYPE
  5
13F5
330
5
100
AcDbSymbolTableRecord
100
AcDbLinetypeTableRecord
  2
SLD-実線
 70
     0
  3
SolidWorks Line Style
 72
    65
 73
     0
 40
0.0
  0
LTYPE
  5
13F6
330
5
100
AcDbSymbolTableRecord
100
AcDbLinetypeTableRecord
  2
SLD-細-太鎖線_切断面_
 70
     0
  3
SolidWorks Line Style
 72
    65
 73
     4
 40
10.16
 49
6.349999999999998
 74
     0
 49
-1.27
 74
     0
 49
1.27
 74
     0
 49
-1.27
 74
     0
  0
ENDTAB
  0
TABLE
  2
LAYER
  5
2
330
0
100
AcDbSymbolTable
 70
     9
  0
LAYER
  5
F
330
2
100
AcDbSymbolTableRecord
100
AcDbLayerTableRecord
  2
0
 70
     0
 62
     7
  6
CONTINUOUS
370
    -3
390
623
  0
LAYER
  5
62
330
2
100
AcDbSymbolTableRecord
100
AcDbLayerTableRecord
  2
VIEWPORT
 70
     0
 62
     7
  6
CONTINUOUS
370
    -3
390
623
  0
LAYER
  5
6B
330
2
100
AcDbSymbolTableRecord
100
AcDbLayerTableRecord
  2
ZUWAKU
 70
     0
 62
     7
  6
CONTINUOUS
370
    -3
390
623
  0
LAYER
  5
1F2
330
2
100
AcDbSymbolTableRecord
100
AcDbLayerTableRecord
  2
SEIHIN
 70
     0
 62
     3
  6
CONTINUOUS
370
    -3
390
623
  0
LAYER
  5
1F3
330
2
100
AcDbSymbolTableRecord
100
AcDbLayerTableRecord
  2
SUNPOU
 70
     0
 62
     4
  6
CONTINUOUS
370
    -3
390
623
  0
LAYER
  5
1F4
330
2
100
AcDbSymbolTableRecord
100
AcDbLayerTableRecord
  2
CENTER L
 70
     0
 62
     1
  6
CENTER
370
    -3
390
623
  0
LAYER
  5
1F5
330
2
100
AcDbSymbolTableRecord
100
AcDbLayerTableRecord
  2
DEFPOINTS
 70
     0
 62
     7
  6
CONTINUOUS
290
     0
370
    -3
390
623
  0
LAYER
  5
A03
330
2
100
AcDbSymbolTableRecord
100
AcDbLayerTableRecord
  2
moji
 70
     0
 62
     2
  6
CONTINUOUS
370
    -3
390
623
  0
LAYER
  5
13F7
330
2
100
AcDbSymbolTableRecord
100
AcDbLayerTableRecord
  2
0_______
 70
     0
 62
     7
  6
SLD-実線
370
    -3
390
623
  0
ENDTAB
  0
TABLE
  2
STYLE
  5
3
330
0
100
AcDbSymbolTable
 70
     2
  0
STYLE
  5
10
330
3
100
AcDbSymbolTableRecord
100
AcDbTextStyleTableRecord
  2
STANDARD
 70
     0
 40
0.0
 41
1.0
 50
0.0
 71
     0
 42
2.5
  3
TXT
  4
bigfont.shx
  0
STYLE
  5
A04
330
3
100
AcDbSymbolTableRecord
100
AcDbTextStyleTableRecord
  2
ｽﾀｲﾙ1
 70
     0
 40
0.0
 41
1.0
 50
0.0
 71
     0
 42
2.5
  3

  4

1001
ACAD
1000
MS PGothic
1071
    32818
  0
ENDTAB
  0
TABLE
  2
VIEW
  5
6
330
0
100
AcDbSymbolTable
 70
     0
  0
ENDTAB
  0
TABLE
  2
UCS
  5
7
330
0
100
AcDbSymbolTable
 70
     0
  0
ENDTAB
  0
TABLE
  2
APPID
  5
9
330
0
100
AcDbSymbolTable
 70
     5
  0
APPID
  5
11
330
9
100
AcDbSymbolTableRecord
100
AcDbRegAppTableRecord
  2
ACAD
 70
     0
  0
APPID
  5
165F
330
9
100
AcDbSymbolTableRecord
100
AcDbRegAppTableRecord
  2
ACADSTRINGINFO
 70
     0
  0
APPID
  5
1660
330
9
100
AcDbSymbolTableRecord
100
AcDbRegAppTableRecord
  2
ACAD_DSTYLE_DIM_LINETYPE
 70
     0
  0
APPID
  5
1661
330
9
100
AcDbSymbolTableRecord
100
AcDbRegAppTableRecord
  2
ACAD_DSTYLE_DIM_EXT1_LINETYPE
 70
     0
  0
APPID
  5
1662
330
9
100
AcDbSymbolTableRecord
100
AcDbRegAppTableRecord
  2
ACAD_DSTYLE_DIM_EXT2_LINETYPE
 70
     0
  0
ENDTAB
  0
TABLE
  2
DIMSTYLE
  5
A
330
0
100
AcDbSymbolTable
 70
     8
100
AcDbDimStyleTable
 71
     1
340
1D
  0
DIMSTYLE
105
1D
102
{ACAD_REACTORS
330
17FE
330
1843
330
1850
330
185D
330
1874
102
}
330
A
100
AcDbSymbolTableRecord
100
AcDbDimStyleTableRecord
  2
STANDARD
 70
     0
340
10
  0
DIMSTYLE
105
13F8
330
A
100
AcDbSymbolTableRecord
100
AcDbDimStyleTableRecord
  2
ISO-25
 70
     0
 41
2.5
 42
0.625
 43
3.75
 44
1.25
 73
     0
 74
     0
 77
     1
 78
     8
140
2.5
141
2.5
143
0.03937007874016
147
0.625
171
     3
172
     1
271
     2
272
     2
274
     3
279
     2
340
10
  0
DIMSTYLE
105
13F9
330
A
100
AcDbSymbolTableRecord
100
AcDbDimStyleTableRecord
  2
SLDDIMSTYLE0
 70
     0
 41
4.0
 44
0.0
 45
0.000000001
 73
     0
 74
     0
 77
     3
 78
    12
140
3.5
147
0.875
173
     1
271
     2
272
     2
274
     3
279
     2
340
10
341
13BE
343
13BE
344
13BE
  0
DIMSTYLE
105
13FA
330
A
100
AcDbSymbolTableRecord
100
AcDbDimStyleTableRecord
  2
SLDDIMSTYLE1
 70
     0
 41
4.0
 44
0.0
 45
0.000000001
 73
     0
 74
     0
 77
     3
 78
     4
140
3.5
147
0.875
173
     1
271
     2
272
     2
274
     3
279
     2
340
10
341
13BE
343
13BE
344
13BE
  0
DIMSTYLE
105
13FB
330
A
100
AcDbSymbolTableRecord
100
AcDbDimStyleTableRecord
  2
SLDDIMSTYLE2
 70
     0
 41
4.0
 44
0.0
 45
0.000000001
 73
     0
 74
     0
 77
     3
 78
    12
140
3.5
147
0.875
173
     1
271
     2
272
     2
274
     3
279
     2
340
10
341
13BE
343
13BE
344
13BE
  0
DIMSTYLE
105
13FC
330
A
100
AcDbSymbolTableRecord
100
AcDbDimStyleTableRecord
  2
SLDDIMSTYLE3
 70
     0
 41
4.0
 44
0.0
 45
0.000000001
 73
     0
 74
     0
 77
     3
 78
    12
140
3.5
147
0.875
173
     1
271
     2
272
     2
274
     3
279
     2
340
10
341
13BE
343
13BE
344
13BE
  0
DIMSTYLE
105
13FD
330
A
100
AcDbSymbolTableRecord
100
AcDbDimStyleTableRecord
  2
SLDDIMSTYLE4
 70
     0
 41
4.0
 44
0.0
 45
0.000000001
 73
     0
 74
     0
 77
     3
 78
    12
140
3.5
147
0.875
173
     1
271
     2
272
     2
274
     3
279
     2
340
10
341
13BE
343
13BE
344
13BE
  0
DIMSTYLE
105
165E
330
A
100
AcDbSymbolTableRecord
100
AcDbDimStyleTableRecord
  2
A-20
 70
     0
 41
2.0
 42
0.625
 43
3.75
 44
1.25
 47
0.05
 73
     0
 74
     0
 77
     1
 78
     8
140
2.0
141
2.5
143
0.03937007874016
146
0.5
147
0.625
171
     3
172
     1
176
   256
177
   256
178
   256
179
     2
271
     2
272
     2
274
     3
284
     9
340
10
371
    -1
372
    -1
1001
ACAD_DSTYLE_DIM_LINETYPE
1070
   380
1005
15
1001
ACAD_DSTYLE_DIM_EXT1_LINETYPE
1070
   381
1005
15
1001
ACAD_DSTYLE_DIM_EXT2_LINETYPE
1070
   382
1005
15
  0
ENDTAB
  0
TABLE
  2
BLOCK_RECORD
  5
1
330
0
100
AcDbSymbolTable
 70
     9
  0
BLOCK_RECORD
  5
1A
102
{ACAD_XDICTIONARY
360
651
102
}
330
1
100
AcDbSymbolTableRecord
100
AcDbBlockTableRecord
  2
*MODEL_SPACE
340
626
  0
BLOCK_RECORD
  5
17
102
{ACAD_XDICTIONARY
360
64F
102
}
330
1
100
AcDbSymbolTableRecord
100
AcDbBlockTableRecord
  2
*PAPER_SPACE
340
627
  0
BLOCK_RECORD
  5
B2
330
1
100
AcDbSymbolTableRecord
100
AcDbBlockTableRecord
  2
_OPEN
340
0
102
{BLKREFS
331
1855
331
1856
331
18D7
331
18D8
331
18EE
331
18EF
331
18F7
331
18F8
331
1913
331
1914
102
}
  0
BLOCK_RECORD
  5
11A1
330
1
100
AcDbSymbolTableRecord
100
AcDbBlockTableRecord
  2
*X1
340
0
102
{BLKREFS
331
AD2
102
}
  0
BLOCK_RECORD
  5
13BE
330
1
100
AcDbSymbolTableRecord
100
AcDbBlockTableRecord
  2
_OPEN30
340
0
  0
BLOCK_RECORD
  5
1663
330
1
100
AcDbSymbolTableRecord
100
AcDbBlockTableRecord
  2
A$C642C36DA
340
0
  0
BLOCK_RECORD
  5
17FF
330
1
100
AcDbSymbolTableRecord
100
AcDbBlockTableRecord
  2
*D4
340
0
  0
BLOCK_RECORD
  5
1844
330
1
100
AcDbSymbolTableRecord
100
AcDbBlockTableRecord
  2
*D5
340
0
  0
BLOCK_RECORD
  5
1851
330
1
100
AcDbSymbolTableRecord
100
AcDbBlockTableRecord
  2
*D6
340
0
  0
BLOCK_RECORD
  5
185E
330
1
100
AcDbSymbolTableRecord
100
AcDbBlockTableRecord
  2
*D7
340
0
  0
BLOCK_RECORD
  5
1875
330
1
100
AcDbSymbolTableRecord
100
AcDbBlockTableRecord
  2
*D8
340
0
  0
ENDTAB
  0
ENDSEC
  0
SECTION
  2
BLOCKS
  0
BLOCK
  5
1B
330
1A
100
AcDbEntity
  8
0
100
AcDbBlockBegin
  2
*MODEL_SPACE
 70
     0
 10
0.0
 20
0.0
 30
0.0
  3
*MODEL_SPACE
  1

  0
ENDBLK
  5
1C
330
1A
100
AcDbEntity
  8
0
100
AcDbBlockEnd
  0
BLOCK
  5
18
330
17
100
AcDbEntity
 67
     1
  8
0
100
AcDbBlockBegin
  2
*PAPER_SPACE
 70
     0
 10
0.0
 20
0.0
 30
0.0
  3
*PAPER_SPACE
  1

  0
ENDBLK
  5
19
330
17
100
AcDbEntity
 67
     1
  8
0
100
AcDbBlockEnd
  0
BLOCK
  5
B3
330
B2
100
AcDbEntity
  8
0
100
AcDbBlockBegin
  2
_OPEN
 70
     0
 10
0.0
 20
0.0
 30
0.0
  3
_OPEN
  1

  0
LINE
  5
B4
330
B2
100
AcDbEntity
  8
0
  6
ByBlock
 62
     0
100
AcDbLine
 10
-1.0
 20
0.1666666666666666
 30
0.0
 11
0.0
 21
0.0
 31
0.0
  0
LINE
  5
B5
330
B2
100
AcDbEntity
  8
0
  6
ByBlock
 62
     0
100
AcDbLine
 10
0.0
 20
0.0
 30
0.0
 11
-1.0
 21
-0.1666666666666666
 31
0.0
  0
LINE
  5
B6
330
B2
100
AcDbEntity
  8
0
  6
ByBlock
 62
     0
100
AcDbLine
 10
0.0
 20
0.0
 30
0.0
 11
-1.0
 21
0.0
 31
0.0
  0
ENDBLK
  5
B7
330
B2
100
AcDbEntity
  8
0
100
AcDbBlockEnd
  0
BLOCK
  5
1335
330
11A1
100
AcDbEntity
  8
0
100
AcDbBlockBegin
  2
*X1
 70
     1
 10
0.0
 20
0.0
 30
0.0
  3
*X1
  1

  0
LINE
  5
11A2
330
11A1
100
AcDbEntity
  8
0
 62
     0
100
AcDbLine
 10
34.52110559449165
 20
11.3020844964989
 30
0.0
 11
34.19819012963419
 21
11.62499996135639
 31
0.0
  0
LINE
  5
11A3
330
11A1
100
AcDbEntity
  8
0
 62
     0
100
AcDbLine
 10
34.52110559449165
 20
10.85307169044546
 30
0.0
 11
33.74917732358071
 21
11.62499996135639
 31
0.0
  0
LINE
  5
11A4
330
11A1
100
AcDbEntity
  8
0
 62
     0
100
AcDbLine
 10
34.52110559449162
 20
10.40405888439198
 30
0.0
 11
33.31053862148414
 21
11.61462585739946
 31
0.0
  0
LINE
  5
11A5
330
11A1
100
AcDbEntity
  8
0
 62
     0
100
AcDbLine
 10
34.52110559449165
 20
9.955046078338568
 30
0.0
 11
33.12110559449161
 21
11.35504607833857
 31
0.0
  0
LINE
  5
11A6
330
11A1
100
AcDbEntity
  8
0
 62
     0
100
AcDbLine
 10
34.52110559449165
 20
9.506033272285094
 30
0.0
 11
33.12110559449161
 21
10.90603327228513
 31
0.0
  0
LINE
  5
11A7
330
11A1
100
AcDbEntity
  8
0
 62
     0
100
AcDbLine
 10
34.52110559449162
 20
9.057020466231618
 30
0.0
 11
33.12110559449158
 21
10.45702046623165
 31
0.0
  0
LINE
  5
11A8
330
11A1
100
AcDbEntity
  8
0
 62
     0
100
AcDbLine
 10
32.0711055944916
 20
11.05800766017822
 30
0.0
 11
31.50411329331345
 21
11.62499996135639
 31
0.0
  0
LINE
  5
11A9
330
11A1
100
AcDbEntity
  8
0
 62
     0
100
AcDbLine
 10
34.52110559449165
 20
8.608007660178202
 30
0.0
 11
33.12110559449161
 21
10.00800766017823
 31
0.0
  0
LINE
  5
11AA
330
11A1
100
AcDbEntity
  8
0
 62
     0
100
AcDbLine
 10
32.0711055944916
 20
10.60899485412477
 30
0.0
 11
31.05510048725998
 21
11.62499996135636
 31
0.0
  0
LINE
  5
11AB
330
11A1
100
AcDbEntity
  8
0
 62
     0
100
AcDbLine
 10
34.52110559449162
 20
8.158994854124728
 30
0.0
 11
33.12110559449161
 21
9.558994854124762
 31
0.0
  0
LINE
  5
11AC
330
11A1
100
AcDbEntity
  8
0
 62
     0
100
AcDbLine
 10
32.0711055944916
 20
10.1599820480713
 30
0.0
 11
30.71835011192306
 21
11.51273753063984
 31
0.0
  0
LINE
  5
11AD
330
11A1
100
AcDbEntity
  8
0
 62
     0
100
AcDbLine
 10
34.52110559449162
 20
7.709982048071282
 30
0.0
 11
33.12110559449158
 21
9.109982048071286
 31
0.0
  0
LINE
  5
11AE
330
11A1
100
AcDbEntity
  8
0
 62
     0
100
AcDbLine
 10
32.07110559449166
 20
9.710969242017796
 30
0.0
 11
30.67110559449157
 21
11.11096924201786
 31
0.0
  0
LINE
  5
11AF
330
11A1
100
AcDbEntity
  8
0
 62
     0
100
AcDbLine
 10
34.52110559449165
 20
7.260969242017807
 30
0.0
 11
33.12110559449161
 21
8.660969242017841
 31
0.0
  0
LINE
  5
11B0
330
11A1
100
AcDbEntity
  8
0
 62
     0
100
AcDbLine
 10
32.07110559449163
 20
9.261956435964348
 30
0.0
 11
30.67110559449157
 21
10.66195643596444
 31
0.0
  0
LINE
  5
11B1
330
11A1
100
AcDbEntity
  8
0
 62
     0
100
AcDbLine
 10
34.52110559449162
 20
6.811956435964361
 30
0.0
 11
33.12110559449158
 21
8.211956435964394
 31
0.0
  0
LINE
  5
11B2
330
11A1
100
AcDbEntity
  8
0
 62
     0
100
AcDbLine
 10
32.07110559449163
 20
8.812943629910904
 30
0.0
 11
30.67110559449157
 21
10.21294362991096
 31
0.0
  0
LINE
  5
11B3
330
11A1
100
AcDbEntity
  8
0
 62
     0
100
AcDbLine
 10
34.52110559449162
 20
6.362943629910914
 30
0.0
 11
33.12110559449158
 21
7.762943629910949
 31
0.0
  0
LINE
  5
11B4
330
11A1
100
AcDbEntity
  8
0
 62
     0
100
AcDbLine
 10
32.0711055944916
 20
8.36393082385743
 30
0.0
 11
30.67110559449154
 21
9.763930823857492
 31
0.0
  0
LINE
  5
11B5
330
11A1
100
AcDbEntity
  8
0
 62
     0
100
AcDbLine
 10
34.5211055944916
 20
5.91393082385744
 30
0.0
 11
33.12110559449158
 21
7.313930823857474
 31
0.0
  0
LINE
  5
11B6
330
11A1
100
AcDbEntity
  8
0
 62
     0
100
AcDbLine
 10
32.07110559449163
 20
7.914918017804012
 30
0.0
 11
30.67110559449157
 21
9.314918017804076
 31
0.0
  0
LINE
  5
11B7
330
11A1
100
AcDbEntity
  8
0
 62
     0
100
AcDbLine
 10
28.92110559449159
 20
11.06491801780403
 30
0.0
 11
28.36102365093927
 21
11.62499996135636
 31
0.0
  0
LINE
  5
11B8
330
11A1
100
AcDbEntity
  8
0
 62
     0
100
AcDbLine
 10
34.52110559449162
 20
5.464918017804023
 30
0.0
 11
33.12110559449158
 21
6.864918017804027
 31
0.0
  0
LINE
  5
11B9
330
11A1
100
AcDbEntity
  8
0
 62
     0
100
AcDbLine
 10
32.07110559449163
 20
7.465905211750537
 30
0.0
 11
30.67110559449154
 21
8.865905211750598
 31
0.0
  0
LINE
  5
11BA
330
11A1
100
AcDbEntity
  8
0
 62
     0
100
AcDbLine
 10
28.92110559449156
 20
10.61590521175057
 30
0.0
 11
27.91201084488581
 21
11.62499996135636
 31
0.0
  0
LINE
  5
11BB
330
11A1
100
AcDbEntity
  8
0
 62
     0
100
AcDbLine
 10
34.52110559449162
 20
5.015905211750548
 30
0.0
 11
33.12110559449158
 21
6.415905211750582
 31
0.0
  0
LINE
  5
11BC
330
11A1
100
AcDbEntity
  8
0
 62
     0
100
AcDbLine
 10
32.0711055944916
 20
7.016892405697093
 30
0.0
 11
30.67110559449157
 21
8.416892405697097
 31
0.0
  0
LINE
  5
11BD
330
11A1
100
AcDbEntity
  8
0
 62
     0
100
AcDbLine
 10
28.92110559449156
 20
10.16689240569712
 30
0.0
 11
27.57122423282956
 21
11.51677376735912
 31
0.0
  0
LINE
  5
11BE
330
11A1
100
AcDbEntity
  8
0
 62
     0
100
AcDbLine
 10
34.5211055944916
 20
4.566892405697103
 30
0.0
 11
33.12110559449155
 21
5.966892405697108
 31
0.0
  0
LINE
  5
11BF
330
11A1
100
AcDbEntity
  8
0
 62
     0
100
AcDbLine
 10
32.07110559449163
 20
6.567879599643617
 30
0.0
 11
30.67110559449159
 21
7.967879599643651
 31
0.0
  0
LINE
  5
11C0
330
11A1
100
AcDbEntity
  8
0
 62
     0
100
AcDbLine
 10
28.92110559449159
 20
9.717879599643651
 30
0.0
 11
27.52110559449159
 21
11.11787959964366
 31
0.0
  0
LINE
  5
11C1
330
11A1
100
AcDbEntity
  8
0
 62
     0
100
AcDbLine
 10
34.52110559449162
 20
4.117879599643629
 30
0.0
 11
33.12110559449158
 21
5.517879599643663
 31
0.0
  0
LINE
  5
11C2
330
11A1
100
AcDbEntity
  8
0
 62
     0
100
AcDbLine
 10
32.0711055944916
 20
6.118866793590171
 30
0.0
 11
30.67110559449159
 21
7.518866793590206
 31
0.0
  0
LINE
  5
11C3
330
11A1
100
AcDbEntity
  8
0
 62
     0
100
AcDbLine
 10
28.92110559449162
 20
9.268866793590175
 30
0.0
 11
27.52110559449162
 21
10.66886679359018
 31
0.0
  0
LINE
  5
11C4
330
11A1
100
AcDbEntity
  8
0
 62
     0
100
AcDbLine
 10
34.48512291704671
 20
3.704849471035088
 30
0.0
 11
33.12110559449158
 21
5.068866793590216
 31
0.0
  0
LINE
  5
11C5
330
11A1
100
AcDbEntity
  8
0
 62
     0
100
AcDbLine
 10
32.07110559449163
 20
5.669853987536669
 30
0.0
 11
30.67110559449157
 21
7.069853987536731
 31
0.0
  0
LINE
  5
11C6
330
11A1
100
AcDbEntity
  8
0
 62
     0
100
AcDbLine
 10
28.92110559449159
 20
8.819853987536729
 30
0.0
 11
27.52110559449162
 21
10.21985398753671
 31
0.0
  0
LINE
  5
11C7
330
11A1
100
AcDbEntity
  8
0
 62
     0
100
AcDbLine
 10
34.16595962067197
 20
3.574999961356353
 30
0.0
 11
33.12110559449155
 21
4.619853987536771
 31
0.0
  0
LINE
  5
11C8
330
11A1
100
AcDbEntity
  8
0
 62
     0
100
AcDbLine
 10
28.92110559449159
 20
8.370841181483257
 30
0.0
 11
27.52110559449159
 21
9.770841181483234
 31
0.0
  0
LINE
  5
11C9
330
11A1
100
AcDbEntity
  8
0
 62
     0
100
AcDbLine
 10
32.07110559449163
 20
5.220841181483223
 30
0.0
 11
30.67110559449157
 21
6.620841181483285
 31
0.0
  0
LINE
  5
11CA
330
11A1
100
AcDbEntity
  8
0
 62
     0
100
AcDbLine
 10
26.20860559449159
 20
11.08334118148326
 30
0.0
 11
25.66694681461843
 21
11.62499996135639
 31
0.0
  0
LINE
  5
11CB
330
11A1
100
AcDbEntity
  8
0
 62
     0
100
AcDbLine
 10
33.71694681461852
 20
3.574999961356297
 30
0.0
 11
33.12110559449155
 21
4.170841181483297
 31
0.0
  0
LINE
  5
11CC
330
11A1
100
AcDbEntity
  8
0
 62
     0
100
AcDbLine
 10
28.92110559449159
 20
7.921828375429811
 30
0.0
 11
27.52110559449162
 21
9.321828375429817
 31
0.0
  0
LINE
  5
11CD
330
11A1
100
AcDbEntity
  8
0
 62
     0
100
AcDbLine
 10
26.20860559449159
 20
10.63432837542982
 30
0.0
 11
25.21793400856501
 21
11.62499996135642
 31
0.0
  0
LINE
  5
11CE
330
11A1
100
AcDbEntity
  8
0
 62
     0
100
AcDbLine
 10
32.05812644416884
 20
4.784807525752596
 30
0.0
 11
30.67110559449157
 21
6.171828375429838
 31
0.0
  0
LINE
  5
11CF
330
11A1
100
AcDbEntity
  8
0
 62
     0
100
AcDbLine
 10
28.92110559449159
 20
7.472815569376365
 30
0.0
 11
27.52110559449162
 21
8.872815569376342
 31
0.0
  0
LINE
  5
11D0
330
11A1
100
AcDbEntity
  8
0
 62
     0
100
AcDbLine
 10
26.11081532143467
 20
10.28310584243328
 30
0.0
 11
24.7689212025116
 21
11.62499996135636
 31
0.0
  0
LINE
  5
11D1
330
11A1
100
AcDbEntity
  8
0
 62
     0
100
AcDbLine
 10
31.96163379654021
 20
4.432287367327717
 30
0.0
 11
30.67110559449157
 21
5.722815569376392
 31
0.0
  0
LINE
  5
11D2
330
11A1
100
AcDbEntity
  8
0
 62
     0
100
AcDbLine
 10
28.92110559449159
 20
7.02380276332289
 30
0.0
 11
27.52110559449159
 21
8.423802763322896
 31
0.0
  0
LINE
  5
11D3
330
11A1
100
AcDbEntity
  8
0
 62
     0
100
AcDbLine
 10
25.7199083964581
 20
10.22499996135636
 30
0.0
 11
24.3199083964581
 21
11.62499996135639
 31
0.0
  0
LINE
  5
11D4
330
11A1
100
AcDbEntity
  8
0
 62
     0
100
AcDbLine
 10
31.79911785857843
 20
4.145790499236028
 30
0.0
 11
30.63534772491181
 21
5.309560632902672
 31
0.0
  0
LINE
  5
11D5
330
11A1
100
AcDbEntity
  8
0
 62
     0
100
AcDbLine
 10
28.92110559449159
 20
6.574789957269473
 30
0.0
 11
27.52110559449162
 21
7.97478995726945
 31
0.0
  0
LINE
  5
11D6
330
11A1
100
AcDbEntity
  8
0
 62
     0
100
AcDbLine
 10
25.27089559040468
 20
10.22499996135639
 30
0.0
 11
23.90211222581598
 21
11.59378332594508
 31
0.0
  0
LINE
  5
11D7
330
11A1
100
AcDbEntity
  8
0
 62
     0
100
AcDbLine
 10
31.58309695991591
 20
3.912798591845131
 30
0.0
 11
30.43455490567806
 21
5.061340646082981
 31
0.0
  0
LINE
  5
11D8
330
11A1
100
AcDbEntity
  8
0
 62
     0
100
AcDbLine
 10
28.92110559449159
 20
6.125777151215999
 30
0.0
 11
27.52110559449159
 21
7.525777151215976
 31
0.0
  0
LINE
  5
11D9
330
11A1
100
AcDbEntity
  8
0
 62
     0
100
AcDbLine
 10
24.82188278435121
 20
10.22499996135639
 30
0.0
 11
23.56979201354929
 21
11.47709073215827
 31
0.0
  0
LINE
  5
11DA
330
11A1
100
AcDbEntity
  8
0
 62
     0
100
AcDbLine
 10
31.3150157874529
 20
3.731866958254698
 30
0.0
 11
30.0718827843512
 21
4.97499996135636
 31
0.0
  0
LINE
  5
11DB
330
11A1
100
AcDbEntity
  8
0
 62
     0
100
AcDbLine
 10
28.92110559449156
 20
5.676764345162523
 30
0.0
 11
27.52110559449162
 21
7.076764345162472
 31
0.0
  0
LINE
  5
11DC
330
11A1
100
AcDbEntity
  8
0
 62
     0
100
AcDbLine
 10
24.3837648923068
 20
10.21410504734729
 30
0.0
 11
23.2984915449442
 21
11.29937839470989
 31
0.0
  0
LINE
  5
11DD
330
11A1
100
AcDbEntity
  8
0
 62
     0
100
AcDbLine
 10
30.98680950749724
 20
3.611060432156875
 30
0.0
 11
29.62286997829777
 21
4.97499996135636
 31
0.0
  0
LINE
  5
11DE
330
11A1
100
AcDbEntity
  8
0
 62
     0
100
AcDbLine
 10
24.19610559449163
 20
9.952751539108987
 30
0.0
 11
23.07943551542192
 21
11.06942161817869
 31
0.0
  0
LINE
  5
11DF
330
11A1
100
AcDbEntity
  8
0
 62
     0
100
AcDbLine
 10
30.57385717224432
 20
3.574999961356326
 30
0.0
 11
27.52110559449162
 21
6.627751539109027
 31
0.0
  0
LINE
  5
11E0
330
11A1
100
AcDbEntity
  8
0
 62
     0
100
AcDbLine
 10
24.19610559449166
 20
9.50373873305557
 30
0.0
 11
22.91355005924541
 21
10.78629426830181
 31
0.0
  0
LINE
  5
11E1
330
11A1
100
AcDbEntity
  8
0
 62
     0
100
AcDbLine
 10
30.12484436619087
 20
3.574999961356326
 30
0.0
 11
27.52110559449164
 21
6.17873873305558
 31
0.0
  0
LINE
  5
11E2
330
11A1
100
AcDbEntity
  8
0
 62
     0
100
AcDbLine
 10
24.29937773504352
 20
8.95145378645023
 30
0.0
 11
22.81246079956336
 21
10.43837072193037
 31
0.0
  0
LINE
  5
11E3
330
11A1
100
AcDbEntity
  8
0
 62
     0
100
AcDbLine
 10
29.67583156013743
 20
3.574999961356326
 30
0.0
 11
27.52110559449162
 21
5.729725927002133
 31
0.0
  0
LINE
  5
11E4
330
11A1
100
AcDbEntity
  8
0
 62
     0
100
AcDbLine
 10
26.40790744583728
 20
6.393911269602995
 30
0.0
 11
22.79610559449159
 21
10.00571312094865
 31
0.0
  0
LINE
  5
11E5
330
11A1
100
AcDbEntity
  8
0
 62
     0
100
AcDbLine
 10
21.74610559449155
 20
11.05571312094869
 30
0.0
 11
21.17681875408391
 21
11.62499996135636
 31
0.0
  0
LINE
  5
11E6
330
11A1
100
AcDbEntity
  8
0
 62
     0
100
AcDbLine
 10
29.22681875408395
 20
3.574999961356326
 30
0.0
 11
27.52110559449162
 21
5.280713120948661
 31
0.0
  0
LINE
  5
11E7
330
11A1
100
AcDbEntity
  8
0
 62
     0
100
AcDbLine
 10
26.47110559449163
 20
5.881700314895226
 30
0.0
 11
22.79610559449162
 21
9.556700314895238
 31
0.0
  0
LINE
  5
11E8
330
11A1
100
AcDbEntity
  8
0
 62
     0
100
AcDbLine
 10
21.74610559449161
 20
10.60670031489522
 30
0.0
 11
20.72780594803043
 21
11.62499996135642
 31
0.0
  0
LINE
  5
11E9
330
11A1
100
AcDbEntity
  8
0
 62
     0
100
AcDbLine
 10
28.76958200865806
 20
3.583223900728796
 30
0.0
 11
27.52932953386406
 21
4.8234763755228
 31
0.0
  0
LINE
  5
11EA
330
11A1
100
AcDbEntity
  8
0
 62
     0
100
AcDbLine
 10
21.74610559449161
 20
10.15768750884177
 30
0.0
 11
20.39241065060395
 21
11.51138245272941
 31
0.0
  0
LINE
  5
11EB
330
11A1
100
AcDbEntity
  8
0
 62
     0
100
AcDbLine
 10
26.4711055944916
 20
5.432687508841751
 30
0.0
 11
22.80781092843279
 21
9.095982174900596
 31
0.0
  0
LINE
  5
11EC
330
11A1
100
AcDbEntity
  8
0
 62
     0
100
AcDbLine
 10
21.74610559449161
 20
9.7086747027883
 30
0.0
 11
20.34610559449161
 21
11.10867470278828
 31
0.0
  0
LINE
  5
11ED
330
11A1
100
AcDbEntity
  8
0
 62
     0
100
AcDbLine
 10
26.47110559449155
 20
4.983674702788333
 30
0.0
 11
22.9668706373528
 21
8.487909659927112
 31
0.0
  0
LINE
  5
11EE
330
11A1
100
AcDbEntity
  8
0
 62
     0
100
AcDbLine
 10
21.74610559449161
 20
9.259661896734854
 30
0.0
 11
20.34610559449163
 21
10.65966189673483
 31
0.0
  0
LINE
  5
11EF
330
11A1
100
AcDbEntity
  8
0
 62
     0
100
AcDbLine
 10
26.41682468569707
 20
4.588942805529398
 30
0.0
 11
25.06900729117791
 21
5.936760200048552
 31
0.0
  0
LINE
  5
11F0
330
11A1
100
AcDbEntity
  8
0
 62
     0
100
AcDbLine
 10
21.74610559449161
 20
8.810649090681408
 30
0.0
 11
20.34610559449161
 21
10.21064909068138
 31
0.0
  0
LINE
  5
11F1
330
11A1
100
AcDbEntity
  8
0
 62
     0
100
AcDbLine
 10
19.2003621442031
 20
11.35639254096989
 30
0.0
 11
18.93175472381659
 21
11.62499996135642
 31
0.0
  0
LINE
  5
11F2
330
11A1
100
AcDbEntity
  8
0
 62
     0
100
AcDbLine
 10
26.28288683181629
 20
4.273867853356732
 30
0.0
 11
25.07110559449163
 21
5.485649090681391
 31
0.0
  0
LINE
  5
11F3
330
11A1
100
AcDbEntity
  8
0
 62
     0
100
AcDbLine
 10
21.74610559449158
 20
8.361636284627932
 30
0.0
 11
20.34610559449161
 21
9.76163628462794
 31
0.0
  0
LINE
  5
11F4
330
11A1
100
AcDbEntity
  8
0
 62
     0
100
AcDbLine
 10
19.10089831207679
 20
11.00684356704272
 30
0.0
 11
18.48274191776314
 21
11.62499996135639
 31
0.0
  0
LINE
  5
11F5
330
11A1
100
AcDbEntity
  8
0
 62
     0
100
AcDbLine
 10
26.09139343272864
 20
4.016348446390906
 30
0.0
 11
25.02246300304839
 21
5.085278876071157
 31
0.0
  0
LINE
  5
11F6
330
11A1
100
AcDbEntity
  8
0
 62
     0
100
AcDbLine
 10
21.74610559449158
 20
7.912623478574486
 30
0.0
 11
20.34610559449161
 21
9.312623478574463
 31
0.0
  0
LINE
  5
11F7
330
11A1
100
AcDbEntity
  8
0
 62
     0
100
AcDbLine
 10
18.99313523862395
 20
10.66559383444209
 30
0.0
 11
18.03852745688866
 21
11.62020161617741
 31
0.0
  0
LINE
  5
11F8
330
11A1
100
AcDbEntity
  8
0
 62
     0
100
AcDbLine
 10
25.84823395017082
 20
3.810495122895217
 30
0.0
 11
24.68372911170971
 21
4.97499996135636
 31
0.0
  0
LINE
  5
11F9
330
11A1
100
AcDbEntity
  8
0
 62
     0
100
AcDbLine
 10
21.74610559449161
 20
7.463610672521042
 30
0.0
 11
20.34610559449161
 21
8.863610672521019
 31
0.0
  0
LINE
  5
11FA
330
11A1
100
AcDbEntity
  8
0
 62
     0
100
AcDbLine
 10
18.88537216517119
 20
10.32434410184146
 30
0.0
 11
17.82137216517117
 21
11.38834410184148
 31
0.0
  0
LINE
  5
11FB
330
11A1
100
AcDbEntity
  8
0
 62
     0
100
AcDbLine
 10
25.55019197594063
 20
3.659524291071988
 30
0.0
 11
24.23471630565626
 21
4.974999961356387
 31
0.0
  0
LINE
  5
11FC
330
11A1
100
AcDbEntity
  8
0
 62
     0
100
AcDbLine
 10
21.74610559449158
 20
7.014597866467596
 30
0.0
 11
20.34610559449161
 21
8.414597866467572
 31
0.0
  0
LINE
  5
11FD
330
11A1
100
AcDbEntity
  8
0
 62
     0
100
AcDbLine
 10
18.77760909171826
 20
9.983094369240916
 30
0.0
 11
17.71360909171827
 21
11.04709436924091
 31
0.0
  0
LINE
  5
11FE
330
11A1
100
AcDbEntity
  8
0
 62
     0
100
AcDbLine
 10
25.1813556501169
 20
3.579347810842278
 30
0.0
 11
23.78570349960282
 21
4.97499996135636
 31
0.0
  0
LINE
  5
11FF
330
11A1
100
AcDbEntity
  8
0
 62
     0
100
AcDbLine
 10
21.74610559449158
 20
6.565585060414122
 30
0.0
 11
20.34610559449157
 21
7.965585060414098
 31
0.0
  0
LINE
  5
1200
330
11A1
100
AcDbEntity
  8
0
 62
     0
100
AcDbLine
 10
18.66984601826547
 20
9.641844636640227
 30
0.0
 11
17.60584601826542
 21
10.70584463664025
 31
0.0
  0
LINE
  5
1201
330
11A1
100
AcDbEntity
  8
0
 62
     0
100
AcDbLine
 10
24.73669069354938
 20
3.574999961356326
 30
0.0
 11
23.33669069354934
 21
4.97499996135636
 31
0.0
  0
LINE
  5
1202
330
11A1
100
AcDbEntity
  8
0
 62
     0
100
AcDbLine
 10
21.74610559449158
 20
6.116572254360676
 30
0.0
 11
20.34610559449161
 21
7.516572254360681
 31
0.0
  0
LINE
  5
1203
330
11A1
100
AcDbEntity
  8
0
 62
     0
100
AcDbLine
 10
18.56208294481269
 20
9.300594904039597
 30
0.0
 11
17.49808294481261
 21
10.36459490403965
 31
0.0
  0
LINE
  5
1204
330
11A1
100
AcDbEntity
  8
0
 62
     0
100
AcDbLine
 10
24.28767788749593
 20
3.574999961356353
 30
0.0
 11
23.07087203884774
 21
4.791805810004547
 31
0.0
  0
LINE
  5
1205
330
11A1
100
AcDbEntity
  8
0
 62
     0
100
AcDbLine
 10
18.45431987135981
 20
8.959345171438997
 30
0.0
 11
17.39031987135979
 21
10.02334517143902
 31
0.0
  0
LINE
  5
1206
330
11A1
100
AcDbEntity
  8
0
 62
     0
100
AcDbLine
 10
21.74610559449158
 20
5.66755944830723
 30
0.0
 11
20.34610559449161
 21
7.067559448307206
 31
0.0
  0
LINE
  5
1207
330
11A1
100
AcDbEntity
  8
0
 62
     0
100
AcDbLine
 10
16.3211055944916
 20
11.09255944830721
 30
0.0
 11
15.78866508144244
 21
11.62499996135633
 31
0.0
  0
LINE
  5
1208
330
11A1
100
AcDbEntity
  8
0
 62
     0
100
AcDbLine
 10
23.83866508144249
 20
3.574999961356326
 30
0.0
 11
23.05860559449161
 21
4.3550594483072
 31
0.0
  0
LINE
  5
1209
330
11A1
100
AcDbEntity
  8
0
 62
     0
100
AcDbLine
 10
18.34655679790697
 20
8.618095438838366
 30
0.0
 11
17.28255679790698
 21
9.682095438838359
 31
0.0
  0
LINE
  5
120A
330
11A1
100
AcDbEntity
  8
0
 62
     0
100
AcDbLine
 10
21.74610559449158
 20
5.218546642253754
 30
0.0
 11
20.34610559449157
 21
6.618546642253761
 31
0.0
  0
LINE
  5
120B
330
11A1
100
AcDbEntity
  8
0
 62
     0
100
AcDbLine
 10
16.3211055944916
 20
10.64354664225374
 30
0.0
 11
15.339652275389
 21
11.62499996135633
 31
0.0
  0
LINE
  5
120C
330
11A1
100
AcDbEntity
  8
0
 62
     0
100
AcDbLine
 10
23.38965227538898
 20
3.574999961356353
 30
0.0
 11
23.05860559449158
 21
3.906046642253727
 31
0.0
  0
LINE
  5
120D
330
11A1
100
AcDbEntity
  8
0
 62
     0
100
AcDbLine
 10
18.23879372445412
 20
8.276845706237736
 30
0.0
 11
17.1747937244541
 21
9.340845706237756
 31
0.0
  0
LINE
  5
120E
330
11A1
100
AcDbEntity
  8
0
 62
     0
100
AcDbLine
 10
16.32110559449157
 20
10.19453383620026
 30
0.0
 11
14.98338313004277
 21
11.53225630064909
 31
0.0
  0
LINE
  5
120F
330
11A1
100
AcDbEntity
  8
0
 62
     0
100
AcDbLine
 10
21.74610559449155
 20
4.769533836200309
 30
0.0
 11
20.34610559449157
 21
6.169533836200287
 31
0.0
  0
LINE
  5
1210
330
11A1
100
AcDbEntity
  8
0
 62
     0
100
AcDbLine
 10
18.13103065100131
 20
7.935595973637133
 30
0.0
 11
17.06703065100132
 21
8.999595973637125
 31
0.0
  0
LINE
  5
1211
330
11A1
100
AcDbEntity
  8
0
 62
     0
100
AcDbLine
 10
16.3211055944916
 20
9.745521030146845
 30
0.0
 11
14.92110559449156
 21
11.14552103014685
 31
0.0
  0
LINE
  5
1212
330
11A1
100
AcDbEntity
  8
0
 62
     0
100
AcDbLine
 10
21.74610559449158
 20
4.320521030146863
 30
0.0
 11
20.34610559449157
 21
5.720521030146841
 31
0.0
  0
LINE
  5
1213
330
11A1
100
AcDbEntity
  8
0
 62
     0
100
AcDbLine
 10
18.02848639630537
 20
7.589127422279601
 30
0.0
 11
16.95926757754843
 21
8.658346241036525
 31
0.0
  0
LINE
  5
1214
330
11A1
100
AcDbEntity
  8
0
 62
     0
100
AcDbLine
 10
16.3211055944916
 20
9.296508224093372
 30
0.0
 11
14.92110559449156
 21
10.6965082240934
 31
0.0
  0
LINE
  5
1215
330
11A1
100
AcDbEntity
  8
0
 62
     0
100
AcDbLine
 10
21.74610559449155
 20
3.871508224093389
 30
0.0
 11
20.34610559449157
 21
5.271508224093394
 31
0.0
  0
LINE
  5
1216
330
11A1
100
AcDbEntity
  8
0
 62
     0
100
AcDbLine
 10
18.23572307602237
 20
6.932877936509128
 30
0.0
 11
16.81399382970613
 21
8.354607182825361
 31
0.0
  0
LINE
  5
1217
330
11A1
100
AcDbEntity
  8
0
 62
     0
100
AcDbLine
 10
16.32110559449162
 20
8.847495418039869
 30
0.0
 11
14.92110559449153
 21
10.24749541803993
 31
0.0
  0
LINE
  5
1218
330
11A1
100
AcDbEntity
  8
0
 62
     0
100
AcDbLine
 10
21.57658309582538
 20
3.592017916706082
 30
0.0
 11
20.34610559449161
 21
4.822495418039891
 31
0.0
  0
LINE
  5
1219
330
11A1
100
AcDbEntity
  8
0
 62
     0
100
AcDbLine
 10
18.44295975573939
 20
6.276628450738684
 30
0.0
 11
14.92110559449156
 21
9.798482611986512
 31
0.0
  0
LINE
  5
121A
330
11A1
100
AcDbEntity
  8
0
 62
     0
100
AcDbLine
 10
13.69610559449162
 20
11.02348261198645
 30
0.0
 11
13.09458824512174
 21
11.62499996135633
 31
0.0
  0
LINE
  5
121B
330
11A1
100
AcDbEntity
  8
0
 62
     0
100
AcDbLine
 10
21.14458824512173
 20
3.574999961356353
 30
0.0
 11
20.34610559449163
 21
4.373482611986446
 31
0.0
  0
LINE
  5
121C
330
11A1
100
AcDbEntity
  8
0
 62
     0
100
AcDbLine
 10
18.65019643545634
 20
5.620378964968238
 30
0.0
 11
14.92110559449156
 21
9.349469805933038
 31
0.0
  0
LINE
  5
121D
330
11A1
100
AcDbEntity
  8
0
 62
     0
100
AcDbLine
 10
13.69610559449162
 20
10.57446980593298
 30
0.0
 11
12.64557543906824
 21
11.62499996135636
 31
0.0
  0
LINE
  5
121E
330
11A1
100
AcDbEntity
  8
0
 62
     0
100
AcDbLine
 10
20.69557543906822
 20
3.574999961356381
 30
0.0
 11
20.34610559449161
 21
3.924469805932999
 31
0.0
  0
LINE
  5
121F
330
11A1
100
AcDbEntity
  8
0
 62
     0
100
AcDbLine
 10
13.56265224679657
 20
10.25891034757455
 30
0.0
 11
12.21254138769086
 21
11.60902120668024
 31
0.0
  0
LINE
  5
1220
330
11A1
100
AcDbEntity
  8
0
 62
     0
100
AcDbLine
 10
18.8574331151733
 20
4.964129479197822
 30
0.0
 11
14.92110559449159
 21
8.900456999879535
 31
0.0
  0
LINE
  5
1221
330
11A1
100
AcDbEntity
  8
0
 62
     0
100
AcDbLine
 10
16.4898600556624
 20
6.882689732655278
 30
0.0
 11
14.92110559449159
 21
8.451444193826091
 31
0.0
  0
LINE
  5
1222
330
11A1
100
AcDbEntity
  8
0
 62
     0
100
AcDbLine
 10
13.14754982696135
 20
10.2249999613563
 30
0.0
 11
11.84351985289723
 21
11.52902993542045
 31
0.0
  0
LINE
  5
1223
330
11A1
100
AcDbEntity
  8
0
 62
     0
100
AcDbLine
 10
19.06466979489031
 20
4.307879993427376
 30
0.0
 11
17.01851594873636
 21
6.35403383958129
 31
0.0
  0
LINE
  5
1224
330
11A1
100
AcDbEntity
  8
0
 62
     0
100
AcDbLine
 10
16.32110559449162
 20
6.602431387772611
 30
0.0
 11
14.92110559449159
 21
8.002431387772645
 31
0.0
  0
LINE
  5
1225
330
11A1
100
AcDbEntity
  8
0
 62
     0
100
AcDbLine
 10
12.69853702090785
 20
10.22499996135636
 30
0.0
 11
11.52415914498186
 21
11.39937783728234
 31
0.0
  0
LINE
  5
1226
330
11A1
100
AcDbEntity
  8
0
 62
     0
100
AcDbLine
 10
19.18218922374561
 20
3.741347758518599
 30
0.0
 11
17.22575262845333
 21
5.697784353810902
 31
0.0
  0
LINE
  5
1227
330
11A1
100
AcDbEntity
  8
0
 62
     0
100
AcDbLine
 10
16.3211055944916
 20
6.153418581719164
 30
0.0
 11
14.92110559449156
 21
7.553418581719171
 31
0.0
  0
LINE
  5
1228
330
11A1
100
AcDbEntity
  8
0
 62
     0
100
AcDbLine
 10
12.27698026963608
 20
10.19754390657468
 30
0.0
 11
11.24478465731459
 21
11.22973951889616
 31
0.0
  0
LINE
  5
1229
330
11A1
100
AcDbEntity
  8
0
 62
     0
100
AcDbLine
 10
18.89952421485444
 20
3.574999961356326
 30
0.0
 11
17.4329893081703
 21
5.041534868040456
 31
0.0
  0
LINE
  5
122A
330
11A1
100
AcDbEntity
  8
0
 62
     0
100
AcDbLine
 10
16.3211055944916
 20
5.704405775665691
 30
0.0
 11
14.92110559449156
 21
7.104405775665724
 31
0.0
  0
LINE
  5
122B
330
11A1
100
AcDbEntity
  8
0
 62
     0
100
AcDbLine
 10
11.99105217321658
 20
10.0344591969407
 30
0.0
 11
11.0009570530087
 21
11.02455431714858
 31
0.0
  0
LINE
  5
122C
330
11A1
100
AcDbEntity
  8
0
 62
     0
100
AcDbLine
 10
18.45051140880096
 20
3.574999961356326
 30
0.0
 11
17.64022598788733
 21
4.385285382269954
 31
0.0
  0
LINE
  5
122D
330
11A1
100
AcDbEntity
  8
0
 62
     0
100
AcDbLine
 10
13.86382016089047
 20
7.712678403213401
 30
0.0
 11
13.10878403634859
 21
8.467714527755276
 31
0.0
  0
LINE
  5
122E
330
11A1
100
AcDbEntity
  8
0
 62
     0
100
AcDbLine
 10
16.32110559449165
 20
5.255392969612215
 30
0.0
 11
14.92110559449159
 21
6.655392969612277
 31
0.0
  0
LINE
  5
122F
330
11A1
100
AcDbEntity
  8
0
 62
     0
100
AcDbLine
 10
11.8129913881521
 20
9.763507175951756
 30
0.0
 11
10.79127404000309
 21
10.78522452410078
 31
0.0
  0
LINE
  5
1230
330
11A1
100
AcDbEntity
  8
0
 62
     0
100
AcDbLine
 10
17.97633210064521
 20
3.600166463458663
 30
0.0
 11
17.85115501484955
 21
3.725343549254318
 31
0.0
  0
LINE
  5
1231
330
11A1
100
AcDbEntity
  8
0
 62
     0
100
AcDbLine
 10
13.82056333081951
 20
7.306922427230887
 30
0.0
 11
12.70302806036608
 21
8.424457697684317
 31
0.0
  0
LINE
  5
1232
330
11A1
100
AcDbEntity
  8
0
 62
     0
100
AcDbLine
 10
11.77110559449164
 20
9.356380163558752
 30
0.0
 11
10.61680452952225
 21
10.51068122852814
 31
0.0
  0
LINE
  5
1233
330
11A1
100
AcDbEntity
  8
0
 62
     0
100
AcDbLine
 10
16.32110559449162
 20
4.806380163558742
 30
0.0
 11
14.92110559449156
 21
6.206380163558832
 31
0.0
  0
LINE
  5
1234
330
11A1
100
AcDbEntity
  8
0
 62
     0
100
AcDbLine
 10
13.65463555117048
 20
7.023837400826407
 30
0.0
 11
12.4199430339616
 21
8.258529918035293
 31
0.0
  0
LINE
  5
1235
330
11A1
100
AcDbEntity
  8
0
 62
     0
100
AcDbLine
 10
11.77110559449164
 20
8.907367357505279
 30
0.0
 11
10.48151467591717
 21
10.19695827607975
 31
0.0
  0
LINE
  5
1236
330
11A1
100
AcDbEntity
  8
0
 62
     0
100
AcDbLine
 10
16.32110559449162
 20
4.357367357505296
 30
0.0
 11
14.92110559449159
 21
5.757367357505329
 31
0.0
  0
LINE
  5
1237
330
11A1
100
AcDbEntity
  8
0
 62
     0
100
AcDbLine
 10
11.77110559449164
 20
8.458354551451831
 30
0.0
 11
10.39415773945424
 21
9.835302406489262
 31
0.0
  0
LINE
  5
1238
330
11A1
100
AcDbEntity
  8
0
 62
     0
100
AcDbLine
 10
13.40371883010226
 20
6.82574131584124
 30
0.0
 11
12.22184694897643
 21
8.007613196967071
 31
0.0
  0
LINE
  5
1239
330
11A1
100
AcDbEntity
  8
0
 62
     0
100
AcDbLine
 10
9.058605594491606
 20
11.17085455145189
 30
0.0
 11
8.604460184587111
 21
11.62499996135639
 31
0.0
  0
LINE
  5
123A
330
11A1
100
AcDbEntity
  8
0
 62
     0
100
AcDbLine
 10
16.32110559449165
 20
3.90835455145185
 30
0.0
 11
14.92110559449162
 21
5.308354551451883
 31
0.0
  0
LINE
  5
123B
330
11A1
100
AcDbEntity
  8
0
 62
     0
100
AcDbLine
 10
11.77110559449164
 20
8.009341745398387
 30
0.0
 11
10.37110559449161
 21
9.409341745398419
 31
0.0
  0
LINE
  5
123C
330
11A1
100
AcDbEntity
  8
0
 62
     0
100
AcDbLine
 10
13.05355910888855
 20
6.726888231001481
 30
0.0
 11
12.12299386413667
 21
7.657453475753356
 31
0.0
  0
LINE
  5
123D
330
11A1
100
AcDbEntity
  8
0
 62
     0
100
AcDbLine
 10
9.058605594491579
 20
10.72184174539842
 30
0.0
 11
8.155447378533636
 21
11.62499996135636
 31
0.0
  0
LINE
  5
123E
330
11A1
100
AcDbEntity
  8
0
 62
     0
100
AcDbLine
 10
16.1771536938563
 20
3.603293646033733
 30
0.0
 11
14.92110559449159
 21
4.85934174539841
 31
0.0
  0
LINE
  5
123F
330
11A1
100
AcDbEntity
  8
0
 62
     0
100
AcDbLine
 10
11.77110559449164
 20
7.560328939344911
 30
0.0
 11
10.37110559449161
 21
8.960328939344947
 31
0.0
  0
LINE
  5
1240
330
11A1
100
AcDbEntity
  8
0
 62
     0
100
AcDbLine
 10
9.004088609356413
 20
10.32734592448014
 30
0.0
 11
7.706434572480134
 21
11.62499996135639
 31
0.0
  0
LINE
  5
1241
330
11A1
100
AcDbEntity
  8
0
 62
     0
100
AcDbLine
 10
15.7564345724802
 20
3.574999961356353
 30
0.0
 11
14.92110559449159
 21
4.410328939344964
 31
0.0
  0
LINE
  5
1242
330
11A1
100
AcDbEntity
  8
0
 62
     0
100
AcDbLine
 10
11.77110559449161
 20
7.111316133291467
 30
0.0
 11
10.37110559449158
 21
8.511316133291472
 31
0.0
  0
LINE
  5
1243
330
11A1
100
AcDbEntity
  8
0
 62
     0
100
AcDbLine
 10
8.657421766426722
 20
10.22499996135636
 30
0.0
 11
7.257421766426687
 21
11.62499996135639
 31
0.0
  0
LINE
  5
1244
330
11A1
100
AcDbEntity
  8
0
 62
     0
100
AcDbLine
 10
15.30742176642673
 20
3.574999961356326
 30
0.0
 11
14.92110559449159
 21
3.961316133291489
 31
0.0
  0
LINE
  5
1245
330
11A1
100
AcDbEntity
  8
0
 62
     0
100
AcDbLine
 10
11.77110559449167
 20
6.662303327237991
 30
0.0
 11
10.37110559449161
 21
8.062303327238053
 31
0.0
  0
LINE
  5
1246
330
11A1
100
AcDbEntity
  8
0
 62
     0
100
AcDbLine
 10
8.208408960373276
 20
10.22499996135639
 30
0.0
 11
6.825844324320853
 21
11.60756459740881
 31
0.0
  0
LINE
  5
1247
330
11A1
100
AcDbEntity
  8
0
 62
     0
100
AcDbLine
 10
13.69480437007314
 20
4.738604551656492
 30
0.0
 11
13.45971018479179
 21
4.973698736937875
 31
0.0
  0
LINE
  5
1248
330
11A1
100
AcDbEntity
  8
0
 62
     0
100
AcDbLine
 10
11.77110559449167
 20
6.213290521184517
 30
0.0
 11
10.37110559449161
 21
7.61329052118458
 31
0.0
  0
LINE
  5
1249
330
11A1
100
AcDbEntity
  8
0
 62
     0
100
AcDbLine
 10
7.759396154319802
 20
10.22499996135636
 30
0.0
 11
6.479276920081616
 21
11.50511919559457
 31
0.0
  0
LINE
  5
124A
330
11A1
100
AcDbEntity
  8
0
 62
     0
100
AcDbLine
 10
13.69610559449165
 20
4.288290521184535
 30
0.0
 11
13.00939615431983
 21
4.97499996135636
 31
0.0
  0
LINE
  5
124B
330
11A1
100
AcDbEntity
  8
0
 62
     0
100
AcDbLine
 10
11.77110559449164
 20
5.764277715131044
 30
0.0
 11
10.37110559449164
 21
7.164277715131076
 31
0.0
  0
LINE
  5
124C
330
11A1
100
AcDbEntity
  8
0
 62
     0
100
AcDbLine
 10
7.310383348266383
 20
10.2249999613563
 30
0.0
 11
6.197153590157995
 21
11.33822971946469
 31
0.0
  0
LINE
  5
124D
330
11A1
100
AcDbEntity
  8
0
 62
     0
100
AcDbLine
 10
13.69610559449162
 20
3.839277715131061
 30
0.0
 11
12.56038334826638
 21
4.974999961356302
 31
0.0
  0
LINE
  5
124E
330
11A1
100
AcDbEntity
  8
0
 62
     0
100
AcDbLine
 10
7.055236934459087
 20
10.03113356911021
 30
0.0
 11
5.968107184037619
 21
11.11826331953168
 31
0.0
  0
LINE
  5
124F
330
11A1
100
AcDbEntity
  8
0
 62
     0
100
AcDbLine
 10
13.50223920224545
 20
3.58413130132385
 30
0.0
 11
10.37110559449164
 21
6.715264909077659
 31
0.0
  0
LINE
  5
1250
330
11A1
100
AcDbEntity
  8
0
 62
     0
100
AcDbLine
 10
7.046105594491621
 20
9.591252103024203
 30
0.0
 11
5.791366582803077
 21
10.84599111471274
 31
0.0
  0
LINE
  5
1251
330
11A1
100
AcDbEntity
  8
0
 62
     0
100
AcDbLine
 10
13.0623577361595
 20
3.574999961356326
 30
0.0
 11
10.37110559449164
 21
6.266252103024187
 31
0.0
  0
LINE
  5
1252
330
11A1
100
AcDbEntity
  8
0
 62
     0
100
AcDbLine
 10
7.077173448559335
 20
9.111171442902984
 30
0.0
 11
5.675926531656216
 21
10.51241835980613
 31
0.0
  0
LINE
  5
1253
330
11A1
100
AcDbEntity
  8
0
 62
     0
100
AcDbLine
 10
12.61334493010599
 20
3.574999961356353
 30
0.0
 11
10.37110559449161
 21
5.81723929697071
 31
0.0
  0
LINE
  5
1254
330
11A1
100
AcDbEntity
  8
0
 62
     0
100
AcDbLine
 10
9.223293640102951
 20
6.516038445305952
 30
0.0
 11
5.646105594491642
 21
10.09322649091726
 31
0.0
  0
LINE
  5
1255
330
11A1
100
AcDbEntity
  8
0
 62
     0
100
AcDbLine
 10
12.13769608052422
 20
3.601636004884681
 30
0.0
 11
10.39774163801993
 21
5.341590447388965
 31
0.0
  0
LINE
  5
1256
330
11A1
100
AcDbEntity
  8
0
 62
     0
100
AcDbLine
 10
9.319240897145562
 20
5.971078382209896
 30
0.0
 11
5.646105594491585
 21
9.644213684863872
 31
0.0
  0
LINE
  5
1257
330
11A1
100
AcDbEntity
  8
0
 62
     0
100
AcDbLine
 10
11.45079212422342
 20
3.839527155132002
 30
0.0
 11
10.63563278826723
 21
4.654686491088226
 31
0.0
  0
LINE
  5
1258
330
11A1
100
AcDbEntity
  8
0
 62
     0
100
AcDbLine
 10
9.321105594491655
 20
5.520200878810328
 30
0.0
 11
5.649887818202785
 21
9.19141865509917
 31
0.0
  0
LINE
  5
1259
330
11A1
100
AcDbEntity
  8
0
 62
     0
100
AcDbLine
 10
9.321105594491596
 20
5.07118807275691
 30
0.0
 11
5.761533197364713
 21
8.630760469883767
 31
0.0
  0
LINE
  5
125A
330
11A1
100
AcDbEntity
  8
0
 62
     0
100
AcDbLine
 10
9.28484559642564
 20
4.65843526476945
 30
0.0
 11
7.903149774616109
 21
6.040131086578981
 31
0.0
  0
LINE
  5
125B
330
11A1
100
AcDbEntity
  8
0
 62
     0
100
AcDbLine
 10
9.163876626911216
 20
4.330391428230399
 30
0.0
 11
7.921105594491592
 21
5.573162460650022
 31
0.0
  0
LINE
  5
125C
330
11A1
100
AcDbEntity
  8
0
 62
     0
100
AcDbLine
 10
8.982817003220331
 20
4.062438245867808
 30
0.0
 11
7.903156078341253
 21
5.142099170746887
 31
0.0
  0
LINE
  5
125D
330
11A1
100
AcDbEntity
  8
0
 62
     0
100
AcDbLine
 10
8.749703817086896
 20
3.846538625947799
 30
0.0
 11
7.621242481678335
 21
4.974999961356387
 31
0.0
  0
LINE
  5
125E
330
11A1
100
AcDbEntity
  8
0
 62
     0
100
AcDbLine
 10
8.46307159322049
 20
3.684158043760759
 30
0.0
 11
7.172229675624861
 21
4.97499996135636
 31
0.0
  0
LINE
  5
125F
330
11A1
100
AcDbEntity
  8
0
 62
     0
100
AcDbLine
 10
8.110365298677521
 20
3.587851532250254
 30
0.0
 11
6.723216869571416
 21
4.97499996135636
 31
0.0
  0
LINE
  5
1260
330
11A1
100
AcDbEntity
  8
0
 62
     0
100
AcDbLine
 10
7.674204063517946
 20
3.574999961356353
 30
0.0
 11
6.274204063517942
 21
4.97499996135636
 31
0.0
  0
LINE
  5
1261
330
11A1
100
AcDbEntity
  8
0
 62
     0
100
AcDbLine
 10
7.22519125746453
 20
3.574999961356326
 30
0.0
 11
5.948529310055589
 21
4.851661908765294
 31
0.0
  0
LINE
  5
1262
330
11A1
100
AcDbEntity
  8
0
 62
     0
100
AcDbLine
 10
6.776178451411027
 20
3.574999961356353
 30
0.0
 11
5.908605594491633
 21
4.442572818275748
 31
0.0
  0
LINE
  5
1263
330
11A1
100
AcDbEntity
  8
0
 62
     0
100
AcDbLine
 10
6.327165645357609
 20
3.574999961356326
 30
0.0
 11
5.908605594491633
 21
3.993560012222303
 31
0.0
  0
LINE
  5
1264
330
11A1
100
AcDbEntity
  8
0
 62
     0
100
AcDbLine
 10
34.31694923682508
 20
3.581565849915107
 30
0.0
 11
34.51453970593298
 21
3.779156319023001
 31
0.0
  0
LINE
  5
1265
330
11A1
100
AcDbEntity
  8
0
 62
     0
100
AcDbLine
 10
33.86137054221291
 20
3.574999961356326
 30
0.0
 11
34.5211055944917
 21
4.234735013635145
 31
0.0
  0
LINE
  5
1266
330
11A1
100
AcDbEntity
  8
0
 62
     0
100
AcDbLine
 10
33.41235773615944
 20
3.574999961356353
 30
0.0
 11
34.5211055944917
 21
4.683747819688591
 31
0.0
  0
LINE
  5
1267
330
11A1
100
AcDbEntity
  8
0
 62
     0
100
AcDbLine
 10
33.13670437611754
 20
3.7483594073679
 30
0.0
 11
34.52110559449167
 21
5.132760625742065
 31
0.0
  0
LINE
  5
1268
330
11A1
100
AcDbEntity
  8
0
 62
     0
100
AcDbLine
 10
33.12110559449164
 20
4.181773431795477
 30
0.0
 11
34.52110559449167
 21
5.581773431795483
 31
0.0
  0
LINE
  5
1269
330
11A1
100
AcDbEntity
  8
0
 62
     0
100
AcDbLine
 10
33.12110559449167
 20
4.630786237848922
 30
0.0
 11
34.52110559449167
 21
6.030786237848956
 31
0.0
  0
LINE
  5
126A
330
11A1
100
AcDbEntity
  8
0
 62
     0
100
AcDbLine
 10
33.12110559449164
 20
5.079799043902396
 30
0.0
 11
34.52110559449167
 21
6.479799043902431
 31
0.0
  0
LINE
  5
126B
330
11A1
100
AcDbEntity
  8
0
 62
     0
100
AcDbLine
 10
33.12110559449164
 20
5.528811849955842
 30
0.0
 11
34.52110559449167
 21
6.928811849955878
 31
0.0
  0
LINE
  5
126C
330
11A1
100
AcDbEntity
  8
0
 62
     0
100
AcDbLine
 10
31.33438802552428
 20
3.742094280988481
 30
0.0
 11
31.90401127485956
 21
4.31171753032379
 31
0.0
  0
LINE
  5
126D
330
11A1
100
AcDbEntity
  8
0
 62
     0
100
AcDbLine
 10
33.12110559449164
 20
5.977824656009288
 30
0.0
 11
34.52110559449167
 21
7.377824656009322
 31
0.0
  0
LINE
  5
126E
330
11A1
100
AcDbEntity
  8
0
 62
     0
100
AcDbLine
 10
30.71910394226288
 20
3.575823003780527
 30
0.0
 11
32.07028255206754
 21
4.927001613585161
 31
0.0
  0
LINE
  5
126F
330
11A1
100
AcDbEntity
  8
0
 62
     0
100
AcDbLine
 10
33.12110559449164
 20
6.426837462062763
 30
0.0
 11
34.52110559449167
 21
7.826837462062768
 31
0.0
  0
LINE
  5
1270
330
11A1
100
AcDbEntity
  8
0
 62
     0
100
AcDbLine
 10
30.26926809378526
 20
3.574999961356381
 30
0.0
 11
32.07110559449168
 21
5.376837462062781
 31
0.0
  0
LINE
  5
1271
330
11A1
100
AcDbEntity
  8
0
 62
     0
100
AcDbLine
 10
33.12110559449164
 20
6.875850268116209
 30
0.0
 11
34.52110559449165
 21
8.275850268116244
 31
0.0
  0
LINE
  5
1272
330
11A1
100
AcDbEntity
  8
0
 62
     0
100
AcDbLine
 10
29.82025528773178
 20
3.574999961356381
 30
0.0
 11
32.07110559449166
 21
5.825850268116254
 31
0.0
  0
LINE
  5
1273
330
11A1
100
AcDbEntity
  8
0
 62
     0
100
AcDbLine
 10
33.12110559449164
 20
7.324863074169654
 30
0.0
 11
34.52110559449167
 21
8.724863074169688
 31
0.0
  0
LINE
  5
1274
330
11A1
100
AcDbEntity
  8
0
 62
     0
100
AcDbLine
 10
29.37124248167831
 20
3.574999961356326
 30
0.0
 11
32.07110559449168
 21
6.274863074169701
 31
0.0
  0
LINE
  5
1275
330
11A1
100
AcDbEntity
  8
0
 62
     0
100
AcDbLine
 10
30.61880999345112
 20
5.271580279182613
 30
0.0
 11
32.07110559449168
 21
6.723875880223148
 31
0.0
  0
LINE
  5
1276
330
11A1
100
AcDbEntity
  8
0
 62
     0
100
AcDbLine
 10
33.12110559449164
 20
7.7738758802231
 30
0.0
 11
34.52110559449167
 21
9.173875880223137
 31
0.0
  0
LINE
  5
1277
330
11A1
100
AcDbEntity
  8
0
 62
     0
100
AcDbLine
 10
28.92222967562489
 20
3.574999961356381
 30
0.0
 11
30.37452527666538
 21
5.02729556239683
 31
0.0
  0
LINE
  5
1278
330
11A1
100
AcDbEntity
  8
0
 62
     0
100
AcDbLine
 10
30.67110559449159
 20
5.772888686276558
 30
0.0
 11
32.07110559449166
 21
7.17288868627662
 31
0.0
  0
LINE
  5
1279
330
11A1
100
AcDbEntity
  8
0
 62
     0
100
AcDbLine
 10
33.12110559449161
 20
8.222888686276576
 30
0.0
 11
34.52110559449165
 21
9.62288868627661
 31
0.0
  0
LINE
  5
127A
330
11A1
100
AcDbEntity
  8
0
 62
     0
100
AcDbLine
 10
28.52919174525997
 20
3.630974837044901
 30
0.0
 11
29.87321686957142
 21
4.974999961356387
 31
0.0
  0
LINE
  5
127B
330
11A1
100
AcDbEntity
  8
0
 62
     0
100
AcDbLine
 10
30.67110559449159
 20
6.221901492330005
 30
0.0
 11
32.07110559449166
 21
7.621901492330066
 31
0.0
  0
LINE
  5
127C
330
11A1
100
AcDbEntity
  8
0
 62
     0
100
AcDbLine
 10
33.12110559449161
 20
8.671901492330048
 30
0.0
 11
34.52110559449165
 21
10.07190149233005
 31
0.0
  0
LINE
  5
127D
330
11A1
100
AcDbEntity
  8
0
 62
     0
100
AcDbLine
 10
28.21519831165489
 20
3.765994209493328
 30
0.0
 11
29.42464295634011
 21
4.975438854178547
 31
0.0
  0
LINE
  5
127E
330
11A1
100
AcDbEntity
  8
0
 62
     0
100
AcDbLine
 10
30.67110559449159
 20
6.670914298383451
 30
0.0
 11
32.07110559449166
 21
8.070914298383511
 31
0.0
  0
LINE
  5
127F
330
11A1
100
AcDbEntity
  8
0
 62
     0
100
AcDbLine
 10
33.12110559449164
 20
9.120914298383466
 30
0.0
 11
34.52110559449165
 21
10.5209142983835
 31
0.0
  0
LINE
  5
1280
330
11A1
100
AcDbEntity
  8
0
 62
     0
100
AcDbLine
 10
27.95856837097236
 20
3.958377074864187
 30
0.0
 11
29.10290366198376
 21
5.102712365875618
 31
0.0
  0
LINE
  5
1281
330
11A1
100
AcDbEntity
  8
0
 62
     0
100
AcDbLine
 10
30.67110559449159
 20
7.119927104436897
 30
0.0
 11
32.07110559449166
 21
8.519927104436987
 31
0.0
  0
LINE
  5
1282
330
11A1
100
AcDbEntity
  8
0
 62
     0
100
AcDbLine
 10
33.12110559449161
 20
9.569927104436944
 30
0.0
 11
34.52110559449165
 21
10.96992710443697
 31
0.0
  0
LINE
  5
1283
330
11A1
100
AcDbEntity
  8
0
 62
     0
100
AcDbLine
 10
27.75358628335979
 20
4.202407793305098
 30
0.0
 11
28.93428452277905
 21
5.383106032724383
 31
0.0
  0
LINE
  5
1284
330
11A1
100
AcDbEntity
  8
0
 62
     0
100
AcDbLine
 10
30.67110559449157
 20
7.568939910490371
 30
0.0
 11
32.07110559449166
 21
8.968939910490432
 31
0.0
  0
LINE
  5
1285
330
11A1
100
AcDbEntity
  8
0
 62
     0
100
AcDbLine
 10
33.12110559449161
 20
10.01893991049039
 30
0.0
 11
34.51603101771642
 21
11.41386533371522
 31
0.0
  0
LINE
  5
1286
330
11A1
100
AcDbEntity
  8
0
 62
     0
100
AcDbLine
 10
27.60362384414279
 20
4.501458160141594
 30
0.0
 11
28.92110559449159
 21
5.818939910490398
 31
0.0
  0
LINE
  5
1287
330
11A1
100
AcDbEntity
  8
0
 62
     0
100
AcDbLine
 10
30.67110559449162
 20
8.017952716543845
 30
0.0
 11
32.07110559449166
 21
9.417952716543879
 31
0.0
  0
LINE
  5
1288
330
11A1
100
AcDbEntity
  8
0
 62
     0
100
AcDbLine
 10
33.12110559449161
 20
10.46795271654383
 30
0.0
 11
34.27747384517668
 21
11.6243209672289
 31
0.0
  0
LINE
  5
1289
330
11A1
100
AcDbEntity
  8
0
 62
     0
100
AcDbLine
 10
27.52491707666457
 20
4.871764198716788
 30
0.0
 11
28.92110559449162
 21
6.267952716543844
 31
0.0
  0
LINE
  5
128A
330
11A1
100
AcDbEntity
  8
0
 62
     0
100
AcDbLine
 10
30.67110559449162
 20
8.46696552259732
 30
0.0
 11
32.07110559449166
 21
9.866965522597324
 31
0.0
  0
LINE
  5
128B
330
11A1
100
AcDbEntity
  8
0
 62
     0
100
AcDbLine
 10
33.12110559449164
 20
10.91696552259733
 30
0.0
 11
33.82914003325064
 21
11.62499996135633
 31
0.0
  0
LINE
  5
128C
330
11A1
100
AcDbEntity
  8
0
 62
     0
100
AcDbLine
 10
27.52110559449167
 20
5.316965522597341
 30
0.0
 11
28.92110559449165
 21
6.716965522597347
 31
0.0
  0
LINE
  5
128D
330
11A1
100
AcDbEntity
  8
0
 62
     0
100
AcDbLine
 10
30.67110559449162
 20
8.915978328650766
 30
0.0
 11
32.07110559449163
 21
10.3159783286508
 31
0.0
  0
LINE
  5
128E
330
11A1
100
AcDbEntity
  8
0
 62
     0
100
AcDbLine
 10
27.52110559449164
 20
5.765978328650818
 30
0.0
 11
28.92110559449162
 21
7.165978328650793
 31
0.0
  0
LINE
  5
128F
330
11A1
100
AcDbEntity
  8
0
 62
     0
100
AcDbLine
 10
33.12112895186536
 20
11.36600168602453
 30
0.0
 11
33.3801038698235
 21
11.62497660398264
 31
0.0
  0
LINE
  5
1290
330
11A1
100
AcDbEntity
  8
0
 62
     0
100
AcDbLine
 10
25.36032777913565
 20
3.605200513294788
 30
0.0
 11
26.44090504255323
 21
4.685777776712398
 31
0.0
  0
LINE
  5
1291
330
11A1
100
AcDbEntity
  8
0
 62
     0
100
AcDbLine
 10
27.52110559449164
 20
6.214991134704263
 30
0.0
 11
28.92110559449162
 21
7.614991134704268
 31
0.0
  0
LINE
  5
1292
330
11A1
100
AcDbEntity
  8
0
 62
     0
100
AcDbLine
 10
30.67110559449159
 20
9.36499113470424
 30
0.0
 11
32.07110559449163
 21
10.76499113470427
 31
0.0
  0
LINE
  5
1293
330
11A1
100
AcDbEntity
  8
0
 62
     0
100
AcDbLine
 10
24.88111442114373
 20
3.574999961356381
 30
0.0
 11
26.4711055944916
 21
5.164991134704222
 31
0.0
  0
LINE
  5
1294
330
11A1
100
AcDbEntity
  8
0
 62
     0
100
AcDbLine
 10
27.52110559449164
 20
6.664003940757708
 30
0.0
 11
28.92110559449165
 21
8.064003940757686
 31
0.0
  0
LINE
  5
1295
330
11A1
100
AcDbEntity
  8
0
 62
     0
100
AcDbLine
 10
30.67110559449162
 20
9.814003940757658
 30
0.0
 11
32.07110559449166
 21
11.21400394075769
 31
0.0
  0
LINE
  5
1296
330
11A1
100
AcDbEntity
  8
0
 62
     0
100
AcDbLine
 10
24.43210161509026
 20
3.574999961356326
 30
0.0
 11
26.47110559449166
 21
5.614003940757697
 31
0.0
  0
LINE
  5
1297
330
11A1
100
AcDbEntity
  8
0
 62
     0
100
AcDbLine
 10
27.52110559449164
 20
7.113016746811182
 30
0.0
 11
28.92110559449162
 21
8.513016746811159
 31
0.0
  0
LINE
  5
1298
330
11A1
100
AcDbEntity
  8
0
 62
     0
100
AcDbLine
 10
30.67110559449159
 20
10.26301674681113
 30
0.0
 11
31.97423686707461
 21
11.56614801939415
 31
0.0
  0
LINE
  5
1299
330
11A1
100
AcDbEntity
  8
0
 62
     0
100
AcDbLine
 10
23.98308880903682
 20
3.574999961356353
 30
0.0
 11
26.46394629428517
 21
6.055857446604703
 31
0.0
  0
LINE
  5
129A
330
11A1
100
AcDbEntity
  8
0
 62
     0
100
AcDbLine
 10
27.52110559449164
 20
7.562029552864628
 30
0.0
 11
28.92110559449162
 21
8.962029552864635
 31
0.0
  0
LINE
  5
129B
330
11A1
100
AcDbEntity
  8
0
 62
     0
100
AcDbLine
 10
30.67110559449159
 20
10.71202955286461
 30
0.0
 11
31.58407600298335
 21
11.62499996135636
 31
0.0
  0
LINE
  5
129C
330
11A1
100
AcDbEntity
  8
0
 62
     0
100
AcDbLine
 10
23.53407600298334
 20
3.574999961356353
 30
0.0
 11
26.3964901089708
 21
6.437414067343779
 31
0.0
  0
LINE
  5
129D
330
11A1
100
AcDbEntity
  8
0
 62
     0
100
AcDbLine
 10
27.52110559449164
 20
8.011042358918075
 30
0.0
 11
28.92110559449162
 21
9.411042358918052
 31
0.0
  0
LINE
  5
129E
330
11A1
100
AcDbEntity
  8
0
 62
     0
100
AcDbLine
 10
25.07110559449166
 20
5.561042358918085
 30
0.0
 11
26.27619638051152
 21
6.766133144937923
 31
0.0
  0
LINE
  5
129F
330
11A1
100
AcDbEntity
  8
0
 62
     0
100
AcDbLine
 10
30.67110559449162
 20
11.16104235891802
 30
0.0
 11
31.13506319692997
 21
11.62499996135639
 31
0.0
  0
LINE
  5
12A0
330
11A1
100
AcDbEntity
  8
0
 62
     0
100
AcDbLine
 10
23.14919087349545
 20
3.639127637921886
 30
0.0
 11
24.4850631969299
 21
4.97499996135633
 31
0.0
  0
LINE
  5
12A1
330
11A1
100
AcDbEntity
  8
0
 62
     0
100
AcDbLine
 10
25.06117030692801
 20
6.000119877407882
 30
0.0
 11
26.11444672808125
 21
7.053396298561124
 31
0.0
  0
LINE
  5
12A2
330
11A1
100
AcDbEntity
  8
0
 62
     0
100
AcDbLine
 10
27.52110559449164
 20
8.460055164971521
 30
0.0
 11
28.92110559449165
 21
9.860055164971557
 31
0.0
  0
LINE
  5
12A3
330
11A1
100
AcDbEntity
  8
0
 62
     0
100
AcDbLine
 10
23.05860559449161
 20
3.997555164971514
 30
0.0
 11
24.03605039087644
 21
4.97499996135633
 31
0.0
  0
LINE
  5
12A4
330
11A1
100
AcDbEntity
  8
0
 62
     0
100
AcDbLine
 10
24.92397788835857
 20
6.311940264891943
 30
0.0
 11
25.91651116911734
 21
7.304473545650722
 31
0.0
  0
LINE
  5
12A5
330
11A1
100
AcDbEntity
  8
0
 62
     0
100
AcDbLine
 10
27.52110559449162
 20
8.909067971024994
 30
0.0
 11
28.92110559449165
 21
10.30906797102503
 31
0.0
  0
LINE
  5
12A6
330
11A1
100
AcDbEntity
  8
0
 62
     0
100
AcDbLine
 10
23.05860559449161
 20
4.44656797102496
 30
0.0
 11
23.58703758482298
 21
4.97499996135636
 31
0.0
  0
LINE
  5
12A7
330
11A1
100
AcDbEntity
  8
0
 62
     0
100
AcDbLine
 10
27.52110559449164
 20
9.358080777078438
 30
0.0
 11
28.92110559449168
 21
10.75808077707844
 31
0.0
  0
LINE
  5
12A8
330
11A1
100
AcDbEntity
  8
0
 62
     0
100
AcDbLine
 10
24.70334043980003
 20
6.540315622386798
 30
0.0
 11
25.69328993346122
 21
7.530265116048012
 31
0.0
  0
LINE
  5
12A9
330
11A1
100
AcDbEntity
  8
0
 62
     0
100
AcDbLine
 10
24.47883403677329
 20
6.764822025413535
 30
0.0
 11
25.46878353043445
 21
7.754771519074694
 31
0.0
  0
LINE
  5
12AA
330
11A1
100
AcDbEntity
  8
0
 62
     0
100
AcDbLine
 10
27.52110559449162
 20
9.807093583131885
 30
0.0
 11
28.92110559449165
 21
11.20709358313192
 31
0.0
  0
LINE
  5
12AB
330
11A1
100
AcDbEntity
  8
0
 62
     0
100
AcDbLine
 10
21.28901197271608
 20
3.574999961356353
 30
0.0
 11
21.74610559449164
 21
4.032093583131882
 31
0.0
  0
LINE
  5
12AC
330
11A1
100
AcDbEntity
  8
0
 62
     0
100
AcDbLine
 10
24.25432763374658
 20
6.989328428440329
 30
0.0
 11
25.24427712740771
 21
7.979277922101432
 31
0.0
  0
LINE
  5
12AD
330
11A1
100
AcDbEntity
  8
0
 62
     0
100
AcDbLine
 10
27.52110559449162
 20
10.25610638918536
 30
0.0
 11
28.82801514044232
 21
11.56301593513603
 31
0.0
  0
LINE
  5
12AE
330
11A1
100
AcDbEntity
  8
0
 62
     0
100
AcDbLine
 10
20.83999916666258
 20
3.574999961356326
 30
0.0
 11
21.74610559449161
 21
4.481106389185356
 31
0.0
  0
LINE
  5
12AF
330
11A1
100
AcDbEntity
  8
0
 62
     0
100
AcDbLine
 10
24.02982123071982
 20
7.213834831467011
 30
0.0
 11
25.01977072438098
 21
8.203784325128168
 31
0.0
  0
LINE
  5
12B0
330
11A1
100
AcDbEntity
  8
0
 62
     0
100
AcDbLine
 10
27.52110559449162
 20
10.70511919523881
 30
0.0
 11
28.44098636060918
 21
11.62499996135639
 31
0.0
  0
LINE
  5
12B1
330
11A1
100
AcDbEntity
  8
0
 62
     0
100
AcDbLine
 10
20.44679192954013
 20
3.630805530287318
 30
0.0
 11
21.74610559449164
 21
4.930119195238858
 31
0.0
  0
LINE
  5
12B2
330
11A1
100
AcDbEntity
  8
0
 62
     0
100
AcDbLine
 10
23.80531482769311
 20
7.438341234493718
 30
0.0
 11
24.79526432135427
 21
8.428290728154877
 31
0.0
  0
LINE
  5
12B3
330
11A1
100
AcDbEntity
  8
0
 62
     0
100
AcDbLine
 10
27.52110559449162
 20
11.15413200129225
 30
0.0
 11
27.99197355455576
 21
11.62499996135636
 31
0.0
  0
LINE
  5
12B4
330
11A1
100
AcDbEntity
  8
0
 62
     0
100
AcDbLine
 10
20.34610559449166
 20
3.979132001292299
 30
0.0
 11
21.74610559449167
 21
5.379132001292276
 31
0.0
  0
LINE
  5
12B5
330
11A1
100
AcDbEntity
  8
0
 62
     0
100
AcDbLine
 10
23.58080842466637
 20
7.662847637520457
 30
0.0
 11
24.57075791832754
 21
8.652797131181612
 31
0.0
  0
LINE
  5
12B6
330
11A1
100
AcDbEntity
  8
0
 62
     0
100
AcDbLine
 10
20.34610559449166
 20
4.428144807345773
 30
0.0
 11
21.74610559449164
 21
5.828144807345751
 31
0.0
  0
LINE
  5
12B7
330
11A1
100
AcDbEntity
  8
0
 62
     0
100
AcDbLine
 10
23.3573164741457
 20
7.888368493053293
 30
0.0
 11
24.34930324083672
 21
8.880355259744277
 31
0.0
  0
LINE
  5
12B8
330
11A1
100
AcDbEntity
  8
0
 62
     0
100
AcDbLine
 10
20.34610559449166
 20
4.877157613399218
 30
0.0
 11
21.74610559449164
 21
6.277157613399224
 31
0.0
  0
LINE
  5
12B9
330
11A1
100
AcDbEntity
  8
0
 62
     0
100
AcDbLine
 10
25.6939479424488
 20
10.22499996135636
 30
0.0
 11
26.20860559449167
 21
10.73965761339923
 31
0.0
  0
LINE
  5
12BA
330
11A1
100
AcDbEntity
  8
0
 62
     0
100
AcDbLine
 10
19.09977748213654
 20
3.630829501044103
 30
0.0
 11
19.14460366286405
 21
3.675655681771643
 31
0.0
  0
LINE
  5
12BB
330
11A1
100
AcDbEntity
  8
0
 62
     0
100
AcDbLine
 10
23.15831538473472
 20
8.138380209695723
 30
0.0
 11
24.20813252344402
 21
9.188197348405024
 31
0.0
  0
LINE
  5
12BC
330
11A1
100
AcDbEntity
  8
0
 62
     0
100
AcDbLine
 10
20.34610559449166
 20
5.326170419452664
 30
0.0
 11
21.74610559449167
 21
6.726170419452642
 31
0.0
  0
LINE
  5
12BD
330
11A1
100
AcDbEntity
  8
0
 62
     0
100
AcDbLine
 10
25.24493513639536
 20
10.22499996135636
 30
0.0
 11
26.20860559449165
 21
11.18867041945262
 31
0.0
  0
LINE
  5
12BE
330
11A1
100
AcDbEntity
  8
0
 62
     0
100
AcDbLine
 10
18.59493513639532
 20
3.574999961356326
 30
0.0
 11
19.12782468454856
 21
4.107889509509533
 31
0.0
  0
LINE
  5
12BF
330
11A1
100
AcDbEntity
  8
0
 62
     0
100
AcDbLine
 10
22.99539825253638
 20
8.424475883550853
 30
0.0
 11
24.19610559449168
 21
9.625183225506132
 31
0.0
  0
LINE
  5
12C0
330
11A1
100
AcDbEntity
  8
0
 62
     0
100
AcDbLine
 10
20.34610559449166
 20
5.775183225506111
 30
0.0
 11
21.74610559449164
 21
7.175183225506117
 31
0.0
  0
LINE
  5
12C1
330
11A1
100
AcDbEntity
  8
0
 62
     0
100
AcDbLine
 10
24.79592233034191
 20
10.22499996135636
 30
0.0
 11
26.12527112859272
 21
11.55434875960719
 31
0.0
  0
LINE
  5
12C2
330
11A1
100
AcDbEntity
  8
0
 62
     0
100
AcDbLine
 10
18.14592233034187
 20
3.574999961356326
 30
0.0
 11
19.02006161109573
 21
4.449139242110219
 31
0.0
  0
LINE
  5
12C3
330
11A1
100
AcDbEntity
  8
0
 62
     0
100
AcDbLine
 10
20.34610559449163
 20
6.224196031559586
 30
0.0
 11
21.74610559449164
 21
7.624196031559562
 31
0.0
  0
LINE
  5
12C4
330
11A1
100
AcDbEntity
  8
0
 62
     0
100
AcDbLine
 10
22.87370722120133
 20
8.751797658269282
 30
0.0
 11
25.74690952428847
 21
11.62499996135639
 31
0.0
  0
LINE
  5
12C5
330
11A1
100
AcDbEntity
  8
0
 62
     0
100
AcDbLine
 10
17.84991517501433
 20
3.728005612082283
 30
0.0
 11
18.9122985376429
 21
4.790388974710849
 31
0.0
  0
LINE
  5
12C6
330
11A1
100
AcDbEntity
  8
0
 62
     0
100
AcDbLine
 10
20.34610559449163
 20
6.673208837613059
 30
0.0
 11
21.74610559449161
 21
8.073208837613035
 31
0.0
  0
LINE
  5
12C7
330
11A1
100
AcDbEntity
  8
0
 62
     0
100
AcDbLine
 10
22.80435379165849
 20
9.131457034779911
 30
0.0
 11
25.297896718235
 21
11.62499996135642
 31
0.0
  0
LINE
  5
12C8
330
11A1
100
AcDbEntity
  8
0
 62
     0
100
AcDbLine
 10
17.74053546419003
 20
4.067638707311458
 30
0.0
 11
18.80453546419002
 21
5.131638707311451
 31
0.0
  0
LINE
  5
12C9
330
11A1
100
AcDbEntity
  8
0
 62
     0
100
AcDbLine
 10
20.34610559449166
 20
7.122221643666477
 30
0.0
 11
21.74610559449164
 21
8.522221643666481
 31
0.0
  0
LINE
  5
12CA
330
11A1
100
AcDbEntity
  8
0
 62
     0
100
AcDbLine
 10
22.79610559449165
 20
9.572221643666466
 30
0.0
 11
24.84888391218152
 21
11.62499996135636
 31
0.0
  0
LINE
  5
12CB
330
11A1
100
AcDbEntity
  8
0
 62
     0
100
AcDbLine
 10
17.63277239073721
 20
4.408888439912061
 30
0.0
 11
18.69677239073726
 21
5.472888439912082
 31
0.0
  0
LINE
  5
12CC
330
11A1
100
AcDbEntity
  8
0
 62
     0
100
AcDbLine
 10
20.34610559449163
 20
7.571234449719952
 30
0.0
 11
21.74610559449164
 21
8.971234449719929
 31
0.0
  0
LINE
  5
12CD
330
11A1
100
AcDbEntity
  8
0
 62
     0
100
AcDbLine
 10
22.79610559449168
 20
10.02123444971997
 30
0.0
 11
24.39987110612808
 21
11.62499996135636
 31
0.0
  0
LINE
  5
12CE
330
11A1
100
AcDbEntity
  8
0
 62
     0
100
AcDbLine
 10
17.52500931728434
 20
4.750138172512662
 30
0.0
 11
18.58900931728442
 21
5.814138172512712
 31
0.0
  0
LINE
  5
12CF
330
11A1
100
AcDbEntity
  8
0
 62
     0
100
AcDbLine
 10
20.34610559449163
 20
8.020247255773398
 30
0.0
 11
21.74610559449161
 21
9.420247255773404
 31
0.0
  0
LINE
  5
12D0
330
11A1
100
AcDbEntity
  8
0
 62
     0
100
AcDbLine
 10
17.41724624383152
 20
5.091387905113322
 30
0.0
 11
18.48124624383158
 21
6.155387905113342
 31
0.0
  0
LINE
  5
12D1
330
11A1
100
AcDbEntity
  8
0
 62
     0
100
AcDbLine
 10
22.82276392955225
 20
10.49690559083404
 30
0.0
 11
23.92419996501391
 21
11.5983416262957
 31
0.0
  0
LINE
  5
12D2
330
11A1
100
AcDbEntity
  8
0
 62
     0
100
AcDbLine
 10
15.90085830007459
 20
3.574999961356353
 30
0.0
 11
16.32110559449162
 21
3.995247255773421
 31
0.0
  0
LINE
  5
12D3
330
11A1
100
AcDbEntity
  8
0
 62
     0
100
AcDbLine
 10
17.30948317037874
 20
5.432637637713923
 30
0.0
 11
18.3734831703787
 21
6.496637637713917
 31
0.0
  0
LINE
  5
12D4
330
11A1
100
AcDbEntity
  8
0
 62
     0
100
AcDbLine
 10
20.34610559449163
 20
8.469260061826844
 30
0.0
 11
21.74610559449164
 21
9.869260061826819
 31
0.0
  0
LINE
  5
12D5
330
11A1
100
AcDbEntity
  8
0
 62
     0
100
AcDbLine
 10
15.45184549402114
 20
3.574999961356353
 30
0.0
 11
16.32110559449165
 21
4.444260061826867
 31
0.0
  0
LINE
  5
12D6
330
11A1
100
AcDbEntity
  8
0
 62
     0
100
AcDbLine
 10
17.20172009692589
 20
5.773887370314554
 30
0.0
 11
18.26572009692592
 21
6.837887370314604
 31
0.0
  0
LINE
  5
12D7
330
11A1
100
AcDbEntity
  8
0
 62
     0
100
AcDbLine
 10
20.34610559449163
 20
8.918272867880318
 30
0.0
 11
21.74610559449161
 21
10.31827286788029
 31
0.0
  0
LINE
  5
12D8
330
11A1
100
AcDbEntity
  8
0
 62
     0
100
AcDbLine
 10
15.04340756179329
 20
3.615574835181972
 30
0.0
 11
16.32110559449165
 21
4.893272867880313
 31
0.0
  0
LINE
  5
12D9
330
11A1
100
AcDbEntity
  8
0
 62
     0
100
AcDbLine
 10
17.09395702347299
 20
6.115137102915156
 30
0.0
 11
18.15795702347307
 21
7.179137102915233
 31
0.0
  0
LINE
  5
12DA
330
11A1
100
AcDbEntity
  8
0
 62
     0
100
AcDbLine
 10
20.34610559449163
 20
9.367285673933762
 30
0.0
 11
21.74610559449161
 21
10.76728567393377
 31
0.0
  0
LINE
  5
12DB
330
11A1
100
AcDbEntity
  8
0
 62
     0
100
AcDbLine
 10
14.92110559449159
 20
3.942285673933752
 30
0.0
 11
16.32110559449162
 21
5.342285673933787
 31
0.0
  0
LINE
  5
12DC
330
11A1
100
AcDbEntity
  8
0
 62
     0
100
AcDbLine
 10
16.98619395002024
 20
6.456386835515786
 30
0.0
 11
18.05019395002026
 21
7.520386835515836
 31
0.0
  0
LINE
  5
12DD
330
11A1
100
AcDbEntity
  8
0
 62
     0
100
AcDbLine
 10
20.34610559449163
 20
9.81629847998721
 30
0.0
 11
21.74610559449161
 21
11.21629847998719
 31
0.0
  0
LINE
  5
12DE
330
11A1
100
AcDbEntity
  8
0
 62
     0
100
AcDbLine
 10
14.92110559449162
 20
4.391298479987198
 30
0.0
 11
16.32110559449165
 21
5.791298479987204
 31
0.0
  0
LINE
  5
12DF
330
11A1
100
AcDbEntity
  8
0
 62
     0
100
AcDbLine
 10
16.86879455653437
 20
6.788000248083419
 30
0.0
 11
18.18394159049981
 21
8.103147282048865
 31
0.0
  0
LINE
  5
12E0
330
11A1
100
AcDbEntity
  8
0
 62
     0
100
AcDbLine
 10
20.34610559449166
 20
10.26531128604071
 30
0.0
 11
21.64796788324244
 21
11.56717357479147
 31
0.0
  0
LINE
  5
12E1
330
11A1
100
AcDbEntity
  8
0
 62
     0
100
AcDbLine
 10
14.92110559449162
 20
4.840311286040644
 30
0.0
 11
16.32110559449162
 21
6.240311286040679
 31
0.0
  0
LINE
  5
12E2
330
11A1
100
AcDbEntity
  8
0
 62
     0
100
AcDbLine
 10
16.52520187160067
 20
6.893420369203196
 30
0.0
 11
18.39117827021678
 21
8.759396767819309
 31
0.0
  0
LINE
  5
12E3
330
11A1
100
AcDbEntity
  8
0
 62
     0
100
AcDbLine
 10
14.92110559449159
 20
5.289324092094119
 30
0.0
 11
16.3276851866448
 21
6.695903684247298
 31
0.0
  0
LINE
  5
12E4
330
11A1
100
AcDbEntity
  8
0
 62
     0
100
AcDbLine
 10
20.34610559449166
 20
10.71432409209416
 30
0.0
 11
21.25678146375384
 21
11.62499996135636
 31
0.0
  0
LINE
  5
12E5
330
11A1
100
AcDbEntity
  8
0
 62
     0
100
AcDbLine
 10
13.20678146375383
 20
3.574999961356326
 30
0.0
 11
13.69610559449165
 21
4.064324092094182
 31
0.0
  0
LINE
  5
12E6
330
11A1
100
AcDbEntity
  8
0
 62
     0
100
AcDbLine
 10
14.92110559449159
 20
5.738336898147565
 30
0.0
 11
18.59841494993375
 21
9.415646253589725
 31
0.0
  0
LINE
  5
12E7
330
11A1
100
AcDbEntity
  8
0
 62
     0
100
AcDbLine
 10
20.34610559449163
 20
11.16333689814763
 30
0.0
 11
20.80776865770037
 21
11.62499996135636
 31
0.0
  0
LINE
  5
12E8
330
11A1
100
AcDbEntity
  8
0
 62
     0
100
AcDbLine
 10
12.75776865770035
 20
3.574999961356353
 30
0.0
 11
13.69610559449165
 21
4.513336898147656
 31
0.0
  0
LINE
  5
12E9
330
11A1
100
AcDbEntity
  8
0
 62
     0
100
AcDbLine
 10
14.92110559449159
 20
6.187349704201011
 30
0.0
 11
18.80565162965078
 21
10.07189573936017
 31
0.0
  0
LINE
  5
12EA
330
11A1
100
AcDbEntity
  8
0
 62
     0
100
AcDbLine
 10
12.31459616382196
 20
3.580840273531379
 30
0.0
 11
13.62543845268857
 21
4.891682562397959
 31
0.0
  0
LINE
  5
12EB
330
11A1
100
AcDbEntity
  8
0
 62
     0
100
AcDbLine
 10
14.92110559449159
 20
6.636362510254485
 30
0.0
 11
16.58474304559345
 21
8.299999961356347
 31
0.0
  0
LINE
  5
12EC
330
11A1
100
AcDbEntity
  8
0
 62
     0
100
AcDbLine
 10
16.96673446321381
 20
8.681991378976704
 30
0.0
 11
19.01288830936778
 21
10.72814522513064
 31
0.0
  0
LINE
  5
12ED
330
11A1
100
AcDbEntity
  8
0
 62
     0
100
AcDbLine
 10
11.93051590509847
 20
3.645772820861337
 30
0.0
 11
13.25974304559349
 21
4.97499996135636
 31
0.0
  0
LINE
  5
12EE
330
11A1
100
AcDbEntity
  8
0
 62
     0
100
AcDbLine
 10
14.92110559449162
 20
7.085375316307986
 30
0.0
 11
16.33010087984579
 21
8.494370601662126
 31
0.0
  0
LINE
  5
12EF
330
11A1
100
AcDbEntity
  8
0
 62
     0
100
AcDbLine
 10
17.17397114293078
 20
9.338240864747119
 30
0.0
 11
19.20042403526847
 21
11.36469375708483
 31
0.0
  0
LINE
  5
12F0
330
11A1
100
AcDbEntity
  8
0
 62
     0
100
AcDbLine
 10
11.59994877668526
 20
3.764218498501633
 30
0.0
 11
12.81073023954002
 21
4.974999961356387
 31
0.0
  0
LINE
  5
12F1
330
11A1
100
AcDbEntity
  8
0
 62
     0
100
AcDbLine
 10
14.92110559449165
 20
7.534388122361406
 30
0.0
 11
16.32110559449165
 21
8.93438812236144
 31
0.0
  0
LINE
  5
12F2
330
11A1
100
AcDbEntity
  8
0
 62
     0
100
AcDbLine
 10
17.38120782264775
 20
9.994490350517537
 30
0.0
 11
19.00341809898387
 21
11.61670062685365
 31
0.0
  0
LINE
  5
12F3
330
11A1
100
AcDbEntity
  8
0
 62
     0
100
AcDbLine
 10
11.31114713460312
 20
3.924429662472873
 30
0.0
 11
12.36917806384954
 21
4.98246059171933
 31
0.0
  0
LINE
  5
12F4
330
11A1
100
AcDbEntity
  8
0
 62
     0
100
AcDbLine
 10
14.92110559449162
 20
7.983400928414879
 30
0.0
 11
16.32110559449165
 21
9.383400928414914
 31
0.0
  0
LINE
  5
12F5
330
11A1
100
AcDbEntity
  8
0
 62
     0
100
AcDbLine
 10
17.58844450236475
 20
10.65073983628801
 30
0.0
 11
18.5627046274331
 21
11.62499996135636
 31
0.0
  0
LINE
  5
12F6
330
11A1
100
AcDbEntity
  8
0
 62
     0
100
AcDbLine
 10
11.05866965141209
 20
4.120964985335318
 30
0.0
 11
12.05201999334039
 21
5.114315327263625
 31
0.0
  0
LINE
  5
12F7
330
11A1
100
AcDbEntity
  8
0
 62
     0
100
AcDbLine
 10
14.92110559449162
 20
8.432413734468326
 30
0.0
 11
16.32110559449165
 21
9.83241373446836
 31
0.0
  0
LINE
  5
12F8
330
11A1
100
AcDbEntity
  8
0
 62
     0
100
AcDbLine
 10
13.25192266037987
 20
6.763230800356608
 30
0.0
 11
13.83287475549141
 21
7.344182895468151
 31
0.0
  0
LINE
  5
12F9
330
11A1
100
AcDbEntity
  8
0
 62
     0
100
AcDbLine
 10
17.79568118208172
 20
11.30698932205845
 30
0.0
 11
18.11369182137966
 21
11.62499996135639
 31
0.0
  0
LINE
  5
12FA
330
11A1
100
AcDbEntity
  8
0
 62
     0
100
AcDbLine
 10
10.84045111474717
 20
4.351759254723901
 30
0.0
 11
11.8468945177043
 21
5.358202657681032
 31
0.0
  0
LINE
  5
12FB
330
11A1
100
AcDbEntity
  8
0
 62
     0
100
AcDbLine
 10
12.78943623956496
 20
6.749757185595171
 30
0.0
 11
13.84634837025285
 21
7.806669316283033
 31
0.0
  0
LINE
  5
12FC
330
11A1
100
AcDbEntity
  8
0
 62
     0
100
AcDbLine
 10
14.92110559449159
 20
8.8814265405218
 30
0.0
 11
16.32110559449162
 21
10.28142654052183
 31
0.0
  0
LINE
  5
12FD
330
11A1
100
AcDbEntity
  8
0
 62
     0
100
AcDbLine
 10
10.65694150227568
 20
4.617262448305865
 30
0.0
 11
11.77110559449164
 21
5.731426540521852
 31
0.0
  0
LINE
  5
12FE
330
11A1
100
AcDbEntity
  8
0
 62
     0
100
AcDbLine
 10
12.48236295485486
 20
6.891696706938461
 30
0.0
 11
13.70440884890953
 21
8.113742600993163
 31
0.0
  0
LINE
  5
12FF
330
11A1
100
AcDbEntity
  8
0
 62
     0
100
AcDbLine
 10
14.92110559449162
 20
9.330439346575245
 30
0.0
 11
16.32110559449165
 21
10.73043934657525
 31
0.0
  0
LINE
  5
1300
330
11A1
100
AcDbEntity
  8
0
 62
     0
100
AcDbLine
 10
10.51128274731331
 20
4.920616499396941
 30
0.0
 11
11.77110559449164
 21
6.180439346575268
 31
0.0
  0
LINE
  5
1301
330
11A1
100
AcDbEntity
  8
0
 62
     0
100
AcDbLine
 10
12.26338299136
 20
7.121729549497104
 30
0.0
 11
13.47437600635092
 21
8.332722564487994
 31
0.0
  0
LINE
  5
1302
330
11A1
100
AcDbEntity
  8
0
 62
     0
100
AcDbLine
 10
14.92110559449162
 20
9.779452152628692
 30
0.0
 11
16.32110559449162
 21
11.17945215262873
 31
0.0
  0
LINE
  5
1303
330
11A1
100
AcDbEntity
  8
0
 62
     0
100
AcDbLine
 10
10.41071406522599
 20
5.269060623363087
 30
0.0
 11
11.77110559449164
 21
6.629452152628742
 31
0.0
  0
LINE
  5
1304
330
11A1
100
AcDbEntity
  8
0
 62
     0
100
AcDbLine
 10
12.13535762515582
 20
7.442716989346364
 30
0.0
 11
13.15338856650163
 21
8.460747930692207
 31
0.0
  0
LINE
  5
1305
330
11A1
100
AcDbEntity
  8
0
 62
     0
100
AcDbLine
 10
10.37110559449155
 20
5.678464958682128
 30
0.0
 11
11.77110559449164
 21
7.078464958682189
 31
0.0
  0
LINE
  5
1306
330
11A1
100
AcDbEntity
  8
0
 62
     0
100
AcDbLine
 10
14.92110559449159
 20
10.22846495868217
 30
0.0
 11
16.24248054031409
 21
11.54983990450466
 31
0.0
  0
LINE
  5
1307
330
11A1
100
AcDbEntity
  8
0
 62
     0
100
AcDbLine
 10
8.328107215553812
 20
3.635466579744388
 30
0.0
 11
9.260638976103678
 21
4.567998340294251
 31
0.0
  0
LINE
  5
1308
330
11A1
100
AcDbEntity
  8
0
 62
     0
100
AcDbLine
 10
12.19456416689621
 20
7.950936337140205
 30
0.0
 11
12.64516921870782
 21
8.401541388951812
 31
0.0
  0
LINE
  5
1309
330
11A1
100
AcDbEntity
  8
0
 62
     0
100
AcDbLine
 10
10.37110559449158
 20
6.127477764735572
 30
0.0
 11
11.77110559449164
 21
7.527477764735634
 31
0.0
  0
LINE
  5
130A
330
11A1
100
AcDbEntity
  8
0
 62
     0
100
AcDbLine
 10
14.92110559449162
 20
10.67747776473558
 30
0.0
 11
15.8686277911124
 21
11.62499996135639
 31
0.0
  0
LINE
  5
130B
330
11A1
100
AcDbEntity
  8
0
 62
     0
100
AcDbLine
 10
7.818627791112333
 20
3.574999961356326
 30
0.0
 11
9.321105594491655
 21
5.077477764735646
 31
0.0
  0
LINE
  5
130C
330
11A1
100
AcDbEntity
  8
0
 62
     0
100
AcDbLine
 10
10.37110559449161
 20
6.576490570789076
 30
0.0
 11
11.77110559449164
 21
7.97649057078911
 31
0.0
  0
LINE
  5
130D
330
11A1
100
AcDbEntity
  8
0
 62
     0
100
AcDbLine
 10
14.92110559449159
 20
11.12649057078906
 30
0.0
 11
15.4196149850589
 21
11.62499996135636
 31
0.0
  0
LINE
  5
130E
330
11A1
100
AcDbEntity
  8
0
 62
     0
100
AcDbLine
 10
7.369614985058888
 20
3.574999961356326
 30
0.0
 11
9.321105594491655
 21
5.526490570789121
 31
0.0
  0
LINE
  5
130F
330
11A1
100
AcDbEntity
  8
0
 62
     0
100
AcDbLine
 10
10.37110559449161
 20
7.025503376842523
 30
0.0
 11
11.77110559449161
 21
8.425503376842558
 31
0.0
  0
LINE
  5
1310
330
11A1
100
AcDbEntity
  8
0
 62
     0
100
AcDbLine
 10
6.920602179005411
 20
3.574999961356353
 30
0.0
 11
9.31913591821106
 21
5.973533700562001
 31
0.0
  0
LINE
  5
1311
330
11A1
100
AcDbEntity
  8
0
 62
     0
100
AcDbLine
 10
10.37110559449161
 20
7.474516182895996
 30
0.0
 11
11.77110559449164
 21
8.874516182896028
 31
0.0
  0
LINE
  5
1312
330
11A1
100
AcDbEntity
  8
0
 62
     0
100
AcDbLine
 10
13.121589372952
 20
10.22499996135639
 30
0.0
 11
13.69610559449168
 21
10.79951618289604
 31
0.0
  0
LINE
  5
1313
330
11A1
100
AcDbEntity
  8
0
 62
     0
100
AcDbLine
 10
6.471589372951967
 20
3.574999961356353
 30
0.0
 11
9.2643050000504
 21
6.367715588454784
 31
0.0
  0
LINE
  5
1314
330
11A1
100
AcDbEntity
  8
0
 62
     0
100
AcDbLine
 10
10.37110559449161
 20
7.923528988949441
 30
0.0
 11
11.77110559449164
 21
9.323528988949446
 31
0.0
  0
LINE
  5
1315
330
11A1
100
AcDbEntity
  8
0
 62
     0
100
AcDbLine
 10
7.921105594491621
 20
5.473528988949452
 30
0.0
 11
9.153135628028335
 21
6.705559022486169
 31
0.0
  0
LINE
  5
1316
330
11A1
100
AcDbEntity
  8
0
 62
     0
100
AcDbLine
 10
12.6725765668985
 20
10.22499996135633
 30
0.0
 11
13.69610559449165
 21
11.24852898894949
 31
0.0
  0
LINE
  5
1317
330
11A1
100
AcDbEntity
  8
0
 62
     0
100
AcDbLine
 10
6.051439504528473
 20
3.603862898986306
 30
0.0
 11
7.422576566898498
 21
4.97499996135633
 31
0.0
  0
LINE
  5
1318
330
11A1
100
AcDbEntity
  8
0
 62
     0
100
AcDbLine
 10
10.37110559449158
 20
8.372541795002886
 30
0.0
 11
11.85401294738148
 21
9.855449147892782
 31
0.0
  0
LINE
  5
1319
330
11A1
100
AcDbEntity
  8
0
 62
     0
100
AcDbLine
 10
7.920026048687019
 20
5.921462249198298
 30
0.0
 11
8.998919860692325
 21
7.000356061203632
 31
0.0
  0
LINE
  5
131A
330
11A1
100
AcDbEntity
  8
0
 62
     0
100
AcDbLine
 10
12.14065640795525
 20
10.14209260846655
 30
0.0
 11
13.57937188703175
 21
11.58080808754303
 31
0.0
  0
LINE
  5
131B
330
11A1
100
AcDbEntity
  8
0
 62
     0
100
AcDbLine
 10
5.908605594491603
 20
3.910041795002911
 30
0.0
 11
6.97356376084508
 21
4.974999961356387
 31
0.0
  0
LINE
  5
131C
330
11A1
100
AcDbEntity
  8
0
 62
     0
100
AcDbLine
 10
7.810224538936664
 20
6.260673545501446
 30
0.0
 11
8.807798878272876
 21
7.258247884837657
 31
0.0
  0
LINE
  5
131D
330
11A1
100
AcDbEntity
  8
0
 62
     0
100
AcDbLine
 10
10.37110559449158
 20
8.821554601056362
 30
0.0
 11
13.17455095479161
 21
11.62499996135639
 31
0.0
  0
LINE
  5
131E
330
11A1
100
AcDbEntity
  8
0
 62
     0
100
AcDbLine
 10
5.908605594491603
 20
4.359054601056384
 30
0.0
 11
6.524550954791576
 21
4.97499996135636
 31
0.0
  0
LINE
  5
131F
330
11A1
100
AcDbEntity
  8
0
 62
     0
100
AcDbLine
 10
7.597097124784312
 20
6.496558937402511
 30
0.0
 11
8.587046618445496
 21
7.486508431063697
 31
0.0
  0
LINE
  5
1320
330
11A1
100
AcDbEntity
  8
0
 62
     0
100
AcDbLine
 10
10.37110559449161
 20
9.270567407109778
 30
0.0
 11
12.72553814873808
 21
11.62499996135628
 31
0.0
  0
LINE
  5
1321
330
11A1
100
AcDbEntity
  8
0
 62
     0
100
AcDbLine
 10
5.943081555501521
 20
4.842543368119719
 30
0.0
 11
6.041062187728329
 21
4.940524000346528
 31
0.0
  0
LINE
  5
1322
330
11A1
100
AcDbEntity
  8
0
 62
     0
100
AcDbLine
 10
10.3810931515699
 20
9.729567770241542
 30
0.0
 11
12.2665377856064
 21
11.61501240427807
 31
0.0
  0
LINE
  5
1323
330
11A1
100
AcDbEntity
  8
0
 62
     0
100
AcDbLine
 10
7.372590721757518
 20
6.721065340429191
 30
0.0
 11
8.362540215418761
 21
7.711014834090432
 31
0.0
  0
LINE
  5
1324
330
11A1
100
AcDbEntity
  8
0
 62
     0
100
AcDbLine
 10
10.53082486770279
 20
10.32831229242794
 30
0.0
 11
11.66779326342004
 21
11.46528068814518
 31
0.0
  0
LINE
  5
1325
330
11A1
100
AcDbEntity
  8
0
 62
     0
100
AcDbLine
 10
7.148084318730781
 20
6.945571743455927
 30
0.0
 11
8.138033812392022
 21
7.935521237117171
 31
0.0
  0
LINE
  5
1326
330
11A1
100
AcDbEntity
  8
0
 62
     0
100
AcDbLine
 10
6.923577915704157
 20
7.170078146482723
 30
0.0
 11
7.913527409365285
 21
8.160027640143821
 31
0.0
  0
LINE
  5
1327
330
11A1
100
AcDbEntity
  8
0
 62
     0
100
AcDbLine
 10
6.69907151267742
 20
7.394584549509459
 30
0.0
 11
7.689021006338548
 21
8.384534043170559
 31
0.0
  0
LINE
  5
1328
330
11A1
100
AcDbEntity
  8
0
 62
     0
100
AcDbLine
 10
6.474565109650597
 20
7.619090952536112
 30
0.0
 11
7.464514603311813
 21
8.609040446197298
 31
0.0
  0
LINE
  5
1329
330
11A1
100
AcDbEntity
  8
0
 62
     0
100
AcDbLine
 10
8.6314613124174
 20
10.22499996135639
 30
0.0
 11
9.058605594491579
 21
10.65214424343057
 31
0.0
  0
LINE
  5
132A
330
11A1
100
AcDbEntity
  8
0
 62
     0
100
AcDbLine
 10
6.250100363637982
 20
7.843639012576971
 30
0.0
 11
7.24013318535421
 21
8.833671834293197
 31
0.0
  0
LINE
  5
132B
330
11A1
100
AcDbEntity
  8
0
 62
     0
100
AcDbLine
 10
8.182448506363924
 20
10.22499996135633
 30
0.0
 11
9.058605594491636
 21
11.10115704948404
 31
0.0
  0
LINE
  5
132C
330
11A1
100
AcDbEntity
  8
0
 62
     0
100
AcDbLine
 10
6.044366401362196
 20
8.086917856354574
 30
0.0
 11
7.075184744710242
 21
9.117736199702648
 31
0.0
  0
LINE
  5
132D
330
11A1
100
AcDbEntity
  8
0
 62
     0
100
AcDbLine
 10
7.733435700310508
 20
10.22499996135636
 30
0.0
 11
9.015326144611066
 21
11.50689040565694
 31
0.0
  0
LINE
  5
132E
330
11A1
100
AcDbEntity
  8
0
 62
     0
100
AcDbLine
 10
5.874136098230962
 20
8.365700359276813
 30
0.0
 11
7.046105594491621
 21
9.537669855537499
 31
0.0
  0
LINE
  5
132F
330
11A1
100
AcDbEntity
  8
0
 62
     0
100
AcDbLine
 10
7.283189569671947
 20
10.22376663677127
 30
0.0
 11
8.684422894257039
 21
11.62499996135636
 31
0.0
  0
LINE
  5
1330
330
11A1
100
AcDbEntity
  8
0
 62
     0
100
AcDbLine
 10
5.743789450364913
 20
8.684366517464241
 30
0.0
 11
7.047338919076707
 21
9.987915986176062
 31
0.0
  0
LINE
  5
1331
330
11A1
100
AcDbEntity
  8
0
 62
     0
100
AcDbLine
 10
5.662883469240881
 20
9.052473342393652
 30
0.0
 11
8.235410088203591
 21
11.62499996135636
 31
0.0
  0
LINE
  5
1332
330
11A1
100
AcDbEntity
  8
0
 62
     0
100
AcDbLine
 10
5.646105594491642
 20
9.484708273697863
 30
0.0
 11
7.786397282150119
 21
11.62499996135636
 31
0.0
  0
LINE
  5
1333
330
11A1
100
AcDbEntity
  8
0
 62
     0
100
AcDbLine
 10
5.646105594491615
 20
9.933721079751334
 30
0.0
 11
7.337384476096673
 21
11.62499996135636
 31
0.0
  0
LINE
  5
1334
330
11A1
100
AcDbEntity
  8
0
 62
     0
100
AcDbLine
 10
5.656201599710782
 20
10.39282989102395
 30
0.0
 11
6.878275664824087
 21
11.61490395613725
 31
0.0
  0
ENDBLK
  5
1336
330
11A1
100
AcDbEntity
  8
0
100
AcDbBlockEnd
  0
BLOCK
  5
13BF
330
13BE
100
AcDbEntity
  8
0
100
AcDbBlockBegin
  2
_OPEN30
 70
     0
 10
0.0
 20
0.0
 30
0.0
  3
_OPEN30
  1

  0
LINE
  5
13C0
330
13BE
100
AcDbEntity
  8
0
  6
ByBlock
 62
     0
100
AcDbLine
 10
-1.0
 20
0.267949
 30
0.0
 11
0.0
 21
0.0
 31
0.0
  0
LINE
  5
13C1
330
13BE
100
AcDbEntity
  8
0
  6
ByBlock
 62
     0
100
AcDbLine
 10
0.0
 20
0.0
 30
0.0
 11
-1.0
 21
-0.267949
 31
0.0
  0
LINE
  5
13C2
330
13BE
100
AcDbEntity
  8
0
  6
ByBlock
 62
     0
100
AcDbLine
 10
0.0
 20
0.0
 30
0.0
 11
-1.0
 21
0.0
 31
0.0
  0
ENDBLK
  5
13C3
330
13BE
100
AcDbEntity
  8
0
100
AcDbBlockEnd
  0
BLOCK
  5
16D3
330
1663
100
AcDbEntity
  8
0
100
AcDbBlockBegin
  2
A$C642C36DA
 70
     0
 10
0.0
 20
0.0
 30
0.0
  3
A$C642C36DA
  1

  0
LINE
  5
1664
330
1663
100
AcDbEntity
  8
0
100
AcDbLine
 10
18.82499997732861
 20
44.75000007531377
 30
0.0
 11
16.57499997732861
 21
42.25000007531376
 31
0.0
  0
LINE
  5
1665
330
1663
100
AcDbEntity
  8
0
100
AcDbLine
 10
14.32499997732861
 20
44.75000007531377
 30
0.0
 11
16.57499997732861
 21
42.25000007531376
 31
0.0
  0
LINE
  5
1666
330
1663
100
AcDbEntity
  8
0
  6
SLD-実線
 62
     7
100
AcDbLine
 10
28.5975565103488
 20
76.75000007531365
 30
0.0
 11
28.5975565103488
 21
15.15000007531375
 31
0.0
  0
LINE
  5
1667
330
1663
100
AcDbEntity
  8
0
  6
SLD-実線
 62
     7
100
AcDbLine
 10
28.10006279179561
 20
15.15000007531375
 30
0.0
 11
28.10006279179561
 21
76.75000007531365
 31
0.0
  0
LINE
  5
1668
330
1663
100
AcDbEntity
  8
0
  6
SLD-実線
 62
     7
100
AcDbLine
 10
5.049937162861623
 20
15.15000007531375
 30
0.0
 11
5.049937162861623
 21
76.75000007531365
 31
0.0
  0
LINE
  5
1669
330
1663
100
AcDbEntity
  8
0
  6
SLD-実線
 62
     7
100
AcDbLine
 10
4.55244344430821
 20
76.75000007531365
 30
0.0
 11
4.55244344430821
 21
15.15000007531375
 31
0.0
  0
LINE
  5
166A
330
1663
100
AcDbEntity
  8
0
  6
SLD-実線
 62
     7
100
AcDbLine
 10
32.62766437865594
 20
15.15000007531375
 30
0.0
 11
32.62766437865594
 21
76.75000007531365
 31
0.0
  0
LINE
  5
166B
330
1663
100
AcDbEntity
  8
0
  6
SLD-実線
 62
     7
100
AcDbLine
 10
0.5223355760010691
 20
15.15000007531375
 30
0.0
 11
0.5223355760010691
 21
76.75000007531365
 31
0.0
  0
LINE
  5
166C
330
1663
100
AcDbEntity
  8
0
  6
SLD-実線
 62
     7
100
AcDbLine
 10
33.07795065790902
 20
76.75000007531365
 30
0.0
 11
33.07795065790902
 21
15.15000007531375
 31
0.0
  0
LINE
  5
166D
330
1663
100
AcDbEntity
  8
0
  6
SLD-実線
 62
     7
100
AcDbLine
 10
0.0720492967479913
 20
76.75000007531365
 30
0.0
 11
0.0720492967479913
 21
15.15000007531375
 31
0.0
  0
LINE
  5
166E
330
1663
100
AcDbEntity
  8
0
  6
SLD-実線
 62
     7
100
AcDbLine
 10
33.14999997732865
 20
15.15000007531375
 30
0.0
 11
33.14999997732865
 21
76.75000007531378
 31
0.0
  0
LINE
  5
166F
330
1663
100
AcDbEntity
  8
0
  6
SLD-実線
 62
     7
100
AcDbLine
 10
-0.0000000226714292
 20
15.15000007531375
 30
0.0
 11
-0.0000000226714292
 21
76.75000007531378
 31
0.0
  0
LWPOLYLINE
  5
1670
102
{ACAD_REACTORS
330
1671
102
}
330
1663
100
AcDbEntity
  8
0
100
AcDbPolyline
 90
        4
 70
     1
 43
0.0
 10
-0.0000000226714292
 20
76.75000007531378
 10
33.14999997732865
 20
76.75000007531378
 10
33.14999997732865
 20
15.15000007531375
 10
-0.0000000226714292
 20
15.15000007531375
  0
HATCH
  5
1671
330
1663
100
AcDbEntity
  8
0
100
AcDbHatch
 10
0.0
 20
0.0
 30
0.0
210
0.0
220
0.0
230
1.0
  2
ANSI31
 70
     0
 71
     1
 91
        1
 92
        1
 93
        4
 72
     1
 10
-0.0000000226714292
 20
76.75000007531378
 11
33.14999997732865
 21
76.75000007531378
 72
     1
 10
33.14999997732865
 20
76.75000007531378
 11
33.14999997732865
 21
15.15000007531375
 72
     1
 10
33.14999997732865
 20
15.15000007531375
 11
-0.0000000226714292
 21
15.15000007531375
 72
     1
 10
-0.0000000226714292
 20
15.15000007531375
 11
-0.0000000226714292
 21
76.75000007531378
 97
        1
330
1670
 75
     0
 76
     1
 52
0.0
 41
15.0
 77
     0
 78
     1
 53
45.0
 43
-1249.561485804796
 44
-43.85536780672896
 45
-1.325825214724775
 46
1.325825214724775
 79
     0
 98
        1
 10
-1249.561485804796
 20
-43.85536780672896
  0
LINE
  5
1672
330
1663
100
AcDbEntity
  8
0
  6
SLD-実線
 62
     7
100
AcDbLine
 10
25.83865793802033
 20
2.000000075313664
 30
0.0
 11
25.95001834887603
 21
14.85403707400382
 31
0.0
  0
LWPOLYLINE
  5
1673
330
1663
100
AcDbEntity
  8
0
  6
SLD-実線
 62
     7
100
AcDbPolyline
 90
        6
 70
     0
 43
0.0
 10
26.43360747975612
 20
14.85228409859223
 10
26.42596456845149
 20
14.00037463927105
 10
26.39009818733143
 20
10.00187110124966
 10
26.35421874169788
 20
6.000937089031367
 10
26.328447182108
 20
3.126677088998348
 10
26.31834573950573
 20
2.000000075313664
  0
LINE
  5
1674
330
1663
100
AcDbEntity
  8
0
  6
SLD-実線
 62
     7
100
AcDbLine
 10
7.311342016636898
 20
2.000000075313664
 30
0.0
 11
7.199981605780976
 21
14.85403707400382
 31
0.0
  0
LWPOLYLINE
  5
1675
330
1663
100
AcDbEntity
  8
0
  6
SLD-実線
 62
     7
100
AcDbPolyline
 90
        6
 70
     0
 43
0.0
 10
6.716392474900884
 20
14.85228409859223
 10
6.72403538620574
 20
14.00037463927105
 10
6.759901767325572
 20
10.00187110124966
 10
6.795781212959354
 20
6.000937089031367
 10
6.821552772549238
 20
3.126677088998348
 10
6.831654215151273
 20
2.000000075313664
  0
LWPOLYLINE
  5
1676
330
1663
100
AcDbEntity
  8
0
  6
SLD-実線
 62
     7
100
AcDbPolyline
 90
        6
 70
     0
 43
0.0
 10
30.39071267400391
 20
2.000000075313664
 10
30.41648551062986
 20
2.999627724682341
 10
30.51964915893632
 20
6.998136428547809
 10
30.62298841304551
 20
10.99906970473012
 10
30.69778225538858
 20
13.89217756789378
 10
30.72261574466552
 20
14.85228409859223
  0
LWPOLYLINE
  5
1677
330
1663
100
AcDbEntity
  8
0
  6
SLD-実線
 62
     7
100
AcDbPolyline
 90
        6
 70
     0
 43
0.0
 10
2.759287280653096
 20
2.000000075313664
 10
2.733514444027149
 20
2.999627724682341
 10
2.630350795720687
 20
6.998136428547809
 10
2.527011541611499
 20
10.99906970473012
 10
2.45221769926843
 20
13.89217756789378
 10
2.427384209991486
 20
14.85228409859223
  0
LINE
  5
1678
330
1663
100
AcDbEntity
  8
0
  6
SLD-実線
 62
     7
100
AcDbLine
 10
31.0960702042164
 20
14.85403707400382
 30
0.0
 11
30.74999997732857
 21
2.000000075313664
 31
0.0
  0
LINE
  5
1679
330
1663
100
AcDbEntity
  8
0
  6
SLD-実線
 62
     7
100
AcDbLine
 10
2.053929750440601
 20
14.85403707400382
 30
0.0
 11
2.399999977328433
 21
2.000000075313664
 31
0.0
  0
LINE
  5
167A
330
1663
100
AcDbEntity
  8
0
  6
SLD-実線
 62
     7
100
AcDbLine
 10
7.311342016636898
 20
2.000000075313664
 30
0.0
 11
25.83865793802033
 21
2.000000075313664
 31
0.0
  0
LINE
  5
167B
330
1663
100
AcDbEntity
  8
0
  6
SLD-実線
 62
     7
100
AcDbLine
 10
25.65682803097798
 20
0.0000000753136646
 30
0.0
 11
7.493171923679255
 21
0.0000000753136646
 31
0.0
  0
LINE
  5
167C
330
1663
100
AcDbEntity
  8
0
  6
SLD-実線
 62
     7
100
AcDbLine
 10
7.308561548657052
 20
1.999921187384529
 30
0.0
 11
7.311342016636898
 21
2.000000075313664
 31
0.0
  0
ARC
  5
167D
330
1663
100
AcDbEntity
  8
0
  6
SLD-実線
 62
     7
100
AcDbCircle
 10
7.070544224408648
 20
4.843211124837124
 30
0.0
 40
2.853234991209376
100
AcDbArc
 50
265.2120466827321
 51
274.7851841270481
  0
LINE
  5
167E
330
1663
100
AcDbEntity
  8
0
  6
SLD-実線
 62
     7
100
AcDbLine
 10
6.831654215151273
 20
2.000000075313664
 30
0.0
 11
6.832389480007804
 21
1.999932694436665
 31
0.0
  0
LINE
  5
167F
330
1663
100
AcDbEntity
  8
0
  6
SLD-実線
 62
     7
100
AcDbLine
 10
6.831654215149455
 20
2.000000075313664
 30
0.0
 11
2.759287280660372
 21
2.000000075313664
 31
0.0
  0
LINE
  5
1680
330
1663
100
AcDbEntity
  8
0
  6
SLD-実線
 62
     7
100
AcDbLine
 10
2.756804300889597
 20
1.999932568451184
 30
0.0
 11
2.759287280653096
 21
2.000000075313664
 31
0.0
  0
ARC
  5
1681
330
1663
100
AcDbEntity
  8
0
  6
SLD-実線
 62
     7
100
AcDbCircle
 10
2.578363121125675
 20
3.377342861450642
 30
0.0
 40
1.38892057724565
100
AcDbArc
 50
262.6221952267776
 51
277.381461000897
  0
LINE
  5
1682
330
1663
100
AcDbEntity
  8
0
  6
SLD-実線
 62
     7
100
AcDbLine
 10
2.399999977328433
 20
2.000000075313664
 30
0.0
 11
2.400009838698905
 21
1.999921184351023
 31
0.0
  0
LINE
  5
1683
330
1663
100
AcDbEntity
  8
0
  6
SLD-実線
 62
     7
100
AcDbLine
 10
7.021077386920977
 20
0.0000000753136646
 30
0.0
 11
7.493171923679255
 21
0.0000000753136646
 31
0.0
  0
LINE
  5
1684
330
1663
100
AcDbEntity
  8
0
  6
SLD-実線
 62
     7
100
AcDbLine
 10
2.993830210240502
 20
0.0000000753136646
 30
0.0
 11
7.021077386920977
 21
0.0000000753136646
 31
0.0
  0
LINE
  5
1685
330
1663
100
AcDbEntity
  8
0
  6
SLD-実線
 62
     7
100
AcDbLine
 10
2.64999997732866
 20
0.0000000753136646
 30
0.0
 11
2.993830210240502
 21
0.0000000753136646
 31
0.0
  0
LWPOLYLINE
  5
1686
330
1663
100
AcDbEntity
  8
0
  6
SLD-実線
 62
     7
100
AcDbPolyline
 90
        5
 70
     0
 43
0.0
 10
7.493171923679255
 20
0.0000000753136646
 10
7.447444489971985
 20
0.4944165949980289
 10
7.397424786431655
 20
1.035955370472265
 10
7.32252600850893
 20
1.848275523495771
 10
7.308561548657052
 20
1.999921187384529
  0
LWPOLYLINE
  5
1687
330
1663
100
AcDbEntity
  8
0
  6
SLD-実線
 62
     7
100
AcDbPolyline
 90
        4
 70
     0
 43
0.0
 10
6.832389480007804
 20
1.999932694436665
 10
6.925524138429183
 20
1.011241891538247
 10
6.974358776059033
 20
0.4940414429509019
 10
7.021077386920977
 20
0.0000000753136646
  0
LWPOLYLINE
  5
1688
330
1663
100
AcDbEntity
  8
0
  6
SLD-実線
 62
     7
100
AcDbPolyline
 90
        5
 70
     0
 43
0.0
 10
2.993830210240502
 20
0.0000000753136646
 10
2.876589739524206
 20
0.9886972471542776
 10
2.870987868672273
 20
1.03596510472073
 10
2.806781258268755
 20
1.577898836036865
 10
2.756804300889597
 20
1.999932568451184
  0
LINE
  5
1689
330
1663
100
AcDbEntity
  8
0
  6
SLD-実線
 62
     7
100
AcDbLine
 10
2.400009838698905
 20
1.999921184350909
 30
0.0
 11
2.64999997732866
 21
0.0000000753136646
 31
0.0
  0
LINE
  5
168A
330
1663
100
AcDbEntity
  8
0
  6
SLD-実線
 62
     7
100
AcDbLine
 10
26.31834573950778
 20
2.000000075313664
 30
0.0
 11
30.39071267399686
 21
2.000000075313664
 31
0.0
  0
LINE
  5
168B
330
1663
100
AcDbEntity
  8
0
  6
SLD-実線
 62
     7
100
AcDbLine
 10
30.1561697444165
 20
0.0000000753136646
 30
0.0
 11
26.12892256773603
 21
0.0000000753136646
 31
0.0
  0
LINE
  5
168C
330
1663
100
AcDbEntity
  8
0
  6
SLD-実線
 62
     7
100
AcDbLine
 10
26.31834573950573
 20
2.000000075313664
 30
0.0
 11
26.31761047464943
 21
1.999932694436665
 31
0.0
  0
ARC
  5
168D
330
1663
100
AcDbEntity
  8
0
  6
SLD-実線
 62
     7
100
AcDbCircle
 10
26.07945573024859
 20
4.843211124838717
 30
0.0
 40
2.853234991211033
100
AcDbArc
 50
265.2148158729521
 51
274.7879533172679
  0
LINE
  5
168E
330
1663
100
AcDbEntity
  8
0
  6
SLD-実線
 62
     7
100
AcDbLine
 10
25.84143840600018
 20
1.999921187384529
 30
0.0
 11
25.83865793802033
 21
2.000000075313664
 31
0.0
  0
LINE
  5
168F
330
1663
100
AcDbEntity
  8
0
  6
SLD-実線
 62
     7
100
AcDbLine
 10
26.12892256773603
 20
0.0000000753136646
 30
0.0
 11
25.65682803097798
 21
0.0000000753136646
 31
0.0
  0
LWPOLYLINE
  5
1690
330
1663
100
AcDbEntity
  8
0
  6
SLD-実線
 62
     7
100
AcDbPolyline
 90
        4
 70
     0
 43
0.0
 10
26.31761047464943
 20
1.999932694436665
 10
26.22447581622805
 20
1.011241891538247
 10
26.17564117859797
 20
0.4940414429509019
 10
26.12892256773603
 20
0.0000000753136646
  0
LWPOLYLINE
  5
1691
330
1663
100
AcDbEntity
  8
0
  6
SLD-実線
 62
     7
100
AcDbPolyline
 90
        5
 70
     0
 43
0.0
 10
25.65682803097798
 20
0.0000000753136646
 10
25.70255546468525
 20
0.4944165949980289
 10
25.75257516822536
 20
1.035955370472265
 10
25.82747394614808
 20
1.848275523495771
 10
25.84143840600018
 20
1.999921187384529
  0
LINE
  5
1692
330
1663
100
AcDbEntity
  8
0
  6
SLD-実線
 62
     7
100
AcDbLine
 10
30.39319565376741
 20
1.999932568451184
 30
0.0
 11
30.39071267400391
 21
2.000000075313664
 31
0.0
  0
LINE
  5
1693
330
1663
100
AcDbEntity
  8
0
  6
SLD-実線
 62
     7
100
AcDbLine
 10
30.74999997732857
 20
2.000000075313664
 30
0.0
 11
30.74999011595833
 21
1.999921184351023
 31
0.0
  0
ARC
  5
1694
330
1663
100
AcDbEntity
  8
0
  6
SLD-実線
 62
     7
100
AcDbCircle
 10
30.57163683353133
 20
3.377342861452689
 30
0.0
 40
1.388920577247743
100
AcDbArc
 50
262.6185389991159
 51
277.3778047732224
  0
LINE
  5
1695
330
1663
100
AcDbEntity
  8
0
  6
SLD-実線
 62
     7
100
AcDbLine
 10
30.49999997732857
 20
0.0000000753136646
 30
0.0
 11
30.1561697444165
 21
0.0000000753136646
 31
0.0
  0
LWPOLYLINE
  5
1696
330
1663
100
AcDbEntity
  8
0
  6
SLD-実線
 62
     7
100
AcDbPolyline
 90
        5
 70
     0
 43
0.0
 10
30.1561697444165
 20
0.0000000753136646
 10
30.27341021513303
 20
0.9886972471542776
 10
30.27901208598474
 20
1.03596510472073
 10
30.34321869638825
 20
1.577898836036865
 10
30.39319565376741
 20
1.999932568451184
  0
LINE
  5
1697
330
1663
100
AcDbEntity
  8
0
  6
SLD-実線
 62
     7
100
AcDbLine
 10
30.74999011595833
 20
1.999921184350909
 30
0.0
 11
30.49999997732857
 21
0.0000000753136646
 31
0.0
  0
LWPOLYLINE
  5
1698
330
1663
100
AcDbEntity
  8
0
100
AcDbPolyline
 90
        4
 70
     1
 43
0.0
 10
11.57499997732861
 20
41.25000007531379
 10
21.57499997732862
 20
41.25000007531379
 10
21.57499997732862
 20
42.25000007531376
 10
11.57499997732861
 20
42.25000007531376
  0
LINE
  5
1699
330
1663
100
AcDbEntity
  8
0
  6
SLD-実線
 62
     7
100
AcDbLine
 10
5.049937162861623
 20
15.15000007531375
 30
0.0
 11
28.10006279179561
 21
15.15000007531375
 31
0.0
  0
LINE
  5
169A
330
1663
100
AcDbEntity
  8
0
  6
SLD-実線
 62
     7
100
AcDbLine
 10
28.10006279179561
 20
15.00000007531366
 30
0.0
 11
5.049937162861623
 21
15.00000007531366
 31
0.0
  0
LINE
  5
169B
330
1663
100
AcDbEntity
  8
0
  6
SLD-実線
 62
     7
100
AcDbLine
 10
25.95001834887603
 20
14.85403707400382
 30
0.0
 11
7.199981605780976
 21
14.85403707400382
 31
0.0
  0
LINE
  5
169C
330
1663
100
AcDbEntity
  8
0
  6
SLD-実線
 62
     7
100
AcDbLine
 10
5.049937162861623
 20
15.15000007531375
 30
0.0
 11
4.55244344430821
 21
15.15000007531375
 31
0.0
  0
LINE
  5
169D
330
1663
100
AcDbEntity
  8
0
  6
SLD-実線
 62
     7
100
AcDbLine
 10
4.55244344430821
 20
15.15000007531375
 30
0.0
 11
0.5223355760010691
 21
15.15000007531375
 31
0.0
  0
LINE
  5
169E
330
1663
100
AcDbEntity
  8
0
  6
SLD-実線
 62
     7
100
AcDbLine
 10
0.5223355760010691
 20
15.15000007531375
 30
0.0
 11
0.0720492967479913
 21
15.15000007531375
 31
0.0
  0
LINE
  5
169F
330
1663
100
AcDbEntity
  8
0
  6
SLD-実線
 62
     7
100
AcDbLine
 10
0.0720492967479913
 20
15.15000007531375
 30
0.0
 11
-0.0000000226714292
 21
15.15000007531375
 31
0.0
  0
LINE
  5
16A0
330
1663
100
AcDbEntity
  8
0
  6
SLD-実線
 62
     7
100
AcDbLine
 10
4.701691559874233
 20
15.00000007531366
 30
0.0
 11
5.049937162861623
 21
15.00000007531366
 31
0.0
  0
LINE
  5
16A1
330
1663
100
AcDbEntity
  8
0
  6
SLD-実線
 62
     7
100
AcDbLine
 10
0.537246762623454
 20
15.00000007531366
 30
0.0
 11
4.701691559874233
 21
15.00000007531366
 31
0.0
  0
LINE
  5
16A2
330
1663
100
AcDbEntity
  8
0
  6
SLD-実線
 62
     7
100
AcDbLine
 10
7.199981605780976
 20
14.85403707400382
 30
0.0
 11
7.199981605780976
 21
15.00000007531366
 31
0.0
  0
ARC
  5
16A3
330
1663
100
AcDbEntity
  8
0
  6
SLD-実線
 62
     7
100
AcDbCircle
 10
7.048729355360137
 20
-10.12453113886874
 30
0.0
 40
24.97902614611674
100
AcDbArc
 50
89.65306219311784
 51
90.76232205078856
  0
ARC
  5
16A4
330
1663
100
AcDbEntity
  8
0
  6
SLD-実線
 62
     7
100
AcDbCircle
 10
6.568862206466063
 20
14.85248973860507
 30
0.0
 40
0.1475304117539454
100
AcDbArc
 50
359.9201364077884
 51
89.05478622027118
  0
LWPOLYLINE
  5
16A5
330
1663
100
AcDbEntity
  8
0
  6
SLD-実線
 62
     7
100
AcDbPolyline
 90
        8
 70
     0
 43
0.0
 10
2.427384209991486
 20
14.85228409859223
 10
3.368718112393479
 20
14.85248756548321
 10
4.266112664056662
 20
14.8526250745175
 10
5.044417713020948
 20
14.85267592980835
 10
5.725387204301567
 20
14.85264697688274
 10
6.252325732629515
 20
14.85253695299161
 10
6.639861398516358
 20
14.85234790732227
 10
6.716392474900884
 20
14.85228409859223
  0
ARC
  5
16A6
330
1663
100
AcDbEntity
  8
0
  6
SLD-実線
 62
     7
100
AcDbCircle
 10
2.253614897773331
 20
14.88635456316979
 30
0.0
 40
0.1770778654301468
100
AcDbArc
 50
348.9068960131012
 51
39.92488041225094
  0
LINE
  5
16A7
330
1663
100
AcDbEntity
  8
0
  6
SLD-実線
 62
     7
100
AcDbLine
 10
0.2220463671462767
 20
15.00000007531366
 30
0.0
 11
0.537246762623454
 21
15.00000007531366
 31
0.0
  0
LINE
  5
16A8
330
1663
100
AcDbEntity
  8
0
  6
SLD-実線
 62
     7
100
AcDbLine
 10
0.1500029069873108
 20
15.00000007531378
 30
0.0
 11
0.2220463671462767
 21
15.00000007531366
 31
0.0
  0
ARC
  5
16A9
330
1663
100
AcDbEntity
  8
0
  6
SLD-実線
 62
     7
100
AcDbCircle
 10
2.094316069292516
 20
-16.32335531841124
 30
0.0
 40
31.17741855005597
100
AcDbArc
 50
89.38789795163099
 51
90.07421930278695
  0
ARC
  5
16AA
330
1663
100
AcDbEntity
  8
0
  6
SLD-実線
 62
     7
100
AcDbCircle
 10
1.903984084809508
 20
14.8500000753138
 30
0.0
 40
0.1500000000000057
100
AcDbArc
 50
1.542206127437785
 51
90.0
  0
LINE
  5
16AB
330
1663
100
AcDbEntity
  8
0
  6
SLD-実線
 62
     7
100
AcDbLine
 10
5.049937162861623
 20
15.00000007531366
 30
0.0
 11
5.049937162861623
 21
15.15000007531375
 31
0.0
  0
ARC
  5
16AC
330
1663
100
AcDbEntity
  8
0
  6
SLD-実線
 62
     7
100
AcDbCircle
 10
4.702068449054877
 20
15.14962507531391
 30
0.0
 40
0.1496254746709024
100
AcDbArc
 50
179.8564018603753
 51
269.8556784379352
  0
ARC
  5
16AD
330
1663
100
AcDbEntity
  8
0
  6
SLD-実線
 62
     7
100
AcDbCircle
 10
0.9107525250587967
 20
15.11287064779003
 30
0.0
 40
0.3901875455515611
100
AcDbArc
 50
174.5395919999336
 51
196.814413688335
  0
ARC
  5
16AE
330
1663
100
AcDbEntity
  8
0
  6
SLD-実線
 62
     7
100
AcDbCircle
 10
0.2220478319616177
 20
15.14999861052729
 30
0.0
 40
0.1499985352207784
100
AcDbArc
 50
179.9994404873304
 51
269.9994404762961
  0
ARC
  5
16AF
330
1663
100
AcDbEntity
  8
0
  6
SLD-実線
 62
     7
100
AcDbCircle
 10
0.1500015023550532
 20
15.15000160034151
 30
0.0
 40
0.1500015250343237
100
AcDbArc
 50
180.0005825117704
 51
270.0005365245511
  0
LINE
  5
16B0
330
1663
100
AcDbEntity
  8
0
  6
SLD-実線
 62
     7
100
AcDbLine
 10
28.5975565103488
 20
15.15000007531375
 30
0.0
 11
32.62766437865594
 21
15.15000007531375
 31
0.0
  0
LINE
  5
16B1
330
1663
100
AcDbEntity
  8
0
  6
SLD-実線
 62
     7
100
AcDbLine
 10
32.61275319203378
 20
15.00000007531366
 30
0.0
 11
28.44830839478277
 21
15.00000007531366
 31
0.0
  0
LWPOLYLINE
  5
16B2
330
1663
100
AcDbEntity
  8
0
  6
SLD-実線
 62
     7
100
AcDbPolyline
 90
        8
 70
     0
 43
0.0
 10
30.72261574466552
 20
14.85228409859223
 10
29.78128184226353
 20
14.85248756548321
 10
28.88388729060057
 20
14.8526250745175
 10
28.10558224163628
 20
14.85267592980835
 10
27.42461275035544
 20
14.85264697688274
 10
26.89767422202772
 20
14.85253695299161
 10
26.51013855614087
 20
14.85234790732227
 10
26.43360747975612
 20
14.85228409859223
  0
LINE
  5
16B3
330
1663
100
AcDbEntity
  8
0
  6
SLD-実線
 62
     7
100
AcDbLine
 10
28.10006279179561
 20
15.15000007531375
 30
0.0
 11
28.5975565103488
 21
15.15000007531375
 31
0.0
  0
LINE
  5
16B4
330
1663
100
AcDbEntity
  8
0
  6
SLD-実線
 62
     7
100
AcDbLine
 10
28.44830839478277
 20
15.00000007531366
 30
0.0
 11
28.10006279179561
 21
15.00000007531366
 31
0.0
  0
ARC
  5
16B5
330
1663
100
AcDbEntity
  8
0
  6
SLD-実線
 62
     7
100
AcDbCircle
 10
26.10127059929664
 20
-10.12453113885942
 30
0.0
 40
24.97902614610743
100
AcDbArc
 50
89.23767794921145
 51
90.34693780688213
  0
LINE
  5
16B6
330
1663
100
AcDbEntity
  8
0
  6
SLD-実線
 62
     7
100
AcDbLine
 10
25.95001834887603
 20
14.85403707400382
 30
0.0
 11
25.95001834887603
 21
15.00000007531366
 31
0.0
  0
ARC
  5
16B7
330
1663
100
AcDbEntity
  8
0
  6
SLD-実線
 62
     7
100
AcDbCircle
 10
26.58113774819117
 20
14.85248973860507
 30
0.0
 40
0.147530411754093
100
AcDbArc
 50
90.94521377991116
 51
180.0798635922376
  0
LINE
  5
16B8
330
1663
100
AcDbEntity
  8
0
  6
SLD-実線
 62
     7
100
AcDbLine
 10
28.10006279179561
 20
15.00000007531366
 30
0.0
 11
28.10006279179561
 21
15.15000007531375
 31
0.0
  0
ARC
  5
16B9
330
1663
100
AcDbEntity
  8
0
  6
SLD-実線
 62
     7
100
AcDbCircle
 10
28.4479315056019
 20
15.14962507531391
 30
0.0
 40
0.1496254746709535
100
AcDbArc
 50
270.144321562156
 51
0.1435981396116945
  0
LINE
  5
16BA
330
1663
100
AcDbEntity
  8
0
  6
SLD-実線
 62
     7
100
AcDbLine
 10
32.62766437865594
 20
15.15000007531375
 30
0.0
 11
33.07795065790902
 21
15.15000007531375
 31
0.0
  0
LINE
  5
16BB
330
1663
100
AcDbEntity
  8
0
  6
SLD-実線
 62
     7
100
AcDbLine
 10
33.07795065790902
 20
15.15000007531375
 30
0.0
 11
33.14999997732865
 21
15.15000007531375
 31
0.0
  0
ARC
  5
16BC
330
1663
100
AcDbEntity
  8
0
  6
SLD-実線
 62
     7
100
AcDbCircle
 10
30.89638505688458
 20
14.88635456316956
 30
0.0
 40
0.1770778654310011
100
AcDbArc
 50
140.0751195878875
 51
191.0931039867786
  0
LINE
  5
16BD
330
1663
100
AcDbEntity
  8
0
  6
SLD-実線
 62
     7
100
AcDbLine
 10
32.92795358751096
 20
15.00000007531366
 30
0.0
 11
32.61275319203378
 21
15.00000007531366
 31
0.0
  0
LINE
  5
16BE
330
1663
100
AcDbEntity
  8
0
  6
SLD-実線
 62
     7
100
AcDbLine
 10
32.9999970476697
 20
15.00000007531378
 30
0.0
 11
32.92795358751096
 21
15.00000007531366
 31
0.0
  0
ARC
  5
16BF
330
1663
100
AcDbEntity
  8
0
  6
SLD-実線
 62
     7
100
AcDbCircle
 10
31.05568388533243
 20
-16.32335531381147
 30
0.0
 40
31.17741854545621
100
AcDbArc
 50
89.92578069714788
 51
90.61210204839509
  0
ARC
  5
16C0
330
1663
100
AcDbEntity
  8
0
  6
SLD-実線
 62
     7
100
AcDbCircle
 10
31.2460158698475
 20
14.8500000753138
 30
0.0
 40
0.1500000000000057
100
AcDbArc
 50
90.0
 51
178.4577938725622
  0
ARC
  5
16C1
330
1663
100
AcDbEntity
  8
0
  6
SLD-実線
 62
     7
100
AcDbCircle
 10
32.23924742958889
 20
15.11287064779049
 30
0.0
 40
0.3901875455608113
100
AcDbArc
 50
343.1855863120193
 51
5.460407999883544
  0
ARC
  5
16C2
330
1663
100
AcDbEntity
  8
0
  6
SLD-実線
 62
     7
100
AcDbCircle
 10
32.92795212269562
 20
15.14999861052695
 30
0.0
 40
0.1499985352205511
100
AcDbArc
 50
270.000559523704
 51
0.00055951279987
  0
ARC
  5
16C3
330
1663
100
AcDbEntity
  8
0
  6
SLD-実線
 62
     7
100
AcDbCircle
 10
32.99999845230173
 20
15.15000160034174
 30
0.0
 40
0.1500015250346894
100
AcDbArc
 50
269.9994634755403
 51
359.9994174881189
  0
LINE
  5
16C4
330
1663
100
AcDbEntity
  8
0
  6
SLD-実線
 62
     7
100
AcDbLine
 10
5.049937162861623
 20
76.75000007531365
 30
0.0
 11
28.10006279179561
 21
76.75000007531365
 31
0.0
  0
LINE
  5
16C5
330
1663
100
AcDbEntity
  8
0
  6
SLD-実線
 62
     7
100
AcDbLine
 10
5.049937162861623
 20
76.75000007531365
 30
0.0
 11
4.55244344430821
 21
76.75000007531365
 31
0.0
  0
LINE
  5
16C6
330
1663
100
AcDbEntity
  8
0
  6
SLD-実線
 62
     7
100
AcDbLine
 10
0.5223355760010691
 20
76.75000007531365
 30
0.0
 11
4.55244344430821
 21
76.75000007531365
 31
0.0
  0
LINE
  5
16C7
330
1663
100
AcDbEntity
  8
0
  6
SLD-実線
 62
     7
100
AcDbLine
 10
0.5223355760010691
 20
76.75000007531365
 30
0.0
 11
0.0720492967479913
 21
76.75000007531365
 31
0.0
  0
LINE
  5
16C8
330
1663
100
AcDbEntity
  8
0
  6
SLD-実線
 62
     7
100
AcDbLine
 10
0.0720492967479913
 20
76.75000007531365
 30
0.0
 11
-0.0000000226714292
 21
76.75000007531378
 31
0.0
  0
LINE
  5
16C9
330
1663
100
AcDbEntity
  8
0
100
AcDbLine
 10
16.57499997732861
 20
52.25000007531377
 30
0.0
 11
15.32499997732861
 21
52.25000007531377
 31
0.0
  0
LINE
  5
16CA
330
1663
100
AcDbEntity
  8
0
100
AcDbLine
 10
15.32499997732861
 20
52.25000007531377
 30
0.0
 11
15.32499997732861
 21
44.75000007531377
 31
0.0
  0
LINE
  5
16CB
330
1663
100
AcDbEntity
  8
0
100
AcDbLine
 10
17.82499997732861
 20
44.75000007531377
 30
0.0
 11
18.82499997732861
 21
44.75000007531377
 31
0.0
  0
LINE
  5
16CC
330
1663
100
AcDbEntity
  8
0
100
AcDbLine
 10
17.82499997732861
 20
52.25000007531377
 30
0.0
 11
17.82499997732861
 21
44.75000007531377
 31
0.0
  0
LINE
  5
16CD
330
1663
100
AcDbEntity
  8
0
100
AcDbLine
 10
16.57499997732861
 20
52.25000007531377
 30
0.0
 11
17.82499997732861
 21
52.25000007531377
 31
0.0
  0
LINE
  5
16CE
330
1663
100
AcDbEntity
  8
0
100
AcDbLine
 10
15.32499997732861
 20
44.75000007531377
 30
0.0
 11
14.32499997732861
 21
44.75000007531377
 31
0.0
  0
LINE
  5
16CF
330
1663
100
AcDbEntity
  8
0
  6
SLD-実線
 62
     7
100
AcDbLine
 10
32.62766437865594
 20
76.75000007531365
 30
0.0
 11
28.5975565103488
 21
76.75000007531365
 31
0.0
  0
LINE
  5
16D0
330
1663
100
AcDbEntity
  8
0
  6
SLD-実線
 62
     7
100
AcDbLine
 10
28.10006279179561
 20
76.75000007531365
 30
0.0
 11
28.5975565103488
 21
76.75000007531365
 31
0.0
  0
LINE
  5
16D1
330
1663
100
AcDbEntity
  8
0
  6
SLD-実線
 62
     7
100
AcDbLine
 10
32.62766437865594
 20
76.75000007531365
 30
0.0
 11
33.07795065790902
 21
76.75000007531365
 31
0.0
  0
LINE
  5
16D2
330
1663
100
AcDbEntity
  8
0
  6
SLD-実線
 62
     7
100
AcDbLine
 10
33.07795065790902
 20
76.75000007531365
 30
0.0
 11
33.14999997732865
 21
76.75000007531378
 31
0.0
  0
ENDBLK
  5
16D4
330
1663
100
AcDbEntity
  8
0
100
AcDbBlockEnd
  0
BLOCK
  5
1809
330
17FF
100
AcDbEntity
  8
0
100
AcDbBlockBegin
  2
*D4
 70
     1
 10
0.0
 20
0.0
 30
0.0
  3
*D4
  1

  0
LINE
  5
18EB
330
17FF
100
AcDbEntity
  8
SUNPOU
100
AcDbLine
 10
198.861168896176
 20
227.28688281363
 30
0.0
 11
198.861168896176
 21
235.3017514746283
 31
0.0
  0
LINE
  5
18EC
330
17FF
100
AcDbEntity
  8
SUNPOU
100
AcDbLine
 10
132.5611716260687
 20
227.28688281363
 30
0.0
 11
132.5611716260687
 21
235.3017514746283
 31
0.0
  0
LINE
  5
18ED
330
17FF
100
AcDbEntity
  8
SUNPOU
100
AcDbLine
 10
195.861168896176
 20
233.8017514746283
 30
0.0
 11
135.5611716260687
 21
233.8017514746283
 31
0.0
  0
INSERT
  5
18EE
330
17FF
100
AcDbEntity
  8
SUNPOU
100
AcDbBlockReference
  2
_OPEN
 10
198.861168896176
 20
233.8017514746283
 30
0.0
 41
3.0
 42
3.0
 43
3.0
  0
INSERT
  5
18EF
330
17FF
100
AcDbEntity
  8
SUNPOU
100
AcDbBlockReference
  2
_OPEN
 10
132.5611716260687
 20
233.8017514746283
 30
0.0
 41
3.0
 42
3.0
 43
3.0
 50
180.0
  0
MTEXT
  5
18F0
330
17FF
100
AcDbEntity
  8
SUNPOU
100
AcDbMText
 10
165.7111702611223
 20
236.3017514746283
 30
0.0
 40
3.0
 41
0.0
 71
     5
 72
     1
  1
\A1;66
 73
     1
 44
1.0
1001
ACAD
1000
MTEXTBEGIN
1070
    73
1070
     1
1070
    44
1040
1.0
1070
    74
1070
     0
1000
MTEXTEND
  0
POINT
  5
18F1
330
17FF
100
AcDbEntity
  8
DEFPOINTS
 62
     0
100
AcDbPoint
 10
198.861168896176
 20
224.28688281363
 30
0.0
  0
POINT
  5
18F2
330
17FF
100
AcDbEntity
  8
DEFPOINTS
 62
     0
100
AcDbPoint
 10
132.5611716260687
 20
224.28688281363
 30
0.0
  0
POINT
  5
18F3
330
17FF
100
AcDbEntity
  8
DEFPOINTS
 62
     0
100
AcDbPoint
 10
132.5611716260687
 20
233.8017514746283
 30
0.0
  0
ENDBLK
  5
180A
330
17FF
100
AcDbEntity
  8
0
100
AcDbBlockEnd
  0
BLOCK
  5
184E
330
1844
100
AcDbEntity
  8
0
100
AcDbBlockBegin
  2
*D5
 70
     1
 10
0.0
 20
0.0
 30
0.0
  3
*D5
  1

  0
LINE
  5
1910
330
1844
100
AcDbEntity
  8
SUNPOU
100
AcDbLine
 10
178.7111702611223
 20
151.7515581442073
 30
0.0
 11
219.7812121080233
 21
151.7515581442073
 31
0.0
  0
LINE
  5
1911
330
1844
100
AcDbEntity
  8
SUNPOU
100
AcDbLine
 10
201.861168896176
 20
221.7515581442072
 30
0.0
 11
219.7812121080234
 21
221.7515581442072
 31
0.0
  0
LINE
  5
1912
330
1844
100
AcDbEntity
  8
SUNPOU
100
AcDbLine
 10
218.2812121080234
 20
154.7515581442073
 30
0.0
 11
218.2812121080234
 21
218.7515581442072
 31
0.0
  0
INSERT
  5
1913
330
1844
100
AcDbEntity
  8
SUNPOU
100
AcDbBlockReference
  2
_OPEN
 10
218.2812121080234
 20
151.7515581442073
 30
0.0
 41
3.0
 42
3.0
 43
3.0
 50
270.0
  0
INSERT
  5
1914
330
1844
100
AcDbEntity
  8
SUNPOU
100
AcDbBlockReference
  2
_OPEN
 10
218.2812121080234
 20
221.7515581442072
 30
0.0
 41
3.0
 42
3.0
 43
3.0
 50
90.0
  0
MTEXT
  5
1915
330
1844
100
AcDbEntity
  8
SUNPOU
100
AcDbMText
 10
215.7812121080233
 20
186.7515581442073
 30
0.0
 40
3.0
 41
0.0
 71
     5
 72
     1
  1
\A1;70（たてとい差し込み代）
 11
0.0000000000000001
 21
1.0
 31
0.0
 73
     1
 44
1.0
1001
ACAD
1000
MTEXTBEGIN
1070
    73
1070
     1
1070
    44
1040
1.0
1070
    74
1070
     0
1000
MTEXTEND
  0
POINT
  5
1916
330
1844
100
AcDbEntity
  8
DEFPOINTS
 62
     0
100
AcDbPoint
 10
175.7111702611223
 20
151.7515581442073
 30
0.0
  0
POINT
  5
1917
330
1844
100
AcDbEntity
  8
DEFPOINTS
 62
     0
100
AcDbPoint
 10
198.861168896176
 20
221.7515581442072
 30
0.0
  0
POINT
  5
1918
330
1844
100
AcDbEntity
  8
DEFPOINTS
 62
     0
100
AcDbPoint
 10
218.2812121080234
 20
221.7515581442072
 30
0.0
  0
ENDBLK
  5
184F
330
1844
100
AcDbEntity
  8
0
100
AcDbBlockEnd
  0
BLOCK
  5
185B
330
1851
100
AcDbEntity
  8
0
100
AcDbBlockBegin
  2
*D6
 70
     1
 10
0.0
 20
0.0
 30
0.0
  3
*D6
  1

  0
LINE
  5
1852
330
1851
100
AcDbEntity
  8
SUNPOU
100
AcDbLine
 10
201.861168896176
 20
221.7515581442072
 30
0.0
 11
237.8829033333091
 21
221.7515581442072
 31
0.0
  0
LINE
  5
1853
330
1851
100
AcDbEntity
  8
SUNPOU
100
AcDbLine
 10
201.861168896249
 20
98.25156118404429
 30
0.0
 11
237.8829033333091
 21
98.25156118404429
 31
0.0
  0
LINE
  5
1854
330
1851
100
AcDbEntity
  8
SUNPOU
100
AcDbLine
 10
236.3829033333091
 20
218.7515581442072
 30
0.0
 11
236.382903333309
 21
101.2515611840443
 31
0.0
  0
INSERT
  5
1855
330
1851
100
AcDbEntity
  8
SUNPOU
100
AcDbBlockReference
  2
_OPEN
 10
236.3829033333091
 20
221.7515581442072
 30
0.0
 41
3.0
 42
3.0
 43
3.0
 50
90.0
  0
INSERT
  5
1856
330
1851
100
AcDbEntity
  8
SUNPOU
100
AcDbBlockReference
  2
_OPEN
 10
236.382903333309
 20
98.25156118404429
 30
0.0
 41
3.0
 42
3.0
 43
3.0
 50
270.0
  0
MTEXT
  5
1857
330
1851
100
AcDbEntity
  8
SUNPOU
100
AcDbMText
 10
233.8829033333091
 20
160.0015596641258
 30
0.0
 40
3.0
 41
0.0
 71
     5
 72
     1
  1
\A1;123
 11
0.0000000000000001
 21
1.0
 31
0.0
 73
     1
 44
1.0
1001
ACAD
1000
MTEXTBEGIN
1070
    73
1070
     1
1070
    44
1040
1.0
1070
    74
1070
     0
1000
MTEXTEND
  0
POINT
  5
1858
330
1851
100
AcDbEntity
  8
DEFPOINTS
 62
     0
100
AcDbPoint
 10
198.861168896176
 20
221.7515581442072
 30
0.0
  0
POINT
  5
1859
330
1851
100
AcDbEntity
  8
DEFPOINTS
 62
     0
100
AcDbPoint
 10
198.861168896249
 20
98.25156118404429
 30
0.0
  0
POINT
  5
185A
330
1851
100
AcDbEntity
  8
DEFPOINTS
 62
     0
100
AcDbPoint
 10
236.382903333309
 20
98.25156118404429
 30
0.0
  0
ENDBLK
  5
185C
330
1851
100
AcDbEntity
  8
0
100
AcDbBlockEnd
  0
BLOCK
  5
1868
330
185E
100
AcDbEntity
  8
0
100
AcDbBlockBegin
  2
*D7
 70
     1
 10
0.0
 20
0.0
 30
0.0
  3
*D7
  1

  0
LINE
  5
18D4
330
185E
100
AcDbEntity
  8
SUNPOU
100
AcDbLine
 10
201.861168896176
 20
221.7515581442072
 30
0.0
 11
252.9117582496185
 21
221.7515581442072
 31
0.0
  0
LINE
  5
18D5
330
185E
100
AcDbEntity
  8
SUNPOU
100
AcDbLine
 10
196.561170448877
 20
68.25156185459632
 30
0.0
 11
252.9117582496185
 21
68.2515618545963
 31
0.0
  0
LINE
  5
18D6
330
185E
100
AcDbEntity
  8
SUNPOU
100
AcDbLine
 10
251.4117582496186
 20
218.7515581442072
 30
0.0
 11
251.4117582496185
 21
71.2515618545963
 31
0.0
  0
INSERT
  5
18D7
330
185E
100
AcDbEntity
  8
SUNPOU
100
AcDbBlockReference
  2
_OPEN
 10
251.4117582496186
 20
221.7515581442072
 30
0.0
 41
3.0
 42
3.0
 43
3.0
 50
90.0
  0
INSERT
  5
18D8
330
185E
100
AcDbEntity
  8
SUNPOU
100
AcDbBlockReference
  2
_OPEN
 10
251.4117582496185
 20
68.2515618545963
 30
0.0
 41
3.0
 42
3.0
 43
3.0
 50
270.0
  0
MTEXT
  5
18D9
330
185E
100
AcDbEntity
  8
SUNPOU
100
AcDbMText
 10
248.9117582496185
 20
145.0015599994018
 30
0.0
 40
3.0
 41
0.0
 71
     5
 72
     1
  1
\A1;153
 11
0.0000000000000001
 21
1.0
 31
0.0
 73
     1
 44
1.0
1001
ACAD
1000
MTEXTBEGIN
1070
    73
1070
     1
1070
    44
1040
1.0
1070
    74
1070
     0
1000
MTEXTEND
  0
POINT
  5
18DA
330
185E
100
AcDbEntity
  8
DEFPOINTS
 62
     0
100
AcDbPoint
 10
198.861168896176
 20
221.7515581442072
 30
0.0
  0
POINT
  5
18DB
330
185E
100
AcDbEntity
  8
DEFPOINTS
 62
     0
100
AcDbPoint
 10
193.561170448877
 20
68.25156185459632
 30
0.0
  0
POINT
  5
18DC
330
185E
100
AcDbEntity
  8
DEFPOINTS
 62
     0
100
AcDbPoint
 10
251.4117582496185
 20
68.2515618545963
 30
0.0
  0
ENDBLK
  5
1869
330
185E
100
AcDbEntity
  8
0
100
AcDbBlockEnd
  0
BLOCK
  5
187F
330
1875
100
AcDbEntity
  8
0
100
AcDbBlockBegin
  2
*D8
 70
     1
 10
0.0
 20
0.0
 30
0.0
  3
*D8
  1

  0
LINE
  5
18F4
330
1875
100
AcDbEntity
  8
SUNPOU
100
AcDbLine
 10
137.3611709227339
 20
69.25156064760223
 30
0.0
 11
137.3611709227339
 21
50.85385676960028
 31
0.0
  0
LINE
  5
18F5
330
1875
100
AcDbEntity
  8
SUNPOU
100
AcDbLine
 10
194.0611509730594
 20
69.25140418540969
 30
0.0
 11
194.0611509730594
 21
50.85385676960028
 31
0.0
  0
LINE
  5
18F6
330
1875
100
AcDbEntity
  8
SUNPOU
100
AcDbLine
 10
140.3611709227339
 20
52.35385676960028
 30
0.0
 11
191.0611509730594
 21
52.35385676960028
 31
0.0
  0
INSERT
  5
18F7
330
1875
100
AcDbEntity
  8
SUNPOU
100
AcDbBlockReference
  2
_OPEN
 10
137.3611709227339
 20
52.35385676960028
 30
0.0
 41
3.0
 42
3.0
 43
3.0
 50
180.0
  0
INSERT
  5
18F8
330
1875
100
AcDbEntity
  8
SUNPOU
100
AcDbBlockReference
  2
_OPEN
 10
194.0611509730594
 20
52.35385676960028
 30
0.0
 41
3.0
 42
3.0
 43
3.0
  0
MTEXT
  5
18F9
330
1875
100
AcDbEntity
  8
SUNPOU
100
AcDbMText
 10
165.7111609478966
 20
54.85385676960028
 30
0.0
 40
3.0
 41
0.0
 71
     5
 72
     1
  1
\A1;57
 73
     1
 44
1.0
1001
ACAD
1000
MTEXTBEGIN
1070
    73
1070
     1
1070
    44
1040
1.0
1070
    74
1070
     0
1000
MTEXTEND
  0
POINT
  5
18FA
330
1875
100
AcDbEntity
  8
DEFPOINTS
 62
     0
100
AcDbPoint
 10
137.3611709227339
 20
72.25156064760223
 30
0.0
  0
POINT
  5
18FB
330
1875
100
AcDbEntity
  8
DEFPOINTS
 62
     0
100
AcDbPoint
 10
194.0611509730594
 20
72.2514041854097
 30
0.0
  0
POINT
  5
18FC
330
1875
100
AcDbEntity
  8
DEFPOINTS
 62
     0
100
AcDbPoint
 10
194.0611509730594
 20
52.35385676960028
 30
0.0
  0
ENDBLK
  5
1880
330
1875
100
AcDbEntity
  8
0
100
AcDbBlockEnd
  0
ENDSEC
  0
SECTION
  2
ENTITIES
  0
LWPOLYLINE
  5
ABF
330
1A
100
AcDbEntity
  8
ZUWAKU
100
AcDbPolyline
 90
        4
 70
     1
 43
0.0
 10
0.3999995171010369
 20
275.3999999613564
 10
0.3999995171010369
 20
0.3999999613564
 10
398.399999517101
 20
0.3999999613564
 10
398.399999517101
 20
275.3999999613564
  0
LWPOLYLINE
  5
AC0
330
1A
100
AcDbEntity
  8
ZUWAKU
100
AcDbPolyline
 90
        4
 70
     1
 43
0.0
 10
0.1999995171010482
 20
275.5999999613564
 10
0.1999995171010482
 20
0.1999999613564114
 10
398.5999995171011
 20
0.1999999613563998
 10
398.5999995171011
 20
275.5999999613564
  0
LWPOLYLINE
  5
AC1
330
1A
100
AcDbEntity
  8
ZUWAKU
100
AcDbPolyline
 90
        4
 70
     1
 43
0.0
 10
-0.0000004828989404
 20
275.7999999613564
 10
-0.0000004828989404
 20
-0.0000000386436341
 10
398.7999995171011
 20
-0.0000000386436003
 10
398.7999995171011
 20
275.7999999613564
  0
LWPOLYLINE
  5
AC2
330
1A
100
AcDbEntity
  8
ZUWAKU
100
AcDbPolyline
 90
        4
 70
     1
 43
0.0
 10
0.2999995171010141
 20
275.4999999613564
 10
0.2999995171010141
 20
0.2999999613563773
 10
398.4999995171012
 20
0.2999999613564004
 10
398.4999995171011
 20
275.4999999613564
  0
LWPOLYLINE
  5
AC3
330
1A
100
AcDbEntity
  8
ZUWAKU
100
AcDbPolyline
 90
        4
 70
     1
 43
0.0
 10
0.0999995171010255
 20
275.6999999613564
 10
0.0999995171010255
 20
0.0999999613563887
 10
398.699999517101
 20
0.0999999613564002
 10
398.6999995171012
 20
275.6999999613564
  0
LINE
  5
AC4
330
1A
100
AcDbEntity
  8
ZUWAKU
100
AcDbLine
 10
-0.0000004828989404
 20
14.99999996135636
 30
0.0
 11
398.699999517101
 21
14.99999996135636
 31
0.0
  0
LINE
  5
AC5
330
1A
100
AcDbEntity
  8
ZUWAKU
100
AcDbLine
 10
-0.0000004828989404
 20
15.09999996135636
 30
0.0
 11
398.699999517101
 21
15.09999996135636
 31
0.0
  0
LINE
  5
AC6
330
1A
100
AcDbEntity
  8
ZUWAKU
100
AcDbLine
 10
-0.0000004828989404
 20
15.19999996135637
 30
0.0
 11
398.699999517101
 21
15.19999996135637
 31
0.0
  0
LINE
  5
AC7
330
1A
100
AcDbEntity
  8
ZUWAKU
100
AcDbLine
 10
-0.0000004828989404
 20
15.29999996135637
 30
0.0
 11
398.699999517101
 21
15.29999996135637
 31
0.0
  0
LINE
  5
AC8
330
1A
100
AcDbEntity
  8
ZUWAKU
100
AcDbLine
 10
-0.0000004828989404
 20
15.39999996135637
 30
0.0
 11
398.699999517101
 21
15.39999996135637
 31
0.0
  0
LINE
  5
AC9
330
1A
100
AcDbEntity
  8
ZUWAKU
100
AcDbLine
 10
104.323300162135
 20
7.699999961356382
 30
0.0
 11
223.7121815025968
 21
7.699999961356382
 31
0.0
  0
LINE
  5
ACA
330
1A
100
AcDbEntity
  8
ZUWAKU
100
AcDbLine
 10
104.323300162135
 20
7.799999961356382
 30
0.0
 11
223.7121815025968
 21
7.799999961356387
 31
0.0
  0
LINE
  5
ACB
330
1A
100
AcDbEntity
  8
ZUWAKU
100
AcDbLine
 10
104.323300162135
 20
7.599999961356385
 30
0.0
 11
223.7121815025968
 21
7.599999961356381
 31
0.0
  0
TEXT
  5
ACC
330
1A
100
AcDbEntity
  8
moji
100
AcDbText
 10
46.47889431118563
 20
6.370589026493745
 30
0.0
 40
3.0
  1
たてといアートフェイスY６０H
 41
0.9
  7
ｽﾀｲﾙ1
100
AcDbText
  0
CIRCLE
  5
ACD
330
1A
100
AcDbEntity
  8
ZUWAKU
100
AcDbCircle
 10
12.99610559449161
 20
7.599999961356366
 30
0.0
 40
0.875
  0
LINE
  5
ACE
330
1A
100
AcDbEntity
  8
ZUWAKU
100
AcDbLine
 10
13.43360559449161
 20
3.574999961356367
 30
0.0
 11
12.47110559449163
 21
3.574999961356367
 31
0.0
  0
LINE
  5
ACF
330
1A
100
AcDbEntity
  8
ZUWAKU
100
AcDbLine
 10
12.47110559449163
 20
4.974999961356367
 30
0.0
 11
13.43360559449161
 21
4.974999961356367
 31
0.0
  0
LINE
  5
AD0
330
1A
100
AcDbEntity
  8
ZUWAKU
100
AcDbLine
 10
13.43360559449161
 20
10.22499996135636
 30
0.0
 11
12.47110559449163
 21
10.22499996135636
 31
0.0
  0
LINE
  5
AD1
330
1A
100
AcDbEntity
  8
ZUWAKU
100
AcDbLine
 10
12.47110559449163
 20
11.62499996135635
 30
0.0
 11
13.43360559449161
 21
11.62499996135637
 31
0.0
  0
INSERT
  5
AD2
330
1A
100
AcDbEntity
  8
ZUWAKU
  6
Continuous
100
AcDbBlockReference
  2
*X1
 10
0.0
 20
0.0
 30
0.0
1001
ACAD
1000
HATCH
1002
{
1070
    19
1000
ANSI37
1040
0.1
1040
0.0
1000
R14_HATCH_DATA
1000
AD2
1011
1.0
1021
0.0
1031
0.0
1011
0.0
1021
1.0
1031
0.0
1011
0.0
1021
0.0
1031
1.0
1040
0.0
1010
0.0
1020
0.0
1030
1.0
1000
ANSI37
1070
     0
1070
     0
1071
        8
1071
        7
1070
     1
1070
     1
1071
       24
1040
7.251130847660987
1040
8.822424201848157
1040
-0.1989123673796348
1040
7.046105594491621
1040
9.317398948678683
1040
0.0
1040
7.046105594491621
1040
9.962499961356373
1040
-0.4142135623730912
1040
7.308605594491607
1040
10.22499996135636
1040
0.0
1040
8.796105594491564
1040
10.22499996135636
1040
0.4142135623731546
1040
9.058605594491606
1040
10.48749996135636
1040
0.0
1040
9.058605594491606
1040
11.36249996135637
1040
0.4142135623731586
1040
8.796105594491564
1040
11.62499996135637
1040
0.0
1040
7.046105594491621
1040
11.62499996135637
1040
0.4142135623730928
1040
5.646105594491642
1040
10.22499996135638
1040
0.0
1040
5.646105594491642
1040
9.317398948678746
1040
0.1989123673796619
1040
6.261181353999857
1040
7.832474708186942
1040
0.0
1040
7.716080341322197
1040
6.377575720864612
1040
-0.1989123673796613
1040
7.921105594491621
1040
5.88260097403402
1040
0.0
1040
7.921105594491621
1040
5.237499961356363
1040
-0.4142135623730911
1040
7.658605594491633
1040
4.974999961356367
1040
0.0
1040
6.171105594491677
1040
4.974999961356367
1040
0.4142135623731526
1040
5.908605594491633
1040
4.712499961356372
1040
0.0
1040
5.908605594491633
1040
3.837499961356362
1040
0.4142135623731526
1040
6.171105594491677
1040
3.574999961356367
1040
0.0
1040
7.921105594491621
1040
3.574999961356367
1040
0.4142135623731045
1040
9.321105594491655
1040
4.974999961356356
1040
0.0
1040
9.321105594491655
1040
5.882600974033992
1040
0.1989123673796604
1040
8.706029834983382
1040
7.367525214525763
1040
0.0
1071
        0
1071
        7
1070
     1
1070
     1
1071
       16
1040
11.77110559449164
1040
9.524999961356373
1040
-0.4142135623730935
1040
12.47110559449163
1040
10.22499996135636
1040
0.0
1040
13.43360559449161
1040
10.22499996135636
1040
0.4142135623731546
1040
13.69610559449165
1040
10.48749996135636
1040
0.0
1040
13.69610559449165
1040
11.36249996135637
1040
0.4142135623730951
1040
13.43360559449166
1040
11.62499996135637
1040
0.0
1040
12.47110559449157
1040
11.62499996135635
1040
0.4142135623730893
1040
10.37110559449161
1040
9.524999961356336
1040
0.0
1040
10.37110559449161
1040
5.674999961356379
1040
0.4142135623730969
1040
12.47110559449163
1040
3.574999961356367
1040
0.0
1040
13.43360559449161
1040
3.574999961356367
1040
0.4142135623731526
1040
13.69610559449165
1040
3.837499961356362
1040
0.0
1040
13.69610559449165
1040
4.712499961356372
1040
0.4142135623730891
1040
13.43360559449166
1040
4.974999961356367
1040
0.0
1040
12.47110559449163
1040
4.974999961356367
1040
-0.4142135623730928
1040
11.77110559449164
1040
5.674999961356361
1040
0.0
1071
        0
1071
        7
1070
     1
1070
     1
1071
        2
1040
12.12110559449161
1040
7.599999961356366
1040
1.0
1040
13.87110559449161
1040
7.599999961356366
1040
1.0
1071
        0
1071
        7
1070
     1
1070
     1
1071
       26
1040
18.65742883558062
1040
9.602523558138079
1040
0.0
1040
19.18824865214952
1040
11.28345297727286
1040
0.5069206636600134
1040
18.93793320255184
1040
11.62499996135637
1040
0.0
1040
18.08848851274723
1040
11.62499996135637
1040
0.3272098845218764
1040
17.83817306314955
1040
11.44154694543985
1040
0.0
1040
16.90403812583365
1040
8.483452977272907
1040
-0.3272098845219541
1040
16.65372267623593
1040
8.299999961356364
1040
0.0
1040
16.58360559449169
1040
8.299999961356364
1040
-0.4142135623731526
1040
16.32110559449165
1040
8.56249996135636
1040
0.0
1040
16.32110559449165
1040
11.36249996135637
1040
0.4142135623730951
1040
16.05860559449167
1040
11.62499996135637
1040
0.0
1040
15.18360559449161
1040
11.62499996135637
1040
0.4142135623730871
1040
14.92110559449162
1040
11.36249996135638
1040
0.0
1040
14.92110559449162
1040
3.837499961356362
1040
0.4142135623730891
1040
15.18360559449161
1040
3.574999961356367
1040
0.0
1040
16.05860559449161
1040
3.574999961356367
1040
0.4142135623731526
1040
16.32110559449165
1040
3.837499961356362
1040
0.0
1040
16.32110559449165
1040
6.637499961356374
1040
-0.4142135623731526
1040
16.58360559449169
1040
6.899999961356367
1040
0.0
1040
16.65372267623598
1040
6.899999961356367
1040
-0.3272098845218915
1040
16.90403812583365
1040
6.716546945439829
1040
0.0
1040
17.83817306314955
1040
3.758452977272904
1040
0.3272098845218902
1040
18.08848851274723
1040
3.574999961356367
1040
0.0
1040
18.93793320255184
1040
3.574999961356367
1040
0.5069206636600336
1040
19.18824865214952
1040
3.916546945439872
1040
0.0
1040
18.02505296291269
1040
7.599999961356435
1040
0.0
1071
        0
1071
        7
1070
     1
1070
     1
1071
        8
1040
21.74610559449161
1040
11.36249996135637
1040
0.4142135623731546
1040
21.48360559449157
1040
11.62499996135637
1040
0.0
1040
20.60860559449168
1040
11.62499996135637
1040
0.4142135623731507
1040
20.34610559449163
1040
11.36249996135638
1040
0.0
1040
20.34610559449163
1040
3.837499961356362
1040
0.4142135623731526
1040
20.60860559449168
1040
3.574999961356367
1040
0.0
1040
21.48360559449157
1040
3.574999961356367
1040
0.4142135623731526
1040
21.74610559449161
1040
3.837499961356362
1040
0.0
1071
        0
1071
        7
1070
     1
1070
     1
1071
       24
1040
24.19610559449166
1040
9.962499961356373
1040
-0.4142135623731546
1040
24.4586055944917
1040
10.22499996135636
1040
0.0
1040
25.94610559449165
1040
10.22499996135636
1040
0.4142135623730911
1040
26.20860559449165
1040
10.48749996135636
1040
0.0
1040
26.20860559449165
1040
11.36249996135637
1040
0.4142135623730952
1040
25.94610559449165
1040
11.62499996135637
1040
0.0
1040
24.19610559449166
1040
11.62499996135637
1040
0.4142135623731048
1040
22.79610559449162
1040
10.22499996135638
1040
0.0
1040
22.79610559449162
1040
9.317398948678746
1040
0.1989123673796613
1040
23.41118135399989
1040
7.832474708186972
1040
0.0
1040
24.86608034132223
1040
6.377575720864638
1040
-0.1989123673796402
1040
25.07110559449166
1040
5.882600974034102
1040
0.0
1040
25.07110559449166
1040
5.237499961356363
1040
-0.4142135623730911
1040
24.80860559449168
1040
4.974999961356367
1040
0.0
1040
23.32110559449166
1040
4.974999961356367
1040
0.4142135623731526
1040
23.05860559449161
1040
4.712499961356372
1040
0.0
1040
23.05860559449161
1040
3.837499961356362
1040
0.4142135623730891
1040
23.3211055944916
1040
3.574999961356367
1040
0.0
1040
25.07110559449166
1040
3.574999961356367
1040
0.4142135623730925
1040
26.47110559449163
1040
4.974999961356356
1040
0.0
1040
26.47110559449163
1040
5.882600974033992
1040
0.1989123673796675
1040
25.85602983498336
1040
7.367525214525818
1040
0.0
1040
24.40113084766108
1040
8.822424201848077
1040
-0.1989123673796652
1040
24.19610559449166
1040
9.317398948678659
1040
0.0
1071
        0
1071
        7
1070
     1
1070
     1
1071
       16
1040
28.92110559449162
1040
11.36249996135636
1040
0.414213562373103
1040
28.65860559449163
1040
11.62499996135637
1040
0.0
1040
27.78360559449164
1040
11.62499996135637
1040
0.4142135623730871
1040
27.52110559449164
1040
11.36249996135638
1040
0.0
1040
27.52110559449164
1040
4.974999961356356
1040
0.4142135623730927
1040
28.92110559449162
1040
3.574999961356367
1040
0.0
1040
30.67110559449162
1040
3.574999961356367
1040
0.4142135623731045
1040
32.07110559449166
1040
4.974999961356356
1040
0.0
1040
32.07110559449166
1040
11.36249996135637
1040
0.4142135623730951
1040
31.80860559449167
1040
11.62499996135637
1040
0.0
1040
30.93360559449161
1040
11.62499996135637
1040
0.4142135623730871
1040
30.67110559449162
1040
11.36249996135638
1040
0.0
1040
30.67110559449162
1040
5.499999961356355
1040
-0.4142135623730879
1040
30.14610559449165
1040
4.974999961356367
1040
0.0
1040
29.44610559449166
1040
4.974999961356367
1040
-0.4142135623731197
1040
28.92110559449162
1040
5.499999961356355
1040
0.0
1071
        0
1071
        7
1070
     1
1070
     1
1071
        8
1040
34.52110559449165
1040
11.36249996135638
1040
0.4142135623730871
1040
34.25860559449166
1040
11.62499996135637
1040
0.0
1040
33.38360559449166
1040
11.62499996135637
1040
0.4142135623731507
1040
33.12110559449161
1040
11.36249996135638
1040
0.0
1040
33.12110559449161
1040
3.837499961356362
1040
0.4142135623730891
1040
33.3836055944916
1040
3.574999961356367
1040
0.0
1040
34.25860559449166
1040
3.574999961356367
1040
0.4142135623730891
1040
34.52110559449165
1040
3.837499961356362
1040
0.0
1071
        0
1070
     0
1070
     1
1040
0.0
1040
0.1
1070
     0
1070
     2
1040
0.7853981633974483
1040
-450.4711526502383
1040
-6.600000038643598
1040
-0.2245064030267288
1040
0.2245064030267288
1070
     0
1040
2.356194490192344
1040
-450.4711526502383
1040
-6.600000038643598
1040
-0.2245064030267288
1040
-0.2245064030267288
1070
     0
1040
0.057451373970553
1071
        8
1040
8.039926998612711
1040
7.583586784299142
1040
0.0
1040
11.20225702032064
1040
9.422031052581873
1040
0.0
1040
12.58218345993089
1040
7.755940784391724
1040
0.0
1040
15.45702950791963
1040
8.100648784577117
1040
0.0
1040
20.91923552657943
1040
8.330454918347925
1040
0.0
1040
23.44909996466583
1040
9.709288119559971
1040
0.0
1040
28.27884250330124
1040
9.364578918903873
1040
0.0
1040
33.91353932691244
1040
9.594385052674679
1040
0.0
1002
}
  0
ARC
  5
AD3
330
1A
100
AcDbEntity
  8
ZUWAKU
100
AcDbCircle
 10
7.746105594491607
 20
9.317398948678716
 30
0.0
 40
2.099999999999999
100
AcDbArc
 50
180.0
 51
225.0
  0
LINE
  5
AD4
330
1A
100
AcDbEntity
  8
ZUWAKU
100
AcDbLine
 10
10.37110559449161
 20
5.67499996135637
 30
0.0
 11
10.37110559449161
 21
9.524999961356344
 31
0.0
  0
LINE
  5
AD5
330
1A
100
AcDbEntity
  8
ZUWAKU
100
AcDbLine
 10
11.77110559449164
 20
9.524999961356366
 30
0.0
 11
11.77110559449164
 21
5.67499996135637
 31
0.0
  0
ARC
  5
AD6
330
1A
100
AcDbEntity
  8
ZUWAKU
100
AcDbCircle
 10
7.746105594491607
 20
9.317398948678716
 30
0.0
 40
0.7
100
AcDbArc
 50
180.0000000000016
 51
224.9999999999988
  0
ARC
  5
AD7
330
1A
100
AcDbEntity
  8
ZUWAKU
100
AcDbCircle
 10
12.47110559449163
 20
5.67499996135637
 30
0.0
 40
2.099999999999999
100
AcDbArc
 50
180.0
 51
270.0
  0
ARC
  5
AD8
330
1A
100
AcDbEntity
  8
ZUWAKU
100
AcDbCircle
 10
7.921105594491621
 20
4.974999961356367
 30
0.0
 40
1.399999999999999
100
AcDbArc
 50
270.0
 51
0.0
  0
ARC
  5
AD9
330
1A
100
AcDbEntity
  8
ZUWAKU
100
AcDbCircle
 10
7.221105594491633
 20
5.882600974034018
 30
0.0
 40
2.099999999999999
100
AcDbArc
 50
0.0
 51
45.0
  0
LINE
  5
ADA
330
1A
100
AcDbEntity
  8
ZUWAKU
100
AcDbLine
 10
6.261181353999857
 20
7.832474708186956
 30
0.0
 11
7.716080341322197
 21
6.377575720864625
 31
0.0
  0
LINE
  5
ADB
330
1A
100
AcDbEntity
  8
ZUWAKU
100
AcDbLine
 10
6.171105594491621
 20
4.974999961356367
 30
0.0
 11
7.658605594491633
 21
4.974999961356367
 31
0.0
  0
LINE
  5
ADC
330
1A
100
AcDbEntity
  8
ZUWAKU
100
AcDbLine
 10
6.171105594491621
 20
3.574999961356367
 30
0.0
 11
7.921105594491621
 21
3.574999961356367
 31
0.0
  0
ARC
  5
ADD
330
1A
100
AcDbEntity
  8
ZUWAKU
100
AcDbCircle
 10
6.171105594491621
 20
4.712499961356368
 30
0.0
 40
0.2625
100
AcDbArc
 50
90.0
 51
180.0
  0
ARC
  5
ADE
330
1A
100
AcDbEntity
  8
ZUWAKU
100
AcDbCircle
 10
6.171105594491621
 20
3.837499961356368
 30
0.0
 40
0.2625
100
AcDbArc
 50
180.0
 51
270.0
  0
LINE
  5
ADF
330
1A
100
AcDbEntity
  8
ZUWAKU
100
AcDbLine
 10
5.908605594491633
 20
3.837499961356368
 30
0.0
 11
5.908605594491633
 21
4.712499961356368
 31
0.0
  0
ARC
  5
AE0
330
1A
100
AcDbEntity
  8
ZUWAKU
100
AcDbCircle
 10
7.221105594491633
 20
5.882600974034041
 30
0.0
 40
0.7
100
AcDbArc
 50
0.0
 51
45.0
  0
ARC
  5
AE1
330
1A
100
AcDbEntity
  8
ZUWAKU
100
AcDbCircle
 10
7.658605594491633
 20
5.23749996135637
 30
0.0
 40
0.2625
100
AcDbArc
 50
270.0
 51
0.0
  0
LINE
  5
AE2
330
1A
100
AcDbEntity
  8
ZUWAKU
100
AcDbLine
 10
7.921105594491621
 20
5.23749996135637
 30
0.0
 11
7.921105594491621
 21
5.882600974034041
 31
0.0
  0
LINE
  5
AE3
330
1A
100
AcDbEntity
  8
ZUWAKU
100
AcDbLine
 10
8.706029834983382
 20
7.36752521452578
 30
0.0
 11
7.251130847661044
 21
8.822424201848116
 31
0.0
  0
ARC
  5
AE4
330
1A
100
AcDbEntity
  8
ZUWAKU
100
AcDbCircle
 10
12.47110559449163
 20
5.67499996135637
 30
0.0
 40
0.7
100
AcDbArc
 50
180.0
 51
270.0
  0
LINE
  5
AE5
330
1A
100
AcDbEntity
  8
ZUWAKU
100
AcDbLine
 10
9.321105594491655
 20
4.974999961356367
 30
0.0
 11
9.321105594491655
 21
5.882600974034041
 31
0.0
  0
ARC
  5
AE6
330
1A
100
AcDbEntity
  8
ZUWAKU
100
AcDbCircle
 10
8.796105594491621
 20
10.48749996135637
 30
0.0
 40
0.2625
100
AcDbArc
 50
270.0
 51
0.0
  0
ARC
  5
AE7
330
1A
100
AcDbEntity
  8
ZUWAKU
100
AcDbCircle
 10
8.796105594491621
 20
11.36249996135636
 30
0.0
 40
0.2625
100
AcDbArc
 50
0.0
 51
90.0
  0
ARC
  5
AE8
330
1A
100
AcDbEntity
  8
ZUWAKU
100
AcDbCircle
 10
7.046105594491621
 20
10.22499996135636
 30
0.0
 40
1.399999999999999
100
AcDbArc
 50
90.0
 51
180.0
  0
LINE
  5
AE9
330
1A
100
AcDbEntity
  8
ZUWAKU
100
AcDbLine
 10
5.646105594491642
 20
10.22499996135636
 30
0.0
 11
5.646105594491642
 21
9.317398948678695
 31
0.0
  0
LINE
  5
AEA
330
1A
100
AcDbEntity
  8
ZUWAKU
100
AcDbLine
 10
8.796105594491621
 20
10.22499996135636
 30
0.0
 11
7.308605594491607
 21
10.22499996135636
 31
0.0
  0
LINE
  5
AEB
330
1A
100
AcDbEntity
  8
ZUWAKU
100
AcDbLine
 10
7.046105594491621
 20
9.962499961356366
 30
0.0
 11
7.046105594491621
 21
9.317398948678695
 31
0.0
  0
ARC
  5
AEC
330
1A
100
AcDbEntity
  8
ZUWAKU
100
AcDbCircle
 10
7.308605594491607
 20
9.962499961356366
 30
0.0
 40
0.2625
100
AcDbArc
 50
90.0
 51
180.0
  0
LINE
  5
AED
330
1A
100
AcDbEntity
  8
ZUWAKU
100
AcDbLine
 10
7.046105594491621
 20
11.62499996135637
 30
0.0
 11
8.796105594491621
 21
11.62499996135637
 31
0.0
  0
ARC
  5
AEE
330
1A
100
AcDbEntity
  8
ZUWAKU
100
AcDbCircle
 10
12.47110559449163
 20
9.524999961356344
 30
0.0
 40
2.099999999999999
100
AcDbArc
 50
90.0
 51
180.0
  0
ARC
  5
AEF
330
1A
100
AcDbEntity
  8
ZUWAKU
100
AcDbCircle
 10
12.47110559449163
 20
9.524999961356366
 30
0.0
 40
0.7
100
AcDbArc
 50
90.0
 51
180.0
  0
LINE
  5
AF0
330
1A
100
AcDbEntity
  8
ZUWAKU
100
AcDbLine
 10
9.058605594491606
 20
11.36249996135636
 30
0.0
 11
9.058605594491606
 21
10.48749996135637
 31
0.0
  0
LINE
  5
AF1
330
1A
100
AcDbEntity
  8
ZUWAKU
100
AcDbLine
 10
17.83817306314955
 20
11.44154694543985
 30
0.0
 11
16.90403812583365
 21
8.483452977272882
 31
0.0
  0
LINE
  5
AF2
330
1A
100
AcDbEntity
  8
ZUWAKU
100
AcDbLine
 10
14.92110559449162
 20
11.36249996135636
 30
0.0
 11
14.92110559449162
 21
3.837499961356368
 31
0.0
  0
LINE
  5
AF3
330
1A
100
AcDbEntity
  8
ZUWAKU
100
AcDbLine
 10
16.32110559449165
 20
8.562499961356369
 30
0.0
 11
16.32110559449165
 21
11.36249996135636
 31
0.0
  0
LINE
  5
AF4
330
1A
100
AcDbEntity
  8
ZUWAKU
100
AcDbLine
 10
28.92110559449162
 20
5.499999961356365
 30
0.0
 11
28.92110559449162
 21
11.36249996135636
 31
0.0
  0
LINE
  5
AF5
330
1A
100
AcDbEntity
  8
ZUWAKU
100
AcDbLine
 10
27.52110559449164
 20
11.36249996135636
 30
0.0
 11
27.52110559449164
 21
4.974999961356367
 31
0.0
  0
LINE
  5
AF6
330
1A
100
AcDbEntity
  8
ZUWAKU
100
AcDbLine
 10
21.74610559449161
 20
3.837499961356368
 30
0.0
 11
21.74610559449161
 21
11.36249996135636
 31
0.0
  0
LINE
  5
AF7
330
1A
100
AcDbEntity
  8
ZUWAKU
100
AcDbLine
 10
20.34610559449163
 20
11.36249996135636
 30
0.0
 11
20.34610559449163
 21
3.837499961356368
 31
0.0
  0
LINE
  5
AF8
330
1A
100
AcDbEntity
  8
ZUWAKU
100
AcDbLine
 10
18.65742883558062
 20
9.602523558138079
 30
0.0
 11
18.02505296291269
 21
7.599999961356378
 31
0.0
  0
ARC
  5
AF9
330
1A
100
AcDbEntity
  8
ZUWAKU
100
AcDbCircle
 10
24.89610559449165
 20
9.317398948678716
 30
0.0
 40
2.099999999999999
100
AcDbArc
 50
180.0
 51
225.0
  0
ARC
  5
AFA
330
1A
100
AcDbEntity
  8
ZUWAKU
100
AcDbCircle
 10
24.89610559449165
 20
9.317398948678716
 30
0.0
 40
0.7
100
AcDbArc
 50
180.0000000000016
 51
224.9999999999988
  0
LINE
  5
AFB
330
1A
100
AcDbEntity
  8
ZUWAKU
100
AcDbLine
 10
33.12110559449161
 20
11.36249996135636
 30
0.0
 11
33.12110559449161
 21
3.837499961356368
 31
0.0
  0
LINE
  5
AFC
330
1A
100
AcDbEntity
  8
ZUWAKU
100
AcDbLine
 10
34.52110559449165
 20
3.837499961356368
 30
0.0
 11
34.52110559449165
 21
11.36249996135636
 31
0.0
  0
LINE
  5
AFD
330
1A
100
AcDbEntity
  8
ZUWAKU
100
AcDbLine
 10
30.67110559449162
 20
11.36249996135636
 30
0.0
 11
30.67110559449162
 21
5.499999961356365
 31
0.0
  0
LINE
  5
AFE
330
1A
100
AcDbEntity
  8
ZUWAKU
100
AcDbLine
 10
32.07110559449166
 20
4.974999961356367
 30
0.0
 11
32.07110559449166
 21
11.36249996135636
 31
0.0
  0
LINE
  5
AFF
330
1A
100
AcDbEntity
  8
ZUWAKU
100
AcDbLine
 10
39.56331429109525
 20
14.99999996135636
 30
0.0
 11
39.56331429109525
 21
0.3999999613564
 31
0.0
  0
LINE
  5
B00
330
1A
100
AcDbEntity
  8
ZUWAKU
100
AcDbLine
 10
39.76331429109519
 20
14.99999996135636
 30
0.0
 11
39.7633142910953
 21
0.3999999613564
 31
0.0
  0
LINE
  5
B01
330
1A
100
AcDbEntity
  8
ZUWAKU
100
AcDbLine
 10
39.66331429109516
 20
14.99999996135636
 30
0.0
 11
39.66331429109528
 21
0.3999999613564
 31
0.0
  0
LINE
  5
B02
330
1A
100
AcDbEntity
  8
ZUWAKU
100
AcDbLine
 10
28.92110559449162
 20
3.574999961356367
 30
0.0
 11
30.67110559449162
 21
3.574999961356367
 31
0.0
  0
LINE
  5
B03
330
1A
100
AcDbEntity
  8
ZUWAKU
100
AcDbLine
 10
30.14610559449165
 20
4.974999961356367
 30
0.0
 11
29.44610559449166
 21
4.974999961356367
 31
0.0
  0
LINE
  5
B04
330
1A
100
AcDbEntity
  8
ZUWAKU
100
AcDbLine
 10
20.60860559449162
 20
3.574999961356367
 30
0.0
 11
21.48360559449162
 21
3.574999961356367
 31
0.0
  0
LINE
  5
B05
330
1A
100
AcDbEntity
  8
ZUWAKU
100
AcDbLine
 10
17.83817306314955
 20
3.758452977272881
 30
0.0
 11
16.90403812583365
 21
6.71654694543985
 31
0.0
  0
ARC
  5
B06
330
1A
100
AcDbEntity
  8
ZUWAKU
100
AcDbCircle
 10
16.58360559449164
 20
6.637499961356366
 30
0.0
 40
0.2625
100
AcDbArc
 50
90.0
 51
180.0
  0
ARC
  5
B07
330
1A
100
AcDbEntity
  8
ZUWAKU
100
AcDbCircle
 10
16.65372267623598
 20
6.637499961356366
 30
0.0
 40
0.2625
100
AcDbArc
 50
17.52556837372303
 51
90.0
  0
ARC
  5
B08
330
1A
100
AcDbEntity
  8
ZUWAKU
100
AcDbCircle
 10
15.18360559449161
 20
3.837499961356368
 30
0.0
 40
0.2625
100
AcDbArc
 50
180.0
 51
270.0
  0
ARC
  5
B09
330
1A
100
AcDbEntity
  8
ZUWAKU
100
AcDbCircle
 10
13.43360559449161
 20
4.712499961356368
 30
0.0
 40
0.2625
100
AcDbArc
 50
0.0
 51
90.0
  0
ARC
  5
B0A
330
1A
100
AcDbEntity
  8
ZUWAKU
100
AcDbCircle
 10
13.43360559449161
 20
3.837499961356368
 30
0.0
 40
0.2625
100
AcDbArc
 50
270.0
 51
0.0
  0
LINE
  5
B0B
330
1A
100
AcDbEntity
  8
ZUWAKU
100
AcDbLine
 10
13.69610559449165
 20
4.712499961356368
 30
0.0
 11
13.69610559449165
 21
3.837499961356368
 31
0.0
  0
LINE
  5
B0C
330
1A
100
AcDbEntity
  8
ZUWAKU
100
AcDbLine
 10
16.32110559449165
 20
3.837499961356368
 30
0.0
 11
16.32110559449165
 21
6.637499961356366
 31
0.0
  0
ARC
  5
B0D
330
1A
100
AcDbEntity
  8
ZUWAKU
100
AcDbCircle
 10
16.05860559449161
 20
3.837499961356368
 30
0.0
 40
0.2625
100
AcDbArc
 50
270.0
 51
0.0
  0
LINE
  5
B0E
330
1A
100
AcDbEntity
  8
ZUWAKU
100
AcDbLine
 10
15.18360559449161
 20
3.574999961356367
 30
0.0
 11
16.05860559449161
 21
3.574999961356367
 31
0.0
  0
ARC
  5
B0F
330
1A
100
AcDbEntity
  8
ZUWAKU
100
AcDbCircle
 10
16.58360559449164
 20
8.562499961356369
 30
0.0
 40
0.2625
100
AcDbArc
 50
180.0
 51
270.0
  0
LINE
  5
B10
330
1A
100
AcDbEntity
  8
ZUWAKU
100
AcDbLine
 10
16.58360559449164
 20
6.899999961356367
 30
0.0
 11
16.65372267623598
 21
6.899999961356367
 31
0.0
  0
LINE
  5
B11
330
1A
100
AcDbEntity
  8
ZUWAKU
100
AcDbLine
 10
16.65372267623598
 20
8.299999961356364
 30
0.0
 11
16.58360559449164
 21
8.299999961356364
 31
0.0
  0
ARC
  5
B12
330
1A
100
AcDbEntity
  8
ZUWAKU
100
AcDbCircle
 10
16.65372267623598
 20
8.562499961356369
 30
0.0
 40
0.2625
100
AcDbArc
 50
270.0
 51
342.474431626277
  0
ARC
  5
B13
330
1A
100
AcDbEntity
  8
ZUWAKU
100
AcDbCircle
 10
18.08848851274729
 20
3.837499961356368
 30
0.0
 40
0.2625
100
AcDbArc
 50
197.525568373723
 51
270.0
  0
LINE
  5
B14
330
1A
100
AcDbEntity
  8
ZUWAKU
100
AcDbLine
 10
19.18824865214952
 20
3.916546945439853
 30
0.0
 11
18.02505296291269
 21
7.599999961356378
 31
0.0
  0
ARC
  5
B15
330
1A
100
AcDbEntity
  8
ZUWAKU
100
AcDbCircle
 10
18.93793320255179
 20
3.837499961356368
 30
0.0
 40
0.2625
100
AcDbArc
 50
270.0
 51
17.52556837372303
  0
LINE
  5
B16
330
1A
100
AcDbEntity
  8
ZUWAKU
100
AcDbLine
 10
18.08848851274729
 20
3.574999961356367
 30
0.0
 11
18.93793320255179
 21
3.574999961356367
 31
0.0
  0
ARC
  5
B17
330
1A
100
AcDbEntity
  8
ZUWAKU
100
AcDbCircle
 10
20.60860559449162
 20
3.837499961356368
 30
0.0
 40
0.2625
100
AcDbArc
 50
180.0
 51
270.0
  0
ARC
  5
B18
330
1A
100
AcDbEntity
  8
ZUWAKU
100
AcDbCircle
 10
25.07110559449166
 20
4.974999961356367
 30
0.0
 40
1.399999999999999
100
AcDbArc
 50
270.0
 51
0.0
  0
ARC
  5
B19
330
1A
100
AcDbEntity
  8
ZUWAKU
100
AcDbCircle
 10
28.92110559449162
 20
4.974999961356367
 30
0.0
 40
1.399999999999999
100
AcDbArc
 50
180.0
 51
270.0
  0
LINE
  5
B1A
330
1A
100
AcDbEntity
  8
ZUWAKU
100
AcDbLine
 10
25.85602983498342
 20
7.36752521452578
 30
0.0
 11
24.40113084766102
 21
8.822424201848116
 31
0.0
  0
LINE
  5
B1B
330
1A
100
AcDbEntity
  8
ZUWAKU
100
AcDbLine
 10
23.41118135399989
 20
7.832474708186956
 30
0.0
 11
24.86608034132223
 21
6.377575720864625
 31
0.0
  0
LINE
  5
B1C
330
1A
100
AcDbEntity
  8
ZUWAKU
100
AcDbLine
 10
23.32110559449166
 20
3.574999961356367
 30
0.0
 11
25.07110559449166
 21
3.574999961356367
 31
0.0
  0
LINE
  5
B1D
330
1A
100
AcDbEntity
  8
ZUWAKU
100
AcDbLine
 10
23.32110559449166
 20
4.974999961356367
 30
0.0
 11
24.80860559449161
 21
4.974999961356367
 31
0.0
  0
ARC
  5
B1E
330
1A
100
AcDbEntity
  8
ZUWAKU
100
AcDbCircle
 10
23.32110559449166
 20
4.712499961356368
 30
0.0
 40
0.2625
100
AcDbArc
 50
90.0
 51
180.0
  0
ARC
  5
B1F
330
1A
100
AcDbEntity
  8
ZUWAKU
100
AcDbCircle
 10
21.48360559449162
 20
3.837499961356368
 30
0.0
 40
0.2625
100
AcDbArc
 50
270.0
 51
0.0
  0
ARC
  5
B20
330
1A
100
AcDbEntity
  8
ZUWAKU
100
AcDbCircle
 10
23.32110559449166
 20
3.837499961356368
 30
0.0
 40
0.2625
100
AcDbArc
 50
180.0
 51
270.0
  0
LINE
  5
B21
330
1A
100
AcDbEntity
  8
ZUWAKU
100
AcDbLine
 10
23.05860559449161
 20
3.837499961356368
 30
0.0
 11
23.05860559449161
 21
4.712499961356368
 31
0.0
  0
ARC
  5
B22
330
1A
100
AcDbEntity
  8
ZUWAKU
100
AcDbCircle
 10
24.80860559449161
 20
5.23749996135637
 30
0.0
 40
0.2625
100
AcDbArc
 50
270.0
 51
0.0
  0
ARC
  5
B23
330
1A
100
AcDbEntity
  8
ZUWAKU
100
AcDbCircle
 10
24.37110559449161
 20
5.882600974034041
 30
0.0
 40
0.7
100
AcDbArc
 50
0.0
 51
45.0
  0
LINE
  5
B24
330
1A
100
AcDbEntity
  8
ZUWAKU
100
AcDbLine
 10
25.07110559449166
 20
5.23749996135637
 30
0.0
 11
25.07110559449166
 21
5.882600974034041
 31
0.0
  0
ARC
  5
B25
330
1A
100
AcDbEntity
  8
ZUWAKU
100
AcDbCircle
 10
29.44610559449166
 20
5.499999961356365
 30
0.0
 40
0.525
100
AcDbArc
 50
180.0
 51
270.0
  0
ARC
  5
B26
330
1A
100
AcDbEntity
  8
ZUWAKU
100
AcDbCircle
 10
24.37110559449161
 20
5.882600974034018
 30
0.0
 40
2.099999999999999
100
AcDbArc
 50
0.0
 51
45.0
  0
LINE
  5
B27
330
1A
100
AcDbEntity
  8
ZUWAKU
100
AcDbLine
 10
26.47110559449163
 20
4.974999961356367
 30
0.0
 11
26.47110559449163
 21
5.882600974034041
 31
0.0
  0
ARC
  5
B28
330
1A
100
AcDbEntity
  8
ZUWAKU
100
AcDbCircle
 10
30.67110559449162
 20
4.974999961356367
 30
0.0
 40
1.399999999999999
100
AcDbArc
 50
270.0
 51
0.0
  0
LINE
  5
B29
330
1A
100
AcDbEntity
  8
ZUWAKU
100
AcDbLine
 10
33.38360559449166
 20
3.574999961356367
 30
0.0
 11
34.25860559449166
 21
3.574999961356367
 31
0.0
  0
ARC
  5
B2A
330
1A
100
AcDbEntity
  8
ZUWAKU
100
AcDbCircle
 10
30.14610559449165
 20
5.499999961356365
 30
0.0
 40
0.525
100
AcDbArc
 50
270.0
 51
0.0
  0
ARC
  5
B2B
330
1A
100
AcDbEntity
  8
ZUWAKU
100
AcDbCircle
 10
33.38360559449166
 20
3.837499961356368
 30
0.0
 40
0.2625
100
AcDbArc
 50
180.0
 51
270.0
  0
ARC
  5
B2C
330
1A
100
AcDbEntity
  8
ZUWAKU
100
AcDbCircle
 10
34.25860559449166
 20
3.837499961356368
 30
0.0
 40
0.2625
100
AcDbArc
 50
270.0
 51
0.0
  0
LINE
  5
B2D
330
1A
100
AcDbEntity
  8
ZUWAKU
100
AcDbLine
 10
21.48360559449162
 20
11.62499996135637
 30
0.0
 11
20.60860559449162
 21
11.62499996135637
 31
0.0
  0
LINE
  5
B2E
330
1A
100
AcDbEntity
  8
ZUWAKU
100
AcDbLine
 10
13.69610559449165
 20
11.36249996135636
 30
0.0
 11
13.69610559449165
 21
10.48749996135637
 31
0.0
  0
ARC
  5
B2F
330
1A
100
AcDbEntity
  8
ZUWAKU
100
AcDbCircle
 10
13.43360559449161
 20
10.48749996135637
 30
0.0
 40
0.2625
100
AcDbArc
 50
270.0
 51
0.0
  0
ARC
  5
B30
330
1A
100
AcDbEntity
  8
ZUWAKU
100
AcDbCircle
 10
15.18360559449161
 20
11.36249996135636
 30
0.0
 40
0.2625
100
AcDbArc
 50
90.0
 51
180.0
  0
ARC
  5
B31
330
1A
100
AcDbEntity
  8
ZUWAKU
100
AcDbCircle
 10
13.43360559449161
 20
11.36249996135636
 30
0.0
 40
0.2625
100
AcDbArc
 50
0.0
 51
90.0
  0
LINE
  5
B32
330
1A
100
AcDbEntity
  8
ZUWAKU
100
AcDbLine
 10
16.05860559449161
 20
11.62499996135637
 30
0.0
 11
15.18360559449161
 21
11.62499996135637
 31
0.0
  0
ARC
  5
B33
330
1A
100
AcDbEntity
  8
ZUWAKU
100
AcDbCircle
 10
16.05860559449161
 20
11.36249996135636
 30
0.0
 40
0.2625
100
AcDbArc
 50
0.0
 51
90.0
  0
ARC
  5
B34
330
1A
100
AcDbEntity
  8
ZUWAKU
100
AcDbCircle
 10
18.08848851274729
 20
11.36249996135636
 30
0.0
 40
0.2625
100
AcDbArc
 50
90.0
 51
162.474431626277
  0
LINE
  5
B35
330
1A
100
AcDbEntity
  8
ZUWAKU
100
AcDbLine
 10
19.18824865214952
 20
11.28345297727288
 30
0.0
 11
18.65742883558062
 21
9.602523558138079
 31
0.0
  0
ARC
  5
B36
330
1A
100
AcDbEntity
  8
ZUWAKU
100
AcDbCircle
 10
18.93793320255179
 20
11.36249996135636
 30
0.0
 40
0.2625
100
AcDbArc
 50
342.474431626277
 51
90.0
  0
LINE
  5
B37
330
1A
100
AcDbEntity
  8
ZUWAKU
100
AcDbLine
 10
18.08848851274729
 20
11.62499996135637
 30
0.0
 11
18.93793320255179
 21
11.62499996135637
 31
0.0
  0
ARC
  5
B38
330
1A
100
AcDbEntity
  8
ZUWAKU
100
AcDbCircle
 10
20.60860559449162
 20
11.36249996135636
 30
0.0
 40
0.2625
100
AcDbArc
 50
90.0
 51
180.0
  0
LINE
  5
B39
330
1A
100
AcDbEntity
  8
ZUWAKU
100
AcDbLine
 10
25.94610559449165
 20
10.22499996135636
 30
0.0
 11
24.45860559449164
 21
10.22499996135636
 31
0.0
  0
LINE
  5
B3A
330
1A
100
AcDbEntity
  8
ZUWAKU
100
AcDbLine
 10
24.19610559449166
 20
11.62499996135637
 30
0.0
 11
25.94610559449165
 21
11.62499996135637
 31
0.0
  0
ARC
  5
B3B
330
1A
100
AcDbEntity
  8
ZUWAKU
100
AcDbCircle
 10
24.19610559449166
 20
10.22499996135636
 30
0.0
 40
1.399999999999999
100
AcDbArc
 50
90.0
 51
180.0
  0
LINE
  5
B3C
330
1A
100
AcDbEntity
  8
ZUWAKU
100
AcDbLine
 10
22.79610559449162
 20
10.22499996135636
 30
0.0
 11
22.79610559449162
 21
9.317398948678695
 31
0.0
  0
ARC
  5
B3D
330
1A
100
AcDbEntity
  8
ZUWAKU
100
AcDbCircle
 10
21.48360559449162
 20
11.36249996135636
 30
0.0
 40
0.2625
100
AcDbArc
 50
0.0
 51
90.0
  0
LINE
  5
B3E
330
1A
100
AcDbEntity
  8
ZUWAKU
100
AcDbLine
 10
24.19610559449166
 20
9.962499961356366
 30
0.0
 11
24.19610559449166
 21
9.317398948678695
 31
0.0
  0
ARC
  5
B3F
330
1A
100
AcDbEntity
  8
ZUWAKU
100
AcDbCircle
 10
24.45860559449164
 20
9.962499961356366
 30
0.0
 40
0.2625
100
AcDbArc
 50
90.0
 51
180.0
  0
LINE
  5
B40
330
1A
100
AcDbEntity
  8
ZUWAKU
100
AcDbLine
 10
26.20860559449165
 20
11.36249996135636
 30
0.0
 11
26.20860559449165
 21
10.48749996135637
 31
0.0
  0
ARC
  5
B41
330
1A
100
AcDbEntity
  8
ZUWAKU
100
AcDbCircle
 10
25.94610559449165
 20
10.48749996135637
 30
0.0
 40
0.2625
100
AcDbArc
 50
270.0
 51
0.0
  0
ARC
  5
B42
330
1A
100
AcDbEntity
  8
ZUWAKU
100
AcDbCircle
 10
25.94610559449165
 20
11.36249996135636
 30
0.0
 40
0.2625
100
AcDbArc
 50
0.0
 51
90.0
  0
LINE
  5
B43
330
1A
100
AcDbEntity
  8
ZUWAKU
100
AcDbLine
 10
28.65860559449163
 20
11.62499996135637
 30
0.0
 11
27.78360559449164
 21
11.62499996135637
 31
0.0
  0
ARC
  5
B44
330
1A
100
AcDbEntity
  8
ZUWAKU
100
AcDbCircle
 10
27.78360559449164
 20
11.36249996135636
 30
0.0
 40
0.2625
100
AcDbArc
 50
90.0
 51
180.0
  0
ARC
  5
B45
330
1A
100
AcDbEntity
  8
ZUWAKU
100
AcDbCircle
 10
28.65860559449163
 20
11.36249996135636
 30
0.0
 40
0.2625
100
AcDbArc
 50
0.0
 51
90.0
  0
LINE
  5
B46
330
1A
100
AcDbEntity
  8
ZUWAKU
100
AcDbLine
 10
34.25860559449166
 20
11.62499996135637
 30
0.0
 11
33.38360559449166
 21
11.62499996135637
 31
0.0
  0
ARC
  5
B47
330
1A
100
AcDbEntity
  8
ZUWAKU
100
AcDbCircle
 10
30.93360559449161
 20
11.36249996135636
 30
0.0
 40
0.2625
100
AcDbArc
 50
90.0
 51
180.0
  0
LINE
  5
B48
330
1A
100
AcDbEntity
  8
ZUWAKU
100
AcDbLine
 10
31.80860559449161
 20
11.62499996135637
 30
0.0
 11
30.93360559449161
 21
11.62499996135637
 31
0.0
  0
ARC
  5
B49
330
1A
100
AcDbEntity
  8
ZUWAKU
100
AcDbCircle
 10
31.80860559449161
 20
11.36249996135636
 30
0.0
 40
0.2625
100
AcDbArc
 50
0.0
 51
90.0
  0
ARC
  5
B4A
330
1A
100
AcDbEntity
  8
ZUWAKU
100
AcDbCircle
 10
33.38360559449166
 20
11.36249996135636
 30
0.0
 40
0.2625
100
AcDbArc
 50
90.0
 51
180.0
  0
ARC
  5
B4B
330
1A
100
AcDbEntity
  8
ZUWAKU
100
AcDbCircle
 10
34.25860559449166
 20
11.36249996135636
 30
0.0
 40
0.2625
100
AcDbArc
 50
0.0
 51
90.0
  0
LINE
  5
B4C
330
1A
100
AcDbEntity
  8
ZUWAKU
100
AcDbLine
 10
104.2233001621349
 20
14.99999996135636
 30
0.0
 11
104.223300162135
 21
0.3999999613564
 31
0.0
  0
LINE
  5
B4D
330
1A
100
AcDbEntity
  8
ZUWAKU
100
AcDbLine
 10
104.3233001621349
 20
14.99999996135636
 30
0.0
 11
104.323300162135
 21
0.3999999613564
 31
0.0
  0
LINE
  5
B4E
330
1A
100
AcDbEntity
  8
ZUWAKU
100
AcDbLine
 10
104.123300162135
 20
14.99999996135636
 30
0.0
 11
104.123300162135
 21
0.3999999613564
 31
0.0
  0
TEXT
  5
B4F
330
1A
100
AcDbEntity
  8
moji
100
AcDbText
 10
119.9136008575266
 20
9.002460490060059
 30
0.0
 40
2.799999999999998
  1
伸縮ソケット
 41
0.9
  7
ｽﾀｲﾙ1
100
AcDbText
  0
TEXT
  5
B50
330
1A
100
AcDbEntity
  8
ZUWAKU
100
AcDbText
 10
104.8620226732398
 20
4.827678230549174
 30
0.0
 40
2.0
  1
サイズ
 41
0.9
  7
ｽﾀｲﾙ1
100
AcDbText
  0
TEXT
  5
B51
330
1A
100
AcDbEntity
  8
moji
100
AcDbText
 10
119.9136008575266
 20
1.602460490060075
 30
0.0
 40
2.799999999999998
  1
Y６０Ｈ
 41
0.9
  7
ｽﾀｲﾙ1
100
AcDbText
  0
TEXT
  5
B52
330
1A
100
AcDbEntity
  8
ZUWAKU
100
AcDbText
 10
104.8620226732397
 20
12.02767823054915
 30
0.0
 40
2.0
  1
品名
 41
0.9
  7
ｽﾀｲﾙ1
100
AcDbText
  0
TEXT
  5
B53
330
1A
100
AcDbEntity
  8
ZUWAKU
100
AcDbText
 10
329.1019683607523
 20
9.002460490060059
 30
0.0
 40
2.799999999999998
  1
　　．　　．　　
 41
0.9
  7
ｽﾀｲﾙ1
100
AcDbText
  0
LINE
  5
B54
330
1A
100
AcDbEntity
  8
ZUWAKU
100
AcDbLine
 10
324.4086007722032
 20
7.799999961356382
 30
0.0
 11
348.6245047913717
 21
7.799999961356382
 31
0.0
  0
LINE
  5
B55
330
1A
100
AcDbEntity
  8
ZUWAKU
100
AcDbLine
 10
324.4086007722033
 20
7.699999961356383
 30
0.0
 11
348.6245047913717
 21
7.699999961356382
 31
0.0
  0
LINE
  5
B56
330
1A
100
AcDbEntity
  8
ZUWAKU
100
AcDbLine
 10
324.4086007722032
 20
7.599999961356381
 30
0.0
 11
348.6245047913717
 21
7.599999961356382
 31
0.0
  0
LINE
  5
B57
330
1A
100
AcDbEntity
  8
ZUWAKU
100
AcDbLine
 10
252.5995892661715
 20
7.799999961356382
 30
0.0
 11
276.2634774001573
 21
7.799999961356382
 31
0.0
  0
LINE
  5
B58
330
1A
100
AcDbEntity
  8
ZUWAKU
100
AcDbLine
 10
252.5995892661715
 20
7.699999961356382
 30
0.0
 11
276.2634774001573
 21
7.699999961356382
 31
0.0
  0
LINE
  5
B59
330
1A
100
AcDbEntity
  8
ZUWAKU
100
AcDbLine
 10
252.5995892661715
 20
7.599999961356385
 30
0.0
 11
276.2634774001573
 21
7.599999961356385
 31
0.0
  0
LINE
  5
B5A
330
1A
100
AcDbEntity
  8
ZUWAKU
100
AcDbLine
 10
252.3995892661716
 20
14.99999996135636
 30
0.0
 11
252.3995892661716
 21
0.3999999613564
 31
0.0
  0
LINE
  5
B5B
330
1A
100
AcDbEntity
  8
ZUWAKU
100
AcDbLine
 10
252.5995892661715
 20
14.99999996135636
 30
0.0
 11
252.5995892661716
 21
0.3999999613564
 31
0.0
  0
LINE
  5
B5C
330
1A
100
AcDbEntity
  8
ZUWAKU
100
AcDbLine
 10
252.4995892661715
 20
14.99999996135636
 30
0.0
 11
252.4995892661716
 21
0.3999999613564
 31
0.0
  0
TEXT
  5
B5D
330
1A
100
AcDbEntity
  8
moji
100
AcDbText
 10
264.0204535032575
 20
9.002460490060059
 30
0.0
 40
2.799999999999998
  1
Ａ３
 41
0.9
  7
ｽﾀｲﾙ1
100
AcDbText
  0
LINE
  5
B5E
330
1A
100
AcDbEntity
  8
ZUWAKU
100
AcDbLine
 10
223.7121815025968
 20
14.99999996135636
 30
0.0
 11
223.7121815025968
 21
0.3999999613564
 31
0.0
  0
LINE
  5
B5F
330
1A
100
AcDbEntity
  8
ZUWAKU
100
AcDbLine
 10
223.9121815025967
 20
14.99999996135636
 30
0.0
 11
223.9121815025968
 21
0.3999999613564
 31
0.0
  0
LINE
  5
B60
330
1A
100
AcDbEntity
  8
ZUWAKU
100
AcDbLine
 10
223.8121815025967
 20
14.99999996135636
 30
0.0
 11
223.8121815025968
 21
0.3999999613564
 31
0.0
  0
TEXT
  5
B61
330
1A
100
AcDbEntity
  8
moji
100
AcDbText
 10
230.0556265037627
 20
5.971308822186357
 30
0.0
 40
2.799999999999998
  1
ＰＦ７８
 41
0.9
  7
ｽﾀｲﾙ1
100
AcDbText
  0
TEXT
  5
B63
330
1A
100
AcDbEntity
  8
ZUWAKU
100
AcDbText
 10
253.3383117772764
 20
4.827678230549174
 30
0.0
 40
2.0
  1
縮尺
 41
0.9
  7
ｽﾀｲﾙ1
100
AcDbText
  0
TEXT
  5
B64
330
1A
100
AcDbEntity
  8
moji
100
AcDbText
 10
264.0204535032575
 20
1.602460490060075
 30
0.0
 40
2.799999999999998
  1
１/１
 41
0.9
  7
ｽﾀｲﾙ1
100
AcDbText
  0
TEXT
  5
B65
330
1A
100
AcDbEntity
  8
ZUWAKU
100
AcDbText
 10
224.6509040137015
 20
12.02767823054915
 30
0.0
 40
2.0
  1
品番
 41
0.9
  7
ｽﾀｲﾙ1
100
AcDbText
  0
TEXT
  5
B66
330
1A
100
AcDbEntity
  8
ZUWAKU
100
AcDbText
 10
253.3383117772763
 20
12.02767823054915
 30
0.0
 40
2.0
  1
用紙
 41
0.9
  7
ｽﾀｲﾙ1
100
AcDbText
  0
LINE
  5
B67
330
1A
100
AcDbEntity
  8
ZUWAKU
100
AcDbLine
 10
276.2634774001573
 20
14.99999996135636
 30
0.0
 11
276.2634774001573
 21
0.3999999613564
 31
0.0
  0
LINE
  5
B68
330
1A
100
AcDbEntity
  8
ZUWAKU
100
AcDbLine
 10
276.4634774001572
 20
14.99999996135636
 30
0.0
 11
276.4634774001573
 21
0.3999999613564
 31
0.0
  0
LINE
  5
B69
330
1A
100
AcDbEntity
  8
ZUWAKU
100
AcDbLine
 10
276.3634774001572
 20
14.99999996135636
 30
0.0
 11
276.3634774001573
 21
0.3999999613564
 31
0.0
  0
LINE
  5
B6A
330
1A
100
AcDbEntity
  8
ZUWAKU
100
AcDbLine
 10
324.2086007722033
 20
14.99999996135636
 30
0.0
 11
324.2086007722033
 21
0.3999999613564
 31
0.0
  0
LINE
  5
B6B
330
1A
100
AcDbEntity
  8
ZUWAKU
100
AcDbLine
 10
324.4086007722033
 20
14.99999996135636
 30
0.0
 11
324.4086007722034
 21
0.3999999613564
 31
0.0
  0
LINE
  5
B6C
330
1A
100
AcDbEntity
  8
ZUWAKU
100
AcDbLine
 10
324.3086007722033
 20
14.99999996135636
 30
0.0
 11
324.3086007722034
 21
0.3999999613564
 31
0.0
  0
TEXT
  5
B6D
330
1A
100
AcDbEntity
  8
ZUWAKU
100
AcDbText
 10
325.1473232833081
 20
12.02767823054915
 30
0.0
 40
2.0
  1
DATE
 41
0.9
  7
ｽﾀｲﾙ1
100
AcDbText
  0
TEXT
  5
B6E
330
1A
100
AcDbEntity
  8
ZUWAKU
100
AcDbText
 10
353.6017881894827
 20
6.244207614894832
 30
0.0
 40
3.0
  1
積水化学工業株式会社
 41
0.9
  7
ｽﾀｲﾙ1
100
AcDbText
  0
LINE
  5
B6F
330
1A
100
AcDbEntity
  8
ZUWAKU
100
AcDbLine
 10
348.9245047913716
 20
14.99999996135636
 30
0.0
 11
348.9245047913718
 21
0.3999999613564
 31
0.0
  0
LINE
  5
B70
330
1A
100
AcDbEntity
  8
ZUWAKU
100
AcDbLine
 10
348.8245047913716
 20
14.99999996135636
 30
0.0
 11
348.8245047913717
 21
0.3999999613564
 31
0.0
  0
LINE
  5
B71
330
1A
100
AcDbEntity
  8
ZUWAKU
100
AcDbLine
 10
348.7245047913717
 20
14.99999996135636
 30
0.0
 11
348.7245047913717
 21
0.3999999613564
 31
0.0
  0
LINE
  5
B72
330
1A
100
AcDbEntity
  8
ZUWAKU
100
AcDbLine
 10
348.6245047913717
 20
14.99999996135636
 30
0.0
 11
348.6245047913717
 21
0.3999999613564
 31
0.0
  0
LINE
  5
1049
330
1A
100
AcDbEntity
  8
CENTER L
  6
CENTER
 62
     1
 48
5.0
100
AcDbLine
 10
165.7111702611223
 20
61.09728453501753
 30
0.0
 11
165.7111702611223
 21
227.1267422095358
 31
0.0
  0
LINE
  5
147C
330
1A
100
AcDbEntity
  8
0
  6
SLD-実線
 62
     3
100
AcDbLine
 10
137.8611700733677
 20
68.25156185459632
 30
0.0
 11
138.5488307227865
 21
68.25156185459629
 31
0.0
  0
LWPOLYLINE
  5
147D
330
1A
100
AcDbEntity
  8
0
  6
SLD-実線
 62
     3
100
AcDbPolyline
 90
        5
 70
     0
 43
0.0
 10
137.3611895491854
 20
72.2514041854097
 10
137.4667940785662
 20
71.40657353829877
 10
137.6021785785929
 20
70.32349008750457
 10
137.8052534659878
 20
68.69888726305503
 10
137.8611700733677
 20
68.25156185459632
  0
LINE
  5
147E
330
1A
100
AcDbEntity
  8
0
  6
SLD-実線
 62
     3
100
AcDbLine
 10
193.561170448877
 20
68.25156185459632
 30
0.0
 11
192.873509799458
 21
68.25156185459629
 31
0.0
  0
LWPOLYLINE
  5
147F
330
1A
100
AcDbEntity
  8
0
  6
SLD-実線
 62
     3
100
AcDbPolyline
 90
        5
 70
     0
 43
0.0
 10
194.0611509730593
 20
72.2514041854097
 10
193.9555464436785
 20
71.40657353829877
 10
193.8201619436518
 20
70.32349008750457
 10
193.6170870562569
 20
68.69888726305503
 10
193.561170448877
 20
68.25156185459632
  0
LINE
  5
1480
330
1A
100
AcDbEntity
  8
0
  6
SLD-実線
 62
     3
100
AcDbLine
 10
136.6690306117312
 20
97.95963518354398
 30
0.0
 11
137.3611709227339
 21
72.25156064760223
 31
0.0
  0
LINE
  5
1481
330
1A
100
AcDbEntity
  8
0
  6
SLD-実線
 62
     3
100
AcDbLine
 10
137.3611709227339
 20
72.25156064760223
 30
0.0
 11
137.3611895491854
 21
72.2514041854097
 31
0.0
  0
ARC
  5
1482
330
1A
100
AcDbEntity
  8
0
  6
SLD-実線
 62
     3
100
AcDbCircle
 10
137.7178975999451
 20
75.00607402698218
 30
0.0
 40
2.777669269287783
100
AcDbArc
 50
262.6217052336505
 51
277.381884118375
  0
LINE
  5
1483
330
1A
100
AcDbEntity
  8
0
  6
SLD-実線
 62
     3
100
AcDbLine
 10
194.7533099105135
 20
97.95963518354398
 30
0.0
 11
194.0611695995108
 21
72.25156064760223
 31
0.0
  0
ARC
  5
1484
330
1A
100
AcDbEntity
  8
0
  6
SLD-実線
 62
     3
100
AcDbCircle
 10
193.7044429222995
 20
75.00607402698218
 30
0.0
 40
2.777669269287785
100
AcDbArc
 50
262.6181158816251
 51
277.3782947663526
  0
LINE
  5
1485
330
1A
100
AcDbEntity
  8
0
  6
SLD-実線
 62
     3
100
AcDbLine
 10
194.0611695995108
 20
72.25156064760223
 30
0.0
 11
194.0611509730593
 21
72.2514041854097
 31
0.0
  0
ARC
  5
1486
330
1A
100
AcDbEntity
  8
0
  6
SLD-実線
 62
     3
100
AcDbCircle
 10
136.3691384760844
 20
97.95156118404408
 30
0.0
 40
0.3000000000000076
100
AcDbArc
 50
1.542206127433541
 51
90.0
  0
ARC
  5
1488
330
1A
100
AcDbEntity
  8
0
  6
SLD-実線
 62
     3
100
AcDbCircle
 10
195.0532020461603
 20
97.95156118404408
 30
0.0
 40
0.2999999999999829
100
AcDbArc
 50
90.0
 51
178.4577938725665
  0
LINE
  5
148A
330
1A
100
AcDbEntity
  8
0
  6
SLD-実線
 62
     3
100
AcDbLine
 10
132.8611767043844
 20
98.25156118404414
 30
0.0
 11
133.0052634825483
 21
98.25156118404406
 31
0.0
  0
ARC
  5
148B
330
1A
100
AcDbEntity
  8
0
  6
SLD-実線
 62
     3
100
AcDbCircle
 10
132.8611707671133
 20
98.55156032503124
 30
0.0
 40
0.2999991410458937
100
AcDbArc
 50
179.9998332187449
 51
270.0011339385024
  0
LINE
  5
148C
330
1A
100
AcDbEntity
  8
0
  6
SLD-実線
 62
     3
100
AcDbLine
 10
198.5611638178601
 20
98.25156118404414
 30
0.0
 11
198.4170770396963
 21
98.25156118404406
 31
0.0
  0
ARC
  5
148D
330
1A
100
AcDbEntity
  8
0
  6
SLD-実線
 62
     3
100
AcDbCircle
 10
198.5611697551313
 20
98.55156032503124
 30
0.0
 40
0.2999991410459506
100
AcDbArc
 50
269.9988660615106
 51
0.0001667812550608
  0
LINE
  5
148E
330
1A
100
AcDbEntity
  8
0
  6
SLD-実線
 62
     3
100
AcDbLine
 10
132.7052695801035
 20
221.7515581442071
 30
0.0
 11
132.5611716260687
 21
221.7515581442072
 31
0.0
  0
LINE
  5
148F
330
1A
100
AcDbEntity
  8
0
  6
SLD-実線
 62
     3
100
AcDbLine
 10
132.5611716260687
 20
98.55156119829336
 30
0.0
 11
132.5611716260687
 21
221.7515581442072
 31
0.0
  0
LINE
  5
1491
330
1A
100
AcDbEntity
  8
0
  6
SLD-実線
 62
     3
100
AcDbLine
 10
198.7170709421412
 20
221.7515581442071
 30
0.0
 11
198.861168896176
 21
221.7515581442072
 31
0.0
  0
LINE
  5
1493
330
1A
100
AcDbEntity
  8
0
  6
SLD-実線
 62
     3
100
AcDbLine
 10
198.861168896176
 20
98.55156119829336
 30
0.0
 11
198.861168896176
 21
221.7515581442072
 31
0.0
  0
LINE
  5
1494
330
1A
100
AcDbEntity
  8
0
  6
SLD-実線
 62
     3
100
AcDbLine
 10
133.0052634825483
 20
98.25156118404406
 30
0.0
 11
133.6356645574347
 21
98.25156118404406
 31
0.0
  0
LINE
  5
1496
330
1A
100
AcDbEntity
  8
0
  6
SLD-実線
 62
     3
100
AcDbLine
 10
198.4170770396963
 20
98.25156118404406
 30
0.0
 11
197.78667596481
 21
98.25156118404406
 31
0.0
  0
LINE
  5
1498
330
1A
100
AcDbEntity
  8
0
  6
SLD-実線
 62
     3
100
AcDbLine
 10
133.6058398833052
 20
221.7515581442071
 30
0.0
 11
132.7052695801035
 21
221.7515581442071
 31
0.0
  0
LINE
  5
149B
330
1A
100
AcDbEntity
  8
0
  6
SLD-実線
 62
     3
100
AcDbLine
 10
197.8165006389395
 20
221.7515581442071
 30
0.0
 11
198.7170709421412
 21
221.7515581442071
 31
0.0
  0
LINE
  5
149E
330
1A
100
AcDbEntity
  8
0
  6
SLD-実線
 62
     3
100
AcDbLine
 10
138.5488307227865
 20
68.25156185459629
 30
0.0
 11
146.6033255805746
 21
68.25156185459629
 31
0.0
  0
LINE
  5
149F
330
1A
100
AcDbEntity
  8
0
  6
SLD-実線
 62
     3
100
AcDbLine
 10
138.0747782190815
 20
72.25142653715147
 30
0.0
 11
138.0797440310494
 21
72.25156064760223
 31
0.0
  0
LINE
  5
14A1
330
1A
100
AcDbEntity
  8
0
  6
SLD-実線
 62
     3
100
AcDbLine
 10
192.873509799458
 20
68.25156185459629
 30
0.0
 11
184.8190149416701
 21
68.25156185459629
 31
0.0
  0
LINE
  5
14A3
330
1A
100
AcDbEntity
  8
0
  6
SLD-実線
 62
     3
100
AcDbLine
 10
193.3475623031632
 20
72.25142653715147
 30
0.0
 11
193.3425964911953
 21
72.25156064760223
 31
0.0
  0
LINE
  5
14A5
330
1A
100
AcDbEntity
  8
0
  6
SLD-実線
 62
     3
100
AcDbLine
 10
146.2244784583822
 20
72.25156064760223
 30
0.0
 11
138.0797440310494
 21
72.25156064760223
 31
0.0
  0
LINE
  5
14A7
330
1A
100
AcDbEntity
  8
0
  6
SLD-実線
 62
     3
100
AcDbLine
 10
185.1978620638624
 20
72.25156064760223
 30
0.0
 11
193.3425964911953
 21
72.25156064760223
 31
0.0
  0
LINE
  5
14A8
330
1A
100
AcDbEntity
  8
0
  6
SLD-実線
 62
     3
100
AcDbLine
 10
183.8748270770088
 20
68.25156185459629
 30
0.0
 11
147.5475134452358
 21
68.25156185459629
 31
0.0
  0
LINE
  5
14AE
330
1A
100
AcDbEntity
  8
0
  6
SLD-実線
 62
     3
100
AcDbLine
 10
146.6033255805746
 20
68.25156185459629
 30
0.0
 11
147.5475134452358
 21
68.25156185459629
 31
0.0
  0
LWPOLYLINE
  5
14AF
330
1A
100
AcDbEntity
  8
0
  6
SLD-実線
 62
     3
100
AcDbPolyline
 90
        5
 70
     0
 43
0.0
 10
147.5475134452358
 20
68.25156185459629
 10
147.4560594310537
 20
69.24039359819428
 10
147.3560204853789
 20
70.32347146105305
 10
147.2062228371874
 20
71.94811153840555
 10
147.1782924731747
 20
72.2514041854097
  0
LWPOLYLINE
  5
14B0
330
1A
100
AcDbEntity
  8
0
  6
SLD-実線
 62
     3
100
AcDbPolyline
 90
        5
 70
     0
 43
0.0
 10
183.8748270770088
 20
68.25156185459629
 10
183.9662810911909
 20
69.24039359819428
 10
184.0663200368658
 20
70.32347146105305
 10
184.2161176850573
 20
71.94811153840555
 10
184.24404804907
 20
72.2514041854097
  0
LINE
  5
14B1
330
1A
100
AcDbEntity
  8
0
  6
SLD-実線
 62
     3
100
AcDbLine
 10
184.8190149416701
 20
68.25156185459629
 30
0.0
 11
183.8748270770088
 21
68.25156185459629
 31
0.0
  0
LINE
  5
14B3
330
1A
100
AcDbEntity
  8
0
  6
SLD-実線
 62
     3
100
AcDbLine
 10
147.1838543315903
 20
72.25156064760223
 30
0.0
 11
184.2384861906544
 21
72.25156064760223
 31
0.0
  0
LINE
  5
14B5
330
1A
100
AcDbEntity
  8
0
  6
SLD-実線
 62
     3
100
AcDbLine
 10
146.2244784583822
 20
72.25156064760223
 30
0.0
 11
146.2259499480501
 21
72.25142653715147
 31
0.0
  0
ARC
  5
14B6
330
1A
100
AcDbEntity
  8
0
  6
SLD-実線
 62
     3
100
AcDbCircle
 10
146.7022546685496
 20
77.9376688121837
 30
0.0
 40
5.706156096457017
100
AcDbArc
 50
265.211830737126
 51
274.7854797673726
  0
LINE
  5
14B7
330
1A
100
AcDbEntity
  8
0
  6
SLD-実線
 62
     3
100
AcDbLine
 10
147.1782924731747
 20
72.2514041854097
 30
0.0
 11
147.1838543315903
 21
72.25156064760223
 31
0.0
  0
LINE
  5
14B8
330
1A
100
AcDbEntity
  8
0
  6
SLD-実線
 62
     3
100
AcDbLine
 10
147.1838543315903
 20
72.25156064760223
 30
0.0
 11
146.9611341258064
 21
97.9596351835439
 31
0.0
  0
LINE
  5
14BA
330
1A
100
AcDbEntity
  8
0
  6
SLD-実線
 62
     3
100
AcDbLine
 10
184.2384861906544
 20
72.25156064760223
 30
0.0
 11
184.4612063964381
 21
97.9596351835439
 31
0.0
  0
LINE
  5
14BB
330
1A
100
AcDbEntity
  8
0
  6
SLD-実線
 62
     3
100
AcDbLine
 10
184.24404804907
 20
72.2514041854097
 30
0.0
 11
184.2384861906544
 21
72.25156064760223
 31
0.0
  0
ARC
  5
14BC
330
1A
100
AcDbEntity
  8
0
  6
SLD-実線
 62
     3
100
AcDbCircle
 10
184.7200858536951
 20
77.9376688121837
 30
0.0
 40
5.706156096457017
100
AcDbArc
 50
265.2145202326307
 51
274.788169262874
  0
LINE
  5
14BD
330
1A
100
AcDbEntity
  8
0
  6
SLD-実線
 62
     3
100
AcDbLine
 10
185.1978620638624
 20
72.25156064760223
 30
0.0
 11
185.1963905741945
 21
72.25142653715147
 31
0.0
  0
LINE
  5
14C1
330
1A
100
AcDbEntity
  8
0
  6
SLD-実線
 62
     3
100
AcDbLine
 10
146.9611341258064
 20
97.9596351835439
 30
0.0
 11
146.9611341258064
 21
98.251561184044
 31
0.0
  0
LINE
  5
14C3
330
1A
100
AcDbEntity
  8
0
  6
SLD-実線
 62
     3
100
AcDbLine
 10
184.4612063964381
 20
97.9596351835439
 30
0.0
 11
184.4612063964381
 21
98.251561184044
 31
0.0
  0
LINE
  5
14C5
330
1A
100
AcDbEntity
  8
0
  6
SLD-実線
 62
     3
100
AcDbLine
 10
133.6356645574347
 20
98.25156118404406
 30
0.0
 11
141.9645531227366
 21
98.251561184044
 31
0.0
  0
LINE
  5
14C7
330
1A
100
AcDbEntity
  8
0
  6
SLD-実線
 62
     3
100
AcDbLine
 10
197.78667596481
 20
98.25156118404406
 30
0.0
 11
189.4577873995081
 21
98.251561184044
 31
0.0
  0
LINE
  5
14C9
330
1A
100
AcDbEntity
  8
0
  6
SLD-実線
 62
     3
100
AcDbLine
 10
133.6058398833052
 20
221.7515581442071
 30
0.0
 11
141.6660567869917
 21
221.7515581442071
 31
0.0
  0
LINE
  5
14CC
330
1A
100
AcDbEntity
  8
0
  6
SLD-実線
 62
     3
100
AcDbLine
 10
197.8165006389395
 20
221.7515581442071
 30
0.0
 11
189.756283735253
 21
221.7515581442071
 31
0.0
  0
LINE
  5
14D0
330
1A
100
AcDbEntity
  8
0
  6
SLD-実線
 62
     3
100
AcDbLine
 10
141.9645531227366
 20
98.251561184044
 30
0.0
 11
142.6610445728079
 21
98.251561184044
 31
0.0
  0
LINE
  5
14D2
330
1A
100
AcDbEntity
  8
0
  6
SLD-実線
 62
     3
100
AcDbLine
 10
189.4577873995081
 20
98.251561184044
 30
0.0
 11
188.7612959494368
 21
98.251561184044
 31
0.0
  0
LINE
  5
14D3
330
1A
100
AcDbEntity
  8
0
  6
SLD-実線
 62
     3
100
AcDbLine
 10
142.6610445728079
 20
98.251561184044
 30
0.0
 11
142.6610445728079
 21
98.55156119829324
 31
0.0
  0
LINE
  5
14D4
330
1A
100
AcDbEntity
  8
0
  6
SLD-実線
 62
     3
100
AcDbLine
 10
188.7612959494368
 20
98.251561184044
 30
0.0
 11
142.6610445728079
 21
98.251561184044
 31
0.0
  0
LINE
  5
14D5
330
1A
100
AcDbEntity
  8
0
  6
SLD-実線
 62
     3
100
AcDbLine
 10
188.7612959494368
 20
98.251561184044
 30
0.0
 11
188.7612959494368
 21
98.55156119829324
 31
0.0
  0
LINE
  5
14D6
330
1A
100
AcDbEntity
  8
0
  6
SLD-実線
 62
     3
100
AcDbLine
 10
142.6610445728079
 20
221.7515581442071
 30
0.0
 11
141.6660567869917
 21
221.7515581442071
 31
0.0
  0
LINE
  5
14D9
330
1A
100
AcDbEntity
  8
0
  6
SLD-実線
 62
     3
100
AcDbLine
 10
142.6610445728079
 20
221.7515581442071
 30
0.0
 11
188.7612959494368
 21
221.7515581442071
 31
0.0
  0
LINE
  5
14DA
330
1A
100
AcDbEntity
  8
0
  6
SLD-実線
 62
     3
100
AcDbLine
 10
142.6610445728079
 20
98.55156119829324
 30
0.0
 11
142.6610445728079
 21
221.7515581442071
 31
0.0
  0
LINE
  5
14DC
330
1A
100
AcDbEntity
  8
0
  6
SLD-実線
 62
     3
100
AcDbLine
 10
188.7612959494368
 20
221.7515581442071
 30
0.0
 11
189.756283735253
 21
221.7515581442071
 31
0.0
  0
LINE
  5
14DD
330
1A
100
AcDbEntity
  8
0
  6
SLD-実線
 62
     3
100
AcDbLine
 10
188.7612959494368
 20
98.55156119829324
 30
0.0
 11
188.7612959494368
 21
221.7515581442071
 31
0.0
  0
LINE
  5
17F5
330
1A
100
AcDbEntity
  8
0
 62
     3
100
AcDbLine
 10
163.2111702611223
 20
157.7515581442073
 30
0.0
 11
161.2111702611223
 21
157.7515581442073
 31
0.0
  0
LINE
  5
17F6
330
1A
100
AcDbEntity
  8
0
 62
     3
100
AcDbLine
 10
165.7111702611223
 20
172.7515581442073
 30
0.0
 11
168.2111702611223
 21
172.7515581442073
 31
0.0
  0
LINE
  5
17F7
330
1A
100
AcDbEntity
  8
0
 62
     3
100
AcDbLine
 10
168.2111702611223
 20
172.7515581442073
 30
0.0
 11
168.2111702611223
 21
157.7515581442073
 31
0.0
  0
LINE
  5
17F8
330
1A
100
AcDbEntity
  8
0
 62
     3
100
AcDbLine
 10
168.2111702611223
 20
157.7515581442073
 30
0.0
 11
170.2111702611223
 21
157.7515581442073
 31
0.0
  0
LINE
  5
17F9
330
1A
100
AcDbEntity
  8
0
 62
     3
100
AcDbLine
 10
163.2111702611223
 20
172.7515581442073
 30
0.0
 11
163.2111702611223
 21
157.7515581442073
 31
0.0
  0
LINE
  5
17FA
330
1A
100
AcDbEntity
  8
0
 62
     3
100
AcDbLine
 10
165.7111702611223
 20
172.7515581442073
 30
0.0
 11
163.2111702611223
 21
172.7515581442073
 31
0.0
  0
LWPOLYLINE
  5
17FB
330
1A
100
AcDbEntity
  8
0
 62
     3
100
AcDbPolyline
 90
        4
 70
     1
 43
0.0
 10
155.7111702611223
 20
150.7515581442073
 10
175.7111702611223
 20
150.7515581442073
 10
175.7111702611223
 20
152.7515581442073
 10
155.7111702611223
 20
152.7515581442073
  0
LINE
  5
17FC
330
1A
100
AcDbEntity
  8
0
 62
     3
100
AcDbLine
 10
161.2111702611223
 20
157.7515581442073
 30
0.0
 11
165.7111702611223
 21
152.7515581442073
 31
0.0
  0
LINE
  5
17FD
330
1A
100
AcDbEntity
  8
0
 62
     3
100
AcDbLine
 10
170.2111702611223
 20
157.7515581442073
 30
0.0
 11
165.7111702611223
 21
152.7515581442073
 31
0.0
  0
DIMENSION
  5
17FE
330
1A
100
AcDbEntity
  8
SUNPOU
100
AcDbDimension
  2
*D4
 10
132.5611716260687
 20
233.8017514746283
 30
0.0
 11
165.7111702611223
 21
236.3017514746283
 31
0.0
 70
    32
 71
     5
 42
66.2999972701073
  3
STANDARD
100
AcDbAlignedDimension
 13
198.861168896176
 23
224.28688281363
 33
0.0
 14
132.5611716260687
 24
224.28688281363
 34
0.0
100
AcDbRotatedDimension
1001
ACAD
1000
DSTYLE
1002
{
1070
    41
1040
3.0
1070
    42
1040
3.0
1070
    43
1040
7.0
1070
    44
1040
1.5
1070
    73
1070
     0
1070
    74
1070
     0
1070
    77
1070
     1
1070
   140
1040
3.0
1070
   141
1040
150.0
1070
   147
1040
1.0
1070
   172
1070
     1
1070
   173
1070
     1
1070
   176
1070
   256
1070
   177
1070
   256
1070
   178
1070
   256
1070
   271
1070
     0
1070
   272
1070
     0
1070
   341
1005
B2
1070
   343
1005
B2
1070
   344
1005
B2
1070
   371
1070
    -1
1070
   372
1070
    -1
1002
}
  0
DIMENSION
  5
1843
330
1A
100
AcDbEntity
  8
SUNPOU
100
AcDbDimension
  2
*D5
 10
218.2812121080234
 20
221.7515581442072
 30
0.0
 11
218.2812121080233
 21
186.7515581442073
 31
0.0
 70
   160
  1
<>（たてとい差し込み代）
 71
     5
 42
69.99999999999992
  3
STANDARD
100
AcDbAlignedDimension
 13
175.7111702611223
 23
151.7515581442073
 33
0.0
 14
198.861168896176
 24
221.7515581442072
 34
0.0
 50
90.0
100
AcDbRotatedDimension
1001
ACAD
1000
DSTYLE
1002
{
1070
    41
1040
3.0
1070
    42
1040
3.0
1070
    43
1040
7.0
1070
    44
1040
1.5
1070
    73
1070
     0
1070
    74
1070
     0
1070
    77
1070
     1
1070
   140
1040
3.0
1070
   141
1040
150.0
1070
   147
1040
1.0
1070
   172
1070
     1
1070
   173
1070
     1
1070
   176
1070
   256
1070
   177
1070
   256
1070
   178
1070
   256
1070
   271
1070
     0
1070
   272
1070
     0
1070
   341
1005
B2
1070
   343
1005
B2
1070
   344
1005
B2
1070
   371
1070
    -1
1070
   372
1070
    -1
1002
}
  0
DIMENSION
  5
1850
330
1A
100
AcDbEntity
  8
SUNPOU
100
AcDbDimension
  2
*D6
 10
236.382903333309
 20
98.25156118404429
 30
0.0
 11
233.8829033333091
 21
160.0015596641258
 31
0.0
 70
    32
 71
     5
 42
123.4999969601629
  3
STANDARD
100
AcDbAlignedDimension
 13
198.861168896176
 23
221.7515581442072
 33
0.0
 14
198.861168896249
 24
98.25156118404429
 34
0.0
 50
90.0
100
AcDbRotatedDimension
1001
ACAD
1000
DSTYLE
1002
{
1070
    41
1040
3.0
1070
    42
1040
3.0
1070
    43
1040
7.0
1070
    44
1040
1.5
1070
    73
1070
     0
1070
    74
1070
     0
1070
    77
1070
     1
1070
   140
1040
3.0
1070
   141
1040
150.0
1070
   147
1040
1.0
1070
   172
1070
     1
1070
   173
1070
     1
1070
   176
1070
   256
1070
   177
1070
   256
1070
   178
1070
   256
1070
   271
1070
     0
1070
   272
1070
     0
1070
   341
1005
B2
1070
   343
1005
B2
1070
   344
1005
B2
1070
   371
1070
    -1
1070
   372
1070
    -1
1002
}
  0
DIMENSION
  5
185D
330
1A
100
AcDbEntity
  8
SUNPOU
100
AcDbDimension
  2
*D7
 10
251.4117582496185
 20
68.2515618545963
 30
0.0
 11
251.4117582496185
 21
145.0015599994018
 31
0.0
 70
   160
 71
     5
 42
153.4999962896109
  3
STANDARD
100
AcDbAlignedDimension
 13
198.861168896176
 23
221.7515581442072
 33
0.0
 14
193.561170448877
 24
68.25156185459632
 34
0.0
 50
90.0
100
AcDbRotatedDimension
1001
ACAD
1000
DSTYLE
1002
{
1070
    41
1040
3.0
1070
    42
1040
3.0
1070
    43
1040
7.0
1070
    44
1040
1.5
1070
    73
1070
     0
1070
    74
1070
     0
1070
    77
1070
     1
1070
   140
1040
3.0
1070
   141
1040
150.0
1070
   147
1040
1.0
1070
   172
1070
     1
1070
   173
1070
     1
1070
   176
1070
   256
1070
   177
1070
   256
1070
   178
1070
   256
1070
   271
1070
     0
1070
   272
1070
     0
1070
   341
1005
B2
1070
   343
1005
B2
1070
   344
1005
B2
1070
   371
1070
    -1
1070
   372
1070
    -1
1002
}
  0
DIMENSION
  5
1874
330
1A
100
AcDbEntity
  8
SUNPOU
100
AcDbDimension
  2
*D8
 10
194.0611509730594
 20
52.35385676960028
 30
0.0
 11
165.7111609478966
 21
54.85385676960028
 31
0.0
 70
    32
 71
     5
 42
56.6999800503255
  3
STANDARD
100
AcDbAlignedDimension
 13
137.3611709227339
 23
72.25156064760223
 33
0.0
 14
194.0611509730594
 24
72.2514041854097
 34
0.0
100
AcDbRotatedDimension
1001
ACAD
1000
DSTYLE
1002
{
1070
    41
1040
3.0
1070
    42
1040
3.0
1070
    43
1040
7.0
1070
    44
1040
1.5
1070
    73
1070
     0
1070
    74
1070
     0
1070
    77
1070
     1
1070
   140
1040
3.0
1070
   141
1040
150.0
1070
   147
1040
1.0
1070
   172
1070
     1
1070
   173
1070
     1
1070
   176
1070
   256
1070
   177
1070
   256
1070
   178
1070
   256
1070
   271
1070
     0
1070
   272
1070
     0
1070
   341
1005
B2
1070
   343
1005
B2
1070
   344
1005
B2
1070
   371
1070
    -1
1070
   372
1070
    -1
1002
}
  0
VIEWPORT
  5
22
102
{ACAD_XDICTIONARY
360
192C
102
}
330
17
100
AcDbEntity
 67
     1
  8
0
100
AcDbViewport
 10
134.0391198605442
 20
109.2597881323402
 30
0.0
 40
607.7011085072292
 41
311.6028085936259
 68
     1
 69
     1
 12
134.0391198605442
 22
109.2597881323402
 13
0.0
 23
0.0
 14
1.0
 24
1.0
 15
10.0
 25
10.0
 16
0.0
 26
0.0
 36
1.0
 17
0.0
 27
0.0
 37
0.0
 42
50.0
 43
0.0
 44
0.0
 45
311.6028085936259
 50
0.0
 51
0.0
 72
   100
 90
    32768
  1

281
     0
 71
     1
 74
     0
110
0.0
120
0.0
130
0.0
111
1.0
121
0.0
131
0.0
112
0.0
122
1.0
132
0.0
 79
     0
146
0.0
  0
VIEWPORT
  5
64
102
{ACAD_XDICTIONARY
360
192E
102
}
330
17
100
AcDbEntity
 67
     1
  8
VIEWPORT
100
AcDbViewport
 10
162.9409719953826
 20
111.0429388768734
 30
0.0
 40
524.479701390122
 41
366.1163456948953
 68
     2
 69
     2
 12
203.3746842461283
 22
138.2586097091216
 13
0.0
 23
0.0
 14
5.0
 24
5.0
 15
0.0
 25
0.0
 16
0.0
 26
0.0
 36
1.0
 17
0.0
 27
0.0
 37
0.0
 42
50.0
 43
0.0
 44
0.0
 45
366.1783685428372
 50
0.0
 51
0.0
 72
   100
 90
    32768
  1

281
     0
 71
     1
 74
     0
110
0.0
120
0.0
130
0.0
111
1.0
121
0.0
131
0.0
112
0.0
122
1.0
132
0.0
 79
     0
146
0.0
  0
ENDSEC
  0
SECTION
  2
OBJECTS
  0
DICTIONARY
  5
C
330
0
100
AcDbDictionary
281
     1
  3
ACAD_COLOR
350
13B6
  3
ACAD_GROUP
350
D
  3
ACAD_LAYOUT
350
624
  3
ACAD_MATERIAL
350
13B5
  3
ACAD_MLINESTYLE
350
E
  3
ACAD_PLOTSETTINGS
350
625
  3
ACAD_PLOTSTYLENAME
350
622
  3
ACDBHEADERROUNDTRIPXREC
350
1929
  3
AcDbVariableDictionary
350
1924
  3
DWGPROPS
350
1928
  0
DICTIONARY
  5
651
330
1A
100
AcDbDictionary
280
     1
281
     1
  3
ACAD_LAYOUTSELFREF
360
1392
  0
DICTIONARY
  5
64F
330
17
100
AcDbDictionary
280
     1
281
     1
  3
ACAD_LAYOUTSELFREF
360
1391
  0
DICTIONARY
  5
192C
330
22
100
AcDbDictionary
280
     1
281
     1
  3
ACAD_XREC_ROUNDTRIP
360
192D
  0
DICTIONARY
  5
192E
330
64
100
AcDbDictionary
280
     1
281
     1
  3
ACAD_XREC_ROUNDTRIP
360
192F
  0
DICTIONARY
  5
13B6
102
{ACAD_REACTORS
330
C
102
}
330
C
100
AcDbDictionary
281
     1
  0
DICTIONARY
  5
D
102
{ACAD_REACTORS
330
C
102
}
330
C
100
AcDbDictionary
281
     1
  0
DICTIONARY
  5
624
102
{ACAD_REACTORS
330
C
102
}
330
C
100
AcDbDictionary
281
     1
  3
Model
350
626
  3
ﾚｲｱｳﾄ1
350
627
  0
DICTIONARY
  5
13B5
102
{ACAD_REACTORS
330
C
102
}
330
C
100
AcDbDictionary
281
     1
  0
DICTIONARY
  5
E
102
{ACAD_REACTORS
330
C
102
}
330
C
100
AcDbDictionary
281
     1
  3
STANDARD
350
13
  0
DICTIONARY
  5
625
102
{ACAD_REACTORS
330
C
102
}
330
C
100
AcDbDictionary
281
     1
  0
ACDBDICTIONARYWDFLT
  5
622
102
{ACAD_REACTORS
330
C
102
}
330
C
100
AcDbDictionary
281
     1
  3
Normal
350
623
100
AcDbDictionaryWithDefault
340
623
1001
ACAD
1000
TREAT_AS_HARD
1070
     0
1000
TREAT_AS_HARD
1070
     0
1000
TREAT_AS_HARD
1070
     0
1000
TREAT_AS_HARD
1070
     0
1000
TREAT_AS_HARD
1070
     0
1000
TREAT_AS_HARD
1070
     0
  0
DICTIONARY
  5
1929
102
{ACAD_REACTORS
330
C
102
}
330
C
100
AcDbDictionary
281
     1
  3
COLORDICT
350
192B
  3
MATERIALDICT
350
192A
  0
DICTIONARY
  5
1924
102
{ACAD_REACTORS
330
C
102
}
330
C
100
AcDbDictionary
281
     1
  3
DIMASSOC
350
1925
  3
PROJECTNAME
350
1926
  0
XRECORD
  5
1928
102
{ACAD_REACTORS
330
C
102
}
330
C
100
AcDbXrecord
280
     1
  1
DWGPROPS COOKIE
  2

  3

  4

  6

  7

  8

  9

300
=
301
=
302
=
303
=
304
=
305
=
306
=
307
=
308
=
309
=
 40
0.1968356365740741
 41
2451100.394552546
 42
2456667.687318554
  1

 90
        0
  0
XRECORD
  5
1392
102
{ACAD_REACTORS
330
651
102
}
330
651
100
AcDbXrecord
280
     1
340
1A
  0
XRECORD
  5
1391
102
{ACAD_REACTORS
330
64F
102
}
330
64F
100
AcDbXrecord
280
     1
340
17
  0
XRECORD
  5
192D
102
{ACAD_REACTORS
330
192C
102
}
330
192C
100
AcDbXrecord
280
     1
102
SHADEPLOT
 70
     0
  0
XRECORD
  5
192F
102
{ACAD_REACTORS
330
192E
102
}
330
192E
100
AcDbXrecord
280
     1
102
SHADEPLOT
 70
     0
  0
LAYOUT
  5
626
102
{ACAD_XDICTIONARY
360
1930
102
}
102
{ACAD_REACTORS
330
624
102
}
330
624
100
AcDbPlotSettings
  1

  2
CubePDF
  4
A3
  6

 40
3.174999952316284
 41
3.174999952316284
 42
3.17498779296875
 43
3.17498779296875
 44
297.0530090332031
 45
420.1583251953125
 46
7.0
 47
7.0
 48
-0.0000004828989404
 49
-0.0000000386436341
140
398.399999517101
141
275.3999999613564
142
1.0
143
1.0
 70
 11952
 72
     1
 73
     1
 74
     2
  7
monochrome.ctb
 75
    16
147
1.0
148
0.0
149
0.0
100
AcDbLayout
  1
Model
 70
     1
 71
     0
 10
0.0
 20
0.0
 11
12.0
 21
9.0
 12
0.0
 22
0.0
 32
0.0
 14
0.0
 24
0.0
 34
0.0
 15
0.0
 25
0.0
 35
0.0
146
0.0
 13
0.0
 23
0.0
 33
0.0
 16
1.0
 26
0.0
 36
0.0
 17
0.0
 27
1.0
 37
0.0
 76
     0
330
1A
  0
LAYOUT
  5
627
102
{ACAD_XDICTIONARY
360
1932
102
}
102
{ACAD_REACTORS
330
624
102
}
330
624
100
AcDbPlotSettings
  1

  2
CubePDF
  4
A3
  6

 40
3.174999952316283
 41
3.174999952316283
 42
3.17498779296875
 43
3.17498779296875
 44
297.0530090332031
 45
420.1583251953125
 46
0.0
 47
0.0
 48
0.0
 49
0.0
140
0.0
141
0.0
142
1.0
143
1.0
 70
   688
 72
     1
 73
     1
 74
     5
  7
monochrome.ctb
 75
     0
147
1.0
148
48.57135951835584
149
35.18568025247635
100
AcDbLayout
  1
ﾚｲｱｳﾄ1
 70
     1
 71
     1
 10
-51.7463473113246
 20
-38.36068020479264
 11
368.4119778839879
 21
258.6923288284105
 12
0.0
 22
0.0
 32
0.0
 14
-99.29887869967842
 24
-72.01523397057425
 34
0.0
 15
425.1808226904436
 25
294.1011117243211
 35
0.0
146
0.0
 13
0.0
 23
0.0
 33
0.0
 16
1.0
 26
0.0
 36
0.0
 17
0.0
 27
1.0
 37
0.0
 76
     0
330
17
331
22
  0
MLINESTYLE
  5
13
102
{ACAD_REACTORS
330
E
102
}
330
E
100
AcDbMlineStyle
  2
STANDARD
 70
     0
  3

 62
     0
 51
90.0
 52
90.0
 71
     2
 49
0.5
 62
   256
  6
BYLAYER
 49
-0.5
 62
   256
  6
BYLAYER
  0
ACDBPLACEHOLDER
  5
623
102
{ACAD_REACTORS
330
622
102
}
330
622
  0
XRECORD
  5
192B
102
{ACAD_REACTORS
330
1929
102
}
330
1929
100
AcDbXrecord
280
     1
340
13B6
  0
XRECORD
  5
192A
102
{ACAD_REACTORS
330
1929
102
}
330
1929
100
AcDbXrecord
280
     1
340
13B5
  0
DICTIONARYVAR
  5
1925
102
{ACAD_REACTORS
330
1924
102
}
330
1924
100
DictionaryVariables
280
     0
  1
1
  0
DICTIONARYVAR
  5
1926
102
{ACAD_REACTORS
330
1924
102
}
330
1924
100
DictionaryVariables
280
     0
  1

  0
DICTIONARY
  5
1930
330
626
100
AcDbDictionary
280
     1
281
     1
  3
ACAD_XREC_ROUNDTRIP
360
1931
  0
DICTIONARY
  5
1932
330
627
100
AcDbDictionary
280
     1
281
     1
  3
ACAD_XREC_ROUNDTRIP
360
1933
  0
XRECORD
  5
1931
102
{ACAD_REACTORS
330
1930
102
}
330
1930
100
AcDbXrecord
280
     1
102
SHADEPLOT
 70
     0
102
SHADEPLOTRESLEVEL
 70
     2
102
SHADEPLOTCUSTOMDPI
 70
   300
  0
XRECORD
  5
1933
102
{ACAD_REACTORS
330
1932
102
}
330
1932
100
AcDbXrecord
280
     1
102
SHADEPLOT
 70
     1
102
SHADEPLOTRESLEVEL
 70
     2
102
SHADEPLOTCUSTOMDPI
 70
   300
  0
ENDSEC
  0
EOF
