  0
SECTION
  2
HEADER
  9
$ACADVER
  1
AC1015
  9
$ACADMAINTVER
 70
    20
  9
$DWGCODEPAGE
  3
ANSI_932
  9
$INSBASE
 10
0.0
 20
0.0
 30
0.0
  9
$EXTMIN
 10
14.9999991847701
 20
15.00000037419784
 30
0.0
  9
$EXTMAX
 10
812.5999991847702
 20
566.6000003741979
 30
0.0
  9
$LIMMIN
 10
0.0
 20
0.0
  9
$LIMMAX
 10
840.0
 20
594.0
  9
$ORTHOMODE
 70
     0
  9
$REGENMODE
 70
     1
  9
$FILLMODE
 70
     1
  9
$QTEXTMODE
 70
     0
  9
$MIRRTEXT
 70
     1
  9
$LTSCALE
 40
1.0
  9
$ATTMODE
 70
     1
  9
$TEXTSIZE
 40
2.5
  9
$TRACEWID
 40
1.0
  9
$TEXTSTYLE
  7
MSPｺﾞｼｯｸ
  9
$CLAYER
  8
SUNPOU
  9
$CELTYPE
  6
BYLAYER
  9
$CECOLOR
 62
   256
  9
$CELTSCALE
 40
1.0
  9
$DISPSILH
 70
     0
  9
$DIMSCALE
 40
1.0
  9
$DIMASZ
 40
4.0
  9
$DIMEXO
 40
2.0
  9
$DIMDLI
 40
9.0
  9
$DIMRND
 40
0.0
  9
$DIMDLE
 40
0.0
  9
$DIMEXE
 40
2.0
  9
$DIMTP
 40
0.0
  9
$DIMTM
 40
0.0
  9
$DIMTXT
 40
6.0
  9
$DIMCEN
 40
0.0
  9
$DIMTSZ
 40
0.0
  9
$DIMTOL
 70
     0
  9
$DIMLIM
 70
     0
  9
$DIMTIH
 70
     0
  9
$DIMTOH
 70
     0
  9
$DIMSE1
 70
     0
  9
$DIMSE2
 70
     0
  9
$DIMTAD
 70
     3
  9
$DIMZIN
 70
     0
  9
$DIMBLK
  1
Open
  9
$DIMASO
 70
     1
  9
$DIMSHO
 70
     1
  9
$DIMPOST
  1

  9
$DIMAPOST
  1

  9
$DIMALT
 70
     0
  9
$DIMALTD
 70
     2
  9
$DIMALTF
 40
25.4
  9
$DIMLFAC
 40
1.0
  9
$DIMTOFL
 70
     0
  9
$DIMTVP
 40
0.0
  9
$DIMTIX
 70
     0
  9
$DIMSOXD
 70
     0
  9
$DIMSAH
 70
     0
  9
$DIMBLK1
  1

  9
$DIMBLK2
  1

  9
$DIMSTYLE
  2
STANDARD
  9
$DIMCLRD
 70
   256
  9
$DIMCLRE
 70
   256
  9
$DIMCLRT
 70
   256
  9
$DIMTFAC
 40
1.0
  9
$DIMGAP
 40
2.0
  9
$DIMJUST
 70
     0
  9
$DIMSD1
 70
     0
  9
$DIMSD2
 70
     0
  9
$DIMTOLJ
 70
     1
  9
$DIMTZIN
 70
     0
  9
$DIMALTZ
 70
     0
  9
$DIMALTTZ
 70
     0
  9
$DIMUPT
 70
     0
  9
$DIMDEC
 70
     0
  9
$DIMTDEC
 70
     0
  9
$DIMALTU
 70
     2
  9
$DIMALTTD
 70
     2
  9
$DIMTXSTY
  7
STANDARD
  9
$DIMAUNIT
 70
     0
  9
$DIMADEC
 70
     0
  9
$DIMALTRND
 40
0.0
  9
$DIMAZIN
 70
     0
  9
$DIMDSEP
 70
    46
  9
$DIMATFIT
 70
     3
  9
$DIMFRAC
 70
     0
  9
$DIMLDRBLK
  1
Open
  9
$DIMLUNIT
 70
     2
  9
$DIMLWD
 70
    -1
  9
$DIMLWE
 70
    -1
  9
$DIMTMOVE
 70
     0
  9
$LUNITS
 70
     2
  9
$LUPREC
 70
     4
  9
$SKETCHINC
 40
1.0
  9
$FILLETRAD
 40
20.0
  9
$AUNITS
 70
     0
  9
$AUPREC
 70
     0
  9
$MENU
  1
.
  9
$ELEVATION
 40
0.0
  9
$PELEVATION
 40
0.0
  9
$THICKNESS
 40
0.0
  9
$LIMCHECK
 70
     0
  9
$CHAMFERA
 40
0.0
  9
$CHAMFERB
 40
0.0
  9
$CHAMFERC
 40
40.0
  9
$CHAMFERD
 40
0.0
  9
$SKPOLY
 70
     0
  9
$TDCREATE
 40
2450994.354346065
  9
$TDUCREATE
 40
2450993.979346065
  9
$TDUPDATE
 40
2459167.550314468
  9
$TDUUPDATE
 40
2459167.175314468
  9
$TDINDWG
 40
0.4337626389
  9
$TDUSRTIMER
 40
0.4337626389
  9
$USRTIMER
 70
     1
  9
$ANGBASE
 50
0.0
  9
$ANGDIR
 70
     0
  9
$PDMODE
 70
     1
  9
$PDSIZE
 40
0.0
  9
$PLINEWID
 40
0.0
  9
$SPLFRAME
 70
     0
  9
$SPLINETYPE
 70
     6
  9
$SPLINESEGS
 70
     8
  9
$HANDSEED
  5
12400
  9
$SURFTAB1
 70
     6
  9
$SURFTAB2
 70
     6
  9
$SURFTYPE
 70
     6
  9
$SURFU
 70
     6
  9
$SURFV
 70
     6
  9
$UCSBASE
  2

  9
$UCSNAME
  2

  9
$UCSORG
 10
0.0
 20
0.0
 30
0.0
  9
$UCSXDIR
 10
1.0
 20
0.0
 30
0.0
  9
$UCSYDIR
 10
0.0
 20
1.0
 30
0.0
  9
$UCSORTHOREF
  2

  9
$UCSORTHOVIEW
 70
     0
  9
$UCSORGTOP
 10
0.0
 20
0.0
 30
0.0
  9
$UCSORGBOTTOM
 10
0.0
 20
0.0
 30
0.0
  9
$UCSORGLEFT
 10
0.0
 20
0.0
 30
0.0
  9
$UCSORGRIGHT
 10
0.0
 20
0.0
 30
0.0
  9
$UCSORGFRONT
 10
0.0
 20
0.0
 30
0.0
  9
$UCSORGBACK
 10
0.0
 20
0.0
 30
0.0
  9
$PUCSBASE
  2

  9
$PUCSNAME
  2

  9
$PUCSORG
 10
0.0
 20
0.0
 30
0.0
  9
$PUCSXDIR
 10
1.0
 20
0.0
 30
0.0
  9
$PUCSYDIR
 10
0.0
 20
1.0
 30
0.0
  9
$PUCSORTHOREF
  2

  9
$PUCSORTHOVIEW
 70
     0
  9
$PUCSORGTOP
 10
0.0
 20
0.0
 30
0.0
  9
$PUCSORGBOTTOM
 10
0.0
 20
0.0
 30
0.0
  9
$PUCSORGLEFT
 10
0.0
 20
0.0
 30
0.0
  9
$PUCSORGRIGHT
 10
0.0
 20
0.0
 30
0.0
  9
$PUCSORGFRONT
 10
0.0
 20
0.0
 30
0.0
  9
$PUCSORGBACK
 10
0.0
 20
0.0
 30
0.0
  9
$USERI1
 70
     0
  9
$USERI2
 70
     0
  9
$USERI3
 70
     0
  9
$USERI4
 70
     0
  9
$USERI5
 70
     0
  9
$USERR1
 40
0.0
  9
$USERR2
 40
0.0
  9
$USERR3
 40
0.0
  9
$USERR4
 40
0.0
  9
$USERR5
 40
0.0
  9
$WORLDVIEW
 70
     1
  9
$SHADEDGE
 70
     3
  9
$SHADEDIF
 70
    70
  9
$TILEMODE
 70
     1
  9
$MAXACTVP
 70
    16
  9
$PINSBASE
 10
0.0
 20
0.0
 30
0.0
  9
$PLIMCHECK
 70
     0
  9
$PEXTMIN
 10
21.82901685728666
 20
23.02738104813955
 30
0.0
  9
$PEXTMAX
 10
439.8564228343396
 20
318.0273181063681
 30
0.0
  9
$PLIMMIN
 10
18.6319851824627
 20
19.84803453884854
  9
$PLIMMAX
 10
438.7903103777752
 20
316.8798643728329
  9
$UNITMODE
 70
     0
  9
$VISRETAIN
 70
     0
  9
$PLINEGEN
 70
     0
  9
$PSLTSCALE
 70
     1
  9
$TREEDEPTH
 70
  3020
  9
$CMLSTYLE
  2
STANDARD
  9
$CMLJUST
 70
     0
  9
$CMLSCALE
 40
1.0
  9
$PROXYGRAPHICS
 70
     1
  9
$MEASUREMENT
 70
     1
  9
$CELWEIGHT
370
    -1
  9
$ENDCAPS
280
     0
  9
$JOINSTYLE
280
     0
  9
$LWDISPLAY
290
     0
  9
$INSUNITS
 70
     0
  9
$HYPERLINKBASE
  1

  9
$STYLESHEET
  1
print.ctb
  9
$XEDIT
290
     1
  9
$CEPSNTYPE
380
     0
  9
$PSTYLEMODE
290
     1
  9
$FINGERPRINTGUID
  2
{C56778C1-A286-4FAB-9BA7-CCD46472B6EF}
  9
$VERSIONGUID
  2
{CF44D8E2-6B1B-4522-A8C4-61A1CACF19FC}
  9
$EXTNAMES
290
     1
  9
$PSVPSCALE
 40
0.0
  9
$OLESTARTUP
290
     0
  0
ENDSEC
  0
SECTION
  2
CLASSES
  0
CLASS
  1
ACDBDICTIONARYWDFLT
  2
AcDbDictionaryWithDefault
  3
ObjectDBX Classes
 90
        0
280
     0
281
     0
  0
CLASS
  1
ACDBPLACEHOLDER
  2
AcDbPlaceHolder
  3
ObjectDBX Classes
 90
        0
280
     0
281
     0
  0
CLASS
  1
LAYOUT
  2
AcDbLayout
  3
ObjectDBX Classes
 90
        0
280
     0
281
     0
  0
CLASS
  1
DICTIONARYVAR
  2
AcDbDictionaryVar
  3
ObjectDBX Classes
 90
        0
280
     0
281
     0
  0
ENDSEC
  0
SECTION
  2
TABLES
  0
TABLE
  2
VPORT
  5
8
330
0
100
AcDbSymbolTable
 70
     2
  0
VPORT
  5
123F4
330
8
100
AcDbSymbolTableRecord
100
AcDbViewportTableRecord
  2
*Active
 70
     0
 10
0.0
 20
0.0
 11
1.0
 21
1.0
 12
493.5445496303771
 22
284.0537052743988
 13
0.0
 23
0.0
 14
5.0
 24
5.0
 15
0.0
 25
0.0
 16
0.0
 26
0.0
 36
1.0
 17
0.0
 27
0.0
 37
0.0
 40
775.2312540467499
 41
1.922916666666666
 42
50.0
 43
0.0
 44
0.0
 50
0.0
 51
0.0
 71
     0
 72
   100
 73
     1
 74
     0
 75
     0
 76
     0
 77
     0
 78
     0
281
     0
 65
     1
110
0.0
120
0.0
130
0.0
111
1.0
121
0.0
131
0.0
112
0.0
122
1.0
132
0.0
 79
     0
146
0.0
  0
ENDTAB
  0
TABLE
  2
LTYPE
  5
5
330
0
100
AcDbSymbolTable
 70
     3
  0
LTYPE
  5
14
330
5
100
AcDbSymbolTableRecord
100
AcDbLinetypeTableRecord
  2
BYBLOCK
 70
     0
  3

 72
    65
 73
     0
 40
0.0
  0
LTYPE
  5
15
330
5
100
AcDbSymbolTableRecord
100
AcDbLinetypeTableRecord
  2
BYLAYER
 70
     0
  3

 72
    65
 73
     0
 40
0.0
  0
LTYPE
  5
16
330
5
100
AcDbSymbolTableRecord
100
AcDbLinetypeTableRecord
  2
CONTINUOUS
 70
     0
  3
Solid line
 72
    65
 73
     0
 40
0.0
  0
LTYPE
  5
135
330
5
100
AcDbSymbolTableRecord
100
AcDbLinetypeTableRecord
  2
CENTER
 70
     0
  3
Center ____ _ ____ _ ____ _ ____ _ ____ _ ____
 72
    65
 73
     4
 40
50.8
 49
31.75
 74
     0
 49
-6.349999999999999
 74
     0
 49
6.349999999999999
 74
     0
 49
-6.349999999999999
 74
     0
  0
LTYPE
  5
11792
330
5
100
AcDbSymbolTableRecord
100
AcDbLinetypeTableRecord
  2
PHANTOM
 70
     0
  3
Phantom ______  __  __  ______  __  __  ______
 72
    65
 73
     6
 40
63.5
 49
31.75
 74
     0
 49
-6.349999999999999
 74
     0
 49
6.349999999999999
 74
     0
 49
-6.349999999999999
 74
     0
 49
6.349999999999999
 74
     0
 49
-6.349999999999999
 74
     0
  0
ENDTAB
  0
TABLE
  2
LAYER
  5
2
330
0
100
AcDbSymbolTable
 70
    10
  0
LAYER
  5
F
330
2
100
AcDbSymbolTableRecord
100
AcDbLayerTableRecord
  2
0
 70
     0
 62
     7
  6
CONTINUOUS
370
    -3
390
673
  0
LAYER
  5
62
330
2
100
AcDbSymbolTableRecord
100
AcDbLayerTableRecord
  2
VIEWPORT
 70
     0
 62
     7
  6
CONTINUOUS
370
    -3
390
673
  0
LAYER
  5
65
330
2
100
AcDbSymbolTableRecord
100
AcDbLayerTableRecord
  2
ZUWAKU
 70
     0
 62
     7
  6
CONTINUOUS
370
    -3
390
673
  0
LAYER
  5
1EA
330
2
100
AcDbSymbolTableRecord
100
AcDbLayerTableRecord
  2
SEIHIN
 70
     0
 62
     3
  6
CONTINUOUS
370
    -3
390
673
  0
LAYER
  5
1EB
330
2
100
AcDbSymbolTableRecord
100
AcDbLayerTableRecord
  2
SUNPOU
 70
     0
 62
     4
  6
CONTINUOUS
370
    -3
390
673
  0
LAYER
  5
1EE
330
2
100
AcDbSymbolTableRecord
100
AcDbLayerTableRecord
  2
DEFPOINTS
 70
     0
 62
     7
  6
CONTINUOUS
290
     0
370
    -3
390
673
  0
LAYER
  5
6B1
330
2
100
AcDbSymbolTableRecord
100
AcDbLayerTableRecord
  2
moji
 70
     0
 62
     2
  6
CONTINUOUS
370
    -3
390
673
  0
LAYER
  5
30BD
330
2
100
AcDbSymbolTableRecord
100
AcDbLayerTableRecord
  2
CENTER L
 70
     0
 62
     1
  6
CENTER
370
    -3
390
673
  0
LAYER
  5
ADCC
330
2
100
AcDbSymbolTableRecord
100
AcDbLayerTableRecord
  2
ﾊｯﾁﾝｸﾞ
 70
     0
 62
     7
  6
CONTINUOUS
370
    -3
390
673
  0
LAYER
  5
1193D
330
2
100
AcDbSymbolTableRecord
100
AcDbLayerTableRecord
  2
伸縮
 70
     0
 62
     2
  6
PHANTOM
370
    -3
390
673
  0
ENDTAB
  0
TABLE
  2
STYLE
  5
3
330
0
100
AcDbSymbolTable
 70
     2
  0
STYLE
  5
10
330
3
100
AcDbSymbolTableRecord
100
AcDbTextStyleTableRecord
  2
STANDARD
 70
     0
 40
0.0
 41
1.0
 50
0.0
 71
     0
 42
5.0
  3
TXT
  4
bigfont.shx
  0
STYLE
  5
6B2
330
3
100
AcDbSymbolTableRecord
100
AcDbTextStyleTableRecord
  2
MSPｺﾞｼｯｸ
 70
     0
 40
0.0
 41
1.0
 50
0.0
 71
     0
 42
2.5
  3

  4

1001
ACAD
1000
MS PGothic
1071
    32818
  0
ENDTAB
  0
TABLE
  2
VIEW
  5
6
330
0
100
AcDbSymbolTable
 70
     0
  0
ENDTAB
  0
TABLE
  2
UCS
  5
7
330
0
100
AcDbSymbolTable
 70
     0
  0
ENDTAB
  0
TABLE
  2
APPID
  5
9
330
0
100
AcDbSymbolTable
 70
     1
  0
APPID
  5
11
330
9
100
AcDbSymbolTableRecord
100
AcDbRegAppTableRecord
  2
ACAD
 70
     0
  0
ENDTAB
  0
TABLE
  2
DIMSTYLE
  5
A
330
0
100
AcDbSymbolTable
 70
     1
100
AcDbDimStyleTable
 71
     1
340
1D
  0
DIMSTYLE
105
1D
102
{ACAD_REACTORS
330
E2ED
330
E2FC
330
E309
330
E333
330
E340
330
E34D
330
E35A
330
116A7
330
116B5
330
116C2
102
}
330
A
100
AcDbSymbolTableRecord
100
AcDbDimStyleTableRecord
  2
STANDARD
 70
     0
 41
4.0
 42
2.0
 43
9.0
 44
2.0
 73
     0
 74
     0
 77
     3
140
6.0
141
0.0
147
2.0
176
   256
177
   256
178
   256
271
     0
272
     0
340
10
341
401A
342
401A
371
    -1
372
    -1
  0
ENDTAB
  0
TABLE
  2
BLOCK_RECORD
  5
1
330
0
100
AcDbSymbolTable
 70
    14
  0
BLOCK_RECORD
  5
1A
102
{ACAD_XDICTIONARY
360
6A3
102
}
330
1
100
AcDbSymbolTableRecord
100
AcDbBlockTableRecord
  2
*MODEL_SPACE
340
676
  0
BLOCK_RECORD
  5
17
102
{ACAD_XDICTIONARY
360
6A1
102
}
330
1
100
AcDbSymbolTableRecord
100
AcDbBlockTableRecord
  2
*PAPER_SPACE
340
677
  0
BLOCK_RECORD
  5
228D
330
1
100
AcDbSymbolTableRecord
100
AcDbBlockTableRecord
  2
*X0
340
0
102
{BLKREFS
331
780
102
}
  0
BLOCK_RECORD
  5
401A
330
1
100
AcDbSymbolTableRecord
100
AcDbBlockTableRecord
  2
_Open
340
0
102
{BLKREFS
331
119C5
331
119C6
331
119BC
331
119BD
331
119B3
331
119B4
331
11D33
331
11D34
331
119FB
331
119FC
331
1202B
331
1202C
331
119E9
331
119EA
331
121F8
331
121F9
331
12201
331
12202
331
1220A
331
1220B
102
}
  0
BLOCK_RECORD
  5
E2EE
330
1
100
AcDbSymbolTableRecord
100
AcDbBlockTableRecord
  2
*D2
340
0
  0
BLOCK_RECORD
  5
E2FD
330
1
100
AcDbSymbolTableRecord
100
AcDbBlockTableRecord
  2
*D3
340
0
  0
BLOCK_RECORD
  5
E30A
330
1
100
AcDbSymbolTableRecord
100
AcDbBlockTableRecord
  2
*D4
340
0
  0
BLOCK_RECORD
  5
E334
330
1
100
AcDbSymbolTableRecord
100
AcDbBlockTableRecord
  2
*D5
340
0
  0
BLOCK_RECORD
  5
E341
330
1
100
AcDbSymbolTableRecord
100
AcDbBlockTableRecord
  2
*D6
340
0
  0
BLOCK_RECORD
  5
E34E
330
1
100
AcDbSymbolTableRecord
100
AcDbBlockTableRecord
  2
*D7
340
0
  0
BLOCK_RECORD
  5
E35B
330
1
100
AcDbSymbolTableRecord
100
AcDbBlockTableRecord
  2
*D8
340
0
  0
BLOCK_RECORD
  5
115D8
330
1
100
AcDbSymbolTableRecord
100
AcDbBlockTableRecord
  2
*X9
340
0
102
{BLKREFS
331
E331
102
}
  0
BLOCK_RECORD
  5
11641
330
1
100
AcDbSymbolTableRecord
100
AcDbBlockTableRecord
  2
*X10
340
0
102
{BLKREFS
331
E332
102
}
  0
BLOCK_RECORD
  5
116A8
330
1
100
AcDbSymbolTableRecord
100
AcDbBlockTableRecord
  2
*D11
340
0
  0
BLOCK_RECORD
  5
116B6
330
1
100
AcDbSymbolTableRecord
100
AcDbBlockTableRecord
  2
*D12
340
0
  0
BLOCK_RECORD
  5
116C3
330
1
100
AcDbSymbolTableRecord
100
AcDbBlockTableRecord
  2
*D13
340
0
  0
ENDTAB
  0
ENDSEC
  0
SECTION
  2
BLOCKS
  0
BLOCK
  5
1B
330
1A
100
AcDbEntity
  8
0
100
AcDbBlockBegin
  2
*MODEL_SPACE
 70
     0
 10
0.0
 20
0.0
 30
0.0
  3
*MODEL_SPACE
  1

  0
ENDBLK
  5
1C
330
1A
100
AcDbEntity
  8
0
100
AcDbBlockEnd
  0
BLOCK
  5
18
330
17
100
AcDbEntity
 67
     1
  8
0
100
AcDbBlockBegin
  2
*PAPER_SPACE
 70
     0
 10
0.0
 20
0.0
 30
0.0
  3
*PAPER_SPACE
  1

  0
ENDBLK
  5
19
330
17
100
AcDbEntity
 67
     1
  8
0
100
AcDbBlockEnd
  0
BLOCK
  5
2421
330
228D
100
AcDbEntity
  8
0
100
AcDbBlockBegin
  2
*X0
 70
     1
 10
0.0
 20
0.0
 30
0.0
  3
*X0
  1

  0
LINE
  5
228E
330
228D
100
AcDbEntity
  8
0
 62
     0
100
AcDbLine
 10
84.04221133955109
 20
37.60416944448309
 30
0.0
 11
83.39638040983647
 21
38.25000037419773
 31
0.0
  0
LINE
  5
228F
330
228D
100
AcDbEntity
  8
0
 62
     0
100
AcDbLine
 10
84.04221133955109
 20
36.7061438323762
 30
0.0
 11
82.49835479772945
 21
38.25000037419778
 31
0.0
  0
LINE
  5
2290
330
228D
100
AcDbEntity
  8
0
 62
     0
100
AcDbLine
 10
84.04221133955109
 20
35.80811822026925
 30
0.0
 11
81.62107739353627
 21
38.22925216628403
 31
0.0
  0
LINE
  5
2291
330
228D
100
AcDbEntity
  8
0
 62
     0
100
AcDbLine
 10
84.04221133955122
 20
34.9100926081623
 30
0.0
 11
81.24221133955121
 21
37.71009260816226
 31
0.0
  0
LINE
  5
2292
330
228D
100
AcDbEntity
  8
0
 62
     0
100
AcDbLine
 10
84.04221133955116
 20
34.01206699605535
 30
0.0
 11
81.24221133955121
 21
36.81206699605537
 31
0.0
  0
LINE
  5
2293
330
228D
100
AcDbEntity
  8
0
 62
     0
100
AcDbLine
 10
84.04221133955116
 20
33.11404138394846
 30
0.0
 11
81.24221133955115
 21
35.91404138394842
 31
0.0
  0
LINE
  5
2294
330
228D
100
AcDbEntity
  8
0
 62
     0
100
AcDbLine
 10
79.14221133955118
 20
37.11601577184155
 30
0.0
 11
78.00822673719494
 21
38.25000037419778
 31
0.0
  0
LINE
  5
2295
330
228D
100
AcDbEntity
  8
0
 62
     0
100
AcDbLine
 10
84.04221133955116
 20
32.21601577184157
 30
0.0
 11
81.24221133955121
 21
35.01601577184158
 31
0.0
  0
LINE
  5
2296
330
228D
100
AcDbEntity
  8
0
 62
     0
100
AcDbLine
 10
79.14221133955118
 20
36.21799015973465
 30
0.0
 11
77.11020112508805
 21
38.25000037419778
 31
0.0
  0
LINE
  5
2297
330
228D
100
AcDbEntity
  8
0
 62
     0
100
AcDbLine
 10
84.04221133955116
 20
31.31799015973468
 30
0.0
 11
81.24221133955121
 21
34.11799015973463
 31
0.0
  0
LINE
  5
2298
330
228D
100
AcDbEntity
  8
0
 62
     0
100
AcDbLine
 10
79.14221133955118
 20
35.31996454762771
 30
0.0
 11
76.4367003744141
 21
38.02547551276479
 31
0.0
  0
LINE
  5
2299
330
228D
100
AcDbEntity
  8
0
 62
     0
100
AcDbLine
 10
84.04221133955116
 20
30.41996454762773
 30
0.0
 11
81.24221133955115
 21
33.21996454762768
 31
0.0
  0
LINE
  5
229A
330
228D
100
AcDbEntity
  8
0
 62
     0
100
AcDbLine
 10
79.14221133955118
 20
34.42193893552076
 30
0.0
 11
76.34221133955112
 21
37.22193893552083
 31
0.0
  0
LINE
  5
229B
330
228D
100
AcDbEntity
  8
0
 62
     0
100
AcDbLine
 10
84.04221133955116
 20
29.52193893552084
 30
0.0
 11
81.24221133955121
 21
32.32193893552079
 31
0.0
  0
LINE
  5
229C
330
228D
100
AcDbEntity
  8
0
 62
     0
100
AcDbLine
 10
79.14221133955118
 20
33.52391332341392
 30
0.0
 11
76.34221133955112
 21
36.32391332341399
 31
0.0
  0
LINE
  5
229D
330
228D
100
AcDbEntity
  8
0
 62
     0
100
AcDbLine
 10
84.04221133955122
 20
28.62391332341383
 30
0.0
 11
81.24221133955115
 21
31.4239133234139
 31
0.0
  0
LINE
  5
229E
330
228D
100
AcDbEntity
  8
0
 62
     0
100
AcDbLine
 10
79.14221133955113
 20
32.62588771130698
 30
0.0
 11
76.34221133955112
 21
35.42588771130704
 31
0.0
  0
LINE
  5
229F
330
228D
100
AcDbEntity
  8
0
 62
     0
100
AcDbLine
 10
84.04221133955122
 20
27.72588771130694
 30
0.0
 11
81.24221133955115
 21
30.52588771130701
 31
0.0
  0
LINE
  5
22A0
330
228D
100
AcDbEntity
  8
0
 62
     0
100
AcDbLine
 10
79.14221133955113
 20
31.72786209920008
 30
0.0
 11
76.34221133955105
 21
34.52786209920009
 31
0.0
  0
LINE
  5
22A1
330
228D
100
AcDbEntity
  8
0
 62
     0
100
AcDbLine
 10
84.04221133955116
 20
26.82786209919999
 30
0.0
 11
81.24221133955115
 21
29.62786209920006
 31
0.0
  0
LINE
  5
22A2
330
228D
100
AcDbEntity
  8
0
 62
     0
100
AcDbLine
 10
79.14221133955118
 20
30.82983648709319
 30
0.0
 11
76.34221133955112
 21
33.62983648709326
 31
0.0
  0
LINE
  5
22A3
330
228D
100
AcDbEntity
  8
0
 62
     0
100
AcDbLine
 10
72.84221133955117
 20
37.1298364870932
 30
0.0
 11
71.72204745244653
 21
38.25000037419784
 31
0.0
  0
LINE
  5
22A4
330
228D
100
AcDbEntity
  8
0
 62
     0
100
AcDbLine
 10
84.04221133955122
 20
25.92983648709316
 30
0.0
 11
81.24221133955115
 21
28.72983648709317
 31
0.0
  0
LINE
  5
22A5
330
228D
100
AcDbEntity
  8
0
 62
     0
100
AcDbLine
 10
79.14221133955113
 20
29.9318108749863
 30
0.0
 11
76.34221133955105
 21
32.73181087498631
 31
0.0
  0
LINE
  5
22A6
330
228D
100
AcDbEntity
  8
0
 62
     0
100
AcDbLine
 10
72.84221133955111
 20
36.23181087498625
 30
0.0
 11
70.82402184033958
 21
38.25000037419784
 31
0.0
  0
LINE
  5
22A7
330
228D
100
AcDbEntity
  8
0
 62
     0
100
AcDbLine
 10
84.04221133955122
 20
25.03181087498621
 30
0.0
 11
81.24221133955115
 21
27.83181087498628
 31
0.0
  0
LINE
  5
22A8
330
228D
100
AcDbEntity
  8
0
 62
     0
100
AcDbLine
 10
79.14221133955113
 20
29.03378526287935
 30
0.0
 11
76.34221133955112
 21
31.8337852628793
 31
0.0
  0
LINE
  5
22A9
330
228D
100
AcDbEntity
  8
0
 62
     0
100
AcDbLine
 10
72.84221133955111
 20
35.33378526287936
 30
0.0
 11
70.14244861622711
 21
38.03354798620336
 31
0.0
  0
LINE
  5
22AA
330
228D
100
AcDbEntity
  8
0
 62
     0
100
AcDbLine
 10
84.04221133955116
 20
24.13378526287932
 30
0.0
 11
81.24221133955108
 21
26.93378526287933
 31
0.0
  0
LINE
  5
22AB
330
228D
100
AcDbEntity
  8
0
 62
     0
100
AcDbLine
 10
79.14221133955113
 20
28.1357596507724
 30
0.0
 11
76.34221133955117
 21
30.93575965077241
 31
0.0
  0
LINE
  5
22AC
330
228D
100
AcDbEntity
  8
0
 62
     0
100
AcDbLine
 10
72.84221133955117
 20
34.43575965077241
 30
0.0
 11
70.0422113395511
 21
37.23575965077248
 31
0.0
  0
LINE
  5
22AD
330
228D
100
AcDbEntity
  8
0
 62
     0
100
AcDbLine
 10
84.04221133955122
 20
23.23575965077237
 30
0.0
 11
81.24221133955115
 21
26.03575965077244
 31
0.0
  0
LINE
  5
22AE
330
228D
100
AcDbEntity
  8
0
 62
     0
100
AcDbLine
 10
79.14221133955113
 20
27.23773403866557
 30
0.0
 11
76.34221133955117
 21
30.03773403866552
 31
0.0
  0
LINE
  5
22AF
330
228D
100
AcDbEntity
  8
0
 62
     0
100
AcDbLine
 10
72.84221133955123
 20
33.53773403866546
 30
0.0
 11
70.04221133955105
 21
36.33773403866559
 31
0.0
  0
LINE
  5
22B0
330
228D
100
AcDbEntity
  8
0
 62
     0
100
AcDbLine
 10
83.9702459846614
 20
22.40969939355529
 30
0.0
 11
81.24221133955115
 21
25.13773403866554
 31
0.0
  0
LINE
  5
22B1
330
228D
100
AcDbEntity
  8
0
 62
     0
100
AcDbLine
 10
79.14221133955113
 20
26.33970842655862
 30
0.0
 11
76.34221133955112
 21
29.13970842655857
 31
0.0
  0
LINE
  5
22B2
330
228D
100
AcDbEntity
  8
0
 62
     0
100
AcDbLine
 10
72.84221133955117
 20
32.63970842655857
 30
0.0
 11
70.04221133955105
 21
35.4397084265587
 31
0.0
  0
LINE
  5
22B3
330
228D
100
AcDbEntity
  8
0
 62
     0
100
AcDbLine
 10
83.33191939191204
 20
22.15000037419764
 30
0.0
 11
81.24221133955108
 21
24.23970842655865
 31
0.0
  0
LINE
  5
22B4
330
228D
100
AcDbEntity
  8
0
 62
     0
100
AcDbLine
 10
72.84221133955117
 20
31.74168281445162
 30
0.0
 11
70.0422113395511
 21
34.54168281445169
 31
0.0
  0
LINE
  5
22B5
330
228D
100
AcDbEntity
  8
0
 62
     0
100
AcDbLine
 10
79.14221133955106
 20
25.44168281445172
 30
0.0
 11
76.34221133955112
 21
28.24168281445168
 31
0.0
  0
LINE
  5
22B6
330
228D
100
AcDbEntity
  8
0
 62
     0
100
AcDbLine
 10
67.41721133955116
 20
37.16668281445163
 30
0.0
 11
66.33389377980501
 21
38.25000037419773
 31
0.0
  0
LINE
  5
22B7
330
228D
100
AcDbEntity
  8
0
 62
     0
100
AcDbLine
 10
82.43389377980504
 20
22.1500003741977
 30
0.0
 11
81.24221133955108
 21
23.3416828144517
 31
0.0
  0
LINE
  5
22B8
330
228D
100
AcDbEntity
  8
0
 62
     0
100
AcDbLine
 10
72.84221133955117
 20
30.84365720234473
 30
0.0
 11
70.04221133955116
 21
33.6436572023448
 31
0.0
  0
LINE
  5
22B9
330
228D
100
AcDbEntity
  8
0
 62
     0
100
AcDbLine
 10
67.41721133955116
 20
36.26865720234474
 30
0.0
 11
65.43586816769817
 21
38.25000037419778
 31
0.0
  0
LINE
  5
22BA
330
228D
100
AcDbEntity
  8
0
 62
     0
100
AcDbLine
 10
79.11625303890565
 20
24.5696155029903
 30
0.0
 11
76.34221133955112
 21
27.34365720234479
 31
0.0
  0
LINE
  5
22BB
330
228D
100
AcDbEntity
  8
0
 62
     0
100
AcDbLine
 10
72.84221133955117
 20
29.94563159023784
 30
0.0
 11
70.0422113395511
 21
32.74563159023791
 31
0.0
  0
LINE
  5
22BC
330
228D
100
AcDbEntity
  8
0
 62
     0
100
AcDbLine
 10
67.22163079343733
 20
35.56621213635168
 30
0.0
 11
64.53784255559117
 21
38.25000037419784
 31
0.0
  0
LINE
  5
22BD
330
228D
100
AcDbEntity
  8
0
 62
     0
100
AcDbLine
 10
78.92326774364841
 20
23.86457518614054
 30
0.0
 11
76.34221133955112
 21
26.44563159023789
 31
0.0
  0
LINE
  5
22BE
330
228D
100
AcDbEntity
  8
0
 62
     0
100
AcDbLine
 10
72.84221133955117
 20
29.04760597813089
 30
0.0
 11
70.0422113395511
 21
31.84760597813096
 31
0.0
  0
LINE
  5
22BF
330
228D
100
AcDbEntity
  8
0
 62
     0
100
AcDbLine
 10
66.43981694348434
 20
35.45000037419766
 30
0.0
 11
63.63981694348428
 21
38.25000037419773
 31
0.0
  0
LINE
  5
22C0
330
228D
100
AcDbEntity
  8
0
 62
     0
100
AcDbLine
 10
78.59823586772484
 20
23.29158144995716
 30
0.0
 11
76.2706956003916
 21
25.61912171729046
 31
0.0
  0
LINE
  5
22C1
330
228D
100
AcDbEntity
  8
0
 62
     0
100
AcDbLine
 10
72.84221133955117
 20
28.14958036602405
 30
0.0
 11
70.0422113395511
 21
30.94958036602406
 31
0.0
  0
LINE
  5
22C2
330
228D
100
AcDbEntity
  8
0
 62
     0
100
AcDbLine
 10
65.54179133137751
 20
35.45000037419772
 30
0.0
 11
62.80422460219995
 21
38.18756710337527
 31
0.0
  0
LINE
  5
22C3
330
228D
100
AcDbEntity
  8
0
 62
     0
100
AcDbLine
 10
78.16619407039979
 20
22.82559763517537
 30
0.0
 11
75.86910996192409
 21
25.12268174365107
 31
0.0
  0
LINE
  5
22C4
330
228D
100
AcDbEntity
  8
0
 62
     0
100
AcDbLine
 10
72.84221133955117
 20
27.25155475391711
 30
0.0
 11
70.0422113395511
 21
30.05155475391717
 31
0.0
  0
LINE
  5
22C5
330
228D
100
AcDbEntity
  8
0
 62
     0
100
AcDbLine
 10
64.64376571927051
 20
35.45000037419777
 30
0.0
 11
62.13958417766656
 21
37.95418191580166
 31
0.0
  0
LINE
  5
22C6
330
228D
100
AcDbEntity
  8
0
 62
     0
100
AcDbLine
 10
77.63003172547377
 20
22.46373436799451
 30
0.0
 11
75.1437657192705
 21
24.95000037419777
 31
0.0
  0
LINE
  5
22C7
330
228D
100
AcDbEntity
  8
0
 62
     0
100
AcDbLine
 10
72.84221133955111
 20
26.35352914181016
 30
0.0
 11
70.0422113395511
 21
29.15352914181023
 31
0.0
  0
LINE
  5
22C8
330
228D
100
AcDbEntity
  8
0
 62
     0
100
AcDbLine
 10
63.76752993518159
 20
35.42821054617969
 30
0.0
 11
61.59698324045638
 21
37.59875724090489
 31
0.0
  0
LINE
  5
22C9
330
228D
100
AcDbEntity
  8
0
 62
     0
100
AcDbLine
 10
76.97361916556246
 20
22.22212131579886
 30
0.0
 11
74.24574010716367
 21
24.95000037419766
 31
0.0
  0
LINE
  5
22CA
330
228D
100
AcDbEntity
  8
0
 62
     0
100
AcDbLine
 10
63.39221133955118
 20
34.9055035297032
 30
0.0
 11
61.15887118141182
 21
37.13884368784249
 31
0.0
  0
LINE
  5
22CB
330
228D
100
AcDbEntity
  8
0
 62
     0
100
AcDbLine
 10
76.14771449505667
 20
22.15000037419764
 30
0.0
 11
70.04221133955105
 21
28.25550352970333
 31
0.0
  0
LINE
  5
22CC
330
228D
100
AcDbEntity
  8
0
 62
     0
100
AcDbLine
 10
63.39221133955124
 20
34.00747791759631
 30
0.0
 11
60.8271002690588
 21
36.57258898808874
 31
0.0
  0
LINE
  5
22CD
330
228D
100
AcDbEntity
  8
0
 62
     0
100
AcDbLine
 10
75.24968888294973
 20
22.15000037419776
 30
0.0
 11
70.0422113395511
 21
27.35747791759644
 31
0.0
  0
LINE
  5
22CE
330
228D
100
AcDbEntity
  8
0
 62
     0
100
AcDbLine
 10
63.59875562065503
 20
32.90290802438557
 30
0.0
 11
60.62492174969469
 21
35.87674189534585
 31
0.0
  0
LINE
  5
22CF
330
228D
100
AcDbEntity
  8
0
 62
     0
100
AcDbLine
 10
74.35166327084283
 20
22.15000037419776
 30
0.0
 11
70.04221133955116
 21
26.45945230548944
 31
0.0
  0
LINE
  5
22D0
330
228D
100
AcDbEntity
  8
0
 62
     0
100
AcDbLine
 10
67.81581504224255
 20
27.7878229906911
 30
0.0
 11
60.59221133955111
 21
35.01142669338253
 31
0.0
  0
LINE
  5
22D1
330
228D
100
AcDbEntity
  8
0
 62
     0
100
AcDbLine
 10
58.49221133955109
 20
37.1114266933825
 30
0.0
 11
57.35363765873586
 21
38.25000037419778
 31
0.0
  0
LINE
  5
22D2
330
228D
100
AcDbEntity
  8
0
 62
     0
100
AcDbLine
 10
73.45363765873589
 20
22.15000037419776
 30
0.0
 11
70.0422113395511
 21
25.56142669338249
 31
0.0
  0
LINE
  5
22D3
330
228D
100
AcDbEntity
  8
0
 62
     0
100
AcDbLine
 10
67.94221133955108
 20
26.76340108127573
 30
0.0
 11
60.59221133955117
 21
34.11340108127564
 31
0.0
  0
LINE
  5
22D4
330
228D
100
AcDbEntity
  8
0
 62
     0
100
AcDbLine
 10
58.4922113395512
 20
36.21340108127555
 30
0.0
 11
56.45561204662897
 21
38.25000037419778
 31
0.0
  0
LINE
  5
22D5
330
228D
100
AcDbEntity
  8
0
 62
     0
100
AcDbLine
 10
72.53916416788411
 20
22.1664482529427
 30
0.0
 11
70.05865921829609
 21
24.64695320253071
 31
0.0
  0
LINE
  5
22D6
330
228D
100
AcDbEntity
  8
0
 62
     0
100
AcDbLine
 10
58.4922113395512
 20
35.31537546916866
 30
0.0
 11
55.78482145177588
 21
38.02276535694392
 31
0.0
  0
LINE
  5
22D7
330
228D
100
AcDbEntity
  8
0
 62
     0
100
AcDbLine
 10
67.94221133955113
 20
25.86537546916872
 30
0.0
 11
60.61562200743356
 21
33.1919648012863
 31
0.0
  0
LINE
  5
22D8
330
228D
100
AcDbEntity
  8
0
 62
     0
100
AcDbLine
 10
58.4922113395512
 20
34.41734985706171
 30
0.0
 11
55.69221133955114
 21
37.21734985706178
 31
0.0
  0
LINE
  5
22D9
330
228D
100
AcDbEntity
  8
0
 62
     0
100
AcDbLine
 10
67.94221133955108
 20
24.96734985706178
 30
0.0
 11
60.93374142527358
 21
31.97581977133933
 31
0.0
  0
LINE
  5
22DA
330
228D
100
AcDbEntity
  8
0
 62
     0
100
AcDbLine
 10
58.4922113395512
 20
33.51932424495482
 30
0.0
 11
55.69221133955114
 21
36.31932424495483
 31
0.0
  0
LINE
  5
22DB
330
228D
100
AcDbEntity
  8
0
 62
     0
100
AcDbLine
 10
67.83364952196212
 20
24.1778860625439
 30
0.0
 11
65.13801473292381
 21
26.87352085158221
 31
0.0
  0
LINE
  5
22DC
330
228D
100
AcDbEntity
  8
0
 62
     0
100
AcDbLine
 10
58.4922113395512
 20
32.62129863284793
 30
0.0
 11
55.69221133955114
 21
35.42129863284799
 31
0.0
  0
LINE
  5
22DD
330
228D
100
AcDbEntity
  8
0
 62
     0
100
AcDbLine
 10
53.40072443897418
 20
37.71278553342489
 30
0.0
 11
52.86350959820129
 21
38.25000037419784
 31
0.0
  0
LINE
  5
22DE
330
228D
100
AcDbEntity
  8
0
 62
     0
100
AcDbLine
 10
67.56577381420055
 20
23.54773615819858
 30
0.0
 11
65.14221133955124
 21
25.97129863284789
 31
0.0
  0
LINE
  5
22DF
330
228D
100
AcDbEntity
  8
0
 62
     0
100
AcDbLine
 10
58.49221133955115
 20
31.72327302074098
 30
0.0
 11
55.69221133955114
 21
34.52327302074105
 31
0.0
  0
LINE
  5
22E0
330
228D
100
AcDbEntity
  8
0
 62
     0
100
AcDbLine
 10
53.20179677472157
 20
37.01368758557055
 30
0.0
 11
51.96548398609434
 21
38.25000037419784
 31
0.0
  0
LINE
  5
22E1
330
228D
100
AcDbEntity
  8
0
 62
     0
100
AcDbLine
 10
67.18278701602526
 20
23.03269734426692
 30
0.0
 11
65.04492615666475
 21
25.17055820362742
 31
0.0
  0
LINE
  5
22E2
330
228D
100
AcDbEntity
  8
0
 62
     0
100
AcDbLine
 10
58.49221133955115
 20
30.82524740863409
 30
0.0
 11
55.69221133955108
 21
33.6252474086341
 31
0.0
  0
LINE
  5
22E3
330
228D
100
AcDbEntity
  8
0
 62
     0
100
AcDbLine
 10
52.98627062781588
 20
36.33118812036929
 30
0.0
 11
51.0770550643453
 21
38.24040368383993
 31
0.0
  0
LINE
  5
22E4
330
228D
100
AcDbEntity
  8
0
 62
     0
100
AcDbLine
 10
66.69646805090962
 20
22.62099069727554
 30
0.0
 11
64.36745837398746
 21
24.95000037419777
 31
0.0
  0
LINE
  5
22E5
330
228D
100
AcDbEntity
  8
0
 62
     0
100
AcDbLine
 10
58.4922113395512
 20
29.92722179652719
 30
0.0
 11
55.69221133955114
 21
32.72722179652726
 31
0.0
  0
LINE
  5
22E6
330
228D
100
AcDbEntity
  8
0
 62
     0
100
AcDbLine
 10
52.77074448091036
 20
35.64868865516803
 30
0.0
 11
50.64274448091032
 21
37.77668865516807
 31
0.0
  0
LINE
  5
22E7
330
228D
100
AcDbEntity
  8
0
 62
     0
100
AcDbLine
 10
66.10038410244925
 20
22.31904903362909
 30
0.0
 11
63.46943276188063
 21
24.95000037419777
 31
0.0
  0
LINE
  5
22E8
330
228D
100
AcDbEntity
  8
0
 62
     0
100
AcDbLine
 10
58.49221133955115
 20
29.0291961844203
 30
0.0
 11
55.69221133955108
 21
31.82919618442031
 31
0.0
  0
LINE
  5
22E9
330
228D
100
AcDbEntity
  8
0
 62
     0
100
AcDbLine
 10
52.55521833400462
 20
34.96618918996683
 30
0.0
 11
50.42721833400452
 21
37.09418918996693
 31
0.0
  0
LINE
  5
22EA
330
228D
100
AcDbEntity
  8
0
 62
     0
100
AcDbLine
 10
65.36271145080178
 20
22.15869607316967
 30
0.0
 11
62.57140714977362
 21
24.95000037419783
 31
0.0
  0
LINE
  5
22EB
330
228D
100
AcDbEntity
  8
0
 62
     0
100
AcDbLine
 10
58.49221133955115
 20
28.13117057231335
 30
0.0
 11
55.69221133955114
 21
30.93117057231331
 31
0.0
  0
LINE
  5
22EC
330
228D
100
AcDbEntity
  8
0
 62
     0
100
AcDbLine
 10
52.33969218709893
 20
34.28368972476557
 30
0.0
 11
50.21169218709883
 21
36.41168972476561
 31
0.0
  0
LINE
  5
22ED
330
228D
100
AcDbEntity
  8
0
 62
     0
100
AcDbLine
 10
64.47338153766674
 20
22.15000037419776
 30
0.0
 11
61.67338153766667
 21
24.95000037419783
 31
0.0
  0
LINE
  5
22EE
330
228D
100
AcDbEntity
  8
0
 62
     0
100
AcDbLine
 10
58.49221133955115
 20
27.23314496020646
 30
0.0
 11
55.69221133955119
 21
30.03314496020647
 31
0.0
  0
LINE
  5
22EF
330
228D
100
AcDbEntity
  8
0
 62
     0
100
AcDbLine
 10
52.1241660401933
 20
33.60119025956436
 30
0.0
 11
49.9961660401932
 21
35.72919025956441
 31
0.0
  0
LINE
  5
22F0
330
228D
100
AcDbEntity
  8
0
 62
     0
100
AcDbLine
 10
63.57535592555996
 20
22.1500003741977
 30
0.0
 11
61.14174422826346
 21
24.5836120714942
 31
0.0
  0
LINE
  5
22F1
330
228D
100
AcDbEntity
  8
0
 62
     0
100
AcDbLine
 10
51.90863989328767
 20
32.91869079436299
 30
0.0
 11
49.78063989328757
 21
35.04669079436315
 31
0.0
  0
LINE
  5
22F2
330
228D
100
AcDbEntity
  8
0
 62
     0
100
AcDbLine
 10
58.49221133955115
 20
26.33511934809957
 30
0.0
 11
55.69221133955119
 21
29.13511934809952
 31
0.0
  0
LINE
  5
22F3
330
228D
100
AcDbEntity
  8
0
 62
     0
100
AcDbLine
 10
47.64221133955118
 20
37.18511934809953
 30
0.0
 11
46.57733031345287
 21
38.25000037419778
 31
0.0
  0
LINE
  5
22F4
330
228D
100
AcDbEntity
  8
0
 62
     0
100
AcDbLine
 10
62.67733031345295
 20
22.15000037419776
 30
0.0
 11
61.1172113395512
 21
23.71011934809951
 31
0.0
  0
LINE
  5
22F5
330
228D
100
AcDbEntity
  8
0
 62
     0
100
AcDbLine
 10
51.69311374638187
 20
32.2361913291619
 30
0.0
 11
49.56511374638194
 21
34.36419132916183
 31
0.0
  0
LINE
  5
22F6
330
228D
100
AcDbEntity
  8
0
 62
     0
100
AcDbLine
 10
58.49221133955115
 20
25.43709373599262
 30
0.0
 11
55.69221133955114
 21
28.23709373599263
 31
0.0
  0
LINE
  5
22F7
330
228D
100
AcDbEntity
  8
0
 62
     0
100
AcDbLine
 10
47.64221133955118
 20
36.28709373599259
 30
0.0
 11
45.67930470134598
 21
38.25000037419778
 31
0.0
  0
LINE
  5
22F8
330
228D
100
AcDbEntity
  8
0
 62
     0
100
AcDbLine
 10
61.77930470134606
 20
22.15000037419764
 30
0.0
 11
61.11721133955114
 21
22.81209373599256
 31
0.0
  0
LINE
  5
22F9
330
228D
100
AcDbEntity
  8
0
 62
     0
100
AcDbLine
 10
51.47758759947624
 20
31.55369186396058
 30
0.0
 11
49.34958759947619
 21
33.68169186396062
 31
0.0
  0
LINE
  5
22FA
330
228D
100
AcDbEntity
  8
0
 62
     0
100
AcDbLine
 10
47.64221133955112
 20
35.38906812388564
 30
0.0
 11
44.96676641065351
 21
38.0645130527833
 31
0.0
  0
LINE
  5
22FB
330
228D
100
AcDbEntity
  8
0
 62
     0
100
AcDbLine
 10
58.49221133955109
 20
24.53906812388573
 30
0.0
 11
55.69221133955114
 21
27.33906812388568
 31
0.0
  0
LINE
  5
22FC
330
228D
100
AcDbEntity
  8
0
 62
     0
100
AcDbLine
 10
51.26206145257061
 20
30.87119239875938
 30
0.0
 11
49.13406145257062
 21
32.99919239875936
 31
0.0
  0
LINE
  5
22FD
330
228D
100
AcDbEntity
  8
0
 62
     0
100
AcDbLine
 10
47.64221133955118
 20
34.4910425117788
 30
0.0
 11
44.84221133955111
 21
37.29104251177882
 31
0.0
  0
LINE
  5
22FE
330
228D
100
AcDbEntity
  8
0
 62
     0
100
AcDbLine
 10
58.49221133955115
 20
23.64104251177884
 30
0.0
 11
55.69221133955114
 21
26.44104251177879
 31
0.0
  0
LINE
  5
22FF
330
228D
100
AcDbEntity
  8
0
 62
     0
100
AcDbLine
 10
51.05697294317855
 20
30.17825529604448
 30
0.0
 11
48.91853530566487
 21
32.31669293355816
 31
0.0
  0
LINE
  5
2300
330
228D
100
AcDbEntity
  8
0
 62
     0
100
AcDbLine
 10
47.64221133955118
 20
33.59301689967185
 30
0.0
 11
44.84221133955111
 21
36.39301689967192
 31
0.0
  0
LINE
  5
2301
330
228D
100
AcDbEntity
  8
0
 62
     0
100
AcDbLine
 10
58.49221133955109
 20
22.74301689967189
 30
0.0
 11
55.69221133955114
 21
25.5430168996719
 31
0.0
  0
LINE
  5
2302
330
228D
100
AcDbEntity
  8
0
 62
     0
100
AcDbLine
 10
51.47144630261255
 20
28.86575632450354
 30
0.0
 11
48.62798780998025
 21
31.70921481713583
 31
0.0
  0
LINE
  5
2303
330
228D
100
AcDbEntity
  8
0
 62
     0
100
AcDbLine
 10
47.64221133955124
 20
32.69499128756485
 30
0.0
 11
44.84221133955105
 21
35.49499128756497
 31
0.0
  0
LINE
  5
2304
330
228D
100
AcDbEntity
  8
0
 62
     0
100
AcDbLine
 10
58.15316634221876
 20
22.18403628489728
 30
0.0
 11
55.69221133955114
 21
24.64499128756495
 31
0.0
  0
LINE
  5
2305
330
228D
100
AcDbEntity
  8
0
 62
     0
100
AcDbLine
 10
51.88591966204654
 20
27.55325735296271
 30
0.0
 11
44.84221133955111
 21
34.59696567545814
 31
0.0
  0
LINE
  5
2306
330
228D
100
AcDbEntity
  8
0
 62
     0
100
AcDbLine
 10
42.39221133955124
 20
37.04696567545801
 30
0.0
 11
41.18917664081147
 21
38.25000037419778
 31
0.0
  0
LINE
  5
2307
330
228D
100
AcDbEntity
  8
0
 62
     0
100
AcDbLine
 10
57.28917664081149
 20
22.15000037419776
 30
0.0
 11
55.69221133955124
 21
23.746965675458
 31
0.0
  0
LINE
  5
2308
330
228D
100
AcDbEntity
  8
0
 62
     0
100
AcDbLine
 10
52.30039302148043
 20
26.24075838142187
 30
0.0
 11
44.84221133955111
 21
33.69894006335119
 31
0.0
  0
LINE
  5
2309
330
228D
100
AcDbEntity
  8
0
 62
     0
100
AcDbLine
 10
42.39221133955124
 20
36.14894006335106
 30
0.0
 11
40.29115102870446
 21
38.25000037419784
 31
0.0
  0
LINE
  5
230A
330
228D
100
AcDbEntity
  8
0
 62
     0
100
AcDbLine
 10
56.39115102870454
 20
22.1500003741977
 30
0.0
 11
55.69221133955119
 21
22.84894006335111
 31
0.0
  0
LINE
  5
230B
330
228D
100
AcDbEntity
  8
0
 62
     0
100
AcDbLine
 10
42.12530464416113
 20
35.51782114663422
 30
0.0
 11
39.42508292594971
 21
38.21804286484559
 31
0.0
  0
LINE
  5
230C
330
228D
100
AcDbEntity
  8
0
 62
     0
100
AcDbLine
 10
52.71486638091443
 20
24.92825940988093
 30
0.0
 11
44.84221133955105
 21
32.8009144512443
 31
0.0
  0
LINE
  5
230D
330
228D
100
AcDbEntity
  8
0
 62
     0
100
AcDbLine
 10
47.97972026189279
 20
28.76537991679567
 30
0.0
 11
44.84221133955111
 21
31.90288883913735
 31
0.0
  0
LINE
  5
230E
330
228D
100
AcDbEntity
  8
0
 62
     0
100
AcDbLine
 10
41.29509980449069
 20
35.45000037419772
 30
0.0
 11
38.68703985636244
 21
38.05806032232601
 31
0.0
  0
LINE
  5
230F
330
228D
100
AcDbEntity
  8
0
 62
     0
100
AcDbLine
 10
53.12933974034843
 20
23.61576043834003
 30
0.0
 11
49.03703204804049
 21
27.70806813064798
 31
0.0
  0
LINE
  5
2310
330
228D
100
AcDbEntity
  8
0
 62
     0
100
AcDbLine
 10
47.64221133955124
 20
28.20486322703033
 30
0.0
 11
44.84221133955105
 21
31.00486322703046
 31
0.0
  0
LINE
  5
2311
330
228D
100
AcDbEntity
  8
0
 62
     0
100
AcDbLine
 10
40.39707419238368
 20
35.45000037419783
 30
0.0
 11
38.04831844053172
 21
37.7987561260498
 31
0.0
  0
LINE
  5
2312
330
228D
100
AcDbEntity
  8
0
 62
     0
100
AcDbLine
 10
53.3643785980592
 20
22.48269596852231
 30
0.0
 11
49.45150540747443
 21
26.39556915910714
 31
0.0
  0
LINE
  5
2313
330
228D
100
AcDbEntity
  8
0
 62
     0
100
AcDbLine
 10
47.64221133955118
 20
27.30683761492344
 30
0.0
 11
44.84221133955105
 21
30.10683761492356
 31
0.0
  0
LINE
  5
2314
330
228D
100
AcDbEntity
  8
0
 62
     0
100
AcDbLine
 10
39.55396068984015
 20
35.39508826463447
 30
0.0
 11
37.48956946519718
 21
37.45947948927744
 31
0.0
  0
LINE
  5
2315
330
228D
100
AcDbEntity
  8
0
 62
     0
100
AcDbLine
 10
52.79904858027686
 20
22.15000037419776
 30
0.0
 11
49.86597876690848
 21
25.08307018756608
 31
0.0
  0
LINE
  5
2316
330
228D
100
AcDbEntity
  8
0
 62
     0
100
AcDbLine
 10
47.64221133955118
 20
26.40881200281649
 30
0.0
 11
44.84221133955105
 21
29.20881200281661
 31
0.0
  0
LINE
  5
2317
330
228D
100
AcDbEntity
  8
0
 62
     0
100
AcDbLine
 10
38.98210449700116
 20
35.06891884536651
 30
0.0
 11
37.0019142565854
 21
37.04910908578228
 31
0.0
  0
LINE
  5
2318
330
228D
100
AcDbEntity
  8
0
 62
     0
100
AcDbLine
 10
51.90102296816991
 20
22.15000037419776
 30
0.0
 11
50.28045212634243
 21
23.77057121602525
 31
0.0
  0
LINE
  5
2319
330
228D
100
AcDbEntity
  8
0
 62
     0
100
AcDbLine
 10
42.72764047234892
 20
30.42535725791192
 30
0.0
 11
41.21756822326517
 21
31.93542950699566
 31
0.0
  0
LINE
  5
231A
330
228D
100
AcDbEntity
  8
0
 62
     0
100
AcDbLine
 10
47.64221133955118
 20
25.5107863907096
 30
0.0
 11
44.84221133955105
 21
28.31078639070978
 31
0.0
  0
LINE
  5
231B
330
228D
100
AcDbEntity
  8
0
 62
     0
100
AcDbLine
 10
38.62598292687221
 20
34.52701480338863
 30
0.0
 11
36.58254823057416
 21
36.57044949968668
 31
0.0
  0
LINE
  5
231C
330
228D
100
AcDbEntity
  8
0
 62
     0
100
AcDbLine
 10
50.9526643518584
 20
22.20033337840243
 30
0.0
 11
50.70231018026709
 21
22.45068754999374
 31
0.0
  0
LINE
  5
231D
330
228D
100
AcDbEntity
  8
0
 62
     0
100
AcDbLine
 10
42.64112681220701
 20
29.61384530594688
 30
0.0
 11
40.40605627130014
 21
31.84891584685374
 31
0.0
  0
LINE
  5
231E
330
228D
100
AcDbEntity
  8
0
 62
     0
100
AcDbLine
 10
38.54221133955127
 20
33.71276077860262
 30
0.0
 11
36.2336092096125
 21
36.02136290854139
 31
0.0
  0
LINE
  5
231F
330
228D
100
AcDbEntity
  8
0
 62
     0
100
AcDbLine
 10
47.64221133955118
 20
24.61276077860271
 30
0.0
 11
44.84221133955105
 21
27.41276077860283
 31
0.0
  0
LINE
  5
2320
330
228D
100
AcDbEntity
  8
0
 62
     0
100
AcDbLine
 10
42.30927125290896
 20
29.04767525313793
 30
0.0
 11
39.83988621849119
 21
31.51706028755569
 31
0.0
  0
LINE
  5
2321
330
228D
100
AcDbEntity
  8
0
 62
     0
100
AcDbLine
 10
38.54221133955127
 20
32.81473516649567
 30
0.0
 11
35.96302950240232
 21
35.39391700364462
 31
0.0
  0
LINE
  5
2322
330
228D
100
AcDbEntity
  8
0
 62
     0
100
AcDbLine
 10
47.64221133955118
 20
23.71473516649576
 30
0.0
 11
44.84221133955111
 21
26.51473516649583
 31
0.0
  0
LINE
  5
2323
330
228D
100
AcDbEntity
  8
0
 62
     0
100
AcDbLine
 10
38.54221133955127
 20
31.91670955438878
 30
0.0
 11
35.78831562947647
 21
34.67060526446363
 31
0.0
  0
LINE
  5
2324
330
228D
100
AcDbEntity
  8
0
 62
     0
100
AcDbLine
 10
41.80743781077251
 20
28.65148308316759
 30
0.0
 11
39.44369404852086
 21
31.01522684541925
 31
0.0
  0
LINE
  5
2325
330
228D
100
AcDbEntity
  8
0
 62
     0
100
AcDbLine
 10
33.11721133955109
 20
37.34170955438896
 30
0.0
 11
32.20892051974221
 21
38.2500003741979
 31
0.0
  0
LINE
  5
2326
330
228D
100
AcDbEntity
  8
0
 62
     0
100
AcDbLine
 10
47.64221133955118
 20
22.81670955438892
 30
0.0
 11
44.84221133955111
 21
25.61670955438894
 31
0.0
  0
LINE
  5
2327
330
228D
100
AcDbEntity
  8
0
 62
     0
100
AcDbLine
 10
38.54221133955127
 20
31.01868394228188
 30
0.0
 11
35.74221133955115
 21
33.81868394228201
 31
0.0
  0
LINE
  5
2328
330
228D
100
AcDbEntity
  8
0
 62
     0
100
AcDbLine
 10
41.10711836834508
 20
28.45377691348807
 30
0.0
 11
39.24598787884134
 21
30.31490740299182
 31
0.0
  0
LINE
  5
2329
330
228D
100
AcDbEntity
  8
0
 62
     0
100
AcDbLine
 10
33.11721133955109
 20
36.44368394228207
 30
0.0
 11
31.31089490763526
 21
38.25000037419784
 31
0.0
  0
LINE
  5
232A
330
228D
100
AcDbEntity
  8
0
 62
     0
100
AcDbLine
 10
47.35430753828057
 20
22.20658774355257
 30
0.0
 11
44.84221133955111
 21
24.71868394228204
 31
0.0
  0
LINE
  5
232B
330
228D
100
AcDbEntity
  8
0
 62
     0
100
AcDbLine
 10
38.54221133955127
 20
30.12065833017493
 30
0.0
 11
35.74221133955109
 21
32.92065833017506
 31
0.0
  0
LINE
  5
232C
330
228D
100
AcDbEntity
  8
0
 62
     0
100
AcDbLine
 10
33.00817736928082
 20
35.65469230044539
 30
0.0
 11
30.41286929552837
 21
38.25000037419784
 31
0.0
  0
LINE
  5
232D
330
228D
100
AcDbEntity
  8
0
 62
     0
100
AcDbLine
 10
46.51286929552845
 20
22.1500003741977
 30
0.0
 11
44.84221133955111
 21
23.82065833017509
 31
0.0
  0
LINE
  5
232E
330
228D
100
AcDbEntity
  8
0
 62
     0
100
AcDbLine
 10
38.54221133955121
 20
29.22263271806804
 30
0.0
 11
35.74221133955109
 21
32.02263271806817
 31
0.0
  0
LINE
  5
232F
330
228D
100
AcDbEntity
  8
0
 62
     0
100
AcDbLine
 10
32.31484368342149
 20
35.45000037419777
 30
0.0
 11
29.51484368342153
 21
38.25000037419773
 31
0.0
  0
LINE
  5
2330
330
228D
100
AcDbEntity
  8
0
 62
     0
100
AcDbLine
 10
45.61484368342155
 20
22.1500003741977
 30
0.0
 11
44.84221133955105
 21
22.9226327180682
 31
0.0
  0
LINE
  5
2331
330
228D
100
AcDbEntity
  8
0
 62
     0
100
AcDbLine
 10
38.54221133955127
 20
28.32460710596115
 30
0.0
 11
35.74221133955115
 21
31.12460710596128
 31
0.0
  0
LINE
  5
2332
330
228D
100
AcDbEntity
  8
0
 62
     0
100
AcDbLine
 10
31.4168180713146
 20
35.45000037419777
 30
0.0
 11
28.6516887992097
 21
38.21512964630273
 31
0.0
  0
LINE
  5
2333
330
228D
100
AcDbEntity
  8
0
 62
     0
100
AcDbLine
 10
42.38960889071427
 20
24.47720955479809
 30
0.0
 11
41.91942052015156
 21
24.94739792536086
 31
0.0
  0
LINE
  5
2334
330
228D
100
AcDbEntity
  8
0
 62
     0
100
AcDbLine
 10
38.54221133955121
 20
27.4265814938542
 30
0.0
 11
35.74221133955109
 21
30.22658149385438
 31
0.0
  0
LINE
  5
2335
330
228D
100
AcDbEntity
  8
0
 62
     0
100
AcDbLine
 10
30.5187924592077
 20
35.45000037419777
 30
0.0
 11
27.95855399073122
 21
38.01023884267426
 31
0.0
  0
LINE
  5
2336
330
228D
100
AcDbEntity
  8
0
 62
     0
100
AcDbLine
 10
42.39221133955118
 20
23.57658149385423
 30
0.0
 11
41.0187924592077
 21
24.95000037419777
 31
0.0
  0
LINE
  5
2337
330
228D
100
AcDbEntity
  8
0
 62
     0
100
AcDbLine
 10
38.54221133955121
 20
26.52855588174731
 30
0.0
 11
35.74221133955109
 21
29.32855588174744
 31
0.0
  0
LINE
  5
2338
330
228D
100
AcDbEntity
  8
0
 62
     0
100
AcDbLine
 10
29.62076684710075
 20
35.45000037419772
 30
0.0
 11
27.39430733088398
 21
37.67645989041449
 31
0.0
  0
LINE
  5
2339
330
228D
100
AcDbEntity
  8
0
 62
     0
100
AcDbLine
 10
42.39221133955118
 20
22.67855588174734
 30
0.0
 11
40.12076684710075
 21
24.95000037419771
 31
0.0
  0
LINE
  5
233A
330
228D
100
AcDbEntity
  8
0
 62
     0
100
AcDbLine
 10
29.11047401948616
 20
35.06226758970553
 30
0.0
 11
26.93621451864323
 21
37.23652709054846
 31
0.0
  0
LINE
  5
233B
330
228D
100
AcDbEntity
  8
0
 62
     0
100
AcDbLine
 10
42.00447855505887
 20
22.16826305413281
 30
0.0
 11
35.74221133955109
 21
28.43053026964054
 31
0.0
  0
LINE
  5
233C
330
228D
100
AcDbEntity
  8
0
 62
     0
100
AcDbLine
 10
29.09221133955112
 20
34.18250465753357
 30
0.0
 11
26.58273331617414
 21
36.6919826809106
 31
0.0
  0
LINE
  5
233D
330
228D
100
AcDbEntity
  8
0
 62
     0
100
AcDbLine
 10
41.12471562288703
 20
22.1500003741977
 30
0.0
 11
35.74221133955109
 21
27.53250465753365
 31
0.0
  0
LINE
  5
233E
330
228D
100
AcDbEntity
  8
0
 62
     0
100
AcDbLine
 10
29.15434704768666
 20
33.22234333729108
 30
0.0
 11
26.35185321388042
 21
36.02483717109738
 31
0.0
  0
LINE
  5
233F
330
228D
100
AcDbEntity
  8
0
 62
     0
100
AcDbLine
 10
40.22669001078009
 20
22.15000037419764
 30
0.0
 11
35.74221133955109
 21
26.6344790454267
 31
0.0
  0
LINE
  5
2340
330
228D
100
AcDbEntity
  8
0
 62
     0
100
AcDbLine
 10
33.44658743077389
 20
28.03207734209701
 30
0.0
 11
26.2922113395511
 21
35.1864534333198
 31
0.0
  0
LINE
  5
2341
330
228D
100
AcDbEntity
  8
0
 62
     0
100
AcDbLine
 10
39.27539231161643
 20
22.20327246125447
 30
0.0
 11
35.79548342660786
 21
25.68318134626304
 31
0.0
  0
LINE
  5
2342
330
228D
100
AcDbEntity
  8
0
 62
     0
100
AcDbLine
 10
33.63848194485911
 20
26.9421572159049
 30
0.0
 11
26.29221133955116
 21
34.28842782121285
 31
0.0
  0
LINE
  5
2343
330
228D
100
AcDbEntity
  8
0
 62
     0
100
AcDbLine
 10
37.90158439901484
 20
22.67905476174911
 30
0.0
 11
36.27126572710245
 21
24.30937343366156
 31
0.0
  0
LINE
  5
2344
330
228D
100
AcDbEntity
  8
0
 62
     0
100
AcDbLine
 10
33.64221133955124
 20
26.04040220910582
 30
0.0
 11
26.29977578697356
 21
33.38283776168345
 31
0.0
  0
LINE
  5
2345
330
228D
100
AcDbEntity
  8
0
 62
     0
100
AcDbLine
 10
33.64221133955118
 20
25.14237659699893
 30
0.0
 11
26.52306654529741
 21
32.26152139125264
 31
0.0
  0
LINE
  5
2346
330
228D
100
AcDbEntity
  8
0
 62
     0
100
AcDbLine
 10
33.56969134341927
 20
24.31687098102401
 30
0.0
 11
30.80629969980021
 21
27.08026262464307
 31
0.0
  0
LINE
  5
2347
330
228D
100
AcDbEntity
  8
0
 62
     0
100
AcDbLine
 10
33.32775340439042
 20
23.66078330794591
 30
0.0
 11
30.84221133955117
 21
26.14632537278516
 31
0.0
  0
LINE
  5
2348
330
228D
100
AcDbEntity
  8
0
 62
     0
100
AcDbLine
 10
32.96563415700865
 20
23.12487694322073
 30
0.0
 11
30.8063123072505
 21
25.28419879297889
 31
0.0
  0
LINE
  5
2349
330
228D
100
AcDbEntity
  8
0
 62
     0
100
AcDbLine
 10
32.49940778474178
 20
22.69307770338071
 30
0.0
 11
30.24248511392466
 21
24.95000037419789
 31
0.0
  0
LINE
  5
234A
330
228D
100
AcDbEntity
  8
0
 62
     0
100
AcDbLine
 10
31.92614333700897
 20
22.36831653900663
 30
0.0
 11
29.34445950181771
 21
24.95000037419783
 31
0.0
  0
LINE
  5
234B
330
228D
100
AcDbEntity
  8
0
 62
     0
100
AcDbLine
 10
31.22073074792303
 20
22.17570351598562
 30
0.0
 11
28.44643388971088
 21
24.95000037419777
 31
0.0
  0
LINE
  5
234C
330
228D
100
AcDbEntity
  8
0
 62
     0
100
AcDbLine
 10
30.348408277604
 20
22.15000037419764
 30
0.0
 11
27.54840827760399
 21
24.95000037419771
 31
0.0
  0
LINE
  5
234D
330
228D
100
AcDbEntity
  8
0
 62
     0
100
AcDbLine
 10
29.45038266549705
 20
22.15000037419776
 30
0.0
 11
26.89705877067917
 21
24.7033242690157
 31
0.0
  0
LINE
  5
234E
330
228D
100
AcDbEntity
  8
0
 62
     0
100
AcDbLine
 10
28.55235705339016
 20
22.15000037419776
 30
0.0
 11
26.81721133955119
 21
23.88514608803672
 31
0.0
  0
LINE
  5
234F
330
228D
100
AcDbEntity
  8
0
 62
     0
100
AcDbLine
 10
27.65433144128321
 20
22.15000037419776
 30
0.0
 11
26.81721133955119
 21
22.98712047592977
 31
0.0
  0
LINE
  5
2350
330
228D
100
AcDbEntity
  8
0
 62
     0
100
AcDbLine
 10
83.63389862421815
 20
22.16313215131533
 30
0.0
 11
84.02907956243394
 21
22.55831308953111
 31
0.0
  0
LINE
  5
2351
330
228D
100
AcDbEntity
  8
0
 62
     0
100
AcDbLine
 10
82.7227412349937
 20
22.1500003741977
 30
0.0
 11
84.04221133955138
 21
23.4694704787554
 31
0.0
  0
LINE
  5
2352
330
228D
100
AcDbEntity
  8
0
 62
     0
100
AcDbLine
 10
81.8247156228868
 20
22.1500003741977
 30
0.0
 11
84.04221133955138
 21
24.36749609086229
 31
0.0
  0
LINE
  5
2353
330
228D
100
AcDbEntity
  8
0
 62
     0
100
AcDbLine
 10
81.27340890280306
 20
22.49671926622091
 30
0.0
 11
84.04221133955132
 21
25.26552170296924
 31
0.0
  0
LINE
  5
2354
330
228D
100
AcDbEntity
  8
0
 62
     0
100
AcDbLine
 10
81.24221133955126
 20
23.36354731507606
 30
0.0
 11
84.04221133955132
 21
26.16354731507608
 31
0.0
  0
LINE
  5
2355
330
228D
100
AcDbEntity
  8
0
 62
     0
100
AcDbLine
 10
81.24221133955131
 20
24.26157292718296
 30
0.0
 11
84.04221133955132
 21
27.06157292718302
 31
0.0
  0
LINE
  5
2356
330
228D
100
AcDbEntity
  8
0
 62
     0
100
AcDbLine
 10
81.24221133955126
 20
25.1595985392899
 30
0.0
 11
84.04221133955132
 21
27.95959853928997
 31
0.0
  0
LINE
  5
2357
330
228D
100
AcDbEntity
  8
0
 62
     0
100
AcDbLine
 10
81.24221133955126
 20
26.05762415139679
 30
0.0
 11
84.04221133955132
 21
28.85762415139686
 31
0.0
  0
LINE
  5
2358
330
228D
100
AcDbEntity
  8
0
 62
     0
100
AcDbLine
 10
77.66877620161654
 20
22.48418901346207
 30
0.0
 11
78.80802270028709
 21
23.62343551213269
 31
0.0
  0
LINE
  5
2359
330
228D
100
AcDbEntity
  8
0
 62
     0
100
AcDbLine
 10
81.24221133955126
 20
26.95564976350369
 30
0.0
 11
84.04221133955132
 21
29.75564976350375
 31
0.0
  0
LINE
  5
235A
330
228D
100
AcDbEntity
  8
0
 62
     0
100
AcDbLine
 10
76.43820803509374
 20
22.15164645904616
 30
0.0
 11
79.14056525470306
 21
24.85400367865543
 31
0.0
  0
LINE
  5
235B
330
228D
100
AcDbEntity
  8
0
 62
     0
100
AcDbLine
 10
81.24221133955126
 20
27.85367537561064
 30
0.0
 11
84.04221133955132
 21
30.65367537561065
 31
0.0
  0
LINE
  5
235C
330
228D
100
AcDbEntity
  8
0
 62
     0
100
AcDbLine
 10
75.53853633813833
 20
22.1500003741977
 30
0.0
 11
79.14221133955135
 21
25.75367537561067
 31
0.0
  0
LINE
  5
235D
330
228D
100
AcDbEntity
  8
0
 62
     0
100
AcDbLine
 10
81.24221133955126
 20
28.75170098771753
 30
0.0
 11
84.04221133955127
 21
31.5517009877176
 31
0.0
  0
LINE
  5
235E
330
228D
100
AcDbEntity
  8
0
 62
     0
100
AcDbLine
 10
74.64051072603144
 20
22.1500003741977
 30
0.0
 11
79.1422113395513
 21
26.65170098771762
 31
0.0
  0
LINE
  5
235F
330
228D
100
AcDbEntity
  8
0
 62
     0
100
AcDbLine
 10
81.24221133955126
 20
29.64972659982442
 30
0.0
 11
84.04221133955132
 21
32.44972659982449
 31
0.0
  0
LINE
  5
2360
330
228D
100
AcDbEntity
  8
0
 62
     0
100
AcDbLine
 10
73.7424851139246
 20
22.15000037419776
 30
0.0
 11
79.14221133955135
 21
27.54972659982451
 31
0.0
  0
LINE
  5
2361
330
228D
100
AcDbEntity
  8
0
 62
     0
100
AcDbLine
 10
76.23762013747023
 20
25.54316100985034
 30
0.0
 11
79.14221133955135
 21
28.4477522119314
 31
0.0
  0
LINE
  5
2362
330
228D
100
AcDbEntity
  8
0
 62
     0
100
AcDbLine
 10
81.24221133955126
 20
30.54775221193131
 30
0.0
 11
84.04221133955132
 21
33.34775221193138
 31
0.0
  0
LINE
  5
2363
330
228D
100
AcDbEntity
  8
0
 62
     0
100
AcDbLine
 10
72.84445950181759
 20
22.1500003741977
 30
0.0
 11
75.74905070389871
 21
25.05459157627877
 31
0.0
  0
LINE
  5
2364
330
228D
100
AcDbEntity
  8
0
 62
     0
100
AcDbLine
 10
76.34221133955122
 20
26.54577782403829
 30
0.0
 11
79.1422113395513
 21
29.34577782403835
 31
0.0
  0
LINE
  5
2365
330
228D
100
AcDbEntity
  8
0
 62
     0
100
AcDbLine
 10
81.24221133955121
 20
31.44577782403826
 30
0.0
 11
84.04221133955127
 21
34.24577782403833
 31
0.0
  0
LINE
  5
2366
330
228D
100
AcDbEntity
  8
0
 62
     0
100
AcDbLine
 10
72.05838364108791
 20
22.26195012557491
 30
0.0
 11
74.74643388971077
 21
24.95000037419777
 31
0.0
  0
LINE
  5
2367
330
228D
100
AcDbEntity
  8
0
 62
     0
100
AcDbLine
 10
76.34221133955128
 20
27.44380343614529
 30
0.0
 11
79.1422113395513
 21
30.24380343614524
 31
0.0
  0
LINE
  5
2368
330
228D
100
AcDbEntity
  8
0
 62
     0
100
AcDbLine
 10
81.24221133955121
 20
32.34380343614521
 30
0.0
 11
84.04221133955127
 21
35.14380343614522
 31
0.0
  0
LINE
  5
2369
330
228D
100
AcDbEntity
  8
0
 62
     0
100
AcDbLine
 10
71.43039677387776
 20
22.53198887047176
 30
0.0
 11
73.8492860632482
 21
24.9508781598422
 31
0.0
  0
LINE
  5
236A
330
228D
100
AcDbEntity
  8
0
 62
     0
100
AcDbLine
 10
76.34221133955134
 20
28.34182904825218
 30
0.0
 11
79.1422113395513
 21
31.14182904825213
 31
0.0
  0
LINE
  5
236B
330
228D
100
AcDbEntity
  8
0
 62
     0
100
AcDbLine
 10
81.24221133955126
 20
33.24182904825204
 30
0.0
 11
84.04221133955127
 21
36.04182904825211
 31
0.0
  0
LINE
  5
236C
330
228D
100
AcDbEntity
  8
0
 62
     0
100
AcDbLine
 10
70.91713689251259
 20
22.91675460121343
 30
0.0
 11
73.20580747453551
 21
25.20542518323634
 31
0.0
  0
LINE
  5
236D
330
228D
100
AcDbEntity
  8
0
 62
     0
100
AcDbLine
 10
76.34221133955134
 20
29.23985466035907
 30
0.0
 11
79.1422113395513
 21
32.03985466035908
 31
0.0
  0
LINE
  5
236E
330
228D
100
AcDbEntity
  8
0
 62
     0
100
AcDbLine
 10
81.24221133955121
 20
34.13985466035899
 30
0.0
 11
84.04221133955127
 21
36.93985466035906
 31
0.0
  0
LINE
  5
236F
330
228D
100
AcDbEntity
  8
0
 62
     0
100
AcDbLine
 10
70.50717271728757
 20
23.4048160380953
 30
0.0
 11
72.86856919612609
 21
25.76621251693388
 31
0.0
  0
LINE
  5
2370
330
228D
100
AcDbEntity
  8
0
 62
     0
100
AcDbLine
 10
76.34221133955128
 20
30.13788027246602
 30
0.0
 11
79.14221133955135
 21
32.93788027246609
 31
0.0
  0
LINE
  5
2371
330
228D
100
AcDbEntity
  8
0
 62
     0
100
AcDbLine
 10
81.24221133955121
 20
35.03788027246589
 30
0.0
 11
84.03206218600081
 21
37.82773111891555
 31
0.0
  0
LINE
  5
2372
330
228D
100
AcDbEntity
  8
0
 62
     0
100
AcDbLine
 10
70.20724783885356
 20
24.0029167717683
 30
0.0
 11
72.84221133955128
 21
26.63788027246596
 31
0.0
  0
LINE
  5
2373
330
228D
100
AcDbEntity
  8
0
 62
     0
100
AcDbLine
 10
76.34221133955134
 20
31.03590588457286
 30
0.0
 11
79.14221133955141
 21
33.83590588457292
 31
0.0
  0
LINE
  5
2374
330
228D
100
AcDbEntity
  8
0
 62
     0
100
AcDbLine
 10
81.24221133955121
 20
35.93590588457278
 30
0.0
 11
83.55494784092133
 21
38.2486423859429
 31
0.0
  0
LINE
  5
2375
330
228D
100
AcDbEntity
  8
0
 62
     0
100
AcDbLine
 10
70.04983430389711
 20
24.74352884891869
 30
0.0
 11
72.84221133955128
 21
27.53590588457285
 31
0.0
  0
LINE
  5
2376
330
228D
100
AcDbEntity
  8
0
 62
     0
100
AcDbLine
 10
76.34221133955128
 20
31.93393149667981
 30
0.0
 11
79.14221133955135
 21
34.73393149667987
 31
0.0
  0
LINE
  5
2377
330
228D
100
AcDbEntity
  8
0
 62
     0
100
AcDbLine
 10
81.24221133955121
 20
36.83393149667973
 30
0.0
 11
82.65828021706926
 21
38.25000037419778
 31
0.0
  0
LINE
  5
2378
330
228D
100
AcDbEntity
  8
0
 62
     0
100
AcDbLine
 10
70.04221133955133
 20
25.63393149667979
 30
0.0
 11
72.84221133955134
 21
28.43393149667986
 31
0.0
  0
LINE
  5
2379
330
228D
100
AcDbEntity
  8
0
 62
     0
100
AcDbLine
 10
76.34221133955128
 20
32.83195710878676
 30
0.0
 11
79.14221133955135
 21
35.63195710878677
 31
0.0
  0
LINE
  5
237A
330
228D
100
AcDbEntity
  8
0
 62
     0
100
AcDbLine
 10
70.04221133955127
 20
26.53195710878674
 30
0.0
 11
72.84221133955134
 21
29.33195710878681
 31
0.0
  0
LINE
  5
237B
330
228D
100
AcDbEntity
  8
0
 62
     0
100
AcDbLine
 10
81.24225805429871
 20
37.73200382353417
 30
0.0
 11
81.76020789021498
 21
38.2499536594504
 31
0.0
  0
LINE
  5
237C
330
228D
100
AcDbEntity
  8
0
 62
     0
100
AcDbLine
 10
65.72065570883927
 20
22.21040147807469
 30
0.0
 11
67.88181023567443
 21
24.37155600490991
 31
0.0
  0
LINE
  5
237D
330
228D
100
AcDbEntity
  8
0
 62
     0
100
AcDbLine
 10
70.04221133955127
 20
27.42998272089363
 30
0.0
 11
72.84221133955134
 21
30.2299827208937
 31
0.0
  0
LINE
  5
237E
330
228D
100
AcDbEntity
  8
0
 62
     0
100
AcDbLine
 10
76.34221133955128
 20
33.72998272089365
 30
0.0
 11
79.1422113395513
 21
36.52998272089372
 31
0.0
  0
LINE
  5
237F
330
228D
100
AcDbEntity
  8
0
 62
     0
100
AcDbLine
 10
64.7622289928554
 20
22.15000037419782
 30
0.0
 11
67.94221133955125
 21
25.32998272089367
 31
0.0
  0
LINE
  5
2380
330
228D
100
AcDbEntity
  8
0
 62
     0
100
AcDbLine
 10
70.04221133955127
 20
28.32800833300053
 30
0.0
 11
72.84221133955134
 21
31.1280083330006
 31
0.0
  0
LINE
  5
2381
330
228D
100
AcDbEntity
  8
0
 62
     0
100
AcDbLine
 10
76.34221133955128
 20
34.62800833300054
 30
0.0
 11
79.14221133955135
 21
37.42800833300061
 31
0.0
  0
LINE
  5
2382
330
228D
100
AcDbEntity
  8
0
 62
     0
100
AcDbLine
 10
63.8642033807485
 20
22.15000037419776
 30
0.0
 11
67.9422113395513
 21
26.2280083330005
 31
0.0
  0
LINE
  5
2383
330
228D
100
AcDbEntity
  8
0
 62
     0
100
AcDbLine
 10
70.04221133955127
 20
29.22603394510748
 30
0.0
 11
72.84221133955134
 21
32.02603394510749
 31
0.0
  0
LINE
  5
2384
330
228D
100
AcDbEntity
  8
0
 62
     0
100
AcDbLine
 10
76.34221133955128
 20
35.52603394510743
 30
0.0
 11
78.9484738847172
 21
38.1322964902734
 31
0.0
  0
LINE
  5
2385
330
228D
100
AcDbEntity
  8
0
 62
     0
100
AcDbLine
 10
62.96617776864161
 20
22.15000037419782
 30
0.0
 11
67.92789273913832
 21
27.11171534469452
 31
0.0
  0
LINE
  5
2386
330
228D
100
AcDbEntity
  8
0
 62
     0
100
AcDbLine
 10
70.04221133955127
 20
30.12405955721437
 30
0.0
 11
72.84221133955128
 21
32.92405955721444
 31
0.0
  0
LINE
  5
2387
330
228D
100
AcDbEntity
  8
0
 62
     0
100
AcDbLine
 10
76.34221133955122
 20
36.42405955721438
 30
0.0
 11
78.16815215653469
 21
38.25000037419784
 31
0.0
  0
LINE
  5
2388
330
228D
100
AcDbEntity
  8
0
 62
     0
100
AcDbLine
 10
62.06815215653467
 20
22.15000037419782
 30
0.0
 11
67.79298036850957
 21
27.87482858617267
 31
0.0
  0
LINE
  5
2389
330
228D
100
AcDbEntity
  8
0
 62
     0
100
AcDbLine
 10
70.04221133955127
 20
31.02208516932126
 30
0.0
 11
72.84221133955134
 21
33.82208516932133
 31
0.0
  0
LINE
  5
238A
330
228D
100
AcDbEntity
  8
0
 62
     0
100
AcDbLine
 10
65.14221133955141
 20
26.12208516932134
 30
0.0
 11
67.55239291159103
 21
28.53226674136096
 31
0.0
  0
LINE
  5
238B
330
228D
100
AcDbEntity
  8
0
 62
     0
100
AcDbLine
 10
76.34221133955128
 20
37.32208516932127
 30
0.0
 11
77.27012654442785
 21
38.25000037419784
 31
0.0
  0
LINE
  5
238C
330
228D
100
AcDbEntity
  8
0
 62
     0
100
AcDbLine
 10
61.2983818975589
 20
22.27825572732888
 30
0.0
 11
63.97012654442779
 21
24.95000037419777
 31
0.0
  0
LINE
  5
238D
330
228D
100
AcDbEntity
  8
0
 62
     0
100
AcDbLine
 10
65.122340764424
 20
27.00024020630087
 30
0.0
 11
67.22889360673048
 21
29.10679304860736
 31
0.0
  0
LINE
  5
238E
330
228D
100
AcDbEntity
  8
0
 62
     0
100
AcDbLine
 10
70.04221133955127
 20
31.92011078142815
 30
0.0
 11
72.84221133955128
 21
34.72011078142822
 31
0.0
  0
LINE
  5
238F
330
228D
100
AcDbEntity
  8
0
 62
     0
100
AcDbLine
 10
61.11721133955132
 20
22.9951107814282
 30
0.0
 11
63.07210093232083
 21
24.95000037419777
 31
0.0
  0
LINE
  5
2390
330
228D
100
AcDbEntity
  8
0
 62
     0
100
AcDbLine
 10
64.84795592728511
 20
27.623880981269
 30
0.0
 11
66.83302248880266
 21
29.60894754278655
 31
0.0
  0
LINE
  5
2391
330
228D
100
AcDbEntity
  8
0
 62
     0
100
AcDbLine
 10
70.04221133955121
 20
32.8181363935351
 30
0.0
 11
72.84221133955128
 21
35.61813639353517
 31
0.0
  0
LINE
  5
2392
330
228D
100
AcDbEntity
  8
0
 62
     0
100
AcDbLine
 10
61.11721133955126
 20
23.89313639353515
 30
0.0
 11
62.17407532021394
 21
24.95000037419783
 31
0.0
  0
LINE
  5
2393
330
228D
100
AcDbEntity
  8
0
 62
     0
100
AcDbLine
 10
70.04221133955127
 20
33.71616200564199
 30
0.0
 11
72.84221133955134
 21
36.516162005642
 31
0.0
  0
LINE
  5
2394
330
228D
100
AcDbEntity
  8
0
 62
     0
100
AcDbLine
 10
64.40668103016804
 20
28.08063169625871
 30
0.0
 11
66.38658001749035
 21
30.06053068358102
 31
0.0
  0
LINE
  5
2395
330
228D
100
AcDbEntity
  8
0
 62
     0
100
AcDbLine
 10
63.95766822411457
 20
28.52964450231218
 30
0.0
 11
65.93756721143688
 21
30.5095434896345
 31
0.0
  0
LINE
  5
2396
330
228D
100
AcDbEntity
  8
0
 62
     0
100
AcDbLine
 10
70.04221133955121
 20
34.61418761774889
 30
0.0
 11
72.84221133955128
 21
37.41418761774895
 31
0.0
  0
LINE
  5
2397
330
228D
100
AcDbEntity
  8
0
 62
     0
100
AcDbLine
 10
57.57802409600009
 20
22.15000037419776
 30
0.0
 11
58.49221133955126
 21
23.06418761774887
 31
0.0
  0
LINE
  5
2398
330
228D
100
AcDbEntity
  8
0
 62
     0
100
AcDbLine
 10
63.50865541806109
 20
28.97865730836566
 30
0.0
 11
65.48855440538341
 21
30.95855629568797
 31
0.0
  0
LINE
  5
2399
330
228D
100
AcDbEntity
  8
0
 62
     0
100
AcDbLine
 10
70.04221133955121
 20
35.51221322985583
 30
0.0
 11
72.65603043145262
 21
38.12603232175718
 31
0.0
  0
LINE
  5
239A
330
228D
100
AcDbEntity
  8
0
 62
     0
100
AcDbLine
 10
56.67999848389314
 20
22.15000037419776
 30
0.0
 11
58.49221133955132
 21
23.96221322985588
 31
0.0
  0
LINE
  5
239B
330
228D
100
AcDbEntity
  8
0
 62
     0
100
AcDbLine
 10
63.05964261200762
 20
29.42767011441913
 30
0.0
 11
65.03954159932994
 21
31.40756910174145
 31
0.0
  0
LINE
  5
239C
330
228D
100
AcDbEntity
  8
0
 62
     0
100
AcDbLine
 10
70.04221133955121
 20
36.41023884196272
 30
0.0
 11
71.88197287178628
 21
38.25000037419784
 31
0.0
  0
LINE
  5
239D
330
228D
100
AcDbEntity
  8
0
 62
     0
100
AcDbLine
 10
55.89358400964823
 20
22.26161151205975
 30
0.0
 11
58.49221133955126
 21
24.86023884196283
 31
0.0
  0
LINE
  5
239E
330
228D
100
AcDbEntity
  8
0
 62
     0
100
AcDbLine
 10
62.6106298059542
 20
29.87668292047255
 30
0.0
 11
64.59052879327652
 21
31.85658190779486
 31
0.0
  0
LINE
  5
239F
330
228D
100
AcDbEntity
  8
0
 62
     0
100
AcDbLine
 10
70.04221133955121
 20
37.30826445406961
 30
0.0
 11
70.98394725967949
 21
38.25000037419784
 31
0.0
  0
LINE
  5
23A0
330
228D
100
AcDbEntity
  8
0
 62
     0
100
AcDbLine
 10
55.69221133955131
 20
22.95826445406971
 30
0.0
 11
58.49221133955132
 21
25.75826445406966
 31
0.0
  0
LINE
  5
23A1
330
228D
100
AcDbEntity
  8
0
 62
     0
100
AcDbLine
 10
62.16161699990073
 20
30.32569572652602
 30
0.0
 11
64.14151598722305
 21
32.30559471384834
 31
0.0
  0
LINE
  5
23A2
330
228D
100
AcDbEntity
  8
0
 62
     0
100
AcDbLine
 10
55.69221133955131
 20
23.85629006617666
 30
0.0
 11
58.49221133955126
 21
26.65629006617661
 31
0.0
  0
LINE
  5
23A3
330
228D
100
AcDbEntity
  8
0
 62
     0
100
AcDbLine
 10
61.7146330988594
 20
30.77673743759169
 30
0.0
 11
63.69860663224142
 21
32.76071097097366
 31
0.0
  0
LINE
  5
23A4
330
228D
100
AcDbEntity
  8
0
 62
     0
100
AcDbLine
 10
55.69221133955131
 20
24.75431567828355
 30
0.0
 11
58.49221133955126
 21
27.55431567828356
 31
0.0
  0
LINE
  5
23A5
330
228D
100
AcDbEntity
  8
0
 62
     0
100
AcDbLine
 10
66.38789603546547
 20
35.45000037419777
 30
0.0
 11
67.41721133955133
 21
36.47931567828357
 31
0.0
  0
LINE
  5
23A6
330
228D
100
AcDbEntity
  8
0
 62
     0
100
AcDbLine
 10
53.19955511484107
 20
22.26165945357331
 30
0.0
 11
53.28920747629609
 21
22.3513118150284
 31
0.0
  0
LINE
  5
23A7
330
228D
100
AcDbEntity
  8
0
 62
     0
100
AcDbLine
 10
61.31663092003742
 20
31.27676087087656
 30
0.0
 11
63.41626519745602
 21
33.37639514829516
 31
0.0
  0
LINE
  5
23A8
330
228D
100
AcDbEntity
  8
0
 62
     0
100
AcDbLine
 10
55.69221133955131
 20
25.65234129039044
 30
0.0
 11
58.49221133955132
 21
28.4523412903904
 31
0.0
  0
LINE
  5
23A9
330
228D
100
AcDbEntity
  8
0
 62
     0
100
AcDbLine
 10
65.4898704233587
 20
35.45000037419783
 30
0.0
 11
67.41721133955133
 21
37.37734129039046
 31
0.0
  0
LINE
  5
23AA
330
228D
100
AcDbEntity
  8
0
 62
     0
100
AcDbLine
 10
52.18987042335863
 20
22.15000037419776
 30
0.0
 11
53.25564951966516
 21
23.21577947050429
 31
0.0
  0
LINE
  5
23AB
330
228D
100
AcDbEntity
  8
0
 62
     0
100
AcDbLine
 10
60.99079665564073
 20
31.84895221858682
 30
0.0
 11
63.39221133955141
 21
34.25036690249749
 31
0.0
  0
LINE
  5
23AC
330
228D
100
AcDbEntity
  8
0
 62
     0
100
AcDbLine
 10
55.69221133955131
 20
26.55036690249733
 30
0.0
 11
58.49221133955126
 21
29.35036690249734
 31
0.0
  0
LINE
  5
23AD
330
228D
100
AcDbEntity
  8
0
 62
     0
100
AcDbLine
 10
64.59184481125169
 20
35.45000037419777
 30
0.0
 11
67.25054240775341
 21
38.1086979706995
 31
0.0
  0
LINE
  5
23AE
330
228D
100
AcDbEntity
  8
0
 62
     0
100
AcDbLine
 10
51.29184481125162
 20
22.1500003741977
 30
0.0
 11
53.04012337275946
 21
23.89827893570555
 31
0.0
  0
LINE
  5
23AF
330
228D
100
AcDbEntity
  8
0
 62
     0
100
AcDbLine
 10
55.69221133955124
 20
27.44839251460428
 30
0.0
 11
58.49221133955126
 21
30.24839251460424
 31
0.0
  0
LINE
  5
23B0
330
228D
100
AcDbEntity
  8
0
 62
     0
100
AcDbLine
 10
60.74741459297064
 20
32.50359576802367
 30
0.0
 11
66.49381919914481
 21
38.25000037419784
 31
0.0
  0
LINE
  5
23B1
330
228D
100
AcDbEntity
  8
0
 62
     0
100
AcDbLine
 10
50.69983050059665
 20
22.45601167564968
 30
0.0
 11
52.82459722585378
 21
24.58077840090681
 31
0.0
  0
LINE
  5
23B2
330
228D
100
AcDbEntity
  8
0
 62
     0
100
AcDbLine
 10
55.69221133955124
 20
28.34641812671123
 30
0.0
 11
58.4922113395512
 21
31.14641812671119
 31
0.0
  0
LINE
  5
23B3
330
228D
100
AcDbEntity
  8
0
 62
     0
100
AcDbLine
 10
60.60870773388495
 20
33.26291452104494
 30
0.0
 11
65.59579358703792
 21
38.25000037419784
 31
0.0
  0
LINE
  5
23B4
330
228D
100
AcDbEntity
  8
0
 62
     0
100
AcDbLine
 10
50.48107107894804
 20
23.13527786610803
 30
0.0
 11
52.60907107894809
 21
25.26327786610807
 31
0.0
  0
LINE
  5
23B5
330
228D
100
AcDbEntity
  8
0
 62
     0
100
AcDbLine
 10
55.69221133955131
 20
29.24444373881807
 30
0.0
 11
58.49221133955126
 21
32.04444373881808
 31
0.0
  0
LINE
  5
23B6
330
228D
100
AcDbEntity
  8
0
 62
     0
100
AcDbLine
 10
60.59221133955128
 20
34.14444373881804
 30
0.0
 11
64.69776797493103
 21
38.25000037419784
 31
0.0
  0
LINE
  5
23B7
330
228D
100
AcDbEntity
  8
0
 62
     0
100
AcDbLine
 10
50.26554493204241
 20
23.81777733130923
 30
0.0
 11
52.39354493204252
 21
25.94577733130928
 31
0.0
  0
LINE
  5
23B8
330
228D
100
AcDbEntity
  8
0
 62
     0
100
AcDbLine
 10
55.69221133955124
 20
30.14246935092501
 30
0.0
 11
58.49221133955126
 21
32.94246935092497
 31
0.0
  0
LINE
  5
23B9
330
228D
100
AcDbEntity
  8
0
 62
     0
100
AcDbLine
 10
60.59221133955134
 20
35.04246935092505
 30
0.0
 11
63.79974236282413
 21
38.25000037419784
 31
0.0
  0
LINE
  5
23BA
330
228D
100
AcDbEntity
  8
0
 62
     0
100
AcDbLine
 10
50.05001878513667
 20
24.50027679651043
 30
0.0
 11
52.17801878513689
 21
26.62827679651065
 31
0.0
  0
LINE
  5
23BB
330
228D
100
AcDbEntity
  8
0
 62
     0
100
AcDbLine
 10
55.69221133955124
 20
31.0404949630319
 30
0.0
 11
58.49221133955132
 21
33.84049496303197
 31
0.0
  0
LINE
  5
23BC
330
228D
100
AcDbEntity
  8
0
 62
     0
100
AcDbLine
 10
49.83449263823104
 20
25.18277626171175
 30
0.0
 11
51.96249263823114
 21
27.3107762617118
 31
0.0
  0
LINE
  5
23BD
330
228D
100
AcDbEntity
  8
0
 62
     0
100
AcDbLine
 10
60.64552800967248
 20
35.9938116331532
 30
0.0
 11
62.84840008059581
 21
38.19668370407652
 31
0.0
  0
LINE
  5
23BE
330
228D
100
AcDbEntity
  8
0
 62
     0
100
AcDbLine
 10
46.80171675071704
 20
22.15000037419776
 30
0.0
 11
47.64221133955124
 21
22.99049496303195
 31
0.0
  0
LINE
  5
23BF
330
228D
100
AcDbEntity
  8
0
 62
     0
100
AcDbLine
 10
49.61896649132547
 20
25.86527572691295
 30
0.0
 11
51.74696649132551
 21
27.99327572691306
 31
0.0
  0
LINE
  5
23C0
330
228D
100
AcDbEntity
  8
0
 62
     0
100
AcDbLine
 10
55.69221133955124
 20
31.9385205751388
 30
0.0
 11
58.49221133955132
 21
34.73852057513886
 31
0.0
  0
LINE
  5
23C1
330
228D
100
AcDbEntity
  8
0
 62
     0
100
AcDbLine
 10
45.90369113861021
 20
22.1500003741977
 30
0.0
 11
47.64221133955129
 21
23.88852057513884
 31
0.0
  0
LINE
  5
23C2
330
228D
100
AcDbEntity
  8
0
 62
     0
100
AcDbLine
 10
49.40344034441977
 20
26.54777519211422
 30
0.0
 11
51.53144034441982
 21
28.67577519211432
 31
0.0
  0
LINE
  5
23C3
330
228D
100
AcDbEntity
  8
0
 62
     0
100
AcDbLine
 10
55.69221133955124
 20
32.83654618724574
 30
0.0
 11
58.49221133955132
 21
35.63654618724576
 31
0.0
  0
LINE
  5
23C4
330
228D
100
AcDbEntity
  8
0
 62
     0
100
AcDbLine
 10
45.08681527415456
 20
22.23115012184905
 30
0.0
 11
47.64221133955129
 21
24.78654618724573
 31
0.0
  0
LINE
  5
23C5
330
228D
100
AcDbEntity
  8
0
 62
     0
100
AcDbLine
 10
49.18791419751409
 20
27.23027465731548
 30
0.0
 11
51.31591419751413
 21
29.35827465731558
 31
0.0
  0
LINE
  5
23C6
330
228D
100
AcDbEntity
  8
0
 62
     0
100
AcDbLine
 10
55.69221133955124
 20
33.73457179935264
 30
0.0
 11
58.49221133955126
 21
36.53457179935271
 31
0.0
  0
LINE
  5
23C7
330
228D
100
AcDbEntity
  8
0
 62
     0
100
AcDbLine
 10
44.84221133955128
 20
22.88457179935267
 30
0.0
 11
47.64221133955135
 21
25.68457179935274
 31
0.0
  0
LINE
  5
23C8
330
228D
100
AcDbEntity
  8
0
 62
     0
100
AcDbLine
 10
48.97238805060846
 20
27.91277412251668
 30
0.0
 11
51.10038805060861
 21
30.04077412251684
 31
0.0
  0
LINE
  5
23C9
330
228D
100
AcDbEntity
  8
0
 62
     0
100
AcDbLine
 10
55.69221133955124
 20
34.63259741145953
 30
0.0
 11
58.49221133955132
 21
37.4325974114596
 31
0.0
  0
LINE
  5
23CA
330
228D
100
AcDbEntity
  8
0
 62
     0
100
AcDbLine
 10
44.84221133955128
 20
23.78259741145956
 30
0.0
 11
47.64221133955135
 21
26.58259741145963
 31
0.0
  0
LINE
  5
23CB
330
228D
100
AcDbEntity
  8
0
 62
     0
100
AcDbLine
 10
48.73758926363672
 20
28.57600094765195
 30
0.0
 11
51.36788333156761
 21
31.20629501558284
 31
0.0
  0
LINE
  5
23CC
330
228D
100
AcDbEntity
  8
0
 62
     0
100
AcDbLine
 10
55.69221133955131
 20
35.53062302356654
 30
0.0
 11
58.29593591705287
 21
38.13434760106805
 31
0.0
  0
LINE
  5
23CD
330
228D
100
AcDbEntity
  8
0
 62
     0
100
AcDbLine
 10
44.84221133955128
 20
24.68062302356651
 30
0.0
 11
47.64221133955135
 21
27.48062302356653
 31
0.0
  0
LINE
  5
23CE
330
228D
100
AcDbEntity
  8
0
 62
     0
100
AcDbLine
 10
48.05040389376933
 20
28.78684118989151
 30
0.0
 11
51.7823566910016
 21
32.51879398712379
 31
0.0
  0
LINE
  5
23CF
330
228D
100
AcDbEntity
  8
0
 62
     0
100
AcDbLine
 10
44.84221133955128
 20
25.57864863567341
 30
0.0
 11
47.65537052385758
 21
28.39180781997971
 31
0.0
  0
LINE
  5
23D0
330
228D
100
AcDbEntity
  8
0
 62
     0
100
AcDbLine
 10
55.69221133955131
 20
36.42864863567343
 30
0.0
 11
57.51356307807566
 21
38.25000037419784
 31
0.0
  0
LINE
  5
23D1
330
228D
100
AcDbEntity
  8
0
 62
     0
100
AcDbLine
 10
41.41356307807564
 20
22.15000037419776
 30
0.0
 11
42.39221133955129
 21
23.12864863567347
 31
0.0
  0
LINE
  5
23D2
330
228D
100
AcDbEntity
  8
0
 62
     0
100
AcDbLine
 10
44.84221133955123
 20
26.47667424778035
 30
0.0
 11
52.19683005043555
 21
33.83129295866468
 31
0.0
  0
LINE
  5
23D3
330
228D
100
AcDbEntity
  8
0
 62
     0
100
AcDbLine
 10
55.69221133955124
 20
37.32667424778038
 30
0.0
 11
56.61553746596871
 21
38.25000037419784
 31
0.0
  0
LINE
  5
23D4
330
228D
100
AcDbEntity
  8
0
 62
     0
100
AcDbLine
 10
40.51553746596868
 20
22.15000037419782
 30
0.0
 11
42.39221133955135
 21
24.02667424778048
 31
0.0
  0
LINE
  5
23D5
330
228D
100
AcDbEntity
  8
0
 62
     0
100
AcDbLine
 10
44.84221133955128
 20
27.37469985988719
 30
0.0
 11
52.61130340986966
 21
35.14379193020563
 31
0.0
  0
LINE
  5
23D6
330
228D
100
AcDbEntity
  8
0
 62
     0
100
AcDbLine
 10
39.6291924782119
 20
22.16168099854787
 30
0.0
 11
42.25087705594512
 21
24.78336557628103
 31
0.0
  0
LINE
  5
23D7
330
228D
100
AcDbEntity
  8
0
 62
     0
100
AcDbLine
 10
44.84221133955123
 20
28.27272547199413
 30
0.0
 11
48.16948624175489
 21
31.60000037419781
 31
0.0
  0
LINE
  5
23D8
330
228D
100
AcDbEntity
  8
0
 62
     0
100
AcDbLine
 10
48.93346907699561
 20
32.36398320943852
 30
0.0
 11
53.0257767693036
 21
36.45629090174651
 31
0.0
  0
LINE
  5
23D9
330
228D
100
AcDbEntity
  8
0
 62
     0
100
AcDbLine
 10
38.86103196076494
 20
22.29154609320779
 30
0.0
 11
41.51948624175486
 21
24.95000037419777
 31
0.0
  0
LINE
  5
23DA
330
228D
100
AcDbEntity
  8
0
 62
     0
100
AcDbLine
 10
44.84221133955123
 20
29.17075108410108
 30
0.0
 11
47.66020191025956
 21
31.98874165480936
 31
0.0
  0
LINE
  5
23DB
330
228D
100
AcDbEntity
  8
0
 62
     0
100
AcDbLine
 10
49.34794243642954
 20
33.67648218097935
 30
0.0
 11
53.40084822110492
 21
37.72938796565478
 31
0.0
  0
LINE
  5
23DC
330
228D
100
AcDbEntity
  8
0
 62
     0
100
AcDbLine
 10
38.19989770393852
 20
22.52843744848838
 30
0.0
 11
40.62146062964797
 21
24.95000037419777
 31
0.0
  0
LINE
  5
23DD
330
228D
100
AcDbEntity
  8
0
 62
     0
100
AcDbLine
 10
44.84221133955128
 20
30.06877669620792
 30
0.0
 11
47.64221133955129
 21
32.86877669620799
 31
0.0
  0
LINE
  5
23DE
330
228D
100
AcDbEntity
  8
0
 62
     0
100
AcDbLine
 10
49.76241579586366
 20
34.98898115252035
 30
0.0
 11
53.00683634853573
 21
38.23340170519242
 31
0.0
  0
LINE
  5
23DF
330
228D
100
AcDbEntity
  8
0
 62
     0
100
AcDbLine
 10
37.62229441977422
 20
22.84885977643086
 30
0.0
 11
39.73835627826708
 21
24.96492163492377
 31
0.0
  0
LINE
  5
23E0
330
228D
100
AcDbEntity
  8
0
 62
     0
100
AcDbLine
 10
44.84221133955123
 20
30.96680230831487
 30
0.0
 11
47.64221133955129
 21
33.76680230831494
 31
0.0
  0
LINE
  5
23E1
330
228D
100
AcDbEntity
  8
0
 62
     0
100
AcDbLine
 10
50.1768891552976
 20
36.30148012406119
 30
0.0
 11
52.12540940543414
 21
38.25000037419778
 31
0.0
  0
LINE
  5
23E2
330
228D
100
AcDbEntity
  8
0
 62
     0
100
AcDbLine
 10
37.11733945339216
 20
23.24193042215575
 30
0.0
 11
39.10404013724877
 21
25.22863110601236
 31
0.0
  0
LINE
  5
23E3
330
228D
100
AcDbEntity
  8
0
 62
     0
100
AcDbLine
 10
44.84221133955123
 20
31.86482792042176
 30
0.0
 11
47.64221133955129
 21
34.66482792042183
 31
0.0
  0
LINE
  5
23E4
330
228D
100
AcDbEntity
  8
0
 62
     0
100
AcDbLine
 10
41.50384547132773
 20
28.52646205219833
 30
0.0
 11
42.66574966155082
 21
29.68836624242141
 31
0.0
  0
LINE
  5
23E5
330
228D
100
AcDbEntity
  8
0
 62
     0
100
AcDbLine
 10
50.59136251473148
 20
37.61397909560208
 30
0.0
 11
51.2273837933273
 21
38.2500003741979
 31
0.0
  0
LINE
  5
23E6
330
228D
100
AcDbEntity
  8
0
 62
     0
100
AcDbLine
 10
36.68090238006232
 20
23.70351896093291
 30
0.0
 11
38.69378918597659
 21
25.71640576684718
 31
0.0
  0
LINE
  5
23E7
330
228D
100
AcDbEntity
  8
0
 62
     0
100
AcDbLine
 10
40.57887262969791
 20
28.49951482267545
 30
0.0
 11
42.69269689107369
 21
30.61333908405118
 31
0.0
  0
LINE
  5
23E8
330
228D
100
AcDbEntity
  8
0
 62
     0
100
AcDbLine
 10
44.84221133955128
 20
32.76285353252877
 30
0.0
 11
47.64221133955135
 21
35.56285353252884
 31
0.0
  0
LINE
  5
23E9
330
228D
100
AcDbEntity
  8
0
 62
     0
100
AcDbLine
 10
36.31388315511936
 20
24.23452534809684
 30
0.0
 11
38.54221133955127
 21
26.46285353252881
 31
0.0
  0
LINE
  5
23EA
330
228D
100
AcDbEntity
  8
0
 62
     0
100
AcDbLine
 10
39.96472606027771
 20
28.78339386536203
 30
0.0
 11
42.40881784838705
 21
31.22748565347143
 31
0.0
  0
LINE
  5
23EB
330
228D
100
AcDbEntity
  8
0
 62
     0
100
AcDbLine
 10
44.84221133955128
 20
33.66087914463566
 30
0.0
 11
47.64221133955135
 21
36.46087914463573
 31
0.0
  0
LINE
  5
23EC
330
228D
100
AcDbEntity
  8
0
 62
     0
100
AcDbLine
 10
36.02256564519462
 20
24.84123345027899
 30
0.0
 11
38.54221133955127
 21
27.36087914463565
 31
0.0
  0
LINE
  5
23ED
330
228D
100
AcDbEntity
  8
0
 62
     0
100
AcDbLine
 10
39.52676613328799
 20
29.24345955047932
 30
0.0
 11
41.94875216326983
 21
31.6654455804611
 31
0.0
  0
LINE
  5
23EE
330
228D
100
AcDbEntity
  8
0
 62
     0
100
AcDbLine
 10
44.84221133955128
 20
34.55890475674261
 30
0.0
 11
47.64221133955135
 21
37.35890475674262
 31
0.0
  0
LINE
  5
23EF
330
228D
100
AcDbEntity
  8
0
 62
     0
100
AcDbLine
 10
35.82142828101996
 20
25.53812169821128
 30
0.0
 11
38.54221133955127
 21
28.2589047567426
 31
0.0
  0
LINE
  5
23F0
330
228D
100
AcDbEntity
  8
0
 62
     0
100
AcDbLine
 10
39.27071540087963
 20
29.88543443017784
 30
0.0
 11
41.30677728357125
 21
31.92149631286952
 31
0.0
  0
LINE
  5
23F1
330
228D
100
AcDbEntity
  8
0
 62
     0
100
AcDbLine
 10
35.7422113395512
 20
26.35693036884948
 30
0.0
 11
38.54221133955127
 21
29.15693036884949
 31
0.0
  0
LINE
  5
23F2
330
228D
100
AcDbEntity
  8
0
 62
     0
100
AcDbLine
 10
44.84221133955128
 20
35.4569303688495
 30
0.0
 11
47.48496123119616
 21
38.09968026049444
 31
0.0
  0
LINE
  5
23F3
330
228D
100
AcDbEntity
  8
0
 62
     0
100
AcDbLine
 10
31.65621458167561
 20
22.27093361097388
 30
0.0
 11
33.52127810277534
 21
24.13599713207361
 31
0.0
  0
LINE
  5
23F4
330
228D
100
AcDbEntity
  8
0
 62
     0
100
AcDbLine
 10
39.38912848436041
 20
30.90187312576552
 30
0.0
 11
40.29033858798363
 21
31.80308322938873
 31
0.0
  0
LINE
  5
23F5
330
228D
100
AcDbEntity
  8
0
 62
     0
100
AcDbLine
 10
35.7422113395512
 20
27.25495598095631
 30
0.0
 11
38.54221133955127
 21
30.05495598095638
 31
0.0
  0
LINE
  5
23F6
330
228D
100
AcDbEntity
  8
0
 62
     0
100
AcDbLine
 10
44.84221133955128
 20
36.35495598095639
 30
0.0
 11
46.73725573279267
 21
38.25000037419778
 31
0.0
  0
LINE
  5
23F7
330
228D
100
AcDbEntity
  8
0
 62
     0
100
AcDbLine
 10
30.63725573279266
 20
22.15000037419776
 30
0.0
 11
33.64221133955141
 21
25.15495598095646
 31
0.0
  0
LINE
  5
23F8
330
228D
100
AcDbEntity
  8
0
 62
     0
100
AcDbLine
 10
35.7422113395512
 20
28.15298159306326
 30
0.0
 11
38.54221133955127
 21
30.95298159306333
 31
0.0
  0
LINE
  5
23F9
330
228D
100
AcDbEntity
  8
0
 62
     0
100
AcDbLine
 10
44.84221133955128
 20
37.25298159306329
 30
0.0
 11
45.83923012068578
 21
38.25000037419784
 31
0.0
  0
LINE
  5
23FA
330
228D
100
AcDbEntity
  8
0
 62
     0
100
AcDbLine
 10
29.73923012068565
 20
22.1500003741977
 30
0.0
 11
33.64221133955136
 21
26.05298159306341
 31
0.0
  0
LINE
  5
23FB
330
228D
100
AcDbEntity
  8
0
 62
     0
100
AcDbLine
 10
35.7422113395512
 20
29.05100720517015
 30
0.0
 11
38.54221133955121
 21
31.85100720517022
 31
0.0
  0
LINE
  5
23FC
330
228D
100
AcDbEntity
  8
0
 62
     0
100
AcDbLine
 10
28.84120450857881
 20
22.15000037419782
 30
0.0
 11
33.63827198699011
 21
26.94706785260911
 31
0.0
  0
LINE
  5
23FD
330
228D
100
AcDbEntity
  8
0
 62
     0
100
AcDbLine
 10
35.7422113395512
 20
29.9490328172771
 30
0.0
 11
38.54221133955127
 21
32.74903281727717
 31
0.0
  0
LINE
  5
23FE
330
228D
100
AcDbEntity
  8
0
 62
     0
100
AcDbLine
 10
41.24317889647199
 20
35.45000037419788
 30
0.0
 11
42.3922113395514
 21
36.59903281727731
 31
0.0
  0
LINE
  5
23FF
330
228D
100
AcDbEntity
  8
0
 62
     0
100
AcDbLine
 10
27.94317889647186
 20
22.15000037419776
 30
0.0
 11
33.52861015066878
 21
27.73543162839468
 31
0.0
  0
LINE
  5
2400
330
228D
100
AcDbEntity
  8
0
 62
     0
100
AcDbLine
 10
35.7422113395512
 20
30.847058429384
 30
0.0
 11
38.54221133955127
 21
33.64705842938401
 31
0.0
  0
LINE
  5
2401
330
228D
100
AcDbEntity
  8
0
 62
     0
100
AcDbLine
 10
30.84221133955129
 20
25.94705842938407
 30
0.0
 11
33.30627140662466
 21
28.41111849645745
 31
0.0
  0
LINE
  5
2402
330
228D
100
AcDbEntity
  8
0
 62
     0
100
AcDbLine
 10
40.34515328436498
 20
35.45000037419777
 30
0.0
 11
42.3922113395514
 21
37.49705842938414
 31
0.0
  0
LINE
  5
2403
330
228D
100
AcDbEntity
  8
0
 62
     0
100
AcDbLine
 10
27.10287915962493
 20
22.20772624945772
 30
0.0
 11
29.84515328436499
 21
24.95000037419777
 31
0.0
  0
LINE
  5
2404
330
228D
100
AcDbEntity
  8
0
 62
     0
100
AcDbLine
 10
35.74221133955115
 20
31.74508404149089
 30
0.0
 11
38.70802604533094
 21
34.71089874727068
 31
0.0
  0
LINE
  5
2405
330
228D
100
AcDbEntity
  8
0
 62
     0
100
AcDbLine
 10
30.84005224794203
 20
26.84292494988171
 30
0.0
 11
32.99783987195264
 21
29.00071257389237
 31
0.0
  0
LINE
  5
2406
330
228D
100
AcDbEntity
  8
0
 62
     0
100
AcDbLine
 10
39.28131296647848
 20
35.28418566841822
 30
0.0
 11
42.15874392463149
 21
38.16161662657118
 31
0.0
  0
LINE
  5
2407
330
228D
100
AcDbEntity
  8
0
 62
     0
100
AcDbLine
 10
26.81721133955131
 20
22.82008404149099
 30
0.0
 11
28.94712767225809
 21
24.95000037419777
 31
0.0
  0
LINE
  5
2408
330
228D
100
AcDbEntity
  8
0
 62
     0
100
AcDbLine
 10
30.62044922844132
 20
27.521347542488
 30
0.0
 11
32.61559790711374
 21
29.51649622116042
 31
0.0
  0
LINE
  5
2409
330
228D
100
AcDbEntity
  8
0
 62
     0
100
AcDbLine
 10
35.74221133955115
 20
32.64310965359783
 30
0.0
 11
41.34910206015121
 21
38.2500003741979
 31
0.0
  0
LINE
  5
240A
330
228D
100
AcDbEntity
  8
0
 62
     0
100
AcDbLine
 10
26.81721133955125
 20
23.71810965359793
 30
0.0
 11
28.04910206015114
 21
24.95000037419783
 31
0.0
  0
LINE
  5
240B
330
228D
100
AcDbEntity
  8
0
 62
     0
100
AcDbLine
 10
30.19419440013661
 20
27.99311832629013
 30
0.0
 11
32.17409338745898
 21
29.9730173136125
 31
0.0
  0
LINE
  5
240C
330
228D
100
AcDbEntity
  8
0
 62
     0
100
AcDbLine
 10
35.7422113395512
 20
33.54113526570467
 30
0.0
 11
40.45107644804426
 21
38.25000037419778
 31
0.0
  0
LINE
  5
240D
330
228D
100
AcDbEntity
  8
0
 62
     0
100
AcDbLine
 10
26.88616326157103
 20
24.68508718772455
 30
0.0
 11
27.08212452602464
 21
24.88104845217816
 31
0.0
  0
LINE
  5
240E
330
228D
100
AcDbEntity
  8
0
 62
     0
100
AcDbLine
 10
35.76218645370778
 20
34.4591359919682
 30
0.0
 11
39.53307572178079
 21
38.23002526004126
 31
0.0
  0
LINE
  5
240F
330
228D
100
AcDbEntity
  8
0
 62
     0
100
AcDbLine
 10
29.74518159408314
 20
28.4421311323436
 30
0.0
 11
31.72508058140551
 21
30.42203011966598
 31
0.0
  0
LINE
  5
2410
330
228D
100
AcDbEntity
  8
0
 62
     0
100
AcDbLine
 10
36.06164988597357
 20
35.65662503634098
 30
0.0
 11
38.33558667740806
 21
37.93056182777548
 31
0.0
  0
LINE
  5
2411
330
228D
100
AcDbEntity
  8
0
 62
     0
100
AcDbLine
 10
29.29616878802966
 20
28.89114393839708
 30
0.0
 11
31.27606777535203
 21
30.87104292571945
 31
0.0
  0
LINE
  5
2412
330
228D
100
AcDbEntity
  8
0
 62
     0
100
AcDbLine
 10
28.84715598197625
 20
29.34015674445049
 30
0.0
 11
30.82705496929856
 21
31.32005573177276
 31
0.0
  0
LINE
  5
2413
330
228D
100
AcDbEntity
  8
0
 62
     0
100
AcDbLine
 10
28.39814317592277
 20
29.78916955050397
 30
0.0
 11
30.37804216324508
 21
31.76906853782623
 31
0.0
  0
LINE
  5
2414
330
228D
100
AcDbEntity
  8
0
 62
     0
100
AcDbLine
 10
27.9491303698693
 20
30.23818235655745
 30
0.0
 11
29.92902935719161
 21
32.2180813438797
 31
0.0
  0
LINE
  5
2415
330
228D
100
AcDbEntity
  8
0
 62
     0
100
AcDbLine
 10
32.26292277540279
 20
35.45000037419788
 30
0.0
 11
33.11721133955115
 21
36.30428893834625
 31
0.0
  0
LINE
  5
2416
330
228D
100
AcDbEntity
  8
0
 62
     0
100
AcDbLine
 10
27.50020087784395
 20
30.68727847663905
 30
0.0
 11
29.48026652127641
 21
32.66734412007151
 31
0.0
  0
LINE
  5
2417
330
228D
100
AcDbEntity
  8
0
 62
     0
100
AcDbLine
 10
31.36489716329584
 20
35.45000037419777
 30
0.0
 11
33.11721133955126
 21
37.2023145504532
 31
0.0
  0
LINE
  5
2418
330
228D
100
AcDbEntity
  8
0
 62
     0
100
AcDbLine
 10
27.08873295329238
 20
31.17383616419426
 30
0.0
 11
29.15036963998847
 21
33.2354728508904
 31
0.0
  0
LINE
  5
2419
330
228D
100
AcDbEntity
  8
0
 62
     0
100
AcDbLine
 10
30.46687155118889
 20
35.45000037419777
 30
0.0
 11
33.03065243979012
 21
38.013781262799
 31
0.0
  0
LINE
  5
241A
330
228D
100
AcDbEntity
  8
0
 62
     0
100
AcDbLine
 10
26.74827234702991
 20
31.73140117003874
 30
0.0
 11
29.09221133955134
 21
34.07534016256017
 31
0.0
  0
LINE
  5
241B
330
228D
100
AcDbEntity
  8
0
 62
     0
100
AcDbLine
 10
29.56637928991188
 20
35.44753372502766
 30
0.0
 11
32.36884593908206
 21
38.25000037419784
 31
0.0
  0
LINE
  5
241C
330
228D
100
AcDbEntity
  8
0
 62
     0
100
AcDbLine
 10
26.48757905129782
 20
32.36873348641359
 30
0.0
 11
29.0946779887214
 21
34.97583242383723
 31
0.0
  0
LINE
  5
241D
330
228D
100
AcDbEntity
  8
0
 62
     0
100
AcDbLine
 10
26.32576708904975
 20
33.10494713627242
 30
0.0
 11
31.47082032697517
 21
38.25000037419784
 31
0.0
  0
LINE
  5
241E
330
228D
100
AcDbEntity
  8
0
 62
     0
100
AcDbLine
 10
26.29221133955133
 20
33.96941699888095
 30
0.0
 11
30.57279471486822
 21
38.25000037419784
 31
0.0
  0
LINE
  5
241F
330
228D
100
AcDbEntity
  8
0
 62
     0
100
AcDbLine
 10
26.29221133955133
 20
34.86744261098784
 30
0.0
 11
29.67476910276133
 21
38.25000037419784
 31
0.0
  0
LINE
  5
2420
330
228D
100
AcDbEntity
  8
0
 62
     0
100
AcDbLine
 10
26.31240334998955
 20
35.78566023353301
 30
0.0
 11
28.75655148021616
 21
38.22980836375961
 31
0.0
  0
ENDBLK
  5
2422
330
228D
100
AcDbEntity
  8
0
100
AcDbBlockEnd
  0
BLOCK
  5
401E
330
401A
100
AcDbEntity
  8
0
100
AcDbBlockBegin
  2
_Open
 70
     0
 10
0.0
 20
0.0
 30
0.0
  3
_Open
  1

  0
LINE
  5
401B
330
401A
100
AcDbEntity
  8
0
 62
     0
370
    -2
100
AcDbLine
 10
-1.0
 20
0.1666666666666666
 30
0.0
 11
0.0
 21
0.0
 31
0.0
  0
LINE
  5
401C
330
401A
100
AcDbEntity
  8
0
 62
     0
370
    -2
100
AcDbLine
 10
-1.0
 20
-0.1666666666666666
 30
0.0
 11
0.0
 21
0.0
 31
0.0
  0
LINE
  5
401D
330
401A
100
AcDbEntity
  8
0
 62
     0
370
    -2
100
AcDbLine
 10
0.0
 20
0.0
 30
0.0
 11
-1.0
 21
0.0
 31
0.0
  0
ENDBLK
  5
401F
330
401A
100
AcDbEntity
  8
0
100
AcDbBlockEnd
  0
BLOCK
  5
E2F8
330
E2EE
100
AcDbEntity
  8
0
100
AcDbBlockBegin
  2
*D2
 70
     1
 10
0.0
 20
0.0
 30
0.0
  3
*D2
  1

  0
LINE
  5
119C2
330
E2EE
100
AcDbEntity
  8
SUNPOU
100
AcDbLine
 10
81.51067574733293
 20
219.3124145138886
 30
0.0
 11
81.51067574733293
 21
258.1213948468012
 31
0.0
  0
LINE
  5
119C3
330
E2EE
100
AcDbEntity
  8
SUNPOU
100
AcDbLine
 10
320.0106757473329
 20
219.3124145138886
 30
0.0
 11
320.0106757473329
 21
258.1213948468012
 31
0.0
  0
LINE
  5
119C4
330
E2EE
100
AcDbEntity
  8
SUNPOU
100
AcDbLine
 10
85.51067574733293
 20
256.1213948468012
 30
0.0
 11
316.0106757473329
 21
256.1213948468012
 31
0.0
  0
INSERT
  5
119C5
330
E2EE
100
AcDbEntity
  8
SUNPOU
100
AcDbBlockReference
  2
_Open
 10
81.51067574733293
 20
256.1213948468012
 30
0.0
 41
4.0
 42
4.0
 43
4.0
 50
180.0
  0
INSERT
  5
119C6
330
E2EE
100
AcDbEntity
  8
SUNPOU
100
AcDbBlockReference
  2
_Open
 10
320.0106757473329
 20
256.1213948468012
 30
0.0
 41
4.0
 42
4.0
 43
4.0
  0
MTEXT
  5
119C7
330
E2EE
100
AcDbEntity
  8
SUNPOU
100
AcDbMText
 10
200.7606757473329
 20
261.1213948468012
 30
0.0
 40
6.0
 41
0.0
 71
     5
 72
     5
  1
\A1;239
 73
     1
 44
1.0
1001
ACAD
1000
MTEXTBEGIN
1070
    73
1070
     1
1070
    44
1040
1.0
1070
    74
1070
     0
1000
MTEXTEND
  0
POINT
  5
119C8
330
E2EE
100
AcDbEntity
  8
DEFPOINTS
 62
     0
100
AcDbPoint
 10
81.51067574733293
 20
217.3124145138886
 30
0.0
  0
POINT
  5
119C9
330
E2EE
100
AcDbEntity
  8
DEFPOINTS
 62
     0
100
AcDbPoint
 10
320.0106757473329
 20
217.3124145138886
 30
0.0
  0
POINT
  5
119CA
330
E2EE
100
AcDbEntity
  8
DEFPOINTS
 62
     0
100
AcDbPoint
 10
320.0106757473329
 20
256.1213948468012
 30
0.0
  0
ENDBLK
  5
E2F9
330
E2EE
100
AcDbEntity
  8
0
100
AcDbBlockEnd
  0
BLOCK
  5
E307
330
E2FD
100
AcDbEntity
  8
0
100
AcDbBlockBegin
  2
*D3
 70
     1
 10
0.0
 20
0.0
 30
0.0
  3
*D3
  1

  0
LINE
  5
119B9
330
E2FD
100
AcDbEntity
  8
SUNPOU
100
AcDbLine
 10
320.0106757473329
 20
221.3124145138886
 30
0.0
 11
320.0106757473329
 21
243.6812308098279
 31
0.0
  0
LINE
  5
119BA
330
E2FD
100
AcDbEntity
  8
SUNPOU
100
AcDbLine
 10
290.0106757473329
 20
218.9804568682596
 30
0.0
 11
290.0106757473329
 21
243.6812308098279
 31
0.0
  0
LINE
  5
119BB
330
E2FD
100
AcDbEntity
  8
SUNPOU
100
AcDbLine
 10
316.0106757473329
 20
241.6812308098279
 30
0.0
 11
294.010675747333
 21
241.6812308098279
 31
0.0
  0
INSERT
  5
119BC
330
E2FD
100
AcDbEntity
  8
SUNPOU
100
AcDbBlockReference
  2
_Open
 10
320.0106757473329
 20
241.6812308098279
 30
0.0
 41
4.0
 42
4.0
 43
4.0
  0
INSERT
  5
119BD
330
E2FD
100
AcDbEntity
  8
SUNPOU
100
AcDbBlockReference
  2
_Open
 10
290.0106757473329
 20
241.6812308098279
 30
0.0
 41
4.0
 42
4.0
 43
4.0
 50
180.0
  0
MTEXT
  5
119BE
330
E2FD
100
AcDbEntity
  8
SUNPOU
100
AcDbMText
 10
305.0106757473329
 20
246.6812308098279
 30
0.0
 40
6.0
 41
0.0
 71
     5
 72
     5
  1
\A1;30
 73
     1
 44
1.0
1001
ACAD
1000
MTEXTBEGIN
1070
    73
1070
     1
1070
    44
1040
1.0
1070
    74
1070
     0
1000
MTEXTEND
  0
POINT
  5
119BF
330
E2FD
100
AcDbEntity
  8
DEFPOINTS
 62
     0
100
AcDbPoint
 10
320.0106757473329
 20
219.3124145138886
 30
0.0
  0
POINT
  5
119C0
330
E2FD
100
AcDbEntity
  8
DEFPOINTS
 62
     0
100
AcDbPoint
 10
290.0106757473329
 20
216.9804568682596
 30
0.0
  0
POINT
  5
119C1
330
E2FD
100
AcDbEntity
  8
DEFPOINTS
 62
     0
100
AcDbPoint
 10
290.0106757473329
 20
241.6812308098279
 30
0.0
  0
ENDBLK
  5
E308
330
E2FD
100
AcDbEntity
  8
0
100
AcDbBlockEnd
  0
BLOCK
  5
E314
330
E30A
100
AcDbEntity
  8
0
100
AcDbBlockBegin
  2
*D4
 70
     1
 10
0.0
 20
0.0
 30
0.0
  3
*D4
  1

  0
LINE
  5
119B0
330
E30A
100
AcDbEntity
  8
SUNPOU
100
AcDbLine
 10
320.0106757473329
 20
221.3124145138886
 30
0.0
 11
320.0106757473329
 21
243.6812308098279
 31
0.0
  0
LINE
  5
119B1
330
E30A
100
AcDbEntity
  8
SUNPOU
100
AcDbLine
 10
350.0106757473329
 20
219.3124145138886
 30
0.0
 11
350.0106757473329
 21
243.6812308098279
 31
0.0
  0
LINE
  5
119B2
330
E30A
100
AcDbEntity
  8
SUNPOU
100
AcDbLine
 10
324.0106757473329
 20
241.6812308098279
 30
0.0
 11
346.0106757473329
 21
241.6812308098279
 31
0.0
  0
INSERT
  5
119B3
330
E30A
100
AcDbEntity
  8
SUNPOU
100
AcDbBlockReference
  2
_Open
 10
320.0106757473329
 20
241.6812308098279
 30
0.0
 41
4.0
 42
4.0
 43
4.0
 50
180.0
  0
INSERT
  5
119B4
330
E30A
100
AcDbEntity
  8
SUNPOU
100
AcDbBlockReference
  2
_Open
 10
350.0106757473329
 20
241.6812308098279
 30
0.0
 41
4.0
 42
4.0
 43
4.0
  0
MTEXT
  5
119B5
330
E30A
100
AcDbEntity
  8
SUNPOU
100
AcDbMText
 10
335.0106757473329
 20
246.6812308098279
 30
0.0
 40
6.0
 41
0.0
 71
     5
 72
     5
  1
\A1;30
 73
     1
 44
1.0
1001
ACAD
1000
MTEXTBEGIN
1070
    73
1070
     1
1070
    44
1040
1.0
1070
    74
1070
     0
1000
MTEXTEND
  0
POINT
  5
119B6
330
E30A
100
AcDbEntity
  8
DEFPOINTS
 62
     0
100
AcDbPoint
 10
320.0106757473329
 20
219.3124145138886
 30
0.0
  0
POINT
  5
119B7
330
E30A
100
AcDbEntity
  8
DEFPOINTS
 62
     0
100
AcDbPoint
 10
350.0106757473329
 20
217.3124145138886
 30
0.0
  0
POINT
  5
119B8
330
E30A
100
AcDbEntity
  8
DEFPOINTS
 62
     0
100
AcDbPoint
 10
350.0106757473329
 20
241.6812308098279
 30
0.0
  0
ENDBLK
  5
E315
330
E30A
100
AcDbEntity
  8
0
100
AcDbBlockEnd
  0
BLOCK
  5
E33E
330
E334
100
AcDbEntity
  8
0
100
AcDbBlockBegin
  2
*D5
 70
     1
 10
0.0
 20
0.0
 30
0.0
  3
*D5
  1

  0
LINE
  5
11D30
330
E334
100
AcDbEntity
  8
SUNPOU
100
AcDbLine
 10
286.0113246394815
 20
474.9973383195865
 30
0.0
 11
382.4469597911712
 21
474.9973383195865
 31
0.0
  0
LINE
  5
11D31
330
E334
100
AcDbEntity
  8
SUNPOU
100
AcDbLine
 10
286.0106757473327
 20
318.3721383772554
 30
0.0
 11
382.4469597911711
 21
318.3721383772554
 31
0.0
  0
LINE
  5
11D32
330
E334
100
AcDbEntity
  8
SUNPOU
100
AcDbLine
 10
380.4469597911712
 20
470.9973383195865
 30
0.0
 11
380.4469597911711
 21
322.3721383772554
 31
0.0
  0
INSERT
  5
11D33
330
E334
100
AcDbEntity
  8
SUNPOU
100
AcDbBlockReference
  2
_Open
 10
380.4469597911712
 20
474.9973383195865
 30
0.0
 41
4.0
 42
4.0
 43
4.0
 50
90.0
  0
INSERT
  5
11D34
330
E334
100
AcDbEntity
  8
SUNPOU
100
AcDbBlockReference
  2
_Open
 10
380.4469597911711
 20
318.3721383772554
 30
0.0
 41
4.0
 42
4.0
 43
4.0
 50
270.0
  0
MTEXT
  5
11D35
330
E334
100
AcDbEntity
  8
SUNPOU
100
AcDbMText
 10
375.4469597911711
 20
396.6847383484211
 30
0.0
 40
6.0
 41
0.0
 71
     5
 72
     5
  1
\A1;157
 11
0.0000000000000001
 21
1.0
 31
0.0
 73
     1
 44
1.0
1001
ACAD
1000
MTEXTBEGIN
1070
    73
1070
     1
1070
    44
1040
1.0
1070
    74
1070
     0
1000
MTEXTEND
  0
POINT
  5
11D36
330
E334
100
AcDbEntity
  8
DEFPOINTS
 62
     0
100
AcDbPoint
 10
284.0113246394815
 20
474.9973383195865
 30
0.0
  0
POINT
  5
11D37
330
E334
100
AcDbEntity
  8
DEFPOINTS
 62
     0
100
AcDbPoint
 10
284.0106757473327
 20
318.3721383772554
 30
0.0
  0
POINT
  5
11D38
330
E334
100
AcDbEntity
  8
DEFPOINTS
 62
     0
100
AcDbPoint
 10
380.4469597911711
 20
318.3721383772554
 30
0.0
  0
ENDBLK
  5
E33F
330
E334
100
AcDbEntity
  8
0
100
AcDbBlockEnd
  0
BLOCK
  5
E34B
330
E341
100
AcDbEntity
  8
0
100
AcDbBlockBegin
  2
*D6
 70
     1
 10
0.0
 20
0.0
 30
0.0
  3
*D6
  1

  0
LINE
  5
119F8
330
E341
100
AcDbEntity
  8
SUNPOU
100
AcDbLine
 10
717.6767904810049
 20
427.1436420913928
 30
0.0
 11
717.6767904810049
 21
450.9364686269425
 31
0.0
  0
LINE
  5
119F9
330
E341
100
AcDbEntity
  8
SUNPOU
100
AcDbLine
 10
642.1767904810057
 20
419.0924893661185
 30
0.0
 11
642.1767904810057
 21
450.9364686269425
 31
0.0
  0
LINE
  5
119FA
330
E341
100
AcDbEntity
  8
SUNPOU
100
AcDbLine
 10
713.6767904810048
 20
448.9364686269425
 30
0.0
 11
646.1767904810058
 21
448.9364686269425
 31
0.0
  0
INSERT
  5
119FB
330
E341
100
AcDbEntity
  8
SUNPOU
100
AcDbBlockReference
  2
_Open
 10
717.6767904810049
 20
448.9364686269425
 30
0.0
 41
4.0
 42
4.0
 43
4.0
  0
INSERT
  5
119FC
330
E341
100
AcDbEntity
  8
SUNPOU
100
AcDbBlockReference
  2
_Open
 10
642.1767904810057
 20
448.9364686269425
 30
0.0
 41
4.0
 42
4.0
 43
4.0
 50
180.0
  0
MTEXT
  5
119FD
330
E341
100
AcDbEntity
  8
SUNPOU
100
AcDbMText
 10
679.9267904810053
 20
453.9364686269425
 30
0.0
 40
6.0
 41
0.0
 71
     5
 72
     5
  1
\A1;\U+203B76
 73
     1
 44
1.0
1001
ACAD
1000
MTEXTBEGIN
1070
    73
1070
     1
1070
    44
1040
1.0
1070
    74
1070
     0
1000
MTEXTEND
  0
POINT
  5
119FE
330
E341
100
AcDbEntity
  8
DEFPOINTS
 62
     0
100
AcDbPoint
 10
717.6767904810049
 20
425.1436420913928
 30
0.0
  0
POINT
  5
119FF
330
E341
100
AcDbEntity
  8
DEFPOINTS
 62
     0
100
AcDbPoint
 10
642.1767904810057
 20
417.0924893661185
 30
0.0
  0
POINT
  5
11A00
330
E341
100
AcDbEntity
  8
DEFPOINTS
 62
     0
100
AcDbPoint
 10
642.1767904810057
 20
448.9364686269425
 30
0.0
  0
ENDBLK
  5
E34C
330
E341
100
AcDbEntity
  8
0
100
AcDbBlockEnd
  0
BLOCK
  5
E358
330
E34E
100
AcDbEntity
  8
0
100
AcDbBlockBegin
  2
*D7
 70
     1
 10
0.0
 20
0.0
 30
0.0
  3
*D7
  1

  0
LINE
  5
12028
330
E34E
100
AcDbEntity
  8
SUNPOU
100
AcDbLine
 10
523.1766904810058
 20
427.0308296542918
 30
0.0
 11
523.1766904810058
 21
450.9364686269425
 31
0.0
  0
LINE
  5
12029
330
E34E
100
AcDbEntity
  8
SUNPOU
100
AcDbLine
 10
479.1767904810049
 20
427.1436420913785
 30
0.0
 11
479.1767904810049
 21
450.9364686269425
 31
0.0
  0
LINE
  5
1202A
330
E34E
100
AcDbEntity
  8
SUNPOU
100
AcDbLine
 10
519.1766904810058
 20
448.9364686269425
 30
0.0
 11
483.1767904810049
 21
448.9364686269425
 31
0.0
  0
INSERT
  5
1202B
330
E34E
100
AcDbEntity
  8
SUNPOU
100
AcDbBlockReference
  2
_Open
 10
523.1766904810058
 20
448.9364686269425
 30
0.0
 41
4.0
 42
4.0
 43
4.0
  0
INSERT
  5
1202C
330
E34E
100
AcDbEntity
  8
SUNPOU
100
AcDbBlockReference
  2
_Open
 10
479.1767904810049
 20
448.9364686269425
 30
0.0
 41
4.0
 42
4.0
 43
4.0
 50
180.0
  0
MTEXT
  5
1202D
330
E34E
100
AcDbEntity
  8
SUNPOU
100
AcDbMText
 10
501.1767404810053
 20
453.9364686269425
 30
0.0
 40
6.0
 41
0.0
 71
     5
 72
     5
  1
\A1;\U+203B44
 73
     1
 44
1.0
1001
ACAD
1000
MTEXTBEGIN
1070
    73
1070
     1
1070
    44
1040
1.0
1070
    74
1070
     0
1000
MTEXTEND
  0
POINT
  5
1202E
330
E34E
100
AcDbEntity
  8
DEFPOINTS
 62
     0
100
AcDbPoint
 10
523.1766904810058
 20
425.0308296542917
 30
0.0
  0
POINT
  5
1202F
330
E34E
100
AcDbEntity
  8
DEFPOINTS
 62
     0
100
AcDbPoint
 10
479.1767904810049
 20
425.1436420913785
 30
0.0
  0
POINT
  5
12030
330
E34E
100
AcDbEntity
  8
DEFPOINTS
 62
     0
100
AcDbPoint
 10
479.1767904810049
 20
448.9364686269425
 30
0.0
  0
ENDBLK
  5
E359
330
E34E
100
AcDbEntity
  8
0
100
AcDbBlockEnd
  0
BLOCK
  5
E365
330
E35B
100
AcDbEntity
  8
0
100
AcDbBlockBegin
  2
*D8
 70
     1
 10
0.0
 20
0.0
 30
0.0
  3
*D8
  1

  0
LINE
  5
119E6
330
E35B
100
AcDbEntity
  8
SUNPOU
100
AcDbLine
 10
479.1767904810049
 20
427.1436420913785
 30
0.0
 11
479.1767904810049
 21
464.2499352136772
 31
0.0
  0
LINE
  5
119E7
330
E35B
100
AcDbEntity
  8
SUNPOU
100
AcDbLine
 10
717.6767904810049
 20
427.1436420913928
 30
0.0
 11
717.6767904810049
 21
464.2499352136772
 31
0.0
  0
LINE
  5
119E8
330
E35B
100
AcDbEntity
  8
SUNPOU
100
AcDbLine
 10
483.1767904810049
 20
462.2499352136771
 30
0.0
 11
713.6767904810048
 21
462.2499352136771
 31
0.0
  0
INSERT
  5
119E9
330
E35B
100
AcDbEntity
  8
SUNPOU
100
AcDbBlockReference
  2
_Open
 10
479.1767904810049
 20
462.2499352136771
 30
0.0
 41
4.0
 42
4.0
 43
4.0
 50
180.0
  0
INSERT
  5
119EA
330
E35B
100
AcDbEntity
  8
SUNPOU
100
AcDbBlockReference
  2
_Open
 10
717.6767904810049
 20
462.2499352136771
 30
0.0
 41
4.0
 42
4.0
 43
4.0
  0
MTEXT
  5
119EB
330
E35B
100
AcDbEntity
  8
SUNPOU
100
AcDbMText
 10
598.4267904810049
 20
467.2499352136772
 30
0.0
 40
6.0
 41
0.0
 71
     5
 72
     5
  1
\A1;239
 73
     1
 44
1.0
1001
ACAD
1000
MTEXTBEGIN
1070
    73
1070
     1
1070
    44
1040
1.0
1070
    74
1070
     0
1000
MTEXTEND
  0
POINT
  5
119EC
330
E35B
100
AcDbEntity
  8
DEFPOINTS
 62
     0
100
AcDbPoint
 10
479.1767904810049
 20
425.1436420913785
 30
0.0
  0
POINT
  5
119ED
330
E35B
100
AcDbEntity
  8
DEFPOINTS
 62
     0
100
AcDbPoint
 10
717.6767904810049
 20
425.1436420913928
 30
0.0
  0
POINT
  5
119EE
330
E35B
100
AcDbEntity
  8
DEFPOINTS
 62
     0
100
AcDbPoint
 10
717.6767904810049
 20
462.2499352136771
 30
0.0
  0
ENDBLK
  5
E366
330
E35B
100
AcDbEntity
  8
0
100
AcDbBlockEnd
  0
BLOCK
  5
1163F
330
115D8
100
AcDbEntity
  8
0
100
AcDbBlockBegin
  2
*X9
 70
     1
 10
0.0
 20
0.0
 30
0.0
  3
*X9
  1

  0
LINE
  5
115D9
330
115D8
100
AcDbEntity
  8
0
 62
     0
100
AcDbLine
 10
650.6506129313639
 20
366.7252833644333
 30
0.0
 11
650.7537670905886
 21
366.8284375236579
 31
0.0
  0
LINE
  5
115DA
330
115D8
100
AcDbEntity
  8
0
 62
     0
100
AcDbLine
 10
647.7839638184451
 20
365.9799545950741
 30
0.0
 11
649.7561126692029
 21
367.952103445832
 31
0.0
  0
LINE
  5
115DB
330
115D8
100
AcDbEntity
  8
0
 62
     0
100
AcDbLine
 10
645.1347923256426
 20
365.4521034458313
 30
0.0
 11
647.6347923256432
 21
367.9521034458318
 31
0.0
  0
LINE
  5
115DC
330
115D8
100
AcDbEntity
  8
0
 62
     0
100
AcDbLine
 10
643.0134719820829
 20
365.4521034458313
 30
0.0
 11
645.5134719820834
 21
367.9521034458317
 31
0.0
  0
LINE
  5
115DD
330
115D8
100
AcDbEntity
  8
0
 62
     0
100
AcDbLine
 10
640.892151638523
 20
365.452103445831
 30
0.0
 11
643.3921516385236
 21
367.9521034458315
 31
0.0
  0
LINE
  5
115DE
330
115D8
100
AcDbEntity
  8
0
 62
     0
100
AcDbLine
 10
638.7708312949634
 20
365.4521034458309
 30
0.0
 11
641.2708312949638
 21
367.9521034458314
 31
0.0
  0
LINE
  5
115DF
330
115D8
100
AcDbEntity
  8
0
 62
     0
100
AcDbLine
 10
636.6495109514034
 20
365.4521034458308
 30
0.0
 11
639.149510951404
 21
367.9521034458312
 31
0.0
  0
LINE
  5
115E0
330
115D8
100
AcDbEntity
  8
0
 62
     0
100
AcDbLine
 10
634.5281906078439
 20
365.4521034458307
 30
0.0
 11
637.0281906078442
 21
367.952103445831
 31
0.0
  0
LINE
  5
115E1
330
115D8
100
AcDbEntity
  8
0
 62
     0
100
AcDbLine
 10
632.4068702642839
 20
365.4521034458305
 30
0.0
 11
634.9068702642845
 21
367.952103445831
 31
0.0
  0
LINE
  5
115E2
330
115D8
100
AcDbEntity
  8
0
 62
     0
100
AcDbLine
 10
630.2855499207242
 20
365.4521034458304
 30
0.0
 11
632.7855499207247
 21
367.9521034458308
 31
0.0
  0
LINE
  5
115E3
330
115D8
100
AcDbEntity
  8
0
 62
     0
100
AcDbLine
 10
628.1642295771644
 20
365.4521034458302
 30
0.0
 11
630.6642295771649
 21
367.9521034458307
 31
0.0
  0
LINE
  5
115E4
330
115D8
100
AcDbEntity
  8
0
 62
     0
100
AcDbLine
 10
626.0429092336047
 20
365.4521034458302
 30
0.0
 11
628.5429092336052
 21
367.9521034458306
 31
0.0
  0
LINE
  5
115E5
330
115D8
100
AcDbEntity
  8
0
 62
     0
100
AcDbLine
 10
623.9215888900448
 20
365.4521034458299
 30
0.0
 11
626.4215888900452
 21
367.9521034458304
 31
0.0
  0
LINE
  5
115E6
330
115D8
100
AcDbEntity
  8
0
 62
     0
100
AcDbLine
 10
621.8002685464852
 20
365.45210344583
 30
0.0
 11
624.3002685464855
 21
367.9521034458304
 31
0.0
  0
LINE
  5
115E7
330
115D8
100
AcDbEntity
  8
0
 62
     0
100
AcDbLine
 10
619.6789482029254
 20
365.4521034458297
 30
0.0
 11
622.1789482029258
 21
367.9521034458301
 31
0.0
  0
LINE
  5
115E8
330
115D8
100
AcDbEntity
  8
0
 62
     0
100
AcDbLine
 10
617.5576278593656
 20
365.4521034458297
 30
0.0
 11
620.057627859366
 21
367.9521034458301
 31
0.0
  0
LINE
  5
115E9
330
115D8
100
AcDbEntity
  8
0
 62
     0
100
AcDbLine
 10
615.4363075158059
 20
365.4521034458294
 30
0.0
 11
617.9363075158063
 21
367.9521034458299
 31
0.0
  0
LINE
  5
115EA
330
115D8
100
AcDbEntity
  8
0
 62
     0
100
AcDbLine
 10
613.314987172246
 20
365.4521034458296
 30
0.0
 11
615.8149871722464
 21
367.9521034458299
 31
0.0
  0
LINE
  5
115EB
330
115D8
100
AcDbEntity
  8
0
 62
     0
100
AcDbLine
 10
611.1936668286864
 20
365.4521034458293
 30
0.0
 11
613.6936668286868
 21
367.9521034458297
 31
0.0
  0
LINE
  5
115EC
330
115D8
100
AcDbEntity
  8
0
 62
     0
100
AcDbLine
 10
609.0723464851266
 20
365.4521034458291
 30
0.0
 11
611.572346485127
 21
367.9521034458294
 31
0.0
  0
LINE
  5
115ED
330
115D8
100
AcDbEntity
  8
0
 62
     0
100
AcDbLine
 10
606.9510261415668
 20
365.4521034458291
 30
0.0
 11
609.451026141567
 21
367.9521034458292
 31
0.0
  0
LINE
  5
115EE
330
115D8
100
AcDbEntity
  8
0
 62
     0
100
AcDbLine
 10
604.8297057980071
 20
365.4521034458289
 30
0.0
 11
607.3297057980076
 21
367.9521034458293
 31
0.0
  0
LINE
  5
115EF
330
115D8
100
AcDbEntity
  8
0
 62
     0
100
AcDbLine
 10
602.7083854544472
 20
365.4521034458288
 30
0.0
 11
605.2083854544474
 21
367.952103445829
 31
0.0
  0
LINE
  5
115F0
330
115D8
100
AcDbEntity
  8
0
 62
     0
100
AcDbLine
 10
600.5870651108875
 20
365.4521034458286
 30
0.0
 11
603.0870651108878
 21
367.952103445829
 31
0.0
  0
LINE
  5
115F1
330
115D8
100
AcDbEntity
  8
0
 62
     0
100
AcDbLine
 10
598.4657447673277
 20
365.4521034458285
 30
0.0
 11
600.9657447673279
 21
367.9521034458288
 31
0.0
  0
LINE
  5
115F2
330
115D8
100
AcDbEntity
  8
0
 62
     0
100
AcDbLine
 10
596.344424423768
 20
365.4521034458284
 30
0.0
 11
598.8444244237683
 21
367.9521034458288
 31
0.0
  0
LINE
  5
115F3
330
115D8
100
AcDbEntity
  8
0
 62
     0
100
AcDbLine
 10
594.2231040802083
 20
365.4521034458282
 30
0.0
 11
596.7231040802085
 21
367.9521034458284
 31
0.0
  0
LINE
  5
115F4
330
115D8
100
AcDbEntity
  8
0
 62
     0
100
AcDbLine
 10
592.1017837366483
 20
365.4521034458281
 30
0.0
 11
594.6017837366488
 21
367.9521034458285
 31
0.0
  0
LINE
  5
115F5
330
115D8
100
AcDbEntity
  8
0
 62
     0
100
AcDbLine
 10
589.9804633930886
 20
365.452103445828
 30
0.0
 11
592.4804633930889
 21
367.9521034458282
 31
0.0
  0
LINE
  5
115F6
330
115D8
100
AcDbEntity
  8
0
 62
     0
100
AcDbLine
 10
587.8591430495288
 20
365.4521034458278
 30
0.0
 11
590.3591430495291
 21
367.9521034458282
 31
0.0
  0
LINE
  5
115F7
330
115D8
100
AcDbEntity
  8
0
 62
     0
100
AcDbLine
 10
585.7378227059691
 20
365.4521034458277
 30
0.0
 11
588.2378227059693
 21
367.952103445828
 31
0.0
  0
LINE
  5
115F8
330
115D8
100
AcDbEntity
  8
0
 62
     0
100
AcDbLine
 10
583.6165023624093
 20
365.4521034458276
 30
0.0
 11
586.1165023624096
 21
367.952103445828
 31
0.0
  0
LINE
  5
115F9
330
115D8
100
AcDbEntity
  8
0
 62
     0
100
AcDbLine
 10
581.4951820188495
 20
365.4521034458275
 30
0.0
 11
583.9951820188497
 21
367.9521034458276
 31
0.0
  0
LINE
  5
115FA
330
115D8
100
AcDbEntity
  8
0
 62
     0
100
AcDbLine
 10
579.3738616752898
 20
365.4521034458273
 30
0.0
 11
581.8738616752901
 21
367.9521034458276
 31
0.0
  0
LINE
  5
115FB
330
115D8
100
AcDbEntity
  8
0
 62
     0
100
AcDbLine
 10
577.2525413317301
 20
365.4521034458273
 30
0.0
 11
579.7525413317303
 21
367.9521034458275
 31
0.0
  0
LINE
  5
115FC
330
115D8
100
AcDbEntity
  8
0
 62
     0
100
AcDbLine
 10
575.1312209881702
 20
365.452103445827
 30
0.0
 11
577.8442906315911
 21
368.1651730892479
 31
0.0
  0
LINE
  5
115FD
330
115D8
100
AcDbEntity
  8
0
 62
     0
100
AcDbLine
 10
576.2081341111194
 20
368.6503369123359
 30
0.0
 11
577.5099006446108
 21
369.9521034458274
 31
0.0
  0
LINE
  5
115FE
330
115D8
100
AcDbEntity
  8
0
 62
     0
100
AcDbLine
 10
573.0099006446104
 20
365.452103445827
 30
0.0
 11
575.5099006446108
 21
367.9521034458273
 31
0.0
  0
LINE
  5
115FF
330
115D8
100
AcDbEntity
  8
0
 62
     0
100
AcDbLine
 10
570.8885803010507
 20
365.4521034458268
 30
0.0
 11
573.3885803010508
 21
367.9521034458269
 31
0.0
  0
LINE
  5
11600
330
115D8
100
AcDbEntity
  8
0
 62
     0
100
AcDbLine
 10
568.7672599574908
 20
365.4521034458266
 30
0.0
 11
571.2672599574908
 21
367.9521034458266
 31
0.0
  0
LINE
  5
11601
330
115D8
100
AcDbEntity
  8
0
 62
     0
100
AcDbLine
 10
566.6459396139312
 20
365.4521034458266
 30
0.0
 11
569.1459396139309
 21
367.9521034458265
 31
0.0
  0
LINE
  5
11602
330
115D8
100
AcDbEntity
  8
0
 62
     0
100
AcDbLine
 10
564.5246192703715
 20
365.4521034458265
 30
0.0
 11
567.0246192703711
 21
367.952103445826
 31
0.0
  0
LINE
  5
11603
330
115D8
100
AcDbEntity
  8
0
 62
     0
100
AcDbLine
 10
562.4032989268116
 20
365.4521034458264
 30
0.0
 11
566.2757650746025
 21
369.3245695936172
 31
0.0
  0
LINE
  5
11604
330
115D8
100
AcDbEntity
  8
0
 62
     0
100
AcDbLine
 10
564.7527422860993
 20
369.9228671486736
 30
0.0
 11
564.7819785832524
 21
369.9521034458267
 31
0.0
  0
LINE
  5
11605
330
115D8
100
AcDbEntity
  8
0
 62
     0
100
AcDbLine
 10
560.2819785832519
 20
365.4521034458261
 30
0.0
 11
562.781978583252
 21
367.9521034458264
 31
0.0
  0
LINE
  5
11606
330
115D8
100
AcDbEntity
  8
0
 62
     0
100
AcDbLine
 10
558.1606582396919
 20
365.452103445826
 30
0.0
 11
560.6606582396922
 21
367.9521034458263
 31
0.0
  0
LINE
  5
11607
330
115D8
100
AcDbEntity
  8
0
 62
     0
100
AcDbLine
 10
556.0393378961323
 20
365.4521034458259
 30
0.0
 11
558.5393378961324
 21
367.9521034458261
 31
0.0
  0
LINE
  5
11608
330
115D8
100
AcDbEntity
  8
0
 62
     0
100
AcDbLine
 10
553.9180175525727
 20
365.4521034458258
 30
0.0
 11
556.4180175525727
 21
367.952103445826
 31
0.0
  0
LINE
  5
11609
330
115D8
100
AcDbEntity
  8
0
 62
     0
100
AcDbLine
 10
551.7966972090127
 20
365.4521034458257
 30
0.0
 11
554.296697209013
 21
367.9521034458259
 31
0.0
  0
LINE
  5
1160A
330
115D8
100
AcDbEntity
  8
0
 62
     0
100
AcDbLine
 10
549.675376865453
 20
365.4521034458255
 30
0.0
 11
552.1753768654532
 21
367.9521034458257
 31
0.0
  0
LINE
  5
1160B
330
115D8
100
AcDbEntity
  8
0
 62
     0
100
AcDbLine
 10
547.5540565218931
 20
365.4521034458253
 30
0.0
 11
550.0540565218933
 21
367.9521034458256
 31
0.0
  0
LINE
  5
1160C
330
115D8
100
AcDbEntity
  8
0
 62
     0
100
AcDbLine
 10
545.4327361783335
 20
365.4521034458253
 30
0.0
 11
547.9327361783337
 21
367.9521034458255
 31
0.0
  0
LINE
  5
1160D
330
115D8
100
AcDbEntity
  8
0
 62
     0
100
AcDbLine
 10
543.3114158347737
 20
365.4521034458252
 30
0.0
 11
545.8114158347738
 21
367.9521034458253
 31
0.0
  0
LINE
  5
1160E
330
115D8
100
AcDbEntity
  8
0
 62
     0
100
AcDbLine
 10
541.1900954912139
 20
365.452103445825
 30
0.0
 11
543.6900954912141
 21
367.9521034458252
 31
0.0
  0
LINE
  5
1160F
330
115D8
100
AcDbEntity
  8
0
 62
     0
100
AcDbLine
 10
539.0687751476541
 20
365.4521034458248
 30
0.0
 11
541.5687751476545
 21
367.9521034458251
 31
0.0
  0
LINE
  5
11610
330
115D8
100
AcDbEntity
  8
0
 62
     0
100
AcDbLine
 10
536.9474548040942
 20
365.4521034458248
 30
0.0
 11
539.4474548040945
 21
367.952103445825
 31
0.0
  0
LINE
  5
11611
330
115D8
100
AcDbEntity
  8
0
 62
     0
100
AcDbLine
 10
534.8261344605345
 20
365.4521034458245
 30
0.0
 11
537.3261344605348
 21
367.9521034458248
 31
0.0
  0
LINE
  5
11612
330
115D8
100
AcDbEntity
  8
0
 62
     0
100
AcDbLine
 10
532.7048141169748
 20
365.4521034458245
 30
0.0
 11
535.2048141169749
 21
367.9521034458247
 31
0.0
  0
LINE
  5
11613
330
115D8
100
AcDbEntity
  8
0
 62
     0
100
AcDbLine
 10
530.583493773415
 20
365.4521034458245
 30
0.0
 11
533.0834937734152
 21
367.9521034458245
 31
0.0
  0
LINE
  5
11614
330
115D8
100
AcDbEntity
  8
0
 62
     0
100
AcDbLine
 10
528.4621734298553
 20
365.4521034458243
 30
0.0
 11
530.9621734298555
 21
367.9521034458245
 31
0.0
  0
LINE
  5
11615
330
115D8
100
AcDbEntity
  8
0
 62
     0
100
AcDbLine
 10
526.3408530862955
 20
365.4521034458242
 30
0.0
 11
528.8408530862957
 21
367.9521034458243
 31
0.0
  0
LINE
  5
11616
330
115D8
100
AcDbEntity
  8
0
 62
     0
100
AcDbLine
 10
524.2195327427358
 20
365.452103445824
 30
0.0
 11
526.7195327427361
 21
367.9521034458243
 31
0.0
  0
LINE
  5
11617
330
115D8
100
AcDbEntity
  8
0
 62
     0
100
AcDbLine
 10
522.0982123991759
 20
365.452103445824
 30
0.0
 11
524.598212399176
 21
367.952103445824
 31
0.0
  0
LINE
  5
11618
330
115D8
100
AcDbEntity
  8
0
 62
     0
100
AcDbLine
 10
519.9768920556163
 20
365.4521034458237
 30
0.0
 11
522.4768920556166
 21
367.9521034458241
 31
0.0
  0
LINE
  5
11619
330
115D8
100
AcDbEntity
  8
0
 62
     0
100
AcDbLine
 10
517.8555717120564
 20
365.4521034458237
 30
0.0
 11
520.3555717120566
 21
367.9521034458239
 31
0.0
  0
LINE
  5
1161A
330
115D8
100
AcDbEntity
  8
0
 62
     0
100
AcDbLine
 10
515.7342513684967
 20
365.4521034458235
 30
0.0
 11
518.234251368497
 21
367.9521034458237
 31
0.0
  0
LINE
  5
1161B
330
115D8
100
AcDbEntity
  8
0
 62
     0
100
AcDbLine
 10
513.6129310249368
 20
365.4521034458234
 30
0.0
 11
516.112931024937
 21
367.9521034458236
 31
0.0
  0
LINE
  5
1161C
330
115D8
100
AcDbEntity
  8
0
 62
     0
100
AcDbLine
 10
511.4916106813771
 20
365.4521034458232
 30
0.0
 11
513.9916106813774
 21
367.9521034458235
 31
0.0
  0
LINE
  5
1161D
330
115D8
100
AcDbEntity
  8
0
 62
     0
100
AcDbLine
 10
509.3702903378174
 20
365.4521034458231
 30
0.0
 11
511.8702903378175
 21
367.9521034458233
 31
0.0
  0
LINE
  5
1161E
330
115D8
100
AcDbEntity
  8
0
 62
     0
100
AcDbLine
 10
507.2489699942576
 20
365.4521034458231
 30
0.0
 11
509.7489699942578
 21
367.9521034458233
 31
0.0
  0
LINE
  5
1161F
330
115D8
100
AcDbEntity
  8
0
 62
     0
100
AcDbLine
 10
505.1276496506978
 20
365.4521034458227
 30
0.0
 11
507.627649650698
 21
367.9521034458231
 31
0.0
  0
LINE
  5
11620
330
115D8
100
AcDbEntity
  8
0
 62
     0
100
AcDbLine
 10
503.0063293071379
 20
365.4521034458227
 30
0.0
 11
505.5063293071382
 21
367.9521034458229
 31
0.0
  0
LINE
  5
11621
330
115D8
100
AcDbEntity
  8
0
 62
     0
100
AcDbLine
 10
500.8850089635782
 20
365.4521034458225
 30
0.0
 11
503.3850089635784
 21
367.9521034458227
 31
0.0
  0
LINE
  5
11622
330
115D8
100
AcDbEntity
  8
0
 62
     0
100
AcDbLine
 10
498.7636886200184
 20
365.4521034458225
 30
0.0
 11
501.2636886200188
 21
367.9521034458228
 31
0.0
  0
LINE
  5
11623
330
115D8
100
AcDbEntity
  8
0
 62
     0
100
AcDbLine
 10
496.6423682764587
 20
365.4521034458224
 30
0.0
 11
499.1423682764589
 21
367.9521034458226
 31
0.0
  0
LINE
  5
11624
330
115D8
100
AcDbEntity
  8
0
 62
     0
100
AcDbLine
 10
494.521047932899
 20
365.4521034458221
 30
0.0
 11
497.0210479328992
 21
367.9521034458225
 31
0.0
  0
LINE
  5
11625
330
115D8
100
AcDbEntity
  8
0
 62
     0
100
AcDbLine
 10
493.094993041036
 20
366.1473688975189
 30
0.0
 11
494.8997275893393
 21
367.9521034458224
 31
0.0
  0
LINE
  5
11626
330
115D8
100
AcDbEntity
  8
0
 62
     0
100
AcDbLine
 10
491.7691680754537
 20
366.9428642754962
 30
0.0
 11
493.3316677027486
 21
368.5053639027911
 31
0.0
  0
LINE
  5
11627
330
115D8
100
AcDbEntity
  8
0
 62
     0
100
AcDbLine
 10
490.4433426305839
 20
367.7383591741862
 30
0.0
 11
492.0058430313655
 21
369.3008595749678
 31
0.0
  0
LINE
  5
11628
330
115D8
100
AcDbEntity
  8
0
 62
     0
100
AcDbLine
 10
489.0357665586605
 20
368.4521034458223
 30
0.0
 11
490.6800178555399
 21
370.0963547427018
 31
0.0
  0
LINE
  5
11629
330
115D8
100
AcDbEntity
  8
0
 62
     0
100
AcDbLine
 10
486.9144462151007
 20
368.4521034458223
 30
0.0
 11
489.8111987723141
 21
371.3488560030356
 31
0.0
  0
LINE
  5
1162A
330
115D8
100
AcDbEntity
  8
0
 62
     0
100
AcDbLine
 10
484.7931258715409
 20
368.452103445822
 30
0.0
 11
488.8431258715432
 21
372.5021034458245
 31
0.0
  0
LINE
  5
1162B
330
115D8
100
AcDbEntity
  8
0
 62
     0
100
AcDbLine
 10
482.6718055279811
 20
368.4521034458218
 30
0.0
 11
485.1718055279812
 21
370.9521034458219
 31
0.0
  0
LINE
  5
1162C
330
115D8
100
AcDbEntity
  8
0
 62
     0
100
AcDbLine
 10
480.5504851844213
 20
368.4521034458218
 30
0.0
 11
483.0504851844214
 21
370.9521034458219
 31
0.0
  0
LINE
  5
1162D
330
115D8
100
AcDbEntity
  8
0
 62
     0
100
AcDbLine
 10
478.4291648408616
 20
368.4521034458216
 30
0.0
 11
480.9291648408616
 21
370.9521034458216
 31
0.0
  0
LINE
  5
1162E
330
115D8
100
AcDbEntity
  8
0
 62
     0
100
AcDbLine
 10
476.3118969501236
 20
368.4561558986433
 30
0.0
 11
478.8078444973019
 21
370.9521034458217
 31
0.0
  0
LINE
  5
1162F
330
115D8
100
AcDbEntity
  8
0
 62
     0
100
AcDbLine
 10
474.2149208995942
 20
368.4805001916736
 30
0.0
 11
476.6865241537419
 21
370.9521034458213
 31
0.0
  0
LINE
  5
11630
330
115D8
100
AcDbEntity
  8
0
 62
     0
100
AcDbLine
 10
472.1393569801616
 20
368.5262566158005
 30
0.0
 11
474.5652038101824
 21
370.9521034458213
 31
0.0
  0
LINE
  5
11631
330
115D8
100
AcDbEntity
  8
0
 62
     0
100
AcDbLine
 10
470.0845763915046
 20
368.5927963707032
 30
0.0
 11
472.4438834666225
 21
370.9521034458211
 31
0.0
  0
LINE
  5
11632
330
115D8
100
AcDbEntity
  8
0
 62
     0
100
AcDbLine
 10
468.0481402846508
 20
368.6776806074089
 30
0.0
 11
470.3225631230629
 21
370.952103445821
 31
0.0
  0
LINE
  5
11633
330
115D8
100
AcDbEntity
  8
0
 62
     0
100
AcDbLine
 10
466.0149258978521
 20
368.7657865641701
 30
0.0
 11
468.2012427795029
 21
370.9521034458209
 31
0.0
  0
LINE
  5
11634
330
115D8
100
AcDbEntity
  8
0
 62
     0
100
AcDbLine
 10
463.9817115110536
 20
368.8538925209311
 30
0.0
 11
466.0799224359433
 21
370.9521034458208
 31
0.0
  0
LINE
  5
11635
330
115D8
100
AcDbEntity
  8
0
 62
     0
100
AcDbLine
 10
461.9484971242551
 20
368.9419984776923
 30
0.0
 11
463.9586020923833
 21
370.9521034458206
 31
0.0
  0
LINE
  5
11636
330
115D8
100
AcDbEntity
  8
0
 62
     0
100
AcDbLine
 10
459.9152827374568
 20
369.0301044344536
 30
0.0
 11
461.8372817488237
 21
370.9521034458205
 31
0.0
  0
LINE
  5
11637
330
115D8
100
AcDbEntity
  8
0
 62
     0
100
AcDbLine
 10
457.8820683506582
 20
369.1182103912147
 30
0.0
 11
459.7159614052638
 21
370.9521034458204
 31
0.0
  0
LINE
  5
11638
330
115D8
100
AcDbEntity
  8
0
 62
     0
100
AcDbLine
 10
455.8488539638595
 20
369.2063163479757
 30
0.0
 11
457.5946410617042
 21
370.9521034458203
 31
0.0
  0
LINE
  5
11639
330
115D8
100
AcDbEntity
  8
0
 62
     0
100
AcDbLine
 10
453.815639577061
 20
369.2944223047368
 30
0.0
 11
455.4733207181443
 21
370.9521034458201
 31
0.0
  0
LINE
  5
1163A
330
115D8
100
AcDbEntity
  8
0
 62
     0
100
AcDbLine
 10
451.7824251902626
 20
369.3825282614981
 30
0.0
 11
453.3520003745846
 21
370.95210344582
 31
0.0
  0
LINE
  5
1163B
330
115D8
100
AcDbEntity
  8
0
 62
     0
100
AcDbLine
 10
449.7492108034642
 20
369.4706342182592
 30
0.0
 11
451.2306800310248
 21
370.9521034458199
 31
0.0
  0
LINE
  5
1163C
330
115D8
100
AcDbEntity
  8
0
 62
     0
100
AcDbLine
 10
447.7159964166657
 20
369.5587401750204
 30
0.0
 11
449.1093596874651
 21
370.9521034458199
 31
0.0
  0
LINE
  5
1163D
330
115D8
100
AcDbEntity
  8
0
 62
     0
100
AcDbLine
 10
445.6827820298671
 20
369.6468461317815
 30
0.0
 11
446.9880393439052
 21
370.9521034458195
 31
0.0
  0
LINE
  5
1163E
330
115D8
100
AcDbEntity
  8
0
 62
     0
100
AcDbLine
 10
443.6495676430687
 20
369.7349520885426
 30
0.0
 11
444.8667190003455
 21
370.9521034458196
 31
0.0
  0
ENDBLK
  5
11640
330
115D8
100
AcDbEntity
  8
0
100
AcDbBlockEnd
  0
BLOCK
  5
11691
330
11641
100
AcDbEntity
  8
0
100
AcDbBlockBegin
  2
*X10
 70
     1
 10
0.0
 20
0.0
 30
0.0
  3
*X10
  1

  0
LINE
  5
11642
330
11641
100
AcDbEntity
  8
0
 62
     0
100
AcDbLine
 10
681.7537670905885
 20
370.2511079040762
 30
0.0
 11
681.0527715488312
 21
370.9521034458336
 31
0.0
  0
LINE
  5
11643
330
11641
100
AcDbEntity
  8
0
 62
     0
100
AcDbLine
 10
680.4662148006545
 20
369.4173398504506
 30
0.0
 11
678.9314512052717
 21
370.9521034458334
 31
0.0
  0
LINE
  5
11644
330
11641
100
AcDbEntity
  8
0
 62
     0
100
AcDbLine
 10
678.7826272264009
 20
368.9796070811445
 30
0.0
 11
676.8101308617123
 21
370.9521034458333
 31
0.0
  0
LINE
  5
11645
330
11641
100
AcDbEntity
  8
0
 62
     0
100
AcDbLine
 10
677.0990396521473
 20
368.5418743118384
 30
0.0
 11
674.6888105181526
 21
370.9521034458331
 31
0.0
  0
LINE
  5
11646
330
11641
100
AcDbEntity
  8
0
 62
     0
100
AcDbLine
 10
675.0674901745928
 20
368.4521034458332
 30
0.0
 11
672.567490174593
 21
370.952103445833
 31
0.0
  0
LINE
  5
11647
330
11641
100
AcDbEntity
  8
0
 62
     0
100
AcDbLine
 10
672.9461698310333
 20
368.4521034458332
 30
0.0
 11
670.4461698310336
 21
370.952103445833
 31
0.0
  0
LINE
  5
11648
330
11641
100
AcDbEntity
  8
0
 62
     0
100
AcDbLine
 10
670.8248494874737
 20
368.452103445833
 30
0.0
 11
668.324849487474
 21
370.9521034458328
 31
0.0
  0
LINE
  5
11649
330
11641
100
AcDbEntity
  8
0
 62
     0
100
AcDbLine
 10
668.7035291439143
 20
368.4521034458329
 30
0.0
 11
666.2035291439146
 21
370.9521034458327
 31
0.0
  0
LINE
  5
1164A
330
11641
100
AcDbEntity
  8
0
 62
     0
100
AcDbLine
 10
666.5822088003547
 20
368.4521034458327
 30
0.0
 11
664.082208800355
 21
370.9521034458326
 31
0.0
  0
LINE
  5
1164B
330
11641
100
AcDbEntity
  8
0
 62
     0
100
AcDbLine
 10
664.4608884567953
 20
368.4521034458326
 30
0.0
 11
661.9608884567955
 21
370.9521034458325
 31
0.0
  0
LINE
  5
1164C
330
11641
100
AcDbEntity
  8
0
 62
     0
100
AcDbLine
 10
662.3395681132359
 20
368.4521034458323
 30
0.0
 11
659.8395681132362
 21
370.9521034458322
 31
0.0
  0
LINE
  5
1164D
330
11641
100
AcDbEntity
  8
0
 62
     0
100
AcDbLine
 10
660.2182477696762
 20
368.4521034458324
 30
0.0
 11
657.7182477696765
 21
370.9521034458321
 31
0.0
  0
LINE
  5
1164E
330
11641
100
AcDbEntity
  8
0
 62
     0
100
AcDbLine
 10
658.0969274261167
 20
368.4521034458323
 30
0.0
 11
655.5969274261171
 21
370.952103445832
 31
0.0
  0
LINE
  5
1164F
330
11641
100
AcDbEntity
  8
0
 62
     0
100
AcDbLine
 10
655.9756070825572
 20
368.4521034458321
 30
0.0
 11
653.4756070825575
 21
370.9521034458318
 31
0.0
  0
LINE
  5
11650
330
11641
100
AcDbEntity
  8
0
 62
     0
100
AcDbLine
 10
653.8542867389978
 20
368.4521034458321
 30
0.0
 11
651.3542867389981
 21
370.9521034458317
 31
0.0
  0
LINE
  5
11651
330
11641
100
AcDbEntity
  8
0
 62
     0
100
AcDbLine
 10
651.7329663954383
 20
368.4521034458319
 30
0.0
 11
649.2329663954385
 21
370.9521034458315
 31
0.0
  0
LINE
  5
11652
330
11641
100
AcDbEntity
  8
0
 62
     0
100
AcDbLine
 10
649.6116460518785
 20
368.4521034458319
 30
0.0
 11
647.111646051879
 21
370.9521034458314
 31
0.0
  0
LINE
  5
11653
330
11641
100
AcDbEntity
  8
0
 62
     0
100
AcDbLine
 10
647.4903257083191
 20
368.4521034458317
 30
0.0
 11
644.9903257083194
 21
370.9521034458313
 31
0.0
  0
LINE
  5
11654
330
11641
100
AcDbEntity
  8
0
 62
     0
100
AcDbLine
 10
645.3690053647595
 20
368.4521034458315
 30
0.0
 11
642.8690053647599
 21
370.9521034458312
 31
0.0
  0
LINE
  5
11655
330
11641
100
AcDbEntity
  8
0
 62
     0
100
AcDbLine
 10
643.2476850212
 20
368.4521034458317
 30
0.0
 11
640.7476850212004
 21
370.9521034458311
 31
0.0
  0
LINE
  5
11656
330
11641
100
AcDbEntity
  8
0
 62
     0
100
AcDbLine
 10
641.1263646776404
 20
368.4521034458314
 30
0.0
 11
638.6263646776408
 21
370.952103445831
 31
0.0
  0
LINE
  5
11657
330
11641
100
AcDbEntity
  8
0
 62
     0
100
AcDbLine
 10
639.005044334081
 20
368.4521034458312
 30
0.0
 11
636.5050443340813
 21
370.9521034458309
 31
0.0
  0
LINE
  5
11658
330
11641
100
AcDbEntity
  8
0
 62
     0
100
AcDbLine
 10
636.8837239905216
 20
368.4521034458311
 30
0.0
 11
634.3837239905218
 21
370.9521034458307
 31
0.0
  0
LINE
  5
11659
330
11641
100
AcDbEntity
  8
0
 62
     0
100
AcDbLine
 10
634.7624036469619
 20
368.452103445831
 30
0.0
 11
632.2624036469623
 21
370.9521034458307
 31
0.0
  0
LINE
  5
1165A
330
11641
100
AcDbEntity
  8
0
 62
     0
100
AcDbLine
 10
632.6410833034024
 20
368.4521034458307
 30
0.0
 11
630.1410833034029
 21
370.9521034458305
 31
0.0
  0
LINE
  5
1165B
330
11641
100
AcDbEntity
  8
0
 62
     0
100
AcDbLine
 10
630.519762959843
 20
368.4521034458307
 30
0.0
 11
628.0197629598433
 21
370.9521034458303
 31
0.0
  0
LINE
  5
1165C
330
11641
100
AcDbEntity
  8
0
 62
     0
100
AcDbLine
 10
628.3984426162835
 20
368.4521034458305
 30
0.0
 11
625.8984426162839
 21
370.9521034458303
 31
0.0
  0
LINE
  5
1165D
330
11641
100
AcDbEntity
  8
0
 62
     0
100
AcDbLine
 10
626.2771222727239
 20
368.4521034458304
 30
0.0
 11
623.7771222727243
 21
370.9521034458301
 31
0.0
  0
LINE
  5
1165E
330
11641
100
AcDbEntity
  8
0
 62
     0
100
AcDbLine
 10
624.1558019291643
 20
368.4521034458304
 30
0.0
 11
621.6558019291648
 21
370.9521034458299
 31
0.0
  0
LINE
  5
1165F
330
11641
100
AcDbEntity
  8
0
 62
     0
100
AcDbLine
 10
622.0344815856049
 20
368.4521034458302
 30
0.0
 11
619.5344815856053
 21
370.9521034458297
 31
0.0
  0
LINE
  5
11660
330
11641
100
AcDbEntity
  8
0
 62
     0
100
AcDbLine
 10
619.9131612420453
 20
368.4521034458301
 30
0.0
 11
617.4131612420458
 21
370.9521034458296
 31
0.0
  0
LINE
  5
11661
330
11641
100
AcDbEntity
  8
0
 62
     0
100
AcDbLine
 10
617.7918408984858
 20
368.4521034458301
 30
0.0
 11
615.2918408984864
 21
370.9521034458295
 31
0.0
  0
LINE
  5
11662
330
11641
100
AcDbEntity
  8
0
 62
     0
100
AcDbLine
 10
615.6705205549262
 20
368.4521034458299
 30
0.0
 11
613.1705205549267
 21
370.9521034458294
 31
0.0
  0
LINE
  5
11663
330
11641
100
AcDbEntity
  8
0
 62
     0
100
AcDbLine
 10
613.5492002113667
 20
368.4521034458299
 30
0.0
 11
611.0492002113671
 21
370.9521034458294
 31
0.0
  0
LINE
  5
11664
330
11641
100
AcDbEntity
  8
0
 62
     0
100
AcDbLine
 10
611.4278798678071
 20
368.4521034458297
 30
0.0
 11
608.9278798678076
 21
370.9521034458293
 31
0.0
  0
LINE
  5
11665
330
11641
100
AcDbEntity
  8
0
 62
     0
100
AcDbLine
 10
609.3065595242477
 20
368.4521034458296
 30
0.0
 11
606.8065595242481
 21
370.9521034458291
 31
0.0
  0
LINE
  5
11666
330
11641
100
AcDbEntity
  8
0
 62
     0
100
AcDbLine
 10
606.2537670905888
 20
371.5048958794885
 30
0.0
 11
604.8065595242482
 21
372.952103445829
 31
0.0
  0
LINE
  5
11667
330
11641
100
AcDbEntity
  8
0
 62
     0
100
AcDbLine
 10
607.1852391806881
 20
368.4521034458294
 30
0.0
 11
602.6852391806888
 21
372.9521034458288
 31
0.0
  0
LINE
  5
11668
330
11641
100
AcDbEntity
  8
0
 62
     0
100
AcDbLine
 10
605.0639188371286
 20
368.4521034458293
 30
0.0
 11
603.753767090589
 21
369.7622551923689
 31
0.0
  0
LINE
  5
11669
330
11641
100
AcDbEntity
  8
0
 62
     0
100
AcDbLine
 10
602.563918837129
 20
370.9521034458288
 30
0.0
 11
600.5639188371291
 21
372.9521034458288
 31
0.0
  0
LINE
  5
1166A
330
11641
100
AcDbEntity
  8
0
 62
     0
100
AcDbLine
 10
600.4425984935696
 20
370.9521034458288
 30
0.0
 11
598.4425984935697
 21
372.9521034458287
 31
0.0
  0
LINE
  5
1166B
330
11641
100
AcDbEntity
  8
0
 62
     0
100
AcDbLine
 10
598.3212781500099
 20
370.9521034458287
 30
0.0
 11
596.3212781500101
 21
372.9521034458285
 31
0.0
  0
LINE
  5
1166C
330
11641
100
AcDbEntity
  8
0
 62
     0
100
AcDbLine
 10
596.1999578064505
 20
370.9521034458286
 30
0.0
 11
594.1999578064507
 21
372.9521034458283
 31
0.0
  0
LINE
  5
1166D
330
11641
100
AcDbEntity
  8
0
 62
     0
100
AcDbLine
 10
594.078637462891
 20
370.9521034458282
 30
0.0
 11
592.0786374628911
 21
372.9521034458281
 31
0.0
  0
LINE
  5
1166E
330
11641
100
AcDbEntity
  8
0
 62
     0
100
AcDbLine
 10
591.9573171193316
 20
370.9521034458281
 30
0.0
 11
589.9573171193316
 21
372.9521034458281
 31
0.0
  0
LINE
  5
1166F
330
11641
100
AcDbEntity
  8
0
 62
     0
100
AcDbLine
 10
589.835996775772
 20
370.952103445828
 30
0.0
 11
587.835996775772
 21
372.952103445828
 31
0.0
  0
LINE
  5
11670
330
11641
100
AcDbEntity
  8
0
 62
     0
100
AcDbLine
 10
587.7146764322125
 20
370.9521034458279
 30
0.0
 11
585.7146764322126
 21
372.9521034458278
 31
0.0
  0
LINE
  5
11671
330
11641
100
AcDbEntity
  8
0
 62
     0
100
AcDbLine
 10
585.5933560886531
 20
370.9521034458278
 30
0.0
 11
583.593356088653
 21
372.9521034458278
 31
0.0
  0
LINE
  5
11672
330
11641
100
AcDbEntity
  8
0
 62
     0
100
AcDbLine
 10
583.4720357450935
 20
370.9521034458277
 30
0.0
 11
581.4720357450935
 21
372.9521034458276
 31
0.0
  0
LINE
  5
11673
330
11641
100
AcDbEntity
  8
0
 62
     0
100
AcDbLine
 10
581.3507154015341
 20
370.9521034458276
 30
0.0
 11
579.350715401534
 21
372.9521034458276
 31
0.0
  0
LINE
  5
11674
330
11641
100
AcDbEntity
  8
0
 62
     0
100
AcDbLine
 10
579.2293950579744
 20
370.9521034458273
 30
0.0
 11
577.2293950579745
 21
372.9521034458273
 31
0.0
  0
LINE
  5
11675
330
11641
100
AcDbEntity
  8
0
 62
     0
100
AcDbLine
 10
577.1080747144148
 20
370.9521034458273
 30
0.0
 11
575.108074714415
 21
372.9521034458272
 31
0.0
  0
LINE
  5
11676
330
11641
100
AcDbEntity
  8
0
 62
     0
100
AcDbLine
 10
574.9867543708554
 20
370.9521034458271
 30
0.0
 11
572.9867543708555
 21
372.9521034458271
 31
0.0
  0
LINE
  5
11677
330
11641
100
AcDbEntity
  8
0
 62
     0
100
AcDbLine
 10
572.8654340272959
 20
370.952103445827
 30
0.0
 11
570.8654340272959
 21
372.952103445827
 31
0.0
  0
LINE
  5
11678
330
11641
100
AcDbEntity
  8
0
 62
     0
100
AcDbLine
 10
570.7441136837364
 20
370.952103445827
 30
0.0
 11
568.7441136837363
 21
372.952103445827
 31
0.0
  0
LINE
  5
11679
330
11641
100
AcDbEntity
  8
0
 62
     0
100
AcDbLine
 10
568.6227933401768
 20
370.9521034458268
 30
0.0
 11
566.6227933401768
 21
372.9521034458268
 31
0.0
  0
LINE
  5
1167A
330
11641
100
AcDbEntity
  8
0
 62
     0
100
AcDbLine
 10
566.5014729966173
 20
370.9521034458268
 30
0.0
 11
564.5014729966175
 21
372.9521034458266
 31
0.0
  0
LINE
  5
1167B
330
11641
100
AcDbEntity
  8
0
 62
     0
100
AcDbLine
 10
564.3801526530578
 20
370.9521034458264
 30
0.0
 11
562.3801526530578
 21
372.9521034458266
 31
0.0
  0
LINE
  5
1167C
330
11641
100
AcDbEntity
  8
0
 62
     0
100
AcDbLine
 10
562.2588323094984
 20
370.9521034458263
 30
0.0
 11
560.2588323094984
 21
372.9521034458264
 31
0.0
  0
LINE
  5
1167D
330
11641
100
AcDbEntity
  8
0
 62
     0
100
AcDbLine
 10
560.1375119659389
 20
370.9521034458261
 30
0.0
 11
558.137511965939
 21
372.9521034458262
 31
0.0
  0
LINE
  5
1167E
330
11641
100
AcDbEntity
  8
0
 62
     0
100
AcDbLine
 10
558.0161916223794
 20
370.952103445826
 30
0.0
 11
556.0161916223794
 21
372.9521034458261
 31
0.0
  0
LINE
  5
1167F
330
11641
100
AcDbEntity
  8
0
 62
     0
100
AcDbLine
 10
555.8948712788199
 20
370.952103445826
 30
0.0
 11
553.8948712788198
 21
372.952103445826
 31
0.0
  0
LINE
  5
11680
330
11641
100
AcDbEntity
  8
0
 62
     0
100
AcDbLine
 10
553.7735509352603
 20
370.9521034458258
 30
0.0
 11
551.7735509352603
 21
372.9521034458258
 31
0.0
  0
LINE
  5
11681
330
11641
100
AcDbEntity
  8
0
 62
     0
100
AcDbLine
 10
551.6522305917008
 20
370.9521034458258
 30
0.0
 11
549.6522305917007
 21
372.9521034458258
 31
0.0
  0
LINE
  5
11682
330
11641
100
AcDbEntity
  8
0
 62
     0
100
AcDbLine
 10
549.5309102481413
 20
370.9521034458255
 30
0.0
 11
547.5309102481413
 21
372.9521034458255
 31
0.0
  0
LINE
  5
11683
330
11641
100
AcDbEntity
  8
0
 62
     0
100
AcDbLine
 10
547.4095899045818
 20
370.9521034458254
 30
0.0
 11
545.4095899045817
 21
372.9521034458255
 31
0.0
  0
LINE
  5
11684
330
11641
100
AcDbEntity
  8
0
 62
     0
100
AcDbLine
 10
545.2882695610222
 20
370.9521034458254
 30
0.0
 11
543.2882695610222
 21
372.9521034458255
 31
0.0
  0
LINE
  5
11685
330
11641
100
AcDbEntity
  8
0
 62
     0
100
AcDbLine
 10
543.1669492174627
 20
370.9521034458252
 30
0.0
 11
541.1669492174627
 21
372.9521034458253
 31
0.0
  0
LINE
  5
11686
330
11641
100
AcDbEntity
  8
0
 62
     0
100
AcDbLine
 10
541.0456288739031
 20
370.9521034458252
 30
0.0
 11
539.0456288739032
 21
372.9521034458252
 31
0.0
  0
LINE
  5
11687
330
11641
100
AcDbEntity
  8
0
 62
     0
100
AcDbLine
 10
538.9243085303436
 20
370.952103445825
 30
0.0
 11
536.9243085303435
 21
372.9521034458251
 31
0.0
  0
LINE
  5
11688
330
11641
100
AcDbEntity
  8
0
 62
     0
100
AcDbLine
 10
536.8029881867841
 20
370.9521034458248
 30
0.0
 11
534.8029881867842
 21
372.9521034458248
 31
0.0
  0
LINE
  5
11689
330
11641
100
AcDbEntity
  8
0
 62
     0
100
AcDbLine
 10
534.6816678432247
 20
370.9521034458246
 30
0.0
 11
532.6816678432248
 21
372.9521034458246
 31
0.0
  0
LINE
  5
1168A
330
11641
100
AcDbEntity
  8
0
 62
     0
100
AcDbLine
 10
532.560347499665
 20
370.9521034458246
 30
0.0
 11
530.5603474996651
 21
372.9521034458246
 31
0.0
  0
LINE
  5
1168B
330
11641
100
AcDbEntity
  8
0
 62
     0
100
AcDbLine
 10
530.4390271561056
 20
370.9521034458245
 30
0.0
 11
528.4390271561057
 21
372.9521034458245
 31
0.0
  0
LINE
  5
1168C
330
11641
100
AcDbEntity
  8
0
 62
     0
100
AcDbLine
 10
528.3177068125462
 20
370.9521034458242
 30
0.0
 11
526.3177068125461
 21
372.9521034458243
 31
0.0
  0
LINE
  5
1168D
330
11641
100
AcDbEntity
  8
0
 62
     0
100
AcDbLine
 10
526.1963864689866
 20
370.9521034458242
 30
0.0
 11
524.1967922271206
 21
372.9516976876902
 31
0.0
  0
LINE
  5
1168E
330
11641
100
AcDbEntity
  8
0
 62
     0
100
AcDbLine
 10
524.0750661254272
 20
370.952103445824
 30
0.0
 11
522.4865970521486
 21
372.5405725191024
 31
0.0
  0
LINE
  5
1168F
330
11641
100
AcDbEntity
  8
0
 62
     0
100
AcDbLine
 10
522.8537564362279
 20
370.0520927914636
 30
0.0
 11
521.273395652983
 21
371.6324535747085
 31
0.0
  0
LINE
  5
11690
330
11641
100
AcDbEntity
  8
0
 62
     0
100
AcDbLine
 10
521.819950310748
 20
368.9645785733838
 30
0.0
 11
520.4835940848059
 21
370.300934799326
 31
0.0
  0
ENDBLK
  5
11692
330
11641
100
AcDbEntity
  8
0
100
AcDbBlockEnd
  0
BLOCK
  5
116B2
330
116A8
100
AcDbEntity
  8
0
100
AcDbBlockBegin
  2
*D11
 70
     1
 10
0.0
 20
0.0
 30
0.0
  3
*D11
  1

  0
LINE
  5
121F5
330
116A8
100
AcDbEntity
  8
SUNPOU
100
AcDbLine
 10
81.51067574733293
 20
472.6917064850863
 30
0.0
 11
81.51067574733293
 21
510.1886255556546
 31
0.0
  0
LINE
  5
121F6
330
116A8
100
AcDbEntity
  8
SUNPOU
100
AcDbLine
 10
125.5105757473338
 20
472.5788940479995
 30
0.0
 11
125.5105757473338
 21
510.1886255556546
 31
0.0
  0
LINE
  5
121F7
330
116A8
100
AcDbEntity
  8
SUNPOU
100
AcDbLine
 10
85.51067574733293
 20
508.1886255556546
 30
0.0
 11
121.5105757473338
 21
508.1886255556546
 31
0.0
  0
INSERT
  5
121F8
330
116A8
100
AcDbEntity
  8
SUNPOU
100
AcDbBlockReference
  2
_Open
 10
81.51067574733293
 20
508.1886255556546
 30
0.0
 41
4.0
 42
4.0
 43
4.0
 50
180.0
  0
INSERT
  5
121F9
330
116A8
100
AcDbEntity
  8
SUNPOU
100
AcDbBlockReference
  2
_Open
 10
125.5105757473338
 20
508.1886255556546
 30
0.0
 41
4.0
 42
4.0
 43
4.0
  0
MTEXT
  5
121FA
330
116A8
100
AcDbEntity
  8
SUNPOU
100
AcDbMText
 10
103.5106257473334
 20
513.1886255556546
 30
0.0
 40
6.0
 41
0.0
 71
     5
 72
     5
  1
\A1;\U+203B44
 73
     1
 44
1.0
1001
ACAD
1000
MTEXTBEGIN
1070
    73
1070
     1
1070
    44
1040
1.0
1070
    74
1070
     0
1000
MTEXTEND
  0
POINT
  5
121FB
330
116A8
100
AcDbEntity
  8
DEFPOINTS
 62
     0
100
AcDbPoint
 10
81.51067574733293
 20
470.6917064850863
 30
0.0
  0
POINT
  5
121FC
330
116A8
100
AcDbEntity
  8
DEFPOINTS
 62
     0
100
AcDbPoint
 10
125.5105757473338
 20
470.5788940479996
 30
0.0
  0
POINT
  5
121FD
330
116A8
100
AcDbEntity
  8
DEFPOINTS
 62
     0
100
AcDbPoint
 10
125.5105757473338
 20
508.1886255556546
 30
0.0
  0
ENDBLK
  5
116B3
330
116A8
100
AcDbEntity
  8
0
100
AcDbBlockEnd
  0
BLOCK
  5
116C0
330
116B6
100
AcDbEntity
  8
0
100
AcDbBlockBegin
  2
*D12
 70
     1
 10
0.0
 20
0.0
 30
0.0
  3
*D12
  1

  0
LINE
  5
121FE
330
116B6
100
AcDbEntity
  8
SUNPOU
100
AcDbLine
 10
320.0106757473327
 20
473.9934056983711
 30
0.0
 11
320.0106757473327
 21
510.1886255556546
 31
0.0
  0
LINE
  5
121FF
330
116B6
100
AcDbEntity
  8
SUNPOU
100
AcDbLine
 10
244.021821261191
 20
473.9934056983713
 30
0.0
 11
244.021821261191
 21
510.1886255556546
 31
0.0
  0
LINE
  5
12200
330
116B6
100
AcDbEntity
  8
SUNPOU
100
AcDbLine
 10
316.0106757473327
 20
508.1886255556546
 30
0.0
 11
248.021821261191
 21
508.1886255556546
 31
0.0
  0
INSERT
  5
12201
330
116B6
100
AcDbEntity
  8
SUNPOU
100
AcDbBlockReference
  2
_Open
 10
320.0106757473327
 20
508.1886255556546
 30
0.0
 41
4.0
 42
4.0
 43
4.0
  0
INSERT
  5
12202
330
116B6
100
AcDbEntity
  8
SUNPOU
100
AcDbBlockReference
  2
_Open
 10
244.021821261191
 20
508.1886255556546
 30
0.0
 41
4.0
 42
4.0
 43
4.0
 50
180.0
  0
MTEXT
  5
12203
330
116B6
100
AcDbEntity
  8
SUNPOU
100
AcDbMText
 10
282.0162485042619
 20
513.1886255556546
 30
0.0
 40
6.0
 41
0.0
 71
     5
 72
     5
  1
\A1;\U+203B76
 73
     1
 44
1.0
1001
ACAD
1000
MTEXTBEGIN
1070
    73
1070
     1
1070
    44
1040
1.0
1070
    74
1070
     0
1000
MTEXTEND
  0
POINT
  5
12204
330
116B6
100
AcDbEntity
  8
DEFPOINTS
 62
     0
100
AcDbPoint
 10
320.0106757473327
 20
471.9934056983711
 30
0.0
  0
POINT
  5
12205
330
116B6
100
AcDbEntity
  8
DEFPOINTS
 62
     0
100
AcDbPoint
 10
244.021821261191
 20
471.9934056983714
 30
0.0
  0
POINT
  5
12206
330
116B6
100
AcDbEntity
  8
DEFPOINTS
 62
     0
100
AcDbPoint
 10
244.021821261191
 20
508.1886255556546
 30
0.0
  0
ENDBLK
  5
116C1
330
116B6
100
AcDbEntity
  8
0
100
AcDbBlockEnd
  0
BLOCK
  5
116CD
330
116C3
100
AcDbEntity
  8
0
100
AcDbBlockBegin
  2
*D13
 70
     1
 10
0.0
 20
0.0
 30
0.0
  3
*D13
  1

  0
LINE
  5
12207
330
116C3
100
AcDbEntity
  8
SUNPOU
100
AcDbLine
 10
125.5105757473338
 20
472.5788940479995
 30
0.0
 11
125.5105757473338
 21
510.1886255556546
 31
0.0
  0
LINE
  5
12208
330
116C3
100
AcDbEntity
  8
SUNPOU
100
AcDbLine
 10
244.021821261191
 20
473.9934056983713
 30
0.0
 11
244.021821261191
 21
510.1886255556546
 31
0.0
  0
LINE
  5
12209
330
116C3
100
AcDbEntity
  8
SUNPOU
100
AcDbLine
 10
129.5105757473338
 20
508.1886255556546
 30
0.0
 11
240.021821261191
 21
508.1886255556546
 31
0.0
  0
INSERT
  5
1220A
330
116C3
100
AcDbEntity
  8
SUNPOU
100
AcDbBlockReference
  2
_Open
 10
125.5105757473338
 20
508.1886255556546
 30
0.0
 41
4.0
 42
4.0
 43
4.0
 50
180.0
  0
INSERT
  5
1220B
330
116C3
100
AcDbEntity
  8
SUNPOU
100
AcDbBlockReference
  2
_Open
 10
244.021821261191
 20
508.1886255556546
 30
0.0
 41
4.0
 42
4.0
 43
4.0
  0
MTEXT
  5
1220C
330
116C3
100
AcDbEntity
  8
SUNPOU
100
AcDbMText
 10
184.7661985042624
 20
513.1886255556546
 30
0.0
 40
6.0
 41
0.0
 71
     5
 72
     5
  1
\A1;119
 73
     1
 44
1.0
1001
ACAD
1000
MTEXTBEGIN
1070
    73
1070
     1
1070
    44
1040
1.0
1070
    74
1070
     0
1000
MTEXTEND
  0
POINT
  5
1220D
330
116C3
100
AcDbEntity
  8
DEFPOINTS
 62
     0
100
AcDbPoint
 10
125.5105757473338
 20
470.5788940479996
 30
0.0
  0
POINT
  5
1220E
330
116C3
100
AcDbEntity
  8
DEFPOINTS
 62
     0
100
AcDbPoint
 10
244.021821261191
 20
471.9934056983714
 30
0.0
  0
POINT
  5
1220F
330
116C3
100
AcDbEntity
  8
DEFPOINTS
 62
     0
100
AcDbPoint
 10
244.021821261191
 20
508.1886255556546
 30
0.0
  0
ENDBLK
  5
116CE
330
116C3
100
AcDbEntity
  8
0
100
AcDbBlockEnd
  0
ENDSEC
  0
SECTION
  2
ENTITIES
  0
LWPOLYLINE
  5
76D
330
1A
100
AcDbEntity
  8
ZUWAKU
100
AcDbPolyline
 90
        4
 70
     1
 43
0.0
 10
15.79999918477006
 20
565.8000003741979
 10
15.79999918477006
 20
15.80000037419791
 10
811.79999918477
 20
15.80000037419791
 10
811.79999918477
 20
565.8000003741979
  0
LWPOLYLINE
  5
76E
330
1A
100
AcDbEntity
  8
ZUWAKU
100
AcDbPolyline
 90
        4
 70
     1
 43
0.0
 10
15.39999918477008
 20
566.2000003741979
 10
15.39999918477008
 20
15.40000037419793
 10
812.1999991847701
 20
15.40000037419791
 10
812.1999991847701
 20
566.2000003741979
  0
LWPOLYLINE
  5
76F
330
1A
100
AcDbEntity
  8
ZUWAKU
100
AcDbPolyline
 90
        4
 70
     1
 43
0.0
 10
14.9999991847701
 20
566.6000003741978
 10
14.9999991847701
 20
15.00000037419784
 10
812.5999991847702
 20
15.0000003741979
 10
812.5999991847702
 20
566.6000003741979
  0
LWPOLYLINE
  5
770
330
1A
100
AcDbEntity
  8
ZUWAKU
100
AcDbPolyline
 90
        4
 70
     1
 43
0.0
 10
15.59999918477001
 20
566.0000003741979
 10
15.59999918477001
 20
15.60000037419786
 10
811.9999991847702
 20
15.60000037419791
 10
811.99999918477
 20
566.0000003741979
  0
LWPOLYLINE
  5
771
330
1A
100
AcDbEntity
  8
ZUWAKU
100
AcDbPolyline
 90
        4
 70
     1
 43
0.0
 10
15.19999918477003
 20
566.4000003741979
 10
15.19999918477003
 20
15.20000037419788
 10
812.39999918477
 20
15.20000037419791
 10
812.3999991847702
 20
566.4000003741979
  0
LINE
  5
772
330
1A
100
AcDbEntity
  8
ZUWAKU
100
AcDbLine
 10
14.9999991847701
 20
45.00000037419783
 30
0.0
 11
812.39999918477
 21
45.00000037419783
 31
0.0
  0
LINE
  5
773
330
1A
100
AcDbEntity
  8
ZUWAKU
100
AcDbLine
 10
14.9999991847701
 20
45.20000037419784
 30
0.0
 11
812.39999918477
 21
45.20000037419784
 31
0.0
  0
LINE
  5
774
330
1A
100
AcDbEntity
  8
ZUWAKU
100
AcDbLine
 10
14.9999991847701
 20
45.40000037419784
 30
0.0
 11
812.39999918477
 21
45.40000037419784
 31
0.0
  0
LINE
  5
775
330
1A
100
AcDbEntity
  8
ZUWAKU
100
AcDbLine
 10
14.9999991847701
 20
45.60000037419785
 30
0.0
 11
812.39999918477
 21
45.60000037419785
 31
0.0
  0
LINE
  5
776
330
1A
100
AcDbEntity
  8
ZUWAKU
100
AcDbLine
 10
14.9999991847701
 20
45.80000037419785
 30
0.0
 11
812.39999918477
 21
45.80000037419785
 31
0.0
  0
LINE
  5
777
330
1A
100
AcDbEntity
  8
ZUWAKU
100
AcDbLine
 10
223.6466004748381
 20
30.40000037419787
 30
0.0
 11
462.4243631557614
 21
30.40000037419787
 31
0.0
  0
LINE
  5
778
330
1A
100
AcDbEntity
  8
ZUWAKU
100
AcDbLine
 10
223.6466004748381
 20
30.60000037419787
 30
0.0
 11
462.4243631557614
 21
30.60000037419788
 31
0.0
  0
LINE
  5
779
330
1A
100
AcDbEntity
  8
ZUWAKU
100
AcDbLine
 10
223.6466004748381
 20
30.20000037419788
 30
0.0
 11
462.4243631557614
 21
30.20000037419787
 31
0.0
  0
TEXT
  5
77A
330
1A
100
AcDbEntity
  8
moji
100
AcDbText
 10
107.9577887729392
 20
27.7411785044726
 30
0.0
 40
6.0
  1
のきとい アートフェイスＴ１２０
 41
0.9
  7
MSPｺﾞｼｯｸ
100
AcDbText
  0
CIRCLE
  5
77B
330
1A
100
AcDbEntity
  8
ZUWAKU
100
AcDbCircle
 10
40.9922113395512
 20
30.20000037419784
 30
0.0
 40
1.75
  0
LINE
  5
77C
330
1A
100
AcDbEntity
  8
ZUWAKU
100
AcDbLine
 10
41.8672113395512
 20
22.15000037419784
 30
0.0
 11
39.94221133955125
 21
22.15000037419784
 31
0.0
  0
LINE
  5
77D
330
1A
100
AcDbEntity
  8
ZUWAKU
100
AcDbLine
 10
39.94221133955125
 20
24.95000037419784
 30
0.0
 11
41.8672113395512
 21
24.95000037419784
 31
0.0
  0
LINE
  5
77E
330
1A
100
AcDbEntity
  8
ZUWAKU
100
AcDbLine
 10
41.8672113395512
 20
35.45000037419784
 30
0.0
 11
39.94221133955125
 21
35.45000037419784
 31
0.0
  0
LINE
  5
77F
330
1A
100
AcDbEntity
  8
ZUWAKU
100
AcDbLine
 10
39.94221133955125
 20
38.2500003741978
 30
0.0
 11
41.8672113395512
 21
38.25000037419785
 31
0.0
  0
INSERT
  5
780
330
1A
100
AcDbEntity
  8
ZUWAKU
  6
Continuous
100
AcDbBlockReference
  2
*X0
 10
0.0
 20
0.0
 30
0.0
1001
ACAD
1000
HATCH
1002
{
1070
    19
1000
ANSI37
1040
0.2
1040
0.0
1000
R14_HATCH_DATA
1000
780
1011
1.0
1021
0.0
1031
0.0
1011
0.0
1021
1.0
1031
0.0
1011
0.0
1021
0.0
1031
1.0
1040
0.0
1010
0.0
1020
0.0
1030
1.0
1000
ANSI37
1070
     0
1070
     0
1071
        8
1071
        7
1070
     1
1070
     1
1071
       24
1040
29.50226184588996
1040
32.64484885518142
1040
-0.1989123673796348
1040
29.09221133955123
1040
33.63479834884247
1040
0.0
1040
29.09221133955123
1040
34.92500037419785
1040
-0.4142135623730912
1040
29.61721133955121
1040
35.45000037419784
1040
0.0
1040
32.59221133955112
1040
35.45000037419784
1040
0.4142135623731546
1040
33.11721133955121
1040
35.97500037419783
1040
0.0
1040
33.11721133955121
1040
37.72500037419785
1040
0.4142135623731586
1040
32.59221133955112
1040
38.25000037419785
1040
0.0
1040
29.09221133955123
1040
38.25000037419785
1040
0.4142135623730928
1040
26.29221133955127
1040
35.45000037419787
1040
0.0
1040
26.29221133955127
1040
33.6347983488426
1040
0.1989123673796619
1040
27.52236285856771
1040
30.664949867859
1040
0.0
1040
30.43216083321238
1040
27.75515189321434
1040
-0.1989123673796613
1040
30.84221133955123
1040
26.76520239955315
1040
0.0
1040
30.84221133955123
1040
25.47500037419784
1040
-0.4142135623730911
1040
30.31721133955125
1040
24.95000037419784
1040
0.0
1040
27.34221133955134
1040
24.95000037419784
1040
0.4142135623731526
1040
26.81721133955125
1040
24.42500037419785
1040
0.0
1040
26.81721133955125
1040
22.67500037419783
1040
0.4142135623731526
1040
27.34221133955134
1040
22.15000037419784
1040
0.0
1040
30.84221133955123
1040
22.15000037419784
1040
0.4142135623731044
1040
33.6422113395513
1040
24.95000037419782
1040
0.0
1040
33.6422113395513
1040
26.76520239955309
1040
0.1989123673796604
1040
32.41205982053475
1040
29.73505088053663
1040
0.0
1071
        0
1071
        7
1070
     1
1070
     1
1071
       16
1040
38.54221133955127
1040
34.05000037419785
1040
-0.4142135623730935
1040
39.94221133955125
1040
35.45000037419784
1040
0.0
1040
41.8672113395512
1040
35.45000037419784
1040
0.4142135623731546
1040
42.39221133955129
1040
35.97500037419783
1040
0.0
1040
42.39221133955129
1040
37.72500037419785
1040
0.4142135623730951
1040
41.86721133955131
1040
38.25000037419785
1040
0.0
1040
39.94221133955114
1040
38.2500003741978
1040
0.4142135623730892
1040
35.7422113395512
1040
34.05000037419778
1040
0.0
1040
35.7422113395512
1040
26.35000037419787
1040
0.4142135623730969
1040
39.94221133955125
1040
22.15000037419784
1040
0.0
1040
41.8672113395512
1040
22.15000037419784
1040
0.4142135623731526
1040
42.39221133955129
1040
22.67500037419783
1040
0.0
1040
42.39221133955129
1040
24.42500037419785
1040
0.4142135623730891
1040
41.86721133955131
1040
24.95000037419784
1040
0.0
1040
39.94221133955125
1040
24.95000037419784
1040
-0.4142135623730928
1040
38.54221133955127
1040
26.35000037419783
1040
0.0
1071
        0
1071
        7
1070
     1
1070
     1
1071
        2
1040
39.2422113395512
1040
30.20000037419784
1040
1.0
1040
42.7422113395512
1040
30.20000037419784
1040
1.0
1071
        0
1071
        7
1070
     1
1070
     1
1071
       26
1040
52.31485782172922
1040
34.20504756776127
1040
0.0
1040
53.37649745486704
1040
37.56690640603086
1040
0.5069206636600134
1040
52.87586655567167
1040
38.25000037419785
1040
0.0
1040
51.17697717606245
1040
38.25000037419785
1040
0.3272098845218764
1040
50.67634627686709
1040
37.88309434236481
1040
0.0
1040
48.80807640223531
1040
31.96690640603093
1040
-0.3272098845219541
1040
48.30744550303984
1040
31.60000037419784
1040
0.0
1040
48.16721133955138
1040
31.60000037419784
1040
-0.4142135623731526
1040
47.64221133955129
1040
32.12500037419783
1040
0.0
1040
47.64221133955129
1040
37.72500037419785
1040
0.4142135623730951
1040
47.11721133955132
1040
38.25000037419785
1040
0.0
1040
45.3672113395512
1040
38.25000037419785
1040
0.4142135623730871
1040
44.84221133955123
1040
37.72500037419786
1040
0.0
1040
44.84221133955123
1040
22.67500037419783
1040
0.4142135623730891
1040
45.3672113395512
1040
22.15000037419784
1040
0.0
1040
47.1172113395512
1040
22.15000037419784
1040
0.4142135623731526
1040
47.64221133955129
1040
22.67500037419783
1040
0.0
1040
47.64221133955129
1040
28.27500037419786
1040
-0.4142135623731526
1040
48.16721133955138
1040
28.80000037419785
1040
0.0
1040
48.30744550303996
1040
28.80000037419785
1040
-0.3272098845218915
1040
48.80807640223531
1040
28.43309434236477
1040
0.0
1040
50.67634627686709
1040
22.51690640603092
1040
0.3272098845218902
1040
51.17697717606245
1040
22.15000037419784
1040
0.0
1040
52.87586655567167
1040
22.15000037419784
1040
0.5069206636600335
1040
53.37649745486704
1040
22.83309434236485
1040
0.0
1040
51.05010607639338
1040
30.20000037419798
1040
0.0
1071
        0
1071
        7
1070
     1
1070
     1
1071
        8
1040
58.4922113395512
1040
37.72500037419785
1040
0.4142135623731546
1040
57.96721133955111
1040
38.25000037419785
1040
0.0
1040
56.21721133955134
1040
38.25000037419785
1040
0.4142135623731507
1040
55.69221133955124
1040
37.72500037419786
1040
0.0
1040
55.69221133955124
1040
22.67500037419783
1040
0.4142135623731526
1040
56.21721133955134
1040
22.15000037419784
1040
0.0
1040
57.96721133955111
1040
22.15000037419784
1040
0.4142135623731526
1040
58.4922113395512
1040
22.67500037419783
1040
0.0
1071
        0
1071
        7
1070
     1
1070
     1
1071
       24
1040
63.39221133955129
1040
34.92500037419785
1040
-0.4142135623731546
1040
63.91721133955138
1040
35.45000037419784
1040
0.0
1040
66.89221133955129
1040
35.45000037419784
1040
0.4142135623730911
1040
67.41721133955127
1040
35.97500037419783
1040
0.0
1040
67.41721133955127
1040
37.72500037419785
1040
0.4142135623730952
1040
66.89221133955129
1040
38.25000037419785
1040
0.0
1040
63.39221133955129
1040
38.25000037419785
1040
0.4142135623731048
1040
60.59221133955123
1040
35.45000037419787
1040
0.0
1040
60.59221133955123
1040
33.6347983488426
1040
0.1989123673796613
1040
61.82236285856777
1040
30.66494986785905
1040
0.0
1040
64.73216083321244
1040
27.75515189321438
1040
-0.1989123673796402
1040
65.14221133955129
1040
26.76520239955331
1040
0.0
1040
65.14221133955129
1040
25.47500037419784
1040
-0.4142135623730911
1040
64.61721133955132
1040
24.95000037419784
1040
0.0
1040
61.6422113395513
1040
24.95000037419784
1040
0.4142135623731526
1040
61.1172113395512
1040
24.42500037419785
1040
0.0
1040
61.1172113395512
1040
22.67500037419783
1040
0.4142135623730891
1040
61.64221133955118
1040
22.15000037419784
1040
0.0
1040
65.14221133955129
1040
22.15000037419784
1040
0.4142135623730925
1040
67.94221133955125
1040
24.95000037419782
1040
0.0
1040
67.94221133955125
1040
26.76520239955309
1040
0.1989123673796675
1040
66.71205982053471
1040
29.73505088053675
1040
0.0
1040
63.80226184589014
1040
32.64484885518127
1040
-0.1989123673796652
1040
63.39221133955129
1040
33.63479834884243
1040
0.0
1071
        0
1071
        7
1070
     1
1070
     1
1071
       16
1040
72.84221133955123
1040
37.72500037419784
1040
0.414213562373103
1040
72.31721133955125
1040
38.25000037419785
1040
0.0
1040
70.56721133955125
1040
38.25000037419785
1040
0.4142135623730871
1040
70.04221133955127
1040
37.72500037419786
1040
0.0
1040
70.04221133955127
1040
24.95000037419782
1040
0.4142135623730926
1040
72.84221133955123
1040
22.15000037419784
1040
0.0
1040
76.34221133955122
1040
22.15000037419784
1040
0.4142135623731044
1040
79.1422113395513
1040
24.95000037419782
1040
0.0
1040
79.1422113395513
1040
37.72500037419785
1040
0.4142135623730951
1040
78.61721133955132
1040
38.25000037419785
1040
0.0
1040
76.86721133955121
1040
38.25000037419785
1040
0.4142135623730871
1040
76.34221133955122
1040
37.72500037419786
1040
0.0
1040
76.34221133955122
1040
26.00000037419782
1040
-0.414213562373088
1040
75.29221133955127
1040
24.95000037419784
1040
0.0
1040
73.89221133955129
1040
24.95000037419784
1040
-0.4142135623731197
1040
72.84221133955123
1040
26.00000037419782
1040
0.0
1071
        0
1071
        7
1070
     1
1070
     1
1071
        8
1040
84.04221133955127
1040
37.72500037419786
1040
0.4142135623730871
1040
83.51721133955129
1040
38.25000037419785
1040
0.0
1040
81.7672113395513
1040
38.25000037419785
1040
0.4142135623731507
1040
81.24221133955121
1040
37.72500037419786
1040
0.0
1040
81.24221133955121
1040
22.67500037419783
1040
0.4142135623730891
1040
81.76721133955117
1040
22.15000037419784
1040
0.0
1040
83.51721133955129
1040
22.15000037419784
1040
0.4142135623730891
1040
84.04221133955127
1040
22.67500037419783
1040
0.0
1071
        0
1070
     0
1070
     1
1040
0.0
1040
0.2
1070
     0
1070
     2
1040
0.7853981633974483
1040
-885.9423051499089
1040
1.800000374197907
1040
-0.4490128060534576
1040
0.4490128060534577
1070
     0
1040
2.356194490192344
1040
-885.9423051499089
1040
1.800000374197907
1040
-0.4490128060534577
1040
-0.4490128060534576
1070
     0
1040
0.057451373970553
1071
        8
1040
31.07985414779341
1040
30.16717402008339
1040
0.0
1040
37.40451419120927
1040
33.84406255664885
1040
0.0
1040
40.16436707042976
1040
30.51188202026856
1040
0.0
1040
45.91405916640724
1040
31.20129802063934
1040
0.0
1040
56.83847120372684
1040
31.66091028818096
1040
0.0
1040
61.89820007989965
1040
34.41857669060505
1040
0.0
1040
71.55768515717046
1040
33.72915828929285
1040
0.0
1040
82.82707880439284
1040
34.18877055683447
1040
0.0
1002
}
  0
ARC
  5
781
330
1A
100
AcDbEntity
  8
ZUWAKU
100
AcDbCircle
 10
30.4922113395512
 20
33.63479834884254
 30
0.0
 40
4.199999999999999
100
AcDbArc
 50
180.0
 51
225.0
  0
LINE
  5
782
330
1A
100
AcDbEntity
  8
ZUWAKU
100
AcDbLine
 10
35.7422113395512
 20
26.35000037419785
 30
0.0
 11
35.7422113395512
 21
34.0500003741978
 31
0.0
  0
LINE
  5
783
330
1A
100
AcDbEntity
  8
ZUWAKU
100
AcDbLine
 10
38.54221133955127
 20
34.05000037419784
 30
0.0
 11
38.54221133955127
 21
26.35000037419785
 31
0.0
  0
ARC
  5
784
330
1A
100
AcDbEntity
  8
ZUWAKU
100
AcDbCircle
 10
30.4922113395512
 20
33.63479834884254
 30
0.0
 40
1.399999999999999
100
AcDbArc
 50
180.0000000000016
 51
224.9999999999988
  0
ARC
  5
785
330
1A
100
AcDbEntity
  8
ZUWAKU
100
AcDbCircle
 10
39.94221133955125
 20
26.35000037419785
 30
0.0
 40
4.199999999999999
100
AcDbArc
 50
180.0
 51
270.0
  0
ARC
  5
786
330
1A
100
AcDbEntity
  8
ZUWAKU
100
AcDbCircle
 10
30.84221133955123
 20
24.95000037419784
 30
0.0
 40
2.799999999999999
100
AcDbArc
 50
270.0
 51
0.0
  0
ARC
  5
787
330
1A
100
AcDbEntity
  8
ZUWAKU
100
AcDbCircle
 10
29.44221133955125
 20
26.76520239955315
 30
0.0
 40
4.199999999999999
100
AcDbArc
 50
0.0
 51
45.0
  0
LINE
  5
788
330
1A
100
AcDbEntity
  8
ZUWAKU
100
AcDbLine
 10
27.52236285856771
 20
30.66494986785902
 30
0.0
 11
30.43216083321238
 21
27.75515189321436
 31
0.0
  0
LINE
  5
789
330
1A
100
AcDbEntity
  8
ZUWAKU
100
AcDbLine
 10
27.34221133955123
 20
24.95000037419784
 30
0.0
 11
30.31721133955125
 21
24.95000037419784
 31
0.0
  0
LINE
  5
78A
330
1A
100
AcDbEntity
  8
ZUWAKU
100
AcDbLine
 10
27.34221133955123
 20
22.15000037419784
 30
0.0
 11
30.84221133955123
 21
22.15000037419784
 31
0.0
  0
ARC
  5
78B
330
1A
100
AcDbEntity
  8
ZUWAKU
100
AcDbCircle
 10
27.34221133955123
 20
24.42500037419784
 30
0.0
 40
0.525
100
AcDbArc
 50
90.0
 51
180.0
  0
ARC
  5
78C
330
1A
100
AcDbEntity
  8
ZUWAKU
100
AcDbCircle
 10
27.34221133955123
 20
22.67500037419784
 30
0.0
 40
0.525
100
AcDbArc
 50
180.0
 51
270.0
  0
LINE
  5
78D
330
1A
100
AcDbEntity
  8
ZUWAKU
100
AcDbLine
 10
26.81721133955125
 20
22.67500037419784
 30
0.0
 11
26.81721133955125
 21
24.42500037419784
 31
0.0
  0
ARC
  5
78E
330
1A
100
AcDbEntity
  8
ZUWAKU
100
AcDbCircle
 10
29.44221133955125
 20
26.76520239955319
 30
0.0
 40
1.399999999999999
100
AcDbArc
 50
0.0
 51
45.0
  0
ARC
  5
78F
330
1A
100
AcDbEntity
  8
ZUWAKU
100
AcDbCircle
 10
30.31721133955125
 20
25.47500037419785
 30
0.0
 40
0.525
100
AcDbArc
 50
270.0
 51
0.0
  0
LINE
  5
790
330
1A
100
AcDbEntity
  8
ZUWAKU
100
AcDbLine
 10
30.84221133955123
 20
25.47500037419785
 30
0.0
 11
30.84221133955123
 21
26.76520239955319
 31
0.0
  0
LINE
  5
791
330
1A
100
AcDbEntity
  8
ZUWAKU
100
AcDbLine
 10
32.41205982053475
 20
29.73505088053667
 30
0.0
 11
29.50226184589008
 21
32.64484885518135
 31
0.0
  0
ARC
  5
792
330
1A
100
AcDbEntity
  8
ZUWAKU
100
AcDbCircle
 10
39.94221133955125
 20
26.35000037419785
 30
0.0
 40
1.399999999999999
100
AcDbArc
 50
180.0
 51
270.0
  0
LINE
  5
793
330
1A
100
AcDbEntity
  8
ZUWAKU
100
AcDbLine
 10
33.6422113395513
 20
24.95000037419784
 30
0.0
 11
33.6422113395513
 21
26.76520239955319
 31
0.0
  0
ARC
  5
794
330
1A
100
AcDbEntity
  8
ZUWAKU
100
AcDbCircle
 10
32.59221133955123
 20
35.97500037419784
 30
0.0
 40
0.525
100
AcDbArc
 50
270.0
 51
0.0
  0
ARC
  5
795
330
1A
100
AcDbEntity
  8
ZUWAKU
100
AcDbCircle
 10
32.59221133955123
 20
37.72500037419784
 30
0.0
 40
0.525
100
AcDbArc
 50
0.0
 51
90.0
  0
ARC
  5
796
330
1A
100
AcDbEntity
  8
ZUWAKU
100
AcDbCircle
 10
29.09221133955123
 20
35.45000037419784
 30
0.0
 40
2.799999999999999
100
AcDbArc
 50
90.0
 51
180.0
  0
LINE
  5
797
330
1A
100
AcDbEntity
  8
ZUWAKU
100
AcDbLine
 10
26.29221133955127
 20
35.45000037419784
 30
0.0
 11
26.29221133955127
 21
33.6347983488425
 31
0.0
  0
LINE
  5
798
330
1A
100
AcDbEntity
  8
ZUWAKU
100
AcDbLine
 10
32.59221133955123
 20
35.45000037419784
 30
0.0
 11
29.61721133955121
 21
35.45000037419784
 31
0.0
  0
LINE
  5
799
330
1A
100
AcDbEntity
  8
ZUWAKU
100
AcDbLine
 10
29.09221133955123
 20
34.92500037419784
 30
0.0
 11
29.09221133955123
 21
33.6347983488425
 31
0.0
  0
ARC
  5
79A
330
1A
100
AcDbEntity
  8
ZUWAKU
100
AcDbCircle
 10
29.61721133955121
 20
34.92500037419784
 30
0.0
 40
0.525
100
AcDbArc
 50
90.0
 51
180.0
  0
LINE
  5
79B
330
1A
100
AcDbEntity
  8
ZUWAKU
100
AcDbLine
 10
29.09221133955123
 20
38.25000037419785
 30
0.0
 11
32.59221133955123
 21
38.25000037419785
 31
0.0
  0
ARC
  5
79C
330
1A
100
AcDbEntity
  8
ZUWAKU
100
AcDbCircle
 10
39.94221133955125
 20
34.0500003741978
 30
0.0
 40
4.199999999999999
100
AcDbArc
 50
90.0
 51
180.0
  0
ARC
  5
79D
330
1A
100
AcDbEntity
  8
ZUWAKU
100
AcDbCircle
 10
39.94221133955125
 20
34.05000037419784
 30
0.0
 40
1.399999999999999
100
AcDbArc
 50
90.0
 51
180.0
  0
LINE
  5
79E
330
1A
100
AcDbEntity
  8
ZUWAKU
100
AcDbLine
 10
33.11721133955121
 20
37.72500037419784
 30
0.0
 11
33.11721133955121
 21
35.97500037419784
 31
0.0
  0
LINE
  5
79F
330
1A
100
AcDbEntity
  8
ZUWAKU
100
AcDbLine
 10
50.67634627686709
 20
37.88309434236481
 30
0.0
 11
48.80807640223531
 21
31.96690640603087
 31
0.0
  0
LINE
  5
7A0
330
1A
100
AcDbEntity
  8
ZUWAKU
100
AcDbLine
 10
44.84221133955123
 20
37.72500037419784
 30
0.0
 11
44.84221133955123
 21
22.67500037419784
 31
0.0
  0
LINE
  5
7A1
330
1A
100
AcDbEntity
  8
ZUWAKU
100
AcDbLine
 10
47.64221133955129
 20
32.12500037419785
 30
0.0
 11
47.64221133955129
 21
37.72500037419784
 31
0.0
  0
LINE
  5
7A2
330
1A
100
AcDbEntity
  8
ZUWAKU
100
AcDbLine
 10
72.84221133955123
 20
26.00000037419784
 30
0.0
 11
72.84221133955123
 21
37.72500037419784
 31
0.0
  0
LINE
  5
7A3
330
1A
100
AcDbEntity
  8
ZUWAKU
100
AcDbLine
 10
70.04221133955127
 20
37.72500037419784
 30
0.0
 11
70.04221133955127
 21
24.95000037419784
 31
0.0
  0
LINE
  5
7A4
330
1A
100
AcDbEntity
  8
ZUWAKU
100
AcDbLine
 10
58.4922113395512
 20
22.67500037419784
 30
0.0
 11
58.4922113395512
 21
37.72500037419784
 31
0.0
  0
LINE
  5
7A5
330
1A
100
AcDbEntity
  8
ZUWAKU
100
AcDbLine
 10
55.69221133955124
 20
37.72500037419784
 30
0.0
 11
55.69221133955124
 21
22.67500037419784
 31
0.0
  0
LINE
  5
7A6
330
1A
100
AcDbEntity
  8
ZUWAKU
100
AcDbLine
 10
52.31485782172922
 20
34.20504756776127
 30
0.0
 11
51.05010607639338
 21
30.20000037419786
 31
0.0
  0
ARC
  5
7A7
330
1A
100
AcDbEntity
  8
ZUWAKU
100
AcDbCircle
 10
64.79221133955127
 20
33.63479834884254
 30
0.0
 40
4.199999999999999
100
AcDbArc
 50
180.0
 51
225.0
  0
ARC
  5
7A8
330
1A
100
AcDbEntity
  8
ZUWAKU
100
AcDbCircle
 10
64.79221133955127
 20
33.63479834884254
 30
0.0
 40
1.399999999999999
100
AcDbArc
 50
180.0000000000016
 51
224.9999999999988
  0
LINE
  5
7A9
330
1A
100
AcDbEntity
  8
ZUWAKU
100
AcDbLine
 10
81.24221133955121
 20
37.72500037419784
 30
0.0
 11
81.24221133955121
 21
22.67500037419784
 31
0.0
  0
LINE
  5
7AA
330
1A
100
AcDbEntity
  8
ZUWAKU
100
AcDbLine
 10
84.04221133955127
 20
22.67500037419784
 30
0.0
 11
84.04221133955127
 21
37.72500037419784
 31
0.0
  0
LINE
  5
7AB
330
1A
100
AcDbEntity
  8
ZUWAKU
100
AcDbLine
 10
76.34221133955122
 20
37.72500037419784
 30
0.0
 11
76.34221133955122
 21
26.00000037419784
 31
0.0
  0
LINE
  5
7AC
330
1A
100
AcDbEntity
  8
ZUWAKU
100
AcDbLine
 10
79.1422113395513
 20
24.95000037419784
 30
0.0
 11
79.1422113395513
 21
37.72500037419784
 31
0.0
  0
LINE
  5
7AD
330
1A
100
AcDbEntity
  8
ZUWAKU
100
AcDbLine
 10
94.12662873275849
 20
45.00000037419783
 30
0.0
 11
94.12662873275849
 21
15.80000037419791
 31
0.0
  0
LINE
  5
7AE
330
1A
100
AcDbEntity
  8
ZUWAKU
100
AcDbLine
 10
94.52662873275835
 20
45.00000037419783
 30
0.0
 11
94.52662873275858
 21
15.80000037419791
 31
0.0
  0
LINE
  5
7AF
330
1A
100
AcDbEntity
  8
ZUWAKU
100
AcDbLine
 10
94.3266287327583
 20
45.00000037419783
 30
0.0
 11
94.32662873275853
 21
15.80000037419791
 31
0.0
  0
LINE
  5
7B0
330
1A
100
AcDbEntity
  8
ZUWAKU
100
AcDbLine
 10
72.84221133955123
 20
22.15000037419784
 30
0.0
 11
76.34221133955122
 21
22.15000037419784
 31
0.0
  0
LINE
  5
7B1
330
1A
100
AcDbEntity
  8
ZUWAKU
100
AcDbLine
 10
75.29221133955127
 20
24.95000037419784
 30
0.0
 11
73.89221133955129
 21
24.95000037419784
 31
0.0
  0
LINE
  5
7B2
330
1A
100
AcDbEntity
  8
ZUWAKU
100
AcDbLine
 10
56.21721133955123
 20
22.15000037419784
 30
0.0
 11
57.96721133955123
 21
22.15000037419784
 31
0.0
  0
LINE
  5
7B3
330
1A
100
AcDbEntity
  8
ZUWAKU
100
AcDbLine
 10
50.67634627686709
 20
22.51690640603087
 30
0.0
 11
48.80807640223531
 21
28.43309434236481
 31
0.0
  0
ARC
  5
7B4
330
1A
100
AcDbEntity
  8
ZUWAKU
100
AcDbCircle
 10
48.16721133955127
 20
28.27500037419785
 30
0.0
 40
0.525
100
AcDbArc
 50
90.0
 51
180.0
  0
ARC
  5
7B5
330
1A
100
AcDbEntity
  8
ZUWAKU
100
AcDbCircle
 10
48.30744550303996
 20
28.27500037419785
 30
0.0
 40
0.525
100
AcDbArc
 50
17.52556837372303
 51
90.0
  0
ARC
  5
7B6
330
1A
100
AcDbEntity
  8
ZUWAKU
100
AcDbCircle
 10
45.3672113395512
 20
22.67500037419784
 30
0.0
 40
0.525
100
AcDbArc
 50
180.0
 51
270.0
  0
ARC
  5
7B7
330
1A
100
AcDbEntity
  8
ZUWAKU
100
AcDbCircle
 10
41.8672113395512
 20
24.42500037419784
 30
0.0
 40
0.525
100
AcDbArc
 50
0.0
 51
90.0
  0
ARC
  5
7B8
330
1A
100
AcDbEntity
  8
ZUWAKU
100
AcDbCircle
 10
41.8672113395512
 20
22.67500037419784
 30
0.0
 40
0.525
100
AcDbArc
 50
270.0
 51
0.0
  0
LINE
  5
7B9
330
1A
100
AcDbEntity
  8
ZUWAKU
100
AcDbLine
 10
42.39221133955129
 20
24.42500037419784
 30
0.0
 11
42.39221133955129
 21
22.67500037419784
 31
0.0
  0
LINE
  5
7BA
330
1A
100
AcDbEntity
  8
ZUWAKU
100
AcDbLine
 10
47.64221133955129
 20
22.67500037419784
 30
0.0
 11
47.64221133955129
 21
28.27500037419785
 31
0.0
  0
ARC
  5
7BB
330
1A
100
AcDbEntity
  8
ZUWAKU
100
AcDbCircle
 10
47.1172113395512
 20
22.67500037419784
 30
0.0
 40
0.525
100
AcDbArc
 50
270.0
 51
0.0
  0
LINE
  5
7BC
330
1A
100
AcDbEntity
  8
ZUWAKU
100
AcDbLine
 10
45.3672113395512
 20
22.15000037419784
 30
0.0
 11
47.1172113395512
 21
22.15000037419784
 31
0.0
  0
ARC
  5
7BD
330
1A
100
AcDbEntity
  8
ZUWAKU
100
AcDbCircle
 10
48.16721133955127
 20
32.12500037419785
 30
0.0
 40
0.525
100
AcDbArc
 50
180.0
 51
270.0
  0
LINE
  5
7BE
330
1A
100
AcDbEntity
  8
ZUWAKU
100
AcDbLine
 10
48.16721133955127
 20
28.80000037419785
 30
0.0
 11
48.30744550303996
 21
28.80000037419785
 31
0.0
  0
LINE
  5
7BF
330
1A
100
AcDbEntity
  8
ZUWAKU
100
AcDbLine
 10
48.30744550303996
 20
31.60000037419784
 30
0.0
 11
48.16721133955127
 21
31.60000037419784
 31
0.0
  0
ARC
  5
7C0
330
1A
100
AcDbEntity
  8
ZUWAKU
100
AcDbCircle
 10
48.30744550303996
 20
32.12500037419785
 30
0.0
 40
0.525
100
AcDbArc
 50
270.0
 51
342.474431626277
  0
ARC
  5
7C1
330
1A
100
AcDbEntity
  8
ZUWAKU
100
AcDbCircle
 10
51.17697717606256
 20
22.67500037419784
 30
0.0
 40
0.525
100
AcDbArc
 50
197.525568373723
 51
270.0
  0
LINE
  5
7C2
330
1A
100
AcDbEntity
  8
ZUWAKU
100
AcDbLine
 10
53.37649745486704
 20
22.83309434236482
 30
0.0
 11
51.05010607639338
 21
30.20000037419786
 31
0.0
  0
ARC
  5
7C3
330
1A
100
AcDbEntity
  8
ZUWAKU
100
AcDbCircle
 10
52.87586655567157
 20
22.67500037419784
 30
0.0
 40
0.525
100
AcDbArc
 50
270.0
 51
17.52556837372303
  0
LINE
  5
7C4
330
1A
100
AcDbEntity
  8
ZUWAKU
100
AcDbLine
 10
51.17697717606256
 20
22.15000037419784
 30
0.0
 11
52.87586655567157
 21
22.15000037419784
 31
0.0
  0
ARC
  5
7C5
330
1A
100
AcDbEntity
  8
ZUWAKU
100
AcDbCircle
 10
56.21721133955123
 20
22.67500037419784
 30
0.0
 40
0.525
100
AcDbArc
 50
180.0
 51
270.0
  0
ARC
  5
7C6
330
1A
100
AcDbEntity
  8
ZUWAKU
100
AcDbCircle
 10
65.14221133955129
 20
24.95000037419784
 30
0.0
 40
2.799999999999999
100
AcDbArc
 50
270.0
 51
0.0
  0
ARC
  5
7C7
330
1A
100
AcDbEntity
  8
ZUWAKU
100
AcDbCircle
 10
72.84221133955123
 20
24.95000037419784
 30
0.0
 40
2.799999999999999
100
AcDbArc
 50
180.0
 51
270.0
  0
LINE
  5
7C8
330
1A
100
AcDbEntity
  8
ZUWAKU
100
AcDbLine
 10
66.71205982053482
 20
29.73505088053667
 30
0.0
 11
63.80226184589003
 21
32.64484885518135
 31
0.0
  0
LINE
  5
7C9
330
1A
100
AcDbEntity
  8
ZUWAKU
100
AcDbLine
 10
61.82236285856777
 20
30.66494986785902
 30
0.0
 11
64.73216083321244
 21
27.75515189321436
 31
0.0
  0
LINE
  5
7CA
330
1A
100
AcDbEntity
  8
ZUWAKU
100
AcDbLine
 10
61.6422113395513
 20
22.15000037419784
 30
0.0
 11
65.14221133955129
 21
22.15000037419784
 31
0.0
  0
LINE
  5
7CB
330
1A
100
AcDbEntity
  8
ZUWAKU
100
AcDbLine
 10
61.6422113395513
 20
24.95000037419784
 30
0.0
 11
64.6172113395512
 21
24.95000037419784
 31
0.0
  0
ARC
  5
7CC
330
1A
100
AcDbEntity
  8
ZUWAKU
100
AcDbCircle
 10
61.6422113395513
 20
24.42500037419784
 30
0.0
 40
0.525
100
AcDbArc
 50
90.0
 51
180.0
  0
ARC
  5
7CD
330
1A
100
AcDbEntity
  8
ZUWAKU
100
AcDbCircle
 10
57.96721133955123
 20
22.67500037419784
 30
0.0
 40
0.525
100
AcDbArc
 50
270.0
 51
0.0
  0
ARC
  5
7CE
330
1A
100
AcDbEntity
  8
ZUWAKU
100
AcDbCircle
 10
61.6422113395513
 20
22.67500037419784
 30
0.0
 40
0.525
100
AcDbArc
 50
180.0
 51
270.0
  0
LINE
  5
7CF
330
1A
100
AcDbEntity
  8
ZUWAKU
100
AcDbLine
 10
61.1172113395512
 20
22.67500037419784
 30
0.0
 11
61.1172113395512
 21
24.42500037419784
 31
0.0
  0
ARC
  5
7D0
330
1A
100
AcDbEntity
  8
ZUWAKU
100
AcDbCircle
 10
64.6172113395512
 20
25.47500037419785
 30
0.0
 40
0.525
100
AcDbArc
 50
270.0
 51
0.0
  0
ARC
  5
7D1
330
1A
100
AcDbEntity
  8
ZUWAKU
100
AcDbCircle
 10
63.74221133955121
 20
26.76520239955319
 30
0.0
 40
1.399999999999999
100
AcDbArc
 50
0.0
 51
45.0
  0
LINE
  5
7D2
330
1A
100
AcDbEntity
  8
ZUWAKU
100
AcDbLine
 10
65.14221133955129
 20
25.47500037419785
 30
0.0
 11
65.14221133955129
 21
26.76520239955319
 31
0.0
  0
ARC
  5
7D3
330
1A
100
AcDbEntity
  8
ZUWAKU
100
AcDbCircle
 10
73.89221133955129
 20
26.00000037419784
 30
0.0
 40
1.049999999999999
100
AcDbArc
 50
180.0
 51
270.0
  0
ARC
  5
7D4
330
1A
100
AcDbEntity
  8
ZUWAKU
100
AcDbCircle
 10
63.74221133955121
 20
26.76520239955315
 30
0.0
 40
4.199999999999999
100
AcDbArc
 50
0.0
 51
45.0
  0
LINE
  5
7D5
330
1A
100
AcDbEntity
  8
ZUWAKU
100
AcDbLine
 10
67.94221133955125
 20
24.95000037419784
 30
0.0
 11
67.94221133955125
 21
26.76520239955319
 31
0.0
  0
ARC
  5
7D6
330
1A
100
AcDbEntity
  8
ZUWAKU
100
AcDbCircle
 10
76.34221133955122
 20
24.95000037419784
 30
0.0
 40
2.799999999999999
100
AcDbArc
 50
270.0
 51
0.0
  0
LINE
  5
7D7
330
1A
100
AcDbEntity
  8
ZUWAKU
100
AcDbLine
 10
81.7672113395513
 20
22.15000037419784
 30
0.0
 11
83.51721133955129
 21
22.15000037419784
 31
0.0
  0
ARC
  5
7D8
330
1A
100
AcDbEntity
  8
ZUWAKU
100
AcDbCircle
 10
75.29221133955127
 20
26.00000037419784
 30
0.0
 40
1.049999999999999
100
AcDbArc
 50
270.0
 51
0.0
  0
ARC
  5
7D9
330
1A
100
AcDbEntity
  8
ZUWAKU
100
AcDbCircle
 10
81.7672113395513
 20
22.67500037419784
 30
0.0
 40
0.525
100
AcDbArc
 50
180.0
 51
270.0
  0
ARC
  5
7DA
330
1A
100
AcDbEntity
  8
ZUWAKU
100
AcDbCircle
 10
83.51721133955129
 20
22.67500037419784
 30
0.0
 40
0.525
100
AcDbArc
 50
270.0
 51
0.0
  0
LINE
  5
7DB
330
1A
100
AcDbEntity
  8
ZUWAKU
100
AcDbLine
 10
57.96721133955123
 20
38.25000037419785
 30
0.0
 11
56.21721133955123
 21
38.25000037419785
 31
0.0
  0
LINE
  5
7DC
330
1A
100
AcDbEntity
  8
ZUWAKU
100
AcDbLine
 10
42.39221133955129
 20
37.72500037419784
 30
0.0
 11
42.39221133955129
 21
35.97500037419784
 31
0.0
  0
ARC
  5
7DD
330
1A
100
AcDbEntity
  8
ZUWAKU
100
AcDbCircle
 10
41.8672113395512
 20
35.97500037419784
 30
0.0
 40
0.525
100
AcDbArc
 50
270.0
 51
0.0
  0
ARC
  5
7DE
330
1A
100
AcDbEntity
  8
ZUWAKU
100
AcDbCircle
 10
45.3672113395512
 20
37.72500037419784
 30
0.0
 40
0.525
100
AcDbArc
 50
90.0
 51
180.0
  0
ARC
  5
7DF
330
1A
100
AcDbEntity
  8
ZUWAKU
100
AcDbCircle
 10
41.8672113395512
 20
37.72500037419784
 30
0.0
 40
0.525
100
AcDbArc
 50
0.0
 51
90.0
  0
LINE
  5
7E0
330
1A
100
AcDbEntity
  8
ZUWAKU
100
AcDbLine
 10
47.1172113395512
 20
38.25000037419785
 30
0.0
 11
45.3672113395512
 21
38.25000037419785
 31
0.0
  0
ARC
  5
7E1
330
1A
100
AcDbEntity
  8
ZUWAKU
100
AcDbCircle
 10
47.1172113395512
 20
37.72500037419784
 30
0.0
 40
0.525
100
AcDbArc
 50
0.0
 51
90.0
  0
ARC
  5
7E2
330
1A
100
AcDbEntity
  8
ZUWAKU
100
AcDbCircle
 10
51.17697717606256
 20
37.72500037419784
 30
0.0
 40
0.525
100
AcDbArc
 50
90.0
 51
162.474431626277
  0
LINE
  5
7E3
330
1A
100
AcDbEntity
  8
ZUWAKU
100
AcDbLine
 10
53.37649745486704
 20
37.56690640603088
 30
0.0
 11
52.31485782172922
 21
34.20504756776127
 31
0.0
  0
ARC
  5
7E4
330
1A
100
AcDbEntity
  8
ZUWAKU
100
AcDbCircle
 10
52.87586655567157
 20
37.72500037419784
 30
0.0
 40
0.525
100
AcDbArc
 50
342.474431626277
 51
90.0
  0
LINE
  5
7E5
330
1A
100
AcDbEntity
  8
ZUWAKU
100
AcDbLine
 10
51.17697717606256
 20
38.25000037419785
 30
0.0
 11
52.87586655567157
 21
38.25000037419785
 31
0.0
  0
ARC
  5
7E6
330
1A
100
AcDbEntity
  8
ZUWAKU
100
AcDbCircle
 10
56.21721133955123
 20
37.72500037419784
 30
0.0
 40
0.525
100
AcDbArc
 50
90.0
 51
180.0
  0
LINE
  5
7E7
330
1A
100
AcDbEntity
  8
ZUWAKU
100
AcDbLine
 10
66.89221133955129
 20
35.45000037419784
 30
0.0
 11
63.91721133955127
 21
35.45000037419784
 31
0.0
  0
LINE
  5
7E8
330
1A
100
AcDbEntity
  8
ZUWAKU
100
AcDbLine
 10
63.39221133955129
 20
38.25000037419785
 30
0.0
 11
66.89221133955129
 21
38.25000037419785
 31
0.0
  0
ARC
  5
7E9
330
1A
100
AcDbEntity
  8
ZUWAKU
100
AcDbCircle
 10
63.39221133955129
 20
35.45000037419784
 30
0.0
 40
2.799999999999999
100
AcDbArc
 50
90.0
 51
180.0
  0
LINE
  5
7EA
330
1A
100
AcDbEntity
  8
ZUWAKU
100
AcDbLine
 10
60.59221133955123
 20
35.45000037419784
 30
0.0
 11
60.59221133955123
 21
33.6347983488425
 31
0.0
  0
ARC
  5
7EB
330
1A
100
AcDbEntity
  8
ZUWAKU
100
AcDbCircle
 10
57.96721133955123
 20
37.72500037419784
 30
0.0
 40
0.525
100
AcDbArc
 50
0.0
 51
90.0
  0
LINE
  5
7EC
330
1A
100
AcDbEntity
  8
ZUWAKU
100
AcDbLine
 10
63.39221133955129
 20
34.92500037419784
 30
0.0
 11
63.39221133955129
 21
33.6347983488425
 31
0.0
  0
ARC
  5
7ED
330
1A
100
AcDbEntity
  8
ZUWAKU
100
AcDbCircle
 10
63.91721133955127
 20
34.92500037419784
 30
0.0
 40
0.525
100
AcDbArc
 50
90.0
 51
180.0
  0
LINE
  5
7EE
330
1A
100
AcDbEntity
  8
ZUWAKU
100
AcDbLine
 10
67.41721133955127
 20
37.72500037419784
 30
0.0
 11
67.41721133955127
 21
35.97500037419784
 31
0.0
  0
ARC
  5
7EF
330
1A
100
AcDbEntity
  8
ZUWAKU
100
AcDbCircle
 10
66.89221133955129
 20
35.97500037419784
 30
0.0
 40
0.525
100
AcDbArc
 50
270.0
 51
0.0
  0
ARC
  5
7F0
330
1A
100
AcDbEntity
  8
ZUWAKU
100
AcDbCircle
 10
66.89221133955129
 20
37.72500037419784
 30
0.0
 40
0.525
100
AcDbArc
 50
0.0
 51
90.0
  0
LINE
  5
7F1
330
1A
100
AcDbEntity
  8
ZUWAKU
100
AcDbLine
 10
72.31721133955125
 20
38.25000037419785
 30
0.0
 11
70.56721133955125
 21
38.25000037419785
 31
0.0
  0
ARC
  5
7F2
330
1A
100
AcDbEntity
  8
ZUWAKU
100
AcDbCircle
 10
70.56721133955125
 20
37.72500037419784
 30
0.0
 40
0.525
100
AcDbArc
 50
90.0
 51
180.0
  0
ARC
  5
7F3
330
1A
100
AcDbEntity
  8
ZUWAKU
100
AcDbCircle
 10
72.31721133955125
 20
37.72500037419784
 30
0.0
 40
0.525
100
AcDbArc
 50
0.0
 51
90.0
  0
LINE
  5
7F4
330
1A
100
AcDbEntity
  8
ZUWAKU
100
AcDbLine
 10
83.51721133955129
 20
38.25000037419785
 30
0.0
 11
81.7672113395513
 21
38.25000037419785
 31
0.0
  0
ARC
  5
7F5
330
1A
100
AcDbEntity
  8
ZUWAKU
100
AcDbCircle
 10
76.86721133955121
 20
37.72500037419784
 30
0.0
 40
0.525
100
AcDbArc
 50
90.0
 51
180.0
  0
LINE
  5
7F6
330
1A
100
AcDbEntity
  8
ZUWAKU
100
AcDbLine
 10
78.6172113395512
 20
38.25000037419785
 30
0.0
 11
76.86721133955121
 21
38.25000037419785
 31
0.0
  0
ARC
  5
7F7
330
1A
100
AcDbEntity
  8
ZUWAKU
100
AcDbCircle
 10
78.6172113395512
 20
37.72500037419784
 30
0.0
 40
0.525
100
AcDbArc
 50
0.0
 51
90.0
  0
ARC
  5
7F8
330
1A
100
AcDbEntity
  8
ZUWAKU
100
AcDbCircle
 10
81.7672113395513
 20
37.72500037419784
 30
0.0
 40
0.525
100
AcDbArc
 50
90.0
 51
180.0
  0
ARC
  5
7F9
330
1A
100
AcDbEntity
  8
ZUWAKU
100
AcDbCircle
 10
83.51721133955129
 20
37.72500037419784
 30
0.0
 40
0.525
100
AcDbArc
 50
0.0
 51
90.0
  0
TEXT
  5
7FA
330
1A
100
AcDbEntity
  8
moji
100
AcDbText
 10
254.8272018656212
 20
33.00492143160523
 30
0.0
 40
5.599999999999999
  1
伸縮ジョイント（高排水用）
 41
0.9
  7
MSPｺﾞｼｯｸ
100
AcDbText
  0
LINE
  5
7FB
330
1A
100
AcDbEntity
  8
ZUWAKU
100
AcDbLine
 10
223.4466004748378
 20
45.00000037419783
 30
0.0
 11
223.4466004748381
 21
15.80000037419791
 31
0.0
  0
LINE
  5
7FC
330
1A
100
AcDbEntity
  8
ZUWAKU
100
AcDbLine
 10
223.6466004748379
 20
45.00000037419783
 30
0.0
 11
223.6466004748381
 21
15.80000037419791
 31
0.0
  0
LINE
  5
7FD
330
1A
100
AcDbEntity
  8
ZUWAKU
100
AcDbLine
 10
223.246600474838
 20
45.00000037419783
 30
0.0
 11
223.246600474838
 21
15.80000037419791
 31
0.0
  0
TEXT
  5
7FE
330
1A
100
AcDbEntity
  8
ZUWAKU
100
AcDbText
 10
224.7240454970476
 20
24.65535691258346
 30
0.0
 40
4.0
  1
サイズ
 41
0.9
  7
MSPｺﾞｼｯｸ
100
AcDbText
  0
TEXT
  5
800
330
1A
100
AcDbEntity
  8
ZUWAKU
100
AcDbText
 10
224.7240454970474
 20
39.05535691258342
 30
0.0
 40
4.0
  1
品名
 41
0.9
  7
MSPｺﾞｼｯｸ
100
AcDbText
  0
TEXT
  5
801
330
1A
100
AcDbEntity
  8
ZUWAKU
100
AcDbText
 10
673.2039368720725
 20
33.00492143160523
 30
0.0
 40
5.599999999999999
  1
　　．　　．　　
 41
0.9
  7
MSPｺﾞｼｯｸ
100
AcDbText
  0
LINE
  5
802
330
1A
100
AcDbEntity
  8
ZUWAKU
100
AcDbLine
 10
663.8172016949742
 20
30.60000037419787
 30
0.0
 11
712.2490097333114
 21
30.60000037419787
 31
0.0
  0
LINE
  5
803
330
1A
100
AcDbEntity
  8
ZUWAKU
100
AcDbLine
 10
663.8172016949745
 20
30.40000037419788
 30
0.0
 11
712.2490097333114
 21
30.40000037419787
 31
0.0
  0
LINE
  5
804
330
1A
100
AcDbEntity
  8
ZUWAKU
100
AcDbLine
 10
663.8172016949742
 20
30.20000037419787
 30
0.0
 11
712.2490097333114
 21
30.20000037419788
 31
0.0
  0
LINE
  5
805
330
1A
100
AcDbEntity
  8
ZUWAKU
100
AcDbLine
 10
520.1991786829109
 20
30.60000037419787
 30
0.0
 11
567.5269549508825
 21
30.60000037419787
 31
0.0
  0
LINE
  5
806
330
1A
100
AcDbEntity
  8
ZUWAKU
100
AcDbLine
 10
520.1991786829109
 20
30.40000037419787
 30
0.0
 11
567.5269549508825
 21
30.40000037419787
 31
0.0
  0
LINE
  5
807
330
1A
100
AcDbEntity
  8
ZUWAKU
100
AcDbLine
 10
520.1991786829109
 20
30.20000037419788
 30
0.0
 11
567.5269549508825
 21
30.20000037419788
 31
0.0
  0
LINE
  5
808
330
1A
100
AcDbEntity
  8
ZUWAKU
100
AcDbLine
 10
519.7991786829111
 20
45.00000037419783
 30
0.0
 11
519.7991786829111
 21
15.80000037419791
 31
0.0
  0
LINE
  5
809
330
1A
100
AcDbEntity
  8
ZUWAKU
100
AcDbLine
 10
520.1991786829109
 20
45.00000037419783
 30
0.0
 11
520.1991786829112
 21
15.80000037419791
 31
0.0
  0
LINE
  5
80A
330
1A
100
AcDbEntity
  8
ZUWAKU
100
AcDbLine
 10
519.9991786829109
 20
45.00000037419783
 30
0.0
 11
519.9991786829111
 21
15.80000037419791
 31
0.0
  0
TEXT
  5
80B
330
1A
100
AcDbEntity
  8
moji
100
AcDbText
 10
543.040907157083
 20
33.00492143160523
 30
0.0
 40
5.599999999999999
  1
Ａ３
 41
0.9
  7
MSPｺﾞｼｯｸ
100
AcDbText
  0
LINE
  5
80C
330
1A
100
AcDbEntity
  8
ZUWAKU
100
AcDbLine
 10
462.4243631557614
 20
45.00000037419783
 30
0.0
 11
462.4243631557614
 21
15.80000037419791
 31
0.0
  0
LINE
  5
80D
330
1A
100
AcDbEntity
  8
ZUWAKU
100
AcDbLine
 10
462.8243631557613
 20
45.00000037419783
 30
0.0
 11
462.8243631557616
 21
15.80000037419791
 31
0.0
  0
LINE
  5
80E
330
1A
100
AcDbEntity
  8
ZUWAKU
100
AcDbLine
 10
462.6243631557612
 20
45.00000037419783
 30
0.0
 11
462.6243631557615
 21
15.80000037419791
 31
0.0
  0
TEXT
  5
810
330
1A
100
AcDbEntity
  8
ZUWAKU
100
AcDbText
 10
477.6937608402772
 20
17.61407128533733
 30
0.0
 40
3.0
  1
□には色品番が入ります
 41
0.9
  7
MSPｺﾞｼｯｸ
100
AcDbText
  0
TEXT
  5
811
330
1A
100
AcDbEntity
  8
ZUWAKU
100
AcDbText
 10
521.6766237051208
 20
24.65535691258346
 30
0.0
 40
4.0
  1
縮尺
 41
0.9
  7
MSPｺﾞｼｯｸ
100
AcDbText
  0
TEXT
  5
812
330
1A
100
AcDbEntity
  8
moji
100
AcDbText
 10
543.040907157083
 20
18.20492143160526
 30
0.0
 40
5.599999999999999
  1
１/２
 41
0.9
  7
MSPｺﾞｼｯｸ
100
AcDbText
  0
TEXT
  5
813
330
1A
100
AcDbEntity
  8
ZUWAKU
100
AcDbText
 10
464.3018081779709
 20
39.05535691258342
 30
0.0
 40
4.0
  1
品番
 41
0.9
  7
MSPｺﾞｼｯｸ
100
AcDbText
  0
TEXT
  5
814
330
1A
100
AcDbEntity
  8
ZUWAKU
100
AcDbText
 10
521.6766237051206
 20
39.05535691258342
 30
0.0
 40
4.0
  1
用紙
 41
0.9
  7
MSPｺﾞｼｯｸ
100
AcDbText
  0
LINE
  5
815
330
1A
100
AcDbEntity
  8
ZUWAKU
100
AcDbLine
 10
567.5269549508825
 20
45.00000037419783
 30
0.0
 11
567.5269549508825
 21
15.80000037419791
 31
0.0
  0
LINE
  5
816
330
1A
100
AcDbEntity
  8
ZUWAKU
100
AcDbLine
 10
567.9269549508823
 20
45.00000037419783
 30
0.0
 11
567.9269549508826
 21
15.80000037419791
 31
0.0
  0
LINE
  5
817
330
1A
100
AcDbEntity
  8
ZUWAKU
100
AcDbLine
 10
567.7269549508824
 20
45.00000037419783
 30
0.0
 11
567.7269549508825
 21
15.80000037419791
 31
0.0
  0
LINE
  5
818
330
1A
100
AcDbEntity
  8
ZUWAKU
100
AcDbLine
 10
663.4172016949746
 20
45.00000037419783
 30
0.0
 11
663.4172016949746
 21
15.80000037419791
 31
0.0
  0
LINE
  5
819
330
1A
100
AcDbEntity
  8
ZUWAKU
100
AcDbLine
 10
663.8172016949745
 20
45.00000037419783
 30
0.0
 11
663.8172016949747
 21
15.80000037419791
 31
0.0
  0
LINE
  5
81A
330
1A
100
AcDbEntity
  8
ZUWAKU
100
AcDbLine
 10
663.6172016949744
 20
45.00000037419783
 30
0.0
 11
663.6172016949747
 21
15.80000037419791
 31
0.0
  0
TEXT
  5
81B
330
1A
100
AcDbEntity
  8
ZUWAKU
100
AcDbText
 10
665.2946467171841
 20
39.05535691258342
 30
0.0
 40
4.0
  1
DATE
 41
0.9
  7
MSPｺﾞｼｯｸ
100
AcDbText
  0
LINE
  5
81D
330
1A
100
AcDbEntity
  8
ZUWAKU
100
AcDbLine
 10
712.8490097333113
 20
45.00000037419783
 30
0.0
 11
712.8490097333115
 21
15.80000037419791
 31
0.0
  0
LINE
  5
81E
330
1A
100
AcDbEntity
  8
ZUWAKU
100
AcDbLine
 10
712.6490097333112
 20
45.00000037419783
 30
0.0
 11
712.6490097333114
 21
15.80000037419791
 31
0.0
  0
LINE
  5
81F
330
1A
100
AcDbEntity
  8
ZUWAKU
100
AcDbLine
 10
712.4490097333114
 20
45.00000037419783
 30
0.0
 11
712.4490097333114
 21
15.80000037419791
 31
0.0
  0
LINE
  5
820
330
1A
100
AcDbEntity
  8
ZUWAKU
100
AcDbLine
 10
712.2490097333114
 20
45.00000037419783
 30
0.0
 11
712.2490097333114
 21
15.80000037419791
 31
0.0
  0
TEXT
  5
256A
330
1A
100
AcDbEntity
  8
moji
100
AcDbText
 10
255.1446427531778
 20
18.74884737750585
 30
0.0
 40
5.599999999999999
  1
Ｔ１２０
 41
0.9
  7
MSPｺﾞｼｯｸ
100
AcDbText
  0
POINT
  5
317C
330
1A
100
AcDbEntity
  8
SEIHIN
 62
     3
 48
5.0
100
AcDbPoint
 10
1175.591099117038
 20
81.83747118836647
 30
0.0
  0
POINT
  5
3188
330
1A
100
AcDbEntity
  8
SEIHIN
 62
     3
 48
5.0
100
AcDbPoint
 10
1226.024299117038
 20
81.83737118836637
 30
0.0
  0
POINT
  5
3189
330
1A
100
AcDbEntity
  8
SEIHIN
 62
     3
 48
5.0
100
AcDbPoint
 10
1231.231899117038
 20
97.83757118836639
 30
0.0
  0
POINT
  5
318B
330
1A
100
AcDbEntity
  8
SEIHIN
 62
     3
 48
5.0
100
AcDbPoint
 10
1231.231899117038
 20
107.8375711883664
 30
0.0
  0
POINT
  5
318D
330
1A
100
AcDbEntity
  8
SEIHIN
 62
     3
 48
5.0
100
AcDbPoint
 10
1253.231899117038
 20
132.8461711883664
 30
0.0
  0
POINT
  5
3190
330
1A
100
AcDbEntity
  8
SEIHIN
 62
     3
 48
5.0
100
AcDbPoint
 10
1224.872299117038
 20
163.5040711883665
 30
0.0
  0
POINT
  5
3192
330
1A
100
AcDbEntity
  8
SEIHIN
 62
     3
 48
5.0
100
AcDbPoint
 10
1249.871999117038
 20
196.9582711883664
 30
0.0
  0
POINT
  5
31AB
330
1A
100
AcDbEntity
  8
SEIHIN
 62
     3
 48
5.0
100
AcDbPoint
 10
1200.807999117038
 20
262.8374711883664
 30
0.0
  0
POINT
  5
31B5
330
1A
100
AcDbEntity
  8
SEIHIN
 62
     3
 48
5.0
100
AcDbPoint
 10
1170.383799117038
 20
384.1692711883665
 30
0.0
  0
POINT
  5
31C2
330
1A
100
AcDbEntity
  8
SEIHIN
 62
     3
 48
5.0
100
AcDbPoint
 10
1231.232199117038
 20
384.1692711883665
 30
0.0
  0
POINT
  5
31DA
330
1A
100
AcDbEntity
  8
SEIHIN
 62
     3
 48
5.0
100
AcDbPoint
 10
1391.481799117038
 20
81.83687118836648
 30
0.0
  0
POINT
  5
31E2
330
1A
100
AcDbEntity
  8
SEIHIN
 62
     3
 48
5.0
100
AcDbPoint
 10
1462.875099117038
 20
81.83687118836648
 30
0.0
  0
POINT
  5
3C8A
330
1A
100
AcDbEntity
  8
SEIHIN
  6
Continuous
 62
     3
100
AcDbPoint
 10
982.4664069714188
 20
166.2994957310181
 30
0.0
  0
POINT
  5
3C8B
330
1A
100
AcDbEntity
  8
SEIHIN
  6
Continuous
 62
     3
100
AcDbPoint
 10
982.4664069714188
 20
176.2994957310182
 30
0.0
  0
POINT
  5
3C8C
330
1A
100
AcDbEntity
  8
SEIHIN
  6
Continuous
 62
     3
100
AcDbPoint
 10
982.4665069714187
 20
177.8994957310182
 30
0.0
  0
POINT
  5
3C90
330
1A
100
AcDbEntity
  8
SEIHIN
  6
Continuous
 62
     3
100
AcDbPoint
 10
982.4665069714187
 20
202.8994957310182
 30
0.0
  0
POINT
  5
3CA5
330
1A
100
AcDbEntity
  8
SEIHIN
  6
Continuous
 62
     3
100
AcDbPoint
 10
943.1787069714188
 20
258.1052957310181
 30
0.0
  0
POINT
  5
3CB1
330
1A
100
AcDbEntity
  8
SEIHIN
  6
Continuous
 62
     3
100
AcDbPoint
 10
903.8908069714189
 20
287.7079957310182
 30
0.0
  0
POINT
  5
3CCF
330
1A
100
AcDbEntity
  8
SEIHIN
  6
Continuous
 62
     3
100
AcDbPoint
 10
982.4666069714188
 20
287.7079957310182
 30
0.0
  0
POINT
  5
3CDB
330
1A
100
AcDbEntity
  8
SEIHIN
  6
Continuous
 62
     3
100
AcDbPoint
 10
943.1787069714188
 20
317.3105957310181
 30
0.0
  0
POINT
  5
3D03
330
1A
100
AcDbEntity
  8
SEIHIN
  6
Continuous
 62
     3
100
AcDbPoint
 10
1108.030106971419
 20
202.8995957310182
 30
0.0
  0
LWPOLYLINE
  5
A9EF
330
1A
100
AcDbEntity
  8
SEIHIN
 48
5.0
100
AcDbPolyline
 90
        8
 70
     0
 43
0.0
 10
81.51067574503645
 20
103.8279835559858
 10
85.09050302527588
 20
103.6769206098608
 10
88.58448873283283
 20
103.5271832059898
 10
92.07955969635372
 20
103.3758557011906
 10
96.62146450106433
 20
103.1785653010965
 10
100.113758573357
 20
103.0273430186314
 10
103.6917744875579
 20
102.8739554793239
 10
107.1834356576653
 20
102.726636645991
  0
LWPOLYLINE
  5
A9F1
330
1A
100
AcDbEntity
  8
SEIHIN
 48
5.0
100
AcDbPolyline
 90
        3
 70
     0
 43
0.0
 10
81.5106757473327
 20
127.3387568664125
 10
94.37671516616523
 20
126.677300315175
 10
107.1834356576657
 20
126.0191873904298
  0
LWPOLYLINE
  5
A9F4
330
1A
100
AcDbEntity
  8
SEIHIN
 48
5.0
100
AcDbPolyline
 90
        7
 70
     0
 43
0.0
 10
115.8419767290531
 20
102.5359523615172
 10
117.7150228509351
 20
102.5350317591369
 10
119.5160013039378
 20
102.53282404182
 10
121.676326238193
 20
102.5293320829303
 10
123.8377643775577
 20
102.5258414196669
 10
125.5407054913278
 20
102.5237680916564
 10
127.5106757473327
 20
102.522765698455
  0
LWPOLYLINE
  5
A9F5
330
1A
100
AcDbEntity
  8
SEIHIN
 48
5.0
100
AcDbPolyline
 90
        5
 70
     0
 43
0.0
 10
127.485733425734
 20
102.5569996747863
 10
128.7459004617251
 20
101.811219074134
 10
130.0335210369383
 20
101.0436950112096
 10
131.2843722293733
 20
100.3047735733732
 10
132.4650613827105
 20
99.62084510213117
  0
LWPOLYLINE
  5
A9FB
330
1A
100
AcDbEntity
  8
SEIHIN
 48
5.0
100
AcDbPolyline
 90
        5
 70
     0
 43
0.0
 10
127.4284230263549
 20
125.834965813113
 10
128.6016515700055
 20
125.040747543946
 10
129.8580847941787
 20
124.2329514242146
 10
131.135048811506
 20
123.4216267895344
 10
132.3704665377161
 20
122.6168110337571
  0
LWPOLYLINE
  5
A9FC
330
1A
100
AcDbEntity
  8
SEIHIN
 48
5.0
100
AcDbPolyline
 90
        4
 70
     0
 43
0.0
 10
107.1834356576662
 20
216.6160211664826
 10
112.756468134947
 20
216.2384490976044
 10
115.7528700163168
 20
216.0028277195004
 10
115.8419767290529
 20
215.9955548185044
  0
LWPOLYLINE
  5
A9FD
330
1A
100
AcDbEntity
  8
SEIHIN
 48
5.0
100
AcDbPolyline
 90
        7
 70
     0
 43
0.0
 10
101.3832194547233
 20
217.1230288672102
 10
100.8085067955298
 20
217.145499705849
 10
97.81358698599365
 20
217.2245407525618
 10
91.81775180344288
 20
217.3035718350927
 10
88.82112119426414
 20
217.3124145138849
 10
88.8210613077847
 20
217.3124145138886
 10
88.8210613077847
 20
217.3124145138886
  0
LWPOLYLINE
  5
A9FE
330
1A
100
AcDbEntity
  8
SEIHIN
 48
5.0
100
AcDbPolyline
 90
        4
 70
     0
 43
0.0
 10
81.51067574733293
 20
216.9858918426894
 10
82.50960931598115
 20
216.9858618944495
 10
86.50534409688111
 20
216.9857422048053
 10
88.79941495510616
 20
216.9856735620149
  0
LWPOLYLINE
  5
A9FF
330
1A
100
AcDbEntity
  8
SEIHIN
 48
5.0
100
AcDbPolyline
 90
        5
 70
     0
 43
0.0
 10
127.516693185378
 20
215.9955548185042
 10
127.6004137134471
 20
216.5112070976193
 10
127.7330757668944
 20
216.9565821646997
 10
127.8904030484575
 20
217.2216100964261
 10
128.064197035402
 20
217.3124145138886
  0
LWPOLYLINE
  5
AA00
330
1A
100
AcDbEntity
  8
SEIHIN
 48
5.0
100
AcDbPolyline
 90
        5
 70
     0
 43
0.0
 10
127.5106757213302
 20
215.8884950623044
 10
128.7665403237517
 20
215.5723315860107
 10
129.9869390132601
 20
215.0287091886917
 10
131.2211045508465
 20
214.5633413699345
 10
132.5106751372134
 20
214.4483839605446
  0
LWPOLYLINE
  5
AA01
330
1A
100
AcDbEntity
  8
SEIHIN
 48
5.0
100
AcDbPolyline
 90
       11
 70
     0
 43
0.0
 10
320.0106757790434
 20
103.8313305439815
 10
319.4028239308989
 20
103.6783842490295
 10
318.7852602197656
 20
103.5197276656015
 10
318.5216381823427
 20
103.4510818817832
 10
318.2242649408497
 20
103.3731660412302
 10
317.893140495288
 20
103.2859803974454
 10
317.5282648456557
 20
103.1895254573819
 10
316.8684599619707
 20
103.0146596436243
 10
316.2634939617226
 20
102.8547169132434
 10
315.5911848337848
 20
102.6786055849822
 10
315.0106757473334
 20
102.5227219954597
  0
LWPOLYLINE
  5
AA03
330
1A
100
AcDbEntity
  8
SEIHIN
 48
5.0
100
AcDbPolyline
 90
        3
 70
     0
 43
0.0
 10
320.0106757473329
 20
127.3356116287543
 10
317.3617315543031
 20
126.5185550571252
 10
315.0119859016702
 20
125.7941625438561
  0
LWPOLYLINE
  5
AA05
330
1A
100
AcDbEntity
  8
SEIHIN
 48
5.0
100
AcDbPolyline
 90
        6
 70
     0
 43
0.0
 10
284.0196562407943
 20
99.57334827692807
 10
284.9865498759761
 20
99.82404551020614
 10
286.0287280259261
 20
100.0977148534869
 10
287.0399891798813
 20
100.3635202852174
 10
287.9709688951286
 20
100.6039413779917
 10
289.0106758405352
 20
100.8658976084054
  0
LWPOLYLINE
  5
AA0A
330
1A
100
AcDbEntity
  8
SEIHIN
 48
5.0
100
AcDbPolyline
 90
        3
 70
     0
 43
0.0
 10
320.0106757473329
 20
216.9804568682596
 10
319.0470389978175
 20
216.9802891078518
 10
318.8559626572958
 20
216.9802558829817
  0
LWPOLYLINE
  5
AA0B
330
1A
100
AcDbEntity
  8
SEIHIN
 48
5.0
100
AcDbPolyline
 90
        3
 70
     0
 43
0.0
 10
241.0106757473329
 20
217.3094753788537
 10
240.6461614283628
 20
217.3109820680672
 10
240.268476567601
 20
217.3124145138886
  0
LWPOLYLINE
  5
AA0C
330
1A
100
AcDbEntity
  8
SEIHIN
 48
5.0
100
AcDbPolyline
 90
        3
 70
     0
 43
0.0
 10
289.0106757473329
 20
216.9064282413028
 10
286.2824131698119
 20
217.2039825071029
 10
283.5199228073796
 20
217.3094753788535
  0
LWPOLYLINE
  5
AA0F
330
1A
100
AcDbEntity
  8
SEIHIN
 48
5.0
100
AcDbPolyline
 90
        7
 70
     0
 43
0.0
 10
318.8559626572958
 20
216.9802558829817
 10
317.416168099109
 20
216.9194888442798
 10
315.9937080112257
 20
216.6753950218629
 10
315.3489083586935
 20
216.3985292342052
 10
315.1658688933133
 20
216.2354847783843
 10
315.0940680033816
 20
216.110366197117
 10
315.0725555419715
 20
215.9900593828756
  0
LINE
  5
AA10
330
1A
100
AcDbEntity
  8
SEIHIN
 48
5.0
100
AcDbLine
 10
127.5106757473327
 20
101.1624145138885
 30
0.0
 11
127.5106757473327
 21
215.8884950620586
 31
0.0
  0
LINE
  5
AA11
330
1A
100
AcDbEntity
  8
SEIHIN
 48
5.0
100
AcDbLine
 10
132.5106757473327
 20
98.16241451388853
 30
0.0
 11
132.5106757473327
 21
214.4483838697045
 31
0.0
  0
LINE
  5
AA15
330
1A
100
AcDbEntity
  8
SEIHIN
 48
5.0
100
AcDbLine
 10
284.0106757473329
 20
214.598030370654
 30
0.0
 11
284.0106757473328
 21
98.16241451388849
 31
0.0
  0
LINE
  5
AA16
330
1A
100
AcDbEntity
  8
SEIHIN
 48
5.0
100
AcDbLine
 10
289.0106757473329
 20
99.46241451388823
 30
0.0
 11
289.0106757473329
 21
214.6047067946804
 31
0.0
  0
LINE
  5
AA19
330
1A
100
AcDbEntity
  8
SEIHIN
 48
5.0
100
AcDbLine
 10
320.0106757473329
 20
217.3124145138886
 30
0.0
 11
320.0106757473329
 21
102.4624145138884
 31
0.0
  0
LINE
  5
AA1A
330
1A
100
AcDbEntity
  8
SEIHIN
 48
5.0
100
AcDbLine
 10
132.4353175976944
 20
122.604661791586
 30
0.0
 11
284.088508604246
 21
122.6046617915829
 31
0.0
  0
LINE
  5
AA1B
330
1A
100
AcDbEntity
  8
SEIHIN
 48
5.0
100
AcDbLine
 10
132.5106757473329
 20
98.16241451388851
 30
0.0
 11
284.0106757473329
 21
98.16241451388851
 31
0.0
  0
LINE
  5
AA1E
330
1A
100
AcDbEntity
  8
SEIHIN
 48
5.0
100
AcDbLine
 10
132.5106757473329
 20
99.56178390723813
 30
0.0
 11
284.0106757473329
 21
99.56178390723813
 31
0.0
  0
LINE
  5
AA1F
330
1A
100
AcDbEntity
  8
SEIHIN
 48
5.0
100
AcDbLine
 10
127.510675593501
 20
101.1624145138885
 30
0.0
 11
132.5106757473329
 21
98.16241451388851
 31
0.0
  0
ARC
  5
AA23
330
1A
100
AcDbEntity
  8
SEIHIN
 48
5.0
100
AcDbCircle
 10
115.8419767290491
 20
301.1624145138887
 30
0.0
 40
200.0000000000002
100
AcDbArc
 50
267.5187351988084
 51
270.0
  0
ARC
  5
AA25
330
1A
100
AcDbEntity
  8
SEIHIN
 48
5.0
100
AcDbCircle
 10
115.8423708624239
 20
294.6168009285866
 30
0.0
 40
168.8198224428691
100
AcDbArc
 50
267.059952898557
 51
269.9998662350244
  0
ARC
  5
AA27
330
1A
100
AcDbEntity
  8
SEIHIN
 48
5.0
100
AcDbCircle
 10
116.0633767745241
 20
309.2669290979932
 30
0.0
 40
206.7310952914376
100
AcDbArc
 50
267.5381558693149
 51
269.9386386910124
  0
LINE
  5
AA2A
330
1A
100
AcDbEntity
  8
SEIHIN
 48
5.0
100
AcDbLine
 10
81.51067574733293
 20
102.4624145138859
 30
0.0
 11
107.1834356576619
 21
101.349928251105
 31
0.0
  0
LINE
  5
AA37
330
1A
100
AcDbEntity
  8
SEIHIN
 48
5.0
100
AcDbLine
 10
115.8419767290491
 20
101.1624145138885
 30
0.0
 11
127.5106757473329
 21
101.1624145138885
 31
0.0
  0
LINE
  5
AA44
330
1A
100
AcDbEntity
  8
SEIHIN
 48
5.0
100
AcDbLine
 10
115.8419767290527
 20
125.7896324963772
 30
0.0
 11
127.5208895793778
 21
125.7896324963772
 31
0.0
  0
LINE
  5
AA48
330
1A
100
AcDbEntity
  8
SEIHIN
 48
5.0
100
AcDbLine
 10
81.51067574733337
 20
176.6624145138885
 30
0.0
 11
81.51067574733316
 21
172.512361277111
 31
0.0
  0
LINE
  5
AA49
330
1A
100
AcDbEntity
  8
SEIHIN
 48
5.0
100
AcDbLine
 10
81.51067574733316
 20
172.512361277111
 30
0.0
 11
81.51067574733316
 21
172.339978266727
 31
0.0
  0
LINE
  5
AA4A
330
1A
100
AcDbEntity
  8
SEIHIN
 48
5.0
100
AcDbLine
 10
81.51067574733339
 20
217.3124145138886
 30
0.0
 11
81.51067574733335
 21
102.4624145138859
 31
0.0
  0
LINE
  5
AA4F
330
1A
100
AcDbEntity
  8
SEIHIN
 48
5.0
100
AcDbLine
 10
284.0106757473329
 20
98.16241451388851
 30
0.0
 11
289.0106757473329
 21
99.46241451388823
 31
0.0
  0
LINE
  5
AA51
330
1A
100
AcDbEntity
  8
SEIHIN
 48
5.0
100
AcDbLine
 10
289.0106757473329
 20
125.7896324963772
 30
0.0
 11
315.0199048994744
 21
125.7896324963772
 31
0.0
  0
LINE
  5
AA52
330
1A
100
AcDbEntity
  8
SEIHIN
 48
5.0
100
AcDbLine
 10
289.0106757473329
 20
101.1624145138885
 30
0.0
 11
315.0106757473334
 21
101.1624145138885
 31
0.0
  0
LINE
  5
AA55
330
1A
100
AcDbEntity
  8
SEIHIN
 48
5.0
100
AcDbLine
 10
315.0106757473334
 20
102.5227219954597
 30
0.0
 11
289.0106757473329
 21
102.5227219954597
 31
0.0
  0
ARC
  5
AA57
330
1A
100
AcDbEntity
  8
SEIHIN
 48
5.0
100
AcDbCircle
 10
212.8410506534681
 20
403.6482294707357
 30
0.0
 40
289.9270640942649
100
AcDbArc
 50
284.224474598239
 51
285.2527273540335
  0
LINE
  5
AA5D
330
1A
100
AcDbEntity
  8
SEIHIN
 48
5.0
100
AcDbLine
 10
289.0106757473329
 20
123.906501184211
 30
0.0
 11
289.0106757473329
 21
125.0373984975051
 31
0.0
  0
LINE
  5
AA5E
330
1A
100
AcDbEntity
  8
SEIHIN
 48
5.0
100
AcDbLine
 10
289.0106757473329
 20
125.1970301761796
 30
0.0
 11
289.0106757473329
 21
125.2043761659797
 31
0.0
  0
LINE
  5
AA5F
330
1A
100
AcDbEntity
  8
SEIHIN
 48
5.0
100
AcDbLine
 10
289.0106757473329
 20
125.2043761659797
 30
0.0
 11
289.0106757473329
 21
125.7896324963772
 31
0.0
  0
LINE
  5
AA62
330
1A
100
AcDbEntity
  8
SEIHIN
 48
5.0
100
AcDbLine
 10
315.0106757473334
 20
101.1624145138885
 30
0.0
 11
315.0106757473332
 21
215.9955548185044
 31
0.0
  0
LINE
  5
AA63
330
1A
100
AcDbEntity
  8
SEIHIN
 48
5.0
100
AcDbLine
 10
315.0106757473334
 20
101.1624145138885
 30
0.0
 11
320.0106757473329
 21
102.4624145138884
 31
0.0
  0
LINE
  5
AA74
330
1A
100
AcDbEntity
  8
SEIHIN
 48
5.0
100
AcDbLine
 10
161.660675747333
 20
217.3124145138886
 30
0.0
 11
133.5229491967241
 21
217.3124145138886
 31
0.0
  0
LINE
  5
AA75
330
1A
100
AcDbEntity
  8
SEIHIN
 48
5.0
100
AcDbLine
 10
132.5205469631066
 20
214.6414534507178
 30
0.0
 11
161.660675747333
 21
214.6414534507178
 31
0.0
  0
ARC
  5
AA76
330
1A
100
AcDbEntity
  8
SEIHIN
 48
5.0
100
AcDbCircle
 10
81.73975230267547
 20
-95.13441082644659
 30
0.0
 40
312.9933181923464
100
AcDbArc
 50
83.74491369089426
 51
85.33322163483566
  0
ARC
  5
AA7E
330
1A
100
AcDbEntity
  8
SEIHIN
 48
5.0
100
AcDbCircle
 10
91.36724710456679
 20
-112.6411653794828
 30
0.0
 40
329.6368406481773
100
AcDbArc
 50
87.24985559393331
 51
90.44633188572428
  0
ARC
  5
AA81
330
1A
100
AcDbEntity
  8
SEIHIN
 48
5.0
100
AcDbCircle
 10
90.31840074049251
 20
217.0491293515788
 30
0.0
 40
1.520310643728648
100
AcDbArc
 50
170.0273227979337
 51
182.3921462514123
  0
ARC
  5
AA82
330
1A
100
AcDbEntity
  8
SEIHIN
 48
5.0
100
AcDbCircle
 10
97.61711667580426
 20
88.16009532483667
 30
0.0
 40
129.0179125470414
100
AcDbArc
 50
85.73813551494753
 51
88.32726753897285
  0
ARC
  5
AA83
330
1A
100
AcDbEntity
  8
SEIHIN
 48
5.0
100
AcDbCircle
 10
111.2433705013311
 20
216.291558220639
 30
0.0
 40
4.072879465197829
100
AcDbArc
 50
172.5273249048367
 51
175.4307321001214
  0
ARC
  5
AA84
330
1A
100
AcDbEntity
  8
SEIHIN
 48
5.0
100
AcDbCircle
 10
135.8171298195545
 20
214.9278371091364
 30
0.0
 40
3.308998961806013
100
AcDbArc
 50
133.8931443478763
 51
184.9649845387429
  0
LINE
  5
AA85
330
1A
100
AcDbEntity
  8
SEIHIN
 48
5.0
100
AcDbLine
 10
132.5106751228452
 20
214.4483838697045
 30
0.0
 11
132.5205469631069
 21
214.6414534507178
 31
0.0
  0
LINE
  5
AA86
330
1A
100
AcDbEntity
  8
SEIHIN
 48
5.0
100
AcDbLine
 10
115.8419767290531
 20
215.9955548185042
 30
0.0
 11
127.5106757473327
 21
215.9955548185044
 31
0.0
  0
LINE
  5
AA87
330
1A
100
AcDbEntity
  8
SEIHIN
 48
5.0
100
AcDbLine
 10
127.516693185378
 20
215.9955548185042
 30
0.0
 11
127.5106757201285
 21
215.8884950620586
 31
0.0
  0
LINE
  5
AA88
330
1A
100
AcDbEntity
  8
SEIHIN
 48
5.0
100
AcDbLine
 10
133.5229491967241
 20
217.3124145138886
 30
0.0
 11
81.51067574733339
 21
217.3124145138886
 31
0.0
  0
LINE
  5
AA89
330
1A
100
AcDbEntity
  8
SEIHIN
 48
5.0
100
AcDbLine
 10
176.660675747333
 20
214.6414534507178
 30
0.0
 11
284.0096430154906
 21
214.6414534507178
 31
0.0
  0
LINE
  5
AA8A
330
1A
100
AcDbEntity
  8
SEIHIN
 48
5.0
100
AcDbLine
 10
283.5199228073768
 20
217.3094753788535
 30
0.0
 11
176.660675747333
 21
217.3094753788534
 31
0.0
  0
LINE
  5
AA90
330
1A
100
AcDbEntity
  8
SEIHIN
 48
5.0
100
AcDbLine
 10
176.6606757473305
 20
220.8124145138888
 30
0.0
 11
161.6606757473305
 21
220.8124145138888
 31
0.0
  0
LINE
  5
AA99
330
1A
100
AcDbEntity
  8
SEIHIN
 48
5.0
100
AcDbLine
 10
161.660675747333
 20
194.008163825405
 30
0.0
 11
161.660675747333
 21
220.8124145138889
 31
0.0
  0
LINE
  5
AAA6
330
1A
100
AcDbEntity
  8
SEIHIN
 48
5.0
100
AcDbLine
 10
176.660675747333
 20
194.008163825405
 30
0.0
 11
176.660675747333
 21
220.8124145138889
 31
0.0
  0
LINE
  5
AAB2
330
1A
100
AcDbEntity
  8
SEIHIN
 48
5.0
100
AcDbLine
 10
288.0106757473329
 20
217.3124145138886
 30
0.0
 11
320.010675747333
 21
217.3124145138886
 31
0.0
  0
LINE
  5
AAB3
330
1A
100
AcDbEntity
  8
SEIHIN
 48
5.0
100
AcDbLine
 10
314.9467386160884
 20
215.9955548185044
 30
0.0
 11
289.0106757473329
 21
215.9955548185044
 31
0.0
  0
LINE
  5
AAB4
330
1A
100
AcDbEntity
  8
SEIHIN
 48
5.0
100
AcDbLine
 10
289.0106757473329
 20
214.6047067946804
 30
0.0
 11
289.0106757473329
 21
216.9064282413028
 31
0.0
  0
ARC
  5
AAB5
330
1A
100
AcDbEntity
  8
SEIHIN
 48
5.0
100
AcDbCircle
 10
278.7302231892306
 20
215.0513619518674
 30
0.0
 40
5.295309120459741
100
AcDbArc
 50
355.5603070937412
 51
25.24162716168345
  0
LINE
  5
AAB6
330
1A
100
AcDbEntity
  8
SEIHIN
 48
5.0
100
AcDbLine
 10
284.0096430154906
 20
214.6414534507203
 30
0.0
 11
284.0106757473329
 21
214.598030370654
 31
0.0
  0
LINE
  5
AAB7
330
1A
100
AcDbEntity
  8
SEIHIN
 48
5.0
100
AcDbLine
 10
284.0106757473329
 20
214.598030370654
 30
0.0
 11
289.0106757473329
 21
214.6047067946804
 31
0.0
  0
LINE
  5
AAB8
330
1A
100
AcDbEntity
  8
SEIHIN
 48
5.0
100
AcDbLine
 10
288.0106757473329
 20
217.041335514431
 30
0.0
 11
288.0106757473329
 21
217.3124145138886
 31
0.0
  0
ARC
  5
AABF
330
1A
100
AcDbEntity
  8
SEIHIN
 48
5.0
100
AcDbCircle
 10
314.9474502187102
 20
214.5688221259525
 30
0.0
 40
1.426732870012736
100
AcDbArc
 50
84.96946848154278
 51
90.02857705842748
  0
ARC
  5
AE06
330
1A
100
AcDbEntity
  8
SEIHIN
 48
5.0
100
AcDbCircle
 10
567.9470809382904
 20
1103.662414513888
 30
0.0
 40
997.9999999999998
100
AcDbArc
 50
267.1285392776728
 51
269.3301944021182
  0
ARC
  5
AE07
330
1A
100
AcDbEntity
  8
SEIHIN
 48
5.0
100
AcDbCircle
 10
567.9470809382904
 20
1103.662414513888
 30
0.0
 40
996.7
100
AcDbArc
 50
267.1204246079621
 51
269.1840088787784
  0
ARC
  5
AE08
330
1A
100
AcDbEntity
  8
SEIHIN
 48
5.0
100
AcDbCircle
 10
567.9470809382904
 20
1103.662414513888
 30
0.0
 40
995.7
100
AcDbArc
 50
267.1223417966175
 51
269.4245581726209
  0
ARC
  5
AE09
330
1A
100
AcDbEntity
  8
SEIHIN
 48
5.0
100
AcDbCircle
 10
567.9470809382904
 20
1103.662414513888
 30
0.0
 40
998.4060114763977
100
AcDbArc
 50
267.1142711639637
 51
269.4213353500054
  0
ARC
  5
AE0C
330
1A
100
AcDbEntity
  8
SEIHIN
 48
5.0
100
AcDbCircle
 10
567.9470809382904
 20
153.8837720574617
 30
0.0
 40
47.72135754374214
100
AcDbArc
 50
185.0092568711033
 51
253.8262908877817
  0
ARC
  5
AE0E
330
1A
100
AcDbEntity
  8
SEIHIN
 48
5.0
100
AcDbCircle
 10
567.9470809382904
 20
1103.662414513888
 30
0.0
 40
1003.0
100
AcDbArc
 50
266.9768258953443
 51
273.568067290243
  0
ARC
  5
AE0F
330
1A
100
AcDbEntity
  8
SEIHIN
 48
5.0
100
AcDbCircle
 10
567.9470809382904
 20
1103.662414513888
 30
0.0
 40
1002.5
100
AcDbArc
 50
267.0137932140474
 51
273.5166746585205
  0
ARC
  5
AE10
330
1A
100
AcDbEntity
  8
SEIHIN
 48
5.0
100
AcDbCircle
 10
567.9470809382904
 20
1103.662414513888
 30
0.0
 40
1001.2
100
AcDbArc
 50
267.003494295635
 51
273.5368869944706
  0
ARC
  5
AE11
330
1A
100
AcDbEntity
  8
SEIHIN
 48
5.0
100
AcDbCircle
 10
567.9470809382904
 20
1103.662414513888
 30
0.0
 40
1000.0
100
AcDbArc
 50
267.0148710001854
 51
273.5166746585205
  0
ARC
  5
AE12
330
1A
100
AcDbEntity
  8
SEIHIN
 48
5.0
100
AcDbCircle
 10
567.9470809382904
 20
1103.662414513888
 30
0.0
 40
1005.5
100
AcDbArc
 50
266.9768258953443
 51
273.568067290243
  0
LINE
  5
AE13
330
1A
100
AcDbEntity
  8
SEIHIN
 48
5.0
100
AcDbLine
 10
520.4079901588634
 20
149.7169010891002
 30
0.0
 11
516.8360946088223
 21
190.4680229974447
 31
0.0
  0
ARC
  5
AE16
330
1A
100
AcDbEntity
  8
SEIHIN
 48
5.0
100
AcDbCircle
 10
741.544829146422
 20
129.7490913607453
 30
0.0
 40
255.4999999999999
100
AcDbArc
 50
160.6043341389178
 51
181.0518622960898
  0
ARC
  5
AE17
330
1A
100
AcDbEntity
  8
SEIHIN
 48
5.0
100
AcDbCircle
 10
741.544829146422
 20
129.7490913607453
 30
0.0
 40
253.0
100
AcDbArc
 50
159.7510360913415
 51
180.9195087934438
  0
ARC
  5
AE18
330
1A
100
AcDbEntity
  8
SEIHIN
 48
5.0
100
AcDbCircle
 10
741.544829146422
 20
129.7490913607453
 30
0.0
 40
250.0
100
AcDbArc
 50
160.3786052323501
 51
180.1131861380652
  0
ARC
  5
AE19
330
1A
100
AcDbEntity
  8
SEIHIN
 48
5.0
100
AcDbCircle
 10
741.544829146422
 20
129.7490913607453
 30
0.0
 40
251.2000000000001
100
AcDbArc
 50
159.6802685120966
 51
180.4425906015771
  0
ARC
  5
AE1A
330
1A
100
AcDbEntity
  8
SEIHIN
 48
5.0
100
AcDbCircle
 10
741.544829146422
 20
129.7490913607453
 30
0.0
 40
252.4839112533941
100
AcDbArc
 50
160.0261079861375
 51
180.8151606590279
  0
ARC
  5
AE1D
330
1A
100
AcDbEntity
  8
SEIHIN
 48
5.0
100
AcDbCircle
 10
488.5874626318698
 20
125.1046617915831
 30
0.0
 40
2.499999999999076
100
AcDbArc
 50
181.0518622960947
 51
275.908461453955
  0
ARC
  5
AE20
330
1A
100
AcDbEntity
  8
SEIHIN
 48
5.0
100
AcDbCircle
 10
749.2699366755021
 20
191.142867741084
 30
0.0
 40
246.7000000000004
100
AcDbArc
 50
193.2515830268792
 51
199.4027284888924
  0
ARC
  5
AE21
330
1A
100
AcDbEntity
  8
SEIHIN
 48
5.0
100
AcDbCircle
 10
749.2699366755021
 20
191.142867741084
 30
0.0
 40
245.7000000000007
100
AcDbArc
 50
193.1249215599649
 51
199.3949477158803
  0
ARC
  5
AE23
330
1A
100
AcDbEntity
  8
SEIHIN
 48
5.0
100
AcDbCircle
 10
749.2699366755021
 20
191.142867741084
 30
0.0
 40
252.9999999999998
100
AcDbArc
 50
195.0088500162642
 51
199.9821534107032
  0
ARC
  5
AE25
330
1A
100
AcDbEntity
  8
SEIHIN
 48
5.0
100
AcDbCircle
 10
749.2699366755021
 20
191.142867741084
 30
0.0
 40
249.9999999999999
100
AcDbArc
 50
193.9649250284309
 51
199.8292837129615
  0
ARC
  5
AE26
330
1A
100
AcDbEntity
  8
SEIHIN
 48
5.0
100
AcDbCircle
 10
749.2699366755021
 20
191.142867741084
 30
0.0
 40
251.2000000000002
100
AcDbArc
 50
194.2157172301962
 51
199.875045092969
  0
ARC
  5
AE27
330
1A
100
AcDbEntity
  8
SEIHIN
 48
5.0
100
AcDbCircle
 10
749.2699366755021
 20
191.142867741084
 30
0.0
 40
252.5
100
AcDbArc
 50
194.4918516833118
 51
199.8336206215096
  0
ARC
  5
AE28
330
1A
100
AcDbEntity
  8
SEIHIN
 48
5.0
100
AcDbCircle
 10
749.2699366755021
 20
191.142867741084
 30
0.0
 40
248.0000000000003
100
AcDbArc
 50
193.4196450530334
 51
199.3697871106055
  0
ARC
  5
AE29
330
1A
100
AcDbEntity
  8
SEIHIN
 48
5.0
100
AcDbCircle
 10
749.2699366755021
 20
191.142867741084
 30
0.0
 40
248.4060114763984
100
AcDbArc
 50
193.4712153250913
 51
199.4276894008149
  0
ARC
  5
AE2B
330
1A
100
AcDbEntity
  8
SEIHIN
 48
5.0
100
AcDbCircle
 10
749.2699366755021
 20
191.142867741084
 30
0.0
 40
255.4999999999996
100
AcDbArc
 50
195.1110866539131
 51
199.9821534107032
  0
ARC
  5
AE2E
330
1A
100
AcDbEntity
  8
SEIHIN
 48
5.0
100
AcDbCircle
 10
515.97645291512
 20
107.0192860320421
 30
0.0
 40
4.502817070243586
100
AcDbArc
 50
200.0958933408262
 51
266.7515135201214
  0
ARC
  5
AE31
330
1A
100
AcDbEntity
  8
SEIHIN
 48
5.0
100
AcDbCircle
 10
515.2599587262689
 20
106.0527377599912
 30
0.0
 40
4.000000000000057
100
AcDbArc
 50
199.9821534107032
 51
266.9768258953443
  0
ARC
  5
AE32
330
1A
100
AcDbEntity
  8
SEIHIN
 48
5.0
100
AcDbCircle
 10
515.2599587262691
 20
106.0527377599915
 30
0.0
 40
6.500000000000289
100
AcDbArc
 50
199.9821534107004
 51
265.4360593225769
  0
LINE
  5
AE3D
330
1A
100
AcDbEntity
  8
SEIHIN
 48
5.0
100
AcDbLine
 10
514.9171496227871
 20
99.56178390723813
 30
0.0
 11
514.7427434355424
 21
99.57334825610747
 31
0.0
  0
ARC
  5
AE3F
330
1A
100
AcDbEntity
  8
SEIHIN
 48
5.0
100
AcDbCircle
 10
515.7497564983948
 20
106.7136918965129
 30
0.0
 40
2.885781492185617
100
AcDbArc
 50
199.668362762941
 51
267.2101653453894
  0
ARC
  5
AE41
330
1A
100
AcDbEntity
  8
SEIHIN
 48
5.0
100
AcDbCircle
 10
515.9744721946951
 20
107.0166158770883
 30
0.0
 40
1.999999999999953
100
AcDbArc
 50
199.8292837129611
 51
267.0148710001985
  0
ARC
  5
AE42
330
1A
100
AcDbEntity
  8
SEIHIN
 48
5.0
100
AcDbCircle
 10
517.9432972228876
 20
109.6620733817872
 30
0.0
 40
1.44272740696387
100
AcDbArc
 50
199.198854481647
 51
267.3242751382917
  0
ARC
  5
AE43
330
1A
100
AcDbEntity
  8
SEIHIN
 48
5.0
100
AcDbCircle
 10
518.1464136369552
 20
109.9341207298544
 30
0.0
 40
3.024917813473847
100
AcDbArc
 50
200.1869747466273
 51
266.3113089265507
  0
ARC
  5
AE46
330
1A
100
AcDbEntity
  8
SEIHIN
 48
5.0
100
AcDbCircle
 10
517.9845600276514
 20
109.7173523981525
 30
0.0
 40
0.5000000000005659
100
AcDbArc
 50
199.3949477158811
 51
267.1223417966045
  0
ARC
  5
AE48
330
1A
100
AcDbEntity
  8
SEIHIN
 48
5.0
100
AcDbCircle
 10
517.8330861233696
 20
109.514394508865
 30
0.0
 40
2.995695117501817
100
AcDbArc
 50
199.4113858379656
 51
267.1305839573558
  0
ARC
  5
AE58
330
1A
100
AcDbEntity
  8
SEIHIN
 48
5.0
100
AcDbCircle
 10
508.6694298252375
 20
134.4830408744565
 30
0.0
 40
0.4819986397908157
100
AcDbArc
 50
13.12565483697613
 51
71.31066558358313
  0
ARC
  5
AE59
330
1A
100
AcDbEntity
  8
SEIHIN
 48
5.0
100
AcDbCircle
 10
509.5013478400276
 20
135.2370200340208
 30
0.0
 40
0.4999999999998967
100
AcDbArc
 50
13.12492155996479
 51
71.18473739377188
  0
LINE
  5
AE5D
330
1A
100
AcDbEntity
  8
SEIHIN
 48
5.0
100
AcDbLine
 10
507.7164784416884
 20
133.9435538216799
 30
0.0
 11
507.7245406709021
 21
133.9407132476335
 31
0.0
  0
ARC
  5
AE60
330
1A
100
AcDbEntity
  8
SEIHIN
 48
5.0
100
AcDbCircle
 10
506.1738041827273
 20
130.6902386249307
 30
0.0
 40
0.5000000000000617
100
AcDbArc
 50
13.96492502843127
 51
99.83356396420559
  0
ARC
  5
AE61
330
1A
100
AcDbEntity
  8
SEIHIN
 48
5.0
100
AcDbCircle
 10
505.2956115664983
 20
129.3399105498922
 30
0.0
 40
0.4805157993944373
100
AcDbArc
 50
13.83954218945667
 51
100.2097390048949
  0
LINE
  5
AE62
330
1A
100
AcDbEntity
  8
SEIHIN
 48
5.0
100
AcDbLine
 10
504.799807354919
 20
127.9707707303823
 30
0.0
 11
504.8036689874548
 21
127.9566828374522
 31
0.0
  0
ARC
  5
AE63
330
1A
100
AcDbEntity
  8
SEIHIN
 48
5.0
100
AcDbCircle
 10
504.3195773682703
 20
127.8315616792265
 30
0.0
 40
0.5000000000004703
100
AcDbArc
 50
16.16581477888097
 51
98.15638137706255
  0
LINE
  5
AE64
330
1A
100
AcDbEntity
  8
SEIHIN
 48
5.0
100
AcDbLine
 10
508.0391733740941
 20
133.5949513297457
 30
0.0
 11
508.0412390411879
 21
133.5866740026781
 31
0.0
  0
ARC
  5
AE68
330
1A
100
AcDbEntity
  8
SEIHIN
 48
5.0
100
AcDbCircle
 10
507.5522163712439
 20
133.4678694419426
 30
0.0
 40
0.5032662603760836
100
AcDbArc
 50
14.62634086641483
 51
69.97611852634746
  0
ARC
  5
AE69
330
1A
100
AcDbEntity
  8
SEIHIN
 48
5.0
100
AcDbCircle
 10
507.21164457656
 20
133.1578072321319
 30
0.0
 40
0.5005657546826348
100
AcDbArc
 50
13.5387603823123
 51
71.1171923364781
  0
ARC
  5
AE6B
330
1A
100
AcDbEntity
  8
SEIHIN
 48
5.0
100
AcDbCircle
 10
487.7778272979298
 20
148.513068533811
 30
0.0
 40
7.780527270530464
100
AcDbArc
 50
351.6501188811334
 51
19.29537476638041
  0
LINE
  5
AE6C
330
1A
100
AcDbEntity
  8
SEIHIN
 48
5.0
100
AcDbLine
 10
495.4760770427308
 20
151.3055216057535
 30
0.0
 11
495.7043841124507
 21
151.3055216057535
 31
0.0
  0
ARC
  5
AE6E
330
1A
100
AcDbEntity
  8
SEIHIN
 48
5.0
100
AcDbCircle
 10
495.7113241151271
 20
150.3133665687119
 30
0.0
 40
0.9921793089784223
100
AcDbArc
 50
355.8483734674591
 51
90.40077040717989
  0
ARC
  5
AE6F
330
1A
100
AcDbEntity
  8
SEIHIN
 48
5.0
100
AcDbCircle
 10
741.5448291309396
 20
129.7490913619431
 30
0.0
 40
245.6999999844716
100
AcDbArc
 50
174.7219958118173
 51
177.4418979701798
  0
LINE
  5
AE71
330
1A
100
AcDbEntity
  8
SEIHIN
 48
5.0
100
AcDbLine
 10
495.8962583972627
 20
153.4820261273778
 30
0.0
 11
495.1759714731858
 21
153.4820261273778
 31
0.0
  0
ARC
  5
AE73
330
1A
100
AcDbEntity
  8
SEIHIN
 48
5.0
100
AcDbCircle
 10
495.8811688552757
 20
152.4697038497327
 30
0.0
 40
1.012434730586892
100
AcDbArc
 50
353.2452918000982
 51
89.14602817307075
  0
ARC
  5
AE7B
330
1A
100
AcDbEntity
  8
SEIHIN
 48
5.0
100
AcDbCircle
 10
494.8652970217551
 20
150.7374990997514
 30
0.0
 40
0.4308577789372902
100
AcDbArc
 50
53.54583306565865
 51
180.1805800890996
  0
ARC
  5
AE7C
330
1A
100
AcDbEntity
  8
SEIHIN
 48
5.0
100
AcDbCircle
 10
495.1926066459889
 20
152.4741236058708
 30
0.0
 40
1.0080397917912
100
AcDbArc
 50
90.94556630331174
 51
175.8094885269262
  0
ARC
  5
AE7E
330
1A
100
AcDbEntity
  8
SEIHIN
 48
5.0
100
AcDbCircle
 10
495.5381549935898
 20
139.9744585350258
 30
0.0
 40
0.4809120450924931
100
AcDbArc
 50
177.3517116535387
 51
251.4523508174828
  0
ARC
  5
AE7F
330
1A
100
AcDbEntity
  8
SEIHIN
 48
5.0
100
AcDbCircle
 10
496.5891771448911
 20
140.6929733276304
 30
0.0
 40
0.4999999999998967
100
AcDbArc
 50
177.4418979700732
 51
251.1847373937719
  0
ARC
  5
AE82
330
1A
100
AcDbEntity
  8
SEIHIN
 48
5.0
100
AcDbCircle
 10
494.2239560247296
 20
139.072663529198
 30
0.0
 40
0.5034947263166445
100
AcDbArc
 50
179.4863657334973
 51
249.5427053970251
  0
LINE
  5
AE83
330
1A
100
AcDbEntity
  8
SEIHIN
 48
5.0
100
AcDbLine
 10
493.7207543336262
 20
139.0886814578505
 30
0.0
 11
493.7204815297561
 21
139.0771771021479
 31
0.0
  0
LINE
  5
AE84
330
1A
100
AcDbEntity
  8
SEIHIN
 48
5.0
100
AcDbLine
 10
494.0479800181406
 20
138.6009227269203
 30
0.0
 11
494.0587986216017
 21
138.5970674562902
 31
0.0
  0
ARC
  5
AE85
330
1A
100
AcDbEntity
  8
SEIHIN
 48
5.0
100
AcDbCircle
 10
493.8016285579021
 20
138.7820735023583
 30
0.0
 40
0.4981904327925659
100
AcDbArc
 50
177.800020943278
 51
251.2963517373529
  0
LINE
  5
AE89
330
1A
100
AcDbEntity
  8
SEIHIN
 48
5.0
100
AcDbLine
 10
502.6045631590732
 20
124.5362351284047
 30
0.0
 11
502.6005937378729
 21
124.550133713097
 31
0.0
  0
ARC
  5
AE8A
330
1A
100
AcDbEntity
  8
SEIHIN
 48
5.0
100
AcDbCircle
 10
502.1218520563015
 20
124.405889467715
 30
0.0
 40
0.4999999999995912
100
AcDbArc
 50
16.76748579092172
 51
98.17401567399025
  0
ARC
  5
AE8D
330
1A
100
AcDbEntity
  8
SEIHIN
 48
5.0
100
AcDbCircle
 10
489.0773445070001
 20
125.6970301761798
 30
0.0
 40
0.5000000000000617
100
AcDbArc
 50
180.9195087934568
 51
279.8335639642056
  0
LINE
  5
AE8E
330
1A
100
AcDbEntity
  8
SEIHIN
 48
5.0
100
AcDbLine
 10
489.0144294407102
 20
122.6413917405853
 30
0.0
 11
488.8448112158887
 21
122.6179427269724
 31
0.0
  0
ARC
  5
AE96
330
1A
100
AcDbEntity
  8
SEIHIN
 48
5.0
100
AcDbCircle
 10
492.0453159812411
 20
129.2562117224856
 30
0.0
 40
0.499999999999888
100
AcDbArc
 50
180.1131861380522
 51
279.833563964219
  0
ARC
  5
AE97
330
1A
100
AcDbEntity
  8
SEIHIN
 48
5.0
100
AcDbCircle
 10
490.8317804102948
 20
127.8070957669952
 30
0.0
 40
0.4794592977885859
100
AcDbArc
 50
179.8112497142234
 51
280.4649048515899
  0
ARC
  5
AE98
330
1A
100
AcDbEntity
  8
SEIHIN
 48
5.0
100
AcDbCircle
 10
489.5685760106045
 20
126.2896324963778
 30
0.0
 40
0.5000000000006009
100
AcDbArc
 50
195.3750942909982
 51
277.7184917938249
  0
LINE
  5
AE9A
330
1A
100
AcDbEntity
  8
SEIHIN
 48
5.0
100
AcDbLine
 10
489.1627378687683
 20
125.2043761659799
 30
0.0
 11
502.0591384929382
 21
127.4397522741694
 31
0.0
  0
LINE
  5
AE9B
330
1A
100
AcDbEntity
  8
SEIHIN
 48
5.0
100
AcDbLine
 10
489.0144294407102
 20
122.6413917405853
 30
0.0
 11
502.0364586945336
 21
124.8985434779142
 31
0.0
  0
ARC
  5
AE9D
330
1A
100
AcDbEntity
  8
SEIHIN
 48
5.0
100
AcDbCircle
 10
741.544829146422
 20
129.7490913607453
 30
0.0
 40
246.7000000000001
100
AcDbArc
 50
175.9010040198186
 51
177.6193250772762
  0
ARC
  5
AE9F
330
1A
100
AcDbEntity
  8
SEIHIN
 48
5.0
100
AcDbCircle
 10
741.544829146422
 20
129.7490913607453
 30
0.0
 40
248.0
100
AcDbArc
 50
175.1455271964173
 51
177.841751353366
  0
ARC
  5
AEA0
330
1A
100
AcDbEntity
  8
SEIHIN
 48
5.0
100
AcDbCircle
 10
741.544829146422
 20
129.7490913607453
 30
0.0
 40
248.406011476398
100
AcDbArc
 50
174.7339850637795
 51
177.9116352868127
  0
ARC
  5
AEA3
330
1A
100
AcDbEntity
  8
SEIHIN
 48
5.0
100
AcDbCircle
 10
502.4861053017779
 20
124.9764822231705
 30
0.0
 40
2.499999999999879
100
AcDbArc
 50
15.00885001625217
 51
99.83356396420573
  0
LINE
  5
AEA6
330
1A
100
AcDbEntity
  8
SEIHIN
 48
5.0
100
AcDbLine
 10
506.0884108209591
 20
131.1828926351306
 30
0.0
 11
492.1307093430091
 21
128.763557712286
 31
0.0
  0
LINE
  5
AEA7
330
1A
100
AcDbEntity
  8
SEIHIN
 48
5.0
100
AcDbLine
 10
490.9188661474923
 20
127.3356116287543
 30
0.0
 11
505.2104391660566
 21
129.812817618639
 31
0.0
  0
LINE
  5
AEA8
330
1A
100
AcDbEntity
  8
SEIHIN
 48
5.0
100
AcDbLine
 10
504.2341840065025
 20
128.3242156894268
 30
0.0
 11
489.6539693723719
 21
125.7969784861775
 31
0.0
  0
LINE
  5
AEA9
330
1A
100
AcDbEntity
  8
SEIHIN
 48
5.0
100
AcDbLine
 10
494.0587986216017
 20
138.5970674562902
 30
0.0
 11
507.7164784416884
 21
133.9435538216799
 31
0.0
  0
LINE
  5
AEAA
330
1A
100
AcDbEntity
  8
SEIHIN
 48
5.0
100
AcDbLine
 10
493.6418721864013
 20
138.3101925755441
 30
0.0
 11
507.3736444330008
 21
133.6314337952321
 31
0.0
  0
LINE
  5
AEAD
330
1A
100
AcDbEntity
  8
SEIHIN
 48
5.0
100
AcDbLine
 10
495.3851801394368
 20
139.5185253281722
 30
0.0
 11
508.8238798605882
 21
134.939623698641
 31
0.0
  0
LINE
  5
AEAE
330
1A
100
AcDbEntity
  8
SEIHIN
 48
5.0
100
AcDbLine
 10
509.6626067674321
 20
135.7103017242775
 30
0.0
 11
496.4279182174869
 21
140.2196916373736
 31
0.0
  0
LWPOLYLINE
  5
AEB9
330
1A
100
AcDbEntity
  8
SEIHIN
 48
5.0
100
AcDbPolyline
 90
        3
 70
     0
 43
0.0
 10
495.4760770427308
 20
151.3055216057535
 10
495.4706732858992
 20
151.3032617755696
 10
495.1213039076694
 20
151.0840519817695
  0
LWPOLYLINE
  5
AEBB
330
1A
100
AcDbEntity
  8
SEIHIN
 48
5.0
100
AcDbPolyline
 90
        3
 70
     0
 43
0.0
 10
504.2341840065025
 20
128.3242156894268
 10
504.2414034676424
 20
128.3254127106734
 10
504.2486396747197
 20
128.3265039421564
  0
LWPOLYLINE
  5
AEBC
330
1A
100
AcDbEntity
  8
SEIHIN
 48
5.0
100
AcDbPolyline
 90
        3
 70
     0
 43
0.0
 10
489.635729016112
 20
125.7941625438561
 10
489.6448621884153
 20
125.7954863448444
 10
489.6539693723719
 20
125.7969784861775
  0
LWPOLYLINE
  5
AEC8
330
1A
100
AcDbEntity
  8
SEIHIN
 48
5.0
100
AcDbPolyline
 90
        3
 70
     0
 43
0.0
 10
502.0507620344949
 20
124.9008098742442
 10
502.0436021587181
 20
124.8997284632669
 10
502.0364586945336
 20
124.8985434779142
  0
ARC
  5
AECC
330
1A
100
AcDbEntity
  8
SEIHIN
 48
5.0
100
AcDbCircle
 10
483.4198819206742
 20
214.1398937301453
 30
0.0
 40
16.00001600418801
100
AcDbArc
 50
254.4165608113341
 51
305.4971308558392
  0
ARC
  5
AECD
330
1A
100
AcDbEntity
  8
SEIHIN
 48
5.0
100
AcDbCircle
 10
483.4198819206742
 20
214.1398937301453
 30
0.0
 40
14.00000000000022
100
AcDbArc
 50
262.8775584108709
 51
340.5940111665727
  0
LINE
  5
AECE
330
1A
100
AcDbEntity
  8
SEIHIN
 48
5.0
100
AcDbLine
 10
478.447068444317
 20
200.0235342045717
 30
0.0
 11
478.7682458366593
 21
200.9352626583623
 31
0.0
  0
ARC
  5
AECF
330
1A
100
AcDbEntity
  8
SEIHIN
 48
5.0
100
AcDbCircle
 10
480.2076955805043
 20
200.513380642931
 30
0.0
 40
1.500000000000002
100
AcDbArc
 50
349.8066715997861
 51
163.6648979776694
  0
ARC
  5
AED0
330
1A
100
AcDbEntity
  8
SEIHIN
 48
5.0
100
AcDbCircle
 10
479.3902563780159
 20
199.6912744842848
 30
0.0
 40
1.000000000000077
100
AcDbArc
 50
160.5940111665722
 51
254.4165608113468
  0
ARC
  5
AED1
330
1A
100
AcDbEntity
  8
SEIHIN
 48
5.0
100
AcDbCircle
 10
506.2565092253605
 20
199.1989182998879
 30
0.0
 40
1.500000000000063
100
AcDbArc
 50
250.5940111665728
 51
70.59401116658579
  0
LINE
  5
AED2
330
1A
100
AcDbEntity
  8
SEIHIN
 48
5.0
100
AcDbLine
 10
506.942715111134
 20
207.376621210653
 30
0.0
 11
503.0444287619955
 21
194.3053112699522
 31
0.0
  0
LINE
  5
AED3
330
1A
100
AcDbEntity
  8
SEIHIN
 48
5.0
100
AcDbLine
 10
492.305131311182
 20
197.2267994130895
 30
0.0
 11
493.4724112713982
 21
200.5403649959835
 31
0.0
  0
LINE
  5
AED4
330
1A
100
AcDbEntity
  8
SEIHIN
 48
5.0
100
AcDbLine
 10
501.2659940985943
 20
216.6446742341754
 30
0.0
 11
493.5269877380058
 21
194.6759041051184
 31
0.0
  0
LINE
  5
AED7
330
1A
100
AcDbEntity
  8
SEIHIN
 48
5.0
100
AcDbLine
 10
513.3494624949712
 20
193.6624145835192
 30
0.0
 11
501.1550197364228
 21
193.6624145835192
 31
0.0
  0
ARC
  5
AED8
330
1A
100
AcDbEntity
  8
SEIHIN
 48
5.0
100
AcDbCircle
 10
504.4826719909449
 20
197.1732081859279
 30
0.0
 40
0.9999999999999705
100
AcDbArc
 50
250.5940111665726
 51
340.594011166572
  0
LINE
  5
AED9
330
1A
100
AcDbEntity
  8
SEIHIN
 48
5.0
100
AcDbLine
 10
504.150412270658
 20
196.2300202522292
 30
0.0
 11
503.669014357142
 21
196.3996037788804
 31
0.0
  0
LINE
  5
AEDA
330
1A
100
AcDbEntity
  8
SEIHIN
 48
5.0
100
AcDbLine
 10
505.7581196449302
 20
197.7841363993398
 30
0.0
 11
505.4258599246436
 21
196.8409484656411
 31
0.0
  0
ARC
  5
AEDB
330
1A
100
AcDbEntity
  8
SEIHIN
 48
5.0
100
AcDbCircle
 10
501.1550197364228
 20
194.6624145835189
 30
0.0
 40
1.000000000000081
100
AcDbArc
 50
164.8886310979814
 51
270.0
  0
ARC
  5
AEE1
330
1A
100
AcDbEntity
  8
SEIHIN
 48
5.0
100
AcDbCircle
 10
492.5837998043073
 20
195.0081638254053
 30
0.0
 40
1.000000000000184
100
AcDbArc
 50
250.594011166573
 51
340.594011166572
  0
LINE
  5
AEE2
330
1A
100
AcDbEntity
  8
SEIHIN
 48
5.0
100
AcDbLine
 10
492.2515400840204
 20
194.0649758917063
 30
0.0
 11
491.3083521503215
 21
194.397235611993
 31
0.0
  0
ARC
  5
AEE3
330
1A
100
AcDbEntity
  8
SEIHIN
 48
5.0
100
AcDbCircle
 10
491.8067417307518
 20
195.8120175125414
 30
0.0
 40
1.500000000000202
100
AcDbArc
 50
70.59401116657267
 51
250.5940111665861
  0
ARC
  5
AEEB
330
1A
100
AcDbEntity
  8
SEIHIN
 48
5.0
100
AcDbCircle
 10
503.5235743943519
 20
194.1624145835192
 30
0.0
 40
0.5
100
AcDbArc
 50
163.3937218759314
 51
270.0
  0
ARC
  5
AEED
330
1A
100
AcDbEntity
  8
SEIHIN
 48
5.0
100
AcDbCircle
 10
513.3494624949712
 20
190.1624145835192
 30
0.0
 40
3.5
100
AcDbArc
 50
5.009256871090301
 51
90.0
  0
LINE
  5
AEEE
330
1A
100
AcDbEntity
  8
SEIHIN
 48
5.0
100
AcDbLine
 10
511.933994813008
 20
215.3156353530285
 30
0.0
 11
511.7966724053347
 21
214.925817297948
 31
0.0
  0
ARC
  5
AEEF
330
1A
100
AcDbEntity
  8
SEIHIN
 48
5.0
100
AcDbCircle
 10
509.1044310119116
 20
216.3124145138888
 30
0.0
 40
3.0
100
AcDbArc
 50
340.5940111665727
 51
90.0
  0
LINE
  5
AEF0
330
1A
100
AcDbEntity
  8
SEIHIN
 48
5.0
100
AcDbLine
 10
514.5053096261356
 20
211.3764594041452
 30
0.0
 11
506.6922882859239
 21
214.0058885559843
 31
0.0
  0
LINE
  5
AEF2
330
1A
100
AcDbEntity
  8
SEIHIN
 48
5.0
100
AcDbLine
 10
517.1599494889721
 20
213.1208360366622
 30
0.0
 11
507.7243635363629
 21
216.296330341379
 31
0.0
  0
LINE
  5
AEF5
330
1A
100
AcDbEntity
  8
SEIHIN
 48
5.0
100
AcDbLine
 10
510.7266409101448
 20
215.285930483913
 30
0.0
 11
510.7266409101448
 21
216.3124145138886
 31
0.0
  0
ARC
  5
AEF8
330
1A
100
AcDbEntity
  8
SEIHIN
 48
5.0
100
AcDbCircle
 10
509.7266409101449
 20
216.3124145138886
 30
0.0
 40
1.0
100
AcDbArc
 50
0.0
 51
90.0
  0
ARC
  5
AEFB
330
1A
100
AcDbEntity
  8
SEIHIN
 48
5.0
100
AcDbCircle
 10
505.3864694569831
 20
219.3124145138888
 30
0.0
 40
1.500000000000113
100
AcDbArc
 50
0.0000000001042204
 51
179.9999999998957
  0
ARC
  5
AF04
330
1A
100
AcDbEntity
  8
SEIHIN
 48
5.0
100
AcDbCircle
 10
506.4597405739671
 20
216.7957114200774
 30
0.0
 40
0.5167390477541332
100
AcDbArc
 50
89.3241072775111
 51
159.0519240631076
  0
ARC
  5
AF06
330
1A
100
AcDbEntity
  8
SEIHIN
 48
5.0
100
AcDbCircle
 10
506.8838462949836
 20
216.8124145138884
 30
0.0
 40
0.5000000000002274
100
AcDbArc
 50
0.0
 51
90.0
  0
LINE
  5
AF07
330
1A
100
AcDbEntity
  8
SEIHIN
 48
5.0
100
AcDbLine
 10
507.3838462949836
 20
216.7702135017707
 30
0.0
 11
507.3838462949836
 21
216.8124145138884
 31
0.0
  0
ARC
  5
AF08
330
1A
100
AcDbEntity
  8
SEIHIN
 48
5.0
100
AcDbCircle
 10
507.8838462949836
 20
216.7702135017707
 30
0.0
 40
0.500000000000168
100
AcDbArc
 50
180.0
 51
251.3996247086021
  0
ARC
  5
AF0D
330
1A
100
AcDbEntity
  8
SEIHIN
 48
5.0
100
AcDbCircle
 10
506.1279488509357
 20
215.3124145138873
 30
0.0
 40
2.000000000001414
100
AcDbArc
 50
90.00000000002605
 51
160.0274348654372
  0
LINE
  5
AF0E
330
1A
100
AcDbEntity
  8
SEIHIN
 48
5.0
100
AcDbLine
 10
506.8864694569831
 20
219.3124145138888
 30
0.0
 11
509.1044310119116
 21
219.3124145138888
 31
0.0
  0
ARC
  5
AF14
330
1A
100
AcDbEntity
  8
SEIHIN
 48
5.0
100
AcDbCircle
 10
505.5557881694608
 20
209.0980669308078
 30
0.0
 40
0.4999999999999853
100
AcDbArc
 50
160.5940111665721
 51
240.6106091963231
  0
LINE
  5
AF15
330
1A
100
AcDbEntity
  8
SEIHIN
 48
5.0
100
AcDbLine
 10
505.0841942026115
 20
209.2641967909512
 30
0.0
 11
505.4164539228984
 21
210.2073847246499
 31
0.0
  0
ARC
  5
AF16
330
1A
100
AcDbEntity
  8
SEIHIN
 48
5.0
100
AcDbCircle
 10
505.8880478897476
 20
210.0412548645067
 30
0.0
 40
0.5000000000000925
100
AcDbArc
 50
70.59401116657295
 51
160.5940111666006
  0
LINE
  5
AF17
330
1A
100
AcDbEntity
  8
SEIHIN
 48
5.0
100
AcDbLine
 10
506.0541777498911
 20
210.5128488313562
 30
0.0
 11
507.4218002537543
 21
210.0310722369402
 31
0.0
  0
ARC
  5
AF18
330
1A
100
AcDbEntity
  8
SEIHIN
 48
5.0
100
AcDbCircle
 10
507.5879301138977
 20
210.5026662037897
 30
0.0
 40
0.5000000000000925
100
AcDbArc
 50
250.594011166573
 51
340.5940111666006
  0
ARC
  5
AF1B
330
1A
100
AcDbEntity
  8
SEIHIN
 48
5.0
100
AcDbCircle
 10
506.532763601876
 20
213.5320195053646
 30
0.0
 40
0.4999999999992754
100
AcDbArc
 50
71.39962470853344
 51
160.3786052324751
  0
LINE
  5
AF1C
330
1A
100
AcDbEntity
  8
SEIHIN
 48
5.0
100
AcDbLine
 10
506.6922882859239
 20
214.0058885559843
 30
0.0
 11
506.6922463604969
 21
214.0059026657552
 31
0.0
  0
ARC
  5
AF24
330
1A
100
AcDbEntity
  8
SEIHIN
 48
5.0
100
AcDbCircle
 10
505.9844238464206
 20
207.6624145835194
 30
0.0
 40
1.000000000000153
100
AcDbArc
 50
343.3937218759031
 51
89.99999999998697
  0
LINE
  5
AF25
330
1A
100
AcDbEntity
  8
SEIHIN
 48
5.0
100
AcDbLine
 10
505.3104169561902
 20
208.6624145835191
 30
0.0
 11
505.9844238464209
 21
208.6624145835192
 31
0.0
  0
LINE
  5
AF26
330
1A
100
AcDbEntity
  8
SEIHIN
 48
5.0
100
AcDbLine
 10
508.0595240807469
 20
210.3365363436465
 30
0.0
 11
509.0702209567841
 21
213.2056084577221
 31
0.0
  0
LINE
  5
AF28
330
1A
100
AcDbEntity
  8
SEIHIN
 48
5.0
100
AcDbLine
 10
510.9659409878711
 20
212.5676143583319
 30
0.0
 11
506.7548988057908
 21
200.6137002004361
 31
0.0
  0
ARC
  5
AF2C
330
1A
100
AcDbEntity
  8
SEIHIN
 48
5.0
100
AcDbCircle
 10
502.2091820322932
 20
216.3124145138888
 30
0.0
 40
1.000000000000002
100
AcDbArc
 50
90.0
 51
160.5940111665843
  0
ARC
  5
AF2D
330
1A
100
AcDbEntity
  8
SEIHIN
 48
5.0
100
AcDbCircle
 10
502.2091820322932
 20
216.3124145138888
 30
0.0
 40
3.00000000000005
100
AcDbArc
 50
90.0
 51
160.5940111665726
  0
ARC
  5
AF30
330
1A
100
AcDbEntity
  8
SEIHIN
 48
5.0
100
AcDbCircle
 10
493.0008173045487
 20
200.7064948561269
 30
0.0
 40
0.5000000000000925
100
AcDbArc
 50
340.5940111665724
 51
125.4971308558409
  0
LINE
  5
AF31
330
1A
100
AcDbEntity
  8
SEIHIN
 48
5.0
100
AcDbLine
 10
496.6245129924571
 20
209.4882576461305
 30
0.0
 11
499.3796182311968
 21
217.3091936747492
 31
0.0
  0
LINE
  5
AF32
330
1A
100
AcDbEntity
  8
SEIHIN
 48
5.0
100
AcDbLine
 10
509.7266409101449
 20
217.3124145138888
 30
0.0
 11
502.2091820322932
 21
217.3124145138888
 31
0.0
  0
LINE
  5
AF33
330
1A
100
AcDbEntity
  8
SEIHIN
 48
5.0
100
AcDbLine
 10
502.2091820322932
 20
219.3124145138888
 30
0.0
 11
503.8864694569831
 21
219.3124145138888
 31
0.0
  0
ARC
  5
AF35
330
1A
100
AcDbEntity
  8
SEIHIN
 48
5.0
100
AcDbCircle
 10
504.3332768869233
 20
213.3121271418922
 30
0.0
 40
4.000295284963998
100
AcDbArc
 50
92.19943876885308
 51
160.5911362557905
  0
ARC
  5
AF39
330
1A
100
AcDbEntity
  8
SEIHIN
 48
5.0
100
AcDbCircle
 10
516.2030529372479
 20
210.2775370743125
 30
0.0
 40
3.000000000000146
100
AcDbArc
 50
247.554059731769
 51
71.39962470858879
  0
ARC
  5
AF3D
330
1A
100
AcDbEntity
  8
SEIHIN
 48
5.0
100
AcDbCircle
 10
516.2030529372498
 20
210.2775370743148
 30
0.0
 40
3.000000000002982
100
AcDbArc
 50
224.0132697836718
 51
247.5540597317553
  0
ARC
  5
AF3E
330
1A
100
AcDbEntity
  8
SEIHIN
 48
5.0
100
AcDbCircle
 10
514.4051056942823
 20
208.5404746944537
 30
0.0
 40
0.4999999999981257
100
AcDbArc
 50
156.399624708446
 51
224.0132697837983
  0
LINE
  5
AF3F
330
1A
100
AcDbEntity
  8
SEIHIN
 48
5.0
100
AcDbLine
 10
513.9469256406705
 20
208.7406522118485
 30
0.0
 11
513.9473354554972
 21
208.7415902241778
 31
0.0
  0
LINE
  5
AF42
330
1A
100
AcDbEntity
  8
SEIHIN
 48
5.0
100
AcDbLine
 10
513.9473354554972
 20
208.7415902241778
 30
0.0
 11
514.8040069211289
 21
210.7023987263592
 31
0.0
  0
ARC
  5
AF43
330
1A
100
AcDbEntity
  8
SEIHIN
 48
5.0
100
AcDbCircle
 10
514.3458268675151
 20
210.9025762437536
 30
0.0
 40
0.5000000000000271
100
AcDbArc
 50
336.3996247086029
 51
71.39962470858853
  0
LINE
  5
AF45
330
1A
100
AcDbEntity
  8
SEIHIN
 48
5.0
100
AcDbLine
 10
639.4199854735436
 20
109.1071413755664
 30
0.0
 11
642.6647924583606
 21
172.4578036128082
 31
0.0
  0
LINE
  5
AF46
330
1A
100
AcDbEntity
  8
SEIHIN
 48
5.0
100
AcDbLine
 10
636.9232583675386
 20
109.2350231887419
 30
0.0
 11
640.221905163726
 21
173.6368381512449
 31
0.0
  0
LINE
  5
AF48
330
1A
100
AcDbEntity
  8
SEIHIN
 48
5.0
100
AcDbLine
 10
635.1533323057467
 20
109.8682455671974
 30
0.0
 11
638.359492925448
 21
172.4643874786886
 31
0.0
  0
LINE
  5
AF49
330
1A
100
AcDbEntity
  8
SEIHIN
 48
5.0
100
AcDbLine
 10
639.6608598371451
 20
172.4578036128082
 30
0.0
 11
636.4695889602788
 21
110.1523646841165
 31
0.0
  0
LINE
  5
AF4A
330
1A
100
AcDbEntity
  8
SEIHIN
 48
5.0
100
AcDbLine
 10
621.7222016514559
 20
164.3414490523337
 30
0.0
 11
621.3405973823785
 21
156.8911189489613
 31
0.0
  0
LINE
  5
AF4B
330
1A
100
AcDbEntity
  8
SEIHIN
 48
5.0
100
AcDbLine
 10
636.9756933913429
 20
168.9066508875382
 30
0.0
 11
633.9728618542742
 21
110.2802464972917
 31
0.0
  0
LINE
  5
AF4D
330
1A
100
AcDbEntity
  8
SEIHIN
 48
5.0
100
AcDbLine
 10
632.0570938717262
 20
111.975953992929
 30
0.0
 11
634.0354346477827
 21
150.6005005007992
 31
0.0
  0
ARC
  5
AF4E
330
1A
100
AcDbEntity
  8
SEIHIN
 48
5.0
100
AcDbCircle
 10
629.9324224707245
 20
109.5930922656325
 30
0.0
 40
9.500000000000744
100
AcDbArc
 50
273.5680672902367
 51
357.0678850862182
  0
ARC
  5
AF50
330
1A
100
AcDbEntity
  8
SEIHIN
 48
5.0
100
AcDbCircle
 10
629.9324224707254
 20
109.5930922656321
 30
0.0
 40
7.000000000000035
100
AcDbArc
 50
273.568067290243
 51
357.0678850862242
  0
ARC
  5
AF52
330
1A
100
AcDbEntity
  8
SEIHIN
 48
5.0
100
AcDbCircle
 10
628.9801204440266
 20
110.5353048550164
 30
0.0
 40
7.499214907810107
100
AcDbArc
 50
276.8330771051192
 51
353.775655568198
  0
ARC
  5
AF53
330
1A
100
AcDbEntity
  8
SEIHIN
 48
5.0
100
AcDbCircle
 10
629.4015983596157
 20
110.1181870044565
 30
0.0
 40
5.757161983923628
100
AcDbArc
 50
273.0929931617119
 51
357.5117789188271
  0
ARC
  5
AF54
330
1A
100
AcDbEntity
  8
SEIHIN
 48
5.0
100
AcDbCircle
 10
628.9794076422642
 20
110.5360101236422
 30
0.0
 40
5.000000000000279
100
AcDbArc
 50
273.5166746585205
 51
357.0678850862112
  0
ARC
  5
AF55
330
1A
100
AcDbEntity
  8
SEIHIN
 48
5.0
100
AcDbCircle
 10
633.5390272635688
 20
152.4836026102969
 30
0.0
 40
0.9984759788300697
100
AcDbArc
 50
355.4846232844226
 51
89.4126565849813
  0
LINE
  5
AF56
330
1A
100
AcDbEntity
  8
SEIHIN
 48
5.0
100
AcDbLine
 10
632.4972310280557
 20
112.6318226852077
 30
0.0
 11
634.5344042140184
 21
152.4049959514573
 31
0.0
  0
LWPOLYLINE
  5
AF59
330
1A
100
AcDbEntity
  8
SEIHIN
 48
5.0
100
AcDbPolyline
 90
        7
 70
     0
 43
0.0
 10
634.0354346477827
 20
150.6005005007992
 10
634.022852536548
 20
150.7760658826694
 10
633.9659482037371
 20
150.9137323606969
 10
633.8667473422476
 20
151.0085992534559
 10
633.7287813260675
 20
151.0572894685276
 10
633.5569614996455
 20
151.0580697209761
 10
633.3574043427818
 20
151.0109122352037
  0
ARC
  5
AF5A
330
1A
100
AcDbEntity
  8
SEIHIN
 48
5.0
100
AcDbCircle
 10
567.9470809382904
 20
1103.662414513888
 30
0.0
 40
996.7
100
AcDbArc
 50
270.8159911212216
 51
273.39224662959
  0
ARC
  5
AF5B
330
1A
100
AcDbEntity
  8
SEIHIN
 48
5.0
100
AcDbCircle
 10
567.9470809382904
 20
1103.662414513888
 30
0.0
 40
995.7
100
AcDbArc
 50
270.575441827379
 51
273.385178301602
  0
ARC
  5
AF5C
330
1A
100
AcDbEntity
  8
SEIHIN
 48
5.0
100
AcDbCircle
 10
567.9470809382904
 20
1103.662414513888
 30
0.0
 40
998.0
100
AcDbArc
 50
270.6698055978818
 51
273.4247174409925
  0
ARC
  5
AF5D
330
1A
100
AcDbEntity
  8
SEIHIN
 48
5.0
100
AcDbCircle
 10
567.9470809382904
 20
1103.662414513888
 30
0.0
 40
998.4060114763977
100
AcDbArc
 50
270.5786646499946
 51
273.3856193495967
  0
ARC
  5
AF60
330
1A
100
AcDbEntity
  8
SEIHIN
 48
5.0
100
AcDbCircle
 10
567.9470809382904
 20
159.6259231164842
 30
0.0
 40
53.46350860259562
100
AcDbArc
 50
285.3216660895858
 51
357.0678850862242
  0
ARC
  5
AF61
330
1A
100
AcDbEntity
  8
SEIHIN
 48
5.0
100
AcDbCircle
 10
567.9470809382904
 20
1103.662414513888
 30
0.0
 40
997.9999999999998
100
AcDbArc
 50
269.536522969584
 51
270.4653199255665
  0
ARC
  5
AF62
330
1A
100
AcDbEntity
  8
SEIHIN
 48
5.0
100
AcDbCircle
 10
554.0802303044109
 20
104.0111881440928
 30
0.0
 40
3.069812613403221
100
AcDbArc
 50
57.58902505480667
 51
96.12238914810514
  0
LINE
  5
AF63
330
1A
100
AcDbEntity
  8
SEIHIN
 48
5.0
100
AcDbLine
 10
555.7256146091884
 20
106.6028015355925
 30
0.0
 11
556.2804142716193
 21
105.7306087832189
 31
0.0
  0
LINE
  5
AF66
330
1A
100
AcDbEntity
  8
SEIHIN
 48
5.0
100
AcDbLine
 10
557.8637476049569
 20
105.3073223041588
 30
0.0
 11
557.8637476049569
 21
107.239861900759
 31
0.0
  0
LINE
  5
AF68
330
1A
100
AcDbEntity
  8
SEIHIN
 48
5.0
100
AcDbLine
 10
557.784160480505
 20
105.3081293024881
 30
0.0
 11
556.2804142716193
 21
105.7306087832189
 31
0.0
  0
LINE
  5
AF69
330
1A
100
AcDbEntity
  8
SEIHIN
 48
5.0
100
AcDbLine
 10
557.9470809382903
 20
107.2219250533644
 30
0.0
 11
557.9470809382907
 21
108.0126317087094
 31
0.0
  0
ARC
  5
AF6C
330
1A
100
AcDbEntity
  8
SEIHIN
 48
5.0
100
AcDbCircle
 10
567.9470809382904
 20
153.8837720574617
 30
0.0
 40
47.72135754389757
100
AcDbArc
 50
257.8016863502316
 51
257.9040304535878
  0
ARC
  5
AF6D
330
1A
100
AcDbEntity
  8
SEIHIN
 48
5.0
100
AcDbCircle
 10
559.8903254174299
 20
107.6950010457183
 30
0.0
 40
2.000000000031034
100
AcDbArc
 50
193.6822997369261
 51
269.536522969584
  0
LINE
  5
AF75
330
1A
100
AcDbEntity
  8
SEIHIN
 48
5.0
100
AcDbLine
 10
579.6137476049572
 20
105.7306087832119
 30
0.0
 11
580.1685472673918
 21
106.6028015355925
 31
0.0
  0
ARC
  5
AF76
330
1A
100
AcDbEntity
  8
SEIHIN
 48
5.0
100
AcDbCircle
 10
581.7099653814923
 20
104.456396869697
 30
0.0
 40
2.642540972672744
100
AcDbArc
 50
80.60496271062094
 51
125.6836230864661
  0
LINE
  5
AF78
330
1A
100
AcDbEntity
  8
SEIHIN
 48
5.0
100
AcDbLine
 10
577.9470809382903
 20
107.1059578451725
 30
0.0
 11
577.9470809382903
 21
108.0126317087094
 31
0.0
  0
LINE
  5
AF79
330
1A
100
AcDbEntity
  8
SEIHIN
 48
5.0
100
AcDbLine
 10
579.6137476049555
 20
105.7306087832173
 30
0.0
 11
578.1100013960752
 21
105.3081293024881
 31
0.0
  0
LINE
  5
AF7B
330
1A
100
AcDbEntity
  8
SEIHIN
 48
5.0
100
AcDbLine
 10
578.0304142716233
 20
107.121893356963
 30
0.0
 11
578.0304142716233
 21
105.3073223041588
 31
0.0
  0
ARC
  5
AF7E
330
1A
100
AcDbEntity
  8
SEIHIN
 48
5.0
100
AcDbCircle
 10
567.9470809382904
 20
159.6259231164842
 30
0.0
 40
53.46350860259549
100
AcDbArc
 50
280.7802943449654
 51
280.871219229126
  0
ARC
  5
AF7F
330
1A
100
AcDbEntity
  8
SEIHIN
 48
5.0
100
AcDbCircle
 10
576.0358713365993
 20
107.6952607031357
 30
0.0
 40
2.00000000000019
100
AcDbArc
 50
270.4653199255665
 51
342.8633632892153
  0
LINE
  5
AF82
330
1A
100
AcDbEntity
  8
SEIHIN
 48
5.0
100
AcDbLine
 10
630.7875797827352
 20
112.6044230501507
 30
0.0
 11
632.5689410317793
 21
147.3831989029897
 31
0.0
  0
ARC
  5
AF9A
330
1A
100
AcDbEntity
  8
SEIHIN
 48
5.0
100
AcDbCircle
 10
626.7135757219755
 20
112.7812408796819
 30
0.0
 40
4.077839333756179
100
AcDbArc
 50
272.9452940382925
 51
357.5148376783397
  0
ARC
  5
AF9B
330
1A
100
AcDbEntity
  8
SEIHIN
 48
5.0
100
AcDbCircle
 10
627.1690543054776
 20
112.3295124506906
 30
0.0
 40
4.900809564170875
100
AcDbArc
 50
274.6295853985892
 51
355.8629242244323
  0
ARC
  5
AF9C
330
1A
100
AcDbEntity
  8
SEIHIN
 48
5.0
100
AcDbCircle
 10
626.5494069762628
 20
112.9441044565144
 30
0.0
 40
3.249999999999979
100
AcDbArc
 50
273.385178301602
 51
357.0678850862242
  0
ARC
  5
AF9D
330
1A
100
AcDbEntity
  8
SEIHIN
 48
5.0
100
AcDbCircle
 10
626.5527510412832
 20
112.9407867152431
 30
0.0
 40
5.952502801952854
100
AcDbArc
 50
273.4137919137296
 51
357.0396226522086
  0
ARC
  5
AFA5
330
1A
100
AcDbEntity
  8
SEIHIN
 48
5.0
100
AcDbCircle
 10
641.3861602985764
 20
147.3663660706847
 30
0.0
 40
8.817235334446923
100
AcDbArc
 50
155.5849633180604
 51
179.8906175464799
  0
LINE
  5
AFA7
330
1A
100
AcDbEntity
  8
SEIHIN
 48
5.0
100
AcDbLine
 10
632.7196164113236
 20
151.3055216057535
 30
0.0
 11
632.9474269850837
 21
151.3055216057535
 31
0.0
  0
ARC
  5
AFA8
330
1A
100
AcDbEntity
  8
SEIHIN
 48
5.0
100
AcDbCircle
 10
632.7083732416724
 20
150.3163309903066
 30
0.0
 40
0.9892545084820188
100
AcDbArc
 50
89.34880252462688
 51
176.5365488197156
  0
LINE
  5
AFA9
330
1A
100
AcDbEntity
  8
SEIHIN
 48
5.0
100
AcDbLine
 10
629.7951522140699
 20
112.7778580993867
 30
0.0
 11
631.7209255689215
 21
150.3760936553326
 31
0.0
  0
LINE
  5
AFAC
330
1A
100
AcDbEntity
  8
SEIHIN
 48
5.0
100
AcDbLine
 10
633.5492625378795
 20
153.4820261273778
 30
0.0
 11
632.831096494165
 21
153.4820261273778
 31
0.0
  0
ARC
  5
AFAD
330
1A
100
AcDbEntity
  8
SEIHIN
 48
5.0
100
AcDbCircle
 10
632.8561151609039
 20
152.4548714161162
 30
0.0
 40
1.027459359075698
100
AcDbArc
 50
91.39529188595224
 51
177.8306924287895
  0
LINE
  5
AFAE
330
1A
100
AcDbEntity
  8
SEIHIN
 48
5.0
100
AcDbLine
 10
631.7209255689215
 20
150.3760936553326
 30
0.0
 11
631.829392144172
 21
152.4937633364154
 31
0.0
  0
LWPOLYLINE
  5
AFB4
330
1A
100
AcDbEntity
  8
SEIHIN
 48
5.0
100
AcDbPolyline
 90
        3
 70
     0
 43
0.0
 10
633.3574043427818
 20
151.0109122352037
 10
632.9525901963545
 20
151.3032374004362
 10
632.9474269850837
 20
151.3055216057535
  0
LINE
  5
AFBF
330
1A
100
AcDbEntity
  8
SEIHIN
 48
5.0
100
AcDbLine
 10
638.6700290887536
 20
176.6624145138885
 30
0.0
 11
629.7448924481971
 21
176.6624145138885
 31
0.0
  0
ARC
  5
AFC0
330
1A
100
AcDbEntity
  8
SEIHIN
 48
5.0
100
AcDbCircle
 10
631.9822391793334
 20
169.1624145138885
 30
0.0
 40
5.000000000000389
100
AcDbArc
 50
357.0678850862242
 51
89.98543580262019
  0
LINE
  5
AFC1
330
1A
100
AcDbEntity
  8
SEIHIN
 48
5.0
100
AcDbLine
 10
635.96187278427
 20
167.6624145138887
 30
0.0
 11
625.2176195998624
 21
167.6624145138887
 31
0.0
  0
ARC
  5
AFC2
330
1A
100
AcDbEntity
  8
SEIHIN
 48
5.0
100
AcDbCircle
 10
630.0448924481973
 20
173.8624145138885
 30
0.0
 40
0.2999999999999545
100
AcDbArc
 50
90.0
 51
180.0
  0
ARC
  5
AFC6
330
1A
100
AcDbEntity
  8
SEIHIN
 48
5.0
100
AcDbCircle
 10
629.7448924481971
 20
174.1624145138885
 30
0.0
 40
2.5
100
AcDbArc
 50
90.0
 51
221.3014968674826
  0
LINE
  5
AFC9
330
1A
100
AcDbEntity
  8
SEIHIN
 48
5.0
100
AcDbLine
 10
631.9822391793334
 20
174.1624145138885
 30
0.0
 11
631.9835101494211
 21
174.162414352352
 31
0.0
  0
LINE
  5
AFCA
330
1A
100
AcDbEntity
  8
SEIHIN
 48
5.0
100
AcDbLine
 10
631.9822391793334
 20
174.1624145138885
 30
0.0
 11
630.0448924481973
 21
174.1624145138885
 31
0.0
  0
LINE
  5
AFCB
330
1A
100
AcDbEntity
  8
SEIHIN
 48
5.0
100
AcDbLine
 10
629.7448924481971
 20
173.8624145138885
 30
0.0
 11
629.7448924481971
 21
172.2259228407849
 31
0.0
  0
LINE
  5
AFCC
330
1A
100
AcDbEntity
  8
SEIHIN
 48
5.0
100
AcDbLine
 10
629.7448924481971
 20
172.2259228407849
 30
0.0
 11
629.7448924481971
 21
172.2252838400502
 31
0.0
  0
ARC
  5
AFCE
330
1A
100
AcDbEntity
  8
SEIHIN
 48
5.0
100
AcDbCircle
 10
629.2448924481966
 20
172.2259228407852
 30
0.0
 40
0.5000000000003199
100
AcDbArc
 50
255.5224878140972
 51
359.9267879029958
  0
ARC
  5
AFCF
330
1A
100
AcDbEntity
  8
SEIHIN
 48
5.0
100
AcDbCircle
 10
629.7448924481962
 20
174.1624145138873
 30
0.0
 40
2.49999999999853
100
AcDbArc
 50
221.3014968674735
 51
255.5224878140835
  0
ARC
  5
AFD0
330
1A
100
AcDbEntity
  8
SEIHIN
 48
5.0
100
AcDbCircle
 10
625.2176195998624
 20
164.1624145138885
 30
0.0
 40
3.500000000000227
100
AcDbArc
 50
90.0
 51
177.0678850862242
  0
LINE
  5
AFD1
330
1A
100
AcDbEntity
  8
SEIHIN
 48
5.0
100
AcDbLine
 10
642.6651242432305
 20
172.4643874786886
 30
0.0
 11
642.6647924583606
 21
172.4578036128082
 31
0.0
  0
ARC
  5
AFD4
330
1A
100
AcDbEntity
  8
SEIHIN
 48
5.0
100
AcDbCircle
 10
639.7225597425169
 20
173.6624145138803
 30
0.0
 40
0.5000000000082979
100
AcDbArc
 50
357.0678850872026
 51
89.99999999900991
  0
LINE
  5
AFD5
330
1A
100
AcDbEntity
  8
SEIHIN
 48
5.0
100
AcDbLine
 10
639.3741957110858
 20
174.1624145138885
 30
0.0
 11
639.722559742526
 21
174.1624145138885
 31
0.0
  0
ARC
  5
AFD7
330
1A
100
AcDbEntity
  8
SEIHIN
 48
5.0
100
AcDbCircle
 10
638.6700290887536
 20
172.6624145138908
 30
0.0
 40
3.999999999997774
100
AcDbArc
 50
65.04357224916531
 51
90.0
  0
ARC
  5
AFDC
330
1A
100
AcDbEntity
  8
SEIHIN
 48
5.0
100
AcDbCircle
 10
634.2982810880851
 20
172.5995087397764
 30
0.0
 40
4.063459036723809
100
AcDbArc
 50
358.0944054357567
 51
90.94549726333605
  0
LINE
  5
AFDE
330
1A
100
AcDbEntity
  8
SEIHIN
 48
5.0
100
AcDbLine
 10
639.6608598371456
 20
172.4578036128082
 30
0.0
 11
639.6611916220156
 21
172.4643874786886
 31
0.0
  0
ARC
  5
AFE0
330
1A
100
AcDbEntity
  8
SEIHIN
 48
5.0
100
AcDbCircle
 10
635.6660964675381
 20
172.6624145138887
 30
0.0
 40
3.999999999999772
100
AcDbArc
 50
357.1623116999737
 51
90.0
  0
ARC
  5
AFE4
330
1A
100
AcDbEntity
  8
SEIHIN
 48
5.0
100
AcDbCircle
 10
638.6700290887532
 20
172.6624145138887
 30
0.0
 40
3.999999999999726
100
AcDbArc
 50
357.1623116999737
 51
65.0435722491785
  0
ARC
  5
AFEB
330
1A
100
AcDbEntity
  8
SEIHIN
 48
5.0
100
AcDbCircle
 10
635.96187278427
 20
168.6624145138885
 30
0.0
 40
0.9999999999997726
100
AcDbArc
 50
270.0
 51
357.0678850862112
  0
ARC
  5
AFEC
330
1A
100
AcDbEntity
  8
SEIHIN
 48
5.0
100
AcDbCircle
 10
637.2448924481971
 20
174.1624145138885
 30
0.0
 40
3.000000000000071
100
AcDbArc
 50
190.9400440935274
 51
256.1278409926651
  0
LINE
  5
AFEE
330
1A
100
AcDbEntity
  8
SEIHIN
 48
5.0
100
AcDbLine
 10
636.4695889602788
 20
110.1523646841165
 30
0.0
 11
636.4351273774903
 21
109.722226841829
 31
0.0
  0
LINE
  5
AFEF
330
1A
100
AcDbEntity
  8
SEIHIN
 48
5.0
100
AcDbLine
 10
629.439450305778
 20
103.0501327036098
 30
0.0
 11
629.8723559751531
 21
103.0893569643502
 31
0.0
  0
LINE
  5
C871
330
1A
100
AcDbEntity
  8
SEIHIN
 48
5.0
100
AcDbLine
 10
179.8106757473326
 20
339.2111555258175
 30
0.0
 11
238.9965049271509
 21
339.2111555258173
 31
0.0
  0
LINE
  5
C872
330
1A
100
AcDbEntity
  8
SEIHIN
 48
5.0
100
AcDbLine
 10
176.660675747334
 20
336.5223550869487
 30
0.0
 11
283.518890075537
 21
336.5223550869487
 31
0.0
  0
LINE
  5
C873
330
1A
100
AcDbEntity
  8
SEIHIN
 48
5.0
100
AcDbLine
 10
218.0106757473327
 20
341.5539501409785
 30
0.0
 11
179.9206261174813
 21
341.5539501409785
 31
0.0
  0
LINE
  5
C874
330
1A
100
AcDbEntity
  8
SEIHIN
 48
5.0
100
AcDbLine
 10
162.5106757473327
 20
352.735299389697
 30
0.0
 11
245.0106757473329
 21
352.735299389697
 31
0.0
  0
LINE
  5
C875
330
1A
100
AcDbEntity
  8
SEIHIN
 48
5.0
100
AcDbLine
 10
162.5106757473327
 20
349.163403839656
 30
0.0
 11
245.0106757473329
 21
349.163403839656
 31
0.0
  0
LINE
  5
C876
330
1A
100
AcDbEntity
  8
SEIHIN
 48
5.0
100
AcDbLine
 10
162.5106757473327
 20
453.6679066132119
 30
0.0
 11
245.0106757473327
 21
453.6679066132119
 31
0.0
  0
LINE
  5
C877
330
1A
100
AcDbEntity
  8
SEIHIN
 48
5.0
100
AcDbLine
 10
162.5106757473329
 20
410.274390169124
 30
0.0
 11
244.0106757473329
 21
410.274390169124
 31
0.0
  0
LINE
  5
C878
330
1A
100
AcDbEntity
  8
SEIHIN
 48
5.0
100
AcDbLine
 10
127.5105757473325
 20
467.913889283853
 30
0.0
 11
218.0106757473325
 21
467.913889283853
 31
0.0
  0
LINE
  5
C879
330
1A
100
AcDbEntity
  8
SEIHIN
 48
5.0
100
AcDbLine
 10
127.5105757473325
 20
466.5722016790307
 30
0.0
 11
218.0106757473325
 21
466.5722016790307
 31
0.0
  0
LINE
  5
C87A
330
1A
100
AcDbEntity
  8
SEIHIN
 48
5.0
100
AcDbLine
 10
159.0866490215226
 20
457.5449288306961
 30
0.0
 11
245.0106757473327
 21
457.5449288306962
 31
0.0
  0
LINE
  5
C87B
330
1A
100
AcDbEntity
  8
SEIHIN
 48
5.0
100
AcDbLine
 10
133.6186116071264
 20
470.9973383195865
 30
0.0
 11
239.0326097018633
 21
470.9973383195865
 31
0.0
  0
LINE
  5
C87C
330
1A
100
AcDbEntity
  8
SEIHIN
 48
5.0
100
AcDbLine
 10
162.5106757473329
 20
390.2743901691238
 30
0.0
 11
244.0106757473354
 21
390.274390169124
 31
0.0
  0
LINE
  5
C87D
330
1A
100
AcDbEntity
  8
SEIHIN
 48
5.0
100
AcDbLine
 10
176.6606757473303
 20
332.8876225701499
 30
0.0
 11
284.0096430154904
 21
332.8876225701497
 31
0.0
  0
LINE
  5
C87E
330
1A
100
AcDbEntity
  8
SEIHIN
 48
5.0
100
AcDbLine
 10
176.6606757473328
 20
318.3721383772556
 30
0.0
 11
284.0106757473327
 21
318.3721383772554
 31
0.0
  0
LINE
  5
C87F
330
1A
100
AcDbEntity
  8
SEIHIN
 48
5.0
100
AcDbLine
 10
284.0113246394821
 20
474.9973383195865
 30
0.0
 11
132.5094306878711
 21
474.9973383195867
 31
0.0
  0
LINE
  5
C880
330
1A
100
AcDbEntity
  8
SEIHIN
 48
5.0
100
AcDbLine
 10
128.247536026518
 20
409.283413177796
 30
0.0
 11
128.247536026518
 21
391.2653671604519
 31
0.0
  0
LINE
  5
C881
330
1A
100
AcDbEntity
  8
SEIHIN
 48
5.0
100
AcDbLine
 10
125.510675747333
 20
410.274390169124
 30
0.0
 11
125.5106757473331
 21
390.2743901691242
 31
0.0
  0
LINE
  5
C882
330
1A
100
AcDbEntity
  8
SEIHIN
 48
5.0
100
AcDbLine
 10
81.51067574733088
 20
470.6917064850861
 30
0.0
 11
81.51067574733293
 21
322.6721383772528
 31
0.0
  0
LINE
  5
C883
330
1A
100
AcDbEntity
  8
SEIHIN
 48
5.0
100
AcDbLine
 10
158.5107846161218
 20
405.274390169124
 30
0.0
 11
158.5140571027218
 21
428.1370826095442
 31
0.0
  0
LWPOLYLINE
  5
C884
330
1A
100
AcDbEntity
  8
SEIHIN
 48
5.0
100
AcDbPolyline
 90
        7
 70
     0
 43
0.0
 10
132.2731374565829
 20
428.6921051417114
 10
132.2731485848622
 20
421.2595905250821
 10
132.273156703122
 20
413.8255135916672
 10
132.2731612901627
 20
407.4039745381808
 10
132.2731636289356
 20
400.981879657377
 10
132.2731610947437
 20
387.2665747190799
 10
132.2731483079724
 20
373.551137335435
  0
LWPOLYLINE
  5
C885
330
1A
100
AcDbEntity
  8
SEIHIN
 48
5.0
100
AcDbPolyline
 90
        6
 70
     0
 43
0.0
 10
128.778844887993
 20
433.4634565871117
 10
128.7788780950882
 20
423.288659348652
 10
128.7789003559015
 20
413.1104230638604
 10
128.7789128066441
 20
400.2743897461116
 10
128.7789048135858
 20
384.9195392536883
 10
128.7788718960136
 20
369.5646885049989
  0
LINE
  5
C886
330
1A
100
AcDbEntity
  8
SEIHIN
 48
5.0
100
AcDbLine
 10
81.51067574733088
 20
462.0722016790304
 30
0.0
 11
111.5106757473306
 21
462.0722016790304
 31
0.0
  0
LINE
  5
C887
330
1A
100
AcDbEntity
  8
SEIHIN
 48
5.0
100
AcDbLine
 10
81.51067574733293
 20
459.5722016790307
 30
0.0
 11
111.5106757473327
 21
459.5722016790307
 31
0.0
  0
LWPOLYLINE
  5
C888
330
1A
100
AcDbEntity
  8
SEIHIN
 48
5.0
100
AcDbPolyline
 90
        3
 70
     0
 43
0.0
 10
115.8419767290527
 20
471.9934056983715
 10
113.6766502487914
 20
471.9816686996771
 10
107.1832090788852
 20
471.8056412456089
  0
LINE
  5
C889
330
1A
100
AcDbEntity
  8
SEIHIN
 48
5.0
100
AcDbLine
 10
107.1832090788852
 20
471.8056412456089
 30
0.0
 11
81.51067574733293
 21
470.6917064850863
 31
0.0
  0
LINE
  5
C88A
330
1A
100
AcDbEntity
  8
SEIHIN
 48
5.0
100
AcDbLine
 10
125.0106757473329
 20
469.681121343854
 30
0.0
 11
125.0106757473329
 21
444.0167829468671
 31
0.0
  0
LINE
  5
C88B
330
1A
100
AcDbEntity
  8
SEIHIN
 48
5.0
100
AcDbLine
 10
127.510675747333
 20
440.71387974051
 30
0.0
 11
127.5106757473329
 21
467.9138892838527
 31
0.0
  0
LINE
  5
C88C
330
1A
100
AcDbEntity
  8
SEIHIN
 48
5.0
100
AcDbLine
 10
110.5106757473331
 20
459.0686226604427
 30
0.0
 11
110.510675747333
 21
414.4686443458899
 31
0.0
  0
ARC
  5
C88D
330
1A
100
AcDbEntity
  8
SEIHIN
 48
5.0
100
AcDbCircle
 10
-212.5034468513011
 20
457.5217805217406
 30
0.0
 40
371.5900965938389
100
AcDbArc
 50
359.7874857579874
 51
0.0035692566056152
  0
LINE
  5
C88E
330
1A
100
AcDbEntity
  8
SEIHIN
 48
5.0
100
AcDbLine
 10
127.5106757473329
 20
457.7658565886297
 30
0.0
 11
158.9231426741242
 21
457.7658565886297
 31
0.0
  0
LINE
  5
C88F
330
1A
100
AcDbEntity
  8
SEIHIN
 48
5.0
100
AcDbLine
 10
127.5106757473327
 20
459.4451110181046
 30
0.0
 11
159.0647859420055
 21
459.4451110181046
 31
0.0
  0
ARC
  5
C890
330
1A
100
AcDbEntity
  8
SEIHIN
 48
5.0
100
AcDbCircle
 10
113.4981014246974
 20
467.6926470718394
 30
0.0
 40
1.988192071925069
100
AcDbArc
 50
89.63763037268014
 51
178.4090789493339
  0
LINE
  5
C891
330
1A
100
AcDbEntity
  8
SEIHIN
 48
5.0
100
AcDbLine
 10
127.5106757473327
 20
459.4451110181046
 30
0.0
 11
125.5106757473329
 21
461.047208416086
 31
0.0
  0
LINE
  5
C892
330
1A
100
AcDbEntity
  8
SEIHIN
 48
5.0
100
AcDbLine
 10
127.5106757473329
 20
457.7658565886297
 30
0.0
 11
125.5106757473329
 21
459.3458680531887
 31
0.0
  0
ARC
  5
C893
330
1A
100
AcDbEntity
  8
SEIHIN
 48
5.0
100
AcDbCircle
 10
115.3057529225303
 20
464.8385039332963
 30
0.0
 40
1.593233077903437
100
AcDbArc
 50
172.4832033693635
 51
209.7367703209004
  0
ARC
  5
C894
330
1A
100
AcDbEntity
  8
SEIHIN
 48
5.0
100
AcDbCircle
 10
114.0364308335721
 20
416.8996745421877
 30
0.0
 40
47.14869832740084
100
AcDbArc
 50
90.13866034722031
 51
93.07080401088658
  0
LINE
  5
C895
330
1A
100
AcDbEntity
  8
SEIHIN
 48
5.0
100
AcDbLine
 10
124.8145596121926
 20
465.1605141954108
 30
0.0
 11
113.7262112067782
 21
465.046925642157
 31
0.0
  0
LINE
  5
C896
330
1A
100
AcDbEntity
  8
SEIHIN
 48
5.0
100
AcDbLine
 10
113.9223273419162
 20
464.0482347997552
 30
0.0
 11
125.0106757473306
 21
464.1618233530088
 31
0.0
  0
LINE
  5
C897
330
1A
100
AcDbEntity
  8
SEIHIN
 48
5.0
100
AcDbLine
 10
111.5106757473306
 20
467.7478457295085
 30
0.0
 11
111.5106757473306
 21
459.5722016790307
 31
0.0
  0
LINE
  5
C898
330
1A
100
AcDbEntity
  8
SEIHIN
 48
5.0
100
AcDbLine
 10
113.4981014246975
 20
469.6808391437648
 30
0.0
 11
127.5105757473327
 21
469.6811213438539
 31
0.0
  0
LINE
  5
C899
330
1A
100
AcDbEntity
  8
SEIHIN
 48
5.0
100
AcDbLine
 10
110.5106757473331
 20
459.0686226604427
 30
0.0
 11
125.0106757473329
 21
459.0686226604427
 31
0.0
  0
LINE
  5
C89A
330
1A
100
AcDbEntity
  8
SEIHIN
 48
5.0
100
AcDbLine
 10
115.8419767290524
 20
469.6811213438539
 30
0.0
 11
115.8419767290524
 21
471.9934053721747
 31
0.0
  0
LINE
  5
C89B
330
1A
100
AcDbEntity
  8
SEIHIN
 48
5.0
100
AcDbLine
 10
127.5094306878711
 20
471.9934056983714
 30
0.0
 11
115.8419767290524
 21
471.9934056983714
 31
0.0
  0
LINE
  5
C89C
330
1A
100
AcDbEntity
  8
SEIHIN
 48
5.0
100
AcDbLine
 10
128.6186116071262
 20
467.9934056983714
 30
0.0
 11
127.5094306878711
 21
471.9934056983714
 31
0.0
  0
LINE
  5
C89D
330
1A
100
AcDbEntity
  8
SEIHIN
 48
5.0
100
AcDbLine
 10
132.5094306878713
 20
474.9973383195867
 30
0.0
 11
127.5094306878711
 21
471.9934056983714
 31
0.0
  0
LINE
  5
C89E
330
1A
100
AcDbEntity
  8
SEIHIN
 48
5.0
100
AcDbLine
 10
128.6186116071262
 20
467.9934056983714
 30
0.0
 11
133.6186116071264
 21
470.9973383195867
 31
0.0
  0
LINE
  5
C89F
330
1A
100
AcDbEntity
  8
SEIHIN
 48
5.0
100
AcDbLine
 10
133.6186116071264
 20
470.9973383195867
 30
0.0
 11
132.5094306878713
 21
474.9973383195867
 31
0.0
  0
LWPOLYLINE
  5
C8A0
330
1A
100
AcDbEntity
  8
SEIHIN
 48
5.0
100
AcDbPolyline
 90
        3
 70
     0
 43
0.0
 10
113.7262112067782
 20
465.046925642157
 10
112.4884934314817
 20
464.9529030227936
 10
111.5106757473306
 20
464.7165310415039
  0
LINE
  5
C8A1
330
1A
100
AcDbEntity
  8
SEIHIN
 48
5.0
100
AcDbLine
 10
159.0565513873257
 20
458.5488597357709
 30
0.0
 11
158.75491042253
 21
456.7784669400285
 31
0.0
  0
LINE
  5
C8A2
330
1A
100
AcDbEntity
  8
SEIHIN
 48
5.0
100
AcDbLine
 10
159.0866490215226
 20
466.5722016790307
 30
0.0
 11
159.0866490215226
 21
457.5449288306961
 31
0.0
  0
LINE
  5
C8A3
330
1A
100
AcDbEntity
  8
SEIHIN
 48
5.0
100
AcDbLine
 10
132.2731379259098
 20
428.3786443217561
 30
0.0
 11
158.5150827304801
 21
428.3786443217561
 31
0.0
  0
ARC
  5
C8A4
330
1A
100
AcDbEntity
  8
SEIHIN
 48
5.0
100
AcDbCircle
 10
82.94462460119666
 20
390.9958023587867
 30
0.0
 40
62.08311706112959
100
AcDbArc
 50
37.3866616371848
 51
41.79416519158299
  0
LINE
  5
C8A5
330
1A
100
AcDbEntity
  8
SEIHIN
 48
5.0
100
AcDbLine
 10
127.510675747333
 20
410.274390169124
 30
0.0
 11
127.510675747333
 21
440.71387974051
 31
0.0
  0
LWPOLYLINE
  5
C8A6
330
1A
100
AcDbEntity
  8
SEIHIN
 48
5.0
100
AcDbPolyline
 90
        3
 70
     0
 43
0.0
 10
127.510675747333
 20
440.71387974051
 10
128.1745518186651
 20
437.1858303189854
 10
128.7788448879931
 20
433.4634565871117
  0
LWPOLYLINE
  5
C8A7
330
1A
100
AcDbEntity
  8
SEIHIN
 48
5.0
100
AcDbPolyline
 90
        3
 70
     0
 43
0.0
 10
125.0106757473331
 20
444.0167829468671
 10
125.510675747333
 20
443.3686674770342
 10
127.510675747333
 20
440.71387974051
  0
LINE
  5
C8A8
330
1A
100
AcDbEntity
  8
SEIHIN
 48
5.0
100
AcDbLine
 10
128.247536026518
 20
409.283413177796
 30
0.0
 11
125.510675747333
 21
409.283413177796
 31
0.0
  0
LINE
  5
C8A9
330
1A
100
AcDbEntity
  8
SEIHIN
 48
5.0
100
AcDbLine
 10
125.510675747333
 20
410.274390169124
 30
0.0
 11
127.9821388468933
 21
410.274390169124
 31
0.0
  0
ARC
  5
C8AA
330
1A
100
AcDbEntity
  8
SEIHIN
 48
5.0
100
AcDbCircle
 10
112.5106757473321
 20
414.4686443458891
 30
0.0
 40
1.999999999999235
100
AcDbArc
 50
179.999999999987
 51
260.5376777919917
  0
LINE
  5
C8AB
330
1A
100
AcDbEntity
  8
SEIHIN
 48
5.0
100
AcDbLine
 10
112.1818777727227
 20
412.4958564982255
 30
0.0
 11
125.5106757473325
 21
410.274390169124
 31
0.0
  0
LWPOLYLINE
  5
C8AC
330
1A
100
AcDbEntity
  8
SEIHIN
 48
5.0
100
AcDbPolyline
 90
       11
 70
     0
 43
0.0
 10
128.247536026518
 20
409.283413177796
 10
128.2440308945471
 20
409.4445871186844
 10
128.2332244369884
 20
409.6055149572086
 10
128.2160888766753
 20
409.7525960258046
 10
128.1922191333742
 20
409.8902650677298
 10
128.1631674402928
 20
410.0092089304641
 10
128.1285391796702
 20
410.1108512951944
 10
128.0898563190403
 20
410.1896460706582
 10
128.0471768365473
 20
410.2444070967417
 10
128.0151378807908
 20
410.2667674809506
 10
127.9821388468943
 20
410.2743901691237
  0
LWPOLYLINE
  5
C8AE
330
1A
100
AcDbEntity
  8
SEIHIN
 48
5.0
100
AcDbPolyline
 90
       33
 70
     0
 43
0.0
 10
158.5299584198619
 20
412.4655017383076
 10
158.5332421113939
 20
413.9414067469235
 10
158.5380844037099
 20
415.8632198427738
 10
158.5435269055183
 20
417.7664956593696
 10
158.5495790488517
 20
419.6535768901728
 10
158.5562210137022
 20
421.5171736734917
 10
158.5633889073197
 20
423.3410603377595
 10
158.5711234390476
 20
425.1370714383744
 10
158.5794383015652
 20
426.9072696775463
 10
158.5883063225737
 20
428.644782860609
 10
158.607511808555
 20
431.9878829568472
 10
158.6179203955389
 20
433.606146499289
 10
158.6288366275748
 20
435.1831031121066
 10
158.6401616198
 20
436.7052889626677
 10
158.6519629683016
 20
438.1825732434942
 10
158.6642593174956
 20
439.6164611010101
 10
158.6770080764251
 20
441.0011794452766
 10
158.6900945310512
 20
442.3249614469127
 10
158.703597985178
 20
443.5965002772634
 10
158.7175388624987
 20
444.816983709584
 10
158.7318677401613
 20
445.9813640360339
 10
158.7464561006873
 20
447.0798132604058
 10
158.7613934986684
 20
448.1196763685714
 10
158.7767017206615
 20
449.1017988150209
 10
158.7923254031461
 20
450.0219663772261
 10
158.8081246299721
 20
450.8725050313221
 10
158.824197515556
 20
451.6592547417944
 10
158.8405667719207
 20
452.3826990199043
 10
158.8571721401549
 20
453.0395511932595
 10
158.8899164812608
 20
454.1178444439886
 10
158.9233975796624
 20
454.9366102977574
 10
158.9573443444194
 20
455.4863220072254
 10
158.991712712833
 20
455.7633450557029
  0
ARC
  5
C8AF
330
1A
100
AcDbEntity
  8
SEIHIN
 48
5.0
100
AcDbCircle
 10
162.7349907217001
 20
458.2671545284831
 30
0.0
 40
4.223604519128888
100
AcDbArc
 50
210.1853788477689
 51
266.9555977785804
  0
ARC
  5
C8B0
330
1A
100
AcDbEntity
  8
SEIHIN
 48
5.0
100
AcDbCircle
 10
162.0924057429329
 20
414.226049063458
 30
0.0
 40
3.97373348549595
100
AcDbArc
 50
206.2983996674574
 51
276.0420713354101
  0
LINE
  5
C8B1
330
1A
100
AcDbEntity
  8
SEIHIN
 48
5.0
100
AcDbLine
 10
111.5106757473327
 20
351.5303621680816
 30
0.0
 11
81.5106757473327
 21
351.5303621680816
 31
0.0
  0
LINE
  5
C8B2
330
1A
100
AcDbEntity
  8
SEIHIN
 48
5.0
100
AcDbLine
 10
81.5106757473327
 20
349.4872587198058
 30
0.0
 11
111.5106757473327
 21
349.4872587198058
 31
0.0
  0
ARC
  5
C8B3
330
1A
100
AcDbEntity
  8
SEIHIN
 48
5.0
100
AcDbCircle
 10
115.8419767290531
 20
521.3721383772552
 30
0.0
 40
200.0
100
AcDbArc
 50
267.5187351988083
 51
270.0
  0
LINE
  5
C8B4
330
1A
100
AcDbEntity
  8
SEIHIN
 48
5.0
100
AcDbLine
 10
81.51067574733293
 20
322.6721383772528
 30
0.0
 11
107.1834356576663
 21
321.5596521144719
 31
0.0
  0
LINE
  5
C8B5
330
1A
100
AcDbEntity
  8
SEIHIN
 48
5.0
100
AcDbLine
 10
158.5025439336132
 20
339.7111555258171
 30
0.0
 11
158.5104624862442
 21
395.032828456912
 31
0.0
  0
LINE
  5
C8B7
330
1A
100
AcDbEntity
  8
SEIHIN
 48
5.0
100
AcDbLine
 10
127.510675747333
 20
343.8444065769927
 30
0.0
 11
127.510675747333
 21
390.274390169124
 31
0.0
  0
LINE
  5
C8B8
330
1A
100
AcDbEntity
  8
SEIHIN
 48
5.0
100
AcDbLine
 10
110.510675747333
 20
386.0801359923578
 30
0.0
 11
110.510675747333
 21
351.5303621680816
 31
0.0
  0
LWPOLYLINE
  5
C8B9
330
1A
100
AcDbEntity
  8
SEIHIN
 48
5.0
100
AcDbPolyline
 90
        3
 70
     0
 43
0.0
 10
127.5106757473331
 20
361.9929577941102
 10
125.510675747333
 20
359.4495971009394
 10
125.0106757473329
 20
358.8280706319963
  0
LWPOLYLINE
  5
C8BA
330
1A
100
AcDbEntity
  8
SEIHIN
 48
5.0
100
AcDbPolyline
 90
       34
 70
     0
 43
0.0
 10
158.9283489420629
 20
350.5233683613107
 10
158.9113796602305
 20
350.6973886801618
 10
158.8944565190513
 20
350.9469279315258
 10
158.8775542438843
 20
351.2730076948162
 10
158.8607500222486
 20
351.6747950436377
 10
158.8438146047549
 20
352.1598982914316
 10
158.8270336935852
 20
352.7223019550695
 10
158.8103820507035
 20
353.3635861924011
 10
158.7939401647154
 20
354.0813992390192
 10
158.7778865497184
 20
354.867091483715
 10
158.7620915128022
 20
355.7261380664761
 10
158.7465324148188
 20
356.660544632148
 10
158.7312851242
 20
357.6665498101224
 10
158.7165132338903
 20
358.7324439793038
 10
158.7020967970184
 20
359.8659422273497
 10
158.6880163076293
 20
361.0694225978739
 10
158.6743411940015
 20
362.3378260234046
 10
158.6612162736783
 20
363.6567102830174
 10
158.648534223244
 20
365.0358150072423
 10
158.6362791325546
 20
366.4778313964434
 10
158.6245123986998
 20
367.9765442113405
 10
158.6133567952006
 20
369.5151634388583
 10
158.602720160952
 20
371.105197421263
 10
158.5925906010307
 20
372.7495904350869
 10
158.5830202185027
 20
374.4411362262779
 10
158.5741072121227
 20
376.1611196848382
 10
158.5657768374631
 20
377.9225407965339
 10
158.5580677366711
 20
379.7172905407531
 10
158.550968498394
 20
381.5481585864199
 10
158.5445127385255
 20
383.4067235750733
 10
158.5386918380286
 20
385.2959159359047
 10
158.5357576680517
 20
386.3501904143104
 10
158.5330723410788
 20
387.392716827532
 10
158.5316988828476
 20
387.9605603629554
  0
LINE
  5
C8BB
330
1A
100
AcDbEntity
  8
SEIHIN
 48
5.0
100
AcDbLine
 10
132.2731484440414
 20
373.6970886590484
 30
0.0
 11
158.514341631947
 21
373.6970886590641
 31
0.0
  0
ARC
  5
C8BC
330
1A
100
AcDbEntity
  8
SEIHIN
 48
5.0
100
AcDbCircle
 10
127.031780387936
 20
391.0599361420354
 30
0.0
 40
1.232989730724253
100
AcDbArc
 50
320.4235925667624
 51
9.590897929189086
  0
LINE
  5
C8BD
330
1A
100
AcDbEntity
  8
SEIHIN
 48
5.0
100
AcDbLine
 10
128.247536026518
 20
391.2653671604519
 30
0.0
 11
125.510675747333
 21
391.2653671604519
 31
0.0
  0
LINE
  5
C8BE
330
1A
100
AcDbEntity
  8
SEIHIN
 48
5.0
100
AcDbLine
 10
127.9821388468943
 20
390.274390169124
 30
0.0
 11
125.510675747333
 21
390.274390169124
 31
0.0
  0
ARC
  5
C8BF
330
1A
100
AcDbEntity
  8
SEIHIN
 48
5.0
100
AcDbCircle
 10
112.5106757473335
 20
386.0801359923573
 30
0.0
 40
2.000000000000454
100
AcDbArc
 50
99.46232220803437
 51
179.999999999987
  0
LINE
  5
C8C0
330
1A
100
AcDbEntity
  8
SEIHIN
 48
5.0
100
AcDbLine
 10
125.5106757473325
 20
390.274390169124
 30
0.0
 11
112.1818777727227
 21
388.0529238400222
 31
0.0
  0
ARC
  5
C8C1
330
1A
100
AcDbEntity
  8
SEIHIN
 48
5.0
100
AcDbCircle
 10
74.68260685804887
 20
374.7332507212964
 30
0.0
 40
54.34261611701682
100
AcDbArc
 50
346.4411572356557
 51
354.5423108578168
  0
LWPOLYLINE
  5
C8C2
330
1A
100
AcDbEntity
  8
SEIHIN
 48
5.0
100
AcDbPolyline
 90
        3
 70
     0
 43
0.0
 10
128.7788719299678
 20
369.5805269892499
 10
130.7827222043394
 20
371.7786631820916
 10
132.2731483079723
 20
373.551137335435
  0
LINE
  5
C8C3
330
1A
100
AcDbEntity
  8
SEIHIN
 48
5.0
100
AcDbLine
 10
158.5114881140023
 20
395.274390169124
 30
0.0
 11
160.5106757473329
 21
395.274390169124
 31
0.0
  0
LINE
  5
C8C4
330
1A
100
AcDbEntity
  8
SEIHIN
 48
5.0
100
AcDbLine
 10
158.5107846161218
 20
395.274390169124
 30
0.0
 11
158.5114881140023
 21
395.274390169124
 31
0.0
  0
ARC
  5
C8C5
330
1A
100
AcDbEntity
  8
SEIHIN
 48
5.0
100
AcDbCircle
 10
162.2000195245919
 20
386.2304718645132
 30
0.0
 40
4.055833150302275
100
AcDbArc
 50
85.6071317571569
 51
154.750049008507
  0
LINE
  5
C8C6
330
1A
100
AcDbEntity
  8
SEIHIN
 48
5.0
100
AcDbLine
 10
160.5106757473327
 20
405.274390169124
 30
0.0
 11
158.5114881140048
 21
405.274390169124
 31
0.0
  0
LINE
  5
C8C7
330
1A
100
AcDbEntity
  8
SEIHIN
 48
5.0
100
AcDbLine
 10
160.5106757473327
 20
395.274390169124
 30
0.0
 11
160.5106757473327
 21
405.274390169124
 31
0.0
  0
LINE
  5
C8C8
330
1A
100
AcDbEntity
  8
SEIHIN
 48
5.0
100
AcDbLine
 10
127.5106757473329
 20
343.8444065769929
 30
0.0
 11
159.2917304152133
 21
343.8444065769929
 31
0.0
  0
LINE
  5
C8C9
330
1A
100
AcDbEntity
  8
SEIHIN
 48
5.0
100
AcDbLine
 10
158.5025439336132
 20
339.7111555258171
 30
0.0
 11
113.510675747332
 21
339.7111555258173
 31
0.0
  0
LINE
  5
C8CA
330
1A
100
AcDbEntity
  8
SEIHIN
 48
5.0
100
AcDbLine
 10
161.6606757473305
 20
336.6603742853297
 30
0.0
 11
133.522949196724
 21
336.6603742853297
 31
0.0
  0
LINE
  5
C8CB
330
1A
100
AcDbEntity
  8
SEIHIN
 48
5.0
100
AcDbLine
 10
132.5205469631064
 20
332.8876225701499
 30
0.0
 11
161.6606757473305
 21
332.8876225701499
 31
0.0
  0
LINE
  5
C8CC
330
1A
100
AcDbEntity
  8
SEIHIN
 48
5.0
100
AcDbLine
 10
132.5106757473329
 20
318.3721383772556
 30
0.0
 11
161.6606757473332
 21
318.3721383772556
 31
0.0
  0
ARC
  5
C8CD
330
1A
100
AcDbEntity
  8
SEIHIN
 48
5.0
100
AcDbCircle
 10
83.71397108806741
 20
347.874840869812
 30
0.0
 40
51.05583767805294
100
AcDbArc
 50
342.9296522344968
 51
347.3114637203175
  0
LINE
  5
C8CE
330
1A
100
AcDbEntity
  8
SEIHIN
 48
5.0
100
AcDbLine
 10
127.5106757473329
 20
321.3721383783916
 30
0.0
 11
127.5106757473326
 21
336.5195459541219
 31
0.0
  0
LWPOLYLINE
  5
C8CF
330
1A
100
AcDbEntity
  8
SEIHIN
 48
5.0
100
AcDbPolyline
 90
        5
 70
     0
 43
0.0
 10
127.5106757213301
 20
336.5195459534445
 10
128.7665403237515
 20
335.6045139806968
 10
129.9869390132599
 20
334.6320664917605
 10
131.2211045508464
 20
333.6810777895751
 10
132.5106751372133
 20
332.8196962873592
  0
ARC
  5
C8D0
330
1A
100
AcDbEntity
  8
SEIHIN
 48
5.0
100
AcDbCircle
 10
126.6293369224512
 20
343.295215465424
 30
0.0
 40
1.619426742883706
100
AcDbArc
 50
178.2381622675845
 51
217.222913146906
  0
LINE
  5
C8D1
330
1A
100
AcDbEntity
  8
SEIHIN
 48
5.0
100
AcDbLine
 10
125.0106757473329
 20
349.8402432865276
 30
0.0
 11
125.0106757473329
 21
343.3450047788519
 31
0.0
  0
LINE
  5
C8D2
330
1A
100
AcDbEntity
  8
SEIHIN
 48
5.0
100
AcDbLine
 10
125.0106757473329
 20
358.8280706319963
 30
0.0
 11
125.0106757473329
 21
350.2867675096352
 31
0.0
  0
LINE
  5
C8D3
330
1A
100
AcDbEntity
  8
SEIHIN
 48
5.0
100
AcDbLine
 10
125.5106757473327
 20
342.244406576993
 30
0.0
 11
127.5106757473329
 21
343.8444065769929
 31
0.0
  0
ARC
  5
C8D4
330
1A
100
AcDbEntity
  8
SEIHIN
 48
5.0
100
AcDbCircle
 10
113.510675747332
 20
341.7111555258166
 30
0.0
 40
1.999999999999317
100
AcDbArc
 50
179.999999999987
 51
270.0
  0
LINE
  5
C8D5
330
1A
100
AcDbEntity
  8
SEIHIN
 48
5.0
100
AcDbLine
 10
111.5106757473327
 20
351.5303621680819
 30
0.0
 11
111.5106757473327
 21
341.7111555258173
 31
0.0
  0
LINE
  5
C8D6
330
1A
100
AcDbEntity
  8
SEIHIN
 48
5.0
100
AcDbLine
 10
125.339806728162
 20
342.3155957159381
 30
0.0
 11
111.5106757473327
 21
342.3155957159372
 31
0.0
  0
LINE
  5
C8D7
330
1A
100
AcDbEntity
  8
SEIHIN
 48
5.0
100
AcDbLine
 10
125.0106757473329
 20
350.2867675096352
 30
0.0
 11
111.5106757473327
 21
350.2867675096352
 31
0.0
  0
ARC
  5
C8D8
330
1A
100
AcDbEntity
  8
SEIHIN
 48
5.0
100
AcDbCircle
 10
360.838679581529
 20
269.6183277096845
 30
0.0
 40
242.7346828280505
100
AcDbArc
 50
163.5296779032476
 51
163.991809757624
  0
LWPOLYLINE
  5
C8D9
330
1A
100
AcDbEntity
  8
SEIHIN
 48
5.0
100
AcDbPolyline
 90
        7
 70
     0
 43
0.0
 10
133.522949196724
 20
336.6603742853297
 10
132.671903639904
 20
336.9656825958391
 10
131.7118538480121
 20
337.2058810172327
 10
130.7111684003847
 20
337.420335280571
 10
129.7037148401288
 20
337.6756636568809
 10
128.8637722577725
 20
337.9838134083968
 10
128.0641970354066
 20
338.4381397046111
  0
LINE
  5
C8DA
330
1A
100
AcDbEntity
  8
SEIHIN
 48
5.0
100
AcDbLine
 10
115.8419767290531
 20
321.3721383772556
 30
0.0
 11
127.5106757473329
 21
321.3721383772556
 31
0.0
  0
LINE
  5
C8DB
330
1A
100
AcDbEntity
  8
SEIHIN
 48
5.0
100
AcDbLine
 10
127.510378798172
 20
321.3721383772556
 30
0.0
 11
132.510675747333
 21
318.3721383772556
 31
0.0
  0
LINE
  5
C8DC
330
1A
100
AcDbEntity
  8
SEIHIN
 48
5.0
100
AcDbLine
 10
132.5106757473329
 20
318.3721383772636
 30
0.0
 11
132.5106757473326
 21
332.8196962645864
 31
0.0
  0
LINE
  5
C8DD
330
1A
100
AcDbEntity
  8
SEIHIN
 48
5.0
100
AcDbLine
 10
161.66067574733
 20
310.6607535425486
 30
0.0
 11
161.6606757473353
 21
344.3749281764444
 31
0.0
  0
LINE
  5
C8DE
330
1A
100
AcDbEntity
  8
SEIHIN
 48
5.0
100
AcDbLine
 10
176.66067574733
 20
310.6607535425486
 30
0.0
 11
176.6606757473353
 21
344.3749281764444
 31
0.0
  0
ARC
  5
C8DF
330
1A
100
AcDbEntity
  8
SEIHIN
 48
5.0
100
AcDbCircle
 10
-201.1297489195777
 20
345.714399577428
 30
0.0
 40
360.443298468315
100
AcDbArc
 50
359.7027460692367
 51
0.2539416775661667
  0
ARC
  5
C8E0
330
1A
100
AcDbEntity
  8
SEIHIN
 48
5.0
100
AcDbCircle
 10
-185.2117641096861
 20
307.9960607499148
 30
0.0
 40
346.7578251517114
100
AcDbArc
 50
6.510271033534642
 51
7.044643586274845
  0
LINE
  5
C8E1
330
1A
100
AcDbEntity
  8
SEIHIN
 48
5.0
100
AcDbLine
 10
176.6606757473344
 20
339.2111555258175
 30
0.0
 11
176.8106757473324
 21
339.2111555258175
 31
0.0
  0
LINE
  5
C8E3
330
1A
100
AcDbEntity
  8
SEIHIN
 48
5.0
100
AcDbLine
 10
161.6606757473355
 20
344.3749281764442
 30
0.0
 11
176.6606757473353
 21
344.3749281764442
 31
0.0
  0
ARC
  5
C8E5
330
1A
100
AcDbEntity
  8
SEIHIN
 48
5.0
100
AcDbCircle
 10
159.0106757473324
 20
342.5302744729117
 30
0.0
 40
0.5
100
AcDbArc
 50
89.99999999999998
 51
180.0
  0
LINE
  5
C8E6
330
1A
100
AcDbEntity
  8
SEIHIN
 48
5.0
100
AcDbLine
 10
161.0106757473327
 20
343.030274472912
 30
0.0
 11
159.0106757473327
 21
343.030274472912
 31
0.0
  0
LINE
  5
C8E7
330
1A
100
AcDbEntity
  8
SEIHIN
 48
5.0
100
AcDbLine
 10
161.5106757473327
 20
339.9874798577507
 30
0.0
 11
161.5106757473327
 21
342.5302744729119
 31
0.0
  0
ARC
  5
C8E8
330
1A
100
AcDbEntity
  8
SEIHIN
 48
5.0
100
AcDbCircle
 10
161.0106757473324
 20
342.5302744729117
 30
0.0
 40
0.5
100
AcDbArc
 50
0.0
 51
89.99999999999998
  0
LINE
  5
C8E9
330
1A
100
AcDbEntity
  8
SEIHIN
 48
5.0
100
AcDbLine
 10
176.8106757473324
 20
342.5302744729119
 30
0.0
 11
176.8106757473324
 21
339.2111555258173
 31
0.0
  0
ARC
  5
C8EA
330
1A
100
AcDbEntity
  8
SEIHIN
 48
5.0
100
AcDbCircle
 10
177.3106757473324
 20
342.5302744729117
 30
0.0
 40
0.5000000000001137
100
AcDbArc
 50
89.99999999999998
 51
180.0
  0
LINE
  5
C8EB
330
1A
100
AcDbEntity
  8
SEIHIN
 48
5.0
100
AcDbLine
 10
179.3106757473326
 20
343.030274472912
 30
0.0
 11
177.3106757473326
 21
343.030274472912
 31
0.0
  0
LINE
  5
C8EC
330
1A
100
AcDbEntity
  8
SEIHIN
 48
5.0
100
AcDbLine
 10
179.8106757473324
 20
339.2111555258173
 30
0.0
 11
179.8106757473324
 21
342.5302744729119
 31
0.0
  0
ARC
  5
C8ED
330
1A
100
AcDbEntity
  8
SEIHIN
 48
5.0
100
AcDbCircle
 10
179.3106757473324
 20
342.5302744729117
 30
0.0
 40
0.5
100
AcDbArc
 50
0.0
 51
89.99999999999998
  0
ARC
  5
C8EE
330
1A
100
AcDbEntity
  8
SEIHIN
 48
5.0
100
AcDbCircle
 10
162.5073305498204
 20
348.7338778251256
 30
0.0
 40
4.001422962867394
100
AcDbArc
 50
89.95210060941156
 51
153.4349522513303
  0
LINE
  5
C8EF
330
1A
100
AcDbEntity
  8
SEIHIN
 48
5.0
100
AcDbLine
 10
162.5106757473327
 20
352.735299389697
 30
0.0
 11
162.5106757473327
 21
349.163403839656
 31
0.0
  0
ARC
  5
C8F0
330
1A
100
AcDbEntity
  8
SEIHIN
 48
5.0
100
AcDbCircle
 10
162.9032286415777
 20
344.7925506118513
 30
0.0
 40
4.388445705917923
100
AcDbArc
 50
95.1320510269481
 51
144.963938294749
  0
LINE
  5
C8F2
330
1A
100
AcDbEntity
  8
SEIHIN
 48
5.0
100
AcDbLine
 10
244.5106757473327
 20
410.357723502457
 30
0.0
 11
244.5106757473329
 21
390.1910568357907
 31
0.0
  0
LINE
  5
C8F3
330
1A
100
AcDbEntity
  8
SEIHIN
 48
5.0
100
AcDbLine
 10
320.0106757473327
 20
470.6918704956303
 30
0.0
 11
320.0106757473329
 21
322.6721383772551
 31
0.0
  0
LINE
  5
C8F4
330
1A
100
AcDbEntity
  8
SEIHIN
 48
5.0
100
AcDbLine
 10
283.7152678771949
 20
472.8208935355769
 30
0.0
 11
241.0106757473354
 21
472.6850539650688
 31
0.0
  0
LINE
  5
C8F5
330
1A
100
AcDbEntity
  8
SEIHIN
 48
5.0
100
AcDbLine
 10
283.715267877192
 20
472.6850539650686
 30
0.0
 11
241.0106757473323
 21
472.5492143945605
 31
0.0
  0
LINE
  5
C8F6
330
1A
100
AcDbEntity
  8
SEIHIN
 48
5.0
100
AcDbLine
 10
288.0106757473327
 20
469.5479018046812
 30
0.0
 11
218.0106757473327
 21
469.5479018046815
 31
0.0
  0
LINE
  5
C8F7
330
1A
100
AcDbEntity
  8
SEIHIN
 48
5.0
100
AcDbLine
 10
254.3105397164413
 20
466.3001710851074
 30
0.0
 11
290.0106757473327
 21
466.3001710851071
 31
0.0
  0
LINE
  5
C8F8
330
1A
100
AcDbEntity
  8
SEIHIN
 48
5.0
100
AcDbLine
 10
315.0113246394831
 20
471.9934056983711
 30
0.0
 11
239.6002932545612
 21
471.9934056983714
 31
0.0
  0
LINE
  5
C8FA
330
1A
100
AcDbEntity
  8
SEIHIN
 48
5.0
100
AcDbLine
 10
245.0106757473327
 20
469.2878728575055
 30
0.0
 11
245.0106757473327
 21
414.4014686334223
 31
0.0
  0
LINE
  5
C8FB
330
1A
100
AcDbEntity
  8
SEIHIN
 48
5.0
100
AcDbLine
 10
259.0106757473327
 20
463.894939388874
 30
0.0
 11
259.0106757473327
 21
414.4686443458897
 31
0.0
  0
LINE
  5
C8FC
330
1A
100
AcDbEntity
  8
SEIHIN
 48
5.0
100
AcDbLine
 10
218.0106757473325
 20
469.5722016790305
 30
0.0
 11
238.5106757473325
 21
469.5722016790305
 31
0.0
  0
LINE
  5
C8FD
330
1A
100
AcDbEntity
  8
SEIHIN
 48
5.0
100
AcDbLine
 10
238.5106757473325
 20
469.7002511291161
 30
0.0
 11
218.0106757473325
 21
469.7002511291161
 31
0.0
  0
LINE
  5
C8FE
330
1A
100
AcDbEntity
  8
SEIHIN
 48
5.0
100
AcDbLine
 10
218.0106757473325
 20
469.2878728575055
 30
0.0
 11
244.5106757473327
 21
469.2878728575055
 31
0.0
  0
LINE
  5
C8FF
330
1A
100
AcDbEntity
  8
SEIHIN
 48
5.0
100
AcDbLine
 10
244.5106757473327
 20
468.2891820151037
 30
0.0
 11
218.0106757473325
 21
468.2891820151037
 31
0.0
  0
LINE
  5
C900
330
1A
100
AcDbEntity
  8
SEIHIN
 48
5.0
100
AcDbLine
 10
218.0106757473325
 20
466.5722016790307
 30
0.0
 11
218.0106757473325
 21
467.913889283853
 31
0.0
  0
ARC
  5
C901
330
1A
100
AcDbEntity
  8
SEIHIN
 48
5.0
100
AcDbCircle
 10
238.510334340762
 20
470.0725430676811
 30
0.0
 40
0.500341505129799
100
AcDbArc
 50
270.039095611525
 51
0.035962714408506
  0
ARC
  5
C902
330
1A
100
AcDbEntity
  8
SEIHIN
 48
5.0
100
AcDbCircle
 10
238.5103612874366
 20
470.2005656063695
 30
0.0
 40
0.5003145760765712
100
AcDbArc
 50
270.0360117952122
 51
0.0390465307326244
  0
LINE
  5
C903
330
1A
100
AcDbEntity
  8
SEIHIN
 48
5.0
100
AcDbLine
 10
239.0106757473325
 20
470.0728571162263
 30
0.0
 11
239.0106757473325
 21
470.7015620028546
 31
0.0
  0
ARC
  5
C904
330
1A
100
AcDbEntity
  8
SEIHIN
 48
5.0
100
AcDbCircle
 10
241.0158716083804
 20
470.7015636565004
 30
0.0
 40
2.005195861048605
100
AcDbArc
 50
171.5176854010803
 51
180.0000472507095
  0
ARC
  5
C905
330
1A
100
AcDbEntity
  8
SEIHIN
 48
5.0
100
AcDbCircle
 10
241.0144731178032
 20
470.5737755947661
 30
0.0
 40
2.003797387735571
100
AcDbArc
 50
132.5533442920832
 51
180.0075213174861
  0
LINE
  5
C906
330
1A
100
AcDbEntity
  8
SEIHIN
 48
5.0
100
AcDbLine
 10
241.0106757473325
 20
472.5492143945605
 30
0.0
 11
241.0106757473325
 21
472.6850539650691
 31
0.0
  0
ARC
  5
C907
330
1A
100
AcDbEntity
  8
SEIHIN
 48
5.0
100
AcDbCircle
 10
240.9540621213734
 20
470.6242802003743
 30
0.0
 40
1.9257665368861
100
AcDbArc
 50
88.31537770749482
 51
132.2455096283645
  0
LINE
  5
C908
330
1A
100
AcDbEntity
  8
SEIHIN
 48
5.0
100
AcDbLine
 10
244.5106757473327
 20
465.8765717687126
 30
0.0
 11
244.9126176797636
 21
465.8765717687126
 31
0.0
  0
ARC
  5
C909
330
1A
100
AcDbEntity
  8
SEIHIN
 48
5.0
100
AcDbCircle
 10
245.0106757473327
 20
467.3625951295048
 30
0.0
 40
0.4999999999999693
100
AcDbArc
 50
180.0
 51
267.176361534214
  0
LINE
  5
C90A
330
1A
100
AcDbEntity
  8
SEIHIN
 48
5.0
100
AcDbLine
 10
255.7951402878853
 20
465.2747362159168
 30
0.0
 11
244.9126176797636
 21
465.8765717687126
 31
0.0
  0
LINE
  5
C90B
330
1A
100
AcDbEntity
  8
SEIHIN
 48
5.0
100
AcDbLine
 10
254.017001429268
 20
466.3637547725236
 30
0.0
 11
244.983066462773
 21
466.8633579840459
 31
0.0
  0
ARC
  5
C90C
330
1A
100
AcDbEntity
  8
SEIHIN
 48
5.0
100
AcDbCircle
 10
254.2155985721297
 20
464.8385039332975
 30
0.0
 40
1.593233077906949
100
AcDbArc
 50
330.2632296791303
 51
7.516796630583939
  0
ARC
  5
C90D
330
1A
100
AcDbEntity
  8
SEIHIN
 48
5.0
100
AcDbCircle
 10
255.8930558753639
 20
432.5515368891765
 30
0.0
 40
31.49807032064271
100
AcDbArc
 50
84.31967070783311
 51
90.53485884246745
  0
LINE
  5
C90E
330
1A
100
AcDbEntity
  8
SEIHIN
 48
5.0
100
AcDbLine
 10
255.5990241527472
 20
464.0482347997552
 30
0.0
 11
245.0106757473327
 21
464.1567013750057
 31
0.0
  0
LINE
  5
C90F
330
1A
100
AcDbEntity
  8
SEIHIN
 48
5.0
100
AcDbLine
 10
245.0106757473327
 20
462.1224614449026
 30
0.0
 11
259.0106757473327
 21
462.1224614449024
 31
0.0
  0
ARC
  5
C910
330
1A
100
AcDbEntity
  8
SEIHIN
 48
5.0
100
AcDbCircle
 10
240.9954824503955
 20
470.6998194533777
 30
0.0
 40
1.985292649127598
100
AcDbArc
 50
89.56151538200385
 51
171.3811016194844
  0
LINE
  5
C911
330
1A
100
AcDbEntity
  8
SEIHIN
 48
5.0
100
AcDbLine
 10
259.0106757473327
 20
459.0686226604425
 30
0.0
 11
245.0106757473327
 21
459.0686226604427
 31
0.0
  0
LWPOLYLINE
  5
C912
330
1A
100
AcDbEntity
  8
SEIHIN
 48
5.0
100
AcDbPolyline
 90
        5
 70
     0
 43
0.0
 10
255.7951402878853
 20
465.046925642157
 10
257.0328580631817
 20
464.9529030227936
 10
258.1201470389492
 20
464.690068085768
 10
258.7825617701353
 20
464.3245466079638
 10
259.0106757473327
 20
463.8949393888743
  0
LINE
  5
C913
330
1A
100
AcDbEntity
  8
SEIHIN
 48
5.0
100
AcDbLine
 10
244.0106757473327
 20
414.4014686334378
 30
0.0
 11
244.0106757473327
 21
410.2743901691237
 31
0.0
  0
LINE
  5
C914
330
1A
100
AcDbEntity
  8
SEIHIN
 48
5.0
100
AcDbLine
 10
245.0106757473327
 20
414.4014686334223
 30
0.0
 11
244.0106757473327
 21
414.4014686334378
 31
0.0
  0
LINE
  5
C915
330
1A
100
AcDbEntity
  8
SEIHIN
 48
5.0
100
AcDbLine
 10
257.3394737219428
 20
412.4958564982253
 30
0.0
 11
244.0106757473332
 21
410.274390169124
 31
0.0
  0
ARC
  5
C916
330
1A
100
AcDbEntity
  8
SEIHIN
 48
5.0
100
AcDbCircle
 10
257.0106757473327
 20
414.4686443458897
 30
0.0
 40
2.000000000000057
100
AcDbArc
 50
279.4623222080215
 51
0.0
  0
LINE
  5
C917
330
1A
100
AcDbEntity
  8
SEIHIN
 48
5.0
100
AcDbLine
 10
290.0106757473327
 20
459.5722016790305
 30
0.0
 11
320.0106757473327
 21
459.5722016790305
 31
0.0
  0
LINE
  5
C918
330
1A
100
AcDbEntity
  8
SEIHIN
 48
5.0
100
AcDbLine
 10
320.0106757473327
 20
462.0722016790303
 30
0.0
 11
290.0106757473327
 21
462.0722016790303
 31
0.0
  0
LINE
  5
C919
330
1A
100
AcDbEntity
  8
SEIHIN
 48
5.0
100
AcDbLine
 10
314.4991786973769
 20
467.9934056983711
 30
0.0
 11
289.9887417928021
 21
467.9934056983711
 31
0.0
  0
LINE
  5
C91A
330
1A
100
AcDbEntity
  8
SEIHIN
 48
5.0
100
AcDbLine
 10
283.715267877192
 20
472.6850539650686
 30
0.0
 11
284.0113246394824
 21
474.9973383195863
 31
0.0
  0
LINE
  5
C91B
330
1A
100
AcDbEntity
  8
SEIHIN
 48
5.0
100
AcDbLine
 10
289.0106757473327
 20
473.6958031168454
 30
0.0
 11
284.0113246394824
 21
474.9973383195863
 31
0.0
  0
LINE
  5
C91C
330
1A
100
AcDbEntity
  8
SEIHIN
 48
5.0
100
AcDbLine
 10
289.0106757473327
 20
471.9934056983711
 30
0.0
 11
289.0106757473327
 21
473.6958031168454
 31
0.0
  0
ARC
  5
C91D
330
1A
100
AcDbEntity
  8
SEIHIN
 48
5.0
100
AcDbCircle
 10
288.0220388138973
 20
467.6913976584874
 30
0.0
 40
1.989756131637195
100
AcDbArc
 50
8.73017742543802
 51
90.32720557307673
  0
ARC
  5
C91E
330
1A
100
AcDbEntity
  8
SEIHIN
 48
5.0
100
AcDbCircle
 10
288.194560616165
 20
467.4961660576636
 30
0.0
 40
1.816169599967297
100
AcDbArc
 50
0.4437459648999086
 51
95.8110825377332
  0
LINE
  5
C91F
330
1A
100
AcDbEntity
  8
SEIHIN
 48
5.0
100
AcDbLine
 10
289.0106757473327
 20
473.6958031168455
 30
0.0
 11
284.0113246394821
 21
474.9973383195865
 31
0.0
  0
LINE
  5
C920
330
1A
100
AcDbEntity
  8
SEIHIN
 48
5.0
100
AcDbLine
 10
290.0106757473325
 20
459.5722016790305
 30
0.0
 11
290.0106757473327
 21
467.6976293816392
 31
0.0
  0
LWPOLYLINE
  5
C921
330
1A
100
AcDbEntity
  8
SEIHIN
 48
5.0
100
AcDbPolyline
 90
        4
 70
     0
 43
0.0
 10
283.7152678771922
 20
472.6850539650686
 10
285.6334477938726
 20
472.6718044785736
 10
287.4092473386152
 20
472.6554474330239
 10
289.0106757473327
 20
472.6362774981571
  0
LINE
  5
C922
330
1A
100
AcDbEntity
  8
SEIHIN
 48
5.0
100
AcDbLine
 10
315.0113246394831
 20
471.9934056983711
 30
0.0
 11
314.4991786973769
 21
467.9934056983711
 31
0.0
  0
LINE
  5
C923
330
1A
100
AcDbEntity
  8
SEIHIN
 48
5.0
100
AcDbLine
 10
320.0106757473327
 20
466.55853799743
 30
0.0
 11
314.4991786973769
 21
467.9934056983711
 31
0.0
  0
LINE
  5
C924
330
1A
100
AcDbEntity
  8
SEIHIN
 48
5.0
100
AcDbLine
 10
320.0106757473327
 20
470.6918704956306
 30
0.0
 11
315.0113246394831
 21
471.9934056983711
 31
0.0
  0
LINE
  5
C925
330
1A
100
AcDbEntity
  8
SEIHIN
 48
5.0
100
AcDbLine
 10
290.0106757473322
 20
346.4203663893929
 30
0.0
 11
259.0106757473327
 21
346.4203663893927
 31
0.0
  0
LINE
  5
C926
330
1A
100
AcDbEntity
  8
SEIHIN
 48
5.0
100
AcDbLine
 10
245.0106757473329
 20
386.9815853204898
 30
0.0
 11
245.0106757473327
 21
336.5223550869489
 31
0.0
  0
LINE
  5
C927
330
1A
100
AcDbEntity
  8
SEIHIN
 48
5.0
100
AcDbLine
 10
259.0106757473327
 20
386.0801359923576
 30
0.0
 11
259.0106757473327
 21
336.5070627014068
 31
0.0
  0
LINE
  5
C928
330
1A
100
AcDbEntity
  8
SEIHIN
 48
5.0
100
AcDbLine
 10
244.0106757473329
 20
386.9815853188611
 30
0.0
 11
245.0106757473329
 21
386.9815853204898
 31
0.0
  0
LINE
  5
C929
330
1A
100
AcDbEntity
  8
SEIHIN
 48
5.0
100
AcDbLine
 10
244.0106757473329
 20
390.2743901691244
 30
0.0
 11
244.0106757473329
 21
386.9815853188611
 31
0.0
  0
ARC
  5
C92A
330
1A
100
AcDbEntity
  8
SEIHIN
 48
5.0
100
AcDbCircle
 10
257.0106757473327
 20
386.0801359923576
 30
0.0
 40
1.999999999999945
100
AcDbArc
 50
0.0
 51
80.53767779196599
  0
LINE
  5
C92B
330
1A
100
AcDbEntity
  8
SEIHIN
 48
5.0
100
AcDbLine
 10
244.0106757473332
 20
390.274390169124
 30
0.0
 11
257.3394737219428
 21
388.052923840022
 31
0.0
  0
LINE
  5
C92C
330
1A
100
AcDbEntity
  8
SEIHIN
 48
5.0
100
AcDbLine
 10
239.0106757473302
 20
339.5410394033234
 30
0.0
 11
218.0106757473304
 21
339.5410394033234
 31
0.0
  0
LINE
  5
C92D
330
1A
100
AcDbEntity
  8
SEIHIN
 48
5.0
100
AcDbLine
 10
218.0106757473327
 20
341.5539501409785
 30
0.0
 11
218.0106757473327
 21
339.5410394033236
 31
0.0
  0
LINE
  5
C92E
330
1A
100
AcDbEntity
  8
SEIHIN
 48
5.0
100
AcDbLine
 10
239.0106757473304
 20
339.5410394033236
 30
0.0
 11
239.0106757473302
 21
338.6173753963547
 31
0.0
  0
ARC
  5
C92F
330
1A
100
AcDbEntity
  8
SEIHIN
 48
5.0
100
AcDbCircle
 10
241.1322603927333
 20
338.5749450528576
 30
0.0
 40
2.122008892926646
100
AcDbArc
 50
178.8542735896219
 51
245.9797510439615
  0
LINE
  5
C930
330
1A
100
AcDbEntity
  8
SEIHIN
 48
5.0
100
AcDbLine
 10
245.0106757473327
 20
342.3155957159374
 30
0.0
 11
259.0106757473327
 21
342.315595715937
 31
0.0
  0
LINE
  5
C931
330
1A
100
AcDbEntity
  8
SEIHIN
 48
5.0
100
AcDbLine
 10
245.0106757473327
 20
350.2867675096352
 30
0.0
 11
259.0106757473327
 21
350.286767509635
 31
0.0
  0
LINE
  5
C932
330
1A
100
AcDbEntity
  8
SEIHIN
 48
5.0
100
AcDbLine
 10
288.0106757473322
 20
339.7111555258171
 30
0.0
 11
320.0106757473323
 21
339.7111555258171
 31
0.0
  0
LINE
  5
C933
330
1A
100
AcDbEntity
  8
SEIHIN
 48
5.0
100
AcDbLine
 10
289.0106757473327
 20
321.3721383772554
 30
0.0
 11
314.9467386160891
 21
321.3721383772554
 31
0.0
  0
LINE
  5
C934
330
1A
100
AcDbEntity
  8
SEIHIN
 48
5.0
100
AcDbLine
 10
320.0106757473323
 20
349.4872587198056
 30
0.0
 11
290.0106757473322
 21
349.4872587198056
 31
0.0
  0
LINE
  5
C935
330
1A
100
AcDbEntity
  8
SEIHIN
 48
5.0
100
AcDbLine
 10
320.0106757473323
 20
351.5303621680814
 30
0.0
 11
290.0106757473322
 21
351.5303621680814
 31
0.0
  0
LINE
  5
C936
330
1A
100
AcDbEntity
  8
SEIHIN
 48
5.0
100
AcDbLine
 10
289.0106757473325
 20
334.2533483600114
 30
0.0
 11
289.0106757473325
 21
336.358773220915
 31
0.0
  0
LWPOLYLINE
  5
C937
330
1A
100
AcDbEntity
  8
SEIHIN
 48
5.0
100
AcDbPolyline
 90
        5
 70
     0
 43
0.0
 10
284.0096430154908
 20
332.8876225701499
 10
283.9379381105118
 20
333.4196380016128
 10
283.8201135770755
 20
334.2884279861871
 10
283.7003391706549
 20
335.1799481158187
 10
283.5199228073788
 20
336.507062701407
  0
ARC
  5
C938
330
1A
100
AcDbEntity
  8
SEIHIN
 48
5.0
100
AcDbCircle
 10
288.0106757473322
 20
341.711155525817
 30
0.0
 40
2.00000000000012
100
AcDbArc
 50
270.0
 51
0.0
  0
LINE
  5
C939
330
1A
100
AcDbEntity
  8
SEIHIN
 48
5.0
100
AcDbLine
 10
288.0106757473322
 20
336.3988725080608
 30
0.0
 11
288.0106757473322
 21
339.7111555258171
 31
0.0
  0
LINE
  5
C93A
330
1A
100
AcDbEntity
  8
SEIHIN
 48
5.0
100
AcDbLine
 10
290.0106757473322
 20
341.711155525817
 30
0.0
 11
290.0106757473322
 21
351.5303621680816
 31
0.0
  0
LWPOLYLINE
  5
C93B
330
1A
100
AcDbEntity
  8
SEIHIN
 48
5.0
100
AcDbPolyline
 90
        3
 70
     0
 43
0.0
 10
289.0106757473325
 20
336.358773220915
 10
286.2824131698114
 20
336.4681746054202
 10
283.5199228073793
 20
336.5070627014065
  0
LINE
  5
C93C
330
1A
100
AcDbEntity
  8
SEIHIN
 48
5.0
100
AcDbLine
 10
284.0106757473325
 20
332.872330184608
 30
0.0
 11
289.0106757473325
 21
334.2533483600114
 31
0.0
  0
LINE
  5
C93D
330
1A
100
AcDbEntity
  8
SEIHIN
 48
5.0
100
AcDbLine
 10
284.0106757473325
 20
332.872330184608
 30
0.0
 11
284.0106757473327
 21
318.3721383772554
 31
0.0
  0
LINE
  5
C93E
330
1A
100
AcDbEntity
  8
SEIHIN
 48
5.0
100
AcDbLine
 10
289.0106757473327
 20
319.6721383772551
 30
0.0
 11
289.0106757473325
 21
334.2533483600114
 31
0.0
  0
LINE
  5
C93F
330
1A
100
AcDbEntity
  8
SEIHIN
 48
5.0
100
AcDbLine
 10
284.0106757473327
 20
318.3721383772554
 30
0.0
 11
289.0106757473327
 21
319.6721383772551
 31
0.0
  0
LINE
  5
C940
330
1A
100
AcDbEntity
  8
SEIHIN
 48
5.0
100
AcDbLine
 10
315.0725555419715
 20
321.3882271238611
 30
0.0
 11
320.0106757473327
 21
322.6721383772551
 31
0.0
  0
LINE
  5
C941
330
1A
100
AcDbEntity
  8
SEIHIN
 48
5.0
100
AcDbLine
 10
685.6767904810054
 20
422.1692184540265
 30
0.0
 11
615.6767904810053
 21
422.1692184540222
 31
0.0
  0
LINE
  5
C942
330
1A
100
AcDbEntity
  8
SEIHIN
 48
5.0
100
AcDbLine
 10
717.6767904810094
 20
354.0266527544618
 30
0.0
 11
647.7279967126407
 21
354.0266527544575
 31
0.0
  0
LINE
  5
C943
330
1A
100
AcDbEntity
  8
SEIHIN
 48
5.0
100
AcDbLine
 10
642.1767904810094
 20
352.1436420913847
 30
0.0
 11
717.6767904810094
 21
352.1436420913892
 31
0.0
  0
LINE
  5
C944
330
1A
100
AcDbEntity
  8
SEIHIN
 48
5.0
100
AcDbLine
 10
712.6767904810103
 20
349.643642091389
 30
0.0
 11
639.6767904810096
 21
349.6436420913849
 31
0.0
  0
LINE
  5
C945
330
1A
100
AcDbEntity
  8
SEIHIN
 48
5.0
100
AcDbLine
 10
614.1767904810096
 20
349.1436420913828
 30
0.0
 11
686.6767904810096
 21
349.1436420913874
 31
0.0
  0
LINE
  5
C946
330
1A
100
AcDbEntity
  8
SEIHIN
 48
5.0
100
AcDbLine
 10
638.6767904810048
 20
424.7701577607322
 30
0.0
 11
681.3813826108644
 21
424.7701577607349
 31
0.0
  0
LINE
  5
C947
330
1A
100
AcDbEntity
  8
SEIHIN
 48
5.0
100
AcDbLine
 10
712.6767904810101
 20
349.643642091389
 30
0.0
 11
639.6767904810094
 21
349.6436420913849
 31
0.0
  0
LINE
  5
C948
330
1A
100
AcDbEntity
  8
SEIHIN
 48
5.0
100
AcDbLine
 10
681.6767904810094
 20
346.6436420913869
 30
0.0
 11
530.1767904810094
 21
346.6436420913778
 31
0.0
  0
LINE
  5
C949
330
1A
100
AcDbEntity
  8
SEIHIN
 48
5.0
100
AcDbLine
 10
642.1767904810056
 20
412.8226766298333
 30
0.0
 11
560.1767904810055
 21
412.8226766298281
 31
0.0
  0
LINE
  5
C94A
330
1A
100
AcDbEntity
  8
SEIHIN
 48
5.0
100
AcDbLine
 10
556.7610442199159
 20
417.0924893661135
 30
0.0
 11
642.1767904810056
 21
417.0924893661185
 31
0.0
  0
LINE
  5
C94B
330
1A
100
AcDbEntity
  8
SEIHIN
 48
5.0
100
AcDbLine
 10
525.1767904810056
 20
419.6475695641761
 30
0.0
 11
615.6767904810055
 21
419.6475695641813
 31
0.0
  0
LINE
  5
C94C
330
1A
100
AcDbEntity
  8
SEIHIN
 48
5.0
100
AcDbLine
 10
530.1767907930821
 20
349.1436420913779
 30
0.0
 11
600.1239066839191
 21
349.143642091382
 31
0.0
  0
LINE
  5
C94D
330
1A
100
AcDbEntity
  8
SEIHIN
 48
5.0
100
AcDbLine
 10
560.1767904810092
 20
354.1436420913799
 30
0.0
 11
642.1767904810092
 21
354.1436420913847
 31
0.0
  0
LINE
  5
C94E
330
1A
100
AcDbEntity
  8
SEIHIN
 48
5.0
100
AcDbLine
 10
560.1767904810092
 20
355.5871854226639
 30
0.0
 11
641.6767904810092
 21
355.5871854226691
 31
0.0
  0
LINE
  5
C94F
330
1A
100
AcDbEntity
  8
SEIHIN
 48
5.0
100
AcDbLine
 10
559.6767904810094
 20
352.1436420913797
 30
0.0
 11
638.6767904810094
 21
352.1436420913844
 31
0.0
  0
LINE
  5
C950
330
1A
100
AcDbEntity
  8
SEIHIN
 48
5.0
100
AcDbLine
 10
525.1766904810049
 20
425.1436420913817
 30
0.0
 11
615.6767904810049
 21
425.1436420913871
 31
0.0
  0
LINE
  5
C951
330
1A
100
AcDbEntity
  8
SEIHIN
 48
5.0
100
AcDbLine
 10
523.1767904810058
 20
410.643642091381
 30
0.0
 11
523.1767904810092
 21
356.4938592861988
 31
0.0
  0
LINE
  5
C953
330
1A
100
AcDbEntity
  8
SEIHIN
 48
5.0
100
AcDbLine
 10
508.1767904810067
 20
395.8644264804816
 30
0.0
 11
508.176790481009
 21
355.5447191798753
 31
0.0
  0
LINE
  5
C954
330
1A
100
AcDbEntity
  8
SEIHIN
 48
5.0
100
AcDbLine
 10
560.1767904810058
 20
412.8226766298281
 30
0.0
 11
560.1767904810092
 21
355.5871854226639
 31
0.0
  0
LINE
  5
C955
330
1A
100
AcDbEntity
  8
SEIHIN
 48
5.0
100
AcDbLine
 10
556.1768993497983
 20
350.1561172189393
 30
0.0
 11
556.7833420669992
 21
419.6475695641781
 31
0.0
  0
LINE
  5
C956
330
1A
100
AcDbEntity
  8
SEIHIN
 48
5.0
100
AcDbLine
 10
479.176790481005
 20
425.1436420913785
 30
0.0
 11
479.1767904810076
 21
350.9436420913723
 31
0.0
  0
LINE
  5
C957
330
1A
100
AcDbEntity
  8
SEIHIN
 48
5.0
100
AcDbLine
 10
513.1767904810183
 20
354.2118363607063
 30
0.0
 11
523.1767904810092
 21
353.7437209675891
 31
0.0
  0
LINE
  5
C958
330
1A
100
AcDbEntity
  8
SEIHIN
 48
5.0
100
AcDbLine
 10
508.1767904810085
 20
356.5217578296391
 30
0.0
 11
524.6767622414522
 21
356.4910694843776
 31
0.0
  0
LINE
  5
C959
330
1A
100
AcDbEntity
  8
SEIHIN
 48
5.0
100
AcDbLine
 10
525.1767904810094
 20
349.6436420913779
 30
0.0
 11
513.5080914627256
 21
349.6436420913771
 31
0.0
  0
LINE
  5
C95A
330
1A
100
AcDbEntity
  8
SEIHIN
 48
5.0
100
AcDbLine
 10
479.1767904810092
 20
352.1436420913749
 30
0.0
 11
523.1767904810092
 21
352.1436420913776
 31
0.0
  0
LINE
  5
C95B
330
1A
100
AcDbEntity
  8
SEIHIN
 48
5.0
100
AcDbLine
 10
513.1767904810089
 20
354.211836360701
 30
0.0
 11
509.8479925063984
 21
355.0840291130815
 31
0.0
  0
LINE
  5
C95C
330
1A
100
AcDbEntity
  8
SEIHIN
 48
5.0
100
AcDbLine
 10
479.1767904810092
 20
354.0266527544472
 30
0.0
 11
517.1255842493776
 21
354.0266527544497
 31
0.0
  0
LINE
  5
C95D
330
1A
100
AcDbEntity
  8
SEIHIN
 48
5.0
100
AcDbLine
 10
479.1767904810092
 20
350.9436420913723
 30
0.0
 11
504.8495503913382
 21
349.831155828593
 31
0.0
  0
ARC
  5
C95E
330
1A
100
AcDbEntity
  8
SEIHIN
 48
5.0
100
AcDbCircle
 10
513.5080914627133
 20
549.6436420913769
 30
0.0
 40
199.9999999999998
100
AcDbArc
 50
267.5187351988084
 51
270.0
  0
ARC
  5
C95F
330
1A
100
AcDbEntity
  8
SEIHIN
 48
5.0
100
AcDbCircle
 10
519.9650071894352
 20
395.0461479643675
 30
0.0
 40
41.22286900715582
100
AcDbArc
 50
253.3835776248493
 51
255.7932034731837
  0
ARC
  5
C960
330
1A
100
AcDbEntity
  8
SEIHIN
 48
5.0
100
AcDbCircle
 10
427.3617703016723
 20
328.0657452835785
 30
0.0
 40
101.3814909742403
100
AcDbArc
 50
13.69009603946436
 51
16.28451740733114
  0
LINE
  5
C961
330
1A
100
AcDbEntity
  8
SEIHIN
 48
5.0
100
AcDbLine
 10
523.1767904810076
 20
352.1436420913776
 30
0.0
 11
523.1767904810069
 21
356.4938592861988
 31
0.0
  0
ARC
  5
C962
330
1A
100
AcDbEntity
  8
SEIHIN
 48
5.0
100
AcDbCircle
 10
559.9903596900344
 20
351.7497320204525
 30
0.0
 40
3.841979314619933
100
AcDbArc
 50
87.21864877467009
 51
170.9627412161402
  0
ARC
  5
C963
330
1A
100
AcDbEntity
  8
SEIHIN
 48
5.0
100
AcDbCircle
 10
560.1767904810095
 20
350.1436420913799
 30
0.0
 40
4.0000000293294
100
AcDbArc
 50
90.0
 51
119.9999997574482
  0
LINE
  5
C964
330
1A
100
AcDbEntity
  8
SEIHIN
 48
5.0
100
AcDbLine
 10
525.4252104417664
 20
353.6936420913798
 30
0.0
 11
523.176790481009
 21
353.6936420913805
 31
0.0
  0
ARC
  5
C966
330
1A
100
AcDbEntity
  8
SEIHIN
 48
5.0
100
AcDbCircle
 10
526.8289434599608
 20
352.318542452374
 30
0.0
 40
1.000000000000009
100
AcDbArc
 50
195.000000000007
 51
239.0362572654511
  0
LWPOLYLINE
  5
C967
330
1A
100
AcDbEntity
  8
SEIHIN
 48
5.0
100
AcDbPolyline
 90
        5
 70
     0
 43
0.0
 10
525.1767904810094
 20
349.6436420913774
 10
526.4749620107841
 20
348.8647403219441
 10
527.8487505907739
 20
348.0404674811175
 10
529.0127706677119
 20
347.3420550059477
 10
530.1767904810094
 20
346.6436420913778
  0
LWPOLYLINE
  5
C968
330
1A
100
AcDbEntity
  8
SEIHIN
 48
5.0
100
AcDbPolyline
 90
        3
 70
     0
 43
0.0
 10
530.1767907930821
 20
349.1436420913779
 10
528.0012120007715
 20
350.448990869736
 10
526.3144479110279
 20
351.4610494027647
  0
LINE
  5
C969
330
1A
100
AcDbEntity
  8
SEIHIN
 48
5.0
100
AcDbLine
 10
558.6767904810094
 20
351.1436420913796
 30
0.0
 11
558.6767904810094
 21
350.1561172189396
 31
0.0
  0
LINE
  5
C96A
330
1A
100
AcDbEntity
  8
SEIHIN
 48
5.0
100
AcDbLine
 10
556.1768993497983
 20
350.1561172189393
 30
0.0
 11
558.6767904810094
 21
350.1561172189396
 31
0.0
  0
LINE
  5
C96B
330
1A
100
AcDbEntity
  8
SEIHIN
 48
5.0
100
AcDbLine
 10
559.6767904810092
 20
352.1436420913797
 30
0.0
 11
558.6767904810092
 21
351.1436420913796
 31
0.0
  0
ARC
  5
C96C
330
1A
100
AcDbEntity
  8
SEIHIN
 48
5.0
100
AcDbCircle
 10
560.1768480920362
 20
350.1561275342587
 30
0.0
 40
4.000057411683858
100
AcDbArc
 50
120.0004780822035
 51
178.8453918356996
  0
LINE
  5
C96E
330
1A
100
AcDbEntity
  8
SEIHIN
 48
5.0
100
AcDbLine
 10
525.1767904810076
 20
354.6712044721259
 30
0.0
 11
525.176790481006
 21
377.8583699103756
 31
0.0
  0
LINE
  5
C971
330
1A
100
AcDbEntity
  8
SEIHIN
 48
5.0
100
AcDbLine
 10
525.1463815044883
 20
354.7342458519218
 30
0.0
 11
523.1767904810074
 21
354.7342434778073
 31
0.0
  0
LINE
  5
C972
330
1A
100
AcDbEntity
  8
SEIHIN
 48
5.0
100
AcDbLine
 10
525.176790481009
 20
357.2651883679082
 30
0.0
 11
525.1767904810053
 21
410.6436420913811
 31
0.0
  0
LINE
  5
C973
330
1A
100
AcDbEntity
  8
SEIHIN
 48
5.0
100
AcDbLine
 10
513.5080914627248
 20
424.7701577607244
 30
0.0
 11
525.1766904810049
 21
424.7701577607253
 31
0.0
  0
LINE
  5
C974
330
1A
100
AcDbEntity
  8
SEIHIN
 48
5.0
100
AcDbLine
 10
489.1953937868793
 20
420.2071504182754
 30
0.0
 11
509.1767904810051
 21
420.2071504182765
 31
0.0
  0
LINE
  5
C975
330
1A
100
AcDbEntity
  8
SEIHIN
 48
5.0
100
AcDbLine
 10
479.1767904810049
 20
425.1436420913785
 30
0.0
 11
509.1767904810049
 21
425.1436420913803
 31
0.0
  0
ARC
  5
C976
330
1A
100
AcDbEntity
  8
SEIHIN
 48
5.0
100
AcDbCircle
 10
491.5169306513599
 20
540.0733351664509
 30
0.0
 40
119.8887353439325
100
AcDbArc
 50
264.0442056039715
 51
268.9343636211822
  0
ARC
  5
C977
330
1A
100
AcDbEntity
  8
SEIHIN
 48
5.0
100
AcDbCircle
 10
511.8251091425884
 20
433.6077315997456
 30
0.0
 40
8.86873175481765
100
AcDbArc
 50
252.625683826692
 51
265.707960575489
  0
ARC
  5
C978
330
1A
100
AcDbEntity
  8
SEIHIN
 48
5.0
100
AcDbCircle
 10
523.9248161168518
 20
426.1475647933937
 30
0.0
 40
15.46752281988019
100
AcDbArc
 50
197.5444530643674
 51
214.4945387254724
  0
ARC
  5
C979
330
1A
100
AcDbEntity
  8
SEIHIN
 48
5.0
100
AcDbCircle
 10
512.2547383124462
 20
394.6568516340164
 30
0.0
 40
4.252986659485147
100
AcDbArc
 50
99.01340197246732
 51
163.5047577997375
  0
ARC
  5
C97A
330
1A
100
AcDbEntity
  8
SEIHIN
 48
5.0
100
AcDbCircle
 10
512.1767904810067
 20
395.8644264804821
 30
0.0
 40
3.999999999999982
100
AcDbArc
 50
101.3099324740243
 51
180.000000000013
  0
LINE
  5
C97B
330
1A
100
AcDbEntity
  8
SEIHIN
 48
5.0
100
AcDbLine
 10
511.5884420755919
 20
398.8573212328245
 30
0.0
 11
522.6767904810064
 21
401.0749909139081
 31
0.0
  0
LINE
  5
C97C
330
1A
100
AcDbEntity
  8
SEIHIN
 48
5.0
100
AcDbLine
 10
522.4806743458682
 20
402.0044188643289
 30
0.0
 11
511.3923259404536
 21
399.7867491832455
 31
0.0
  0
LINE
  5
C97D
330
1A
100
AcDbEntity
  8
SEIHIN
 48
5.0
100
AcDbLine
 10
509.1767904810049
 20
425.1436420913803
 30
0.0
 11
509.1767904810051
 21
420.2230275000006
 31
0.0
  0
LINE
  5
C97E
330
1A
100
AcDbEntity
  8
SEIHIN
 48
5.0
100
AcDbLine
 10
511.1767904810049
 20
424.7638718367354
 30
0.0
 11
513.5080914627248
 21
424.7701577607244
 31
0.0
  0
LINE
  5
C97F
330
1A
100
AcDbEntity
  8
SEIHIN
 48
5.0
100
AcDbLine
 10
556.7089062147068
 20
411.1180657287487
 30
0.0
 11
530.1767904810057
 21
411.1180657287471
 31
0.0
  0
LINE
  5
C980
330
1A
100
AcDbEntity
  8
SEIHIN
 48
5.0
100
AcDbLine
 10
523.1767904810058
 20
410.6436420913811
 30
0.0
 11
556.7047659823467
 21
410.643642091383
 31
0.0
  0
LINE
  5
C981
330
1A
100
AcDbEntity
  8
SEIHIN
 48
5.0
100
AcDbLine
 10
530.1767904810057
 20
411.118065728747
 30
0.0
 11
530.1767904810053
 21
419.6475695641764
 31
0.0
  0
LINE
  5
C982
330
1A
100
AcDbEntity
  8
SEIHIN
 48
5.0
100
AcDbLine
 10
525.1767904810058
 20
410.6436420913817
 30
0.0
 11
525.1767904810049
 21
425.1436420913817
 31
0.0
  0
LWPOLYLINE
  5
C983
330
1A
100
AcDbEntity
  8
SEIHIN
 48
5.0
100
AcDbPolyline
 90
        9
 70
     0
 43
0.0
 10
530.1767904810057
 20
411.1180657287471
 10
530.1618014600826
 20
411.0242431563311
 10
530.1173736071082
 20
410.9347157994408
 10
530.0451051541256
 20
410.8527042838974
 10
529.947595861184
 20
410.7811588632754
 10
529.8283534934805
 20
410.7226532875102
 10
529.6916676342418
 20
410.6792922157209
 10
529.5424553727579
 20
410.6526355039362
 10
529.3860844187311
 20
410.6436420913822
  0
ARC
  5
C984
330
1A
100
AcDbEntity
  8
SEIHIN
 48
5.0
100
AcDbCircle
 10
521.7913897823605
 20
372.8395707843443
 30
0.0
 40
55.42641734630429
100
AcDbArc
 50
46.16793194641899
 51
50.89637920230643
  0
LINE
  5
C985
330
1A
100
AcDbEntity
  8
SEIHIN
 48
5.0
100
AcDbLine
 10
642.1767904810057
 20
417.0924893661187
 30
0.0
 11
642.1767904810092
 21
356.4947892376542
 31
0.0
  0
LINE
  5
C986
330
1A
100
AcDbEntity
  8
SEIHIN
 48
5.0
100
AcDbLine
 10
656.676790481007
 20
395.8644264804907
 30
0.0
 11
656.6767904810092
 21
355.5447191798846
 31
0.0
  0
LINE
  5
C987
330
1A
100
AcDbEntity
  8
SEIHIN
 48
5.0
100
AcDbLine
 10
613.6767904810094
 20
351.0878888634741
 30
0.0
 11
639.6767904810094
 21
351.0878888634757
 31
0.0
  0
ARC
  5
C988
330
1A
100
AcDbEntity
  8
SEIHIN
 48
5.0
100
AcDbCircle
 10
614.1767904810096
 20
349.6436420913828
 30
0.0
 40
0.5
100
AcDbArc
 50
180.0
 51
270.0
  0
LINE
  5
C989
330
1A
100
AcDbEntity
  8
SEIHIN
 48
5.0
100
AcDbLine
 10
612.1066811667888
 20
349.1436420913828
 30
0.0
 11
608.9267904810096
 21
349.1436420913824
 31
0.0
  0
LINE
  5
C98A
330
1A
100
AcDbEntity
  8
SEIHIN
 48
5.0
100
AcDbLine
 10
608.4267904810096
 20
349.4308217883822
 30
0.0
 11
605.9267904810097
 21
349.430821788382
 31
0.0
  0
LINE
  5
C98B
330
1A
100
AcDbEntity
  8
SEIHIN
 48
5.0
100
AcDbLine
 10
605.4267904810094
 20
349.1436420913826
 30
0.0
 11
605.4267904810094
 21
352.1436420913824
 31
0.0
  0
LINE
  5
C98C
330
1A
100
AcDbEntity
  8
SEIHIN
 48
5.0
100
AcDbLine
 10
605.9267904810097
 20
349.430821788382
 30
0.0
 11
605.9267904810094
 21
352.1436420913826
 31
0.0
  0
LINE
  5
C98D
330
1A
100
AcDbEntity
  8
SEIHIN
 48
5.0
100
AcDbLine
 10
608.4267904810094
 20
352.1436420913826
 30
0.0
 11
608.4267904810096
 21
349.4308217883822
 31
0.0
  0
LINE
  5
C98E
330
1A
100
AcDbEntity
  8
SEIHIN
 48
5.0
100
AcDbLine
 10
608.9267904810096
 20
349.1436420913828
 30
0.0
 11
608.9267904810094
 21
352.1436420913826
 31
0.0
  0
LINE
  5
C98F
330
1A
100
AcDbEntity
  8
SEIHIN
 48
5.0
100
AcDbLine
 10
613.6767904810096
 20
349.6436420913828
 30
0.0
 11
613.6767904810094
 21
352.143642091383
 31
0.0
  0
LINE
  5
C990
330
1A
100
AcDbEntity
  8
SEIHIN
 48
5.0
100
AcDbLine
 10
613.6767904810094
 20
351.1436420913828
 30
0.0
 11
612.1767904810094
 21
351.1436420913828
 31
0.0
  0
LINE
  5
C991
330
1A
100
AcDbEntity
  8
SEIHIN
 48
5.0
100
AcDbLine
 10
612.1066811667888
 20
349.1436420913828
 30
0.0
 11
612.2118451381204
 21
352.1436420913829
 31
0.0
  0
LINE
  5
C992
330
1A
100
AcDbEntity
  8
SEIHIN
 48
5.0
100
AcDbLine
 10
605.4267904810094
 20
349.1436420913826
 30
0.0
 11
602.2468997952302
 21
349.1436420913822
 31
0.0
  0
LINE
  5
C993
330
1A
100
AcDbEntity
  8
SEIHIN
 48
5.0
100
AcDbLine
 10
602.1417358238986
 20
352.1436420913823
 30
0.0
 11
602.2468997952302
 21
349.1436420913822
 31
0.0
  0
LINE
  5
C994
330
1A
100
AcDbEntity
  8
SEIHIN
 48
5.0
100
AcDbLine
 10
600.6767904810094
 20
352.1436420913822
 30
0.0
 11
600.6767904810051
 21
351.1436420912628
 31
0.0
  0
LINE
  5
C995
330
1A
100
AcDbEntity
  8
SEIHIN
 48
5.0
100
AcDbLine
 10
602.1767904810094
 20
351.1436420913822
 30
0.0
 11
600.6767904810094
 21
351.1436420913822
 31
0.0
  0
ARC
  5
C996
330
1A
100
AcDbEntity
  8
SEIHIN
 48
5.0
100
AcDbCircle
 10
600.1239066839191
 20
349.6436420913822
 30
0.0
 40
0.5000000000002274
100
AcDbArc
 50
270.0
 51
357.9927327965517
  0
LINE
  5
C997
330
1A
100
AcDbEntity
  8
SEIHIN
 48
5.0
100
AcDbLine
 10
613.6767904810096
 20
349.6436420913828
 30
0.0
 11
613.6767904810094
 21
351.1436420913828
 31
0.0
  0
LWPOLYLINE
  5
C998
330
1A
100
AcDbEntity
  8
SEIHIN
 48
5.0
100
AcDbPolyline
 90
        3
 70
     0
 43
0.0
 10
600.6235998801419
 20
349.6261289634905
 10
600.6438521186919
 20
350.2039548060198
 10
600.6767904810051
 20
351.1436420912628
  0
LINE
  5
C999
330
1A
100
AcDbEntity
  8
SEIHIN
 48
5.0
100
AcDbLine
 10
651.6767904810092
 20
354.2118363607094
 30
0.0
 11
655.00558845562
 21
355.0840291130903
 31
0.0
  0
LINE
  5
C99A
330
1A
100
AcDbEntity
  8
SEIHIN
 48
5.0
100
AcDbLine
 10
651.6767904810001
 20
354.2118363607146
 30
0.0
 11
642.6543132277193
 21
353.789356879985
 31
0.0
  0
LINE
  5
C99B
330
1A
100
AcDbEntity
  8
SEIHIN
 48
5.0
100
AcDbLine
 10
642.1767904810094
 20
352.1436420913847
 30
0.0
 11
642.1767904810092
 21
354.1436420913847
 31
0.0
  0
ARC
  5
C99C
330
1A
100
AcDbEntity
  8
SEIHIN
 48
5.0
100
AcDbCircle
 10
642.6777841505447
 20
353.2889132904568
 30
0.0
 40
0.5009936831064296
100
AcDbArc
 50
92.68521794655464
 51
179.9866639169511
  0
LINE
  5
C99D
330
1A
100
AcDbEntity
  8
SEIHIN
 48
5.0
100
AcDbLine
 10
638.6767904810094
 20
352.1436420913844
 30
0.0
 11
639.6767904810094
 21
351.1436420913847
 31
0.0
  0
LINE
  5
C99E
330
1A
100
AcDbEntity
  8
SEIHIN
 48
5.0
100
AcDbLine
 10
639.6767904810094
 20
351.1436420913847
 30
0.0
 11
639.6767904810096
 21
349.6436420913849
 31
0.0
  0
LINE
  5
C99F
330
1A
100
AcDbEntity
  8
SEIHIN
 48
5.0
100
AcDbLine
 10
656.6767904810092
 20
356.5217578296482
 30
0.0
 11
641.6767904810097
 21
356.4938592862061
 31
0.0
  0
LINE
  5
C9A0
330
1A
100
AcDbEntity
  8
SEIHIN
 48
5.0
100
AcDbLine
 10
656.6767904810092
 20
358.1810028409209
 30
0.0
 11
642.6767904810092
 21
358.1810028409198
 31
0.0
  0
LINE
  5
C9A1
330
1A
100
AcDbEntity
  8
SEIHIN
 48
5.0
100
AcDbLine
 10
641.6767904810092
 20
355.5871854226691
 30
0.0
 11
641.6767904810092
 21
356.4938592862063
 31
0.0
  0
ARC
  5
C9A2
330
1A
100
AcDbEntity
  8
SEIHIN
 48
5.0
100
AcDbCircle
 10
644.8885737718049
 20
395.0461479671724
 30
0.0
 40
41.22286901005717
100
AcDbArc
 50
284.2067965269105
 51
286.6164223750696
  0
LINE
  5
C9A3
330
1A
100
AcDbEntity
  8
SEIHIN
 48
5.0
100
AcDbLine
 10
636.1767904810049
 20
425.1436420913885
 30
0.0
 11
615.6767904810049
 21
425.1436420913871
 31
0.0
  0
LINE
  5
C9A4
330
1A
100
AcDbEntity
  8
SEIHIN
 48
5.0
100
AcDbLine
 10
615.6767904810055
 20
419.6475695641813
 30
0.0
 11
615.6767904810051
 21
425.1436420913871
 31
0.0
  0
LINE
  5
C9A5
330
1A
100
AcDbEntity
  8
SEIHIN
 48
5.0
100
AcDbLine
 10
653.2651388864212
 20
398.8573212328331
 30
0.0
 11
642.6767904810067
 21
400.9749909139154
 31
0.0
  0
LINE
  5
C9A6
330
1A
100
AcDbEntity
  8
SEIHIN
 48
5.0
100
AcDbLine
 10
642.5787324134375
 20
401.9632537048778
 30
0.0
 11
653.4612550215594
 21
399.7867491832542
 31
0.0
  0
ARC
  5
C9A7
330
1A
100
AcDbEntity
  8
SEIHIN
 48
5.0
100
AcDbCircle
 10
639.6695493711645
 20
435.4529635365284
 30
0.0
 40
10.7288354194374
100
AcDbArc
 50
253.924668343226
 51
264.6907211284847
  0
LINE
  5
C9A8
330
1A
100
AcDbEntity
  8
SEIHIN
 48
5.0
100
AcDbLine
 10
636.6767904810053
 20
422.6436420913885
 30
0.0
 11
636.6767904810051
 21
425.1436420913885
 31
0.0
  0
LINE
  5
C9A9
330
1A
100
AcDbEntity
  8
SEIHIN
 48
5.0
100
AcDbLine
 10
638.6767904810053
 20
422.6436420913887
 30
0.0
 11
638.6767904810051
 21
424.7701577607322
 31
0.0
  0
ARC
  5
C9AA
330
1A
100
AcDbEntity
  8
SEIHIN
 48
5.0
100
AcDbCircle
 10
676.0919285704619
 20
394.5261056266356
 30
0.0
 40
23.2340645584622
100
AcDbArc
 50
166.9136404500523
 51
169.2562648029823
  0
ARC
  5
C9AB
330
1A
100
AcDbEntity
  8
SEIHIN
 48
5.0
100
AcDbCircle
 10
652.598842649568
 20
394.6568516340255
 30
0.0
 40
4.252986659484329
100
AcDbArc
 50
16.49524220026271
 51
80.98659802754589
  0
ARC
  5
C9AC
330
1A
100
AcDbEntity
  8
SEIHIN
 48
5.0
100
AcDbCircle
 10
652.6767904810071
 20
395.8644264804905
 30
0.0
 40
3.999999999999956
100
AcDbArc
 50
0.0
 51
78.69006752598889
  0
LINE
  5
C9AD
330
1A
100
AcDbEntity
  8
SEIHIN
 48
5.0
100
AcDbLine
 10
717.6767904810049
 20
425.1436420913928
 30
0.0
 11
717.6767904810094
 21
350.9436420913892
 31
0.0
  0
LINE
  5
C9AE
330
1A
100
AcDbEntity
  8
SEIHIN
 48
5.0
100
AcDbLine
 10
686.6767904810096
 20
347.9436420913871
 30
0.0
 11
686.6767904810096
 21
349.1436420913874
 31
0.0
  0
LINE
  5
C9AF
330
1A
100
AcDbEntity
  8
SEIHIN
 48
5.0
100
AcDbLine
 10
686.6767904810096
 20
349.1436420913874
 30
0.0
 11
686.6767904810096
 21
349.6436420913874
 31
0.0
  0
LINE
  5
C9B0
330
1A
100
AcDbEntity
  8
SEIHIN
 48
5.0
100
AcDbLine
 10
681.6767904810094
 20
346.6436420913869
 30
0.0
 11
686.6767904810094
 21
347.9436420913871
 31
0.0
  0
LINE
  5
C9B1
330
1A
100
AcDbEntity
  8
SEIHIN
 48
5.0
100
AcDbLine
 10
712.6767904810101
 20
349.643642091389
 30
0.0
 11
717.6767904810092
 21
350.9436420913892
 31
0.0
  0
LINE
  5
C9B2
330
1A
100
AcDbEntity
  8
SEIHIN
 48
5.0
100
AcDbLine
 10
687.6767904810056
 20
420.2071504182872
 30
0.0
 11
707.6581871751302
 21
420.2071504182886
 31
0.0
  0
LINE
  5
C9B3
330
1A
100
AcDbEntity
  8
SEIHIN
 48
5.0
100
AcDbLine
 10
717.6767904810049
 20
425.1436420913928
 30
0.0
 11
687.6767904810049
 21
425.1436420913912
 31
0.0
  0
LINE
  5
C9B4
330
1A
100
AcDbEntity
  8
SEIHIN
 48
5.0
100
AcDbLine
 10
685.6767904810048
 20
422.1692184540266
 30
0.0
 11
685.6767904810048
 21
424.7701577607349
 31
0.0
  0
ARC
  5
C9B5
330
1A
100
AcDbEntity
  8
SEIHIN
 48
5.0
100
AcDbCircle
 10
684.7299847181147
 20
435.2095843281479
 30
0.0
 40
10.48227399990337
100
AcDbArc
 50
275.1822734385672
 51
286.2023370897365
  0
ARC
  5
C9B6
330
1A
100
AcDbEntity
  8
SEIHIN
 48
5.0
100
AcDbCircle
 10
672.9287648464171
 20
426.1475647927877
 30
0.0
 40
15.46752281849437
100
AcDbArc
 50
325.5054612737768
 51
342.4555469364112
  0
LINE
  5
C9B7
330
1A
100
AcDbEntity
  8
SEIHIN
 48
5.0
100
AcDbLine
 10
687.6767904810056
 20
420.2230275000115
 30
0.0
 11
687.6767904810051
 21
425.1436420913912
 31
0.0
  0
ARC
  5
C9B8
330
1A
100
AcDbEntity
  8
SEIHIN
 48
5.0
100
AcDbCircle
 10
677.0573317546613
 20
385.1249804186857
 30
0.0
 40
39.88028964651043
100
AcDbArc
 50
77.51797581180565
 51
83.77542431517532
  0
ARC
  5
C9B9
330
1A
100
AcDbEntity
  8
SEIHIN
 48
5.0
100
AcDbCircle
 10
705.3366503106565
 20
540.0733351661536
 30
0.0
 40
119.8887353436217
100
AcDbArc
 50
271.0656363788308
 51
275.9557943960416
  0
DIMENSION
  5
E2ED
330
1A
100
AcDbEntity
  8
SUNPOU
 48
5.0
100
AcDbDimension
  2
*D2
 10
320.0106757473329
 20
256.1213948468012
 30
0.0
 11
200.7606757473329
 21
261.1213948468012
 31
0.0
 70
    32
 71
     5
 42
-1.0
  3
STANDARD
100
AcDbAlignedDimension
 13
81.51067574733293
 23
217.3124145138886
 33
0.0
 14
320.0106757473329
 24
217.3124145138886
 34
0.0
100
AcDbRotatedDimension
  0
DIMENSION
  5
E2FC
330
1A
100
AcDbEntity
  8
SUNPOU
 48
5.0
100
AcDbDimension
  2
*D3
 10
290.0106757473329
 20
241.6812308098279
 30
0.0
 11
305.0106757473329
 21
246.6812308098279
 31
0.0
 70
    32
 71
     5
 42
-1.0
  3
STANDARD
100
AcDbAlignedDimension
 13
320.0106757473329
 23
219.3124145138886
 33
0.0
 14
290.0106757473329
 24
216.9804568682596
 34
0.0
100
AcDbRotatedDimension
  0
DIMENSION
  5
E309
330
1A
100
AcDbEntity
  8
SUNPOU
 48
5.0
100
AcDbDimension
  2
*D4
 10
350.0106757473329
 20
241.6812308098279
 30
0.0
 11
335.0106757473329
 21
246.6812308098279
 31
0.0
 70
    32
 71
     5
 42
-1.0
  3
STANDARD
100
AcDbAlignedDimension
 13
320.0106757473329
 23
219.3124145138886
 33
0.0
 14
350.0106757473329
 24
217.3124145138886
 34
0.0
100
AcDbRotatedDimension
  0
INSERT
  5
E331
330
1A
100
AcDbEntity
  8
ﾊｯﾁﾝｸﾞ
  6
Continuous
100
AcDbBlockReference
  2
*X9
 10
35.9230233904209
 20
-18.80846135444449
 30
0.0
1001
ACAD
1000
HATCH
1002
{
1070
    19
1000
_USER
1040
1.5
1040
0.7853981633974483
1000
R14_HATCH_DATA
1000
E331
1011
36.9230233904209
1021
-18.80846135444449
1031
0.0
1011
35.9230233904209
1021
-17.80846135444449
1031
0.0
1011
35.9230233904209
1021
-18.80846135444449
1031
1.0
1040
0.0
1010
0.0
1020
0.0
1030
1.0
1000
_USER
1070
     0
1070
     0
1071
        2
1071
        1
1071
       30
1070
     1
1040
443.2537670905883
1040
369.7521034458168
1040
443.2537670905883
1040
370.9521034458193
1070
     1
1040
443.2537670905883
1040
370.9521034458193
1040
487.2537670905883
1040
370.952103445822
1070
     1
1040
487.2537670905867
1040
370.9521034458221
1040
487.2537670905865
1040
372.5021034458249
1070
     1
1040
487.2537670905881
1040
372.5021034458249
1040
489.5021870513455
1040
372.5021034458242
1070
     1
1040
489.5021870513458
1040
372.5021034458242
1040
489.9399942432507
1040
370.8681847617158
1070
     2
1040
490.9059200695399
1040
371.1270038068184
1040
1.000000000000009
1040
3.403392041389065
1040
4.171969720926337
1070
     1
1070
     1
1040
490.3914245206069
1040
370.2695107572091
1040
492.0781886103506
1040
369.2574522241804
1070
     1
1040
492.0781886103506
1040
369.2574522241804
1040
494.2537674026612
1040
367.9521034458223
1070
     1
1040
494.2537674026612
1040
367.9521034458223
1040
564.2008832934982
1040
367.9521034458264
1070
     2
1040
564.2008832934982
1040
368.4521034458267
1040
0.5000000000002274
1040
4.712388980384689
1040
6.248151885512113
1070
     1
1070
     1
1040
564.700576489721
1040
368.4345903179349
1040
564.720828728271
1040
369.0124161604642
1070
     1
1040
564.720828728271
1040
369.0124161604642
1040
564.7537670905842
1040
369.9521034457073
1070
     1
1040
564.7537670905885
1040
369.9521034458267
1040
566.2537670905885
1040
369.9521034458267
1070
     1
1040
566.2537670905881
1040
369.9521034458267
1040
566.3238764048094
1040
367.9521034458267
1070
     1
1040
566.3238764048094
1040
367.9521034458259
1040
576.1836577763679
1040
367.9521034458273
1070
     1
1040
576.1836577763679
1040
367.9521034458273
1040
576.2537670905889
1040
369.9521034458267
1070
     1
1040
576.2537670905885
1040
369.9521034458273
1040
577.7537670905885
1040
369.9521034458273
1070
     1
1040
577.7537670905885
1040
369.9521034458273
1040
577.7537670905887
1040
368.4521034458273
1070
     2
1040
578.2537670905887
1040
368.4521034458273
1040
0.5
1040
3.141592653589793
1040
4.712388980384689
1070
     1
1070
     1
1040
578.2537670905887
1040
367.9521034458273
1040
650.7537670905888
1040
367.9521034458319
1070
     1
1040
650.7537670905888
1040
367.9521034458319
1040
650.7537670905888
1040
366.7521034458316
1070
     1
1040
650.7537670905885
1040
366.7521034458316
1040
645.7537670905885
1040
365.4521034458314
1070
     1
1040
645.7537670905885
1040
365.4521034458314
1040
494.2537670905885
1040
365.4521034458223
1070
     1
1040
494.2537670905885
1040
365.4521034458223
1040
493.089747277291
1040
366.1505163603921
1070
     1
1040
493.089747277291
1040
366.1505163603921
1040
491.925727200353
1040
366.8489288355619
1070
     1
1040
491.925727200353
1040
366.8489288355619
1040
490.5519386203632
1040
367.6732016763885
1070
     1
1040
490.5519386203632
1040
367.6732016763885
1040
489.2537670905885
1040
368.4521034458218
1070
     1
1040
489.2537670905885
1040
368.4521034458223
1040
477.5850680723046
1040
368.4521034458216
1070
     2
1040
477.5850680722924
1040
568.4521034458214
1040
199.9999999999998
1040
1.570796326794896
1040
1.614102567189531
1070
     0
1070
     1
1040
468.9265270009173
1040
368.6396171830374
1040
443.2537670905883
1040
369.7521034458168
1071
        0
1071
       48
1071
        1
1070
     1
1040
577.7537670905887
1040
368.4521034458273
1040
577.7537670905887
1040
369.9521034458267
1071
        0
1070
     0
1070
     0
1040
0.7853981633974483
1040
1.5
1070
     0
1070
     1
1040
0.7853981633974483
1040
-614.9984207916586
1040
310.228845470407
1040
-1.060660171779821
1040
1.060660171779821
1070
     0
1071
        1
1040
-614.9984207916586
1040
310.228845470407
1040
0.0
1002
}
  0
INSERT
  5
E332
330
1A
100
AcDbEntity
  8
ﾊｯﾁﾝｸﾞ
  6
Continuous
100
AcDbBlockReference
  2
*X10
 10
35.9230233904209
 20
-18.80846135444449
 30
0.0
1001
ACAD
1000
HATCH
1002
{
1070
    19
1000
_USER
1040
1.5
1040
2.356194490192344
1000
R14_HATCH_DATA
1000
E332
1011
36.9230233904209
1021
-18.80846135444449
1031
0.0
1011
35.9230233904209
1021
-17.80846135444449
1031
0.0
1011
35.9230233904209
1021
-18.80846135444449
1031
1.0
1040
0.0
1010
0.0
1020
0.0
1030
1.0
1000
_USER
1070
     0
1070
     0
1071
        3
1071
        1
1071
        2
1070
     1
1040
676.7537670905895
1040
368.4521034458332
1040
603.7537670905887
1040
368.4521034458291
1070
     1
1040
603.753767090589
1040
368.4521034458292
1040
676.7537670905896
1040
368.4521034458333
1071
        0
1071
       16
1071
        2
1070
     1
1040
676.7537670905895
1040
368.4521034458332
1040
603.7537670905887
1040
368.4521034458291
1070
     1
1040
603.753767090589
1040
368.4521034458292
1040
676.7537670905896
1040
368.4521034458333
1071
        0
1071
       33
1071
       13
1070
     1
1040
681.7537670905885
1040
369.7521034458334
1040
681.7537670905885
1040
370.9521034458337
1070
     1
1040
676.7537670905895
1040
368.4521034458332
1040
681.7537670905885
1040
369.7521034458334
1070
     1
1040
603.753767090589
1040
369.9521034458287
1040
603.753767090589
1040
368.4521034458292
1070
     1
1040
602.7537670905886
1040
370.9521034458287
1040
603.7537670905887
1040
369.9521034458289
1070
     1
1040
606.2537670905888
1040
370.952103445829
1040
606.2537670905885
1040
372.9521034458289
1070
     2
1040
524.2538247016154
1040
368.9645888887031
1040
4.000057411683858
1040
2.094403446501742
1040
3.141595232382658
1070
     1
1070
     1
1040
523.7537670905886
1040
370.9521034458239
1040
522.7537670905885
1040
369.9521034458239
1070
     1
1040
522.7537670905888
1040
369.952103445824
1040
522.7537670905888
1040
368.9645785733838
1070
     1
1040
520.2538759593776
1040
368.9645785733836
1040
522.7537670905888
1040
368.9645785733838
1070
     2
1040
524.2537670905887
1040
368.9521034458242
1040
4.0000000293294
1040
1.570796326794896
1040
2.094395098159868
1070
     1
1070
     1
1040
523.7537670905887
1040
370.952103445824
1040
602.7537670905886
1040
370.9521034458287
1070
     1
1040
524.2537670905885
1040
372.9521034458242
1040
606.2537670905885
1040
372.952103445829
1070
     1
1040
606.2537670905888
1040
370.952103445829
1040
681.7537670905887
1040
370.9521034458335
1071
        0
1070
     0
1070
     0
1040
2.356194490192344
1040
1.5
1070
     0
1070
     1
1040
2.356194490192344
1040
-614.9984207916584
1040
292.3877131596748
1040
-1.060660171779821
1040
-1.060660171779821
1070
     0
1071
        1
1040
-614.9984207916584
1040
292.3877131596748
1040
0.0
1002
}
  0
DIMENSION
  5
E333
330
1A
100
AcDbEntity
  8
SUNPOU
 48
5.0
100
AcDbDimension
  2
*D5
 10
380.4469597911711
 20
318.3721383772554
 30
0.0
 11
375.4469597911711
 21
396.6847383484211
 31
0.0
 70
    32
 71
     5
 42
-1.0
  3
STANDARD
100
AcDbAlignedDimension
 13
284.0113246394815
 23
474.9973383195865
 33
0.0
 14
284.0106757473327
 24
318.3721383772554
 34
0.0
 50
90.0
100
AcDbRotatedDimension
  0
DIMENSION
  5
E340
330
1A
100
AcDbEntity
  8
SUNPOU
 48
5.0
100
AcDbDimension
  2
*D6
 10
642.1767904810057
 20
448.9364686269425
 30
0.0
 11
679.9267904810053
 21
453.9364686269425
 31
0.0
 70
    32
  1
\U+203B<>
 71
     5
 42
-1.0
  3
STANDARD
100
AcDbAlignedDimension
 13
717.6767904810049
 23
425.1436420913928
 33
0.0
 14
642.1767904810057
 24
417.0924893661185
 34
0.0
100
AcDbRotatedDimension
  0
DIMENSION
  5
E34D
330
1A
100
AcDbEntity
  8
SUNPOU
 48
5.0
100
AcDbDimension
  2
*D7
 10
479.1767904810049
 20
448.9364686269425
 30
0.0
 11
501.1767404810053
 21
453.9364686269425
 31
0.0
 70
    32
  1
\U+203B<>
 71
     5
 42
-1.0
  3
STANDARD
100
AcDbAlignedDimension
 13
523.1766904810058
 23
425.0308296542917
 33
0.0
 14
479.1767904810049
 24
425.1436420913785
 34
0.0
100
AcDbRotatedDimension
  0
DIMENSION
  5
E35A
330
1A
100
AcDbEntity
  8
SUNPOU
 48
5.0
100
AcDbDimension
  2
*D8
 10
717.6767904810049
 20
462.2499352136771
 30
0.0
 11
598.4267904810049
 21
467.2499352136772
 31
0.0
 70
    32
 71
     5
 42
-1.0
  3
STANDARD
100
AcDbAlignedDimension
 13
479.1767904810049
 23
425.1436420913785
 33
0.0
 14
717.6767904810049
 24
425.1436420913928
 34
0.0
100
AcDbRotatedDimension
  0
TEXT
  5
FD58
330
1A
100
AcDbEntity
  8
SUNPOU
100
AcDbText
 10
673.3815521616386
 20
58.82103018741315
 30
0.0
 40
5.599999999999999
  1
※　のきといの差込長さ
 41
0.9
  7
MSPｺﾞｼｯｸ
100
AcDbText
  0
TEXT
  5
FD6B
330
1A
100
AcDbEntity
  8
SUNPOU
 48
5.0
100
AcDbText
 10
342.1134691321402
 20
246.6512899475219
 30
0.0
 40
5.599999999999999
  1
伸縮長さ
 41
0.9
100
AcDbText
  0
TEXT
  5
FD6C
330
1A
100
AcDbEntity
  8
SUNPOU
 48
5.0
100
AcDbText
 10
216.0013958655352
 20
256.7349882737461
 30
0.0
 40
5.599999999999999
  1
施工時の長さ
 41
0.9
100
AcDbText
  0
LINE
  5
11699
330
1A
100
AcDbEntity
  8
SEIHIN
 48
5.0
100
AcDbLine
 10
176.6606757473331
 20
220.8124145138889
 30
0.0
 11
161.660675747333
 21
220.8124145138889
 31
0.0
  0
LINE
  5
1169A
330
1A
100
AcDbEntity
  8
SEIHIN
 48
5.0
100
AcDbLine
 10
176.6606757473331
 20
219.3124145138889
 30
0.0
 11
161.660675747333
 21
219.3124145138888
 31
0.0
  0
LINE
  5
1169B
330
1A
100
AcDbEntity
  8
SEIHIN
 48
5.0
100
AcDbLine
 10
176.660675747333
 20
198.7280342289528
 30
0.0
 11
161.660675747333
 21
198.7280342289528
 31
0.0
  0
LINE
  5
1169C
330
1A
100
AcDbEntity
  8
SEIHIN
 48
5.0
100
AcDbLine
 10
176.660675747333
 20
202.0133806429309
 30
0.0
 11
161.660675747333
 21
202.0133806429309
 31
0.0
  0
LINE
  5
1169D
330
1A
100
AcDbEntity
  8
SEIHIN
 48
5.0
100
AcDbLine
 10
176.660675747333
 20
194.008163825405
 30
0.0
 11
161.660675747333
 21
194.008163825405
 31
0.0
  0
LINE
  5
1169E
330
1A
100
AcDbEntity
  8
SEIHIN
 48
5.0
100
AcDbLine
 10
176.660675747333
 20
197.3120175125416
 30
0.0
 11
161.660675747333
 21
197.3120175125416
 31
0.0
  0
LINE
  5
116A0
330
1A
100
AcDbEntity
  8
SEIHIN
 48
5.0
100
AcDbLine
 10
176.66067574733
 20
310.6607535425486
 30
0.0
 11
161.66067574733
 21
310.6607535425486
 31
0.0
  0
LINE
  5
116A1
330
1A
100
AcDbEntity
  8
SEIHIN
 48
5.0
100
AcDbLine
 10
176.6606757473305
 20
313.9781927450371
 30
0.0
 11
161.6606757473305
 21
313.9781927450371
 31
0.0
  0
LINE
  5
116A2
330
1A
100
AcDbEntity
  8
SEIHIN
 48
5.0
100
AcDbLine
 10
176.6606757473334
 20
332.3794718426787
 30
0.0
 11
161.6606757473333
 21
332.3794718426787
 31
0.0
  0
LINE
  5
116A3
330
1A
100
AcDbEntity
  8
SEIHIN
 48
5.0
100
AcDbLine
 10
176.6606757473353
 20
344.3749281764444
 30
0.0
 11
161.6606757473353
 21
344.3749281764444
 31
0.0
  0
LINE
  5
116A4
330
1A
100
AcDbEntity
  8
SEIHIN
 48
5.0
100
AcDbLine
 10
161.5106757473327
 20
339.9874798577507
 30
0.0
 11
161.6606757473307
 21
339.9874798577507
 31
0.0
  0
DIMENSION
  5
116A7
330
1A
100
AcDbEntity
  8
SUNPOU
 48
5.0
100
AcDbDimension
  2
*D11
 10
125.5105757473338
 20
508.1886255556546
 30
0.0
 11
103.5106257473334
 21
513.1886255556546
 31
0.0
 70
    32
  1
\U+203B<>
 71
     5
 42
-1.0
  3
STANDARD
100
AcDbAlignedDimension
 13
81.51067574733293
 23
470.6917064850863
 33
0.0
 14
125.5105757473338
 24
470.5788940479996
 34
0.0
100
AcDbRotatedDimension
  0
DIMENSION
  5
116B5
330
1A
100
AcDbEntity
  8
SUNPOU
 48
5.0
100
AcDbDimension
  2
*D12
 10
244.021821261191
 20
508.1886255556546
 30
0.0
 11
282.0162485042619
 21
513.1886255556546
 31
0.0
 70
    32
  1
\U+203B<>
 71
     5
 42
-1.0
  3
STANDARD
100
AcDbAlignedDimension
 13
320.0106757473327
 23
471.9934056983711
 33
0.0
 14
244.021821261191
 24
471.9934056983714
 34
0.0
100
AcDbRotatedDimension
  0
DIMENSION
  5
116C2
330
1A
100
AcDbEntity
  8
SUNPOU
 48
5.0
100
AcDbDimension
  2
*D13
 10
244.021821261191
 20
508.1886255556546
 30
0.0
 11
184.7661985042624
 21
513.1886255556546
 31
0.0
 70
    32
 71
     5
 42
-1.0
  3
STANDARD
100
AcDbAlignedDimension
 13
125.5105757473338
 23
470.5788940479996
 33
0.0
 14
244.021821261191
 24
471.9934056983714
 34
0.0
100
AcDbRotatedDimension
  0
TEXT
  5
116F3
330
1A
100
AcDbEntity
  8
SUNPOU
 48
5.0
100
AcDbText
 10
181.9121971664101
 20
519.8907284571052
 30
0.0
 40
5.599999999999999
  1
施工時のきといの間隔
 41
0.9
100
AcDbText
  0
LINE
  5
116F6
330
1A
100
AcDbEntity
  8
CENTER L
 48
5.0
100
AcDbLine
 10
169.160675747333
 20
189.3068689134844
 30
0.0
 11
169.160675747333
 21
225.5137094258093
 31
0.0
  0
LINE
  5
116F9
330
1A
100
AcDbEntity
  8
CENTER L
 48
5.0
100
AcDbLine
 10
169.16067574733
 20
305.9594586306281
 30
0.0
 11
169.16067574733
 21
347.7002364357322
 31
0.0
  0
LINE
  5
11772
330
1A
100
AcDbEntity
  8
伸縮
 62
     2
 48
0.3
100
AcDbLine
 10
345.0106757473335
 20
101.1624145138885
 30
0.0
 11
345.0106757473331
 21
215.9955548185044
 31
0.0
  0
LINE
  5
11773
330
1A
100
AcDbEntity
  8
伸縮
 62
     2
 48
0.3
100
AcDbLine
 10
350.0106757473329
 20
217.3124145138886
 30
0.0
 11
350.0106757473329
 21
102.4624145138884
 31
0.0
  0
LINE
  5
11774
330
1A
100
AcDbEntity
  8
伸縮
 62
     2
 48
0.3
100
AcDbLine
 10
345.0106757473335
 20
101.1624145138885
 30
0.0
 11
350.0106757473329
 21
102.4624145138884
 31
0.0
  0
ARC
  5
11781
330
1A
100
AcDbEntity
  8
伸縮
 62
     2
 48
0.3
100
AcDbCircle
 10
344.9474502187102
 20
214.5688221259525
 30
0.0
 40
1.426732870012736
100
AcDbArc
 50
84.96946848154278
 51
90.02857705842748
  0
LINE
  5
1178A
330
1A
100
AcDbEntity
  8
伸縮
 62
     2
 48
0.3
100
AcDbLine
 10
345.0106757473335
 20
102.5227219954597
 30
0.0
 11
333.0724471489721
 21
102.5227219954597
 31
0.0
  0
LINE
  5
1178B
330
1A
100
AcDbEntity
  8
伸縮
 62
     2
 48
0.3
100
AcDbLine
 10
333.0724471489721
 20
101.1624145138885
 30
0.0
 11
345.0106757473335
 21
101.1624145138885
 31
0.0
  0
LINE
  5
1178C
330
1A
100
AcDbEntity
  8
伸縮
 62
     2
 48
0.3
100
AcDbLine
 10
333.0724471489721
 20
125.7896324963772
 30
0.0
 11
345.0199048994743
 21
125.7896324963772
 31
0.0
  0
LINE
  5
1178D
330
1A
100
AcDbEntity
  8
伸縮
 62
     2
 48
0.3
100
AcDbLine
 10
344.9467386160884
 20
215.9955548185044
 30
0.0
 11
333.0724471489721
 21
215.9955548185044
 31
0.0
  0
LINE
  5
1178E
330
1A
100
AcDbEntity
  8
伸縮
 62
     2
 48
0.3
100
AcDbLine
 10
333.0724471489721
 20
217.3124145138886
 30
0.0
 11
350.0106757473329
 21
217.3124145138886
 31
0.0
  0
LINE
  5
11794
330
1A
100
AcDbEntity
  8
伸縮
 62
     2
 48
0.3
100
AcDbLine
 10
350.0106757790434
 20
103.8313305439815
 30
0.0
 11
349.4028239308989
 21
103.6783842490295
 31
0.0
  0
LINE
  5
11795
330
1A
100
AcDbEntity
  8
伸縮
 62
     2
 48
0.3
100
AcDbLine
 10
349.4028239308989
 20
103.6783842490295
 30
0.0
 11
348.7852602197656
 21
103.5197276656015
 31
0.0
  0
LINE
  5
11796
330
1A
100
AcDbEntity
  8
伸縮
 62
     2
 48
0.3
100
AcDbLine
 10
348.7852602197656
 20
103.5197276656015
 30
0.0
 11
348.5216381823427
 21
103.4510818817832
 31
0.0
  0
LINE
  5
11797
330
1A
100
AcDbEntity
  8
伸縮
 62
     2
 48
0.3
100
AcDbLine
 10
348.5216381823427
 20
103.4510818817832
 30
0.0
 11
348.2242649408497
 21
103.3731660412302
 31
0.0
  0
LINE
  5
11798
330
1A
100
AcDbEntity
  8
伸縮
 62
     2
 48
0.3
100
AcDbLine
 10
348.2242649408497
 20
103.3731660412302
 30
0.0
 11
347.893140495288
 21
103.2859803974454
 31
0.0
  0
LINE
  5
11799
330
1A
100
AcDbEntity
  8
伸縮
 62
     2
 48
0.3
100
AcDbLine
 10
347.893140495288
 20
103.2859803974454
 30
0.0
 11
347.5282648456557
 21
103.1895254573819
 31
0.0
  0
LINE
  5
1179A
330
1A
100
AcDbEntity
  8
伸縮
 62
     2
 48
0.3
100
AcDbLine
 10
347.5282648456557
 20
103.1895254573819
 30
0.0
 11
346.8684599619708
 21
103.0146596436243
 31
0.0
  0
LINE
  5
1179B
330
1A
100
AcDbEntity
  8
伸縮
 62
     2
 48
0.3
100
AcDbLine
 10
346.8684599619708
 20
103.0146596436243
 30
0.0
 11
346.2634939617226
 21
102.8547169132434
 31
0.0
  0
LINE
  5
1179C
330
1A
100
AcDbEntity
  8
伸縮
 62
     2
 48
0.3
100
AcDbLine
 10
346.2634939617226
 20
102.8547169132434
 30
0.0
 11
345.5911848337848
 21
102.6786055849822
 31
0.0
  0
LINE
  5
1179D
330
1A
100
AcDbEntity
  8
伸縮
 62
     2
 48
0.3
100
AcDbLine
 10
345.5911848337848
 20
102.6786055849822
 30
0.0
 11
345.0106757473335
 21
102.5227219954597
 31
0.0
  0
LINE
  5
1179E
330
1A
100
AcDbEntity
  8
伸縮
 62
     2
 48
0.3
100
AcDbLine
 10
350.0106757473329
 20
127.3356116287543
 30
0.0
 11
347.3617315543031
 21
126.5185550571252
 31
0.0
  0
LINE
  5
1179F
330
1A
100
AcDbEntity
  8
伸縮
 62
     2
 48
0.3
100
AcDbLine
 10
347.3617315543031
 20
126.5185550571252
 30
0.0
 11
345.0119859016702
 21
125.7941625438561
 31
0.0
  0
LINE
  5
117A0
330
1A
100
AcDbEntity
  8
伸縮
 62
     2
 48
0.3
100
AcDbLine
 10
348.8559626572958
 20
216.9802558829817
 30
0.0
 11
347.416168099109
 21
216.9194888442798
 31
0.0
  0
LINE
  5
117A1
330
1A
100
AcDbEntity
  8
伸縮
 62
     2
 48
0.3
100
AcDbLine
 10
347.416168099109
 20
216.9194888442798
 30
0.0
 11
345.9937080112256
 21
216.6753950218629
 31
0.0
  0
LINE
  5
117A2
330
1A
100
AcDbEntity
  8
伸縮
 62
     2
 48
0.3
100
AcDbLine
 10
345.9937080112256
 20
216.6753950218629
 30
0.0
 11
345.3489083586935
 21
216.3985292342052
 31
0.0
  0
LINE
  5
117A3
330
1A
100
AcDbEntity
  8
伸縮
 62
     2
 48
0.3
100
AcDbLine
 10
345.3489083586935
 20
216.3985292342052
 30
0.0
 11
345.1658688933132
 21
216.2354847783843
 31
0.0
  0
LINE
  5
117A4
330
1A
100
AcDbEntity
  8
伸縮
 62
     2
 48
0.3
100
AcDbLine
 10
345.1658688933132
 20
216.2354847783843
 30
0.0
 11
345.0940680033816
 21
216.110366197117
 31
0.0
  0
LINE
  5
117A5
330
1A
100
AcDbEntity
  8
伸縮
 62
     2
 48
0.3
100
AcDbLine
 10
345.0940680033816
 20
216.110366197117
 30
0.0
 11
345.0725555419715
 21
215.9900593828756
 31
0.0
  0
LINE
  5
117A6
330
1A
100
AcDbEntity
  8
伸縮
 62
     2
 48
0.3
100
AcDbLine
 10
350.0106757473329
 20
216.9804568682596
 30
0.0
 11
349.0470389978175
 21
216.9802891078518
 31
0.0
  0
LINE
  5
117A7
330
1A
100
AcDbEntity
  8
伸縮
 62
     2
 48
0.3
100
AcDbLine
 10
349.0470389978175
 20
216.9802891078518
 30
0.0
 11
348.8559626572958
 21
216.9802558829817
 31
0.0
  0
LINE
  5
1193E
330
1A
100
AcDbEntity
  8
伸縮
 62
     2
 48
0.3
100
AcDbLine
 10
350.0106757473329
 20
217.3124145138886
 30
0.0
 11
350.0106757473329
 21
102.4624145138884
 31
0.0
  0
LINE
  5
1193F
330
1A
100
AcDbEntity
  8
伸縮
 62
     2
 48
0.3
100
AcDbLine
 10
345.0106757473335
 20
101.1624145138885
 30
0.0
 11
345.0106757473331
 21
215.9955548185044
 31
0.0
  0
LINE
  5
11940
330
1A
100
AcDbEntity
  8
伸縮
 62
     2
 48
0.3
100
AcDbLine
 10
333.0724471489721
 20
101.1624145138885
 30
0.0
 11
345.0106757473335
 21
101.1624145138885
 31
0.0
  0
LINE
  5
11941
330
1A
100
AcDbEntity
  8
伸縮
 62
     2
 48
0.3
100
AcDbLine
 10
345.0106757473335
 20
102.5227219954597
 30
0.0
 11
333.0724471489721
 21
102.5227219954597
 31
0.0
  0
LINE
  5
11942
330
1A
100
AcDbEntity
  8
伸縮
 62
     2
 48
0.3
100
AcDbLine
 10
346.2634939617226
 20
102.8547169132434
 30
0.0
 11
345.5911848337848
 21
102.6786055849822
 31
0.0
  0
LINE
  5
11943
330
1A
100
AcDbEntity
  8
伸縮
 62
     2
 48
0.3
100
AcDbLine
 10
345.0106757473335
 20
101.1624145138885
 30
0.0
 11
350.0106757473329
 21
102.4624145138884
 31
0.0
  0
LINE
  5
11944
330
1A
100
AcDbEntity
  8
伸縮
 62
     2
 48
0.3
100
AcDbLine
 10
345.5911848337848
 20
102.6786055849822
 30
0.0
 11
345.0106757473335
 21
102.5227219954597
 31
0.0
  0
LINE
  5
11945
330
1A
100
AcDbEntity
  8
伸縮
 62
     2
 48
0.3
100
AcDbLine
 10
346.8684599619708
 20
103.0146596436243
 30
0.0
 11
346.2634939617226
 21
102.8547169132434
 31
0.0
  0
LINE
  5
11946
330
1A
100
AcDbEntity
  8
伸縮
 62
     2
 48
0.3
100
AcDbLine
 10
347.5282648456557
 20
103.1895254573819
 30
0.0
 11
346.8684599619708
 21
103.0146596436243
 31
0.0
  0
LINE
  5
11947
330
1A
100
AcDbEntity
  8
伸縮
 62
     2
 48
0.3
100
AcDbLine
 10
347.893140495288
 20
103.2859803974454
 30
0.0
 11
347.5282648456557
 21
103.1895254573819
 31
0.0
  0
LINE
  5
11948
330
1A
100
AcDbEntity
  8
伸縮
 62
     2
 48
0.3
100
AcDbLine
 10
348.2242649408497
 20
103.3731660412302
 30
0.0
 11
347.893140495288
 21
103.2859803974454
 31
0.0
  0
LINE
  5
11949
330
1A
100
AcDbEntity
  8
伸縮
 62
     2
 48
0.3
100
AcDbLine
 10
348.5216381823427
 20
103.4510818817832
 30
0.0
 11
348.2242649408497
 21
103.3731660412302
 31
0.0
  0
LINE
  5
1194A
330
1A
100
AcDbEntity
  8
伸縮
 62
     2
 48
0.3
100
AcDbLine
 10
348.7852602197656
 20
103.5197276656015
 30
0.0
 11
348.5216381823427
 21
103.4510818817832
 31
0.0
  0
LINE
  5
1194B
330
1A
100
AcDbEntity
  8
伸縮
 62
     2
 48
0.3
100
AcDbLine
 10
349.4028239308989
 20
103.6783842490295
 30
0.0
 11
348.7852602197656
 21
103.5197276656015
 31
0.0
  0
LINE
  5
1194C
330
1A
100
AcDbEntity
  8
伸縮
 62
     2
 48
0.3
100
AcDbLine
 10
350.0106757790434
 20
103.8313305439815
 30
0.0
 11
349.4028239308989
 21
103.6783842490295
 31
0.0
  0
LINE
  5
1194D
330
1A
100
AcDbEntity
  8
伸縮
 62
     2
 48
0.3
100
AcDbLine
 10
333.0724471489721
 20
125.7896324963772
 30
0.0
 11
345.0199048994743
 21
125.7896324963772
 31
0.0
  0
LINE
  5
1194E
330
1A
100
AcDbEntity
  8
伸縮
 62
     2
 48
0.3
100
AcDbLine
 10
347.3617315543031
 20
126.5185550571252
 30
0.0
 11
345.0119859016702
 21
125.7941625438561
 31
0.0
  0
LINE
  5
1194F
330
1A
100
AcDbEntity
  8
伸縮
 62
     2
 48
0.3
100
AcDbLine
 10
350.0106757473329
 20
127.3356116287543
 30
0.0
 11
347.3617315543031
 21
126.5185550571252
 31
0.0
  0
LINE
  5
11950
330
1A
100
AcDbEntity
  8
伸縮
 62
     2
 48
0.3
100
AcDbLine
 10
333.0724471489721
 20
217.3124145138886
 30
0.0
 11
350.0106757473329
 21
217.3124145138886
 31
0.0
  0
LINE
  5
11951
330
1A
100
AcDbEntity
  8
伸縮
 62
     2
 48
0.3
100
AcDbLine
 10
344.9467386160884
 20
215.9955548185044
 30
0.0
 11
333.0724471489721
 21
215.9955548185044
 31
0.0
  0
LINE
  5
11952
330
1A
100
AcDbEntity
  8
伸縮
 62
     2
 48
0.3
100
AcDbLine
 10
347.416168099109
 20
216.9194888442798
 30
0.0
 11
345.9937080112256
 21
216.6753950218629
 31
0.0
  0
LINE
  5
11953
330
1A
100
AcDbEntity
  8
伸縮
 62
     2
 48
0.3
100
AcDbLine
 10
345.0940680033816
 20
216.110366197117
 30
0.0
 11
345.0725555419715
 21
215.9900593828756
 31
0.0
  0
LINE
  5
11954
330
1A
100
AcDbEntity
  8
伸縮
 62
     2
 48
0.3
100
AcDbLine
 10
345.1658688933132
 20
216.2354847783843
 30
0.0
 11
345.0940680033816
 21
216.110366197117
 31
0.0
  0
LINE
  5
11955
330
1A
100
AcDbEntity
  8
伸縮
 62
     2
 48
0.3
100
AcDbLine
 10
345.3489083586935
 20
216.3985292342052
 30
0.0
 11
345.1658688933132
 21
216.2354847783843
 31
0.0
  0
LINE
  5
11956
330
1A
100
AcDbEntity
  8
伸縮
 62
     2
 48
0.3
100
AcDbLine
 10
345.9937080112256
 20
216.6753950218629
 30
0.0
 11
345.3489083586935
 21
216.3985292342052
 31
0.0
  0
ARC
  5
11957
330
1A
100
AcDbEntity
  8
伸縮
 62
     2
 48
0.3
100
AcDbCircle
 10
344.9474502187102
 20
214.5688221259525
 30
0.0
 40
1.426732870012736
100
AcDbArc
 50
84.96946848154278
 51
90.02857705842748
  0
LINE
  5
11958
330
1A
100
AcDbEntity
  8
伸縮
 62
     2
 48
0.3
100
AcDbLine
 10
349.0470389978175
 20
216.9802891078518
 30
0.0
 11
348.8559626572958
 21
216.9802558829817
 31
0.0
  0
LINE
  5
11959
330
1A
100
AcDbEntity
  8
伸縮
 62
     2
 48
0.3
100
AcDbLine
 10
350.0106757473329
 20
216.9804568682596
 30
0.0
 11
349.0470389978175
 21
216.9802891078518
 31
0.0
  0
LINE
  5
1195A
330
1A
100
AcDbEntity
  8
伸縮
 62
     2
 48
0.3
100
AcDbLine
 10
348.8559626572958
 20
216.9802558829817
 30
0.0
 11
347.416168099109
 21
216.9194888442798
 31
0.0
  0
LINE
  5
1195B
330
1A
100
AcDbEntity
  8
伸縮
 62
     2
 48
0.3
100
AcDbLine
 10
285.0106757473334
 20
101.1624145138885
 30
0.0
 11
285.0106757473331
 21
215.9955548185044
 31
0.0
  0
LINE
  5
1195C
330
1A
100
AcDbEntity
  8
伸縮
 62
     2
 48
0.3
100
AcDbLine
 10
290.0106757473329
 20
217.3124145138886
 30
0.0
 11
290.0106757473329
 21
102.4624145138884
 31
0.0
  0
LINE
  5
1195D
330
1A
100
AcDbEntity
  8
伸縮
 62
     2
 48
0.3
100
AcDbLine
 10
290.0106757473329
 20
217.3124145138886
 30
0.0
 11
290.0106757473329
 21
102.4624145138884
 31
0.0
  0
LINE
  5
1195E
330
1A
100
AcDbEntity
  8
伸縮
 62
     2
 48
0.3
100
AcDbLine
 10
285.0106757473334
 20
101.1624145138885
 30
0.0
 11
285.0106757473331
 21
215.9955548185044
 31
0.0
  0
LINE
  5
1195F
330
1A
100
AcDbEntity
  8
伸縮
 62
     2
 48
0.3
100
AcDbLine
 10
285.0106757473334
 20
102.5227219954597
 30
0.0
 11
273.072447148972
 21
102.5227219954597
 31
0.0
  0
LINE
  5
11960
330
1A
100
AcDbEntity
  8
伸縮
 62
     2
 48
0.3
100
AcDbLine
 10
273.072447148972
 20
101.1624145138885
 30
0.0
 11
285.0106757473334
 21
101.1624145138885
 31
0.0
  0
LINE
  5
11961
330
1A
100
AcDbEntity
  8
伸縮
 62
     2
 48
0.3
100
AcDbLine
 10
273.072447148972
 20
101.1624145138885
 30
0.0
 11
285.0106757473334
 21
101.1624145138885
 31
0.0
  0
LINE
  5
11962
330
1A
100
AcDbEntity
  8
伸縮
 62
     2
 48
0.3
100
AcDbLine
 10
285.0106757473334
 20
102.5227219954597
 30
0.0
 11
273.072447148972
 21
102.5227219954597
 31
0.0
  0
LINE
  5
11963
330
1A
100
AcDbEntity
  8
伸縮
 62
     2
 48
0.3
100
AcDbLine
 10
285.0106757473334
 20
101.1624145138885
 30
0.0
 11
290.0106757473329
 21
102.4624145138884
 31
0.0
  0
LINE
  5
11964
330
1A
100
AcDbEntity
  8
伸縮
 62
     2
 48
0.3
100
AcDbLine
 10
286.2634939617226
 20
102.8547169132434
 30
0.0
 11
285.5911848337848
 21
102.6786055849822
 31
0.0
  0
LINE
  5
11965
330
1A
100
AcDbEntity
  8
伸縮
 62
     2
 48
0.3
100
AcDbLine
 10
286.2634939617226
 20
102.8547169132434
 30
0.0
 11
285.5911848337848
 21
102.6786055849822
 31
0.0
  0
LINE
  5
11966
330
1A
100
AcDbEntity
  8
伸縮
 62
     2
 48
0.3
100
AcDbLine
 10
285.0106757473334
 20
101.1624145138885
 30
0.0
 11
290.0106757473329
 21
102.4624145138884
 31
0.0
  0
LINE
  5
11967
330
1A
100
AcDbEntity
  8
伸縮
 62
     2
 48
0.3
100
AcDbLine
 10
285.5911848337848
 20
102.6786055849822
 30
0.0
 11
285.0106757473334
 21
102.5227219954597
 31
0.0
  0
LINE
  5
11968
330
1A
100
AcDbEntity
  8
伸縮
 62
     2
 48
0.3
100
AcDbLine
 10
285.5911848337848
 20
102.6786055849822
 30
0.0
 11
285.0106757473334
 21
102.5227219954597
 31
0.0
  0
LINE
  5
11969
330
1A
100
AcDbEntity
  8
伸縮
 62
     2
 48
0.3
100
AcDbLine
 10
290.0106757790434
 20
103.8313305439815
 30
0.0
 11
289.4028239308989
 21
103.6783842490295
 31
0.0
  0
LINE
  5
1196A
330
1A
100
AcDbEntity
  8
伸縮
 62
     2
 48
0.3
100
AcDbLine
 10
289.4028239308989
 20
103.6783842490295
 30
0.0
 11
288.7852602197656
 21
103.5197276656015
 31
0.0
  0
LINE
  5
1196B
330
1A
100
AcDbEntity
  8
伸縮
 62
     2
 48
0.3
100
AcDbLine
 10
288.7852602197656
 20
103.5197276656015
 30
0.0
 11
288.5216381823427
 21
103.4510818817832
 31
0.0
  0
LINE
  5
1196C
330
1A
100
AcDbEntity
  8
伸縮
 62
     2
 48
0.3
100
AcDbLine
 10
288.5216381823427
 20
103.4510818817832
 30
0.0
 11
288.2242649408497
 21
103.3731660412302
 31
0.0
  0
LINE
  5
1196D
330
1A
100
AcDbEntity
  8
伸縮
 62
     2
 48
0.3
100
AcDbLine
 10
288.2242649408497
 20
103.3731660412302
 30
0.0
 11
287.893140495288
 21
103.2859803974454
 31
0.0
  0
LINE
  5
1196E
330
1A
100
AcDbEntity
  8
伸縮
 62
     2
 48
0.3
100
AcDbLine
 10
287.893140495288
 20
103.2859803974454
 30
0.0
 11
287.5282648456557
 21
103.1895254573819
 31
0.0
  0
LINE
  5
1196F
330
1A
100
AcDbEntity
  8
伸縮
 62
     2
 48
0.3
100
AcDbLine
 10
287.5282648456557
 20
103.1895254573819
 30
0.0
 11
286.8684599619708
 21
103.0146596436243
 31
0.0
  0
LINE
  5
11970
330
1A
100
AcDbEntity
  8
伸縮
 62
     2
 48
0.3
100
AcDbLine
 10
286.8684599619708
 20
103.0146596436243
 30
0.0
 11
286.2634939617226
 21
102.8547169132434
 31
0.0
  0
LINE
  5
11971
330
1A
100
AcDbEntity
  8
伸縮
 62
     2
 48
0.3
100
AcDbLine
 10
286.8684599619708
 20
103.0146596436243
 30
0.0
 11
286.2634939617226
 21
102.8547169132434
 31
0.0
  0
LINE
  5
11972
330
1A
100
AcDbEntity
  8
伸縮
 62
     2
 48
0.3
100
AcDbLine
 10
287.5282648456557
 20
103.1895254573819
 30
0.0
 11
286.8684599619708
 21
103.0146596436243
 31
0.0
  0
LINE
  5
11973
330
1A
100
AcDbEntity
  8
伸縮
 62
     2
 48
0.3
100
AcDbLine
 10
287.893140495288
 20
103.2859803974454
 30
0.0
 11
287.5282648456557
 21
103.1895254573819
 31
0.0
  0
LINE
  5
11974
330
1A
100
AcDbEntity
  8
伸縮
 62
     2
 48
0.3
100
AcDbLine
 10
288.2242649408497
 20
103.3731660412302
 30
0.0
 11
287.893140495288
 21
103.2859803974454
 31
0.0
  0
LINE
  5
11975
330
1A
100
AcDbEntity
  8
伸縮
 62
     2
 48
0.3
100
AcDbLine
 10
288.5216381823427
 20
103.4510818817832
 30
0.0
 11
288.2242649408497
 21
103.3731660412302
 31
0.0
  0
LINE
  5
11976
330
1A
100
AcDbEntity
  8
伸縮
 62
     2
 48
0.3
100
AcDbLine
 10
288.7852602197656
 20
103.5197276656015
 30
0.0
 11
288.5216381823427
 21
103.4510818817832
 31
0.0
  0
LINE
  5
11977
330
1A
100
AcDbEntity
  8
伸縮
 62
     2
 48
0.3
100
AcDbLine
 10
289.4028239308989
 20
103.6783842490295
 30
0.0
 11
288.7852602197656
 21
103.5197276656015
 31
0.0
  0
LINE
  5
11978
330
1A
100
AcDbEntity
  8
伸縮
 62
     2
 48
0.3
100
AcDbLine
 10
290.0106757790434
 20
103.8313305439815
 30
0.0
 11
289.4028239308989
 21
103.6783842490295
 31
0.0
  0
LINE
  5
11979
330
1A
100
AcDbEntity
  8
伸縮
 62
     2
 48
0.3
100
AcDbLine
 10
273.0724471489721
 20
125.7896324963772
 30
0.0
 11
285.0199048994743
 21
125.7896324963772
 31
0.0
  0
LINE
  5
1197A
330
1A
100
AcDbEntity
  8
伸縮
 62
     2
 48
0.3
100
AcDbLine
 10
273.0724471489721
 20
125.7896324963772
 30
0.0
 11
285.0199048994743
 21
125.7896324963772
 31
0.0
  0
LINE
  5
1197B
330
1A
100
AcDbEntity
  8
伸縮
 62
     2
 48
0.3
100
AcDbLine
 10
287.3617315543031
 20
126.5185550571252
 30
0.0
 11
285.0119859016702
 21
125.7941625438561
 31
0.0
  0
LINE
  5
1197C
330
1A
100
AcDbEntity
  8
伸縮
 62
     2
 48
0.3
100
AcDbLine
 10
287.3617315543031
 20
126.5185550571252
 30
0.0
 11
285.0119859016702
 21
125.7941625438561
 31
0.0
  0
LINE
  5
1197D
330
1A
100
AcDbEntity
  8
伸縮
 62
     2
 48
0.3
100
AcDbLine
 10
290.0106757473329
 20
127.3356116287543
 30
0.0
 11
287.3617315543031
 21
126.5185550571252
 31
0.0
  0
LINE
  5
1197E
330
1A
100
AcDbEntity
  8
伸縮
 62
     2
 48
0.3
100
AcDbLine
 10
290.0106757473329
 20
127.3356116287543
 30
0.0
 11
287.3617315543031
 21
126.5185550571252
 31
0.0
  0
LINE
  5
1197F
330
1A
100
AcDbEntity
  8
伸縮
 62
     2
 48
0.3
100
AcDbLine
 10
284.9467386160884
 20
215.9955548185044
 30
0.0
 11
273.0724471489721
 21
215.9955548185044
 31
0.0
  0
LINE
  5
11980
330
1A
100
AcDbEntity
  8
伸縮
 62
     2
 48
0.3
100
AcDbLine
 10
273.072447148972
 20
217.3124145138886
 30
0.0
 11
290.0106757473329
 21
217.3124145138886
 31
0.0
  0
LINE
  5
11981
330
1A
100
AcDbEntity
  8
伸縮
 62
     2
 48
0.3
100
AcDbLine
 10
273.072447148972
 20
217.3124145138886
 30
0.0
 11
290.0106757473329
 21
217.3124145138886
 31
0.0
  0
LINE
  5
11982
330
1A
100
AcDbEntity
  8
伸縮
 62
     2
 48
0.3
100
AcDbLine
 10
284.9467386160884
 20
215.9955548185044
 30
0.0
 11
273.0724471489721
 21
215.9955548185044
 31
0.0
  0
LINE
  5
11983
330
1A
100
AcDbEntity
  8
伸縮
 62
     2
 48
0.3
100
AcDbLine
 10
287.416168099109
 20
216.9194888442798
 30
0.0
 11
285.9937080112256
 21
216.6753950218629
 31
0.0
  0
LINE
  5
11984
330
1A
100
AcDbEntity
  8
伸縮
 62
     2
 48
0.3
100
AcDbLine
 10
287.416168099109
 20
216.9194888442798
 30
0.0
 11
285.9937080112256
 21
216.6753950218629
 31
0.0
  0
ARC
  5
11985
330
1A
100
AcDbEntity
  8
伸縮
 62
     2
 48
0.3
100
AcDbCircle
 10
284.9474502187102
 20
214.5688221259525
 30
0.0
 40
1.426732870012736
100
AcDbArc
 50
84.96946848154278
 51
90.02857705842748
  0
LINE
  5
11986
330
1A
100
AcDbEntity
  8
伸縮
 62
     2
 48
0.3
100
AcDbLine
 10
285.9937080112256
 20
216.6753950218629
 30
0.0
 11
285.3489083586935
 21
216.3985292342052
 31
0.0
  0
LINE
  5
11987
330
1A
100
AcDbEntity
  8
伸縮
 62
     2
 48
0.3
100
AcDbLine
 10
285.3489083586935
 20
216.3985292342052
 30
0.0
 11
285.1658688933132
 21
216.2354847783843
 31
0.0
  0
LINE
  5
11988
330
1A
100
AcDbEntity
  8
伸縮
 62
     2
 48
0.3
100
AcDbLine
 10
285.1658688933132
 20
216.2354847783843
 30
0.0
 11
285.0940680033816
 21
216.110366197117
 31
0.0
  0
LINE
  5
11989
330
1A
100
AcDbEntity
  8
伸縮
 62
     2
 48
0.3
100
AcDbLine
 10
285.0940680033816
 20
216.110366197117
 30
0.0
 11
285.0725555419715
 21
215.9900593828756
 31
0.0
  0
LINE
  5
1198A
330
1A
100
AcDbEntity
  8
伸縮
 62
     2
 48
0.3
100
AcDbLine
 10
285.0940680033816
 20
216.110366197117
 30
0.0
 11
285.0725555419715
 21
215.9900593828756
 31
0.0
  0
LINE
  5
1198B
330
1A
100
AcDbEntity
  8
伸縮
 62
     2
 48
0.3
100
AcDbLine
 10
285.1658688933132
 20
216.2354847783843
 30
0.0
 11
285.0940680033816
 21
216.110366197117
 31
0.0
  0
LINE
  5
1198C
330
1A
100
AcDbEntity
  8
伸縮
 62
     2
 48
0.3
100
AcDbLine
 10
285.3489083586935
 20
216.3985292342052
 30
0.0
 11
285.1658688933132
 21
216.2354847783843
 31
0.0
  0
LINE
  5
1198D
330
1A
100
AcDbEntity
  8
伸縮
 62
     2
 48
0.3
100
AcDbLine
 10
285.9937080112256
 20
216.6753950218629
 30
0.0
 11
285.3489083586935
 21
216.3985292342052
 31
0.0
  0
ARC
  5
1198E
330
1A
100
AcDbEntity
  8
伸縮
 62
     2
 48
0.3
100
AcDbCircle
 10
284.9474502187102
 20
214.5688221259525
 30
0.0
 40
1.426732870012736
100
AcDbArc
 50
84.96946848154278
 51
90.02857705842748
  0
LINE
  5
1198F
330
1A
100
AcDbEntity
  8
伸縮
 62
     2
 48
0.3
100
AcDbLine
 10
288.8559626572958
 20
216.9802558829817
 30
0.0
 11
287.416168099109
 21
216.9194888442798
 31
0.0
  0
LINE
  5
11990
330
1A
100
AcDbEntity
  8
伸縮
 62
     2
 48
0.3
100
AcDbLine
 10
290.0106757473329
 20
216.9804568682596
 30
0.0
 11
289.0470389978175
 21
216.9802891078518
 31
0.0
  0
LINE
  5
11991
330
1A
100
AcDbEntity
  8
伸縮
 62
     2
 48
0.3
100
AcDbLine
 10
289.0470389978175
 20
216.9802891078518
 30
0.0
 11
288.8559626572958
 21
216.9802558829817
 31
0.0
  0
LINE
  5
11992
330
1A
100
AcDbEntity
  8
伸縮
 62
     2
 48
0.3
100
AcDbLine
 10
289.0470389978175
 20
216.9802891078518
 30
0.0
 11
288.8559626572958
 21
216.9802558829817
 31
0.0
  0
LINE
  5
11993
330
1A
100
AcDbEntity
  8
伸縮
 62
     2
 48
0.3
100
AcDbLine
 10
290.0106757473329
 20
216.9804568682596
 30
0.0
 11
289.0470389978175
 21
216.9802891078518
 31
0.0
  0
LINE
  5
11994
330
1A
100
AcDbEntity
  8
伸縮
 62
     2
 48
0.3
100
AcDbLine
 10
288.8559626572958
 20
216.9802558829817
 30
0.0
 11
287.416168099109
 21
216.9194888442798
 31
0.0
  0
TEXT
  5
11A01
330
1A
100
AcDbEntity
  8
moji
100
AcDbText
 10
474.8285609042145
 20
27.78311999169819
 30
0.0
 40
5.599999999999999
  1
ＰＦ９４□
 41
0.9
  7
MSPｺﾞｼｯｸ
100
AcDbText
  0
TEXT
  5
11B96
330
1A
100
AcDbEntity
  8
moji
100
AcDbText
 10
669.7133989386602
 20
18.20492143160526
 30
0.0
 40
5.599999999999999
  1
2011/06/22
 41
0.9
  7
MSPｺﾞｼｯｸ
100
AcDbText
  0
LINE
  5
11D2A
330
1A
100
AcDbEntity
  8
SUNPOU
100
AcDbLine
 10
69.41320270563977
 20
400.2743901691241
 30
0.0
 11
46.49473754376526
 21
400.2743901691241
 31
0.0
  0
LINE
  5
11D2B
330
1A
100
AcDbEntity
  8
SUNPOU
100
AcDbLine
 10
46.49473754376526
 20
400.2743901691241
 30
0.0
 11
46.49473754376526
 21
415.2860403061654
 31
0.0
  0
LINE
  5
11D2C
330
1A
100
AcDbEntity
  8
SUNPOU
100
AcDbLine
 10
46.49473754376526
 20
415.2860403061654
 30
0.0
 11
43.43728125456482
 21
406.1841475618557
 31
0.0
  0
LINE
  5
11D2D
330
1A
100
AcDbEntity
  8
SUNPOU
100
AcDbLine
 10
329.2806225740691
 20
400.2743901691231
 30
0.0
 11
352.1990877359436
 21
400.2743901691229
 31
0.0
  0
LINE
  5
11D2E
330
1A
100
AcDbEntity
  8
SUNPOU
100
AcDbLine
 10
352.1990877359438
 20
415.2860403061643
 30
0.0
 11
355.2565440251441
 21
406.1841475618546
 31
0.0
  0
LINE
  5
11D2F
330
1A
100
AcDbEntity
  8
SUNPOU
100
AcDbLine
 10
352.1990877359436
 20
400.2743901691229
 30
0.0
 11
352.1990877359438
 21
415.2860403061643
 31
0.0
  0
TEXT
  5
11D3A
330
1A
100
AcDbEntity
  8
SUNPOU
 48
5.0
100
AcDbText
 10
348.0924778390602
 20
422.9424661406684
 30
0.0
 40
5.599999999999999
  1
A
 41
0.9
100
AcDbText
  0
TEXT
  5
11D3B
330
1A
100
AcDbEntity
  8
SUNPOU
 48
5.0
100
AcDbText
 10
42.27021021431028
 20
422.9424661406684
 30
0.0
 40
5.599999999999999
  1
A
 41
0.9
100
AcDbText
  0
TEXT
  5
11D3C
330
1A
100
AcDbEntity
  8
SUNPOU
 48
5.0
100
AcDbText
 10
582.6811300825747
 20
328.0063214897467
 30
0.0
 40
5.599999999999999
  1
A-Asection
 41
0.9
100
AcDbText
  0
LINE
  5
11D3E
330
1A
100
AcDbEntity
  8
SUNPOU
100
AcDbLine
 10
581.4233579364676
 20
325.0485112080419
 30
0.0
 11
629.310131254806
 21
325.0485112080419
 31
0.0
  0
TEXT
  5
123A6
330
1A
100
AcDbEntity
  8
ZUWAKU
100
AcDbText
 10
723.5280833770142
 20
26.8216126403685
 30
0.0
 40
6.0
  1
積水化学工業株式会社
 41
0.9
  7
MSPｺﾞｼｯｸ
100
AcDbText
  0
VIEWPORT
  5
22
102
{ACAD_XDICTIONARY
360
123F8
102
}
330
17
100
AcDbEntity
 67
     1
  8
0
100
AcDbViewport
 10
228.711147780119
 20
168.3639494558407
 30
0.0
 40
604.2951685731252
 41
314.2596759643555
 68
     2
 69
     1
 12
228.711147780119
 22
168.3639494558407
 13
0.0
 23
0.0
 14
1.0
 24
1.0
 15
10.0
 25
10.0
 16
0.0
 26
0.0
 36
1.0
 17
0.0
 27
0.0
 37
0.0
 42
50.0
 43
0.0
 44
0.0
 45
314.2596759643555
 50
0.0
 51
0.0
 72
   100
 90
    32768
  1

281
     0
 71
     1
 74
     0
110
0.0
120
0.0
130
0.0
111
1.0
121
0.0
131
0.0
112
0.0
122
1.0
132
0.0
 79
     0
146
0.0
  0
VIEWPORT
  5
64
102
{ACAD_XDICTIONARY
360
123FA
102
}
330
17
100
AcDbEntity
 67
     1
  8
VIEWPORT
100
AcDbViewport
 10
230.8427198458131
 20
170.5273495772538
 30
0.0
 40
418.0274059770529
 41
294.9999370582285
 68
     1
 69
     2
 12
418.8440134526157
 22
297.6708655657881
 13
0.0
 23
0.0
 14
10.0
 24
10.0
 15
0.0
 25
0.0
 16
0.0
 26
0.0
 36
1.0
 17
0.0
 27
0.0
 37
0.0
 42
50.0
 43
0.0
 44
0.0
 45
589.9998751689208
 50
0.0
 51
0.0
 72
   100
 90
    32768
  1

281
     0
 71
     1
 74
     0
110
0.0
120
0.0
130
0.0
111
1.0
121
0.0
131
0.0
112
0.0
122
1.0
132
0.0
 79
     0
146
0.0
  0
ENDSEC
  0
SECTION
  2
OBJECTS
  0
DICTIONARY
  5
C
330
0
100
AcDbDictionary
281
     1
  3
ACAD_COLOR
350
123AA
  3
ACAD_GROUP
350
D
  3
ACAD_LAYOUT
350
674
  3
ACAD_MATERIAL
350
123A9
  3
ACAD_MLINESTYLE
350
E
  3
ACAD_PLOTSETTINGS
350
675
  3
ACAD_PLOTSTYLENAME
350
672
  3
ACDBHEADERROUNDTRIPXREC
350
123F5
  3
AcDbVariableDictionary
350
ADCD
  0
DICTIONARY
  5
6A3
330
1A
100
AcDbDictionary
280
     1
281
     1
  3
ACAD_LAYOUTSELFREF
360
1223D
  0
DICTIONARY
  5
6A1
330
17
100
AcDbDictionary
280
     1
281
     1
  3
ACAD_LAYOUTSELFREF
360
1223C
  0
DICTIONARY
  5
123F8
330
22
100
AcDbDictionary
280
     1
281
     1
  3
ACAD_XREC_ROUNDTRIP
360
123F9
  0
DICTIONARY
  5
123FA
330
64
100
AcDbDictionary
280
     1
281
     1
  3
ACAD_XREC_ROUNDTRIP
360
123FB
  0
DICTIONARY
  5
123AA
102
{ACAD_REACTORS
330
C
102
}
330
C
100
AcDbDictionary
281
     1
  0
DICTIONARY
  5
D
102
{ACAD_REACTORS
330
C
102
}
330
C
100
AcDbDictionary
281
     1
  3
*A1
350
755C
  3
*A2
350
759E
  0
DICTIONARY
  5
674
102
{ACAD_REACTORS
330
C
102
}
330
C
100
AcDbDictionary
281
     1
  3
Model
350
676
  3
ﾚｲｱｳﾄ1
350
677
  0
DICTIONARY
  5
123A9
102
{ACAD_REACTORS
330
C
102
}
330
C
100
AcDbDictionary
281
     1
  0
DICTIONARY
  5
E
102
{ACAD_REACTORS
330
C
102
}
330
C
100
AcDbDictionary
281
     1
  3
STANDARD
350
13
  0
DICTIONARY
  5
675
102
{ACAD_REACTORS
330
C
102
}
330
C
100
AcDbDictionary
281
     1
  0
ACDBDICTIONARYWDFLT
  5
672
102
{ACAD_REACTORS
330
C
102
}
330
C
100
AcDbDictionary
281
     1
  3
Normal
350
673
100
AcDbDictionaryWithDefault
340
673
1001
ACAD
1000
TREAT_AS_HARD
1070
     0
1000
TREAT_AS_HARD
1070
     0
1000
TREAT_AS_HARD
1070
     0
1000
TREAT_AS_HARD
1070
     0
1000
TREAT_AS_HARD
1070
     0
1000
TREAT_AS_HARD
1070
     0
1000
TREAT_AS_HARD
1070
     0
1000
TREAT_AS_HARD
1070
     0
1000
TREAT_AS_HARD
1070
     0
1000
TREAT_AS_HARD
1070
     0
1000
TREAT_AS_HARD
1070
     0
1000
TREAT_AS_HARD
1070
     0
1000
TREAT_AS_HARD
1070
     0
1000
TREAT_AS_HARD
1070
     0
1000
TREAT_AS_HARD
1070
     0
1000
TREAT_AS_HARD
1070
     0
1000
TREAT_AS_HARD
1070
     0
  0
DICTIONARY
  5
123F5
102
{ACAD_REACTORS
330
C
102
}
330
C
100
AcDbDictionary
281
     1
  3
COLORDICT
350
123F7
  3
MATERIALDICT
350
123F6
  0
DICTIONARY
  5
ADCD
102
{ACAD_REACTORS
330
C
102
}
330
C
100
AcDbDictionary
281
     1
  3
DIMASSOC
350
123E3
  3
PROJECTNAME
350
123E4
  3
SORTENTS
350
ADCE
  0
XRECORD
  5
1223D
102
{ACAD_REACTORS
330
6A3
102
}
330
6A3
100
AcDbXrecord
280
     1
340
1A
  0
XRECORD
  5
1223C
102
{ACAD_REACTORS
330
6A1
102
}
330
6A1
100
AcDbXrecord
280
     1
340
17
  0
XRECORD
  5
123F9
102
{ACAD_REACTORS
330
123F8
102
}
330
123F8
100
AcDbXrecord
280
     1
102
SHADEPLOT
 70
     0
  0
XRECORD
  5
123FB
102
{ACAD_REACTORS
330
123FA
102
}
330
123FA
100
AcDbXrecord
280
     1
102
SHADEPLOT
 70
     0
  0
GROUP
  5
755C
102
{ACAD_REACTORS
330
D
102
}
330
D
100
AcDbGroup
300

 70
     1
 71
     1
  0
GROUP
  5
759E
102
{ACAD_REACTORS
330
D
102
}
330
D
100
AcDbGroup
300

 70
     1
 71
     1
  0
LAYOUT
  5
676
102
{ACAD_XDICTIONARY
360
123FC
102
}
102
{ACAD_REACTORS
330
674
102
}
330
674
100
AcDbPlotSettings
  1

  2
Acrobat Distiller
  4
A3
  6

 40
3.174999952316284
 41
3.174999952316284
 42
3.17498779296875
 43
3.17498779296875
 44
297.0318298339844
 45
420.1583251953125
 46
0.0
 47
0.0
 48
-33.76845281574833
 49
-14.97380759834459
140
814.9805907970753
141
567.90316502265
142
1.0
143
2.0
 70
 11952
 72
     1
 73
     1
 74
     2
  7
print.ctb
 75
    17
147
0.5
148
0.0
149
0.0
100
AcDbLayout
  1
Model
 70
     1
 71
     0
 10
0.0
 20
0.0
 11
12.0
 21
9.0
 12
0.0
 22
0.0
 32
0.0
 14
0.0
 24
0.0
 34
0.0
 15
0.0
 25
0.0
 35
0.0
146
0.0
 13
0.0
 23
0.0
 33
0.0
 16
1.0
 26
0.0
 36
0.0
 17
0.0
 27
1.0
 37
0.0
 76
     0
330
1A
  0
LAYOUT
  5
677
102
{ACAD_XDICTIONARY
360
123FE
102
}
102
{ACAD_REACTORS
330
674
102
}
330
674
100
AcDbPlotSettings
  1

  2
CubePDF
  4
A3
  6

 40
3.174999952316284
 41
3.174999952316284
 42
3.17498779296875
 43
3.17498779296875
 44
297.0318298339844
 45
420.1583251953125
 46
0.0
 47
0.0
 48
0.0
 49
0.0
140
0.0
141
0.0
142
1.0
143
1.0
 70
   688
 72
     1
 73
     1
 74
     5
  7
monochrome.ctb
 75
    16
147
1.0
148
-21.80697297543145
149
-23.02303449116482
100
AcDbLayout
  1
ﾚｲｱｳﾄ1
 70
     1
 71
     1
 10
18.6319851824627
 20
19.84803453884854
 11
438.7903103777752
 21
316.8798643728329
 12
0.0
 22
0.0
 32
0.0
 14
21.82901685728666
 24
23.02738104813955
 34
0.0
 15
439.8564228343396
 25
318.0273181063681
 35
0.0
146
0.0
 13
0.0
 23
0.0
 33
0.0
 16
1.0
 26
0.0
 36
0.0
 17
0.0
 27
1.0
 37
0.0
 76
     0
330
17
331
64
  0
MLINESTYLE
  5
13
102
{ACAD_REACTORS
330
E
102
}
330
E
100
AcDbMlineStyle
  2
STANDARD
 70
     0
  3

 62
     0
 51
90.0
 52
90.0
 71
     2
 49
0.5
 62
   256
  6
BYLAYER
 49
-0.5
 62
   256
  6
BYLAYER
  0
ACDBPLACEHOLDER
  5
673
102
{ACAD_REACTORS
330
672
102
}
330
672
  0
XRECORD
  5
123F7
102
{ACAD_REACTORS
330
123F5
102
}
330
123F5
100
AcDbXrecord
280
     1
340
123AA
  0
XRECORD
  5
123F6
102
{ACAD_REACTORS
330
123F5
102
}
330
123F5
100
AcDbXrecord
280
     1
340
123A9
  0
DICTIONARYVAR
  5
123E3
102
{ACAD_REACTORS
330
ADCD
102
}
330
ADCD
100
DictionaryVariables
280
     0
  1
1
  0
DICTIONARYVAR
  5
123E4
102
{ACAD_REACTORS
330
ADCD
102
}
330
ADCD
100
DictionaryVariables
280
     0
  1

  0
DICTIONARYVAR
  5
ADCE
102
{ACAD_REACTORS
330
ADCD
102
}
330
ADCD
100
DictionaryVariables
280
     0
  1
96
  0
DICTIONARY
  5
123FC
330
676
100
AcDbDictionary
280
     1
281
     1
  3
ACAD_XREC_ROUNDTRIP
360
123FD
  0
DICTIONARY
  5
123FE
330
677
100
AcDbDictionary
280
     1
281
     1
  3
ACAD_XREC_ROUNDTRIP
360
123FF
  0
XRECORD
  5
123FD
102
{ACAD_REACTORS
330
123FC
102
}
330
123FC
100
AcDbXrecord
280
     1
102
SHADEPLOT
 70
     0
102
SHADEPLOTRESLEVEL
 70
     2
102
SHADEPLOTCUSTOMDPI
 70
   300
  0
XRECORD
  5
123FF
102
{ACAD_REACTORS
330
123FE
102
}
330
123FE
100
AcDbXrecord
280
     1
102
SHADEPLOT
 70
     1
102
SHADEPLOTRESLEVEL
 70
     2
102
SHADEPLOTCUSTOMDPI
 70
   300
  0
ENDSEC
  0
EOF
