  0
SECTION
  2
HEADER
  9
$ACADVER
  1
AC1015
  9
$ACADMAINTVER
 70
    20
  9
$DWGCODEPAGE
  3
ANSI_932
  9
$INSBASE
 10
0.0
 20
0.0
 30
0.0
  9
$EXTMIN
 10
6.999999743487023
 20
7.000000339449684
 30
0.0
  9
$EXTMAX
 10
405.7999997434871
 20
282.8000003394497
 30
0.0
  9
$LIMMIN
 10
0.0
 20
0.0
  9
$LIMMAX
 10
420.0
 20
297.0
  9
$ORTHOMODE
 70
     1
  9
$REGENMODE
 70
     1
  9
$FILLMODE
 70
     1
  9
$QTEXTMODE
 70
     0
  9
$MIRRTEXT
 70
     1
  9
$LTSCALE
 40
1.0
  9
$ATTMODE
 70
     1
  9
$TEXTSIZE
 40
2.5
  9
$TRACEWID
 40
1.0
  9
$TEXTSTYLE
  7
MSPｺﾞｼｯｸ
  9
$CLAYER
  8
SUNPOU
  9
$CELTYPE
  6
BYLAYER
  9
$CECOLOR
 62
   256
  9
$CELTSCALE
 40
1.0
  9
$DISPSILH
 70
     0
  9
$DIMSCALE
 40
1.0
  9
$DIMASZ
 40
4.0
  9
$DIMEXO
 40
1.5
  9
$DIMDLI
 40
9.0
  9
$DIMRND
 40
0.0
  9
$DIMDLE
 40
0.0
  9
$DIMEXE
 40
1.5
  9
$DIMTP
 40
0.0
  9
$DIMTM
 40
0.0
  9
$DIMTXT
 40
4.0
  9
$DIMCEN
 40
0.0
  9
$DIMTSZ
 40
0.0
  9
$DIMTOL
 70
     0
  9
$DIMLIM
 70
     0
  9
$DIMTIH
 70
     0
  9
$DIMTOH
 70
     0
  9
$DIMSE1
 70
     0
  9
$DIMSE2
 70
     0
  9
$DIMTAD
 70
     3
  9
$DIMZIN
 70
     0
  9
$DIMBLK
  1
OPEN
  9
$DIMASO
 70
     1
  9
$DIMSHO
 70
     1
  9
$DIMPOST
  1

  9
$DIMAPOST
  1

  9
$DIMALT
 70
     0
  9
$DIMALTD
 70
     2
  9
$DIMALTF
 40
25.4
  9
$DIMLFAC
 40
1.0
  9
$DIMTOFL
 70
     0
  9
$DIMTVP
 40
0.0
  9
$DIMTIX
 70
     0
  9
$DIMSOXD
 70
     0
  9
$DIMSAH
 70
     0
  9
$DIMBLK1
  1

  9
$DIMBLK2
  1

  9
$DIMSTYLE
  2
STANDARD
  9
$DIMCLRD
 70
   256
  9
$DIMCLRE
 70
   256
  9
$DIMCLRT
 70
   256
  9
$DIMTFAC
 40
1.0
  9
$DIMGAP
 40
2.0
  9
$DIMJUST
 70
     0
  9
$DIMSD1
 70
     0
  9
$DIMSD2
 70
     0
  9
$DIMTOLJ
 70
     1
  9
$DIMTZIN
 70
     0
  9
$DIMALTZ
 70
     0
  9
$DIMALTTZ
 70
     0
  9
$DIMUPT
 70
     0
  9
$DIMDEC
 70
     0
  9
$DIMTDEC
 70
     0
  9
$DIMALTU
 70
     2
  9
$DIMALTTD
 70
     2
  9
$DIMTXSTY
  7
STANDARD
  9
$DIMAUNIT
 70
     0
  9
$DIMADEC
 70
     0
  9
$DIMALTRND
 40
0.0
  9
$DIMAZIN
 70
     0
  9
$DIMDSEP
 70
    46
  9
$DIMATFIT
 70
     3
  9
$DIMFRAC
 70
     0
  9
$DIMLDRBLK
  1
OPEN
  9
$DIMLUNIT
 70
     2
  9
$DIMLWD
 70
    -1
  9
$DIMLWE
 70
    -1
  9
$DIMTMOVE
 70
     0
  9
$LUNITS
 70
     2
  9
$LUPREC
 70
     4
  9
$SKETCHINC
 40
1.0
  9
$FILLETRAD
 40
1.0
  9
$AUNITS
 70
     0
  9
$AUPREC
 70
     0
  9
$MENU
  1
.
  9
$ELEVATION
 40
0.0
  9
$PELEVATION
 40
0.0
  9
$THICKNESS
 40
0.0
  9
$LIMCHECK
 70
     0
  9
$CHAMFERA
 40
10.0
  9
$CHAMFERB
 40
10.0
  9
$CHAMFERC
 40
20.0
  9
$CHAMFERD
 40
0.0
  9
$SKPOLY
 70
     0
  9
$TDCREATE
 40
2451204.541313195
  9
$TDUCREATE
 40
2451204.166313195
  9
$TDUPDATE
 40
2459167.572474687
  9
$TDUUPDATE
 40
2459167.197474688
  9
$TDINDWG
 40
0.2990873843
  9
$TDUSRTIMER
 40
0.2990873843
  9
$USRTIMER
 70
     1
  9
$ANGBASE
 50
0.0
  9
$ANGDIR
 70
     0
  9
$PDMODE
 70
     0
  9
$PDSIZE
 40
0.0
  9
$PLINEWID
 40
0.0
  9
$SPLFRAME
 70
     0
  9
$SPLINETYPE
 70
     6
  9
$SPLINESEGS
 70
     8
  9
$HANDSEED
  5
5053
  9
$SURFTAB1
 70
     6
  9
$SURFTAB2
 70
     6
  9
$SURFTYPE
 70
     6
  9
$SURFU
 70
     6
  9
$SURFV
 70
     6
  9
$UCSBASE
  2

  9
$UCSNAME
  2

  9
$UCSORG
 10
0.0
 20
0.0
 30
0.0
  9
$UCSXDIR
 10
1.0
 20
0.0
 30
0.0
  9
$UCSYDIR
 10
0.0
 20
1.0
 30
0.0
  9
$UCSORTHOREF
  2

  9
$UCSORTHOVIEW
 70
     0
  9
$UCSORGTOP
 10
0.0
 20
0.0
 30
0.0
  9
$UCSORGBOTTOM
 10
0.0
 20
0.0
 30
0.0
  9
$UCSORGLEFT
 10
0.0
 20
0.0
 30
0.0
  9
$UCSORGRIGHT
 10
0.0
 20
0.0
 30
0.0
  9
$UCSORGFRONT
 10
0.0
 20
0.0
 30
0.0
  9
$UCSORGBACK
 10
0.0
 20
0.0
 30
0.0
  9
$PUCSBASE
  2

  9
$PUCSNAME
  2

  9
$PUCSORG
 10
0.0
 20
0.0
 30
0.0
  9
$PUCSXDIR
 10
1.0
 20
0.0
 30
0.0
  9
$PUCSYDIR
 10
0.0
 20
1.0
 30
0.0
  9
$PUCSORTHOREF
  2

  9
$PUCSORTHOVIEW
 70
     0
  9
$PUCSORGTOP
 10
0.0
 20
0.0
 30
0.0
  9
$PUCSORGBOTTOM
 10
0.0
 20
0.0
 30
0.0
  9
$PUCSORGLEFT
 10
0.0
 20
0.0
 30
0.0
  9
$PUCSORGRIGHT
 10
0.0
 20
0.0
 30
0.0
  9
$PUCSORGFRONT
 10
0.0
 20
0.0
 30
0.0
  9
$PUCSORGBACK
 10
0.0
 20
0.0
 30
0.0
  9
$USERI1
 70
     0
  9
$USERI2
 70
     0
  9
$USERI3
 70
     0
  9
$USERI4
 70
     0
  9
$USERI5
 70
     0
  9
$USERR1
 40
0.0
  9
$USERR2
 40
0.0
  9
$USERR3
 40
0.0
  9
$USERR4
 40
0.0
  9
$USERR5
 40
0.0
  9
$WORLDVIEW
 70
     1
  9
$SHADEDGE
 70
     3
  9
$SHADEDIF
 70
    70
  9
$TILEMODE
 70
     0
  9
$MAXACTVP
 70
    16
  9
$PINSBASE
 10
0.0
 20
0.0
 30
0.0
  9
$PLIMCHECK
 70
     0
  9
$PEXTMIN
 10
-4.705468547818327
 20
-4.565118921742623
 30
0.0
  9
$PEXTMAX
 10
424.3204716983757
 20
301.9804559112231
 30
0.0
  9
$PLIMMIN
 10
-6.742797283228464
 20
-4.639999706926938
  9
$PLIMMAX
 10
426.7561526508514
 20
301.6572249612537
  9
$UNITMODE
 70
     0
  9
$VISRETAIN
 70
     0
  9
$PLINEGEN
 70
     0
  9
$PSLTSCALE
 70
     1
  9
$TREEDEPTH
 70
  3020
  9
$CMLSTYLE
  2
STANDARD
  9
$CMLJUST
 70
     0
  9
$CMLSCALE
 40
1.0
  9
$PROXYGRAPHICS
 70
     1
  9
$MEASUREMENT
 70
     1
  9
$CELWEIGHT
370
    -1
  9
$ENDCAPS
280
     0
  9
$JOINSTYLE
280
     0
  9
$LWDISPLAY
290
     0
  9
$INSUNITS
 70
     0
  9
$HYPERLINKBASE
  1

  9
$STYLESHEET
  1
print.ctb
  9
$XEDIT
290
     1
  9
$CEPSNTYPE
380
     0
  9
$PSTYLEMODE
290
     1
  9
$FINGERPRINTGUID
  2
{9394C761-BB80-44D4-BF2A-30FF33226E18}
  9
$VERSIONGUID
  2
{BD725323-927E-406D-8590-67324C57079B}
  9
$EXTNAMES
290
     1
  9
$PSVPSCALE
 40
0.0
  9
$OLESTARTUP
290
     0
  0
ENDSEC
  0
SECTION
  2
CLASSES
  0
CLASS
  1
ACDBDICTIONARYWDFLT
  2
AcDbDictionaryWithDefault
  3
ObjectDBX Classes
 90
        0
280
     0
281
     0
  0
CLASS
  1
ACDBPLACEHOLDER
  2
AcDbPlaceHolder
  3
ObjectDBX Classes
 90
        0
280
     0
281
     0
  0
CLASS
  1
LAYOUT
  2
AcDbLayout
  3
ObjectDBX Classes
 90
        0
280
     0
281
     0
  0
CLASS
  1
DICTIONARYVAR
  2
AcDbDictionaryVar
  3
ObjectDBX Classes
 90
        0
280
     0
281
     0
  0
ENDSEC
  0
SECTION
  2
TABLES
  0
TABLE
  2
VPORT
  5
8
330
0
100
AcDbSymbolTable
 70
     1
  0
VPORT
  5
503E
330
8
100
AcDbSymbolTableRecord
100
AcDbViewportTableRecord
  2
*Active
 70
     0
 10
0.0
 20
0.0
 11
1.0
 21
1.0
 12
238.5213127711304
 22
195.1185358331077
 13
0.0
 23
0.0
 14
5.0
 24
5.0
 15
0.0
 25
0.0
 16
0.0
 26
0.0
 36
1.0
 17
0.0
 27
0.0
 37
0.0
 40
566.5100978044433
 41
2.062581486310299
 42
50.0
 43
0.0
 44
0.0
 50
0.0
 51
0.0
 71
     0
 72
   100
 73
     1
 74
     0
 75
     0
 76
     0
 77
     0
 78
     0
281
     0
 65
     1
110
0.0
120
0.0
130
0.0
111
1.0
121
0.0
131
0.0
112
0.0
122
1.0
132
0.0
 79
     0
146
0.0
  0
ENDTAB
  0
TABLE
  2
LTYPE
  5
5
330
0
100
AcDbSymbolTable
 70
     2
  0
LTYPE
  5
14
330
5
100
AcDbSymbolTableRecord
100
AcDbLinetypeTableRecord
  2
BYBLOCK
 70
     0
  3

 72
    65
 73
     0
 40
0.0
  0
LTYPE
  5
15
330
5
100
AcDbSymbolTableRecord
100
AcDbLinetypeTableRecord
  2
BYLAYER
 70
     0
  3

 72
    65
 73
     0
 40
0.0
  0
LTYPE
  5
16
330
5
100
AcDbSymbolTableRecord
100
AcDbLinetypeTableRecord
  2
CONTINUOUS
 70
     0
  3
Solid line
 72
    65
 73
     0
 40
0.0
  0
LTYPE
  5
120
330
5
100
AcDbSymbolTableRecord
100
AcDbLinetypeTableRecord
  2
CENTER
 70
     0
  3
Center ____ _ ____ _ ____ _ ____ _ ____ _ ____
 72
    65
 73
     4
 40
50.8
 49
31.75
 74
     0
 49
-6.349999999999999
 74
     0
 49
6.349999999999999
 74
     0
 49
-6.349999999999999
 74
     0
  0
ENDTAB
  0
TABLE
  2
LAYER
  5
2
330
0
100
AcDbSymbolTable
 70
     8
  0
LAYER
  5
F
330
2
100
AcDbSymbolTableRecord
100
AcDbLayerTableRecord
  2
0
 70
     0
 62
     7
  6
CONTINUOUS
370
    -3
390
414
  0
LAYER
  5
62
330
2
100
AcDbSymbolTableRecord
100
AcDbLayerTableRecord
  2
VIEWPORT
 70
     0
 62
     7
  6
CONTINUOUS
370
    -3
390
414
  0
LAYER
  5
6B
330
2
100
AcDbSymbolTableRecord
100
AcDbLayerTableRecord
  2
ZUWAKU
 70
     0
 62
     7
  6
CONTINUOUS
370
    -3
390
414
  0
LAYER
  5
13E
330
2
100
AcDbSymbolTableRecord
100
AcDbLayerTableRecord
  2
SUNPOU
 70
     0
 62
     4
  6
CONTINUOUS
370
    -3
390
414
  0
LAYER
  5
13F
330
2
100
AcDbSymbolTableRecord
100
AcDbLayerTableRecord
  2
CENTER L
 70
     0
 62
     1
  6
CENTER
370
    -3
390
414
  0
LAYER
  5
140
330
2
100
AcDbSymbolTableRecord
100
AcDbLayerTableRecord
  2
DEFPOINTS
 70
     0
 62
     7
  6
CONTINUOUS
290
     0
370
    -3
390
414
  0
LAYER
  5
4BA
330
2
100
AcDbSymbolTableRecord
100
AcDbLayerTableRecord
  2
moji
 70
     0
 62
     2
  6
CONTINUOUS
370
    -3
390
414
  0
LAYER
  5
49D3
330
2
100
AcDbSymbolTableRecord
100
AcDbLayerTableRecord
  2
SEIHIN
 70
     0
 62
     3
  6
CONTINUOUS
370
    -3
390
414
  0
ENDTAB
  0
TABLE
  2
STYLE
  5
3
330
0
100
AcDbSymbolTable
 70
     3
  0
STYLE
  5
10
330
3
100
AcDbSymbolTableRecord
100
AcDbTextStyleTableRecord
  2
STANDARD
 70
     0
 40
0.0
 41
1.0
 50
0.0
 71
     0
 42
2.5
  3
TXT
  4
bigfont.shx
  0
STYLE
  5
4BB
330
3
100
AcDbSymbolTableRecord
100
AcDbTextStyleTableRecord
  2
MSPｺﾞｼｯｸ
 70
     0
 40
0.0
 41
1.0
 50
0.0
 71
     0
 42
2.5
  3

  4

1001
ACAD
1000
MS PGothic
1071
    32818
  0
STYLE
  5
4FE9
330
3
100
AcDbSymbolTableRecord
100
AcDbTextStyleTableRecord
  2
MSPｺ_ｼｯｸ
 70
     0
 40
0.0
 41
1.0
 50
0.0
 71
     0
 42
2.5
  3

  4

1001
ACAD
1000
MS PGothic
1071
    32818
  0
ENDTAB
  0
TABLE
  2
VIEW
  5
6
330
0
100
AcDbSymbolTable
 70
     0
  0
ENDTAB
  0
TABLE
  2
UCS
  5
7
330
0
100
AcDbSymbolTable
 70
     0
  0
ENDTAB
  0
TABLE
  2
APPID
  5
9
330
0
100
AcDbSymbolTable
 70
     1
  0
APPID
  5
11
330
9
100
AcDbSymbolTableRecord
100
AcDbRegAppTableRecord
  2
ACAD
 70
     0
  0
ENDTAB
  0
TABLE
  2
DIMSTYLE
  5
A
330
0
100
AcDbSymbolTable
 70
     1
100
AcDbDimStyleTable
 71
     0
  0
DIMSTYLE
105
1D
102
{ACAD_REACTORS
330
498C
330
4999
330
49A7
330
49B4
330
49C1
330
4EE6
102
}
330
A
100
AcDbSymbolTableRecord
100
AcDbDimStyleTableRecord
  2
STANDARD
 70
     0
 41
4.0
 42
1.5
 43
9.0
 44
1.5
 73
     0
 74
     0
 77
     3
140
4.0
141
0.0
147
2.0
176
   256
177
   256
178
   256
271
     0
272
     0
340
10
341
B2
342
B2
371
    -1
372
    -1
  0
ENDTAB
  0
TABLE
  2
BLOCK_RECORD
  5
1
330
0
100
AcDbSymbolTable
 70
     8
  0
BLOCK_RECORD
  5
1A
102
{ACAD_XDICTIONARY
360
444
102
}
330
1
100
AcDbSymbolTableRecord
100
AcDbBlockTableRecord
  2
*MODEL_SPACE
340
417
  0
BLOCK_RECORD
  5
17
102
{ACAD_XDICTIONARY
360
442
102
}
330
1
100
AcDbSymbolTableRecord
100
AcDbBlockTableRecord
  2
*PAPER_SPACE
340
418
  0
BLOCK_RECORD
  5
B2
330
1
100
AcDbSymbolTableRecord
100
AcDbBlockTableRecord
  2
_OPEN
340
0
102
{BLKREFS
331
4C00
331
4C01
331
4C0A
331
4C0B
331
4EEB
331
4EEC
331
4FFD
331
4FFE
331
5006
331
5007
331
500F
331
5010
102
}
  0
BLOCK_RECORD
  5
9E0
330
1
100
AcDbSymbolTableRecord
100
AcDbBlockTableRecord
  2
*X1
340
0
102
{BLKREFS
331
585
102
}
  0
BLOCK_RECORD
  5
498D
330
1
100
AcDbSymbolTableRecord
100
AcDbBlockTableRecord
  2
*D2
340
0
  0
BLOCK_RECORD
  5
499A
330
1
100
AcDbSymbolTableRecord
100
AcDbBlockTableRecord
  2
*D3
340
0
  0
BLOCK_RECORD
  5
49A8
330
1
100
AcDbSymbolTableRecord
100
AcDbBlockTableRecord
  2
*D4
340
0
  0
BLOCK_RECORD
  5
49B5
330
1
100
AcDbSymbolTableRecord
100
AcDbBlockTableRecord
  2
*D5
340
0
  0
BLOCK_RECORD
  5
49C2
330
1
100
AcDbSymbolTableRecord
100
AcDbBlockTableRecord
  2
*D6
340
0
  0
BLOCK_RECORD
  5
4EE7
330
1
100
AcDbSymbolTableRecord
100
AcDbBlockTableRecord
  2
*D7
340
0
  0
ENDTAB
  0
ENDSEC
  0
SECTION
  2
BLOCKS
  0
BLOCK
  5
1B
330
1A
100
AcDbEntity
  8
0
100
AcDbBlockBegin
  2
*MODEL_SPACE
 70
     0
 10
0.0
 20
0.0
 30
0.0
  3
*MODEL_SPACE
  1

  0
ENDBLK
  5
1C
330
1A
100
AcDbEntity
  8
0
100
AcDbBlockEnd
  0
BLOCK
  5
18
330
17
100
AcDbEntity
 67
     1
  8
0
100
AcDbBlockBegin
  2
*PAPER_SPACE
 70
     0
 10
0.0
 20
0.0
 30
0.0
  3
*PAPER_SPACE
  1

  0
ENDBLK
  5
19
330
17
100
AcDbEntity
 67
     1
  8
0
100
AcDbBlockEnd
  0
BLOCK
  5
B3
330
B2
100
AcDbEntity
  8
0
100
AcDbBlockBegin
  2
_OPEN
 70
     0
 10
0.0
 20
0.0
 30
0.0
  3
_OPEN
  1

  0
LINE
  5
B4
330
B2
100
AcDbEntity
  8
0
  6
ByBlock
 62
     0
100
AcDbLine
 10
-1.0
 20
0.1666666666666666
 30
0.0
 11
0.0
 21
0.0
 31
0.0
  0
LINE
  5
B5
330
B2
100
AcDbEntity
  8
0
  6
ByBlock
 62
     0
100
AcDbLine
 10
0.0
 20
0.0
 30
0.0
 11
-1.0
 21
-0.1666666666666666
 31
0.0
  0
LINE
  5
B6
330
B2
100
AcDbEntity
  8
0
  6
ByBlock
 62
     0
100
AcDbLine
 10
0.0
 20
0.0
 30
0.0
 11
-1.0
 21
0.0
 31
0.0
  0
ENDBLK
  5
B7
330
B2
100
AcDbEntity
  8
0
100
AcDbBlockEnd
  0
BLOCK
  5
B74
330
9E0
100
AcDbEntity
  8
0
100
AcDbBlockBegin
  2
*X1
 70
     1
 10
0.0
 20
0.0
 30
0.0
  3
*X1
  1

  0
LINE
  5
9E1
330
9E0
100
AcDbEntity
  8
0
 62
     0
100
AcDbLine
 10
34.52110582087761
 20
11.30208487459222
 30
0.0
 11
34.19819035602015
 21
11.62500033944971
 31
0.0
  0
LINE
  5
9E2
330
9E0
100
AcDbEntity
  8
0
 62
     0
100
AcDbLine
 10
34.52110582087761
 20
10.85307206853878
 30
0.0
 11
33.74917754996668
 21
11.62500033944971
 31
0.0
  0
LINE
  5
9E3
330
9E0
100
AcDbEntity
  8
0
 62
     0
100
AcDbLine
 10
34.52110582087758
 20
10.4040592624853
 30
0.0
 11
33.31053884787011
 21
11.61462623549278
 31
0.0
  0
LINE
  5
9E4
330
9E0
100
AcDbEntity
  8
0
 62
     0
100
AcDbLine
 10
34.52110582087761
 20
9.955046456431887
 30
0.0
 11
33.12110582087758
 21
11.35504645643189
 31
0.0
  0
LINE
  5
9E5
330
9E0
100
AcDbEntity
  8
0
 62
     0
100
AcDbLine
 10
34.52110582087761
 20
9.506033650378412
 30
0.0
 11
33.12110582087758
 21
10.90603365037845
 31
0.0
  0
LINE
  5
9E6
330
9E0
100
AcDbEntity
  8
0
 62
     0
100
AcDbLine
 10
34.52110582087758
 20
9.057020844324938
 30
0.0
 11
33.12110582087754
 21
10.45702084432497
 31
0.0
  0
LINE
  5
9E7
330
9E0
100
AcDbEntity
  8
0
 62
     0
100
AcDbLine
 10
32.07110582087756
 20
11.05800803827154
 30
0.0
 11
31.50411351969942
 21
11.62500033944971
 31
0.0
  0
LINE
  5
9E8
330
9E0
100
AcDbEntity
  8
0
 62
     0
100
AcDbLine
 10
34.52110582087761
 20
8.60800803827152
 30
0.0
 11
33.12110582087758
 21
10.00800803827155
 31
0.0
  0
LINE
  5
9E9
330
9E0
100
AcDbEntity
  8
0
 62
     0
100
AcDbLine
 10
32.07110582087756
 20
10.60899523221809
 30
0.0
 11
31.05510071364594
 21
11.62500033944968
 31
0.0
  0
LINE
  5
9EA
330
9E0
100
AcDbEntity
  8
0
 62
     0
100
AcDbLine
 10
34.52110582087758
 20
8.158995232218046
 30
0.0
 11
33.12110582087758
 21
9.55899523221808
 31
0.0
  0
LINE
  5
9EB
330
9E0
100
AcDbEntity
  8
0
 62
     0
100
AcDbLine
 10
32.07110582087756
 20
10.15998242616461
 30
0.0
 11
30.71835033830903
 21
11.51273790873315
 31
0.0
  0
LINE
  5
9EC
330
9E0
100
AcDbEntity
  8
0
 62
     0
100
AcDbLine
 10
34.52110582087758
 20
7.7099824261646
 30
0.0
 11
33.12110582087754
 21
9.109982426164606
 31
0.0
  0
LINE
  5
9ED
330
9E0
100
AcDbEntity
  8
0
 62
     0
100
AcDbLine
 10
32.07110582087762
 20
9.710969620111114
 30
0.0
 11
30.67110582087753
 21
11.11096962011117
 31
0.0
  0
LINE
  5
9EE
330
9E0
100
AcDbEntity
  8
0
 62
     0
100
AcDbLine
 10
34.52110582087761
 20
7.260969620111126
 30
0.0
 11
33.12110582087758
 21
8.66096962011116
 31
0.0
  0
LINE
  5
9EF
330
9E0
100
AcDbEntity
  8
0
 62
     0
100
AcDbLine
 10
32.07110582087759
 20
9.261956814057668
 30
0.0
 11
30.67110582087753
 21
10.66195681405776
 31
0.0
  0
LINE
  5
9F0
330
9E0
100
AcDbEntity
  8
0
 62
     0
100
AcDbLine
 10
34.52110582087758
 20
6.81195681405768
 30
0.0
 11
33.12110582087754
 21
8.211956814057714
 31
0.0
  0
LINE
  5
9F1
330
9E0
100
AcDbEntity
  8
0
 62
     0
100
AcDbLine
 10
32.07110582087759
 20
8.812944008004222
 30
0.0
 11
30.67110582087753
 21
10.21294400800428
 31
0.0
  0
LINE
  5
9F2
330
9E0
100
AcDbEntity
  8
0
 62
     0
100
AcDbLine
 10
34.52110582087758
 20
6.362944008004234
 30
0.0
 11
33.12110582087754
 21
7.762944008004268
 31
0.0
  0
LINE
  5
9F3
330
9E0
100
AcDbEntity
  8
0
 62
     0
100
AcDbLine
 10
32.07110582087756
 20
8.363931201950748
 30
0.0
 11
30.6711058208775
 21
9.763931201950811
 31
0.0
  0
LINE
  5
9F4
330
9E0
100
AcDbEntity
  8
0
 62
     0
100
AcDbLine
 10
34.52110582087755
 20
5.913931201950759
 30
0.0
 11
33.12110582087754
 21
7.313931201950794
 31
0.0
  0
LINE
  5
9F5
330
9E0
100
AcDbEntity
  8
0
 62
     0
100
AcDbLine
 10
32.07110582087759
 20
7.914918395897331
 30
0.0
 11
30.67110582087753
 21
9.314918395897393
 31
0.0
  0
LINE
  5
9F6
330
9E0
100
AcDbEntity
  8
0
 62
     0
100
AcDbLine
 10
28.92110582087756
 20
11.06491839589736
 30
0.0
 11
28.36102387732524
 21
11.62500033944968
 31
0.0
  0
LINE
  5
9F7
330
9E0
100
AcDbEntity
  8
0
 62
     0
100
AcDbLine
 10
34.52110582087758
 20
5.464918395897342
 30
0.0
 11
33.12110582087754
 21
6.864918395897348
 31
0.0
  0
LINE
  5
9F8
330
9E0
100
AcDbEntity
  8
0
 62
     0
100
AcDbLine
 10
32.07110582087759
 20
7.465905589843856
 30
0.0
 11
30.6711058208775
 21
8.865905589843919
 31
0.0
  0
LINE
  5
9F9
330
9E0
100
AcDbEntity
  8
0
 62
     0
100
AcDbLine
 10
28.92110582087753
 20
10.61590558984389
 30
0.0
 11
27.91201107127176
 21
11.62500033944968
 31
0.0
  0
LINE
  5
9FA
330
9E0
100
AcDbEntity
  8
0
 62
     0
100
AcDbLine
 10
34.52110582087758
 20
5.015905589843868
 30
0.0
 11
33.12110582087754
 21
6.415905589843902
 31
0.0
  0
LINE
  5
9FB
330
9E0
100
AcDbEntity
  8
0
 62
     0
100
AcDbLine
 10
32.07110582087756
 20
7.01689278379041
 30
0.0
 11
30.67110582087753
 21
8.416892783790416
 31
0.0
  0
LINE
  5
9FC
330
9E0
100
AcDbEntity
  8
0
 62
     0
100
AcDbLine
 10
28.92110582087753
 20
10.16689278379044
 30
0.0
 11
27.57122445921553
 21
11.51677414545244
 31
0.0
  0
LINE
  5
9FD
330
9E0
100
AcDbEntity
  8
0
 62
     0
100
AcDbLine
 10
34.52110582087755
 20
4.566892783790422
 30
0.0
 11
33.12110582087752
 21
5.966892783790427
 31
0.0
  0
LINE
  5
9FE
330
9E0
100
AcDbEntity
  8
0
 62
     0
100
AcDbLine
 10
32.07110582087759
 20
6.567879977736936
 30
0.0
 11
30.67110582087756
 21
7.96787997773697
 31
0.0
  0
LINE
  5
9FF
330
9E0
100
AcDbEntity
  8
0
 62
     0
100
AcDbLine
 10
28.92110582087756
 20
9.71787997773697
 30
0.0
 11
27.52110582087755
 21
11.11787997773697
 31
0.0
  0
LINE
  5
A00
330
9E0
100
AcDbEntity
  8
0
 62
     0
100
AcDbLine
 10
34.52110582087758
 20
4.117879977736947
 30
0.0
 11
33.12110582087754
 21
5.517879977736981
 31
0.0
  0
LINE
  5
A01
330
9E0
100
AcDbEntity
  8
0
 62
     0
100
AcDbLine
 10
32.07110582087756
 20
6.11886717168349
 30
0.0
 11
30.67110582087756
 21
7.518867171683524
 31
0.0
  0
LINE
  5
A02
330
9E0
100
AcDbEntity
  8
0
 62
     0
100
AcDbLine
 10
28.92110582087759
 20
9.268867171683496
 30
0.0
 11
27.52110582087755
 21
10.66886717168353
 31
0.0
  0
LINE
  5
A03
330
9E0
100
AcDbEntity
  8
0
 62
     0
100
AcDbLine
 10
34.48512314343267
 20
3.704849849128407
 30
0.0
 11
33.12110582087754
 21
5.068867171683535
 31
0.0
  0
LINE
  5
A04
330
9E0
100
AcDbEntity
  8
0
 62
     0
100
AcDbLine
 10
32.07110582087759
 20
5.669854365629987
 30
0.0
 11
30.67110582087753
 21
7.06985436563005
 31
0.0
  0
LINE
  5
A05
330
9E0
100
AcDbEntity
  8
0
 62
     0
100
AcDbLine
 10
28.92110582087756
 20
8.81985436563005
 30
0.0
 11
27.52110582087752
 21
10.21985436563005
 31
0.0
  0
LINE
  5
A06
330
9E0
100
AcDbEntity
  8
0
 62
     0
100
AcDbLine
 10
34.16595984705793
 20
3.575000339449672
 30
0.0
 11
33.12110582087752
 21
4.619854365630089
 31
0.0
  0
LINE
  5
A07
330
9E0
100
AcDbEntity
  8
0
 62
     0
100
AcDbLine
 10
28.92110582087756
 20
8.370841559576575
 30
0.0
 11
27.52110582087752
 21
9.770841559576609
 31
0.0
  0
LINE
  5
A08
330
9E0
100
AcDbEntity
  8
0
 62
     0
100
AcDbLine
 10
32.07110582087759
 20
5.220841559576541
 30
0.0
 11
30.67110582087753
 21
6.620841559576604
 31
0.0
  0
LINE
  5
A09
330
9E0
100
AcDbEntity
  8
0
 62
     0
100
AcDbLine
 10
26.20860582087755
 20
11.08334155957658
 30
0.0
 11
25.66694704100448
 21
11.62500033944962
 31
0.0
  0
LINE
  5
A0A
330
9E0
100
AcDbEntity
  8
0
 62
     0
100
AcDbLine
 10
33.71694704100449
 20
3.575000339449616
 30
0.0
 11
33.12110582087752
 21
4.170841559576615
 31
0.0
  0
LINE
  5
A0B
330
9E0
100
AcDbEntity
  8
0
 62
     0
100
AcDbLine
 10
28.92110582087756
 20
7.921828753523129
 30
0.0
 11
27.52110582087758
 21
9.321828753523135
 31
0.0
  0
LINE
  5
A0C
330
9E0
100
AcDbEntity
  8
0
 62
     0
100
AcDbLine
 10
26.20860582087755
 20
10.63432875352313
 30
0.0
 11
25.21793423495106
 21
11.62500033944965
 31
0.0
  0
LINE
  5
A0D
330
9E0
100
AcDbEntity
  8
0
 62
     0
100
AcDbLine
 10
32.0581266705548
 20
4.784807903845916
 30
0.0
 11
30.67110582087753
 21
6.171828753523158
 31
0.0
  0
LINE
  5
A0E
330
9E0
100
AcDbEntity
  8
0
 62
     0
100
AcDbLine
 10
28.92110582087756
 20
7.472815947469683
 30
0.0
 11
27.52110582087758
 21
8.872815947469661
 31
0.0
  0
LINE
  5
A0F
330
9E0
100
AcDbEntity
  8
0
 62
     0
100
AcDbLine
 10
26.11081554782064
 20
10.2831062205266
 30
0.0
 11
24.76892142889756
 21
11.62500033944968
 31
0.0
  0
LINE
  5
A10
330
9E0
100
AcDbEntity
  8
0
 62
     0
100
AcDbLine
 10
31.96163402292618
 20
4.432287745421035
 30
0.0
 11
30.67110582087753
 21
5.722815947469712
 31
0.0
  0
LINE
  5
A11
330
9E0
100
AcDbEntity
  8
0
 62
     0
100
AcDbLine
 10
28.92110582087756
 20
7.023803141416209
 30
0.0
 11
27.52110582087755
 21
8.423803141416215
 31
0.0
  0
LINE
  5
A12
330
9E0
100
AcDbEntity
  8
0
 62
     0
100
AcDbLine
 10
25.71990862284406
 20
10.22500033944968
 30
0.0
 11
24.31990862284411
 21
11.62500033944962
 31
0.0
  0
LINE
  5
A13
330
9E0
100
AcDbEntity
  8
0
 62
     0
100
AcDbLine
 10
31.79911808496439
 20
4.145790877329346
 30
0.0
 11
30.63534795129778
 21
5.309561010995992
 31
0.0
  0
LINE
  5
A14
330
9E0
100
AcDbEntity
  8
0
 62
     0
100
AcDbLine
 10
28.92110582087756
 20
6.574790335362791
 30
0.0
 11
27.52110582087758
 21
7.974790335362769
 31
0.0
  0
LINE
  5
A15
330
9E0
100
AcDbEntity
  8
0
 62
     0
100
AcDbLine
 10
25.27089581679064
 20
10.22500033944971
 30
0.0
 11
23.90211245220195
 21
11.5937837040384
 31
0.0
  0
LINE
  5
A16
330
9E0
100
AcDbEntity
  8
0
 62
     0
100
AcDbLine
 10
31.58309718630187
 20
3.912798969938449
 30
0.0
 11
30.43455513206402
 21
5.0613410241763
 31
0.0
  0
LINE
  5
A17
330
9E0
100
AcDbEntity
  8
0
 62
     0
100
AcDbLine
 10
28.92110582087756
 20
6.125777529309317
 30
0.0
 11
27.52110582087755
 21
7.525777529309294
 31
0.0
  0
LINE
  5
A18
330
9E0
100
AcDbEntity
  8
0
 62
     0
100
AcDbLine
 10
24.82188301073717
 20
10.22500033944971
 30
0.0
 11
23.56979223993525
 21
11.47709111025159
 31
0.0
  0
LINE
  5
A19
330
9E0
100
AcDbEntity
  8
0
 62
     0
100
AcDbLine
 10
31.31501601383886
 20
3.731867336348017
 30
0.0
 11
30.07188301073717
 21
4.975000339449678
 31
0.0
  0
LINE
  5
A1A
330
9E0
100
AcDbEntity
  8
0
 62
     0
100
AcDbLine
 10
28.92110582087753
 20
5.676764723255843
 30
0.0
 11
27.52110582087755
 21
7.076764723255848
 31
0.0
  0
LINE
  5
A1B
330
9E0
100
AcDbEntity
  8
0
 62
     0
100
AcDbLine
 10
24.38376511869277
 20
10.2141054254406
 30
0.0
 11
23.29849177133016
 21
11.29937877280321
 31
0.0
  0
LINE
  5
A1C
330
9E0
100
AcDbEntity
  8
0
 62
     0
100
AcDbLine
 10
30.98680973388321
 20
3.611060810250194
 30
0.0
 11
29.62287020468372
 21
4.975000339449678
 31
0.0
  0
LINE
  5
A1D
330
9E0
100
AcDbEntity
  8
0
 62
     0
100
AcDbLine
 10
24.19610582087759
 20
9.952751917202306
 30
0.0
 11
23.07943574180788
 21
11.06942199627201
 31
0.0
  0
LINE
  5
A1E
330
9E0
100
AcDbEntity
  8
0
 62
     0
100
AcDbLine
 10
30.57385739863028
 20
3.575000339449644
 30
0.0
 11
27.52110582087755
 21
6.627751917202374
 31
0.0
  0
LINE
  5
A1F
330
9E0
100
AcDbEntity
  8
0
 62
     0
100
AcDbLine
 10
24.19610582087762
 20
9.503739111148888
 30
0.0
 11
22.91355028563137
 21
10.78629464639513
 31
0.0
  0
LINE
  5
A20
330
9E0
100
AcDbEntity
  8
0
 62
     0
100
AcDbLine
 10
30.12484459257684
 20
3.575000339449644
 30
0.0
 11
27.52110582087755
 21
6.178739111148956
 31
0.0
  0
LINE
  5
A21
330
9E0
100
AcDbEntity
  8
0
 62
     0
100
AcDbLine
 10
24.29937796142949
 20
8.951454164543548
 30
0.0
 11
22.81246102594932
 21
10.43837110002368
 31
0.0
  0
LINE
  5
A22
330
9E0
100
AcDbEntity
  8
0
 62
     0
100
AcDbLine
 10
29.67583178652339
 20
3.575000339449644
 30
0.0
 11
27.52110582087755
 21
5.729726305095482
 31
0.0
  0
LINE
  5
A23
330
9E0
100
AcDbEntity
  8
0
 62
     0
100
AcDbLine
 10
26.40790767222325
 20
6.393911647696313
 30
0.0
 11
22.79610582087756
 21
10.00571349904197
 31
0.0
  0
LINE
  5
A24
330
9E0
100
AcDbEntity
  8
0
 62
     0
100
AcDbLine
 10
21.74610582087752
 20
11.05571349904201
 30
0.0
 11
21.17681898046988
 21
11.62500033944968
 31
0.0
  0
LINE
  5
A25
330
9E0
100
AcDbEntity
  8
0
 62
     0
100
AcDbLine
 10
29.22681898046992
 20
3.575000339449644
 30
0.0
 11
27.52110582087752
 21
5.280713499042008
 31
0.0
  0
LINE
  5
A26
330
9E0
100
AcDbEntity
  8
0
 62
     0
100
AcDbLine
 10
26.4711058208776
 20
5.881700692988545
 30
0.0
 11
22.79610582087759
 21
9.556700692988556
 31
0.0
  0
LINE
  5
A27
330
9E0
100
AcDbEntity
  8
0
 62
     0
100
AcDbLine
 10
21.74610582087757
 20
10.60670069298854
 30
0.0
 11
20.7278061744164
 21
11.62500033944974
 31
0.0
  0
LINE
  5
A28
330
9E0
100
AcDbEntity
  8
0
 62
     0
100
AcDbLine
 10
28.76958223504403
 20
3.583224278822115
 30
0.0
 11
27.52932976025002
 21
4.82347675361612
 31
0.0
  0
LINE
  5
A29
330
9E0
100
AcDbEntity
  8
0
 62
     0
100
AcDbLine
 10
21.74610582087757
 20
10.15768788693509
 30
0.0
 11
20.39241087698991
 21
11.51138283082272
 31
0.0
  0
LINE
  5
A2A
330
9E0
100
AcDbEntity
  8
0
 62
     0
100
AcDbLine
 10
26.47110582087757
 20
5.43268788693507
 30
0.0
 11
22.80781115481875
 21
9.095982552993916
 31
0.0
  0
LINE
  5
A2B
330
9E0
100
AcDbEntity
  8
0
 62
     0
100
AcDbLine
 10
21.74610582087757
 20
9.708675080881619
 30
0.0
 11
20.34610582087757
 21
11.10867508088159
 31
0.0
  0
LINE
  5
A2C
330
9E0
100
AcDbEntity
  8
0
 62
     0
100
AcDbLine
 10
26.47110582087751
 20
4.983675080881653
 30
0.0
 11
22.96687086373876
 21
8.48791003802043
 31
0.0
  0
LINE
  5
A2D
330
9E0
100
AcDbEntity
  8
0
 62
     0
100
AcDbLine
 10
21.74610582087757
 20
9.259662274828173
 30
0.0
 11
20.3461058208776
 21
10.65966227482815
 31
0.0
  0
LINE
  5
A2E
330
9E0
100
AcDbEntity
  8
0
 62
     0
100
AcDbLine
 10
26.41682491208303
 20
4.588943183622717
 30
0.0
 11
25.06900751756388
 21
5.936760578141871
 31
0.0
  0
LINE
  5
A2F
330
9E0
100
AcDbEntity
  8
0
 62
     0
100
AcDbLine
 10
21.74610582087757
 20
8.810649468774727
 30
0.0
 11
20.34610582087757
 21
10.2106494687747
 31
0.0
  0
LINE
  5
A30
330
9E0
100
AcDbEntity
  8
0
 62
     0
100
AcDbLine
 10
19.20036237058906
 20
11.35639291906321
 30
0.0
 11
18.93175495020262
 21
11.62500033944968
 31
0.0
  0
LINE
  5
A31
330
9E0
100
AcDbEntity
  8
0
 62
     0
100
AcDbLine
 10
26.28288705820225
 20
4.273868231450052
 30
0.0
 11
25.07110582087759
 21
5.48564946877471
 31
0.0
  0
LINE
  5
A32
330
9E0
100
AcDbEntity
  8
0
 62
     0
100
AcDbLine
 10
21.74610582087755
 20
8.361636662721252
 30
0.0
 11
20.34610582087757
 21
9.761636662721258
 31
0.0
  0
LINE
  5
A33
330
9E0
100
AcDbEntity
  8
0
 62
     0
100
AcDbLine
 10
19.10089853846276
 20
11.00684394513604
 30
0.0
 11
18.48274214414914
 21
11.62500033944968
 31
0.0
  0
LINE
  5
A34
330
9E0
100
AcDbEntity
  8
0
 62
     0
100
AcDbLine
 10
26.0913936591146
 20
4.016348824484225
 30
0.0
 11
25.02246322943435
 21
5.085279254164476
 31
0.0
  0
LINE
  5
A35
330
9E0
100
AcDbEntity
  8
0
 62
     0
100
AcDbLine
 10
21.74610582087755
 20
7.912623856667806
 30
0.0
 11
20.34610582087757
 21
9.312623856667784
 31
0.0
  0
LINE
  5
A36
330
9E0
100
AcDbEntity
  8
0
 62
     0
100
AcDbLine
 10
18.99313546500991
 20
10.66559421253541
 30
0.0
 11
18.03852768327462
 21
11.62020199427073
 31
0.0
  0
LINE
  5
A37
330
9E0
100
AcDbEntity
  8
0
 62
     0
100
AcDbLine
 10
25.84823417655679
 20
3.810495500988537
 30
0.0
 11
24.68372933809567
 21
4.975000339449678
 31
0.0
  0
LINE
  5
A38
330
9E0
100
AcDbEntity
  8
0
 62
     0
100
AcDbLine
 10
21.74610582087757
 20
7.46361105061436
 30
0.0
 11
20.34610582087757
 21
8.863611050614338
 31
0.0
  0
LINE
  5
A39
330
9E0
100
AcDbEntity
  8
0
 62
     0
100
AcDbLine
 10
18.88537239155715
 20
10.32434447993478
 30
0.0
 11
17.82137239155713
 21
11.3883444799348
 31
0.0
  0
LINE
  5
A3A
330
9E0
100
AcDbEntity
  8
0
 62
     0
100
AcDbLine
 10
25.5501922023266
 20
3.659524669165307
 30
0.0
 11
24.23471653204223
 21
4.975000339449707
 31
0.0
  0
LINE
  5
A3B
330
9E0
100
AcDbEntity
  8
0
 62
     0
100
AcDbLine
 10
21.74610582087755
 20
7.014598244560914
 30
0.0
 11
20.34610582087757
 21
8.414598244560892
 31
0.0
  0
LINE
  5
A3C
330
9E0
100
AcDbEntity
  8
0
 62
     0
100
AcDbLine
 10
18.77760931810422
 20
9.983094747334234
 30
0.0
 11
17.71360931810423
 21
11.04709474733422
 31
0.0
  0
LINE
  5
A3D
330
9E0
100
AcDbEntity
  8
0
 62
     0
100
AcDbLine
 10
25.18135587650287
 20
3.579348188935597
 30
0.0
 11
23.78570372598878
 21
4.975000339449678
 31
0.0
  0
LINE
  5
A3E
330
9E0
100
AcDbEntity
  8
0
 62
     0
100
AcDbLine
 10
21.74610582087755
 20
6.56558543850744
 30
0.0
 11
20.34610582087754
 21
7.965585438507417
 31
0.0
  0
LINE
  5
A3F
330
9E0
100
AcDbEntity
  8
0
 62
     0
100
AcDbLine
 10
18.66984624465144
 20
9.641845014733547
 30
0.0
 11
17.60584624465139
 21
10.70584501473357
 31
0.0
  0
LINE
  5
A40
330
9E0
100
AcDbEntity
  8
0
 62
     0
100
AcDbLine
 10
24.73669091993534
 20
3.575000339449644
 30
0.0
 11
23.33669091993531
 21
4.975000339449678
 31
0.0
  0
LINE
  5
A41
330
9E0
100
AcDbEntity
  8
0
 62
     0
100
AcDbLine
 10
21.74610582087755
 20
6.116572632453994
 30
0.0
 11
20.34610582087757
 21
7.516572632454
 31
0.0
  0
LINE
  5
A42
330
9E0
100
AcDbEntity
  8
0
 62
     0
100
AcDbLine
 10
18.56208317119862
 20
9.300595282132945
 30
0.0
 11
17.49808317119857
 21
10.36459528213296
 31
0.0
  0
LINE
  5
A43
330
9E0
100
AcDbEntity
  8
0
 62
     0
100
AcDbLine
 10
24.2876781138819
 20
3.575000339449672
 30
0.0
 11
23.0708722652337
 21
4.791806188097865
 31
0.0
  0
LINE
  5
A44
330
9E0
100
AcDbEntity
  8
0
 62
     0
100
AcDbLine
 10
18.45432009774581
 20
8.959345549532258
 30
0.0
 11
17.39032009774575
 21
10.02334554953233
 31
0.0
  0
LINE
  5
A45
330
9E0
100
AcDbEntity
  8
0
 62
     0
100
AcDbLine
 10
21.74610582087755
 20
5.667559826400548
 30
0.0
 11
20.34610582087757
 21
7.067559826400525
 31
0.0
  0
LINE
  5
A46
330
9E0
100
AcDbEntity
  8
0
 62
     0
100
AcDbLine
 10
16.32110582087756
 20
11.09255982640053
 30
0.0
 11
15.78866530782841
 21
11.62500033944965
 31
0.0
  0
LINE
  5
A47
330
9E0
100
AcDbEntity
  8
0
 62
     0
100
AcDbLine
 10
23.83866530782845
 20
3.575000339449644
 30
0.0
 11
23.05860582087758
 21
4.35505982640052
 31
0.0
  0
LINE
  5
A48
330
9E0
100
AcDbEntity
  8
0
 62
     0
100
AcDbLine
 10
18.3465570242929
 20
8.618095816931713
 30
0.0
 11
17.28255702429294
 21
9.682095816931678
 31
0.0
  0
LINE
  5
A49
330
9E0
100
AcDbEntity
  8
0
 62
     0
100
AcDbLine
 10
21.74610582087755
 20
5.218547020347074
 30
0.0
 11
20.34610582087754
 21
6.618547020347079
 31
0.0
  0
LINE
  5
A4A
330
9E0
100
AcDbEntity
  8
0
 62
     0
100
AcDbLine
 10
16.32110582087756
 20
10.64354702034705
 30
0.0
 11
15.33965250177496
 21
11.62500033944965
 31
0.0
  0
LINE
  5
A4B
330
9E0
100
AcDbEntity
  8
0
 62
     0
100
AcDbLine
 10
23.38965250177495
 20
3.575000339449672
 30
0.0
 11
23.05860582087754
 21
3.906047020347045
 31
0.0
  0
LINE
  5
A4C
330
9E0
100
AcDbEntity
  8
0
 62
     0
100
AcDbLine
 10
18.23879395084009
 20
8.276846084331054
 30
0.0
 11
17.17479395084007
 21
9.340846084331076
 31
0.0
  0
LINE
  5
A4D
330
9E0
100
AcDbEntity
  8
0
 62
     0
100
AcDbLine
 10
16.32110582087753
 20
10.19453421429358
 30
0.0
 11
14.98338335642873
 21
11.53225667874241
 31
0.0
  0
LINE
  5
A4E
330
9E0
100
AcDbEntity
  8
0
 62
     0
100
AcDbLine
 10
21.74610582087752
 20
4.769534214293628
 30
0.0
 11
20.34610582087754
 21
6.169534214293605
 31
0.0
  0
LINE
  5
A4F
330
9E0
100
AcDbEntity
  8
0
 62
     0
100
AcDbLine
 10
18.13103087738727
 20
7.935596351730453
 30
0.0
 11
17.06703087738728
 21
8.999596351730446
 31
0.0
  0
LINE
  5
A50
330
9E0
100
AcDbEntity
  8
0
 62
     0
100
AcDbLine
 10
16.32110582087756
 20
9.745521408240165
 30
0.0
 11
14.92110582087753
 21
11.14552140824017
 31
0.0
  0
LINE
  5
A51
330
9E0
100
AcDbEntity
  8
0
 62
     0
100
AcDbLine
 10
21.74610582087755
 20
4.320521408240182
 30
0.0
 11
20.34610582087754
 21
5.720521408240159
 31
0.0
  0
LINE
  5
A52
330
9E0
100
AcDbEntity
  8
0
 62
     0
100
AcDbLine
 10
18.02848662269125
 20
7.589127800373006
 30
0.0
 11
16.95926780393441
 21
8.658346619129844
 31
0.0
  0
LINE
  5
A53
330
9E0
100
AcDbEntity
  8
0
 62
     0
100
AcDbLine
 10
16.32110582087756
 20
9.29650860218669
 30
0.0
 11
14.92110582087753
 21
10.69650860218672
 31
0.0
  0
LINE
  5
A54
330
9E0
100
AcDbEntity
  8
0
 62
     0
100
AcDbLine
 10
21.74610582087752
 20
3.871508602186708
 30
0.0
 11
20.34610582087754
 21
5.271508602186713
 31
0.0
  0
LINE
  5
A55
330
9E0
100
AcDbEntity
  8
0
 62
     0
100
AcDbLine
 10
18.23572330240824
 20
6.932878314602533
 30
0.0
 11
16.8139940560921
 21
8.35460756091868
 31
0.0
  0
LINE
  5
A56
330
9E0
100
AcDbEntity
  8
0
 62
     0
100
AcDbLine
 10
16.32110582087759
 20
8.847495796133188
 30
0.0
 11
14.9211058208775
 21
10.24749579613325
 31
0.0
  0
LINE
  5
A57
330
9E0
100
AcDbEntity
  8
0
 62
     0
100
AcDbLine
 10
21.57658332221135
 20
3.592018294799402
 30
0.0
 11
20.34610582087757
 21
4.82249579613321
 31
0.0
  0
LINE
  5
A58
330
9E0
100
AcDbEntity
  8
0
 62
     0
100
AcDbLine
 10
18.44295998212524
 20
6.276628828832116
 30
0.0
 11
14.92110582087753
 21
9.798482990079833
 31
0.0
  0
LINE
  5
A59
330
9E0
100
AcDbEntity
  8
0
 62
     0
100
AcDbLine
 10
13.69610582087759
 20
11.02348299007977
 30
0.0
 11
13.0945884715077
 21
11.62500033944965
 31
0.0
  0
LINE
  5
A5A
330
9E0
100
AcDbEntity
  8
0
 62
     0
100
AcDbLine
 10
21.14458847150772
 20
3.575000339449644
 30
0.0
 11
20.3461058208776
 21
4.373482990079764
 31
0.0
  0
LINE
  5
A5B
330
9E0
100
AcDbEntity
  8
0
 62
     0
100
AcDbLine
 10
18.65019666184227
 20
5.620379343061614
 30
0.0
 11
14.92110582087753
 21
9.349470184026358
 31
0.0
  0
LINE
  5
A5C
330
9E0
100
AcDbEntity
  8
0
 62
     0
100
AcDbLine
 10
13.69610582087759
 20
10.57447018402629
 30
0.0
 11
12.6455756654542
 21
11.62500033944968
 31
0.0
  0
LINE
  5
A5D
330
9E0
100
AcDbEntity
  8
0
 62
     0
100
AcDbLine
 10
20.69557566545424
 20
3.575000339449616
 30
0.0
 11
20.34610582087757
 21
3.924470184026318
 31
0.0
  0
LINE
  5
A5E
330
9E0
100
AcDbEntity
  8
0
 62
     0
100
AcDbLine
 10
13.56265247318254
 20
10.25891072566787
 30
0.0
 11
12.21254161407683
 21
11.60902158477356
 31
0.0
  0
LINE
  5
A5F
330
9E0
100
AcDbEntity
  8
0
 62
     0
100
AcDbLine
 10
18.85743334155924
 20
4.964129857291169
 30
0.0
 11
14.92110582087756
 21
8.900457377972855
 31
0.0
  0
LINE
  5
A60
330
9E0
100
AcDbEntity
  8
0
 62
     0
100
AcDbLine
 10
16.48986028204837
 20
6.882690110748598
 30
0.0
 11
14.92110582087756
 21
8.45144457191941
 31
0.0
  0
LINE
  5
A61
330
9E0
100
AcDbEntity
  8
0
 62
     0
100
AcDbLine
 10
13.14755005334731
 20
10.22500033944962
 30
0.0
 11
11.84352007928319
 21
11.52903031351377
 31
0.0
  0
LINE
  5
A62
330
9E0
100
AcDbEntity
  8
0
 62
     0
100
AcDbLine
 10
19.06467002127627
 20
4.307880371520695
 30
0.0
 11
17.01851617512221
 21
6.354034217674751
 31
0.0
  0
LINE
  5
A63
330
9E0
100
AcDbEntity
  8
0
 62
     0
100
AcDbLine
 10
16.32110582087759
 20
6.602431765865929
 30
0.0
 11
14.92110582087756
 21
8.002431765865964
 31
0.0
  0
LINE
  5
A64
330
9E0
100
AcDbEntity
  8
0
 62
     0
100
AcDbLine
 10
12.69853724729381
 20
10.22500033944968
 30
0.0
 11
11.52415937136783
 21
11.39937821537566
 31
0.0
  0
LINE
  5
A65
330
9E0
100
AcDbEntity
  8
0
 62
     0
100
AcDbLine
 10
19.18218945013157
 20
3.741348136611918
 30
0.0
 11
17.22575285483927
 21
5.697784731904249
 31
0.0
  0
LINE
  5
A66
330
9E0
100
AcDbEntity
  8
0
 62
     0
100
AcDbLine
 10
16.32110582087756
 20
6.153418959812483
 30
0.0
 11
14.92110582087753
 21
7.553418959812489
 31
0.0
  0
LINE
  5
A67
330
9E0
100
AcDbEntity
  8
0
 62
     0
100
AcDbLine
 10
12.27698049602205
 20
10.197544284668
 30
0.0
 11
11.24478488370056
 21
11.22973989698948
 31
0.0
  0
LINE
  5
A68
330
9E0
100
AcDbEntity
  8
0
 62
     0
100
AcDbLine
 10
18.8995244412404
 20
3.575000339449644
 30
0.0
 11
17.43298953455627
 21
5.041535246133776
 31
0.0
  0
LINE
  5
A69
330
9E0
100
AcDbEntity
  8
0
 62
     0
100
AcDbLine
 10
16.32110582087756
 20
5.704406153759009
 30
0.0
 11
14.92110582087753
 21
7.104406153759043
 31
0.0
  0
LINE
  5
A6A
330
9E0
100
AcDbEntity
  8
0
 62
     0
100
AcDbLine
 10
11.99105239960255
 20
10.03445957503402
 30
0.0
 11
11.00095727939467
 21
11.0245546952419
 31
0.0
  0
LINE
  5
A6B
330
9E0
100
AcDbEntity
  8
0
 62
     0
100
AcDbLine
 10
18.45051163518693
 20
3.575000339449644
 30
0.0
 11
17.64022621427327
 21
4.385285760363302
 31
0.0
  0
LINE
  5
A6C
330
9E0
100
AcDbEntity
  8
0
 62
     0
100
AcDbLine
 10
13.86382038727643
 20
7.712678781306721
 30
0.0
 11
13.10878426273456
 21
8.467714905848595
 31
0.0
  0
LINE
  5
A6D
330
9E0
100
AcDbEntity
  8
0
 62
     0
100
AcDbLine
 10
16.32110582087762
 20
5.255393347705535
 30
0.0
 11
14.92110582087756
 21
6.655393347705597
 31
0.0
  0
LINE
  5
A6E
330
9E0
100
AcDbEntity
  8
0
 62
     0
100
AcDbLine
 10
11.81299161453807
 20
9.763507554045077
 30
0.0
 11
10.79127426638905
 21
10.7852249021941
 31
0.0
  0
LINE
  5
A6F
330
9E0
100
AcDbEntity
  8
0
 62
     0
100
AcDbLine
 10
17.97633232703117
 20
3.600166841551981
 30
0.0
 11
17.85115524123552
 21
3.725343927347637
 31
0.0
  0
LINE
  5
A70
330
9E0
100
AcDbEntity
  8
0
 62
     0
100
AcDbLine
 10
13.82056355720547
 20
7.306922805324205
 30
0.0
 11
12.70302828675204
 21
8.424458075777636
 31
0.0
  0
LINE
  5
A71
330
9E0
100
AcDbEntity
  8
0
 62
     0
100
AcDbLine
 10
11.7711058208776
 20
9.356380541652072
 30
0.0
 11
10.61680475590822
 21
10.51068160662146
 31
0.0
  0
LINE
  5
A72
330
9E0
100
AcDbEntity
  8
0
 62
     0
100
AcDbLine
 10
16.32110582087759
 20
4.80638054165206
 30
0.0
 11
14.92110582087753
 21
6.206380541652151
 31
0.0
  0
LINE
  5
A73
330
9E0
100
AcDbEntity
  8
0
 62
     0
100
AcDbLine
 10
13.65463577755645
 20
7.023837778919727
 30
0.0
 11
12.41994326034756
 21
8.258530296128611
 31
0.0
  0
LINE
  5
A74
330
9E0
100
AcDbEntity
  8
0
 62
     0
100
AcDbLine
 10
11.7711058208776
 20
8.907367735598597
 30
0.0
 11
10.48151490230313
 21
10.19695865417307
 31
0.0
  0
LINE
  5
A75
330
9E0
100
AcDbEntity
  8
0
 62
     0
100
AcDbLine
 10
16.32110582087759
 20
4.357367735598614
 30
0.0
 11
14.92110582087756
 21
5.757367735598649
 31
0.0
  0
LINE
  5
A76
330
9E0
100
AcDbEntity
  8
0
 62
     0
100
AcDbLine
 10
11.7711058208776
 20
8.458354929545151
 30
0.0
 11
10.3941579658402
 21
9.83530278458258
 31
0.0
  0
LINE
  5
A77
330
9E0
100
AcDbEntity
  8
0
 62
     0
100
AcDbLine
 10
13.40371905648823
 20
6.82574169393456
 30
0.0
 11
12.2218471753624
 21
8.007613575060389
 31
0.0
  0
LINE
  5
A78
330
9E0
100
AcDbEntity
  8
0
 62
     0
100
AcDbLine
 10
9.058605820877573
 20
11.17085492954521
 30
0.0
 11
8.604460410973075
 21
11.62500033944971
 31
0.0
  0
LINE
  5
A79
330
9E0
100
AcDbEntity
  8
0
 62
     0
100
AcDbLine
 10
16.32110582087762
 20
3.908354929545168
 30
0.0
 11
14.92110582087758
 21
5.308354929545203
 31
0.0
  0
LINE
  5
A7A
330
9E0
100
AcDbEntity
  8
0
 62
     0
100
AcDbLine
 10
11.7711058208776
 20
8.009342123491705
 30
0.0
 11
10.37110582087757
 21
9.40934212349174
 31
0.0
  0
LINE
  5
A7B
330
9E0
100
AcDbEntity
  8
0
 62
     0
100
AcDbLine
 10
13.05355933527451
 20
6.7268886090948
 30
0.0
 11
12.12299409052264
 21
7.657453853846675
 31
0.0
  0
LINE
  5
A7C
330
9E0
100
AcDbEntity
  8
0
 62
     0
100
AcDbLine
 10
9.058605820877545
 20
10.72184212349174
 30
0.0
 11
8.155447604919601
 21
11.62500033944968
 31
0.0
  0
LINE
  5
A7D
330
9E0
100
AcDbEntity
  8
0
 62
     0
100
AcDbLine
 10
16.17715392024226
 20
3.603294024127052
 30
0.0
 11
14.92110582087756
 21
4.859342123491728
 31
0.0
  0
LINE
  5
A7E
330
9E0
100
AcDbEntity
  8
0
 62
     0
100
AcDbLine
 10
11.7711058208776
 20
7.560329317438231
 30
0.0
 11
10.37110582087757
 21
8.960329317438265
 31
0.0
  0
LINE
  5
A7F
330
9E0
100
AcDbEntity
  8
0
 62
     0
100
AcDbLine
 10
9.004088835742379
 20
10.32734630257346
 30
0.0
 11
7.706434798866098
 21
11.62500033944971
 31
0.0
  0
LINE
  5
A80
330
9E0
100
AcDbEntity
  8
0
 62
     0
100
AcDbLine
 10
15.75643479886617
 20
3.575000339449672
 30
0.0
 11
14.92110582087756
 21
4.410329317438282
 31
0.0
  0
LINE
  5
A81
330
9E0
100
AcDbEntity
  8
0
 62
     0
100
AcDbLine
 10
11.77110582087758
 20
7.111316511384785
 30
0.0
 11
10.37110582087754
 21
8.511316511384791
 31
0.0
  0
LINE
  5
A82
330
9E0
100
AcDbEntity
  8
0
 62
     0
100
AcDbLine
 10
8.657421992812714
 20
10.22500033944965
 30
0.0
 11
7.257421992812652
 21
11.62500033944971
 31
0.0
  0
LINE
  5
A83
330
9E0
100
AcDbEntity
  8
0
 62
     0
100
AcDbLine
 10
15.30742199281269
 20
3.575000339449644
 30
0.0
 11
14.92110582087756
 21
3.961316511384808
 31
0.0
  0
LINE
  5
A84
330
9E0
100
AcDbEntity
  8
0
 62
     0
100
AcDbLine
 10
11.7711058208776
 20
6.662303705331339
 30
0.0
 11
10.37110582087757
 21
8.062303705331373
 31
0.0
  0
LINE
  5
A85
330
9E0
100
AcDbEntity
  8
0
 62
     0
100
AcDbLine
 10
8.208409186759269
 20
10.22500033944965
 30
0.0
 11
6.825844550706818
 21
11.60756497550213
 31
0.0
  0
LINE
  5
A86
330
9E0
100
AcDbEntity
  8
0
 62
     0
100
AcDbLine
 10
13.69480459645911
 20
4.738604929749811
 30
0.0
 11
13.45971041117775
 21
4.973699115031195
 31
0.0
  0
LINE
  5
A87
330
9E0
100
AcDbEntity
  8
0
 62
     0
100
AcDbLine
 10
11.77110582087758
 20
6.213290899277865
 30
0.0
 11
10.37110582087757
 21
7.613290899277899
 31
0.0
  0
LINE
  5
A88
330
9E0
100
AcDbEntity
  8
0
 62
     0
100
AcDbLine
 10
7.759396380705823
 20
10.22500033944965
 30
0.0
 11
6.47927714646758
 21
11.50511957368789
 31
0.0
  0
LINE
  5
A89
330
9E0
100
AcDbEntity
  8
0
 62
     0
100
AcDbLine
 10
13.69610582087762
 20
4.288290899277853
 30
0.0
 11
13.00939638070579
 21
4.975000339449678
 31
0.0
  0
LINE
  5
A8A
330
9E0
100
AcDbEntity
  8
0
 62
     0
100
AcDbLine
 10
11.77110582087758
 20
5.764278093224419
 30
0.0
 11
10.3711058208776
 21
7.164278093224396
 31
0.0
  0
LINE
  5
A8B
330
9E0
100
AcDbEntity
  8
0
 62
     0
100
AcDbLine
 10
7.310383574652348
 20
10.22500033944962
 30
0.0
 11
6.197153816543959
 21
11.33823009755801
 31
0.0
  0
LINE
  5
A8C
330
9E0
100
AcDbEntity
  8
0
 62
     0
100
AcDbLine
 10
13.69610582087759
 20
3.839278093224379
 30
0.0
 11
12.56038357465235
 21
4.975000339449621
 31
0.0
  0
LINE
  5
A8D
330
9E0
100
AcDbEntity
  8
0
 62
     0
100
AcDbLine
 10
7.055237160845052
 20
10.03113394720353
 30
0.0
 11
5.968107410423584
 21
11.11826369762499
 31
0.0
  0
LINE
  5
A8E
330
9E0
100
AcDbEntity
  8
0
 62
     0
100
AcDbLine
 10
13.50223942863141
 20
3.584131679417168
 30
0.0
 11
10.3711058208776
 21
6.715265287170979
 31
0.0
  0
LINE
  5
A8F
330
9E0
100
AcDbEntity
  8
0
 62
     0
100
AcDbLine
 10
7.046105820877585
 20
9.591252481117521
 30
0.0
 11
5.791366809189042
 21
10.84599149280606
 31
0.0
  0
LINE
  5
A90
330
9E0
100
AcDbEntity
  8
0
 62
     0
100
AcDbLine
 10
13.06235796254546
 20
3.575000339449644
 30
0.0
 11
10.3711058208776
 21
6.266252481117504
 31
0.0
  0
LINE
  5
A91
330
9E0
100
AcDbEntity
  8
0
 62
     0
100
AcDbLine
 10
7.077173674945299
 20
9.111171820996304
 30
0.0
 11
5.67592675804218
 21
10.51241873789945
 31
0.0
  0
LINE
  5
A92
330
9E0
100
AcDbEntity
  8
0
 62
     0
100
AcDbLine
 10
12.61334515649196
 20
3.575000339449672
 30
0.0
 11
10.37110582087757
 21
5.81723967506403
 31
0.0
  0
LINE
  5
A93
330
9E0
100
AcDbEntity
  8
0
 62
     0
100
AcDbLine
 10
9.223293866488916
 20
6.51603882339927
 30
0.0
 11
5.646105820877608
 21
10.09322686901058
 31
0.0
  0
LINE
  5
A94
330
9E0
100
AcDbEntity
  8
0
 62
     0
100
AcDbLine
 10
12.13769630691018
 20
3.601636382978
 30
0.0
 11
10.3977418644059
 21
5.341590825482285
 31
0.0
  0
LINE
  5
A95
330
9E0
100
AcDbEntity
  8
0
 62
     0
100
AcDbLine
 10
9.319241123531526
 20
5.971078760303214
 30
0.0
 11
5.646105820877551
 21
9.644214062957189
 31
0.0
  0
LINE
  5
A96
330
9E0
100
AcDbEntity
  8
0
 62
     0
100
AcDbLine
 10
11.45079235060939
 20
3.839527533225322
 30
0.0
 11
10.63563301465319
 21
4.654686869181546
 31
0.0
  0
LINE
  5
A97
330
9E0
100
AcDbEntity
  8
0
 62
     0
100
AcDbLine
 10
9.321105820877619
 20
5.520201256903646
 30
0.0
 11
5.649888044588749
 21
9.191419033192488
 31
0.0
  0
LINE
  5
A98
330
9E0
100
AcDbEntity
  8
0
 62
     0
100
AcDbLine
 10
9.321105820877562
 20
5.071188450850229
 30
0.0
 11
5.761533423750677
 21
8.630760847977086
 31
0.0
  0
LINE
  5
A99
330
9E0
100
AcDbEntity
  8
0
 62
     0
100
AcDbLine
 10
9.284845822811604
 20
4.65843564286277
 30
0.0
 11
7.903150001002074
 21
6.040131464672299
 31
0.0
  0
LINE
  5
A9A
330
9E0
100
AcDbEntity
  8
0
 62
     0
100
AcDbLine
 10
9.163876853297182
 20
4.330391806323717
 30
0.0
 11
7.921105820877556
 21
5.573162838743343
 31
0.0
  0
LINE
  5
A9B
330
9E0
100
AcDbEntity
  8
0
 62
     0
100
AcDbLine
 10
8.982817229606297
 20
4.062438623961128
 30
0.0
 11
7.903156304727218
 21
5.142099548840207
 31
0.0
  0
LINE
  5
A9C
330
9E0
100
AcDbEntity
  8
0
 62
     0
100
AcDbLine
 10
8.74970404347286
 20
3.846539004041119
 30
0.0
 11
7.621242708064301
 21
4.975000339449707
 31
0.0
  0
LINE
  5
A9D
330
9E0
100
AcDbEntity
  8
0
 62
     0
100
AcDbLine
 10
8.463071819606454
 20
3.684158421854078
 30
0.0
 11
7.172229902010826
 21
4.975000339449678
 31
0.0
  0
LINE
  5
A9E
330
9E0
100
AcDbEntity
  8
0
 62
     0
100
AcDbLine
 10
8.110365525063485
 20
3.587851910343573
 30
0.0
 11
6.72321709595738
 21
4.975000339449678
 31
0.0
  0
LINE
  5
A9F
330
9E0
100
AcDbEntity
  8
0
 62
     0
100
AcDbLine
 10
7.674204289903912
 20
3.575000339449672
 30
0.0
 11
6.274204289903906
 21
4.975000339449678
 31
0.0
  0
LINE
  5
AA0
330
9E0
100
AcDbEntity
  8
0
 62
     0
100
AcDbLine
 10
7.225191483850494
 20
3.575000339449644
 30
0.0
 11
5.948529536441554
 21
4.851662286858612
 31
0.0
  0
LINE
  5
AA1
330
9E0
100
AcDbEntity
  8
0
 62
     0
100
AcDbLine
 10
6.776178677796991
 20
3.575000339449672
 30
0.0
 11
5.908605820877596
 21
4.442573196369068
 31
0.0
  0
LINE
  5
AA2
330
9E0
100
AcDbEntity
  8
0
 62
     0
100
AcDbLine
 10
6.327165871743574
 20
3.575000339449644
 30
0.0
 11
5.908605820877596
 21
3.993560390315622
 31
0.0
  0
LINE
  5
AA3
330
9E0
100
AcDbEntity
  8
0
 62
     0
100
AcDbLine
 10
34.31694946321105
 20
3.581566228008426
 30
0.0
 11
34.51453993231894
 21
3.77915669711632
 31
0.0
  0
LINE
  5
AA4
330
9E0
100
AcDbEntity
  8
0
 62
     0
100
AcDbLine
 10
33.86137076859887
 20
3.575000339449644
 30
0.0
 11
34.52110582087767
 21
4.234735391728463
 31
0.0
  0
LINE
  5
AA5
330
9E0
100
AcDbEntity
  8
0
 62
     0
100
AcDbLine
 10
33.4123579625454
 20
3.575000339449672
 30
0.0
 11
34.52110582087767
 21
4.683748197781909
 31
0.0
  0
LINE
  5
AA6
330
9E0
100
AcDbEntity
  8
0
 62
     0
100
AcDbLine
 10
33.1367046025035
 20
3.748359785461218
 30
0.0
 11
34.52110582087764
 21
5.132761003835383
 31
0.0
  0
LINE
  5
AA7
330
9E0
100
AcDbEntity
  8
0
 62
     0
100
AcDbLine
 10
33.1211058208776
 20
4.181773809888795
 30
0.0
 11
34.52110582087764
 21
5.581773809888801
 31
0.0
  0
LINE
  5
AA8
330
9E0
100
AcDbEntity
  8
0
 62
     0
100
AcDbLine
 10
33.12110582087763
 20
4.630786615942241
 30
0.0
 11
34.52110582087764
 21
6.030786615942275
 31
0.0
  0
LINE
  5
AA9
330
9E0
100
AcDbEntity
  8
0
 62
     0
100
AcDbLine
 10
33.1211058208776
 20
5.079799421995716
 30
0.0
 11
34.52110582087764
 21
6.47979942199575
 31
0.0
  0
LINE
  5
AAA
330
9E0
100
AcDbEntity
  8
0
 62
     0
100
AcDbLine
 10
33.1211058208776
 20
5.528812228049162
 30
0.0
 11
34.52110582087764
 21
6.928812228049196
 31
0.0
  0
LINE
  5
AAB
330
9E0
100
AcDbEntity
  8
0
 62
     0
100
AcDbLine
 10
31.33438825191024
 20
3.7420946590818
 30
0.0
 11
31.90401150124552
 21
4.311717908417108
 31
0.0
  0
LINE
  5
AAC
330
9E0
100
AcDbEntity
  8
0
 62
     0
100
AcDbLine
 10
33.1211058208776
 20
5.977825034102608
 30
0.0
 11
34.52110582087764
 21
7.377825034102642
 31
0.0
  0
LINE
  5
AAD
330
9E0
100
AcDbEntity
  8
0
 62
     0
100
AcDbLine
 10
30.71910416864884
 20
3.575823381873846
 30
0.0
 11
32.0702827784535
 21
4.92700199167848
 31
0.0
  0
LINE
  5
AAE
330
9E0
100
AcDbEntity
  8
0
 62
     0
100
AcDbLine
 10
33.1211058208776
 20
6.426837840156082
 30
0.0
 11
34.52110582087764
 21
7.826837840156088
 31
0.0
  0
LINE
  5
AAF
330
9E0
100
AcDbEntity
  8
0
 62
     0
100
AcDbLine
 10
30.26926832017122
 20
3.575000339449701
 30
0.0
 11
32.07110582087765
 21
5.376837840156099
 31
0.0
  0
LINE
  5
AB0
330
9E0
100
AcDbEntity
  8
0
 62
     0
100
AcDbLine
 10
33.1211058208776
 20
6.875850646209528
 30
0.0
 11
34.52110582087761
 21
8.275850646209562
 31
0.0
  0
LINE
  5
AB1
330
9E0
100
AcDbEntity
  8
0
 62
     0
100
AcDbLine
 10
29.82025551411775
 20
3.575000339449701
 30
0.0
 11
32.07110582087762
 21
5.825850646209573
 31
0.0
  0
LINE
  5
AB2
330
9E0
100
AcDbEntity
  8
0
 62
     0
100
AcDbLine
 10
33.1211058208776
 20
7.324863452262974
 30
0.0
 11
34.52110582087764
 21
8.724863452263008
 31
0.0
  0
LINE
  5
AB3
330
9E0
100
AcDbEntity
  8
0
 62
     0
100
AcDbLine
 10
29.37124270806427
 20
3.575000339449644
 30
0.0
 11
32.07110582087765
 21
6.274863452263019
 31
0.0
  0
LINE
  5
AB4
330
9E0
100
AcDbEntity
  8
0
 62
     0
100
AcDbLine
 10
30.61881021983709
 20
5.271580657275933
 30
0.0
 11
32.07110582087765
 21
6.723876258316465
 31
0.0
  0
LINE
  5
AB5
330
9E0
100
AcDbEntity
  8
0
 62
     0
100
AcDbLine
 10
33.1211058208776
 20
7.77387625831642
 30
0.0
 11
34.52110582087764
 21
9.173876258316454
 31
0.0
  0
LINE
  5
AB6
330
9E0
100
AcDbEntity
  8
0
 62
     0
100
AcDbLine
 10
28.92222990201086
 20
3.575000339449701
 30
0.0
 11
30.37452550305133
 21
5.027295940490148
 31
0.0
  0
LINE
  5
AB7
330
9E0
100
AcDbEntity
  8
0
 62
     0
100
AcDbLine
 10
30.67110582087756
 20
5.772889064369877
 30
0.0
 11
32.07110582087762
 21
7.17288906436994
 31
0.0
  0
LINE
  5
AB8
330
9E0
100
AcDbEntity
  8
0
 62
     0
100
AcDbLine
 10
33.12110582087758
 20
8.222889064369894
 30
0.0
 11
34.52110582087761
 21
9.622889064369928
 31
0.0
  0
LINE
  5
AB9
330
9E0
100
AcDbEntity
  8
0
 62
     0
100
AcDbLine
 10
28.52919197164593
 20
3.630975215138221
 30
0.0
 11
29.87321709595739
 21
4.975000339449707
 31
0.0
  0
LINE
  5
ABA
330
9E0
100
AcDbEntity
  8
0
 62
     0
100
AcDbLine
 10
30.67110582087756
 20
6.221901870423323
 30
0.0
 11
32.07110582087762
 21
7.621901870423386
 31
0.0
  0
LINE
  5
ABB
330
9E0
100
AcDbEntity
  8
0
 62
     0
100
AcDbLine
 10
33.12110582087758
 20
8.671901870423369
 30
0.0
 11
34.52110582087761
 21
10.07190187042337
 31
0.0
  0
LINE
  5
ABC
330
9E0
100
AcDbEntity
  8
0
 62
     0
100
AcDbLine
 10
28.21519853804085
 20
3.765994587586646
 30
0.0
 11
29.42464318272607
 21
4.975439232271867
 31
0.0
  0
LINE
  5
ABD
330
9E0
100
AcDbEntity
  8
0
 62
     0
100
AcDbLine
 10
30.67110582087756
 20
6.670914676476769
 30
0.0
 11
32.07110582087762
 21
8.070914676476832
 31
0.0
  0
LINE
  5
ABE
330
9E0
100
AcDbEntity
  8
0
 62
     0
100
AcDbLine
 10
33.1211058208776
 20
9.120914676476786
 30
0.0
 11
34.52110582087761
 21
10.52091467647682
 31
0.0
  0
LINE
  5
ABF
330
9E0
100
AcDbEntity
  8
0
 62
     0
100
AcDbLine
 10
27.95856859735832
 20
3.958377452957506
 30
0.0
 11
29.10290388836973
 21
5.102712743968936
 31
0.0
  0
LINE
  5
AC0
330
9E0
100
AcDbEntity
  8
0
 62
     0
100
AcDbLine
 10
30.67110582087756
 20
7.119927482530215
 30
0.0
 11
32.07110582087762
 21
8.519927482530306
 31
0.0
  0
LINE
  5
AC1
330
9E0
100
AcDbEntity
  8
0
 62
     0
100
AcDbLine
 10
33.12110582087758
 20
9.56992748253026
 30
0.0
 11
34.52110582087761
 21
10.96992748253029
 31
0.0
  0
LINE
  5
AC2
330
9E0
100
AcDbEntity
  8
0
 62
     0
100
AcDbLine
 10
27.75358650974576
 20
4.202408171398417
 30
0.0
 11
28.93428474916502
 21
5.383106410817703
 31
0.0
  0
LINE
  5
AC3
330
9E0
100
AcDbEntity
  8
0
 62
     0
100
AcDbLine
 10
30.67110582087753
 20
7.568940288583689
 30
0.0
 11
32.07110582087762
 21
8.968940288583752
 31
0.0
  0
LINE
  5
AC4
330
9E0
100
AcDbEntity
  8
0
 62
     0
100
AcDbLine
 10
33.12110582087758
 20
10.0189402885837
 30
0.0
 11
34.51603124410238
 21
11.41386571180854
 31
0.0
  0
LINE
  5
AC5
330
9E0
100
AcDbEntity
  8
0
 62
     0
100
AcDbLine
 10
27.60362407052876
 20
4.501458538234913
 30
0.0
 11
28.92110582087756
 21
5.818940288583718
 31
0.0
  0
LINE
  5
AC6
330
9E0
100
AcDbEntity
  8
0
 62
     0
100
AcDbLine
 10
30.67110582087759
 20
8.017953094637164
 30
0.0
 11
32.07110582087762
 21
9.417953094637198
 31
0.0
  0
LINE
  5
AC7
330
9E0
100
AcDbEntity
  8
0
 62
     0
100
AcDbLine
 10
33.12110582087758
 20
10.46795309463715
 30
0.0
 11
34.27747407156264
 21
11.62432134532221
 31
0.0
  0
LINE
  5
AC8
330
9E0
100
AcDbEntity
  8
0
 62
     0
100
AcDbLine
 10
27.52491730305053
 20
4.871764576810107
 30
0.0
 11
28.92110582087759
 21
6.267953094637164
 31
0.0
  0
LINE
  5
AC9
330
9E0
100
AcDbEntity
  8
0
 62
     0
100
AcDbLine
 10
30.67110582087759
 20
8.466965900690638
 30
0.0
 11
32.07110582087762
 21
9.866965900690644
 31
0.0
  0
LINE
  5
ACA
330
9E0
100
AcDbEntity
  8
0
 62
     0
100
AcDbLine
 10
33.1211058208776
 20
10.91696590069065
 30
0.0
 11
33.8291402596366
 21
11.62500033944965
 31
0.0
  0
LINE
  5
ACB
330
9E0
100
AcDbEntity
  8
0
 62
     0
100
AcDbLine
 10
27.52110582087758
 20
5.316965900690632
 30
0.0
 11
28.92110582087762
 21
6.716965900690667
 31
0.0
  0
LINE
  5
ACC
330
9E0
100
AcDbEntity
  8
0
 62
     0
100
AcDbLine
 10
30.67110582087759
 20
8.915978706744084
 30
0.0
 11
32.07110582087759
 21
10.31597870674412
 31
0.0
  0
LINE
  5
ACD
330
9E0
100
AcDbEntity
  8
0
 62
     0
100
AcDbLine
 10
27.52110582087758
 20
5.765978706744078
 30
0.0
 11
28.92110582087759
 21
7.165978706744112
 31
0.0
  0
LINE
  5
ACE
330
9E0
100
AcDbEntity
  8
0
 62
     0
100
AcDbLine
 10
33.12112917825132
 20
11.36600206411785
 30
0.0
 11
33.38010409620947
 21
11.62497698207596
 31
0.0
  0
LINE
  5
ACF
330
9E0
100
AcDbEntity
  8
0
 62
     0
100
AcDbLine
 10
25.36032800552161
 20
3.605200891388108
 30
0.0
 11
26.44090526893919
 21
4.685778154805717
 31
0.0
  0
LINE
  5
AD0
330
9E0
100
AcDbEntity
  8
0
 62
     0
100
AcDbLine
 10
27.52110582087755
 20
6.214991512797553
 30
0.0
 11
28.92110582087759
 21
7.614991512797587
 31
0.0
  0
LINE
  5
AD1
330
9E0
100
AcDbEntity
  8
0
 62
     0
100
AcDbLine
 10
30.67110582087756
 20
9.364991512797558
 30
0.0
 11
32.07110582087759
 21
10.76499151279759
 31
0.0
  0
LINE
  5
AD2
330
9E0
100
AcDbEntity
  8
0
 62
     0
100
AcDbLine
 10
24.8811146475297
 20
3.575000339449701
 30
0.0
 11
26.47110582087757
 21
5.164991512797541
 31
0.0
  0
LINE
  5
AD3
330
9E0
100
AcDbEntity
  8
0
 62
     0
100
AcDbLine
 10
27.52110582087758
 20
6.664004318850999
 30
0.0
 11
28.92110582087762
 21
8.064004318851004
 31
0.0
  0
LINE
  5
AD4
330
9E0
100
AcDbEntity
  8
0
 62
     0
100
AcDbLine
 10
30.67110582087759
 20
9.814004318850976
 30
0.0
 11
32.07110582087762
 21
11.21400431885101
 31
0.0
  0
LINE
  5
AD5
330
9E0
100
AcDbEntity
  8
0
 62
     0
100
AcDbLine
 10
24.43210184147623
 20
3.575000339449644
 30
0.0
 11
26.47110582087762
 21
5.614004318851016
 31
0.0
  0
LINE
  5
AD6
330
9E0
100
AcDbEntity
  8
0
 62
     0
100
AcDbLine
 10
27.52110582087758
 20
7.113017124904445
 30
0.0
 11
28.92110582087759
 21
8.513017124904479
 31
0.0
  0
LINE
  5
AD7
330
9E0
100
AcDbEntity
  8
0
 62
     0
100
AcDbLine
 10
30.67110582087756
 20
10.26301712490445
 30
0.0
 11
31.97423709346058
 21
11.56614839748747
 31
0.0
  0
LINE
  5
AD8
330
9E0
100
AcDbEntity
  8
0
 62
     0
100
AcDbLine
 10
23.98308903542278
 20
3.575000339449672
 30
0.0
 11
26.46394652067113
 21
6.055857824698023
 31
0.0
  0
LINE
  5
AD9
330
9E0
100
AcDbEntity
  8
0
 62
     0
100
AcDbLine
 10
27.52110582087755
 20
7.562029930957919
 30
0.0
 11
28.92110582087759
 21
8.962029930957953
 31
0.0
  0
LINE
  5
ADA
330
9E0
100
AcDbEntity
  8
0
 62
     0
100
AcDbLine
 10
30.67110582087756
 20
10.71202993095792
 30
0.0
 11
31.58407622936932
 21
11.62500033944968
 31
0.0
  0
LINE
  5
ADB
330
9E0
100
AcDbEntity
  8
0
 62
     0
100
AcDbLine
 10
23.53407622936931
 20
3.575000339449672
 30
0.0
 11
26.39649033535676
 21
6.437414445437099
 31
0.0
  0
LINE
  5
ADC
330
9E0
100
AcDbEntity
  8
0
 62
     0
100
AcDbLine
 10
27.52110582087758
 20
8.011042737011337
 30
0.0
 11
28.92110582087759
 21
9.411042737011371
 31
0.0
  0
LINE
  5
ADD
330
9E0
100
AcDbEntity
  8
0
 62
     0
100
AcDbLine
 10
25.07110582087762
 20
5.561042737011405
 30
0.0
 11
26.27619660689749
 21
6.766133523031243
 31
0.0
  0
LINE
  5
ADE
330
9E0
100
AcDbEntity
  8
0
 62
     0
100
AcDbLine
 10
30.67110582087759
 20
11.16104273701134
 30
0.0
 11
31.13506342331593
 21
11.62500033944971
 31
0.0
  0
LINE
  5
ADF
330
9E0
100
AcDbEntity
  8
0
 62
     0
100
AcDbLine
 10
23.14919109988142
 20
3.639128016015206
 30
0.0
 11
24.48506342331587
 21
4.97500033944965
 31
0.0
  0
LINE
  5
AE0
330
9E0
100
AcDbEntity
  8
0
 62
     0
100
AcDbLine
 10
25.06117053331397
 20
6.000120255501201
 30
0.0
 11
26.11444695446721
 21
7.053396676654443
 31
0.0
  0
LINE
  5
AE1
330
9E0
100
AcDbEntity
  8
0
 62
     0
100
AcDbLine
 10
27.52110582087761
 20
8.460055543064839
 30
0.0
 11
28.92110582087762
 21
9.860055543064873
 31
0.0
  0
LINE
  5
AE2
330
9E0
100
AcDbEntity
  8
0
 62
     0
100
AcDbLine
 10
23.05860582087758
 20
3.997555543064834
 30
0.0
 11
24.03605061726239
 21
4.97500033944965
 31
0.0
  0
LINE
  5
AE3
330
9E0
100
AcDbEntity
  8
0
 62
     0
100
AcDbLine
 10
24.92397811474453
 20
6.311940642985263
 30
0.0
 11
25.91651139550331
 21
7.304473923744041
 31
0.0
  0
LINE
  5
AE4
330
9E0
100
AcDbEntity
  8
0
 62
     0
100
AcDbLine
 10
27.52110582087758
 20
8.909068349118314
 30
0.0
 11
28.92110582087762
 21
10.30906834911835
 31
0.0
  0
LINE
  5
AE5
330
9E0
100
AcDbEntity
  8
0
 62
     0
100
AcDbLine
 10
23.05860582087758
 20
4.44656834911828
 30
0.0
 11
23.58703781120894
 21
4.975000339449678
 31
0.0
  0
LINE
  5
AE6
330
9E0
100
AcDbEntity
  8
0
 62
     0
100
AcDbLine
 10
27.52110582087761
 20
9.35808115517176
 30
0.0
 11
28.92110582087764
 21
10.75808115517176
 31
0.0
  0
LINE
  5
AE7
330
9E0
100
AcDbEntity
  8
0
 62
     0
100
AcDbLine
 10
24.703340666186
 20
6.540316000480117
 30
0.0
 11
25.69329015984718
 21
7.530265494141332
 31
0.0
  0
LINE
  5
AE8
330
9E0
100
AcDbEntity
  8
0
 62
     0
100
AcDbLine
 10
24.47883426315926
 20
6.764822403506855
 30
0.0
 11
25.46878375682041
 21
7.754771897168012
 31
0.0
  0
LINE
  5
AE9
330
9E0
100
AcDbEntity
  8
0
 62
     0
100
AcDbLine
 10
27.52110582087758
 20
9.807093961225206
 30
0.0
 11
28.92110582087762
 21
11.20709396122524
 31
0.0
  0
LINE
  5
AEA
330
9E0
100
AcDbEntity
  8
0
 62
     0
100
AcDbLine
 10
21.28901219910205
 20
3.575000339449672
 30
0.0
 11
21.7461058208776
 21
4.0320939612252
 31
0.0
  0
LINE
  5
AEB
330
9E0
100
AcDbEntity
  8
0
 62
     0
100
AcDbLine
 10
24.25432786013255
 20
6.989328806533649
 30
0.0
 11
25.24427735379368
 21
7.979278300194749
 31
0.0
  0
LINE
  5
AEC
330
9E0
100
AcDbEntity
  8
0
 62
     0
100
AcDbLine
 10
27.52110582087758
 20
10.25610676727868
 30
0.0
 11
28.82801536682828
 21
11.56301631322935
 31
0.0
  0
LINE
  5
AED
330
9E0
100
AcDbEntity
  8
0
 62
     0
100
AcDbLine
 10
20.8399993930486
 20
3.575000339449672
 30
0.0
 11
21.74610582087757
 21
4.481106767278674
 31
0.0
  0
LINE
  5
AEE
330
9E0
100
AcDbEntity
  8
0
 62
     0
100
AcDbLine
 10
24.02982145710578
 20
7.213835209560329
 30
0.0
 11
25.01977095076694
 21
8.203784703221487
 31
0.0
  0
LINE
  5
AEF
330
9E0
100
AcDbEntity
  8
0
 62
     0
100
AcDbLine
 10
27.52110582087758
 20
10.70511957333212
 30
0.0
 11
28.44098658699514
 21
11.62500033944971
 31
0.0
  0
LINE
  5
AF0
330
9E0
100
AcDbEntity
  8
0
 62
     0
100
AcDbLine
 10
20.44679215592609
 20
3.630805908380636
 30
0.0
 11
21.7461058208776
 21
4.930119573332177
 31
0.0
  0
LINE
  5
AF1
330
9E0
100
AcDbEntity
  8
0
 62
     0
100
AcDbLine
 10
23.80531505407907
 20
7.438341612587038
 30
0.0
 11
24.79526454774023
 21
8.428291106248195
 31
0.0
  0
LINE
  5
AF2
330
9E0
100
AcDbEntity
  8
0
 62
     0
100
AcDbLine
 10
27.52110582087758
 20
11.15413237938557
 30
0.0
 11
27.99197378094172
 21
11.62500033944968
 31
0.0
  0
LINE
  5
AF3
330
9E0
100
AcDbEntity
  8
0
 62
     0
100
AcDbLine
 10
20.34610582087757
 20
3.979132379385532
 30
0.0
 11
21.74610582087763
 21
5.379132379385595
 31
0.0
  0
LINE
  5
AF4
330
9E0
100
AcDbEntity
  8
0
 62
     0
100
AcDbLine
 10
23.58080865105234
 20
7.662848015613775
 30
0.0
 11
24.5707581447135
 21
8.652797509274932
 31
0.0
  0
LINE
  5
AF5
330
9E0
100
AcDbEntity
  8
0
 62
     0
100
AcDbLine
 10
20.3461058208776
 20
4.428145185439035
 30
0.0
 11
21.7461058208776
 21
5.828145185439069
 31
0.0
  0
LINE
  5
AF6
330
9E0
100
AcDbEntity
  8
0
 62
     0
100
AcDbLine
 10
23.35731670053167
 20
7.88836887114661
 30
0.0
 11
24.34930346722268
 21
8.880355637837595
 31
0.0
  0
LINE
  5
AF7
330
9E0
100
AcDbEntity
  8
0
 62
     0
100
AcDbLine
 10
20.34610582087757
 20
4.877157991492509
 30
0.0
 11
21.7461058208776
 21
6.277157991492543
 31
0.0
  0
LINE
  5
AF8
330
9E0
100
AcDbEntity
  8
0
 62
     0
100
AcDbLine
 10
25.69394816883477
 20
10.22500033944968
 30
0.0
 11
26.20860582087758
 21
10.73965799149252
 31
0.0
  0
LINE
  5
AF9
330
9E0
100
AcDbEntity
  8
0
 62
     0
100
AcDbLine
 10
19.09977770852251
 20
3.630829879137422
 30
0.0
 11
19.14460388925002
 21
3.675656059864962
 31
0.0
  0
LINE
  5
AFA
330
9E0
100
AcDbEntity
  8
0
 62
     0
100
AcDbLine
 10
23.15831561112069
 20
8.138380587789043
 30
0.0
 11
24.20813274982999
 21
9.188197726498344
 31
0.0
  0
LINE
  5
AFB
330
9E0
100
AcDbEntity
  8
0
 62
     0
100
AcDbLine
 10
20.3461058208776
 20
5.326170797545927
 30
0.0
 11
21.74610582087763
 21
6.726170797545961
 31
0.0
  0
LINE
  5
AFC
330
9E0
100
AcDbEntity
  8
0
 62
     0
100
AcDbLine
 10
25.24493536278132
 20
10.22500033944968
 30
0.0
 11
26.20860582087761
 21
11.18867079754594
 31
0.0
  0
LINE
  5
AFD
330
9E0
100
AcDbEntity
  8
0
 62
     0
100
AcDbLine
 10
18.59493536278128
 20
3.575000339449644
 30
0.0
 11
19.12782491093452
 21
4.107889887602851
 31
0.0
  0
LINE
  5
AFE
330
9E0
100
AcDbEntity
  8
0
 62
     0
100
AcDbLine
 10
22.99539847892234
 20
8.424476261644173
 30
0.0
 11
24.19610582087765
 21
9.625183603599452
 31
0.0
  0
LINE
  5
AFF
330
9E0
100
AcDbEntity
  8
0
 62
     0
100
AcDbLine
 10
20.34610582087757
 20
5.775183603599401
 30
0.0
 11
21.7461058208776
 21
7.175183603599435
 31
0.0
  0
LINE
  5
B00
330
9E0
100
AcDbEntity
  8
0
 62
     0
100
AcDbLine
 10
24.79592255672788
 20
10.22500033944968
 30
0.0
 11
26.12527135497868
 21
11.55434913770051
 31
0.0
  0
LINE
  5
B01
330
9E0
100
AcDbEntity
  8
0
 62
     0
100
AcDbLine
 10
18.14592255672784
 20
3.575000339449644
 30
0.0
 11
19.0200618374817
 21
4.449139620203538
 31
0.0
  0
LINE
  5
B02
330
9E0
100
AcDbEntity
  8
0
 62
     0
100
AcDbLine
 10
20.34610582087757
 20
6.224196409652876
 30
0.0
 11
21.7461058208776
 21
7.624196409652881
 31
0.0
  0
LINE
  5
B03
330
9E0
100
AcDbEntity
  8
0
 62
     0
100
AcDbLine
 10
22.87370744758729
 20
8.7517980363626
 30
0.0
 11
25.74690975067444
 21
11.62500033944971
 31
0.0
  0
LINE
  5
B04
330
9E0
100
AcDbEntity
  8
0
 62
     0
100
AcDbLine
 10
17.84991540140029
 20
3.728005990175603
 30
0.0
 11
18.91229876402886
 21
4.790389352804169
 31
0.0
  0
LINE
  5
B05
330
9E0
100
AcDbEntity
  8
0
 62
     0
100
AcDbLine
 10
20.34610582087757
 20
6.673209215706322
 30
0.0
 11
21.74610582087757
 21
8.073209215706356
 31
0.0
  0
LINE
  5
B06
330
9E0
100
AcDbEntity
  8
0
 62
     0
100
AcDbLine
 10
22.80435401804445
 20
9.131457412873231
 30
0.0
 11
25.29789694462096
 21
11.62500033944974
 31
0.0
  0
LINE
  5
B07
330
9E0
100
AcDbEntity
  8
0
 62
     0
100
AcDbLine
 10
17.74053569057599
 20
4.067639085404778
 30
0.0
 11
18.80453569057599
 21
5.131639085404771
 31
0.0
  0
LINE
  5
B08
330
9E0
100
AcDbEntity
  8
0
 62
     0
100
AcDbLine
 10
20.34610582087757
 20
7.122222021759768
 30
0.0
 11
21.7461058208776
 21
8.522222021759802
 31
0.0
  0
LINE
  5
B09
330
9E0
100
AcDbEntity
  8
0
 62
     0
100
AcDbLine
 10
22.79610582087761
 20
9.572222021759785
 30
0.0
 11
24.84888413856749
 21
11.62500033944968
 31
0.0
  0
LINE
  5
B0A
330
9E0
100
AcDbEntity
  8
0
 62
     0
100
AcDbLine
 10
17.63277261712318
 20
4.40888881800538
 30
0.0
 11
18.69677261712323
 21
5.472888818005401
 31
0.0
  0
LINE
  5
B0B
330
9E0
100
AcDbEntity
  8
0
 62
     0
100
AcDbLine
 10
20.3461058208776
 20
7.57123482781327
 30
0.0
 11
21.7461058208776
 21
8.971234827813248
 31
0.0
  0
LINE
  5
B0C
330
9E0
100
AcDbEntity
  8
0
 62
     0
100
AcDbLine
 10
22.79610582087759
 20
10.02123482781326
 30
0.0
 11
24.39987133251404
 21
11.62500033944968
 31
0.0
  0
LINE
  5
B0D
330
9E0
100
AcDbEntity
  8
0
 62
     0
100
AcDbLine
 10
17.52500954367031
 20
4.750138550605981
 30
0.0
 11
18.58900954367038
 21
5.814138550606031
 31
0.0
  0
LINE
  5
B0E
330
9E0
100
AcDbEntity
  8
0
 62
     0
100
AcDbLine
 10
20.3461058208776
 20
8.020247633866716
 30
0.0
 11
21.74610582087757
 21
9.420247633866722
 31
0.0
  0
LINE
  5
B0F
330
9E0
100
AcDbEntity
  8
0
 62
     0
100
AcDbLine
 10
17.41724647021749
 20
5.09138828320664
 30
0.0
 11
18.48124647021754
 21
6.155388283206661
 31
0.0
  0
LINE
  5
B10
330
9E0
100
AcDbEntity
  8
0
 62
     0
100
AcDbLine
 10
22.82276415593821
 20
10.49690596892736
 30
0.0
 11
23.92420019139988
 21
11.59834200438902
 31
0.0
  0
LINE
  5
B11
330
9E0
100
AcDbEntity
  8
0
 62
     0
100
AcDbLine
 10
15.90085852646055
 20
3.575000339449672
 30
0.0
 11
16.32110582087759
 21
3.995247633866739
 31
0.0
  0
LINE
  5
B12
330
9E0
100
AcDbEntity
  8
0
 62
     0
100
AcDbLine
 10
17.3094833967647
 20
5.432638015807242
 30
0.0
 11
18.37348339676467
 21
6.496638015807235
 31
0.0
  0
LINE
  5
B13
330
9E0
100
AcDbEntity
  8
0
 62
     0
100
AcDbLine
 10
20.3461058208776
 20
8.469260439920162
 30
0.0
 11
21.7461058208776
 21
9.86926043992014
 31
0.0
  0
LINE
  5
B14
330
9E0
100
AcDbEntity
  8
0
 62
     0
100
AcDbLine
 10
15.4518457204071
 20
3.575000339449672
 30
0.0
 11
16.32110582087762
 21
4.444260439920185
 31
0.0
  0
LINE
  5
B15
330
9E0
100
AcDbEntity
  8
0
 62
     0
100
AcDbLine
 10
17.20172032331186
 20
5.773887748407872
 30
0.0
 11
18.26572032331188
 21
6.837887748407922
 31
0.0
  0
LINE
  5
B16
330
9E0
100
AcDbEntity
  8
0
 62
     0
100
AcDbLine
 10
20.3461058208776
 20
8.918273245973637
 30
0.0
 11
21.74610582087757
 21
10.31827324597361
 31
0.0
  0
LINE
  5
B17
330
9E0
100
AcDbEntity
  8
0
 62
     0
100
AcDbLine
 10
15.04340778817925
 20
3.615575213275292
 30
0.0
 11
16.32110582087762
 21
4.893273245973631
 31
0.0
  0
LINE
  5
B18
330
9E0
100
AcDbEntity
  8
0
 62
     0
100
AcDbLine
 10
17.09395724985896
 20
6.115137481008474
 30
0.0
 11
18.15795724985903
 21
7.179137481008552
 31
0.0
  0
LINE
  5
B19
330
9E0
100
AcDbEntity
  8
0
 62
     0
100
AcDbLine
 10
20.3461058208776
 20
9.367286052027083
 30
0.0
 11
21.74610582087757
 21
10.76728605202709
 31
0.0
  0
LINE
  5
B1A
330
9E0
100
AcDbEntity
  8
0
 62
     0
100
AcDbLine
 10
14.92110582087756
 20
3.942286052027071
 30
0.0
 11
16.32110582087759
 21
5.342286052027105
 31
0.0
  0
LINE
  5
B1B
330
9E0
100
AcDbEntity
  8
0
 62
     0
100
AcDbLine
 10
16.9861941764062
 20
6.456387213609104
 30
0.0
 11
18.05019417640622
 21
7.520387213609154
 31
0.0
  0
LINE
  5
B1C
330
9E0
100
AcDbEntity
  8
0
 62
     0
100
AcDbLine
 10
20.3461058208776
 20
9.816298858080529
 30
0.0
 11
21.74610582087757
 21
11.2162988580805
 31
0.0
  0
LINE
  5
B1D
330
9E0
100
AcDbEntity
  8
0
 62
     0
100
AcDbLine
 10
14.92110582087758
 20
4.391298858080517
 30
0.0
 11
16.32110582087762
 21
5.791298858080523
 31
0.0
  0
LINE
  5
B1E
330
9E0
100
AcDbEntity
  8
0
 62
     0
100
AcDbLine
 10
16.86879478292033
 20
6.788000626176739
 30
0.0
 11
18.18394181688578
 21
8.103147660142184
 31
0.0
  0
LINE
  5
B1F
330
9E0
100
AcDbEntity
  8
0
 62
     0
100
AcDbLine
 10
20.3461058208776
 20
10.26531166413397
 30
0.0
 11
21.64796810962841
 21
11.56717395288478
 31
0.0
  0
LINE
  5
B20
330
9E0
100
AcDbEntity
  8
0
 62
     0
100
AcDbLine
 10
14.92110582087758
 20
4.840311664133963
 30
0.0
 11
16.32110582087759
 21
6.240311664133997
 31
0.0
  0
LINE
  5
B21
330
9E0
100
AcDbEntity
  8
0
 62
     0
100
AcDbLine
 10
16.52520209798663
 20
6.893420747296516
 30
0.0
 11
18.39117849660275
 21
8.759397145912629
 31
0.0
  0
LINE
  5
B22
330
9E0
100
AcDbEntity
  8
0
 62
     0
100
AcDbLine
 10
14.92110582087756
 20
5.289324470187438
 30
0.0
 11
16.32768541303076
 21
6.695904062340616
 31
0.0
  0
LINE
  5
B23
330
9E0
100
AcDbEntity
  8
0
 62
     0
100
AcDbLine
 10
20.34610582087757
 20
10.71432447018745
 30
0.0
 11
21.2567816901398
 21
11.62500033944968
 31
0.0
  0
LINE
  5
B24
330
9E0
100
AcDbEntity
  8
0
 62
     0
100
AcDbLine
 10
13.20678169013979
 20
3.575000339449644
 30
0.0
 11
13.69610582087762
 21
4.0643244701875
 31
0.0
  0
LINE
  5
B25
330
9E0
100
AcDbEntity
  8
0
 62
     0
100
AcDbLine
 10
14.92110582087756
 20
5.738337276240883
 30
0.0
 11
18.59841517631972
 21
9.415646631683046
 31
0.0
  0
LINE
  5
B26
330
9E0
100
AcDbEntity
  8
0
 62
     0
100
AcDbLine
 10
20.3461058208776
 20
11.16333727624095
 30
0.0
 11
20.80776888408633
 21
11.62500033944968
 31
0.0
  0
LINE
  5
B27
330
9E0
100
AcDbEntity
  8
0
 62
     0
100
AcDbLine
 10
12.75776888408632
 20
3.575000339449672
 30
0.0
 11
13.69610582087762
 21
4.513337276240974
 31
0.0
  0
LINE
  5
B28
330
9E0
100
AcDbEntity
  8
0
 62
     0
100
AcDbLine
 10
14.92110582087756
 20
6.187350082294329
 30
0.0
 11
18.80565185603675
 21
10.07189611745349
 31
0.0
  0
LINE
  5
B29
330
9E0
100
AcDbEntity
  8
0
 62
     0
100
AcDbLine
 10
12.31459639020792
 20
3.580840651624697
 30
0.0
 11
13.62543867907453
 21
4.891682940491278
 31
0.0
  0
LINE
  5
B2A
330
9E0
100
AcDbEntity
  8
0
 62
     0
100
AcDbLine
 10
14.92110582087756
 20
6.636362888347804
 30
0.0
 11
16.58474327197942
 21
8.300000339449667
 31
0.0
  0
LINE
  5
B2B
330
9E0
100
AcDbEntity
  8
0
 62
     0
100
AcDbLine
 10
16.96673468959977
 20
8.681991757070022
 30
0.0
 11
19.01288853575374
 21
10.72814560322396
 31
0.0
  0
LINE
  5
B2C
330
9E0
100
AcDbEntity
  8
0
 62
     0
100
AcDbLine
 10
11.93051613148444
 20
3.645773198954657
 30
0.0
 11
13.25974327197946
 21
4.975000339449678
 31
0.0
  0
LINE
  5
B2D
330
9E0
100
AcDbEntity
  8
0
 62
     0
100
AcDbLine
 10
14.92110582087758
 20
7.085375694401307
 30
0.0
 11
16.33010110623175
 21
8.494370979755444
 31
0.0
  0
LINE
  5
B2E
330
9E0
100
AcDbEntity
  8
0
 62
     0
100
AcDbLine
 10
17.17397136931674
 20
9.338241242840439
 30
0.0
 11
19.20042426165443
 21
11.36469413517815
 31
0.0
  0
LINE
  5
B2F
330
9E0
100
AcDbEntity
  8
0
 62
     0
100
AcDbLine
 10
11.59994900307123
 20
3.764218876594952
 30
0.0
 11
12.81073046592598
 21
4.975000339449707
 31
0.0
  0
LINE
  5
B30
330
9E0
100
AcDbEntity
  8
0
 62
     0
100
AcDbLine
 10
14.92110582087761
 20
7.534388500454724
 30
0.0
 11
16.32110582087762
 21
8.934388500454758
 31
0.0
  0
LINE
  5
B31
330
9E0
100
AcDbEntity
  8
0
 62
     0
100
AcDbLine
 10
17.38120804903372
 20
9.994490728610855
 30
0.0
 11
19.00341832536983
 21
11.61670100494697
 31
0.0
  0
LINE
  5
B32
330
9E0
100
AcDbEntity
  8
0
 62
     0
100
AcDbLine
 10
11.31114736098908
 20
3.924430040566193
 30
0.0
 11
12.36917829023551
 21
4.982460969812649
 31
0.0
  0
LINE
  5
B33
330
9E0
100
AcDbEntity
  8
0
 62
     0
100
AcDbLine
 10
14.92110582087758
 20
7.983401306508199
 30
0.0
 11
16.32110582087762
 21
9.383401306508233
 31
0.0
  0
LINE
  5
B34
330
9E0
100
AcDbEntity
  8
0
 62
     0
100
AcDbLine
 10
17.58844472875071
 20
10.65074021438133
 30
0.0
 11
18.56270485381907
 21
11.62500033944968
 31
0.0
  0
LINE
  5
B35
330
9E0
100
AcDbEntity
  8
0
 62
     0
100
AcDbLine
 10
11.05866987779805
 20
4.120965363428638
 30
0.0
 11
12.05202021972636
 21
5.114315705356943
 31
0.0
  0
LINE
  5
B36
330
9E0
100
AcDbEntity
  8
0
 62
     0
100
AcDbLine
 10
14.92110582087758
 20
8.432414112561644
 30
0.0
 11
16.32110582087762
 21
9.832414112561679
 31
0.0
  0
LINE
  5
B37
330
9E0
100
AcDbEntity
  8
0
 62
     0
100
AcDbLine
 10
13.25192288676584
 20
6.763231178449927
 30
0.0
 11
13.83287498187738
 21
7.344183273561469
 31
0.0
  0
LINE
  5
B38
330
9E0
100
AcDbEntity
  8
0
 62
     0
100
AcDbLine
 10
17.79568140846768
 20
11.30698970015177
 30
0.0
 11
18.11369204776562
 21
11.62500033944971
 31
0.0
  0
LINE
  5
B39
330
9E0
100
AcDbEntity
  8
0
 62
     0
100
AcDbLine
 10
10.84045134113313
 20
4.35175963281722
 30
0.0
 11
11.84689474409026
 21
5.358203035774351
 31
0.0
  0
LINE
  5
B3A
330
9E0
100
AcDbEntity
  8
0
 62
     0
100
AcDbLine
 10
12.78943646595093
 20
6.74975756368849
 30
0.0
 11
13.84634859663882
 21
7.806669694376353
 31
0.0
  0
LINE
  5
B3B
330
9E0
100
AcDbEntity
  8
0
 62
     0
100
AcDbLine
 10
14.92110582087756
 20
8.881426918615119
 30
0.0
 11
16.32110582087759
 21
10.28142691861515
 31
0.0
  0
LINE
  5
B3C
330
9E0
100
AcDbEntity
  8
0
 62
     0
100
AcDbLine
 10
10.65694172866165
 20
4.617262826399183
 30
0.0
 11
11.7711058208776
 21
5.73142691861517
 31
0.0
  0
LINE
  5
B3D
330
9E0
100
AcDbEntity
  8
0
 62
     0
100
AcDbLine
 10
12.48236318124083
 20
6.891697085031779
 30
0.0
 11
13.7044090752955
 21
8.113742979086481
 31
0.0
  0
LINE
  5
B3E
330
9E0
100
AcDbEntity
  8
0
 62
     0
100
AcDbLine
 10
14.92110582087758
 20
9.330439724668565
 30
0.0
 11
16.32110582087762
 21
10.73043972466857
 31
0.0
  0
LINE
  5
B3F
330
9E0
100
AcDbEntity
  8
0
 62
     0
100
AcDbLine
 10
10.51128297369928
 20
4.92061687749026
 30
0.0
 11
11.7711058208776
 21
6.180439724668588
 31
0.0
  0
LINE
  5
B40
330
9E0
100
AcDbEntity
  8
0
 62
     0
100
AcDbLine
 10
12.26338321774597
 20
7.121729927590422
 30
0.0
 11
13.47437623273689
 21
8.332722942581312
 31
0.0
  0
LINE
  5
B41
330
9E0
100
AcDbEntity
  8
0
 62
     0
100
AcDbLine
 10
14.92110582087758
 20
9.779452530722011
 30
0.0
 11
16.32110582087759
 21
11.17945253072204
 31
0.0
  0
LINE
  5
B42
330
9E0
100
AcDbEntity
  8
0
 62
     0
100
AcDbLine
 10
10.41071429161195
 20
5.269061001456407
 30
0.0
 11
11.7711058208776
 21
6.629452530722062
 31
0.0
  0
LINE
  5
B43
330
9E0
100
AcDbEntity
  8
0
 62
     0
100
AcDbLine
 10
12.13535785154178
 20
7.442717367439684
 30
0.0
 11
13.15338879288759
 21
8.460748308785525
 31
0.0
  0
LINE
  5
B44
330
9E0
100
AcDbEntity
  8
0
 62
     0
100
AcDbLine
 10
10.37110582087751
 20
5.678465336775445
 30
0.0
 11
11.7711058208776
 21
7.078465336775508
 31
0.0
  0
LINE
  5
B45
330
9E0
100
AcDbEntity
  8
0
 62
     0
100
AcDbLine
 10
14.92110582087756
 20
10.22846533677548
 30
0.0
 11
16.24248076670005
 21
11.54984028259798
 31
0.0
  0
LINE
  5
B46
330
9E0
100
AcDbEntity
  8
0
 62
     0
100
AcDbLine
 10
8.328107441939778
 20
3.635466957837707
 30
0.0
 11
9.260639202489642
 21
4.56799871838757
 31
0.0
  0
LINE
  5
B47
330
9E0
100
AcDbEntity
  8
0
 62
     0
100
AcDbLine
 10
12.19456439328218
 20
7.950936715233524
 30
0.0
 11
12.64516944509378
 21
8.401541767045131
 31
0.0
  0
LINE
  5
B48
330
9E0
100
AcDbEntity
  8
0
 62
     0
100
AcDbLine
 10
10.37110582087754
 20
6.127478142828891
 30
0.0
 11
11.7711058208776
 21
7.527478142828954
 31
0.0
  0
LINE
  5
B49
330
9E0
100
AcDbEntity
  8
0
 62
     0
100
AcDbLine
 10
14.92110582087758
 20
10.6774781428289
 30
0.0
 11
15.86862801749837
 21
11.62500033944971
 31
0.0
  0
LINE
  5
B4A
330
9E0
100
AcDbEntity
  8
0
 62
     0
100
AcDbLine
 10
7.818628017498298
 20
3.575000339449644
 30
0.0
 11
9.321105820877619
 21
5.077478142828965
 31
0.0
  0
LINE
  5
B4B
330
9E0
100
AcDbEntity
  8
0
 62
     0
100
AcDbLine
 10
10.37110582087754
 20
6.576490948882337
 30
0.0
 11
11.7711058208776
 21
7.976490948882428
 31
0.0
  0
LINE
  5
B4C
330
9E0
100
AcDbEntity
  8
0
 62
     0
100
AcDbLine
 10
14.92110582087756
 20
11.12649094888237
 30
0.0
 11
15.41961521144486
 21
11.62500033944968
 31
0.0
  0
LINE
  5
B4D
330
9E0
100
AcDbEntity
  8
0
 62
     0
100
AcDbLine
 10
7.369615211444852
 20
3.575000339449644
 30
0.0
 11
9.321105820877619
 21
5.52649094888244
 31
0.0
  0
LINE
  5
B4E
330
9E0
100
AcDbEntity
  8
0
 62
     0
100
AcDbLine
 10
10.37110582087751
 20
7.025503754935812
 30
0.0
 11
11.77110582087758
 21
8.425503754935874
 31
0.0
  0
LINE
  5
B4F
330
9E0
100
AcDbEntity
  8
0
 62
     0
100
AcDbLine
 10
6.920602405391377
 20
3.575000339449672
 30
0.0
 11
9.319136144597024
 21
5.973534078655319
 31
0.0
  0
LINE
  5
B50
330
9E0
100
AcDbEntity
  8
0
 62
     0
100
AcDbLine
 10
10.37110582087757
 20
7.474516560989314
 30
0.0
 11
11.7711058208776
 21
8.874516560989349
 31
0.0
  0
LINE
  5
B51
330
9E0
100
AcDbEntity
  8
0
 62
     0
100
AcDbLine
 10
13.12158959933796
 20
10.22500033944971
 30
0.0
 11
13.69610582087765
 21
10.79951656098936
 31
0.0
  0
LINE
  5
B52
330
9E0
100
AcDbEntity
  8
0
 62
     0
100
AcDbLine
 10
6.471589599337931
 20
3.575000339449672
 30
0.0
 11
9.264305226436363
 21
6.367715966548104
 31
0.0
  0
LINE
  5
B53
330
9E0
100
AcDbEntity
  8
0
 62
     0
100
AcDbLine
 10
10.37110582087757
 20
7.92352936704276
 30
0.0
 11
11.7711058208776
 21
9.323529367042766
 31
0.0
  0
LINE
  5
B54
330
9E0
100
AcDbEntity
  8
0
 62
     0
100
AcDbLine
 10
7.921105820877585
 20
5.473529367042772
 30
0.0
 11
9.153135854414301
 21
6.705559400579488
 31
0.0
  0
LINE
  5
B55
330
9E0
100
AcDbEntity
  8
0
 62
     0
100
AcDbLine
 10
12.67257679328452
 20
10.22500033944968
 30
0.0
 11
13.69610582087762
 21
11.2485293670428
 31
0.0
  0
LINE
  5
B56
330
9E0
100
AcDbEntity
  8
0
 62
     0
100
AcDbLine
 10
6.051439730914438
 20
3.603863277079625
 30
0.0
 11
7.42257679328452
 21
4.975000339449678
 31
0.0
  0
LINE
  5
B57
330
9E0
100
AcDbEntity
  8
0
 62
     0
100
AcDbLine
 10
10.37110582087754
 20
8.372542173096206
 30
0.0
 11
11.85401317376744
 21
9.855449525986102
 31
0.0
  0
LINE
  5
B58
330
9E0
100
AcDbEntity
  8
0
 62
     0
100
AcDbLine
 10
7.920026275072984
 20
5.921462627291617
 30
0.0
 11
8.998920087078289
 21
7.00035643929695
 31
0.0
  0
LINE
  5
B59
330
9E0
100
AcDbEntity
  8
0
 62
     0
100
AcDbLine
 10
12.14065663434121
 20
10.14209298655987
 30
0.0
 11
13.57937211341772
 21
11.58080846563635
 31
0.0
  0
LINE
  5
B5A
330
9E0
100
AcDbEntity
  8
0
 62
     0
100
AcDbLine
 10
5.908605820877568
 20
3.910042173096229
 30
0.0
 11
6.973563987231045
 21
4.975000339449707
 31
0.0
  0
LINE
  5
B5B
330
9E0
100
AcDbEntity
  8
0
 62
     0
100
AcDbLine
 10
7.810224765322629
 20
6.260673923594765
 30
0.0
 11
8.80779910465884
 21
7.258248262930976
 31
0.0
  0
LINE
  5
B5C
330
9E0
100
AcDbEntity
  8
0
 62
     0
100
AcDbLine
 10
10.37110582087754
 20
8.821554979149681
 30
0.0
 11
13.17455118117758
 21
11.62500033944971
 31
0.0
  0
LINE
  5
B5D
330
9E0
100
AcDbEntity
  8
0
 62
     0
100
AcDbLine
 10
5.908605820877568
 20
4.359054979149703
 30
0.0
 11
6.524551181177542
 21
4.975000339449678
 31
0.0
  0
LINE
  5
B5E
330
9E0
100
AcDbEntity
  8
0
 62
     0
100
AcDbLine
 10
7.597097351170219
 20
6.496559315495773
 30
0.0
 11
8.587046844831462
 21
7.486508809157015
 31
0.0
  0
LINE
  5
B5F
330
9E0
100
AcDbEntity
  8
0
 62
     0
100
AcDbLine
 10
10.37110582087757
 20
9.270567785203098
 30
0.0
 11
12.72553837512413
 21
11.62500033944968
 31
0.0
  0
LINE
  5
B60
330
9E0
100
AcDbEntity
  8
0
 62
     0
100
AcDbLine
 10
5.943081781887485
 20
4.842543746213038
 30
0.0
 11
6.041062414114293
 21
4.940524378439846
 31
0.0
  0
LINE
  5
B61
330
9E0
100
AcDbEntity
  8
0
 62
     0
100
AcDbLine
 10
10.38109337795586
 20
9.729568148334863
 30
0.0
 11
12.26653801199236
 21
11.61501278237139
 31
0.0
  0
LINE
  5
B62
330
9E0
100
AcDbEntity
  8
0
 62
     0
100
AcDbLine
 10
7.372590948143539
 20
6.721065718522567
 30
0.0
 11
8.362540441804725
 21
7.711015212183752
 31
0.0
  0
LINE
  5
B63
330
9E0
100
AcDbEntity
  8
0
 62
     0
100
AcDbLine
 10
10.53082509408875
 20
10.32831267052126
 30
0.0
 11
11.667793489806
 21
11.4652810662385
 31
0.0
  0
LINE
  5
B64
330
9E0
100
AcDbEntity
  8
0
 62
     0
100
AcDbLine
 10
7.148084545116802
 20
6.945572121549304
 30
0.0
 11
8.138034038777988
 21
7.93552161521049
 31
0.0
  0
LINE
  5
B65
330
9E0
100
AcDbEntity
  8
0
 62
     0
100
AcDbLine
 10
6.923578142090093
 20
7.170078524576013
 30
0.0
 11
7.913527635751279
 21
8.160028018237198
 31
0.0
  0
LINE
  5
B66
330
9E0
100
AcDbEntity
  8
0
 62
     0
100
AcDbLine
 10
6.699071739063356
 20
7.39458492760275
 30
0.0
 11
7.689021232724542
 21
8.384534421263936
 31
0.0
  0
LINE
  5
B67
330
9E0
100
AcDbEntity
  8
0
 62
     0
100
AcDbLine
 10
6.474565336036562
 20
7.61909133062943
 30
0.0
 11
7.464514829697804
 21
8.609040824290673
 31
0.0
  0
LINE
  5
B68
330
9E0
100
AcDbEntity
  8
0
 62
     0
100
AcDbLine
 10
8.631461538803364
 20
10.22500033944971
 30
0.0
 11
9.058605820877545
 21
10.65214462152389
 31
0.0
  0
LINE
  5
B69
330
9E0
100
AcDbEntity
  8
0
 62
     0
100
AcDbLine
 10
6.250100590023947
 20
7.84363939067029
 30
0.0
 11
7.240133411740174
 21
8.833672212386517
 31
0.0
  0
LINE
  5
B6A
330
9E0
100
AcDbEntity
  8
0
 62
     0
100
AcDbLine
 10
8.18244873274989
 20
10.22500033944965
 30
0.0
 11
9.058605820877602
 21
11.10115742757736
 31
0.0
  0
LINE
  5
B6B
330
9E0
100
AcDbEntity
  8
0
 62
     0
100
AcDbLine
 10
6.044366627748161
 20
8.086918234447892
 30
0.0
 11
7.075184971096206
 21
9.117736577795966
 31
0.0
  0
LINE
  5
B6C
330
9E0
100
AcDbEntity
  8
0
 62
     0
100
AcDbLine
 10
7.733435926696472
 20
10.22500033944968
 30
0.0
 11
9.01532637099703
 21
11.50689078375026
 31
0.0
  0
LINE
  5
B6D
330
9E0
100
AcDbEntity
  8
0
 62
     0
100
AcDbLine
 10
5.874136324616927
 20
8.365700737370133
 30
0.0
 11
7.046105820877585
 21
9.537670233630819
 31
0.0
  0
LINE
  5
B6E
330
9E0
100
AcDbEntity
  8
0
 62
     0
100
AcDbLine
 10
7.283189796057911
 20
10.22376701486459
 30
0.0
 11
8.684423120643003
 21
11.62500033944968
 31
0.0
  0
LINE
  5
B6F
330
9E0
100
AcDbEntity
  8
0
 62
     0
100
AcDbLine
 10
5.743789676750878
 20
8.684366895557559
 30
0.0
 11
7.047339145462672
 21
9.987916364269381
 31
0.0
  0
LINE
  5
B70
330
9E0
100
AcDbEntity
  8
0
 62
     0
100
AcDbLine
 10
5.662883695626845
 20
9.052473720486972
 30
0.0
 11
8.235410314589557
 21
11.62500033944968
 31
0.0
  0
LINE
  5
B71
330
9E0
100
AcDbEntity
  8
0
 62
     0
100
AcDbLine
 10
5.646105820877608
 20
9.48470865179118
 30
0.0
 11
7.786397508536083
 21
11.62500033944968
 31
0.0
  0
LINE
  5
B72
330
9E0
100
AcDbEntity
  8
0
 62
     0
100
AcDbLine
 10
5.646105820877579
 20
9.933721457844654
 30
0.0
 11
7.337384702482637
 21
11.62500033944968
 31
0.0
  0
LINE
  5
B73
330
9E0
100
AcDbEntity
  8
0
 62
     0
100
AcDbLine
 10
5.656201826096747
 20
10.39283026911727
 30
0.0
 11
6.878275891210051
 21
11.61490433423057
 31
0.0
  0
ENDBLK
  5
B75
330
9E0
100
AcDbEntity
  8
0
100
AcDbBlockEnd
  0
BLOCK
  5
4997
330
498D
100
AcDbEntity
  8
0
100
AcDbBlockBegin
  2
*D2
 70
     1
 10
0.0
 20
0.0
 30
0.0
  3
*D2
  1

  0
LINE
  5
4BFD
330
498D
100
AcDbEntity
  8
SUNPOU
100
AcDbLine
 10
164.6629562271007
 20
190.383721869772
 30
0.0
 11
164.6629562271007
 21
202.7712628940299
 31
0.0
  0
LINE
  5
4BFE
330
498D
100
AcDbEntity
  8
SUNPOU
100
AcDbLine
 10
229.6629562271007
 20
190.383721869772
 30
0.0
 11
229.6629562271007
 21
202.7712628940299
 31
0.0
  0
LINE
  5
4BFF
330
498D
100
AcDbEntity
  8
SUNPOU
100
AcDbLine
 10
168.6629562271007
 20
201.2712628940299
 30
0.0
 11
225.6629562271007
 21
201.2712628940299
 31
0.0
  0
INSERT
  5
4C00
330
498D
100
AcDbEntity
  8
SUNPOU
100
AcDbBlockReference
  2
_OPEN
 10
164.6629562271007
 20
201.2712628940299
 30
0.0
 41
4.0
 42
4.0
 43
4.0
 50
180.0
  0
INSERT
  5
4C01
330
498D
100
AcDbEntity
  8
SUNPOU
100
AcDbBlockReference
  2
_OPEN
 10
229.6629562271007
 20
201.2712628940299
 30
0.0
 41
4.0
 42
4.0
 43
4.0
  0
MTEXT
  5
4C02
330
498D
100
AcDbEntity
  8
SUNPOU
100
AcDbMText
 10
197.1629562271007
 20
205.2712628940299
 30
0.0
 40
4.0
 41
0.0
 71
     5
 72
     5
  1
\A1;65
 73
     1
 44
1.0
1001
ACAD
1000
MTEXTBEGIN
1070
    73
1070
     1
1070
    44
1040
1.0
1070
    74
1070
     0
1000
MTEXTEND
  0
POINT
  5
4C03
330
498D
100
AcDbEntity
  8
DEFPOINTS
 62
     0
100
AcDbPoint
 10
164.6629562271007
 20
188.883721869772
 30
0.0
  0
POINT
  5
4C04
330
498D
100
AcDbEntity
  8
DEFPOINTS
 62
     0
100
AcDbPoint
 10
229.6629562271007
 20
188.883721869772
 30
0.0
  0
POINT
  5
4C05
330
498D
100
AcDbEntity
  8
DEFPOINTS
 62
     0
100
AcDbPoint
 10
229.6629562271007
 20
201.2712628940299
 30
0.0
  0
ENDBLK
  5
4998
330
498D
100
AcDbEntity
  8
0
100
AcDbBlockEnd
  0
BLOCK
  5
49A5
330
499A
100
AcDbEntity
  8
0
100
AcDbBlockBegin
  2
*D3
 70
     1
 10
0.0
 20
0.0
 30
0.0
  3
*D3
  1

  0
LINE
  5
4C06
330
499A
100
AcDbEntity
  8
SUNPOU
100
AcDbLine
 10
229.6629562271007
 20
190.383721869772
 30
0.0
 11
229.6629562271007
 21
202.7712628940299
 31
0.0
  0
LINE
  5
4C07
330
499A
100
AcDbEntity
  8
SUNPOU
100
AcDbLine
 10
234.6629562271007
 20
137.383721869772
 30
0.0
 11
234.6629562271007
 21
202.7712628940299
 31
0.0
  0
LINE
  5
4C08
330
499A
100
AcDbEntity
  8
SUNPOU
100
AcDbLine
 10
225.6629562271007
 20
201.2712628940299
 30
0.0
 11
221.6629562271007
 21
201.2712628940299
 31
0.0
  0
LINE
  5
4C09
330
499A
100
AcDbEntity
  8
SUNPOU
100
AcDbLine
 10
238.6629562271007
 20
201.2712628940299
 30
0.0
 11
249.3296228937674
 21
201.2712628940299
 31
0.0
  0
INSERT
  5
4C0A
330
499A
100
AcDbEntity
  8
SUNPOU
100
AcDbBlockReference
  2
_OPEN
 10
229.6629562271007
 20
201.2712628940299
 30
0.0
 41
4.0
 42
4.0
 43
4.0
  0
INSERT
  5
4C0B
330
499A
100
AcDbEntity
  8
SUNPOU
100
AcDbBlockReference
  2
_OPEN
 10
234.6629562271007
 20
201.2712628940299
 30
0.0
 41
4.0
 42
4.0
 43
4.0
 50
180.0
  0
MTEXT
  5
4C0C
330
499A
100
AcDbEntity
  8
SUNPOU
100
AcDbMText
 10
245.9962895604341
 20
205.2712628940299
 30
0.0
 40
4.0
 41
0.0
 71
     5
 72
     5
  1
\A1;5
 73
     1
 44
1.0
1001
ACAD
1000
MTEXTBEGIN
1070
    73
1070
     1
1070
    44
1040
1.0
1070
    74
1070
     0
1000
MTEXTEND
  0
POINT
  5
4C0D
330
499A
100
AcDbEntity
  8
DEFPOINTS
 62
     0
100
AcDbPoint
 10
229.6629562271007
 20
188.883721869772
 30
0.0
  0
POINT
  5
4C0E
330
499A
100
AcDbEntity
  8
DEFPOINTS
 62
     0
100
AcDbPoint
 10
234.6629562271007
 20
135.883721869772
 30
0.0
  0
POINT
  5
4C0F
330
499A
100
AcDbEntity
  8
DEFPOINTS
 62
     0
100
AcDbPoint
 10
234.6629562271007
 20
201.2712628940299
 30
0.0
  0
ENDBLK
  5
49A6
330
499A
100
AcDbEntity
  8
0
100
AcDbBlockEnd
  0
BLOCK
  5
49B2
330
49A8
100
AcDbEntity
  8
0
100
AcDbBlockBegin
  2
*D4
 70
     1
 10
0.0
 20
0.0
 30
0.0
  3
*D4
  1

  0
LINE
  5
5003
330
49A8
100
AcDbEntity
  8
SUNPOU
100
AcDbLine
 10
231.1629562271007
 20
188.883721869772
 30
0.0
 11
250.8598818528296
 21
188.883721869772
 31
0.0
  0
LINE
  5
5004
330
49A8
100
AcDbEntity
  8
SUNPOU
100
AcDbLine
 10
236.1629562271007
 20
137.383721869772
 30
0.0
 11
250.8598818528296
 21
137.383721869772
 31
0.0
  0
LINE
  5
5005
330
49A8
100
AcDbEntity
  8
SUNPOU
100
AcDbLine
 10
249.3598818528296
 20
184.883721869772
 30
0.0
 11
249.3598818528296
 21
141.383721869772
 31
0.0
  0
INSERT
  5
5006
330
49A8
100
AcDbEntity
  8
SUNPOU
100
AcDbBlockReference
  2
_OPEN
 10
249.3598818528296
 20
188.883721869772
 30
0.0
 41
4.0
 42
4.0
 43
4.0
 50
90.0
  0
INSERT
  5
5007
330
49A8
100
AcDbEntity
  8
SUNPOU
100
AcDbBlockReference
  2
_OPEN
 10
249.3598818528296
 20
137.383721869772
 30
0.0
 41
4.0
 42
4.0
 43
4.0
 50
270.0
  0
MTEXT
  5
5008
330
49A8
100
AcDbEntity
  8
SUNPOU
100
AcDbMText
 10
245.3598818528296
 20
163.133721869772
 30
0.0
 40
4.0
 41
0.0
 71
     5
 72
     1
  1
\A1;52
 11
0.0000000000000001
 21
1.0
 31
0.0
 73
     1
 44
1.0
1001
ACAD
1000
MTEXTBEGIN
1070
    73
1070
     1
1070
    44
1040
1.0
1070
    74
1070
     0
1000
MTEXTEND
  0
POINT
  5
5009
330
49A8
100
AcDbEntity
  8
DEFPOINTS
 62
     0
100
AcDbPoint
 10
229.6629562271007
 20
188.883721869772
 30
0.0
  0
POINT
  5
500A
330
49A8
100
AcDbEntity
  8
DEFPOINTS
 62
     0
100
AcDbPoint
 10
234.6629562271007
 20
137.383721869772
 30
0.0
  0
POINT
  5
500B
330
49A8
100
AcDbEntity
  8
DEFPOINTS
 62
     0
100
AcDbPoint
 10
249.3598818528296
 20
137.383721869772
 30
0.0
  0
ENDBLK
  5
49B3
330
49A8
100
AcDbEntity
  8
0
100
AcDbBlockEnd
  0
BLOCK
  5
49BF
330
49B5
100
AcDbEntity
  8
0
100
AcDbBlockBegin
  2
*D5
 70
     1
 10
0.0
 20
0.0
 30
0.0
  3
*D5
  1

  0
LINE
  5
500C
330
49B5
100
AcDbEntity
  8
SUNPOU
100
AcDbLine
 10
231.1629562271007
 20
188.883721869772
 30
0.0
 11
261.713621486952
 21
188.883721869772
 31
0.0
  0
LINE
  5
500D
330
49B5
100
AcDbEntity
  8
SUNPOU
100
AcDbLine
 10
236.1629562271007
 20
103.883721869772
 30
0.0
 11
261.713621486952
 21
103.883721869772
 31
0.0
  0
LINE
  5
500E
330
49B5
100
AcDbEntity
  8
SUNPOU
100
AcDbLine
 10
260.2136214869521
 20
184.883721869772
 30
0.0
 11
260.213621486952
 21
107.883721869772
 31
0.0
  0
INSERT
  5
500F
330
49B5
100
AcDbEntity
  8
SUNPOU
100
AcDbBlockReference
  2
_OPEN
 10
260.2136214869521
 20
188.883721869772
 30
0.0
 41
4.0
 42
4.0
 43
4.0
 50
90.0
  0
INSERT
  5
5010
330
49B5
100
AcDbEntity
  8
SUNPOU
100
AcDbBlockReference
  2
_OPEN
 10
260.213621486952
 20
103.883721869772
 30
0.0
 41
4.0
 42
4.0
 43
4.0
 50
270.0
  0
MTEXT
  5
5011
330
49B5
100
AcDbEntity
  8
SUNPOU
100
AcDbMText
 10
256.213621486952
 20
146.383721869772
 30
0.0
 40
4.0
 41
0.0
 71
     5
 72
     1
  1
\A1;85
 11
0.0000000000000001
 21
1.0
 31
0.0
 73
     1
 44
1.0
1001
ACAD
1000
MTEXTBEGIN
1070
    73
1070
     1
1070
    44
1040
1.0
1070
    74
1070
     0
1000
MTEXTEND
  0
POINT
  5
5012
330
49B5
100
AcDbEntity
  8
DEFPOINTS
 62
     0
100
AcDbPoint
 10
229.6629562271007
 20
188.883721869772
 30
0.0
  0
POINT
  5
5013
330
49B5
100
AcDbEntity
  8
DEFPOINTS
 62
     0
100
AcDbPoint
 10
234.6629562271007
 20
103.883721869772
 30
0.0
  0
POINT
  5
5014
330
49B5
100
AcDbEntity
  8
DEFPOINTS
 62
     0
100
AcDbPoint
 10
260.213621486952
 20
103.883721869772
 30
0.0
  0
ENDBLK
  5
49C0
330
49B5
100
AcDbEntity
  8
0
100
AcDbBlockEnd
  0
BLOCK
  5
49CC
330
49C2
100
AcDbEntity
  8
0
100
AcDbBlockBegin
  2
*D6
 70
     1
 10
0.0
 20
0.0
 30
0.0
  3
*D6
  1

  0
LINE
  5
4FFA
330
49C2
100
AcDbEntity
  8
SUNPOU
100
AcDbLine
 10
236.1629562271007
 20
261.3788353099251
 30
0.0
 11
250.8598818528296
 21
261.3788353099251
 31
0.0
  0
LINE
  5
4FFB
330
49C2
100
AcDbEntity
  8
SUNPOU
100
AcDbLine
 10
236.1629562271007
 20
221.3788353099251
 30
0.0
 11
250.8598818528296
 21
221.3788353099251
 31
0.0
  0
LINE
  5
4FFC
330
49C2
100
AcDbEntity
  8
SUNPOU
100
AcDbLine
 10
249.3598818528296
 20
257.3788353099251
 30
0.0
 11
249.3598818528296
 21
225.3788353099251
 31
0.0
  0
INSERT
  5
4FFD
330
49C2
100
AcDbEntity
  8
SUNPOU
100
AcDbBlockReference
  2
_OPEN
 10
249.3598818528296
 20
261.3788353099251
 30
0.0
 41
4.0
 42
4.0
 43
4.0
 50
90.0
  0
INSERT
  5
4FFE
330
49C2
100
AcDbEntity
  8
SUNPOU
100
AcDbBlockReference
  2
_OPEN
 10
249.3598818528296
 20
221.3788353099251
 30
0.0
 41
4.0
 42
4.0
 43
4.0
 50
270.0
  0
MTEXT
  5
4FFF
330
49C2
100
AcDbEntity
  8
SUNPOU
100
AcDbMText
 10
245.3598818528296
 20
241.3788353099251
 30
0.0
 40
4.0
 41
0.0
 71
     5
 72
     1
  1
\A1;40
 11
0.0000000000000001
 21
1.0
 31
0.0
 73
     1
 44
1.0
1001
ACAD
1000
MTEXTBEGIN
1070
    73
1070
     1
1070
    44
1040
1.0
1070
    74
1070
     0
1000
MTEXTEND
  0
POINT
  5
5000
330
49C2
100
AcDbEntity
  8
DEFPOINTS
 62
     0
100
AcDbPoint
 10
234.6629562271007
 20
261.3788353099251
 30
0.0
  0
POINT
  5
5001
330
49C2
100
AcDbEntity
  8
DEFPOINTS
 62
     0
100
AcDbPoint
 10
234.6629562271007
 20
221.3788353099251
 30
0.0
  0
POINT
  5
5002
330
49C2
100
AcDbEntity
  8
DEFPOINTS
 62
     0
100
AcDbPoint
 10
249.3598818528296
 20
221.3788353099251
 30
0.0
  0
ENDBLK
  5
49CD
330
49C2
100
AcDbEntity
  8
0
100
AcDbBlockEnd
  0
BLOCK
  5
4EF1
330
4EE7
100
AcDbEntity
  8
0
100
AcDbBlockBegin
  2
*D7
 70
     1
 10
0.0
 20
0.0
 30
0.0
  3
*D7
  1

  0
LINE
  5
4EE8
330
4EE7
100
AcDbEntity
  8
SUNPOU
100
AcDbLine
 10
164.6629562271007
 20
190.383721869772
 30
0.0
 11
164.6629562271007
 21
212.7977144233423
 31
0.0
  0
LINE
  5
4EE9
330
4EE7
100
AcDbEntity
  8
SUNPOU
100
AcDbLine
 10
234.6629562271007
 20
137.383721869772
 30
0.0
 11
234.6629562271007
 21
212.7977144233423
 31
0.0
  0
LINE
  5
4EEA
330
4EE7
100
AcDbEntity
  8
SUNPOU
100
AcDbLine
 10
168.6629562271007
 20
211.2977144233423
 30
0.0
 11
230.6629562271007
 21
211.2977144233423
 31
0.0
  0
INSERT
  5
4EEB
330
4EE7
100
AcDbEntity
  8
SUNPOU
100
AcDbBlockReference
  2
_OPEN
 10
164.6629562271007
 20
211.2977144233423
 30
0.0
 41
4.0
 42
4.0
 43
4.0
 50
180.0
  0
INSERT
  5
4EEC
330
4EE7
100
AcDbEntity
  8
SUNPOU
100
AcDbBlockReference
  2
_OPEN
 10
234.6629562271007
 20
211.2977144233423
 30
0.0
 41
4.0
 42
4.0
 43
4.0
  0
MTEXT
  5
4EED
330
4EE7
100
AcDbEntity
  8
SUNPOU
100
AcDbMText
 10
199.6629562271007
 20
215.2977144233423
 30
0.0
 40
4.0
 41
0.0
 71
     5
 72
     5
  1
\A1;70
 73
     1
 44
1.0
1001
ACAD
1000
MTEXTBEGIN
1070
    73
1070
     1
1070
    44
1040
1.0
1070
    74
1070
     0
1000
MTEXTEND
  0
POINT
  5
4EEE
330
4EE7
100
AcDbEntity
  8
DEFPOINTS
 62
     0
100
AcDbPoint
 10
164.6629562271007
 20
188.883721869772
 30
0.0
  0
POINT
  5
4EEF
330
4EE7
100
AcDbEntity
  8
DEFPOINTS
 62
     0
100
AcDbPoint
 10
234.6629562271007
 20
135.883721869772
 30
0.0
  0
POINT
  5
4EF0
330
4EE7
100
AcDbEntity
  8
DEFPOINTS
 62
     0
100
AcDbPoint
 10
234.6629562271007
 20
211.2977144233423
 30
0.0
  0
ENDBLK
  5
4EF2
330
4EE7
100
AcDbEntity
  8
0
100
AcDbBlockEnd
  0
ENDSEC
  0
SECTION
  2
ENTITIES
  0
LINE
  5
577
330
1A
100
AcDbEntity
  8
ZUWAKU
100
AcDbLine
 10
111.323300388521
 20
14.6000003394497
 30
0.0
 11
230.7121817289827
 21
14.6000003394497
 31
0.0
  0
LINE
  5
578
330
1A
100
AcDbEntity
  8
ZUWAKU
100
AcDbLine
 10
111.323300388521
 20
14.8000003394497
 30
0.0
 11
230.7121817289827
 21
14.8000003394497
 31
0.0
  0
LINE
  5
579
330
1A
100
AcDbEntity
  8
ZUWAKU
100
AcDbLine
 10
111.323300388521
 20
14.7000003394497
 30
0.0
 11
230.7121817289827
 21
14.7000003394497
 31
0.0
  0
LINE
  5
57A
330
1A
100
AcDbEntity
  8
ZUWAKU
100
AcDbLine
 10
6.999999743487023
 20
22.40000033944969
 30
0.0
 11
405.699999743487
 21
22.40000033944969
 31
0.0
  0
LINE
  5
57B
330
1A
100
AcDbEntity
  8
ZUWAKU
100
AcDbLine
 10
6.999999743487023
 20
22.30000033944969
 30
0.0
 11
405.699999743487
 21
22.30000033944969
 31
0.0
  0
LINE
  5
57C
330
1A
100
AcDbEntity
  8
ZUWAKU
100
AcDbLine
 10
6.999999743487023
 20
22.20000033944969
 30
0.0
 11
405.699999743487
 21
22.20000033944969
 31
0.0
  0
LINE
  5
57D
330
1A
100
AcDbEntity
  8
ZUWAKU
100
AcDbLine
 10
6.999999743487023
 20
22.10000033944969
 30
0.0
 11
405.699999743487
 21
22.10000033944969
 31
0.0
  0
LINE
  5
57E
330
1A
100
AcDbEntity
  8
ZUWAKU
100
AcDbLine
 10
6.999999743487023
 20
22.00000033944968
 30
0.0
 11
405.699999743487
 21
22.00000033944968
 31
0.0
  0
LWPOLYLINE
  5
57F
330
1A
100
AcDbEntity
  8
ZUWAKU
100
AcDbPolyline
 90
        4
 70
     1
 43
0.0
 10
7.099999743486989
 20
282.7000003394497
 10
7.099999743486989
 20
7.100000339449707
 10
405.699999743487
 20
7.100000339449718
 10
405.699999743487
 20
282.7000003394497
  0
LWPOLYLINE
  5
580
330
1A
100
AcDbEntity
  8
ZUWAKU
100
AcDbPolyline
 90
        4
 70
     1
 43
0.0
 10
7.299999743486978
 20
282.5000003394497
 10
7.299999743486978
 20
7.300000339449695
 10
405.4999997434871
 20
7.300000339449718
 10
405.499999743487
 20
282.5000003394497
  0
LWPOLYLINE
  5
581
330
1A
100
AcDbEntity
  8
ZUWAKU
100
AcDbPolyline
 90
        4
 70
     1
 43
0.0
 10
6.999999743487023
 20
282.8000003394497
 10
6.999999743487023
 20
7.000000339449684
 10
405.7999997434871
 20
7.000000339449718
 10
405.7999997434871
 20
282.8000003394497
  0
LWPOLYLINE
  5
582
330
1A
100
AcDbEntity
  8
ZUWAKU
100
AcDbPolyline
 90
        4
 70
     1
 43
0.0
 10
7.199999743487012
 20
282.6000003394497
 10
7.199999743487012
 20
7.200000339449729
 10
405.599999743487
 20
7.200000339449718
 10
405.599999743487
 20
282.6000003394497
  0
LWPOLYLINE
  5
583
330
1A
100
AcDbEntity
  8
ZUWAKU
100
AcDbPolyline
 90
        4
 70
     1
 43
0.0
 10
7.399999743487001
 20
282.4000003394497
 10
7.399999743487001
 20
7.400000339449718
 10
405.3999997434869
 20
7.400000339449718
 10
405.3999997434869
 20
282.4000003394497
  0
TEXT
  5
584
330
1A
100
AcDbEntity
  8
moji
100
AcDbText
 10
53.47889453757159
 20
13.37058940458706
 30
0.0
 40
3.0
  1
ユニシェイプ　たてとい
 41
0.9
  7
MSPｺﾞｼｯｸ
100
AcDbText
  0
INSERT
  5
585
330
1A
100
AcDbEntity
  8
ZUWAKU
  6
Continuous
100
AcDbBlockReference
  2
*X1
 10
7.0
 20
7.0
 30
0.0
1001
ACAD
1000
HATCH
1002
{
1070
    19
1000
ANSI37
1040
0.1
1040
0.0
1000
R14_HATCH_DATA
1000
585
1011
8.0
1021
7.0
1031
0.0
1011
7.0
1021
8.0
1031
0.0
1011
7.0
1021
7.0
1031
1.0
1040
0.0
1010
0.0
1020
0.0
1030
1.0
1000
ANSI37
1070
     0
1070
     0
1071
        8
1071
        7
1070
     1
1070
     1
1071
       24
1040
7.251131074046952
1040
8.822424579941475
1040
-0.1989123673796348
1040
7.046105820877585
1040
9.317399326772001
1040
0.0
1040
7.046105820877585
1040
9.96250033944969
1040
-0.4142135623730912
1040
7.308605820877573
1040
10.22500033944968
1040
0.0
1040
8.796105820877528
1040
10.22500033944968
1040
0.4142135623731546
1040
9.058605820877573
1040
10.48750033944968
1040
0.0
1040
9.058605820877573
1040
11.36250033944969
1040
0.4142135623731586
1040
8.796105820877528
1040
11.62500033944969
1040
0.0
1040
7.046105820877585
1040
11.62500033944969
1040
0.4142135623730928
1040
5.646105820877608
1040
10.2250003394497
1040
0.0
1040
5.646105820877608
1040
9.317399326772065
1040
0.1989123673796619
1040
6.261181580385823
1040
7.832475086280261
1040
0.0
1040
7.716080567708161
1040
6.377576098957932
1040
-0.1989123673796613
1040
7.921105820877585
1040
5.882601352127339
1040
0.0
1040
7.921105820877585
1040
5.237500339449681
1040
-0.4142135623730911
1040
7.658605820877596
1040
4.975000339449685
1040
0.0
1040
6.171105820877642
1040
4.975000339449685
1040
0.4142135623731526
1040
5.908605820877596
1040
4.712500339449691
1040
0.0
1040
5.908605820877596
1040
3.837500339449681
1040
0.4142135623731526
1040
6.171105820877642
1040
3.575000339449687
1040
0.0
1040
7.921105820877585
1040
3.575000339449687
1040
0.4142135623731044
1040
9.321105820877619
1040
4.975000339449675
1040
0.0
1040
9.321105820877619
1040
5.882601352127311
1040
0.1989123673796604
1040
8.706030061369347
1040
7.367525592619081
1040
0.0
1071
        0
1071
        7
1070
     1
1070
     1
1071
       16
1040
11.7711058208776
1040
9.52500033944969
1040
-0.4142135623730935
1040
12.47110582087759
1040
10.22500033944968
1040
0.0
1040
13.43360582087757
1040
10.22500033944968
1040
0.4142135623731546
1040
13.69610582087762
1040
10.48750033944968
1040
0.0
1040
13.69610582087762
1040
11.36250033944969
1040
0.4142135623730951
1040
13.43360582087763
1040
11.62500033944969
1040
0.0
1040
12.47110582087754
1040
11.62500033944966
1040
0.4142135623730892
1040
10.37110582087757
1040
9.525000339449654
1040
0.0
1040
10.37110582087757
1040
5.675000339449699
1040
0.4142135623730969
1040
12.47110582087759
1040
3.575000339449687
1040
0.0
1040
13.43360582087757
1040
3.575000339449687
1040
0.4142135623731526
1040
13.69610582087762
1040
3.837500339449681
1040
0.0
1040
13.69610582087762
1040
4.712500339449691
1040
0.4142135623730891
1040
13.43360582087763
1040
4.975000339449685
1040
0.0
1040
12.47110582087759
1040
4.975000339449685
1040
-0.4142135623730928
1040
11.7711058208776
1040
5.675000339449679
1040
0.0
1071
        0
1071
        7
1070
     1
1070
     1
1071
        2
1040
12.12110582087757
1040
7.600000339449685
1040
1.0
1040
13.87110582087757
1040
7.600000339449685
1040
1.0
1071
        0
1071
        7
1070
     1
1070
     1
1071
       26
1040
18.65742906196658
1040
9.602523936231399
1040
0.0
1040
19.18824887853549
1040
11.28345335536619
1040
0.5069206636600134
1040
18.93793342893781
1040
11.62500033944969
1040
0.0
1040
18.08848873913319
1040
11.62500033944969
1040
0.3272098845218764
1040
17.83817328953552
1040
11.44154732353317
1040
0.0
1040
16.90403835221963
1040
8.483453355366226
1040
-0.3272098845219541
1040
16.65372290262189
1040
8.300000339449685
1040
0.0
1040
16.58360582087766
1040
8.300000339449685
1040
-0.4142135623731526
1040
16.32110582087762
1040
8.562500339449679
1040
0.0
1040
16.32110582087762
1040
11.36250033944969
1040
0.4142135623730951
1040
16.05860582087763
1040
11.62500033944969
1040
0.0
1040
15.18360582087757
1040
11.62500033944969
1040
0.4142135623730871
1040
14.92110582087758
1040
11.36250033944969
1040
0.0
1040
14.92110582087758
1040
3.837500339449681
1040
0.4142135623730891
1040
15.18360582087757
1040
3.575000339449687
1040
0.0
1040
16.05860582087757
1040
3.575000339449687
1040
0.4142135623731526
1040
16.32110582087762
1040
3.837500339449681
1040
0.0
1040
16.32110582087762
1040
6.637500339449692
1040
-0.4142135623731526
1040
16.58360582087766
1040
6.900000339449686
1040
0.0
1040
16.65372290262195
1040
6.900000339449686
1040
-0.3272098845218915
1040
16.90403835221963
1040
6.716547323533148
1040
0.0
1040
17.83817328953552
1040
3.758453355366222
1040
0.3272098845218902
1040
18.08848873913319
1040
3.575000339449687
1040
0.0
1040
18.93793342893781
1040
3.575000339449687
1040
0.5069206636600335
1040
19.18824887853549
1040
3.91654732353319
1040
0.0
1040
18.02505318929866
1040
7.600000339449755
1040
0.0
1071
        0
1071
        7
1070
     1
1070
     1
1071
        8
1040
21.74610582087757
1040
11.36250033944969
1040
0.4142135623731546
1040
21.48360582087753
1040
11.62500033944969
1040
0.0
1040
20.60860582087764
1040
11.62500033944969
1040
0.4142135623731507
1040
20.3461058208776
1040
11.36250033944969
1040
0.0
1040
20.3461058208776
1040
3.837500339449681
1040
0.4142135623731526
1040
20.60860582087764
1040
3.575000339449687
1040
0.0
1040
21.48360582087753
1040
3.575000339449687
1040
0.4142135623731526
1040
21.74610582087757
1040
3.837500339449681
1040
0.0
1071
        0
1071
        7
1070
     1
1070
     1
1071
       24
1040
24.19610582087762
1040
9.96250033944969
1040
-0.4142135623731546
1040
24.45860582087767
1040
10.22500033944968
1040
0.0
1040
25.94610582087762
1040
10.22500033944968
1040
0.4142135623730911
1040
26.20860582087761
1040
10.48750033944968
1040
0.0
1040
26.20860582087761
1040
11.36250033944969
1040
0.4142135623730952
1040
25.94610582087762
1040
11.62500033944969
1040
0.0
1040
24.19610582087762
1040
11.62500033944969
1040
0.4142135623731048
1040
22.79610582087759
1040
10.2250003394497
1040
0.0
1040
22.79610582087759
1040
9.317399326772065
1040
0.1989123673796613
1040
23.41118158038586
1040
7.83247508628029
1040
0.0
1040
24.86608056770819
1040
6.377576098957955
1040
-0.1989123673796402
1040
25.07110582087762
1040
5.882601352127419
1040
0.0
1040
25.07110582087762
1040
5.237500339449681
1040
-0.4142135623730911
1040
24.80860582087763
1040
4.975000339449685
1040
0.0
1040
23.32110582087762
1040
4.975000339449685
1040
0.4142135623731526
1040
23.05860582087758
1040
4.712500339449691
1040
0.0
1040
23.05860582087758
1040
3.837500339449681
1040
0.4142135623730891
1040
23.32110582087756
1040
3.575000339449687
1040
0.0
1040
25.07110582087762
1040
3.575000339449687
1040
0.4142135623730925
1040
26.4711058208776
1040
4.975000339449675
1040
0.0
1040
26.4711058208776
1040
5.882601352127311
1040
0.1989123673796675
1040
25.85603006136933
1040
7.367525592619138
1040
0.0
1040
24.40113107404704
1040
8.822424579941396
1040
-0.1989123673796652
1040
24.19610582087762
1040
9.31739932677198
1040
0.0
1071
        0
1071
        7
1070
     1
1070
     1
1071
       16
1040
28.92110582087759
1040
11.36250033944968
1040
0.414213562373103
1040
28.6586058208776
1040
11.62500033944969
1040
0.0
1040
27.7836058208776
1040
11.62500033944969
1040
0.4142135623730871
1040
27.52110582087761
1040
11.36250033944969
1040
0.0
1040
27.52110582087761
1040
4.975000339449675
1040
0.4142135623730926
1040
28.92110582087759
1040
3.575000339449687
1040
0.0
1040
30.67110582087759
1040
3.575000339449687
1040
0.4142135623731044
1040
32.07110582087762
1040
4.975000339449675
1040
0.0
1040
32.07110582087762
1040
11.36250033944969
1040
0.4142135623730951
1040
31.80860582087763
1040
11.62500033944969
1040
0.0
1040
30.93360582087758
1040
11.62500033944969
1040
0.4142135623730871
1040
30.67110582087759
1040
11.36250033944969
1040
0.0
1040
30.67110582087759
1040
5.500000339449673
1040
-0.414213562373088
1040
30.14610582087761
1040
4.975000339449685
1040
0.0
1040
29.44610582087762
1040
4.975000339449685
1040
-0.4142135623731197
1040
28.92110582087759
1040
5.500000339449673
1040
0.0
1071
        0
1071
        7
1070
     1
1070
     1
1071
        8
1040
34.52110582087761
1040
11.36250033944969
1040
0.4142135623730871
1040
34.25860582087762
1040
11.62500033944969
1040
0.0
1040
33.38360582087762
1040
11.62500033944969
1040
0.4142135623731507
1040
33.12110582087758
1040
11.36250033944969
1040
0.0
1040
33.12110582087758
1040
3.837500339449681
1040
0.4142135623730891
1040
33.38360582087756
1040
3.575000339449687
1040
0.0
1040
34.25860582087762
1040
3.575000339449687
1040
0.4142135623730891
1040
34.52110582087761
1040
3.837500339449681
1040
0.0
1071
        0
1070
     0
1070
     1
1040
0.0
1040
0.1
1070
     0
1070
     2
1040
0.7853981633974483
1040
-450.4711524238524
1040
-6.599999660550281
1040
-0.2245064030267288
1040
0.2245064030267288
1070
     0
1040
2.356194490192344
1040
-450.4711524238524
1040
-6.599999660550281
1040
-0.2245064030267288
1040
-0.2245064030267288
1070
     0
1040
0.057451373970553
1071
        8
1040
8.039927224998677
1040
7.583587162392461
1040
0.0
1040
11.20225724670661
1040
9.42203143067519
1040
0.0
1040
12.58218368631685
1040
7.755941162485044
1040
0.0
1040
15.45702973430559
1040
8.100649162670435
1040
0.0
1040
20.91923575296539
1040
8.330455296441243
1040
0.0
1040
23.4491001910518
1040
9.70928849765329
1040
0.0
1040
28.2788427296872
1040
9.364579296997192
1040
0.0
1040
33.91353955329839
1040
9.594385430767999
1040
0.0
1002
}
  0
LINE
  5
586
330
1A
100
AcDbEntity
  8
ZUWAKU
100
AcDbLine
 10
19.47110582087759
 20
18.62500033944966
 30
0.0
 11
20.43360582087757
 21
18.62500033944969
 31
0.0
  0
LINE
  5
587
330
1A
100
AcDbEntity
  8
ZUWAKU
100
AcDbLine
 10
20.43360582087757
 20
17.22500033944968
 30
0.0
 11
19.47110582087759
 21
17.22500033944968
 31
0.0
  0
LINE
  5
588
330
1A
100
AcDbEntity
  8
ZUWAKU
100
AcDbLine
 10
19.47110582087759
 20
11.97500033944968
 30
0.0
 11
20.43360582087757
 21
11.97500033944968
 31
0.0
  0
LINE
  5
589
330
1A
100
AcDbEntity
  8
ZUWAKU
100
AcDbLine
 10
20.43360582087757
 20
10.57500033944968
 30
0.0
 11
19.47110582087759
 21
10.57500033944968
 31
0.0
  0
CIRCLE
  5
58A
330
1A
100
AcDbEntity
  8
ZUWAKU
100
AcDbCircle
 10
19.99610582087757
 20
14.60000033944968
 30
0.0
 40
0.875
  0
ARC
  5
58B
330
1A
100
AcDbEntity
  8
ZUWAKU
100
AcDbCircle
 10
14.74610582087757
 20
16.31739932677203
 30
0.0
 40
0.7
100
AcDbArc
 50
180.0000000000016
 51
224.9999999999988
  0
LINE
  5
58C
330
1A
100
AcDbEntity
  8
ZUWAKU
100
AcDbLine
 10
18.77110582087761
 20
16.52500033944968
 30
0.0
 11
18.77110582087761
 21
12.67500033944969
 31
0.0
  0
LINE
  5
58D
330
1A
100
AcDbEntity
  8
ZUWAKU
100
AcDbLine
 10
17.37110582087757
 20
12.67500033944969
 30
0.0
 11
17.37110582087757
 21
16.52500033944966
 31
0.0
  0
ARC
  5
58E
330
1A
100
AcDbEntity
  8
ZUWAKU
100
AcDbCircle
 10
14.74610582087757
 20
16.31739932677203
 30
0.0
 40
2.099999999999999
100
AcDbArc
 50
180.0
 51
225.0
  0
ARC
  5
58F
330
1A
100
AcDbEntity
  8
ZUWAKU
100
AcDbCircle
 10
14.92110582087758
 20
11.97500033944968
 30
0.0
 40
1.399999999999999
100
AcDbArc
 50
270.0
 51
0.0
  0
ARC
  5
590
330
1A
100
AcDbEntity
  8
ZUWAKU
100
AcDbCircle
 10
19.47110582087759
 20
12.67500033944969
 30
0.0
 40
2.099999999999999
100
AcDbArc
 50
180.0
 51
270.0
  0
ARC
  5
591
330
1A
100
AcDbEntity
  8
ZUWAKU
100
AcDbCircle
 10
14.2211058208776
 20
12.88260135212734
 30
0.0
 40
2.099999999999999
100
AcDbArc
 50
0.0
 51
45.0
  0
LINE
  5
592
330
1A
100
AcDbEntity
  8
ZUWAKU
100
AcDbLine
 10
15.70603006136934
 20
14.3675255926191
 30
0.0
 11
14.25113107404701
 21
15.82242457994144
 31
0.0
  0
LINE
  5
593
330
1A
100
AcDbEntity
  8
ZUWAKU
100
AcDbLine
 10
14.92110582087758
 20
12.23750033944969
 30
0.0
 11
14.92110582087758
 21
12.88260135212736
 31
0.0
  0
ARC
  5
594
330
1A
100
AcDbEntity
  8
ZUWAKU
100
AcDbCircle
 10
14.65860582087759
 20
12.23750033944969
 30
0.0
 40
0.2625
100
AcDbArc
 50
270.0
 51
0.0
  0
ARC
  5
595
330
1A
100
AcDbEntity
  8
ZUWAKU
100
AcDbCircle
 10
14.2211058208776
 20
12.88260135212736
 30
0.0
 40
0.7
100
AcDbArc
 50
0.0
 51
45.0
  0
LINE
  5
596
330
1A
100
AcDbEntity
  8
ZUWAKU
100
AcDbLine
 10
12.90860582087759
 20
10.83750033944968
 30
0.0
 11
12.90860582087759
 21
11.71250033944968
 31
0.0
  0
ARC
  5
597
330
1A
100
AcDbEntity
  8
ZUWAKU
100
AcDbCircle
 10
13.17110582087758
 20
10.83750033944968
 30
0.0
 40
0.2625
100
AcDbArc
 50
180.0
 51
270.0
  0
ARC
  5
598
330
1A
100
AcDbEntity
  8
ZUWAKU
100
AcDbCircle
 10
13.17110582087758
 20
11.71250033944968
 30
0.0
 40
0.2625
100
AcDbArc
 50
90.0
 51
180.0
  0
LINE
  5
599
330
1A
100
AcDbEntity
  8
ZUWAKU
100
AcDbLine
 10
13.17110582087758
 20
10.57500033944968
 30
0.0
 11
14.92110582087758
 21
10.57500033944968
 31
0.0
  0
LINE
  5
59A
330
1A
100
AcDbEntity
  8
ZUWAKU
100
AcDbLine
 10
13.17110582087758
 20
11.97500033944968
 30
0.0
 11
14.65860582087759
 21
11.97500033944968
 31
0.0
  0
LINE
  5
59B
330
1A
100
AcDbEntity
  8
ZUWAKU
100
AcDbLine
 10
13.26118158038582
 20
14.83247508628027
 30
0.0
 11
14.71608056770816
 21
13.37757609895794
 31
0.0
  0
LINE
  5
59C
330
1A
100
AcDbEntity
  8
ZUWAKU
100
AcDbLine
 10
16.32110582087762
 20
11.97500033944968
 30
0.0
 11
16.32110582087762
 21
12.88260135212736
 31
0.0
  0
ARC
  5
59D
330
1A
100
AcDbEntity
  8
ZUWAKU
100
AcDbCircle
 10
19.47110582087759
 20
12.67500033944969
 30
0.0
 40
0.7
100
AcDbArc
 50
180.0
 51
270.0
  0
ARC
  5
59E
330
1A
100
AcDbEntity
  8
ZUWAKU
100
AcDbCircle
 10
15.79610582087758
 20
18.36250033944968
 30
0.0
 40
0.2625
100
AcDbArc
 50
0.0
 51
90.0
  0
ARC
  5
59F
330
1A
100
AcDbEntity
  8
ZUWAKU
100
AcDbCircle
 10
15.79610582087758
 20
17.48750033944968
 30
0.0
 40
0.2625
100
AcDbArc
 50
270.0
 51
0.0
  0
LINE
  5
5A0
330
1A
100
AcDbEntity
  8
ZUWAKU
100
AcDbLine
 10
14.04610582087758
 20
18.62500033944969
 30
0.0
 11
15.79610582087758
 21
18.62500033944969
 31
0.0
  0
ARC
  5
5A1
330
1A
100
AcDbEntity
  8
ZUWAKU
100
AcDbCircle
 10
14.30860582087757
 20
16.96250033944968
 30
0.0
 40
0.2625
100
AcDbArc
 50
90.0
 51
180.0
  0
LINE
  5
5A2
330
1A
100
AcDbEntity
  8
ZUWAKU
100
AcDbLine
 10
14.04610582087758
 20
16.96250033944968
 30
0.0
 11
14.04610582087758
 21
16.31739932677201
 31
0.0
  0
LINE
  5
5A3
330
1A
100
AcDbEntity
  8
ZUWAKU
100
AcDbLine
 10
15.79610582087758
 20
17.22500033944968
 30
0.0
 11
14.30860582087757
 21
17.22500033944968
 31
0.0
  0
LINE
  5
5A4
330
1A
100
AcDbEntity
  8
ZUWAKU
100
AcDbLine
 10
12.64610582087761
 20
17.22500033944968
 30
0.0
 11
12.64610582087761
 21
16.31739932677201
 31
0.0
  0
ARC
  5
5A5
330
1A
100
AcDbEntity
  8
ZUWAKU
100
AcDbCircle
 10
14.04610582087758
 20
17.22500033944968
 30
0.0
 40
1.399999999999999
100
AcDbArc
 50
90.0
 51
180.0
  0
LINE
  5
5A6
330
1A
100
AcDbEntity
  8
ZUWAKU
100
AcDbLine
 10
16.05860582087757
 20
18.36250033944968
 30
0.0
 11
16.05860582087757
 21
17.48750033944968
 31
0.0
  0
ARC
  5
5A7
330
1A
100
AcDbEntity
  8
ZUWAKU
100
AcDbCircle
 10
19.47110582087759
 20
16.52500033944968
 30
0.0
 40
0.7
100
AcDbArc
 50
90.0
 51
180.0
  0
ARC
  5
5A8
330
1A
100
AcDbEntity
  8
ZUWAKU
100
AcDbCircle
 10
19.47110582087759
 20
16.52500033944966
 30
0.0
 40
2.099999999999999
100
AcDbArc
 50
90.0
 51
180.0
  0
LINE
  5
5A9
330
1A
100
AcDbEntity
  8
ZUWAKU
100
AcDbLine
 10
46.66331451748113
 20
22.00000033944968
 30
0.0
 11
46.66331451748123
 21
7.400000339449718
 31
0.0
  0
LINE
  5
5AA
330
1A
100
AcDbEntity
  8
ZUWAKU
100
AcDbLine
 10
46.76331451748114
 20
22.00000033944968
 30
0.0
 11
46.76331451748126
 21
7.400000339449718
 31
0.0
  0
LINE
  5
5AB
330
1A
100
AcDbEntity
  8
ZUWAKU
100
AcDbLine
 10
46.56331451748122
 20
22.00000033944968
 30
0.0
 11
46.56331451748122
 21
7.400000339449718
 31
0.0
  0
LINE
  5
5AC
330
1A
100
AcDbEntity
  8
ZUWAKU
100
AcDbLine
 10
39.07110582087762
 20
11.97500033944968
 30
0.0
 11
39.07110582087762
 21
18.36250033944968
 31
0.0
  0
LINE
  5
5AD
330
1A
100
AcDbEntity
  8
ZUWAKU
100
AcDbLine
 10
37.67110582087759
 20
18.36250033944968
 30
0.0
 11
37.67110582087759
 21
12.50000033944968
 31
0.0
  0
LINE
  5
5AE
330
1A
100
AcDbEntity
  8
ZUWAKU
100
AcDbLine
 10
41.5211058208776
 20
10.83750033944968
 30
0.0
 11
41.5211058208776
 21
18.36250033944968
 31
0.0
  0
LINE
  5
5AF
330
1A
100
AcDbEntity
  8
ZUWAKU
100
AcDbLine
 10
40.12110582087757
 20
18.36250033944968
 30
0.0
 11
40.12110582087757
 21
10.83750033944968
 31
0.0
  0
ARC
  5
5B0
330
1A
100
AcDbEntity
  8
ZUWAKU
100
AcDbCircle
 10
31.89610582087761
 20
16.31739932677203
 30
0.0
 40
0.7
100
AcDbArc
 50
180.0000000000016
 51
224.9999999999988
  0
ARC
  5
5B1
330
1A
100
AcDbEntity
  8
ZUWAKU
100
AcDbCircle
 10
31.89610582087761
 20
16.31739932677203
 30
0.0
 40
2.099999999999999
100
AcDbArc
 50
180.0
 51
225.0
  0
LINE
  5
5B2
330
1A
100
AcDbEntity
  8
ZUWAKU
100
AcDbLine
 10
25.65742906196658
 20
16.6025239362314
 30
0.0
 11
25.02505318929866
 21
14.60000033944969
 31
0.0
  0
LINE
  5
5B3
330
1A
100
AcDbEntity
  8
ZUWAKU
100
AcDbLine
 10
27.3461058208776
 20
18.36250033944968
 30
0.0
 11
27.3461058208776
 21
10.83750033944968
 31
0.0
  0
LINE
  5
5B4
330
1A
100
AcDbEntity
  8
ZUWAKU
100
AcDbLine
 10
28.74610582087758
 20
10.83750033944968
 30
0.0
 11
28.74610582087758
 21
18.36250033944968
 31
0.0
  0
LINE
  5
5B5
330
1A
100
AcDbEntity
  8
ZUWAKU
100
AcDbLine
 10
34.52110582087761
 20
18.36250033944968
 30
0.0
 11
34.52110582087761
 21
11.97500033944968
 31
0.0
  0
LINE
  5
5B6
330
1A
100
AcDbEntity
  8
ZUWAKU
100
AcDbLine
 10
35.92110582087759
 20
12.50000033944968
 30
0.0
 11
35.92110582087759
 21
18.36250033944968
 31
0.0
  0
LINE
  5
5B7
330
1A
100
AcDbEntity
  8
ZUWAKU
100
AcDbLine
 10
23.32110582087762
 20
15.56250033944969
 30
0.0
 11
23.32110582087762
 21
18.36250033944968
 31
0.0
  0
LINE
  5
5B8
330
1A
100
AcDbEntity
  8
ZUWAKU
100
AcDbLine
 10
21.92110582087758
 20
18.36250033944968
 30
0.0
 11
21.92110582087758
 21
10.83750033944968
 31
0.0
  0
LINE
  5
5B9
330
1A
100
AcDbEntity
  8
ZUWAKU
100
AcDbLine
 10
24.83817328953552
 20
18.44154732353317
 30
0.0
 11
23.90403835221963
 21
15.4834533553662
 31
0.0
  0
LINE
  5
5BA
330
1A
100
AcDbEntity
  8
ZUWAKU
100
AcDbLine
 10
37.14610582087761
 20
11.97500033944968
 30
0.0
 11
36.44610582087762
 21
11.97500033944968
 31
0.0
  0
LINE
  5
5BB
330
1A
100
AcDbEntity
  8
ZUWAKU
100
AcDbLine
 10
35.92110582087759
 20
10.57500033944968
 30
0.0
 11
37.67110582087759
 21
10.57500033944968
 31
0.0
  0
LINE
  5
5BC
330
1A
100
AcDbEntity
  8
ZUWAKU
100
AcDbLine
 10
27.60860582087758
 20
10.57500033944968
 30
0.0
 11
28.48360582087759
 21
10.57500033944968
 31
0.0
  0
LINE
  5
5BD
330
1A
100
AcDbEntity
  8
ZUWAKU
100
AcDbLine
 10
24.83817328953552
 20
10.7584533553662
 30
0.0
 11
23.90403835221963
 21
13.71654732353317
 31
0.0
  0
ARC
  5
5BE
330
1A
100
AcDbEntity
  8
ZUWAKU
100
AcDbCircle
 10
23.65372290262195
 20
15.56250033944969
 30
0.0
 40
0.2625
100
AcDbArc
 50
270.0
 51
342.474431626277
  0
LINE
  5
5BF
330
1A
100
AcDbEntity
  8
ZUWAKU
100
AcDbLine
 10
23.65372290262195
 20
15.30000033944968
 30
0.0
 11
23.58360582087761
 21
15.30000033944968
 31
0.0
  0
LINE
  5
5C0
330
1A
100
AcDbEntity
  8
ZUWAKU
100
AcDbLine
 10
23.58360582087761
 20
13.90000033944968
 30
0.0
 11
23.65372290262195
 21
13.90000033944968
 31
0.0
  0
ARC
  5
5C1
330
1A
100
AcDbEntity
  8
ZUWAKU
100
AcDbCircle
 10
23.58360582087761
 20
15.56250033944969
 30
0.0
 40
0.2625
100
AcDbArc
 50
180.0
 51
270.0
  0
LINE
  5
5C2
330
1A
100
AcDbEntity
  8
ZUWAKU
100
AcDbLine
 10
22.18360582087758
 20
10.57500033944968
 30
0.0
 11
23.05860582087758
 21
10.57500033944968
 31
0.0
  0
ARC
  5
5C3
330
1A
100
AcDbEntity
  8
ZUWAKU
100
AcDbCircle
 10
23.05860582087758
 20
10.83750033944968
 30
0.0
 40
0.2625
100
AcDbArc
 50
270.0
 51
0.0
  0
LINE
  5
5C4
330
1A
100
AcDbEntity
  8
ZUWAKU
100
AcDbLine
 10
23.32110582087762
 20
10.83750033944968
 30
0.0
 11
23.32110582087762
 21
13.63750033944969
 31
0.0
  0
LINE
  5
5C5
330
1A
100
AcDbEntity
  8
ZUWAKU
100
AcDbLine
 10
20.69610582087762
 20
11.71250033944968
 30
0.0
 11
20.69610582087762
 21
10.83750033944968
 31
0.0
  0
ARC
  5
5C6
330
1A
100
AcDbEntity
  8
ZUWAKU
100
AcDbCircle
 10
20.43360582087757
 20
10.83750033944968
 30
0.0
 40
0.2625
100
AcDbArc
 50
270.0
 51
0.0
  0
ARC
  5
5C7
330
1A
100
AcDbEntity
  8
ZUWAKU
100
AcDbCircle
 10
20.43360582087757
 20
11.71250033944968
 30
0.0
 40
0.2625
100
AcDbArc
 50
0.0
 51
90.0
  0
ARC
  5
5C8
330
1A
100
AcDbEntity
  8
ZUWAKU
100
AcDbCircle
 10
22.18360582087758
 20
10.83750033944968
 30
0.0
 40
0.2625
100
AcDbArc
 50
180.0
 51
270.0
  0
ARC
  5
5C9
330
1A
100
AcDbEntity
  8
ZUWAKU
100
AcDbCircle
 10
23.65372290262195
 20
13.63750033944969
 30
0.0
 40
0.2625
100
AcDbArc
 50
17.52556837372303
 51
90.0
  0
ARC
  5
5CA
330
1A
100
AcDbEntity
  8
ZUWAKU
100
AcDbCircle
 10
23.58360582087761
 20
13.63750033944969
 30
0.0
 40
0.2625
100
AcDbArc
 50
90.0
 51
180.0
  0
ARC
  5
5CB
330
1A
100
AcDbEntity
  8
ZUWAKU
100
AcDbCircle
 10
27.60860582087758
 20
10.83750033944968
 30
0.0
 40
0.2625
100
AcDbArc
 50
180.0
 51
270.0
  0
LINE
  5
5CC
330
1A
100
AcDbEntity
  8
ZUWAKU
100
AcDbLine
 10
25.08848873913326
 20
10.57500033944968
 30
0.0
 11
25.93793342893775
 21
10.57500033944968
 31
0.0
  0
ARC
  5
5CD
330
1A
100
AcDbEntity
  8
ZUWAKU
100
AcDbCircle
 10
25.93793342893775
 20
10.83750033944968
 30
0.0
 40
0.2625
100
AcDbArc
 50
270.0
 51
17.52556837372303
  0
LINE
  5
5CE
330
1A
100
AcDbEntity
  8
ZUWAKU
100
AcDbLine
 10
26.18824887853549
 20
10.91654732353317
 30
0.0
 11
25.02505318929866
 21
14.60000033944969
 31
0.0
  0
ARC
  5
5CF
330
1A
100
AcDbEntity
  8
ZUWAKU
100
AcDbCircle
 10
25.08848873913326
 20
10.83750033944968
 30
0.0
 40
0.2625
100
AcDbArc
 50
197.525568373723
 51
270.0
  0
ARC
  5
5D0
330
1A
100
AcDbEntity
  8
ZUWAKU
100
AcDbCircle
 10
35.92110582087759
 20
11.97500033944968
 30
0.0
 40
1.399999999999999
100
AcDbArc
 50
180.0
 51
270.0
  0
ARC
  5
5D1
330
1A
100
AcDbEntity
  8
ZUWAKU
100
AcDbCircle
 10
32.07110582087762
 20
11.97500033944968
 30
0.0
 40
1.399999999999999
100
AcDbArc
 50
270.0
 51
0.0
  0
LINE
  5
5D2
330
1A
100
AcDbEntity
  8
ZUWAKU
100
AcDbLine
 10
32.85603006136938
 20
14.3675255926191
 30
0.0
 11
31.40113107404699
 21
15.82242457994144
 31
0.0
  0
LINE
  5
5D3
330
1A
100
AcDbEntity
  8
ZUWAKU
100
AcDbLine
 10
32.07110582087762
 20
12.23750033944969
 30
0.0
 11
32.07110582087762
 21
12.88260135212736
 31
0.0
  0
ARC
  5
5D4
330
1A
100
AcDbEntity
  8
ZUWAKU
100
AcDbCircle
 10
31.37110582087757
 20
12.88260135212736
 30
0.0
 40
0.7
100
AcDbArc
 50
0.0
 51
45.0
  0
ARC
  5
5D5
330
1A
100
AcDbEntity
  8
ZUWAKU
100
AcDbCircle
 10
31.80860582087758
 20
12.23750033944969
 30
0.0
 40
0.2625
100
AcDbArc
 50
270.0
 51
0.0
  0
LINE
  5
5D6
330
1A
100
AcDbEntity
  8
ZUWAKU
100
AcDbLine
 10
30.05860582087758
 20
10.83750033944968
 30
0.0
 11
30.05860582087758
 21
11.71250033944968
 31
0.0
  0
ARC
  5
5D7
330
1A
100
AcDbEntity
  8
ZUWAKU
100
AcDbCircle
 10
30.32110582087762
 20
10.83750033944968
 30
0.0
 40
0.2625
100
AcDbArc
 50
180.0
 51
270.0
  0
ARC
  5
5D8
330
1A
100
AcDbEntity
  8
ZUWAKU
100
AcDbCircle
 10
28.48360582087759
 20
10.83750033944968
 30
0.0
 40
0.2625
100
AcDbArc
 50
270.0
 51
0.0
  0
ARC
  5
5D9
330
1A
100
AcDbEntity
  8
ZUWAKU
100
AcDbCircle
 10
30.32110582087762
 20
11.71250033944968
 30
0.0
 40
0.2625
100
AcDbArc
 50
90.0
 51
180.0
  0
LINE
  5
5DA
330
1A
100
AcDbEntity
  8
ZUWAKU
100
AcDbLine
 10
30.32110582087762
 20
11.97500033944968
 30
0.0
 11
31.80860582087758
 21
11.97500033944968
 31
0.0
  0
LINE
  5
5DB
330
1A
100
AcDbEntity
  8
ZUWAKU
100
AcDbLine
 10
30.32110582087762
 20
10.57500033944968
 30
0.0
 11
32.07110582087762
 21
10.57500033944968
 31
0.0
  0
LINE
  5
5DC
330
1A
100
AcDbEntity
  8
ZUWAKU
100
AcDbLine
 10
30.41118158038586
 20
14.83247508628027
 30
0.0
 11
31.8660805677082
 21
13.37757609895794
 31
0.0
  0
LINE
  5
5DD
330
1A
100
AcDbEntity
  8
ZUWAKU
100
AcDbLine
 10
33.4711058208776
 20
11.97500033944968
 30
0.0
 11
33.4711058208776
 21
12.88260135212736
 31
0.0
  0
ARC
  5
5DE
330
1A
100
AcDbEntity
  8
ZUWAKU
100
AcDbCircle
 10
31.37110582087757
 20
12.88260135212734
 30
0.0
 40
2.099999999999999
100
AcDbArc
 50
0.0
 51
45.0
  0
ARC
  5
5DF
330
1A
100
AcDbEntity
  8
ZUWAKU
100
AcDbCircle
 10
36.44610582087762
 20
12.50000033944968
 30
0.0
 40
0.525
100
AcDbArc
 50
180.0
 51
270.0
  0
ARC
  5
5E0
330
1A
100
AcDbEntity
  8
ZUWAKU
100
AcDbCircle
 10
37.67110582087759
 20
11.97500033944968
 30
0.0
 40
1.399999999999999
100
AcDbArc
 50
270.0
 51
0.0
  0
LINE
  5
5E1
330
1A
100
AcDbEntity
  8
ZUWAKU
100
AcDbLine
 10
40.38360582087761
 20
10.57500033944968
 30
0.0
 11
41.25860582087762
 21
10.57500033944968
 31
0.0
  0
ARC
  5
5E2
330
1A
100
AcDbEntity
  8
ZUWAKU
100
AcDbCircle
 10
40.38360582087761
 20
10.83750033944968
 30
0.0
 40
0.2625
100
AcDbArc
 50
180.0
 51
270.0
  0
ARC
  5
5E3
330
1A
100
AcDbEntity
  8
ZUWAKU
100
AcDbCircle
 10
37.14610582087761
 20
12.50000033944968
 30
0.0
 40
0.525
100
AcDbArc
 50
270.0
 51
0.0
  0
ARC
  5
5E4
330
1A
100
AcDbEntity
  8
ZUWAKU
100
AcDbCircle
 10
41.25860582087762
 20
10.83750033944968
 30
0.0
 40
0.2625
100
AcDbArc
 50
270.0
 51
0.0
  0
LINE
  5
5E5
330
1A
100
AcDbEntity
  8
ZUWAKU
100
AcDbLine
 10
28.48360582087759
 20
18.62500033944969
 30
0.0
 11
27.60860582087758
 21
18.62500033944969
 31
0.0
  0
ARC
  5
5E6
330
1A
100
AcDbEntity
  8
ZUWAKU
100
AcDbCircle
 10
23.05860582087758
 20
18.36250033944968
 30
0.0
 40
0.2625
100
AcDbArc
 50
0.0
 51
90.0
  0
LINE
  5
5E7
330
1A
100
AcDbEntity
  8
ZUWAKU
100
AcDbLine
 10
23.05860582087758
 20
18.62500033944969
 30
0.0
 11
22.18360582087758
 21
18.62500033944969
 31
0.0
  0
ARC
  5
5E8
330
1A
100
AcDbEntity
  8
ZUWAKU
100
AcDbCircle
 10
20.43360582087757
 20
18.36250033944968
 30
0.0
 40
0.2625
100
AcDbArc
 50
0.0
 51
90.0
  0
ARC
  5
5E9
330
1A
100
AcDbEntity
  8
ZUWAKU
100
AcDbCircle
 10
22.18360582087758
 20
18.36250033944968
 30
0.0
 40
0.2625
100
AcDbArc
 50
90.0
 51
180.0
  0
ARC
  5
5EA
330
1A
100
AcDbEntity
  8
ZUWAKU
100
AcDbCircle
 10
20.43360582087757
 20
17.48750033944968
 30
0.0
 40
0.2625
100
AcDbArc
 50
270.0
 51
0.0
  0
LINE
  5
5EB
330
1A
100
AcDbEntity
  8
ZUWAKU
100
AcDbLine
 10
20.69610582087762
 20
18.36250033944968
 30
0.0
 11
20.69610582087762
 21
17.48750033944968
 31
0.0
  0
ARC
  5
5EC
330
1A
100
AcDbEntity
  8
ZUWAKU
100
AcDbCircle
 10
27.60860582087758
 20
18.36250033944968
 30
0.0
 40
0.2625
100
AcDbArc
 50
90.0
 51
180.0
  0
LINE
  5
5ED
330
1A
100
AcDbEntity
  8
ZUWAKU
100
AcDbLine
 10
25.08848873913326
 20
18.62500033944969
 30
0.0
 11
25.93793342893775
 21
18.62500033944969
 31
0.0
  0
ARC
  5
5EE
330
1A
100
AcDbEntity
  8
ZUWAKU
100
AcDbCircle
 10
25.93793342893775
 20
18.36250033944968
 30
0.0
 40
0.2625
100
AcDbArc
 50
342.474431626277
 51
90.0
  0
LINE
  5
5EF
330
1A
100
AcDbEntity
  8
ZUWAKU
100
AcDbLine
 10
26.18824887853549
 20
18.2834533553662
 30
0.0
 11
25.65742906196658
 21
16.6025239362314
 31
0.0
  0
ARC
  5
5F0
330
1A
100
AcDbEntity
  8
ZUWAKU
100
AcDbCircle
 10
25.08848873913326
 20
18.36250033944968
 30
0.0
 40
0.2625
100
AcDbArc
 50
90.0
 51
162.474431626277
  0
LINE
  5
5F1
330
1A
100
AcDbEntity
  8
ZUWAKU
100
AcDbLine
 10
31.19610582087762
 20
18.62500033944969
 30
0.0
 11
32.94610582087762
 21
18.62500033944969
 31
0.0
  0
LINE
  5
5F2
330
1A
100
AcDbEntity
  8
ZUWAKU
100
AcDbLine
 10
32.94610582087762
 20
17.22500033944968
 30
0.0
 11
31.45860582087761
 21
17.22500033944968
 31
0.0
  0
ARC
  5
5F3
330
1A
100
AcDbEntity
  8
ZUWAKU
100
AcDbCircle
 10
31.45860582087761
 20
16.96250033944968
 30
0.0
 40
0.2625
100
AcDbArc
 50
90.0
 51
180.0
  0
LINE
  5
5F4
330
1A
100
AcDbEntity
  8
ZUWAKU
100
AcDbLine
 10
31.19610582087762
 20
16.96250033944968
 30
0.0
 11
31.19610582087762
 21
16.31739932677201
 31
0.0
  0
ARC
  5
5F5
330
1A
100
AcDbEntity
  8
ZUWAKU
100
AcDbCircle
 10
28.48360582087759
 20
18.36250033944968
 30
0.0
 40
0.2625
100
AcDbArc
 50
0.0
 51
90.0
  0
LINE
  5
5F6
330
1A
100
AcDbEntity
  8
ZUWAKU
100
AcDbLine
 10
29.79610582087758
 20
17.22500033944968
 30
0.0
 11
29.79610582087758
 21
16.31739932677201
 31
0.0
  0
ARC
  5
5F7
330
1A
100
AcDbEntity
  8
ZUWAKU
100
AcDbCircle
 10
31.19610582087762
 20
17.22500033944968
 30
0.0
 40
1.399999999999999
100
AcDbArc
 50
90.0
 51
180.0
  0
ARC
  5
5F8
330
1A
100
AcDbEntity
  8
ZUWAKU
100
AcDbCircle
 10
35.6586058208776
 20
18.36250033944968
 30
0.0
 40
0.2625
100
AcDbArc
 50
0.0
 51
90.0
  0
ARC
  5
5F9
330
1A
100
AcDbEntity
  8
ZUWAKU
100
AcDbCircle
 10
34.7836058208776
 20
18.36250033944968
 30
0.0
 40
0.2625
100
AcDbArc
 50
90.0
 51
180.0
  0
LINE
  5
5FA
330
1A
100
AcDbEntity
  8
ZUWAKU
100
AcDbLine
 10
35.6586058208776
 20
18.62500033944969
 30
0.0
 11
34.7836058208776
 21
18.62500033944969
 31
0.0
  0
ARC
  5
5FB
330
1A
100
AcDbEntity
  8
ZUWAKU
100
AcDbCircle
 10
32.94610582087762
 20
18.36250033944968
 30
0.0
 40
0.2625
100
AcDbArc
 50
0.0
 51
90.0
  0
ARC
  5
5FC
330
1A
100
AcDbEntity
  8
ZUWAKU
100
AcDbCircle
 10
32.94610582087762
 20
17.48750033944968
 30
0.0
 40
0.2625
100
AcDbArc
 50
270.0
 51
0.0
  0
LINE
  5
5FD
330
1A
100
AcDbEntity
  8
ZUWAKU
100
AcDbLine
 10
33.20860582087761
 20
18.36250033944968
 30
0.0
 11
33.20860582087761
 21
17.48750033944968
 31
0.0
  0
LINE
  5
5FE
330
1A
100
AcDbEntity
  8
ZUWAKU
100
AcDbLine
 10
41.25860582087762
 20
18.62500033944969
 30
0.0
 11
40.38360582087761
 21
18.62500033944969
 31
0.0
  0
ARC
  5
5FF
330
1A
100
AcDbEntity
  8
ZUWAKU
100
AcDbCircle
 10
40.38360582087761
 20
18.36250033944968
 30
0.0
 40
0.2625
100
AcDbArc
 50
90.0
 51
180.0
  0
ARC
  5
600
330
1A
100
AcDbEntity
  8
ZUWAKU
100
AcDbCircle
 10
38.80860582087758
 20
18.36250033944968
 30
0.0
 40
0.2625
100
AcDbArc
 50
0.0
 51
90.0
  0
LINE
  5
601
330
1A
100
AcDbEntity
  8
ZUWAKU
100
AcDbLine
 10
38.80860582087758
 20
18.62500033944969
 30
0.0
 11
37.93360582087757
 21
18.62500033944969
 31
0.0
  0
ARC
  5
602
330
1A
100
AcDbEntity
  8
ZUWAKU
100
AcDbCircle
 10
37.93360582087757
 20
18.36250033944968
 30
0.0
 40
0.2625
100
AcDbArc
 50
90.0
 51
180.0
  0
ARC
  5
603
330
1A
100
AcDbEntity
  8
ZUWAKU
100
AcDbCircle
 10
41.25860582087762
 20
18.36250033944968
 30
0.0
 40
0.2625
100
AcDbArc
 50
0.0
 51
90.0
  0
LINE
  5
606
330
1A
100
AcDbEntity
  8
ZUWAKU
100
AcDbLine
 10
111.123300388521
 20
22.00000033944968
 30
0.0
 11
111.123300388521
 21
7.400000339449718
 31
0.0
  0
LINE
  5
607
330
1A
100
AcDbEntity
  8
ZUWAKU
100
AcDbLine
 10
111.3233003885209
 20
22.00000033944968
 30
0.0
 11
111.323300388521
 21
7.400000339449718
 31
0.0
  0
LINE
  5
608
330
1A
100
AcDbEntity
  8
ZUWAKU
100
AcDbLine
 10
111.2233003885209
 20
22.00000033944968
 30
0.0
 11
111.223300388521
 21
7.400000339449718
 31
0.0
  0
TEXT
  5
609
330
1A
100
AcDbEntity
  8
ZUWAKU
100
AcDbText
 10
111.8620228996258
 20
11.82767860864249
 30
0.0
 40
2.0
  1
サイズ
 41
0.9
  7
MSPｺﾞｼｯｸ
100
AcDbText
  0
TEXT
  5
60A
330
1A
100
AcDbEntity
  8
ZUWAKU
100
AcDbText
 10
111.8620228996257
 20
19.02767860864247
 30
0.0
 40
2.0
  1
品名
 41
0.9
  7
MSPｺﾞｼｯｸ
100
AcDbText
  0
LINE
  5
60C
330
1A
100
AcDbEntity
  8
ZUWAKU
100
AcDbLine
 10
331.4086009985891
 20
14.6000003394497
 30
0.0
 11
355.6245050177576
 21
14.6000003394497
 31
0.0
  0
LINE
  5
60D
330
1A
100
AcDbEntity
  8
ZUWAKU
100
AcDbLine
 10
331.4086009985893
 20
14.7000003394497
 30
0.0
 11
355.6245050177576
 21
14.7000003394497
 31
0.0
  0
LINE
  5
60E
330
1A
100
AcDbEntity
  8
ZUWAKU
100
AcDbLine
 10
331.4086009985891
 20
14.8000003394497
 30
0.0
 11
355.6245050177576
 21
14.8000003394497
 31
0.0
  0
LINE
  5
610
330
1A
100
AcDbEntity
  8
ZUWAKU
100
AcDbLine
 10
259.5995894925575
 20
14.6000003394497
 30
0.0
 11
283.2634776265432
 21
14.6000003394497
 31
0.0
  0
LINE
  5
611
330
1A
100
AcDbEntity
  8
ZUWAKU
100
AcDbLine
 10
259.5995894925575
 20
14.7000003394497
 30
0.0
 11
283.2634776265432
 21
14.7000003394497
 31
0.0
  0
LINE
  5
612
330
1A
100
AcDbEntity
  8
ZUWAKU
100
AcDbLine
 10
259.5995894925575
 20
14.8000003394497
 30
0.0
 11
283.2634776265432
 21
14.8000003394497
 31
0.0
  0
TEXT
  5
613
330
1A
100
AcDbEntity
  8
moji
100
AcDbText
 10
238.7841524247673
 20
12.97130920027967
 30
0.0
 40
2.799999999999999
  1
ＰＦ９７□
 41
0.9
  7
MSPｺﾞｼｯｸ
100
AcDbText
  0
LINE
  5
614
330
1A
100
AcDbEntity
  8
ZUWAKU
100
AcDbLine
 10
230.8121817289826
 20
22.00000033944968
 30
0.0
 11
230.8121817289828
 21
7.400000339449718
 31
0.0
  0
LINE
  5
615
330
1A
100
AcDbEntity
  8
ZUWAKU
100
AcDbLine
 10
230.9121817289827
 20
22.00000033944968
 30
0.0
 11
230.9121817289828
 21
7.400000339449718
 31
0.0
  0
LINE
  5
616
330
1A
100
AcDbEntity
  8
ZUWAKU
100
AcDbLine
 10
230.7121817289827
 20
22.00000033944968
 30
0.0
 11
230.7121817289827
 21
7.400000339449718
 31
0.0
  0
TEXT
  5
617
330
1A
100
AcDbEntity
  8
moji
100
AcDbText
 10
271.0204537296434
 20
16.00246086815338
 30
0.0
 40
2.799999999999999
  1
Ａ３
 41
0.9
  7
MSPｺﾞｼｯｸ
100
AcDbText
  0
LINE
  5
618
330
1A
100
AcDbEntity
  8
ZUWAKU
100
AcDbLine
 10
259.4995894925574
 20
22.00000033944968
 30
0.0
 11
259.4995894925576
 21
7.400000339449718
 31
0.0
  0
LINE
  5
619
330
1A
100
AcDbEntity
  8
ZUWAKU
100
AcDbLine
 10
259.5995894925575
 20
22.00000033944968
 30
0.0
 11
259.5995894925576
 21
7.400000339449718
 31
0.0
  0
LINE
  5
61A
330
1A
100
AcDbEntity
  8
ZUWAKU
100
AcDbLine
 10
259.3995894925575
 20
22.00000033944968
 30
0.0
 11
259.3995894925575
 21
7.400000339449718
 31
0.0
  0
TEXT
  5
61B
330
1A
100
AcDbEntity
  8
ZUWAKU
100
AcDbText
 10
238.3468805712406
 20
8.30703579501943
 30
0.0
 40
1.5
  1
□には色品番が入ります
 41
0.9
  7
MSPｺﾞｼｯｸ
100
AcDbText
  0
TEXT
  5
61C
330
1A
100
AcDbEntity
  8
ZUWAKU
100
AcDbText
 10
260.3383120036624
 20
11.82767860864249
 30
0.0
 40
2.0
  1
縮尺
 41
0.9
  7
MSPｺﾞｼｯｸ
100
AcDbText
  0
TEXT
  5
61D
330
1A
100
AcDbEntity
  8
moji
100
AcDbText
 10
271.0204537296434
 20
8.602460868153395
 30
0.0
 40
2.799999999999999
  1
１/１
 41
0.9
  7
MSPｺﾞｼｯｸ
100
AcDbText
  0
TEXT
  5
61E
330
1A
100
AcDbEntity
  8
ZUWAKU
100
AcDbText
 10
231.6509042400875
 20
19.02767860864247
 30
0.0
 40
2.0
  1
品番
 41
0.9
  7
MSPｺﾞｼｯｸ
100
AcDbText
  0
TEXT
  5
61F
330
1A
100
AcDbEntity
  8
ZUWAKU
100
AcDbText
 10
260.3383120036623
 20
19.02767860864247
 30
0.0
 40
2.0
  1
用紙
 41
0.9
  7
MSPｺﾞｼｯｸ
100
AcDbText
  0
LINE
  5
620
330
1A
100
AcDbEntity
  8
ZUWAKU
100
AcDbLine
 10
331.3086009985892
 20
22.00000033944968
 30
0.0
 11
331.3086009985893
 21
7.400000339449718
 31
0.0
  0
LINE
  5
621
330
1A
100
AcDbEntity
  8
ZUWAKU
100
AcDbLine
 10
331.4086009985893
 20
22.00000033944968
 30
0.0
 11
331.4086009985893
 21
7.400000339449718
 31
0.0
  0
LINE
  5
622
330
1A
100
AcDbEntity
  8
ZUWAKU
100
AcDbLine
 10
331.2086009985893
 20
22.00000033944968
 30
0.0
 11
331.2086009985893
 21
7.400000339449718
 31
0.0
  0
LINE
  5
623
330
1A
100
AcDbEntity
  8
ZUWAKU
100
AcDbLine
 10
283.3634776265432
 20
22.00000033944968
 30
0.0
 11
283.3634776265433
 21
7.400000339449718
 31
0.0
  0
LINE
  5
624
330
1A
100
AcDbEntity
  8
ZUWAKU
100
AcDbLine
 10
283.4634776265432
 20
22.00000033944968
 30
0.0
 11
283.4634776265433
 21
7.400000339449718
 31
0.0
  0
LINE
  5
625
330
1A
100
AcDbEntity
  8
ZUWAKU
100
AcDbLine
 10
283.2634776265432
 20
22.00000033944968
 30
0.0
 11
283.2634776265432
 21
7.400000339449718
 31
0.0
  0
TEXT
  5
626
330
1A
100
AcDbEntity
  8
ZUWAKU
100
AcDbText
 10
332.1473235096941
 20
19.02767860864247
 30
0.0
 40
2.0
  1
DATE
 41
0.9
  7
MSPｺﾞｼｯｸ
100
AcDbText
  0
LINE
  5
627
330
1A
100
AcDbEntity
  8
ZUWAKU
100
AcDbLine
 10
355.6245050177576
 20
22.00000033944968
 30
0.0
 11
355.6245050177576
 21
7.400000339449718
 31
0.0
  0
LINE
  5
628
330
1A
100
AcDbEntity
  8
ZUWAKU
100
AcDbLine
 10
355.7245050177577
 20
22.00000033944968
 30
0.0
 11
355.7245050177577
 21
7.400000339449718
 31
0.0
  0
LINE
  5
629
330
1A
100
AcDbEntity
  8
ZUWAKU
100
AcDbLine
 10
355.8245050177576
 20
22.00000033944968
 30
0.0
 11
355.8245050177577
 21
7.400000339449718
 31
0.0
  0
LINE
  5
62A
330
1A
100
AcDbEntity
  8
ZUWAKU
100
AcDbLine
 10
355.9245050177576
 20
22.00000033944968
 30
0.0
 11
355.9245050177577
 21
7.400000339449718
 31
0.0
  0
TEXT
  5
149A
330
1A
100
AcDbEntity
  8
moji
100
AcDbText
 10
126.6730248442844
 20
16.4749905891615
 30
0.0
 40
2.799999999999999
  1
はいとい用落とし口　（高排水用）
 41
0.9
  7
MSPｺﾞｼｯｸ
100
AcDbText
  0
TEXT
  5
149B
330
1A
100
AcDbEntity
  8
moji
100
AcDbText
 10
126.3864265374658
 20
9.313206752988428
 30
0.0
 40
2.799999999999999
  1
Ｓ－Ｒ６０－Ｌ１００
 41
0.9
  7
MSPｺﾞｼｯｸ
100
AcDbText
  0
LINE
  5
42CD
330
1A
100
AcDbEntity
  8
SEIHIN
 48
0.3
100
AcDbLine
 10
108.0403289314858
 20
188.883721869772
 30
0.0
 11
108.0403289314858
 21
126.0324701853641
 31
0.0
  0
LINE
  5
42D0
330
1A
100
AcDbEntity
  8
SEIHIN
 48
0.3
100
AcDbLine
 10
68.04032893148587
 20
188.883721869772
 30
0.0
 11
68.04032893148587
 21
126.0324701853641
 31
0.0
  0
LINE
  5
42D1
330
1A
100
AcDbEntity
  8
SEIHIN
 48
0.3
100
AcDbLine
 10
229.6629562271007
 20
188.883721869772
 30
0.0
 11
229.6629562271007
 21
137.9038529989478
 31
0.0
  0
LINE
  5
42D4
330
1A
100
AcDbEntity
  8
SEIHIN
 48
0.3
100
AcDbLine
 10
164.6629562271007
 20
126.0324701853641
 30
0.0
 11
164.6629562271007
 21
188.883721869772
 31
0.0
  0
LINE
  5
4329
330
1A
100
AcDbEntity
  8
SEIHIN
 48
0.3
100
AcDbLine
 10
68.67541220044859
 20
103.883721869772
 30
0.0
 11
107.4052456625227
 21
103.883721869772
 31
0.0
  0
LINE
  5
432C
330
1A
100
AcDbEntity
  8
SEIHIN
 48
0.3
100
AcDbLine
 10
68.04032893148587
 20
126.0324701853641
 30
0.0
 11
68.04032893148565
 21
108.883721869772
 31
0.0
  0
ARC
  5
432D
330
1A
100
AcDbEntity
  8
SEIHIN
 48
0.3
100
AcDbCircle
 10
88.04032893148564
 20
108.883721869772
 30
0.0
 40
20.0
100
AcDbArc
 50
180.0
 51
194.4775121859306
  0
LINE
  5
4330
330
1A
100
AcDbEntity
  8
SEIHIN
 48
0.3
100
AcDbLine
 10
108.0403289314858
 20
126.0324701853641
 30
0.0
 11
108.0403289314856
 21
108.883721869772
 31
0.0
  0
ARC
  5
4331
330
1A
100
AcDbEntity
  8
SEIHIN
 48
0.3
100
AcDbCircle
 10
88.04032893148564
 20
108.883721869772
 30
0.0
 40
20.0
100
AcDbArc
 50
345.5224878140693
 51
0.0
  0
ARC
  5
4332
330
1A
100
AcDbEntity
  8
SEIHIN
 48
0.3
100
AcDbCircle
 10
170.6629562271007
 20
74.83143947593362
 30
0.0
 40
6.0
100
AcDbArc
 50
90.0
 51
180.0
  0
LINE
  5
4333
330
1A
100
AcDbEntity
  8
SEIHIN
 48
0.3
100
AcDbLine
 10
234.6629562271007
 20
80.19635620697078
 30
0.0
 11
234.6629562271007
 21
78.11725089880269
 31
0.0
  0
LWPOLYLINE
  5
4334
330
1A
100
AcDbEntity
  8
SEIHIN
 48
0.3
100
AcDbPolyline
 90
       45
 70
     0
 43
0.0
 10
234.6629562271007
 20
41.46652274489662
 10
230.0120156567839
 20
41.83183978129983
 10
225.3673052765032
 20
42.28720904751213
 10
220.7272441356013
 20
42.83932600946008
 10
216.0985143385557
 20
43.49613455595755
 10
211.4971039315599
 20
44.26650460011285
 10
206.915754752591
 20
45.16699730517456
 10
202.3695653120719
 20
46.21651839437845
 10
197.8617718311049
 20
47.44655219818418
 10
194.9439323562161
 20
48.36923458149897
 10
192.060109841508
 20
49.406261176746
 10
189.211791632594
 20
50.58958397092618
 10
186.4340418319897
 20
51.95620970538755
 10
185.1050585049455
 20
52.71490034254441
 10
183.8139925537966
 20
53.54366502305743
 10
182.5651496081884
 20
54.46473805282977
 10
181.3899472265841
 20
55.49334976812355
 10
180.5268713057751
 20
56.41251674829215
 10
179.7653271260566
 20
57.43662662219055
 10
179.1691684942268
 20
58.5505735209249
 10
178.7817686894325
 20
59.79871239886904
 10
178.6837455611219
 20
60.70248912910722
 10
178.742697834309
 20
61.63655691954637
 10
178.9492211627274
 20
62.52166665893486
 10
179.2935857980078
 20
63.38605073923969
 10
180.0350721577224
 20
64.6220456353086
 10
180.9829447722703
 20
65.75884430714859
 10
181.9861593934306
 20
66.71599946024071
 10
183.0753314510283
 20
67.59160597823655
 10
184.2402297096253
 20
68.40461037206705
 10
185.4523139139589
 20
69.15436893001333
 10
186.8942181296604
 20
69.9514408506377
 10
188.3725308153808
 20
70.68632712488647
 10
191.417523215928
 20
72.00516883722389
 10
194.5088942227478
 20
73.14590605505419
 10
197.6530401990956
 20
74.15396778708475
 10
200.8449292036341
 20
75.0537406712965
 10
204.0654716208351
 20
75.85800647858036
 10
207.2812571243016
 20
76.57312921045536
 10
210.5142560171777
 20
77.21511331741874
 10
217.0253916072186
 20
78.3072937980487
 10
221.4150539342991
 20
78.91185770172729
 10
225.8184915024413
 20
79.42404708601384
 10
230.236422284994
 20
79.85070175361773
 10
234.6629562271007
 20
80.19635620697078
  0
LINE
  5
4336
330
1A
100
AcDbEntity
  8
SEIHIN
 48
0.3
100
AcDbLine
 10
170.6629562271007
 20
40.83143947593362
 30
0.0
 11
234.6629562271007
 21
40.83143947593367
 31
0.0
  0
LWPOLYLINE
  5
4337
330
1A
100
AcDbEntity
  8
SEIHIN
 48
0.3
100
AcDbPolyline
 90
       42
 70
     0
 43
0.0
 10
234.6629562271007
 20
43.54562805306477
 10
230.6476864767791
 20
43.89664089368625
 10
226.6384527508063
 20
44.32491302569184
 10
222.6339710978915
 20
44.83649606403804
 10
218.6400651412471
 20
45.43847321677617
 10
214.5382876431156
 20
46.1639386520074
 10
210.4562708810197
 20
47.01059238346386
 10
206.4089978292429
 20
47.99707021813378
 10
202.4001999596334
 20
49.15496968425498
 10
200.2510550908096
 20
49.86935401858278
 10
198.1251403184784
 20
50.65734948095126
 10
196.0236457177023
 20
51.53597579704217
 10
193.964786558063
 20
52.52320728889208
 10
191.8412815251408
 20
53.7279334829098
 10
190.8161667581689
 20
54.40779180691362
 10
189.830287853233
 20
55.15030248413217
 10
188.6631008443366
 20
56.19973074142331
 10
187.627949262561
 20
57.41244027547264
 10
187.0885193990722
 20
58.27401311921801
 10
186.6760255424174
 20
59.22689077709645
 10
186.4745144512981
 20
60.0388267747229
 10
186.4100360102741
 20
60.89636042914083
 10
186.4929193459743
 20
61.72935179491088
 10
186.7190504102639
 20
62.56042224033945
 10
187.1927900611602
 20
63.57716815143089
 10
187.8391412627098
 20
64.53198330674547
 10
188.4812828158732
 20
65.27543592529127
 10
189.1905853657309
 20
65.9664331506109
 10
190.770229059345
 20
67.22265009371949
 10
191.9979694424514
 20
68.03227902426579
 10
193.2746871938507
 20
68.77274664418678
 10
195.9433361533398
 20
70.09098809413922
 10
198.5963842124533
 20
71.18809956841483
 10
201.3081605479847
 20
72.15423478144578
 10
204.0721308502902
 20
73.01582903729855
 10
206.8665917641419
 20
73.78569802166521
 10
212.4590463816432
 20
75.08454675440248
 10
218.1152010313738
 20
76.13793202405168
 10
222.229340417746
 20
76.76972772004024
 10
226.3595255695527
 20
77.30512953138213
 10
230.5063483682991
 20
77.75249347813485
 10
234.6629562271007
 20
78.11725089880269
  0
LINE
  5
4338
330
1A
100
AcDbEntity
  8
SEIHIN
 48
0.3
100
AcDbLine
 10
164.6629562271007
 20
46.83143947593362
 30
0.0
 11
164.6629562271007
 21
74.83143947593362
 31
0.0
  0
ARC
  5
4339
330
1A
100
AcDbEntity
  8
SEIHIN
 48
0.3
100
AcDbCircle
 10
170.6629562271007
 20
46.83143947593362
 30
0.0
 40
6.000000000000001
100
AcDbArc
 50
180.0
 51
270.0
  0
LINE
  5
433A
330
1A
100
AcDbEntity
  8
SEIHIN
 48
0.3
100
AcDbLine
 10
234.6629562271007
 20
46.83143947593362
 30
0.0
 11
234.6629562271007
 21
74.83143947593362
 31
0.0
  0
LINE
  5
433B
330
1A
100
AcDbEntity
  8
SEIHIN
 48
0.3
100
AcDbLine
 10
227.6629562271007
 20
46.83143947593362
 30
0.0
 11
227.6629562271007
 21
74.83143947593362
 31
0.0
  0
LINE
  5
433C
330
1A
100
AcDbEntity
  8
SEIHIN
 48
0.3
100
AcDbLine
 10
234.6629562271007
 20
46.83143947593362
 30
0.0
 11
234.6629562271007
 21
42.83143947593361
 31
0.0
  0
ARC
  5
433D
330
1A
100
AcDbEntity
  8
SEIHIN
 48
0.3
100
AcDbCircle
 10
223.6629562271005
 20
46.83143947593367
 30
0.0
 40
4.000000000000198
100
AcDbArc
 50
320.6445897122839
 51
0.0
  0
LINE
  5
433E
330
1A
100
AcDbEntity
  8
SEIHIN
 48
0.3
100
AcDbLine
 10
234.6629562271007
 20
43.54562805306477
 30
0.0
 11
234.6629562271007
 21
41.46652274489662
 31
0.0
  0
LINE
  5
433F
330
1A
100
AcDbEntity
  8
SEIHIN
 48
0.3
100
AcDbLine
 10
234.6629562271007
 20
40.83143947593367
 30
0.0
 11
234.6629562271007
 21
41.46652274489662
 31
0.0
  0
ARC
  5
4342
330
1A
100
AcDbEntity
  8
SEIHIN
 48
0.3
100
AcDbCircle
 10
223.6629562271001
 20
74.83143947593339
 30
0.0
 40
4.000000000000616
100
AcDbArc
 50
0.0000000000032569
 51
39.31091311854509
  0
LINE
  5
4343
330
1A
100
AcDbEntity
  8
SEIHIN
 48
0.3
100
AcDbLine
 10
234.6629562271007
 20
74.83143947593362
 30
0.0
 11
234.6629562271007
 21
78.14771957611743
 31
0.0
  0
LINE
  5
4344
330
1A
100
AcDbEntity
  8
SEIHIN
 48
0.3
100
AcDbLine
 10
170.6629562271007
 20
80.83143947593361
 30
0.0
 11
234.6629562271007
 21
80.83143947593374
 31
0.0
  0
LINE
  5
4345
330
1A
100
AcDbEntity
  8
SEIHIN
 48
0.3
100
AcDbLine
 10
178.6918814819682
 20
103.883721869772
 30
0.0
 11
234.6629562271007
 21
103.883721869772
 31
0.0
  0
LINE
  5
4346
330
1A
100
AcDbEntity
  8
SEIHIN
 48
0.3
100
AcDbLine
 10
178.4119255099876
 20
123.9561401238409
 30
0.0
 11
229.4079230600239
 21
110.291803763089
 31
0.0
  0
LINE
  5
4347
330
1A
100
AcDbEntity
  8
SEIHIN
 48
0.3
100
AcDbLine
 10
169.1100419564856
 20
106.4485723100903
 30
0.0
 11
178.6912325513334
 21
103.881300027672
 31
0.0
  0
LINE
  5
4349
330
1A
100
AcDbEntity
  8
SEIHIN
 48
0.3
100
AcDbLine
 10
164.6629562271007
 20
112.2441272678246
 30
0.0
 11
164.6629562271007
 21
126.0324701853641
 31
0.0
  0
ARC
  5
434A
330
1A
100
AcDbEntity
  8
SEIHIN
 48
0.3
100
AcDbCircle
 10
170.6629562271007
 20
112.2441272743579
 30
0.0
 40
6.000000000000015
100
AcDbArc
 50
179.9999992193369
 51
254.995001480364
  0
LINE
  5
434C
330
1A
100
AcDbEntity
  8
SEIHIN
 48
0.3
100
AcDbLine
 10
234.6629562271007
 20
80.19635620697078
 30
0.0
 11
234.6629562271007
 21
80.83143947593374
 31
0.0
  0
LINE
  5
434D
330
1A
100
AcDbEntity
  8
SEIHIN
 48
0.3
100
AcDbLine
 10
234.6629562271007
 20
129.4125134137065
 30
0.0
 11
234.6629562271007
 21
108.883721869772
 31
0.0
  0
LINE
  5
434E
330
1A
100
AcDbEntity
  8
SEIHIN
 48
0.3
100
AcDbLine
 10
234.6629562271007
 20
129.4125134137065
 30
0.0
 11
234.6629562271007
 21
108.883721869772
 31
0.0
  0
LINE
  5
434F
330
1A
100
AcDbEntity
  8
SEIHIN
 48
0.3
100
AcDbLine
 10
234.6629562271007
 20
103.883721869772
 30
0.0
 11
234.6629562271007
 21
108.883721869772
 31
0.0
  0
LINE
  5
4350
330
1A
100
AcDbEntity
  8
SEIHIN
 48
0.3
100
AcDbLine
 10
234.6629562271007
 20
133.7266523844168
 30
0.0
 11
234.6629562271007
 21
129.4125134137065
 31
0.0
  0
LINE
  5
4351
330
1A
100
AcDbEntity
  8
SEIHIN
 48
0.3
100
AcDbLine
 10
234.6629562271007
 20
135.883721869772
 30
0.0
 11
234.6629562271007
 21
129.4125134137065
 31
0.0
  0
LINE
  5
4353
330
1A
100
AcDbEntity
  8
SEIHIN
 48
0.3
100
AcDbLine
 10
229.6629562271007
 20
137.9038529989478
 30
0.0
 11
234.6629562271007
 21
135.883721869772
 31
0.0
  0
LINE
  5
4354
330
1A
100
AcDbEntity
  8
SEIHIN
 48
0.3
100
AcDbLine
 10
224.8089509082336
 20
134.6297850705735
 30
0.0
 11
228.8994300793181
 21
137.3888481094365
 31
0.0
  0
LINE
  5
4355
330
1A
100
AcDbEntity
  8
SEIHIN
 48
0.3
100
AcDbLine
 10
74.04032893148587
 20
188.883721869772
 30
0.0
 11
68.04032893148587
 21
188.883721869772
 31
0.0
  0
LINE
  5
4356
330
1A
100
AcDbEntity
  8
SEIHIN
 48
0.3
100
AcDbLine
 10
102.0403289314858
 20
188.883721869772
 30
0.0
 11
108.0403289314858
 21
188.883721869772
 31
0.0
  0
LINE
  5
4357
330
1A
100
AcDbEntity
  8
SEIHIN
 48
0.3
100
AcDbLine
 10
74.04032893148587
 20
188.883721869772
 30
0.0
 11
102.0403289314858
 21
188.883721869772
 31
0.0
  0
LINE
  5
4358
330
1A
100
AcDbEntity
  8
SEIHIN
 48
0.3
100
AcDbLine
 10
170.6629562271007
 20
188.883721869772
 30
0.0
 11
223.6629562271007
 21
188.883721869772
 31
0.0
  0
LINE
  5
4359
330
1A
100
AcDbEntity
  8
SEIHIN
 48
0.3
100
AcDbLine
 10
164.6629562271007
 20
188.883721869772
 30
0.0
 11
170.6629562271007
 21
188.883721869772
 31
0.0
  0
LINE
  5
435A
330
1A
100
AcDbEntity
  8
SEIHIN
 48
0.3
100
AcDbLine
 10
223.6629562271007
 20
188.883721869772
 30
0.0
 11
229.6629562271007
 21
188.883721869772
 31
0.0
  0
LWPOLYLINE
  5
435B
330
1A
100
AcDbEntity
  8
SEIHIN
 48
0.3
100
AcDbPolyline
 90
       40
 70
     0
 43
0.0
 10
226.7500147266313
 20
257.8972789714106
 10
226.6384527508063
 20
257.885361760167
 10
222.6339710978915
 20
257.3737787218208
 10
218.6400651412471
 20
256.7718015690827
 10
214.5382876431156
 20
256.0463361338515
 10
210.4562708810197
 20
255.1996824023951
 10
206.4089978292429
 20
254.213204567725
 10
202.4001999596334
 20
253.055305101604
 10
200.2510550908096
 20
252.3409207672761
 10
198.1251403184784
 20
251.5529253049076
 10
196.0236457177023
 20
250.6742989888167
 10
193.964786558063
 20
249.6870674969667
 10
191.8412815251408
 20
248.4823413029491
 10
190.8161667581689
 20
247.8024829789453
 10
189.830287853233
 20
247.0599723017267
 10
188.6631008443366
 20
246.0105440444355
 10
187.627949262561
 20
244.7978345103862
 10
187.0885193990722
 20
243.9362616666408
 10
186.6760255424174
 20
242.9833840087624
 10
186.4745144512981
 20
242.1714480111359
 10
186.4100360102741
 20
241.313914356718
 10
186.4929193459743
 20
240.480922990948
 10
186.7190504102639
 20
239.6498525455194
 10
187.1927900611602
 20
238.6331066344279
 10
187.8391412627098
 20
237.6782914791133
 10
188.4812828158732
 20
236.9348388605676
 10
189.1905853657309
 20
236.2438416352479
 10
190.770229059345
 20
234.9876246921393
 10
191.9979694424514
 20
234.177995761593
 10
193.2746871938507
 20
233.437528141672
 10
195.9433361533398
 20
232.1192866917196
 10
198.5963842124533
 20
231.0221752174441
 10
201.3081605479847
 20
230.0560400044131
 10
204.0721308502902
 20
229.1944457485604
 10
206.8665917641419
 20
228.4245767641936
 10
212.4590463816432
 20
227.1257280314564
 10
218.1152010313738
 20
226.0723427618072
 10
222.229340417746
 20
225.4405470658186
 10
226.3595255695527
 20
224.9051452544767
 10
226.7516000125365
 20
224.8628478188865
  0
LINE
  5
435C
330
1A
100
AcDbEntity
  8
SEIHIN
 48
0.3
100
AcDbLine
 10
170.6629562271007
 20
261.3788353099248
 30
0.0
 11
223.6629562271007
 21
261.3788353099248
 31
0.0
  0
LINE
  5
435D
330
1A
100
AcDbEntity
  8
SEIHIN
 48
0.3
100
AcDbLine
 10
170.6629562271007
 20
221.3788353099249
 30
0.0
 11
223.6629562271007
 21
221.3788353099249
 31
0.0
  0
LINE
  5
435E
330
1A
100
AcDbEntity
  8
SEIHIN
 48
0.3
100
AcDbLine
 10
170.6629562271007
 20
223.3788353099249
 30
0.0
 11
223.6629562271007
 21
223.3788353099249
 31
0.0
  0
LINE
  5
435F
330
1A
100
AcDbEntity
  8
SEIHIN
 48
0.3
100
AcDbLine
 10
170.6629562271007
 20
259.3788353099248
 30
0.0
 11
223.6629562271007
 21
259.3788353099248
 31
0.0
  0
ARC
  5
4360
330
1A
100
AcDbEntity
  8
SEIHIN
 48
0.3
100
AcDbCircle
 10
170.6629562271007
 20
255.3788353099248
 30
0.0
 40
6.0
100
AcDbArc
 50
90.0
 51
180.0
  0
LINE
  5
4362
330
1A
100
AcDbEntity
  8
SEIHIN
 48
0.3
100
AcDbLine
 10
164.6629562271007
 20
255.3788353099248
 30
0.0
 11
164.6629562271007
 21
227.3788353099249
 31
0.0
  0
LINE
  5
4363
330
1A
100
AcDbEntity
  8
SEIHIN
 48
0.3
100
AcDbLine
 10
166.6629562271007
 20
255.3788353099248
 30
0.0
 11
166.6629562271007
 21
227.3788353099249
 31
0.0
  0
ARC
  5
4364
330
1A
100
AcDbEntity
  8
SEIHIN
 48
0.3
100
AcDbCircle
 10
170.6629562271007
 20
227.3788353099249
 30
0.0
 40
6.000000000000028
100
AcDbArc
 50
180.0
 51
270.0
  0
ARC
  5
4365
330
1A
100
AcDbEntity
  8
SEIHIN
 48
0.3
100
AcDbCircle
 10
170.6629562271007
 20
227.3788353099249
 30
0.0
 40
4.000000000000028
100
AcDbArc
 50
180.0
 51
270.0
  0
ARC
  5
4366
330
1A
100
AcDbEntity
  8
SEIHIN
 48
0.3
100
AcDbCircle
 10
170.6629562271007
 20
255.3788353099248
 30
0.0
 40
4.0
100
AcDbArc
 50
90.0
 51
180.0
  0
ARC
  5
4367
330
1A
100
AcDbEntity
  8
SEIHIN
 48
0.3
100
AcDbCircle
 10
223.6629562271007
 20
255.3788353099248
 30
0.0
 40
6.0
100
AcDbArc
 50
0.0
 51
90.0
  0
LINE
  5
4368
330
1A
100
AcDbEntity
  8
SEIHIN
 48
0.3
100
AcDbLine
 10
234.6629562271007
 20
255.378835309925
 30
0.0
 11
234.6629562271007
 21
227.3788353099249
 31
0.0
  0
LINE
  5
4369
330
1A
100
AcDbEntity
  8
SEIHIN
 48
0.3
100
AcDbLine
 10
229.6629562271007
 20
227.3788353099249
 30
0.0
 11
229.6629562271007
 21
255.3788353099248
 31
0.0
  0
LINE
  5
436A
330
1A
100
AcDbEntity
  8
SEIHIN
 48
0.3
100
AcDbLine
 10
227.6629562271007
 20
227.3788353099249
 30
0.0
 11
227.6629562271007
 21
255.3788353099248
 31
0.0
  0
LINE
  5
436B
330
1A
100
AcDbEntity
  8
SEIHIN
 48
0.3
100
AcDbLine
 10
234.6629562271007
 20
221.3788353099251
 30
0.0
 11
223.6629562271007
 21
221.378835309925
 31
0.0
  0
ARC
  5
436D
330
1A
100
AcDbEntity
  8
SEIHIN
 48
0.3
100
AcDbCircle
 10
223.6629562271007
 20
227.3788353099249
 30
0.0
 40
6.000000000000028
100
AcDbArc
 50
270.0
 51
0.0
  0
ARC
  5
436E
330
1A
100
AcDbEntity
  8
SEIHIN
 48
0.3
100
AcDbCircle
 10
223.6629562271007
 20
227.3788353099249
 30
0.0
 40
4.000000000000028
100
AcDbArc
 50
270.0
 51
0.0
  0
LINE
  5
436F
330
1A
100
AcDbEntity
  8
SEIHIN
 48
0.3
100
AcDbLine
 10
234.6629562271007
 20
224.0930238870562
 30
0.0
 11
234.6629562271007
 21
223.3788353099251
 31
0.0
  0
LINE
  5
4370
330
1A
100
AcDbEntity
  8
SEIHIN
 48
0.3
100
AcDbLine
 10
234.6629562271007
 20
227.3788353099249
 30
0.0
 11
234.6629562271007
 21
221.3788353099251
 31
0.0
  0
LINE
  5
4371
330
1A
100
AcDbEntity
  8
SEIHIN
 48
0.3
100
AcDbLine
 10
234.6629562271007
 20
261.3788353099251
 30
0.0
 11
223.6629562271007
 21
261.378835309925
 31
0.0
  0
ARC
  5
4373
330
1A
100
AcDbEntity
  8
SEIHIN
 48
0.3
100
AcDbCircle
 10
223.6629562271007
 20
255.3788353099248
 30
0.0
 40
4.0
100
AcDbArc
 50
0.0
 51
90.0
  0
LINE
  5
4374
330
1A
100
AcDbEntity
  8
SEIHIN
 48
0.3
100
AcDbLine
 10
234.6629562271007
 20
255.378835309925
 30
0.0
 11
234.6629562271007
 21
261.3788353099251
 31
0.0
  0
LINE
  5
4375
330
1A
100
AcDbEntity
  8
SEIHIN
 48
0.3
100
AcDbLine
 10
292.9807753178149
 20
133.8568018978932
 30
0.0
 11
292.9807753178149
 21
188.883721869772
 31
0.0
  0
LINE
  5
4377
330
1A
100
AcDbEntity
  8
SEIHIN
 48
0.3
100
AcDbLine
 10
332.9807753178148
 20
133.8568018978932
 30
0.0
 11
332.9807753178148
 21
188.883721869772
 31
0.0
  0
LINE
  5
43D9
330
1A
100
AcDbEntity
  8
SEIHIN
 48
0.3
100
AcDbLine
 10
326.9807753178148
 20
137.9038529989478
 30
0.0
 11
298.9807753178149
 21
137.9038529989478
 31
0.0
  0
LINE
  5
43DA
330
1A
100
AcDbEntity
  8
SEIHIN
 48
0.3
100
AcDbLine
 10
326.9807753178148
 20
133.7266523844168
 30
0.0
 11
298.9807753178149
 21
133.7266523844168
 31
0.0
  0
LINE
  5
43DB
330
1A
100
AcDbEntity
  8
SEIHIN
 48
0.3
100
AcDbLine
 10
326.9807753178148
 20
135.883721869772
 30
0.0
 11
298.9807753178149
 21
135.883721869772
 31
0.0
  0
LINE
  5
43DC
330
1A
100
AcDbEntity
  8
SEIHIN
 48
0.3
100
AcDbLine
 10
330.2665867406838
 20
103.883721869772
 30
0.0
 11
295.694963894946
 21
103.883721869772
 31
0.0
  0
LINE
  5
43DE
330
1A
100
AcDbEntity
  8
SEIHIN
 48
0.3
100
AcDbLine
 10
294.9807753178149
 20
129.4125134137065
 30
0.0
 11
294.9807753178149
 21
108.883721869772
 31
0.0
  0
LINE
  5
43DF
330
1A
100
AcDbEntity
  8
SEIHIN
 48
0.3
100
AcDbLine
 10
292.9807753178149
 20
129.4125134137065
 30
0.0
 11
292.9807753178149
 21
108.883721869772
 31
0.0
  0
ARC
  5
43E0
330
1A
100
AcDbEntity
  8
SEIHIN
 48
0.3
100
AcDbCircle
 10
312.8429008742344
 20
108.8841005445367
 30
0.0
 40
17.86212556043346
100
AcDbArc
 50
180.0012146631582
 51
196.2568083440154
  0
ARC
  5
43E1
330
1A
100
AcDbEntity
  8
SEIHIN
 48
0.3
100
AcDbCircle
 10
312.9807753178149
 20
108.883721869772
 30
0.0
 40
20.0
100
AcDbArc
 50
180.0
 51
194.4775121859306
  0
LINE
  5
43E2
330
1A
100
AcDbEntity
  8
SEIHIN
 48
0.3
100
AcDbLine
 10
293.6158585867778
 20
103.883721869772
 30
0.0
 11
295.694963894946
 21
103.883721869772
 31
0.0
  0
LINE
  5
43E4
330
1A
100
AcDbEntity
  8
SEIHIN
 48
0.3
100
AcDbLine
 10
292.9807753178149
 20
129.4125134137065
 30
0.0
 11
292.9807753178149
 21
133.8568018978932
 31
0.0
  0
ARC
  5
43E5
330
1A
100
AcDbEntity
  8
SEIHIN
 48
0.3
100
AcDbCircle
 10
299.1594891508505
 20
129.5495146093496
 30
0.0
 40
4.18095905576832
100
AcDbArc
 50
92.44983721015207
 51
181.8777977976586
  0
ARC
  5
43E6
330
1A
100
AcDbEntity
  8
SEIHIN
 48
0.3
100
AcDbCircle
 10
299.2256311045587
 20
129.6395397458727
 30
0.0
 40
6.248981097164953
100
AcDbArc
 50
92.24561338054796
 51
182.0820216272631
  0
LWPOLYLINE
  5
43E8
330
1A
100
AcDbEntity
  8
SEIHIN
 48
0.3
100
AcDbPolyline
 90
       15
 70
     0
 43
0.0
 10
292.9807753178149
 20
133.8568018978932
 10
293.0185020584555
 20
134.3099278541862
 10
293.1312078447239
 20
134.7573554886688
 10
293.3174753359647
 20
135.1934581392342
 10
293.5749621104004
 20
135.6127515620186
 10
293.9004301224452
 20
136.009962898951
 10
294.2897864230067
 20
136.3800969870019
 10
294.7381346306956
 20
136.7184991752574
 10
295.2398365066625
 20
137.0209138598546
 10
295.7885828587229
 20
137.2835380006696
 10
296.3774728831096
 20
137.5030689467536
 10
296.9991009460839
 20
137.6767459690848
 10
297.645649714077
 20
137.8023849783375
 10
298.3089884611951
 20
137.878405991073
 10
298.9807753178149
 20
137.9038529989478
  0
LINE
  5
43EA
330
1A
100
AcDbEntity
  8
SEIHIN
 48
0.3
100
AcDbLine
 10
330.9807753178148
 20
129.4125134137065
 30
0.0
 11
330.9807753178148
 21
108.883721869772
 31
0.0
  0
LINE
  5
43EB
330
1A
100
AcDbEntity
  8
SEIHIN
 48
0.3
100
AcDbLine
 10
332.9807753178148
 20
129.4125134137065
 30
0.0
 11
332.9807753178148
 21
108.883721869772
 31
0.0
  0
ARC
  5
43EC
330
1A
100
AcDbEntity
  8
SEIHIN
 48
0.3
100
AcDbCircle
 10
312.9807753178149
 20
108.883721869772
 30
0.0
 40
20.00000000000003
100
AcDbArc
 50
345.5224878140693
 51
0.0
  0
ARC
  5
43ED
330
1A
100
AcDbEntity
  8
SEIHIN
 48
0.3
100
AcDbCircle
 10
313.1185725813403
 20
108.8841115687596
 30
0.0
 40
17.86220274072572
100
AcDbArc
 50
343.7432270126373
 51
359.9987499801895
  0
LINE
  5
43EE
330
1A
100
AcDbEntity
  8
SEIHIN
 48
0.3
100
AcDbLine
 10
330.2665867406838
 20
103.883721869772
 30
0.0
 11
332.3456920488519
 21
103.883721869772
 31
0.0
  0
ARC
  5
43F0
330
1A
100
AcDbEntity
  8
SEIHIN
 48
0.3
100
AcDbCircle
 10
326.8020614847791
 20
129.5495146093495
 30
0.0
 40
4.180959055768443
100
AcDbArc
 50
358.1222022023445
 51
87.55016278984466
  0
ARC
  5
43F1
330
1A
100
AcDbEntity
  8
SEIHIN
 48
0.3
100
AcDbCircle
 10
326.735919531071
 20
129.6395397458727
 30
0.0
 40
6.248981097165036
100
AcDbArc
 50
357.9179783727367
 51
87.75438661945205
  0
LINE
  5
43F2
330
1A
100
AcDbEntity
  8
SEIHIN
 48
0.3
100
AcDbLine
 10
332.9807753178148
 20
129.4125134137065
 30
0.0
 11
332.9807753178148
 21
133.8568018978932
 31
0.0
  0
LWPOLYLINE
  5
43F4
330
1A
100
AcDbEntity
  8
SEIHIN
 48
0.3
100
AcDbPolyline
 90
       15
 70
     0
 43
0.0
 10
332.9807753178148
 20
133.8568018978932
 10
332.9430485771744
 20
134.3099278541862
 10
332.8303427909058
 20
134.7573554886688
 10
332.6440752996651
 20
135.1934581392342
 10
332.3865885252294
 20
135.6127515620186
 10
332.0611205131846
 20
136.009962898951
 10
331.6717642126231
 20
136.3800969870019
 10
331.2234160049342
 20
136.7184991752574
 10
330.7217141289673
 20
137.0209138598546
 10
330.172967776907
 20
137.2835380006696
 10
329.5840777525203
 20
137.5030689467536
 10
328.9624496895459
 20
137.6767459690848
 10
328.3159009215527
 20
137.8023849783375
 10
327.6525621744348
 20
137.878405991073
 10
326.9807753178148
 20
137.9038529989478
  0
LINE
  5
4402
330
1A
100
AcDbEntity
  8
SEIHIN
 48
0.3
100
AcDbLine
 10
298.9807753178149
 20
188.883721869772
 30
0.0
 11
326.9807753178148
 21
188.883721869772
 31
0.0
  0
LINE
  5
4403
330
1A
100
AcDbEntity
  8
SEIHIN
 48
0.3
100
AcDbLine
 10
292.9807753178149
 20
188.883721869772
 30
0.0
 11
298.9807753178149
 21
188.883721869772
 31
0.0
  0
LINE
  5
4409
330
1A
100
AcDbEntity
  8
SEIHIN
 48
0.3
100
AcDbLine
 10
332.9807753178148
 20
188.883721869772
 30
0.0
 11
326.9807753178148
 21
188.883721869772
 31
0.0
  0
LINE
  5
4948
330
1A
100
AcDbEntity
  8
CENTER L
 48
0.3
100
AcDbLine
 10
158.4719644337875
 20
60.83143947593365
 30
0.0
 11
239.512963850607
 21
60.83143947593365
 31
0.0
  0
ARC
  5
4949
330
1A
100
AcDbEntity
  8
SEIHIN
 48
0.3
100
AcDbCircle
 10
312.9807753178151
 20
126.3159440756054
 30
0.0
 40
18.00223201290467
100
AcDbArc
 50
201.7130692095648
 51
338.2869307904347
  0
LINE
  5
494B
330
1A
100
AcDbEntity
  8
CENTER L
 48
0.3
100
AcDbLine
 10
88.04032893148564
 20
194.3241973956272
 30
0.0
 11
88.04032893148564
 21
98.10357259754141
 31
0.0
  0
LINE
  5
494C
330
1A
100
AcDbEntity
  8
CENTER L
 48
0.3
100
AcDbLine
 10
312.9807753178146
 20
194.3241973956272
 30
0.0
 11
312.9807753178146
 21
98.10357259754141
 31
0.0
  0
LINE
  5
494D
330
1A
100
AcDbEntity
  8
CENTER L
 48
0.3
100
AcDbLine
 10
160.3393376195414
 20
241.3788353099249
 30
0.0
 11
239.5129622147412
 21
241.3788353099249
 31
0.0
  0
LINE
  5
494F
330
1A
100
AcDbEntity
  8
CENTER L
 48
0.3
100
AcDbLine
 10
197.1629562271007
 20
194.3241973956272
 30
0.0
 11
197.1629562271007
 21
98.10357259754141
 31
0.0
  0
DIMENSION
  5
498C
330
1A
100
AcDbEntity
  8
SUNPOU
 48
0.3
100
AcDbDimension
  2
*D2
 10
229.6629562271007
 20
201.2712628940299
 30
0.0
 11
197.1629562271007
 21
205.2712628940299
 31
0.0
 70
    32
 71
     5
 42
-1.0
  3
STANDARD
100
AcDbAlignedDimension
 13
164.6629562271007
 23
188.883721869772
 33
0.0
 14
229.6629562271007
 24
188.883721869772
 34
0.0
100
AcDbRotatedDimension
  0
DIMENSION
  5
4999
330
1A
100
AcDbEntity
  8
SUNPOU
 48
0.3
100
AcDbDimension
  2
*D3
 10
234.6629562271007
 20
201.2712628940299
 30
0.0
 11
245.9962895604341
 21
205.2712628940299
 31
0.0
 70
    32
 71
     5
 42
-1.0
  3
STANDARD
100
AcDbAlignedDimension
 13
229.6629562271007
 23
188.883721869772
 33
0.0
 14
234.6629562271007
 24
135.883721869772
 34
0.0
100
AcDbRotatedDimension
  0
DIMENSION
  5
49A7
330
1A
100
AcDbEntity
  8
SUNPOU
 48
0.3
100
AcDbDimension
  2
*D4
 10
249.3598818528296
 20
137.383721869772
 30
0.0
 11
245.3598818528296
 21
163.133721869772
 31
0.0
 70
    32
 71
     5
 42
51.5
  3
STANDARD
100
AcDbAlignedDimension
 13
229.6629562271007
 23
188.883721869772
 33
0.0
 14
234.6629562271007
 24
137.383721869772
 34
0.0
 50
90.0
100
AcDbRotatedDimension
  0
DIMENSION
  5
49B4
330
1A
100
AcDbEntity
  8
SUNPOU
 48
0.3
100
AcDbDimension
  2
*D5
 10
260.213621486952
 20
103.883721869772
 30
0.0
 11
256.213621486952
 21
146.383721869772
 31
0.0
 70
    32
 71
     5
 42
85.0
  3
STANDARD
100
AcDbAlignedDimension
 13
229.6629562271007
 23
188.883721869772
 33
0.0
 14
234.6629562271007
 24
103.883721869772
 34
0.0
 50
90.0
100
AcDbRotatedDimension
  0
DIMENSION
  5
49C1
330
1A
100
AcDbEntity
  8
SUNPOU
 48
0.3
100
AcDbDimension
  2
*D6
 10
249.3598818528296
 20
221.3788353099251
 30
0.0
 11
245.3598818528296
 21
241.3788353099251
 31
0.0
 70
    32
 71
     5
 42
40.0
  3
STANDARD
100
AcDbAlignedDimension
 13
234.6629562271007
 23
261.3788353099251
 33
0.0
 14
234.6629562271007
 24
221.3788353099251
 34
0.0
 50
90.0
100
AcDbRotatedDimension
  0
ARC
  5
49D0
330
1A
100
AcDbEntity
  8
SEIHIN
 48
0.3
100
AcDbCircle
 10
88.04032893148587
 20
126.3721014475987
 30
0.0
 40
20.00288352698899
100
AcDbArc
 50
202.3972503562461
 51
337.6027496437538
  0
TEXT
  5
4BFC
330
1A
100
AcDbEntity
  8
moji
100
AcDbText
 10
335.2082142700695
 20
8.602460868153395
 30
0.0
 40
2.799999999999999
  1
2011/06/22
 41
0.9
  7
MSPｺﾞｼｯｸ
100
AcDbText
  0
DIMENSION
  5
4EE6
330
1A
100
AcDbEntity
  8
SUNPOU
100
AcDbDimension
  2
*D7
 10
234.6629562271007
 20
211.2977144233423
 30
0.0
 11
199.6629562271007
 21
215.2977144233423
 31
0.0
 70
    32
 71
     5
 42
-1.0
  3
STANDARD
100
AcDbAlignedDimension
 13
164.6629562271007
 23
188.883721869772
 33
0.0
 14
234.6629562271007
 24
135.883721869772
 34
0.0
100
AcDbRotatedDimension
  0
TEXT
  5
4FF1
330
1A
100
AcDbEntity
  8
ZUWAKU
100
AcDbText
 10
361.264041839609
 20
13.22872080923508
 30
0.0
 40
3.0
  1
積水化学工業株式会社
 41
0.9
  7
MSPｺ_ｼｯｸ
100
AcDbText
  0
VIEWPORT
  5
22
102
{ACAD_XDICTIONARY
360
504B
102
}
330
17
100
AcDbEntity
 67
     1
  8
0
100
AcDbViewport
 10
210.0066776838115
 20
152.9310087917491
 30
0.0
 40
640.1529110707132
 41
332.9072560281066
 68
     1
 69
     1
 12
210.0066776838115
 22
152.9310087917491
 13
0.0
 23
0.0
 14
1.0
 24
1.0
 15
10.0
 25
10.0
 16
0.0
 26
0.0
 36
1.0
 17
0.0
 27
0.0
 37
0.0
 42
50.0
 43
0.0
 44
0.0
 45
332.9072560281066
 50
0.0
 51
0.0
 72
   100
 90
    32768
  1

281
     0
 71
     1
 74
     0
110
0.0
120
0.0
130
0.0
111
1.0
121
0.0
131
0.0
112
0.0
122
1.0
132
0.0
 79
     0
146
0.0
  0
VIEWPORT
  5
64
102
{ACAD_XDICTIONARY
360
504D
102
}
330
17
100
AcDbEntity
 67
     1
  8
VIEWPORT
100
AcDbViewport
 10
209.8075015752787
 20
148.7076684947402
 30
0.0
 40
429.025940246194
 41
306.5455748329657
 68
     2
 69
     2
 12
207.118061069123
 22
145.9625580969591
 13
0.0
 23
0.0
 14
5.0
 24
5.0
 15
0.0
 25
0.0
 16
0.0
 26
0.0
 36
1.0
 17
0.0
 27
0.0
 37
0.0
 42
50.0
 43
0.0
 44
0.0
 45
296.3219162443729
 50
0.0
 51
0.0
 72
   100
 90
    32768
  1

281
     0
 71
     1
 74
     0
110
0.0
120
0.0
130
0.0
111
1.0
121
0.0
131
0.0
112
0.0
122
1.0
132
0.0
 79
     0
146
0.0
  0
ENDSEC
  0
SECTION
  2
OBJECTS
  0
DICTIONARY
  5
C
330
0
100
AcDbDictionary
281
     1
  3
ACAD_COLOR
350
4FF5
  3
ACAD_GROUP
350
D
  3
ACAD_LAYOUT
350
415
  3
ACAD_MATERIAL
350
4FF4
  3
ACAD_MLINESTYLE
350
E
  3
ACAD_PLOTSETTINGS
350
416
  3
ACAD_PLOTSTYLENAME
350
413
  3
ACDBHEADERROUNDTRIPXREC
350
5048
  3
AcDbVariableDictionary
350
2AB8
  0
DICTIONARY
  5
444
330
1A
100
AcDbDictionary
280
     1
281
     1
  3
ACAD_LAYOUTSELFREF
360
4F1E
  0
DICTIONARY
  5
442
330
17
100
AcDbDictionary
280
     1
281
     1
  3
ACAD_LAYOUTSELFREF
360
4F1D
  0
DICTIONARY
  5
504B
330
22
100
AcDbDictionary
280
     1
281
     1
  3
ACAD_XREC_ROUNDTRIP
360
504C
  0
DICTIONARY
  5
504D
330
64
100
AcDbDictionary
280
     1
281
     1
  3
ACAD_XREC_ROUNDTRIP
360
504E
  0
DICTIONARY
  5
4FF5
102
{ACAD_REACTORS
330
C
102
}
330
C
100
AcDbDictionary
281
     1
  0
DICTIONARY
  5
D
102
{ACAD_REACTORS
330
C
102
}
330
C
100
AcDbDictionary
281
     1
  0
DICTIONARY
  5
415
102
{ACAD_REACTORS
330
C
102
}
330
C
100
AcDbDictionary
281
     1
  3
Model
350
417
  3
ﾚｲｱｳﾄ1
350
418
  0
DICTIONARY
  5
4FF4
102
{ACAD_REACTORS
330
C
102
}
330
C
100
AcDbDictionary
281
     1
  0
DICTIONARY
  5
E
102
{ACAD_REACTORS
330
C
102
}
330
C
100
AcDbDictionary
281
     1
  3
STANDARD
350
13
  0
DICTIONARY
  5
416
102
{ACAD_REACTORS
330
C
102
}
330
C
100
AcDbDictionary
281
     1
  0
ACDBDICTIONARYWDFLT
  5
413
102
{ACAD_REACTORS
330
C
102
}
330
C
100
AcDbDictionary
281
     1
  3
Normal
350
414
100
AcDbDictionaryWithDefault
340
414
1001
ACAD
1000
TREAT_AS_HARD
1070
     0
1000
TREAT_AS_HARD
1070
     0
1000
TREAT_AS_HARD
1070
     0
1000
TREAT_AS_HARD
1070
     0
1000
TREAT_AS_HARD
1070
     0
1000
TREAT_AS_HARD
1070
     0
1000
TREAT_AS_HARD
1070
     0
1000
TREAT_AS_HARD
1070
     0
1000
TREAT_AS_HARD
1070
     0
1000
TREAT_AS_HARD
1070
     0
1000
TREAT_AS_HARD
1070
     0
1000
TREAT_AS_HARD
1070
     0
1000
TREAT_AS_HARD
1070
     0
1000
TREAT_AS_HARD
1070
     0
1000
TREAT_AS_HARD
1070
     0
1000
TREAT_AS_HARD
1070
     0
1000
TREAT_AS_HARD
1070
     0
1000
TREAT_AS_HARD
1070
     0
1000
TREAT_AS_HARD
1070
     0
  0
DICTIONARY
  5
5048
102
{ACAD_REACTORS
330
C
102
}
330
C
100
AcDbDictionary
281
     1
  3
COLORDICT
350
504A
  3
MATERIALDICT
350
5049
  0
DICTIONARY
  5
2AB8
102
{ACAD_REACTORS
330
C
102
}
330
C
100
AcDbDictionary
281
     1
  3
DIMASSOC
350
502B
  3
PROJECTNAME
350
502C
  3
SORTENTS
350
2AB9
  0
XRECORD
  5
4F1E
102
{ACAD_REACTORS
330
444
102
}
330
444
100
AcDbXrecord
280
     1
340
1A
  0
XRECORD
  5
4F1D
102
{ACAD_REACTORS
330
442
102
}
330
442
100
AcDbXrecord
280
     1
340
17
  0
XRECORD
  5
504C
102
{ACAD_REACTORS
330
504B
102
}
330
504B
100
AcDbXrecord
280
     1
102
SHADEPLOT
 70
     0
  0
XRECORD
  5
504E
102
{ACAD_REACTORS
330
504D
102
}
330
504D
100
AcDbXrecord
280
     1
102
SHADEPLOT
 70
     0
  0
LAYOUT
  5
417
102
{ACAD_XDICTIONARY
360
504F
102
}
102
{ACAD_REACTORS
330
415
102
}
330
415
100
AcDbPlotSettings
  1

  2
Acrobat Distiller
  4
A3
  6

 40
3.174999952316284
 41
3.174999952316284
 42
3.17498779296875
 43
3.17498779296875
 44
297.0318298339844
 45
420.1583251953125
 46
0.0
 47
0.0
 48
0.0
 49
0.0
140
0.0
141
0.0
142
1.0
143
1.0
 70
 28336
 72
     1
 73
     1
 74
     2
  7
print.ctb
 75
    16
147
1.0
148
0.0
149
0.0
100
AcDbLayout
  1
Model
 70
     1
 71
     0
 10
0.0
 20
0.0
 11
12.0
 21
9.0
 12
0.0
 22
0.0
 32
0.0
 14
0.0
 24
0.0
 34
0.0
 15
0.0
 25
0.0
 35
0.0
146
0.0
 13
0.0
 23
0.0
 33
0.0
 16
1.0
 26
0.0
 36
0.0
 17
0.0
 27
1.0
 37
0.0
 76
     0
330
1A
  0
LAYOUT
  5
418
102
{ACAD_XDICTIONARY
360
5051
102
}
102
{ACAD_REACTORS
330
415
102
}
330
415
100
AcDbPlotSettings
  1

  2
CubePDF
  4
A4
  6

 40
3.174999952316284
 41
3.174999952316284
 42
3.175003051757812
 43
3.17498779296875
 44
209.8886566162109
 45
297.0530090332031
 46
0.0
 47
1.429999999999999
 48
0.0
 49
0.0
140
0.0
141
0.0
142
1.0
143
1.459331960127108
 70
   692
 72
     1
 73
     1
 74
     1
  7
monochrome.ctb
 75
     0
147
0.6852450486405436
148
0.0225914209539724
149
0.0066208031097403
100
AcDbLayout
  1
ﾚｲｱｳﾄ1
 70
     1
 71
     1
 10
-6.742797283228464
 20
-4.639999706926938
 11
426.7561526508514
 21
301.6572249612537
 12
0.0
 22
0.0
 32
0.0
 14
-4.705468547818327
 24
-4.565118921742623
 34
0.0
 15
424.3204716983757
 25
301.9804559112231
 35
0.0
146
0.0
 13
0.0
 23
0.0
 33
0.0
 16
1.0
 26
0.0
 36
0.0
 17
0.0
 27
1.0
 37
0.0
 76
     0
330
17
331
22
  0
MLINESTYLE
  5
13
102
{ACAD_REACTORS
330
E
102
}
330
E
100
AcDbMlineStyle
  2
STANDARD
 70
     0
  3

 62
     0
 51
90.0
 52
90.0
 71
     2
 49
0.5
 62
   256
  6
BYLAYER
 49
-0.5
 62
   256
  6
BYLAYER
  0
ACDBPLACEHOLDER
  5
414
102
{ACAD_REACTORS
330
413
102
}
330
413
  0
XRECORD
  5
504A
102
{ACAD_REACTORS
330
5048
102
}
330
5048
100
AcDbXrecord
280
     1
340
4FF5
  0
XRECORD
  5
5049
102
{ACAD_REACTORS
330
5048
102
}
330
5048
100
AcDbXrecord
280
     1
340
4FF4
  0
DICTIONARYVAR
  5
502B
102
{ACAD_REACTORS
330
2AB8
102
}
330
2AB8
100
DictionaryVariables
280
     0
  1
1
  0
DICTIONARYVAR
  5
502C
102
{ACAD_REACTORS
330
2AB8
102
}
330
2AB8
100
DictionaryVariables
280
     0
  1

  0
DICTIONARYVAR
  5
2AB9
102
{ACAD_REACTORS
330
2AB8
102
}
330
2AB8
100
DictionaryVariables
280
     0
  1
96
  0
DICTIONARY
  5
504F
330
417
100
AcDbDictionary
280
     1
281
     1
  3
ACAD_XREC_ROUNDTRIP
360
5050
  0
DICTIONARY
  5
5051
330
418
100
AcDbDictionary
280
     1
281
     1
  3
ACAD_XREC_ROUNDTRIP
360
5052
  0
XRECORD
  5
5050
102
{ACAD_REACTORS
330
504F
102
}
330
504F
100
AcDbXrecord
280
     1
102
SHADEPLOT
 70
     0
102
SHADEPLOTRESLEVEL
 70
     2
102
SHADEPLOTCUSTOMDPI
 70
   300
  0
XRECORD
  5
5052
102
{ACAD_REACTORS
330
5051
102
}
330
5051
100
AcDbXrecord
280
     1
102
SHADEPLOT
 70
     1
102
SHADEPLOTRESLEVEL
 70
     2
102
SHADEPLOTCUSTOMDPI
 70
   300
  0
ENDSEC
  0
EOF
