  0
SECTION
  2
HEADER
  9
$ACADVER
  1
AC1015
  9
$ACADMAINTVER
 70
    20
  9
$DWGCODEPAGE
  3
ANSI_932
  9
$INSBASE
 10
0.0
 20
0.0
 30
0.0
  9
$EXTMIN
 10
14.9999991847701
 20
15.00000037419784
 30
0.0
  9
$EXTMAX
 10
812.5999991847702
 20
566.6000003741979
 30
0.0
  9
$LIMMIN
 10
0.0
 20
0.0
  9
$LIMMAX
 10
840.0
 20
594.0
  9
$ORTHOMODE
 70
     1
  9
$REGENMODE
 70
     1
  9
$FILLMODE
 70
     1
  9
$QTEXTMODE
 70
     0
  9
$MIRRTEXT
 70
     1
  9
$LTSCALE
 40
1.0
  9
$ATTMODE
 70
     1
  9
$TEXTSIZE
 40
5.0
  9
$TRACEWID
 40
1.0
  9
$TEXTSTYLE
  7
STANDARD
  9
$CLAYER
  8
0
  9
$CELTYPE
  6
BYLAYER
  9
$CECOLOR
 62
   256
  9
$CELTSCALE
 40
1.0
  9
$DISPSILH
 70
     0
  9
$DIMSCALE
 40
1.0
  9
$DIMASZ
 40
4.0
  9
$DIMEXO
 40
2.0
  9
$DIMDLI
 40
9.0
  9
$DIMRND
 40
0.0
  9
$DIMDLE
 40
0.0
  9
$DIMEXE
 40
2.0
  9
$DIMTP
 40
0.0
  9
$DIMTM
 40
0.0
  9
$DIMTXT
 40
6.0
  9
$DIMCEN
 40
0.0
  9
$DIMTSZ
 40
0.0
  9
$DIMTOL
 70
     0
  9
$DIMLIM
 70
     0
  9
$DIMTIH
 70
     0
  9
$DIMTOH
 70
     0
  9
$DIMSE1
 70
     0
  9
$DIMSE2
 70
     0
  9
$DIMTAD
 70
     3
  9
$DIMZIN
 70
     0
  9
$DIMBLK
  1
Open
  9
$DIMASO
 70
     1
  9
$DIMSHO
 70
     1
  9
$DIMPOST
  1

  9
$DIMAPOST
  1

  9
$DIMALT
 70
     0
  9
$DIMALTD
 70
     2
  9
$DIMALTF
 40
25.4
  9
$DIMLFAC
 40
1.0
  9
$DIMTOFL
 70
     0
  9
$DIMTVP
 40
0.0
  9
$DIMTIX
 70
     0
  9
$DIMSOXD
 70
     0
  9
$DIMSAH
 70
     0
  9
$DIMBLK1
  1

  9
$DIMBLK2
  1

  9
$DIMSTYLE
  2
STANDARD
  9
$DIMCLRD
 70
   256
  9
$DIMCLRE
 70
   256
  9
$DIMCLRT
 70
   256
  9
$DIMTFAC
 40
1.0
  9
$DIMGAP
 40
2.0
  9
$DIMJUST
 70
     0
  9
$DIMSD1
 70
     0
  9
$DIMSD2
 70
     0
  9
$DIMTOLJ
 70
     1
  9
$DIMTZIN
 70
     0
  9
$DIMALTZ
 70
     0
  9
$DIMALTTZ
 70
     0
  9
$DIMUPT
 70
     0
  9
$DIMDEC
 70
     0
  9
$DIMTDEC
 70
     0
  9
$DIMALTU
 70
     2
  9
$DIMALTTD
 70
     2
  9
$DIMTXSTY
  7
STANDARD
  9
$DIMAUNIT
 70
     0
  9
$DIMADEC
 70
     0
  9
$DIMALTRND
 40
0.0
  9
$DIMAZIN
 70
     0
  9
$DIMDSEP
 70
    46
  9
$DIMATFIT
 70
     3
  9
$DIMFRAC
 70
     0
  9
$DIMLDRBLK
  1
Open
  9
$DIMLUNIT
 70
     2
  9
$DIMLWD
 70
    -1
  9
$DIMLWE
 70
    -1
  9
$DIMTMOVE
 70
     0
  9
$LUNITS
 70
     2
  9
$LUPREC
 70
     4
  9
$SKETCHINC
 40
1.0
  9
$FILLETRAD
 40
20.0
  9
$AUNITS
 70
     0
  9
$AUPREC
 70
     0
  9
$MENU
  1
.
  9
$ELEVATION
 40
0.0
  9
$PELEVATION
 40
0.0
  9
$THICKNESS
 40
0.0
  9
$LIMCHECK
 70
     0
  9
$CHAMFERA
 40
0.0
  9
$CHAMFERB
 40
0.0
  9
$CHAMFERC
 40
40.0
  9
$CHAMFERD
 40
0.0
  9
$SKPOLY
 70
     0
  9
$TDCREATE
 40
2450994.354346065
  9
$TDUCREATE
 40
2450993.979346065
  9
$TDUPDATE
 40
2459167.573369676
  9
$TDUUPDATE
 40
2459167.198369676
  9
$TDINDWG
 40
0.1298855671
  9
$TDUSRTIMER
 40
0.1298855671
  9
$USRTIMER
 70
     1
  9
$ANGBASE
 50
0.0
  9
$ANGDIR
 70
     0
  9
$PDMODE
 70
     1
  9
$PDSIZE
 40
0.0
  9
$PLINEWID
 40
0.0
  9
$SPLFRAME
 70
     0
  9
$SPLINETYPE
 70
     6
  9
$SPLINESEGS
 70
     8
  9
$HANDSEED
  5
4826
  9
$SURFTAB1
 70
     6
  9
$SURFTAB2
 70
     6
  9
$SURFTYPE
 70
     6
  9
$SURFU
 70
     6
  9
$SURFV
 70
     6
  9
$UCSBASE
  2

  9
$UCSNAME
  2

  9
$UCSORG
 10
0.0
 20
0.0
 30
0.0
  9
$UCSXDIR
 10
1.0
 20
0.0
 30
0.0
  9
$UCSYDIR
 10
0.0
 20
1.0
 30
0.0
  9
$UCSORTHOREF
  2

  9
$UCSORTHOVIEW
 70
     0
  9
$UCSORGTOP
 10
0.0
 20
0.0
 30
0.0
  9
$UCSORGBOTTOM
 10
0.0
 20
0.0
 30
0.0
  9
$UCSORGLEFT
 10
0.0
 20
0.0
 30
0.0
  9
$UCSORGRIGHT
 10
0.0
 20
0.0
 30
0.0
  9
$UCSORGFRONT
 10
0.0
 20
0.0
 30
0.0
  9
$UCSORGBACK
 10
0.0
 20
0.0
 30
0.0
  9
$PUCSBASE
  2

  9
$PUCSNAME
  2

  9
$PUCSORG
 10
0.0
 20
0.0
 30
0.0
  9
$PUCSXDIR
 10
1.0
 20
0.0
 30
0.0
  9
$PUCSYDIR
 10
0.0
 20
1.0
 30
0.0
  9
$PUCSORTHOREF
  2

  9
$PUCSORTHOVIEW
 70
     0
  9
$PUCSORGTOP
 10
0.0
 20
0.0
 30
0.0
  9
$PUCSORGBOTTOM
 10
0.0
 20
0.0
 30
0.0
  9
$PUCSORGLEFT
 10
0.0
 20
0.0
 30
0.0
  9
$PUCSORGRIGHT
 10
0.0
 20
0.0
 30
0.0
  9
$PUCSORGFRONT
 10
0.0
 20
0.0
 30
0.0
  9
$PUCSORGBACK
 10
0.0
 20
0.0
 30
0.0
  9
$USERI1
 70
     0
  9
$USERI2
 70
     0
  9
$USERI3
 70
     0
  9
$USERI4
 70
     0
  9
$USERI5
 70
     0
  9
$USERR1
 40
0.0
  9
$USERR2
 40
0.0
  9
$USERR3
 40
0.0
  9
$USERR4
 40
0.0
  9
$USERR5
 40
0.0
  9
$WORLDVIEW
 70
     1
  9
$SHADEDGE
 70
     3
  9
$SHADEDIF
 70
    70
  9
$TILEMODE
 70
     0
  9
$MAXACTVP
 70
    16
  9
$PINSBASE
 10
0.0
 20
0.0
 30
0.0
  9
$PLIMCHECK
 70
     0
  9
$PEXTMIN
 10
-5.108429172091064
 20
-4.965466397269665
 30
0.0
  9
$PEXTMAX
 10
427.086385898607
 20
301.5673773666502
 30
0.0
  9
$PLIMMIN
 10
-6.747335908269471
 20
-4.642249520951129
  9
$PLIMMAX
 10
426.7336119514657
 20
301.6422554268914
  9
$UNITMODE
 70
     0
  9
$VISRETAIN
 70
     0
  9
$PLINEGEN
 70
     0
  9
$PSLTSCALE
 70
     1
  9
$TREEDEPTH
 70
  3020
  9
$CMLSTYLE
  2
STANDARD
  9
$CMLJUST
 70
     0
  9
$CMLSCALE
 40
1.0
  9
$PROXYGRAPHICS
 70
     1
  9
$MEASUREMENT
 70
     1
  9
$CELWEIGHT
370
    -1
  9
$ENDCAPS
280
     0
  9
$JOINSTYLE
280
     0
  9
$LWDISPLAY
290
     0
  9
$INSUNITS
 70
     0
  9
$HYPERLINKBASE
  1

  9
$STYLESHEET
  1
print.ctb
  9
$XEDIT
290
     1
  9
$CEPSNTYPE
380
     0
  9
$PSTYLEMODE
290
     1
  9
$FINGERPRINTGUID
  2
{C56778C1-A286-4FAB-9BA7-CCD46472B6EF}
  9
$VERSIONGUID
  2
{375F95F1-5F00-42DE-9CD8-8D20C3F242FA}
  9
$EXTNAMES
290
     1
  9
$PSVPSCALE
 40
0.0
  9
$OLESTARTUP
290
     0
  0
ENDSEC
  0
SECTION
  2
CLASSES
  0
CLASS
  1
ACDBDICTIONARYWDFLT
  2
AcDbDictionaryWithDefault
  3
ObjectDBX Classes
 90
        0
280
     0
281
     0
  0
CLASS
  1
ACDBPLACEHOLDER
  2
AcDbPlaceHolder
  3
ObjectDBX Classes
 90
        0
280
     0
281
     0
  0
CLASS
  1
LAYOUT
  2
AcDbLayout
  3
ObjectDBX Classes
 90
        0
280
     0
281
     0
  0
CLASS
  1
DICTIONARYVAR
  2
AcDbDictionaryVar
  3
ObjectDBX Classes
 90
        0
280
     0
281
     0
  0
ENDSEC
  0
SECTION
  2
TABLES
  0
TABLE
  2
VPORT
  5
8
330
0
100
AcDbSymbolTable
 70
     1
  0
VPORT
  5
4811
330
8
100
AcDbSymbolTableRecord
100
AcDbViewportTableRecord
  2
*Active
 70
     0
 10
0.0
 20
0.0
 11
1.0
 21
1.0
 12
233.4500757460887
 22
324.8839049036557
 13
0.0
 23
0.0
 14
5.0
 24
5.0
 15
0.0
 25
0.0
 16
0.0
 26
0.0
 36
1.0
 17
0.0
 27
0.0
 37
0.0
 40
690.208545298072
 41
1.975399753997539
 42
50.0
 43
0.0
 44
0.0
 50
0.0
 51
0.0
 71
     0
 72
   100
 73
     1
 74
     0
 75
     0
 76
     0
 77
     0
 78
     0
281
     0
 65
     1
110
0.0
120
0.0
130
0.0
111
1.0
121
0.0
131
0.0
112
0.0
122
1.0
132
0.0
 79
     0
146
0.0
  0
ENDTAB
  0
TABLE
  2
LTYPE
  5
5
330
0
100
AcDbSymbolTable
 70
     2
  0
LTYPE
  5
14
330
5
100
AcDbSymbolTableRecord
100
AcDbLinetypeTableRecord
  2
BYBLOCK
 70
     0
  3

 72
    65
 73
     0
 40
0.0
  0
LTYPE
  5
15
330
5
100
AcDbSymbolTableRecord
100
AcDbLinetypeTableRecord
  2
BYLAYER
 70
     0
  3

 72
    65
 73
     0
 40
0.0
  0
LTYPE
  5
16
330
5
100
AcDbSymbolTableRecord
100
AcDbLinetypeTableRecord
  2
CONTINUOUS
 70
     0
  3
Solid line
 72
    65
 73
     0
 40
0.0
  0
LTYPE
  5
135
330
5
100
AcDbSymbolTableRecord
100
AcDbLinetypeTableRecord
  2
CENTER
 70
     0
  3
____ _ ____ _ ____ _ ____ _ ____ _ ____ _ ____ 
 72
    65
 73
     4
 40
2.0
 49
1.25
 74
     0
 49
-0.25
 74
     0
 49
0.25
 74
     0
 49
-0.25
 74
     0
  0
ENDTAB
  0
TABLE
  2
LAYER
  5
2
330
0
100
AcDbSymbolTable
 70
     8
  0
LAYER
  5
F
330
2
100
AcDbSymbolTableRecord
100
AcDbLayerTableRecord
  2
0
 70
     0
 62
     7
  6
CONTINUOUS
370
    -3
390
673
  0
LAYER
  5
62
330
2
100
AcDbSymbolTableRecord
100
AcDbLayerTableRecord
  2
VIEWPORT
 70
     0
 62
     7
  6
CONTINUOUS
370
    -3
390
673
  0
LAYER
  5
65
330
2
100
AcDbSymbolTableRecord
100
AcDbLayerTableRecord
  2
ZUWAKU
 70
     0
 62
     7
  6
CONTINUOUS
370
    -3
390
673
  0
LAYER
  5
1EA
330
2
100
AcDbSymbolTableRecord
100
AcDbLayerTableRecord
  2
SEIHIN
 70
     0
 62
     3
  6
CONTINUOUS
370
    -3
390
673
  0
LAYER
  5
1EB
330
2
100
AcDbSymbolTableRecord
100
AcDbLayerTableRecord
  2
SUNPOU
 70
     0
 62
     4
  6
CONTINUOUS
370
    -3
390
673
  0
LAYER
  5
1EE
330
2
100
AcDbSymbolTableRecord
100
AcDbLayerTableRecord
  2
DEFPOINTS
 70
     0
 62
     7
  6
CONTINUOUS
290
     0
370
    -3
390
673
  0
LAYER
  5
6B1
330
2
100
AcDbSymbolTableRecord
100
AcDbLayerTableRecord
  2
moji
 70
     0
 62
     2
  6
CONTINUOUS
370
    -3
390
673
  0
LAYER
  5
30BD
330
2
100
AcDbSymbolTableRecord
100
AcDbLayerTableRecord
  2
CENTER L
 70
     0
 62
     1
  6
CENTER
370
    -3
390
673
  0
ENDTAB
  0
TABLE
  2
STYLE
  5
3
330
0
100
AcDbSymbolTable
 70
     2
  0
STYLE
  5
10
330
3
100
AcDbSymbolTableRecord
100
AcDbTextStyleTableRecord
  2
STANDARD
 70
     0
 40
0.0
 41
1.0
 50
0.0
 71
     0
 42
5.0
  3
TXT
  4
bigfont.shx
  0
STYLE
  5
6B2
330
3
100
AcDbSymbolTableRecord
100
AcDbTextStyleTableRecord
  2
MSPｺﾞｼｯｸ
 70
     0
 40
0.0
 41
1.0
 50
0.0
 71
     0
 42
2.5
  3

  4

1001
ACAD
1000
MS PGothic
1071
    32818
  0
ENDTAB
  0
TABLE
  2
VIEW
  5
6
330
0
100
AcDbSymbolTable
 70
     0
  0
ENDTAB
  0
TABLE
  2
UCS
  5
7
330
0
100
AcDbSymbolTable
 70
     0
  0
ENDTAB
  0
TABLE
  2
APPID
  5
9
330
0
100
AcDbSymbolTable
 70
     1
  0
APPID
  5
11
330
9
100
AcDbSymbolTableRecord
100
AcDbRegAppTableRecord
  2
ACAD
 70
     0
  0
ENDTAB
  0
TABLE
  2
DIMSTYLE
  5
A
330
0
100
AcDbSymbolTable
 70
     1
100
AcDbDimStyleTable
 71
     0
  0
DIMSTYLE
105
1D
102
{ACAD_REACTORS
330
3ED4
330
3F00
330
3EFE
330
3EFF
330
3F32
330
4107
102
}
330
A
100
AcDbSymbolTableRecord
100
AcDbDimStyleTableRecord
  2
STANDARD
 70
     0
 41
4.0
 42
2.0
 43
9.0
 44
2.0
 73
     0
 74
     0
 77
     3
140
6.0
141
0.0
147
2.0
176
   256
177
   256
178
   256
271
     0
272
     0
340
10
341
401A
342
401A
371
    -1
372
    -1
  0
ENDTAB
  0
TABLE
  2
BLOCK_RECORD
  5
1
330
0
100
AcDbSymbolTable
 70
     8
  0
BLOCK_RECORD
  5
1A
102
{ACAD_XDICTIONARY
360
6A3
102
}
330
1
100
AcDbSymbolTableRecord
100
AcDbBlockTableRecord
  2
*MODEL_SPACE
340
676
  0
BLOCK_RECORD
  5
17
102
{ACAD_XDICTIONARY
360
6A1
102
}
330
1
100
AcDbSymbolTableRecord
100
AcDbBlockTableRecord
  2
*PAPER_SPACE
340
677
  0
BLOCK_RECORD
  5
228D
330
1
100
AcDbSymbolTableRecord
100
AcDbBlockTableRecord
  2
*X0
340
0
102
{BLKREFS
331
780
102
}
  0
BLOCK_RECORD
  5
3F3F
330
1
100
AcDbSymbolTableRecord
100
AcDbBlockTableRecord
  2
*D1
340
0
  0
BLOCK_RECORD
  5
3F4C
330
1
100
AcDbSymbolTableRecord
100
AcDbBlockTableRecord
  2
*D2
340
0
  0
BLOCK_RECORD
  5
3F59
330
1
100
AcDbSymbolTableRecord
100
AcDbBlockTableRecord
  2
*D3
340
0
  0
BLOCK_RECORD
  5
3F66
330
1
100
AcDbSymbolTableRecord
100
AcDbBlockTableRecord
  2
*D4
340
0
  0
BLOCK_RECORD
  5
3F73
330
1
100
AcDbSymbolTableRecord
100
AcDbBlockTableRecord
  2
*D5
340
0
  0
BLOCK_RECORD
  5
401A
330
1
100
AcDbSymbolTableRecord
100
AcDbBlockTableRecord
  2
_Open
340
0
102
{BLKREFS
331
479A
331
479B
331
47A4
331
47A5
331
47AD
331
47AE
331
47B6
331
47B7
331
47BF
331
47C0
331
47C8
331
47C9
102
}
  0
BLOCK_RECORD
  5
4108
330
1
100
AcDbSymbolTableRecord
100
AcDbBlockTableRecord
  2
*D7
340
0
  0
ENDTAB
  0
ENDSEC
  0
SECTION
  2
BLOCKS
  0
BLOCK
  5
1B
330
1A
100
AcDbEntity
  8
0
100
AcDbBlockBegin
  2
*MODEL_SPACE
 70
     0
 10
0.0
 20
0.0
 30
0.0
  3
*MODEL_SPACE
  1

  0
ENDBLK
  5
1C
330
1A
100
AcDbEntity
  8
0
100
AcDbBlockEnd
  0
BLOCK
  5
18
330
17
100
AcDbEntity
 67
     1
  8
0
100
AcDbBlockBegin
  2
*PAPER_SPACE
 70
     0
 10
0.0
 20
0.0
 30
0.0
  3
*PAPER_SPACE
  1

  0
ENDBLK
  5
19
330
17
100
AcDbEntity
 67
     1
  8
0
100
AcDbBlockEnd
  0
BLOCK
  5
2421
330
228D
100
AcDbEntity
  8
0
100
AcDbBlockBegin
  2
*X0
 70
     1
 10
0.0
 20
0.0
 30
0.0
  3
*X0
  1

  0
LINE
  5
228E
330
228D
100
AcDbEntity
  8
0
 62
     0
100
AcDbLine
 10
84.04221133955109
 20
37.60416944448309
 30
0.0
 11
83.39638040983647
 21
38.25000037419773
 31
0.0
  0
LINE
  5
228F
330
228D
100
AcDbEntity
  8
0
 62
     0
100
AcDbLine
 10
84.04221133955109
 20
36.7061438323762
 30
0.0
 11
82.49835479772945
 21
38.25000037419778
 31
0.0
  0
LINE
  5
2290
330
228D
100
AcDbEntity
  8
0
 62
     0
100
AcDbLine
 10
84.04221133955109
 20
35.80811822026925
 30
0.0
 11
81.62107739353627
 21
38.22925216628403
 31
0.0
  0
LINE
  5
2291
330
228D
100
AcDbEntity
  8
0
 62
     0
100
AcDbLine
 10
84.04221133955122
 20
34.9100926081623
 30
0.0
 11
81.24221133955121
 21
37.71009260816226
 31
0.0
  0
LINE
  5
2292
330
228D
100
AcDbEntity
  8
0
 62
     0
100
AcDbLine
 10
84.04221133955116
 20
34.01206699605535
 30
0.0
 11
81.24221133955121
 21
36.81206699605537
 31
0.0
  0
LINE
  5
2293
330
228D
100
AcDbEntity
  8
0
 62
     0
100
AcDbLine
 10
84.04221133955116
 20
33.11404138394846
 30
0.0
 11
81.24221133955115
 21
35.91404138394842
 31
0.0
  0
LINE
  5
2294
330
228D
100
AcDbEntity
  8
0
 62
     0
100
AcDbLine
 10
79.14221133955118
 20
37.11601577184155
 30
0.0
 11
78.00822673719494
 21
38.25000037419778
 31
0.0
  0
LINE
  5
2295
330
228D
100
AcDbEntity
  8
0
 62
     0
100
AcDbLine
 10
84.04221133955116
 20
32.21601577184157
 30
0.0
 11
81.24221133955121
 21
35.01601577184158
 31
0.0
  0
LINE
  5
2296
330
228D
100
AcDbEntity
  8
0
 62
     0
100
AcDbLine
 10
79.14221133955118
 20
36.21799015973465
 30
0.0
 11
77.11020112508805
 21
38.25000037419778
 31
0.0
  0
LINE
  5
2297
330
228D
100
AcDbEntity
  8
0
 62
     0
100
AcDbLine
 10
84.04221133955116
 20
31.31799015973468
 30
0.0
 11
81.24221133955121
 21
34.11799015973463
 31
0.0
  0
LINE
  5
2298
330
228D
100
AcDbEntity
  8
0
 62
     0
100
AcDbLine
 10
79.14221133955118
 20
35.31996454762771
 30
0.0
 11
76.4367003744141
 21
38.02547551276479
 31
0.0
  0
LINE
  5
2299
330
228D
100
AcDbEntity
  8
0
 62
     0
100
AcDbLine
 10
84.04221133955116
 20
30.41996454762773
 30
0.0
 11
81.24221133955115
 21
33.21996454762768
 31
0.0
  0
LINE
  5
229A
330
228D
100
AcDbEntity
  8
0
 62
     0
100
AcDbLine
 10
79.14221133955118
 20
34.42193893552076
 30
0.0
 11
76.34221133955112
 21
37.22193893552083
 31
0.0
  0
LINE
  5
229B
330
228D
100
AcDbEntity
  8
0
 62
     0
100
AcDbLine
 10
84.04221133955116
 20
29.52193893552084
 30
0.0
 11
81.24221133955121
 21
32.32193893552079
 31
0.0
  0
LINE
  5
229C
330
228D
100
AcDbEntity
  8
0
 62
     0
100
AcDbLine
 10
79.14221133955118
 20
33.52391332341392
 30
0.0
 11
76.34221133955112
 21
36.32391332341399
 31
0.0
  0
LINE
  5
229D
330
228D
100
AcDbEntity
  8
0
 62
     0
100
AcDbLine
 10
84.04221133955122
 20
28.62391332341383
 30
0.0
 11
81.24221133955115
 21
31.4239133234139
 31
0.0
  0
LINE
  5
229E
330
228D
100
AcDbEntity
  8
0
 62
     0
100
AcDbLine
 10
79.14221133955113
 20
32.62588771130698
 30
0.0
 11
76.34221133955112
 21
35.42588771130704
 31
0.0
  0
LINE
  5
229F
330
228D
100
AcDbEntity
  8
0
 62
     0
100
AcDbLine
 10
84.04221133955122
 20
27.72588771130694
 30
0.0
 11
81.24221133955115
 21
30.52588771130701
 31
0.0
  0
LINE
  5
22A0
330
228D
100
AcDbEntity
  8
0
 62
     0
100
AcDbLine
 10
79.14221133955113
 20
31.72786209920008
 30
0.0
 11
76.34221133955105
 21
34.52786209920009
 31
0.0
  0
LINE
  5
22A1
330
228D
100
AcDbEntity
  8
0
 62
     0
100
AcDbLine
 10
84.04221133955116
 20
26.82786209919999
 30
0.0
 11
81.24221133955115
 21
29.62786209920006
 31
0.0
  0
LINE
  5
22A2
330
228D
100
AcDbEntity
  8
0
 62
     0
100
AcDbLine
 10
79.14221133955118
 20
30.82983648709319
 30
0.0
 11
76.34221133955112
 21
33.62983648709326
 31
0.0
  0
LINE
  5
22A3
330
228D
100
AcDbEntity
  8
0
 62
     0
100
AcDbLine
 10
72.84221133955117
 20
37.1298364870932
 30
0.0
 11
71.72204745244653
 21
38.25000037419784
 31
0.0
  0
LINE
  5
22A4
330
228D
100
AcDbEntity
  8
0
 62
     0
100
AcDbLine
 10
84.04221133955122
 20
25.92983648709316
 30
0.0
 11
81.24221133955115
 21
28.72983648709317
 31
0.0
  0
LINE
  5
22A5
330
228D
100
AcDbEntity
  8
0
 62
     0
100
AcDbLine
 10
79.14221133955113
 20
29.9318108749863
 30
0.0
 11
76.34221133955105
 21
32.73181087498631
 31
0.0
  0
LINE
  5
22A6
330
228D
100
AcDbEntity
  8
0
 62
     0
100
AcDbLine
 10
72.84221133955111
 20
36.23181087498625
 30
0.0
 11
70.82402184033958
 21
38.25000037419784
 31
0.0
  0
LINE
  5
22A7
330
228D
100
AcDbEntity
  8
0
 62
     0
100
AcDbLine
 10
84.04221133955122
 20
25.03181087498621
 30
0.0
 11
81.24221133955115
 21
27.83181087498628
 31
0.0
  0
LINE
  5
22A8
330
228D
100
AcDbEntity
  8
0
 62
     0
100
AcDbLine
 10
79.14221133955113
 20
29.03378526287935
 30
0.0
 11
76.34221133955112
 21
31.8337852628793
 31
0.0
  0
LINE
  5
22A9
330
228D
100
AcDbEntity
  8
0
 62
     0
100
AcDbLine
 10
72.84221133955111
 20
35.33378526287936
 30
0.0
 11
70.14244861622711
 21
38.03354798620336
 31
0.0
  0
LINE
  5
22AA
330
228D
100
AcDbEntity
  8
0
 62
     0
100
AcDbLine
 10
84.04221133955116
 20
24.13378526287932
 30
0.0
 11
81.24221133955108
 21
26.93378526287933
 31
0.0
  0
LINE
  5
22AB
330
228D
100
AcDbEntity
  8
0
 62
     0
100
AcDbLine
 10
79.14221133955113
 20
28.1357596507724
 30
0.0
 11
76.34221133955117
 21
30.93575965077241
 31
0.0
  0
LINE
  5
22AC
330
228D
100
AcDbEntity
  8
0
 62
     0
100
AcDbLine
 10
72.84221133955117
 20
34.43575965077241
 30
0.0
 11
70.0422113395511
 21
37.23575965077248
 31
0.0
  0
LINE
  5
22AD
330
228D
100
AcDbEntity
  8
0
 62
     0
100
AcDbLine
 10
84.04221133955122
 20
23.23575965077237
 30
0.0
 11
81.24221133955115
 21
26.03575965077244
 31
0.0
  0
LINE
  5
22AE
330
228D
100
AcDbEntity
  8
0
 62
     0
100
AcDbLine
 10
79.14221133955113
 20
27.23773403866557
 30
0.0
 11
76.34221133955117
 21
30.03773403866552
 31
0.0
  0
LINE
  5
22AF
330
228D
100
AcDbEntity
  8
0
 62
     0
100
AcDbLine
 10
72.84221133955123
 20
33.53773403866546
 30
0.0
 11
70.04221133955105
 21
36.33773403866559
 31
0.0
  0
LINE
  5
22B0
330
228D
100
AcDbEntity
  8
0
 62
     0
100
AcDbLine
 10
83.9702459846614
 20
22.40969939355529
 30
0.0
 11
81.24221133955115
 21
25.13773403866554
 31
0.0
  0
LINE
  5
22B1
330
228D
100
AcDbEntity
  8
0
 62
     0
100
AcDbLine
 10
79.14221133955113
 20
26.33970842655862
 30
0.0
 11
76.34221133955112
 21
29.13970842655857
 31
0.0
  0
LINE
  5
22B2
330
228D
100
AcDbEntity
  8
0
 62
     0
100
AcDbLine
 10
72.84221133955117
 20
32.63970842655857
 30
0.0
 11
70.04221133955105
 21
35.4397084265587
 31
0.0
  0
LINE
  5
22B3
330
228D
100
AcDbEntity
  8
0
 62
     0
100
AcDbLine
 10
83.33191939191204
 20
22.15000037419764
 30
0.0
 11
81.24221133955108
 21
24.23970842655865
 31
0.0
  0
LINE
  5
22B4
330
228D
100
AcDbEntity
  8
0
 62
     0
100
AcDbLine
 10
72.84221133955117
 20
31.74168281445162
 30
0.0
 11
70.0422113395511
 21
34.54168281445169
 31
0.0
  0
LINE
  5
22B5
330
228D
100
AcDbEntity
  8
0
 62
     0
100
AcDbLine
 10
79.14221133955106
 20
25.44168281445172
 30
0.0
 11
76.34221133955112
 21
28.24168281445168
 31
0.0
  0
LINE
  5
22B6
330
228D
100
AcDbEntity
  8
0
 62
     0
100
AcDbLine
 10
67.41721133955116
 20
37.16668281445163
 30
0.0
 11
66.33389377980501
 21
38.25000037419773
 31
0.0
  0
LINE
  5
22B7
330
228D
100
AcDbEntity
  8
0
 62
     0
100
AcDbLine
 10
82.43389377980504
 20
22.1500003741977
 30
0.0
 11
81.24221133955108
 21
23.3416828144517
 31
0.0
  0
LINE
  5
22B8
330
228D
100
AcDbEntity
  8
0
 62
     0
100
AcDbLine
 10
72.84221133955117
 20
30.84365720234473
 30
0.0
 11
70.04221133955116
 21
33.6436572023448
 31
0.0
  0
LINE
  5
22B9
330
228D
100
AcDbEntity
  8
0
 62
     0
100
AcDbLine
 10
67.41721133955116
 20
36.26865720234474
 30
0.0
 11
65.43586816769817
 21
38.25000037419778
 31
0.0
  0
LINE
  5
22BA
330
228D
100
AcDbEntity
  8
0
 62
     0
100
AcDbLine
 10
79.11625303890565
 20
24.5696155029903
 30
0.0
 11
76.34221133955112
 21
27.34365720234479
 31
0.0
  0
LINE
  5
22BB
330
228D
100
AcDbEntity
  8
0
 62
     0
100
AcDbLine
 10
72.84221133955117
 20
29.94563159023784
 30
0.0
 11
70.0422113395511
 21
32.74563159023791
 31
0.0
  0
LINE
  5
22BC
330
228D
100
AcDbEntity
  8
0
 62
     0
100
AcDbLine
 10
67.22163079343733
 20
35.56621213635168
 30
0.0
 11
64.53784255559117
 21
38.25000037419784
 31
0.0
  0
LINE
  5
22BD
330
228D
100
AcDbEntity
  8
0
 62
     0
100
AcDbLine
 10
78.92326774364841
 20
23.86457518614054
 30
0.0
 11
76.34221133955112
 21
26.44563159023789
 31
0.0
  0
LINE
  5
22BE
330
228D
100
AcDbEntity
  8
0
 62
     0
100
AcDbLine
 10
72.84221133955117
 20
29.04760597813089
 30
0.0
 11
70.0422113395511
 21
31.84760597813096
 31
0.0
  0
LINE
  5
22BF
330
228D
100
AcDbEntity
  8
0
 62
     0
100
AcDbLine
 10
66.43981694348434
 20
35.45000037419766
 30
0.0
 11
63.63981694348428
 21
38.25000037419773
 31
0.0
  0
LINE
  5
22C0
330
228D
100
AcDbEntity
  8
0
 62
     0
100
AcDbLine
 10
78.59823586772484
 20
23.29158144995716
 30
0.0
 11
76.2706956003916
 21
25.61912171729046
 31
0.0
  0
LINE
  5
22C1
330
228D
100
AcDbEntity
  8
0
 62
     0
100
AcDbLine
 10
72.84221133955117
 20
28.14958036602405
 30
0.0
 11
70.0422113395511
 21
30.94958036602406
 31
0.0
  0
LINE
  5
22C2
330
228D
100
AcDbEntity
  8
0
 62
     0
100
AcDbLine
 10
65.54179133137751
 20
35.45000037419772
 30
0.0
 11
62.80422460219995
 21
38.18756710337527
 31
0.0
  0
LINE
  5
22C3
330
228D
100
AcDbEntity
  8
0
 62
     0
100
AcDbLine
 10
78.16619407039979
 20
22.82559763517537
 30
0.0
 11
75.86910996192409
 21
25.12268174365107
 31
0.0
  0
LINE
  5
22C4
330
228D
100
AcDbEntity
  8
0
 62
     0
100
AcDbLine
 10
72.84221133955117
 20
27.25155475391711
 30
0.0
 11
70.0422113395511
 21
30.05155475391717
 31
0.0
  0
LINE
  5
22C5
330
228D
100
AcDbEntity
  8
0
 62
     0
100
AcDbLine
 10
64.64376571927051
 20
35.45000037419777
 30
0.0
 11
62.13958417766656
 21
37.95418191580166
 31
0.0
  0
LINE
  5
22C6
330
228D
100
AcDbEntity
  8
0
 62
     0
100
AcDbLine
 10
77.63003172547377
 20
22.46373436799451
 30
0.0
 11
75.1437657192705
 21
24.95000037419777
 31
0.0
  0
LINE
  5
22C7
330
228D
100
AcDbEntity
  8
0
 62
     0
100
AcDbLine
 10
72.84221133955111
 20
26.35352914181016
 30
0.0
 11
70.0422113395511
 21
29.15352914181023
 31
0.0
  0
LINE
  5
22C8
330
228D
100
AcDbEntity
  8
0
 62
     0
100
AcDbLine
 10
63.76752993518159
 20
35.42821054617969
 30
0.0
 11
61.59698324045638
 21
37.59875724090489
 31
0.0
  0
LINE
  5
22C9
330
228D
100
AcDbEntity
  8
0
 62
     0
100
AcDbLine
 10
76.97361916556246
 20
22.22212131579886
 30
0.0
 11
74.24574010716367
 21
24.95000037419766
 31
0.0
  0
LINE
  5
22CA
330
228D
100
AcDbEntity
  8
0
 62
     0
100
AcDbLine
 10
63.39221133955118
 20
34.9055035297032
 30
0.0
 11
61.15887118141182
 21
37.13884368784249
 31
0.0
  0
LINE
  5
22CB
330
228D
100
AcDbEntity
  8
0
 62
     0
100
AcDbLine
 10
76.14771449505667
 20
22.15000037419764
 30
0.0
 11
70.04221133955105
 21
28.25550352970333
 31
0.0
  0
LINE
  5
22CC
330
228D
100
AcDbEntity
  8
0
 62
     0
100
AcDbLine
 10
63.39221133955124
 20
34.00747791759631
 30
0.0
 11
60.8271002690588
 21
36.57258898808874
 31
0.0
  0
LINE
  5
22CD
330
228D
100
AcDbEntity
  8
0
 62
     0
100
AcDbLine
 10
75.24968888294973
 20
22.15000037419776
 30
0.0
 11
70.0422113395511
 21
27.35747791759644
 31
0.0
  0
LINE
  5
22CE
330
228D
100
AcDbEntity
  8
0
 62
     0
100
AcDbLine
 10
63.59875562065503
 20
32.90290802438557
 30
0.0
 11
60.62492174969469
 21
35.87674189534585
 31
0.0
  0
LINE
  5
22CF
330
228D
100
AcDbEntity
  8
0
 62
     0
100
AcDbLine
 10
74.35166327084283
 20
22.15000037419776
 30
0.0
 11
70.04221133955116
 21
26.45945230548944
 31
0.0
  0
LINE
  5
22D0
330
228D
100
AcDbEntity
  8
0
 62
     0
100
AcDbLine
 10
67.81581504224255
 20
27.7878229906911
 30
0.0
 11
60.59221133955111
 21
35.01142669338253
 31
0.0
  0
LINE
  5
22D1
330
228D
100
AcDbEntity
  8
0
 62
     0
100
AcDbLine
 10
58.49221133955109
 20
37.1114266933825
 30
0.0
 11
57.35363765873586
 21
38.25000037419778
 31
0.0
  0
LINE
  5
22D2
330
228D
100
AcDbEntity
  8
0
 62
     0
100
AcDbLine
 10
73.45363765873589
 20
22.15000037419776
 30
0.0
 11
70.0422113395511
 21
25.56142669338249
 31
0.0
  0
LINE
  5
22D3
330
228D
100
AcDbEntity
  8
0
 62
     0
100
AcDbLine
 10
67.94221133955108
 20
26.76340108127573
 30
0.0
 11
60.59221133955117
 21
34.11340108127564
 31
0.0
  0
LINE
  5
22D4
330
228D
100
AcDbEntity
  8
0
 62
     0
100
AcDbLine
 10
58.4922113395512
 20
36.21340108127555
 30
0.0
 11
56.45561204662897
 21
38.25000037419778
 31
0.0
  0
LINE
  5
22D5
330
228D
100
AcDbEntity
  8
0
 62
     0
100
AcDbLine
 10
72.53916416788411
 20
22.1664482529427
 30
0.0
 11
70.05865921829609
 21
24.64695320253071
 31
0.0
  0
LINE
  5
22D6
330
228D
100
AcDbEntity
  8
0
 62
     0
100
AcDbLine
 10
58.4922113395512
 20
35.31537546916866
 30
0.0
 11
55.78482145177588
 21
38.02276535694392
 31
0.0
  0
LINE
  5
22D7
330
228D
100
AcDbEntity
  8
0
 62
     0
100
AcDbLine
 10
67.94221133955113
 20
25.86537546916872
 30
0.0
 11
60.61562200743356
 21
33.1919648012863
 31
0.0
  0
LINE
  5
22D8
330
228D
100
AcDbEntity
  8
0
 62
     0
100
AcDbLine
 10
58.4922113395512
 20
34.41734985706171
 30
0.0
 11
55.69221133955114
 21
37.21734985706178
 31
0.0
  0
LINE
  5
22D9
330
228D
100
AcDbEntity
  8
0
 62
     0
100
AcDbLine
 10
67.94221133955108
 20
24.96734985706178
 30
0.0
 11
60.93374142527358
 21
31.97581977133933
 31
0.0
  0
LINE
  5
22DA
330
228D
100
AcDbEntity
  8
0
 62
     0
100
AcDbLine
 10
58.4922113395512
 20
33.51932424495482
 30
0.0
 11
55.69221133955114
 21
36.31932424495483
 31
0.0
  0
LINE
  5
22DB
330
228D
100
AcDbEntity
  8
0
 62
     0
100
AcDbLine
 10
67.83364952196212
 20
24.1778860625439
 30
0.0
 11
65.13801473292381
 21
26.87352085158221
 31
0.0
  0
LINE
  5
22DC
330
228D
100
AcDbEntity
  8
0
 62
     0
100
AcDbLine
 10
58.4922113395512
 20
32.62129863284793
 30
0.0
 11
55.69221133955114
 21
35.42129863284799
 31
0.0
  0
LINE
  5
22DD
330
228D
100
AcDbEntity
  8
0
 62
     0
100
AcDbLine
 10
53.40072443897418
 20
37.71278553342489
 30
0.0
 11
52.86350959820129
 21
38.25000037419784
 31
0.0
  0
LINE
  5
22DE
330
228D
100
AcDbEntity
  8
0
 62
     0
100
AcDbLine
 10
67.56577381420055
 20
23.54773615819858
 30
0.0
 11
65.14221133955124
 21
25.97129863284789
 31
0.0
  0
LINE
  5
22DF
330
228D
100
AcDbEntity
  8
0
 62
     0
100
AcDbLine
 10
58.49221133955115
 20
31.72327302074098
 30
0.0
 11
55.69221133955114
 21
34.52327302074105
 31
0.0
  0
LINE
  5
22E0
330
228D
100
AcDbEntity
  8
0
 62
     0
100
AcDbLine
 10
53.20179677472157
 20
37.01368758557055
 30
0.0
 11
51.96548398609434
 21
38.25000037419784
 31
0.0
  0
LINE
  5
22E1
330
228D
100
AcDbEntity
  8
0
 62
     0
100
AcDbLine
 10
67.18278701602526
 20
23.03269734426692
 30
0.0
 11
65.04492615666475
 21
25.17055820362742
 31
0.0
  0
LINE
  5
22E2
330
228D
100
AcDbEntity
  8
0
 62
     0
100
AcDbLine
 10
58.49221133955115
 20
30.82524740863409
 30
0.0
 11
55.69221133955108
 21
33.6252474086341
 31
0.0
  0
LINE
  5
22E3
330
228D
100
AcDbEntity
  8
0
 62
     0
100
AcDbLine
 10
52.98627062781588
 20
36.33118812036929
 30
0.0
 11
51.0770550643453
 21
38.24040368383993
 31
0.0
  0
LINE
  5
22E4
330
228D
100
AcDbEntity
  8
0
 62
     0
100
AcDbLine
 10
66.69646805090962
 20
22.62099069727554
 30
0.0
 11
64.36745837398746
 21
24.95000037419777
 31
0.0
  0
LINE
  5
22E5
330
228D
100
AcDbEntity
  8
0
 62
     0
100
AcDbLine
 10
58.4922113395512
 20
29.92722179652719
 30
0.0
 11
55.69221133955114
 21
32.72722179652726
 31
0.0
  0
LINE
  5
22E6
330
228D
100
AcDbEntity
  8
0
 62
     0
100
AcDbLine
 10
52.77074448091036
 20
35.64868865516803
 30
0.0
 11
50.64274448091032
 21
37.77668865516807
 31
0.0
  0
LINE
  5
22E7
330
228D
100
AcDbEntity
  8
0
 62
     0
100
AcDbLine
 10
66.10038410244925
 20
22.31904903362909
 30
0.0
 11
63.46943276188063
 21
24.95000037419777
 31
0.0
  0
LINE
  5
22E8
330
228D
100
AcDbEntity
  8
0
 62
     0
100
AcDbLine
 10
58.49221133955115
 20
29.0291961844203
 30
0.0
 11
55.69221133955108
 21
31.82919618442031
 31
0.0
  0
LINE
  5
22E9
330
228D
100
AcDbEntity
  8
0
 62
     0
100
AcDbLine
 10
52.55521833400462
 20
34.96618918996683
 30
0.0
 11
50.42721833400452
 21
37.09418918996693
 31
0.0
  0
LINE
  5
22EA
330
228D
100
AcDbEntity
  8
0
 62
     0
100
AcDbLine
 10
65.36271145080178
 20
22.15869607316967
 30
0.0
 11
62.57140714977362
 21
24.95000037419783
 31
0.0
  0
LINE
  5
22EB
330
228D
100
AcDbEntity
  8
0
 62
     0
100
AcDbLine
 10
58.49221133955115
 20
28.13117057231335
 30
0.0
 11
55.69221133955114
 21
30.93117057231331
 31
0.0
  0
LINE
  5
22EC
330
228D
100
AcDbEntity
  8
0
 62
     0
100
AcDbLine
 10
52.33969218709893
 20
34.28368972476557
 30
0.0
 11
50.21169218709883
 21
36.41168972476561
 31
0.0
  0
LINE
  5
22ED
330
228D
100
AcDbEntity
  8
0
 62
     0
100
AcDbLine
 10
64.47338153766674
 20
22.15000037419776
 30
0.0
 11
61.67338153766667
 21
24.95000037419783
 31
0.0
  0
LINE
  5
22EE
330
228D
100
AcDbEntity
  8
0
 62
     0
100
AcDbLine
 10
58.49221133955115
 20
27.23314496020646
 30
0.0
 11
55.69221133955119
 21
30.03314496020647
 31
0.0
  0
LINE
  5
22EF
330
228D
100
AcDbEntity
  8
0
 62
     0
100
AcDbLine
 10
52.1241660401933
 20
33.60119025956436
 30
0.0
 11
49.9961660401932
 21
35.72919025956441
 31
0.0
  0
LINE
  5
22F0
330
228D
100
AcDbEntity
  8
0
 62
     0
100
AcDbLine
 10
63.57535592555996
 20
22.1500003741977
 30
0.0
 11
61.14174422826346
 21
24.5836120714942
 31
0.0
  0
LINE
  5
22F1
330
228D
100
AcDbEntity
  8
0
 62
     0
100
AcDbLine
 10
51.90863989328767
 20
32.91869079436299
 30
0.0
 11
49.78063989328757
 21
35.04669079436315
 31
0.0
  0
LINE
  5
22F2
330
228D
100
AcDbEntity
  8
0
 62
     0
100
AcDbLine
 10
58.49221133955115
 20
26.33511934809957
 30
0.0
 11
55.69221133955119
 21
29.13511934809952
 31
0.0
  0
LINE
  5
22F3
330
228D
100
AcDbEntity
  8
0
 62
     0
100
AcDbLine
 10
47.64221133955118
 20
37.18511934809953
 30
0.0
 11
46.57733031345287
 21
38.25000037419778
 31
0.0
  0
LINE
  5
22F4
330
228D
100
AcDbEntity
  8
0
 62
     0
100
AcDbLine
 10
62.67733031345295
 20
22.15000037419776
 30
0.0
 11
61.1172113395512
 21
23.71011934809951
 31
0.0
  0
LINE
  5
22F5
330
228D
100
AcDbEntity
  8
0
 62
     0
100
AcDbLine
 10
51.69311374638187
 20
32.2361913291619
 30
0.0
 11
49.56511374638194
 21
34.36419132916183
 31
0.0
  0
LINE
  5
22F6
330
228D
100
AcDbEntity
  8
0
 62
     0
100
AcDbLine
 10
58.49221133955115
 20
25.43709373599262
 30
0.0
 11
55.69221133955114
 21
28.23709373599263
 31
0.0
  0
LINE
  5
22F7
330
228D
100
AcDbEntity
  8
0
 62
     0
100
AcDbLine
 10
47.64221133955118
 20
36.28709373599259
 30
0.0
 11
45.67930470134598
 21
38.25000037419778
 31
0.0
  0
LINE
  5
22F8
330
228D
100
AcDbEntity
  8
0
 62
     0
100
AcDbLine
 10
61.77930470134606
 20
22.15000037419764
 30
0.0
 11
61.11721133955114
 21
22.81209373599256
 31
0.0
  0
LINE
  5
22F9
330
228D
100
AcDbEntity
  8
0
 62
     0
100
AcDbLine
 10
51.47758759947624
 20
31.55369186396058
 30
0.0
 11
49.34958759947619
 21
33.68169186396062
 31
0.0
  0
LINE
  5
22FA
330
228D
100
AcDbEntity
  8
0
 62
     0
100
AcDbLine
 10
47.64221133955112
 20
35.38906812388564
 30
0.0
 11
44.96676641065351
 21
38.0645130527833
 31
0.0
  0
LINE
  5
22FB
330
228D
100
AcDbEntity
  8
0
 62
     0
100
AcDbLine
 10
58.49221133955109
 20
24.53906812388573
 30
0.0
 11
55.69221133955114
 21
27.33906812388568
 31
0.0
  0
LINE
  5
22FC
330
228D
100
AcDbEntity
  8
0
 62
     0
100
AcDbLine
 10
51.26206145257061
 20
30.87119239875938
 30
0.0
 11
49.13406145257062
 21
32.99919239875936
 31
0.0
  0
LINE
  5
22FD
330
228D
100
AcDbEntity
  8
0
 62
     0
100
AcDbLine
 10
47.64221133955118
 20
34.4910425117788
 30
0.0
 11
44.84221133955111
 21
37.29104251177882
 31
0.0
  0
LINE
  5
22FE
330
228D
100
AcDbEntity
  8
0
 62
     0
100
AcDbLine
 10
58.49221133955115
 20
23.64104251177884
 30
0.0
 11
55.69221133955114
 21
26.44104251177879
 31
0.0
  0
LINE
  5
22FF
330
228D
100
AcDbEntity
  8
0
 62
     0
100
AcDbLine
 10
51.05697294317855
 20
30.17825529604448
 30
0.0
 11
48.91853530566487
 21
32.31669293355816
 31
0.0
  0
LINE
  5
2300
330
228D
100
AcDbEntity
  8
0
 62
     0
100
AcDbLine
 10
47.64221133955118
 20
33.59301689967185
 30
0.0
 11
44.84221133955111
 21
36.39301689967192
 31
0.0
  0
LINE
  5
2301
330
228D
100
AcDbEntity
  8
0
 62
     0
100
AcDbLine
 10
58.49221133955109
 20
22.74301689967189
 30
0.0
 11
55.69221133955114
 21
25.5430168996719
 31
0.0
  0
LINE
  5
2302
330
228D
100
AcDbEntity
  8
0
 62
     0
100
AcDbLine
 10
51.47144630261255
 20
28.86575632450354
 30
0.0
 11
48.62798780998025
 21
31.70921481713583
 31
0.0
  0
LINE
  5
2303
330
228D
100
AcDbEntity
  8
0
 62
     0
100
AcDbLine
 10
47.64221133955124
 20
32.69499128756485
 30
0.0
 11
44.84221133955105
 21
35.49499128756497
 31
0.0
  0
LINE
  5
2304
330
228D
100
AcDbEntity
  8
0
 62
     0
100
AcDbLine
 10
58.15316634221876
 20
22.18403628489728
 30
0.0
 11
55.69221133955114
 21
24.64499128756495
 31
0.0
  0
LINE
  5
2305
330
228D
100
AcDbEntity
  8
0
 62
     0
100
AcDbLine
 10
51.88591966204654
 20
27.55325735296271
 30
0.0
 11
44.84221133955111
 21
34.59696567545814
 31
0.0
  0
LINE
  5
2306
330
228D
100
AcDbEntity
  8
0
 62
     0
100
AcDbLine
 10
42.39221133955124
 20
37.04696567545801
 30
0.0
 11
41.18917664081147
 21
38.25000037419778
 31
0.0
  0
LINE
  5
2307
330
228D
100
AcDbEntity
  8
0
 62
     0
100
AcDbLine
 10
57.28917664081149
 20
22.15000037419776
 30
0.0
 11
55.69221133955124
 21
23.746965675458
 31
0.0
  0
LINE
  5
2308
330
228D
100
AcDbEntity
  8
0
 62
     0
100
AcDbLine
 10
52.30039302148043
 20
26.24075838142187
 30
0.0
 11
44.84221133955111
 21
33.69894006335119
 31
0.0
  0
LINE
  5
2309
330
228D
100
AcDbEntity
  8
0
 62
     0
100
AcDbLine
 10
42.39221133955124
 20
36.14894006335106
 30
0.0
 11
40.29115102870446
 21
38.25000037419784
 31
0.0
  0
LINE
  5
230A
330
228D
100
AcDbEntity
  8
0
 62
     0
100
AcDbLine
 10
56.39115102870454
 20
22.1500003741977
 30
0.0
 11
55.69221133955119
 21
22.84894006335111
 31
0.0
  0
LINE
  5
230B
330
228D
100
AcDbEntity
  8
0
 62
     0
100
AcDbLine
 10
42.12530464416113
 20
35.51782114663422
 30
0.0
 11
39.42508292594971
 21
38.21804286484559
 31
0.0
  0
LINE
  5
230C
330
228D
100
AcDbEntity
  8
0
 62
     0
100
AcDbLine
 10
52.71486638091443
 20
24.92825940988093
 30
0.0
 11
44.84221133955105
 21
32.8009144512443
 31
0.0
  0
LINE
  5
230D
330
228D
100
AcDbEntity
  8
0
 62
     0
100
AcDbLine
 10
47.97972026189279
 20
28.76537991679567
 30
0.0
 11
44.84221133955111
 21
31.90288883913735
 31
0.0
  0
LINE
  5
230E
330
228D
100
AcDbEntity
  8
0
 62
     0
100
AcDbLine
 10
41.29509980449069
 20
35.45000037419772
 30
0.0
 11
38.68703985636244
 21
38.05806032232601
 31
0.0
  0
LINE
  5
230F
330
228D
100
AcDbEntity
  8
0
 62
     0
100
AcDbLine
 10
53.12933974034843
 20
23.61576043834003
 30
0.0
 11
49.03703204804049
 21
27.70806813064798
 31
0.0
  0
LINE
  5
2310
330
228D
100
AcDbEntity
  8
0
 62
     0
100
AcDbLine
 10
47.64221133955124
 20
28.20486322703033
 30
0.0
 11
44.84221133955105
 21
31.00486322703046
 31
0.0
  0
LINE
  5
2311
330
228D
100
AcDbEntity
  8
0
 62
     0
100
AcDbLine
 10
40.39707419238368
 20
35.45000037419783
 30
0.0
 11
38.04831844053172
 21
37.7987561260498
 31
0.0
  0
LINE
  5
2312
330
228D
100
AcDbEntity
  8
0
 62
     0
100
AcDbLine
 10
53.3643785980592
 20
22.48269596852231
 30
0.0
 11
49.45150540747443
 21
26.39556915910714
 31
0.0
  0
LINE
  5
2313
330
228D
100
AcDbEntity
  8
0
 62
     0
100
AcDbLine
 10
47.64221133955118
 20
27.30683761492344
 30
0.0
 11
44.84221133955105
 21
30.10683761492356
 31
0.0
  0
LINE
  5
2314
330
228D
100
AcDbEntity
  8
0
 62
     0
100
AcDbLine
 10
39.55396068984015
 20
35.39508826463447
 30
0.0
 11
37.48956946519718
 21
37.45947948927744
 31
0.0
  0
LINE
  5
2315
330
228D
100
AcDbEntity
  8
0
 62
     0
100
AcDbLine
 10
52.79904858027686
 20
22.15000037419776
 30
0.0
 11
49.86597876690848
 21
25.08307018756608
 31
0.0
  0
LINE
  5
2316
330
228D
100
AcDbEntity
  8
0
 62
     0
100
AcDbLine
 10
47.64221133955118
 20
26.40881200281649
 30
0.0
 11
44.84221133955105
 21
29.20881200281661
 31
0.0
  0
LINE
  5
2317
330
228D
100
AcDbEntity
  8
0
 62
     0
100
AcDbLine
 10
38.98210449700116
 20
35.06891884536651
 30
0.0
 11
37.0019142565854
 21
37.04910908578228
 31
0.0
  0
LINE
  5
2318
330
228D
100
AcDbEntity
  8
0
 62
     0
100
AcDbLine
 10
51.90102296816991
 20
22.15000037419776
 30
0.0
 11
50.28045212634243
 21
23.77057121602525
 31
0.0
  0
LINE
  5
2319
330
228D
100
AcDbEntity
  8
0
 62
     0
100
AcDbLine
 10
42.72764047234892
 20
30.42535725791192
 30
0.0
 11
41.21756822326517
 21
31.93542950699566
 31
0.0
  0
LINE
  5
231A
330
228D
100
AcDbEntity
  8
0
 62
     0
100
AcDbLine
 10
47.64221133955118
 20
25.5107863907096
 30
0.0
 11
44.84221133955105
 21
28.31078639070978
 31
0.0
  0
LINE
  5
231B
330
228D
100
AcDbEntity
  8
0
 62
     0
100
AcDbLine
 10
38.62598292687221
 20
34.52701480338863
 30
0.0
 11
36.58254823057416
 21
36.57044949968668
 31
0.0
  0
LINE
  5
231C
330
228D
100
AcDbEntity
  8
0
 62
     0
100
AcDbLine
 10
50.9526643518584
 20
22.20033337840243
 30
0.0
 11
50.70231018026709
 21
22.45068754999374
 31
0.0
  0
LINE
  5
231D
330
228D
100
AcDbEntity
  8
0
 62
     0
100
AcDbLine
 10
42.64112681220701
 20
29.61384530594688
 30
0.0
 11
40.40605627130014
 21
31.84891584685374
 31
0.0
  0
LINE
  5
231E
330
228D
100
AcDbEntity
  8
0
 62
     0
100
AcDbLine
 10
38.54221133955127
 20
33.71276077860262
 30
0.0
 11
36.2336092096125
 21
36.02136290854139
 31
0.0
  0
LINE
  5
231F
330
228D
100
AcDbEntity
  8
0
 62
     0
100
AcDbLine
 10
47.64221133955118
 20
24.61276077860271
 30
0.0
 11
44.84221133955105
 21
27.41276077860283
 31
0.0
  0
LINE
  5
2320
330
228D
100
AcDbEntity
  8
0
 62
     0
100
AcDbLine
 10
42.30927125290896
 20
29.04767525313793
 30
0.0
 11
39.83988621849119
 21
31.51706028755569
 31
0.0
  0
LINE
  5
2321
330
228D
100
AcDbEntity
  8
0
 62
     0
100
AcDbLine
 10
38.54221133955127
 20
32.81473516649567
 30
0.0
 11
35.96302950240232
 21
35.39391700364462
 31
0.0
  0
LINE
  5
2322
330
228D
100
AcDbEntity
  8
0
 62
     0
100
AcDbLine
 10
47.64221133955118
 20
23.71473516649576
 30
0.0
 11
44.84221133955111
 21
26.51473516649583
 31
0.0
  0
LINE
  5
2323
330
228D
100
AcDbEntity
  8
0
 62
     0
100
AcDbLine
 10
38.54221133955127
 20
31.91670955438878
 30
0.0
 11
35.78831562947647
 21
34.67060526446363
 31
0.0
  0
LINE
  5
2324
330
228D
100
AcDbEntity
  8
0
 62
     0
100
AcDbLine
 10
41.80743781077251
 20
28.65148308316759
 30
0.0
 11
39.44369404852086
 21
31.01522684541925
 31
0.0
  0
LINE
  5
2325
330
228D
100
AcDbEntity
  8
0
 62
     0
100
AcDbLine
 10
33.11721133955109
 20
37.34170955438896
 30
0.0
 11
32.20892051974221
 21
38.2500003741979
 31
0.0
  0
LINE
  5
2326
330
228D
100
AcDbEntity
  8
0
 62
     0
100
AcDbLine
 10
47.64221133955118
 20
22.81670955438892
 30
0.0
 11
44.84221133955111
 21
25.61670955438894
 31
0.0
  0
LINE
  5
2327
330
228D
100
AcDbEntity
  8
0
 62
     0
100
AcDbLine
 10
38.54221133955127
 20
31.01868394228188
 30
0.0
 11
35.74221133955115
 21
33.81868394228201
 31
0.0
  0
LINE
  5
2328
330
228D
100
AcDbEntity
  8
0
 62
     0
100
AcDbLine
 10
41.10711836834508
 20
28.45377691348807
 30
0.0
 11
39.24598787884134
 21
30.31490740299182
 31
0.0
  0
LINE
  5
2329
330
228D
100
AcDbEntity
  8
0
 62
     0
100
AcDbLine
 10
33.11721133955109
 20
36.44368394228207
 30
0.0
 11
31.31089490763526
 21
38.25000037419784
 31
0.0
  0
LINE
  5
232A
330
228D
100
AcDbEntity
  8
0
 62
     0
100
AcDbLine
 10
47.35430753828057
 20
22.20658774355257
 30
0.0
 11
44.84221133955111
 21
24.71868394228204
 31
0.0
  0
LINE
  5
232B
330
228D
100
AcDbEntity
  8
0
 62
     0
100
AcDbLine
 10
38.54221133955127
 20
30.12065833017493
 30
0.0
 11
35.74221133955109
 21
32.92065833017506
 31
0.0
  0
LINE
  5
232C
330
228D
100
AcDbEntity
  8
0
 62
     0
100
AcDbLine
 10
33.00817736928082
 20
35.65469230044539
 30
0.0
 11
30.41286929552837
 21
38.25000037419784
 31
0.0
  0
LINE
  5
232D
330
228D
100
AcDbEntity
  8
0
 62
     0
100
AcDbLine
 10
46.51286929552845
 20
22.1500003741977
 30
0.0
 11
44.84221133955111
 21
23.82065833017509
 31
0.0
  0
LINE
  5
232E
330
228D
100
AcDbEntity
  8
0
 62
     0
100
AcDbLine
 10
38.54221133955121
 20
29.22263271806804
 30
0.0
 11
35.74221133955109
 21
32.02263271806817
 31
0.0
  0
LINE
  5
232F
330
228D
100
AcDbEntity
  8
0
 62
     0
100
AcDbLine
 10
32.31484368342149
 20
35.45000037419777
 30
0.0
 11
29.51484368342153
 21
38.25000037419773
 31
0.0
  0
LINE
  5
2330
330
228D
100
AcDbEntity
  8
0
 62
     0
100
AcDbLine
 10
45.61484368342155
 20
22.1500003741977
 30
0.0
 11
44.84221133955105
 21
22.9226327180682
 31
0.0
  0
LINE
  5
2331
330
228D
100
AcDbEntity
  8
0
 62
     0
100
AcDbLine
 10
38.54221133955127
 20
28.32460710596115
 30
0.0
 11
35.74221133955115
 21
31.12460710596128
 31
0.0
  0
LINE
  5
2332
330
228D
100
AcDbEntity
  8
0
 62
     0
100
AcDbLine
 10
31.4168180713146
 20
35.45000037419777
 30
0.0
 11
28.6516887992097
 21
38.21512964630273
 31
0.0
  0
LINE
  5
2333
330
228D
100
AcDbEntity
  8
0
 62
     0
100
AcDbLine
 10
42.38960889071427
 20
24.47720955479809
 30
0.0
 11
41.91942052015156
 21
24.94739792536086
 31
0.0
  0
LINE
  5
2334
330
228D
100
AcDbEntity
  8
0
 62
     0
100
AcDbLine
 10
38.54221133955121
 20
27.4265814938542
 30
0.0
 11
35.74221133955109
 21
30.22658149385438
 31
0.0
  0
LINE
  5
2335
330
228D
100
AcDbEntity
  8
0
 62
     0
100
AcDbLine
 10
30.5187924592077
 20
35.45000037419777
 30
0.0
 11
27.95855399073122
 21
38.01023884267426
 31
0.0
  0
LINE
  5
2336
330
228D
100
AcDbEntity
  8
0
 62
     0
100
AcDbLine
 10
42.39221133955118
 20
23.57658149385423
 30
0.0
 11
41.0187924592077
 21
24.95000037419777
 31
0.0
  0
LINE
  5
2337
330
228D
100
AcDbEntity
  8
0
 62
     0
100
AcDbLine
 10
38.54221133955121
 20
26.52855588174731
 30
0.0
 11
35.74221133955109
 21
29.32855588174744
 31
0.0
  0
LINE
  5
2338
330
228D
100
AcDbEntity
  8
0
 62
     0
100
AcDbLine
 10
29.62076684710075
 20
35.45000037419772
 30
0.0
 11
27.39430733088398
 21
37.67645989041449
 31
0.0
  0
LINE
  5
2339
330
228D
100
AcDbEntity
  8
0
 62
     0
100
AcDbLine
 10
42.39221133955118
 20
22.67855588174734
 30
0.0
 11
40.12076684710075
 21
24.95000037419771
 31
0.0
  0
LINE
  5
233A
330
228D
100
AcDbEntity
  8
0
 62
     0
100
AcDbLine
 10
29.11047401948616
 20
35.06226758970553
 30
0.0
 11
26.93621451864323
 21
37.23652709054846
 31
0.0
  0
LINE
  5
233B
330
228D
100
AcDbEntity
  8
0
 62
     0
100
AcDbLine
 10
42.00447855505887
 20
22.16826305413281
 30
0.0
 11
35.74221133955109
 21
28.43053026964054
 31
0.0
  0
LINE
  5
233C
330
228D
100
AcDbEntity
  8
0
 62
     0
100
AcDbLine
 10
29.09221133955112
 20
34.18250465753357
 30
0.0
 11
26.58273331617414
 21
36.6919826809106
 31
0.0
  0
LINE
  5
233D
330
228D
100
AcDbEntity
  8
0
 62
     0
100
AcDbLine
 10
41.12471562288703
 20
22.1500003741977
 30
0.0
 11
35.74221133955109
 21
27.53250465753365
 31
0.0
  0
LINE
  5
233E
330
228D
100
AcDbEntity
  8
0
 62
     0
100
AcDbLine
 10
29.15434704768666
 20
33.22234333729108
 30
0.0
 11
26.35185321388042
 21
36.02483717109738
 31
0.0
  0
LINE
  5
233F
330
228D
100
AcDbEntity
  8
0
 62
     0
100
AcDbLine
 10
40.22669001078009
 20
22.15000037419764
 30
0.0
 11
35.74221133955109
 21
26.6344790454267
 31
0.0
  0
LINE
  5
2340
330
228D
100
AcDbEntity
  8
0
 62
     0
100
AcDbLine
 10
33.44658743077389
 20
28.03207734209701
 30
0.0
 11
26.2922113395511
 21
35.1864534333198
 31
0.0
  0
LINE
  5
2341
330
228D
100
AcDbEntity
  8
0
 62
     0
100
AcDbLine
 10
39.27539231161643
 20
22.20327246125447
 30
0.0
 11
35.79548342660786
 21
25.68318134626304
 31
0.0
  0
LINE
  5
2342
330
228D
100
AcDbEntity
  8
0
 62
     0
100
AcDbLine
 10
33.63848194485911
 20
26.9421572159049
 30
0.0
 11
26.29221133955116
 21
34.28842782121285
 31
0.0
  0
LINE
  5
2343
330
228D
100
AcDbEntity
  8
0
 62
     0
100
AcDbLine
 10
37.90158439901484
 20
22.67905476174911
 30
0.0
 11
36.27126572710245
 21
24.30937343366156
 31
0.0
  0
LINE
  5
2344
330
228D
100
AcDbEntity
  8
0
 62
     0
100
AcDbLine
 10
33.64221133955124
 20
26.04040220910582
 30
0.0
 11
26.29977578697356
 21
33.38283776168345
 31
0.0
  0
LINE
  5
2345
330
228D
100
AcDbEntity
  8
0
 62
     0
100
AcDbLine
 10
33.64221133955118
 20
25.14237659699893
 30
0.0
 11
26.52306654529741
 21
32.26152139125264
 31
0.0
  0
LINE
  5
2346
330
228D
100
AcDbEntity
  8
0
 62
     0
100
AcDbLine
 10
33.56969134341927
 20
24.31687098102401
 30
0.0
 11
30.80629969980021
 21
27.08026262464307
 31
0.0
  0
LINE
  5
2347
330
228D
100
AcDbEntity
  8
0
 62
     0
100
AcDbLine
 10
33.32775340439042
 20
23.66078330794591
 30
0.0
 11
30.84221133955117
 21
26.14632537278516
 31
0.0
  0
LINE
  5
2348
330
228D
100
AcDbEntity
  8
0
 62
     0
100
AcDbLine
 10
32.96563415700865
 20
23.12487694322073
 30
0.0
 11
30.8063123072505
 21
25.28419879297889
 31
0.0
  0
LINE
  5
2349
330
228D
100
AcDbEntity
  8
0
 62
     0
100
AcDbLine
 10
32.49940778474178
 20
22.69307770338071
 30
0.0
 11
30.24248511392466
 21
24.95000037419789
 31
0.0
  0
LINE
  5
234A
330
228D
100
AcDbEntity
  8
0
 62
     0
100
AcDbLine
 10
31.92614333700897
 20
22.36831653900663
 30
0.0
 11
29.34445950181771
 21
24.95000037419783
 31
0.0
  0
LINE
  5
234B
330
228D
100
AcDbEntity
  8
0
 62
     0
100
AcDbLine
 10
31.22073074792303
 20
22.17570351598562
 30
0.0
 11
28.44643388971088
 21
24.95000037419777
 31
0.0
  0
LINE
  5
234C
330
228D
100
AcDbEntity
  8
0
 62
     0
100
AcDbLine
 10
30.348408277604
 20
22.15000037419764
 30
0.0
 11
27.54840827760399
 21
24.95000037419771
 31
0.0
  0
LINE
  5
234D
330
228D
100
AcDbEntity
  8
0
 62
     0
100
AcDbLine
 10
29.45038266549705
 20
22.15000037419776
 30
0.0
 11
26.89705877067917
 21
24.7033242690157
 31
0.0
  0
LINE
  5
234E
330
228D
100
AcDbEntity
  8
0
 62
     0
100
AcDbLine
 10
28.55235705339016
 20
22.15000037419776
 30
0.0
 11
26.81721133955119
 21
23.88514608803672
 31
0.0
  0
LINE
  5
234F
330
228D
100
AcDbEntity
  8
0
 62
     0
100
AcDbLine
 10
27.65433144128321
 20
22.15000037419776
 30
0.0
 11
26.81721133955119
 21
22.98712047592977
 31
0.0
  0
LINE
  5
2350
330
228D
100
AcDbEntity
  8
0
 62
     0
100
AcDbLine
 10
83.63389862421815
 20
22.16313215131533
 30
0.0
 11
84.02907956243394
 21
22.55831308953111
 31
0.0
  0
LINE
  5
2351
330
228D
100
AcDbEntity
  8
0
 62
     0
100
AcDbLine
 10
82.7227412349937
 20
22.1500003741977
 30
0.0
 11
84.04221133955138
 21
23.4694704787554
 31
0.0
  0
LINE
  5
2352
330
228D
100
AcDbEntity
  8
0
 62
     0
100
AcDbLine
 10
81.8247156228868
 20
22.1500003741977
 30
0.0
 11
84.04221133955138
 21
24.36749609086229
 31
0.0
  0
LINE
  5
2353
330
228D
100
AcDbEntity
  8
0
 62
     0
100
AcDbLine
 10
81.27340890280306
 20
22.49671926622091
 30
0.0
 11
84.04221133955132
 21
25.26552170296924
 31
0.0
  0
LINE
  5
2354
330
228D
100
AcDbEntity
  8
0
 62
     0
100
AcDbLine
 10
81.24221133955126
 20
23.36354731507606
 30
0.0
 11
84.04221133955132
 21
26.16354731507608
 31
0.0
  0
LINE
  5
2355
330
228D
100
AcDbEntity
  8
0
 62
     0
100
AcDbLine
 10
81.24221133955131
 20
24.26157292718296
 30
0.0
 11
84.04221133955132
 21
27.06157292718302
 31
0.0
  0
LINE
  5
2356
330
228D
100
AcDbEntity
  8
0
 62
     0
100
AcDbLine
 10
81.24221133955126
 20
25.1595985392899
 30
0.0
 11
84.04221133955132
 21
27.95959853928997
 31
0.0
  0
LINE
  5
2357
330
228D
100
AcDbEntity
  8
0
 62
     0
100
AcDbLine
 10
81.24221133955126
 20
26.05762415139679
 30
0.0
 11
84.04221133955132
 21
28.85762415139686
 31
0.0
  0
LINE
  5
2358
330
228D
100
AcDbEntity
  8
0
 62
     0
100
AcDbLine
 10
77.66877620161654
 20
22.48418901346207
 30
0.0
 11
78.80802270028709
 21
23.62343551213269
 31
0.0
  0
LINE
  5
2359
330
228D
100
AcDbEntity
  8
0
 62
     0
100
AcDbLine
 10
81.24221133955126
 20
26.95564976350369
 30
0.0
 11
84.04221133955132
 21
29.75564976350375
 31
0.0
  0
LINE
  5
235A
330
228D
100
AcDbEntity
  8
0
 62
     0
100
AcDbLine
 10
76.43820803509374
 20
22.15164645904616
 30
0.0
 11
79.14056525470306
 21
24.85400367865543
 31
0.0
  0
LINE
  5
235B
330
228D
100
AcDbEntity
  8
0
 62
     0
100
AcDbLine
 10
81.24221133955126
 20
27.85367537561064
 30
0.0
 11
84.04221133955132
 21
30.65367537561065
 31
0.0
  0
LINE
  5
235C
330
228D
100
AcDbEntity
  8
0
 62
     0
100
AcDbLine
 10
75.53853633813833
 20
22.1500003741977
 30
0.0
 11
79.14221133955135
 21
25.75367537561067
 31
0.0
  0
LINE
  5
235D
330
228D
100
AcDbEntity
  8
0
 62
     0
100
AcDbLine
 10
81.24221133955126
 20
28.75170098771753
 30
0.0
 11
84.04221133955127
 21
31.5517009877176
 31
0.0
  0
LINE
  5
235E
330
228D
100
AcDbEntity
  8
0
 62
     0
100
AcDbLine
 10
74.64051072603144
 20
22.1500003741977
 30
0.0
 11
79.1422113395513
 21
26.65170098771762
 31
0.0
  0
LINE
  5
235F
330
228D
100
AcDbEntity
  8
0
 62
     0
100
AcDbLine
 10
81.24221133955126
 20
29.64972659982442
 30
0.0
 11
84.04221133955132
 21
32.44972659982449
 31
0.0
  0
LINE
  5
2360
330
228D
100
AcDbEntity
  8
0
 62
     0
100
AcDbLine
 10
73.7424851139246
 20
22.15000037419776
 30
0.0
 11
79.14221133955135
 21
27.54972659982451
 31
0.0
  0
LINE
  5
2361
330
228D
100
AcDbEntity
  8
0
 62
     0
100
AcDbLine
 10
76.23762013747023
 20
25.54316100985034
 30
0.0
 11
79.14221133955135
 21
28.4477522119314
 31
0.0
  0
LINE
  5
2362
330
228D
100
AcDbEntity
  8
0
 62
     0
100
AcDbLine
 10
81.24221133955126
 20
30.54775221193131
 30
0.0
 11
84.04221133955132
 21
33.34775221193138
 31
0.0
  0
LINE
  5
2363
330
228D
100
AcDbEntity
  8
0
 62
     0
100
AcDbLine
 10
72.84445950181759
 20
22.1500003741977
 30
0.0
 11
75.74905070389871
 21
25.05459157627877
 31
0.0
  0
LINE
  5
2364
330
228D
100
AcDbEntity
  8
0
 62
     0
100
AcDbLine
 10
76.34221133955122
 20
26.54577782403829
 30
0.0
 11
79.1422113395513
 21
29.34577782403835
 31
0.0
  0
LINE
  5
2365
330
228D
100
AcDbEntity
  8
0
 62
     0
100
AcDbLine
 10
81.24221133955121
 20
31.44577782403826
 30
0.0
 11
84.04221133955127
 21
34.24577782403833
 31
0.0
  0
LINE
  5
2366
330
228D
100
AcDbEntity
  8
0
 62
     0
100
AcDbLine
 10
72.05838364108791
 20
22.26195012557491
 30
0.0
 11
74.74643388971077
 21
24.95000037419777
 31
0.0
  0
LINE
  5
2367
330
228D
100
AcDbEntity
  8
0
 62
     0
100
AcDbLine
 10
76.34221133955128
 20
27.44380343614529
 30
0.0
 11
79.1422113395513
 21
30.24380343614524
 31
0.0
  0
LINE
  5
2368
330
228D
100
AcDbEntity
  8
0
 62
     0
100
AcDbLine
 10
81.24221133955121
 20
32.34380343614521
 30
0.0
 11
84.04221133955127
 21
35.14380343614522
 31
0.0
  0
LINE
  5
2369
330
228D
100
AcDbEntity
  8
0
 62
     0
100
AcDbLine
 10
71.43039677387776
 20
22.53198887047176
 30
0.0
 11
73.8492860632482
 21
24.9508781598422
 31
0.0
  0
LINE
  5
236A
330
228D
100
AcDbEntity
  8
0
 62
     0
100
AcDbLine
 10
76.34221133955134
 20
28.34182904825218
 30
0.0
 11
79.1422113395513
 21
31.14182904825213
 31
0.0
  0
LINE
  5
236B
330
228D
100
AcDbEntity
  8
0
 62
     0
100
AcDbLine
 10
81.24221133955126
 20
33.24182904825204
 30
0.0
 11
84.04221133955127
 21
36.04182904825211
 31
0.0
  0
LINE
  5
236C
330
228D
100
AcDbEntity
  8
0
 62
     0
100
AcDbLine
 10
70.91713689251259
 20
22.91675460121343
 30
0.0
 11
73.20580747453551
 21
25.20542518323634
 31
0.0
  0
LINE
  5
236D
330
228D
100
AcDbEntity
  8
0
 62
     0
100
AcDbLine
 10
76.34221133955134
 20
29.23985466035907
 30
0.0
 11
79.1422113395513
 21
32.03985466035908
 31
0.0
  0
LINE
  5
236E
330
228D
100
AcDbEntity
  8
0
 62
     0
100
AcDbLine
 10
81.24221133955121
 20
34.13985466035899
 30
0.0
 11
84.04221133955127
 21
36.93985466035906
 31
0.0
  0
LINE
  5
236F
330
228D
100
AcDbEntity
  8
0
 62
     0
100
AcDbLine
 10
70.50717271728757
 20
23.4048160380953
 30
0.0
 11
72.86856919612609
 21
25.76621251693388
 31
0.0
  0
LINE
  5
2370
330
228D
100
AcDbEntity
  8
0
 62
     0
100
AcDbLine
 10
76.34221133955128
 20
30.13788027246602
 30
0.0
 11
79.14221133955135
 21
32.93788027246609
 31
0.0
  0
LINE
  5
2371
330
228D
100
AcDbEntity
  8
0
 62
     0
100
AcDbLine
 10
81.24221133955121
 20
35.03788027246589
 30
0.0
 11
84.03206218600081
 21
37.82773111891555
 31
0.0
  0
LINE
  5
2372
330
228D
100
AcDbEntity
  8
0
 62
     0
100
AcDbLine
 10
70.20724783885356
 20
24.0029167717683
 30
0.0
 11
72.84221133955128
 21
26.63788027246596
 31
0.0
  0
LINE
  5
2373
330
228D
100
AcDbEntity
  8
0
 62
     0
100
AcDbLine
 10
76.34221133955134
 20
31.03590588457286
 30
0.0
 11
79.14221133955141
 21
33.83590588457292
 31
0.0
  0
LINE
  5
2374
330
228D
100
AcDbEntity
  8
0
 62
     0
100
AcDbLine
 10
81.24221133955121
 20
35.93590588457278
 30
0.0
 11
83.55494784092133
 21
38.2486423859429
 31
0.0
  0
LINE
  5
2375
330
228D
100
AcDbEntity
  8
0
 62
     0
100
AcDbLine
 10
70.04983430389711
 20
24.74352884891869
 30
0.0
 11
72.84221133955128
 21
27.53590588457285
 31
0.0
  0
LINE
  5
2376
330
228D
100
AcDbEntity
  8
0
 62
     0
100
AcDbLine
 10
76.34221133955128
 20
31.93393149667981
 30
0.0
 11
79.14221133955135
 21
34.73393149667987
 31
0.0
  0
LINE
  5
2377
330
228D
100
AcDbEntity
  8
0
 62
     0
100
AcDbLine
 10
81.24221133955121
 20
36.83393149667973
 30
0.0
 11
82.65828021706926
 21
38.25000037419778
 31
0.0
  0
LINE
  5
2378
330
228D
100
AcDbEntity
  8
0
 62
     0
100
AcDbLine
 10
70.04221133955133
 20
25.63393149667979
 30
0.0
 11
72.84221133955134
 21
28.43393149667986
 31
0.0
  0
LINE
  5
2379
330
228D
100
AcDbEntity
  8
0
 62
     0
100
AcDbLine
 10
76.34221133955128
 20
32.83195710878676
 30
0.0
 11
79.14221133955135
 21
35.63195710878677
 31
0.0
  0
LINE
  5
237A
330
228D
100
AcDbEntity
  8
0
 62
     0
100
AcDbLine
 10
70.04221133955127
 20
26.53195710878674
 30
0.0
 11
72.84221133955134
 21
29.33195710878681
 31
0.0
  0
LINE
  5
237B
330
228D
100
AcDbEntity
  8
0
 62
     0
100
AcDbLine
 10
81.24225805429871
 20
37.73200382353417
 30
0.0
 11
81.76020789021498
 21
38.2499536594504
 31
0.0
  0
LINE
  5
237C
330
228D
100
AcDbEntity
  8
0
 62
     0
100
AcDbLine
 10
65.72065570883927
 20
22.21040147807469
 30
0.0
 11
67.88181023567443
 21
24.37155600490991
 31
0.0
  0
LINE
  5
237D
330
228D
100
AcDbEntity
  8
0
 62
     0
100
AcDbLine
 10
70.04221133955127
 20
27.42998272089363
 30
0.0
 11
72.84221133955134
 21
30.2299827208937
 31
0.0
  0
LINE
  5
237E
330
228D
100
AcDbEntity
  8
0
 62
     0
100
AcDbLine
 10
76.34221133955128
 20
33.72998272089365
 30
0.0
 11
79.1422113395513
 21
36.52998272089372
 31
0.0
  0
LINE
  5
237F
330
228D
100
AcDbEntity
  8
0
 62
     0
100
AcDbLine
 10
64.7622289928554
 20
22.15000037419782
 30
0.0
 11
67.94221133955125
 21
25.32998272089367
 31
0.0
  0
LINE
  5
2380
330
228D
100
AcDbEntity
  8
0
 62
     0
100
AcDbLine
 10
70.04221133955127
 20
28.32800833300053
 30
0.0
 11
72.84221133955134
 21
31.1280083330006
 31
0.0
  0
LINE
  5
2381
330
228D
100
AcDbEntity
  8
0
 62
     0
100
AcDbLine
 10
76.34221133955128
 20
34.62800833300054
 30
0.0
 11
79.14221133955135
 21
37.42800833300061
 31
0.0
  0
LINE
  5
2382
330
228D
100
AcDbEntity
  8
0
 62
     0
100
AcDbLine
 10
63.8642033807485
 20
22.15000037419776
 30
0.0
 11
67.9422113395513
 21
26.2280083330005
 31
0.0
  0
LINE
  5
2383
330
228D
100
AcDbEntity
  8
0
 62
     0
100
AcDbLine
 10
70.04221133955127
 20
29.22603394510748
 30
0.0
 11
72.84221133955134
 21
32.02603394510749
 31
0.0
  0
LINE
  5
2384
330
228D
100
AcDbEntity
  8
0
 62
     0
100
AcDbLine
 10
76.34221133955128
 20
35.52603394510743
 30
0.0
 11
78.9484738847172
 21
38.1322964902734
 31
0.0
  0
LINE
  5
2385
330
228D
100
AcDbEntity
  8
0
 62
     0
100
AcDbLine
 10
62.96617776864161
 20
22.15000037419782
 30
0.0
 11
67.92789273913832
 21
27.11171534469452
 31
0.0
  0
LINE
  5
2386
330
228D
100
AcDbEntity
  8
0
 62
     0
100
AcDbLine
 10
70.04221133955127
 20
30.12405955721437
 30
0.0
 11
72.84221133955128
 21
32.92405955721444
 31
0.0
  0
LINE
  5
2387
330
228D
100
AcDbEntity
  8
0
 62
     0
100
AcDbLine
 10
76.34221133955122
 20
36.42405955721438
 30
0.0
 11
78.16815215653469
 21
38.25000037419784
 31
0.0
  0
LINE
  5
2388
330
228D
100
AcDbEntity
  8
0
 62
     0
100
AcDbLine
 10
62.06815215653467
 20
22.15000037419782
 30
0.0
 11
67.79298036850957
 21
27.87482858617267
 31
0.0
  0
LINE
  5
2389
330
228D
100
AcDbEntity
  8
0
 62
     0
100
AcDbLine
 10
70.04221133955127
 20
31.02208516932126
 30
0.0
 11
72.84221133955134
 21
33.82208516932133
 31
0.0
  0
LINE
  5
238A
330
228D
100
AcDbEntity
  8
0
 62
     0
100
AcDbLine
 10
65.14221133955141
 20
26.12208516932134
 30
0.0
 11
67.55239291159103
 21
28.53226674136096
 31
0.0
  0
LINE
  5
238B
330
228D
100
AcDbEntity
  8
0
 62
     0
100
AcDbLine
 10
76.34221133955128
 20
37.32208516932127
 30
0.0
 11
77.27012654442785
 21
38.25000037419784
 31
0.0
  0
LINE
  5
238C
330
228D
100
AcDbEntity
  8
0
 62
     0
100
AcDbLine
 10
61.2983818975589
 20
22.27825572732888
 30
0.0
 11
63.97012654442779
 21
24.95000037419777
 31
0.0
  0
LINE
  5
238D
330
228D
100
AcDbEntity
  8
0
 62
     0
100
AcDbLine
 10
65.122340764424
 20
27.00024020630087
 30
0.0
 11
67.22889360673048
 21
29.10679304860736
 31
0.0
  0
LINE
  5
238E
330
228D
100
AcDbEntity
  8
0
 62
     0
100
AcDbLine
 10
70.04221133955127
 20
31.92011078142815
 30
0.0
 11
72.84221133955128
 21
34.72011078142822
 31
0.0
  0
LINE
  5
238F
330
228D
100
AcDbEntity
  8
0
 62
     0
100
AcDbLine
 10
61.11721133955132
 20
22.9951107814282
 30
0.0
 11
63.07210093232083
 21
24.95000037419777
 31
0.0
  0
LINE
  5
2390
330
228D
100
AcDbEntity
  8
0
 62
     0
100
AcDbLine
 10
64.84795592728511
 20
27.623880981269
 30
0.0
 11
66.83302248880266
 21
29.60894754278655
 31
0.0
  0
LINE
  5
2391
330
228D
100
AcDbEntity
  8
0
 62
     0
100
AcDbLine
 10
70.04221133955121
 20
32.8181363935351
 30
0.0
 11
72.84221133955128
 21
35.61813639353517
 31
0.0
  0
LINE
  5
2392
330
228D
100
AcDbEntity
  8
0
 62
     0
100
AcDbLine
 10
61.11721133955126
 20
23.89313639353515
 30
0.0
 11
62.17407532021394
 21
24.95000037419783
 31
0.0
  0
LINE
  5
2393
330
228D
100
AcDbEntity
  8
0
 62
     0
100
AcDbLine
 10
70.04221133955127
 20
33.71616200564199
 30
0.0
 11
72.84221133955134
 21
36.516162005642
 31
0.0
  0
LINE
  5
2394
330
228D
100
AcDbEntity
  8
0
 62
     0
100
AcDbLine
 10
64.40668103016804
 20
28.08063169625871
 30
0.0
 11
66.38658001749035
 21
30.06053068358102
 31
0.0
  0
LINE
  5
2395
330
228D
100
AcDbEntity
  8
0
 62
     0
100
AcDbLine
 10
63.95766822411457
 20
28.52964450231218
 30
0.0
 11
65.93756721143688
 21
30.5095434896345
 31
0.0
  0
LINE
  5
2396
330
228D
100
AcDbEntity
  8
0
 62
     0
100
AcDbLine
 10
70.04221133955121
 20
34.61418761774889
 30
0.0
 11
72.84221133955128
 21
37.41418761774895
 31
0.0
  0
LINE
  5
2397
330
228D
100
AcDbEntity
  8
0
 62
     0
100
AcDbLine
 10
57.57802409600009
 20
22.15000037419776
 30
0.0
 11
58.49221133955126
 21
23.06418761774887
 31
0.0
  0
LINE
  5
2398
330
228D
100
AcDbEntity
  8
0
 62
     0
100
AcDbLine
 10
63.50865541806109
 20
28.97865730836566
 30
0.0
 11
65.48855440538341
 21
30.95855629568797
 31
0.0
  0
LINE
  5
2399
330
228D
100
AcDbEntity
  8
0
 62
     0
100
AcDbLine
 10
70.04221133955121
 20
35.51221322985583
 30
0.0
 11
72.65603043145262
 21
38.12603232175718
 31
0.0
  0
LINE
  5
239A
330
228D
100
AcDbEntity
  8
0
 62
     0
100
AcDbLine
 10
56.67999848389314
 20
22.15000037419776
 30
0.0
 11
58.49221133955132
 21
23.96221322985588
 31
0.0
  0
LINE
  5
239B
330
228D
100
AcDbEntity
  8
0
 62
     0
100
AcDbLine
 10
63.05964261200762
 20
29.42767011441913
 30
0.0
 11
65.03954159932994
 21
31.40756910174145
 31
0.0
  0
LINE
  5
239C
330
228D
100
AcDbEntity
  8
0
 62
     0
100
AcDbLine
 10
70.04221133955121
 20
36.41023884196272
 30
0.0
 11
71.88197287178628
 21
38.25000037419784
 31
0.0
  0
LINE
  5
239D
330
228D
100
AcDbEntity
  8
0
 62
     0
100
AcDbLine
 10
55.89358400964823
 20
22.26161151205975
 30
0.0
 11
58.49221133955126
 21
24.86023884196283
 31
0.0
  0
LINE
  5
239E
330
228D
100
AcDbEntity
  8
0
 62
     0
100
AcDbLine
 10
62.6106298059542
 20
29.87668292047255
 30
0.0
 11
64.59052879327652
 21
31.85658190779486
 31
0.0
  0
LINE
  5
239F
330
228D
100
AcDbEntity
  8
0
 62
     0
100
AcDbLine
 10
70.04221133955121
 20
37.30826445406961
 30
0.0
 11
70.98394725967949
 21
38.25000037419784
 31
0.0
  0
LINE
  5
23A0
330
228D
100
AcDbEntity
  8
0
 62
     0
100
AcDbLine
 10
55.69221133955131
 20
22.95826445406971
 30
0.0
 11
58.49221133955132
 21
25.75826445406966
 31
0.0
  0
LINE
  5
23A1
330
228D
100
AcDbEntity
  8
0
 62
     0
100
AcDbLine
 10
62.16161699990073
 20
30.32569572652602
 30
0.0
 11
64.14151598722305
 21
32.30559471384834
 31
0.0
  0
LINE
  5
23A2
330
228D
100
AcDbEntity
  8
0
 62
     0
100
AcDbLine
 10
55.69221133955131
 20
23.85629006617666
 30
0.0
 11
58.49221133955126
 21
26.65629006617661
 31
0.0
  0
LINE
  5
23A3
330
228D
100
AcDbEntity
  8
0
 62
     0
100
AcDbLine
 10
61.7146330988594
 20
30.77673743759169
 30
0.0
 11
63.69860663224142
 21
32.76071097097366
 31
0.0
  0
LINE
  5
23A4
330
228D
100
AcDbEntity
  8
0
 62
     0
100
AcDbLine
 10
55.69221133955131
 20
24.75431567828355
 30
0.0
 11
58.49221133955126
 21
27.55431567828356
 31
0.0
  0
LINE
  5
23A5
330
228D
100
AcDbEntity
  8
0
 62
     0
100
AcDbLine
 10
66.38789603546547
 20
35.45000037419777
 30
0.0
 11
67.41721133955133
 21
36.47931567828357
 31
0.0
  0
LINE
  5
23A6
330
228D
100
AcDbEntity
  8
0
 62
     0
100
AcDbLine
 10
53.19955511484107
 20
22.26165945357331
 30
0.0
 11
53.28920747629609
 21
22.3513118150284
 31
0.0
  0
LINE
  5
23A7
330
228D
100
AcDbEntity
  8
0
 62
     0
100
AcDbLine
 10
61.31663092003742
 20
31.27676087087656
 30
0.0
 11
63.41626519745602
 21
33.37639514829516
 31
0.0
  0
LINE
  5
23A8
330
228D
100
AcDbEntity
  8
0
 62
     0
100
AcDbLine
 10
55.69221133955131
 20
25.65234129039044
 30
0.0
 11
58.49221133955132
 21
28.4523412903904
 31
0.0
  0
LINE
  5
23A9
330
228D
100
AcDbEntity
  8
0
 62
     0
100
AcDbLine
 10
65.4898704233587
 20
35.45000037419783
 30
0.0
 11
67.41721133955133
 21
37.37734129039046
 31
0.0
  0
LINE
  5
23AA
330
228D
100
AcDbEntity
  8
0
 62
     0
100
AcDbLine
 10
52.18987042335863
 20
22.15000037419776
 30
0.0
 11
53.25564951966516
 21
23.21577947050429
 31
0.0
  0
LINE
  5
23AB
330
228D
100
AcDbEntity
  8
0
 62
     0
100
AcDbLine
 10
60.99079665564073
 20
31.84895221858682
 30
0.0
 11
63.39221133955141
 21
34.25036690249749
 31
0.0
  0
LINE
  5
23AC
330
228D
100
AcDbEntity
  8
0
 62
     0
100
AcDbLine
 10
55.69221133955131
 20
26.55036690249733
 30
0.0
 11
58.49221133955126
 21
29.35036690249734
 31
0.0
  0
LINE
  5
23AD
330
228D
100
AcDbEntity
  8
0
 62
     0
100
AcDbLine
 10
64.59184481125169
 20
35.45000037419777
 30
0.0
 11
67.25054240775341
 21
38.1086979706995
 31
0.0
  0
LINE
  5
23AE
330
228D
100
AcDbEntity
  8
0
 62
     0
100
AcDbLine
 10
51.29184481125162
 20
22.1500003741977
 30
0.0
 11
53.04012337275946
 21
23.89827893570555
 31
0.0
  0
LINE
  5
23AF
330
228D
100
AcDbEntity
  8
0
 62
     0
100
AcDbLine
 10
55.69221133955124
 20
27.44839251460428
 30
0.0
 11
58.49221133955126
 21
30.24839251460424
 31
0.0
  0
LINE
  5
23B0
330
228D
100
AcDbEntity
  8
0
 62
     0
100
AcDbLine
 10
60.74741459297064
 20
32.50359576802367
 30
0.0
 11
66.49381919914481
 21
38.25000037419784
 31
0.0
  0
LINE
  5
23B1
330
228D
100
AcDbEntity
  8
0
 62
     0
100
AcDbLine
 10
50.69983050059665
 20
22.45601167564968
 30
0.0
 11
52.82459722585378
 21
24.58077840090681
 31
0.0
  0
LINE
  5
23B2
330
228D
100
AcDbEntity
  8
0
 62
     0
100
AcDbLine
 10
55.69221133955124
 20
28.34641812671123
 30
0.0
 11
58.4922113395512
 21
31.14641812671119
 31
0.0
  0
LINE
  5
23B3
330
228D
100
AcDbEntity
  8
0
 62
     0
100
AcDbLine
 10
60.60870773388495
 20
33.26291452104494
 30
0.0
 11
65.59579358703792
 21
38.25000037419784
 31
0.0
  0
LINE
  5
23B4
330
228D
100
AcDbEntity
  8
0
 62
     0
100
AcDbLine
 10
50.48107107894804
 20
23.13527786610803
 30
0.0
 11
52.60907107894809
 21
25.26327786610807
 31
0.0
  0
LINE
  5
23B5
330
228D
100
AcDbEntity
  8
0
 62
     0
100
AcDbLine
 10
55.69221133955131
 20
29.24444373881807
 30
0.0
 11
58.49221133955126
 21
32.04444373881808
 31
0.0
  0
LINE
  5
23B6
330
228D
100
AcDbEntity
  8
0
 62
     0
100
AcDbLine
 10
60.59221133955128
 20
34.14444373881804
 30
0.0
 11
64.69776797493103
 21
38.25000037419784
 31
0.0
  0
LINE
  5
23B7
330
228D
100
AcDbEntity
  8
0
 62
     0
100
AcDbLine
 10
50.26554493204241
 20
23.81777733130923
 30
0.0
 11
52.39354493204252
 21
25.94577733130928
 31
0.0
  0
LINE
  5
23B8
330
228D
100
AcDbEntity
  8
0
 62
     0
100
AcDbLine
 10
55.69221133955124
 20
30.14246935092501
 30
0.0
 11
58.49221133955126
 21
32.94246935092497
 31
0.0
  0
LINE
  5
23B9
330
228D
100
AcDbEntity
  8
0
 62
     0
100
AcDbLine
 10
60.59221133955134
 20
35.04246935092505
 30
0.0
 11
63.79974236282413
 21
38.25000037419784
 31
0.0
  0
LINE
  5
23BA
330
228D
100
AcDbEntity
  8
0
 62
     0
100
AcDbLine
 10
50.05001878513667
 20
24.50027679651043
 30
0.0
 11
52.17801878513689
 21
26.62827679651065
 31
0.0
  0
LINE
  5
23BB
330
228D
100
AcDbEntity
  8
0
 62
     0
100
AcDbLine
 10
55.69221133955124
 20
31.0404949630319
 30
0.0
 11
58.49221133955132
 21
33.84049496303197
 31
0.0
  0
LINE
  5
23BC
330
228D
100
AcDbEntity
  8
0
 62
     0
100
AcDbLine
 10
49.83449263823104
 20
25.18277626171175
 30
0.0
 11
51.96249263823114
 21
27.3107762617118
 31
0.0
  0
LINE
  5
23BD
330
228D
100
AcDbEntity
  8
0
 62
     0
100
AcDbLine
 10
60.64552800967248
 20
35.9938116331532
 30
0.0
 11
62.84840008059581
 21
38.19668370407652
 31
0.0
  0
LINE
  5
23BE
330
228D
100
AcDbEntity
  8
0
 62
     0
100
AcDbLine
 10
46.80171675071704
 20
22.15000037419776
 30
0.0
 11
47.64221133955124
 21
22.99049496303195
 31
0.0
  0
LINE
  5
23BF
330
228D
100
AcDbEntity
  8
0
 62
     0
100
AcDbLine
 10
49.61896649132547
 20
25.86527572691295
 30
0.0
 11
51.74696649132551
 21
27.99327572691306
 31
0.0
  0
LINE
  5
23C0
330
228D
100
AcDbEntity
  8
0
 62
     0
100
AcDbLine
 10
55.69221133955124
 20
31.9385205751388
 30
0.0
 11
58.49221133955132
 21
34.73852057513886
 31
0.0
  0
LINE
  5
23C1
330
228D
100
AcDbEntity
  8
0
 62
     0
100
AcDbLine
 10
45.90369113861021
 20
22.1500003741977
 30
0.0
 11
47.64221133955129
 21
23.88852057513884
 31
0.0
  0
LINE
  5
23C2
330
228D
100
AcDbEntity
  8
0
 62
     0
100
AcDbLine
 10
49.40344034441977
 20
26.54777519211422
 30
0.0
 11
51.53144034441982
 21
28.67577519211432
 31
0.0
  0
LINE
  5
23C3
330
228D
100
AcDbEntity
  8
0
 62
     0
100
AcDbLine
 10
55.69221133955124
 20
32.83654618724574
 30
0.0
 11
58.49221133955132
 21
35.63654618724576
 31
0.0
  0
LINE
  5
23C4
330
228D
100
AcDbEntity
  8
0
 62
     0
100
AcDbLine
 10
45.08681527415456
 20
22.23115012184905
 30
0.0
 11
47.64221133955129
 21
24.78654618724573
 31
0.0
  0
LINE
  5
23C5
330
228D
100
AcDbEntity
  8
0
 62
     0
100
AcDbLine
 10
49.18791419751409
 20
27.23027465731548
 30
0.0
 11
51.31591419751413
 21
29.35827465731558
 31
0.0
  0
LINE
  5
23C6
330
228D
100
AcDbEntity
  8
0
 62
     0
100
AcDbLine
 10
55.69221133955124
 20
33.73457179935264
 30
0.0
 11
58.49221133955126
 21
36.53457179935271
 31
0.0
  0
LINE
  5
23C7
330
228D
100
AcDbEntity
  8
0
 62
     0
100
AcDbLine
 10
44.84221133955128
 20
22.88457179935267
 30
0.0
 11
47.64221133955135
 21
25.68457179935274
 31
0.0
  0
LINE
  5
23C8
330
228D
100
AcDbEntity
  8
0
 62
     0
100
AcDbLine
 10
48.97238805060846
 20
27.91277412251668
 30
0.0
 11
51.10038805060861
 21
30.04077412251684
 31
0.0
  0
LINE
  5
23C9
330
228D
100
AcDbEntity
  8
0
 62
     0
100
AcDbLine
 10
55.69221133955124
 20
34.63259741145953
 30
0.0
 11
58.49221133955132
 21
37.4325974114596
 31
0.0
  0
LINE
  5
23CA
330
228D
100
AcDbEntity
  8
0
 62
     0
100
AcDbLine
 10
44.84221133955128
 20
23.78259741145956
 30
0.0
 11
47.64221133955135
 21
26.58259741145963
 31
0.0
  0
LINE
  5
23CB
330
228D
100
AcDbEntity
  8
0
 62
     0
100
AcDbLine
 10
48.73758926363672
 20
28.57600094765195
 30
0.0
 11
51.36788333156761
 21
31.20629501558284
 31
0.0
  0
LINE
  5
23CC
330
228D
100
AcDbEntity
  8
0
 62
     0
100
AcDbLine
 10
55.69221133955131
 20
35.53062302356654
 30
0.0
 11
58.29593591705287
 21
38.13434760106805
 31
0.0
  0
LINE
  5
23CD
330
228D
100
AcDbEntity
  8
0
 62
     0
100
AcDbLine
 10
44.84221133955128
 20
24.68062302356651
 30
0.0
 11
47.64221133955135
 21
27.48062302356653
 31
0.0
  0
LINE
  5
23CE
330
228D
100
AcDbEntity
  8
0
 62
     0
100
AcDbLine
 10
48.05040389376933
 20
28.78684118989151
 30
0.0
 11
51.7823566910016
 21
32.51879398712379
 31
0.0
  0
LINE
  5
23CF
330
228D
100
AcDbEntity
  8
0
 62
     0
100
AcDbLine
 10
44.84221133955128
 20
25.57864863567341
 30
0.0
 11
47.65537052385758
 21
28.39180781997971
 31
0.0
  0
LINE
  5
23D0
330
228D
100
AcDbEntity
  8
0
 62
     0
100
AcDbLine
 10
55.69221133955131
 20
36.42864863567343
 30
0.0
 11
57.51356307807566
 21
38.25000037419784
 31
0.0
  0
LINE
  5
23D1
330
228D
100
AcDbEntity
  8
0
 62
     0
100
AcDbLine
 10
41.41356307807564
 20
22.15000037419776
 30
0.0
 11
42.39221133955129
 21
23.12864863567347
 31
0.0
  0
LINE
  5
23D2
330
228D
100
AcDbEntity
  8
0
 62
     0
100
AcDbLine
 10
44.84221133955123
 20
26.47667424778035
 30
0.0
 11
52.19683005043555
 21
33.83129295866468
 31
0.0
  0
LINE
  5
23D3
330
228D
100
AcDbEntity
  8
0
 62
     0
100
AcDbLine
 10
55.69221133955124
 20
37.32667424778038
 30
0.0
 11
56.61553746596871
 21
38.25000037419784
 31
0.0
  0
LINE
  5
23D4
330
228D
100
AcDbEntity
  8
0
 62
     0
100
AcDbLine
 10
40.51553746596868
 20
22.15000037419782
 30
0.0
 11
42.39221133955135
 21
24.02667424778048
 31
0.0
  0
LINE
  5
23D5
330
228D
100
AcDbEntity
  8
0
 62
     0
100
AcDbLine
 10
44.84221133955128
 20
27.37469985988719
 30
0.0
 11
52.61130340986966
 21
35.14379193020563
 31
0.0
  0
LINE
  5
23D6
330
228D
100
AcDbEntity
  8
0
 62
     0
100
AcDbLine
 10
39.6291924782119
 20
22.16168099854787
 30
0.0
 11
42.25087705594512
 21
24.78336557628103
 31
0.0
  0
LINE
  5
23D7
330
228D
100
AcDbEntity
  8
0
 62
     0
100
AcDbLine
 10
44.84221133955123
 20
28.27272547199413
 30
0.0
 11
48.16948624175489
 21
31.60000037419781
 31
0.0
  0
LINE
  5
23D8
330
228D
100
AcDbEntity
  8
0
 62
     0
100
AcDbLine
 10
48.93346907699561
 20
32.36398320943852
 30
0.0
 11
53.0257767693036
 21
36.45629090174651
 31
0.0
  0
LINE
  5
23D9
330
228D
100
AcDbEntity
  8
0
 62
     0
100
AcDbLine
 10
38.86103196076494
 20
22.29154609320779
 30
0.0
 11
41.51948624175486
 21
24.95000037419777
 31
0.0
  0
LINE
  5
23DA
330
228D
100
AcDbEntity
  8
0
 62
     0
100
AcDbLine
 10
44.84221133955123
 20
29.17075108410108
 30
0.0
 11
47.66020191025956
 21
31.98874165480936
 31
0.0
  0
LINE
  5
23DB
330
228D
100
AcDbEntity
  8
0
 62
     0
100
AcDbLine
 10
49.34794243642954
 20
33.67648218097935
 30
0.0
 11
53.40084822110492
 21
37.72938796565478
 31
0.0
  0
LINE
  5
23DC
330
228D
100
AcDbEntity
  8
0
 62
     0
100
AcDbLine
 10
38.19989770393852
 20
22.52843744848838
 30
0.0
 11
40.62146062964797
 21
24.95000037419777
 31
0.0
  0
LINE
  5
23DD
330
228D
100
AcDbEntity
  8
0
 62
     0
100
AcDbLine
 10
44.84221133955128
 20
30.06877669620792
 30
0.0
 11
47.64221133955129
 21
32.86877669620799
 31
0.0
  0
LINE
  5
23DE
330
228D
100
AcDbEntity
  8
0
 62
     0
100
AcDbLine
 10
49.76241579586366
 20
34.98898115252035
 30
0.0
 11
53.00683634853573
 21
38.23340170519242
 31
0.0
  0
LINE
  5
23DF
330
228D
100
AcDbEntity
  8
0
 62
     0
100
AcDbLine
 10
37.62229441977422
 20
22.84885977643086
 30
0.0
 11
39.73835627826708
 21
24.96492163492377
 31
0.0
  0
LINE
  5
23E0
330
228D
100
AcDbEntity
  8
0
 62
     0
100
AcDbLine
 10
44.84221133955123
 20
30.96680230831487
 30
0.0
 11
47.64221133955129
 21
33.76680230831494
 31
0.0
  0
LINE
  5
23E1
330
228D
100
AcDbEntity
  8
0
 62
     0
100
AcDbLine
 10
50.1768891552976
 20
36.30148012406119
 30
0.0
 11
52.12540940543414
 21
38.25000037419778
 31
0.0
  0
LINE
  5
23E2
330
228D
100
AcDbEntity
  8
0
 62
     0
100
AcDbLine
 10
37.11733945339216
 20
23.24193042215575
 30
0.0
 11
39.10404013724877
 21
25.22863110601236
 31
0.0
  0
LINE
  5
23E3
330
228D
100
AcDbEntity
  8
0
 62
     0
100
AcDbLine
 10
44.84221133955123
 20
31.86482792042176
 30
0.0
 11
47.64221133955129
 21
34.66482792042183
 31
0.0
  0
LINE
  5
23E4
330
228D
100
AcDbEntity
  8
0
 62
     0
100
AcDbLine
 10
41.50384547132773
 20
28.52646205219833
 30
0.0
 11
42.66574966155082
 21
29.68836624242141
 31
0.0
  0
LINE
  5
23E5
330
228D
100
AcDbEntity
  8
0
 62
     0
100
AcDbLine
 10
50.59136251473148
 20
37.61397909560208
 30
0.0
 11
51.2273837933273
 21
38.2500003741979
 31
0.0
  0
LINE
  5
23E6
330
228D
100
AcDbEntity
  8
0
 62
     0
100
AcDbLine
 10
36.68090238006232
 20
23.70351896093291
 30
0.0
 11
38.69378918597659
 21
25.71640576684718
 31
0.0
  0
LINE
  5
23E7
330
228D
100
AcDbEntity
  8
0
 62
     0
100
AcDbLine
 10
40.57887262969791
 20
28.49951482267545
 30
0.0
 11
42.69269689107369
 21
30.61333908405118
 31
0.0
  0
LINE
  5
23E8
330
228D
100
AcDbEntity
  8
0
 62
     0
100
AcDbLine
 10
44.84221133955128
 20
32.76285353252877
 30
0.0
 11
47.64221133955135
 21
35.56285353252884
 31
0.0
  0
LINE
  5
23E9
330
228D
100
AcDbEntity
  8
0
 62
     0
100
AcDbLine
 10
36.31388315511936
 20
24.23452534809684
 30
0.0
 11
38.54221133955127
 21
26.46285353252881
 31
0.0
  0
LINE
  5
23EA
330
228D
100
AcDbEntity
  8
0
 62
     0
100
AcDbLine
 10
39.96472606027771
 20
28.78339386536203
 30
0.0
 11
42.40881784838705
 21
31.22748565347143
 31
0.0
  0
LINE
  5
23EB
330
228D
100
AcDbEntity
  8
0
 62
     0
100
AcDbLine
 10
44.84221133955128
 20
33.66087914463566
 30
0.0
 11
47.64221133955135
 21
36.46087914463573
 31
0.0
  0
LINE
  5
23EC
330
228D
100
AcDbEntity
  8
0
 62
     0
100
AcDbLine
 10
36.02256564519462
 20
24.84123345027899
 30
0.0
 11
38.54221133955127
 21
27.36087914463565
 31
0.0
  0
LINE
  5
23ED
330
228D
100
AcDbEntity
  8
0
 62
     0
100
AcDbLine
 10
39.52676613328799
 20
29.24345955047932
 30
0.0
 11
41.94875216326983
 21
31.6654455804611
 31
0.0
  0
LINE
  5
23EE
330
228D
100
AcDbEntity
  8
0
 62
     0
100
AcDbLine
 10
44.84221133955128
 20
34.55890475674261
 30
0.0
 11
47.64221133955135
 21
37.35890475674262
 31
0.0
  0
LINE
  5
23EF
330
228D
100
AcDbEntity
  8
0
 62
     0
100
AcDbLine
 10
35.82142828101996
 20
25.53812169821128
 30
0.0
 11
38.54221133955127
 21
28.2589047567426
 31
0.0
  0
LINE
  5
23F0
330
228D
100
AcDbEntity
  8
0
 62
     0
100
AcDbLine
 10
39.27071540087963
 20
29.88543443017784
 30
0.0
 11
41.30677728357125
 21
31.92149631286952
 31
0.0
  0
LINE
  5
23F1
330
228D
100
AcDbEntity
  8
0
 62
     0
100
AcDbLine
 10
35.7422113395512
 20
26.35693036884948
 30
0.0
 11
38.54221133955127
 21
29.15693036884949
 31
0.0
  0
LINE
  5
23F2
330
228D
100
AcDbEntity
  8
0
 62
     0
100
AcDbLine
 10
44.84221133955128
 20
35.4569303688495
 30
0.0
 11
47.48496123119616
 21
38.09968026049444
 31
0.0
  0
LINE
  5
23F3
330
228D
100
AcDbEntity
  8
0
 62
     0
100
AcDbLine
 10
31.65621458167561
 20
22.27093361097388
 30
0.0
 11
33.52127810277534
 21
24.13599713207361
 31
0.0
  0
LINE
  5
23F4
330
228D
100
AcDbEntity
  8
0
 62
     0
100
AcDbLine
 10
39.38912848436041
 20
30.90187312576552
 30
0.0
 11
40.29033858798363
 21
31.80308322938873
 31
0.0
  0
LINE
  5
23F5
330
228D
100
AcDbEntity
  8
0
 62
     0
100
AcDbLine
 10
35.7422113395512
 20
27.25495598095631
 30
0.0
 11
38.54221133955127
 21
30.05495598095638
 31
0.0
  0
LINE
  5
23F6
330
228D
100
AcDbEntity
  8
0
 62
     0
100
AcDbLine
 10
44.84221133955128
 20
36.35495598095639
 30
0.0
 11
46.73725573279267
 21
38.25000037419778
 31
0.0
  0
LINE
  5
23F7
330
228D
100
AcDbEntity
  8
0
 62
     0
100
AcDbLine
 10
30.63725573279266
 20
22.15000037419776
 30
0.0
 11
33.64221133955141
 21
25.15495598095646
 31
0.0
  0
LINE
  5
23F8
330
228D
100
AcDbEntity
  8
0
 62
     0
100
AcDbLine
 10
35.7422113395512
 20
28.15298159306326
 30
0.0
 11
38.54221133955127
 21
30.95298159306333
 31
0.0
  0
LINE
  5
23F9
330
228D
100
AcDbEntity
  8
0
 62
     0
100
AcDbLine
 10
44.84221133955128
 20
37.25298159306329
 30
0.0
 11
45.83923012068578
 21
38.25000037419784
 31
0.0
  0
LINE
  5
23FA
330
228D
100
AcDbEntity
  8
0
 62
     0
100
AcDbLine
 10
29.73923012068565
 20
22.1500003741977
 30
0.0
 11
33.64221133955136
 21
26.05298159306341
 31
0.0
  0
LINE
  5
23FB
330
228D
100
AcDbEntity
  8
0
 62
     0
100
AcDbLine
 10
35.7422113395512
 20
29.05100720517015
 30
0.0
 11
38.54221133955121
 21
31.85100720517022
 31
0.0
  0
LINE
  5
23FC
330
228D
100
AcDbEntity
  8
0
 62
     0
100
AcDbLine
 10
28.84120450857881
 20
22.15000037419782
 30
0.0
 11
33.63827198699011
 21
26.94706785260911
 31
0.0
  0
LINE
  5
23FD
330
228D
100
AcDbEntity
  8
0
 62
     0
100
AcDbLine
 10
35.7422113395512
 20
29.9490328172771
 30
0.0
 11
38.54221133955127
 21
32.74903281727717
 31
0.0
  0
LINE
  5
23FE
330
228D
100
AcDbEntity
  8
0
 62
     0
100
AcDbLine
 10
41.24317889647199
 20
35.45000037419788
 30
0.0
 11
42.3922113395514
 21
36.59903281727731
 31
0.0
  0
LINE
  5
23FF
330
228D
100
AcDbEntity
  8
0
 62
     0
100
AcDbLine
 10
27.94317889647186
 20
22.15000037419776
 30
0.0
 11
33.52861015066878
 21
27.73543162839468
 31
0.0
  0
LINE
  5
2400
330
228D
100
AcDbEntity
  8
0
 62
     0
100
AcDbLine
 10
35.7422113395512
 20
30.847058429384
 30
0.0
 11
38.54221133955127
 21
33.64705842938401
 31
0.0
  0
LINE
  5
2401
330
228D
100
AcDbEntity
  8
0
 62
     0
100
AcDbLine
 10
30.84221133955129
 20
25.94705842938407
 30
0.0
 11
33.30627140662466
 21
28.41111849645745
 31
0.0
  0
LINE
  5
2402
330
228D
100
AcDbEntity
  8
0
 62
     0
100
AcDbLine
 10
40.34515328436498
 20
35.45000037419777
 30
0.0
 11
42.3922113395514
 21
37.49705842938414
 31
0.0
  0
LINE
  5
2403
330
228D
100
AcDbEntity
  8
0
 62
     0
100
AcDbLine
 10
27.10287915962493
 20
22.20772624945772
 30
0.0
 11
29.84515328436499
 21
24.95000037419777
 31
0.0
  0
LINE
  5
2404
330
228D
100
AcDbEntity
  8
0
 62
     0
100
AcDbLine
 10
35.74221133955115
 20
31.74508404149089
 30
0.0
 11
38.70802604533094
 21
34.71089874727068
 31
0.0
  0
LINE
  5
2405
330
228D
100
AcDbEntity
  8
0
 62
     0
100
AcDbLine
 10
30.84005224794203
 20
26.84292494988171
 30
0.0
 11
32.99783987195264
 21
29.00071257389237
 31
0.0
  0
LINE
  5
2406
330
228D
100
AcDbEntity
  8
0
 62
     0
100
AcDbLine
 10
39.28131296647848
 20
35.28418566841822
 30
0.0
 11
42.15874392463149
 21
38.16161662657118
 31
0.0
  0
LINE
  5
2407
330
228D
100
AcDbEntity
  8
0
 62
     0
100
AcDbLine
 10
26.81721133955131
 20
22.82008404149099
 30
0.0
 11
28.94712767225809
 21
24.95000037419777
 31
0.0
  0
LINE
  5
2408
330
228D
100
AcDbEntity
  8
0
 62
     0
100
AcDbLine
 10
30.62044922844132
 20
27.521347542488
 30
0.0
 11
32.61559790711374
 21
29.51649622116042
 31
0.0
  0
LINE
  5
2409
330
228D
100
AcDbEntity
  8
0
 62
     0
100
AcDbLine
 10
35.74221133955115
 20
32.64310965359783
 30
0.0
 11
41.34910206015121
 21
38.2500003741979
 31
0.0
  0
LINE
  5
240A
330
228D
100
AcDbEntity
  8
0
 62
     0
100
AcDbLine
 10
26.81721133955125
 20
23.71810965359793
 30
0.0
 11
28.04910206015114
 21
24.95000037419783
 31
0.0
  0
LINE
  5
240B
330
228D
100
AcDbEntity
  8
0
 62
     0
100
AcDbLine
 10
30.19419440013661
 20
27.99311832629013
 30
0.0
 11
32.17409338745898
 21
29.9730173136125
 31
0.0
  0
LINE
  5
240C
330
228D
100
AcDbEntity
  8
0
 62
     0
100
AcDbLine
 10
35.7422113395512
 20
33.54113526570467
 30
0.0
 11
40.45107644804426
 21
38.25000037419778
 31
0.0
  0
LINE
  5
240D
330
228D
100
AcDbEntity
  8
0
 62
     0
100
AcDbLine
 10
26.88616326157103
 20
24.68508718772455
 30
0.0
 11
27.08212452602464
 21
24.88104845217816
 31
0.0
  0
LINE
  5
240E
330
228D
100
AcDbEntity
  8
0
 62
     0
100
AcDbLine
 10
35.76218645370778
 20
34.4591359919682
 30
0.0
 11
39.53307572178079
 21
38.23002526004126
 31
0.0
  0
LINE
  5
240F
330
228D
100
AcDbEntity
  8
0
 62
     0
100
AcDbLine
 10
29.74518159408314
 20
28.4421311323436
 30
0.0
 11
31.72508058140551
 21
30.42203011966598
 31
0.0
  0
LINE
  5
2410
330
228D
100
AcDbEntity
  8
0
 62
     0
100
AcDbLine
 10
36.06164988597357
 20
35.65662503634098
 30
0.0
 11
38.33558667740806
 21
37.93056182777548
 31
0.0
  0
LINE
  5
2411
330
228D
100
AcDbEntity
  8
0
 62
     0
100
AcDbLine
 10
29.29616878802966
 20
28.89114393839708
 30
0.0
 11
31.27606777535203
 21
30.87104292571945
 31
0.0
  0
LINE
  5
2412
330
228D
100
AcDbEntity
  8
0
 62
     0
100
AcDbLine
 10
28.84715598197625
 20
29.34015674445049
 30
0.0
 11
30.82705496929856
 21
31.32005573177276
 31
0.0
  0
LINE
  5
2413
330
228D
100
AcDbEntity
  8
0
 62
     0
100
AcDbLine
 10
28.39814317592277
 20
29.78916955050397
 30
0.0
 11
30.37804216324508
 21
31.76906853782623
 31
0.0
  0
LINE
  5
2414
330
228D
100
AcDbEntity
  8
0
 62
     0
100
AcDbLine
 10
27.9491303698693
 20
30.23818235655745
 30
0.0
 11
29.92902935719161
 21
32.2180813438797
 31
0.0
  0
LINE
  5
2415
330
228D
100
AcDbEntity
  8
0
 62
     0
100
AcDbLine
 10
32.26292277540279
 20
35.45000037419788
 30
0.0
 11
33.11721133955115
 21
36.30428893834625
 31
0.0
  0
LINE
  5
2416
330
228D
100
AcDbEntity
  8
0
 62
     0
100
AcDbLine
 10
27.50020087784395
 20
30.68727847663905
 30
0.0
 11
29.48026652127641
 21
32.66734412007151
 31
0.0
  0
LINE
  5
2417
330
228D
100
AcDbEntity
  8
0
 62
     0
100
AcDbLine
 10
31.36489716329584
 20
35.45000037419777
 30
0.0
 11
33.11721133955126
 21
37.2023145504532
 31
0.0
  0
LINE
  5
2418
330
228D
100
AcDbEntity
  8
0
 62
     0
100
AcDbLine
 10
27.08873295329238
 20
31.17383616419426
 30
0.0
 11
29.15036963998847
 21
33.2354728508904
 31
0.0
  0
LINE
  5
2419
330
228D
100
AcDbEntity
  8
0
 62
     0
100
AcDbLine
 10
30.46687155118889
 20
35.45000037419777
 30
0.0
 11
33.03065243979012
 21
38.013781262799
 31
0.0
  0
LINE
  5
241A
330
228D
100
AcDbEntity
  8
0
 62
     0
100
AcDbLine
 10
26.74827234702991
 20
31.73140117003874
 30
0.0
 11
29.09221133955134
 21
34.07534016256017
 31
0.0
  0
LINE
  5
241B
330
228D
100
AcDbEntity
  8
0
 62
     0
100
AcDbLine
 10
29.56637928991188
 20
35.44753372502766
 30
0.0
 11
32.36884593908206
 21
38.25000037419784
 31
0.0
  0
LINE
  5
241C
330
228D
100
AcDbEntity
  8
0
 62
     0
100
AcDbLine
 10
26.48757905129782
 20
32.36873348641359
 30
0.0
 11
29.0946779887214
 21
34.97583242383723
 31
0.0
  0
LINE
  5
241D
330
228D
100
AcDbEntity
  8
0
 62
     0
100
AcDbLine
 10
26.32576708904975
 20
33.10494713627242
 30
0.0
 11
31.47082032697517
 21
38.25000037419784
 31
0.0
  0
LINE
  5
241E
330
228D
100
AcDbEntity
  8
0
 62
     0
100
AcDbLine
 10
26.29221133955133
 20
33.96941699888095
 30
0.0
 11
30.57279471486822
 21
38.25000037419784
 31
0.0
  0
LINE
  5
241F
330
228D
100
AcDbEntity
  8
0
 62
     0
100
AcDbLine
 10
26.29221133955133
 20
34.86744261098784
 30
0.0
 11
29.67476910276133
 21
38.25000037419784
 31
0.0
  0
LINE
  5
2420
330
228D
100
AcDbEntity
  8
0
 62
     0
100
AcDbLine
 10
26.31240334998955
 20
35.78566023353301
 30
0.0
 11
28.75655148021616
 21
38.22980836375961
 31
0.0
  0
ENDBLK
  5
2422
330
228D
100
AcDbEntity
  8
0
100
AcDbBlockEnd
  0
BLOCK
  5
3F4A
330
3F3F
100
AcDbEntity
  8
0
100
AcDbBlockBegin
  2
*D1
 70
     1
 10
0.0
 20
0.0
 30
0.0
  3
*D1
  1

  0
LINE
  5
47C5
330
3F3F
100
AcDbEntity
  8
SUNPOU
100
AcDbLine
 10
327.1495914139491
 20
386.8456792039369
 30
0.0
 11
327.1495914139491
 21
417.3317146766116
 31
0.0
  0
LINE
  5
47C6
330
3F3F
100
AcDbEntity
  8
SUNPOU
100
AcDbLine
 10
392.1495914139491
 20
386.8456792039369
 30
0.0
 11
392.1495914139491
 21
417.3317146766116
 31
0.0
  0
LINE
  5
47C7
330
3F3F
100
AcDbEntity
  8
SUNPOU
100
AcDbLine
 10
331.1495914139491
 20
415.3317146766116
 30
0.0
 11
388.1495914139491
 21
415.3317146766116
 31
0.0
  0
INSERT
  5
47C8
330
3F3F
100
AcDbEntity
  8
SUNPOU
100
AcDbBlockReference
  2
_Open
 10
327.1495914139491
 20
415.3317146766116
 30
0.0
 41
4.0
 42
4.0
 43
4.0
 50
180.0
  0
INSERT
  5
47C9
330
3F3F
100
AcDbEntity
  8
SUNPOU
100
AcDbBlockReference
  2
_Open
 10
392.1495914139491
 20
415.3317146766116
 30
0.0
 41
4.0
 42
4.0
 43
4.0
  0
MTEXT
  5
47CA
330
3F3F
100
AcDbEntity
  8
SUNPOU
100
AcDbMText
 10
359.6495914139491
 20
420.3317146766116
 30
0.0
 40
6.0
 41
0.0
 71
     5
 72
     1
  1
\A1;65
 73
     1
 44
1.0
1001
ACAD
1000
MTEXTBEGIN
1070
    73
1070
     1
1070
    44
1040
1.0
1070
    74
1070
     0
1000
MTEXTEND
  0
POINT
  5
47CB
330
3F3F
100
AcDbEntity
  8
DEFPOINTS
 62
     0
100
AcDbPoint
 10
327.1495914139491
 20
384.8456792039369
 30
0.0
  0
POINT
  5
47CC
330
3F3F
100
AcDbEntity
  8
DEFPOINTS
 62
     0
100
AcDbPoint
 10
392.1495914139491
 20
384.8456792039369
 30
0.0
  0
POINT
  5
47CD
330
3F3F
100
AcDbEntity
  8
DEFPOINTS
 62
     0
100
AcDbPoint
 10
392.1495914139491
 20
415.3317146766116
 30
0.0
  0
ENDBLK
  5
3F4B
330
3F3F
100
AcDbEntity
  8
0
100
AcDbBlockEnd
  0
BLOCK
  5
3F57
330
3F4C
100
AcDbEntity
  8
0
100
AcDbBlockBegin
  2
*D2
 70
     1
 10
0.0
 20
0.0
 30
0.0
  3
*D2
  1

  0
LINE
  5
47B3
330
3F4C
100
AcDbEntity
  8
SUNPOU
100
AcDbLine
 10
394.1495914139491
 20
384.8456792039369
 30
0.0
 11
451.0589614380131
 21
384.8456792039369
 31
0.0
  0
LINE
  5
47B4
330
3F4C
100
AcDbEntity
  8
SUNPOU
100
AcDbLine
 10
399.1495914139491
 20
219.8456792039369
 30
0.0
 11
451.058961438013
 21
219.8456792039369
 31
0.0
  0
LINE
  5
47B5
330
3F4C
100
AcDbEntity
  8
SUNPOU
100
AcDbLine
 10
449.058961438013
 20
380.8456792039369
 30
0.0
 11
449.058961438013
 21
223.8456792039369
 31
0.0
  0
INSERT
  5
47B6
330
3F4C
100
AcDbEntity
  8
SUNPOU
100
AcDbBlockReference
  2
_Open
 10
449.0589614380131
 20
384.8456792039369
 30
0.0
 41
4.0
 42
4.0
 43
4.0
 50
90.0
  0
INSERT
  5
47B7
330
3F4C
100
AcDbEntity
  8
SUNPOU
100
AcDbBlockReference
  2
_Open
 10
449.058961438013
 20
219.8456792039369
 30
0.0
 41
4.0
 42
4.0
 43
4.0
 50
270.0
  0
MTEXT
  5
47B8
330
3F4C
100
AcDbEntity
  8
SUNPOU
100
AcDbMText
 10
444.058961438013
 20
302.345679203937
 30
0.0
 40
6.0
 41
0.0
 71
     5
 72
     1
  1
\A1;165
 11
0.0000000000000001
 21
1.0
 31
0.0
 73
     1
 44
1.0
1001
ACAD
1000
MTEXTBEGIN
1070
    73
1070
     1
1070
    44
1040
1.0
1070
    74
1070
     0
1000
MTEXTEND
  0
POINT
  5
47B9
330
3F4C
100
AcDbEntity
  8
DEFPOINTS
 62
     0
100
AcDbPoint
 10
392.1495914139491
 20
384.8456792039369
 30
0.0
  0
POINT
  5
47BA
330
3F4C
100
AcDbEntity
  8
DEFPOINTS
 62
     0
100
AcDbPoint
 10
397.1495914139491
 20
219.8456792039369
 30
0.0
  0
POINT
  5
47BB
330
3F4C
100
AcDbEntity
  8
DEFPOINTS
 62
     0
100
AcDbPoint
 10
449.058961438013
 20
219.8456792039369
 30
0.0
  0
ENDBLK
  5
3F58
330
3F4C
100
AcDbEntity
  8
0
100
AcDbBlockEnd
  0
BLOCK
  5
3F64
330
3F59
100
AcDbEntity
  8
0
100
AcDbBlockBegin
  2
*D3
 70
     1
 10
0.0
 20
0.0
 30
0.0
  3
*D3
  1

  0
LINE
  5
47AA
330
3F59
100
AcDbEntity
  8
SUNPOU
100
AcDbLine
 10
394.1495914139491
 20
384.8456792039369
 30
0.0
 11
435.4749200653889
 21
384.8456792039369
 31
0.0
  0
LINE
  5
47AB
330
3F59
100
AcDbEntity
  8
SUNPOU
100
AcDbLine
 10
399.1495914139491
 20
253.3456792039369
 30
0.0
 11
435.4749200653889
 21
253.3456792039369
 31
0.0
  0
LINE
  5
47AC
330
3F59
100
AcDbEntity
  8
SUNPOU
100
AcDbLine
 10
433.4749200653889
 20
380.8456792039369
 30
0.0
 11
433.4749200653889
 21
257.3456792039369
 31
0.0
  0
INSERT
  5
47AD
330
3F59
100
AcDbEntity
  8
SUNPOU
100
AcDbBlockReference
  2
_Open
 10
433.4749200653889
 20
384.8456792039369
 30
0.0
 41
4.0
 42
4.0
 43
4.0
 50
90.0
  0
INSERT
  5
47AE
330
3F59
100
AcDbEntity
  8
SUNPOU
100
AcDbBlockReference
  2
_Open
 10
433.4749200653889
 20
253.3456792039369
 30
0.0
 41
4.0
 42
4.0
 43
4.0
 50
270.0
  0
MTEXT
  5
47AF
330
3F59
100
AcDbEntity
  8
SUNPOU
100
AcDbMText
 10
428.4749200653888
 20
319.095679203937
 30
0.0
 40
6.0
 41
0.0
 71
     5
 72
     1
  1
\A1;132
 11
0.0000000000000001
 21
1.0
 31
0.0
 73
     1
 44
1.0
1001
ACAD
1000
MTEXTBEGIN
1070
    73
1070
     1
1070
    44
1040
1.0
1070
    74
1070
     0
1000
MTEXTEND
  0
POINT
  5
47B0
330
3F59
100
AcDbEntity
  8
DEFPOINTS
 62
     0
100
AcDbPoint
 10
392.1495914139491
 20
384.8456792039369
 30
0.0
  0
POINT
  5
47B1
330
3F59
100
AcDbEntity
  8
DEFPOINTS
 62
     0
100
AcDbPoint
 10
397.1495914139491
 20
253.3456792039369
 30
0.0
  0
POINT
  5
47B2
330
3F59
100
AcDbEntity
  8
DEFPOINTS
 62
     0
100
AcDbPoint
 10
433.4749200653889
 20
253.3456792039369
 30
0.0
  0
ENDBLK
  5
3F65
330
3F59
100
AcDbEntity
  8
0
100
AcDbBlockEnd
  0
BLOCK
  5
3F71
330
3F66
100
AcDbEntity
  8
0
100
AcDbBlockBegin
  2
*D4
 70
     1
 10
0.0
 20
0.0
 30
0.0
  3
*D4
  1

  0
LINE
  5
47A0
330
3F66
100
AcDbEntity
  8
SUNPOU
100
AcDbLine
 10
392.1495914139491
 20
386.8456792039369
 30
0.0
 11
392.1495914139491
 21
417.3317146766116
 31
0.0
  0
LINE
  5
47A1
330
3F66
100
AcDbEntity
  8
SUNPOU
100
AcDbLine
 10
397.1495914139491
 20
253.8456792039369
 30
0.0
 11
397.1495914139491
 21
417.3317146766116
 31
0.0
  0
LINE
  5
47A2
330
3F66
100
AcDbEntity
  8
SUNPOU
100
AcDbLine
 10
388.1495914139491
 20
415.3317146766116
 30
0.0
 11
384.1495914139491
 21
415.3317146766116
 31
0.0
  0
LINE
  5
47A3
330
3F66
100
AcDbEntity
  8
SUNPOU
100
AcDbLine
 10
401.1495914139491
 20
415.3317146766116
 30
0.0
 11
413.1495914139491
 21
415.3317146766116
 31
0.0
  0
INSERT
  5
47A4
330
3F66
100
AcDbEntity
  8
SUNPOU
100
AcDbBlockReference
  2
_Open
 10
392.1495914139491
 20
415.3317146766116
 30
0.0
 41
4.0
 42
4.0
 43
4.0
  0
INSERT
  5
47A5
330
3F66
100
AcDbEntity
  8
SUNPOU
100
AcDbBlockReference
  2
_Open
 10
397.1495914139491
 20
415.3317146766116
 30
0.0
 41
4.0
 42
4.0
 43
4.0
 50
180.0
  0
MTEXT
  5
47A6
330
3F66
100
AcDbEntity
  8
SUNPOU
100
AcDbMText
 10
409.1495914139491
 20
420.3317146766116
 30
0.0
 40
6.0
 41
0.0
 71
     5
 72
     1
  1
\A1;5
 73
     1
 44
1.0
1001
ACAD
1000
MTEXTBEGIN
1070
    73
1070
     1
1070
    44
1040
1.0
1070
    74
1070
     0
1000
MTEXTEND
  0
POINT
  5
47A7
330
3F66
100
AcDbEntity
  8
DEFPOINTS
 62
     0
100
AcDbPoint
 10
392.1495914139491
 20
384.8456792039369
 30
0.0
  0
POINT
  5
47A8
330
3F66
100
AcDbEntity
  8
DEFPOINTS
 62
     0
100
AcDbPoint
 10
397.1495914139491
 20
251.8456792039369
 30
0.0
  0
POINT
  5
47A9
330
3F66
100
AcDbEntity
  8
DEFPOINTS
 62
     0
100
AcDbPoint
 10
397.1495914139491
 20
415.3317146766116
 30
0.0
  0
ENDBLK
  5
3F72
330
3F66
100
AcDbEntity
  8
0
100
AcDbBlockEnd
  0
BLOCK
  5
3F7E
330
3F73
100
AcDbEntity
  8
0
100
AcDbBlockBegin
  2
*D5
 70
     1
 10
0.0
 20
0.0
 30
0.0
  3
*D5
  1

  0
LINE
  5
47BC
330
3F73
100
AcDbEntity
  8
SUNPOU
100
AcDbLine
 10
399.1495914139491
 20
502.7514498637101
 30
0.0
 11
421.4413793605979
 21
502.7514498637101
 31
0.0
  0
LINE
  5
47BD
330
3F73
100
AcDbEntity
  8
SUNPOU
100
AcDbLine
 10
399.1495914139491
 20
462.7514498637101
 30
0.0
 11
421.4413793605979
 21
462.7514498637101
 31
0.0
  0
LINE
  5
47BE
330
3F73
100
AcDbEntity
  8
SUNPOU
100
AcDbLine
 10
419.4413793605979
 20
498.7514498637101
 30
0.0
 11
419.4413793605979
 21
466.7514498637101
 31
0.0
  0
INSERT
  5
47BF
330
3F73
100
AcDbEntity
  8
SUNPOU
100
AcDbBlockReference
  2
_Open
 10
419.4413793605979
 20
502.7514498637101
 30
0.0
 41
4.0
 42
4.0
 43
4.0
 50
90.0
  0
INSERT
  5
47C0
330
3F73
100
AcDbEntity
  8
SUNPOU
100
AcDbBlockReference
  2
_Open
 10
419.4413793605979
 20
462.7514498637101
 30
0.0
 41
4.0
 42
4.0
 43
4.0
 50
270.0
  0
MTEXT
  5
47C1
330
3F73
100
AcDbEntity
  8
SUNPOU
100
AcDbMText
 10
414.4413793605978
 20
482.7514498637103
 30
0.0
 40
6.0
 41
0.0
 71
     5
 72
     1
  1
\A1;40
 11
0.0000000000000001
 21
1.0
 31
0.0
 73
     1
 44
1.0
1001
ACAD
1000
MTEXTBEGIN
1070
    73
1070
     1
1070
    44
1040
1.0
1070
    74
1070
     0
1000
MTEXTEND
  0
POINT
  5
47C2
330
3F73
100
AcDbEntity
  8
DEFPOINTS
 62
     0
100
AcDbPoint
 10
397.1495914139491
 20
502.7514498637101
 30
0.0
  0
POINT
  5
47C3
330
3F73
100
AcDbEntity
  8
DEFPOINTS
 62
     0
100
AcDbPoint
 10
397.1495914139491
 20
462.7514498637101
 30
0.0
  0
POINT
  5
47C4
330
3F73
100
AcDbEntity
  8
DEFPOINTS
 62
     0
100
AcDbPoint
 10
419.4413793605979
 20
462.7514498637101
 30
0.0
  0
ENDBLK
  5
3F7F
330
3F73
100
AcDbEntity
  8
0
100
AcDbBlockEnd
  0
BLOCK
  5
401E
330
401A
100
AcDbEntity
  8
0
100
AcDbBlockBegin
  2
_Open
 70
     0
 10
0.0
 20
0.0
 30
0.0
  3
_Open
  1

  0
LINE
  5
401B
330
401A
100
AcDbEntity
  8
0
 62
     0
370
    -2
100
AcDbLine
 10
-1.0
 20
0.1666666666666666
 30
0.0
 11
0.0
 21
0.0
 31
0.0
  0
LINE
  5
401C
330
401A
100
AcDbEntity
  8
0
 62
     0
370
    -2
100
AcDbLine
 10
-1.0
 20
-0.1666666666666666
 30
0.0
 11
0.0
 21
0.0
 31
0.0
  0
LINE
  5
401D
330
401A
100
AcDbEntity
  8
0
 62
     0
370
    -2
100
AcDbLine
 10
0.0
 20
0.0
 30
0.0
 11
-1.0
 21
0.0
 31
0.0
  0
ENDBLK
  5
401F
330
401A
100
AcDbEntity
  8
0
100
AcDbBlockEnd
  0
BLOCK
  5
4112
330
4108
100
AcDbEntity
  8
0
100
AcDbBlockBegin
  2
*D7
 70
     1
 10
0.0
 20
0.0
 30
0.0
  3
*D7
  1

  0
LINE
  5
4797
330
4108
100
AcDbEntity
  8
SUNPOU
100
AcDbLine
 10
397.1495914139491
 20
253.8456792039369
 30
0.0
 11
397.1495914139491
 21
432.3595638872066
 31
0.0
  0
LINE
  5
4798
330
4108
100
AcDbEntity
  8
SUNPOU
100
AcDbLine
 10
327.1495914139491
 20
386.8456792039369
 30
0.0
 11
327.1495914139491
 21
432.3595638872066
 31
0.0
  0
LINE
  5
4799
330
4108
100
AcDbEntity
  8
SUNPOU
100
AcDbLine
 10
393.1495914139491
 20
430.3595638872065
 30
0.0
 11
331.1495914139491
 21
430.3595638872065
 31
0.0
  0
INSERT
  5
479A
330
4108
100
AcDbEntity
  8
SUNPOU
100
AcDbBlockReference
  2
_Open
 10
397.1495914139491
 20
430.3595638872065
 30
0.0
 41
4.0
 42
4.0
 43
4.0
  0
INSERT
  5
479B
330
4108
100
AcDbEntity
  8
SUNPOU
100
AcDbBlockReference
  2
_Open
 10
327.1495914139491
 20
430.3595638872065
 30
0.0
 41
4.0
 42
4.0
 43
4.0
 50
180.0
  0
MTEXT
  5
479C
330
4108
100
AcDbEntity
  8
SUNPOU
100
AcDbMText
 10
362.1495914139491
 20
435.3595638872065
 30
0.0
 40
6.0
 41
0.0
 71
     5
 72
     1
  1
\A1;70
 73
     1
 44
1.0
1001
ACAD
1000
MTEXTBEGIN
1070
    73
1070
     1
1070
    44
1040
1.0
1070
    74
1070
     0
1000
MTEXTEND
  0
POINT
  5
479D
330
4108
100
AcDbEntity
  8
DEFPOINTS
 62
     0
100
AcDbPoint
 10
397.1495914139491
 20
251.8456792039369
 30
0.0
  0
POINT
  5
479E
330
4108
100
AcDbEntity
  8
DEFPOINTS
 62
     0
100
AcDbPoint
 10
327.1495914139491
 20
384.8456792039369
 30
0.0
  0
POINT
  5
479F
330
4108
100
AcDbEntity
  8
DEFPOINTS
 62
     0
100
AcDbPoint
 10
327.1495914139491
 20
430.3595638872065
 30
0.0
  0
ENDBLK
  5
4113
330
4108
100
AcDbEntity
  8
0
100
AcDbBlockEnd
  0
ENDSEC
  0
SECTION
  2
ENTITIES
  0
LWPOLYLINE
  5
76D
330
1A
100
AcDbEntity
  8
ZUWAKU
100
AcDbPolyline
 90
        4
 70
     1
 43
0.0
 10
15.79999918477006
 20
565.8000003741979
 10
15.79999918477006
 20
15.80000037419791
 10
811.79999918477
 20
15.80000037419791
 10
811.79999918477
 20
565.8000003741979
  0
LWPOLYLINE
  5
76E
330
1A
100
AcDbEntity
  8
ZUWAKU
100
AcDbPolyline
 90
        4
 70
     1
 43
0.0
 10
15.39999918477008
 20
566.2000003741979
 10
15.39999918477008
 20
15.40000037419793
 10
812.1999991847701
 20
15.40000037419791
 10
812.1999991847701
 20
566.2000003741979
  0
LWPOLYLINE
  5
76F
330
1A
100
AcDbEntity
  8
ZUWAKU
100
AcDbPolyline
 90
        4
 70
     1
 43
0.0
 10
14.9999991847701
 20
566.6000003741978
 10
14.9999991847701
 20
15.00000037419784
 10
812.5999991847702
 20
15.0000003741979
 10
812.5999991847702
 20
566.6000003741979
  0
LWPOLYLINE
  5
770
330
1A
100
AcDbEntity
  8
ZUWAKU
100
AcDbPolyline
 90
        4
 70
     1
 43
0.0
 10
15.59999918477001
 20
566.0000003741979
 10
15.59999918477001
 20
15.60000037419786
 10
811.9999991847702
 20
15.60000037419791
 10
811.99999918477
 20
566.0000003741979
  0
LWPOLYLINE
  5
771
330
1A
100
AcDbEntity
  8
ZUWAKU
100
AcDbPolyline
 90
        4
 70
     1
 43
0.0
 10
15.19999918477003
 20
566.4000003741979
 10
15.19999918477003
 20
15.20000037419788
 10
812.39999918477
 20
15.20000037419791
 10
812.3999991847702
 20
566.4000003741979
  0
LINE
  5
772
330
1A
100
AcDbEntity
  8
ZUWAKU
100
AcDbLine
 10
14.9999991847701
 20
45.00000037419783
 30
0.0
 11
812.39999918477
 21
45.00000037419783
 31
0.0
  0
LINE
  5
773
330
1A
100
AcDbEntity
  8
ZUWAKU
100
AcDbLine
 10
14.9999991847701
 20
45.20000037419784
 30
0.0
 11
812.39999918477
 21
45.20000037419784
 31
0.0
  0
LINE
  5
774
330
1A
100
AcDbEntity
  8
ZUWAKU
100
AcDbLine
 10
14.9999991847701
 20
45.40000037419784
 30
0.0
 11
812.39999918477
 21
45.40000037419784
 31
0.0
  0
LINE
  5
775
330
1A
100
AcDbEntity
  8
ZUWAKU
100
AcDbLine
 10
14.9999991847701
 20
45.60000037419785
 30
0.0
 11
812.39999918477
 21
45.60000037419785
 31
0.0
  0
LINE
  5
776
330
1A
100
AcDbEntity
  8
ZUWAKU
100
AcDbLine
 10
14.9999991847701
 20
45.80000037419785
 30
0.0
 11
812.39999918477
 21
45.80000037419785
 31
0.0
  0
LINE
  5
777
330
1A
100
AcDbEntity
  8
ZUWAKU
100
AcDbLine
 10
223.6466004748381
 20
30.40000037419787
 30
0.0
 11
462.4243631557614
 21
30.40000037419787
 31
0.0
  0
LINE
  5
778
330
1A
100
AcDbEntity
  8
ZUWAKU
100
AcDbLine
 10
223.6466004748381
 20
30.60000037419787
 30
0.0
 11
462.4243631557614
 21
30.60000037419788
 31
0.0
  0
LINE
  5
779
330
1A
100
AcDbEntity
  8
ZUWAKU
100
AcDbLine
 10
223.6466004748381
 20
30.20000037419788
 30
0.0
 11
462.4243631557614
 21
30.20000037419787
 31
0.0
  0
TEXT
  5
77A
330
1A
100
AcDbEntity
  8
moji
100
AcDbText
 10
107.9577887729392
 20
27.7411785044726
 30
0.0
 40
6.0
  1
ユニシェイプ　たてとい 
 41
0.9
  7
MSPｺﾞｼｯｸ
100
AcDbText
  0
CIRCLE
  5
77B
330
1A
100
AcDbEntity
  8
ZUWAKU
100
AcDbCircle
 10
40.9922113395512
 20
30.20000037419784
 30
0.0
 40
1.75
  0
LINE
  5
77C
330
1A
100
AcDbEntity
  8
ZUWAKU
100
AcDbLine
 10
41.8672113395512
 20
22.15000037419784
 30
0.0
 11
39.94221133955125
 21
22.15000037419784
 31
0.0
  0
LINE
  5
77D
330
1A
100
AcDbEntity
  8
ZUWAKU
100
AcDbLine
 10
39.94221133955125
 20
24.95000037419784
 30
0.0
 11
41.8672113395512
 21
24.95000037419784
 31
0.0
  0
LINE
  5
77E
330
1A
100
AcDbEntity
  8
ZUWAKU
100
AcDbLine
 10
41.8672113395512
 20
35.45000037419784
 30
0.0
 11
39.94221133955125
 21
35.45000037419784
 31
0.0
  0
LINE
  5
77F
330
1A
100
AcDbEntity
  8
ZUWAKU
100
AcDbLine
 10
39.94221133955125
 20
38.2500003741978
 30
0.0
 11
41.8672113395512
 21
38.25000037419785
 31
0.0
  0
INSERT
  5
780
330
1A
100
AcDbEntity
  8
ZUWAKU
  6
Continuous
100
AcDbBlockReference
  2
*X0
 10
0.0
 20
0.0
 30
0.0
1001
ACAD
1000
HATCH
1002
{
1070
    19
1000
ANSI37
1040
0.2
1040
0.0
1000
R14_HATCH_DATA
1000
780
1011
1.0
1021
0.0
1031
0.0
1011
0.0
1021
1.0
1031
0.0
1011
0.0
1021
0.0
1031
1.0
1040
0.0
1010
0.0
1020
0.0
1030
1.0
1000
ANSI37
1070
     0
1070
     0
1071
        8
1071
        7
1070
     1
1070
     1
1071
       24
1040
29.50226184588996
1040
32.64484885518142
1040
-0.1989123673796348
1040
29.09221133955123
1040
33.63479834884247
1040
0.0
1040
29.09221133955123
1040
34.92500037419785
1040
-0.4142135623730912
1040
29.61721133955121
1040
35.45000037419784
1040
0.0
1040
32.59221133955112
1040
35.45000037419784
1040
0.4142135623731546
1040
33.11721133955121
1040
35.97500037419783
1040
0.0
1040
33.11721133955121
1040
37.72500037419785
1040
0.4142135623731586
1040
32.59221133955112
1040
38.25000037419785
1040
0.0
1040
29.09221133955123
1040
38.25000037419785
1040
0.4142135623730928
1040
26.29221133955127
1040
35.45000037419787
1040
0.0
1040
26.29221133955127
1040
33.6347983488426
1040
0.1989123673796619
1040
27.52236285856771
1040
30.664949867859
1040
0.0
1040
30.43216083321238
1040
27.75515189321434
1040
-0.1989123673796613
1040
30.84221133955123
1040
26.76520239955315
1040
0.0
1040
30.84221133955123
1040
25.47500037419784
1040
-0.4142135623730911
1040
30.31721133955125
1040
24.95000037419784
1040
0.0
1040
27.34221133955134
1040
24.95000037419784
1040
0.4142135623731526
1040
26.81721133955125
1040
24.42500037419785
1040
0.0
1040
26.81721133955125
1040
22.67500037419783
1040
0.4142135623731526
1040
27.34221133955134
1040
22.15000037419784
1040
0.0
1040
30.84221133955123
1040
22.15000037419784
1040
0.4142135623731044
1040
33.6422113395513
1040
24.95000037419782
1040
0.0
1040
33.6422113395513
1040
26.76520239955309
1040
0.1989123673796604
1040
32.41205982053475
1040
29.73505088053663
1040
0.0
1071
        0
1071
        7
1070
     1
1070
     1
1071
       16
1040
38.54221133955127
1040
34.05000037419785
1040
-0.4142135623730935
1040
39.94221133955125
1040
35.45000037419784
1040
0.0
1040
41.8672113395512
1040
35.45000037419784
1040
0.4142135623731546
1040
42.39221133955129
1040
35.97500037419783
1040
0.0
1040
42.39221133955129
1040
37.72500037419785
1040
0.4142135623730951
1040
41.86721133955131
1040
38.25000037419785
1040
0.0
1040
39.94221133955114
1040
38.2500003741978
1040
0.4142135623730892
1040
35.7422113395512
1040
34.05000037419778
1040
0.0
1040
35.7422113395512
1040
26.35000037419787
1040
0.4142135623730969
1040
39.94221133955125
1040
22.15000037419784
1040
0.0
1040
41.8672113395512
1040
22.15000037419784
1040
0.4142135623731526
1040
42.39221133955129
1040
22.67500037419783
1040
0.0
1040
42.39221133955129
1040
24.42500037419785
1040
0.4142135623730891
1040
41.86721133955131
1040
24.95000037419784
1040
0.0
1040
39.94221133955125
1040
24.95000037419784
1040
-0.4142135623730928
1040
38.54221133955127
1040
26.35000037419783
1040
0.0
1071
        0
1071
        7
1070
     1
1070
     1
1071
        2
1040
39.2422113395512
1040
30.20000037419784
1040
1.0
1040
42.7422113395512
1040
30.20000037419784
1040
1.0
1071
        0
1071
        7
1070
     1
1070
     1
1071
       26
1040
52.31485782172922
1040
34.20504756776127
1040
0.0
1040
53.37649745486704
1040
37.56690640603086
1040
0.5069206636600134
1040
52.87586655567167
1040
38.25000037419785
1040
0.0
1040
51.17697717606245
1040
38.25000037419785
1040
0.3272098845218764
1040
50.67634627686709
1040
37.88309434236481
1040
0.0
1040
48.80807640223531
1040
31.96690640603093
1040
-0.3272098845219541
1040
48.30744550303984
1040
31.60000037419784
1040
0.0
1040
48.16721133955138
1040
31.60000037419784
1040
-0.4142135623731526
1040
47.64221133955129
1040
32.12500037419783
1040
0.0
1040
47.64221133955129
1040
37.72500037419785
1040
0.4142135623730951
1040
47.11721133955132
1040
38.25000037419785
1040
0.0
1040
45.3672113395512
1040
38.25000037419785
1040
0.4142135623730871
1040
44.84221133955123
1040
37.72500037419786
1040
0.0
1040
44.84221133955123
1040
22.67500037419783
1040
0.4142135623730891
1040
45.3672113395512
1040
22.15000037419784
1040
0.0
1040
47.1172113395512
1040
22.15000037419784
1040
0.4142135623731526
1040
47.64221133955129
1040
22.67500037419783
1040
0.0
1040
47.64221133955129
1040
28.27500037419786
1040
-0.4142135623731526
1040
48.16721133955138
1040
28.80000037419785
1040
0.0
1040
48.30744550303996
1040
28.80000037419785
1040
-0.3272098845218915
1040
48.80807640223531
1040
28.43309434236477
1040
0.0
1040
50.67634627686709
1040
22.51690640603092
1040
0.3272098845218902
1040
51.17697717606245
1040
22.15000037419784
1040
0.0
1040
52.87586655567167
1040
22.15000037419784
1040
0.5069206636600335
1040
53.37649745486704
1040
22.83309434236485
1040
0.0
1040
51.05010607639338
1040
30.20000037419798
1040
0.0
1071
        0
1071
        7
1070
     1
1070
     1
1071
        8
1040
58.4922113395512
1040
37.72500037419785
1040
0.4142135623731546
1040
57.96721133955111
1040
38.25000037419785
1040
0.0
1040
56.21721133955134
1040
38.25000037419785
1040
0.4142135623731507
1040
55.69221133955124
1040
37.72500037419786
1040
0.0
1040
55.69221133955124
1040
22.67500037419783
1040
0.4142135623731526
1040
56.21721133955134
1040
22.15000037419784
1040
0.0
1040
57.96721133955111
1040
22.15000037419784
1040
0.4142135623731526
1040
58.4922113395512
1040
22.67500037419783
1040
0.0
1071
        0
1071
        7
1070
     1
1070
     1
1071
       24
1040
63.39221133955129
1040
34.92500037419785
1040
-0.4142135623731546
1040
63.91721133955138
1040
35.45000037419784
1040
0.0
1040
66.89221133955129
1040
35.45000037419784
1040
0.4142135623730911
1040
67.41721133955127
1040
35.97500037419783
1040
0.0
1040
67.41721133955127
1040
37.72500037419785
1040
0.4142135623730952
1040
66.89221133955129
1040
38.25000037419785
1040
0.0
1040
63.39221133955129
1040
38.25000037419785
1040
0.4142135623731048
1040
60.59221133955123
1040
35.45000037419787
1040
0.0
1040
60.59221133955123
1040
33.6347983488426
1040
0.1989123673796613
1040
61.82236285856777
1040
30.66494986785905
1040
0.0
1040
64.73216083321244
1040
27.75515189321438
1040
-0.1989123673796402
1040
65.14221133955129
1040
26.76520239955331
1040
0.0
1040
65.14221133955129
1040
25.47500037419784
1040
-0.4142135623730911
1040
64.61721133955132
1040
24.95000037419784
1040
0.0
1040
61.6422113395513
1040
24.95000037419784
1040
0.4142135623731526
1040
61.1172113395512
1040
24.42500037419785
1040
0.0
1040
61.1172113395512
1040
22.67500037419783
1040
0.4142135623730891
1040
61.64221133955118
1040
22.15000037419784
1040
0.0
1040
65.14221133955129
1040
22.15000037419784
1040
0.4142135623730925
1040
67.94221133955125
1040
24.95000037419782
1040
0.0
1040
67.94221133955125
1040
26.76520239955309
1040
0.1989123673796675
1040
66.71205982053471
1040
29.73505088053675
1040
0.0
1040
63.80226184589014
1040
32.64484885518127
1040
-0.1989123673796652
1040
63.39221133955129
1040
33.63479834884243
1040
0.0
1071
        0
1071
        7
1070
     1
1070
     1
1071
       16
1040
72.84221133955123
1040
37.72500037419784
1040
0.414213562373103
1040
72.31721133955125
1040
38.25000037419785
1040
0.0
1040
70.56721133955125
1040
38.25000037419785
1040
0.4142135623730871
1040
70.04221133955127
1040
37.72500037419786
1040
0.0
1040
70.04221133955127
1040
24.95000037419782
1040
0.4142135623730926
1040
72.84221133955123
1040
22.15000037419784
1040
0.0
1040
76.34221133955122
1040
22.15000037419784
1040
0.4142135623731044
1040
79.1422113395513
1040
24.95000037419782
1040
0.0
1040
79.1422113395513
1040
37.72500037419785
1040
0.4142135623730951
1040
78.61721133955132
1040
38.25000037419785
1040
0.0
1040
76.86721133955121
1040
38.25000037419785
1040
0.4142135623730871
1040
76.34221133955122
1040
37.72500037419786
1040
0.0
1040
76.34221133955122
1040
26.00000037419782
1040
-0.414213562373088
1040
75.29221133955127
1040
24.95000037419784
1040
0.0
1040
73.89221133955129
1040
24.95000037419784
1040
-0.4142135623731197
1040
72.84221133955123
1040
26.00000037419782
1040
0.0
1071
        0
1071
        7
1070
     1
1070
     1
1071
        8
1040
84.04221133955127
1040
37.72500037419786
1040
0.4142135623730871
1040
83.51721133955129
1040
38.25000037419785
1040
0.0
1040
81.7672113395513
1040
38.25000037419785
1040
0.4142135623731507
1040
81.24221133955121
1040
37.72500037419786
1040
0.0
1040
81.24221133955121
1040
22.67500037419783
1040
0.4142135623730891
1040
81.76721133955117
1040
22.15000037419784
1040
0.0
1040
83.51721133955129
1040
22.15000037419784
1040
0.4142135623730891
1040
84.04221133955127
1040
22.67500037419783
1040
0.0
1071
        0
1070
     0
1070
     1
1040
0.0
1040
0.2
1070
     0
1070
     2
1040
0.7853981633974483
1040
-885.9423051499089
1040
1.800000374197907
1040
-0.4490128060534576
1040
0.4490128060534577
1070
     0
1040
2.356194490192344
1040
-885.9423051499089
1040
1.800000374197907
1040
-0.4490128060534577
1040
-0.4490128060534576
1070
     0
1040
0.057451373970553
1071
        8
1040
31.07985414779341
1040
30.16717402008339
1040
0.0
1040
37.40451419120927
1040
33.84406255664885
1040
0.0
1040
40.16436707042976
1040
30.51188202026856
1040
0.0
1040
45.91405916640724
1040
31.20129802063934
1040
0.0
1040
56.83847120372684
1040
31.66091028818096
1040
0.0
1040
61.89820007989965
1040
34.41857669060505
1040
0.0
1040
71.55768515717046
1040
33.72915828929285
1040
0.0
1040
82.82707880439284
1040
34.18877055683447
1040
0.0
1002
}
  0
ARC
  5
781
330
1A
100
AcDbEntity
  8
ZUWAKU
100
AcDbCircle
 10
30.4922113395512
 20
33.63479834884254
 30
0.0
 40
4.199999999999999
100
AcDbArc
 50
180.0
 51
225.0
  0
LINE
  5
782
330
1A
100
AcDbEntity
  8
ZUWAKU
100
AcDbLine
 10
35.7422113395512
 20
26.35000037419785
 30
0.0
 11
35.7422113395512
 21
34.0500003741978
 31
0.0
  0
LINE
  5
783
330
1A
100
AcDbEntity
  8
ZUWAKU
100
AcDbLine
 10
38.54221133955127
 20
34.05000037419784
 30
0.0
 11
38.54221133955127
 21
26.35000037419785
 31
0.0
  0
ARC
  5
784
330
1A
100
AcDbEntity
  8
ZUWAKU
100
AcDbCircle
 10
30.4922113395512
 20
33.63479834884254
 30
0.0
 40
1.399999999999999
100
AcDbArc
 50
180.0000000000016
 51
224.9999999999988
  0
ARC
  5
785
330
1A
100
AcDbEntity
  8
ZUWAKU
100
AcDbCircle
 10
39.94221133955125
 20
26.35000037419785
 30
0.0
 40
4.199999999999999
100
AcDbArc
 50
180.0
 51
270.0
  0
ARC
  5
786
330
1A
100
AcDbEntity
  8
ZUWAKU
100
AcDbCircle
 10
30.84221133955123
 20
24.95000037419784
 30
0.0
 40
2.799999999999999
100
AcDbArc
 50
270.0
 51
0.0
  0
ARC
  5
787
330
1A
100
AcDbEntity
  8
ZUWAKU
100
AcDbCircle
 10
29.44221133955125
 20
26.76520239955315
 30
0.0
 40
4.199999999999999
100
AcDbArc
 50
0.0
 51
45.0
  0
LINE
  5
788
330
1A
100
AcDbEntity
  8
ZUWAKU
100
AcDbLine
 10
27.52236285856771
 20
30.66494986785902
 30
0.0
 11
30.43216083321238
 21
27.75515189321436
 31
0.0
  0
LINE
  5
789
330
1A
100
AcDbEntity
  8
ZUWAKU
100
AcDbLine
 10
27.34221133955123
 20
24.95000037419784
 30
0.0
 11
30.31721133955125
 21
24.95000037419784
 31
0.0
  0
LINE
  5
78A
330
1A
100
AcDbEntity
  8
ZUWAKU
100
AcDbLine
 10
27.34221133955123
 20
22.15000037419784
 30
0.0
 11
30.84221133955123
 21
22.15000037419784
 31
0.0
  0
ARC
  5
78B
330
1A
100
AcDbEntity
  8
ZUWAKU
100
AcDbCircle
 10
27.34221133955123
 20
24.42500037419784
 30
0.0
 40
0.525
100
AcDbArc
 50
90.0
 51
180.0
  0
ARC
  5
78C
330
1A
100
AcDbEntity
  8
ZUWAKU
100
AcDbCircle
 10
27.34221133955123
 20
22.67500037419784
 30
0.0
 40
0.525
100
AcDbArc
 50
180.0
 51
270.0
  0
LINE
  5
78D
330
1A
100
AcDbEntity
  8
ZUWAKU
100
AcDbLine
 10
26.81721133955125
 20
22.67500037419784
 30
0.0
 11
26.81721133955125
 21
24.42500037419784
 31
0.0
  0
ARC
  5
78E
330
1A
100
AcDbEntity
  8
ZUWAKU
100
AcDbCircle
 10
29.44221133955125
 20
26.76520239955319
 30
0.0
 40
1.399999999999999
100
AcDbArc
 50
0.0
 51
45.0
  0
ARC
  5
78F
330
1A
100
AcDbEntity
  8
ZUWAKU
100
AcDbCircle
 10
30.31721133955125
 20
25.47500037419785
 30
0.0
 40
0.525
100
AcDbArc
 50
270.0
 51
0.0
  0
LINE
  5
790
330
1A
100
AcDbEntity
  8
ZUWAKU
100
AcDbLine
 10
30.84221133955123
 20
25.47500037419785
 30
0.0
 11
30.84221133955123
 21
26.76520239955319
 31
0.0
  0
LINE
  5
791
330
1A
100
AcDbEntity
  8
ZUWAKU
100
AcDbLine
 10
32.41205982053475
 20
29.73505088053667
 30
0.0
 11
29.50226184589008
 21
32.64484885518135
 31
0.0
  0
ARC
  5
792
330
1A
100
AcDbEntity
  8
ZUWAKU
100
AcDbCircle
 10
39.94221133955125
 20
26.35000037419785
 30
0.0
 40
1.399999999999999
100
AcDbArc
 50
180.0
 51
270.0
  0
LINE
  5
793
330
1A
100
AcDbEntity
  8
ZUWAKU
100
AcDbLine
 10
33.6422113395513
 20
24.95000037419784
 30
0.0
 11
33.6422113395513
 21
26.76520239955319
 31
0.0
  0
ARC
  5
794
330
1A
100
AcDbEntity
  8
ZUWAKU
100
AcDbCircle
 10
32.59221133955123
 20
35.97500037419784
 30
0.0
 40
0.525
100
AcDbArc
 50
270.0
 51
0.0
  0
ARC
  5
795
330
1A
100
AcDbEntity
  8
ZUWAKU
100
AcDbCircle
 10
32.59221133955123
 20
37.72500037419784
 30
0.0
 40
0.525
100
AcDbArc
 50
0.0
 51
90.0
  0
ARC
  5
796
330
1A
100
AcDbEntity
  8
ZUWAKU
100
AcDbCircle
 10
29.09221133955123
 20
35.45000037419784
 30
0.0
 40
2.799999999999999
100
AcDbArc
 50
90.0
 51
180.0
  0
LINE
  5
797
330
1A
100
AcDbEntity
  8
ZUWAKU
100
AcDbLine
 10
26.29221133955127
 20
35.45000037419784
 30
0.0
 11
26.29221133955127
 21
33.6347983488425
 31
0.0
  0
LINE
  5
798
330
1A
100
AcDbEntity
  8
ZUWAKU
100
AcDbLine
 10
32.59221133955123
 20
35.45000037419784
 30
0.0
 11
29.61721133955121
 21
35.45000037419784
 31
0.0
  0
LINE
  5
799
330
1A
100
AcDbEntity
  8
ZUWAKU
100
AcDbLine
 10
29.09221133955123
 20
34.92500037419784
 30
0.0
 11
29.09221133955123
 21
33.6347983488425
 31
0.0
  0
ARC
  5
79A
330
1A
100
AcDbEntity
  8
ZUWAKU
100
AcDbCircle
 10
29.61721133955121
 20
34.92500037419784
 30
0.0
 40
0.525
100
AcDbArc
 50
90.0
 51
180.0
  0
LINE
  5
79B
330
1A
100
AcDbEntity
  8
ZUWAKU
100
AcDbLine
 10
29.09221133955123
 20
38.25000037419785
 30
0.0
 11
32.59221133955123
 21
38.25000037419785
 31
0.0
  0
ARC
  5
79C
330
1A
100
AcDbEntity
  8
ZUWAKU
100
AcDbCircle
 10
39.94221133955125
 20
34.0500003741978
 30
0.0
 40
4.199999999999999
100
AcDbArc
 50
90.0
 51
180.0
  0
ARC
  5
79D
330
1A
100
AcDbEntity
  8
ZUWAKU
100
AcDbCircle
 10
39.94221133955125
 20
34.05000037419784
 30
0.0
 40
1.399999999999999
100
AcDbArc
 50
90.0
 51
180.0
  0
LINE
  5
79E
330
1A
100
AcDbEntity
  8
ZUWAKU
100
AcDbLine
 10
33.11721133955121
 20
37.72500037419784
 30
0.0
 11
33.11721133955121
 21
35.97500037419784
 31
0.0
  0
LINE
  5
79F
330
1A
100
AcDbEntity
  8
ZUWAKU
100
AcDbLine
 10
50.67634627686709
 20
37.88309434236481
 30
0.0
 11
48.80807640223531
 21
31.96690640603087
 31
0.0
  0
LINE
  5
7A0
330
1A
100
AcDbEntity
  8
ZUWAKU
100
AcDbLine
 10
44.84221133955123
 20
37.72500037419784
 30
0.0
 11
44.84221133955123
 21
22.67500037419784
 31
0.0
  0
LINE
  5
7A1
330
1A
100
AcDbEntity
  8
ZUWAKU
100
AcDbLine
 10
47.64221133955129
 20
32.12500037419785
 30
0.0
 11
47.64221133955129
 21
37.72500037419784
 31
0.0
  0
LINE
  5
7A2
330
1A
100
AcDbEntity
  8
ZUWAKU
100
AcDbLine
 10
72.84221133955123
 20
26.00000037419784
 30
0.0
 11
72.84221133955123
 21
37.72500037419784
 31
0.0
  0
LINE
  5
7A3
330
1A
100
AcDbEntity
  8
ZUWAKU
100
AcDbLine
 10
70.04221133955127
 20
37.72500037419784
 30
0.0
 11
70.04221133955127
 21
24.95000037419784
 31
0.0
  0
LINE
  5
7A4
330
1A
100
AcDbEntity
  8
ZUWAKU
100
AcDbLine
 10
58.4922113395512
 20
22.67500037419784
 30
0.0
 11
58.4922113395512
 21
37.72500037419784
 31
0.0
  0
LINE
  5
7A5
330
1A
100
AcDbEntity
  8
ZUWAKU
100
AcDbLine
 10
55.69221133955124
 20
37.72500037419784
 30
0.0
 11
55.69221133955124
 21
22.67500037419784
 31
0.0
  0
LINE
  5
7A6
330
1A
100
AcDbEntity
  8
ZUWAKU
100
AcDbLine
 10
52.31485782172922
 20
34.20504756776127
 30
0.0
 11
51.05010607639338
 21
30.20000037419786
 31
0.0
  0
ARC
  5
7A7
330
1A
100
AcDbEntity
  8
ZUWAKU
100
AcDbCircle
 10
64.79221133955127
 20
33.63479834884254
 30
0.0
 40
4.199999999999999
100
AcDbArc
 50
180.0
 51
225.0
  0
ARC
  5
7A8
330
1A
100
AcDbEntity
  8
ZUWAKU
100
AcDbCircle
 10
64.79221133955127
 20
33.63479834884254
 30
0.0
 40
1.399999999999999
100
AcDbArc
 50
180.0000000000016
 51
224.9999999999988
  0
LINE
  5
7A9
330
1A
100
AcDbEntity
  8
ZUWAKU
100
AcDbLine
 10
81.24221133955121
 20
37.72500037419784
 30
0.0
 11
81.24221133955121
 21
22.67500037419784
 31
0.0
  0
LINE
  5
7AA
330
1A
100
AcDbEntity
  8
ZUWAKU
100
AcDbLine
 10
84.04221133955127
 20
22.67500037419784
 30
0.0
 11
84.04221133955127
 21
37.72500037419784
 31
0.0
  0
LINE
  5
7AB
330
1A
100
AcDbEntity
  8
ZUWAKU
100
AcDbLine
 10
76.34221133955122
 20
37.72500037419784
 30
0.0
 11
76.34221133955122
 21
26.00000037419784
 31
0.0
  0
LINE
  5
7AC
330
1A
100
AcDbEntity
  8
ZUWAKU
100
AcDbLine
 10
79.1422113395513
 20
24.95000037419784
 30
0.0
 11
79.1422113395513
 21
37.72500037419784
 31
0.0
  0
LINE
  5
7AD
330
1A
100
AcDbEntity
  8
ZUWAKU
100
AcDbLine
 10
94.12662873275849
 20
45.00000037419783
 30
0.0
 11
94.12662873275849
 21
15.80000037419791
 31
0.0
  0
LINE
  5
7AE
330
1A
100
AcDbEntity
  8
ZUWAKU
100
AcDbLine
 10
94.52662873275835
 20
45.00000037419783
 30
0.0
 11
94.52662873275858
 21
15.80000037419791
 31
0.0
  0
LINE
  5
7AF
330
1A
100
AcDbEntity
  8
ZUWAKU
100
AcDbLine
 10
94.3266287327583
 20
45.00000037419783
 30
0.0
 11
94.32662873275853
 21
15.80000037419791
 31
0.0
  0
LINE
  5
7B0
330
1A
100
AcDbEntity
  8
ZUWAKU
100
AcDbLine
 10
72.84221133955123
 20
22.15000037419784
 30
0.0
 11
76.34221133955122
 21
22.15000037419784
 31
0.0
  0
LINE
  5
7B1
330
1A
100
AcDbEntity
  8
ZUWAKU
100
AcDbLine
 10
75.29221133955127
 20
24.95000037419784
 30
0.0
 11
73.89221133955129
 21
24.95000037419784
 31
0.0
  0
LINE
  5
7B2
330
1A
100
AcDbEntity
  8
ZUWAKU
100
AcDbLine
 10
56.21721133955123
 20
22.15000037419784
 30
0.0
 11
57.96721133955123
 21
22.15000037419784
 31
0.0
  0
LINE
  5
7B3
330
1A
100
AcDbEntity
  8
ZUWAKU
100
AcDbLine
 10
50.67634627686709
 20
22.51690640603087
 30
0.0
 11
48.80807640223531
 21
28.43309434236481
 31
0.0
  0
ARC
  5
7B4
330
1A
100
AcDbEntity
  8
ZUWAKU
100
AcDbCircle
 10
48.16721133955127
 20
28.27500037419785
 30
0.0
 40
0.525
100
AcDbArc
 50
90.0
 51
180.0
  0
ARC
  5
7B5
330
1A
100
AcDbEntity
  8
ZUWAKU
100
AcDbCircle
 10
48.30744550303996
 20
28.27500037419785
 30
0.0
 40
0.525
100
AcDbArc
 50
17.52556837372303
 51
90.0
  0
ARC
  5
7B6
330
1A
100
AcDbEntity
  8
ZUWAKU
100
AcDbCircle
 10
45.3672113395512
 20
22.67500037419784
 30
0.0
 40
0.525
100
AcDbArc
 50
180.0
 51
270.0
  0
ARC
  5
7B7
330
1A
100
AcDbEntity
  8
ZUWAKU
100
AcDbCircle
 10
41.8672113395512
 20
24.42500037419784
 30
0.0
 40
0.525
100
AcDbArc
 50
0.0
 51
90.0
  0
ARC
  5
7B8
330
1A
100
AcDbEntity
  8
ZUWAKU
100
AcDbCircle
 10
41.8672113395512
 20
22.67500037419784
 30
0.0
 40
0.525
100
AcDbArc
 50
270.0
 51
0.0
  0
LINE
  5
7B9
330
1A
100
AcDbEntity
  8
ZUWAKU
100
AcDbLine
 10
42.39221133955129
 20
24.42500037419784
 30
0.0
 11
42.39221133955129
 21
22.67500037419784
 31
0.0
  0
LINE
  5
7BA
330
1A
100
AcDbEntity
  8
ZUWAKU
100
AcDbLine
 10
47.64221133955129
 20
22.67500037419784
 30
0.0
 11
47.64221133955129
 21
28.27500037419785
 31
0.0
  0
ARC
  5
7BB
330
1A
100
AcDbEntity
  8
ZUWAKU
100
AcDbCircle
 10
47.1172113395512
 20
22.67500037419784
 30
0.0
 40
0.525
100
AcDbArc
 50
270.0
 51
0.0
  0
LINE
  5
7BC
330
1A
100
AcDbEntity
  8
ZUWAKU
100
AcDbLine
 10
45.3672113395512
 20
22.15000037419784
 30
0.0
 11
47.1172113395512
 21
22.15000037419784
 31
0.0
  0
ARC
  5
7BD
330
1A
100
AcDbEntity
  8
ZUWAKU
100
AcDbCircle
 10
48.16721133955127
 20
32.12500037419785
 30
0.0
 40
0.525
100
AcDbArc
 50
180.0
 51
270.0
  0
LINE
  5
7BE
330
1A
100
AcDbEntity
  8
ZUWAKU
100
AcDbLine
 10
48.16721133955127
 20
28.80000037419785
 30
0.0
 11
48.30744550303996
 21
28.80000037419785
 31
0.0
  0
LINE
  5
7BF
330
1A
100
AcDbEntity
  8
ZUWAKU
100
AcDbLine
 10
48.30744550303996
 20
31.60000037419784
 30
0.0
 11
48.16721133955127
 21
31.60000037419784
 31
0.0
  0
ARC
  5
7C0
330
1A
100
AcDbEntity
  8
ZUWAKU
100
AcDbCircle
 10
48.30744550303996
 20
32.12500037419785
 30
0.0
 40
0.525
100
AcDbArc
 50
270.0
 51
342.474431626277
  0
ARC
  5
7C1
330
1A
100
AcDbEntity
  8
ZUWAKU
100
AcDbCircle
 10
51.17697717606256
 20
22.67500037419784
 30
0.0
 40
0.525
100
AcDbArc
 50
197.525568373723
 51
270.0
  0
LINE
  5
7C2
330
1A
100
AcDbEntity
  8
ZUWAKU
100
AcDbLine
 10
53.37649745486704
 20
22.83309434236482
 30
0.0
 11
51.05010607639338
 21
30.20000037419786
 31
0.0
  0
ARC
  5
7C3
330
1A
100
AcDbEntity
  8
ZUWAKU
100
AcDbCircle
 10
52.87586655567157
 20
22.67500037419784
 30
0.0
 40
0.525
100
AcDbArc
 50
270.0
 51
17.52556837372303
  0
LINE
  5
7C4
330
1A
100
AcDbEntity
  8
ZUWAKU
100
AcDbLine
 10
51.17697717606256
 20
22.15000037419784
 30
0.0
 11
52.87586655567157
 21
22.15000037419784
 31
0.0
  0
ARC
  5
7C5
330
1A
100
AcDbEntity
  8
ZUWAKU
100
AcDbCircle
 10
56.21721133955123
 20
22.67500037419784
 30
0.0
 40
0.525
100
AcDbArc
 50
180.0
 51
270.0
  0
ARC
  5
7C6
330
1A
100
AcDbEntity
  8
ZUWAKU
100
AcDbCircle
 10
65.14221133955129
 20
24.95000037419784
 30
0.0
 40
2.799999999999999
100
AcDbArc
 50
270.0
 51
0.0
  0
ARC
  5
7C7
330
1A
100
AcDbEntity
  8
ZUWAKU
100
AcDbCircle
 10
72.84221133955123
 20
24.95000037419784
 30
0.0
 40
2.799999999999999
100
AcDbArc
 50
180.0
 51
270.0
  0
LINE
  5
7C8
330
1A
100
AcDbEntity
  8
ZUWAKU
100
AcDbLine
 10
66.71205982053482
 20
29.73505088053667
 30
0.0
 11
63.80226184589003
 21
32.64484885518135
 31
0.0
  0
LINE
  5
7C9
330
1A
100
AcDbEntity
  8
ZUWAKU
100
AcDbLine
 10
61.82236285856777
 20
30.66494986785902
 30
0.0
 11
64.73216083321244
 21
27.75515189321436
 31
0.0
  0
LINE
  5
7CA
330
1A
100
AcDbEntity
  8
ZUWAKU
100
AcDbLine
 10
61.6422113395513
 20
22.15000037419784
 30
0.0
 11
65.14221133955129
 21
22.15000037419784
 31
0.0
  0
LINE
  5
7CB
330
1A
100
AcDbEntity
  8
ZUWAKU
100
AcDbLine
 10
61.6422113395513
 20
24.95000037419784
 30
0.0
 11
64.6172113395512
 21
24.95000037419784
 31
0.0
  0
ARC
  5
7CC
330
1A
100
AcDbEntity
  8
ZUWAKU
100
AcDbCircle
 10
61.6422113395513
 20
24.42500037419784
 30
0.0
 40
0.525
100
AcDbArc
 50
90.0
 51
180.0
  0
ARC
  5
7CD
330
1A
100
AcDbEntity
  8
ZUWAKU
100
AcDbCircle
 10
57.96721133955123
 20
22.67500037419784
 30
0.0
 40
0.525
100
AcDbArc
 50
270.0
 51
0.0
  0
ARC
  5
7CE
330
1A
100
AcDbEntity
  8
ZUWAKU
100
AcDbCircle
 10
61.6422113395513
 20
22.67500037419784
 30
0.0
 40
0.525
100
AcDbArc
 50
180.0
 51
270.0
  0
LINE
  5
7CF
330
1A
100
AcDbEntity
  8
ZUWAKU
100
AcDbLine
 10
61.1172113395512
 20
22.67500037419784
 30
0.0
 11
61.1172113395512
 21
24.42500037419784
 31
0.0
  0
ARC
  5
7D0
330
1A
100
AcDbEntity
  8
ZUWAKU
100
AcDbCircle
 10
64.6172113395512
 20
25.47500037419785
 30
0.0
 40
0.525
100
AcDbArc
 50
270.0
 51
0.0
  0
ARC
  5
7D1
330
1A
100
AcDbEntity
  8
ZUWAKU
100
AcDbCircle
 10
63.74221133955121
 20
26.76520239955319
 30
0.0
 40
1.399999999999999
100
AcDbArc
 50
0.0
 51
45.0
  0
LINE
  5
7D2
330
1A
100
AcDbEntity
  8
ZUWAKU
100
AcDbLine
 10
65.14221133955129
 20
25.47500037419785
 30
0.0
 11
65.14221133955129
 21
26.76520239955319
 31
0.0
  0
ARC
  5
7D3
330
1A
100
AcDbEntity
  8
ZUWAKU
100
AcDbCircle
 10
73.89221133955129
 20
26.00000037419784
 30
0.0
 40
1.049999999999999
100
AcDbArc
 50
180.0
 51
270.0
  0
ARC
  5
7D4
330
1A
100
AcDbEntity
  8
ZUWAKU
100
AcDbCircle
 10
63.74221133955121
 20
26.76520239955315
 30
0.0
 40
4.199999999999999
100
AcDbArc
 50
0.0
 51
45.0
  0
LINE
  5
7D5
330
1A
100
AcDbEntity
  8
ZUWAKU
100
AcDbLine
 10
67.94221133955125
 20
24.95000037419784
 30
0.0
 11
67.94221133955125
 21
26.76520239955319
 31
0.0
  0
ARC
  5
7D6
330
1A
100
AcDbEntity
  8
ZUWAKU
100
AcDbCircle
 10
76.34221133955122
 20
24.95000037419784
 30
0.0
 40
2.799999999999999
100
AcDbArc
 50
270.0
 51
0.0
  0
LINE
  5
7D7
330
1A
100
AcDbEntity
  8
ZUWAKU
100
AcDbLine
 10
81.7672113395513
 20
22.15000037419784
 30
0.0
 11
83.51721133955129
 21
22.15000037419784
 31
0.0
  0
ARC
  5
7D8
330
1A
100
AcDbEntity
  8
ZUWAKU
100
AcDbCircle
 10
75.29221133955127
 20
26.00000037419784
 30
0.0
 40
1.049999999999999
100
AcDbArc
 50
270.0
 51
0.0
  0
ARC
  5
7D9
330
1A
100
AcDbEntity
  8
ZUWAKU
100
AcDbCircle
 10
81.7672113395513
 20
22.67500037419784
 30
0.0
 40
0.525
100
AcDbArc
 50
180.0
 51
270.0
  0
ARC
  5
7DA
330
1A
100
AcDbEntity
  8
ZUWAKU
100
AcDbCircle
 10
83.51721133955129
 20
22.67500037419784
 30
0.0
 40
0.525
100
AcDbArc
 50
270.0
 51
0.0
  0
LINE
  5
7DB
330
1A
100
AcDbEntity
  8
ZUWAKU
100
AcDbLine
 10
57.96721133955123
 20
38.25000037419785
 30
0.0
 11
56.21721133955123
 21
38.25000037419785
 31
0.0
  0
LINE
  5
7DC
330
1A
100
AcDbEntity
  8
ZUWAKU
100
AcDbLine
 10
42.39221133955129
 20
37.72500037419784
 30
0.0
 11
42.39221133955129
 21
35.97500037419784
 31
0.0
  0
ARC
  5
7DD
330
1A
100
AcDbEntity
  8
ZUWAKU
100
AcDbCircle
 10
41.8672113395512
 20
35.97500037419784
 30
0.0
 40
0.525
100
AcDbArc
 50
270.0
 51
0.0
  0
ARC
  5
7DE
330
1A
100
AcDbEntity
  8
ZUWAKU
100
AcDbCircle
 10
45.3672113395512
 20
37.72500037419784
 30
0.0
 40
0.525
100
AcDbArc
 50
90.0
 51
180.0
  0
ARC
  5
7DF
330
1A
100
AcDbEntity
  8
ZUWAKU
100
AcDbCircle
 10
41.8672113395512
 20
37.72500037419784
 30
0.0
 40
0.525
100
AcDbArc
 50
0.0
 51
90.0
  0
LINE
  5
7E0
330
1A
100
AcDbEntity
  8
ZUWAKU
100
AcDbLine
 10
47.1172113395512
 20
38.25000037419785
 30
0.0
 11
45.3672113395512
 21
38.25000037419785
 31
0.0
  0
ARC
  5
7E1
330
1A
100
AcDbEntity
  8
ZUWAKU
100
AcDbCircle
 10
47.1172113395512
 20
37.72500037419784
 30
0.0
 40
0.525
100
AcDbArc
 50
0.0
 51
90.0
  0
ARC
  5
7E2
330
1A
100
AcDbEntity
  8
ZUWAKU
100
AcDbCircle
 10
51.17697717606256
 20
37.72500037419784
 30
0.0
 40
0.525
100
AcDbArc
 50
90.0
 51
162.474431626277
  0
LINE
  5
7E3
330
1A
100
AcDbEntity
  8
ZUWAKU
100
AcDbLine
 10
53.37649745486704
 20
37.56690640603088
 30
0.0
 11
52.31485782172922
 21
34.20504756776127
 31
0.0
  0
ARC
  5
7E4
330
1A
100
AcDbEntity
  8
ZUWAKU
100
AcDbCircle
 10
52.87586655567157
 20
37.72500037419784
 30
0.0
 40
0.525
100
AcDbArc
 50
342.474431626277
 51
90.0
  0
LINE
  5
7E5
330
1A
100
AcDbEntity
  8
ZUWAKU
100
AcDbLine
 10
51.17697717606256
 20
38.25000037419785
 30
0.0
 11
52.87586655567157
 21
38.25000037419785
 31
0.0
  0
ARC
  5
7E6
330
1A
100
AcDbEntity
  8
ZUWAKU
100
AcDbCircle
 10
56.21721133955123
 20
37.72500037419784
 30
0.0
 40
0.525
100
AcDbArc
 50
90.0
 51
180.0
  0
LINE
  5
7E7
330
1A
100
AcDbEntity
  8
ZUWAKU
100
AcDbLine
 10
66.89221133955129
 20
35.45000037419784
 30
0.0
 11
63.91721133955127
 21
35.45000037419784
 31
0.0
  0
LINE
  5
7E8
330
1A
100
AcDbEntity
  8
ZUWAKU
100
AcDbLine
 10
63.39221133955129
 20
38.25000037419785
 30
0.0
 11
66.89221133955129
 21
38.25000037419785
 31
0.0
  0
ARC
  5
7E9
330
1A
100
AcDbEntity
  8
ZUWAKU
100
AcDbCircle
 10
63.39221133955129
 20
35.45000037419784
 30
0.0
 40
2.799999999999999
100
AcDbArc
 50
90.0
 51
180.0
  0
LINE
  5
7EA
330
1A
100
AcDbEntity
  8
ZUWAKU
100
AcDbLine
 10
60.59221133955123
 20
35.45000037419784
 30
0.0
 11
60.59221133955123
 21
33.6347983488425
 31
0.0
  0
ARC
  5
7EB
330
1A
100
AcDbEntity
  8
ZUWAKU
100
AcDbCircle
 10
57.96721133955123
 20
37.72500037419784
 30
0.0
 40
0.525
100
AcDbArc
 50
0.0
 51
90.0
  0
LINE
  5
7EC
330
1A
100
AcDbEntity
  8
ZUWAKU
100
AcDbLine
 10
63.39221133955129
 20
34.92500037419784
 30
0.0
 11
63.39221133955129
 21
33.6347983488425
 31
0.0
  0
ARC
  5
7ED
330
1A
100
AcDbEntity
  8
ZUWAKU
100
AcDbCircle
 10
63.91721133955127
 20
34.92500037419784
 30
0.0
 40
0.525
100
AcDbArc
 50
90.0
 51
180.0
  0
LINE
  5
7EE
330
1A
100
AcDbEntity
  8
ZUWAKU
100
AcDbLine
 10
67.41721133955127
 20
37.72500037419784
 30
0.0
 11
67.41721133955127
 21
35.97500037419784
 31
0.0
  0
ARC
  5
7EF
330
1A
100
AcDbEntity
  8
ZUWAKU
100
AcDbCircle
 10
66.89221133955129
 20
35.97500037419784
 30
0.0
 40
0.525
100
AcDbArc
 50
270.0
 51
0.0
  0
ARC
  5
7F0
330
1A
100
AcDbEntity
  8
ZUWAKU
100
AcDbCircle
 10
66.89221133955129
 20
37.72500037419784
 30
0.0
 40
0.525
100
AcDbArc
 50
0.0
 51
90.0
  0
LINE
  5
7F1
330
1A
100
AcDbEntity
  8
ZUWAKU
100
AcDbLine
 10
72.31721133955125
 20
38.25000037419785
 30
0.0
 11
70.56721133955125
 21
38.25000037419785
 31
0.0
  0
ARC
  5
7F2
330
1A
100
AcDbEntity
  8
ZUWAKU
100
AcDbCircle
 10
70.56721133955125
 20
37.72500037419784
 30
0.0
 40
0.525
100
AcDbArc
 50
90.0
 51
180.0
  0
ARC
  5
7F3
330
1A
100
AcDbEntity
  8
ZUWAKU
100
AcDbCircle
 10
72.31721133955125
 20
37.72500037419784
 30
0.0
 40
0.525
100
AcDbArc
 50
0.0
 51
90.0
  0
LINE
  5
7F4
330
1A
100
AcDbEntity
  8
ZUWAKU
100
AcDbLine
 10
83.51721133955129
 20
38.25000037419785
 30
0.0
 11
81.7672113395513
 21
38.25000037419785
 31
0.0
  0
ARC
  5
7F5
330
1A
100
AcDbEntity
  8
ZUWAKU
100
AcDbCircle
 10
76.86721133955121
 20
37.72500037419784
 30
0.0
 40
0.525
100
AcDbArc
 50
90.0
 51
180.0
  0
LINE
  5
7F6
330
1A
100
AcDbEntity
  8
ZUWAKU
100
AcDbLine
 10
78.6172113395512
 20
38.25000037419785
 30
0.0
 11
76.86721133955121
 21
38.25000037419785
 31
0.0
  0
ARC
  5
7F7
330
1A
100
AcDbEntity
  8
ZUWAKU
100
AcDbCircle
 10
78.6172113395512
 20
37.72500037419784
 30
0.0
 40
0.525
100
AcDbArc
 50
0.0
 51
90.0
  0
ARC
  5
7F8
330
1A
100
AcDbEntity
  8
ZUWAKU
100
AcDbCircle
 10
81.7672113395513
 20
37.72500037419784
 30
0.0
 40
0.525
100
AcDbArc
 50
90.0
 51
180.0
  0
ARC
  5
7F9
330
1A
100
AcDbEntity
  8
ZUWAKU
100
AcDbCircle
 10
83.51721133955129
 20
37.72500037419784
 30
0.0
 40
0.525
100
AcDbArc
 50
0.0
 51
90.0
  0
TEXT
  5
7FA
330
1A
100
AcDbEntity
  8
moji
100
AcDbText
 10
254.8272018656212
 20
33.00492143160523
 30
0.0
 40
5.599999999999999
  1
はいとい用落とし口 （高排水用）
 41
0.9
  7
MSPｺﾞｼｯｸ
100
AcDbText
  0
LINE
  5
7FB
330
1A
100
AcDbEntity
  8
ZUWAKU
100
AcDbLine
 10
223.4466004748378
 20
45.00000037419783
 30
0.0
 11
223.4466004748381
 21
15.80000037419791
 31
0.0
  0
LINE
  5
7FC
330
1A
100
AcDbEntity
  8
ZUWAKU
100
AcDbLine
 10
223.6466004748379
 20
45.00000037419783
 30
0.0
 11
223.6466004748381
 21
15.80000037419791
 31
0.0
  0
LINE
  5
7FD
330
1A
100
AcDbEntity
  8
ZUWAKU
100
AcDbLine
 10
223.246600474838
 20
45.00000037419783
 30
0.0
 11
223.246600474838
 21
15.80000037419791
 31
0.0
  0
TEXT
  5
7FE
330
1A
100
AcDbEntity
  8
ZUWAKU
100
AcDbText
 10
224.7240454970476
 20
24.65535691258346
 30
0.0
 40
4.0
  1
サイズ
 41
0.9
  7
MSPｺﾞｼｯｸ
100
AcDbText
  0
TEXT
  5
800
330
1A
100
AcDbEntity
  8
ZUWAKU
100
AcDbText
 10
224.7240454970474
 20
39.05535691258342
 30
0.0
 40
4.0
  1
品名
 41
0.9
  7
MSPｺﾞｼｯｸ
100
AcDbText
  0
TEXT
  5
801
330
1A
100
AcDbEntity
  8
ZUWAKU
100
AcDbText
 10
673.2039368720725
 20
33.00492143160523
 30
0.0
 40
5.599999999999999
  1
　　．　　．　　
 41
0.9
  7
MSPｺﾞｼｯｸ
100
AcDbText
  0
LINE
  5
802
330
1A
100
AcDbEntity
  8
ZUWAKU
100
AcDbLine
 10
663.8172016949742
 20
30.60000037419787
 30
0.0
 11
712.2490097333114
 21
30.60000037419787
 31
0.0
  0
LINE
  5
803
330
1A
100
AcDbEntity
  8
ZUWAKU
100
AcDbLine
 10
663.8172016949745
 20
30.40000037419788
 30
0.0
 11
712.2490097333114
 21
30.40000037419787
 31
0.0
  0
LINE
  5
804
330
1A
100
AcDbEntity
  8
ZUWAKU
100
AcDbLine
 10
663.8172016949742
 20
30.20000037419787
 30
0.0
 11
712.2490097333114
 21
30.20000037419788
 31
0.0
  0
LINE
  5
805
330
1A
100
AcDbEntity
  8
ZUWAKU
100
AcDbLine
 10
520.1991786829109
 20
30.60000037419787
 30
0.0
 11
567.5269549508825
 21
30.60000037419787
 31
0.0
  0
LINE
  5
806
330
1A
100
AcDbEntity
  8
ZUWAKU
100
AcDbLine
 10
520.1991786829109
 20
30.40000037419787
 30
0.0
 11
567.5269549508825
 21
30.40000037419787
 31
0.0
  0
LINE
  5
807
330
1A
100
AcDbEntity
  8
ZUWAKU
100
AcDbLine
 10
520.1991786829109
 20
30.20000037419788
 30
0.0
 11
567.5269549508825
 21
30.20000037419788
 31
0.0
  0
LINE
  5
808
330
1A
100
AcDbEntity
  8
ZUWAKU
100
AcDbLine
 10
519.7991786829111
 20
45.00000037419783
 30
0.0
 11
519.7991786829111
 21
15.80000037419791
 31
0.0
  0
LINE
  5
809
330
1A
100
AcDbEntity
  8
ZUWAKU
100
AcDbLine
 10
520.1991786829109
 20
45.00000037419783
 30
0.0
 11
520.1991786829112
 21
15.80000037419791
 31
0.0
  0
LINE
  5
80A
330
1A
100
AcDbEntity
  8
ZUWAKU
100
AcDbLine
 10
519.9991786829109
 20
45.00000037419783
 30
0.0
 11
519.9991786829111
 21
15.80000037419791
 31
0.0
  0
TEXT
  5
80B
330
1A
100
AcDbEntity
  8
moji
100
AcDbText
 10
543.040907157083
 20
33.00492143160523
 30
0.0
 40
5.599999999999999
  1
Ａ３
 41
0.9
  7
MSPｺﾞｼｯｸ
100
AcDbText
  0
LINE
  5
80C
330
1A
100
AcDbEntity
  8
ZUWAKU
100
AcDbLine
 10
462.4243631557614
 20
45.00000037419783
 30
0.0
 11
462.4243631557614
 21
15.80000037419791
 31
0.0
  0
LINE
  5
80D
330
1A
100
AcDbEntity
  8
ZUWAKU
100
AcDbLine
 10
462.8243631557613
 20
45.00000037419783
 30
0.0
 11
462.8243631557616
 21
15.80000037419791
 31
0.0
  0
LINE
  5
80E
330
1A
100
AcDbEntity
  8
ZUWAKU
100
AcDbLine
 10
462.6243631557612
 20
45.00000037419783
 30
0.0
 11
462.6243631557615
 21
15.80000037419791
 31
0.0
  0
TEXT
  5
80F
330
1A
100
AcDbEntity
  8
moji
100
AcDbText
 10
479.594625188009
 20
26.94261809585782
 30
0.0
 40
5.599999999999999
  1
ＰＦ９８□
 41
0.9
  7
MSPｺﾞｼｯｸ
100
AcDbText
  0
TEXT
  5
810
330
1A
100
AcDbEntity
  8
ZUWAKU
100
AcDbText
 10
477.6937608402772
 20
17.61407128533733
 30
0.0
 40
3.0
  1
□には色品番が入ります
 41
0.9
  7
MSPｺﾞｼｯｸ
100
AcDbText
  0
TEXT
  5
811
330
1A
100
AcDbEntity
  8
ZUWAKU
100
AcDbText
 10
521.6766237051208
 20
24.65535691258346
 30
0.0
 40
4.0
  1
縮尺
 41
0.9
  7
MSPｺﾞｼｯｸ
100
AcDbText
  0
TEXT
  5
812
330
1A
100
AcDbEntity
  8
moji
100
AcDbText
 10
543.040907157083
 20
18.20492143160526
 30
0.0
 40
5.599999999999999
  1
１/２
 41
0.9
  7
MSPｺﾞｼｯｸ
100
AcDbText
  0
TEXT
  5
813
330
1A
100
AcDbEntity
  8
ZUWAKU
100
AcDbText
 10
464.3018081779709
 20
39.05535691258342
 30
0.0
 40
4.0
  1
品番
 41
0.9
  7
MSPｺﾞｼｯｸ
100
AcDbText
  0
TEXT
  5
814
330
1A
100
AcDbEntity
  8
ZUWAKU
100
AcDbText
 10
521.6766237051206
 20
39.05535691258342
 30
0.0
 40
4.0
  1
用紙
 41
0.9
  7
MSPｺﾞｼｯｸ
100
AcDbText
  0
LINE
  5
815
330
1A
100
AcDbEntity
  8
ZUWAKU
100
AcDbLine
 10
567.5269549508825
 20
45.00000037419783
 30
0.0
 11
567.5269549508825
 21
15.80000037419791
 31
0.0
  0
LINE
  5
816
330
1A
100
AcDbEntity
  8
ZUWAKU
100
AcDbLine
 10
567.9269549508823
 20
45.00000037419783
 30
0.0
 11
567.9269549508826
 21
15.80000037419791
 31
0.0
  0
LINE
  5
817
330
1A
100
AcDbEntity
  8
ZUWAKU
100
AcDbLine
 10
567.7269549508824
 20
45.00000037419783
 30
0.0
 11
567.7269549508825
 21
15.80000037419791
 31
0.0
  0
LINE
  5
818
330
1A
100
AcDbEntity
  8
ZUWAKU
100
AcDbLine
 10
663.4172016949746
 20
45.00000037419783
 30
0.0
 11
663.4172016949746
 21
15.80000037419791
 31
0.0
  0
LINE
  5
819
330
1A
100
AcDbEntity
  8
ZUWAKU
100
AcDbLine
 10
663.8172016949745
 20
45.00000037419783
 30
0.0
 11
663.8172016949747
 21
15.80000037419791
 31
0.0
  0
LINE
  5
81A
330
1A
100
AcDbEntity
  8
ZUWAKU
100
AcDbLine
 10
663.6172016949744
 20
45.00000037419783
 30
0.0
 11
663.6172016949747
 21
15.80000037419791
 31
0.0
  0
TEXT
  5
81B
330
1A
100
AcDbEntity
  8
ZUWAKU
100
AcDbText
 10
665.2946467171841
 20
39.05535691258342
 30
0.0
 40
4.0
  1
DATE
 41
0.9
  7
MSPｺﾞｼｯｸ
100
AcDbText
  0
LINE
  5
81D
330
1A
100
AcDbEntity
  8
ZUWAKU
100
AcDbLine
 10
712.8490097333113
 20
45.00000037419783
 30
0.0
 11
712.8490097333115
 21
15.80000037419791
 31
0.0
  0
LINE
  5
81E
330
1A
100
AcDbEntity
  8
ZUWAKU
100
AcDbLine
 10
712.6490097333112
 20
45.00000037419783
 30
0.0
 11
712.6490097333114
 21
15.80000037419791
 31
0.0
  0
LINE
  5
81F
330
1A
100
AcDbEntity
  8
ZUWAKU
100
AcDbLine
 10
712.4490097333114
 20
45.00000037419783
 30
0.0
 11
712.4490097333114
 21
15.80000037419791
 31
0.0
  0
LINE
  5
820
330
1A
100
AcDbEntity
  8
ZUWAKU
100
AcDbLine
 10
712.2490097333114
 20
45.00000037419783
 30
0.0
 11
712.2490097333114
 21
15.80000037419791
 31
0.0
  0
TEXT
  5
256A
330
1A
100
AcDbEntity
  8
moji
100
AcDbText
 10
255.1446427531778
 20
18.74884737750585
 30
0.0
 40
5.599999999999999
  1
Ｓ－Ｒ６０－Ｌ１８０
 41
0.9
  7
MSPｺﾞｼｯｸ
100
AcDbText
  0
POINT
  5
317C
330
1A
100
AcDbEntity
  8
SEIHIN
 62
     3
 48
5.0
100
AcDbPoint
 10
1175.591099117038
 20
81.83747118836647
 30
0.0
  0
POINT
  5
3188
330
1A
100
AcDbEntity
  8
SEIHIN
 62
     3
 48
5.0
100
AcDbPoint
 10
1226.024299117038
 20
81.83737118836637
 30
0.0
  0
POINT
  5
3189
330
1A
100
AcDbEntity
  8
SEIHIN
 62
     3
 48
5.0
100
AcDbPoint
 10
1231.231899117038
 20
97.83757118836639
 30
0.0
  0
POINT
  5
318B
330
1A
100
AcDbEntity
  8
SEIHIN
 62
     3
 48
5.0
100
AcDbPoint
 10
1231.231899117038
 20
107.8375711883664
 30
0.0
  0
POINT
  5
318D
330
1A
100
AcDbEntity
  8
SEIHIN
 62
     3
 48
5.0
100
AcDbPoint
 10
1253.231899117038
 20
132.8461711883664
 30
0.0
  0
POINT
  5
3190
330
1A
100
AcDbEntity
  8
SEIHIN
 62
     3
 48
5.0
100
AcDbPoint
 10
1224.872299117038
 20
163.5040711883665
 30
0.0
  0
POINT
  5
3192
330
1A
100
AcDbEntity
  8
SEIHIN
 62
     3
 48
5.0
100
AcDbPoint
 10
1249.871999117038
 20
196.9582711883664
 30
0.0
  0
POINT
  5
31AB
330
1A
100
AcDbEntity
  8
SEIHIN
 62
     3
 48
5.0
100
AcDbPoint
 10
1200.807999117038
 20
262.8374711883664
 30
0.0
  0
POINT
  5
31B5
330
1A
100
AcDbEntity
  8
SEIHIN
 62
     3
 48
5.0
100
AcDbPoint
 10
1170.383799117038
 20
384.1692711883665
 30
0.0
  0
POINT
  5
31C2
330
1A
100
AcDbEntity
  8
SEIHIN
 62
     3
 48
5.0
100
AcDbPoint
 10
1231.232199117038
 20
384.1692711883665
 30
0.0
  0
POINT
  5
31DA
330
1A
100
AcDbEntity
  8
SEIHIN
 62
     3
 48
5.0
100
AcDbPoint
 10
1391.481799117038
 20
81.83687118836648
 30
0.0
  0
POINT
  5
31E2
330
1A
100
AcDbEntity
  8
SEIHIN
 62
     3
 48
5.0
100
AcDbPoint
 10
1462.875099117038
 20
81.83687118836648
 30
0.0
  0
POINT
  5
3C8A
330
1A
100
AcDbEntity
  8
SEIHIN
  6
Continuous
 62
     3
100
AcDbPoint
 10
982.4664069714188
 20
166.2994957310181
 30
0.0
  0
POINT
  5
3C8B
330
1A
100
AcDbEntity
  8
SEIHIN
  6
Continuous
 62
     3
100
AcDbPoint
 10
982.4664069714188
 20
176.2994957310182
 30
0.0
  0
POINT
  5
3C8C
330
1A
100
AcDbEntity
  8
SEIHIN
  6
Continuous
 62
     3
100
AcDbPoint
 10
982.4665069714187
 20
177.8994957310182
 30
0.0
  0
POINT
  5
3C90
330
1A
100
AcDbEntity
  8
SEIHIN
  6
Continuous
 62
     3
100
AcDbPoint
 10
982.4665069714187
 20
202.8994957310182
 30
0.0
  0
POINT
  5
3CA5
330
1A
100
AcDbEntity
  8
SEIHIN
  6
Continuous
 62
     3
100
AcDbPoint
 10
943.1787069714188
 20
258.1052957310181
 30
0.0
  0
POINT
  5
3CB1
330
1A
100
AcDbEntity
  8
SEIHIN
  6
Continuous
 62
     3
100
AcDbPoint
 10
903.8908069714189
 20
287.7079957310182
 30
0.0
  0
POINT
  5
3CCF
330
1A
100
AcDbEntity
  8
SEIHIN
  6
Continuous
 62
     3
100
AcDbPoint
 10
982.4666069714188
 20
287.7079957310182
 30
0.0
  0
POINT
  5
3CDB
330
1A
100
AcDbEntity
  8
SEIHIN
  6
Continuous
 62
     3
100
AcDbPoint
 10
943.1787069714188
 20
317.3105957310181
 30
0.0
  0
POINT
  5
3D03
330
1A
100
AcDbEntity
  8
SEIHIN
  6
Continuous
 62
     3
100
AcDbPoint
 10
1108.030106971419
 20
202.8995957310182
 30
0.0
  0
DIMENSION
  5
3ED4
330
1A
100
AcDbEntity
  8
SUNPOU
 48
10.0
100
AcDbDimension
  2
*D1
 10
392.1495914139491
 20
415.3317146766116
 30
0.0
 11
359.6495914139491
 21
420.3317146766116
 31
0.0
 70
    32
 71
     5
 42
65.0
  3
STANDARD
100
AcDbAlignedDimension
 13
327.1495914139491
 23
384.8456792039369
 33
0.0
 14
392.1495914139491
 24
384.8456792039369
 34
0.0
100
AcDbRotatedDimension
  0
LINE
  5
3ED5
330
1A
100
AcDbEntity
  8
CENTER L
 48
10.0
100
AcDbLine
 10
319.0912264348818
 20
482.7514498637099
 30
0.0
 11
407.6017153229863
 21
482.7514498637099
 31
0.0
  0
LINE
  5
3ED6
330
1A
100
AcDbEntity
  8
CENTER L
 48
10.0
100
AcDbLine
 10
319.0912264348818
 20
132.4511835451487
 30
0.0
 11
407.6017153229863
 21
132.4511835451487
 31
0.0
  0
LINE
  5
3ED7
330
1A
100
AcDbEntity
  8
SEIHIN
 48
10.0
100
AcDbLine
 10
333.1495914139491
 20
500.7514498637099
 30
0.0
 11
386.1495914139491
 21
500.7514498637099
 31
0.0
  0
LINE
  5
3ED8
330
1A
100
AcDbEntity
  8
SEIHIN
 48
10.0
100
AcDbLine
 10
333.1495914139491
 20
464.7514498637099
 30
0.0
 11
386.1495914139491
 21
464.7514498637099
 31
0.0
  0
LINE
  5
3ED9
330
1A
100
AcDbEntity
  8
SEIHIN
 48
10.0
100
AcDbLine
 10
333.1495914139491
 20
462.7514498637099
 30
0.0
 11
386.1495914139491
 21
462.7514498637099
 31
0.0
  0
LINE
  5
3EDA
330
1A
100
AcDbEntity
  8
SEIHIN
 48
10.0
100
AcDbLine
 10
333.1495914139491
 20
502.7514498637099
 30
0.0
 11
386.1495914139491
 21
502.7514498637099
 31
0.0
  0
LWPOLYLINE
  5
3EDB
330
1A
100
AcDbEntity
  8
SEIHIN
 48
10.0
100
AcDbPolyline
 90
       40
 70
     0
 43
0.0
 10
389.2366499134796
 20
499.2698935251957
 10
389.1250879376548
 20
499.2579763139521
 10
385.12060628474
 20
498.7463932756059
 10
381.1267003280955
 20
498.1444161228677
 10
377.024922829964
 20
497.4189506876365
 10
372.9429060678681
 20
496.5722969561801
 10
368.8956330160913
 20
495.58581912151
 10
364.8868351464817
 20
494.427919655389
 10
362.737690277658
 20
493.7135353210611
 10
360.6117755053269
 20
492.9255398586926
 10
358.5102809045507
 20
492.0469135426016
 10
356.4514217449114
 20
491.0596820507517
 10
354.3279167119893
 20
489.8549558567341
 10
353.3028019450173
 20
489.1750975327303
 10
352.3169230400813
 20
488.4325868555118
 10
351.149736031185
 20
487.3831585982205
 10
350.1145844494094
 20
486.1704490641712
 10
349.5751545859207
 20
485.3088762204258
 10
349.1626607292658
 20
484.3559985625474
 10
348.9611496381465
 20
483.5440625649209
 10
348.8966711971225
 20
482.686528910503
 10
348.9795545328227
 20
481.853537544733
 10
349.2056855971123
 20
481.0224670993044
 10
349.6794252480086
 20
480.005721188213
 10
350.3257764495584
 20
479.0509060328984
 10
350.9679180027215
 20
478.3074534143527
 10
351.6772205525795
 20
477.616456189033
 10
353.2568642461933
 20
476.3602392459244
 10
354.4846046292998
 20
475.5506103153781
 10
355.7613223806991
 20
474.8101426954571
 10
358.4299713401883
 20
473.4919012455046
 10
361.0830193993018
 20
472.3947897712291
 10
363.7947957348331
 20
471.4286545581982
 10
366.5587660371386
 20
470.5670603023454
 10
369.3532269509903
 20
469.7971913179786
 10
374.9456815684916
 20
468.4983425852415
 10
380.6018362182222
 20
467.4449573155923
 10
384.7159756045944
 20
466.8131616196036
 10
388.8461607564011
 20
466.2777598082617
 10
389.2382351993849
 20
466.2354623726716
  0
LINE
  5
3EDC
330
1A
100
AcDbEntity
  8
SEIHIN
 48
10.0
100
AcDbLine
 10
333.1495914139491
 20
384.8456792039369
 30
0.0
 11
386.1495914139491
 21
384.8456792039369
 31
0.0
  0
LINE
  5
3EDD
330
1A
100
AcDbEntity
  8
SEIHIN
 48
10.0
100
AcDbLine
 10
340.8985606968361
 20
239.9180974580058
 30
0.0
 11
391.8945582468723
 21
226.2537610972539
 31
0.0
  0
LINE
  5
3EDE
330
1A
100
AcDbEntity
  8
SEIHIN
 48
10.0
100
AcDbLine
 10
341.1785166688166
 20
219.8456792039369
 30
0.0
 11
397.1495914139491
 21
219.8456792039369
 31
0.0
  0
LINE
  5
3EDF
330
1A
100
AcDbEntity
  8
SEIHIN
 48
10.0
100
AcDbLine
 10
333.1495914139491
 20
152.4511835451487
 30
0.0
 11
397.1495914139491
 21
152.4511835451488
 31
0.0
  0
LWPOLYLINE
  5
3EE0
330
1A
100
AcDbEntity
  8
SEIHIN
 48
10.0
100
AcDbPolyline
 90
       42
 70
     0
 43
0.0
 10
397.1495914139491
 20
115.1653721222799
 10
393.1343216636274
 20
115.5163849629014
 10
389.1250879376548
 20
115.9446570949069
 10
385.12060628474
 20
116.4562401332531
 10
381.1267003280955
 20
117.0582172859913
 10
377.024922829964
 20
117.7836827212225
 10
372.9429060678681
 20
118.630336452679
 10
368.8956330160913
 20
119.6168142873489
 10
364.8868351464817
 20
120.7747137534701
 10
362.737690277658
 20
121.4890980877979
 10
360.6117755053269
 20
122.2770935501664
 10
358.5102809045507
 20
123.1557198662573
 10
356.4514217449114
 20
124.1429513581072
 10
354.3279167119893
 20
125.3476775521249
 10
353.3028019450173
 20
126.0275358761287
 10
352.3169230400813
 20
126.7700465533473
 10
351.149736031185
 20
127.8194748106384
 10
350.1145844494094
 20
129.0321843446877
 10
349.5751545859207
 20
129.8937571884331
 10
349.1626607292658
 20
130.8466348463116
 10
348.9611496381465
 20
131.658570843938
 10
348.8966711971225
 20
132.5161044983559
 10
348.9795545328227
 20
133.349095864126
 10
349.2056855971123
 20
134.1801663095546
 10
349.6794252480086
 20
135.196912220646
 10
350.3257764495584
 20
136.1517273759606
 10
350.9679180027215
 20
136.8951799945064
 10
351.6772205525795
 20
137.586177219826
 10
353.2568642461933
 20
138.8423941629346
 10
354.4846046292998
 20
139.6520230934809
 10
355.7613223806991
 20
140.3924907134019
 10
358.4299713401883
 20
141.7107321633543
 10
361.0830193993018
 20
142.8078436376299
 10
363.7947957348331
 20
143.7739788506609
 10
366.5587660371386
 20
144.6355731065136
 10
369.3532269509903
 20
145.4054420908803
 10
374.9456815684916
 20
146.7042908236176
 10
380.6018362182222
 20
147.7576760932668
 10
384.7159756045944
 20
148.3894717892553
 10
388.8461607564011
 20
148.9248736005972
 10
392.9929835551475
 20
149.37223754735
 10
397.1495914139491
 20
149.7369949680178
  0
LINE
  5
3EE1
330
1A
100
AcDbEntity
  8
SEIHIN
 48
10.0
100
AcDbLine
 10
333.1495914139491
 20
112.4511835451487
 30
0.0
 11
397.1495914139491
 21
112.4511835451488
 31
0.0
  0
LWPOLYLINE
  5
3EE2
330
1A
100
AcDbEntity
  8
SEIHIN
 48
10.0
100
AcDbPolyline
 90
       45
 70
     0
 43
0.0
 10
397.1495914139491
 20
113.0862668141117
 10
392.4986508436323
 20
113.4515838505149
 10
387.8539404633516
 20
113.9069531167272
 10
383.2138793224497
 20
114.4590700786752
 10
378.5851495254042
 20
115.1158786251727
 10
373.9837391184082
 20
115.886248669328
 10
369.4023899394395
 20
116.7867413743897
 10
364.8562004989203
 20
117.8362624635935
 10
360.3484070179534
 20
119.0662962673993
 10
357.4305675430646
 20
119.9889786507141
 10
354.5467450283563
 20
121.0260052459611
 10
351.6984268194424
 20
122.2093280401413
 10
348.920677018838
 20
123.5759537746027
 10
347.5916936917938
 20
124.3346444117595
 10
346.300627740645
 20
125.1634090922725
 10
345.0517847950369
 20
126.0844821220449
 10
343.8765824134325
 20
127.1130938373387
 10
343.0135064926235
 20
128.0322608175072
 10
342.251962312905
 20
129.0563706914056
 10
341.6558036810752
 20
130.17031759014
 10
341.2684038762809
 20
131.4184564680841
 10
341.1703807479703
 20
132.3222331983223
 10
341.2293330211574
 20
133.2563009887615
 10
341.4358563495758
 20
134.14141072815
 10
341.7802209848562
 20
135.0057948084548
 10
342.5217073445708
 20
136.2417897045237
 10
343.4695799591187
 20
137.3785883763637
 10
344.472794580279
 20
138.3357435294558
 10
345.5619666378767
 20
139.2113500474517
 10
346.7268648964737
 20
140.0243544412822
 10
347.9389491008074
 20
140.7741129992284
 10
349.3808533165088
 20
141.5711849198528
 10
350.8591660022294
 20
142.3060711941016
 10
353.9041584027764
 20
143.624912906439
 10
356.9955294095962
 20
144.7656501242693
 10
360.139675385944
 20
145.7737118562999
 10
363.3315643904825
 20
146.6734847405116
 10
366.5521068076835
 20
147.4777505477955
 10
369.76789231115
 20
148.1928732796705
 10
373.0008912040262
 20
148.8348573866338
 10
379.512026794067
 20
149.9270378672638
 10
383.9016891211475
 20
150.5316017709424
 10
388.3051266892899
 20
151.0437911552289
 10
392.7230574718424
 20
151.4704458228328
 10
397.1495914139491
 20
151.8161002761859
  0
LINE
  5
3EE3
330
1A
100
AcDbEntity
  8
CENTER L
 48
10.0
100
AcDbLine
 10
359.6495914139491
 20
396.816454323895
 30
0.0
 11
359.6495914139491
 21
209.8674800896219
 31
0.0
  0
LINE
  5
3EE4
330
1A
100
AcDbEntity
  8
CENTER L
 48
10.0
100
AcDbLine
 10
191.9904770502867
 20
396.816454323895
 30
0.0
 11
191.9904770502867
 21
209.8674800896219
 31
0.0
  0
LINE
  5
3EE5
330
1A
100
AcDbEntity
  8
SEIHIN
 48
10.0
100
AcDbLine
 10
327.1495914139491
 20
241.9944275195291
 30
0.0
 11
327.1495914139491
 21
384.8456792039369
 31
0.0
  0
LINE
  5
3EE6
330
1A
100
AcDbEntity
  8
SEIHIN
 48
10.0
100
AcDbLine
 10
171.9904770502869
 20
384.8456792039369
 30
0.0
 11
171.9904770502869
 21
241.9944275195291
 31
0.0
  0
LINE
  5
3EE7
330
1A
100
AcDbEntity
  8
SEIHIN
 48
10.0
100
AcDbLine
 10
211.9904770502869
 20
384.8456792039369
 30
0.0
 11
211.9904770502869
 21
241.9944275195291
 31
0.0
  0
ARC
  5
3EE8
330
1A
100
AcDbEntity
  8
SEIHIN
 48
10.0
100
AcDbCircle
 10
191.9904770502869
 20
242.3340587817637
 30
0.0
 40
20.00288352698899
100
AcDbArc
 50
202.3972503562466
 51
337.6027496437534
  0
LINE
  5
3EE9
330
1A
100
AcDbEntity
  8
SEIHIN
 48
10.0
100
AcDbLine
 10
172.6255603192496
 20
219.8456792039369
 30
0.0
 11
211.3553937813238
 21
219.8456792039369
 31
0.0
  0
LINE
  5
3EEA
330
1A
100
AcDbEntity
  8
SEIHIN
 48
10.0
100
AcDbLine
 10
171.9904770502869
 20
241.9944275195291
 30
0.0
 11
171.9904770502867
 21
224.8456792039369
 31
0.0
  0
ARC
  5
3EEB
330
1A
100
AcDbEntity
  8
SEIHIN
 48
10.0
100
AcDbCircle
 10
191.9904770502867
 20
224.8456792039369
 30
0.0
 40
20.0
100
AcDbArc
 50
180.0
 51
194.4775121859295
  0
LINE
  5
3EEC
330
1A
100
AcDbEntity
  8
SEIHIN
 48
10.0
100
AcDbLine
 10
327.1495914139491
 20
118.4511835451487
 30
0.0
 11
327.1495914139491
 21
146.4511835451487
 31
0.0
  0
ARC
  5
3EED
330
1A
100
AcDbEntity
  8
SEIHIN
 48
10.0
100
AcDbCircle
 10
333.1495914139491
 20
118.4511835451487
 30
0.0
 40
6.000000000000001
100
AcDbArc
 50
180.0
 51
270.0
  0
LINE
  5
3EEE
330
1A
100
AcDbEntity
  8
SEIHIN
 48
10.0
100
AcDbLine
 10
211.9904770502869
 20
241.9944275195291
 30
0.0
 11
211.9904770502867
 21
224.8456792039369
 31
0.0
  0
ARC
  5
3EEF
330
1A
100
AcDbEntity
  8
SEIHIN
 48
10.0
100
AcDbCircle
 10
191.9904770502867
 20
224.8456792039369
 30
0.0
 40
20.0
100
AcDbArc
 50
345.5224878140689
 51
0.0
  0
LINE
  5
3EF0
330
1A
100
AcDbEntity
  8
SEIHIN
 48
10.0
100
AcDbLine
 10
327.1495914139491
 20
228.2060846019896
 30
0.0
 11
327.1495914139491
 21
241.9944275195291
 31
0.0
  0
LINE
  5
3EF1
330
1A
100
AcDbEntity
  8
SEIHIN
 48
10.0
100
AcDbLine
 10
331.596677143334
 20
222.4105296442552
 30
0.0
 11
341.1778677381818
 21
219.843257361837
 31
0.0
  0
ARC
  5
3EF2
330
1A
100
AcDbEntity
  8
SEIHIN
 48
10.0
100
AcDbCircle
 10
333.1495914139491
 20
146.4511835451487
 30
0.0
 40
6.0
100
AcDbArc
 50
90.0
 51
180.0
  0
ARC
  5
3EF3
330
1A
100
AcDbEntity
  8
SEIHIN
 48
10.0
100
AcDbCircle
 10
333.1495914139491
 20
228.2060846085228
 30
0.0
 40
6.000000000000015
100
AcDbArc
 50
179.9999992193369
 51
254.995001480364
  0
LINE
  5
3EF4
330
1A
100
AcDbEntity
  8
SEIHIN
 48
10.0
100
AcDbLine
 10
177.9904770502869
 20
384.8456792039369
 30
0.0
 11
205.9904770502869
 21
384.8456792039369
 31
0.0
  0
LINE
  5
3EF5
330
1A
100
AcDbEntity
  8
SEIHIN
 48
10.0
100
AcDbLine
 10
177.9904770502869
 20
384.8456792039369
 30
0.0
 11
171.9904770502869
 21
384.8456792039369
 31
0.0
  0
LINE
  5
3EF6
330
1A
100
AcDbEntity
  8
SEIHIN
 48
10.0
100
AcDbLine
 10
205.9904770502869
 20
384.8456792039369
 30
0.0
 11
211.9904770502869
 21
384.8456792039369
 31
0.0
  0
LINE
  5
3EF7
330
1A
100
AcDbEntity
  8
SEIHIN
 48
10.0
100
AcDbLine
 10
327.1495914139491
 20
384.8456792039369
 30
0.0
 11
333.1495914139491
 21
384.8456792039369
 31
0.0
  0
LINE
  5
3EF8
330
1A
100
AcDbEntity
  8
SEIHIN
 48
10.0
100
AcDbLine
 10
329.1495914139491
 20
496.7514498637099
 30
0.0
 11
329.1495914139491
 21
468.7514498637098
 31
0.0
  0
LINE
  5
3EF9
330
1A
100
AcDbEntity
  8
SEIHIN
 48
10.0
100
AcDbLine
 10
327.1495914139491
 20
496.7514498637099
 30
0.0
 11
327.1495914139491
 21
468.7514498637098
 31
0.0
  0
ARC
  5
3EFA
330
1A
100
AcDbEntity
  8
SEIHIN
 48
10.0
100
AcDbCircle
 10
333.1495914139491
 20
468.7514498637098
 30
0.0
 40
6.000000000000028
100
AcDbArc
 50
180.0
 51
270.0
  0
ARC
  5
3EFB
330
1A
100
AcDbEntity
  8
SEIHIN
 48
10.0
100
AcDbCircle
 10
333.1495914139491
 20
468.7514498637098
 30
0.0
 40
4.000000000000028
100
AcDbArc
 50
180.0
 51
270.0
  0
ARC
  5
3EFC
330
1A
100
AcDbEntity
  8
SEIHIN
 48
10.0
100
AcDbCircle
 10
333.1495914139491
 20
496.7514498637099
 30
0.0
 40
4.0
100
AcDbArc
 50
90.0
 51
180.0
  0
ARC
  5
3EFD
330
1A
100
AcDbEntity
  8
SEIHIN
 48
10.0
100
AcDbCircle
 10
333.1495914139491
 20
496.7514498637099
 30
0.0
 40
6.0
100
AcDbArc
 50
90.0
 51
180.0
  0
DIMENSION
  5
3EFE
330
1A
100
AcDbEntity
  8
SUNPOU
 48
10.0
100
AcDbDimension
  2
*D2
 10
449.058961438013
 20
219.8456792039369
 30
0.0
 11
444.058961438013
 21
302.345679203937
 31
0.0
 70
    32
 71
     5
 42
165.0
  3
STANDARD
100
AcDbAlignedDimension
 13
392.1495914139491
 23
384.8456792039369
 33
0.0
 14
397.1495914139491
 24
219.8456792039369
 34
0.0
 50
90.0
100
AcDbRotatedDimension
  0
DIMENSION
  5
3EFF
330
1A
100
AcDbEntity
  8
SUNPOU
 48
10.0
100
AcDbDimension
  2
*D3
 10
433.4749200653889
 20
253.3456792039369
 30
0.0
 11
428.4749200653888
 21
319.095679203937
 31
0.0
 70
    32
 71
     5
 42
131.5
  3
STANDARD
100
AcDbAlignedDimension
 13
392.1495914139491
 23
384.8456792039369
 33
0.0
 14
397.1495914139491
 24
253.3456792039369
 34
0.0
 50
90.0
100
AcDbRotatedDimension
  0
DIMENSION
  5
3F00
330
1A
100
AcDbEntity
  8
SUNPOU
 48
10.0
100
AcDbDimension
  2
*D4
 10
397.1495914139491
 20
415.3317146766116
 30
0.0
 11
409.1495914139491
 21
420.3317146766116
 31
0.0
 70
    32
 71
     5
 42
5.0
  3
STANDARD
100
AcDbAlignedDimension
 13
392.1495914139491
 23
384.8456792039369
 33
0.0
 14
397.1495914139491
 24
251.8456792039369
 34
0.0
100
AcDbRotatedDimension
  0
LINE
  5
3F01
330
1A
100
AcDbEntity
  8
CENTER L
 48
10.0
100
AcDbLine
 10
603.6315065631056
 20
396.816454323895
 30
0.0
 11
603.6315065631056
 21
209.8674800896219
 31
0.0
  0
LINE
  5
3F02
330
1A
100
AcDbEntity
  8
SEIHIN
 48
10.0
100
AcDbLine
 10
623.631506563106
 20
249.8187592320582
 30
0.0
 11
623.631506563106
 21
384.8456792039369
 31
0.0
  0
LINE
  5
3F03
330
1A
100
AcDbEntity
  8
SEIHIN
 48
10.0
100
AcDbLine
 10
583.6315065631061
 20
249.8187592320582
 30
0.0
 11
583.6315065631061
 21
384.8456792039369
 31
0.0
  0
LINE
  5
3F04
330
1A
100
AcDbEntity
  8
SEIHIN
 48
10.0
100
AcDbLine
 10
392.1495914139491
 20
384.8456792039369
 30
0.0
 11
392.1495914139491
 21
253.8658103331128
 31
0.0
  0
LINE
  5
3F06
330
1A
100
AcDbEntity
  8
SEIHIN
 48
10.0
100
AcDbLine
 10
390.1495914139491
 20
118.4511835451487
 30
0.0
 11
390.1495914139491
 21
146.4511835451487
 31
0.0
  0
LINE
  5
3F07
330
1A
100
AcDbEntity
  8
SEIHIN
 48
10.0
100
AcDbLine
 10
397.1495914139491
 20
118.4511835451487
 30
0.0
 11
397.1495914139491
 21
146.4511835451487
 31
0.0
  0
ARC
  5
3F08
330
1A
100
AcDbEntity
  8
SEIHIN
 48
10.0
100
AcDbCircle
 10
386.1495914139489
 20
118.4511835451488
 30
0.0
 40
4.000000000000198
100
AcDbArc
 50
320.6445897122837
 51
0.0
  0
LINE
  5
3F09
330
1A
100
AcDbEntity
  8
SEIHIN
 48
10.0
100
AcDbLine
 10
397.1495914139491
 20
118.4511835451487
 30
0.0
 11
397.1495914139491
 21
114.4511835451487
 31
0.0
  0
LINE
  5
3F0A
330
1A
100
AcDbEntity
  8
SEIHIN
 48
10.0
100
AcDbLine
 10
397.1495914139491
 20
112.4511835451488
 30
0.0
 11
397.1495914139491
 21
113.0862668141117
 31
0.0
  0
LINE
  5
3F0B
330
1A
100
AcDbEntity
  8
SEIHIN
 48
10.0
100
AcDbLine
 10
397.1495914139491
 20
115.1653721222799
 30
0.0
 11
397.1495914139491
 21
113.0862668141117
 31
0.0
  0
LINE
  5
3F0C
330
1A
100
AcDbEntity
  8
SEIHIN
 48
10.0
100
AcDbLine
 10
397.1495914139491
 20
245.3744707478715
 30
0.0
 11
397.1495914139491
 21
224.8456792039369
 31
0.0
  0
LINE
  5
3F0D
330
1A
100
AcDbEntity
  8
SEIHIN
 48
10.0
100
AcDbLine
 10
397.1495914139491
 20
245.3744707478715
 30
0.0
 11
397.1495914139491
 21
224.8456792039369
 31
0.0
  0
LINE
  5
3F0E
330
1A
100
AcDbEntity
  8
SEIHIN
 48
10.0
100
AcDbLine
 10
397.1495914139491
 20
151.8161002761859
 30
0.0
 11
397.1495914139491
 21
152.4511835451488
 31
0.0
  0
ARC
  5
3F0F
330
1A
100
AcDbEntity
  8
SEIHIN
 48
10.0
100
AcDbCircle
 10
386.1495914139486
 20
146.4511835451485
 30
0.0
 40
4.000000000000616
100
AcDbArc
 50
0.0000000000032569
 51
39.31091311854532
  0
LINE
  5
3F10
330
1A
100
AcDbEntity
  8
SEIHIN
 48
10.0
100
AcDbLine
 10
397.1495914139491
 20
146.4511835451487
 30
0.0
 11
397.1495914139491
 21
149.7674636453325
 31
0.0
  0
LINE
  5
3F11
330
1A
100
AcDbEntity
  8
SEIHIN
 48
10.0
100
AcDbLine
 10
397.1495914139491
 20
151.8161002761859
 30
0.0
 11
397.1495914139491
 21
149.7369949680178
 31
0.0
  0
LINE
  5
3F12
330
1A
100
AcDbEntity
  8
SEIHIN
 48
10.0
100
AcDbLine
 10
397.1495914139491
 20
219.8456792039369
 30
0.0
 11
397.1495914139491
 21
224.8456792039369
 31
0.0
  0
LINE
  5
3F13
330
1A
100
AcDbEntity
  8
SEIHIN
 48
10.0
100
AcDbLine
 10
387.295586095082
 20
250.5917424047384
 30
0.0
 11
391.3860652661665
 21
253.3508054436016
 31
0.0
  0
LINE
  5
3F14
330
1A
100
AcDbEntity
  8
SEIHIN
 48
10.0
100
AcDbLine
 10
392.1495914139491
 20
253.8658103331128
 30
0.0
 11
397.1495914139491
 21
251.8456792039369
 31
0.0
  0
LINE
  5
3F15
330
1A
100
AcDbEntity
  8
SEIHIN
 48
10.0
100
AcDbLine
 10
397.1495914139491
 20
251.8456792039369
 30
0.0
 11
397.1495914139491
 21
245.3744707478715
 31
0.0
  0
LINE
  5
3F16
330
1A
100
AcDbEntity
  8
SEIHIN
 48
10.0
100
AcDbLine
 10
397.1495914139491
 20
249.6886097185818
 30
0.0
 11
397.1495914139491
 21
245.3744707478715
 31
0.0
  0
LINE
  5
3F17
330
1A
100
AcDbEntity
  8
SEIHIN
 48
10.0
100
AcDbLine
 10
623.631506563106
 20
245.3744707478715
 30
0.0
 11
623.631506563106
 21
224.8456792039369
 31
0.0
  0
LINE
  5
3F18
330
1A
100
AcDbEntity
  8
SEIHIN
 48
10.0
100
AcDbLine
 10
621.6315065631061
 20
245.3744707478715
 30
0.0
 11
621.6315065631061
 21
224.8456792039369
 31
0.0
  0
LINE
  5
3F19
330
1A
100
AcDbEntity
  8
SEIHIN
 48
10.0
100
AcDbLine
 10
583.6315065631061
 20
245.3744707478715
 30
0.0
 11
583.6315065631061
 21
224.8456792039369
 31
0.0
  0
LINE
  5
3F1A
330
1A
100
AcDbEntity
  8
SEIHIN
 48
10.0
100
AcDbLine
 10
585.631506563106
 20
245.3744707478715
 30
0.0
 11
585.631506563106
 21
224.8456792039369
 31
0.0
  0
ARC
  5
3F1B
330
1A
100
AcDbEntity
  8
SEIHIN
 48
10.0
100
AcDbCircle
 10
603.631506563106
 20
242.2779014097704
 30
0.0
 40
18.00223201290467
100
AcDbArc
 50
201.7130692095638
 51
338.2869307904361
  0
LINE
  5
3F1C
330
1A
100
AcDbEntity
  8
SEIHIN
 48
10.0
100
AcDbLine
 10
620.9173179859749
 20
219.8456792039369
 30
0.0
 11
586.3456951402372
 21
219.8456792039369
 31
0.0
  0
ARC
  5
3F1D
330
1A
100
AcDbEntity
  8
SEIHIN
 48
10.0
100
AcDbCircle
 10
603.631506563106
 20
224.8456792039369
 30
0.0
 40
20.0
100
AcDbArc
 50
180.0
 51
194.4775121859295
  0
ARC
  5
3F1E
330
1A
100
AcDbEntity
  8
SEIHIN
 48
10.0
100
AcDbCircle
 10
603.4936321195255
 20
224.8460578787017
 30
0.0
 40
17.86212556043346
100
AcDbArc
 50
180.0012146631582
 51
196.2568083440156
  0
LINE
  5
3F1F
330
1A
100
AcDbEntity
  8
SEIHIN
 48
10.0
100
AcDbLine
 10
584.2665898320688
 20
219.8456792039369
 30
0.0
 11
586.3456951402372
 21
219.8456792039369
 31
0.0
  0
ARC
  5
3F20
330
1A
100
AcDbEntity
  8
SEIHIN
 48
10.0
100
AcDbCircle
 10
603.7693038266313
 20
224.8460689029246
 30
0.0
 40
17.86220274072572
100
AcDbArc
 50
343.7432270126375
 51
359.9987499801895
  0
ARC
  5
3F21
330
1A
100
AcDbEntity
  8
SEIHIN
 48
10.0
100
AcDbCircle
 10
603.631506563106
 20
224.8456792039369
 30
0.0
 40
20.00000000000003
100
AcDbArc
 50
345.5224878140689
 51
0.0
  0
LINE
  5
3F22
330
1A
100
AcDbEntity
  8
SEIHIN
 48
10.0
100
AcDbLine
 10
620.9173179859749
 20
219.8456792039369
 30
0.0
 11
622.9964232941429
 21
219.8456792039369
 31
0.0
  0
LINE
  5
3F23
330
1A
100
AcDbEntity
  8
SEIHIN
 48
10.0
100
AcDbLine
 10
617.6315065631061
 20
251.8456792039369
 30
0.0
 11
589.6315065631061
 21
251.8456792039369
 31
0.0
  0
LINE
  5
3F24
330
1A
100
AcDbEntity
  8
SEIHIN
 48
10.0
100
AcDbLine
 10
617.6315065631061
 20
249.6886097185818
 30
0.0
 11
589.6315065631061
 21
249.6886097185818
 31
0.0
  0
LINE
  5
3F25
330
1A
100
AcDbEntity
  8
SEIHIN
 48
10.0
100
AcDbLine
 10
617.6315065631061
 20
253.8658103331128
 30
0.0
 11
589.6315065631061
 21
253.8658103331128
 31
0.0
  0
ARC
  5
3F26
330
1A
100
AcDbEntity
  8
SEIHIN
 48
10.0
100
AcDbCircle
 10
589.8763623498498
 20
245.6014970800377
 30
0.0
 40
6.248981097164953
100
AcDbArc
 50
92.24561338054796
 51
182.0820216272633
  0
LWPOLYLINE
  5
3F27
330
1A
100
AcDbEntity
  8
SEIHIN
 48
10.0
100
AcDbPolyline
 90
       15
 70
     0
 43
0.0
 10
583.6315065631061
 20
249.8187592320582
 10
583.6692333037468
 20
250.2718851883511
 10
583.7819390900149
 20
250.7193128228338
 10
583.9682065812557
 20
251.1554154733991
 10
584.2256933556914
 20
251.5747088961835
 10
584.5511613677363
 20
251.971920233116
 10
584.9405176682978
 20
252.3420543211669
 10
585.3888658759867
 20
252.6804565094224
 10
585.8905677519537
 20
252.9828711940196
 10
586.4393141040141
 20
253.2454953348346
 10
587.0282041284008
 20
253.4650262809186
 10
587.649832191375
 20
253.6387033032497
 10
588.296380959368
 20
253.7643423125024
 10
588.9597197064863
 20
253.840363325238
 10
589.6315065631061
 20
253.8658103331128
  0
ARC
  5
3F28
330
1A
100
AcDbEntity
  8
SEIHIN
 48
10.0
100
AcDbCircle
 10
589.8102203961416
 20
245.5114719435146
 30
0.0
 40
4.18095905576832
100
AcDbArc
 50
92.44983721015207
 51
181.8777977976586
  0
LINE
  5
3F29
330
1A
100
AcDbEntity
  8
SEIHIN
 48
10.0
100
AcDbLine
 10
583.6315065631061
 20
245.3744707478715
 30
0.0
 11
583.6315065631061
 21
249.8187592320582
 31
0.0
  0
LWPOLYLINE
  5
3F2A
330
1A
100
AcDbEntity
  8
SEIHIN
 48
10.0
100
AcDbPolyline
 90
       15
 70
     0
 43
0.0
 10
623.631506563106
 20
249.8187592320582
 10
623.5937798224654
 20
250.2718851883511
 10
623.4810740361967
 20
250.7193128228338
 10
623.2948065449563
 20
251.1554154733991
 10
623.0373197705205
 20
251.5747088961835
 10
622.7118517584758
 20
251.971920233116
 10
622.3224954579141
 20
252.3420543211669
 10
621.8741472502252
 20
252.6804565094224
 10
621.3724453742583
 20
252.9828711940196
 10
620.8236990221981
 20
253.2454953348346
 10
620.2348089978113
 20
253.4650262809186
 10
619.6131809348371
 20
253.6387033032497
 10
618.9666321668437
 20
253.7643423125024
 10
618.3032934197258
 20
253.840363325238
 10
617.6315065631061
 20
253.8658103331128
  0
ARC
  5
3F2B
330
1A
100
AcDbEntity
  8
SEIHIN
 48
10.0
100
AcDbCircle
 10
617.386650776362
 20
245.6014970800377
 30
0.0
 40
6.248981097165036
100
AcDbArc
 50
357.9179783727366
 51
87.75438661945205
  0
LINE
  5
3F2C
330
1A
100
AcDbEntity
  8
SEIHIN
 48
10.0
100
AcDbLine
 10
623.631506563106
 20
245.3744707478715
 30
0.0
 11
623.631506563106
 21
249.8187592320582
 31
0.0
  0
ARC
  5
3F2D
330
1A
100
AcDbEntity
  8
SEIHIN
 48
10.0
100
AcDbCircle
 10
617.4527927300701
 20
245.5114719435145
 30
0.0
 40
4.180959055768443
100
AcDbArc
 50
358.1222022023446
 51
87.55016278984793
  0
LINE
  5
3F2E
330
1A
100
AcDbEntity
  8
SEIHIN
 48
10.0
100
AcDbLine
 10
386.1495914139491
 20
384.8456792039369
 30
0.0
 11
392.1495914139491
 21
384.8456792039369
 31
0.0
  0
LINE
  5
3F2F
330
1A
100
AcDbEntity
  8
SEIHIN
 48
10.0
100
AcDbLine
 10
589.6315065631061
 20
384.8456792039369
 30
0.0
 11
617.6315065631061
 21
384.8456792039369
 31
0.0
  0
LINE
  5
3F30
330
1A
100
AcDbEntity
  8
SEIHIN
 48
10.0
100
AcDbLine
 10
583.6315065631061
 20
384.8456792039369
 30
0.0
 11
589.6315065631061
 21
384.8456792039369
 31
0.0
  0
LINE
  5
3F31
330
1A
100
AcDbEntity
  8
SEIHIN
 48
10.0
100
AcDbLine
 10
623.631506563106
 20
384.8456792039369
 30
0.0
 11
617.6315065631061
 21
384.8456792039369
 31
0.0
  0
DIMENSION
  5
3F32
330
1A
100
AcDbEntity
  8
SUNPOU
 48
10.0
100
AcDbDimension
  2
*D5
 10
419.4413793605979
 20
462.7514498637101
 30
0.0
 11
414.4413793605978
 21
482.7514498637103
 31
0.0
 70
    32
 71
     5
 42
40.0
  3
STANDARD
100
AcDbAlignedDimension
 13
397.1495914139491
 23
502.7514498637101
 33
0.0
 14
397.1495914139491
 24
462.7514498637101
 34
0.0
 50
90.0
100
AcDbRotatedDimension
  0
LINE
  5
3F33
330
1A
100
AcDbEntity
  8
SEIHIN
 48
10.0
100
AcDbLine
 10
390.1495914139491
 20
468.7514498637098
 30
0.0
 11
390.1495914139491
 21
496.7514498637099
 31
0.0
  0
LINE
  5
3F34
330
1A
100
AcDbEntity
  8
SEIHIN
 48
10.0
100
AcDbLine
 10
392.1495914139491
 20
468.7514498637098
 30
0.0
 11
392.1495914139491
 21
496.7514498637099
 31
0.0
  0
LINE
  5
3F35
330
1A
100
AcDbEntity
  8
SEIHIN
 48
10.0
100
AcDbLine
 10
397.1495914139491
 20
496.75144986371
 30
0.0
 11
397.1495914139491
 21
468.75144986371
 31
0.0
  0
LINE
  5
3F36
330
1A
100
AcDbEntity
  8
SEIHIN
 48
10.0
100
AcDbLine
 10
397.1495914139491
 20
468.75144986371
 30
0.0
 11
397.1495914139491
 21
462.7514498637101
 31
0.0
  0
ARC
  5
3F37
330
1A
100
AcDbEntity
  8
SEIHIN
 48
10.0
100
AcDbCircle
 10
386.1495914139491
 20
468.7514498637098
 30
0.0
 40
6.000000000000028
100
AcDbArc
 50
270.0
 51
0.0
  0
LINE
  5
3F38
330
1A
100
AcDbEntity
  8
SEIHIN
 48
10.0
100
AcDbLine
 10
397.1495914139491
 20
462.7514498637101
 30
0.0
 11
386.1495914139491
 21
462.75144986371
 31
0.0
  0
ARC
  5
3F39
330
1A
100
AcDbEntity
  8
SEIHIN
 48
10.0
100
AcDbCircle
 10
386.1495914139491
 20
468.7514498637098
 30
0.0
 40
4.000000000000028
100
AcDbArc
 50
270.0
 51
0.0
  0
LINE
  5
3F3A
330
1A
100
AcDbEntity
  8
SEIHIN
 48
10.0
100
AcDbLine
 10
397.1495914139491
 20
465.4656384408412
 30
0.0
 11
397.1495914139491
 21
464.7514498637101
 31
0.0
  0
ARC
  5
3F3B
330
1A
100
AcDbEntity
  8
SEIHIN
 48
10.0
100
AcDbCircle
 10
386.1495914139491
 20
496.7514498637099
 30
0.0
 40
4.0
100
AcDbArc
 50
0.0
 51
90.0
  0
LINE
  5
3F3C
330
1A
100
AcDbEntity
  8
SEIHIN
 48
10.0
100
AcDbLine
 10
397.1495914139491
 20
502.7514498637101
 30
0.0
 11
386.1495914139491
 21
502.75144986371
 31
0.0
  0
ARC
  5
3F3D
330
1A
100
AcDbEntity
  8
SEIHIN
 48
10.0
100
AcDbCircle
 10
386.1495914139491
 20
496.7514498637099
 30
0.0
 40
6.0
100
AcDbArc
 50
0.0
 51
90.0
  0
LINE
  5
3F3E
330
1A
100
AcDbEntity
  8
SEIHIN
 48
10.0
100
AcDbLine
 10
397.1495914139491
 20
496.75144986371
 30
0.0
 11
397.1495914139491
 21
502.7514498637101
 31
0.0
  0
DIMENSION
  5
4107
330
1A
100
AcDbEntity
  8
SUNPOU
 48
10.0
100
AcDbDimension
  2
*D7
 10
327.1495914139491
 20
430.3595638872065
 30
0.0
 11
362.1495914139491
 21
435.3595638872065
 31
0.0
 70
    32
 71
     5
 42
70.0
  3
STANDARD
100
AcDbAlignedDimension
 13
397.1495914139491
 23
251.8456792039369
 33
0.0
 14
327.1495914139491
 24
384.8456792039369
 34
0.0
100
AcDbRotatedDimension
  0
TEXT
  5
43C8
330
1A
100
AcDbEntity
  8
moji
100
AcDbText
 10
669.9233938195743
 20
18.20492143160526
 30
0.0
 40
5.599999999999999
  1
2011/06/22
 41
0.9
  7
MSPｺﾞｼｯｸ
100
AcDbText
  0
TEXT
  5
47E2
330
1A
100
AcDbEntity
  8
ZUWAKU
100
AcDbText
 10
723.5280833770142
 20
26.42161264036849
 30
0.0
 40
6.0
  1
積水化学工業株式会社
 41
0.9
  7
MSPｺﾞｼｯｸ
100
AcDbText
  0
VIEWPORT
  5
22
102
{ACAD_XDICTIONARY
360
481E
102
}
330
17
100
AcDbEntity
 67
     1
  8
0
100
AcDbViewport
 10
209.9931380215982
 20
152.9222154670428
 30
0.0
 40
640.1263271994056
 41
332.8934312629629
 68
     1
 69
     1
 12
209.9931380215982
 22
152.9222154670428
 13
0.0
 23
0.0
 14
1.0
 24
1.0
 15
10.0
 25
10.0
 16
0.0
 26
0.0
 36
1.0
 17
0.0
 27
0.0
 37
0.0
 42
50.0
 43
0.0
 44
0.0
 45
332.8934312629629
 50
0.0
 51
0.0
 72
   100
 90
    32768
  1

281
     0
 71
     1
 74
     0
110
0.0
120
0.0
130
0.0
111
1.0
121
0.0
131
0.0
112
0.0
122
1.0
132
0.0
 79
     0
146
0.0
  0
VIEWPORT
  5
64
102
{ACAD_XDICTIONARY
360
4820
102
}
330
17
100
AcDbEntity
 67
     1
  8
VIEWPORT
100
AcDbViewport
 10
210.988978363258
 20
148.3009554846903
 30
0.0
 40
432.194815070698
 41
306.5328437639199
 68
     2
 69
     2
 12
414.1038864897575
 22
292.7123661876628
 13
0.0
 23
0.0
 14
10.0
 24
10.0
 15
0.0
 25
0.0
 16
0.0
 26
0.0
 36
1.0
 17
0.0
 27
0.0
 37
0.0
 42
50.0
 43
0.0
 44
0.0
 45
591.3092118902539
 50
0.0
 51
0.0
 72
   100
 90
    32768
  1

281
     0
 71
     1
 74
     0
110
0.0
120
0.0
130
0.0
111
1.0
121
0.0
131
0.0
112
0.0
122
1.0
132
0.0
 79
     0
146
0.0
  0
ENDSEC
  0
SECTION
  2
OBJECTS
  0
DICTIONARY
  5
C
330
0
100
AcDbDictionary
281
     1
  3
ACAD_COLOR
350
47E6
  3
ACAD_GROUP
350
D
  3
ACAD_LAYOUT
350
674
  3
ACAD_MATERIAL
350
47E5
  3
ACAD_MLINESTYLE
350
E
  3
ACAD_PLOTSETTINGS
350
675
  3
ACAD_PLOTSTYLENAME
350
672
  3
ACDBHEADERROUNDTRIPXREC
350
481B
  3
AcDbVariableDictionary
350
47F8
  0
DICTIONARY
  5
6A3
330
1A
100
AcDbDictionary
280
     1
281
     1
  3
ACAD_LAYOUTSELFREF
360
46CA
  0
DICTIONARY
  5
6A1
330
17
100
AcDbDictionary
280
     1
281
     1
  3
ACAD_LAYOUTSELFREF
360
46C9
  0
DICTIONARY
  5
481E
330
22
100
AcDbDictionary
280
     1
281
     1
  3
ACAD_XREC_ROUNDTRIP
360
481F
  0
DICTIONARY
  5
4820
330
64
100
AcDbDictionary
280
     1
281
     1
  3
ACAD_XREC_ROUNDTRIP
360
4821
  0
DICTIONARY
  5
47E6
102
{ACAD_REACTORS
330
C
102
}
330
C
100
AcDbDictionary
281
     1
  0
DICTIONARY
  5
D
102
{ACAD_REACTORS
330
C
102
}
330
C
100
AcDbDictionary
281
     1
  0
DICTIONARY
  5
674
102
{ACAD_REACTORS
330
C
102
}
330
C
100
AcDbDictionary
281
     1
  3
Model
350
676
  3
ﾚｲｱｳﾄ1
350
677
  0
DICTIONARY
  5
47E5
102
{ACAD_REACTORS
330
C
102
}
330
C
100
AcDbDictionary
281
     1
  0
DICTIONARY
  5
E
102
{ACAD_REACTORS
330
C
102
}
330
C
100
AcDbDictionary
281
     1
  3
STANDARD
350
13
  0
DICTIONARY
  5
675
102
{ACAD_REACTORS
330
C
102
}
330
C
100
AcDbDictionary
281
     1
  0
ACDBDICTIONARYWDFLT
  5
672
102
{ACAD_REACTORS
330
C
102
}
330
C
100
AcDbDictionary
281
     1
  3
Normal
350
673
100
AcDbDictionaryWithDefault
340
673
1001
ACAD
1000
TREAT_AS_HARD
1070
     0
1000
TREAT_AS_HARD
1070
     0
1000
TREAT_AS_HARD
1070
     0
1000
TREAT_AS_HARD
1070
     0
1000
TREAT_AS_HARD
1070
     0
1000
TREAT_AS_HARD
1070
     0
1000
TREAT_AS_HARD
1070
     0
1000
TREAT_AS_HARD
1070
     0
1000
TREAT_AS_HARD
1070
     0
1000
TREAT_AS_HARD
1070
     0
1000
TREAT_AS_HARD
1070
     0
  0
DICTIONARY
  5
481B
102
{ACAD_REACTORS
330
C
102
}
330
C
100
AcDbDictionary
281
     1
  3
COLORDICT
350
481D
  3
MATERIALDICT
350
481C
  0
DICTIONARY
  5
47F8
102
{ACAD_REACTORS
330
C
102
}
330
C
100
AcDbDictionary
281
     1
  3
DIMASSOC
350
47F9
  3
PROJECTNAME
350
47FA
  0
XRECORD
  5
46CA
102
{ACAD_REACTORS
330
6A3
102
}
330
6A3
100
AcDbXrecord
280
     1
340
1A
  0
XRECORD
  5
46C9
102
{ACAD_REACTORS
330
6A1
102
}
330
6A1
100
AcDbXrecord
280
     1
340
17
  0
XRECORD
  5
481F
102
{ACAD_REACTORS
330
481E
102
}
330
481E
100
AcDbXrecord
280
     1
102
SHADEPLOT
 70
     0
  0
XRECORD
  5
4821
102
{ACAD_REACTORS
330
4820
102
}
330
4820
100
AcDbXrecord
280
     1
102
SHADEPLOT
 70
     0
  0
LAYOUT
  5
676
102
{ACAD_XDICTIONARY
360
4822
102
}
102
{ACAD_REACTORS
330
674
102
}
330
674
100
AcDbPlotSettings
  1

  2
Acrobat Distiller
  4
A3
  6

 40
3.174999952316284
 41
3.174999952316284
 42
3.17498779296875
 43
3.17498779296875
 44
297.0318298339844
 45
420.1583251953125
 46
0.0
 47
0.0
 48
-33.76845281574833
 49
-14.97380759834459
140
814.9805907970753
141
567.90316502265
142
1.0
143
2.0
 70
 11952
 72
     1
 73
     1
 74
     2
  7
print.ctb
 75
    17
147
0.5
148
0.0
149
0.0
100
AcDbLayout
  1
Model
 70
     1
 71
     0
 10
0.0
 20
0.0
 11
12.0
 21
9.0
 12
0.0
 22
0.0
 32
0.0
 14
0.0
 24
0.0
 34
0.0
 15
0.0
 25
0.0
 35
0.0
146
0.0
 13
0.0
 23
0.0
 33
0.0
 16
1.0
 26
0.0
 36
0.0
 17
0.0
 27
1.0
 37
0.0
 76
     0
330
1A
  0
LAYOUT
  5
677
102
{ACAD_XDICTIONARY
360
4824
102
}
102
{ACAD_REACTORS
330
674
102
}
330
674
100
AcDbPlotSettings
  1

  2
CubePDF
  4
A4
  6

 40
3.174999952316284
 41
3.174999952316284
 42
3.175003051757812
 43
3.17498779296875
 44
209.8886566162109
 45
297.0530090332031
 46
0.0
 47
1.439999999999999
 48
0.0
 49
0.0
140
0.0
141
0.0
142
1.0
143
1.459271357898558
 70
   692
 72
     1
 73
     1
 74
     1
  7
monochrome.ctb
 75
     0
147
0.68527350625182
148
0.0128164049386896
149
0.0090630292066862
100
AcDbLayout
  1
ﾚｲｱｳﾄ1
 70
     1
 71
     1
 10
-6.747335908269471
 20
-4.642249520951129
 11
426.7336119514657
 21
301.6422554268914
 12
0.0
 22
0.0
 32
0.0
 14
-5.108429172091064
 24
-4.965466397269665
 34
0.0
 15
427.086385898607
 25
301.5673773666502
 35
0.0
146
0.0
 13
0.0
 23
0.0
 33
0.0
 16
1.0
 26
0.0
 36
0.0
 17
0.0
 27
1.0
 37
0.0
 76
     0
330
17
331
22
  0
MLINESTYLE
  5
13
102
{ACAD_REACTORS
330
E
102
}
330
E
100
AcDbMlineStyle
  2
STANDARD
 70
     0
  3

 62
     0
 51
90.0
 52
90.0
 71
     2
 49
0.5
 62
   256
  6
BYLAYER
 49
-0.5
 62
   256
  6
BYLAYER
  0
ACDBPLACEHOLDER
  5
673
102
{ACAD_REACTORS
330
672
102
}
330
672
  0
XRECORD
  5
481D
102
{ACAD_REACTORS
330
481B
102
}
330
481B
100
AcDbXrecord
280
     1
340
47E6
  0
XRECORD
  5
481C
102
{ACAD_REACTORS
330
481B
102
}
330
481B
100
AcDbXrecord
280
     1
340
47E5
  0
DICTIONARYVAR
  5
47F9
102
{ACAD_REACTORS
330
47F8
102
}
330
47F8
100
DictionaryVariables
280
     0
  1
1
  0
DICTIONARYVAR
  5
47FA
102
{ACAD_REACTORS
330
47F8
102
}
330
47F8
100
DictionaryVariables
280
     0
  1

  0
DICTIONARY
  5
4822
330
676
100
AcDbDictionary
280
     1
281
     1
  3
ACAD_XREC_ROUNDTRIP
360
4823
  0
DICTIONARY
  5
4824
330
677
100
AcDbDictionary
280
     1
281
     1
  3
ACAD_XREC_ROUNDTRIP
360
4825
  0
XRECORD
  5
4823
102
{ACAD_REACTORS
330
4822
102
}
330
4822
100
AcDbXrecord
280
     1
102
SHADEPLOT
 70
     0
102
SHADEPLOTRESLEVEL
 70
     2
102
SHADEPLOTCUSTOMDPI
 70
   300
  0
XRECORD
  5
4825
102
{ACAD_REACTORS
330
4824
102
}
330
4824
100
AcDbXrecord
280
     1
102
SHADEPLOT
 70
     1
102
SHADEPLOTRESLEVEL
 70
     2
102
SHADEPLOTCUSTOMDPI
 70
   300
  0
ENDSEC
  0
EOF
