  0
SECTION
  2
HEADER
  9
$ACADVER
  1
AC1015
  9
$ACADMAINTVER
 70
    20
  9
$DWGCODEPAGE
  3
ANSI_932
  9
$INSBASE
 10
0.0
 20
0.0
 30
0.0
  9
$EXTMIN
 10
6.999999743487022
 20
7.000000339449683
 30
0.0
  9
$EXTMAX
 10
405.7999997434871
 20
282.8000003394497
 30
0.0
  9
$LIMMIN
 10
0.0
 20
0.0
  9
$LIMMAX
 10
420.0
 20
297.0
  9
$ORTHOMODE
 70
     1
  9
$REGENMODE
 70
     1
  9
$FILLMODE
 70
     1
  9
$QTEXTMODE
 70
     0
  9
$MIRRTEXT
 70
     1
  9
$LTSCALE
 40
1.0
  9
$ATTMODE
 70
     1
  9
$TEXTSIZE
 40
2.5
  9
$TRACEWID
 40
1.0
  9
$TEXTSTYLE
  7
MSPｺ_ｼｯｸ
  9
$CLAYER
  8
0
  9
$CELTYPE
  6
BYLAYER
  9
$CECOLOR
 62
   256
  9
$CELTSCALE
 40
1.0
  9
$DISPSILH
 70
     0
  9
$DIMSCALE
 40
1.0
  9
$DIMASZ
 40
3.0
  9
$DIMEXO
 40
1.5
  9
$DIMDLI
 40
0.38
  9
$DIMRND
 40
0.0
  9
$DIMDLE
 40
0.0
  9
$DIMEXE
 40
1.5
  9
$DIMTP
 40
0.0
  9
$DIMTM
 40
0.0
  9
$DIMTXT
 40
3.5
  9
$DIMCEN
 40
0.0
  9
$DIMTSZ
 40
0.0
  9
$DIMTOL
 70
     0
  9
$DIMLIM
 70
     0
  9
$DIMTIH
 70
     0
  9
$DIMTOH
 70
     0
  9
$DIMSE1
 70
     0
  9
$DIMSE2
 70
     0
  9
$DIMTAD
 70
     3
  9
$DIMZIN
 70
     0
  9
$DIMBLK
  1
OPEN
  9
$DIMASO
 70
     1
  9
$DIMSHO
 70
     1
  9
$DIMPOST
  1

  9
$DIMAPOST
  1

  9
$DIMALT
 70
     0
  9
$DIMALTD
 70
     2
  9
$DIMALTF
 40
25.4
  9
$DIMLFAC
 40
1.0
  9
$DIMTOFL
 70
     0
  9
$DIMTVP
 40
0.0
  9
$DIMTIX
 70
     0
  9
$DIMSOXD
 70
     0
  9
$DIMSAH
 70
     0
  9
$DIMBLK1
  1

  9
$DIMBLK2
  1

  9
$DIMSTYLE
  2
STANDARD
  9
$DIMCLRD
 70
   256
  9
$DIMCLRE
 70
   256
  9
$DIMCLRT
 70
   256
  9
$DIMTFAC
 40
1.0
  9
$DIMGAP
 40
1.5
  9
$DIMJUST
 70
     0
  9
$DIMSD1
 70
     0
  9
$DIMSD2
 70
     0
  9
$DIMTOLJ
 70
     1
  9
$DIMTZIN
 70
     0
  9
$DIMALTZ
 70
     0
  9
$DIMALTTZ
 70
     0
  9
$DIMUPT
 70
     0
  9
$DIMDEC
 70
     0
  9
$DIMTDEC
 70
     0
  9
$DIMALTU
 70
     2
  9
$DIMALTTD
 70
     2
  9
$DIMTXSTY
  7
STANDARD
  9
$DIMAUNIT
 70
     0
  9
$DIMADEC
 70
     0
  9
$DIMALTRND
 40
0.0
  9
$DIMAZIN
 70
     0
  9
$DIMDSEP
 70
    46
  9
$DIMATFIT
 70
     3
  9
$DIMFRAC
 70
     0
  9
$DIMLDRBLK
  1
OPEN
  9
$DIMLUNIT
 70
     2
  9
$DIMLWD
 70
    -2
  9
$DIMLWE
 70
    -2
  9
$DIMTMOVE
 70
     0
  9
$LUNITS
 70
     2
  9
$LUPREC
 70
     4
  9
$SKETCHINC
 40
1.0
  9
$FILLETRAD
 40
0.4360000000000002
  9
$AUNITS
 70
     0
  9
$AUPREC
 70
     0
  9
$MENU
  1
.
  9
$ELEVATION
 40
0.0
  9
$PELEVATION
 40
0.0
  9
$THICKNESS
 40
0.0
  9
$LIMCHECK
 70
     0
  9
$CHAMFERA
 40
10.0
  9
$CHAMFERB
 40
10.0
  9
$CHAMFERC
 40
20.0
  9
$CHAMFERD
 40
0.0
  9
$SKPOLY
 70
     0
  9
$TDCREATE
 40
2451204.541313195
  9
$TDUCREATE
 40
2451204.166313195
  9
$TDUPDATE
 40
2459167.571494803
  9
$TDUUPDATE
 40
2459167.196494803
  9
$TDINDWG
 40
0.2651181134
  9
$TDUSRTIMER
 40
0.2651181134
  9
$USRTIMER
 70
     1
  9
$ANGBASE
 50
0.0
  9
$ANGDIR
 70
     0
  9
$PDMODE
 70
     0
  9
$PDSIZE
 40
0.0
  9
$PLINEWID
 40
0.0
  9
$SPLFRAME
 70
     0
  9
$SPLINETYPE
 70
     6
  9
$SPLINESEGS
 70
     8
  9
$HANDSEED
  5
4B8F
  9
$SURFTAB1
 70
     6
  9
$SURFTAB2
 70
     6
  9
$SURFTYPE
 70
     6
  9
$SURFU
 70
     6
  9
$SURFV
 70
     6
  9
$UCSBASE
  2

  9
$UCSNAME
  2

  9
$UCSORG
 10
0.0
 20
0.0
 30
0.0
  9
$UCSXDIR
 10
1.0
 20
0.0
 30
0.0
  9
$UCSYDIR
 10
0.0
 20
1.0
 30
0.0
  9
$UCSORTHOREF
  2

  9
$UCSORTHOVIEW
 70
     0
  9
$UCSORGTOP
 10
0.0
 20
0.0
 30
0.0
  9
$UCSORGBOTTOM
 10
0.0
 20
0.0
 30
0.0
  9
$UCSORGLEFT
 10
0.0
 20
0.0
 30
0.0
  9
$UCSORGRIGHT
 10
0.0
 20
0.0
 30
0.0
  9
$UCSORGFRONT
 10
0.0
 20
0.0
 30
0.0
  9
$UCSORGBACK
 10
0.0
 20
0.0
 30
0.0
  9
$PUCSBASE
  2

  9
$PUCSNAME
  2

  9
$PUCSORG
 10
0.0
 20
0.0
 30
0.0
  9
$PUCSXDIR
 10
1.0
 20
0.0
 30
0.0
  9
$PUCSYDIR
 10
0.0
 20
1.0
 30
0.0
  9
$PUCSORTHOREF
  2

  9
$PUCSORTHOVIEW
 70
     0
  9
$PUCSORGTOP
 10
0.0
 20
0.0
 30
0.0
  9
$PUCSORGBOTTOM
 10
0.0
 20
0.0
 30
0.0
  9
$PUCSORGLEFT
 10
0.0
 20
0.0
 30
0.0
  9
$PUCSORGRIGHT
 10
0.0
 20
0.0
 30
0.0
  9
$PUCSORGFRONT
 10
0.0
 20
0.0
 30
0.0
  9
$PUCSORGBACK
 10
0.0
 20
0.0
 30
0.0
  9
$USERI1
 70
     0
  9
$USERI2
 70
     0
  9
$USERI3
 70
     0
  9
$USERI4
 70
     0
  9
$USERI5
 70
     0
  9
$USERR1
 40
0.0
  9
$USERR2
 40
0.0
  9
$USERR3
 40
0.0
  9
$USERR4
 40
0.0
  9
$USERR5
 40
0.0
  9
$WORLDVIEW
 70
     1
  9
$SHADEDGE
 70
     3
  9
$SHADEDIF
 70
    70
  9
$TILEMODE
 70
     0
  9
$MAXACTVP
 70
    16
  9
$PINSBASE
 10
0.0
 20
0.0
 30
0.0
  9
$PLIMCHECK
 70
     0
  9
$PEXTMIN
 10
0.0
 20
0.0
 30
0.0
  9
$PEXTMAX
 10
420.0
 20
297.0
 30
0.0
  9
$PLIMMIN
 10
-3.187804197907439
 20
-3.18406298152297
  9
$PLIMMAX
 10
416.9705209974051
 20
293.8477668524614
  9
$UNITMODE
 70
     0
  9
$VISRETAIN
 70
     0
  9
$PLINEGEN
 70
     0
  9
$PSLTSCALE
 70
     1
  9
$TREEDEPTH
 70
  3020
  9
$CMLSTYLE
  2
STANDARD
  9
$CMLJUST
 70
     0
  9
$CMLSCALE
 40
1.0
  9
$PROXYGRAPHICS
 70
     1
  9
$MEASUREMENT
 70
     0
  9
$CELWEIGHT
370
    -1
  9
$ENDCAPS
280
     0
  9
$JOINSTYLE
280
     0
  9
$LWDISPLAY
290
     0
  9
$INSUNITS
 70
     0
  9
$HYPERLINKBASE
  1

  9
$STYLESHEET
  1

  9
$XEDIT
290
     1
  9
$CEPSNTYPE
380
     0
  9
$PSTYLEMODE
290
     1
  9
$FINGERPRINTGUID
  2
{1C1DDB33-AFF3-457F-8608-BE7C4F49BD1A}
  9
$VERSIONGUID
  2
{452DA489-2621-41F6-B85F-38416E49DF43}
  9
$EXTNAMES
290
     1
  9
$PSVPSCALE
 40
0.0
  9
$OLESTARTUP
290
     0
  0
ENDSEC
  0
SECTION
  2
CLASSES
  0
CLASS
  1
ACDBDICTIONARYWDFLT
  2
AcDbDictionaryWithDefault
  3
ObjectDBX Classes
 90
        0
280
     0
281
     0
  0
CLASS
  1
ACDBPLACEHOLDER
  2
AcDbPlaceHolder
  3
ObjectDBX Classes
 90
        0
280
     0
281
     0
  0
CLASS
  1
LAYOUT
  2
AcDbLayout
  3
ObjectDBX Classes
 90
        0
280
     0
281
     0
  0
CLASS
  1
DICTIONARYVAR
  2
AcDbDictionaryVar
  3
ObjectDBX Classes
 90
        0
280
     0
281
     0
  0
ENDSEC
  0
SECTION
  2
TABLES
  0
TABLE
  2
VPORT
  5
8
330
0
100
AcDbSymbolTable
 70
     1
  0
VPORT
  5
4B7A
330
8
100
AcDbSymbolTableRecord
100
AcDbViewportTableRecord
  2
*Active
 70
     0
 10
0.0
 20
0.0
 11
1.0
 21
1.0
 12
263.5018133008267
 22
177.1222263812932
 13
0.0
 23
0.0
 14
5.0
 24
5.0
 15
0.0
 25
0.0
 16
0.0
 26
0.0
 36
1.0
 17
0.0
 27
0.0
 37
0.0
 40
422.5363461096097
 41
1.922916666666666
 42
50.0
 43
0.0
 44
0.0
 50
0.0
 51
0.0
 71
     0
 72
   100
 73
     1
 74
     0
 75
     0
 76
     0
 77
     0
 78
     0
281
     0
 65
     1
110
0.0
120
0.0
130
0.0
111
1.0
121
0.0
131
0.0
112
0.0
122
1.0
132
0.0
 79
     0
146
0.0
  0
ENDTAB
  0
TABLE
  2
LTYPE
  5
5
330
0
100
AcDbSymbolTable
 70
     2
  0
LTYPE
  5
14
330
5
100
AcDbSymbolTableRecord
100
AcDbLinetypeTableRecord
  2
BYBLOCK
 70
     0
  3

 72
    65
 73
     0
 40
0.0
  0
LTYPE
  5
15
330
5
100
AcDbSymbolTableRecord
100
AcDbLinetypeTableRecord
  2
BYLAYER
 70
     0
  3

 72
    65
 73
     0
 40
0.0
  0
LTYPE
  5
16
330
5
100
AcDbSymbolTableRecord
100
AcDbLinetypeTableRecord
  2
CONTINUOUS
 70
     0
  3
Solid line
 72
    65
 73
     0
 40
0.0
  0
LTYPE
  5
120
330
5
100
AcDbSymbolTableRecord
100
AcDbLinetypeTableRecord
  2
CENTER
 70
     0
  3
Center ____ _ ____ _ ____ _ ____ _ ____ _ ____
 72
    65
 73
     4
 40
50.8
 49
31.75
 74
     0
 49
-6.349999999999998
 74
     0
 49
6.349999999999998
 74
     0
 49
-6.349999999999998
 74
     0
  0
ENDTAB
  0
TABLE
  2
LAYER
  5
2
330
0
100
AcDbSymbolTable
 70
     9
  0
LAYER
  5
F
330
2
100
AcDbSymbolTableRecord
100
AcDbLayerTableRecord
  2
0
 70
     0
 62
     7
  6
CONTINUOUS
370
    -3
390
4589
  0
LAYER
  5
62
330
2
100
AcDbSymbolTableRecord
100
AcDbLayerTableRecord
  2
VIEWPORT
 70
     0
 62
     7
  6
CONTINUOUS
370
    -3
390
4589
  0
LAYER
  5
6B
330
2
100
AcDbSymbolTableRecord
100
AcDbLayerTableRecord
  2
ZUWAKU
 70
     0
 62
     7
  6
CONTINUOUS
370
    -3
390
4589
  0
LAYER
  5
13D
330
2
100
AcDbSymbolTableRecord
100
AcDbLayerTableRecord
  2
SEIHIN
 70
     0
 62
     3
  6
CONTINUOUS
370
    -3
390
4589
  0
LAYER
  5
13E
330
2
100
AcDbSymbolTableRecord
100
AcDbLayerTableRecord
  2
SUNPOU
 70
     0
 62
     4
  6
CONTINUOUS
370
    -3
390
4589
  0
LAYER
  5
13F
330
2
100
AcDbSymbolTableRecord
100
AcDbLayerTableRecord
  2
CENTER　L
 70
     0
 62
     1
  6
CENTER
370
    -3
390
4589
  0
LAYER
  5
140
330
2
100
AcDbSymbolTableRecord
100
AcDbLayerTableRecord
  2
DEFPOINTS
 70
     0
 62
     7
  6
CONTINUOUS
290
     0
370
    -3
390
4589
  0
LAYER
  5
4BA
330
2
100
AcDbSymbolTableRecord
100
AcDbLayerTableRecord
  2
MOJI
 70
     0
 62
     2
  6
CONTINUOUS
370
    -3
390
4589
  0
LAYER
  5
400D
330
2
100
AcDbSymbolTableRecord
100
AcDbLayerTableRecord
  2
ﾊｯﾁﾝｸﾞ
 70
     0
 62
     7
  6
CONTINUOUS
370
    -3
390
4589
  0
ENDTAB
  0
TABLE
  2
STYLE
  5
3
330
0
100
AcDbSymbolTable
 70
     2
  0
STYLE
  5
10
330
3
100
AcDbSymbolTableRecord
100
AcDbTextStyleTableRecord
  2
STANDARD
 70
     0
 40
0.0
 41
1.0
 50
0.0
 71
     0
 42
2.5
  3
TXT
  4
bigfont.shx
  0
STYLE
  5
4BB
330
3
100
AcDbSymbolTableRecord
100
AcDbTextStyleTableRecord
  2
MSPｺ_ｼｯｸ
 70
     0
 40
0.0
 41
1.0
 50
0.0
 71
     0
 42
2.5
  3

  4

1001
ACAD
1000
MS PGothic
1071
    32818
  0
ENDTAB
  0
TABLE
  2
VIEW
  5
6
330
0
100
AcDbSymbolTable
 70
     0
  0
ENDTAB
  0
TABLE
  2
UCS
  5
7
330
0
100
AcDbSymbolTable
 70
     0
  0
ENDTAB
  0
TABLE
  2
APPID
  5
9
330
0
100
AcDbSymbolTable
 70
     1
  0
APPID
  5
11
330
9
100
AcDbSymbolTableRecord
100
AcDbRegAppTableRecord
  2
ACAD
 70
     0
  0
ENDTAB
  0
TABLE
  2
DIMSTYLE
  5
A
330
0
100
AcDbSymbolTable
 70
     1
100
AcDbDimStyleTable
 71
     0
  0
DIMSTYLE
105
1D
102
{ACAD_REACTORS
330
41CD
330
3FA6
330
3F90
330
3F83
330
3FC2
330
3FB5
330
3FCF
330
43D0
330
498D
330
498C
330
498B
102
}
330
A
100
AcDbSymbolTableRecord
100
AcDbDimStyleTableRecord
  2
STANDARD
 70
     0
 41
3.0
 42
1.5
 44
1.5
 73
     0
 74
     0
 77
     3
140
3.5
141
0.0
147
1.5
176
   256
177
   256
178
   256
271
     0
272
     0
340
10
341
B2
342
B2
  0
ENDTAB
  0
TABLE
  2
BLOCK_RECORD
  5
1
330
0
100
AcDbSymbolTable
 70
    14
  0
BLOCK_RECORD
  5
1A
102
{ACAD_XDICTIONARY
360
444
102
}
330
1
100
AcDbSymbolTableRecord
100
AcDbBlockTableRecord
  2
*MODEL_SPACE
340
458A
  0
BLOCK_RECORD
  5
17
102
{ACAD_XDICTIONARY
360
442
102
}
330
1
100
AcDbSymbolTableRecord
100
AcDbBlockTableRecord
  2
*PAPER_SPACE
340
458B
  0
BLOCK_RECORD
  5
B2
330
1
100
AcDbSymbolTableRecord
100
AcDbBlockTableRecord
  2
_OPEN
340
0
102
{BLKREFS
331
45FF
331
4600
331
449F
331
44A0
331
4496
331
4497
331
44BA
331
44BB
331
44B1
331
44B2
331
4B17
331
4B18
331
45F6
331
45F7
331
4B23
331
4B24
331
49B5
331
49B6
331
49BE
331
49BF
331
4B49
331
4B4A
102
}
  0
BLOCK_RECORD
  5
9E0
330
1
100
AcDbSymbolTableRecord
100
AcDbBlockTableRecord
  2
*X1
340
0
102
{BLKREFS
331
585
102
}
  0
BLOCK_RECORD
  5
3F84
330
1
100
AcDbSymbolTableRecord
100
AcDbBlockTableRecord
  2
*D2
340
0
  0
BLOCK_RECORD
  5
3F91
330
1
100
AcDbSymbolTableRecord
100
AcDbBlockTableRecord
  2
*D3
340
0
  0
BLOCK_RECORD
  5
3FA7
330
1
100
AcDbSymbolTableRecord
100
AcDbBlockTableRecord
  2
*D4
340
0
  0
BLOCK_RECORD
  5
3FB6
330
1
100
AcDbSymbolTableRecord
100
AcDbBlockTableRecord
  2
*D5
340
0
  0
BLOCK_RECORD
  5
3FC3
330
1
100
AcDbSymbolTableRecord
100
AcDbBlockTableRecord
  2
*D6
340
0
  0
BLOCK_RECORD
  5
3FD0
330
1
100
AcDbSymbolTableRecord
100
AcDbBlockTableRecord
  2
*D7
340
0
  0
BLOCK_RECORD
  5
4127
330
1
100
AcDbSymbolTableRecord
100
AcDbBlockTableRecord
  2
*X8
340
0
102
{BLKREFS
331
4031
102
}
  0
BLOCK_RECORD
  5
41CE
330
1
100
AcDbSymbolTableRecord
100
AcDbBlockTableRecord
  2
*D9
340
0
  0
BLOCK_RECORD
  5
43D1
330
1
100
AcDbSymbolTableRecord
100
AcDbBlockTableRecord
  2
*D10
340
0
  0
BLOCK_RECORD
  5
498E
330
1
100
AcDbSymbolTableRecord
100
AcDbBlockTableRecord
  2
*D11
340
0
  0
BLOCK_RECORD
  5
499A
330
1
100
AcDbSymbolTableRecord
100
AcDbBlockTableRecord
  2
*D12
340
0
  0
BLOCK_RECORD
  5
49A6
330
1
100
AcDbSymbolTableRecord
100
AcDbBlockTableRecord
  2
*D13
340
0
  0
ENDTAB
  0
ENDSEC
  0
SECTION
  2
BLOCKS
  0
BLOCK
  5
1B
330
1A
100
AcDbEntity
  8
0
100
AcDbBlockBegin
  2
*MODEL_SPACE
 70
     0
 10
0.0
 20
0.0
 30
0.0
  3
*MODEL_SPACE
  1

  0
ENDBLK
  5
1C
330
1A
100
AcDbEntity
  8
0
100
AcDbBlockEnd
  0
BLOCK
  5
18
330
17
100
AcDbEntity
 67
     1
  8
0
100
AcDbBlockBegin
  2
*PAPER_SPACE
 70
     0
 10
0.0
 20
0.0
 30
0.0
  3
*PAPER_SPACE
  1

  0
ENDBLK
  5
19
330
17
100
AcDbEntity
 67
     1
  8
0
100
AcDbBlockEnd
  0
BLOCK
  5
B3
330
B2
100
AcDbEntity
  8
0
100
AcDbBlockBegin
  2
_OPEN
 70
     0
 10
0.0
 20
0.0
 30
0.0
  3
_OPEN
  1

  0
LINE
  5
B4
330
B2
100
AcDbEntity
  8
0
  6
ByBlock
 62
     0
100
AcDbLine
 10
-1.0
 20
0.1666666666666666
 30
0.0
 11
0.0
 21
0.0
 31
0.0
  0
LINE
  5
B5
330
B2
100
AcDbEntity
  8
0
  6
ByBlock
 62
     0
100
AcDbLine
 10
0.0
 20
0.0
 30
0.0
 11
-1.0
 21
-0.1666666666666666
 31
0.0
  0
LINE
  5
B6
330
B2
100
AcDbEntity
  8
0
  6
ByBlock
 62
     0
100
AcDbLine
 10
0.0
 20
0.0
 30
0.0
 11
-1.0
 21
0.0
 31
0.0
  0
ENDBLK
  5
B7
330
B2
100
AcDbEntity
  8
0
100
AcDbBlockEnd
  0
BLOCK
  5
B74
330
9E0
100
AcDbEntity
  8
0
100
AcDbBlockBegin
  2
*X1
 70
     1
 10
0.0
 20
0.0
 30
0.0
  3
*X1
  1

  0
LINE
  5
9E1
330
9E0
100
AcDbEntity
  8
0
 62
     0
100
AcDbLine
 10
34.5211058208776
 20
11.30208487459222
 30
0.0
 11
34.19819035602015
 21
11.62500033944971
 31
0.0
  0
LINE
  5
9E2
330
9E0
100
AcDbEntity
  8
0
 62
     0
100
AcDbLine
 10
34.5211058208776
 20
10.85307206853878
 30
0.0
 11
33.74917754996668
 21
11.62500033944971
 31
0.0
  0
LINE
  5
9E3
330
9E0
100
AcDbEntity
  8
0
 62
     0
100
AcDbLine
 10
34.52110582087757
 20
10.4040592624853
 30
0.0
 11
33.3105388478701
 21
11.61462623549277
 31
0.0
  0
LINE
  5
9E4
330
9E0
100
AcDbEntity
  8
0
 62
     0
100
AcDbLine
 10
34.5211058208776
 20
9.955046456431887
 30
0.0
 11
33.12110582087758
 21
11.35504645643189
 31
0.0
  0
LINE
  5
9E5
330
9E0
100
AcDbEntity
  8
0
 62
     0
100
AcDbLine
 10
34.5211058208776
 20
9.506033650378412
 30
0.0
 11
33.12110582087758
 21
10.90603365037844
 31
0.0
  0
LINE
  5
9E6
330
9E0
100
AcDbEntity
  8
0
 62
     0
100
AcDbLine
 10
34.52110582087757
 20
9.057020844324938
 30
0.0
 11
33.12110582087754
 21
10.45702084432497
 31
0.0
  0
LINE
  5
9E7
330
9E0
100
AcDbEntity
  8
0
 62
     0
100
AcDbLine
 10
32.07110582087756
 20
11.05800803827153
 30
0.0
 11
31.50411351969941
 21
11.62500033944971
 31
0.0
  0
LINE
  5
9E8
330
9E0
100
AcDbEntity
  8
0
 62
     0
100
AcDbLine
 10
34.5211058208776
 20
8.608008038271519
 30
0.0
 11
33.12110582087758
 21
10.00800803827155
 31
0.0
  0
LINE
  5
9E9
330
9E0
100
AcDbEntity
  8
0
 62
     0
100
AcDbLine
 10
32.07110582087756
 20
10.60899523221809
 30
0.0
 11
31.05510071364594
 21
11.62500033944968
 31
0.0
  0
LINE
  5
9EA
330
9E0
100
AcDbEntity
  8
0
 62
     0
100
AcDbLine
 10
34.52110582087757
 20
8.158995232218046
 30
0.0
 11
33.12110582087758
 21
9.558995232218078
 31
0.0
  0
LINE
  5
9EB
330
9E0
100
AcDbEntity
  8
0
 62
     0
100
AcDbLine
 10
32.07110582087756
 20
10.15998242616461
 30
0.0
 11
30.71835033830903
 21
11.51273790873315
 31
0.0
  0
LINE
  5
9EC
330
9E0
100
AcDbEntity
  8
0
 62
     0
100
AcDbLine
 10
34.52110582087757
 20
7.709982426164599
 30
0.0
 11
33.12110582087754
 21
9.109982426164606
 31
0.0
  0
LINE
  5
9ED
330
9E0
100
AcDbEntity
  8
0
 62
     0
100
AcDbLine
 10
32.07110582087762
 20
9.710969620111113
 30
0.0
 11
30.67110582087754
 21
11.11096962011117
 31
0.0
  0
LINE
  5
9EE
330
9E0
100
AcDbEntity
  8
0
 62
     0
100
AcDbLine
 10
34.5211058208776
 20
7.260969620111125
 30
0.0
 11
33.12110582087758
 21
8.66096962011116
 31
0.0
  0
LINE
  5
9EF
330
9E0
100
AcDbEntity
  8
0
 62
     0
100
AcDbLine
 10
32.07110582087759
 20
9.261956814057668
 30
0.0
 11
30.67110582087754
 21
10.66195681405776
 31
0.0
  0
LINE
  5
9F0
330
9E0
100
AcDbEntity
  8
0
 62
     0
100
AcDbLine
 10
34.52110582087757
 20
6.811956814057679
 30
0.0
 11
33.12110582087754
 21
8.211956814057714
 31
0.0
  0
LINE
  5
9F1
330
9E0
100
AcDbEntity
  8
0
 62
     0
100
AcDbLine
 10
32.07110582087759
 20
8.812944008004222
 30
0.0
 11
30.67110582087754
 21
10.21294400800428
 31
0.0
  0
LINE
  5
9F2
330
9E0
100
AcDbEntity
  8
0
 62
     0
100
AcDbLine
 10
34.52110582087757
 20
6.362944008004233
 30
0.0
 11
33.12110582087754
 21
7.762944008004267
 31
0.0
  0
LINE
  5
9F3
330
9E0
100
AcDbEntity
  8
0
 62
     0
100
AcDbLine
 10
32.07110582087756
 20
8.363931201950746
 30
0.0
 11
30.6711058208775
 21
9.763931201950812
 31
0.0
  0
LINE
  5
9F4
330
9E0
100
AcDbEntity
  8
0
 62
     0
100
AcDbLine
 10
34.52110582087755
 20
5.913931201950759
 30
0.0
 11
33.12110582087754
 21
7.313931201950794
 31
0.0
  0
LINE
  5
9F5
330
9E0
100
AcDbEntity
  8
0
 62
     0
100
AcDbLine
 10
32.07110582087759
 20
7.914918395897331
 30
0.0
 11
30.67110582087754
 21
9.314918395897391
 31
0.0
  0
LINE
  5
9F6
330
9E0
100
AcDbEntity
  8
0
 62
     0
100
AcDbLine
 10
28.92110582087756
 20
11.06491839589736
 30
0.0
 11
28.36102387732523
 21
11.62500033944968
 31
0.0
  0
LINE
  5
9F7
330
9E0
100
AcDbEntity
  8
0
 62
     0
100
AcDbLine
 10
34.52110582087757
 20
5.464918395897342
 30
0.0
 11
33.12110582087754
 21
6.864918395897348
 31
0.0
  0
LINE
  5
9F8
330
9E0
100
AcDbEntity
  8
0
 62
     0
100
AcDbLine
 10
32.07110582087759
 20
7.465905589843855
 30
0.0
 11
30.6711058208775
 21
8.865905589843917
 31
0.0
  0
LINE
  5
9F9
330
9E0
100
AcDbEntity
  8
0
 62
     0
100
AcDbLine
 10
28.92110582087752
 20
10.61590558984389
 30
0.0
 11
27.91201107127176
 21
11.62500033944968
 31
0.0
  0
LINE
  5
9FA
330
9E0
100
AcDbEntity
  8
0
 62
     0
100
AcDbLine
 10
34.52110582087757
 20
5.015905589843868
 30
0.0
 11
33.12110582087754
 21
6.415905589843903
 31
0.0
  0
LINE
  5
9FB
330
9E0
100
AcDbEntity
  8
0
 62
     0
100
AcDbLine
 10
32.07110582087756
 20
7.016892783790409
 30
0.0
 11
30.67110582087754
 21
8.416892783790416
 31
0.0
  0
LINE
  5
9FC
330
9E0
100
AcDbEntity
  8
0
 62
     0
100
AcDbLine
 10
28.92110582087752
 20
10.16689278379044
 30
0.0
 11
27.57122445921552
 21
11.51677414545244
 31
0.0
  0
LINE
  5
9FD
330
9E0
100
AcDbEntity
  8
0
 62
     0
100
AcDbLine
 10
34.52110582087755
 20
4.566892783790422
 30
0.0
 11
33.12110582087752
 21
5.966892783790427
 31
0.0
  0
LINE
  5
9FE
330
9E0
100
AcDbEntity
  8
0
 62
     0
100
AcDbLine
 10
32.07110582087759
 20
6.567879977736937
 30
0.0
 11
30.67110582087755
 21
7.96787997773697
 31
0.0
  0
LINE
  5
9FF
330
9E0
100
AcDbEntity
  8
0
 62
     0
100
AcDbLine
 10
28.92110582087756
 20
9.71787997773697
 30
0.0
 11
27.52110582087755
 21
11.11787997773697
 31
0.0
  0
LINE
  5
A00
330
9E0
100
AcDbEntity
  8
0
 62
     0
100
AcDbLine
 10
34.52110582087757
 20
4.117879977736946
 30
0.0
 11
33.12110582087754
 21
5.51787997773698
 31
0.0
  0
LINE
  5
A01
330
9E0
100
AcDbEntity
  8
0
 62
     0
100
AcDbLine
 10
32.07110582087756
 20
6.11886717168349
 30
0.0
 11
30.67110582087755
 21
7.518867171683523
 31
0.0
  0
LINE
  5
A02
330
9E0
100
AcDbEntity
  8
0
 62
     0
100
AcDbLine
 10
28.92110582087758
 20
9.268867171683496
 30
0.0
 11
27.52110582087755
 21
10.66886717168353
 31
0.0
  0
LINE
  5
A03
330
9E0
100
AcDbEntity
  8
0
 62
     0
100
AcDbLine
 10
34.48512314343267
 20
3.704849849128406
 30
0.0
 11
33.12110582087754
 21
5.068867171683534
 31
0.0
  0
LINE
  5
A04
330
9E0
100
AcDbEntity
  8
0
 62
     0
100
AcDbLine
 10
32.07110582087759
 20
5.669854365629987
 30
0.0
 11
30.67110582087754
 21
7.06985436563005
 31
0.0
  0
LINE
  5
A05
330
9E0
100
AcDbEntity
  8
0
 62
     0
100
AcDbLine
 10
28.92110582087756
 20
8.81985436563005
 30
0.0
 11
27.52110582087752
 21
10.21985436563005
 31
0.0
  0
LINE
  5
A06
330
9E0
100
AcDbEntity
  8
0
 62
     0
100
AcDbLine
 10
34.16595984705793
 20
3.575000339449672
 30
0.0
 11
33.12110582087752
 21
4.619854365630088
 31
0.0
  0
LINE
  5
A07
330
9E0
100
AcDbEntity
  8
0
 62
     0
100
AcDbLine
 10
28.92110582087756
 20
8.370841559576575
 30
0.0
 11
27.52110582087752
 21
9.770841559576608
 31
0.0
  0
LINE
  5
A08
330
9E0
100
AcDbEntity
  8
0
 62
     0
100
AcDbLine
 10
32.07110582087759
 20
5.220841559576541
 30
0.0
 11
30.67110582087754
 21
6.620841559576603
 31
0.0
  0
LINE
  5
A09
330
9E0
100
AcDbEntity
  8
0
 62
     0
100
AcDbLine
 10
26.20860582087755
 20
11.08334155957658
 30
0.0
 11
25.66694704100447
 21
11.62500033944962
 31
0.0
  0
LINE
  5
A0A
330
9E0
100
AcDbEntity
  8
0
 62
     0
100
AcDbLine
 10
33.71694704100448
 20
3.575000339449616
 30
0.0
 11
33.12110582087752
 21
4.170841559576615
 31
0.0
  0
LINE
  5
A0B
330
9E0
100
AcDbEntity
  8
0
 62
     0
100
AcDbLine
 10
28.92110582087756
 20
7.921828753523128
 30
0.0
 11
27.52110582087758
 21
9.321828753523137
 31
0.0
  0
LINE
  5
A0C
330
9E0
100
AcDbEntity
  8
0
 62
     0
100
AcDbLine
 10
26.20860582087755
 20
10.63432875352313
 30
0.0
 11
25.21793423495106
 21
11.62500033944965
 31
0.0
  0
LINE
  5
A0D
330
9E0
100
AcDbEntity
  8
0
 62
     0
100
AcDbLine
 10
32.0581266705548
 20
4.784807903845916
 30
0.0
 11
30.67110582087754
 21
6.171828753523156
 31
0.0
  0
LINE
  5
A0E
330
9E0
100
AcDbEntity
  8
0
 62
     0
100
AcDbLine
 10
28.92110582087756
 20
7.472815947469682
 30
0.0
 11
27.52110582087758
 21
8.872815947469662
 31
0.0
  0
LINE
  5
A0F
330
9E0
100
AcDbEntity
  8
0
 62
     0
100
AcDbLine
 10
26.11081554782063
 20
10.2831062205266
 30
0.0
 11
24.76892142889755
 21
11.62500033944968
 31
0.0
  0
LINE
  5
A10
330
9E0
100
AcDbEntity
  8
0
 62
     0
100
AcDbLine
 10
31.96163402292617
 20
4.432287745421035
 30
0.0
 11
30.67110582087754
 21
5.722815947469712
 31
0.0
  0
LINE
  5
A11
330
9E0
100
AcDbEntity
  8
0
 62
     0
100
AcDbLine
 10
28.92110582087756
 20
7.023803141416208
 30
0.0
 11
27.52110582087755
 21
8.423803141416215
 31
0.0
  0
LINE
  5
A12
330
9E0
100
AcDbEntity
  8
0
 62
     0
100
AcDbLine
 10
25.71990862284406
 20
10.22500033944967
 30
0.0
 11
24.31990862284411
 21
11.62500033944962
 31
0.0
  0
LINE
  5
A13
330
9E0
100
AcDbEntity
  8
0
 62
     0
100
AcDbLine
 10
31.79911808496439
 20
4.145790877329345
 30
0.0
 11
30.63534795129777
 21
5.309561010995992
 31
0.0
  0
LINE
  5
A14
330
9E0
100
AcDbEntity
  8
0
 62
     0
100
AcDbLine
 10
28.92110582087756
 20
6.574790335362791
 30
0.0
 11
27.52110582087758
 21
7.974790335362768
 31
0.0
  0
LINE
  5
A15
330
9E0
100
AcDbEntity
  8
0
 62
     0
100
AcDbLine
 10
25.27089581679064
 20
10.2250003394497
 30
0.0
 11
23.90211245220195
 21
11.5937837040384
 31
0.0
  0
LINE
  5
A16
330
9E0
100
AcDbEntity
  8
0
 62
     0
100
AcDbLine
 10
31.58309718630187
 20
3.912798969938448
 30
0.0
 11
30.43455513206402
 21
5.061341024176299
 31
0.0
  0
LINE
  5
A17
330
9E0
100
AcDbEntity
  8
0
 62
     0
100
AcDbLine
 10
28.92110582087756
 20
6.125777529309316
 30
0.0
 11
27.52110582087755
 21
7.525777529309293
 31
0.0
  0
LINE
  5
A18
330
9E0
100
AcDbEntity
  8
0
 62
     0
100
AcDbLine
 10
24.82188301073716
 20
10.2250003394497
 30
0.0
 11
23.56979223993525
 21
11.47709111025159
 31
0.0
  0
LINE
  5
A19
330
9E0
100
AcDbEntity
  8
0
 62
     0
100
AcDbLine
 10
31.31501601383885
 20
3.731867336348016
 30
0.0
 11
30.07188301073716
 21
4.975000339449677
 31
0.0
  0
LINE
  5
A1A
330
9E0
100
AcDbEntity
  8
0
 62
     0
100
AcDbLine
 10
28.92110582087752
 20
5.676764723255843
 30
0.0
 11
27.52110582087755
 21
7.076764723255847
 31
0.0
  0
LINE
  5
A1B
330
9E0
100
AcDbEntity
  8
0
 62
     0
100
AcDbLine
 10
24.38376511869276
 20
10.2141054254406
 30
0.0
 11
23.29849177133016
 21
11.29937877280321
 31
0.0
  0
LINE
  5
A1C
330
9E0
100
AcDbEntity
  8
0
 62
     0
100
AcDbLine
 10
30.9868097338832
 20
3.611060810250194
 30
0.0
 11
29.62287020468372
 21
4.975000339449677
 31
0.0
  0
LINE
  5
A1D
330
9E0
100
AcDbEntity
  8
0
 62
     0
100
AcDbLine
 10
24.19610582087759
 20
9.952751917202306
 30
0.0
 11
23.07943574180788
 21
11.06942199627201
 31
0.0
  0
LINE
  5
A1E
330
9E0
100
AcDbEntity
  8
0
 62
     0
100
AcDbLine
 10
30.57385739863028
 20
3.575000339449643
 30
0.0
 11
27.52110582087755
 21
6.627751917202373
 31
0.0
  0
LINE
  5
A1F
330
9E0
100
AcDbEntity
  8
0
 62
     0
100
AcDbLine
 10
24.19610582087762
 20
9.503739111148886
 30
0.0
 11
22.91355028563137
 21
10.78629464639513
 31
0.0
  0
LINE
  5
A20
330
9E0
100
AcDbEntity
  8
0
 62
     0
100
AcDbLine
 10
30.12484459257683
 20
3.575000339449643
 30
0.0
 11
27.52110582087755
 21
6.178739111148956
 31
0.0
  0
LINE
  5
A21
330
9E0
100
AcDbEntity
  8
0
 62
     0
100
AcDbLine
 10
24.29937796142948
 20
8.951454164543546
 30
0.0
 11
22.81246102594931
 21
10.43837110002368
 31
0.0
  0
LINE
  5
A22
330
9E0
100
AcDbEntity
  8
0
 62
     0
100
AcDbLine
 10
29.67583178652338
 20
3.575000339449643
 30
0.0
 11
27.52110582087755
 21
5.729726305095481
 31
0.0
  0
LINE
  5
A23
330
9E0
100
AcDbEntity
  8
0
 62
     0
100
AcDbLine
 10
26.40790767222324
 20
6.393911647696312
 30
0.0
 11
22.79610582087755
 21
10.00571349904197
 31
0.0
  0
LINE
  5
A24
330
9E0
100
AcDbEntity
  8
0
 62
     0
100
AcDbLine
 10
21.74610582087751
 20
11.05571349904201
 30
0.0
 11
21.17681898046987
 21
11.62500033944968
 31
0.0
  0
LINE
  5
A25
330
9E0
100
AcDbEntity
  8
0
 62
     0
100
AcDbLine
 10
29.22681898046991
 20
3.575000339449643
 30
0.0
 11
27.52110582087752
 21
5.280713499042008
 31
0.0
  0
LINE
  5
A26
330
9E0
100
AcDbEntity
  8
0
 62
     0
100
AcDbLine
 10
26.47110582087759
 20
5.881700692988545
 30
0.0
 11
22.79610582087757
 21
9.556700692988556
 31
0.0
  0
LINE
  5
A27
330
9E0
100
AcDbEntity
  8
0
 62
     0
100
AcDbLine
 10
21.74610582087757
 20
10.60670069298853
 30
0.0
 11
20.7278061744164
 21
11.62500033944974
 31
0.0
  0
LINE
  5
A28
330
9E0
100
AcDbEntity
  8
0
 62
     0
100
AcDbLine
 10
28.76958223504403
 20
3.583224278822115
 30
0.0
 11
27.52932976025002
 21
4.82347675361612
 31
0.0
  0
LINE
  5
A29
330
9E0
100
AcDbEntity
  8
0
 62
     0
100
AcDbLine
 10
21.74610582087757
 20
10.15768788693509
 30
0.0
 11
20.39241087698991
 21
11.51138283082272
 31
0.0
  0
LINE
  5
A2A
330
9E0
100
AcDbEntity
  8
0
 62
     0
100
AcDbLine
 10
26.47110582087757
 20
5.43268788693507
 30
0.0
 11
22.80781115481875
 21
9.095982552993916
 31
0.0
  0
LINE
  5
A2B
330
9E0
100
AcDbEntity
  8
0
 62
     0
100
AcDbLine
 10
21.74610582087757
 20
9.708675080881619
 30
0.0
 11
20.34610582087756
 21
11.10867508088159
 31
0.0
  0
LINE
  5
A2C
330
9E0
100
AcDbEntity
  8
0
 62
     0
100
AcDbLine
 10
26.47110582087752
 20
4.983675080881653
 30
0.0
 11
22.96687086373876
 21
8.487910038020428
 31
0.0
  0
LINE
  5
A2D
330
9E0
100
AcDbEntity
  8
0
 62
     0
100
AcDbLine
 10
21.74610582087757
 20
9.259662274828171
 30
0.0
 11
20.34610582087759
 21
10.65966227482814
 31
0.0
  0
LINE
  5
A2E
330
9E0
100
AcDbEntity
  8
0
 62
     0
100
AcDbLine
 10
26.41682491208303
 20
4.588943183622716
 30
0.0
 11
25.06900751756387
 21
5.93676057814187
 31
0.0
  0
LINE
  5
A2F
330
9E0
100
AcDbEntity
  8
0
 62
     0
100
AcDbLine
 10
21.74610582087757
 20
8.810649468774727
 30
0.0
 11
20.34610582087756
 21
10.2106494687747
 31
0.0
  0
LINE
  5
A30
330
9E0
100
AcDbEntity
  8
0
 62
     0
100
AcDbLine
 10
19.20036237058906
 20
11.35639291906321
 30
0.0
 11
18.93175495020261
 21
11.62500033944968
 31
0.0
  0
LINE
  5
A31
330
9E0
100
AcDbEntity
  8
0
 62
     0
100
AcDbLine
 10
26.28288705820224
 20
4.273868231450051
 30
0.0
 11
25.07110582087759
 21
5.485649468774709
 31
0.0
  0
LINE
  5
A32
330
9E0
100
AcDbEntity
  8
0
 62
     0
100
AcDbLine
 10
21.74610582087754
 20
8.361636662721252
 30
0.0
 11
20.34610582087756
 21
9.761636662721258
 31
0.0
  0
LINE
  5
A33
330
9E0
100
AcDbEntity
  8
0
 62
     0
100
AcDbLine
 10
19.10089853846275
 20
11.00684394513604
 30
0.0
 11
18.48274214414914
 21
11.62500033944968
 31
0.0
  0
LINE
  5
A34
330
9E0
100
AcDbEntity
  8
0
 62
     0
100
AcDbLine
 10
26.0913936591146
 20
4.016348824484224
 30
0.0
 11
25.02246322943435
 21
5.085279254164476
 31
0.0
  0
LINE
  5
A35
330
9E0
100
AcDbEntity
  8
0
 62
     0
100
AcDbLine
 10
21.74610582087754
 20
7.912623856667806
 30
0.0
 11
20.34610582087756
 21
9.312623856667784
 31
0.0
  0
LINE
  5
A36
330
9E0
100
AcDbEntity
  8
0
 62
     0
100
AcDbLine
 10
18.99313546500991
 20
10.6655942125354
 30
0.0
 11
18.03852768327462
 21
11.62020199427072
 31
0.0
  0
LINE
  5
A37
330
9E0
100
AcDbEntity
  8
0
 62
     0
100
AcDbLine
 10
25.84823417655679
 20
3.810495500988537
 30
0.0
 11
24.68372933809567
 21
4.975000339449677
 31
0.0
  0
LINE
  5
A38
330
9E0
100
AcDbEntity
  8
0
 62
     0
100
AcDbLine
 10
21.74610582087757
 20
7.46361105061436
 30
0.0
 11
20.34610582087756
 21
8.863611050614338
 31
0.0
  0
LINE
  5
A39
330
9E0
100
AcDbEntity
  8
0
 62
     0
100
AcDbLine
 10
18.88537239155715
 20
10.32434447993477
 30
0.0
 11
17.82137239155713
 21
11.3883444799348
 31
0.0
  0
LINE
  5
A3A
330
9E0
100
AcDbEntity
  8
0
 62
     0
100
AcDbLine
 10
25.5501922023266
 20
3.659524669165306
 30
0.0
 11
24.23471653204222
 21
4.975000339449707
 31
0.0
  0
LINE
  5
A3B
330
9E0
100
AcDbEntity
  8
0
 62
     0
100
AcDbLine
 10
21.74610582087754
 20
7.014598244560914
 30
0.0
 11
20.34610582087756
 21
8.414598244560892
 31
0.0
  0
LINE
  5
A3C
330
9E0
100
AcDbEntity
  8
0
 62
     0
100
AcDbLine
 10
18.77760931810422
 20
9.983094747334234
 30
0.0
 11
17.71360931810423
 21
11.04709474733422
 31
0.0
  0
LINE
  5
A3D
330
9E0
100
AcDbEntity
  8
0
 62
     0
100
AcDbLine
 10
25.18135587650286
 20
3.579348188935596
 30
0.0
 11
23.78570372598878
 21
4.975000339449677
 31
0.0
  0
LINE
  5
A3E
330
9E0
100
AcDbEntity
  8
0
 62
     0
100
AcDbLine
 10
21.74610582087754
 20
6.565585438507439
 30
0.0
 11
20.34610582087754
 21
7.965585438507417
 31
0.0
  0
LINE
  5
A3F
330
9E0
100
AcDbEntity
  8
0
 62
     0
100
AcDbLine
 10
18.66984624465144
 20
9.641845014733547
 30
0.0
 11
17.60584624465138
 21
10.70584501473357
 31
0.0
  0
LINE
  5
A40
330
9E0
100
AcDbEntity
  8
0
 62
     0
100
AcDbLine
 10
24.73669091993534
 20
3.575000339449643
 30
0.0
 11
23.33669091993531
 21
4.975000339449677
 31
0.0
  0
LINE
  5
A41
330
9E0
100
AcDbEntity
  8
0
 62
     0
100
AcDbLine
 10
21.74610582087754
 20
6.116572632453993
 30
0.0
 11
20.34610582087756
 21
7.516572632453999
 31
0.0
  0
LINE
  5
A42
330
9E0
100
AcDbEntity
  8
0
 62
     0
100
AcDbLine
 10
18.56208317119862
 20
9.300595282132944
 30
0.0
 11
17.49808317119857
 21
10.36459528213296
 31
0.0
  0
LINE
  5
A43
330
9E0
100
AcDbEntity
  8
0
 62
     0
100
AcDbLine
 10
24.28767811388189
 20
3.575000339449672
 30
0.0
 11
23.0708722652337
 21
4.791806188097864
 31
0.0
  0
LINE
  5
A44
330
9E0
100
AcDbEntity
  8
0
 62
     0
100
AcDbLine
 10
18.4543200977458
 20
8.959345549532256
 30
0.0
 11
17.39032009774575
 21
10.02334554953233
 31
0.0
  0
LINE
  5
A45
330
9E0
100
AcDbEntity
  8
0
 62
     0
100
AcDbLine
 10
21.74610582087754
 20
5.667559826400547
 30
0.0
 11
20.34610582087756
 21
7.067559826400525
 31
0.0
  0
LINE
  5
A46
330
9E0
100
AcDbEntity
  8
0
 62
     0
100
AcDbLine
 10
16.32110582087756
 20
11.09255982640053
 30
0.0
 11
15.78866530782841
 21
11.62500033944965
 31
0.0
  0
LINE
  5
A47
330
9E0
100
AcDbEntity
  8
0
 62
     0
100
AcDbLine
 10
23.83866530782845
 20
3.575000339449643
 30
0.0
 11
23.05860582087757
 21
4.35505982640052
 31
0.0
  0
LINE
  5
A48
330
9E0
100
AcDbEntity
  8
0
 62
     0
100
AcDbLine
 10
18.3465570242929
 20
8.618095816931711
 30
0.0
 11
17.28255702429294
 21
9.682095816931678
 31
0.0
  0
LINE
  5
A49
330
9E0
100
AcDbEntity
  8
0
 62
     0
100
AcDbLine
 10
21.74610582087754
 20
5.218547020347074
 30
0.0
 11
20.34610582087754
 21
6.618547020347079
 31
0.0
  0
LINE
  5
A4A
330
9E0
100
AcDbEntity
  8
0
 62
     0
100
AcDbLine
 10
16.32110582087756
 20
10.64354702034705
 30
0.0
 11
15.33965250177496
 21
11.62500033944965
 31
0.0
  0
LINE
  5
A4B
330
9E0
100
AcDbEntity
  8
0
 62
     0
100
AcDbLine
 10
23.38965250177494
 20
3.575000339449672
 30
0.0
 11
23.05860582087754
 21
3.906047020347044
 31
0.0
  0
LINE
  5
A4C
330
9E0
100
AcDbEntity
  8
0
 62
     0
100
AcDbLine
 10
18.23879395084009
 20
8.276846084331053
 30
0.0
 11
17.17479395084007
 21
9.340846084331076
 31
0.0
  0
LINE
  5
A4D
330
9E0
100
AcDbEntity
  8
0
 62
     0
100
AcDbLine
 10
16.32110582087753
 20
10.19453421429358
 30
0.0
 11
14.98338335642873
 21
11.53225667874241
 31
0.0
  0
LINE
  5
A4E
330
9E0
100
AcDbEntity
  8
0
 62
     0
100
AcDbLine
 10
21.74610582087751
 20
4.769534214293627
 30
0.0
 11
20.34610582087754
 21
6.169534214293604
 31
0.0
  0
LINE
  5
A4F
330
9E0
100
AcDbEntity
  8
0
 62
     0
100
AcDbLine
 10
18.13103087738727
 20
7.935596351730451
 30
0.0
 11
17.06703087738728
 21
8.999596351730446
 31
0.0
  0
LINE
  5
A50
330
9E0
100
AcDbEntity
  8
0
 62
     0
100
AcDbLine
 10
16.32110582087756
 20
9.745521408240165
 30
0.0
 11
14.92110582087752
 21
11.14552140824017
 31
0.0
  0
LINE
  5
A51
330
9E0
100
AcDbEntity
  8
0
 62
     0
100
AcDbLine
 10
21.74610582087754
 20
4.320521408240181
 30
0.0
 11
20.34610582087754
 21
5.720521408240159
 31
0.0
  0
LINE
  5
A52
330
9E0
100
AcDbEntity
  8
0
 62
     0
100
AcDbLine
 10
18.02848662269123
 20
7.589127800373005
 30
0.0
 11
16.95926780393441
 21
8.658346619129844
 31
0.0
  0
LINE
  5
A53
330
9E0
100
AcDbEntity
  8
0
 62
     0
100
AcDbLine
 10
16.32110582087756
 20
9.296508602186689
 30
0.0
 11
14.92110582087752
 21
10.69650860218672
 31
0.0
  0
LINE
  5
A54
330
9E0
100
AcDbEntity
  8
0
 62
     0
100
AcDbLine
 10
21.74610582087751
 20
3.871508602186708
 30
0.0
 11
20.34610582087754
 21
5.271508602186712
 31
0.0
  0
LINE
  5
A55
330
9E0
100
AcDbEntity
  8
0
 62
     0
100
AcDbLine
 10
18.23572330240824
 20
6.932878314602532
 30
0.0
 11
16.8139940560921
 21
8.35460756091868
 31
0.0
  0
LINE
  5
A56
330
9E0
100
AcDbEntity
  8
0
 62
     0
100
AcDbLine
 10
16.32110582087759
 20
8.847495796133188
 30
0.0
 11
14.9211058208775
 21
10.24749579613325
 31
0.0
  0
LINE
  5
A57
330
9E0
100
AcDbEntity
  8
0
 62
     0
100
AcDbLine
 10
21.57658332221135
 20
3.592018294799401
 30
0.0
 11
20.34610582087756
 21
4.822495796133209
 31
0.0
  0
LINE
  5
A58
330
9E0
100
AcDbEntity
  8
0
 62
     0
100
AcDbLine
 10
18.44295998212524
 20
6.276628828832116
 30
0.0
 11
14.92110582087752
 21
9.798482990079831
 31
0.0
  0
LINE
  5
A59
330
9E0
100
AcDbEntity
  8
0
 62
     0
100
AcDbLine
 10
13.69610582087759
 20
11.02348299007977
 30
0.0
 11
13.0945884715077
 21
11.62500033944965
 31
0.0
  0
LINE
  5
A5A
330
9E0
100
AcDbEntity
  8
0
 62
     0
100
AcDbLine
 10
21.14458847150771
 20
3.575000339449643
 30
0.0
 11
20.34610582087759
 21
4.373482990079763
 31
0.0
  0
LINE
  5
A5B
330
9E0
100
AcDbEntity
  8
0
 62
     0
100
AcDbLine
 10
18.65019666184227
 20
5.620379343061612
 30
0.0
 11
14.92110582087752
 21
9.349470184026356
 31
0.0
  0
LINE
  5
A5C
330
9E0
100
AcDbEntity
  8
0
 62
     0
100
AcDbLine
 10
13.69610582087759
 20
10.57447018402629
 30
0.0
 11
12.6455756654542
 21
11.62500033944968
 31
0.0
  0
LINE
  5
A5D
330
9E0
100
AcDbEntity
  8
0
 62
     0
100
AcDbLine
 10
20.69557566545424
 20
3.575000339449616
 30
0.0
 11
20.34610582087756
 21
3.924470184026318
 31
0.0
  0
LINE
  5
A5E
330
9E0
100
AcDbEntity
  8
0
 62
     0
100
AcDbLine
 10
13.56265247318253
 20
10.25891072566787
 30
0.0
 11
12.21254161407682
 21
11.60902158477355
 31
0.0
  0
LINE
  5
A5F
330
9E0
100
AcDbEntity
  8
0
 62
     0
100
AcDbLine
 10
18.85743334155924
 20
4.964129857291169
 30
0.0
 11
14.92110582087755
 21
8.900457377972855
 31
0.0
  0
LINE
  5
A60
330
9E0
100
AcDbEntity
  8
0
 62
     0
100
AcDbLine
 10
16.48986028204836
 20
6.882690110748597
 30
0.0
 11
14.92110582087755
 21
8.45144457191941
 31
0.0
  0
LINE
  5
A61
330
9E0
100
AcDbEntity
  8
0
 62
     0
100
AcDbLine
 10
13.14755005334731
 20
10.22500033944962
 30
0.0
 11
11.84352007928319
 21
11.52903031351377
 31
0.0
  0
LINE
  5
A62
330
9E0
100
AcDbEntity
  8
0
 62
     0
100
AcDbLine
 10
19.06467002127627
 20
4.307880371520695
 30
0.0
 11
17.01851617512221
 21
6.354034217674751
 31
0.0
  0
LINE
  5
A63
330
9E0
100
AcDbEntity
  8
0
 62
     0
100
AcDbLine
 10
16.32110582087759
 20
6.602431765865929
 30
0.0
 11
14.92110582087755
 21
8.002431765865964
 31
0.0
  0
LINE
  5
A64
330
9E0
100
AcDbEntity
  8
0
 62
     0
100
AcDbLine
 10
12.69853724729381
 20
10.22500033944967
 30
0.0
 11
11.52415937136783
 21
11.39937821537566
 31
0.0
  0
LINE
  5
A65
330
9E0
100
AcDbEntity
  8
0
 62
     0
100
AcDbLine
 10
19.18218945013157
 20
3.741348136611918
 30
0.0
 11
17.22575285483927
 21
5.697784731904249
 31
0.0
  0
LINE
  5
A66
330
9E0
100
AcDbEntity
  8
0
 62
     0
100
AcDbLine
 10
16.32110582087756
 20
6.153418959812482
 30
0.0
 11
14.92110582087752
 21
7.553418959812488
 31
0.0
  0
LINE
  5
A67
330
9E0
100
AcDbEntity
  8
0
 62
     0
100
AcDbLine
 10
12.27698049602204
 20
10.19754428466799
 30
0.0
 11
11.24478488370056
 21
11.22973989698948
 31
0.0
  0
LINE
  5
A68
330
9E0
100
AcDbEntity
  8
0
 62
     0
100
AcDbLine
 10
18.8995244412404
 20
3.575000339449643
 30
0.0
 11
17.43298953455627
 21
5.041535246133776
 31
0.0
  0
LINE
  5
A69
330
9E0
100
AcDbEntity
  8
0
 62
     0
100
AcDbLine
 10
16.32110582087756
 20
5.704406153759008
 30
0.0
 11
14.92110582087752
 21
7.104406153759042
 31
0.0
  0
LINE
  5
A6A
330
9E0
100
AcDbEntity
  8
0
 62
     0
100
AcDbLine
 10
11.99105239960255
 20
10.03445957503402
 30
0.0
 11
11.00095727939466
 21
11.0245546952419
 31
0.0
  0
LINE
  5
A6B
330
9E0
100
AcDbEntity
  8
0
 62
     0
100
AcDbLine
 10
18.45051163518692
 20
3.575000339449643
 30
0.0
 11
17.64022621427327
 21
4.385285760363301
 31
0.0
  0
LINE
  5
A6C
330
9E0
100
AcDbEntity
  8
0
 62
     0
100
AcDbLine
 10
13.86382038727643
 20
7.712678781306721
 30
0.0
 11
13.10878426273456
 21
8.467714905848595
 31
0.0
  0
LINE
  5
A6D
330
9E0
100
AcDbEntity
  8
0
 62
     0
100
AcDbLine
 10
16.32110582087761
 20
5.255393347705535
 30
0.0
 11
14.92110582087755
 21
6.655393347705597
 31
0.0
  0
LINE
  5
A6E
330
9E0
100
AcDbEntity
  8
0
 62
     0
100
AcDbLine
 10
11.81299161453807
 20
9.763507554045077
 30
0.0
 11
10.79127426638905
 21
10.7852249021941
 31
0.0
  0
LINE
  5
A6F
330
9E0
100
AcDbEntity
  8
0
 62
     0
100
AcDbLine
 10
17.97633232703117
 20
3.600166841551981
 30
0.0
 11
17.85115524123551
 21
3.725343927347636
 31
0.0
  0
LINE
  5
A70
330
9E0
100
AcDbEntity
  8
0
 62
     0
100
AcDbLine
 10
13.82056355720547
 20
7.306922805324204
 30
0.0
 11
12.70302828675204
 21
8.424458075777636
 31
0.0
  0
LINE
  5
A71
330
9E0
100
AcDbEntity
  8
0
 62
     0
100
AcDbLine
 10
11.7711058208776
 20
9.356380541652072
 30
0.0
 11
10.61680475590822
 21
10.51068160662146
 31
0.0
  0
LINE
  5
A72
330
9E0
100
AcDbEntity
  8
0
 62
     0
100
AcDbLine
 10
16.32110582087759
 20
4.806380541652059
 30
0.0
 11
14.92110582087752
 21
6.20638054165215
 31
0.0
  0
LINE
  5
A73
330
9E0
100
AcDbEntity
  8
0
 62
     0
100
AcDbLine
 10
13.65463577755645
 20
7.023837778919728
 30
0.0
 11
12.41994326034756
 21
8.258530296128611
 31
0.0
  0
LINE
  5
A74
330
9E0
100
AcDbEntity
  8
0
 62
     0
100
AcDbLine
 10
11.7711058208776
 20
8.907367735598597
 30
0.0
 11
10.48151490230313
 21
10.19695865417307
 31
0.0
  0
LINE
  5
A75
330
9E0
100
AcDbEntity
  8
0
 62
     0
100
AcDbLine
 10
16.32110582087759
 20
4.357367735598614
 30
0.0
 11
14.92110582087755
 21
5.757367735598649
 31
0.0
  0
LINE
  5
A76
330
9E0
100
AcDbEntity
  8
0
 62
     0
100
AcDbLine
 10
11.7711058208776
 20
8.45835492954515
 30
0.0
 11
10.3941579658402
 21
9.83530278458258
 31
0.0
  0
LINE
  5
A77
330
9E0
100
AcDbEntity
  8
0
 62
     0
100
AcDbLine
 10
13.40371905648822
 20
6.825741693934559
 30
0.0
 11
12.22184717536239
 21
8.007613575060389
 31
0.0
  0
LINE
  5
A78
330
9E0
100
AcDbEntity
  8
0
 62
     0
100
AcDbLine
 10
9.058605820877572
 20
11.17085492954521
 30
0.0
 11
8.604460410973075
 21
11.62500033944971
 31
0.0
  0
LINE
  5
A79
330
9E0
100
AcDbEntity
  8
0
 62
     0
100
AcDbLine
 10
16.32110582087761
 20
3.908354929545167
 30
0.0
 11
14.92110582087758
 21
5.308354929545203
 31
0.0
  0
LINE
  5
A7A
330
9E0
100
AcDbEntity
  8
0
 62
     0
100
AcDbLine
 10
11.7711058208776
 20
8.009342123491705
 30
0.0
 11
10.37110582087757
 21
9.40934212349174
 31
0.0
  0
LINE
  5
A7B
330
9E0
100
AcDbEntity
  8
0
 62
     0
100
AcDbLine
 10
13.05355933527451
 20
6.7268886090948
 30
0.0
 11
12.12299409052263
 21
7.657453853846675
 31
0.0
  0
LINE
  5
A7C
330
9E0
100
AcDbEntity
  8
0
 62
     0
100
AcDbLine
 10
9.058605820877541
 20
10.72184212349174
 30
0.0
 11
8.155447604919601
 21
11.62500033944968
 31
0.0
  0
LINE
  5
A7D
330
9E0
100
AcDbEntity
  8
0
 62
     0
100
AcDbLine
 10
16.17715392024226
 20
3.603294024127051
 30
0.0
 11
14.92110582087755
 21
4.859342123491728
 31
0.0
  0
LINE
  5
A7E
330
9E0
100
AcDbEntity
  8
0
 62
     0
100
AcDbLine
 10
11.7711058208776
 20
7.560329317438231
 30
0.0
 11
10.37110582087757
 21
8.960329317438265
 31
0.0
  0
LINE
  5
A7F
330
9E0
100
AcDbEntity
  8
0
 62
     0
100
AcDbLine
 10
9.004088835742379
 20
10.32734630257346
 30
0.0
 11
7.706434798866097
 21
11.62500033944971
 31
0.0
  0
LINE
  5
A80
330
9E0
100
AcDbEntity
  8
0
 62
     0
100
AcDbLine
 10
15.75643479886616
 20
3.575000339449672
 30
0.0
 11
14.92110582087755
 21
4.410329317438282
 31
0.0
  0
LINE
  5
A81
330
9E0
100
AcDbEntity
  8
0
 62
     0
100
AcDbLine
 10
11.77110582087758
 20
7.111316511384785
 30
0.0
 11
10.37110582087754
 21
8.511316511384791
 31
0.0
  0
LINE
  5
A82
330
9E0
100
AcDbEntity
  8
0
 62
     0
100
AcDbLine
 10
8.657421992812713
 20
10.22500033944965
 30
0.0
 11
7.257421992812652
 21
11.62500033944971
 31
0.0
  0
LINE
  5
A83
330
9E0
100
AcDbEntity
  8
0
 62
     0
100
AcDbLine
 10
15.30742199281269
 20
3.575000339449643
 30
0.0
 11
14.92110582087755
 21
3.961316511384807
 31
0.0
  0
LINE
  5
A84
330
9E0
100
AcDbEntity
  8
0
 62
     0
100
AcDbLine
 10
11.7711058208776
 20
6.662303705331338
 30
0.0
 11
10.37110582087757
 21
8.062303705331371
 31
0.0
  0
LINE
  5
A85
330
9E0
100
AcDbEntity
  8
0
 62
     0
100
AcDbLine
 10
8.208409186759267
 20
10.22500033944965
 30
0.0
 11
6.825844550706817
 21
11.60756497550212
 31
0.0
  0
LINE
  5
A86
330
9E0
100
AcDbEntity
  8
0
 62
     0
100
AcDbLine
 10
13.6948045964591
 20
4.73860492974981
 30
0.0
 11
13.45971041117775
 21
4.973699115031195
 31
0.0
  0
LINE
  5
A87
330
9E0
100
AcDbEntity
  8
0
 62
     0
100
AcDbLine
 10
11.77110582087758
 20
6.213290899277864
 30
0.0
 11
10.37110582087757
 21
7.613290899277898
 31
0.0
  0
LINE
  5
A88
330
9E0
100
AcDbEntity
  8
0
 62
     0
100
AcDbLine
 10
7.759396380705823
 20
10.22500033944965
 30
0.0
 11
6.47927714646758
 21
11.50511957368789
 31
0.0
  0
LINE
  5
A89
330
9E0
100
AcDbEntity
  8
0
 62
     0
100
AcDbLine
 10
13.69610582087761
 20
4.288290899277853
 30
0.0
 11
13.00939638070579
 21
4.975000339449677
 31
0.0
  0
LINE
  5
A8A
330
9E0
100
AcDbEntity
  8
0
 62
     0
100
AcDbLine
 10
11.77110582087758
 20
5.764278093224419
 30
0.0
 11
10.3711058208776
 21
7.164278093224396
 31
0.0
  0
LINE
  5
A8B
330
9E0
100
AcDbEntity
  8
0
 62
     0
100
AcDbLine
 10
7.310383574652347
 20
10.22500033944962
 30
0.0
 11
6.197153816543959
 21
11.33823009755801
 31
0.0
  0
LINE
  5
A8C
330
9E0
100
AcDbEntity
  8
0
 62
     0
100
AcDbLine
 10
13.69610582087759
 20
3.839278093224378
 30
0.0
 11
12.56038357465234
 21
4.97500033944962
 31
0.0
  0
LINE
  5
A8D
330
9E0
100
AcDbEntity
  8
0
 62
     0
100
AcDbLine
 10
7.055237160845052
 20
10.03113394720352
 30
0.0
 11
5.968107410423583
 21
11.11826369762499
 31
0.0
  0
LINE
  5
A8E
330
9E0
100
AcDbEntity
  8
0
 62
     0
100
AcDbLine
 10
13.50223942863141
 20
3.584131679417168
 30
0.0
 11
10.3711058208776
 21
6.715265287170979
 31
0.0
  0
LINE
  5
A8F
330
9E0
100
AcDbEntity
  8
0
 62
     0
100
AcDbLine
 10
7.046105820877585
 20
9.591252481117519
 30
0.0
 11
5.791366809189042
 21
10.84599149280606
 31
0.0
  0
LINE
  5
A90
330
9E0
100
AcDbEntity
  8
0
 62
     0
100
AcDbLine
 10
13.06235796254546
 20
3.575000339449643
 30
0.0
 11
10.3711058208776
 21
6.266252481117503
 31
0.0
  0
LINE
  5
A91
330
9E0
100
AcDbEntity
  8
0
 62
     0
100
AcDbLine
 10
7.077173674945298
 20
9.111171820996304
 30
0.0
 11
5.675926758042179
 21
10.51241873789945
 31
0.0
  0
LINE
  5
A92
330
9E0
100
AcDbEntity
  8
0
 62
     0
100
AcDbLine
 10
12.61334515649195
 20
3.575000339449672
 30
0.0
 11
10.37110582087757
 21
5.817239675064029
 31
0.0
  0
LINE
  5
A93
330
9E0
100
AcDbEntity
  8
0
 62
     0
100
AcDbLine
 10
9.223293866488916
 20
6.516038823399269
 30
0.0
 11
5.646105820877607
 21
10.09322686901057
 31
0.0
  0
LINE
  5
A94
330
9E0
100
AcDbEntity
  8
0
 62
     0
100
AcDbLine
 10
12.13769630691018
 20
3.601636382978
 30
0.0
 11
10.3977418644059
 21
5.341590825482285
 31
0.0
  0
LINE
  5
A95
330
9E0
100
AcDbEntity
  8
0
 62
     0
100
AcDbLine
 10
9.319241123531524
 20
5.971078760303213
 30
0.0
 11
5.646105820877551
 21
9.644214062957187
 31
0.0
  0
LINE
  5
A96
330
9E0
100
AcDbEntity
  8
0
 62
     0
100
AcDbLine
 10
11.45079235060939
 20
3.839527533225321
 30
0.0
 11
10.63563301465319
 21
4.654686869181546
 31
0.0
  0
LINE
  5
A97
330
9E0
100
AcDbEntity
  8
0
 62
     0
100
AcDbLine
 10
9.321105820877619
 20
5.520201256903646
 30
0.0
 11
5.649888044588749
 21
9.191419033192488
 31
0.0
  0
LINE
  5
A98
330
9E0
100
AcDbEntity
  8
0
 62
     0
100
AcDbLine
 10
9.321105820877562
 20
5.071188450850228
 30
0.0
 11
5.761533423750678
 21
8.630760847977086
 31
0.0
  0
LINE
  5
A99
330
9E0
100
AcDbEntity
  8
0
 62
     0
100
AcDbLine
 10
9.284845822811604
 20
4.658435642862769
 30
0.0
 11
7.903150001002074
 21
6.040131464672298
 31
0.0
  0
LINE
  5
A9A
330
9E0
100
AcDbEntity
  8
0
 62
     0
100
AcDbLine
 10
9.16387685329718
 20
4.330391806323716
 30
0.0
 11
7.921105820877556
 21
5.573162838743343
 31
0.0
  0
LINE
  5
A9B
330
9E0
100
AcDbEntity
  8
0
 62
     0
100
AcDbLine
 10
8.982817229606297
 20
4.062438623961128
 30
0.0
 11
7.903156304727217
 21
5.142099548840207
 31
0.0
  0
LINE
  5
A9C
330
9E0
100
AcDbEntity
  8
0
 62
     0
100
AcDbLine
 10
8.74970404347286
 20
3.846539004041118
 30
0.0
 11
7.621242708064301
 21
4.975000339449707
 31
0.0
  0
LINE
  5
A9D
330
9E0
100
AcDbEntity
  8
0
 62
     0
100
AcDbLine
 10
8.463071819606454
 20
3.684158421854078
 30
0.0
 11
7.172229902010825
 21
4.975000339449677
 31
0.0
  0
LINE
  5
A9E
330
9E0
100
AcDbEntity
  8
0
 62
     0
100
AcDbLine
 10
8.110365525063484
 20
3.587851910343573
 30
0.0
 11
6.723217095957378
 21
4.975000339449677
 31
0.0
  0
LINE
  5
A9F
330
9E0
100
AcDbEntity
  8
0
 62
     0
100
AcDbLine
 10
7.674204289903912
 20
3.575000339449672
 30
0.0
 11
6.274204289903906
 21
4.975000339449677
 31
0.0
  0
LINE
  5
AA0
330
9E0
100
AcDbEntity
  8
0
 62
     0
100
AcDbLine
 10
7.225191483850494
 20
3.575000339449643
 30
0.0
 11
5.948529536441554
 21
4.851662286858612
 31
0.0
  0
LINE
  5
AA1
330
9E0
100
AcDbEntity
  8
0
 62
     0
100
AcDbLine
 10
6.77617867779699
 20
3.575000339449672
 30
0.0
 11
5.908605820877595
 21
4.442573196369068
 31
0.0
  0
LINE
  5
AA2
330
9E0
100
AcDbEntity
  8
0
 62
     0
100
AcDbLine
 10
6.327165871743574
 20
3.575000339449643
 30
0.0
 11
5.908605820877595
 21
3.993560390315622
 31
0.0
  0
LINE
  5
AA3
330
9E0
100
AcDbEntity
  8
0
 62
     0
100
AcDbLine
 10
34.31694946321104
 20
3.581566228008426
 30
0.0
 11
34.51453993231893
 21
3.779156697116319
 31
0.0
  0
LINE
  5
AA4
330
9E0
100
AcDbEntity
  8
0
 62
     0
100
AcDbLine
 10
33.86137076859887
 20
3.575000339449643
 30
0.0
 11
34.52110582087767
 21
4.234735391728463
 31
0.0
  0
LINE
  5
AA5
330
9E0
100
AcDbEntity
  8
0
 62
     0
100
AcDbLine
 10
33.4123579625454
 20
3.575000339449672
 30
0.0
 11
34.52110582087767
 21
4.683748197781909
 31
0.0
  0
LINE
  5
AA6
330
9E0
100
AcDbEntity
  8
0
 62
     0
100
AcDbLine
 10
33.13670460250349
 20
3.748359785461218
 30
0.0
 11
34.52110582087764
 21
5.132761003835383
 31
0.0
  0
LINE
  5
AA7
330
9E0
100
AcDbEntity
  8
0
 62
     0
100
AcDbLine
 10
33.1211058208776
 20
4.181773809888794
 30
0.0
 11
34.52110582087764
 21
5.5817738098888
 31
0.0
  0
LINE
  5
AA8
330
9E0
100
AcDbEntity
  8
0
 62
     0
100
AcDbLine
 10
33.12110582087763
 20
4.63078661594224
 30
0.0
 11
34.52110582087764
 21
6.030786615942275
 31
0.0
  0
LINE
  5
AA9
330
9E0
100
AcDbEntity
  8
0
 62
     0
100
AcDbLine
 10
33.1211058208776
 20
5.079799421995716
 30
0.0
 11
34.52110582087764
 21
6.479799421995749
 31
0.0
  0
LINE
  5
AAA
330
9E0
100
AcDbEntity
  8
0
 62
     0
100
AcDbLine
 10
33.1211058208776
 20
5.528812228049162
 30
0.0
 11
34.52110582087764
 21
6.928812228049196
 31
0.0
  0
LINE
  5
AAB
330
9E0
100
AcDbEntity
  8
0
 62
     0
100
AcDbLine
 10
31.33438825191024
 20
3.7420946590818
 30
0.0
 11
31.90401150124552
 21
4.311717908417108
 31
0.0
  0
LINE
  5
AAC
330
9E0
100
AcDbEntity
  8
0
 62
     0
100
AcDbLine
 10
33.1211058208776
 20
5.977825034102608
 30
0.0
 11
34.52110582087764
 21
7.377825034102642
 31
0.0
  0
LINE
  5
AAD
330
9E0
100
AcDbEntity
  8
0
 62
     0
100
AcDbLine
 10
30.71910416864884
 20
3.575823381873846
 30
0.0
 11
32.0702827784535
 21
4.92700199167848
 31
0.0
  0
LINE
  5
AAE
330
9E0
100
AcDbEntity
  8
0
 62
     0
100
AcDbLine
 10
33.1211058208776
 20
6.426837840156081
 30
0.0
 11
34.52110582087764
 21
7.826837840156088
 31
0.0
  0
LINE
  5
AAF
330
9E0
100
AcDbEntity
  8
0
 62
     0
100
AcDbLine
 10
30.26926832017122
 20
3.575000339449701
 30
0.0
 11
32.07110582087764
 21
5.376837840156098
 31
0.0
  0
LINE
  5
AB0
330
9E0
100
AcDbEntity
  8
0
 62
     0
100
AcDbLine
 10
33.1211058208776
 20
6.875850646209527
 30
0.0
 11
34.5211058208776
 21
8.275850646209562
 31
0.0
  0
LINE
  5
AB1
330
9E0
100
AcDbEntity
  8
0
 62
     0
100
AcDbLine
 10
29.82025551411775
 20
3.575000339449701
 30
0.0
 11
32.07110582087762
 21
5.825850646209572
 31
0.0
  0
LINE
  5
AB2
330
9E0
100
AcDbEntity
  8
0
 62
     0
100
AcDbLine
 10
33.1211058208776
 20
7.324863452262973
 30
0.0
 11
34.52110582087764
 21
8.724863452263008
 31
0.0
  0
LINE
  5
AB3
330
9E0
100
AcDbEntity
  8
0
 62
     0
100
AcDbLine
 10
29.37124270806427
 20
3.575000339449643
 30
0.0
 11
32.07110582087764
 21
6.274863452263018
 31
0.0
  0
LINE
  5
AB4
330
9E0
100
AcDbEntity
  8
0
 62
     0
100
AcDbLine
 10
30.61881021983708
 20
5.271580657275933
 30
0.0
 11
32.07110582087764
 21
6.723876258316464
 31
0.0
  0
LINE
  5
AB5
330
9E0
100
AcDbEntity
  8
0
 62
     0
100
AcDbLine
 10
33.1211058208776
 20
7.77387625831642
 30
0.0
 11
34.52110582087764
 21
9.173876258316454
 31
0.0
  0
LINE
  5
AB6
330
9E0
100
AcDbEntity
  8
0
 62
     0
100
AcDbLine
 10
28.92222990201085
 20
3.575000339449701
 30
0.0
 11
30.37452550305133
 21
5.027295940490148
 31
0.0
  0
LINE
  5
AB7
330
9E0
100
AcDbEntity
  8
0
 62
     0
100
AcDbLine
 10
30.67110582087755
 20
5.772889064369877
 30
0.0
 11
32.07110582087762
 21
7.172889064369941
 31
0.0
  0
LINE
  5
AB8
330
9E0
100
AcDbEntity
  8
0
 62
     0
100
AcDbLine
 10
33.12110582087758
 20
8.222889064369892
 30
0.0
 11
34.5211058208776
 21
9.622889064369926
 31
0.0
  0
LINE
  5
AB9
330
9E0
100
AcDbEntity
  8
0
 62
     0
100
AcDbLine
 10
28.52919197164593
 20
3.630975215138221
 30
0.0
 11
29.87321709595738
 21
4.975000339449707
 31
0.0
  0
LINE
  5
ABA
330
9E0
100
AcDbEntity
  8
0
 62
     0
100
AcDbLine
 10
30.67110582087755
 20
6.221901870423321
 30
0.0
 11
32.07110582087762
 21
7.621901870423386
 31
0.0
  0
LINE
  5
ABB
330
9E0
100
AcDbEntity
  8
0
 62
     0
100
AcDbLine
 10
33.12110582087758
 20
8.671901870423369
 30
0.0
 11
34.5211058208776
 21
10.07190187042337
 31
0.0
  0
LINE
  5
ABC
330
9E0
100
AcDbEntity
  8
0
 62
     0
100
AcDbLine
 10
28.21519853804085
 20
3.765994587586646
 30
0.0
 11
29.42464318272607
 21
4.975439232271867
 31
0.0
  0
LINE
  5
ABD
330
9E0
100
AcDbEntity
  8
0
 62
     0
100
AcDbLine
 10
30.67110582087755
 20
6.670914676476768
 30
0.0
 11
32.07110582087762
 21
8.070914676476832
 31
0.0
  0
LINE
  5
ABE
330
9E0
100
AcDbEntity
  8
0
 62
     0
100
AcDbLine
 10
33.1211058208776
 20
9.120914676476786
 30
0.0
 11
34.5211058208776
 21
10.52091467647682
 31
0.0
  0
LINE
  5
ABF
330
9E0
100
AcDbEntity
  8
0
 62
     0
100
AcDbLine
 10
27.95856859735832
 20
3.958377452957506
 30
0.0
 11
29.10290388836972
 21
5.102712743968936
 31
0.0
  0
LINE
  5
AC0
330
9E0
100
AcDbEntity
  8
0
 62
     0
100
AcDbLine
 10
30.67110582087755
 20
7.119927482530214
 30
0.0
 11
32.07110582087762
 21
8.519927482530306
 31
0.0
  0
LINE
  5
AC1
330
9E0
100
AcDbEntity
  8
0
 62
     0
100
AcDbLine
 10
33.12110582087758
 20
9.56992748253026
 30
0.0
 11
34.5211058208776
 21
10.96992748253029
 31
0.0
  0
LINE
  5
AC2
330
9E0
100
AcDbEntity
  8
0
 62
     0
100
AcDbLine
 10
27.75358650974576
 20
4.202408171398416
 30
0.0
 11
28.93428474916501
 21
5.383106410817703
 31
0.0
  0
LINE
  5
AC3
330
9E0
100
AcDbEntity
  8
0
 62
     0
100
AcDbLine
 10
30.67110582087754
 20
7.568940288583688
 30
0.0
 11
32.07110582087762
 21
8.968940288583752
 31
0.0
  0
LINE
  5
AC4
330
9E0
100
AcDbEntity
  8
0
 62
     0
100
AcDbLine
 10
33.12110582087758
 20
10.0189402885837
 30
0.0
 11
34.51603124410238
 21
11.41386571180854
 31
0.0
  0
LINE
  5
AC5
330
9E0
100
AcDbEntity
  8
0
 62
     0
100
AcDbLine
 10
27.60362407052875
 20
4.501458538234913
 30
0.0
 11
28.92110582087756
 21
5.818940288583717
 31
0.0
  0
LINE
  5
AC6
330
9E0
100
AcDbEntity
  8
0
 62
     0
100
AcDbLine
 10
30.67110582087757
 20
8.017953094637164
 30
0.0
 11
32.07110582087762
 21
9.417953094637196
 31
0.0
  0
LINE
  5
AC7
330
9E0
100
AcDbEntity
  8
0
 62
     0
100
AcDbLine
 10
33.12110582087758
 20
10.46795309463715
 30
0.0
 11
34.27747407156263
 21
11.62432134532221
 31
0.0
  0
LINE
  5
AC8
330
9E0
100
AcDbEntity
  8
0
 62
     0
100
AcDbLine
 10
27.52491730305052
 20
4.871764576810106
 30
0.0
 11
28.92110582087758
 21
6.267953094637164
 31
0.0
  0
LINE
  5
AC9
330
9E0
100
AcDbEntity
  8
0
 62
     0
100
AcDbLine
 10
30.67110582087757
 20
8.466965900690638
 30
0.0
 11
32.07110582087762
 21
9.866965900690644
 31
0.0
  0
LINE
  5
ACA
330
9E0
100
AcDbEntity
  8
0
 62
     0
100
AcDbLine
 10
33.1211058208776
 20
10.91696590069065
 30
0.0
 11
33.8291402596366
 21
11.62500033944965
 31
0.0
  0
LINE
  5
ACB
330
9E0
100
AcDbEntity
  8
0
 62
     0
100
AcDbLine
 10
27.52110582087758
 20
5.316965900690632
 30
0.0
 11
28.92110582087761
 21
6.716965900690667
 31
0.0
  0
LINE
  5
ACC
330
9E0
100
AcDbEntity
  8
0
 62
     0
100
AcDbLine
 10
30.67110582087757
 20
8.915978706744084
 30
0.0
 11
32.07110582087759
 21
10.31597870674411
 31
0.0
  0
LINE
  5
ACD
330
9E0
100
AcDbEntity
  8
0
 62
     0
100
AcDbLine
 10
27.52110582087758
 20
5.765978706744077
 30
0.0
 11
28.92110582087758
 21
7.165978706744112
 31
0.0
  0
LINE
  5
ACE
330
9E0
100
AcDbEntity
  8
0
 62
     0
100
AcDbLine
 10
33.12112917825132
 20
11.36600206411785
 30
0.0
 11
33.38010409620946
 21
11.62497698207596
 31
0.0
  0
LINE
  5
ACF
330
9E0
100
AcDbEntity
  8
0
 62
     0
100
AcDbLine
 10
25.36032800552161
 20
3.605200891388108
 30
0.0
 11
26.44090526893918
 21
4.685778154805716
 31
0.0
  0
LINE
  5
AD0
330
9E0
100
AcDbEntity
  8
0
 62
     0
100
AcDbLine
 10
27.52110582087755
 20
6.214991512797552
 30
0.0
 11
28.92110582087758
 21
7.614991512797588
 31
0.0
  0
LINE
  5
AD1
330
9E0
100
AcDbEntity
  8
0
 62
     0
100
AcDbLine
 10
30.67110582087755
 20
9.364991512797557
 30
0.0
 11
32.07110582087759
 21
10.76499151279759
 31
0.0
  0
LINE
  5
AD2
330
9E0
100
AcDbEntity
  8
0
 62
     0
100
AcDbLine
 10
24.8811146475297
 20
3.575000339449701
 30
0.0
 11
26.47110582087757
 21
5.16499151279754
 31
0.0
  0
LINE
  5
AD3
330
9E0
100
AcDbEntity
  8
0
 62
     0
100
AcDbLine
 10
27.52110582087758
 20
6.664004318850999
 30
0.0
 11
28.92110582087761
 21
8.064004318851003
 31
0.0
  0
LINE
  5
AD4
330
9E0
100
AcDbEntity
  8
0
 62
     0
100
AcDbLine
 10
30.67110582087757
 20
9.814004318850976
 30
0.0
 11
32.07110582087762
 21
11.21400431885101
 31
0.0
  0
LINE
  5
AD5
330
9E0
100
AcDbEntity
  8
0
 62
     0
100
AcDbLine
 10
24.43210184147622
 20
3.575000339449643
 30
0.0
 11
26.47110582087762
 21
5.614004318851017
 31
0.0
  0
LINE
  5
AD6
330
9E0
100
AcDbEntity
  8
0
 62
     0
100
AcDbLine
 10
27.52110582087758
 20
7.113017124904445
 30
0.0
 11
28.92110582087758
 21
8.513017124904479
 31
0.0
  0
LINE
  5
AD7
330
9E0
100
AcDbEntity
  8
0
 62
     0
100
AcDbLine
 10
30.67110582087755
 20
10.26301712490445
 30
0.0
 11
31.97423709346057
 21
11.56614839748746
 31
0.0
  0
LINE
  5
AD8
330
9E0
100
AcDbEntity
  8
0
 62
     0
100
AcDbLine
 10
23.98308903542277
 20
3.575000339449672
 30
0.0
 11
26.46394652067113
 21
6.055857824698022
 31
0.0
  0
LINE
  5
AD9
330
9E0
100
AcDbEntity
  8
0
 62
     0
100
AcDbLine
 10
27.52110582087755
 20
7.562029930957919
 30
0.0
 11
28.92110582087758
 21
8.962029930957951
 31
0.0
  0
LINE
  5
ADA
330
9E0
100
AcDbEntity
  8
0
 62
     0
100
AcDbLine
 10
30.67110582087755
 20
10.71202993095792
 30
0.0
 11
31.58407622936931
 21
11.62500033944968
 31
0.0
  0
LINE
  5
ADB
330
9E0
100
AcDbEntity
  8
0
 62
     0
100
AcDbLine
 10
23.5340762293693
 20
3.575000339449672
 30
0.0
 11
26.39649033535675
 21
6.437414445437099
 31
0.0
  0
LINE
  5
ADC
330
9E0
100
AcDbEntity
  8
0
 62
     0
100
AcDbLine
 10
27.52110582087758
 20
8.011042737011338
 30
0.0
 11
28.92110582087758
 21
9.411042737011372
 31
0.0
  0
LINE
  5
ADD
330
9E0
100
AcDbEntity
  8
0
 62
     0
100
AcDbLine
 10
25.07110582087761
 20
5.561042737011405
 30
0.0
 11
26.27619660689748
 21
6.766133523031242
 31
0.0
  0
LINE
  5
ADE
330
9E0
100
AcDbEntity
  8
0
 62
     0
100
AcDbLine
 10
30.67110582087757
 20
11.16104273701134
 30
0.0
 11
31.13506342331592
 21
11.62500033944971
 31
0.0
  0
LINE
  5
ADF
330
9E0
100
AcDbEntity
  8
0
 62
     0
100
AcDbLine
 10
23.14919109988142
 20
3.639128016015205
 30
0.0
 11
24.48506342331586
 21
4.97500033944965
 31
0.0
  0
LINE
  5
AE0
330
9E0
100
AcDbEntity
  8
0
 62
     0
100
AcDbLine
 10
25.06117053331397
 20
6.000120255501201
 30
0.0
 11
26.11444695446721
 21
7.053396676654442
 31
0.0
  0
LINE
  5
AE1
330
9E0
100
AcDbEntity
  8
0
 62
     0
100
AcDbLine
 10
27.52110582087761
 20
8.460055543064838
 30
0.0
 11
28.92110582087761
 21
9.860055543064873
 31
0.0
  0
LINE
  5
AE2
330
9E0
100
AcDbEntity
  8
0
 62
     0
100
AcDbLine
 10
23.05860582087757
 20
3.997555543064833
 30
0.0
 11
24.03605061726239
 21
4.97500033944965
 31
0.0
  0
LINE
  5
AE3
330
9E0
100
AcDbEntity
  8
0
 62
     0
100
AcDbLine
 10
24.92397811474452
 20
6.311940642985263
 30
0.0
 11
25.9165113955033
 21
7.304473923744041
 31
0.0
  0
LINE
  5
AE4
330
9E0
100
AcDbEntity
  8
0
 62
     0
100
AcDbLine
 10
27.52110582087758
 20
8.909068349118314
 30
0.0
 11
28.92110582087761
 21
10.30906834911834
 31
0.0
  0
LINE
  5
AE5
330
9E0
100
AcDbEntity
  8
0
 62
     0
100
AcDbLine
 10
23.05860582087757
 20
4.44656834911828
 30
0.0
 11
23.58703781120894
 21
4.975000339449677
 31
0.0
  0
LINE
  5
AE6
330
9E0
100
AcDbEntity
  8
0
 62
     0
100
AcDbLine
 10
27.52110582087761
 20
9.35808115517176
 30
0.0
 11
28.92110582087764
 21
10.75808115517176
 31
0.0
  0
LINE
  5
AE7
330
9E0
100
AcDbEntity
  8
0
 62
     0
100
AcDbLine
 10
24.70334066618599
 20
6.540316000480116
 30
0.0
 11
25.69329015984718
 21
7.530265494141332
 31
0.0
  0
LINE
  5
AE8
330
9E0
100
AcDbEntity
  8
0
 62
     0
100
AcDbLine
 10
24.47883426315925
 20
6.764822403506856
 30
0.0
 11
25.46878375682041
 21
7.754771897168012
 31
0.0
  0
LINE
  5
AE9
330
9E0
100
AcDbEntity
  8
0
 62
     0
100
AcDbLine
 10
27.52110582087758
 20
9.807093961225206
 30
0.0
 11
28.92110582087761
 21
11.20709396122524
 31
0.0
  0
LINE
  5
AEA
330
9E0
100
AcDbEntity
  8
0
 62
     0
100
AcDbLine
 10
21.28901219910204
 20
3.575000339449672
 30
0.0
 11
21.7461058208776
 21
4.0320939612252
 31
0.0
  0
LINE
  5
AEB
330
9E0
100
AcDbEntity
  8
0
 62
     0
100
AcDbLine
 10
24.25432786013255
 20
6.989328806533649
 30
0.0
 11
25.24427735379367
 21
7.979278300194748
 31
0.0
  0
LINE
  5
AEC
330
9E0
100
AcDbEntity
  8
0
 62
     0
100
AcDbLine
 10
27.52110582087758
 20
10.25610676727868
 30
0.0
 11
28.82801536682828
 21
11.56301631322935
 31
0.0
  0
LINE
  5
AED
330
9E0
100
AcDbEntity
  8
0
 62
     0
100
AcDbLine
 10
20.8399993930486
 20
3.575000339449672
 30
0.0
 11
21.74610582087757
 21
4.481106767278673
 31
0.0
  0
LINE
  5
AEE
330
9E0
100
AcDbEntity
  8
0
 62
     0
100
AcDbLine
 10
24.02982145710578
 20
7.213835209560328
 30
0.0
 11
25.01977095076694
 21
8.203784703221487
 31
0.0
  0
LINE
  5
AEF
330
9E0
100
AcDbEntity
  8
0
 62
     0
100
AcDbLine
 10
27.52110582087758
 20
10.70511957333212
 30
0.0
 11
28.44098658699513
 21
11.62500033944971
 31
0.0
  0
LINE
  5
AF0
330
9E0
100
AcDbEntity
  8
0
 62
     0
100
AcDbLine
 10
20.44679215592609
 20
3.630805908380636
 30
0.0
 11
21.7461058208776
 21
4.930119573332176
 31
0.0
  0
LINE
  5
AF1
330
9E0
100
AcDbEntity
  8
0
 62
     0
100
AcDbLine
 10
23.80531505407907
 20
7.438341612587037
 30
0.0
 11
24.79526454774023
 21
8.428291106248195
 31
0.0
  0
LINE
  5
AF2
330
9E0
100
AcDbEntity
  8
0
 62
     0
100
AcDbLine
 10
27.52110582087758
 20
11.15413237938557
 30
0.0
 11
27.99197378094172
 21
11.62500033944968
 31
0.0
  0
LINE
  5
AF3
330
9E0
100
AcDbEntity
  8
0
 62
     0
100
AcDbLine
 10
20.34610582087756
 20
3.979132379385531
 30
0.0
 11
21.74610582087763
 21
5.379132379385595
 31
0.0
  0
LINE
  5
AF4
330
9E0
100
AcDbEntity
  8
0
 62
     0
100
AcDbLine
 10
23.58080865105232
 20
7.662848015613775
 30
0.0
 11
24.57075814471349
 21
8.652797509274932
 31
0.0
  0
LINE
  5
AF5
330
9E0
100
AcDbEntity
  8
0
 62
     0
100
AcDbLine
 10
20.34610582087759
 20
4.428145185439035
 30
0.0
 11
21.7461058208776
 21
5.828145185439067
 31
0.0
  0
LINE
  5
AF6
330
9E0
100
AcDbEntity
  8
0
 62
     0
100
AcDbLine
 10
23.35731670053167
 20
7.888368871146609
 30
0.0
 11
24.34930346722268
 21
8.880355637837595
 31
0.0
  0
LINE
  5
AF7
330
9E0
100
AcDbEntity
  8
0
 62
     0
100
AcDbLine
 10
20.34610582087756
 20
4.877157991492508
 30
0.0
 11
21.7461058208776
 21
6.277157991492543
 31
0.0
  0
LINE
  5
AF8
330
9E0
100
AcDbEntity
  8
0
 62
     0
100
AcDbLine
 10
25.69394816883476
 20
10.22500033944967
 30
0.0
 11
26.20860582087757
 21
10.73965799149252
 31
0.0
  0
LINE
  5
AF9
330
9E0
100
AcDbEntity
  8
0
 62
     0
100
AcDbLine
 10
19.0997777085225
 20
3.630829879137421
 30
0.0
 11
19.14460388925002
 21
3.675656059864961
 31
0.0
  0
LINE
  5
AFA
330
9E0
100
AcDbEntity
  8
0
 62
     0
100
AcDbLine
 10
23.15831561112068
 20
8.138380587789043
 30
0.0
 11
24.20813274982998
 21
9.188197726498344
 31
0.0
  0
LINE
  5
AFB
330
9E0
100
AcDbEntity
  8
0
 62
     0
100
AcDbLine
 10
20.34610582087759
 20
5.326170797545926
 30
0.0
 11
21.74610582087763
 21
6.726170797545961
 31
0.0
  0
LINE
  5
AFC
330
9E0
100
AcDbEntity
  8
0
 62
     0
100
AcDbLine
 10
25.24493536278132
 20
10.22500033944967
 30
0.0
 11
26.20860582087761
 21
11.18867079754592
 31
0.0
  0
LINE
  5
AFD
330
9E0
100
AcDbEntity
  8
0
 62
     0
100
AcDbLine
 10
18.59493536278128
 20
3.575000339449643
 30
0.0
 11
19.12782491093452
 21
4.10788988760285
 31
0.0
  0
LINE
  5
AFE
330
9E0
100
AcDbEntity
  8
0
 62
     0
100
AcDbLine
 10
22.99539847892233
 20
8.424476261644173
 30
0.0
 11
24.19610582087765
 21
9.625183603599452
 31
0.0
  0
LINE
  5
AFF
330
9E0
100
AcDbEntity
  8
0
 62
     0
100
AcDbLine
 10
20.34610582087756
 20
5.775183603599401
 30
0.0
 11
21.7461058208776
 21
7.175183603599434
 31
0.0
  0
LINE
  5
B00
330
9E0
100
AcDbEntity
  8
0
 62
     0
100
AcDbLine
 10
24.79592255672788
 20
10.22500033944967
 30
0.0
 11
26.12527135497868
 21
11.55434913770051
 31
0.0
  0
LINE
  5
B01
330
9E0
100
AcDbEntity
  8
0
 62
     0
100
AcDbLine
 10
18.14592255672783
 20
3.575000339449643
 30
0.0
 11
19.0200618374817
 21
4.449139620203538
 31
0.0
  0
LINE
  5
B02
330
9E0
100
AcDbEntity
  8
0
 62
     0
100
AcDbLine
 10
20.34610582087756
 20
6.224196409652875
 30
0.0
 11
21.7461058208776
 21
7.62419640965288
 31
0.0
  0
LINE
  5
B03
330
9E0
100
AcDbEntity
  8
0
 62
     0
100
AcDbLine
 10
22.87370744758729
 20
8.751798036362599
 30
0.0
 11
25.74690975067443
 21
11.62500033944971
 31
0.0
  0
LINE
  5
B04
330
9E0
100
AcDbEntity
  8
0
 62
     0
100
AcDbLine
 10
17.84991540140029
 20
3.728005990175602
 30
0.0
 11
18.91229876402886
 21
4.790389352804169
 31
0.0
  0
LINE
  5
B05
330
9E0
100
AcDbEntity
  8
0
 62
     0
100
AcDbLine
 10
20.34610582087756
 20
6.673209215706322
 30
0.0
 11
21.74610582087757
 21
8.073209215706356
 31
0.0
  0
LINE
  5
B06
330
9E0
100
AcDbEntity
  8
0
 62
     0
100
AcDbLine
 10
22.80435401804445
 20
9.131457412873231
 30
0.0
 11
25.29789694462095
 21
11.62500033944974
 31
0.0
  0
LINE
  5
B07
330
9E0
100
AcDbEntity
  8
0
 62
     0
100
AcDbLine
 10
17.74053569057599
 20
4.067639085404778
 30
0.0
 11
18.80453569057598
 21
5.131639085404771
 31
0.0
  0
LINE
  5
B08
330
9E0
100
AcDbEntity
  8
0
 62
     0
100
AcDbLine
 10
20.34610582087756
 20
7.122222021759767
 30
0.0
 11
21.7461058208776
 21
8.522222021759803
 31
0.0
  0
LINE
  5
B09
330
9E0
100
AcDbEntity
  8
0
 62
     0
100
AcDbLine
 10
22.79610582087761
 20
9.572222021759783
 30
0.0
 11
24.84888413856748
 21
11.62500033944968
 31
0.0
  0
LINE
  5
B0A
330
9E0
100
AcDbEntity
  8
0
 62
     0
100
AcDbLine
 10
17.63277261712318
 20
4.40888881800538
 30
0.0
 11
18.69677261712323
 21
5.4728888180054
 31
0.0
  0
LINE
  5
B0B
330
9E0
100
AcDbEntity
  8
0
 62
     0
100
AcDbLine
 10
20.34610582087759
 20
7.571234827813269
 30
0.0
 11
21.7461058208776
 21
8.971234827813248
 31
0.0
  0
LINE
  5
B0C
330
9E0
100
AcDbEntity
  8
0
 62
     0
100
AcDbLine
 10
22.79610582087757
 20
10.02123482781325
 30
0.0
 11
24.39987133251404
 21
11.62500033944968
 31
0.0
  0
LINE
  5
B0D
330
9E0
100
AcDbEntity
  8
0
 62
     0
100
AcDbLine
 10
17.5250095436703
 20
4.750138550605981
 30
0.0
 11
18.58900954367038
 21
5.814138550606031
 31
0.0
  0
LINE
  5
B0E
330
9E0
100
AcDbEntity
  8
0
 62
     0
100
AcDbLine
 10
20.34610582087759
 20
8.020247633866715
 30
0.0
 11
21.74610582087757
 21
9.420247633866722
 31
0.0
  0
LINE
  5
B0F
330
9E0
100
AcDbEntity
  8
0
 62
     0
100
AcDbLine
 10
17.41724647021749
 20
5.091388283206639
 30
0.0
 11
18.48124647021754
 21
6.155388283206661
 31
0.0
  0
LINE
  5
B10
330
9E0
100
AcDbEntity
  8
0
 62
     0
100
AcDbLine
 10
22.82276415593821
 20
10.49690596892736
 30
0.0
 11
23.92420019139987
 21
11.59834200438902
 31
0.0
  0
LINE
  5
B11
330
9E0
100
AcDbEntity
  8
0
 62
     0
100
AcDbLine
 10
15.90085852646055
 20
3.575000339449672
 30
0.0
 11
16.32110582087759
 21
3.995247633866738
 31
0.0
  0
LINE
  5
B12
330
9E0
100
AcDbEntity
  8
0
 62
     0
100
AcDbLine
 10
17.30948339676469
 20
5.432638015807242
 30
0.0
 11
18.37348339676466
 21
6.496638015807235
 31
0.0
  0
LINE
  5
B13
330
9E0
100
AcDbEntity
  8
0
 62
     0
100
AcDbLine
 10
20.34610582087759
 20
8.469260439920162
 30
0.0
 11
21.7461058208776
 21
9.86926043992014
 31
0.0
  0
LINE
  5
B14
330
9E0
100
AcDbEntity
  8
0
 62
     0
100
AcDbLine
 10
15.4518457204071
 20
3.575000339449672
 30
0.0
 11
16.32110582087761
 21
4.444260439920184
 31
0.0
  0
LINE
  5
B15
330
9E0
100
AcDbEntity
  8
0
 62
     0
100
AcDbLine
 10
17.20172032331186
 20
5.773887748407871
 30
0.0
 11
18.26572032331188
 21
6.837887748407922
 31
0.0
  0
LINE
  5
B16
330
9E0
100
AcDbEntity
  8
0
 62
     0
100
AcDbLine
 10
20.34610582087759
 20
8.918273245973637
 30
0.0
 11
21.74610582087757
 21
10.31827324597361
 31
0.0
  0
LINE
  5
B17
330
9E0
100
AcDbEntity
  8
0
 62
     0
100
AcDbLine
 10
15.04340778817925
 20
3.615575213275291
 30
0.0
 11
16.32110582087761
 21
4.893273245973631
 31
0.0
  0
LINE
  5
B18
330
9E0
100
AcDbEntity
  8
0
 62
     0
100
AcDbLine
 10
17.09395724985895
 20
6.115137481008473
 30
0.0
 11
18.15795724985903
 21
7.179137481008551
 31
0.0
  0
LINE
  5
B19
330
9E0
100
AcDbEntity
  8
0
 62
     0
100
AcDbLine
 10
20.34610582087759
 20
9.367286052027083
 30
0.0
 11
21.74610582087757
 21
10.76728605202708
 31
0.0
  0
LINE
  5
B1A
330
9E0
100
AcDbEntity
  8
0
 62
     0
100
AcDbLine
 10
14.92110582087755
 20
3.942286052027071
 30
0.0
 11
16.32110582087759
 21
5.342286052027105
 31
0.0
  0
LINE
  5
B1B
330
9E0
100
AcDbEntity
  8
0
 62
     0
100
AcDbLine
 10
16.9861941764062
 20
6.456387213609103
 30
0.0
 11
18.05019417640622
 21
7.520387213609152
 31
0.0
  0
LINE
  5
B1C
330
9E0
100
AcDbEntity
  8
0
 62
     0
100
AcDbLine
 10
20.34610582087759
 20
9.816298858080527
 30
0.0
 11
21.74610582087757
 21
11.2162988580805
 31
0.0
  0
LINE
  5
B1D
330
9E0
100
AcDbEntity
  8
0
 62
     0
100
AcDbLine
 10
14.92110582087758
 20
4.391298858080516
 30
0.0
 11
16.32110582087761
 21
5.791298858080523
 31
0.0
  0
LINE
  5
B1E
330
9E0
100
AcDbEntity
  8
0
 62
     0
100
AcDbLine
 10
16.86879478292033
 20
6.788000626176739
 30
0.0
 11
18.18394181688577
 21
8.103147660142182
 31
0.0
  0
LINE
  5
B1F
330
9E0
100
AcDbEntity
  8
0
 62
     0
100
AcDbLine
 10
20.34610582087759
 20
10.26531166413397
 30
0.0
 11
21.6479681096284
 21
11.56717395288478
 31
0.0
  0
LINE
  5
B20
330
9E0
100
AcDbEntity
  8
0
 62
     0
100
AcDbLine
 10
14.92110582087758
 20
4.840311664133962
 30
0.0
 11
16.32110582087759
 21
6.240311664133996
 31
0.0
  0
LINE
  5
B21
330
9E0
100
AcDbEntity
  8
0
 62
     0
100
AcDbLine
 10
16.52520209798663
 20
6.893420747296516
 30
0.0
 11
18.39117849660274
 21
8.759397145912629
 31
0.0
  0
LINE
  5
B22
330
9E0
100
AcDbEntity
  8
0
 62
     0
100
AcDbLine
 10
14.92110582087755
 20
5.289324470187438
 30
0.0
 11
16.32768541303076
 21
6.695904062340615
 31
0.0
  0
LINE
  5
B23
330
9E0
100
AcDbEntity
  8
0
 62
     0
100
AcDbLine
 10
20.34610582087756
 20
10.71432447018745
 30
0.0
 11
21.2567816901398
 21
11.62500033944968
 31
0.0
  0
LINE
  5
B24
330
9E0
100
AcDbEntity
  8
0
 62
     0
100
AcDbLine
 10
13.20678169013979
 20
3.575000339449643
 30
0.0
 11
13.69610582087761
 21
4.0643244701875
 31
0.0
  0
LINE
  5
B25
330
9E0
100
AcDbEntity
  8
0
 62
     0
100
AcDbLine
 10
14.92110582087755
 20
5.738337276240883
 30
0.0
 11
18.59841517631972
 21
9.415646631683046
 31
0.0
  0
LINE
  5
B26
330
9E0
100
AcDbEntity
  8
0
 62
     0
100
AcDbLine
 10
20.34610582087759
 20
11.16333727624095
 30
0.0
 11
20.80776888408633
 21
11.62500033944968
 31
0.0
  0
LINE
  5
B27
330
9E0
100
AcDbEntity
  8
0
 62
     0
100
AcDbLine
 10
12.75776888408631
 20
3.575000339449672
 30
0.0
 11
13.69610582087761
 21
4.513337276240973
 31
0.0
  0
LINE
  5
B28
330
9E0
100
AcDbEntity
  8
0
 62
     0
100
AcDbLine
 10
14.92110582087755
 20
6.187350082294329
 30
0.0
 11
18.80565185603674
 21
10.07189611745349
 31
0.0
  0
LINE
  5
B29
330
9E0
100
AcDbEntity
  8
0
 62
     0
100
AcDbLine
 10
12.31459639020792
 20
3.580840651624696
 30
0.0
 11
13.62543867907453
 21
4.891682940491278
 31
0.0
  0
LINE
  5
B2A
330
9E0
100
AcDbEntity
  8
0
 62
     0
100
AcDbLine
 10
14.92110582087755
 20
6.636362888347803
 30
0.0
 11
16.58474327197942
 21
8.300000339449667
 31
0.0
  0
LINE
  5
B2B
330
9E0
100
AcDbEntity
  8
0
 62
     0
100
AcDbLine
 10
16.96673468959977
 20
8.681991757070022
 30
0.0
 11
19.01288853575374
 21
10.72814560322396
 31
0.0
  0
LINE
  5
B2C
330
9E0
100
AcDbEntity
  8
0
 62
     0
100
AcDbLine
 10
11.93051613148443
 20
3.645773198954656
 30
0.0
 11
13.25974327197946
 21
4.975000339449677
 31
0.0
  0
LINE
  5
B2D
330
9E0
100
AcDbEntity
  8
0
 62
     0
100
AcDbLine
 10
14.92110582087758
 20
7.085375694401307
 30
0.0
 11
16.33010110623175
 21
8.494370979755442
 31
0.0
  0
LINE
  5
B2E
330
9E0
100
AcDbEntity
  8
0
 62
     0
100
AcDbLine
 10
17.17397136931674
 20
9.338241242840439
 30
0.0
 11
19.20042426165443
 21
11.36469413517815
 31
0.0
  0
LINE
  5
B2F
330
9E0
100
AcDbEntity
  8
0
 62
     0
100
AcDbLine
 10
11.59994900307123
 20
3.764218876594951
 30
0.0
 11
12.81073046592598
 21
4.975000339449707
 31
0.0
  0
LINE
  5
B30
330
9E0
100
AcDbEntity
  8
0
 62
     0
100
AcDbLine
 10
14.92110582087761
 20
7.534388500454723
 30
0.0
 11
16.32110582087761
 21
8.934388500454758
 31
0.0
  0
LINE
  5
B31
330
9E0
100
AcDbEntity
  8
0
 62
     0
100
AcDbLine
 10
17.38120804903371
 20
9.994490728610855
 30
0.0
 11
19.00341832536983
 21
11.61670100494697
 31
0.0
  0
LINE
  5
B32
330
9E0
100
AcDbEntity
  8
0
 62
     0
100
AcDbLine
 10
11.31114736098908
 20
3.924430040566193
 30
0.0
 11
12.36917829023551
 21
4.982460969812648
 31
0.0
  0
LINE
  5
B33
330
9E0
100
AcDbEntity
  8
0
 62
     0
100
AcDbLine
 10
14.92110582087758
 20
7.983401306508199
 30
0.0
 11
16.32110582087761
 21
9.383401306508233
 31
0.0
  0
LINE
  5
B34
330
9E0
100
AcDbEntity
  8
0
 62
     0
100
AcDbLine
 10
17.58844472875071
 20
10.65074021438132
 30
0.0
 11
18.56270485381907
 21
11.62500033944968
 31
0.0
  0
LINE
  5
B35
330
9E0
100
AcDbEntity
  8
0
 62
     0
100
AcDbLine
 10
11.05866987779805
 20
4.120965363428638
 30
0.0
 11
12.05202021972636
 21
5.114315705356943
 31
0.0
  0
LINE
  5
B36
330
9E0
100
AcDbEntity
  8
0
 62
     0
100
AcDbLine
 10
14.92110582087758
 20
8.432414112561643
 30
0.0
 11
16.32110582087761
 21
9.83241411256168
 31
0.0
  0
LINE
  5
B37
330
9E0
100
AcDbEntity
  8
0
 62
     0
100
AcDbLine
 10
13.25192288676584
 20
6.763231178449927
 30
0.0
 11
13.83287498187738
 21
7.344183273561469
 31
0.0
  0
LINE
  5
B38
330
9E0
100
AcDbEntity
  8
0
 62
     0
100
AcDbLine
 10
17.79568140846768
 20
11.30698970015177
 30
0.0
 11
18.11369204776562
 21
11.62500033944971
 31
0.0
  0
LINE
  5
B39
330
9E0
100
AcDbEntity
  8
0
 62
     0
100
AcDbLine
 10
10.84045134113313
 20
4.35175963281722
 30
0.0
 11
11.84689474409026
 21
5.358203035774351
 31
0.0
  0
LINE
  5
B3A
330
9E0
100
AcDbEntity
  8
0
 62
     0
100
AcDbLine
 10
12.78943646595092
 20
6.74975756368849
 30
0.0
 11
13.84634859663882
 21
7.806669694376353
 31
0.0
  0
LINE
  5
B3B
330
9E0
100
AcDbEntity
  8
0
 62
     0
100
AcDbLine
 10
14.92110582087755
 20
8.881426918615119
 30
0.0
 11
16.32110582087759
 21
10.28142691861515
 31
0.0
  0
LINE
  5
B3C
330
9E0
100
AcDbEntity
  8
0
 62
     0
100
AcDbLine
 10
10.65694172866165
 20
4.617262826399183
 30
0.0
 11
11.7711058208776
 21
5.731426918615169
 31
0.0
  0
LINE
  5
B3D
330
9E0
100
AcDbEntity
  8
0
 62
     0
100
AcDbLine
 10
12.48236318124082
 20
6.891697085031778
 30
0.0
 11
13.7044090752955
 21
8.113742979086481
 31
0.0
  0
LINE
  5
B3E
330
9E0
100
AcDbEntity
  8
0
 62
     0
100
AcDbLine
 10
14.92110582087758
 20
9.330439724668565
 30
0.0
 11
16.32110582087761
 21
10.73043972466857
 31
0.0
  0
LINE
  5
B3F
330
9E0
100
AcDbEntity
  8
0
 62
     0
100
AcDbLine
 10
10.51128297369928
 20
4.920616877490259
 30
0.0
 11
11.7711058208776
 21
6.180439724668587
 31
0.0
  0
LINE
  5
B40
330
9E0
100
AcDbEntity
  8
0
 62
     0
100
AcDbLine
 10
12.26338321774596
 20
7.121729927590422
 30
0.0
 11
13.47437623273688
 21
8.332722942581312
 31
0.0
  0
LINE
  5
B41
330
9E0
100
AcDbEntity
  8
0
 62
     0
100
AcDbLine
 10
14.92110582087758
 20
9.779452530722011
 30
0.0
 11
16.32110582087759
 21
11.17945253072204
 31
0.0
  0
LINE
  5
B42
330
9E0
100
AcDbEntity
  8
0
 62
     0
100
AcDbLine
 10
10.41071429161195
 20
5.269061001456407
 30
0.0
 11
11.7711058208776
 21
6.629452530722062
 31
0.0
  0
LINE
  5
B43
330
9E0
100
AcDbEntity
  8
0
 62
     0
100
AcDbLine
 10
12.13535785154178
 20
7.442717367439684
 30
0.0
 11
13.15338879288759
 21
8.460748308785525
 31
0.0
  0
LINE
  5
B44
330
9E0
100
AcDbEntity
  8
0
 62
     0
100
AcDbLine
 10
10.37110582087751
 20
5.678465336775444
 30
0.0
 11
11.7711058208776
 21
7.078465336775507
 31
0.0
  0
LINE
  5
B45
330
9E0
100
AcDbEntity
  8
0
 62
     0
100
AcDbLine
 10
14.92110582087755
 20
10.22846533677548
 30
0.0
 11
16.24248076670005
 21
11.54984028259798
 31
0.0
  0
LINE
  5
B46
330
9E0
100
AcDbEntity
  8
0
 62
     0
100
AcDbLine
 10
8.328107441939776
 20
3.635466957837707
 30
0.0
 11
9.260639202489642
 21
4.56799871838757
 31
0.0
  0
LINE
  5
B47
330
9E0
100
AcDbEntity
  8
0
 62
     0
100
AcDbLine
 10
12.19456439328217
 20
7.950936715233523
 30
0.0
 11
12.64516944509378
 21
8.401541767045131
 31
0.0
  0
LINE
  5
B48
330
9E0
100
AcDbEntity
  8
0
 62
     0
100
AcDbLine
 10
10.37110582087754
 20
6.12747814282889
 30
0.0
 11
11.7711058208776
 21
7.527478142828954
 31
0.0
  0
LINE
  5
B49
330
9E0
100
AcDbEntity
  8
0
 62
     0
100
AcDbLine
 10
14.92110582087758
 20
10.6774781428289
 30
0.0
 11
15.86862801749836
 21
11.62500033944971
 31
0.0
  0
LINE
  5
B4A
330
9E0
100
AcDbEntity
  8
0
 62
     0
100
AcDbLine
 10
7.818628017498297
 20
3.575000339449643
 30
0.0
 11
9.321105820877619
 21
5.077478142828964
 31
0.0
  0
LINE
  5
B4B
330
9E0
100
AcDbEntity
  8
0
 62
     0
100
AcDbLine
 10
10.37110582087754
 20
6.576490948882337
 30
0.0
 11
11.7711058208776
 21
7.976490948882426
 31
0.0
  0
LINE
  5
B4C
330
9E0
100
AcDbEntity
  8
0
 62
     0
100
AcDbLine
 10
14.92110582087755
 20
11.12649094888237
 30
0.0
 11
15.41961521144486
 21
11.62500033944968
 31
0.0
  0
LINE
  5
B4D
330
9E0
100
AcDbEntity
  8
0
 62
     0
100
AcDbLine
 10
7.369615211444852
 20
3.575000339449643
 30
0.0
 11
9.321105820877619
 21
5.52649094888244
 31
0.0
  0
LINE
  5
B4E
330
9E0
100
AcDbEntity
  8
0
 62
     0
100
AcDbLine
 10
10.37110582087751
 20
7.025503754935813
 30
0.0
 11
11.77110582087758
 21
8.425503754935872
 31
0.0
  0
LINE
  5
B4F
330
9E0
100
AcDbEntity
  8
0
 62
     0
100
AcDbLine
 10
6.920602405391378
 20
3.575000339449672
 30
0.0
 11
9.319136144597024
 21
5.973534078655317
 31
0.0
  0
LINE
  5
B50
330
9E0
100
AcDbEntity
  8
0
 62
     0
100
AcDbLine
 10
10.37110582087757
 20
7.474516560989313
 30
0.0
 11
11.7711058208776
 21
8.87451656098935
 31
0.0
  0
LINE
  5
B51
330
9E0
100
AcDbEntity
  8
0
 62
     0
100
AcDbLine
 10
13.12158959933796
 20
10.2250003394497
 30
0.0
 11
13.69610582087764
 21
10.79951656098936
 31
0.0
  0
LINE
  5
B52
330
9E0
100
AcDbEntity
  8
0
 62
     0
100
AcDbLine
 10
6.471589599337931
 20
3.575000339449672
 30
0.0
 11
9.264305226436363
 21
6.367715966548103
 31
0.0
  0
LINE
  5
B53
330
9E0
100
AcDbEntity
  8
0
 62
     0
100
AcDbLine
 10
10.37110582087757
 20
7.92352936704276
 30
0.0
 11
11.7711058208776
 21
9.323529367042764
 31
0.0
  0
LINE
  5
B54
330
9E0
100
AcDbEntity
  8
0
 62
     0
100
AcDbLine
 10
7.921105820877585
 20
5.473529367042771
 30
0.0
 11
9.153135854414301
 21
6.705559400579486
 31
0.0
  0
LINE
  5
B55
330
9E0
100
AcDbEntity
  8
0
 62
     0
100
AcDbLine
 10
12.67257679328452
 20
10.22500033944967
 30
0.0
 11
13.69610582087761
 21
11.2485293670428
 31
0.0
  0
LINE
  5
B56
330
9E0
100
AcDbEntity
  8
0
 62
     0
100
AcDbLine
 10
6.051439730914437
 20
3.603863277079625
 30
0.0
 11
7.42257679328452
 21
4.975000339449677
 31
0.0
  0
LINE
  5
B57
330
9E0
100
AcDbEntity
  8
0
 62
     0
100
AcDbLine
 10
10.37110582087754
 20
8.372542173096206
 30
0.0
 11
11.85401317376744
 21
9.855449525986101
 31
0.0
  0
LINE
  5
B58
330
9E0
100
AcDbEntity
  8
0
 62
     0
100
AcDbLine
 10
7.920026275072983
 20
5.921462627291617
 30
0.0
 11
8.998920087078289
 21
7.000356439296949
 31
0.0
  0
LINE
  5
B59
330
9E0
100
AcDbEntity
  8
0
 62
     0
100
AcDbLine
 10
12.14065663434121
 20
10.14209298655987
 30
0.0
 11
13.57937211341772
 21
11.58080846563635
 31
0.0
  0
LINE
  5
B5A
330
9E0
100
AcDbEntity
  8
0
 62
     0
100
AcDbLine
 10
5.908605820877567
 20
3.910042173096228
 30
0.0
 11
6.973563987231044
 21
4.975000339449707
 31
0.0
  0
LINE
  5
B5B
330
9E0
100
AcDbEntity
  8
0
 62
     0
100
AcDbLine
 10
7.810224765322629
 20
6.260673923594764
 30
0.0
 11
8.807799104658839
 21
7.258248262930976
 31
0.0
  0
LINE
  5
B5C
330
9E0
100
AcDbEntity
  8
0
 62
     0
100
AcDbLine
 10
10.37110582087754
 20
8.821554979149681
 30
0.0
 11
13.17455118117757
 21
11.62500033944971
 31
0.0
  0
LINE
  5
B5D
330
9E0
100
AcDbEntity
  8
0
 62
     0
100
AcDbLine
 10
5.908605820877567
 20
4.359054979149703
 30
0.0
 11
6.524551181177542
 21
4.975000339449677
 31
0.0
  0
LINE
  5
B5E
330
9E0
100
AcDbEntity
  8
0
 62
     0
100
AcDbLine
 10
7.597097351170218
 20
6.496559315495772
 30
0.0
 11
8.587046844831462
 21
7.486508809157014
 31
0.0
  0
LINE
  5
B5F
330
9E0
100
AcDbEntity
  8
0
 62
     0
100
AcDbLine
 10
10.37110582087757
 20
9.270567785203098
 30
0.0
 11
12.72553837512413
 21
11.62500033944968
 31
0.0
  0
LINE
  5
B60
330
9E0
100
AcDbEntity
  8
0
 62
     0
100
AcDbLine
 10
5.943081781887484
 20
4.842543746213038
 30
0.0
 11
6.041062414114293
 21
4.940524378439846
 31
0.0
  0
LINE
  5
B61
330
9E0
100
AcDbEntity
  8
0
 62
     0
100
AcDbLine
 10
10.38109337795586
 20
9.729568148334863
 30
0.0
 11
12.26653801199236
 21
11.61501278237139
 31
0.0
  0
LINE
  5
B62
330
9E0
100
AcDbEntity
  8
0
 62
     0
100
AcDbLine
 10
7.372590948143539
 20
6.721065718522567
 30
0.0
 11
8.362540441804725
 21
7.711015212183752
 31
0.0
  0
LINE
  5
B63
330
9E0
100
AcDbEntity
  8
0
 62
     0
100
AcDbLine
 10
10.53082509408875
 20
10.32831267052125
 30
0.0
 11
11.667793489806
 21
11.4652810662385
 31
0.0
  0
LINE
  5
B64
330
9E0
100
AcDbEntity
  8
0
 62
     0
100
AcDbLine
 10
7.148084545116802
 20
6.945572121549303
 30
0.0
 11
8.138034038777986
 21
7.93552161521049
 31
0.0
  0
LINE
  5
B65
330
9E0
100
AcDbEntity
  8
0
 62
     0
100
AcDbLine
 10
6.923578142090092
 20
7.170078524576013
 30
0.0
 11
7.913527635751278
 21
8.160028018237197
 31
0.0
  0
LINE
  5
B66
330
9E0
100
AcDbEntity
  8
0
 62
     0
100
AcDbLine
 10
6.699071739063356
 20
7.39458492760275
 30
0.0
 11
7.689021232724542
 21
8.384534421263936
 31
0.0
  0
LINE
  5
B67
330
9E0
100
AcDbEntity
  8
0
 62
     0
100
AcDbLine
 10
6.474565336036563
 20
7.619091330629429
 30
0.0
 11
7.464514829697803
 21
8.609040824290673
 31
0.0
  0
LINE
  5
B68
330
9E0
100
AcDbEntity
  8
0
 62
     0
100
AcDbLine
 10
8.631461538803362
 20
10.2250003394497
 30
0.0
 11
9.058605820877541
 21
10.65214462152388
 31
0.0
  0
LINE
  5
B69
330
9E0
100
AcDbEntity
  8
0
 62
     0
100
AcDbLine
 10
6.250100590023946
 20
7.84363939067029
 30
0.0
 11
7.240133411740174
 21
8.833672212386517
 31
0.0
  0
LINE
  5
B6A
330
9E0
100
AcDbEntity
  8
0
 62
     0
100
AcDbLine
 10
8.18244873274989
 20
10.22500033944965
 30
0.0
 11
9.058605820877602
 21
11.10115742757736
 31
0.0
  0
LINE
  5
B6B
330
9E0
100
AcDbEntity
  8
0
 62
     0
100
AcDbLine
 10
6.044366627748161
 20
8.086918234447892
 30
0.0
 11
7.075184971096205
 21
9.117736577795966
 31
0.0
  0
LINE
  5
B6C
330
9E0
100
AcDbEntity
  8
0
 62
     0
100
AcDbLine
 10
7.733435926696472
 20
10.22500033944967
 30
0.0
 11
9.01532637099703
 21
11.50689078375026
 31
0.0
  0
LINE
  5
B6D
330
9E0
100
AcDbEntity
  8
0
 62
     0
100
AcDbLine
 10
5.874136324616928
 20
8.365700737370133
 30
0.0
 11
7.046105820877585
 21
9.537670233630819
 31
0.0
  0
LINE
  5
B6E
330
9E0
100
AcDbEntity
  8
0
 62
     0
100
AcDbLine
 10
7.283189796057911
 20
10.22376701486459
 30
0.0
 11
8.684423120643003
 21
11.62500033944968
 31
0.0
  0
LINE
  5
B6F
330
9E0
100
AcDbEntity
  8
0
 62
     0
100
AcDbLine
 10
5.743789676750878
 20
8.684366895557557
 30
0.0
 11
7.047339145462673
 21
9.987916364269381
 31
0.0
  0
LINE
  5
B70
330
9E0
100
AcDbEntity
  8
0
 62
     0
100
AcDbLine
 10
5.662883695626844
 20
9.052473720486972
 30
0.0
 11
8.235410314589557
 21
11.62500033944968
 31
0.0
  0
LINE
  5
B71
330
9E0
100
AcDbEntity
  8
0
 62
     0
100
AcDbLine
 10
5.646105820877607
 20
9.484708651791178
 30
0.0
 11
7.786397508536082
 21
11.62500033944968
 31
0.0
  0
LINE
  5
B72
330
9E0
100
AcDbEntity
  8
0
 62
     0
100
AcDbLine
 10
5.646105820877579
 20
9.933721457844654
 30
0.0
 11
7.337384702482637
 21
11.62500033944968
 31
0.0
  0
LINE
  5
B73
330
9E0
100
AcDbEntity
  8
0
 62
     0
100
AcDbLine
 10
5.656201826096746
 20
10.39283026911727
 30
0.0
 11
6.878275891210051
 21
11.61490433423057
 31
0.0
  0
ENDBLK
  5
B75
330
9E0
100
AcDbEntity
  8
0
100
AcDbBlockEnd
  0
BLOCK
  5
3F8E
330
3F84
100
AcDbEntity
  8
0
100
AcDbBlockBegin
  2
*D2
 70
     1
 10
0.0
 20
0.0
 30
0.0
  3
*D2
  1

  0
LINE
  5
45FC
330
3F84
100
AcDbEntity
  8
SUNPOU
370
    -2
100
AcDbLine
 10
104.6087217368942
 20
175.9734234456108
 30
0.0
 11
104.6087217368942
 21
189.3769919805331
 31
0.0
  0
LINE
  5
45FD
330
3F84
100
AcDbEntity
  8
SUNPOU
370
    -2
100
AcDbLine
 10
168.5087217368942
 20
175.9734234456108
 30
0.0
 11
168.5087217368942
 21
189.3769919805331
 31
0.0
  0
LINE
  5
45FE
330
3F84
100
AcDbEntity
  8
SUNPOU
370
    -2
100
AcDbLine
 10
107.6087217368942
 20
187.8769919805332
 30
0.0
 11
165.5087217368942
 21
187.8769919805332
 31
0.0
  0
INSERT
  5
45FF
330
3F84
100
AcDbEntity
  8
SUNPOU
370
    -2
100
AcDbBlockReference
  2
_OPEN
 10
104.6087217368942
 20
187.8769919805332
 30
0.0
 41
3.0
 42
3.0
 43
3.0
 50
180.0
  0
INSERT
  5
4600
330
3F84
100
AcDbEntity
  8
SUNPOU
370
    -2
100
AcDbBlockReference
  2
_OPEN
 10
168.5087217368942
 20
187.8769919805332
 30
0.0
 41
3.0
 42
3.0
 43
3.0
  0
MTEXT
  5
4601
330
3F84
100
AcDbEntity
  8
SUNPOU
100
AcDbMText
 10
136.5587217368942
 20
191.1269919805332
 30
0.0
 40
3.5
 41
0.0
 71
     5
 72
     5
  1
\A1;\U+25A164
 73
     1
 44
1.0
1001
ACAD
1000
MTEXTBEGIN
1070
    73
1070
     1
1070
    44
1040
1.0
1070
    74
1070
     0
1000
MTEXTEND
  0
POINT
  5
4602
330
3F84
100
AcDbEntity
  8
DEFPOINTS
 62
     0
100
AcDbPoint
 10
104.6087217368942
 20
174.4734234456108
 30
0.0
  0
POINT
  5
4603
330
3F84
100
AcDbEntity
  8
DEFPOINTS
 62
     0
100
AcDbPoint
 10
168.5087217368942
 20
174.4734234456108
 30
0.0
  0
POINT
  5
4604
330
3F84
100
AcDbEntity
  8
DEFPOINTS
 62
     0
100
AcDbPoint
 10
168.5087217368942
 20
187.8769919805332
 30
0.0
  0
ENDBLK
  5
3F8F
330
3F84
100
AcDbEntity
  8
0
100
AcDbBlockEnd
  0
BLOCK
  5
3F9B
330
3F91
100
AcDbEntity
  8
0
100
AcDbBlockBegin
  2
*D3
 70
     1
 10
0.0
 20
0.0
 30
0.0
  3
*D3
  1

  0
LINE
  5
449C
330
3F91
100
AcDbEntity
  8
SUNPOU
100
AcDbLine
 10
170.0087217368942
 20
174.4734234456108
 30
0.0
 11
200.8167824337976
 21
174.4734234456107
 31
0.0
  0
LINE
  5
449D
330
3F91
100
AcDbEntity
  8
SUNPOU
100
AcDbLine
 10
166.0405890483152
 20
115.4734234456108
 30
0.0
 11
200.8167824337976
 21
115.4734234456108
 31
0.0
  0
LINE
  5
449E
330
3F91
100
AcDbEntity
  8
SUNPOU
100
AcDbLine
 10
199.3167824337976
 20
171.4734234456107
 30
0.0
 11
199.3167824337976
 21
118.4734234456108
 31
0.0
  0
INSERT
  5
449F
330
3F91
100
AcDbEntity
  8
SUNPOU
100
AcDbBlockReference
  2
_OPEN
 10
199.3167824337976
 20
174.4734234456107
 30
0.0
 41
3.0
 42
3.0
 43
3.0
 50
90.0
  0
INSERT
  5
44A0
330
3F91
100
AcDbEntity
  8
SUNPOU
100
AcDbBlockReference
  2
_OPEN
 10
199.3167824337976
 20
115.4734234456108
 30
0.0
 41
3.0
 42
3.0
 43
3.0
 50
270.0
  0
MTEXT
  5
44A1
330
3F91
100
AcDbEntity
  8
SUNPOU
100
AcDbMText
 10
196.0667824337976
 20
144.9734234456108
 30
0.0
 40
3.5
 41
0.0
 71
     5
 72
     5
  1
\A1;59
 11
0.0000000000000001
 21
1.0
 31
0.0
 73
     1
 44
1.0
1001
ACAD
1000
MTEXTBEGIN
1070
    73
1070
     1
1070
    44
1040
1.0
1070
    74
1070
     0
1000
MTEXTEND
  0
POINT
  5
44A2
330
3F91
100
AcDbEntity
  8
DEFPOINTS
 62
     0
100
AcDbPoint
 10
168.5087217368942
 20
174.4734234456108
 30
0.0
  0
POINT
  5
44A3
330
3F91
100
AcDbEntity
  8
DEFPOINTS
 62
     0
100
AcDbPoint
 10
164.5405890483152
 20
115.4734234456108
 30
0.0
  0
POINT
  5
44A4
330
3F91
100
AcDbEntity
  8
DEFPOINTS
 62
     0
100
AcDbPoint
 10
199.3167824337976
 20
115.4734234456108
 30
0.0
  0
ENDBLK
  5
3F9C
330
3F91
100
AcDbEntity
  8
0
100
AcDbBlockEnd
  0
BLOCK
  5
3FB1
330
3FA7
100
AcDbEntity
  8
0
100
AcDbBlockBegin
  2
*D4
 70
     1
 10
0.0
 20
0.0
 30
0.0
  3
*D4
  1

  0
LINE
  5
4493
330
3FA7
100
AcDbEntity
  8
SUNPOU
100
AcDbLine
 10
170.0087217368942
 20
174.4734234456108
 30
0.0
 11
193.3061137407564
 21
174.4734234456107
 31
0.0
  0
LINE
  5
4494
330
3FA7
100
AcDbEntity
  8
SUNPOU
100
AcDbLine
 10
170.0087217368942
 20
135.4734234456108
 30
0.0
 11
193.3061137407564
 21
135.4734234456107
 31
0.0
  0
LINE
  5
4495
330
3FA7
100
AcDbEntity
  8
SUNPOU
100
AcDbLine
 10
191.8061137407564
 20
171.4734234456108
 30
0.0
 11
191.8061137407564
 21
138.4734234456108
 31
0.0
  0
INSERT
  5
4496
330
3FA7
100
AcDbEntity
  8
SUNPOU
100
AcDbBlockReference
  2
_OPEN
 10
191.8061137407564
 20
174.4734234456108
 30
0.0
 41
3.0
 42
3.0
 43
3.0
 50
90.0
  0
INSERT
  5
4497
330
3FA7
100
AcDbEntity
  8
SUNPOU
100
AcDbBlockReference
  2
_OPEN
 10
191.8061137407564
 20
135.4734234456108
 30
0.0
 41
3.0
 42
3.0
 43
3.0
 50
270.0
  0
MTEXT
  5
4498
330
3FA7
100
AcDbEntity
  8
SUNPOU
100
AcDbMText
 10
188.5561137407564
 20
154.9734234456108
 30
0.0
 40
3.5
 41
0.0
 71
     5
 72
     5
  1
\A1;39
 11
0.0000000000000001
 21
1.0
 31
0.0
 73
     1
 44
1.0
1001
ACAD
1000
MTEXTBEGIN
1070
    73
1070
     1
1070
    44
1040
1.0
1070
    74
1070
     0
1000
MTEXTEND
  0
POINT
  5
4499
330
3FA7
100
AcDbEntity
  8
DEFPOINTS
 62
     0
100
AcDbPoint
 10
168.5087217368942
 20
174.4734234456108
 30
0.0
  0
POINT
  5
449A
330
3FA7
100
AcDbEntity
  8
DEFPOINTS
 62
     0
100
AcDbPoint
 10
168.5087217368942
 20
135.4734234456108
 30
0.0
  0
POINT
  5
449B
330
3FA7
100
AcDbEntity
  8
DEFPOINTS
 62
     0
100
AcDbPoint
 10
191.8061137407564
 20
135.4734234456108
 30
0.0
  0
ENDBLK
  5
3FB2
330
3FA7
100
AcDbEntity
  8
0
100
AcDbBlockEnd
  0
BLOCK
  5
3FC0
330
3FB6
100
AcDbEntity
  8
0
100
AcDbBlockBegin
  2
*D5
 70
     1
 10
0.0
 20
0.0
 30
0.0
  3
*D5
  1

  0
LINE
  5
44B7
330
3FB6
100
AcDbEntity
  8
SUNPOU
100
AcDbLine
 10
103.1087217368942
 20
174.4734234456108
 30
0.0
 11
85.00174980657176
 21
174.4734234456108
 31
0.0
  0
LINE
  5
44B8
330
3FB6
100
AcDbEntity
  8
SUNPOU
100
AcDbLine
 10
103.1087217368942
 20
149.4734234456107
 30
0.0
 11
85.00174980657174
 21
149.4734234456107
 31
0.0
  0
LINE
  5
44B9
330
3FB6
100
AcDbEntity
  8
SUNPOU
100
AcDbLine
 10
86.50174980657174
 20
171.4734234456108
 30
0.0
 11
86.50174980657174
 21
152.4734234456107
 31
0.0
  0
INSERT
  5
44BA
330
3FB6
100
AcDbEntity
  8
SUNPOU
100
AcDbBlockReference
  2
_OPEN
 10
86.50174980657174
 20
174.4734234456108
 30
0.0
 41
3.0
 42
3.0
 43
3.0
 50
90.0
  0
INSERT
  5
44BB
330
3FB6
100
AcDbEntity
  8
SUNPOU
100
AcDbBlockReference
  2
_OPEN
 10
86.50174980657174
 20
149.4734234456107
 30
0.0
 41
3.0
 42
3.0
 43
3.0
 50
270.0
  0
MTEXT
  5
44BC
330
3FB6
100
AcDbEntity
  8
SUNPOU
100
AcDbMText
 10
83.25174980657171
 20
161.9734234456107
 30
0.0
 40
3.5
 41
0.0
 71
     5
 72
     5
  1
\A1;\U+203B25
 11
0.0000000000000001
 21
1.0
 31
0.0
 73
     1
 44
1.0
1001
ACAD
1000
MTEXTBEGIN
1070
    73
1070
     1
1070
    44
1040
1.0
1070
    74
1070
     0
1000
MTEXTEND
  0
POINT
  5
44BD
330
3FB6
100
AcDbEntity
  8
DEFPOINTS
 62
     0
100
AcDbPoint
 10
104.6087217368942
 20
174.4734234456108
 30
0.0
  0
POINT
  5
44BE
330
3FB6
100
AcDbEntity
  8
DEFPOINTS
 62
     0
100
AcDbPoint
 10
104.6087217368942
 20
149.4734234456107
 30
0.0
  0
POINT
  5
44BF
330
3FB6
100
AcDbEntity
  8
DEFPOINTS
 62
     0
100
AcDbPoint
 10
86.50174980657174
 20
149.4734234456107
 30
0.0
  0
ENDBLK
  5
3FC1
330
3FB6
100
AcDbEntity
  8
0
100
AcDbBlockEnd
  0
BLOCK
  5
3FCD
330
3FC3
100
AcDbEntity
  8
0
100
AcDbBlockBegin
  2
*D6
 70
     1
 10
0.0
 20
0.0
 30
0.0
  3
*D6
  1

  0
LINE
  5
44AE
330
3FC3
100
AcDbEntity
  8
SUNPOU
100
AcDbLine
 10
107.0768544254732
 20
115.4734234456108
 30
0.0
 11
85.00174980657174
 21
115.4734234456108
 31
0.0
  0
LINE
  5
44AF
330
3FC3
100
AcDbEntity
  8
SUNPOU
100
AcDbLine
 10
103.1087217368942
 20
145.4734234456108
 30
0.0
 11
85.00174980657174
 21
145.4734234456108
 31
0.0
  0
LINE
  5
44B0
330
3FC3
100
AcDbEntity
  8
SUNPOU
100
AcDbLine
 10
86.50174980657174
 20
118.4734234456108
 30
0.0
 11
86.50174980657174
 21
142.4734234456108
 31
0.0
  0
INSERT
  5
44B1
330
3FC3
100
AcDbEntity
  8
SUNPOU
100
AcDbBlockReference
  2
_OPEN
 10
86.50174980657174
 20
115.4734234456108
 30
0.0
 41
3.0
 42
3.0
 43
3.0
 50
270.0
  0
INSERT
  5
44B2
330
3FC3
100
AcDbEntity
  8
SUNPOU
100
AcDbBlockReference
  2
_OPEN
 10
86.50174980657174
 20
145.4734234456108
 30
0.0
 41
3.0
 42
3.0
 43
3.0
 50
90.0
  0
MTEXT
  5
44B3
330
3FC3
100
AcDbEntity
  8
SUNPOU
100
AcDbMText
 10
83.25174980657171
 20
130.4734234456108
 30
0.0
 40
3.5
 41
0.0
 71
     5
 72
     5
  1
\A1;30
 11
0.0000000000000001
 21
1.0
 31
0.0
 73
     1
 44
1.0
1001
ACAD
1000
MTEXTBEGIN
1070
    73
1070
     1
1070
    44
1040
1.0
1070
    74
1070
     0
1000
MTEXTEND
  0
POINT
  5
44B4
330
3FC3
100
AcDbEntity
  8
DEFPOINTS
 62
     0
100
AcDbPoint
 10
108.5768544254732
 20
115.4734234456108
 30
0.0
  0
POINT
  5
44B5
330
3FC3
100
AcDbEntity
  8
DEFPOINTS
 62
     0
100
AcDbPoint
 10
104.6087217368942
 20
145.4734234456108
 30
0.0
  0
POINT
  5
44B6
330
3FC3
100
AcDbEntity
  8
DEFPOINTS
 62
     0
100
AcDbPoint
 10
86.50174980657174
 20
145.4734234456108
 30
0.0
  0
ENDBLK
  5
3FCE
330
3FC3
100
AcDbEntity
  8
0
100
AcDbBlockEnd
  0
BLOCK
  5
3FDA
330
3FD0
100
AcDbEntity
  8
0
100
AcDbBlockBegin
  2
*D7
 70
     1
 10
0.0
 20
0.0
 30
0.0
  3
*D7
  1

  0
LINE
  5
4B13
330
3FD0
100
AcDbEntity
  8
SUNPOU
100
AcDbLine
 10
103.1087217368942
 20
145.4734234456108
 30
0.0
 11
92.51724139059751
 21
145.4734234456108
 31
0.0
  0
LINE
  5
4B14
330
3FD0
100
AcDbEntity
  8
SUNPOU
100
AcDbLine
 10
103.1087217368942
 20
135.4734234456108
 30
0.0
 11
92.51724139059751
 21
135.4734234456108
 31
0.0
  0
LINE
  5
4B15
330
3FD0
100
AcDbEntity
  8
SUNPOU
100
AcDbLine
 10
94.01724139059751
 20
142.4734234456108
 30
0.0
 11
94.01724139059751
 21
138.4734234456108
 31
0.0
  0
MTEXT
  5
4B16
330
3FD0
100
AcDbEntity
  8
SUNPOU
100
AcDbMText
 10
90.56039809949607
 20
140.1247123657315
 30
0.0
 40
3.5
 41
0.0
 71
     5
 72
     5
  1
\A1;\U+203B10
 11
0.0000000000000001
 21
1.0
 31
0.0
 73
     1
 44
1.0
1001
ACAD
1000
MTEXTBEGIN
1070
    73
1070
     1
1070
    44
1040
1.0
1070
    74
1070
     0
1000
MTEXTEND
  0
INSERT
  5
4B17
330
3FD0
100
AcDbEntity
  8
SUNPOU
100
AcDbBlockReference
  2
_OPEN
 10
94.01724139059751
 20
145.4734234456108
 30
0.0
 41
3.0
 42
3.0
 43
3.0
 50
90.0
  0
INSERT
  5
4B18
330
3FD0
100
AcDbEntity
  8
SUNPOU
100
AcDbBlockReference
  2
_OPEN
 10
94.01724139059751
 20
135.4734234456108
 30
0.0
 41
3.0
 42
3.0
 43
3.0
 50
270.0
  0
POINT
  5
4B19
330
3FD0
100
AcDbEntity
  8
DEFPOINTS
 62
     0
100
AcDbPoint
 10
104.6087217368942
 20
145.4734234456108
 30
0.0
  0
POINT
  5
4B1A
330
3FD0
100
AcDbEntity
  8
DEFPOINTS
 62
     0
100
AcDbPoint
 10
104.6087217368942
 20
135.4734234456108
 30
0.0
  0
POINT
  5
4B1B
330
3FD0
100
AcDbEntity
  8
DEFPOINTS
 62
     0
100
AcDbPoint
 10
94.01724139059751
 20
135.4734234456108
 30
0.0
  0
ENDBLK
  5
3FDB
330
3FD0
100
AcDbEntity
  8
0
100
AcDbBlockEnd
  0
BLOCK
  5
414D
330
4127
100
AcDbEntity
  8
0
100
AcDbBlockBegin
  2
*X8
 70
     1
 10
0.0
 20
0.0
 30
0.0
  3
*X8
  1

  0
LINE
  5
4128
330
4127
100
AcDbEntity
  8
0
 62
     0
100
AcDbLine
 10
266.7976829028558
 20
125.004316947931
 30
0.0
 11
267.8032405794214
 21
126.0098746244966
 31
0.0
  0
LINE
  5
4129
330
4127
100
AcDbEntity
  8
0
 62
     0
100
AcDbLine
 10
266.5090010832778
 20
126.8369554719127
 30
0.0
 11
267.8135549408974
 21
128.1415093295322
 31
0.0
  0
LINE
  5
412A
330
4127
100
AcDbEntity
  8
0
 62
     0
100
AcDbLine
 10
266.2476537005487
 20
128.6969284327432
 30
0.0
 11
267.8238693023734
 21
130.2731440345679
 31
0.0
  0
LINE
  5
412B
330
4127
100
AcDbEntity
  8
0
 62
     0
100
AcDbLine
 10
266.1646532457114
 20
130.7352483214655
 30
0.0
 11
267.8341836638494
 21
132.4047787396035
 31
0.0
  0
LINE
  5
412C
330
4127
100
AcDbEntity
  8
0
 62
     0
100
AcDbLine
 10
266.1162843779429
 20
132.8081997972567
 30
0.0
 11
267.8444980253253
 21
134.5364134446391
 31
0.0
  0
LINE
  5
412D
330
4127
100
AcDbEntity
  8
0
 62
     0
100
AcDbLine
 10
266.0679155101744
 20
134.8811512730479
 30
0.0
 11
267.8548123868013
 21
136.6680481496747
 31
0.0
  0
LINE
  5
412E
330
4127
100
AcDbEntity
  8
0
 62
     0
100
AcDbLine
 10
266.019546642406
 20
136.9541027488391
 30
0.0
 11
267.8651267482773
 21
138.7996828547104
 31
0.0
  0
LINE
  5
412F
330
4127
100
AcDbEntity
  8
0
 62
     0
100
AcDbLine
 10
265.9711777746375
 20
139.0270542246302
 30
0.0
 11
267.8754411097533
 21
140.931317559746
 31
0.0
  0
LINE
  5
4130
330
4127
100
AcDbEntity
  8
0
 62
     0
100
AcDbLine
 10
265.9228089068691
 20
141.1000057004214
 30
0.0
 11
267.8857554712294
 21
143.0629522647816
 31
0.0
  0
LINE
  5
4131
330
4127
100
AcDbEntity
  8
0
 62
     0
100
AcDbLine
 10
265.8744400391007
 20
143.1729571762126
 30
0.0
 11
267.8960698327053
 21
145.1945869698173
 31
0.0
  0
LINE
  5
4132
330
4127
100
AcDbEntity
  8
0
 62
     0
100
AcDbLine
 10
265.8260711713321
 20
145.2459086520038
 30
0.0
 11
267.9063841941813
 21
147.3262216748529
 31
0.0
  0
LINE
  5
4133
330
4127
100
AcDbEntity
  8
0
 62
     0
100
AcDbLine
 10
265.7777023035637
 20
147.318860127795
 30
0.0
 11
267.9166985556572
 21
149.4578563798885
 31
0.0
  0
LINE
  5
4134
330
4127
100
AcDbEntity
  8
0
 62
     0
100
AcDbLine
 10
263.5453142481021
 20
145.0864720723334
 30
0.0
 11
264.066219853358
 21
145.6073776775894
 31
0.0
  0
LINE
  5
4135
330
4127
100
AcDbEntity
  8
0
 62
     0
100
AcDbLine
 10
265.7293334357953
 20
149.3918116035862
 30
0.0
 11
267.9270129171332
 21
151.589491084924
 31
0.0
  0
LINE
  5
4136
330
4127
100
AcDbEntity
  8
0
 62
     0
100
AcDbLine
 10
262.7983749777606
 20
146.4608531455515
 30
0.0
 11
264.1483749777605
 21
147.8108531455514
 31
0.0
  0
LINE
  5
4137
330
4127
100
AcDbEntity
  8
0
 62
     0
100
AcDbLine
 10
265.6809645680268
 20
151.4647630793774
 30
0.0
 11
267.9373272786092
 21
153.7211257899598
 31
0.0
  0
LINE
  5
4138
330
4127
100
AcDbEntity
  8
0
 62
     0
100
AcDbLine
 10
269.2110481730888
 20
154.9948466844394
 30
0.0
 11
269.7483749777605
 21
155.5321734891111
 31
0.0
  0
LINE
  5
4139
330
4127
100
AcDbEntity
  8
0
 62
     0
100
AcDbLine
 10
262.7983749777606
 20
148.5821734891112
 30
0.0
 11
264.1483749777605
 21
149.9321734891111
 31
0.0
  0
LINE
  5
413A
330
4127
100
AcDbEntity
  8
0
 62
     0
100
AcDbLine
 10
265.6325957002583
 20
153.5377145551685
 30
0.0
 11
267.9476416400852
 21
155.8527604949954
 31
0.0
  0
LINE
  5
413B
330
4127
100
AcDbEntity
  8
0
 62
     0
100
AcDbLine
 10
268.0262573059875
 20
155.9313761608977
 30
0.0
 11
269.0706582794495
 21
156.9757771343597
 31
0.0
  0
LINE
  5
413C
330
4127
100
AcDbEntity
  8
0
 62
     0
100
AcDbLine
 10
262.7983749777606
 20
150.7034938326708
 30
0.0
 11
264.1483749777605
 21
152.0534938326707
 31
0.0
  0
LINE
  5
413D
330
4127
100
AcDbEntity
  8
0
 62
     0
100
AcDbLine
 10
264.9778777494609
 20
155.0043169479309
 30
0.0
 11
267.7489148044637
 21
157.7753540029336
 31
0.0
  0
LINE
  5
413E
330
4127
100
AcDbEntity
  8
0
 62
     0
100
AcDbLine
 10
262.7983749777606
 20
152.8248141762304
 30
0.0
 11
264.1483749777605
 21
154.1748141762304
 31
0.0
  0
LINE
  5
413F
330
4127
100
AcDbEntity
  8
0
 62
     0
100
AcDbLine
 10
262.7983749777606
 20
154.9461345197901
 30
0.0
 11
266.427171329478
 21
158.5749308715075
 31
0.0
  0
LINE
  5
4140
330
4127
100
AcDbEntity
  8
0
 62
     0
100
AcDbLine
 10
262.7983749777606
 20
157.0674548633497
 30
0.0
 11
264.7481935864235
 21
159.0172734720126
 31
0.0
  0
LINE
  5
4141
330
4127
100
AcDbEntity
  8
0
 62
     0
100
AcDbLine
 10
262.7983749777606
 20
159.1887752069094
 30
0.0
 11
264.7189051398654
 21
161.1093053690141
 31
0.0
  0
LINE
  5
4142
330
4127
100
AcDbEntity
  8
0
 62
     0
100
AcDbLine
 10
262.7983749777606
 20
161.3100955504689
 30
0.0
 11
264.6896166933074
 21
163.2013372660158
 31
0.0
  0
LINE
  5
4143
330
4127
100
AcDbEntity
  8
0
 62
     0
100
AcDbLine
 10
262.7983749777606
 20
163.4314158940286
 30
0.0
 11
264.6603282467494
 21
165.2933691630174
 31
0.0
  0
LINE
  5
4144
330
4127
100
AcDbEntity
  8
0
 62
     0
100
AcDbLine
 10
262.7983749777606
 20
165.5527362375883
 30
0.0
 11
264.6310398001913
 21
167.385401060019
 31
0.0
  0
LINE
  5
4145
330
4127
100
AcDbEntity
  8
0
 62
     0
100
AcDbLine
 10
262.7983749777606
 20
167.674056581148
 30
0.0
 11
264.6017513536333
 21
169.4774329570206
 31
0.0
  0
LINE
  5
4146
330
4127
100
AcDbEntity
  8
0
 62
     0
100
AcDbLine
 10
262.7983749777606
 20
169.7953769247076
 30
0.0
 11
264.5724629070753
 21
171.5694648540223
 31
0.0
  0
LINE
  5
4147
330
4127
100
AcDbEntity
  8
0
 62
     0
100
AcDbLine
 10
262.7983749777606
 20
171.9166972682671
 30
0.0
 11
264.5431744605173
 21
173.6614967510239
 31
0.0
  0
LINE
  5
4148
330
4127
100
AcDbEntity
  8
0
 62
     0
100
AcDbLine
 10
262.7983749777606
 20
174.0380176118269
 30
0.0
 11
264.5138860139592
 21
175.7535286480255
 31
0.0
  0
LINE
  5
4149
330
4127
100
AcDbEntity
  8
0
 62
     0
100
AcDbLine
 10
262.7983749777606
 20
176.1593379553865
 30
0.0
 11
264.4845975674012
 21
177.8455605450271
 31
0.0
  0
LINE
  5
414A
330
4127
100
AcDbEntity
  8
0
 62
     0
100
AcDbLine
 10
262.7983749777606
 20
178.2806582989462
 30
0.0
 11
264.4553091208432
 21
179.9375924420287
 31
0.0
  0
LINE
  5
414B
330
4127
100
AcDbEntity
  8
0
 62
     0
100
AcDbLine
 10
261.4007132831858
 20
179.004316947931
 30
0.0
 11
264.4260206742851
 21
182.0296243390304
 31
0.0
  0
LINE
  5
414C
330
4127
100
AcDbEntity
  8
0
 62
     0
100
AcDbLine
 10
261.817357015895
 20
181.5422810241999
 30
0.0
 11
264.2793929396261
 21
184.004316947931
 31
0.0
  0
ENDBLK
  5
414E
330
4127
100
AcDbEntity
  8
0
100
AcDbBlockEnd
  0
BLOCK
  5
41D8
330
41CE
100
AcDbEntity
  8
0
100
AcDbBlockBegin
  2
*D9
 70
     1
 10
0.0
 20
0.0
 30
0.0
  3
*D9
  1

  0
LINE
  5
45F3
330
41CE
100
AcDbEntity
  8
SUNPOU
370
    -2
100
AcDbLine
 10
160.0647628980219
 20
272.871177593118
 30
0.0
 11
193.3061137407565
 21
272.871177593118
 31
0.0
  0
LINE
  5
45F4
330
41CE
100
AcDbEntity
  8
SUNPOU
370
    -2
100
AcDbLine
 10
160.0647628980221
 20
208.9588382618909
 30
0.0
 11
193.3061137407565
 21
208.9588382618909
 31
0.0
  0
LINE
  5
45F5
330
41CE
100
AcDbEntity
  8
SUNPOU
370
    -2
100
AcDbLine
 10
191.8061137407565
 20
269.871177593118
 30
0.0
 11
191.8061137407565
 21
211.9588382618909
 31
0.0
  0
INSERT
  5
45F6
330
41CE
100
AcDbEntity
  8
SUNPOU
370
    -2
100
AcDbBlockReference
  2
_OPEN
 10
191.8061137407565
 20
272.871177593118
 30
0.0
 41
3.0
 42
3.0
 43
3.0
 50
90.0
  0
INSERT
  5
45F7
330
41CE
100
AcDbEntity
  8
SUNPOU
370
    -2
100
AcDbBlockReference
  2
_OPEN
 10
191.8061137407565
 20
208.9588382618909
 30
0.0
 41
3.0
 42
3.0
 43
3.0
 50
270.0
  0
MTEXT
  5
45F8
330
41CE
100
AcDbEntity
  8
SUNPOU
100
AcDbMText
 10
188.5561137407565
 20
240.9150079275045
 30
0.0
 40
3.5
 41
0.0
 71
     5
 72
     5
  1
\A1;\U+25A164
 11
0.0000000000000001
 21
1.0
 31
0.0
 73
     1
 44
1.0
1001
ACAD
1000
MTEXTBEGIN
1070
    73
1070
     1
1070
    44
1040
1.0
1070
    74
1070
     0
1000
MTEXTEND
  0
POINT
  5
45F9
330
41CE
100
AcDbEntity
  8
DEFPOINTS
 62
     0
100
AcDbPoint
 10
158.5647628980219
 20
272.871177593118
 30
0.0
  0
POINT
  5
45FA
330
41CE
100
AcDbEntity
  8
DEFPOINTS
 62
     0
100
AcDbPoint
 10
158.5647628980221
 20
208.9588382618909
 30
0.0
  0
POINT
  5
45FB
330
41CE
100
AcDbEntity
  8
DEFPOINTS
 62
     0
100
AcDbPoint
 10
191.8061137407565
 20
208.9588382618909
 30
0.0
  0
ENDBLK
  5
41D9
330
41CE
100
AcDbEntity
  8
0
100
AcDbBlockEnd
  0
BLOCK
  5
43D7
330
43D1
100
AcDbEntity
  8
0
100
AcDbBlockBegin
  2
*D10
 70
     1
 10
0.0
 20
0.0
 30
0.0
  3
*D10
  1

  0
LINE
  5
4B21
330
43D1
100
AcDbEntity
  8
SUNPOU
100
AcDbLine
 10
115.8564184121609
 20
233.4709071053268
 30
0.0
 11
157.2610250616272
 21
248.3591087496821
 31
0.0
  0
MTEXT
  5
4B22
330
43D1
100
AcDbEntity
  8
SUNPOU
100
AcDbMText
 10
152.7218991839006
 20
250.626036389284
 30
0.0
 40
3.5
 41
0.0
 71
     5
 72
     5
  1
\A1;\U+220550
 11
0.9410137874878671
 21
0.3383682191898929
 31
0.0
 73
     1
 44
1.0
1001
ACAD
1000
MTEXTBEGIN
1070
    73
1070
     1
1070
    44
1040
1.0
1070
    74
1070
     0
1000
MTEXTEND
  0
INSERT
  5
4B23
330
43D1
100
AcDbEntity
  8
SUNPOU
100
AcDbBlockReference
  2
_OPEN
 10
113.0333770496973
 20
232.4558024477571
 30
0.0
 41
3.0
 42
3.0
 43
3.0
 50
199.777488313773
  0
INSERT
  5
4B24
330
43D1
100
AcDbEntity
  8
SUNPOU
100
AcDbBlockReference
  2
_OPEN
 10
160.0840664240908
 20
249.3742134072518
 30
0.0
 41
3.0
 42
3.0
 43
3.0
 50
19.7774883137731
  0
POINT
  5
4B25
330
43D1
100
AcDbEntity
  8
DEFPOINTS
 62
     0
100
AcDbPoint
 10
160.0840664240908
 20
249.3742134072518
 30
0.0
  0
POINT
  5
4B26
330
43D1
100
AcDbEntity
  8
DEFPOINTS
 62
     0
100
AcDbPoint
 10
113.0333770496973
 20
232.4558024477571
 30
0.0
  0
ENDBLK
  5
43D8
330
43D1
100
AcDbEntity
  8
0
100
AcDbBlockEnd
  0
BLOCK
  5
4998
330
498E
100
AcDbEntity
  8
0
100
AcDbBlockBegin
  2
*D11
 70
     1
 10
0.0
 20
0.0
 30
0.0
  3
*D11
  1

  0
LINE
  5
49B2
330
498E
100
AcDbEntity
  8
SUNPOU
370
    -2
100
AcDbLine
 10
261.2983749777606
 20
184.004316947931
 30
0.0
 11
243.1914030474382
 21
184.004316947931
 31
0.0
  0
LINE
  5
49B3
330
498E
100
AcDbEntity
  8
SUNPOU
370
    -2
100
AcDbLine
 10
261.2983749777606
 20
159.0043169479308
 30
0.0
 11
243.1914030474382
 21
159.0043169479308
 31
0.0
  0
LINE
  5
49B4
330
498E
100
AcDbEntity
  8
SUNPOU
370
    -2
100
AcDbLine
 10
244.6914030474381
 20
181.004316947931
 30
0.0
 11
244.6914030474381
 21
162.0043169479308
 31
0.0
  0
INSERT
  5
49B5
330
498E
100
AcDbEntity
  8
SUNPOU
370
    -2
100
AcDbBlockReference
  2
_OPEN
 10
244.6914030474381
 20
184.004316947931
 30
0.0
 41
3.0
 42
3.0
 43
3.0
 50
90.0
  0
INSERT
  5
49B6
330
498E
100
AcDbEntity
  8
SUNPOU
370
    -2
100
AcDbBlockReference
  2
_OPEN
 10
244.6914030474381
 20
159.0043169479308
 30
0.0
 41
3.0
 42
3.0
 43
3.0
 50
270.0
  0
MTEXT
  5
49B7
330
498E
100
AcDbEntity
  8
SUNPOU
100
AcDbMText
 10
241.4414030474381
 20
171.5043169479309
 30
0.0
 40
3.5
 41
0.0
 71
     5
 72
     5
  1
\A1;\U+203B25
 11
0.0000000000000001
 21
1.0
 31
0.0
 73
     1
 44
1.0
1001
ACAD
1000
MTEXTBEGIN
1070
    73
1070
     1
1070
    44
1040
1.0
1070
    74
1070
     0
1000
MTEXTEND
  0
POINT
  5
49B8
330
498E
100
AcDbEntity
  8
DEFPOINTS
 62
     0
100
AcDbPoint
 10
262.7983749777606
 20
184.004316947931
 30
0.0
  0
POINT
  5
49B9
330
498E
100
AcDbEntity
  8
DEFPOINTS
 62
     0
100
AcDbPoint
 10
262.7983749777606
 20
159.0043169479308
 30
0.0
  0
POINT
  5
49BA
330
498E
100
AcDbEntity
  8
DEFPOINTS
 62
     0
100
AcDbPoint
 10
244.6914030474381
 20
159.0043169479308
 30
0.0
  0
ENDBLK
  5
4999
330
498E
100
AcDbEntity
  8
0
100
AcDbBlockEnd
  0
BLOCK
  5
49A4
330
499A
100
AcDbEntity
  8
0
100
AcDbBlockBegin
  2
*D12
 70
     1
 10
0.0
 20
0.0
 30
0.0
  3
*D12
  1

  0
LINE
  5
49BB
330
499A
100
AcDbEntity
  8
SUNPOU
370
    -2
100
AcDbLine
 10
265.2665076663396
 20
125.0043169479309
 30
0.0
 11
243.1914030474382
 21
125.0043169479309
 31
0.0
  0
LINE
  5
49BC
330
499A
100
AcDbEntity
  8
SUNPOU
370
    -2
100
AcDbLine
 10
261.2983749777606
 20
155.004316947931
 30
0.0
 11
243.1914030474382
 21
155.004316947931
 31
0.0
  0
LINE
  5
49BD
330
499A
100
AcDbEntity
  8
SUNPOU
370
    -2
100
AcDbLine
 10
244.6914030474381
 20
128.0043169479309
 30
0.0
 11
244.6914030474381
 21
152.004316947931
 31
0.0
  0
INSERT
  5
49BE
330
499A
100
AcDbEntity
  8
SUNPOU
370
    -2
100
AcDbBlockReference
  2
_OPEN
 10
244.6914030474381
 20
125.0043169479309
 30
0.0
 41
3.0
 42
3.0
 43
3.0
 50
270.0
  0
INSERT
  5
49BF
330
499A
100
AcDbEntity
  8
SUNPOU
370
    -2
100
AcDbBlockReference
  2
_OPEN
 10
244.6914030474381
 20
155.004316947931
 30
0.0
 41
3.0
 42
3.0
 43
3.0
 50
90.0
  0
MTEXT
  5
49C0
330
499A
100
AcDbEntity
  8
SUNPOU
100
AcDbMText
 10
241.4414030474381
 20
140.004316947931
 30
0.0
 40
3.5
 41
0.0
 71
     5
 72
     5
  1
\A1;30
 11
0.0000000000000001
 21
1.0
 31
0.0
 73
     1
 44
1.0
1001
ACAD
1000
MTEXTBEGIN
1070
    73
1070
     1
1070
    44
1040
1.0
1070
    74
1070
     0
1000
MTEXTEND
  0
POINT
  5
49C1
330
499A
100
AcDbEntity
  8
DEFPOINTS
 62
     0
100
AcDbPoint
 10
266.7665076663396
 20
125.0043169479309
 30
0.0
  0
POINT
  5
49C2
330
499A
100
AcDbEntity
  8
DEFPOINTS
 62
     0
100
AcDbPoint
 10
262.7983749777606
 20
155.004316947931
 30
0.0
  0
POINT
  5
49C3
330
499A
100
AcDbEntity
  8
DEFPOINTS
 62
     0
100
AcDbPoint
 10
244.6914030474381
 20
155.004316947931
 30
0.0
  0
ENDBLK
  5
49A5
330
499A
100
AcDbEntity
  8
0
100
AcDbBlockEnd
  0
BLOCK
  5
49B0
330
49A6
100
AcDbEntity
  8
0
100
AcDbBlockBegin
  2
*D13
 70
     1
 10
0.0
 20
0.0
 30
0.0
  3
*D13
  1

  0
LINE
  5
4B45
330
49A6
100
AcDbEntity
  8
SUNPOU
100
AcDbLine
 10
261.2983749777606
 20
155.004316947931
 30
0.0
 11
250.7068946314639
 21
155.004316947931
 31
0.0
  0
LINE
  5
4B46
330
49A6
100
AcDbEntity
  8
SUNPOU
100
AcDbLine
 10
261.2983749777606
 20
145.0043169479309
 30
0.0
 11
250.7068946314639
 21
145.0043169479309
 31
0.0
  0
LINE
  5
4B47
330
49A6
100
AcDbEntity
  8
SUNPOU
100
AcDbLine
 10
252.2068946314639
 20
152.004316947931
 30
0.0
 11
252.2068946314639
 21
148.0043169479309
 31
0.0
  0
MTEXT
  5
4B48
330
49A6
100
AcDbEntity
  8
SUNPOU
100
AcDbMText
 10
248.7500513403625
 20
149.6556058680517
 30
0.0
 40
3.5
 41
0.0
 71
     5
 72
     5
  1
\A1;\U+203B10
 11
0.0000000000000001
 21
1.0
 31
0.0
 73
     1
 44
1.0
1001
ACAD
1000
MTEXTBEGIN
1070
    73
1070
     1
1070
    44
1040
1.0
1070
    74
1070
     0
1000
MTEXTEND
  0
INSERT
  5
4B49
330
49A6
100
AcDbEntity
  8
SUNPOU
100
AcDbBlockReference
  2
_OPEN
 10
252.2068946314639
 20
155.004316947931
 30
0.0
 41
3.0
 42
3.0
 43
3.0
 50
90.0
  0
INSERT
  5
4B4A
330
49A6
100
AcDbEntity
  8
SUNPOU
100
AcDbBlockReference
  2
_OPEN
 10
252.2068946314639
 20
145.0043169479309
 30
0.0
 41
3.0
 42
3.0
 43
3.0
 50
270.0
  0
POINT
  5
4B4B
330
49A6
100
AcDbEntity
  8
DEFPOINTS
 62
     0
100
AcDbPoint
 10
262.7983749777606
 20
155.004316947931
 30
0.0
  0
POINT
  5
4B4C
330
49A6
100
AcDbEntity
  8
DEFPOINTS
 62
     0
100
AcDbPoint
 10
262.7983749777606
 20
145.0043169479309
 30
0.0
  0
POINT
  5
4B4D
330
49A6
100
AcDbEntity
  8
DEFPOINTS
 62
     0
100
AcDbPoint
 10
252.2068946314639
 20
145.0043169479309
 30
0.0
  0
ENDBLK
  5
49B1
330
49A6
100
AcDbEntity
  8
0
100
AcDbBlockEnd
  0
ENDSEC
  0
SECTION
  2
ENTITIES
  0
LINE
  5
577
330
1A
100
AcDbEntity
  8
ZUWAKU
100
AcDbLine
 10
111.323300388521
 20
14.6000003394497
 30
0.0
 11
230.7121817289827
 21
14.6000003394497
 31
0.0
  0
LINE
  5
578
330
1A
100
AcDbEntity
  8
ZUWAKU
100
AcDbLine
 10
111.323300388521
 20
14.8000003394497
 30
0.0
 11
230.7121817289827
 21
14.8000003394497
 31
0.0
  0
LINE
  5
579
330
1A
100
AcDbEntity
  8
ZUWAKU
100
AcDbLine
 10
111.323300388521
 20
14.7000003394497
 30
0.0
 11
230.7121817289827
 21
14.7000003394497
 31
0.0
  0
LINE
  5
57A
330
1A
100
AcDbEntity
  8
ZUWAKU
100
AcDbLine
 10
6.999999743487022
 20
22.40000033944969
 30
0.0
 11
405.699999743487
 21
22.40000033944969
 31
0.0
  0
LINE
  5
57B
330
1A
100
AcDbEntity
  8
ZUWAKU
100
AcDbLine
 10
6.999999743487022
 20
22.30000033944969
 30
0.0
 11
405.699999743487
 21
22.30000033944969
 31
0.0
  0
LINE
  5
57C
330
1A
100
AcDbEntity
  8
ZUWAKU
100
AcDbLine
 10
6.999999743487022
 20
22.20000033944968
 30
0.0
 11
405.699999743487
 21
22.20000033944968
 31
0.0
  0
LINE
  5
57D
330
1A
100
AcDbEntity
  8
ZUWAKU
100
AcDbLine
 10
6.999999743487022
 20
22.10000033944968
 30
0.0
 11
405.699999743487
 21
22.10000033944968
 31
0.0
  0
LINE
  5
57E
330
1A
100
AcDbEntity
  8
ZUWAKU
100
AcDbLine
 10
6.999999743487022
 20
22.00000033944968
 30
0.0
 11
405.699999743487
 21
22.00000033944968
 31
0.0
  0
LWPOLYLINE
  5
57F
330
1A
100
AcDbEntity
  8
ZUWAKU
100
AcDbPolyline
 90
        4
 70
     1
 43
0.0
 10
7.099999743486988
 20
282.7000003394497
 10
7.099999743486988
 20
7.100000339449707
 10
405.699999743487
 20
7.100000339449717
 10
405.699999743487
 20
282.7000003394497
  0
LWPOLYLINE
  5
580
330
1A
100
AcDbEntity
  8
ZUWAKU
100
AcDbPolyline
 90
        4
 70
     1
 43
0.0
 10
7.299999743486977
 20
282.5000003394497
 10
7.299999743486977
 20
7.300000339449695
 10
405.4999997434871
 20
7.300000339449717
 10
405.499999743487
 20
282.5000003394497
  0
LWPOLYLINE
  5
581
330
1A
100
AcDbEntity
  8
ZUWAKU
100
AcDbPolyline
 90
        4
 70
     1
 43
0.0
 10
6.999999743487022
 20
282.8000003394496
 10
6.999999743487022
 20
7.000000339449683
 10
405.7999997434871
 20
7.000000339449718
 10
405.7999997434871
 20
282.8000003394497
  0
LWPOLYLINE
  5
582
330
1A
100
AcDbEntity
  8
ZUWAKU
100
AcDbPolyline
 90
        4
 70
     1
 43
0.0
 10
7.199999743487012
 20
282.6000003394497
 10
7.199999743487012
 20
7.200000339449728
 10
405.5999997434869
 20
7.200000339449718
 10
405.5999997434869
 20
282.6000003394497
  0
LWPOLYLINE
  5
583
330
1A
100
AcDbEntity
  8
ZUWAKU
100
AcDbPolyline
 90
        4
 70
     1
 43
0.0
 10
7.399999743487
 20
282.4000003394497
 10
7.399999743487
 20
7.400000339449717
 10
405.3999997434869
 20
7.400000339449717
 10
405.3999997434869
 20
282.4000003394497
  0
TEXT
  5
584
330
1A
100
AcDbEntity
  8
MOJI
100
AcDbText
 10
53.47889453757159
 20
13.37058940458706
 30
0.0
 40
3.0
  1
アートフェイス
 41
0.9
  7
MSPｺ_ｼｯｸ
100
AcDbText
  0
INSERT
  5
585
330
1A
100
AcDbEntity
  8
ZUWAKU
  6
Continuous
100
AcDbBlockReference
  2
*X1
 10
7.0
 20
7.0
 30
0.0
1001
ACAD
1000
HATCH
1002
{
1070
    19
1000
ANSI37
1040
0.1
1040
0.0
1000
R14_HATCH_DATA
1000
585
1011
8.0
1021
7.0
1031
0.0
1011
7.0
1021
8.0
1031
0.0
1011
7.0
1021
7.0
1031
1.0
1040
0.0
1010
0.0
1020
0.0
1030
1.0
1000
ANSI37
1070
     0
1070
     0
1071
        8
1071
        7
1070
     1
1070
     1
1071
       24
1040
7.251131074046952
1040
8.822424579941474
1040
-0.1989123673796348
1040
7.046105820877585
1040
9.317399326771999
1040
0.0
1040
7.046105820877585
1040
9.96250033944969
1040
-0.4142135623730912
1040
7.308605820877572
1040
10.22500033944968
1040
0.0
1040
8.796105820877526
1040
10.22500033944968
1040
0.4142135623731546
1040
9.058605820877572
1040
10.48750033944968
1040
0.0
1040
9.058605820877572
1040
11.36250033944968
1040
0.4142135623731586
1040
8.796105820877526
1040
11.62500033944968
1040
0.0
1040
7.046105820877585
1040
11.62500033944968
1040
0.4142135623730928
1040
5.646105820877607
1040
10.2250003394497
1040
0.0
1040
5.646105820877607
1040
9.317399326772063
1040
0.1989123673796619
1040
6.261181580385821
1040
7.832475086280261
1040
0.0
1040
7.716080567708161
1040
6.377576098957932
1040
-0.1989123673796613
1040
7.921105820877585
1040
5.882601352127339
1040
0.0
1040
7.921105820877585
1040
5.237500339449681
1040
-0.4142135623730911
1040
7.658605820877595
1040
4.975000339449684
1040
0.0
1040
6.171105820877643
1040
4.975000339449684
1040
0.4142135623731526
1040
5.908605820877595
1040
4.71250033944969
1040
0.0
1040
5.908605820877595
1040
3.837500339449681
1040
0.4142135623731526
1040
6.171105820877643
1040
3.575000339449687
1040
0.0
1040
7.921105820877585
1040
3.575000339449687
1040
0.4142135623731045
1040
9.321105820877619
1040
4.975000339449675
1040
0.0
1040
9.321105820877619
1040
5.882601352127311
1040
0.1989123673796604
1040
8.706030061369347
1040
7.36752559261908
1040
0.0
1071
        0
1071
        7
1070
     1
1070
     1
1071
       16
1040
11.7711058208776
1040
9.52500033944969
1040
-0.4142135623730935
1040
12.47110582087759
1040
10.22500033944968
1040
0.0
1040
13.43360582087757
1040
10.22500033944968
1040
0.4142135623731546
1040
13.69610582087761
1040
10.48750033944968
1040
0.0
1040
13.69610582087761
1040
11.36250033944968
1040
0.4142135623730951
1040
13.43360582087763
1040
11.62500033944968
1040
0.0
1040
12.47110582087754
1040
11.62500033944966
1040
0.4142135623730893
1040
10.37110582087757
1040
9.525000339449654
1040
0.0
1040
10.37110582087757
1040
5.675000339449699
1040
0.4142135623730969
1040
12.47110582087759
1040
3.575000339449687
1040
0.0
1040
13.43360582087757
1040
3.575000339449687
1040
0.4142135623731526
1040
13.69610582087761
1040
3.837500339449681
1040
0.0
1040
13.69610582087761
1040
4.71250033944969
1040
0.4142135623730891
1040
13.43360582087763
1040
4.975000339449684
1040
0.0
1040
12.47110582087759
1040
4.975000339449684
1040
-0.4142135623730928
1040
11.7711058208776
1040
5.675000339449678
1040
0.0
1071
        0
1071
        7
1070
     1
1070
     1
1071
        2
1040
12.12110582087757
1040
7.600000339449684
1040
1.0
1040
13.87110582087757
1040
7.600000339449684
1040
1.0
1071
        0
1071
        7
1070
     1
1070
     1
1071
       26
1040
18.65742906196658
1040
9.602523936231401
1040
0.0
1040
19.18824887853548
1040
11.28345335536619
1040
0.5069206636600134
1040
18.93793342893781
1040
11.62500033944968
1040
0.0
1040
18.08848873913319
1040
11.62500033944968
1040
0.3272098845218764
1040
17.83817328953551
1040
11.44154732353317
1040
0.0
1040
16.90403835221963
1040
8.483453355366226
1040
-0.3272098845219541
1040
16.65372290262189
1040
8.300000339449685
1040
0.0
1040
16.58360582087766
1040
8.300000339449685
1040
-0.4142135623731526
1040
16.32110582087761
1040
8.562500339449679
1040
0.0
1040
16.32110582087761
1040
11.36250033944968
1040
0.4142135623730951
1040
16.05860582087763
1040
11.62500033944968
1040
0.0
1040
15.18360582087757
1040
11.62500033944968
1040
0.4142135623730871
1040
14.92110582087758
1040
11.36250033944969
1040
0.0
1040
14.92110582087758
1040
3.837500339449681
1040
0.4142135623730891
1040
15.18360582087757
1040
3.575000339449687
1040
0.0
1040
16.05860582087757
1040
3.575000339449687
1040
0.4142135623731526
1040
16.32110582087761
1040
3.837500339449681
1040
0.0
1040
16.32110582087761
1040
6.637500339449692
1040
-0.4142135623731526
1040
16.58360582087766
1040
6.900000339449687
1040
0.0
1040
16.65372290262195
1040
6.900000339449687
1040
-0.3272098845218915
1040
16.90403835221963
1040
6.716547323533147
1040
0.0
1040
17.83817328953551
1040
3.758453355366221
1040
0.3272098845218902
1040
18.08848873913319
1040
3.575000339449687
1040
0.0
1040
18.93793342893781
1040
3.575000339449687
1040
0.5069206636600336
1040
19.18824887853548
1040
3.91654732353319
1040
0.0
1040
18.02505318929866
1040
7.600000339449755
1040
0.0
1071
        0
1071
        7
1070
     1
1070
     1
1071
        8
1040
21.74610582087757
1040
11.36250033944969
1040
0.4142135623731546
1040
21.48360582087752
1040
11.62500033944968
1040
0.0
1040
20.60860582087764
1040
11.62500033944968
1040
0.4142135623731507
1040
20.34610582087759
1040
11.36250033944969
1040
0.0
1040
20.34610582087759
1040
3.837500339449681
1040
0.4142135623731526
1040
20.60860582087764
1040
3.575000339449687
1040
0.0
1040
21.48360582087752
1040
3.575000339449687
1040
0.4142135623731526
1040
21.74610582087757
1040
3.837500339449681
1040
0.0
1071
        0
1071
        7
1070
     1
1070
     1
1071
       24
1040
24.19610582087762
1040
9.96250033944969
1040
-0.4142135623731546
1040
24.45860582087766
1040
10.22500033944968
1040
0.0
1040
25.94610582087762
1040
10.22500033944968
1040
0.4142135623730911
1040
26.20860582087761
1040
10.48750033944968
1040
0.0
1040
26.20860582087761
1040
11.36250033944968
1040
0.4142135623730952
1040
25.94610582087762
1040
11.62500033944968
1040
0.0
1040
24.19610582087762
1040
11.62500033944968
1040
0.4142135623731048
1040
22.79610582087757
1040
10.2250003394497
1040
0.0
1040
22.79610582087757
1040
9.317399326772063
1040
0.1989123673796613
1040
23.41118158038586
1040
7.83247508628029
1040
0.0
1040
24.86608056770819
1040
6.377576098957955
1040
-0.1989123673796402
1040
25.07110582087761
1040
5.882601352127418
1040
0.0
1040
25.07110582087761
1040
5.237500339449681
1040
-0.4142135623730911
1040
24.80860582087763
1040
4.975000339449684
1040
0.0
1040
23.32110582087762
1040
4.975000339449684
1040
0.4142135623731526
1040
23.05860582087757
1040
4.71250033944969
1040
0.0
1040
23.05860582087757
1040
3.837500339449681
1040
0.4142135623730891
1040
23.32110582087755
1040
3.575000339449687
1040
0.0
1040
25.07110582087761
1040
3.575000339449687
1040
0.4142135623730925
1040
26.47110582087759
1040
4.975000339449675
1040
0.0
1040
26.47110582087759
1040
5.882601352127311
1040
0.1989123673796675
1040
25.85603006136932
1040
7.367525592619137
1040
0.0
1040
24.40113107404704
1040
8.822424579941396
1040
-0.1989123673796652
1040
24.19610582087762
1040
9.31739932677198
1040
0.0
1071
        0
1071
        7
1070
     1
1070
     1
1071
       16
1040
28.92110582087758
1040
11.36250033944968
1040
0.414213562373103
1040
28.65860582087759
1040
11.62500033944968
1040
0.0
1040
27.78360582087759
1040
11.62500033944968
1040
0.4142135623730871
1040
27.52110582087761
1040
11.36250033944969
1040
0.0
1040
27.52110582087761
1040
4.975000339449675
1040
0.4142135623730927
1040
28.92110582087758
1040
3.575000339449687
1040
0.0
1040
30.67110582087757
1040
3.575000339449687
1040
0.4142135623731045
1040
32.07110582087762
1040
4.975000339449675
1040
0.0
1040
32.07110582087762
1040
11.36250033944968
1040
0.4142135623730951
1040
31.80860582087763
1040
11.62500033944968
1040
0.0
1040
30.93360582087757
1040
11.62500033944968
1040
0.4142135623730871
1040
30.67110582087757
1040
11.36250033944969
1040
0.0
1040
30.67110582087757
1040
5.500000339449672
1040
-0.4142135623730879
1040
30.1461058208776
1040
4.975000339449684
1040
0.0
1040
29.44610582087761
1040
4.975000339449684
1040
-0.4142135623731197
1040
28.92110582087758
1040
5.500000339449672
1040
0.0
1071
        0
1071
        7
1070
     1
1070
     1
1071
        8
1040
34.5211058208776
1040
11.36250033944969
1040
0.4142135623730871
1040
34.25860582087762
1040
11.62500033944968
1040
0.0
1040
33.38360582087762
1040
11.62500033944968
1040
0.4142135623731507
1040
33.12110582087758
1040
11.36250033944969
1040
0.0
1040
33.12110582087758
1040
3.837500339449681
1040
0.4142135623730891
1040
33.38360582087755
1040
3.575000339449687
1040
0.0
1040
34.25860582087762
1040
3.575000339449687
1040
0.4142135623730891
1040
34.5211058208776
1040
3.837500339449681
1040
0.0
1071
        0
1070
     0
1070
     1
1040
0.0
1040
0.1
1070
     0
1070
     2
1040
0.7853981633974483
1040
-450.4711524238524
1040
-6.59999966055028
1040
-0.2245064030267288
1040
0.2245064030267288
1070
     0
1040
2.356194490192344
1040
-450.4711524238524
1040
-6.59999966055028
1040
-0.2245064030267288
1040
-0.2245064030267288
1070
     0
1040
0.057451373970553
1071
        8
1040
8.039927224998677
1040
7.58358716239246
1040
0.0
1040
11.2022572467066
1040
9.42203143067519
1040
0.0
1040
12.58218368631685
1040
7.755941162485044
1040
0.0
1040
15.45702973430559
1040
8.100649162670434
1040
0.0
1040
20.91923575296539
1040
8.330455296441241
1040
0.0
1040
23.44910019105179
1040
9.709288497653288
1040
0.0
1040
28.2788427296872
1040
9.364579296997193
1040
0.0
1040
33.91353955329839
1040
9.594385430767999
1040
0.0
1002
}
  0
LINE
  5
586
330
1A
100
AcDbEntity
  8
ZUWAKU
100
AcDbLine
 10
19.47110582087759
 20
18.62500033944966
 30
0.0
 11
20.43360582087757
 21
18.62500033944968
 31
0.0
  0
LINE
  5
587
330
1A
100
AcDbEntity
  8
ZUWAKU
100
AcDbLine
 10
20.43360582087757
 20
17.22500033944968
 30
0.0
 11
19.47110582087759
 21
17.22500033944968
 31
0.0
  0
LINE
  5
588
330
1A
100
AcDbEntity
  8
ZUWAKU
100
AcDbLine
 10
19.47110582087759
 20
11.97500033944968
 30
0.0
 11
20.43360582087757
 21
11.97500033944968
 31
0.0
  0
LINE
  5
589
330
1A
100
AcDbEntity
  8
ZUWAKU
100
AcDbLine
 10
20.43360582087757
 20
10.57500033944968
 30
0.0
 11
19.47110582087759
 21
10.57500033944968
 31
0.0
  0
CIRCLE
  5
58A
330
1A
100
AcDbEntity
  8
ZUWAKU
100
AcDbCircle
 10
19.99610582087757
 20
14.60000033944968
 30
0.0
 40
0.875
  0
ARC
  5
58B
330
1A
100
AcDbEntity
  8
ZUWAKU
100
AcDbCircle
 10
14.74610582087757
 20
16.31739932677203
 30
0.0
 40
0.7
100
AcDbArc
 50
180.0000000000016
 51
224.9999999999988
  0
LINE
  5
58C
330
1A
100
AcDbEntity
  8
ZUWAKU
100
AcDbLine
 10
18.7711058208776
 20
16.52500033944968
 30
0.0
 11
18.7711058208776
 21
12.67500033944968
 31
0.0
  0
LINE
  5
58D
330
1A
100
AcDbEntity
  8
ZUWAKU
100
AcDbLine
 10
17.37110582087757
 20
12.67500033944968
 30
0.0
 11
17.37110582087757
 21
16.52500033944966
 31
0.0
  0
ARC
  5
58E
330
1A
100
AcDbEntity
  8
ZUWAKU
100
AcDbCircle
 10
14.74610582087757
 20
16.31739932677203
 30
0.0
 40
2.099999999999999
100
AcDbArc
 50
180.0
 51
225.0
  0
ARC
  5
58F
330
1A
100
AcDbEntity
  8
ZUWAKU
100
AcDbCircle
 10
14.92110582087758
 20
11.97500033944968
 30
0.0
 40
1.399999999999999
100
AcDbArc
 50
270.0
 51
0.0
  0
ARC
  5
590
330
1A
100
AcDbEntity
  8
ZUWAKU
100
AcDbCircle
 10
19.47110582087759
 20
12.67500033944968
 30
0.0
 40
2.099999999999999
100
AcDbArc
 50
180.0
 51
270.0
  0
ARC
  5
591
330
1A
100
AcDbEntity
  8
ZUWAKU
100
AcDbCircle
 10
14.22110582087759
 20
12.88260135212733
 30
0.0
 40
2.099999999999999
100
AcDbArc
 50
0.0
 51
45.0
  0
LINE
  5
592
330
1A
100
AcDbEntity
  8
ZUWAKU
100
AcDbLine
 10
15.70603006136934
 20
14.36752559261909
 30
0.0
 11
14.251131074047
 21
15.82242457994143
 31
0.0
  0
LINE
  5
593
330
1A
100
AcDbEntity
  8
ZUWAKU
100
AcDbLine
 10
14.92110582087758
 20
12.23750033944968
 30
0.0
 11
14.92110582087758
 21
12.88260135212736
 31
0.0
  0
ARC
  5
594
330
1A
100
AcDbEntity
  8
ZUWAKU
100
AcDbCircle
 10
14.65860582087759
 20
12.23750033944968
 30
0.0
 40
0.2625
100
AcDbArc
 50
270.0
 51
0.0
  0
ARC
  5
595
330
1A
100
AcDbEntity
  8
ZUWAKU
100
AcDbCircle
 10
14.22110582087759
 20
12.88260135212736
 30
0.0
 40
0.7
100
AcDbArc
 50
0.0
 51
45.0
  0
LINE
  5
596
330
1A
100
AcDbEntity
  8
ZUWAKU
100
AcDbLine
 10
12.90860582087759
 20
10.83750033944968
 30
0.0
 11
12.90860582087759
 21
11.71250033944968
 31
0.0
  0
ARC
  5
597
330
1A
100
AcDbEntity
  8
ZUWAKU
100
AcDbCircle
 10
13.17110582087758
 20
10.83750033944968
 30
0.0
 40
0.2625
100
AcDbArc
 50
180.0
 51
270.0
  0
ARC
  5
598
330
1A
100
AcDbEntity
  8
ZUWAKU
100
AcDbCircle
 10
13.17110582087758
 20
11.71250033944968
 30
0.0
 40
0.2625
100
AcDbArc
 50
90.0
 51
180.0
  0
LINE
  5
599
330
1A
100
AcDbEntity
  8
ZUWAKU
100
AcDbLine
 10
13.17110582087758
 20
10.57500033944968
 30
0.0
 11
14.92110582087758
 21
10.57500033944968
 31
0.0
  0
LINE
  5
59A
330
1A
100
AcDbEntity
  8
ZUWAKU
100
AcDbLine
 10
13.17110582087758
 20
11.97500033944968
 30
0.0
 11
14.65860582087759
 21
11.97500033944968
 31
0.0
  0
LINE
  5
59B
330
1A
100
AcDbEntity
  8
ZUWAKU
100
AcDbLine
 10
13.26118158038582
 20
14.83247508628027
 30
0.0
 11
14.71608056770816
 21
13.37757609895794
 31
0.0
  0
LINE
  5
59C
330
1A
100
AcDbEntity
  8
ZUWAKU
100
AcDbLine
 10
16.32110582087761
 20
11.97500033944968
 30
0.0
 11
16.32110582087761
 21
12.88260135212736
 31
0.0
  0
ARC
  5
59D
330
1A
100
AcDbEntity
  8
ZUWAKU
100
AcDbCircle
 10
19.47110582087759
 20
12.67500033944968
 30
0.0
 40
0.7
100
AcDbArc
 50
180.0
 51
270.0
  0
ARC
  5
59E
330
1A
100
AcDbEntity
  8
ZUWAKU
100
AcDbCircle
 10
15.79610582087758
 20
18.36250033944968
 30
0.0
 40
0.2625
100
AcDbArc
 50
0.0
 51
90.0
  0
ARC
  5
59F
330
1A
100
AcDbEntity
  8
ZUWAKU
100
AcDbCircle
 10
15.79610582087758
 20
17.48750033944968
 30
0.0
 40
0.2625
100
AcDbArc
 50
270.0
 51
0.0
  0
LINE
  5
5A0
330
1A
100
AcDbEntity
  8
ZUWAKU
100
AcDbLine
 10
14.04610582087758
 20
18.62500033944968
 30
0.0
 11
15.79610582087758
 21
18.62500033944968
 31
0.0
  0
ARC
  5
5A1
330
1A
100
AcDbEntity
  8
ZUWAKU
100
AcDbCircle
 10
14.30860582087757
 20
16.96250033944968
 30
0.0
 40
0.2625
100
AcDbArc
 50
90.0
 51
180.0
  0
LINE
  5
5A2
330
1A
100
AcDbEntity
  8
ZUWAKU
100
AcDbLine
 10
14.04610582087758
 20
16.96250033944968
 30
0.0
 11
14.04610582087758
 21
16.31739932677201
 31
0.0
  0
LINE
  5
5A3
330
1A
100
AcDbEntity
  8
ZUWAKU
100
AcDbLine
 10
15.79610582087758
 20
17.22500033944968
 30
0.0
 11
14.30860582087757
 21
17.22500033944968
 31
0.0
  0
LINE
  5
5A4
330
1A
100
AcDbEntity
  8
ZUWAKU
100
AcDbLine
 10
12.6461058208776
 20
17.22500033944968
 30
0.0
 11
12.6461058208776
 21
16.31739932677201
 31
0.0
  0
ARC
  5
5A5
330
1A
100
AcDbEntity
  8
ZUWAKU
100
AcDbCircle
 10
14.04610582087758
 20
17.22500033944968
 30
0.0
 40
1.399999999999999
100
AcDbArc
 50
90.0
 51
180.0
  0
LINE
  5
5A6
330
1A
100
AcDbEntity
  8
ZUWAKU
100
AcDbLine
 10
16.05860582087757
 20
18.36250033944968
 30
0.0
 11
16.05860582087757
 21
17.48750033944968
 31
0.0
  0
ARC
  5
5A7
330
1A
100
AcDbEntity
  8
ZUWAKU
100
AcDbCircle
 10
19.47110582087759
 20
16.52500033944968
 30
0.0
 40
0.7
100
AcDbArc
 50
90.0
 51
180.0
  0
ARC
  5
5A8
330
1A
100
AcDbEntity
  8
ZUWAKU
100
AcDbCircle
 10
19.47110582087759
 20
16.52500033944966
 30
0.0
 40
2.099999999999999
100
AcDbArc
 50
90.0
 51
180.0
  0
LINE
  5
5A9
330
1A
100
AcDbEntity
  8
ZUWAKU
100
AcDbLine
 10
46.66331451748113
 20
22.00000033944968
 30
0.0
 11
46.66331451748122
 21
7.400000339449717
 31
0.0
  0
LINE
  5
5AA
330
1A
100
AcDbEntity
  8
ZUWAKU
100
AcDbLine
 10
46.76331451748113
 20
22.00000033944968
 30
0.0
 11
46.76331451748126
 21
7.400000339449717
 31
0.0
  0
LINE
  5
5AB
330
1A
100
AcDbEntity
  8
ZUWAKU
100
AcDbLine
 10
46.56331451748122
 20
22.00000033944968
 30
0.0
 11
46.56331451748122
 21
7.400000339449717
 31
0.0
  0
LINE
  5
5AC
330
1A
100
AcDbEntity
  8
ZUWAKU
100
AcDbLine
 10
39.07110582087762
 20
11.97500033944968
 30
0.0
 11
39.07110582087762
 21
18.36250033944968
 31
0.0
  0
LINE
  5
5AD
330
1A
100
AcDbEntity
  8
ZUWAKU
100
AcDbLine
 10
37.67110582087758
 20
18.36250033944968
 30
0.0
 11
37.67110582087758
 21
12.50000033944968
 31
0.0
  0
LINE
  5
5AE
330
1A
100
AcDbEntity
  8
ZUWAKU
100
AcDbLine
 10
41.5211058208776
 20
10.83750033944968
 30
0.0
 11
41.5211058208776
 21
18.36250033944968
 31
0.0
  0
LINE
  5
5AF
330
1A
100
AcDbEntity
  8
ZUWAKU
100
AcDbLine
 10
40.12110582087757
 20
18.36250033944968
 30
0.0
 11
40.12110582087757
 21
10.83750033944968
 31
0.0
  0
ARC
  5
5B0
330
1A
100
AcDbEntity
  8
ZUWAKU
100
AcDbCircle
 10
31.89610582087761
 20
16.31739932677203
 30
0.0
 40
0.7
100
AcDbArc
 50
180.0000000000016
 51
224.9999999999988
  0
ARC
  5
5B1
330
1A
100
AcDbEntity
  8
ZUWAKU
100
AcDbCircle
 10
31.89610582087761
 20
16.31739932677203
 30
0.0
 40
2.099999999999999
100
AcDbArc
 50
180.0
 51
225.0
  0
LINE
  5
5B2
330
1A
100
AcDbEntity
  8
ZUWAKU
100
AcDbLine
 10
25.65742906196658
 20
16.6025239362314
 30
0.0
 11
25.02505318929866
 21
14.60000033944969
 31
0.0
  0
LINE
  5
5B3
330
1A
100
AcDbEntity
  8
ZUWAKU
100
AcDbLine
 10
27.34610582087759
 20
18.36250033944968
 30
0.0
 11
27.34610582087759
 21
10.83750033944968
 31
0.0
  0
LINE
  5
5B4
330
1A
100
AcDbEntity
  8
ZUWAKU
100
AcDbLine
 10
28.74610582087757
 20
10.83750033944968
 30
0.0
 11
28.74610582087757
 21
18.36250033944968
 31
0.0
  0
LINE
  5
5B5
330
1A
100
AcDbEntity
  8
ZUWAKU
100
AcDbLine
 10
34.5211058208776
 20
18.36250033944968
 30
0.0
 11
34.5211058208776
 21
11.97500033944968
 31
0.0
  0
LINE
  5
5B6
330
1A
100
AcDbEntity
  8
ZUWAKU
100
AcDbLine
 10
35.92110582087758
 20
12.50000033944968
 30
0.0
 11
35.92110582087758
 21
18.36250033944968
 31
0.0
  0
LINE
  5
5B7
330
1A
100
AcDbEntity
  8
ZUWAKU
100
AcDbLine
 10
23.32110582087762
 20
15.56250033944968
 30
0.0
 11
23.32110582087762
 21
18.36250033944968
 31
0.0
  0
LINE
  5
5B8
330
1A
100
AcDbEntity
  8
ZUWAKU
100
AcDbLine
 10
21.92110582087757
 20
18.36250033944968
 30
0.0
 11
21.92110582087757
 21
10.83750033944968
 31
0.0
  0
LINE
  5
5B9
330
1A
100
AcDbEntity
  8
ZUWAKU
100
AcDbLine
 10
24.83817328953552
 20
18.44154732353317
 30
0.0
 11
23.90403835221963
 21
15.4834533553662
 31
0.0
  0
LINE
  5
5BA
330
1A
100
AcDbEntity
  8
ZUWAKU
100
AcDbLine
 10
37.14610582087761
 20
11.97500033944968
 30
0.0
 11
36.44610582087762
 21
11.97500033944968
 31
0.0
  0
LINE
  5
5BB
330
1A
100
AcDbEntity
  8
ZUWAKU
100
AcDbLine
 10
35.92110582087758
 20
10.57500033944968
 30
0.0
 11
37.67110582087758
 21
10.57500033944968
 31
0.0
  0
LINE
  5
5BC
330
1A
100
AcDbEntity
  8
ZUWAKU
100
AcDbLine
 10
27.60860582087758
 20
10.57500033944968
 30
0.0
 11
28.48360582087757
 21
10.57500033944968
 31
0.0
  0
LINE
  5
5BD
330
1A
100
AcDbEntity
  8
ZUWAKU
100
AcDbLine
 10
24.83817328953552
 20
10.75845335536619
 30
0.0
 11
23.90403835221963
 21
13.71654732353317
 31
0.0
  0
ARC
  5
5BE
330
1A
100
AcDbEntity
  8
ZUWAKU
100
AcDbCircle
 10
23.65372290262194
 20
15.56250033944968
 30
0.0
 40
0.2625
100
AcDbArc
 50
270.0
 51
342.474431626277
  0
LINE
  5
5BF
330
1A
100
AcDbEntity
  8
ZUWAKU
100
AcDbLine
 10
23.65372290262194
 20
15.30000033944968
 30
0.0
 11
23.5836058208776
 21
15.30000033944968
 31
0.0
  0
LINE
  5
5C0
330
1A
100
AcDbEntity
  8
ZUWAKU
100
AcDbLine
 10
23.5836058208776
 20
13.90000033944968
 30
0.0
 11
23.65372290262194
 21
13.90000033944968
 31
0.0
  0
ARC
  5
5C1
330
1A
100
AcDbEntity
  8
ZUWAKU
100
AcDbCircle
 10
23.5836058208776
 20
15.56250033944968
 30
0.0
 40
0.2625
100
AcDbArc
 50
180.0
 51
270.0
  0
LINE
  5
5C2
330
1A
100
AcDbEntity
  8
ZUWAKU
100
AcDbLine
 10
22.18360582087757
 20
10.57500033944968
 30
0.0
 11
23.05860582087757
 21
10.57500033944968
 31
0.0
  0
ARC
  5
5C3
330
1A
100
AcDbEntity
  8
ZUWAKU
100
AcDbCircle
 10
23.05860582087757
 20
10.83750033944968
 30
0.0
 40
0.2625
100
AcDbArc
 50
270.0
 51
0.0
  0
LINE
  5
5C4
330
1A
100
AcDbEntity
  8
ZUWAKU
100
AcDbLine
 10
23.32110582087762
 20
10.83750033944968
 30
0.0
 11
23.32110582087762
 21
13.63750033944968
 31
0.0
  0
LINE
  5
5C5
330
1A
100
AcDbEntity
  8
ZUWAKU
100
AcDbLine
 10
20.69610582087761
 20
11.71250033944968
 30
0.0
 11
20.69610582087761
 21
10.83750033944968
 31
0.0
  0
ARC
  5
5C6
330
1A
100
AcDbEntity
  8
ZUWAKU
100
AcDbCircle
 10
20.43360582087757
 20
10.83750033944968
 30
0.0
 40
0.2625
100
AcDbArc
 50
270.0
 51
0.0
  0
ARC
  5
5C7
330
1A
100
AcDbEntity
  8
ZUWAKU
100
AcDbCircle
 10
20.43360582087757
 20
11.71250033944968
 30
0.0
 40
0.2625
100
AcDbArc
 50
0.0
 51
90.0
  0
ARC
  5
5C8
330
1A
100
AcDbEntity
  8
ZUWAKU
100
AcDbCircle
 10
22.18360582087757
 20
10.83750033944968
 30
0.0
 40
0.2625
100
AcDbArc
 50
180.0
 51
270.0
  0
ARC
  5
5C9
330
1A
100
AcDbEntity
  8
ZUWAKU
100
AcDbCircle
 10
23.65372290262194
 20
13.63750033944968
 30
0.0
 40
0.2625
100
AcDbArc
 50
17.52556837372303
 51
90.0
  0
ARC
  5
5CA
330
1A
100
AcDbEntity
  8
ZUWAKU
100
AcDbCircle
 10
23.5836058208776
 20
13.63750033944968
 30
0.0
 40
0.2625
100
AcDbArc
 50
90.0
 51
180.0
  0
ARC
  5
5CB
330
1A
100
AcDbEntity
  8
ZUWAKU
100
AcDbCircle
 10
27.60860582087758
 20
10.83750033944968
 30
0.0
 40
0.2625
100
AcDbArc
 50
180.0
 51
270.0
  0
LINE
  5
5CC
330
1A
100
AcDbEntity
  8
ZUWAKU
100
AcDbLine
 10
25.08848873913325
 20
10.57500033944968
 30
0.0
 11
25.93793342893775
 21
10.57500033944968
 31
0.0
  0
ARC
  5
5CD
330
1A
100
AcDbEntity
  8
ZUWAKU
100
AcDbCircle
 10
25.93793342893775
 20
10.83750033944968
 30
0.0
 40
0.2625
100
AcDbArc
 50
270.0
 51
17.52556837372303
  0
LINE
  5
5CE
330
1A
100
AcDbEntity
  8
ZUWAKU
100
AcDbLine
 10
26.18824887853548
 20
10.91654732353317
 30
0.0
 11
25.02505318929866
 21
14.60000033944969
 31
0.0
  0
ARC
  5
5CF
330
1A
100
AcDbEntity
  8
ZUWAKU
100
AcDbCircle
 10
25.08848873913325
 20
10.83750033944968
 30
0.0
 40
0.2625
100
AcDbArc
 50
197.525568373723
 51
270.0
  0
ARC
  5
5D0
330
1A
100
AcDbEntity
  8
ZUWAKU
100
AcDbCircle
 10
35.92110582087758
 20
11.97500033944968
 30
0.0
 40
1.399999999999999
100
AcDbArc
 50
180.0
 51
270.0
  0
ARC
  5
5D1
330
1A
100
AcDbEntity
  8
ZUWAKU
100
AcDbCircle
 10
32.07110582087762
 20
11.97500033944968
 30
0.0
 40
1.399999999999999
100
AcDbArc
 50
270.0
 51
0.0
  0
LINE
  5
5D2
330
1A
100
AcDbEntity
  8
ZUWAKU
100
AcDbLine
 10
32.85603006136938
 20
14.36752559261909
 30
0.0
 11
31.40113107404698
 21
15.82242457994143
 31
0.0
  0
LINE
  5
5D3
330
1A
100
AcDbEntity
  8
ZUWAKU
100
AcDbLine
 10
32.07110582087762
 20
12.23750033944968
 30
0.0
 11
32.07110582087762
 21
12.88260135212736
 31
0.0
  0
ARC
  5
5D4
330
1A
100
AcDbEntity
  8
ZUWAKU
100
AcDbCircle
 10
31.37110582087757
 20
12.88260135212736
 30
0.0
 40
0.7
100
AcDbArc
 50
0.0
 51
45.0
  0
ARC
  5
5D5
330
1A
100
AcDbEntity
  8
ZUWAKU
100
AcDbCircle
 10
31.80860582087757
 20
12.23750033944968
 30
0.0
 40
0.2625
100
AcDbArc
 50
270.0
 51
0.0
  0
LINE
  5
5D6
330
1A
100
AcDbEntity
  8
ZUWAKU
100
AcDbLine
 10
30.05860582087757
 20
10.83750033944968
 30
0.0
 11
30.05860582087757
 21
11.71250033944968
 31
0.0
  0
ARC
  5
5D7
330
1A
100
AcDbEntity
  8
ZUWAKU
100
AcDbCircle
 10
30.32110582087762
 20
10.83750033944968
 30
0.0
 40
0.2625
100
AcDbArc
 50
180.0
 51
270.0
  0
ARC
  5
5D8
330
1A
100
AcDbEntity
  8
ZUWAKU
100
AcDbCircle
 10
28.48360582087757
 20
10.83750033944968
 30
0.0
 40
0.2625
100
AcDbArc
 50
270.0
 51
0.0
  0
ARC
  5
5D9
330
1A
100
AcDbEntity
  8
ZUWAKU
100
AcDbCircle
 10
30.32110582087762
 20
11.71250033944968
 30
0.0
 40
0.2625
100
AcDbArc
 50
90.0
 51
180.0
  0
LINE
  5
5DA
330
1A
100
AcDbEntity
  8
ZUWAKU
100
AcDbLine
 10
30.32110582087762
 20
11.97500033944968
 30
0.0
 11
31.80860582087757
 21
11.97500033944968
 31
0.0
  0
LINE
  5
5DB
330
1A
100
AcDbEntity
  8
ZUWAKU
100
AcDbLine
 10
30.32110582087762
 20
10.57500033944968
 30
0.0
 11
32.07110582087762
 21
10.57500033944968
 31
0.0
  0
LINE
  5
5DC
330
1A
100
AcDbEntity
  8
ZUWAKU
100
AcDbLine
 10
30.41118158038585
 20
14.83247508628027
 30
0.0
 11
31.86608056770819
 21
13.37757609895794
 31
0.0
  0
LINE
  5
5DD
330
1A
100
AcDbEntity
  8
ZUWAKU
100
AcDbLine
 10
33.4711058208776
 20
11.97500033944968
 30
0.0
 11
33.4711058208776
 21
12.88260135212736
 31
0.0
  0
ARC
  5
5DE
330
1A
100
AcDbEntity
  8
ZUWAKU
100
AcDbCircle
 10
31.37110582087757
 20
12.88260135212733
 30
0.0
 40
2.099999999999999
100
AcDbArc
 50
0.0
 51
45.0
  0
ARC
  5
5DF
330
1A
100
AcDbEntity
  8
ZUWAKU
100
AcDbCircle
 10
36.44610582087762
 20
12.50000033944968
 30
0.0
 40
0.525
100
AcDbArc
 50
180.0
 51
270.0
  0
ARC
  5
5E0
330
1A
100
AcDbEntity
  8
ZUWAKU
100
AcDbCircle
 10
37.67110582087758
 20
11.97500033944968
 30
0.0
 40
1.399999999999999
100
AcDbArc
 50
270.0
 51
0.0
  0
LINE
  5
5E1
330
1A
100
AcDbEntity
  8
ZUWAKU
100
AcDbLine
 10
40.38360582087761
 20
10.57500033944968
 30
0.0
 11
41.25860582087762
 21
10.57500033944968
 31
0.0
  0
ARC
  5
5E2
330
1A
100
AcDbEntity
  8
ZUWAKU
100
AcDbCircle
 10
40.38360582087761
 20
10.83750033944968
 30
0.0
 40
0.2625
100
AcDbArc
 50
180.0
 51
270.0
  0
ARC
  5
5E3
330
1A
100
AcDbEntity
  8
ZUWAKU
100
AcDbCircle
 10
37.14610582087761
 20
12.50000033944968
 30
0.0
 40
0.525
100
AcDbArc
 50
270.0
 51
0.0
  0
ARC
  5
5E4
330
1A
100
AcDbEntity
  8
ZUWAKU
100
AcDbCircle
 10
41.25860582087762
 20
10.83750033944968
 30
0.0
 40
0.2625
100
AcDbArc
 50
270.0
 51
0.0
  0
LINE
  5
5E5
330
1A
100
AcDbEntity
  8
ZUWAKU
100
AcDbLine
 10
28.48360582087757
 20
18.62500033944968
 30
0.0
 11
27.60860582087758
 21
18.62500033944968
 31
0.0
  0
ARC
  5
5E6
330
1A
100
AcDbEntity
  8
ZUWAKU
100
AcDbCircle
 10
23.05860582087757
 20
18.36250033944968
 30
0.0
 40
0.2625
100
AcDbArc
 50
0.0
 51
90.0
  0
LINE
  5
5E7
330
1A
100
AcDbEntity
  8
ZUWAKU
100
AcDbLine
 10
23.05860582087757
 20
18.62500033944968
 30
0.0
 11
22.18360582087757
 21
18.62500033944968
 31
0.0
  0
ARC
  5
5E8
330
1A
100
AcDbEntity
  8
ZUWAKU
100
AcDbCircle
 10
20.43360582087757
 20
18.36250033944968
 30
0.0
 40
0.2625
100
AcDbArc
 50
0.0
 51
90.0
  0
ARC
  5
5E9
330
1A
100
AcDbEntity
  8
ZUWAKU
100
AcDbCircle
 10
22.18360582087757
 20
18.36250033944968
 30
0.0
 40
0.2625
100
AcDbArc
 50
90.0
 51
180.0
  0
ARC
  5
5EA
330
1A
100
AcDbEntity
  8
ZUWAKU
100
AcDbCircle
 10
20.43360582087757
 20
17.48750033944968
 30
0.0
 40
0.2625
100
AcDbArc
 50
270.0
 51
0.0
  0
LINE
  5
5EB
330
1A
100
AcDbEntity
  8
ZUWAKU
100
AcDbLine
 10
20.69610582087761
 20
18.36250033944968
 30
0.0
 11
20.69610582087761
 21
17.48750033944968
 31
0.0
  0
ARC
  5
5EC
330
1A
100
AcDbEntity
  8
ZUWAKU
100
AcDbCircle
 10
27.60860582087758
 20
18.36250033944968
 30
0.0
 40
0.2625
100
AcDbArc
 50
90.0
 51
180.0
  0
LINE
  5
5ED
330
1A
100
AcDbEntity
  8
ZUWAKU
100
AcDbLine
 10
25.08848873913325
 20
18.62500033944968
 30
0.0
 11
25.93793342893775
 21
18.62500033944968
 31
0.0
  0
ARC
  5
5EE
330
1A
100
AcDbEntity
  8
ZUWAKU
100
AcDbCircle
 10
25.93793342893775
 20
18.36250033944968
 30
0.0
 40
0.2625
100
AcDbArc
 50
342.474431626277
 51
90.0
  0
LINE
  5
5EF
330
1A
100
AcDbEntity
  8
ZUWAKU
100
AcDbLine
 10
26.18824887853548
 20
18.2834533553662
 30
0.0
 11
25.65742906196658
 21
16.6025239362314
 31
0.0
  0
ARC
  5
5F0
330
1A
100
AcDbEntity
  8
ZUWAKU
100
AcDbCircle
 10
25.08848873913325
 20
18.36250033944968
 30
0.0
 40
0.2625
100
AcDbArc
 50
90.0
 51
162.4744316262769
  0
LINE
  5
5F1
330
1A
100
AcDbEntity
  8
ZUWAKU
100
AcDbLine
 10
31.19610582087762
 20
18.62500033944968
 30
0.0
 11
32.94610582087762
 21
18.62500033944968
 31
0.0
  0
LINE
  5
5F2
330
1A
100
AcDbEntity
  8
ZUWAKU
100
AcDbLine
 10
32.94610582087762
 20
17.22500033944968
 30
0.0
 11
31.4586058208776
 21
17.22500033944968
 31
0.0
  0
ARC
  5
5F3
330
1A
100
AcDbEntity
  8
ZUWAKU
100
AcDbCircle
 10
31.4586058208776
 20
16.96250033944968
 30
0.0
 40
0.2625
100
AcDbArc
 50
90.0
 51
180.0
  0
LINE
  5
5F4
330
1A
100
AcDbEntity
  8
ZUWAKU
100
AcDbLine
 10
31.19610582087762
 20
16.96250033944968
 30
0.0
 11
31.19610582087762
 21
16.31739932677201
 31
0.0
  0
ARC
  5
5F5
330
1A
100
AcDbEntity
  8
ZUWAKU
100
AcDbCircle
 10
28.48360582087757
 20
18.36250033944968
 30
0.0
 40
0.2625
100
AcDbArc
 50
0.0
 51
90.0
  0
LINE
  5
5F6
330
1A
100
AcDbEntity
  8
ZUWAKU
100
AcDbLine
 10
29.79610582087758
 20
17.22500033944968
 30
0.0
 11
29.79610582087758
 21
16.31739932677201
 31
0.0
  0
ARC
  5
5F7
330
1A
100
AcDbEntity
  8
ZUWAKU
100
AcDbCircle
 10
31.19610582087762
 20
17.22500033944968
 30
0.0
 40
1.399999999999999
100
AcDbArc
 50
90.0
 51
180.0
  0
ARC
  5
5F8
330
1A
100
AcDbEntity
  8
ZUWAKU
100
AcDbCircle
 10
35.6586058208776
 20
18.36250033944968
 30
0.0
 40
0.2625
100
AcDbArc
 50
0.0
 51
90.0
  0
ARC
  5
5F9
330
1A
100
AcDbEntity
  8
ZUWAKU
100
AcDbCircle
 10
34.78360582087759
 20
18.36250033944968
 30
0.0
 40
0.2625
100
AcDbArc
 50
90.0
 51
180.0
  0
LINE
  5
5FA
330
1A
100
AcDbEntity
  8
ZUWAKU
100
AcDbLine
 10
35.6586058208776
 20
18.62500033944968
 30
0.0
 11
34.78360582087759
 21
18.62500033944968
 31
0.0
  0
ARC
  5
5FB
330
1A
100
AcDbEntity
  8
ZUWAKU
100
AcDbCircle
 10
32.94610582087762
 20
18.36250033944968
 30
0.0
 40
0.2625
100
AcDbArc
 50
0.0
 51
90.0
  0
ARC
  5
5FC
330
1A
100
AcDbEntity
  8
ZUWAKU
100
AcDbCircle
 10
32.94610582087762
 20
17.48750033944968
 30
0.0
 40
0.2625
100
AcDbArc
 50
270.0
 51
0.0
  0
LINE
  5
5FD
330
1A
100
AcDbEntity
  8
ZUWAKU
100
AcDbLine
 10
33.2086058208776
 20
18.36250033944968
 30
0.0
 11
33.2086058208776
 21
17.48750033944968
 31
0.0
  0
LINE
  5
5FE
330
1A
100
AcDbEntity
  8
ZUWAKU
100
AcDbLine
 10
41.25860582087762
 20
18.62500033944968
 30
0.0
 11
40.38360582087761
 21
18.62500033944968
 31
0.0
  0
ARC
  5
5FF
330
1A
100
AcDbEntity
  8
ZUWAKU
100
AcDbCircle
 10
40.38360582087761
 20
18.36250033944968
 30
0.0
 40
0.2625
100
AcDbArc
 50
90.0
 51
180.0
  0
ARC
  5
600
330
1A
100
AcDbEntity
  8
ZUWAKU
100
AcDbCircle
 10
38.80860582087758
 20
18.36250033944968
 30
0.0
 40
0.2625
100
AcDbArc
 50
0.0
 51
90.0
  0
LINE
  5
601
330
1A
100
AcDbEntity
  8
ZUWAKU
100
AcDbLine
 10
38.80860582087758
 20
18.62500033944968
 30
0.0
 11
37.93360582087757
 21
18.62500033944968
 31
0.0
  0
ARC
  5
602
330
1A
100
AcDbEntity
  8
ZUWAKU
100
AcDbCircle
 10
37.93360582087757
 20
18.36250033944968
 30
0.0
 40
0.2625
100
AcDbArc
 50
90.0
 51
180.0
  0
ARC
  5
603
330
1A
100
AcDbEntity
  8
ZUWAKU
100
AcDbCircle
 10
41.25860582087762
 20
18.36250033944968
 30
0.0
 40
0.2625
100
AcDbArc
 50
0.0
 51
90.0
  0
LINE
  5
606
330
1A
100
AcDbEntity
  8
ZUWAKU
100
AcDbLine
 10
111.1233003885209
 20
22.00000033944968
 30
0.0
 11
111.1233003885209
 21
7.400000339449717
 31
0.0
  0
LINE
  5
607
330
1A
100
AcDbEntity
  8
ZUWAKU
100
AcDbLine
 10
111.3233003885209
 20
22.00000033944968
 30
0.0
 11
111.323300388521
 21
7.400000339449717
 31
0.0
  0
LINE
  5
608
330
1A
100
AcDbEntity
  8
ZUWAKU
100
AcDbLine
 10
111.2233003885209
 20
22.00000033944968
 30
0.0
 11
111.223300388521
 21
7.400000339449717
 31
0.0
  0
TEXT
  5
609
330
1A
100
AcDbEntity
  8
ZUWAKU
100
AcDbText
 10
111.8620228996258
 20
11.82767860864249
 30
0.0
 40
2.0
  1
サイズ
 41
0.9
  7
MSPｺ_ｼｯｸ
100
AcDbText
  0
TEXT
  5
60A
330
1A
100
AcDbEntity
  8
ZUWAKU
100
AcDbText
 10
111.8620228996256
 20
19.02767860864247
 30
0.0
 40
2.0
  1
品名
 41
0.9
  7
MSPｺ_ｼｯｸ
100
AcDbText
  0
LINE
  5
60C
330
1A
100
AcDbEntity
  8
ZUWAKU
100
AcDbLine
 10
331.4086009985891
 20
14.6000003394497
 30
0.0
 11
355.6245050177576
 21
14.6000003394497
 31
0.0
  0
LINE
  5
60D
330
1A
100
AcDbEntity
  8
ZUWAKU
100
AcDbLine
 10
331.4086009985892
 20
14.7000003394497
 30
0.0
 11
355.6245050177576
 21
14.7000003394497
 31
0.0
  0
LINE
  5
60E
330
1A
100
AcDbEntity
  8
ZUWAKU
100
AcDbLine
 10
331.4086009985891
 20
14.8000003394497
 30
0.0
 11
355.6245050177576
 21
14.8000003394497
 31
0.0
  0
LINE
  5
610
330
1A
100
AcDbEntity
  8
ZUWAKU
100
AcDbLine
 10
259.5995894925574
 20
14.6000003394497
 30
0.0
 11
283.2634776265432
 21
14.6000003394497
 31
0.0
  0
LINE
  5
611
330
1A
100
AcDbEntity
  8
ZUWAKU
100
AcDbLine
 10
259.5995894925574
 20
14.7000003394497
 30
0.0
 11
283.2634776265432
 21
14.7000003394497
 31
0.0
  0
LINE
  5
612
330
1A
100
AcDbEntity
  8
ZUWAKU
100
AcDbLine
 10
259.5995894925574
 20
14.8000003394497
 30
0.0
 11
283.2634776265432
 21
14.8000003394497
 31
0.0
  0
TEXT
  5
613
330
1A
100
AcDbEntity
  8
MOJI
100
AcDbText
 10
238.7841524247672
 20
12.97130920027967
 30
0.0
 40
2.799999999999998
  1
ＰＦ９９□
 41
0.9
  7
MSPｺ_ｼｯｸ
100
AcDbText
  0
LINE
  5
614
330
1A
100
AcDbEntity
  8
ZUWAKU
100
AcDbLine
 10
230.8121817289826
 20
22.00000033944968
 30
0.0
 11
230.8121817289827
 21
7.400000339449717
 31
0.0
  0
LINE
  5
615
330
1A
100
AcDbEntity
  8
ZUWAKU
100
AcDbLine
 10
230.9121817289826
 20
22.00000033944968
 30
0.0
 11
230.9121817289827
 21
7.400000339449717
 31
0.0
  0
LINE
  5
616
330
1A
100
AcDbEntity
  8
ZUWAKU
100
AcDbLine
 10
230.7121817289827
 20
22.00000033944968
 30
0.0
 11
230.7121817289827
 21
7.400000339449717
 31
0.0
  0
TEXT
  5
617
330
1A
100
AcDbEntity
  8
MOJI
100
AcDbText
 10
271.0204537296434
 20
16.00246086815337
 30
0.0
 40
2.799999999999998
  1
Ａ３
 41
0.9
  7
MSPｺ_ｼｯｸ
100
AcDbText
  0
LINE
  5
618
330
1A
100
AcDbEntity
  8
ZUWAKU
100
AcDbLine
 10
259.4995894925574
 20
22.00000033944968
 30
0.0
 11
259.4995894925575
 21
7.400000339449717
 31
0.0
  0
LINE
  5
619
330
1A
100
AcDbEntity
  8
ZUWAKU
100
AcDbLine
 10
259.5995894925574
 20
22.00000033944968
 30
0.0
 11
259.5995894925575
 21
7.400000339449717
 31
0.0
  0
LINE
  5
61A
330
1A
100
AcDbEntity
  8
ZUWAKU
100
AcDbLine
 10
259.3995894925575
 20
22.00000033944968
 30
0.0
 11
259.3995894925575
 21
7.400000339449717
 31
0.0
  0
TEXT
  5
61B
330
1A
100
AcDbEntity
  8
ZUWAKU
100
AcDbText
 10
238.3468805712406
 20
8.30703579501943
 30
0.0
 40
1.5
  1
□には色品番が入ります
 41
0.9
  7
MSPｺ_ｼｯｸ
100
AcDbText
  0
TEXT
  5
61C
330
1A
100
AcDbEntity
  8
ZUWAKU
100
AcDbText
 10
260.3383120036624
 20
11.82767860864249
 30
0.0
 40
2.0
  1
縮尺
 41
0.9
  7
MSPｺ_ｼｯｸ
100
AcDbText
  0
TEXT
  5
61D
330
1A
100
AcDbEntity
  8
MOJI
100
AcDbText
 10
271.0204537296434
 20
8.602460868153395
 30
0.0
 40
2.799999999999998
  1
１/１
 41
0.9
  7
MSPｺ_ｼｯｸ
100
AcDbText
  0
TEXT
  5
61E
330
1A
100
AcDbEntity
  8
ZUWAKU
100
AcDbText
 10
231.6509042400874
 20
19.02767860864247
 30
0.0
 40
2.0
  1
品番
 41
0.9
  7
MSPｺ_ｼｯｸ
100
AcDbText
  0
TEXT
  5
61F
330
1A
100
AcDbEntity
  8
ZUWAKU
100
AcDbText
 10
260.3383120036621
 20
19.02767860864247
 30
0.0
 40
2.0
  1
用紙
 41
0.9
  7
MSPｺ_ｼｯｸ
100
AcDbText
  0
LINE
  5
620
330
1A
100
AcDbEntity
  8
ZUWAKU
100
AcDbLine
 10
331.3086009985891
 20
22.00000033944968
 30
0.0
 11
331.3086009985893
 21
7.400000339449717
 31
0.0
  0
LINE
  5
621
330
1A
100
AcDbEntity
  8
ZUWAKU
100
AcDbLine
 10
331.4086009985892
 20
22.00000033944968
 30
0.0
 11
331.4086009985893
 21
7.400000339449717
 31
0.0
  0
LINE
  5
622
330
1A
100
AcDbEntity
  8
ZUWAKU
100
AcDbLine
 10
331.2086009985893
 20
22.00000033944968
 30
0.0
 11
331.2086009985893
 21
7.400000339449717
 31
0.0
  0
LINE
  5
623
330
1A
100
AcDbEntity
  8
ZUWAKU
100
AcDbLine
 10
283.3634776265431
 20
22.00000033944968
 30
0.0
 11
283.3634776265432
 21
7.400000339449717
 31
0.0
  0
LINE
  5
624
330
1A
100
AcDbEntity
  8
ZUWAKU
100
AcDbLine
 10
283.4634776265431
 20
22.00000033944968
 30
0.0
 11
283.4634776265433
 21
7.400000339449717
 31
0.0
  0
LINE
  5
625
330
1A
100
AcDbEntity
  8
ZUWAKU
100
AcDbLine
 10
283.2634776265432
 20
22.00000033944968
 30
0.0
 11
283.2634776265432
 21
7.400000339449717
 31
0.0
  0
TEXT
  5
626
330
1A
100
AcDbEntity
  8
ZUWAKU
100
AcDbText
 10
332.147323509694
 20
19.02767860864247
 30
0.0
 40
2.0
  1
DATE
 41
0.9
  7
MSPｺ_ｼｯｸ
100
AcDbText
  0
LINE
  5
627
330
1A
100
AcDbEntity
  8
ZUWAKU
100
AcDbLine
 10
355.6245050177576
 20
22.00000033944968
 30
0.0
 11
355.6245050177576
 21
7.400000339449717
 31
0.0
  0
LINE
  5
628
330
1A
100
AcDbEntity
  8
ZUWAKU
100
AcDbLine
 10
355.7245050177576
 20
22.00000033944968
 30
0.0
 11
355.7245050177576
 21
7.400000339449717
 31
0.0
  0
LINE
  5
629
330
1A
100
AcDbEntity
  8
ZUWAKU
100
AcDbLine
 10
355.8245050177575
 20
22.00000033944968
 30
0.0
 11
355.8245050177577
 21
7.400000339449717
 31
0.0
  0
LINE
  5
62A
330
1A
100
AcDbEntity
  8
ZUWAKU
100
AcDbLine
 10
355.9245050177576
 20
22.00000033944968
 30
0.0
 11
355.9245050177577
 21
7.400000339449717
 31
0.0
  0
TEXT
  5
62B
330
1A
100
AcDbEntity
  8
ZUWAKU
100
AcDbText
 10
361.2640418396089
 20
13.22872080923508
 30
0.0
 40
3.0
  1
積水化学工業株式会社
 41
0.9
  7
MSPｺ_ｼｯｸ
100
AcDbText
  0
TEXT
  5
149A
330
1A
100
AcDbEntity
  8
MOJI
100
AcDbText
 10
126.6730248442844
 20
16.4749905891615
 30
0.0
 40
2.799999999999998
  1
ソケット　（高排水用）
 41
0.9
  7
MSPｺ_ｼｯｸ
100
AcDbText
  0
TEXT
  5
149B
330
1A
100
AcDbEntity
  8
MOJI
100
AcDbText
 10
126.3864265374658
 20
9.313206752988428
 30
0.0
 40
2.799999999999998
  1
Ｙ６０Ｈ
 41
0.9
  7
MSPｺ_ｼｯｸ
100
AcDbText
  0
TEXT
  5
2546
330
1A
100
AcDbEntity
  8
SUNPOU
 62
     4
100
AcDbText
 10
295.548695350376
 20
34.44852868747284
 30
0.0
 40
4.0
  1
※　たてといの差込み寸法を示す。
100
AcDbText
  0
ARC
  5
389A
330
1A
100
AcDbEntity
  8
SEIHIN
  6
Continuous
100
AcDbCircle
 10
104.608721736894
 20
272.8650079275042
 30
0.0
 40
9.000000000000008
100
AcDbArc
 50
275.739170477268
 51
354.2964790675029
  0
LINE
  5
389B
330
1A
100
AcDbEntity
  8
SEIHIN
  6
Continuous
100
AcDbLine
 10
136.558721736894
 20
273.0150079275043
 30
0.0
 11
114.552680575766
 21
272.8711775931178
 31
0.0
  0
LINE
  5
389C
330
1A
100
AcDbEntity
  8
SEIHIN
  6
Continuous
100
AcDbLine
 10
158.5647628980219
 20
272.871177593118
 30
0.0
 11
136.558721736894
 21
273.0150079275043
 31
0.0
  0
ARC
  5
389D
330
1A
100
AcDbEntity
  8
SEIHIN
  6
Continuous
100
AcDbCircle
 10
168.508721736894
 20
272.8650079275045
 30
0.0
 40
9.000000000000001
100
AcDbArc
 50
185.7035209324985
 51
264.2608295227351
  0
LINE
  5
389E
330
1A
100
AcDbEntity
  8
SEIHIN
  6
Continuous
100
AcDbLine
 10
168.5087217368942
 20
218.9148822985706
 30
0.0
 11
168.5148914025075
 21
262.9210490886325
 31
0.0
  0
ARC
  5
389F
330
1A
100
AcDbEntity
  8
SEIHIN
  6
Continuous
100
AcDbCircle
 10
168.5087217368943
 20
208.9650079275045
 30
0.0
 40
9.000000000000008
100
AcDbArc
 50
95.73917047726808
 51
174.2964790675024
  0
LINE
  5
38A0
330
1A
100
AcDbEntity
  8
SEIHIN
  6
Continuous
100
AcDbLine
 10
136.5587217368943
 20
208.8150079275044
 30
0.0
 11
158.5647628980221
 21
208.9588382618909
 31
0.0
  0
LINE
  5
38A1
330
1A
100
AcDbEntity
  8
SEIHIN
  6
Continuous
100
AcDbLine
 10
114.5526805757663
 20
208.9588382618907
 30
0.0
 11
136.5587217368943
 21
208.8150079275044
 31
0.0
  0
ARC
  5
38A2
330
1A
100
AcDbEntity
  8
SEIHIN
  6
Continuous
100
AcDbCircle
 10
104.6087217368942
 20
208.9650079275043
 30
0.0
 40
9.000000000000008
100
AcDbArc
 50
5.703520932498087
 51
84.26082952273192
  0
LINE
  5
38A3
330
1A
100
AcDbEntity
  8
SEIHIN
  6
Continuous
100
AcDbLine
 10
104.608721736894
 20
262.915133556438
 30
0.0
 11
104.6025520712808
 21
218.9089667663763
 31
0.0
  0
CIRCLE
  5
38A4
330
1A
100
AcDbEntity
  8
SEIHIN
  6
Continuous
100
AcDbCircle
 10
136.5587217368942
 20
240.9150079275044
 30
0.0
 40
25.00000000000001
  0
ARC
  5
38A5
330
1A
100
AcDbEntity
  8
SEIHIN
  6
Continuous
100
AcDbCircle
 10
114.5592163838796
 20
271.8711989517397
 30
0.0
 40
1.000000000000049
100
AcDbArc
 50
90.37447688672369
 51
174.2964790675021
  0
ARC
  5
38A6
330
1A
100
AcDbEntity
  8
SEIHIN
  6
Continuous
100
AcDbCircle
 10
105.608721736894
 20
262.915133556438
 30
0.0
 40
0.9999999999999927
100
AcDbArc
 50
95.73917047726808
 51
180.0
  0
LINE
  5
38A7
330
1A
100
AcDbEntity
  8
SEIHIN
  6
Continuous
100
AcDbLine
 10
102.6087217368941
 20
244.4150079275043
 30
0.0
 11
104.6087217368941
 21
244.4150079275043
 31
0.0
  0
LINE
  5
38A8
330
1A
100
AcDbEntity
  8
SEIHIN
  6
Continuous
100
AcDbLine
 10
102.6087217368942
 20
237.4150079275043
 30
0.0
 11
102.6087217368941
 21
244.4150079275043
 31
0.0
  0
LINE
  5
38A9
330
1A
100
AcDbEntity
  8
SEIHIN
  6
Continuous
100
AcDbLine
 10
102.6087217368942
 20
237.4150079275043
 30
0.0
 11
104.6087217368941
 21
237.4150079275043
 31
0.0
  0
LINE
  5
38AA
330
1A
100
AcDbEntity
  8
SEIHIN
  6
Continuous
100
AcDbLine
 10
168.5087217368941
 20
237.4150079275044
 30
0.0
 11
170.5087217368941
 21
237.4150079275045
 31
0.0
  0
LINE
  5
38AB
330
1A
100
AcDbEntity
  8
SEIHIN
  6
Continuous
100
AcDbLine
 10
168.5087217368941
 20
244.4150079275045
 30
0.0
 11
170.5087217368941
 21
244.4150079275045
 31
0.0
  0
LINE
  5
38AC
330
1A
100
AcDbEntity
  8
SEIHIN
  6
Continuous
100
AcDbLine
 10
170.5087217368941
 20
237.4150079275045
 30
0.0
 11
170.5087217368941
 21
244.4150079275045
 31
0.0
  0
LINE
  5
38C8
330
1A
100
AcDbEntity
  8
CENTER　L
 48
0.3
100
AcDbLine
 10
98.76914355038209
 20
240.9150079275044
 30
0.0
 11
174.3482999234063
 21
240.9150079275044
 31
0.0
  0
LINE
  5
38C9
330
1A
100
AcDbEntity
  8
CENTER　L
 48
0.3
100
AcDbLine
 10
136.5587217368942
 20
278.7045861140165
 30
0.0
 11
136.5587217368942
 21
203.1254297409923
 31
0.0
  0
ARC
  5
38CD
330
1A
100
AcDbEntity
  8
SEIHIN
  6
Continuous
100
AcDbCircle
 10
105.6025307126589
 20
218.9155025744899
 30
0.0
 40
1.000000000000049
100
AcDbArc
 50
180.3744768867236
 51
264.2964790675021
  0
ARC
  5
38CE
330
1A
100
AcDbEntity
  8
SEIHIN
  6
Continuous
100
AcDbCircle
 10
114.5585961079605
 20
209.9650079275042
 30
0.0
 40
0.9999999999999927
100
AcDbArc
 50
185.739170477268
 51
270.0
  0
ARC
  5
38CF
330
1A
100
AcDbEntity
  8
SEIHIN
  6
Continuous
100
AcDbCircle
 10
158.5582270899088
 20
209.9588169032691
 30
0.0
 40
1.000000000000049
100
AcDbArc
 50
270.3744768867236
 51
354.296479067502
  0
ARC
  5
38D0
330
1A
100
AcDbEntity
  8
SEIHIN
  6
Continuous
100
AcDbCircle
 10
167.5087217368944
 20
218.9148822985707
 30
0.0
 40
0.9999999999999927
100
AcDbArc
 50
275.739170477268
 51
0.0
  0
ARC
  5
38D1
330
1A
100
AcDbEntity
  8
SEIHIN
  6
Continuous
100
AcDbCircle
 10
167.5149127611295
 20
262.9145132805189
 30
0.0
 40
1.000000000000049
100
AcDbArc
 50
0.3744768867236242
 51
84.29647906750203
  0
ARC
  5
38D2
330
1A
100
AcDbEntity
  8
SEIHIN
  6
Continuous
100
AcDbCircle
 10
158.5588473658278
 20
271.8650079275046
 30
0.0
 40
0.9999999999999927
100
AcDbArc
 50
5.73917047726803
 51
89.99999999999992
  0
LINE
  5
38D3
330
1A
100
AcDbEntity
  8
SEIHIN
  6
Continuous
100
AcDbLine
 10
106.208721736894
 20
261.5601417186543
 30
0.0
 11
106.2087217368942
 21
220.2698741363542
 31
0.0
  0
ARC
  5
38D4
330
1A
100
AcDbEntity
  8
SEIHIN
  6
Continuous
100
AcDbCircle
 10
104.608721736894
 20
272.8650079275042
 30
0.0
 40
10.6
100
AcDbArc
 50
282.9521905958742
 51
347.1239809253225
  0
LINE
  5
38D5
330
1A
100
AcDbEntity
  8
SEIHIN
  6
Continuous
100
AcDbLine
 10
136.5691790298757
 20
271.4150421012994
 30
0.0
 11
115.9104987003721
 21
271.2800180468582
 31
0.0
  0
ARC
  5
38D7
330
1A
100
AcDbEntity
  8
SEIHIN
  6
Continuous
100
AcDbCircle
 10
107.208721736894
 20
261.5601417186543
 30
0.0
 40
1.0
100
AcDbArc
 50
102.9521905958755
 51
180.0
  0
ARC
  5
38D8
330
1A
100
AcDbEntity
  8
SEIHIN
  6
Continuous
100
AcDbCircle
 10
115.9170345084856
 20
270.2800394054801
 30
0.0
 40
1.0
100
AcDbArc
 50
90.37447688672036
 51
167.1239809253208
  0
ARC
  5
38DA
330
1A
100
AcDbEntity
  8
SEIHIN
  6
Continuous
100
AcDbCircle
 10
104.6087217368944
 20
208.9650079275043
 30
0.0
 40
10.6
100
AcDbArc
 50
12.95219059587424
 51
77.04780940412608
  0
ARC
  5
38DB
330
1A
100
AcDbEntity
  8
SEIHIN
  6
Continuous
100
AcDbCircle
 10
115.9135879457444
 20
211.5650079275043
 30
0.0
 40
1.0
100
AcDbArc
 50
192.9521905958755
 51
270.0
  0
ARC
  5
38DC
330
1A
100
AcDbEntity
  8
SEIHIN
  6
Continuous
100
AcDbCircle
 10
157.2004089653028
 20
211.5499764495285
 30
0.0
 40
1.0
100
AcDbArc
 50
270.3744768867203
 51
347.1239809253207
  0
ARC
  5
38DD
330
1A
100
AcDbEntity
  8
SEIHIN
  6
Continuous
100
AcDbCircle
 10
168.5087217368944
 20
208.9650079275046
 30
0.0
 40
10.6
100
AcDbArc
 50
102.9521905958764
 51
167.1239809253225
  0
ARC
  5
38DF
330
1A
100
AcDbEntity
  8
SEIHIN
  6
Continuous
100
AcDbCircle
 10
165.9237532148698
 20
261.5566951559129
 30
0.0
 40
1.0
100
AcDbArc
 50
0.3744768867203165
 51
77.12398092532076
  0
ARC
  5
38E0
330
1A
100
AcDbEntity
  8
SEIHIN
  6
Continuous
100
AcDbCircle
 10
168.508721736894
 20
272.8650079275045
 30
0.0
 40
10.6
100
AcDbArc
 50
192.9521905958742
 51
257.1239809253224
  0
ARC
  5
38E1
330
1A
100
AcDbEntity
  8
SEIHIN
  6
Continuous
100
AcDbCircle
 10
157.203855528044
 20
270.2650079275045
 30
0.0
 40
1.0
100
AcDbArc
 50
12.95219059587547
 51
89.99999999999992
  0
LINE
  5
38E2
330
1A
100
AcDbEntity
  8
SEIHIN
  6
Continuous
100
AcDbLine
 10
166.9237393317656
 20
261.5609434311867
 30
0.0
 11
166.9087217368939
 21
220.2698741363544
 31
0.0
  0
LINE
  5
38E3
330
1A
100
AcDbEntity
  8
SEIHIN
  6
Continuous
100
AcDbLine
 10
136.5482644439125
 20
271.4150421012994
 30
0.0
 11
157.2069447734162
 21
271.2800180468582
 31
0.0
  0
LINE
  5
38E4
330
1A
100
AcDbEntity
  8
SEIHIN
  6
Continuous
100
AcDbLine
 10
136.5691790298757
 20
210.4149737537094
 30
0.0
 11
115.9135879457444
 21
210.5650079275043
 31
0.0
  0
LINE
  5
38E5
330
1A
100
AcDbEntity
  8
SEIHIN
  6
Continuous
100
AcDbLine
 10
136.5482644439125
 20
210.4149737537094
 30
0.0
 11
157.2069447734162
 21
210.5499978081506
 31
0.0
  0
ARC
  5
38E6
330
1A
100
AcDbEntity
  8
SEIHIN
  6
Continuous
100
AcDbCircle
 10
107.2087217368943
 20
220.2698741363542
 30
0.0
 40
1.0
100
AcDbArc
 50
180.0
 51
257.0478094041248
  0
ARC
  5
38E7
330
1A
100
AcDbEntity
  8
SEIHIN
  6
Continuous
100
AcDbCircle
 10
165.9087217368939
 20
220.2698741363544
 30
0.0
 40
1.0
100
AcDbArc
 50
282.9521905958783
 51
0.0
  0
LINE
  5
3906
330
1A
100
AcDbEntity
  8
SEIHIN
  6
Continuous
100
AcDbLine
 10
106.558721736894
 20
261.5601417186543
 30
0.0
 11
106.5587217368943
 21
220.2698741363542
 31
0.0
  0
ARC
  5
3907
330
1A
100
AcDbEntity
  8
SEIHIN
  6
Continuous
100
AcDbCircle
 10
107.208721736894
 20
261.5601417186543
 30
0.0
 40
0.65
100
AcDbArc
 50
102.9521905958755
 51
180.0
  0
ARC
  5
3908
330
1A
100
AcDbEntity
  8
SEIHIN
  6
Continuous
100
AcDbCircle
 10
104.608721736894
 20
272.8650079275042
 30
0.0
 40
10.95
100
AcDbArc
 50
282.9521905958742
 51
347.1239809253225
  0
ARC
  5
3909
330
1A
100
AcDbEntity
  8
SEIHIN
  6
Continuous
100
AcDbCircle
 10
115.9170345084856
 20
270.2800394054801
 30
0.0
 40
0.65
100
AcDbArc
 50
90.37447688672036
 51
167.1239809253208
  0
LINE
  5
390A
330
1A
100
AcDbEntity
  8
SEIHIN
  6
Continuous
100
AcDbLine
 10
136.5714665627156
 20
271.0650495768171
 30
0.0
 11
115.9127862332119
 21
270.9300255223759
 31
0.0
  0
LINE
  5
390B
330
1A
100
AcDbEntity
  8
SEIHIN
  6
Continuous
100
AcDbLine
 10
136.5459769110727
 20
271.0650495768171
 30
0.0
 11
157.2046572405764
 21
270.9300255223759
 31
0.0
  0
ARC
  5
390C
330
1A
100
AcDbEntity
  8
SEIHIN
  6
Continuous
100
AcDbCircle
 10
157.203855528044
 20
270.2650079275045
 30
0.0
 40
0.65
100
AcDbArc
 50
12.95219059587547
 51
89.99999999999992
  0
ARC
  5
390D
330
1A
100
AcDbEntity
  8
SEIHIN
  6
Continuous
100
AcDbCircle
 10
168.508721736894
 20
272.8650079275045
 30
0.0
 40
10.95
100
AcDbArc
 50
192.9521905958742
 51
257.1239809253224
  0
ARC
  5
390E
330
1A
100
AcDbEntity
  8
SEIHIN
  6
Continuous
100
AcDbCircle
 10
165.9237532148698
 20
261.5566951559129
 30
0.0
 40
0.65
100
AcDbArc
 50
0.3744768867203165
 51
77.12398092532076
  0
LINE
  5
390F
330
1A
100
AcDbEntity
  8
SEIHIN
  6
Continuous
100
AcDbLine
 10
166.5737393317655
 20
261.5609434311867
 30
0.0
 11
166.5737393317653
 21
220.2706758488868
 31
0.0
  0
ARC
  5
3910
330
1A
100
AcDbEntity
  8
SEIHIN
  6
Continuous
100
AcDbCircle
 10
107.2087217368943
 20
220.2698741363542
 30
0.0
 40
0.65
100
AcDbArc
 50
180.0
 51
257.0478094041248
  0
ARC
  5
3911
330
1A
100
AcDbEntity
  8
SEIHIN
  6
Continuous
100
AcDbCircle
 10
104.6087217368944
 20
208.9650079275043
 30
0.0
 40
10.95
100
AcDbArc
 50
12.95219059587424
 51
77.04780940412608
  0
ARC
  5
3912
330
1A
100
AcDbEntity
  8
SEIHIN
  6
Continuous
100
AcDbCircle
 10
115.9135879457444
 20
211.5650079275043
 30
0.0
 40
0.65
100
AcDbArc
 50
192.9521905958755
 51
270.0
  0
LINE
  5
3913
330
1A
100
AcDbEntity
  8
SEIHIN
  6
Continuous
100
AcDbLine
 10
136.5714665627156
 20
210.7649662781917
 30
0.0
 11
115.9135879457444
 21
210.9150079275043
 31
0.0
  0
LINE
  5
3914
330
1A
100
AcDbEntity
  8
SEIHIN
  6
Continuous
100
AcDbLine
 10
136.5459769110727
 20
210.7649662781917
 30
0.0
 11
157.2038555280427
 21
210.915007927505
 31
0.0
  0
LINE
  5
391A
330
1A
100
AcDbEntity
  8
SEIHIN
  6
Continuous
100
AcDbLine
 10
104.6087217368942
 20
135.4734234456108
 30
0.0
 11
104.6087217368942
 21
174.4734234456108
 31
0.0
  0
LINE
  5
391C
330
1A
100
AcDbEntity
  8
SEIHIN
  6
Continuous
100
AcDbLine
 10
168.5087217368942
 20
135.4734234456108
 30
0.0
 11
104.6087217368943
 21
135.4734234456108
 31
0.0
  0
LINE
  5
391D
330
1A
100
AcDbEntity
  8
SEIHIN
  6
Continuous
100
AcDbLine
 10
326.6983749777606
 20
184.0043169479311
 30
0.0
 11
326.6983749777606
 21
145.0043169479311
 31
0.0
  0
LINE
  5
391E
330
1A
100
AcDbEntity
  8
SEIHIN
  6
Continuous
100
AcDbLine
 10
328.6983749777606
 20
179.0043169479311
 30
0.0
 11
326.6983749777606
 21
179.0043169479311
 31
0.0
  0
LINE
  5
391F
330
1A
100
AcDbEntity
  8
SEIHIN
  6
Continuous
100
AcDbLine
 10
326.6983749777606
 20
183.5043169479311
 30
0.0
 11
328.6983749777606
 21
179.5043169479311
 31
0.0
  0
LINE
  5
3920
330
1A
100
AcDbEntity
  8
SEIHIN
  6
Continuous
100
AcDbLine
 10
328.6983749777606
 20
179.5043169479311
 30
0.0
 11
328.6983749777606
 21
179.0043169479311
 31
0.0
  0
LINE
  5
3921
330
1A
100
AcDbEntity
  8
SEIHIN
  6
Continuous
100
AcDbLine
 10
294.7483749777607
 20
184.004316947931
 30
0.0
 11
326.6983749777606
 21
184.0043169479311
 31
0.0
  0
LINE
  5
3922
330
1A
100
AcDbEntity
  8
SEIHIN
  6
Continuous
100
AcDbLine
 10
108.0155038038958
 20
119.4684777169674
 30
0.0
 11
107.6420550702275
 21
135.4734234456108
 31
0.0
  0
LINE
  5
3923
330
1A
100
AcDbEntity
  8
SEIHIN
  6
Continuous
100
AcDbLine
 10
108.0155038038959
 20
119.4684777169674
 30
0.0
 11
108.5768544254732
 21
115.4734234456108
 31
0.0
  0
LINE
  5
3924
330
1A
100
AcDbEntity
  8
SEIHIN
  6
Continuous
100
AcDbLine
 10
322.7302422891817
 20
125.0043169479311
 30
0.0
 11
323.2915929107589
 21
128.9993712192877
 31
0.0
  0
LINE
  5
3925
330
1A
100
AcDbEntity
  8
SEIHIN
  6
Continuous
100
AcDbLine
 10
323.6650416444273
 20
145.0043169479311
 30
0.0
 11
323.2915929107589
 21
128.9993712192877
 31
0.0
  0
LINE
  5
3926
330
1A
100
AcDbEntity
  8
SEIHIN
  6
Continuous
100
AcDbLine
 10
164.5405890483152
 20
115.4734234456108
 30
0.0
 11
108.5768544254732
 21
115.4734234456108
 31
0.0
  0
LINE
  5
3927
330
1A
100
AcDbEntity
  8
CENTER　L
 48
0.3
100
AcDbLine
 10
136.5587217368943
 20
109.8162118076652
 30
0.0
 11
136.5587217368943
 21
179.3237290148445
 31
0.0
  0
LINE
  5
3928
330
1A
100
AcDbEntity
  8
SEIHIN
  6
Continuous
100
AcDbLine
 10
113.6087217368942
 20
174.4734234456107
 30
0.0
 11
113.6087217368942
 21
135.4734234456108
 31
0.0
  0
LINE
  5
3929
330
1A
100
AcDbEntity
  8
SEIHIN
  6
Continuous
100
AcDbLine
 10
104.6087217368943
 20
173.9734234456108
 30
0.0
 11
102.6087217368943
 21
169.9734234456108
 31
0.0
  0
LINE
  5
392A
330
1A
100
AcDbEntity
  8
SEIHIN
  6
Continuous
100
AcDbLine
 10
102.6087217368943
 20
169.9734234456108
 30
0.0
 11
102.6087217368943
 21
169.4734234456108
 31
0.0
  0
LINE
  5
392B
330
1A
100
AcDbEntity
  8
SEIHIN
  6
Continuous
100
AcDbLine
 10
102.6087217368943
 20
169.4734234456108
 30
0.0
 11
104.6087217368943
 21
169.4734234456108
 31
0.0
  0
LWPOLYLINE
  5
392D
330
1A
100
AcDbEntity
  8
SEIHIN
  6
Continuous
100
AcDbPolyline
 90
        4
 70
     0
 43
0.0
 10
117.0445825145868
 20
119.4739816585241
 10
116.9980628408466
 20
125.470626216006
 10
116.9360103829216
 20
133.4683840559698
 10
116.9204496330003
 20
135.4734234456107
  0
LINE
  5
392E
330
1A
100
AcDbEntity
  8
SEIHIN
  6
Continuous
100
AcDbLine
 10
117.5850002793828
 20
115.4734234456107
 30
0.0
 11
117.0445825145868
 21
119.4739816585241
 31
0.0
  0
LINE
  5
392F
330
1A
100
AcDbEntity
  8
SEIHIN
  6
Continuous
100
AcDbLine
 10
108.0153753785928
 20
119.4739816585241
 30
0.0
 11
165.1020680951954
 21
119.4739816585242
 31
0.0
  0
LWPOLYLINE
  5
3930
330
1A
100
AcDbEntity
  8
SEIHIN
  6
Continuous
100
AcDbPolyline
 90
        4
 70
     0
 43
0.0
 10
314.2625142000682
 20
129.0048751608444
 10
314.3090338738084
 20
135.0015197183263
 10
314.3710863317334
 20
142.9992775582901
 10
314.3866470816547
 20
145.004316947931
  0
LINE
  5
3931
330
1A
100
AcDbEntity
  8
SEIHIN
  6
Continuous
100
AcDbLine
 10
313.7220964352721
 20
125.004316947931
 30
0.0
 11
314.2625142000682
 21
129.0048751608444
 31
0.0
  0
LINE
  5
3932
330
1A
100
AcDbEntity
  8
SEIHIN
  6
Continuous
100
AcDbLine
 10
317.6983749777607
 20
184.004316947931
 30
0.0
 11
317.6983749777607
 21
145.0043169479311
 31
0.0
  0
LINE
  5
3933
330
1A
100
AcDbEntity
  8
SEIHIN
  6
Continuous
100
AcDbLine
 10
294.7483749777607
 20
184.004316947931
 30
0.0
 11
262.7983749777607
 21
184.004316947931
 31
0.0
  0
LINE
  5
3934
330
1A
100
AcDbEntity
  8
SEIHIN
  6
Continuous
100
AcDbLine
 10
260.7983749777606
 20
179.504316947931
 30
0.0
 11
262.7983749777606
 21
183.504316947931
 31
0.0
  0
LINE
  5
3935
330
1A
100
AcDbEntity
  8
SEIHIN
  6
Continuous
100
AcDbLine
 10
262.7983749777606
 20
179.004316947931
 30
0.0
 11
260.7983749777606
 21
179.004316947931
 31
0.0
  0
LINE
  5
3936
330
1A
100
AcDbEntity
  8
SEIHIN
  6
Continuous
100
AcDbLine
 10
262.7983749777606
 20
145.004316947931
 30
0.0
 11
262.7983749777606
 21
179.004316947931
 31
0.0
  0
LINE
  5
3937
330
1A
100
AcDbEntity
  8
SEIHIN
  6
Continuous
100
AcDbLine
 10
264.1483749777605
 20
155.004316947931
 30
0.0
 11
264.1483749777605
 21
146.004316947931
 31
0.0
  0
LINE
  5
3938
330
1A
100
AcDbEntity
  8
SEIHIN
  6
Continuous
100
AcDbLine
 10
265.5983749777606
 20
155.004316947931
 30
0.0
 11
266.2051570447622
 21
128.9993712192876
 31
0.0
  0
LINE
  5
3939
330
1A
100
AcDbEntity
  8
SEIHIN
  6
Continuous
100
AcDbLine
 10
266.7665076663397
 20
125.0043169479309
 30
0.0
 11
294.7483749777607
 21
125.004316947931
 31
0.0
  0
LINE
  5
393A
330
1A
100
AcDbEntity
  8
SEIHIN
  6
Continuous
100
AcDbLine
 10
266.7665076663397
 20
125.0043169479309
 30
0.0
 11
266.2051570447622
 21
128.9993712192876
 31
0.0
  0
LINE
  5
393C
330
1A
100
AcDbEntity
  8
SEIHIN
  6
Continuous
100
AcDbLine
 10
264.3983749777605
 20
184.004316947931
 30
0.0
 11
264.7483749777606
 21
159.004316947931
 31
0.0
  0
LINE
  5
393D
330
1A
100
AcDbEntity
  8
SEIHIN
  6
Continuous
100
AcDbLine
 10
262.7983749777606
 20
183.504316947931
 30
0.0
 11
262.7983749777606
 21
184.004316947931
 31
0.0
  0
LINE
  5
393E
330
1A
100
AcDbEntity
  8
SEIHIN
  6
Continuous
100
AcDbLine
 10
260.7983749777606
 20
179.004316947931
 30
0.0
 11
260.7983749777606
 21
179.504316947931
 31
0.0
  0
LINE
  5
393F
330
1A
100
AcDbEntity
  8
SEIHIN
  6
Continuous
100
AcDbLine
 10
264.1483749777605
 20
155.004316947931
 30
0.0
 11
264.1483749777605
 21
146.004316947931
 31
0.0
  0
ARC
  5
3940
330
1A
100
AcDbEntity
  8
SEIHIN
  6
Continuous
100
AcDbCircle
 10
263.1483749777605
 20
146.004316947931
 30
0.0
 40
1.0
100
AcDbArc
 50
270.0
 51
0.0000000000002036
  0
LINE
  5
3941
330
1A
100
AcDbEntity
  8
SEIHIN
  6
Continuous
100
AcDbLine
 10
265.5983749777606
 20
155.004316947931
 30
0.0
 11
264.1483749777605
 21
155.004316947931
 31
0.0
  0
LINE
  5
3942
330
1A
100
AcDbEntity
  8
SEIHIN
  6
Continuous
100
AcDbLine
 10
265.5983749777606
 20
155.004316947931
 30
0.0
 11
266.2051570447622
 21
128.9993712192876
 31
0.0
  0
LINE
  5
3943
330
1A
100
AcDbEntity
  8
SEIHIN
  6
Continuous
100
AcDbLine
 10
264.7483749777606
 20
159.004316947931
 30
0.0
 11
268.7682146621766
 21
155.2358078659534
 31
0.0
  0
LINE
  5
3944
330
1A
100
AcDbEntity
  8
SEIHIN
  6
Continuous
100
AcDbLine
 10
264.7483749777606
 20
159.004316947931
 30
0.0
 11
294.7483749777607
 21
159.004316947931
 31
0.0
  0
LINE
  5
3946
330
1A
100
AcDbEntity
  8
SEIHIN
  6
Continuous
100
AcDbLine
 10
294.7483749777607
 20
156.7653450700935
 30
0.0
 11
269.7483749777604
 21
156.7653450700935
 31
0.0
  0
LINE
  5
3948
330
1A
100
AcDbEntity
  8
SEIHIN
  6
Continuous
100
AcDbLine
 10
269.7483749777605
 20
154.9653450700935
 30
0.0
 11
269.7483749777605
 21
156.7653450700935
 31
0.0
  0
LINE
  5
3949
330
1A
100
AcDbEntity
  8
SEIHIN
  6
Continuous
100
AcDbLine
 10
267.9483749777607
 20
156.0043169479309
 30
0.0
 11
267.7983749777607
 21
125.0043169479309
 31
0.0
  0
ARC
  5
394B
330
1A
100
AcDbEntity
  8
SEIHIN
  6
Continuous
100
AcDbCircle
 10
269.4521557910579
 20
155.9653450700935
 30
0.0
 40
1.0
100
AcDbArc
 50
226.8476102659954
 51
270.0000000000162
  0
LINE
  5
394C
330
1A
100
AcDbEntity
  8
SEIHIN
  6
Continuous
100
AcDbLine
 10
294.7483749777607
 20
154.9653450700935
 30
0.0
 11
269.4521557910582
 21
154.9653450700935
 31
0.0
  0
LINE
  5
394D
330
1A
100
AcDbEntity
  8
SEIHIN
  6
Continuous
100
AcDbLine
 10
265.8317083110939
 20
145.004316947931
 30
0.0
 11
262.7983749777606
 21
145.004316947931
 31
0.0
  0
LINE
  5
394E
330
1A
100
AcDbEntity
  8
SEIHIN
  6
Continuous
100
AcDbLine
 10
266.4177071477552
 20
158.5806561434144
 30
0.0
 11
269.1798494350407
 21
156.9097229234514
 31
0.0
  0
ARC
  5
394F
330
1A
100
AcDbEntity
  8
SEIHIN
  6
Continuous
100
AcDbCircle
 10
269.6974503838184
 20
157.7653450700935
 30
0.0
 40
1.0
100
AcDbArc
 50
238.8285349706327
 51
270.0
  0
LINE
  5
3950
330
1A
100
AcDbEntity
  8
SEIHIN
  6
Continuous
100
AcDbLine
 10
269.9233749777605
 20
156.7653450700935
 30
0.0
 11
269.6974503838184
 21
156.7653450700935
 31
0.0
  0
LINE
  5
3951
330
1A
100
AcDbEntity
  8
SEIHIN
  6
Continuous
100
AcDbLine
 10
294.7483749777605
 20
158.6528450700935
 30
0.0
 11
265.3762530590903
 21
158.6528450700935
 31
0.0
  0
ARC
  5
3952
330
1A
100
AcDbEntity
  8
SEIHIN
  6
Continuous
100
AcDbCircle
 10
265.3762530590903
 20
158.5528450700935
 30
0.0
 40
0.1000000000000227
100
AcDbArc
 50
90.0
 51
226.8476102670045
  0
ARC
  5
3953
330
1A
100
AcDbEntity
  8
SEIHIN
  6
Continuous
100
AcDbCircle
 10
266.1589066733661
 20
158.1528450700935
 30
0.0
 40
0.5000000000000007
100
AcDbArc
 50
58.82853497058693
 51
90.00000000000651
  0
LINE
  5
395D
330
1A
100
AcDbEntity
  8
CENTER　L
 48
0.3
100
AcDbLine
 10
294.7483749777607
 20
188.8546225171646
 30
0.0
 11
294.7483749777607
 21
119.3471053099854
 31
0.0
  0
LINE
  5
395F
330
1A
100
AcDbEntity
  8
CENTER　L
 48
0.3
100
AcDbLine
 10
136.5587217368942
 20
104.9600101036121
 30
0.0
 11
136.5587217368942
 21
29.38085373058788
 31
0.0
  0
LINE
  5
3960
330
1A
100
AcDbEntity
  8
CENTER　L
 48
0.3
100
AcDbLine
 10
98.76914355038209
 20
67.17043191710001
 30
0.0
 11
174.3482999234063
 21
67.17043191710001
 31
0.0
  0
LINE
  5
3961
330
1A
100
AcDbEntity
  8
SEIHIN
100
AcDbLine
 10
136.558721736894
 20
99.27043191709991
 30
0.0
 11
114.552680575766
 21
99.12660158271343
 31
0.0
  0
ARC
  5
3962
330
1A
100
AcDbEntity
  8
SEIHIN
100
AcDbCircle
 10
114.5592163838796
 20
98.12662294133531
 30
0.0
 40
1.000000000000049
100
AcDbArc
 50
90.37447688672369
 51
174.2964790675021
  0
ARC
  5
3963
330
1A
100
AcDbEntity
  8
SEIHIN
100
AcDbCircle
 10
104.608721736894
 20
99.12043191709983
 30
0.0
 40
9.000000000000008
100
AcDbArc
 50
275.739170477268
 51
354.2964790675029
  0
LINE
  5
3964
330
1A
100
AcDbEntity
  8
SEIHIN
100
AcDbLine
 10
104.608721736894
 20
89.17055754603365
 30
0.0
 11
104.6087217368942
 21
45.17030628816605
 31
0.0
  0
ARC
  5
3965
330
1A
100
AcDbEntity
  8
SEIHIN
100
AcDbCircle
 10
105.608721736894
 20
89.17055754603365
 30
0.0
 40
0.9999999999999927
100
AcDbArc
 50
95.73917047726808
 51
180.0
  0
LINE
  5
3966
330
1A
100
AcDbEntity
  8
SEIHIN
100
AcDbLine
 10
102.6087217368942
 20
63.67043191709989
 30
0.0
 11
102.6087217368941
 21
70.67043191709984
 31
0.0
  0
LINE
  5
3967
330
1A
100
AcDbEntity
  8
SEIHIN
100
AcDbLine
 10
102.6087217368942
 20
63.67043191709989
 30
0.0
 11
104.6087217368941
 21
63.67043191709985
 31
0.0
  0
LINE
  5
3968
330
1A
100
AcDbEntity
  8
SEIHIN
100
AcDbLine
 10
102.6087217368941
 20
70.67043191709984
 30
0.0
 11
104.6087217368941
 21
70.67043191709984
 31
0.0
  0
ARC
  5
3969
330
1A
100
AcDbEntity
  8
SEIHIN
100
AcDbCircle
 10
104.6087217368942
 20
35.22043191709986
 30
0.0
 40
9.000000000000008
100
AcDbArc
 50
5.703520932498087
 51
84.26082952273192
  0
ARC
  5
396A
330
1A
100
AcDbEntity
  8
SEIHIN
100
AcDbCircle
 10
105.6025307126589
 20
45.17092656408542
 30
0.0
 40
1.000000000000049
100
AcDbArc
 50
180.3744768867236
 51
264.2964790675021
  0
LINE
  5
396B
330
1A
100
AcDbEntity
  8
SEIHIN
100
AcDbLine
 10
114.5526805757663
 20
35.21426225148633
 30
0.0
 11
136.5587217368943
 21
35.07043191709999
 31
0.0
  0
ARC
  5
396C
330
1A
100
AcDbEntity
  8
SEIHIN
100
AcDbCircle
 10
114.5585961079605
 20
36.22043191709983
 30
0.0
 40
0.9999999999999927
100
AcDbArc
 50
185.739170477268
 51
270.0
  0
CIRCLE
  5
396D
330
1A
100
AcDbEntity
  8
SEIHIN
100
AcDbCircle
 10
136.5587217368942
 20
67.17043191710001
 30
0.0
 40
25.0
  0
ARC
  5
396F
330
1A
100
AcDbEntity
  8
SEIHIN
100
AcDbCircle
 10
105.5008447441678
 20
98.22830890982665
 30
0.0
 40
12.55216714919353
100
AcDbArc
 50
285.6951441725508
 51
344.3048558274508
  0
LINE
  5
3970
330
1A
100
AcDbEntity
  8
SEIHIN
100
AcDbLine
 10
108.5768544254732
 20
85.72215541533863
 30
0.0
 11
108.5768544254731
 21
48.6187084188618
 31
0.0
  0
ARC
  5
3971
330
1A
100
AcDbEntity
  8
SEIHIN
100
AcDbCircle
 10
109.0134679797305
 20
85.72351301613641
 30
0.0
 40
0.4366156649057897
100
AcDbArc
 50
105.5469693967701
 51
180.1781542156366
  0
ARC
  5
3972
330
1A
100
AcDbEntity
  8
SEIHIN
100
AcDbCircle
 10
105.5374377374998
 20
98.19171591649462
 30
0.0
 40
14.00000000000001
100
AcDbArc
 50
289.7599789215806
 51
340.2400210006408
  0
ARC
  5
3973
330
1A
100
AcDbEntity
  8
SEIHIN
100
AcDbCircle
 10
110.6090700952529
 20
84.07489825486512
 30
0.0
 40
1.000348359694449
100
AcDbArc
 50
109.781595260349
 51
180.0029608095557
  0
LINE
  5
3974
330
1A
100
AcDbEntity
  8
SEIHIN
100
AcDbLine
 10
109.6087217368942
 20
84.07484656098807
 30
0.0
 11
109.608721736894
 21
50.26601727321235
 31
0.0
  0
LINE
  5
3975
330
1A
100
AcDbEntity
  8
SEIHIN
100
AcDbLine
 10
153.463136380782
 20
94.12043191710006
 30
0.0
 11
119.6543070930064
 21
94.12043191710017
 31
0.0
  0
ARC
  5
3976
330
1A
100
AcDbEntity
  8
SEIHIN
100
AcDbCircle
 10
119.6542678531194
 20
93.12006584358149
 30
0.0
 40
1.000366074288292
100
AcDbArc
 50
89.99775254282601
 51
160.2176913872688
  0
LINE
  5
3977
330
1A
100
AcDbEntity
  8
SEIHIN
100
AcDbLine
 10
155.1104452351327
 20
95.15229922852105
 30
0.0
 11
118.0069982386557
 21
95.15229922852116
 31
0.0
  0
ARC
  5
3978
330
1A
100
AcDbEntity
  8
SEIHIN
100
AcDbCircle
 10
118.0056403573432
 20
94.71568604466757
 30
0.0
 40
0.436615295376198
100
AcDbArc
 50
89.82180882224936
 51
164.453067565337
  0
ARC
  5
3979
330
1A
100
AcDbEntity
  8
SEIHIN
100
AcDbCircle
 10
110.6090700952529
 20
50.26596557933492
 30
0.0
 40
1.000348359694449
100
AcDbArc
 50
179.9970391904443
 51
250.218404739651
  0
ARC
  5
397A
330
1A
100
AcDbEntity
  8
SEIHIN
100
AcDbCircle
 10
109.0134679797305
 20
48.61735081806364
 30
0.0
 40
0.4366156649057897
100
AcDbArc
 50
179.8218457843633
 51
254.4530306032299
  0
ARC
  5
397B
330
1A
100
AcDbEntity
  8
SEIHIN
100
AcDbCircle
 10
119.6542678531194
 20
41.22079799061856
 30
0.0
 40
1.000366074288292
100
AcDbArc
 50
199.7823086127311
 51
270.0022474571739
  0
ARC
  5
397C
330
1A
100
AcDbEntity
  8
SEIHIN
100
AcDbCircle
 10
118.0056403573432
 20
39.62517778953247
 30
0.0
 40
0.436615295376198
100
AcDbArc
 50
195.5469324346629
 51
270.1781911777506
  0
ARC
  5
397D
330
1A
100
AcDbEntity
  8
SEIHIN
100
AcDbCircle
 10
105.5008447441678
 20
36.1125549243734
 30
0.0
 40
12.55216714919353
100
AcDbArc
 50
15.6951441725492
 51
74.30485582744914
  0
ARC
  5
397E
330
1A
100
AcDbEntity
  8
SEIHIN
100
AcDbCircle
 10
105.5374377374998
 20
36.14914791770542
 30
0.0
 40
14.00000000000001
100
AcDbArc
 50
19.75997899935915
 51
70.24002107841937
  0
LINE
  5
397F
330
1A
100
AcDbEntity
  8
SEIHIN
100
AcDbLine
 10
156.741075413181
 20
97.77043191709999
 30
0.0
 11
116.3763680606074
 21
97.77043191710008
 31
0.0
  0
ARC
  5
3980
330
1A
100
AcDbEntity
  8
SEIHIN
100
AcDbCircle
 10
116.3763680606074
 20
96.77043191710009
 30
0.0
 40
1.000000000000001
100
AcDbArc
 50
90.0
 51
168.7065912890935
  0
ARC
  5
3981
330
1A
100
AcDbEntity
  8
SEIHIN
100
AcDbCircle
 10
104.6087217368942
 20
99.1204319171002
 30
0.0
 40
11.0
100
AcDbArc
 50
281.2934087109053
 51
348.7065912890952
  0
ARC
  5
3982
330
1A
100
AcDbEntity
  8
SEIHIN
100
AcDbCircle
 10
106.9587217368941
 20
87.352785593387
 30
0.0
 40
1.0
100
AcDbArc
 50
101.2934087109053
 51
180.0
  0
LINE
  5
3983
330
1A
100
AcDbEntity
  8
SEIHIN
100
AcDbLine
 10
105.9587217368941
 20
87.352785593387
 30
0.0
 11
105.9587217368941
 21
46.98807824081334
 31
0.0
  0
LINE
  5
3986
330
1A
100
AcDbEntity
  8
SEIHIN
100
AcDbLine
 10
155.3055954693989
 20
96.32043191709994
 30
0.0
 11
117.8118480043896
 21
96.32043191710005
 31
0.0
  0
LINE
  5
3987
330
1A
100
AcDbEntity
  8
SEIHIN
100
AcDbLine
 10
107.4087217368942
 20
86.2183971938483
 30
0.0
 11
107.4087217368941
 21
48.12246664035171
 31
0.0
  0
ARC
  5
3F2F
330
1A
100
AcDbEntity
  8
SEIHIN
100
AcDbCircle
 10
106.9587217368941
 20
46.98807824081302
 30
0.0
 40
1.0
100
AcDbArc
 50
180.0
 51
258.7065912890945
  0
ARC
  5
3F32
330
1A
100
AcDbEntity
  8
SEIHIN
100
AcDbCircle
 10
104.6087217368942
 20
35.22043191709986
 30
0.0
 40
11.0
100
AcDbArc
 50
11.29340871090487
 51
78.70659128909466
  0
ARC
  5
3F33
330
1A
100
AcDbEntity
  8
SEIHIN
100
AcDbCircle
 10
116.3763680606074
 20
37.57043191709994
 30
0.0
 40
1.000000000000001
100
AcDbArc
 50
191.2934087109064
 51
270.0
  0
LINE
  5
3F34
330
1A
100
AcDbEntity
  8
SEIHIN
100
AcDbLine
 10
155.3055954693989
 20
38.0204319171001
 30
0.0
 11
117.8118480043896
 21
38.02043191709998
 31
0.0
  0
LINE
  5
3F35
330
1A
100
AcDbEntity
  8
SEIHIN
100
AcDbLine
 10
156.741075413181
 20
36.57043191710005
 30
0.0
 11
116.3763680606074
 21
36.57043191709993
 31
0.0
  0
LINE
  5
3F36
330
1A
100
AcDbEntity
  8
SEIHIN
100
AcDbLine
 10
153.463136380782
 20
40.22043191709996
 30
0.0
 11
119.6543070930064
 21
40.22043191709985
 31
0.0
  0
LINE
  5
3F37
330
1A
100
AcDbEntity
  8
SEIHIN
100
AcDbLine
 10
155.1104452351327
 20
39.18856460567901
 30
0.0
 11
118.0069982386557
 21
39.18856460567886
 31
0.0
  0
LINE
  5
3F39
330
1A
100
AcDbEntity
  8
SEIHIN
100
AcDbLine
 10
165.7087217368944
 20
86.2183971938492
 30
0.0
 11
165.7087217368945
 21
48.12246664035082
 31
0.0
  0
LINE
  5
3F3A
330
1A
100
AcDbEntity
  8
SEIHIN
100
AcDbLine
 10
167.1587217368942
 20
87.35278559338713
 30
0.0
 11
167.1587217368943
 21
46.98807824081344
 31
0.0
  0
LINE
  5
3F3B
330
1A
100
AcDbEntity
  8
SEIHIN
100
AcDbLine
 10
163.5087217368941
 20
84.07484656098819
 30
0.0
 11
163.5087217368944
 21
50.26601727321247
 31
0.0
  0
LINE
  5
3F3C
330
1A
100
AcDbEntity
  8
SEIHIN
100
AcDbLine
 10
164.540589048315
 20
85.72215541533877
 30
0.0
 11
164.5405890483153
 21
48.61870841886187
 31
0.0
  0
LINE
  5
3F3D
330
1A
100
AcDbEntity
  8
SEIHIN
100
AcDbLine
 10
168.5087217368943
 20
89.17055754603376
 30
0.0
 11
168.5148914025077
 21
45.16439075597193
 31
0.0
  0
ARC
  5
3F3E
330
1A
100
AcDbEntity
  8
SEIHIN
100
AcDbCircle
 10
168.5087217368943
 20
35.22043191709997
 30
0.0
 40
11.0
100
AcDbArc
 50
101.2934087109055
 51
168.7065912890953
  0
ARC
  5
3F40
330
1A
100
AcDbEntity
  8
SEIHIN
100
AcDbCircle
 10
167.5800057362887
 20
36.14914791770554
 30
0.0
 40
14.00000000000001
100
AcDbArc
 50
109.7599789215808
 51
160.240021000641
  0
ARC
  5
3F41
330
1A
100
AcDbEntity
  8
SEIHIN
100
AcDbCircle
 10
167.6165987296208
 20
36.11255492437351
 30
0.0
 40
12.55216714919353
100
AcDbArc
 50
105.695144172551
 51
164.3048558274509
  0
ARC
  5
3F42
330
1A
100
AcDbEntity
  8
SEIHIN
100
AcDbCircle
 10
168.5087217368943
 20
35.22043191709997
 30
0.0
 40
9.000000000000008
100
AcDbArc
 50
95.73917047726828
 51
174.2964790675021
  0
ARC
  5
3F44
330
1A
100
AcDbEntity
  8
SEIHIN
100
AcDbCircle
 10
156.741075413181
 20
37.57043191709999
 30
0.0
 40
1.000000000000001
100
AcDbArc
 50
270.0000000000002
 51
348.7065912890936
  0
ARC
  5
3F45
330
1A
100
AcDbEntity
  8
SEIHIN
100
AcDbCircle
 10
155.1118031164451
 20
39.62517778953254
 30
0.0
 40
0.436615295376198
100
AcDbArc
 50
269.8218088222495
 51
344.4530675653372
  0
ARC
  5
3F46
330
1A
100
AcDbEntity
  8
SEIHIN
100
AcDbCircle
 10
153.463175620669
 20
41.22079799061861
 30
0.0
 40
1.000366074288292
100
AcDbArc
 50
269.9977525428262
 51
340.2176913872692
  0
ARC
  5
3F47
330
1A
100
AcDbEntity
  8
SEIHIN
100
AcDbCircle
 10
158.5588473658278
 20
36.22043191709991
 30
0.0
 40
0.9999999999999927
100
AcDbArc
 50
270.0000000000002
 51
354.2608295227321
  0
ARC
  5
3F48
330
1A
100
AcDbEntity
  8
SEIHIN
100
AcDbCircle
 10
164.1039754940579
 20
48.61735081806376
 30
0.0
 40
0.4366156649057897
100
AcDbArc
 50
285.5469693967704
 51
0.178154215636797
  0
ARC
  5
3F4A
330
1A
100
AcDbEntity
  8
SEIHIN
100
AcDbCircle
 10
166.1587217368943
 20
46.98807824081312
 30
0.0
 40
1.0
100
AcDbArc
 50
281.2934087109055
 51
0.0000000000002099
  0
ARC
  5
3F4B
330
1A
100
AcDbEntity
  8
SEIHIN
100
AcDbCircle
 10
167.5149127611295
 20
45.17092656408553
 30
0.0
 40
1.000000000000049
100
AcDbArc
 50
275.7035209324981
 51
359.6255231132766
  0
ARC
  5
3F4C
330
1A
100
AcDbEntity
  8
SEIHIN
100
AcDbCircle
 10
162.5083733785355
 20
50.26596557933501
 30
0.0
 40
1.000348359694449
100
AcDbArc
 50
289.7815952603492
 51
0.0029608095559015
  0
LINE
  5
3F4D
330
1A
100
AcDbEntity
  8
SEIHIN
100
AcDbLine
 10
170.5087217368941
 20
63.67043191710002
 30
0.0
 11
170.5087217368942
 21
70.67043191709995
 31
0.0
  0
LINE
  5
3F4E
330
1A
100
AcDbEntity
  8
SEIHIN
100
AcDbLine
 10
170.5087217368941
 20
63.67043191710002
 30
0.0
 11
168.5087217368943
 21
63.67043191709996
 31
0.0
  0
LINE
  5
3F4F
330
1A
100
AcDbEntity
  8
SEIHIN
100
AcDbLine
 10
170.5087217368942
 20
70.67043191709995
 30
0.0
 11
168.5087217368942
 21
70.67043191709995
 31
0.0
  0
ARC
  5
3F50
330
1A
100
AcDbEntity
  8
SEIHIN
100
AcDbCircle
 10
156.7410754131808
 20
96.77043191710017
 30
0.0
 40
1.000000000000001
100
AcDbArc
 50
11.29340871090669
 51
90.00000000000019
  0
ARC
  5
3F51
330
1A
100
AcDbEntity
  8
SEIHIN
100
AcDbCircle
 10
168.5087217368943
 20
99.12043191709996
 30
0.0
 40
9.000000000000008
100
AcDbArc
 50
185.7035209324973
 51
264.260829522732
  0
ARC
  5
3F53
330
1A
100
AcDbEntity
  8
SEIHIN
100
AcDbCircle
 10
168.5087217368941
 20
99.12043191710028
 30
0.0
 40
11.0
100
AcDbArc
 50
191.293408710905
 51
258.7065912890949
  0
ARC
  5
3F54
330
1A
100
AcDbEntity
  8
SEIHIN
100
AcDbCircle
 10
167.5800057362885
 20
98.19171591649471
 30
0.0
 40
14.00000000000001
100
AcDbArc
 50
199.7599789993593
 51
250.2400210784195
  0
ARC
  5
3F55
330
1A
100
AcDbEntity
  8
SEIHIN
100
AcDbCircle
 10
167.6165987296205
 20
98.22830890982679
 30
0.0
 40
12.55216714919353
100
AcDbArc
 50
195.6951441725493
 51
254.3048558274493
  0
ARC
  5
3F57
330
1A
100
AcDbEntity
  8
SEIHIN
100
AcDbCircle
 10
166.1587217368942
 20
87.35278559338713
 30
0.0
 40
1.0
100
AcDbArc
 50
0.0000000000002099
 51
78.70659128909486
  0
ARC
  5
3F58
330
1A
100
AcDbEntity
  8
SEIHIN
100
AcDbCircle
 10
167.5087217368943
 20
89.17055754603376
 30
0.0
 40
0.9999999999999927
100
AcDbArc
 50
0.0000000000002099
 51
84.2608295227321
  0
ARC
  5
3F59
330
1A
100
AcDbEntity
  8
SEIHIN
100
AcDbCircle
 10
162.5083733785354
 20
84.0748982548652
 30
0.0
 40
1.000348359694449
100
AcDbArc
 50
359.9970391904445
 51
70.21840473965117
  0
ARC
  5
3F5A
330
1A
100
AcDbEntity
  8
SEIHIN
100
AcDbCircle
 10
164.1039754940577
 20
85.7235130161365
 30
0.0
 40
0.4366156649057897
100
AcDbArc
 50
359.8218457843636
 51
74.45303060323006
  0
ARC
  5
3F5C
330
1A
100
AcDbEntity
  8
SEIHIN
100
AcDbCircle
 10
155.111803116445
 20
94.71568604466762
 30
0.0
 40
0.436615295376198
100
AcDbArc
 50
15.54693243466314
 51
90.17819117775088
  0
ARC
  5
3F5D
330
1A
100
AcDbEntity
  8
SEIHIN
100
AcDbCircle
 10
153.4631756206688
 20
93.12006584358153
 30
0.0
 40
1.000366074288292
100
AcDbArc
 50
19.78230861273135
 51
90.00224745717416
  0
ARC
  5
3F5E
330
1A
100
AcDbEntity
  8
SEIHIN
100
AcDbCircle
 10
158.5582270899086
 20
98.12662294133543
 30
0.0
 40
1.000000000000049
100
AcDbArc
 50
5.703520932498107
 51
89.62552311327653
  0
LINE
  5
3F5F
330
1A
100
AcDbEntity
  8
SEIHIN
100
AcDbLine
 10
136.5587217368943
 20
99.27043191709991
 30
0.0
 11
158.5647628980223
 21
99.12660158271343
 31
0.0
  0
LINE
  5
3F60
330
1A
100
AcDbEntity
  8
SEIHIN
100
AcDbLine
 10
158.564762898022
 20
35.21426225148633
 30
0.0
 11
136.558721736894
 21
35.07043191709999
 31
0.0
  0
DIMENSION
  5
3F83
330
1A
100
AcDbEntity
  8
SUNPOU
100
AcDbDimension
  2
*D2
 10
168.5087217368942
 20
187.8769919805332
 30
0.0
 11
136.5587217368942
 21
191.1269919805332
 31
0.0
 70
    32
  1
\U+25A1<>
 71
     5
 42
-1.0
  3
STANDARD
100
AcDbAlignedDimension
 13
104.6087217368942
 23
174.4734234456108
 33
0.0
 14
168.5087217368942
 24
174.4734234456108
 34
0.0
100
AcDbRotatedDimension
  0
DIMENSION
  5
3F90
330
1A
100
AcDbEntity
  8
SUNPOU
100
AcDbDimension
  2
*D3
 10
199.3167824337976
 20
115.4734234456108
 30
0.0
 11
196.0667824337976
 21
144.9734234456108
 31
0.0
 70
    32
 71
     5
 42
-1.0
  3
STANDARD
100
AcDbAlignedDimension
 13
168.5087217368942
 23
174.4734234456108
 33
0.0
 14
164.5405890483152
 24
115.4734234456108
 34
0.0
 50
90.0
100
AcDbRotatedDimension
  0
DIMENSION
  5
3FA6
330
1A
100
AcDbEntity
  8
SUNPOU
100
AcDbDimension
  2
*D4
 10
191.8061137407564
 20
135.4734234456108
 30
0.0
 11
188.5561137407564
 21
154.9734234456108
 31
0.0
 70
    32
 71
     5
 42
-1.0
  3
STANDARD
100
AcDbAlignedDimension
 13
168.5087217368942
 23
174.4734234456108
 33
0.0
 14
168.5087217368942
 24
135.4734234456108
 34
0.0
 50
90.0
100
AcDbRotatedDimension
  0
DIMENSION
  5
3FB5
330
1A
100
AcDbEntity
  8
SUNPOU
100
AcDbDimension
  2
*D5
 10
86.50174980657174
 20
149.4734234456107
 30
0.0
 11
83.25174980657171
 21
161.9734234456107
 31
0.0
 70
    32
  1
\U+203B<>
 71
     5
 42
-1.0
  3
STANDARD
100
AcDbAlignedDimension
 13
104.6087217368942
 23
174.4734234456108
 33
0.0
 14
104.6087217368942
 24
149.4734234456107
 34
0.0
 50
90.0
100
AcDbRotatedDimension
  0
DIMENSION
  5
3FC2
330
1A
100
AcDbEntity
  8
SUNPOU
100
AcDbDimension
  2
*D6
 10
86.50174980657174
 20
145.4734234456108
 30
0.0
 11
83.25174980657171
 21
130.4734234456108
 31
0.0
 70
    32
 71
     5
 42
-1.0
  3
STANDARD
100
AcDbAlignedDimension
 13
108.5768544254732
 23
115.4734234456108
 33
0.0
 14
104.6087217368942
 24
145.4734234456108
 34
0.0
 50
90.0
100
AcDbRotatedDimension
  0
DIMENSION
  5
3FCF
330
1A
100
AcDbEntity
  8
SUNPOU
100
AcDbDimension
  2
*D7
 10
94.01724139059751
 20
135.4734234456108
 30
0.0
 11
90.56039809949607
 21
140.1247123657315
 31
0.0
 70
   160
  1
\U+203B<>
 71
     5
 42
-1.0
  3
STANDARD
100
AcDbAlignedDimension
 13
104.6087217368942
 23
145.4734234456108
 33
0.0
 14
104.6087217368942
 24
135.4734234456108
 34
0.0
 50
90.0
100
AcDbRotatedDimension
1001
ACAD
1000
DSTYLE
1002
{
1070
   287
1070
     5
1070
   287
1070
     5
1070
   287
1070
     5
1070
   287
1070
     5
1070
   287
1070
     5
1070
   279
1070
     2
1002
}
  0
INSERT
  5
4031
330
1A
100
AcDbEntity
  8
ﾊｯﾁﾝｸﾞ
  6
Continuous
100
AcDbBlockReference
  2
*X8
 10
0.0
 20
0.0
 30
0.0
1001
ACAD
1000
HATCH
1002
{
1070
    19
1000
_USER
1040
1.5
1040
0.7853981633974483
1000
R14_HATCH_DATA
1000
4031
1011
1.0
1021
0.0
1031
0.0
1011
0.0
1021
1.0
1031
0.0
1011
0.0
1021
0.0
1031
1.0
1040
0.0
1010
0.0
1020
0.0
1030
1.0
1000
_USER
1070
     0
1070
     0
1071
        5
1071
       48
1071
        1
1070
     1
1040
264.1483749777605
1040
155.004316947931
1040
264.1483749777605
1040
146.004316947931
1071
        0
1071
       16
1071
        2
1070
     1
1040
265.5983749777606
1040
155.004316947931
1040
266.2051570447622
1040
128.9993712192876
1070
     1
1040
266.2051570447622
1040
128.9993712192876
1040
265.5983749777606
1040
155.004316947931
1071
        0
1071
        0
1071
        2
1070
     1
1040
265.5983749777606
1040
155.004316947931
1040
266.2051570447622
1040
128.9993712192876
1070
     1
1040
266.2051570447622
1040
128.9993712192876
1040
265.5983749777606
1040
155.004316947931
1071
        0
1071
        0
1071
        2
1070
     1
1040
265.5983749777606
1040
155.004316947931
1040
266.2051570447622
1040
128.9993712192876
1070
     1
1040
266.2051570447622
1040
128.9993712192876
1040
265.5983749777606
1040
155.004316947931
1071
        0
1071
       33
1071
       24
1070
     1
1040
266.7665076663397
1040
125.0043169479309
1040
266.2051570447622
1040
128.9993712192876
1070
     1
1040
267.7983749777606
1040
125.004316947931
1040
266.7665076663397
1040
125.0043169479309
1070
     1
1040
267.9483753252486
1040
156.0043887620905
1040
267.7983749777606
1040
125.004316947931
1070
     1
1040
268.7682146621766
1040
155.2358078659534
1040
267.9483753252486
1040
156.0043887620905
1070
     2
1040
269.4521557910578
1040
155.9653450700931
1040
0.9999999999996303
1040
3.959237699422336
1040
4.712388980384802
1070
     1
1070
     1
1040
269.7483749777605
1040
154.9653450700935
1040
269.4521557910579
1040
154.9653450700935
1070
     1
1040
269.7483749777606
1040
156.7653450700935
1040
269.7483749777605
1040
154.9653450700935
1070
     1
1040
269.6974503838184
1040
156.7653450700935
1040
269.7483749777606
1040
156.7653450700935
1070
     2
1040
269.6974503838184
1040
157.7653450700937
1040
1.000000000000212
1040
4.168344282952017
1040
4.712388980384746
1070
     1
1070
     1
1040
266.4177071477552
1040
158.5806561434144
1040
269.1798494350407
1040
156.9097229234514
1070
     2
1040
266.1589066733661
1040
158.1528450700935
1040
0.5
1040
1.026751629361366
1040
1.57079632679501
1070
     1
1070
     1
1040
265.3762530590903
1040
158.6528450700935
1040
266.158906673366
1040
158.6528450700935
1070
     2
1040
265.3762530590903
1040
158.5528450700935
1040
0.1000000000000022
1040
1.570796326794896
1040
3.959237699440301
1070
     1
1070
     1
1040
264.7483749777606
1040
159.004316947931
1040
265.3078589462035
1040
158.4798913496783
1070
     1
1040
264.3983749777605
1040
184.004316947931
1040
264.7483749777606
1040
159.004316947931
1070
     1
1040
262.7983749777606
1040
184.004316947931
1040
264.3983749777605
1040
184.004316947931
1070
     1
1040
262.7983749777606
1040
183.504316947931
1040
262.7983749777606
1040
184.004316947931
1070
     1
1040
260.7983749777606
1040
179.504316947931
1040
262.7983749777606
1040
183.504316947931
1070
     1
1040
260.7983749777606
1040
179.004316947931
1040
260.7983749777606
1040
179.504316947931
1070
     1
1040
262.7983749777606
1040
179.004316947931
1040
260.7983749777606
1040
179.004316947931
1070
     1
1040
262.7983749777606
1040
145.004316947931
1040
262.7983749777606
1040
179.004316947931
1070
     1
1040
263.1483749777605
1040
145.004316947931
1040
262.7983749777606
1040
145.004316947931
1070
     2
1040
263.1483749777605
1040
146.004316947931
1040
1.0
1040
4.712388980384688
1040
6.283185307179585
1070
     1
1070
     1
1040
265.5983749777606
1040
155.004316947931
1040
264.1483749777605
1040
155.004316947931
1071
        0
1070
     0
1070
     0
1040
0.7853981633974483
1040
1.5
1070
     0
1070
     1
1040
0.7853981633974483
1040
-55.48942599612201
1040
0.0
1040
-1.06066017177982
1040
1.06066017177982
1070
     0
1071
        1
1040
-55.48942599612201
1040
0.0
1040
0.0
1002
}
  0
LINE
  5
4033
330
1A
100
AcDbEntity
  8
SEIHIN
  6
Continuous
100
AcDbLine
 10
294.7483749777607
 20
145.004316947931
 30
0.0
 11
326.6983749777606
 21
145.0043169479311
 31
0.0
  0
LINE
  5
4034
330
1A
100
AcDbEntity
  8
SEIHIN
  6
Continuous
100
AcDbLine
 10
294.7483749777607
 20
125.004316947931
 30
0.0
 11
322.7302422891817
 21
125.0043169479311
 31
0.0
  0
LINE
  5
4035
330
1A
100
AcDbEntity
  8
SEIHIN
  6
Continuous
100
AcDbLine
 10
155.5324431944058
 20
115.4734234456108
 30
0.0
 11
156.0728609592016
 21
119.4739816585242
 31
0.0
  0
LINE
  5
4036
330
1A
100
AcDbEntity
  8
SEIHIN
  6
Continuous
100
AcDbLine
 10
164.5405890483152
 20
115.4734234456109
 30
0.0
 11
165.1019396698925
 21
119.4684777169674
 31
0.0
  0
LINE
  5
4037
330
1A
100
AcDbEntity
  8
SEIHIN
  6
Continuous
100
AcDbLine
 10
136.5587217368943
 20
115.4734234456108
 30
0.0
 11
164.5405890483152
 21
115.4734234456109
 31
0.0
  0
LINE
  5
4038
330
1A
100
AcDbEntity
  8
SEIHIN
  6
Continuous
100
AcDbLine
 10
159.5087217368943
 20
174.4734234456107
 30
0.0
 11
159.5087217368943
 21
135.4734234456109
 31
0.0
  0
LINE
  5
4039
330
1A
100
AcDbEntity
  8
SEIHIN
  6
Continuous
100
AcDbLine
 10
168.5087217368942
 20
174.4734234456108
 30
0.0
 11
168.5087217368942
 21
135.4734234456109
 31
0.0
  0
LINE
  5
403A
330
1A
100
AcDbEntity
  8
SEIHIN
  6
Continuous
100
AcDbLine
 10
136.5587217368943
 20
135.4734234456108
 30
0.0
 11
168.5087217368942
 21
135.4734234456109
 31
0.0
  0
LINE
  5
403B
330
1A
100
AcDbEntity
  8
SEIHIN
  6
Continuous
100
AcDbLine
 10
165.4753884035609
 20
135.4734234456109
 30
0.0
 11
165.1019396698925
 21
119.4684777169674
 31
0.0
  0
LWPOLYLINE
  5
403C
330
1A
100
AcDbEntity
  8
SEIHIN
  6
Continuous
100
AcDbPolyline
 90
        4
 70
     0
 43
0.0
 10
156.0728609592016
 20
119.4739816585242
 10
156.119380632942
 20
125.4706262160061
 10
156.181433090867
 20
133.4683840559699
 10
156.1969938407883
 20
135.4734234456108
  0
LINE
  5
403D
330
1A
100
AcDbEntity
  8
SEIHIN
  6
Continuous
100
AcDbLine
 10
170.5087217368942
 20
169.9734234456109
 30
0.0
 11
170.5087217368942
 21
169.4734234456109
 31
0.0
  0
LINE
  5
403E
330
1A
100
AcDbEntity
  8
SEIHIN
  6
Continuous
100
AcDbLine
 10
168.5087217368942
 20
173.9734234456109
 30
0.0
 11
170.5087217368942
 21
169.9734234456109
 31
0.0
  0
LINE
  5
403F
330
1A
100
AcDbEntity
  8
SEIHIN
  6
Continuous
100
AcDbLine
 10
170.5087217368942
 20
169.4734234456109
 30
0.0
 11
168.5087217368942
 21
169.4734234456109
 31
0.0
  0
LINE
  5
4040
330
1A
100
AcDbEntity
  8
SEIHIN
  6
Continuous
100
AcDbLine
 10
104.6087217368942
 20
174.4734234456107
 30
0.0
 11
168.5087217368942
 21
174.4734234456108
 31
0.0
  0
LINE
  5
4051
330
1A
100
AcDbEntity
  8
SEIHIN
  6
Continuous
100
AcDbLine
 10
273.575434001919
 20
184.004316947931
 30
0.0
 11
273.575434001919
 21
159.004316947931
 31
0.0
  0
LINE
  5
4053
330
1A
100
AcDbEntity
  8
SEIHIN
  6
Continuous
100
AcDbLine
 10
273.5649767089377
 20
154.9653450700935
 30
0.0
 11
273.5649767089377
 21
125.004316947931
 31
0.0
  0
ARC
  5
41CA
330
1A
100
AcDbEntity
  8
SEIHIN
  6
Continuous
100
AcDbCircle
 10
157.2038555280427
 20
211.565007927505
 30
0.0
 40
0.65
100
AcDbArc
 50
269.9999999999974
 51
347.047809404122
  0
ARC
  5
41CB
330
1A
100
AcDbEntity
  8
SEIHIN
  6
Continuous
100
AcDbCircle
 10
168.5087217368925
 20
208.9650079275045
 30
0.0
 40
10.95
100
AcDbArc
 50
102.8760190746749
 51
167.0478094041232
  0
ARC
  5
41CC
330
1A
100
AcDbEntity
  8
SEIHIN
  6
Continuous
100
AcDbCircle
 10
165.9237532148689
 20
220.2733206990963
 30
0.0
 40
0.65
100
AcDbArc
 50
282.8760190746768
 51
359.625523113277
  0
DIMENSION
  5
41CD
330
1A
100
AcDbEntity
  8
SUNPOU
100
AcDbDimension
  2
*D9
 10
191.8061137407565
 20
208.9588382618909
 30
0.0
 11
188.5561137407565
 21
240.9150079275045
 31
0.0
 70
    32
  1
\U+25A1<>
 71
     5
 42
-1.0
  3
STANDARD
100
AcDbAlignedDimension
 13
158.5647628980219
 23
272.871177593118
 33
0.0
 14
158.5647628980221
 24
208.9588382618909
 34
0.0
 50
90.0
100
AcDbRotatedDimension
  0
DIMENSION
  5
43D0
330
1A
100
AcDbEntity
  8
SUNPOU
100
AcDbDimension
  2
*D10
 10
113.0333770496973
 20
232.4558024477571
 30
0.0
 11
152.7218991839006
 21
250.626036389284
 31
0.0
 70
   163
 71
     5
 42
-1.0
  3
STANDARD
100
AcDbDiametricDimension
 15
160.0840664240908
 25
249.3742134072518
 35
0.0
 40
0.0
1001
ACAD
1000
DSTYLE
1002
{
1070
   287
1070
     5
1070
   287
1070
     5
1070
   287
1070
     5
1070
   287
1070
     5
1070
   287
1070
     5
1070
   279
1070
     2
1070
   288
1070
     1
1002
}
  0
LINE
  5
43E6
330
1A
100
AcDbEntity
  8
SEIHIN
100
AcDbLine
 10
108.0168544254732
 20
86.15582045343247
 30
0.0
 11
108.0168544254731
 21
48.18504338076756
 31
0.0
  0
ARC
  5
43E8
330
1A
100
AcDbEntity
  8
SEIHIN
100
AcDbCircle
 10
105.5008447441678
 20
98.22830890982665
 30
0.0
 40
11.99216714919353
100
AcDbArc
 50
283.7405538038871
 51
346.2594461961125
  0
LINE
  5
43EA
330
1A
100
AcDbEntity
  8
SEIHIN
100
AcDbLine
 10
155.5441102732264
 20
95.71229922852102
 30
0.0
 11
117.573333200562
 21
95.71229922852118
 31
0.0
  0
ARC
  5
43EC
330
1A
100
AcDbEntity
  8
SEIHIN
100
AcDbCircle
 10
104.6087217368942
 20
99.1204319171002
 30
0.0
 40
12.45
100
AcDbArc
 50
286.4111346499382
 51
343.5888653500612
  0
ARC
  5
43ED
330
1A
100
AcDbEntity
  8
SEIHIN
100
AcDbCircle
 10
108.4087217368942
 20
86.2183971938483
 30
0.0
 40
1.0
100
AcDbArc
 50
106.4111346499372
 51
180.0000000000007
  0
LINE
  5
43EE
330
1A
100
AcDbEntity
  8
SEIHIN
100
AcDbLine
 10
155.6066870136422
 20
96.3204319171
 30
0.0
 11
117.510756460146
 21
96.32043191710009
 31
0.0
  0
ARC
  5
43EF
330
1A
100
AcDbEntity
  8
SEIHIN
100
AcDbCircle
 10
117.510756460146
 20
95.32043191710007
 30
0.0
 40
1.0
100
AcDbArc
 50
90.0
 51
163.5888653500607
  0
ARC
  5
43F0
330
1A
100
AcDbEntity
  8
SEIHIN
100
AcDbCircle
 10
164.7087217368944
 20
86.2183971938492
 30
0.0
 40
1.0
100
AcDbArc
 50
0.0000000000010531
 51
73.58886535006461
  0
ARC
  5
43F1
330
1A
100
AcDbEntity
  8
SEIHIN
100
AcDbCircle
 10
168.5087217368939
 20
99.12043191710122
 30
0.0
 40
12.45
100
AcDbArc
 50
196.4111346499406
 51
253.5888653500636
  0
ARC
  5
43F2
330
1A
100
AcDbEntity
  8
SEIHIN
100
AcDbCircle
 10
155.6066870136422
 20
95.32043191710069
 30
0.0
 40
1.0
100
AcDbArc
 50
16.41113464994111
 51
90.00000000000184
  0
ARC
  5
43F3
330
1A
100
AcDbEntity
  8
SEIHIN
100
AcDbCircle
 10
104.6087217368942
 20
35.22043191709986
 30
0.0
 40
12.45
100
AcDbArc
 50
16.41113464993883
 51
73.58886535006182
  0
ARC
  5
43F4
330
1A
100
AcDbEntity
  8
SEIHIN
100
AcDbCircle
 10
108.4087217368942
 20
48.12246664035171
 30
0.0
 40
1.0
100
AcDbArc
 50
179.9999999999992
 51
253.5888653500627
  0
ARC
  5
43F5
330
1A
100
AcDbEntity
  8
SEIHIN
100
AcDbCircle
 10
117.510756460146
 20
39.02043191709997
 30
0.0
 40
1.0
100
AcDbArc
 50
196.4111346499392
 51
270.0
  0
LINE
  5
43F6
330
1A
100
AcDbEntity
  8
SEIHIN
100
AcDbLine
 10
155.6066870136422
 20
38.02043191710005
 30
0.0
 11
117.510756460146
 21
38.02043191709994
 31
0.0
  0
ARC
  5
43F7
330
1A
100
AcDbEntity
  8
SEIHIN
100
AcDbCircle
 10
155.6066870136422
 20
39.02043191709935
 30
0.0
 40
1.0
100
AcDbArc
 50
269.9999999999981
 51
343.5888653500589
  0
ARC
  5
43F8
330
1A
100
AcDbEntity
  8
SEIHIN
100
AcDbCircle
 10
168.5087217368939
 20
35.22043191709883
 30
0.0
 40
12.45
100
AcDbArc
 50
106.4111346499363
 51
163.5888653500593
  0
ARC
  5
43F9
330
1A
100
AcDbEntity
  8
SEIHIN
100
AcDbCircle
 10
164.7087217368944
 20
48.12246664035082
 30
0.0
 40
1.0
100
AcDbArc
 50
286.4111346499354
 51
359.9999999999988
  0
ARC
  5
43FC
330
1A
100
AcDbEntity
  8
SEIHIN
100
AcDbCircle
 10
117.573333200562
 20
95.27629922852115
 30
0.0
 40
0.4360000000000002
100
AcDbArc
 50
90.0
 51
166.2594461961134
  0
ARC
  5
43FD
330
1A
100
AcDbEntity
  8
SEIHIN
100
AcDbCircle
 10
108.4528544254732
 20
86.15582045343247
 30
0.0
 40
0.4360000000000002
100
AcDbArc
 50
103.7405538038892
 51
180.0
  0
ARC
  5
43FE
330
1A
100
AcDbEntity
  8
SEIHIN
100
AcDbCircle
 10
167.6165987296205
 20
98.22830890982665
 30
0.0
 40
11.99216714919353
100
AcDbArc
 50
193.740553803888
 51
256.2594461961129
  0
ARC
  5
43FF
330
1A
100
AcDbEntity
  8
SEIHIN
100
AcDbCircle
 10
155.5441102732264
 20
95.27629922852105
 30
0.0
 40
0.4360000000000002
100
AcDbArc
 50
13.74055380388839
 51
90.0
  0
LINE
  5
4400
330
1A
100
AcDbEntity
  8
SEIHIN
100
AcDbLine
 10
165.1005890483151
 20
86.15582045343243
 30
0.0
 11
165.1005890483152
 21
48.18504338076757
 31
0.0
  0
ARC
  5
4401
330
1A
100
AcDbEntity
  8
SEIHIN
100
AcDbCircle
 10
164.6645890483151
 20
86.15582045343243
 30
0.0
 40
0.4360000000000002
100
AcDbArc
 50
359.999999999998
 51
76.25944619611115
  0
LINE
  5
4402
330
1A
100
AcDbEntity
  8
SEIHIN
100
AcDbLine
 10
155.5441102732264
 20
38.628564605679
 30
0.0
 11
117.573333200562
 21
38.62856460567885
 31
0.0
  0
ARC
  5
4403
330
1A
100
AcDbEntity
  8
SEIHIN
100
AcDbCircle
 10
117.573333200562
 20
39.06456460567886
 30
0.0
 40
0.4360000000000002
100
AcDbArc
 50
193.7405538038865
 51
270.0
  0
ARC
  5
4404
330
1A
100
AcDbEntity
  8
SEIHIN
100
AcDbCircle
 10
105.5008447441678
 20
36.1125549243734
 30
0.0
 40
11.99216714919353
100
AcDbArc
 50
13.74055380388748
 51
76.2594461961129
  0
ARC
  5
4405
330
1A
100
AcDbEntity
  8
SEIHIN
100
AcDbCircle
 10
108.4528544254732
 20
48.18504338076756
 30
0.0
 40
0.4360000000000002
100
AcDbArc
 50
180.0
 51
256.2594461961106
  0
ARC
  5
4406
330
1A
100
AcDbEntity
  8
SEIHIN
100
AcDbCircle
 10
155.5441102732264
 20
39.064564605679
 30
0.0
 40
0.4360000000000002
100
AcDbArc
 50
270.0
 51
346.2594461961117
  0
ARC
  5
4407
330
1A
100
AcDbEntity
  8
SEIHIN
100
AcDbCircle
 10
167.6165987296205
 20
36.1125549243734
 30
0.0
 40
11.99216714919353
100
AcDbArc
 50
103.7405538038871
 51
166.2594461961119
  0
ARC
  5
4408
330
1A
100
AcDbEntity
  8
SEIHIN
100
AcDbCircle
 10
164.6645890483151
 20
48.18504338076757
 30
0.0
 40
0.4360000000000002
100
AcDbArc
 50
283.7405538038888
 51
0.0000000000018969
  0
LINE
  5
440A
330
1A
100
AcDbEntity
  8
SEIHIN
100
AcDbLine
 10
117.3666819015143
 20
95.54428332475769
 30
0.0
 11
117.6861611294288
 21
95.12998468471259
 31
0.0
  0
LINE
  5
440D
330
1A
100
AcDbEntity
  8
SEIHIN
100
AcDbLine
 10
108.1831615278174
 20
86.3689049012007
 30
0.0
 11
108.5971766345815
 21
86.04905832613203
 31
0.0
  0
LINE
  5
440E
330
1A
100
AcDbEntity
  8
SEIHIN
100
AcDbLine
 10
108.1848703292365
 20
47.97839208172024
 30
0.0
 11
108.5991689692816
 21
48.29787130963472
 31
0.0
  0
LINE
  5
440F
330
1A
100
AcDbEntity
  8
SEIHIN
100
AcDbLine
 10
117.3602487527934
 20
38.79487170802326
 30
0.0
 11
117.6800953278621
 21
39.20888681478738
 31
0.0
  0
LINE
  5
4410
330
1A
100
AcDbEntity
  8
SEIHIN
100
AcDbLine
 10
155.750761572274
 20
38.79658050944235
 30
0.0
 11
155.4312823443596
 21
39.21087914948742
 31
0.0
  0
LINE
  5
4411
330
1A
100
AcDbEntity
  8
SEIHIN
100
AcDbLine
 10
164.9342819459709
 20
47.97195893299933
 30
0.0
 11
164.5202668392069
 21
48.29180550806798
 31
0.0
  0
LINE
  5
4412
330
1A
100
AcDbEntity
  8
SEIHIN
100
AcDbLine
 10
164.9325731445518
 20
86.36247175247977
 30
0.0
 11
164.5182745045068
 21
86.04299252456526
 31
0.0
  0
LINE
  5
4413
330
1A
100
AcDbEntity
  8
SEIHIN
100
AcDbLine
 10
155.7571947209948
 20
95.54599212617668
 30
0.0
 11
155.4373481459262
 21
95.13197701941257
 31
0.0
  0
TEXT
  5
44CF
330
1A
100
AcDbEntity
  8
MOJI
100
AcDbText
 10
334.5176194310189
 20
8.602460868153395
 30
0.0
 40
2.799999999999998
  1
2011/06/22
 41
0.9
  7
MSPｺ_ｼｯｸ
100
AcDbText
  0
LINE
  5
4605
330
1A
100
AcDbEntity
  8
SEIHIN
  6
Continuous
100
AcDbLine
 10
294.7483749777607
 20
129.0048751608444
 30
0.0
 11
323.2917213360619
 21
129.0048751608445
 31
0.0
  0
LINE
  5
47C4
330
1A
100
AcDbEntity
  8
SUNPOU
100
AcDbLine
 10
87.37959393808381
 20
240.9150079275044
 30
0.0
 11
87.37959393808381
 21
252.1737455302854
 31
0.0
  0
LINE
  5
47C5
330
1A
100
AcDbEntity
  8
SUNPOU
100
AcDbLine
 10
92.8839049240608
 20
240.9150079275044
 30
0.0
 11
87.37959393808381
 21
240.9150079275044
 31
0.0
  0
LINE
  5
47C6
330
1A
100
AcDbEntity
  8
SUNPOU
100
AcDbLine
 10
87.37959393808381
 20
252.1737455302854
 30
0.0
 11
85.08650172118349
 21
245.3473259720532
 31
0.0
  0
TEXT
  5
47C7
330
1A
100
AcDbEntity
  8
SUNPOU
 48
5.0
100
AcDbText
 10
79.16182789915035
 20
245.8029616120353
 30
0.0
 40
4.199999999999999
  1
A
 41
0.9
100
AcDbText
  0
LINE
  5
47C8
330
1A
100
AcDbEntity
  8
SUNPOU
100
AcDbLine
 10
136.558721736894
 20
240.9150079275044
 30
0.0
 11
136.5587217368941
 21
252.1737455302854
 31
0.0
  0
TEXT
  5
4805
330
1A
100
AcDbEntity
  8
SUNPOU
 48
5.0
100
AcDbText
 10
140.6488694403251
 20
246.3076737920213
 30
0.0
 40
4.199999999999999
  1
A
 41
0.9
100
AcDbText
  0
LINE
  5
4806
330
1A
100
AcDbEntity
  8
SUNPOU
100
AcDbLine
 10
136.5587217368941
 20
252.1737455302854
 30
0.0
 11
138.8518139537945
 21
245.3473259720532
 31
0.0
  0
LINE
  5
481A
330
1A
100
AcDbEntity
  8
SUNPOU
100
AcDbLine
 10
266.0200639964269
 20
104.0763379920027
 30
0.0
 11
301.9351439851806
 21
104.0763379920027
 31
0.0
  0
TEXT
  5
481B
330
1A
100
AcDbEntity
  8
SUNPOU
 48
5.0
100
AcDbText
 10
266.9633931060072
 20
106.2946957032814
 30
0.0
 40
4.199999999999999
  1
A-Asection
 41
0.9
100
AcDbText
  0
LINE
  5
48AB
330
1A
100
AcDbEntity
  8
SUNPOU
100
AcDbLine
 10
136.558721736894
 20
240.9150079275044
 30
0.0
 11
131.054410750917
 21
240.9150079275044
 31
0.0
  0
DIMENSION
  5
498B
330
1A
100
AcDbEntity
  8
SUNPOU
100
AcDbDimension
  2
*D13
 10
252.2068946314639
 20
145.0043169479309
 30
0.0
 11
248.7500513403625
 21
149.6556058680517
 31
0.0
 70
   160
  1
\U+203B<>
 71
     5
 42
-1.0
  3
STANDARD
100
AcDbAlignedDimension
 13
262.7983749777606
 23
155.004316947931
 33
0.0
 14
262.7983749777606
 24
145.0043169479309
 34
0.0
 50
90.0
100
AcDbRotatedDimension
1001
ACAD
1000
DSTYLE
1002
{
1070
   287
1070
     5
1070
   287
1070
     5
1070
   287
1070
     5
1070
   287
1070
     5
1070
   287
1070
     5
1070
   279
1070
     2
1002
}
  0
DIMENSION
  5
498C
330
1A
100
AcDbEntity
  8
SUNPOU
100
AcDbDimension
  2
*D12
 10
244.6914030474381
 20
155.004316947931
 30
0.0
 11
241.4414030474381
 21
140.004316947931
 31
0.0
 70
    32
 71
     5
 42
-1.0
  3
STANDARD
100
AcDbAlignedDimension
 13
266.7665076663396
 23
125.0043169479309
 33
0.0
 14
262.7983749777606
 24
155.004316947931
 34
0.0
 50
90.0
100
AcDbRotatedDimension
  0
DIMENSION
  5
498D
330
1A
100
AcDbEntity
  8
SUNPOU
100
AcDbDimension
  2
*D11
 10
244.6914030474381
 20
159.0043169479308
 30
0.0
 11
241.4414030474381
 21
171.5043169479309
 31
0.0
 70
    32
  1
\U+203B<>
 71
     5
 42
-1.0
  3
STANDARD
100
AcDbAlignedDimension
 13
262.7983749777606
 23
184.004316947931
 33
0.0
 14
262.7983749777606
 24
159.0043169479308
 34
0.0
 50
90.0
100
AcDbRotatedDimension
  0
VIEWPORT
  5
22
102
{ACAD_XDICTIONARY
360
4B87
102
}
330
17
100
AcDbEntity
 67
     1
  8
0
100
AcDbViewport
 10
206.8913583997488
 20
145.3318519354692
 30
0.0
 40
604.2951685731252
 41
314.2596759643555
 68
     2
 69
     1
 12
206.8913583997488
 22
145.3318519354692
 13
0.0
 23
0.0
 14
1.0
 24
1.0
 15
10.0
 25
10.0
 16
0.0
 26
0.0
 36
1.0
 17
0.0
 27
0.0
 37
0.0
 42
50.0
 43
0.0
 44
0.0
 45
314.2596759643555
 50
0.0
 51
0.0
 72
   100
 90
    32768
  1

281
     0
 71
     1
 74
     0
110
0.0
120
0.0
130
0.0
111
1.0
121
0.0
131
0.0
112
0.0
122
1.0
132
0.0
 79
     0
146
0.0
  0
VIEWPORT
  5
64
102
{ACAD_XDICTIONARY
360
4B89
102
}
330
17
100
AcDbEntity
 67
     1
  8
VIEWPORT
100
AcDbViewport
 10
210.0
 20
148.5
 30
0.0
 40
420.0
 41
297.0
 68
     1
 69
     2
 12
206.16813161059
 22
147.9408905789946
 13
0.0
 23
0.0
 14
5.0
 24
5.0
 15
0.0
 25
0.0
 16
0.0
 26
0.0
 36
1.0
 17
0.0
 27
0.0
 37
0.0
 42
50.0
 43
0.0
 44
0.0
 45
297.000000387025
 50
0.0
 51
0.0
 72
   100
 90
    32768
  1

281
     0
 71
     1
 74
     0
110
0.0
120
0.0
130
0.0
111
1.0
121
0.0
131
0.0
112
0.0
122
1.0
132
0.0
 79
     0
146
0.0
  0
ENDSEC
  0
SECTION
  2
OBJECTS
  0
DICTIONARY
  5
C
330
0
100
AcDbDictionary
281
     1
  3
ACAD_COLOR
350
4B57
  3
ACAD_GROUP
350
D
  3
ACAD_LAYOUT
350
415
  3
ACAD_MATERIAL
350
4B56
  3
ACAD_MLINESTYLE
350
E
  3
ACAD_PLOTSETTINGS
350
416
  3
ACAD_PLOTSTYLENAME
350
4588
  3
ACDBHEADERROUNDTRIPXREC
350
4B84
  3
AcDbVariableDictionary
350
4B68
1001
ACAD
1000
TREAT_AS_HARD
1070
     0
  0
DICTIONARY
  5
444
330
1A
100
AcDbDictionary
280
     1
281
     1
  3
ACAD_LAYOUTSELFREF
360
4AE5
1001
ACAD
1000
TREAT_AS_HARD
1070
     1
  0
DICTIONARY
  5
442
330
17
100
AcDbDictionary
280
     1
281
     1
  3
ACAD_LAYOUTSELFREF
360
4AE4
1001
ACAD
1000
TREAT_AS_HARD
1070
     1
  0
DICTIONARY
  5
4B87
330
22
100
AcDbDictionary
280
     1
281
     1
  3
ACAD_XREC_ROUNDTRIP
360
4B88
  0
DICTIONARY
  5
4B89
330
64
100
AcDbDictionary
280
     1
281
     1
  3
ACAD_XREC_ROUNDTRIP
360
4B8A
  0
DICTIONARY
  5
4B57
102
{ACAD_REACTORS
330
C
102
}
330
C
100
AcDbDictionary
281
     1
  0
DICTIONARY
  5
D
102
{ACAD_REACTORS
330
C
102
}
330
C
100
AcDbDictionary
281
     1
1001
ACAD
1000
TREAT_AS_HARD
1070
     0
  0
DICTIONARY
  5
415
102
{ACAD_REACTORS
330
C
102
}
330
C
100
AcDbDictionary
281
     1
  3
Model
350
458A
  3
ﾚｲｱｳﾄ1
350
458B
1001
ACAD
1000
TREAT_AS_HARD
1070
     0
  0
DICTIONARY
  5
4B56
102
{ACAD_REACTORS
330
C
102
}
330
C
100
AcDbDictionary
281
     1
  0
DICTIONARY
  5
E
102
{ACAD_REACTORS
330
C
102
}
330
C
100
AcDbDictionary
281
     1
  3
STANDARD
350
13
1001
ACAD
1000
TREAT_AS_HARD
1070
     0
  0
DICTIONARY
  5
416
102
{ACAD_REACTORS
330
C
102
}
330
C
100
AcDbDictionary
281
     1
1001
ACAD
1000
TREAT_AS_HARD
1070
     0
  0
ACDBDICTIONARYWDFLT
  5
4588
102
{ACAD_REACTORS
330
C
102
}
330
C
100
AcDbDictionary
281
     1
  3
Normal
350
4589
100
AcDbDictionaryWithDefault
340
4589
1001
ACAD
1000
TREAT_AS_HARD
1070
     0
1000
TREAT_AS_HARD
1070
     0
  0
DICTIONARY
  5
4B84
102
{ACAD_REACTORS
330
C
102
}
330
C
100
AcDbDictionary
281
     1
  3
COLORDICT
350
4B86
  3
MATERIALDICT
350
4B85
  0
DICTIONARY
  5
4B68
102
{ACAD_REACTORS
330
C
102
}
330
C
100
AcDbDictionary
281
     1
  3
DIMASSOC
350
4B69
  3
PROJECTNAME
350
4B6A
  0
XRECORD
  5
4AE5
102
{ACAD_REACTORS
330
444
102
}
330
444
100
AcDbXrecord
280
     1
340
1A
  0
XRECORD
  5
4AE4
102
{ACAD_REACTORS
330
442
102
}
330
442
100
AcDbXrecord
280
     1
340
17
  0
XRECORD
  5
4B88
102
{ACAD_REACTORS
330
4B87
102
}
330
4B87
100
AcDbXrecord
280
     1
102
SHADEPLOT
 70
     0
  0
XRECORD
  5
4B8A
102
{ACAD_REACTORS
330
4B89
102
}
330
4B89
100
AcDbXrecord
280
     1
102
SHADEPLOT
 70
     0
  0
LAYOUT
  5
458A
102
{ACAD_XDICTIONARY
360
4B8B
102
}
102
{ACAD_REACTORS
330
415
102
}
330
415
100
AcDbPlotSettings
  1

  2
なし
  4

  6

 40
0.0
 41
0.0
 42
0.0
 43
0.0
 44
0.0
 45
0.0
 46
0.0
 47
0.0
 48
0.0
 49
0.0
140
0.0
141
0.0
142
1.0
143
1.0
 70
  1712
 72
     0
 73
     0
 74
     0
  7

 75
     0
147
1.0
148
0.0
149
0.0
100
AcDbLayout
  1
Model
 70
     1
 71
     0
 10
0.0
 20
0.0
 11
12.0
 21
9.0
 12
0.0
 22
0.0
 32
0.0
 14
0.0
 24
0.0
 34
0.0
 15
0.0
 25
0.0
 35
0.0
146
0.0
 13
0.0
 23
0.0
 33
0.0
 16
1.0
 26
0.0
 36
0.0
 17
0.0
 27
1.0
 37
0.0
 76
     0
330
1A
  0
LAYOUT
  5
458B
102
{ACAD_XDICTIONARY
360
4B8D
102
}
102
{ACAD_REACTORS
330
415
102
}
330
415
100
AcDbPlotSettings
  1

  2
CubePDF
  4
A3
  6

 40
3.174999952316284
 41
3.174999952316284
 42
3.17498779296875
 43
3.17498779296875
 44
297.0318298339844
 45
420.1583251953125
 46
0.0
 47
0.0
 48
0.0
 49
0.0
140
0.0
141
0.0
142
1.0
143
1.0
 70
   688
 72
     1
 73
     1
 74
     1
  7
monochrome.ctb
 75
    16
147
1.0
148
0.0128164049386896
149
0.0090630292066862
100
AcDbLayout
  1
ﾚｲｱｳﾄ1
 70
     1
 71
     1
 10
-3.187804197907439
 20
-3.18406298152297
 11
416.9705209974051
 21
293.8477668524614
 12
0.0
 22
0.0
 32
0.0
 14
0.0
 24
0.0
 34
0.0
 15
420.0
 25
297.0
 35
0.0
146
0.0
 13
0.0
 23
0.0
 33
0.0
 16
1.0
 26
0.0
 36
0.0
 17
0.0
 27
1.0
 37
0.0
 76
     0
330
17
331
64
  0
MLINESTYLE
  5
13
102
{ACAD_REACTORS
330
E
102
}
330
E
100
AcDbMlineStyle
  2
STANDARD
 70
     0
  3

 62
     0
 51
90.0
 52
90.0
 71
     2
 49
0.5
 62
   256
  6
BYLAYER
 49
-0.5
 62
   256
  6
BYLAYER
  0
ACDBPLACEHOLDER
  5
4589
102
{ACAD_REACTORS
330
4588
102
}
330
4588
  0
XRECORD
  5
4B86
102
{ACAD_REACTORS
330
4B84
102
}
330
4B84
100
AcDbXrecord
280
     1
340
4B57
  0
XRECORD
  5
4B85
102
{ACAD_REACTORS
330
4B84
102
}
330
4B84
100
AcDbXrecord
280
     1
340
4B56
  0
DICTIONARYVAR
  5
4B69
102
{ACAD_REACTORS
330
4B68
102
}
330
4B68
100
DictionaryVariables
280
     0
  1
1
  0
DICTIONARYVAR
  5
4B6A
102
{ACAD_REACTORS
330
4B68
102
}
330
4B68
100
DictionaryVariables
280
     0
  1

  0
DICTIONARY
  5
4B8B
330
458A
100
AcDbDictionary
280
     1
281
     1
  3
ACAD_XREC_ROUNDTRIP
360
4B8C
  0
DICTIONARY
  5
4B8D
330
458B
100
AcDbDictionary
280
     1
281
     1
  3
ACAD_XREC_ROUNDTRIP
360
4B8E
  0
XRECORD
  5
4B8C
102
{ACAD_REACTORS
330
4B8B
102
}
330
4B8B
100
AcDbXrecord
280
     1
102
SHADEPLOT
 70
     0
102
SHADEPLOTRESLEVEL
 70
     2
102
SHADEPLOTCUSTOMDPI
 70
   300
  0
XRECORD
  5
4B8E
102
{ACAD_REACTORS
330
4B8D
102
}
330
4B8D
100
AcDbXrecord
280
     1
102
SHADEPLOT
 70
     1
102
SHADEPLOTRESLEVEL
 70
     2
102
SHADEPLOTCUSTOMDPI
 70
   300
  0
ENDSEC
  0
EOF
