  0
SECTION
  2
HEADER
  9
$ACADVER
  1
AC1014
  9
$ACADMAINTVER
 70
     9
  9
$DWGCODEPAGE
  3
ANSI_932
  9
$INSBASE
 10
0.0
 20
0.0
 30
0.0
  9
$EXTMIN
 10
-0.064077134533818
 20
-0.045311687991898
 30
-0.0000000000000053
  9
$EXTMAX
 10
797.6622489505002
 20
551.6432960943491
 30
0.0000000000000099
  9
$LIMMIN
 10
0.0
 20
0.0
  9
$LIMMAX
 10
840.0
 20
594.0
  9
$ORTHOMODE
 70
     0
  9
$REGENMODE
 70
     1
  9
$FILLMODE
 70
     1
  9
$QTEXTMODE
 70
     0
  9
$MIRRTEXT
 70
     1
  9
$DRAGMODE
 70
     2
  9
$LTSCALE
 40
2.0
  9
$OSMODE
 70
    35
  9
$ATTMODE
 70
     1
  9
$TEXTSIZE
 40
5.0
  9
$TRACEWID
 40
1.0
  9
$TEXTSTYLE
  7
STANDARD
  9
$CLAYER
  8
SUNPOU
  9
$CELTYPE
  6
BYLAYER
  9
$CECOLOR
 62
   256
  9
$CELTSCALE
 40
1.0
  9
$DELOBJ
 70
     1
  9
$DISPSILH
 70
     0
  9
$DIMSCALE
 40
1.0
  9
$DIMASZ
 40
7.0
  9
$DIMEXO
 40
6.0
  9
$DIMDLI
 40
14.0
  9
$DIMRND
 40
0.0
  9
$DIMDLE
 40
0.0
  9
$DIMEXE
 40
3.0
  9
$DIMTP
 40
0.0
  9
$DIMTM
 40
0.0
  9
$DIMTXT
 40
6.0
  9
$DIMCEN
 40
150.0
  9
$DIMTSZ
 40
0.0
  9
$DIMTOL
 70
     0
  9
$DIMLIM
 70
     0
  9
$DIMTIH
 70
     0
  9
$DIMTOH
 70
     0
  9
$DIMSE1
 70
     0
  9
$DIMSE2
 70
     0
  9
$DIMTAD
 70
     3
  9
$DIMZIN
 70
     0
  9
$DIMBLK
  1

  9
$DIMASO
 70
     1
  9
$DIMSHO
 70
     1
  9
$DIMPOST
  1

  9
$DIMAPOST
  1

  9
$DIMALT
 70
     0
  9
$DIMALTD
 70
     2
  9
$DIMALTF
 40
25.4
  9
$DIMLFAC
 40
1.0
  9
$DIMTOFL
 70
     1
  9
$DIMTVP
 40
0.0
  9
$DIMTIX
 70
     0
  9
$DIMSOXD
 70
     0
  9
$DIMSAH
 70
     1
  9
$DIMBLK1
  1
OPEN
  9
$DIMBLK2
  1
OPEN
  9
$DIMSTYLE
  2
STANDARD
  9
$DIMCLRD
 70
   256
  9
$DIMCLRE
 70
   256
  9
$DIMCLRT
 70
   256
  9
$DIMTFAC
 40
1.0
  9
$DIMGAP
 40
2.0
  9
$DIMJUST
 70
     0
  9
$DIMSD1
 70
     0
  9
$DIMSD2
 70
     0
  9
$DIMTOLJ
 70
     1
  9
$DIMTZIN
 70
     0
  9
$DIMALTZ
 70
     0
  9
$DIMALTTZ
 70
     0
  9
$DIMFIT
 70
     5
  9
$DIMUPT
 70
     0
  9
$DIMUNIT
 70
     2
  9
$DIMDEC
 70
     0
  9
$DIMTDEC
 70
     0
  9
$DIMALTU
 70
     2
  9
$DIMALTTD
 70
     2
  9
$DIMTXSTY
  7
STANDARD
  9
$DIMAUNIT
 70
     0
  9
$LUNITS
 70
     2
  9
$LUPREC
 70
     4
  9
$SKETCHINC
 40
1.0
  9
$FILLETRAD
 40
1.0
  9
$AUNITS
 70
     0
  9
$AUPREC
 70
     0
  9
$MENU
  1
.
  9
$ELEVATION
 40
0.0
  9
$PELEVATION
 40
0.0
  9
$THICKNESS
 40
0.0
  9
$LIMCHECK
 70
     0
  9
$BLIPMODE
 70
     0
  9
$CHAMFERA
 40
0.0
  9
$CHAMFERB
 40
0.0
  9
$CHAMFERC
 40
40.0
  9
$CHAMFERD
 40
0.0
  9
$SKPOLY
 70
     0
  9
$TDCREATE
 40
2451212.627488426
  9
$TDUPDATE
 40
2453482.492025822
  9
$TDINDWG
 40
0.1444552199
  9
$TDUSRTIMER
 40
0.1444552199
  9
$USRTIMER
 70
     1
  9
$ANGBASE
 50
0.0
  9
$ANGDIR
 70
     0
  9
$PDMODE
 70
     0
  9
$PDSIZE
 40
0.0
  9
$PLINEWID
 40
0.0
  9
$COORDS
 70
     1
  9
$SPLFRAME
 70
     0
  9
$SPLINETYPE
 70
     6
  9
$SPLINESEGS
 70
     8
  9
$ATTDIA
 70
     0
  9
$ATTREQ
 70
     1
  9
$HANDLING
 70
 10241
  9
$HANDSEED
  5
30FD
  9
$SURFTAB1
 70
     6
  9
$SURFTAB2
 70
     6
  9
$SURFTYPE
 70
     6
  9
$SURFU
 70
     6
  9
$SURFV
 70
     6
  9
$UCSNAME
  2

  9
$UCSORG
 10
0.0
 20
0.0
 30
0.0
  9
$UCSXDIR
 10
1.0
 20
0.0
 30
0.0
  9
$UCSYDIR
 10
0.0
 20
1.0
 30
0.0
  9
$PUCSNAME
  2

  9
$PUCSORG
 10
0.0
 20
0.0
 30
0.0
  9
$PUCSXDIR
 10
1.0
 20
0.0
 30
0.0
  9
$PUCSYDIR
 10
0.0
 20
1.0
 30
0.0
  9
$USERI1
 70
     0
  9
$USERI2
 70
     0
  9
$USERI3
 70
     0
  9
$USERI4
 70
     0
  9
$USERI5
 70
     0
  9
$USERR1
 40
0.0
  9
$USERR2
 40
0.0
  9
$USERR3
 40
0.0
  9
$USERR4
 40
0.0
  9
$USERR5
 40
0.0
  9
$WORLDVIEW
 70
     1
  9
$SHADEDGE
 70
     3
  9
$SHADEDIF
 70
    70
  9
$TILEMODE
 70
     1
  9
$MAXACTVP
 70
    16
  9
$PINSBASE
 10
0.0
 20
0.0
 30
0.0
  9
$PLIMCHECK
 70
     0
  9
$PEXTMIN
 10
0.0
 20
0.0
 30
0.0
  9
$PEXTMAX
 10
420.0
 20
297.0
 30
0.0
  9
$PLIMMIN
 10
0.0
 20
0.0
  9
$PLIMMAX
 10
420.0
 20
297.0
  9
$UNITMODE
 70
     0
  9
$VISRETAIN
 70
     0
  9
$PLINEGEN
 70
     0
  9
$PSLTSCALE
 70
     1
  9
$TREEDEPTH
 70
  3020
  9
$PICKSTYLE
 70
     1
  9
$CMLSTYLE
  2
STANDARD
  9
$CMLJUST
 70
     0
  9
$CMLSCALE
 40
1.0
  9
$PROXYGRAPHICS
 70
     1
  9
$MEASUREMENT
 70
     1
  0
ENDSEC
  0
SECTION
  2
CLASSES
  0
CLASS
  1
ACDBDICTIONARYWDFLT
  2
AcDbDictionaryWithDefault
  3
AutoCAD 2000
 90
        0
280
     0
281
     0
  0
CLASS
  1
ACDBPLACEHOLDER
  2
AcDbPlaceHolder
  3
AutoCAD 2000
 90
        0
280
     0
281
     0
  0
CLASS
  1
LAYOUT
  2
AcDbLayout
  3
AutoCAD 2000
 90
        0
280
     0
281
     0
  0
CLASS
  1
LONG_TRANSACTION
  2
AcDbLongTransaction
  3
AutoCAD 2000
 90
        0
280
     0
281
     0
  0
CLASS
  1
LWPOLYLINE
  2
AcDbPolyline
  3
AutoCAD 2000
 90
        0
280
     0
281
     1
  0
CLASS
  1
HATCH
  2
AcDbHatch
  3
AutoCAD 2000
 90
        0
280
     0
281
     1
  0
CLASS
  1
XRECORD
  2
AcDbXrecord
  3
AutoCAD 2000
 90
        0
280
     0
281
     0
  0
CLASS
  1
LONG_TRANSACTION
  2
AcDbLongTransaction
  3
AutoCAD 2000
 90
        0
280
     0
281
     0
  0
CLASS
  1
LWPOLYLINE
  2
AcDbPolyline
  3
AutoCAD 2000
 90
        0
280
     0
281
     1
  0
CLASS
  1
HATCH
  2
AcDbHatch
  3
AutoCAD 2000
 90
        0
280
     0
281
     1
  0
CLASS
  1
XRECORD
  2
AcDbXrecord
  3
AutoCAD 2000
 90
        0
280
     0
281
     0
  0
CLASS
  1
LONG_TRANSACTION
  2
AcDbLongTransaction
  3
AutoCAD 2000
 90
        0
280
     0
281
     0
  0
CLASS
  1
LWPOLYLINE
  2
AcDbPolyline
  3
AutoCAD 2000
 90
        0
280
     0
281
     1
  0
CLASS
  1
HATCH
  2
AcDbHatch
  3
AutoCAD 2000
 90
        0
280
     0
281
     1
  0
CLASS
  1
XRECORD
  2
AcDbXrecord
  3
AutoCAD 2000
 90
        0
280
     0
281
     0
  0
CLASS
  1
LONG_TRANSACTION
  2
AcDbLongTransaction
  3
AutoCAD 2000
 90
        0
280
     0
281
     0
  0
CLASS
  1
LWPOLYLINE
  2
AcDbPolyline
  3
AutoCAD 2000
 90
        0
280
     0
281
     1
  0
CLASS
  1
HATCH
  2
AcDbHatch
  3
AutoCAD 2000
 90
        0
280
     0
281
     1
  0
CLASS
  1
XRECORD
  2
AcDbXrecord
  3
AutoCAD 2000
 90
        0
280
     0
281
     0
  0
CLASS
  1
LONG_TRANSACTION
  2
AcDbLongTransaction
  3
AutoCAD 2000
 90
        0
280
     0
281
     0
  0
CLASS
  1
LWPOLYLINE
  2
AcDbPolyline
  3
AutoCAD 2000
 90
        0
280
     0
281
     1
  0
CLASS
  1
HATCH
  2
AcDbHatch
  3
AutoCAD 2000
 90
        0
280
     0
281
     1
  0
CLASS
  1
XRECORD
  2
AcDbXrecord
  3
AutoCAD 2000
 90
        0
280
     0
281
     0
  0
CLASS
  1
LONG_TRANSACTION
  2
AcDbLongTransaction
  3
AutoCAD 2000
 90
        0
280
     0
281
     0
  0
CLASS
  1
LWPOLYLINE
  2
AcDbPolyline
  3
AutoCAD 2000
 90
        0
280
     0
281
     1
  0
CLASS
  1
HATCH
  2
AcDbHatch
  3
AutoCAD 2000
 90
        0
280
     0
281
     1
  0
CLASS
  1
XRECORD
  2
AcDbXrecord
  3
AutoCAD 2000
 90
        0
280
     0
281
     0
  0
CLASS
  1
LONG_TRANSACTION
  2
AcDbLongTransaction
  3
AutoCAD 2000
 90
        0
280
     0
281
     0
  0
CLASS
  1
LWPOLYLINE
  2
AcDbPolyline
  3
AutoCAD 2000
 90
        0
280
     0
281
     1
  0
CLASS
  1
HATCH
  2
AcDbHatch
  3
AutoCAD 2000
 90
        0
280
     0
281
     1
  0
CLASS
  1
XRECORD
  2
AcDbXrecord
  3
AutoCAD 2000
 90
        0
280
     0
281
     0
  0
CLASS
  1
LONG_TRANSACTION
  2
AcDbLongTransaction
  3
AutoCAD 2000
 90
        0
280
     0
281
     0
  0
CLASS
  1
LWPOLYLINE
  2
AcDbPolyline
  3
AutoCAD 2000
 90
        0
280
     0
281
     1
  0
CLASS
  1
HATCH
  2
AcDbHatch
  3
AutoCAD 2000
 90
        0
280
     0
281
     1
  0
CLASS
  1
XRECORD
  2
AcDbXrecord
  3
AutoCAD 2000
 90
        0
280
     0
281
     0
  0
CLASS
  1
LONG_TRANSACTION
  2
AcDbLongTransaction
  3
AutoCAD 2000
 90
        0
280
     0
281
     0
  0
CLASS
  1
LWPOLYLINE
  2
AcDbPolyline
  3
AutoCAD 2000
 90
        0
280
     0
281
     1
  0
CLASS
  1
HATCH
  2
AcDbHatch
  3
AutoCAD 2000
 90
        0
280
     0
281
     1
  0
CLASS
  1
XRECORD
  2
AcDbXrecord
  3
AutoCAD 2000
 90
        0
280
     0
281
     0
  0
CLASS
  1
LONG_TRANSACTION
  2
AcDbLongTransaction
  3
AutoCAD 2000
 90
        0
280
     0
281
     0
  0
CLASS
  1
LWPOLYLINE
  2
AcDbPolyline
  3
AutoCAD 2000
 90
        0
280
     0
281
     1
  0
CLASS
  1
HATCH
  2
AcDbHatch
  3
AutoCAD 2000
 90
        0
280
     0
281
     1
  0
CLASS
  1
XRECORD
  2
AcDbXrecord
  3
AutoCAD 2000
 90
        0
280
     0
281
     0
  0
CLASS
  1
LONG_TRANSACTION
  2
AcDbLongTransaction
  3
AutoCAD 2000
 90
        0
280
     0
281
     0
  0
CLASS
  1
LWPOLYLINE
  2
AcDbPolyline
  3
AutoCAD 2000
 90
        0
280
     0
281
     1
  0
CLASS
  1
HATCH
  2
AcDbHatch
  3
AutoCAD 2000
 90
        0
280
     0
281
     1
  0
CLASS
  1
XRECORD
  2
AcDbXrecord
  3
AutoCAD 2000
 90
        0
280
     0
281
     0
  0
CLASS
  1
LONG_TRANSACTION
  2
AcDbLongTransaction
  3
AutoCAD 2000
 90
        0
280
     0
281
     0
  0
CLASS
  1
LWPOLYLINE
  2
AcDbPolyline
  3
AutoCAD 2000
 90
        0
280
     0
281
     1
  0
CLASS
  1
HATCH
  2
AcDbHatch
  3
AutoCAD 2000
 90
        0
280
     0
281
     1
  0
CLASS
  1
XRECORD
  2
AcDbXrecord
  3
AutoCAD 2000
 90
        0
280
     0
281
     0
  0
CLASS
  1
LONG_TRANSACTION
  2
AcDbLongTransaction
  3
AutoCAD 2000
 90
        0
280
     0
281
     0
  0
CLASS
  1
LWPOLYLINE
  2
AcDbPolyline
  3
AutoCAD 2000
 90
        0
280
     0
281
     1
  0
CLASS
  1
HATCH
  2
AcDbHatch
  3
AutoCAD 2000
 90
        0
280
     0
281
     1
  0
CLASS
  1
XRECORD
  2
AcDbXrecord
  3
AutoCAD 2000
 90
        0
280
     0
281
     0
  0
CLASS
  1
LONG_TRANSACTION
  2
AcDbLongTransaction
  3
AutoCAD 2000
 90
        0
280
     0
281
     0
  0
CLASS
  1
LWPOLYLINE
  2
AcDbPolyline
  3
AutoCAD 2000
 90
        0
280
     0
281
     1
  0
CLASS
  1
HATCH
  2
AcDbHatch
  3
AutoCAD 2000
 90
        0
280
     0
281
     1
  0
CLASS
  1
XRECORD
  2
AcDbXrecord
  3
AutoCAD 2000
 90
        0
280
     0
281
     0
  0
CLASS
  1
LONG_TRANSACTION
  2
AcDbLongTransaction
  3
AutoCAD 2000
 90
        0
280
     0
281
     0
  0
CLASS
  1
LWPOLYLINE
  2
AcDbPolyline
  3
AutoCAD 2000
 90
        0
280
     0
281
     1
  0
CLASS
  1
HATCH
  2
AcDbHatch
  3
AutoCAD 2000
 90
        0
280
     0
281
     1
  0
CLASS
  1
XRECORD
  2
AcDbXrecord
  3
AutoCAD 2000
 90
        0
280
     0
281
     0
  0
CLASS
  1
LONG_TRANSACTION
  2
AcDbLongTransaction
  3
AutoCAD 2000
 90
        0
280
     0
281
     0
  0
CLASS
  1
LWPOLYLINE
  2
AcDbPolyline
  3
AutoCAD 2000
 90
        0
280
     0
281
     1
  0
CLASS
  1
HATCH
  2
AcDbHatch
  3
AutoCAD 2000
 90
        0
280
     0
281
     1
  0
CLASS
  1
XRECORD
  2
AcDbXrecord
  3
AutoCAD 2000
 90
        0
280
     0
281
     0
  0
CLASS
  1
LONG_TRANSACTION
  2
AcDbLongTransaction
  3
AutoCAD 2000
 90
        0
280
     0
281
     0
  0
CLASS
  1
LWPOLYLINE
  2
AcDbPolyline
  3
AutoCAD 2000
 90
        0
280
     0
281
     1
  0
CLASS
  1
HATCH
  2
AcDbHatch
  3
AutoCAD 2000
 90
        0
280
     0
281
     1
  0
CLASS
  1
XRECORD
  2
AcDbXrecord
  3
AutoCAD 2000
 90
        0
280
     0
281
     0
  0
ENDSEC
  0
SECTION
  2
TABLES
  0
TABLE
  2
VPORT
  5
8
330
0
100
AcDbSymbolTable
 70
     4
  0
VPORT
  5
3048
330
8
100
AcDbSymbolTableRecord
100
AcDbViewportTableRecord
  2
*ACTIVE
 70
     0
 10
0.0
 20
0.0
 11
1.0
 21
1.0
 12
408.8659039770972
 22
276.9936354661953
 13
0.0
 23
0.0
 14
5.0
 24
5.0
 15
0.0
 25
0.0
 16
0.0
 26
0.0
 36
1.0
 17
0.0
 27
0.0
 37
0.0
 40
600.6214597313372
 41
1.752310536044362
 42
50.0
 43
0.0
 44
0.0
 50
0.0
 51
0.0
 71
     0
 72
   100
 73
     1
 74
     0
 75
     0
 76
     0
 77
     0
 78
     0
  0
ENDTAB
  0
TABLE
  2
LTYPE
  5
5
330
0
100
AcDbSymbolTable
 70
     3
  0
LTYPE
  5
14
330
5
100
AcDbSymbolTableRecord
100
AcDbLinetypeTableRecord
  2
BYBLOCK
 70
     0
  3

 72
    65
 73
     0
 40
0.0
  0
LTYPE
  5
15
330
5
100
AcDbSymbolTableRecord
100
AcDbLinetypeTableRecord
  2
BYLAYER
 70
     0
  3

 72
    65
 73
     0
 40
0.0
  0
LTYPE
  5
16
330
5
100
AcDbSymbolTableRecord
100
AcDbLinetypeTableRecord
  2
CONTINUOUS
 70
     0
  3
Solid line
 72
    65
 73
     0
 40
0.0
  0
LTYPE
  5
115
330
5
100
AcDbSymbolTableRecord
100
AcDbLinetypeTableRecord
  2
PHANTOM
 70
     0
  3
______  __  __  ______  __  __  ______  __  __ 
 72
    65
 73
     6
 40
2.5
 49
1.25
 74
     0
 49
-0.25
 74
     0
 49
0.25
 74
     0
 49
-0.25
 74
     0
 49
0.25
 74
     0
 49
-0.25
 74
     0
  0
LTYPE
  5
135
330
5
100
AcDbSymbolTableRecord
100
AcDbLinetypeTableRecord
  2
CENTER
 70
     0
  3
____ _ ____ _ ____ _ ____ _ ____ _ ____ _ ____ 
 72
    65
 73
     4
 40
2.0
 49
1.25
 74
     0
 49
-0.25
 74
     0
 49
0.25
 74
     0
 49
-0.25
 74
     0
  0
ENDTAB
  0
TABLE
  2
LAYER
  5
2
330
0
100
AcDbSymbolTable
 70
     9
  0
LAYER
  5
F
330
2
100
AcDbSymbolTableRecord
100
AcDbLayerTableRecord
  2
0
 70
     0
 62
     7
  6
CONTINUOUS
  0
LAYER
  5
62
330
2
100
AcDbSymbolTableRecord
100
AcDbLayerTableRecord
  2
VIEWPORT
 70
     0
 62
     7
  6
CONTINUOUS
  0
LAYER
  5
65
330
2
100
AcDbSymbolTableRecord
100
AcDbLayerTableRecord
  2
ZUWAKU
 70
     0
 62
     7
  6
CONTINUOUS
  0
LAYER
  5
144
330
2
100
AcDbSymbolTableRecord
100
AcDbLayerTableRecord
  2
SEIHIN
 70
     0
 62
     3
  6
CONTINUOUS
  0
LAYER
  5
145
330
2
100
AcDbSymbolTableRecord
100
AcDbLayerTableRecord
  2
CENTER_L
 70
     0
 62
     1
  6
CENTER
  0
LAYER
  5
3C0
330
2
100
AcDbSymbolTableRecord
100
AcDbLayerTableRecord
  2
SUNPOU
 70
     0
 62
     4
  6
CONTINUOUS
  0
LAYER
  5
3C1
330
2
100
AcDbSymbolTableRecord
100
AcDbLayerTableRecord
  2
DEFPOINTS
 70
     0
 62
     7
  6
CONTINUOUS
  0
LAYER
  5
2010
330
2
100
AcDbSymbolTableRecord
100
AcDbLayerTableRecord
  2
NOKITOI
 70
     0
 62
     9
  6
PHANTOM
  0
LAYER
  5
2E42
330
2
100
AcDbSymbolTableRecord
100
AcDbLayerTableRecord
  2
MOJI
 70
     0
 62
     2
  6
CONTINUOUS
  0
ENDTAB
  0
TABLE
  2
STYLE
  5
3
330
0
100
AcDbSymbolTable
 70
     2
  0
STYLE
  5
10
330
3
100
AcDbSymbolTableRecord
100
AcDbTextStyleTableRecord
  2
STANDARD
 70
     0
 40
0.0
 41
1.0
 50
0.0
 71
     0
 42
5.0
  3
TXT
  4
bigfont.shx
  0
STYLE
  5
2E43
330
3
100
AcDbSymbolTableRecord
100
AcDbTextStyleTableRecord
  2
ｽﾀｲﾙ1
 70
     0
 40
0.0
 41
1.0
 50
0.0
 71
     0
 42
2.5
  3
MS PGothic.ttf
  4

1001
ACAD
1000
MS PGothic
1071
    32818
  0
ENDTAB
  0
TABLE
  2
VIEW
  5
6
330
0
100
AcDbSymbolTable
 70
     0
  0
ENDTAB
  0
TABLE
  2
UCS
  5
7
330
0
100
AcDbSymbolTable
 70
     0
  0
ENDTAB
  0
TABLE
  2
APPID
  5
9
330
0
100
AcDbSymbolTable
 70
     1
  0
APPID
  5
11
330
9
100
AcDbSymbolTableRecord
100
AcDbRegAppTableRecord
  2
ACAD
 70
     0
  0
ENDTAB
  0
TABLE
  2
DIMSTYLE
  5
A
330
0
100
AcDbSymbolTable
 70
     1
  0
DIMSTYLE
105
1D
102
{ACAD_REACTORS
330
9F1
330
10CF
330
18E7
330
18FA
330
1914
330
1921
330
194B
330
1958
330
1965
330
1972
330
1F3E
330
1F4B
330
1F62
330
1F85
330
2CAD
330
2CBA
330
A03
330
2FFC
330
A05
330
300B
330
2FD7
102
}
330
A
100
AcDbSymbolTableRecord
100
AcDbDimStyleTableRecord
  2
STANDARD
 70
     0
  3

  4

  5

  6

  7

 40
1.0
 41
0.18
 42
0.0625
 43
0.38
 44
0.18
 45
0.0
 46
0.0
 47
0.0
 48
0.0
140
0.18
141
0.09
142
0.0
143
25.4
144
1.0
145
0.0
146
1.0
147
0.09
 71
     0
 72
     0
 73
     1
 74
     1
 75
     0
 76
     0
 77
     0
 78
     0
170
     0
171
     2
172
     0
173
     0
174
     0
175
     0
176
     0
177
     0
178
     0
270
     2
271
     4
272
     4
273
     2
274
     2
340
10
275
     0
280
     0
281
     0
282
     0
283
     1
284
     0
285
     0
286
     0
287
     3
288
     0
  0
ENDTAB
  0
TABLE
  2
BLOCK_RECORD
  5
1
330
0
100
AcDbSymbolTable
 70
    22
  0
BLOCK_RECORD
  5
1A
102
{ACAD_XDICTIONARY
360
AD2
102
}
330
1
100
AcDbSymbolTableRecord
100
AcDbBlockTableRecord
  2
*MODEL_SPACE
  0
BLOCK_RECORD
  5
17
102
{ACAD_XDICTIONARY
360
AD0
102
}
330
1
100
AcDbSymbolTableRecord
100
AcDbBlockTableRecord
  2
*PAPER_SPACE
  0
BLOCK_RECORD
  5
6D
330
1
100
AcDbSymbolTableRecord
100
AcDbBlockTableRecord
  2
_OPEN
  0
BLOCK_RECORD
  5
A32
330
1
100
AcDbSymbolTableRecord
100
AcDbBlockTableRecord
  2
*D1
  0
BLOCK_RECORD
  5
A4C
330
1
100
AcDbSymbolTableRecord
100
AcDbBlockTableRecord
  2
*D2
  0
BLOCK_RECORD
  5
10D0
330
1
100
AcDbSymbolTableRecord
100
AcDbBlockTableRecord
  2
*D4
  0
BLOCK_RECORD
  5
18E8
330
1
100
AcDbSymbolTableRecord
100
AcDbBlockTableRecord
  2
*D5
  0
BLOCK_RECORD
  5
18FB
330
1
100
AcDbSymbolTableRecord
100
AcDbBlockTableRecord
  2
*D6
  0
BLOCK_RECORD
  5
1915
330
1
100
AcDbSymbolTableRecord
100
AcDbBlockTableRecord
  2
*D7
  0
BLOCK_RECORD
  5
1922
330
1
100
AcDbSymbolTableRecord
100
AcDbBlockTableRecord
  2
*D8
  0
BLOCK_RECORD
  5
194C
330
1
100
AcDbSymbolTableRecord
100
AcDbBlockTableRecord
  2
*D9
  0
BLOCK_RECORD
  5
1959
330
1
100
AcDbSymbolTableRecord
100
AcDbBlockTableRecord
  2
*D10
  0
BLOCK_RECORD
  5
1966
330
1
100
AcDbSymbolTableRecord
100
AcDbBlockTableRecord
  2
*D11
  0
BLOCK_RECORD
  5
1973
330
1
100
AcDbSymbolTableRecord
100
AcDbBlockTableRecord
  2
*D12
  0
BLOCK_RECORD
  5
1F3F
330
1
100
AcDbSymbolTableRecord
100
AcDbBlockTableRecord
  2
*D13
  0
BLOCK_RECORD
  5
1F4C
330
1
100
AcDbSymbolTableRecord
100
AcDbBlockTableRecord
  2
*D14
  0
BLOCK_RECORD
  5
1F63
330
1
100
AcDbSymbolTableRecord
100
AcDbBlockTableRecord
  2
*D15
  0
BLOCK_RECORD
  5
1F86
330
1
100
AcDbSymbolTableRecord
100
AcDbBlockTableRecord
  2
*D16
  0
BLOCK_RECORD
  5
2CAE
330
1
100
AcDbSymbolTableRecord
100
AcDbBlockTableRecord
  2
*D17
  0
BLOCK_RECORD
  5
2CBB
330
1
100
AcDbSymbolTableRecord
100
AcDbBlockTableRecord
  2
*D18
  0
BLOCK_RECORD
  5
2FD8
330
1
100
AcDbSymbolTableRecord
100
AcDbBlockTableRecord
  2
*D19
  0
BLOCK_RECORD
  5
2FFD
330
1
100
AcDbSymbolTableRecord
100
AcDbBlockTableRecord
  2
*D20
  0
BLOCK_RECORD
  5
300C
330
1
100
AcDbSymbolTableRecord
100
AcDbBlockTableRecord
  2
*D21
  0
ENDTAB
  0
ENDSEC
  0
SECTION
  2
BLOCKS
  0
BLOCK
  5
1B
330
1A
100
AcDbEntity
  8
0
100
AcDbBlockBegin
  2
*MODEL_SPACE
 70
     0
 10
0.0
 20
0.0
 30
0.0
  3
*MODEL_SPACE
  1

  0
ENDBLK
  5
1C
330
1A
100
AcDbEntity
  8
0
100
AcDbBlockEnd
  0
BLOCK
  5
18
330
17
100
AcDbEntity
 67
     1
  8
0
100
AcDbBlockBegin
  2
*PAPER_SPACE
 70
     0
 10
0.0
 20
0.0
 30
0.0
  3
*PAPER_SPACE
  1

  0
ENDBLK
  5
19
330
17
100
AcDbEntity
 67
     1
  8
0
100
AcDbBlockEnd
  0
BLOCK
  5
6E
330
6D
100
AcDbEntity
  8
0
100
AcDbBlockBegin
  2
_OPEN
 70
     0
 10
0.0
 20
0.0
 30
0.0
  3
_OPEN
  1

  0
LINE
  5
6F
330
6D
100
AcDbEntity
  8
0
  6
BYBLOCK
 62
     0
100
AcDbLine
 10
-1.0
 20
0.1666666666666666
 30
0.0
 11
0.0
 21
0.0
 31
0.0
  0
LINE
  5
70
330
6D
100
AcDbEntity
  8
0
  6
BYBLOCK
 62
     0
100
AcDbLine
 10
0.0
 20
0.0
 30
0.0
 11
-1.0
 21
-0.1666666666666666
 31
0.0
  0
LINE
  5
71
330
6D
100
AcDbEntity
  8
0
  6
BYBLOCK
 62
     0
100
AcDbLine
 10
0.0
 20
0.0
 30
0.0
 11
-1.0
 21
0.0
 31
0.0
  0
ENDBLK
  5
72
330
6D
100
AcDbEntity
  8
0
100
AcDbBlockEnd
  0
BLOCK
  5
A3C
330
A32
100
AcDbEntity
  8
0
100
AcDbBlockBegin
  2
*D1
 70
     1
 10
0.0
 20
0.0
 30
0.0
  3
*D1
  1

  0
LINE
  5
1195
330
A32
100
AcDbEntity
  8
SUNPOU
100
AcDbLine
 10
644.9877527206645
 20
467.6255353700661
 30
0.0
 11
644.9877527206645
 21
477.0332353700661
 31
0.0
  0
LINE
  5
1196
330
A32
100
AcDbEntity
  8
SUNPOU
100
AcDbLine
 10
654.4166467206645
 20
467.6255353700661
 30
0.0
 11
654.4166467206645
 21
477.0332353700661
 31
0.0
  0
LINE
  5
1197
330
A32
100
AcDbEntity
  8
SUNPOU
100
AcDbLine
 10
647.9877527206645
 20
475.5332353700659
 30
0.0
 11
651.4166467206645
 21
475.5332353700659
 31
0.0
  0
INSERT
  5
1198
330
A32
100
AcDbEntity
  8
SUNPOU
100
AcDbBlockReference
  2
_OPEN
 10
644.9877527206645
 20
475.5332353700659
 30
0.0
 41
3.0
 42
3.0
 43
3.0
 50
180.0
  0
INSERT
  5
1199
330
A32
100
AcDbEntity
  8
SUNPOU
100
AcDbBlockReference
  2
_OPEN
 10
654.4166467206645
 20
475.5332353700659
 30
0.0
 41
3.0
 42
3.0
 43
3.0
  0
MTEXT
  5
119A
330
A32
100
AcDbEntity
  8
SUNPOU
100
AcDbMText
 10
649.7021997206645
 20
479.533235370066
 30
0.0
 40
6.0
 41
0.0
 71
     5
 72
     5
  1
\A1;9
1001
ACAD
1000
MTEXTBEGIN
1070
    73
1070
     1
1070
    44
1040
1.0
1070
    74
1070
     0
1000
MTEXTEND
1000
MTEXTBEGIN
1070
    73
1070
     1
1070
    44
1040
1.0
1070
    74
1070
     0
1000
MTEXTEND
1000
MTEXTBEGIN
1070
    73
1070
     1
1070
    44
1040
1.0
1070
    74
1070
     0
1000
MTEXTEND
1000
MTEXTBEGIN
1070
    73
1070
     1
1070
    44
1040
1.0
1070
    74
1070
     0
1000
MTEXTEND
1000
MTEXTBEGIN
1070
    73
1070
     1
1070
    44
1040
1.0
1070
    74
1070
     0
1000
MTEXTEND
1000
MTEXTBEGIN
1070
    73
1070
     1
1070
    44
1040
1.0
1070
    74
1070
     0
1000
MTEXTEND
1000
MTEXTBEGIN
1070
    73
1070
     1
1070
    44
1040
1.0
1070
    74
1070
     0
1000
MTEXTEND
1000
MTEXTBEGIN
1070
    73
1070
     1
1070
    44
1040
1.0
1070
    74
1070
     0
1000
MTEXTEND
1000
MTEXTBEGIN
1070
    73
1070
     1
1070
    44
1040
1.0
1070
    74
1070
     0
1000
MTEXTEND
1000
MTEXTBEGIN
1070
    73
1070
     1
1070
    44
1040
1.0
1070
    74
1070
     0
1000
MTEXTEND
1000
MTEXTBEGIN
1070
    73
1070
     1
1070
    44
1040
1.0
1070
    74
1070
     0
1000
MTEXTEND
1000
MTEXTBEGIN
1070
    73
1070
     1
1070
    44
1040
1.0
1070
    74
1070
     0
1000
MTEXTEND
1000
MTEXTBEGIN
1070
    73
1070
     1
1070
    44
1040
1.0
1070
    74
1070
     0
1000
MTEXTEND
1000
MTEXTBEGIN
1070
    73
1070
     1
1070
    44
1040
1.0
1070
    74
1070
     0
1000
MTEXTEND
  0
POINT
  5
119B
330
A32
100
AcDbEntity
  8
DEFPOINTS
 62
     0
100
AcDbPoint
 10
644.9877527206645
 20
464.6255353700661
 30
0.0
  0
POINT
  5
119C
330
A32
100
AcDbEntity
  8
DEFPOINTS
 62
     0
100
AcDbPoint
 10
654.4166467206645
 20
464.6255353700661
 30
0.0
  0
POINT
  5
119D
330
A32
100
AcDbEntity
  8
DEFPOINTS
 62
     0
100
AcDbPoint
 10
654.4166467206645
 20
475.5332353700659
 30
0.0
  0
ENDBLK
  5
A3D
330
A32
100
AcDbEntity
  8
0
100
AcDbBlockEnd
  0
BLOCK
  5
A56
330
A4C
100
AcDbEntity
  8
0
100
AcDbBlockBegin
  2
*D2
 70
     1
 10
0.0
 20
0.0
 30
0.0
  3
*D2
  1

  0
LINE
  5
306C
330
A4C
100
AcDbEntity
  8
SUNPOU
100
AcDbLine
 10
581.2225574276722
 20
463.1255353700661
 30
0.0
 11
599.2780172575512
 21
463.1255353700661
 31
0.0
  0
LINE
  5
306D
330
A4C
100
AcDbEntity
  8
SUNPOU
100
AcDbLine
 10
582.2938044776602
 20
448.1280766702353
 30
0.0
 11
599.2780172575512
 21
448.1280766702353
 31
0.0
  0
LINE
  5
306E
330
A4C
100
AcDbEntity
  8
SUNPOU
100
AcDbLine
 10
596.2780172575512
 20
470.1255353700661
 30
0.0
 11
596.2780172575512
 21
477.1255353700661
 31
0.0
  0
LINE
  5
306F
330
A4C
100
AcDbEntity
  8
SUNPOU
100
AcDbLine
 10
596.2780172575512
 20
441.1280766702353
 30
0.0
 11
596.2780172575512
 21
434.1280766702353
 31
0.0
  0
LINE
  5
3070
330
A4C
100
AcDbEntity
  8
SUNPOU
100
AcDbLine
 10
596.2780172575512
 20
463.1255353700661
 30
0.0
 11
596.2780172575512
 21
448.1280766702353
 31
0.0
  0
INSERT
  5
3071
330
A4C
100
AcDbEntity
  8
SUNPOU
100
AcDbBlockReference
  2
_OPEN
 10
596.2780172575512
 20
463.1255353700661
 30
0.0
 41
7.0
 42
7.0
 43
7.0
 50
270.0
  0
INSERT
  5
3072
330
A4C
100
AcDbEntity
  8
SUNPOU
100
AcDbBlockReference
  2
_OPEN
 10
596.2780172575512
 20
448.1280766702353
 30
0.0
 41
7.0
 42
7.0
 43
7.0
 50
90.0
  0
MTEXT
  5
3073
330
A4C
100
AcDbEntity
  8
SUNPOU
100
AcDbMText
 10
591.2780172575511
 20
455.6268060201507
 30
0.0
 40
6.0
 41
0.0
 71
     5
 72
     1
  1
\A1;15
 11
0.0000000000000001
 21
1.0
 31
0.0
  0
POINT
  5
3074
330
A4C
100
AcDbEntity
  8
DEFPOINTS
 62
     0
100
AcDbPoint
 10
575.2225574276723
 20
463.1255353700661
 30
0.0
  0
POINT
  5
3075
330
A4C
100
AcDbEntity
  8
DEFPOINTS
 62
     0
100
AcDbPoint
 10
576.2938044776602
 20
448.1280766702353
 30
0.0
  0
POINT
  5
3076
330
A4C
100
AcDbEntity
  8
DEFPOINTS
 62
     0
100
AcDbPoint
 10
596.2780172575512
 20
448.1280766702353
 30
0.0
  0
ENDBLK
  5
A57
330
A4C
100
AcDbEntity
  8
0
100
AcDbBlockEnd
  0
BLOCK
  5
10DA
330
10D0
100
AcDbEntity
  8
0
100
AcDbBlockBegin
  2
*D4
 70
     1
 10
0.0
 20
0.0
 30
0.0
  3
*D4
  1

  0
LINE
  5
11C6
330
10D0
100
AcDbEntity
  8
SUNPOU
100
AcDbLine
 10
524.2224574276725
 20
470.1254353700661
 30
0.0
 11
524.2224574276725
 21
479.0332353700661
 31
0.0
  0
LINE
  5
11C7
330
10D0
100
AcDbEntity
  8
SUNPOU
100
AcDbLine
 10
577.2225574276723
 20
470.1255353700661
 30
0.0
 11
577.2225574276723
 21
479.0332353700661
 31
0.0
  0
LINE
  5
11C8
330
10D0
100
AcDbEntity
  8
SUNPOU
100
AcDbLine
 10
531.2224574276723
 20
476.0332353700659
 30
0.0
 11
570.2225574276723
 21
476.0332353700659
 31
0.0
  0
INSERT
  5
11C9
330
10D0
100
AcDbEntity
  8
SUNPOU
100
AcDbBlockReference
  2
_OPEN
 10
524.2224574276725
 20
476.0332353700659
 30
0.0
 41
7.0
 42
7.0
 43
7.0
 50
180.0
  0
INSERT
  5
11CA
330
10D0
100
AcDbEntity
  8
SUNPOU
100
AcDbBlockReference
  2
_OPEN
 10
577.2225574276723
 20
476.0332353700659
 30
0.0
 41
7.0
 42
7.0
 43
7.0
  0
MTEXT
  5
11CB
330
10D0
100
AcDbEntity
  8
SUNPOU
100
AcDbMText
 10
550.7225074276723
 20
481.0332353700661
 30
0.0
 40
6.0
 41
0.0
 71
     5
 72
     5
  1
\A1;53
1001
ACAD
1000
MTEXTBEGIN
1070
    73
1070
     1
1070
    44
1040
1.0
1070
    74
1070
     0
1000
MTEXTEND
1000
MTEXTBEGIN
1070
    73
1070
     1
1070
    44
1040
1.0
1070
    74
1070
     0
1000
MTEXTEND
1000
MTEXTBEGIN
1070
    73
1070
     1
1070
    44
1040
1.0
1070
    74
1070
     0
1000
MTEXTEND
1000
MTEXTBEGIN
1070
    73
1070
     1
1070
    44
1040
1.0
1070
    74
1070
     0
1000
MTEXTEND
1000
MTEXTBEGIN
1070
    73
1070
     1
1070
    44
1040
1.0
1070
    74
1070
     0
1000
MTEXTEND
1000
MTEXTBEGIN
1070
    73
1070
     1
1070
    44
1040
1.0
1070
    74
1070
     0
1000
MTEXTEND
1000
MTEXTBEGIN
1070
    73
1070
     1
1070
    44
1040
1.0
1070
    74
1070
     0
1000
MTEXTEND
1000
MTEXTBEGIN
1070
    73
1070
     1
1070
    44
1040
1.0
1070
    74
1070
     0
1000
MTEXTEND
1000
MTEXTBEGIN
1070
    73
1070
     1
1070
    44
1040
1.0
1070
    74
1070
     0
1000
MTEXTEND
1000
MTEXTBEGIN
1070
    73
1070
     1
1070
    44
1040
1.0
1070
    74
1070
     0
1000
MTEXTEND
1000
MTEXTBEGIN
1070
    73
1070
     1
1070
    44
1040
1.0
1070
    74
1070
     0
1000
MTEXTEND
1000
MTEXTBEGIN
1070
    73
1070
     1
1070
    44
1040
1.0
1070
    74
1070
     0
1000
MTEXTEND
1000
MTEXTBEGIN
1070
    73
1070
     1
1070
    44
1040
1.0
1070
    74
1070
     0
1000
MTEXTEND
1000
MTEXTBEGIN
1070
    73
1070
     1
1070
    44
1040
1.0
1070
    74
1070
     0
1000
MTEXTEND
  0
POINT
  5
11CC
330
10D0
100
AcDbEntity
  8
DEFPOINTS
 62
     0
100
AcDbPoint
 10
524.2224574276725
 20
464.1254353700661
 30
0.0
  0
POINT
  5
11CD
330
10D0
100
AcDbEntity
  8
DEFPOINTS
 62
     0
100
AcDbPoint
 10
577.2225574276723
 20
464.1255353700661
 30
0.0
  0
POINT
  5
11CE
330
10D0
100
AcDbEntity
  8
DEFPOINTS
 62
     0
100
AcDbPoint
 10
577.2225574276723
 20
476.0332353700659
 30
0.0
  0
ENDBLK
  5
10DB
330
10D0
100
AcDbEntity
  8
0
100
AcDbBlockEnd
  0
BLOCK
  5
18F2
330
18E8
100
AcDbEntity
  8
0
100
AcDbBlockBegin
  2
*D5
 70
     1
 10
0.0
 20
0.0
 30
0.0
  3
*D5
  1

  0
LINE
  5
229C
330
18E8
100
AcDbEntity
  8
SUNPOU
100
AcDbLine
 10
145.5198706941088
 20
280.9498079716646
 30
0.0
 11
145.5198706941088
 21
314.6853741989413
 31
0.0
  0
LINE
  5
229D
330
18E8
100
AcDbEntity
  8
SUNPOU
100
AcDbLine
 10
375.5198706941086
 20
280.9498079716646
 30
0.0
 11
375.5198706941086
 21
314.6853741989413
 31
0.0
  0
LINE
  5
229E
330
18E8
100
AcDbEntity
  8
SUNPOU
100
AcDbLine
 10
152.5198706941088
 20
311.6853741989413
 30
0.0
 11
368.5198706941086
 21
311.6853741989413
 31
0.0
  0
INSERT
  5
229F
330
18E8
100
AcDbEntity
  8
SUNPOU
100
AcDbBlockReference
  2
_OPEN
 10
145.5198706941088
 20
311.6853741989413
 30
0.0
 41
7.0
 42
7.0
 43
7.0
 50
180.0
  0
INSERT
  5
22A0
330
18E8
100
AcDbEntity
  8
SUNPOU
100
AcDbBlockReference
  2
_OPEN
 10
375.5198706941086
 20
311.6853741989413
 30
0.0
 41
7.0
 42
7.0
 43
7.0
  0
MTEXT
  5
22A1
330
18E8
100
AcDbEntity
  8
SUNPOU
100
AcDbMText
 10
260.5198706941087
 20
316.6853741989413
 30
0.0
 40
6.0
 41
0.0
 71
     5
 72
     5
  1
\A1;230
1001
ACAD
1000
MTEXTBEGIN
1070
    73
1070
     1
1070
    44
1040
1.0
1070
    74
1070
     0
1000
MTEXTEND
1000
MTEXTBEGIN
1070
    73
1070
     1
1070
    44
1040
1.0
1070
    74
1070
     0
1000
MTEXTEND
1000
MTEXTBEGIN
1070
    73
1070
     1
1070
    44
1040
1.0
1070
    74
1070
     0
1000
MTEXTEND
1000
MTEXTBEGIN
1070
    73
1070
     1
1070
    44
1040
1.0
1070
    74
1070
     0
1000
MTEXTEND
1000
MTEXTBEGIN
1070
    73
1070
     1
1070
    44
1040
1.0
1070
    74
1070
     0
1000
MTEXTEND
1000
MTEXTBEGIN
1070
    73
1070
     1
1070
    44
1040
1.0
1070
    74
1070
     0
1000
MTEXTEND
1000
MTEXTBEGIN
1070
    73
1070
     1
1070
    44
1040
1.0
1070
    74
1070
     0
1000
MTEXTEND
1000
MTEXTBEGIN
1070
    73
1070
     1
1070
    44
1040
1.0
1070
    74
1070
     0
1000
MTEXTEND
1000
MTEXTBEGIN
1070
    73
1070
     1
1070
    44
1040
1.0
1070
    74
1070
     0
1000
MTEXTEND
1000
MTEXTBEGIN
1070
    73
1070
     1
1070
    44
1040
1.0
1070
    74
1070
     0
1000
MTEXTEND
  0
POINT
  5
22A2
330
18E8
100
AcDbEntity
  8
DEFPOINTS
 62
     0
100
AcDbPoint
 10
145.5198706941088
 20
274.9498079716646
 30
0.0
  0
POINT
  5
22A3
330
18E8
100
AcDbEntity
  8
DEFPOINTS
 62
     0
100
AcDbPoint
 10
375.5198706941086
 20
274.9498079716646
 30
0.0
  0
POINT
  5
22A4
330
18E8
100
AcDbEntity
  8
DEFPOINTS
 62
     0
100
AcDbPoint
 10
375.5198706941086
 20
311.6853741989413
 30
0.0
  0
ENDBLK
  5
18F3
330
18E8
100
AcDbEntity
  8
0
100
AcDbBlockEnd
  0
BLOCK
  5
1907
330
18FB
100
AcDbEntity
  8
0
100
AcDbBlockBegin
  2
*D6
 70
     1
 10
0.0
 20
0.0
 30
0.0
  3
*D6
  1

  0
LINE
  5
3077
330
18FB
100
AcDbEntity
  8
SUNPOU
100
AcDbLine
 10
577.118623484167
 20
178.6826171690904
 30
0.0
 11
577.118623484167
 21
195.8829067861291
 31
0.0
  0
LINE
  5
3078
330
18FB
100
AcDbEntity
  8
SUNPOU
100
AcDbLine
 10
584.7699805273276
 20
155.4174654450874
 30
0.0
 11
584.7699805273276
 21
195.8829067861291
 31
0.0
  0
LINE
  5
3079
330
18FB
100
AcDbEntity
  8
SUNPOU
100
AcDbLine
 10
570.118623484167
 20
192.8829067861291
 30
0.0
 11
563.1186234841671
 21
192.8829067861291
 31
0.0
  0
LINE
  5
307A
330
18FB
100
AcDbEntity
  8
SUNPOU
100
AcDbLine
 10
591.7699805273277
 20
192.8829067861291
 30
0.0
 11
598.7699805273276
 21
192.8829067861291
 31
0.0
  0
MTEXT
  5
307B
330
18FB
100
AcDbEntity
  8
SUNPOU
100
AcDbMText
 10
580.9443020057474
 20
201.8829067861291
 30
0.0
 40
6.0
 41
0.0
 71
     5
 72
     1
  1
\A1;8
  0
LINE
  5
307C
330
18FB
100
AcDbEntity
  8
SUNPOU
100
AcDbLine
 10
577.118623484167
 20
192.8829067861291
 30
0.0
 11
584.7699805273276
 21
192.8829067861291
 31
0.0
  0
INSERT
  5
307D
330
18FB
100
AcDbEntity
  8
SUNPOU
100
AcDbBlockReference
  2
_OPEN
 10
577.118623484167
 20
192.8829067861291
 30
0.0
 41
7.0
 42
7.0
 43
7.0
  0
INSERT
  5
307E
330
18FB
100
AcDbEntity
  8
SUNPOU
100
AcDbBlockReference
  2
_OPEN
 10
584.7699805273276
 20
192.8829067861291
 30
0.0
 41
7.0
 42
7.0
 43
7.0
 50
180.0
  0
POINT
  5
307F
330
18FB
100
AcDbEntity
  8
DEFPOINTS
 62
     0
100
AcDbPoint
 10
577.118623484167
 20
172.6826171690904
 30
0.0
  0
POINT
  5
3080
330
18FB
100
AcDbEntity
  8
DEFPOINTS
 62
     0
100
AcDbPoint
 10
584.7699805273276
 20
149.4174654450874
 30
0.0
  0
POINT
  5
3081
330
18FB
100
AcDbEntity
  8
DEFPOINTS
 62
     0
100
AcDbPoint
 10
584.7699805273276
 20
192.8829067861291
 30
0.0
  0
ENDBLK
  5
1908
330
18FB
100
AcDbEntity
  8
0
100
AcDbBlockEnd
  0
BLOCK
  5
191F
330
1915
100
AcDbEntity
  8
0
100
AcDbBlockBegin
  2
*D7
 70
     1
 10
0.0
 20
0.0
 30
0.0
  3
*D7
  1

  0
LINE
  5
3082
330
1915
100
AcDbEntity
  8
SUNPOU
100
AcDbLine
 10
489.2539538782681
 20
277.6623156164926
 30
0.0
 11
489.2539538782681
 21
314.6853741989413
 31
0.0
  0
LINE
  5
3083
330
1915
100
AcDbEntity
  8
SUNPOU
100
AcDbLine
 10
626.351662334479
 20
254.8843308079315
 30
0.0
 11
626.351662334479
 21
314.6853741989413
 31
0.0
  0
LINE
  5
3084
330
1915
100
AcDbEntity
  8
SUNPOU
100
AcDbLine
 10
496.2539538782682
 20
311.6853741989413
 30
0.0
 11
619.3516623344789
 21
311.6853741989413
 31
0.0
  0
INSERT
  5
3085
330
1915
100
AcDbEntity
  8
SUNPOU
100
AcDbBlockReference
  2
_OPEN
 10
489.2539538782681
 20
311.6853741989413
 30
0.0
 41
7.0
 42
7.0
 43
7.0
 50
180.0
  0
INSERT
  5
3086
330
1915
100
AcDbEntity
  8
SUNPOU
100
AcDbBlockReference
  2
_OPEN
 10
626.351662334479
 20
311.6853741989413
 30
0.0
 41
7.0
 42
7.0
 43
7.0
  0
MTEXT
  5
3087
330
1915
100
AcDbEntity
  8
SUNPOU
100
AcDbMText
 10
557.8028081063735
 20
316.6853741989413
 30
0.0
 40
6.0
 41
0.0
 71
     5
 72
     1
  1
\A1;137
  0
POINT
  5
3088
330
1915
100
AcDbEntity
  8
DEFPOINTS
 62
     0
100
AcDbPoint
 10
489.2539538782681
 20
271.6623156164926
 30
0.0
  0
POINT
  5
3089
330
1915
100
AcDbEntity
  8
DEFPOINTS
 62
     0
100
AcDbPoint
 10
626.351662334479
 20
248.8843308079315
 30
0.0
  0
POINT
  5
308A
330
1915
100
AcDbEntity
  8
DEFPOINTS
 62
     0
100
AcDbPoint
 10
626.351662334479
 20
311.6853741989413
 30
0.0
  0
ENDBLK
  5
1920
330
1915
100
AcDbEntity
  8
0
100
AcDbBlockEnd
  0
BLOCK
  5
192C
330
1922
100
AcDbEntity
  8
0
100
AcDbBlockBegin
  2
*D8
 70
     1
 10
0.0
 20
0.0
 30
0.0
  3
*D8
  1

  0
LINE
  5
308B
330
1922
100
AcDbEntity
  8
SUNPOU
100
AcDbLine
 10
583.1186234841671
 20
159.9105218403395
 30
0.0
 11
676.6927434423624
 21
159.9105218403395
 31
0.0
  0
LINE
  5
308C
330
1922
100
AcDbEntity
  8
SUNPOU
100
AcDbLine
 10
629.2686283363609
 20
251.9105104144266
 30
0.0
 11
676.6927434423624
 21
251.9105104144266
 31
0.0
  0
LINE
  5
308D
330
1922
100
AcDbEntity
  8
SUNPOU
100
AcDbLine
 10
673.6927434423623
 20
166.9105218403395
 30
0.0
 11
673.6927434423623
 21
244.9105104144266
 31
0.0
  0
INSERT
  5
308E
330
1922
100
AcDbEntity
  8
SUNPOU
100
AcDbBlockReference
  2
_OPEN
 10
673.6927434423623
 20
159.9105218403395
 30
0.0
 41
7.0
 42
7.0
 43
7.0
 50
270.0
  0
INSERT
  5
308F
330
1922
100
AcDbEntity
  8
SUNPOU
100
AcDbBlockReference
  2
_OPEN
 10
673.6927434423623
 20
251.9105104144266
 30
0.0
 41
7.0
 42
7.0
 43
7.0
 50
90.0
  0
MTEXT
  5
3090
330
1922
100
AcDbEntity
  8
SUNPOU
100
AcDbMText
 10
668.6927434423624
 20
205.9105161273832
 30
0.0
 40
6.0
 41
0.0
 71
     5
 72
     1
  1
\A1;92
 11
0.0000000000000001
 21
1.0
 31
0.0
  0
POINT
  5
3091
330
1922
100
AcDbEntity
  8
DEFPOINTS
 62
     0
100
AcDbPoint
 10
577.118623484167
 20
159.9105218403395
 30
0.0
  0
POINT
  5
3092
330
1922
100
AcDbEntity
  8
DEFPOINTS
 62
     0
100
AcDbPoint
 10
623.268628336361
 20
251.9105104144266
 30
0.0
  0
POINT
  5
3093
330
1922
100
AcDbEntity
  8
DEFPOINTS
 62
     0
100
AcDbPoint
 10
673.6927434423623
 20
251.9105104144266
 30
0.0
  0
ENDBLK
  5
192D
330
1922
100
AcDbEntity
  8
0
100
AcDbBlockEnd
  0
BLOCK
  5
1956
330
194C
100
AcDbEntity
  8
0
100
AcDbBlockBegin
  2
*D9
 70
     1
 10
0.0
 20
0.0
 30
0.0
  3
*D9
  1

  0
LINE
  5
3094
330
194C
100
AcDbEntity
  8
SUNPOU
100
AcDbLine
 10
486.2138320578796
 20
274.9907576378039
 30
0.0
 11
442.777297602894
 21
274.9907576378039
 31
0.0
  0
LINE
  5
3095
330
194C
100
AcDbEntity
  8
SUNPOU
100
AcDbLine
 10
571.1186234841671
 20
159.9105218403396
 30
0.0
 11
442.777297602894
 21
159.9105218403396
 31
0.0
  0
LINE
  5
3096
330
194C
100
AcDbEntity
  8
SUNPOU
100
AcDbLine
 10
445.777297602894
 20
267.9907576378039
 30
0.0
 11
445.777297602894
 21
166.9105218403396
 31
0.0
  0
INSERT
  5
3097
330
194C
100
AcDbEntity
  8
SUNPOU
100
AcDbBlockReference
  2
_OPEN
 10
445.777297602894
 20
274.9907576378039
 30
0.0
 41
7.0
 42
7.0
 43
7.0
 50
90.0
  0
INSERT
  5
3098
330
194C
100
AcDbEntity
  8
SUNPOU
100
AcDbBlockReference
  2
_OPEN
 10
445.777297602894
 20
159.9105218403396
 30
0.0
 41
7.0
 42
7.0
 43
7.0
 50
270.0
  0
MTEXT
  5
3099
330
194C
100
AcDbEntity
  8
SUNPOU
100
AcDbMText
 10
440.7772976028939
 20
217.4506397390718
 30
0.0
 40
6.0
 41
0.0
 71
     5
 72
     1
  1
\A1;115
 11
0.0000000000000001
 21
1.0
 31
0.0
  0
POINT
  5
309A
330
194C
100
AcDbEntity
  8
DEFPOINTS
 62
     0
100
AcDbPoint
 10
492.2138320578796
 20
274.9907576378039
 30
0.0
  0
POINT
  5
309B
330
194C
100
AcDbEntity
  8
DEFPOINTS
 62
     0
100
AcDbPoint
 10
577.118623484167
 20
159.9105218403395
 30
0.0
  0
POINT
  5
309C
330
194C
100
AcDbEntity
  8
DEFPOINTS
 62
     0
100
AcDbPoint
 10
445.777297602894
 20
159.9105218403396
 30
0.0
  0
ENDBLK
  5
1957
330
194C
100
AcDbEntity
  8
0
100
AcDbBlockEnd
  0
BLOCK
  5
1963
330
1959
100
AcDbEntity
  8
0
100
AcDbBlockBegin
  2
*D10
 70
     1
 10
0.0
 20
0.0
 30
0.0
  3
*D10
  1

  0
LINE
  5
309D
330
1959
100
AcDbEntity
  8
SUNPOU
100
AcDbLine
 10
571.1186234841671
 20
159.9105218403396
 30
0.0
 11
442.777297602894
 21
159.9105218403396
 31
0.0
  0
LINE
  5
309E
330
1959
100
AcDbEntity
  8
SUNPOU
100
AcDbLine
 10
539.4760951866013
 20
139.9105104144265
 30
0.0
 11
442.777297602894
 21
139.9105104144266
 31
0.0
  0
LINE
  5
309F
330
1959
100
AcDbEntity
  8
SUNPOU
100
AcDbLine
 10
445.777297602894
 20
152.9105218403396
 30
0.0
 11
445.777297602894
 21
146.9105104144266
 31
0.0
  0
INSERT
  5
30A0
330
1959
100
AcDbEntity
  8
SUNPOU
100
AcDbBlockReference
  2
_OPEN
 10
445.777297602894
 20
159.9105218403396
 30
0.0
 41
7.0
 42
7.0
 43
7.0
 50
90.0
  0
INSERT
  5
30A1
330
1959
100
AcDbEntity
  8
SUNPOU
100
AcDbBlockReference
  2
_OPEN
 10
445.777297602894
 20
139.9105104144266
 30
0.0
 41
7.0
 42
7.0
 43
7.0
 50
270.0
  0
MTEXT
  5
30A2
330
1959
100
AcDbEntity
  8
SUNPOU
100
AcDbMText
 10
440.7772976028939
 20
149.9105161273831
 30
0.0
 40
6.0
 41
0.0
 71
     5
 72
     1
  1
\A1;20
 11
0.0000000000000001
 21
1.0
 31
0.0
  0
POINT
  5
30A3
330
1959
100
AcDbEntity
  8
DEFPOINTS
 62
     0
100
AcDbPoint
 10
577.118623484167
 20
159.9105218403395
 30
0.0
  0
POINT
  5
30A4
330
1959
100
AcDbEntity
  8
DEFPOINTS
 62
     0
100
AcDbPoint
 10
545.4760951866013
 20
139.9105104144265
 30
0.0
  0
POINT
  5
30A5
330
1959
100
AcDbEntity
  8
DEFPOINTS
 62
     0
100
AcDbPoint
 10
445.777297602894
 20
139.9105104144266
 30
0.0
  0
ENDBLK
  5
1964
330
1959
100
AcDbEntity
  8
0
100
AcDbBlockEnd
  0
BLOCK
  5
1970
330
1966
100
AcDbEntity
  8
0
100
AcDbBlockBegin
  2
*D11
 70
     1
 10
0.0
 20
0.0
 30
0.0
  3
*D11
  1

  0
LINE
  5
30A6
330
1966
100
AcDbEntity
  8
SUNPOU
100
AcDbLine
 10
539.4760951866013
 20
139.9105104144265
 30
0.0
 11
442.7772976028941
 21
139.9105104144266
 31
0.0
  0
LINE
  5
30A7
330
1966
100
AcDbEntity
  8
SUNPOU
100
AcDbLine
 10
551.0699805273276
 20
96.21051041442669
 30
0.0
 11
442.777297602894
 21
96.21051041442672
 31
0.0
  0
LINE
  5
30A8
330
1966
100
AcDbEntity
  8
SUNPOU
100
AcDbLine
 10
445.7772976028941
 20
132.9105104144266
 30
0.0
 11
445.777297602894
 21
103.2105104144267
 31
0.0
  0
INSERT
  5
30A9
330
1966
100
AcDbEntity
  8
SUNPOU
100
AcDbBlockReference
  2
_OPEN
 10
445.7772976028941
 20
139.9105104144266
 30
0.0
 41
7.0
 42
7.0
 43
7.0
 50
90.0
  0
INSERT
  5
30AA
330
1966
100
AcDbEntity
  8
SUNPOU
100
AcDbBlockReference
  2
_OPEN
 10
445.777297602894
 20
96.21051041442672
 30
0.0
 41
7.0
 42
7.0
 43
7.0
 50
270.0
  0
MTEXT
  5
30AB
330
1966
100
AcDbEntity
  8
SUNPOU
100
AcDbMText
 10
440.777297602894
 20
118.0605104144267
 30
0.0
 40
6.0
 41
0.0
 71
     5
 72
     1
  1
\A1;44
 11
0.0000000000000001
 21
1.0
 31
0.0
  0
POINT
  5
30AC
330
1966
100
AcDbEntity
  8
DEFPOINTS
 62
     0
100
AcDbPoint
 10
545.4760951866013
 20
139.9105104144265
 30
0.0
  0
POINT
  5
30AD
330
1966
100
AcDbEntity
  8
DEFPOINTS
 62
     0
100
AcDbPoint
 10
557.0699805273276
 20
96.21051041442669
 30
0.0
  0
POINT
  5
30AE
330
1966
100
AcDbEntity
  8
DEFPOINTS
 62
     0
100
AcDbPoint
 10
445.777297602894
 20
96.21051041442672
 30
0.0
  0
ENDBLK
  5
1971
330
1966
100
AcDbEntity
  8
0
100
AcDbBlockEnd
  0
BLOCK
  5
197D
330
1973
100
AcDbEntity
  8
0
100
AcDbBlockBegin
  2
*D12
 70
     1
 10
0.0
 20
0.0
 30
0.0
  3
*D12
  1

  0
LINE
  5
30AF
330
1973
100
AcDbEntity
  8
SUNPOU
100
AcDbLine
 10
480.2138320578797
 20
274.9907576378039
 30
0.0
 11
427.9886337376196
 21
274.9907576378039
 31
0.0
  0
LINE
  5
30B0
330
1973
100
AcDbEntity
  8
SUNPOU
100
AcDbLine
 10
545.0699805273276
 20
96.21051041442669
 30
0.0
 11
427.9886337376196
 21
96.21051041442674
 31
0.0
  0
LINE
  5
30B1
330
1973
100
AcDbEntity
  8
SUNPOU
100
AcDbLine
 10
430.9886337376196
 20
267.9907576378039
 30
0.0
 11
430.9886337376196
 21
103.2105104144267
 31
0.0
  0
INSERT
  5
30B2
330
1973
100
AcDbEntity
  8
SUNPOU
100
AcDbBlockReference
  2
_OPEN
 10
430.9886337376196
 20
274.9907576378039
 30
0.0
 41
7.0
 42
7.0
 43
7.0
 50
90.0
  0
INSERT
  5
30B3
330
1973
100
AcDbEntity
  8
SUNPOU
100
AcDbBlockReference
  2
_OPEN
 10
430.9886337376196
 20
96.21051041442674
 30
0.0
 41
7.0
 42
7.0
 43
7.0
 50
270.0
  0
MTEXT
  5
30B4
330
1973
100
AcDbEntity
  8
SUNPOU
100
AcDbMText
 10
425.9886337376196
 20
185.6006340261154
 30
0.0
 40
6.0
 41
0.0
 71
     5
 72
     1
  1
\A1;179
 11
0.0000000000000001
 21
1.0
 31
0.0
  0
POINT
  5
30B5
330
1973
100
AcDbEntity
  8
DEFPOINTS
 62
     0
100
AcDbPoint
 10
486.2138320578797
 20
274.9907576378039
 30
0.0
  0
POINT
  5
30B6
330
1973
100
AcDbEntity
  8
DEFPOINTS
 62
     0
100
AcDbPoint
 10
551.0699805273276
 20
96.21051041442669
 30
0.0
  0
POINT
  5
30B7
330
1973
100
AcDbEntity
  8
DEFPOINTS
 62
     0
100
AcDbPoint
 10
430.9886337376196
 20
96.21051041442674
 30
0.0
  0
ENDBLK
  5
197E
330
1973
100
AcDbEntity
  8
0
100
AcDbBlockEnd
  0
BLOCK
  5
1F49
330
1F3F
100
AcDbEntity
  8
0
100
AcDbBlockBegin
  2
*D13
 70
     1
 10
0.0
 20
0.0
 30
0.0
  3
*D13
  1

  0
LINE
  5
30B8
330
1F3F
100
AcDbEntity
  8
SUNPOU
100
AcDbLine
 10
218.0198706941087
 20
358.57236861694
 30
0.0
 11
218.0198706941087
 21
337.0910288773325
 31
0.0
  0
LINE
  5
30B9
330
1F3F
100
AcDbEntity
  8
SUNPOU
100
AcDbLine
 10
303.0198706941086
 20
358.57236861694
 30
0.0
 11
303.0198706941086
 21
337.0910288773325
 31
0.0
  0
LINE
  5
30BA
330
1F3F
100
AcDbEntity
  8
SUNPOU
100
AcDbLine
 10
225.0198706941087
 20
340.0910288773325
 30
0.0
 11
296.0198706941086
 21
340.0910288773325
 31
0.0
  0
INSERT
  5
30BB
330
1F3F
100
AcDbEntity
  8
SUNPOU
100
AcDbBlockReference
  2
_OPEN
 10
218.0198706941087
 20
340.0910288773325
 30
0.0
 41
7.0
 42
7.0
 43
7.0
 50
180.0
  0
INSERT
  5
30BC
330
1F3F
100
AcDbEntity
  8
SUNPOU
100
AcDbBlockReference
  2
_OPEN
 10
303.0198706941086
 20
340.0910288773325
 30
0.0
 41
7.0
 42
7.0
 43
7.0
  0
MTEXT
  5
30BD
330
1F3F
100
AcDbEntity
  8
SUNPOU
100
AcDbMText
 10
260.5198706941087
 20
345.0910288773325
 30
0.0
 40
6.0
 41
0.0
 71
     5
 72
     1
  1
\A1;85
  0
POINT
  5
30BE
330
1F3F
100
AcDbEntity
  8
DEFPOINTS
 62
     0
100
AcDbPoint
 10
218.0198706941087
 20
364.57236861694
 30
0.0
  0
POINT
  5
30BF
330
1F3F
100
AcDbEntity
  8
DEFPOINTS
 62
     0
100
AcDbPoint
 10
303.0198706941086
 20
364.57236861694
 30
0.0
  0
POINT
  5
30C0
330
1F3F
100
AcDbEntity
  8
DEFPOINTS
 62
     0
100
AcDbPoint
 10
303.0198706941086
 20
340.0910288773325
 30
0.0
  0
ENDBLK
  5
1F4A
330
1F3F
100
AcDbEntity
  8
0
100
AcDbBlockEnd
  0
BLOCK
  5
1F56
330
1F4C
100
AcDbEntity
  8
0
100
AcDbBlockBegin
  2
*D14
 70
     1
 10
0.0
 20
0.0
 30
0.0
  3
*D14
  1

  0
LINE
  5
30C1
330
1F4C
100
AcDbEntity
  8
SUNPOU
100
AcDbLine
 10
303.0198706941086
 20
358.57236861694
 30
0.0
 11
303.0198706941086
 21
337.0910288773325
 31
0.0
  0
LINE
  5
30C2
330
1F4C
100
AcDbEntity
  8
SUNPOU
100
AcDbLine
 10
375.5198706941091
 20
370.6298423898653
 30
0.0
 11
375.5198706941091
 21
337.0910288773325
 31
0.0
  0
LINE
  5
30C3
330
1F4C
100
AcDbEntity
  8
SUNPOU
100
AcDbLine
 10
310.0198706941086
 20
340.0910288773325
 30
0.0
 11
368.5198706941091
 21
340.0910288773325
 31
0.0
  0
INSERT
  5
30C4
330
1F4C
100
AcDbEntity
  8
SUNPOU
100
AcDbBlockReference
  2
_OPEN
 10
303.0198706941086
 20
340.0910288773325
 30
0.0
 41
7.0
 42
7.0
 43
7.0
 50
180.0
  0
INSERT
  5
30C5
330
1F4C
100
AcDbEntity
  8
SUNPOU
100
AcDbBlockReference
  2
_OPEN
 10
375.5198706941091
 20
340.0910288773325
 30
0.0
 41
7.0
 42
7.0
 43
7.0
  0
MTEXT
  5
30C6
330
1F4C
100
AcDbEntity
  8
SUNPOU
100
AcDbMText
 10
339.2698706941088
 20
345.0910288773325
 30
0.0
 40
6.0
 41
0.0
 71
     5
 72
     1
  1
\A1;\U+203B73
  0
POINT
  5
30C7
330
1F4C
100
AcDbEntity
  8
DEFPOINTS
 62
     0
100
AcDbPoint
 10
303.0198706941086
 20
364.57236861694
 30
0.0
  0
POINT
  5
30C8
330
1F4C
100
AcDbEntity
  8
DEFPOINTS
 62
     0
100
AcDbPoint
 10
375.5198706941091
 20
376.6298423898653
 30
0.0
  0
POINT
  5
30C9
330
1F4C
100
AcDbEntity
  8
DEFPOINTS
 62
     0
100
AcDbPoint
 10
375.5198706941091
 20
340.0910288773325
 30
0.0
  0
ENDBLK
  5
1F57
330
1F4C
100
AcDbEntity
  8
0
100
AcDbBlockEnd
  0
BLOCK
  5
1F6D
330
1F63
100
AcDbEntity
  8
0
100
AcDbBlockBegin
  2
*D15
 70
     1
 10
0.0
 20
0.0
 30
0.0
  3
*D15
  1

  0
LINE
  5
30CA
330
1F63
100
AcDbEntity
  8
SUNPOU
100
AcDbLine
 10
345.5198706941086
 20
449.5768148045146
 30
0.0
 11
345.5198706941086
 21
446.5768148045146
 31
0.0
  0
LINE
  5
30CB
330
1F63
100
AcDbEntity
  8
SUNPOU
100
AcDbLine
 10
375.5198706941086
 20
449.5768148045146
 30
0.0
 11
375.5198706941086
 21
446.5768148045146
 31
0.0
  0
LINE
  5
30CC
330
1F63
100
AcDbEntity
  8
SUNPOU
100
AcDbLine
 10
352.5198706941086
 20
443.5768148045146
 30
0.0
 11
368.5198706941086
 21
443.5768148045146
 31
0.0
  0
INSERT
  5
30CD
330
1F63
100
AcDbEntity
  8
SUNPOU
100
AcDbBlockReference
  2
_OPEN
 10
345.5198706941086
 20
443.5768148045146
 30
0.0
 41
7.0
 42
7.0
 43
7.0
 50
180.0
  0
INSERT
  5
30CE
330
1F63
100
AcDbEntity
  8
SUNPOU
100
AcDbBlockReference
  2
_OPEN
 10
375.5198706941086
 20
443.5768148045146
 30
0.0
 41
7.0
 42
7.0
 43
7.0
  0
MTEXT
  5
30CF
330
1F63
100
AcDbEntity
  8
SUNPOU
100
AcDbMText
 10
360.5198706941086
 20
448.5768148045146
 30
0.0
 40
6.0
 41
0.0
 71
     5
 72
     1
  1
\A1;30
  0
POINT
  5
30D0
330
1F63
100
AcDbEntity
  8
DEFPOINTS
 62
     0
100
AcDbPoint
 10
345.5198706941086
 20
443.5768148045146
 30
0.0
  0
POINT
  5
30D1
330
1F63
100
AcDbEntity
  8
DEFPOINTS
 62
     0
100
AcDbPoint
 10
375.5198706941086
 20
443.5768148045146
 30
0.0
  0
POINT
  5
30D2
330
1F63
100
AcDbEntity
  8
DEFPOINTS
 62
     0
100
AcDbPoint
 10
375.5198706941086
 20
443.5768148045146
 30
0.0
  0
ENDBLK
  5
1F6E
330
1F63
100
AcDbEntity
  8
0
100
AcDbBlockEnd
  0
BLOCK
  5
1F90
330
1F86
100
AcDbEntity
  8
0
100
AcDbBlockBegin
  2
*D16
 70
     1
 10
0.0
 20
0.0
 30
0.0
  3
*D16
  1

  0
LINE
  5
30D3
330
1F86
100
AcDbEntity
  8
SUNPOU
100
AcDbLine
 10
555.5699805273276
 20
100.2105104144265
 30
0.0
 11
555.5699805273276
 21
61.58599564194361
 31
0.0
  0
LINE
  5
30D4
330
1F86
100
AcDbEntity
  8
SUNPOU
100
AcDbLine
 10
613.9699805273277
 20
100.2105104144265
 30
0.0
 11
613.9699805273277
 21
61.58599564194361
 31
0.0
  0
LINE
  5
30D5
330
1F86
100
AcDbEntity
  8
SUNPOU
100
AcDbLine
 10
562.5699805273276
 20
64.58599564194361
 30
0.0
 11
606.9699805273277
 21
64.58599564194361
 31
0.0
  0
INSERT
  5
30D6
330
1F86
100
AcDbEntity
  8
SUNPOU
100
AcDbBlockReference
  2
_OPEN
 10
555.5699805273276
 20
64.58599564194361
 30
0.0
 41
7.0
 42
7.0
 43
7.0
 50
180.0
  0
INSERT
  5
30D7
330
1F86
100
AcDbEntity
  8
SUNPOU
100
AcDbBlockReference
  2
_OPEN
 10
613.9699805273277
 20
64.58599564194361
 30
0.0
 41
7.0
 42
7.0
 43
7.0
  0
MTEXT
  5
30D8
330
1F86
100
AcDbEntity
  8
SUNPOU
100
AcDbMText
 10
584.7699805273276
 20
69.58599564194361
 30
0.0
 40
6.0
 41
0.0
 71
     5
 72
     1
  1
\A1;φ58
  0
POINT
  5
30D9
330
1F86
100
AcDbEntity
  8
DEFPOINTS
 62
     0
100
AcDbPoint
 10
555.5699805273276
 20
106.2105104144265
 30
0.0
  0
POINT
  5
30DA
330
1F86
100
AcDbEntity
  8
DEFPOINTS
 62
     0
100
AcDbPoint
 10
613.9699805273277
 20
106.2105104144265
 30
0.0
  0
POINT
  5
30DB
330
1F86
100
AcDbEntity
  8
DEFPOINTS
 62
     0
100
AcDbPoint
 10
613.9699805273277
 20
64.58599564194361
 30
0.0
  0
ENDBLK
  5
1F91
330
1F86
100
AcDbEntity
  8
0
100
AcDbBlockEnd
  0
BLOCK
  5
2CB8
330
2CAE
100
AcDbEntity
  8
0
100
AcDbBlockBegin
  2
*D17
 70
     1
 10
0.0
 20
0.0
 30
0.0
  3
*D17
  1

  0
LINE
  5
2E2B
330
2CAE
100
AcDbEntity
  8
SUNPOU
100
AcDbLine
 10
486.2138320578796
 20
274.9907576378039
 30
0.0
 11
461.307917247017
 21
274.9907576378039
 31
0.0
  0
LINE
  5
2E2C
330
2CAE
100
AcDbEntity
  8
SUNPOU
100
AcDbLine
 10
489.3758659137946
 20
249.4105079110315
 30
0.0
 11
461.307917247017
 21
249.4105079110315
 31
0.0
  0
LINE
  5
2E2D
330
2CAE
100
AcDbEntity
  8
SUNPOU
100
AcDbLine
 10
464.307917247017
 20
267.9907576378039
 30
0.0
 11
464.307917247017
 21
256.4105079110315
 31
0.0
  0
INSERT
  5
2E2E
330
2CAE
100
AcDbEntity
  8
SUNPOU
100
AcDbBlockReference
  2
_OPEN
 10
464.307917247017
 20
274.9907576378039
 30
0.0
 41
7.0
 42
7.0
 43
7.0
 50
90.0
  0
INSERT
  5
2E2F
330
2CAE
100
AcDbEntity
  8
SUNPOU
100
AcDbBlockReference
  2
_OPEN
 10
464.307917247017
 20
249.4105079110315
 30
0.0
 41
7.0
 42
7.0
 43
7.0
 50
270.0
  0
MTEXT
  5
2E30
330
2CAE
100
AcDbEntity
  8
SUNPOU
100
AcDbMText
 10
459.307917247017
 20
262.2006327744178
 30
0.0
 40
6.0
 41
0.0
 71
     5
 72
     5
  1
\A1;26
 11
0.0000000000000001
 21
1.0
 31
0.0
1001
ACAD
1000
MTEXTBEGIN
1070
    73
1070
     1
1070
    44
1040
1.0
1070
    74
1070
     0
1000
MTEXTEND
  0
POINT
  5
2E31
330
2CAE
100
AcDbEntity
  8
DEFPOINTS
 62
     0
100
AcDbPoint
 10
492.2138320578796
 20
274.9907576378039
 30
0.0
  0
POINT
  5
2E32
330
2CAE
100
AcDbEntity
  8
DEFPOINTS
 62
     0
100
AcDbPoint
 10
495.3758659137947
 20
249.4105079110315
 30
0.0
  0
POINT
  5
2E33
330
2CAE
100
AcDbEntity
  8
DEFPOINTS
 62
     0
100
AcDbPoint
 10
464.307917247017
 20
249.4105079110315
 30
0.0
  0
ENDBLK
  5
2CB9
330
2CAE
100
AcDbEntity
  8
0
100
AcDbBlockEnd
  0
BLOCK
  5
2CC5
330
2CBB
100
AcDbEntity
  8
0
100
AcDbBlockBegin
  2
*D18
 70
     1
 10
0.0
 20
0.0
 30
0.0
  3
*D18
  1

  0
LINE
  5
2E34
330
2CBB
100
AcDbEntity
  8
SUNPOU
100
AcDbLine
 10
629.3517765652863
 20
251.9105104144268
 30
0.0
 11
660.4392832739668
 21
251.9105104144268
 31
0.0
  0
LINE
  5
2E35
330
2CBB
100
AcDbEntity
  8
SUNPOU
100
AcDbLine
 10
629.194692945053
 20
227.9105104144265
 30
0.0
 11
660.4392832739668
 21
227.9105104144265
 31
0.0
  0
LINE
  5
2E36
330
2CBB
100
AcDbEntity
  8
SUNPOU
100
AcDbLine
 10
657.4392832739667
 20
244.9105104144268
 30
0.0
 11
657.4392832739667
 21
234.9105104144265
 31
0.0
  0
INSERT
  5
2E37
330
2CBB
100
AcDbEntity
  8
SUNPOU
100
AcDbBlockReference
  2
_OPEN
 10
657.4392832739667
 20
251.9105104144268
 30
0.0
 41
7.0
 42
7.0
 43
7.0
 50
90.0
  0
INSERT
  5
2E38
330
2CBB
100
AcDbEntity
  8
SUNPOU
100
AcDbBlockReference
  2
_OPEN
 10
657.4392832739667
 20
227.9105104144265
 30
0.0
 41
7.0
 42
7.0
 43
7.0
 50
270.0
  0
MTEXT
  5
2E39
330
2CBB
100
AcDbEntity
  8
SUNPOU
100
AcDbMText
 10
652.4392832739668
 20
239.9105104144268
 30
0.0
 40
6.0
 41
0.0
 71
     5
 72
     5
  1
\A1;24
 11
0.0000000000000001
 21
1.0
 31
0.0
1001
ACAD
1000
MTEXTBEGIN
1070
    73
1070
     1
1070
    44
1040
1.0
1070
    74
1070
     0
1000
MTEXTEND
  0
POINT
  5
2E3A
330
2CBB
100
AcDbEntity
  8
DEFPOINTS
 62
     0
100
AcDbPoint
 10
623.3517765652862
 20
251.9105104144268
 30
0.0
  0
POINT
  5
2E3B
330
2CBB
100
AcDbEntity
  8
DEFPOINTS
 62
     0
100
AcDbPoint
 10
623.194692945053
 20
227.9105104144265
 30
0.0
  0
POINT
  5
2E3C
330
2CBB
100
AcDbEntity
  8
DEFPOINTS
 62
     0
100
AcDbPoint
 10
657.4392832739667
 20
227.9105104144265
 30
0.0
  0
ENDBLK
  5
2CC6
330
2CBB
100
AcDbEntity
  8
0
100
AcDbBlockEnd
  0
BLOCK
  5
2FE4
330
2FD8
100
AcDbEntity
  8
0
100
AcDbBlockBegin
  2
*D19
 70
     1
 10
0.0
 20
0.0
 30
0.0
  3
*D19
  1

  0
LINE
  5
30DC
330
2FD8
100
AcDbEntity
  8
SUNPOU
100
AcDbLine
 10
659.4877527206644
 20
456.1255353700661
 30
0.0
 11
681.8783094705427
 21
456.1255353700661
 31
0.0
  0
LINE
  5
30DD
330
2FD8
100
AcDbEntity
  8
SUNPOU
100
AcDbLine
 10
656.2168527206645
 20
461.1255353700661
 30
0.0
 11
681.8783094705427
 21
461.1255353700661
 31
0.0
  0
LINE
  5
30DE
330
2FD8
100
AcDbEntity
  8
SUNPOU
100
AcDbLine
 10
678.8783094705427
 20
449.1255353700661
 30
0.0
 11
678.8783094705427
 21
442.1255353700661
 31
0.0
  0
LINE
  5
30DF
330
2FD8
100
AcDbEntity
  8
SUNPOU
100
AcDbLine
 10
678.8783094705427
 20
468.1255353700661
 30
0.0
 11
678.8783094705427
 21
475.1255353700661
 31
0.0
  0
MTEXT
  5
30E0
330
2FD8
100
AcDbEntity
  8
SUNPOU
100
AcDbMText
 10
688.8318294187175
 20
459.1319717957796
 30
0.0
 40
6.0
 41
0.0
 71
     5
 72
     1
  1
\A1;差込み寸法5
 11
0.0000000000000001
 21
1.0
 31
0.0
  0
LINE
  5
30E1
330
2FD8
100
AcDbEntity
  8
SUNPOU
100
AcDbLine
 10
678.8783094705427
 20
456.1255353700661
 30
0.0
 11
678.8783094705427
 21
461.1255353700661
 31
0.0
  0
INSERT
  5
30E2
330
2FD8
100
AcDbEntity
  8
SUNPOU
100
AcDbBlockReference
  2
_OPEN
 10
678.8783094705427
 20
456.1255353700661
 30
0.0
 41
7.0
 42
7.0
 43
7.0
 50
90.0
  0
INSERT
  5
30E3
330
2FD8
100
AcDbEntity
  8
SUNPOU
100
AcDbBlockReference
  2
_OPEN
 10
678.8783094705427
 20
461.1255353700661
 30
0.0
 41
7.0
 42
7.0
 43
7.0
 50
270.0
  0
POINT
  5
30E4
330
2FD8
100
AcDbEntity
  8
DEFPOINTS
 62
     0
100
AcDbPoint
 10
653.4877527206645
 20
456.1255353700661
 30
0.0
  0
POINT
  5
30E5
330
2FD8
100
AcDbEntity
  8
DEFPOINTS
 62
     0
100
AcDbPoint
 10
650.2168527206645
 20
461.1255353700661
 30
0.0
  0
POINT
  5
30E6
330
2FD8
100
AcDbEntity
  8
DEFPOINTS
 62
     0
100
AcDbPoint
 10
678.8783094705427
 20
461.1255353700661
 30
0.0
  0
ENDBLK
  5
2FE5
330
2FD8
100
AcDbEntity
  8
0
100
AcDbBlockEnd
  0
BLOCK
  5
3009
330
2FFD
100
AcDbEntity
  8
0
100
AcDbBlockBegin
  2
*D20
 70
     1
 10
0.0
 20
0.0
 30
0.0
  3
*D20
  1

  0
LINE
  5
30E7
330
2FFD
100
AcDbEntity
  8
SUNPOU
100
AcDbLine
 10
640.9877527206644
 20
448.1255353700661
 30
0.0
 11
623.992013950623
 21
448.1255353700661
 31
0.0
  0
LINE
  5
30E8
330
2FFD
100
AcDbEntity
  8
SUNPOU
100
AcDbLine
 10
643.4877527206644
 20
461.1255353700661
 30
0.0
 11
623.992013950623
 21
461.1255353700662
 31
0.0
  0
LINE
  5
30E9
330
2FFD
100
AcDbEntity
  8
SUNPOU
100
AcDbLine
 10
626.992013950623
 20
441.1255353700662
 30
0.0
 11
626.992013950623
 21
434.1255353700661
 31
0.0
  0
LINE
  5
30EA
330
2FFD
100
AcDbEntity
  8
SUNPOU
100
AcDbLine
 10
626.992013950623
 20
468.1255353700661
 30
0.0
 11
626.992013950623
 21
475.1255353700662
 31
0.0
  0
LINE
  5
30EB
330
2FFD
100
AcDbEntity
  8
SUNPOU
100
AcDbLine
 10
626.992013950623
 20
448.1255353700661
 30
0.0
 11
626.992013950623
 21
461.1255353700662
 31
0.0
  0
INSERT
  5
30EC
330
2FFD
100
AcDbEntity
  8
SUNPOU
100
AcDbBlockReference
  2
_OPEN
 10
626.992013950623
 20
448.1255353700661
 30
0.0
 41
7.0
 42
7.0
 43
7.0
 50
90.0
  0
INSERT
  5
30ED
330
2FFD
100
AcDbEntity
  8
SUNPOU
100
AcDbBlockReference
  2
_OPEN
 10
626.992013950623
 20
461.1255353700662
 30
0.0
 41
7.0
 42
7.0
 43
7.0
 50
270.0
  0
MTEXT
  5
30EE
330
2FFD
100
AcDbEntity
  8
SUNPOU
100
AcDbMText
 10
621.9920139506228
 20
454.6255353700662
 30
0.0
 40
6.0
 41
0.0
 71
     5
 72
     1
  1
\A1;13
 11
0.0000000000000001
 21
1.0
 31
0.0
  0
POINT
  5
30EF
330
2FFD
100
AcDbEntity
  8
DEFPOINTS
 62
     0
100
AcDbPoint
 10
646.9877527206643
 20
448.1255353700661
 30
0.0
  0
POINT
  5
30F0
330
2FFD
100
AcDbEntity
  8
DEFPOINTS
 62
     0
100
AcDbPoint
 10
649.4877527206645
 20
461.1255353700661
 30
0.0
  0
POINT
  5
30F1
330
2FFD
100
AcDbEntity
  8
DEFPOINTS
 62
     0
100
AcDbPoint
 10
626.992013950623
 20
461.1255353700662
 30
0.0
  0
ENDBLK
  5
300A
330
2FFD
100
AcDbEntity
  8
0
100
AcDbBlockEnd
  0
BLOCK
  5
3018
330
300C
100
AcDbEntity
  8
0
100
AcDbBlockBegin
  2
*D21
 70
     1
 10
0.0
 20
0.0
 30
0.0
  3
*D21
  1

  0
LINE
  5
30F2
330
300C
100
AcDbEntity
  8
SUNPOU
100
AcDbLine
 10
519.2224574276723
 20
465.1254353700661
 30
0.0
 11
497.4678977678909
 21
465.1254353700661
 31
0.0
  0
LINE
  5
30F3
330
300C
100
AcDbEntity
  8
SUNPOU
100
AcDbLine
 10
519.2224574276723
 20
448.1254353700661
 30
0.0
 11
497.4678977678909
 21
448.1254353700661
 31
0.0
  0
LINE
  5
30F4
330
300C
100
AcDbEntity
  8
SUNPOU
100
AcDbLine
 10
500.4678977678909
 20
472.1254353700661
 30
0.0
 11
500.4678977678909
 21
479.1254353700661
 31
0.0
  0
LINE
  5
30F5
330
300C
100
AcDbEntity
  8
SUNPOU
100
AcDbLine
 10
500.4678977678909
 20
441.1254353700662
 30
0.0
 11
500.4678977678909
 21
434.1254353700661
 31
0.0
  0
LINE
  5
30F6
330
300C
100
AcDbEntity
  8
SUNPOU
100
AcDbLine
 10
500.4678977678909
 20
465.1254353700661
 30
0.0
 11
500.4678977678909
 21
448.1254353700661
 31
0.0
  0
INSERT
  5
30F7
330
300C
100
AcDbEntity
  8
SUNPOU
100
AcDbBlockReference
  2
_OPEN
 10
500.4678977678909
 20
465.1254353700661
 30
0.0
 41
7.0
 42
7.0
 43
7.0
 50
270.0
  0
INSERT
  5
30F8
330
300C
100
AcDbEntity
  8
SUNPOU
100
AcDbBlockReference
  2
_OPEN
 10
500.4678977678909
 20
448.1254353700661
 30
0.0
 41
7.0
 42
7.0
 43
7.0
 50
90.0
  0
MTEXT
  5
30F9
330
300C
100
AcDbEntity
  8
SUNPOU
100
AcDbMText
 10
495.4678977678907
 20
456.6254353700662
 30
0.0
 40
6.0
 41
0.0
 71
     5
 72
     1
  1
\A1;17
 11
0.0000000000000001
 21
1.0
 31
0.0
  0
POINT
  5
30FA
330
300C
100
AcDbEntity
  8
DEFPOINTS
 62
     0
100
AcDbPoint
 10
525.2224574276723
 20
465.1254353700661
 30
0.0
  0
POINT
  5
30FB
330
300C
100
AcDbEntity
  8
DEFPOINTS
 62
     0
100
AcDbPoint
 10
525.2224574276723
 20
448.1254353700661
 30
0.0
  0
POINT
  5
30FC
330
300C
100
AcDbEntity
  8
DEFPOINTS
 62
     0
100
AcDbPoint
 10
500.4678977678909
 20
448.1254353700661
 30
0.0
  0
ENDBLK
  5
3019
330
300C
100
AcDbEntity
  8
0
100
AcDbBlockEnd
  0
ENDSEC
  0
SECTION
  2
ENTITIES
  0
TEXT
  5
6BC
330
1A
100
AcDbEntity
  8
SUNPOU
 62
     4
100
AcDbText
 10
685.2564794301858
 20
34.58002611035293
 30
0.0
 40
6.0
  1
※　のきといの差込み寸法を示す
100
AcDbText
  0
TEXT
  5
9EB
330
1A
100
AcDbEntity
  8
SUNPOU
 62
     4
100
AcDbText
 10
538.5194863742013
 20
383.9985693843834
 30
0.0
 40
8.0
  1
洋風じょうご用ストッパー２個入り
100
AcDbText
  0
LINE
  5
9EC
330
1A
100
AcDbEntity
  8
SEIHIN
  6
CONTINUOUS
 62
     3
 48
5.0
100
AcDbLine
 10
645.4877527206645
 20
465.1255353700661
 30
0.0
 11
653.9166527206646
 21
465.1255353700661
 31
0.0
  0
LINE
  5
9EE
330
1A
100
AcDbEntity
  8
SEIHIN
  6
CONTINUOUS
 62
     3
 48
5.0
100
AcDbLine
 10
646.9877527206643
 20
448.1255353700661
 30
0.0
 11
648.9877527206645
 21
448.1255353700661
 31
0.0
  0
DIMENSION
  5
9F1
330
1A
100
AcDbEntity
  8
SUNPOU
100
AcDbDimension
  2
*D1
 10
654.4166467206645
 20
475.5332353700659
 30
0.0
 11
649.7021997206645
 21
479.533235370066
 31
0.0
 70
    32
  3
STANDARD
100
AcDbAlignedDimension
 13
644.9877527206645
 23
464.6255353700661
 33
0.0
 14
654.4166467206645
 24
464.6255353700661
 34
0.0
100
AcDbRotatedDimension
1001
ACAD
1000
DSTYLE
1002
{
1070
   372
1070
    -1
1070
   371
1070
    -1
1070
    41
1040
3.0
1070
    42
1040
3.0
1070
    43
1040
7.0
1070
    44
1040
1.5
1070
    73
1070
     0
1070
    74
1070
     0
1070
    77
1070
     3
1070
   140
1040
6.0
1070
   141
1040
150.0
1070
   147
1040
1.0
1070
   172
1070
     1
1070
   173
1070
     1
1070
   176
1070
   256
1070
   177
1070
   256
1070
   178
1070
   256
1070
   271
1070
     0
1070
   272
1070
     2
1070
     6
1000
OPEN
1070
     7
1000
OPEN
1002
}
  0
LINE
  5
9F3
330
1A
100
AcDbEntity
  8
CENTER_L
  6
CENTER
 62
     1
 48
5.0
100
AcDbLine
 10
550.7224574276723
 20
431.430406286165
 30
0.0
 11
550.7224574276723
 21
408.4304062861208
 31
0.0
  0
ARC
  5
9F4
330
1A
100
AcDbEntity
  8
SEIHIN
  6
CONTINUOUS
 62
     3
 48
5.0
100
AcDbCircle
 10
576.2225574276722
 20
423.4304562862496
 30
0.0
 40
1.0
100
AcDbArc
 50
0.0
 51
180.0
  0
LINE
  5
9F5
330
1A
100
AcDbEntity
  8
SEIHIN
  6
CONTINUOUS
 62
     3
 48
5.0
100
AcDbLine
 10
577.2225574276723
 20
415.9304562862496
 30
0.0
 11
524.2224574276725
 21
415.9304562862496
 31
0.0
  0
LINE
  5
9F6
330
1A
100
AcDbEntity
  8
SEIHIN
  6
CONTINUOUS
 62
     3
 48
5.0
100
AcDbLine
 10
577.2225574276723
 20
418.4304562862496
 30
0.0
 11
524.2224574276725
 21
418.4304562862496
 31
0.0
  0
LINE
  5
9F7
330
1A
100
AcDbEntity
  8
SEIHIN
  6
CONTINUOUS
 62
     3
 48
5.0
100
AcDbLine
 10
577.2225574276723
 20
420.4304562862496
 30
0.0
 11
524.2224574276725
 21
420.4304562862496
 31
0.0
  0
LINE
  5
9F8
330
1A
100
AcDbEntity
  8
SEIHIN
100
AcDbLine
 10
524.2224574276725
 20
415.4303543254518
 30
0.0
 11
577.2225574276723
 21
415.4304582470127
 31
0.0
  0
LINE
  5
9F9
330
1A
100
AcDbEntity
  8
SEIHIN
  6
CONTINUOUS
 62
     3
 48
5.0
100
AcDbLine
 10
575.2225574276723
 20
422.4304562862496
 30
0.0
 11
526.2224574276723
 21
422.4304562862496
 31
0.0
  0
LINE
  5
9FA
330
1A
100
AcDbEntity
  8
SEIHIN
  6
CONTINUOUS
 62
     3
 48
5.0
100
AcDbLine
 10
526.2224574276723
 20
422.4304562862496
 30
0.0
 11
526.2224574276723
 21
423.4303562862495
 31
0.0
  0
ARC
  5
9FB
330
1A
100
AcDbEntity
  8
SEIHIN
  6
CONTINUOUS
 62
     3
 48
5.0
100
AcDbCircle
 10
525.2224574276723
 20
423.4303562862495
 30
0.0
 40
1.0
100
AcDbArc
 50
0.0
 51
180.0
  0
LINE
  5
9FC
330
1A
100
AcDbEntity
  8
SEIHIN
  6
CONTINUOUS
 62
     3
 48
5.0
100
AcDbLine
 10
524.2224574276725
 20
415.4303543254518
 30
0.0
 11
524.2224574276725
 21
423.4303562862495
 31
0.0
  0
LINE
  5
9FD
330
1A
100
AcDbEntity
  8
SEIHIN
  6
CONTINUOUS
 62
     3
 48
5.0
100
AcDbLine
 10
575.2225574276725
 20
422.4304562862496
 30
0.0
 11
575.2225574276723
 21
423.4304562862496
 31
0.0
  0
LINE
  5
9FE
330
1A
100
AcDbEntity
  8
SEIHIN
  6
CONTINUOUS
 62
     3
 48
5.0
100
AcDbLine
 10
577.2225574276723
 20
415.4304582470127
 30
0.0
 11
577.2225574276723
 21
423.4304562862496
 31
0.0
  0
ARC
  5
A01
330
1A
100
AcDbEntity
  8
SEIHIN
  6
CONTINUOUS
 62
     3
 48
5.0
100
AcDbCircle
 10
576.2225574276722
 20
464.1255353700661
 30
0.0
 40
1.0
100
AcDbArc
 50
0.0
 51
180.0
  0
ARC
  5
A02
330
1A
100
AcDbEntity
  8
SEIHIN
  6
CONTINUOUS
 62
     3
 48
5.0
100
AcDbCircle
 10
576.2225574276722
 20
449.1255353700661
 30
0.0
 40
1.0
100
AcDbArc
 50
180.0
 51
0.0
  0
DIMENSION
  5
A03
330
1A
100
AcDbEntity
  8
SUNPOU
100
AcDbDimension
  2
*D2
 10
596.2780172575512
 20
448.1280766702353
 30
0.0
 11
591.2780172575511
 21
455.6268060201507
 31
0.0
 70
    32
  3
STANDARD
100
AcDbAlignedDimension
 13
575.2225574276723
 23
463.1255353700661
 33
0.0
 14
576.2938044776602
 24
448.1280766702353
 34
0.0
 50
90.0
100
AcDbRotatedDimension
1001
ACAD
1000
DSTYLE
1002
{
1070
    41
1040
7.0
1070
    42
1040
6.0
1070
    43
1040
14.0
1070
    44
1040
3.0
1070
    73
1070
     0
1070
    74
1070
     0
1070
    77
1070
     3
1070
   140
1040
6.0
1070
   141
1040
150.0
1070
   147
1040
2.0
1070
   172
1070
     1
1070
   173
1070
     1
1070
   176
1070
   256
1070
   177
1070
   256
1070
   178
1070
   256
1070
   271
1070
     0
1070
   272
1070
     0
1070
   341
1005
6D
1070
     6
1000
OPEN
1070
     7
1000
OPEN
1070
   371
1070
    -1
1070
   372
1070
    -1
1002
}
  0
LINE
  5
A07
330
1A
100
AcDbEntity
  8
SEIHIN
  6
CONTINUOUS
 62
     3
 48
5.0
100
AcDbLine
 10
550.7224574276723
 20
448.1254353700661
 30
0.0
 11
525.2224574276723
 21
448.1254353700661
 31
0.0
  0
LINE
  5
A08
330
1A
100
AcDbEntity
  8
SEIHIN
  6
CONTINUOUS
 62
     3
 48
5.0
100
AcDbLine
 10
526.2224574276723
 20
463.1254353700661
 30
0.0
 11
550.7224574276723
 21
463.1255353700661
 31
0.0
  0
LINE
  5
A09
330
1A
100
AcDbEntity
  8
SEIHIN
  6
CONTINUOUS
 62
     3
 48
5.0
100
AcDbLine
 10
524.2224574276725
 20
449.1254353700661
 30
0.0
 11
524.2224574276725
 21
464.1254353700661
 31
0.0
  0
LINE
  5
A0A
330
1A
100
AcDbEntity
  8
SEIHIN
  6
CONTINUOUS
 62
     3
 48
5.0
100
AcDbLine
 10
526.2224574276723
 20
449.1254353700661
 30
0.0
 11
526.2224574276723
 21
464.1254353700661
 31
0.0
  0
ARC
  5
A0B
330
1A
100
AcDbEntity
  8
SEIHIN
  6
CONTINUOUS
 62
     3
 48
5.0
100
AcDbCircle
 10
525.2224574276723
 20
449.1254353700661
 30
0.0
 40
1.0
100
AcDbArc
 50
180.0
 51
0.0
  0
ARC
  5
A0C
330
1A
100
AcDbEntity
  8
SEIHIN
  6
CONTINUOUS
 62
     3
 48
5.0
100
AcDbCircle
 10
525.2224574276723
 20
464.1254353700661
 30
0.0
 40
1.0
100
AcDbArc
 50
0.0
 51
180.0
  0
LINE
  5
A0D
330
1A
100
AcDbEntity
  8
CENTER_L
  6
CENTER
 62
     1
 48
5.0
100
AcDbLine
 10
550.7224574276723
 20
467.6063353700661
 30
0.0
 11
550.7224574276723
 21
442.8739353700661
 31
0.0
  0
LINE
  5
A0E
330
1A
100
AcDbEntity
  8
SEIHIN
  6
CONTINUOUS
 62
     3
 48
5.0
100
AcDbLine
 10
550.7225574276723
 20
448.1255353700661
 30
0.0
 11
576.2225574276722
 21
448.1255353700661
 31
0.0
  0
LINE
  5
A0F
330
1A
100
AcDbEntity
  8
SEIHIN
  6
CONTINUOUS
 62
     3
 48
5.0
100
AcDbLine
 10
575.2225574276723
 20
463.1255353700661
 30
0.0
 11
550.7225574276723
 21
463.1255353700661
 31
0.0
  0
LINE
  5
A10
330
1A
100
AcDbEntity
  8
SEIHIN
  6
CONTINUOUS
 62
     3
 48
5.0
100
AcDbLine
 10
575.2225574276723
 20
449.1255353700661
 30
0.0
 11
575.2225574276723
 21
464.1255353700661
 31
0.0
  0
LINE
  5
A15
330
1A
100
AcDbEntity
  8
SEIHIN
  6
CONTINUOUS
 62
     3
 48
5.0
100
AcDbLine
 10
577.2225574276723
 20
449.1255353700661
 30
0.0
 11
577.2225574276723
 21
464.1255353700661
 31
0.0
  0
LINE
  5
A16
330
1A
100
AcDbEntity
  8
SEIHIN
  6
CONTINUOUS
 62
     3
 48
5.0
100
AcDbLine
 10
644.9877527206645
 20
464.6255353700661
 30
0.0
 11
644.9877527206645
 21
450.1255353700661
 31
0.0
  0
ARC
  5
A18
330
1A
100
AcDbEntity
  8
SEIHIN
  6
CONTINUOUS
 62
     3
 48
5.0
100
AcDbCircle
 10
646.9877527206643
 20
450.1255353700661
 30
0.0
 40
2.0
100
AcDbArc
 50
180.0
 51
270.0
  0
ARC
  5
A19
330
1A
100
AcDbEntity
  8
SEIHIN
  6
CONTINUOUS
 62
     3
 48
5.0
100
AcDbCircle
 10
645.4877527206645
 20
464.6255353700661
 30
0.0
 40
0.5
100
AcDbArc
 50
90.0
 51
180.0
  0
LINE
  5
A1C
330
1A
100
AcDbEntity
  8
SEIHIN
  6
CONTINUOUS
 62
     3
 48
5.0
100
AcDbLine
 10
653.4877527206645
 20
457.6255353700661
 30
0.0
 11
654.4122527206646
 21
464.5594353700661
 31
0.0
  0
LINE
  5
A1D
330
1A
100
AcDbEntity
  8
SEIHIN
  6
CONTINUOUS
 62
     3
 48
5.0
100
AcDbLine
 10
650.7159527206645
 20
460.6554353700661
 30
0.0
 11
650.9313527206646
 21
457.0656353700662
 31
0.0
  0
LINE
  5
A1E
330
1A
100
AcDbEntity
  8
SEIHIN
  6
CONTINUOUS
 62
     3
 48
5.0
100
AcDbLine
 10
648.9877527206645
 20
460.6255353700661
 30
0.0
 11
648.9877527206645
 21
448.1255353700661
 31
0.0
  0
LINE
  5
A1F
330
1A
100
AcDbEntity
  8
SEIHIN
  6
CONTINUOUS
 62
     3
 48
5.0
100
AcDbLine
 10
651.9295527206645
 20
456.1255353700661
 30
0.0
 11
653.4877527206645
 21
456.1255353700661
 31
0.0
  0
LINE
  5
A20
330
1A
100
AcDbEntity
  8
SEIHIN
  6
CONTINUOUS
 62
     3
 48
5.0
100
AcDbLine
 10
653.4877527206645
 20
456.1255353700661
 30
0.0
 11
653.4877527206645
 21
457.6255353700661
 31
0.0
  0
ARC
  5
A21
330
1A
100
AcDbEntity
  8
SEIHIN
  6
CONTINUOUS
 62
     3
 48
5.0
100
AcDbCircle
 10
651.9295527206645
 20
457.1255353700661
 30
0.0
 40
0.9999979999999998
100
AcDbArc
 50
183.434088
 51
270.0
  0
ARC
  5
A22
330
1A
100
AcDbEntity
  8
SEIHIN
  6
CONTINUOUS
 62
     3
 48
5.0
100
AcDbCircle
 10
653.9166527206646
 20
464.6255353700661
 30
0.0
 40
0.499994
100
AcDbArc
 50
352.4030849999994
 51
90.0
  0
ARC
  5
A23
330
1A
100
AcDbEntity
  8
SEIHIN
  6
CONTINUOUS
 62
     3
 48
5.0
100
AcDbCircle
 10
649.4877527206645
 20
460.6255353700661
 30
0.0
 40
0.5
100
AcDbArc
 50
90.0
 51
180.0
  0
LINE
  5
A24
330
1A
100
AcDbEntity
  8
SEIHIN
  6
CONTINUOUS
 62
     3
 48
5.0
100
AcDbLine
 10
649.4877527206645
 20
461.1255353700661
 30
0.0
 11
650.2168527206645
 21
461.1255353700661
 31
0.0
  0
ARC
  5
A25
330
1A
100
AcDbEntity
  8
SEIHIN
  6
CONTINUOUS
 62
     3
 48
5.0
100
AcDbCircle
 10
650.2168527206645
 20
460.6255353700661
 30
0.0
 40
0.4999970000000002
100
AcDbArc
 50
3.428369000000773
 51
90.0
  0
DIMENSION
  5
10CF
330
1A
100
AcDbEntity
  8
SUNPOU
100
AcDbDimension
  2
*D4
 10
577.2225574276723
 20
476.0332353700659
 30
0.0
 11
550.7225074276723
 21
481.0332353700661
 31
0.0
 70
    32
  3
STANDARD
100
AcDbAlignedDimension
 13
524.2224574276725
 23
464.1254353700661
 33
0.0
 14
577.2225574276723
 24
464.1255353700661
 34
0.0
100
AcDbRotatedDimension
1001
ACAD
1000
DSTYLE
1002
{
1070
    41
1040
7.0
1070
    42
1040
6.0
1070
    43
1040
14.0
1070
    44
1040
3.0
1070
    73
1070
     0
1070
    74
1070
     0
1070
    77
1070
     3
1070
   140
1040
6.0
1070
   141
1040
150.0
1070
   147
1040
2.0
1070
   172
1070
     1
1070
   173
1070
     1
1070
   176
1070
   256
1070
   177
1070
   256
1070
   178
1070
   256
1070
   271
1070
     0
1070
   272
1070
     0
1070
   341
1005
6D
1070
     6
1000
OPEN
1070
     7
1000
OPEN
1070
   371
1070
    -1
1070
   372
1070
    -1
1002
}
  0
LINE
  5
1340
330
1A
100
AcDbEntity
  8
CENTER_L
  6
CENTER
 62
     1
 48
5.0
100
AcDbLine
 10
584.7699805273276
 20
149.4174654450874
 30
0.0
 11
584.7699805273276
 21
84.60486292791273
 31
0.0
  0
LINE
  5
1341
330
1A
100
AcDbEntity
  8
SEIHIN
  6
CONTINUOUS
 62
     3
100
AcDbLine
 10
496.7699813021881
 20
271.9105088051013
 30
0.0
 11
496.469983674453
 21
270.410513215845
 31
0.0
  0
LINE
  5
1342
330
1A
100
AcDbEntity
  8
SEIHIN
  6
CONTINUOUS
 62
     3
100
AcDbLine
 10
498.9745985228164
 20
270.8789714792434
 30
0.0
 11
501.1573649532544
 21
271.8968121817201
 31
0.0
  0
ARC
  5
1343
330
1A
100
AcDbEntity
  8
SEIHIN
  6
CONTINUOUS
 62
     3
100
AcDbCircle
 10
493.4699805273274
 20
271.0658040804103
 30
0.0
 40
1.499999999999953
100
AcDbArc
 50
78.23171106798074
 51
180.0
  0
LINE
  5
1344
330
1A
100
AcDbEntity
  8
SEIHIN
  6
CONTINUOUS
 62
     3
100
AcDbLine
 10
489.2539538782681
 20
271.662315616491
 30
0.0
 11
489.2612106619179
 21
271.5238479357588
 31
0.0
  0
LWPOLYLINE
  5
1345
330
1A
100
AcDbEntity
  8
SEIHIN
  6
CONTINUOUS
 62
     3
100
AcDbPolyline
 90
        3
 70
   128
 43
0.0
 10
489.2223047389252
 20
270.9092029269389
 10
489.2216639889938
 20
270.9217124517611
 10
489.2539548053009
 20
271.6623150642565
  0
LINE
  5
1346
330
1A
100
AcDbEntity
  8
SEIHIN
  6
CONTINUOUS
 62
     3
100
AcDbLine
 10
375.5198706941086
 20
270.7404641466928
 30
0.0
 11
375.5198706941086
 21
274.9498079716646
 31
0.0
  0
LINE
  5
134B
330
1A
100
AcDbEntity
  8
SEIHIN
  6
CONTINUOUS
 62
     3
100
AcDbLine
 10
145.5198706941088
 20
270.7404641466928
 30
0.0
 11
145.5198706941088
 21
274.9498079716646
 31
0.0
  0
LINE
  5
134D
330
1A
100
AcDbEntity
  8
SEIHIN
  6
CONTINUOUS
 62
     3
100
AcDbLine
 10
355.1903245690305
 20
249.4105104144266
 30
0.0
 11
165.8494168191871
 21
249.4105104144266
 31
0.0
  0
LINE
  5
1350
330
1A
100
AcDbEntity
  8
SEIHIN
  6
CONTINUOUS
 62
     3
100
AcDbLine
 10
348.5595818118531
 20
159.910510470306
 30
0.0
 11
355.1903245690305
 21
159.9105104144266
 31
0.0
  0
LWPOLYLINE
  5
1351
330
1A
100
AcDbEntity
  8
SEIHIN
  6
CONTINUOUS
 62
     3
100
AcDbPolyline
 90
        3
 70
   128
 43
0.0
 10
357.2146307186561
 20
168.8885779019049
 10
341.7517330007035
 20
154.7510714169195
 10
326.3794641451318
 20
140.6964247013978
  0
LWPOLYLINE
  5
1352
330
1A
100
AcDbEntity
  8
SEIHIN
  6
CONTINUOUS
 62
     3
100
AcDbPolyline
 90
        3
 70
   128
 43
0.0
 10
163.8251106695611
 20
168.8885779019049
 10
179.2880083875139
 20
154.7510714169195
 10
194.6602772430856
 20
140.6964247013978
  0
LINE
  5
1353
330
1A
100
AcDbEntity
  8
SEIHIN
  6
CONTINUOUS
 62
     3
100
AcDbLine
 10
288.2198706941088
 20
96.21051041442672
 30
0.0
 11
289.7198706941088
 21
106.2105104144267
 31
0.0
  0
LINE
  5
1354
330
1A
100
AcDbEntity
  8
SEIHIN
  6
CONTINUOUS
 62
     3
100
AcDbLine
 10
231.3198706941086
 20
106.2105104144267
 30
0.0
 11
232.8198706941086
 21
96.21051041442672
 31
0.0
  0
LINE
  5
1355
330
1A
100
AcDbEntity
  8
SEIHIN
  6
CONTINUOUS
 62
     3
100
AcDbLine
 10
288.2198706941088
 20
96.21051041442672
 30
0.0
 11
232.8198706941086
 21
96.21051041442672
 31
0.0
  0
LINE
  5
1356
330
1A
100
AcDbEntity
  8
SEIHIN
  6
CONTINUOUS
 62
     3
100
AcDbLine
 10
294.1198706941087
 20
125.0105104144267
 30
0.0
 11
226.9198706941089
 21
125.0105104144267
 31
0.0
  0
LINE
  5
1357
330
1A
100
AcDbEntity
  8
SEIHIN
  6
CONTINUOUS
 62
     3
100
AcDbLine
 10
226.4198706941089
 20
125.5105104144267
 30
0.0
 11
294.6198706941085
 21
125.5105104144267
 31
0.0
  0
LINE
  5
1358
330
1A
100
AcDbEntity
  8
SEIHIN
  6
CONTINUOUS
 62
     3
100
AcDbLine
 10
289.7198706941088
 20
118.7105104144267
 30
0.0
 11
231.3198706941086
 21
118.7105104144267
 31
0.0
  0
LINE
  5
1359
330
1A
100
AcDbEntity
  8
SEIHIN
  6
CONTINUOUS
 62
     3
100
AcDbLine
 10
292.5198706941086
 20
123.5105104144267
 30
0.0
 11
228.5198706941088
 21
123.5105104144267
 31
0.0
  0
LINE
  5
135A
330
1A
100
AcDbEntity
  8
SEIHIN
  6
CONTINUOUS
 62
     3
100
AcDbLine
 10
294.5198706941086
 20
122.7105104144267
 30
0.0
 11
226.5198706941088
 21
122.7105104144267
 31
0.0
  0
LINE
  5
135B
330
1A
100
AcDbEntity
  8
SEIHIN
  6
CONTINUOUS
 62
     3
100
AcDbLine
 10
291.5198706941087
 20
119.7105104144265
 30
0.0
 11
229.5198706941088
 21
119.7105104144265
 31
0.0
  0
LINE
  5
135C
330
1A
100
AcDbEntity
  8
SEIHIN
  6
CONTINUOUS
 62
     3
100
AcDbLine
 10
231.3198706941086
 20
106.2105104144267
 30
0.0
 11
289.7198706941088
 21
106.2105104144267
 31
0.0
  0
LINE
  5
135D
330
1A
100
AcDbEntity
  8
SEIHIN
  6
CONTINUOUS
 62
     3
100
AcDbLine
 10
324.3551560560912
 20
139.9105104144265
 30
0.0
 11
196.684585332126
 21
139.9105104144265
 31
0.0
  0
ARC
  5
135E
330
1A
100
AcDbEntity
  8
SEIHIN
  6
CONTINUOUS
 62
     3
100
AcDbCircle
 10
226.9198706941088
 20
125.5105104144267
 30
0.0
 40
0.5
100
AcDbArc
 50
180.0
 51
270.0
  0
LINE
  5
135F
330
1A
100
AcDbEntity
  8
SEIHIN
  6
CONTINUOUS
 62
     3
100
AcDbLine
 10
231.3198706941086
 20
118.7105104144267
 30
0.0
 11
231.3198706941086
 21
106.2105104144267
 31
0.0
  0
ARC
  5
1360
330
1A
100
AcDbEntity
  8
SEIHIN
  6
CONTINUOUS
 62
     3
100
AcDbCircle
 10
230.3198706941087
 20
118.7105104144267
 30
0.0
 40
1.0
100
AcDbArc
 50
0.0
 51
90.0
  0
LINE
  5
1361
330
1A
100
AcDbEntity
  8
SEIHIN
  6
CONTINUOUS
 62
     3
100
AcDbLine
 10
228.5198706941088
 20
123.5105104144267
 30
0.0
 11
228.5198691741903
 21
122.7105089362314
 31
0.0
  0
ARC
  5
1362
330
1A
100
AcDbEntity
  8
SEIHIN
  6
CONTINUOUS
 62
     3
100
AcDbCircle
 10
229.5198706941088
 20
122.7105104144267
 30
0.0
 40
3.000000000000023
100
AcDbArc
 50
180.0
 51
270.0
  0
ARC
  5
1363
330
1A
100
AcDbEntity
  8
SEIHIN
  6
CONTINUOUS
 62
     3
100
AcDbCircle
 10
227.0198706941088
 20
123.5105104144267
 30
0.0
 40
1.5
100
AcDbArc
 50
0.0
 51
90.0
  0
ARC
  5
1364
330
1A
100
AcDbEntity
  8
SEIHIN
  6
CONTINUOUS
 62
     3
100
AcDbCircle
 10
196.684585332126
 20
142.9105104144266
 30
0.0
 40
3.000000000000068
100
AcDbArc
 50
227.5637702114658
 51
270.0
  0
ARC
  5
1365
330
1A
100
AcDbEntity
  8
SEIHIN
  6
CONTINUOUS
 62
     3
100
AcDbCircle
 10
224.9198706941088
 20
138.4105104144267
 30
0.0
 40
1.5
100
AcDbArc
 50
0.0
 51
90.0
  0
LINE
  5
1366
330
1A
100
AcDbEntity
  8
SEIHIN
  6
CONTINUOUS
 62
     3
100
AcDbLine
 10
226.4198706941089
 20
138.4105104144267
 30
0.0
 11
226.4198706941089
 21
125.5105104144267
 31
0.0
  0
ARC
  5
1367
330
1A
100
AcDbEntity
  8
SEIHIN
  6
CONTINUOUS
 62
     3
100
AcDbCircle
 10
294.1198706941087
 20
125.5105104144267
 30
0.0
 40
0.5
100
AcDbArc
 50
270.0
 51
0.0
  0
LINE
  5
1368
330
1A
100
AcDbEntity
  8
SEIHIN
  6
CONTINUOUS
 62
     3
100
AcDbLine
 10
289.7198706941088
 20
106.2105104144267
 30
0.0
 11
289.7198706941088
 21
118.7105104144267
 31
0.0
  0
LINE
  5
1369
330
1A
100
AcDbEntity
  8
SEIHIN
  6
CONTINUOUS
 62
     3
100
AcDbLine
 10
292.5198722140271
 20
122.7105089362314
 30
0.0
 11
292.5198706941086
 21
123.5105104144267
 31
0.0
  0
ARC
  5
136A
330
1A
100
AcDbEntity
  8
SEIHIN
  6
CONTINUOUS
 62
     3
100
AcDbCircle
 10
291.5198706941087
 20
122.7105104144267
 30
0.0
 40
3.000000000000023
100
AcDbArc
 50
270.0
 51
0.0
  0
ARC
  5
136B
330
1A
100
AcDbEntity
  8
SEIHIN
  6
CONTINUOUS
 62
     3
100
AcDbCircle
 10
294.0198706941087
 20
123.5105104144267
 30
0.0
 40
1.5
100
AcDbArc
 50
90.0
 51
180.0
  0
ARC
  5
136C
330
1A
100
AcDbEntity
  8
SEIHIN
  6
CONTINUOUS
 62
     3
100
AcDbCircle
 10
290.7198706941088
 20
118.7105104144267
 30
0.0
 40
1.000000000000021
100
AcDbArc
 50
90.0
 51
180.0
  0
ARC
  5
136D
330
1A
100
AcDbEntity
  8
SEIHIN
  6
CONTINUOUS
 62
     3
100
AcDbCircle
 10
296.1198706941087
 20
138.4105104144267
 30
0.0
 40
1.5
100
AcDbArc
 50
90.0
 51
180.0
  0
LINE
  5
136E
330
1A
100
AcDbEntity
  8
SEIHIN
  6
CONTINUOUS
 62
     3
100
AcDbLine
 10
294.6198706941085
 20
125.5105104144267
 30
0.0
 11
294.6198706941087
 21
138.4105104144267
 31
0.0
  0
ARC
  5
136F
330
1A
100
AcDbEntity
  8
SEIHIN
  6
CONTINUOUS
 62
     3
100
AcDbCircle
 10
324.3551560560915
 20
142.9105104144266
 30
0.0
 40
3.000000000000068
100
AcDbArc
 50
270.0
 51
312.4362297885342
  0
LINE
  5
1370
330
1A
100
AcDbEntity
  8
SEIHIN
  6
CONTINUOUS
 62
     3
100
AcDbLine
 10
145.5198706941088
 20
173.3646253570116
 30
0.0
 11
145.5198706941088
 21
244.8938160020624
 31
0.0
  0
LINE
  5
1371
330
1A
100
AcDbEntity
  8
SEIHIN
  6
CONTINUOUS
 62
     3
100
AcDbLine
 10
160.7840022705885
 20
171.669018687359
 30
0.0
 11
163.8251092205521
 21
168.8885780473923
 31
0.0
  0
LINE
  5
1372
330
1A
100
AcDbEntity
  8
SEIHIN
  6
CONTINUOUS
 62
     3
100
AcDbLine
 10
145.5198686079461
 20
162.618666699652
 30
0.0
 11
145.5198686079461
 21
172.0419849168112
 31
0.0
  0
ARC
  5
1373
330
1A
100
AcDbEntity
  8
SEIHIN
  6
CONTINUOUS
 62
     3
100
AcDbCircle
 10
165.8494168191871
 20
359.9105104144266
 30
0.0
 40
200.0
100
AcDbArc
 50
266.9471174852074
 51
270.0
  0
LINE
  5
1374
330
1A
100
AcDbEntity
  8
SEIHIN
  6
CONTINUOUS
 62
     3
100
AcDbLine
 10
145.5198686079461
 20
162.618666699652
 30
0.0
 11
145.5198706941088
 21
161.28275593821
 31
0.0
  0
LINE
  5
1375
330
1A
100
AcDbEntity
  8
SEIHIN
  6
CONTINUOUS
 62
     3
100
AcDbLine
 10
145.5198706941088
 20
160.7105104144266
 30
0.0
 11
155.1978882359584
 21
160.1943494788613
 31
0.0
  0
LINE
  5
1376
330
1A
100
AcDbEntity
  8
SEIHIN
  6
CONTINUOUS
 62
     3
100
AcDbLine
 10
145.5198706941088
 20
160.7105104144266
 30
0.0
 11
145.5198706941088
 21
161.28275593821
 31
0.0
  0
LINE
  5
1377
330
1A
100
AcDbEntity
  8
SEIHIN
  6
CONTINUOUS
 62
     3
100
AcDbLine
 10
165.8494168191871
 20
159.9105104144266
 30
0.0
 11
172.4801595763643
 21
159.910510470306
 31
0.0
  0
ARC
  5
1378
330
1A
100
AcDbEntity
  8
SEIHIN
  6
CONTINUOUS
 62
     3
100
AcDbCircle
 10
172.4801560560912
 20
156.9105104144268
 30
0.0
 40
2.999999999999981
100
AcDbArc
 50
47.56377021146528
 51
91.56628337462247
  0
LINE
  5
1379
330
1A
100
AcDbEntity
  8
SEIHIN
  6
CONTINUOUS
 62
     3
100
AcDbLine
 10
155.1978882359588
 20
172.1943494788613
 30
0.0
 11
160.1624907139598
 21
171.9295706800346
 31
0.0
  0
LINE
  5
137A
330
1A
100
AcDbEntity
  8
SEIHIN
  6
CONTINUOUS
 62
     3
100
AcDbLine
 10
145.5198686079461
 20
172.710510612612
 30
0.0
 11
155.1978882359588
 21
172.1943494788613
 31
0.0
  0
LINE
  5
137B
330
1A
100
AcDbEntity
  8
SEIHIN
  6
CONTINUOUS
 62
     3
100
AcDbLine
 10
145.5198686079461
 20
172.710510612612
 30
0.0
 11
145.5198686079461
 21
172.0419849168112
 31
0.0
  0
LINE
  5
137C
330
1A
100
AcDbEntity
  8
SEIHIN
  6
CONTINUOUS
 62
     3
100
AcDbLine
 10
145.5198706941088
 20
173.3646253570116
 30
0.0
 11
145.5198686079461
 21
172.710510612612
 31
0.0
  0
ARC
  5
137D
330
1A
100
AcDbEntity
  8
SEIHIN
  6
CONTINUOUS
 62
     3
100
AcDbCircle
 10
160.1092330710437
 20
170.9309898753567
 30
0.0
 40
0.9999999999999907
100
AcDbArc
 50
47.56377021146528
 51
86.94711748520758
  0
LINE
  5
137E
330
1A
100
AcDbEntity
  8
SEIHIN
  6
CONTINUOUS
 62
     3
100
AcDbLine
 10
145.5198686079461
 20
250.2105140026262
 30
0.0
 11
145.5198686079461
 21
266.3402014311007
 31
0.0
  0
LWPOLYLINE
  5
1380
330
1A
100
AcDbEntity
  8
SEIHIN
  6
CONTINUOUS
 62
     3
100
AcDbPolyline
 90
        4
 70
   128
 43
0.0
 10
155.1978896812876
 20
249.6943526800325
 10
158.746534164377
 20
249.5366760428598
 10
162.2974138216456
 20
249.4420536692789
 10
165.8494185165841
 20
249.4105079110315
  0
LINE
  5
1381
330
1A
100
AcDbEntity
  8
SEIHIN
  6
CONTINUOUS
 62
     3
100
AcDbLine
 10
145.5198686079461
 20
250.2105140026262
 30
0.0
 11
145.5198686079461
 21
249.2641934092691
 31
0.0
  0
LINE
  5
1382
330
1A
100
AcDbEntity
  8
SEIHIN
  6
CONTINUOUS
 62
     3
100
AcDbLine
 10
155.1978882359571
 20
249.6943494788613
 30
0.0
 11
145.5198686079461
 21
250.2105140026262
 31
0.0
  0
LINE
  5
1384
330
1A
100
AcDbEntity
  8
SEIHIN
  6
CONTINUOUS
 62
     3
100
AcDbLine
 10
145.5198706941088
 20
244.8938160020624
 30
0.0
 11
145.5198686079461
 21
249.2641934092691
 31
0.0
  0
LINE
  5
1389
330
1A
100
AcDbEntity
  8
SEIHIN
  6
CONTINUOUS
 62
     3
100
AcDbLine
 10
145.5198686079461
 20
266.3402014311007
 30
0.0
 11
145.5198706941088
 21
270.7404641466928
 31
0.0
  0
ARC
  5
138A
330
1A
100
AcDbEntity
  8
SEIHIN
  6
CONTINUOUS
 62
     3
100
AcDbCircle
 10
348.5595853321264
 20
156.9105104144268
 30
0.0
 40
2.999999999999996
100
AcDbArc
 50
88.89779352867643
 51
132.4362297885346
  0
LINE
  5
138B
330
1A
100
AcDbEntity
  8
SEIHIN
  6
CONTINUOUS
 62
     3
100
AcDbLine
 10
625.5963547087625
 20
162.3346495446663
 30
0.0
 11
625.41796363619
 21
141.8930573434299
 31
0.0
  0
LWPOLYLINE
  5
138C
330
1A
100
AcDbEntity
  8
SEIHIN
  6
CONTINUOUS
 62
     3
100
AcDbPolyline
 90
        3
 70
   128
 43
0.0
 10
542.6964590622645
 20
141.7819575305631
 10
537.0968895329696
 20
155.8787908304086
 10
531.7112485243541
 20
170.0587311658611
  0
LINE
  5
138D
330
1A
100
AcDbEntity
  8
SEIHIN
  6
CONTINUOUS
 62
     3
100
AcDbLine
 10
618.3699805273277
 20
125.0105104144267
 30
0.0
 11
551.1699805273279
 21
125.0105104144265
 31
0.0
  0
LINE
  5
138E
330
1A
100
AcDbEntity
  8
SEIHIN
  6
CONTINUOUS
 62
     3
100
AcDbLine
 10
550.6699805273277
 20
125.5105104144266
 30
0.0
 11
618.8699805273277
 21
125.5105104144267
 31
0.0
  0
LINE
  5
138F
330
1A
100
AcDbEntity
  8
SEIHIN
  6
CONTINUOUS
 62
     3
100
AcDbLine
 10
623.0975360175336
 20
139.9105104144265
 30
0.0
 11
545.4760951866013
 21
139.9105104144265
 31
0.0
  0
LINE
  5
1390
330
1A
100
AcDbEntity
  8
SEIHIN
  6
CONTINUOUS
 62
     3
100
AcDbLine
 10
612.4699805273277
 20
96.21051041442672
 30
0.0
 11
557.0699805273276
 21
96.21051041442669
 31
0.0
  0
LINE
  5
1391
330
1A
100
AcDbEntity
  8
SEIHIN
  6
CONTINUOUS
 62
     3
100
AcDbLine
 10
555.5699805273276
 20
106.2105104144265
 30
0.0
 11
613.9699805273277
 21
106.2105104144265
 31
0.0
  0
LINE
  5
1392
330
1A
100
AcDbEntity
  8
SEIHIN
  6
CONTINUOUS
 62
     3
100
AcDbLine
 10
613.9699805273277
 20
118.7105104144267
 30
0.0
 11
555.5699805273276
 21
118.7105104144267
 31
0.0
  0
LINE
  5
1393
330
1A
100
AcDbEntity
  8
SEIHIN
  6
CONTINUOUS
 62
     3
100
AcDbLine
 10
616.7699805273277
 20
123.5105104144267
 30
0.0
 11
552.7699805273278
 21
123.5105104144265
 31
0.0
  0
LINE
  5
1394
330
1A
100
AcDbEntity
  8
SEIHIN
  6
CONTINUOUS
 62
     3
100
AcDbLine
 10
618.7699805273276
 20
122.7105104144267
 30
0.0
 11
550.7699805273277
 21
122.7105104144265
 31
0.0
  0
LINE
  5
1395
330
1A
100
AcDbEntity
  8
SEIHIN
  6
CONTINUOUS
 62
     3
100
AcDbLine
 10
615.7699805273276
 20
119.7105104144267
 30
0.0
 11
553.769980544123
 21
119.7105104144265
 31
0.0
  0
LINE
  5
1396
330
1A
100
AcDbEntity
  8
SEIHIN
  6
CONTINUOUS
 62
     3
100
AcDbLine
 10
555.5699805273276
 20
106.2105104144265
 30
0.0
 11
557.0699805273276
 21
96.21051041442669
 31
0.0
  0
ARC
  5
1397
330
1A
100
AcDbEntity
  8
SEIHIN
  6
CONTINUOUS
 62
     3
100
AcDbCircle
 10
551.1699805273279
 20
125.5105104144266
 30
0.0
 40
0.5
100
AcDbArc
 50
180.0
 51
270.0
  0
LINE
  5
1398
330
1A
100
AcDbEntity
  8
SEIHIN
  6
CONTINUOUS
 62
     3
100
AcDbLine
 10
555.5699805273276
 20
118.7105104144267
 30
0.0
 11
555.5699805273276
 21
106.2105104144265
 31
0.0
  0
LINE
  5
1399
330
1A
100
AcDbEntity
  8
SEIHIN
  6
CONTINUOUS
 62
     3
100
AcDbLine
 10
552.7699805273278
 20
123.5105104144265
 30
0.0
 11
552.7699811680776
 21
122.7105089362314
 31
0.0
  0
ARC
  5
139A
330
1A
100
AcDbEntity
  8
SEIHIN
  6
CONTINUOUS
 62
     3
100
AcDbCircle
 10
553.7699805273278
 20
122.7105104144265
 30
0.0
 40
3.0
100
AcDbArc
 50
180.0
 51
270.0
  0
ARC
  5
139B
330
1A
100
AcDbEntity
  8
SEIHIN
  6
CONTINUOUS
 62
     3
100
AcDbCircle
 10
551.2699805273276
 20
123.5105104144265
 30
0.0
 40
1.5
100
AcDbArc
 50
0.0
 51
90.0
  0
ARC
  5
139C
330
1A
100
AcDbEntity
  8
SEIHIN
  6
CONTINUOUS
 62
     3
100
AcDbCircle
 10
554.5699805273276
 20
118.7105104144267
 30
0.0
 40
1.0
100
AcDbArc
 50
0.0
 51
90.0
  0
ARC
  5
139D
330
1A
100
AcDbEntity
  8
SEIHIN
  6
CONTINUOUS
 62
     3
100
AcDbCircle
 10
545.4760951866013
 20
142.9105104144265
 30
0.0
 40
2.999999999999953
100
AcDbArc
 50
202.097513422238
 51
270.0
  0
ARC
  5
139E
330
1A
100
AcDbEntity
  8
SEIHIN
  6
CONTINUOUS
 62
     3
100
AcDbCircle
 10
549.1699805273277
 20
138.4105104144266
 30
0.0
 40
1.500000000000045
100
AcDbArc
 50
0.0
 51
90.0
  0
LINE
  5
139F
330
1A
100
AcDbEntity
  8
SEIHIN
  6
CONTINUOUS
 62
     3
100
AcDbLine
 10
550.6699805273277
 20
138.4105104144266
 30
0.0
 11
550.6699805273277
 21
125.5105104144266
 31
0.0
  0
LINE
  5
13A0
330
1A
100
AcDbEntity
  8
SEIHIN
  6
CONTINUOUS
 62
     3
100
AcDbLine
 10
612.4699805273277
 20
96.21051041442672
 30
0.0
 11
613.9699805273277
 21
106.2105104144265
 31
0.0
  0
ARC
  5
13A1
330
1A
100
AcDbEntity
  8
SEIHIN
  6
CONTINUOUS
 62
     3
100
AcDbCircle
 10
618.3699805273277
 20
125.5105104144267
 30
0.0
 40
0.5
100
AcDbArc
 50
270.0
 51
0.0
  0
LINE
  5
13A2
330
1A
100
AcDbEntity
  8
SEIHIN
  6
CONTINUOUS
 62
     3
100
AcDbLine
 10
613.9699805273277
 20
106.2105104144265
 30
0.0
 11
613.9699805273277
 21
118.7105104144267
 31
0.0
  0
ARC
  5
13A3
330
1A
100
AcDbEntity
  8
SEIHIN
  6
CONTINUOUS
 62
     3
100
AcDbCircle
 10
615.7699805273276
 20
122.7105104144267
 30
0.0
 40
3.0
100
AcDbArc
 50
270.0
 51
0.0
  0
LINE
  5
13A4
330
1A
100
AcDbEntity
  8
SEIHIN
  6
CONTINUOUS
 62
     3
100
AcDbLine
 10
616.7699823452693
 20
122.7105089362314
 30
0.0
 11
616.7699805273277
 21
123.5105104144267
 31
0.0
  0
ARC
  5
13A5
330
1A
100
AcDbEntity
  8
SEIHIN
  6
CONTINUOUS
 62
     3
100
AcDbCircle
 10
614.9699805273277
 20
118.7105104144267
 30
0.0
 40
1.0
100
AcDbArc
 50
90.0
 51
180.0
  0
ARC
  5
13A6
330
1A
100
AcDbEntity
  8
SEIHIN
  6
CONTINUOUS
 62
     3
100
AcDbCircle
 10
618.2699805273276
 20
123.5105104144267
 30
0.0
 40
1.5
100
AcDbArc
 50
90.0
 51
180.0
  0
ARC
  5
13A7
330
1A
100
AcDbEntity
  8
SEIHIN
  6
CONTINUOUS
 62
     3
100
AcDbCircle
 10
620.3699805273276
 20
138.4105104144266
 30
0.0
 40
1.5
100
AcDbArc
 50
90.0
 51
180.0
  0
ARC
  5
13A8
330
1A
100
AcDbEntity
  8
SEIHIN
  6
CONTINUOUS
 62
     3
100
AcDbCircle
 10
623.4180397900616
 20
141.9105104144265
 30
0.0
 40
2.0
100
AcDbArc
 50
270.0
 51
359.4999999999628
  0
LINE
  5
13A9
330
1A
100
AcDbEntity
  8
SEIHIN
  6
CONTINUOUS
 62
     3
100
AcDbLine
 10
618.8699805273277
 20
125.5105104144267
 30
0.0
 11
618.8699805273277
 21
138.4105104144266
 31
0.0
  0
LINE
  5
13AA
330
1A
100
AcDbEntity
  8
SEIHIN
  6
CONTINUOUS
 62
     3
100
AcDbLine
 10
623.4180397900616
 20
139.9105104144265
 30
0.0
 11
623.0975360175336
 21
139.9105104144265
 31
0.0
  0
ARC
  5
13AB
330
1A
100
AcDbEntity
  8
SEIHIN
  6
CONTINUOUS
 62
     3
100
AcDbCircle
 10
577.2699805273276
 20
1162.410510414426
 30
0.0
 40
1000.0
100
AcDbArc
 50
268.1104374229111
 51
271.8722183374771
  0
ARC
  5
13AC
330
1A
100
AcDbEntity
  8
SEIHIN
  6
CONTINUOUS
 62
     3
100
AcDbCircle
 10
577.2699805273276
 20
1162.410510414426
 30
0.0
 40
1002.499999999999
100
AcDbArc
 50
268.0319788418243
 51
271.9230515139867
  0
ARC
  5
13AD
330
1A
100
AcDbEntity
  8
SEIHIN
  6
CONTINUOUS
 62
     3
100
AcDbCircle
 10
1471.557780452136
 20
518.9064707860052
 30
0.0
 40
1002.5
100
AcDbArc
 50
195.870320617486
 51
200.3636778172839
  0
ARC
  5
13AE
330
1A
100
AcDbEntity
  8
SEIHIN
  6
CONTINUOUS
 62
     3
100
AcDbCircle
 10
1471.557780452136
 20
518.9064707860052
 30
0.0
 40
1000.0
100
AcDbArc
 50
195.8902741136754
 51
200.1310183832333
  0
LINE
  5
13AF
330
1A
100
AcDbEntity
  8
SEIHIN
  6
CONTINUOUS
 62
     3
100
AcDbLine
 10
375.5198706941086
 20
173.3646253570116
 30
0.0
 11
375.5198706941086
 21
244.8938160020624
 31
0.0
  0
LINE
  5
13B0
330
1A
100
AcDbEntity
  8
SEIHIN
  6
CONTINUOUS
 62
     3
100
AcDbLine
 10
375.5198727802712
 20
162.618666699652
 30
0.0
 11
375.5198727802712
 21
172.0419849168112
 31
0.0
  0
LINE
  5
13B1
330
1A
100
AcDbEntity
  8
SEIHIN
  6
CONTINUOUS
 62
     3
100
AcDbLine
 10
360.2557391176291
 20
171.669018687359
 30
0.0
 11
357.2146321676654
 21
168.8885780473923
 31
0.0
  0
LINE
  5
13B2
330
1A
100
AcDbEntity
  8
SEIHIN
  6
CONTINUOUS
 62
     3
100
AcDbLine
 10
365.8418531522593
 20
160.1943494788613
 30
0.0
 11
375.5198706941086
 21
160.7105104144266
 31
0.0
  0
ARC
  5
13B3
330
1A
100
AcDbEntity
  8
SEIHIN
  6
CONTINUOUS
 62
     3
100
AcDbCircle
 10
355.1903245690305
 20
359.9105104144266
 30
0.0
 40
200.0
100
AcDbArc
 50
270.0
 51
273.0528825147924
  0
LINE
  5
13B4
330
1A
100
AcDbEntity
  8
SEIHIN
  6
CONTINUOUS
 62
     3
100
AcDbLine
 10
375.5198727802712
 20
162.618666699652
 30
0.0
 11
375.5198706941086
 21
161.28275593821
 31
0.0
  0
LINE
  5
13B5
330
1A
100
AcDbEntity
  8
SEIHIN
  6
CONTINUOUS
 62
     3
100
AcDbLine
 10
375.5198706941086
 20
160.7105104144266
 30
0.0
 11
375.5198706941086
 21
161.28275593821
 31
0.0
  0
LINE
  5
13B6
330
1A
100
AcDbEntity
  8
SEIHIN
  6
CONTINUOUS
 62
     3
100
AcDbLine
 10
375.5198727802712
 20
172.710510612612
 30
0.0
 11
365.8418531522588
 21
172.1943494788613
 31
0.0
  0
LINE
  5
13B7
330
1A
100
AcDbEntity
  8
SEIHIN
  6
CONTINUOUS
 62
     3
100
AcDbLine
 10
365.8418531522588
 20
172.1943494788613
 30
0.0
 11
360.8772506742576
 21
171.9295706800346
 31
0.0
  0
ARC
  5
13B8
330
1A
100
AcDbEntity
  8
SEIHIN
  6
CONTINUOUS
 62
     3
100
AcDbCircle
 10
360.9305083171738
 20
170.9309898753567
 30
0.0
 40
0.9999999999999907
100
AcDbArc
 50
93.05288251479245
 51
132.436229788534
  0
LINE
  5
13B9
330
1A
100
AcDbEntity
  8
SEIHIN
  6
CONTINUOUS
 62
     3
100
AcDbLine
 10
375.5198727802712
 20
172.710510612612
 30
0.0
 11
375.5198727802712
 21
172.0419849168112
 31
0.0
  0
LINE
  5
13BA
330
1A
100
AcDbEntity
  8
SEIHIN
  6
CONTINUOUS
 62
     3
100
AcDbLine
 10
375.5198706941086
 20
173.3646253570116
 30
0.0
 11
375.5198727802712
 21
172.710510612612
 31
0.0
  0
ARC
  5
13BB
330
1A
100
AcDbEntity
  8
SEIHIN
  6
CONTINUOUS
 62
     3
100
AcDbCircle
 10
544.346329596211
 20
164.453455622305
 30
0.0
 40
1.500000000000256
100
AcDbArc
 50
199.3005854308049
 51
268.1104374229111
  0
LINE
  5
13BC
330
1A
100
AcDbEntity
  8
SEIHIN
  6
CONTINUOUS
 62
     3
100
AcDbLine
 10
542.9306332345527
 20
163.957669568056
 30
0.0
 11
539.6216627688517
 21
173.4062964686754
 31
0.0
  0
LWPOLYLINE
  5
13BD
330
1A
100
AcDbEntity
  8
SEIHIN
  6
CONTINUOUS
 62
     3
100
AcDbPolyline
 90
        3
 70
   128
 43
0.0
 10
537.8271023108226
 20
171.3228492896608
 10
538.8424935116034
 20
168.1564424085966
 10
539.9206148757201
 20
164.9889093257091
  0
LINE
  5
13BE
330
1A
100
AcDbEntity
  8
SEIHIN
  6
CONTINUOUS
 62
     3
100
AcDbLine
 10
541.0235193147208
 20
161.8396072437391
 30
0.0
 11
539.9206132952472
 21
164.9889092977985
 31
0.0
  0
ARC
  5
13BF
330
1A
100
AcDbEntity
  8
SEIHIN
  6
CONTINUOUS
 62
     3
100
AcDbCircle
 10
542.9111144635984
 20
162.500655316071
 30
0.0
 40
2.000000000000071
100
AcDbArc
 50
199.3005854307835
 51
268.0319788418243
  0
ARC
  5
13C0
330
1A
100
AcDbEntity
  8
SEIHIN
  6
CONTINUOUS
 62
     3
100
AcDbCircle
 10
533.1191680495808
 20
174.9105104144266
 30
0.0
 40
0.5
100
AcDbArc
 50
200.1310183832363
 51
270.0
  0
LWPOLYLINE
  5
13C1
330
1A
100
AcDbEntity
  8
SEIHIN
  6
CONTINUOUS
 62
     3
100
AcDbPolyline
 90
        4
 70
   128
 43
0.0
 10
531.7958163394195
 20
171.8936941485456
 10
531.8798812402945
 20
171.897568450456
 10
532.6470302714568
 20
171.9213767807535
 10
533.5214266850215
 20
171.9295705567648
  0
LWPOLYLINE
  5
13C2
330
1A
100
AcDbEntity
  8
SEIHIN
  6
CONTINUOUS
 62
     3
100
AcDbPolyline
 90
        4
 70
   128
 43
0.0
 10
531.3545892311793
 20
171.0294538076571
 10
531.3516201748115
 20
171.0377090509585
 10
530.9257002844077
 20
172.2813953544549
 10
530.8576951100093
 20
172.5468651290587
  0
LWPOLYLINE
  5
13C3
330
1A
100
AcDbEntity
  8
SEIHIN
  6
CONTINUOUS
 62
     3
100
AcDbPolyline
 90
        9
 70
   128
 43
0.0
 10
531.7958163394195
 20
171.8936941485456
 10
531.6442529036265
 20
171.9052872519544
 10
531.4961912407142
 20
171.9396847199253
 10
531.3550511671763
 20
171.9960930656245
 10
531.2240997626048
 20
172.0732093687704
 10
531.1063545121413
 20
172.1692501466324
 10
531.0045423282844
 20
172.2819979201605
 10
530.9210101439219
 20
172.408846848791
 10
530.8576951100093
 20
172.5468651290587
  0
LINE
  5
13C4
330
1A
100
AcDbEntity
  8
SEIHIN
  6
CONTINUOUS
 62
     3
100
AcDbLine
 10
531.7112480254702
 20
170.0587310977985
 30
0.0
 11
531.3545892311793
 21
171.0294538076571
 31
0.0
  0
ARC
  5
13C5
330
1A
100
AcDbEntity
  8
SEIHIN
  6
CONTINUOUS
 62
     3
100
AcDbCircle
 10
538.2059664071937
 20
172.9105104144266
 30
0.0
 40
1.5
100
AcDbArc
 50
19.30058543078055
 51
90.0
  0
LWPOLYLINE
  5
13C6
330
1A
100
AcDbEntity
  8
SEIHIN
  6
CONTINUOUS
 62
     3
100
AcDbPolyline
 90
        9
 70
   128
 43
0.0
 10
537.8271023108226
 20
171.3228492896608
 10
537.7650277985793
 20
171.4635684053949
 10
537.6820730342132
 20
171.5931256200721
 10
537.5802012457114
 20
171.7084503631643
 10
537.4618338717681
 20
171.8068110655596
 10
537.329764880107
 20
171.8858756955317
 10
537.1871346904498
 20
171.9437704320601
 10
537.0373146905166
 20
171.9791252996376
 10
536.883858807252
 20
171.9911011766245
  0
LWPOLYLINE
  5
13C7
330
1A
100
AcDbEntity
  8
SEIHIN
  6
CONTINUOUS
 62
     3
100
AcDbPolyline
 90
        6
 70
   128
 43
0.0
 10
536.0869745089274
 20
171.9295705567648
 10
536.2994650675517
 20
171.9315095703653
 10
536.4904271735412
 20
171.9372465174248
 10
536.6706641687613
 20
171.9480954940966
 10
536.809967674182
 20
171.9645370628288
 10
536.883858807252
 20
171.9911011766245
  0
LINE
  5
13C8
330
1A
100
AcDbEntity
  8
SEIHIN
  6
CONTINUOUS
 62
     3
100
AcDbLine
 10
533.5214258635041
 20
171.9295706800346
 30
0.0
 11
536.0869755024305
 21
171.9295706800346
 31
0.0
  0
LINE
  5
13C9
330
1A
100
AcDbEntity
  8
SEIHIN
  6
CONTINUOUS
 62
     3
100
AcDbLine
 10
538.2059664071937
 20
174.4105104144266
 30
0.0
 11
533.1191680495808
 21
174.4105104144266
 31
0.0
  0
LINE
  5
13CA
330
1A
100
AcDbEntity
  8
SEIHIN
  6
CONTINUOUS
 62
     3
100
AcDbLine
 10
506.0773884804403
 20
249.4105104144266
 30
0.0
 11
495.3758659137947
 21
249.4105079110315
 31
0.0
  0
LINE
  5
13CB
330
1A
100
AcDbEntity
  8
SEIHIN
  6
CONTINUOUS
 62
     3
100
AcDbLine
 10
508.7699805273278
 20
252.4105104144267
 30
0.0
 11
497.3240145911744
 21
252.4105104144267
 31
0.0
  0
LINE
  5
13CC
330
1A
100
AcDbEntity
  8
SEIHIN
  6
CONTINUOUS
 62
     3
100
AcDbLine
 10
375.5198727802712
 20
250.2105140026262
 30
0.0
 11
375.5198727802712
 21
266.3402014311007
 31
0.0
  0
LINE
  5
13CE
330
1A
100
AcDbEntity
  8
SEIHIN
  6
CONTINUOUS
 62
     3
100
AcDbLine
 10
365.8418531522603
 20
249.6943494788613
 30
0.0
 11
375.5198727802712
 21
250.2105140026262
 31
0.0
  0
LWPOLYLINE
  5
13D0
330
1A
100
AcDbEntity
  8
SEIHIN
  6
CONTINUOUS
 62
     3
100
AcDbPolyline
 90
        4
 70
   128
 43
0.0
 10
365.8418517069298
 20
249.6943526800325
 10
362.2932072238404
 20
249.5366760428598
 10
358.7423275665718
 20
249.4420536692789
 10
355.1903228716332
 20
249.4105079110315
  0
LINE
  5
13D1
330
1A
100
AcDbEntity
  8
SEIHIN
  6
CONTINUOUS
 62
     3
100
AcDbLine
 10
375.5198727802712
 20
250.2105140026262
 30
0.0
 11
375.5198727802712
 21
249.2641934092691
 31
0.0
  0
LINE
  5
13D2
330
1A
100
AcDbEntity
  8
SEIHIN
  6
CONTINUOUS
 62
     3
100
AcDbLine
 10
375.5198706941086
 20
244.8938160020624
 30
0.0
 11
375.5198727802712
 21
249.2641934092691
 31
0.0
  0
LINE
  5
13D7
330
1A
100
AcDbEntity
  8
SEIHIN
  6
CONTINUOUS
 62
     3
100
AcDbLine
 10
375.5198727802712
 20
266.3402014311007
 30
0.0
 11
375.5198706941086
 21
270.7404641466928
 31
0.0
  0
LINE
  5
13D8
330
1A
100
AcDbEntity
  8
SEIHIN
  6
CONTINUOUS
 62
     3
100
AcDbLine
 10
495.3758659137947
 20
249.4105079110315
 30
0.0
 11
489.4699769391281
 21
266.1832251485041
 31
0.0
  0
LINE
  5
13D9
330
1A
100
AcDbEntity
  8
SEIHIN
  6
CONTINUOUS
 62
     3
100
AcDbLine
 10
496.8523969215924
 20
252.7444478547148
 30
0.0
 11
491.9699820055228
 21
266.6105084951571
 31
0.0
  0
ARC
  5
13DA
330
1A
100
AcDbEntity
  8
SEIHIN
  6
CONTINUOUS
 62
     3
100
AcDbCircle
 10
497.3240145911744
 20
252.9105104144266
 30
0.0
 40
0.5000000000000063
100
AcDbArc
 50
199.3978124485533
 51
270.0
  0
LINE
  5
13DB
330
1A
100
AcDbEntity
  8
SEIHIN
  6
CONTINUOUS
 62
     3
100
AcDbLine
 10
489.4699769391281
 20
266.1832251485041
 30
0.0
 11
489.2223047389252
 21
270.9092029269389
 31
0.0
  0
LINE
  5
13DC
330
1A
100
AcDbEntity
  8
SEIHIN
  6
CONTINUOUS
 62
     3
100
AcDbLine
 10
496.469983674453
 20
270.410513215845
 30
0.0
 11
496.8615072141131
 21
270.4105104144267
 31
0.0
  0
ARC
  5
13DD
330
1A
100
AcDbEntity
  8
SEIHIN
  6
CONTINUOUS
 62
     3
100
AcDbCircle
 10
496.8615072141131
 20
275.4105104144267
 30
0.0
 40
5.0
100
AcDbArc
 50
270.0
 51
295.0000000000068
  0
LINE
  5
13DE
330
1A
100
AcDbEntity
  8
SEIHIN
  6
CONTINUOUS
 62
     3
100
AcDbLine
 10
491.9699820055228
 20
266.6105084951571
 30
0.0
 11
491.9699805273277
 21
271.0658040804103
 31
0.0
  0
LINE
  5
13DF
330
1A
100
AcDbEntity
  8
SEIHIN
  6
CONTINUOUS
 62
     3
100
AcDbLine
 10
509.7699805273276
 20
245.1105104144265
 30
0.0
 11
509.7699805273276
 21
251.4105104144266
 31
0.0
  0
ARC
  5
13E0
330
1A
100
AcDbEntity
  8
SEIHIN
  6
CONTINUOUS
 62
     3
100
AcDbCircle
 10
506.0773884804403
 20
248.4105104144265
 30
0.0
 40
1.000000000000053
100
AcDbArc
 50
2.999999999998918
 51
90.0
  0
LINE
  5
13E1
330
1A
100
AcDbEntity
  8
SEIHIN
  6
CONTINUOUS
 62
     3
100
AcDbLine
 10
507.2699805273278
 20
244.7618211643657
 30
0.0
 11
507.0760180151948
 21
248.4628463706695
 31
0.0
  0
ARC
  5
13E2
330
1A
100
AcDbEntity
  8
SEIHIN
  6
CONTINUOUS
 62
     3
100
AcDbCircle
 10
508.7699805273278
 20
251.4105104144266
 30
0.0
 40
1.0
100
AcDbArc
 50
0.0
 51
90.0
  0
LINE
  5
13E3
330
1A
100
AcDbEntity
  8
SEIHIN
  6
CONTINUOUS
 62
     3
100
AcDbLine
 10
626.1640346769777
 20
227.3843308079316
 30
0.0
 11
625.5969127664246
 21
162.3985966179144
 31
0.0
  0
LINE
  5
13E4
330
1A
100
AcDbEntity
  8
SEIHIN
  6
CONTINUOUS
 62
     3
100
AcDbLine
 10
619.2997274637328
 20
226.0848218999218
 30
0.0
 11
613.7990653011006
 21
163.2119656812147
 31
0.0
  0
LINE
  5
13E5
330
1A
100
AcDbEntity
  8
SEIHIN
  6
CONTINUOUS
 62
     3
100
AcDbLine
 10
617.008899528689
 20
228.5848218999219
 30
0.0
 11
611.3858263425148
 21
164.3128012796929
 31
0.0
  0
ARC
  5
13E6
330
1A
100
AcDbEntity
  8
SEIHIN
  6
CONTINUOUS
 62
     3
100
AcDbCircle
 10
610.8104812068254
 20
163.4734329094576
 30
0.0
 40
3.000000000000066
100
AcDbArc
 50
271.9230515139867
 51
354.9999999999813
  0
ARC
  5
13E7
330
1A
100
AcDbEntity
  8
SEIHIN
  6
CONTINUOUS
 62
     3
100
AcDbCircle
 10
609.8915342953772
 20
164.4435348938145
 30
0.0
 40
1.500000000000056
100
AcDbArc
 50
271.8722183374771
 51
354.9999999999716
  0
LINE
  5
13E8
330
1A
100
AcDbEntity
  8
SEIHIN
  6
CONTINUOUS
 62
     3
100
AcDbLine
 10
625.5969127664246
 20
162.3985966179144
 30
0.0
 11
625.5963547087625
 21
162.3346495446663
 31
0.0
  0
LINE
  5
13E9
330
1A
100
AcDbEntity
  8
SEIHIN
  6
CONTINUOUS
 62
     3
100
AcDbLine
 10
626.1945787142454
 20
230.8843308079316
 30
0.0
 11
626.351662334479
 21
248.8843308079315
 31
0.0
  0
LINE
  5
13EA
330
1A
100
AcDbEntity
  8
SEIHIN
  6
CONTINUOUS
 62
     3
100
AcDbLine
 10
623.6686265768378
 20
247.4105104144266
 30
0.0
 11
623.6686265768378
 21
232.4105104144265
 31
0.0
  0
LWPOLYLINE
  5
13EC
330
1A
100
AcDbEntity
  8
SEIHIN
  6
CONTINUOUS
 62
     3
100
AcDbPolyline
 90
        9
 70
   128
 43
0.0
 10
626.1640357150298
 20
227.3843341406038
 10
626.169992454217
 20
228.0671500499895
 10
626.1757219506962
 20
228.7237250145128
 10
626.1810044123393
 20
229.328823917692
 10
626.18563122289
 20
229.8592009480645
 10
626.1894310189944
 20
230.2944713171175
 10
626.1922547890407
 20
230.6179084714106
 10
626.1939907743197
 20
230.8170773919274
 10
626.1945793701869
 20
230.884333782976
  0
ARC
  5
13ED
330
1A
100
AcDbEntity
  8
SEIHIN
  6
CONTINUOUS
 62
     3
100
AcDbCircle
 10
621.2921168599164
 20
225.9105104144265
 30
0.0
 40
2.000000000000042
100
AcDbArc
 50
90.0
 51
174.9999999999999
  0
ARC
  5
13EE
330
1A
100
AcDbEntity
  8
SEIHIN
  6
CONTINUOUS
 62
     3
100
AcDbCircle
 10
623.194692945053
 20
230.9105104144265
 30
0.0
 40
3.0
100
AcDbArc
 50
270.0
 51
359.4999999999628
  0
ARC
  5
13EF
330
1A
100
AcDbEntity
  8
SEIHIN
  6
CONTINUOUS
 62
     3
100
AcDbCircle
 10
619.0012889248727
 20
228.4105104144265
 30
0.0
 40
2.000000000000039
100
AcDbArc
 50
90.0
 51
174.9999999999999
  0
ARC
  5
13F0
330
1A
100
AcDbEntity
  8
SEIHIN
  6
CONTINUOUS
 62
     3
100
AcDbCircle
 10
621.6686265768378
 20
232.4105104144265
 30
0.0
 40
2.0
100
AcDbArc
 50
270.0
 51
0.0
  0
LINE
  5
13F1
330
1A
100
AcDbEntity
  8
SEIHIN
  6
CONTINUOUS
 62
     3
100
AcDbLine
 10
623.194692945053
 20
227.9105104144265
 30
0.0
 11
621.2901511302633
 21
227.9105094484032
 31
0.0
  0
LINE
  5
13F2
330
1A
100
AcDbEntity
  8
SEIHIN
  6
CONTINUOUS
 62
     3
100
AcDbLine
 10
621.6686265768378
 20
230.4105104144265
 30
0.0
 11
619.0012889248727
 21
230.4105104144265
 31
0.0
  0
ARC
  5
13F3
330
1A
100
AcDbEntity
  8
SEIHIN
  6
CONTINUOUS
 62
     3
100
AcDbCircle
 10
621.6686265768378
 20
247.4105104144266
 30
0.0
 40
2.0
100
AcDbArc
 50
0.0
 51
90.0
  0
ARC
  5
13F4
330
1A
100
AcDbEntity
  8
SEIHIN
  6
CONTINUOUS
 62
     3
100
AcDbCircle
 10
616.1686265768378
 20
250.0105104144265
 30
0.0
 40
1.900000000000044
100
AcDbArc
 50
90.0
 51
270.0
  0
ARC
  5
13F5
330
1A
100
AcDbEntity
  8
SEIHIN
  6
CONTINUOUS
 62
     3
100
AcDbCircle
 10
623.3517765652862
 20
248.9105104144266
 30
0.0
 40
3.000000000000165
100
AcDbArc
 50
359.4999999999986
 51
90.0
  0
LINE
  5
13F6
330
1A
100
AcDbEntity
  8
SEIHIN
  6
CONTINUOUS
 62
     3
100
AcDbLine
 10
616.7686263396007
 20
249.4105079110315
 30
0.0
 11
621.6686265768378
 21
249.4105104144266
 31
0.0
  0
LINE
  5
13F7
330
1A
100
AcDbEntity
  8
SEIHIN
  6
CONTINUOUS
 62
     3
100
AcDbLine
 10
616.1686265768378
 20
248.1105104144265
 30
0.0
 11
616.7686263396007
 21
248.1105082567385
 31
0.0
  0
LINE
  5
13F8
330
1A
100
AcDbEntity
  8
SEIHIN
  6
CONTINUOUS
 62
     3
100
AcDbLine
 10
616.7686263396007
 20
248.1105082567385
 30
0.0
 11
616.7686263396007
 21
249.4105079110315
 31
0.0
  0
ARC
  5
13F9
330
1A
100
AcDbEntity
  8
SEIHIN
  6
CONTINUOUS
 62
     3
100
AcDbCircle
 10
621.4221967914632
 20
246.9105104144266
 30
0.0
 40
7.999999999999976
100
AcDbArc
 50
91.46664769081006
 51
149.4562112647523
  0
LINE
  5
13FA
330
1A
100
AcDbEntity
  8
SEIHIN
  6
CONTINUOUS
 62
     3
100
AcDbLine
 10
623.3517765652862
 20
251.9105104144266
 30
0.0
 11
616.1686265768378
 21
251.9105104144266
 31
0.0
  0
LINE
  5
13FB
330
1A
100
AcDbEntity
  8
SEIHIN
  6
CONTINUOUS
 62
     3
100
AcDbLine
 10
623.2686265768379
 20
252.9085447748801
 30
0.0
 11
623.2686283363563
 21
251.9105129774263
 31
0.0
  0
ARC
  5
13FC
330
1A
100
AcDbEntity
  8
SEIHIN
  6
CONTINUOUS
 62
     3
100
AcDbCircle
 10
621.2686265768378
 20
252.9085447748801
 30
0.0
 40
2.0
100
AcDbArc
 50
0.0
 51
91.46664769081006
  0
LINE
  5
13FE
330
1A
100
AcDbEntity
  8
SEIHIN
  6
CONTINUOUS
 62
     3
100
AcDbLine
 10
172.5198711709458
 20
274.9192544158152
 30
0.0
 11
348.5198702172715
 21
274.9192544158152
 31
0.0
  0
LINE
  5
13FF
330
1A
100
AcDbEntity
  8
SEIHIN
  6
CONTINUOUS
 62
     3
100
AcDbLine
 10
170.6872667626818
 20
275.1185425456216
 30
0.0
 11
147.0668699101885
 21
275.0323169763734
 31
0.0
  0
LWPOLYLINE
  5
1400
330
1A
100
AcDbEntity
  8
SEIHIN
  6
CONTINUOUS
 62
     3
100
AcDbPolyline
 90
        2
 70
   128
 43
0.0
 10
147.2997653371235
 20
275.0331671543315
 10
147.1073116616685
 20
275.034470194166
  0
LINE
  5
1401
330
1A
100
AcDbEntity
  8
SEIHIN
  6
CONTINUOUS
 62
     3
100
AcDbLine
 10
147.0668699101885
 20
275.0323169763734
 30
0.0
 11
145.5198706941088
 21
274.9498079716646
 31
0.0
  0
LWPOLYLINE
  5
1402
330
1A
100
AcDbEntity
  8
SEIHIN
  6
CONTINUOUS
 62
     3
100
AcDbPolyline
 90
        5
 70
   128
 43
0.0
 10
170.6872667626818
 20
275.1110398109605
 10
170.8853106455285
 20
275.0985675390414
 10
171.3191877560099
 20
275.0279881890466
 10
171.9114120559176
 20
274.9490567382029
 10
172.5198711709458
 20
274.9192544158152
  0
LINE
  5
1403
330
1A
100
AcDbEntity
  8
SEIHIN
  6
CONTINUOUS
 62
     3
100
AcDbLine
 10
501.4602809794578
 20
274.796509041923
 30
0.0
 11
500.1217169193888
 21
274.1723263697817
 31
0.0
  0
LWPOLYLINE
  5
1404
330
1A
100
AcDbEntity
  8
SEIHIN
  6
CONTINUOUS
 62
     3
100
AcDbPolyline
 90
        5
 70
   128
 43
0.0
 10
489.684322692321
 20
272.9950972731761
 10
490.4064702166778
 20
273.964931898897
 10
491.3352372421486
 20
274.6483662064723
 10
492.2138320578796
 20
274.9907576378039
 10
494.0326379908783
 20
275.034470194166
  0
ARC
  5
1405
330
1A
100
AcDbEntity
  8
SEIHIN
  6
CONTINUOUS
 62
     3
100
AcDbCircle
 10
493.2168208034321
 20
271.1185456895551
 30
0.0
 40
3.999999999999976
100
AcDbArc
 50
152.0216503613851
 51
172.1868774387059
  0
ARC
  5
1406
330
1A
100
AcDbEntity
  8
SEIHIN
  6
CONTINUOUS
 62
     3
100
AcDbCircle
 10
499.2764803959075
 20
275.9849419438551
 30
0.0
 40
1.999999999999985
100
AcDbArc
 50
258.2317110679807
 51
295.0000000000068
  0
LINE
  5
1407
330
1A
100
AcDbEntity
  8
SEIHIN
  6
CONTINUOUS
 62
     3
100
AcDbLine
 10
493.7759119084956
 20
272.5342747100165
 30
0.0
 11
496.7699813021881
 21
271.9105088051013
 31
0.0
  0
LWPOLYLINE
  5
1408
330
1A
100
AcDbEntity
  8
SEIHIN
  6
CONTINUOUS
 62
     3
100
AcDbPolyline
 90
        8
 70
   128
 43
0.0
 10
494.0326379908783
 20
275.034470194166
 10
494.1966029180748
 20
275.0003092821291
 10
494.3335222377045
 20
274.9717810090235
 10
494.4494756235344
 20
274.9476262267283
 10
494.6042763365967
 20
274.9153726633242
 10
494.6879016532164
 20
274.8979532058886
 10
494.774492300914
 20
274.8799153502635
 10
494.8425757064087
 20
274.8657294448069
  0
LINE
  5
1409
330
1A
100
AcDbEntity
  8
SEIHIN
  6
CONTINUOUS
 62
     3
100
AcDbLine
 10
498.8685718876836
 20
274.0269811043798
 30
0.0
 11
494.8425788657544
 21
274.8657296506149
 31
0.0
  0
ARC
  5
140A
330
1A
100
AcDbEntity
  8
SEIHIN
  6
CONTINUOUS
 62
     3
100
AcDbCircle
 10
500.3121284297731
 20
273.7094277557935
 30
0.0
 40
1.999999999999985
100
AcDbArc
 50
295.0000000000068
 51
25.00000000000082
  0
ARC
  5
140B
330
1A
100
AcDbEntity
  8
SEIHIN
  6
CONTINUOUS
 62
     3
100
AcDbCircle
 10
501.671590110328
 20
274.3433551484045
 30
0.0
 40
0.5000000000000322
100
AcDbArc
 50
25.00000000000948
 51
114.9999999999924
  0
LINE
  5
15B9
330
1A
100
AcDbEntity
  8
CENTER_L
  6
CENTER
 62
     1
 48
5.0
100
AcDbLine
 10
260.5198706941088
 20
81.04422569361558
 30
0.0
 11
260.5198706941088
 21
288.2294784337602
 31
0.0
  0
CIRCLE
  5
15BB
330
1A
100
AcDbEntity
  8
SEIHIN
  6
CONTINUOUS
 62
     3
100
AcDbCircle
 10
260.5198706941085
 20
471.3730610678863
 30
0.0
 40
26.01916603920117
  0
CIRCLE
  5
15BC
330
1A
100
AcDbEntity
  8
SEIHIN
  6
CONTINUOUS
 62
     3
100
AcDbCircle
 10
260.5198706941085
 20
471.3730610678863
 30
0.0
 40
26.61288004161733
  0
CIRCLE
  5
15BD
330
1A
100
AcDbEntity
  8
SEIHIN
  6
CONTINUOUS
 62
     3
100
AcDbCircle
 10
260.5198706941085
 20
471.3730610678863
 30
0.0
 40
29.02617507107334
  0
CIRCLE
  5
15BF
330
1A
100
AcDbEntity
  8
SEIHIN
  6
CONTINUOUS
 62
     3
100
AcDbCircle
 10
260.5198706941085
 20
471.3730610678863
 30
0.0
 40
29.41420824101538
  0
CIRCLE
  5
15C2
330
1A
100
AcDbEntity
  8
SEIHIN
  6
CONTINUOUS
 62
     3
100
AcDbCircle
 10
260.5198706941085
 20
471.3730610678863
 30
0.0
 40
31.6
  0
CIRCLE
  5
15C3
330
1A
100
AcDbEntity
  8
SEIHIN
  6
CONTINUOUS
 62
     3
100
AcDbCircle
 10
260.5198706941085
 20
471.3730610678863
 30
0.0
 40
34.95410196624961
  0
LINE
  5
15C4
330
1A
100
AcDbEntity
  8
SEIHIN
  6
CONTINUOUS
 62
     3
100
AcDbLine
 10
324.3551560560912
 20
432.0791757271603
 30
0.0
 11
324.3551562981088
 21
509.0298081706237
 31
0.0
  0
LINE
  5
15CA
330
1A
100
AcDbEntity
  8
SEIHIN
  6
CONTINUOUS
 62
     3
100
AcDbLine
 10
375.5198706941086
 20
496.5436206753472
 30
0.0
 11
375.5198706941086
 21
430.8999504708744
 31
0.0
  0
LINE
  5
15CB
330
1A
100
AcDbEntity
  8
SEIHIN
  6
CONTINUOUS
 62
     3
100
AcDbLine
 10
345.5198706941086
 20
496.5436206753472
 30
0.0
 11
345.5198706941086
 21
424.0974318066336
 31
0.0
  0
LINE
  5
15D0
330
1A
100
AcDbEntity
  8
SEIHIN
  6
CONTINUOUS
 62
     3
100
AcDbLine
 10
196.6845853321258
 20
432.0791757271603
 30
0.0
 11
324.3551560560912
 21
432.0791757271603
 31
0.0
  0
LINE
  5
15D2
330
1A
100
AcDbEntity
  8
SEIHIN
  6
CONTINUOUS
 62
     3
100
AcDbLine
 10
180.5198706941089
 20
396.3730610678863
 30
0.0
 11
340.519870694109
 21
396.3730610678863
 31
0.0
  0
LINE
  5
15D5
330
1A
100
AcDbEntity
  8
SEIHIN
  6
CONTINUOUS
 62
     3
100
AcDbLine
 10
340.5198689059698
 20
383.4630946586799
 30
0.0
 11
180.5198724822482
 21
383.4630946586799
 31
0.0
  0
LINE
  5
15D6
330
1A
100
AcDbEntity
  8
SEIHIN
  6
CONTINUOUS
 62
     3
100
AcDbLine
 10
172.5198711709464
 20
378.5730625460816
 30
0.0
 11
348.5198702172719
 21
378.5730625460816
 31
0.0
  0
LINE
  5
15D7
330
1A
100
AcDbEntity
  8
SEIHIN
  6
CONTINUOUS
 62
     3
100
AcDbLine
 10
164.3720577911818
 20
375.8199016521645
 30
0.0
 11
356.6676835970365
 21
375.8199016521645
 31
0.0
  0
LINE
  5
15D8
330
1A
100
AcDbEntity
  8
SEIHIN
  6
CONTINUOUS
 62
     3
100
AcDbLine
 10
375.5198706941091
 20
419.2527945569215
 30
0.0
 11
375.5198706941091
 21
396.3730610678863
 31
0.0
  0
LINE
  5
15D9
330
1A
100
AcDbEntity
  8
SEIHIN
  6
CONTINUOUS
 62
     3
100
AcDbLine
 10
340.519870694109
 20
396.3730610678863
 30
0.0
 11
375.5198706941091
 21
396.3730610678863
 31
0.0
  0
LINE
  5
15DC
330
1A
100
AcDbEntity
  8
SEIHIN
  6
CONTINUOUS
 62
     3
100
AcDbLine
 10
350.5198742703877
 20
383.45548016531
 30
0.0
 11
340.519870694109
 21
383.4554774621512
 31
0.0
  0
LINE
  5
15E1
330
1A
100
AcDbEntity
  8
SEIHIN
  6
CONTINUOUS
 62
     3
100
AcDbLine
 10
375.5198706941091
 20
385.4716524282423
 30
0.0
 11
350.5198706941091
 21
385.4716524282423
 31
0.0
  0
LINE
  5
15E3
330
1A
100
AcDbEntity
  8
SEIHIN
  6
CONTINUOUS
 62
     3
100
AcDbLine
 10
350.5198706941091
 20
380.6357183604392
 30
0.0
 11
373.9324297265492
 21
380.635718531437
 31
0.0
  0
LINE
  5
15E4
330
1A
100
AcDbEntity
  8
SEIHIN
  6
CONTINUOUS
 62
     3
100
AcDbLine
 10
375.5198706941091
 20
388.9152089703316
 30
0.0
 11
350.5198706941091
 21
388.9152089703316
 31
0.0
  0
LINE
  5
15E5
330
1A
100
AcDbEntity
  8
SEIHIN
  6
CONTINUOUS
 62
     3
100
AcDbLine
 10
364.2905961231671
 20
376.030946798153
 30
0.0
 11
375.5198706941091
 21
376.6298423898653
 31
0.0
  0
LINE
  5
15E6
330
1A
100
AcDbEntity
  8
SEIHIN
  6
CONTINUOUS
 62
     3
100
AcDbLine
 10
375.5198706941091
 20
395.3730610678863
 30
0.0
 11
375.5198706941091
 21
388.9152089703316
 31
0.0
  0
LINE
  5
15E7
330
1A
100
AcDbEntity
  8
SEIHIN
  6
CONTINUOUS
 62
     3
100
AcDbLine
 10
375.5198706941091
 20
385.4716524282423
 30
0.0
 11
375.5198706941091
 21
381.4456594063134
 31
0.0
  0
LINE
  5
15E8
330
1A
100
AcDbEntity
  8
SEIHIN
  6
CONTINUOUS
 62
     3
100
AcDbLine
 10
375.5198706941091
 20
376.6298423898653
 30
0.0
 11
375.5198706941091
 21
381.4456594063134
 31
0.0
  0
LINE
  5
15EA
330
1A
100
AcDbEntity
  8
SEIHIN
  6
CONTINUOUS
 62
     3
100
AcDbLine
 10
375.5198706941091
 20
386.7247974599476
 30
0.0
 11
375.5198706941091
 21
385.4716524282423
 31
0.0
  0
LINE
  5
15EB
330
1A
100
AcDbEntity
  8
SEIHIN
  6
CONTINUOUS
 62
     3
100
AcDbLine
 10
375.5198706941091
 20
388.9152089703316
 30
0.0
 11
375.5198706941091
 21
388.7278245444051
 31
0.0
  0
LINE
  5
15EC
330
1A
100
AcDbEntity
  8
SEIHIN
  6
CONTINUOUS
 62
     3
100
AcDbLine
 10
375.5198706941091
 20
388.0633615200165
 30
0.0
 11
375.5198706941091
 21
386.7247974599476
 31
0.0
  0
LINE
  5
15ED
330
1A
100
AcDbEntity
  8
SEIHIN
  6
CONTINUOUS
 62
     3
100
AcDbLine
 10
375.5198706941091
 20
388.7278245444051
 30
0.0
 11
375.5198706941091
 21
388.0633615200165
 31
0.0
  0
LINE
  5
15EE
330
1A
100
AcDbEntity
  8
SEIHIN
  6
CONTINUOUS
 62
     3
100
AcDbLine
 10
375.5198706941091
 20
396.3730610678863
 30
0.0
 11
375.5198706941091
 21
395.3730610678863
 31
0.0
  0
LINE
  5
15EF
330
1A
100
AcDbEntity
  8
SEIHIN
  6
CONTINUOUS
 62
     3
100
AcDbLine
 10
360.5198721842251
 20
375.864292211361
 30
0.0
 11
364.2898957685911
 21
376.0440747211648
 31
0.0
  0
LINE
  5
15F0
330
1A
100
AcDbEntity
  8
SEIHIN
  6
CONTINUOUS
 62
     3
100
AcDbLine
 10
356.6676835970365
 20
375.8333052466584
 30
0.0
 11
360.5198706941091
 21
375.8570344188271
 31
0.0
  0
LINE
  5
15F2
330
1A
100
AcDbEntity
  8
SEIHIN
  6
CONTINUOUS
 62
     3
100
AcDbLine
 10
350.5198706941091
 20
380.6357183604392
 30
0.0
 11
350.5198706941091
 21
385.4716524282423
 31
0.0
  0
LINE
  5
15F3
330
1A
100
AcDbEntity
  8
SEIHIN
  6
CONTINUOUS
 62
     3
100
AcDbLine
 10
350.5198706941091
 20
380.5730610678863
 30
0.0
 11
350.5198706941091
 21
380.6357183604392
 31
0.0
  0
ARC
  5
15F4
330
1A
100
AcDbEntity
  8
SEIHIN
  6
CONTINUOUS
 62
     3
100
AcDbCircle
 10
348.5198670267227
 20
380.5730697897726
 30
0.0
 40
2.000007243693378
100
AcDbArc
 50
270.0
 51
359.9996951544369
  0
LINE
  5
15F5
330
1A
100
AcDbEntity
  8
SEIHIN
  6
CONTINUOUS
 62
     3
100
AcDbLine
 10
350.5198706941091
 20
385.4716524282423
 30
0.0
 11
350.5198706941091
 21
386.7247974599476
 31
0.0
  0
LINE
  5
15F6
330
1A
100
AcDbEntity
  8
SEIHIN
  6
CONTINUOUS
 62
     3
100
AcDbLine
 10
350.5198706941091
 20
388.7278245444051
 30
0.0
 11
350.5198706941091
 21
388.9152089703316
 31
0.0
  0
LINE
  5
15F7
330
1A
100
AcDbEntity
  8
SEIHIN
  6
CONTINUOUS
 62
     3
100
AcDbLine
 10
350.5198706941091
 20
388.0633615200165
 30
0.0
 11
350.5198706941091
 21
386.7247974599476
 31
0.0
  0
LINE
  5
15F8
330
1A
100
AcDbEntity
  8
SEIHIN
  6
CONTINUOUS
 62
     3
100
AcDbLine
 10
350.5198706941091
 20
388.0633615200165
 30
0.0
 11
350.5198706941091
 21
388.7278245444051
 31
0.0
  0
LINE
  5
15F9
330
1A
100
AcDbEntity
  8
SEIHIN
  6
CONTINUOUS
 62
     3
100
AcDbLine
 10
340.519870694109
 20
383.9270951317331
 30
0.0
 11
340.519870694109
 21
395.3730610678863
 31
0.0
  0
LINE
  5
15FA
330
1A
100
AcDbEntity
  8
SEIHIN
  6
CONTINUOUS
 62
     3
100
AcDbLine
 10
340.519870694109
 20
383.4554774621512
 30
0.0
 11
340.519870694109
 21
383.9270951317331
 31
0.0
  0
LINE
  5
15FB
330
1A
100
AcDbEntity
  8
SEIHIN
  6
CONTINUOUS
 62
     3
100
AcDbLine
 10
340.519870694109
 20
395.3730610678863
 30
0.0
 11
340.519870694109
 21
396.3730610678863
 31
0.0
  0
LINE
  5
15FC
330
1A
100
AcDbEntity
  8
SEIHIN
  6
CONTINUOUS
 62
     3
100
AcDbLine
 10
324.3551560560912
 20
432.0791757271603
 30
0.0
 11
345.3572552938812
 21
424.6309742173941
 31
0.0
  0
LINE
  5
15FE
330
1A
100
AcDbEntity
  8
SEIHIN
  6
CONTINUOUS
 62
     3
100
AcDbLine
 10
346.8245949105698
 20
430.8999503920746
 30
0.0
 11
375.5198706941086
 21
430.8999504708744
 31
0.0
  0
LINE
  5
1600
330
1A
100
AcDbEntity
  8
SEIHIN
  6
CONTINUOUS
 62
     3
100
AcDbLine
 10
358.4318097190339
 20
426.2247445951176
 30
0.0
 11
375.5198706941091
 21
426.2247433094107
 31
0.0
  0
LINE
  5
1602
330
1A
100
AcDbEntity
  8
SEIHIN
  6
CONTINUOUS
 62
     3
100
AcDbLine
 10
358.3572552938812
 20
420.1706605981633
 30
0.0
 11
375.3878424902318
 21
420.1706588091504
 31
0.0
  0
LINE
  5
1604
330
1A
100
AcDbEntity
  8
SEIHIN
  6
CONTINUOUS
 62
     3
100
AcDbLine
 10
375.5198706941091
 20
424.8090469477523
 30
0.0
 11
375.5198706941091
 21
419.7222485901393
 31
0.0
  0
LINE
  5
1605
330
1A
100
AcDbEntity
  8
SEIHIN
  6
CONTINUOUS
 62
     3
100
AcDbLine
 10
375.5198706941091
 20
419.7222485901393
 30
0.0
 11
375.5198706941091
 21
419.2527945569215
 31
0.0
  0
LINE
  5
1606
330
1A
100
AcDbEntity
  8
SEIHIN
  6
CONTINUOUS
 62
     3
100
AcDbLine
 10
375.5198706941086
 20
430.8999504708744
 30
0.0
 11
375.5198706941086
 21
429.5337137751116
 31
0.0
  0
LINE
  5
1607
330
1A
100
AcDbEntity
  8
SEIHIN
  6
CONTINUOUS
 62
     3
100
AcDbLine
 10
375.5198706941086
 20
429.5337137751116
 30
0.0
 11
375.5198706941091
 21
426.2247433094107
 31
0.0
  0
LINE
  5
1608
330
1A
100
AcDbEntity
  8
SEIHIN
  6
CONTINUOUS
 62
     3
100
AcDbLine
 10
375.5198706941091
 20
426.2247433094107
 30
0.0
 11
375.5198706941091
 21
424.8090469477523
 31
0.0
  0
LINE
  5
160A
330
1A
100
AcDbEntity
  8
SEIHIN
  6
CONTINUOUS
 62
     3
100
AcDbLine
 10
347.1045857120848
 20
423.88409811383
 30
0.0
 11
346.8245949105698
 21
430.8999503920746
 31
0.0
  0
LINE
  5
160D
330
1A
100
AcDbEntity
  8
SEIHIN
  6
CONTINUOUS
 62
     3
100
AcDbLine
 10
358.3572552938812
 20
420.1706605981633
 30
0.0
 11
358.3572517590004
 21
426.2547331820202
 31
0.0
  0
LINE
  5
160F
330
1A
100
AcDbEntity
  8
SEIHIN
  6
CONTINUOUS
 62
     3
100
AcDbLine
 10
347.4419703118574
 20
423.9040925953071
 30
0.0
 11
358.3572552938812
 21
420.1706605981633
 31
0.0
  0
LINE
  5
161B
330
1A
100
AcDbEntity
  8
SEIHIN
  6
CONTINUOUS
 62
     3
100
AcDbLine
 10
345.4797055081803
 20
423.8840962718201
 30
0.0
 11
347.1045857120848
 21
423.88409811383
 31
0.0
  0
LINE
  5
161F
330
1A
100
AcDbEntity
  8
SEIHIN
  6
CONTINUOUS
 62
     3
100
AcDbLine
 10
348.1164808825928
 20
429.5337150762748
 30
0.0
 11
358.3572517590004
 21
426.2547331820202
 31
0.0
  0
LINE
  5
1623
330
1A
100
AcDbEntity
  8
SEIHIN
  6
CONTINUOUS
 62
     3
100
AcDbLine
 10
345.3572552938812
 20
424.6309742173941
 30
0.0
 11
345.5198706941086
 21
424.6309742173941
 31
0.0
  0
LINE
  5
169C
330
1A
100
AcDbEntity
  8
SEIHIN
  6
CONTINUOUS
 62
     3
100
AcDbLine
 10
324.3551562981088
 20
509.0298081706237
 30
0.0
 11
196.6845850901085
 21
509.0298081706237
 31
0.0
  0
LINE
  5
169E
330
1A
100
AcDbEntity
  8
SEIHIN
  6
CONTINUOUS
 62
     3
100
AcDbLine
 10
145.5198706941089
 20
512.9547428750377
 30
0.0
 11
375.5198706941091
 21
512.9547428750377
 31
0.0
  0
LINE
  5
169F
330
1A
100
AcDbEntity
  8
SEIHIN
  6
CONTINUOUS
 62
     3
100
AcDbLine
 10
348.5198702172719
 20
510.2717081974221
 30
0.0
 11
172.519871170946
 21
510.2717081974221
 31
0.0
  0
LINE
  5
16A1
330
1A
100
AcDbEntity
  8
SEIHIN
  6
CONTINUOUS
 62
     3
100
AcDbLine
 10
345.5198706941091
 20
509.1959661658885
 30
0.0
 11
324.3551562981088
 21
509.0298081706237
 31
0.0
  0
LINE
  5
16A3
330
1A
100
AcDbEntity
  8
SEIHIN
  6
CONTINUOUS
 62
     3
100
AcDbLine
 10
345.5198706941091
 20
508.2717071173965
 30
0.0
 11
345.5198706941091
 21
505.6043694654315
 31
0.0
  0
LINE
  5
16A4
330
1A
100
AcDbEntity
  8
SEIHIN
  6
CONTINUOUS
 62
     3
100
AcDbLine
 10
375.5198706941091
 20
509.9548571058449
 30
0.0
 11
375.5198706941091
 21
502.7717071173967
 31
0.0
  0
LINE
  5
16A5
330
1A
100
AcDbEntity
  8
SEIHIN
  6
CONTINUOUS
 62
     3
100
AcDbLine
 10
350.5198706941091
 20
502.7717071173967
 30
0.0
 11
350.5198706941091
 21
508.2717071173965
 31
0.0
  0
LINE
  5
16A6
330
1A
100
AcDbEntity
  8
SEIHIN
  6
CONTINUOUS
 62
     3
100
AcDbLine
 10
362.5198706941091
 20
507.8205170458547
 30
0.0
 11
362.5198706941091
 21
501.1353491816937
 31
0.0
  0
LINE
  5
16A7
330
1A
100
AcDbEntity
  8
SEIHIN
  6
CONTINUOUS
 62
     3
100
AcDbLine
 10
364.5198706941091
 20
501.1353491816937
 30
0.0
 11
364.5198706941091
 21
507.8205170458547
 31
0.0
  0
LINE
  5
16A8
330
1A
100
AcDbEntity
  8
SEIHIN
  6
CONTINUOUS
 62
     3
100
AcDbLine
 10
375.5198706941086
 20
496.5436206753472
 30
0.0
 11
345.5198706941086
 21
496.5436206753472
 31
0.0
  0
LINE
  5
16AB
330
1A
100
AcDbEntity
  8
SEIHIN
  6
CONTINUOUS
 62
     3
100
AcDbLine
 10
364.5198728398763
 20
500.8717055390548
 30
0.0
 11
375.5198706941091
 21
500.8717071173966
 31
0.0
  0
LINE
  5
16AC
330
1A
100
AcDbEntity
  8
SEIHIN
  6
CONTINUOUS
 62
     3
100
AcDbLine
 10
375.5198706941091
 20
500.8717071173966
 30
0.0
 11
375.5198706941086
 21
497.9889068830736
 31
0.0
  0
LINE
  5
16AD
330
1A
100
AcDbEntity
  8
SEIHIN
  6
CONTINUOUS
 62
     3
100
AcDbLine
 10
375.5198706941086
 20
497.9889068830736
 30
0.0
 11
375.5198706941086
 21
496.5436206753472
 31
0.0
  0
LINE
  5
16AE
330
1A
100
AcDbEntity
  8
SEIHIN
  6
CONTINUOUS
 62
     3
100
AcDbLine
 10
375.5198706941091
 20
502.7717071173967
 30
0.0
 11
375.5198706941091
 21
500.8717071173966
 31
0.0
  0
LINE
  5
16AF
330
1A
100
AcDbEntity
  8
SEIHIN
  6
CONTINUOUS
 62
     3
100
AcDbLine
 10
364.5198728398763
 20
500.8717055390548
 30
0.0
 11
350.5198706941091
 21
500.8717071173966
 31
0.0
  0
LINE
  5
16B1
330
1A
100
AcDbEntity
  8
SEIHIN
  6
CONTINUOUS
 62
     3
100
AcDbLine
 10
362.5198706941091
 20
501.1353491816937
 30
0.0
 11
364.5198706941091
 21
501.1353491816937
 31
0.0
  0
LINE
  5
16B2
330
1A
100
AcDbEntity
  8
SEIHIN
  6
CONTINUOUS
 62
     3
100
AcDbLine
 10
345.5198706941091
 20
503.6119800692477
 30
0.0
 11
345.5198706941086
 21
497.9889068830736
 31
0.0
  0
LINE
  5
16B3
330
1A
100
AcDbEntity
  8
SEIHIN
  6
CONTINUOUS
 62
     3
100
AcDbLine
 10
345.5198706941086
 20
496.5436206753472
 30
0.0
 11
345.5198706941086
 21
497.9889068830736
 31
0.0
  0
LINE
  5
16B4
330
1A
100
AcDbEntity
  8
SEIHIN
  6
CONTINUOUS
 62
     3
100
AcDbLine
 10
345.5198706941091
 20
503.6119800692477
 30
0.0
 11
345.5198706941091
 21
505.6043694654315
 31
0.0
  0
LINE
  5
16B5
330
1A
100
AcDbEntity
  8
SEIHIN
  6
CONTINUOUS
 62
     3
100
AcDbLine
 10
350.5198742703877
 20
503.6119806538296
 30
0.0
 11
345.5198706941091
 21
503.6119800692477
 31
0.0
  0
LINE
  5
16B7
330
1A
100
AcDbEntity
  8
SEIHIN
  6
CONTINUOUS
 62
     3
100
AcDbLine
 10
350.5198706941091
 20
500.8717071173966
 30
0.0
 11
350.5198706941091
 21
502.7717071173967
 31
0.0
  0
LINE
  5
16BB
330
1A
100
AcDbEntity
  8
SEIHIN
  6
CONTINUOUS
 62
     3
100
AcDbLine
 10
375.5198706941091
 20
512.9547428750377
 30
0.0
 11
375.5198706941091
 21
509.9548571058449
 31
0.0
  0
LINE
  5
16BC
330
1A
100
AcDbEntity
  8
SEIHIN
  6
CONTINUOUS
 62
     3
100
AcDbLine
 10
362.5198706941091
 20
507.8205170458547
 30
0.0
 11
362.5198706941091
 21
509.8717071173964
 31
0.0
  0
LINE
  5
16BE
330
1A
100
AcDbEntity
  8
SEIHIN
  6
CONTINUOUS
 62
     3
100
AcDbLine
 10
364.5198706941091
 20
509.8717071173964
 30
0.0
 11
364.5198706941091
 21
507.8205170458547
 31
0.0
  0
LINE
  5
16BF
330
1A
100
AcDbEntity
  8
SEIHIN
  6
CONTINUOUS
 62
     3
100
AcDbLine
 10
362.5198706941091
 20
509.8717071173964
 30
0.0
 11
364.5198706941091
 21
509.8717071173964
 31
0.0
  0
LINE
  5
16C5
330
1A
100
AcDbEntity
  8
SEIHIN
  6
CONTINUOUS
 62
     3
100
AcDbLine
 10
345.5198706941091
 20
508.2717071173965
 30
0.0
 11
345.5198706941091
 21
509.7717071173967
 31
0.0
  0
ARC
  5
16C7
330
1A
100
AcDbEntity
  8
SEIHIN
  6
CONTINUOUS
 62
     3
100
AcDbCircle
 10
348.5198706941091
 20
508.2717071173965
 30
0.0
 40
2.0
100
AcDbArc
 50
0.0
 51
57.30681073419183
  0
LINE
  5
1778
330
1A
100
AcDbEntity
  8
CENTER_L
  6
CENTER
 62
     1
 48
5.0
100
AcDbLine
 10
300.4739726603582
 20
471.3730610679813
 30
0.0
 11
220.565768727859
 21
471.3730610679816
 31
0.0
  0
LINE
  5
1780
330
1A
100
AcDbEntity
  8
SEIHIN
  6
CONTINUOUS
 62
     3
100
AcDbLine
 10
373.9324297265492
 20
380.635718531437
 30
0.0
 11
374.5062585429631
 21
380.7996834586335
 31
0.0
  0
LINE
  5
1781
330
1A
100
AcDbEntity
  8
SEIHIN
  6
CONTINUOUS
 62
     3
100
AcDbLine
 10
374.5062585429631
 20
380.7996834586335
 30
0.0
 11
374.8888086037121
 21
380.9366027782632
 31
0.0
  0
LINE
  5
1782
330
1A
100
AcDbEntity
  8
SEIHIN
  6
CONTINUOUS
 62
     3
100
AcDbLine
 10
374.8888086037121
 20
380.9366027782632
 30
0.0
 11
375.1429255561315
 21
381.0525561640931
 31
0.0
  0
LINE
  5
1783
330
1A
100
AcDbEntity
  8
SEIHIN
  6
CONTINUOUS
 62
     3
100
AcDbLine
 10
375.1429255561315
 20
381.0525561640931
 30
0.0
 11
375.3811280683958
 21
381.2073568771554
 31
0.0
  0
LINE
  5
1784
330
1A
100
AcDbEntity
  8
SEIHIN
  6
CONTINUOUS
 62
     3
100
AcDbLine
 10
375.3811280683958
 20
381.2073568771554
 30
0.0
 11
375.4613857225858
 21
381.2909821937751
 31
0.0
  0
LINE
  5
1785
330
1A
100
AcDbEntity
  8
SEIHIN
  6
CONTINUOUS
 62
     3
100
AcDbLine
 10
375.4613857225858
 20
381.2909821937751
 30
0.0
 11
375.5085329966031
 21
381.3775728414727
 31
0.0
  0
LINE
  5
1786
330
1A
100
AcDbEntity
  8
SEIHIN
  6
CONTINUOUS
 62
     3
100
AcDbLine
 10
375.5085329966031
 20
381.3775728414727
 30
0.0
 11
375.5198727802716
 21
381.4456562469674
 31
0.0
  0
LINE
  5
1789
330
1A
100
AcDbEntity
  8
SEIHIN
  6
CONTINUOUS
 62
     3
100
AcDbLine
 10
358.3572517590004
 20
426.2547331820202
 30
0.0
 11
358.3842526630837
 21
426.2454050551128
 31
0.0
  0
LINE
  5
178A
330
1A
100
AcDbEntity
  8
SEIHIN
  6
CONTINUOUS
 62
     3
100
AcDbLine
 10
358.3842526630837
 20
426.2454050551128
 30
0.0
 11
358.4091525034386
 21
426.2353914747906
 31
0.0
  0
LINE
  5
178B
330
1A
100
AcDbEntity
  8
SEIHIN
  6
CONTINUOUS
 62
     3
100
AcDbLine
 10
358.4091525034386
 20
426.2353914747906
 30
0.0
 11
358.4318097190339
 21
426.2247445951176
 31
0.0
  0
LINE
  5
17A9
330
1A
100
AcDbEntity
  8
SEIHIN
  6
CONTINUOUS
 62
     3
100
AcDbLine
 10
348.1164808825928
 20
429.5337150762748
 30
0.0
 11
347.8269736723381
 21
429.6564782927704
 31
0.0
  0
LINE
  5
17AA
330
1A
100
AcDbEntity
  8
SEIHIN
  6
CONTINUOUS
 62
     3
100
AcDbLine
 10
347.8269736723381
 20
429.6564782927704
 30
0.0
 11
347.5689377145248
 21
429.8281620214654
 31
0.0
  0
LINE
  5
17AB
330
1A
100
AcDbEntity
  8
SEIHIN
  6
CONTINUOUS
 62
     3
100
AcDbLine
 10
347.5689377145248
 20
429.8281620214654
 30
0.0
 11
347.3521407203156
 21
430.0422730813695
 31
0.0
  0
LINE
  5
17AC
330
1A
100
AcDbEntity
  8
SEIHIN
  6
CONTINUOUS
 62
     3
100
AcDbLine
 10
347.3521407203156
 20
430.0422730813695
 30
0.0
 11
347.1847783283668
 21
430.2907052407933
 31
0.0
  0
LINE
  5
17AD
330
1A
100
AcDbEntity
  8
SEIHIN
  6
CONTINUOUS
 62
     3
100
AcDbLine
 10
346.8245949105698
 20
430.8999503920746
 30
0.0
 11
346.8286554769951
 21
430.8933417270852
 31
0.0
  0
LINE
  5
17AE
330
1A
100
AcDbEntity
  8
SEIHIN
  6
CONTINUOUS
 62
     3
100
AcDbLine
 10
346.8286554769951
 20
430.8933417270852
 30
0.0
 11
346.9398181395013
 21
430.7119163642598
 31
0.0
  0
LINE
  5
17AF
330
1A
100
AcDbEntity
  8
SEIHIN
  6
CONTINUOUS
 62
     3
100
AcDbLine
 10
346.9398181395013
 20
430.7119163642598
 30
0.0
 11
347.1847783283668
 21
430.2907052407933
 31
0.0
  0
LINE
  5
17BC
330
1A
100
AcDbEntity
  8
SEIHIN
  6
CONTINUOUS
 62
     3
100
AcDbLine
 10
345.5198715881783
 20
424.0974324713421
 30
0.0
 11
345.4874839143235
 21
423.9050957332326
 31
0.0
  0
LINE
  5
17BD
330
1A
100
AcDbEntity
  8
SEIHIN
  6
CONTINUOUS
 62
     3
100
AcDbLine
 10
345.4874839143235
 20
423.9050957332326
 30
0.0
 11
345.4797055081803
 21
423.8840962718201
 31
0.0
  0
LINE
  5
17BE
330
1A
100
AcDbEntity
  8
SEIHIN
  6
CONTINUOUS
 62
     3
100
AcDbLine
 10
347.1045877294021
 20
423.8840962718201
 30
0.0
 11
347.1508185820062
 21
423.8862047861291
 31
0.0
  0
LINE
  5
17BF
330
1A
100
AcDbEntity
  8
SEIHIN
  6
CONTINUOUS
 62
     3
100
AcDbLine
 10
347.1508185820062
 20
423.8862047861291
 30
0.0
 11
347.196662004419
 21
423.8884660373401
 31
0.0
  0
LINE
  5
17C0
330
1A
100
AcDbEntity
  8
SEIHIN
  6
CONTINUOUS
 62
     3
100
AcDbLine
 10
347.196662004419
 20
423.8884660373401
 30
0.0
 11
347.241708214708
 21
423.8908576737117
 31
0.0
  0
LINE
  5
17C1
330
1A
100
AcDbEntity
  8
SEIHIN
  6
CONTINUOUS
 62
     3
100
AcDbLine
 10
347.241708214708
 20
423.8908576737117
 30
0.0
 11
347.2855772332627
 21
423.8933647940827
 31
0.0
  0
LINE
  5
17C2
330
1A
100
AcDbEntity
  8
SEIHIN
  6
CONTINUOUS
 62
     3
100
AcDbLine
 10
347.2855772332627
 20
423.8933647940827
 30
0.0
 11
347.3278890804726
 21
423.8959650467109
 31
0.0
  0
LINE
  5
17C3
330
1A
100
AcDbEntity
  8
SEIHIN
  6
CONTINUOUS
 62
     3
100
AcDbLine
 10
347.3278890804726
 20
423.8959650467109
 30
0.0
 11
347.3682935790498
 21
423.8986360798549
 31
0.0
  0
LINE
  5
17C4
330
1A
100
AcDbEntity
  8
SEIHIN
  6
CONTINUOUS
 62
     3
100
AcDbLine
 10
347.3682935790498
 20
423.8986360798549
 30
0.0
 11
347.4064256505448
 21
423.9013518164826
 31
0.0
  0
LINE
  5
17C5
330
1A
100
AcDbEntity
  8
SEIHIN
  6
CONTINUOUS
 62
     3
100
AcDbLine
 10
347.4064256505448
 20
423.9013518164826
 30
0.0
 11
347.4419723705726
 21
423.9040936301423
 31
0.0
  0
LINE
  5
17E2
330
1A
100
AcDbEntity
  8
SEIHIN
  6
CONTINUOUS
 62
     3
100
AcDbLine
 10
349.6001522497616
 20
509.9548573563767
 30
0.0
 11
348.9829238013708
 21
510.2173636625481
 31
0.0
  0
LINE
  5
17E3
330
1A
100
AcDbEntity
  8
SEIHIN
  6
CONTINUOUS
 62
     3
100
AcDbLine
 10
348.9829238013708
 20
510.2173636625481
 30
0.0
 11
348.5198702172719
 21
510.2717081974221
 31
0.0
  0
LINE
  5
17E4
330
1A
100
AcDbEntity
  8
SEIHIN
  6
CONTINUOUS
 62
     3
100
AcDbLine
 10
345.0198705748998
 20
510.2717081974221
 30
0.0
 11
345.0238715366803
 21
510.2716895709706
 31
0.0
  0
LINE
  5
17E5
330
1A
100
AcDbEntity
  8
SEIHIN
  6
CONTINUOUS
 62
     3
100
AcDbLine
 10
345.0238715366803
 20
510.2716895709706
 30
0.0
 11
345.2593098835431
 21
510.21064696414
 31
0.0
  0
LINE
  5
17E6
330
1A
100
AcDbEntity
  8
SEIHIN
  6
CONTINUOUS
 62
     3
100
AcDbLine
 10
345.2593098835431
 20
510.21064696414
 30
0.0
 11
345.4665179805242
 21
509.9964390466881
 31
0.0
  0
LINE
  5
17E7
330
1A
100
AcDbEntity
  8
SEIHIN
  6
CONTINUOUS
 62
     3
100
AcDbLine
 10
345.4665179805242
 20
509.9964390466881
 30
0.0
 11
345.5198715881787
 21
509.7717071841431
 31
0.0
  0
LINE
  5
1877
330
1A
100
AcDbEntity
  8
SEIHIN
  6
CONTINUOUS
 62
     3
100
AcDbLine
 10
145.5198706941084
 20
419.2527945569215
 30
0.0
 11
145.5198706941084
 21
396.3730610678863
 31
0.0
  0
LINE
  5
1878
330
1A
100
AcDbEntity
  8
SEIHIN
  6
CONTINUOUS
 62
     3
100
AcDbLine
 10
180.5198706941084
 20
396.3730610678863
 30
0.0
 11
145.5198706941084
 21
396.3730610678863
 31
0.0
  0
LINE
  5
1879
330
1A
100
AcDbEntity
  8
SEIHIN
  6
CONTINUOUS
 62
     3
100
AcDbLine
 10
145.5198706941084
 20
385.4716524282423
 30
0.0
 11
170.5198706941084
 21
385.4716524282423
 31
0.0
  0
LINE
  5
187A
330
1A
100
AcDbEntity
  8
SEIHIN
  6
CONTINUOUS
 62
     3
100
AcDbLine
 10
170.5198706941084
 20
380.6357183604392
 30
0.0
 11
147.1073116616681
 21
380.635718531437
 31
0.0
  0
LINE
  5
187B
330
1A
100
AcDbEntity
  8
SEIHIN
  6
CONTINUOUS
 62
     3
100
AcDbLine
 10
145.5198706941084
 20
388.9152089703316
 30
0.0
 11
170.5198706941084
 21
388.9152089703316
 31
0.0
  0
LINE
  5
187C
330
1A
100
AcDbEntity
  8
SEIHIN
  6
CONTINUOUS
 62
     3
100
AcDbLine
 10
170.5198671178298
 20
383.45548016531
 30
0.0
 11
180.5198706941084
 21
383.4554774621512
 31
0.0
  0
LINE
  5
187D
330
1A
100
AcDbEntity
  8
SEIHIN
  6
CONTINUOUS
 62
     3
100
AcDbLine
 10
170.5198706941084
 20
380.6357183604392
 30
0.0
 11
170.5198706941084
 21
385.4716524282423
 31
0.0
  0
LINE
  5
187E
330
1A
100
AcDbEntity
  8
SEIHIN
  6
CONTINUOUS
 62
     3
100
AcDbLine
 10
170.5198706941084
 20
380.5730610678863
 30
0.0
 11
170.5198706941084
 21
380.6357183604392
 31
0.0
  0
ARC
  5
187F
330
1A
100
AcDbEntity
  8
SEIHIN
  6
CONTINUOUS
 62
     3
100
AcDbCircle
 10
172.5198743614948
 20
380.5730697897726
 30
0.0
 40
2.000007243693378
100
AcDbArc
 50
180.000304845563
 51
270.0
  0
LINE
  5
1880
330
1A
100
AcDbEntity
  8
SEIHIN
  6
CONTINUOUS
 62
     3
100
AcDbLine
 10
170.5198706941084
 20
385.4716524282423
 30
0.0
 11
170.5198706941084
 21
386.7247974599476
 31
0.0
  0
LINE
  5
1881
330
1A
100
AcDbEntity
  8
SEIHIN
  6
CONTINUOUS
 62
     3
100
AcDbLine
 10
170.5198706941084
 20
388.7278245444051
 30
0.0
 11
170.5198706941084
 21
388.9152089703316
 31
0.0
  0
LINE
  5
1882
330
1A
100
AcDbEntity
  8
SEIHIN
  6
CONTINUOUS
 62
     3
100
AcDbLine
 10
170.5198706941084
 20
388.0633615200165
 30
0.0
 11
170.5198706941084
 21
386.7247974599476
 31
0.0
  0
LINE
  5
1883
330
1A
100
AcDbEntity
  8
SEIHIN
  6
CONTINUOUS
 62
     3
100
AcDbLine
 10
170.5198706941084
 20
388.0633615200165
 30
0.0
 11
170.5198706941084
 21
388.7278245444051
 31
0.0
  0
LINE
  5
1884
330
1A
100
AcDbEntity
  8
SEIHIN
  6
CONTINUOUS
 62
     3
100
AcDbLine
 10
180.5198706941084
 20
383.9270951317331
 30
0.0
 11
180.5198706941084
 21
395.3730610678863
 31
0.0
  0
LINE
  5
1885
330
1A
100
AcDbEntity
  8
SEIHIN
  6
CONTINUOUS
 62
     3
100
AcDbLine
 10
180.5198706941084
 20
383.4554774621512
 30
0.0
 11
180.5198706941084
 21
383.9270951317331
 31
0.0
  0
LINE
  5
1886
330
1A
100
AcDbEntity
  8
SEIHIN
  6
CONTINUOUS
 62
     3
100
AcDbLine
 10
180.5198706941084
 20
395.3730610678863
 30
0.0
 11
180.5198706941084
 21
396.3730610678863
 31
0.0
  0
LINE
  5
1887
330
1A
100
AcDbEntity
  8
SEIHIN
  6
CONTINUOUS
 62
     3
100
AcDbLine
 10
145.5312083916143
 20
381.3775728414727
 30
0.0
 11
145.5198686079459
 21
381.4456562469674
 31
0.0
  0
LINE
  5
1888
330
1A
100
AcDbEntity
  8
SEIHIN
  6
CONTINUOUS
 62
     3
100
AcDbLine
 10
145.5783556656317
 20
381.2909821937751
 30
0.0
 11
145.5312083916143
 21
381.3775728414727
 31
0.0
  0
LINE
  5
1889
330
1A
100
AcDbEntity
  8
SEIHIN
  6
CONTINUOUS
 62
     3
100
AcDbLine
 10
145.6586133198218
 20
381.2073568771554
 30
0.0
 11
145.5783556656317
 21
381.2909821937751
 31
0.0
  0
LINE
  5
188A
330
1A
100
AcDbEntity
  8
SEIHIN
  6
CONTINUOUS
 62
     3
100
AcDbLine
 10
145.896815832086
 20
381.0525561640931
 30
0.0
 11
145.6586133198218
 21
381.2073568771554
 31
0.0
  0
LINE
  5
188B
330
1A
100
AcDbEntity
  8
SEIHIN
  6
CONTINUOUS
 62
     3
100
AcDbLine
 10
146.1509327845053
 20
380.9366027782632
 30
0.0
 11
145.896815832086
 21
381.0525561640931
 31
0.0
  0
LINE
  5
188C
330
1A
100
AcDbEntity
  8
SEIHIN
  6
CONTINUOUS
 62
     3
100
AcDbLine
 10
146.5334828452544
 20
380.7996834586335
 30
0.0
 11
146.1509327845053
 21
380.9366027782632
 31
0.0
  0
LINE
  5
188D
330
1A
100
AcDbEntity
  8
SEIHIN
  6
CONTINUOUS
 62
     3
100
AcDbLine
 10
147.1073116616681
 20
380.635718531437
 30
0.0
 11
146.5334828452544
 21
380.7996834586335
 31
0.0
  0
LINE
  5
188E
330
1A
100
AcDbEntity
  8
SEIHIN
  6
CONTINUOUS
 62
     3
100
AcDbLine
 10
145.5198706941084
 20
395.3730610678863
 30
0.0
 11
145.5198706941084
 21
388.9152089703316
 31
0.0
  0
LINE
  5
188F
330
1A
100
AcDbEntity
  8
SEIHIN
  6
CONTINUOUS
 62
     3
100
AcDbLine
 10
145.5198706941084
 20
385.4716524282423
 30
0.0
 11
145.5198706941084
 21
381.4456594063134
 31
0.0
  0
LINE
  5
1890
330
1A
100
AcDbEntity
  8
SEIHIN
  6
CONTINUOUS
 62
     3
100
AcDbLine
 10
145.5198706941084
 20
386.7247974599476
 30
0.0
 11
145.5198706941084
 21
385.4716524282423
 31
0.0
  0
LINE
  5
1891
330
1A
100
AcDbEntity
  8
SEIHIN
  6
CONTINUOUS
 62
     3
100
AcDbLine
 10
145.5198706941084
 20
388.9152089703316
 30
0.0
 11
145.5198706941084
 21
388.7278245444051
 31
0.0
  0
LINE
  5
1892
330
1A
100
AcDbEntity
  8
SEIHIN
  6
CONTINUOUS
 62
     3
100
AcDbLine
 10
145.5198706941084
 20
388.0633615200165
 30
0.0
 11
145.5198706941084
 21
386.7247974599476
 31
0.0
  0
LINE
  5
1893
330
1A
100
AcDbEntity
  8
SEIHIN
  6
CONTINUOUS
 62
     3
100
AcDbLine
 10
145.5198706941084
 20
388.7278245444051
 30
0.0
 11
145.5198706941084
 21
388.0633615200165
 31
0.0
  0
LINE
  5
1894
330
1A
100
AcDbEntity
  8
SEIHIN
  6
CONTINUOUS
 62
     3
100
AcDbLine
 10
145.5198706941084
 20
396.3730610678863
 30
0.0
 11
145.5198706941084
 21
395.3730610678863
 31
0.0
  0
LINE
  5
1895
330
1A
100
AcDbEntity
  8
SEIHIN
  6
CONTINUOUS
 62
     3
100
AcDbLine
 10
156.7491452650504
 20
376.030946798153
 30
0.0
 11
145.5198706941084
 21
376.6298423898653
 31
0.0
  0
LINE
  5
1896
330
1A
100
AcDbEntity
  8
SEIHIN
  6
CONTINUOUS
 62
     3
100
AcDbLine
 10
160.5198692039923
 20
375.864292211361
 30
0.0
 11
156.7498456196265
 21
376.0440747211648
 31
0.0
  0
LINE
  5
1897
330
1A
100
AcDbEntity
  8
SEIHIN
  6
CONTINUOUS
 62
     3
100
AcDbLine
 10
164.372057791181
 20
375.8333052466584
 30
0.0
 11
160.5198706941084
 21
375.8570344188271
 31
0.0
  0
LINE
  5
1898
330
1A
100
AcDbEntity
  8
SEIHIN
  6
CONTINUOUS
 62
     3
100
AcDbLine
 10
145.5198706941084
 20
376.6298423898653
 30
0.0
 11
145.5198706941084
 21
381.4456594063134
 31
0.0
  0
LINE
  5
1899
330
1A
100
AcDbEntity
  8
SEIHIN
  6
CONTINUOUS
 62
     3
100
AcDbLine
 10
196.6845853321262
 20
432.0791757271603
 30
0.0
 11
196.6845850901087
 21
509.0298081706237
 31
0.0
  0
LINE
  5
189A
330
1A
100
AcDbEntity
  8
SEIHIN
  6
CONTINUOUS
 62
     3
100
AcDbLine
 10
145.5198706941088
 20
496.5436206753472
 30
0.0
 11
145.5198706941088
 21
430.8999504708744
 31
0.0
  0
LINE
  5
189B
330
1A
100
AcDbEntity
  8
SEIHIN
  6
CONTINUOUS
 62
     3
100
AcDbLine
 10
175.5198706941089
 20
496.5436206753472
 30
0.0
 11
175.5198706941089
 21
424.0974318066336
 31
0.0
  0
LINE
  5
189C
330
1A
100
AcDbEntity
  8
SEIHIN
  6
CONTINUOUS
 62
     3
100
AcDbLine
 10
174.2151464776476
 20
430.8999503920746
 30
0.0
 11
145.5198706941088
 21
430.8999504708744
 31
0.0
  0
LINE
  5
189D
330
1A
100
AcDbEntity
  8
SEIHIN
  6
CONTINUOUS
 62
     3
100
AcDbLine
 10
173.5977710763601
 20
423.9040925953071
 30
0.0
 11
162.6824860943363
 21
420.1706605981633
 31
0.0
  0
LINE
  5
189E
330
1A
100
AcDbEntity
  8
SEIHIN
  6
CONTINUOUS
 62
     3
100
AcDbLine
 10
172.9232605056246
 20
429.5337150762748
 30
0.0
 11
162.6824896292171
 21
426.2547331820202
 31
0.0
  0
LINE
  5
189F
330
1A
100
AcDbEntity
  8
SEIHIN
  6
CONTINUOUS
 62
     3
100
AcDbLine
 10
196.6845853321262
 20
432.0791757271603
 30
0.0
 11
175.6824860943363
 21
424.6309742173941
 31
0.0
  0
LINE
  5
18A0
330
1A
100
AcDbEntity
  8
SEIHIN
  6
CONTINUOUS
 62
     3
100
AcDbLine
 10
173.9351556761326
 20
423.88409811383
 30
0.0
 11
174.2151464776476
 21
430.8999503920746
 31
0.0
  0
LINE
  5
18A1
330
1A
100
AcDbEntity
  8
SEIHIN
  6
CONTINUOUS
 62
     3
100
AcDbLine
 10
173.6333157376726
 20
423.9013518164826
 30
0.0
 11
173.5977690176447
 21
423.9040936301423
 31
0.0
  0
LINE
  5
18A2
330
1A
100
AcDbEntity
  8
SEIHIN
  6
CONTINUOUS
 62
     3
100
AcDbLine
 10
173.6714478091678
 20
423.8986360798549
 30
0.0
 11
173.6333157376726
 21
423.9013518164826
 31
0.0
  0
LINE
  5
18A3
330
1A
100
AcDbEntity
  8
SEIHIN
  6
CONTINUOUS
 62
     3
100
AcDbLine
 10
173.7118523077448
 20
423.8959650467109
 30
0.0
 11
173.6714478091678
 21
423.8986360798549
 31
0.0
  0
LINE
  5
18A4
330
1A
100
AcDbEntity
  8
SEIHIN
  6
CONTINUOUS
 62
     3
100
AcDbLine
 10
173.7541641549547
 20
423.8933647940827
 30
0.0
 11
173.7118523077448
 21
423.8959650467109
 31
0.0
  0
LINE
  5
18A5
330
1A
100
AcDbEntity
  8
SEIHIN
  6
CONTINUOUS
 62
     3
100
AcDbLine
 10
173.7980331735094
 20
423.8908576737117
 30
0.0
 11
173.7541641549547
 21
423.8933647940827
 31
0.0
  0
LINE
  5
18A6
330
1A
100
AcDbEntity
  8
SEIHIN
  6
CONTINUOUS
 62
     3
100
AcDbLine
 10
173.8430793837984
 20
423.8884660373401
 30
0.0
 11
173.7980331735094
 21
423.8908576737117
 31
0.0
  0
LINE
  5
18A7
330
1A
100
AcDbEntity
  8
SEIHIN
  6
CONTINUOUS
 62
     3
100
AcDbLine
 10
173.8889228062113
 20
423.8862047861291
 30
0.0
 11
173.8430793837984
 21
423.8884660373401
 31
0.0
  0
LINE
  5
18A8
330
1A
100
AcDbEntity
  8
SEIHIN
  6
CONTINUOUS
 62
     3
100
AcDbLine
 10
173.9351536588152
 20
423.8840962718201
 30
0.0
 11
173.8889228062113
 21
423.8862047861291
 31
0.0
  0
LINE
  5
18A9
330
1A
100
AcDbEntity
  8
SEIHIN
  6
CONTINUOUS
 62
     3
100
AcDbLine
 10
175.552257473894
 20
423.9050957332326
 30
0.0
 11
175.5600358800371
 21
423.8840962718201
 31
0.0
  0
LINE
  5
18AA
330
1A
100
AcDbEntity
  8
SEIHIN
  6
CONTINUOUS
 62
     3
100
AcDbLine
 10
175.5198698000391
 20
424.0974324713421
 30
0.0
 11
175.552257473894
 21
423.9050957332326
 31
0.0
  0
LINE
  5
18AB
330
1A
100
AcDbEntity
  8
SEIHIN
  6
CONTINUOUS
 62
     3
100
AcDbLine
 10
175.5600358800371
 20
423.8840962718201
 30
0.0
 11
173.9351556761326
 21
423.88409811383
 31
0.0
  0
LINE
  5
18AC
330
1A
100
AcDbEntity
  8
SEIHIN
  6
CONTINUOUS
 62
     3
100
AcDbLine
 10
175.6824860943363
 20
424.6309742173941
 30
0.0
 11
175.5198706941089
 21
424.6309742173941
 31
0.0
  0
LINE
  5
18AD
330
1A
100
AcDbEntity
  8
SEIHIN
  6
CONTINUOUS
 62
     3
100
AcDbLine
 10
174.0999232487163
 20
430.7119163642598
 30
0.0
 11
173.8549630598505
 21
430.2907052407933
 31
0.0
  0
LINE
  5
18AE
330
1A
100
AcDbEntity
  8
SEIHIN
  6
CONTINUOUS
 62
     3
100
AcDbLine
 10
174.2110859112224
 20
430.8933417270852
 30
0.0
 11
174.0999232487163
 21
430.7119163642598
 31
0.0
  0
LINE
  5
18AF
330
1A
100
AcDbEntity
  8
SEIHIN
  6
CONTINUOUS
 62
     3
100
AcDbLine
 10
174.2151464776476
 20
430.8999503920746
 30
0.0
 11
174.2110859112224
 21
430.8933417270852
 31
0.0
  0
LINE
  5
18B0
330
1A
100
AcDbEntity
  8
SEIHIN
  6
CONTINUOUS
 62
     3
100
AcDbLine
 10
173.6876006679018
 20
430.0422730813695
 30
0.0
 11
173.8549630598505
 21
430.2907052407933
 31
0.0
  0
LINE
  5
18B1
330
1A
100
AcDbEntity
  8
SEIHIN
  6
CONTINUOUS
 62
     3
100
AcDbLine
 10
173.4708036736925
 20
429.8281620214654
 30
0.0
 11
173.6876006679018
 21
430.0422730813695
 31
0.0
  0
LINE
  5
18B2
330
1A
100
AcDbEntity
  8
SEIHIN
  6
CONTINUOUS
 62
     3
100
AcDbLine
 10
173.2127677158794
 20
429.6564782927704
 30
0.0
 11
173.4708036736925
 21
429.8281620214654
 31
0.0
  0
LINE
  5
18B3
330
1A
100
AcDbEntity
  8
SEIHIN
  6
CONTINUOUS
 62
     3
100
AcDbLine
 10
172.9232605056246
 20
429.5337150762748
 30
0.0
 11
173.2127677158794
 21
429.6564782927704
 31
0.0
  0
LINE
  5
18B4
330
1A
100
AcDbEntity
  8
SEIHIN
  6
CONTINUOUS
 62
     3
100
AcDbLine
 10
145.5198706941088
 20
429.5337137751116
 30
0.0
 11
145.5198706941084
 21
426.2247433094107
 31
0.0
  0
LINE
  5
18B5
330
1A
100
AcDbEntity
  8
SEIHIN
  6
CONTINUOUS
 62
     3
100
AcDbLine
 10
162.6824860943363
 20
420.1706605981633
 30
0.0
 11
145.6518988979856
 21
420.1706588091504
 31
0.0
  0
LINE
  5
18B6
330
1A
100
AcDbEntity
  8
SEIHIN
  6
CONTINUOUS
 62
     3
100
AcDbLine
 10
162.6305888847788
 20
426.2353914747906
 30
0.0
 11
162.6079316691837
 21
426.2247445951176
 31
0.0
  0
LINE
  5
18B7
330
1A
100
AcDbEntity
  8
SEIHIN
  6
CONTINUOUS
 62
     3
100
AcDbLine
 10
162.6554887251337
 20
426.2454050551128
 30
0.0
 11
162.6305888847788
 21
426.2353914747906
 31
0.0
  0
LINE
  5
18B8
330
1A
100
AcDbEntity
  8
SEIHIN
  6
CONTINUOUS
 62
     3
100
AcDbLine
 10
162.6824896292171
 20
426.2547331820202
 30
0.0
 11
162.6554887251337
 21
426.2454050551128
 31
0.0
  0
LINE
  5
18B9
330
1A
100
AcDbEntity
  8
SEIHIN
  6
CONTINUOUS
 62
     3
100
AcDbLine
 10
162.6079316691837
 20
426.2247445951176
 30
0.0
 11
145.5198706941084
 21
426.2247433094107
 31
0.0
  0
LINE
  5
18BA
330
1A
100
AcDbEntity
  8
SEIHIN
  6
CONTINUOUS
 62
     3
100
AcDbLine
 10
145.5198706941084
 20
424.8090469477523
 30
0.0
 11
145.5198706941084
 21
419.7222485901393
 31
0.0
  0
LINE
  5
18BB
330
1A
100
AcDbEntity
  8
SEIHIN
  6
CONTINUOUS
 62
     3
100
AcDbLine
 10
145.5198706941084
 20
419.7222485901393
 30
0.0
 11
145.5198706941084
 21
419.2527945569215
 31
0.0
  0
LINE
  5
18BC
330
1A
100
AcDbEntity
  8
SEIHIN
  6
CONTINUOUS
 62
     3
100
AcDbLine
 10
145.5198706941084
 20
426.2247433094107
 30
0.0
 11
145.5198706941084
 21
424.8090469477523
 31
0.0
  0
LINE
  5
18BD
330
1A
100
AcDbEntity
  8
SEIHIN
  6
CONTINUOUS
 62
     3
100
AcDbLine
 10
162.6824860943363
 20
420.1706605981633
 30
0.0
 11
162.6824896292171
 21
426.2547331820202
 31
0.0
  0
LINE
  5
18BE
330
1A
100
AcDbEntity
  8
SEIHIN
  6
CONTINUOUS
 62
     3
100
AcDbLine
 10
145.5198706941088
 20
430.8999504708744
 30
0.0
 11
145.5198706941088
 21
429.5337137751116
 31
0.0
  0
LINE
  5
18BF
330
1A
100
AcDbEntity
  8
SEIHIN
  6
CONTINUOUS
 62
     3
100
AcDbLine
 10
145.5198706941088
 20
496.5436206753472
 30
0.0
 11
175.5198706941089
 21
496.5436206753472
 31
0.0
  0
LINE
  5
18C0
330
1A
100
AcDbEntity
  8
SEIHIN
  6
CONTINUOUS
 62
     3
100
AcDbLine
 10
156.5198685483411
 20
500.8717055390548
 30
0.0
 11
170.5198706941084
 21
500.8717071173966
 31
0.0
  0
LINE
  5
18C1
330
1A
100
AcDbEntity
  8
SEIHIN
  6
CONTINUOUS
 62
     3
100
AcDbLine
 10
175.5198706941083
 20
509.1959661658885
 30
0.0
 11
196.6845850901087
 21
509.0298081706237
 31
0.0
  0
LINE
  5
18C2
330
1A
100
AcDbEntity
  8
SEIHIN
  6
CONTINUOUS
 62
     3
100
AcDbLine
 10
175.5732234076933
 20
509.9964390466881
 30
0.0
 11
175.5198698000388
 21
509.7717071841431
 31
0.0
  0
LINE
  5
18C3
330
1A
100
AcDbEntity
  8
SEIHIN
  6
CONTINUOUS
 62
     3
100
AcDbLine
 10
175.7804315046744
 20
510.21064696414
 30
0.0
 11
175.5732234076933
 21
509.9964390466881
 31
0.0
  0
LINE
  5
18C4
330
1A
100
AcDbEntity
  8
SEIHIN
  6
CONTINUOUS
 62
     3
100
AcDbLine
 10
176.0158698515371
 20
510.2716895709706
 30
0.0
 11
175.7804315046744
 21
510.21064696414
 31
0.0
  0
LINE
  5
18C5
330
1A
100
AcDbEntity
  8
SEIHIN
  6
CONTINUOUS
 62
     3
100
AcDbLine
 10
176.0198708133176
 20
510.2717081974221
 30
0.0
 11
176.0158698515371
 21
510.2716895709706
 31
0.0
  0
LINE
  5
18C6
330
1A
100
AcDbEntity
  8
SEIHIN
  6
CONTINUOUS
 62
     3
100
AcDbLine
 10
172.0568175868468
 20
510.2173636625481
 30
0.0
 11
172.5198711709455
 21
510.2717081974221
 31
0.0
  0
LINE
  5
18C7
330
1A
100
AcDbEntity
  8
SEIHIN
  6
CONTINUOUS
 62
     3
100
AcDbLine
 10
171.4395891384558
 20
509.9548573563767
 30
0.0
 11
172.0568175868468
 21
510.2173636625481
 31
0.0
  0
LINE
  5
18C8
330
1A
100
AcDbEntity
  8
SEIHIN
  6
CONTINUOUS
 62
     3
100
AcDbLine
 10
175.5198706941083
 20
508.2717071173965
 30
0.0
 11
175.5198706941083
 21
505.6043694654315
 31
0.0
  0
LINE
  5
18C9
330
1A
100
AcDbEntity
  8
SEIHIN
  6
CONTINUOUS
 62
     3
100
AcDbLine
 10
170.5198706941084
 20
502.7717071173967
 30
0.0
 11
170.5198706941084
 21
508.2717071173965
 31
0.0
  0
LINE
  5
18CA
330
1A
100
AcDbEntity
  8
SEIHIN
  6
CONTINUOUS
 62
     3
100
AcDbLine
 10
175.5198706941083
 20
503.6119800692477
 30
0.0
 11
175.5198706941089
 21
497.9889068830736
 31
0.0
  0
LINE
  5
18CB
330
1A
100
AcDbEntity
  8
SEIHIN
  6
CONTINUOUS
 62
     3
100
AcDbLine
 10
175.5198706941089
 20
496.5436206753472
 30
0.0
 11
175.5198706941089
 21
497.9889068830736
 31
0.0
  0
LINE
  5
18CC
330
1A
100
AcDbEntity
  8
SEIHIN
  6
CONTINUOUS
 62
     3
100
AcDbLine
 10
175.5198706941083
 20
503.6119800692477
 30
0.0
 11
175.5198706941083
 21
505.6043694654315
 31
0.0
  0
LINE
  5
18CD
330
1A
100
AcDbEntity
  8
SEIHIN
  6
CONTINUOUS
 62
     3
100
AcDbLine
 10
170.5198671178298
 20
503.6119806538296
 30
0.0
 11
175.5198706941083
 21
503.6119800692477
 31
0.0
  0
LINE
  5
18CE
330
1A
100
AcDbEntity
  8
SEIHIN
  6
CONTINUOUS
 62
     3
100
AcDbLine
 10
170.5198706941084
 20
500.8717071173966
 30
0.0
 11
170.5198706941084
 21
502.7717071173967
 31
0.0
  0
LINE
  5
18CF
330
1A
100
AcDbEntity
  8
SEIHIN
  6
CONTINUOUS
 62
     3
100
AcDbLine
 10
175.5198706941083
 20
508.2717071173965
 30
0.0
 11
175.5198706941083
 21
509.7717071173967
 31
0.0
  0
ARC
  5
18D0
330
1A
100
AcDbEntity
  8
SEIHIN
  6
CONTINUOUS
 62
     3
100
AcDbCircle
 10
172.5198706941083
 20
508.2717071173965
 30
0.0
 40
2.0
100
AcDbArc
 50
122.6931892658081
 51
180.0
  0
LINE
  5
18D1
330
1A
100
AcDbEntity
  8
SEIHIN
  6
CONTINUOUS
 62
     3
100
AcDbLine
 10
145.5198706941084
 20
509.9548571058449
 30
0.0
 11
145.5198706941084
 21
502.7717071173967
 31
0.0
  0
LINE
  5
18D2
330
1A
100
AcDbEntity
  8
SEIHIN
  6
CONTINUOUS
 62
     3
100
AcDbLine
 10
158.5198706941084
 20
507.8205170458547
 30
0.0
 11
158.5198706941084
 21
501.1353491816937
 31
0.0
  0
LINE
  5
18D3
330
1A
100
AcDbEntity
  8
SEIHIN
  6
CONTINUOUS
 62
     3
100
AcDbLine
 10
156.5198706941084
 20
501.1353491816937
 30
0.0
 11
156.5198706941084
 21
507.8205170458547
 31
0.0
  0
LINE
  5
18D4
330
1A
100
AcDbEntity
  8
SEIHIN
  6
CONTINUOUS
 62
     3
100
AcDbLine
 10
156.5198685483411
 20
500.8717055390548
 30
0.0
 11
145.5198706941084
 21
500.8717071173966
 31
0.0
  0
LINE
  5
18D5
330
1A
100
AcDbEntity
  8
SEIHIN
  6
CONTINUOUS
 62
     3
100
AcDbLine
 10
145.5198706941084
 20
500.8717071173966
 30
0.0
 11
145.5198706941088
 21
497.9889068830736
 31
0.0
  0
LINE
  5
18D6
330
1A
100
AcDbEntity
  8
SEIHIN
  6
CONTINUOUS
 62
     3
100
AcDbLine
 10
145.5198706941088
 20
497.9889068830736
 30
0.0
 11
145.5198706941088
 21
496.5436206753472
 31
0.0
  0
LINE
  5
18D7
330
1A
100
AcDbEntity
  8
SEIHIN
  6
CONTINUOUS
 62
     3
100
AcDbLine
 10
145.5198706941084
 20
502.7717071173967
 30
0.0
 11
145.5198706941084
 21
500.8717071173966
 31
0.0
  0
LINE
  5
18D8
330
1A
100
AcDbEntity
  8
SEIHIN
  6
CONTINUOUS
 62
     3
100
AcDbLine
 10
158.5198706941084
 20
501.1353491816937
 30
0.0
 11
156.5198706941084
 21
501.1353491816937
 31
0.0
  0
LINE
  5
18D9
330
1A
100
AcDbEntity
  8
SEIHIN
  6
CONTINUOUS
 62
     3
100
AcDbLine
 10
145.5198706941084
 20
512.9547428750377
 30
0.0
 11
145.5198706941084
 21
509.9548571058449
 31
0.0
  0
LINE
  5
18DA
330
1A
100
AcDbEntity
  8
SEIHIN
  6
CONTINUOUS
 62
     3
100
AcDbLine
 10
158.5198706941084
 20
507.8205170458547
 30
0.0
 11
158.5198706941084
 21
509.8717071173964
 31
0.0
  0
LINE
  5
18DB
330
1A
100
AcDbEntity
  8
SEIHIN
  6
CONTINUOUS
 62
     3
100
AcDbLine
 10
156.5198706941084
 20
509.8717071173964
 30
0.0
 11
156.5198706941084
 21
507.8205170458547
 31
0.0
  0
LINE
  5
18DC
330
1A
100
AcDbEntity
  8
SEIHIN
  6
CONTINUOUS
 62
     3
100
AcDbLine
 10
158.5198706941084
 20
509.8717071173964
 30
0.0
 11
156.5198706941084
 21
509.8717071173964
 31
0.0
  0
LINE
  5
18E6
330
1A
100
AcDbEntity
  8
CENTER_L
  6
CENTER
 62
     1
 48
5.0
100
AcDbLine
 10
260.5198706941088
 20
364.5723686169398
 30
0.0
 11
260.5198706941088
 21
529.4620778573048
 31
0.0
  0
DIMENSION
  5
18E7
330
1A
100
AcDbEntity
  8
SUNPOU
100
AcDbDimension
  2
*D5
 10
375.5198706941086
 20
311.6853741989413
 30
0.0
 11
260.5198706941087
 21
316.6853741989413
 31
0.0
 70
    32
  3
STANDARD
100
AcDbAlignedDimension
 13
145.5198706941088
 23
274.9498079716646
 33
0.0
 14
375.5198706941086
 24
274.9498079716646
 34
0.0
100
AcDbRotatedDimension
1001
ACAD
1000
DSTYLE
1002
{
1070
    41
1040
7.0
1070
    42
1040
6.0
1070
    43
1040
14.0
1070
    44
1040
3.0
1070
    73
1070
     0
1070
    74
1070
     0
1070
    77
1070
     3
1070
   140
1040
6.0
1070
   141
1040
150.0
1070
   147
1040
2.0
1070
   172
1070
     1
1070
   173
1070
     1
1070
   176
1070
   256
1070
   177
1070
   256
1070
   178
1070
   256
1070
   271
1070
     0
1070
   272
1070
     0
1070
   341
1005
6D
1070
     6
1000
OPEN
1070
     7
1000
OPEN
1070
   371
1070
    -1
1070
   372
1070
    -1
1002
}
  0
LINE
  5
18F4
330
1A
100
AcDbEntity
  8
SEIHIN
  6
CONTINUOUS
 62
     3
100
AcDbLine
 10
350.3524746255356
 20
275.1185425456224
 30
0.0
 11
373.972871478029
 21
275.0323169763743
 31
0.0
  0
LINE
  5
18F5
330
1A
100
AcDbEntity
  8
SEIHIN
  6
CONTINUOUS
 62
     3
100
AcDbLine
 10
373.972871478029
 20
275.0323169763743
 30
0.0
 11
375.5198706941086
 21
274.9498079716655
 31
0.0
  0
LWPOLYLINE
  5
18F6
330
1A
100
AcDbEntity
  8
SEIHIN
  6
CONTINUOUS
 62
     3
100
AcDbPolyline
 90
        2
 70
   128
 43
0.0
 10
373.7399760510939
 20
275.0331671543323
 10
373.9324297265488
 20
275.0344701941668
  0
LWPOLYLINE
  5
18F7
330
1A
100
AcDbEntity
  8
SEIHIN
  6
CONTINUOUS
 62
     3
100
AcDbPolyline
 90
        5
 70
   128
 43
0.0
 10
350.3524746255356
 20
275.1110398109612
 10
350.1544307426888
 20
275.098567539042
 10
349.7205536322076
 20
275.0279881890473
 10
349.1283293322998
 20
274.9490567382035
 10
348.5198702172715
 20
274.9192544158158
  0
LINE
  5
18F8
330
1A
100
AcDbEntity
  8
CENTER_L
  6
CENTER
 62
     1
 48
5.0
100
AcDbLine
 10
577.118623484167
 20
153.4393577556871
 30
0.0
 11
577.118623484167
 21
172.6826171690904
 31
0.0
  0
DIMENSION
  5
18FA
330
1A
100
AcDbEntity
  8
SUNPOU
100
AcDbDimension
  2
*D6
 10
584.7699805273276
 20
192.8829067861291
 30
0.0
 11
580.9443020057474
 21
201.8829067861291
 31
0.0
 70
    32
  3
STANDARD
100
AcDbAlignedDimension
 13
577.118623484167
 23
172.6826171690904
 33
0.0
 14
584.7699805273276
 24
149.4174654450874
 34
0.0
100
AcDbRotatedDimension
1001
ACAD
1000
DSTYLE
1002
{
1070
   287
1070
     5
1070
   287
1070
     5
1070
   287
1070
     5
1070
   287
1070
     5
1070
   287
1070
     5
1070
   287
1070
     5
1070
   287
1070
     5
1070
   287
1070
     5
1070
   287
1070
     5
1070
   287
1070
     5
1070
   287
1070
     5
1070
    41
1040
7.0
1070
    42
1040
6.0
1070
    43
1040
14.0
1070
    44
1040
3.0
1070
    73
1070
     0
1070
    74
1070
     0
1070
    77
1070
     3
1070
   140
1040
6.0
1070
   141
1040
150.0
1070
   147
1040
2.0
1070
   172
1070
     1
1070
   173
1070
     1
1070
   176
1070
   256
1070
   177
1070
   256
1070
   178
1070
   256
1070
   271
1070
     0
1070
   272
1070
     0
1070
   279
1070
     2
1070
   341
1005
6D
1070
     6
1000
OPEN
1070
     7
1000
OPEN
1070
   371
1070
    -1
1070
   372
1070
    -1
1002
}
  0
DIMENSION
  5
1914
330
1A
100
AcDbEntity
  8
SUNPOU
100
AcDbDimension
  2
*D7
 10
626.351662334479
 20
311.6853741989413
 30
0.0
 11
557.8028081063735
 21
316.6853741989413
 31
0.0
 70
    32
  3
STANDARD
100
AcDbAlignedDimension
 13
489.2539538782681
 23
271.6623156164926
 33
0.0
 14
626.351662334479
 24
248.8843308079315
 34
0.0
100
AcDbRotatedDimension
1001
ACAD
1000
DSTYLE
1002
{
1070
   287
1070
     5
1070
   287
1070
     5
1070
   287
1070
     5
1070
   287
1070
     5
1070
   287
1070
     5
1070
   287
1070
     5
1070
   287
1070
     5
1070
   287
1070
     5
1070
   287
1070
     5
1070
   287
1070
     5
1070
   287
1070
     5
1070
    41
1040
7.0
1070
    42
1040
6.0
1070
    43
1040
14.0
1070
    44
1040
3.0
1070
    73
1070
     0
1070
    74
1070
     0
1070
    77
1070
     3
1070
   140
1040
6.0
1070
   141
1040
150.0
1070
   147
1040
2.0
1070
   172
1070
     1
1070
   173
1070
     1
1070
   176
1070
   256
1070
   177
1070
   256
1070
   178
1070
   256
1070
   271
1070
     0
1070
   272
1070
     0
1070
   279
1070
     2
1070
   341
1005
6D
1070
     6
1000
OPEN
1070
     7
1000
OPEN
1070
   371
1070
    -1
1070
   372
1070
    -1
1002
}
  0
DIMENSION
  5
1921
330
1A
100
AcDbEntity
  8
SUNPOU
100
AcDbDimension
  2
*D8
 10
673.6927434423623
 20
251.9105104144266
 30
0.0
 11
668.6927434423624
 21
205.9105161273832
 31
0.0
 70
    32
  3
STANDARD
100
AcDbAlignedDimension
 13
577.118623484167
 23
159.9105218403395
 33
0.0
 14
623.268628336361
 24
251.9105104144266
 34
0.0
 50
90.0
100
AcDbRotatedDimension
1001
ACAD
1000
DSTYLE
1002
{
1070
   287
1070
     5
1070
   287
1070
     5
1070
   287
1070
     5
1070
   287
1070
     5
1070
   287
1070
     5
1070
   287
1070
     5
1070
   287
1070
     5
1070
   287
1070
     5
1070
   287
1070
     5
1070
   287
1070
     5
1070
   287
1070
     5
1070
    41
1040
7.0
1070
    42
1040
6.0
1070
    43
1040
14.0
1070
    44
1040
3.0
1070
    73
1070
     0
1070
    74
1070
     0
1070
    77
1070
     3
1070
   140
1040
6.0
1070
   141
1040
150.0
1070
   147
1040
2.0
1070
   172
1070
     1
1070
   173
1070
     1
1070
   176
1070
   256
1070
   177
1070
   256
1070
   178
1070
   256
1070
   271
1070
     0
1070
   272
1070
     0
1070
   279
1070
     2
1070
   341
1005
6D
1070
     6
1000
OPEN
1070
     7
1000
OPEN
1070
   371
1070
    -1
1070
   372
1070
    -1
1002
}
  0
DIMENSION
  5
194B
330
1A
100
AcDbEntity
  8
SUNPOU
100
AcDbDimension
  2
*D9
 10
445.777297602894
 20
159.9105218403396
 30
0.0
 11
440.7772976028939
 21
217.4506397390718
 31
0.0
 70
    32
  3
STANDARD
100
AcDbAlignedDimension
 13
492.2138320578796
 23
274.9907576378039
 33
0.0
 14
577.118623484167
 24
159.9105218403395
 34
0.0
 50
90.0
100
AcDbRotatedDimension
1001
ACAD
1000
DSTYLE
1002
{
1070
   287
1070
     5
1070
   287
1070
     5
1070
   287
1070
     5
1070
   287
1070
     5
1070
   287
1070
     5
1070
   287
1070
     5
1070
   287
1070
     5
1070
   287
1070
     5
1070
   287
1070
     5
1070
   287
1070
     5
1070
   287
1070
     5
1070
    41
1040
7.0
1070
    42
1040
6.0
1070
    43
1040
14.0
1070
    44
1040
3.0
1070
    73
1070
     0
1070
    74
1070
     0
1070
    77
1070
     3
1070
   140
1040
6.0
1070
   141
1040
150.0
1070
   147
1040
2.0
1070
   172
1070
     1
1070
   173
1070
     1
1070
   176
1070
   256
1070
   177
1070
   256
1070
   178
1070
   256
1070
   271
1070
     0
1070
   272
1070
     0
1070
   279
1070
     2
1070
   341
1005
6D
1070
     6
1000
OPEN
1070
     7
1000
OPEN
1070
   371
1070
    -1
1070
   372
1070
    -1
1002
}
  0
DIMENSION
  5
1958
330
1A
100
AcDbEntity
  8
SUNPOU
100
AcDbDimension
  2
*D10
 10
445.777297602894
 20
139.9105104144266
 30
0.0
 11
440.7772976028939
 21
149.9105161273831
 31
0.0
 70
    32
  3
STANDARD
100
AcDbAlignedDimension
 13
577.118623484167
 23
159.9105218403395
 33
0.0
 14
545.4760951866013
 24
139.9105104144265
 34
0.0
 50
90.0
100
AcDbRotatedDimension
1001
ACAD
1000
DSTYLE
1002
{
1070
   287
1070
     5
1070
   287
1070
     5
1070
   287
1070
     5
1070
   287
1070
     5
1070
   287
1070
     5
1070
   287
1070
     5
1070
   287
1070
     5
1070
   287
1070
     5
1070
   287
1070
     5
1070
   287
1070
     5
1070
   287
1070
     5
1070
    41
1040
7.0
1070
    42
1040
6.0
1070
    43
1040
14.0
1070
    44
1040
3.0
1070
    73
1070
     0
1070
    74
1070
     0
1070
    77
1070
     3
1070
   140
1040
6.0
1070
   141
1040
150.0
1070
   147
1040
2.0
1070
   172
1070
     1
1070
   173
1070
     1
1070
   176
1070
   256
1070
   177
1070
   256
1070
   178
1070
   256
1070
   271
1070
     0
1070
   272
1070
     0
1070
   279
1070
     2
1070
   341
1005
6D
1070
     6
1000
OPEN
1070
     7
1000
OPEN
1070
   371
1070
    -1
1070
   372
1070
    -1
1002
}
  0
DIMENSION
  5
1965
330
1A
100
AcDbEntity
  8
SUNPOU
100
AcDbDimension
  2
*D11
 10
445.777297602894
 20
96.21051041442672
 30
0.0
 11
440.777297602894
 21
118.0605104144267
 31
0.0
 70
    32
  3
STANDARD
100
AcDbAlignedDimension
 13
545.4760951866013
 23
139.9105104144265
 33
0.0
 14
557.0699805273276
 24
96.21051041442669
 34
0.0
 50
90.0
100
AcDbRotatedDimension
1001
ACAD
1000
DSTYLE
1002
{
1070
   287
1070
     5
1070
   287
1070
     5
1070
   287
1070
     5
1070
   287
1070
     5
1070
   287
1070
     5
1070
   287
1070
     5
1070
   287
1070
     5
1070
   287
1070
     5
1070
   287
1070
     5
1070
   287
1070
     5
1070
   287
1070
     5
1070
    41
1040
7.0
1070
    42
1040
6.0
1070
    43
1040
14.0
1070
    44
1040
3.0
1070
    73
1070
     0
1070
    74
1070
     0
1070
    77
1070
     3
1070
   140
1040
6.0
1070
   141
1040
150.0
1070
   147
1040
2.0
1070
   172
1070
     1
1070
   173
1070
     1
1070
   176
1070
   256
1070
   177
1070
   256
1070
   178
1070
   256
1070
   271
1070
     0
1070
   272
1070
     0
1070
   279
1070
     2
1070
   341
1005
6D
1070
     6
1000
OPEN
1070
     7
1000
OPEN
1070
   371
1070
    -1
1070
   372
1070
    -1
1002
}
  0
DIMENSION
  5
1972
330
1A
100
AcDbEntity
  8
SUNPOU
100
AcDbDimension
  2
*D12
 10
430.9886337376196
 20
96.21051041442674
 30
0.0
 11
425.9886337376196
 21
185.6006340261154
 31
0.0
 70
    32
  3
STANDARD
100
AcDbAlignedDimension
 13
486.2138320578797
 23
274.9907576378039
 33
0.0
 14
551.0699805273276
 24
96.21051041442669
 34
0.0
 50
90.0
100
AcDbRotatedDimension
1001
ACAD
1000
DSTYLE
1002
{
1070
   287
1070
     5
1070
   287
1070
     5
1070
   287
1070
     5
1070
   287
1070
     5
1070
   287
1070
     5
1070
   287
1070
     5
1070
   287
1070
     5
1070
   287
1070
     5
1070
   287
1070
     5
1070
   287
1070
     5
1070
   287
1070
     5
1070
    41
1040
7.0
1070
    42
1040
6.0
1070
    43
1040
14.0
1070
    44
1040
3.0
1070
    73
1070
     0
1070
    74
1070
     0
1070
    77
1070
     3
1070
   140
1040
6.0
1070
   141
1040
150.0
1070
   147
1040
2.0
1070
   172
1070
     1
1070
   173
1070
     1
1070
   176
1070
   256
1070
   177
1070
   256
1070
   178
1070
   256
1070
   271
1070
     0
1070
   272
1070
     0
1070
   279
1070
     2
1070
   341
1005
6D
1070
     6
1000
OPEN
1070
     7
1000
OPEN
1070
   371
1070
    -1
1070
   372
1070
    -1
1002
}
  0
LINE
  5
1F3B
330
1A
100
AcDbEntity
  8
SUNPOU
  6
PHANTOM
 62
     4
 48
5.0
100
AcDbLine
 10
218.0198706941087
 20
364.57236861694
 30
0.0
 11
218.0198706941087
 21
512.9547428750377
 31
0.0
  0
LINE
  5
1F3C
330
1A
100
AcDbEntity
  8
SUNPOU
  6
PHANTOM
 62
     4
 48
5.0
100
AcDbLine
 10
303.0198706941086
 20
364.57236861694
 30
0.0
 11
303.0198706941086
 21
512.9547428750377
 31
0.0
  0
DIMENSION
  5
1F3E
330
1A
100
AcDbEntity
  8
SUNPOU
100
AcDbDimension
  2
*D13
 10
303.0198706941086
 20
340.0910288773325
 30
0.0
 11
260.5198706941087
 21
345.0910288773325
 31
0.0
 70
    32
  3
STANDARD
100
AcDbAlignedDimension
 13
218.0198706941087
 23
364.57236861694
 33
0.0
 14
303.0198706941086
 24
364.57236861694
 34
0.0
100
AcDbRotatedDimension
1001
ACAD
1000
DSTYLE
1002
{
1070
   287
1070
     5
1070
   287
1070
     5
1070
   287
1070
     5
1070
   287
1070
     5
1070
   287
1070
     5
1070
   287
1070
     5
1070
   287
1070
     5
1070
   287
1070
     5
1070
   287
1070
     5
1070
   287
1070
     5
1070
   287
1070
     5
1070
    41
1040
7.0
1070
    42
1040
6.0
1070
    43
1040
14.0
1070
    44
1040
3.0
1070
    73
1070
     0
1070
    74
1070
     0
1070
    77
1070
     3
1070
   140
1040
6.0
1070
   141
1040
150.0
1070
   147
1040
2.0
1070
   172
1070
     1
1070
   173
1070
     1
1070
   176
1070
   256
1070
   177
1070
   256
1070
   178
1070
   256
1070
   271
1070
     0
1070
   272
1070
     0
1070
   279
1070
     2
1070
   341
1005
6D
1070
     6
1000
OPEN
1070
     7
1000
OPEN
1070
   371
1070
    -1
1070
   372
1070
    -1
1002
}
  0
DIMENSION
  5
1F4B
330
1A
100
AcDbEntity
  8
SUNPOU
100
AcDbDimension
  2
*D14
 10
375.5198706941091
 20
340.0910288773325
 30
0.0
 11
339.2698706941088
 21
345.0910288773325
 31
0.0
 70
    32
  1
\U+203B<>
  3
STANDARD
100
AcDbAlignedDimension
 13
303.0198706941086
 23
364.57236861694
 33
0.0
 14
375.5198706941091
 24
376.6298423898653
 34
0.0
100
AcDbRotatedDimension
1001
ACAD
1000
DSTYLE
1002
{
1070
   287
1070
     5
1070
   287
1070
     5
1070
   287
1070
     5
1070
   287
1070
     5
1070
   287
1070
     5
1070
   287
1070
     5
1070
   287
1070
     5
1070
   287
1070
     5
1070
   287
1070
     5
1070
   287
1070
     5
1070
   287
1070
     5
1070
    41
1040
7.0
1070
    42
1040
6.0
1070
    43
1040
14.0
1070
    44
1040
3.0
1070
    73
1070
     0
1070
    74
1070
     0
1070
    77
1070
     3
1070
   140
1040
6.0
1070
   141
1040
150.0
1070
   147
1040
2.0
1070
   172
1070
     1
1070
   173
1070
     1
1070
   176
1070
   256
1070
   177
1070
   256
1070
   178
1070
   256
1070
   271
1070
     0
1070
   272
1070
     0
1070
   279
1070
     2
1070
   341
1005
6D
1070
     6
1000
OPEN
1070
     7
1000
OPEN
1070
   371
1070
    -1
1070
   372
1070
    -1
1002
}
  0
DIMENSION
  5
1F62
330
1A
100
AcDbEntity
  8
SUNPOU
100
AcDbDimension
  2
*D15
 10
375.5198706941086
 20
443.5768148045146
 30
0.0
 11
360.5198706941086
 21
448.5768148045146
 31
0.0
 70
    32
  3
STANDARD
100
AcDbAlignedDimension
 13
345.5198706941086
 23
443.5768148045146
 33
0.0
 14
375.5198706941086
 24
443.5768148045146
 34
0.0
100
AcDbRotatedDimension
1001
ACAD
1000
DSTYLE
1002
{
1070
   287
1070
     5
1070
   287
1070
     5
1070
   287
1070
     5
1070
   287
1070
     5
1070
   287
1070
     5
1070
   287
1070
     5
1070
   287
1070
     5
1070
   287
1070
     5
1070
   287
1070
     5
1070
   287
1070
     5
1070
   287
1070
     5
1070
    41
1040
7.0
1070
    42
1040
6.0
1070
    43
1040
14.0
1070
    44
1040
3.0
1070
    73
1070
     0
1070
    74
1070
     0
1070
    77
1070
     3
1070
   140
1040
6.0
1070
   141
1040
150.0
1070
   147
1040
2.0
1070
   172
1070
     1
1070
   173
1070
     1
1070
   176
1070
   256
1070
   177
1070
   256
1070
   178
1070
   256
1070
   271
1070
     0
1070
   272
1070
     0
1070
   279
1070
     2
1070
   341
1005
6D
1070
     6
1000
OPEN
1070
     7
1000
OPEN
1070
   371
1070
    -1
1070
   372
1070
    -1
1002
}
  0
DIMENSION
  5
1F85
330
1A
100
AcDbEntity
  8
SUNPOU
100
AcDbDimension
  2
*D16
 10
613.9699805273277
 20
64.58599564194361
 30
0.0
 11
584.7699805273276
 21
69.58599564194361
 31
0.0
 70
    32
  1
φ<>
  3
STANDARD
100
AcDbAlignedDimension
 13
555.5699805273276
 23
106.2105104144265
 33
0.0
 14
613.9699805273277
 24
106.2105104144265
 34
0.0
100
AcDbRotatedDimension
1001
ACAD
1000
DSTYLE
1002
{
1070
   287
1070
     5
1070
   287
1070
     5
1070
   287
1070
     5
1070
   287
1070
     5
1070
   287
1070
     5
1070
   287
1070
     5
1070
   287
1070
     5
1070
   287
1070
     5
1070
   287
1070
     5
1070
   287
1070
     5
1070
   287
1070
     5
1070
    41
1040
7.0
1070
    42
1040
6.0
1070
    43
1040
14.0
1070
    44
1040
3.0
1070
    73
1070
     0
1070
    74
1070
     0
1070
    77
1070
     3
1070
   140
1040
6.0
1070
   141
1040
150.0
1070
   147
1040
2.0
1070
   172
1070
     1
1070
   173
1070
     1
1070
   176
1070
   256
1070
   177
1070
   256
1070
   178
1070
   256
1070
   271
1070
     0
1070
   272
1070
     0
1070
   279
1070
     2
1070
   341
1005
6D
1070
     6
1000
OPEN
1070
     7
1000
OPEN
1070
   371
1070
    -1
1070
   372
1070
    -1
1002
}
  0
ARC
  5
2062
330
1A
100
AcDbEntity
  8
NOKITOI
  6
PHANTOM
 62
     8
 48
5.0
100
AcDbCircle
 10
506.7276584333273
 20
262.3105000210987
 30
0.0
 40
2.0
100
AcDbArc
 50
270.0
 51
0.0
  0
ARC
  5
2063
330
1A
100
AcDbEntity
  8
NOKITOI
  6
PHANTOM
 62
     8
 48
5.0
100
AcDbCircle
 10
504.6159111511768
 20
260.8105000210986
 30
0.0
 40
0.5000000000000746
100
AcDbArc
 50
170.7273982228023
 51
270.0
  0
ARC
  5
2064
330
1A
100
AcDbEntity
  8
NOKITOI
  6
PHANTOM
 62
     8
 48
5.0
100
AcDbCircle
 10
504.5330139674327
 20
258.2105000210986
 30
0.0
 40
8.299999999999959
100
AcDbArc
 50
100.7153641846337
 51
167.151909786181
  0
LINE
  5
2065
330
1A
100
AcDbEntity
  8
NOKITOI
  6
PHANTOM
 62
     8
 48
5.0
100
AcDbLine
 10
493.7276584333273
 20
267.652999270348
 30
0.0
 11
496.4408205862688
 21
260.056145242112
 31
0.0
  0
ARC
  5
2066
330
1A
100
AcDbEntity
  8
NOKITOI
  6
PHANTOM
 62
     8
 48
5.0
100
AcDbCircle
 10
504.5330139674327
 20
258.2105000210986
 30
0.0
 40
6.999999999999959
100
AcDbArc
 50
105.8737907964528
 51
199.6538240580533
  0
LINE
  5
2067
330
1A
100
AcDbEntity
  8
NOKITOI
  6
PHANTOM
 62
     8
 48
5.0
100
AcDbLine
 10
492.3276584333271
 20
267.4105000210988
 30
0.0
 11
497.2565516187203
 21
253.609599101999
 31
0.0
  0
ARC
  5
2068
330
1A
100
AcDbEntity
  8
NOKITOI
  6
PHANTOM
 62
     8
 48
5.0
100
AcDbCircle
 10
510.2276584333278
 20
253.8105000210989
 30
0.0
 40
1.0
100
AcDbArc
 50
0.0
 51
90.0
  0
ARC
  5
2069
330
1A
100
AcDbEntity
  8
NOKITOI
  6
PHANTOM
 62
     8
 48
5.0
100
AcDbCircle
 10
1471.994098349058
 20
517.8728678811201
 30
0.0
 40
1000.000000000001
100
AcDbArc
 50
195.8108447710348
 51
200.0478728188271
  0
LINE
  5
206A
330
1A
100
AcDbEntity
  8
NOKITOI
  6
PHANTOM
 62
     8
 48
5.0
100
AcDbLine
 10
509.8276584333278
 20
245.4105000210967
 30
0.0
 11
509.8276584333273
 21
252.4105000210988
 31
0.0
  0
LINE
  5
206B
330
1A
100
AcDbEntity
  8
NOKITOI
  6
PHANTOM
 62
     8
 48
5.0
100
AcDbLine
 10
509.8276584333273
 20
252.4105000210988
 30
0.0
 11
509.8276584333273
 21
245.4105000210981
 31
0.0
  0
LINE
  5
206C
330
1A
100
AcDbEntity
  8
NOKITOI
  6
PHANTOM
 62
     8
 48
5.0
100
AcDbLine
 10
510.2276584333278
 20
254.8105000210989
 30
0.0
 11
499.018984504296
 21
254.8105000210985
 31
0.0
  0
LINE
  5
206D
330
1A
100
AcDbEntity
  8
NOKITOI
  6
PHANTOM
 62
     8
 48
5.0
100
AcDbLine
 10
508.8276584333272
 20
253.4105000210988
 30
0.0
 11
497.5390741921985
 21
253.4105000210985
 31
0.0
  0
LINE
  5
206E
330
1A
100
AcDbEntity
  8
NOKITOI
  6
PHANTOM
 62
     8
 48
5.0
100
AcDbLine
 10
497.9408205862688
 20
255.8561452421117
 30
0.0
 11
498.0772425927013
 21
255.4741636241005
 31
0.0
  0
ARC
  5
206F
330
1A
100
AcDbEntity
  8
NOKITOI
  6
PHANTOM
 62
     8
 48
5.0
100
AcDbCircle
 10
499.018984504296
 20
255.8105000210985
 30
0.0
 40
0.999999999999979
100
AcDbArc
 50
199.6538240580533
 51
270.0
  0
ARC
  5
2070
330
1A
100
AcDbEntity
  8
NOKITOI
  6
PHANTOM
 62
     8
 48
5.0
100
AcDbCircle
 10
497.5390741921985
 20
253.7105000210984
 30
0.0
 40
0.3
100
AcDbArc
 50
199.6538240580533
 51
270.0
  0
ARC
  5
2071
330
1A
100
AcDbEntity
  8
NOKITOI
  6
PHANTOM
 62
     8
 48
5.0
100
AcDbCircle
 10
508.8276584333272
 20
252.4105000210988
 30
0.0
 40
1.0
100
AcDbArc
 50
0.0
 51
90.0
  0
LINE
  5
2072
330
1A
100
AcDbEntity
  8
NOKITOI
  6
PHANTOM
 62
     8
 48
5.0
100
AcDbLine
 10
504.6159110613983
 20
260.3105000210987
 30
0.0
 11
504.6159110198972
 21
260.3105000210987
 31
0.0
  0
LINE
  5
2073
330
1A
100
AcDbEntity
  8
NOKITOI
  6
PHANTOM
 62
     8
 48
5.0
100
AcDbLine
 10
506.7276584333273
 20
260.3105000210987
 30
0.0
 11
504.6159110613983
 21
260.3105000210987
 31
0.0
  0
LINE
  5
2074
330
1A
100
AcDbEntity
  8
NOKITOI
  6
PHANTOM
 62
     8
 48
5.0
100
AcDbLine
 10
616.7987234375353
 20
249.4501352971791
 30
0.0
 11
610.1730091043187
 21
166.1296089827064
 31
0.0
  0
LINE
  5
2075
330
1A
100
AcDbEntity
  8
NOKITOI
  6
PHANTOM
 62
     8
 48
5.0
100
AcDbLine
 10
616.9276584333272
 20
233.4105000210988
 30
0.0
 11
611.4693013965094
 21
164.7698737810041
 31
0.0
  0
LINE
  5
2076
330
1A
100
AcDbEntity
  8
NOKITOI
  6
PHANTOM
 62
     8
 48
5.0
100
AcDbLine
 10
539.5621132610101
 20
173.7410240572645
 30
0.0
 11
542.8751121828407
 21
164.2808940684949
 31
0.0
  0
LINE
  5
2077
330
1A
100
AcDbEntity
  8
NOKITOI
  6
PHANTOM
 62
     8
 48
5.0
100
AcDbLine
 10
540.5551931064685
 20
175.1410240572646
 30
0.0
 11
543.8792498565368
 21
165.6493189020094
 31
0.0
  0
ARC
  5
2079
330
1A
100
AcDbEntity
  8
NOKITOI
  6
PHANTOM
 62
     8
 48
5.0
100
AcDbCircle
 10
577.3276584333272
 20
1162.410500021098
 30
0.0
 40
999.9999999999996
100
AcDbArc
 50
268.1300946705856
 51
271.8459516885245
  0
ARC
  5
207A
330
1A
100
AcDbEntity
  8
NOKITOI
  6
PHANTOM
 62
     8
 48
5.0
100
AcDbCircle
 10
577.3276584333272
 20
1162.410500021098
 30
0.0
 40
998.5999999999997
100
AcDbArc
 50
268.185225968898
 51
271.773983013799
  0
ARC
  5
207B
330
1A
100
AcDbEntity
  8
NOKITOI
  6
PHANTOM
 62
     8
 48
5.0
100
AcDbCircle
 10
544.7627073317183
 20
164.9419421408266
 30
0.0
 40
2.000000000000188
100
AcDbArc
 50
199.3005854307805
 51
268.1300946705856
  0
ARC
  5
207C
330
1A
100
AcDbEntity
  8
NOKITOI
  6
PHANTOM
 62
     8
 48
5.0
100
AcDbCircle
 10
545.7668450054145
 20
166.3103669743409
 30
0.0
 40
2.00000000000015
100
AcDbArc
 50
199.3005854307773
 51
268.185225968898
  0
ARC
  5
207D
330
1A
100
AcDbEntity
  8
NOKITOI
  6
PHANTOM
 62
     8
 48
5.0
100
AcDbCircle
 10
608.1793028274967
 20
166.2881500870281
 30
0.0
 40
1.999999999999996
100
AcDbArc
 50
271.773983013799
 51
355.4533617064201
  0
ARC
  5
207E
330
1A
100
AcDbEntity
  8
NOKITOI
  6
PHANTOM
 62
     8
 48
5.0
100
AcDbCircle
 10
609.4755951196872
 20
164.9284148853259
 30
0.0
 40
1.999999999999998
100
AcDbArc
 50
271.8459516885245
 51
355.4533617064201
  0
ARC
  5
207F
330
1A
100
AcDbEntity
  8
NOKITOI
  6
PHANTOM
 62
     8
 48
5.0
100
AcDbCircle
 10
1471.994098349058
 20
517.8728678811201
 30
0.0
 40
998.6000000000013
100
AcDbArc
 50
195.8219949179074
 51
199.9513743718404
  0
ARC
  5
2080
330
1A
100
AcDbEntity
  8
NOKITOI
  6
PHANTOM
 62
     8
 48
5.0
100
AcDbCircle
 10
535.207491930373
 20
177.8105000210985
 30
0.0
 40
2.000000000000107
100
AcDbArc
 50
199.9513743718489
 51
270.0
  0
LINE
  5
2081
330
1A
100
AcDbEntity
  8
NOKITOI
  6
PHANTOM
 62
     8
 48
5.0
100
AcDbLine
 10
538.6183156865711
 20
174.4105000210988
 30
0.0
 11
533.5269829956704
 21
174.4105000210985
 31
0.0
  0
ARC
  5
2082
330
1A
100
AcDbEntity
  8
NOKITOI
  6
PHANTOM
 62
     8
 48
5.0
100
AcDbCircle
 10
533.5269829956703
 20
175.4105000210985
 30
0.0
 40
1.0
100
AcDbArc
 50
200.0478728188226
 51
270.0
  0
ARC
  5
2083
330
1A
100
AcDbEntity
  8
NOKITOI
  6
PHANTOM
 62
     8
 48
5.0
100
AcDbCircle
 10
539.6113955320299
 20
174.8105000210985
 30
0.0
 40
1.0
100
AcDbArc
 50
19.30058543078055
 51
90.0
  0
ARC
  5
2084
330
1A
100
AcDbEntity
  8
NOKITOI
  6
PHANTOM
 62
     8
 48
5.0
100
AcDbCircle
 10
538.6183156865711
 20
173.4105000210988
 30
0.0
 40
1.0
100
AcDbArc
 50
19.30058543077746
 51
90.0
  0
LINE
  5
2085
330
1A
100
AcDbEntity
  8
NOKITOI
  6
PHANTOM
 62
     8
 48
5.0
100
AcDbLine
 10
539.6113955320299
 20
175.8105000210985
 30
0.0
 11
535.207491930373
 21
175.8105000210985
 31
0.0
  0
LINE
  5
2086
330
1A
100
AcDbEntity
  8
NOKITOI
  6
PHANTOM
 62
     8
 48
5.0
100
AcDbLine
 10
511.2276584333279
 20
245.6049705232889
 30
0.0
 11
511.2276584333279
 21
253.8105000210989
 31
0.0
  0
LINE
  5
2087
330
1A
100
AcDbEntity
  8
NOKITOI
  6
PHANTOM
 62
     8
 48
5.0
100
AcDbLine
 10
622.9276584333272
 20
246.9105000210986
 30
0.0
 11
622.9276584333272
 21
232.7935952105832
 31
0.0
  0
LINE
  5
2088
330
1A
100
AcDbEntity
  8
NOKITOI
  6
PHANTOM
 62
     8
 48
5.0
100
AcDbLine
 10
621.5276584333276
 20
246.3306010337763
 30
0.0
 11
621.5276584333276
 21
234.8105000210988
 31
0.0
  0
LINE
  5
2089
330
1A
100
AcDbEntity
  8
NOKITOI
  6
PHANTOM
 62
     8
 48
5.0
100
AcDbLine
 10
618.0281067294302
 20
248.5105000210986
 30
0.0
 11
616.9386718640951
 21
234.8105000210988
 31
0.0
  0
LINE
  5
208A
330
1A
100
AcDbEntity
  8
NOKITOI
  6
PHANTOM
 62
     8
 48
5.0
100
AcDbLine
 10
616.9276584333276
 20
233.4105000210988
 30
0.0
 11
620.4276584333272
 21
233.4105000210988
 31
0.0
  0
LINE
  5
208B
330
1A
100
AcDbEntity
  8
NOKITOI
  6
PHANTOM
 62
     8
 48
5.0
100
AcDbLine
 10
616.9386718640947
 20
234.8105000210988
 30
0.0
 11
621.5276584333276
 21
234.8105000210988
 31
0.0
  0
ARC
  5
208C
330
1A
100
AcDbEntity
  8
NOKITOI
  6
PHANTOM
 62
     8
 48
5.0
100
AcDbCircle
 10
622.4276584333272
 20
232.7935952105832
 30
0.0
 40
0.5000000000000169
100
AcDbArc
 50
239.0362434679245
 51
0.0
  0
LINE
  5
208D
330
1A
100
AcDbEntity
  8
NOKITOI
  6
PHANTOM
 62
     8
 48
5.0
100
AcDbLine
 10
620.4276584333272
 20
233.4105000210988
 30
0.0
 11
622.1704105556137
 21
232.364848747727
 31
0.0
  0
LINE
  5
208E
330
1A
100
AcDbEntity
  8
NOKITOI
  6
PHANTOM
 62
     8
 48
5.0
100
AcDbLine
 10
619.9276584333277
 20
249.9105000210988
 30
0.0
 11
622.9276584333272
 21
246.9105000210986
 31
0.0
  0
LINE
  5
208F
330
1A
100
AcDbEntity
  8
NOKITOI
  6
PHANTOM
 62
     8
 48
5.0
100
AcDbLine
 10
618.0281067294297
 20
248.5105000210986
 30
0.0
 11
619.3477594460053
 21
248.5105000210986
 31
0.0
  0
LINE
  5
2090
330
1A
100
AcDbEntity
  8
NOKITOI
  6
PHANTOM
 62
     8
 48
5.0
100
AcDbLine
 10
619.3477594460053
 20
248.5105000210986
 30
0.0
 11
621.5276584333276
 21
246.3306010337763
 31
0.0
  0
ARC
  5
2091
330
1A
100
AcDbEntity
  8
NOKITOI
  6
PHANTOM
 62
     8
 48
5.0
100
AcDbCircle
 10
617.2971500067407
 20
249.4105000210988
 30
0.0
 40
0.5
100
AcDbArc
 50
90.0
 51
175.4533617064201
  0
LINE
  5
2092
330
1A
100
AcDbEntity
  8
NOKITOI
  6
PHANTOM
 62
     8
 48
5.0
100
AcDbLine
 10
617.2971500067407
 20
249.9105000210988
 30
0.0
 11
619.9276584333277
 21
249.9105000210988
 31
0.0
  0
ARC
  5
2093
330
1A
100
AcDbEntity
  8
NOKITOI
  6
PHANTOM
 62
     8
 48
5.0
100
AcDbCircle
 10
494.3276584333276
 20
270.84894720829
 30
0.0
 40
0.6
100
AcDbArc
 50
75.96375653206639
 51
180.0
  0
ARC
  5
2094
330
1A
100
AcDbEntity
  8
NOKITOI
  6
PHANTOM
 62
     8
 48
5.0
100
AcDbCircle
 10
494.3276584333273
 20
270.8489472082898
 30
0.0
 40
2.0
100
AcDbArc
 50
75.96375653207984
 51
180.0
  0
LINE
  5
2095
330
1A
100
AcDbEntity
  8
NOKITOI
  6
PHANTOM
 62
     8
 48
5.0
100
AcDbLine
 10
492.3276584333271
 20
267.4105000210988
 30
0.0
 11
492.3276584333271
 21
270.8489472082898
 31
0.0
  0
LINE
  5
2096
330
1A
100
AcDbEntity
  8
NOKITOI
  6
PHANTOM
 62
     8
 48
5.0
100
AcDbLine
 10
493.7276584333273
 20
267.652999270348
 30
0.0
 11
493.7276584333278
 21
270.84894720829
 31
0.0
  0
ARC
  5
2097
330
1A
100
AcDbEntity
  8
NOKITOI
  6
PHANTOM
 62
     8
 48
5.0
100
AcDbCircle
 10
496.0033466666678
 20
272.1823450408423
 30
0.0
 40
0.3000000000000382
100
AcDbArc
 50
354.2894068625094
 51
75.96375653206639
  0
LINE
  5
2098
330
1A
100
AcDbEntity
  8
NOKITOI
  6
PHANTOM
 62
     8
 48
5.0
100
AcDbLine
 10
496.2766232140389
 20
267.9540392524183
 30
0.0
 11
503.0743267039258
 21
266.883534765822
 31
0.0
  0
LINE
  5
2099
330
1A
100
AcDbEntity
  8
NOKITOI
  6
PHANTOM
 62
     8
 48
5.0
100
AcDbLine
 10
496.4944115650697
 20
269.336995590903
 30
0.0
 11
507.0387847170161
 21
267.676464385872
 31
0.0
  0
LINE
  5
209A
330
1A
100
AcDbEntity
  8
NOKITOI
  6
PHANTOM
 62
     8
 48
5.0
100
AcDbLine
 10
496.0746744763802
 20
269.8806604516279
 30
0.0
 11
496.0746744676354
 21
269.8806603641816
 31
0.0
  0
LINE
  5
209B
330
1A
100
AcDbEntity
  8
NOKITOI
  6
PHANTOM
 62
     8
 48
5.0
100
AcDbLine
 10
494.4731798083496
 20
271.431032708377
 30
0.0
 11
494.8142035222505
 21
271.3457767799017
 31
0.0
  0
LINE
  5
209C
330
1A
100
AcDbEntity
  8
NOKITOI
  6
PHANTOM
 62
     8
 48
5.0
100
AcDbLine
 10
494.8142035222505
 20
271.3457767799017
 30
0.0
 11
494.681622377436
 21
270.019965331754
 31
0.0
  0
LINE
  5
209D
330
1A
100
AcDbEntity
  8
NOKITOI
  6
PHANTOM
 62
     8
 48
5.0
100
AcDbLine
 10
496.3018578188807
 20
272.1524938766346
 30
0.0
 11
496.0746744763802
 21
269.8806604516279
 31
0.0
  0
LINE
  5
209E
330
1A
100
AcDbEntity
  8
NOKITOI
  6
PHANTOM
 62
     8
 48
5.0
100
AcDbLine
 10
496.0746744763802
 20
269.8806604516279
 30
0.0
 11
496.0746744676354
 21
269.8806603641816
 31
0.0
  0
ARC
  5
209F
330
1A
100
AcDbEntity
  8
NOKITOI
  6
PHANTOM
 62
     8
 48
5.0
100
AcDbCircle
 10
496.5721930699394
 20
269.8309085766608
 30
0.0
 40
1.899999999999974
100
AcDbArc
 50
174.2894162891092
 51
261.0505453838139
  0
ARC
  5
20A0
330
1A
100
AcDbEntity
  8
NOKITOI
  6
PHANTOM
 62
     8
 48
5.0
100
AcDbCircle
 10
496.5721930699394
 20
269.8309085766608
 30
0.0
 40
0.499999999999911
100
AcDbArc
 50
174.2894068625028
 51
261.0505419158041
  0
ARC
  5
20A1
330
1A
100
AcDbEntity
  8
NOKITOI
  6
PHANTOM
 62
     8
 48
5.0
100
AcDbCircle
 10
506.8276584333276
 20
265.6850644529526
 30
0.0
 40
0.6
100
AcDbArc
 50
0.0
 51
81.05054191579087
  0
ARC
  5
20A2
330
1A
100
AcDbEntity
  8
NOKITOI
  6
PHANTOM
 62
     8
 48
5.0
100
AcDbCircle
 10
506.7276584333273
 20
265.7008124844487
 30
0.0
 40
2.000000000000039
100
AcDbArc
 50
0.0
 51
81.05054191579087
  0
LINE
  5
20A3
330
1A
100
AcDbEntity
  8
NOKITOI
  6
PHANTOM
 62
     8
 48
5.0
100
AcDbLine
 10
503.0743267039258
 20
266.883534765822
 30
0.0
 11
502.9897941221713
 21
266.3657727025724
 31
0.0
  0
LINE
  5
20A4
330
1A
100
AcDbEntity
  8
NOKITOI
  6
PHANTOM
 62
     8
 48
5.0
100
AcDbLine
 10
504.4573050302443
 20
266.6657429034095
 30
0.0
 11
504.3441250546923
 21
265.9725155531493
 31
0.0
  0
LINE
  5
20A5
330
1A
100
AcDbEntity
  8
NOKITOI
  6
PHANTOM
 62
     8
 48
5.0
100
AcDbLine
 10
504.4573050302443
 20
266.6657429034095
 30
0.0
 11
506.9209963184341
 21
266.2777600233798
 31
0.0
  0
ARC
  5
20A6
330
1A
100
AcDbEntity
  8
NOKITOI
  6
PHANTOM
 62
     8
 48
5.0
100
AcDbCircle
 10
506.7276584333273
 20
262.3105000210987
 30
0.0
 40
0.7
100
AcDbArc
 50
270.0
 51
0.0
  0
LINE
  5
20A7
330
1A
100
AcDbEntity
  8
NOKITOI
  6
PHANTOM
 62
     8
 48
5.0
100
AcDbLine
 10
504.5090573216141
 20
263.2590682118546
 30
0.0
 11
504.1224447102978
 21
260.891065967545
 31
0.0
  0
LINE
  5
20A8
330
1A
100
AcDbEntity
  8
NOKITOI
  6
PHANTOM
 62
     8
 48
5.0
100
AcDbLine
 10
506.7276584333273
 20
261.6105000210985
 30
0.0
 11
505.5571154997353
 21
261.6105000210985
 31
0.0
  0
LINE
  5
20A9
330
1A
100
AcDbEntity
  8
NOKITOI
  6
PHANTOM
 62
     8
 48
5.0
100
AcDbLine
 10
505.7920700666223
 20
263.0495967432818
 30
0.0
 11
505.5571154997353
 21
261.6105000210985
 31
0.0
  0
LINE
  5
20AA
330
1A
100
AcDbEntity
  8
NOKITOI
  6
PHANTOM
 62
     8
 48
5.0
100
AcDbLine
 10
507.4276584333277
 20
262.3104999565243
 30
0.0
 11
507.4276584333277
 21
265.6850644529526
 31
0.0
  0
ARC
  5
20AB
330
1A
100
AcDbEntity
  8
NOKITOI
  6
PHANTOM
 62
     8
 48
5.0
100
AcDbCircle
 10
503.0286579739128
 20
263.5007658976649
 30
0.0
 40
2.799999999999993
100
AcDbArc
 50
350.7273982228022
 51
61.9780573757826
  0
ARC
  5
20AC
330
1A
100
AcDbEntity
  8
NOKITOI
  6
PHANTOM
 62
     8
 48
5.0
100
AcDbCircle
 10
503.0286579739128
 20
263.5007658976649
 30
0.0
 40
1.499999999999993
100
AcDbArc
 50
350.7273982228022
 51
105.8737918367157
  0
LINE
  5
20AD
330
1A
100
AcDbEntity
  8
NOKITOI
  6
PHANTOM
 62
     8
 48
5.0
100
AcDbLine
 10
508.7276584333274
 20
262.3104999565243
 30
0.0
 11
508.7276584333274
 21
265.7008124844487
 31
0.0
  0
LINE
  5
20AE
330
1A
100
AcDbEntity
  8
NOKITOI
  6
PHANTOM
 62
     8
 48
5.0
100
AcDbLine
 10
494.8127296833999
 20
272.7892322085805
 30
0.0
 11
496.0761073541791
 21
272.4733877908858
 31
0.0
  0
DIMENSION
  5
2CAD
330
1A
100
AcDbEntity
  8
SUNPOU
100
AcDbDimension
  2
*D17
 10
464.307917247017
 20
249.4105079110315
 30
0.0
 11
459.307917247017
 21
262.2006327744178
 31
0.0
 70
    32
  3
STANDARD
100
AcDbAlignedDimension
 13
492.2138320578796
 23
274.9907576378039
 33
0.0
 14
495.3758659137947
 24
249.4105079110315
 34
0.0
 50
90.0
100
AcDbRotatedDimension
1001
ACAD
1000
DSTYLE
1002
{
1070
    41
1040
7.0
1070
    42
1040
6.0
1070
    43
1040
14.0
1070
    44
1040
3.0
1070
    73
1070
     0
1070
    74
1070
     0
1070
    77
1070
     3
1070
   140
1040
6.0
1070
   141
1040
150.0
1070
   147
1040
2.0
1070
   172
1070
     1
1070
   173
1070
     1
1070
   176
1070
   256
1070
   177
1070
   256
1070
   178
1070
   256
1070
   271
1070
     0
1070
   272
1070
     0
1070
   341
1005
6D
1070
     6
1000
OPEN
1070
     7
1000
OPEN
1070
   371
1070
    -1
1070
   372
1070
    -1
1002
}
  0
DIMENSION
  5
2CBA
330
1A
100
AcDbEntity
  8
SUNPOU
100
AcDbDimension
  2
*D18
 10
657.4392832739667
 20
227.9105104144265
 30
0.0
 11
652.4392832739668
 21
239.9105104144268
 31
0.0
 70
    32
  3
STANDARD
100
AcDbAlignedDimension
 13
623.3517765652862
 23
251.9105104144268
 33
0.0
 14
623.194692945053
 24
227.9105104144265
 34
0.0
 50
90.0
100
AcDbRotatedDimension
1001
ACAD
1000
DSTYLE
1002
{
1070
    41
1040
7.0
1070
    42
1040
6.0
1070
    43
1040
14.0
1070
    44
1040
3.0
1070
    73
1070
     0
1070
    74
1070
     0
1070
    77
1070
     3
1070
   140
1040
6.0
1070
   141
1040
150.0
1070
   147
1040
2.0
1070
   172
1070
     1
1070
   173
1070
     1
1070
   176
1070
   256
1070
   177
1070
   256
1070
   178
1070
   256
1070
   271
1070
     0
1070
   272
1070
     0
1070
   341
1005
6D
1070
     6
1000
OPEN
1070
     7
1000
OPEN
1070
   371
1070
    -1
1070
   372
1070
    -1
1002
}
  0
LINE
  5
2D1D
330
1A
100
AcDbEntity
  8
CENTER_L
  6
CENTER
 62
     1
 48
5.0
100
AcDbLine
 10
385.473972660358
 20
463.7217428750376
 30
0.0
 11
317.39349976378
 21
463.7217428750379
 31
0.0
  0
LINE
  5
2D1E
330
1A
100
AcDbEntity
  8
CENTER_L
  6
CENTER
 62
     1
 48
5.0
100
AcDbLine
 10
203.6462441807742
 20
463.7217428750376
 30
0.0
 11
135.5657687278591
 21
463.7217428750379
 31
0.0
  0
LWPOLYLINE
  5
2EFF
330
1A
100
AcDbEntity
  8
ZUWAKU
100
AcDbPolyline
 90
        4
 70
     1
 43
0.0
 10
0.8000004691136837
 20
550.7999997642577
 10
0.8000004691136837
 20
0.7999997642576773
 10
796.8000004691137
 20
0.7999997642576773
 10
796.8000004691137
 20
550.7999997642577
  0
LWPOLYLINE
  5
2F00
330
1A
100
AcDbEntity
  8
ZUWAKU
100
AcDbPolyline
 90
        4
 70
     1
 43
0.0
 10
0.4000004691137065
 20
551.1999997642576
 10
0.4000004691137065
 20
0.3999997642577
 10
797.2000004691137
 20
0.3999997642576769
 10
797.2000004691137
 20
551.1999997642576
  0
LWPOLYLINE
  5
2F01
330
1A
100
AcDbEntity
  8
ZUWAKU
100
AcDbPolyline
 90
        4
 70
     1
 43
0.0
 10
0.0000004691137292
 20
551.5999997642576
 10
0.0000004691137292
 20
-0.0000002357423909
 10
797.6000004691139
 20
-0.0000002357423234
 10
797.6000004691139
 20
551.5999997642577
  0
LWPOLYLINE
  5
2F02
330
1A
100
AcDbEntity
  8
ZUWAKU
100
AcDbPolyline
 90
        4
 70
     1
 43
0.0
 10
0.6000004691136383
 20
550.9999997642577
 10
0.6000004691136383
 20
0.5999997642576318
 10
797.0000004691139
 20
0.599999764257678
 10
797.0000004691137
 20
550.9999997642577
  0
LWPOLYLINE
  5
2F03
330
1A
100
AcDbEntity
  8
ZUWAKU
100
AcDbPolyline
 90
        4
 70
     1
 43
0.0
 10
0.200000469113661
 20
551.3999997642577
 10
0.200000469113661
 20
0.1999997642576545
 10
797.4000004691135
 20
0.1999997642576776
 10
797.4000004691138
 20
551.3999997642577
  0
LINE
  5
2F04
330
1A
100
AcDbEntity
  8
ZUWAKU
100
AcDbLine
 10
208.6466017591817
 20
15.19999976425764
 30
0.0
 11
447.4243644401051
 21
15.19999976425764
 31
0.0
  0
LINE
  5
2F05
330
1A
100
AcDbEntity
  8
ZUWAKU
100
AcDbLine
 10
208.6466017591817
 20
15.59999976425764
 30
0.0
 11
447.4243644401051
 21
15.59999976425765
 31
0.0
  0
LINE
  5
2F06
330
1A
100
AcDbEntity
  8
ZUWAKU
100
AcDbLine
 10
208.6466017591817
 20
15.39999976425764
 30
0.0
 11
447.4243644401051
 21
15.39999976425764
 31
0.0
  0
TEXT
  5
2F07
330
1A
100
AcDbEntity
  8
MOJI
100
AcDbText
 10
239.8272031499648
 20
3.20492082166503
 30
0.0
 40
5.599999999999999
  1
ＶＭ１２０
 41
0.9
  7
ｽﾀｲﾙ1
100
AcDbText
  0
LINE
  5
2F08
330
1A
100
AcDbEntity
  8
ZUWAKU
100
AcDbLine
 10
0.0000004691137292
 20
29.9999997642576
 30
0.0
 11
797.4000004691135
 21
29.9999997642576
 31
0.0
  0
LINE
  5
2F09
330
1A
100
AcDbEntity
  8
ZUWAKU
100
AcDbLine
 10
0.0000004691137292
 20
30.19999976425761
 30
0.0
 11
797.4000004691135
 21
30.19999976425761
 31
0.0
  0
LINE
  5
2F0A
330
1A
100
AcDbEntity
  8
ZUWAKU
100
AcDbLine
 10
0.0000004691137292
 20
30.39999976425761
 30
0.0
 11
797.4000004691135
 21
30.39999976425761
 31
0.0
  0
LINE
  5
2F0B
330
1A
100
AcDbEntity
  8
ZUWAKU
100
AcDbLine
 10
0.0000004691137292
 20
30.59999976425761
 30
0.0
 11
797.4000004691135
 21
30.59999976425761
 31
0.0
  0
LINE
  5
2F0C
330
1A
100
AcDbEntity
  8
ZUWAKU
100
AcDbLine
 10
0.0000004691137292
 20
30.79999976425762
 30
0.0
 11
797.4000004691135
 21
30.79999976425762
 31
0.0
  0
ARC
  5
2F0D
330
1A
100
AcDbEntity
  8
ZUWAKU
100
AcDbCircle
 10
48.74221262389482
 20
11.76520178961291
 30
0.0
 40
4.199999999999999
100
AcDbArc
 50
0.0
 51
45.0
  0
ARC
  5
2F0E
330
1A
100
AcDbEntity
  8
ZUWAKU
100
AcDbCircle
 10
50.14221262389492
 20
9.949999764257611
 30
0.0
 40
2.799999999999999
100
AcDbArc
 50
270.0
 51
0.0
  0
HATCH
  5
2F0F
330
1A
100
AcDbEntity
  8
ZUWAKU
100
AcDbHatch
 10
0.0
 20
0.0
 30
0.0
210
0.0
220
0.0
230
1.0
  2
ANSI37
 70
     0
 71
     0
 91
        8
 92
        7
 72
     1
 73
     1
 93
       24
 10
14.50226313023358
 20
17.64484824524119
 42
-0.1989123673796348
 10
14.09221262389485
 20
18.63479773890224
 42
0.0
 10
14.09221262389485
 20
19.92499976425762
 42
-0.4142135623730912
 10
14.61721262389483
 20
20.44999976425761
 42
0.0
 10
17.59221262389473
 20
20.44999976425761
 42
0.4142135623731546
 10
18.11721262389482
 20
20.9749997642576
 42
0.0
 10
18.11721262389482
 20
22.72499976425761
 42
0.4142135623731586
 10
17.59221262389473
 20
23.24999976425761
 42
0.0
 10
14.09221262389485
 20
23.24999976425761
 42
0.4142135623730928
 10
11.29221262389489
 20
20.44999976425764
 42
0.0
 10
11.29221262389489
 20
18.63479773890237
 42
0.1989123673796619
 10
12.52236414291132
 20
15.66494925791876
 42
0.0
 10
15.432162117556
 20
12.7551512832741
 42
-0.1989123673796613
 10
15.84221262389485
 20
11.76520178961292
 42
0.0
 10
15.84221262389485
 20
10.4749997642576
 42
-0.4142135623730911
 10
15.31721262389487
 20
9.949999764257611
 42
0.0
 10
12.34221262389496
 20
9.949999764257611
 42
0.4142135623731526
 10
11.81721262389487
 20
9.424999764257623
 42
0.0
 10
11.81721262389487
 20
7.674999764257602
 42
0.4142135623731526
 10
12.34221262389496
 20
7.149999764257614
 42
0.0
 10
15.84221262389485
 20
7.149999764257614
 42
0.4142135623731044
 10
18.64221262389492
 20
9.94999976425759
 42
0.0
 10
18.64221262389492
 20
11.76520178961286
 42
0.1989123673796604
 10
17.41206110487837
 20
14.7350502705964
 42
0.0
 97
        0
 92
        7
 72
     1
 73
     1
 93
       16
 10
23.5422126238949
 20
19.04999976425762
 42
-0.4142135623730935
 10
24.94221262389487
 20
20.44999976425761
 42
0.0
 10
26.86721262389482
 20
20.44999976425761
 42
0.4142135623731546
 10
27.39221262389492
 20
20.9749997642576
 42
0.0
 10
27.39221262389492
 20
22.72499976425761
 42
0.4142135623730951
 10
26.86721262389494
 20
23.24999976425761
 42
0.0
 10
24.94221262389476
 20
23.24999976425757
 42
0.4142135623730892
 10
20.74221262389483
 20
19.04999976425754
 42
0.0
 10
20.74221262389483
 20
11.34999976425763
 42
0.4142135623730969
 10
24.94221262389487
 20
7.149999764257614
 42
0.0
 10
26.86721262389482
 20
7.149999764257614
 42
0.4142135623731526
 10
27.39221262389492
 20
7.674999764257602
 42
0.0
 10
27.39221262389492
 20
9.424999764257623
 42
0.4142135623730891
 10
26.86721262389494
 20
9.949999764257611
 42
0.0
 10
24.94221262389487
 20
9.949999764257611
 42
-0.4142135623730928
 10
23.5422126238949
 20
11.3499997642576
 42
0.0
 97
        0
 92
        7
 72
     1
 73
     1
 93
        2
 10
24.24221262389483
 20
15.19999976425761
 42
1.0
 10
27.74221262389483
 20
15.19999976425761
 42
1.0
 97
        0
 92
        7
 72
     1
 73
     1
 93
       26
 10
37.31485910607284
 20
19.20504695782104
 42
0.0
 10
38.37649873921066
 20
22.56690579609063
 42
0.5069206636600134
 10
37.8758678400153
 20
23.24999976425761
 42
0.0
 10
36.17697846040607
 20
23.24999976425761
 42
0.3272098845218764
 10
35.67634756121071
 20
22.88309373242458
 42
0.0
 10
33.80807768657894
 20
16.96690579609069
 42
-0.3272098845219541
 10
33.30744678738347
 20
16.59999976425761
 42
0.0
 10
33.16721262389501
 20
16.59999976425761
 42
-0.4142135623731526
 10
32.64221262389492
 20
17.1249997642576
 42
0.0
 10
32.64221262389492
 20
22.72499976425761
 42
0.4142135623730951
 10
32.11721262389494
 20
23.24999976425761
 42
0.0
 10
30.36721262389483
 20
23.24999976425761
 42
0.4142135623730871
 10
29.84221262389485
 20
22.72499976425763
 42
0.0
 10
29.84221262389485
 20
7.674999764257602
 42
0.4142135623730891
 10
30.36721262389483
 20
7.149999764257614
 42
0.0
 10
32.11721262389483
 20
7.149999764257614
 42
0.4142135623731526
 10
32.64221262389492
 20
7.674999764257602
 42
0.0
 10
32.64221262389492
 20
13.27499976425762
 42
-0.4142135623731526
 10
33.16721262389501
 20
13.79999976425761
 42
0.0
 10
33.30744678738358
 20
13.79999976425761
 42
-0.3272098845218915
 10
33.80807768657894
 20
13.43309373242453
 42
0.0
 10
35.67634756121071
 20
7.516905796090686
 42
0.3272098845218902
 10
36.17697846040607
 20
7.149999764257614
 42
0.0
 10
37.8758678400153
 20
7.149999764257614
 42
0.5069206636600335
 10
38.37649873921066
 20
7.833093732424622
 42
0.0
 10
36.050107360737
 20
15.19999976425775
 42
0.0
 97
        0
 92
        7
 72
     1
 73
     1
 93
        8
 10
43.49221262389483
 20
22.72499976425762
 42
0.4142135623731546
 10
42.96721262389474
 20
23.24999976425761
 42
0.0
 10
41.21721262389496
 20
23.24999976425761
 42
0.4142135623731507
 10
40.69221262389487
 20
22.72499976425763
 42
0.0
 10
40.69221262389487
 20
7.674999764257602
 42
0.4142135623731526
 10
41.21721262389496
 20
7.149999764257614
 42
0.0
 10
42.96721262389474
 20
7.149999764257614
 42
0.4142135623731526
 10
43.49221262389483
 20
7.674999764257602
 42
0.0
 97
        0
 92
        7
 72
     1
 73
     1
 93
       24
 10
48.39221262389492
 20
19.92499976425762
 42
-0.4142135623731546
 10
48.91721262389501
 20
20.44999976425761
 42
0.0
 10
51.89221262389492
 20
20.44999976425761
 42
0.4142135623730911
 10
52.41721262389489
 20
20.9749997642576
 42
0.0
 10
52.41721262389489
 20
22.72499976425761
 42
0.4142135623730952
 10
51.89221262389492
 20
23.24999976425761
 42
0.0
 10
48.39221262389492
 20
23.24999976425761
 42
0.4142135623731048
 10
45.59221262389485
 20
20.44999976425764
 42
0.0
 10
45.59221262389485
 20
18.63479773890237
 42
0.1989123673796613
 10
46.82236414291139
 20
15.66494925791882
 42
0.0
 10
49.73216211755607
 20
12.75515128327415
 42
-0.1989123673796402
 10
50.14221262389492
 20
11.76520178961308
 42
0.0
 10
50.14221262389492
 20
10.4749997642576
 42
-0.4142135623730911
 10
49.61721262389494
 20
9.949999764257611
 42
0.0
 10
46.64221262389491
 20
9.949999764257611
 42
0.4142135623731526
 10
46.11721262389482
 20
9.424999764257623
 42
0.0
 10
46.11721262389482
 20
7.674999764257602
 42
0.4142135623730891
 10
46.64221262389481
 20
7.149999764257614
 42
0.0
 10
50.14221262389492
 20
7.149999764257614
 42
0.4142135623730925
 10
52.94221262389488
 20
9.94999976425759
 42
0.0
 10
52.94221262389488
 20
11.76520178961286
 42
0.1989123673796675
 10
51.71206110487833
 20
14.73505027059651
 42
0.0
 10
48.80226313023377
 20
17.64484824524103
 42
-0.1989123673796652
 10
48.39221262389492
 20
18.6347977389022
 42
0.0
 97
        0
 92
        7
 72
     1
 73
     1
 93
       16
 10
57.84221262389485
 20
22.7249997642576
 42
0.414213562373103
 10
57.31721262389488
 20
23.24999976425761
 42
0.0
 10
55.56721262389487
 20
23.24999976425761
 42
0.4142135623730871
 10
55.04221262389489
 20
22.72499976425763
 42
0.0
 10
55.04221262389489
 20
9.94999976425759
 42
0.4142135623730926
 10
57.84221262389485
 20
7.149999764257614
 42
0.0
 10
61.34221262389485
 20
7.149999764257614
 42
0.4142135623731044
 10
64.14221262389492
 20
9.94999976425759
 42
0.0
 10
64.14221262389492
 20
22.72499976425761
 42
0.4142135623730951
 10
63.61721262389494
 20
23.24999976425761
 42
0.0
 10
61.86721262389482
 20
23.24999976425761
 42
0.4142135623730871
 10
61.34221262389485
 20
22.72499976425763
 42
0.0
 10
61.34221262389485
 20
10.99999976425758
 42
-0.414213562373088
 10
60.2922126238949
 20
9.949999764257611
 42
0.0
 10
58.89221262389492
 20
9.949999764257611
 42
-0.4142135623731197
 10
57.84221262389485
 20
10.99999976425758
 42
0.0
 97
        0
 92
        7
 72
     1
 73
     1
 93
        8
 10
69.0422126238949
 20
22.72499976425763
 42
0.4142135623730871
 10
68.51721262389492
 20
23.24999976425761
 42
0.0
 10
66.76721262389492
 20
23.24999976425761
 42
0.4142135623731507
 10
66.24221262389482
 20
22.72499976425763
 42
0.0
 10
66.24221262389482
 20
7.674999764257602
 42
0.4142135623730891
 10
66.76721262389481
 20
7.149999764257614
 42
0.0
 10
68.51721262389492
 20
7.149999764257614
 42
0.4142135623730891
 10
69.0422126238949
 20
7.674999764257602
 42
0.0
 97
        0
 75
     0
 76
     1
 52
0.0
 41
0.2
 77
     0
 78
     2
 53
45.0
 43
-900.9423038655652
 44
-13.20000023574232
 45
-0.4490128060534576
 46
0.4490128060534577
 79
     0
 53
135.0
 43
-900.9423038655652
 44
-13.20000023574232
 45
-0.4490128060534577
 46
-0.4490128060534576
 79
     0
 47
0.057451373970553
 98
        8
 10
16.07985543213703
 20
15.16717341014316
 10
22.40451547555289
 20
18.84406194670862
 10
25.16436835477338
 20
15.51188141032833
 10
30.91406045075086
 20
16.20129741069911
 10
41.83847248807047
 20
16.66090967824072
 10
46.89820136424327
 20
19.41857608066482
 10
56.55768644151407
 20
18.72915767935262
 10
67.82708008873647
 20
19.18876994689424
  0
LINE
  5
2F10
330
1A
100
AcDbEntity
  8
ZUWAKU
100
AcDbLine
 10
35.67634756121071
 20
22.88309373242458
 30
0.0
 11
33.80807768657894
 21
16.96690579609064
 31
0.0
  0
LINE
  5
2F11
330
1A
100
AcDbEntity
  8
ZUWAKU
100
AcDbLine
 10
32.64221262389492
 20
17.12499976425761
 30
0.0
 11
32.64221262389492
 21
22.7249997642576
 31
0.0
  0
LINE
  5
2F12
330
1A
100
AcDbEntity
  8
ZUWAKU
100
AcDbLine
 10
29.84221262389485
 20
22.7249997642576
 30
0.0
 11
29.84221262389485
 21
7.674999764257613
 31
0.0
  0
LINE
  5
2F13
330
1A
100
AcDbEntity
  8
ZUWAKU
100
AcDbLine
 10
20.74221262389483
 20
11.34999976425761
 30
0.0
 11
20.74221262389483
 21
19.04999976425757
 31
0.0
  0
LINE
  5
2F14
330
1A
100
AcDbEntity
  8
ZUWAKU
100
AcDbLine
 10
23.5422126238949
 20
19.04999976425761
 30
0.0
 11
23.5422126238949
 21
11.34999976425761
 31
0.0
  0
LINE
  5
2F15
330
1A
100
AcDbEntity
  8
ZUWAKU
100
AcDbLine
 10
43.49221262389483
 20
7.674999764257613
 30
0.0
 11
43.49221262389483
 21
22.7249997642576
 31
0.0
  0
LINE
  5
2F16
330
1A
100
AcDbEntity
  8
ZUWAKU
100
AcDbLine
 10
40.69221262389487
 20
22.7249997642576
 30
0.0
 11
40.69221262389487
 21
7.674999764257613
 31
0.0
  0
LINE
  5
2F17
330
1A
100
AcDbEntity
  8
ZUWAKU
100
AcDbLine
 10
37.31485910607284
 20
19.20504695782104
 30
0.0
 11
36.050107360737
 21
15.19999976425763
 31
0.0
  0
ARC
  5
2F18
330
1A
100
AcDbEntity
  8
ZUWAKU
100
AcDbCircle
 10
49.7922126238949
 20
18.63479773890231
 30
0.0
 40
4.199999999999999
100
AcDbArc
 50
180.0
 51
225.0
  0
ARC
  5
2F19
330
1A
100
AcDbEntity
  8
ZUWAKU
100
AcDbCircle
 10
49.7922126238949
 20
18.63479773890231
 30
0.0
 40
1.399999999999999
100
AcDbArc
 50
180.0000000000016
 51
224.9999999999988
  0
ARC
  5
2F1A
330
1A
100
AcDbEntity
  8
ZUWAKU
100
AcDbCircle
 10
15.49221262389482
 20
18.63479773890231
 30
0.0
 40
1.399999999999999
100
AcDbArc
 50
180.0000000000016
 51
224.9999999999988
  0
ARC
  5
2F1B
330
1A
100
AcDbEntity
  8
ZUWAKU
100
AcDbCircle
 10
15.49221262389482
 20
18.63479773890231
 30
0.0
 40
4.199999999999999
100
AcDbArc
 50
180.0
 51
225.0
  0
ARC
  5
2F1C
330
1A
100
AcDbEntity
  8
ZUWAKU
100
AcDbCircle
 10
24.94221262389487
 20
11.34999976425761
 30
0.0
 40
4.199999999999999
100
AcDbArc
 50
180.0
 51
270.0
  0
ARC
  5
2F1D
330
1A
100
AcDbEntity
  8
ZUWAKU
100
AcDbCircle
 10
15.84221262389485
 20
9.949999764257611
 30
0.0
 40
2.799999999999999
100
AcDbArc
 50
270.0
 51
0.0
  0
ARC
  5
2F1E
330
1A
100
AcDbEntity
  8
ZUWAKU
100
AcDbCircle
 10
14.44221262389487
 20
11.76520178961291
 30
0.0
 40
4.199999999999999
100
AcDbArc
 50
0.0
 51
45.0
  0
ARC
  5
2F1F
330
1A
100
AcDbEntity
  8
ZUWAKU
100
AcDbCircle
 10
14.44221262389487
 20
11.76520178961296
 30
0.0
 40
1.399999999999999
100
AcDbArc
 50
0.0
 51
45.0
  0
LINE
  5
2F20
330
1A
100
AcDbEntity
  8
ZUWAKU
100
AcDbLine
 10
15.84221262389485
 20
10.47499976425761
 30
0.0
 11
15.84221262389485
 21
11.76520178961296
 31
0.0
  0
LINE
  5
2F21
330
1A
100
AcDbEntity
  8
ZUWAKU
100
AcDbLine
 10
18.64221262389492
 20
9.949999764257611
 30
0.0
 11
18.64221262389492
 21
11.76520178961296
 31
0.0
  0
LINE
  5
2F22
330
1A
100
AcDbEntity
  8
ZUWAKU
100
AcDbLine
 10
12.34221262389485
 20
9.949999764257611
 30
0.0
 11
15.31721262389487
 21
9.949999764257611
 31
0.0
  0
ARC
  5
2F23
330
1A
100
AcDbEntity
  8
ZUWAKU
100
AcDbCircle
 10
12.34221262389485
 20
9.424999764257613
 30
0.0
 40
0.525
100
AcDbArc
 50
90.0
 51
180.0
  0
ARC
  5
2F24
330
1A
100
AcDbEntity
  8
ZUWAKU
100
AcDbCircle
 10
12.34221262389485
 20
7.674999764257613
 30
0.0
 40
0.525
100
AcDbArc
 50
180.0
 51
270.0
  0
LINE
  5
2F25
330
1A
100
AcDbEntity
  8
ZUWAKU
100
AcDbLine
 10
11.81721262389487
 20
7.674999764257613
 30
0.0
 11
11.81721262389487
 21
9.424999764257613
 31
0.0
  0
LINE
  5
2F26
330
1A
100
AcDbEntity
  8
ZUWAKU
100
AcDbLine
 10
12.52236414291132
 20
15.66494925791879
 30
0.0
 11
15.432162117556
 21
12.75515128327413
 31
0.0
  0
LINE
  5
2F27
330
1A
100
AcDbEntity
  8
ZUWAKU
100
AcDbLine
 10
12.34221262389485
 20
7.149999764257614
 30
0.0
 11
15.84221262389485
 21
7.149999764257614
 31
0.0
  0
ARC
  5
2F28
330
1A
100
AcDbEntity
  8
ZUWAKU
100
AcDbCircle
 10
15.31721262389487
 20
10.47499976425761
 30
0.0
 40
0.525
100
AcDbArc
 50
270.0
 51
0.0
  0
LINE
  5
2F29
330
1A
100
AcDbEntity
  8
ZUWAKU
100
AcDbLine
 10
17.41206110487837
 20
14.73505027059643
 30
0.0
 11
14.5022631302337
 21
17.64484824524111
 31
0.0
  0
LINE
  5
2F2A
330
1A
100
AcDbEntity
  8
ZUWAKU
100
AcDbLine
 10
38.37649873921066
 20
7.833093732424586
 30
0.0
 11
36.050107360737
 21
15.19999976425763
 31
0.0
  0
LINE
  5
2F2B
330
1A
100
AcDbEntity
  8
ZUWAKU
100
AcDbLine
 10
36.17697846040619
 20
7.149999764257614
 30
0.0
 11
37.87586784001518
 21
7.149999764257614
 31
0.0
  0
LINE
  5
2F2C
330
1A
100
AcDbEntity
  8
ZUWAKU
100
AcDbLine
 10
35.67634756121071
 20
7.51690579609064
 30
0.0
 11
33.80807768657894
 21
13.43309373242458
 31
0.0
  0
ARC
  5
2F2D
330
1A
100
AcDbEntity
  8
ZUWAKU
100
AcDbCircle
 10
36.17697846040619
 20
7.674999764257613
 30
0.0
 40
0.525
100
AcDbArc
 50
197.525568373723
 51
270.0
  0
ARC
  5
2F2E
330
1A
100
AcDbEntity
  8
ZUWAKU
100
AcDbCircle
 10
33.16721262389489
 20
13.27499976425761
 30
0.0
 40
0.525
100
AcDbArc
 50
90.0
 51
180.0
  0
ARC
  5
2F2F
330
1A
100
AcDbEntity
  8
ZUWAKU
100
AcDbCircle
 10
33.30744678738358
 20
13.27499976425761
 30
0.0
 40
0.525
100
AcDbArc
 50
17.52556837372303
 51
90.0
  0
LINE
  5
2F30
330
1A
100
AcDbEntity
  8
ZUWAKU
100
AcDbLine
 10
32.64221262389492
 20
7.674999764257613
 30
0.0
 11
32.64221262389492
 21
13.27499976425761
 31
0.0
  0
ARC
  5
2F31
330
1A
100
AcDbEntity
  8
ZUWAKU
100
AcDbCircle
 10
32.11721262389483
 20
7.674999764257613
 30
0.0
 40
0.525
100
AcDbArc
 50
270.0
 51
0.0
  0
LINE
  5
2F32
330
1A
100
AcDbEntity
  8
ZUWAKU
100
AcDbLine
 10
33.16721262389489
 20
13.79999976425761
 30
0.0
 11
33.30744678738358
 21
13.79999976425761
 31
0.0
  0
LINE
  5
2F33
330
1A
100
AcDbEntity
  8
ZUWAKU
100
AcDbLine
 10
33.30744678738358
 20
16.59999976425761
 30
0.0
 11
33.16721262389489
 21
16.59999976425761
 31
0.0
  0
CIRCLE
  5
2F34
330
1A
100
AcDbEntity
  8
ZUWAKU
100
AcDbCircle
 10
25.99221262389483
 20
15.19999976425761
 30
0.0
 40
1.75
  0
ARC
  5
2F35
330
1A
100
AcDbEntity
  8
ZUWAKU
100
AcDbCircle
 10
24.94221262389487
 20
11.34999976425761
 30
0.0
 40
1.399999999999999
100
AcDbArc
 50
180.0
 51
270.0
  0
ARC
  5
2F36
330
1A
100
AcDbEntity
  8
ZUWAKU
100
AcDbCircle
 10
30.36721262389483
 20
7.674999764257613
 30
0.0
 40
0.525
100
AcDbArc
 50
180.0
 51
270.0
  0
ARC
  5
2F37
330
1A
100
AcDbEntity
  8
ZUWAKU
100
AcDbCircle
 10
26.86721262389482
 20
9.424999764257613
 30
0.0
 40
0.525
100
AcDbArc
 50
0.0
 51
90.0
  0
ARC
  5
2F38
330
1A
100
AcDbEntity
  8
ZUWAKU
100
AcDbCircle
 10
26.86721262389482
 20
7.674999764257613
 30
0.0
 40
0.525
100
AcDbArc
 50
270.0
 51
0.0
  0
LINE
  5
2F39
330
1A
100
AcDbEntity
  8
ZUWAKU
100
AcDbLine
 10
26.86721262389482
 20
7.149999764257614
 30
0.0
 11
24.94221262389487
 21
7.149999764257614
 31
0.0
  0
LINE
  5
2F3A
330
1A
100
AcDbEntity
  8
ZUWAKU
100
AcDbLine
 10
27.39221262389492
 20
9.424999764257613
 30
0.0
 11
27.39221262389492
 21
7.674999764257613
 31
0.0
  0
LINE
  5
2F3B
330
1A
100
AcDbEntity
  8
ZUWAKU
100
AcDbLine
 10
24.94221262389487
 20
9.949999764257611
 30
0.0
 11
26.86721262389482
 21
9.949999764257611
 31
0.0
  0
LINE
  5
2F3C
330
1A
100
AcDbEntity
  8
ZUWAKU
100
AcDbLine
 10
30.36721262389483
 20
7.149999764257614
 30
0.0
 11
32.11721262389483
 21
7.149999764257614
 31
0.0
  0
ARC
  5
2F3D
330
1A
100
AcDbEntity
  8
ZUWAKU
100
AcDbCircle
 10
33.16721262389489
 20
17.12499976425761
 30
0.0
 40
0.525
100
AcDbArc
 50
180.0
 51
270.0
  0
ARC
  5
2F3E
330
1A
100
AcDbEntity
  8
ZUWAKU
100
AcDbCircle
 10
33.30744678738358
 20
17.12499976425761
 30
0.0
 40
0.525
100
AcDbArc
 50
270.0
 51
342.4744316262769
  0
ARC
  5
2F3F
330
1A
100
AcDbEntity
  8
ZUWAKU
100
AcDbCircle
 10
49.61721262389483
 20
10.47499976425761
 30
0.0
 40
0.525
100
AcDbArc
 50
270.0
 51
0.0
  0
ARC
  5
2F40
330
1A
100
AcDbEntity
  8
ZUWAKU
100
AcDbCircle
 10
48.74221262389482
 20
11.76520178961296
 30
0.0
 40
1.399999999999999
100
AcDbArc
 50
0.0
 51
45.0
  0
LINE
  5
2F41
330
1A
100
AcDbEntity
  8
ZUWAKU
100
AcDbLine
 10
50.14221262389492
 20
10.47499976425761
 30
0.0
 11
50.14221262389492
 21
11.76520178961296
 31
0.0
  0
LINE
  5
2F42
330
1A
100
AcDbEntity
  8
ZUWAKU
100
AcDbLine
 10
52.94221262389488
 20
9.949999764257611
 30
0.0
 11
52.94221262389488
 21
11.76520178961296
 31
0.0
  0
LINE
  5
2F43
330
1A
100
AcDbEntity
  8
ZUWAKU
100
AcDbLine
 10
51.71206110487844
 20
14.73505027059643
 30
0.0
 11
48.80226313023365
 21
17.64484824524111
 31
0.0
  0
LINE
  5
2F44
330
1A
100
AcDbEntity
  8
ZUWAKU
100
AcDbLine
 10
41.21721262389485
 20
7.149999764257614
 30
0.0
 11
42.96721262389485
 21
7.149999764257614
 31
0.0
  0
ARC
  5
2F45
330
1A
100
AcDbEntity
  8
ZUWAKU
100
AcDbCircle
 10
37.87586784001518
 20
7.674999764257613
 30
0.0
 40
0.525
100
AcDbArc
 50
270.0
 51
17.52556837372303
  0
ARC
  5
2F46
330
1A
100
AcDbEntity
  8
ZUWAKU
100
AcDbCircle
 10
41.21721262389485
 20
7.674999764257613
 30
0.0
 40
0.525
100
AcDbArc
 50
180.0
 51
270.0
  0
ARC
  5
2F47
330
1A
100
AcDbEntity
  8
ZUWAKU
100
AcDbCircle
 10
46.64221262389491
 20
9.424999764257613
 30
0.0
 40
0.525
100
AcDbArc
 50
90.0
 51
180.0
  0
ARC
  5
2F48
330
1A
100
AcDbEntity
  8
ZUWAKU
100
AcDbCircle
 10
42.96721262389485
 20
7.674999764257613
 30
0.0
 40
0.525
100
AcDbArc
 50
270.0
 51
0.0
  0
ARC
  5
2F49
330
1A
100
AcDbEntity
  8
ZUWAKU
100
AcDbCircle
 10
46.64221262389491
 20
7.674999764257613
 30
0.0
 40
0.525
100
AcDbArc
 50
180.0
 51
270.0
  0
LINE
  5
2F4A
330
1A
100
AcDbEntity
  8
ZUWAKU
100
AcDbLine
 10
46.11721262389482
 20
7.674999764257613
 30
0.0
 11
46.11721262389482
 21
9.424999764257613
 31
0.0
  0
LINE
  5
2F4B
330
1A
100
AcDbEntity
  8
ZUWAKU
100
AcDbLine
 10
46.82236414291139
 20
15.66494925791879
 30
0.0
 11
49.73216211755607
 21
12.75515128327413
 31
0.0
  0
LINE
  5
2F4C
330
1A
100
AcDbEntity
  8
ZUWAKU
100
AcDbLine
 10
46.64221262389491
 20
7.149999764257614
 30
0.0
 11
50.14221262389492
 21
7.149999764257614
 31
0.0
  0
LINE
  5
2F4D
330
1A
100
AcDbEntity
  8
ZUWAKU
100
AcDbLine
 10
46.64221262389491
 20
9.949999764257611
 30
0.0
 11
49.61721262389483
 21
9.949999764257611
 31
0.0
  0
ARC
  5
2F4E
330
1A
100
AcDbEntity
  8
ZUWAKU
100
AcDbCircle
 10
24.94221262389487
 20
19.04999976425757
 30
0.0
 40
4.199999999999999
100
AcDbArc
 50
90.0
 51
180.0
  0
LINE
  5
2F4F
330
1A
100
AcDbEntity
  8
ZUWAKU
100
AcDbLine
 10
18.11721262389482
 20
22.7249997642576
 30
0.0
 11
18.11721262389482
 21
20.97499976425761
 31
0.0
  0
ARC
  5
2F50
330
1A
100
AcDbEntity
  8
ZUWAKU
100
AcDbCircle
 10
17.59221262389485
 20
20.97499976425761
 30
0.0
 40
0.525
100
AcDbArc
 50
270.0
 51
0.0
  0
ARC
  5
2F51
330
1A
100
AcDbEntity
  8
ZUWAKU
100
AcDbCircle
 10
17.59221262389485
 20
22.7249997642576
 30
0.0
 40
0.525
100
AcDbArc
 50
0.0
 51
90.0
  0
ARC
  5
2F52
330
1A
100
AcDbEntity
  8
ZUWAKU
100
AcDbCircle
 10
14.09221262389485
 20
20.44999976425761
 30
0.0
 40
2.799999999999999
100
AcDbArc
 50
90.0
 51
180.0
  0
LINE
  5
2F53
330
1A
100
AcDbEntity
  8
ZUWAKU
100
AcDbLine
 10
11.29221262389489
 20
20.44999976425761
 30
0.0
 11
11.29221262389489
 21
18.63479773890227
 31
0.0
  0
LINE
  5
2F54
330
1A
100
AcDbEntity
  8
ZUWAKU
100
AcDbLine
 10
14.09221262389485
 20
19.92499976425761
 30
0.0
 11
14.09221262389485
 21
18.63479773890227
 31
0.0
  0
ARC
  5
2F55
330
1A
100
AcDbEntity
  8
ZUWAKU
100
AcDbCircle
 10
14.61721262389483
 20
19.92499976425761
 30
0.0
 40
0.525
100
AcDbArc
 50
90.0
 51
180.0
  0
LINE
  5
2F56
330
1A
100
AcDbEntity
  8
ZUWAKU
100
AcDbLine
 10
17.59221262389485
 20
20.44999976425761
 30
0.0
 11
14.61721262389483
 21
20.44999976425761
 31
0.0
  0
LINE
  5
2F57
330
1A
100
AcDbEntity
  8
ZUWAKU
100
AcDbLine
 10
14.09221262389485
 20
23.24999976425761
 30
0.0
 11
17.59221262389485
 21
23.24999976425761
 31
0.0
  0
LINE
  5
2F58
330
1A
100
AcDbEntity
  8
ZUWAKU
100
AcDbLine
 10
36.17697846040619
 20
23.24999976425761
 30
0.0
 11
37.87586784001518
 21
23.24999976425761
 31
0.0
  0
ARC
  5
2F59
330
1A
100
AcDbEntity
  8
ZUWAKU
100
AcDbCircle
 10
36.17697846040619
 20
22.7249997642576
 30
0.0
 40
0.525
100
AcDbArc
 50
90.0
 51
162.4744316262769
  0
ARC
  5
2F5A
330
1A
100
AcDbEntity
  8
ZUWAKU
100
AcDbCircle
 10
32.11721262389483
 20
22.7249997642576
 30
0.0
 40
0.525
100
AcDbArc
 50
0.0
 51
90.0
  0
ARC
  5
2F5B
330
1A
100
AcDbEntity
  8
ZUWAKU
100
AcDbCircle
 10
24.94221262389487
 20
19.04999976425761
 30
0.0
 40
1.399999999999999
100
AcDbArc
 50
90.0
 51
180.0
  0
LINE
  5
2F5C
330
1A
100
AcDbEntity
  8
ZUWAKU
100
AcDbLine
 10
27.39221262389492
 20
22.7249997642576
 30
0.0
 11
27.39221262389492
 21
20.97499976425761
 31
0.0
  0
ARC
  5
2F5D
330
1A
100
AcDbEntity
  8
ZUWAKU
100
AcDbCircle
 10
26.86721262389482
 20
20.97499976425761
 30
0.0
 40
0.525
100
AcDbArc
 50
270.0
 51
0.0
  0
LINE
  5
2F5E
330
1A
100
AcDbEntity
  8
ZUWAKU
100
AcDbLine
 10
26.86721262389482
 20
20.44999976425761
 30
0.0
 11
24.94221262389487
 21
20.44999976425761
 31
0.0
  0
ARC
  5
2F5F
330
1A
100
AcDbEntity
  8
ZUWAKU
100
AcDbCircle
 10
30.36721262389483
 20
22.7249997642576
 30
0.0
 40
0.525
100
AcDbArc
 50
90.0
 51
180.0
  0
ARC
  5
2F60
330
1A
100
AcDbEntity
  8
ZUWAKU
100
AcDbCircle
 10
26.86721262389482
 20
22.7249997642576
 30
0.0
 40
0.525
100
AcDbArc
 50
0.0
 51
90.0
  0
LINE
  5
2F61
330
1A
100
AcDbEntity
  8
ZUWAKU
100
AcDbLine
 10
24.94221262389487
 20
23.24999976425757
 30
0.0
 11
26.86721262389482
 21
23.24999976425761
 31
0.0
  0
LINE
  5
2F62
330
1A
100
AcDbEntity
  8
ZUWAKU
100
AcDbLine
 10
32.11721262389483
 20
23.24999976425761
 30
0.0
 11
30.36721262389483
 21
23.24999976425761
 31
0.0
  0
LINE
  5
2F63
330
1A
100
AcDbEntity
  8
ZUWAKU
100
AcDbLine
 10
52.41721262389489
 20
22.7249997642576
 30
0.0
 11
52.41721262389489
 21
20.97499976425761
 31
0.0
  0
LINE
  5
2F64
330
1A
100
AcDbEntity
  8
ZUWAKU
100
AcDbLine
 10
51.89221262389492
 20
20.44999976425761
 30
0.0
 11
48.9172126238949
 21
20.44999976425761
 31
0.0
  0
ARC
  5
2F65
330
1A
100
AcDbEntity
  8
ZUWAKU
100
AcDbCircle
 10
51.89221262389492
 20
20.97499976425761
 30
0.0
 40
0.525
100
AcDbArc
 50
270.0
 51
0.0
  0
ARC
  5
2F66
330
1A
100
AcDbEntity
  8
ZUWAKU
100
AcDbCircle
 10
51.89221262389492
 20
22.7249997642576
 30
0.0
 40
0.525
100
AcDbArc
 50
0.0
 51
90.0
  0
ARC
  5
2F67
330
1A
100
AcDbEntity
  8
ZUWAKU
100
AcDbCircle
 10
48.39221262389492
 20
20.44999976425761
 30
0.0
 40
2.799999999999999
100
AcDbArc
 50
90.0
 51
180.0
  0
LINE
  5
2F68
330
1A
100
AcDbEntity
  8
ZUWAKU
100
AcDbLine
 10
38.37649873921066
 20
22.56690579609064
 30
0.0
 11
37.31485910607284
 21
19.20504695782104
 31
0.0
  0
LINE
  5
2F69
330
1A
100
AcDbEntity
  8
ZUWAKU
100
AcDbLine
 10
45.59221262389485
 20
20.44999976425761
 30
0.0
 11
45.59221262389485
 21
18.63479773890227
 31
0.0
  0
LINE
  5
2F6A
330
1A
100
AcDbEntity
  8
ZUWAKU
100
AcDbLine
 10
42.96721262389485
 20
23.24999976425761
 30
0.0
 11
41.21721262389485
 21
23.24999976425761
 31
0.0
  0
ARC
  5
2F6B
330
1A
100
AcDbEntity
  8
ZUWAKU
100
AcDbCircle
 10
37.87586784001518
 20
22.7249997642576
 30
0.0
 40
0.525
100
AcDbArc
 50
342.4744316262769
 51
90.0
  0
ARC
  5
2F6C
330
1A
100
AcDbEntity
  8
ZUWAKU
100
AcDbCircle
 10
41.21721262389485
 20
22.7249997642576
 30
0.0
 40
0.525
100
AcDbArc
 50
90.0
 51
180.0
  0
ARC
  5
2F6D
330
1A
100
AcDbEntity
  8
ZUWAKU
100
AcDbCircle
 10
42.96721262389485
 20
22.7249997642576
 30
0.0
 40
0.525
100
AcDbArc
 50
0.0
 51
90.0
  0
LINE
  5
2F6E
330
1A
100
AcDbEntity
  8
ZUWAKU
100
AcDbLine
 10
48.39221262389492
 20
19.92499976425761
 30
0.0
 11
48.39221262389492
 21
18.63479773890227
 31
0.0
  0
ARC
  5
2F6F
330
1A
100
AcDbEntity
  8
ZUWAKU
100
AcDbCircle
 10
48.9172126238949
 20
19.92499976425761
 30
0.0
 40
0.525
100
AcDbArc
 50
90.0
 51
180.0
  0
LINE
  5
2F70
330
1A
100
AcDbEntity
  8
ZUWAKU
100
AcDbLine
 10
48.39221262389492
 20
23.24999976425761
 30
0.0
 11
51.89221262389492
 21
23.24999976425761
 31
0.0
  0
TEXT
  5
2F71
330
1A
100
AcDbEntity
  8
MOJI
100
AcDbText
 10
239.8272031499648
 20
18.00492082166499
 30
0.0
 40
5.599999999999999
  1
洋風じょうご
 41
0.9
  7
ｽﾀｲﾙ1
100
AcDbText
  0
TEXT
  5
2F72
330
1A
100
AcDbEntity
  8
MOJI
100
AcDbText
 10
92.95779005728286
 20
12.74117789453237
 30
0.0
 40
6.0
  1
アートフェイスＶＭ１２０
 41
0.9
  7
ｽﾀｲﾙ1
100
AcDbText
  0
LINE
  5
2F73
330
1A
100
AcDbEntity
  8
ZUWAKU
100
AcDbLine
 10
57.84221262389485
 20
10.9999997642576
 30
0.0
 11
57.84221262389485
 21
22.7249997642576
 31
0.0
  0
LINE
  5
2F74
330
1A
100
AcDbEntity
  8
ZUWAKU
100
AcDbLine
 10
55.04221262389489
 20
22.7249997642576
 30
0.0
 11
55.04221262389489
 21
9.949999764257611
 31
0.0
  0
LINE
  5
2F75
330
1A
100
AcDbEntity
  8
ZUWAKU
100
AcDbLine
 10
66.24221262389482
 20
22.7249997642576
 30
0.0
 11
66.24221262389482
 21
7.674999764257613
 31
0.0
  0
LINE
  5
2F76
330
1A
100
AcDbEntity
  8
ZUWAKU
100
AcDbLine
 10
69.0422126238949
 20
7.674999764257613
 30
0.0
 11
69.0422126238949
 21
22.7249997642576
 31
0.0
  0
LINE
  5
2F77
330
1A
100
AcDbEntity
  8
ZUWAKU
100
AcDbLine
 10
61.34221262389485
 20
22.7249997642576
 30
0.0
 11
61.34221262389485
 21
10.9999997642576
 31
0.0
  0
LINE
  5
2F78
330
1A
100
AcDbEntity
  8
ZUWAKU
100
AcDbLine
 10
64.14221262389492
 20
9.949999764257611
 30
0.0
 11
64.14221262389492
 21
22.7249997642576
 31
0.0
  0
LINE
  5
2F79
330
1A
100
AcDbEntity
  8
ZUWAKU
100
AcDbLine
 10
79.12663001710211
 20
29.9999997642576
 30
0.0
 11
79.12663001710211
 21
0.7999997642576773
 31
0.0
  0
LINE
  5
2F7A
330
1A
100
AcDbEntity
  8
ZUWAKU
100
AcDbLine
 10
79.52663001710198
 20
29.9999997642576
 30
0.0
 11
79.5266300171022
 21
0.7999997642576773
 31
0.0
  0
LINE
  5
2F7B
330
1A
100
AcDbEntity
  8
ZUWAKU
100
AcDbLine
 10
79.32663001710193
 20
29.9999997642576
 30
0.0
 11
79.32663001710216
 21
0.7999997642576773
 31
0.0
  0
LINE
  5
2F7C
330
1A
100
AcDbEntity
  8
ZUWAKU
100
AcDbLine
 10
208.4466017591814
 20
29.9999997642576
 30
0.0
 11
208.4466017591817
 21
0.7999997642576773
 31
0.0
  0
LINE
  5
2F7D
330
1A
100
AcDbEntity
  8
ZUWAKU
100
AcDbLine
 10
208.6466017591815
 20
29.9999997642576
 30
0.0
 11
208.6466017591817
 21
0.7999997642576773
 31
0.0
  0
LINE
  5
2F7E
330
1A
100
AcDbEntity
  8
ZUWAKU
100
AcDbLine
 10
208.2466017591816
 20
29.9999997642576
 30
0.0
 11
208.2466017591816
 21
0.7999997642576773
 31
0.0
  0
ARC
  5
2F7F
330
1A
100
AcDbEntity
  8
ZUWAKU
100
AcDbCircle
 10
57.84221262389485
 20
9.949999764257611
 30
0.0
 40
2.799999999999999
100
AcDbArc
 50
180.0
 51
270.0
  0
ARC
  5
2F80
330
1A
100
AcDbEntity
  8
ZUWAKU
100
AcDbCircle
 10
61.34221262389485
 20
9.949999764257611
 30
0.0
 40
2.799999999999999
100
AcDbArc
 50
270.0
 51
0.0
  0
LINE
  5
2F81
330
1A
100
AcDbEntity
  8
ZUWAKU
100
AcDbLine
 10
66.76721262389492
 20
7.149999764257614
 30
0.0
 11
68.51721262389492
 21
7.149999764257614
 31
0.0
  0
ARC
  5
2F82
330
1A
100
AcDbEntity
  8
ZUWAKU
100
AcDbCircle
 10
66.76721262389492
 20
7.674999764257613
 30
0.0
 40
0.525
100
AcDbArc
 50
180.0
 51
270.0
  0
ARC
  5
2F83
330
1A
100
AcDbEntity
  8
ZUWAKU
100
AcDbCircle
 10
68.51721262389492
 20
7.674999764257613
 30
0.0
 40
0.525
100
AcDbArc
 50
270.0
 51
0.0
  0
ARC
  5
2F84
330
1A
100
AcDbEntity
  8
ZUWAKU
100
AcDbCircle
 10
58.89221262389492
 20
10.9999997642576
 30
0.0
 40
1.049999999999999
100
AcDbArc
 50
180.0
 51
270.0
  0
LINE
  5
2F85
330
1A
100
AcDbEntity
  8
ZUWAKU
100
AcDbLine
 10
57.84221262389485
 20
7.149999764257614
 30
0.0
 11
61.34221262389485
 21
7.149999764257614
 31
0.0
  0
ARC
  5
2F86
330
1A
100
AcDbEntity
  8
ZUWAKU
100
AcDbCircle
 10
60.2922126238949
 20
10.9999997642576
 30
0.0
 40
1.049999999999999
100
AcDbArc
 50
270.0
 51
0.0
  0
LINE
  5
2F87
330
1A
100
AcDbEntity
  8
ZUWAKU
100
AcDbLine
 10
60.2922126238949
 20
9.949999764257611
 30
0.0
 11
58.89221262389492
 21
9.949999764257611
 31
0.0
  0
TEXT
  5
2F88
330
1A
100
AcDbEntity
  8
ZUWAKU
100
AcDbText
 10
209.7240467813912
 20
9.655356302643227
 30
0.0
 40
4.0
  1
サイズ
 41
0.9
  7
ｽﾀｲﾙ1
100
AcDbText
  0
LINE
  5
2F89
330
1A
100
AcDbEntity
  8
ZUWAKU
100
AcDbLine
 10
68.51721262389492
 20
23.24999976425761
 30
0.0
 11
66.76721262389492
 21
23.24999976425761
 31
0.0
  0
ARC
  5
2F8A
330
1A
100
AcDbEntity
  8
ZUWAKU
100
AcDbCircle
 10
66.76721262389492
 20
22.7249997642576
 30
0.0
 40
0.525
100
AcDbArc
 50
90.0
 51
180.0
  0
ARC
  5
2F8B
330
1A
100
AcDbEntity
  8
ZUWAKU
100
AcDbCircle
 10
68.51721262389492
 20
22.7249997642576
 30
0.0
 40
0.525
100
AcDbArc
 50
0.0
 51
90.0
  0
LINE
  5
2F8C
330
1A
100
AcDbEntity
  8
ZUWAKU
100
AcDbLine
 10
57.31721262389488
 20
23.24999976425761
 30
0.0
 11
55.56721262389487
 21
23.24999976425761
 31
0.0
  0
ARC
  5
2F8D
330
1A
100
AcDbEntity
  8
ZUWAKU
100
AcDbCircle
 10
55.56721262389487
 20
22.7249997642576
 30
0.0
 40
0.525
100
AcDbArc
 50
90.0
 51
180.0
  0
ARC
  5
2F8E
330
1A
100
AcDbEntity
  8
ZUWAKU
100
AcDbCircle
 10
57.31721262389488
 20
22.7249997642576
 30
0.0
 40
0.525
100
AcDbArc
 50
0.0
 51
90.0
  0
ARC
  5
2F8F
330
1A
100
AcDbEntity
  8
ZUWAKU
100
AcDbCircle
 10
61.86721262389482
 20
22.7249997642576
 30
0.0
 40
0.525
100
AcDbArc
 50
90.0
 51
180.0
  0
LINE
  5
2F90
330
1A
100
AcDbEntity
  8
ZUWAKU
100
AcDbLine
 10
63.61721262389483
 20
23.24999976425761
 30
0.0
 11
61.86721262389482
 21
23.24999976425761
 31
0.0
  0
ARC
  5
2F91
330
1A
100
AcDbEntity
  8
ZUWAKU
100
AcDbCircle
 10
63.61721262389483
 20
22.7249997642576
 30
0.0
 40
0.525
100
AcDbArc
 50
0.0
 51
90.0
  0
TEXT
  5
2F92
330
1A
100
AcDbEntity
  8
ZUWAKU
100
AcDbText
 10
209.724046781391
 20
24.05535630264319
 30
0.0
 40
4.0
  1
品名
 41
0.9
  7
ｽﾀｲﾙ1
100
AcDbText
  0
TEXT
  5
2F93
330
1A
100
AcDbEntity
  8
MOJI
100
AcDbText
 10
528.0409084414266
 20
18.00492082166499
 30
0.0
 40
5.599999999999999
  1
Ａ３
 41
0.9
  7
ｽﾀｲﾙ1
100
AcDbText
  0
LINE
  5
2F94
330
1A
100
AcDbEntity
  8
ZUWAKU
100
AcDbLine
 10
504.9991799672546
 20
29.9999997642576
 30
0.0
 11
504.9991799672548
 21
0.7999997642576773
 31
0.0
  0
LINE
  5
2F95
330
1A
100
AcDbEntity
  8
ZUWAKU
100
AcDbLine
 10
505.1991799672546
 20
29.9999997642576
 30
0.0
 11
505.1991799672548
 21
0.7999997642576773
 31
0.0
  0
LINE
  5
2F96
330
1A
100
AcDbEntity
  8
ZUWAKU
100
AcDbLine
 10
504.7991799672547
 20
29.9999997642576
 30
0.0
 11
504.7991799672547
 21
0.7999997642576773
 31
0.0
  0
LINE
  5
2F97
330
1A
100
AcDbEntity
  8
ZUWAKU
100
AcDbLine
 10
552.5269562352262
 20
29.9999997642576
 30
0.0
 11
552.5269562352262
 21
0.7999997642576773
 31
0.0
  0
LINE
  5
2F98
330
1A
100
AcDbEntity
  8
ZUWAKU
100
AcDbLine
 10
552.926956235226
 20
29.9999997642576
 30
0.0
 11
552.9269562352262
 21
0.7999997642576773
 31
0.0
  0
LINE
  5
2F99
330
1A
100
AcDbEntity
  8
ZUWAKU
100
AcDbLine
 10
552.726956235226
 20
29.9999997642576
 30
0.0
 11
552.7269562352262
 21
0.7999997642576773
 31
0.0
  0
LINE
  5
2F9A
330
1A
100
AcDbEntity
  8
ZUWAKU
100
AcDbLine
 10
447.624364440105
 20
29.9999997642576
 30
0.0
 11
447.6243644401051
 21
0.7999997642576773
 31
0.0
  0
LINE
  5
2F9B
330
1A
100
AcDbEntity
  8
ZUWAKU
100
AcDbLine
 10
447.8243644401049
 20
29.9999997642576
 30
0.0
 11
447.8243644401052
 21
0.7999997642576773
 31
0.0
  0
LINE
  5
2F9C
330
1A
100
AcDbEntity
  8
ZUWAKU
100
AcDbLine
 10
447.4243644401051
 20
29.9999997642576
 30
0.0
 11
447.4243644401051
 21
0.7999997642576773
 31
0.0
  0
TEXT
  5
2F9D
330
1A
100
AcDbEntity
  8
MOJI
100
AcDbText
 10
463.2464324601158
 20
11.94261748591759
 30
0.0
 40
5.599999999999999
  1
ＰＧ０１□
 41
0.9
  7
ｽﾀｲﾙ1
100
AcDbText
  0
LINE
  5
2F9E
330
1A
100
AcDbEntity
  8
ZUWAKU
100
AcDbLine
 10
505.1991799672546
 20
15.19999976425764
 30
0.0
 11
552.5269562352262
 21
15.19999976425764
 31
0.0
  0
LINE
  5
2F9F
330
1A
100
AcDbEntity
  8
ZUWAKU
100
AcDbLine
 10
505.1991799672546
 20
15.39999976425764
 30
0.0
 11
552.5269562352262
 21
15.39999976425764
 31
0.0
  0
LINE
  5
2FA0
330
1A
100
AcDbEntity
  8
ZUWAKU
100
AcDbLine
 10
505.1991799672546
 20
15.59999976425764
 30
0.0
 11
552.5269562352262
 21
15.59999976425764
 31
0.0
  0
TEXT
  5
2FA1
330
1A
100
AcDbEntity
  8
ZUWAKU
100
AcDbText
 10
506.6766249894644
 20
9.655356302643227
 30
0.0
 40
4.0
  1
縮尺
 41
0.9
  7
ｽﾀｲﾙ1
100
AcDbText
  0
TEXT
  5
2FA2
330
1A
100
AcDbEntity
  8
ZUWAKU
100
AcDbText
 10
462.0597167350476
 20
2.614070675397101
 30
0.0
 40
3.0
  1
□には色品番が入ります
 41
0.9
  7
ｽﾀｲﾙ1
100
AcDbText
  0
TEXT
  5
2FA3
330
1A
100
AcDbEntity
  8
MOJI
100
AcDbText
 10
528.0409084414266
 20
3.20492082166503
 30
0.0
 40
5.599999999999999
  1
１/２
 41
0.9
  7
ｽﾀｲﾙ1
100
AcDbText
  0
TEXT
  5
2FA4
330
1A
100
AcDbEntity
  8
ZUWAKU
100
AcDbText
 10
449.3018094623145
 20
24.05535630264319
 30
0.0
 40
4.0
  1
品番
 41
0.9
  7
ｽﾀｲﾙ1
100
AcDbText
  0
TEXT
  5
2FA5
330
1A
100
AcDbEntity
  8
ZUWAKU
100
AcDbText
 10
506.6766249894642
 20
24.05535630264319
 30
0.0
 40
4.0
  1
用紙
 41
0.9
  7
ｽﾀｲﾙ1
100
AcDbText
  0
TEXT
  5
2FA6
330
1A
100
AcDbEntity
  8
ZUWAKU
100
AcDbText
 10
708.5280846613575
 20
17.55383909994441
 30
0.0
 40
6.0
  1
積水化学工業株式会社
 41
0.9
  7
ｽﾀｲﾙ1
100
AcDbText
  0
TEXT
  5
2FA7
330
1A
100
AcDbEntity
  8
ZUWAKU
100
AcDbText
 10
658.2039381564161
 20
18.00492082166499
 30
0.0
 40
5.599999999999999
  1
　　．　　．　　
 41
0.9
  7
ｽﾀｲﾙ1
100
AcDbText
  0
LINE
  5
2FA8
330
1A
100
AcDbEntity
  8
ZUWAKU
100
AcDbLine
 10
697.8490110176549
 20
29.9999997642576
 30
0.0
 11
697.8490110176551
 21
0.7999997642576773
 31
0.0
  0
LINE
  5
2FA9
330
1A
100
AcDbEntity
  8
ZUWAKU
100
AcDbLine
 10
697.6490110176548
 20
29.9999997642576
 30
0.0
 11
697.649011017655
 21
0.7999997642576773
 31
0.0
  0
LINE
  5
2FAA
330
1A
100
AcDbEntity
  8
ZUWAKU
100
AcDbLine
 10
697.449011017655
 20
29.9999997642576
 30
0.0
 11
697.449011017655
 21
0.7999997642576773
 31
0.0
  0
LINE
  5
2FAB
330
1A
100
AcDbEntity
  8
ZUWAKU
100
AcDbLine
 10
697.249011017655
 20
29.9999997642576
 30
0.0
 11
697.249011017655
 21
0.7999997642576773
 31
0.0
  0
LINE
  5
2FAC
330
1A
100
AcDbEntity
  8
ZUWAKU
100
AcDbLine
 10
648.4172029793183
 20
29.9999997642576
 30
0.0
 11
648.4172029793183
 21
0.7999997642576773
 31
0.0
  0
LINE
  5
2FAD
330
1A
100
AcDbEntity
  8
ZUWAKU
100
AcDbLine
 10
648.8172029793181
 20
29.9999997642576
 30
0.0
 11
648.8172029793183
 21
0.7999997642576773
 31
0.0
  0
LINE
  5
2FAE
330
1A
100
AcDbEntity
  8
ZUWAKU
100
AcDbLine
 10
648.6172029793181
 20
29.9999997642576
 30
0.0
 11
648.6172029793183
 21
0.7999997642576773
 31
0.0
  0
TEXT
  5
2FAF
330
1A
100
AcDbEntity
  8
ZUWAKU
100
AcDbText
 10
708.5280846613575
 20
6.648840078111675
 30
0.0
 40
6.0
  1
建材事業部
 41
0.9
  7
ｽﾀｲﾙ1
100
AcDbText
  0
LINE
  5
2FB0
330
1A
100
AcDbEntity
  8
ZUWAKU
100
AcDbLine
 10
648.8172029793179
 20
15.19999976425764
 30
0.0
 11
697.249011017655
 21
15.19999976425764
 31
0.0
  0
LINE
  5
2FB1
330
1A
100
AcDbEntity
  8
ZUWAKU
100
AcDbLine
 10
648.8172029793181
 20
15.39999976425764
 30
0.0
 11
697.249011017655
 21
15.39999976425764
 31
0.0
  0
LINE
  5
2FB2
330
1A
100
AcDbEntity
  8
ZUWAKU
100
AcDbLine
 10
648.8172029793179
 20
15.59999976425764
 30
0.0
 11
697.249011017655
 21
15.59999976425764
 31
0.0
  0
TEXT
  5
2FB3
330
1A
100
AcDbEntity
  8
ZUWAKU
100
AcDbText
 10
650.2946480015277
 20
24.05535630264319
 30
0.0
 40
4.0
  1
DATE
 41
0.9
  7
ｽﾀｲﾙ1
100
AcDbText
  0
DIMENSION
  5
2FD7
330
1A
100
AcDbEntity
  8
SUNPOU
100
AcDbDimension
  2
*D19
 10
678.8783094705427
 20
461.1255353700661
 30
0.0
 11
688.8318294187175
 21
459.1319717957796
 31
0.0
 70
   160
  1
差込み寸法<>
  3
STANDARD
100
AcDbAlignedDimension
 13
653.4877527206645
 23
456.1255353700661
 33
0.0
 14
650.2168527206645
 24
461.1255353700661
 34
0.0
 50
90.0
100
AcDbRotatedDimension
1001
ACAD
1000
DSTYLE
1002
{
1070
   287
1070
     5
1070
    41
1040
7.0
1070
    42
1040
6.0
1070
    43
1040
14.0
1070
    44
1040
3.0
1070
    73
1070
     0
1070
    74
1070
     0
1070
    77
1070
     3
1070
   140
1040
6.0
1070
   141
1040
150.0
1070
   147
1040
2.0
1070
   172
1070
     1
1070
   173
1070
     1
1070
   176
1070
   256
1070
   177
1070
   256
1070
   178
1070
   256
1070
   271
1070
     0
1070
   272
1070
     0
1070
   279
1070
     2
1070
   341
1005
6D
1070
     6
1000
OPEN
1070
     7
1000
OPEN
1070
   371
1070
    -1
1070
   372
1070
    -1
1002
}
  0
DIMENSION
  5
2FFC
330
1A
100
AcDbEntity
  8
SUNPOU
100
AcDbDimension
  2
*D20
 10
626.992013950623
 20
461.1255353700662
 30
0.0
 11
621.9920139506228
 21
454.6255353700662
 31
0.0
 70
    32
  3
STANDARD
100
AcDbAlignedDimension
 13
646.9877527206643
 23
448.1255353700661
 33
0.0
 14
649.4877527206645
 24
461.1255353700661
 34
0.0
 50
90.0
100
AcDbRotatedDimension
1001
ACAD
1000
DSTYLE
1002
{
1070
    41
1040
7.0
1070
    42
1040
6.0
1070
    43
1040
14.0
1070
    44
1040
3.0
1070
    73
1070
     0
1070
    74
1070
     0
1070
    77
1070
     3
1070
   140
1040
6.0
1070
   141
1040
150.0
1070
   147
1040
2.0
1070
   172
1070
     1
1070
   173
1070
     1
1070
   176
1070
   256
1070
   177
1070
   256
1070
   178
1070
   256
1070
   271
1070
     0
1070
   272
1070
     0
1070
   341
1005
6D
1070
     6
1000
OPEN
1070
     7
1000
OPEN
1070
   371
1070
    -1
1070
   372
1070
    -1
1002
}
  0
DIMENSION
  5
300B
330
1A
100
AcDbEntity
  8
SUNPOU
100
AcDbDimension
  2
*D21
 10
500.4678977678909
 20
448.1254353700661
 30
0.0
 11
495.4678977678907
 21
456.6254353700662
 31
0.0
 70
    32
  3
STANDARD
100
AcDbAlignedDimension
 13
525.2224574276723
 23
465.1254353700661
 33
0.0
 14
525.2224574276723
 24
448.1254353700661
 34
0.0
 50
90.0
100
AcDbRotatedDimension
1001
ACAD
1000
DSTYLE
1002
{
1070
    41
1040
7.0
1070
    42
1040
6.0
1070
    43
1040
14.0
1070
    44
1040
3.0
1070
    73
1070
     0
1070
    74
1070
     0
1070
    77
1070
     3
1070
   140
1040
6.0
1070
   141
1040
150.0
1070
   147
1040
2.0
1070
   172
1070
     1
1070
   173
1070
     1
1070
   176
1070
   256
1070
   177
1070
   256
1070
   178
1070
   256
1070
   271
1070
     0
1070
   272
1070
     0
1070
   341
1005
6D
1070
     6
1000
OPEN
1070
     7
1000
OPEN
1070
   371
1070
    -1
1070
   372
1070
    -1
1002
}
  0
VIEWPORT
  5
22
330
17
100
AcDbEntity
 67
     1
  8
0
100
AcDbViewport
 10
313.6808219178082
 20
148.5
 30
0.0
 40
627.3616438356165
 41
297.0
 68
     2
 69
     1
1001
ACAD
1000
MVIEW
1002
{
1070
    16
1010
0.0
1020
0.0
1030
0.0
1010
0.0
1020
0.0
1030
1.0
1040
0.0
1040
297.0
1040
313.6808219178082
1040
148.5
1040
50.0
1040
0.0
1040
0.0
1070
     0
1070
   100
1070
     1
1070
     0
1070
     0
1070
     0
1070
     0
1070
     0
1040
0.0
1040
0.0
1040
0.0
1040
1.0
1040
1.0
1040
10.0
1040
10.0
1070
     0
1002
{
1002
}
1002
}
  0
VIEWPORT
  5
64
330
17
100
AcDbEntity
 67
     1
  8
VIEWPORT
100
AcDbViewport
 10
210.0
 20
148.5
 30
0.0
 40
420.0
 41
297.0
 68
     1
 69
     2
1001
ACAD
1000
MVIEW
1002
{
1070
    16
1010
0.0
1020
0.0
1030
0.0
1010
0.0
1020
0.0
1030
1.0
1040
0.0
1040
605.8799999999997
1040
420.0
1040
297.0
1040
50.0
1040
0.0
1040
0.0
1070
     0
1070
   100
1070
     1
1070
     0
1070
     0
1070
     0
1070
     0
1070
     0
1040
0.0
1040
0.0
1040
0.0
1040
10.0
1040
10.0
1040
0.0
1040
0.0
1070
     0
1002
{
1002
}
1002
}
  0
ENDSEC
  0
SECTION
  2
OBJECTS
  0
DICTIONARY
  5
C
330
0
100
AcDbDictionary
  3
ACAD_GROUP
350
D
  3
ACAD_LAYOUT
350
8D1
  3
ACAD_MLINESTYLE
350
E
  3
ACAD_PLOTSETTINGS
350
8D2
  3
ACAD_PLOTSTYLENAME
350
8CF
  3
ACDBHEADERROUNDTRIPXREC
350
3049
  0
DICTIONARY
  5
AD2
330
1A
100
AcDbDictionary
280
     1
  3
ACAD_LAYOUTSELFREF
360
306B
  0
DICTIONARY
  5
AD0
330
17
100
AcDbDictionary
280
     1
  3
ACAD_LAYOUTSELFREF
360
306A
  0
DICTIONARY
  5
D
102
{ACAD_REACTORS
330
C
102
}
330
C
100
AcDbDictionary
  3
*A1
350
1AA0
  3
*A2
350
1AB7
  3
*A3
350
1B67
  3
*A4
350
1EA4
  3
*A5
350
1EA5
  0
DICTIONARY
  5
8D1
102
{ACAD_REACTORS
330
C
102
}
330
C
100
AcDbDictionary
  0
DICTIONARY
  5
E
102
{ACAD_REACTORS
330
C
102
}
330
C
100
AcDbDictionary
  3
STANDARD
350
13
  0
DICTIONARY
  5
8D2
102
{ACAD_REACTORS
330
C
102
}
330
C
100
AcDbDictionary
  0
ACDBDICTIONARYWDFLT
  5
8CF
102
{ACAD_REACTORS
330
C
102
}
330
C
100
AcDbDictionary
281
     1
  3
Normal
350
8D0
100
AcDbDictionaryWithDefault
340
8D0
1001
ACAD
1000
TREAT_AS_HARD
1070
     0
1000
TREAT_AS_HARD
1070
     0
1000
TREAT_AS_HARD
1070
     0
1000
TREAT_AS_HARD
1070
     0
1000
TREAT_AS_HARD
1070
     0
1000
TREAT_AS_HARD
1070
     0
1000
TREAT_AS_HARD
1070
     0
1000
TREAT_AS_HARD
1070
     0
1000
TREAT_AS_HARD
1070
     0
1000
TREAT_AS_HARD
1070
     0
1000
TREAT_AS_HARD
1070
     0
1000
TREAT_AS_HARD
1070
     0
1000
TREAT_AS_HARD
1070
     0
1000
TREAT_AS_HARD
1070
     0
1000
TREAT_AS_HARD
1070
     0
  0
DICTIONARY
  5
3049
102
{ACAD_REACTORS
330
C
102
}
330
C
100
AcDbDictionary
  3
TSTACKALIGN
350
304A
  3
TSTACKSIZE
350
304B
  3
HYPERLINKBASE
350
304C
  3
STYLESHEET
350
304D
  3
LAYOUTDICT
350
304E
  3
PLOTSETDICT
350
304F
  3
PLOTSTYLNAMDICT
350
3050
  3
LWETCUNION
350
3051
  3
INSUNITS
350
3052
  3
CEPSNTYPE
350
3053
  3
FINGERPRINTGUID
350
3054
  3
VERSIONGUID
350
3055
  3
PSVPSCALE
350
3056
  3
DIMSTYLEDATA
350
3057
  3
PUCSORTHOREF
350
3058
  3
PUCSORTHOVIEW
350
3059
  3
PUCSBASE
350
305A
  3
PUCSORGTOP
350
305B
  3
PUCSORGBOTTOM
350
305C
  3
PUCSORGLEFT
350
305D
  3
PUCSORGRIGHT
350
305E
  3
PUCSORGFRONT
350
305F
  3
PUCSORGBACK
350
3060
  3
UCSORTHOREF
350
3061
  3
UCSORTHOVIEW
350
3062
  3
UCSBASE
350
3063
  3
UCSORGTOP
350
3064
  3
UCSORGBOTTOM
350
3065
  3
UCSORGLEFT
350
3066
  3
UCSORGRIGHT
350
3067
  3
UCSORGFRONT
350
3068
  3
UCSORGBACK
350
3069
  0
XRECORD
  5
306B
102
{ACAD_REACTORS
330
AD2
102
}
330
AD2
100
AcDbXrecord
340
1A
  0
XRECORD
  5
306A
102
{ACAD_REACTORS
330
AD0
102
}
330
AD0
100
AcDbXrecord
340
17
  0
GROUP
  5
1AA0
102
{ACAD_REACTORS
330
D
102
}
330
D
100
AcDbGroup
300

 70
     1
 71
     1
  0
GROUP
  5
1AB7
102
{ACAD_REACTORS
330
D
102
}
330
D
100
AcDbGroup
300

 70
     1
 71
     1
  0
GROUP
  5
1B67
102
{ACAD_REACTORS
330
D
102
}
330
D
100
AcDbGroup
300

 70
     1
 71
     1
  0
GROUP
  5
1EA4
102
{ACAD_REACTORS
330
D
102
}
330
D
100
AcDbGroup
300

 70
     1
 71
     1
  0
GROUP
  5
1EA5
102
{ACAD_REACTORS
330
D
102
}
330
D
100
AcDbGroup
300

 70
     1
 71
     1
  0
MLINESTYLE
  5
13
102
{ACAD_REACTORS
330
E
102
}
330
E
100
AcDbMlineStyle
  2
STANDARD
 70
     0
  3

 62
     0
 51
90.0
 52
90.0
 71
     2
 49
0.5
 62
   256
  6
BYLAYER
 49
-0.5
 62
   256
  6
BYLAYER
  0
ACDBPLACEHOLDER
  5
8D0
102
{ACAD_REACTORS
330
8CF
102
}
330
8CF
100
AcDbPlaceHolder
280
     0
  0
XRECORD
  5
304A
102
{ACAD_REACTORS
330
3049
102
}
330
3049
100
AcDbXrecord
 90
        1
  0
XRECORD
  5
304B
102
{ACAD_REACTORS
330
3049
102
}
330
3049
100
AcDbXrecord
 90
       70
  0
XRECORD
  5
304C
102
{ACAD_REACTORS
330
3049
102
}
330
3049
100
AcDbXrecord
  1

  0
XRECORD
  5
304D
102
{ACAD_REACTORS
330
3049
102
}
330
3049
100
AcDbXrecord
  1
systemprinter.ctb
  0
XRECORD
  5
304E
102
{ACAD_REACTORS
330
3049
102
}
330
3049
100
AcDbXrecord
340
8D1
  0
XRECORD
  5
304F
102
{ACAD_REACTORS
330
3049
102
}
330
3049
100
AcDbXrecord
340
8D2
  0
XRECORD
  5
3050
102
{ACAD_REACTORS
330
3049
102
}
330
3049
100
AcDbXrecord
340
8CF
  0
XRECORD
  5
3051
102
{ACAD_REACTORS
330
3049
102
}
330
3049
100
AcDbXrecord
 90
    10781
  0
XRECORD
  5
3052
102
{ACAD_REACTORS
330
3049
102
}
330
3049
100
AcDbXrecord
 90
        0
  0
XRECORD
  5
3053
102
{ACAD_REACTORS
330
3049
102
}
330
3049
100
AcDbXrecord
 90
        0
  0
XRECORD
  5
3054
102
{ACAD_REACTORS
330
3049
102
}
330
3049
100
AcDbXrecord
  1
{E7660B84-245B-4EEF-A5D2-EED1934F6951}
  0
XRECORD
  5
3055
102
{ACAD_REACTORS
330
3049
102
}
330
3049
100
AcDbXrecord
  1
{7A30CE8E-7F52-4984-B8E9-35BA7311690D}
  0
XRECORD
  5
3056
102
{ACAD_REACTORS
330
3049
102
}
330
3049
100
AcDbXrecord
 40
0.0
  0
XRECORD
  5
3057
102
{ACAD_REACTORS
330
3049
102
}
330
3049
100
AcDbXrecord
1000
DSTYLE
1002
{
1070
   279
 70
     2
1070
   341
340
6D
1070
   343
340
6D
1070
   344
340
6D
1070
   371
 70
    -1
1070
   372
 70
    -1
1002
}
  0
XRECORD
  5
3058
102
{ACAD_REACTORS
330
3049
102
}
330
3049
100
AcDbXrecord
340
0
  0
XRECORD
  5
3059
102
{ACAD_REACTORS
330
3049
102
}
330
3049
100
AcDbXrecord
 70
     0
  0
XRECORD
  5
305A
102
{ACAD_REACTORS
330
3049
102
}
330
3049
100
AcDbXrecord
340
0
  0
XRECORD
  5
305B
102
{ACAD_REACTORS
330
3049
102
}
330
3049
100
AcDbXrecord
 10
0.0
 20
0.0
 30
0.0
  0
XRECORD
  5
305C
102
{ACAD_REACTORS
330
3049
102
}
330
3049
100
AcDbXrecord
 10
0.0
 20
0.0
 30
0.0
  0
XRECORD
  5
305D
102
{ACAD_REACTORS
330
3049
102
}
330
3049
100
AcDbXrecord
 10
0.0
 20
0.0
 30
0.0
  0
XRECORD
  5
305E
102
{ACAD_REACTORS
330
3049
102
}
330
3049
100
AcDbXrecord
 10
0.0
 20
0.0
 30
0.0
  0
XRECORD
  5
305F
102
{ACAD_REACTORS
330
3049
102
}
330
3049
100
AcDbXrecord
 10
0.0
 20
0.0
 30
0.0
  0
XRECORD
  5
3060
102
{ACAD_REACTORS
330
3049
102
}
330
3049
100
AcDbXrecord
 10
0.0
 20
0.0
 30
0.0
  0
XRECORD
  5
3061
102
{ACAD_REACTORS
330
3049
102
}
330
3049
100
AcDbXrecord
340
0
  0
XRECORD
  5
3062
102
{ACAD_REACTORS
330
3049
102
}
330
3049
100
AcDbXrecord
 70
     0
  0
XRECORD
  5
3063
102
{ACAD_REACTORS
330
3049
102
}
330
3049
100
AcDbXrecord
340
0
  0
XRECORD
  5
3064
102
{ACAD_REACTORS
330
3049
102
}
330
3049
100
AcDbXrecord
 10
0.0
 20
0.0
 30
0.0
  0
XRECORD
  5
3065
102
{ACAD_REACTORS
330
3049
102
}
330
3049
100
AcDbXrecord
 10
0.0
 20
0.0
 30
0.0
  0
XRECORD
  5
3066
102
{ACAD_REACTORS
330
3049
102
}
330
3049
100
AcDbXrecord
 10
0.0
 20
0.0
 30
0.0
  0
XRECORD
  5
3067
102
{ACAD_REACTORS
330
3049
102
}
330
3049
100
AcDbXrecord
 10
0.0
 20
0.0
 30
0.0
  0
XRECORD
  5
3068
102
{ACAD_REACTORS
330
3049
102
}
330
3049
100
AcDbXrecord
 10
0.0
 20
0.0
 30
0.0
  0
XRECORD
  5
3069
102
{ACAD_REACTORS
330
3049
102
}
330
3049
100
AcDbXrecord
 10
0.0
 20
0.0
 30
0.0
  0
ENDSEC
  0
EOF
