  0
SECTION
  2
HEADER
  9
$ACADVER
  1
AC1014
  9
$ACADMAINTVER
 70
     9
  9
$DWGCODEPAGE
  3
ANSI_932
  9
$INSBASE
 10
0.0
 20
0.0
 30
0.0
  9
$EXTMIN
 10
-0.0064049753888185
 20
-0.0045292325963828
 30
-0.000000000000013
  9
$EXTMAX
 10
398.8308013307636
 20
275.8213247580297
 30
0.0000000000000023
  9
$LIMMIN
 10
0.0
 20
0.0
  9
$LIMMAX
 10
420.0
 20
297.0
  9
$ORTHOMODE
 70
     0
  9
$REGENMODE
 70
     1
  9
$FILLMODE
 70
     1
  9
$QTEXTMODE
 70
     0
  9
$MIRRTEXT
 70
     1
  9
$DRAGMODE
 70
     2
  9
$LTSCALE
 40
2.0
  9
$OSMODE
 70
    35
  9
$ATTMODE
 70
     1
  9
$TEXTSIZE
 40
5.0
  9
$TRACEWID
 40
1.0
  9
$TEXTSTYLE
  7
STANDARD
  9
$CLAYER
  8
SUNPOU
  9
$CELTYPE
  6
BYLAYER
  9
$CECOLOR
 62
   256
  9
$CELTSCALE
 40
1.0
  9
$DELOBJ
 70
     1
  9
$DISPSILH
 70
     0
  9
$DIMSCALE
 40
1.0
  9
$DIMASZ
 40
3.0
  9
$DIMEXO
 40
6.0
  9
$DIMDLI
 40
14.0
  9
$DIMRND
 40
0.0
  9
$DIMDLE
 40
0.0
  9
$DIMEXE
 40
3.0
  9
$DIMTP
 40
0.0
  9
$DIMTM
 40
0.0
  9
$DIMTXT
 40
3.0
  9
$DIMCEN
 40
150.0
  9
$DIMTSZ
 40
0.0
  9
$DIMTOL
 70
     0
  9
$DIMLIM
 70
     0
  9
$DIMTIH
 70
     0
  9
$DIMTOH
 70
     0
  9
$DIMSE1
 70
     0
  9
$DIMSE2
 70
     0
  9
$DIMTAD
 70
     3
  9
$DIMZIN
 70
     0
  9
$DIMBLK
  1

  9
$DIMASO
 70
     1
  9
$DIMSHO
 70
     1
  9
$DIMPOST
  1

  9
$DIMAPOST
  1

  9
$DIMALT
 70
     0
  9
$DIMALTD
 70
     2
  9
$DIMALTF
 40
25.4
  9
$DIMLFAC
 40
1.0
  9
$DIMTOFL
 70
     1
  9
$DIMTVP
 40
0.0
  9
$DIMTIX
 70
     0
  9
$DIMSOXD
 70
     0
  9
$DIMSAH
 70
     1
  9
$DIMBLK1
  1
OPEN
  9
$DIMBLK2
  1
OPEN
  9
$DIMSTYLE
  2
STANDARD
  9
$DIMCLRD
 70
   256
  9
$DIMCLRE
 70
   256
  9
$DIMCLRT
 70
   256
  9
$DIMTFAC
 40
1.0
  9
$DIMGAP
 40
2.0
  9
$DIMJUST
 70
     0
  9
$DIMSD1
 70
     0
  9
$DIMSD2
 70
     0
  9
$DIMTOLJ
 70
     1
  9
$DIMTZIN
 70
     0
  9
$DIMALTZ
 70
     0
  9
$DIMALTTZ
 70
     0
  9
$DIMFIT
 70
     3
  9
$DIMUPT
 70
     0
  9
$DIMUNIT
 70
     2
  9
$DIMDEC
 70
     0
  9
$DIMTDEC
 70
     0
  9
$DIMALTU
 70
     2
  9
$DIMALTTD
 70
     2
  9
$DIMTXSTY
  7
STANDARD
  9
$DIMAUNIT
 70
     0
  9
$LUNITS
 70
     2
  9
$LUPREC
 70
     4
  9
$SKETCHINC
 40
1.0
  9
$FILLETRAD
 40
1.0
  9
$AUNITS
 70
     0
  9
$AUPREC
 70
     0
  9
$MENU
  1
.
  9
$ELEVATION
 40
0.0
  9
$PELEVATION
 40
0.0
  9
$THICKNESS
 40
0.0
  9
$LIMCHECK
 70
     0
  9
$BLIPMODE
 70
     0
  9
$CHAMFERA
 40
0.0
  9
$CHAMFERB
 40
0.0
  9
$CHAMFERC
 40
40.0
  9
$CHAMFERD
 40
0.0
  9
$SKPOLY
 70
     0
  9
$TDCREATE
 40
2451212.627488426
  9
$TDUPDATE
 40
2453481.402379189
  9
$TDINDWG
 40
0.1263946181
  9
$TDUSRTIMER
 40
0.1263944444
  9
$USRTIMER
 70
     1
  9
$ANGBASE
 50
0.0
  9
$ANGDIR
 70
     0
  9
$PDMODE
 70
     0
  9
$PDSIZE
 40
0.0
  9
$PLINEWID
 40
0.0
  9
$COORDS
 70
     1
  9
$SPLFRAME
 70
     0
  9
$SPLINETYPE
 70
     6
  9
$SPLINESEGS
 70
     8
  9
$ATTDIA
 70
     0
  9
$ATTREQ
 70
     1
  9
$HANDLING
 70
 10241
  9
$HANDSEED
  5
3499
  9
$SURFTAB1
 70
     6
  9
$SURFTAB2
 70
     6
  9
$SURFTYPE
 70
     6
  9
$SURFU
 70
     6
  9
$SURFV
 70
     6
  9
$UCSNAME
  2

  9
$UCSORG
 10
0.0
 20
0.0
 30
0.0
  9
$UCSXDIR
 10
1.0
 20
0.0
 30
0.0
  9
$UCSYDIR
 10
0.0
 20
1.0
 30
0.0
  9
$PUCSNAME
  2

  9
$PUCSORG
 10
0.0
 20
0.0
 30
0.0
  9
$PUCSXDIR
 10
1.0
 20
0.0
 30
0.0
  9
$PUCSYDIR
 10
0.0
 20
1.0
 30
0.0
  9
$USERI1
 70
     0
  9
$USERI2
 70
     0
  9
$USERI3
 70
     0
  9
$USERI4
 70
     0
  9
$USERI5
 70
     0
  9
$USERR1
 40
0.0
  9
$USERR2
 40
0.0
  9
$USERR3
 40
0.0
  9
$USERR4
 40
0.0
  9
$USERR5
 40
0.0
  9
$WORLDVIEW
 70
     1
  9
$SHADEDGE
 70
     3
  9
$SHADEDIF
 70
    70
  9
$TILEMODE
 70
     1
  9
$MAXACTVP
 70
    16
  9
$PINSBASE
 10
0.0
 20
0.0
 30
0.0
  9
$PLIMCHECK
 70
     0
  9
$PEXTMIN
 10
0.0
 20
0.0
 30
0.0
  9
$PEXTMAX
 10
420.0
 20
297.0
 30
0.0
  9
$PLIMMIN
 10
0.0
 20
0.0
  9
$PLIMMAX
 10
420.0
 20
297.0
  9
$UNITMODE
 70
     0
  9
$VISRETAIN
 70
     0
  9
$PLINEGEN
 70
     0
  9
$PSLTSCALE
 70
     1
  9
$TREEDEPTH
 70
  3020
  9
$PICKSTYLE
 70
     1
  9
$CMLSTYLE
  2
STANDARD
  9
$CMLJUST
 70
     0
  9
$CMLSCALE
 40
1.0
  9
$PROXYGRAPHICS
 70
     1
  9
$MEASUREMENT
 70
     1
  0
ENDSEC
  0
SECTION
  2
CLASSES
  0
CLASS
  1
ACDBDICTIONARYWDFLT
  2
AcDbDictionaryWithDefault
  3
AutoCAD 2000
 90
        0
280
     0
281
     0
  0
CLASS
  1
ACDBPLACEHOLDER
  2
AcDbPlaceHolder
  3
AutoCAD 2000
 90
        0
280
     0
281
     0
  0
CLASS
  1
LAYOUT
  2
AcDbLayout
  3
AutoCAD 2000
 90
        0
280
     0
281
     0
  0
CLASS
  1
LONG_TRANSACTION
  2
AcDbLongTransaction
  3
AutoCAD 2000
 90
        0
280
     0
281
     0
  0
CLASS
  1
LWPOLYLINE
  2
AcDbPolyline
  3
AutoCAD 2000
 90
        0
280
     0
281
     1
  0
CLASS
  1
HATCH
  2
AcDbHatch
  3
AutoCAD 2000
 90
        0
280
     0
281
     1
  0
CLASS
  1
XRECORD
  2
AcDbXrecord
  3
AutoCAD 2000
 90
        0
280
     0
281
     0
  0
CLASS
  1
LONG_TRANSACTION
  2
AcDbLongTransaction
  3
AutoCAD 2000
 90
        0
280
     0
281
     0
  0
CLASS
  1
LWPOLYLINE
  2
AcDbPolyline
  3
AutoCAD 2000
 90
        0
280
     0
281
     1
  0
CLASS
  1
HATCH
  2
AcDbHatch
  3
AutoCAD 2000
 90
        0
280
     0
281
     1
  0
CLASS
  1
XRECORD
  2
AcDbXrecord
  3
AutoCAD 2000
 90
        0
280
     0
281
     0
  0
CLASS
  1
LONG_TRANSACTION
  2
AcDbLongTransaction
  3
AutoCAD 2000
 90
        0
280
     0
281
     0
  0
CLASS
  1
LWPOLYLINE
  2
AcDbPolyline
  3
AutoCAD 2000
 90
        0
280
     0
281
     1
  0
CLASS
  1
HATCH
  2
AcDbHatch
  3
AutoCAD 2000
 90
        0
280
     0
281
     1
  0
CLASS
  1
XRECORD
  2
AcDbXrecord
  3
AutoCAD 2000
 90
        0
280
     0
281
     0
  0
CLASS
  1
LONG_TRANSACTION
  2
AcDbLongTransaction
  3
AutoCAD 2000
 90
        0
280
     0
281
     0
  0
CLASS
  1
LWPOLYLINE
  2
AcDbPolyline
  3
AutoCAD 2000
 90
        0
280
     0
281
     1
  0
CLASS
  1
HATCH
  2
AcDbHatch
  3
AutoCAD 2000
 90
        0
280
     0
281
     1
  0
CLASS
  1
XRECORD
  2
AcDbXrecord
  3
AutoCAD 2000
 90
        0
280
     0
281
     0
  0
CLASS
  1
LONG_TRANSACTION
  2
AcDbLongTransaction
  3
AutoCAD 2000
 90
        0
280
     0
281
     0
  0
CLASS
  1
LWPOLYLINE
  2
AcDbPolyline
  3
AutoCAD 2000
 90
        0
280
     0
281
     1
  0
CLASS
  1
HATCH
  2
AcDbHatch
  3
AutoCAD 2000
 90
        0
280
     0
281
     1
  0
CLASS
  1
XRECORD
  2
AcDbXrecord
  3
AutoCAD 2000
 90
        0
280
     0
281
     0
  0
CLASS
  1
LONG_TRANSACTION
  2
AcDbLongTransaction
  3
AutoCAD 2000
 90
        0
280
     0
281
     0
  0
CLASS
  1
LWPOLYLINE
  2
AcDbPolyline
  3
AutoCAD 2000
 90
        0
280
     0
281
     1
  0
CLASS
  1
HATCH
  2
AcDbHatch
  3
AutoCAD 2000
 90
        0
280
     0
281
     1
  0
CLASS
  1
XRECORD
  2
AcDbXrecord
  3
AutoCAD 2000
 90
        0
280
     0
281
     0
  0
CLASS
  1
LONG_TRANSACTION
  2
AcDbLongTransaction
  3
AutoCAD 2000
 90
        0
280
     0
281
     0
  0
CLASS
  1
LWPOLYLINE
  2
AcDbPolyline
  3
AutoCAD 2000
 90
        0
280
     0
281
     1
  0
CLASS
  1
HATCH
  2
AcDbHatch
  3
AutoCAD 2000
 90
        0
280
     0
281
     1
  0
CLASS
  1
XRECORD
  2
AcDbXrecord
  3
AutoCAD 2000
 90
        0
280
     0
281
     0
  0
CLASS
  1
LONG_TRANSACTION
  2
AcDbLongTransaction
  3
AutoCAD 2000
 90
        0
280
     0
281
     0
  0
CLASS
  1
LWPOLYLINE
  2
AcDbPolyline
  3
AutoCAD 2000
 90
        0
280
     0
281
     1
  0
CLASS
  1
HATCH
  2
AcDbHatch
  3
AutoCAD 2000
 90
        0
280
     0
281
     1
  0
CLASS
  1
XRECORD
  2
AcDbXrecord
  3
AutoCAD 2000
 90
        0
280
     0
281
     0
  0
CLASS
  1
LONG_TRANSACTION
  2
AcDbLongTransaction
  3
AutoCAD 2000
 90
        0
280
     0
281
     0
  0
CLASS
  1
LWPOLYLINE
  2
AcDbPolyline
  3
AutoCAD 2000
 90
        0
280
     0
281
     1
  0
CLASS
  1
HATCH
  2
AcDbHatch
  3
AutoCAD 2000
 90
        0
280
     0
281
     1
  0
CLASS
  1
XRECORD
  2
AcDbXrecord
  3
AutoCAD 2000
 90
        0
280
     0
281
     0
  0
CLASS
  1
DICTIONARYVAR
  2
AcDbDictionaryVar
  3
AutoCAD 2000
 90
        0
280
     0
281
     0
  0
CLASS
  1
LONG_TRANSACTION
  2
AcDbLongTransaction
  3
AutoCAD 2000
 90
        0
280
     0
281
     0
  0
CLASS
  1
LWPOLYLINE
  2
AcDbPolyline
  3
AutoCAD 2000
 90
        0
280
     0
281
     1
  0
CLASS
  1
HATCH
  2
AcDbHatch
  3
AutoCAD 2000
 90
        0
280
     0
281
     1
  0
CLASS
  1
XRECORD
  2
AcDbXrecord
  3
AutoCAD 2000
 90
        0
280
     0
281
     0
  0
CLASS
  1
LONG_TRANSACTION
  2
AcDbLongTransaction
  3
AutoCAD 2000
 90
        0
280
     0
281
     0
  0
CLASS
  1
LWPOLYLINE
  2
AcDbPolyline
  3
AutoCAD 2000
 90
        0
280
     0
281
     1
  0
CLASS
  1
HATCH
  2
AcDbHatch
  3
AutoCAD 2000
 90
        0
280
     0
281
     1
  0
CLASS
  1
XRECORD
  2
AcDbXrecord
  3
AutoCAD 2000
 90
        0
280
     0
281
     0
  0
CLASS
  1
LONG_TRANSACTION
  2
AcDbLongTransaction
  3
AutoCAD 2000
 90
        0
280
     0
281
     0
  0
CLASS
  1
LWPOLYLINE
  2
AcDbPolyline
  3
AutoCAD 2000
 90
        0
280
     0
281
     1
  0
CLASS
  1
HATCH
  2
AcDbHatch
  3
AutoCAD 2000
 90
        0
280
     0
281
     1
  0
CLASS
  1
XRECORD
  2
AcDbXrecord
  3
AutoCAD 2000
 90
        0
280
     0
281
     0
  0
CLASS
  1
LONG_TRANSACTION
  2
AcDbLongTransaction
  3
AutoCAD 2000
 90
        0
280
     0
281
     0
  0
CLASS
  1
LWPOLYLINE
  2
AcDbPolyline
  3
AutoCAD 2000
 90
        0
280
     0
281
     1
  0
CLASS
  1
HATCH
  2
AcDbHatch
  3
AutoCAD 2000
 90
        0
280
     0
281
     1
  0
CLASS
  1
XRECORD
  2
AcDbXrecord
  3
AutoCAD 2000
 90
        0
280
     0
281
     0
  0
CLASS
  1
LONG_TRANSACTION
  2
AcDbLongTransaction
  3
AutoCAD 2000
 90
        0
280
     0
281
     0
  0
CLASS
  1
LWPOLYLINE
  2
AcDbPolyline
  3
AutoCAD 2000
 90
        0
280
     0
281
     1
  0
CLASS
  1
HATCH
  2
AcDbHatch
  3
AutoCAD 2000
 90
        0
280
     0
281
     1
  0
CLASS
  1
XRECORD
  2
AcDbXrecord
  3
AutoCAD 2000
 90
        0
280
     0
281
     0
  0
CLASS
  1
LONG_TRANSACTION
  2
AcDbLongTransaction
  3
AutoCAD 2000
 90
        0
280
     0
281
     0
  0
CLASS
  1
LWPOLYLINE
  2
AcDbPolyline
  3
AutoCAD 2000
 90
        0
280
     0
281
     1
  0
CLASS
  1
HATCH
  2
AcDbHatch
  3
AutoCAD 2000
 90
        0
280
     0
281
     1
  0
CLASS
  1
XRECORD
  2
AcDbXrecord
  3
AutoCAD 2000
 90
        0
280
     0
281
     0
  0
CLASS
  1
LONG_TRANSACTION
  2
AcDbLongTransaction
  3
AutoCAD 2000
 90
        0
280
     0
281
     0
  0
CLASS
  1
LWPOLYLINE
  2
AcDbPolyline
  3
AutoCAD 2000
 90
        0
280
     0
281
     1
  0
CLASS
  1
HATCH
  2
AcDbHatch
  3
AutoCAD 2000
 90
        0
280
     0
281
     1
  0
CLASS
  1
XRECORD
  2
AcDbXrecord
  3
AutoCAD 2000
 90
        0
280
     0
281
     0
  0
CLASS
  1
LONG_TRANSACTION
  2
AcDbLongTransaction
  3
AutoCAD 2000
 90
        0
280
     0
281
     0
  0
CLASS
  1
LWPOLYLINE
  2
AcDbPolyline
  3
AutoCAD 2000
 90
        0
280
     0
281
     1
  0
CLASS
  1
HATCH
  2
AcDbHatch
  3
AutoCAD 2000
 90
        0
280
     0
281
     1
  0
CLASS
  1
XRECORD
  2
AcDbXrecord
  3
AutoCAD 2000
 90
        0
280
     0
281
     0
  0
CLASS
  1
LONG_TRANSACTION
  2
AcDbLongTransaction
  3
AutoCAD 2000
 90
        0
280
     0
281
     0
  0
CLASS
  1
LWPOLYLINE
  2
AcDbPolyline
  3
AutoCAD 2000
 90
        0
280
     0
281
     1
  0
CLASS
  1
HATCH
  2
AcDbHatch
  3
AutoCAD 2000
 90
        0
280
     0
281
     1
  0
CLASS
  1
XRECORD
  2
AcDbXrecord
  3
AutoCAD 2000
 90
        0
280
     0
281
     0
  0
ENDSEC
  0
SECTION
  2
TABLES
  0
TABLE
  2
VPORT
  5
8
330
0
100
AcDbSymbolTable
 70
     3
  0
VPORT
  5
346C
330
8
100
AcDbSymbolTableRecord
100
AcDbViewportTableRecord
  2
*ACTIVE
 70
     0
 10
0.0
 20
0.0
 11
1.0
 21
1.0
 12
204.4461057694555
 22
139.6166290285467
 13
0.0
 23
0.0
 14
5.0
 24
5.0
 15
0.0
 25
0.0
 16
0.0
 26
0.0
 36
1.0
 17
0.0
 27
0.0
 37
0.0
 40
300.2924026893933
 41
1.752310536044362
 42
50.0
 43
0.0
 44
0.0
 50
0.0
 51
0.0
 71
     0
 72
   100
 73
     1
 74
     0
 75
     0
 76
     0
 77
     0
 78
     0
  0
ENDTAB
  0
TABLE
  2
LTYPE
  5
5
330
0
100
AcDbSymbolTable
 70
     2
  0
LTYPE
  5
14
330
5
100
AcDbSymbolTableRecord
100
AcDbLinetypeTableRecord
  2
BYBLOCK
 70
     0
  3

 72
    65
 73
     0
 40
0.0
  0
LTYPE
  5
15
330
5
100
AcDbSymbolTableRecord
100
AcDbLinetypeTableRecord
  2
BYLAYER
 70
     0
  3

 72
    65
 73
     0
 40
0.0
  0
LTYPE
  5
16
330
5
100
AcDbSymbolTableRecord
100
AcDbLinetypeTableRecord
  2
CONTINUOUS
 70
     0
  3
Solid line
 72
    65
 73
     0
 40
0.0
  0
LTYPE
  5
135
330
5
100
AcDbSymbolTableRecord
100
AcDbLinetypeTableRecord
  2
CENTER
 70
     0
  3
____ _ ____ _ ____ _ ____ _ ____ _ ____ _ ____ 
 72
    65
 73
     4
 40
2.0
 49
1.25
 74
     0
 49
-0.25
 74
     0
 49
0.25
 74
     0
 49
-0.25
 74
     0
  0
ENDTAB
  0
TABLE
  2
LAYER
  5
2
330
0
100
AcDbSymbolTable
 70
     8
  0
LAYER
  5
F
330
2
100
AcDbSymbolTableRecord
100
AcDbLayerTableRecord
  2
0
 70
     0
 62
     7
  6
CONTINUOUS
  0
LAYER
  5
62
330
2
100
AcDbSymbolTableRecord
100
AcDbLayerTableRecord
  2
VIEWPORT
 70
     0
 62
     7
  6
CONTINUOUS
  0
LAYER
  5
65
330
2
100
AcDbSymbolTableRecord
100
AcDbLayerTableRecord
  2
ZUWAKU
 70
     0
 62
     7
  6
CONTINUOUS
  0
LAYER
  5
144
330
2
100
AcDbSymbolTableRecord
100
AcDbLayerTableRecord
  2
SEIHIN
 70
     0
 62
     3
  6
CONTINUOUS
  0
LAYER
  5
145
330
2
100
AcDbSymbolTableRecord
100
AcDbLayerTableRecord
  2
CENTER_L
 70
     0
 62
     1
  6
CENTER
  0
LAYER
  5
3C0
330
2
100
AcDbSymbolTableRecord
100
AcDbLayerTableRecord
  2
SUNPOU
 70
     0
 62
     4
  6
CONTINUOUS
  0
LAYER
  5
3C1
330
2
100
AcDbSymbolTableRecord
100
AcDbLayerTableRecord
  2
DEFPOINTS
 70
     0
 62
     7
  6
CONTINUOUS
  0
LAYER
  5
32E4
330
2
100
AcDbSymbolTableRecord
100
AcDbLayerTableRecord
  2
MOJI
 70
     0
 62
     2
  6
CONTINUOUS
  0
ENDTAB
  0
TABLE
  2
STYLE
  5
3
330
0
100
AcDbSymbolTable
 70
     2
  0
STYLE
  5
10
330
3
100
AcDbSymbolTableRecord
100
AcDbTextStyleTableRecord
  2
STANDARD
 70
     0
 40
0.0
 41
1.0
 50
0.0
 71
     0
 42
5.0
  3
TXT
  4
bigfont.shx
  0
STYLE
  5
32E5
330
3
100
AcDbSymbolTableRecord
100
AcDbTextStyleTableRecord
  2
ｽﾀｲﾙ1
 70
     0
 40
0.0
 41
1.0
 50
0.0
 71
     0
 42
2.5
  3
MS PGothic.ttf
  4

1001
ACAD
1000
MS PGothic
1071
    32818
  0
ENDTAB
  0
TABLE
  2
VIEW
  5
6
330
0
100
AcDbSymbolTable
 70
     0
  0
ENDTAB
  0
TABLE
  2
UCS
  5
7
330
0
100
AcDbSymbolTable
 70
     0
  0
ENDTAB
  0
TABLE
  2
APPID
  5
9
330
0
100
AcDbSymbolTable
 70
     1
  0
APPID
  5
11
330
9
100
AcDbSymbolTableRecord
100
AcDbRegAppTableRecord
  2
ACAD
 70
     0
  0
ENDTAB
  0
TABLE
  2
DIMSTYLE
  5
A
330
0
100
AcDbSymbolTable
 70
     1
  0
DIMSTYLE
105
1D
102
{ACAD_REACTORS
330
2D7B
102
}
330
A
100
AcDbSymbolTableRecord
100
AcDbDimStyleTableRecord
  2
STANDARD
 70
     0
  3

  4

  5

  6

  7

 40
1.0
 41
0.18
 42
0.0625
 43
0.38
 44
0.18
 45
0.0
 46
0.0
 47
0.0
 48
0.0
140
0.18
141
0.09
142
0.0
143
25.4
144
1.0
145
0.0
146
1.0
147
0.09
 71
     0
 72
     0
 73
     1
 74
     1
 75
     0
 76
     0
 77
     0
 78
     0
170
     0
171
     2
172
     0
173
     0
174
     0
175
     0
176
     0
177
     0
178
     0
270
     2
271
     4
272
     4
273
     2
274
     2
340
10
275
     0
280
     0
281
     0
282
     0
283
     1
284
     0
285
     0
286
     0
287
     3
288
     0
  0
ENDTAB
  0
TABLE
  2
BLOCK_RECORD
  5
1
330
0
100
AcDbSymbolTable
 70
     2
  0
BLOCK_RECORD
  5
1A
102
{ACAD_XDICTIONARY
360
AD2
102
}
330
1
100
AcDbSymbolTableRecord
100
AcDbBlockTableRecord
  2
*MODEL_SPACE
  0
BLOCK_RECORD
  5
17
102
{ACAD_XDICTIONARY
360
AD0
102
}
330
1
100
AcDbSymbolTableRecord
100
AcDbBlockTableRecord
  2
*PAPER_SPACE
  0
BLOCK_RECORD
  5
6D
330
1
100
AcDbSymbolTableRecord
100
AcDbBlockTableRecord
  2
_OPEN
  0
BLOCK_RECORD
  5
2D7C
330
1
100
AcDbSymbolTableRecord
100
AcDbBlockTableRecord
  2
*D1
  0
ENDTAB
  0
ENDSEC
  0
SECTION
  2
BLOCKS
  0
BLOCK
  5
1B
330
1A
100
AcDbEntity
  8
0
100
AcDbBlockBegin
  2
*MODEL_SPACE
 70
     0
 10
0.0
 20
0.0
 30
0.0
  3
*MODEL_SPACE
  1

  0
ENDBLK
  5
1C
330
1A
100
AcDbEntity
  8
0
100
AcDbBlockEnd
  0
BLOCK
  5
18
330
17
100
AcDbEntity
 67
     1
  8
0
100
AcDbBlockBegin
  2
*PAPER_SPACE
 70
     0
 10
0.0
 20
0.0
 30
0.0
  3
*PAPER_SPACE
  1

  0
ENDBLK
  5
19
330
17
100
AcDbEntity
 67
     1
  8
0
100
AcDbBlockEnd
  0
BLOCK
  5
6E
330
6D
100
AcDbEntity
  8
0
100
AcDbBlockBegin
  2
_OPEN
 70
     0
 10
0.0
 20
0.0
 30
0.0
  3
_OPEN
  1

  0
LINE
  5
6F
330
6D
100
AcDbEntity
  8
0
  6
BYBLOCK
 62
     0
100
AcDbLine
 10
-1.0
 20
0.1666666666666666
 30
0.0
 11
0.0
 21
0.0
 31
0.0
  0
LINE
  5
70
330
6D
100
AcDbEntity
  8
0
  6
BYBLOCK
 62
     0
100
AcDbLine
 10
0.0
 20
0.0
 30
0.0
 11
-1.0
 21
-0.1666666666666666
 31
0.0
  0
LINE
  5
71
330
6D
100
AcDbEntity
  8
0
  6
BYBLOCK
 62
     0
100
AcDbLine
 10
0.0
 20
0.0
 30
0.0
 11
-1.0
 21
0.0
 31
0.0
  0
ENDBLK
  5
72
330
6D
100
AcDbEntity
  8
0
100
AcDbBlockEnd
  0
BLOCK
  5
2D86
330
2D7C
100
AcDbEntity
  8
0
100
AcDbBlockBegin
  2
*D1
 70
     1
 10
0.0
 20
0.0
 30
0.0
  3
*D1
  1

  0
LINE
  5
3490
330
2D7C
100
AcDbEntity
  8
SUNPOU
100
AcDbLine
 10
158.1283623410076
 20
107.6717292584846
 30
0.0
 11
158.1283623410076
 21
123.2457667660589
 31
0.0
  0
LINE
  5
3491
330
2D7C
100
AcDbEntity
  8
SUNPOU
100
AcDbLine
 10
234.4290623410076
 20
107.6717292584846
 30
0.0
 11
234.4290623410076
 21
123.2457667660589
 31
0.0
  0
LINE
  5
3492
330
2D7C
100
AcDbEntity
  8
SUNPOU
100
AcDbLine
 10
161.1283623410075
 20
120.2457667660589
 30
0.0
 11
231.4290623410076
 21
120.2457667660589
 31
0.0
  0
INSERT
  5
3493
330
2D7C
100
AcDbEntity
  8
SUNPOU
100
AcDbBlockReference
  2
_OPEN
 10
158.1283623410076
 20
120.2457667660589
 30
0.0
 41
3.0
 42
3.0
 43
3.0
 50
180.0
  0
INSERT
  5
3494
330
2D7C
100
AcDbEntity
  8
SUNPOU
100
AcDbBlockReference
  2
_OPEN
 10
234.4290623410076
 20
120.2457667660589
 30
0.0
 41
3.0
 42
3.0
 43
3.0
  0
MTEXT
  5
3495
330
2D7C
100
AcDbEntity
  8
SUNPOU
100
AcDbMText
 10
196.2787123410076
 20
123.7457667660589
 30
0.0
 40
3.0
 41
0.0
 71
     5
 72
     1
  1
\A1;φ76
  0
POINT
  5
3496
330
2D7C
100
AcDbEntity
  8
DEFPOINTS
 62
     0
100
AcDbPoint
 10
158.1283623410076
 20
101.6717292584846
 30
0.0
  0
POINT
  5
3497
330
2D7C
100
AcDbEntity
  8
DEFPOINTS
 62
     0
100
AcDbPoint
 10
234.4290623410076
 20
101.6717292584846
 30
0.0
  0
POINT
  5
3498
330
2D7C
100
AcDbEntity
  8
DEFPOINTS
 62
     0
100
AcDbPoint
 10
234.4290623410076
 20
120.2457667660589
 30
0.0
  0
ENDBLK
  5
2D87
330
2D7C
100
AcDbEntity
  8
0
100
AcDbBlockEnd
  0
ENDSEC
  0
SECTION
  2
ENTITIES
  0
LINE
  5
2C1B
330
1A
100
AcDbEntity
  8
CENTER_L
 48
2.0
100
AcDbLine
 10
151.0768140903605
 20
181.6608286787923
 30
0.0
 11
239.0379248897737
 21
181.6608286787923
 31
0.0
  0
ARC
  5
2C26
330
1A
100
AcDbEntity
  8
SEIHIN
 48
0.5
100
AcDbCircle
 10
196.2787123410076
 20
181.6608286787923
 30
0.0
 40
32.0
100
AcDbArc
 50
140.3793789911094
 51
309.6206210088908
  0
ARC
  5
2C4C
330
1A
100
AcDbEntity
  8
SEIHIN
 48
0.5
100
AcDbCircle
 10
196.2787123410076
 20
181.6608286787923
 30
0.0
 40
33.04999999999999
100
AcDbArc
 50
166.8836698654536
 51
193.1163301345462
  0
LINE
  5
2C4E
330
1A
100
AcDbEntity
  8
SEIHIN
 48
0.5
100
AcDbLine
 10
164.0909429246593
 20
174.1608286787923
 30
0.0
 11
163.0649727141604
 21
174.1608286787923
 31
0.0
  0
LINE
  5
2C4F
330
1A
100
AcDbEntity
  8
SEIHIN
 48
0.5
100
AcDbLine
 10
161.9327294925797
 20
174.1608286787923
 30
0.0
 11
160.9343777647761
 21
174.1608286787923
 31
0.0
  0
LINE
  5
2C50
330
1A
100
AcDbEntity
  8
SEIHIN
 48
0.5
100
AcDbLine
 10
161.9327294925797
 20
174.1608286787923
 30
0.0
 11
163.0649727141604
 21
174.1608286787923
 31
0.0
  0
LINE
  5
2C51
330
1A
100
AcDbEntity
  8
SEIHIN
 48
0.5
100
AcDbLine
 10
164.0909429246593
 20
189.1608286787923
 30
0.0
 11
163.0649727141604
 21
189.1608286787923
 31
0.0
  0
LINE
  5
2C52
330
1A
100
AcDbEntity
  8
SEIHIN
 48
0.5
100
AcDbLine
 10
161.9327294925797
 20
189.1608286787923
 30
0.0
 11
160.9343777647761
 21
189.1608286787923
 31
0.0
  0
LINE
  5
2C53
330
1A
100
AcDbEntity
  8
SEIHIN
 48
0.5
100
AcDbLine
 10
161.9327294925797
 20
189.1608286787923
 30
0.0
 11
163.0649727141604
 21
189.1608286787923
 31
0.0
  0
TEXT
  5
2C80
330
1A
100
AcDbEntity
  8
SUNPOU
100
AcDbText
 10
345.0388717639849
 20
17.99657487949303
 30
0.0
 40
3.0
  1
※　エルボの差込み寸法を示す
100
AcDbText
  0
LINE
  5
2C81
330
1A
100
AcDbEntity
  8
CENTER_L
 48
2.0
100
AcDbLine
 10
196.2787123410076
 20
224.3662317613354
 30
0.0
 11
196.2787123410076
 21
138.8862658454312
 31
0.0
  0
MTEXT
  5
2C85
330
1A
100
AcDbEntity
  8
SUNPOU
100
AcDbMText
 10
204.8312996455851
 20
194.3075601124448
 30
0.0
 40
3.0
 41
0.0
 71
     5
 72
     5
  1
\U+220564
 11
0.7661780409818794
 21
0.6426283603430287
 31
0.0
1001
ACAD
1000
MTEXTBEGIN
1070
    73
1070
     1
1070
    44
1040
1.0
1070
    74
1070
     0
1000
MTEXTEND
1000
MTEXTBEGIN
1070
    73
1070
     1
1070
    44
1040
1.0
1070
    74
1070
     0
1000
MTEXTEND
1000
MTEXTBEGIN
1070
    73
1070
     1
1070
    44
1040
1.0
1070
    74
1070
     0
1000
MTEXTEND
1000
MTEXTBEGIN
1070
    73
1070
     1
1070
    44
1040
1.0
1070
    74
1070
     0
1000
MTEXTEND
1000
MTEXTBEGIN
1070
    73
1070
     1
1070
    44
1040
1.0
1070
    74
1070
     0
1000
MTEXTEND
1000
MTEXTBEGIN
1070
    73
1070
     1
1070
    44
1040
1.0
1070
    74
1070
     0
1000
MTEXTEND
1000
MTEXTBEGIN
1070
    73
1070
     1
1070
    44
1040
1.0
1070
    74
1070
     0
1000
MTEXTEND
1000
MTEXTBEGIN
1070
    73
1070
     1
1070
    44
1040
1.0
1070
    74
1070
     0
1000
MTEXTEND
1000
MTEXTBEGIN
1070
    73
1070
     1
1070
    44
1040
1.0
1070
    74
1070
     0
1000
MTEXTEND
1000
MTEXTBEGIN
1070
    73
1070
     1
1070
    44
1040
1.0
1070
    74
1070
     0
1000
MTEXTEND
1000
MTEXTBEGIN
1070
    73
1070
     1
1070
    44
1040
1.0
1070
    74
1070
     0
1000
MTEXTEND
1000
MTEXTBEGIN
1070
    73
1070
     1
1070
    44
1040
1.0
1070
    74
1070
     0
1000
MTEXTEND
  0
LINE
  5
2C86
330
1A
100
AcDbEntity
  8
SUNPOU
100
AcDbLine
 10
174.0595491525332
 20
163.0246062288444
 30
0.0
 11
218.4978755294822
 21
200.2970511287401
 31
0.0
  0
ARC
  5
2C87
330
1A
100
AcDbEntity
  8
SEIHIN
 48
0.5
100
AcDbCircle
 10
196.2787123410076
 20
181.6608286787923
 30
0.0
 40
31.99999999999999
100
AcDbArc
 50
320.3793789911118
 51
129.620621008891
  0
ARC
  5
2C95
330
1A
100
AcDbEntity
  8
SEIHIN
 48
0.5
100
AcDbCircle
 10
196.2787123410076
 20
181.6608286787923
 30
0.0
 40
33.04999999999999
100
AcDbArc
 50
256.8836698654631
 51
283.1163301345516
  0
LINE
  5
2C9B
330
1A
100
AcDbEntity
  8
SUNPOU
100
AcDbLine
 10
174.5761243984079
 20
162.4087158724137
 30
0.0
 11
171.7610150295874
 21
161.0967211478153
 31
0.0
  0
LINE
  5
2C9C
330
1A
100
AcDbEntity
  8
SUNPOU
100
AcDbLine
 10
171.7610150295874
 20
161.0967211478153
 30
0.0
 11
173.5429739066582
 21
163.6404965852751
 31
0.0
  0
LINE
  5
2C9D
330
1A
100
AcDbEntity
  8
SUNPOU
100
AcDbLine
 10
171.7610150295874
 20
161.0967211478153
 30
0.0
 11
174.059549152533
 21
163.0246062288444
 31
0.0
  0
LINE
  5
2C9E
330
1A
100
AcDbEntity
  8
SEIHIN
 48
0.5
100
AcDbLine
 10
188.7787123410076
 20
146.3164941025608
 30
0.0
 11
188.7787123410076
 21
147.3148458303645
 31
0.0
  0
LINE
  5
2C9F
330
1A
100
AcDbEntity
  8
SEIHIN
 48
0.5
100
AcDbLine
 10
188.7787123410076
 20
148.4470890519451
 30
0.0
 11
188.7787123410076
 21
147.3148458303645
 31
0.0
  0
LINE
  5
2CA0
330
1A
100
AcDbEntity
  8
SEIHIN
 48
0.5
100
AcDbLine
 10
188.7787123410076
 20
148.4470890519451
 30
0.0
 11
188.7787123410076
 21
149.4730592624441
 31
0.0
  0
LINE
  5
2CA2
330
1A
100
AcDbEntity
  8
SEIHIN
 48
0.5
100
AcDbLine
 10
216.6851526495855
 20
157.011747683095
 30
0.0
 11
218.1990225577905
 21
155.49787777489
 31
0.0
  0
LINE
  5
2CA4
330
1A
100
AcDbEntity
  8
SEIHIN
 48
0.5
100
AcDbLine
 10
203.7787123410076
 20
146.3164941025608
 30
0.0
 11
203.7787123410076
 21
147.3148458303645
 31
0.0
  0
LINE
  5
2CA5
330
1A
100
AcDbEntity
  8
SEIHIN
 48
0.5
100
AcDbLine
 10
203.7787123410076
 20
148.4470890519451
 30
0.0
 11
203.7787123410076
 21
147.3148458303645
 31
0.0
  0
LINE
  5
2CA6
330
1A
100
AcDbEntity
  8
SEIHIN
 48
0.5
100
AcDbLine
 10
203.7787123410076
 20
148.4470890519451
 30
0.0
 11
203.7787123410076
 21
149.4730592624441
 31
0.0
  0
LINE
  5
2CA7
330
1A
100
AcDbEntity
  8
SEIHIN
 48
0.5
100
AcDbLine
 10
218.9061293389771
 20
155.49787777489
 30
0.0
 11
222.4416632449099
 21
159.0334116808227
 31
0.0
  0
ARC
  5
2CAC
330
1A
100
AcDbEntity
  8
SEIHIN
 48
0.5
100
AcDbCircle
 10
218.5525759483837
 20
155.8514311654833
 30
0.0
 40
0.5000000000000201
100
AcDbArc
 50
225.0000000000051
 51
314.9999999999948
  0
LINE
  5
2CAF
330
1A
100
AcDbEntity
  8
SEIHIN
 48
0.5
100
AcDbLine
 10
222.4416632449099
 20
159.7405184620092
 30
0.0
 11
220.9277933367048
 21
161.2543883702143
 31
0.0
  0
ARC
  5
2CB0
330
1A
100
AcDbEntity
  8
SEIHIN
 48
0.5
100
AcDbCircle
 10
222.0881098543165
 20
159.386965071416
 30
0.0
 40
0.499999999999972
100
AcDbArc
 50
314.9999999999959
 51
45.0000000000046
  0
ARC
  5
2CB1
330
1A
100
AcDbEntity
  8
SEIHIN
 48
0.5
100
AcDbCircle
 10
196.2787123410076
 20
181.6608286787923
 30
0.0
 40
33.04999999999999
100
AcDbArc
 50
346.883669865454
 51
13.1163301345462
  0
LINE
  5
2CB3
330
1A
100
AcDbEntity
  8
SEIHIN
 48
0.5
100
AcDbLine
 10
230.6246951894355
 20
174.1608286787923
 30
0.0
 11
229.4924519678548
 21
174.1608286787923
 31
0.0
  0
LINE
  5
2CB4
330
1A
100
AcDbEntity
  8
SEIHIN
 48
0.5
100
AcDbLine
 10
230.6246951894355
 20
174.1608286787923
 30
0.0
 11
231.623046917239
 21
174.1608286787923
 31
0.0
  0
LINE
  5
2CB5
330
1A
100
AcDbEntity
  8
SEIHIN
 48
0.5
100
AcDbLine
 10
228.4664817573558
 20
174.1608286787923
 30
0.0
 11
229.4924519678548
 21
174.1608286787923
 31
0.0
  0
LINE
  5
2CB6
330
1A
100
AcDbEntity
  8
SEIHIN
 48
0.5
100
AcDbLine
 10
230.6246951894355
 20
189.1608286787923
 30
0.0
 11
229.4924519678548
 21
189.1608286787923
 31
0.0
  0
LINE
  5
2CB7
330
1A
100
AcDbEntity
  8
SEIHIN
 48
0.5
100
AcDbLine
 10
230.6246951894355
 20
189.1608286787923
 30
0.0
 11
231.623046917239
 21
189.1608286787923
 31
0.0
  0
LINE
  5
2CB8
330
1A
100
AcDbEntity
  8
SEIHIN
 48
0.5
100
AcDbLine
 10
228.4664817573558
 20
189.1608286787923
 30
0.0
 11
229.4924519678548
 21
189.1608286787923
 31
0.0
  0
ARC
  5
2CBF
330
1A
100
AcDbEntity
  8
SEIHIN
 48
0.5
100
AcDbCircle
 10
196.2787123410076
 20
181.6608286787923
 30
0.0
 40
33.04999999999999
100
AcDbArc
 50
76.88366986546404
 51
103.1163301345517
  0
LINE
  5
2CC2
330
1A
100
AcDbEntity
  8
SEIHIN
 48
0.5
100
AcDbLine
 10
188.7787123410076
 20
214.8745683056395
 30
0.0
 11
188.7787123410076
 21
213.8485980951406
 31
0.0
  0
LINE
  5
2CC3
330
1A
100
AcDbEntity
  8
SEIHIN
 48
0.5
100
AcDbLine
 10
170.1157614371054
 20
203.5811388955754
 30
0.0
 11
171.6296313453104
 21
202.0672689873703
 31
0.0
  0
ARC
  5
2CC4
330
1A
100
AcDbEntity
  8
SEIHIN
 48
0.5
100
AcDbCircle
 10
174.0048487336314
 20
207.4702261921014
 30
0.0
 40
0.5000000000000201
100
AcDbArc
 50
45.00000000000575
 51
134.9999999999952
  0
LINE
  5
2CC5
330
1A
100
AcDbEntity
  8
SEIHIN
 48
0.5
100
AcDbLine
 10
175.8722720324296
 20
206.3099096744896
 30
0.0
 11
174.3584021242247
 21
207.8237795826947
 31
0.0
  0
ARC
  5
2CC6
330
1A
100
AcDbEntity
  8
SEIHIN
 48
0.5
100
AcDbCircle
 10
170.4693148276986
 20
203.9346922861687
 30
0.0
 40
0.5000000000000041
100
AcDbArc
 50
134.9999999999946
 51
225.0000000000051
  0
LINE
  5
2CC7
330
1A
100
AcDbEntity
  8
SEIHIN
 48
0.5
100
AcDbLine
 10
173.6512953430381
 20
207.8237795826947
 30
0.0
 11
170.1157614371054
 21
204.2882456767619
 31
0.0
  0
LINE
  5
2CCC
330
1A
100
AcDbEntity
  8
SEIHIN
 48
0.5
100
AcDbLine
 10
188.7787123410076
 20
217.0051632550238
 30
0.0
 11
188.7787123410076
 21
216.0068115272202
 31
0.0
  0
LINE
  5
2CCD
330
1A
100
AcDbEntity
  8
SEIHIN
 48
0.5
100
AcDbLine
 10
188.7787123410076
 20
214.8745683056395
 30
0.0
 11
188.7787123410076
 21
216.0068115272202
 31
0.0
  0
LINE
  5
2CD1
330
1A
100
AcDbEntity
  8
SEIHIN
 48
0.5
100
AcDbLine
 10
203.7787123410076
 20
214.8745683056395
 30
0.0
 11
203.7787123410076
 21
213.8485980951406
 31
0.0
  0
LINE
  5
2CD2
330
1A
100
AcDbEntity
  8
SUNPOU
100
AcDbLine
 10
217.9813002836073
 20
200.9129414851708
 30
0.0
 11
220.7964096524278
 21
202.2249362097692
 31
0.0
  0
LINE
  5
2CD3
330
1A
100
AcDbEntity
  8
SUNPOU
100
AcDbLine
 10
220.7964096524278
 20
202.2249362097692
 30
0.0
 11
219.014450775357
 21
199.6811607723095
 31
0.0
  0
LINE
  5
2CD4
330
1A
100
AcDbEntity
  8
SUNPOU
100
AcDbLine
 10
220.7964096524278
 20
202.2249362097692
 30
0.0
 11
218.4978755294822
 21
200.2970511287401
 31
0.0
  0
LINE
  5
2CD8
330
1A
100
AcDbEntity
  8
SEIHIN
 48
0.5
100
AcDbLine
 10
203.7787123410076
 20
217.0051632550238
 30
0.0
 11
203.7787123410076
 21
216.0068115272202
 31
0.0
  0
LINE
  5
2CD9
330
1A
100
AcDbEntity
  8
SEIHIN
 48
0.5
100
AcDbLine
 10
203.7787123410076
 20
214.8745683056395
 30
0.0
 11
203.7787123410076
 21
216.0068115272202
 31
0.0
  0
LINE
  5
2CFF
330
1A
100
AcDbEntity
  8
SEIHIN
 62
     3
100
AcDbLine
 10
159.4728623410075
 20
78.28632925848477
 30
0.0
 11
158.1283623410076
 21
101.6717292584846
 31
0.0
  0
LINE
  5
2D00
330
1A
100
AcDbEntity
  8
SEIHIN
 62
     3
100
AcDbLine
 10
233.0845623410075
 20
78.28632925848477
 30
0.0
 11
234.4290623410076
 21
101.6717292584846
 31
0.0
  0
ARC
  5
2D05
330
1A
100
AcDbEntity
  8
SEIHIN
 62
     3
100
AcDbCircle
 10
259.3079623410076
 20
84.02602925848475
 30
0.0
 40
99.999947
100
AcDbArc
 50
183.2903010000005
 51
191.3932349999994
  0
LINE
  5
2D07
330
1A
100
AcDbEntity
  8
SEIHIN
 62
     3
100
AcDbLine
 10
161.2785054661993
 20
64.27216926017276
 30
0.0
 11
231.2787623410076
 21
64.27170925848475
 31
0.0
  0
ARC
  5
2D09
330
1A
100
AcDbEntity
  8
SEIHIN
 62
     3
100
AcDbCircle
 10
133.2493623410075
 20
84.02612925848474
 30
0.0
 40
99.999993
100
AcDbArc
 50
348.606567999999
 51
356.7094700000008
  0
LINE
  5
2D25
330
1A
100
AcDbEntity
  8
CENTER_L
 48
2.0
100
AcDbLine
 10
196.2785623410074
 20
106.6985298833827
 30
0.0
 11
196.2785623410074
 21
58.43843545988415
 31
0.0
  0
LINE
  5
2D26
330
1A
100
AcDbEntity
  8
SEIHIN
100
AcDbLine
 10
158.1283623410076
 20
101.6717292584846
 30
0.0
 11
234.4290623410076
 21
101.6717292584846
 31
0.0
  0
CIRCLE
  5
2D43
330
1A
100
AcDbEntity
  8
SEIHIN
100
AcDbCircle
 10
196.2787123410076
 20
181.6262488033833
 30
0.0
 40
38.15036567177675
  0
CIRCLE
  5
2D44
330
1A
100
AcDbEntity
  8
SEIHIN
100
AcDbCircle
 10
196.2787123410077
 20
181.6608286787923
 30
0.0
 40
36.14669801303409
  0
ARC
  5
2D48
330
1A
100
AcDbEntity
  8
SEIHIN
100
AcDbCircle
 10
196.2787123410077
 20
181.6608286787923
 30
0.0
 40
34.14669801303409
100
AcDbArc
 50
102.6879224554953
 51
129.9597107451932
  0
ARC
  5
2D49
330
1A
100
AcDbEntity
  8
SEIHIN
100
AcDbCircle
 10
196.2787123410077
 20
181.6608286787923
 30
0.0
 40
34.14669801303409
100
AcDbArc
 50
192.6879224554951
 51
257.3120775445047
  0
ARC
  5
2D4A
330
1A
100
AcDbEntity
  8
SEIHIN
100
AcDbCircle
 10
196.2787123410077
 20
181.6608286787923
 30
0.0
 40
34.14669801303409
100
AcDbArc
 50
12.68792245549511
 51
77.31207754450508
  0
ARC
  5
2D4B
330
1A
100
AcDbEntity
  8
SEIHIN
100
AcDbCircle
 10
196.2787123410077
 20
181.6608286787923
 30
0.0
 40
34.14669801303409
100
AcDbArc
 50
282.6879224554948
 51
309.9597107451928
  0
ARC
  5
2D4C
330
1A
100
AcDbEntity
  8
SEIHIN
100
AcDbCircle
 10
196.2787123410077
 20
181.6608286787923
 30
0.0
 40
34.14669801303409
100
AcDbArc
 50
140.0402892548067
 51
167.3120775445049
  0
ARC
  5
2D4D
330
1A
100
AcDbEntity
  8
SEIHIN
100
AcDbCircle
 10
196.2787123410077
 20
181.6608286787923
 30
0.0
 40
34.14669801303409
100
AcDbArc
 50
320.0402892548065
 51
347.3120775445047
  0
LINE
  5
2D4F
330
1A
100
AcDbEntity
  8
SUNPOU
100
AcDbLine
 10
265.6202472654086
 20
98.67163389786774
 30
0.0
 11
265.6202472654086
 21
67.27163389786712
 31
0.0
  0
LINE
  5
2D50
330
1A
100
AcDbEntity
  8
SUNPOU
100
AcDbLine
 10
234.3792929622822
 20
64.27163389786713
 30
0.0
 11
266.8702472654086
 21
64.27163389786713
 31
0.0
  0
LINE
  5
2D51
330
1A
100
AcDbEntity
  8
SUNPOU
100
AcDbLine
 10
234.3792929622822
 20
64.27163389786713
 30
0.0
 11
256.7095289901388
 21
64.27163389786713
 31
0.0
  0
MTEXT
  5
2D52
330
1A
100
AcDbEntity
  8
SUNPOU
100
AcDbMText
 10
252.0231086481945
 20
68.97062071827967
 30
0.0
 40
3.0
 41
0.0
 71
     5
 72
     5
  1
\U+203B10
 11
0.0000000000000001
 21
1.0
 31
0.0
1001
ACAD
1000
MTEXTBEGIN
1070
    73
1070
     1
1070
    44
1040
1.0
1070
    74
1070
     0
1000
MTEXTEND
1000
MTEXTBEGIN
1070
    73
1070
     1
1070
    44
1040
1.0
1070
    74
1070
     0
1000
MTEXTEND
1000
MTEXTBEGIN
1070
    73
1070
     1
1070
    44
1040
1.0
1070
    74
1070
     0
1000
MTEXTEND
1000
MTEXTBEGIN
1070
    73
1070
     1
1070
    44
1040
1.0
1070
    74
1070
     0
1000
MTEXTEND
1000
MTEXTBEGIN
1070
    73
1070
     1
1070
    44
1040
1.0
1070
    74
1070
     0
1000
MTEXTEND
1000
MTEXTBEGIN
1070
    73
1070
     1
1070
    44
1040
1.0
1070
    74
1070
     0
1000
MTEXTEND
1000
MTEXTBEGIN
1070
    73
1070
     1
1070
    44
1040
1.0
1070
    74
1070
     0
1000
MTEXTEND
1000
MTEXTBEGIN
1070
    73
1070
     1
1070
    44
1040
1.0
1070
    74
1070
     0
1000
MTEXTEND
1000
MTEXTBEGIN
1070
    73
1070
     1
1070
    44
1040
1.0
1070
    74
1070
     0
1000
MTEXTEND
1000
MTEXTBEGIN
1070
    73
1070
     1
1070
    44
1040
1.0
1070
    74
1070
     0
1000
MTEXTEND
1000
MTEXTBEGIN
1070
    73
1070
     1
1070
    44
1040
1.0
1070
    74
1070
     0
1000
MTEXTEND
1000
MTEXTBEGIN
1070
    73
1070
     1
1070
    44
1040
1.0
1070
    74
1070
     0
1000
MTEXTEND
  0
LINE
  5
2D53
330
1A
100
AcDbEntity
  8
SUNPOU
100
AcDbLine
 10
236.7615230134704
 20
74.2716338978678
 30
0.0
 11
256.7095289901388
 21
74.2716338978678
 31
0.0
  0
LINE
  5
2D54
330
1A
100
AcDbEntity
  8
SUNPOU
100
AcDbLine
 10
254.6556814201388
 20
71.27163389786783
 30
0.0
 11
255.4595289901388
 21
74.2716338978678
 31
0.0
  0
LINE
  5
2D55
330
1A
100
AcDbEntity
  8
SUNPOU
100
AcDbLine
 10
255.4595289901388
 20
74.2716338978678
 30
0.0
 11
256.2633765601389
 21
71.27163389786783
 31
0.0
  0
LINE
  5
2D56
330
1A
100
AcDbEntity
  8
SUNPOU
100
AcDbLine
 10
255.4595289901388
 20
74.2716338978678
 30
0.0
 11
255.4595289901388
 21
71.27163389786783
 31
0.0
  0
LINE
  5
2D57
330
1A
100
AcDbEntity
  8
SUNPOU
100
AcDbLine
 10
256.2633765601389
 20
67.27163389786712
 30
0.0
 11
255.4595289901388
 21
64.27163389786713
 31
0.0
  0
LINE
  5
2D58
330
1A
100
AcDbEntity
  8
SUNPOU
100
AcDbLine
 10
255.4595289901388
 20
64.27163389786713
 30
0.0
 11
254.6556814201388
 21
67.27163389786712
 31
0.0
  0
LINE
  5
2D59
330
1A
100
AcDbEntity
  8
SUNPOU
100
AcDbLine
 10
255.4595289901388
 20
64.27163389786713
 30
0.0
 11
255.4595289901388
 21
67.27163389786712
 31
0.0
  0
LINE
  5
2D5A
330
1A
100
AcDbEntity
  8
SUNPOU
100
AcDbLine
 10
255.4595289901388
 20
71.27163389786783
 30
0.0
 11
255.4595289901388
 21
67.27163389786712
 31
0.0
  0
LINE
  5
2D5B
330
1A
100
AcDbEntity
  8
SUNPOU
100
AcDbLine
 10
265.6202472654086
 20
64.27163389786713
 30
0.0
 11
264.8163996954086
 21
67.27163389786712
 31
0.0
  0
LINE
  5
2D5C
330
1A
100
AcDbEntity
  8
SUNPOU
100
AcDbLine
 10
265.6202472654086
 20
64.27163389786713
 30
0.0
 11
265.6202472654086
 21
67.27163389786712
 31
0.0
  0
LINE
  5
2D5D
330
1A
100
AcDbEntity
  8
SUNPOU
100
AcDbLine
 10
266.4240948354085
 20
67.27163389786712
 30
0.0
 11
265.6202472654086
 21
64.27163389786713
 31
0.0
  0
MTEXT
  5
2D5E
330
1A
100
AcDbEntity
  8
SUNPOU
100
AcDbMText
 10
262.1202472654085
 20
82.97163389786751
 30
0.0
 40
3.0
 41
0.0
 71
     5
 72
     5
  1
37
 11
0.0000000000000001
 21
1.0
 31
0.0
1001
ACAD
1000
MTEXTBEGIN
1070
    73
1070
     1
1070
    44
1040
1.0
1070
    74
1070
     0
1000
MTEXTEND
1000
MTEXTBEGIN
1070
    73
1070
     1
1070
    44
1040
1.0
1070
    74
1070
     0
1000
MTEXTEND
1000
MTEXTBEGIN
1070
    73
1070
     1
1070
    44
1040
1.0
1070
    74
1070
     0
1000
MTEXTEND
1000
MTEXTBEGIN
1070
    73
1070
     1
1070
    44
1040
1.0
1070
    74
1070
     0
1000
MTEXTEND
1000
MTEXTBEGIN
1070
    73
1070
     1
1070
    44
1040
1.0
1070
    74
1070
     0
1000
MTEXTEND
1000
MTEXTBEGIN
1070
    73
1070
     1
1070
    44
1040
1.0
1070
    74
1070
     0
1000
MTEXTEND
1000
MTEXTBEGIN
1070
    73
1070
     1
1070
    44
1040
1.0
1070
    74
1070
     0
1000
MTEXTEND
1000
MTEXTBEGIN
1070
    73
1070
     1
1070
    44
1040
1.0
1070
    74
1070
     0
1000
MTEXTEND
1000
MTEXTBEGIN
1070
    73
1070
     1
1070
    44
1040
1.0
1070
    74
1070
     0
1000
MTEXTEND
1000
MTEXTBEGIN
1070
    73
1070
     1
1070
    44
1040
1.0
1070
    74
1070
     0
1000
MTEXTEND
1000
MTEXTBEGIN
1070
    73
1070
     1
1070
    44
1040
1.0
1070
    74
1070
     0
1000
MTEXTEND
1000
MTEXTBEGIN
1070
    73
1070
     1
1070
    44
1040
1.0
1070
    74
1070
     0
1000
MTEXTEND
  0
LINE
  5
2D5F
330
1A
100
AcDbEntity
  8
SUNPOU
100
AcDbLine
 10
238.4287381068839
 20
101.6716338978677
 30
0.0
 11
266.8702472654086
 21
101.6716338978677
 31
0.0
  0
LINE
  5
2D60
330
1A
100
AcDbEntity
  8
SUNPOU
100
AcDbLine
 10
264.8163996954086
 20
98.67163389786774
 30
0.0
 11
265.6202472654086
 21
101.6716338978677
 31
0.0
  0
LINE
  5
2D61
330
1A
100
AcDbEntity
  8
SUNPOU
100
AcDbLine
 10
265.6202472654086
 20
101.6716338978677
 30
0.0
 11
265.6202472654086
 21
98.67163389786774
 31
0.0
  0
LINE
  5
2D62
330
1A
100
AcDbEntity
  8
SUNPOU
100
AcDbLine
 10
265.6202472654086
 20
101.6716338978677
 30
0.0
 11
266.4240948354085
 21
98.67163389786774
 31
0.0
  0
DIMENSION
  5
2D7B
330
1A
100
AcDbEntity
  8
SUNPOU
100
AcDbDimension
  2
*D1
 10
234.4290623410076
 20
120.2457667660589
 30
0.0
 11
196.2787123410076
 21
123.7457667660589
 31
0.0
 70
    32
  1
φ<>
  3
STANDARD
100
AcDbAlignedDimension
 13
158.1283623410076
 23
101.6717292584846
 33
0.0
 14
234.4290623410076
 24
101.6717292584846
 34
0.0
100
AcDbRotatedDimension
1001
ACAD
1000
DSTYLE
1002
{
1070
   287
1070
     5
1070
   287
1070
     5
1070
   287
1070
     5
1070
   287
1070
     5
1070
   287
1070
     5
1070
   287
1070
     5
1070
   287
1070
     5
1070
   287
1070
     5
1070
   287
1070
     5
1070
    41
1040
3.0
1070
    42
1040
6.0
1070
    43
1040
14.0
1070
    44
1040
3.0
1070
    73
1070
     0
1070
    74
1070
     0
1070
    77
1070
     3
1070
   140
1040
3.0
1070
   141
1040
150.0
1070
   147
1040
2.0
1070
   172
1070
     1
1070
   173
1070
     1
1070
   176
1070
   256
1070
   177
1070
   256
1070
   178
1070
   256
1070
   271
1070
     0
1070
   272
1070
     0
1070
   279
1070
     2
1070
   341
1005
6D
1070
     6
1000
OPEN
1070
     7
1000
OPEN
1070
   371
1070
    -1
1070
   372
1070
    -1
1002
}
  0
LWPOLYLINE
  5
33A9
330
1A
100
AcDbEntity
  8
ZUWAKU
100
AcDbPolyline
 90
        4
 70
     1
 43
0.0
 10
0.4000004691137065
 20
275.3999997642576
 10
0.4000004691137065
 20
0.3999997642576431
 10
398.4000004691137
 20
0.3999997642576431
 10
398.4000004691137
 20
275.3999997642576
  0
LWPOLYLINE
  5
33AA
330
1A
100
AcDbEntity
  8
ZUWAKU
100
AcDbPolyline
 90
        4
 70
     1
 43
0.0
 10
0.2000004691137178
 20
275.5999997642576
 10
0.2000004691137178
 20
0.1999997642576545
 10
398.6000004691137
 20
0.199999764257643
 10
398.6000004691137
 20
275.5999997642576
  0
LWPOLYLINE
  5
33AB
330
1A
100
AcDbEntity
  8
ZUWAKU
100
AcDbPolyline
 90
        4
 70
     1
 43
0.0
 10
0.0000004691137292
 20
275.7999997642576
 10
0.0000004691137292
 20
-0.0000002357423909
 10
398.8000004691138
 20
-0.0000002357423572
 10
398.8000004691138
 20
275.7999997642576
  0
LWPOLYLINE
  5
33AC
330
1A
100
AcDbEntity
  8
ZUWAKU
100
AcDbPolyline
 90
        4
 70
     1
 43
0.0
 10
0.3000004691136837
 20
275.4999997642576
 10
0.3000004691136837
 20
0.2999997642576204
 10
398.5000004691138
 20
0.2999997642576435
 10
398.5000004691137
 20
275.4999997642576
  0
LWPOLYLINE
  5
33AD
330
1A
100
AcDbEntity
  8
ZUWAKU
100
AcDbPolyline
 90
        4
 70
     1
 43
0.0
 10
0.1000004691136951
 20
275.6999997642576
 10
0.1000004691136951
 20
0.0999997642576318
 10
398.7000004691136
 20
0.0999997642576434
 10
398.7000004691137
 20
275.6999997642576
  0
LINE
  5
33AE
330
1A
100
AcDbEntity
  8
ZUWAKU
100
AcDbLine
 10
104.3233011141477
 20
7.599999764257628
 30
0.0
 11
223.7121824546094
 21
7.599999764257624
 31
0.0
  0
LINE
  5
33AF
330
1A
100
AcDbEntity
  8
ZUWAKU
100
AcDbLine
 10
104.3233011141477
 20
7.799999764257625
 30
0.0
 11
223.7121824546094
 21
7.799999764257629
 31
0.0
  0
LINE
  5
33B0
330
1A
100
AcDbEntity
  8
ZUWAKU
100
AcDbLine
 10
104.3233011141477
 20
7.699999764257626
 30
0.0
 11
223.7121824546094
 21
7.699999764257626
 31
0.0
  0
TEXT
  5
33B1
330
1A
100
AcDbEntity
  8
MOJI
100
AcDbText
 10
119.9136018095392
 20
1.602460292961319
 30
0.0
 40
2.799999999999999
  1
ＶＭ１２０－ＵＴ６０
 41
0.9
  7
ｽﾀｲﾙ1
100
AcDbText
  0
LINE
  5
33B2
330
1A
100
AcDbEntity
  8
ZUWAKU
100
AcDbLine
 10
0.0000004691137292
 20
14.9999997642576
 30
0.0
 11
398.7000004691136
 21
14.9999997642576
 31
0.0
  0
LINE
  5
33B3
330
1A
100
AcDbEntity
  8
ZUWAKU
100
AcDbLine
 10
0.0000004691137292
 20
15.09999976425761
 30
0.0
 11
398.7000004691136
 21
15.09999976425761
 31
0.0
  0
LINE
  5
33B4
330
1A
100
AcDbEntity
  8
ZUWAKU
100
AcDbLine
 10
0.0000004691137292
 20
15.19999976425761
 30
0.0
 11
398.7000004691136
 21
15.19999976425761
 31
0.0
  0
LINE
  5
33B5
330
1A
100
AcDbEntity
  8
ZUWAKU
100
AcDbLine
 10
0.0000004691137292
 20
15.29999976425761
 30
0.0
 11
398.7000004691136
 21
15.29999976425761
 31
0.0
  0
LINE
  5
33B6
330
1A
100
AcDbEntity
  8
ZUWAKU
100
AcDbLine
 10
0.0000004691137292
 20
15.39999976425761
 30
0.0
 11
398.7000004691136
 21
15.39999976425761
 31
0.0
  0
ARC
  5
33B7
330
1A
100
AcDbEntity
  8
ZUWAKU
100
AcDbCircle
 10
24.37110654650428
 20
5.882600776935262
 30
0.0
 40
2.099999999999999
100
AcDbArc
 50
0.0
 51
45.0
  0
ARC
  5
33B8
330
1A
100
AcDbEntity
  8
ZUWAKU
100
AcDbCircle
 10
25.07110654650432
 20
4.97499976425761
 30
0.0
 40
1.399999999999999
100
AcDbArc
 50
270.0
 51
0.0
  0
HATCH
  5
33B9
330
1A
100
AcDbEntity
  8
ZUWAKU
100
AcDbHatch
 10
0.0
 20
0.0
 30
0.0
210
0.0
220
0.0
230
1.0
  2
ANSI37
 70
     0
 71
     0
 91
        8
 92
        7
 72
     1
 73
     1
 93
       24
 10
7.251131799673657
 20
8.8224240047494
 42
-0.1989123673796348
 10
7.04610654650429
 20
9.317398751579926
 42
0.0
 10
7.04610654650429
 20
9.962499764257614
 42
-0.4142135623730912
 10
7.308606546504279
 20
10.22499976425761
 42
0.0
 10
8.796106546504233
 20
10.22499976425761
 42
0.4142135623731546
 10
9.058606546504279
 20
10.4874997642576
 42
0.0
 10
9.058606546504279
 20
11.36249976425761
 42
0.4142135623731586
 10
8.796106546504233
 20
11.62499976425761
 42
0.0
 10
7.04610654650429
 20
11.62499976425761
 42
0.4142135623730928
 10
5.646106546504313
 20
10.22499976425762
 42
0.0
 10
5.646106546504313
 20
9.31739875157999
 42
0.1989123673796619
 10
6.261182306012528
 20
7.832474511088186
 42
0.0
 10
7.716081293334866
 20
6.377575523765857
 42
-0.1989123673796613
 10
7.92110654650429
 20
5.882600776935264
 42
0.0
 10
7.92110654650429
 20
5.237499764257606
 42
-0.4142135623730911
 10
7.658606546504302
 20
4.97499976425761
 42
0.0
 10
6.171106546504347
 20
4.97499976425761
 42
0.4142135623731526
 10
5.908606546504302
 20
4.712499764257616
 42
0.0
 10
5.908606546504302
 20
3.837499764257605
 42
0.4142135623731526
 10
6.171106546504347
 20
3.574999764257611
 42
0.0
 10
7.92110654650429
 20
3.574999764257611
 42
0.4142135623731044
 10
9.321106546504324
 20
4.974999764257599
 42
0.0
 10
9.321106546504324
 20
5.882600776935236
 42
0.1989123673796604
 10
8.706030786996052
 20
7.367525017427006
 42
0.0
 97
        0
 92
        7
 72
     1
 73
     1
 93
       16
 10
11.77110654650431
 20
9.524999764257614
 42
-0.4142135623730935
 10
12.4711065465043
 20
10.22499976425761
 42
0.0
 10
13.43360654650427
 20
10.22499976425761
 42
0.4142135623731546
 10
13.69610654650432
 20
10.4874997642576
 42
0.0
 10
13.69610654650432
 20
11.36249976425761
 42
0.4142135623730951
 10
13.43360654650433
 20
11.62499976425761
 42
0.0
 10
12.47110654650424
 20
11.62499976425759
 42
0.4142135623730892
 10
10.37110654650428
 20
9.524999764257579
 42
0.0
 10
10.37110654650428
 20
5.674999764257623
 42
0.4142135623730969
 10
12.4711065465043
 20
3.574999764257611
 42
0.0
 10
13.43360654650427
 20
3.574999764257611
 42
0.4142135623731526
 10
13.69610654650432
 20
3.837499764257605
 42
0.0
 10
13.69610654650432
 20
4.712499764257616
 42
0.4142135623730891
 10
13.43360654650433
 20
4.97499976425761
 42
0.0
 10
12.4711065465043
 20
4.97499976425761
 42
-0.4142135623730928
 10
11.77110654650431
 20
5.674999764257604
 42
0.0
 97
        0
 92
        7
 72
     1
 73
     1
 93
        2
 10
12.12110654650428
 20
7.59999976425761
 42
1.0
 10
13.87110654650427
 20
7.59999976425761
 42
1.0
 97
        0
 92
        7
 72
     1
 73
     1
 93
       26
 10
18.65742978759328
 20
9.602523361039324
 42
0.0
 10
19.18824960416219
 20
11.28345278017411
 42
0.5069206636600134
 10
18.93793415456451
 20
11.62499976425761
 42
0.0
 10
18.0884894647599
 20
11.62499976425761
 42
0.3272098845218764
 10
17.83817401516222
 20
11.44154674834109
 42
0.0
 10
16.90403907784633
 20
8.48345278017415
 42
-0.3272098845219541
 10
16.6537236282486
 20
8.299999764257609
 42
0.0
 10
16.58360654650437
 20
8.299999764257609
 42
-0.4142135623731526
 10
16.32110654650432
 20
8.562499764257603
 42
0.0
 10
16.32110654650432
 20
11.36249976425761
 42
0.4142135623730951
 10
16.05860654650433
 20
11.62499976425761
 42
0.0
 10
15.18360654650428
 20
11.62499976425761
 42
0.4142135623730871
 10
14.92110654650429
 20
11.36249976425762
 42
0.0
 10
14.92110654650429
 20
3.837499764257605
 42
0.4142135623730891
 10
15.18360654650428
 20
3.574999764257611
 42
0.0
 10
16.05860654650427
 20
3.574999764257611
 42
0.4142135623731526
 10
16.32110654650432
 20
3.837499764257605
 42
0.0
 10
16.32110654650432
 20
6.637499764257617
 42
-0.4142135623731526
 10
16.58360654650437
 20
6.899999764257611
 42
0.0
 10
16.65372362824865
 20
6.899999764257611
 42
-0.3272098845218915
 10
16.90403907784633
 20
6.716546748341073
 42
0.0
 10
17.83817401516222
 20
3.758452780174147
 42
0.3272098845218902
 10
18.0884894647599
 20
3.574999764257611
 42
0.0
 10
18.93793415456451
 20
3.574999764257611
 42
0.5069206636600335
 10
19.18824960416219
 20
3.916546748341115
 42
0.0
 10
18.02505391492536
 20
7.599999764257679
 42
0.0
 97
        0
 92
        7
 72
     1
 73
     1
 93
        8
 10
21.74610654650428
 20
11.36249976425761
 42
0.4142135623731546
 10
21.48360654650423
 20
11.62499976425761
 42
0.0
 10
20.60860654650434
 20
11.62499976425761
 42
0.4142135623731507
 10
20.3461065465043
 20
11.36249976425762
 42
0.0
 10
20.3461065465043
 20
3.837499764257605
 42
0.4142135623731526
 10
20.60860654650434
 20
3.574999764257611
 42
0.0
 10
21.48360654650423
 20
3.574999764257611
 42
0.4142135623731526
 10
21.74610654650428
 20
3.837499764257605
 42
0.0
 97
        0
 92
        7
 72
     1
 73
     1
 93
       24
 10
24.19610654650432
 20
9.962499764257614
 42
-0.4142135623731546
 10
24.45860654650437
 20
10.22499976425761
 42
0.0
 10
25.94610654650432
 20
10.22499976425761
 42
0.4142135623730911
 10
26.20860654650431
 20
10.4874997642576
 42
0.0
 10
26.20860654650431
 20
11.36249976425761
 42
0.4142135623730952
 10
25.94610654650432
 20
11.62499976425761
 42
0.0
 10
24.19610654650432
 20
11.62499976425761
 42
0.4142135623731048
 10
22.79610654650429
 20
10.22499976425762
 42
0.0
 10
22.79610654650429
 20
9.31739875157999
 42
0.1989123673796613
 10
23.41118230601256
 20
7.832474511088214
 42
0.0
 10
24.8660812933349
 20
6.37757552376588
 42
-0.1989123673796402
 10
25.07110654650432
 20
5.882600776935344
 42
0.0
 10
25.07110654650432
 20
5.237499764257606
 42
-0.4142135623730911
 10
24.80860654650433
 20
4.97499976425761
 42
0.0
 10
23.32110654650432
 20
4.97499976425761
 42
0.4142135623731526
 10
23.05860654650428
 20
4.712499764257616
 42
0.0
 10
23.05860654650428
 20
3.837499764257605
 42
0.4142135623730891
 10
23.32110654650426
 20
3.574999764257611
 42
0.0
 10
25.07110654650432
 20
3.574999764257611
 42
0.4142135623730925
 10
26.4711065465043
 20
4.974999764257599
 42
0.0
 10
26.4711065465043
 20
5.882600776935236
 42
0.1989123673796675
 10
25.85603078699603
 20
7.367525017427063
 42
0.0
 10
24.40113179967374
 20
8.82242400474932
 42
-0.1989123673796652
 10
24.19610654650432
 20
9.317398751579904
 42
0.0
 97
        0
 92
        7
 72
     1
 73
     1
 93
       16
 10
28.92110654650429
 20
11.3624997642576
 42
0.414213562373103
 10
28.6586065465043
 20
11.62499976425761
 42
0.0
 10
27.7836065465043
 20
11.62499976425761
 42
0.4142135623730871
 10
27.52110654650431
 20
11.36249976425762
 42
0.0
 10
27.52110654650431
 20
4.974999764257599
 42
0.4142135623730926
 10
28.92110654650429
 20
3.574999764257611
 42
0.0
 10
30.67110654650429
 20
3.574999764257611
 42
0.4142135623731044
 10
32.07110654650432
 20
4.974999764257599
 42
0.0
 10
32.07110654650432
 20
11.36249976425761
 42
0.4142135623730951
 10
31.80860654650433
 20
11.62499976425761
 42
0.0
 10
30.93360654650428
 20
11.62499976425761
 42
0.4142135623730871
 10
30.67110654650429
 20
11.36249976425762
 42
0.0
 10
30.67110654650429
 20
5.499999764257598
 42
-0.414213562373088
 10
30.14610654650431
 20
4.97499976425761
 42
0.0
 10
29.44610654650432
 20
4.97499976425761
 42
-0.4142135623731197
 10
28.92110654650429
 20
5.499999764257598
 42
0.0
 97
        0
 92
        7
 72
     1
 73
     1
 93
        8
 10
34.52110654650431
 20
11.36249976425762
 42
0.4142135623730871
 10
34.25860654650432
 20
11.62499976425761
 42
0.0
 10
33.38360654650432
 20
11.62499976425761
 42
0.4142135623731507
 10
33.12110654650428
 20
11.36249976425762
 42
0.0
 10
33.12110654650428
 20
3.837499764257605
 42
0.4142135623730891
 10
33.38360654650426
 20
3.574999764257611
 42
0.0
 10
34.25860654650432
 20
3.574999764257611
 42
0.4142135623730891
 10
34.52110654650431
 20
3.837499764257605
 42
0.0
 97
        0
 75
     0
 76
     1
 52
0.0
 41
0.1
 77
     0
 78
     2
 53
45.0
 43
-450.4711516982257
 44
-6.600000235742356
 45
-0.2245064030267288
 46
0.2245064030267288
 79
     0
 53
135.0
 43
-450.4711516982257
 44
-6.600000235742356
 45
-0.2245064030267288
 46
-0.2245064030267288
 79
     0
 47
0.057451373970553
 98
        8
 10
8.039927950625383
 20
7.583586587200386
 10
11.20225797233331
 20
9.422030855483114
 10
12.58218441194355
 20
7.755940587292968
 10
15.45703045993229
 20
8.10064858747836
 10
20.91923647859209
 20
8.330454721249168
 10
23.4491009166785
 20
9.709287922461214
 10
28.2788434553139
 20
9.364578721805116
 10
33.91354027892509
 20
9.594384855575924
  0
LINE
  5
33BA
330
1A
100
AcDbEntity
  8
ZUWAKU
100
AcDbLine
 10
17.83817401516222
 20
11.44154674834109
 30
0.0
 11
16.90403907784633
 21
8.483452780174125
 31
0.0
  0
LINE
  5
33BB
330
1A
100
AcDbEntity
  8
ZUWAKU
100
AcDbLine
 10
16.32110654650432
 20
8.562499764257612
 30
0.0
 11
16.32110654650432
 21
11.3624997642576
 31
0.0
  0
LINE
  5
33BC
330
1A
100
AcDbEntity
  8
ZUWAKU
100
AcDbLine
 10
14.92110654650429
 20
11.3624997642576
 30
0.0
 11
14.92110654650429
 21
3.837499764257611
 31
0.0
  0
LINE
  5
33BD
330
1A
100
AcDbEntity
  8
ZUWAKU
100
AcDbLine
 10
10.37110654650428
 20
5.674999764257613
 30
0.0
 11
10.37110654650428
 21
9.524999764257589
 31
0.0
  0
LINE
  5
33BE
330
1A
100
AcDbEntity
  8
ZUWAKU
100
AcDbLine
 10
11.77110654650431
 20
9.524999764257611
 30
0.0
 11
11.77110654650431
 21
5.674999764257613
 31
0.0
  0
LINE
  5
33BF
330
1A
100
AcDbEntity
  8
ZUWAKU
100
AcDbLine
 10
21.74610654650428
 20
3.837499764257611
 30
0.0
 11
21.74610654650428
 21
11.3624997642576
 31
0.0
  0
LINE
  5
33C0
330
1A
100
AcDbEntity
  8
ZUWAKU
100
AcDbLine
 10
20.3461065465043
 20
11.3624997642576
 30
0.0
 11
20.3461065465043
 21
3.837499764257611
 31
0.0
  0
LINE
  5
33C1
330
1A
100
AcDbEntity
  8
ZUWAKU
100
AcDbLine
 10
18.65742978759328
 20
9.602523361039324
 30
0.0
 11
18.02505391492536
 21
7.599999764257621
 31
0.0
  0
ARC
  5
33C2
330
1A
100
AcDbEntity
  8
ZUWAKU
100
AcDbCircle
 10
24.89610654650431
 20
9.317398751579961
 30
0.0
 40
2.099999999999999
100
AcDbArc
 50
180.0
 51
225.0
  0
ARC
  5
33C3
330
1A
100
AcDbEntity
  8
ZUWAKU
100
AcDbCircle
 10
24.89610654650431
 20
9.317398751579961
 30
0.0
 40
0.7
100
AcDbArc
 50
180.0000000000016
 51
224.9999999999988
  0
ARC
  5
33C4
330
1A
100
AcDbEntity
  8
ZUWAKU
100
AcDbCircle
 10
7.746106546504279
 20
9.317398751579961
 30
0.0
 40
0.7
100
AcDbArc
 50
180.0000000000016
 51
224.9999999999988
  0
ARC
  5
33C5
330
1A
100
AcDbEntity
  8
ZUWAKU
100
AcDbCircle
 10
7.746106546504279
 20
9.317398751579961
 30
0.0
 40
2.099999999999999
100
AcDbArc
 50
180.0
 51
225.0
  0
ARC
  5
33C6
330
1A
100
AcDbEntity
  8
ZUWAKU
100
AcDbCircle
 10
12.4711065465043
 20
5.674999764257613
 30
0.0
 40
2.099999999999999
100
AcDbArc
 50
180.0
 51
270.0
  0
ARC
  5
33C7
330
1A
100
AcDbEntity
  8
ZUWAKU
100
AcDbCircle
 10
7.92110654650429
 20
4.97499976425761
 30
0.0
 40
1.399999999999999
100
AcDbArc
 50
270.0
 51
0.0
  0
ARC
  5
33C8
330
1A
100
AcDbEntity
  8
ZUWAKU
100
AcDbCircle
 10
7.221106546504302
 20
5.882600776935262
 30
0.0
 40
2.099999999999999
100
AcDbArc
 50
0.0
 51
45.0
  0
ARC
  5
33C9
330
1A
100
AcDbEntity
  8
ZUWAKU
100
AcDbCircle
 10
7.221106546504302
 20
5.882600776935284
 30
0.0
 40
0.7
100
AcDbArc
 50
0.0
 51
45.0
  0
LINE
  5
33CA
330
1A
100
AcDbEntity
  8
ZUWAKU
100
AcDbLine
 10
7.92110654650429
 20
5.237499764257613
 30
0.0
 11
7.92110654650429
 21
5.882600776935284
 31
0.0
  0
LINE
  5
33CB
330
1A
100
AcDbEntity
  8
ZUWAKU
100
AcDbLine
 10
9.321106546504324
 20
4.97499976425761
 30
0.0
 11
9.321106546504324
 21
5.882600776935284
 31
0.0
  0
LINE
  5
33CC
330
1A
100
AcDbEntity
  8
ZUWAKU
100
AcDbLine
 10
6.17110654650429
 20
4.97499976425761
 30
0.0
 11
7.658606546504302
 21
4.97499976425761
 31
0.0
  0
ARC
  5
33CD
330
1A
100
AcDbEntity
  8
ZUWAKU
100
AcDbCircle
 10
6.17110654650429
 20
4.712499764257611
 30
0.0
 40
0.2625
100
AcDbArc
 50
90.0
 51
180.0
  0
ARC
  5
33CE
330
1A
100
AcDbEntity
  8
ZUWAKU
100
AcDbCircle
 10
6.17110654650429
 20
3.837499764257611
 30
0.0
 40
0.2625
100
AcDbArc
 50
180.0
 51
270.0
  0
LINE
  5
33CF
330
1A
100
AcDbEntity
  8
ZUWAKU
100
AcDbLine
 10
5.908606546504302
 20
3.837499764257611
 30
0.0
 11
5.908606546504302
 21
4.712499764257611
 31
0.0
  0
LINE
  5
33D0
330
1A
100
AcDbEntity
  8
ZUWAKU
100
AcDbLine
 10
6.261182306012528
 20
7.8324745110882
 30
0.0
 11
7.716081293334866
 21
6.37757552376587
 31
0.0
  0
LINE
  5
33D1
330
1A
100
AcDbEntity
  8
ZUWAKU
100
AcDbLine
 10
6.17110654650429
 20
3.574999764257611
 30
0.0
 11
7.92110654650429
 21
3.574999764257611
 31
0.0
  0
ARC
  5
33D2
330
1A
100
AcDbEntity
  8
ZUWAKU
100
AcDbCircle
 10
7.658606546504302
 20
5.237499764257613
 30
0.0
 40
0.2625
100
AcDbArc
 50
270.0
 51
0.0
  0
LINE
  5
33D3
330
1A
100
AcDbEntity
  8
ZUWAKU
100
AcDbLine
 10
8.706030786996052
 20
7.367525017427023
 30
0.0
 11
7.251131799673714
 21
8.822424004749361
 31
0.0
  0
LINE
  5
33D4
330
1A
100
AcDbEntity
  8
ZUWAKU
100
AcDbLine
 10
19.18824960416219
 20
3.916546748341097
 30
0.0
 11
18.02505391492536
 21
7.599999764257621
 31
0.0
  0
LINE
  5
33D5
330
1A
100
AcDbEntity
  8
ZUWAKU
100
AcDbLine
 10
18.08848946475995
 20
3.574999764257611
 30
0.0
 11
18.93793415456445
 21
3.574999764257611
 31
0.0
  0
LINE
  5
33D6
330
1A
100
AcDbEntity
  8
ZUWAKU
100
AcDbLine
 10
17.83817401516222
 20
3.758452780174124
 30
0.0
 11
16.90403907784633
 21
6.716546748341094
 31
0.0
  0
ARC
  5
33D7
330
1A
100
AcDbEntity
  8
ZUWAKU
100
AcDbCircle
 10
18.08848946475995
 20
3.837499764257611
 30
0.0
 40
0.2625
100
AcDbArc
 50
197.525568373723
 51
270.0
  0
ARC
  5
33D8
330
1A
100
AcDbEntity
  8
ZUWAKU
100
AcDbCircle
 10
16.58360654650431
 20
6.637499764257611
 30
0.0
 40
0.2625
100
AcDbArc
 50
90.0
 51
180.0
  0
ARC
  5
33D9
330
1A
100
AcDbEntity
  8
ZUWAKU
100
AcDbCircle
 10
16.65372362824865
 20
6.637499764257611
 30
0.0
 40
0.2625
100
AcDbArc
 50
17.52556837372303
 51
90.0
  0
LINE
  5
33DA
330
1A
100
AcDbEntity
  8
ZUWAKU
100
AcDbLine
 10
16.32110654650432
 20
3.837499764257611
 30
0.0
 11
16.32110654650432
 21
6.637499764257611
 31
0.0
  0
ARC
  5
33DB
330
1A
100
AcDbEntity
  8
ZUWAKU
100
AcDbCircle
 10
16.05860654650427
 20
3.837499764257611
 30
0.0
 40
0.2625
100
AcDbArc
 50
270.0
 51
0.0
  0
LINE
  5
33DC
330
1A
100
AcDbEntity
  8
ZUWAKU
100
AcDbLine
 10
16.58360654650431
 20
6.899999764257611
 30
0.0
 11
16.65372362824865
 21
6.899999764257611
 31
0.0
  0
LINE
  5
33DD
330
1A
100
AcDbEntity
  8
ZUWAKU
100
AcDbLine
 10
16.65372362824865
 20
8.299999764257609
 30
0.0
 11
16.58360654650431
 21
8.299999764257609
 31
0.0
  0
CIRCLE
  5
33DE
330
1A
100
AcDbEntity
  8
ZUWAKU
100
AcDbCircle
 10
12.99610654650428
 20
7.59999976425761
 30
0.0
 40
0.875
  0
ARC
  5
33DF
330
1A
100
AcDbEntity
  8
ZUWAKU
100
AcDbCircle
 10
12.4711065465043
 20
5.674999764257613
 30
0.0
 40
0.7
100
AcDbArc
 50
180.0
 51
270.0
  0
ARC
  5
33E0
330
1A
100
AcDbEntity
  8
ZUWAKU
100
AcDbCircle
 10
15.18360654650428
 20
3.837499764257611
 30
0.0
 40
0.2625
100
AcDbArc
 50
180.0
 51
270.0
  0
ARC
  5
33E1
330
1A
100
AcDbEntity
  8
ZUWAKU
100
AcDbCircle
 10
13.43360654650427
 20
4.712499764257611
 30
0.0
 40
0.2625
100
AcDbArc
 50
0.0
 51
90.0
  0
ARC
  5
33E2
330
1A
100
AcDbEntity
  8
ZUWAKU
100
AcDbCircle
 10
13.43360654650427
 20
3.837499764257611
 30
0.0
 40
0.2625
100
AcDbArc
 50
270.0
 51
0.0
  0
LINE
  5
33E3
330
1A
100
AcDbEntity
  8
ZUWAKU
100
AcDbLine
 10
13.43360654650427
 20
3.574999764257611
 30
0.0
 11
12.4711065465043
 21
3.574999764257611
 31
0.0
  0
LINE
  5
33E4
330
1A
100
AcDbEntity
  8
ZUWAKU
100
AcDbLine
 10
13.69610654650432
 20
4.712499764257611
 30
0.0
 11
13.69610654650432
 21
3.837499764257611
 31
0.0
  0
LINE
  5
33E5
330
1A
100
AcDbEntity
  8
ZUWAKU
100
AcDbLine
 10
12.4711065465043
 20
4.97499976425761
 30
0.0
 11
13.43360654650427
 21
4.97499976425761
 31
0.0
  0
LINE
  5
33E6
330
1A
100
AcDbEntity
  8
ZUWAKU
100
AcDbLine
 10
15.18360654650428
 20
3.574999764257611
 30
0.0
 11
16.05860654650427
 21
3.574999764257611
 31
0.0
  0
ARC
  5
33E7
330
1A
100
AcDbEntity
  8
ZUWAKU
100
AcDbCircle
 10
16.58360654650431
 20
8.562499764257612
 30
0.0
 40
0.2625
100
AcDbArc
 50
180.0
 51
270.0
  0
ARC
  5
33E8
330
1A
100
AcDbEntity
  8
ZUWAKU
100
AcDbCircle
 10
16.65372362824865
 20
8.562499764257612
 30
0.0
 40
0.2625
100
AcDbArc
 50
270.0
 51
342.4744316262769
  0
ARC
  5
33E9
330
1A
100
AcDbEntity
  8
ZUWAKU
100
AcDbCircle
 10
24.80860654650427
 20
5.237499764257613
 30
0.0
 40
0.2625
100
AcDbArc
 50
270.0
 51
0.0
  0
ARC
  5
33EA
330
1A
100
AcDbEntity
  8
ZUWAKU
100
AcDbCircle
 10
24.37110654650428
 20
5.882600776935284
 30
0.0
 40
0.7
100
AcDbArc
 50
0.0
 51
45.0
  0
LINE
  5
33EB
330
1A
100
AcDbEntity
  8
ZUWAKU
100
AcDbLine
 10
25.07110654650432
 20
5.237499764257613
 30
0.0
 11
25.07110654650432
 21
5.882600776935284
 31
0.0
  0
LINE
  5
33EC
330
1A
100
AcDbEntity
  8
ZUWAKU
100
AcDbLine
 10
26.4711065465043
 20
4.97499976425761
 30
0.0
 11
26.4711065465043
 21
5.882600776935284
 31
0.0
  0
LINE
  5
33ED
330
1A
100
AcDbEntity
  8
ZUWAKU
100
AcDbLine
 10
25.85603078699608
 20
7.367525017427023
 30
0.0
 11
24.40113179967369
 21
8.822424004749361
 31
0.0
  0
LINE
  5
33EE
330
1A
100
AcDbEntity
  8
ZUWAKU
100
AcDbLine
 10
20.60860654650429
 20
3.574999764257611
 30
0.0
 11
21.48360654650429
 21
3.574999764257611
 31
0.0
  0
ARC
  5
33EF
330
1A
100
AcDbEntity
  8
ZUWAKU
100
AcDbCircle
 10
18.93793415456445
 20
3.837499764257611
 30
0.0
 40
0.2625
100
AcDbArc
 50
270.0
 51
17.52556837372303
  0
ARC
  5
33F0
330
1A
100
AcDbEntity
  8
ZUWAKU
100
AcDbCircle
 10
20.60860654650429
 20
3.837499764257611
 30
0.0
 40
0.2625
100
AcDbArc
 50
180.0
 51
270.0
  0
ARC
  5
33F1
330
1A
100
AcDbEntity
  8
ZUWAKU
100
AcDbCircle
 10
23.32110654650432
 20
4.712499764257611
 30
0.0
 40
0.2625
100
AcDbArc
 50
90.0
 51
180.0
  0
ARC
  5
33F2
330
1A
100
AcDbEntity
  8
ZUWAKU
100
AcDbCircle
 10
21.48360654650429
 20
3.837499764257611
 30
0.0
 40
0.2625
100
AcDbArc
 50
270.0
 51
0.0
  0
ARC
  5
33F3
330
1A
100
AcDbEntity
  8
ZUWAKU
100
AcDbCircle
 10
23.32110654650432
 20
3.837499764257611
 30
0.0
 40
0.2625
100
AcDbArc
 50
180.0
 51
270.0
  0
LINE
  5
33F4
330
1A
100
AcDbEntity
  8
ZUWAKU
100
AcDbLine
 10
23.05860654650428
 20
3.837499764257611
 30
0.0
 11
23.05860654650428
 21
4.712499764257611
 31
0.0
  0
LINE
  5
33F5
330
1A
100
AcDbEntity
  8
ZUWAKU
100
AcDbLine
 10
23.41118230601256
 20
7.8324745110882
 30
0.0
 11
24.8660812933349
 21
6.37757552376587
 31
0.0
  0
LINE
  5
33F6
330
1A
100
AcDbEntity
  8
ZUWAKU
100
AcDbLine
 10
23.32110654650432
 20
3.574999764257611
 30
0.0
 11
25.07110654650432
 21
3.574999764257611
 31
0.0
  0
LINE
  5
33F7
330
1A
100
AcDbEntity
  8
ZUWAKU
100
AcDbLine
 10
23.32110654650432
 20
4.97499976425761
 30
0.0
 11
24.80860654650427
 21
4.97499976425761
 31
0.0
  0
ARC
  5
33F8
330
1A
100
AcDbEntity
  8
ZUWAKU
100
AcDbCircle
 10
12.4711065465043
 20
9.524999764257589
 30
0.0
 40
2.099999999999999
100
AcDbArc
 50
90.0
 51
180.0
  0
LINE
  5
33F9
330
1A
100
AcDbEntity
  8
ZUWAKU
100
AcDbLine
 10
9.058606546504279
 20
11.3624997642576
 30
0.0
 11
9.058606546504279
 21
10.48749976425761
 31
0.0
  0
ARC
  5
33FA
330
1A
100
AcDbEntity
  8
ZUWAKU
100
AcDbCircle
 10
8.79610654650429
 20
10.48749976425761
 30
0.0
 40
0.2625
100
AcDbArc
 50
270.0
 51
0.0
  0
ARC
  5
33FB
330
1A
100
AcDbEntity
  8
ZUWAKU
100
AcDbCircle
 10
8.79610654650429
 20
11.3624997642576
 30
0.0
 40
0.2625
100
AcDbArc
 50
0.0
 51
90.0
  0
ARC
  5
33FC
330
1A
100
AcDbEntity
  8
ZUWAKU
100
AcDbCircle
 10
7.04610654650429
 20
10.22499976425761
 30
0.0
 40
1.399999999999999
100
AcDbArc
 50
90.0
 51
180.0
  0
LINE
  5
33FD
330
1A
100
AcDbEntity
  8
ZUWAKU
100
AcDbLine
 10
5.646106546504313
 20
10.22499976425761
 30
0.0
 11
5.646106546504313
 21
9.31739875157994
 31
0.0
  0
LINE
  5
33FE
330
1A
100
AcDbEntity
  8
ZUWAKU
100
AcDbLine
 10
7.04610654650429
 20
9.962499764257611
 30
0.0
 11
7.04610654650429
 21
9.31739875157994
 31
0.0
  0
ARC
  5
33FF
330
1A
100
AcDbEntity
  8
ZUWAKU
100
AcDbCircle
 10
7.308606546504279
 20
9.962499764257611
 30
0.0
 40
0.2625
100
AcDbArc
 50
90.0
 51
180.0
  0
LINE
  5
3400
330
1A
100
AcDbEntity
  8
ZUWAKU
100
AcDbLine
 10
8.79610654650429
 20
10.22499976425761
 30
0.0
 11
7.308606546504279
 21
10.22499976425761
 31
0.0
  0
LINE
  5
3401
330
1A
100
AcDbEntity
  8
ZUWAKU
100
AcDbLine
 10
7.04610654650429
 20
11.62499976425761
 30
0.0
 11
8.79610654650429
 21
11.62499976425761
 31
0.0
  0
LINE
  5
3402
330
1A
100
AcDbEntity
  8
ZUWAKU
100
AcDbLine
 10
18.08848946475995
 20
11.62499976425761
 30
0.0
 11
18.93793415456445
 21
11.62499976425761
 31
0.0
  0
ARC
  5
3403
330
1A
100
AcDbEntity
  8
ZUWAKU
100
AcDbCircle
 10
18.08848946475995
 20
11.3624997642576
 30
0.0
 40
0.2625
100
AcDbArc
 50
90.0
 51
162.4744316262769
  0
ARC
  5
3404
330
1A
100
AcDbEntity
  8
ZUWAKU
100
AcDbCircle
 10
16.05860654650427
 20
11.3624997642576
 30
0.0
 40
0.2625
100
AcDbArc
 50
0.0
 51
90.0
  0
ARC
  5
3405
330
1A
100
AcDbEntity
  8
ZUWAKU
100
AcDbCircle
 10
12.4711065465043
 20
9.524999764257611
 30
0.0
 40
0.7
100
AcDbArc
 50
90.0
 51
180.0
  0
LINE
  5
3406
330
1A
100
AcDbEntity
  8
ZUWAKU
100
AcDbLine
 10
13.69610654650432
 20
11.3624997642576
 30
0.0
 11
13.69610654650432
 21
10.48749976425761
 31
0.0
  0
ARC
  5
3407
330
1A
100
AcDbEntity
  8
ZUWAKU
100
AcDbCircle
 10
13.43360654650427
 20
10.48749976425761
 30
0.0
 40
0.2625
100
AcDbArc
 50
270.0
 51
0.0
  0
LINE
  5
3408
330
1A
100
AcDbEntity
  8
ZUWAKU
100
AcDbLine
 10
13.43360654650427
 20
10.22499976425761
 30
0.0
 11
12.4711065465043
 21
10.22499976425761
 31
0.0
  0
ARC
  5
3409
330
1A
100
AcDbEntity
  8
ZUWAKU
100
AcDbCircle
 10
15.18360654650428
 20
11.3624997642576
 30
0.0
 40
0.2625
100
AcDbArc
 50
90.0
 51
180.0
  0
ARC
  5
340A
330
1A
100
AcDbEntity
  8
ZUWAKU
100
AcDbCircle
 10
13.43360654650427
 20
11.3624997642576
 30
0.0
 40
0.2625
100
AcDbArc
 50
0.0
 51
90.0
  0
LINE
  5
340B
330
1A
100
AcDbEntity
  8
ZUWAKU
100
AcDbLine
 10
12.4711065465043
 20
11.62499976425759
 30
0.0
 11
13.43360654650427
 21
11.62499976425761
 31
0.0
  0
LINE
  5
340C
330
1A
100
AcDbEntity
  8
ZUWAKU
100
AcDbLine
 10
16.05860654650427
 20
11.62499976425761
 30
0.0
 11
15.18360654650428
 21
11.62499976425761
 31
0.0
  0
LINE
  5
340D
330
1A
100
AcDbEntity
  8
ZUWAKU
100
AcDbLine
 10
26.20860654650431
 20
11.3624997642576
 30
0.0
 11
26.20860654650431
 21
10.48749976425761
 31
0.0
  0
LINE
  5
340E
330
1A
100
AcDbEntity
  8
ZUWAKU
100
AcDbLine
 10
25.94610654650432
 20
10.22499976425761
 30
0.0
 11
24.45860654650431
 21
10.22499976425761
 31
0.0
  0
ARC
  5
340F
330
1A
100
AcDbEntity
  8
ZUWAKU
100
AcDbCircle
 10
25.94610654650432
 20
10.48749976425761
 30
0.0
 40
0.2625
100
AcDbArc
 50
270.0
 51
0.0
  0
ARC
  5
3410
330
1A
100
AcDbEntity
  8
ZUWAKU
100
AcDbCircle
 10
25.94610654650432
 20
11.3624997642576
 30
0.0
 40
0.2625
100
AcDbArc
 50
0.0
 51
90.0
  0
ARC
  5
3411
330
1A
100
AcDbEntity
  8
ZUWAKU
100
AcDbCircle
 10
24.19610654650432
 20
10.22499976425761
 30
0.0
 40
1.399999999999999
100
AcDbArc
 50
90.0
 51
180.0
  0
LINE
  5
3412
330
1A
100
AcDbEntity
  8
ZUWAKU
100
AcDbLine
 10
19.18824960416219
 20
11.28345278017412
 30
0.0
 11
18.65742978759328
 21
9.602523361039324
 31
0.0
  0
LINE
  5
3413
330
1A
100
AcDbEntity
  8
ZUWAKU
100
AcDbLine
 10
22.79610654650429
 20
10.22499976425761
 30
0.0
 11
22.79610654650429
 21
9.31739875157994
 31
0.0
  0
LINE
  5
3414
330
1A
100
AcDbEntity
  8
ZUWAKU
100
AcDbLine
 10
21.48360654650429
 20
11.62499976425761
 30
0.0
 11
20.60860654650429
 21
11.62499976425761
 31
0.0
  0
ARC
  5
3415
330
1A
100
AcDbEntity
  8
ZUWAKU
100
AcDbCircle
 10
18.93793415456445
 20
11.3624997642576
 30
0.0
 40
0.2625
100
AcDbArc
 50
342.4744316262769
 51
90.0
  0
ARC
  5
3416
330
1A
100
AcDbEntity
  8
ZUWAKU
100
AcDbCircle
 10
20.60860654650429
 20
11.3624997642576
 30
0.0
 40
0.2625
100
AcDbArc
 50
90.0
 51
180.0
  0
ARC
  5
3417
330
1A
100
AcDbEntity
  8
ZUWAKU
100
AcDbCircle
 10
21.48360654650429
 20
11.3624997642576
 30
0.0
 40
0.2625
100
AcDbArc
 50
0.0
 51
90.0
  0
LINE
  5
3418
330
1A
100
AcDbEntity
  8
ZUWAKU
100
AcDbLine
 10
24.19610654650432
 20
9.962499764257611
 30
0.0
 11
24.19610654650432
 21
9.31739875157994
 31
0.0
  0
ARC
  5
3419
330
1A
100
AcDbEntity
  8
ZUWAKU
100
AcDbCircle
 10
24.45860654650431
 20
9.962499764257611
 30
0.0
 40
0.2625
100
AcDbArc
 50
90.0
 51
180.0
  0
LINE
  5
341A
330
1A
100
AcDbEntity
  8
ZUWAKU
100
AcDbLine
 10
24.19610654650432
 20
11.62499976425761
 30
0.0
 11
25.94610654650432
 21
11.62499976425761
 31
0.0
  0
TEXT
  5
341B
330
1A
100
AcDbEntity
  8
MOJI
100
AcDbText
 10
119.9136018095392
 20
9.002460292961302
 30
0.0
 40
2.799999999999999
  1
回転リング
 41
0.9
  7
ｽﾀｲﾙ1
100
AcDbText
  0
TEXT
  5
341C
330
1A
100
AcDbEntity
  8
MOJI
100
AcDbText
 10
46.47889526319829
 20
6.370588829394989
 30
0.0
 40
3.0
  1
アートフェイスＶＭ１２０
 41
0.9
  7
ｽﾀｲﾙ1
100
AcDbText
  0
LINE
  5
341D
330
1A
100
AcDbEntity
  8
ZUWAKU
100
AcDbLine
 10
28.92110654650429
 20
5.499999764257609
 30
0.0
 11
28.92110654650429
 21
11.3624997642576
 31
0.0
  0
LINE
  5
341E
330
1A
100
AcDbEntity
  8
ZUWAKU
100
AcDbLine
 10
27.52110654650431
 20
11.3624997642576
 30
0.0
 11
27.52110654650431
 21
4.97499976425761
 31
0.0
  0
LINE
  5
341F
330
1A
100
AcDbEntity
  8
ZUWAKU
100
AcDbLine
 10
33.12110654650428
 20
11.3624997642576
 30
0.0
 11
33.12110654650428
 21
3.837499764257611
 31
0.0
  0
LINE
  5
3420
330
1A
100
AcDbEntity
  8
ZUWAKU
100
AcDbLine
 10
34.52110654650431
 20
3.837499764257611
 30
0.0
 11
34.52110654650431
 21
11.3624997642576
 31
0.0
  0
LINE
  5
3421
330
1A
100
AcDbEntity
  8
ZUWAKU
100
AcDbLine
 10
30.67110654650429
 20
11.3624997642576
 30
0.0
 11
30.67110654650429
 21
5.499999764257609
 31
0.0
  0
LINE
  5
3422
330
1A
100
AcDbEntity
  8
ZUWAKU
100
AcDbLine
 10
32.07110654650432
 20
4.97499976425761
 30
0.0
 11
32.07110654650432
 21
11.3624997642576
 31
0.0
  0
LINE
  5
3423
330
1A
100
AcDbEntity
  8
ZUWAKU
100
AcDbLine
 10
39.56331524310792
 20
14.9999997642576
 30
0.0
 11
39.56331524310792
 21
0.3999997642576431
 31
0.0
  0
LINE
  5
3424
330
1A
100
AcDbEntity
  8
ZUWAKU
100
AcDbLine
 10
39.76331524310785
 20
14.9999997642576
 30
0.0
 11
39.76331524310797
 21
0.3999997642576431
 31
0.0
  0
LINE
  5
3425
330
1A
100
AcDbEntity
  8
ZUWAKU
100
AcDbLine
 10
39.66331524310783
 20
14.9999997642576
 30
0.0
 11
39.66331524310794
 21
0.3999997642576431
 31
0.0
  0
LINE
  5
3426
330
1A
100
AcDbEntity
  8
ZUWAKU
100
AcDbLine
 10
104.2233011141476
 20
14.9999997642576
 30
0.0
 11
104.2233011141477
 21
0.3999997642576431
 31
0.0
  0
LINE
  5
3427
330
1A
100
AcDbEntity
  8
ZUWAKU
100
AcDbLine
 10
104.3233011141476
 20
14.9999997642576
 30
0.0
 11
104.3233011141477
 21
0.3999997642576431
 31
0.0
  0
LINE
  5
3428
330
1A
100
AcDbEntity
  8
ZUWAKU
100
AcDbLine
 10
104.1233011141476
 20
14.9999997642576
 30
0.0
 11
104.1233011141476
 21
0.3999997642576431
 31
0.0
  0
ARC
  5
3429
330
1A
100
AcDbEntity
  8
ZUWAKU
100
AcDbCircle
 10
28.92110654650429
 20
4.97499976425761
 30
0.0
 40
1.399999999999999
100
AcDbArc
 50
180.0
 51
270.0
  0
ARC
  5
342A
330
1A
100
AcDbEntity
  8
ZUWAKU
100
AcDbCircle
 10
30.67110654650429
 20
4.97499976425761
 30
0.0
 40
1.399999999999999
100
AcDbArc
 50
270.0
 51
0.0
  0
LINE
  5
342B
330
1A
100
AcDbEntity
  8
ZUWAKU
100
AcDbLine
 10
33.38360654650432
 20
3.574999764257611
 30
0.0
 11
34.25860654650432
 21
3.574999764257611
 31
0.0
  0
ARC
  5
342C
330
1A
100
AcDbEntity
  8
ZUWAKU
100
AcDbCircle
 10
33.38360654650432
 20
3.837499764257611
 30
0.0
 40
0.2625
100
AcDbArc
 50
180.0
 51
270.0
  0
ARC
  5
342D
330
1A
100
AcDbEntity
  8
ZUWAKU
100
AcDbCircle
 10
34.25860654650432
 20
3.837499764257611
 30
0.0
 40
0.2625
100
AcDbArc
 50
270.0
 51
0.0
  0
ARC
  5
342E
330
1A
100
AcDbEntity
  8
ZUWAKU
100
AcDbCircle
 10
29.44610654650432
 20
5.499999764257609
 30
0.0
 40
0.525
100
AcDbArc
 50
180.0
 51
270.0
  0
LINE
  5
342F
330
1A
100
AcDbEntity
  8
ZUWAKU
100
AcDbLine
 10
28.92110654650429
 20
3.574999764257611
 30
0.0
 11
30.67110654650429
 21
3.574999764257611
 31
0.0
  0
ARC
  5
3430
330
1A
100
AcDbEntity
  8
ZUWAKU
100
AcDbCircle
 10
30.14610654650431
 20
5.499999764257609
 30
0.0
 40
0.525
100
AcDbArc
 50
270.0
 51
0.0
  0
LINE
  5
3431
330
1A
100
AcDbEntity
  8
ZUWAKU
100
AcDbLine
 10
30.14610654650431
 20
4.97499976425761
 30
0.0
 11
29.44610654650432
 21
4.97499976425761
 31
0.0
  0
TEXT
  5
3432
330
1A
100
AcDbEntity
  8
ZUWAKU
100
AcDbText
 10
104.8620236252524
 20
4.827678033450418
 30
0.0
 40
2.0
  1
サイズ
 41
0.9
  7
ｽﾀｲﾙ1
100
AcDbText
  0
LINE
  5
3433
330
1A
100
AcDbEntity
  8
ZUWAKU
100
AcDbLine
 10
34.25860654650432
 20
11.62499976425761
 30
0.0
 11
33.38360654650432
 21
11.62499976425761
 31
0.0
  0
ARC
  5
3434
330
1A
100
AcDbEntity
  8
ZUWAKU
100
AcDbCircle
 10
33.38360654650432
 20
11.3624997642576
 30
0.0
 40
0.2625
100
AcDbArc
 50
90.0
 51
180.0
  0
ARC
  5
3435
330
1A
100
AcDbEntity
  8
ZUWAKU
100
AcDbCircle
 10
34.25860654650432
 20
11.3624997642576
 30
0.0
 40
0.2625
100
AcDbArc
 50
0.0
 51
90.0
  0
LINE
  5
3436
330
1A
100
AcDbEntity
  8
ZUWAKU
100
AcDbLine
 10
28.6586065465043
 20
11.62499976425761
 30
0.0
 11
27.7836065465043
 21
11.62499976425761
 31
0.0
  0
ARC
  5
3437
330
1A
100
AcDbEntity
  8
ZUWAKU
100
AcDbCircle
 10
27.7836065465043
 20
11.3624997642576
 30
0.0
 40
0.2625
100
AcDbArc
 50
90.0
 51
180.0
  0
ARC
  5
3438
330
1A
100
AcDbEntity
  8
ZUWAKU
100
AcDbCircle
 10
28.6586065465043
 20
11.3624997642576
 30
0.0
 40
0.2625
100
AcDbArc
 50
0.0
 51
90.0
  0
ARC
  5
3439
330
1A
100
AcDbEntity
  8
ZUWAKU
100
AcDbCircle
 10
30.93360654650428
 20
11.3624997642576
 30
0.0
 40
0.2625
100
AcDbArc
 50
90.0
 51
180.0
  0
LINE
  5
343A
330
1A
100
AcDbEntity
  8
ZUWAKU
100
AcDbLine
 10
31.80860654650428
 20
11.62499976425761
 30
0.0
 11
30.93360654650428
 21
11.62499976425761
 31
0.0
  0
ARC
  5
343B
330
1A
100
AcDbEntity
  8
ZUWAKU
100
AcDbCircle
 10
31.80860654650428
 20
11.3624997642576
 30
0.0
 40
0.2625
100
AcDbArc
 50
0.0
 51
90.0
  0
TEXT
  5
343C
330
1A
100
AcDbEntity
  8
ZUWAKU
100
AcDbText
 10
104.8620236252523
 20
12.02767803345039
 30
0.0
 40
2.0
  1
品名
 41
0.9
  7
ｽﾀｲﾙ1
100
AcDbText
  0
TEXT
  5
343D
330
1A
100
AcDbEntity
  8
MOJI
100
AcDbText
 10
264.0204544552701
 20
9.002460292961302
 30
0.0
 40
2.799999999999999
  1
Ａ３
 41
0.9
  7
ｽﾀｲﾙ1
100
AcDbText
  0
LINE
  5
343E
330
1A
100
AcDbEntity
  8
ZUWAKU
100
AcDbLine
 10
252.4995902181841
 20
14.9999997642576
 30
0.0
 11
252.4995902181842
 21
0.3999997642576431
 31
0.0
  0
LINE
  5
343F
330
1A
100
AcDbEntity
  8
ZUWAKU
100
AcDbLine
 10
252.5995902181841
 20
14.9999997642576
 30
0.0
 11
252.5995902181843
 21
0.3999997642576431
 31
0.0
  0
LINE
  5
3440
330
1A
100
AcDbEntity
  8
ZUWAKU
100
AcDbLine
 10
252.3995902181842
 20
14.9999997642576
 30
0.0
 11
252.3995902181842
 21
0.3999997642576431
 31
0.0
  0
LINE
  5
3441
330
1A
100
AcDbEntity
  8
ZUWAKU
100
AcDbLine
 10
276.2634783521699
 20
14.9999997642576
 30
0.0
 11
276.2634783521699
 21
0.3999997642576431
 31
0.0
  0
LINE
  5
3442
330
1A
100
AcDbEntity
  8
ZUWAKU
100
AcDbLine
 10
276.4634783521699
 20
14.9999997642576
 30
0.0
 11
276.46347835217
 21
0.3999997642576431
 31
0.0
  0
LINE
  5
3443
330
1A
100
AcDbEntity
  8
ZUWAKU
100
AcDbLine
 10
276.3634783521698
 20
14.9999997642576
 30
0.0
 11
276.3634783521699
 21
0.3999997642576431
 31
0.0
  0
LINE
  5
3444
330
1A
100
AcDbEntity
  8
ZUWAKU
100
AcDbLine
 10
223.8121824546093
 20
14.9999997642576
 30
0.0
 11
223.8121824546094
 21
0.3999997642576431
 31
0.0
  0
LINE
  5
3445
330
1A
100
AcDbEntity
  8
ZUWAKU
100
AcDbLine
 10
223.9121824546093
 20
14.9999997642576
 30
0.0
 11
223.9121824546094
 21
0.3999997642576431
 31
0.0
  0
LINE
  5
3446
330
1A
100
AcDbEntity
  8
ZUWAKU
100
AcDbLine
 10
223.7121824546094
 20
14.9999997642576
 30
0.0
 11
223.7121824546094
 21
0.3999997642576431
 31
0.0
  0
TEXT
  5
3447
330
1A
100
AcDbEntity
  8
MOJI
100
AcDbText
 10
231.6232164646147
 20
5.971308625087601
 30
0.0
 40
2.799999999999999
  1
ＰＧ１０□
 41
0.9
  7
ｽﾀｲﾙ1
100
AcDbText
  0
LINE
  5
3448
330
1A
100
AcDbEntity
  8
ZUWAKU
100
AcDbLine
 10
252.5995902181841
 20
7.599999764257628
 30
0.0
 11
276.2634783521699
 21
7.599999764257628
 31
0.0
  0
LINE
  5
3449
330
1A
100
AcDbEntity
  8
ZUWAKU
100
AcDbLine
 10
252.5995902181841
 20
7.699999764257626
 30
0.0
 11
276.2634783521699
 21
7.699999764257626
 31
0.0
  0
LINE
  5
344A
330
1A
100
AcDbEntity
  8
ZUWAKU
100
AcDbLine
 10
252.5995902181841
 20
7.799999764257625
 30
0.0
 11
276.2634783521699
 21
7.799999764257625
 31
0.0
  0
TEXT
  5
344B
330
1A
100
AcDbEntity
  8
ZUWAKU
100
AcDbText
 10
253.3383127292891
 20
4.827678033450418
 30
0.0
 40
2.0
  1
縮尺
 41
0.9
  7
ｽﾀｲﾙ1
100
AcDbText
  0
TEXT
  5
344C
330
1A
100
AcDbEntity
  8
ZUWAKU
100
AcDbText
 10
230.9759176808935
 20
1.307035219827355
 30
0.0
 40
1.5
  1
□には色品番が入ります
 41
0.9
  7
ｽﾀｲﾙ1
100
AcDbText
  0
TEXT
  5
344D
330
1A
100
AcDbEntity
  8
MOJI
100
AcDbText
 10
264.0204544552701
 20
1.602460292961319
 30
0.0
 40
2.799999999999999
  1
１/１
 41
0.9
  7
ｽﾀｲﾙ1
100
AcDbText
  0
TEXT
  5
344E
330
1A
100
AcDbEntity
  8
ZUWAKU
100
AcDbText
 10
224.6509049657141
 20
12.02767803345039
 30
0.0
 40
2.0
  1
品番
 41
0.9
  7
ｽﾀｲﾙ1
100
AcDbText
  0
TEXT
  5
344F
330
1A
100
AcDbEntity
  8
ZUWAKU
100
AcDbText
 10
253.3383127292889
 20
12.02767803345039
 30
0.0
 40
2.0
  1
用紙
 41
0.9
  7
ｽﾀｲﾙ1
100
AcDbText
  0
TEXT
  5
3450
330
1A
100
AcDbEntity
  8
ZUWAKU
100
AcDbText
 10
354.2640425652356
 20
8.77691943210101
 30
0.0
 40
3.0
  1
積水化学工業株式会社
 41
0.9
  7
ｽﾀｲﾙ1
100
AcDbText
  0
TEXT
  5
3451
330
1A
100
AcDbEntity
  8
ZUWAKU
100
AcDbText
 10
329.1019693127649
 20
9.002460292961302
 30
0.0
 40
2.799999999999999
  1
　　．　　．　　
 41
0.9
  7
ｽﾀｲﾙ1
100
AcDbText
  0
LINE
  5
3452
330
1A
100
AcDbEntity
  8
ZUWAKU
100
AcDbLine
 10
348.9245057433843
 20
14.9999997642576
 30
0.0
 11
348.9245057433844
 21
0.3999997642576431
 31
0.0
  0
LINE
  5
3453
330
1A
100
AcDbEntity
  8
ZUWAKU
100
AcDbLine
 10
348.8245057433843
 20
14.9999997642576
 30
0.0
 11
348.8245057433843
 21
0.3999997642576431
 31
0.0
  0
LINE
  5
3454
330
1A
100
AcDbEntity
  8
ZUWAKU
100
AcDbLine
 10
348.7245057433844
 20
14.9999997642576
 30
0.0
 11
348.7245057433844
 21
0.3999997642576431
 31
0.0
  0
LINE
  5
3455
330
1A
100
AcDbEntity
  8
ZUWAKU
100
AcDbLine
 10
348.6245057433843
 20
14.9999997642576
 30
0.0
 11
348.6245057433843
 21
0.3999997642576431
 31
0.0
  0
LINE
  5
3456
330
1A
100
AcDbEntity
  8
ZUWAKU
100
AcDbLine
 10
324.208601724216
 20
14.9999997642576
 30
0.0
 11
324.208601724216
 21
0.3999997642576431
 31
0.0
  0
LINE
  5
3457
330
1A
100
AcDbEntity
  8
ZUWAKU
100
AcDbLine
 10
324.4086017242159
 20
14.9999997642576
 30
0.0
 11
324.408601724216
 21
0.3999997642576431
 31
0.0
  0
LINE
  5
3458
330
1A
100
AcDbEntity
  8
ZUWAKU
100
AcDbLine
 10
324.3086017242159
 20
14.9999997642576
 30
0.0
 11
324.308601724216
 21
0.3999997642576431
 31
0.0
  0
TEXT
  5
3459
330
1A
100
AcDbEntity
  8
ZUWAKU
100
AcDbText
 10
354.2640425652356
 20
3.324419921184642
 30
0.0
 40
3.0
  1
建材事業部
 41
0.9
  7
ｽﾀｲﾙ1
100
AcDbText
  0
LINE
  5
345A
330
1A
100
AcDbEntity
  8
ZUWAKU
100
AcDbLine
 10
324.4086017242158
 20
7.599999764257624
 30
0.0
 11
348.6245057433843
 21
7.599999764257626
 31
0.0
  0
LINE
  5
345B
330
1A
100
AcDbEntity
  8
ZUWAKU
100
AcDbLine
 10
324.4086017242159
 20
7.699999764257627
 30
0.0
 11
348.6245057433843
 21
7.699999764257626
 31
0.0
  0
LINE
  5
345C
330
1A
100
AcDbEntity
  8
ZUWAKU
100
AcDbLine
 10
324.4086017242158
 20
7.799999764257625
 30
0.0
 11
348.6245057433843
 21
7.799999764257625
 31
0.0
  0
TEXT
  5
345D
330
1A
100
AcDbEntity
  8
ZUWAKU
100
AcDbText
 10
325.1473242353207
 20
12.02767803345039
 30
0.0
 40
2.0
  1
DATE
 41
0.9
  7
ｽﾀｲﾙ1
100
AcDbText
  0
VIEWPORT
  5
22
330
17
100
AcDbEntity
 67
     1
  8
0
100
AcDbViewport
 10
313.6808219178082
 20
148.5
 30
0.0
 40
627.3616438356165
 41
297.0
 68
     2
 69
     1
1001
ACAD
1000
MVIEW
1002
{
1070
    16
1010
0.0
1020
0.0
1030
0.0
1010
0.0
1020
0.0
1030
1.0
1040
0.0
1040
297.0
1040
313.6808219178082
1040
148.5
1040
50.0
1040
0.0
1040
0.0
1070
     0
1070
   100
1070
     1
1070
     0
1070
     0
1070
     0
1070
     0
1070
     0
1040
0.0
1040
0.0
1040
0.0
1040
1.0
1040
1.0
1040
10.0
1040
10.0
1070
     0
1002
{
1002
}
1002
}
  0
VIEWPORT
  5
64
330
17
100
AcDbEntity
 67
     1
  8
VIEWPORT
100
AcDbViewport
 10
210.0
 20
148.5
 30
0.0
 40
420.0
 41
297.0
 68
     1
 69
     2
1001
ACAD
1000
MVIEW
1002
{
1070
    16
1010
0.0
1020
0.0
1030
0.0
1010
0.0
1020
0.0
1030
1.0
1040
0.0
1040
605.8799999999997
1040
420.0
1040
297.0
1040
50.0
1040
0.0
1040
0.0
1070
     0
1070
   100
1070
     1
1070
     0
1070
     0
1070
     0
1070
     0
1070
     0
1040
0.0
1040
0.0
1040
0.0
1040
10.0
1040
10.0
1040
0.0
1040
0.0
1070
     0
1002
{
1002
}
1002
}
  0
ENDSEC
  0
SECTION
  2
OBJECTS
  0
DICTIONARY
  5
C
330
0
100
AcDbDictionary
  3
ACAD_GROUP
350
D
  3
ACAD_LAYOUT
350
8D1
  3
ACAD_MLINESTYLE
350
E
  3
ACAD_PLOTSETTINGS
350
8D2
  3
ACAD_PLOTSTYLENAME
350
8CF
  3
ACDBVARIABLEDICTIONARY
350
2D45
  3
ACDBHEADERROUNDTRIPXREC
350
346D
  0
DICTIONARY
  5
AD2
330
1A
100
AcDbDictionary
280
     1
  3
ACAD_LAYOUTSELFREF
360
348F
  0
DICTIONARY
  5
AD0
330
17
100
AcDbDictionary
280
     1
  3
ACAD_LAYOUTSELFREF
360
348E
  0
DICTIONARY
  5
D
102
{ACAD_REACTORS
330
C
102
}
330
C
100
AcDbDictionary
  3
*A1
350
1AA0
  3
*A2
350
1AB7
  3
*A3
350
1B67
  3
*A4
350
1EA4
  3
*A5
350
1EA5
  0
DICTIONARY
  5
8D1
102
{ACAD_REACTORS
330
C
102
}
330
C
100
AcDbDictionary
  0
DICTIONARY
  5
E
102
{ACAD_REACTORS
330
C
102
}
330
C
100
AcDbDictionary
  3
STANDARD
350
13
  0
DICTIONARY
  5
8D2
102
{ACAD_REACTORS
330
C
102
}
330
C
100
AcDbDictionary
  0
ACDBDICTIONARYWDFLT
  5
8CF
102
{ACAD_REACTORS
330
C
102
}
330
C
100
AcDbDictionary
281
     1
  3
Normal
350
8D0
100
AcDbDictionaryWithDefault
340
8D0
1001
ACAD
1000
TREAT_AS_HARD
1070
     0
1000
TREAT_AS_HARD
1070
     0
1000
TREAT_AS_HARD
1070
     0
1000
TREAT_AS_HARD
1070
     0
1000
TREAT_AS_HARD
1070
     0
1000
TREAT_AS_HARD
1070
     0
1000
TREAT_AS_HARD
1070
     0
1000
TREAT_AS_HARD
1070
     0
1000
TREAT_AS_HARD
1070
     0
1000
TREAT_AS_HARD
1070
     0
1000
TREAT_AS_HARD
1070
     0
1000
TREAT_AS_HARD
1070
     0
1000
TREAT_AS_HARD
1070
     0
1000
TREAT_AS_HARD
1070
     0
1000
TREAT_AS_HARD
1070
     0
1000
TREAT_AS_HARD
1070
     0
  0
DICTIONARY
  5
2D45
102
{ACAD_REACTORS
330
C
102
}
330
C
100
AcDbDictionary
  3
SORTENTS
350
2D46
  0
DICTIONARY
  5
346D
102
{ACAD_REACTORS
330
C
102
}
330
C
100
AcDbDictionary
  3
TSTACKALIGN
350
346E
  3
TSTACKSIZE
350
346F
  3
HYPERLINKBASE
350
3470
  3
STYLESHEET
350
3471
  3
LAYOUTDICT
350
3472
  3
PLOTSETDICT
350
3473
  3
PLOTSTYLNAMDICT
350
3474
  3
LWETCUNION
350
3475
  3
INSUNITS
350
3476
  3
CEPSNTYPE
350
3477
  3
FINGERPRINTGUID
350
3478
  3
VERSIONGUID
350
3479
  3
PSVPSCALE
350
347A
  3
DIMSTYLEDATA
350
347B
  3
PUCSORTHOREF
350
347C
  3
PUCSORTHOVIEW
350
347D
  3
PUCSBASE
350
347E
  3
PUCSORGTOP
350
347F
  3
PUCSORGBOTTOM
350
3480
  3
PUCSORGLEFT
350
3481
  3
PUCSORGRIGHT
350
3482
  3
PUCSORGFRONT
350
3483
  3
PUCSORGBACK
350
3484
  3
UCSORTHOREF
350
3485
  3
UCSORTHOVIEW
350
3486
  3
UCSBASE
350
3487
  3
UCSORGTOP
350
3488
  3
UCSORGBOTTOM
350
3489
  3
UCSORGLEFT
350
348A
  3
UCSORGRIGHT
350
348B
  3
UCSORGFRONT
350
348C
  3
UCSORGBACK
350
348D
  0
XRECORD
  5
348F
102
{ACAD_REACTORS
330
AD2
102
}
330
AD2
100
AcDbXrecord
340
1A
  0
XRECORD
  5
348E
102
{ACAD_REACTORS
330
AD0
102
}
330
AD0
100
AcDbXrecord
340
17
  0
GROUP
  5
1AA0
102
{ACAD_REACTORS
330
D
102
}
330
D
100
AcDbGroup
300

 70
     1
 71
     1
  0
GROUP
  5
1AB7
102
{ACAD_REACTORS
330
D
102
}
330
D
100
AcDbGroup
300

 70
     1
 71
     1
  0
GROUP
  5
1B67
102
{ACAD_REACTORS
330
D
102
}
330
D
100
AcDbGroup
300

 70
     1
 71
     1
  0
GROUP
  5
1EA4
102
{ACAD_REACTORS
330
D
102
}
330
D
100
AcDbGroup
300

 70
     1
 71
     1
  0
GROUP
  5
1EA5
102
{ACAD_REACTORS
330
D
102
}
330
D
100
AcDbGroup
300

 70
     1
 71
     1
  0
MLINESTYLE
  5
13
102
{ACAD_REACTORS
330
E
102
}
330
E
100
AcDbMlineStyle
  2
STANDARD
 70
     0
  3

 62
     0
 51
90.0
 52
90.0
 71
     2
 49
0.5
 62
   256
  6
BYLAYER
 49
-0.5
 62
   256
  6
BYLAYER
  0
ACDBPLACEHOLDER
  5
8D0
102
{ACAD_REACTORS
330
8CF
102
}
330
8CF
100
AcDbPlaceHolder
280
     0
  0
DICTIONARYVAR
  5
2D46
102
{ACAD_REACTORS
330
2D45
102
}
330
2D45
100
DictionaryVariables
280
     0
  1
96
  0
XRECORD
  5
346E
102
{ACAD_REACTORS
330
346D
102
}
330
346D
100
AcDbXrecord
 90
        1
  0
XRECORD
  5
346F
102
{ACAD_REACTORS
330
346D
102
}
330
346D
100
AcDbXrecord
 90
       70
  0
XRECORD
  5
3470
102
{ACAD_REACTORS
330
346D
102
}
330
346D
100
AcDbXrecord
  1

  0
XRECORD
  5
3471
102
{ACAD_REACTORS
330
346D
102
}
330
346D
100
AcDbXrecord
  1
systemprinter.ctb
  0
XRECORD
  5
3472
102
{ACAD_REACTORS
330
346D
102
}
330
346D
100
AcDbXrecord
340
8D1
  0
XRECORD
  5
3473
102
{ACAD_REACTORS
330
346D
102
}
330
346D
100
AcDbXrecord
340
8D2
  0
XRECORD
  5
3474
102
{ACAD_REACTORS
330
346D
102
}
330
346D
100
AcDbXrecord
340
8CF
  0
XRECORD
  5
3475
102
{ACAD_REACTORS
330
346D
102
}
330
346D
100
AcDbXrecord
 90
    10781
  0
XRECORD
  5
3476
102
{ACAD_REACTORS
330
346D
102
}
330
346D
100
AcDbXrecord
 90
        0
  0
XRECORD
  5
3477
102
{ACAD_REACTORS
330
346D
102
}
330
346D
100
AcDbXrecord
 90
        0
  0
XRECORD
  5
3478
102
{ACAD_REACTORS
330
346D
102
}
330
346D
100
AcDbXrecord
  1
{E7660B84-245B-4EEF-A5D2-EED1934F6951}
  0
XRECORD
  5
3479
102
{ACAD_REACTORS
330
346D
102
}
330
346D
100
AcDbXrecord
  1
{466862D7-FFC7-4FA7-9970-FB6649FB04E5}
  0
XRECORD
  5
347A
102
{ACAD_REACTORS
330
346D
102
}
330
346D
100
AcDbXrecord
 40
0.0
  0
XRECORD
  5
347B
102
{ACAD_REACTORS
330
346D
102
}
330
346D
100
AcDbXrecord
1000
DSTYLE
1002
{
1070
   341
340
6D
1070
   343
340
6D
1070
   344
340
6D
1070
   371
 70
    -1
1070
   372
 70
    -1
1002
}
  0
XRECORD
  5
347C
102
{ACAD_REACTORS
330
346D
102
}
330
346D
100
AcDbXrecord
340
0
  0
XRECORD
  5
347D
102
{ACAD_REACTORS
330
346D
102
}
330
346D
100
AcDbXrecord
 70
     0
  0
XRECORD
  5
347E
102
{ACAD_REACTORS
330
346D
102
}
330
346D
100
AcDbXrecord
340
0
  0
XRECORD
  5
347F
102
{ACAD_REACTORS
330
346D
102
}
330
346D
100
AcDbXrecord
 10
0.0
 20
0.0
 30
0.0
  0
XRECORD
  5
3480
102
{ACAD_REACTORS
330
346D
102
}
330
346D
100
AcDbXrecord
 10
0.0
 20
0.0
 30
0.0
  0
XRECORD
  5
3481
102
{ACAD_REACTORS
330
346D
102
}
330
346D
100
AcDbXrecord
 10
0.0
 20
0.0
 30
0.0
  0
XRECORD
  5
3482
102
{ACAD_REACTORS
330
346D
102
}
330
346D
100
AcDbXrecord
 10
0.0
 20
0.0
 30
0.0
  0
XRECORD
  5
3483
102
{ACAD_REACTORS
330
346D
102
}
330
346D
100
AcDbXrecord
 10
0.0
 20
0.0
 30
0.0
  0
XRECORD
  5
3484
102
{ACAD_REACTORS
330
346D
102
}
330
346D
100
AcDbXrecord
 10
0.0
 20
0.0
 30
0.0
  0
XRECORD
  5
3485
102
{ACAD_REACTORS
330
346D
102
}
330
346D
100
AcDbXrecord
340
0
  0
XRECORD
  5
3486
102
{ACAD_REACTORS
330
346D
102
}
330
346D
100
AcDbXrecord
 70
     0
  0
XRECORD
  5
3487
102
{ACAD_REACTORS
330
346D
102
}
330
346D
100
AcDbXrecord
340
0
  0
XRECORD
  5
3488
102
{ACAD_REACTORS
330
346D
102
}
330
346D
100
AcDbXrecord
 10
0.0
 20
0.0
 30
0.0
  0
XRECORD
  5
3489
102
{ACAD_REACTORS
330
346D
102
}
330
346D
100
AcDbXrecord
 10
0.0
 20
0.0
 30
0.0
  0
XRECORD
  5
348A
102
{ACAD_REACTORS
330
346D
102
}
330
346D
100
AcDbXrecord
 10
0.0
 20
0.0
 30
0.0
  0
XRECORD
  5
348B
102
{ACAD_REACTORS
330
346D
102
}
330
346D
100
AcDbXrecord
 10
0.0
 20
0.0
 30
0.0
  0
XRECORD
  5
348C
102
{ACAD_REACTORS
330
346D
102
}
330
346D
100
AcDbXrecord
 10
0.0
 20
0.0
 30
0.0
  0
XRECORD
  5
348D
102
{ACAD_REACTORS
330
346D
102
}
330
346D
100
AcDbXrecord
 10
0.0
 20
0.0
 30
0.0
  0
ENDSEC
  0
EOF
