  0
SECTION
  2
HEADER
  9
$ACADVER
  1
AC1014
  9
$ACADMAINTVER
 70
     9
  9
$DWGCODEPAGE
  3
ANSI_932
  9
$INSBASE
 10
0.0
 20
0.0
 30
0.0
  9
$EXTMIN
 10
0.0
 20
0.0
 30
0.0
  9
$EXTMAX
 10
398.8
 20
275.8
 30
0.0
  9
$LIMMIN
 10
0.0
 20
0.0
  9
$LIMMAX
 10
420.0
 20
297.0
  9
$ORTHOMODE
 70
     1
  9
$REGENMODE
 70
     1
  9
$FILLMODE
 70
     1
  9
$QTEXTMODE
 70
     0
  9
$MIRRTEXT
 70
     1
  9
$DRAGMODE
 70
     2
  9
$LTSCALE
 40
0.3
  9
$OSMODE
 70
    35
  9
$ATTMODE
 70
     1
  9
$TEXTSIZE
 40
2.5
  9
$TRACEWID
 40
1.0
  9
$TEXTSTYLE
  7
ｽﾀｲﾙ1
  9
$CLAYER
  8
SEIHIN
  9
$CELTYPE
  6
BYLAYER
  9
$CECOLOR
 62
   256
  9
$CELTSCALE
 40
1.0
  9
$DELOBJ
 70
     1
  9
$DISPSILH
 70
     0
  9
$DIMSCALE
 40
1.0
  9
$DIMASZ
 40
3.0
  9
$DIMEXO
 40
4.0
  9
$DIMDLI
 40
3.75
  9
$DIMRND
 40
0.0
  9
$DIMDLE
 40
0.0
  9
$DIMEXE
 40
1.25
  9
$DIMTP
 40
0.0
  9
$DIMTM
 40
0.0
  9
$DIMTXT
 40
3.0
  9
$DIMCEN
 40
2.5
  9
$DIMTSZ
 40
0.0
  9
$DIMTOL
 70
     0
  9
$DIMLIM
 70
     0
  9
$DIMTIH
 70
     0
  9
$DIMTOH
 70
     0
  9
$DIMSE1
 70
     0
  9
$DIMSE2
 70
     0
  9
$DIMTAD
 70
     1
  9
$DIMZIN
 70
     8
  9
$DIMBLK
  1
OPEN30
  9
$DIMASO
 70
     1
  9
$DIMSHO
 70
     1
  9
$DIMPOST
  1

  9
$DIMAPOST
  1

  9
$DIMALT
 70
     0
  9
$DIMALTD
 70
     3
  9
$DIMALTF
 40
0.03937007874016
  9
$DIMLFAC
 40
1.0
  9
$DIMTOFL
 70
     1
  9
$DIMTVP
 40
0.0
  9
$DIMTIX
 70
     0
  9
$DIMSOXD
 70
     0
  9
$DIMSAH
 70
     0
  9
$DIMBLK1
  1

  9
$DIMBLK2
  1

  9
$DIMSTYLE
  2
ISO-25
  9
$DIMCLRD
 70
   256
  9
$DIMCLRE
 70
   256
  9
$DIMCLRT
 70
   256
  9
$DIMTFAC
 40
1.0
  9
$DIMGAP
 40
2.0
  9
$DIMJUST
 70
     0
  9
$DIMSD1
 70
     0
  9
$DIMSD2
 70
     0
  9
$DIMTOLJ
 70
     0
  9
$DIMTZIN
 70
     8
  9
$DIMALTZ
 70
     0
  9
$DIMALTTZ
 70
     0
  9
$DIMFIT
 70
     3
  9
$DIMUPT
 70
     0
  9
$DIMUNIT
 70
     2
  9
$DIMDEC
 70
     0
  9
$DIMTDEC
 70
     0
  9
$DIMALTU
 70
     2
  9
$DIMALTTD
 70
     3
  9
$DIMTXSTY
  7
STANDARD
  9
$DIMAUNIT
 70
     0
  9
$LUNITS
 70
     2
  9
$LUPREC
 70
     4
  9
$SKETCHINC
 40
1.0
  9
$FILLETRAD
 40
10.0
  9
$AUNITS
 70
     0
  9
$AUPREC
 70
     0
  9
$MENU
  1
.
  9
$ELEVATION
 40
0.0
  9
$PELEVATION
 40
0.0
  9
$THICKNESS
 40
0.0
  9
$LIMCHECK
 70
     0
  9
$BLIPMODE
 70
     0
  9
$CHAMFERA
 40
0.0
  9
$CHAMFERB
 40
0.0
  9
$CHAMFERC
 40
20.0
  9
$CHAMFERD
 40
0.0
  9
$SKPOLY
 70
     0
  9
$TDCREATE
 40
2453082.434230323
  9
$TDUPDATE
 40
2454216.600735312
  9
$TDINDWG
 40
0.1374522106
  9
$TDUSRTIMER
 40
0.1374520370
  9
$USRTIMER
 70
     1
  9
$ANGBASE
 50
0.0
  9
$ANGDIR
 70
     0
  9
$PDMODE
 70
     0
  9
$PDSIZE
 40
0.0
  9
$PLINEWID
 40
0.0
  9
$COORDS
 70
     0
  9
$SPLFRAME
 70
     0
  9
$SPLINETYPE
 70
     6
  9
$SPLINESEGS
 70
     8
  9
$ATTDIA
 70
     0
  9
$ATTREQ
 70
     1
  9
$HANDLING
 70
 10241
  9
$HANDSEED
  5
13A5
  9
$SURFTAB1
 70
     6
  9
$SURFTAB2
 70
     6
  9
$SURFTYPE
 70
     6
  9
$SURFU
 70
     6
  9
$SURFV
 70
     6
  9
$UCSNAME
  2

  9
$UCSORG
 10
0.0
 20
0.0
 30
0.0
  9
$UCSXDIR
 10
1.0
 20
0.0
 30
0.0
  9
$UCSYDIR
 10
0.0
 20
1.0
 30
0.0
  9
$PUCSNAME
  2

  9
$PUCSORG
 10
0.0
 20
0.0
 30
0.0
  9
$PUCSXDIR
 10
1.0
 20
0.0
 30
0.0
  9
$PUCSYDIR
 10
0.0
 20
1.0
 30
0.0
  9
$USERI1
 70
     0
  9
$USERI2
 70
     0
  9
$USERI3
 70
     0
  9
$USERI4
 70
     0
  9
$USERI5
 70
     0
  9
$USERR1
 40
0.0
  9
$USERR2
 40
0.0
  9
$USERR3
 40
0.0
  9
$USERR4
 40
0.0
  9
$USERR5
 40
0.0
  9
$WORLDVIEW
 70
     1
  9
$SHADEDGE
 70
     3
  9
$SHADEDIF
 70
    70
  9
$TILEMODE
 70
     1
  9
$MAXACTVP
 70
    48
  9
$PINSBASE
 10
0.0
 20
0.0
 30
0.0
  9
$PLIMCHECK
 70
     0
  9
$PEXTMIN
 10
1.000000000000000E+20
 20
1.000000000000000E+20
 30
1.000000000000000E+20
  9
$PEXTMAX
 10
-1.000000000000000E+20
 20
-1.000000000000000E+20
 30
-1.000000000000000E+20
  9
$PLIMMIN
 10
0.0
 20
0.0
  9
$PLIMMAX
 10
420.0
 20
297.0
  9
$UNITMODE
 70
     0
  9
$VISRETAIN
 70
     1
  9
$PLINEGEN
 70
     0
  9
$PSLTSCALE
 70
     1
  9
$TREEDEPTH
 70
  3020
  9
$PICKSTYLE
 70
     1
  9
$CMLSTYLE
  2
STANDARD
  9
$CMLJUST
 70
     0
  9
$CMLSCALE
 40
20.0
  9
$PROXYGRAPHICS
 70
     1
  9
$MEASUREMENT
 70
     1
  0
ENDSEC
  0
SECTION
  2
CLASSES
  0
CLASS
  1
ACDBDICTIONARYWDFLT
  2
AcDbDictionaryWithDefault
  3
AutoCAD 2000
 90
        0
280
     0
281
     0
  0
CLASS
  1
ACDBPLACEHOLDER
  2
AcDbPlaceHolder
  3
AutoCAD 2000
 90
        0
280
     0
281
     0
  0
CLASS
  1
LAYOUT
  2
AcDbLayout
  3
AutoCAD 2000
 90
        0
280
     0
281
     0
  0
CLASS
  1
LONG_TRANSACTION
  2
AcDbLongTransaction
  3
AutoCAD 2000
 90
        0
280
     0
281
     0
  0
CLASS
  1
LWPOLYLINE
  2
AcDbPolyline
  3
AutoCAD 2000
 90
        0
280
     0
281
     1
  0
CLASS
  1
HATCH
  2
AcDbHatch
  3
AutoCAD 2000
 90
        0
280
     0
281
     1
  0
CLASS
  1
XRECORD
  2
AcDbXrecord
  3
AutoCAD 2000
 90
        0
280
     0
281
     0
  0
CLASS
  1
LONG_TRANSACTION
  2
AcDbLongTransaction
  3
AutoCAD 2000
 90
        0
280
     0
281
     0
  0
CLASS
  1
LWPOLYLINE
  2
AcDbPolyline
  3
AutoCAD 2000
 90
        0
280
     0
281
     1
  0
CLASS
  1
HATCH
  2
AcDbHatch
  3
AutoCAD 2000
 90
        0
280
     0
281
     1
  0
CLASS
  1
XRECORD
  2
AcDbXrecord
  3
AutoCAD 2000
 90
        0
280
     0
281
     0
  0
CLASS
  1
LONG_TRANSACTION
  2
AcDbLongTransaction
  3
AutoCAD 2000
 90
        0
280
     0
281
     0
  0
CLASS
  1
LWPOLYLINE
  2
AcDbPolyline
  3
AutoCAD 2000
 90
        0
280
     0
281
     1
  0
CLASS
  1
HATCH
  2
AcDbHatch
  3
AutoCAD 2000
 90
        0
280
     0
281
     1
  0
CLASS
  1
XRECORD
  2
AcDbXrecord
  3
AutoCAD 2000
 90
        0
280
     0
281
     0
  0
CLASS
  1
LONG_TRANSACTION
  2
AcDbLongTransaction
  3
AutoCAD 2000
 90
        0
280
     0
281
     0
  0
CLASS
  1
LWPOLYLINE
  2
AcDbPolyline
  3
AutoCAD 2000
 90
        0
280
     0
281
     1
  0
CLASS
  1
HATCH
  2
AcDbHatch
  3
AutoCAD 2000
 90
        0
280
     0
281
     1
  0
CLASS
  1
XRECORD
  2
AcDbXrecord
  3
AutoCAD 2000
 90
        0
280
     0
281
     0
  0
CLASS
  1
LONG_TRANSACTION
  2
AcDbLongTransaction
  3
AutoCAD 2000
 90
        0
280
     0
281
     0
  0
CLASS
  1
LWPOLYLINE
  2
AcDbPolyline
  3
AutoCAD 2000
 90
        0
280
     0
281
     1
  0
CLASS
  1
HATCH
  2
AcDbHatch
  3
AutoCAD 2000
 90
        0
280
     0
281
     1
  0
CLASS
  1
XRECORD
  2
AcDbXrecord
  3
AutoCAD 2000
 90
        0
280
     0
281
     0
  0
CLASS
  1
LONG_TRANSACTION
  2
AcDbLongTransaction
  3
AutoCAD 2000
 90
        0
280
     0
281
     0
  0
CLASS
  1
LWPOLYLINE
  2
AcDbPolyline
  3
AutoCAD 2000
 90
        0
280
     0
281
     1
  0
CLASS
  1
HATCH
  2
AcDbHatch
  3
AutoCAD 2000
 90
        0
280
     0
281
     1
  0
CLASS
  1
XRECORD
  2
AcDbXrecord
  3
AutoCAD 2000
 90
        0
280
     0
281
     0
  0
CLASS
  1
LONG_TRANSACTION
  2
AcDbLongTransaction
  3
AutoCAD 2000
 90
        0
280
     0
281
     0
  0
CLASS
  1
LWPOLYLINE
  2
AcDbPolyline
  3
AutoCAD 2000
 90
        0
280
     0
281
     1
  0
CLASS
  1
HATCH
  2
AcDbHatch
  3
AutoCAD 2000
 90
        0
280
     0
281
     1
  0
CLASS
  1
XRECORD
  2
AcDbXrecord
  3
AutoCAD 2000
 90
        0
280
     0
281
     0
  0
CLASS
  1
LONG_TRANSACTION
  2
AcDbLongTransaction
  3
AutoCAD 2000
 90
        0
280
     0
281
     0
  0
CLASS
  1
LWPOLYLINE
  2
AcDbPolyline
  3
AutoCAD 2000
 90
        0
280
     0
281
     1
  0
CLASS
  1
HATCH
  2
AcDbHatch
  3
AutoCAD 2000
 90
        0
280
     0
281
     1
  0
CLASS
  1
XRECORD
  2
AcDbXrecord
  3
AutoCAD 2000
 90
        0
280
     0
281
     0
  0
ENDSEC
  0
SECTION
  2
TABLES
  0
TABLE
  2
VPORT
  5
8
330
0
100
AcDbSymbolTable
 70
     2
  0
VPORT
  5
1381
330
8
100
AcDbSymbolTableRecord
100
AcDbViewportTableRecord
  2
*ACTIVE
 70
     0
 10
0.0
 20
0.0
 11
1.0
 21
1.0
 12
202.7423070500845
 22
166.0514613405547
 13
0.0
 23
0.0
 14
10.0
 24
10.0
 15
10.0
 25
10.0
 16
0.0
 26
0.0
 36
1.0
 17
0.0
 27
0.0
 37
0.0
 40
389.0006005946488
 41
1.566326530612244
 42
50.0
 43
0.0
 44
0.0
 50
0.0
 51
0.0
 71
     0
 72
   100
 73
     1
 74
     3
 75
     0
 76
     0
 77
     0
 78
     0
  0
ENDTAB
  0
TABLE
  2
LTYPE
  5
5
330
0
100
AcDbSymbolTable
 70
     1
  0
LTYPE
  5
14
330
5
100
AcDbSymbolTableRecord
100
AcDbLinetypeTableRecord
  2
BYBLOCK
 70
     0
  3

 72
    65
 73
     0
 40
0.0
  0
LTYPE
  5
15
330
5
100
AcDbSymbolTableRecord
100
AcDbLinetypeTableRecord
  2
BYLAYER
 70
     0
  3

 72
    65
 73
     0
 40
0.0
  0
LTYPE
  5
16
330
5
100
AcDbSymbolTableRecord
100
AcDbLinetypeTableRecord
  2
CONTINUOUS
 70
     0
  3
Solid line
 72
    65
 73
     0
 40
0.0
  0
ENDTAB
  0
TABLE
  2
LAYER
  5
2
330
0
100
AcDbSymbolTable
 70
     8
  0
LAYER
  5
10
330
2
100
AcDbSymbolTableRecord
100
AcDbLayerTableRecord
  2
0
 70
     0
 62
     7
  6
CONTINUOUS
  0
LAYER
  5
75
330
2
100
AcDbSymbolTableRecord
100
AcDbLayerTableRecord
  2
SEIHIN
 70
     0
 62
     3
  6
CONTINUOUS
  0
LAYER
  5
185
330
2
100
AcDbSymbolTableRecord
100
AcDbLayerTableRecord
  2
DEFPOINTS
 70
     0
 62
     7
  6
CONTINUOUS
  0
LAYER
  5
3DE
330
2
100
AcDbSymbolTableRecord
100
AcDbLayerTableRecord
  2
SUNPOU
 70
     0
 62
     4
  6
CONTINUOUS
  0
LAYER
  5
57F
330
2
100
AcDbSymbolTableRecord
100
AcDbLayerTableRecord
  2
ZUWAKU
 70
     0
 62
     7
  6
CONTINUOUS
  0
LAYER
  5
BA4
330
2
100
AcDbSymbolTableRecord
100
AcDbLayerTableRecord
  2
MOJI
 70
     0
 62
     2
  6
CONTINUOUS
  0
LAYER
  5
10E5
330
2
100
AcDbSymbolTableRecord
100
AcDbLayerTableRecord
  2
製品
 70
     0
 62
     3
  6
CONTINUOUS
  0
LAYER
  5
10E7
330
2
100
AcDbSymbolTableRecord
100
AcDbLayerTableRecord
  2
0_1
 70
     0
 62
     7
  6
CONTINUOUS
  0
ENDTAB
  0
TABLE
  2
STYLE
  5
3
330
0
100
AcDbSymbolTable
 70
     2
  0
STYLE
  5
11
330
3
100
AcDbSymbolTableRecord
100
AcDbTextStyleTableRecord
  2
STANDARD
 70
     0
 40
0.0
 41
1.0
 50
0.0
 71
     0
 42
2.5
  3
txt.shx
  4
bigfont.shx
  0
STYLE
  5
636
330
3
100
AcDbSymbolTableRecord
100
AcDbTextStyleTableRecord
  2
ｽﾀｲﾙ1
 70
     0
 40
0.0
 41
1.0
 50
0.0
 71
     0
 42
2.5
  3
MS PGothic.ttf
  4

1001
ACAD
1000
MS PGothic
1071
    32818
  0
ENDTAB
  0
TABLE
  2
VIEW
  5
6
330
0
100
AcDbSymbolTable
 70
     0
  0
ENDTAB
  0
TABLE
  2
UCS
  5
7
330
0
100
AcDbSymbolTable
 70
     0
  0
ENDTAB
  0
TABLE
  2
APPID
  5
9
330
0
100
AcDbSymbolTable
 70
     1
  0
APPID
  5
12
330
9
100
AcDbSymbolTableRecord
100
AcDbRegAppTableRecord
  2
ACAD
 70
     0
  0
ENDTAB
  0
TABLE
  2
DIMSTYLE
  5
A
330
0
100
AcDbSymbolTable
 70
     2
  0
DIMSTYLE
105
27
102
{ACAD_REACTORS
330
11DC
330
11EA
330
11DF
330
11DB
102
}
330
A
100
AcDbSymbolTableRecord
100
AcDbDimStyleTableRecord
  2
ISO-25
 70
     0
  3

  4

  5
OPEN30
  6

  7

 40
1.0
 41
3.0
 42
4.0
 43
3.75
 44
1.25
 45
0.0
 46
0.0
 47
0.0
 48
0.0
140
3.0
141
2.5
142
0.0
143
0.03937007874016
144
1.0
145
0.0
146
1.0
147
2.0
 71
     0
 72
     0
 73
     0
 74
     0
 75
     0
 76
     0
 77
     1
 78
     8
170
     0
171
     3
172
     1
173
     0
174
     0
175
     0
176
   256
177
   256
178
   256
270
     2
271
     0
272
     0
273
     2
274
     3
340
11
275
     0
280
     0
281
     0
282
     0
283
     0
284
     8
285
     0
286
     0
287
     3
288
     0
  0
DIMSTYLE
105
2C
330
A
100
AcDbSymbolTableRecord
100
AcDbDimStyleTableRecord
  2
STANDARD
 70
     0
  3

  4

  5

  6

  7

 40
1.0
 41
0.18
 42
0.0625
 43
0.38
 44
0.18
 45
0.0
 46
0.0
 47
0.0
 48
0.0
140
0.18
141
0.09
142
0.0
143
25.4
144
1.0
145
0.0
146
1.0
147
0.09
 71
     0
 72
     0
 73
     1
 74
     1
 75
     0
 76
     0
 77
     0
 78
     0
170
     0
171
     2
172
     0
173
     0
174
     0
175
     0
176
     0
177
     0
178
     0
270
     2
271
     4
272
     4
273
     2
274
     2
340
11
275
     0
280
     0
281
     0
282
     0
283
     1
284
     0
285
     0
286
     0
287
     3
288
     0
  0
ENDTAB
  0
TABLE
  2
BLOCK_RECORD
  5
1
330
0
100
AcDbSymbolTable
 70
     5
  0
BLOCK_RECORD
  5
1F
102
{ACAD_XDICTIONARY
360
978
102
}
330
1
100
AcDbSymbolTableRecord
100
AcDbBlockTableRecord
  2
*MODEL_SPACE
  0
BLOCK_RECORD
  5
1B
102
{ACAD_XDICTIONARY
360
97A
102
}
330
1
100
AcDbSymbolTableRecord
100
AcDbBlockTableRecord
  2
*PAPER_SPACE
  0
BLOCK_RECORD
  5
422
330
1
100
AcDbSymbolTableRecord
100
AcDbBlockTableRecord
  2
_OPEN30
  0
BLOCK_RECORD
  5
12C4
330
1
100
AcDbSymbolTableRecord
100
AcDbBlockTableRecord
  2
*D1
  0
BLOCK_RECORD
  5
12D0
330
1
100
AcDbSymbolTableRecord
100
AcDbBlockTableRecord
  2
*D2
  0
BLOCK_RECORD
  5
12DC
330
1
100
AcDbSymbolTableRecord
100
AcDbBlockTableRecord
  2
*D3
  0
BLOCK_RECORD
  5
12E8
330
1
100
AcDbSymbolTableRecord
100
AcDbBlockTableRecord
  2
*D4
  0
ENDTAB
  0
ENDSEC
  0
SECTION
  2
BLOCKS
  0
BLOCK
  5
20
330
1F
100
AcDbEntity
  8
0
100
AcDbBlockBegin
  2
*MODEL_SPACE
 70
     0
 10
0.0
 20
0.0
 30
0.0
  3
*MODEL_SPACE
  1

  0
ENDBLK
  5
21
330
1F
100
AcDbEntity
  8
0
100
AcDbBlockEnd
  0
BLOCK
  5
1C
330
1B
100
AcDbEntity
 67
     1
  8
0
100
AcDbBlockBegin
  2
*PAPER_SPACE
 70
     0
 10
0.0
 20
0.0
 30
0.0
  3
*PAPER_SPACE
  1

  0
ENDBLK
  5
1D
330
1B
100
AcDbEntity
 67
     1
  8
0
100
AcDbBlockEnd
  0
BLOCK
  5
426
330
422
100
AcDbEntity
  8
0
100
AcDbBlockBegin
  2
_OPEN30
 70
     0
 10
0.0
 20
0.0
 30
0.0
  3
_OPEN30
  1

  0
LINE
  5
423
330
422
100
AcDbEntity
  8
SUNPOU
 62
     0
100
AcDbLine
 10
-1.0
 20
0.26794919
 30
0.0
 11
0.0
 21
0.0
 31
0.0
  0
LINE
  5
424
330
422
100
AcDbEntity
  8
SUNPOU
 62
     0
100
AcDbLine
 10
0.0
 20
0.0
 30
0.0
 11
-1.0
 21
-0.26794919
 31
0.0
  0
LINE
  5
425
330
422
100
AcDbEntity
  8
SUNPOU
 62
     0
100
AcDbLine
 10
0.0
 20
0.0
 30
0.0
 11
-1.0
 21
0.0
 31
0.0
  0
ENDBLK
  5
427
330
422
100
AcDbEntity
  8
0
100
AcDbBlockEnd
  0
BLOCK
  5
12CE
330
12C4
100
AcDbEntity
  8
0
100
AcDbBlockBegin
  2
*D1
 70
     1
 10
0.0
 20
0.0
 30
0.0
  3
*D1
  1

  0
LINE
  5
1357
330
12C4
100
AcDbEntity
  8
SUNPOU
100
AcDbLine
 10
130.2959182719939
 20
37.07158831929084
 30
0.0
 11
130.2959182719939
 21
26.01987732043119
 31
0.0
  0
LINE
  5
1358
330
12C4
100
AcDbEntity
  8
SUNPOU
100
AcDbLine
 10
281.305750193994
 20
37.07158831929081
 30
0.0
 11
281.305750193994
 21
26.01987732043119
 31
0.0
  0
LINE
  5
1359
330
12C4
100
AcDbEntity
  8
SUNPOU
100
AcDbLine
 10
133.2959182719939
 20
27.26987732043119
 30
0.0
 11
278.305750193994
 21
27.26987732043119
 31
0.0
  0
INSERT
  5
135A
330
12C4
100
AcDbEntity
  8
SUNPOU
100
AcDbBlockReference
  2
_OPEN30
 10
130.2959182719939
 20
27.26987732043119
 30
0.0
 41
3.0
 42
3.0
 43
3.0
 50
180.0
  0
INSERT
  5
135B
330
12C4
100
AcDbEntity
  8
SUNPOU
100
AcDbBlockReference
  2
_OPEN30
 10
281.305750193994
 20
27.26987732043119
 30
0.0
 41
3.0
 42
3.0
 43
3.0
  0
MTEXT
  5
135C
330
12C4
100
AcDbEntity
  8
SUNPOU
100
AcDbMText
 10
205.800834232994
 20
30.76987732043119
 30
0.0
 40
3.0
 41
0.0
 71
     5
 72
     1
  1
151
1001
ACAD
1000
MTEXTBEGIN
1070
    73
1070
     1
1070
    44
1040
1.0
1070
    74
1070
     0
1000
MTEXTEND
  0
POINT
  5
135D
330
12C4
100
AcDbEntity
  8
DEFPOINTS
 62
     0
100
AcDbPoint
 10
130.2959182719939
 20
41.07158831929083
 30
0.0
  0
POINT
  5
135E
330
12C4
100
AcDbEntity
  8
DEFPOINTS
 62
     0
100
AcDbPoint
 10
281.305750193994
 20
41.07158831929081
 30
0.0
  0
POINT
  5
135F
330
12C4
100
AcDbEntity
  8
DEFPOINTS
 62
     0
100
AcDbPoint
 10
281.305750193994
 20
27.26987732043119
 30
0.0
  0
ENDBLK
  5
12CF
330
12C4
100
AcDbEntity
  8
0
100
AcDbBlockEnd
  0
BLOCK
  5
12DA
330
12D0
100
AcDbEntity
  8
0
100
AcDbBlockBegin
  2
*D2
 70
     1
 10
0.0
 20
0.0
 30
0.0
  3
*D2
  1

  0
LINE
  5
1360
330
12D0
100
AcDbEntity
  8
SUNPOU
100
AcDbLine
 10
218.8584182719939
 20
61.07158831929081
 30
0.0
 11
218.8584182719939
 21
122.1278301626401
 31
0.0
  0
LINE
  5
1361
330
12D0
100
AcDbEntity
  8
SUNPOU
100
AcDbLine
 10
130.2959182719939
 20
45.07158831929084
 30
0.0
 11
130.2959182719939
 21
122.1278301626401
 31
0.0
  0
LINE
  5
1362
330
12D0
100
AcDbEntity
  8
SUNPOU
100
AcDbLine
 10
215.8584182719939
 20
120.8778301626401
 30
0.0
 11
133.2959182719939
 21
120.8778301626401
 31
0.0
  0
INSERT
  5
1363
330
12D0
100
AcDbEntity
  8
SUNPOU
100
AcDbBlockReference
  2
_OPEN30
 10
218.8584182719939
 20
120.8778301626401
 30
0.0
 41
3.0
 42
3.0
 43
3.0
  0
INSERT
  5
1364
330
12D0
100
AcDbEntity
  8
SUNPOU
100
AcDbBlockReference
  2
_OPEN30
 10
130.2959182719939
 20
120.8778301626401
 30
0.0
 41
3.0
 42
3.0
 43
3.0
 50
180.0
  0
MTEXT
  5
1365
330
12D0
100
AcDbEntity
  8
SUNPOU
100
AcDbMText
 10
174.5771682719939
 20
124.3778301626401
 30
0.0
 40
3.0
 41
0.0
 71
     5
 72
     1
  1
89
1001
ACAD
1000
MTEXTBEGIN
1070
    73
1070
     1
1070
    44
1040
1.0
1070
    74
1070
     0
1000
MTEXTEND
  0
POINT
  5
1366
330
12D0
100
AcDbEntity
  8
DEFPOINTS
 62
     0
100
AcDbPoint
 10
218.8584182719939
 20
57.07158831929081
 30
0.0
  0
POINT
  5
1367
330
12D0
100
AcDbEntity
  8
DEFPOINTS
 62
     0
100
AcDbPoint
 10
130.2959182719939
 20
41.07158831929083
 30
0.0
  0
POINT
  5
1368
330
12D0
100
AcDbEntity
  8
DEFPOINTS
 62
     0
100
AcDbPoint
 10
130.2959182719939
 20
120.8778301626401
 30
0.0
  0
ENDBLK
  5
12DB
330
12D0
100
AcDbEntity
  8
0
100
AcDbBlockEnd
  0
BLOCK
  5
12E6
330
12DC
100
AcDbEntity
  8
0
100
AcDbBlockBegin
  2
*D3
 70
     1
 10
0.0
 20
0.0
 30
0.0
  3
*D3
  1

  0
LINE
  5
1372
330
12DC
100
AcDbEntity
  8
SUNPOU
100
AcDbLine
 10
149.9718728389939
 20
105.0715883192908
 30
0.0
 11
107.0308696799672
 21
105.0715883192908
 31
0.0
  0
LINE
  5
1373
330
12DC
100
AcDbEntity
  8
SUNPOU
100
AcDbLine
 10
126.2959182719939
 20
41.07158831929083
 30
0.0
 11
107.0308696799672
 21
41.07158831929084
 31
0.0
  0
LINE
  5
1374
330
12DC
100
AcDbEntity
  8
SUNPOU
100
AcDbLine
 10
108.2808696799673
 20
102.0715883192908
 30
0.0
 11
108.2808696799672
 21
44.07158831929084
 31
0.0
  0
INSERT
  5
1375
330
12DC
100
AcDbEntity
  8
SUNPOU
100
AcDbBlockReference
  2
_OPEN30
 10
108.2808696799673
 20
105.0715883192908
 30
0.0
 41
3.0
 42
3.0
 43
3.0
 50
90.0
  0
INSERT
  5
1376
330
12DC
100
AcDbEntity
  8
SUNPOU
100
AcDbBlockReference
  2
_OPEN30
 10
108.2808696799672
 20
41.07158831929084
 30
0.0
 41
3.0
 42
3.0
 43
3.0
 50
270.0
  0
MTEXT
  5
1377
330
12DC
100
AcDbEntity
  8
SUNPOU
100
AcDbMText
 10
104.7808696799672
 20
73.07158831929085
 30
0.0
 40
3.0
 41
0.0
 71
     5
 72
     1
  1
64
 11
0.0000000000000001
 21
1.0
 31
0.0
1001
ACAD
1000
MTEXTBEGIN
1070
    73
1070
     1
1070
    44
1040
1.0
1070
    74
1070
     0
1000
MTEXTEND
  0
POINT
  5
1378
330
12DC
100
AcDbEntity
  8
DEFPOINTS
 62
     0
100
AcDbPoint
 10
153.9718728389939
 20
105.0715883192908
 30
0.0
  0
POINT
  5
1379
330
12DC
100
AcDbEntity
  8
DEFPOINTS
 62
     0
100
AcDbPoint
 10
130.2959182719939
 20
41.07158831929083
 30
0.0
  0
POINT
  5
137A
330
12DC
100
AcDbEntity
  8
DEFPOINTS
 62
     0
100
AcDbPoint
 10
108.2808696799672
 20
41.07158831929084
 30
0.0
  0
ENDBLK
  5
12E7
330
12DC
100
AcDbEntity
  8
0
100
AcDbBlockEnd
  0
BLOCK
  5
12F2
330
12E8
100
AcDbEntity
  8
0
100
AcDbBlockBegin
  2
*D4
 70
     1
 10
0.0
 20
0.0
 30
0.0
  3
*D4
  1

  0
LINE
  5
1369
330
12E8
100
AcDbEntity
  8
SUNPOU
100
AcDbLine
 10
218.8584182719939
 20
61.07158831929081
 30
0.0
 11
218.8584182719939
 21
114.0181633873019
 31
0.0
  0
LINE
  5
136A
330
12E8
100
AcDbEntity
  8
SUNPOU
100
AcDbLine
 10
176.842226882994
 20
66.2495255364908
 30
0.0
 11
176.842226882994
 21
114.0181633873019
 31
0.0
  0
LINE
  5
136B
330
12E8
100
AcDbEntity
  8
SUNPOU
100
AcDbLine
 10
215.8584182719939
 20
112.7681633873019
 30
0.0
 11
179.842226882994
 21
112.7681633873019
 31
0.0
  0
INSERT
  5
136C
330
12E8
100
AcDbEntity
  8
SUNPOU
100
AcDbBlockReference
  2
_OPEN30
 10
218.8584182719939
 20
112.7681633873019
 30
0.0
 41
3.0
 42
3.0
 43
3.0
  0
INSERT
  5
136D
330
12E8
100
AcDbEntity
  8
SUNPOU
100
AcDbBlockReference
  2
_OPEN30
 10
176.842226882994
 20
112.7681633873019
 30
0.0
 41
3.0
 42
3.0
 43
3.0
 50
180.0
  0
MTEXT
  5
136E
330
12E8
100
AcDbEntity
  8
SUNPOU
100
AcDbMText
 10
197.850322577494
 20
116.2681633873019
 30
0.0
 40
3.0
 41
0.0
 71
     5
 72
     1
  1
42
1001
ACAD
1000
MTEXTBEGIN
1070
    73
1070
     1
1070
    44
1040
1.0
1070
    74
1070
     0
1000
MTEXTEND
  0
POINT
  5
136F
330
12E8
100
AcDbEntity
  8
DEFPOINTS
 62
     0
100
AcDbPoint
 10
218.8584182719939
 20
57.07158831929081
 30
0.0
  0
POINT
  5
1370
330
12E8
100
AcDbEntity
  8
DEFPOINTS
 62
     0
100
AcDbPoint
 10
176.842226882994
 20
62.24952553649081
 30
0.0
  0
POINT
  5
1371
330
12E8
100
AcDbEntity
  8
DEFPOINTS
 62
     0
100
AcDbPoint
 10
176.842226882994
 20
112.7681633873019
 30
0.0
  0
ENDBLK
  5
12F3
330
12E8
100
AcDbEntity
  8
0
100
AcDbBlockEnd
  0
ENDSEC
  0
SECTION
  2
ENTITIES
  0
LWPOLYLINE
  5
CE2
330
1F
100
AcDbEntity
  8
ZUWAKU
100
AcDbPolyline
 90
        4
 70
     1
 43
0.0
 10
0.3999999999999772
 20
275.4
 10
0.3999999999999772
 20
0.4000000000000341
 10
398.3999999999999
 20
0.4000000000000341
 10
398.3999999999999
 20
275.4
  0
LWPOLYLINE
  5
CE3
330
1F
100
AcDbEntity
  8
ZUWAKU
100
AcDbPolyline
 90
        4
 70
     1
 43
0.0
 10
0.1999999999999886
 20
275.6
 10
0.1999999999999886
 20
0.2000000000000455
 10
398.6
 20
0.2000000000000339
 10
398.6
 20
275.6
  0
LWPOLYLINE
  5
CE4
330
1F
100
AcDbEntity
  8
ZUWAKU
100
AcDbPolyline
 90
        4
 70
     1
 43
0.0
 10
0.0
 20
275.8
 10
0.0
 20
0.0
 10
398.8
 20
0.0000000000000338
 10
398.8
 20
275.8
  0
LWPOLYLINE
  5
CE5
330
1F
100
AcDbEntity
  8
ZUWAKU
100
AcDbPolyline
 90
        4
 70
     1
 43
0.0
 10
0.2999999999999545
 20
275.5
 10
0.2999999999999545
 20
0.3000000000000114
 10
398.5000000000001
 20
0.3000000000000345
 10
398.4999999999999
 20
275.5
  0
LWPOLYLINE
  5
CE6
330
1F
100
AcDbEntity
  8
ZUWAKU
100
AcDbPolyline
 90
        4
 70
     1
 43
0.0
 10
0.0999999999999659
 20
275.7
 10
0.0999999999999659
 20
0.1000000000000227
 10
398.6999999999999
 20
0.1000000000000343
 10
398.7
 20
275.7
  0
LINE
  5
CE7
330
1F
100
AcDbEntity
  8
ZUWAKU
100
AcDbLine
 10
104.323300645034
 20
7.600000000000019
 30
0.0
 11
223.7121819854956
 21
7.600000000000015
 31
0.0
  0
LINE
  5
CE8
330
1F
100
AcDbEntity
  8
ZUWAKU
100
AcDbLine
 10
104.323300645034
 20
7.800000000000016
 30
0.0
 11
223.7121819854956
 21
7.80000000000002
 31
0.0
  0
LINE
  5
CE9
330
1F
100
AcDbEntity
  8
ZUWAKU
100
AcDbLine
 10
104.323300645034
 20
7.700000000000017
 30
0.0
 11
223.7121819854956
 21
7.700000000000017
 31
0.0
  0
TEXT
  5
CEA
330
1F
100
AcDbEntity
  8
MOJI
100
AcDbText
 10
119.9136013404255
 20
1.60246052870371
 30
0.0
 40
2.799999999999999
  1
ＶＭ１２０
 41
0.9
  7
ｽﾀｲﾙ1
100
AcDbText
  0
LINE
  5
CEB
330
1F
100
AcDbEntity
  8
ZUWAKU
100
AcDbLine
 10
0.0
 20
15.0
 30
0.0
 11
398.6999999999999
 21
15.0
 31
0.0
  0
LINE
  5
CEC
330
1F
100
AcDbEntity
  8
ZUWAKU
100
AcDbLine
 10
0.0
 20
15.1
 30
0.0
 11
398.6999999999999
 21
15.1
 31
0.0
  0
LINE
  5
CED
330
1F
100
AcDbEntity
  8
ZUWAKU
100
AcDbLine
 10
0.0
 20
15.2
 30
0.0
 11
398.6999999999999
 21
15.2
 31
0.0
  0
LINE
  5
CEE
330
1F
100
AcDbEntity
  8
ZUWAKU
100
AcDbLine
 10
0.0
 20
15.3
 30
0.0
 11
398.6999999999999
 21
15.3
 31
0.0
  0
LINE
  5
CEF
330
1F
100
AcDbEntity
  8
ZUWAKU
100
AcDbLine
 10
0.0
 20
15.4
 30
0.0
 11
398.6999999999999
 21
15.4
 31
0.0
  0
ARC
  5
CF0
330
1F
100
AcDbEntity
  8
ZUWAKU
100
AcDbCircle
 10
24.37110607739055
 20
5.882601012677653
 30
0.0
 40
2.099999999999999
100
AcDbArc
 50
0.0
 51
45.0
  0
ARC
  5
CF1
330
1F
100
AcDbEntity
  8
ZUWAKU
100
AcDbCircle
 10
25.07110607739059
 20
4.975000000000001
 30
0.0
 40
1.399999999999999
100
AcDbArc
 50
270.0
 51
0.0
  0
HATCH
  5
CF2
330
1F
100
AcDbEntity
  8
ZUWAKU
100
AcDbHatch
 10
0.0
 20
0.0
 30
0.0
210
0.0
220
0.0
230
1.0
  2
ANSI37
 70
     0
 71
     0
 91
        8
 92
        7
 72
     1
 73
     1
 93
       24
 10
7.251131330559928
 20
8.822424240491791
 42
-0.1989123673796348
 10
7.046106077390561
 20
9.317398987322317
 42
0.0
 10
7.046106077390561
 20
9.962500000000005
 42
-0.4142135623730912
 10
7.30860607739055
 20
10.225
 42
0.0
 10
8.796106077390504
 20
10.225
 42
0.4142135623731546
 10
9.05860607739055
 20
10.48749999999999
 42
0.0
 10
9.05860607739055
 20
11.3625
 42
0.4142135623731586
 10
8.796106077390504
 20
11.625
 42
0.0
 10
7.046106077390561
 20
11.625
 42
0.4142135623730928
 10
5.646106077390584
 20
10.22500000000001
 42
0.0
 10
5.646106077390584
 20
9.317398987322381
 42
0.1989123673796619
 10
6.261181836898799
 20
7.832474746830577
 42
0.0
 10
7.716080824221137
 20
6.377575759508248
 42
-0.1989123673796613
 10
7.921106077390561
 20
5.882601012677655
 42
0.0
 10
7.921106077390561
 20
5.237499999999997
 42
-0.4142135623730911
 10
7.658606077390572
 20
4.975000000000001
 42
0.0
 10
6.171106077390618
 20
4.975000000000001
 42
0.4142135623731526
 10
5.908606077390572
 20
4.712500000000007
 42
0.0
 10
5.908606077390572
 20
3.837499999999996
 42
0.4142135623731526
 10
6.171106077390618
 20
3.575000000000002
 42
0.0
 10
7.921106077390561
 20
3.575000000000002
 42
0.4142135623731044
 10
9.321106077390595
 20
4.97499999999999
 42
0.0
 10
9.321106077390595
 20
5.882601012677627
 42
0.1989123673796604
 10
8.706030317882323
 20
7.367525253169397
 42
0.0
 97
        0
 92
        7
 72
     1
 73
     1
 93
       16
 10
11.77110607739058
 20
9.525000000000005
 42
-0.4142135623730935
 10
12.47110607739057
 20
10.225
 42
0.0
 10
13.43360607739055
 20
10.225
 42
0.4142135623731546
 10
13.69610607739059
 20
10.48749999999999
 42
0.0
 10
13.69610607739059
 20
11.3625
 42
0.4142135623730951
 10
13.4336060773906
 20
11.625
 42
0.0
 10
12.47110607739051
 20
11.62499999999998
 42
0.4142135623730892
 10
10.37110607739055
 20
9.52499999999997
 42
0.0
 10
10.37110607739055
 20
5.675000000000014
 42
0.4142135623730969
 10
12.47110607739057
 20
3.575000000000002
 42
0.0
 10
13.43360607739055
 20
3.575000000000002
 42
0.4142135623731526
 10
13.69610607739059
 20
3.837499999999996
 42
0.0
 10
13.69610607739059
 20
4.712500000000007
 42
0.4142135623730891
 10
13.4336060773906
 20
4.975000000000001
 42
0.0
 10
12.47110607739057
 20
4.975000000000001
 42
-0.4142135623730928
 10
11.77110607739058
 20
5.674999999999995
 42
0.0
 97
        0
 92
        7
 72
     1
 73
     1
 93
        2
 10
12.12110607739055
 20
7.600000000000001
 42
1.0
 10
13.87110607739055
 20
7.600000000000001
 42
1.0
 97
        0
 92
        7
 72
     1
 73
     1
 93
       26
 10
18.65742931847955
 20
9.602523596781715
 42
0.0
 10
19.18824913504846
 20
11.28345301591651
 42
0.5069206636600134
 10
18.93793368545078
 20
11.625
 42
0.0
 10
18.08848899564617
 20
11.625
 42
0.3272098845218764
 10
17.83817354604849
 20
11.44154698408348
 42
0.0
 10
16.9040386087326
 20
8.483453015916541
 42
-0.3272098845219541
 10
16.65372315913487
 20
8.3
 42
0.0
 10
16.58360607739064
 20
8.3
 42
-0.4142135623731526
 10
16.32110607739059
 20
8.562499999999994
 42
0.0
 10
16.32110607739059
 20
11.3625
 42
0.4142135623730951
 10
16.0586060773906
 20
11.625
 42
0.0
 10
15.18360607739055
 20
11.625
 42
0.4142135623730871
 10
14.92110607739056
 20
11.36250000000001
 42
0.0
 10
14.92110607739056
 20
3.837499999999996
 42
0.4142135623730891
 10
15.18360607739055
 20
3.575000000000002
 42
0.0
 10
16.05860607739055
 20
3.575000000000002
 42
0.4142135623731526
 10
16.32110607739059
 20
3.837499999999996
 42
0.0
 10
16.32110607739059
 20
6.637500000000008
 42
-0.4142135623731526
 10
16.58360607739064
 20
6.900000000000002
 42
0.0
 10
16.65372315913492
 20
6.900000000000002
 42
-0.3272098845218915
 10
16.9040386087326
 20
6.716546984083464
 42
0.0
 10
17.83817354604849
 20
3.758453015916538
 42
0.3272098845218902
 10
18.08848899564617
 20
3.575000000000002
 42
0.0
 10
18.93793368545078
 20
3.575000000000002
 42
0.5069206636600335
 10
19.18824913504846
 20
3.916546984083506
 42
0.0
 10
18.02505344581163
 20
7.60000000000007
 42
0.0
 97
        0
 92
        7
 72
     1
 73
     1
 93
        8
 10
21.74610607739055
 20
11.3625
 42
0.4142135623731546
 10
21.4836060773905
 20
11.625
 42
0.0
 10
20.60860607739062
 20
11.625
 42
0.4142135623731507
 10
20.34610607739057
 20
11.36250000000001
 42
0.0
 10
20.34610607739057
 20
3.837499999999996
 42
0.4142135623731526
 10
20.60860607739062
 20
3.575000000000002
 42
0.0
 10
21.4836060773905
 20
3.575000000000002
 42
0.4142135623731526
 10
21.74610607739055
 20
3.837499999999996
 42
0.0
 97
        0
 92
        7
 72
     1
 73
     1
 93
       24
 10
24.19610607739059
 20
9.962500000000005
 42
-0.4142135623731546
 10
24.45860607739064
 20
10.225
 42
0.0
 10
25.94610607739059
 20
10.225
 42
0.4142135623730911
 10
26.20860607739058
 20
10.48749999999999
 42
0.0
 10
26.20860607739058
 20
11.3625
 42
0.4142135623730952
 10
25.94610607739059
 20
11.625
 42
0.0
 10
24.19610607739059
 20
11.625
 42
0.4142135623731048
 10
22.79610607739056
 20
10.22500000000001
 42
0.0
 10
22.79610607739056
 20
9.317398987322381
 42
0.1989123673796613
 10
23.41118183689883
 20
7.832474746830605
 42
0.0
 10
24.86608082422117
 20
6.377575759508271
 42
-0.1989123673796402
 10
25.07110607739059
 20
5.882601012677735
 42
0.0
 10
25.07110607739059
 20
5.237499999999997
 42
-0.4142135623730911
 10
24.8086060773906
 20
4.975000000000001
 42
0.0
 10
23.32110607739059
 20
4.975000000000001
 42
0.4142135623731526
 10
23.05860607739055
 20
4.712500000000007
 42
0.0
 10
23.05860607739055
 20
3.837499999999996
 42
0.4142135623730891
 10
23.32110607739053
 20
3.575000000000002
 42
0.0
 10
25.07110607739059
 20
3.575000000000002
 42
0.4142135623730925
 10
26.47110607739057
 20
4.97499999999999
 42
0.0
 10
26.47110607739057
 20
5.882601012677627
 42
0.1989123673796675
 10
25.8560303178823
 20
7.367525253169453
 42
0.0
 10
24.40113133056001
 20
8.822424240491711
 42
-0.1989123673796652
 10
24.19610607739059
 20
9.317398987322295
 42
0.0
 97
        0
 92
        7
 72
     1
 73
     1
 93
       16
 10
28.92110607739056
 20
11.36249999999999
 42
0.414213562373103
 10
28.65860607739057
 20
11.625
 42
0.0
 10
27.78360607739057
 20
11.625
 42
0.4142135623730871
 10
27.52110607739058
 20
11.36250000000001
 42
0.0
 10
27.52110607739058
 20
4.97499999999999
 42
0.4142135623730926
 10
28.92110607739056
 20
3.575000000000002
 42
0.0
 10
30.67110607739056
 20
3.575000000000002
 42
0.4142135623731044
 10
32.07110607739059
 20
4.97499999999999
 42
0.0
 10
32.07110607739059
 20
11.3625
 42
0.4142135623730951
 10
31.8086060773906
 20
11.625
 42
0.0
 10
30.93360607739055
 20
11.625
 42
0.4142135623730871
 10
30.67110607739056
 20
11.36250000000001
 42
0.0
 10
30.67110607739056
 20
5.499999999999989
 42
-0.414213562373088
 10
30.14610607739058
 20
4.975000000000001
 42
0.0
 10
29.44610607739059
 20
4.975000000000001
 42
-0.4142135623731197
 10
28.92110607739056
 20
5.499999999999989
 42
0.0
 97
        0
 92
        7
 72
     1
 73
     1
 93
        8
 10
34.52110607739058
 20
11.36250000000001
 42
0.4142135623730871
 10
34.25860607739059
 20
11.625
 42
0.0
 10
33.38360607739059
 20
11.625
 42
0.4142135623731507
 10
33.12110607739055
 20
11.36250000000001
 42
0.0
 10
33.12110607739055
 20
3.837499999999996
 42
0.4142135623730891
 10
33.38360607739053
 20
3.575000000000002
 42
0.0
 10
34.25860607739059
 20
3.575000000000002
 42
0.4142135623730891
 10
34.52110607739058
 20
3.837499999999996
 42
0.0
 97
        0
 75
     0
 76
     1
 52
0.0
 41
0.1
 77
     0
 78
     2
 53
45.0
 43
-450.4711521673394
 44
-6.599999999999965
 45
-0.2245064030267288
 46
0.2245064030267288
 79
     0
 53
135.0
 43
-450.4711521673394
 44
-6.599999999999965
 45
-0.2245064030267288
 46
-0.2245064030267288
 79
     0
 47
0.057451373970553
 98
        8
 10
8.039927481511654
 20
7.583586822942777
 10
11.20225750321958
 20
9.422031091225505
 10
12.58218394282982
 20
7.755940823035359
 10
15.45702999081856
 20
8.100648823220751
 10
20.91923600947836
 20
8.330454956991559
 10
23.44910044756477
 20
9.709288158203605
 10
28.27884298620017
 20
9.364578957547507
 10
33.91353980981136
 20
9.594385091318315
  0
LINE
  5
CF3
330
1F
100
AcDbEntity
  8
ZUWAKU
100
AcDbLine
 10
17.83817354604849
 20
11.44154698408348
 30
0.0
 11
16.9040386087326
 21
8.483453015916516
 31
0.0
  0
LINE
  5
CF4
330
1F
100
AcDbEntity
  8
ZUWAKU
100
AcDbLine
 10
16.32110607739059
 20
8.562500000000003
 30
0.0
 11
16.32110607739059
 21
11.3625
 31
0.0
  0
LINE
  5
CF5
330
1F
100
AcDbEntity
  8
ZUWAKU
100
AcDbLine
 10
14.92110607739056
 20
11.3625
 30
0.0
 11
14.92110607739056
 21
3.837500000000002
 31
0.0
  0
LINE
  5
CF6
330
1F
100
AcDbEntity
  8
ZUWAKU
100
AcDbLine
 10
10.37110607739055
 20
5.675000000000004
 30
0.0
 11
10.37110607739055
 21
9.52499999999998
 31
0.0
  0
LINE
  5
CF7
330
1F
100
AcDbEntity
  8
ZUWAKU
100
AcDbLine
 10
11.77110607739058
 20
9.525000000000002
 30
0.0
 11
11.77110607739058
 21
5.675000000000004
 31
0.0
  0
LINE
  5
CF8
330
1F
100
AcDbEntity
  8
ZUWAKU
100
AcDbLine
 10
21.74610607739055
 20
3.837500000000002
 30
0.0
 11
21.74610607739055
 21
11.3625
 31
0.0
  0
LINE
  5
CF9
330
1F
100
AcDbEntity
  8
ZUWAKU
100
AcDbLine
 10
20.34610607739057
 20
11.3625
 30
0.0
 11
20.34610607739057
 21
3.837500000000002
 31
0.0
  0
LINE
  5
CFA
330
1F
100
AcDbEntity
  8
ZUWAKU
100
AcDbLine
 10
18.65742931847955
 20
9.602523596781715
 30
0.0
 11
18.02505344581163
 21
7.600000000000012
 31
0.0
  0
ARC
  5
CFB
330
1F
100
AcDbEntity
  8
ZUWAKU
100
AcDbCircle
 10
24.89610607739058
 20
9.317398987322352
 30
0.0
 40
2.099999999999999
100
AcDbArc
 50
180.0
 51
225.0
  0
ARC
  5
CFC
330
1F
100
AcDbEntity
  8
ZUWAKU
100
AcDbCircle
 10
24.89610607739058
 20
9.317398987322352
 30
0.0
 40
0.7
100
AcDbArc
 50
180.0000000000016
 51
224.9999999999988
  0
ARC
  5
CFD
330
1F
100
AcDbEntity
  8
ZUWAKU
100
AcDbCircle
 10
7.74610607739055
 20
9.317398987322352
 30
0.0
 40
0.7
100
AcDbArc
 50
180.0000000000016
 51
224.9999999999988
  0
ARC
  5
CFE
330
1F
100
AcDbEntity
  8
ZUWAKU
100
AcDbCircle
 10
7.74610607739055
 20
9.317398987322352
 30
0.0
 40
2.099999999999999
100
AcDbArc
 50
180.0
 51
225.0
  0
ARC
  5
CFF
330
1F
100
AcDbEntity
  8
ZUWAKU
100
AcDbCircle
 10
12.47110607739057
 20
5.675000000000004
 30
0.0
 40
2.099999999999999
100
AcDbArc
 50
180.0
 51
270.0
  0
ARC
  5
D00
330
1F
100
AcDbEntity
  8
ZUWAKU
100
AcDbCircle
 10
7.921106077390561
 20
4.975000000000001
 30
0.0
 40
1.399999999999999
100
AcDbArc
 50
270.0
 51
0.0
  0
ARC
  5
D01
330
1F
100
AcDbEntity
  8
ZUWAKU
100
AcDbCircle
 10
7.221106077390572
 20
5.882601012677653
 30
0.0
 40
2.099999999999999
100
AcDbArc
 50
0.0
 51
45.0
  0
ARC
  5
D02
330
1F
100
AcDbEntity
  8
ZUWAKU
100
AcDbCircle
 10
7.221106077390572
 20
5.882601012677675
 30
0.0
 40
0.7
100
AcDbArc
 50
0.0
 51
45.0
  0
LINE
  5
D03
330
1F
100
AcDbEntity
  8
ZUWAKU
100
AcDbLine
 10
7.921106077390561
 20
5.237500000000004
 30
0.0
 11
7.921106077390561
 21
5.882601012677675
 31
0.0
  0
LINE
  5
D04
330
1F
100
AcDbEntity
  8
ZUWAKU
100
AcDbLine
 10
9.321106077390595
 20
4.975000000000001
 30
0.0
 11
9.321106077390595
 21
5.882601012677675
 31
0.0
  0
LINE
  5
D05
330
1F
100
AcDbEntity
  8
ZUWAKU
100
AcDbLine
 10
6.171106077390561
 20
4.975000000000001
 30
0.0
 11
7.658606077390572
 21
4.975000000000001
 31
0.0
  0
ARC
  5
D06
330
1F
100
AcDbEntity
  8
ZUWAKU
100
AcDbCircle
 10
6.171106077390561
 20
4.712500000000002
 30
0.0
 40
0.2625
100
AcDbArc
 50
90.0
 51
180.0
  0
ARC
  5
D07
330
1F
100
AcDbEntity
  8
ZUWAKU
100
AcDbCircle
 10
6.171106077390561
 20
3.837500000000002
 30
0.0
 40
0.2625
100
AcDbArc
 50
180.0
 51
270.0
  0
LINE
  5
D08
330
1F
100
AcDbEntity
  8
ZUWAKU
100
AcDbLine
 10
5.908606077390572
 20
3.837500000000002
 30
0.0
 11
5.908606077390572
 21
4.712500000000002
 31
0.0
  0
LINE
  5
D09
330
1F
100
AcDbEntity
  8
ZUWAKU
100
AcDbLine
 10
6.261181836898799
 20
7.832474746830591
 30
0.0
 11
7.716080824221137
 21
6.37757575950826
 31
0.0
  0
LINE
  5
D0A
330
1F
100
AcDbEntity
  8
ZUWAKU
100
AcDbLine
 10
6.171106077390561
 20
3.575000000000002
 30
0.0
 11
7.921106077390561
 21
3.575000000000002
 31
0.0
  0
ARC
  5
D0B
330
1F
100
AcDbEntity
  8
ZUWAKU
100
AcDbCircle
 10
7.658606077390572
 20
5.237500000000004
 30
0.0
 40
0.2625
100
AcDbArc
 50
270.0
 51
0.0
  0
LINE
  5
D0C
330
1F
100
AcDbEntity
  8
ZUWAKU
100
AcDbLine
 10
8.706030317882323
 20
7.367525253169414
 30
0.0
 11
7.251131330559985
 21
8.822424240491752
 31
0.0
  0
LINE
  5
D0D
330
1F
100
AcDbEntity
  8
ZUWAKU
100
AcDbLine
 10
19.18824913504846
 20
3.916546984083488
 30
0.0
 11
18.02505344581163
 21
7.600000000000012
 31
0.0
  0
LINE
  5
D0E
330
1F
100
AcDbEntity
  8
ZUWAKU
100
AcDbLine
 10
18.08848899564623
 20
3.575000000000002
 30
0.0
 11
18.93793368545073
 21
3.575000000000002
 31
0.0
  0
LINE
  5
D0F
330
1F
100
AcDbEntity
  8
ZUWAKU
100
AcDbLine
 10
17.83817354604849
 20
3.758453015916515
 30
0.0
 11
16.9040386087326
 21
6.716546984083485
 31
0.0
  0
ARC
  5
D10
330
1F
100
AcDbEntity
  8
ZUWAKU
100
AcDbCircle
 10
18.08848899564623
 20
3.837500000000002
 30
0.0
 40
0.2625
100
AcDbArc
 50
197.525568373723
 51
270.0
  0
ARC
  5
D11
330
1F
100
AcDbEntity
  8
ZUWAKU
100
AcDbCircle
 10
16.58360607739058
 20
6.637500000000002
 30
0.0
 40
0.2625
100
AcDbArc
 50
90.0
 51
180.0
  0
ARC
  5
D12
330
1F
100
AcDbEntity
  8
ZUWAKU
100
AcDbCircle
 10
16.65372315913492
 20
6.637500000000002
 30
0.0
 40
0.2625
100
AcDbArc
 50
17.52556837372303
 51
90.0
  0
LINE
  5
D13
330
1F
100
AcDbEntity
  8
ZUWAKU
100
AcDbLine
 10
16.32110607739059
 20
3.837500000000002
 30
0.0
 11
16.32110607739059
 21
6.637500000000002
 31
0.0
  0
ARC
  5
D14
330
1F
100
AcDbEntity
  8
ZUWAKU
100
AcDbCircle
 10
16.05860607739055
 20
3.837500000000002
 30
0.0
 40
0.2625
100
AcDbArc
 50
270.0
 51
0.0
  0
LINE
  5
D15
330
1F
100
AcDbEntity
  8
ZUWAKU
100
AcDbLine
 10
16.58360607739058
 20
6.900000000000002
 30
0.0
 11
16.65372315913492
 21
6.900000000000002
 31
0.0
  0
LINE
  5
D16
330
1F
100
AcDbEntity
  8
ZUWAKU
100
AcDbLine
 10
16.65372315913492
 20
8.3
 30
0.0
 11
16.58360607739058
 21
8.3
 31
0.0
  0
CIRCLE
  5
D17
330
1F
100
AcDbEntity
  8
ZUWAKU
100
AcDbCircle
 10
12.99610607739055
 20
7.600000000000001
 30
0.0
 40
0.875
  0
ARC
  5
D18
330
1F
100
AcDbEntity
  8
ZUWAKU
100
AcDbCircle
 10
12.47110607739057
 20
5.675000000000004
 30
0.0
 40
0.7
100
AcDbArc
 50
180.0
 51
270.0
  0
ARC
  5
D19
330
1F
100
AcDbEntity
  8
ZUWAKU
100
AcDbCircle
 10
15.18360607739055
 20
3.837500000000002
 30
0.0
 40
0.2625
100
AcDbArc
 50
180.0
 51
270.0
  0
ARC
  5
D1A
330
1F
100
AcDbEntity
  8
ZUWAKU
100
AcDbCircle
 10
13.43360607739055
 20
4.712500000000002
 30
0.0
 40
0.2625
100
AcDbArc
 50
0.0
 51
90.0
  0
ARC
  5
D1B
330
1F
100
AcDbEntity
  8
ZUWAKU
100
AcDbCircle
 10
13.43360607739055
 20
3.837500000000002
 30
0.0
 40
0.2625
100
AcDbArc
 50
270.0
 51
0.0
  0
LINE
  5
D1C
330
1F
100
AcDbEntity
  8
ZUWAKU
100
AcDbLine
 10
13.43360607739055
 20
3.575000000000002
 30
0.0
 11
12.47110607739057
 21
3.575000000000002
 31
0.0
  0
LINE
  5
D1D
330
1F
100
AcDbEntity
  8
ZUWAKU
100
AcDbLine
 10
13.69610607739059
 20
4.712500000000002
 30
0.0
 11
13.69610607739059
 21
3.837500000000002
 31
0.0
  0
LINE
  5
D1E
330
1F
100
AcDbEntity
  8
ZUWAKU
100
AcDbLine
 10
12.47110607739057
 20
4.975000000000001
 30
0.0
 11
13.43360607739055
 21
4.975000000000001
 31
0.0
  0
LINE
  5
D1F
330
1F
100
AcDbEntity
  8
ZUWAKU
100
AcDbLine
 10
15.18360607739055
 20
3.575000000000002
 30
0.0
 11
16.05860607739055
 21
3.575000000000002
 31
0.0
  0
ARC
  5
D20
330
1F
100
AcDbEntity
  8
ZUWAKU
100
AcDbCircle
 10
16.58360607739058
 20
8.562500000000003
 30
0.0
 40
0.2625
100
AcDbArc
 50
180.0
 51
270.0
  0
ARC
  5
D21
330
1F
100
AcDbEntity
  8
ZUWAKU
100
AcDbCircle
 10
16.65372315913492
 20
8.562500000000003
 30
0.0
 40
0.2625
100
AcDbArc
 50
270.0
 51
342.4744316262769
  0
ARC
  5
D22
330
1F
100
AcDbEntity
  8
ZUWAKU
100
AcDbCircle
 10
24.80860607739055
 20
5.237500000000004
 30
0.0
 40
0.2625
100
AcDbArc
 50
270.0
 51
0.0
  0
ARC
  5
D23
330
1F
100
AcDbEntity
  8
ZUWAKU
100
AcDbCircle
 10
24.37110607739055
 20
5.882601012677675
 30
0.0
 40
0.7
100
AcDbArc
 50
0.0
 51
45.0
  0
LINE
  5
D24
330
1F
100
AcDbEntity
  8
ZUWAKU
100
AcDbLine
 10
25.07110607739059
 20
5.237500000000004
 30
0.0
 11
25.07110607739059
 21
5.882601012677675
 31
0.0
  0
LINE
  5
D25
330
1F
100
AcDbEntity
  8
ZUWAKU
100
AcDbLine
 10
26.47110607739057
 20
4.975000000000001
 30
0.0
 11
26.47110607739057
 21
5.882601012677675
 31
0.0
  0
LINE
  5
D26
330
1F
100
AcDbEntity
  8
ZUWAKU
100
AcDbLine
 10
25.85603031788235
 20
7.367525253169414
 30
0.0
 11
24.40113133055996
 21
8.822424240491752
 31
0.0
  0
LINE
  5
D27
330
1F
100
AcDbEntity
  8
ZUWAKU
100
AcDbLine
 10
20.60860607739056
 20
3.575000000000002
 30
0.0
 11
21.48360607739056
 21
3.575000000000002
 31
0.0
  0
ARC
  5
D28
330
1F
100
AcDbEntity
  8
ZUWAKU
100
AcDbCircle
 10
18.93793368545073
 20
3.837500000000002
 30
0.0
 40
0.2625
100
AcDbArc
 50
270.0
 51
17.52556837372303
  0
ARC
  5
D29
330
1F
100
AcDbEntity
  8
ZUWAKU
100
AcDbCircle
 10
20.60860607739056
 20
3.837500000000002
 30
0.0
 40
0.2625
100
AcDbArc
 50
180.0
 51
270.0
  0
ARC
  5
D2A
330
1F
100
AcDbEntity
  8
ZUWAKU
100
AcDbCircle
 10
23.32110607739059
 20
4.712500000000002
 30
0.0
 40
0.2625
100
AcDbArc
 50
90.0
 51
180.0
  0
ARC
  5
D2B
330
1F
100
AcDbEntity
  8
ZUWAKU
100
AcDbCircle
 10
21.48360607739056
 20
3.837500000000002
 30
0.0
 40
0.2625
100
AcDbArc
 50
270.0
 51
0.0
  0
ARC
  5
D2C
330
1F
100
AcDbEntity
  8
ZUWAKU
100
AcDbCircle
 10
23.32110607739059
 20
3.837500000000002
 30
0.0
 40
0.2625
100
AcDbArc
 50
180.0
 51
270.0
  0
LINE
  5
D2D
330
1F
100
AcDbEntity
  8
ZUWAKU
100
AcDbLine
 10
23.05860607739055
 20
3.837500000000002
 30
0.0
 11
23.05860607739055
 21
4.712500000000002
 31
0.0
  0
LINE
  5
D2E
330
1F
100
AcDbEntity
  8
ZUWAKU
100
AcDbLine
 10
23.41118183689883
 20
7.832474746830591
 30
0.0
 11
24.86608082422117
 21
6.37757575950826
 31
0.0
  0
LINE
  5
D2F
330
1F
100
AcDbEntity
  8
ZUWAKU
100
AcDbLine
 10
23.32110607739059
 20
3.575000000000002
 30
0.0
 11
25.07110607739059
 21
3.575000000000002
 31
0.0
  0
LINE
  5
D30
330
1F
100
AcDbEntity
  8
ZUWAKU
100
AcDbLine
 10
23.32110607739059
 20
4.975000000000001
 30
0.0
 11
24.80860607739055
 21
4.975000000000001
 31
0.0
  0
ARC
  5
D31
330
1F
100
AcDbEntity
  8
ZUWAKU
100
AcDbCircle
 10
12.47110607739057
 20
9.52499999999998
 30
0.0
 40
2.099999999999999
100
AcDbArc
 50
90.0
 51
180.0
  0
LINE
  5
D32
330
1F
100
AcDbEntity
  8
ZUWAKU
100
AcDbLine
 10
9.05860607739055
 20
11.3625
 30
0.0
 11
9.05860607739055
 21
10.4875
 31
0.0
  0
ARC
  5
D33
330
1F
100
AcDbEntity
  8
ZUWAKU
100
AcDbCircle
 10
8.796106077390561
 20
10.4875
 30
0.0
 40
0.2625
100
AcDbArc
 50
270.0
 51
0.0
  0
ARC
  5
D34
330
1F
100
AcDbEntity
  8
ZUWAKU
100
AcDbCircle
 10
8.796106077390561
 20
11.3625
 30
0.0
 40
0.2625
100
AcDbArc
 50
0.0
 51
90.0
  0
ARC
  5
D35
330
1F
100
AcDbEntity
  8
ZUWAKU
100
AcDbCircle
 10
7.046106077390561
 20
10.225
 30
0.0
 40
1.399999999999999
100
AcDbArc
 50
90.0
 51
180.0
  0
LINE
  5
D36
330
1F
100
AcDbEntity
  8
ZUWAKU
100
AcDbLine
 10
5.646106077390584
 20
10.225
 30
0.0
 11
5.646106077390584
 21
9.317398987322331
 31
0.0
  0
LINE
  5
D37
330
1F
100
AcDbEntity
  8
ZUWAKU
100
AcDbLine
 10
7.046106077390561
 20
9.962500000000002
 30
0.0
 11
7.046106077390561
 21
9.317398987322331
 31
0.0
  0
ARC
  5
D38
330
1F
100
AcDbEntity
  8
ZUWAKU
100
AcDbCircle
 10
7.30860607739055
 20
9.962500000000002
 30
0.0
 40
0.2625
100
AcDbArc
 50
90.0
 51
180.0
  0
LINE
  5
D39
330
1F
100
AcDbEntity
  8
ZUWAKU
100
AcDbLine
 10
8.796106077390561
 20
10.225
 30
0.0
 11
7.30860607739055
 21
10.225
 31
0.0
  0
LINE
  5
D3A
330
1F
100
AcDbEntity
  8
ZUWAKU
100
AcDbLine
 10
7.046106077390561
 20
11.625
 30
0.0
 11
8.796106077390561
 21
11.625
 31
0.0
  0
LINE
  5
D3B
330
1F
100
AcDbEntity
  8
ZUWAKU
100
AcDbLine
 10
18.08848899564623
 20
11.625
 30
0.0
 11
18.93793368545073
 21
11.625
 31
0.0
  0
ARC
  5
D3C
330
1F
100
AcDbEntity
  8
ZUWAKU
100
AcDbCircle
 10
18.08848899564623
 20
11.3625
 30
0.0
 40
0.2625
100
AcDbArc
 50
90.0
 51
162.4744316262769
  0
ARC
  5
D3D
330
1F
100
AcDbEntity
  8
ZUWAKU
100
AcDbCircle
 10
16.05860607739055
 20
11.3625
 30
0.0
 40
0.2625
100
AcDbArc
 50
0.0
 51
90.0
  0
ARC
  5
D3E
330
1F
100
AcDbEntity
  8
ZUWAKU
100
AcDbCircle
 10
12.47110607739057
 20
9.525000000000002
 30
0.0
 40
0.7
100
AcDbArc
 50
90.0
 51
180.0
  0
LINE
  5
D3F
330
1F
100
AcDbEntity
  8
ZUWAKU
100
AcDbLine
 10
13.69610607739059
 20
11.3625
 30
0.0
 11
13.69610607739059
 21
10.4875
 31
0.0
  0
ARC
  5
D40
330
1F
100
AcDbEntity
  8
ZUWAKU
100
AcDbCircle
 10
13.43360607739055
 20
10.4875
 30
0.0
 40
0.2625
100
AcDbArc
 50
270.0
 51
0.0
  0
LINE
  5
D41
330
1F
100
AcDbEntity
  8
ZUWAKU
100
AcDbLine
 10
13.43360607739055
 20
10.225
 30
0.0
 11
12.47110607739057
 21
10.225
 31
0.0
  0
ARC
  5
D42
330
1F
100
AcDbEntity
  8
ZUWAKU
100
AcDbCircle
 10
15.18360607739055
 20
11.3625
 30
0.0
 40
0.2625
100
AcDbArc
 50
90.0
 51
180.0
  0
ARC
  5
D43
330
1F
100
AcDbEntity
  8
ZUWAKU
100
AcDbCircle
 10
13.43360607739055
 20
11.3625
 30
0.0
 40
0.2625
100
AcDbArc
 50
0.0
 51
90.0
  0
LINE
  5
D44
330
1F
100
AcDbEntity
  8
ZUWAKU
100
AcDbLine
 10
12.47110607739057
 20
11.62499999999998
 30
0.0
 11
13.43360607739055
 21
11.625
 31
0.0
  0
LINE
  5
D45
330
1F
100
AcDbEntity
  8
ZUWAKU
100
AcDbLine
 10
16.05860607739055
 20
11.625
 30
0.0
 11
15.18360607739055
 21
11.625
 31
0.0
  0
LINE
  5
D46
330
1F
100
AcDbEntity
  8
ZUWAKU
100
AcDbLine
 10
26.20860607739058
 20
11.3625
 30
0.0
 11
26.20860607739058
 21
10.4875
 31
0.0
  0
LINE
  5
D47
330
1F
100
AcDbEntity
  8
ZUWAKU
100
AcDbLine
 10
25.94610607739059
 20
10.225
 30
0.0
 11
24.45860607739058
 21
10.225
 31
0.0
  0
ARC
  5
D48
330
1F
100
AcDbEntity
  8
ZUWAKU
100
AcDbCircle
 10
25.94610607739059
 20
10.4875
 30
0.0
 40
0.2625
100
AcDbArc
 50
270.0
 51
0.0
  0
ARC
  5
D49
330
1F
100
AcDbEntity
  8
ZUWAKU
100
AcDbCircle
 10
25.94610607739059
 20
11.3625
 30
0.0
 40
0.2625
100
AcDbArc
 50
0.0
 51
90.0
  0
ARC
  5
D4A
330
1F
100
AcDbEntity
  8
ZUWAKU
100
AcDbCircle
 10
24.19610607739059
 20
10.225
 30
0.0
 40
1.399999999999999
100
AcDbArc
 50
90.0
 51
180.0
  0
LINE
  5
D4B
330
1F
100
AcDbEntity
  8
ZUWAKU
100
AcDbLine
 10
19.18824913504846
 20
11.28345301591651
 30
0.0
 11
18.65742931847955
 21
9.602523596781715
 31
0.0
  0
LINE
  5
D4C
330
1F
100
AcDbEntity
  8
ZUWAKU
100
AcDbLine
 10
22.79610607739056
 20
10.225
 30
0.0
 11
22.79610607739056
 21
9.317398987322331
 31
0.0
  0
LINE
  5
D4D
330
1F
100
AcDbEntity
  8
ZUWAKU
100
AcDbLine
 10
21.48360607739056
 20
11.625
 30
0.0
 11
20.60860607739056
 21
11.625
 31
0.0
  0
ARC
  5
D4E
330
1F
100
AcDbEntity
  8
ZUWAKU
100
AcDbCircle
 10
18.93793368545073
 20
11.3625
 30
0.0
 40
0.2625
100
AcDbArc
 50
342.4744316262769
 51
90.0
  0
ARC
  5
D4F
330
1F
100
AcDbEntity
  8
ZUWAKU
100
AcDbCircle
 10
20.60860607739056
 20
11.3625
 30
0.0
 40
0.2625
100
AcDbArc
 50
90.0
 51
180.0
  0
ARC
  5
D50
330
1F
100
AcDbEntity
  8
ZUWAKU
100
AcDbCircle
 10
21.48360607739056
 20
11.3625
 30
0.0
 40
0.2625
100
AcDbArc
 50
0.0
 51
90.0
  0
LINE
  5
D51
330
1F
100
AcDbEntity
  8
ZUWAKU
100
AcDbLine
 10
24.19610607739059
 20
9.962500000000002
 30
0.0
 11
24.19610607739059
 21
9.317398987322331
 31
0.0
  0
ARC
  5
D52
330
1F
100
AcDbEntity
  8
ZUWAKU
100
AcDbCircle
 10
24.45860607739058
 20
9.962500000000002
 30
0.0
 40
0.2625
100
AcDbArc
 50
90.0
 51
180.0
  0
LINE
  5
D53
330
1F
100
AcDbEntity
  8
ZUWAKU
100
AcDbLine
 10
24.19610607739059
 20
11.625
 30
0.0
 11
25.94610607739059
 21
11.625
 31
0.0
  0
TEXT
  5
D54
330
1F
100
AcDbEntity
  8
MOJI
100
AcDbText
 10
119.9136013404255
 20
9.002460528703693
 30
0.0
 40
2.799999999999999
  1
入隅飾り
 41
0.9
  7
ｽﾀｲﾙ1
100
AcDbText
  0
TEXT
  5
D55
330
1F
100
AcDbEntity
  8
MOJI
100
AcDbText
 10
46.47889479408457
 20
6.37058906513738
 30
0.0
 40
3.0
  1
アートフェイスＶＭ１２０
 41
0.9
  7
ｽﾀｲﾙ1
100
AcDbText
  0
LINE
  5
D56
330
1F
100
AcDbEntity
  8
ZUWAKU
100
AcDbLine
 10
28.92110607739056
 20
5.5
 30
0.0
 11
28.92110607739056
 21
11.3625
 31
0.0
  0
LINE
  5
D57
330
1F
100
AcDbEntity
  8
ZUWAKU
100
AcDbLine
 10
27.52110607739058
 20
11.3625
 30
0.0
 11
27.52110607739058
 21
4.975000000000001
 31
0.0
  0
LINE
  5
D58
330
1F
100
AcDbEntity
  8
ZUWAKU
100
AcDbLine
 10
33.12110607739055
 20
11.3625
 30
0.0
 11
33.12110607739055
 21
3.837500000000002
 31
0.0
  0
LINE
  5
D59
330
1F
100
AcDbEntity
  8
ZUWAKU
100
AcDbLine
 10
34.52110607739058
 20
3.837500000000002
 30
0.0
 11
34.52110607739058
 21
11.3625
 31
0.0
  0
LINE
  5
D5A
330
1F
100
AcDbEntity
  8
ZUWAKU
100
AcDbLine
 10
30.67110607739056
 20
11.3625
 30
0.0
 11
30.67110607739056
 21
5.5
 31
0.0
  0
LINE
  5
D5B
330
1F
100
AcDbEntity
  8
ZUWAKU
100
AcDbLine
 10
32.07110607739059
 20
4.975000000000001
 30
0.0
 11
32.07110607739059
 21
11.3625
 31
0.0
  0
LINE
  5
D5C
330
1F
100
AcDbEntity
  8
ZUWAKU
100
AcDbLine
 10
39.56331477399419
 20
15.0
 30
0.0
 11
39.56331477399419
 21
0.4000000000000341
 31
0.0
  0
LINE
  5
D5D
330
1F
100
AcDbEntity
  8
ZUWAKU
100
AcDbLine
 10
39.76331477399412
 20
15.0
 30
0.0
 11
39.76331477399424
 21
0.4000000000000341
 31
0.0
  0
LINE
  5
D5E
330
1F
100
AcDbEntity
  8
ZUWAKU
100
AcDbLine
 10
39.6633147739941
 20
15.0
 30
0.0
 11
39.66331477399421
 21
0.4000000000000341
 31
0.0
  0
LINE
  5
D5F
330
1F
100
AcDbEntity
  8
ZUWAKU
100
AcDbLine
 10
104.2233006450338
 20
15.0
 30
0.0
 11
104.2233006450339
 21
0.4000000000000341
 31
0.0
  0
LINE
  5
D60
330
1F
100
AcDbEntity
  8
ZUWAKU
100
AcDbLine
 10
104.3233006450339
 20
15.0
 30
0.0
 11
104.323300645034
 21
0.4000000000000341
 31
0.0
  0
LINE
  5
D61
330
1F
100
AcDbEntity
  8
ZUWAKU
100
AcDbLine
 10
104.1233006450339
 20
15.0
 30
0.0
 11
104.1233006450339
 21
0.4000000000000341
 31
0.0
  0
ARC
  5
D62
330
1F
100
AcDbEntity
  8
ZUWAKU
100
AcDbCircle
 10
28.92110607739056
 20
4.975000000000001
 30
0.0
 40
1.399999999999999
100
AcDbArc
 50
180.0
 51
270.0
  0
ARC
  5
D63
330
1F
100
AcDbEntity
  8
ZUWAKU
100
AcDbCircle
 10
30.67110607739056
 20
4.975000000000001
 30
0.0
 40
1.399999999999999
100
AcDbArc
 50
270.0
 51
0.0
  0
LINE
  5
D64
330
1F
100
AcDbEntity
  8
ZUWAKU
100
AcDbLine
 10
33.38360607739059
 20
3.575000000000002
 30
0.0
 11
34.25860607739059
 21
3.575000000000002
 31
0.0
  0
ARC
  5
D65
330
1F
100
AcDbEntity
  8
ZUWAKU
100
AcDbCircle
 10
33.38360607739059
 20
3.837500000000002
 30
0.0
 40
0.2625
100
AcDbArc
 50
180.0
 51
270.0
  0
ARC
  5
D66
330
1F
100
AcDbEntity
  8
ZUWAKU
100
AcDbCircle
 10
34.25860607739059
 20
3.837500000000002
 30
0.0
 40
0.2625
100
AcDbArc
 50
270.0
 51
0.0
  0
ARC
  5
D67
330
1F
100
AcDbEntity
  8
ZUWAKU
100
AcDbCircle
 10
29.44610607739059
 20
5.5
 30
0.0
 40
0.525
100
AcDbArc
 50
180.0
 51
270.0
  0
LINE
  5
D68
330
1F
100
AcDbEntity
  8
ZUWAKU
100
AcDbLine
 10
28.92110607739056
 20
3.575000000000002
 30
0.0
 11
30.67110607739056
 21
3.575000000000002
 31
0.0
  0
ARC
  5
D69
330
1F
100
AcDbEntity
  8
ZUWAKU
100
AcDbCircle
 10
30.14610607739058
 20
5.5
 30
0.0
 40
0.525
100
AcDbArc
 50
270.0
 51
0.0
  0
LINE
  5
D6A
330
1F
100
AcDbEntity
  8
ZUWAKU
100
AcDbLine
 10
30.14610607739058
 20
4.975000000000001
 30
0.0
 11
29.44610607739059
 21
4.975000000000001
 31
0.0
  0
TEXT
  5
D6B
330
1F
100
AcDbEntity
  8
ZUWAKU
100
AcDbText
 10
104.8620231561387
 20
4.827678269192809
 30
0.0
 40
2.0
  1
サイズ
 41
0.9
  7
ｽﾀｲﾙ1
100
AcDbText
  0
LINE
  5
D6C
330
1F
100
AcDbEntity
  8
ZUWAKU
100
AcDbLine
 10
34.25860607739059
 20
11.625
 30
0.0
 11
33.38360607739059
 21
11.625
 31
0.0
  0
ARC
  5
D6D
330
1F
100
AcDbEntity
  8
ZUWAKU
100
AcDbCircle
 10
33.38360607739059
 20
11.3625
 30
0.0
 40
0.2625
100
AcDbArc
 50
90.0
 51
180.0
  0
ARC
  5
D6E
330
1F
100
AcDbEntity
  8
ZUWAKU
100
AcDbCircle
 10
34.25860607739059
 20
11.3625
 30
0.0
 40
0.2625
100
AcDbArc
 50
0.0
 51
90.0
  0
LINE
  5
D6F
330
1F
100
AcDbEntity
  8
ZUWAKU
100
AcDbLine
 10
28.65860607739057
 20
11.625
 30
0.0
 11
27.78360607739057
 21
11.625
 31
0.0
  0
ARC
  5
D70
330
1F
100
AcDbEntity
  8
ZUWAKU
100
AcDbCircle
 10
27.78360607739057
 20
11.3625
 30
0.0
 40
0.2625
100
AcDbArc
 50
90.0
 51
180.0
  0
ARC
  5
D71
330
1F
100
AcDbEntity
  8
ZUWAKU
100
AcDbCircle
 10
28.65860607739057
 20
11.3625
 30
0.0
 40
0.2625
100
AcDbArc
 50
0.0
 51
90.0
  0
ARC
  5
D72
330
1F
100
AcDbEntity
  8
ZUWAKU
100
AcDbCircle
 10
30.93360607739055
 20
11.3625
 30
0.0
 40
0.2625
100
AcDbArc
 50
90.0
 51
180.0
  0
LINE
  5
D73
330
1F
100
AcDbEntity
  8
ZUWAKU
100
AcDbLine
 10
31.80860607739055
 20
11.625
 30
0.0
 11
30.93360607739055
 21
11.625
 31
0.0
  0
ARC
  5
D74
330
1F
100
AcDbEntity
  8
ZUWAKU
100
AcDbCircle
 10
31.80860607739055
 20
11.3625
 30
0.0
 40
0.2625
100
AcDbArc
 50
0.0
 51
90.0
  0
TEXT
  5
D75
330
1F
100
AcDbEntity
  8
ZUWAKU
100
AcDbText
 10
104.8620231561386
 20
12.02767826919279
 30
0.0
 40
2.0
  1
品名
 41
0.9
  7
ｽﾀｲﾙ1
100
AcDbText
  0
TEXT
  5
D76
330
1F
100
AcDbEntity
  8
MOJI
100
AcDbText
 10
264.0204539861564
 20
9.002460528703693
 30
0.0
 40
2.799999999999999
  1
Ａ３
 41
0.9
  7
ｽﾀｲﾙ1
100
AcDbText
  0
LINE
  5
D77
330
1F
100
AcDbEntity
  8
ZUWAKU
100
AcDbLine
 10
252.4995897490704
 20
15.0
 30
0.0
 11
252.4995897490705
 21
0.4000000000000341
 31
0.0
  0
LINE
  5
D78
330
1F
100
AcDbEntity
  8
ZUWAKU
100
AcDbLine
 10
252.5995897490704
 20
15.0
 30
0.0
 11
252.5995897490705
 21
0.4000000000000341
 31
0.0
  0
LINE
  5
D79
330
1F
100
AcDbEntity
  8
ZUWAKU
100
AcDbLine
 10
252.3995897490705
 20
15.0
 30
0.0
 11
252.3995897490705
 21
0.4000000000000341
 31
0.0
  0
LINE
  5
D7A
330
1F
100
AcDbEntity
  8
ZUWAKU
100
AcDbLine
 10
276.2634778830562
 20
15.0
 30
0.0
 11
276.2634778830562
 21
0.4000000000000341
 31
0.0
  0
LINE
  5
D7B
330
1F
100
AcDbEntity
  8
ZUWAKU
100
AcDbLine
 10
276.4634778830561
 20
15.0
 30
0.0
 11
276.4634778830562
 21
0.4000000000000341
 31
0.0
  0
LINE
  5
D7C
330
1F
100
AcDbEntity
  8
ZUWAKU
100
AcDbLine
 10
276.3634778830561
 20
15.0
 30
0.0
 11
276.3634778830562
 21
0.4000000000000341
 31
0.0
  0
LINE
  5
D7D
330
1F
100
AcDbEntity
  8
ZUWAKU
100
AcDbLine
 10
223.8121819854956
 20
15.0
 30
0.0
 11
223.8121819854957
 21
0.4000000000000341
 31
0.0
  0
LINE
  5
D7E
330
1F
100
AcDbEntity
  8
ZUWAKU
100
AcDbLine
 10
223.9121819854956
 20
15.0
 30
0.0
 11
223.9121819854957
 21
0.4000000000000341
 31
0.0
  0
LINE
  5
D7F
330
1F
100
AcDbEntity
  8
ZUWAKU
100
AcDbLine
 10
223.7121819854956
 20
15.0
 30
0.0
 11
223.7121819854956
 21
0.4000000000000341
 31
0.0
  0
TEXT
  5
D80
330
1F
100
AcDbEntity
  8
MOJI
100
AcDbText
 10
231.623215995501
 20
5.971308860829992
 30
0.0
 40
2.799999999999999
  1
ＰＧ１７□
 41
0.9
  7
ｽﾀｲﾙ1
100
AcDbText
  0
LINE
  5
D81
330
1F
100
AcDbEntity
  8
ZUWAKU
100
AcDbLine
 10
252.5995897490704
 20
7.600000000000019
 30
0.0
 11
276.2634778830562
 21
7.600000000000019
 31
0.0
  0
LINE
  5
D82
330
1F
100
AcDbEntity
  8
ZUWAKU
100
AcDbLine
 10
252.5995897490704
 20
7.700000000000017
 30
0.0
 11
276.2634778830562
 21
7.700000000000017
 31
0.0
  0
LINE
  5
D83
330
1F
100
AcDbEntity
  8
ZUWAKU
100
AcDbLine
 10
252.5995897490704
 20
7.800000000000016
 30
0.0
 11
276.2634778830562
 21
7.800000000000016
 31
0.0
  0
TEXT
  5
D84
330
1F
100
AcDbEntity
  8
ZUWAKU
100
AcDbText
 10
253.3383122601753
 20
4.827678269192809
 30
0.0
 40
2.0
  1
縮尺
 41
0.9
  7
ｽﾀｲﾙ1
100
AcDbText
  0
TEXT
  5
D85
330
1F
100
AcDbEntity
  8
ZUWAKU
100
AcDbText
 10
230.9446340342027
 20
1.307035455569746
 30
0.0
 40
1.5
  1
□には色品番が入ります
 41
0.9
  7
ｽﾀｲﾙ1
100
AcDbText
  0
TEXT
  5
D86
330
1F
100
AcDbEntity
  8
MOJI
100
AcDbText
 10
264.0204539861564
 20
1.60246052870371
 30
0.0
 40
2.799999999999999
  1
１/１
 41
0.9
  7
ｽﾀｲﾙ1
100
AcDbText
  0
TEXT
  5
D87
330
1F
100
AcDbEntity
  8
ZUWAKU
100
AcDbText
 10
224.6509044966004
 20
12.02767826919279
 30
0.0
 40
2.0
  1
品番
 41
0.9
  7
ｽﾀｲﾙ1
100
AcDbText
  0
TEXT
  5
D88
330
1F
100
AcDbEntity
  8
ZUWAKU
100
AcDbText
 10
253.3383122601752
 20
12.02767826919279
 30
0.0
 40
2.0
  1
用紙
 41
0.9
  7
ｽﾀｲﾙ1
100
AcDbText
  0
TEXT
  5
D89
330
1F
100
AcDbEntity
  8
ZUWAKU
100
AcDbText
 10
354.2640420961219
 20
8.776919667843401
 30
0.0
 40
3.0
  1
積水化学工業株式会社
 41
0.9
  7
ｽﾀｲﾙ1
100
AcDbText
  0
TEXT
  5
D8A
330
1F
100
AcDbEntity
  8
ZUWAKU
100
AcDbText
 10
329.1019688436512
 20
9.002460528703693
 30
0.0
 40
2.799999999999999
  1
　　．　　．　　
 41
0.9
  7
ｽﾀｲﾙ1
100
AcDbText
  0
LINE
  5
D8B
330
1F
100
AcDbEntity
  8
ZUWAKU
100
AcDbLine
 10
348.9245052742706
 20
15.0
 30
0.0
 11
348.9245052742707
 21
0.4000000000000341
 31
0.0
  0
LINE
  5
D8C
330
1F
100
AcDbEntity
  8
ZUWAKU
100
AcDbLine
 10
348.8245052742705
 20
15.0
 30
0.0
 11
348.8245052742706
 21
0.4000000000000341
 31
0.0
  0
LINE
  5
D8D
330
1F
100
AcDbEntity
  8
ZUWAKU
100
AcDbLine
 10
348.7245052742706
 20
15.0
 30
0.0
 11
348.7245052742706
 21
0.4000000000000341
 31
0.0
  0
LINE
  5
D8E
330
1F
100
AcDbEntity
  8
ZUWAKU
100
AcDbLine
 10
348.6245052742706
 20
15.0
 30
0.0
 11
348.6245052742706
 21
0.4000000000000341
 31
0.0
  0
LINE
  5
D8F
330
1F
100
AcDbEntity
  8
ZUWAKU
100
AcDbLine
 10
324.2086012551022
 20
15.0
 30
0.0
 11
324.2086012551022
 21
0.4000000000000341
 31
0.0
  0
LINE
  5
D90
330
1F
100
AcDbEntity
  8
ZUWAKU
100
AcDbLine
 10
324.4086012551022
 20
15.0
 30
0.0
 11
324.4086012551023
 21
0.4000000000000341
 31
0.0
  0
LINE
  5
D91
330
1F
100
AcDbEntity
  8
ZUWAKU
100
AcDbLine
 10
324.3086012551021
 20
15.0
 30
0.0
 11
324.3086012551023
 21
0.4000000000000341
 31
0.0
  0
TEXT
  5
D92
330
1F
100
AcDbEntity
  8
ZUWAKU
100
AcDbText
 10
354.2640420961219
 20
3.324420156927033
 30
0.0
 40
3.0
  1
建材事業部
 41
0.9
  7
ｽﾀｲﾙ1
100
AcDbText
  0
LINE
  5
D93
330
1F
100
AcDbEntity
  8
ZUWAKU
100
AcDbLine
 10
324.408601255102
 20
7.600000000000015
 30
0.0
 11
348.6245052742706
 21
7.600000000000017
 31
0.0
  0
LINE
  5
D94
330
1F
100
AcDbEntity
  8
ZUWAKU
100
AcDbLine
 10
324.4086012551022
 20
7.700000000000018
 30
0.0
 11
348.6245052742706
 21
7.700000000000017
 31
0.0
  0
LINE
  5
D95
330
1F
100
AcDbEntity
  8
ZUWAKU
100
AcDbLine
 10
324.408601255102
 20
7.800000000000016
 30
0.0
 11
348.6245052742706
 21
7.800000000000016
 31
0.0
  0
TEXT
  5
D96
330
1F
100
AcDbEntity
  8
ZUWAKU
100
AcDbText
 10
325.147323766207
 20
12.02767826919279
 30
0.0
 40
2.0
  1
DATE
 41
0.9
  7
ｽﾀｲﾙ1
100
AcDbText
  0
LINE
  5
11D8
330
1F
100
AcDbEntity
  8
製品
  6
CONTINUOUS
100
AcDbLine
 10
210.345582035394
 20
105.0715883192908
 30
0.0
 11
153.9718728389939
 21
105.0715883192908
 31
0.0
  0
LINE
  5
11D9
330
1F
100
AcDbEntity
  8
製品
  6
CONTINUOUS
100
AcDbLine
 10
176.8584182719939
 20
56.67458966849079
 30
0.0
 11
135.171856193594
 21
56.67458966849079
 31
0.0
  0
LINE
  5
11DA
330
1F
100
AcDbEntity
  8
製品
  6
CONTINUOUS
100
AcDbLine
 10
176.8584182719939
 20
41.07158831929081
 30
0.0
 11
130.2959182719939
 21
41.07158831929081
 31
0.0
  0
DIMENSION
  5
11DB
330
1F
100
AcDbEntity
  8
SUNPOU
100
AcDbDimension
  2
*D1
 10
281.305750193994
 20
27.26987732043119
 30
0.0
 11
205.800834232994
 21
27.26987732043119
 31
0.0
 70
   160
  3
ISO-25
100
AcDbAlignedDimension
 13
130.2959182719939
 23
41.07158831929083
 33
0.0
 14
281.305750193994
 24
41.07158831929081
 34
0.0
100
AcDbRotatedDimension
  0
DIMENSION
  5
11DC
330
1F
100
AcDbEntity
  8
SUNPOU
100
AcDbDimension
  2
*D2
 10
130.2959182719939
 20
120.8778301626401
 30
0.0
 11
174.5771682719939
 21
124.3778301626401
 31
0.0
 70
    32
  3
ISO-25
100
AcDbAlignedDimension
 13
218.8584182719939
 23
57.07158831929081
 33
0.0
 14
130.2959182719939
 24
41.07158831929083
 34
0.0
100
AcDbRotatedDimension
  0
LINE
  5
11DD
330
1F
100
AcDbEntity
  8
製品
  6
CONTINUOUS
100
AcDbLine
 10
140.2959182719939
 20
73.57158831929081
 30
0.0
 11
140.2959182719939
 21
73.07158831929081
 31
0.0
  0
LINE
  5
11DE
330
1F
100
AcDbEntity
  8
製品
  6
CONTINUOUS
100
AcDbLine
 10
149.1994729487939
 20
101.5629632849908
 30
0.0
 11
135.171856193594
 21
56.67458966849079
 31
0.0
  0
DIMENSION
  5
11DF
330
1F
100
AcDbEntity
  8
SUNPOU
100
AcDbDimension
  2
*D3
 10
108.2808696799672
 20
41.07158831929084
 30
0.0
 11
104.7808696799672
 21
73.07158831929085
 31
0.0
 70
    32
  3
ISO-25
100
AcDbAlignedDimension
 13
153.9718728389939
 23
105.0715883192908
 33
0.0
 14
130.2959182719939
 24
41.07158831929083
 34
0.0
 50
90.0
100
AcDbRotatedDimension
  0
LINE
  5
11E0
330
1F
100
AcDbEntity
  8
製品
  6
CONTINUOUS
100
AcDbLine
 10
135.171856193594
 20
56.67458966849079
 30
0.0
 11
130.2959182719939
 21
41.07158831929081
 31
0.0
  0
LINE
  5
11E1
330
1F
100
AcDbEntity
  8
製品
  6
CONTINUOUS
100
AcDbLine
 10
140.4521682719939
 20
73.57158831929081
 30
0.0
 11
140.2959182719939
 21
73.57158831929081
 31
0.0
  0
ARC
  5
11E2
330
1F
100
AcDbEntity
  8
製品
  6
CONTINUOUS
100
AcDbCircle
 10
153.9718728389939
 20
100.0715883192908
 30
0.0
 40
5.0
100
AcDbArc
 50
90.0
 51
162.6459753636989
  0
LINE
  5
11E3
330
1F
100
AcDbEntity
  8
製品
  6
CONTINUOUS
100
AcDbLine
 10
218.8584182719939
 20
57.07158831929081
 30
0.0
 11
217.9936899137962
 21
73.57158831928927
 31
0.0
  0
LINE
  5
11E4
330
1F
100
AcDbEntity
  8
製品
  6
CONTINUOUS
100
AcDbLine
 10
238.8584182719939
 20
71.89045113903706
 30
0.0
 11
238.8584182719939
 21
85.18972774119077
 31
0.0
  0
LINE
  5
11E5
330
1F
100
AcDbEntity
  8
製品
  6
CONTINUOUS
100
AcDbLine
 10
237.024943854394
 20
59.90613528029093
 30
0.0
 11
217.993689913794
 21
73.57158831929081
 31
0.0
  0
LINE
  5
11E6
330
1F
100
AcDbEntity
  8
製品
  6
CONTINUOUS
100
AcDbLine
 10
281.305750193994
 20
41.07158831929081
 30
0.0
 11
281.305750193994
 21
75.82753205779084
 31
0.0
  0
LINE
  5
11E7
330
1F
100
AcDbEntity
  8
製品
  6
CONTINUOUS
100
AcDbLine
 10
249.8730434774938
 20
41.07158831929081
 30
0.0
 11
249.8730434774938
 21
75.82753205779084
 31
0.0
  0
LINE
  5
11E8
330
1F
100
AcDbEntity
  8
製品
  6
CONTINUOUS
100
AcDbLine
 10
239.3401001743939
 20
71.07158831929081
 30
0.0
 11
219.3401877511216
 21
105.0715883192908
 31
0.0
  0
LINE
  5
11E9
330
1F
100
AcDbEntity
  8
製品
  6
CONTINUOUS
100
AcDbLine
 10
214.5239794207939
 20
101.5629632849908
 30
0.0
 11
216.8764793976938
 21
56.67458966849079
 31
0.0
  0
DIMENSION
  5
11EA
330
1F
100
AcDbEntity
  8
SUNPOU
100
AcDbDimension
  2
*D4
 10
176.842226882994
 20
112.7681633873019
 30
0.0
 11
197.850322577494
 21
116.2681633873019
 31
0.0
 70
    32
  3
ISO-25
100
AcDbAlignedDimension
 13
218.8584182719939
 23
57.07158831929081
 33
0.0
 14
176.842226882994
 24
62.24952553649081
 34
0.0
100
AcDbRotatedDimension
  0
ARC
  5
11EB
330
1F
100
AcDbEntity
  8
製品
  6
CONTINUOUS
100
AcDbCircle
 10
233.8584182719939
 20
56.83552034179086
 30
0.0
 40
2.0
100
AcDbArc
 50
0.0
 51
63.43494882289816
  0
ARC
  5
11EC
330
1F
100
AcDbEntity
  8
製品
  6
CONTINUOUS
100
AcDbCircle
 10
235.3584182719939
 20
49.57158831929081
 30
0.0
 40
1.5
100
AcDbArc
 50
180.0
 51
264.7840914294983
  0
LINE
  5
11ED
330
1F
100
AcDbEntity
  8
製品
  6
CONTINUOUS
100
AcDbLine
 10
235.8584182719939
 20
50.07158831929081
 30
0.0
 11
233.8584182719939
 21
50.07158831929081
 31
0.0
  0
LINE
  5
11EE
330
1F
100
AcDbEntity
  8
製品
  6
CONTINUOUS
100
AcDbLine
 10
238.8584182719939
 20
41.07158831929081
 30
0.0
 11
223.8584182719939
 21
41.07158831929081
 31
0.0
  0
LINE
  5
11EF
330
1F
100
AcDbEntity
  8
製品
  6
CONTINUOUS
100
AcDbLine
 10
212.4943009859939
 20
64.07158831929081
 30
0.0
 11
178.3584182719939
 21
64.07158831929081
 31
0.0
  0
LINE
  5
11F0
330
1F
100
AcDbEntity
  8
製品
  6
CONTINUOUS
100
AcDbLine
 10
222.4489798794938
 20
41.07158831929081
 30
0.0
 11
176.8584182719939
 21
41.07158831929081
 31
0.0
  0
LINE
  5
11F1
330
1F
100
AcDbEntity
  8
製品
  6
CONTINUOUS
100
AcDbLine
 10
176.8584182719939
 20
41.07158831929081
 30
0.0
 11
176.8584182719939
 21
56.67458966849079
 31
0.0
  0
LINE
  5
11F2
330
1F
100
AcDbEntity
  8
製品
  6
CONTINUOUS
100
AcDbLine
 10
176.8584182719939
 20
56.67458966849079
 30
0.0
 11
176.8584182719939
 21
62.00510706179073
 31
0.0
  0
ARC
  5
11F3
330
1F
100
AcDbEntity
  8
製品
  6
CONTINUOUS
100
AcDbCircle
 10
178.695142403294
 20
62.24952553649081
 30
0.0
 40
1.852915520300091
100
AcDbArc
 50
100.4703484943981
 51
187.5799899951974
  0
LINE
  5
11F4
330
1F
100
AcDbEntity
  8
製品
  6
CONTINUOUS
100
AcDbLine
 10
223.8584182719939
 20
43.07158831929081
 30
0.0
 11
218.8584182719939
 21
57.07158831929081
 31
0.0
  0
LINE
  5
11F5
330
1F
100
AcDbEntity
  8
製品
  6
CONTINUOUS
100
AcDbLine
 10
216.8764793976938
 20
56.67458966849079
 30
0.0
 11
222.4489798794938
 21
41.07158831929081
 31
0.0
  0
LINE
  5
11F6
330
1F
100
AcDbEntity
  8
製品
  6
CONTINUOUS
100
AcDbLine
 10
223.8584182719939
 20
41.07158831929081
 30
0.0
 11
222.4489798794938
 21
41.07158831929081
 31
0.0
  0
LINE
  5
11F7
330
1F
100
AcDbEntity
  8
製品
  6
CONTINUOUS
100
AcDbLine
 10
225.8584182719939
 20
43.07158831929081
 30
0.0
 11
223.8584182719939
 21
43.07158831929081
 31
0.0
  0
ARC
  5
11F8
330
1F
100
AcDbEntity
  8
製品
  6
CONTINUOUS
100
AcDbCircle
 10
223.8584182719939
 20
43.07158831929081
 30
0.0
 40
2.0
100
AcDbArc
 50
270.0000000000977
 51
0.0
  0
LINE
  5
11F9
330
1F
100
AcDbEntity
  8
製品
  6
CONTINUOUS
100
AcDbLine
 10
233.8584182719939
 20
49.57158831929081
 30
0.0
 11
233.8584182719939
 21
50.07158831929081
 31
0.0
  0
ARC
  5
11FA
330
1F
100
AcDbEntity
  8
製品
  6
CONTINUOUS
100
AcDbCircle
 10
219.0446577692939
 20
63.07158831929081
 30
0.0
 40
0.5000000000000455
100
AcDbArc
 50
92.99999999780089
 51
183.0000000023016
  0
LINE
  5
11FB
330
1F
100
AcDbEntity
  8
製品
  6
CONTINUOUS
100
AcDbLine
 10
216.488819124994
 20
64.07158831929081
 30
0.0
 11
212.4943009859939
 21
64.07158831929081
 31
0.0
  0
LINE
  5
11FC
330
1F
100
AcDbEntity
  8
製品
  6
CONTINUOUS
100
AcDbLine
 10
224.8584182719939
 20
63.57158831929081
 30
0.0
 11
234.7528454629939
 21
58.62437472379082
 31
0.0
  0
ARC
  5
11FD
330
1F
100
AcDbEntity
  8
製品
  6
CONTINUOUS
100
AcDbCircle
 10
219.0446577692939
 20
63.07158831929081
 30
0.0
 40
0.5
100
AcDbArc
 50
90.0
 51
92.99999999999908
  0
LINE
  5
11FE
330
1F
100
AcDbEntity
  8
製品
  6
CONTINUOUS
100
AcDbLine
 10
219.0446577692939
 20
63.57158831929081
 30
0.0
 11
224.8584182719939
 21
63.57158831929081
 31
0.0
  0
LINE
  5
11FF
330
1F
100
AcDbEntity
  8
製品
  6
CONTINUOUS
100
AcDbLine
 10
255.4499891482939
 20
41.07158831929081
 30
0.0
 11
280.2800918429939
 21
41.07158831929081
 31
0.0
  0
LINE
  5
1200
330
1F
100
AcDbEntity
  8
製品
  6
CONTINUOUS
100
AcDbLine
 10
237.8584182719939
 20
50.07158831929081
 30
0.0
 11
237.8584182719939
 21
58.28156824089086
 31
0.0
  0
LINE
  5
1201
330
1F
100
AcDbEntity
  8
製品
  6
CONTINUOUS
100
AcDbLine
 10
235.8584182719939
 20
56.83552034179086
 30
0.0
 11
235.8584182719939
 21
50.07158831929081
 31
0.0
  0
LINE
  5
1202
330
1F
100
AcDbEntity
  8
製品
  6
CONTINUOUS
100
AcDbLine
 10
239.3401001743939
 20
71.07158831929081
 30
0.0
 11
244.3401001743939
 21
41.07158831929081
 31
0.0
  0
ARC
  5
1203
330
1F
100
AcDbEntity
  8
製品
  6
CONTINUOUS
100
AcDbCircle
 10
234.8584182719939
 20
44.87543589659089
 30
0.0
 40
6.0
100
AcDbArc
 50
0.0
 51
59.99999999999915
  0
LINE
  5
1204
330
1F
100
AcDbEntity
  8
製品
  6
CONTINUOUS
100
AcDbLine
 10
255.4499891482939
 20
41.07158831929081
 30
0.0
 11
249.8730434774938
 21
41.07158831929081
 31
0.0
  0
LINE
  5
1205
330
1F
100
AcDbEntity
  8
製品
  6
CONTINUOUS
100
AcDbLine
 10
249.8730434774938
 20
41.07158831929081
 30
0.0
 11
240.9365032384939
 21
41.07158831929081
 31
0.0
  0
LINE
  5
1206
330
1F
100
AcDbEntity
  8
製品
  6
CONTINUOUS
100
AcDbLine
 10
238.8584182719939
 20
41.07158831929081
 30
0.0
 11
240.8584182719939
 21
41.07158831929081
 31
0.0
  0
LINE
  5
1207
330
1F
100
AcDbEntity
  8
製品
  6
CONTINUOUS
100
AcDbLine
 10
238.8584182719939
 20
44.09436274429089
 30
0.0
 11
238.8584182719939
 21
41.07158831929081
 31
0.0
  0
LINE
  5
1208
330
1F
100
AcDbEntity
  8
製品
  6
CONTINUOUS
100
AcDbLine
 10
240.9365032384939
 20
41.07158831929081
 30
0.0
 11
240.8584182719939
 21
41.07158831929081
 31
0.0
  0
LINE
  5
1209
330
1F
100
AcDbEntity
  8
製品
  6
CONTINUOUS
100
AcDbLine
 10
240.8584182719939
 20
41.07158831929081
 30
0.0
 11
240.8584182719939
 21
44.87543589659089
 31
0.0
  0
ARC
  5
120A
330
1F
100
AcDbEntity
  8
製品
  6
CONTINUOUS
100
AcDbCircle
 10
234.8584182719939
 20
44.09436274429089
 30
0.0
 40
4.0
100
AcDbArc
 50
0.0
 51
84.78409142949834
  0
ARC
  5
120B
330
1F
100
AcDbEntity
  8
製品
  6
CONTINUOUS
100
AcDbCircle
 10
235.8584182719939
 20
58.28156824089086
 30
0.0
 40
2.0
100
AcDbArc
 50
0.0
 51
54.31964125099767
  0
LINE
  5
120C
330
1F
100
AcDbEntity
  8
製品
  6
CONTINUOUS
100
AcDbLine
 10
281.305750193994
 20
41.07158831929081
 30
0.0
 11
280.2800918429939
 21
41.07158831929081
 31
0.0
  0
LINE
  5
120D
330
1F
100
AcDbEntity
  8
製品
  6
CONTINUOUS
100
AcDbLine
 10
242.8584182719939
 20
105.0715883192908
 30
0.0
 11
224.6938693416939
 21
105.0715883192908
 31
0.0
  0
LINE
  5
120E
330
1F
100
AcDbEntity
  8
製品
  6
CONTINUOUS
100
AcDbLine
 10
217.9936899138456
 20
73.57158831925378
 30
0.0
 11
216.5267241127939
 21
101.5629632849908
 31
0.0
  0
LINE
  5
120F
330
1F
100
AcDbEntity
  8
製品
  6
CONTINUOUS
100
AcDbLine
 10
214.3401001743939
 20
105.0715883192908
 30
0.0
 11
219.3401877511216
 21
105.0715883192908
 31
0.0
  0
ARC
  5
1210
330
1F
100
AcDbEntity
  8
製品
  6
CONTINUOUS
100
AcDbCircle
 10
216.4804511304942
 20
100.0715883192908
 30
0.0
 40
5.0
100
AcDbArc
 50
30.46543527639376
 51
90.0
  0
LINE
  5
1211
330
1F
100
AcDbEntity
  8
製品
  6
CONTINUOUS
100
AcDbLine
 10
210.345582035394
 20
105.0715883192908
 30
0.0
 11
214.3401001743939
 21
105.0715883192908
 31
0.0
  0
LINE
  5
1212
330
1F
100
AcDbEntity
  8
製品
  6
CONTINUOUS
100
AcDbLine
 10
216.4804511304942
 20
105.0715883192908
 30
0.0
 11
214.3401001743939
 21
105.0715883192908
 31
0.0
  0
LINE
  5
1213
330
1F
100
AcDbEntity
  8
製品
  6
CONTINUOUS
100
AcDbLine
 10
214.5239794207939
 20
101.5629632849908
 30
0.0
 11
214.3401001743939
 21
105.0715883192908
 31
0.0
  0
LINE
  5
1214
330
1F
100
AcDbEntity
  8
製品
  6
CONTINUOUS
100
AcDbLine
 10
216.3428448663939
 20
105.0715883192908
 30
0.0
 11
216.5267241127939
 21
101.5629632849908
 31
0.0
  0
LINE
  5
1215
330
1F
100
AcDbEntity
  8
製品
  6
CONTINUOUS
100
AcDbLine
 10
224.6938693416939
 20
105.0715883192908
 30
0.0
 11
219.7229906451618
 21
103.8776279270482
 31
0.0
  0
LINE
  5
1216
330
1F
100
AcDbEntity
  8
製品
  6
CONTINUOUS
100
AcDbLine
 10
243.258494677394
 20
93.63575324079073
 30
0.0
 11
275.8284287238939
 21
93.63575324079073
 31
0.0
  0
LINE
  5
1217
330
1F
100
AcDbEntity
  8
製品
  6
CONTINUOUS
100
AcDbLine
 10
276.649503804494
 20
93.35257469569086
 30
0.0
 11
262.377238076594
 21
104.7794745971909
 31
0.0
  0
LINE
  5
1218
330
1F
100
AcDbEntity
  8
製品
  6
CONTINUOUS
100
AcDbLine
 10
280.2800918429939
 20
75.82753205779084
 30
0.0
 11
255.4499891482939
 21
75.82753205779084
 31
0.0
  0
LINE
  5
1219
330
1F
100
AcDbEntity
  8
製品
  6
CONTINUOUS
100
AcDbLine
 10
238.8584182719939
 20
89.77707332749076
 30
0.0
 11
238.8584182719939
 21
101.0715883192908
 31
0.0
  0
LINE
  5
121A
330
1F
100
AcDbEntity
  8
製品
  6
CONTINUOUS
100
AcDbLine
 10
255.4499891482939
 20
75.82753205779084
 30
0.0
 11
249.8730434774938
 21
75.82753205779084
 31
0.0
  0
LINE
  5
121B
330
1F
100
AcDbEntity
  8
製品
  6
CONTINUOUS
100
AcDbLine
 10
249.8730434774938
 20
75.82753205779084
 30
0.0
 11
238.8584182719939
 21
87.3667937625801
 31
0.0
  0
LINE
  5
121C
330
1F
100
AcDbEntity
  8
0_1
  6
CONTINUOUS
 62
     3
100
AcDbLine
 10
241.545497078194
 20
93.45097336869088
 30
0.0
 11
240.800191352194
 21
93.11204733419089
 31
0.0
  0
LINE
  5
121D
330
1F
100
AcDbEntity
  8
0_1
  6
CONTINUOUS
 62
     3
100
AcDbLine
 10
238.9430405944939
 20
90.57286380529076
 30
0.0
 11
238.8584182719939
 21
89.77707332749076
 31
0.0
  0
LINE
  5
121E
330
1F
100
AcDbEntity
  8
0_1
  6
CONTINUOUS
 62
     3
100
AcDbLine
 10
239.193327093094
 20
91.33498346389087
 30
0.0
 11
238.9430405944939
 21
90.57286380529076
 31
0.0
  0
LINE
  5
121F
330
1F
100
AcDbEntity
  8
0_1
  6
CONTINUOUS
 62
     3
100
AcDbLine
 10
239.598687855594
 20
92.03118613549094
 30
0.0
 11
239.193327093094
 21
91.33498346389087
 31
0.0
  0
LINE
  5
1220
330
1F
100
AcDbEntity
  8
0_1
  6
CONTINUOUS
 62
     3
100
AcDbLine
 10
240.141971597294
 20
92.63201467669086
 30
0.0
 11
239.598687855594
 21
92.03118613549094
 31
0.0
  0
LINE
  5
1221
330
1F
100
AcDbEntity
  8
0_1
  6
CONTINUOUS
 62
     3
100
AcDbLine
 10
240.800191352194
 20
93.11204733419089
 30
0.0
 11
240.141971597294
 21
92.63201467669086
 31
0.0
  0
LINE
  5
1222
330
1F
100
AcDbEntity
  8
0_1
  6
CONTINUOUS
 62
     3
100
AcDbLine
 10
242.346354024494
 20
93.63445242619077
 30
0.0
 11
241.545497078194
 21
93.45097336869088
 31
0.0
  0
LINE
  5
1223
330
1F
100
AcDbEntity
  8
0_1
  6
CONTINUOUS
 62
     3
100
AcDbLine
 10
243.1688770037939
 20
93.65472129479092
 30
0.0
 11
242.346354024494
 21
93.63445242619077
 31
0.0
  0
LINE
  5
1224
330
1F
100
AcDbEntity
  8
製品
  6
CONTINUOUS
 62
     3
100
AcDbLine
 10
238.8584182719939
 20
88.3447388380909
 30
0.0
 11
238.8584182719939
 21
89.72371442469073
 31
0.0
  0
LINE
  5
1225
330
1F
100
AcDbEntity
  8
製品
  6
CONTINUOUS
 62
     3
100
AcDbLine
 10
238.8584182719939
 20
89.72371442469073
 30
0.0
 11
238.8584182719939
 21
89.77707332749076
 31
0.0
  0
LINE
  5
1226
330
1F
100
AcDbEntity
  8
製品
  6
CONTINUOUS
100
AcDbLine
 10
238.8584182719939
 20
85.18972774119077
 30
0.0
 11
238.8584182719939
 21
88.3447388380909
 31
0.0
  0
LINE
  5
1227
330
1F
100
AcDbEntity
  8
製品
  6
CONTINUOUS
100
AcDbLine
 10
261.5450029070939
 20
105.0715883192908
 30
0.0
 11
243.168877003794
 21
105.0715883192908
 31
0.0
  0
LINE
  5
1228
330
1F
100
AcDbEntity
  8
製品
  6
CONTINUOUS
100
AcDbLine
 10
242.8584182719939
 20
105.0715883192908
 30
0.0
 11
243.168877003794
 21
105.0715883192908
 31
0.0
  0
ARC
  5
1229
330
1F
100
AcDbEntity
  8
製品
  6
CONTINUOUS
100
AcDbCircle
 10
242.8584182719939
 20
101.0715883192908
 30
0.0
 40
4.0
100
AcDbArc
 50
90.00000000009769
 51
180.0
  0
ARC
  5
122A
330
1F
100
AcDbEntity
  8
製品
  6
CONTINUOUS
100
AcDbCircle
 10
261.5464680589939
 20
103.7441821696908
 30
0.0
 40
1.327406958199972
100
AcDbArc
 50
51.25471283440216
 51
90.06324137050176
  0
LINE
  5
122B
330
1F
100
AcDbEntity
  8
製品
  6
CONTINUOUS
100
AcDbLine
 10
280.8803898623939
 20
79.62499855279083
 30
0.0
 11
278.0990104338939
 21
90.64736706749085
 31
0.0
  0
LINE
  5
122C
330
1F
100
AcDbEntity
  8
製品
  6
CONTINUOUS
100
AcDbLine
 10
281.305750193994
 20
75.82753205779084
 30
0.0
 11
280.2800918429939
 21
75.82753205779084
 31
0.0
  0
ARC
  5
122D
330
1F
100
AcDbEntity
  8
製品
  6
CONTINUOUS
100
AcDbCircle
 10
265.130244191594
 20
75.93824113699082
 30
0.0
 40
16.17588485790001
100
AcDbArc
 50
359.6078599365009
 51
13.17457524729935
  0
LINE
  5
122E
330
1F
100
AcDbEntity
  8
製品
  6
CONTINUOUS
100
AcDbLine
 10
276.3641346960939
 20
93.52506509979088
 30
0.0
 11
276.103810102494
 21
93.6078127713908
 31
0.0
  0
LINE
  5
122F
330
1F
100
AcDbEntity
  8
製品
  6
CONTINUOUS
100
AcDbLine
 10
276.103810102494
 20
93.6078127713908
 30
0.0
 11
275.8284287238939
 21
93.63575324079073
 31
0.0
  0
LINE
  5
1230
330
1F
100
AcDbEntity
  8
製品
  6
CONTINUOUS
100
AcDbLine
 10
276.6508409725939
 20
93.35150262679093
 30
0.0
 11
276.599398376394
 21
93.39069017259083
 31
0.0
  0
ARC
  5
1231
330
1F
100
AcDbEntity
  8
製品
  6
CONTINUOUS
100
AcDbCircle
 10
273.0483940847939
 20
89.68208330759074
 30
0.0
 40
5.142032501099985
100
AcDbArc
 50
10.81999879480016
 51
45.54666862110106
  0
LINE
  5
1232
330
1F
100
AcDbEntity
  8
製品
  6
CONTINUOUS
100
AcDbLine
 10
276.599398376394
 20
93.39069017259083
 30
0.0
 11
276.3641346960939
 21
93.52506509979088
 31
0.0
  0
LINE
  5
1233
330
1F
100
AcDbEntity
  8
製品
  6
CONTINUOUS
100
AcDbLine
 10
174.6656427951924
 20
268.5999933017474
 30
0.0
 11
166.3889418969926
 21
243.7698906070473
 31
0.0
  0
LINE
  5
1234
330
1F
100
AcDbEntity
  8
製品
  6
CONTINUOUS
100
AcDbLine
 10
171.8305981178924
 20
229.1783197307473
 30
0.0
 11
159.0459182714925
 21
229.1783197307472
 31
0.0
  0
LINE
  5
1235
330
1F
100
AcDbEntity
  8
製品
  6
CONTINUOUS
100
AcDbLine
 10
174.2662461345925
 20
226.1783197307473
 30
0.0
 11
159.0459182714925
 21
226.1783197307473
 31
0.0
  0
LINE
  5
1236
330
1F
100
AcDbEntity
  8
製品
  6
CONTINUOUS
100
AcDbLine
 10
174.4890286524924
 20
213.6504556857473
 30
0.0
 11
159.0459182714925
 21
213.6504556857473
 31
0.0
  0
LINE
  5
1237
330
1F
100
AcDbEntity
  8
製品
  6
CONTINUOUS
100
AcDbLine
 10
210.3510676573924
 20
204.6627463251474
 30
0.0
 11
153.9718728384924
 21
204.6627463251473
 31
0.0
  0
LINE
  5
1238
330
1F
100
AcDbEntity
  8
製品
  6
CONTINUOUS
100
AcDbLine
 10
210.3455820348925
 20
202.6600016331473
 30
0.0
 11
153.9718728384924
 21
202.6600016331473
 31
0.0
  0
LINE
  5
1239
330
1F
100
AcDbEntity
  8
製品
  6
CONTINUOUS
100
AcDbLine
 10
166.8906804342924
 20
238.1929449362473
 30
0.0
 11
171.7866742764925
 21
229.2564046972473
 31
0.0
  0
LINE
  5
123A
330
1F
100
AcDbEntity
  8
製品
  6
CONTINUOUS
100
AcDbLine
 10
157.5459182714924
 20
232.6600016331473
 30
0.0
 11
157.5459182714924
 21
204.6627463251473
 31
0.0
  0
LINE
  5
123B
330
1F
100
AcDbEntity
  8
製品
  6
CONTINUOUS
100
AcDbLine
 10
159.0459182714925
 20
232.6600016331473
 30
0.0
 11
159.0459182714925
 21
204.6627463251473
 31
0.0
  0
LINE
  5
123C
330
1F
100
AcDbEntity
  8
製品
  6
CONTINUOUS
100
AcDbLine
 10
140.2959182714925
 20
214.1783197307473
 30
0.0
 11
130.9209182714925
 21
214.1783197307473
 31
0.0
  0
LINE
  5
123D
330
1F
100
AcDbEntity
  8
製品
  6
CONTINUOUS
100
AcDbLine
 10
140.2959182714925
 20
212.1783197307473
 30
0.0
 11
130.9209182714925
 21
212.1783197307473
 31
0.0
  0
LINE
  5
123E
330
1F
100
AcDbEntity
  8
製品
  6
CONTINUOUS
100
AcDbLine
 10
135.2959182714924
 20
207.1783197307473
 30
0.0
 11
139.7959182714924
 21
206.4236477090473
 31
0.0
  0
LINE
  5
123F
330
1F
100
AcDbEntity
  8
製品
  6
CONTINUOUS
100
AcDbLine
 10
149.1994729482925
 20
202.8438808795473
 30
0.0
 11
135.1718561931924
 21
205.1963808564473
 31
0.0
  0
LINE
  5
1240
330
1F
100
AcDbEntity
  8
製品
  6
CONTINUOUS
100
AcDbLine
 10
130.9209182714925
 20
212.1783197307473
 30
0.0
 11
135.2959182714924
 21
207.1783197307473
 31
0.0
  0
LINE
  5
1241
330
1F
100
AcDbEntity
  8
製品
  6
CONTINUOUS
100
AcDbLine
 10
135.1718561931924
 20
205.1963808564473
 30
0.0
 11
130.2959182714924
 21
210.7688813382473
 31
0.0
  0
LINE
  5
1242
330
1F
100
AcDbEntity
  8
製品
  6
CONTINUOUS
100
AcDbLine
 10
130.2959182714924
 20
212.1783197307473
 30
0.0
 11
130.2959182714924
 21
210.7688813382473
 31
0.0
  0
LINE
  5
1243
330
1F
100
AcDbEntity
  8
製品
  6
CONTINUOUS
100
AcDbLine
 10
130.9209182714925
 20
214.1783197307473
 30
0.0
 11
130.9209182714925
 21
212.1783197307473
 31
0.0
  0
ARC
  5
1244
330
1F
100
AcDbEntity
  8
製品
  6
CONTINUOUS
100
AcDbCircle
 10
132.1867162182924
 20
212.6851016224473
 30
0.0
 40
1.95753537929998
100
AcDbArc
 50
130.287876481897
 51
195.0040742456
  0
LINE
  5
1245
330
1F
100
AcDbEntity
  8
製品
  6
CONTINUOUS
100
AcDbLine
 10
140.2959182714925
 20
225.3448453131473
 30
0.0
 11
140.2959182714925
 21
206.3397952622518
 31
0.0
  0
LINE
  5
1246
330
1F
100
AcDbEntity
  8
製品
  6
CONTINUOUS
100
AcDbLine
 10
142.2959182714925
 20
225.3448453131473
 30
0.0
 11
142.2959182714925
 21
206.5087035403473
 31
0.0
  0
ARC
  5
1247
330
1F
100
AcDbEntity
  8
製品
  6
CONTINUOUS
100
AcDbCircle
 10
153.0932476303925
 20
243.8822636976473
 30
0.0
 40
39.22935795019997
100
AcDbArc
 50
264.3036332576987
 51
271.2833685941999
  0
ARC
  5
1248
330
1F
100
AcDbEntity
  8
製品
  6
CONTINUOUS
100
AcDbCircle
 10
153.3482110571925
 20
248.4968369143473
 30
0.0
 40
45.84107789539999
100
AcDbArc
 50
264.8074763265972
 51
270.7795255251995
  0
LINE
  5
1249
330
1F
100
AcDbEntity
  8
製品
  6
CONTINUOUS
100
AcDbLine
 10
139.8359183491295
 20
206.4169395003379
 30
0.0
 11
149.1994729482925
 21
204.8466255715473
 31
0.0
  0
LINE
  5
124A
330
1F
100
AcDbEntity
  8
製品
  6
CONTINUOUS
100
AcDbLine
 10
142.2959182714925
 20
206.3010201685473
 30
0.0
 11
142.2959182714925
 21
206.5087035403473
 31
0.0
  0
ARC
  5
124B
330
1F
100
AcDbEntity
  8
製品
  6
CONTINUOUS
100
AcDbCircle
 10
139.8840047129925
 20
206.8262829718473
 30
0.0
 40
0.4121581929999413
100
AcDbArc
 50
257.6595577088101
 51
1.974176493895878
  0
LINE
  5
124C
330
1F
100
AcDbEntity
  8
製品
  6
CONTINUOUS
100
AcDbLine
 10
140.5271285411926
 20
206.3010201685473
 30
0.0
 11
142.2959182714925
 21
206.3010201685473
 31
0.0
  0
LINE
  5
124D
330
1F
100
AcDbEntity
  8
製品
  6
CONTINUOUS
100
AcDbLine
 10
149.1994729482925
 20
204.8466255715473
 30
0.0
 11
149.1994729482925
 21
202.8438808795473
 31
0.0
  0
LINE
  5
124E
330
1F
100
AcDbEntity
  8
製品
  6
CONTINUOUS
100
AcDbLine
 10
157.5459182714924
 20
213.6504556857473
 30
0.0
 11
142.2959182714925
 21
213.6504556857473
 31
0.0
  0
LINE
  5
124F
330
1F
100
AcDbEntity
  8
製品
  6
CONTINUOUS
100
AcDbLine
 10
157.5459182714924
 20
226.1783197307473
 30
0.0
 11
142.2959182714925
 21
226.1783197307473
 31
0.0
  0
LINE
  5
1250
330
1F
100
AcDbEntity
  8
製品
  6
CONTINUOUS
100
AcDbLine
 10
157.5459182714924
 20
229.1783197307473
 30
0.0
 11
140.2959182714925
 21
229.1783197307473
 31
0.0
  0
LINE
  5
1251
330
1F
100
AcDbEntity
  8
製品
  6
CONTINUOUS
100
AcDbLine
 10
142.2959182714925
 20
225.3448453131473
 30
0.0
 11
142.2959182714925
 21
226.1783197307473
 31
0.0
  0
LINE
  5
1252
330
1F
100
AcDbEntity
  8
製品
  6
CONTINUOUS
100
AcDbLine
 10
140.2959182714925
 20
226.1783197307473
 30
0.0
 11
140.2959182714925
 21
225.3448453131473
 31
0.0
  0
LINE
  5
1253
330
1F
100
AcDbEntity
  8
製品
  6
CONTINUOUS
100
AcDbLine
 10
142.2959182714925
 20
226.1783197307473
 30
0.0
 11
140.2959182714925
 21
226.1783197307473
 31
0.0
  0
LINE
  5
1254
330
1F
100
AcDbEntity
  8
製品
  6
CONTINUOUS
100
AcDbLine
 10
140.2959182714925
 20
229.1783197307473
 30
0.0
 11
140.2959182714925
 21
226.1783197307473
 31
0.0
  0
LINE
  5
1255
330
1F
100
AcDbEntity
  8
製品
  6
CONTINUOUS
100
AcDbLine
 10
157.5459182714924
 20
229.7972219708615
 30
0.0
 11
159.0459182714925
 21
229.7972219708615
 31
0.0
  0
ARC
  5
1256
330
1F
100
AcDbEntity
  8
製品
  6
CONTINUOUS
100
AcDbCircle
 10
173.0297249832925
 20
241.5562962449474
 30
0.0
 40
6.999999999999949
100
AcDbArc
 50
161.5650511770981
 51
208.7166751458012
  0
LINE
  5
1257
330
1F
100
AcDbEntity
  8
製品
  6
CONTINUOUS
100
AcDbLine
 10
157.5459182714924
 20
232.6600016331473
 30
0.0
 11
159.0459182714925
 21
232.6600016331473
 31
0.0
  0
LINE
  5
1258
330
1F
100
AcDbEntity
  8
製品
  6
CONTINUOUS
100
AcDbLine
 10
243.1688770033928
 20
213.0654357610471
 30
0.0
 11
243.1688770033927
 21
161.3797270386891
 31
0.0
  0
LINE
  5
1259
330
1F
100
AcDbEntity
  8
製品
  6
CONTINUOUS
100
AcDbLine
 10
262.9089127346927
 20
219.8424980684468
 30
0.0
 11
277.1350316461927
 21
177.1641413340469
 31
0.0
  0
LINE
  5
125A
330
1F
100
AcDbEntity
  8
製品
  6
CONTINUOUS
100
AcDbLine
 10
238.8584182715927
 20
166.464363273247
 30
0.0
 11
238.8584182715927
 21
213.4874172423471
 31
0.0
  0
LINE
  5
125B
330
1F
100
AcDbEntity
  8
製品
  6
CONTINUOUS
100
AcDbLine
 10
216.3428448659928
 20
198.670969116547
 30
0.0
 11
216.3428448659928
 21
142.291774297647
 31
0.0
  0
LINE
  5
125C
330
1F
100
AcDbEntity
  8
製品
  6
CONTINUOUS
100
AcDbLine
 10
214.3401001739927
 20
198.6654834940471
 30
0.0
 11
214.3401001739927
 21
142.291774297647
 31
0.0
  0
LINE
  5
125D
330
1F
100
AcDbEntity
  8
製品
  6
CONTINUOUS
100
AcDbLine
 10
238.0691494794926
 20
163.178319730647
 30
0.0
 11
227.4485882153927
 21
163.178319730647
 31
0.0
  0
LINE
  5
125E
330
1F
100
AcDbEntity
  8
製品
  6
CONTINUOUS
100
AcDbLine
 10
237.0249438539928
 20
128.615819730647
 30
0.0
 11
218.0198938030971
 21
128.615819730647
 31
0.0
  0
LINE
  5
125F
330
1F
100
AcDbEntity
  8
製品
  6
CONTINUOUS
100
AcDbLine
 10
216.3428448659928
 20
166.1783197306471
 30
0.0
 11
237.8584182715927
 21
166.178319730647
 31
0.0
  0
LINE
  5
1260
330
1F
100
AcDbEntity
  8
製品
  6
CONTINUOUS
100
AcDbLine
 10
237.0249438539928
 20
130.615819730647
 30
0.0
 11
218.1888020811928
 21
130.615819730647
 31
0.0
  0
LINE
  5
1261
330
1F
100
AcDbEntity
  8
製品
  6
CONTINUOUS
100
AcDbLine
 10
244.3401001739927
 20
147.365819730647
 30
0.0
 11
216.3428448659928
 21
147.365819730647
 31
0.0
  0
LINE
  5
1262
330
1F
100
AcDbEntity
  8
製品
  6
CONTINUOUS
100
AcDbLine
 10
244.3401001739927
 20
145.865819730647
 30
0.0
 11
216.3428448659928
 21
145.865819730647
 31
0.0
  0
LINE
  5
1263
330
1F
100
AcDbEntity
  8
製品
  6
CONTINUOUS
100
AcDbLine
 10
225.3305542265928
 20
145.865819730647
 30
0.0
 11
225.3305542265928
 21
130.615819730647
 31
0.0
  0
ARC
  5
1264
330
1F
100
AcDbEntity
  8
製品
  6
CONTINUOUS
100
AcDbCircle
 10
255.5623622384927
 20
141.413149089547
 30
0.0
 40
39.22935795019997
100
AcDbArc
 50
178.7166314058001
 51
185.6963667422996
  0
ARC
  5
1265
330
1F
100
AcDbEntity
  8
製品
  6
CONTINUOUS
100
AcDbCircle
 10
260.1769354551928
 20
141.6681125163471
 30
0.0
 40
45.84107789539999
100
AcDbArc
 50
179.2204744748004
 51
185.1925236733994
  0
LINE
  5
1266
330
1F
100
AcDbEntity
  8
製品
  6
CONTINUOUS
100
AcDbLine
 10
216.8764793972926
 20
123.4917576523469
 30
0.0
 11
222.4489798790926
 21
118.615819730647
 31
0.0
  0
LINE
  5
1267
330
1F
100
AcDbEntity
  8
製品
  6
CONTINUOUS
100
AcDbLine
 10
218.8584182715927
 20
123.615819730647
 30
0.0
 11
218.1037462498928
 21
128.115819730647
 31
0.0
  0
LINE
  5
1268
330
1F
100
AcDbEntity
  8
製品
  6
CONTINUOUS
100
AcDbLine
 10
214.5239794203927
 20
137.519374407447
 30
0.0
 11
216.8764793972926
 21
123.4917576523469
 31
0.0
  0
LINE
  5
1269
330
1F
100
AcDbEntity
  8
製品
  6
CONTINUOUS
100
AcDbLine
 10
218.0970380411833
 20
128.155819808283
 30
0.0
 11
216.5267241123927
 21
137.519374407447
 31
0.0
  0
LINE
  5
126A
330
1F
100
AcDbEntity
  8
製品
  6
CONTINUOUS
100
AcDbLine
 10
216.5267241123927
 20
137.519374407447
 30
0.0
 11
214.5239794203927
 21
137.519374407447
 31
0.0
  0
LINE
  5
126B
330
1F
100
AcDbEntity
  8
製品
  6
CONTINUOUS
100
AcDbLine
 10
217.9811187093927
 20
130.615819730647
 30
0.0
 11
218.1888020811928
 21
130.615819730647
 31
0.0
  0
LINE
  5
126C
330
1F
100
AcDbEntity
  8
製品
  6
CONTINUOUS
100
AcDbLine
 10
217.9811187093927
 20
128.8470300003471
 30
0.0
 11
217.9811187093927
 21
130.615819730647
 31
0.0
  0
ARC
  5
126D
330
1F
100
AcDbEntity
  8
製品
  6
CONTINUOUS
100
AcDbCircle
 10
218.5063815126926
 20
128.2039061721471
 30
0.0
 40
0.4121581929999413
100
AcDbArc
 50
88.02582350610576
 51
192.3404422911897
  0
LINE
  5
126E
330
1F
100
AcDbEntity
  8
製品
  6
CONTINUOUS
100
AcDbLine
 10
225.8584182715927
 20
128.615819730647
 30
0.0
 11
225.8584182715927
 21
119.240819730647
 31
0.0
  0
LINE
  5
126F
330
1F
100
AcDbEntity
  8
製品
  6
CONTINUOUS
100
AcDbLine
 10
223.8584182715927
 20
128.615819730647
 30
0.0
 11
223.8584182715927
 21
119.240819730647
 31
0.0
  0
LINE
  5
1270
330
1F
100
AcDbEntity
  8
製品
  6
CONTINUOUS
100
AcDbLine
 10
223.8584182715927
 20
118.615819730647
 30
0.0
 11
222.4489798790926
 21
118.615819730647
 31
0.0
  0
LINE
  5
1271
330
1F
100
AcDbEntity
  8
製品
  6
CONTINUOUS
100
AcDbLine
 10
223.8584182715927
 20
119.240819730647
 30
0.0
 11
218.8584182715927
 21
123.615819730647
 31
0.0
  0
ARC
  5
1272
330
1F
100
AcDbEntity
  8
製品
  6
CONTINUOUS
100
AcDbCircle
 10
224.3652001632927
 20
120.5066176774469
 30
0.0
 40
1.95753537929998
100
AcDbArc
 50
254.9959257544016
 51
319.7121235181035
  0
LINE
  5
1273
330
1F
100
AcDbEntity
  8
製品
  6
CONTINUOUS
100
AcDbLine
 10
225.8584182715927
 20
119.240819730647
 30
0.0
 11
223.8584182715927
 21
119.240819730647
 31
0.0
  0
LINE
  5
1274
330
1F
100
AcDbEntity
  8
製品
  6
CONTINUOUS
100
AcDbLine
 10
225.3305542265928
 20
162.808930111647
 30
0.0
 11
225.3305542265928
 21
147.3658197306471
 31
0.0
  0
LINE
  5
1275
330
1F
100
AcDbEntity
  8
製品
  6
CONTINUOUS
100
AcDbLine
 10
216.3428448659928
 20
163.3033751881471
 30
0.0
 11
225.4485882153927
 21
163.3033751881471
 31
0.0
  0
ARC
  5
1276
330
1F
100
AcDbEntity
  8
製品
  6
CONTINUOUS
100
AcDbCircle
 10
227.4409432752928
 20
179.1114872505471
 30
0.0
 40
15.93316935399998
100
AcDbArc
 50
262.8166748838036
 51
270.0274912547009
  0
LINE
  5
1277
330
1F
100
AcDbEntity
  8
製品
  6
CONTINUOUS
100
AcDbLine
 10
225.3305542265928
 20
162.808930111647
 30
0.0
 11
225.3310727390927
 21
162.824217764447
 31
0.0
  0
ARC
  5
1278
330
1F
100
AcDbEntity
  8
製品
  6
CONTINUOUS
100
AcDbCircle
 10
226.3426581644927
 20
162.8301112741469
 30
0.0
 40
1.011602593099996
100
AcDbArc
 50
152.1060945475987
 51
180.3338021767932
  0
LINE
  5
1279
330
1F
100
AcDbEntity
  8
製品
  6
CONTINUOUS
100
AcDbLine
 10
240.8584182715928
 20
145.865819730647
 30
0.0
 11
240.8584182715927
 21
128.615819730647
 31
0.0
  0
LINE
  5
127A
330
1F
100
AcDbEntity
  8
製品
  6
CONTINUOUS
100
AcDbLine
 10
237.8584182715928
 20
145.865819730647
 30
0.0
 11
237.8584182715927
 21
130.615819730647
 31
0.0
  0
LINE
  5
127B
330
1F
100
AcDbEntity
  8
製品
  6
CONTINUOUS
100
AcDbLine
 10
237.8584182715927
 20
130.615819730647
 30
0.0
 11
237.8584182715927
 21
128.615819730647
 31
0.0
  0
LINE
  5
127C
330
1F
100
AcDbEntity
  8
製品
  6
CONTINUOUS
100
AcDbLine
 10
237.0249438539928
 20
130.615819730647
 30
0.0
 11
237.8584182715927
 21
130.615819730647
 31
0.0
  0
LINE
  5
127D
330
1F
100
AcDbEntity
  8
製品
  6
CONTINUOUS
100
AcDbLine
 10
237.8584182715927
 20
128.615819730647
 30
0.0
 11
237.0249438539928
 21
128.615819730647
 31
0.0
  0
LINE
  5
127E
330
1F
100
AcDbEntity
  8
製品
  6
CONTINUOUS
100
AcDbLine
 10
240.8584182715927
 20
128.615819730647
 30
0.0
 11
237.8584182715927
 21
128.615819730647
 31
0.0
  0
LINE
  5
127F
330
1F
100
AcDbEntity
  8
製品
  6
CONTINUOUS
100
AcDbLine
 10
278.4383916572265
 20
173.2540613007597
 30
0.0
 11
243.1688770033927
 21
161.4975564161125
 31
0.0
  0
LINE
  5
1280
330
1F
100
AcDbEntity
  8
製品
  6
CONTINUOUS
100
AcDbLine
 10
280.2800918425926
 20
162.9855442543469
 30
0.0
 11
255.4499891478927
 21
154.7088433561471
 31
0.0
  0
LINE
  5
1281
330
1F
100
AcDbEntity
  8
製品
  6
CONTINUOUS
100
AcDbLine
 10
237.8584182715927
 20
162.586147593747
 30
0.0
 11
237.8584182715927
 21
147.365819730647
 31
0.0
  0
ARC
  5
1282
330
1F
100
AcDbEntity
  8
製品
  6
CONTINUOUS
100
AcDbCircle
 10
241.4316693543927
 20
161.8320639642471
 30
0.0
 40
1.795132059199967
100
AcDbArc
 50
253.9880243737983
 51
345.4053054923893
  0
ARC
  5
1283
330
1F
100
AcDbEntity
  8
製品
  6
CONTINUOUS
100
AcDbCircle
 10
242.8584182715927
 20
163.6146011921471
 30
0.0
 40
4.0
100
AcDbArc
 50
180.0
 51
241.2833248541988
  0
ARC
  5
1284
330
1F
100
AcDbEntity
  8
製品
  6
CONTINUOUS
100
AcDbCircle
 10
253.2363947857928
 20
161.3496264424471
 30
0.0
 40
6.999999999999949
100
AcDbArc
 50
241.2833248541988
 51
288.4349488229005
  0
LINE
  5
1285
330
1F
100
AcDbEntity
  8
製品
  6
CONTINUOUS
100
AcDbLine
 10
240.8584182715927
 20
160.150499577047
 30
0.0
 11
240.8584182715927
 21
147.3658197306471
 31
0.0
  0
LINE
  5
1286
330
1F
100
AcDbEntity
  8
製品
  6
CONTINUOUS
100
AcDbLine
 10
241.477320511707
 20
145.8658197306471
 30
0.0
 11
241.477320511707
 21
147.365819730647
 31
0.0
  0
LINE
  5
1287
330
1F
100
AcDbEntity
  8
製品
  6
CONTINUOUS
100
AcDbLine
 10
244.3401001739927
 20
145.865819730647
 30
0.0
 11
244.3401001739927
 21
147.3658197306471
 31
0.0
  0
LINE
  5
1288
330
1F
100
AcDbEntity
  8
製品
  6
CONTINUOUS
100
AcDbLine
 10
249.8730434770926
 20
155.210581893447
 30
0.0
 11
240.9365032380927
 21
160.1065757356471
 31
0.0
  0
LINE
  5
1289
330
1F
100
AcDbEntity
  8
製品
  6
CONTINUOUS
100
AcDbLine
 10
238.8584182715927
 20
166.2649743258471
 30
0.0
 11
238.8584182715927
 21
166.464363273247
 31
0.0
  0
LINE
  5
128A
330
1F
100
AcDbEntity
  8
製品
  6
CONTINUOUS
100
AcDbLine
 10
238.8584182715927
 20
163.6146011921471
 30
0.0
 11
238.8584182715927
 21
164.516712123947
 31
0.0
  0
LINE
  5
128B
330
1F
100
AcDbEntity
  8
製品
  6
CONTINUOUS
100
AcDbLine
 10
238.8584182715927
 20
164.516712123947
 30
0.0
 11
238.8584182715927
 21
166.2649743258471
 31
0.0
  0
LINE
  5
128C
330
1F
100
AcDbEntity
  8
製品
  6
CONTINUOUS
100
AcDbLine
 10
238.8584182715927
 20
166.178319730647
 30
0.0
 11
237.8584182715927
 21
166.178319730647
 31
0.0
  0
ARC
  5
128D
330
1F
100
AcDbEntity
  8
製品
  6
CONTINUOUS
100
AcDbCircle
 10
238.0691494794926
 20
162.178319730647
 30
0.0
 40
1.000000000000027
100
AcDbArc
 50
16.69376533600634
 51
90.0
  0
ARC
  5
128E
330
1F
100
AcDbEntity
  8
製品
  6
CONTINUOUS
100
AcDbCircle
 10
238.3584182715927
 20
162.586147593747
 30
0.0
 40
0.5000000000000461
100
AcDbArc
 50
54.65225028810253
 51
180.0
  0
LINE
  5
128F
330
1F
100
AcDbEntity
  8
製品
  6
CONTINUOUS
100
AcDbLine
 10
278.0676257784929
 20
174.3663589369471
 30
0.0
 11
280.8489973161928
 21
166.022244323947
 31
0.0
  0
ARC
  5
1290
330
1F
100
AcDbEntity
  8
製品
  6
CONTINUOUS
100
AcDbCircle
 10
279.8057501935928
 20
164.4085692014471
 30
0.0
 40
1.500000000000144
100
AcDbArc
 50
288.4349488229005
 51
18.43494882289665
  0
LINE
  5
1291
330
1F
100
AcDbEntity
  8
製品
  6
CONTINUOUS
100
AcDbLine
 10
280.8489973161928
 20
166.022244323947
 30
0.0
 11
281.2287751406928
 21
164.8829108504469
 31
0.0
  0
LINE
  5
1292
330
1F
100
AcDbEntity
  8
製品
  6
CONTINUOUS
100
AcDbLine
 10
277.1350316461927
 20
177.1641413340469
 30
0.0
 11
278.0676257784929
 21
174.3663589369471
 31
0.0
  0
LINE
  5
1293
330
1F
100
AcDbEntity
  8
製品
  6
CONTINUOUS
100
AcDbLine
 10
244.1198013642928
 20
247.0297459421473
 30
0.0
 11
231.5225966092922
 21
251.2288141938474
 31
0.0
  0
LINE
  5
1294
330
1F
100
AcDbEntity
  8
製品
  6
CONTINUOUS
100
AcDbLine
 10
242.8584182714924
 20
231.1783197307473
 30
0.0
 11
224.6938693411922
 21
231.1783197307473
 31
0.0
  0
LINE
  5
1295
330
1F
100
AcDbEntity
  8
製品
  6
CONTINUOUS
100
AcDbLine
 10
225.1675157831924
 20
227.1783197307474
 30
0.0
 11
237.8584182714922
 21
227.1783197307474
 31
0.0
  0
ARC
  5
1296
330
1F
100
AcDbEntity
  8
製品
  6
CONTINUOUS
100
AcDbCircle
 10
173.5121625050925
 20
229.7515708135474
 30
0.0
 40
1.795132059199967
100
AcDbArc
 50
115.6878409013007
 51
196.0119756262017
  0
ARC
  5
1297
330
1F
100
AcDbEntity
  8
製品
  6
CONTINUOUS
100
AcDbCircle
 10
233.4942219768923
 20
230.1923410402474
 30
0.0
 40
8.855414190800109
100
AcDbArc
 50
173.6073236805996
 51
199.8987573633998
  0
LINE
  5
1298
330
1F
100
AcDbEntity
  8
製品
  6
CONTINUOUS
100
AcDbLine
 10
178.1444618140925
 20
227.1783197307474
 30
0.0
 11
225.1675157831924
 21
227.1783197307474
 31
0.0
  0
LINE
  5
1299
330
1F
100
AcDbEntity
  8
製品
  6
CONTINUOUS
100
AcDbLine
 10
177.8584182714924
 20
204.6627463251473
 30
0.0
 11
177.8584182714924
 21
226.1783197307473
 31
0.0
  0
LINE
  5
129A
330
1F
100
AcDbEntity
  8
製品
  6
CONTINUOUS
100
AcDbLine
 10
174.9834737289926
 20
204.6627463251473
 30
0.0
 11
174.9834737289926
 21
213.7684896745474
 31
0.0
  0
LINE
  5
129B
330
1F
100
AcDbEntity
  8
製品
  6
CONTINUOUS
100
AcDbLine
 10
174.8584182714925
 20
226.3890509386474
 30
0.0
 11
174.8584182714925
 21
215.7684896745474
 31
0.0
  0
LINE
  5
129C
330
1F
100
AcDbEntity
  8
製品
  6
CONTINUOUS
100
AcDbLine
 10
174.4890286524924
 20
213.6504556857473
 30
0.0
 11
174.5043163052924
 21
213.6509741982474
 31
0.0
  0
ARC
  5
129D
330
1F
100
AcDbEntity
  8
製品
  6
CONTINUOUS
100
AcDbCircle
 10
190.7915857913925
 20
215.7608447344474
 30
0.0
 40
15.93316935399998
100
AcDbArc
 50
179.9725087453006
 51
187.1833251161997
  0
ARC
  5
129E
330
1F
100
AcDbEntity
  8
製品
  6
CONTINUOUS
100
AcDbCircle
 10
174.5102098149924
 20
214.6625596236473
 30
0.0
 40
1.011602593099996
100
AcDbArc
 50
269.6661978232051
 51
297.8939054523976
  0
LINE
  5
129F
330
1F
100
AcDbEntity
  8
製品
  6
CONTINUOUS
100
AcDbLine
 10
176.1968106647924
 20
227.1783197307474
 30
0.0
 11
177.9450728666926
 21
227.1783197307474
 31
0.0
  0
LINE
  5
12A0
330
1F
100
AcDbEntity
  8
製品
  6
CONTINUOUS
100
AcDbLine
 10
175.2946997329926
 20
227.1783197307474
 30
0.0
 11
176.1968106647924
 21
227.1783197307474
 31
0.0
  0
ARC
  5
12A1
330
1F
100
AcDbEntity
  8
製品
  6
CONTINUOUS
100
AcDbCircle
 10
174.2662461345925
 20
226.6783197307473
 30
0.0
 40
0.5000000000000461
100
AcDbArc
 50
270.0
 51
35.34774971189519
  0
ARC
  5
12A2
330
1F
100
AcDbEntity
  8
製品
  6
CONTINUOUS
100
AcDbCircle
 10
173.8584182714925
 20
226.3890509386474
 30
0.0
 40
1.000000000000027
100
AcDbArc
 50
0.0
 51
73.30623466399366
  0
ARC
  5
12A3
330
1F
100
AcDbEntity
  8
製品
  6
CONTINUOUS
100
AcDbCircle
 10
175.2946997329926
 20
231.1783197307473
 30
0.0
 40
4.0
100
AcDbArc
 50
208.7166751457997
 51
270.0
  0
LINE
  5
12A4
330
1F
100
AcDbEntity
  8
製品
  6
CONTINUOUS
100
AcDbLine
 10
177.9450728666926
 20
227.1783197307474
 30
0.0
 11
178.1444618140925
 21
227.1783197307474
 31
0.0
  0
LINE
  5
12A5
330
1F
100
AcDbEntity
  8
製品
  6
CONTINUOUS
100
AcDbLine
 10
177.8584182714924
 20
227.1783197307474
 30
0.0
 11
177.8584182714924
 21
226.1783197307473
 31
0.0
  0
ARC
  5
12A6
330
1F
100
AcDbEntity
  8
製品
  6
CONTINUOUS
100
AcDbCircle
 10
210.3478436513924
 20
198.6677451106474
 30
0.0
 40
3.992257163199973
100
AcDbArc
 50
44.99999999898411
 51
90.03245811639875
  0
ARC
  5
12A7
330
1F
100
AcDbEntity
  8
製品
  6
CONTINUOUS
100
AcDbCircle
 10
210.3544600820924
 20
198.6743615412473
 30
0.0
 40
5.988385744799977
100
AcDbArc
 50
44.99999999999857
 51
90.03245811379974
  0
ARC
  5
12A8
330
1F
100
AcDbEntity
  8
製品
  6
CONTINUOUS
100
AcDbCircle
 10
210.3544600820927
 20
198.674361541247
 30
0.0
 40
5.988385744799977
100
AcDbArc
 50
359.9675418862002
 51
45.00000000000087
  0
ARC
  5
12A9
330
1F
100
AcDbEntity
  8
製品
  6
CONTINUOUS
100
AcDbCircle
 10
210.3478436514927
 20
198.667745110547
 30
0.0
 40
3.992257163199973
100
AcDbArc
 50
359.9675418835996
 51
45.00000000101992
  0
LINE
  5
12AA
330
1F
100
AcDbEntity
  8
製品
  6
CONTINUOUS
100
AcDbLine
 10
224.7455343018924
 20
231.4887784625473
 30
0.0
 11
177.2130856187924
 21
231.4887784625473
 31
0.0
  0
LINE
  5
12AB
330
1F
100
AcDbEntity
  8
製品
  6
CONTINUOUS
100
AcDbLine
 10
231.5225966092922
 20
251.2288141938474
 30
0.0
 11
188.8442398748924
 21
265.4549331053473
 31
0.0
  0
LINE
  5
12AC
330
1F
100
AcDbEntity
  8
製品
  6
CONTINUOUS
100
AcDbLine
 10
184.9341598416051
 20
266.7582931163809
 30
0.0
 11
173.1378248797911
 21
231.3692882310474
 31
0.0
  0
ARC
  5
12AD
330
1F
100
AcDbEntity
  8
製品
  6
CONTINUOUS
100
AcDbCircle
 10
196.3471672232925
 20
166.7436593769473
 30
0.0
 40
67.5132840577
100
AcDbArc
 50
106.4639555137961
 51
106.8180609657002
  0
LINE
  5
12AE
330
1F
100
AcDbEntity
  8
製品
  6
CONTINUOUS
100
AcDbLine
 10
176.8133089391925
 20
231.3692882310474
 30
0.0
 11
172.7340304680925
 21
231.3692882310474
 31
0.0
  0
LINE
  5
12AF
330
1F
100
AcDbEntity
  8
製品
  6
CONTINUOUS
100
AcDbLine
 10
186.0464574777926
 20
266.3875272376474
 30
0.0
 11
177.7023428647925
 21
269.1688987753473
 31
0.0
  0
LINE
  5
12B0
330
1F
100
AcDbEntity
  8
製品
  6
CONTINUOUS
100
AcDbLine
 10
177.7023428647925
 20
269.1688987753473
 30
0.0
 11
176.5630093912924
 21
269.5486765998473
 31
0.0
  0
ARC
  5
12B1
330
1F
100
AcDbEntity
  8
製品
  6
CONTINUOUS
100
AcDbCircle
 10
176.0886677422926
 20
268.1256516527474
 30
0.0
 40
1.500000000000144
100
AcDbArc
 50
71.56505117710631
 51
161.5650511771025
  0
LINE
  5
12B2
330
1F
100
AcDbEntity
  8
製品
  6
CONTINUOUS
100
AcDbLine
 10
188.8442398748924
 20
265.4549331053473
 30
0.0
 11
186.0464574777926
 21
266.3875272376474
 31
0.0
  0
LINE
  5
12B3
330
1F
100
AcDbEntity
  8
製品
  6
CONTINUOUS
100
AcDbLine
 10
230.8709096029925
 20
249.8649043658474
 30
0.0
 11
224.7455343018924
 21
231.4887784625473
 31
0.0
  0
ARC
  5
12B4
330
1F
100
AcDbEntity
  8
製品
  6
CONTINUOUS
100
AcDbCircle
 10
225.6795954046925
 20
231.1738084960473
 30
0.0
 40
0.9857363864002717
100
AcDbArc
 50
161.3656423924011
 51
179.7377842465001
  0
ARC
  5
12B5
330
1F
100
AcDbEntity
  8
製品
  6
CONTINUOUS
100
AcDbCircle
 10
233.9752618983922
 20
249.2192655932474
 30
0.0
 40
3.170781070700016
100
AcDbArc
 50
140.6711201104962
 51
168.2511929841005
  0
LINE
  5
12B6
330
1F
100
AcDbEntity
  8
製品
100
AcDbLine
 10
242.8584182715927
 20
231.178319730647
 30
0.0
 11
238.565525052729
 21
226.8854265118837
 31
0.0
  0
LINE
  5
12B7
330
1F
100
AcDbEntity
  8
製品
  6
CONTINUOUS
100
AcDbLine
 10
258.7098444829927
 20
232.4397028234473
 30
0.0
 11
262.9089127346927
 21
219.8424980684468
 31
0.0
  0
LINE
  5
12B8
330
1F
100
AcDbEntity
  8
製品
  6
CONTINUOUS
100
AcDbLine
 10
242.8584182715927
 20
231.178319730647
 30
0.0
 11
242.8584182715927
 21
213.0137708003469
 31
0.0
  0
LINE
  5
12B9
330
1F
100
AcDbEntity
  8
製品
  6
CONTINUOUS
100
AcDbLine
 10
261.5450029066927
 20
219.1908110621472
 30
0.0
 11
243.1688770033928
 21
213.0654357610471
 31
0.0
  0
LINE
  5
12BA
330
1F
100
AcDbEntity
  8
製品
  6
CONTINUOUS
100
AcDbLine
 10
238.8584182715927
 20
213.4874172423471
 30
0.0
 11
238.8584182715927
 21
226.1783197306469
 31
0.0
  0
ARC
  5
12BB
330
1F
100
AcDbEntity
  8
製品
  6
CONTINUOUS
100
AcDbCircle
 10
242.8539070368927
 20
213.9994968638472
 30
0.0
 40
0.9857363864002717
100
AcDbArc
 50
270.2622157535015
 51
288.6343576076004
  0
ARC
  5
12BC
330
1F
100
AcDbEntity
  8
製品
  6
CONTINUOUS
100
AcDbCircle
 10
241.8724395810928
 20
221.814123436047
 30
0.0
 40
8.855414190800164
100
AcDbArc
 50
250.1012426366002
 51
276.3926763194003
  0
ARC
  5
12BD
330
1F
100
AcDbEntity
  8
製品
  6
CONTINUOUS
100
AcDbCircle
 10
237.8584182715927
 20
226.1783197306469
 30
0.0
 40
1.0
100
AcDbArc
 50
0.0
 51
45.00000000407021
  0
ARC
  5
12BE
330
1F
100
AcDbEntity
  8
製品
  6
CONTINUOUS
100
AcDbCircle
 10
237.8584182714922
 20
226.1783197307473
 30
0.0
 40
1.0
100
AcDbArc
 50
44.99999999592807
 51
90.0
  0
ARC
  5
12BF
330
1F
100
AcDbEntity
  8
製品
  6
CONTINUOUS
100
AcDbCircle
 10
260.8993641340929
 20
222.2951633575468
 30
0.0
 40
3.170781070700016
100
AcDbArc
 50
281.748807015901
 51
309.3288798895052
  0
LINE
  5
12C0
330
1F
100
AcDbEntity
  8
製品
  6
CONTINUOUS
100
AcDbLine
 10
251.5267997973927
 20
239.8467012565473
 30
0.0
 11
258.3474797076927
 21
233.0260213462473
 31
0.0
  0
LINE
  5
12C1
330
1F
100
AcDbEntity
  8
製品
  6
CONTINUOUS
100
AcDbLine
 10
251.5267997973927
 20
239.8467012565473
 30
0.0
 11
244.7061198870927
 21
246.6673811668474
 31
0.0
  0
ARC
  5
12C2
330
1F
100
AcDbEntity
  8
製品
  6
CONTINUOUS
100
AcDbCircle
 10
243.6454597152927
 20
245.6067209951473
 30
0.0
 40
1.499999999999946
100
AcDbArc
 50
45.00000000000777
 51
71.56505117710631
  0
ARC
  5
12C3
330
1F
100
AcDbEntity
  8
製品
  6
CONTINUOUS
100
AcDbCircle
 10
257.2868195359927
 20
231.9653611744473
 30
0.0
 40
1.499999999999946
100
AcDbArc
 50
18.43494882289665
 51
44.9999999999905
  0
ENDSEC
  0
SECTION
  2
OBJECTS
  0
DICTIONARY
  5
C
330
0
100
AcDbDictionary
  3
ACAD_GROUP
350
D
  3
ACAD_LAYOUT
350
1A
  3
ACAD_MLINESTYLE
350
17
  3
ACAD_PLOTSETTINGS
350
19
  3
ACAD_PLOTSTYLENAME
350
E
  3
ACDBHEADERROUNDTRIPXREC
350
1382
  0
DICTIONARY
  5
978
330
1F
100
AcDbDictionary
280
     1
  3
ACAD_LAYOUTSELFREF
360
13A4
  0
DICTIONARY
  5
97A
330
1B
100
AcDbDictionary
280
     1
  3
ACAD_LAYOUTSELFREF
360
13A3
  0
DICTIONARY
  5
D
102
{ACAD_REACTORS
330
C
102
}
330
C
100
AcDbDictionary
  0
DICTIONARY
  5
1A
102
{ACAD_REACTORS
330
C
102
}
330
C
100
AcDbDictionary
  0
DICTIONARY
  5
17
102
{ACAD_REACTORS
330
C
102
}
330
C
100
AcDbDictionary
  3
STANDARD
350
18
  0
DICTIONARY
  5
19
102
{ACAD_REACTORS
330
C
102
}
330
C
100
AcDbDictionary
  0
ACDBDICTIONARYWDFLT
  5
E
102
{ACAD_REACTORS
330
C
102
}
330
C
100
AcDbDictionary
281
     1
  3
Normal
350
F
100
AcDbDictionaryWithDefault
340
F
1001
ACAD
1000
TREAT_AS_HARD
1070
     0
1000
TREAT_AS_HARD
1070
     0
1000
TREAT_AS_HARD
1070
     0
1000
TREAT_AS_HARD
1070
     0
1000
TREAT_AS_HARD
1070
     0
1000
TREAT_AS_HARD
1070
     0
  0
DICTIONARY
  5
1382
102
{ACAD_REACTORS
330
C
102
}
330
C
100
AcDbDictionary
  3
TSTACKALIGN
350
1383
  3
TSTACKSIZE
350
1384
  3
HYPERLINKBASE
350
1385
  3
STYLESHEET
350
1386
  3
LAYOUTDICT
350
1387
  3
PLOTSETDICT
350
1388
  3
PLOTSTYLNAMDICT
350
1389
  3
LWETCUNION
350
138A
  3
INSUNITS
350
138B
  3
CEPSNTYPE
350
138C
  3
FINGERPRINTGUID
350
138D
  3
VERSIONGUID
350
138E
  3
PSVPSCALE
350
138F
  3
DIMSTYLEDATA
350
1390
  3
PUCSORTHOREF
350
1391
  3
PUCSORTHOVIEW
350
1392
  3
PUCSBASE
350
1393
  3
PUCSORGTOP
350
1394
  3
PUCSORGBOTTOM
350
1395
  3
PUCSORGLEFT
350
1396
  3
PUCSORGRIGHT
350
1397
  3
PUCSORGFRONT
350
1398
  3
PUCSORGBACK
350
1399
  3
UCSORTHOREF
350
139A
  3
UCSORTHOVIEW
350
139B
  3
UCSBASE
350
139C
  3
UCSORGTOP
350
139D
  3
UCSORGBOTTOM
350
139E
  3
UCSORGLEFT
350
139F
  3
UCSORGRIGHT
350
13A0
  3
UCSORGFRONT
350
13A1
  3
UCSORGBACK
350
13A2
  0
XRECORD
  5
13A4
102
{ACAD_REACTORS
330
978
102
}
330
978
100
AcDbXrecord
340
1F
  0
XRECORD
  5
13A3
102
{ACAD_REACTORS
330
97A
102
}
330
97A
100
AcDbXrecord
340
1B
  0
MLINESTYLE
  5
18
102
{ACAD_REACTORS
330
17
102
}
330
17
100
AcDbMlineStyle
  2
STANDARD
 70
     0
  3

 62
   256
 51
90.0
 52
90.0
 71
     2
 49
0.5
 62
   256
  6
BYLAYER
 49
-0.5
 62
   256
  6
BYLAYER
  0
ACDBPLACEHOLDER
  5
F
102
{ACAD_REACTORS
330
E
102
}
330
E
100
AcDbPlaceHolder
280
     0
  0
XRECORD
  5
1383
102
{ACAD_REACTORS
330
1382
102
}
330
1382
100
AcDbXrecord
 90
        1
  0
XRECORD
  5
1384
102
{ACAD_REACTORS
330
1382
102
}
330
1382
100
AcDbXrecord
 90
       70
  0
XRECORD
  5
1385
102
{ACAD_REACTORS
330
1382
102
}
330
1382
100
AcDbXrecord
  1

  0
XRECORD
  5
1386
102
{ACAD_REACTORS
330
1382
102
}
330
1382
100
AcDbXrecord
  1
systemprinter.ctb
  0
XRECORD
  5
1387
102
{ACAD_REACTORS
330
1382
102
}
330
1382
100
AcDbXrecord
340
1A
  0
XRECORD
  5
1388
102
{ACAD_REACTORS
330
1382
102
}
330
1382
100
AcDbXrecord
340
19
  0
XRECORD
  5
1389
102
{ACAD_REACTORS
330
1382
102
}
330
1382
100
AcDbXrecord
340
E
  0
XRECORD
  5
138A
102
{ACAD_REACTORS
330
1382
102
}
330
1382
100
AcDbXrecord
 90
    10781
  0
XRECORD
  5
138B
102
{ACAD_REACTORS
330
1382
102
}
330
1382
100
AcDbXrecord
 90
        4
  0
XRECORD
  5
138C
102
{ACAD_REACTORS
330
1382
102
}
330
1382
100
AcDbXrecord
 90
        0
  0
XRECORD
  5
138D
102
{ACAD_REACTORS
330
1382
102
}
330
1382
100
AcDbXrecord
  1
{C83CF854-1435-4197-B768-7EEC93491B11}
  0
XRECORD
  5
138E
102
{ACAD_REACTORS
330
1382
102
}
330
1382
100
AcDbXrecord
  1
{AF17684C-19DF-4F5D-B398-6884CF0CD2CC}
  0
XRECORD
  5
138F
102
{ACAD_REACTORS
330
1382
102
}
330
1382
100
AcDbXrecord
 40
0.0
  0
XRECORD
  5
1390
102
{ACAD_REACTORS
330
1382
102
}
330
1382
100
AcDbXrecord
1000
DSTYLE
1002
{
1070
   341
340
422
1070
   342
340
422
1070
   371
 70
    -1
1070
   372
 70
    -1
1002
}
  0
XRECORD
  5
1391
102
{ACAD_REACTORS
330
1382
102
}
330
1382
100
AcDbXrecord
340
0
  0
XRECORD
  5
1392
102
{ACAD_REACTORS
330
1382
102
}
330
1382
100
AcDbXrecord
 70
     0
  0
XRECORD
  5
1393
102
{ACAD_REACTORS
330
1382
102
}
330
1382
100
AcDbXrecord
340
0
  0
XRECORD
  5
1394
102
{ACAD_REACTORS
330
1382
102
}
330
1382
100
AcDbXrecord
 10
0.0
 20
0.0
 30
0.0
  0
XRECORD
  5
1395
102
{ACAD_REACTORS
330
1382
102
}
330
1382
100
AcDbXrecord
 10
0.0
 20
0.0
 30
0.0
  0
XRECORD
  5
1396
102
{ACAD_REACTORS
330
1382
102
}
330
1382
100
AcDbXrecord
 10
0.0
 20
0.0
 30
0.0
  0
XRECORD
  5
1397
102
{ACAD_REACTORS
330
1382
102
}
330
1382
100
AcDbXrecord
 10
0.0
 20
0.0
 30
0.0
  0
XRECORD
  5
1398
102
{ACAD_REACTORS
330
1382
102
}
330
1382
100
AcDbXrecord
 10
0.0
 20
0.0
 30
0.0
  0
XRECORD
  5
1399
102
{ACAD_REACTORS
330
1382
102
}
330
1382
100
AcDbXrecord
 10
0.0
 20
0.0
 30
0.0
  0
XRECORD
  5
139A
102
{ACAD_REACTORS
330
1382
102
}
330
1382
100
AcDbXrecord
340
0
  0
XRECORD
  5
139B
102
{ACAD_REACTORS
330
1382
102
}
330
1382
100
AcDbXrecord
 70
     0
  0
XRECORD
  5
139C
102
{ACAD_REACTORS
330
1382
102
}
330
1382
100
AcDbXrecord
340
0
  0
XRECORD
  5
139D
102
{ACAD_REACTORS
330
1382
102
}
330
1382
100
AcDbXrecord
 10
0.0
 20
0.0
 30
0.0
  0
XRECORD
  5
139E
102
{ACAD_REACTORS
330
1382
102
}
330
1382
100
AcDbXrecord
 10
0.0
 20
0.0
 30
0.0
  0
XRECORD
  5
139F
102
{ACAD_REACTORS
330
1382
102
}
330
1382
100
AcDbXrecord
 10
0.0
 20
0.0
 30
0.0
  0
XRECORD
  5
13A0
102
{ACAD_REACTORS
330
1382
102
}
330
1382
100
AcDbXrecord
 10
0.0
 20
0.0
 30
0.0
  0
XRECORD
  5
13A1
102
{ACAD_REACTORS
330
1382
102
}
330
1382
100
AcDbXrecord
 10
0.0
 20
0.0
 30
0.0
  0
XRECORD
  5
13A2
102
{ACAD_REACTORS
330
1382
102
}
330
1382
100
AcDbXrecord
 10
0.0
 20
0.0
 30
0.0
  0
ENDSEC
  0
EOF
