  0
SECTION
  2
HEADER
  9
$ACADVER
  1
AC1014
  9
$ACADMAINTVER
 70
     9
  9
$DWGCODEPAGE
  3
ANSI_932
  9
$INSBASE
 10
0.0
 20
0.0
 30
0.0
  9
$EXTMIN
 10
-0.0256328098773793
 20
-0.0181262941630394
 30
-0.0015258207003583
  9
$EXTMAX
 10
797.6000995626677
 20
551.6452344711938
 30
0.0000000349246037
  9
$LIMMIN
 10
0.0
 20
0.0
  9
$LIMMAX
 10
840.0
 20
594.0
  9
$ORTHOMODE
 70
     0
  9
$REGENMODE
 70
     1
  9
$FILLMODE
 70
     1
  9
$QTEXTMODE
 70
     0
  9
$MIRRTEXT
 70
     1
  9
$DRAGMODE
 70
     2
  9
$LTSCALE
 40
2.0
  9
$OSMODE
 70
    35
  9
$ATTMODE
 70
     1
  9
$TEXTSIZE
 40
5.0
  9
$TRACEWID
 40
1.0
  9
$TEXTSTYLE
  7
STANDARD
  9
$CLAYER
  8
SUNPOU
  9
$CELTYPE
  6
BYLAYER
  9
$CECOLOR
 62
   256
  9
$CELTSCALE
 40
1.0
  9
$DELOBJ
 70
     1
  9
$DISPSILH
 70
     0
  9
$DIMSCALE
 40
1.0
  9
$DIMASZ
 40
7.0
  9
$DIMEXO
 40
6.0
  9
$DIMDLI
 40
14.0
  9
$DIMRND
 40
0.0
  9
$DIMDLE
 40
0.0
  9
$DIMEXE
 40
3.0
  9
$DIMTP
 40
0.0
  9
$DIMTM
 40
0.0
  9
$DIMTXT
 40
6.0
  9
$DIMCEN
 40
150.0
  9
$DIMTSZ
 40
0.0
  9
$DIMTOL
 70
     0
  9
$DIMLIM
 70
     0
  9
$DIMTIH
 70
     0
  9
$DIMTOH
 70
     0
  9
$DIMSE1
 70
     0
  9
$DIMSE2
 70
     0
  9
$DIMTAD
 70
     3
  9
$DIMZIN
 70
     0
  9
$DIMBLK
  1

  9
$DIMASO
 70
     1
  9
$DIMSHO
 70
     1
  9
$DIMPOST
  1

  9
$DIMAPOST
  1

  9
$DIMALT
 70
     0
  9
$DIMALTD
 70
     2
  9
$DIMALTF
 40
25.4
  9
$DIMLFAC
 40
1.0
  9
$DIMTOFL
 70
     1
  9
$DIMTVP
 40
0.0
  9
$DIMTIX
 70
     0
  9
$DIMSOXD
 70
     0
  9
$DIMSAH
 70
     1
  9
$DIMBLK1
  1
OPEN
  9
$DIMBLK2
  1
OPEN
  9
$DIMSTYLE
  2
STANDARD
  9
$DIMCLRD
 70
   256
  9
$DIMCLRE
 70
   256
  9
$DIMCLRT
 70
   256
  9
$DIMTFAC
 40
1.0
  9
$DIMGAP
 40
2.0
  9
$DIMJUST
 70
     0
  9
$DIMSD1
 70
     0
  9
$DIMSD2
 70
     0
  9
$DIMTOLJ
 70
     1
  9
$DIMTZIN
 70
     0
  9
$DIMALTZ
 70
     0
  9
$DIMALTTZ
 70
     0
  9
$DIMFIT
 70
     5
  9
$DIMUPT
 70
     0
  9
$DIMUNIT
 70
     2
  9
$DIMDEC
 70
     0
  9
$DIMTDEC
 70
     0
  9
$DIMALTU
 70
     2
  9
$DIMALTTD
 70
     2
  9
$DIMTXSTY
  7
STANDARD
  9
$DIMAUNIT
 70
     0
  9
$LUNITS
 70
     2
  9
$LUPREC
 70
     4
  9
$SKETCHINC
 40
1.0
  9
$FILLETRAD
 40
1.0
  9
$AUNITS
 70
     0
  9
$AUPREC
 70
     0
  9
$MENU
  1
.
  9
$ELEVATION
 40
0.0
  9
$PELEVATION
 40
0.0
  9
$THICKNESS
 40
0.0
  9
$LIMCHECK
 70
     0
  9
$BLIPMODE
 70
     0
  9
$CHAMFERA
 40
0.0
  9
$CHAMFERB
 40
0.0
  9
$CHAMFERC
 40
40.0
  9
$CHAMFERD
 40
0.0
  9
$SKPOLY
 70
     0
  9
$TDCREATE
 40
2451212.627488426
  9
$TDUPDATE
 40
2454216.497328553
  9
$TDINDWG
 40
0.1460649306
  9
$TDUSRTIMER
 40
0.1460649306
  9
$USRTIMER
 70
     1
  9
$ANGBASE
 50
0.0
  9
$ANGDIR
 70
     0
  9
$PDMODE
 70
     0
  9
$PDSIZE
 40
0.0
  9
$PLINEWID
 40
0.0
  9
$COORDS
 70
     0
  9
$SPLFRAME
 70
     0
  9
$SPLINETYPE
 70
     6
  9
$SPLINESEGS
 70
     8
  9
$ATTDIA
 70
     0
  9
$ATTREQ
 70
     1
  9
$HANDLING
 70
 10241
  9
$HANDSEED
  5
373F
  9
$SURFTAB1
 70
     6
  9
$SURFTAB2
 70
     6
  9
$SURFTYPE
 70
     6
  9
$SURFU
 70
     6
  9
$SURFV
 70
     6
  9
$UCSNAME
  2

  9
$UCSORG
 10
0.0
 20
0.0
 30
0.0
  9
$UCSXDIR
 10
1.0
 20
0.0
 30
0.0
  9
$UCSYDIR
 10
0.0
 20
1.0
 30
0.0
  9
$PUCSNAME
  2

  9
$PUCSORG
 10
0.0
 20
0.0
 30
0.0
  9
$PUCSXDIR
 10
1.0
 20
0.0
 30
0.0
  9
$PUCSYDIR
 10
0.0
 20
1.0
 30
0.0
  9
$USERI1
 70
     0
  9
$USERI2
 70
     0
  9
$USERI3
 70
     0
  9
$USERI4
 70
     0
  9
$USERI5
 70
     0
  9
$USERR1
 40
0.0
  9
$USERR2
 40
0.0
  9
$USERR3
 40
0.0
  9
$USERR4
 40
0.0
  9
$USERR5
 40
0.0
  9
$WORLDVIEW
 70
     1
  9
$SHADEDGE
 70
     3
  9
$SHADEDIF
 70
    70
  9
$TILEMODE
 70
     1
  9
$MAXACTVP
 70
    16
  9
$PINSBASE
 10
0.0
 20
0.0
 30
0.0
  9
$PLIMCHECK
 70
     0
  9
$PEXTMIN
 10
0.0
 20
0.0
 30
0.0
  9
$PEXTMAX
 10
420.0
 20
297.0
 30
0.0
  9
$PLIMMIN
 10
0.0
 20
0.0
  9
$PLIMMAX
 10
420.0
 20
297.0
  9
$UNITMODE
 70
     0
  9
$VISRETAIN
 70
     0
  9
$PLINEGEN
 70
     0
  9
$PSLTSCALE
 70
     1
  9
$TREEDEPTH
 70
  3020
  9
$PICKSTYLE
 70
     1
  9
$CMLSTYLE
  2
STANDARD
  9
$CMLJUST
 70
     0
  9
$CMLSCALE
 40
1.0
  9
$PROXYGRAPHICS
 70
     1
  9
$MEASUREMENT
 70
     1
  0
ENDSEC
  0
SECTION
  2
CLASSES
  0
CLASS
  1
ACDBDICTIONARYWDFLT
  2
AcDbDictionaryWithDefault
  3
AutoCAD 2000
 90
        0
280
     0
281
     0
  0
CLASS
  1
ACDBPLACEHOLDER
  2
AcDbPlaceHolder
  3
AutoCAD 2000
 90
        0
280
     0
281
     0
  0
CLASS
  1
LAYOUT
  2
AcDbLayout
  3
AutoCAD 2000
 90
        0
280
     0
281
     0
  0
CLASS
  1
LONG_TRANSACTION
  2
AcDbLongTransaction
  3
AutoCAD 2000
 90
        0
280
     0
281
     0
  0
CLASS
  1
LWPOLYLINE
  2
AcDbPolyline
  3
AutoCAD 2000
 90
        0
280
     0
281
     1
  0
CLASS
  1
HATCH
  2
AcDbHatch
  3
AutoCAD 2000
 90
        0
280
     0
281
     1
  0
CLASS
  1
XRECORD
  2
AcDbXrecord
  3
AutoCAD 2000
 90
        0
280
     0
281
     0
  0
CLASS
  1
LONG_TRANSACTION
  2
AcDbLongTransaction
  3
AutoCAD 2000
 90
        0
280
     0
281
     0
  0
CLASS
  1
LWPOLYLINE
  2
AcDbPolyline
  3
AutoCAD 2000
 90
        0
280
     0
281
     1
  0
CLASS
  1
HATCH
  2
AcDbHatch
  3
AutoCAD 2000
 90
        0
280
     0
281
     1
  0
CLASS
  1
XRECORD
  2
AcDbXrecord
  3
AutoCAD 2000
 90
        0
280
     0
281
     0
  0
CLASS
  1
LONG_TRANSACTION
  2
AcDbLongTransaction
  3
AutoCAD 2000
 90
        0
280
     0
281
     0
  0
CLASS
  1
LWPOLYLINE
  2
AcDbPolyline
  3
AutoCAD 2000
 90
        0
280
     0
281
     1
  0
CLASS
  1
HATCH
  2
AcDbHatch
  3
AutoCAD 2000
 90
        0
280
     0
281
     1
  0
CLASS
  1
XRECORD
  2
AcDbXrecord
  3
AutoCAD 2000
 90
        0
280
     0
281
     0
  0
CLASS
  1
LONG_TRANSACTION
  2
AcDbLongTransaction
  3
AutoCAD 2000
 90
        0
280
     0
281
     0
  0
CLASS
  1
LWPOLYLINE
  2
AcDbPolyline
  3
AutoCAD 2000
 90
        0
280
     0
281
     1
  0
CLASS
  1
HATCH
  2
AcDbHatch
  3
AutoCAD 2000
 90
        0
280
     0
281
     1
  0
CLASS
  1
XRECORD
  2
AcDbXrecord
  3
AutoCAD 2000
 90
        0
280
     0
281
     0
  0
CLASS
  1
LONG_TRANSACTION
  2
AcDbLongTransaction
  3
AutoCAD 2000
 90
        0
280
     0
281
     0
  0
CLASS
  1
LWPOLYLINE
  2
AcDbPolyline
  3
AutoCAD 2000
 90
        0
280
     0
281
     1
  0
CLASS
  1
HATCH
  2
AcDbHatch
  3
AutoCAD 2000
 90
        0
280
     0
281
     1
  0
CLASS
  1
XRECORD
  2
AcDbXrecord
  3
AutoCAD 2000
 90
        0
280
     0
281
     0
  0
CLASS
  1
LONG_TRANSACTION
  2
AcDbLongTransaction
  3
AutoCAD 2000
 90
        0
280
     0
281
     0
  0
CLASS
  1
LWPOLYLINE
  2
AcDbPolyline
  3
AutoCAD 2000
 90
        0
280
     0
281
     1
  0
CLASS
  1
HATCH
  2
AcDbHatch
  3
AutoCAD 2000
 90
        0
280
     0
281
     1
  0
CLASS
  1
XRECORD
  2
AcDbXrecord
  3
AutoCAD 2000
 90
        0
280
     0
281
     0
  0
CLASS
  1
LONG_TRANSACTION
  2
AcDbLongTransaction
  3
AutoCAD 2000
 90
        0
280
     0
281
     0
  0
CLASS
  1
LWPOLYLINE
  2
AcDbPolyline
  3
AutoCAD 2000
 90
        0
280
     0
281
     1
  0
CLASS
  1
HATCH
  2
AcDbHatch
  3
AutoCAD 2000
 90
        0
280
     0
281
     1
  0
CLASS
  1
XRECORD
  2
AcDbXrecord
  3
AutoCAD 2000
 90
        0
280
     0
281
     0
  0
CLASS
  1
LONG_TRANSACTION
  2
AcDbLongTransaction
  3
AutoCAD 2000
 90
        0
280
     0
281
     0
  0
CLASS
  1
LWPOLYLINE
  2
AcDbPolyline
  3
AutoCAD 2000
 90
        0
280
     0
281
     1
  0
CLASS
  1
HATCH
  2
AcDbHatch
  3
AutoCAD 2000
 90
        0
280
     0
281
     1
  0
CLASS
  1
XRECORD
  2
AcDbXrecord
  3
AutoCAD 2000
 90
        0
280
     0
281
     0
  0
CLASS
  1
LONG_TRANSACTION
  2
AcDbLongTransaction
  3
AutoCAD 2000
 90
        0
280
     0
281
     0
  0
CLASS
  1
LWPOLYLINE
  2
AcDbPolyline
  3
AutoCAD 2000
 90
        0
280
     0
281
     1
  0
CLASS
  1
HATCH
  2
AcDbHatch
  3
AutoCAD 2000
 90
        0
280
     0
281
     1
  0
CLASS
  1
XRECORD
  2
AcDbXrecord
  3
AutoCAD 2000
 90
        0
280
     0
281
     0
  0
CLASS
  1
LONG_TRANSACTION
  2
AcDbLongTransaction
  3
AutoCAD 2000
 90
        0
280
     0
281
     0
  0
CLASS
  1
LWPOLYLINE
  2
AcDbPolyline
  3
AutoCAD 2000
 90
        0
280
     0
281
     1
  0
CLASS
  1
HATCH
  2
AcDbHatch
  3
AutoCAD 2000
 90
        0
280
     0
281
     1
  0
CLASS
  1
XRECORD
  2
AcDbXrecord
  3
AutoCAD 2000
 90
        0
280
     0
281
     0
  0
CLASS
  1
LONG_TRANSACTION
  2
AcDbLongTransaction
  3
AutoCAD 2000
 90
        0
280
     0
281
     0
  0
CLASS
  1
LWPOLYLINE
  2
AcDbPolyline
  3
AutoCAD 2000
 90
        0
280
     0
281
     1
  0
CLASS
  1
HATCH
  2
AcDbHatch
  3
AutoCAD 2000
 90
        0
280
     0
281
     1
  0
CLASS
  1
XRECORD
  2
AcDbXrecord
  3
AutoCAD 2000
 90
        0
280
     0
281
     0
  0
CLASS
  1
LONG_TRANSACTION
  2
AcDbLongTransaction
  3
AutoCAD 2000
 90
        0
280
     0
281
     0
  0
CLASS
  1
LWPOLYLINE
  2
AcDbPolyline
  3
AutoCAD 2000
 90
        0
280
     0
281
     1
  0
CLASS
  1
HATCH
  2
AcDbHatch
  3
AutoCAD 2000
 90
        0
280
     0
281
     1
  0
CLASS
  1
XRECORD
  2
AcDbXrecord
  3
AutoCAD 2000
 90
        0
280
     0
281
     0
  0
CLASS
  1
LONG_TRANSACTION
  2
AcDbLongTransaction
  3
AutoCAD 2000
 90
        0
280
     0
281
     0
  0
CLASS
  1
LWPOLYLINE
  2
AcDbPolyline
  3
AutoCAD 2000
 90
        0
280
     0
281
     1
  0
CLASS
  1
HATCH
  2
AcDbHatch
  3
AutoCAD 2000
 90
        0
280
     0
281
     1
  0
CLASS
  1
XRECORD
  2
AcDbXrecord
  3
AutoCAD 2000
 90
        0
280
     0
281
     0
  0
CLASS
  1
LONG_TRANSACTION
  2
AcDbLongTransaction
  3
AutoCAD 2000
 90
        0
280
     0
281
     0
  0
CLASS
  1
LWPOLYLINE
  2
AcDbPolyline
  3
AutoCAD 2000
 90
        0
280
     0
281
     1
  0
CLASS
  1
HATCH
  2
AcDbHatch
  3
AutoCAD 2000
 90
        0
280
     0
281
     1
  0
CLASS
  1
XRECORD
  2
AcDbXrecord
  3
AutoCAD 2000
 90
        0
280
     0
281
     0
  0
CLASS
  1
LONG_TRANSACTION
  2
AcDbLongTransaction
  3
AutoCAD 2000
 90
        0
280
     0
281
     0
  0
CLASS
  1
LWPOLYLINE
  2
AcDbPolyline
  3
AutoCAD 2000
 90
        0
280
     0
281
     1
  0
CLASS
  1
HATCH
  2
AcDbHatch
  3
AutoCAD 2000
 90
        0
280
     0
281
     1
  0
CLASS
  1
XRECORD
  2
AcDbXrecord
  3
AutoCAD 2000
 90
        0
280
     0
281
     0
  0
CLASS
  1
LONG_TRANSACTION
  2
AcDbLongTransaction
  3
AutoCAD 2000
 90
        0
280
     0
281
     0
  0
CLASS
  1
LWPOLYLINE
  2
AcDbPolyline
  3
AutoCAD 2000
 90
        0
280
     0
281
     1
  0
CLASS
  1
HATCH
  2
AcDbHatch
  3
AutoCAD 2000
 90
        0
280
     0
281
     1
  0
CLASS
  1
XRECORD
  2
AcDbXrecord
  3
AutoCAD 2000
 90
        0
280
     0
281
     0
  0
CLASS
  1
LONG_TRANSACTION
  2
AcDbLongTransaction
  3
AutoCAD 2000
 90
        0
280
     0
281
     0
  0
CLASS
  1
LWPOLYLINE
  2
AcDbPolyline
  3
AutoCAD 2000
 90
        0
280
     0
281
     1
  0
CLASS
  1
HATCH
  2
AcDbHatch
  3
AutoCAD 2000
 90
        0
280
     0
281
     1
  0
CLASS
  1
XRECORD
  2
AcDbXrecord
  3
AutoCAD 2000
 90
        0
280
     0
281
     0
  0
ENDSEC
  0
SECTION
  2
TABLES
  0
TABLE
  2
VPORT
  5
8
330
0
100
AcDbSymbolTable
 70
     2
  0
VPORT
  5
36AD
330
8
100
AcDbSymbolTableRecord
100
AcDbViewportTableRecord
  2
*ACTIVE
 70
     0
 10
0.0
 20
0.0
 11
1.0
 21
1.0
 12
432.6634239533079
 22
304.536385206752
 13
0.0
 23
0.0
 14
5.0
 24
5.0
 15
0.0
 25
0.0
 16
0.0
 26
0.0
 36
1.0
 17
0.0
 27
0.0
 37
0.0
 40
708.0912601249317
 41
1.566326530612245
 42
50.0
 43
0.0
 44
0.0
 50
0.0
 51
0.0
 71
     0
 72
   100
 73
     1
 74
     0
 75
     0
 76
     0
 77
     0
 78
     0
  0
ENDTAB
  0
TABLE
  2
LTYPE
  5
5
330
0
100
AcDbSymbolTable
 70
     3
  0
LTYPE
  5
14
330
5
100
AcDbSymbolTableRecord
100
AcDbLinetypeTableRecord
  2
BYBLOCK
 70
     0
  3

 72
    65
 73
     0
 40
0.0
  0
LTYPE
  5
15
330
5
100
AcDbSymbolTableRecord
100
AcDbLinetypeTableRecord
  2
BYLAYER
 70
     0
  3

 72
    65
 73
     0
 40
0.0
  0
LTYPE
  5
16
330
5
100
AcDbSymbolTableRecord
100
AcDbLinetypeTableRecord
  2
CONTINUOUS
 70
     0
  3
Solid line
 72
    65
 73
     0
 40
0.0
  0
LTYPE
  5
115
330
5
100
AcDbSymbolTableRecord
100
AcDbLinetypeTableRecord
  2
PHANTOM
 70
     0
  3
______  __  __  ______  __  __  ______  __  __ 
 72
    65
 73
     6
 40
2.5
 49
1.25
 74
     0
 49
-0.25
 74
     0
 49
0.25
 74
     0
 49
-0.25
 74
     0
 49
0.25
 74
     0
 49
-0.25
 74
     0
  0
LTYPE
  5
135
330
5
100
AcDbSymbolTableRecord
100
AcDbLinetypeTableRecord
  2
CENTER
 70
     0
  3
____ _ ____ _ ____ _ ____ _ ____ _ ____ _ ____ 
 72
    65
 73
     4
 40
2.0
 49
1.25
 74
     0
 49
-0.25
 74
     0
 49
0.25
 74
     0
 49
-0.25
 74
     0
  0
ENDTAB
  0
TABLE
  2
LAYER
  5
2
330
0
100
AcDbSymbolTable
 70
     9
  0
LAYER
  5
F
330
2
100
AcDbSymbolTableRecord
100
AcDbLayerTableRecord
  2
0
 70
     0
 62
     7
  6
CONTINUOUS
  0
LAYER
  5
62
330
2
100
AcDbSymbolTableRecord
100
AcDbLayerTableRecord
  2
VIEWPORT
 70
     0
 62
     7
  6
CONTINUOUS
  0
LAYER
  5
65
330
2
100
AcDbSymbolTableRecord
100
AcDbLayerTableRecord
  2
ZUWAKU
 70
     0
 62
     7
  6
CONTINUOUS
  0
LAYER
  5
144
330
2
100
AcDbSymbolTableRecord
100
AcDbLayerTableRecord
  2
SEIHIN
 70
     0
 62
     3
  6
CONTINUOUS
  0
LAYER
  5
3C0
330
2
100
AcDbSymbolTableRecord
100
AcDbLayerTableRecord
  2
SUNPOU
 70
     0
 62
     4
  6
CONTINUOUS
  0
LAYER
  5
3C1
330
2
100
AcDbSymbolTableRecord
100
AcDbLayerTableRecord
  2
DEFPOINTS
 70
     0
 62
     7
  6
CONTINUOUS
  0
LAYER
  5
2010
330
2
100
AcDbSymbolTableRecord
100
AcDbLayerTableRecord
  2
NOKITOI
 70
     0
 62
     9
  6
PHANTOM
  0
LAYER
  5
2E42
330
2
100
AcDbSymbolTableRecord
100
AcDbLayerTableRecord
  2
MOJI
 70
     0
 62
     2
  6
CONTINUOUS
  0
LAYER
  5
30E0
330
2
100
AcDbSymbolTableRecord
100
AcDbLayerTableRecord
  2
CENTER_L
 70
     0
 62
     1
  6
CENTER
  0
ENDTAB
  0
TABLE
  2
STYLE
  5
3
330
0
100
AcDbSymbolTable
 70
     2
  0
STYLE
  5
10
330
3
100
AcDbSymbolTableRecord
100
AcDbTextStyleTableRecord
  2
STANDARD
 70
     0
 40
0.0
 41
1.0
 50
0.0
 71
     0
 42
5.0
  3
TXT
  4
bigfont.shx
  0
STYLE
  5
2E43
330
3
100
AcDbSymbolTableRecord
100
AcDbTextStyleTableRecord
  2
ｽﾀｲﾙ1
 70
     0
 40
0.0
 41
1.0
 50
0.0
 71
     0
 42
2.5
  3
MS PGothic.ttf
  4

1001
ACAD
1000
MS PGothic
1071
    32818
  0
ENDTAB
  0
TABLE
  2
VIEW
  5
6
330
0
100
AcDbSymbolTable
 70
     0
  0
ENDTAB
  0
TABLE
  2
UCS
  5
7
330
0
100
AcDbSymbolTable
 70
     0
  0
ENDTAB
  0
TABLE
  2
APPID
  5
9
330
0
100
AcDbSymbolTable
 70
     1
  0
APPID
  5
11
330
9
100
AcDbSymbolTableRecord
100
AcDbRegAppTableRecord
  2
ACAD
 70
     0
  0
ENDTAB
  0
TABLE
  2
DIMSTYLE
  5
A
330
0
100
AcDbSymbolTable
 70
     1
  0
DIMSTYLE
105
1D
102
{ACAD_REACTORS
330
330F
330
3350
330
33C0
330
33DE
330
3401
330
3402
330
3403
330
3404
330
3408
330
340D
330
3421
330
3425
102
}
330
A
100
AcDbSymbolTableRecord
100
AcDbDimStyleTableRecord
  2
STANDARD
 70
     0
  3

  4

  5

  6

  7

 40
1.0
 41
0.18
 42
0.0625
 43
0.38
 44
0.18
 45
0.0
 46
0.0
 47
0.0
 48
0.0
140
0.18
141
0.09
142
0.0
143
25.4
144
1.0
145
0.0
146
1.0
147
0.09
 71
     0
 72
     0
 73
     1
 74
     1
 75
     0
 76
     0
 77
     0
 78
     0
170
     0
171
     2
172
     0
173
     0
174
     0
175
     0
176
     0
177
     0
178
     0
270
     2
271
     4
272
     4
273
     2
274
     2
340
10
275
     0
280
     0
281
     0
282
     0
283
     1
284
     0
285
     0
286
     0
287
     3
288
     0
  0
ENDTAB
  0
TABLE
  2
BLOCK_RECORD
  5
1
330
0
100
AcDbSymbolTable
 70
    13
  0
BLOCK_RECORD
  5
1A
102
{ACAD_XDICTIONARY
360
AD2
102
}
330
1
100
AcDbSymbolTableRecord
100
AcDbBlockTableRecord
  2
*MODEL_SPACE
  0
BLOCK_RECORD
  5
17
102
{ACAD_XDICTIONARY
360
AD0
102
}
330
1
100
AcDbSymbolTableRecord
100
AcDbBlockTableRecord
  2
*PAPER_SPACE
  0
BLOCK_RECORD
  5
6D
330
1
100
AcDbSymbolTableRecord
100
AcDbBlockTableRecord
  2
_OPEN
  0
BLOCK_RECORD
  5
3539
330
1
100
AcDbSymbolTableRecord
100
AcDbBlockTableRecord
  2
*D1
  0
BLOCK_RECORD
  5
3545
330
1
100
AcDbSymbolTableRecord
100
AcDbBlockTableRecord
  2
*D2
  0
BLOCK_RECORD
  5
3551
330
1
100
AcDbSymbolTableRecord
100
AcDbBlockTableRecord
  2
*D3
  0
BLOCK_RECORD
  5
355D
330
1
100
AcDbSymbolTableRecord
100
AcDbBlockTableRecord
  2
*D4
  0
BLOCK_RECORD
  5
3569
330
1
100
AcDbSymbolTableRecord
100
AcDbBlockTableRecord
  2
*D5
  0
BLOCK_RECORD
  5
3575
330
1
100
AcDbSymbolTableRecord
100
AcDbBlockTableRecord
  2
*D6
  0
BLOCK_RECORD
  5
3581
330
1
100
AcDbSymbolTableRecord
100
AcDbBlockTableRecord
  2
*D7
  0
BLOCK_RECORD
  5
358D
330
1
100
AcDbSymbolTableRecord
100
AcDbBlockTableRecord
  2
*D8
  0
BLOCK_RECORD
  5
359B
330
1
100
AcDbSymbolTableRecord
100
AcDbBlockTableRecord
  2
*D9
  0
BLOCK_RECORD
  5
35A7
330
1
100
AcDbSymbolTableRecord
100
AcDbBlockTableRecord
  2
*D10
  0
BLOCK_RECORD
  5
35B3
330
1
100
AcDbSymbolTableRecord
100
AcDbBlockTableRecord
  2
*D11
  0
BLOCK_RECORD
  5
35BF
330
1
100
AcDbSymbolTableRecord
100
AcDbBlockTableRecord
  2
*D12
  0
ENDTAB
  0
ENDSEC
  0
SECTION
  2
BLOCKS
  0
BLOCK
  5
1B
330
1A
100
AcDbEntity
  8
0
100
AcDbBlockBegin
  2
*MODEL_SPACE
 70
     0
 10
0.0
 20
0.0
 30
0.0
  3
*MODEL_SPACE
  1

  0
ENDBLK
  5
1C
330
1A
100
AcDbEntity
  8
0
100
AcDbBlockEnd
  0
BLOCK
  5
18
330
17
100
AcDbEntity
 67
     1
  8
0
100
AcDbBlockBegin
  2
*PAPER_SPACE
 70
     0
 10
0.0
 20
0.0
 30
0.0
  3
*PAPER_SPACE
  1

  0
ENDBLK
  5
19
330
17
100
AcDbEntity
 67
     1
  8
0
100
AcDbBlockEnd
  0
BLOCK
  5
6E
330
6D
100
AcDbEntity
  8
0
100
AcDbBlockBegin
  2
_OPEN
 70
     0
 10
0.0
 20
0.0
 30
0.0
  3
_OPEN
  1

  0
LINE
  5
6F
330
6D
100
AcDbEntity
  8
0
  6
BYBLOCK
 62
     0
100
AcDbLine
 10
-1.0
 20
0.1666666666666666
 30
0.0
 11
0.0
 21
0.0
 31
0.0
  0
LINE
  5
70
330
6D
100
AcDbEntity
  8
0
  6
BYBLOCK
 62
     0
100
AcDbLine
 10
0.0
 20
0.0
 30
0.0
 11
-1.0
 21
-0.1666666666666666
 31
0.0
  0
LINE
  5
71
330
6D
100
AcDbEntity
  8
0
  6
BYBLOCK
 62
     0
100
AcDbLine
 10
0.0
 20
0.0
 30
0.0
 11
-1.0
 21
0.0
 31
0.0
  0
ENDBLK
  5
72
330
6D
100
AcDbEntity
  8
0
100
AcDbBlockEnd
  0
BLOCK
  5
3543
330
3539
100
AcDbEntity
  8
0
100
AcDbBlockBegin
  2
*D1
 70
     1
 10
0.0
 20
0.0
 30
0.0
  3
*D1
  1

  0
LINE
  5
36D1
330
3539
100
AcDbEntity
  8
SUNPOU
100
AcDbLine
 10
146.8354625488714
 20
281.0384282601728
 30
0.0
 11
146.8354625488714
 21
304.7147807328519
 31
0.0
  0
LINE
  5
36D2
330
3539
100
AcDbEntity
  8
SUNPOU
100
AcDbLine
 10
376.8354625488715
 20
281.0384282601728
 30
0.0
 11
376.8354625488715
 21
304.7147807328519
 31
0.0
  0
LINE
  5
36D3
330
3539
100
AcDbEntity
  8
SUNPOU
100
AcDbLine
 10
153.8354625488714
 20
301.714780732852
 30
0.0
 11
369.8354625488714
 21
301.714780732852
 31
0.0
  0
INSERT
  5
36D4
330
3539
100
AcDbEntity
  8
SUNPOU
100
AcDbBlockReference
  2
_OPEN
 10
146.8354625488714
 20
301.714780732852
 30
0.0
 41
7.0
 42
7.0
 43
7.0
 50
180.0
  0
INSERT
  5
36D5
330
3539
100
AcDbEntity
  8
SUNPOU
100
AcDbBlockReference
  2
_OPEN
 10
376.8354625488715
 20
301.714780732852
 30
0.0
 41
7.0
 42
7.0
 43
7.0
  0
MTEXT
  5
36D6
330
3539
100
AcDbEntity
  8
SUNPOU
100
AcDbMText
 10
261.8354625488714
 20
306.7147807328519
 30
0.0
 40
6.0
 41
0.0
 71
     5
 72
     1
  1
\A1;230
  0
POINT
  5
36D7
330
3539
100
AcDbEntity
  8
DEFPOINTS
 62
     0
100
AcDbPoint
 10
146.8354625488714
 20
275.0384282601728
 30
0.0
  0
POINT
  5
36D8
330
3539
100
AcDbEntity
  8
DEFPOINTS
 62
     0
100
AcDbPoint
 10
376.8354625488715
 20
275.0384282601728
 30
0.0
  0
POINT
  5
36D9
330
3539
100
AcDbEntity
  8
DEFPOINTS
 62
     0
100
AcDbPoint
 10
376.8354625488715
 20
301.714780732852
 30
0.0
  0
ENDBLK
  5
3544
330
3539
100
AcDbEntity
  8
0
100
AcDbBlockEnd
  0
BLOCK
  5
354F
330
3545
100
AcDbEntity
  8
0
100
AcDbBlockBegin
  2
*D2
 70
     1
 10
0.0
 20
0.0
 30
0.0
  3
*D2
  1

  0
LINE
  5
36DA
330
3545
100
AcDbEntity
  8
SUNPOU
100
AcDbLine
 10
219.3354625488714
 20
355.1891919636529
 30
0.0
 11
219.3354625488714
 21
333.7078522240454
 31
0.0
  0
LINE
  5
36DB
330
3545
100
AcDbEntity
  8
SUNPOU
100
AcDbLine
 10
304.3354625488714
 20
355.1891919636529
 30
0.0
 11
304.3354625488714
 21
333.7078522240454
 31
0.0
  0
LINE
  5
36DC
330
3545
100
AcDbEntity
  8
SUNPOU
100
AcDbLine
 10
226.3354625488714
 20
336.7078522240454
 30
0.0
 11
297.3354625488714
 21
336.7078522240454
 31
0.0
  0
INSERT
  5
36DD
330
3545
100
AcDbEntity
  8
SUNPOU
100
AcDbBlockReference
  2
_OPEN
 10
219.3354625488714
 20
336.7078522240454
 30
0.0
 41
7.0
 42
7.0
 43
7.0
 50
180.0
  0
INSERT
  5
36DE
330
3545
100
AcDbEntity
  8
SUNPOU
100
AcDbBlockReference
  2
_OPEN
 10
304.3354625488714
 20
336.7078522240454
 30
0.0
 41
7.0
 42
7.0
 43
7.0
  0
MTEXT
  5
36DF
330
3545
100
AcDbEntity
  8
SUNPOU
100
AcDbMText
 10
261.8354625488714
 20
341.7078522240454
 30
0.0
 40
6.0
 41
0.0
 71
     5
 72
     1
  1
\A1;85
  0
POINT
  5
36E0
330
3545
100
AcDbEntity
  8
DEFPOINTS
 62
     0
100
AcDbPoint
 10
219.3354625488714
 20
361.1891919636529
 30
0.0
  0
POINT
  5
36E1
330
3545
100
AcDbEntity
  8
DEFPOINTS
 62
     0
100
AcDbPoint
 10
304.3354625488714
 20
361.1891919636529
 30
0.0
  0
POINT
  5
36E2
330
3545
100
AcDbEntity
  8
DEFPOINTS
 62
     0
100
AcDbPoint
 10
304.3354625488714
 20
336.7078522240454
 30
0.0
  0
ENDBLK
  5
3550
330
3545
100
AcDbEntity
  8
0
100
AcDbBlockEnd
  0
BLOCK
  5
355B
330
3551
100
AcDbEntity
  8
0
100
AcDbBlockBegin
  2
*D3
 70
     1
 10
0.0
 20
0.0
 30
0.0
  3
*D3
  1

  0
LINE
  5
36E3
330
3551
100
AcDbEntity
  8
SUNPOU
100
AcDbLine
 10
304.3354625488714
 20
355.1891919636529
 30
0.0
 11
304.3354625488714
 21
333.7078522240454
 31
0.0
  0
LINE
  5
36E4
330
3551
100
AcDbEntity
  8
SUNPOU
100
AcDbLine
 10
376.8354625488719
 20
367.2466657365782
 30
0.0
 11
376.8354625488719
 21
333.7078522240454
 31
0.0
  0
LINE
  5
36E5
330
3551
100
AcDbEntity
  8
SUNPOU
100
AcDbLine
 10
311.3354625488714
 20
336.7078522240454
 30
0.0
 11
369.8354625488718
 21
336.7078522240454
 31
0.0
  0
INSERT
  5
36E6
330
3551
100
AcDbEntity
  8
SUNPOU
100
AcDbBlockReference
  2
_OPEN
 10
304.3354625488714
 20
336.7078522240454
 30
0.0
 41
7.0
 42
7.0
 43
7.0
 50
180.0
  0
INSERT
  5
36E7
330
3551
100
AcDbEntity
  8
SUNPOU
100
AcDbBlockReference
  2
_OPEN
 10
376.8354625488719
 20
336.7078522240454
 30
0.0
 41
7.0
 42
7.0
 43
7.0
  0
MTEXT
  5
36E8
330
3551
100
AcDbEntity
  8
SUNPOU
100
AcDbMText
 10
340.5854625488716
 20
341.7078522240454
 30
0.0
 40
6.0
 41
0.0
 71
     5
 72
     1
  1
\A1;\U+203B73
  0
POINT
  5
36E9
330
3551
100
AcDbEntity
  8
DEFPOINTS
 62
     0
100
AcDbPoint
 10
304.3354625488714
 20
361.1891919636529
 30
0.0
  0
POINT
  5
36EA
330
3551
100
AcDbEntity
  8
DEFPOINTS
 62
     0
100
AcDbPoint
 10
376.8354625488719
 20
373.2466657365782
 30
0.0
  0
POINT
  5
36EB
330
3551
100
AcDbEntity
  8
DEFPOINTS
 62
     0
100
AcDbPoint
 10
376.8354625488719
 20
336.7078522240454
 30
0.0
  0
ENDBLK
  5
355C
330
3551
100
AcDbEntity
  8
0
100
AcDbBlockEnd
  0
BLOCK
  5
3567
330
355D
100
AcDbEntity
  8
0
100
AcDbBlockBegin
  2
*D4
 70
     1
 10
0.0
 20
0.0
 30
0.0
  3
*D4
  1

  0
LINE
  5
36EC
330
355D
100
AcDbEntity
  8
SUNPOU
100
AcDbLine
 10
346.8354625488714
 20
446.1936381512274
 30
0.0
 11
346.8354625488714
 21
443.1936381512275
 31
0.0
  0
LINE
  5
36ED
330
355D
100
AcDbEntity
  8
SUNPOU
100
AcDbLine
 10
376.8354625488714
 20
446.1936381512274
 30
0.0
 11
376.8354625488714
 21
443.1936381512275
 31
0.0
  0
LINE
  5
36EE
330
355D
100
AcDbEntity
  8
SUNPOU
100
AcDbLine
 10
353.8354625488714
 20
440.1936381512275
 30
0.0
 11
369.8354625488714
 21
440.1936381512275
 31
0.0
  0
INSERT
  5
36EF
330
355D
100
AcDbEntity
  8
SUNPOU
100
AcDbBlockReference
  2
_OPEN
 10
346.8354625488714
 20
440.1936381512275
 30
0.0
 41
7.0
 42
7.0
 43
7.0
 50
180.0
  0
INSERT
  5
36F0
330
355D
100
AcDbEntity
  8
SUNPOU
100
AcDbBlockReference
  2
_OPEN
 10
376.8354625488714
 20
440.1936381512275
 30
0.0
 41
7.0
 42
7.0
 43
7.0
  0
MTEXT
  5
36F1
330
355D
100
AcDbEntity
  8
SUNPOU
100
AcDbMText
 10
361.8354625488714
 20
445.1936381512274
 30
0.0
 40
6.0
 41
0.0
 71
     5
 72
     1
  1
\A1;30
  0
POINT
  5
36F2
330
355D
100
AcDbEntity
  8
DEFPOINTS
 62
     0
100
AcDbPoint
 10
346.8354625488714
 20
440.1936381512275
 30
0.0
  0
POINT
  5
36F3
330
355D
100
AcDbEntity
  8
DEFPOINTS
 62
     0
100
AcDbPoint
 10
376.8354625488714
 20
440.1936381512275
 30
0.0
  0
POINT
  5
36F4
330
355D
100
AcDbEntity
  8
DEFPOINTS
 62
     0
100
AcDbPoint
 10
376.8354625488714
 20
440.1936381512275
 30
0.0
  0
ENDBLK
  5
3568
330
355D
100
AcDbEntity
  8
0
100
AcDbBlockEnd
  0
BLOCK
  5
3573
330
3569
100
AcDbEntity
  8
0
100
AcDbBlockBegin
  2
*D5
 70
     1
 10
0.0
 20
0.0
 30
0.0
  3
*D5
  1

  0
LINE
  5
36F5
330
3569
100
AcDbEntity
  8
SUNPOU
100
AcDbLine
 10
488.7006950555648
 20
278.6741111337728
 30
0.0
 11
488.7006950555648
 21
304.7147807328519
 31
0.0
  0
LINE
  5
36F6
330
3569
100
AcDbEntity
  8
SUNPOU
100
AcDbLine
 10
648.5155116472649
 20
221.5419620284728
 30
0.0
 11
648.5155116472649
 21
304.7147807328519
 31
0.0
  0
LINE
  5
36F7
330
3569
100
AcDbEntity
  8
SUNPOU
100
AcDbLine
 10
495.7006950555649
 20
301.714780732852
 30
0.0
 11
641.5155116472649
 21
301.714780732852
 31
0.0
  0
INSERT
  5
36F8
330
3569
100
AcDbEntity
  8
SUNPOU
100
AcDbBlockReference
  2
_OPEN
 10
488.7006950555648
 20
301.714780732852
 30
0.0
 41
7.0
 42
7.0
 43
7.0
 50
180.0
  0
INSERT
  5
36F9
330
3569
100
AcDbEntity
  8
SUNPOU
100
AcDbBlockReference
  2
_OPEN
 10
648.5155116472649
 20
301.714780732852
 30
0.0
 41
7.0
 42
7.0
 43
7.0
  0
MTEXT
  5
36FA
330
3569
100
AcDbEntity
  8
SUNPOU
100
AcDbMText
 10
568.6081033514149
 20
306.7147807328519
 30
0.0
 40
6.0
 41
0.0
 71
     5
 72
     1
  1
\A1;160
  0
POINT
  5
36FB
330
3569
100
AcDbEntity
  8
DEFPOINTS
 62
     0
100
AcDbPoint
 10
488.7006950555648
 20
272.6741111337728
 30
0.0
  0
POINT
  5
36FC
330
3569
100
AcDbEntity
  8
DEFPOINTS
 62
     0
100
AcDbPoint
 10
648.5155116472649
 20
215.5419620284728
 30
0.0
  0
POINT
  5
36FD
330
3569
100
AcDbEntity
  8
DEFPOINTS
 62
     0
100
AcDbPoint
 10
648.5155116472649
 20
301.714780732852
 30
0.0
  0
ENDBLK
  5
3574
330
3569
100
AcDbEntity
  8
0
100
AcDbBlockEnd
  0
BLOCK
  5
357F
330
3575
100
AcDbEntity
  8
0
100
AcDbBlockBegin
  2
*D6
 70
     1
 10
0.0
 20
0.0
 30
0.0
  3
*D6
  1

  0
LINE
  5
36FE
330
3575
100
AcDbEntity
  8
SUNPOU
100
AcDbLine
 10
485.2006950555648
 20
275.1741111337728
 30
0.0
 11
445.2823330128285
 21
275.1741111337728
 31
0.0
  0
LINE
  5
36FF
330
3575
100
AcDbEntity
  8
SUNPOU
100
AcDbLine
 10
567.4506457321649
 20
72.64196202847284
 30
0.0
 11
445.2823330128285
 21
72.64196202847289
 31
0.0
  0
LINE
  5
3700
330
3575
100
AcDbEntity
  8
SUNPOU
100
AcDbLine
 10
448.2823330128285
 20
268.1741111337728
 30
0.0
 11
448.2823330128284
 21
79.64196202847289
 31
0.0
  0
INSERT
  5
3701
330
3575
100
AcDbEntity
  8
SUNPOU
100
AcDbBlockReference
  2
_OPEN
 10
448.2823330128285
 20
275.1741111337728
 30
0.0
 41
7.0
 42
7.0
 43
7.0
 50
90.0
  0
INSERT
  5
3702
330
3575
100
AcDbEntity
  8
SUNPOU
100
AcDbBlockReference
  2
_OPEN
 10
448.2823330128284
 20
72.64196202847289
 30
0.0
 41
7.0
 42
7.0
 43
7.0
 50
270.0
  0
MTEXT
  5
3703
330
3575
100
AcDbEntity
  8
SUNPOU
100
AcDbMText
 10
443.2823330128284
 20
173.9080365811229
 30
0.0
 40
6.0
 41
0.0
 71
     5
 72
     1
  1
\A1;203
 11
0.0000000000000001
 21
1.0
 31
0.0
  0
POINT
  5
3704
330
3575
100
AcDbEntity
  8
DEFPOINTS
 62
     0
100
AcDbPoint
 10
491.2006950555649
 20
275.1741111337728
 30
0.0
  0
POINT
  5
3705
330
3575
100
AcDbEntity
  8
DEFPOINTS
 62
     0
100
AcDbPoint
 10
573.4506457321649
 20
72.64196202847284
 30
0.0
  0
POINT
  5
3706
330
3575
100
AcDbEntity
  8
DEFPOINTS
 62
     0
100
AcDbPoint
 10
448.2823330128284
 20
72.64196202847289
 30
0.0
  0
ENDBLK
  5
3580
330
3575
100
AcDbEntity
  8
0
100
AcDbBlockEnd
  0
BLOCK
  5
358B
330
3581
100
AcDbEntity
  8
0
100
AcDbBlockBegin
  2
*D7
 70
     1
 10
0.0
 20
0.0
 30
0.0
  3
*D7
  1

  0
LINE
  5
3707
330
3581
100
AcDbEntity
  8
SUNPOU
100
AcDbLine
 10
548.657616506965
 20
116.3419620284728
 30
0.0
 11
464.3766723590911
 21
116.3419620284728
 31
0.0
  0
LINE
  5
3708
330
3581
100
AcDbEntity
  8
SUNPOU
100
AcDbLine
 10
567.4506457321649
 20
72.64196202847284
 30
0.0
 11
464.3766723590911
 21
72.64196202847287
 31
0.0
  0
LINE
  5
3709
330
3581
100
AcDbEntity
  8
SUNPOU
100
AcDbLine
 10
467.3766723590911
 20
109.3419620284728
 30
0.0
 11
467.3766723590911
 21
79.64196202847287
 31
0.0
  0
INSERT
  5
370A
330
3581
100
AcDbEntity
  8
SUNPOU
100
AcDbBlockReference
  2
_OPEN
 10
467.3766723590911
 20
116.3419620284728
 30
0.0
 41
7.0
 42
7.0
 43
7.0
 50
90.0
  0
INSERT
  5
370B
330
3581
100
AcDbEntity
  8
SUNPOU
100
AcDbBlockReference
  2
_OPEN
 10
467.3766723590911
 20
72.64196202847287
 30
0.0
 41
7.0
 42
7.0
 43
7.0
 50
270.0
  0
MTEXT
  5
370C
330
3581
100
AcDbEntity
  8
SUNPOU
100
AcDbMText
 10
462.3766723590911
 20
94.49196202847295
 30
0.0
 40
6.0
 41
0.0
 71
     5
 72
     1
  1
\A1;44
 11
0.0000000000000001
 21
1.0
 31
0.0
  0
POINT
  5
370D
330
3581
100
AcDbEntity
  8
DEFPOINTS
 62
     0
100
AcDbPoint
 10
554.657616506965
 20
116.3419620284728
 30
0.0
  0
POINT
  5
370E
330
3581
100
AcDbEntity
  8
DEFPOINTS
 62
     0
100
AcDbPoint
 10
573.4506457321649
 20
72.64196202847284
 30
0.0
  0
POINT
  5
370F
330
3581
100
AcDbEntity
  8
DEFPOINTS
 62
     0
100
AcDbPoint
 10
467.3766723590911
 20
72.64196202847287
 30
0.0
  0
ENDBLK
  5
358C
330
3581
100
AcDbEntity
  8
0
100
AcDbBlockEnd
  0
BLOCK
  5
3599
330
358D
100
AcDbEntity
  8
0
100
AcDbBlockBegin
  2
*D8
 70
     1
 10
0.0
 20
0.0
 30
0.0
  3
*D8
  1

  0
LINE
  5
3710
330
358D
100
AcDbEntity
  8
SUNPOU
100
AcDbLine
 10
595.150645732165
 20
133.7655100276728
 30
0.0
 11
464.3805835789239
 21
133.7655100276728
 31
0.0
  0
LINE
  5
3711
330
358D
100
AcDbEntity
  8
SUNPOU
100
AcDbLine
 10
548.657616506965
 20
116.3419620284728
 30
0.0
 11
464.3805835789238
 21
116.3419620284728
 31
0.0
  0
LINE
  5
3712
330
358D
100
AcDbEntity
  8
SUNPOU
100
AcDbLine
 10
467.3805835789239
 20
140.7655100276728
 30
0.0
 11
467.3805835789239
 21
147.7655100276728
 31
0.0
  0
LINE
  5
3713
330
358D
100
AcDbEntity
  8
SUNPOU
100
AcDbLine
 10
467.3805835789238
 20
109.3419620284728
 30
0.0
 11
467.3805835789238
 21
102.3419620284728
 31
0.0
  0
LINE
  5
3714
330
358D
100
AcDbEntity
  8
SUNPOU
100
AcDbLine
 10
467.3805835789239
 20
133.7655100276728
 30
0.0
 11
467.3805835789238
 21
116.3419620284728
 31
0.0
  0
INSERT
  5
3715
330
358D
100
AcDbEntity
  8
SUNPOU
100
AcDbBlockReference
  2
_OPEN
 10
467.3805835789239
 20
133.7655100276728
 30
0.0
 41
7.0
 42
7.0
 43
7.0
 50
270.0
  0
INSERT
  5
3716
330
358D
100
AcDbEntity
  8
SUNPOU
100
AcDbBlockReference
  2
_OPEN
 10
467.3805835789238
 20
116.3419620284728
 30
0.0
 41
7.0
 42
7.0
 43
7.0
 50
90.0
  0
MTEXT
  5
3717
330
358D
100
AcDbEntity
  8
SUNPOU
100
AcDbMText
 10
462.3805835789238
 20
125.0537360280729
 30
0.0
 40
6.0
 41
0.0
 71
     5
 72
     1
  1
\A1;17
 11
0.0000000000000001
 21
1.0
 31
0.0
  0
POINT
  5
3718
330
358D
100
AcDbEntity
  8
DEFPOINTS
 62
     0
100
AcDbPoint
 10
601.150645732165
 20
133.7655100276728
 30
0.0
  0
POINT
  5
3719
330
358D
100
AcDbEntity
  8
DEFPOINTS
 62
     0
100
AcDbPoint
 10
554.657616506965
 20
116.3419620284728
 30
0.0
  0
POINT
  5
371A
330
358D
100
AcDbEntity
  8
DEFPOINTS
 62
     0
100
AcDbPoint
 10
467.3805835789238
 20
116.3419620284728
 30
0.0
  0
ENDBLK
  5
359A
330
358D
100
AcDbEntity
  8
0
100
AcDbBlockEnd
  0
BLOCK
  5
35A5
330
359B
100
AcDbEntity
  8
0
100
AcDbBlockBegin
  2
*D9
 70
     1
 10
0.0
 20
0.0
 30
0.0
  3
*D9
  1

  0
LINE
  5
371B
330
359B
100
AcDbEntity
  8
SUNPOU
100
AcDbLine
 10
567.0506457321651
 20
93.14196202847284
 30
0.0
 11
567.0506457321651
 21
37.42628593919971
 31
0.0
  0
LINE
  5
371C
330
359B
100
AcDbEntity
  8
SUNPOU
100
AcDbLine
 10
635.2506457321648
 20
93.14196202847284
 30
0.0
 11
635.2506457321648
 21
37.42628593919971
 31
0.0
  0
LINE
  5
371D
330
359B
100
AcDbEntity
  8
SUNPOU
100
AcDbLine
 10
574.050645732165
 20
40.42628593919971
 30
0.0
 11
628.2506457321649
 21
40.42628593919971
 31
0.0
  0
INSERT
  5
371E
330
359B
100
AcDbEntity
  8
SUNPOU
100
AcDbBlockReference
  2
_OPEN
 10
567.0506457321651
 20
40.42628593919971
 30
0.0
 41
7.0
 42
7.0
 43
7.0
 50
180.0
  0
INSERT
  5
371F
330
359B
100
AcDbEntity
  8
SUNPOU
100
AcDbBlockReference
  2
_OPEN
 10
635.2506457321648
 20
40.42628593919971
 30
0.0
 41
7.0
 42
7.0
 43
7.0
  0
MTEXT
  5
3720
330
359B
100
AcDbEntity
  8
SUNPOU
100
AcDbMText
 10
601.150645732165
 20
45.42628593919971
 30
0.0
 40
6.0
 41
0.0
 71
     5
 72
     1
  1
\A1;φ68
  0
POINT
  5
3721
330
359B
100
AcDbEntity
  8
DEFPOINTS
 62
     0
100
AcDbPoint
 10
567.0506457321651
 20
99.14196202847286
 30
0.0
  0
POINT
  5
3722
330
359B
100
AcDbEntity
  8
DEFPOINTS
 62
     0
100
AcDbPoint
 10
635.2506457321648
 20
99.14196202847286
 30
0.0
  0
POINT
  5
3723
330
359B
100
AcDbEntity
  8
DEFPOINTS
 62
     0
100
AcDbPoint
 10
635.2506457321648
 20
40.42628593919971
 30
0.0
  0
ENDBLK
  5
35A6
330
359B
100
AcDbEntity
  8
0
100
AcDbBlockEnd
  0
BLOCK
  5
35B1
330
35A7
100
AcDbEntity
  8
0
100
AcDbBlockBegin
  2
*D10
 70
     1
 10
0.0
 20
0.0
 30
0.0
  3
*D10
  1

  0
LINE
  5
3724
330
35A7
100
AcDbEntity
  8
SUNPOU
100
AcDbLine
 10
571.9506457321647
 20
76.64196202847285
 30
0.0
 11
571.9506457321647
 21
50.91245915377363
 31
0.0
  0
LINE
  5
3725
330
35A7
100
AcDbEntity
  8
SUNPOU
100
AcDbLine
 10
630.3506457321653
 20
76.64196202847285
 30
0.0
 11
630.3506457321653
 21
50.91245915377363
 31
0.0
  0
LINE
  5
3726
330
35A7
100
AcDbEntity
  8
SUNPOU
100
AcDbLine
 10
578.9506457321647
 20
53.91245915377362
 30
0.0
 11
623.3506457321652
 21
53.91245915377362
 31
0.0
  0
INSERT
  5
3727
330
35A7
100
AcDbEntity
  8
SUNPOU
100
AcDbBlockReference
  2
_OPEN
 10
571.9506457321647
 20
53.91245915377362
 30
0.0
 41
7.0
 42
7.0
 43
7.0
 50
180.0
  0
INSERT
  5
3728
330
35A7
100
AcDbEntity
  8
SUNPOU
100
AcDbBlockReference
  2
_OPEN
 10
630.3506457321653
 20
53.91245915377362
 30
0.0
 41
7.0
 42
7.0
 43
7.0
  0
MTEXT
  5
3729
330
35A7
100
AcDbEntity
  8
SUNPOU
100
AcDbMText
 10
601.150645732165
 20
58.91245915377362
 30
0.0
 40
6.0
 41
0.0
 71
     5
 72
     1
  1
\A1;φ58
  0
POINT
  5
372A
330
35A7
100
AcDbEntity
  8
DEFPOINTS
 62
     0
100
AcDbPoint
 10
571.9506457321647
 20
82.64196202847285
 30
0.0
  0
POINT
  5
372B
330
35A7
100
AcDbEntity
  8
DEFPOINTS
 62
     0
100
AcDbPoint
 10
630.3506457321653
 20
82.64196202847285
 30
0.0
  0
POINT
  5
372C
330
35A7
100
AcDbEntity
  8
DEFPOINTS
 62
     0
100
AcDbPoint
 10
630.3506457321653
 20
53.91245915377362
 30
0.0
  0
ENDBLK
  5
35B2
330
35A7
100
AcDbEntity
  8
0
100
AcDbBlockEnd
  0
BLOCK
  5
35BD
330
35B3
100
AcDbEntity
  8
0
100
AcDbBlockBegin
  2
*D11
 70
     1
 10
0.0
 20
0.0
 30
0.0
  3
*D11
  1

  0
LINE
  5
372D
330
35B3
100
AcDbEntity
  8
SUNPOU
100
AcDbLine
 10
483.946254200765
 20
248.8419620284728
 30
0.0
 11
464.3766723590911
 21
248.8419620284728
 31
0.0
  0
LINE
  5
372E
330
35B3
100
AcDbEntity
  8
SUNPOU
100
AcDbLine
 10
595.150645732165
 20
133.7655100276728
 30
0.0
 11
464.3766723590911
 21
133.7655100276728
 31
0.0
  0
LINE
  5
372F
330
35B3
100
AcDbEntity
  8
SUNPOU
100
AcDbLine
 10
467.3766723590911
 20
241.8419620284728
 30
0.0
 11
467.3766723590911
 21
140.7655100276728
 31
0.0
  0
INSERT
  5
3730
330
35B3
100
AcDbEntity
  8
SUNPOU
100
AcDbBlockReference
  2
_OPEN
 10
467.3766723590911
 20
248.8419620284728
 30
0.0
 41
7.0
 42
7.0
 43
7.0
 50
90.0
  0
INSERT
  5
3731
330
35B3
100
AcDbEntity
  8
SUNPOU
100
AcDbBlockReference
  2
_OPEN
 10
467.3766723590911
 20
133.7655100276728
 30
0.0
 41
7.0
 42
7.0
 43
7.0
 50
270.0
  0
MTEXT
  5
3732
330
35B3
100
AcDbEntity
  8
SUNPOU
100
AcDbMText
 10
462.376672359091
 20
191.3037360280729
 30
0.0
 40
6.0
 41
0.0
 71
     5
 72
     1
  1
\A1;115
 11
0.0000000000000001
 21
1.0
 31
0.0
  0
POINT
  5
3733
330
35B3
100
AcDbEntity
  8
DEFPOINTS
 62
     0
100
AcDbPoint
 10
489.946254200765
 20
248.8419620284728
 30
0.0
  0
POINT
  5
3734
330
35B3
100
AcDbEntity
  8
DEFPOINTS
 62
     0
100
AcDbPoint
 10
601.150645732165
 20
133.7655100276728
 30
0.0
  0
POINT
  5
3735
330
35B3
100
AcDbEntity
  8
DEFPOINTS
 62
     0
100
AcDbPoint
 10
467.3766723590911
 20
133.7655100276728
 30
0.0
  0
ENDBLK
  5
35BE
330
35B3
100
AcDbEntity
  8
0
100
AcDbBlockEnd
  0
BLOCK
  5
35C9
330
35BF
100
AcDbEntity
  8
0
100
AcDbBlockBegin
  2
*D12
 70
     1
 10
0.0
 20
0.0
 30
0.0
  3
*D12
  1

  0
LINE
  5
3736
330
35BF
100
AcDbEntity
  8
SUNPOU
100
AcDbLine
 10
483.946254200765
 20
248.8419620284728
 30
0.0
 11
464.3766723590912
 21
248.8419620284728
 31
0.0
  0
LINE
  5
3737
330
35BF
100
AcDbEntity
  8
SUNPOU
100
AcDbLine
 10
485.2006950555648
 20
275.1741111337728
 30
0.0
 11
464.3766723590912
 21
275.1741111337728
 31
0.0
  0
LINE
  5
3738
330
35BF
100
AcDbEntity
  8
SUNPOU
100
AcDbLine
 10
467.3766723590912
 20
255.8419620284728
 30
0.0
 11
467.3766723590912
 21
268.1741111337728
 31
0.0
  0
INSERT
  5
3739
330
35BF
100
AcDbEntity
  8
SUNPOU
100
AcDbBlockReference
  2
_OPEN
 10
467.3766723590912
 20
248.8419620284728
 30
0.0
 41
7.0
 42
7.0
 43
7.0
 50
270.0
  0
INSERT
  5
373A
330
35BF
100
AcDbEntity
  8
SUNPOU
100
AcDbBlockReference
  2
_OPEN
 10
467.3766723590912
 20
275.1741111337728
 30
0.0
 41
7.0
 42
7.0
 43
7.0
 50
90.0
  0
MTEXT
  5
373B
330
35BF
100
AcDbEntity
  8
SUNPOU
100
AcDbMText
 10
462.3766723590911
 20
262.0080365811229
 30
0.0
 40
6.0
 41
0.0
 71
     5
 72
     1
  1
\A1;26
 11
0.0000000000000001
 21
1.0
 31
0.0
  0
POINT
  5
373C
330
35BF
100
AcDbEntity
  8
DEFPOINTS
 62
     0
100
AcDbPoint
 10
489.946254200765
 20
248.8419620284728
 30
0.0
  0
POINT
  5
373D
330
35BF
100
AcDbEntity
  8
DEFPOINTS
 62
     0
100
AcDbPoint
 10
491.2006950555649
 20
275.1741111337728
 30
0.0
  0
POINT
  5
373E
330
35BF
100
AcDbEntity
  8
DEFPOINTS
 62
     0
100
AcDbPoint
 10
467.3766723590912
 20
275.1741111337728
 30
0.0
  0
ENDBLK
  5
35CA
330
35BF
100
AcDbEntity
  8
0
100
AcDbBlockEnd
  0
ENDSEC
  0
SECTION
  2
ENTITIES
  0
TEXT
  5
6BC
330
1A
100
AcDbEntity
  8
SUNPOU
 62
     4
100
AcDbText
 10
685.2564794301858
 20
34.58002611035293
 30
0.0
 40
6.0
  1
※　のきといの差込み寸法を示す
100
AcDbText
  0
LWPOLYLINE
  5
2EFF
330
1A
100
AcDbEntity
  8
ZUWAKU
100
AcDbPolyline
 90
        4
 70
     1
 43
0.0
 10
0.8000004691136837
 20
550.7999997642577
 10
0.8000004691136837
 20
0.7999997642576773
 10
796.8000004691137
 20
0.7999997642576773
 10
796.8000004691137
 20
550.7999997642577
  0
LWPOLYLINE
  5
2F00
330
1A
100
AcDbEntity
  8
ZUWAKU
100
AcDbPolyline
 90
        4
 70
     1
 43
0.0
 10
0.4000004691137065
 20
551.1999997642576
 10
0.4000004691137065
 20
0.3999997642577
 10
797.2000004691137
 20
0.3999997642576769
 10
797.2000004691137
 20
551.1999997642576
  0
LWPOLYLINE
  5
2F01
330
1A
100
AcDbEntity
  8
ZUWAKU
100
AcDbPolyline
 90
        4
 70
     1
 43
0.0
 10
0.0000004691137292
 20
551.5999997642576
 10
0.0000004691137292
 20
-0.0000002357423909
 10
797.6000004691139
 20
-0.0000002357423234
 10
797.6000004691139
 20
551.5999997642577
  0
LWPOLYLINE
  5
2F02
330
1A
100
AcDbEntity
  8
ZUWAKU
100
AcDbPolyline
 90
        4
 70
     1
 43
0.0
 10
0.6000004691136383
 20
550.9999997642577
 10
0.6000004691136383
 20
0.5999997642576318
 10
797.0000004691139
 20
0.599999764257678
 10
797.0000004691137
 20
550.9999997642577
  0
LWPOLYLINE
  5
2F03
330
1A
100
AcDbEntity
  8
ZUWAKU
100
AcDbPolyline
 90
        4
 70
     1
 43
0.0
 10
0.200000469113661
 20
551.3999997642577
 10
0.200000469113661
 20
0.1999997642576545
 10
797.4000004691135
 20
0.1999997642576776
 10
797.4000004691138
 20
551.3999997642577
  0
LINE
  5
2F04
330
1A
100
AcDbEntity
  8
ZUWAKU
100
AcDbLine
 10
208.6466017591817
 20
15.19999976425764
 30
0.0
 11
447.4243644401051
 21
15.19999976425764
 31
0.0
  0
LINE
  5
2F05
330
1A
100
AcDbEntity
  8
ZUWAKU
100
AcDbLine
 10
208.6466017591817
 20
15.59999976425764
 30
0.0
 11
447.4243644401051
 21
15.59999976425765
 31
0.0
  0
LINE
  5
2F06
330
1A
100
AcDbEntity
  8
ZUWAKU
100
AcDbLine
 10
208.6466017591817
 20
15.39999976425764
 30
0.0
 11
447.4243644401051
 21
15.39999976425764
 31
0.0
  0
TEXT
  5
2F07
330
1A
100
AcDbEntity
  8
MOJI
100
AcDbText
 10
239.8272031499648
 20
3.20492082166503
 30
0.0
 40
5.599999999999999
  1
ＶＭ１６０
 41
0.9
  7
ｽﾀｲﾙ1
100
AcDbText
  0
LINE
  5
2F08
330
1A
100
AcDbEntity
  8
ZUWAKU
100
AcDbLine
 10
0.0000004691137292
 20
29.9999997642576
 30
0.0
 11
797.4000004691135
 21
29.9999997642576
 31
0.0
  0
LINE
  5
2F09
330
1A
100
AcDbEntity
  8
ZUWAKU
100
AcDbLine
 10
0.0000004691137292
 20
30.19999976425761
 30
0.0
 11
797.4000004691135
 21
30.19999976425761
 31
0.0
  0
LINE
  5
2F0A
330
1A
100
AcDbEntity
  8
ZUWAKU
100
AcDbLine
 10
0.0000004691137292
 20
30.39999976425761
 30
0.0
 11
797.4000004691135
 21
30.39999976425761
 31
0.0
  0
LINE
  5
2F0B
330
1A
100
AcDbEntity
  8
ZUWAKU
100
AcDbLine
 10
0.0000004691137292
 20
30.59999976425761
 30
0.0
 11
797.4000004691135
 21
30.59999976425761
 31
0.0
  0
LINE
  5
2F0C
330
1A
100
AcDbEntity
  8
ZUWAKU
100
AcDbLine
 10
0.0000004691137292
 20
30.79999976425762
 30
0.0
 11
797.4000004691135
 21
30.79999976425762
 31
0.0
  0
ARC
  5
2F0D
330
1A
100
AcDbEntity
  8
ZUWAKU
100
AcDbCircle
 10
48.74221262389482
 20
11.76520178961291
 30
0.0
 40
4.199999999999999
100
AcDbArc
 50
0.0
 51
45.0
  0
ARC
  5
2F0E
330
1A
100
AcDbEntity
  8
ZUWAKU
100
AcDbCircle
 10
50.14221262389492
 20
9.949999764257611
 30
0.0
 40
2.799999999999999
100
AcDbArc
 50
270.0
 51
0.0
  0
HATCH
  5
2F0F
330
1A
100
AcDbEntity
  8
ZUWAKU
100
AcDbHatch
 10
0.0
 20
0.0
 30
0.0
210
0.0
220
0.0
230
1.0
  2
ANSI37
 70
     0
 71
     0
 91
        8
 92
        7
 72
     1
 73
     1
 93
       24
 10
14.50226313023358
 20
17.64484824524119
 42
-0.1989123673796348
 10
14.09221262389485
 20
18.63479773890224
 42
0.0
 10
14.09221262389485
 20
19.92499976425762
 42
-0.4142135623730912
 10
14.61721262389483
 20
20.44999976425761
 42
0.0
 10
17.59221262389473
 20
20.44999976425761
 42
0.4142135623731546
 10
18.11721262389482
 20
20.9749997642576
 42
0.0
 10
18.11721262389482
 20
22.72499976425761
 42
0.4142135623731586
 10
17.59221262389473
 20
23.24999976425761
 42
0.0
 10
14.09221262389485
 20
23.24999976425761
 42
0.4142135623730928
 10
11.29221262389489
 20
20.44999976425764
 42
0.0
 10
11.29221262389489
 20
18.63479773890237
 42
0.1989123673796619
 10
12.52236414291132
 20
15.66494925791876
 42
0.0
 10
15.432162117556
 20
12.7551512832741
 42
-0.1989123673796613
 10
15.84221262389485
 20
11.76520178961292
 42
0.0
 10
15.84221262389485
 20
10.4749997642576
 42
-0.4142135623730911
 10
15.31721262389487
 20
9.949999764257611
 42
0.0
 10
12.34221262389496
 20
9.949999764257611
 42
0.4142135623731526
 10
11.81721262389487
 20
9.424999764257623
 42
0.0
 10
11.81721262389487
 20
7.674999764257602
 42
0.4142135623731526
 10
12.34221262389496
 20
7.149999764257614
 42
0.0
 10
15.84221262389485
 20
7.149999764257614
 42
0.4142135623731044
 10
18.64221262389492
 20
9.94999976425759
 42
0.0
 10
18.64221262389492
 20
11.76520178961286
 42
0.1989123673796604
 10
17.41206110487837
 20
14.7350502705964
 42
0.0
 97
        0
 92
        7
 72
     1
 73
     1
 93
       16
 10
23.5422126238949
 20
19.04999976425762
 42
-0.4142135623730935
 10
24.94221262389487
 20
20.44999976425761
 42
0.0
 10
26.86721262389482
 20
20.44999976425761
 42
0.4142135623731546
 10
27.39221262389492
 20
20.9749997642576
 42
0.0
 10
27.39221262389492
 20
22.72499976425761
 42
0.4142135623730951
 10
26.86721262389494
 20
23.24999976425761
 42
0.0
 10
24.94221262389476
 20
23.24999976425757
 42
0.4142135623730892
 10
20.74221262389483
 20
19.04999976425754
 42
0.0
 10
20.74221262389483
 20
11.34999976425763
 42
0.4142135623730969
 10
24.94221262389487
 20
7.149999764257614
 42
0.0
 10
26.86721262389482
 20
7.149999764257614
 42
0.4142135623731526
 10
27.39221262389492
 20
7.674999764257602
 42
0.0
 10
27.39221262389492
 20
9.424999764257623
 42
0.4142135623730891
 10
26.86721262389494
 20
9.949999764257611
 42
0.0
 10
24.94221262389487
 20
9.949999764257611
 42
-0.4142135623730928
 10
23.5422126238949
 20
11.3499997642576
 42
0.0
 97
        0
 92
        7
 72
     1
 73
     1
 93
        2
 10
24.24221262389483
 20
15.19999976425761
 42
1.0
 10
27.74221262389483
 20
15.19999976425761
 42
1.0
 97
        0
 92
        7
 72
     1
 73
     1
 93
       26
 10
37.31485910607284
 20
19.20504695782104
 42
0.0
 10
38.37649873921066
 20
22.56690579609063
 42
0.5069206636600134
 10
37.8758678400153
 20
23.24999976425761
 42
0.0
 10
36.17697846040607
 20
23.24999976425761
 42
0.3272098845218764
 10
35.67634756121071
 20
22.88309373242458
 42
0.0
 10
33.80807768657894
 20
16.96690579609069
 42
-0.3272098845219541
 10
33.30744678738347
 20
16.59999976425761
 42
0.0
 10
33.16721262389501
 20
16.59999976425761
 42
-0.4142135623731526
 10
32.64221262389492
 20
17.1249997642576
 42
0.0
 10
32.64221262389492
 20
22.72499976425761
 42
0.4142135623730951
 10
32.11721262389494
 20
23.24999976425761
 42
0.0
 10
30.36721262389483
 20
23.24999976425761
 42
0.4142135623730871
 10
29.84221262389485
 20
22.72499976425763
 42
0.0
 10
29.84221262389485
 20
7.674999764257602
 42
0.4142135623730891
 10
30.36721262389483
 20
7.149999764257614
 42
0.0
 10
32.11721262389483
 20
7.149999764257614
 42
0.4142135623731526
 10
32.64221262389492
 20
7.674999764257602
 42
0.0
 10
32.64221262389492
 20
13.27499976425762
 42
-0.4142135623731526
 10
33.16721262389501
 20
13.79999976425761
 42
0.0
 10
33.30744678738358
 20
13.79999976425761
 42
-0.3272098845218915
 10
33.80807768657894
 20
13.43309373242453
 42
0.0
 10
35.67634756121071
 20
7.516905796090686
 42
0.3272098845218902
 10
36.17697846040607
 20
7.149999764257614
 42
0.0
 10
37.8758678400153
 20
7.149999764257614
 42
0.5069206636600335
 10
38.37649873921066
 20
7.833093732424622
 42
0.0
 10
36.050107360737
 20
15.19999976425775
 42
0.0
 97
        0
 92
        7
 72
     1
 73
     1
 93
        8
 10
43.49221262389483
 20
22.72499976425762
 42
0.4142135623731546
 10
42.96721262389474
 20
23.24999976425761
 42
0.0
 10
41.21721262389496
 20
23.24999976425761
 42
0.4142135623731507
 10
40.69221262389487
 20
22.72499976425763
 42
0.0
 10
40.69221262389487
 20
7.674999764257602
 42
0.4142135623731526
 10
41.21721262389496
 20
7.149999764257614
 42
0.0
 10
42.96721262389474
 20
7.149999764257614
 42
0.4142135623731526
 10
43.49221262389483
 20
7.674999764257602
 42
0.0
 97
        0
 92
        7
 72
     1
 73
     1
 93
       24
 10
48.39221262389492
 20
19.92499976425762
 42
-0.4142135623731546
 10
48.91721262389501
 20
20.44999976425761
 42
0.0
 10
51.89221262389492
 20
20.44999976425761
 42
0.4142135623730911
 10
52.41721262389489
 20
20.9749997642576
 42
0.0
 10
52.41721262389489
 20
22.72499976425761
 42
0.4142135623730952
 10
51.89221262389492
 20
23.24999976425761
 42
0.0
 10
48.39221262389492
 20
23.24999976425761
 42
0.4142135623731048
 10
45.59221262389485
 20
20.44999976425764
 42
0.0
 10
45.59221262389485
 20
18.63479773890237
 42
0.1989123673796613
 10
46.82236414291139
 20
15.66494925791882
 42
0.0
 10
49.73216211755607
 20
12.75515128327415
 42
-0.1989123673796402
 10
50.14221262389492
 20
11.76520178961308
 42
0.0
 10
50.14221262389492
 20
10.4749997642576
 42
-0.4142135623730911
 10
49.61721262389494
 20
9.949999764257611
 42
0.0
 10
46.64221262389491
 20
9.949999764257611
 42
0.4142135623731526
 10
46.11721262389482
 20
9.424999764257623
 42
0.0
 10
46.11721262389482
 20
7.674999764257602
 42
0.4142135623730891
 10
46.64221262389481
 20
7.149999764257614
 42
0.0
 10
50.14221262389492
 20
7.149999764257614
 42
0.4142135623730925
 10
52.94221262389488
 20
9.94999976425759
 42
0.0
 10
52.94221262389488
 20
11.76520178961286
 42
0.1989123673796675
 10
51.71206110487833
 20
14.73505027059651
 42
0.0
 10
48.80226313023377
 20
17.64484824524103
 42
-0.1989123673796652
 10
48.39221262389492
 20
18.6347977389022
 42
0.0
 97
        0
 92
        7
 72
     1
 73
     1
 93
       16
 10
57.84221262389485
 20
22.7249997642576
 42
0.414213562373103
 10
57.31721262389488
 20
23.24999976425761
 42
0.0
 10
55.56721262389487
 20
23.24999976425761
 42
0.4142135623730871
 10
55.04221262389489
 20
22.72499976425763
 42
0.0
 10
55.04221262389489
 20
9.94999976425759
 42
0.4142135623730926
 10
57.84221262389485
 20
7.149999764257614
 42
0.0
 10
61.34221262389485
 20
7.149999764257614
 42
0.4142135623731044
 10
64.14221262389492
 20
9.94999976425759
 42
0.0
 10
64.14221262389492
 20
22.72499976425761
 42
0.4142135623730951
 10
63.61721262389494
 20
23.24999976425761
 42
0.0
 10
61.86721262389482
 20
23.24999976425761
 42
0.4142135623730871
 10
61.34221262389485
 20
22.72499976425763
 42
0.0
 10
61.34221262389485
 20
10.99999976425758
 42
-0.414213562373088
 10
60.2922126238949
 20
9.949999764257611
 42
0.0
 10
58.89221262389492
 20
9.949999764257611
 42
-0.4142135623731197
 10
57.84221262389485
 20
10.99999976425758
 42
0.0
 97
        0
 92
        7
 72
     1
 73
     1
 93
        8
 10
69.0422126238949
 20
22.72499976425763
 42
0.4142135623730871
 10
68.51721262389492
 20
23.24999976425761
 42
0.0
 10
66.76721262389492
 20
23.24999976425761
 42
0.4142135623731507
 10
66.24221262389482
 20
22.72499976425763
 42
0.0
 10
66.24221262389482
 20
7.674999764257602
 42
0.4142135623730891
 10
66.76721262389481
 20
7.149999764257614
 42
0.0
 10
68.51721262389492
 20
7.149999764257614
 42
0.4142135623730891
 10
69.0422126238949
 20
7.674999764257602
 42
0.0
 97
        0
 75
     0
 76
     1
 52
0.0
 41
0.2
 77
     0
 78
     2
 53
45.0
 43
-900.9423038655652
 44
-13.20000023574232
 45
-0.4490128060534576
 46
0.4490128060534577
 79
     0
 53
135.0
 43
-900.9423038655652
 44
-13.20000023574232
 45
-0.4490128060534577
 46
-0.4490128060534576
 79
     0
 47
0.057451373970553
 98
        8
 10
16.07985543213703
 20
15.16717341014316
 10
22.40451547555289
 20
18.84406194670862
 10
25.16436835477338
 20
15.51188141032833
 10
30.91406045075086
 20
16.20129741069911
 10
41.83847248807047
 20
16.66090967824072
 10
46.89820136424327
 20
19.41857608066482
 10
56.55768644151407
 20
18.72915767935262
 10
67.82708008873647
 20
19.18876994689424
  0
LINE
  5
2F10
330
1A
100
AcDbEntity
  8
ZUWAKU
100
AcDbLine
 10
35.67634756121071
 20
22.88309373242458
 30
0.0
 11
33.80807768657894
 21
16.96690579609064
 31
0.0
  0
LINE
  5
2F11
330
1A
100
AcDbEntity
  8
ZUWAKU
100
AcDbLine
 10
32.64221262389492
 20
17.12499976425761
 30
0.0
 11
32.64221262389492
 21
22.7249997642576
 31
0.0
  0
LINE
  5
2F12
330
1A
100
AcDbEntity
  8
ZUWAKU
100
AcDbLine
 10
29.84221262389485
 20
22.7249997642576
 30
0.0
 11
29.84221262389485
 21
7.674999764257613
 31
0.0
  0
LINE
  5
2F13
330
1A
100
AcDbEntity
  8
ZUWAKU
100
AcDbLine
 10
20.74221262389483
 20
11.34999976425761
 30
0.0
 11
20.74221262389483
 21
19.04999976425757
 31
0.0
  0
LINE
  5
2F14
330
1A
100
AcDbEntity
  8
ZUWAKU
100
AcDbLine
 10
23.5422126238949
 20
19.04999976425761
 30
0.0
 11
23.5422126238949
 21
11.34999976425761
 31
0.0
  0
LINE
  5
2F15
330
1A
100
AcDbEntity
  8
ZUWAKU
100
AcDbLine
 10
43.49221262389483
 20
7.674999764257613
 30
0.0
 11
43.49221262389483
 21
22.7249997642576
 31
0.0
  0
LINE
  5
2F16
330
1A
100
AcDbEntity
  8
ZUWAKU
100
AcDbLine
 10
40.69221262389487
 20
22.7249997642576
 30
0.0
 11
40.69221262389487
 21
7.674999764257613
 31
0.0
  0
LINE
  5
2F17
330
1A
100
AcDbEntity
  8
ZUWAKU
100
AcDbLine
 10
37.31485910607284
 20
19.20504695782104
 30
0.0
 11
36.050107360737
 21
15.19999976425763
 31
0.0
  0
ARC
  5
2F18
330
1A
100
AcDbEntity
  8
ZUWAKU
100
AcDbCircle
 10
49.7922126238949
 20
18.63479773890231
 30
0.0
 40
4.199999999999999
100
AcDbArc
 50
180.0
 51
225.0
  0
ARC
  5
2F19
330
1A
100
AcDbEntity
  8
ZUWAKU
100
AcDbCircle
 10
49.7922126238949
 20
18.63479773890231
 30
0.0
 40
1.399999999999999
100
AcDbArc
 50
180.0000000000016
 51
224.9999999999988
  0
ARC
  5
2F1A
330
1A
100
AcDbEntity
  8
ZUWAKU
100
AcDbCircle
 10
15.49221262389482
 20
18.63479773890231
 30
0.0
 40
1.399999999999999
100
AcDbArc
 50
180.0000000000016
 51
224.9999999999988
  0
ARC
  5
2F1B
330
1A
100
AcDbEntity
  8
ZUWAKU
100
AcDbCircle
 10
15.49221262389482
 20
18.63479773890231
 30
0.0
 40
4.199999999999999
100
AcDbArc
 50
180.0
 51
225.0
  0
ARC
  5
2F1C
330
1A
100
AcDbEntity
  8
ZUWAKU
100
AcDbCircle
 10
24.94221262389487
 20
11.34999976425761
 30
0.0
 40
4.199999999999999
100
AcDbArc
 50
180.0
 51
270.0
  0
ARC
  5
2F1D
330
1A
100
AcDbEntity
  8
ZUWAKU
100
AcDbCircle
 10
15.84221262389485
 20
9.949999764257611
 30
0.0
 40
2.799999999999999
100
AcDbArc
 50
270.0
 51
0.0
  0
ARC
  5
2F1E
330
1A
100
AcDbEntity
  8
ZUWAKU
100
AcDbCircle
 10
14.44221262389487
 20
11.76520178961291
 30
0.0
 40
4.199999999999999
100
AcDbArc
 50
0.0
 51
45.0
  0
ARC
  5
2F1F
330
1A
100
AcDbEntity
  8
ZUWAKU
100
AcDbCircle
 10
14.44221262389487
 20
11.76520178961296
 30
0.0
 40
1.399999999999999
100
AcDbArc
 50
0.0
 51
45.0
  0
LINE
  5
2F20
330
1A
100
AcDbEntity
  8
ZUWAKU
100
AcDbLine
 10
15.84221262389485
 20
10.47499976425761
 30
0.0
 11
15.84221262389485
 21
11.76520178961296
 31
0.0
  0
LINE
  5
2F21
330
1A
100
AcDbEntity
  8
ZUWAKU
100
AcDbLine
 10
18.64221262389492
 20
9.949999764257611
 30
0.0
 11
18.64221262389492
 21
11.76520178961296
 31
0.0
  0
LINE
  5
2F22
330
1A
100
AcDbEntity
  8
ZUWAKU
100
AcDbLine
 10
12.34221262389485
 20
9.949999764257611
 30
0.0
 11
15.31721262389487
 21
9.949999764257611
 31
0.0
  0
ARC
  5
2F23
330
1A
100
AcDbEntity
  8
ZUWAKU
100
AcDbCircle
 10
12.34221262389485
 20
9.424999764257613
 30
0.0
 40
0.525
100
AcDbArc
 50
90.0
 51
180.0
  0
ARC
  5
2F24
330
1A
100
AcDbEntity
  8
ZUWAKU
100
AcDbCircle
 10
12.34221262389485
 20
7.674999764257613
 30
0.0
 40
0.525
100
AcDbArc
 50
180.0
 51
270.0
  0
LINE
  5
2F25
330
1A
100
AcDbEntity
  8
ZUWAKU
100
AcDbLine
 10
11.81721262389487
 20
7.674999764257613
 30
0.0
 11
11.81721262389487
 21
9.424999764257613
 31
0.0
  0
LINE
  5
2F26
330
1A
100
AcDbEntity
  8
ZUWAKU
100
AcDbLine
 10
12.52236414291132
 20
15.66494925791879
 30
0.0
 11
15.432162117556
 21
12.75515128327413
 31
0.0
  0
LINE
  5
2F27
330
1A
100
AcDbEntity
  8
ZUWAKU
100
AcDbLine
 10
12.34221262389485
 20
7.149999764257614
 30
0.0
 11
15.84221262389485
 21
7.149999764257614
 31
0.0
  0
ARC
  5
2F28
330
1A
100
AcDbEntity
  8
ZUWAKU
100
AcDbCircle
 10
15.31721262389487
 20
10.47499976425761
 30
0.0
 40
0.525
100
AcDbArc
 50
270.0
 51
0.0
  0
LINE
  5
2F29
330
1A
100
AcDbEntity
  8
ZUWAKU
100
AcDbLine
 10
17.41206110487837
 20
14.73505027059643
 30
0.0
 11
14.5022631302337
 21
17.64484824524111
 31
0.0
  0
LINE
  5
2F2A
330
1A
100
AcDbEntity
  8
ZUWAKU
100
AcDbLine
 10
38.37649873921066
 20
7.833093732424586
 30
0.0
 11
36.050107360737
 21
15.19999976425763
 31
0.0
  0
LINE
  5
2F2B
330
1A
100
AcDbEntity
  8
ZUWAKU
100
AcDbLine
 10
36.17697846040619
 20
7.149999764257614
 30
0.0
 11
37.87586784001518
 21
7.149999764257614
 31
0.0
  0
LINE
  5
2F2C
330
1A
100
AcDbEntity
  8
ZUWAKU
100
AcDbLine
 10
35.67634756121071
 20
7.51690579609064
 30
0.0
 11
33.80807768657894
 21
13.43309373242458
 31
0.0
  0
ARC
  5
2F2D
330
1A
100
AcDbEntity
  8
ZUWAKU
100
AcDbCircle
 10
36.17697846040619
 20
7.674999764257613
 30
0.0
 40
0.525
100
AcDbArc
 50
197.525568373723
 51
270.0
  0
ARC
  5
2F2E
330
1A
100
AcDbEntity
  8
ZUWAKU
100
AcDbCircle
 10
33.16721262389489
 20
13.27499976425761
 30
0.0
 40
0.525
100
AcDbArc
 50
90.0
 51
180.0
  0
ARC
  5
2F2F
330
1A
100
AcDbEntity
  8
ZUWAKU
100
AcDbCircle
 10
33.30744678738358
 20
13.27499976425761
 30
0.0
 40
0.525
100
AcDbArc
 50
17.52556837372303
 51
90.0
  0
LINE
  5
2F30
330
1A
100
AcDbEntity
  8
ZUWAKU
100
AcDbLine
 10
32.64221262389492
 20
7.674999764257613
 30
0.0
 11
32.64221262389492
 21
13.27499976425761
 31
0.0
  0
ARC
  5
2F31
330
1A
100
AcDbEntity
  8
ZUWAKU
100
AcDbCircle
 10
32.11721262389483
 20
7.674999764257613
 30
0.0
 40
0.525
100
AcDbArc
 50
270.0
 51
0.0
  0
LINE
  5
2F32
330
1A
100
AcDbEntity
  8
ZUWAKU
100
AcDbLine
 10
33.16721262389489
 20
13.79999976425761
 30
0.0
 11
33.30744678738358
 21
13.79999976425761
 31
0.0
  0
LINE
  5
2F33
330
1A
100
AcDbEntity
  8
ZUWAKU
100
AcDbLine
 10
33.30744678738358
 20
16.59999976425761
 30
0.0
 11
33.16721262389489
 21
16.59999976425761
 31
0.0
  0
CIRCLE
  5
2F34
330
1A
100
AcDbEntity
  8
ZUWAKU
100
AcDbCircle
 10
25.99221262389483
 20
15.19999976425761
 30
0.0
 40
1.75
  0
ARC
  5
2F35
330
1A
100
AcDbEntity
  8
ZUWAKU
100
AcDbCircle
 10
24.94221262389487
 20
11.34999976425761
 30
0.0
 40
1.399999999999999
100
AcDbArc
 50
180.0
 51
270.0
  0
ARC
  5
2F36
330
1A
100
AcDbEntity
  8
ZUWAKU
100
AcDbCircle
 10
30.36721262389483
 20
7.674999764257613
 30
0.0
 40
0.525
100
AcDbArc
 50
180.0
 51
270.0
  0
ARC
  5
2F37
330
1A
100
AcDbEntity
  8
ZUWAKU
100
AcDbCircle
 10
26.86721262389482
 20
9.424999764257613
 30
0.0
 40
0.525
100
AcDbArc
 50
0.0
 51
90.0
  0
ARC
  5
2F38
330
1A
100
AcDbEntity
  8
ZUWAKU
100
AcDbCircle
 10
26.86721262389482
 20
7.674999764257613
 30
0.0
 40
0.525
100
AcDbArc
 50
270.0
 51
0.0
  0
LINE
  5
2F39
330
1A
100
AcDbEntity
  8
ZUWAKU
100
AcDbLine
 10
26.86721262389482
 20
7.149999764257614
 30
0.0
 11
24.94221262389487
 21
7.149999764257614
 31
0.0
  0
LINE
  5
2F3A
330
1A
100
AcDbEntity
  8
ZUWAKU
100
AcDbLine
 10
27.39221262389492
 20
9.424999764257613
 30
0.0
 11
27.39221262389492
 21
7.674999764257613
 31
0.0
  0
LINE
  5
2F3B
330
1A
100
AcDbEntity
  8
ZUWAKU
100
AcDbLine
 10
24.94221262389487
 20
9.949999764257611
 30
0.0
 11
26.86721262389482
 21
9.949999764257611
 31
0.0
  0
LINE
  5
2F3C
330
1A
100
AcDbEntity
  8
ZUWAKU
100
AcDbLine
 10
30.36721262389483
 20
7.149999764257614
 30
0.0
 11
32.11721262389483
 21
7.149999764257614
 31
0.0
  0
ARC
  5
2F3D
330
1A
100
AcDbEntity
  8
ZUWAKU
100
AcDbCircle
 10
33.16721262389489
 20
17.12499976425761
 30
0.0
 40
0.525
100
AcDbArc
 50
180.0
 51
270.0
  0
ARC
  5
2F3E
330
1A
100
AcDbEntity
  8
ZUWAKU
100
AcDbCircle
 10
33.30744678738358
 20
17.12499976425761
 30
0.0
 40
0.525
100
AcDbArc
 50
270.0
 51
342.4744316262769
  0
ARC
  5
2F3F
330
1A
100
AcDbEntity
  8
ZUWAKU
100
AcDbCircle
 10
49.61721262389483
 20
10.47499976425761
 30
0.0
 40
0.525
100
AcDbArc
 50
270.0
 51
0.0
  0
ARC
  5
2F40
330
1A
100
AcDbEntity
  8
ZUWAKU
100
AcDbCircle
 10
48.74221262389482
 20
11.76520178961296
 30
0.0
 40
1.399999999999999
100
AcDbArc
 50
0.0
 51
45.0
  0
LINE
  5
2F41
330
1A
100
AcDbEntity
  8
ZUWAKU
100
AcDbLine
 10
50.14221262389492
 20
10.47499976425761
 30
0.0
 11
50.14221262389492
 21
11.76520178961296
 31
0.0
  0
LINE
  5
2F42
330
1A
100
AcDbEntity
  8
ZUWAKU
100
AcDbLine
 10
52.94221262389488
 20
9.949999764257611
 30
0.0
 11
52.94221262389488
 21
11.76520178961296
 31
0.0
  0
LINE
  5
2F43
330
1A
100
AcDbEntity
  8
ZUWAKU
100
AcDbLine
 10
51.71206110487844
 20
14.73505027059643
 30
0.0
 11
48.80226313023365
 21
17.64484824524111
 31
0.0
  0
LINE
  5
2F44
330
1A
100
AcDbEntity
  8
ZUWAKU
100
AcDbLine
 10
41.21721262389485
 20
7.149999764257614
 30
0.0
 11
42.96721262389485
 21
7.149999764257614
 31
0.0
  0
ARC
  5
2F45
330
1A
100
AcDbEntity
  8
ZUWAKU
100
AcDbCircle
 10
37.87586784001518
 20
7.674999764257613
 30
0.0
 40
0.525
100
AcDbArc
 50
270.0
 51
17.52556837372303
  0
ARC
  5
2F46
330
1A
100
AcDbEntity
  8
ZUWAKU
100
AcDbCircle
 10
41.21721262389485
 20
7.674999764257613
 30
0.0
 40
0.525
100
AcDbArc
 50
180.0
 51
270.0
  0
ARC
  5
2F47
330
1A
100
AcDbEntity
  8
ZUWAKU
100
AcDbCircle
 10
46.64221262389491
 20
9.424999764257613
 30
0.0
 40
0.525
100
AcDbArc
 50
90.0
 51
180.0
  0
ARC
  5
2F48
330
1A
100
AcDbEntity
  8
ZUWAKU
100
AcDbCircle
 10
42.96721262389485
 20
7.674999764257613
 30
0.0
 40
0.525
100
AcDbArc
 50
270.0
 51
0.0
  0
ARC
  5
2F49
330
1A
100
AcDbEntity
  8
ZUWAKU
100
AcDbCircle
 10
46.64221262389491
 20
7.674999764257613
 30
0.0
 40
0.525
100
AcDbArc
 50
180.0
 51
270.0
  0
LINE
  5
2F4A
330
1A
100
AcDbEntity
  8
ZUWAKU
100
AcDbLine
 10
46.11721262389482
 20
7.674999764257613
 30
0.0
 11
46.11721262389482
 21
9.424999764257613
 31
0.0
  0
LINE
  5
2F4B
330
1A
100
AcDbEntity
  8
ZUWAKU
100
AcDbLine
 10
46.82236414291139
 20
15.66494925791879
 30
0.0
 11
49.73216211755607
 21
12.75515128327413
 31
0.0
  0
LINE
  5
2F4C
330
1A
100
AcDbEntity
  8
ZUWAKU
100
AcDbLine
 10
46.64221262389491
 20
7.149999764257614
 30
0.0
 11
50.14221262389492
 21
7.149999764257614
 31
0.0
  0
LINE
  5
2F4D
330
1A
100
AcDbEntity
  8
ZUWAKU
100
AcDbLine
 10
46.64221262389491
 20
9.949999764257611
 30
0.0
 11
49.61721262389483
 21
9.949999764257611
 31
0.0
  0
ARC
  5
2F4E
330
1A
100
AcDbEntity
  8
ZUWAKU
100
AcDbCircle
 10
24.94221262389487
 20
19.04999976425757
 30
0.0
 40
4.199999999999999
100
AcDbArc
 50
90.0
 51
180.0
  0
LINE
  5
2F4F
330
1A
100
AcDbEntity
  8
ZUWAKU
100
AcDbLine
 10
18.11721262389482
 20
22.7249997642576
 30
0.0
 11
18.11721262389482
 21
20.97499976425761
 31
0.0
  0
ARC
  5
2F50
330
1A
100
AcDbEntity
  8
ZUWAKU
100
AcDbCircle
 10
17.59221262389485
 20
20.97499976425761
 30
0.0
 40
0.525
100
AcDbArc
 50
270.0
 51
0.0
  0
ARC
  5
2F51
330
1A
100
AcDbEntity
  8
ZUWAKU
100
AcDbCircle
 10
17.59221262389485
 20
22.7249997642576
 30
0.0
 40
0.525
100
AcDbArc
 50
0.0
 51
90.0
  0
ARC
  5
2F52
330
1A
100
AcDbEntity
  8
ZUWAKU
100
AcDbCircle
 10
14.09221262389485
 20
20.44999976425761
 30
0.0
 40
2.799999999999999
100
AcDbArc
 50
90.0
 51
180.0
  0
LINE
  5
2F53
330
1A
100
AcDbEntity
  8
ZUWAKU
100
AcDbLine
 10
11.29221262389489
 20
20.44999976425761
 30
0.0
 11
11.29221262389489
 21
18.63479773890227
 31
0.0
  0
LINE
  5
2F54
330
1A
100
AcDbEntity
  8
ZUWAKU
100
AcDbLine
 10
14.09221262389485
 20
19.92499976425761
 30
0.0
 11
14.09221262389485
 21
18.63479773890227
 31
0.0
  0
ARC
  5
2F55
330
1A
100
AcDbEntity
  8
ZUWAKU
100
AcDbCircle
 10
14.61721262389483
 20
19.92499976425761
 30
0.0
 40
0.525
100
AcDbArc
 50
90.0
 51
180.0
  0
LINE
  5
2F56
330
1A
100
AcDbEntity
  8
ZUWAKU
100
AcDbLine
 10
17.59221262389485
 20
20.44999976425761
 30
0.0
 11
14.61721262389483
 21
20.44999976425761
 31
0.0
  0
LINE
  5
2F57
330
1A
100
AcDbEntity
  8
ZUWAKU
100
AcDbLine
 10
14.09221262389485
 20
23.24999976425761
 30
0.0
 11
17.59221262389485
 21
23.24999976425761
 31
0.0
  0
LINE
  5
2F58
330
1A
100
AcDbEntity
  8
ZUWAKU
100
AcDbLine
 10
36.17697846040619
 20
23.24999976425761
 30
0.0
 11
37.87586784001518
 21
23.24999976425761
 31
0.0
  0
ARC
  5
2F59
330
1A
100
AcDbEntity
  8
ZUWAKU
100
AcDbCircle
 10
36.17697846040619
 20
22.7249997642576
 30
0.0
 40
0.525
100
AcDbArc
 50
90.0
 51
162.4744316262769
  0
ARC
  5
2F5A
330
1A
100
AcDbEntity
  8
ZUWAKU
100
AcDbCircle
 10
32.11721262389483
 20
22.7249997642576
 30
0.0
 40
0.525
100
AcDbArc
 50
0.0
 51
90.0
  0
ARC
  5
2F5B
330
1A
100
AcDbEntity
  8
ZUWAKU
100
AcDbCircle
 10
24.94221262389487
 20
19.04999976425761
 30
0.0
 40
1.399999999999999
100
AcDbArc
 50
90.0
 51
180.0
  0
LINE
  5
2F5C
330
1A
100
AcDbEntity
  8
ZUWAKU
100
AcDbLine
 10
27.39221262389492
 20
22.7249997642576
 30
0.0
 11
27.39221262389492
 21
20.97499976425761
 31
0.0
  0
ARC
  5
2F5D
330
1A
100
AcDbEntity
  8
ZUWAKU
100
AcDbCircle
 10
26.86721262389482
 20
20.97499976425761
 30
0.0
 40
0.525
100
AcDbArc
 50
270.0
 51
0.0
  0
LINE
  5
2F5E
330
1A
100
AcDbEntity
  8
ZUWAKU
100
AcDbLine
 10
26.86721262389482
 20
20.44999976425761
 30
0.0
 11
24.94221262389487
 21
20.44999976425761
 31
0.0
  0
ARC
  5
2F5F
330
1A
100
AcDbEntity
  8
ZUWAKU
100
AcDbCircle
 10
30.36721262389483
 20
22.7249997642576
 30
0.0
 40
0.525
100
AcDbArc
 50
90.0
 51
180.0
  0
ARC
  5
2F60
330
1A
100
AcDbEntity
  8
ZUWAKU
100
AcDbCircle
 10
26.86721262389482
 20
22.7249997642576
 30
0.0
 40
0.525
100
AcDbArc
 50
0.0
 51
90.0
  0
LINE
  5
2F61
330
1A
100
AcDbEntity
  8
ZUWAKU
100
AcDbLine
 10
24.94221262389487
 20
23.24999976425757
 30
0.0
 11
26.86721262389482
 21
23.24999976425761
 31
0.0
  0
LINE
  5
2F62
330
1A
100
AcDbEntity
  8
ZUWAKU
100
AcDbLine
 10
32.11721262389483
 20
23.24999976425761
 30
0.0
 11
30.36721262389483
 21
23.24999976425761
 31
0.0
  0
LINE
  5
2F63
330
1A
100
AcDbEntity
  8
ZUWAKU
100
AcDbLine
 10
52.41721262389489
 20
22.7249997642576
 30
0.0
 11
52.41721262389489
 21
20.97499976425761
 31
0.0
  0
LINE
  5
2F64
330
1A
100
AcDbEntity
  8
ZUWAKU
100
AcDbLine
 10
51.89221262389492
 20
20.44999976425761
 30
0.0
 11
48.9172126238949
 21
20.44999976425761
 31
0.0
  0
ARC
  5
2F65
330
1A
100
AcDbEntity
  8
ZUWAKU
100
AcDbCircle
 10
51.89221262389492
 20
20.97499976425761
 30
0.0
 40
0.525
100
AcDbArc
 50
270.0
 51
0.0
  0
ARC
  5
2F66
330
1A
100
AcDbEntity
  8
ZUWAKU
100
AcDbCircle
 10
51.89221262389492
 20
22.7249997642576
 30
0.0
 40
0.525
100
AcDbArc
 50
0.0
 51
90.0
  0
ARC
  5
2F67
330
1A
100
AcDbEntity
  8
ZUWAKU
100
AcDbCircle
 10
48.39221262389492
 20
20.44999976425761
 30
0.0
 40
2.799999999999999
100
AcDbArc
 50
90.0
 51
180.0
  0
LINE
  5
2F68
330
1A
100
AcDbEntity
  8
ZUWAKU
100
AcDbLine
 10
38.37649873921066
 20
22.56690579609064
 30
0.0
 11
37.31485910607284
 21
19.20504695782104
 31
0.0
  0
LINE
  5
2F69
330
1A
100
AcDbEntity
  8
ZUWAKU
100
AcDbLine
 10
45.59221262389485
 20
20.44999976425761
 30
0.0
 11
45.59221262389485
 21
18.63479773890227
 31
0.0
  0
LINE
  5
2F6A
330
1A
100
AcDbEntity
  8
ZUWAKU
100
AcDbLine
 10
42.96721262389485
 20
23.24999976425761
 30
0.0
 11
41.21721262389485
 21
23.24999976425761
 31
0.0
  0
ARC
  5
2F6B
330
1A
100
AcDbEntity
  8
ZUWAKU
100
AcDbCircle
 10
37.87586784001518
 20
22.7249997642576
 30
0.0
 40
0.525
100
AcDbArc
 50
342.4744316262769
 51
90.0
  0
ARC
  5
2F6C
330
1A
100
AcDbEntity
  8
ZUWAKU
100
AcDbCircle
 10
41.21721262389485
 20
22.7249997642576
 30
0.0
 40
0.525
100
AcDbArc
 50
90.0
 51
180.0
  0
ARC
  5
2F6D
330
1A
100
AcDbEntity
  8
ZUWAKU
100
AcDbCircle
 10
42.96721262389485
 20
22.7249997642576
 30
0.0
 40
0.525
100
AcDbArc
 50
0.0
 51
90.0
  0
LINE
  5
2F6E
330
1A
100
AcDbEntity
  8
ZUWAKU
100
AcDbLine
 10
48.39221262389492
 20
19.92499976425761
 30
0.0
 11
48.39221262389492
 21
18.63479773890227
 31
0.0
  0
ARC
  5
2F6F
330
1A
100
AcDbEntity
  8
ZUWAKU
100
AcDbCircle
 10
48.9172126238949
 20
19.92499976425761
 30
0.0
 40
0.525
100
AcDbArc
 50
90.0
 51
180.0
  0
LINE
  5
2F70
330
1A
100
AcDbEntity
  8
ZUWAKU
100
AcDbLine
 10
48.39221262389492
 20
23.24999976425761
 30
0.0
 11
51.89221262389492
 21
23.24999976425761
 31
0.0
  0
TEXT
  5
2F71
330
1A
100
AcDbEntity
  8
MOJI
100
AcDbText
 10
239.8272031499648
 20
18.00492082166499
 30
0.0
 40
5.599999999999999
  1
洋風じょうご
 41
0.9
  7
ｽﾀｲﾙ1
100
AcDbText
  0
TEXT
  5
2F72
330
1A
100
AcDbEntity
  8
MOJI
100
AcDbText
 10
92.95779005728286
 20
12.74117789453237
 30
0.0
 40
6.0
  1
アートフェイスＶＭ１６０
 41
0.9
  7
ｽﾀｲﾙ1
100
AcDbText
  0
LINE
  5
2F73
330
1A
100
AcDbEntity
  8
ZUWAKU
100
AcDbLine
 10
57.84221262389485
 20
10.9999997642576
 30
0.0
 11
57.84221262389485
 21
22.7249997642576
 31
0.0
  0
LINE
  5
2F74
330
1A
100
AcDbEntity
  8
ZUWAKU
100
AcDbLine
 10
55.04221262389489
 20
22.7249997642576
 30
0.0
 11
55.04221262389489
 21
9.949999764257611
 31
0.0
  0
LINE
  5
2F75
330
1A
100
AcDbEntity
  8
ZUWAKU
100
AcDbLine
 10
66.24221262389482
 20
22.7249997642576
 30
0.0
 11
66.24221262389482
 21
7.674999764257613
 31
0.0
  0
LINE
  5
2F76
330
1A
100
AcDbEntity
  8
ZUWAKU
100
AcDbLine
 10
69.0422126238949
 20
7.674999764257613
 30
0.0
 11
69.0422126238949
 21
22.7249997642576
 31
0.0
  0
LINE
  5
2F77
330
1A
100
AcDbEntity
  8
ZUWAKU
100
AcDbLine
 10
61.34221262389485
 20
22.7249997642576
 30
0.0
 11
61.34221262389485
 21
10.9999997642576
 31
0.0
  0
LINE
  5
2F78
330
1A
100
AcDbEntity
  8
ZUWAKU
100
AcDbLine
 10
64.14221262389492
 20
9.949999764257611
 30
0.0
 11
64.14221262389492
 21
22.7249997642576
 31
0.0
  0
LINE
  5
2F79
330
1A
100
AcDbEntity
  8
ZUWAKU
100
AcDbLine
 10
79.12663001710211
 20
29.9999997642576
 30
0.0
 11
79.12663001710211
 21
0.7999997642576773
 31
0.0
  0
LINE
  5
2F7A
330
1A
100
AcDbEntity
  8
ZUWAKU
100
AcDbLine
 10
79.52663001710198
 20
29.9999997642576
 30
0.0
 11
79.5266300171022
 21
0.7999997642576773
 31
0.0
  0
LINE
  5
2F7B
330
1A
100
AcDbEntity
  8
ZUWAKU
100
AcDbLine
 10
79.32663001710193
 20
29.9999997642576
 30
0.0
 11
79.32663001710216
 21
0.7999997642576773
 31
0.0
  0
LINE
  5
2F7C
330
1A
100
AcDbEntity
  8
ZUWAKU
100
AcDbLine
 10
208.4466017591814
 20
29.9999997642576
 30
0.0
 11
208.4466017591817
 21
0.7999997642576773
 31
0.0
  0
LINE
  5
2F7D
330
1A
100
AcDbEntity
  8
ZUWAKU
100
AcDbLine
 10
208.6466017591815
 20
29.9999997642576
 30
0.0
 11
208.6466017591817
 21
0.7999997642576773
 31
0.0
  0
LINE
  5
2F7E
330
1A
100
AcDbEntity
  8
ZUWAKU
100
AcDbLine
 10
208.2466017591816
 20
29.9999997642576
 30
0.0
 11
208.2466017591816
 21
0.7999997642576773
 31
0.0
  0
ARC
  5
2F7F
330
1A
100
AcDbEntity
  8
ZUWAKU
100
AcDbCircle
 10
57.84221262389485
 20
9.949999764257611
 30
0.0
 40
2.799999999999999
100
AcDbArc
 50
180.0
 51
270.0
  0
ARC
  5
2F80
330
1A
100
AcDbEntity
  8
ZUWAKU
100
AcDbCircle
 10
61.34221262389485
 20
9.949999764257611
 30
0.0
 40
2.799999999999999
100
AcDbArc
 50
270.0
 51
0.0
  0
LINE
  5
2F81
330
1A
100
AcDbEntity
  8
ZUWAKU
100
AcDbLine
 10
66.76721262389492
 20
7.149999764257614
 30
0.0
 11
68.51721262389492
 21
7.149999764257614
 31
0.0
  0
ARC
  5
2F82
330
1A
100
AcDbEntity
  8
ZUWAKU
100
AcDbCircle
 10
66.76721262389492
 20
7.674999764257613
 30
0.0
 40
0.525
100
AcDbArc
 50
180.0
 51
270.0
  0
ARC
  5
2F83
330
1A
100
AcDbEntity
  8
ZUWAKU
100
AcDbCircle
 10
68.51721262389492
 20
7.674999764257613
 30
0.0
 40
0.525
100
AcDbArc
 50
270.0
 51
0.0
  0
ARC
  5
2F84
330
1A
100
AcDbEntity
  8
ZUWAKU
100
AcDbCircle
 10
58.89221262389492
 20
10.9999997642576
 30
0.0
 40
1.049999999999999
100
AcDbArc
 50
180.0
 51
270.0
  0
LINE
  5
2F85
330
1A
100
AcDbEntity
  8
ZUWAKU
100
AcDbLine
 10
57.84221262389485
 20
7.149999764257614
 30
0.0
 11
61.34221262389485
 21
7.149999764257614
 31
0.0
  0
ARC
  5
2F86
330
1A
100
AcDbEntity
  8
ZUWAKU
100
AcDbCircle
 10
60.2922126238949
 20
10.9999997642576
 30
0.0
 40
1.049999999999999
100
AcDbArc
 50
270.0
 51
0.0
  0
LINE
  5
2F87
330
1A
100
AcDbEntity
  8
ZUWAKU
100
AcDbLine
 10
60.2922126238949
 20
9.949999764257611
 30
0.0
 11
58.89221262389492
 21
9.949999764257611
 31
0.0
  0
TEXT
  5
2F88
330
1A
100
AcDbEntity
  8
ZUWAKU
100
AcDbText
 10
209.7240467813912
 20
9.655356302643227
 30
0.0
 40
4.0
  1
サイズ
 41
0.9
  7
ｽﾀｲﾙ1
100
AcDbText
  0
LINE
  5
2F89
330
1A
100
AcDbEntity
  8
ZUWAKU
100
AcDbLine
 10
68.51721262389492
 20
23.24999976425761
 30
0.0
 11
66.76721262389492
 21
23.24999976425761
 31
0.0
  0
ARC
  5
2F8A
330
1A
100
AcDbEntity
  8
ZUWAKU
100
AcDbCircle
 10
66.76721262389492
 20
22.7249997642576
 30
0.0
 40
0.525
100
AcDbArc
 50
90.0
 51
180.0
  0
ARC
  5
2F8B
330
1A
100
AcDbEntity
  8
ZUWAKU
100
AcDbCircle
 10
68.51721262389492
 20
22.7249997642576
 30
0.0
 40
0.525
100
AcDbArc
 50
0.0
 51
90.0
  0
LINE
  5
2F8C
330
1A
100
AcDbEntity
  8
ZUWAKU
100
AcDbLine
 10
57.31721262389488
 20
23.24999976425761
 30
0.0
 11
55.56721262389487
 21
23.24999976425761
 31
0.0
  0
ARC
  5
2F8D
330
1A
100
AcDbEntity
  8
ZUWAKU
100
AcDbCircle
 10
55.56721262389487
 20
22.7249997642576
 30
0.0
 40
0.525
100
AcDbArc
 50
90.0
 51
180.0
  0
ARC
  5
2F8E
330
1A
100
AcDbEntity
  8
ZUWAKU
100
AcDbCircle
 10
57.31721262389488
 20
22.7249997642576
 30
0.0
 40
0.525
100
AcDbArc
 50
0.0
 51
90.0
  0
ARC
  5
2F8F
330
1A
100
AcDbEntity
  8
ZUWAKU
100
AcDbCircle
 10
61.86721262389482
 20
22.7249997642576
 30
0.0
 40
0.525
100
AcDbArc
 50
90.0
 51
180.0
  0
LINE
  5
2F90
330
1A
100
AcDbEntity
  8
ZUWAKU
100
AcDbLine
 10
63.61721262389483
 20
23.24999976425761
 30
0.0
 11
61.86721262389482
 21
23.24999976425761
 31
0.0
  0
ARC
  5
2F91
330
1A
100
AcDbEntity
  8
ZUWAKU
100
AcDbCircle
 10
63.61721262389483
 20
22.7249997642576
 30
0.0
 40
0.525
100
AcDbArc
 50
0.0
 51
90.0
  0
TEXT
  5
2F92
330
1A
100
AcDbEntity
  8
ZUWAKU
100
AcDbText
 10
209.724046781391
 20
24.05535630264319
 30
0.0
 40
4.0
  1
品名
 41
0.9
  7
ｽﾀｲﾙ1
100
AcDbText
  0
TEXT
  5
2F93
330
1A
100
AcDbEntity
  8
MOJI
100
AcDbText
 10
528.0409084414266
 20
18.00492082166499
 30
0.0
 40
5.599999999999999
  1
Ａ３
 41
0.9
  7
ｽﾀｲﾙ1
100
AcDbText
  0
LINE
  5
2F94
330
1A
100
AcDbEntity
  8
ZUWAKU
100
AcDbLine
 10
504.9991799672546
 20
29.9999997642576
 30
0.0
 11
504.9991799672548
 21
0.7999997642576773
 31
0.0
  0
LINE
  5
2F95
330
1A
100
AcDbEntity
  8
ZUWAKU
100
AcDbLine
 10
505.1991799672546
 20
29.9999997642576
 30
0.0
 11
505.1991799672548
 21
0.7999997642576773
 31
0.0
  0
LINE
  5
2F96
330
1A
100
AcDbEntity
  8
ZUWAKU
100
AcDbLine
 10
504.7991799672547
 20
29.9999997642576
 30
0.0
 11
504.7991799672547
 21
0.7999997642576773
 31
0.0
  0
LINE
  5
2F97
330
1A
100
AcDbEntity
  8
ZUWAKU
100
AcDbLine
 10
552.5269562352262
 20
29.9999997642576
 30
0.0
 11
552.5269562352262
 21
0.7999997642576773
 31
0.0
  0
LINE
  5
2F98
330
1A
100
AcDbEntity
  8
ZUWAKU
100
AcDbLine
 10
552.926956235226
 20
29.9999997642576
 30
0.0
 11
552.9269562352262
 21
0.7999997642576773
 31
0.0
  0
LINE
  5
2F99
330
1A
100
AcDbEntity
  8
ZUWAKU
100
AcDbLine
 10
552.726956235226
 20
29.9999997642576
 30
0.0
 11
552.7269562352262
 21
0.7999997642576773
 31
0.0
  0
LINE
  5
2F9A
330
1A
100
AcDbEntity
  8
ZUWAKU
100
AcDbLine
 10
447.624364440105
 20
29.9999997642576
 30
0.0
 11
447.6243644401051
 21
0.7999997642576773
 31
0.0
  0
LINE
  5
2F9B
330
1A
100
AcDbEntity
  8
ZUWAKU
100
AcDbLine
 10
447.8243644401049
 20
29.9999997642576
 30
0.0
 11
447.8243644401052
 21
0.7999997642576773
 31
0.0
  0
LINE
  5
2F9C
330
1A
100
AcDbEntity
  8
ZUWAKU
100
AcDbLine
 10
447.4243644401051
 20
29.9999997642576
 30
0.0
 11
447.4243644401051
 21
0.7999997642576773
 31
0.0
  0
TEXT
  5
2F9D
330
1A
100
AcDbEntity
  8
MOJI
100
AcDbText
 10
463.2464324601158
 20
11.94261748591759
 30
0.0
 40
5.599999999999999
  1
ＰＧ２１□
 41
0.9
  7
ｽﾀｲﾙ1
100
AcDbText
  0
LINE
  5
2F9E
330
1A
100
AcDbEntity
  8
ZUWAKU
100
AcDbLine
 10
505.1991799672546
 20
15.19999976425764
 30
0.0
 11
552.5269562352262
 21
15.19999976425764
 31
0.0
  0
LINE
  5
2F9F
330
1A
100
AcDbEntity
  8
ZUWAKU
100
AcDbLine
 10
505.1991799672546
 20
15.39999976425764
 30
0.0
 11
552.5269562352262
 21
15.39999976425764
 31
0.0
  0
LINE
  5
2FA0
330
1A
100
AcDbEntity
  8
ZUWAKU
100
AcDbLine
 10
505.1991799672546
 20
15.59999976425764
 30
0.0
 11
552.5269562352262
 21
15.59999976425764
 31
0.0
  0
TEXT
  5
2FA1
330
1A
100
AcDbEntity
  8
ZUWAKU
100
AcDbText
 10
506.6766249894644
 20
9.655356302643227
 30
0.0
 40
4.0
  1
縮尺
 41
0.9
  7
ｽﾀｲﾙ1
100
AcDbText
  0
TEXT
  5
2FA2
330
1A
100
AcDbEntity
  8
ZUWAKU
100
AcDbText
 10
462.0597167350476
 20
2.614070675397101
 30
0.0
 40
3.0
  1
□には色品番が入ります
 41
0.9
  7
ｽﾀｲﾙ1
100
AcDbText
  0
TEXT
  5
2FA3
330
1A
100
AcDbEntity
  8
MOJI
100
AcDbText
 10
528.0409084414266
 20
3.20492082166503
 30
0.0
 40
5.599999999999999
  1
１/２
 41
0.9
  7
ｽﾀｲﾙ1
100
AcDbText
  0
TEXT
  5
2FA4
330
1A
100
AcDbEntity
  8
ZUWAKU
100
AcDbText
 10
449.3018094623145
 20
24.05535630264319
 30
0.0
 40
4.0
  1
品番
 41
0.9
  7
ｽﾀｲﾙ1
100
AcDbText
  0
TEXT
  5
2FA5
330
1A
100
AcDbEntity
  8
ZUWAKU
100
AcDbText
 10
506.6766249894642
 20
24.05535630264319
 30
0.0
 40
4.0
  1
用紙
 41
0.9
  7
ｽﾀｲﾙ1
100
AcDbText
  0
TEXT
  5
2FA6
330
1A
100
AcDbEntity
  8
ZUWAKU
100
AcDbText
 10
708.5280846613575
 20
17.55383909994441
 30
0.0
 40
6.0
  1
積水化学工業株式会社
 41
0.9
  7
ｽﾀｲﾙ1
100
AcDbText
  0
TEXT
  5
2FA7
330
1A
100
AcDbEntity
  8
ZUWAKU
100
AcDbText
 10
658.2039381564161
 20
18.00492082166499
 30
0.0
 40
5.599999999999999
  1
　　．　　．　　
 41
0.9
  7
ｽﾀｲﾙ1
100
AcDbText
  0
LINE
  5
2FA8
330
1A
100
AcDbEntity
  8
ZUWAKU
100
AcDbLine
 10
697.8490110176549
 20
29.9999997642576
 30
0.0
 11
697.8490110176551
 21
0.7999997642576773
 31
0.0
  0
LINE
  5
2FA9
330
1A
100
AcDbEntity
  8
ZUWAKU
100
AcDbLine
 10
697.6490110176548
 20
29.9999997642576
 30
0.0
 11
697.649011017655
 21
0.7999997642576773
 31
0.0
  0
LINE
  5
2FAA
330
1A
100
AcDbEntity
  8
ZUWAKU
100
AcDbLine
 10
697.449011017655
 20
29.9999997642576
 30
0.0
 11
697.449011017655
 21
0.7999997642576773
 31
0.0
  0
LINE
  5
2FAB
330
1A
100
AcDbEntity
  8
ZUWAKU
100
AcDbLine
 10
697.249011017655
 20
29.9999997642576
 30
0.0
 11
697.249011017655
 21
0.7999997642576773
 31
0.0
  0
LINE
  5
2FAC
330
1A
100
AcDbEntity
  8
ZUWAKU
100
AcDbLine
 10
648.4172029793183
 20
29.9999997642576
 30
0.0
 11
648.4172029793183
 21
0.7999997642576773
 31
0.0
  0
LINE
  5
2FAD
330
1A
100
AcDbEntity
  8
ZUWAKU
100
AcDbLine
 10
648.8172029793181
 20
29.9999997642576
 30
0.0
 11
648.8172029793183
 21
0.7999997642576773
 31
0.0
  0
LINE
  5
2FAE
330
1A
100
AcDbEntity
  8
ZUWAKU
100
AcDbLine
 10
648.6172029793181
 20
29.9999997642576
 30
0.0
 11
648.6172029793183
 21
0.7999997642576773
 31
0.0
  0
TEXT
  5
2FAF
330
1A
100
AcDbEntity
  8
ZUWAKU
100
AcDbText
 10
708.5280846613575
 20
6.648840078111675
 30
0.0
 40
6.0
  1
建材事業部
 41
0.9
  7
ｽﾀｲﾙ1
100
AcDbText
  0
LINE
  5
2FB0
330
1A
100
AcDbEntity
  8
ZUWAKU
100
AcDbLine
 10
648.8172029793179
 20
15.19999976425764
 30
0.0
 11
697.249011017655
 21
15.19999976425764
 31
0.0
  0
LINE
  5
2FB1
330
1A
100
AcDbEntity
  8
ZUWAKU
100
AcDbLine
 10
648.8172029793181
 20
15.39999976425764
 30
0.0
 11
697.249011017655
 21
15.39999976425764
 31
0.0
  0
LINE
  5
2FB2
330
1A
100
AcDbEntity
  8
ZUWAKU
100
AcDbLine
 10
648.8172029793179
 20
15.59999976425764
 30
0.0
 11
697.249011017655
 21
15.59999976425764
 31
0.0
  0
TEXT
  5
2FB3
330
1A
100
AcDbEntity
  8
ZUWAKU
100
AcDbText
 10
650.2946480015277
 20
24.05535630264319
 30
0.0
 40
4.0
  1
DATE
 41
0.9
  7
ｽﾀｲﾙ1
100
AcDbText
  0
DIMENSION
  5
330F
330
1A
100
AcDbEntity
  8
SUNPOU
100
AcDbDimension
  2
*D1
 10
376.8354625488715
 20
301.714780732852
 30
0.0
 11
261.8354625488714
 21
306.7147807328519
 31
0.0
 70
    32
  3
STANDARD
100
AcDbAlignedDimension
 13
146.8354625488714
 23
275.0384282601728
 33
0.0
 14
376.8354625488715
 24
275.0384282601728
 34
0.0
100
AcDbRotatedDimension
1001
ACAD
1000
DSTYLE
1002
{
1070
    41
1040
7.0
1070
    42
1040
6.0
1070
    43
1040
14.0
1070
    44
1040
3.0
1070
    73
1070
     0
1070
    74
1070
     0
1070
    77
1070
     3
1070
   140
1040
6.0
1070
   141
1040
30.0
1070
   147
1040
2.0
1070
   172
1070
     1
1070
   176
1070
   256
1070
   177
1070
   256
1070
   178
1070
   256
1070
   271
1070
     0
1070
   272
1070
     0
1070
   341
1005
6D
1070
     5
1000
OPEN
1070
   371
1070
    -1
1070
   372
1070
    -1
1002
}
  0
LINE
  5
3310
330
1A
100
AcDbEntity
  8
SEIHIN
 48
10.0
100
AcDbLine
 10
227.7354625488715
 20
101.9419620284728
 30
0.0
 11
227.7354625488715
 21
114.8419620284728
 31
0.0
  0
LINE
  5
3311
330
1A
100
AcDbEntity
  8
CENTER_L
 48
10.0
100
AcDbLine
 10
261.8354625488714
 20
60.79066080166206
 30
0.0
 11
261.8354625488714
 21
286.716631224399
 31
0.0
  0
LINE
  5
3312
330
1A
100
AcDbEntity
  8
SEIHIN
 48
10.0
100
AcDbLine
 10
295.9354625488714
 20
101.9419620284728
 30
0.0
 11
295.9354625488714
 21
114.8419620284728
 31
0.0
  0
LINE
  5
3313
330
1A
100
AcDbEntity
  8
SEIHIN
  6
CONTINUOUS
 48
10.0
100
AcDbLine
 10
295.4354625488713
 20
101.4419620284728
 30
0.0
 11
228.2354625488715
 21
101.4419620284728
 31
0.0
  0
LINE
  5
3314
330
1A
100
AcDbEntity
  8
SEIHIN
 48
10.0
100
AcDbLine
 10
230.7354626042716
 20
96.14196202847285
 30
0.0
 11
292.9354625488713
 21
96.14196202847288
 31
0.0
  0
LINE
  5
3315
330
1A
100
AcDbEntity
  8
SEIHIN
 48
10.0
100
AcDbLine
 10
227.7354625488715
 20
99.14196202847286
 30
0.0
 11
295.9354625488714
 21
99.14196202847286
 31
0.0
  0
LINE
  5
3316
330
1A
100
AcDbEntity
  8
SEIHIN
 48
10.0
100
AcDbLine
 10
232.6354625488716
 20
82.64196202847285
 30
0.0
 11
291.0354625488713
 21
82.64196202847285
 31
0.0
  0
LINE
  5
3317
330
1A
100
AcDbEntity
  8
SEIHIN
 48
10.0
100
AcDbLine
 10
289.5354625488712
 20
72.64196202847284
 30
0.0
 11
234.1354625488716
 21
72.64196202847284
 31
0.0
  0
LINE
  5
3318
330
1A
100
AcDbEntity
  8
SEIHIN
 48
10.0
100
AcDbLine
 10
232.6354625488716
 20
82.64196202847285
 30
0.0
 11
232.6354625488716
 21
95.14196202847285
 31
0.0
  0
LINE
  5
3319
330
1A
100
AcDbEntity
  8
SEIHIN
 48
10.0
100
AcDbLine
 10
234.1354625488716
 20
72.64196202847284
 30
0.0
 11
232.6354625488716
 21
82.64196202847285
 31
0.0
  0
ARC
  5
331A
330
1A
100
AcDbEntity
  8
SEIHIN
 48
10.0
100
AcDbCircle
 10
230.7354625488715
 20
99.14196202847286
 30
0.0
 40
3.0
100
AcDbArc
 50
180.0
 51
270.0
  0
ARC
  5
331B
330
1A
100
AcDbEntity
  8
SEIHIN
 48
10.0
100
AcDbCircle
 10
231.6354625488716
 20
95.14196202847285
 30
0.0
 40
1.0
100
AcDbArc
 50
0.0
 51
90.0
  0
ARC
  5
331C
330
1A
100
AcDbEntity
  8
SEIHIN
 48
10.0
100
AcDbCircle
 10
228.3173365625751
 20
99.90362781843163
 30
0.0
 40
1.540511439718334
100
AcDbArc
 50
350.2205276783524
 51
93.04655099478427
  0
ARC
  5
331D
330
1A
100
AcDbEntity
  8
SEIHIN
 48
10.0
100
AcDbCircle
 10
228.2354625488715
 20
101.9419620284728
 30
0.0
 40
0.5
100
AcDbArc
 50
180.0
 51
270.0
  0
ARC
  5
331E
330
1A
100
AcDbEntity
  8
SEIHIN
 48
10.0
100
AcDbCircle
 10
229.3354625488714
 20
99.64196202847285
 30
0.0
 40
0.5
100
AcDbArc
 50
270.0
 51
0.0
  0
LINE
  5
331F
330
1A
100
AcDbEntity
  8
SEIHIN
 48
10.0
100
AcDbLine
 10
291.0354625488713
 20
82.64196202847285
 30
0.0
 11
291.0354625488713
 21
95.14196202847285
 31
0.0
  0
LINE
  5
3320
330
1A
100
AcDbEntity
  8
SEIHIN
 48
10.0
100
AcDbLine
 10
289.5354625488712
 20
72.64196202847284
 30
0.0
 11
291.0354625488713
 21
82.64196202847285
 31
0.0
  0
ARC
  5
3321
330
1A
100
AcDbEntity
  8
SEIHIN
 48
10.0
100
AcDbCircle
 10
292.9354625488713
 20
99.14196202847286
 30
0.0
 40
3.0
100
AcDbArc
 50
270.0
 51
0.0
  0
ARC
  5
3322
330
1A
100
AcDbEntity
  8
SEIHIN
 48
10.0
100
AcDbCircle
 10
292.0354625488712
 20
95.14196202847285
 30
0.0
 40
1.0
100
AcDbArc
 50
90.0
 51
180.0
  0
ARC
  5
3323
330
1A
100
AcDbEntity
  8
SEIHIN
 48
10.0
100
AcDbCircle
 10
295.3535885351678
 20
99.90362781843163
 30
0.0
 40
1.540511439718334
100
AcDbArc
 50
86.95344900521574
 51
189.7794723216475
  0
ARC
  5
3324
330
1A
100
AcDbEntity
  8
SEIHIN
 48
10.0
100
AcDbCircle
 10
294.3354625488714
 20
99.64196202847285
 30
0.0
 40
0.5
100
AcDbArc
 50
180.0
 51
270.0
  0
ARC
  5
3325
330
1A
100
AcDbEntity
  8
SEIHIN
 48
10.0
100
AcDbCircle
 10
295.4354625488713
 20
101.9419620284728
 30
0.0
 40
0.5
100
AcDbArc
 50
270.0
 51
0.0
  0
LINE
  5
3326
330
1A
100
AcDbEntity
  8
SEIHIN
 48
10.0
100
AcDbLine
 10
376.8354625488714
 20
143.3419620284728
 30
0.0
 11
146.8354625488714
 21
143.3419620284728
 31
0.0
  0
LINE
  5
3327
330
1A
100
AcDbEntity
  8
SEIHIN
 48
10.0
100
AcDbLine
 10
358.5030546273713
 20
248.8419620284728
 30
0.0
 11
261.8354625488714
 21
248.8419620284728
 31
0.0
  0
LINE
  5
3328
330
1A
100
AcDbEntity
  8
SEIHIN
  6
CONTINUOUS
 48
10.0
100
AcDbLine
 10
358.5030546273713
 20
275.1741109647728
 30
0.0
 11
261.8354625488714
 21
275.1741109645228
 31
0.0
  0
LINE
  5
3329
330
1A
100
AcDbEntity
  8
SEIHIN
 48
10.0
100
AcDbLine
 10
313.0730086097715
 20
116.3419620284728
 30
0.0
 11
261.8354625488714
 21
116.3419620284728
 31
0.0
  0
LINE
  5
332A
330
1A
100
AcDbEntity
  8
SEIHIN
  6
CONTINUOUS
 48
10.0
100
AcDbLine
 10
146.8354625488714
 20
134.6078058429728
 30
0.0
 11
146.8354625488714
 21
275.0384282601728
 31
0.0
  0
ARC
  5
332B
330
1A
100
AcDbEntity
  8
SEIHIN
 48
10.0
100
AcDbCircle
 10
18.58153484500803
 20
-218.4314276180779
 30
0.0
 40
384.5659378220911
100
AcDbArc
 50
60.87133075338817
 51
66.32384276308657
  0
LINE
  5
332C
330
1A
100
AcDbEntity
  8
SEIHIN
 48
10.0
100
AcDbLine
 10
173.0104105319715
 20
133.7655100276728
 30
0.0
 11
146.8354625488714
 21
134.6078058429728
 31
0.0
  0
LINE
  5
332D
330
1A
100
AcDbEntity
  8
SEIHIN
 48
10.0
100
AcDbLine
 10
210.5979164879714
 20
116.3419620284728
 30
0.0
 11
261.8354625488714
 21
116.3419620284728
 31
0.0
  0
LINE
  5
332E
330
1A
100
AcDbEntity
  8
SEIHIN
 48
10.0
100
AcDbLine
 10
210.5979164879714
 20
116.3419620284728
 30
0.0
 11
210.4511109884716
 21
116.3419620284728
 31
0.0
  0
ARC
  5
332F
330
1A
100
AcDbEntity
  8
SEIHIN
 48
10.0
100
AcDbCircle
 10
209.8223580679421
 20
123.7356087722439
 30
0.0
 40
7.434211661942098
100
AcDbArc
 50
237.0392644638242
 51
275.9881565718246
  0
ARC
  5
3330
330
1A
100
AcDbEntity
  8
SEIHIN
 48
10.0
100
AcDbCircle
 10
226.2354625488715
 20
114.8419620284728
 30
0.0
 40
1.5
100
AcDbArc
 50
0.0
 51
90.0
  0
LINE
  5
3331
330
1A
100
AcDbEntity
  8
SEIHIN
 48
10.0
100
AcDbLine
 10
165.1678704703715
 20
248.8419620284728
 30
0.0
 11
261.8354625488714
 21
248.8419620284728
 31
0.0
  0
LINE
  5
3332
330
1A
100
AcDbEntity
  8
SEIHIN
  6
CONTINUOUS
 48
10.0
100
AcDbLine
 10
165.1678704703715
 20
275.1741109647734
 30
0.0
 11
261.8354625488714
 21
275.1741109645228
 31
0.0
  0
LINE
  5
3333
330
1A
100
AcDbEntity
  8
SEIHIN
 48
10.0
100
AcDbLine
 10
165.1678704703716
 20
248.8419620284728
 30
0.0
 11
146.8354625488714
 21
249.3419620284728
 31
0.0
  0
LINE
  5
3334
330
1A
100
AcDbEntity
  8
SEIHIN
 48
10.0
100
AcDbLine
 10
165.1678704703716
 20
275.1741109647728
 30
0.0
 11
146.8354625488714
 21
275.0384282601728
 31
0.0
  0
LINE
  5
3335
330
1A
100
AcDbEntity
  8
SEIHIN
  6
CONTINUOUS
 48
10.0
100
AcDbLine
 10
376.8354625488715
 20
134.6078058429728
 30
0.0
 11
376.8354625488715
 21
275.0384282601728
 31
0.0
  0
ARC
  5
3336
330
1A
100
AcDbEntity
  8
SEIHIN
 48
10.0
100
AcDbCircle
 10
505.0893902527349
 20
-218.4314276180779
 30
0.0
 40
384.5659378220911
100
AcDbArc
 50
113.6761572369134
 51
119.1286692466118
  0
ARC
  5
3337
330
1A
100
AcDbEntity
  8
SEIHIN
 48
10.0
100
AcDbCircle
 10
297.4354625488714
 20
114.8419620284728
 30
0.0
 40
1.5
100
AcDbArc
 50
90.0
 51
180.0
  0
ARC
  5
3338
330
1A
100
AcDbEntity
  8
SEIHIN
 48
10.0
100
AcDbCircle
 10
313.8485670298007
 20
123.7356087722439
 30
0.0
 40
7.434211661942098
100
AcDbArc
 50
264.0118434281753
 51
302.9607355361757
  0
LINE
  5
3339
330
1A
100
AcDbEntity
  8
SEIHIN
 48
10.0
100
AcDbLine
 10
313.0730086097715
 20
116.3419620284728
 30
0.0
 11
313.2198141092713
 21
116.3419620284728
 31
0.0
  0
LINE
  5
333A
330
1A
100
AcDbEntity
  8
SEIHIN
 48
10.0
100
AcDbLine
 10
350.6605145657713
 20
133.7655100276728
 30
0.0
 11
376.8354625488715
 21
134.6078058429728
 31
0.0
  0
LINE
  5
333B
330
1A
100
AcDbEntity
  8
SEIHIN
 48
10.0
100
AcDbLine
 10
358.5030546273713
 20
248.8419620284728
 30
0.0
 11
376.8354625488715
 21
249.3419620284728
 31
0.0
  0
LINE
  5
333C
330
1A
100
AcDbEntity
  8
SEIHIN
 48
10.0
100
AcDbLine
 10
358.5030546273713
 20
275.1741109647728
 30
0.0
 11
376.8354625488715
 21
275.0384282601728
 31
0.0
  0
LINE
  5
333D
330
1A
100
AcDbEntity
  8
SEIHIN
 48
10.0
100
AcDbLine
 10
346.8354625488714
 20
516.5942151581809
 30
0.0
 11
346.8354625488714
 21
408.0911875782808
 31
0.0
  0
LINE
  5
333E
330
1A
100
AcDbEntity
  8
SEIHIN
 48
10.0
100
AcDbLine
 10
376.8354625488715
 20
516.2214683691809
 30
0.0
 11
376.8354625488715
 21
357.1398043917918
 31
0.0
  0
LINE
  5
333F
330
1A
100
AcDbEntity
  8
SEIHIN
 48
10.0
100
AcDbLine
 10
313.3208052721783
 20
509.8673373593499
 30
0.0
 11
313.117813328146
 21
423.3104615841283
 31
0.0
  0
LINE
  5
3340
330
1A
100
AcDbEntity
  8
SEIHIN
 48
10.0
100
AcDbLine
 10
316.888304525218
 20
423.0330684539808
 30
0.0
 11
316.8520886754525
 21
509.9060253297809
 31
0.0
  0
LINE
  5
3341
330
1A
100
AcDbEntity
  8
SUNPOU
  6
PHANTOM
 48
10.0
100
AcDbLine
 10
219.3354625488714
 20
361.1891919636529
 30
0.0
 11
219.3354625488714
 21
509.5715662217505
 31
0.0
  0
LINE
  5
3342
330
1A
100
AcDbEntity
  8
SUNPOU
  6
PHANTOM
 48
10.0
100
AcDbLine
 10
304.3354625488714
 20
361.1891919636529
 30
0.0
 11
304.3354625488714
 21
509.5715662217505
 31
0.0
  0
LINE
  5
3343
330
1A
100
AcDbEntity
  8
CENTER_L
 48
10.0
100
AcDbLine
 10
261.8354625488714
 20
348.4216513786536
 30
0.0
 11
261.8354625488714
 21
532.0426998726673
 31
0.0
  0
LINE
  5
3344
330
1A
100
AcDbEntity
  8
SEIHIN
 48
10.0
100
AcDbLine
 10
206.7826205725249
 20
423.0330684539808
 30
0.0
 11
206.8188364222903
 21
509.9060253297809
 31
0.0
  0
LINE
  5
3345
330
1A
100
AcDbEntity
  8
SEIHIN
 48
10.0
100
AcDbLine
 10
210.3501198255646
 20
509.8673373593499
 30
0.0
 11
210.5531117695969
 21
423.3104615841283
 31
0.0
  0
LINE
  5
3346
330
1A
100
AcDbEntity
  8
SEIHIN
 48
10.0
100
AcDbLine
 10
176.8354625488715
 20
516.5942151581809
 30
0.0
 11
176.8354625488714
 21
408.0911875782808
 31
0.0
  0
CIRCLE
  5
3347
330
1A
100
AcDbEntity
  8
SEIHIN
 48
10.0
100
AcDbCircle
 10
261.8354625488715
 20
469.3571071468809
 30
0.0
 40
26.61288004160002
  0
CIRCLE
  5
3348
330
1A
100
AcDbEntity
  8
SEIHIN
 48
10.0
100
AcDbCircle
 10
261.8354625488715
 20
469.3571071468809
 30
0.0
 40
31.4979981838
  0
CIRCLE
  5
3349
330
1A
100
AcDbEntity
  8
SEIHIN
 48
10.0
100
AcDbCircle
 10
261.8354625488715
 20
469.3571071468809
 30
0.0
 40
29.37093150390001
  0
LINE
  5
334A
330
1A
100
AcDbEntity
  8
SEIHIN
 48
10.0
100
AcDbLine
 10
146.8354625488714
 20
516.2214683691809
 30
0.0
 11
146.8354625488714
 21
357.1398043917918
 31
0.0
  0
LINE
  5
334B
330
1A
100
AcDbEntity
  8
SEIHIN
 48
10.0
100
AcDbLine
 10
343.8354625488714
 20
360.6527156154809
 30
0.0
 11
261.8354625488714
 21
360.6527156154809
 31
0.0
  0
LINE
  5
334C
330
1A
100
AcDbEntity
  8
SEIHIN
 48
10.0
100
AcDbLine
 10
358.5030546273713
 20
356.9071565092808
 30
0.0
 11
165.1678704702715
 21
356.9071564702808
 31
0.0
  0
LINE
  5
334D
330
1A
100
AcDbEntity
  8
SEIHIN
 48
10.0
100
AcDbLine
 10
314.8278345760108
 20
423.0330684539807
 30
0.0
 11
262.7654852561715
 21
423.0330684539808
 31
0.0
  0
LINE
  5
334E
330
1A
100
AcDbEntity
  8
SEIHIN
 48
10.0
100
AcDbLine
 10
262.7718059383714
 20
415.8077639483807
 30
0.0
 11
346.8354625488714
 21
415.8077639483808
 31
0.0
  0
LINE
  5
334F
330
1A
100
AcDbEntity
  8
SEIHIN
 48
10.0
100
AcDbLine
 10
262.7718059383714
 20
410.0233483389809
 30
0.0
 11
346.8354625488714
 21
410.0233483389809
 31
0.0
  0
DIMENSION
  5
3350
330
1A
100
AcDbEntity
  8
SUNPOU
100
AcDbDimension
  2
*D2
 10
304.3354625488714
 20
336.7078522240454
 30
0.0
 11
261.8354625488714
 21
341.7078522240454
 31
0.0
 70
    32
  3
STANDARD
100
AcDbAlignedDimension
 13
219.3354625488714
 23
361.1891919636529
 33
0.0
 14
304.3354625488714
 24
361.1891919636529
 34
0.0
100
AcDbRotatedDimension
1001
ACAD
1000
DSTYLE
1002
{
1070
    41
1040
7.0
1070
    42
1040
6.0
1070
    43
1040
14.0
1070
    44
1040
3.0
1070
    73
1070
     0
1070
    74
1070
     0
1070
    77
1070
     3
1070
   140
1040
6.0
1070
   141
1040
30.0
1070
   147
1040
2.0
1070
   172
1070
     1
1070
   176
1070
   256
1070
   177
1070
   256
1070
   178
1070
   256
1070
   271
1070
     0
1070
   272
1070
     0
1070
   341
1005
6D
1070
     5
1000
OPEN
1070
   371
1070
    -1
1070
   372
1070
    -1
1002
}
  0
LINE
  5
3351
330
1A
100
AcDbEntity
  8
CENTER_L
 48
10.0
100
AcDbLine
 10
303.3150303512538
 20
469.3571071468809
 30
0.0
 11
217.2212800806005
 21
469.3571071468809
 31
0.0
  0
LINE
  5
3352
330
1A
100
AcDbEntity
  8
SEIHIN
 48
10.0
100
AcDbLine
 10
275.4237436058713
 20
361.8633293002808
 30
0.0
 11
248.3301710468714
 21
361.8633293002809
 31
0.0
  0
LINE
  5
3353
330
1A
100
AcDbEntity
  8
SEIHIN
 48
10.0
100
AcDbLine
 10
275.4237436058713
 20
361.1527156154809
 30
0.0
 11
248.3301710468714
 21
361.1527156154809
 31
0.0
  0
LINE
  5
3354
330
1A
100
AcDbEntity
  8
SEIHIN
 48
10.0
100
AcDbLine
 10
275.4028798131715
 20
363.9958679457809
 30
0.0
 11
248.3301710468714
 21
363.9958679457808
 31
0.0
  0
LINE
  5
3355
330
1A
100
AcDbEntity
  8
SEIHIN
 48
10.0
100
AcDbLine
 10
165.1678704703716
 20
356.9071565092808
 30
0.0
 11
358.5030546274714
 21
356.9071564702808
 31
0.0
  0
LINE
  5
3356
330
1A
100
AcDbEntity
  8
SEIHIN
 48
10.0
100
AcDbLine
 10
182.3354625488714
 20
361.8633293002808
 30
0.0
 11
246.3407540508714
 21
361.8633293002808
 31
0.0
  0
LINE
  5
3357
330
1A
100
AcDbEntity
  8
SEIHIN
 48
10.0
100
AcDbLine
 10
246.3407540508714
 20
363.9958679457809
 30
0.0
 11
182.3354625488714
 21
363.9958679457809
 31
0.0
  0
LINE
  5
3358
330
1A
100
AcDbEntity
  8
SEIHIN
 48
10.0
100
AcDbLine
 10
179.8354625488714
 20
360.6527156154809
 30
0.0
 11
261.8354625488714
 21
360.6527156154809
 31
0.0
  0
LINE
  5
3359
330
1A
100
AcDbEntity
  8
SEIHIN
 48
10.0
100
AcDbLine
 10
176.8354625488714
 20
372.260703888581
 30
0.0
 11
146.8354625488714
 21
372.260703888581
 31
0.0
  0
LINE
  5
335A
330
1A
100
AcDbEntity
  8
SEIHIN
 48
10.0
100
AcDbLine
 10
176.8354625488714
 20
374.6527156154809
 30
0.0
 11
146.8354625488714
 21
374.6527156154809
 31
0.0
  0
LINE
  5
335B
330
1A
100
AcDbEntity
  8
SEIHIN
 48
10.0
100
AcDbLine
 10
146.8354625488714
 20
357.1398043917918
 30
0.0
 11
165.1678704703716
 21
356.9071564702808
 31
0.0
  0
LINE
  5
335C
330
1A
100
AcDbEntity
  8
SEIHIN
 48
10.0
100
AcDbLine
 10
176.8354625488714
 20
370.9001420639808
 30
0.0
 11
176.8354625488714
 21
363.6527156154809
 31
0.0
  0
LINE
  5
335D
330
1A
100
AcDbEntity
  8
SEIHIN
 48
10.0
100
AcDbLine
 10
182.3354625488715
 20
363.099381819181
 30
0.0
 11
176.8869338123714
 21
363.0993818191809
 31
0.0
  0
LINE
  5
335E
330
1A
100
AcDbEntity
  8
SEIHIN
 48
10.0
100
AcDbLine
 10
179.2501915828714
 20
360.7103597742809
 30
0.0
 11
179.8354625488714
 21
360.6527156154809
 31
0.0
  0
LINE
  5
335F
330
1A
100
AcDbEntity
  8
SEIHIN
 48
10.0
100
AcDbLine
 10
176.8354625488714
 20
363.6527156154809
 30
0.0
 11
176.8931067076715
 21
363.0674446493808
 31
0.0
  0
LINE
  5
3360
330
1A
100
AcDbEntity
  8
SEIHIN
 48
10.0
100
AcDbLine
 10
176.8931067076715
 20
363.0674446493808
 30
0.0
 11
177.0638239513715
 21
362.5046653183808
 31
0.0
  0
LINE
  5
3361
330
1A
100
AcDbEntity
  8
SEIHIN
 48
10.0
100
AcDbLine
 10
177.0638239513715
 20
362.5046653183808
 30
0.0
 11
177.3410537119714
 21
361.9860049163808
 31
0.0
  0
LINE
  5
3362
330
1A
100
AcDbEntity
  8
SEIHIN
 48
10.0
100
AcDbLine
 10
177.3410537119714
 20
361.9860049163808
 30
0.0
 11
177.7141422053714
 21
361.5313952718809
 31
0.0
  0
LINE
  5
3363
330
1A
100
AcDbEntity
  8
SEIHIN
 48
10.0
100
AcDbLine
 10
177.7141422053714
 20
361.5313952718809
 30
0.0
 11
178.1687518498713
 21
361.1583067785809
 31
0.0
  0
LINE
  5
3364
330
1A
100
AcDbEntity
  8
SEIHIN
 48
10.0
100
AcDbLine
 10
178.6874122517716
 20
360.8810770178809
 30
0.0
 11
179.2501915828714
 21
360.7103597742809
 31
0.0
  0
LINE
  5
3365
330
1A
100
AcDbEntity
  8
SEIHIN
 48
10.0
100
AcDbLine
 10
178.1687518498713
 20
361.1583067785809
 30
0.0
 11
178.6874122517716
 21
360.8810770178809
 31
0.0
  0
LINE
  5
3366
330
1A
100
AcDbEntity
  8
SEIHIN
 48
10.0
100
AcDbLine
 10
182.3354625488714
 20
360.6527156154809
 30
0.0
 11
182.3354625488714
 21
363.9958679457809
 31
0.0
  0
LINE
  5
3367
330
1A
100
AcDbEntity
  8
SEIHIN
 48
10.0
100
AcDbLine
 10
182.3354625488714
 20
363.9958679457809
 30
0.0
 11
182.3313779175714
 21
363.9910858049809
 31
0.0
  0
LINE
  5
3368
330
1A
100
AcDbEntity
  8
SEIHIN
 48
10.0
100
AcDbLine
 10
176.8354625488714
 20
373.9414064845809
 30
0.0
 11
176.8354625488714
 21
374.6527156154809
 31
0.0
  0
LINE
  5
3369
330
1A
100
AcDbEntity
  8
SEIHIN
 48
10.0
100
AcDbLine
 10
176.8354625488714
 20
372.260703888581
 30
0.0
 11
176.8354625488714
 21
373.9414064845809
 31
0.0
  0
LINE
  5
336A
330
1A
100
AcDbEntity
  8
SEIHIN
 48
10.0
100
AcDbLine
 10
176.8354625488714
 20
370.9001420639808
 30
0.0
 11
176.8354625488714
 21
372.260703888581
 31
0.0
  0
LINE
  5
336B
330
1A
100
AcDbEntity
  8
SEIHIN
100
AcDbLine
 10
246.3407540508714
 20
366.147424113381
 30
0.0
 11
246.3407540508714
 21
360.6527156154809
 31
0.0
  0
LINE
  5
336C
330
1A
100
AcDbEntity
  8
SEIHIN
100
AcDbLine
 10
248.3301710468714
 20
366.147424113381
 30
0.0
 11
248.3301710468714
 21
360.6527156154809
 31
0.0
  0
LINE
  5
336D
330
1A
100
AcDbEntity
  8
SEIHIN
 48
10.0
100
AcDbLine
 10
246.3407540508714
 20
363.828235826581
 30
0.0
 11
248.3301710468714
 21
363.8282358265811
 31
0.0
  0
LINE
  5
336E
330
1A
100
AcDbEntity
  8
SEIHIN
 48
10.0
100
AcDbLine
 10
246.8354625488714
 20
360.6527156154809
 30
0.0
 11
247.8354625488714
 21
360.6527156154809
 31
0.0
  0
LINE
  5
336F
330
1A
100
AcDbEntity
  8
SEIHIN
 48
10.0
100
AcDbLine
 10
248.3301710468714
 20
366.147424113381
 30
0.0
 11
246.3407540508714
 21
366.147424113381
 31
0.0
  0
LINE
  5
3370
330
1A
100
AcDbEntity
  8
SEIHIN
 48
10.0
100
AcDbLine
 10
198.5713931269716
 20
421.3668328467808
 30
0.0
 11
208.8430905217321
 21
423.0330684539807
 31
0.0
  0
LINE
  5
3371
330
1A
100
AcDbEntity
  8
SEIHIN
 48
10.0
100
AcDbLine
 10
260.8991191593714
 20
415.8077639483807
 30
0.0
 11
176.8354625488714
 21
415.8077639483808
 31
0.0
  0
LINE
  5
3372
330
1A
100
AcDbEntity
  8
SEIHIN
 48
10.0
100
AcDbLine
 10
260.8991191593714
 20
410.0233483389809
 30
0.0
 11
176.8354625488714
 21
410.0233483389809
 31
0.0
  0
LINE
  5
3373
330
1A
100
AcDbEntity
  8
SEIHIN
100
AcDbLine
 10
146.8354625488714
 20
417.9527156154141
 30
0.0
 11
176.8354625488714
 21
417.9527156154142
 31
0.0
  0
LINE
  5
3374
330
1A
100
AcDbEntity
  8
SEIHIN
100
AcDbLine
 10
146.8354625488714
 20
415.3527156154374
 30
0.0
 11
176.8354625488714
 21
415.3527156154373
 31
0.0
  0
LINE
  5
3375
330
1A
100
AcDbEntity
  8
SEIHIN
 48
10.0
100
AcDbLine
 10
146.8354625488714
 20
408.0911875782808
 30
0.0
 11
176.8354625488715
 21
408.0911875782808
 31
0.0
  0
LINE
  5
3376
330
1A
100
AcDbEntity
  8
SEIHIN
 48
10.0
100
AcDbLine
 10
176.8354625488715
 20
418.1625109620474
 30
0.0
 11
189.7299319038714
 21
420.0155736124809
 31
0.0
  0
LINE
  5
3377
330
1A
100
AcDbEntity
  8
SEIHIN
 48
10.0
100
AcDbLine
 10
189.7299319038714
 20
420.0155736124809
 30
0.0
 11
198.5713931269716
 21
421.3668328467808
 31
0.0
  0
LINE
  5
3378
330
1A
100
AcDbEntity
  8
SEIHIN
 48
10.0
100
AcDbLine
 10
208.8430905217321
 20
423.0330684539807
 30
0.0
 11
260.9054398415714
 21
423.0330684539808
 31
0.0
  0
LINE
  5
3379
330
1A
100
AcDbEntity
  8
SEIHIN
100
AcDbLine
 10
260.8991191593714
 20
433.6440763071809
 30
0.0
 11
260.8991191593714
 21
400.5346441169809
 31
0.0
  0
LINE
  5
337A
330
1A
100
AcDbEntity
  8
SEIHIN
 48
10.0
100
AcDbLine
 10
262.5361805080713
 20
414.3659076252808
 30
0.0
 11
262.5361805080713
 21
410.0233483389809
 31
0.0
  0
LINE
  5
337B
330
1A
100
AcDbEntity
  8
SEIHIN
 48
10.0
100
AcDbLine
 10
262.3464485263714
 20
411.8398748641809
 30
0.0
 11
262.3417626992714
 21
411.1107221055808
 31
0.0
  0
LINE
  5
337C
330
1A
100
AcDbEntity
  8
SEIHIN
 48
10.0
100
AcDbLine
 10
262.3354625488715
 20
408.522657080581
 30
0.0
 11
260.8991191593714
 21
408.522657080581
 31
0.0
  0
LINE
  5
337D
330
1A
100
AcDbEntity
  8
SEIHIN
 48
10.0
100
AcDbLine
 10
260.8991191593714
 20
405.2681672563807
 30
0.0
 11
262.3354625488715
 21
405.2681672563807
 31
0.0
  0
LINE
  5
337E
330
1A
100
AcDbEntity
  8
SEIHIN
 48
10.0
100
AcDbLine
 10
262.3058829617714
 20
400.5346441169808
 30
0.0
 11
260.8991191593714
 21
400.5346441169809
 31
0.0
  0
LINE
  5
337F
330
1A
100
AcDbEntity
  8
SEIHIN
 48
10.0
100
AcDbLine
 10
262.5232340522714
 20
408.0911875782808
 30
0.0
 11
262.5262916056713
 21
408.2209661823808
 31
0.0
  0
LINE
  5
3380
330
1A
100
AcDbEntity
  8
SEIHIN
 48
10.0
100
AcDbLine
 10
262.5262916056713
 20
408.2209661823808
 30
0.0
 11
262.5290851553714
 21
408.413645788481
 31
0.0
  0
LINE
  5
3381
330
1A
100
AcDbEntity
  8
SEIHIN
 48
10.0
100
AcDbLine
 10
262.5290851553714
 20
408.413645788481
 30
0.0
 11
262.5315172098714
 21
408.6625021067809
 31
0.0
  0
LINE
  5
3382
330
1A
100
AcDbEntity
  8
SEIHIN
 48
10.0
100
AcDbLine
 10
262.5315172098714
 20
408.6625021067809
 30
0.0
 11
262.5335028931713
 21
408.958850346381
 31
0.0
  0
LINE
  5
3383
330
1A
100
AcDbEntity
  8
SEIHIN
 48
10.0
100
AcDbLine
 10
262.5335028931713
 20
408.958850346381
 30
0.0
 11
262.5349729073714
 21
409.2923483048809
 31
0.0
  0
LINE
  5
3384
330
1A
100
AcDbEntity
  8
SEIHIN
 48
10.0
100
AcDbLine
 10
262.5349729073714
 20
409.2923483048809
 30
0.0
 11
262.5358759507715
 21
409.6513572985809
 31
0.0
  0
LINE
  5
3385
330
1A
100
AcDbEntity
  8
SEIHIN
 48
10.0
100
AcDbLine
 10
262.5358759507715
 20
409.6513572985809
 30
0.0
 11
262.5361805080713
 21
410.0233483389809
 31
0.0
  0
LINE
  5
3386
330
1A
100
AcDbEntity
  8
SEIHIN
 48
10.0
100
AcDbLine
 10
262.3417626992714
 20
411.1107221055808
 30
0.0
 11
262.3383013904713
 21
410.2966838063809
 31
0.0
  0
LINE
  5
3387
330
1A
100
AcDbEntity
  8
SEIHIN
 48
10.0
100
AcDbLine
 10
262.3383013904713
 20
410.2966838063809
 30
0.0
 11
262.3361781267713
 21
409.4244594814808
 31
0.0
  0
LINE
  5
3388
330
1A
100
AcDbEntity
  8
SEIHIN
 48
10.0
100
AcDbLine
 10
262.3361781267713
 20
409.4244594814808
 30
0.0
 11
262.3354625488715
 21
408.522657080581
 31
0.0
  0
LINE
  5
3389
330
1A
100
AcDbEntity
  8
SEIHIN
 48
10.0
100
AcDbLine
 10
262.4503005461714
 20
405.757277899281
 30
0.0
 11
262.3778382258713
 21
403.2380143839809
 31
0.0
  0
LINE
  5
338A
330
1A
100
AcDbEntity
  8
SEIHIN
 48
10.0
100
AcDbLine
 10
262.3778382258713
 20
403.2380143839809
 30
0.0
 11
262.3058829617714
 21
400.5346441169808
 31
0.0
  0
LINE
  5
338B
330
1A
100
AcDbEntity
  8
SEIHIN
 48
10.0
100
AcDbLine
 10
262.3354625488715
 20
405.2681672563807
 30
0.0
 11
262.3347765933713
 21
404.3850767652809
 31
0.0
  0
LINE
  5
338C
330
1A
100
AcDbEntity
  8
SEIHIN
 48
10.0
100
AcDbLine
 10
262.3347765933713
 20
404.3850767652809
 30
0.0
 11
262.3327402938715
 21
403.529751600181
 31
0.0
  0
LINE
  5
338D
330
1A
100
AcDbEntity
  8
SEIHIN
 48
10.0
100
AcDbLine
 10
262.3327402938715
 20
403.529751600181
 30
0.0
 11
262.3294176739714
 21
402.7290841149809
 31
0.0
  0
LINE
  5
338E
330
1A
100
AcDbEntity
  8
SEIHIN
 48
10.0
100
AcDbLine
 10
262.3294176739714
 20
402.7290841149809
 30
0.0
 11
262.3249132004715
 21
402.0082481664807
 31
0.0
  0
LINE
  5
338F
330
1A
100
AcDbEntity
  8
SEIHIN
 48
10.0
100
AcDbLine
 10
262.3249132004715
 20
402.0082481664807
 30
0.0
 11
262.3193684987714
 21
401.3899076213808
 31
0.0
  0
LINE
  5
3390
330
1A
100
AcDbEntity
  8
SEIHIN
 48
10.0
100
AcDbLine
 10
262.3193684987714
 20
401.3899076213808
 30
0.0
 11
262.3129579004714
 21
400.8935037791809
 31
0.0
  0
LINE
  5
3391
330
1A
100
AcDbEntity
  8
SEIHIN
 48
10.0
100
AcDbLine
 10
262.3129579004714
 20
400.8935037791809
 30
0.0
 11
262.3058829617714
 21
400.5346441169808
 31
0.0
  0
LINE
  5
3392
330
1A
100
AcDbEntity
  8
SEIHIN
 48
10.0
100
AcDbLine
 10
262.3354625488715
 20
405.2681672563807
 30
0.0
 11
262.3354625488715
 21
408.522657080581
 31
0.0
  0
LINE
  5
3393
330
1A
100
AcDbEntity
  8
SEIHIN
 48
10.0
100
AcDbLine
 10
262.5232340522714
 20
408.0911875782808
 30
0.0
 11
262.4503005461714
 21
405.757277899281
 31
0.0
  0
LINE
  5
3394
330
1A
100
AcDbEntity
  8
SEIHIN
 48
10.0
100
AcDbLine
 10
262.7695354914714
 20
423.321514953881
 30
0.0
 11
262.7705030152714
 21
423.4686541671808
 31
0.0
  0
LINE
  5
3395
330
1A
100
AcDbEntity
  8
SEIHIN
 48
10.0
100
AcDbLine
 10
262.4633797474714
 20
423.4535648825808
 30
0.0
 11
262.4592831640714
 21
423.1618176030808
 31
0.0
  0
LINE
  5
3396
330
1A
100
AcDbEntity
  8
SEIHIN
 48
10.0
100
AcDbLine
 10
260.8991191593714
 20
419.8765917422808
 30
0.0
 11
262.4489118301714
 21
419.8765917422808
 31
0.0
  0
LINE
  5
3397
330
1A
100
AcDbEntity
  8
SEIHIN
 48
10.0
100
AcDbLine
 10
262.4489118301714
 20
420.7705334179808
 30
0.0
 11
260.8991191593714
 21
420.7705334179808
 31
0.0
  0
LINE
  5
3398
330
1A
100
AcDbEntity
  8
SEIHIN
 48
10.0
100
AcDbLine
 10
262.4175846036715
 20
415.0795947978808
 30
0.0
 11
260.8991191593714
 21
415.0795947978808
 31
0.0
  0
LINE
  5
3399
330
1A
100
AcDbEntity
  8
SEIHIN
 48
10.0
100
AcDbLine
 10
260.8991191593714
 20
413.2973762936808
 30
0.0
 11
262.3661468028714
 21
413.2973762936808
 31
0.0
  0
LINE
  5
339A
330
1A
100
AcDbEntity
  8
SEIHIN
 48
10.0
100
AcDbLine
 10
262.7654852561714
 20
423.0330684539808
 30
0.0
 11
262.5456615314714
 21
415.8077639483808
 31
0.0
  0
LINE
  5
339B
330
1A
100
AcDbEntity
  8
SEIHIN
 48
10.0
100
AcDbLine
 10
262.4489118301714
 20
419.8765917422808
 30
0.0
 11
262.4489118301714
 21
420.7705334179808
 31
0.0
  0
LINE
  5
339C
330
1A
100
AcDbEntity
  8
SEIHIN
 48
10.0
100
AcDbLine
 10
262.5413661750714
 20
415.561549717881
 30
0.0
 11
262.5434144666714
 21
415.7074233575809
 31
0.0
  0
LINE
  5
339D
330
1A
100
AcDbEntity
  8
SEIHIN
 48
10.0
100
AcDbLine
 10
262.5434144666714
 20
415.7074233575809
 30
0.0
 11
262.5456615314714
 21
415.8077639483808
 31
0.0
  0
LINE
  5
339E
330
1A
100
AcDbEntity
  8
SEIHIN
 48
10.0
100
AcDbLine
 10
262.4489118301714
 20
419.8765917422808
 30
0.0
 11
262.4481788408714
 21
418.9639757879808
 31
0.0
  0
LINE
  5
339F
330
1A
100
AcDbEntity
  8
SEIHIN
 48
10.0
100
AcDbLine
 10
262.4481788408714
 20
418.9639757879808
 30
0.0
 11
262.4460044989715
 21
418.0820209034809
 31
0.0
  0
LINE
  5
33A0
330
1A
100
AcDbEntity
  8
SEIHIN
 48
10.0
100
AcDbLine
 10
262.4460044989715
 20
418.0820209034809
 30
0.0
 11
262.4424618558715
 21
417.260358041681
 31
0.0
  0
LINE
  5
33A1
330
1A
100
AcDbEntity
  8
SEIHIN
 48
10.0
100
AcDbLine
 10
262.4424618558715
 20
417.260358041681
 30
0.0
 11
262.4376699331714
 21
416.526592530281
 31
0.0
  0
LINE
  5
33A2
330
1A
100
AcDbEntity
  8
SEIHIN
 48
10.0
100
AcDbLine
 10
262.4376699331714
 20
416.526592530281
 30
0.0
 11
262.4317897247713
 21
415.9053766179808
 31
0.0
  0
LINE
  5
33A3
330
1A
100
AcDbEntity
  8
SEIHIN
 48
10.0
100
AcDbLine
 10
262.7654852561714
 20
423.0330684539808
 30
0.0
 11
262.7669832993713
 21
423.0999621811808
 31
0.0
  0
LINE
  5
33A4
330
1A
100
AcDbEntity
  8
SEIHIN
 48
10.0
100
AcDbLine
 10
262.7669832993713
 20
423.0999621811808
 30
0.0
 11
262.7683488270714
 21
423.197211274381
 31
0.0
  0
LINE
  5
33A5
330
1A
100
AcDbEntity
  8
SEIHIN
 48
10.0
100
AcDbLine
 10
262.4592831640714
 20
423.1618176030808
 30
0.0
 11
262.4557231709714
 21
422.788906564381
 31
0.0
  0
LINE
  5
33A6
330
1A
100
AcDbEntity
  8
SEIHIN
 48
10.0
100
AcDbLine
 10
262.4557231709714
 20
422.788906564381
 30
0.0
 11
262.4528205994713
 21
422.3474889245808
 31
0.0
  0
LINE
  5
33A7
330
1A
100
AcDbEntity
  8
SEIHIN
 48
10.0
100
AcDbLine
 10
262.4528205994713
 20
422.3474889245808
 30
0.0
 11
262.4506739674714
 21
421.8525470579809
 31
0.0
  0
LINE
  5
33A8
330
1A
100
AcDbEntity
  8
SEIHIN
 48
10.0
100
AcDbLine
 10
262.4506739674714
 20
421.8525470579809
 30
0.0
 11
262.4493561345714
 21
421.3208800312809
 31
0.0
  0
LINE
  5
33A9
330
1A
100
AcDbEntity
  8
SEIHIN
 48
10.0
100
AcDbLine
 10
262.4493561345714
 20
421.3208800312809
 30
0.0
 11
262.4489118301714
 21
420.7705334179808
 31
0.0
  0
LINE
  5
33AA
330
1A
100
AcDbEntity
  8
SEIHIN
 48
10.0
100
AcDbLine
 10
262.7683488270714
 20
423.197211274381
 30
0.0
 11
262.7695354914714
 21
423.321514953881
 31
0.0
  0
LINE
  5
33AB
330
1A
100
AcDbEntity
  8
SEIHIN
 48
10.0
100
AcDbLine
 10
262.3661468028714
 20
413.2973762936808
 30
0.0
 11
262.4175846036715
 21
415.0795947978808
 31
0.0
  0
LINE
  5
33AC
330
1A
100
AcDbEntity
  8
SEIHIN
 48
10.0
100
AcDbLine
 10
262.5361805080713
 20
414.3659076252808
 30
0.0
 11
262.5364026602714
 21
414.6410809319808
 31
0.0
  0
LINE
  5
33AD
330
1A
100
AcDbEntity
  8
SEIHIN
 48
10.0
100
AcDbLine
 10
262.5364026602714
 20
414.6410809319808
 30
0.0
 11
262.5370615766714
 21
414.906914445281
 31
0.0
  0
LINE
  5
33AE
330
1A
100
AcDbEntity
  8
SEIHIN
 48
10.0
100
AcDbLine
 10
262.5370615766714
 20
414.906914445281
 30
0.0
 11
262.5381348927714
 21
415.1543853785811
 31
0.0
  0
LINE
  5
33AF
330
1A
100
AcDbEntity
  8
SEIHIN
 48
10.0
100
AcDbLine
 10
262.5381348927714
 20
415.1543853785811
 30
0.0
 11
262.5395861784714
 21
415.3750941984808
 31
0.0
  0
LINE
  5
33B0
330
1A
100
AcDbEntity
  8
SEIHIN
 48
10.0
100
AcDbLine
 10
262.4250187874713
 20
415.4175812357809
 30
0.0
 11
262.4175846036715
 21
415.0795947978808
 31
0.0
  0
LINE
  5
33B1
330
1A
100
AcDbEntity
  8
SEIHIN
 48
10.0
100
AcDbLine
 10
262.3661468028714
 20
413.2973762936808
 30
0.0
 11
262.3588438543714
 21
412.951430833581
 31
0.0
  0
LINE
  5
33B2
330
1A
100
AcDbEntity
  8
SEIHIN
 48
10.0
100
AcDbLine
 10
262.3588438543714
 20
412.951430833581
 30
0.0
 11
262.3522051818714
 21
412.460226714681
 31
0.0
  0
LINE
  5
33B3
330
1A
100
AcDbEntity
  8
SEIHIN
 48
10.0
100
AcDbLine
 10
262.3522051818714
 20
412.460226714681
 30
0.0
 11
262.3464485263714
 21
411.8398748641809
 31
0.0
  0
LINE
  5
33B4
330
1A
100
AcDbEntity
  8
SEIHIN
 48
10.0
100
AcDbLine
 10
262.5395861784714
 20
415.3750941984808
 30
0.0
 11
262.5413661750714
 21
415.561549717881
 31
0.0
  0
LINE
  5
33B5
330
1A
100
AcDbEntity
  8
SEIHIN
 48
10.0
100
AcDbLine
 10
262.4317897247713
 20
415.9053766179808
 30
0.0
 11
262.4250187874713
 21
415.4175812357809
 31
0.0
  0
LINE
  5
33B6
330
1A
100
AcDbEntity
  8
SEIHIN
 48
10.0
100
AcDbLine
 10
262.7718059384714
 20
433.6440763071809
 30
0.0
 11
260.8991191593714
 21
433.6440763071809
 31
0.0
  0
LINE
  5
33B7
330
1A
100
AcDbEntity
  8
SEIHIN
 48
10.0
100
AcDbLine
 10
260.8991191593714
 20
423.6542460641807
 30
0.0
 11
262.4678738768714
 21
423.6542460641808
 31
0.0
  0
LINE
  5
33B8
330
1A
100
AcDbEntity
  8
SEIHIN
 48
10.0
100
AcDbLine
 10
262.7705030152714
 20
423.4686541671808
 30
0.0
 11
262.7712185593714
 21
423.6336347893809
 31
0.0
  0
LINE
  5
33B9
330
1A
100
AcDbEntity
  8
SEIHIN
 48
10.0
100
AcDbLine
 10
262.7712185593714
 20
423.6336347893809
 30
0.0
 11
262.7716578369714
 21
423.8108571315808
 31
0.0
  0
LINE
  5
33BA
330
1A
100
AcDbEntity
  8
SEIHIN
 48
10.0
100
AcDbLine
 10
262.7716578369714
 20
423.8108571315808
 30
0.0
 11
262.7718059384714
 21
423.994306002681
 31
0.0
  0
LINE
  5
33BB
330
1A
100
AcDbEntity
  8
SEIHIN
 48
10.0
100
AcDbLine
 10
262.4678738768714
 20
423.6542460641808
 30
0.0
 11
262.4633797474714
 21
423.4535648825808
 31
0.0
  0
LINE
  5
33BC
330
1A
100
AcDbEntity
  8
SEIHIN
 48
10.0
100
AcDbLine
 10
262.4678738768714
 20
423.6542460641808
 30
0.0
 11
262.7718059384714
 21
433.6440763071809
 31
0.0
  0
LINE
  5
33BD
330
1A
100
AcDbEntity
  8
SEIHIN
 48
10.0
100
AcDbLine
 10
262.7718059384714
 20
433.6440763071809
 30
0.0
 11
262.7718059384714
 21
423.994306002681
 31
0.0
  0
LINE
  5
33BE
330
1A
100
AcDbEntity
  8
SEIHIN
 48
10.0
100
AcDbLine
 10
341.3354625488715
 20
361.8633293002808
 30
0.0
 11
277.3301710468714
 21
361.8633293002808
 31
0.0
  0
LINE
  5
33BF
330
1A
100
AcDbEntity
  8
SEIHIN
 48
10.0
100
AcDbLine
 10
277.3301710468714
 20
363.9958679457809
 30
0.0
 11
341.3354625488715
 21
363.9958679457809
 31
0.0
  0
DIMENSION
  5
33C0
330
1A
100
AcDbEntity
  8
SUNPOU
100
AcDbDimension
  2
*D3
 10
376.8354625488719
 20
336.7078522240454
 30
0.0
 11
340.5854625488716
 21
341.7078522240454
 31
0.0
 70
    32
  1
\U+203B<>
  3
STANDARD
100
AcDbAlignedDimension
 13
304.3354625488714
 23
361.1891919636529
 33
0.0
 14
376.8354625488719
 24
373.2466657365782
 34
0.0
100
AcDbRotatedDimension
1001
ACAD
1000
DSTYLE
1002
{
1070
    41
1040
7.0
1070
    42
1040
6.0
1070
    43
1040
14.0
1070
    44
1040
3.0
1070
    73
1070
     0
1070
    74
1070
     0
1070
    77
1070
     3
1070
   140
1040
6.0
1070
   141
1040
30.0
1070
   147
1040
2.0
1070
   172
1070
     1
1070
   176
1070
   256
1070
   177
1070
   256
1070
   178
1070
   256
1070
   271
1070
     0
1070
   272
1070
     0
1070
   341
1005
6D
1070
     5
1000
OPEN
1070
   371
1070
    -1
1070
   372
1070
    -1
1002
}
  0
LINE
  5
33C1
330
1A
100
AcDbEntity
  8
SEIHIN
100
AcDbLine
 10
277.3301710468714
 20
366.147424113381
 30
0.0
 11
277.3301710468714
 21
360.6527156154809
 31
0.0
  0
LINE
  5
33C2
330
1A
100
AcDbEntity
  8
SEIHIN
100
AcDbLine
 10
275.3407540508715
 20
366.147424113381
 30
0.0
 11
275.3407540508715
 21
360.6527156154809
 31
0.0
  0
LINE
  5
33C3
330
1A
100
AcDbEntity
  8
SEIHIN
 48
10.0
100
AcDbLine
 10
277.3301710468714
 20
363.828235826581
 30
0.0
 11
275.3407540508715
 21
363.8282358265811
 31
0.0
  0
LINE
  5
33C4
330
1A
100
AcDbEntity
  8
SEIHIN
 48
10.0
100
AcDbLine
 10
276.8354625488715
 20
360.6527156154809
 30
0.0
 11
275.8354625488714
 21
360.6527156154809
 31
0.0
  0
LINE
  5
33C5
330
1A
100
AcDbEntity
  8
SEIHIN
 48
10.0
100
AcDbLine
 10
275.3407540508715
 20
366.147424113381
 30
0.0
 11
277.3301710468714
 21
366.147424113381
 31
0.0
  0
LINE
  5
33C6
330
1A
100
AcDbEntity
  8
SEIHIN
 48
10.0
100
AcDbLine
 10
376.8354625488715
 20
357.1398043917918
 30
0.0
 11
358.5030546273713
 21
356.9071564702808
 31
0.0
  0
LINE
  5
33C7
330
1A
100
AcDbEntity
  8
SEIHIN
 48
10.0
100
AcDbLine
 10
346.8354625488714
 20
374.6527156154809
 30
0.0
 11
376.8354625488715
 21
374.6527156154809
 31
0.0
  0
LINE
  5
33C8
330
1A
100
AcDbEntity
  8
SEIHIN
 48
10.0
100
AcDbLine
 10
346.8354625488714
 20
372.260703888581
 30
0.0
 11
376.8354625488715
 21
372.260703888581
 31
0.0
  0
LINE
  5
33C9
330
1A
100
AcDbEntity
  8
SEIHIN
 48
10.0
100
AcDbLine
 10
346.8354625488714
 20
370.9001420639808
 30
0.0
 11
346.8354625488714
 21
363.6527156154809
 31
0.0
  0
LINE
  5
33CA
330
1A
100
AcDbEntity
  8
SEIHIN
 48
10.0
100
AcDbLine
 10
341.3354625488714
 20
363.099381819181
 30
0.0
 11
346.7839912853715
 21
363.0993818191809
 31
0.0
  0
LINE
  5
33CB
330
1A
100
AcDbEntity
  8
SEIHIN
 48
10.0
100
AcDbLine
 10
341.3354625488715
 20
363.9958679457809
 30
0.0
 11
341.3395471801714
 21
363.9910858049809
 31
0.0
  0
LINE
  5
33CC
330
1A
100
AcDbEntity
  8
SEIHIN
 48
10.0
100
AcDbLine
 10
341.3354625488715
 20
360.6527156154809
 30
0.0
 11
341.3354625488715
 21
363.9958679457809
 31
0.0
  0
LINE
  5
33CD
330
1A
100
AcDbEntity
  8
SEIHIN
 48
10.0
100
AcDbLine
 10
345.5021732478715
 20
361.1583067785809
 30
0.0
 11
344.9835128459713
 21
360.8810770178809
 31
0.0
  0
LINE
  5
33CE
330
1A
100
AcDbEntity
  8
SEIHIN
 48
10.0
100
AcDbLine
 10
344.9835128459713
 20
360.8810770178809
 30
0.0
 11
344.4207335148715
 21
360.7103597742809
 31
0.0
  0
LINE
  5
33CF
330
1A
100
AcDbEntity
  8
SEIHIN
 48
10.0
100
AcDbLine
 10
345.9567828923714
 20
361.5313952718809
 30
0.0
 11
345.5021732478715
 21
361.1583067785809
 31
0.0
  0
LINE
  5
33D0
330
1A
100
AcDbEntity
  8
SEIHIN
 48
10.0
100
AcDbLine
 10
346.3298713857714
 20
361.9860049163808
 30
0.0
 11
345.9567828923714
 21
361.5313952718809
 31
0.0
  0
LINE
  5
33D1
330
1A
100
AcDbEntity
  8
SEIHIN
 48
10.0
100
AcDbLine
 10
346.6071011463714
 20
362.5046653183808
 30
0.0
 11
346.3298713857714
 21
361.9860049163808
 31
0.0
  0
LINE
  5
33D2
330
1A
100
AcDbEntity
  8
SEIHIN
 48
10.0
100
AcDbLine
 10
346.7778183900714
 20
363.0674446493808
 30
0.0
 11
346.6071011463714
 21
362.5046653183808
 31
0.0
  0
LINE
  5
33D3
330
1A
100
AcDbEntity
  8
SEIHIN
 48
10.0
100
AcDbLine
 10
344.4207335148715
 20
360.7103597742809
 30
0.0
 11
343.8354625488714
 21
360.6527156154809
 31
0.0
  0
LINE
  5
33D4
330
1A
100
AcDbEntity
  8
SEIHIN
 48
10.0
100
AcDbLine
 10
346.8354625488714
 20
363.6527156154809
 30
0.0
 11
346.7778183900714
 21
363.0674446493808
 31
0.0
  0
LINE
  5
33D5
330
1A
100
AcDbEntity
  8
SEIHIN
 48
10.0
100
AcDbLine
 10
346.8354625488714
 20
370.9001420639808
 30
0.0
 11
346.8354625488714
 21
372.260703888581
 31
0.0
  0
LINE
  5
33D6
330
1A
100
AcDbEntity
  8
SEIHIN
 48
10.0
100
AcDbLine
 10
346.8354625488714
 20
372.260703888581
 30
0.0
 11
346.8354625488714
 21
373.9414064845809
 31
0.0
  0
LINE
  5
33D7
330
1A
100
AcDbEntity
  8
SEIHIN
 48
10.0
100
AcDbLine
 10
346.8354625488714
 20
373.9414064845809
 30
0.0
 11
346.8354625488714
 21
374.6527156154809
 31
0.0
  0
LINE
  5
33D8
330
1A
100
AcDbEntity
  8
SEIHIN
 48
10.0
100
AcDbLine
 10
346.8354625488714
 20
418.1625109620474
 30
0.0
 11
333.9409931938715
 21
420.0155736124809
 31
0.0
  0
LINE
  5
33D9
330
1A
100
AcDbEntity
  8
SEIHIN
 48
10.0
100
AcDbLine
 10
325.0995319707713
 20
421.3668328467808
 30
0.0
 11
314.8278345760108
 21
423.0330684539807
 31
0.0
  0
LINE
  5
33DA
330
1A
100
AcDbEntity
  8
SEIHIN
 48
10.0
100
AcDbLine
 10
333.9409931938715
 20
420.0155736124809
 30
0.0
 11
325.0995319707713
 21
421.3668328467808
 31
0.0
  0
LINE
  5
33DB
330
1A
100
AcDbEntity
  8
SEIHIN
100
AcDbLine
 10
376.8354625488715
 20
415.3527156154374
 30
0.0
 11
346.8354625488714
 21
415.3527156154373
 31
0.0
  0
LINE
  5
33DC
330
1A
100
AcDbEntity
  8
SEIHIN
100
AcDbLine
 10
376.8354625488715
 20
417.9527156154141
 30
0.0
 11
346.8354625488714
 21
417.9527156154142
 31
0.0
  0
LINE
  5
33DD
330
1A
100
AcDbEntity
  8
SEIHIN
 48
10.0
100
AcDbLine
 10
376.8354625488715
 20
408.0911875782808
 30
0.0
 11
346.8354625488714
 21
408.0911875782808
 31
0.0
  0
DIMENSION
  5
33DE
330
1A
100
AcDbEntity
  8
SUNPOU
100
AcDbDimension
  2
*D4
 10
376.8354625488714
 20
440.1936381512275
 30
0.0
 11
361.8354625488714
 21
445.1936381512274
 31
0.0
 70
    32
  3
STANDARD
100
AcDbAlignedDimension
 13
346.8354625488714
 23
440.1936381512275
 33
0.0
 14
376.8354625488714
 24
440.1936381512275
 34
0.0
100
AcDbRotatedDimension
1001
ACAD
1000
DSTYLE
1002
{
1070
    41
1040
7.0
1070
    42
1040
6.0
1070
    43
1040
14.0
1070
    44
1040
3.0
1070
    73
1070
     0
1070
    74
1070
     0
1070
    77
1070
     3
1070
   140
1040
6.0
1070
   141
1040
30.0
1070
   147
1040
2.0
1070
   172
1070
     1
1070
   176
1070
   256
1070
   177
1070
   256
1070
   178
1070
   256
1070
   271
1070
     0
1070
   272
1070
     0
1070
   341
1005
6D
1070
     5
1000
OPEN
1070
   371
1070
    -1
1070
   372
1070
    -1
1002
}
  0
LINE
  5
33DF
330
1A
100
AcDbEntity
  8
SEIHIN
 48
10.0
100
AcDbLine
 10
262.7634725192714
 20
509.9060253297809
 30
0.0
 11
313.0817302621715
 21
509.9060253297809
 31
0.0
  0
LINE
  5
33E0
330
1A
100
AcDbEntity
  8
SEIHIN
 48
10.0
100
AcDbLine
 10
176.8354625488714
 20
514.0916704847808
 30
0.0
 11
346.8354625488714
 21
514.091670484781
 31
0.0
  0
LINE
  5
33E1
330
1A
100
AcDbEntity
  8
SEIHIN
 48
10.0
100
AcDbLine
 10
376.8354625488715
 20
516.5942151581809
 30
0.0
 11
158.0065073725937
 21
516.5942151581809
 31
0.0
  0
LINE
  5
33E2
330
1A
100
AcDbEntity
  8
SEIHIN
 48
10.0
100
AcDbLine
 10
262.7634725192713
 20
509.9060253297809
 30
0.0
 11
313.0817302621714
 21
509.9060253297809
 31
0.0
  0
LINE
  5
33E3
330
1A
100
AcDbEntity
  8
SEIHIN
 48
10.0
100
AcDbLine
 10
146.8354625488714
 20
516.5942151581809
 30
0.0
 11
365.6644177251492
 21
516.5942151581809
 31
0.0
  0
LINE
  5
33E4
330
1A
100
AcDbEntity
  8
SEIHIN
 48
10.0
100
AcDbLine
 10
346.8354625488714
 20
514.0916704847808
 30
0.0
 11
176.8354625488715
 21
514.091670484781
 31
0.0
  0
LINE
  5
33E5
330
1A
100
AcDbEntity
  8
SEIHIN
 48
10.0
100
AcDbLine
 10
210.3500061897794
 20
509.9157922799912
 30
0.0
 11
176.8354625488715
 21
510.6841054506084
 31
0.0
  0
LINE
  5
33E6
330
1A
100
AcDbEntity
  8
SEIHIN
 48
10.0
100
AcDbLine
 10
146.8354625488714
 20
500.438395930081
 30
0.0
 11
176.3806396585715
 21
500.438395930081
 31
0.0
  0
LINE
  5
33E7
330
1A
100
AcDbEntity
  8
SEIHIN
100
AcDbLine
 10
160.7939308880714
 20
503.5619524027806
 30
0.0
 11
160.7939308880714
 21
511.2321803651623
 31
0.0
  0
LINE
  5
33E8
330
1A
100
AcDbEntity
  8
SEIHIN
100
AcDbLine
 10
162.8769942095715
 20
503.5619524027806
 30
0.0
 11
162.8769942095715
 21
511.2320919719947
 31
0.0
  0
LINE
  5
33E9
330
1A
100
AcDbEntity
  8
SEIHIN
 48
10.0
100
AcDbLine
 10
162.8715033461716
 20
503.5674432661806
 30
0.0
 11
160.7994217515715
 21
503.5674432661806
 31
0.0
  0
LINE
  5
33EA
330
1A
100
AcDbEntity
  8
SEIHIN
 48
10.0
100
AcDbLine
 10
162.8769942095715
 20
503.5619524027806
 30
0.0
 11
160.7939308880714
 21
503.5619524027806
 31
0.0
  0
LINE
  5
33EB
330
1A
100
AcDbEntity
  8
SEIHIN
 48
10.0
100
AcDbLine
 10
160.8067667918716
 20
511.2321798204807
 30
0.0
 11
162.8640710056715
 21
511.2320925203808
 31
0.0
  0
LINE
  5
33EC
330
1A
100
AcDbEntity
  8
SEIHIN
 48
10.0
100
AcDbLine
 10
160.7939308880714
 20
509.2208616422807
 30
0.0
 11
162.8769942095715
 21
509.2208616422806
 31
0.0
  0
LINE
  5
33ED
330
1A
100
AcDbEntity
  8
SEIHIN
 48
10.0
100
AcDbLine
 10
260.9074525784714
 20
509.9060253297809
 30
0.0
 11
210.5891948355714
 21
509.9060253297809
 31
0.0
  0
LINE
  5
33EE
330
1A
100
AcDbEntity
  8
SEIHIN
100
AcDbLine
 10
260.8702224165714
 20
500.898714081681
 30
0.0
 11
260.8702224165714
 21
512.2464829088809
 31
0.0
  0
LINE
  5
33EF
330
1A
100
AcDbEntity
  8
SEIHIN
100
AcDbLine
 10
262.8007026811714
 20
500.898714081681
 30
0.0
 11
262.8007026811714
 21
512.2464829088807
 31
0.0
  0
LINE
  5
33F0
330
1A
100
AcDbEntity
  8
SEIHIN
 48
10.0
100
AcDbLine
 10
261.8019470693714
 20
500.869994423881
 30
0.0
 11
260.8702224165714
 21
500.898714081681
 31
0.0
  0
LINE
  5
33F1
330
1A
100
AcDbEntity
  8
SEIHIN
 48
10.0
100
AcDbLine
 10
260.8702224165714
 20
500.898714081681
 30
0.0
 11
260.8796966645714
 21
501.2545204121809
 31
0.0
  0
LINE
  5
33F2
330
1A
100
AcDbEntity
  8
SEIHIN
 48
10.0
100
AcDbLine
 10
262.8007026811714
 20
500.898714081681
 30
0.0
 11
262.7912284331715
 21
501.2545204121809
 31
0.0
  0
LINE
  5
33F3
330
1A
100
AcDbEntity
  8
SEIHIN
 48
10.0
100
AcDbLine
 10
261.8354625488714
 20
500.8689558381809
 30
0.0
 11
261.8019470693714
 21
500.869994423881
 31
0.0
  0
LINE
  5
33F4
330
1A
100
AcDbEntity
  8
SEIHIN
 48
10.0
100
AcDbLine
 10
261.8354625488714
 20
500.8689558381809
 30
0.0
 11
261.8689780283714
 21
500.869994423881
 31
0.0
  0
LINE
  5
33F5
330
1A
100
AcDbEntity
  8
SEIHIN
 48
10.0
100
AcDbLine
 10
261.8689780283714
 20
500.869994423881
 30
0.0
 11
262.8007026811714
 21
500.898714081681
 31
0.0
  0
LINE
  5
33F6
330
1A
100
AcDbEntity
  8
SEIHIN
 48
10.0
100
AcDbLine
 10
260.8991191593714
 20
512.2464829088809
 30
0.0
 11
262.7718059384714
 21
512.2464829088808
 31
0.0
  0
LINE
  5
33F7
330
1A
100
AcDbEntity
  8
SEIHIN
 48
10.0
100
AcDbLine
 10
262.7718059384714
 20
509.585145500281
 30
0.0
 11
260.8991191593714
 21
509.585145500281
 31
0.0
  0
LINE
  5
33F8
330
1A
100
AcDbEntity
  8
SEIHIN
 48
10.0
100
AcDbLine
 10
262.7718059384714
 20
505.1635254904808
 30
0.0
 11
260.8991191593714
 21
505.1635254904808
 31
0.0
  0
LINE
  5
33F9
330
1A
100
AcDbEntity
  8
SEIHIN
 48
10.0
100
AcDbLine
 10
313.3209189079634
 20
509.9157922799912
 30
0.0
 11
346.8354625488714
 21
510.6841054506084
 31
0.0
  0
LINE
  5
33FA
330
1A
100
AcDbEntity
  8
SEIHIN
 48
10.0
100
AcDbLine
 10
376.8354625488715
 20
500.438395930081
 30
0.0
 11
347.2902854391714
 21
500.438395930081
 31
0.0
  0
LINE
  5
33FB
330
1A
100
AcDbEntity
  8
SEIHIN
100
AcDbLine
 10
360.7939308881714
 20
503.5619524027806
 30
0.0
 11
360.7939308881714
 21
511.2320919719947
 31
0.0
  0
LINE
  5
33FC
330
1A
100
AcDbEntity
  8
SEIHIN
100
AcDbLine
 10
362.8769942096714
 20
503.5619524027806
 30
0.0
 11
362.8769942096714
 21
511.2321803651623
 31
0.0
  0
LINE
  5
33FD
330
1A
100
AcDbEntity
  8
SEIHIN
 48
10.0
100
AcDbLine
 10
360.7939308881714
 20
503.5619524027806
 30
0.0
 11
362.8769942096714
 21
503.5619524027806
 31
0.0
  0
LINE
  5
33FE
330
1A
100
AcDbEntity
  8
SEIHIN
 48
10.0
100
AcDbLine
 10
360.7994217515713
 20
503.5674432661806
 30
0.0
 11
362.8715033461713
 21
503.5674432661806
 31
0.0
  0
LINE
  5
33FF
330
1A
100
AcDbEntity
  8
SEIHIN
 48
10.0
100
AcDbLine
 10
362.8769942096715
 20
509.2208616422807
 30
0.0
 11
360.7939308881714
 21
509.2208616422806
 31
0.0
  0
LINE
  5
3400
330
1A
100
AcDbEntity
  8
SEIHIN
 48
10.0
100
AcDbLine
 10
362.8641583058713
 20
511.2321798204807
 30
0.0
 11
360.8068540920713
 21
511.2320925203808
 31
0.0
  0
DIMENSION
  5
3401
330
1A
100
AcDbEntity
  8
SUNPOU
100
AcDbDimension
  2
*D5
 10
648.5155116472649
 20
301.714780732852
 30
0.0
 11
568.6081033514149
 21
306.7147807328519
 31
0.0
 70
    32
  3
STANDARD
100
AcDbAlignedDimension
 13
488.7006950555648
 23
272.6741111337728
 33
0.0
 14
648.5155116472649
 24
215.5419620284728
 34
0.0
100
AcDbRotatedDimension
1001
ACAD
1000
DSTYLE
1002
{
1070
    41
1040
7.0
1070
    42
1040
6.0
1070
    43
1040
14.0
1070
    44
1040
3.0
1070
    73
1070
     0
1070
    74
1070
     0
1070
    77
1070
     3
1070
   140
1040
6.0
1070
   141
1040
30.0
1070
   147
1040
2.0
1070
   172
1070
     1
1070
   176
1070
   256
1070
   177
1070
   256
1070
   178
1070
   256
1070
   271
1070
     0
1070
   272
1070
     0
1070
   341
1005
6D
1070
     5
1000
OPEN
1070
   371
1070
    -1
1070
   372
1070
    -1
1002
}
  0
DIMENSION
  5
3402
330
1A
100
AcDbEntity
  8
SUNPOU
100
AcDbDimension
  2
*D6
 10
448.2823330128284
 20
72.64196202847289
 30
0.0
 11
443.2823330128284
 21
173.9080365811229
 31
0.0
 70
    32
  3
STANDARD
100
AcDbAlignedDimension
 13
491.2006950555649
 23
275.1741111337728
 33
0.0
 14
573.4506457321649
 24
72.64196202847284
 34
0.0
 50
90.0
100
AcDbRotatedDimension
1001
ACAD
1000
DSTYLE
1002
{
1070
    41
1040
7.0
1070
    42
1040
6.0
1070
    43
1040
14.0
1070
    44
1040
3.0
1070
    73
1070
     0
1070
    74
1070
     0
1070
    77
1070
     3
1070
   140
1040
6.0
1070
   141
1040
30.0
1070
   147
1040
2.0
1070
   172
1070
     1
1070
   176
1070
   256
1070
   177
1070
   256
1070
   178
1070
   256
1070
   271
1070
     0
1070
   272
1070
     0
1070
   341
1005
6D
1070
     5
1000
OPEN
1070
   371
1070
    -1
1070
   372
1070
    -1
1002
}
  0
DIMENSION
  5
3403
330
1A
100
AcDbEntity
  8
SUNPOU
100
AcDbDimension
  2
*D7
 10
467.3766723590911
 20
72.64196202847287
 30
0.0
 11
462.3766723590911
 21
94.49196202847295
 31
0.0
 70
    32
  3
STANDARD
100
AcDbAlignedDimension
 13
554.657616506965
 23
116.3419620284728
 33
0.0
 14
573.4506457321649
 24
72.64196202847284
 34
0.0
 50
90.0
100
AcDbRotatedDimension
1001
ACAD
1000
DSTYLE
1002
{
1070
    41
1040
7.0
1070
    42
1040
6.0
1070
    43
1040
14.0
1070
    44
1040
3.0
1070
    73
1070
     0
1070
    74
1070
     0
1070
    77
1070
     3
1070
   140
1040
6.0
1070
   141
1040
30.0
1070
   147
1040
2.0
1070
   172
1070
     1
1070
   176
1070
   256
1070
   177
1070
   256
1070
   178
1070
   256
1070
   271
1070
     0
1070
   272
1070
     0
1070
   341
1005
6D
1070
     5
1000
OPEN
1070
   371
1070
    -1
1070
   372
1070
    -1
1002
}
  0
DIMENSION
  5
3404
330
1A
100
AcDbEntity
  8
SUNPOU
100
AcDbDimension
  2
*D8
 10
467.3805835789238
 20
116.3419620284728
 30
0.0
 11
462.3805835789238
 21
125.0537360280729
 31
0.0
 70
    32
  3
STANDARD
100
AcDbAlignedDimension
 13
601.150645732165
 23
133.7655100276728
 33
0.0
 14
554.657616506965
 24
116.3419620284728
 34
0.0
 50
90.0
100
AcDbRotatedDimension
1001
ACAD
1000
DSTYLE
1002
{
1070
    41
1040
7.0
1070
    42
1040
6.0
1070
    43
1040
14.0
1070
    44
1040
3.0
1070
    73
1070
     0
1070
    74
1070
     0
1070
    77
1070
     3
1070
   140
1040
6.0
1070
   141
1040
30.0
1070
   147
1040
2.0
1070
   172
1070
     1
1070
   176
1070
   256
1070
   177
1070
   256
1070
   178
1070
   256
1070
   271
1070
     0
1070
   272
1070
     0
1070
   341
1005
6D
1070
     5
1000
OPEN
1070
   371
1070
    -1
1070
   372
1070
    -1
1002
}
  0
LINE
  5
3405
330
1A
100
AcDbEntity
  8
CENTER_L
 48
10.0
100
AcDbLine
 10
601.150645732165
 20
120.5707349994175
 30
0.0
 11
601.150645732165
 21
66.82523821477968
 31
0.0
  0
LINE
  5
3406
330
1A
100
AcDbEntity
  8
SEIHIN
  6
CONTINUOUS
 48
10.0
100
AcDbLine
 10
635.2506457321648
 20
101.9419620284728
 30
0.0
 11
635.2506457321648
 21
114.8419620284728
 31
0.0
  0
LINE
  5
3407
330
1A
100
AcDbEntity
  8
SEIHIN
  6
CONTINUOUS
 48
10.0
100
AcDbLine
 10
567.0506457321651
 20
114.8419620284728
 30
0.0
 11
567.0506457321651
 21
101.9419620284728
 31
0.0
  0
DIMENSION
  5
3408
330
1A
100
AcDbEntity
  8
SUNPOU
100
AcDbDimension
  2
*D9
 10
635.2506457321648
 20
40.42628593919971
 30
0.0
 11
601.150645732165
 21
45.42628593919971
 31
0.0
 70
    32
  1
φ<>
  3
STANDARD
100
AcDbAlignedDimension
 13
567.0506457321651
 23
99.14196202847286
 33
0.0
 14
635.2506457321648
 24
99.14196202847286
 34
0.0
100
AcDbRotatedDimension
1001
ACAD
1000
DSTYLE
1002
{
1070
    41
1040
7.0
1070
    42
1040
6.0
1070
    43
1040
14.0
1070
    44
1040
3.0
1070
    73
1070
     0
1070
    74
1070
     0
1070
    77
1070
     3
1070
   140
1040
6.0
1070
   141
1040
30.0
1070
   147
1040
2.0
1070
   172
1070
     1
1070
   176
1070
   256
1070
   177
1070
   256
1070
   178
1070
   256
1070
   271
1070
     0
1070
   272
1070
     0
1070
   341
1005
6D
1070
     5
1000
OPEN
1070
   371
1070
    -1
1070
   372
1070
    -1
1002
}
  0
LINE
  5
3409
330
1A
100
AcDbEntity
  8
SEIHIN
  6
CONTINUOUS
 48
10.0
100
AcDbLine
 10
634.7506457321649
 20
101.4419620284728
 30
0.0
 11
567.5506457321651
 21
101.4419620284728
 31
0.0
  0
LINE
  5
340A
330
1A
100
AcDbEntity
  8
SEIHIN
 48
10.0
100
AcDbLine
 10
570.0506457875651
 20
96.14196202847285
 30
0.0
 11
632.2506457321649
 21
96.14196202847288
 31
0.0
  0
LINE
  5
340B
330
1A
100
AcDbEntity
  8
SEIHIN
 48
10.0
100
AcDbLine
 10
567.0506457321651
 20
99.14196202847286
 30
0.0
 11
635.2506457321648
 21
99.14196202847286
 31
0.0
  0
LINE
  5
340C
330
1A
100
AcDbEntity
  8
SEIHIN
 48
10.0
100
AcDbLine
 10
571.9506457321651
 20
82.64196202847285
 30
0.0
 11
630.3506457321648
 21
82.64196202847285
 31
0.0
  0
DIMENSION
  5
340D
330
1A
100
AcDbEntity
  8
SUNPOU
100
AcDbDimension
  2
*D10
 10
630.3506457321653
 20
53.91245915377362
 30
0.0
 11
601.150645732165
 21
58.91245915377362
 31
0.0
 70
    32
  1
φ<>
  3
STANDARD
100
AcDbAlignedDimension
 13
571.9506457321647
 23
82.64196202847285
 33
0.0
 14
630.3506457321653
 24
82.64196202847285
 34
0.0
100
AcDbRotatedDimension
1001
ACAD
1000
DSTYLE
1002
{
1070
    41
1040
7.0
1070
    42
1040
6.0
1070
    43
1040
14.0
1070
    44
1040
3.0
1070
    73
1070
     0
1070
    74
1070
     0
1070
    77
1070
     3
1070
   140
1040
6.0
1070
   141
1040
30.0
1070
   147
1040
2.0
1070
   172
1070
     1
1070
   176
1070
   256
1070
   177
1070
   256
1070
   178
1070
   256
1070
   271
1070
     0
1070
   272
1070
     0
1070
   341
1005
6D
1070
     5
1000
OPEN
1070
   371
1070
    -1
1070
   372
1070
    -1
1002
}
  0
LINE
  5
340E
330
1A
100
AcDbEntity
  8
SEIHIN
  6
CONTINUOUS
 48
10.0
100
AcDbLine
 10
628.850645732165
 20
72.64196202847284
 30
0.0
 11
573.4506457321649
 21
72.64196202847284
 31
0.0
  0
LINE
  5
340F
330
1A
100
AcDbEntity
  8
SEIHIN
  6
CONTINUOUS
 48
10.0
100
AcDbLine
 10
571.9506457321649
 20
95.14196202847285
 30
0.0
 11
571.9506457321649
 21
82.64196202847285
 31
0.0
  0
LINE
  5
3410
330
1A
100
AcDbEntity
  8
SEIHIN
  6
CONTINUOUS
 48
10.0
100
AcDbLine
 10
571.9506457321649
 20
82.64196202847285
 30
0.0
 11
573.4506457321649
 21
72.64196202847284
 31
0.0
  0
ARC
  5
3411
330
1A
100
AcDbEntity
  8
SEIHIN
  6
CONTINUOUS
 48
10.0
100
AcDbCircle
 10
570.050645732165
 20
99.14196202847286
 30
0.0
 40
3.0
100
AcDbArc
 50
180.0
 51
270.0
  0
ARC
  5
3412
330
1A
100
AcDbEntity
  8
SEIHIN
  6
CONTINUOUS
 48
10.0
100
AcDbCircle
 10
570.950645732165
 20
95.14196202847285
 30
0.0
 40
1.0
100
AcDbArc
 50
0.0
 51
90.0
  0
LINE
  5
3413
330
1A
100
AcDbEntity
  8
SEIHIN
100
AcDbLine
 10
569.150645732165
 20
99.94196202847286
 30
0.0
 11
569.150645732165
 21
99.64196202847285
 31
0.0
  0
ARC
  5
3414
330
1A
100
AcDbEntity
  8
SEIHIN
  6
CONTINUOUS
 48
10.0
100
AcDbCircle
 10
567.6506457321649
 20
99.94196202847286
 30
0.0
 40
1.5
100
AcDbArc
 50
0.0
 51
90.0
  0
ARC
  5
3415
330
1A
100
AcDbEntity
  8
SEIHIN
  6
CONTINUOUS
 48
10.0
100
AcDbCircle
 10
567.5506457321651
 20
101.9419620284728
 30
0.0
 40
0.5
100
AcDbArc
 50
180.0
 51
270.0
  0
ARC
  5
3416
330
1A
100
AcDbEntity
  8
SEIHIN
  6
CONTINUOUS
 48
10.0
100
AcDbCircle
 10
568.650645732165
 20
99.64196202847285
 30
0.0
 40
0.5
100
AcDbArc
 50
270.0
 51
0.0
  0
ARC
  5
3417
330
1A
100
AcDbEntity
  8
SEIHIN
  6
CONTINUOUS
 48
10.0
100
AcDbCircle
 10
631.3506457321651
 20
95.14196202847285
 30
0.0
 40
1.0
100
AcDbArc
 50
90.0
 51
180.0
  0
LINE
  5
3418
330
1A
100
AcDbEntity
  8
SEIHIN
  6
CONTINUOUS
 48
10.0
100
AcDbLine
 10
630.350645732165
 20
82.64196202847285
 30
0.0
 11
630.350645732165
 21
95.14196202847285
 31
0.0
  0
LINE
  5
3419
330
1A
100
AcDbEntity
  8
SEIHIN
  6
CONTINUOUS
 48
10.0
100
AcDbLine
 10
628.850645732165
 20
72.64196202847284
 30
0.0
 11
630.350645732165
 21
82.64196202847285
 31
0.0
  0
ARC
  5
341A
330
1A
100
AcDbEntity
  8
SEIHIN
  6
CONTINUOUS
 48
10.0
100
AcDbCircle
 10
632.2506457321649
 20
99.14196202847286
 30
0.0
 40
3.0
100
AcDbArc
 50
270.0
 51
0.0
  0
LINE
  5
341B
330
1A
100
AcDbEntity
  8
SEIHIN
100
AcDbLine
 10
633.1506457321649
 20
99.94196202847286
 30
0.0
 11
633.1506457321649
 21
99.64196202847285
 31
0.0
  0
ARC
  5
341C
330
1A
100
AcDbEntity
  8
SEIHIN
  6
CONTINUOUS
 48
10.0
100
AcDbCircle
 10
633.6506457321649
 20
99.64196202847285
 30
0.0
 40
0.5
100
AcDbArc
 50
180.0
 51
270.0
  0
ARC
  5
341D
330
1A
100
AcDbEntity
  8
SEIHIN
  6
CONTINUOUS
 48
10.0
100
AcDbCircle
 10
634.650645732165
 20
99.94196202847286
 30
0.0
 40
1.5
100
AcDbArc
 50
90.0
 51
180.0
  0
ARC
  5
341E
330
1A
100
AcDbEntity
  8
SEIHIN
  6
CONTINUOUS
 48
10.0
100
AcDbCircle
 10
634.7506457321649
 20
101.9419620284728
 30
0.0
 40
0.5
100
AcDbArc
 50
270.0
 51
0.0
  0
ARC
  5
341F
330
1A
100
AcDbEntity
  8
NOKITOI
 48
0.5
100
AcDbCircle
 10
162.7340665373795
 20
47.47206572244545
 30
0.0
 40
391.6000000000002
100
AcDbArc
 50
15.08870500059703
 51
27.63121951273503
  0
ARC
  5
3420
330
1A
100
AcDbEntity
  8
NOKITOI
 48
0.5
100
AcDbCircle
 10
162.7340665373704
 20
47.47206572244272
 30
0.0
 40
390.0000000000088
100
AcDbArc
 50
14.7970244987867
 51
31.68717393609722
  0
DIMENSION
  5
3421
330
1A
100
AcDbEntity
  8
SUNPOU
100
AcDbDimension
  2
*D11
 10
467.3766723590911
 20
133.7655100276728
 30
0.0
 11
462.376672359091
 21
191.3037360280729
 31
0.0
 70
    32
  3
STANDARD
100
AcDbAlignedDimension
 13
489.946254200765
 23
248.8419620284728
 33
0.0
 14
601.150645732165
 24
133.7655100276728
 34
0.0
 50
90.0
100
AcDbRotatedDimension
1001
ACAD
1000
DSTYLE
1002
{
1070
    41
1040
7.0
1070
    42
1040
6.0
1070
    43
1040
14.0
1070
    44
1040
3.0
1070
    73
1070
     0
1070
    74
1070
     0
1070
    77
1070
     3
1070
   140
1040
6.0
1070
   141
1040
30.0
1070
   147
1040
2.0
1070
   172
1070
     1
1070
   176
1070
   256
1070
   177
1070
   256
1070
   178
1070
   256
1070
   271
1070
     0
1070
   272
1070
     0
1070
   341
1005
6D
1070
     5
1000
OPEN
1070
   371
1070
    -1
1070
   372
1070
    -1
1002
}
  0
ARC
  5
3422
330
1A
100
AcDbEntity
  8
SEIHIN
  6
CONTINUOUS
 48
10.0
100
AcDbCircle
 10
163.113377829365
 20
46.61127399757282
 30
0.0
 40
390.0
100
AcDbArc
 50
14.96574755510002
 51
31.7102843441995
  0
ARC
  5
3423
330
1A
100
AcDbEntity
  8
SEIHIN
  6
CONTINUOUS
 48
10.0
100
AcDbCircle
 10
163.113377829365
 20
46.61127399757282
 30
0.0
 40
387.5
100
AcDbArc
 50
14.56978748390032
 51
31.4588221407002
  0
ARC
  5
3424
330
1A
100
AcDbEntity
  8
SEIHIN
  6
CONTINUOUS
 48
10.0
100
AcDbCircle
 10
163.113377829365
 20
46.61127399757282
 30
0.0
 40
388.0
100
AcDbArc
 50
14.62668200700059
 51
31.50021560930051
  0
DIMENSION
  5
3425
330
1A
100
AcDbEntity
  8
SUNPOU
100
AcDbDimension
  2
*D12
 10
467.3766723590912
 20
275.1741111337728
 30
0.0
 11
462.3766723590911
 21
262.0080365811229
 31
0.0
 70
    32
  3
STANDARD
100
AcDbAlignedDimension
 13
489.946254200765
 23
248.8419620284728
 33
0.0
 14
491.2006950555649
 24
275.1741111337728
 34
0.0
 50
90.0
100
AcDbRotatedDimension
1001
ACAD
1000
DSTYLE
1002
{
1070
    41
1040
7.0
1070
    42
1040
6.0
1070
    43
1040
14.0
1070
    44
1040
3.0
1070
    73
1070
     0
1070
    74
1070
     0
1070
    77
1070
     3
1070
   140
1040
6.0
1070
   141
1040
30.0
1070
   147
1040
2.0
1070
   172
1070
     1
1070
   176
1070
   256
1070
   177
1070
   256
1070
   178
1070
   256
1070
   271
1070
     0
1070
   272
1070
     0
1070
   341
1005
6D
1070
     5
1000
OPEN
1070
   371
1070
    -1
1070
   372
1070
    -1
1002
}
  0
ARC
  5
3426
330
1A
100
AcDbEntity
  8
NOKITOI
 48
0.5
100
AcDbCircle
 10
162.7340665369957
 20
47.4720657222108
 30
0.0
 40
391.6000000004494
100
AcDbArc
 50
30.84341462564419
 51
31.09487578279883
  0
LINE
  5
3427
330
1A
100
AcDbEntity
  8
SEIHIN
  6
CONTINUOUS
 48
10.0
100
AcDbLine
 10
496.4960862274747
 20
248.9870871303218
 30
0.0
 11
496.3589788761241
 21
256.8419620284728
 31
0.0
  0
LINE
  5
3428
330
1A
100
AcDbEntity
  8
SEIHIN
  6
CONTINUOUS
 48
10.0
100
AcDbLine
 10
489.946254200765
 20
248.8419620284728
 30
0.0
 11
488.704121218665
 21
272.5432712431728
 31
0.0
  0
LINE
  5
3429
330
1A
100
AcDbEntity
  8
SEIHIN
  6
CONTINUOUS
 48
10.0
100
AcDbLine
 10
489.211880358865
 20
272.4083109889728
 30
0.0
 11
490.4207364840649
 21
249.3419620284728
 31
0.0
  0
ARC
  5
342A
330
1A
100
AcDbEntity
  8
NOKITOI
 48
0.5
100
AcDbCircle
 10
504.9607306449307
 20
251.8317250826457
 30
0.0
 40
7.000000000000143
100
AcDbArc
 50
210.8434146257332
 51
270.0
  0
LINE
  5
342B
330
1A
100
AcDbEntity
  8
SEIHIN
  6
CONTINUOUS
 48
10.0
100
AcDbLine
 10
493.6568678855649
 20
248.8419620284728
 30
0.0
 11
489.946254200765
 21
248.8419620284728
 31
0.0
  0
LINE
  5
342C
330
1A
100
AcDbEntity
  8
SEIHIN
  6
CONTINUOUS
 48
10.0
100
AcDbLine
 10
490.4207364840649
 20
249.3419620284728
 30
0.0
 11
493.936998706865
 21
249.3419620284728
 31
0.0
  0
LINE
  5
342D
330
1A
100
AcDbEntity
  8
SEIHIN
  6
CONTINUOUS
 48
10.0
100
AcDbLine
 10
490.0516069223649
 20
248.9529806325728
 30
0.0
 11
489.946254200765
 21
248.8419620284728
 31
0.0
  0
LINE
  5
342E
330
1A
100
AcDbEntity
  8
SEIHIN
  6
CONTINUOUS
 48
10.0
100
AcDbLine
 10
490.0516069223649
 20
248.9529806325728
 30
0.0
 11
490.4207364840649
 21
249.3419620284728
 31
0.0
  0
LINE
  5
342F
330
1A
100
AcDbEntity
  8
SEIHIN
  6
CONTINUOUS
 48
10.0
100
AcDbLine
 10
493.6568678855649
 20
248.8419620284728
 30
0.0
 11
493.7190878516651
 21
248.9529806325728
 31
0.0
  0
LINE
  5
3430
330
1A
100
AcDbEntity
  8
SEIHIN
  6
CONTINUOUS
 48
10.0
100
AcDbLine
 10
493.7190878516651
 20
248.9529806325728
 30
0.0
 11
493.936998706865
 21
249.3419620284728
 31
0.0
  0
LINE
  5
3431
330
1A
100
AcDbEntity
  8
NOKITOI
 48
0.5
100
AcDbLine
 10
510.595719443363
 20
235.9578601737374
 30
0.0
 11
515.3456788351162
 21
241.0624293828995
 31
0.0
  0
LINE
  5
3432
330
1A
100
AcDbEntity
  8
NOKITOI
 48
0.5
100
AcDbLine
 10
509.4976027310341
 20
236.9796917088269
 30
0.0
 11
513.5960333996051
 21
241.3840920986483
 31
0.0
  0
ARC
  5
3433
330
1A
100
AcDbEntity
  8
NOKITOI
 48
0.5
100
AcDbCircle
 10
162.7340665373704
 20
47.47206572244272
 30
0.0
 40
391.6000000000092
100
AcDbArc
 50
28.28464033564904
 51
30.14414153245264
  0
ARC
  5
3434
330
1A
100
AcDbEntity
  8
NOKITOI
 48
0.5
100
AcDbCircle
 10
514.9881862926796
 20
231.8705340333794
 30
0.0
 40
7.499999999999871
100
AcDbArc
 50
137.0608680432694
 51
171.0867903269342
  0
ARC
  5
3435
330
1A
100
AcDbEntity
  8
NOKITOI
 48
0.5
100
AcDbCircle
 10
514.9881862926796
 20
231.8705340333794
 30
0.0
 40
5.999999999999833
100
AcDbArc
 50
137.0608680432694
 51
207.6312195127911
  0
LINE
  5
3436
330
1A
100
AcDbEntity
  8
NOKITOI
 48
0.5
100
AcDbLine
 10
504.9607306449307
 20
244.8317250826458
 30
0.0
 11
512.4356217346297
 21
244.8317250826448
 31
0.0
  0
LINE
  5
3437
330
1A
100
AcDbEntity
  8
NOKITOI
 48
0.5
100
AcDbLine
 10
504.9607306449307
 20
243.3317250826458
 30
0.0
 11
512.4356217346295
 21
243.3317250826448
 31
0.0
  0
ARC
  5
3438
330
1A
100
AcDbEntity
  8
NOKITOI
 48
0.5
100
AcDbCircle
 10
504.9607306449307
 20
251.8317250826457
 30
0.0
 40
8.499999999999944
100
AcDbArc
 50
245.0556485248561
 51
270.0
  0
ARC
  5
3439
330
1A
100
AcDbEntity
  8
NOKITOI
 48
0.5
100
AcDbCircle
 10
512.4356217346295
 20
242.8317250826448
 30
0.0
 40
2.000000000000133
100
AcDbArc
 50
29.74488129691435
 51
90.0
  0
ARC
  5
343A
330
1A
100
AcDbEntity
  8
NOKITOI
 48
0.5
100
AcDbCircle
 10
512.4356217346295
 20
242.8317250826448
 30
0.0
 40
0.5000000000000898
100
AcDbArc
 50
29.74488129691541
 51
90.0
  0
LINE
  5
343B
330
1A
100
AcDbEntity
  8
NOKITOI
 48
0.5
100
AcDbLine
 10
513.6368829997764
 20
241.7373000871734
 30
0.0
 11
512.8697433056919
 21
243.0797945518231
 31
0.0
  0
ARC
  5
343C
330
1A
100
AcDbEntity
  8
NOKITOI
 48
0.5
100
AcDbCircle
 10
514.9796399310063
 20
241.403039894596
 30
0.0
 40
0.4999999999999604
100
AcDbArc
 50
317.0608680432694
 51
29.74488129696686
  0
ARC
  5
343D
330
1A
100
AcDbEntity
  8
NOKITOI
 48
0.5
100
AcDbCircle
 10
513.3764100571389
 20
241.5884584056664
 30
0.0
 40
0.300000000000178
100
AcDbArc
 50
317.0608680432883
 51
29.74488129692748
  0
LINE
  5
343E
330
1A
100
AcDbEntity
  8
NOKITOI
 48
0.5
100
AcDbLine
 10
515.4137615020687
 20
241.6511093637743
 30
0.0
 11
514.1721080188789
 21
243.824002959358
 31
0.0
  0
LINE
  5
343F
330
1A
100
AcDbEntity
  8
NOKITOI
 48
0.5
100
AcDbLine
 10
493.8709881581934
 20
271.9675141987725
 30
0.0
 11
499.596266888841
 21
270.3317201872114
 31
0.0
  0
ARC
  5
3440
330
1A
100
AcDbEntity
  8
NOKITOI
 48
0.5
100
AcDbCircle
 10
504.060538771958
 20
253.3317250826458
 30
0.0
 40
7.0
100
AcDbArc
 50
90.0
 51
211.0948757823071
  0
LINE
  5
3441
330
1A
100
AcDbEntity
  8
SEIHIN
  6
CONTINUOUS
 48
10.0
100
AcDbLine
 10
502.6936806492649
 20
272.1966774248728
 30
0.0
 11
492.3540444402649
 21
274.9539137472728
 31
0.0
  0
LINE
  5
3442
330
1A
100
AcDbEntity
  8
SEIHIN
  6
CONTINUOUS
 48
10.0
100
AcDbLine
 10
493.075085525965
 20
272.1742736750728
 30
0.0
 11
499.9462542007649
 21
270.3419620284728
 31
0.0
  0
LINE
  5
3443
330
1A
100
AcDbEntity
  8
SEIHIN
  6
CONTINUOUS
 48
10.0
100
AcDbLine
 10
489.2315618436651
 20
272.8781114190728
 30
0.0
 11
489.211880358865
 21
272.4083109889728
 31
0.0
  0
ARC
  5
3444
330
1A
100
AcDbEntity
  8
SEIHIN
  6
CONTINUOUS
 48
10.0
100
AcDbCircle
 10
491.2006950555649
 20
272.6741111337728
 30
0.0
 40
2.500000000000007
100
AcDbArc
 50
75.06858282189853
 51
182.9999999999999
  0
LINE
  5
3445
330
1A
100
AcDbEntity
  8
NOKITOI
 48
0.5
100
AcDbLine
 10
497.9962666173938
 20
268.8985475450192
 30
0.0
 11
497.9962648200795
 21
259.4092259156179
 31
0.0
  0
LINE
  5
3446
330
1A
100
AcDbEntity
  8
NOKITOI
 48
0.5
100
AcDbLine
 10
494.1962667905637
 20
269.8128333729453
 30
0.0
 11
494.1962638394476
 21
254.2317249725699
 31
0.0
  0
LINE
  5
3447
330
1A
100
AcDbEntity
  8
NOKITOI
 48
0.5
100
AcDbLine
 10
492.5962670165518
 20
271.0059904444621
 30
0.0
 11
492.5962634795801
 21
252.3317217447459
 31
0.0
  0
LINE
  5
3448
330
1A
100
AcDbEntity
  8
SEIHIN
  6
CONTINUOUS
 48
10.0
100
AcDbLine
 10
492.446254200765
 20
251.8419620284728
 30
0.0
 11
492.446254200765
 21
271.6911562052728
 31
0.0
  0
ARC
  5
3449
330
1A
100
AcDbEntity
  8
NOKITOI
 48
0.5
100
AcDbCircle
 10
504.060538771958
 20
253.3317250826458
 30
0.0
 40
8.500000000000364
100
AcDbArc
 50
136.3203885738161
 51
174.129932929539
  0
ARC
  5
344A
330
1A
100
AcDbEntity
  8
NOKITOI
 48
0.5
100
AcDbCircle
 10
495.3066826007703
 20
254.231726268295
 30
0.0
 40
0.2999999999999176
100
AcDbArc
 50
270.0000956236189
 51
354.1299329295536
  0
ARC
  5
344B
330
1A
100
AcDbEntity
  8
NOKITOI
 48
0.5
100
AcDbCircle
 10
497.6962648200793
 20
259.4092259724391
 30
0.0
 40
0.2999999999999576
100
AcDbArc
 50
316.3203885738161
 51
359.9999891479612
  0
ARC
  5
344C
330
1A
100
AcDbEntity
  8
NOKITOI
 48
0.5
100
AcDbCircle
 10
494.4962638394478
 20
254.2317249157488
 30
0.0
 40
0.2999999999999176
100
AcDbArc
 50
179.9999891479612
 51
270.0000956236189
  0
LINE
  5
344D
330
1A
100
AcDbEntity
  8
NOKITOI
 48
0.5
100
AcDbLine
 10
494.5962668055373
 20
252.3317250826457
 30
0.0
 11
492.5962634795801
 21
252.3317217447459
 31
0.0
  0
LINE
  5
344E
330
1A
100
AcDbEntity
  8
NOKITOI
 48
0.5
100
AcDbLine
 10
495.3066831014544
 20
253.9317262682954
 30
0.0
 11
494.4962643401319
 21
253.9317249157493
 31
0.0
  0
LINE
  5
344F
330
1A
100
AcDbEntity
  8
SEIHIN
  6
CONTINUOUS
 48
10.0
100
AcDbLine
 10
494.5335295254063
 20
256.8419620284728
 30
0.0
 11
496.3589788761241
 21
256.8419620284728
 31
0.0
  0
LINE
  5
3450
330
1A
100
AcDbEntity
  8
SEIHIN
  6
CONTINUOUS
 48
10.0
100
AcDbLine
 10
494.4675620165651
 20
251.8419620284728
 30
0.0
 11
492.446254200765
 21
251.8419620284728
 31
0.0
  0
LINE
  5
3451
330
1A
100
AcDbEntity
  8
SEIHIN
  6
CONTINUOUS
 48
10.0
100
AcDbLine
 10
494.4675620165651
 20
251.8419620284728
 30
0.0
 11
492.446254200765
 21
251.8419620284728
 31
0.0
  0
ARC
  5
3452
330
1A
100
AcDbEntity
  8
SEIHIN
  6
CONTINUOUS
 48
10.0
100
AcDbCircle
 10
494.4675620165651
 20
251.3419620284728
 30
0.0
 40
0.5000000000000025
100
AcDbArc
 50
31.7102843441995
 51
90.0
  0
LINE
  5
3453
330
1A
100
AcDbEntity
  8
SEIHIN
  6
CONTINUOUS
 48
10.0
100
AcDbLine
 10
494.446254200765
 20
251.8419620284728
 30
0.0
 11
494.5335295254063
 21
256.8419620284728
 31
0.0
  0
ARC
  5
3454
330
1A
100
AcDbEntity
  8
NOKITOI
 48
0.5
100
AcDbCircle
 10
497.6962666173936
 20
268.8985476018403
 30
0.0
 40
0.299999999999901
100
AcDbArc
 50
359.9999891479612
 51
74.05460328011796
  0
ARC
  5
3455
330
1A
100
AcDbEntity
  8
NOKITOI
 48
0.5
100
AcDbCircle
 10
493.5962670165519
 20
271.0059902550586
 30
0.0
 40
1.000000000000065
100
AcDbArc
 50
74.05460328007052
 51
179.999989147984
  0
ARC
  5
3456
330
1A
100
AcDbEntity
  8
NOKITOI
 48
0.5
100
AcDbCircle
 10
494.4962667905639
 20
269.8128333161241
 30
0.0
 40
0.3000000000001873
100
AcDbArc
 50
74.05460328003677
 51
179.9999891479612
  0
LINE
  5
3457
330
1A
100
AcDbEntity
  8
NOKITOI
 48
0.5
100
AcDbLine
 10
494.5786831330566
 20
270.1012904992383
 30
0.0
 11
497.7786829598859
 21
269.1870047849545
 31
0.0
  0
ARC
  5
3458
330
1A
100
AcDbEntity
  8
SEIHIN
  6
CONTINUOUS
 48
10.0
100
AcDbCircle
 10
492.946254200765
 20
271.6911562052728
 30
0.0
 40
0.5000000000000265
100
AcDbArc
 50
75.06858282189853
 51
180.0
  0
LINE
  5
3459
330
1A
100
AcDbEntity
  8
SEIHIN
  6
CONTINUOUS
 48
10.0
100
AcDbLine
 10
491.4197109436649
 20
275.0216378094728
 30
0.0
 11
490.959622112865
 21
274.9235519885728
 31
0.0
  0
LINE
  5
345A
330
1A
100
AcDbEntity
  8
SEIHIN
  6
CONTINUOUS
 48
10.0
100
AcDbLine
 10
489.530131799765
 20
273.7654601799728
 30
0.0
 11
489.3389114496651
 21
273.3358923186728
 31
0.0
  0
LINE
  5
345B
330
1A
100
AcDbEntity
  8
SEIHIN
  6
CONTINUOUS
 48
10.0
100
AcDbLine
 10
489.798458679265
 20
274.1516195007728
 30
0.0
 11
489.530131799765
 21
273.7654601799728
 31
0.0
  0
LINE
  5
345C
330
1A
100
AcDbEntity
  8
SEIHIN
  6
CONTINUOUS
 48
10.0
100
AcDbLine
 10
490.1344003128649
 20
274.4807103096728
 30
0.0
 11
489.798458679265
 21
274.1516195007728
 31
0.0
  0
LINE
  5
345D
330
1A
100
AcDbEntity
  8
SEIHIN
  6
CONTINUOUS
 48
10.0
100
AcDbLine
 10
490.5260731258649
 20
274.7410913724728
 30
0.0
 11
490.1344003128649
 21
274.4807103096728
 31
0.0
  0
LINE
  5
345E
330
1A
100
AcDbEntity
  8
SEIHIN
  6
CONTINUOUS
 48
10.0
100
AcDbLine
 10
489.3389114496651
 20
273.3358923186728
 30
0.0
 11
489.2315618436651
 21
272.8781114190728
 31
0.0
  0
LINE
  5
345F
330
1A
100
AcDbEntity
  8
SEIHIN
  6
CONTINUOUS
 48
10.0
100
AcDbLine
 10
490.959622112865
 20
274.9235519885728
 30
0.0
 11
490.5260731258649
 21
274.7410913724728
 31
0.0
  0
LINE
  5
3460
330
1A
100
AcDbEntity
  8
SEIHIN
  6
CONTINUOUS
 48
10.0
100
AcDbLine
 10
492.3540444402649
 20
274.9539137472728
 30
0.0
 11
491.8900644698648
 21
275.0318791545728
 31
0.0
  0
LINE
  5
3461
330
1A
100
AcDbEntity
  8
SEIHIN
  6
CONTINUOUS
 48
10.0
100
AcDbLine
 10
491.956188989365
 20
275.0600085341728
 30
0.0
 11
492.3540444402649
 21
274.9539137472728
 31
0.0
  0
LINE
  5
3462
330
1A
100
AcDbEntity
  8
SEIHIN
  6
CONTINUOUS
 48
10.0
100
AcDbLine
 10
491.844851681965
 20
275.0896984827728
 30
0.0
 11
491.956188989365
 21
275.0600085341728
 31
0.0
  0
LINE
  5
3463
330
1A
100
AcDbEntity
  8
SEIHIN
  6
CONTINUOUS
 48
10.0
100
AcDbLine
 10
491.8900644698648
 20
275.0318791545728
 30
0.0
 11
491.4197109436649
 21
275.0216378094728
 31
0.0
  0
LINE
  5
3464
330
1A
100
AcDbEntity
  8
SEIHIN
  6
CONTINUOUS
 48
10.0
100
AcDbLine
 10
491.956188989365
 20
275.0600085341728
 30
0.0
 11
491.3752588017651
 21
275.1435381190728
 31
0.0
  0
LINE
  5
3465
330
1A
100
AcDbEntity
  8
SEIHIN
  6
CONTINUOUS
 48
10.0
100
AcDbLine
 10
506.446254200765
 20
271.9476408408728
 30
0.0
 11
506.446254200765
 21
272.6471023280728
 31
0.0
  0
LINE
  5
3466
330
1A
100
AcDbEntity
  8
SEIHIN
  6
CONTINUOUS
 48
10.0
100
AcDbLine
 10
505.734945069865
 20
273.1002562215728
 30
0.0
 11
504.054242473865
 21
272.3165317299728
 31
0.0
  0
ARC
  5
3467
330
1A
100
AcDbEntity
  8
NOKITOI
 48
0.5
100
AcDbCircle
 10
512.5962650895127
 20
260.8317250826457
 30
0.0
 40
4.5
100
AcDbArc
 50
270.0
 51
359.9999891479971
  0
LINE
  5
3468
330
1A
100
AcDbEntity
  8
NOKITOI
 48
0.5
100
AcDbLine
 10
512.3127554687486
 20
260.0475895441547
 30
0.0
 11
516.6754438024405
 21
261.9671698668239
 31
0.0
  0
ARC
  5
3469
330
1A
100
AcDbEntity
  8
NOKITOI
 48
0.5
100
AcDbCircle
 10
512.5962650895127
 20
260.8317250826457
 30
0.0
 40
6.0
100
AcDbArc
 50
270.0
 51
359.9999891479971
  0
LINE
  5
346A
330
1A
100
AcDbEntity
  8
NOKITOI
 48
0.5
100
AcDbLine
 10
499.596266320632
 20
267.3317201872096
 30
0.0
 11
516.9785577249602
 21
263.9467475257255
 31
0.0
  0
ARC
  5
346B
330
1A
100
AcDbEntity
  8
NOKITOI
 48
0.5
100
AcDbCircle
 10
504.060538771958
 20
253.3317250826458
 30
0.0
 40
8.5
100
AcDbArc
 50
90.0
 51
122.4778405323753
  0
LINE
  5
346C
330
1A
100
AcDbEntity
  8
NOKITOI
 48
0.5
100
AcDbLine
 10
499.4962660155803
 20
265.7211382737191
 30
0.0
 11
499.4962650271155
 21
260.5023181670521
 31
0.0
  0
LINE
  5
346D
330
1A
100
AcDbEntity
  8
NOKITOI
 48
0.5
100
AcDbLine
 10
504.060538771958
 20
260.3317250826457
 30
0.0
 11
509.6685668136879
 21
260.3317250826457
 31
0.0
  0
LINE
  5
346E
330
1A
100
AcDbEntity
  8
NOKITOI
 48
0.5
100
AcDbLine
 10
512.5962650895127
 20
256.3317250826457
 30
0.0
 11
511.6661267909618
 21
256.3317250826455
 31
0.0
  0
ARC
  5
346F
330
1A
100
AcDbEntity
  8
NOKITOI
 48
0.5
100
AcDbCircle
 10
509.6685668136879
 20
259.3317250826458
 30
0.0
 40
2.500000000000012
100
AcDbArc
 50
340.0168934781067
 51
9.067409553813417
  0
ARC
  5
3470
330
1A
100
AcDbEntity
  8
NOKITOI
 48
0.5
100
AcDbCircle
 10
512.4335769188684
 20
259.7729949753975
 30
0.0
 40
0.2999999999999199
100
AcDbArc
 50
113.7494664995853
 51
189.0674095538221
  0
LINE
  5
3471
330
1A
100
AcDbEntity
  8
NOKITOI
 48
0.5
100
AcDbLine
 10
510.6083602371764
 20
258.9899820195591
 30
0.0
 11
509.3402200897691
 21
255.502596614188
 31
0.0
  0
ARC
  5
3472
330
1A
100
AcDbEntity
  8
NOKITOI
 48
0.5
100
AcDbCircle
 10
509.8101168015128
 20
255.3317250826448
 30
0.0
 40
0.5000000000000025
100
AcDbArc
 50
160.0168934781066
 51
270.0
  0
ARC
  5
3473
330
1A
100
AcDbEntity
  8
NOKITOI
 48
0.5
100
AcDbCircle
 10
509.6685668136879
 20
259.3317250826458
 30
0.0
 40
1.000000000000004
100
AcDbArc
 50
340.0168934781067
 51
90.0
  0
LINE
  5
3474
330
1A
100
AcDbEntity
  8
NOKITOI
 48
0.5
100
AcDbLine
 10
512.0180503724087
 20
258.477367424929
 30
0.0
 11
511.3841887639152
 21
256.7342480015716
 31
0.0
  0
ARC
  5
3475
330
1A
100
AcDbEntity
  8
NOKITOI
 48
0.5
100
AcDbCircle
 10
511.6661267909618
 20
256.6317250826455
 30
0.0
 40
0.300000000000118
100
AcDbArc
 50
160.0168934780935
 51
270.0
  0
LINE
  5
3476
330
1A
100
AcDbEntity
  8
NOKITOI
 48
0.5
100
AcDbLine
 10
512.5962650895147
 20
254.8317250826457
 30
0.0
 11
509.8101168015131
 21
254.8317250826448
 31
0.0
  0
LINE
  5
3477
330
1A
100
AcDbEntity
  8
NOKITOI
 48
0.5
100
AcDbLine
 10
504.060538771958
 20
261.8317250826458
 30
0.0
 11
510.4055179441685
 21
261.8317250826458
 31
0.0
  0
LINE
  5
3478
330
1A
100
AcDbEntity
  8
NOKITOI
 48
0.5
100
AcDbLine
 10
499.4962660155803
 20
265.7211382737191
 30
0.0
 11
514.7372683804779
 21
262.7531534931883
 31
0.0
  0
LINE
  5
3479
330
1A
100
AcDbEntity
  8
NOKITOI
 48
0.5
100
AcDbLine
 10
499.596266888841
 20
270.3317201872114
 30
0.0
 11
499.596266320632
 21
267.3317201872096
 31
0.0
  0
ARC
  5
347A
330
1A
100
AcDbEntity
  8
NOKITOI
 48
0.5
100
AcDbCircle
 10
499.2962668459809
 20
270.1054297789949
 30
0.0
 40
0.3000000000000258
100
AcDbArc
 50
359.9999891480052
 51
74.05460328003677
  0
LINE
  5
347B
330
1A
100
AcDbEntity
  8
SEIHIN
  6
CONTINUOUS
 48
10.0
100
AcDbLine
 10
505.291490724165
 20
270.1350252667728
 30
0.0
 11
501.8481013989651
 21
268.5293464543728
 31
0.0
  0
LINE
  5
347C
330
1A
100
AcDbEntity
  8
SEIHIN
  6
CONTINUOUS
 48
10.0
100
AcDbLine
 10
499.9462542007649
 20
268.3419620284728
 30
0.0
 11
501.0028648754651
 21
268.3419620284728
 31
0.0
  0
LINE
  5
347D
330
1A
100
AcDbEntity
  8
SEIHIN
  6
CONTINUOUS
 48
10.0
100
AcDbLine
 10
499.9462542007649
 20
270.3419620284728
 30
0.0
 11
499.9462542007649
 21
268.3419620284728
 31
0.0
  0
ARC
  5
347E
330
1A
100
AcDbEntity
  8
SEIHIN
  6
CONTINUOUS
 48
10.0
100
AcDbCircle
 10
501.0028648754651
 20
270.3419620284728
 30
0.0
 40
2.0
100
AcDbArc
 50
270.0
 51
294.9999999999996
  0
ARC
  5
347F
330
1A
100
AcDbEntity
  8
SEIHIN
  6
CONTINUOUS
 48
10.0
100
AcDbCircle
 10
504.4462542007649
 20
271.9476408408728
 30
0.0
 40
1.999999999999975
100
AcDbArc
 50
294.9999999999996
 51
0.0
  0
ARC
  5
3480
330
1A
100
AcDbEntity
  8
SEIHIN
  6
CONTINUOUS
 48
10.0
100
AcDbCircle
 10
503.2090059503651
 20
274.1291473040728
 30
0.0
 40
1.99999999999998
100
AcDbArc
 50
255.0685828218985
 51
294.9999999999996
  0
LINE
  5
3481
330
1A
100
AcDbEntity
  8
NOKITOI
 48
0.5
100
AcDbLine
 10
511.6521192340834
 20
261.3956896679173
 30
0.0
 11
514.7372683804779
 21
262.7531534931883
 31
0.0
  0
ARC
  5
3482
330
1A
100
AcDbEntity
  8
NOKITOI
 48
0.5
100
AcDbCircle
 10
510.4055179441685
 20
259.8317250826458
 30
0.0
 40
2.000000000000145
100
AcDbArc
 50
51.44243227598031
 51
90.0
  0
LINE
  5
3483
330
1A
100
AcDbEntity
  8
NOKITOI
 48
0.5
100
AcDbLine
 10
517.0962650895127
 20
260.8317242303312
 30
0.0
 11
517.0962652525605
 21
261.6925752412457
 31
0.0
  0
LINE
  5
3484
330
1A
100
AcDbEntity
  8
NOKITOI
 48
0.5
100
AcDbLine
 10
518.5962650895127
 20
260.8317239462284
 30
0.0
 11
518.5962653076857
 21
261.9836239954862
 31
0.0
  0
ARC
  5
3485
330
1A
100
AcDbEntity
  8
NOKITOI
 48
0.5
100
AcDbCircle
 10
516.7962652525603
 20
261.6925752980666
 30
0.0
 40
0.3000000000000748
100
AcDbArc
 50
359.9999891480052
 51
113.7494664995853
  0
ARC
  5
3486
330
1A
100
AcDbEntity
  8
NOKITOI
 48
0.5
100
AcDbCircle
 10
516.5962653076859
 20
261.983624374292
 30
0.0
 40
2.000000000000035
100
AcDbArc
 50
359.999989147971
 51
78.98029157818554
  0
ARC
  5
3487
330
1A
100
AcDbEntity
  8
SEIHIN
  6
CONTINUOUS
 48
10.0
100
AcDbCircle
 10
505.946254200765
 20
272.6471023280728
 30
0.0
 40
0.5
100
AcDbArc
 50
0.0
 51
114.9999999999996
  0
LINE
  5
3488
330
1A
100
AcDbEntity
  8
NOKITOI
 48
0.5
100
AcDbLine
 10
643.3588456885831
 20
195.6661411946231
 30
0.0
 11
643.7655235190332
 21
204.5701917318601
 31
0.0
  0
LINE
  5
3489
330
1A
100
AcDbEntity
  8
NOKITOI
 48
0.5
100
AcDbLine
 10
644.9544330166568
 20
195.5330078392519
 30
0.0
 11
645.8574806346168
 21
215.3048789022708
 31
0.0
  0
LINE
  5
348A
330
1A
100
AcDbEntity
  8
NOKITOI
 48
0.5
100
AcDbLine
 10
639.7076378242154
 20
201.5318601726471
 30
0.0
 11
640.751569080061
 21
204.3331391355368
 31
0.0
  0
LINE
  5
348B
330
1A
100
AcDbEntity
  8
NOKITOI
 48
0.5
100
AcDbLine
 10
638.5248088172711
 20
202.6533682752719
 30
0.0
 11
639.6801110918004
 21
205.7534995715613
 31
0.0
  0
LINE
  5
348C
330
1A
100
AcDbEntity
  8
NOKITOI
 48
0.5
100
AcDbLine
 10
637.8552096287704
 20
219.8805109126131
 30
0.0
 11
630.6962668055303
 21
200.5330078392475
 31
0.0
  0
LINE
  5
348D
330
1A
100
AcDbEntity
  8
NOKITOI
 48
0.5
100
AcDbLine
 10
639.104008092685
 20
218.9330078392481
 30
0.0
 11
632.9170319448767
 21
202.2123071729488
 31
0.0
  0
LINE
  5
348E
330
1A
100
AcDbEntity
  8
SEIHIN
  6
CONTINUOUS
 48
10.0
100
AcDbLine
 10
646.0104274754651
 20
215.3165382736728
 30
0.0
 11
645.131527359865
 21
195.8419620284728
 31
0.0
  0
LINE
  5
348F
330
1A
100
AcDbEntity
  8
SEIHIN
  6
CONTINUOUS
 48
10.0
100
AcDbLine
 10
648.5078853895649
 20
215.2038263963728
 30
0.0
 11
647.6281300693649
 21
195.7103006164728
 31
0.0
  0
LINE
  5
3490
330
1A
100
AcDbEntity
  8
SEIHIN
  6
CONTINUOUS
 48
10.0
100
AcDbLine
 10
647.129491792065
 20
195.7517504462728
 30
0.0
 11
648.0073849257649
 21
215.2040140930728
 31
0.0
  0
ARC
  5
3491
330
1A
100
AcDbEntity
  8
NOKITOI
 48
0.5
100
AcDbCircle
 10
597.5462668055789
 20
1136.331725082644
 30
0.0
 40
998.3999999999994
100
AcDbArc
 50
267.3988777093053
 51
271.9779273652207
  0
ARC
  5
3492
330
1A
100
AcDbEntity
  8
NOKITOI
 48
0.5
100
AcDbCircle
 10
597.5462668055789
 20
1136.331725082644
 30
0.0
 40
999.9999999999994
100
AcDbArc
 50
267.3333119235699
 51
271.9779273652207
  0
LINE
  5
3493
330
1A
100
AcDbEntity
  8
SEIHIN
  6
CONTINUOUS
 48
10.0
100
AcDbLine
 10
577.4318286419649
 20
134.7373181312728
 30
0.0
 11
605.1372660817649
 21
134.7036458128728
 31
0.0
  0
LINE
  5
3494
330
1A
100
AcDbEntity
  8
SEIHIN
  6
CONTINUOUS
 48
10.0
100
AcDbLine
 10
619.114847408465
 20
134.0102117859728
 30
0.0
 11
593.097683593565
 21
133.6769558668728
 31
0.0
  0
ARC
  5
3495
330
1A
100
AcDbEntity
  8
SEIHIN
  6
CONTINUOUS
 48
10.0
100
AcDbCircle
 10
592.996254200765
 20
1136.341962028472
 30
0.0
 40
1000.0
100
AcDbArc
 50
267.6038484565977
 51
272.2486160746025
  0
LINE
  5
3496
330
1A
100
AcDbEntity
  8
SEIHIN
  6
CONTINUOUS
 48
10.0
100
AcDbLine
 10
642.134411591465
 20
116.3419620284728
 30
0.0
 11
554.657616506965
 21
116.3419620284728
 31
0.0
  0
LINE
  5
3497
330
1A
100
AcDbEntity
  8
SEIHIN
  6
CONTINUOUS
 48
10.0
100
AcDbLine
 10
549.875559488765
 20
156.1751091804728
 30
0.0
 11
549.053896626965
 21
156.5810558778728
 31
0.0
  0
LINE
  5
3498
330
1A
100
AcDbEntity
  8
SEIHIN
  6
CONTINUOUS
 48
10.0
100
AcDbLine
 10
567.0742803529649
 20
134.0063610999728
 30
0.0
 11
549.3929120688651
 21
134.6078058429728
 31
0.0
  0
LINE
  5
3499
330
1A
100
AcDbEntity
  8
SEIHIN
  6
CONTINUOUS
 48
10.0
100
AcDbLine
 10
549.6191653042649
 20
135.4533580674728
 30
0.0
 11
577.4318286419649
 21
134.7373181312728
 31
0.0
  0
LINE
  5
349A
330
1A
100
AcDbEntity
  8
SEIHIN
  6
CONTINUOUS
 48
10.0
100
AcDbLine
 10
552.422591714065
 20
118.8801490199728
 30
0.0
 11
547.5487380433649
 21
135.8716794250728
 31
0.0
  0
LINE
  5
349B
330
1A
100
AcDbEntity
  8
SEIHIN
  6
CONTINUOUS
 48
10.0
100
AcDbLine
 10
552.7351414094651
 20
117.7905189219728
 30
0.0
 11
552.422591714065
 21
118.8801490199728
 31
0.0
  0
ARC
  5
349C
330
1A
100
AcDbEntity
  8
SEIHIN
  6
CONTINUOUS
 48
10.0
100
AcDbCircle
 10
554.657616506965
 20
118.3419620284728
 30
0.0
 40
1.999999999999993
100
AcDbArc
 50
196.0050186310003
 51
270.0
  0
LINE
  5
349D
330
1A
100
AcDbEntity
  8
NOKITOI
 48
0.5
100
AcDbLine
 10
547.2072460185696
 20
145.6136056251808
 30
0.0
 11
549.1947336951692
 21
138.8487042321784
 31
0.0
  0
ARC
  5
349E
330
1A
100
AcDbEntity
  8
NOKITOI
 48
0.5
100
AcDbCircle
 10
547.4453481607471
 20
146.9317249554778
 30
0.0
 40
1.000000000000037
100
AcDbArc
 50
16.37248012523578
 51
89.99999844346808
  0
ARC
  5
349F
330
1A
100
AcDbEntity
  8
SEIHIN
100
AcDbCircle
 10
549.3185454335073
 20
136.5013783519442
 30
0.0
 40
1.895032253864516
100
AcDbArc
 50
187.6307021129995
 51
272.2490322937304
  0
LINE
  5
34A0
330
1A
100
AcDbEntity
  8
SEIHIN
  6
CONTINUOUS
 48
10.0
100
AcDbLine
 10
548.064812967365
 20
136.2945794114728
 30
0.0
 11
548.539614589165
 21
135.8197789102728
 31
0.0
  0
LINE
  5
34A1
330
1A
100
AcDbEntity
  8
SEIHIN
  6
CONTINUOUS
 48
10.0
100
AcDbLine
 10
549.3488518779649
 20
138.6631296440728
 30
0.0
 11
547.4578824427651
 21
145.2555443582728
 31
0.0
  0
LINE
  5
34A2
330
1A
100
AcDbEntity
  8
SEIHIN
  6
CONTINUOUS
 48
10.0
100
AcDbLine
 10
544.6524754358649
 20
143.3419620284728
 30
0.0
 11
539.1199769961649
 21
143.3419620284728
 31
0.0
  0
LINE
  5
34A3
330
1A
100
AcDbEntity
  8
SEIHIN
  6
CONTINUOUS
 48
10.0
100
AcDbLine
 10
539.5060041132649
 20
143.8419620284728
 30
0.0
 11
545.0296363839649
 21
143.8419620284728
 31
0.0
  0
LINE
  5
34A4
330
1A
100
AcDbEntity
  8
SEIHIN
  6
CONTINUOUS
 48
10.0
100
AcDbLine
 10
539.2073667642651
 20
143.8876020068728
 30
0.0
 11
539.5060041132649
 21
143.8419620284728
 31
0.0
  0
LINE
  5
34A5
330
1A
100
AcDbEntity
  8
SEIHIN
  6
CONTINUOUS
 48
10.0
100
AcDbLine
 10
538.908549475665
 20
144.0401485471728
 30
0.0
 11
539.2073667642651
 21
143.8876020068728
 31
0.0
  0
LINE
  5
34A6
330
1A
100
AcDbEntity
  8
SEIHIN
  6
CONTINUOUS
 48
10.0
100
AcDbLine
 10
538.6770030326649
 20
144.2831136696728
 30
0.0
 11
538.908549475665
 21
144.0401485471728
 31
0.0
  0
LINE
  5
34A7
330
1A
100
AcDbEntity
  8
SEIHIN
  6
CONTINUOUS
 48
10.0
100
AcDbLine
 10
538.538949537065
 20
144.5890271251728
 30
0.0
 11
538.6770030326649
 21
144.2831136696728
 31
0.0
  0
ARC
  5
34A8
330
1A
100
AcDbEntity
  8
SEIHIN
  6
CONTINUOUS
 48
10.0
100
AcDbCircle
 10
539.1199769961649
 20
144.3419620284728
 30
0.0
 40
1.000000000000009
100
AcDbArc
 50
194.5697874839011
 51
270.0
  0
LINE
  5
34A9
330
1A
100
AcDbEntity
  8
SEIHIN
  6
CONTINUOUS
 48
10.0
100
AcDbLine
 10
545.923479015365
 20
143.2896767897728
 30
0.0
 11
545.9903403564651
 21
143.1180856235728
 31
0.0
  0
LINE
  5
34AA
330
1A
100
AcDbEntity
  8
SEIHIN
  6
CONTINUOUS
 48
10.0
100
AcDbLine
 10
545.8262901274649
 20
143.4460726414728
 30
0.0
 11
545.923479015365
 21
143.2896767897728
 31
0.0
  0
LINE
  5
34AB
330
1A
100
AcDbEntity
  8
SEIHIN
  6
CONTINUOUS
 48
10.0
100
AcDbLine
 10
545.7020681696651
 20
143.5819717237728
 30
0.0
 11
545.8262901274649
 21
143.4460726414728
 31
0.0
  0
LINE
  5
34AC
330
1A
100
AcDbEntity
  8
SEIHIN
  6
CONTINUOUS
 48
10.0
100
AcDbLine
 10
545.555023976965
 20
143.6927673742728
 30
0.0
 11
545.7020681696651
 21
143.5819717237728
 31
0.0
  0
LINE
  5
34AD
330
1A
100
AcDbEntity
  8
SEIHIN
  6
CONTINUOUS
 48
10.0
100
AcDbLine
 10
545.3901420050649
 20
143.7747038784728
 30
0.0
 11
545.555023976965
 21
143.6927673742728
 31
0.0
  0
LINE
  5
34AE
330
1A
100
AcDbEntity
  8
SEIHIN
  6
CONTINUOUS
 48
10.0
100
AcDbLine
 10
545.2130113687651
 20
143.8250037796728
 30
0.0
 11
545.3901420050649
 21
143.7747038784728
 31
0.0
  0
LINE
  5
34AF
330
1A
100
AcDbEntity
  8
SEIHIN
  6
CONTINUOUS
 48
10.0
100
AcDbLine
 10
545.0296363839649
 20
143.8419620284728
 30
0.0
 11
545.2130113687651
 21
143.8250037796728
 31
0.0
  0
ARC
  5
34B0
330
1A
100
AcDbEntity
  8
SEIHIN
  6
CONTINUOUS
 48
10.0
100
AcDbCircle
 10
544.6524754358649
 20
142.3419620284728
 30
0.0
 40
0.9999999999999969
100
AcDbArc
 50
16.00501863100026
 51
90.0
  0
LINE
  5
34B1
330
1A
100
AcDbEntity
  8
SEIHIN
  6
CONTINUOUS
 48
10.0
100
AcDbLine
 10
547.7739993789651
 20
136.8997831138728
 30
0.0
 11
548.064812967365
 21
136.2945794114728
 31
0.0
  0
LINE
  5
34B2
330
1A
100
AcDbEntity
  8
SEIHIN
  6
CONTINUOUS
 48
10.0
100
AcDbLine
 10
545.9903403564651
 20
143.1180856235728
 30
0.0
 11
547.7739993789651
 21
136.8997831138728
 31
0.0
  0
LINE
  5
34B3
330
1A
100
AcDbEntity
  8
SEIHIN
  6
CONTINUOUS
 48
10.0
100
AcDbLine
 10
547.440294584765
 20
136.2497417242728
 30
0.0
 11
545.6137129845649
 21
142.6176835816728
 31
0.0
  0
ARC
  5
34B4
330
1A
100
AcDbEntity
  8
NOKITOI
 48
0.5
100
AcDbCircle
 10
540.7671979325852
 20
147.3317250826457
 30
0.0
 40
0.9999999999999346
100
AcDbArc
 50
194.7970244987882
 51
270.0
  0
ARC
  5
34B5
330
1A
100
AcDbEntity
  8
SEIHIN
  6
CONTINUOUS
 48
10.0
100
AcDbCircle
 10
541.8168869242649
 20
147.8419620284728
 30
0.0
 40
2.000000000000014
100
AcDbArc
 50
194.9657475550999
 51
218.8691986903997
  0
ARC
  5
34B6
330
1A
100
AcDbEntity
  8
NOKITOI
 48
0.5
100
AcDbCircle
 10
546.247796509872
 20
145.3317250826458
 30
0.0
 40
1.000000000000015
100
AcDbArc
 50
16.37247347651617
 51
90.0
  0
ARC
  5
34B7
330
1A
100
AcDbEntity
  8
NOKITOI
 48
0.5
100
AcDbCircle
 10
542.7642998133789
 20
149.9317250826452
 30
0.0
 40
1.999999999999926
100
AcDbArc
 50
195.0887049995154
 51
270.0
  0
LINE
  5
34B8
330
1A
100
AcDbEntity
  8
NOKITOI
 48
0.5
100
AcDbLine
 10
540.7671979325852
 20
146.3317250826458
 30
0.0
 11
546.247796509872
 21
146.3317250826458
 31
0.0
  0
LINE
  5
34B9
330
1A
100
AcDbEntity
  8
NOKITOI
 48
0.5
100
AcDbLine
 10
547.4453481879137
 20
147.9317249554778
 30
0.0
 11
542.7642998133789
 21
147.9317250826452
 31
0.0
  0
LINE
  5
34BA
330
1A
100
AcDbEntity
  8
SEIHIN
  6
CONTINUOUS
 48
10.0
100
AcDbLine
 10
546.0160261196649
 20
146.3419620284728
 30
0.0
 11
540.9153477670649
 21
146.3419620284728
 31
0.0
  0
ARC
  5
34BB
330
1A
100
AcDbEntity
  8
SEIHIN
  6
CONTINUOUS
 48
10.0
100
AcDbCircle
 10
546.0160261196649
 20
144.8419620284728
 30
0.0
 40
1.499999999999991
100
AcDbArc
 50
16.00501863099948
 51
90.0
  0
ARC
  5
34BC
330
1A
100
AcDbEntity
  8
SEIHIN
  6
CONTINUOUS
 48
10.0
100
AcDbCircle
 10
540.9153477670649
 20
147.3419620284728
 30
0.0
 40
1.000000000000025
100
AcDbArc
 50
229.0331637204003
 51
270.0
  0
LINE
  5
34BD
330
1A
100
AcDbEntity
  8
NOKITOI
 48
0.5
100
AcDbLine
 10
550.4081893647845
 20
140.3945738053717
 30
0.0
 11
548.4047976367348
 21
147.2136056093495
 31
0.0
  0
LINE
  5
34BE
330
1A
100
AcDbEntity
  8
SEIHIN
  6
CONTINUOUS
 48
10.0
100
AcDbLine
 10
555.4477846494648
 20
153.6691266881728
 30
0.0
 11
560.2642121717649
 21
136.8777988766728
 31
0.0
  0
ARC
  5
34BF
330
1A
100
AcDbEntity
  8
NOKITOI
 48
0.5
100
AcDbCircle
 10
552.3270883821789
 20
140.9583348904452
 30
0.0
 40
2.000000000000056
100
AcDbArc
 50
196.372473476611
 51
267.3988776934213
  0
ARC
  5
34C0
330
1A
100
AcDbEntity
  8
NOKITOI
 48
0.5
100
AcDbCircle
 10
551.1136327125647
 20
139.4124653172486
 30
0.0
 40
2.000000000000095
100
AcDbArc
 50
196.3724734765213
 51
267.3333119235504
  0
ARC
  5
34C1
330
1A
100
AcDbEntity
  8
SEIHIN
  6
CONTINUOUS
 48
10.0
100
AcDbCircle
 10
551.2713269754649
 20
139.2145727505728
 30
0.0
 40
1.999999999999993
100
AcDbArc
 50
196.0050186310003
 51
267.6038484565977
  0
LINE
  5
34C2
330
1A
100
AcDbEntity
  8
SEIHIN
  6
CONTINUOUS
 48
10.0
100
AcDbLine
 10
549.144447851065
 20
135.5292327211728
 30
0.0
 11
549.6191653288649
 21
135.4533585356728
 31
0.0
  0
LINE
  5
34C3
330
1A
100
AcDbEntity
  8
SEIHIN
  6
CONTINUOUS
 48
10.0
100
AcDbLine
 10
548.539614589165
 20
135.8197789102728
 30
0.0
 11
549.144447851065
 21
135.5292327211728
 31
0.0
  0
LINE
  5
34C4
330
1A
100
AcDbEntity
  8
SEIHIN
  6
CONTINUOUS
 48
10.0
100
AcDbLine
 10
551.6701303275649
 20
155.8419620284728
 30
0.0
 11
550.7575143732649
 21
155.9259542863728
 31
0.0
  0
LINE
  5
34C5
330
1A
100
AcDbEntity
  8
SEIHIN
  6
CONTINUOUS
 48
10.0
100
AcDbLine
 10
550.7575143732649
 20
155.9259542863728
 30
0.0
 11
549.875559488765
 21
156.1751091804728
 31
0.0
  0
LINE
  5
34C6
330
1A
100
AcDbEntity
  8
SEIHIN
  6
CONTINUOUS
 48
10.0
100
AcDbLine
 10
555.2471034678648
 20
154.1841029152728
 30
0.0
 11
554.9553561883649
 21
154.6535248747728
 31
0.0
  0
LINE
  5
34C7
330
1A
100
AcDbEntity
  8
SEIHIN
  6
CONTINUOUS
 48
10.0
100
AcDbLine
 10
553.114418616565
 20
155.7910497865728
 30
0.0
 11
552.5640720032649
 21
155.8419620284728
 31
0.0
  0
LINE
  5
34C8
330
1A
100
AcDbEntity
  8
SEIHIN
  6
CONTINUOUS
 48
10.0
100
AcDbLine
 10
553.646085643265
 20
155.6400410985728
 30
0.0
 11
553.114418616565
 21
155.7910497865728
 31
0.0
  0
LINE
  5
34C9
330
1A
100
AcDbEntity
  8
SEIHIN
  6
CONTINUOUS
 48
10.0
100
AcDbLine
 10
554.1410275098648
 20
155.3940614250728
 30
0.0
 11
553.646085643265
 21
155.6400410985728
 31
0.0
  0
LINE
  5
34CA
330
1A
100
AcDbEntity
  8
SEIHIN
  6
CONTINUOUS
 48
10.0
100
AcDbLine
 10
554.5824451496651
 20
155.0614596836728
 30
0.0
 11
554.1410275098648
 21
155.3940614250728
 31
0.0
  0
LINE
  5
34CB
330
1A
100
AcDbEntity
  8
SEIHIN
  6
CONTINUOUS
 48
10.0
100
AcDbLine
 10
554.9553561883649
 20
154.6535248747728
 30
0.0
 11
554.5824451496651
 21
155.0614596836728
 31
0.0
  0
LINE
  5
34CC
330
1A
100
AcDbEntity
  8
SEIHIN
  6
CONTINUOUS
 48
10.0
100
AcDbLine
 10
551.6701303275649
 20
155.8419620284728
 30
0.0
 11
552.5640720032649
 21
155.8419620284728
 31
0.0
  0
LINE
  5
34CD
330
1A
100
AcDbEntity
  8
SEIHIN
  6
CONTINUOUS
 48
10.0
100
AcDbLine
 10
555.4477846494648
 20
153.6691266881728
 30
0.0
 11
555.2471034678648
 21
154.1841029152728
 31
0.0
  0
LINE
  5
34CE
330
1A
100
AcDbEntity
  8
CENTER_L
 48
5.0
100
AcDbLine
 10
592.8418647094475
 20
128.4697665871282
 30
0.0
 11
592.8418647094475
 21
142.9755122422185
 31
0.0
  0
ARC
  5
34CF
330
1A
100
AcDbEntity
  8
SEIHIN
  6
CONTINUOUS
 48
10.0
100
AcDbCircle
 10
565.550645732165
 20
114.8419620284728
 30
0.0
 40
1.5
100
AcDbArc
 50
0.0
 51
90.0
  0
LINE
  5
34D0
330
1A
100
AcDbEntity
  8
SEIHIN
  6
CONTINUOUS
 48
10.0
100
AcDbLine
 10
593.097683593565
 20
133.6769558668728
 30
0.0
 11
567.0742803529649
 21
134.0063610999728
 31
0.0
  0
LINE
  5
34D1
330
1A
100
AcDbEntity
  8
SEIHIN
  6
CONTINUOUS
 48
10.0
100
AcDbLine
 10
549.053896626965
 20
156.5810558778728
 30
0.0
 11
548.3201311155651
 21
157.1301558266728
 31
0.0
  0
LINE
  5
34D2
330
1A
100
AcDbEntity
  8
SEIHIN
  6
CONTINUOUS
 48
10.0
100
AcDbLine
 10
542.9042606908649
 20
168.1200362945728
 30
0.0
 11
542.090222391665
 21
168.5166630002728
 31
0.0
  0
LINE
  5
34D3
330
1A
100
AcDbEntity
  8
SEIHIN
  6
CONTINUOUS
 48
10.0
100
AcDbLine
 10
543.633413449465
 20
167.5830936989728
 30
0.0
 11
542.9042606908649
 21
168.1200362945728
 31
0.0
  0
LINE
  5
34D4
330
1A
100
AcDbEntity
  8
SEIHIN
  6
CONTINUOUS
 48
10.0
100
AcDbLine
 10
544.2537652999651
 20
166.9234463098728
 30
0.0
 11
543.633413449465
 21
167.5830936989728
 31
0.0
  0
LINE
  5
34D5
330
1A
100
AcDbEntity
  8
SEIHIN
  6
CONTINUOUS
 48
10.0
100
AcDbLine
 10
544.7449694188651
 20
166.1627297989728
 30
0.0
 11
544.2537652999651
 21
166.9234463098728
 31
0.0
  0
LINE
  5
34D6
330
1A
100
AcDbEntity
  8
SEIHIN
  6
CONTINUOUS
 48
10.0
100
AcDbLine
 10
545.0909148789649
 20
165.3258947882728
 30
0.0
 11
544.7449694188651
 21
166.1627297989728
 31
0.0
  0
LINE
  5
34D7
330
1A
100
AcDbEntity
  8
SEIHIN
  6
CONTINUOUS
 48
10.0
100
AcDbLine
 10
547.698915203265
 20
157.8039609690728
 30
0.0
 11
547.211119821065
 21
158.5798335389728
 31
0.0
  0
LINE
  5
34D8
330
1A
100
AcDbEntity
  8
SEIHIN
  6
CONTINUOUS
 48
10.0
100
AcDbLine
 10
547.211119821065
 20
158.5798335389728
 30
0.0
 11
546.8731333831649
 21
159.4317066206728
 31
0.0
  0
LINE
  5
34D9
330
1A
100
AcDbEntity
  8
SEIHIN
  6
CONTINUOUS
 48
10.0
100
AcDbLine
 10
548.3201311155651
 20
157.1301558266728
 30
0.0
 11
547.698915203265
 21
157.8039609690728
 31
0.0
  0
LINE
  5
34DA
330
1A
100
AcDbEntity
  8
SEIHIN
  6
CONTINUOUS
 48
10.0
100
AcDbLine
 10
545.0909148789649
 20
165.3258947882728
 30
0.0
 11
546.8731333831649
 21
159.4317066206728
 31
0.0
  0
LINE
  5
34DB
330
1A
100
AcDbEntity
  8
SEIHIN
  6
CONTINUOUS
 48
10.0
100
AcDbLine
 10
537.0617058416648
 20
168.8419620284728
 30
0.0
 11
540.316195665865
 21
168.8419620284728
 31
0.0
  0
LINE
  5
34DC
330
1A
100
AcDbEntity
  8
SEIHIN
  6
CONTINUOUS
 48
10.0
100
AcDbLine
 10
535.3232901854651
 20
169.1539015545728
 30
0.0
 11
534.5226227002649
 21
169.5346360828728
 31
0.0
  0
LINE
  5
34DD
330
1A
100
AcDbEntity
  8
SEIHIN
  6
CONTINUOUS
 48
10.0
100
AcDbLine
 10
533.1834462066649
 20
170.6861575027728
 30
0.0
 11
532.687042364465
 21
171.4207393079728
 31
0.0
  0
LINE
  5
34DE
330
1A
100
AcDbEntity
  8
SEIHIN
  6
CONTINUOUS
 48
10.0
100
AcDbLine
 10
533.8017867517648
 20
170.0507976258728
 30
0.0
 11
533.1834462066649
 21
170.6861575027728
 31
0.0
  0
LINE
  5
34DF
330
1A
100
AcDbEntity
  8
SEIHIN
  6
CONTINUOUS
 48
10.0
100
AcDbLine
 10
534.5226227002649
 20
169.5346360828728
 30
0.0
 11
533.8017867517648
 21
170.0507976258728
 31
0.0
  0
LINE
  5
34E0
330
1A
100
AcDbEntity
  8
SEIHIN
  6
CONTINUOUS
 48
10.0
100
AcDbLine
 10
536.178615350565
 20
168.9205647487728
 30
0.0
 11
535.3232901854651
 21
169.1539015545728
 31
0.0
  0
LINE
  5
34E1
330
1A
100
AcDbEntity
  8
SEIHIN
  6
CONTINUOUS
 48
10.0
100
AcDbLine
 10
537.0617058416648
 20
168.8419620284728
 30
0.0
 11
536.178615350565
 21
168.9205647487728
 31
0.0
  0
LINE
  5
34E2
330
1A
100
AcDbEntity
  8
SEIHIN
  6
CONTINUOUS
 48
10.0
100
AcDbLine
 10
532.687042364465
 20
171.4207393079728
 30
0.0
 11
532.3281827022649
 21
172.2314469900728
 31
0.0
  0
LINE
  5
34E3
330
1A
100
AcDbEntity
  8
SEIHIN
  6
CONTINUOUS
 48
10.0
100
AcDbLine
 10
542.090222391665
 20
168.5166630002728
 30
0.0
 11
541.2179980667649
 21
168.7599649187728
 31
0.0
  0
LINE
  5
34E4
330
1A
100
AcDbEntity
  8
SEIHIN
  6
CONTINUOUS
 48
10.0
100
AcDbLine
 10
541.2179980667649
 20
168.7599649187728
 30
0.0
 11
540.316195665865
 21
168.8419620284728
 31
0.0
  0
ARC
  5
34E5
330
1A
100
AcDbEntity
  8
NOKITOI
 48
0.5
100
AcDbCircle
 10
-347.7557615788459
 20
316.0588123217724
 30
0.0
 40
999.9999999999998
100
AcDbArc
 50
349.92080008713
 51
353.0775507891167
  0
ARC
  5
34E6
330
1A
100
AcDbEntity
  8
NOKITOI
 48
0.5
100
AcDbCircle
 10
-347.7557615788459
 20
316.0588123217724
 30
0.0
 40
998.3999999999999
100
AcDbArc
 50
349.92080008713
 51
353.0740991196976
  0
LINE
  5
34E7
330
1A
100
AcDbEntity
  8
SEIHIN
  6
CONTINUOUS
 48
10.0
100
AcDbLine
 10
644.1655303483651
 20
163.2774786488728
 30
0.0
 11
640.403298879665
 21
140.6482852217728
 31
0.0
  0
LINE
  5
34E8
330
1A
100
AcDbEntity
  8
SEIHIN
  6
CONTINUOUS
 48
10.0
100
AcDbLine
 10
646.163496679665
 20
163.2571081404728
 30
0.0
 11
644.9218731271651
 21
135.7453441620728
 31
0.0
  0
LINE
  5
34E9
330
1A
100
AcDbEntity
  8
SEIHIN
  6
CONTINUOUS
 48
10.0
100
AcDbLine
 10
634.644279951465
 20
137.8424972370728
 30
0.0
 11
636.957064075765
 21
164.2777407421728
 31
0.0
  0
ARC
  5
34EA
330
1A
100
AcDbEntity
  8
SEIHIN
  6
CONTINUOUS
 48
10.0
100
AcDbCircle
 10
-347.563121851635
 20
316.4957370498728
 30
0.0
 40
1002.0
100
AcDbArc
 50
349.8957544358991
 51
353.0701671303998
  0
ARC
  5
34EB
330
1A
100
AcDbEntity
  8
SEIHIN
  6
CONTINUOUS
 48
10.0
100
AcDbCircle
 10
-347.563121851635
 20
316.4957370498728
 30
0.0
 40
1000.0
100
AcDbArc
 50
349.9059824956994
 51
353.0701647168997
  0
LINE
  5
34EC
330
1A
100
AcDbEntity
  8
SEIHIN
  6
CONTINUOUS
 48
10.0
100
AcDbLine
 10
634.1683136301984
 20
134.490492944626
 30
0.0
 11
619.114847408465
 21
134.0102117859728
 31
0.0
  0
LINE
  5
34ED
330
1A
100
AcDbEntity
  8
SEIHIN
  6
CONTINUOUS
 48
10.0
100
AcDbLine
 10
605.1372660817649
 20
134.7036458128728
 30
0.0
 11
632.735477623765
 21
135.3523411124728
 31
0.0
  0
LINE
  5
34EE
330
1A
100
AcDbEntity
  8
SEIHIN
  6
CONTINUOUS
 48
10.0
100
AcDbLine
 10
644.9218731271651
 20
135.7453441620728
 30
0.0
 11
644.1829303279651
 21
119.3719274010728
 31
0.0
  0
ARC
  5
34EF
330
1A
100
AcDbEntity
  8
SEIHIN
  6
CONTINUOUS
 48
10.0
100
AcDbCircle
 10
636.7506457321649
 20
114.8419620284728
 30
0.0
 40
1.5
100
AcDbArc
 50
90.0
 51
180.0
  0
LINE
  5
34F0
330
1A
100
AcDbEntity
  8
SEIHIN
  6
CONTINUOUS
 48
10.0
100
AcDbLine
 10
644.1829303279651
 20
119.3719274010728
 30
0.0
 11
644.132377922765
 21
118.2517925265728
 31
0.0
  0
ARC
  5
34F1
330
1A
100
AcDbEntity
  8
SEIHIN
  6
CONTINUOUS
 48
10.0
100
AcDbCircle
 10
642.134411591465
 20
118.3419620284728
 30
0.0
 40
2.0
100
AcDbArc
 50
270.0
 51
357.4159581436001
  0
ARC
  5
34F2
330
1A
100
AcDbEntity
  8
SEIHIN
100
AcDbCircle
 10
632.7209667398251
 20
142.1914526023765
 30
0.0
 40
7.835789218156363
100
AcDbArc
 50
280.6442123235234
 51
348.6420212405615
  0
LINE
  5
34F3
330
1A
100
AcDbEntity
  8
SEIHIN
  6
CONTINUOUS
 48
10.0
100
AcDbLine
 10
638.128247333165
 20
138.5990334371728
 30
0.0
 11
638.896041274065
 21
140.7051813152728
 31
0.0
  0
ARC
  5
34F4
330
1A
100
AcDbEntity
  8
NOKITOI
 48
0.5
100
AcDbCircle
 10
631.8881830110272
 20
141.9245485239987
 30
0.0
 40
3.39999999999992
100
AcDbArc
 50
271.9779273652077
 51
349.9208000871224
  0
ARC
  5
34F5
330
1A
100
AcDbEntity
  8
NOKITOI
 48
0.5
100
AcDbCircle
 10
631.8881830110272
 20
141.9245485239987
 30
0.0
 40
5.00000000000004
100
AcDbArc
 50
271.9779273652142
 51
349.9208000871224
  0
LINE
  5
34F6
330
1A
100
AcDbEntity
  8
SEIHIN
  6
CONTINUOUS
 48
10.0
100
AcDbLine
 10
632.735477035965
 20
135.3523574653728
 30
0.0
 11
634.870367906165
 21
135.7952491450728
 31
0.0
  0
LINE
  5
34F7
330
1A
100
AcDbEntity
  8
SEIHIN
  6
CONTINUOUS
 48
10.0
100
AcDbLine
 10
636.738291806065
 20
136.9199384652728
 30
0.0
 11
638.128247333165
 21
138.5990334371728
 31
0.0
  0
LINE
  5
34F8
330
1A
100
AcDbEntity
  8
SEIHIN
  6
CONTINUOUS
 48
10.0
100
AcDbLine
 10
634.870367906165
 20
135.7952491450728
 30
0.0
 11
636.738291806065
 21
136.9199384652728
 31
0.0
  0
ARC
  5
34F9
330
1A
100
AcDbEntity
  8
SEIHIN
  6
CONTINUOUS
 48
10.0
100
AcDbCircle
 10
632.035756113765
 20
142.1081277165728
 30
0.0
 40
5.000000000000008
100
AcDbArc
 50
272.2486160746025
 51
349.9059824956994
  0
LINE
  5
34FA
330
1A
100
AcDbEntity
  8
SEIHIN
  6
CONTINUOUS
 48
10.0
100
AcDbLine
 10
645.9225266288649
 20
178.9046592098728
 30
0.0
 11
647.218674156965
 21
191.4895978728728
 31
0.0
  0
LINE
  5
34FB
330
1A
100
AcDbEntity
  8
SEIHIN
  6
CONTINUOUS
 48
10.0
100
AcDbLine
 10
647.6281300693649
 20
195.7103006164728
 30
0.0
 11
646.163496679665
 21
163.2571081404728
 31
0.0
  0
LINE
  5
34FC
330
1A
100
AcDbEntity
  8
SEIHIN
  6
CONTINUOUS
 48
10.0
100
AcDbLine
 10
644.1655303483651
 20
163.2774786488728
 30
0.0
 11
645.9225266288649
 21
178.9046592098728
 31
0.0
  0
LINE
  5
34FD
330
1A
100
AcDbEntity
  8
SEIHIN
  6
CONTINUOUS
 48
10.0
100
AcDbLine
 10
639.5236360491651
 20
168.2203938612728
 30
0.0
 11
638.7174894403649
 21
167.6666279967728
 31
0.0
  0
LINE
  5
34FE
330
1A
100
AcDbEntity
  8
SEIHIN
  6
CONTINUOUS
 48
10.0
100
AcDbLine
 10
638.7174894403649
 20
167.6666279967728
 30
0.0
 11
638.034564737065
 21
166.9665259775728
 31
0.0
  0
LINE
  5
34FF
330
1A
100
AcDbEntity
  8
SEIHIN
  6
CONTINUOUS
 48
10.0
100
AcDbLine
 10
637.1371846535651
 20
165.2390344355728
 30
0.0
 11
636.957064075765
 21
164.2777407421728
 31
0.0
  0
LINE
  5
3500
330
1A
100
AcDbEntity
  8
SEIHIN
  6
CONTINUOUS
 48
10.0
100
AcDbLine
 10
637.500991430365
 20
166.1468745187728
 30
0.0
 11
637.1371846535651
 21
165.2390344355728
 31
0.0
  0
LINE
  5
3501
330
1A
100
AcDbEntity
  8
SEIHIN
  6
CONTINUOUS
 48
10.0
100
AcDbLine
 10
638.034564737065
 20
166.9665259775728
 30
0.0
 11
637.500991430365
 21
166.1468745187728
 31
0.0
  0
LINE
  5
3502
330
1A
100
AcDbEntity
  8
SEIHIN
  6
CONTINUOUS
 48
10.0
100
AcDbLine
 10
641.378684085565
 20
168.8105758878728
 30
0.0
 11
640.4221604594649
 21
168.6066358469728
 31
0.0
  0
LINE
  5
3503
330
1A
100
AcDbEntity
  8
SEIHIN
  6
CONTINUOUS
 48
10.0
100
AcDbLine
 10
640.4221604594649
 20
168.6066358469728
 30
0.0
 11
639.5236360491651
 21
168.2203938612728
 31
0.0
  0
LINE
  5
3504
330
1A
100
AcDbEntity
  8
NOKITOI
 48
0.5
100
AcDbLine
 10
630.6962668055303
 20
200.5330078392475
 30
0.0
 11
639.2783189103665
 21
201.208000701426
 31
0.0
  0
LINE
  5
3505
330
1A
100
AcDbEntity
  8
NOKITOI
 48
0.5
100
AcDbLine
 10
632.9170319448767
 20
202.2123071729488
 30
0.0
 11
638.5248088172711
 21
202.6533682752719
 31
0.0
  0
ARC
  5
3506
330
1A
100
AcDbEntity
  8
NOKITOI
 48
0.5
100
AcDbCircle
 10
639.2391141427769
 20
201.7064613179227
 30
0.0
 40
0.5000000000000096
100
AcDbArc
 50
274.4971516146625
 51
339.5614685906799
  0
LINE
  5
3507
330
1A
100
AcDbEntity
  8
SEIHIN
  6
CONTINUOUS
 48
10.0
100
AcDbLine
 10
647.5218929728651
 20
194.5904206103728
 30
0.0
 11
647.592237864465
 21
195.3183764762728
 31
0.0
  0
LINE
  5
3508
330
1A
100
AcDbEntity
  8
SEIHIN
  6
CONTINUOUS
 48
10.0
100
AcDbLine
 10
647.6081286815649
 20
195.4829113952728
 30
0.0
 11
647.613869609365
 21
195.5421195131728
 31
0.0
  0
LINE
  5
3509
330
1A
100
AcDbEntity
  8
SEIHIN
  6
CONTINUOUS
 48
10.0
100
AcDbLine
 10
647.592237864465
 20
195.3183764762728
 30
0.0
 11
647.6081286815649
 21
195.4829113952728
 31
0.0
  0
LINE
  5
350A
330
1A
100
AcDbEntity
  8
SEIHIN
  6
CONTINUOUS
 48
10.0
100
AcDbLine
 10
647.218674156965
 20
191.4895978728728
 30
0.0
 11
647.5218929728651
 21
194.5904206103728
 31
0.0
  0
ARC
  5
350B
330
1A
100
AcDbEntity
  8
NOKITOI
 48
0.5
100
AcDbCircle
 10
640.8626876270828
 20
215.533007839248
 30
0.0
 40
4.999999999999845
100
AcDbArc
 50
357.3849271045684
 51
90.0
  0
LINE
  5
350C
330
1A
100
AcDbEntity
  8
SEIHIN
  6
CONTINUOUS
 48
10.0
100
AcDbLine
 10
647.1194374906649
 20
219.0951179826728
 30
0.0
 11
646.3783395105649
 21
220.2174999782728
 31
0.0
  0
ARC
  5
350D
330
1A
100
AcDbEntity
  8
SEIHIN
  6
CONTINUOUS
 48
10.0
100
AcDbCircle
 10
641.0155116472649
 20
215.5419620284728
 30
0.0
 40
5.0
100
AcDbArc
 50
357.4159581436001
 51
90.0
  0
ARC
  5
350E
330
1A
100
AcDbEntity
  8
SEIHIN
  6
CONTINUOUS
 48
10.0
100
AcDbCircle
 10
641.0155116472649
 20
215.5419620284728
 30
0.0
 40
7.499999999999973
100
AcDbArc
 50
357.4159581436001
 51
74.45402746440286
  0
LINE
  5
350F
330
1A
100
AcDbEntity
  8
NOKITOI
 48
0.5
100
AcDbLine
 10
643.8344928818596
 20
206.0802487011164
 30
0.0
 11
644.2591468722071
 21
215.3778801621029
 31
0.0
  0
LINE
  5
3510
330
1A
100
AcDbEntity
  8
NOKITOI
 48
0.5
100
AcDbLine
 10
639.6801110918004
 20
205.7534995715613
 30
0.0
 11
643.8344928818596
 21
206.0802487011164
 31
0.0
  0
LINE
  5
3511
330
1A
100
AcDbEntity
  8
NOKITOI
 48
0.5
100
AcDbLine
 10
640.751569080061
 20
204.3331391355368
 30
0.0
 11
643.7655235190332
 21
204.5701917318601
 31
0.0
  0
ARC
  5
3512
330
1A
100
AcDbEntity
  8
NOKITOI
 48
0.5
100
AcDbCircle
 10
638.7928884725124
 20
219.533007839248
 30
0.0
 40
1.0
100
AcDbArc
 50
90.00000000005213
 51
159.7238100727578
  0
LINE
  5
3513
330
1A
100
AcDbEntity
  8
SEIHIN
  6
CONTINUOUS
 48
10.0
100
AcDbLine
 10
637.7414147338649
 20
225.1863201915728
 30
0.0
 11
638.6635446653649
 21
225.6559867005728
 31
0.0
  0
LINE
  5
3514
330
1A
100
AcDbEntity
  8
SEIHIN
  6
CONTINUOUS
 48
10.0
100
AcDbLine
 10
637.7462542007649
 20
220.5419620284728
 30
0.0
 11
641.0155116472649
 21
220.5419620284728
 31
0.0
  0
LINE
  5
3515
330
1A
100
AcDbEntity
  8
SEIHIN
  6
CONTINUOUS
 48
10.0
100
AcDbLine
 10
637.7462542007649
 20
223.0419620284728
 30
0.0
 11
640.5108329627648
 21
223.0419620284728
 31
0.0
  0
LINE
  5
3516
330
1A
100
AcDbEntity
  8
SEIHIN
  6
CONTINUOUS
 48
10.0
100
AcDbLine
 10
636.9235852049651
 20
224.5522341547728
 30
0.0
 11
637.7414147338649
 21
225.1863201915728
 31
0.0
  0
LINE
  5
3517
330
1A
100
AcDbEntity
  8
SEIHIN
  6
CONTINUOUS
 48
10.0
100
AcDbLine
 10
636.239008872765
 20
223.7761764984728
 30
0.0
 11
636.9235852049651
 21
224.5522341547728
 31
0.0
  0
LINE
  5
3518
330
1A
100
AcDbEntity
  8
SEIHIN
  6
CONTINUOUS
 48
10.0
100
AcDbLine
 10
635.711921102765
 20
222.8856212093727
 30
0.0
 11
636.239008872765
 21
223.7761764984728
 31
0.0
  0
LINE
  5
3519
330
1A
100
AcDbEntity
  8
SEIHIN
  6
CONTINUOUS
 48
10.0
100
AcDbLine
 10
635.3609818514648
 20
221.9120957179728
 30
0.0
 11
635.711921102765
 21
222.8856212093727
 31
0.0
  0
LINE
  5
351A
330
1A
100
AcDbEntity
  8
SEIHIN
  6
CONTINUOUS
 48
10.0
100
AcDbLine
 10
635.3554909880649
 20
221.2829050866728
 30
0.0
 11
635.3609818514648
 21
221.9120957179728
 31
0.0
  0
ARC
  5
351B
330
1A
100
AcDbEntity
  8
SEIHIN
  6
CONTINUOUS
 48
10.0
100
AcDbCircle
 10
637.7462542007649
 20
220.5419620284728
 30
0.0
 40
2.5
100
AcDbArc
 50
90.0
 51
159.9999999999995
  0
LINE
  5
351C
330
1A
100
AcDbEntity
  8
SEIHIN
  6
CONTINUOUS
 48
10.0
100
AcDbLine
 10
635.3970226487649
 20
221.3970123867728
 30
0.0
 11
635.3421474214648
 21
221.2462439386728
 31
0.0
  0
ARC
  5
351D
330
1A
100
AcDbEntity
  8
SEIHIN
  6
CONTINUOUS
 48
10.0
100
AcDbCircle
 10
637.691378973365
 20
220.3911935803728
 30
0.0
 40
2.49999999999998
100
AcDbArc
 50
159.9999999999995
 51
250.0000000000033
  0
LINE
  5
351E
330
1A
100
AcDbEntity
  8
SEIHIN
  6
CONTINUOUS
 48
10.0
100
AcDbLine
 10
636.836328615065
 20
218.0419620284728
 30
0.0
 11
637.7462542007649
 21
220.5419620284728
 31
0.0
  0
LINE
  5
351F
330
1A
100
AcDbEntity
  8
NOKITOI
 48
0.5
100
AcDbLine
 10
638.7928884725124
 20
220.533007839248
 30
0.0
 11
640.8626876270828
 21
220.533007839248
 31
0.0
  0
LINE
  5
3520
330
1A
100
AcDbEntity
  8
NOKITOI
 48
0.5
100
AcDbLine
 10
639.104008092685
 20
218.9330078392481
 30
0.0
 11
640.8626876270837
 21
218.9330078392479
 31
0.0
  0
ARC
  5
3521
330
1A
100
AcDbEntity
  8
NOKITOI
 48
0.5
100
AcDbCircle
 10
640.8626876270837
 20
215.5330078392478
 30
0.0
 40
3.400000000000112
100
AcDbArc
 50
357.3849271045766
 51
90.0
  0
LINE
  5
3522
330
1A
100
AcDbEntity
  8
SEIHIN
  6
CONTINUOUS
 48
10.0
100
AcDbLine
 10
641.775734089165
 20
225.8913864662728
 30
0.0
 11
642.120092797765
 21
225.7085285408728
 31
0.0
  0
LINE
  5
3523
330
1A
100
AcDbEntity
  8
SEIHIN
  6
CONTINUOUS
 48
10.0
100
AcDbLine
 10
641.850915021165
 20
222.9214049120728
 30
0.0
 11
640.5108329627648
 21
223.0419620284728
 31
0.0
  0
LINE
  5
3524
330
1A
100
AcDbEntity
  8
SEIHIN
  6
CONTINUOUS
 48
10.0
100
AcDbLine
 10
640.966111469065
 20
223.0419620284728
 30
0.0
 11
643.025718405765
 21
222.7537539667728
 31
0.0
  0
LINE
  5
3525
330
1A
100
AcDbEntity
  8
SEIHIN
  6
CONTINUOUS
 48
10.0
100
AcDbLine
 10
639.6573297637648
 20
225.9446065520728
 30
0.0
 11
640.687588057365
 21
226.0419620284728
 31
0.0
  0
LINE
  5
3526
330
1A
100
AcDbEntity
  8
SEIHIN
  6
CONTINUOUS
 48
10.0
100
AcDbLine
 10
641.402440898365
 20
226.0039570431728
 30
0.0
 11
641.775734089165
 21
225.8913864662728
 31
0.0
  0
LINE
  5
3527
330
1A
100
AcDbEntity
  8
SEIHIN
  6
CONTINUOUS
 48
10.0
100
AcDbLine
 10
641.0144002275649
 20
226.0419620284728
 30
0.0
 11
641.402440898365
 21
226.0039570431728
 31
0.0
  0
LINE
  5
3528
330
1A
100
AcDbEntity
  8
SEIHIN
  6
CONTINUOUS
 48
10.0
100
AcDbLine
 10
640.5108329627648
 20
223.0419620284728
 30
0.0
 11
640.9085474758651
 21
223.0419620284728
 31
0.0
  0
LINE
  5
3529
330
1A
100
AcDbEntity
  8
SEIHIN
  6
CONTINUOUS
 48
10.0
100
AcDbLine
 10
640.687588057365
 20
226.0419620284728
 30
0.0
 11
641.0144002275649
 21
226.0419620284728
 31
0.0
  0
LINE
  5
352A
330
1A
100
AcDbEntity
  8
SEIHIN
  6
CONTINUOUS
 48
10.0
100
AcDbLine
 10
640.9085474758651
 20
223.0419620284728
 30
0.0
 11
640.966111469065
 21
223.0419620284728
 31
0.0
  0
LINE
  5
352B
330
1A
100
AcDbEntity
  8
SEIHIN
  6
CONTINUOUS
 48
10.0
100
AcDbLine
 10
642.9729342848649
 20
224.4471093429728
 30
0.0
 11
643.0143240736649
 21
224.0594150994728
 31
0.0
  0
LINE
  5
352C
330
1A
100
AcDbEntity
  8
SEIHIN
  6
CONTINUOUS
 48
10.0
100
AcDbLine
 10
642.8571104380651
 20
224.8194059687728
 30
0.0
 11
642.9729342848649
 21
224.4471093429728
 31
0.0
  0
LINE
  5
352D
330
1A
100
AcDbEntity
  8
SEIHIN
  6
CONTINUOUS
 48
10.0
100
AcDbLine
 10
642.6712544167651
 20
225.1621558490727
 30
0.0
 11
642.8571104380651
 21
224.8194059687728
 31
0.0
  0
LINE
  5
352E
330
1A
100
AcDbEntity
  8
SEIHIN
  6
CONTINUOUS
 48
10.0
100
AcDbLine
 10
642.422429676465
 20
225.4623327796728
 30
0.0
 11
642.6712544167651
 21
225.1621558490727
 31
0.0
  0
LINE
  5
352F
330
1A
100
AcDbEntity
  8
SEIHIN
  6
CONTINUOUS
 48
10.0
100
AcDbLine
 10
642.120092797765
 20
225.7085285408728
 30
0.0
 11
642.422429676465
 21
225.4623327796728
 31
0.0
  0
LINE
  5
3530
330
1A
100
AcDbEntity
  8
SEIHIN
  6
CONTINUOUS
 48
10.0
100
AcDbLine
 10
643.1479153652651
 20
222.5636093011728
 30
0.0
 11
641.850915021165
 21
222.9214049120728
 31
0.0
  0
LINE
  5
3531
330
1A
100
AcDbEntity
  8
SEIHIN
  6
CONTINUOUS
 48
10.0
100
AcDbLine
 10
644.3601372959649
 20
221.9800778108728
 30
0.0
 11
643.1479153652651
 21
222.5636093011728
 31
0.0
  0
LINE
  5
3532
330
1A
100
AcDbEntity
  8
SEIHIN
  6
CONTINUOUS
 48
10.0
100
AcDbLine
 10
645.4486096186649
 20
221.1895701410728
 30
0.0
 11
644.3601372959649
 21
221.9800778108728
 31
0.0
  0
LINE
  5
3533
330
1A
100
AcDbEntity
  8
SEIHIN
  6
CONTINUOUS
 48
10.0
100
AcDbLine
 10
643.025718405765
 20
222.7537539667728
 30
0.0
 11
643.0143240736649
 21
224.0594150994728
 31
0.0
  0
LINE
  5
3534
330
1A
100
AcDbEntity
  8
SEIHIN
  6
CONTINUOUS
 48
10.0
100
AcDbLine
 10
646.3783395105649
 20
220.2174999782728
 30
0.0
 11
645.4486096186649
 21
221.1895701410728
 31
0.0
  0
LINE
  5
3535
330
1A
100
AcDbEntity
  8
SEIHIN
  6
CONTINUOUS
 48
10.0
100
AcDbLine
 10
638.6635446653649
 20
225.6559867005728
 30
0.0
 11
639.6573297637648
 21
225.9446065520728
 31
0.0
  0
LINE
  5
3536
330
1A
100
AcDbEntity
  8
SEIHIN
  6
CONTINUOUS
 48
10.0
100
AcDbLine
 10
647.947266962765
 20
216.5474226666728
 30
0.0
 11
647.648078322565
 21
217.8585071242728
 31
0.0
  0
LINE
  5
3537
330
1A
100
AcDbEntity
  8
SEIHIN
  6
CONTINUOUS
 48
10.0
100
AcDbLine
 10
648.0073849257649
 20
215.2040140930728
 30
0.0
 11
647.947266962765
 21
216.5474226666728
 31
0.0
  0
LINE
  5
3538
330
1A
100
AcDbEntity
  8
SEIHIN
  6
CONTINUOUS
 48
10.0
100
AcDbLine
 10
647.648078322565
 20
217.8585071242728
 30
0.0
 11
647.1194374906649
 21
219.0951179826728
 31
0.0
  0
VIEWPORT
  5
22
330
17
100
AcDbEntity
 67
     1
  8
0
100
AcDbViewport
 10
313.6808219178082
 20
148.5
 30
0.0
 40
627.3616438356165
 41
297.0
 68
     2
 69
     1
1001
ACAD
1000
MVIEW
1002
{
1070
    16
1010
0.0
1020
0.0
1030
0.0
1010
0.0
1020
0.0
1030
1.0
1040
0.0
1040
297.0
1040
313.6808219178082
1040
148.5
1040
50.0
1040
0.0
1040
0.0
1070
     0
1070
   100
1070
     1
1070
     0
1070
     0
1070
     0
1070
     0
1070
     0
1040
0.0
1040
0.0
1040
0.0
1040
1.0
1040
1.0
1040
10.0
1040
10.0
1070
     0
1002
{
1002
}
1002
}
  0
VIEWPORT
  5
64
330
17
100
AcDbEntity
 67
     1
  8
VIEWPORT
100
AcDbViewport
 10
210.0
 20
148.5
 30
0.0
 40
420.0
 41
297.0
 68
     1
 69
     2
1001
ACAD
1000
MVIEW
1002
{
1070
    16
1010
0.0
1020
0.0
1030
0.0
1010
0.0
1020
0.0
1030
1.0
1040
0.0
1040
605.8799999999997
1040
420.0
1040
297.0
1040
50.0
1040
0.0
1040
0.0
1070
     0
1070
   100
1070
     1
1070
     0
1070
     0
1070
     0
1070
     0
1070
     0
1040
0.0
1040
0.0
1040
0.0
1040
10.0
1040
10.0
1040
0.0
1040
0.0
1070
     0
1002
{
1002
}
1002
}
  0
ENDSEC
  0
SECTION
  2
OBJECTS
  0
DICTIONARY
  5
C
330
0
100
AcDbDictionary
  3
ACAD_GROUP
350
D
  3
ACAD_LAYOUT
350
8D1
  3
ACAD_MLINESTYLE
350
E
  3
ACAD_PLOTSETTINGS
350
8D2
  3
ACAD_PLOTSTYLENAME
350
8CF
  3
ACDBHEADERROUNDTRIPXREC
350
36AE
  0
DICTIONARY
  5
AD2
330
1A
100
AcDbDictionary
280
     1
  3
ACAD_LAYOUTSELFREF
360
36D0
  0
DICTIONARY
  5
AD0
330
17
100
AcDbDictionary
280
     1
  3
ACAD_LAYOUTSELFREF
360
36CF
  0
DICTIONARY
  5
D
102
{ACAD_REACTORS
330
C
102
}
330
C
100
AcDbDictionary
  3
*A1
350
1AA0
  3
*A2
350
1AB7
  3
*A3
350
1B67
  3
*A4
350
1EA4
  3
*A5
350
1EA5
  0
DICTIONARY
  5
8D1
102
{ACAD_REACTORS
330
C
102
}
330
C
100
AcDbDictionary
  0
DICTIONARY
  5
E
102
{ACAD_REACTORS
330
C
102
}
330
C
100
AcDbDictionary
  3
STANDARD
350
13
  0
DICTIONARY
  5
8D2
102
{ACAD_REACTORS
330
C
102
}
330
C
100
AcDbDictionary
  0
ACDBDICTIONARYWDFLT
  5
8CF
102
{ACAD_REACTORS
330
C
102
}
330
C
100
AcDbDictionary
281
     1
  3
Normal
350
8D0
100
AcDbDictionaryWithDefault
340
8D0
1001
ACAD
1000
TREAT_AS_HARD
1070
     0
1000
TREAT_AS_HARD
1070
     0
1000
TREAT_AS_HARD
1070
     0
1000
TREAT_AS_HARD
1070
     0
1000
TREAT_AS_HARD
1070
     0
1000
TREAT_AS_HARD
1070
     0
1000
TREAT_AS_HARD
1070
     0
1000
TREAT_AS_HARD
1070
     0
1000
TREAT_AS_HARD
1070
     0
1000
TREAT_AS_HARD
1070
     0
1000
TREAT_AS_HARD
1070
     0
1000
TREAT_AS_HARD
1070
     0
1000
TREAT_AS_HARD
1070
     0
1000
TREAT_AS_HARD
1070
     0
1000
TREAT_AS_HARD
1070
     0
  0
DICTIONARY
  5
36AE
102
{ACAD_REACTORS
330
C
102
}
330
C
100
AcDbDictionary
  3
TSTACKALIGN
350
36AF
  3
TSTACKSIZE
350
36B0
  3
HYPERLINKBASE
350
36B1
  3
STYLESHEET
350
36B2
  3
LAYOUTDICT
350
36B3
  3
PLOTSETDICT
350
36B4
  3
PLOTSTYLNAMDICT
350
36B5
  3
LWETCUNION
350
36B6
  3
INSUNITS
350
36B7
  3
CEPSNTYPE
350
36B8
  3
FINGERPRINTGUID
350
36B9
  3
VERSIONGUID
350
36BA
  3
PSVPSCALE
350
36BB
  3
DIMSTYLEDATA
350
36BC
  3
PUCSORTHOREF
350
36BD
  3
PUCSORTHOVIEW
350
36BE
  3
PUCSBASE
350
36BF
  3
PUCSORGTOP
350
36C0
  3
PUCSORGBOTTOM
350
36C1
  3
PUCSORGLEFT
350
36C2
  3
PUCSORGRIGHT
350
36C3
  3
PUCSORGFRONT
350
36C4
  3
PUCSORGBACK
350
36C5
  3
UCSORTHOREF
350
36C6
  3
UCSORTHOVIEW
350
36C7
  3
UCSBASE
350
36C8
  3
UCSORGTOP
350
36C9
  3
UCSORGBOTTOM
350
36CA
  3
UCSORGLEFT
350
36CB
  3
UCSORGRIGHT
350
36CC
  3
UCSORGFRONT
350
36CD
  3
UCSORGBACK
350
36CE
  0
XRECORD
  5
36D0
102
{ACAD_REACTORS
330
AD2
102
}
330
AD2
100
AcDbXrecord
340
1A
  0
XRECORD
  5
36CF
102
{ACAD_REACTORS
330
AD0
102
}
330
AD0
100
AcDbXrecord
340
17
  0
GROUP
  5
1AA0
102
{ACAD_REACTORS
330
D
102
}
330
D
100
AcDbGroup
300

 70
     1
 71
     1
  0
GROUP
  5
1AB7
102
{ACAD_REACTORS
330
D
102
}
330
D
100
AcDbGroup
300

 70
     1
 71
     1
  0
GROUP
  5
1B67
102
{ACAD_REACTORS
330
D
102
}
330
D
100
AcDbGroup
300

 70
     1
 71
     1
  0
GROUP
  5
1EA4
102
{ACAD_REACTORS
330
D
102
}
330
D
100
AcDbGroup
300

 70
     1
 71
     1
  0
GROUP
  5
1EA5
102
{ACAD_REACTORS
330
D
102
}
330
D
100
AcDbGroup
300

 70
     1
 71
     1
  0
MLINESTYLE
  5
13
102
{ACAD_REACTORS
330
E
102
}
330
E
100
AcDbMlineStyle
  2
STANDARD
 70
     0
  3

 62
     0
 51
90.0
 52
90.0
 71
     2
 49
0.5
 62
   256
  6
BYLAYER
 49
-0.5
 62
   256
  6
BYLAYER
  0
ACDBPLACEHOLDER
  5
8D0
102
{ACAD_REACTORS
330
8CF
102
}
330
8CF
100
AcDbPlaceHolder
280
     0
  0
XRECORD
  5
36AF
102
{ACAD_REACTORS
330
36AE
102
}
330
36AE
100
AcDbXrecord
 90
        1
  0
XRECORD
  5
36B0
102
{ACAD_REACTORS
330
36AE
102
}
330
36AE
100
AcDbXrecord
 90
       70
  0
XRECORD
  5
36B1
102
{ACAD_REACTORS
330
36AE
102
}
330
36AE
100
AcDbXrecord
  1

  0
XRECORD
  5
36B2
102
{ACAD_REACTORS
330
36AE
102
}
330
36AE
100
AcDbXrecord
  1
systemprinter.ctb
  0
XRECORD
  5
36B3
102
{ACAD_REACTORS
330
36AE
102
}
330
36AE
100
AcDbXrecord
340
8D1
  0
XRECORD
  5
36B4
102
{ACAD_REACTORS
330
36AE
102
}
330
36AE
100
AcDbXrecord
340
8D2
  0
XRECORD
  5
36B5
102
{ACAD_REACTORS
330
36AE
102
}
330
36AE
100
AcDbXrecord
340
8CF
  0
XRECORD
  5
36B6
102
{ACAD_REACTORS
330
36AE
102
}
330
36AE
100
AcDbXrecord
 90
    10781
  0
XRECORD
  5
36B7
102
{ACAD_REACTORS
330
36AE
102
}
330
36AE
100
AcDbXrecord
 90
        0
  0
XRECORD
  5
36B8
102
{ACAD_REACTORS
330
36AE
102
}
330
36AE
100
AcDbXrecord
 90
        0
  0
XRECORD
  5
36B9
102
{ACAD_REACTORS
330
36AE
102
}
330
36AE
100
AcDbXrecord
  1
{E7660B84-245B-4EEF-A5D2-EED1934F6951}
  0
XRECORD
  5
36BA
102
{ACAD_REACTORS
330
36AE
102
}
330
36AE
100
AcDbXrecord
  1
{55DB9F6D-90A6-4644-8ADB-F63BD8656622}
  0
XRECORD
  5
36BB
102
{ACAD_REACTORS
330
36AE
102
}
330
36AE
100
AcDbXrecord
 40
0.0
  0
XRECORD
  5
36BC
102
{ACAD_REACTORS
330
36AE
102
}
330
36AE
100
AcDbXrecord
1000
DSTYLE
1002
{
1070
   279
 70
     2
1070
   341
340
6D
1070
   343
340
6D
1070
   344
340
6D
1070
   371
 70
    -1
1070
   372
 70
    -1
1002
}
  0
XRECORD
  5
36BD
102
{ACAD_REACTORS
330
36AE
102
}
330
36AE
100
AcDbXrecord
340
0
  0
XRECORD
  5
36BE
102
{ACAD_REACTORS
330
36AE
102
}
330
36AE
100
AcDbXrecord
 70
     0
  0
XRECORD
  5
36BF
102
{ACAD_REACTORS
330
36AE
102
}
330
36AE
100
AcDbXrecord
340
0
  0
XRECORD
  5
36C0
102
{ACAD_REACTORS
330
36AE
102
}
330
36AE
100
AcDbXrecord
 10
0.0
 20
0.0
 30
0.0
  0
XRECORD
  5
36C1
102
{ACAD_REACTORS
330
36AE
102
}
330
36AE
100
AcDbXrecord
 10
0.0
 20
0.0
 30
0.0
  0
XRECORD
  5
36C2
102
{ACAD_REACTORS
330
36AE
102
}
330
36AE
100
AcDbXrecord
 10
0.0
 20
0.0
 30
0.0
  0
XRECORD
  5
36C3
102
{ACAD_REACTORS
330
36AE
102
}
330
36AE
100
AcDbXrecord
 10
0.0
 20
0.0
 30
0.0
  0
XRECORD
  5
36C4
102
{ACAD_REACTORS
330
36AE
102
}
330
36AE
100
AcDbXrecord
 10
0.0
 20
0.0
 30
0.0
  0
XRECORD
  5
36C5
102
{ACAD_REACTORS
330
36AE
102
}
330
36AE
100
AcDbXrecord
 10
0.0
 20
0.0
 30
0.0
  0
XRECORD
  5
36C6
102
{ACAD_REACTORS
330
36AE
102
}
330
36AE
100
AcDbXrecord
340
0
  0
XRECORD
  5
36C7
102
{ACAD_REACTORS
330
36AE
102
}
330
36AE
100
AcDbXrecord
 70
     0
  0
XRECORD
  5
36C8
102
{ACAD_REACTORS
330
36AE
102
}
330
36AE
100
AcDbXrecord
340
0
  0
XRECORD
  5
36C9
102
{ACAD_REACTORS
330
36AE
102
}
330
36AE
100
AcDbXrecord
 10
0.0
 20
0.0
 30
0.0
  0
XRECORD
  5
36CA
102
{ACAD_REACTORS
330
36AE
102
}
330
36AE
100
AcDbXrecord
 10
0.0
 20
0.0
 30
0.0
  0
XRECORD
  5
36CB
102
{ACAD_REACTORS
330
36AE
102
}
330
36AE
100
AcDbXrecord
 10
0.0
 20
0.0
 30
0.0
  0
XRECORD
  5
36CC
102
{ACAD_REACTORS
330
36AE
102
}
330
36AE
100
AcDbXrecord
 10
0.0
 20
0.0
 30
0.0
  0
XRECORD
  5
36CD
102
{ACAD_REACTORS
330
36AE
102
}
330
36AE
100
AcDbXrecord
 10
0.0
 20
0.0
 30
0.0
  0
XRECORD
  5
36CE
102
{ACAD_REACTORS
330
36AE
102
}
330
36AE
100
AcDbXrecord
 10
0.0
 20
0.0
 30
0.0
  0
ENDSEC
  0
EOF
