  0
SECTION
  2
HEADER
  9
$ACADVER
  1
AC1014
  9
$ACADMAINTVER
 70
     9
  9
$DWGCODEPAGE
  3
ANSI_932
  9
$INSBASE
 10
0.0
 20
0.0
 30
0.0
  9
$EXTMIN
 10
-0.064077134533818
 20
-0.045311687991898
 30
-0.000000000000013
  9
$EXTMAX
 10
797.6622489505002
 20
551.6432960943491
 30
0.0000000000000023
  9
$LIMMIN
 10
0.0
 20
0.0
  9
$LIMMAX
 10
840.0
 20
594.0
  9
$ORTHOMODE
 70
     1
  9
$REGENMODE
 70
     1
  9
$FILLMODE
 70
     1
  9
$QTEXTMODE
 70
     0
  9
$MIRRTEXT
 70
     1
  9
$DRAGMODE
 70
     2
  9
$LTSCALE
 40
2.0
  9
$OSMODE
 70
    35
  9
$ATTMODE
 70
     1
  9
$TEXTSIZE
 40
5.0
  9
$TRACEWID
 40
1.0
  9
$TEXTSTYLE
  7
STANDARD
  9
$CLAYER
  8
SUNPOU
  9
$CELTYPE
  6
BYLAYER
  9
$CECOLOR
 62
   256
  9
$CELTSCALE
 40
1.0
  9
$DELOBJ
 70
     1
  9
$DISPSILH
 70
     0
  9
$DIMSCALE
 40
1.0
  9
$DIMASZ
 40
7.0
  9
$DIMEXO
 40
6.0
  9
$DIMDLI
 40
14.0
  9
$DIMRND
 40
0.0
  9
$DIMDLE
 40
0.0
  9
$DIMEXE
 40
3.0
  9
$DIMTP
 40
0.0
  9
$DIMTM
 40
0.0
  9
$DIMTXT
 40
6.0
  9
$DIMCEN
 40
150.0
  9
$DIMTSZ
 40
0.0
  9
$DIMTOL
 70
     0
  9
$DIMLIM
 70
     0
  9
$DIMTIH
 70
     0
  9
$DIMTOH
 70
     0
  9
$DIMSE1
 70
     0
  9
$DIMSE2
 70
     0
  9
$DIMTAD
 70
     3
  9
$DIMZIN
 70
     0
  9
$DIMBLK
  1

  9
$DIMASO
 70
     1
  9
$DIMSHO
 70
     1
  9
$DIMPOST
  1

  9
$DIMAPOST
  1

  9
$DIMALT
 70
     0
  9
$DIMALTD
 70
     2
  9
$DIMALTF
 40
25.4
  9
$DIMLFAC
 40
1.0
  9
$DIMTOFL
 70
     1
  9
$DIMTVP
 40
0.0
  9
$DIMTIX
 70
     0
  9
$DIMSOXD
 70
     0
  9
$DIMSAH
 70
     1
  9
$DIMBLK1
  1
OPEN
  9
$DIMBLK2
  1
OPEN
  9
$DIMSTYLE
  2
STANDARD
  9
$DIMCLRD
 70
   256
  9
$DIMCLRE
 70
   256
  9
$DIMCLRT
 70
   256
  9
$DIMTFAC
 40
1.0
  9
$DIMGAP
 40
2.0
  9
$DIMJUST
 70
     0
  9
$DIMSD1
 70
     0
  9
$DIMSD2
 70
     0
  9
$DIMTOLJ
 70
     1
  9
$DIMTZIN
 70
     0
  9
$DIMALTZ
 70
     0
  9
$DIMALTTZ
 70
     0
  9
$DIMFIT
 70
     3
  9
$DIMUPT
 70
     0
  9
$DIMUNIT
 70
     2
  9
$DIMDEC
 70
     0
  9
$DIMTDEC
 70
     0
  9
$DIMALTU
 70
     2
  9
$DIMALTTD
 70
     2
  9
$DIMTXSTY
  7
STANDARD
  9
$DIMAUNIT
 70
     0
  9
$LUNITS
 70
     2
  9
$LUPREC
 70
     4
  9
$SKETCHINC
 40
1.0
  9
$FILLETRAD
 40
20.0
  9
$AUNITS
 70
     0
  9
$AUPREC
 70
     0
  9
$MENU
  1
.
  9
$ELEVATION
 40
0.0
  9
$PELEVATION
 40
0.0
  9
$THICKNESS
 40
0.0
  9
$LIMCHECK
 70
     0
  9
$BLIPMODE
 70
     0
  9
$CHAMFERA
 40
0.0
  9
$CHAMFERB
 40
0.0
  9
$CHAMFERC
 40
40.0
  9
$CHAMFERD
 40
0.0
  9
$SKPOLY
 70
     0
  9
$TDCREATE
 40
2451159.834708796
  9
$TDUPDATE
 40
2454216.499873218
  9
$TDINDWG
 40
0.2961851852
  9
$TDUSRTIMER
 40
0.2961851852
  9
$USRTIMER
 70
     1
  9
$ANGBASE
 50
0.0
  9
$ANGDIR
 70
     0
  9
$PDMODE
 70
     0
  9
$PDSIZE
 40
0.0
  9
$PLINEWID
 40
0.0
  9
$COORDS
 70
     0
  9
$SPLFRAME
 70
     0
  9
$SPLINETYPE
 70
     6
  9
$SPLINESEGS
 70
     8
  9
$ATTDIA
 70
     0
  9
$ATTREQ
 70
     1
  9
$HANDLING
 70
 10241
  9
$HANDSEED
  5
9AA9
  9
$SURFTAB1
 70
     6
  9
$SURFTAB2
 70
     6
  9
$SURFTYPE
 70
     6
  9
$SURFU
 70
     6
  9
$SURFV
 70
     6
  9
$UCSNAME
  2

  9
$UCSORG
 10
0.0
 20
0.0
 30
0.0
  9
$UCSXDIR
 10
1.0
 20
0.0
 30
0.0
  9
$UCSYDIR
 10
0.0
 20
1.0
 30
0.0
  9
$PUCSNAME
  2

  9
$PUCSORG
 10
0.0
 20
0.0
 30
0.0
  9
$PUCSXDIR
 10
1.0
 20
0.0
 30
0.0
  9
$PUCSYDIR
 10
0.0
 20
1.0
 30
0.0
  9
$USERI1
 70
     0
  9
$USERI2
 70
     0
  9
$USERI3
 70
     0
  9
$USERI4
 70
     0
  9
$USERI5
 70
     0
  9
$USERR1
 40
0.0
  9
$USERR2
 40
0.0
  9
$USERR3
 40
0.0
  9
$USERR4
 40
0.0
  9
$USERR5
 40
0.0
  9
$WORLDVIEW
 70
     1
  9
$SHADEDGE
 70
     3
  9
$SHADEDIF
 70
    70
  9
$TILEMODE
 70
     1
  9
$MAXACTVP
 70
    16
  9
$PINSBASE
 10
0.0
 20
0.0
 30
0.0
  9
$PLIMCHECK
 70
     0
  9
$PEXTMIN
 10
0.0
 20
0.0
 30
0.0
  9
$PEXTMAX
 10
420.0
 20
297.0
 30
0.0
  9
$PLIMMIN
 10
0.0
 20
0.0
  9
$PLIMMAX
 10
420.0
 20
297.0
  9
$UNITMODE
 70
     0
  9
$VISRETAIN
 70
     0
  9
$PLINEGEN
 70
     0
  9
$PSLTSCALE
 70
     1
  9
$TREEDEPTH
 70
  3020
  9
$PICKSTYLE
 70
     1
  9
$CMLSTYLE
  2
STANDARD
  9
$CMLJUST
 70
     0
  9
$CMLSCALE
 40
1.0
  9
$PROXYGRAPHICS
 70
     1
  9
$MEASUREMENT
 70
     1
  0
ENDSEC
  0
SECTION
  2
CLASSES
  0
CLASS
  1
ACDBDICTIONARYWDFLT
  2
AcDbDictionaryWithDefault
  3
AutoCAD 2000
 90
        0
280
     0
281
     0
  0
CLASS
  1
ACDBPLACEHOLDER
  2
AcDbPlaceHolder
  3
AutoCAD 2000
 90
        0
280
     0
281
     0
  0
CLASS
  1
LAYOUT
  2
AcDbLayout
  3
AutoCAD 2000
 90
        0
280
     0
281
     0
  0
CLASS
  1
LONG_TRANSACTION
  2
AcDbLongTransaction
  3
AutoCAD 2000
 90
        0
280
     0
281
     0
  0
CLASS
  1
LWPOLYLINE
  2
AcDbPolyline
  3
AutoCAD 2000
 90
        0
280
     0
281
     1
  0
CLASS
  1
HATCH
  2
AcDbHatch
  3
AutoCAD 2000
 90
        0
280
     0
281
     1
  0
CLASS
  1
XRECORD
  2
AcDbXrecord
  3
AutoCAD 2000
 90
        0
280
     0
281
     0
  0
CLASS
  1
LONG_TRANSACTION
  2
AcDbLongTransaction
  3
AutoCAD 2000
 90
        0
280
     0
281
     0
  0
CLASS
  1
LWPOLYLINE
  2
AcDbPolyline
  3
AutoCAD 2000
 90
        0
280
     0
281
     1
  0
CLASS
  1
HATCH
  2
AcDbHatch
  3
AutoCAD 2000
 90
        0
280
     0
281
     1
  0
CLASS
  1
XRECORD
  2
AcDbXrecord
  3
AutoCAD 2000
 90
        0
280
     0
281
     0
  0
CLASS
  1
DICTIONARYVAR
  2
AcDbDictionaryVar
  3
AutoCAD 2000
 90
        0
280
     0
281
     0
  0
CLASS
  1
LONG_TRANSACTION
  2
AcDbLongTransaction
  3
AutoCAD 2000
 90
        0
280
     0
281
     0
  0
CLASS
  1
LWPOLYLINE
  2
AcDbPolyline
  3
AutoCAD 2000
 90
        0
280
     0
281
     1
  0
CLASS
  1
HATCH
  2
AcDbHatch
  3
AutoCAD 2000
 90
        0
280
     0
281
     1
  0
CLASS
  1
XRECORD
  2
AcDbXrecord
  3
AutoCAD 2000
 90
        0
280
     0
281
     0
  0
CLASS
  1
LONG_TRANSACTION
  2
AcDbLongTransaction
  3
AutoCAD 2000
 90
        0
280
     0
281
     0
  0
CLASS
  1
LWPOLYLINE
  2
AcDbPolyline
  3
AutoCAD 2000
 90
        0
280
     0
281
     1
  0
CLASS
  1
HATCH
  2
AcDbHatch
  3
AutoCAD 2000
 90
        0
280
     0
281
     1
  0
CLASS
  1
XRECORD
  2
AcDbXrecord
  3
AutoCAD 2000
 90
        0
280
     0
281
     0
  0
CLASS
  1
LONG_TRANSACTION
  2
AcDbLongTransaction
  3
AutoCAD 2000
 90
        0
280
     0
281
     0
  0
CLASS
  1
LWPOLYLINE
  2
AcDbPolyline
  3
AutoCAD 2000
 90
        0
280
     0
281
     1
  0
CLASS
  1
HATCH
  2
AcDbHatch
  3
AutoCAD 2000
 90
        0
280
     0
281
     1
  0
CLASS
  1
XRECORD
  2
AcDbXrecord
  3
AutoCAD 2000
 90
        0
280
     0
281
     0
  0
CLASS
  1
LONG_TRANSACTION
  2
AcDbLongTransaction
  3
AutoCAD 2000
 90
        0
280
     0
281
     0
  0
CLASS
  1
LWPOLYLINE
  2
AcDbPolyline
  3
AutoCAD 2000
 90
        0
280
     0
281
     1
  0
CLASS
  1
HATCH
  2
AcDbHatch
  3
AutoCAD 2000
 90
        0
280
     0
281
     1
  0
CLASS
  1
XRECORD
  2
AcDbXrecord
  3
AutoCAD 2000
 90
        0
280
     0
281
     0
  0
CLASS
  1
LONG_TRANSACTION
  2
AcDbLongTransaction
  3
AutoCAD 2000
 90
        0
280
     0
281
     0
  0
CLASS
  1
LWPOLYLINE
  2
AcDbPolyline
  3
AutoCAD 2000
 90
        0
280
     0
281
     1
  0
CLASS
  1
HATCH
  2
AcDbHatch
  3
AutoCAD 2000
 90
        0
280
     0
281
     1
  0
CLASS
  1
XRECORD
  2
AcDbXrecord
  3
AutoCAD 2000
 90
        0
280
     0
281
     0
  0
CLASS
  1
LONG_TRANSACTION
  2
AcDbLongTransaction
  3
AutoCAD 2000
 90
        0
280
     0
281
     0
  0
CLASS
  1
LWPOLYLINE
  2
AcDbPolyline
  3
AutoCAD 2000
 90
        0
280
     0
281
     1
  0
CLASS
  1
HATCH
  2
AcDbHatch
  3
AutoCAD 2000
 90
        0
280
     0
281
     1
  0
CLASS
  1
XRECORD
  2
AcDbXrecord
  3
AutoCAD 2000
 90
        0
280
     0
281
     0
  0
CLASS
  1
LONG_TRANSACTION
  2
AcDbLongTransaction
  3
AutoCAD 2000
 90
        0
280
     0
281
     0
  0
CLASS
  1
LWPOLYLINE
  2
AcDbPolyline
  3
AutoCAD 2000
 90
        0
280
     0
281
     1
  0
CLASS
  1
HATCH
  2
AcDbHatch
  3
AutoCAD 2000
 90
        0
280
     0
281
     1
  0
CLASS
  1
XRECORD
  2
AcDbXrecord
  3
AutoCAD 2000
 90
        0
280
     0
281
     0
  0
CLASS
  1
LONG_TRANSACTION
  2
AcDbLongTransaction
  3
AutoCAD 2000
 90
        0
280
     0
281
     0
  0
CLASS
  1
LWPOLYLINE
  2
AcDbPolyline
  3
AutoCAD 2000
 90
        0
280
     0
281
     1
  0
CLASS
  1
HATCH
  2
AcDbHatch
  3
AutoCAD 2000
 90
        0
280
     0
281
     1
  0
CLASS
  1
XRECORD
  2
AcDbXrecord
  3
AutoCAD 2000
 90
        0
280
     0
281
     0
  0
CLASS
  1
LONG_TRANSACTION
  2
AcDbLongTransaction
  3
AutoCAD 2000
 90
        0
280
     0
281
     0
  0
CLASS
  1
LWPOLYLINE
  2
AcDbPolyline
  3
AutoCAD 2000
 90
        0
280
     0
281
     1
  0
CLASS
  1
HATCH
  2
AcDbHatch
  3
AutoCAD 2000
 90
        0
280
     0
281
     1
  0
CLASS
  1
XRECORD
  2
AcDbXrecord
  3
AutoCAD 2000
 90
        0
280
     0
281
     0
  0
CLASS
  1
LONG_TRANSACTION
  2
AcDbLongTransaction
  3
AutoCAD 2000
 90
        0
280
     0
281
     0
  0
CLASS
  1
LWPOLYLINE
  2
AcDbPolyline
  3
AutoCAD 2000
 90
        0
280
     0
281
     1
  0
CLASS
  1
HATCH
  2
AcDbHatch
  3
AutoCAD 2000
 90
        0
280
     0
281
     1
  0
CLASS
  1
XRECORD
  2
AcDbXrecord
  3
AutoCAD 2000
 90
        0
280
     0
281
     0
  0
CLASS
  1
LONG_TRANSACTION
  2
AcDbLongTransaction
  3
AutoCAD 2000
 90
        0
280
     0
281
     0
  0
CLASS
  1
LWPOLYLINE
  2
AcDbPolyline
  3
AutoCAD 2000
 90
        0
280
     0
281
     1
  0
CLASS
  1
HATCH
  2
AcDbHatch
  3
AutoCAD 2000
 90
        0
280
     0
281
     1
  0
CLASS
  1
XRECORD
  2
AcDbXrecord
  3
AutoCAD 2000
 90
        0
280
     0
281
     0
  0
CLASS
  1
LONG_TRANSACTION
  2
AcDbLongTransaction
  3
AutoCAD 2000
 90
        0
280
     0
281
     0
  0
CLASS
  1
LWPOLYLINE
  2
AcDbPolyline
  3
AutoCAD 2000
 90
        0
280
     0
281
     1
  0
CLASS
  1
HATCH
  2
AcDbHatch
  3
AutoCAD 2000
 90
        0
280
     0
281
     1
  0
CLASS
  1
XRECORD
  2
AcDbXrecord
  3
AutoCAD 2000
 90
        0
280
     0
281
     0
  0
CLASS
  1
LONG_TRANSACTION
  2
AcDbLongTransaction
  3
AutoCAD 2000
 90
        0
280
     0
281
     0
  0
CLASS
  1
LWPOLYLINE
  2
AcDbPolyline
  3
AutoCAD 2000
 90
        0
280
     0
281
     1
  0
CLASS
  1
HATCH
  2
AcDbHatch
  3
AutoCAD 2000
 90
        0
280
     0
281
     1
  0
CLASS
  1
XRECORD
  2
AcDbXrecord
  3
AutoCAD 2000
 90
        0
280
     0
281
     0
  0
ENDSEC
  0
SECTION
  2
TABLES
  0
TABLE
  2
VPORT
  5
8
330
0
100
AcDbSymbolTable
 70
     2
  0
VPORT
  5
9A46
330
8
100
AcDbSymbolTableRecord
100
AcDbViewportTableRecord
  2
*ACTIVE
 70
     0
 10
0.0
 20
0.0
 11
1.0
 21
1.0
 12
420.2592723634856
 22
328.984127503131
 13
0.0
 23
0.0
 14
5.0
 24
5.0
 15
0.0
 25
0.0
 16
0.0
 26
0.0
 36
1.0
 17
0.0
 27
0.0
 37
0.0
 40
778.72483002332
 41
1.566326530612244
 42
50.0
 43
0.0
 44
0.0
 50
0.0
 51
0.0
 71
     0
 72
   100
 73
     1
 74
     0
 75
     0
 76
     0
 77
     0
 78
     0
  0
ENDTAB
  0
TABLE
  2
LTYPE
  5
5
330
0
100
AcDbSymbolTable
 70
     3
  0
LTYPE
  5
14
330
5
100
AcDbSymbolTableRecord
100
AcDbLinetypeTableRecord
  2
BYBLOCK
 70
     0
  3

 72
    65
 73
     0
 40
0.0
  0
LTYPE
  5
15
330
5
100
AcDbSymbolTableRecord
100
AcDbLinetypeTableRecord
  2
BYLAYER
 70
     0
  3

 72
    65
 73
     0
 40
0.0
  0
LTYPE
  5
16
330
5
100
AcDbSymbolTableRecord
100
AcDbLinetypeTableRecord
  2
CONTINUOUS
 70
     0
  3
Solid line
 72
    65
 73
     0
 40
0.0
  0
LTYPE
  5
135
330
5
100
AcDbSymbolTableRecord
100
AcDbLinetypeTableRecord
  2
CENTER
 70
     0
  3
____ _ ____ _ ____ _ ____ _ ____ _ ____ _ ____ 
 72
    65
 73
     4
 40
2.0
 49
1.25
 74
     0
 49
-0.25
 74
     0
 49
0.25
 74
     0
 49
-0.25
 74
     0
  0
LTYPE
  5
6BB5
330
5
100
AcDbSymbolTableRecord
100
AcDbLinetypeTableRecord
  2
PHANTOM
 70
     0
  3
______  __  __  ______  __  __  ______  __  __ 
 72
    65
 73
     6
 40
2.5
 49
1.25
 74
     0
 49
-0.25
 74
     0
 49
0.25
 74
     0
 49
-0.25
 74
     0
 49
0.25
 74
     0
 49
-0.25
 74
     0
  0
ENDTAB
  0
TABLE
  2
LAYER
  5
2
330
0
100
AcDbSymbolTable
 70
     9
  0
LAYER
  5
F
330
2
100
AcDbSymbolTableRecord
100
AcDbLayerTableRecord
  2
0
 70
     0
 62
     7
  6
CONTINUOUS
  0
LAYER
  5
62
330
2
100
AcDbSymbolTableRecord
100
AcDbLayerTableRecord
  2
VIEWPORT
 70
     0
 62
     7
  6
CONTINUOUS
  0
LAYER
  5
65
330
2
100
AcDbSymbolTableRecord
100
AcDbLayerTableRecord
  2
ZUWAKU
 70
     0
 62
     7
  6
CONTINUOUS
  0
LAYER
  5
144
330
2
100
AcDbSymbolTableRecord
100
AcDbLayerTableRecord
  2
SEIHIN
 70
     0
 62
     3
  6
CONTINUOUS
  0
LAYER
  5
2B4
330
2
100
AcDbSymbolTableRecord
100
AcDbLayerTableRecord
  2
SUNPOU
 70
     0
 62
     4
  6
CONTINUOUS
  0
LAYER
  5
43A
330
2
100
AcDbSymbolTableRecord
100
AcDbLayerTableRecord
  2
DEFPOINTS
 70
     0
 62
     7
  6
CONTINUOUS
  0
LAYER
  5
6BB6
330
2
100
AcDbSymbolTableRecord
100
AcDbLayerTableRecord
  2
NOKITOI
 70
     0
 62
     9
  6
PHANTOM
  0
LAYER
  5
9077
330
2
100
AcDbSymbolTableRecord
100
AcDbLayerTableRecord
  2
MOJI
 70
     0
 62
     2
  6
CONTINUOUS
  0
LAYER
  5
92A9
330
2
100
AcDbSymbolTableRecord
100
AcDbLayerTableRecord
  2
CENTER_L
 70
     0
 62
     1
  6
CENTER
  0
ENDTAB
  0
TABLE
  2
STYLE
  5
3
330
0
100
AcDbSymbolTable
 70
     2
  0
STYLE
  5
10
330
3
100
AcDbSymbolTableRecord
100
AcDbTextStyleTableRecord
  2
STANDARD
 70
     0
 40
0.0
 41
1.0
 50
0.0
 71
     0
 42
5.0
  3
TXT
  4
A:\Program Files\AutoCAD LT\ms\bigfont.shx
  0
STYLE
  5
9078
330
3
100
AcDbSymbolTableRecord
100
AcDbTextStyleTableRecord
  2
ｽﾀｲﾙ1
 70
     0
 40
0.0
 41
1.0
 50
0.0
 71
     0
 42
2.5
  3
MS PGothic.ttf
  4

1001
ACAD
1000
MS PGothic
1071
    32818
  0
ENDTAB
  0
TABLE
  2
VIEW
  5
6
330
0
100
AcDbSymbolTable
 70
     0
  0
ENDTAB
  0
TABLE
  2
UCS
  5
7
330
0
100
AcDbSymbolTable
 70
     0
  0
ENDTAB
  0
TABLE
  2
APPID
  5
9
330
0
100
AcDbSymbolTable
 70
     1
  0
APPID
  5
11
330
9
100
AcDbSymbolTableRecord
100
AcDbRegAppTableRecord
  2
ACAD
 70
     0
  0
ENDTAB
  0
TABLE
  2
DIMSTYLE
  5
A
330
0
100
AcDbSymbolTable
 70
     1
  0
DIMSTYLE
105
1D
102
{ACAD_REACTORS
330
95F7
330
95F8
330
9633
330
963D
330
9650
330
971A
330
981F
102
}
330
A
100
AcDbSymbolTableRecord
100
AcDbDimStyleTableRecord
  2
STANDARD
 70
     0
  3

  4

  5

  6

  7

 40
1.0
 41
0.18
 42
0.0625
 43
0.38
 44
0.18
 45
0.0
 46
0.0
 47
0.0
 48
0.0
140
0.18
141
0.09
142
0.0
143
25.4
144
1.0
145
0.0
146
1.0
147
0.09
 71
     0
 72
     0
 73
     1
 74
     1
 75
     0
 76
     0
 77
     0
 78
     0
170
     0
171
     2
172
     0
173
     0
174
     0
175
     0
176
     0
177
     0
178
     0
270
     2
271
     4
272
     4
273
     2
274
     2
340
10
275
     0
280
     0
281
     0
282
     0
283
     1
284
     0
285
     0
286
     0
287
     3
288
     0
  0
ENDTAB
  0
TABLE
  2
BLOCK_RECORD
  5
1
330
0
100
AcDbSymbolTable
 70
     8
  0
BLOCK_RECORD
  5
1A
102
{ACAD_XDICTIONARY
360
6C6
102
}
330
1
100
AcDbSymbolTableRecord
100
AcDbBlockTableRecord
  2
*MODEL_SPACE
  0
BLOCK_RECORD
  5
17
102
{ACAD_XDICTIONARY
360
6C4
102
}
330
1
100
AcDbSymbolTableRecord
100
AcDbBlockTableRecord
  2
*PAPER_SPACE
  0
BLOCK_RECORD
  5
6D
330
1
100
AcDbSymbolTableRecord
100
AcDbBlockTableRecord
  2
_OPEN
  0
BLOCK_RECORD
  5
9940
330
1
100
AcDbSymbolTableRecord
100
AcDbBlockTableRecord
  2
*D1
  0
BLOCK_RECORD
  5
994C
330
1
100
AcDbSymbolTableRecord
100
AcDbBlockTableRecord
  2
*D2
  0
BLOCK_RECORD
  5
9958
330
1
100
AcDbSymbolTableRecord
100
AcDbBlockTableRecord
  2
*D3
  0
BLOCK_RECORD
  5
9964
330
1
100
AcDbSymbolTableRecord
100
AcDbBlockTableRecord
  2
*D4
  0
BLOCK_RECORD
  5
9970
330
1
100
AcDbSymbolTableRecord
100
AcDbBlockTableRecord
  2
*D5
  0
BLOCK_RECORD
  5
997C
330
1
100
AcDbSymbolTableRecord
100
AcDbBlockTableRecord
  2
*D6
  0
BLOCK_RECORD
  5
9988
330
1
100
AcDbSymbolTableRecord
100
AcDbBlockTableRecord
  2
*D7
  0
ENDTAB
  0
ENDSEC
  0
SECTION
  2
BLOCKS
  0
BLOCK
  5
1B
330
1A
100
AcDbEntity
  8
0
100
AcDbBlockBegin
  2
*MODEL_SPACE
 70
     0
 10
0.0
 20
0.0
 30
0.0
  3
*MODEL_SPACE
  1

  0
ENDBLK
  5
1C
330
1A
100
AcDbEntity
  8
0
100
AcDbBlockEnd
  0
BLOCK
  5
18
330
17
100
AcDbEntity
 67
     1
  8
0
100
AcDbBlockBegin
  2
*PAPER_SPACE
 70
     0
 10
0.0
 20
0.0
 30
0.0
  3
*PAPER_SPACE
  1

  0
ENDBLK
  5
19
330
17
100
AcDbEntity
 67
     1
  8
0
100
AcDbBlockEnd
  0
BLOCK
  5
6E
330
6D
100
AcDbEntity
  8
0
100
AcDbBlockBegin
  2
_OPEN
 70
     0
 10
0.0
 20
0.0
 30
0.0
  3
_OPEN
  1

  0
LINE
  5
6F
330
6D
100
AcDbEntity
  8
0
  6
BYBLOCK
 62
     0
100
AcDbLine
 10
-1.0
 20
0.1666666666666666
 30
0.0
 11
0.0
 21
0.0
 31
0.0
  0
LINE
  5
70
330
6D
100
AcDbEntity
  8
0
  6
BYBLOCK
 62
     0
100
AcDbLine
 10
0.0
 20
0.0
 30
0.0
 11
-1.0
 21
-0.1666666666666666
 31
0.0
  0
LINE
  5
71
330
6D
100
AcDbEntity
  8
0
  6
BYBLOCK
 62
     0
100
AcDbLine
 10
0.0
 20
0.0
 30
0.0
 11
-1.0
 21
0.0
 31
0.0
  0
ENDBLK
  5
72
330
6D
100
AcDbEntity
  8
0
100
AcDbBlockEnd
  0
BLOCK
  5
994A
330
9940
100
AcDbEntity
  8
0
100
AcDbBlockBegin
  2
*D1
 70
     1
 10
0.0
 20
0.0
 30
0.0
  3
*D1
  1

  0
LINE
  5
9A6A
330
9940
100
AcDbEntity
  8
SUNPOU
100
AcDbLine
 10
519.0277554369508
 20
47.67959333813007
 30
0.0
 11
381.6296201159156
 21
47.67959333813011
 31
0.0
  0
LINE
  5
9A6B
330
9940
100
AcDbEntity
  8
SUNPOU
100
AcDbLine
 10
416.472437161751
 20
190.13880607043
 30
0.0
 11
381.6296201159157
 21
190.13880607043
 31
0.0
  0
LINE
  5
9A6C
330
9940
100
AcDbEntity
  8
SUNPOU
100
AcDbLine
 10
384.6296201159156
 20
54.67959333813011
 30
0.0
 11
384.6296201159157
 21
183.13880607043
 31
0.0
  0
INSERT
  5
9A6D
330
9940
100
AcDbEntity
  8
SUNPOU
100
AcDbBlockReference
  2
_OPEN
 10
384.6296201159156
 20
47.67959333813011
 30
0.0
 41
7.0
 42
7.0
 43
7.0
 50
270.0
  0
INSERT
  5
9A6E
330
9940
100
AcDbEntity
  8
SUNPOU
100
AcDbBlockReference
  2
_OPEN
 10
384.6296201159157
 20
190.13880607043
 30
0.0
 41
7.0
 42
7.0
 43
7.0
 50
90.0
  0
MTEXT
  5
9A6F
330
9940
100
AcDbEntity
  8
SUNPOU
100
AcDbMText
 10
379.6296201159156
 20
118.9091997042801
 30
0.0
 40
6.0
 41
0.0
 71
     5
 72
     1
  1
\A1;142
 11
0.0000000000000001
 21
1.0
 31
0.0
  0
POINT
  5
9A70
330
9940
100
AcDbEntity
  8
DEFPOINTS
 62
     0
100
AcDbPoint
 10
525.0277554369509
 20
47.67959333813007
 30
0.0
  0
POINT
  5
9A71
330
9940
100
AcDbEntity
  8
DEFPOINTS
 62
     0
100
AcDbPoint
 10
422.472437161751
 20
190.13880607043
 30
0.0
  0
POINT
  5
9A72
330
9940
100
AcDbEntity
  8
DEFPOINTS
 62
     0
100
AcDbPoint
 10
384.6296201159157
 20
190.13880607043
 30
0.0
  0
ENDBLK
  5
994B
330
9940
100
AcDbEntity
  8
0
100
AcDbBlockEnd
  0
BLOCK
  5
9956
330
994C
100
AcDbEntity
  8
0
100
AcDbBlockBegin
  2
*D2
 70
     1
 10
0.0
 20
0.0
 30
0.0
  3
*D2
  1

  0
LINE
  5
9A73
330
994C
100
AcDbEntity
  8
SUNPOU
100
AcDbLine
 10
416.472437161751
 20
190.13880607043
 30
0.0
 11
401.715061292
 21
190.13880607043
 31
0.0
  0
LINE
  5
9A74
330
994C
100
AcDbEntity
  8
SUNPOU
100
AcDbLine
 10
415.9777554369511
 20
163.1795933381298
 30
0.0
 11
401.715061292
 21
163.1795933381298
 31
0.0
  0
LINE
  5
9A75
330
994C
100
AcDbEntity
  8
SUNPOU
100
AcDbLine
 10
404.7150612919999
 20
183.13880607043
 30
0.0
 11
404.7150612919999
 21
170.1795933381299
 31
0.0
  0
INSERT
  5
9A76
330
994C
100
AcDbEntity
  8
SUNPOU
100
AcDbBlockReference
  2
_OPEN
 10
404.7150612919999
 20
190.13880607043
 30
0.0
 41
7.0
 42
7.0
 43
7.0
 50
90.0
  0
INSERT
  5
9A77
330
994C
100
AcDbEntity
  8
SUNPOU
100
AcDbBlockReference
  2
_OPEN
 10
404.7150612919999
 20
163.1795933381298
 30
0.0
 41
7.0
 42
7.0
 43
7.0
 50
270.0
  0
MTEXT
  5
9A78
330
994C
100
AcDbEntity
  8
SUNPOU
100
AcDbMText
 10
399.7150612919999
 20
176.65919970428
 30
0.0
 40
6.0
 41
0.0
 71
     5
 72
     1
  1
\A1;27
 11
0.0000000000000001
 21
1.0
 31
0.0
  0
POINT
  5
9A79
330
994C
100
AcDbEntity
  8
DEFPOINTS
 62
     0
100
AcDbPoint
 10
422.472437161751
 20
190.13880607043
 30
0.0
  0
POINT
  5
9A7A
330
994C
100
AcDbEntity
  8
DEFPOINTS
 62
     0
100
AcDbPoint
 10
421.9777554369511
 20
163.1795933381298
 30
0.0
  0
POINT
  5
9A7B
330
994C
100
AcDbEntity
  8
DEFPOINTS
 62
     0
100
AcDbPoint
 10
404.7150612919999
 20
163.1795933381298
 30
0.0
  0
ENDBLK
  5
9957
330
994C
100
AcDbEntity
  8
0
100
AcDbBlockEnd
  0
BLOCK
  5
9962
330
9958
100
AcDbEntity
  8
0
100
AcDbBlockBegin
  2
*D3
 70
     1
 10
0.0
 20
0.0
 30
0.0
  3
*D3
  1

  0
LINE
  5
9A7C
330
9958
100
AcDbEntity
  8
SUNPOU
100
AcDbLine
 10
420.4724432871509
 20
194.13880473053
 30
0.0
 11
420.4724432871509
 21
217.551264499981
 31
0.0
  0
LINE
  5
9A7D
330
9958
100
AcDbEntity
  8
SUNPOU
100
AcDbLine
 10
730.866958636551
 20
196.00317570133
 30
0.0
 11
730.866958636551
 21
217.551264499981
 31
0.0
  0
LINE
  5
9A7E
330
9958
100
AcDbEntity
  8
SUNPOU
100
AcDbLine
 10
427.472443287151
 20
214.551264499981
 30
0.0
 11
723.866958636551
 21
214.551264499981
 31
0.0
  0
INSERT
  5
9A7F
330
9958
100
AcDbEntity
  8
SUNPOU
100
AcDbBlockReference
  2
_OPEN
 10
420.4724432871509
 20
214.551264499981
 30
0.0
 41
7.0
 42
7.0
 43
7.0
 50
180.0
  0
INSERT
  5
9A80
330
9958
100
AcDbEntity
  8
SUNPOU
100
AcDbBlockReference
  2
_OPEN
 10
730.866958636551
 20
214.551264499981
 30
0.0
 41
7.0
 42
7.0
 43
7.0
  0
MTEXT
  5
9A81
330
9958
100
AcDbEntity
  8
SUNPOU
100
AcDbMText
 10
575.669700961851
 20
219.551264499981
 30
0.0
 40
6.0
 41
0.0
 71
     5
 72
     1
  1
\A1;310
  0
POINT
  5
9A82
330
9958
100
AcDbEntity
  8
DEFPOINTS
 62
     0
100
AcDbPoint
 10
420.4724432871509
 20
188.13880473053
 30
0.0
  0
POINT
  5
9A83
330
9958
100
AcDbEntity
  8
DEFPOINTS
 62
     0
100
AcDbPoint
 10
730.866958636551
 20
190.00317570133
 30
0.0
  0
POINT
  5
9A84
330
9958
100
AcDbEntity
  8
DEFPOINTS
 62
     0
100
AcDbPoint
 10
730.866958636551
 20
214.551264499981
 30
0.0
  0
ENDBLK
  5
9963
330
9958
100
AcDbEntity
  8
0
100
AcDbBlockEnd
  0
BLOCK
  5
996E
330
9964
100
AcDbEntity
  8
0
100
AcDbBlockBegin
  2
*D4
 70
     1
 10
0.0
 20
0.0
 30
0.0
  3
*D4
  1

  0
LINE
  5
9A85
330
9964
100
AcDbEntity
  8
SUNPOU
100
AcDbLine
 10
531.027756828651
 20
47.67959326813004
 30
0.0
 11
646.0056672481764
 21
47.67959326813001
 31
0.0
  0
LINE
  5
9A86
330
9964
100
AcDbEntity
  8
SUNPOU
100
AcDbLine
 10
581.8722541604508
 20
137.77959333813
 30
0.0
 11
646.0056672481764
 21
137.77959333813
 31
0.0
  0
LINE
  5
9A87
330
9964
100
AcDbEntity
  8
SUNPOU
100
AcDbLine
 10
643.0056672481764
 20
54.67959326813002
 30
0.0
 11
643.0056672481764
 21
130.77959333813
 31
0.0
  0
INSERT
  5
9A88
330
9964
100
AcDbEntity
  8
SUNPOU
100
AcDbBlockReference
  2
_OPEN
 10
643.0056672481764
 20
47.67959326813001
 30
0.0
 41
7.0
 42
7.0
 43
7.0
 50
270.0
  0
INSERT
  5
9A89
330
9964
100
AcDbEntity
  8
SUNPOU
100
AcDbBlockReference
  2
_OPEN
 10
643.0056672481764
 20
137.77959333813
 30
0.0
 41
7.0
 42
7.0
 43
7.0
 50
90.0
  0
MTEXT
  5
9A8A
330
9964
100
AcDbEntity
  8
SUNPOU
100
AcDbMText
 10
638.0056672481764
 20
92.72959330313012
 30
0.0
 40
6.0
 41
0.0
 71
     5
 72
     1
  1
\A1;90
 11
0.0000000000000001
 21
1.0
 31
0.0
  0
POINT
  5
9A8B
330
9964
100
AcDbEntity
  8
DEFPOINTS
 62
     0
100
AcDbPoint
 10
525.027756828651
 20
47.67959326813005
 30
0.0
  0
POINT
  5
9A8C
330
9964
100
AcDbEntity
  8
DEFPOINTS
 62
     0
100
AcDbPoint
 10
575.8722541604509
 20
137.77959333813
 30
0.0
  0
POINT
  5
9A8D
330
9964
100
AcDbEntity
  8
DEFPOINTS
 62
     0
100
AcDbPoint
 10
643.0056672481764
 20
137.77959333813
 30
0.0
  0
ENDBLK
  5
996F
330
9964
100
AcDbEntity
  8
0
100
AcDbBlockEnd
  0
BLOCK
  5
997A
330
9970
100
AcDbEntity
  8
0
100
AcDbBlockBegin
  2
*D5
 70
     1
 10
0.0
 20
0.0
 30
0.0
  3
*D5
  1

  0
LINE
  5
9A8E
330
9970
100
AcDbEntity
  8
SUNPOU
100
AcDbLine
 10
479.7179511537797
 20
45.76414162281776
 30
0.0
 11
479.7179511537797
 21
32.74691451348485
 31
0.0
  0
LINE
  5
9A8F
330
9970
100
AcDbEntity
  8
SUNPOU
100
AcDbLine
 10
570.5478147279091
 20
45.77367441050554
 30
0.0
 11
570.5478147279091
 21
32.74691451348485
 31
0.0
  0
LINE
  5
9A90
330
9970
100
AcDbEntity
  8
SUNPOU
100
AcDbLine
 10
486.7179511537797
 20
35.74691451348485
 30
0.0
 11
563.5478147279091
 21
35.74691451348485
 31
0.0
  0
INSERT
  5
9A91
330
9970
100
AcDbEntity
  8
SUNPOU
100
AcDbBlockReference
  2
_OPEN
 10
479.7179511537797
 20
35.74691451348485
 30
0.0
 41
7.0
 42
7.0
 43
7.0
 50
180.0
  0
INSERT
  5
9A92
330
9970
100
AcDbEntity
  8
SUNPOU
100
AcDbBlockReference
  2
_OPEN
 10
570.5478147279091
 20
35.74691451348485
 30
0.0
 41
7.0
 42
7.0
 43
7.0
  0
MTEXT
  5
9A93
330
9970
100
AcDbEntity
  8
SUNPOU
100
AcDbMText
 10
525.1328829408444
 20
40.74691451348485
 30
0.0
 40
6.0
 41
0.0
 71
     5
 72
     1
  1
\A1;91
  0
POINT
  5
9A94
330
9970
100
AcDbEntity
  8
DEFPOINTS
 62
     0
100
AcDbPoint
 10
479.7179511537797
 20
51.76414162281776
 30
0.0
  0
POINT
  5
9A95
330
9970
100
AcDbEntity
  8
DEFPOINTS
 62
     0
100
AcDbPoint
 10
570.5478147279091
 20
51.77367441050555
 30
0.0
  0
POINT
  5
9A96
330
9970
100
AcDbEntity
  8
DEFPOINTS
 62
     0
100
AcDbPoint
 10
570.5478147279091
 20
35.74691451348485
 30
0.0
  0
ENDBLK
  5
997B
330
9970
100
AcDbEntity
  8
0
100
AcDbBlockEnd
  0
BLOCK
  5
9986
330
997C
100
AcDbEntity
  8
0
100
AcDbBlockBegin
  2
*D6
 70
     1
 10
0.0
 20
0.0
 30
0.0
  3
*D6
  1

  0
LINE
  5
9A97
330
997C
100
AcDbEntity
  8
SUNPOU
100
AcDbLine
 10
420.4724432871509
 20
194.13880473053
 30
0.0
 11
420.4724432871509
 21
204.6000992133879
 31
0.0
  0
LINE
  5
9A98
330
997C
100
AcDbEntity
  8
SUNPOU
100
AcDbLine
 10
580.8722574895512
 20
138.77959492363
 30
0.0
 11
580.8722574895512
 21
204.6000992133879
 31
0.0
  0
LINE
  5
9A99
330
997C
100
AcDbEntity
  8
SUNPOU
100
AcDbLine
 10
427.472443287151
 20
201.6000992133879
 30
0.0
 11
573.8722574895511
 21
201.6000992133879
 31
0.0
  0
INSERT
  5
9A9A
330
997C
100
AcDbEntity
  8
SUNPOU
100
AcDbBlockReference
  2
_OPEN
 10
420.4724432871509
 20
201.6000992133879
 30
0.0
 41
7.0
 42
7.0
 43
7.0
 50
180.0
  0
INSERT
  5
9A9B
330
997C
100
AcDbEntity
  8
SUNPOU
100
AcDbBlockReference
  2
_OPEN
 10
580.8722574895512
 20
201.6000992133879
 30
0.0
 41
7.0
 42
7.0
 43
7.0
  0
MTEXT
  5
9A9C
330
997C
100
AcDbEntity
  8
SUNPOU
100
AcDbMText
 10
500.672350388351
 20
206.6000992133879
 30
0.0
 40
6.0
 41
0.0
 71
     5
 72
     1
  1
\A1;160
  0
POINT
  5
9A9D
330
997C
100
AcDbEntity
  8
DEFPOINTS
 62
     0
100
AcDbPoint
 10
420.4724432871509
 20
188.13880473053
 30
0.0
  0
POINT
  5
9A9E
330
997C
100
AcDbEntity
  8
DEFPOINTS
 62
     0
100
AcDbPoint
 10
580.8722574895512
 20
132.77959492363
 30
0.0
  0
POINT
  5
9A9F
330
997C
100
AcDbEntity
  8
DEFPOINTS
 62
     0
100
AcDbPoint
 10
580.8722574895512
 20
201.6000992133879
 30
0.0
  0
ENDBLK
  5
9987
330
997C
100
AcDbEntity
  8
0
100
AcDbBlockEnd
  0
BLOCK
  5
9992
330
9988
100
AcDbEntity
  8
0
100
AcDbBlockBegin
  2
*D7
 70
     1
 10
0.0
 20
0.0
 30
0.0
  3
*D7
  1

  0
LINE
  5
9AA0
330
9988
100
AcDbEntity
  8
SUNPOU
100
AcDbLine
 10
586.4286350195508
 20
275.2294479079278
 30
0.0
 11
615.1939875955191
 21
275.2294479079278
 31
0.0
  0
LINE
  5
9AA1
330
9988
100
AcDbEntity
  8
SUNPOU
100
AcDbLine
 10
586.3717572408145
 20
228.7294479079279
 30
0.0
 11
615.193987595519
 21
228.7294479079279
 31
0.0
  0
LINE
  5
9AA2
330
9988
100
AcDbEntity
  8
SUNPOU
100
AcDbLine
 10
612.1939875955192
 20
268.2294479079278
 30
0.0
 11
612.193987595519
 21
235.7294479079279
 31
0.0
  0
INSERT
  5
9AA3
330
9988
100
AcDbEntity
  8
SUNPOU
100
AcDbBlockReference
  2
_OPEN
 10
612.1939875955192
 20
275.2294479079278
 30
0.0
 41
7.0
 42
7.0
 43
7.0
 50
90.0
  0
INSERT
  5
9AA4
330
9988
100
AcDbEntity
  8
SUNPOU
100
AcDbBlockReference
  2
_OPEN
 10
612.193987595519
 20
228.7294479079279
 30
0.0
 41
7.0
 42
7.0
 43
7.0
 50
270.0
  0
MTEXT
  5
9AA5
330
9988
100
AcDbEntity
  8
SUNPOU
100
AcDbMText
 10
607.193987595519
 20
251.9794479079279
 30
0.0
 40
6.0
 41
0.0
 71
     5
 72
     1
  1
\A1;\U+203B47
 11
0.0000000000000001
 21
1.0
 31
0.0
  0
POINT
  5
9AA6
330
9988
100
AcDbEntity
  8
DEFPOINTS
 62
     0
100
AcDbPoint
 10
580.4286350195508
 20
275.2294479079278
 30
0.0
  0
POINT
  5
9AA7
330
9988
100
AcDbEntity
  8
DEFPOINTS
 62
     0
100
AcDbPoint
 10
580.3717572408145
 20
228.7294479079279
 30
0.0
  0
POINT
  5
9AA8
330
9988
100
AcDbEntity
  8
DEFPOINTS
 62
     0
100
AcDbPoint
 10
612.193987595519
 20
228.7294479079279
 30
0.0
  0
ENDBLK
  5
9993
330
9988
100
AcDbEntity
  8
0
100
AcDbBlockEnd
  0
ENDSEC
  0
SECTION
  2
ENTITIES
  0
TEXT
  5
4F7
330
1A
100
AcDbEntity
  8
SUNPOU
 62
     4
100
AcDbText
 10
677.1849723834143
 20
36.94439020711241
 30
0.0
 40
6.0
  1
※　のきといの差込み寸法を示す
100
AcDbText
  0
LINE
  5
9133
330
1A
100
AcDbEntity
  8
ZUWAKU
100
AcDbLine
 10
208.646601303624
 20
15.19999986828872
 30
0.0
 11
447.4243639845474
 21
15.19999986828871
 31
0.0
  0
LINE
  5
9134
330
1A
100
AcDbEntity
  8
ZUWAKU
100
AcDbLine
 10
208.646601303624
 20
15.59999986828871
 30
0.0
 11
447.4243639845474
 21
15.59999986828872
 31
0.0
  0
LINE
  5
9135
330
1A
100
AcDbEntity
  8
ZUWAKU
100
AcDbLine
 10
208.646601303624
 20
15.39999986828871
 30
0.0
 11
447.4243639845474
 21
15.39999986828871
 31
0.0
  0
LINE
  5
9136
330
1A
100
AcDbEntity
  8
ZUWAKU
100
AcDbLine
 10
0.0000000135560185
 20
30.79999986828869
 30
0.0
 11
797.4000000135559
 21
30.79999986828869
 31
0.0
  0
LINE
  5
9137
330
1A
100
AcDbEntity
  8
ZUWAKU
100
AcDbLine
 10
0.0000000135560185
 20
30.59999986828869
 30
0.0
 11
797.4000000135559
 21
30.59999986828869
 31
0.0
  0
LINE
  5
9138
330
1A
100
AcDbEntity
  8
ZUWAKU
100
AcDbLine
 10
0.0000000135560185
 20
30.39999986828869
 30
0.0
 11
797.4000000135559
 21
30.39999986828869
 31
0.0
  0
LINE
  5
9139
330
1A
100
AcDbEntity
  8
ZUWAKU
100
AcDbLine
 10
0.0000000135560185
 20
30.19999986828868
 30
0.0
 11
797.4000000135559
 21
30.19999986828868
 31
0.0
  0
LINE
  5
913A
330
1A
100
AcDbEntity
  8
ZUWAKU
100
AcDbLine
 10
0.0000000135560185
 20
29.99999986828868
 30
0.0
 11
797.4000000135559
 21
29.99999986828868
 31
0.0
  0
LWPOLYLINE
  5
913B
330
1A
100
AcDbEntity
  8
ZUWAKU
100
AcDbPolyline
 90
        4
 70
     1
 43
0.0
 10
0.2000000135559503
 20
551.3999998682887
 10
0.2000000135559503
 20
0.1999998682887281
 10
797.4000000135559
 20
0.1999998682887511
 10
797.4000000135561
 20
551.3999998682887
  0
LWPOLYLINE
  5
913C
330
1A
100
AcDbEntity
  8
ZUWAKU
100
AcDbPolyline
 90
        4
 70
     1
 43
0.0
 10
0.6000000135559276
 20
550.9999998682888
 10
0.6000000135559276
 20
0.5999998682887054
 10
797.0000000135562
 20
0.5999998682887516
 10
797.000000013556
 20
550.9999998682888
  0
LWPOLYLINE
  5
913D
330
1A
100
AcDbEntity
  8
ZUWAKU
100
AcDbPolyline
 90
        4
 70
     1
 43
0.0
 10
0.0000000135560185
 20
551.5999998682887
 10
0.0000000135560185
 20
-0.0000001317113174
 10
797.6000000135561
 20
-0.0000001317112499
 10
797.6000000135561
 20
551.5999998682888
  0
LWPOLYLINE
  5
913E
330
1A
100
AcDbEntity
  8
ZUWAKU
100
AcDbPolyline
 90
        4
 70
     1
 43
0.0
 10
0.4000000135559958
 20
551.1999998682887
 10
0.4000000135559958
 20
0.3999998682887735
 10
797.200000013556
 20
0.3999998682887504
 10
797.200000013556
 20
551.1999998682887
  0
LWPOLYLINE
  5
913F
330
1A
100
AcDbEntity
  8
ZUWAKU
100
AcDbPolyline
 90
        4
 70
     1
 43
0.0
 10
0.800000013555973
 20
550.7999998682887
 10
0.800000013555973
 20
0.7999998682887508
 10
796.8000000135559
 20
0.7999998682887508
 10
796.8000000135559
 20
550.7999998682887
  0
TEXT
  5
9140
330
1A
100
AcDbEntity
  8
MOJI
100
AcDbText
 10
92.95778960172516
 20
12.74117799856344
 30
0.0
 40
6.0
  1
アートフェイスＶＭ１６０
 41
0.9
  7
ｽﾀｲﾙ1
100
AcDbText
  0
HATCH
  5
9141
330
1A
100
AcDbEntity
  8
ZUWAKU
100
AcDbHatch
 10
0.0
 20
0.0
 30
0.0
210
0.0
220
0.0
230
1.0
  2
ANSI37
 70
     0
 71
     0
 91
        8
 92
        7
 72
     1
 73
     1
 93
       24
 10
14.50226267467587
 20
17.64484834927226
 42
-0.1989123673796348
 10
14.09221216833714
 20
18.63479784293331
 42
0.0
 10
14.09221216833714
 20
19.92499986828869
 42
-0.4142135623730912
 10
14.61721216833711
 20
20.44999986828868
 42
0.0
 10
17.59221216833702
 20
20.44999986828868
 42
0.4142135623731546
 10
18.11721216833712
 20
20.97499986828867
 42
0.0
 10
18.11721216833712
 20
22.72499986828869
 42
0.4142135623731586
 10
17.59221216833702
 20
23.24999986828868
 42
0.0
 10
14.09221216833714
 20
23.24999986828868
 42
0.4142135623730928
 10
11.29221216833718
 20
20.44999986828871
 42
0.0
 10
11.29221216833718
 20
18.63479784293344
 42
0.1989123673796619
 10
12.52236368735361
 20
15.66494936194983
 42
0.0
 10
15.43216166199829
 20
12.75515138730518
 42
-0.1989123673796613
 10
15.84221216833714
 20
11.76520189364399
 42
0.0
 10
15.84221216833714
 20
10.47499986828867
 42
-0.4142135623730911
 10
15.31721216833716
 20
9.949999868288685
 42
0.0
 10
12.34221216833725
 20
9.949999868288685
 42
0.4142135623731526
 10
11.81721216833716
 20
9.424999868288697
 42
0.0
 10
11.81721216833716
 20
7.674999868288676
 42
0.4142135623731526
 10
12.34221216833725
 20
7.149999868288688
 42
0.0
 10
15.84221216833714
 20
7.149999868288688
 42
0.4142135623731044
 10
18.64221216833721
 20
9.949999868288664
 42
0.0
 10
18.64221216833721
 20
11.76520189364393
 42
0.1989123673796604
 10
17.41206064932066
 20
14.73505037462747
 42
0.0
 97
        0
 92
        7
 72
     1
 73
     1
 93
       16
 10
23.54221216833718
 20
19.04999986828869
 42
-0.4142135623730935
 10
24.94221216833716
 20
20.44999986828868
 42
0.0
 10
26.86721216833712
 20
20.44999986828868
 42
0.4142135623731546
 10
27.39221216833721
 20
20.97499986828867
 42
0.0
 10
27.39221216833721
 20
22.72499986828869
 42
0.4142135623730951
 10
26.86721216833723
 20
23.24999986828868
 42
0.0
 10
24.94221216833705
 20
23.24999986828864
 42
0.4142135623730892
 10
20.74221216833711
 20
19.04999986828862
 42
0.0
 10
20.74221216833711
 20
11.34999986828871
 42
0.4142135623730969
 10
24.94221216833716
 20
7.149999868288688
 42
0.0
 10
26.86721216833712
 20
7.149999868288688
 42
0.4142135623731526
 10
27.39221216833721
 20
7.674999868288676
 42
0.0
 10
27.39221216833721
 20
9.424999868288697
 42
0.4142135623730891
 10
26.86721216833723
 20
9.949999868288685
 42
0.0
 10
24.94221216833716
 20
9.949999868288685
 42
-0.4142135623730928
 10
23.54221216833718
 20
11.34999986828867
 42
0.0
 97
        0
 92
        7
 72
     1
 73
     1
 93
        2
 10
24.24221216833712
 20
15.19999986828868
 42
1.0
 10
27.74221216833712
 20
15.19999986828868
 42
1.0
 97
        0
 92
        7
 72
     1
 73
     1
 93
       26
 10
37.31485865051513
 20
19.20504706185211
 42
0.0
 10
38.37649828365295
 20
22.5669059001217
 42
0.5069206636600134
 10
37.87586738445759
 20
23.24999986828868
 42
0.0
 10
36.17697800484836
 20
23.24999986828868
 42
0.3272098845218764
 10
35.676347105653
 20
22.88309383645565
 42
0.0
 10
33.80807723102122
 20
16.96690590012176
 42
-0.3272098845219541
 10
33.30744633182575
 20
16.59999986828868
 42
0.0
 10
33.1672121683373
 20
16.59999986828868
 42
-0.4142135623731526
 10
32.64221216833721
 20
17.12499986828867
 42
0.0
 10
32.64221216833721
 20
22.72499986828869
 42
0.4142135623730951
 10
32.11721216833723
 20
23.24999986828868
 42
0.0
 10
30.36721216833711
 20
23.24999986828868
 42
0.4142135623730871
 10
29.84221216833714
 20
22.7249998682887
 42
0.0
 10
29.84221216833714
 20
7.674999868288676
 42
0.4142135623730891
 10
30.36721216833711
 20
7.149999868288688
 42
0.0
 10
32.11721216833712
 20
7.149999868288688
 42
0.4142135623731526
 10
32.64221216833721
 20
7.674999868288676
 42
0.0
 10
32.64221216833721
 20
13.27499986828869
 42
-0.4142135623731526
 10
33.1672121683373
 20
13.79999986828868
 42
0.0
 10
33.30744633182587
 20
13.79999986828868
 42
-0.3272098845218915
 10
33.80807723102122
 20
13.43309383645561
 42
0.0
 10
35.676347105653
 20
7.516905900121759
 42
0.3272098845218902
 10
36.17697800484836
 20
7.149999868288688
 42
0.0
 10
37.87586738445759
 20
7.149999868288688
 42
0.5069206636600335
 10
38.37649828365295
 20
7.833093836455695
 42
0.0
 10
36.05010690517929
 20
15.19999986828882
 42
0.0
 97
        0
 92
        7
 72
     1
 73
     1
 93
        8
 10
43.49221216833711
 20
22.7249998682887
 42
0.4142135623731546
 10
42.96721216833702
 20
23.24999986828868
 42
0.0
 10
41.21721216833726
 20
23.24999986828868
 42
0.4142135623731507
 10
40.69221216833716
 20
22.7249998682887
 42
0.0
 10
40.69221216833716
 20
7.674999868288676
 42
0.4142135623731526
 10
41.21721216833726
 20
7.149999868288688
 42
0.0
 10
42.96721216833702
 20
7.149999868288688
 42
0.4142135623731526
 10
43.49221216833711
 20
7.674999868288676
 42
0.0
 97
        0
 92
        7
 72
     1
 73
     1
 93
       24
 10
48.3922121683372
 20
19.92499986828869
 42
-0.4142135623731546
 10
48.9172121683373
 20
20.44999986828868
 42
0.0
 10
51.89221216833721
 20
20.44999986828868
 42
0.4142135623730911
 10
52.41721216833719
 20
20.97499986828867
 42
0.0
 10
52.41721216833719
 20
22.72499986828869
 42
0.4142135623730952
 10
51.89221216833721
 20
23.24999986828868
 42
0.0
 10
48.3922121683372
 20
23.24999986828868
 42
0.4142135623731048
 10
45.59221216833714
 20
20.44999986828871
 42
0.0
 10
45.59221216833714
 20
18.63479784293344
 42
0.1989123673796613
 10
46.82236368735368
 20
15.66494936194989
 42
0.0
 10
49.73216166199836
 20
12.75515138730522
 42
-0.1989123673796402
 10
50.14221216833721
 20
11.76520189364415
 42
0.0
 10
50.14221216833721
 20
10.47499986828867
 42
-0.4142135623730911
 10
49.61721216833723
 20
9.949999868288685
 42
0.0
 10
46.64221216833721
 20
9.949999868288685
 42
0.4142135623731526
 10
46.11721216833712
 20
9.424999868288697
 42
0.0
 10
46.11721216833712
 20
7.674999868288676
 42
0.4142135623730891
 10
46.64221216833709
 20
7.149999868288688
 42
0.0
 10
50.14221216833721
 20
7.149999868288688
 42
0.4142135623730925
 10
52.94221216833716
 20
9.949999868288664
 42
0.0
 10
52.94221216833716
 20
11.76520189364393
 42
0.1989123673796675
 10
51.71206064932062
 20
14.73505037462759
 42
0.0
 10
48.80226267467605
 20
17.6448483492721
 42
-0.1989123673796652
 10
48.3922121683372
 20
18.63479784293327
 42
0.0
 97
        0
 92
        7
 72
     1
 73
     1
 93
       16
 10
57.84221216833714
 20
22.72499986828867
 42
0.414213562373103
 10
57.31721216833716
 20
23.24999986828868
 42
0.0
 10
55.56721216833716
 20
23.24999986828868
 42
0.4142135623730871
 10
55.04221216833719
 20
22.7249998682887
 42
0.0
 10
55.04221216833719
 20
9.949999868288664
 42
0.4142135623730926
 10
57.84221216833714
 20
7.149999868288688
 42
0.0
 10
61.34221216833714
 20
7.149999868288688
 42
0.4142135623731044
 10
64.14221216833721
 20
9.949999868288664
 42
0.0
 10
64.14221216833721
 20
22.72499986828869
 42
0.4142135623730951
 10
63.61721216833723
 20
23.24999986828868
 42
0.0
 10
61.86721216833712
 20
23.24999986828868
 42
0.4142135623730871
 10
61.34221216833714
 20
22.7249998682887
 42
0.0
 10
61.34221216833714
 20
10.99999986828866
 42
-0.414213562373088
 10
60.29221216833718
 20
9.949999868288685
 42
0.0
 10
58.89221216833721
 20
9.949999868288685
 42
-0.4142135623731197
 10
57.84221216833714
 20
10.99999986828866
 42
0.0
 97
        0
 92
        7
 72
     1
 73
     1
 93
        8
 10
69.04221216833718
 20
22.7249998682887
 42
0.4142135623730871
 10
68.51721216833721
 20
23.24999986828868
 42
0.0
 10
66.76721216833721
 20
23.24999986828868
 42
0.4142135623731507
 10
66.24221216833712
 20
22.7249998682887
 42
0.0
 10
66.24221216833712
 20
7.674999868288676
 42
0.4142135623730891
 10
66.76721216833709
 20
7.149999868288688
 42
0.0
 10
68.51721216833721
 20
7.149999868288688
 42
0.4142135623730891
 10
69.04221216833718
 20
7.674999868288676
 42
0.0
 97
        0
 75
     0
 76
     1
 52
0.0
 41
0.2
 77
     0
 78
     2
 53
45.0
 43
-900.942304321123
 44
-13.20000013171124
 45
-0.4490128060534576
 46
0.4490128060534577
 79
     0
 53
135.0
 43
-900.942304321123
 44
-13.20000013171124
 45
-0.4490128060534577
 46
-0.4490128060534576
 79
     0
 47
0.057451373970553
 98
        8
 10
16.07985497657932
 20
15.16717351417423
 10
22.40451501999519
 20
18.84406205073969
 10
25.16436789921567
 20
15.5118815143594
 10
30.91405999519315
 20
16.20129751473018
 10
41.83847203251275
 20
16.6609097822718
 10
46.89820090868557
 20
19.41857618469589
 10
56.55768598595637
 20
18.72915778338369
 10
67.82707963317875
 20
19.18877005092531
  0
LINE
  5
9142
330
1A
100
AcDbEntity
  8
ZUWAKU
100
AcDbLine
 10
24.94221216833716
 20
23.24999986828864
 30
0.0
 11
26.86721216833712
 21
23.24999986828868
 31
0.0
  0
LINE
  5
9143
330
1A
100
AcDbEntity
  8
ZUWAKU
100
AcDbLine
 10
26.86721216833712
 20
20.44999986828868
 30
0.0
 11
24.94221216833716
 21
20.44999986828868
 31
0.0
  0
LINE
  5
9144
330
1A
100
AcDbEntity
  8
ZUWAKU
100
AcDbLine
 10
24.94221216833716
 20
9.949999868288685
 30
0.0
 11
26.86721216833712
 21
9.949999868288685
 31
0.0
  0
LINE
  5
9145
330
1A
100
AcDbEntity
  8
ZUWAKU
100
AcDbLine
 10
26.86721216833712
 20
7.149999868288688
 30
0.0
 11
24.94221216833716
 21
7.149999868288688
 31
0.0
  0
CIRCLE
  5
9146
330
1A
100
AcDbEntity
  8
ZUWAKU
100
AcDbCircle
 10
25.99221216833711
 20
15.19999986828868
 30
0.0
 40
1.75
  0
ARC
  5
9147
330
1A
100
AcDbEntity
  8
ZUWAKU
100
AcDbCircle
 10
15.49221216833712
 20
18.63479784293338
 30
0.0
 40
1.399999999999999
100
AcDbArc
 50
180.0000000000016
 51
224.9999999999988
  0
LINE
  5
9148
330
1A
100
AcDbEntity
  8
ZUWAKU
100
AcDbLine
 10
23.54221216833718
 20
19.04999986828868
 30
0.0
 11
23.54221216833718
 21
11.34999986828869
 31
0.0
  0
LINE
  5
9149
330
1A
100
AcDbEntity
  8
ZUWAKU
100
AcDbLine
 10
20.74221216833711
 20
11.34999986828869
 30
0.0
 11
20.74221216833711
 21
19.04999986828864
 31
0.0
  0
ARC
  5
914A
330
1A
100
AcDbEntity
  8
ZUWAKU
100
AcDbCircle
 10
15.49221216833712
 20
18.63479784293338
 30
0.0
 40
4.199999999999999
100
AcDbArc
 50
180.0
 51
225.0
  0
ARC
  5
914B
330
1A
100
AcDbEntity
  8
ZUWAKU
100
AcDbCircle
 10
15.84221216833714
 20
9.949999868288685
 30
0.0
 40
2.799999999999999
100
AcDbArc
 50
270.0
 51
0.0
  0
ARC
  5
914C
330
1A
100
AcDbEntity
  8
ZUWAKU
100
AcDbCircle
 10
24.94221216833716
 20
11.34999986828869
 30
0.0
 40
4.199999999999999
100
AcDbArc
 50
180.0
 51
270.0
  0
ARC
  5
914D
330
1A
100
AcDbEntity
  8
ZUWAKU
100
AcDbCircle
 10
14.44221216833716
 20
11.76520189364399
 30
0.0
 40
4.199999999999999
100
AcDbArc
 50
0.0
 51
45.0
  0
LINE
  5
914E
330
1A
100
AcDbEntity
  8
ZUWAKU
100
AcDbLine
 10
17.41206064932066
 20
14.73505037462751
 30
0.0
 11
14.50226267467598
 21
17.64484834927218
 31
0.0
  0
LINE
  5
914F
330
1A
100
AcDbEntity
  8
ZUWAKU
100
AcDbLine
 10
15.84221216833714
 20
10.47499986828869
 30
0.0
 11
15.84221216833714
 21
11.76520189364403
 31
0.0
  0
ARC
  5
9150
330
1A
100
AcDbEntity
  8
ZUWAKU
100
AcDbCircle
 10
15.31721216833716
 20
10.47499986828869
 30
0.0
 40
0.525
100
AcDbArc
 50
270.0
 51
0.0
  0
ARC
  5
9151
330
1A
100
AcDbEntity
  8
ZUWAKU
100
AcDbCircle
 10
14.44221216833716
 20
11.76520189364403
 30
0.0
 40
1.399999999999999
100
AcDbArc
 50
0.0
 51
45.0
  0
LINE
  5
9152
330
1A
100
AcDbEntity
  8
ZUWAKU
100
AcDbLine
 10
11.81721216833716
 20
7.674999868288686
 30
0.0
 11
11.81721216833716
 21
9.424999868288686
 31
0.0
  0
ARC
  5
9153
330
1A
100
AcDbEntity
  8
ZUWAKU
100
AcDbCircle
 10
12.34221216833714
 20
7.674999868288686
 30
0.0
 40
0.525
100
AcDbArc
 50
180.0
 51
270.0
  0
ARC
  5
9154
330
1A
100
AcDbEntity
  8
ZUWAKU
100
AcDbCircle
 10
12.34221216833714
 20
9.424999868288686
 30
0.0
 40
0.525
100
AcDbArc
 50
90.0
 51
180.0
  0
LINE
  5
9155
330
1A
100
AcDbEntity
  8
ZUWAKU
100
AcDbLine
 10
12.34221216833714
 20
7.149999868288688
 30
0.0
 11
15.84221216833714
 21
7.149999868288688
 31
0.0
  0
LINE
  5
9156
330
1A
100
AcDbEntity
  8
ZUWAKU
100
AcDbLine
 10
12.34221216833714
 20
9.949999868288685
 30
0.0
 11
15.31721216833716
 21
9.949999868288685
 31
0.0
  0
LINE
  5
9157
330
1A
100
AcDbEntity
  8
ZUWAKU
100
AcDbLine
 10
12.52236368735361
 20
15.66494936194986
 30
0.0
 11
15.43216166199829
 21
12.7551513873052
 31
0.0
  0
LINE
  5
9158
330
1A
100
AcDbEntity
  8
ZUWAKU
100
AcDbLine
 10
18.64221216833721
 20
9.949999868288685
 30
0.0
 11
18.64221216833721
 21
11.76520189364403
 31
0.0
  0
ARC
  5
9159
330
1A
100
AcDbEntity
  8
ZUWAKU
100
AcDbCircle
 10
24.94221216833716
 20
11.34999986828869
 30
0.0
 40
1.399999999999999
100
AcDbArc
 50
180.0
 51
270.0
  0
ARC
  5
915A
330
1A
100
AcDbEntity
  8
ZUWAKU
100
AcDbCircle
 10
17.59221216833714
 20
22.72499986828868
 30
0.0
 40
0.525
100
AcDbArc
 50
0.0
 51
90.0
  0
ARC
  5
915B
330
1A
100
AcDbEntity
  8
ZUWAKU
100
AcDbCircle
 10
17.59221216833714
 20
20.97499986828868
 30
0.0
 40
0.525
100
AcDbArc
 50
270.0
 51
0.0
  0
LINE
  5
915C
330
1A
100
AcDbEntity
  8
ZUWAKU
100
AcDbLine
 10
14.09221216833714
 20
23.24999986828868
 30
0.0
 11
17.59221216833714
 21
23.24999986828868
 31
0.0
  0
ARC
  5
915D
330
1A
100
AcDbEntity
  8
ZUWAKU
100
AcDbCircle
 10
14.61721216833711
 20
19.92499986828868
 30
0.0
 40
0.525
100
AcDbArc
 50
90.0
 51
180.0
  0
LINE
  5
915E
330
1A
100
AcDbEntity
  8
ZUWAKU
100
AcDbLine
 10
14.09221216833714
 20
19.92499986828868
 30
0.0
 11
14.09221216833714
 21
18.63479784293334
 31
0.0
  0
LINE
  5
915F
330
1A
100
AcDbEntity
  8
ZUWAKU
100
AcDbLine
 10
17.59221216833714
 20
20.44999986828868
 30
0.0
 11
14.61721216833711
 21
20.44999986828868
 31
0.0
  0
LINE
  5
9160
330
1A
100
AcDbEntity
  8
ZUWAKU
100
AcDbLine
 10
11.29221216833718
 20
20.44999986828868
 30
0.0
 11
11.29221216833718
 21
18.63479784293334
 31
0.0
  0
ARC
  5
9161
330
1A
100
AcDbEntity
  8
ZUWAKU
100
AcDbCircle
 10
14.09221216833714
 20
20.44999986828868
 30
0.0
 40
2.799999999999999
100
AcDbArc
 50
90.0
 51
180.0
  0
LINE
  5
9162
330
1A
100
AcDbEntity
  8
ZUWAKU
100
AcDbLine
 10
18.11721216833712
 20
22.72499986828868
 30
0.0
 11
18.11721216833712
 21
20.97499986828868
 31
0.0
  0
ARC
  5
9163
330
1A
100
AcDbEntity
  8
ZUWAKU
100
AcDbCircle
 10
24.94221216833716
 20
19.04999986828868
 30
0.0
 40
1.399999999999999
100
AcDbArc
 50
90.0
 51
180.0
  0
ARC
  5
9164
330
1A
100
AcDbEntity
  8
ZUWAKU
100
AcDbCircle
 10
24.94221216833716
 20
19.04999986828864
 30
0.0
 40
4.199999999999999
100
AcDbArc
 50
90.0
 51
180.0
  0
LINE
  5
9165
330
1A
100
AcDbEntity
  8
ZUWAKU
100
AcDbLine
 10
79.32662956154422
 20
29.99999986828868
 30
0.0
 11
79.32662956154445
 21
0.7999998682887508
 31
0.0
  0
LINE
  5
9166
330
1A
100
AcDbEntity
  8
ZUWAKU
100
AcDbLine
 10
79.52662956154426
 20
29.99999986828868
 30
0.0
 11
79.52662956154449
 21
0.7999998682887508
 31
0.0
  0
LINE
  5
9167
330
1A
100
AcDbEntity
  8
ZUWAKU
100
AcDbLine
 10
79.12662956154441
 20
29.99999986828868
 30
0.0
 11
79.12662956154441
 21
0.7999998682887508
 31
0.0
  0
LINE
  5
9168
330
1A
100
AcDbEntity
  8
ZUWAKU
100
AcDbLine
 10
64.14221216833721
 20
9.949999868288685
 30
0.0
 11
64.14221216833721
 21
22.72499986828868
 31
0.0
  0
LINE
  5
9169
330
1A
100
AcDbEntity
  8
ZUWAKU
100
AcDbLine
 10
61.34221216833714
 20
22.72499986828868
 30
0.0
 11
61.34221216833714
 21
10.99999986828868
 31
0.0
  0
LINE
  5
916A
330
1A
100
AcDbEntity
  8
ZUWAKU
100
AcDbLine
 10
69.04221216833718
 20
7.674999868288686
 30
0.0
 11
69.04221216833718
 21
22.72499986828868
 31
0.0
  0
LINE
  5
916B
330
1A
100
AcDbEntity
  8
ZUWAKU
100
AcDbLine
 10
66.24221216833712
 20
22.72499986828868
 30
0.0
 11
66.24221216833712
 21
7.674999868288686
 31
0.0
  0
ARC
  5
916C
330
1A
100
AcDbEntity
  8
ZUWAKU
100
AcDbCircle
 10
49.79221216833718
 20
18.63479784293338
 30
0.0
 40
1.399999999999999
100
AcDbArc
 50
180.0000000000016
 51
224.9999999999988
  0
ARC
  5
916D
330
1A
100
AcDbEntity
  8
ZUWAKU
100
AcDbCircle
 10
49.79221216833718
 20
18.63479784293338
 30
0.0
 40
4.199999999999999
100
AcDbArc
 50
180.0
 51
225.0
  0
LINE
  5
916E
330
1A
100
AcDbEntity
  8
ZUWAKU
100
AcDbLine
 10
37.31485865051513
 20
19.20504706185211
 30
0.0
 11
36.05010690517929
 21
15.1999998682887
 31
0.0
  0
LINE
  5
916F
330
1A
100
AcDbEntity
  8
ZUWAKU
100
AcDbLine
 10
40.69221216833716
 20
22.72499986828868
 30
0.0
 11
40.69221216833716
 21
7.674999868288686
 31
0.0
  0
LINE
  5
9170
330
1A
100
AcDbEntity
  8
ZUWAKU
100
AcDbLine
 10
43.49221216833711
 20
7.674999868288686
 30
0.0
 11
43.49221216833711
 21
22.72499986828868
 31
0.0
  0
LINE
  5
9171
330
1A
100
AcDbEntity
  8
ZUWAKU
100
AcDbLine
 10
55.04221216833719
 20
22.72499986828868
 30
0.0
 11
55.04221216833719
 21
9.949999868288685
 31
0.0
  0
LINE
  5
9172
330
1A
100
AcDbEntity
  8
ZUWAKU
100
AcDbLine
 10
57.84221216833714
 20
10.99999986828868
 30
0.0
 11
57.84221216833714
 21
22.72499986828868
 31
0.0
  0
LINE
  5
9173
330
1A
100
AcDbEntity
  8
ZUWAKU
100
AcDbLine
 10
32.64221216833721
 20
17.12499986828869
 30
0.0
 11
32.64221216833721
 21
22.72499986828868
 31
0.0
  0
LINE
  5
9174
330
1A
100
AcDbEntity
  8
ZUWAKU
100
AcDbLine
 10
29.84221216833714
 20
22.72499986828868
 30
0.0
 11
29.84221216833714
 21
7.674999868288686
 31
0.0
  0
LINE
  5
9175
330
1A
100
AcDbEntity
  8
ZUWAKU
100
AcDbLine
 10
35.676347105653
 20
22.88309383645565
 30
0.0
 11
33.80807723102122
 21
16.96690590012171
 31
0.0
  0
LINE
  5
9176
330
1A
100
AcDbEntity
  8
ZUWAKU
100
AcDbLine
 10
60.29221216833718
 20
9.949999868288685
 30
0.0
 11
58.89221216833721
 21
9.949999868288685
 31
0.0
  0
LINE
  5
9177
330
1A
100
AcDbEntity
  8
ZUWAKU
100
AcDbLine
 10
57.84221216833714
 20
7.149999868288688
 30
0.0
 11
61.34221216833714
 21
7.149999868288688
 31
0.0
  0
LINE
  5
9178
330
1A
100
AcDbEntity
  8
ZUWAKU
100
AcDbLine
 10
41.21721216833714
 20
7.149999868288688
 30
0.0
 11
42.96721216833714
 21
7.149999868288688
 31
0.0
  0
LINE
  5
9179
330
1A
100
AcDbEntity
  8
ZUWAKU
100
AcDbLine
 10
35.676347105653
 20
7.516905900121713
 30
0.0
 11
33.80807723102122
 21
13.43309383645565
 31
0.0
  0
ARC
  5
917A
330
1A
100
AcDbEntity
  8
ZUWAKU
100
AcDbCircle
 10
33.30744633182587
 20
17.12499986828869
 30
0.0
 40
0.525
100
AcDbArc
 50
270.0
 51
342.4744316262769
  0
LINE
  5
917B
330
1A
100
AcDbEntity
  8
ZUWAKU
100
AcDbLine
 10
33.30744633182587
 20
16.59999986828868
 30
0.0
 11
33.16721216833718
 21
16.59999986828868
 31
0.0
  0
LINE
  5
917C
330
1A
100
AcDbEntity
  8
ZUWAKU
100
AcDbLine
 10
33.16721216833718
 20
13.79999986828868
 30
0.0
 11
33.30744633182587
 21
13.79999986828868
 31
0.0
  0
ARC
  5
917D
330
1A
100
AcDbEntity
  8
ZUWAKU
100
AcDbCircle
 10
33.16721216833718
 20
17.12499986828869
 30
0.0
 40
0.525
100
AcDbArc
 50
180.0
 51
270.0
  0
LINE
  5
917E
330
1A
100
AcDbEntity
  8
ZUWAKU
100
AcDbLine
 10
30.36721216833711
 20
7.149999868288688
 30
0.0
 11
32.11721216833712
 21
7.149999868288688
 31
0.0
  0
ARC
  5
917F
330
1A
100
AcDbEntity
  8
ZUWAKU
100
AcDbCircle
 10
32.11721216833712
 20
7.674999868288686
 30
0.0
 40
0.525
100
AcDbArc
 50
270.0
 51
0.0
  0
LINE
  5
9180
330
1A
100
AcDbEntity
  8
ZUWAKU
100
AcDbLine
 10
32.64221216833721
 20
7.674999868288686
 30
0.0
 11
32.64221216833721
 21
13.27499986828868
 31
0.0
  0
LINE
  5
9181
330
1A
100
AcDbEntity
  8
ZUWAKU
100
AcDbLine
 10
27.39221216833721
 20
9.424999868288686
 30
0.0
 11
27.39221216833721
 21
7.674999868288686
 31
0.0
  0
ARC
  5
9182
330
1A
100
AcDbEntity
  8
ZUWAKU
100
AcDbCircle
 10
26.86721216833712
 20
7.674999868288686
 30
0.0
 40
0.525
100
AcDbArc
 50
270.0
 51
0.0
  0
ARC
  5
9183
330
1A
100
AcDbEntity
  8
ZUWAKU
100
AcDbCircle
 10
26.86721216833712
 20
9.424999868288686
 30
0.0
 40
0.525
100
AcDbArc
 50
0.0
 51
90.0
  0
ARC
  5
9184
330
1A
100
AcDbEntity
  8
ZUWAKU
100
AcDbCircle
 10
30.36721216833711
 20
7.674999868288686
 30
0.0
 40
0.525
100
AcDbArc
 50
180.0
 51
270.0
  0
ARC
  5
9185
330
1A
100
AcDbEntity
  8
ZUWAKU
100
AcDbCircle
 10
33.30744633182587
 20
13.27499986828868
 30
0.0
 40
0.525
100
AcDbArc
 50
17.52556837372303
 51
90.0
  0
ARC
  5
9186
330
1A
100
AcDbEntity
  8
ZUWAKU
100
AcDbCircle
 10
33.16721216833718
 20
13.27499986828868
 30
0.0
 40
0.525
100
AcDbArc
 50
90.0
 51
180.0
  0
ARC
  5
9187
330
1A
100
AcDbEntity
  8
ZUWAKU
100
AcDbCircle
 10
41.21721216833714
 20
7.674999868288686
 30
0.0
 40
0.525
100
AcDbArc
 50
180.0
 51
270.0
  0
LINE
  5
9188
330
1A
100
AcDbEntity
  8
ZUWAKU
100
AcDbLine
 10
36.17697800484847
 20
7.149999868288688
 30
0.0
 11
37.87586738445748
 21
7.149999868288688
 31
0.0
  0
ARC
  5
9189
330
1A
100
AcDbEntity
  8
ZUWAKU
100
AcDbCircle
 10
37.87586738445748
 20
7.674999868288686
 30
0.0
 40
0.525
100
AcDbArc
 50
270.0
 51
17.52556837372303
  0
LINE
  5
918A
330
1A
100
AcDbEntity
  8
ZUWAKU
100
AcDbLine
 10
38.37649828365295
 20
7.83309383645566
 30
0.0
 11
36.05010690517929
 21
15.1999998682887
 31
0.0
  0
ARC
  5
918B
330
1A
100
AcDbEntity
  8
ZUWAKU
100
AcDbCircle
 10
36.17697800484847
 20
7.674999868288686
 30
0.0
 40
0.525
100
AcDbArc
 50
197.525568373723
 51
270.0
  0
ARC
  5
918C
330
1A
100
AcDbEntity
  8
ZUWAKU
100
AcDbCircle
 10
57.84221216833714
 20
9.949999868288685
 30
0.0
 40
2.799999999999999
100
AcDbArc
 50
180.0
 51
270.0
  0
ARC
  5
918D
330
1A
100
AcDbEntity
  8
ZUWAKU
100
AcDbCircle
 10
50.14221216833721
 20
9.949999868288685
 30
0.0
 40
2.799999999999999
100
AcDbArc
 50
270.0
 51
0.0
  0
LINE
  5
918E
330
1A
100
AcDbEntity
  8
ZUWAKU
100
AcDbLine
 10
51.71206064932073
 20
14.73505037462751
 30
0.0
 11
48.80226267467595
 21
17.64484834927218
 31
0.0
  0
LINE
  5
918F
330
1A
100
AcDbEntity
  8
ZUWAKU
100
AcDbLine
 10
50.14221216833721
 20
10.47499986828869
 30
0.0
 11
50.14221216833721
 21
11.76520189364403
 31
0.0
  0
ARC
  5
9190
330
1A
100
AcDbEntity
  8
ZUWAKU
100
AcDbCircle
 10
48.74221216833712
 20
11.76520189364403
 30
0.0
 40
1.399999999999999
100
AcDbArc
 50
0.0
 51
45.0
  0
ARC
  5
9191
330
1A
100
AcDbEntity
  8
ZUWAKU
100
AcDbCircle
 10
49.61721216833712
 20
10.47499986828869
 30
0.0
 40
0.525
100
AcDbArc
 50
270.0
 51
0.0
  0
LINE
  5
9192
330
1A
100
AcDbEntity
  8
ZUWAKU
100
AcDbLine
 10
46.11721216833712
 20
7.674999868288686
 30
0.0
 11
46.11721216833712
 21
9.424999868288686
 31
0.0
  0
ARC
  5
9193
330
1A
100
AcDbEntity
  8
ZUWAKU
100
AcDbCircle
 10
46.64221216833721
 20
7.674999868288686
 30
0.0
 40
0.525
100
AcDbArc
 50
180.0
 51
270.0
  0
ARC
  5
9194
330
1A
100
AcDbEntity
  8
ZUWAKU
100
AcDbCircle
 10
42.96721216833714
 20
7.674999868288686
 30
0.0
 40
0.525
100
AcDbArc
 50
270.0
 51
0.0
  0
ARC
  5
9195
330
1A
100
AcDbEntity
  8
ZUWAKU
100
AcDbCircle
 10
46.64221216833721
 20
9.424999868288686
 30
0.0
 40
0.525
100
AcDbArc
 50
90.0
 51
180.0
  0
LINE
  5
9196
330
1A
100
AcDbEntity
  8
ZUWAKU
100
AcDbLine
 10
46.64221216833721
 20
9.949999868288685
 30
0.0
 11
49.61721216833712
 21
9.949999868288685
 31
0.0
  0
LINE
  5
9197
330
1A
100
AcDbEntity
  8
ZUWAKU
100
AcDbLine
 10
46.64221216833721
 20
7.149999868288688
 30
0.0
 11
50.14221216833721
 21
7.149999868288688
 31
0.0
  0
LINE
  5
9198
330
1A
100
AcDbEntity
  8
ZUWAKU
100
AcDbLine
 10
46.82236368735368
 20
15.66494936194986
 30
0.0
 11
49.73216166199836
 21
12.7551513873052
 31
0.0
  0
LINE
  5
9199
330
1A
100
AcDbEntity
  8
ZUWAKU
100
AcDbLine
 10
52.94221216833716
 20
9.949999868288685
 30
0.0
 11
52.94221216833716
 21
11.76520189364403
 31
0.0
  0
ARC
  5
919A
330
1A
100
AcDbEntity
  8
ZUWAKU
100
AcDbCircle
 10
48.74221216833712
 20
11.76520189364399
 30
0.0
 40
4.199999999999999
100
AcDbArc
 50
0.0
 51
45.0
  0
ARC
  5
919B
330
1A
100
AcDbEntity
  8
ZUWAKU
100
AcDbCircle
 10
58.89221216833721
 20
10.99999986828868
 30
0.0
 40
1.049999999999999
100
AcDbArc
 50
180.0
 51
270.0
  0
ARC
  5
919C
330
1A
100
AcDbEntity
  8
ZUWAKU
100
AcDbCircle
 10
61.34221216833714
 20
9.949999868288685
 30
0.0
 40
2.799999999999999
100
AcDbArc
 50
270.0
 51
0.0
  0
LINE
  5
919D
330
1A
100
AcDbEntity
  8
ZUWAKU
100
AcDbLine
 10
66.76721216833721
 20
7.149999868288688
 30
0.0
 11
68.51721216833721
 21
7.149999868288688
 31
0.0
  0
ARC
  5
919E
330
1A
100
AcDbEntity
  8
ZUWAKU
100
AcDbCircle
 10
66.76721216833721
 20
7.674999868288686
 30
0.0
 40
0.525
100
AcDbArc
 50
180.0
 51
270.0
  0
ARC
  5
919F
330
1A
100
AcDbEntity
  8
ZUWAKU
100
AcDbCircle
 10
60.29221216833718
 20
10.99999986828868
 30
0.0
 40
1.049999999999999
100
AcDbArc
 50
270.0
 51
0.0
  0
ARC
  5
91A0
330
1A
100
AcDbEntity
  8
ZUWAKU
100
AcDbCircle
 10
68.51721216833721
 20
7.674999868288686
 30
0.0
 40
0.525
100
AcDbArc
 50
270.0
 51
0.0
  0
LINE
  5
91A1
330
1A
100
AcDbEntity
  8
ZUWAKU
100
AcDbLine
 10
42.96721216833714
 20
23.24999986828868
 30
0.0
 11
41.21721216833714
 21
23.24999986828868
 31
0.0
  0
ARC
  5
91A2
330
1A
100
AcDbEntity
  8
ZUWAKU
100
AcDbCircle
 10
32.11721216833712
 20
22.72499986828868
 30
0.0
 40
0.525
100
AcDbArc
 50
0.0
 51
90.0
  0
LINE
  5
91A3
330
1A
100
AcDbEntity
  8
ZUWAKU
100
AcDbLine
 10
32.11721216833712
 20
23.24999986828868
 30
0.0
 11
30.36721216833711
 21
23.24999986828868
 31
0.0
  0
ARC
  5
91A4
330
1A
100
AcDbEntity
  8
ZUWAKU
100
AcDbCircle
 10
26.86721216833712
 20
22.72499986828868
 30
0.0
 40
0.525
100
AcDbArc
 50
0.0
 51
90.0
  0
ARC
  5
91A5
330
1A
100
AcDbEntity
  8
ZUWAKU
100
AcDbCircle
 10
30.36721216833711
 20
22.72499986828868
 30
0.0
 40
0.525
100
AcDbArc
 50
90.0
 51
180.0
  0
ARC
  5
91A6
330
1A
100
AcDbEntity
  8
ZUWAKU
100
AcDbCircle
 10
26.86721216833712
 20
20.97499986828868
 30
0.0
 40
0.525
100
AcDbArc
 50
270.0
 51
0.0
  0
LINE
  5
91A7
330
1A
100
AcDbEntity
  8
ZUWAKU
100
AcDbLine
 10
27.39221216833721
 20
22.72499986828868
 30
0.0
 11
27.39221216833721
 21
20.97499986828868
 31
0.0
  0
ARC
  5
91A8
330
1A
100
AcDbEntity
  8
ZUWAKU
100
AcDbCircle
 10
41.21721216833714
 20
22.72499986828868
 30
0.0
 40
0.525
100
AcDbArc
 50
90.0
 51
180.0
  0
LINE
  5
91A9
330
1A
100
AcDbEntity
  8
ZUWAKU
100
AcDbLine
 10
36.17697800484847
 20
23.24999986828868
 30
0.0
 11
37.87586738445748
 21
23.24999986828868
 31
0.0
  0
ARC
  5
91AA
330
1A
100
AcDbEntity
  8
ZUWAKU
100
AcDbCircle
 10
37.87586738445748
 20
22.72499986828868
 30
0.0
 40
0.525
100
AcDbArc
 50
342.4744316262769
 51
90.0
  0
LINE
  5
91AB
330
1A
100
AcDbEntity
  8
ZUWAKU
100
AcDbLine
 10
38.37649828365295
 20
22.56690590012171
 30
0.0
 11
37.31485865051513
 21
19.20504706185211
 31
0.0
  0
ARC
  5
91AC
330
1A
100
AcDbEntity
  8
ZUWAKU
100
AcDbCircle
 10
36.17697800484847
 20
22.72499986828868
 30
0.0
 40
0.525
100
AcDbArc
 50
90.0
 51
162.4744316262769
  0
LINE
  5
91AD
330
1A
100
AcDbEntity
  8
ZUWAKU
100
AcDbLine
 10
48.3922121683372
 20
23.24999986828868
 30
0.0
 11
51.89221216833721
 21
23.24999986828868
 31
0.0
  0
LINE
  5
91AE
330
1A
100
AcDbEntity
  8
ZUWAKU
100
AcDbLine
 10
51.89221216833721
 20
20.44999986828868
 30
0.0
 11
48.91721216833719
 21
20.44999986828868
 31
0.0
  0
ARC
  5
91AF
330
1A
100
AcDbEntity
  8
ZUWAKU
100
AcDbCircle
 10
48.91721216833719
 20
19.92499986828868
 30
0.0
 40
0.525
100
AcDbArc
 50
90.0
 51
180.0
  0
LINE
  5
91B0
330
1A
100
AcDbEntity
  8
ZUWAKU
100
AcDbLine
 10
48.3922121683372
 20
19.92499986828868
 30
0.0
 11
48.3922121683372
 21
18.63479784293334
 31
0.0
  0
ARC
  5
91B1
330
1A
100
AcDbEntity
  8
ZUWAKU
100
AcDbCircle
 10
42.96721216833714
 20
22.72499986828868
 30
0.0
 40
0.525
100
AcDbArc
 50
0.0
 51
90.0
  0
LINE
  5
91B2
330
1A
100
AcDbEntity
  8
ZUWAKU
100
AcDbLine
 10
45.59221216833714
 20
20.44999986828868
 30
0.0
 11
45.59221216833714
 21
18.63479784293334
 31
0.0
  0
ARC
  5
91B3
330
1A
100
AcDbEntity
  8
ZUWAKU
100
AcDbCircle
 10
48.3922121683372
 20
20.44999986828868
 30
0.0
 40
2.799999999999999
100
AcDbArc
 50
90.0
 51
180.0
  0
ARC
  5
91B4
330
1A
100
AcDbEntity
  8
ZUWAKU
100
AcDbCircle
 10
57.31721216833716
 20
22.72499986828868
 30
0.0
 40
0.525
100
AcDbArc
 50
0.0
 51
90.0
  0
ARC
  5
91B5
330
1A
100
AcDbEntity
  8
ZUWAKU
100
AcDbCircle
 10
55.56721216833716
 20
22.72499986828868
 30
0.0
 40
0.525
100
AcDbArc
 50
90.0
 51
180.0
  0
LINE
  5
91B6
330
1A
100
AcDbEntity
  8
ZUWAKU
100
AcDbLine
 10
57.31721216833716
 20
23.24999986828868
 30
0.0
 11
55.56721216833716
 21
23.24999986828868
 31
0.0
  0
ARC
  5
91B7
330
1A
100
AcDbEntity
  8
ZUWAKU
100
AcDbCircle
 10
51.89221216833721
 20
22.72499986828868
 30
0.0
 40
0.525
100
AcDbArc
 50
0.0
 51
90.0
  0
ARC
  5
91B8
330
1A
100
AcDbEntity
  8
ZUWAKU
100
AcDbCircle
 10
51.89221216833721
 20
20.97499986828868
 30
0.0
 40
0.525
100
AcDbArc
 50
270.0
 51
0.0
  0
LINE
  5
91B9
330
1A
100
AcDbEntity
  8
ZUWAKU
100
AcDbLine
 10
52.41721216833719
 20
22.72499986828868
 30
0.0
 11
52.41721216833719
 21
20.97499986828868
 31
0.0
  0
LINE
  5
91BA
330
1A
100
AcDbEntity
  8
ZUWAKU
100
AcDbLine
 10
68.51721216833721
 20
23.24999986828868
 30
0.0
 11
66.76721216833721
 21
23.24999986828868
 31
0.0
  0
ARC
  5
91BB
330
1A
100
AcDbEntity
  8
ZUWAKU
100
AcDbCircle
 10
66.76721216833721
 20
22.72499986828868
 30
0.0
 40
0.525
100
AcDbArc
 50
90.0
 51
180.0
  0
ARC
  5
91BC
330
1A
100
AcDbEntity
  8
ZUWAKU
100
AcDbCircle
 10
63.61721216833712
 20
22.72499986828868
 30
0.0
 40
0.525
100
AcDbArc
 50
0.0
 51
90.0
  0
LINE
  5
91BD
330
1A
100
AcDbEntity
  8
ZUWAKU
100
AcDbLine
 10
63.61721216833712
 20
23.24999986828868
 30
0.0
 11
61.86721216833712
 21
23.24999986828868
 31
0.0
  0
ARC
  5
91BE
330
1A
100
AcDbEntity
  8
ZUWAKU
100
AcDbCircle
 10
61.86721216833712
 20
22.72499986828868
 30
0.0
 40
0.525
100
AcDbArc
 50
90.0
 51
180.0
  0
ARC
  5
91BF
330
1A
100
AcDbEntity
  8
ZUWAKU
100
AcDbCircle
 10
68.51721216833721
 20
22.72499986828868
 30
0.0
 40
0.525
100
AcDbArc
 50
0.0
 51
90.0
  0
TEXT
  5
91C0
330
1A
100
AcDbEntity
  8
MOJI
100
AcDbText
 10
239.827202694407
 20
18.00492092569607
 30
0.0
 40
5.599999999999999
  1
曲り（出）
 41
0.9
  7
ｽﾀｲﾙ1
100
AcDbText
  0
TEXT
  5
91C1
330
1A
100
AcDbEntity
  8
MOJI
100
AcDbText
 10
239.827202694407
 20
3.204920925696104
 30
0.0
 40
5.599999999999999
  1
ＶＭ１６０
 41
0.9
  7
ｽﾀｲﾙ1
100
AcDbText
  0
LINE
  5
91C2
330
1A
100
AcDbEntity
  8
ZUWAKU
100
AcDbLine
 10
208.2466013036239
 20
29.99999986828868
 30
0.0
 11
208.2466013036239
 21
0.7999998682887508
 31
0.0
  0
LINE
  5
91C3
330
1A
100
AcDbEntity
  8
ZUWAKU
100
AcDbLine
 10
208.6466013036238
 20
29.99999986828868
 30
0.0
 11
208.646601303624
 21
0.7999998682887508
 31
0.0
  0
LINE
  5
91C4
330
1A
100
AcDbEntity
  8
ZUWAKU
100
AcDbLine
 10
208.4466013036237
 20
29.99999986828868
 30
0.0
 11
208.446601303624
 21
0.7999998682887508
 31
0.0
  0
TEXT
  5
91C5
330
1A
100
AcDbEntity
  8
ZUWAKU
100
AcDbText
 10
209.7240463258335
 20
9.6553564066743
 30
0.0
 40
4.0
  1
サイズ
 41
0.9
  7
ｽﾀｲﾙ1
100
AcDbText
  0
TEXT
  5
91C6
330
1A
100
AcDbEntity
  8
ZUWAKU
100
AcDbText
 10
209.7240463258333
 20
24.05535640667426
 30
0.0
 40
4.0
  1
品名
 41
0.9
  7
ｽﾀｲﾙ1
100
AcDbText
  0
LINE
  5
91C7
330
1A
100
AcDbEntity
  8
ZUWAKU
100
AcDbLine
 10
648.8172025237602
 20
15.19999986828871
 30
0.0
 11
697.2490105620972
 21
15.19999986828871
 31
0.0
  0
LINE
  5
91C8
330
1A
100
AcDbEntity
  8
ZUWAKU
100
AcDbLine
 10
648.8172025237604
 20
15.39999986828872
 30
0.0
 11
697.2490105620972
 21
15.39999986828871
 31
0.0
  0
LINE
  5
91C9
330
1A
100
AcDbEntity
  8
ZUWAKU
100
AcDbLine
 10
648.8172025237602
 20
15.59999986828871
 30
0.0
 11
697.2490105620972
 21
15.59999986828871
 31
0.0
  0
TEXT
  5
91CA
330
1A
100
AcDbEntity
  8
ZUWAKU
100
AcDbText
 10
658.2039377008584
 20
18.00492092569607
 30
0.0
 40
5.599999999999999
  1
　　．　　．　　
 41
0.9
  7
ｽﾀｲﾙ1
100
AcDbText
  0
LINE
  5
91CB
330
1A
100
AcDbEntity
  8
ZUWAKU
100
AcDbLine
 10
505.1991795116968
 20
15.19999986828872
 30
0.0
 11
552.5269557796685
 21
15.19999986828872
 31
0.0
  0
LINE
  5
91CC
330
1A
100
AcDbEntity
  8
ZUWAKU
100
AcDbLine
 10
505.1991795116968
 20
15.39999986828871
 30
0.0
 11
552.5269557796685
 21
15.39999986828871
 31
0.0
  0
LINE
  5
91CD
330
1A
100
AcDbEntity
  8
ZUWAKU
100
AcDbLine
 10
505.1991795116968
 20
15.59999986828871
 30
0.0
 11
552.5269557796685
 21
15.59999986828871
 31
0.0
  0
TEXT
  5
91CE
330
1A
100
AcDbEntity
  8
MOJI
100
AcDbText
 10
463.246432004558
 20
11.94261758994866
 30
0.0
 40
5.599999999999999
  1
ＰＧ２３□
 41
0.9
  7
ｽﾀｲﾙ1
100
AcDbText
  0
LINE
  5
91CF
330
1A
100
AcDbEntity
  8
ZUWAKU
100
AcDbLine
 10
447.6243639845472
 20
29.99999986828868
 30
0.0
 11
447.6243639845474
 21
0.7999998682887508
 31
0.0
  0
LINE
  5
91D0
330
1A
100
AcDbEntity
  8
ZUWAKU
100
AcDbLine
 10
447.8243639845472
 20
29.99999986828868
 30
0.0
 11
447.8243639845475
 21
0.7999998682887508
 31
0.0
  0
LINE
  5
91D1
330
1A
100
AcDbEntity
  8
ZUWAKU
100
AcDbLine
 10
447.4243639845474
 20
29.99999986828868
 30
0.0
 11
447.4243639845474
 21
0.7999998682887508
 31
0.0
  0
TEXT
  5
91D2
330
1A
100
AcDbEntity
  8
MOJI
100
AcDbText
 10
528.0409079858689
 20
18.00492092569607
 30
0.0
 40
5.599999999999999
  1
Ａ３
 41
0.9
  7
ｽﾀｲﾙ1
100
AcDbText
  0
LINE
  5
91D3
330
1A
100
AcDbEntity
  8
ZUWAKU
100
AcDbLine
 10
504.9991795116969
 20
29.99999986828868
 30
0.0
 11
504.999179511697
 21
0.7999998682887508
 31
0.0
  0
LINE
  5
91D4
330
1A
100
AcDbEntity
  8
ZUWAKU
100
AcDbLine
 10
505.1991795116968
 20
29.99999986828868
 30
0.0
 11
505.1991795116971
 21
0.7999998682887508
 31
0.0
  0
LINE
  5
91D5
330
1A
100
AcDbEntity
  8
ZUWAKU
100
AcDbLine
 10
504.799179511697
 20
29.99999986828868
 30
0.0
 11
504.799179511697
 21
0.7999998682887508
 31
0.0
  0
TEXT
  5
91D6
330
1A
100
AcDbEntity
  8
ZUWAKU
100
AcDbText
 10
461.9484764378114
 20
2.614070779428175
 30
0.0
 40
3.0
  1
□には色品番が入ります
 41
0.9
  7
ｽﾀｲﾙ1
100
AcDbText
  0
TEXT
  5
91D7
330
1A
100
AcDbEntity
  8
ZUWAKU
100
AcDbText
 10
506.6766245339067
 20
9.6553564066743
 30
0.0
 40
4.0
  1
縮尺
 41
0.9
  7
ｽﾀｲﾙ1
100
AcDbText
  0
TEXT
  5
91D8
330
1A
100
AcDbEntity
  8
MOJI
100
AcDbText
 10
528.0409079858689
 20
3.204920925696104
 30
0.0
 40
5.599999999999999
  1
１/２
 41
0.9
  7
ｽﾀｲﾙ1
100
AcDbText
  0
TEXT
  5
91D9
330
1A
100
AcDbEntity
  8
ZUWAKU
100
AcDbText
 10
449.3018090067569
 20
24.05535640667426
 30
0.0
 40
4.0
  1
品番
 41
0.9
  7
ｽﾀｲﾙ1
100
AcDbText
  0
TEXT
  5
91DA
330
1A
100
AcDbEntity
  8
ZUWAKU
100
AcDbText
 10
506.6766245339065
 20
24.05535640667426
 30
0.0
 40
4.0
  1
用紙
 41
0.9
  7
ｽﾀｲﾙ1
100
AcDbText
  0
LINE
  5
91DB
330
1A
100
AcDbEntity
  8
ZUWAKU
100
AcDbLine
 10
648.6172025237603
 20
29.99999986828868
 30
0.0
 11
648.6172025237606
 21
0.7999998682887508
 31
0.0
  0
LINE
  5
91DC
330
1A
100
AcDbEntity
  8
ZUWAKU
100
AcDbLine
 10
648.8172025237604
 20
29.99999986828868
 30
0.0
 11
648.8172025237607
 21
0.7999998682887508
 31
0.0
  0
LINE
  5
91DD
330
1A
100
AcDbEntity
  8
ZUWAKU
100
AcDbLine
 10
648.4172025237605
 20
29.99999986828868
 30
0.0
 11
648.4172025237605
 21
0.7999998682887508
 31
0.0
  0
LINE
  5
91DE
330
1A
100
AcDbEntity
  8
ZUWAKU
100
AcDbLine
 10
552.7269557796683
 20
29.99999986828868
 30
0.0
 11
552.7269557796684
 21
0.7999998682887508
 31
0.0
  0
LINE
  5
91DF
330
1A
100
AcDbEntity
  8
ZUWAKU
100
AcDbLine
 10
552.9269557796683
 20
29.99999986828868
 30
0.0
 11
552.9269557796685
 21
0.7999998682887508
 31
0.0
  0
LINE
  5
91E0
330
1A
100
AcDbEntity
  8
ZUWAKU
100
AcDbLine
 10
552.5269557796685
 20
29.99999986828868
 30
0.0
 11
552.5269557796685
 21
0.7999998682887508
 31
0.0
  0
TEXT
  5
91E1
330
1A
100
AcDbEntity
  8
ZUWAKU
100
AcDbText
 10
650.29464754597
 20
24.05535640667426
 30
0.0
 40
4.0
  1
DATE
 41
0.9
  7
ｽﾀｲﾙ1
100
AcDbText
  0
LINE
  5
91E2
330
1A
100
AcDbEntity
  8
ZUWAKU
100
AcDbLine
 10
697.2490105620972
 20
29.99999986828868
 30
0.0
 11
697.2490105620972
 21
0.7999998682887508
 31
0.0
  0
LINE
  5
91E3
330
1A
100
AcDbEntity
  8
ZUWAKU
100
AcDbLine
 10
697.4490105620973
 20
29.99999986828868
 30
0.0
 11
697.4490105620973
 21
0.7999998682887508
 31
0.0
  0
LINE
  5
91E4
330
1A
100
AcDbEntity
  8
ZUWAKU
100
AcDbLine
 10
697.6490105620971
 20
29.99999986828868
 30
0.0
 11
697.6490105620974
 21
0.7999998682887508
 31
0.0
  0
LINE
  5
91E5
330
1A
100
AcDbEntity
  8
ZUWAKU
100
AcDbLine
 10
697.8490105620972
 20
29.99999986828868
 30
0.0
 11
697.8490105620974
 21
0.7999998682887508
 31
0.0
  0
TEXT
  5
91E6
330
1A
100
AcDbEntity
  8
ZUWAKU
100
AcDbText
 10
708.5280842057998
 20
17.55383920397548
 30
0.0
 40
6.0
  1
積水化学工業株式会社
 41
0.9
  7
ｽﾀｲﾙ1
100
AcDbText
  0
TEXT
  5
91E7
330
1A
100
AcDbEntity
  8
ZUWAKU
100
AcDbText
 10
708.5280842057998
 20
6.648840182142748
 30
0.0
 40
6.0
  1
建材事業部
 41
0.9
  7
ｽﾀｲﾙ1
100
AcDbText
  0
DIMENSION
  5
95F7
330
1A
100
AcDbEntity
  8
SUNPOU
100
AcDbDimension
  2
*D1
 10
384.6296201159157
 20
190.13880607043
 30
0.0
 11
379.6296201159156
 21
118.9091997042801
 31
0.0
 70
    32
  3
STANDARD
100
AcDbAlignedDimension
 13
525.0277554369509
 23
47.67959333813007
 33
0.0
 14
422.472437161751
 24
190.13880607043
 34
0.0
 50
90.0
100
AcDbRotatedDimension
1001
ACAD
1000
DSTYLE
1002
{
1070
    41
1040
7.0
1070
    42
1040
6.0
1070
    43
1040
14.0
1070
    44
1040
3.0
1070
    73
1070
     0
1070
    74
1070
     0
1070
    77
1070
     3
1070
   140
1040
6.0
1070
   141
1040
30.0
1070
   147
1040
2.0
1070
   172
1070
     1
1070
   176
1070
   256
1070
   177
1070
   256
1070
   178
1070
   256
1070
   271
1070
     0
1070
   272
1070
     0
1070
   341
1005
6D
1070
     5
1000
OPEN
1070
   371
1070
    -1
1070
   372
1070
    -1
1002
}
  0
DIMENSION
  5
95F8
330
1A
100
AcDbEntity
  8
SUNPOU
100
AcDbDimension
  2
*D2
 10
404.7150612919999
 20
163.1795933381298
 30
0.0
 11
399.7150612919999
 21
176.65919970428
 31
0.0
 70
    32
  3
STANDARD
100
AcDbAlignedDimension
 13
422.472437161751
 23
190.13880607043
 33
0.0
 14
421.9777554369511
 24
163.1795933381298
 34
0.0
 50
90.0
100
AcDbRotatedDimension
1001
ACAD
1000
DSTYLE
1002
{
1070
    41
1040
7.0
1070
    42
1040
6.0
1070
    43
1040
14.0
1070
    44
1040
3.0
1070
    73
1070
     0
1070
    74
1070
     0
1070
    77
1070
     3
1070
   140
1040
6.0
1070
   141
1040
30.0
1070
   147
1040
2.0
1070
   172
1070
     1
1070
   176
1070
   256
1070
   177
1070
   256
1070
   178
1070
   256
1070
   271
1070
     0
1070
   272
1070
     0
1070
   341
1005
6D
1070
     5
1000
OPEN
1070
   371
1070
    -1
1070
   372
1070
    -1
1002
}
  0
LINE
  5
95F9
330
1A
100
AcDbEntity
  8
SEIHIN
100
AcDbLine
 10
327.6576704139183
 20
48.63981271328646
 30
0.0
 11
109.4054377101182
 21
48.63981271328646
 31
0.0
  0
LINE
  5
95FA
330
1A
100
AcDbEntity
  8
SEIHIN
100
AcDbLine
 10
140.1508751357182
 20
47.67959327418646
 30
0.0
 11
327.6576704139183
 21
47.67959334418645
 31
0.0
  0
LINE
  5
95FB
330
1A
100
AcDbEntity
  8
SEIHIN
100
AcDbLine
 10
86.95741005061824
 20
57.67959334418645
 30
0.0
 11
327.6576704139183
 21
57.67959334418645
 31
0.0
  0
LINE
  5
95FC
330
1A
100
AcDbEntity
  8
SEIHIN
100
AcDbLine
 10
327.6576704139183
 20
190.1388047365864
 30
0.0
 11
37.59556298601819
 21
190.1388047365864
 31
0.0
  0
LINE
  5
95FD
330
1A
100
AcDbEntity
  8
SEIHIN
100
AcDbLine
 10
38.89813302401819
 20
163.1795954422864
 30
0.0
 11
327.6576704139183
 21
163.1795933441864
 31
0.0
  0
LINE
  5
95FE
330
1A
100
AcDbEntity
  8
SEIHIN
100
AcDbLine
 10
68.58211038951822
 20
107.6600928322864
 30
0.0
 11
64.51028613691824
 21
117.2173884229864
 31
0.0
  0
LINE
  5
95FF
330
1A
100
AcDbEntity
  8
SEIHIN
100
AcDbLine
 10
85.02219645621824
 20
58.42713215368644
 30
0.0
 11
82.26491911651828
 21
68.44307337868645
 31
0.0
  0
LINE
  5
9600
330
1A
100
AcDbEntity
  8
SEIHIN
100
AcDbLine
 10
79.23999829531817
 20
78.38145871628643
 30
0.0
 11
75.94960956221825
 21
88.23514026568645
 31
0.0
  0
LINE
  5
9601
330
1A
100
AcDbEntity
  8
SEIHIN
100
AcDbLine
 10
82.26491911651828
 20
68.44307337868645
 30
0.0
 11
79.23999829531817
 21
78.38145871628643
 31
0.0
  0
LINE
  5
9602
330
1A
100
AcDbEntity
  8
SEIHIN
100
AcDbLine
 10
75.94960956221825
 20
88.23514026568645
 30
0.0
 11
72.39612965231822
 21
97.99702507428646
 31
0.0
  0
LINE
  5
9603
330
1A
100
AcDbEntity
  8
SEIHIN
100
AcDbLine
 10
72.39612965231822
 20
97.99702507428646
 30
0.0
 11
68.58211038951822
 21
107.6600928322864
 31
0.0
  0
LINE
  5
9604
330
1A
100
AcDbEntity
  8
SEIHIN
100
AcDbLine
 10
118.2099099303181
 20
47.91967682518645
 30
0.0
 11
96.27945004351818
 21
48.63981269278645
 31
0.0
  0
LINE
  5
9605
330
1A
100
AcDbEntity
  8
SEIHIN
100
AcDbLine
 10
100.8358675087182
 20
48.71179135498644
 30
0.0
 11
98.55115069391821
 21
48.75552405118646
 31
0.0
  0
LINE
  5
9606
330
1A
100
AcDbEntity
  8
SEIHIN
100
AcDbLine
 10
94.3956314536182
 20
50.25676000788644
 30
0.0
 11
92.47421675111821
 21
56.95531489748645
 31
0.0
  0
ARC
  5
9607
330
1A
100
AcDbEntity
  8
SEIHIN
100
AcDbCircle
 10
96.33783986455183
 20
50.83463193819051
 30
0.0
 40
2.026354804917167
100
AcDbArc
 50
196.5694924963391
 51
267.9856157712649
  0
LINE
  5
9608
330
1A
100
AcDbEntity
  8
SEIHIN
100
AcDbLine
 10
98.55115069391821
 20
48.75552405118646
 30
0.0
 11
96.26661269311831
 21
48.80952935178647
 31
0.0
  0
ARC
  5
9609
330
1A
100
AcDbEntity
  8
SEIHIN
100
AcDbCircle
 10
96.3669570600182
 20
50.63789744578645
 30
0.0
 40
1.999999999999993
100
AcDbArc
 50
196.0050186310003
 51
267.4923205682964
  0
LINE
  5
960A
330
1A
100
AcDbEntity
  8
SEIHIN
100
AcDbLine
 10
85.98980303471819
 20
57.67959334418645
 30
0.0
 11
86.95741005061824
 21
57.67959334418645
 31
0.0
  0
ARC
  5
960B
330
1A
100
AcDbEntity
  8
SEIHIN
100
AcDbCircle
 10
85.98980303471819
 20
58.67959334418646
 30
0.0
 40
1.0
100
AcDbArc
 50
194.6232018720997
 51
270.0
  0
ARC
  5
960C
330
1A
100
AcDbEntity
  8
SEIHIN
100
AcDbCircle
 10
91.49881206444467
 20
56.66079367438647
 30
0.0
 40
1.0188983274947
100
AcDbArc
 50
16.80161165972678
 51
89.20336009017541
  0
LINE
  5
960D
330
1A
100
AcDbEntity
  8
SEIHIN
100
AcDbLine
 10
109.4054377670182
 20
48.63981269278645
 30
0.0
 11
105.4054389739181
 21
48.65526892228643
 31
0.0
  0
LINE
  5
960E
330
1A
100
AcDbEntity
  8
SEIHIN
100
AcDbLine
 10
105.4054389739181
 20
48.65526892228643
 30
0.0
 11
103.1206141258182
 21
48.67836339378647
 31
0.0
  0
LINE
  5
960F
330
1A
100
AcDbEntity
  8
SEIHIN
100
AcDbLine
 10
103.1206141258182
 20
48.67836339378647
 30
0.0
 11
100.8358675087182
 21
48.71179135498644
 31
0.0
  0
LINE
  5
9610
330
1A
100
AcDbEntity
  8
SEIHIN
100
AcDbLine
 10
140.1508751357182
 20
47.67959327418646
 30
0.0
 11
118.2099099303181
 21
47.91967682518645
 31
0.0
  0
LINE
  5
9611
330
1A
100
AcDbEntity
  8
SEIHIN
100
AcDbLine
 10
45.70636926541829
 20
154.2526003436864
 30
0.0
 11
40.39314417491823
 21
163.1795954422864
 31
0.0
  0
LINE
  5
9612
330
1A
100
AcDbEntity
  8
SEIHIN
100
AcDbLine
 10
50.77825514921824
 20
145.1863091902864
 30
0.0
 11
45.70636926541829
 21
154.2526003436864
 31
0.0
  0
LINE
  5
9613
330
1A
100
AcDbEntity
  8
SEIHIN
100
AcDbLine
 10
60.18359987381825
 20
126.6620424108864
 30
0.0
 11
55.60515849241824
 21
135.9872486905864
 31
0.0
  0
LINE
  5
9614
330
1A
100
AcDbEntity
  8
SEIHIN
100
AcDbLine
 10
64.51028613691824
 20
117.2173884229864
 30
0.0
 11
60.18359987381825
 21
126.6620424108864
 31
0.0
  0
LINE
  5
9615
330
1A
100
AcDbEntity
  8
SEIHIN
100
AcDbLine
 10
55.60515849241824
 20
135.9872486905864
 30
0.0
 11
50.77825514921824
 21
145.1863091902864
 31
0.0
  0
LINE
  5
9616
330
1A
100
AcDbEntity
  8
SEIHIN
100
AcDbLine
 10
36.90087823511828
 20
163.1795954422864
 30
0.0
 11
35.59830391651826
 21
188.0341328241864
 31
0.0
  0
LINE
  5
9617
330
1A
100
AcDbEntity
  8
SEIHIN
100
AcDbLine
 10
38.89813302401819
 20
163.1795954422864
 30
0.0
 11
36.90087823511828
 21
163.1795954422864
 31
0.0
  0
ARC
  5
9618
330
1A
100
AcDbEntity
  8
SEIHIN
100
AcDbCircle
 10
37.59556298601819
 20
188.1388047365864
 30
0.0
 40
2.0
100
AcDbArc
 50
90.0
 51
182.9999999999999
  0
LINE
  5
9619
330
1A
100
AcDbEntity
  8
SEIHIN
100
AcDbLine
 10
345.9900783354182
 20
48.17959334418645
 30
0.0
 11
345.9900783354182
 21
190.0031756948231
 31
0.0
  0
LINE
  5
961A
330
1A
100
AcDbEntity
  8
SEIHIN
100
AcDbLine
 10
340.1354703153183
 20
57.98444007508646
 30
0.0
 11
345.9900769437181
 21
58.17959313258644
 31
0.0
  0
LINE
  5
961B
330
1A
100
AcDbEntity
  8
SEIHIN
100
AcDbLine
 10
345.9900769437181
 20
49.12365770418642
 30
0.0
 11
341.9934514010183
 21
48.99473763048644
 31
0.0
  0
LINE
  5
961C
330
1A
100
AcDbEntity
  8
SEIHIN
100
AcDbLine
 10
334.3206364604181
 20
47.79061194838644
 30
0.0
 11
345.9900783354182
 21
48.17959334418645
 31
0.0
  0
LINE
  5
961D
330
1A
100
AcDbEntity
  8
SEIHIN
100
AcDbLine
 10
327.6576700652181
 20
57.67959351628644
 30
0.0
 11
330.9798839534182
 21
57.70718813858644
 31
0.0
  0
LINE
  5
961E
330
1A
100
AcDbEntity
  8
SEIHIN
100
AcDbLine
 10
330.9725078786182
 20
48.66640055528643
 30
0.0
 11
327.6576700652181
 21
48.63981269278645
 31
0.0
  0
ARC
  5
961F
330
1A
100
AcDbEntity
  8
SEIHIN
100
AcDbCircle
 10
327.6576704139183
 20
247.6795933441864
 30
0.0
 40
200.0
100
AcDbArc
 50
270.0
 51
271.9091524330005
  0
LINE
  5
9620
330
1A
100
AcDbEntity
  8
SEIHIN
100
AcDbLine
 10
341.9934514010183
 20
48.99473763048644
 30
0.0
 11
334.3206348861181
 21
48.74726019318643
 31
0.0
  0
LINE
  5
9621
330
1A
100
AcDbEntity
  8
SEIHIN
100
AcDbLine
 10
334.3206348861181
 20
48.74726019318643
 30
0.0
 11
330.9725078786182
 21
48.66640055528643
 31
0.0
  0
LINE
  5
9622
330
1A
100
AcDbEntity
  8
SEIHIN
100
AcDbLine
 10
334.3206348861181
 20
57.79061182378644
 30
0.0
 11
340.1354703153183
 21
57.98444007508646
 31
0.0
  0
LINE
  5
9623
330
1A
100
AcDbEntity
  8
SEIHIN
100
AcDbLine
 10
330.9798839534182
 20
57.70718813858644
 30
0.0
 11
334.3206348861181
 21
57.79061182378644
 31
0.0
  0
LINE
  5
9624
330
1A
100
AcDbEntity
  8
SEIHIN
100
AcDbLine
 10
345.9900769437181
 20
190.0031757073864
 30
0.0
 11
332.950218925941
 21
190.1208908288659
 31
0.0
  0
LINE
  5
9625
330
1A
100
AcDbEntity
  8
SEIHIN
100
AcDbLine
 10
334.3206364604181
 20
163.2906119483864
 30
0.0
 11
345.9900783354182
 21
163.6795933441864
 31
0.0
  0
LINE
  5
9626
330
1A
100
AcDbEntity
  8
SEIHIN
100
AcDbLine
 10
327.6576700652181
 20
163.1795954422864
 30
0.0
 11
330.9896144116182
 21
163.2073488549864
 31
0.0
  0
LINE
  5
9627
330
1A
100
AcDbEntity
  8
SEIHIN
100
AcDbLine
 10
330.9896144116182
 20
163.2073488549864
 30
0.0
 11
334.3206348861181
 21
163.2906090931864
 31
0.0
  0
LINE
  5
9628
330
1A
100
AcDbEntity
  8
SEIHIN
100
AcDbLine
 10
332.950218925941
 20
190.1208908288659
 30
0.0
 11
327.6576700652181
 21
190.1388060764864
 31
0.0
  0
LINE
  5
9629
330
1A
100
AcDbEntity
  8
CENTER_L
 48
5.0
100
AcDbLine
 10
525.027756828651
 20
457.934776934697
 30
0.0
 11
525.027756828651
 21
213.392141741918
 31
0.0
  0
LINE
  5
962A
330
1A
100
AcDbEntity
  8
SEIHIN
100
AcDbLine
 10
568.9869581059507
 20
277.7294479079277
 30
0.0
 11
568.9869581059508
 21
346.2125225674278
 31
0.0
  0
LINE
  5
962B
330
1A
100
AcDbEntity
  8
SEIHIN
100
AcDbLine
 10
580.4286350195508
 20
272.7294490612278
 30
0.0
 11
580.4286350195509
 21
339.9117291844277
 31
0.0
  0
LINE
  5
962C
330
1A
100
AcDbEntity
  8
SEIHIN
100
AcDbLine
 10
577.725922006851
 20
272.7294490612278
 30
0.0
 11
577.725922006851
 21
344.9117244161279
 31
0.0
  0
LINE
  5
962D
330
1A
100
AcDbEntity
  8
SEIHIN
100
AcDbLine
 10
481.3803483431508
 20
277.7294442928277
 30
0.0
 11
481.3803534669077
 21
477.7160530903813
 31
0.0
  0
LINE
  5
962E
330
1A
100
AcDbEntity
  8
SEIHIN
100
AcDbLine
 10
426.7777700607509
 20
532.3934779442279
 30
0.0
 11
426.7777700607508
 21
267.8122595823278
 31
0.0
  0
LINE
  5
962F
330
1A
100
AcDbEntity
  8
SEIHIN
100
AcDbLine
 10
420.4724432871509
 20
537.1239632573279
 30
0.0
 11
420.4724432871508
 21
245.7290148937016
 31
0.0
  0
LINE
  5
9630
330
1A
100
AcDbEntity
  8
SEIHIN
100
AcDbLine
 10
479.489383678851
 20
479.6264040912278
 30
0.0
 11
479.4893760864507
 21
277.7294442928277
 31
0.0
  0
LINE
  5
9631
330
1A
100
AcDbEntity
  8
SEIHIN
100
AcDbLine
 10
471.9806035557508
 20
277.7294479079277
 30
0.0
 11
471.9806035557509
 21
487.1326802650278
 31
0.0
  0
LINE
  5
9632
330
1A
100
AcDbEntity
  8
SEIHIN
100
AcDbLine
 10
424.4777460281509
 20
534.6033275998279
 30
0.0
 11
424.4777460281508
 21
270.7294450081278
 31
0.0
  0
DIMENSION
  5
9633
330
1A
100
AcDbEntity
  8
SUNPOU
100
AcDbDimension
  2
*D3
 10
730.866958636551
 20
214.551264499981
 30
0.0
 11
575.669700961851
 21
219.551264499981
 31
0.0
 70
    32
  3
STANDARD
100
AcDbAlignedDimension
 13
420.4724432871509
 23
188.13880473053
 33
0.0
 14
730.866958636551
 24
190.00317570133
 34
0.0
100
AcDbRotatedDimension
1001
ACAD
1000
DSTYLE
1002
{
1070
    41
1040
7.0
1070
    42
1040
6.0
1070
    43
1040
14.0
1070
    44
1040
3.0
1070
    73
1070
     0
1070
    74
1070
     0
1070
    77
1070
     3
1070
   140
1040
6.0
1070
   141
1040
30.0
1070
   147
1040
2.0
1070
   172
1070
     1
1070
   176
1070
   256
1070
   177
1070
   256
1070
   178
1070
   256
1070
   271
1070
     0
1070
   272
1070
     0
1070
   341
1005
6D
1070
     5
1000
OPEN
1070
   371
1070
    -1
1070
   372
1070
    -1
1002
}
  0
LINE
  5
9634
330
1A
100
AcDbEntity
  8
SEIHIN
100
AcDbLine
 10
686.8669588750511
 20
122.77959700983
 30
0.0
 11
617.684682149251
 21
122.77959700983
 31
0.0
  0
LINE
  5
9635
330
1A
100
AcDbEntity
  8
SEIHIN
100
AcDbLine
 10
712.534550715151
 20
48.45792326003004
 30
0.0
 11
612.6781918978511
 21
48.45792326003004
 31
0.0
  0
LINE
  5
9636
330
1A
100
AcDbEntity
  8
SEIHIN
100
AcDbLine
 10
525.027756828651
 20
47.67959326813005
 30
0.0
 11
712.534550715151
 21
47.67959333813005
 31
0.0
  0
LINE
  5
9637
330
1A
100
AcDbEntity
  8
SEIHIN
100
AcDbLine
 10
427.2029299920511
 20
165.87959643763
 30
0.0
 11
730.866958636551
 21
165.87959333813
 31
0.0
  0
LINE
  5
9638
330
1A
100
AcDbEntity
  8
SEIHIN
100
AcDbLine
 10
712.534550715151
 20
190.13880471913
 30
0.0
 11
422.472437161751
 21
190.13880607043
 31
0.0
  0
ARC
  5
9639
330
1A
100
AcDbEntity
  8
NOKITOI
 48
0.5
100
AcDbCircle
 10
-415.5698694596426
 20
230.095614816491
 30
0.0
 40
998.3999999999999
100
AcDbArc
 50
349.9208000871306
 51
353.0740991196978
  0
ARC
  5
963A
330
1A
100
AcDbEntity
  8
NOKITOI
 48
0.5
100
AcDbCircle
 10
-415.5698694596426
 20
230.095614816491
 30
0.0
 40
999.9999999999998
100
AcDbArc
 50
349.9208000871306
 51
353.0775507891167
  0
ARC
  5
963B
330
1A
100
AcDbEntity
  8
NOKITOI
 48
0.5
100
AcDbCircle
 10
94.91995865657385
 20
-38.49113178283857
 30
0.0
 40
390.0000000000088
100
AcDbArc
 50
14.79702449878731
 51
31.68717393609645
  0
ARC
  5
963C
330
1A
100
AcDbEntity
  8
NOKITOI
 48
0.5
100
AcDbCircle
 10
94.91995865658294
 20
-38.49113178283585
 30
0.0
 40
391.6000000000002
100
AcDbArc
 50
15.08870500059643
 51
27.63121951273521
  0
DIMENSION
  5
963D
330
1A
100
AcDbEntity
  8
SUNPOU
100
AcDbDimension
  2
*D4
 10
643.0056672481764
 20
137.77959333813
 30
0.0
 11
638.0056672481764
 21
92.72959330313012
 31
0.0
 70
    32
  3
STANDARD
100
AcDbAlignedDimension
 13
525.027756828651
 23
47.67959326813005
 33
0.0
 14
575.8722541604509
 24
137.77959333813
 34
0.0
 50
90.0
100
AcDbRotatedDimension
1001
ACAD
1000
DSTYLE
1002
{
1070
    41
1040
7.0
1070
    42
1040
6.0
1070
    43
1040
14.0
1070
    44
1040
3.0
1070
    73
1070
     0
1070
    74
1070
     0
1070
    77
1070
     3
1070
   140
1040
6.0
1070
   141
1040
30.0
1070
   147
1040
2.0
1070
   172
1070
     1
1070
   176
1070
   256
1070
   177
1070
   256
1070
   178
1070
   256
1070
   271
1070
     0
1070
   272
1070
     0
1070
   341
1005
6D
1070
     5
1000
OPEN
1070
   371
1070
    -1
1070
   372
1070
    -1
1002
}
  0
LINE
  5
963E
330
1A
100
AcDbEntity
  8
SEIHIN
100
AcDbLine
 10
574.9167252963509
 20
108.41487761893
 30
0.0
 11
575.407005331451
 21
110.37959333813
 31
0.0
  0
LINE
  5
963F
330
1A
100
AcDbEntity
  8
SEIHIN
100
AcDbLine
 10
458.242171556051
 20
108.37959333813
 30
0.0
 11
457.1514861347512
 21
110.37959333813
 31
0.0
  0
LINE
  5
9640
330
1A
100
AcDbEntity
  8
SEIHIN
100
AcDbLine
 10
602.9316384976511
 20
101.82893317503
 30
0.0
 11
602.8873373454509
 21
110.49583968083
 31
0.0
  0
LINE
  5
9641
330
1A
100
AcDbEntity
  8
SEIHIN
100
AcDbLine
 10
572.3418791478509
 20
107.95809742373
 30
0.0
 11
572.637115854551
 21
110.37959199703
 31
0.0
  0
ARC
  5
9642
330
1A
100
AcDbEntity
  8
SEIHIN
100
AcDbCircle
 10
-415.692331244749
 20
229.64890011163
 30
0.0
 40
998.2499999999999
100
AcDbArc
 50
350.0351278822785
 51
353.1379998208001
  0
ARC
  5
9643
330
1A
100
AcDbEntity
  8
SEIHIN
100
AcDbCircle
 10
-415.692331244749
 20
229.64890011163
 30
0.0
 40
1002.7
100
AcDbArc
 50
349.9484262152875
 51
353.1558364365997
  0
ARC
  5
9644
330
1A
100
AcDbEntity
  8
SEIHIN
100
AcDbCircle
 10
-415.692331244749
 20
229.64890011163
 30
0.0
 40
1002.199999999999
100
AcDbArc
 50
349.9714305166
 51
353.1547695817999
  0
ARC
  5
9645
330
1A
100
AcDbEntity
  8
SEIHIN
100
AcDbCircle
 10
-415.692331244749
 20
229.64890011163
 30
0.0
 40
1000.0
100
AcDbArc
 50
349.957701542099
 51
353.1500659143994
  0
LINE
  5
9646
330
1A
100
AcDbEntity
  8
SEIHIN
100
AcDbLine
 10
461.0837001984512
 20
108.02270140803
 30
0.0
 11
460.1256747430509
 21
110.37959199703
 31
0.0
  0
ARC
  5
9647
330
1A
100
AcDbEntity
  8
SEIHIN
100
AcDbCircle
 10
95.14487906555109
 20
-39.35109469276994
 30
0.0
 40
391.7499999999999
100
AcDbArc
 50
15.34757332199963
 51
22.47062991570105
  0
ARC
  5
9648
330
1A
100
AcDbEntity
  8
SEIHIN
100
AcDbCircle
 10
95.14487906555109
 20
-39.35109469276994
 30
0.0
 40
390.0
100
AcDbArc
 50
14.92908040489998
 51
31.75125391330068
  0
ARC
  5
9649
330
1A
100
AcDbEntity
  8
SEIHIN
100
AcDbCircle
 10
95.14487906555109
 20
-39.35109469276994
 30
0.0
 40
390.0
100
AcDbArc
 50
14.92908040485999
 51
31.75125391330068
  0
ARC
  5
964A
330
1A
100
AcDbEntity
  8
SEIHIN
100
AcDbCircle
 10
95.14487906555109
 20
-39.35109469276994
 30
0.0
 40
387.8
100
AcDbArc
 50
14.68007087560062
 51
31.57033399959925
  0
ARC
  5
964B
330
1A
100
AcDbEntity
  8
SEIHIN
100
AcDbCircle
 10
95.14487906555109
 20
-39.35109469276994
 30
0.0
 40
387.3
100
AcDbArc
 50
14.62320187209975
 51
31.52897859499851
  0
LINE
  5
964C
330
1A
100
AcDbEntity
  8
SEIHIN
100
AcDbLine
 10
559.797172684051
 20
132.77959492363
 30
0.0
 11
558.3296467250509
 21
90.75517621193005
 31
0.0
  0
LINE
  5
964D
330
1A
100
AcDbEntity
  8
SEIHIN
100
AcDbLine
 10
586.953004140251
 20
99.71553501053007
 30
0.0
 11
582.959731358851
 21
132.77350034873
 31
0.0
  0
ARC
  5
964E
330
1A
100
AcDbEntity
  8
NOKITOI
 48
0.5
100
AcDbCircle
 10
529.7321589247823
 20
1050.368527577362
 30
0.0
 40
999.9999999999994
100
AcDbArc
 50
267.3333119235699
 51
271.9779273652207
  0
ARC
  5
964F
330
1A
100
AcDbEntity
  8
NOKITOI
 48
0.5
100
AcDbCircle
 10
529.7321589247823
 20
1050.368527577362
 30
0.0
 40
998.3999999999994
100
AcDbArc
 50
267.3988777093053
 51
271.9779273652207
  0
DIMENSION
  5
9650
330
1A
100
AcDbEntity
  8
SUNPOU
100
AcDbDimension
  2
*D5
 10
570.5478147279091
 20
35.74691451348485
 30
0.0
 11
525.1328829408444
 21
40.74691451348485
 31
0.0
 70
    32
  3
STANDARD
100
AcDbAlignedDimension
 13
479.7179511537797
 23
51.76414162281776
 33
0.0
 14
570.5478147279091
 24
51.77367441050555
 34
0.0
100
AcDbRotatedDimension
1001
ACAD
1000
DSTYLE
1002
{
1070
    41
1040
7.0
1070
    42
1040
6.0
1070
    43
1040
14.0
1070
    44
1040
3.0
1070
    73
1070
     0
1070
    74
1070
     0
1070
    77
1070
     3
1070
   140
1040
6.0
1070
   141
1040
30.0
1070
   147
1040
2.0
1070
   172
1070
     1
1070
   176
1070
   256
1070
   177
1070
   256
1070
   178
1070
   256
1070
   271
1070
     0
1070
   272
1070
     0
1070
   341
1005
6D
1070
     5
1000
OPEN
1070
   371
1070
    -1
1070
   372
1070
    -1
1002
}
  0
LINE
  5
9651
330
1A
100
AcDbEntity
  8
SEIHIN
100
AcDbLine
 10
562.1482480948509
 20
54.40283701133006
 30
0.0
 11
538.4472657626509
 21
52.54785338723005
 31
0.0
  0
ARC
  5
9652
330
1A
100
AcDbEntity
  8
SEIHIN
100
AcDbCircle
 10
525.027755436951
 20
1050.37959333813
 30
0.0
 40
998.2500000000001
100
AcDbArc
 50
270.5899160468007
 51
272.1204520664013
  0
LINE
  5
9653
330
1A
100
AcDbEntity
  8
SEIHIN
100
AcDbLine
 10
561.819588083551
 20
55.55970449303003
 30
0.0
 11
538.4472657626509
 21
54.97004598683005
 31
0.0
  0
LINE
  5
9654
330
1A
100
AcDbEntity
  8
SEIHIN
100
AcDbLine
 10
557.2309692090509
 20
59.29317552903007
 30
0.0
 11
484.1708440964509
 21
59.29317552903007
 31
0.0
  0
LINE
  5
9655
330
1A
100
AcDbEntity
  8
SEIHIN
100
AcDbLine
 10
483.8592161124511
 20
60.37959311463004
 30
0.0
 11
557.2689075654509
 21
60.37959311463004
 31
0.0
  0
LINE
  5
9656
330
1A
100
AcDbEntity
  8
SEIHIN
100
AcDbLine
 10
483.6462785189509
 20
61.12196989663004
 30
0.0
 11
557.2948355858509
 21
61.12196989663004
 31
0.0
  0
ARC
  5
9657
330
1A
100
AcDbEntity
  8
SEIHIN
100
AcDbCircle
 10
525.027755436951
 20
1050.37959333813
 30
0.0
 40
1002.199999999999
100
AcDbArc
 50
267.5128881250968
 51
272.2346741246015
  0
ARC
  5
9658
330
1A
100
AcDbEntity
  8
SEIHIN
100
AcDbCircle
 10
525.027755436951
 20
1050.37959333813
 30
0.0
 40
1000.0
100
AcDbArc
 50
267.6038484566013
 51
272.2484030991004
  0
ARC
  5
9659
330
1A
100
AcDbEntity
  8
SEIHIN
100
AcDbCircle
 10
525.027755436951
 20
1050.37959333813
 30
0.0
 40
1002.7
100
AcDbArc
 50
267.4923205683322
 51
272.257678425921
  0
ARC
  5
965A
330
1A
100
AcDbEntity
  8
SEIHIN
100
AcDbCircle
 10
525.027755436951
 20
1050.37959333813
 30
0.0
 40
1000.0
100
AcDbArc
 50
267.6038484565977
 51
272.2484030991004
  0
LINE
  5
965B
330
1A
100
AcDbEntity
  8
NOKITOI
 48
0.5
100
AcDbLine
 10
479.631240307117
 20
61.96852745019658
 30
0.0
 11
474.9501919325822
 21
61.96852757736394
 31
0.0
  0
LINE
  5
965C
330
1A
100
AcDbEntity
  8
NOKITOI
 48
0.5
100
AcDbLine
 10
472.9530900517885
 20
60.36852757736449
 30
0.0
 11
478.4336886290754
 21
60.36852757736449
 31
0.0
  0
LINE
  5
965D
330
1A
100
AcDbEntity
  8
SEIHIN
100
AcDbLine
 10
481.598411936151
 20
63.87959368833003
 30
0.0
 11
475.813259620051
 21
63.87959368833003
 31
0.0
  0
ARC
  5
965E
330
1A
100
AcDbEntity
  8
SEIHIN
100
AcDbCircle
 10
476.3898656766811
 20
56.67961178871514
 30
0.0
 40
0.9999815494339795
100
AcDbArc
 50
16.00423569520748
 51
90.00035369510086
  0
LINE
  5
965F
330
1A
100
AcDbEntity
  8
SEIHIN
100
AcDbLine
 10
476.7670233433512
 20
58.17959312653005
 30
0.0
 11
471.2523420041509
 21
58.17959312653005
 31
0.0
  0
LINE
  5
9660
330
1A
100
AcDbEntity
  8
SEIHIN
100
AcDbLine
 10
472.9468490032511
 20
60.37959333813006
 30
0.0
 11
478.047527355851
 21
60.37959333813006
 31
0.0
  0
ARC
  5
9661
330
1A
100
AcDbEntity
  8
SEIHIN
100
AcDbCircle
 10
476.389859503651
 20
56.67959333813005
 30
0.0
 40
0.9999999999999969
100
AcDbArc
 50
16.00501863100026
 51
90.0
  0
LINE
  5
9662
330
1A
100
AcDbEntity
  8
SEIHIN
100
AcDbLine
 10
478.047527355851
 20
60.37959333813006
 30
0.0
 11
472.9468490032511
 21
60.37959333813006
 31
0.0
  0
LINE
  5
9663
330
1A
100
AcDbEntity
  8
SEIHIN
100
AcDbLine
 10
476.3885636513509
 20
64.87959292093006
 30
0.0
 11
481.0614634936509
 21
64.87959292093006
 31
0.0
  0
LINE
  5
9664
330
1A
100
AcDbEntity
  8
SEIHIN
100
AcDbLine
 10
475.816388863851
 20
62.12959293583003
 30
0.0
 11
480.119725007351
 21
62.12959293583003
 31
0.0
  0
ARC
  5
9665
330
1A
100
AcDbEntity
  8
NOKITOI
 48
0.5
100
AcDbCircle
 10
474.9501919325822
 20
63.96852757736394
 30
0.0
 40
1.999999999999926
100
AcDbArc
 50
195.0887049995153
 51
270.0
  0
LINE
  5
9666
330
1A
100
AcDbEntity
  8
SEIHIN
100
AcDbLine
 10
473.3554024880511
 20
63.41817923193005
 30
0.0
 11
474.002083081551
 21
62.74480041423004
 31
0.0
  0
ARC
  5
9667
330
1A
100
AcDbEntity
  8
NOKITOI
 48
0.5
100
AcDbCircle
 10
472.9530900517885
 20
61.36852757736448
 30
0.0
 40
0.9999999999999346
100
AcDbArc
 50
194.797024498789
 51
270.0
  0
ARC
  5
9668
330
1A
100
AcDbEntity
  8
SEIHIN
100
AcDbCircle
 10
471.2522383101965
 20
59.17890776279751
 30
0.0
 40
0.9993146416471962
100
AcDbArc
 50
194.6742939125657
 51
270.0059453006709
  0
ARC
  5
9669
330
1A
100
AcDbEntity
  8
SEIHIN
100
AcDbCircle
 10
470.8666829726269
 20
58.67959309798701
 30
0.0
 40
0.999999587839275
100
AcDbArc
 50
194.6231938140495
 51
269.999265325947
  0
LINE
  5
966A
330
1A
100
AcDbEntity
  8
SEIHIN
100
AcDbLine
 10
475.7391114419511
 20
62.13062670393004
 30
0.0
 11
475.816388863851
 21
62.12959293583003
 31
0.0
  0
LINE
  5
966B
330
1A
100
AcDbEntity
  8
SEIHIN
100
AcDbLine
 10
474.002083081551
 20
62.74480041423004
 30
0.0
 11
474.822868842451
 21
62.30108201813004
 31
0.0
  0
LINE
  5
966C
330
1A
100
AcDbEntity
  8
SEIHIN
100
AcDbLine
 10
474.822868842451
 20
62.30108201813004
 30
0.0
 11
475.7391114419511
 21
62.13062670393004
 31
0.0
  0
ARC
  5
966D
330
1A
100
AcDbEntity
  8
SEIHIN
100
AcDbCircle
 10
472.9468490032511
 20
61.37959333813006
 30
0.0
 40
1.000000000000005
100
AcDbArc
 50
194.9290804048999
 51
270.0
  0
ARC
  5
966E
330
1A
100
AcDbEntity
  8
SEIHIN
100
AcDbCircle
 10
470.8666833359509
 20
58.67959333813004
 30
0.0
 40
1.000000000000014
100
AcDbArc
 50
194.6232018720997
 51
270.0
  0
LINE
  5
966F
330
1A
100
AcDbEntity
  8
SEIHIN
100
AcDbLine
 10
470.8666833359509
 20
57.67959333813005
 30
0.0
 11
476.389859503651
 21
57.67959333813005
 31
0.0
  0
ARC
  5
9670
330
1A
100
AcDbEntity
  8
SEIHIN
100
AcDbCircle
 10
95.14487906555109
 20
-39.35109469276994
 30
0.0
 40
393.5
100
AcDbArc
 50
15.34714292550014
 51
21.38005534509799
  0
ARC
  5
9671
330
1A
100
AcDbEntity
  8
SEIHIN
100
AcDbCircle
 10
95.14487906555109
 20
-39.35109469276994
 30
0.0
 40
394.5
100
AcDbArc
 50
15.4305425182006
 51
21.3232071478008
  0
ARC
  5
9672
330
1A
100
AcDbEntity
  8
SEIHIN
100
AcDbCircle
 10
475.8233470633341
 20
65.13777176673784
 30
0.0
 40
1.258217094909471
100
AcDbArc
 50
195.7987035537838
 51
269.5487833419025
  0
LINE
  5
9673
330
1A
100
AcDbEntity
  8
SEIHIN
100
AcDbLine
 10
472.924286361451
 20
64.33488277363005
 30
0.0
 11
472.9455907529511
 21
64.26115934113005
 31
0.0
  0
LINE
  5
9674
330
1A
100
AcDbEntity
  8
SEIHIN
100
AcDbLine
 10
475.4246075337509
 20
65.61352353853004
 30
0.0
 11
475.5600888913511
 21
65.31958416413004
 31
0.0
  0
LINE
  5
9675
330
1A
100
AcDbEntity
  8
SEIHIN
100
AcDbLine
 10
475.5600888913511
 20
65.31958416413004
 30
0.0
 11
475.782354611651
 21
65.08429203493006
 31
0.0
  0
LINE
  5
9676
330
1A
100
AcDbEntity
  8
SEIHIN
100
AcDbLine
 10
475.782354611651
 20
65.08429203493006
 30
0.0
 11
476.068158883351
 21
64.93231509183004
 31
0.0
  0
LINE
  5
9677
330
1A
100
AcDbEntity
  8
SEIHIN
100
AcDbLine
 10
476.068158883351
 20
64.93231509183004
 30
0.0
 11
476.3885636513509
 21
64.87959292093006
 31
0.0
  0
LINE
  5
9678
330
1A
100
AcDbEntity
  8
SEIHIN
100
AcDbLine
 10
472.946037787751
 20
64.25968040083006
 30
0.0
 11
473.3554024880511
 21
63.41817923193005
 31
0.0
  0
LINE
  5
9679
330
1A
100
AcDbEntity
  8
SEIHIN
100
AcDbLine
 10
459.6175451462511
 20
107.48546984353
 30
0.0
 11
460.3372414296512
 21
106.53292429013
 31
0.0
  0
LINE
  5
967A
330
1A
100
AcDbEntity
  8
SEIHIN
100
AcDbLine
 10
458.9648444836509
 20
108.02270140803
 30
0.0
 11
459.6175451462511
 21
107.48546984353
 31
0.0
  0
LINE
  5
967B
330
1A
100
AcDbEntity
  8
SEIHIN
100
AcDbLine
 10
458.9648444836509
 20
108.02270140803
 30
0.0
 11
458.242171556051
 21
108.37959333813
 31
0.0
  0
LINE
  5
967C
330
1A
100
AcDbEntity
  8
SEIHIN
100
AcDbLine
 10
461.089243430451
 20
105.18755805053
 30
0.0
 11
461.5653057282511
 21
104.10037678043
 31
0.0
  0
LINE
  5
967D
330
1A
100
AcDbEntity
  8
SEIHIN
100
AcDbLine
 10
460.3372414296512
 20
106.53292429013
 30
0.0
 11
461.089243430451
 21
105.18755805053
 31
0.0
  0
LINE
  5
967E
330
1A
100
AcDbEntity
  8
SEIHIN
100
AcDbLine
 10
461.595197457651
 20
106.74615990673
 30
0.0
 11
461.240371007251
 21
107.63308819693
 31
0.0
  0
LINE
  5
967F
330
1A
100
AcDbEntity
  8
SEIHIN
100
AcDbLine
 10
461.240371007251
 20
107.63308819693
 30
0.0
 11
461.0837001984512
 21
108.02270140803
 31
0.0
  0
LINE
  5
9680
330
1A
100
AcDbEntity
  8
SEIHIN
100
AcDbLine
 10
462.0880980675511
 20
105.50372716343
 30
0.0
 11
461.595197457651
 21
106.74615990673
 31
0.0
  0
LINE
  5
9681
330
1A
100
AcDbEntity
  8
SEIHIN
100
AcDbLine
 10
462.638993996951
 20
104.10037678043
 30
0.0
 11
462.0880980675511
 21
105.50372716343
 31
0.0
  0
LINE
  5
9682
330
1A
100
AcDbEntity
  8
SEIHIN
100
AcDbLine
 10
484.1982324307509
 20
55.57087617303006
 30
0.0
 11
481.874664563451
 21
63.67144309293005
 31
0.0
  0
LINE
  5
9683
330
1A
100
AcDbEntity
  8
CENTER_L
100
AcDbLine
 10
525.027756828651
 20
62.94674866769327
 30
0.0
 11
525.027756828651
 21
46.19048920450604
 31
0.0
  0
LINE
  5
9684
330
1A
100
AcDbEntity
  8
SEIHIN
100
AcDbLine
 10
482.9839368050508
 20
63.43103614013006
 30
0.0
 11
485.1086784785509
 21
56.02364376493006
 31
0.0
  0
ARC
  5
9685
330
1A
100
AcDbEntity
  8
SEIHIN
100
AcDbCircle
 10
525.027755436951
 20
1050.37959333813
 30
0.0
 40
996.5000000000001
100
AcDbArc
 50
267.7177917677015
 51
269.1815256244997
  0
ARC
  5
9686
330
1A
100
AcDbEntity
  8
SEIHIN
100
AcDbCircle
 10
525.027755436951
 20
1050.37959333813
 30
0.0
 40
998.2500000000001
100
AcDbArc
 50
267.7179499256984
 51
269.4055284541017
  0
ARC
  5
9687
330
1A
100
AcDbEntity
  8
SEIHIN
100
AcDbCircle
 10
525.027755436951
 20
1050.37959333813
 30
0.0
 40
995.5000000000001
100
AcDbArc
 50
267.7283928596022
 51
269.1807033943014
  0
ARC
  5
9688
330
1A
100
AcDbEntity
  8
NOKITOI
 48
0.5
100
AcDbCircle
 10
483.299524831768
 20
53.44926781196739
 30
0.0
 40
2.000000000000095
100
AcDbArc
 50
196.3724734765223
 51
267.3333119235504
  0
ARC
  5
9689
330
1A
100
AcDbEntity
  8
SEIHIN
100
AcDbCircle
 10
483.3028282116511
 20
53.25220406033006
 30
0.0
 40
1.999999999999993
100
AcDbArc
 50
196.0050186310003
 51
267.6038484565977
  0
LINE
  5
968A
330
1A
100
AcDbEntity
  8
SEIHIN
100
AcDbLine
 10
477.3510970523509
 20
56.95531489143005
 30
0.0
 11
479.3213622637459
 21
50.08645433324875
 31
0.0
  0
LINE
  5
968B
330
1A
100
AcDbEntity
  8
SEIHIN
100
AcDbLine
 10
479.702969331051
 20
50.56952752593005
 30
0.0
 11
477.7277310078509
 21
57.45571706753003
 31
0.0
  0
ARC
  5
968C
330
1A
100
AcDbEntity
  8
SEIHIN
100
AcDbCircle
 10
481.6241562773407
 20
51.12038380413048
 30
0.0
 40
1.998599990450011
100
AcDbArc
 50
195.9990295981189
 51
267.5186956780391
  0
ARC
  5
968D
330
1A
100
AcDbEntity
  8
SEIHIN
100
AcDbCircle
 10
481.2438373611509
 20
50.63789743973007
 30
0.0
 40
1.999999999999993
100
AcDbArc
 50
196.0050186310003
 51
267.4923205682964
  0
ARC
  5
968E
330
1A
100
AcDbEntity
  8
SEIHIN
100
AcDbCircle
 10
485.4042967277848
 20
55.92585865404257
 30
0.0
 40
1.257220605305867
100
AcDbArc
 50
196.4008068346511
 51
267.324699595614
  0
ARC
  5
968F
330
1A
100
AcDbEntity
  8
SEIHIN
100
AcDbCircle
 10
485.4119551019307
 20
55.93562698278879
 30
0.0
 40
3.0172851438064
100
AcDbArc
 50
196.2547118947846
 51
267.4684027223432
  0
ARC
  5
9690
330
1A
100
AcDbEntity
  8
NOKITOI
 48
0.5
100
AcDbCircle
 10
484.5129805013822
 20
54.99513738516395
 30
0.0
 40
2.000000000000056
100
AcDbArc
 50
196.3724734766114
 51
267.3988776934213
  0
ARC
  5
9691
330
1A
100
AcDbEntity
  8
NOKITOI
 48
0.5
100
AcDbCircle
 10
478.4336886290754
 20
59.36852757736449
 30
0.0
 40
1.000000000000015
100
AcDbArc
 50
16.3724734765168
 51
90.0
  0
ARC
  5
9692
330
1A
100
AcDbEntity
  8
NOKITOI
 48
0.5
100
AcDbCircle
 10
479.6312402799505
 20
60.96852745019657
 30
0.0
 40
1.000000000000037
100
AcDbArc
 50
16.37248012523589
 51
89.99999844346808
  0
LINE
  5
9693
330
1A
100
AcDbEntity
  8
NOKITOI
 48
0.5
100
AcDbLine
 10
479.393138137773
 20
59.65040811989957
 30
0.0
 11
481.3806258143726
 21
52.88550672689712
 31
0.0
  0
LINE
  5
9694
330
1A
100
AcDbEntity
  8
NOKITOI
 48
0.5
100
AcDbLine
 10
482.5940814839879
 20
54.43137630009039
 30
0.0
 11
480.590689755938
 21
61.25040810406824
 31
0.0
  0
ARC
  5
9695
330
1A
100
AcDbEntity
  8
SEIHIN
100
AcDbCircle
 10
476.767119326486
 20
57.18027057402434
 30
0.0
 40
0.9993225571151922
100
AcDbArc
 50
15.99975344216592
 51
90.00550315661593
  0
LINE
  5
9696
330
1A
100
AcDbEntity
  8
SEIHIN
100
AcDbLine
 10
480.578144330351
 20
61.82854291363006
 30
0.0
 11
480.6001980488511
 21
61.76756736193005
 31
0.0
  0
LINE
  5
9697
330
1A
100
AcDbEntity
  8
SEIHIN
100
AcDbLine
 10
480.119725007351
 20
62.12959293583003
 30
0.0
 11
480.184425849251
 21
62.12521944503004
 31
0.0
  0
LINE
  5
9698
330
1A
100
AcDbEntity
  8
SEIHIN
100
AcDbLine
 10
480.184425849251
 20
62.12521944503004
 30
0.0
 11
480.2547891324508
 21
62.11045146293006
 31
0.0
  0
LINE
  5
9699
330
1A
100
AcDbEntity
  8
SEIHIN
100
AcDbLine
 10
480.2547891324508
 20
62.11045146293006
 30
0.0
 11
480.398108500751
 21
62.04372965103004
 31
0.0
  0
LINE
  5
969A
330
1A
100
AcDbEntity
  8
SEIHIN
100
AcDbLine
 10
480.398108500751
 20
62.04372965103004
 30
0.0
 11
480.514158744151
 21
61.93556491593006
 31
0.0
  0
LINE
  5
969B
330
1A
100
AcDbEntity
  8
SEIHIN
100
AcDbLine
 10
480.514158744151
 20
61.93556491593006
 30
0.0
 11
480.578144330351
 21
61.82854291363006
 31
0.0
  0
LINE
  5
969C
330
1A
100
AcDbEntity
  8
SEIHIN
100
AcDbLine
 10
481.3803531141509
 20
52.70076095383007
 30
0.0
 11
479.489383678951
 21
59.29317566803007
 31
0.0
  0
LINE
  5
969D
330
1A
100
AcDbEntity
  8
SEIHIN
100
AcDbLine
 10
481.380353114191
 20
52.70076095383394
 30
0.0
 11
479.489383678951
 21
59.29317566803007
 31
0.0
  0
ARC
  5
969E
330
1A
100
AcDbEntity
  8
SEIHIN
100
AcDbCircle
 10
478.047527355851
 20
58.87959333813006
 30
0.0
 40
1.499999999999995
100
AcDbArc
 50
16.00501863100026
 51
90.0
  0
LINE
  5
969F
330
1A
100
AcDbEntity
  8
SEIHIN
100
AcDbLine
 10
480.6001980488511
 20
61.76756736193005
 30
0.0
 11
482.5152803843509
 21
55.09106483613004
 31
0.0
  0
LINE
  5
96A0
330
1A
100
AcDbEntity
  8
SEIHIN
100
AcDbLine
 10
485.1086784785509
 20
56.02364376493006
 30
0.0
 11
485.174332994751
 21
55.88256748703006
 31
0.0
  0
LINE
  5
96A1
330
1A
100
AcDbEntity
  8
SEIHIN
100
AcDbLine
 10
485.174332994751
 20
55.88256748703006
 30
0.0
 11
485.2802206462511
 21
55.76847954033005
 31
0.0
  0
LINE
  5
96A2
330
1A
100
AcDbEntity
  8
SEIHIN
100
AcDbLine
 10
485.2802206462511
 20
55.76847954033005
 30
0.0
 11
485.4160894339511
 21
55.69246592303006
 31
0.0
  0
LINE
  5
96A3
330
1A
100
AcDbEntity
  8
SEIHIN
100
AcDbLine
 10
485.4160894339511
 20
55.69246592303006
 30
0.0
 11
485.5694819873511
 21
55.66189758783005
 31
0.0
  0
ARC
  5
96A4
330
1A
100
AcDbEntity
  8
SEIHIN
100
AcDbCircle
 10
525.027755436951
 20
1050.37959333813
 30
0.0
 40
997.75
100
AcDbArc
 50
269.4755472452001
 51
270.522859294698
  0
LINE
  5
96A5
330
1A
100
AcDbEntity
  8
SEIHIN
100
AcDbLine
 10
515.674953598351
 20
52.70076095433006
 30
0.0
 11
534.350638527251
 21
52.70076095433006
 31
0.0
  0
LINE
  5
96A6
330
1A
100
AcDbEntity
  8
SEIHIN
100
AcDbLine
 10
514.6706125797511
 20
52.18332401443007
 30
0.0
 11
514.9051000064511
 21
51.03186460283007
 31
0.0
  0
LINE
  5
96A7
330
1A
100
AcDbEntity
  8
SEIHIN
100
AcDbLine
 10
514.9051000064511
 20
53.45370475513004
 30
0.0
 11
514.9051000064511
 21
51.03186460283007
 31
0.0
  0
LINE
  5
96A8
330
1A
100
AcDbEntity
  8
SEIHIN
100
AcDbLine
 10
514.6706125797511
 20
52.18332401443007
 30
0.0
 11
514.9051000064511
 21
51.03186460283007
 31
0.0
  0
LINE
  5
96A9
330
1A
100
AcDbEntity
  8
SEIHIN
100
AcDbLine
 10
515.895043749151
 20
50.42129735553004
 30
0.0
 11
515.895050838651
 21
52.67139140403003
 31
0.0
  0
LINE
  5
96AA
330
1A
100
AcDbEntity
  8
SEIHIN
100
AcDbLine
 10
514.9051000064511
 20
51.03186460283007
 30
0.0
 11
515.0527258103509
 21
50.75207533623006
 31
0.0
  0
LINE
  5
96AB
330
1A
100
AcDbEntity
  8
SEIHIN
100
AcDbLine
 10
515.0527258103509
 20
50.75207533623006
 30
0.0
 11
515.2829189484512
 21
50.57355536513006
 31
0.0
  0
LINE
  5
96AC
330
1A
100
AcDbEntity
  8
SEIHIN
100
AcDbLine
 10
515.2829189484512
 20
50.57355536513006
 30
0.0
 11
515.548278827051
 21
50.46796025813006
 31
0.0
  0
LINE
  5
96AD
330
1A
100
AcDbEntity
  8
SEIHIN
100
AcDbLine
 10
515.548278827051
 20
50.46796025813006
 30
0.0
 11
515.8225495999511
 21
50.42380421033005
 31
0.0
  0
LINE
  5
96AE
330
1A
100
AcDbEntity
  8
SEIHIN
100
AcDbLine
 10
515.8225495999511
 20
50.42380421033005
 30
0.0
 11
515.895043749151
 21
50.42129735553004
 31
0.0
  0
LINE
  5
96AF
330
1A
100
AcDbEntity
  8
SEIHIN
100
AcDbLine
 10
514.6706125797511
 20
52.18332401443007
 30
0.0
 11
513.242041151251
 21
52.44918647663005
 31
0.0
  0
LINE
  5
96B0
330
1A
100
AcDbEntity
  8
SEIHIN
100
AcDbLine
 10
513.242041151251
 20
52.44918647663005
 30
0.0
 11
512.7730567639511
 21
53.43976262333007
 31
0.0
  0
LINE
  5
96B1
330
1A
100
AcDbEntity
  8
SEIHIN
100
AcDbLine
 10
512.7267439549512
 20
53.50883323073003
 30
0.0
 11
512.7730567639511
 21
53.43976262333007
 31
0.0
  0
LINE
  5
96B2
330
1A
100
AcDbEntity
  8
SEIHIN
100
AcDbLine
 10
512.4509383624511
 20
53.69459250313005
 30
0.0
 11
512.7267439549512
 21
53.50883323073003
 31
0.0
  0
LINE
  5
96B3
330
1A
100
AcDbEntity
  8
SEIHIN
100
AcDbLine
 10
512.005304235751
 20
53.84192307783004
 30
0.0
 11
512.4509383624511
 21
53.69459250313005
 31
0.0
  0
LINE
  5
96B4
330
1A
100
AcDbEntity
  8
SEIHIN
100
AcDbLine
 10
511.4360500758509
 20
53.94044443343005
 30
0.0
 11
512.005304235751
 21
53.84192307783004
 31
0.0
  0
LINE
  5
96B5
330
1A
100
AcDbEntity
  8
SEIHIN
100
AcDbLine
 10
510.7931692784511
 20
53.98126616453004
 30
0.0
 11
511.4360500758509
 21
53.94044443343005
 31
0.0
  0
LINE
  5
96B6
330
1A
100
AcDbEntity
  8
SEIHIN
100
AcDbLine
 10
514.6706153338511
 20
54.93347248373004
 30
0.0
 11
514.9051000064511
 21
53.45370475513004
 31
0.0
  0
LINE
  5
96B7
330
1A
100
AcDbEntity
  8
SEIHIN
100
AcDbLine
 10
515.895043749151
 20
52.67139146413007
 30
0.0
 11
515.624334353751
 21
52.70751490563004
 31
0.0
  0
LINE
  5
96B8
330
1A
100
AcDbEntity
  8
SEIHIN
100
AcDbLine
 10
515.624334353751
 20
52.70751490563004
 30
0.0
 11
515.3869737570509
 21
52.80099780603006
 31
0.0
  0
LINE
  5
96B9
330
1A
100
AcDbEntity
  8
SEIHIN
100
AcDbLine
 10
515.3869737570509
 20
52.80099780603006
 30
0.0
 11
515.1377518361512
 21
52.99086747063006
 31
0.0
  0
LINE
  5
96BA
330
1A
100
AcDbEntity
  8
SEIHIN
100
AcDbLine
 10
515.1377518361512
 20
52.99086747063006
 30
0.0
 11
514.945124525351
 21
53.29935456933004
 31
0.0
  0
LINE
  5
96BB
330
1A
100
AcDbEntity
  8
SEIHIN
100
AcDbLine
 10
514.945124525351
 20
53.29935456933004
 30
0.0
 11
514.9051000064511
 21
53.45370475513004
 31
0.0
  0
LINE
  5
96BC
330
1A
100
AcDbEntity
  8
SEIHIN
100
AcDbLine
 10
512.7730567639511
 20
54.95502421943007
 30
0.0
 11
512.5678528731511
 21
54.95757185233003
 31
0.0
  0
LINE
  5
96BD
330
1A
100
AcDbEntity
  8
SEIHIN
100
AcDbLine
 10
512.5678528731511
 20
54.95757185233003
 30
0.0
 11
512.1625859921512
 21
54.96272718843005
 31
0.0
  0
LINE
  5
96BE
330
1A
100
AcDbEntity
  8
SEIHIN
100
AcDbLine
 10
512.1625859921512
 20
54.96272718843005
 30
0.0
 11
511.6029430812512
 21
54.97011769873006
 31
0.0
  0
LINE
  5
96BF
330
1A
100
AcDbEntity
  8
SEIHIN
100
AcDbLine
 10
511.6029430812512
 20
54.97011769873006
 30
0.0
 11
510.951970953251
 21
54.97911008383005
 31
0.0
  0
LINE
  5
96C0
330
1A
100
AcDbEntity
  8
SEIHIN
100
AcDbLine
 10
510.951970953251
 20
54.97911008383005
 30
0.0
 11
510.7931692784511
 21
54.98136807543005
 31
0.0
  0
LINE
  5
96C1
330
1A
100
AcDbEntity
  8
SEIHIN
100
AcDbLine
 10
514.6706153338511
 20
54.93347248373004
 30
0.0
 11
512.7730567639511
 21
54.95502421943007
 31
0.0
  0
LINE
  5
96C2
330
1A
100
AcDbEntity
  8
SEIHIN
100
AcDbLine
 10
535.126601595251
 20
51.05331761833006
 30
0.0
 11
535.126601595251
 21
53.48135572233005
 31
0.0
  0
LINE
  5
96C3
330
1A
100
AcDbEntity
  8
SEIHIN
100
AcDbLine
 10
535.126601595251
 20
51.05331761833006
 30
0.0
 11
535.3055332147512
 21
52.18250368903006
 31
0.0
  0
LINE
  5
96C4
330
1A
100
AcDbEntity
  8
SEIHIN
100
AcDbLine
 10
534.1327126438511
 20
52.67113779903005
 30
0.0
 11
534.1327090447509
 21
50.42104431953004
 31
0.0
  0
LINE
  5
96C5
330
1A
100
AcDbEntity
  8
SEIHIN
100
AcDbLine
 10
534.674723882051
 20
50.53787143513005
 30
0.0
 11
534.8887492602509
 21
50.67005337873005
 31
0.0
  0
LINE
  5
96C6
330
1A
100
AcDbEntity
  8
SEIHIN
100
AcDbLine
 10
534.8887492602509
 20
50.67005337873005
 30
0.0
 11
535.054927009851
 21
50.85920944653006
 31
0.0
  0
LINE
  5
96C7
330
1A
100
AcDbEntity
  8
SEIHIN
100
AcDbLine
 10
535.054927009851
 20
50.85920944653006
 30
0.0
 11
535.126601595251
 21
51.05331761833006
 31
0.0
  0
LINE
  5
96C8
330
1A
100
AcDbEntity
  8
SEIHIN
100
AcDbLine
 10
534.1327090447509
 20
50.42104431953004
 30
0.0
 11
534.420808095251
 21
50.45339053863006
 31
0.0
  0
LINE
  5
96C9
330
1A
100
AcDbEntity
  8
SEIHIN
100
AcDbLine
 10
534.420808095251
 20
50.45339053863006
 30
0.0
 11
534.674723882051
 21
50.53787143513005
 31
0.0
  0
LINE
  5
96CA
330
1A
100
AcDbEntity
  8
SEIHIN
100
AcDbLine
 10
536.8067969268511
 20
54.94928215003006
 30
0.0
 11
536.8067969268511
 21
52.19909028190466
 31
0.0
  0
LINE
  5
96CB
330
1A
100
AcDbEntity
  8
SEIHIN
100
AcDbLine
 10
535.126601595251
 20
53.48135572233005
 30
0.0
 11
535.3055347388511
 21
54.93264966023005
 31
0.0
  0
LINE
  5
96CC
330
1A
100
AcDbEntity
  8
SEIHIN
100
AcDbLine
 10
536.8067969268511
 20
54.94928215003006
 30
0.0
 11
535.3055347388511
 21
54.93264966023005
 31
0.0
  0
LINE
  5
96CD
330
1A
100
AcDbEntity
  8
SEIHIN
100
AcDbLine
 10
538.4472657626509
 20
52.21979689137959
 30
0.0
 11
538.4472657626509
 21
54.97004598683005
 31
0.0
  0
LINE
  5
96CE
330
1A
100
AcDbEntity
  8
SEIHIN
100
AcDbLine
 10
535.126601595251
 20
53.48135572233005
 30
0.0
 11
535.0122947877509
 21
53.15140233683004
 31
0.0
  0
LINE
  5
96CF
330
1A
100
AcDbEntity
  8
SEIHIN
100
AcDbLine
 10
535.0122947877509
 20
53.15140233683004
 30
0.0
 11
534.791489381151
 21
52.90027469703005
 31
0.0
  0
LINE
  5
96D0
330
1A
100
AcDbEntity
  8
SEIHIN
100
AcDbLine
 10
538.4472657626509
 20
54.97004598683005
 30
0.0
 11
537.8148753827511
 21
54.96172136003005
 31
0.0
  0
LINE
  5
96D1
330
1A
100
AcDbEntity
  8
SEIHIN
100
AcDbLine
 10
537.8148753827511
 20
54.96172136003005
 30
0.0
 11
537.2929175084512
 21
54.95515320753003
 31
0.0
  0
LINE
  5
96D2
330
1A
100
AcDbEntity
  8
SEIHIN
100
AcDbLine
 10
537.2929175084512
 20
54.95515320753003
 30
0.0
 11
536.9402964299511
 21
54.95087098633004
 31
0.0
  0
LINE
  5
96D3
330
1A
100
AcDbEntity
  8
SEIHIN
100
AcDbLine
 10
536.9402964299511
 20
54.95087098633004
 30
0.0
 11
536.8067969268511
 21
54.94928215003006
 31
0.0
  0
LINE
  5
96D4
330
1A
100
AcDbEntity
  8
SEIHIN
100
AcDbLine
 10
534.5415075009511
 20
52.75359139153005
 30
0.0
 11
534.2885006850511
 21
52.68356152183006
 31
0.0
  0
LINE
  5
96D5
330
1A
100
AcDbEntity
  8
SEIHIN
100
AcDbLine
 10
534.2885006850511
 20
52.68356152183006
 30
0.0
 11
534.1327090447509
 21
52.67113791153005
 31
0.0
  0
LINE
  5
96D6
330
1A
100
AcDbEntity
  8
SEIHIN
100
AcDbLine
 10
534.791489381151
 20
52.90027469703005
 30
0.0
 11
534.5415075009511
 21
52.75359139153005
 31
0.0
  0
ARC
  5
96D7
330
1A
100
AcDbEntity
  8
SEIHIN
100
AcDbCircle
 10
481.6005917188642
 20
63.59509331775709
 30
0.0
 40
0.2845087209714636
100
AcDbArc
 50
15.56649462008675
 51
90.43897976547059
  0
LINE
  5
96D8
330
1A
100
AcDbEntity
  8
SEIHIN
100
AcDbLine
 10
481.7642171567511
 20
63.82784195553006
 30
0.0
 11
481.678580183351
 21
63.86853516413004
 31
0.0
  0
LINE
  5
96D9
330
1A
100
AcDbEntity
  8
SEIHIN
100
AcDbLine
 10
481.0614634936509
 20
64.87959292093006
 30
0.0
 11
481.7234773820509
 21
64.76685073533005
 31
0.0
  0
LINE
  5
96DA
330
1A
100
AcDbEntity
  8
SEIHIN
100
AcDbLine
 10
481.7234773820509
 20
64.76685073533005
 30
0.0
 11
482.3108513539511
 21
64.44133486903007
 31
0.0
  0
LINE
  5
96DB
330
1A
100
AcDbEntity
  8
SEIHIN
100
AcDbLine
 10
482.3108513539511
 20
64.44133486903007
 30
0.0
 11
482.757364649151
 21
63.93974408813005
 31
0.0
  0
LINE
  5
96DC
330
1A
100
AcDbEntity
  8
SEIHIN
100
AcDbLine
 10
482.757364649151
 20
63.93974408813005
 30
0.0
 11
482.9839368050508
 21
63.43103614013006
 31
0.0
  0
LINE
  5
96DD
330
1A
100
AcDbEntity
  8
SEIHIN
100
AcDbLine
 10
608.5125033443512
 20
48.20861522413006
 30
0.0
 11
605.8278430884509
 21
48.12808841773005
 31
0.0
  0
LINE
  5
96DE
330
1A
100
AcDbEntity
  8
SEIHIN
100
AcDbLine
 10
606.528599995951
 20
50.83566363273004
 30
0.0
 11
609.3013559168509
 21
49.13382599433004
 31
0.0
  0
LINE
  5
96DF
330
1A
100
AcDbEntity
  8
SEIHIN
100
AcDbLine
 10
565.9805585330511
 20
57.88743118133004
 30
0.0
 11
570.3909297173511
 21
81.09037060593005
 31
0.0
  0
LINE
  5
96E0
330
1A
100
AcDbEntity
  8
SEIHIN
100
AcDbLine
 10
602.868576783451
 20
57.80309526553003
 30
0.0
 11
602.9316384976511
 21
101.82893317503
 31
0.0
  0
LINE
  5
96E1
330
1A
100
AcDbEntity
  8
SEIHIN
100
AcDbLine
 10
575.607349414151
 20
78.87678448413004
 30
0.0
 11
574.865807172951
 21
57.64176105963006
 31
0.0
  0
LINE
  5
96E2
330
1A
100
AcDbEntity
  8
SEIHIN
100
AcDbLine
 10
558.3296467250509
 20
90.75517621193005
 30
0.0
 11
557.176594871851
 21
57.73598974873005
 31
0.0
  0
LINE
  5
96E3
330
1A
100
AcDbEntity
  8
SEIHIN
100
AcDbLine
 10
592.0353729909509
 20
57.64176085893007
 30
0.0
 11
586.953004140251
 21
99.71553501053007
 31
0.0
  0
LINE
  5
96E4
330
1A
100
AcDbEntity
  8
SEIHIN
100
AcDbLine
 10
564.9483699982511
 20
58.28940723393003
 30
0.0
 11
568.6920930331509
 21
81.29945624923005
 31
0.0
  0
LINE
  5
96E5
330
1A
100
AcDbEntity
  8
SEIHIN
100
AcDbLine
 10
574.8658080285511
 20
47.99389042263004
 30
0.0
 11
570.7363982384511
 21
48.00264275943004
 31
0.0
  0
LINE
  5
96E6
330
1A
100
AcDbEntity
  8
SEIHIN
100
AcDbLine
 10
557.8393687194509
 20
57.45419342373003
 30
0.0
 11
558.6680222933511
 21
57.40718910773006
 31
0.0
  0
LINE
  5
96E7
330
1A
100
AcDbEntity
  8
SEIHIN
100
AcDbLine
 10
559.2791189139509
 20
48.14732535113006
 30
0.0
 11
557.3662270491511
 21
48.20120934703004
 31
0.0
  0
ARC
  5
96E8
330
1A
100
AcDbEntity
  8
SEIHIN
100
AcDbCircle
 10
549.8810364975509
 20
57.99075602663004
 30
0.0
 40
7.300000000000033
100
AcDbArc
 50
339.0745532238993
 51
357.9999999999996
  0
LINE
  5
96E9
330
1A
100
AcDbEntity
  8
SEIHIN
100
AcDbLine
 10
557.176594871851
 20
57.73598974873005
 30
0.0
 11
557.176594871851
 21
57.73598416083007
 31
0.0
  0
LINE
  5
96EA
330
1A
100
AcDbEntity
  8
SEIHIN
100
AcDbLine
 10
557.176594871851
 20
57.73598416083007
 30
0.0
 11
557.3397923892509
 21
57.56618542903004
 31
0.0
  0
LINE
  5
96EB
330
1A
100
AcDbEntity
  8
SEIHIN
100
AcDbLine
 10
557.3397923892509
 20
57.56618542903004
 30
0.0
 11
557.8393687194509
 21
57.45419342373003
 31
0.0
  0
ARC
  5
96EC
330
1A
100
AcDbEntity
  8
NOKITOI
 48
0.5
100
AcDbCircle
 10
564.0740751302306
 20
55.96135101871744
 30
0.0
 40
5.00000000000004
100
AcDbArc
 50
271.9779273652142
 51
349.9208000871222
  0
ARC
  5
96ED
330
1A
100
AcDbEntity
  8
SEIHIN
100
AcDbCircle
 10
563.8147936333847
 20
56.4307513951806
 30
0.0
 40
7.494649351235218
100
AcDbArc
 50
272.2273570419008
 51
349.9787475984261
  0
ARC
  5
96EE
330
1A
100
AcDbEntity
  8
SEIHIN
100
AcDbCircle
 10
564.063561659251
 20
56.14561391853005
 30
0.0
 40
5.000000000000001
100
AcDbArc
 50
272.2484030991004
 51
349.957701542099
  0
ARC
  5
96EF
330
1A
100
AcDbEntity
  8
SEIHIN
100
AcDbCircle
 10
564.2323914526512
 20
55.95210150433008
 30
0.0
 40
7.500000000000004
100
AcDbArc
 50
272.2576784259019
 51
349.9484262152994
  0
LINE
  5
96F0
330
1A
100
AcDbEntity
  8
SEIHIN
100
AcDbLine
 10
570.7363982384511
 20
48.00264275943004
 30
0.0
 11
566.6069884484511
 21
48.03043575333004
 31
0.0
  0
LINE
  5
96F1
330
1A
100
AcDbEntity
  8
SEIHIN
100
AcDbLine
 10
562.822078604051
 20
48.07710758713006
 30
0.0
 11
559.2791189139509
 21
48.14732535113006
 31
0.0
  0
LINE
  5
96F2
330
1A
100
AcDbEntity
  8
SEIHIN
100
AcDbLine
 10
566.6069884484511
 20
48.03043575333004
 30
0.0
 11
562.822078604051
 21
48.07710758713006
 31
0.0
  0
ARC
  5
96F3
330
1A
100
AcDbEntity
  8
NOKITOI
 48
0.5
100
AcDbCircle
 10
564.0740751302306
 20
55.96135101871744
 30
0.0
 40
3.39999999999992
100
AcDbArc
 50
271.9779273652077
 51
349.9208000871222
  0
ARC
  5
96F4
330
1A
100
AcDbEntity
  8
SEIHIN
100
AcDbCircle
 10
561.612271219166
 20
59.07591422439987
 30
0.0
 40
6.272606128290315
100
AcDbArc
 50
273.2092372625994
 51
339.7746038356433
  0
ARC
  5
96F5
330
1A
100
AcDbEntity
  8
SEIHIN
100
AcDbCircle
 10
561.5355422725306
 20
58.9263420856829
 30
0.0
 40
4.564811652573939
100
AcDbArc
 50
277.7137031452132
 51
346.8447037563752
  0
ARC
  5
96F6
330
1A
100
AcDbEntity
  8
SEIHIN
100
AcDbCircle
 10
561.6411894667886
 20
58.92213912370454
 30
0.0
 40
3.367163897410078
100
AcDbArc
 50
273.0370591569303
 51
349.1690200449659
  0
LINE
  5
96F7
330
1A
100
AcDbEntity
  8
SEIHIN
100
AcDbLine
 10
558.6680222933511
 20
57.40718910773006
 30
0.0
 11
559.8006297534509
 21
57.42745096173007
 31
0.0
  0
LINE
  5
96F8
330
1A
100
AcDbEntity
  8
SEIHIN
100
AcDbLine
 10
559.8006297534509
 20
57.42745096173007
 30
0.0
 11
561.2029631322509
 21
57.51723138923006
 31
0.0
  0
LINE
  5
96F9
330
1A
100
AcDbEntity
  8
SEIHIN
100
AcDbLine
 10
561.2029631322509
 20
57.51723138923006
 30
0.0
 11
564.8804160721113
 21
57.87174194280578
 31
0.0
  0
LINE
  5
96FA
330
1A
100
AcDbEntity
  8
SEIHIN
100
AcDbLine
 10
592.035365901451
 20
47.99389053543007
 30
0.0
 11
574.865807172951
 21
47.99389053543007
 31
0.0
  0
LINE
  5
96FB
330
1A
100
AcDbEntity
  8
SEIHIN
100
AcDbLine
 10
574.865807172951
 20
57.64176105963006
 30
0.0
 11
574.865807172951
 21
47.99389053543007
 31
0.0
  0
LINE
  5
96FC
330
1A
100
AcDbEntity
  8
SEIHIN
100
AcDbLine
 10
605.233569878851
 20
52.17582168363003
 30
0.0
 11
606.528599995951
 21
50.83566363273004
 31
0.0
  0
LINE
  5
96FD
330
1A
100
AcDbEntity
  8
SEIHIN
100
AcDbLine
 10
592.035365901451
 20
57.64176105963006
 30
0.0
 11
592.035365901451
 21
47.99389053543007
 31
0.0
  0
LINE
  5
96FE
330
1A
100
AcDbEntity
  8
SEIHIN
100
AcDbLine
 10
602.739577431051
 20
48.06772684053004
 30
0.0
 11
599.3436474984512
 21
48.02604596433005
 31
0.0
  0
LINE
  5
96FF
330
1A
100
AcDbEntity
  8
SEIHIN
100
AcDbLine
 10
599.3436474984512
 20
48.02604596433005
 30
0.0
 11
595.7425732796512
 21
48.00184298613004
 31
0.0
  0
LINE
  5
9700
330
1A
100
AcDbEntity
  8
SEIHIN
100
AcDbLine
 10
595.7425732796512
 20
48.00184298613004
 30
0.0
 11
592.0353729909509
 21
47.99389042263004
 31
0.0
  0
LINE
  5
9701
330
1A
100
AcDbEntity
  8
SEIHIN
100
AcDbLine
 10
605.8278430884509
 20
48.12808841773005
 30
0.0
 11
602.739577431051
 21
48.06772684053004
 31
0.0
  0
LINE
  5
9702
330
1A
100
AcDbEntity
  8
SEIHIN
100
AcDbLine
 10
592.0353729909509
 20
57.64176085893007
 30
0.0
 11
592.0354325955511
 21
57.64175527103003
 31
0.0
  0
LINE
  5
9703
330
1A
100
AcDbEntity
  8
SEIHIN
100
AcDbLine
 10
602.868576783451
 20
57.80309526553003
 30
0.0
 11
602.8710056727511
 21
57.78313190053006
 31
0.0
  0
LINE
  5
9704
330
1A
100
AcDbEntity
  8
SEIHIN
100
AcDbLine
 10
602.8710056727511
 20
57.78313190053006
 30
0.0
 11
603.0017335599511
 21
56.96687702393006
 31
0.0
  0
LINE
  5
9705
330
1A
100
AcDbEntity
  8
SEIHIN
100
AcDbLine
 10
603.0017335599511
 20
56.96687702393006
 30
0.0
 11
604.183172125151
 21
53.73172503273005
 31
0.0
  0
LINE
  5
9706
330
1A
100
AcDbEntity
  8
SEIHIN
100
AcDbLine
 10
604.183172125151
 20
53.73172503273005
 30
0.0
 11
605.233569878851
 21
52.17582168363003
 31
0.0
  0
LINE
  5
9707
330
1A
100
AcDbEntity
  8
SEIHIN
100
AcDbLine
 10
602.868576783451
 20
57.80309526553003
 30
0.0
 11
602.8773833697512
 21
57.79567867823004
 31
0.0
  0
LINE
  5
9708
330
1A
100
AcDbEntity
  8
SEIHIN
100
AcDbLine
 10
574.7535873835511
 20
107.08921816503
 30
0.0
 11
574.837853450151
 21
107.77208622853
 31
0.0
  0
LINE
  5
9709
330
1A
100
AcDbEntity
  8
SEIHIN
100
AcDbLine
 10
575.1125996277079
 20
107.95809742373
 30
0.0
 11
572.3418791478509
 21
107.95809742373
 31
0.0
  0
LINE
  5
970A
330
1A
100
AcDbEntity
  8
SEIHIN
100
AcDbLine
 10
570.3909297173511
 20
81.09037060593005
 30
0.0
 11
574.2533554022509
 21
104.39086001673
 31
0.0
  0
LINE
  5
970B
330
1A
100
AcDbEntity
  8
SEIHIN
100
AcDbLine
 10
568.6920930331509
 20
81.29945624923005
 30
0.0
 11
571.8959768002512
 21
104.39086001673
 31
0.0
  0
LINE
  5
970C
330
1A
100
AcDbEntity
  8
SEIHIN
100
AcDbLine
 10
574.6261526530509
 20
106.06376495523
 30
0.0
 11
574.7535873835511
 21
107.08921816503
 31
0.0
  0
LINE
  5
970D
330
1A
100
AcDbEntity
  8
SEIHIN
100
AcDbLine
 10
574.5194156354512
 20
105.68530898843
 30
0.0
 11
574.6261526530509
 21
106.06376495523
 31
0.0
  0
LINE
  5
970E
330
1A
100
AcDbEntity
  8
SEIHIN
100
AcDbLine
 10
574.2533554022509
 20
104.39086001673
 30
0.0
 11
574.5194156354512
 21
105.68530898843
 31
0.0
  0
LINE
  5
970F
330
1A
100
AcDbEntity
  8
SEIHIN
100
AcDbLine
 10
572.3418791478509
 20
107.95809742373
 30
0.0
 11
572.283406991351
 21
107.48427775063
 31
0.0
  0
LINE
  5
9710
330
1A
100
AcDbEntity
  8
SEIHIN
100
AcDbLine
 10
572.283406991351
 20
107.48427775063
 30
0.0
 11
572.177012700351
 21
106.62686493553
 31
0.0
  0
LINE
  5
9711
330
1A
100
AcDbEntity
  8
SEIHIN
100
AcDbLine
 10
571.8959768002512
 20
104.39086001673
 30
0.0
 11
574.6679496084282
 21
104.39086001673
 31
0.0
  0
LINE
  5
9712
330
1A
100
AcDbEntity
  8
SEIHIN
100
AcDbLine
 10
572.033261198351
 20
105.47805991333
 30
0.0
 11
571.8959768002512
 21
104.39086001673
 31
0.0
  0
LINE
  5
9713
330
1A
100
AcDbEntity
  8
SEIHIN
100
AcDbLine
 10
572.177012700351
 20
106.62686493553
 30
0.0
 11
572.033261198351
 21
105.47805991333
 31
0.0
  0
LINE
  5
9714
330
1A
100
AcDbEntity
  8
SEIHIN
100
AcDbLine
 10
574.9167252963509
 20
108.41487761893
 30
0.0
 11
574.8607267325509
 21
107.95809742373
 31
0.0
  0
LINE
  5
9715
330
1A
100
AcDbEntity
  8
SEIHIN
100
AcDbLine
 10
574.837853450151
 20
107.77208622853
 30
0.0
 11
574.8607267325509
 21
107.95809742373
 31
0.0
  0
LINE
  5
9716
330
1A
100
AcDbEntity
  8
SEIHIN
100
AcDbLine
 10
612.678190011351
 20
48.45792329243005
 30
0.0
 11
610.7330520337511
 21
48.31013520553006
 31
0.0
  0
LINE
  5
9717
330
1A
100
AcDbEntity
  8
SEIHIN
100
AcDbLine
 10
610.7330520337511
 20
48.31013520553006
 30
0.0
 11
608.5125033443512
 21
48.20861522413006
 31
0.0
  0
LINE
  5
9718
330
1A
100
AcDbEntity
  8
SEIHIN
100
AcDbLine
 10
612.678190011351
 20
48.45792329243005
 30
0.0
 11
611.0767696684511
 21
48.61441470523004
 31
0.0
  0
LINE
  5
9719
330
1A
100
AcDbEntity
  8
SEIHIN
100
AcDbLine
 10
611.0767696684511
 20
48.61441470523004
 30
0.0
 11
609.3013559168509
 21
49.13382599433004
 31
0.0
  0
DIMENSION
  5
971A
330
1A
100
AcDbEntity
  8
SUNPOU
100
AcDbDimension
  2
*D6
 10
580.8722574895512
 20
201.6000992133879
 30
0.0
 11
500.672350388351
 21
206.6000992133879
 31
0.0
 70
    32
  3
STANDARD
100
AcDbAlignedDimension
 13
420.4724432871509
 23
188.13880473053
 33
0.0
 14
580.8722574895512
 24
132.77959492363
 34
0.0
100
AcDbRotatedDimension
1001
ACAD
1000
DSTYLE
1002
{
1070
    41
1040
7.0
1070
    42
1040
6.0
1070
    43
1040
14.0
1070
    44
1040
3.0
1070
    73
1070
     0
1070
    74
1070
     0
1070
    77
1070
     3
1070
   140
1040
6.0
1070
   141
1040
30.0
1070
   147
1040
2.0
1070
   172
1070
     1
1070
   176
1070
   256
1070
   177
1070
   256
1070
   178
1070
   256
1070
   271
1070
     0
1070
   272
1070
     0
1070
   341
1005
6D
1070
     5
1000
OPEN
1070
   371
1070
    -1
1070
   372
1070
    -1
1002
}
  0
LINE
  5
971B
330
1A
100
AcDbEntity
  8
SEIHIN
100
AcDbLine
 10
580.3717572408145
 20
228.7294479079279
 30
0.0
 11
420.9802051245625
 21
228.7294479079278
 31
0.0
  0
LINE
  5
971C
330
1A
100
AcDbEntity
  8
SEIHIN
100
AcDbLine
 10
572.6371090036508
 20
272.7294479079279
 30
0.0
 11
535.3055332146508
 21
272.7294479079278
 31
0.0
  0
LINE
  5
971D
330
1A
100
AcDbEntity
  8
SEIHIN
100
AcDbLine
 10
561.8195880835509
 20
253.3482835567279
 30
0.0
 11
538.4472657625509
 21
257.4693635977278
 31
0.0
  0
LINE
  5
971E
330
1A
100
AcDbEntity
  8
SEIHIN
100
AcDbLine
 10
577.1696090378509
 20
277.7294479079277
 30
0.0
 11
455.2569741994509
 21
277.7294479079277
 31
0.0
  0
LINE
  5
971F
330
1A
100
AcDbEntity
  8
NOKITOI
 48
0.5
100
AcDbLine
 10
447.599653621272
 20
155.687911858493
 30
0.0
 11
446.3580001380822
 21
157.8608054540767
 31
0.0
  0
ARC
  5
9720
330
1A
100
AcDbEntity
  8
NOKITOI
 48
0.5
100
AcDbCircle
 10
445.5623021763423
 20
155.6252609003851
 30
0.0
 40
0.300000000000178
100
AcDbArc
 50
317.0608680432878
 51
29.74488129692637
  0
ARC
  5
9721
330
1A
100
AcDbEntity
  8
NOKITOI
 48
0.5
100
AcDbCircle
 10
94.91995865657385
 20
-38.49113178283857
 30
0.0
 40
391.6000000000092
100
AcDbArc
 50
28.28464033564904
 51
30.1441415324532
  0
LINE
  5
9722
330
1A
100
AcDbEntity
  8
NOKITOI
 48
0.5
100
AcDbLine
 10
441.6834948502375
 20
151.0164942035456
 30
0.0
 11
445.7819255188083
 21
155.420894593367
 31
0.0
  0
LINE
  5
9723
330
1A
100
AcDbEntity
  8
NOKITOI
 48
0.5
100
AcDbLine
 10
442.7816115625663
 20
149.9946626684561
 30
0.0
 11
447.5315709543195
 21
155.0992318776182
 31
0.0
  0
ARC
  5
9724
330
1A
100
AcDbEntity
  8
NOKITOI
 48
0.5
100
AcDbCircle
 10
447.1740784118829
 20
145.9073365280981
 30
0.0
 40
5.999999999999833
100
AcDbArc
 50
137.0608680432694
 51
207.6312195127922
  0
ARC
  5
9725
330
1A
100
AcDbEntity
  8
NOKITOI
 48
0.5
100
AcDbCircle
 10
447.1740784118829
 20
145.9073365280981
 30
0.0
 40
7.499999999999871
100
AcDbArc
 50
137.0608680432694
 51
171.0867903269343
  0
LINE
  5
9726
330
1A
100
AcDbEntity
  8
SEIHIN
100
AcDbLine
 10
457.1514861347512
 20
110.37959333813
 30
0.0
 11
460.1256747430509
 21
110.37959199703
 31
0.0
  0
LINE
  5
9727
330
1A
100
AcDbEntity
  8
SEIHIN
100
AcDbLine
 10
457.1514861347512
 20
110.37959333813
 30
0.0
 11
455.2569885438511
 21
110.37959199703
 31
0.0
  0
ARC
  5
9728
330
1A
100
AcDbEntity
  8
NOKITOI
 48
0.5
100
AcDbCircle
 10
447.1655320502097
 20
155.4398423893147
 30
0.0
 40
0.4999999999999604
100
AcDbArc
 50
317.0608680432694
 51
29.74488129696686
  0
ARC
  5
9729
330
1A
100
AcDbEntity
  8
NOKITOI
 48
0.5
100
AcDbCircle
 10
442.5914100633718
 20
173.8685275773644
 30
0.0
 40
2.000000000000145
100
AcDbArc
 50
51.44243227598031
 51
90.0
  0
LINE
  5
972A
330
1A
100
AcDbEntity
  8
NOKITOI
 48
0.5
100
AcDbLine
 10
444.7821572087181
 20
168.8685275773645
 30
0.0
 11
441.9960089207164
 21
168.8685275773635
 31
0.0
  0
ARC
  5
972B
330
1A
100
AcDbEntity
  8
NOKITOI
 48
0.5
100
AcDbCircle
 10
443.8520189101651
 20
170.6685275773642
 30
0.0
 40
0.300000000000118
100
AcDbArc
 50
160.016893478094
 51
270.0
  0
LINE
  5
972C
330
1A
100
AcDbEntity
  8
NOKITOI
 48
0.5
100
AcDbLine
 10
444.2039424916121
 20
172.5141699196477
 30
0.0
 11
443.5700808831184
 21
170.7710504962902
 31
0.0
  0
LINE
  5
972D
330
1A
100
AcDbEntity
  8
NOKITOI
 48
0.5
100
AcDbLine
 10
431.7821584398354
 20
181.3685226819283
 30
0.0
 11
449.1644498441636
 21
177.9835500204442
 31
0.0
  0
LINE
  5
972E
330
1A
100
AcDbEntity
  8
NOKITOI
 48
0.5
100
AcDbLine
 10
431.6821581347836
 20
179.7579407684378
 30
0.0
 11
446.9231604996813
 21
176.789955987907
 31
0.0
  0
LINE
  5
972F
330
1A
100
AcDbEntity
  8
NOKITOI
 48
0.5
100
AcDbLine
 10
437.1466227641341
 20
157.3685275773645
 30
0.0
 11
444.6215138538328
 21
157.3685275773635
 31
0.0
  0
LINE
  5
9730
330
1A
100
AcDbEntity
  8
NOKITOI
 48
0.5
100
AcDbLine
 10
437.1466227641341
 20
158.8685275773644
 30
0.0
 11
444.6215138538331
 21
158.8685275773635
 31
0.0
  0
LINE
  5
9731
330
1A
100
AcDbEntity
  8
NOKITOI
 48
0.5
100
AcDbLine
 10
431.6821581347836
 20
179.7579407684378
 30
0.0
 11
431.6821571463188
 21
174.5391206617708
 31
0.0
  0
LINE
  5
9732
330
1A
100
AcDbEntity
  8
NOKITOI
 48
0.5
100
AcDbLine
 10
424.7821591357552
 20
185.0427929391807
 30
0.0
 11
424.7821555987835
 21
166.3685242394645
 31
0.0
  0
LINE
  5
9733
330
1A
100
AcDbEntity
  8
NOKITOI
 48
0.5
100
AcDbLine
 10
426.3821589097671
 20
183.8496358676639
 30
0.0
 11
426.3821559586509
 21
168.2685274672886
 31
0.0
  0
LINE
  5
9734
330
1A
100
AcDbEntity
  8
NOKITOI
 48
0.5
100
AcDbLine
 10
430.1821587365972
 20
182.9353500397379
 30
0.0
 11
430.1821569392829
 21
173.4460284103366
 31
0.0
  0
LINE
  5
9735
330
1A
100
AcDbEntity
  8
SEIHIN
100
AcDbLine
 10
422.252227801651
 20
163.67959644953
 30
0.0
 11
420.9829468911509
 21
187.89908703723
 31
0.0
  0
LINE
  5
9736
330
1A
100
AcDbEntity
  8
SEIHIN
100
AcDbLine
 10
424.4777460282509
 20
165.87959643763
 30
0.0
 11
424.4777460282509
 21
186.2287936908191
 31
0.0
  0
LINE
  5
9737
330
1A
100
AcDbEntity
  8
SEIHIN
100
AcDbLine
 10
420.475184217651
 20
188.03413281813
 30
0.0
 11
421.7777450268511
 21
163.17959543623
 31
0.0
  0
LINE
  5
9738
330
1A
100
AcDbEntity
  8
NOKITOI
 48
0.5
100
AcDbLine
 10
427.4925752206578
 20
167.9685287630142
 30
0.0
 11
426.6821564593352
 21
167.968527410468
 31
0.0
  0
ARC
  5
9739
330
1A
100
AcDbEntity
  8
NOKITOI
 48
0.5
100
AcDbCircle
 10
436.2464308911613
 20
167.3685275773644
 30
0.0
 40
7.0
100
AcDbArc
 50
90.0
 51
211.0948757823082
  0
LINE
  5
973A
330
1A
100
AcDbEntity
  8
SEIHIN
100
AcDbLine
 10
426.777755436951
 20
165.87959333813
 30
0.0
 11
427.2029299920511
 21
165.87959643763
 31
0.0
  0
LINE
  5
973B
330
1A
100
AcDbEntity
  8
NOKITOI
 48
0.5
100
AcDbLine
 10
426.7821589247406
 20
166.3685275773644
 30
0.0
 11
424.7821555987835
 21
166.3685242394645
 31
0.0
  0
LINE
  5
973C
330
1A
100
AcDbEntity
  8
SEIHIN
100
AcDbLine
 10
425.5497514837509
 20
163.67959333813
 30
0.0
 11
422.252227801651
 21
163.67959644953
 31
0.0
  0
LINE
  5
973D
330
1A
100
AcDbEntity
  8
SEIHIN
100
AcDbLine
 10
421.7777450268511
 20
163.17959543623
 30
0.0
 11
425.2700226182509
 21
163.17959333813
 31
0.0
  0
LINE
  5
973E
330
1A
100
AcDbEntity
  8
SEIHIN
100
AcDbLine
 10
426.777755436951
 20
165.87959333813
 30
0.0
 11
424.4777460282509
 21
165.87959643763
 31
0.0
  0
ARC
  5
973F
330
1A
100
AcDbEntity
  8
NOKITOI
 48
0.5
100
AcDbCircle
 10
426.6821559586511
 20
168.2685274104675
 30
0.0
 40
0.2999999999999176
100
AcDbArc
 50
179.9999891479612
 51
270.0000956236189
  0
ARC
  5
9740
330
1A
100
AcDbEntity
  8
NOKITOI
 48
0.5
100
AcDbCircle
 10
437.1466227641341
 20
165.8685275773644
 30
0.0
 40
8.499999999999944
100
AcDbArc
 50
245.0556485248562
 51
270.0
  0
ARC
  5
9741
330
1A
100
AcDbEntity
  8
NOKITOI
 48
0.5
100
AcDbCircle
 10
437.1466227641341
 20
165.8685275773644
 30
0.0
 40
7.000000000000143
100
AcDbArc
 50
210.8434146257335
 51
270.0
  0
ARC
  5
9742
330
1A
100
AcDbEntity
  8
NOKITOI
 48
0.5
100
AcDbCircle
 10
94.91995865619912
 20
-38.4911317830705
 30
0.0
 40
391.6000000004494
100
AcDbArc
 50
30.84341462564475
 51
31.09487578279939
  0
ARC
  5
9743
330
1A
100
AcDbEntity
  8
NOKITOI
 48
0.5
100
AcDbCircle
 10
436.2464308911613
 20
167.3685275773644
 30
0.0
 40
8.5
100
AcDbArc
 50
90.0
 51
122.4778405323753
  0
ARC
  5
9744
330
1A
100
AcDbEntity
  8
NOKITOI
 48
0.5
100
AcDbCircle
 10
429.8821569392827
 20
173.4460284671578
 30
0.0
 40
0.2999999999999576
100
AcDbArc
 50
316.3203885738159
 51
359.9999891479612
  0
ARC
  5
9745
330
1A
100
AcDbEntity
  8
NOKITOI
 48
0.5
100
AcDbCircle
 10
427.4925747199737
 20
168.2685287630136
 30
0.0
 40
0.2999999999999176
100
AcDbArc
 50
270.0000956236189
 51
354.1299329295532
  0
ARC
  5
9746
330
1A
100
AcDbEntity
  8
NOKITOI
 48
0.5
100
AcDbCircle
 10
436.2464308911613
 20
167.3685275773644
 30
0.0
 40
8.500000000000364
100
AcDbArc
 50
136.3203885738158
 51
174.1299329295389
  0
ARC
  5
9747
330
1A
100
AcDbEntity
  8
NOKITOI
 48
0.5
100
AcDbCircle
 10
441.8544589328913
 20
173.3685275773644
 30
0.0
 40
1.000000000000004
100
AcDbArc
 50
340.0168934781065
 51
90.0
  0
LINE
  5
9748
330
1A
100
AcDbEntity
  8
NOKITOI
 48
0.5
100
AcDbLine
 10
436.2464308911613
 20
175.8685275773644
 30
0.0
 11
442.5914100633718
 21
175.8685275773644
 31
0.0
  0
LINE
  5
9749
330
1A
100
AcDbEntity
  8
NOKITOI
 48
0.5
100
AcDbLine
 10
436.2464308911613
 20
174.3685275773644
 30
0.0
 11
441.8544589328913
 21
174.3685275773644
 31
0.0
  0
ARC
  5
974A
330
1A
100
AcDbEntity
  8
NOKITOI
 48
0.5
100
AcDbCircle
 10
441.9960089207162
 20
169.3685275773635
 30
0.0
 40
0.5000000000000025
100
AcDbArc
 50
160.0168934781065
 51
270.0
  0
LINE
  5
974B
330
1A
100
AcDbEntity
  8
NOKITOI
 48
0.5
100
AcDbLine
 10
442.7942523563798
 20
173.0267845142778
 30
0.0
 11
441.5261122089724
 21
169.5393991089067
 31
0.0
  0
LINE
  5
974C
330
1A
100
AcDbEntity
  8
NOKITOI
 48
0.5
100
AcDbLine
 10
426.7645752522599
 20
184.1380929939569
 30
0.0
 11
429.9645750790893
 21
183.2238072796732
 31
0.0
  0
LINE
  5
974D
330
1A
100
AcDbEntity
  8
NOKITOI
 48
0.5
100
AcDbLine
 10
426.0568802773967
 20
186.0043166934912
 30
0.0
 11
431.7821590080444
 21
184.3685226819301
 31
0.0
  0
LINE
  5
974E
330
1A
100
AcDbEntity
  8
SEIHIN
100
AcDbLine
 10
425.1065750306511
 20
186.71191152493
 30
0.0
 11
431.9777686780509
 21
184.87959023873
 31
0.0
  0
LINE
  5
974F
330
1A
100
AcDbEntity
  8
SEIHIN
100
AcDbLine
 10
434.7065092152511
 20
186.94627710923
 30
0.0
 11
422.9877887134897
 21
190.0712746097328
 31
0.0
  0
ARC
  5
9750
330
1A
100
AcDbEntity
  8
SEIHIN
100
AcDbCircle
 10
422.9942063368097
 20
187.9861435219336
 30
0.0
 40
2.013142664909903
100
AcDbArc
 50
75.54625548475744
 51
182.478475656231
  0
ARC
  5
9751
330
1A
100
AcDbEntity
  8
SEIHIN
100
AcDbCircle
 10
422.472443287151
 20
188.13880473053
 30
0.0
 40
2.000000000000008
100
AcDbArc
 50
75.06858282189853
 51
183.0000000001001
  0
ARC
  5
9752
330
1A
100
AcDbEntity
  8
NOKITOI
 48
0.5
100
AcDbCircle
 10
426.6821589097673
 20
183.8496358108428
 30
0.0
 40
0.3000000000001873
100
AcDbArc
 50
74.05460328003677
 51
179.9999891479612
  0
ARC
  5
9753
330
1A
100
AcDbEntity
  8
NOKITOI
 48
0.5
100
AcDbCircle
 10
425.7821591357553
 20
185.0427927497772
 30
0.0
 40
1.000000000000065
100
AcDbArc
 50
74.05460328007052
 51
179.999989147984
  0
ARC
  5
9754
330
1A
100
AcDbEntity
  8
SEIHIN
100
AcDbCircle
 10
424.977743875629
 20
186.2287936908191
 30
0.0
 40
0.4999978474360717
100
AcDbArc
 50
75.14274791466087
 51
180.0008725140932
  0
ARC
  5
9755
330
1A
100
AcDbEntity
  8
SEIHIN
100
AcDbCircle
 10
435.2218345163509
 20
188.87874698843
 30
0.0
 40
2.000000000000008
100
AcDbArc
 50
255.0685828218985
 51
294.9999999999996
  0
LINE
  5
9756
330
1A
100
AcDbEntity
  8
SEIHIN
100
AcDbLine
 10
437.034301091251
 20
184.53803781333
 30
0.0
 11
433.9800644346509
 21
183.11382387053
 31
0.0
  0
ARC
  5
9757
330
1A
100
AcDbEntity
  8
NOKITOI
 48
0.5
100
AcDbCircle
 10
431.4821589651843
 20
184.1422322737136
 30
0.0
 40
0.3000000000000258
100
AcDbArc
 50
359.9999891480052
 51
74.05460328003677
  0
ARC
  5
9758
330
1A
100
AcDbEntity
  8
NOKITOI
 48
0.5
100
AcDbCircle
 10
429.882158736597
 20
182.9353500965591
 30
0.0
 40
0.299999999999901
100
AcDbArc
 50
359.9999891479612
 51
74.05460328011796
  0
LINE
  5
9759
330
1A
100
AcDbEntity
  8
NOKITOI
 48
0.5
100
AcDbLine
 10
431.7821590080444
 20
184.3685226819301
 30
0.0
 11
431.7821584398354
 21
181.3685226819283
 31
0.0
  0
LINE
  5
975A
330
1A
100
AcDbEntity
  8
SEIHIN
100
AcDbLine
 10
432.9777554369509
 20
182.88018173043
 30
0.0
 11
432.9235155766509
 21
182.87958618563
 31
0.0
  0
LINE
  5
975B
330
1A
100
AcDbEntity
  8
SEIHIN
100
AcDbLine
 10
431.9777686780509
 20
182.87958618563
 30
0.0
 11
432.9235155766509
 21
182.87958618563
 31
0.0
  0
ARC
  5
975C
330
1A
100
AcDbEntity
  8
SEIHIN
100
AcDbCircle
 10
432.9235187803511
 20
185.37959333813
 30
0.0
 40
2.499999999999996
100
AcDbArc
 50
271.2431101337973
 51
294.9999999999996
  0
LINE
  5
975D
330
1A
100
AcDbEntity
  8
SEIHIN
100
AcDbLine
 10
431.9777686780509
 20
184.87959023873
 30
0.0
 11
431.9777686780509
 21
182.87958618563
 31
0.0
  0
ARC
  5
975E
330
1A
100
AcDbEntity
  8
SEIHIN
100
AcDbCircle
 10
435.9777554369509
 20
186.80380728093
 30
0.0
 40
2.499999999999982
100
AcDbArc
 50
294.9999999999996
 51
0.0
  0
ARC
  5
975F
330
1A
100
AcDbEntity
  8
SEIHIN
100
AcDbCircle
 10
437.9777554369509
 20
187.40540922153
 30
0.0
 40
0.5
100
AcDbArc
 50
0.0
 51
114.9999999999996
  0
LINE
  5
9760
330
1A
100
AcDbEntity
  8
SEIHIN
100
AcDbLine
 10
438.4777554369509
 20
187.40540922153
 30
0.0
 11
438.4777554369509
 21
186.80380728093
 31
0.0
  0
LINE
  5
9761
330
1A
100
AcDbEntity
  8
SEIHIN
100
AcDbLine
 10
436.067071039851
 20
187.06613141443
 30
0.0
 11
437.7664463060511
 21
187.85856311513
 31
0.0
  0
LINE
  5
9762
330
1A
100
AcDbEntity
  8
NOKITOI
 48
0.5
100
AcDbLine
 10
445.8227751189798
 20
155.7741025818921
 30
0.0
 11
445.0556354248952
 21
157.1165970465418
 31
0.0
  0
ARC
  5
9763
330
1A
100
AcDbEntity
  8
NOKITOI
 48
0.5
100
AcDbCircle
 10
444.6215138538328
 20
156.8685275773635
 30
0.0
 40
0.5000000000000898
100
AcDbArc
 50
29.74488129691652
 51
90.0
  0
ARC
  5
9764
330
1A
100
AcDbEntity
  8
NOKITOI
 48
0.5
100
AcDbCircle
 10
444.6215138538328
 20
156.8685275773635
 30
0.0
 40
2.000000000000133
100
AcDbArc
 50
29.74488129691324
 51
90.0
  0
ARC
  5
9765
330
1A
100
AcDbEntity
  8
NOKITOI
 48
0.5
100
AcDbCircle
 10
444.7821572087161
 20
174.8685275773644
 30
0.0
 40
6.0
100
AcDbArc
 50
270.0
 51
359.9999891479971
  0
LINE
  5
9766
330
1A
100
AcDbEntity
  8
NOKITOI
 48
0.5
100
AcDbLine
 10
450.782157208716
 20
174.8685264409471
 30
0.0
 11
450.782157426889
 21
176.0204264902049
 31
0.0
  0
LINE
  5
9767
330
1A
100
AcDbEntity
  8
NOKITOI
 48
0.5
100
AcDbLine
 10
449.282157208716
 20
174.8685267250499
 30
0.0
 11
449.2821573717638
 21
175.7293777359644
 31
0.0
  0
LINE
  5
9768
330
1A
100
AcDbEntity
  8
NOKITOI
 48
0.5
100
AcDbLine
 10
443.8380113532867
 20
175.4324921626361
 30
0.0
 11
446.9231604996813
 21
176.789955987907
 31
0.0
  0
LINE
  5
9769
330
1A
100
AcDbEntity
  8
NOKITOI
 48
0.5
100
AcDbLine
 10
444.4986475879519
 20
174.0843920388734
 30
0.0
 11
448.8613359216438
 21
176.0039723615426
 31
0.0
  0
ARC
  5
976A
330
1A
100
AcDbEntity
  8
NOKITOI
 48
0.5
100
AcDbCircle
 10
444.6194690380718
 20
173.8097974701162
 30
0.0
 40
0.2999999999999199
100
AcDbArc
 50
113.7494664995853
 51
189.0674095538221
  0
ARC
  5
976B
330
1A
100
AcDbEntity
  8
NOKITOI
 48
0.5
100
AcDbCircle
 10
441.8544589328913
 20
173.3685275773644
 30
0.0
 40
2.500000000000012
100
AcDbArc
 50
340.0168934781065
 51
9.06740955381308
  0
LINE
  5
976C
330
1A
100
AcDbEntity
  8
NOKITOI
 48
0.5
100
AcDbLine
 10
444.7821572087161
 20
170.3685275773644
 30
0.0
 11
443.8520189101651
 21
170.3685275773642
 31
0.0
  0
ARC
  5
976D
330
1A
100
AcDbEntity
  8
NOKITOI
 48
0.5
100
AcDbCircle
 10
448.7821574268893
 20
176.0204268690107
 30
0.0
 40
2.000000000000035
100
AcDbArc
 50
359.999989147971
 51
78.98029157818554
  0
ARC
  5
976E
330
1A
100
AcDbEntity
  8
NOKITOI
 48
0.5
100
AcDbCircle
 10
444.7821572087161
 20
174.8685275773644
 30
0.0
 40
4.5
100
AcDbArc
 50
270.0
 51
359.9999891479971
  0
ARC
  5
976F
330
1A
100
AcDbEntity
  8
NOKITOI
 48
0.5
100
AcDbCircle
 10
448.9821573717637
 20
175.7293777927853
 30
0.0
 40
0.3000000000000748
100
AcDbArc
 50
359.9999891480052
 51
113.7494664995853
  0
LINE
  5
9770
330
1A
100
AcDbEntity
  8
SEIHIN
100
AcDbLine
 10
462.6389952043401
 20
257.7294479079278
 30
0.0
 11
510.7931646334508
 21
257.7294479079278
 31
0.0
  0
LINE
  5
9771
330
1A
100
AcDbEntity
  8
SEIHIN
100
AcDbLine
 10
514.6706125797508
 20
272.7294479079278
 30
0.0
 11
460.1256608064017
 21
272.7294479079278
 31
0.0
  0
LINE
  5
9772
330
1A
100
AcDbEntity
  8
SEIHIN
100
AcDbLine
 10
420.5852074469508
 20
240.3978538513279
 30
0.0
 11
420.9802050774507
 21
228.7294492996279
 31
0.0
  0
LINE
  5
9773
330
1A
100
AcDbEntity
  8
SEIHIN
100
AcDbLine
 10
438.4777554368508
 20
228.7294479079278
 30
0.0
 11
438.4777554368508
 21
267.7294479079278
 31
0.0
  0
LINE
  5
9774
330
1A
100
AcDbEntity
  8
SEIHIN
100
AcDbLine
 10
471.9805915539508
 20
257.7294484652279
 30
0.0
 11
471.9806035557508
 21
228.7294479079278
 31
0.0
  0
LINE
  5
9775
330
1A
100
AcDbEntity
  8
SEIHIN
100
AcDbLine
 10
420.4724432871508
 20
245.7290148937016
 30
0.0
 11
420.5852050964508
 21
240.3978482759277
 31
0.0
  0
LINE
  5
9776
330
1A
100
AcDbEntity
  8
SEIHIN
100
AcDbLine
 10
426.9568224136508
 20
267.7750215805279
 30
0.0
 11
427.4777670090507
 21
267.7294538296278
 31
0.0
  0
LINE
  5
9777
330
1A
100
AcDbEntity
  8
SEIHIN
100
AcDbLine
 10
424.6586759273508
 20
269.7033808506278
 30
0.0
 11
424.8796899502508
 21
269.2294494188279
 31
0.0
  0
LINE
  5
9778
330
1A
100
AcDbEntity
  8
SEIHIN
100
AcDbLine
 10
424.8796899502508
 20
269.2294494188279
 30
0.0
 11
425.1796205227508
 21
268.8010857380277
 31
0.0
  0
LINE
  5
9779
330
1A
100
AcDbEntity
  8
SEIHIN
100
AcDbLine
 10
425.1796205227508
 20
268.8010857380277
 30
0.0
 11
425.5493779366507
 21
268.4313134230278
 31
0.0
  0
LINE
  5
977A
330
1A
100
AcDbEntity
  8
SEIHIN
100
AcDbLine
 10
425.5493779366507
 20
268.4313134230278
 30
0.0
 11
425.9777565186508
 21
268.1313679493277
 31
0.0
  0
LINE
  5
977B
330
1A
100
AcDbEntity
  8
SEIHIN
100
AcDbLine
 10
425.9777565186508
 20
268.1313679493277
 30
0.0
 11
426.4517028515508
 21
267.9103688276277
 31
0.0
  0
LINE
  5
977C
330
1A
100
AcDbEntity
  8
SEIHIN
100
AcDbLine
 10
426.4517028515508
 20
267.9103688276277
 30
0.0
 11
426.9568224136508
 21
267.7750215805279
 31
0.0
  0
LINE
  5
977D
330
1A
100
AcDbEntity
  8
SEIHIN
100
AcDbLine
 10
424.4777460281508
 20
270.7294450081278
 30
0.0
 11
424.5233435814508
 21
270.2085004128278
 31
0.0
  0
LINE
  5
977E
330
1A
100
AcDbEntity
  8
SEIHIN
100
AcDbLine
 10
424.5233435814508
 20
270.2085004128278
 30
0.0
 11
424.6586759273508
 21
269.7033808506278
 31
0.0
  0
LINE
  5
977F
330
1A
100
AcDbEntity
  8
SEIHIN
100
AcDbLine
 10
436.0670710398507
 20
267.7294479079278
 30
0.0
 11
434.7065092152507
 21
267.7294479079278
 31
0.0
  0
LINE
  5
9780
330
1A
100
AcDbEntity
  8
SEIHIN
100
AcDbLine
 10
434.7065092152507
 20
267.7294479079278
 30
0.0
 11
427.4777670090507
 21
267.7294538296278
 31
0.0
  0
LINE
  5
9781
330
1A
100
AcDbEntity
  8
SEIHIN
100
AcDbLine
 10
436.0670710398507
 20
267.7294479079278
 30
0.0
 11
437.7664463059508
 21
267.7294479079278
 31
0.0
  0
LINE
  5
9782
330
1A
100
AcDbEntity
  8
SEIHIN
100
AcDbLine
 10
438.4777554368508
 20
267.7294479079278
 30
0.0
 11
437.7664463059508
 21
267.7294479079278
 31
0.0
  0
LINE
  5
9783
330
1A
100
AcDbEntity
  8
SEIHIN
100
AcDbLine
 10
458.9648444836508
 20
260.9449849403279
 30
0.0
 11
458.2421679680508
 21
262.7294436968277
 31
0.0
  0
LINE
  5
9784
330
1A
100
AcDbEntity
  8
SEIHIN
100
AcDbLine
 10
461.0837001984508
 20
260.9449849403279
 30
0.0
 11
460.1256608359508
 21
272.7294479079278
 31
0.0
  0
LINE
  5
9785
330
1A
100
AcDbEntity
  8
SEIHIN
100
AcDbLine
 10
475.4246168418509
 20
272.7294479079278
 30
0.0
 11
475.4246168418509
 21
257.7294479079278
 31
0.0
  0
LINE
  5
9786
330
1A
100
AcDbEntity
  8
SEIHIN
100
AcDbLine
 10
459.6175451462507
 20
259.5984415091279
 30
0.0
 11
460.3372414295507
 21
258.5541234291279
 31
0.0
  0
LINE
  5
9787
330
1A
100
AcDbEntity
  8
SEIHIN
100
AcDbLine
 10
458.9648444836508
 20
260.9449849403279
 30
0.0
 11
459.6175451462507
 21
259.5984415091279
 31
0.0
  0
LINE
  5
9788
330
1A
100
AcDbEntity
  8
SEIHIN
100
AcDbLine
 10
461.5653057281507
 20
257.7294484652279
 30
0.0
 11
462.6389947469507
 21
257.7294479079278
 31
0.0
  0
LINE
  5
9789
330
1A
100
AcDbEntity
  8
SEIHIN
100
AcDbLine
 10
462.6389939968508
 20
257.7294484652279
 30
0.0
 11
462.0880980675508
 21
257.9837069786278
 31
0.0
  0
LINE
  5
978A
330
1A
100
AcDbEntity
  8
SEIHIN
100
AcDbLine
 10
462.0880980675508
 20
257.9837069786278
 30
0.0
 11
461.5951974575508
 21
258.7294802940277
 31
0.0
  0
LINE
  5
978B
330
1A
100
AcDbEntity
  8
SEIHIN
100
AcDbLine
 10
461.5951974575508
 20
258.7294802940277
 30
0.0
 11
461.2403710072507
 21
259.8532960690279
 31
0.0
  0
LINE
  5
978C
330
1A
100
AcDbEntity
  8
SEIHIN
100
AcDbLine
 10
461.2403710072507
 20
259.8532960690279
 30
0.0
 11
461.0837001984508
 21
260.9449849403279
 31
0.0
  0
LINE
  5
978D
330
1A
100
AcDbEntity
  8
SEIHIN
100
AcDbLine
 10
460.3372414295507
 20
258.5541234291279
 30
0.0
 11
461.0892434303508
 21
257.8800246990279
 31
0.0
  0
LINE
  5
978E
330
1A
100
AcDbEntity
  8
SEIHIN
100
AcDbLine
 10
461.0892434303508
 20
257.8800246990279
 30
0.0
 11
461.5653057281507
 21
257.7294484652279
 31
0.0
  0
LINE
  5
978F
330
1A
100
AcDbEntity
  8
SEIHIN
100
AcDbLine
 10
455.2569741994508
 20
277.7294479079277
 30
0.0
 11
460.1256608359508
 21
272.7294479079278
 31
0.0
  0
LINE
  5
9790
330
1A
100
AcDbEntity
  8
SEIHIN
100
AcDbLine
 10
457.1514923756508
 20
272.7294490612278
 30
0.0
 11
455.2569885437508
 21
275.2294466770279
 31
0.0
  0
LINE
  5
9791
330
1A
100
AcDbEntity
  8
SEIHIN
100
AcDbLine
 10
458.2421679680508
 20
262.7294436968277
 30
0.0
 11
457.1514923756508
 21
272.7294490612278
 31
0.0
  0
LINE
  5
9792
330
1A
100
AcDbEntity
  8
SEIHIN
100
AcDbLine
 10
455.2569741994508
 20
277.7294479079277
 30
0.0
 11
455.2569885437508
 21
275.2294466770279
 31
0.0
  0
LINE
  5
9793
330
1A
100
AcDbEntity
  8
SEIHIN
100
AcDbLine
 10
472.0443983261508
 20
277.7104751146278
 30
0.0
 11
475.4764635746509
 21
272.7294490612278
 31
0.0
  0
LINE
  5
9794
330
1A
100
AcDbEntity
  8
SEIHIN
100
AcDbLine
 10
479.4893836788509
 20
228.7294479079278
 30
0.0
 11
479.4893760864507
 21
257.7294484652279
 31
0.0
  0
LINE
  5
9795
330
1A
100
AcDbEntity
  8
SEIHIN
100
AcDbLine
 10
481.3803483431508
 20
257.7294484652279
 30
0.0
 11
481.3803531141508
 21
228.7294479079278
 31
0.0
  0
LINE
  5
9796
330
1A
100
AcDbEntity
  8
SEIHIN
100
AcDbLine
 10
485.1086784784508
 20
272.7294490612278
 30
0.0
 11
485.1086784784508
 21
257.7294484652279
 31
0.0
  0
LINE
  5
9797
330
1A
100
AcDbEntity
  8
SEIHIN
100
AcDbLine
 10
482.9839368050508
 20
257.7294484652279
 30
0.0
 11
482.9839368050508
 21
272.7294490612278
 31
0.0
  0
LINE
  5
9798
330
1A
100
AcDbEntity
  8
SEIHIN
100
AcDbLine
 10
482.8489024822507
 20
272.7677301443277
 30
0.0
 11
480.8124799911507
 21
275.6194994724278
 31
0.0
  0
LINE
  5
9799
330
1A
100
AcDbEntity
  8
SEIHIN
100
AcDbLine
 10
482.8827579205509
 20
275.8149878061278
 30
0.0
 11
485.1866144395009
 21
272.7294479079278
 31
0.0
  0
LINE
  5
979A
330
1A
100
AcDbEntity
  8
SEIHIN
100
AcDbLine
 10
482.2043527548508
 20
276.7295912779277
 30
0.0
 11
482.8827579205509
 21
275.8149878061278
 31
0.0
  0
LINE
  5
979B
330
1A
100
AcDbEntity
  8
SEIHIN
100
AcDbLine
 10
483.7794799988508
 20
274.6140138186278
 30
0.0
 11
484.4614465420508
 21
273.6850903309278
 31
0.0
  0
LINE
  5
979C
330
1A
100
AcDbEntity
  8
SEIHIN
100
AcDbLine
 10
481.5100331490508
 20
277.6935920990279
 30
0.0
 11
482.2043527548508
 21
276.7295912779277
 31
0.0
  0
LINE
  5
979D
330
1A
100
AcDbEntity
  8
SEIHIN
100
AcDbLine
 10
480.8124799911507
 20
275.6194994724278
 30
0.0
 11
479.334342214912
 21
277.7294479079275
 31
0.0
  0
LINE
  5
979E
330
1A
100
AcDbEntity
  8
SEIHIN
100
AcDbLine
 10
536.8067969267509
 20
259.2181191719278
 30
0.0
 11
535.3055332146508
 21
272.7294479079278
 31
0.0
  0
LINE
  5
979F
330
1A
100
AcDbEntity
  8
SEIHIN
100
AcDbLine
 10
514.6706125797508
 20
272.7294479079278
 30
0.0
 11
512.7730567638508
 21
259.4465986765278
 31
0.0
  0
LINE
  5
97A0
330
1A
100
AcDbEntity
  8
SEIHIN
100
AcDbLine
 10
512.7730567638508
 20
259.4465986765278
 30
0.0
 11
512.5678528730507
 21
258.8072196520279
 31
0.0
  0
LINE
  5
97A1
330
1A
100
AcDbEntity
  8
SEIHIN
100
AcDbLine
 10
512.5678528730507
 20
258.8072196520279
 30
0.0
 11
512.1625859920508
 21
258.2718060291278
 31
0.0
  0
LINE
  5
97A2
330
1A
100
AcDbEntity
  8
SEIHIN
100
AcDbLine
 10
512.1625859920508
 20
258.2718060291278
 30
0.0
 11
511.6029430811507
 21
257.9007075108279
 31
0.0
  0
LINE
  5
97A3
330
1A
100
AcDbEntity
  8
SEIHIN
100
AcDbLine
 10
511.6029430811507
 20
257.9007075108279
 30
0.0
 11
510.9519709532508
 21
257.7357665575277
 31
0.0
  0
LINE
  5
97A4
330
1A
100
AcDbEntity
  8
SEIHIN
100
AcDbLine
 10
510.9519709532508
 20
257.7357665575277
 30
0.0
 11
510.7931692783507
 21
257.7294484652279
 31
0.0
  0
LINE
  5
97A5
330
1A
100
AcDbEntity
  8
SEIHIN
100
AcDbLine
 10
538.4472657625509
 20
257.4693635977278
 30
0.0
 11
537.8148753826509
 21
257.6953546083277
 31
0.0
  0
LINE
  5
97A6
330
1A
100
AcDbEntity
  8
SEIHIN
100
AcDbLine
 10
537.8148753826509
 20
257.6953546083277
 30
0.0
 11
537.2929175083507
 21
258.1179664410278
 31
0.0
  0
LINE
  5
97A7
330
1A
100
AcDbEntity
  8
SEIHIN
100
AcDbLine
 10
537.2929175083507
 20
258.1179664410278
 30
0.0
 11
536.9402964298509
 21
258.6895004786279
 31
0.0
  0
LINE
  5
97A8
330
1A
100
AcDbEntity
  8
SEIHIN
100
AcDbLine
 10
536.9402964298509
 20
258.6895004786279
 30
0.0
 11
536.8067969267509
 21
259.2181191719278
 31
0.0
  0
LINE
  5
97A9
330
1A
100
AcDbEntity
  8
SEIHIN
100
AcDbLine
 10
515.8950508385508
 20
275.2294479079278
 30
0.0
 11
534.1327126437508
 21
275.2294479079278
 31
0.0
  0
LINE
  5
97AA
330
1A
100
AcDbEntity
  8
SEIHIN
100
AcDbLine
 10
514.6706125797508
 20
272.7294479079278
 30
0.0
 11
514.9051000063508
 21
274.3708715714278
 31
0.0
  0
LINE
  5
97AB
330
1A
100
AcDbEntity
  8
SEIHIN
100
AcDbLine
 10
515.8950437490508
 20
275.2294466770279
 30
0.0
 11
515.6243343536508
 21
275.1921043671277
 31
0.0
  0
LINE
  5
97AC
330
1A
100
AcDbEntity
  8
SEIHIN
100
AcDbLine
 10
515.6243343536508
 20
275.1921043671277
 30
0.0
 11
515.3869737570508
 21
275.0907615698279
 31
0.0
  0
LINE
  5
97AD
330
1A
100
AcDbEntity
  8
SEIHIN
100
AcDbLine
 10
515.3869737570508
 20
275.0907615698279
 30
0.0
 11
515.1377518360508
 21
274.882517842128
 31
0.0
  0
LINE
  5
97AE
330
1A
100
AcDbEntity
  8
SEIHIN
100
AcDbLine
 10
515.1377518360508
 20
274.882517842128
 30
0.0
 11
514.9451245253509
 21
274.5419070995278
 31
0.0
  0
LINE
  5
97AF
330
1A
100
AcDbEntity
  8
SEIHIN
100
AcDbLine
 10
514.9451245253509
 20
274.5419070995278
 30
0.0
 11
514.9051000063508
 21
274.3708715714278
 31
0.0
  0
LINE
  5
97B0
330
1A
100
AcDbEntity
  8
SEIHIN
100
AcDbLine
 10
535.1266015951508
 20
274.3398771561278
 30
0.0
 11
535.3055332146508
 21
272.7294479079278
 31
0.0
  0
LINE
  5
97B1
330
1A
100
AcDbEntity
  8
SEIHIN
100
AcDbLine
 10
535.1266015951508
 20
274.3398771561278
 30
0.0
 11
535.0122947876508
 21
274.7051940239277
 31
0.0
  0
LINE
  5
97B2
330
1A
100
AcDbEntity
  8
SEIHIN
100
AcDbLine
 10
535.0122947876508
 20
274.7051940239277
 30
0.0
 11
534.7914893810508
 21
274.9817893780277
 31
0.0
  0
LINE
  5
97B3
330
1A
100
AcDbEntity
  8
SEIHIN
100
AcDbLine
 10
534.7914893810508
 20
274.9817893780277
 30
0.0
 11
534.5415075008507
 21
275.1420811689279
 31
0.0
  0
LINE
  5
97B4
330
1A
100
AcDbEntity
  8
SEIHIN
100
AcDbLine
 10
534.5415075008507
 20
275.1420811689279
 30
0.0
 11
534.2885006849509
 21
275.2172426260278
 31
0.0
  0
LINE
  5
97B5
330
1A
100
AcDbEntity
  8
SEIHIN
100
AcDbLine
 10
534.2885006849509
 20
275.2172426260278
 30
0.0
 11
534.1327090446508
 21
275.2294466770279
 31
0.0
  0
LINE
  5
97B6
330
1A
100
AcDbEntity
  8
SEIHIN
100
AcDbLine
 10
606.785957950851
 20
110.82687642733
 30
0.0
 11
607.6846842353509
 21
110.44137593663
 31
0.0
  0
LINE
  5
97B7
330
1A
100
AcDbEntity
  8
SEIHIN
100
AcDbLine
 10
605.3644169753511
 20
110.15783291613
 30
0.0
 11
607.6562453692511
 21
110.15783291613
 31
0.0
  0
ARC
  5
97B8
330
1A
100
AcDbEntity
  8
NOKITOI
 48
0.5
100
AcDbCircle
 10
573.0485797462862
 20
129.5698103339667
 30
0.0
 40
4.999999999999845
100
AcDbArc
 50
357.3849271045684
 51
90.0
  0
ARC
  5
97B9
330
1A
100
AcDbEntity
  8
NOKITOI
 48
0.5
100
AcDbCircle
 10
573.0485797462871
 20
129.5698103339665
 30
0.0
 40
3.400000000000112
100
AcDbArc
 50
357.3849271045766
 51
90.0
  0
LINE
  5
97BA
330
1A
100
AcDbEntity
  8
NOKITOI
 48
0.5
100
AcDbLine
 10
572.9374611992644
 20
118.3699416302555
 30
0.0
 11
575.9514156382366
 21
118.6069942265788
 31
0.0
  0
LINE
  5
97BB
330
1A
100
AcDbEntity
  8
NOKITOI
 48
0.5
100
AcDbLine
 10
571.8660032110038
 20
119.7903020662801
 30
0.0
 11
576.0203850010631
 21
120.1170511958352
 31
0.0
  0
ARC
  5
97BC
330
1A
100
AcDbEntity
  8
SEIHIN
100
AcDbCircle
 10
573.0484105377778
 20
130.079605717776
 30
0.0
 40
4.999990886760024
100
AcDbArc
 50
357.431019098627
 51
90.0000886152674
  0
LINE
  5
97BD
330
1A
100
AcDbEntity
  8
SEIHIN
100
AcDbLine
 10
568.940629500651
 20
132.77959492363
 30
0.0
 11
577.256729144351
 21
132.77959492363
 31
0.0
  0
LINE
  5
97BE
330
1A
100
AcDbEntity
  8
SEIHIN
100
AcDbLine
 10
575.368975538551
 20
137.77959015523
 30
0.0
 11
569.2876101601512
 21
137.77959333813
 31
0.0
  0
LINE
  5
97BF
330
1A
100
AcDbEntity
  8
SEIHIN
100
AcDbLine
 10
575.407005331451
 20
110.37959333813
 30
0.0
 11
572.637115854551
 21
110.37959199703
 31
0.0
  0
LINE
  5
97C0
330
1A
100
AcDbEntity
  8
SEIHIN
100
AcDbLine
 10
575.5114753430509
 20
110.43379497093
 30
0.0
 11
574.3677069132511
 21
111.00319441713
 31
0.0
  0
LINE
  5
97C1
330
1A
100
AcDbEntity
  8
NOKITOI
 48
0.5
100
AcDbLine
 10
571.2899002118884
 20
132.9698103339668
 30
0.0
 11
565.1029240640801
 21
116.2491096676675
 31
0.0
  0
LINE
  5
97C2
330
1A
100
AcDbEntity
  8
NOKITOI
 48
0.5
100
AcDbLine
 10
570.0411017479735
 20
133.9173134073318
 30
0.0
 11
562.8821589247337
 21
114.5698103339663
 31
0.0
  0
LINE
  5
97C3
330
1A
100
AcDbEntity
  8
SEIHIN
100
AcDbLine
 10
563.9975120013511
 20
131.22133579413
 30
0.0
 11
562.4986041968511
 21
132.77350034873
 31
0.0
  0
LINE
  5
97C4
330
1A
100
AcDbEntity
  8
SEIHIN
100
AcDbLine
 10
572.149609464951
 20
118.73933341663
 30
0.0
 11
571.6847081368512
 21
121.75295915763
 31
0.0
  0
LINE
  5
97C5
330
1A
100
AcDbEntity
  8
NOKITOI
 48
0.5
100
AcDbLine
 10
565.1029240640801
 20
116.2491096676675
 30
0.0
 11
570.7107009364746
 21
116.6901707699906
 31
0.0
  0
LINE
  5
97C6
330
1A
100
AcDbEntity
  8
NOKITOI
 48
0.5
100
AcDbLine
 10
562.8821589247337
 20
114.5698103339663
 30
0.0
 11
571.46421102957
 21
115.2448031961447
 31
0.0
  0
LINE
  5
97C7
330
1A
100
AcDbEntity
  8
NOKITOI
 48
0.5
100
AcDbLine
 10
570.7107009364746
 20
116.6901707699906
 30
0.0
 11
571.8660032110038
 21
119.7903020662801
 31
0.0
  0
ARC
  5
97C8
330
1A
100
AcDbEntity
  8
NOKITOI
 48
0.5
100
AcDbCircle
 10
571.4250062619804
 20
115.7432638126414
 30
0.0
 40
0.5000000000000096
100
AcDbArc
 50
274.4971516146625
 51
339.5614685906799
  0
LINE
  5
97C9
330
1A
100
AcDbEntity
  8
NOKITOI
 48
0.5
100
AcDbLine
 10
571.8935299434189
 20
115.5686626673658
 30
0.0
 11
572.9374611992644
 21
118.3699416302555
 31
0.0
  0
LINE
  5
97CA
330
1A
100
AcDbEntity
  8
SEIHIN
100
AcDbLine
 10
574.3677069132511
 20
111.00319441713
 30
0.0
 11
573.226918715751
 21
112.05742176933
 31
0.0
  0
LINE
  5
97CB
330
1A
100
AcDbEntity
  8
SEIHIN
100
AcDbLine
 10
573.226918715751
 20
112.05742176933
 30
0.0
 11
572.7383245413509
 21
112.80398112093
 31
0.0
  0
LINE
  5
97CC
330
1A
100
AcDbEntity
  8
SEIHIN
100
AcDbLine
 10
572.7383245413509
 20
112.80398112093
 30
0.0
 11
572.219182986551
 21
114.32660784883
 31
0.0
  0
LINE
  5
97CD
330
1A
100
AcDbEntity
  8
SEIHIN
100
AcDbLine
 10
572.219182986551
 20
114.32660784883
 30
0.0
 11
572.149609464951
 21
115.15783187313
 31
0.0
  0
LINE
  5
97CE
330
1A
100
AcDbEntity
  8
SEIHIN
100
AcDbLine
 10
572.149609464951
 20
118.73933341663
 30
0.0
 11
572.149609464951
 21
115.15783187313
 31
0.0
  0
LINE
  5
97CF
330
1A
100
AcDbEntity
  8
SEIHIN
100
AcDbLine
 10
568.805014032651
 20
126.24302175203
 30
0.0
 11
565.7021750395511
 21
129.45609953563
 31
0.0
  0
LINE
  5
97D0
330
1A
100
AcDbEntity
  8
SEIHIN
100
AcDbLine
 10
565.7021750395511
 20
129.45609953563
 30
0.0
 11
563.9975120013511
 21
131.22133579413
 31
0.0
  0
LINE
  5
97D1
330
1A
100
AcDbEntity
  8
SEIHIN
100
AcDbLine
 10
569.3430055564511
 20
125.68591203843
 30
0.0
 11
568.805014032651
 21
126.24302175203
 31
0.0
  0
LINE
  5
97D2
330
1A
100
AcDbEntity
  8
SEIHIN
100
AcDbLine
 10
570.401509541851
 20
124.38787933743
 30
0.0
 11
569.3430055564511
 21
125.68591203843
 31
0.0
  0
LINE
  5
97D3
330
1A
100
AcDbEntity
  8
SEIHIN
100
AcDbLine
 10
571.6847081368512
 20
121.75295915763
 30
0.0
 11
570.401509541851
 21
124.38787933743
 31
0.0
  0
ARC
  5
97D4
330
1A
100
AcDbEntity
  8
SEIHIN
100
AcDbCircle
 10
568.8940853033511
 20
134.69839268003
 30
0.0
 40
2.000000000000047
100
AcDbArc
 50
159.9999999999995
 51
241.3730734412987
  0
LINE
  5
97D5
330
1A
100
AcDbEntity
  8
SEIHIN
100
AcDbLine
 10
562.498812813151
 20
132.77959492363
 30
0.0
 11
568.3183272069511
 21
132.77959492363
 31
0.0
  0
LINE
  5
97D6
330
1A
100
AcDbEntity
  8
SEIHIN
100
AcDbLine
 10
562.498812813151
 20
132.77959492363
 30
0.0
 11
559.797172684051
 21
132.77959492363
 31
0.0
  0
LINE
  5
97D7
330
1A
100
AcDbEntity
  8
SEIHIN
100
AcDbLine
 10
562.4986041968511
 20
132.77350034873
 30
0.0
 11
562.498812813151
 21
132.77959492363
 31
0.0
  0
ARC
  5
97D8
330
1A
100
AcDbEntity
  8
NOKITOI
 48
0.5
100
AcDbCircle
 10
570.9787805917159
 20
133.5698103339667
 30
0.0
 40
1.0
100
AcDbArc
 50
90.00000000005213
 51
159.7238100727588
  0
LINE
  5
97D9
330
1A
100
AcDbEntity
  8
NOKITOI
 48
0.5
100
AcDbLine
 10
571.2899002118884
 20
132.9698103339668
 30
0.0
 11
573.0485797462871
 21
132.9698103339666
 31
0.0
  0
LINE
  5
97DA
330
1A
100
AcDbEntity
  8
NOKITOI
 48
0.5
100
AcDbLine
 10
570.9787805917159
 20
134.5698103339667
 30
0.0
 11
573.0485797462862
 21
134.5698103339667
 31
0.0
  0
ARC
  5
97DB
330
1A
100
AcDbEntity
  8
SEIHIN
100
AcDbCircle
 10
569.2876101601512
 20
135.77959333813
 30
0.0
 40
2.0
100
AcDbArc
 50
90.0
 51
159.9999999999995
  0
LINE
  5
97DC
330
1A
100
AcDbEntity
  8
SEIHIN
100
AcDbLine
 10
567.408224918651
 20
136.46363362483
 30
0.0
 11
567.014700061751
 21
135.38243296673
 31
0.0
  0
LINE
  5
97DD
330
1A
100
AcDbEntity
  8
SEIHIN
100
AcDbLine
 10
568.8678224270509
 20
132.57959153813
 30
0.0
 11
569.777761835451
 21
135.07959660453
 31
0.0
  0
LINE
  5
97DE
330
1A
100
AcDbEntity
  8
SEIHIN
100
AcDbLine
 10
568.2100404685509
 20
132.81900849503
 30
0.0
 11
568.8678224270509
 21
132.57959153813
 31
0.0
  0
LINE
  5
97DF
330
1A
100
AcDbEntity
  8
SEIHIN
100
AcDbLine
 10
568.2100404685509
 20
132.81900849503
 30
0.0
 11
568.1166250889511
 21
132.85568770323
 31
0.0
  0
LINE
  5
97E0
330
1A
100
AcDbEntity
  8
SEIHIN
100
AcDbLine
 10
568.1166250889511
 20
132.85568770323
 30
0.0
 11
568.025161761551
 21
132.89701607383
 31
0.0
  0
LINE
  5
97E1
330
1A
100
AcDbEntity
  8
SEIHIN
100
AcDbLine
 10
568.025161761551
 20
132.89701607383
 30
0.0
 11
567.9358740037512
 21
132.94287439743
 31
0.0
  0
LINE
  5
97E2
330
1A
100
AcDbEntity
  8
SEIHIN
100
AcDbLine
 10
569.777761835451
 20
135.07959660453
 30
0.0
 11
573.048402804651
 21
135.07959660453
 31
0.0
  0
LINE
  5
97E3
330
1A
100
AcDbEntity
  8
SEIHIN
100
AcDbLine
 10
593.6676610892511
 20
132.77350034873
 30
0.0
 11
597.0130909865511
 21
130.84236946263
 31
0.0
  0
LINE
  5
97E4
330
1A
100
AcDbEntity
  8
SEIHIN
100
AcDbLine
 10
588.1899942343509
 20
132.13360723413
 30
0.0
 11
585.3820343201512
 21
132.63643201743
 31
0.0
  0
LINE
  5
97E5
330
1A
100
AcDbEntity
  8
SEIHIN
100
AcDbLine
 10
579.8623758222508
 20
110.15783250933
 30
0.0
 11
580.8672297469509
 21
132.55549762113
 31
0.0
  0
LINE
  5
97E6
330
1A
100
AcDbEntity
  8
SEIHIN
100
AcDbLine
 10
580.366735596051
 20
132.55562302033
 30
0.0
 11
579.3637148464511
 21
110.19888907183
 31
0.0
  0
LINE
  5
97E7
330
1A
100
AcDbEntity
  8
SEIHIN
100
AcDbLine
 10
593.808134335851
 20
129.92962118543
 30
0.0
 11
590.8481974785511
 21
131.30672689833
 31
0.0
  0
LINE
  5
97E8
330
1A
100
AcDbEntity
  8
NOKITOI
 48
0.5
100
AcDbLine
 10
576.0203850010631
 20
120.1170511958352
 30
0.0
 11
576.4450389914105
 21
129.4146826568215
 31
0.0
  0
LINE
  5
97E9
330
1A
100
AcDbEntity
  8
NOKITOI
 48
0.5
100
AcDbLine
 10
577.1403251358602
 20
109.5698103339706
 30
0.0
 11
578.0433727538203
 21
129.3416813969895
 31
0.0
  0
LINE
  5
97EA
330
1A
100
AcDbEntity
  8
SEIHIN
100
AcDbLine
 10
578.0433805943647
 20
129.8554951043899
 30
0.0
 11
577.1696090378511
 21
110.37959333813
 31
0.0
  0
LINE
  5
97EB
330
1A
100
AcDbEntity
  8
NOKITOI
 48
0.5
100
AcDbLine
 10
575.5447378077866
 20
109.7029436893418
 30
0.0
 11
575.9514156382366
 21
118.6069942265788
 31
0.0
  0
LINE
  5
97EC
330
1A
100
AcDbEntity
  8
SEIHIN
100
AcDbLine
 10
577.1696090378511
 20
110.37959333813
 30
0.0
 11
575.407005331451
 21
110.37959333813
 31
0.0
  0
LINE
  5
97ED
330
1A
100
AcDbEntity
  8
SEIHIN
100
AcDbLine
 10
575.7564951365509
 20
110.37959199703
 30
0.0
 11
575.5114753430509
 21
110.43379497093
 31
0.0
  0
LINE
  5
97EE
330
1A
100
AcDbEntity
  8
SEIHIN
100
AcDbLine
 10
590.8481974785511
 20
131.30672689833
 30
0.0
 11
588.1899942343509
 21
132.13360723413
 31
0.0
  0
LINE
  5
97EF
330
1A
100
AcDbEntity
  8
SEIHIN
100
AcDbLine
 10
601.748605508151
 20
118.73933341663
 30
0.0
 11
601.290841836251
 21
121.65686901963
 31
0.0
  0
LINE
  5
97F0
330
1A
100
AcDbEntity
  8
SEIHIN
100
AcDbLine
 10
603.9040584748511
 20
123.26733436743
 30
0.0
 11
604.6568800395509
 21
120.25031116163
 31
0.0
  0
LINE
  5
97F1
330
1A
100
AcDbEntity
  8
SEIHIN
100
AcDbLine
 10
604.6568800395509
 20
120.25031116163
 30
0.0
 11
604.825516480751
 21
118.73933341663
 31
0.0
  0
LINE
  5
97F2
330
1A
100
AcDbEntity
  8
SEIHIN
100
AcDbLine
 10
602.8873373454509
 20
110.49583968083
 30
0.0
 11
602.880408305451
 21
111.58836674253
 31
0.0
  0
LINE
  5
97F3
330
1A
100
AcDbEntity
  8
SEIHIN
100
AcDbLine
 10
605.4838497822508
 20
112.80398112093
 30
0.0
 11
605.9783746188511
 21
111.62810068883
 31
0.0
  0
LINE
  5
97F4
330
1A
100
AcDbEntity
  8
SEIHIN
100
AcDbLine
 10
602.880408305451
 20
111.58836674253
 30
0.0
 11
602.3802508299511
 21
112.95712407983
 31
0.0
  0
LINE
  5
97F5
330
1A
100
AcDbEntity
  8
SEIHIN
100
AcDbLine
 10
602.3802508299511
 20
112.95712407983
 30
0.0
 11
602.0392526572512
 21
114.62165084043
 31
0.0
  0
LINE
  5
97F6
330
1A
100
AcDbEntity
  8
SEIHIN
100
AcDbLine
 10
602.0392526572512
 20
114.62165084043
 30
0.0
 11
601.9891698544508
 21
115.15783187313
 31
0.0
  0
LINE
  5
97F7
330
1A
100
AcDbEntity
  8
SEIHIN
100
AcDbLine
 10
605.3644169753511
 20
110.15783291613
 30
0.0
 11
603.973900217351
 21
110.41692685643
 31
0.0
  0
LINE
  5
97F8
330
1A
100
AcDbEntity
  8
SEIHIN
100
AcDbLine
 10
603.973900217351
 20
110.41692685643
 30
0.0
 11
603.1553943341512
 21
111.10303592243
 31
0.0
  0
LINE
  5
97F9
330
1A
100
AcDbEntity
  8
SEIHIN
100
AcDbLine
 10
603.1553943341512
 20
111.10303592243
 30
0.0
 11
602.880408305451
 21
111.58836674253
 31
0.0
  0
LINE
  5
97FA
330
1A
100
AcDbEntity
  8
SEIHIN
100
AcDbLine
 10
605.086674231851
 20
115.15783187313
 30
0.0
 11
605.307196516351
 21
113.55732795153
 31
0.0
  0
LINE
  5
97FB
330
1A
100
AcDbEntity
  8
SEIHIN
100
AcDbLine
 10
605.307196516351
 20
113.55732795153
 30
0.0
 11
605.4838497822508
 21
112.80398112093
 31
0.0
  0
LINE
  5
97FC
330
1A
100
AcDbEntity
  8
SEIHIN
100
AcDbLine
 10
605.9783746188511
 20
111.62810068883
 30
0.0
 11
606.785957950851
 21
110.82687642733
 31
0.0
  0
LINE
  5
97FD
330
1A
100
AcDbEntity
  8
SEIHIN
100
AcDbLine
 10
601.9891698544508
 20
115.15783187313
 30
0.0
 11
601.748605508151
 21
118.73933341663
 31
0.0
  0
LINE
  5
97FE
330
1A
100
AcDbEntity
  8
SEIHIN
100
AcDbLine
 10
605.086674231851
 20
115.15783187313
 30
0.0
 11
604.825516480751
 21
118.73933341663
 31
0.0
  0
LINE
  5
97FF
330
1A
100
AcDbEntity
  8
SEIHIN
100
AcDbLine
 10
597.0130909865511
 20
130.84236946263
 30
0.0
 11
599.9736536925508
 21
128.50074138803
 31
0.0
  0
LINE
  5
9800
330
1A
100
AcDbEntity
  8
SEIHIN
100
AcDbLine
 10
600.2996314948511
 20
124.20590635693
 30
0.0
 11
599.2349435275512
 21
125.68591203843
 31
0.0
  0
LINE
  5
9801
330
1A
100
AcDbEntity
  8
SEIHIN
100
AcDbLine
 10
596.4256127064511
 20
128.22731253063
 30
0.0
 11
593.808134335851
 21
129.92962118543
 31
0.0
  0
LINE
  5
9802
330
1A
100
AcDbEntity
  8
SEIHIN
100
AcDbLine
 10
599.2349435275512
 20
125.68591203843
 30
0.0
 11
596.4256127064511
 21
128.22731253063
 31
0.0
  0
LINE
  5
9803
330
1A
100
AcDbEntity
  8
SEIHIN
100
AcDbLine
 10
602.5040347760511
 20
125.78613724863
 30
0.0
 11
602.5832046454508
 21
125.68591203843
 31
0.0
  0
LINE
  5
9804
330
1A
100
AcDbEntity
  8
SEIHIN
100
AcDbLine
 10
601.290841836251
 20
121.65686901963
 30
0.0
 11
600.2996314948511
 21
124.20590635693
 31
0.0
  0
LINE
  5
9805
330
1A
100
AcDbEntity
  8
SEIHIN
100
AcDbLine
 10
602.5832046454508
 20
125.68591203843
 30
0.0
 11
603.9040584748511
 21
123.26733436743
 31
0.0
  0
LINE
  5
9806
330
1A
100
AcDbEntity
  8
SEIHIN
100
AcDbLine
 10
599.9736536925508
 20
128.50074138803
 30
0.0
 11
602.5040347760511
 21
125.78613724863
 31
0.0
  0
LINE
  5
9807
330
1A
100
AcDbEntity
  8
SEIHIN
100
AcDbLine
 10
580.8722574895512
 20
132.77959492363
 30
0.0
 11
593.666916031151
 21
132.77959492363
 31
0.0
  0
LINE
  5
9808
330
1A
100
AcDbEntity
  8
SEIHIN
100
AcDbLine
 10
582.959731358851
 20
132.77350034873
 30
0.0
 11
593.6676610892511
 21
132.77350034873
 31
0.0
  0
LINE
  5
9809
330
1A
100
AcDbEntity
  8
SEIHIN
100
AcDbLine
 10
585.3820343201512
 20
132.63643201743
 30
0.0
 11
582.959731358851
 21
132.77350034873
 31
0.0
  0
ARC
  5
980A
330
1A
100
AcDbEntity
  8
SEIHIN
100
AcDbCircle
 10
575.3205477503039
 20
132.7306017343432
 30
0.0
 40
5.04922066510502
100
AcDbArc
 50
358.014040136307
 51
89.45045966409441
  0
ARC
  5
980B
330
1A
100
AcDbEntity
  8
SEIHIN
100
AcDbCircle
 10
575.8722541604509
 20
132.77959333813
 30
0.0
 40
4.999999999999993
100
AcDbArc
 50
357.4311917340003
 51
90.0
  0
LINE
  5
980C
330
1A
100
AcDbEntity
  8
SEIHIN
100
AcDbLine
 10
593.6676610892511
 20
132.77350034873
 30
0.0
 11
593.666916031151
 21
132.77959492363
 31
0.0
  0
LINE
  5
980D
330
1A
100
AcDbEntity
  8
SEIHIN
100
AcDbLine
 10
614.1491432374512
 20
121.31512578883
 30
0.0
 11
613.527332681951
 21
120.55744644563
 31
0.0
  0
LINE
  5
980E
330
1A
100
AcDbEntity
  8
SEIHIN
100
AcDbLine
 10
613.527332681951
 20
120.55744644563
 30
0.0
 11
613.065284926251
 21
119.69300773303
 31
0.0
  0
LINE
  5
980F
330
1A
100
AcDbEntity
  8
SEIHIN
100
AcDbLine
 10
613.065284926251
 20
119.69300773303
 30
0.0
 11
612.780754703851
 21
118.75504669113
 31
0.0
  0
LINE
  5
9810
330
1A
100
AcDbEntity
  8
SEIHIN
100
AcDbLine
 10
612.780754703851
 20
118.75504669113
 30
0.0
 11
612.6846794670512
 21
117.77959432763
 31
0.0
  0
LINE
  5
9811
330
1A
100
AcDbEntity
  8
SEIHIN
100
AcDbLine
 10
607.684680864251
 20
110.15783250933
 30
0.0
 11
607.684680864251
 21
110.44137747773
 31
0.0
  0
LINE
  5
9812
330
1A
100
AcDbEntity
  8
SEIHIN
100
AcDbLine
 10
607.6562453692511
 20
110.15783291613
 30
0.0
 11
607.684680864251
 21
110.15783250933
 31
0.0
  0
LINE
  5
9813
330
1A
100
AcDbEntity
  8
SEIHIN
100
AcDbLine
 10
612.6846794670512
 20
115.15783187313
 30
0.0
 11
612.6199562733511
 21
114.35592588343
 31
0.0
  0
LINE
  5
9814
330
1A
100
AcDbEntity
  8
SEIHIN
100
AcDbLine
 10
612.6199562733511
 20
114.35592588343
 30
0.0
 11
612.4274630730511
 21
113.57478466193
 31
0.0
  0
LINE
  5
9815
330
1A
100
AcDbEntity
  8
SEIHIN
100
AcDbLine
 10
612.4274630730511
 20
113.57478466193
 30
0.0
 11
612.112176853951
 21
112.83462535893
 31
0.0
  0
LINE
  5
9816
330
1A
100
AcDbEntity
  8
SEIHIN
100
AcDbLine
 10
612.112176853951
 20
112.83462535893
 30
0.0
 11
611.1271206920512
 21
111.53159704363
 31
0.0
  0
LINE
  5
9817
330
1A
100
AcDbEntity
  8
SEIHIN
100
AcDbLine
 10
611.1271206920512
 20
111.53159704363
 30
0.0
 11
609.791581768351
 21
110.62341224713
 31
0.0
  0
LINE
  5
9818
330
1A
100
AcDbEntity
  8
SEIHIN
100
AcDbLine
 10
609.791581768351
 20
110.62341224713
 30
0.0
 11
608.336893159651
 21
110.20055454533
 31
0.0
  0
LINE
  5
9819
330
1A
100
AcDbEntity
  8
SEIHIN
100
AcDbLine
 10
608.336893159651
 20
110.20055454533
 30
0.0
 11
607.6846842353509
 21
110.15783291613
 31
0.0
  0
LINE
  5
981A
330
1A
100
AcDbEntity
  8
SEIHIN
100
AcDbLine
 10
612.6846794670512
 20
117.77959432763
 30
0.0
 11
612.6846794670512
 21
115.15783187313
 31
0.0
  0
LINE
  5
981B
330
1A
100
AcDbEntity
  8
SEIHIN
100
AcDbLine
 10
616.7092297857509
 20
122.68352177303
 30
0.0
 11
615.7712612932511
 21
122.39899155063
 31
0.0
  0
LINE
  5
981C
330
1A
100
AcDbEntity
  8
SEIHIN
100
AcDbLine
 10
615.7712612932511
 20
122.39899155063
 30
0.0
 11
614.906830031251
 21
121.93694379483
 31
0.0
  0
LINE
  5
981D
330
1A
100
AcDbEntity
  8
SEIHIN
100
AcDbLine
 10
614.906830031251
 20
121.93694379483
 30
0.0
 11
614.1491432374512
 21
121.31512578883
 31
0.0
  0
LINE
  5
981E
330
1A
100
AcDbEntity
  8
SEIHIN
100
AcDbLine
 10
617.684682149251
 20
122.77959700983
 30
0.0
 11
616.7092297857509
 21
122.68352177303
 31
0.0
  0
DIMENSION
  5
981F
330
1A
100
AcDbEntity
  8
SUNPOU
100
AcDbDimension
  2
*D7
 10
612.193987595519
 20
228.7294479079279
 30
0.0
 11
607.193987595519
 21
251.9794479079279
 31
0.0
 70
    32
  1
\U+203B<>
  3
STANDARD
100
AcDbAlignedDimension
 13
580.4286350195508
 23
275.2294479079278
 33
0.0
 14
580.3717572408145
 24
228.7294479079279
 34
0.0
 50
90.0
100
AcDbRotatedDimension
1001
ACAD
1000
DSTYLE
1002
{
1070
    41
1040
7.0
1070
    42
1040
6.0
1070
    43
1040
14.0
1070
    44
1040
3.0
1070
    73
1070
     0
1070
    74
1070
     0
1070
    77
1070
     3
1070
   140
1040
6.0
1070
   141
1040
30.0
1070
   147
1040
2.0
1070
   172
1070
     1
1070
   176
1070
   256
1070
   177
1070
   256
1070
   178
1070
   256
1070
   271
1070
     0
1070
   272
1070
     0
1070
   341
1005
6D
1070
     5
1000
OPEN
1070
   371
1070
    -1
1070
   372
1070
    -1
1002
}
  0
LINE
  5
9820
330
1A
100
AcDbEntity
  8
SEIHIN
100
AcDbLine
 10
575.7639021402509
 20
240.5654639340277
 30
0.0
 11
575.3689755384508
 21
228.7294492996279
 31
0.0
  0
LINE
  5
9821
330
1A
100
AcDbEntity
  8
SEIHIN
100
AcDbLine
 10
580.3717572872509
 20
228.7294492996279
 30
0.0
 11
580.7611210933508
 21
240.3987224133279
 31
0.0
  0
LINE
  5
9822
330
1A
100
AcDbEntity
  8
SEIHIN
100
AcDbLine
 10
564.2597277348508
 20
252.9156134403279
 30
0.0
 11
564.2597214894509
 21
228.7294479079278
 31
0.0
  0
LINE
  5
9823
330
1A
100
AcDbEntity
  8
SEIHIN
100
AcDbLine
 10
566.8940853033508
 20
267.7294479079278
 30
0.0
 11
566.8940853033508
 21
228.7294479079278
 31
0.0
  0
LINE
  5
9824
330
1A
100
AcDbEntity
  8
SEIHIN
100
AcDbLine
 10
580.8722541604508
 20
267.7294479079278
 30
0.0
 11
566.8940853033508
 21
267.7294479079278
 31
0.0
  0
LINE
  5
9825
330
1A
100
AcDbEntity
  8
SEIHIN
100
AcDbLine
 10
572.6371090036508
 20
272.7294479079278
 30
0.0
 11
577.1696090378508
 21
277.7294479079277
 31
0.0
  0
LINE
  5
9826
330
1A
100
AcDbEntity
  8
SEIHIN
100
AcDbLine
 10
564.9483700568692
 20
252.8403100617731
 30
0.0
 11
564.9483645545509
 21
272.7294479079278
 31
0.0
  0
LINE
  5
9827
330
1A
100
AcDbEntity
  8
SEIHIN
100
AcDbLine
 10
565.9805585329507
 20
253.0161068714278
 30
0.0
 11
566.8940891211508
 21
253.4264550484278
 31
0.0
  0
LINE
  5
9828
330
1A
100
AcDbEntity
  8
SEIHIN
100
AcDbLine
 10
564.7995222990508
 20
252.8228537119277
 30
0.0
 11
564.2651815598509
 21
252.9170737541278
 31
0.0
  0
LINE
  5
9829
330
1A
100
AcDbEntity
  8
SEIHIN
100
AcDbLine
 10
561.8195880835509
 20
253.3482835567279
 30
0.0
 11
562.5140865032509
 21
253.2258258141278
 31
0.0
  0
LINE
  5
982A
330
1A
100
AcDbEntity
  8
SEIHIN
100
AcDbLine
 10
562.5140865032509
 20
253.2258258141278
 30
0.0
 11
563.1712873165508
 21
253.1099394835278
 31
0.0
  0
LINE
  5
982B
330
1A
100
AcDbEntity
  8
SEIHIN
100
AcDbLine
 10
563.1712873165508
 20
253.1099394835278
 30
0.0
 11
563.7660969679508
 21
253.0050651110277
 31
0.0
  0
LINE
  5
982C
330
1A
100
AcDbEntity
  8
SEIHIN
100
AcDbLine
 10
563.7660969679508
 20
253.0050651110277
 30
0.0
 11
564.2651815598509
 21
252.9170737541278
 31
0.0
  0
LINE
  5
982D
330
1A
100
AcDbEntity
  8
SEIHIN
100
AcDbLine
 10
565.9805585329507
 20
253.0161068714278
 30
0.0
 11
565.5565459911507
 21
252.9116348303277
 31
0.0
  0
LINE
  5
982E
330
1A
100
AcDbEntity
  8
SEIHIN
100
AcDbLine
 10
565.5565459911507
 20
252.9116348303277
 30
0.0
 11
564.7995222990508
 21
252.8228537119277
 31
0.0
  0
LINE
  5
982F
330
1A
100
AcDbEntity
  8
SEIHIN
100
AcDbLine
 10
564.8032773916508
 20
272.7294490612278
 30
0.0
 11
568.8188030386448
 21
277.7294479079277
 31
0.0
  0
LINE
  5
9830
330
1A
100
AcDbEntity
  8
SEIHIN
100
AcDbLine
 10
572.5180704777509
 20
267.7294538296278
 30
0.0
 11
572.6371090036508
 21
272.7294479079278
 31
0.0
  0
LINE
  5
9831
330
1A
100
AcDbEntity
  8
SEIHIN
100
AcDbLine
 10
575.8722541604507
 20
267.7294479079278
 30
0.0
 11
575.8722541604507
 21
247.0618558294277
 31
0.0
  0
LINE
  5
9832
330
1A
100
AcDbEntity
  8
SEIHIN
100
AcDbLine
 10
580.8722541604508
 20
247.0618558294277
 30
0.0
 11
580.8722541604508
 21
267.7294479079278
 31
0.0
  0
LINE
  5
9833
330
1A
100
AcDbEntity
  8
SEIHIN
100
AcDbLine
 10
575.7639010136507
 20
240.5654565371278
 30
0.0
 11
576.7662425224508
 21
240.5320183313278
 31
0.0
  0
LINE
  5
9834
330
1A
100
AcDbEntity
  8
SEIHIN
100
AcDbLine
 10
576.7662425224508
 20
240.5320183313278
 30
0.0
 11
577.7278591577509
 21
240.4999361313278
 31
0.0
  0
LINE
  5
9835
330
1A
100
AcDbEntity
  8
SEIHIN
100
AcDbLine
 10
577.7278591577509
 20
240.4999361313278
 30
0.0
 11
578.6096353714509
 21
240.4705063379278
 31
0.0
  0
LINE
  5
9836
330
1A
100
AcDbEntity
  8
SEIHIN
100
AcDbLine
 10
578.6096353714509
 20
240.4705063379278
 30
0.0
 11
579.3757487719509
 21
240.4449508465277
 31
0.0
  0
LINE
  5
9837
330
1A
100
AcDbEntity
  8
SEIHIN
100
AcDbLine
 10
579.3757487719509
 20
240.4449508465277
 30
0.0
 11
579.9950559322509
 21
240.4242829359277
 31
0.0
  0
LINE
  5
9838
330
1A
100
AcDbEntity
  8
SEIHIN
100
AcDbLine
 10
579.9950559322509
 20
240.4242829359277
 30
0.0
 11
580.4423738901508
 21
240.4093519724278
 31
0.0
  0
LINE
  5
9839
330
1A
100
AcDbEntity
  8
SEIHIN
100
AcDbLine
 10
580.4423738901508
 20
240.4093519724278
 30
0.0
 11
580.699553031251
 21
240.4007838047277
 31
0.0
  0
LINE
  5
983A
330
1A
100
AcDbEntity
  8
SEIHIN
100
AcDbLine
 10
580.699553031251
 20
240.4007838047277
 30
0.0
 11
580.7611246292509
 21
240.3987274445278
 31
0.0
  0
LINE
  5
983B
330
1A
100
AcDbEntity
  8
SEIHIN
100
AcDbLine
 10
575.8722541604507
 20
247.0618558294277
 30
0.0
 11
580.8722541604508
 21
247.0618558294277
 31
0.0
  0
LINE
  5
983C
330
1A
100
AcDbEntity
  8
SEIHIN
100
AcDbLine
 10
575.8722473566507
 20
247.0618561781279
 30
0.0
 11
575.8451570456507
 21
243.8132093227277
 31
0.0
  0
LINE
  5
983D
330
1A
100
AcDbEntity
  8
SEIHIN
100
AcDbLine
 10
580.8097322170509
 20
242.0640961206277
 30
0.0
 11
580.8722574894508
 21
247.0618561781279
 31
0.0
  0
LINE
  5
983E
330
1A
100
AcDbEntity
  8
SEIHIN
100
AcDbLine
 10
575.8451570456507
 20
243.8132093227277
 30
0.0
 11
575.7639010136507
 21
240.5654565371278
 31
0.0
  0
LINE
  5
983F
330
1A
100
AcDbEntity
  8
SEIHIN
100
AcDbLine
 10
580.7611246292509
 20
240.3987274445278
 30
0.0
 11
580.8097322170509
 21
242.0640961206277
 31
0.0
  0
LINE
  5
9840
330
1A
100
AcDbEntity
  8
SEIHIN
100
AcDbLine
 10
577.1696020548508
 20
275.2294466770279
 30
0.0
 11
575.4070033018507
 21
272.7294490612278
 31
0.0
  0
LINE
  5
9841
330
1A
100
AcDbEntity
  8
SEIHIN
100
AcDbLine
 10
577.7784038965509
 20
269.5155070103278
 30
0.0
 11
577.8060604517508
 21
268.8992247856278
 31
0.0
  0
LINE
  5
9842
330
1A
100
AcDbEntity
  8
SEIHIN
100
AcDbLine
 10
577.8060604517508
 20
268.8992247856278
 30
0.0
 11
577.8809933988683
 21
267.7294479079278
 31
0.0
  0
LINE
  5
9843
330
1A
100
AcDbEntity
  8
SEIHIN
100
AcDbLine
 10
577.8380830471509
 20
268.3993206299278
 30
0.0
 11
577.8735180084508
 21
268.0309788263278
 31
0.0
  0
LINE
  5
9844
330
1A
100
AcDbEntity
  8
SEIHIN
100
AcDbLine
 10
580.5762459223509
 20
268.0309788263278
 30
0.0
 11
580.5407960598508
 21
268.3993206299278
 31
0.0
  0
LINE
  5
9845
330
1A
100
AcDbEntity
  8
SEIHIN
100
AcDbLine
 10
580.5837064115684
 20
267.7294479079278
 30
0.0
 11
580.5087734644509
 21
268.8992247856278
 31
0.0
  0
LINE
  5
9846
330
1A
100
AcDbEntity
  8
SEIHIN
100
AcDbLine
 10
580.5087734644509
 20
268.8992247856278
 30
0.0
 11
580.4811169092507
 21
269.5155070103278
 31
0.0
  0
LINE
  5
9847
330
1A
100
AcDbEntity
  8
SEIHIN
100
AcDbLine
 10
580.4286350195508
 20
272.7294490612278
 30
0.0
 11
577.725922006851
 21
272.7294490612278
 31
0.0
  0
LINE
  5
9848
330
1A
100
AcDbEntity
  8
SEIHIN
100
AcDbLine
 10
577.725922006851
 20
272.7294490612278
 30
0.0
 11
577.7293343727509
 21
271.8612031019279
 31
0.0
  0
LINE
  5
9849
330
1A
100
AcDbEntity
  8
SEIHIN
100
AcDbLine
 10
577.7293343727509
 20
271.8612031019279
 30
0.0
 11
577.7394522612508
 21
271.0193470991277
 31
0.0
  0
LINE
  5
984A
330
1A
100
AcDbEntity
  8
SEIHIN
100
AcDbLine
 10
577.7394522612508
 20
271.0193470991277
 30
0.0
 11
577.7559776489507
 21
270.2294514454279
 31
0.0
  0
LINE
  5
984B
330
1A
100
AcDbEntity
  8
SEIHIN
100
AcDbLine
 10
580.4586906616508
 20
270.2294514454279
 30
0.0
 11
580.4421652739507
 21
271.0193470991277
 31
0.0
  0
LINE
  5
984C
330
1A
100
AcDbEntity
  8
SEIHIN
100
AcDbLine
 10
580.4421652739507
 20
271.0193470991277
 30
0.0
 11
580.4320473854508
 21
271.8612031019279
 31
0.0
  0
LINE
  5
984D
330
1A
100
AcDbEntity
  8
SEIHIN
100
AcDbLine
 10
580.4320473854508
 20
271.8612031019279
 30
0.0
 11
580.4286350195508
 21
272.7294490612278
 31
0.0
  0
LINE
  5
984E
330
1A
100
AcDbEntity
  8
SEIHIN
100
AcDbLine
 10
575.1623709385508
 20
267.7294538296278
 30
0.0
 11
575.4070033018507
 21
272.7294490612278
 31
0.0
  0
LINE
  5
984F
330
1A
100
AcDbEntity
  8
SEIHIN
100
AcDbLine
 10
577.7559776489507
 20
270.2294514454279
 30
0.0
 11
577.7784038965509
 21
269.5155070103278
 31
0.0
  0
LINE
  5
9850
330
1A
100
AcDbEntity
  8
SEIHIN
100
AcDbLine
 10
580.4811169092507
 20
269.5155070103278
 30
0.0
 11
580.4586906616508
 21
270.2294514454279
 31
0.0
  0
LINE
  5
9851
330
1A
100
AcDbEntity
  8
SEIHIN
100
AcDbLine
 10
577.1696090378508
 20
277.7294479079277
 30
0.0
 11
577.1696020548508
 21
275.2294466770279
 31
0.0
  0
LINE
  5
9852
330
1A
100
AcDbEntity
  8
SEIHIN
100
AcDbLine
 10
730.8669586365511
 20
190.00317570133
 30
0.0
 11
730.866958636551
 21
48.17959333813004
 31
0.0
  0
LINE
  5
9853
330
1A
100
AcDbEntity
  8
SEIHIN
100
AcDbLine
 10
719.1975167616511
 20
47.79061194233003
 30
0.0
 11
730.866958636551
 21
48.17959333813004
 31
0.0
  0
LINE
  5
9854
330
1A
100
AcDbEntity
  8
SEIHIN
100
AcDbLine
 10
724.873041983451
 20
48.74845833363005
 30
0.0
 11
719.1975165789511
 21
48.56544378523006
 31
0.0
  0
ARC
  5
9855
330
1A
100
AcDbEntity
  8
SEIHIN
100
AcDbCircle
 10
712.534550715151
 20
247.67959333813
 30
0.0
 40
200.0
100
AcDbArc
 50
270.0
 51
271.9091524330005
  0
LINE
  5
9856
330
1A
100
AcDbEntity
  8
SEIHIN
100
AcDbLine
 10
715.7846905922511
 20
48.48350067003005
 30
0.0
 11
712.5345498954509
 21
48.45792329243005
 31
0.0
  0
LINE
  5
9857
330
1A
100
AcDbEntity
  8
SEIHIN
100
AcDbLine
 10
719.1975165789511
 20
48.56544378523006
 30
0.0
 11
715.7846905922511
 21
48.48350067003005
 31
0.0
  0
LINE
  5
9858
330
1A
100
AcDbEntity
  8
SEIHIN
100
AcDbLine
 10
730.866958636551
 20
48.94176446203005
 30
0.0
 11
724.873041983451
 21
48.74845833363005
 31
0.0
  0
LINE
  5
9859
330
1A
100
AcDbEntity
  8
SEIHIN
100
AcDbLine
 10
691.8669586365511
 20
137.77959333813
 30
0.0
 11
730.866958636551
 21
137.77959333813
 31
0.0
  0
LINE
  5
985A
330
1A
100
AcDbEntity
  8
SEIHIN
100
AcDbLine
 10
691.8669578319511
 20
127.77959224143
 30
0.0
 11
691.8669586365511
 21
132.55549762113
 31
0.0
  0
LINE
  5
985B
330
1A
100
AcDbEntity
  8
SEIHIN
100
AcDbLine
 10
690.4024940615511
 20
124.24406078023
 30
0.0
 11
689.6448109930509
 21
123.62224277413
 31
0.0
  0
LINE
  5
985C
330
1A
100
AcDbEntity
  8
SEIHIN
100
AcDbLine
 10
689.6448109930509
 20
123.62224277413
 30
0.0
 11
688.7803760057511
 21
123.16019501843
 31
0.0
  0
LINE
  5
985D
330
1A
100
AcDbEntity
  8
SEIHIN
100
AcDbLine
 10
688.7803760057511
 20
123.16019501843
 30
0.0
 11
687.8424112384512
 21
122.87566479603
 31
0.0
  0
LINE
  5
985E
330
1A
100
AcDbEntity
  8
SEIHIN
100
AcDbLine
 10
687.8424112384512
 20
122.87566479603
 30
0.0
 11
686.8669588750511
 21
122.77959700983
 31
0.0
  0
LINE
  5
985F
330
1A
100
AcDbEntity
  8
SEIHIN
100
AcDbLine
 10
691.8669578319511
 20
127.77959224143
 30
0.0
 11
691.7708863204509
 21
126.80413987793
 31
0.0
  0
LINE
  5
9860
330
1A
100
AcDbEntity
  8
SEIHIN
100
AcDbLine
 10
691.7708863204509
 20
126.80413987793
 30
0.0
 11
691.4863560980509
 21
125.86617883603
 31
0.0
  0
LINE
  5
9861
330
1A
100
AcDbEntity
  8
SEIHIN
100
AcDbLine
 10
691.4863560980509
 20
125.86617883603
 30
0.0
 11
691.0243083422511
 21
125.00174012343
 31
0.0
  0
LINE
  5
9862
330
1A
100
AcDbEntity
  8
SEIHIN
100
AcDbLine
 10
691.0243083422511
 20
125.00174012343
 30
0.0
 11
690.4024940615511
 21
124.24406078023
 31
0.0
  0
LINE
  5
9863
330
1A
100
AcDbEntity
  8
SEIHIN
100
AcDbLine
 10
691.8669586365511
 20
132.55549762113
 30
0.0
 11
691.8669586365511
 21
137.77959333813
 31
0.0
  0
LINE
  5
9864
330
1A
100
AcDbEntity
  8
SEIHIN
100
AcDbLine
 10
730.866958636551
 20
187.40540922153
 30
0.0
 11
691.8669586365511
 21
187.40540922153
 31
0.0
  0
LINE
  5
9865
330
1A
100
AcDbEntity
  8
SEIHIN
100
AcDbLine
 10
730.3245920504512
 20
182.87958618563
 30
0.0
 11
691.8669586365511
 21
182.87959333813
 31
0.0
  0
LINE
  5
9866
330
1A
100
AcDbEntity
  8
SEIHIN
100
AcDbLine
 10
689.387903798151
 20
189.66179009833
 30
0.0
 11
689.8930196350509
 21
189.62569948593
 31
0.0
  0
LINE
  5
9867
330
1A
100
AcDbEntity
  8
SEIHIN
100
AcDbLine
 10
688.877099443051
 20
186.23292859953
 30
0.0
 11
689.7022214418509
 21
186.55212637343
 31
0.0
  0
LINE
  5
9868
330
1A
100
AcDbEntity
  8
SEIHIN
100
AcDbLine
 10
688.8669592028511
 20
189.67394944583
 30
0.0
 11
689.387903798151
 21
189.66179009833
 31
0.0
  0
LINE
  5
9869
330
1A
100
AcDbEntity
  8
SEIHIN
100
AcDbLine
 10
688.8669592028511
 20
186.22878607673
 30
0.0
 11
688.877099443051
 21
186.23292859953
 31
0.0
  0
LINE
  5
986A
330
1A
100
AcDbEntity
  8
SEIHIN
100
AcDbLine
 10
691.8669586365511
 20
187.40540922153
 30
0.0
 11
691.8669586365511
 21
187.90540922153
 31
0.0
  0
LINE
  5
986B
330
1A
100
AcDbEntity
  8
SEIHIN
100
AcDbLine
 10
691.8669586365511
 20
187.40540922153
 30
0.0
 11
691.8669586365511
 21
186.80380728093
 31
0.0
  0
LINE
  5
986C
330
1A
100
AcDbEntity
  8
SEIHIN
100
AcDbLine
 10
691.8669586365511
 20
187.90540922153
 30
0.0
 11
691.8669578319511
 21
188.87395080483
 31
0.0
  0
LINE
  5
986D
330
1A
100
AcDbEntity
  8
SEIHIN
100
AcDbLine
 10
691.8669586365511
 20
184.53803781333
 30
0.0
 11
691.8669586365511
 21
186.80380728093
 31
0.0
  0
LINE
  5
986E
330
1A
100
AcDbEntity
  8
SEIHIN
100
AcDbLine
 10
689.8930196350509
 20
189.62569948593
 30
0.0
 11
690.3669585173509
 21
189.56676539343
 31
0.0
  0
LINE
  5
986F
330
1A
100
AcDbEntity
  8
SEIHIN
100
AcDbLine
 10
690.3669585173509
 20
189.56676539343
 30
0.0
 11
690.7953221982509
 21
189.48677596013
 31
0.0
  0
LINE
  5
9870
330
1A
100
AcDbEntity
  8
SEIHIN
100
AcDbLine
 10
690.7953221982509
 20
189.48677596013
 30
0.0
 11
691.1650907879509
 21
189.38817497653
 31
0.0
  0
LINE
  5
9871
330
1A
100
AcDbEntity
  8
SEIHIN
100
AcDbLine
 10
691.1650907879509
 20
189.38817497653
 30
0.0
 11
691.465036261651
 21
189.27394267483
 31
0.0
  0
LINE
  5
9872
330
1A
100
AcDbEntity
  8
SEIHIN
100
AcDbLine
 10
691.465036261651
 20
189.27394267483
 30
0.0
 11
691.686035383251
 21
189.14756592673
 31
0.0
  0
LINE
  5
9873
330
1A
100
AcDbEntity
  8
SEIHIN
100
AcDbLine
 10
691.686035383251
 20
189.14756592673
 30
0.0
 11
691.8213826304511
 21
189.01285942953
 31
0.0
  0
LINE
  5
9874
330
1A
100
AcDbEntity
  8
SEIHIN
100
AcDbLine
 10
691.8213826304511
 20
189.01285942953
 30
0.0
 11
691.8669578319511
 21
188.87395080483
 31
0.0
  0
LINE
  5
9875
330
1A
100
AcDbEntity
  8
SEIHIN
100
AcDbLine
 10
691.8669578319511
 20
186.07959565083
 30
0.0
 11
691.817251283451
 21
186.22461375153
 31
0.0
  0
LINE
  5
9876
330
1A
100
AcDbEntity
  8
SEIHIN
100
AcDbLine
 10
691.817251283451
 20
186.22461375153
 30
0.0
 11
691.6697819417511
 21
186.36483367843
 31
0.0
  0
LINE
  5
9877
330
1A
100
AcDbEntity
  8
SEIHIN
100
AcDbLine
 10
691.6697819417511
 20
186.36483367843
 30
0.0
 11
691.4294336622511
 21
186.49560626903
 31
0.0
  0
LINE
  5
9878
330
1A
100
AcDbEntity
  8
SEIHIN
100
AcDbLine
 10
691.4294336622511
 20
186.49560626903
 30
0.0
 11
691.1041711157511
 21
186.61258038443
 31
0.0
  0
LINE
  5
9879
330
1A
100
AcDbEntity
  8
SEIHIN
100
AcDbLine
 10
691.1041711157511
 20
186.61258038443
 30
0.0
 11
690.7047715669512
 21
186.71191152493
 31
0.0
  0
LINE
  5
987A
330
1A
100
AcDbEntity
  8
SEIHIN
100
AcDbLine
 10
689.7022214418509
 20
186.55212637343
 30
0.0
 11
690.3503921514509
 21
186.71708222783
 31
0.0
  0
LINE
  5
987B
330
1A
100
AcDbEntity
  8
SEIHIN
100
AcDbLine
 10
690.3503921514509
 20
186.71708222783
 30
0.0
 11
690.7047715669512
 21
186.71191152493
 31
0.0
  0
LINE
  5
987C
330
1A
100
AcDbEntity
  8
SEIHIN
100
AcDbLine
 10
691.8669586365511
 20
184.53803781333
 30
0.0
 11
691.8669586365511
 21
183.11382387053
 31
0.0
  0
LINE
  5
987D
330
1A
100
AcDbEntity
  8
SEIHIN
100
AcDbLine
 10
730.866958636551
 20
190.00317570133
 30
0.0
 11
719.148940859551
 21
190.10895813133
 31
0.0
  0
LINE
  5
987E
330
1A
100
AcDbEntity
  8
SEIHIN
100
AcDbLine
 10
717.4957415720512
 20
190.12201246183
 30
0.0
 11
712.5345498954509
 21
190.13880607043
 31
0.0
  0
LINE
  5
987F
330
1A
100
AcDbEntity
  8
SEIHIN
100
AcDbLine
 10
719.1489406561511
 20
190.10895904463
 30
0.0
 11
717.4957415720512
 21
190.12201246183
 31
0.0
  0
LINE
  5
9880
330
1A
100
AcDbEntity
  8
CENTER_L
 48
5.0
100
AcDbLine
 10
501.6616296097818
 20
434.5686497158278
 30
0.0
 11
746.2042648025608
 21
434.5686497158278
 31
0.0
  0
LINE
  5
9881
330
1A
100
AcDbEntity
  8
SEIHIN
100
AcDbLine
 10
686.8669574832511
 20
381.870484537628
 30
0.0
 11
614.6846821283509
 21
381.8704845376279
 31
0.0
  0
LINE
  5
9882
330
1A
100
AcDbEntity
  8
SEIHIN
100
AcDbLine
 10
686.8669574832511
 20
379.167771524928
 30
0.0
 11
619.6846773600512
 21
379.1677715249279
 31
0.0
  0
LINE
  5
9883
330
1A
100
AcDbEntity
  8
SEIHIN
100
AcDbLine
 10
681.866958636551
 20
390.6094484385281
 30
0.0
 11
613.383883977051
 21
390.609448438528
 31
0.0
  0
LINE
  5
9884
330
1A
100
AcDbEntity
  8
SEIHIN
100
AcDbLine
 10
424.9930789446509
 20
535.1186605163279
 30
0.0
 11
688.866961536351
 21
535.1186605163282
 31
0.0
  0
LINE
  5
9885
330
1A
100
AcDbEntity
  8
SEIHIN
100
AcDbLine
 10
681.866958636551
 20
487.6158029887281
 30
0.0
 11
472.4637262794511
 21
487.6158029887281
 31
0.0
  0
LINE
  5
9886
330
1A
100
AcDbEntity
  8
SEIHIN
100
AcDbLine
 10
479.7666778122256
 20
480.107022857982
 30
0.0
 11
681.8669622516511
 21
480.107030458028
 31
0.0
  0
LINE
  5
9887
330
1A
100
AcDbEntity
  8
SEIHIN
100
AcDbLine
 10
422.472443287151
 20
539.1239632573278
 30
0.0
 11
713.867391650777
 21
539.1239632573281
 31
0.0
  0
LINE
  5
9888
330
1A
100
AcDbEntity
  8
SEIHIN
100
AcDbLine
 10
427.2029286002509
 20
532.8186364837279
 30
0.0
 11
691.7841469621509
 21
532.8186364837281
 31
0.0
  0
LINE
  5
9889
330
1A
100
AcDbEntity
  8
SEIHIN
100
AcDbLine
 10
681.8669622516511
 20
478.216058201328
 30
0.0
 11
481.8803534540974
 21
478.2160530775711
 31
0.0
  0
LINE
  5
988A
330
1A
100
AcDbEntity
  8
CENTER_L
 48
5.0
100
AcDbLine
 10
588.4286410784509
 20
371.1677654660279
 30
0.0
 11
412.4724432871509
 21
547.1239632573278
 31
0.0
  0
LINE
  5
988B
330
1A
100
AcDbEntity
  8
SEIHIN
100
AcDbLine
 10
559.7971781336434
 20
387.8095382858291
 30
0.0
 11
559.7971785071508
 21
377.0569149180278
 31
0.0
  0
LINE
  5
988C
330
1A
100
AcDbEntity
  8
SEIHIN
100
AcDbLine
 10
562.4988128130509
 20
382.1067289389279
 30
0.0
 11
562.4988128130509
 21
365.9294919050278
 31
0.0
  0
LINE
  5
988D
330
1A
100
AcDbEntity
  8
SEIHIN
100
AcDbLine
 10
562.4988128130508
 20
382.1067289389279
 30
0.0
 11
562.4986041967509
 21
376.6366765774278
 31
0.0
  0
LINE
  5
988E
330
1A
100
AcDbEntity
  8
SEIHIN
100
AcDbLine
 10
557.1765895346509
 20
390.4271270855279
 30
0.0
 11
557.1765895346509
 21
364.8438008054279
 31
0.0
  0
ARC
  5
988F
330
1A
100
AcDbEntity
  8
SEIHIN
100
AcDbCircle
 10
568.6575108538113
 20
346.581351855643
 30
0.0
 40
8.611339177442197
100
AcDbArc
 50
9.545853967023536
 51
66.07607654053655
  0
ARC
  5
9890
330
1A
100
AcDbEntity
  8
SEIHIN
100
AcDbCircle
 10
569.1608507153512
 20
347.050528395556
 30
0.0
 40
10.74272154354504
100
AcDbArc
 50
0.035012115871185
 51
70.42497052164766
  0
LINE
  5
9891
330
1A
100
AcDbEntity
  8
SEIHIN
100
AcDbLine
 10
572.1496094648509
 20
357.8478098786279
 30
0.0
 11
572.1496094648509
 21
354.4528453428873
 31
0.0
  0
ARC
  5
9892
330
1A
100
AcDbEntity
  8
SEIHIN
100
AcDbCircle
 10
568.8600533646035
 20
364.7120562991797
 30
0.0
 40
11.68420058254759
100
AcDbArc
 50
179.3542437364992
 51
241.6050404396453
  0
ARC
  5
9893
330
1A
100
AcDbEntity
  8
SEIHIN
100
AcDbCircle
 10
561.2188694426413
 20
346.7126413484811
 30
0.0
 40
7.784170325309252
100
AcDbArc
 50
356.3163036901641
 51
62.38294395455608
  0
LINE
  5
9894
330
1A
100
AcDbEntity
  8
SEIHIN
100
AcDbLine
 10
564.8272980635509
 20
353.6099270857278
 30
0.0
 11
563.3036689035325
 21
354.4335770841414
 31
0.0
  0
ARC
  5
9895
330
1A
100
AcDbEntity
  8
SEIHIN
100
AcDbCircle
 10
587.5617892816653
 20
377.9049584599274
 30
0.0
 40
27.77755909559449
100
AcDbArc
 50
181.7495009872942
 51
205.5403926025405
  0
ARC
  5
9896
330
1A
100
AcDbEntity
  8
SEIHIN
100
AcDbCircle
 10
586.0872000902952
 20
376.9766693184489
 30
0.0
 40
23.59104599827837
100
AcDbArc
 50
180.8257719280835
 51
233.3094022529075
  0
ARC
  5
9897
330
1A
100
AcDbEntity
  8
SEIHIN
100
AcDbCircle
 10
585.4685963692279
 20
376.4762560761007
 30
0.0
 40
25.27538197044266
100
AcDbArc
 50
204.6626152117687
 51
230.3574743270273
  0
LINE
  5
9898
330
1A
100
AcDbEntity
  8
SEIHIN
100
AcDbLine
 10
569.343005556351
 20
357.0132032907279
 30
0.0
 11
569.343005556351
 21
360.3614644087278
 31
0.0
  0
ARC
  5
9899
330
1A
100
AcDbEntity
  8
SEIHIN
100
AcDbCircle
 10
547.7446549416866
 20
327.1019664116704
 30
0.0
 40
36.89405187305565
100
AcDbArc
 50
48.58657024548373
 51
54.16763872527724
  0
LINE
  5
989A
330
1A
100
AcDbEntity
  8
SEIHIN
100
AcDbLine
 10
571.9917018597507
 20
358.059629885028
 30
0.0
 11
572.7601025884009
 21
357.1723588681779
 31
0.0
  0
LINE
  5
989B
330
1A
100
AcDbEntity
  8
SEIHIN
100
AcDbLine
 10
579.903570253151
 20
347.0570930219778
 30
0.0
 11
580.411573189951
 21
341.8251425899279
 31
0.0
  0
LINE
  5
989C
330
1A
100
AcDbEntity
  8
SEIHIN
100
AcDbLine
 10
580.411573189951
 20
341.8251425899279
 30
0.0
 11
580.4243285839508
 21
340.8871740973277
 31
0.0
  0
LINE
  5
989D
330
1A
100
AcDbEntity
  8
SEIHIN
100
AcDbLine
 10
580.4243285839508
 20
340.8871740973277
 30
0.0
 11
580.4286350195509
 21
339.9117291844277
 31
0.0
  0
LINE
  5
989E
330
1A
100
AcDbEntity
  8
SEIHIN
100
AcDbLine
 10
577.1496105197509
 20
348.0094294770278
 30
0.0
 11
577.725922006851
 21
344.9117244161279
 31
0.0
  0
LINE
  5
989F
330
1A
100
AcDbEntity
  8
SEIHIN
100
AcDbLine
 10
577.5015999262509
 20
344.9117244161279
 30
0.0
 11
580.204312938951
 21
344.9117244161279
 31
0.0
  0
LINE
  5
98A0
330
1A
100
AcDbEntity
  8
SEIHIN
100
AcDbLine
 10
577.149607993851
 20
349.9117256803279
 30
0.0
 11
579.5394827311509
 21
349.9117270983278
 31
0.0
  0
LINE
  5
98A1
330
1A
100
AcDbEntity
  8
SEIHIN
100
AcDbLine
 10
577.149604696551
 20
354.2319909609277
 30
0.0
 11
577.149607993851
 21
349.9117256803279
 31
0.0
  0
ARC
  5
98A2
330
1A
100
AcDbEntity
  8
SEIHIN
100
AcDbCircle
 10
612.8837651959977
 20
398.3775371018376
 30
0.0
 40
7.784170325309252
100
AcDbArc
 50
207.6170560454439
 51
273.6836963098358
  0
ARC
  5
98A3
330
1A
100
AcDbEntity
  8
SEIHIN
100
AcDbCircle
 10
612.5458781489228
 20
390.4355558291277
 30
0.0
 40
10.74272154354504
100
AcDbArc
 50
199.5750294783523
 51
269.9649878841288
  0
ARC
  5
98A4
330
1A
100
AcDbEntity
  8
SEIHIN
100
AcDbCircle
 10
613.0150546888358
 20
390.9388956906675
 30
0.0
 40
8.611339177442197
100
AcDbArc
 50
203.9239234594634
 51
260.4541460329768
  0
LINE
  5
98A5
330
1A
100
AcDbEntity
  8
SEIHIN
100
AcDbLine
 10
605.3644155835511
 20
382.4468018479281
 30
0.0
 11
609.684680864151
 21
382.446798550628
 31
0.0
  0
LINE
  5
98A6
330
1A
100
AcDbEntity
  8
SEIHIN
100
AcDbLine
 10
571.7868682586498
 20
399.7992284108354
 30
0.0
 11
582.539491626451
 21
399.799228037328
 31
0.0
  0
LINE
  5
98A7
330
1A
100
AcDbEntity
  8
SEIHIN
100
AcDbLine
 10
569.169279458951
 20
402.4198170098279
 30
0.0
 11
594.7526057390509
 21
402.4198170098279
 31
0.0
  0
ARC
  5
98A8
330
1A
100
AcDbEntity
  8
SEIHIN
100
AcDbCircle
 10
577.6335062891721
 20
381.9840853469918
 30
0.0
 40
15.13519038753034
100
AcDbArc
 50
99.46822071037704
 51
179.5357153147532
  0
ARC
  5
98A9
330
1A
100
AcDbEntity
  8
SEIHIN
100
AcDbCircle
 10
571.7868749923797
 20
387.809538285829
 30
0.0
 40
11.98969685873642
100
AcDbArc
 50
89.98568065234032
 51
180.0143015498226
  0
ARC
  5
98AA
330
1A
100
AcDbEntity
  8
SEIHIN
100
AcDbCircle
 10
569.2209073059946
 20
390.3754990455969
 30
0.0
 40
12.04442842278588
100
AcDbArc
 50
90.24562739473438
 51
179.754402803744
  0
ARC
  5
98AB
330
1A
100
AcDbEntity
  8
SEIHIN
100
AcDbCircle
 10
594.8843502452992
 20
390.7363531798753
 30
0.0
 40
11.68420058254759
100
AcDbArc
 50
28.39495956035459
 51
90.64575626350075
  0
ARC
  5
98AC
330
1A
100
AcDbEntity
  8
SEIHIN
100
AcDbCircle
 10
581.6914480845514
 20
372.0346172628135
 30
0.0
 40
27.77755909559449
100
AcDbArc
 50
64.45960739745943
 51
88.25049901270574
  0
LINE
  5
98AD
330
1A
100
AcDbEntity
  8
SEIHIN
100
AcDbLine
 10
577.4896776055509
 20
397.097593731428
 30
0.0
 11
593.666914639451
 21
397.097593731428
 31
0.0
  0
ARC
  5
98AE
330
1A
100
AcDbEntity
  8
SEIHIN
100
AcDbCircle
 10
582.6197372260298
 20
373.5092064541836
 30
0.0
 40
23.59104599827837
100
AcDbArc
 50
36.69059774709244
 51
89.17422807191686
  0
LINE
  5
98AF
330
1A
100
AcDbEntity
  8
SEIHIN
100
AcDbLine
 10
577.4896776055509
 20
397.097593731428
 30
0.0
 11
582.9597299670511
 21
397.097802347728
 31
0.0
  0
ARC
  5
98B0
330
1A
100
AcDbEntity
  8
SEIHIN
100
AcDbCircle
 10
632.4944401328084
 20
411.8517516027923
 30
0.0
 40
36.89405187305565
100
AcDbArc
 50
215.8323612747233
 51
221.4134297545162
  0
LINE
  5
98B1
330
1A
100
AcDbEntity
  8
SEIHIN
100
AcDbLine
 10
601.5367766594509
 20
387.6047046847283
 30
0.0
 11
602.424047676301
 21
386.836303956078
 31
0.0
  0
LINE
  5
98B2
330
1A
100
AcDbEntity
  8
SEIHIN
100
AcDbLine
 10
601.748596665851
 20
387.4467970796281
 30
0.0
 11
605.1435612015916
 21
387.4467970796281
 31
0.0
  0
LINE
  5
98B3
330
1A
100
AcDbEntity
  8
SEIHIN
100
AcDbLine
 10
602.5832032537509
 20
390.253400988128
 30
0.0
 11
599.2349421357509
 21
390.253400988128
 31
0.0
  0
ARC
  5
98B4
330
1A
100
AcDbEntity
  8
SEIHIN
100
AcDbCircle
 10
583.1201504683781
 20
374.127810175251
 30
0.0
 40
25.27538197044266
100
AcDbArc
 50
39.64252567297263
 51
65.33738478823126
  0
LINE
  5
98B5
330
1A
100
AcDbEntity
  8
SEIHIN
100
AcDbLine
 10
605.9864794587511
 20
394.769108480928
 30
0.0
 11
605.1628294603374
 21
396.2927376409465
 31
0.0
  0
LINE
  5
98B6
330
1A
100
AcDbEntity
  8
SEIHIN
100
AcDbLine
 10
612.539313522501
 20
379.6928362913279
 30
0.0
 11
617.7712639545509
 21
379.1848333545281
 31
0.0
  0
LINE
  5
98B7
330
1A
100
AcDbEntity
  8
SEIHIN
100
AcDbLine
 10
609.684680864151
 20
382.446798550628
 30
0.0
 11
609.684679446151
 21
380.0569238133282
 31
0.0
  0
LINE
  5
98B8
330
1A
100
AcDbEntity
  8
SEIHIN
100
AcDbLine
 10
614.6846821283509
 20
382.0948066182281
 30
0.0
 11
614.6846821283509
 21
379.392093605528
 31
0.0
  0
LINE
  5
98B9
330
1A
100
AcDbEntity
  8
SEIHIN
100
AcDbLine
 10
611.5869770674509
 20
382.4467960247279
 30
0.0
 11
614.6846821283509
 21
381.8704845376279
 31
0.0
  0
LINE
  5
98BA
330
1A
100
AcDbEntity
  8
SEIHIN
100
AcDbLine
 10
618.7092324471511
 20
379.172077960528
 30
0.0
 11
619.6846773600512
 21
379.1677715249279
 31
0.0
  0
LINE
  5
98BB
330
1A
100
AcDbEntity
  8
SEIHIN
100
AcDbLine
 10
617.7712639545509
 20
379.1848333545281
 30
0.0
 11
618.7092324471511
 21
379.172077960528
 31
0.0
  0
LINE
  5
98BC
330
1A
100
AcDbEntity
  8
SEIHIN
100
AcDbLine
 10
428.8144769221082
 20
530.7819296223706
 30
0.0
 11
471.2685174803514
 21
488.3278890641276
 31
0.0
  0
ARC
  5
98BD
330
1A
100
AcDbEntity
  8
SEIHIN
100
AcDbCircle
 10
472.5106101837741
 20
487.0857824897115
 30
0.0
 40
0.5320893738317439
100
AcDbArc
 50
95.05605214786591
 51
174.9435060640528
  0
ARC
  5
98BE
330
1A
100
AcDbEntity
  8
SEIHIN
100
AcDbCircle
 10
427.1961807658104
 20
532.4002418346672
 30
0.0
 40
0.4184653729069724
100
AcDbArc
 50
89.07586394179686
 51
180.9261441382675
  0
ARC
  5
98BF
330
1A
100
AcDbEntity
  8
SEIHIN
100
AcDbCircle
 10
424.9782920317131
 20
534.6181088814843
 30
0.0
 40
0.5007642039618203
100
AcDbArc
 50
88.30687234610691
 51
181.6914709121337
  0
ARC
  5
98C0
330
1A
100
AcDbEntity
  8
SEIHIN
100
AcDbCircle
 10
422.472443287151
 20
537.1239632573279
 30
0.0
 40
2.0
100
AcDbArc
 50
90.0
 51
180.0
  0
LINE
  5
98C1
330
1A
100
AcDbEntity
  8
SEIHIN
100
AcDbLine
 10
479.6221103518246
 20
479.9742961926543
 30
0.0
 11
481.4002831696576
 21
478.1961233748213
 31
0.0
  0
ARC
  5
98C2
330
1A
100
AcDbEntity
  8
SEIHIN
100
AcDbCircle
 10
481.8803534669077
 20
477.7160530775711
 30
0.0
 40
0.5
100
AcDbArc
 50
90.00000146794658
 51
179.9999985320534
  0
ARC
  5
98C3
330
1A
100
AcDbEntity
  8
SEIHIN
100
AcDbCircle
 10
479.8549181543858
 20
479.7358102478438
 30
0.0
 40
0.3815562342696641
100
AcDbArc
 50
103.3715188417923
 51
196.6626845391591
  0
LINE
  5
98C4
330
1A
100
AcDbEntity
  8
SEIHIN
100
AcDbLine
 10
686.8669586365511
 20
444.925793964728
 30
0.0
 11
686.8669586365511
 21
499.470745738077
 31
0.0
  0
LINE
  5
98C5
330
1A
100
AcDbEntity
  8
SEIHIN
100
AcDbLine
 10
701.866958636551
 20
496.9574113401388
 30
0.0
 11
701.866958636551
 21
448.8032419110279
 31
0.0
  0
LINE
  5
98C6
330
1A
100
AcDbEntity
  8
SEIHIN
100
AcDbLine
 10
681.866958636551
 20
382.4267975066279
 30
0.0
 11
681.866958636551
 21
504.3394323450279
 31
0.0
  0
LINE
  5
98C7
330
1A
100
AcDbEntity
  8
SEIHIN
100
AcDbLine
 10
730.866958636551
 20
379.2246493036643
 30
0.0
 11
730.866958636551
 21
538.6162014199165
 31
0.0
  0
LINE
  5
98C8
330
1A
100
AcDbEntity
  8
SEIHIN
100
AcDbLine
 10
700.378287372551
 20
422.789609617728
 30
0.0
 11
686.8669586365511
 21
424.290873329828
 31
0.0
  0
LINE
  5
98C9
330
1A
100
AcDbEntity
  8
SEIHIN
100
AcDbLine
 10
686.8669586365511
 20
386.959297540828
 30
0.0
 11
686.8669586365511
 21
424.290873329828
 31
0.0
  0
LINE
  5
98CA
330
1A
100
AcDbEntity
  8
SEIHIN
100
AcDbLine
 10
691.8669586365511
 20
392.702321241128
 30
0.0
 11
730.866958636551
 21
392.702321241128
 31
0.0
  0
LINE
  5
98CB
330
1A
100
AcDbEntity
  8
SEIHIN
100
AcDbLine
 10
706.7560964827059
 20
394.6480364876096
 30
0.0
 11
686.8669586365511
 21
394.648041989928
 31
0.0
  0
LINE
  5
98CC
330
1A
100
AcDbEntity
  8
SEIHIN
100
AcDbLine
 10
712.5345507150512
 20
378.7241523840281
 30
0.0
 11
691.8669586365511
 21
378.7241523840281
 31
0.0
  0
LINE
  5
98CD
330
1A
100
AcDbEntity
  8
SEIHIN
100
AcDbLine
 10
691.8669586365511
 20
383.7241523840281
 30
0.0
 11
712.5345507150512
 21
383.7241523840281
 31
0.0
  0
LINE
  5
98CE
330
1A
100
AcDbEntity
  8
SEIHIN
100
AcDbLine
 10
706.2481229877509
 20
397.776818460928
 30
0.0
 11
702.127042946751
 21
421.149140781928
 31
0.0
  0
LINE
  5
98CF
330
1A
100
AcDbEntity
  8
SEIHIN
100
AcDbLine
 10
690.0808995341511
 20
379.1152896352281
 30
0.0
 11
689.366955099051
 21
379.137715882828
 31
0.0
  0
LINE
  5
98D0
330
1A
100
AcDbEntity
  8
SEIHIN
100
AcDbLine
 10
689.366955099051
 20
381.8404288955281
 30
0.0
 11
690.0808995341511
 21
381.818002647928
 31
0.0
  0
LINE
  5
98D1
330
1A
100
AcDbEntity
  8
SEIHIN
100
AcDbLine
 10
691.8669527148511
 20
387.078336066728
 30
0.0
 11
686.8669586365511
 21
386.959297540828
 31
0.0
  0
LINE
  5
98D2
330
1A
100
AcDbEntity
  8
SEIHIN
100
AcDbLine
 10
691.8669527148511
 20
384.434035605928
 30
0.0
 11
686.8669574832511
 21
384.1894032426281
 31
0.0
  0
LINE
  5
98D3
330
1A
100
AcDbEntity
  8
SEIHIN
100
AcDbLine
 10
686.8669586365511
 20
386.959297540828
 30
0.0
 11
681.866958636551
 21
382.426797506628
 31
0.0
  0
LINE
  5
98D4
330
1A
100
AcDbEntity
  8
SEIHIN
100
AcDbLine
 10
681.866958636551
 20
382.426797506628
 30
0.0
 11
684.366959867451
 21
382.4268044896281
 31
0.0
  0
LINE
  5
98D5
330
1A
100
AcDbEntity
  8
SEIHIN
100
AcDbLine
 10
687.7352034425509
 20
379.164359159028
 30
0.0
 11
686.8669574832511
 21
379.167771524928
 31
0.0
  0
LINE
  5
98D6
330
1A
100
AcDbEntity
  8
SEIHIN
100
AcDbLine
 10
688.5770594453511
 20
379.1542412705281
 30
0.0
 11
687.7352034425509
 21
379.164359159028
 31
0.0
  0
LINE
  5
98D7
330
1A
100
AcDbEntity
  8
SEIHIN
100
AcDbLine
 10
689.366955099051
 20
379.137715882828
 30
0.0
 11
688.5770594453511
 21
379.1542412705281
 31
0.0
  0
LINE
  5
98D8
330
1A
100
AcDbEntity
  8
SEIHIN
100
AcDbLine
 10
688.5770594453511
 20
381.856954283228
 30
0.0
 11
689.366955099051
 21
381.8404288955281
 31
0.0
  0
LINE
  5
98D9
330
1A
100
AcDbEntity
  8
SEIHIN
100
AcDbLine
 10
687.7352034425509
 20
381.867072171728
 30
0.0
 11
688.5770594453511
 21
381.856954283228
 31
0.0
  0
LINE
  5
98DA
330
1A
100
AcDbEntity
  8
SEIHIN
100
AcDbLine
 10
686.8669574832511
 20
381.870484537628
 30
0.0
 11
687.7352034425509
 21
381.867072171728
 31
0.0
  0
LINE
  5
98DB
330
1A
100
AcDbEntity
  8
SEIHIN
100
AcDbLine
 10
686.8669574832511
 20
379.167771524928
 30
0.0
 11
686.8669574832511
 21
381.870484537628
 31
0.0
  0
LINE
  5
98DC
330
1A
100
AcDbEntity
  8
SEIHIN
100
AcDbLine
 10
684.366959867451
 20
382.4268044896281
 30
0.0
 11
686.8669574832511
 21
384.1894032426281
 31
0.0
  0
LINE
  5
98DD
330
1A
100
AcDbEntity
  8
SEIHIN
100
AcDbLine
 10
686.8669574832511
 20
394.7931291528281
 30
0.0
 11
681.866958636551
 21
390.7776035058341
 31
0.0
  0
LINE
  5
98DE
330
1A
100
AcDbEntity
  8
SEIHIN
100
AcDbLine
 10
691.8669586365511
 20
378.7241523840281
 30
0.0
 11
691.8669586365511
 21
392.702321241128
 31
0.0
  0
LINE
  5
98DF
330
1A
100
AcDbEntity
  8
SEIHIN
100
AcDbLine
 10
690.697181758851
 20
379.0876330800281
 30
0.0
 11
690.0808995341511
 21
379.1152896352281
 31
0.0
  0
LINE
  5
98E0
330
1A
100
AcDbEntity
  8
SEIHIN
100
AcDbLine
 10
691.8669586365511
 20
379.0127001329106
 30
0.0
 11
690.697181758851
 21
379.0876330800281
 31
0.0
  0
LINE
  5
98E1
330
1A
100
AcDbEntity
  8
SEIHIN
100
AcDbLine
 10
691.5654277181511
 20
379.020160622128
 30
0.0
 11
691.197085914551
 21
379.0556104846281
 31
0.0
  0
LINE
  5
98E2
330
1A
100
AcDbEntity
  8
SEIHIN
100
AcDbLine
 10
691.197085914551
 20
381.758323497328
 30
0.0
 11
691.5654277181511
 21
381.7228885360281
 31
0.0
  0
LINE
  5
98E3
330
1A
100
AcDbEntity
  8
SEIHIN
100
AcDbLine
 10
690.697181758851
 20
381.7903460927281
 30
0.0
 11
691.8669586365511
 21
381.7154131456105
 31
0.0
  0
LINE
  5
98E4
330
1A
100
AcDbEntity
  8
SEIHIN
100
AcDbLine
 10
690.0808995341511
 20
381.818002647928
 30
0.0
 11
690.697181758851
 21
381.7903460927281
 31
0.0
  0
LINE
  5
98E5
330
1A
100
AcDbEntity
  8
SEIHIN
100
AcDbLine
 10
700.906906065851
 20
422.656110114628
 30
0.0
 11
700.378287372551
 21
422.789609617728
 31
0.0
  0
LINE
  5
98E6
330
1A
100
AcDbEntity
  8
SEIHIN
100
AcDbLine
 10
701.478440103451
 20
422.303489036128
 30
0.0
 11
700.906906065851
 21
422.656110114628
 31
0.0
  0
LINE
  5
98E7
330
1A
100
AcDbEntity
  8
SEIHIN
100
AcDbLine
 10
701.9010519361511
 20
421.781531161828
 30
0.0
 11
701.478440103451
 21
422.303489036128
 31
0.0
  0
LINE
  5
98E8
330
1A
100
AcDbEntity
  8
SEIHIN
100
AcDbLine
 10
702.127042946751
 20
421.149140781928
 30
0.0
 11
701.9010519361511
 21
421.781531161828
 31
0.0
  0
LINE
  5
98E9
330
1A
100
AcDbEntity
  8
SEIHIN
100
AcDbLine
 10
730.8669572448509
 20
379.224649257228
 30
0.0
 11
719.1976841311509
 21
378.8352854511281
 31
0.0
  0
LINE
  5
98EA
330
1A
100
AcDbEntity
  8
SEIHIN
100
AcDbLine
 10
719.0309426104511
 20
383.832504404228
 30
0.0
 11
730.8669572448509
 21
384.227431006028
 31
0.0
  0
LINE
  5
98EB
330
1A
100
AcDbEntity
  8
SEIHIN
100
AcDbLine
 10
706.680793104151
 20
395.336678809628
 30
0.0
 11
730.866958636551
 21
395.336685055028
 31
0.0
  0
LINE
  5
98EC
330
1A
100
AcDbEntity
  8
SEIHIN
100
AcDbLine
 10
717.5323104238511
 20
378.786674327428
 30
0.0
 11
712.5345503663509
 21
378.724149055028
 31
0.0
  0
LINE
  5
98ED
330
1A
100
AcDbEntity
  8
SEIHIN
100
AcDbLine
 10
712.5345503663509
 20
383.7241591878281
 30
0.0
 11
715.7831972217511
 21
383.751249498828
 31
0.0
  0
LINE
  5
98EE
330
1A
100
AcDbEntity
  8
SEIHIN
100
AcDbLine
 10
712.5345507150512
 20
383.7241523840281
 30
0.0
 11
712.5345507150512
 21
378.7241523840281
 31
0.0
  0
LINE
  5
98EF
330
1A
100
AcDbEntity
  8
SEIHIN
100
AcDbLine
 10
719.197679099951
 20
378.835281915228
 30
0.0
 11
717.5323104238511
 21
378.786674327428
 31
0.0
  0
LINE
  5
98F0
330
1A
100
AcDbEntity
  8
SEIHIN
100
AcDbLine
 10
715.7831972217511
 20
383.751249498828
 30
0.0
 11
719.030950007351
 21
383.8325055308281
 31
0.0
  0
LINE
  5
98F1
330
1A
100
AcDbEntity
  8
SEIHIN
100
AcDbLine
 10
719.1956227397511
 20
378.896853513228
 30
0.0
 11
719.197679099951
 21
378.835281915228
 31
0.0
  0
LINE
  5
98F2
330
1A
100
AcDbEntity
  8
SEIHIN
100
AcDbLine
 10
719.187054572051
 20
379.1540326543281
 30
0.0
 11
719.1956227397511
 21
378.896853513228
 31
0.0
  0
LINE
  5
98F3
330
1A
100
AcDbEntity
  8
SEIHIN
100
AcDbLine
 10
719.1721236085511
 20
379.601350612228
 30
0.0
 11
719.187054572051
 21
379.1540326543281
 31
0.0
  0
LINE
  5
98F4
330
1A
100
AcDbEntity
  8
SEIHIN
100
AcDbLine
 10
719.1514556979512
 20
380.220657772528
 30
0.0
 11
719.1721236085511
 21
379.601350612228
 31
0.0
  0
LINE
  5
98F5
330
1A
100
AcDbEntity
  8
SEIHIN
100
AcDbLine
 10
719.125900206551
 20
380.986771173028
 30
0.0
 11
719.1514556979512
 21
380.220657772528
 31
0.0
  0
LINE
  5
98F6
330
1A
100
AcDbEntity
  8
SEIHIN
100
AcDbLine
 10
719.0964704131511
 20
381.868547386728
 30
0.0
 11
719.125900206551
 21
380.986771173028
 31
0.0
  0
LINE
  5
98F7
330
1A
100
AcDbEntity
  8
SEIHIN
100
AcDbLine
 10
719.064388213151
 20
382.830164022028
 30
0.0
 11
719.0964704131511
 21
381.868547386728
 31
0.0
  0
LINE
  5
98F8
330
1A
100
AcDbEntity
  8
SEIHIN
100
AcDbLine
 10
719.030950007351
 20
383.8325055308281
 30
0.0
 11
719.064388213151
 21
382.830164022028
 31
0.0
  0
LINE
  5
98F9
330
1A
100
AcDbEntity
  8
SEIHIN
100
AcDbLine
 10
706.6847717141511
 20
394.0398605533281
 30
0.0
 11
706.7735528325511
 21
394.7968842454281
 31
0.0
  0
LINE
  5
98FA
330
1A
100
AcDbEntity
  8
SEIHIN
100
AcDbLine
 10
706.5802996730511
 20
393.6158480115281
 30
0.0
 11
706.6847717141511
 21
394.0398605533281
 31
0.0
  0
LINE
  5
98FB
330
1A
100
AcDbEntity
  8
SEIHIN
100
AcDbLine
 10
706.5913414334511
 20
395.830309576528
 30
0.0
 11
706.6793327903511
 21
395.331224984628
 31
0.0
  0
LINE
  5
98FC
330
1A
100
AcDbEntity
  8
SEIHIN
100
AcDbLine
 10
706.4864670609511
 20
396.4251192279281
 30
0.0
 11
706.5913414334511
 21
395.830309576528
 31
0.0
  0
LINE
  5
98FD
330
1A
100
AcDbEntity
  8
SEIHIN
100
AcDbLine
 10
706.370580730351
 20
397.082320041228
 30
0.0
 11
706.4864670609511
 21
396.4251192279281
 31
0.0
  0
LINE
  5
98FE
330
1A
100
AcDbEntity
  8
SEIHIN
100
AcDbLine
 10
706.2481229877509
 20
397.776818460928
 30
0.0
 11
706.370580730351
 21
397.082320041228
 31
0.0
  0
LINE
  5
98FF
330
1A
100
AcDbEntity
  8
SEIHIN
100
AcDbLine
 10
706.7735528325511
 20
394.7968842454281
 30
0.0
 11
706.6793327903511
 21
395.331224984628
 31
0.0
  0
LINE
  5
9900
330
1A
100
AcDbEntity
  8
SEIHIN
100
AcDbLine
 10
706.5802996730511
 20
393.6158480115281
 30
0.0
 11
706.1699514960509
 21
392.702317423328
 31
0.0
  0
LINE
  5
9901
330
1A
100
AcDbEntity
  8
SEIHIN
100
AcDbLine
 10
700.7891868924509
 20
447.0285536714279
 30
0.0
 11
701.324600515351
 21
447.4338205524279
 31
0.0
  0
LINE
  5
9902
330
1A
100
AcDbEntity
  8
SEIHIN
100
AcDbLine
 10
686.8669586365511
 20
444.925793964728
 30
0.0
 11
700.149807867951
 21
446.8233497806279
 31
0.0
  0
LINE
  5
9903
330
1A
100
AcDbEntity
  8
SEIHIN
100
AcDbLine
 10
684.3669586365511
 20
443.701355705928
 30
0.0
 11
684.3669586365511
 21
425.4636939007281
 31
0.0
  0
LINE
  5
9904
330
1A
100
AcDbEntity
  8
SEIHIN
100
AcDbLine
 10
684.379163918451
 20
425.3079058595281
 30
0.0
 11
684.366959867451
 21
425.463697499828
 31
0.0
  0
LINE
  5
9905
330
1A
100
AcDbEntity
  8
SEIHIN
100
AcDbLine
 10
684.4543253755509
 20
425.054899043628
 30
0.0
 11
684.379163918451
 21
425.3079058595281
 31
0.0
  0
LINE
  5
9906
330
1A
100
AcDbEntity
  8
SEIHIN
100
AcDbLine
 10
684.6146171664511
 20
424.804917163428
 30
0.0
 11
684.4543253755509
 21
425.054899043628
 31
0.0
  0
LINE
  5
9907
330
1A
100
AcDbEntity
  8
SEIHIN
100
AcDbLine
 10
684.8912125205511
 20
424.584111756828
 30
0.0
 11
684.6146171664511
 21
424.804917163428
 31
0.0
  0
LINE
  5
9908
330
1A
100
AcDbEntity
  8
SEIHIN
100
AcDbLine
 10
685.256529388351
 20
424.4698049493281
 30
0.0
 11
684.8912125205511
 21
424.584111756828
 31
0.0
  0
LINE
  5
9909
330
1A
100
AcDbEntity
  8
SEIHIN
100
AcDbLine
 10
685.256529388351
 20
424.4698049493281
 30
0.0
 11
686.8669586365511
 21
424.290873329828
 31
0.0
  0
LINE
  5
990A
330
1A
100
AcDbEntity
  8
SEIHIN
100
AcDbLine
 10
685.054499444951
 20
444.651282019128
 30
0.0
 11
685.225534973051
 21
444.6913065381279
 31
0.0
  0
LINE
  5
990B
330
1A
100
AcDbEntity
  8
SEIHIN
100
AcDbLine
 10
684.7138887023509
 20
444.4586547084279
 30
0.0
 11
685.054499444951
 21
444.651282019128
 31
0.0
  0
LINE
  5
990C
330
1A
100
AcDbEntity
  8
SEIHIN
100
AcDbLine
 10
684.5056449746509
 20
444.2094327874281
 30
0.0
 11
684.7138887023509
 21
444.4586547084279
 31
0.0
  0
LINE
  5
990D
330
1A
100
AcDbEntity
  8
SEIHIN
100
AcDbLine
 10
684.4043021773511
 20
443.9720721908279
 30
0.0
 11
684.5056449746509
 21
444.2094327874281
 31
0.0
  0
LINE
  5
990E
330
1A
100
AcDbEntity
  8
SEIHIN
100
AcDbLine
 10
684.366959867451
 20
443.7013627954279
 30
0.0
 11
684.4043021773511
 21
443.9720721908279
 31
0.0
  0
LINE
  5
990F
330
1A
100
AcDbEntity
  8
SEIHIN
100
AcDbLine
 10
686.8669586365511
 20
444.925793964728
 30
0.0
 11
685.225534973051
 21
444.6913065381279
 31
0.0
  0
LINE
  5
9910
330
1A
100
AcDbEntity
  8
SEIHIN
100
AcDbLine
 10
700.149807867951
 20
446.8233497806279
 30
0.0
 11
700.7891868924509
 21
447.0285536714279
 31
0.0
  0
LINE
  5
9911
330
1A
100
AcDbEntity
  8
SEIHIN
100
AcDbLine
 10
701.8606399869511
 20
448.6444355912281
 30
0.0
 11
701.8669580792509
 21
448.803237266128
 31
0.0
  0
LINE
  5
9912
330
1A
100
AcDbEntity
  8
SEIHIN
100
AcDbLine
 10
701.695699033651
 20
447.993463463328
 30
0.0
 11
701.8606399869511
 21
448.6444355912281
 31
0.0
  0
LINE
  5
9913
330
1A
100
AcDbEntity
  8
SEIHIN
100
AcDbLine
 10
701.324600515351
 20
447.4338205524279
 30
0.0
 11
701.695699033651
 21
447.993463463328
 31
0.0
  0
LINE
  5
9914
330
1A
100
AcDbEntity
  8
SEIHIN
100
AcDbLine
 10
701.8669580792509
 20
487.6158149905282
 30
0.0
 11
730.866958636551
 21
487.6158029887281
 31
0.0
  0
LINE
  5
9915
330
1A
100
AcDbEntity
  8
SEIHIN
100
AcDbLine
 10
701.8669580792509
 20
478.216058201328
 30
0.0
 11
730.866958636551
 21
478.216053430328
 31
0.0
  0
LINE
  5
9916
330
1A
100
AcDbEntity
  8
SEIHIN
100
AcDbLine
 10
730.866958636551
 20
480.107022865628
 30
0.0
 11
701.8669580792509
 21
480.107030458028
 31
0.0
  0
LINE
  5
9917
330
1A
100
AcDbEntity
  8
SEIHIN
100
AcDbLine
 10
701.8669580792509
 20
476.6124697394279
 30
0.0
 11
686.8669574832511
 21
476.6124697394279
 31
0.0
  0
LINE
  5
9918
330
1A
100
AcDbEntity
  8
SEIHIN
100
AcDbLine
 10
686.8669574832511
 20
474.487728066028
 30
0.0
 11
701.8669580792509
 21
474.487728066028
 31
0.0
  0
LINE
  5
9919
330
1A
100
AcDbEntity
  8
SEIHIN
100
AcDbLine
 10
686.8669586365511
 20
484.171789702628
 30
0.0
 11
701.866958636551
 21
484.171789702628
 31
0.0
  0
LINE
  5
991A
330
1A
100
AcDbEntity
  8
SEIHIN
100
AcDbLine
 10
683.976907072051
 20
478.7839265533279
 30
0.0
 11
681.8669586365513
 21
480.2620643295667
 31
0.0
  0
LINE
  5
991B
330
1A
100
AcDbEntity
  8
SEIHIN
100
AcDbLine
 10
681.9028144454509
 20
478.0863733954279
 30
0.0
 11
682.8668152665511
 21
477.392053789628
 31
0.0
  0
LINE
  5
991C
330
1A
100
AcDbEntity
  8
SEIHIN
100
AcDbLine
 10
684.982392725851
 20
475.8169265456281
 30
0.0
 11
685.9113162135511
 21
475.134960002428
 31
0.0
  0
LINE
  5
991D
330
1A
100
AcDbEntity
  8
SEIHIN
100
AcDbLine
 10
683.781418738351
 20
476.713648623928
 30
0.0
 11
686.8669586365511
 21
474.4097921049778
 31
0.0
  0
LINE
  5
991E
330
1A
100
AcDbEntity
  8
SEIHIN
100
AcDbLine
 10
682.8668152665511
 20
477.392053789628
 30
0.0
 11
683.781418738351
 21
476.713648623928
 31
0.0
  0
LINE
  5
991F
330
1A
100
AcDbEntity
  8
SEIHIN
100
AcDbLine
 10
686.8286764001511
 20
476.7475040622279
 30
0.0
 11
683.976907072051
 21
478.7839265533279
 31
0.0
  0
LINE
  5
9920
330
1A
100
AcDbEntity
  8
SEIHIN
100
AcDbLine
 10
681.8859314298511
 20
487.5520082183282
 30
0.0
 11
686.8669574832511
 21
484.119942969828
 31
0.0
  0
LINE
  5
9921
330
1A
100
AcDbEntity
  8
SEIHIN
100
AcDbLine
 10
696.8669628476511
 20
501.3542385764281
 30
0.0
 11
686.8669574832511
 21
502.444914168828
 31
0.0
  0
LINE
  5
9922
330
1A
100
AcDbEntity
  8
SEIHIN
100
AcDbLine
 10
698.6514216041509
 20
498.5127063460281
 30
0.0
 11
686.8669586365511
 21
499.470745708528
 31
0.0
  0
LINE
  5
9923
330
1A
100
AcDbEntity
  8
SEIHIN
100
AcDbLine
 10
681.866958636551
 20
504.3394323450281
 30
0.0
 11
686.8669586365511
 21
499.470745708528
 31
0.0
  0
LINE
  5
9924
330
1A
100
AcDbEntity
  8
SEIHIN
100
AcDbLine
 10
681.866958636551
 20
504.3394323450281
 30
0.0
 11
684.366959867451
 21
504.3394180007281
 31
0.0
  0
LINE
  5
9925
330
1A
100
AcDbEntity
  8
SEIHIN
100
AcDbLine
 10
686.8669574832511
 20
502.444914168828
 30
0.0
 11
684.366959867451
 21
504.3394180007281
 31
0.0
  0
LINE
  5
9926
330
1A
100
AcDbEntity
  8
SEIHIN
100
AcDbLine
 10
698.6514216041509
 20
500.6315620608281
 30
0.0
 11
696.8669628476511
 21
501.3542385764281
 31
0.0
  0
LINE
  5
9927
330
1A
100
AcDbEntity
  8
SEIHIN
100
AcDbLine
 10
701.716381845451
 20
498.5071631141281
 30
0.0
 11
701.8669580792509
 21
498.031100816328
 31
0.0
  0
LINE
  5
9928
330
1A
100
AcDbEntity
  8
SEIHIN
100
AcDbLine
 10
701.0422831153509
 20
499.259165114928
 30
0.0
 11
701.716381845451
 21
498.5071631141281
 31
0.0
  0
LINE
  5
9929
330
1A
100
AcDbEntity
  8
SEIHIN
100
AcDbLine
 10
699.9979650353509
 20
499.9788613982279
 30
0.0
 11
701.0422831153509
 21
499.259165114928
 31
0.0
  0
LINE
  5
992A
330
1A
100
AcDbEntity
  8
SEIHIN
100
AcDbLine
 10
698.6514216041509
 20
500.6315620608281
 30
0.0
 11
699.9979650353509
 21
499.9788613982279
 31
0.0
  0
LINE
  5
992B
330
1A
100
AcDbEntity
  8
SEIHIN
100
AcDbLine
 10
699.7431104754509
 20
498.356035537228
 30
0.0
 11
698.6514216041509
 21
498.5127063460281
 31
0.0
  0
LINE
  5
992C
330
1A
100
AcDbEntity
  8
SEIHIN
100
AcDbLine
 10
700.8669262504511
 20
498.0012090869281
 30
0.0
 11
699.7431104754509
 21
498.356035537228
 31
0.0
  0
LINE
  5
992D
330
1A
100
AcDbEntity
  8
SEIHIN
100
AcDbLine
 10
701.612699565851
 20
497.508308476928
 30
0.0
 11
700.8669262504511
 21
498.0012090869281
 31
0.0
  0
LINE
  5
992E
330
1A
100
AcDbEntity
  8
SEIHIN
100
AcDbLine
 10
701.8669580792509
 20
496.9574125476281
 30
0.0
 11
701.612699565851
 21
497.508308476928
 31
0.0
  0
LINE
  5
992F
330
1A
100
AcDbEntity
  8
SEIHIN
100
AcDbLine
 10
701.8669580792509
 20
498.031100816328
 30
0.0
 11
701.866958636551
 21
496.957411797528
 31
0.0
  0
LINE
  5
9930
330
1A
100
AcDbEntity
  8
SEIHIN
100
AcDbLine
 10
730.866958636551
 20
521.118651107628
 30
0.0
 11
691.8669586365511
 21
521.118651107628
 31
0.0
  0
LINE
  5
9931
330
1A
100
AcDbEntity
  8
SEIHIN
100
AcDbLine
 10
689.3879061316511
 20
535.0730629630281
 30
0.0
 11
689.8930256938511
 21
534.9377306171281
 31
0.0
  0
LINE
  5
9932
330
1A
100
AcDbEntity
  8
SEIHIN
100
AcDbLine
 10
688.866961536351
 20
535.1186605163282
 30
0.0
 11
689.3879061316511
 21
535.0730629630281
 31
0.0
  0
LINE
  5
9933
330
1A
100
AcDbEntity
  8
SEIHIN
100
AcDbLine
 10
691.8669586365511
 20
524.889897329228
 30
0.0
 11
691.8669527148511
 21
532.1186395354279
 31
0.0
  0
LINE
  5
9934
330
1A
100
AcDbEntity
  8
SEIHIN
100
AcDbLine
 10
691.8669586365511
 20
523.529335504628
 30
0.0
 11
691.8669586365511
 21
524.889897329228
 31
0.0
  0
LINE
  5
9935
330
1A
100
AcDbEntity
  8
SEIHIN
100
AcDbLine
 10
691.8669586365511
 20
521.118651107628
 30
0.0
 11
691.8669586365511
 21
521.8299602385282
 31
0.0
  0
LINE
  5
9936
330
1A
100
AcDbEntity
  8
SEIHIN
100
AcDbLine
 10
691.8669586365511
 20
523.529335504628
 30
0.0
 11
691.8669586365511
 21
521.8299602385282
 31
0.0
  0
LINE
  5
9937
330
1A
100
AcDbEntity
  8
SEIHIN
100
AcDbLine
 10
691.821384963951
 20
532.6395841308281
 30
0.0
 11
691.8669527148511
 21
532.1186395354279
 31
0.0
  0
LINE
  5
9938
330
1A
100
AcDbEntity
  8
SEIHIN
100
AcDbLine
 10
691.6860377168511
 20
533.144703692928
 30
0.0
 11
691.821384963951
 21
532.6395841308281
 31
0.0
  0
LINE
  5
9939
330
1A
100
AcDbEntity
  8
SEIHIN
100
AcDbLine
 10
691.465038595151
 20
533.6186500258281
 30
0.0
 11
691.6860377168511
 21
533.144703692928
 31
0.0
  0
LINE
  5
993A
330
1A
100
AcDbEntity
  8
SEIHIN
100
AcDbLine
 10
691.165093121451
 20
534.047028607828
 30
0.0
 11
691.465038595151
 21
533.6186500258281
 31
0.0
  0
LINE
  5
993B
330
1A
100
AcDbEntity
  8
SEIHIN
100
AcDbLine
 10
690.7953208064512
 20
534.4167860217281
 30
0.0
 11
691.165093121451
 21
534.047028607828
 31
0.0
  0
LINE
  5
993C
330
1A
100
AcDbEntity
  8
SEIHIN
100
AcDbLine
 10
690.3669571256509
 20
534.716716594228
 30
0.0
 11
690.7953208064512
 21
534.4167860217281
 31
0.0
  0
LINE
  5
993D
330
1A
100
AcDbEntity
  8
SEIHIN
100
AcDbLine
 10
689.8930256938511
 20
534.9377306171281
 30
0.0
 11
690.3669571256509
 21
534.716716594228
 31
0.0
  0
LINE
  5
993E
330
1A
100
AcDbEntity
  8
SEIHIN
100
AcDbLine
 10
719.1985526931509
 20
539.0111990975281
 30
0.0
 11
730.8669572448509
 21
538.616201467028
 31
0.0
  0
LINE
  5
993F
330
1A
100
AcDbEntity
  8
SEIHIN
100
AcDbLine
 10
713.867391650777
 20
539.1239632573281
 30
0.0
 11
719.1985582685511
 21
539.011201448028
 31
0.0
  0
VIEWPORT
  5
22
330
17
100
AcDbEntity
 67
     1
  8
0
100
AcDbViewport
 10
313.6808219178082
 20
148.5
 30
0.0
 40
627.3616438356165
 41
297.0
 68
     2
 69
     1
1001
ACAD
1000
MVIEW
1002
{
1070
    16
1010
0.0
1020
0.0
1030
0.0
1010
0.0
1020
0.0
1030
1.0
1040
0.0
1040
297.0
1040
313.6808219178082
1040
148.5
1040
50.0
1040
0.0
1040
0.0
1070
     0
1070
   100
1070
     1
1070
     0
1070
     0
1070
     0
1070
     0
1070
     0
1040
0.0
1040
0.0
1040
0.0
1040
1.0
1040
1.0
1040
10.0
1040
10.0
1070
     0
1002
{
1002
}
1002
}
  0
VIEWPORT
  5
64
330
17
100
AcDbEntity
 67
     1
  8
VIEWPORT
100
AcDbViewport
 10
210.0
 20
148.5
 30
0.0
 40
420.0
 41
297.0
 68
     1
 69
     2
1001
ACAD
1000
MVIEW
1002
{
1070
    16
1010
0.0
1020
0.0
1030
0.0
1010
0.0
1020
0.0
1030
1.0
1040
0.0
1040
605.8799999999997
1040
420.0
1040
297.0
1040
50.0
1040
0.0
1040
0.0
1070
     0
1070
   100
1070
     1
1070
     0
1070
     0
1070
     0
1070
     0
1070
     0
1040
0.0
1040
0.0
1040
0.0
1040
10.0
1040
10.0
1040
0.0
1040
0.0
1070
     0
1002
{
1002
}
1002
}
  0
ENDSEC
  0
SECTION
  2
OBJECTS
  0
DICTIONARY
  5
C
330
0
100
AcDbDictionary
  3
ACAD_GROUP
350
D
  3
ACAD_LAYOUT
350
556
  3
ACAD_MLINESTYLE
350
E
  3
ACAD_PLOTSETTINGS
350
557
  3
ACAD_PLOTSTYLENAME
350
554
  3
ACDBVARIABLEDICTIONARY
350
6FB9
  3
ACDBHEADERROUNDTRIPXREC
350
9A47
  0
DICTIONARY
  5
6C6
330
1A
100
AcDbDictionary
280
     1
  3
ACAD_LAYOUTSELFREF
360
9A69
  0
DICTIONARY
  5
6C4
330
17
100
AcDbDictionary
280
     1
  3
ACAD_LAYOUTSELFREF
360
9A68
  0
DICTIONARY
  5
D
102
{ACAD_REACTORS
330
C
102
}
330
C
100
AcDbDictionary
  3
*A1
350
45AE
  3
*A2
350
6BC5
  0
DICTIONARY
  5
556
102
{ACAD_REACTORS
330
C
102
}
330
C
100
AcDbDictionary
  0
DICTIONARY
  5
E
102
{ACAD_REACTORS
330
C
102
}
330
C
100
AcDbDictionary
  3
STANDARD
350
13
  0
DICTIONARY
  5
557
102
{ACAD_REACTORS
330
C
102
}
330
C
100
AcDbDictionary
  0
ACDBDICTIONARYWDFLT
  5
554
102
{ACAD_REACTORS
330
C
102
}
330
C
100
AcDbDictionary
281
     1
  3
Normal
350
555
100
AcDbDictionaryWithDefault
340
555
1001
ACAD
1000
TREAT_AS_HARD
1070
     0
1000
TREAT_AS_HARD
1070
     0
1000
TREAT_AS_HARD
1070
     0
1000
TREAT_AS_HARD
1070
     0
1000
TREAT_AS_HARD
1070
     0
1000
TREAT_AS_HARD
1070
     0
1000
TREAT_AS_HARD
1070
     0
1000
TREAT_AS_HARD
1070
     0
1000
TREAT_AS_HARD
1070
     0
1000
TREAT_AS_HARD
1070
     0
1000
TREAT_AS_HARD
1070
     0
1000
TREAT_AS_HARD
1070
     0
1000
TREAT_AS_HARD
1070
     0
  0
DICTIONARY
  5
6FB9
102
{ACAD_REACTORS
330
C
102
}
330
C
100
AcDbDictionary
  3
SORTENTS
350
6FBA
  0
DICTIONARY
  5
9A47
102
{ACAD_REACTORS
330
C
102
}
330
C
100
AcDbDictionary
  3
TSTACKALIGN
350
9A48
  3
TSTACKSIZE
350
9A49
  3
HYPERLINKBASE
350
9A4A
  3
STYLESHEET
350
9A4B
  3
LAYOUTDICT
350
9A4C
  3
PLOTSETDICT
350
9A4D
  3
PLOTSTYLNAMDICT
350
9A4E
  3
LWETCUNION
350
9A4F
  3
INSUNITS
350
9A50
  3
CEPSNTYPE
350
9A51
  3
FINGERPRINTGUID
350
9A52
  3
VERSIONGUID
350
9A53
  3
PSVPSCALE
350
9A54
  3
DIMSTYLEDATA
350
9A55
  3
PUCSORTHOREF
350
9A56
  3
PUCSORTHOVIEW
350
9A57
  3
PUCSBASE
350
9A58
  3
PUCSORGTOP
350
9A59
  3
PUCSORGBOTTOM
350
9A5A
  3
PUCSORGLEFT
350
9A5B
  3
PUCSORGRIGHT
350
9A5C
  3
PUCSORGFRONT
350
9A5D
  3
PUCSORGBACK
350
9A5E
  3
UCSORTHOREF
350
9A5F
  3
UCSORTHOVIEW
350
9A60
  3
UCSBASE
350
9A61
  3
UCSORGTOP
350
9A62
  3
UCSORGBOTTOM
350
9A63
  3
UCSORGLEFT
350
9A64
  3
UCSORGRIGHT
350
9A65
  3
UCSORGFRONT
350
9A66
  3
UCSORGBACK
350
9A67
  0
XRECORD
  5
9A69
102
{ACAD_REACTORS
330
6C6
102
}
330
6C6
100
AcDbXrecord
340
1A
  0
XRECORD
  5
9A68
102
{ACAD_REACTORS
330
6C4
102
}
330
6C4
100
AcDbXrecord
340
17
  0
GROUP
  5
45AE
102
{ACAD_REACTORS
330
D
102
}
330
D
100
AcDbGroup
300

 70
     1
 71
     1
  0
GROUP
  5
6BC5
102
{ACAD_REACTORS
330
D
102
}
330
D
100
AcDbGroup
300

 70
     1
 71
     1
  0
MLINESTYLE
  5
13
102
{ACAD_REACTORS
330
E
102
}
330
E
100
AcDbMlineStyle
  2
STANDARD
 70
     0
  3

 62
     0
 51
90.0
 52
90.0
 71
     2
 49
0.5
 62
   256
  6
BYLAYER
 49
-0.5
 62
   256
  6
BYLAYER
  0
ACDBPLACEHOLDER
  5
555
102
{ACAD_REACTORS
330
554
102
}
330
554
100
AcDbPlaceHolder
280
     0
  0
DICTIONARYVAR
  5
6FBA
102
{ACAD_REACTORS
330
6FB9
102
}
330
6FB9
100
DictionaryVariables
280
     0
  1
96
  0
XRECORD
  5
9A48
102
{ACAD_REACTORS
330
9A47
102
}
330
9A47
100
AcDbXrecord
 90
        1
  0
XRECORD
  5
9A49
102
{ACAD_REACTORS
330
9A47
102
}
330
9A47
100
AcDbXrecord
 90
       70
  0
XRECORD
  5
9A4A
102
{ACAD_REACTORS
330
9A47
102
}
330
9A47
100
AcDbXrecord
  1

  0
XRECORD
  5
9A4B
102
{ACAD_REACTORS
330
9A47
102
}
330
9A47
100
AcDbXrecord
  1
systemprinter.ctb
  0
XRECORD
  5
9A4C
102
{ACAD_REACTORS
330
9A47
102
}
330
9A47
100
AcDbXrecord
340
556
  0
XRECORD
  5
9A4D
102
{ACAD_REACTORS
330
9A47
102
}
330
9A47
100
AcDbXrecord
340
557
  0
XRECORD
  5
9A4E
102
{ACAD_REACTORS
330
9A47
102
}
330
9A47
100
AcDbXrecord
340
554
  0
XRECORD
  5
9A4F
102
{ACAD_REACTORS
330
9A47
102
}
330
9A47
100
AcDbXrecord
 90
    10781
  0
XRECORD
  5
9A50
102
{ACAD_REACTORS
330
9A47
102
}
330
9A47
100
AcDbXrecord
 90
        0
  0
XRECORD
  5
9A51
102
{ACAD_REACTORS
330
9A47
102
}
330
9A47
100
AcDbXrecord
 90
        0
  0
XRECORD
  5
9A52
102
{ACAD_REACTORS
330
9A47
102
}
330
9A47
100
AcDbXrecord
  1
{B06877AA-F1AE-4EC1-AEA7-B60A7FDC8903}
  0
XRECORD
  5
9A53
102
{ACAD_REACTORS
330
9A47
102
}
330
9A47
100
AcDbXrecord
  1
{DB2E91CF-8B8A-4489-B8E4-01163F28E0D4}
  0
XRECORD
  5
9A54
102
{ACAD_REACTORS
330
9A47
102
}
330
9A47
100
AcDbXrecord
 40
0.0
  0
XRECORD
  5
9A55
102
{ACAD_REACTORS
330
9A47
102
}
330
9A47
100
AcDbXrecord
1000
DSTYLE
1002
{
1070
   341
340
6D
1070
   343
340
6D
1070
   344
340
6D
1070
   371
 70
    -1
1070
   372
 70
    -1
1002
}
  0
XRECORD
  5
9A56
102
{ACAD_REACTORS
330
9A47
102
}
330
9A47
100
AcDbXrecord
340
0
  0
XRECORD
  5
9A57
102
{ACAD_REACTORS
330
9A47
102
}
330
9A47
100
AcDbXrecord
 70
     0
  0
XRECORD
  5
9A58
102
{ACAD_REACTORS
330
9A47
102
}
330
9A47
100
AcDbXrecord
340
0
  0
XRECORD
  5
9A59
102
{ACAD_REACTORS
330
9A47
102
}
330
9A47
100
AcDbXrecord
 10
0.0
 20
0.0
 30
0.0
  0
XRECORD
  5
9A5A
102
{ACAD_REACTORS
330
9A47
102
}
330
9A47
100
AcDbXrecord
 10
0.0
 20
0.0
 30
0.0
  0
XRECORD
  5
9A5B
102
{ACAD_REACTORS
330
9A47
102
}
330
9A47
100
AcDbXrecord
 10
0.0
 20
0.0
 30
0.0
  0
XRECORD
  5
9A5C
102
{ACAD_REACTORS
330
9A47
102
}
330
9A47
100
AcDbXrecord
 10
0.0
 20
0.0
 30
0.0
  0
XRECORD
  5
9A5D
102
{ACAD_REACTORS
330
9A47
102
}
330
9A47
100
AcDbXrecord
 10
0.0
 20
0.0
 30
0.0
  0
XRECORD
  5
9A5E
102
{ACAD_REACTORS
330
9A47
102
}
330
9A47
100
AcDbXrecord
 10
0.0
 20
0.0
 30
0.0
  0
XRECORD
  5
9A5F
102
{ACAD_REACTORS
330
9A47
102
}
330
9A47
100
AcDbXrecord
340
0
  0
XRECORD
  5
9A60
102
{ACAD_REACTORS
330
9A47
102
}
330
9A47
100
AcDbXrecord
 70
     0
  0
XRECORD
  5
9A61
102
{ACAD_REACTORS
330
9A47
102
}
330
9A47
100
AcDbXrecord
340
0
  0
XRECORD
  5
9A62
102
{ACAD_REACTORS
330
9A47
102
}
330
9A47
100
AcDbXrecord
 10
0.0
 20
0.0
 30
0.0
  0
XRECORD
  5
9A63
102
{ACAD_REACTORS
330
9A47
102
}
330
9A47
100
AcDbXrecord
 10
0.0
 20
0.0
 30
0.0
  0
XRECORD
  5
9A64
102
{ACAD_REACTORS
330
9A47
102
}
330
9A47
100
AcDbXrecord
 10
0.0
 20
0.0
 30
0.0
  0
XRECORD
  5
9A65
102
{ACAD_REACTORS
330
9A47
102
}
330
9A47
100
AcDbXrecord
 10
0.0
 20
0.0
 30
0.0
  0
XRECORD
  5
9A66
102
{ACAD_REACTORS
330
9A47
102
}
330
9A47
100
AcDbXrecord
 10
0.0
 20
0.0
 30
0.0
  0
XRECORD
  5
9A67
102
{ACAD_REACTORS
330
9A47
102
}
330
9A47
100
AcDbXrecord
 10
0.0
 20
0.0
 30
0.0
  0
ENDSEC
  0
EOF
