  0
SECTION
  2
HEADER
  9
$ACADVER
  1
AC1014
  9
$ACADMAINTVER
 70
     9
  9
$DWGCODEPAGE
  3
ANSI_932
  9
$INSBASE
 10
0.0
 20
0.0
 30
0.0
  9
$EXTMIN
 10
-0.0256328098773793
 20
-0.0181261901288963
 30
-0.0015258207003583
  9
$EXTMAX
 10
797.6000995626677
 20
551.6452344786116
 30
0.0000000349246037
  9
$LIMMIN
 10
0.0
 20
0.0
  9
$LIMMAX
 10
840.0
 20
594.0
  9
$ORTHOMODE
 70
     0
  9
$REGENMODE
 70
     1
  9
$FILLMODE
 70
     1
  9
$QTEXTMODE
 70
     0
  9
$MIRRTEXT
 70
     1
  9
$DRAGMODE
 70
     2
  9
$LTSCALE
 40
2.0
  9
$OSMODE
 70
    35
  9
$ATTMODE
 70
     1
  9
$TEXTSIZE
 40
5.0
  9
$TRACEWID
 40
1.0
  9
$TEXTSTYLE
  7
STANDARD
  9
$CLAYER
  8
0
  9
$CELTYPE
  6
BYLAYER
  9
$CECOLOR
 62
   256
  9
$CELTSCALE
 40
1.0
  9
$DELOBJ
 70
     1
  9
$DISPSILH
 70
     0
  9
$DIMSCALE
 40
1.0
  9
$DIMASZ
 40
7.0
  9
$DIMEXO
 40
6.0
  9
$DIMDLI
 40
14.0
  9
$DIMRND
 40
0.0
  9
$DIMDLE
 40
0.0
  9
$DIMEXE
 40
3.0
  9
$DIMTP
 40
0.0
  9
$DIMTM
 40
0.0
  9
$DIMTXT
 40
6.0
  9
$DIMCEN
 40
150.0
  9
$DIMTSZ
 40
0.0
  9
$DIMTOL
 70
     0
  9
$DIMLIM
 70
     0
  9
$DIMTIH
 70
     0
  9
$DIMTOH
 70
     0
  9
$DIMSE1
 70
     0
  9
$DIMSE2
 70
     0
  9
$DIMTAD
 70
     3
  9
$DIMZIN
 70
     0
  9
$DIMBLK
  1

  9
$DIMASO
 70
     1
  9
$DIMSHO
 70
     1
  9
$DIMPOST
  1

  9
$DIMAPOST
  1

  9
$DIMALT
 70
     0
  9
$DIMALTD
 70
     2
  9
$DIMALTF
 40
25.4
  9
$DIMLFAC
 40
1.0
  9
$DIMTOFL
 70
     1
  9
$DIMTVP
 40
0.0
  9
$DIMTIX
 70
     0
  9
$DIMSOXD
 70
     0
  9
$DIMSAH
 70
     1
  9
$DIMBLK1
  1
OPEN
  9
$DIMBLK2
  1
OPEN
  9
$DIMSTYLE
  2
STANDARD
  9
$DIMCLRD
 70
   256
  9
$DIMCLRE
 70
   256
  9
$DIMCLRT
 70
   256
  9
$DIMTFAC
 40
1.0
  9
$DIMGAP
 40
2.0
  9
$DIMJUST
 70
     0
  9
$DIMSD1
 70
     0
  9
$DIMSD2
 70
     0
  9
$DIMTOLJ
 70
     1
  9
$DIMTZIN
 70
     0
  9
$DIMALTZ
 70
     0
  9
$DIMALTTZ
 70
     0
  9
$DIMFIT
 70
     3
  9
$DIMUPT
 70
     0
  9
$DIMUNIT
 70
     2
  9
$DIMDEC
 70
     0
  9
$DIMTDEC
 70
     0
  9
$DIMALTU
 70
     2
  9
$DIMALTTD
 70
     2
  9
$DIMTXSTY
  7
STANDARD
  9
$DIMAUNIT
 70
     0
  9
$LUNITS
 70
     2
  9
$LUPREC
 70
     4
  9
$SKETCHINC
 40
1.0
  9
$FILLETRAD
 40
20.0
  9
$AUNITS
 70
     0
  9
$AUPREC
 70
     0
  9
$MENU
  1
.
  9
$ELEVATION
 40
0.0
  9
$PELEVATION
 40
0.0
  9
$THICKNESS
 40
0.0
  9
$LIMCHECK
 70
     0
  9
$BLIPMODE
 70
     0
  9
$CHAMFERA
 40
0.0
  9
$CHAMFERB
 40
0.0
  9
$CHAMFERC
 40
40.0
  9
$CHAMFERD
 40
0.0
  9
$SKPOLY
 70
     0
  9
$TDCREATE
 40
2451159.834708796
  9
$TDUPDATE
 40
2454216.543464803
  9
$TDINDWG
 40
0.2511632870
  9
$TDUSRTIMER
 40
0.2511631019
  9
$USRTIMER
 70
     1
  9
$ANGBASE
 50
0.0
  9
$ANGDIR
 70
     0
  9
$PDMODE
 70
     0
  9
$PDSIZE
 40
0.0
  9
$PLINEWID
 40
0.0
  9
$COORDS
 70
     0
  9
$SPLFRAME
 70
     0
  9
$SPLINETYPE
 70
     6
  9
$SPLINESEGS
 70
     8
  9
$ATTDIA
 70
     0
  9
$ATTREQ
 70
     1
  9
$HANDLING
 70
 10241
  9
$HANDSEED
  5
5A8C
  9
$SURFTAB1
 70
     6
  9
$SURFTAB2
 70
     6
  9
$SURFTYPE
 70
     6
  9
$SURFU
 70
     6
  9
$SURFV
 70
     6
  9
$UCSNAME
  2

  9
$UCSORG
 10
0.0
 20
0.0
 30
0.0
  9
$UCSXDIR
 10
1.0
 20
0.0
 30
0.0
  9
$UCSYDIR
 10
0.0
 20
1.0
 30
0.0
  9
$PUCSNAME
  2

  9
$PUCSORG
 10
0.0
 20
0.0
 30
0.0
  9
$PUCSXDIR
 10
1.0
 20
0.0
 30
0.0
  9
$PUCSYDIR
 10
0.0
 20
1.0
 30
0.0
  9
$USERI1
 70
     0
  9
$USERI2
 70
     0
  9
$USERI3
 70
     0
  9
$USERI4
 70
     0
  9
$USERI5
 70
     0
  9
$USERR1
 40
0.0
  9
$USERR2
 40
0.0
  9
$USERR3
 40
0.0
  9
$USERR4
 40
0.0
  9
$USERR5
 40
0.0
  9
$WORLDVIEW
 70
     1
  9
$SHADEDGE
 70
     3
  9
$SHADEDIF
 70
    70
  9
$TILEMODE
 70
     1
  9
$MAXACTVP
 70
    16
  9
$PINSBASE
 10
0.0
 20
0.0
 30
0.0
  9
$PLIMCHECK
 70
     0
  9
$PEXTMIN
 10
0.0
 20
0.0
 30
0.0
  9
$PEXTMAX
 10
420.0
 20
297.0
 30
0.0
  9
$PLIMMIN
 10
0.0
 20
0.0
  9
$PLIMMAX
 10
420.0
 20
297.0
  9
$UNITMODE
 70
     0
  9
$VISRETAIN
 70
     0
  9
$PLINEGEN
 70
     0
  9
$PSLTSCALE
 70
     1
  9
$TREEDEPTH
 70
  3020
  9
$PICKSTYLE
 70
     1
  9
$CMLSTYLE
  2
STANDARD
  9
$CMLJUST
 70
     0
  9
$CMLSCALE
 40
1.0
  9
$PROXYGRAPHICS
 70
     1
  9
$MEASUREMENT
 70
     1
  0
ENDSEC
  0
SECTION
  2
CLASSES
  0
CLASS
  1
ACDBDICTIONARYWDFLT
  2
AcDbDictionaryWithDefault
  3
AutoCAD 2000
 90
        0
280
     0
281
     0
  0
CLASS
  1
ACDBPLACEHOLDER
  2
AcDbPlaceHolder
  3
AutoCAD 2000
 90
        0
280
     0
281
     0
  0
CLASS
  1
LAYOUT
  2
AcDbLayout
  3
AutoCAD 2000
 90
        0
280
     0
281
     0
  0
CLASS
  1
LONG_TRANSACTION
  2
AcDbLongTransaction
  3
AutoCAD 2000
 90
        0
280
     0
281
     0
  0
CLASS
  1
LWPOLYLINE
  2
AcDbPolyline
  3
AutoCAD 2000
 90
        0
280
     0
281
     1
  0
CLASS
  1
HATCH
  2
AcDbHatch
  3
AutoCAD 2000
 90
        0
280
     0
281
     1
  0
CLASS
  1
XRECORD
  2
AcDbXrecord
  3
AutoCAD 2000
 90
        0
280
     0
281
     0
  0
CLASS
  1
LONG_TRANSACTION
  2
AcDbLongTransaction
  3
AutoCAD 2000
 90
        0
280
     0
281
     0
  0
CLASS
  1
LWPOLYLINE
  2
AcDbPolyline
  3
AutoCAD 2000
 90
        0
280
     0
281
     1
  0
CLASS
  1
HATCH
  2
AcDbHatch
  3
AutoCAD 2000
 90
        0
280
     0
281
     1
  0
CLASS
  1
XRECORD
  2
AcDbXrecord
  3
AutoCAD 2000
 90
        0
280
     0
281
     0
  0
CLASS
  1
LONG_TRANSACTION
  2
AcDbLongTransaction
  3
AutoCAD 2000
 90
        0
280
     0
281
     0
  0
CLASS
  1
LWPOLYLINE
  2
AcDbPolyline
  3
AutoCAD 2000
 90
        0
280
     0
281
     1
  0
CLASS
  1
HATCH
  2
AcDbHatch
  3
AutoCAD 2000
 90
        0
280
     0
281
     1
  0
CLASS
  1
XRECORD
  2
AcDbXrecord
  3
AutoCAD 2000
 90
        0
280
     0
281
     0
  0
CLASS
  1
LONG_TRANSACTION
  2
AcDbLongTransaction
  3
AutoCAD 2000
 90
        0
280
     0
281
     0
  0
CLASS
  1
LWPOLYLINE
  2
AcDbPolyline
  3
AutoCAD 2000
 90
        0
280
     0
281
     1
  0
CLASS
  1
HATCH
  2
AcDbHatch
  3
AutoCAD 2000
 90
        0
280
     0
281
     1
  0
CLASS
  1
XRECORD
  2
AcDbXrecord
  3
AutoCAD 2000
 90
        0
280
     0
281
     0
  0
CLASS
  1
LONG_TRANSACTION
  2
AcDbLongTransaction
  3
AutoCAD 2000
 90
        0
280
     0
281
     0
  0
CLASS
  1
LWPOLYLINE
  2
AcDbPolyline
  3
AutoCAD 2000
 90
        0
280
     0
281
     1
  0
CLASS
  1
HATCH
  2
AcDbHatch
  3
AutoCAD 2000
 90
        0
280
     0
281
     1
  0
CLASS
  1
XRECORD
  2
AcDbXrecord
  3
AutoCAD 2000
 90
        0
280
     0
281
     0
  0
CLASS
  1
LONG_TRANSACTION
  2
AcDbLongTransaction
  3
AutoCAD 2000
 90
        0
280
     0
281
     0
  0
CLASS
  1
LWPOLYLINE
  2
AcDbPolyline
  3
AutoCAD 2000
 90
        0
280
     0
281
     1
  0
CLASS
  1
HATCH
  2
AcDbHatch
  3
AutoCAD 2000
 90
        0
280
     0
281
     1
  0
CLASS
  1
XRECORD
  2
AcDbXrecord
  3
AutoCAD 2000
 90
        0
280
     0
281
     0
  0
CLASS
  1
LONG_TRANSACTION
  2
AcDbLongTransaction
  3
AutoCAD 2000
 90
        0
280
     0
281
     0
  0
CLASS
  1
LWPOLYLINE
  2
AcDbPolyline
  3
AutoCAD 2000
 90
        0
280
     0
281
     1
  0
CLASS
  1
HATCH
  2
AcDbHatch
  3
AutoCAD 2000
 90
        0
280
     0
281
     1
  0
CLASS
  1
XRECORD
  2
AcDbXrecord
  3
AutoCAD 2000
 90
        0
280
     0
281
     0
  0
CLASS
  1
LONG_TRANSACTION
  2
AcDbLongTransaction
  3
AutoCAD 2000
 90
        0
280
     0
281
     0
  0
CLASS
  1
LWPOLYLINE
  2
AcDbPolyline
  3
AutoCAD 2000
 90
        0
280
     0
281
     1
  0
CLASS
  1
HATCH
  2
AcDbHatch
  3
AutoCAD 2000
 90
        0
280
     0
281
     1
  0
CLASS
  1
XRECORD
  2
AcDbXrecord
  3
AutoCAD 2000
 90
        0
280
     0
281
     0
  0
CLASS
  1
LONG_TRANSACTION
  2
AcDbLongTransaction
  3
AutoCAD 2000
 90
        0
280
     0
281
     0
  0
CLASS
  1
LWPOLYLINE
  2
AcDbPolyline
  3
AutoCAD 2000
 90
        0
280
     0
281
     1
  0
CLASS
  1
HATCH
  2
AcDbHatch
  3
AutoCAD 2000
 90
        0
280
     0
281
     1
  0
CLASS
  1
XRECORD
  2
AcDbXrecord
  3
AutoCAD 2000
 90
        0
280
     0
281
     0
  0
CLASS
  1
LONG_TRANSACTION
  2
AcDbLongTransaction
  3
AutoCAD 2000
 90
        0
280
     0
281
     0
  0
CLASS
  1
LWPOLYLINE
  2
AcDbPolyline
  3
AutoCAD 2000
 90
        0
280
     0
281
     1
  0
CLASS
  1
HATCH
  2
AcDbHatch
  3
AutoCAD 2000
 90
        0
280
     0
281
     1
  0
CLASS
  1
XRECORD
  2
AcDbXrecord
  3
AutoCAD 2000
 90
        0
280
     0
281
     0
  0
ENDSEC
  0
SECTION
  2
TABLES
  0
TABLE
  2
VPORT
  5
8
330
0
100
AcDbSymbolTable
 70
     2
  0
VPORT
  5
5A1E
330
8
100
AcDbSymbolTableRecord
100
AcDbViewportTableRecord
  2
*ACTIVE
 70
     0
 10
0.0
 20
0.0
 11
1.0
 21
1.0
 12
437.20389232076
 22
330.7446033140952
 13
0.0
 23
0.0
 14
5.0
 24
5.0
 15
0.0
 25
0.0
 16
0.0
 26
0.0
 36
1.0
 17
0.0
 27
0.0
 37
0.0
 40
708.048047784704
 41
1.566326530612244
 42
50.0
 43
0.0
 44
0.0
 50
0.0
 51
0.0
 71
     0
 72
   100
 73
     1
 74
     0
 75
     0
 76
     0
 77
     0
 78
     0
  0
ENDTAB
  0
TABLE
  2
LTYPE
  5
5
330
0
100
AcDbSymbolTable
 70
     3
  0
LTYPE
  5
14
330
5
100
AcDbSymbolTableRecord
100
AcDbLinetypeTableRecord
  2
BYBLOCK
 70
     0
  3

 72
    65
 73
     0
 40
0.0
  0
LTYPE
  5
15
330
5
100
AcDbSymbolTableRecord
100
AcDbLinetypeTableRecord
  2
BYLAYER
 70
     0
  3

 72
    65
 73
     0
 40
0.0
  0
LTYPE
  5
16
330
5
100
AcDbSymbolTableRecord
100
AcDbLinetypeTableRecord
  2
CONTINUOUS
 70
     0
  3
Solid line
 72
    65
 73
     0
 40
0.0
  0
LTYPE
  5
135
330
5
100
AcDbSymbolTableRecord
100
AcDbLinetypeTableRecord
  2
CENTER
 70
     0
  3
____ _ ____ _ ____ _ ____ _ ____ _ ____ _ ____ 
 72
    65
 73
     4
 40
2.0
 49
1.25
 74
     0
 49
-0.25
 74
     0
 49
0.25
 74
     0
 49
-0.25
 74
     0
  0
LTYPE
  5
47FE
330
5
100
AcDbSymbolTableRecord
100
AcDbLinetypeTableRecord
  2
PHANTOM
 70
     0
  3
______  __  __  ______  __  __  ______  __  __ 
 72
    65
 73
     6
 40
2.5
 49
1.25
 74
     0
 49
-0.25
 74
     0
 49
0.25
 74
     0
 49
-0.25
 74
     0
 49
0.25
 74
     0
 49
-0.25
 74
     0
  0
ENDTAB
  0
TABLE
  2
LAYER
  5
2
330
0
100
AcDbSymbolTable
 70
     9
  0
LAYER
  5
F
330
2
100
AcDbSymbolTableRecord
100
AcDbLayerTableRecord
  2
0
 70
     0
 62
     7
  6
CONTINUOUS
  0
LAYER
  5
62
330
2
100
AcDbSymbolTableRecord
100
AcDbLayerTableRecord
  2
VIEWPORT
 70
     0
 62
     7
  6
CONTINUOUS
  0
LAYER
  5
65
330
2
100
AcDbSymbolTableRecord
100
AcDbLayerTableRecord
  2
ZUWAKU
 70
     0
 62
     7
  6
CONTINUOUS
  0
LAYER
  5
144
330
2
100
AcDbSymbolTableRecord
100
AcDbLayerTableRecord
  2
SEIHIN
 70
     0
 62
     3
  6
CONTINUOUS
  0
LAYER
  5
2B4
330
2
100
AcDbSymbolTableRecord
100
AcDbLayerTableRecord
  2
SUNPOU
 70
     0
 62
     4
  6
CONTINUOUS
  0
LAYER
  5
43A
330
2
100
AcDbSymbolTableRecord
100
AcDbLayerTableRecord
  2
DEFPOINTS
 70
     0
 62
     7
  6
CONTINUOUS
  0
LAYER
  5
47FF
330
2
100
AcDbSymbolTableRecord
100
AcDbLayerTableRecord
  2
NOKITOI
 70
     0
 62
     9
  6
PHANTOM
  0
LAYER
  5
51CF
330
2
100
AcDbSymbolTableRecord
100
AcDbLayerTableRecord
  2
MOJI
 70
     0
 62
     2
  6
CONTINUOUS
  0
LAYER
  5
540F
330
2
100
AcDbSymbolTableRecord
100
AcDbLayerTableRecord
  2
CENTER_L
 70
     0
 62
     1
  6
CENTER
  0
ENDTAB
  0
TABLE
  2
STYLE
  5
3
330
0
100
AcDbSymbolTable
 70
     2
  0
STYLE
  5
10
330
3
100
AcDbSymbolTableRecord
100
AcDbTextStyleTableRecord
  2
STANDARD
 70
     0
 40
0.0
 41
1.0
 50
0.0
 71
     0
 42
5.0
  3
TXT
  4
A:\Program Files\AutoCAD LT\ms\bigfont.shx
  0
STYLE
  5
51D0
330
3
100
AcDbSymbolTableRecord
100
AcDbTextStyleTableRecord
  2
ｽﾀｲﾙ1
 70
     0
 40
0.0
 41
1.0
 50
0.0
 71
     0
 42
2.5
  3
MS PGothic.ttf
  4

1001
ACAD
1000
MS PGothic
1071
    32818
  0
ENDTAB
  0
TABLE
  2
VIEW
  5
6
330
0
100
AcDbSymbolTable
 70
     0
  0
ENDTAB
  0
TABLE
  2
UCS
  5
7
330
0
100
AcDbSymbolTable
 70
     0
  0
ENDTAB
  0
TABLE
  2
APPID
  5
9
330
0
100
AcDbSymbolTable
 70
     1
  0
APPID
  5
11
330
9
100
AcDbSymbolTableRecord
100
AcDbRegAppTableRecord
  2
ACAD
 70
     0
  0
ENDTAB
  0
TABLE
  2
DIMSTYLE
  5
A
330
0
100
AcDbSymbolTable
 70
     1
  0
DIMSTYLE
105
1D
102
{ACAD_REACTORS
330
56C0
330
56C2
330
56C3
330
56C4
330
5746
330
57E0
330
57EA
330
5881
102
}
330
A
100
AcDbSymbolTableRecord
100
AcDbDimStyleTableRecord
  2
STANDARD
 70
     0
  3

  4

  5

  6

  7

 40
1.0
 41
0.18
 42
0.0625
 43
0.38
 44
0.18
 45
0.0
 46
0.0
 47
0.0
 48
0.0
140
0.18
141
0.09
142
0.0
143
25.4
144
1.0
145
0.0
146
1.0
147
0.09
 71
     0
 72
     0
 73
     1
 74
     1
 75
     0
 76
     0
 77
     0
 78
     0
170
     0
171
     2
172
     0
173
     0
174
     0
175
     0
176
     0
177
     0
178
     0
270
     2
271
     4
272
     4
273
     2
274
     2
340
10
275
     0
280
     0
281
     0
282
     0
283
     1
284
     0
285
     0
286
     0
287
     3
288
     0
  0
ENDTAB
  0
TABLE
  2
BLOCK_RECORD
  5
1
330
0
100
AcDbSymbolTable
 70
     9
  0
BLOCK_RECORD
  5
1A
102
{ACAD_XDICTIONARY
360
6C6
102
}
330
1
100
AcDbSymbolTableRecord
100
AcDbBlockTableRecord
  2
*MODEL_SPACE
  0
BLOCK_RECORD
  5
17
102
{ACAD_XDICTIONARY
360
6C4
102
}
330
1
100
AcDbSymbolTableRecord
100
AcDbBlockTableRecord
  2
*PAPER_SPACE
  0
BLOCK_RECORD
  5
6D
330
1
100
AcDbSymbolTableRecord
100
AcDbBlockTableRecord
  2
_OPEN
  0
BLOCK_RECORD
  5
596C
330
1
100
AcDbSymbolTableRecord
100
AcDbBlockTableRecord
  2
*D1
  0
BLOCK_RECORD
  5
5978
330
1
100
AcDbSymbolTableRecord
100
AcDbBlockTableRecord
  2
*D2
  0
BLOCK_RECORD
  5
5984
330
1
100
AcDbSymbolTableRecord
100
AcDbBlockTableRecord
  2
*D3
  0
BLOCK_RECORD
  5
5992
330
1
100
AcDbSymbolTableRecord
100
AcDbBlockTableRecord
  2
*D4
  0
BLOCK_RECORD
  5
599E
330
1
100
AcDbSymbolTableRecord
100
AcDbBlockTableRecord
  2
*D5
  0
BLOCK_RECORD
  5
59AA
330
1
100
AcDbSymbolTableRecord
100
AcDbBlockTableRecord
  2
*D6
  0
BLOCK_RECORD
  5
59B6
330
1
100
AcDbSymbolTableRecord
100
AcDbBlockTableRecord
  2
*D7
  0
BLOCK_RECORD
  5
59C2
330
1
100
AcDbSymbolTableRecord
100
AcDbBlockTableRecord
  2
*D8
  0
ENDTAB
  0
ENDSEC
  0
SECTION
  2
BLOCKS
  0
BLOCK
  5
1B
330
1A
100
AcDbEntity
  8
0
100
AcDbBlockBegin
  2
*MODEL_SPACE
 70
     0
 10
0.0
 20
0.0
 30
0.0
  3
*MODEL_SPACE
  1

  0
ENDBLK
  5
1C
330
1A
100
AcDbEntity
  8
0
100
AcDbBlockEnd
  0
BLOCK
  5
18
330
17
100
AcDbEntity
 67
     1
  8
0
100
AcDbBlockBegin
  2
*PAPER_SPACE
 70
     0
 10
0.0
 20
0.0
 30
0.0
  3
*PAPER_SPACE
  1

  0
ENDBLK
  5
19
330
17
100
AcDbEntity
 67
     1
  8
0
100
AcDbBlockEnd
  0
BLOCK
  5
6E
330
6D
100
AcDbEntity
  8
0
100
AcDbBlockBegin
  2
_OPEN
 70
     0
 10
0.0
 20
0.0
 30
0.0
  3
_OPEN
  1

  0
LINE
  5
6F
330
6D
100
AcDbEntity
  8
0
  6
BYBLOCK
 62
     0
100
AcDbLine
 10
-1.0
 20
0.1666666666666666
 30
0.0
 11
0.0
 21
0.0
 31
0.0
  0
LINE
  5
70
330
6D
100
AcDbEntity
  8
0
  6
BYBLOCK
 62
     0
100
AcDbLine
 10
0.0
 20
0.0
 30
0.0
 11
-1.0
 21
-0.1666666666666666
 31
0.0
  0
LINE
  5
71
330
6D
100
AcDbEntity
  8
0
  6
BYBLOCK
 62
     0
100
AcDbLine
 10
0.0
 20
0.0
 30
0.0
 11
-1.0
 21
0.0
 31
0.0
  0
ENDBLK
  5
72
330
6D
100
AcDbEntity
  8
0
100
AcDbBlockEnd
  0
BLOCK
  5
5976
330
596C
100
AcDbEntity
  8
0
100
AcDbBlockBegin
  2
*D1
 70
     1
 10
0.0
 20
0.0
 30
0.0
  3
*D1
  1

  0
LINE
  5
5A42
330
596C
100
AcDbEntity
  8
SUNPOU
100
AcDbLine
 10
414.1608540985063
 20
162.4097256456186
 30
0.0
 11
462.6383501753549
 21
162.4097256456186
 31
0.0
  0
LINE
  5
5A43
330
596C
100
AcDbEntity
  8
SUNPOU
100
AcDbLine
 10
363.4215908756118
 20
72.30973116796383
 30
0.0
 11
462.6383501753548
 21
72.30973116796381
 31
0.0
  0
LINE
  5
5A44
330
596C
100
AcDbEntity
  8
SUNPOU
100
AcDbLine
 10
459.6383501753549
 20
155.4097256456186
 30
0.0
 11
459.6383501753548
 21
79.30973116796382
 31
0.0
  0
INSERT
  5
5A45
330
596C
100
AcDbEntity
  8
SUNPOU
100
AcDbBlockReference
  2
_OPEN
 10
459.6383501753549
 20
162.4097256456186
 30
0.0
 41
7.0
 42
7.0
 43
7.0
 50
90.0
  0
INSERT
  5
5A46
330
596C
100
AcDbEntity
  8
SUNPOU
100
AcDbBlockReference
  2
_OPEN
 10
459.6383501753548
 20
72.30973116796381
 30
0.0
 41
7.0
 42
7.0
 43
7.0
 50
270.0
  0
MTEXT
  5
5A47
330
596C
100
AcDbEntity
  8
SUNPOU
100
AcDbMText
 10
454.6383501753548
 20
117.3597284067912
 30
0.0
 40
6.0
 41
0.0
 71
     5
 72
     1
  1
\A1;90
 11
0.0000000000000001
 21
1.0
 31
0.0
  0
POINT
  5
5A48
330
596C
100
AcDbEntity
  8
DEFPOINTS
 62
     0
100
AcDbPoint
 10
408.1608540985063
 20
162.4097256456186
 30
0.0
  0
POINT
  5
5A49
330
596C
100
AcDbEntity
  8
DEFPOINTS
 62
     0
100
AcDbPoint
 10
357.4215908756118
 20
72.30973116796383
 30
0.0
  0
POINT
  5
5A4A
330
596C
100
AcDbEntity
  8
DEFPOINTS
 62
     0
100
AcDbPoint
 10
459.6383501753548
 20
72.30973116796381
 30
0.0
  0
ENDBLK
  5
5977
330
596C
100
AcDbEntity
  8
0
100
AcDbBlockEnd
  0
BLOCK
  5
5982
330
5978
100
AcDbEntity
  8
0
100
AcDbBlockBegin
  2
*D2
 70
     1
 10
0.0
 20
0.0
 30
0.0
  3
*D2
  1

  0
LINE
  5
5A4B
330
5978
100
AcDbEntity
  8
SUNPOU
100
AcDbLine
 10
413.1608540985062
 20
163.4097256456186
 30
0.0
 11
413.1608540985062
 21
261.87225149758
 31
0.0
  0
LINE
  5
5A4C
330
5978
100
AcDbEntity
  8
SUNPOU
100
AcDbLine
 10
182.7610432252063
 20
220.6333089982188
 30
0.0
 11
182.7610432252063
 21
261.87225149758
 31
0.0
  0
LINE
  5
5A4D
330
5978
100
AcDbEntity
  8
SUNPOU
100
AcDbLine
 10
406.1608540985063
 20
258.8722514975799
 30
0.0
 11
189.7610432252063
 21
258.8722514975799
 31
0.0
  0
INSERT
  5
5A4E
330
5978
100
AcDbEntity
  8
SUNPOU
100
AcDbBlockReference
  2
_OPEN
 10
413.1608540985062
 20
258.8722514975799
 30
0.0
 41
7.0
 42
7.0
 43
7.0
  0
INSERT
  5
5A4F
330
5978
100
AcDbEntity
  8
SUNPOU
100
AcDbBlockReference
  2
_OPEN
 10
182.7610432252063
 20
258.8722514975799
 30
0.0
 41
7.0
 42
7.0
 43
7.0
 50
180.0
  0
MTEXT
  5
5A50
330
5978
100
AcDbEntity
  8
SUNPOU
100
AcDbMText
 10
297.9609486618563
 20
263.87225149758
 30
0.0
 40
6.0
 41
0.0
 71
     5
 72
     1
  1
\A1;230
  0
POINT
  5
5A51
330
5978
100
AcDbEntity
  8
DEFPOINTS
 62
     0
100
AcDbPoint
 10
413.1608540985062
 20
157.4097256456186
 30
0.0
  0
POINT
  5
5A52
330
5978
100
AcDbEntity
  8
DEFPOINTS
 62
     0
100
AcDbPoint
 10
182.7610432252063
 20
214.6333089982188
 30
0.0
  0
POINT
  5
5A53
330
5978
100
AcDbEntity
  8
DEFPOINTS
 62
     0
100
AcDbPoint
 10
182.7610432252063
 20
258.8722514975799
 30
0.0
  0
ENDBLK
  5
5983
330
5978
100
AcDbEntity
  8
0
100
AcDbBlockEnd
  0
BLOCK
  5
5990
330
5984
100
AcDbEntity
  8
0
100
AcDbBlockBegin
  2
*D3
 70
     1
 10
0.0
 20
0.0
 30
0.0
  3
*D3
  1

  0
LINE
  5
5A54
330
5984
100
AcDbEntity
  8
SUNPOU
100
AcDbLine
 10
176.7610432252063
 20
214.6333089982188
 30
0.0
 11
144.3825408018895
 21
214.6333089982188
 31
0.0
  0
LINE
  5
5A55
330
5984
100
AcDbEntity
  8
SUNPOU
100
AcDbLine
 10
195.0934511467063
 20
187.8097256456187
 30
0.0
 11
144.3825408018895
 21
187.8097256456188
 31
0.0
  0
LINE
  5
5A56
330
5984
100
AcDbEntity
  8
SUNPOU
100
AcDbLine
 10
147.3825408018895
 20
221.6333089982188
 30
0.0
 11
147.3825408018895
 21
228.6333089982188
 31
0.0
  0
LINE
  5
5A57
330
5984
100
AcDbEntity
  8
SUNPOU
100
AcDbLine
 10
147.3825408018894
 20
180.8097256456187
 30
0.0
 11
147.3825408018894
 21
173.8097256456187
 31
0.0
  0
LINE
  5
5A58
330
5984
100
AcDbEntity
  8
SUNPOU
100
AcDbLine
 10
147.3825408018895
 20
214.6333089982188
 30
0.0
 11
147.3825408018894
 21
187.8097256456188
 31
0.0
  0
INSERT
  5
5A59
330
5984
100
AcDbEntity
  8
SUNPOU
100
AcDbBlockReference
  2
_OPEN
 10
147.3825408018895
 20
214.6333089982188
 30
0.0
 41
7.0
 42
7.0
 43
7.0
 50
270.0
  0
INSERT
  5
5A5A
330
5984
100
AcDbEntity
  8
SUNPOU
100
AcDbBlockReference
  2
_OPEN
 10
147.3825408018894
 20
187.8097256456188
 30
0.0
 41
7.0
 42
7.0
 43
7.0
 50
90.0
  0
MTEXT
  5
5A5B
330
5984
100
AcDbEntity
  8
SUNPOU
100
AcDbMText
 10
142.3825408018894
 20
201.0558047388743
 30
0.0
 40
6.0
 41
0.0
 71
     5
 72
     1
  1
\A1;27
 11
0.0000000000000001
 21
1.0
 31
0.0
  0
POINT
  5
5A5C
330
5984
100
AcDbEntity
  8
DEFPOINTS
 62
     0
100
AcDbPoint
 10
182.7610432252063
 20
214.6333089982188
 30
0.0
  0
POINT
  5
5A5D
330
5984
100
AcDbEntity
  8
DEFPOINTS
 62
     0
100
AcDbPoint
 10
201.0934511467063
 20
187.8097256456187
 30
0.0
  0
POINT
  5
5A5E
330
5984
100
AcDbEntity
  8
DEFPOINTS
 62
     0
100
AcDbPoint
 10
147.3825408018894
 20
187.8097256456188
 30
0.0
  0
ENDBLK
  5
5991
330
5984
100
AcDbEntity
  8
0
100
AcDbBlockEnd
  0
BLOCK
  5
599C
330
5992
100
AcDbEntity
  8
0
100
AcDbBlockBegin
  2
*D4
 70
     1
 10
0.0
 20
0.0
 30
0.0
  3
*D4
  1

  0
LINE
  5
5A5F
330
5992
100
AcDbEntity
  8
SUNPOU
100
AcDbLine
 10
176.7610432252063
 20
214.6333089982188
 30
0.0
 11
126.8790368626226
 21
214.6333089982188
 31
0.0
  0
LINE
  5
5A60
330
5992
100
AcDbEntity
  8
SUNPOU
100
AcDbLine
 10
351.3163553750253
 20
72.30972564562434
 30
0.0
 11
126.8790368626225
 21
72.30972564562439
 31
0.0
  0
LINE
  5
5A61
330
5992
100
AcDbEntity
  8
SUNPOU
100
AcDbLine
 10
129.8790368626226
 20
207.6333089982187
 30
0.0
 11
129.8790368626226
 21
79.3097256456244
 31
0.0
  0
INSERT
  5
5A62
330
5992
100
AcDbEntity
  8
SUNPOU
100
AcDbBlockReference
  2
_OPEN
 10
129.8790368626226
 20
214.6333089982188
 30
0.0
 41
7.0
 42
7.0
 43
7.0
 50
90.0
  0
INSERT
  5
5A63
330
5992
100
AcDbEntity
  8
SUNPOU
100
AcDbBlockReference
  2
_OPEN
 10
129.8790368626226
 20
72.30972564562439
 30
0.0
 41
7.0
 42
7.0
 43
7.0
 50
270.0
  0
MTEXT
  5
5A64
330
5992
100
AcDbEntity
  8
SUNPOU
100
AcDbMText
 10
124.8790368626225
 20
143.2543555590244
 30
0.0
 40
6.0
 41
0.0
 71
     5
 72
     1
  1
\A1;142
 11
0.0000000000000001
 21
1.0
 31
0.0
  0
POINT
  5
5A65
330
5992
100
AcDbEntity
  8
DEFPOINTS
 62
     0
100
AcDbPoint
 10
182.7610432252063
 20
214.6333089982188
 30
0.0
  0
POINT
  5
5A66
330
5992
100
AcDbEntity
  8
DEFPOINTS
 62
     0
100
AcDbPoint
 10
357.3163553750252
 20
72.30972564562432
 30
0.0
  0
POINT
  5
5A67
330
5992
100
AcDbEntity
  8
DEFPOINTS
 62
     0
100
AcDbPoint
 10
129.8790368626226
 20
72.30972564562439
 30
0.0
  0
ENDBLK
  5
599D
330
5992
100
AcDbEntity
  8
0
100
AcDbBlockEnd
  0
BLOCK
  5
59A8
330
599E
100
AcDbEntity
  8
0
100
AcDbBlockBegin
  2
*D5
 70
     1
 10
0.0
 20
0.0
 30
0.0
  3
*D5
  1

  0
LINE
  5
5A68
330
599E
100
AcDbEntity
  8
SUNPOU
100
AcDbLine
 10
252.7610432252063
 20
218.7689370380187
 30
0.0
 11
252.7610432252063
 21
244.9824544355078
 31
0.0
  0
LINE
  5
5A69
330
599E
100
AcDbEntity
  8
SUNPOU
100
AcDbLine
 10
413.1608540985062
 20
163.4097256456186
 30
0.0
 11
413.1608540985062
 21
244.9824544355078
 31
0.0
  0
LINE
  5
5A6A
330
599E
100
AcDbEntity
  8
SUNPOU
100
AcDbLine
 10
259.7610432252063
 20
241.9824544355078
 30
0.0
 11
406.1608540985063
 21
241.9824544355078
 31
0.0
  0
INSERT
  5
5A6B
330
599E
100
AcDbEntity
  8
SUNPOU
100
AcDbBlockReference
  2
_OPEN
 10
252.7610432252063
 20
241.9824544355078
 30
0.0
 41
7.0
 42
7.0
 43
7.0
 50
180.0
  0
INSERT
  5
5A6C
330
599E
100
AcDbEntity
  8
SUNPOU
100
AcDbBlockReference
  2
_OPEN
 10
413.1608540985062
 20
241.9824544355078
 30
0.0
 41
7.0
 42
7.0
 43
7.0
  0
MTEXT
  5
5A6D
330
599E
100
AcDbEntity
  8
SUNPOU
100
AcDbMText
 10
332.9609486618563
 20
246.9824544355078
 30
0.0
 40
6.0
 41
0.0
 71
     5
 72
     1
  1
\A1;160
  0
POINT
  5
5A6E
330
599E
100
AcDbEntity
  8
DEFPOINTS
 62
     0
100
AcDbPoint
 10
252.7610432252063
 20
212.7689370380187
 30
0.0
  0
POINT
  5
5A6F
330
599E
100
AcDbEntity
  8
DEFPOINTS
 62
     0
100
AcDbPoint
 10
413.1608540985062
 20
157.4097256456186
 30
0.0
  0
POINT
  5
5A70
330
599E
100
AcDbEntity
  8
DEFPOINTS
 62
     0
100
AcDbPoint
 10
413.1608540985062
 20
241.9824544355078
 30
0.0
  0
ENDBLK
  5
59A9
330
599E
100
AcDbEntity
  8
0
100
AcDbBlockEnd
  0
BLOCK
  5
59B4
330
59AA
100
AcDbEntity
  8
0
100
AcDbBlockBegin
  2
*D6
 70
     1
 10
0.0
 20
0.0
 30
0.0
  3
*D6
  1

  0
LINE
  5
5A71
330
59AA
100
AcDbEntity
  8
SUNPOU
100
AcDbLine
 10
192.5945737760061
 20
513.0989685956903
 30
0.0
 11
126.8790368626226
 21
513.0989685956903
 31
0.0
  0
LINE
  5
5A72
330
59AA
100
AcDbEntity
  8
SUNPOU
100
AcDbLine
 10
247.2715479964061
 20
282.7304151633402
 30
0.0
 11
126.8790368626226
 21
282.7304151633402
 31
0.0
  0
LINE
  5
5A73
330
59AA
100
AcDbEntity
  8
SUNPOU
100
AcDbLine
 10
129.8790368626226
 20
506.0989685956902
 30
0.0
 11
129.8790368626226
 21
289.7304151633401
 31
0.0
  0
INSERT
  5
5A74
330
59AA
100
AcDbEntity
  8
SUNPOU
100
AcDbBlockReference
  2
_OPEN
 10
129.8790368626226
 20
513.0989685956903
 30
0.0
 41
7.0
 42
7.0
 43
7.0
 50
90.0
  0
INSERT
  5
5A75
330
59AA
100
AcDbEntity
  8
SUNPOU
100
AcDbBlockReference
  2
_OPEN
 10
129.8790368626226
 20
282.7304151633402
 30
0.0
 41
7.0
 42
7.0
 43
7.0
 50
270.0
  0
MTEXT
  5
5A76
330
59AA
100
AcDbEntity
  8
SUNPOU
100
AcDbMText
 10
124.8790368626226
 20
397.9146918795152
 30
0.0
 40
6.0
 41
0.0
 71
     5
 72
     1
  1
\A1;230
 11
0.0000000000000001
 21
1.0
 31
0.0
  0
POINT
  5
5A77
330
59AA
100
AcDbEntity
  8
DEFPOINTS
 62
     0
100
AcDbPoint
 10
198.5945737760062
 20
513.0989685956903
 30
0.0
  0
POINT
  5
5A78
330
59AA
100
AcDbEntity
  8
DEFPOINTS
 62
     0
100
AcDbPoint
 10
253.2715479964061
 20
282.7304151633402
 30
0.0
  0
POINT
  5
5A79
330
59AA
100
AcDbEntity
  8
DEFPOINTS
 62
     0
100
AcDbPoint
 10
129.8790368626226
 20
282.7304151633402
 30
0.0
  0
ENDBLK
  5
59B5
330
59AA
100
AcDbEntity
  8
0
100
AcDbBlockEnd
  0
BLOCK
  5
59C0
330
59B6
100
AcDbEntity
  8
0
100
AcDbBlockBegin
  2
*D7
 70
     1
 10
0.0
 20
0.0
 30
0.0
  3
*D7
  1

  0
LINE
  5
5A7A
330
59B6
100
AcDbEntity
  8
SUNPOU
100
AcDbLine
 10
247.2715479964061
 20
282.7304151633402
 30
0.0
 11
144.3825408018895
 21
282.7304151633402
 31
0.0
  0
LINE
  5
5A7B
330
59B6
100
AcDbEntity
  8
SUNPOU
100
AcDbLine
 10
195.0934511467064
 20
352.7304151633402
 30
0.0
 11
144.3825408018895
 21
352.7304151633402
 31
0.0
  0
LINE
  5
5A7C
330
59B6
100
AcDbEntity
  8
SUNPOU
100
AcDbLine
 10
147.3825408018894
 20
289.7304151633401
 30
0.0
 11
147.3825408018895
 21
345.7304151633402
 31
0.0
  0
INSERT
  5
5A7D
330
59B6
100
AcDbEntity
  8
SUNPOU
100
AcDbBlockReference
  2
_OPEN
 10
147.3825408018894
 20
282.7304151633402
 30
0.0
 41
7.0
 42
7.0
 43
7.0
 50
270.0
  0
INSERT
  5
5A7E
330
59B6
100
AcDbEntity
  8
SUNPOU
100
AcDbBlockReference
  2
_OPEN
 10
147.3825408018895
 20
352.7304151633402
 30
0.0
 41
7.0
 42
7.0
 43
7.0
 50
90.0
  0
MTEXT
  5
5A7F
330
59B6
100
AcDbEntity
  8
SUNPOU
100
AcDbMText
 10
142.3825408018894
 20
317.7304151633402
 30
0.0
 40
6.0
 41
0.0
 71
     5
 72
     1
  1
\A1;70
 11
0.0000000000000001
 21
1.0
 31
0.0
  0
POINT
  5
5A80
330
59B6
100
AcDbEntity
  8
DEFPOINTS
 62
     0
100
AcDbPoint
 10
253.2715479964061
 20
282.7304151633402
 30
0.0
  0
POINT
  5
5A81
330
59B6
100
AcDbEntity
  8
DEFPOINTS
 62
     0
100
AcDbPoint
 10
201.0934511467064
 20
352.7304151633402
 30
0.0
  0
POINT
  5
5A82
330
59B6
100
AcDbEntity
  8
DEFPOINTS
 62
     0
100
AcDbPoint
 10
147.3825408018895
 20
352.7304151633402
 30
0.0
  0
ENDBLK
  5
59C1
330
59B6
100
AcDbEntity
  8
0
100
AcDbBlockEnd
  0
BLOCK
  5
59CC
330
59C2
100
AcDbEntity
  8
0
100
AcDbBlockBegin
  2
*D8
 70
     1
 10
0.0
 20
0.0
 30
0.0
  3
*D8
  1

  0
LINE
  5
5A83
330
59C2
100
AcDbEntity
  8
SUNPOU
100
AcDbLine
 10
415.4582089759063
 20
329.2304151633402
 30
0.0
 11
445.5491630806814
 21
329.2304151633402
 31
0.0
  0
LINE
  5
5A84
330
59C2
100
AcDbEntity
  8
SUNPOU
100
AcDbLine
 10
418.6603539464061
 20
282.73041516334
 30
0.0
 11
445.5491630806814
 21
282.73041516334
 31
0.0
  0
LINE
  5
5A85
330
59C2
100
AcDbEntity
  8
SUNPOU
100
AcDbLine
 10
442.5491630806813
 20
322.2304151633403
 30
0.0
 11
442.5491630806813
 21
289.73041516334
 31
0.0
  0
INSERT
  5
5A86
330
59C2
100
AcDbEntity
  8
SUNPOU
100
AcDbBlockReference
  2
_OPEN
 10
442.5491630806813
 20
329.2304151633402
 30
0.0
 41
7.0
 42
7.0
 43
7.0
 50
90.0
  0
INSERT
  5
5A87
330
59C2
100
AcDbEntity
  8
SUNPOU
100
AcDbBlockReference
  2
_OPEN
 10
442.5491630806813
 20
282.73041516334
 30
0.0
 41
7.0
 42
7.0
 43
7.0
 50
270.0
  0
MTEXT
  5
5A88
330
59C2
100
AcDbEntity
  8
SUNPOU
100
AcDbMText
 10
437.5491630806813
 20
305.9804151633402
 30
0.0
 40
6.0
 41
0.0
 71
     5
 72
     1
  1
\A1;\U+203B47
 11
0.0000000000000001
 21
1.0
 31
0.0
  0
POINT
  5
5A89
330
59C2
100
AcDbEntity
  8
DEFPOINTS
 62
     0
100
AcDbPoint
 10
409.4582089759063
 20
329.2304151633402
 30
0.0
  0
POINT
  5
5A8A
330
59C2
100
AcDbEntity
  8
DEFPOINTS
 62
     0
100
AcDbPoint
 10
412.6603539464062
 20
282.73041516334
 30
0.0
  0
POINT
  5
5A8B
330
59C2
100
AcDbEntity
  8
DEFPOINTS
 62
     0
100
AcDbPoint
 10
442.5491630806813
 20
282.73041516334
 30
0.0
  0
ENDBLK
  5
59CD
330
59C2
100
AcDbEntity
  8
0
100
AcDbBlockEnd
  0
ENDSEC
  0
SECTION
  2
ENTITIES
  0
TEXT
  5
4F7
330
1A
100
AcDbEntity
  8
SUNPOU
 62
     4
100
AcDbText
 10
683.0721434841443
 20
36.11754564219644
 30
0.0
 40
6.0
  1
※　のきといの差込み寸法を示す
100
AcDbText
  0
LINE
  5
52E5
330
1A
100
AcDbEntity
  8
ZUWAKU
100
AcDbLine
 10
208.646601303624
 20
15.19999986828872
 30
0.0
 11
447.4243639845474
 21
15.19999986828871
 31
0.0
  0
LINE
  5
52E6
330
1A
100
AcDbEntity
  8
ZUWAKU
100
AcDbLine
 10
208.646601303624
 20
15.59999986828871
 30
0.0
 11
447.4243639845474
 21
15.59999986828872
 31
0.0
  0
LINE
  5
52E7
330
1A
100
AcDbEntity
  8
ZUWAKU
100
AcDbLine
 10
208.646601303624
 20
15.39999986828871
 30
0.0
 11
447.4243639845474
 21
15.39999986828871
 31
0.0
  0
LINE
  5
52E8
330
1A
100
AcDbEntity
  8
ZUWAKU
100
AcDbLine
 10
0.0000000135560185
 20
30.79999986828869
 30
0.0
 11
797.4000000135559
 21
30.79999986828869
 31
0.0
  0
LINE
  5
52E9
330
1A
100
AcDbEntity
  8
ZUWAKU
100
AcDbLine
 10
0.0000000135560185
 20
30.59999986828869
 30
0.0
 11
797.4000000135559
 21
30.59999986828869
 31
0.0
  0
LINE
  5
52EA
330
1A
100
AcDbEntity
  8
ZUWAKU
100
AcDbLine
 10
0.0000000135560185
 20
30.39999986828869
 30
0.0
 11
797.4000000135559
 21
30.39999986828869
 31
0.0
  0
LINE
  5
52EB
330
1A
100
AcDbEntity
  8
ZUWAKU
100
AcDbLine
 10
0.0000000135560185
 20
30.19999986828868
 30
0.0
 11
797.4000000135559
 21
30.19999986828868
 31
0.0
  0
LINE
  5
52EC
330
1A
100
AcDbEntity
  8
ZUWAKU
100
AcDbLine
 10
0.0000000135560185
 20
29.99999986828868
 30
0.0
 11
797.4000000135559
 21
29.99999986828868
 31
0.0
  0
LWPOLYLINE
  5
52ED
330
1A
100
AcDbEntity
  8
ZUWAKU
100
AcDbPolyline
 90
        4
 70
     1
 43
0.0
 10
0.2000000135559503
 20
551.3999998682887
 10
0.2000000135559503
 20
0.1999998682887281
 10
797.4000000135559
 20
0.1999998682887511
 10
797.4000000135561
 20
551.3999998682887
  0
LWPOLYLINE
  5
52EE
330
1A
100
AcDbEntity
  8
ZUWAKU
100
AcDbPolyline
 90
        4
 70
     1
 43
0.0
 10
0.6000000135559276
 20
550.9999998682888
 10
0.6000000135559276
 20
0.5999998682887054
 10
797.0000000135562
 20
0.5999998682887516
 10
797.000000013556
 20
550.9999998682888
  0
LWPOLYLINE
  5
52EF
330
1A
100
AcDbEntity
  8
ZUWAKU
100
AcDbPolyline
 90
        4
 70
     1
 43
0.0
 10
0.0000000135560185
 20
551.5999998682887
 10
0.0000000135560185
 20
-0.0000001317113174
 10
797.6000000135561
 20
-0.0000001317112499
 10
797.6000000135561
 20
551.5999998682888
  0
LWPOLYLINE
  5
52F0
330
1A
100
AcDbEntity
  8
ZUWAKU
100
AcDbPolyline
 90
        4
 70
     1
 43
0.0
 10
0.4000000135559958
 20
551.1999998682887
 10
0.4000000135559958
 20
0.3999998682887735
 10
797.200000013556
 20
0.3999998682887504
 10
797.200000013556
 20
551.1999998682887
  0
LWPOLYLINE
  5
52F1
330
1A
100
AcDbEntity
  8
ZUWAKU
100
AcDbPolyline
 90
        4
 70
     1
 43
0.0
 10
0.800000013555973
 20
550.7999998682887
 10
0.800000013555973
 20
0.7999998682887508
 10
796.8000000135559
 20
0.7999998682887508
 10
796.8000000135559
 20
550.7999998682887
  0
TEXT
  5
52F2
330
1A
100
AcDbEntity
  8
MOJI
100
AcDbText
 10
92.95778960172516
 20
12.74117799856344
 30
0.0
 40
6.0
  1
アートフェイスＶＭ１６０
 41
0.9
  7
ｽﾀｲﾙ1
100
AcDbText
  0
HATCH
  5
52F3
330
1A
100
AcDbEntity
  8
ZUWAKU
100
AcDbHatch
 10
0.0
 20
0.0
 30
0.0
210
0.0
220
0.0
230
1.0
  2
ANSI37
 70
     0
 71
     0
 91
        8
 92
        7
 72
     1
 73
     1
 93
       24
 10
14.50226267467587
 20
17.64484834927226
 42
-0.1989123673796348
 10
14.09221216833714
 20
18.63479784293331
 42
0.0
 10
14.09221216833714
 20
19.92499986828869
 42
-0.4142135623730912
 10
14.61721216833711
 20
20.44999986828868
 42
0.0
 10
17.59221216833702
 20
20.44999986828868
 42
0.4142135623731546
 10
18.11721216833712
 20
20.97499986828867
 42
0.0
 10
18.11721216833712
 20
22.72499986828869
 42
0.4142135623731586
 10
17.59221216833702
 20
23.24999986828868
 42
0.0
 10
14.09221216833714
 20
23.24999986828868
 42
0.4142135623730928
 10
11.29221216833718
 20
20.44999986828871
 42
0.0
 10
11.29221216833718
 20
18.63479784293344
 42
0.1989123673796619
 10
12.52236368735361
 20
15.66494936194983
 42
0.0
 10
15.43216166199829
 20
12.75515138730518
 42
-0.1989123673796613
 10
15.84221216833714
 20
11.76520189364399
 42
0.0
 10
15.84221216833714
 20
10.47499986828867
 42
-0.4142135623730911
 10
15.31721216833716
 20
9.949999868288685
 42
0.0
 10
12.34221216833725
 20
9.949999868288685
 42
0.4142135623731526
 10
11.81721216833716
 20
9.424999868288697
 42
0.0
 10
11.81721216833716
 20
7.674999868288676
 42
0.4142135623731526
 10
12.34221216833725
 20
7.149999868288688
 42
0.0
 10
15.84221216833714
 20
7.149999868288688
 42
0.4142135623731044
 10
18.64221216833721
 20
9.949999868288664
 42
0.0
 10
18.64221216833721
 20
11.76520189364393
 42
0.1989123673796604
 10
17.41206064932066
 20
14.73505037462747
 42
0.0
 97
        0
 92
        7
 72
     1
 73
     1
 93
       16
 10
23.54221216833718
 20
19.04999986828869
 42
-0.4142135623730935
 10
24.94221216833716
 20
20.44999986828868
 42
0.0
 10
26.86721216833712
 20
20.44999986828868
 42
0.4142135623731546
 10
27.39221216833721
 20
20.97499986828867
 42
0.0
 10
27.39221216833721
 20
22.72499986828869
 42
0.4142135623730951
 10
26.86721216833723
 20
23.24999986828868
 42
0.0
 10
24.94221216833705
 20
23.24999986828864
 42
0.4142135623730892
 10
20.74221216833711
 20
19.04999986828862
 42
0.0
 10
20.74221216833711
 20
11.34999986828871
 42
0.4142135623730969
 10
24.94221216833716
 20
7.149999868288688
 42
0.0
 10
26.86721216833712
 20
7.149999868288688
 42
0.4142135623731526
 10
27.39221216833721
 20
7.674999868288676
 42
0.0
 10
27.39221216833721
 20
9.424999868288697
 42
0.4142135623730891
 10
26.86721216833723
 20
9.949999868288685
 42
0.0
 10
24.94221216833716
 20
9.949999868288685
 42
-0.4142135623730928
 10
23.54221216833718
 20
11.34999986828867
 42
0.0
 97
        0
 92
        7
 72
     1
 73
     1
 93
        2
 10
24.24221216833712
 20
15.19999986828868
 42
1.0
 10
27.74221216833712
 20
15.19999986828868
 42
1.0
 97
        0
 92
        7
 72
     1
 73
     1
 93
       26
 10
37.31485865051513
 20
19.20504706185211
 42
0.0
 10
38.37649828365295
 20
22.5669059001217
 42
0.5069206636600134
 10
37.87586738445759
 20
23.24999986828868
 42
0.0
 10
36.17697800484836
 20
23.24999986828868
 42
0.3272098845218764
 10
35.676347105653
 20
22.88309383645565
 42
0.0
 10
33.80807723102122
 20
16.96690590012176
 42
-0.3272098845219541
 10
33.30744633182575
 20
16.59999986828868
 42
0.0
 10
33.1672121683373
 20
16.59999986828868
 42
-0.4142135623731526
 10
32.64221216833721
 20
17.12499986828867
 42
0.0
 10
32.64221216833721
 20
22.72499986828869
 42
0.4142135623730951
 10
32.11721216833723
 20
23.24999986828868
 42
0.0
 10
30.36721216833711
 20
23.24999986828868
 42
0.4142135623730871
 10
29.84221216833714
 20
22.7249998682887
 42
0.0
 10
29.84221216833714
 20
7.674999868288676
 42
0.4142135623730891
 10
30.36721216833711
 20
7.149999868288688
 42
0.0
 10
32.11721216833712
 20
7.149999868288688
 42
0.4142135623731526
 10
32.64221216833721
 20
7.674999868288676
 42
0.0
 10
32.64221216833721
 20
13.27499986828869
 42
-0.4142135623731526
 10
33.1672121683373
 20
13.79999986828868
 42
0.0
 10
33.30744633182587
 20
13.79999986828868
 42
-0.3272098845218915
 10
33.80807723102122
 20
13.43309383645561
 42
0.0
 10
35.676347105653
 20
7.516905900121759
 42
0.3272098845218902
 10
36.17697800484836
 20
7.149999868288688
 42
0.0
 10
37.87586738445759
 20
7.149999868288688
 42
0.5069206636600335
 10
38.37649828365295
 20
7.833093836455695
 42
0.0
 10
36.05010690517929
 20
15.19999986828882
 42
0.0
 97
        0
 92
        7
 72
     1
 73
     1
 93
        8
 10
43.49221216833711
 20
22.7249998682887
 42
0.4142135623731546
 10
42.96721216833702
 20
23.24999986828868
 42
0.0
 10
41.21721216833726
 20
23.24999986828868
 42
0.4142135623731507
 10
40.69221216833716
 20
22.7249998682887
 42
0.0
 10
40.69221216833716
 20
7.674999868288676
 42
0.4142135623731526
 10
41.21721216833726
 20
7.149999868288688
 42
0.0
 10
42.96721216833702
 20
7.149999868288688
 42
0.4142135623731526
 10
43.49221216833711
 20
7.674999868288676
 42
0.0
 97
        0
 92
        7
 72
     1
 73
     1
 93
       24
 10
48.3922121683372
 20
19.92499986828869
 42
-0.4142135623731546
 10
48.9172121683373
 20
20.44999986828868
 42
0.0
 10
51.89221216833721
 20
20.44999986828868
 42
0.4142135623730911
 10
52.41721216833719
 20
20.97499986828867
 42
0.0
 10
52.41721216833719
 20
22.72499986828869
 42
0.4142135623730952
 10
51.89221216833721
 20
23.24999986828868
 42
0.0
 10
48.3922121683372
 20
23.24999986828868
 42
0.4142135623731048
 10
45.59221216833714
 20
20.44999986828871
 42
0.0
 10
45.59221216833714
 20
18.63479784293344
 42
0.1989123673796613
 10
46.82236368735368
 20
15.66494936194989
 42
0.0
 10
49.73216166199836
 20
12.75515138730522
 42
-0.1989123673796402
 10
50.14221216833721
 20
11.76520189364415
 42
0.0
 10
50.14221216833721
 20
10.47499986828867
 42
-0.4142135623730911
 10
49.61721216833723
 20
9.949999868288685
 42
0.0
 10
46.64221216833721
 20
9.949999868288685
 42
0.4142135623731526
 10
46.11721216833712
 20
9.424999868288697
 42
0.0
 10
46.11721216833712
 20
7.674999868288676
 42
0.4142135623730891
 10
46.64221216833709
 20
7.149999868288688
 42
0.0
 10
50.14221216833721
 20
7.149999868288688
 42
0.4142135623730925
 10
52.94221216833716
 20
9.949999868288664
 42
0.0
 10
52.94221216833716
 20
11.76520189364393
 42
0.1989123673796675
 10
51.71206064932062
 20
14.73505037462759
 42
0.0
 10
48.80226267467605
 20
17.6448483492721
 42
-0.1989123673796652
 10
48.3922121683372
 20
18.63479784293327
 42
0.0
 97
        0
 92
        7
 72
     1
 73
     1
 93
       16
 10
57.84221216833714
 20
22.72499986828867
 42
0.414213562373103
 10
57.31721216833716
 20
23.24999986828868
 42
0.0
 10
55.56721216833716
 20
23.24999986828868
 42
0.4142135623730871
 10
55.04221216833719
 20
22.7249998682887
 42
0.0
 10
55.04221216833719
 20
9.949999868288664
 42
0.4142135623730926
 10
57.84221216833714
 20
7.149999868288688
 42
0.0
 10
61.34221216833714
 20
7.149999868288688
 42
0.4142135623731044
 10
64.14221216833721
 20
9.949999868288664
 42
0.0
 10
64.14221216833721
 20
22.72499986828869
 42
0.4142135623730951
 10
63.61721216833723
 20
23.24999986828868
 42
0.0
 10
61.86721216833712
 20
23.24999986828868
 42
0.4142135623730871
 10
61.34221216833714
 20
22.7249998682887
 42
0.0
 10
61.34221216833714
 20
10.99999986828866
 42
-0.414213562373088
 10
60.29221216833718
 20
9.949999868288685
 42
0.0
 10
58.89221216833721
 20
9.949999868288685
 42
-0.4142135623731197
 10
57.84221216833714
 20
10.99999986828866
 42
0.0
 97
        0
 92
        7
 72
     1
 73
     1
 93
        8
 10
69.04221216833718
 20
22.7249998682887
 42
0.4142135623730871
 10
68.51721216833721
 20
23.24999986828868
 42
0.0
 10
66.76721216833721
 20
23.24999986828868
 42
0.4142135623731507
 10
66.24221216833712
 20
22.7249998682887
 42
0.0
 10
66.24221216833712
 20
7.674999868288676
 42
0.4142135623730891
 10
66.76721216833709
 20
7.149999868288688
 42
0.0
 10
68.51721216833721
 20
7.149999868288688
 42
0.4142135623730891
 10
69.04221216833718
 20
7.674999868288676
 42
0.0
 97
        0
 75
     0
 76
     1
 52
0.0
 41
0.2
 77
     0
 78
     2
 53
45.0
 43
-900.942304321123
 44
-13.20000013171124
 45
-0.4490128060534576
 46
0.4490128060534577
 79
     0
 53
135.0
 43
-900.942304321123
 44
-13.20000013171124
 45
-0.4490128060534577
 46
-0.4490128060534576
 79
     0
 47
0.057451373970553
 98
        8
 10
16.07985497657932
 20
15.16717351417423
 10
22.40451501999519
 20
18.84406205073969
 10
25.16436789921567
 20
15.5118815143594
 10
30.91405999519315
 20
16.20129751473018
 10
41.83847203251275
 20
16.6609097822718
 10
46.89820090868557
 20
19.41857618469589
 10
56.55768598595637
 20
18.72915778338369
 10
67.82707963317875
 20
19.18877005092531
  0
LINE
  5
52F4
330
1A
100
AcDbEntity
  8
ZUWAKU
100
AcDbLine
 10
24.94221216833716
 20
23.24999986828864
 30
0.0
 11
26.86721216833712
 21
23.24999986828868
 31
0.0
  0
LINE
  5
52F5
330
1A
100
AcDbEntity
  8
ZUWAKU
100
AcDbLine
 10
26.86721216833712
 20
20.44999986828868
 30
0.0
 11
24.94221216833716
 21
20.44999986828868
 31
0.0
  0
LINE
  5
52F6
330
1A
100
AcDbEntity
  8
ZUWAKU
100
AcDbLine
 10
24.94221216833716
 20
9.949999868288685
 30
0.0
 11
26.86721216833712
 21
9.949999868288685
 31
0.0
  0
LINE
  5
52F7
330
1A
100
AcDbEntity
  8
ZUWAKU
100
AcDbLine
 10
26.86721216833712
 20
7.149999868288688
 30
0.0
 11
24.94221216833716
 21
7.149999868288688
 31
0.0
  0
CIRCLE
  5
52F8
330
1A
100
AcDbEntity
  8
ZUWAKU
100
AcDbCircle
 10
25.99221216833711
 20
15.19999986828868
 30
0.0
 40
1.75
  0
ARC
  5
52F9
330
1A
100
AcDbEntity
  8
ZUWAKU
100
AcDbCircle
 10
15.49221216833712
 20
18.63479784293338
 30
0.0
 40
1.399999999999999
100
AcDbArc
 50
180.0000000000016
 51
224.9999999999988
  0
LINE
  5
52FA
330
1A
100
AcDbEntity
  8
ZUWAKU
100
AcDbLine
 10
23.54221216833718
 20
19.04999986828868
 30
0.0
 11
23.54221216833718
 21
11.34999986828869
 31
0.0
  0
LINE
  5
52FB
330
1A
100
AcDbEntity
  8
ZUWAKU
100
AcDbLine
 10
20.74221216833711
 20
11.34999986828869
 30
0.0
 11
20.74221216833711
 21
19.04999986828864
 31
0.0
  0
ARC
  5
52FC
330
1A
100
AcDbEntity
  8
ZUWAKU
100
AcDbCircle
 10
15.49221216833712
 20
18.63479784293338
 30
0.0
 40
4.199999999999999
100
AcDbArc
 50
180.0
 51
225.0
  0
ARC
  5
52FD
330
1A
100
AcDbEntity
  8
ZUWAKU
100
AcDbCircle
 10
15.84221216833714
 20
9.949999868288685
 30
0.0
 40
2.799999999999999
100
AcDbArc
 50
270.0
 51
0.0
  0
ARC
  5
52FE
330
1A
100
AcDbEntity
  8
ZUWAKU
100
AcDbCircle
 10
24.94221216833716
 20
11.34999986828869
 30
0.0
 40
4.199999999999999
100
AcDbArc
 50
180.0
 51
270.0
  0
ARC
  5
52FF
330
1A
100
AcDbEntity
  8
ZUWAKU
100
AcDbCircle
 10
14.44221216833716
 20
11.76520189364399
 30
0.0
 40
4.199999999999999
100
AcDbArc
 50
0.0
 51
45.0
  0
LINE
  5
5300
330
1A
100
AcDbEntity
  8
ZUWAKU
100
AcDbLine
 10
17.41206064932066
 20
14.73505037462751
 30
0.0
 11
14.50226267467598
 21
17.64484834927218
 31
0.0
  0
LINE
  5
5301
330
1A
100
AcDbEntity
  8
ZUWAKU
100
AcDbLine
 10
15.84221216833714
 20
10.47499986828869
 30
0.0
 11
15.84221216833714
 21
11.76520189364403
 31
0.0
  0
ARC
  5
5302
330
1A
100
AcDbEntity
  8
ZUWAKU
100
AcDbCircle
 10
15.31721216833716
 20
10.47499986828869
 30
0.0
 40
0.525
100
AcDbArc
 50
270.0
 51
0.0
  0
ARC
  5
5303
330
1A
100
AcDbEntity
  8
ZUWAKU
100
AcDbCircle
 10
14.44221216833716
 20
11.76520189364403
 30
0.0
 40
1.399999999999999
100
AcDbArc
 50
0.0
 51
45.0
  0
LINE
  5
5304
330
1A
100
AcDbEntity
  8
ZUWAKU
100
AcDbLine
 10
11.81721216833716
 20
7.674999868288686
 30
0.0
 11
11.81721216833716
 21
9.424999868288686
 31
0.0
  0
ARC
  5
5305
330
1A
100
AcDbEntity
  8
ZUWAKU
100
AcDbCircle
 10
12.34221216833714
 20
7.674999868288686
 30
0.0
 40
0.525
100
AcDbArc
 50
180.0
 51
270.0
  0
ARC
  5
5306
330
1A
100
AcDbEntity
  8
ZUWAKU
100
AcDbCircle
 10
12.34221216833714
 20
9.424999868288686
 30
0.0
 40
0.525
100
AcDbArc
 50
90.0
 51
180.0
  0
LINE
  5
5307
330
1A
100
AcDbEntity
  8
ZUWAKU
100
AcDbLine
 10
12.34221216833714
 20
7.149999868288688
 30
0.0
 11
15.84221216833714
 21
7.149999868288688
 31
0.0
  0
LINE
  5
5308
330
1A
100
AcDbEntity
  8
ZUWAKU
100
AcDbLine
 10
12.34221216833714
 20
9.949999868288685
 30
0.0
 11
15.31721216833716
 21
9.949999868288685
 31
0.0
  0
LINE
  5
5309
330
1A
100
AcDbEntity
  8
ZUWAKU
100
AcDbLine
 10
12.52236368735361
 20
15.66494936194986
 30
0.0
 11
15.43216166199829
 21
12.7551513873052
 31
0.0
  0
LINE
  5
530A
330
1A
100
AcDbEntity
  8
ZUWAKU
100
AcDbLine
 10
18.64221216833721
 20
9.949999868288685
 30
0.0
 11
18.64221216833721
 21
11.76520189364403
 31
0.0
  0
ARC
  5
530B
330
1A
100
AcDbEntity
  8
ZUWAKU
100
AcDbCircle
 10
24.94221216833716
 20
11.34999986828869
 30
0.0
 40
1.399999999999999
100
AcDbArc
 50
180.0
 51
270.0
  0
ARC
  5
530C
330
1A
100
AcDbEntity
  8
ZUWAKU
100
AcDbCircle
 10
17.59221216833714
 20
22.72499986828868
 30
0.0
 40
0.525
100
AcDbArc
 50
0.0
 51
90.0
  0
ARC
  5
530D
330
1A
100
AcDbEntity
  8
ZUWAKU
100
AcDbCircle
 10
17.59221216833714
 20
20.97499986828868
 30
0.0
 40
0.525
100
AcDbArc
 50
270.0
 51
0.0
  0
LINE
  5
530E
330
1A
100
AcDbEntity
  8
ZUWAKU
100
AcDbLine
 10
14.09221216833714
 20
23.24999986828868
 30
0.0
 11
17.59221216833714
 21
23.24999986828868
 31
0.0
  0
ARC
  5
530F
330
1A
100
AcDbEntity
  8
ZUWAKU
100
AcDbCircle
 10
14.61721216833711
 20
19.92499986828868
 30
0.0
 40
0.525
100
AcDbArc
 50
90.0
 51
180.0
  0
LINE
  5
5310
330
1A
100
AcDbEntity
  8
ZUWAKU
100
AcDbLine
 10
14.09221216833714
 20
19.92499986828868
 30
0.0
 11
14.09221216833714
 21
18.63479784293334
 31
0.0
  0
LINE
  5
5311
330
1A
100
AcDbEntity
  8
ZUWAKU
100
AcDbLine
 10
17.59221216833714
 20
20.44999986828868
 30
0.0
 11
14.61721216833711
 21
20.44999986828868
 31
0.0
  0
LINE
  5
5312
330
1A
100
AcDbEntity
  8
ZUWAKU
100
AcDbLine
 10
11.29221216833718
 20
20.44999986828868
 30
0.0
 11
11.29221216833718
 21
18.63479784293334
 31
0.0
  0
ARC
  5
5313
330
1A
100
AcDbEntity
  8
ZUWAKU
100
AcDbCircle
 10
14.09221216833714
 20
20.44999986828868
 30
0.0
 40
2.799999999999999
100
AcDbArc
 50
90.0
 51
180.0
  0
LINE
  5
5314
330
1A
100
AcDbEntity
  8
ZUWAKU
100
AcDbLine
 10
18.11721216833712
 20
22.72499986828868
 30
0.0
 11
18.11721216833712
 21
20.97499986828868
 31
0.0
  0
ARC
  5
5315
330
1A
100
AcDbEntity
  8
ZUWAKU
100
AcDbCircle
 10
24.94221216833716
 20
19.04999986828868
 30
0.0
 40
1.399999999999999
100
AcDbArc
 50
90.0
 51
180.0
  0
ARC
  5
5316
330
1A
100
AcDbEntity
  8
ZUWAKU
100
AcDbCircle
 10
24.94221216833716
 20
19.04999986828864
 30
0.0
 40
4.199999999999999
100
AcDbArc
 50
90.0
 51
180.0
  0
LINE
  5
5317
330
1A
100
AcDbEntity
  8
ZUWAKU
100
AcDbLine
 10
79.32662956154422
 20
29.99999986828868
 30
0.0
 11
79.32662956154445
 21
0.7999998682887508
 31
0.0
  0
LINE
  5
5318
330
1A
100
AcDbEntity
  8
ZUWAKU
100
AcDbLine
 10
79.52662956154426
 20
29.99999986828868
 30
0.0
 11
79.52662956154449
 21
0.7999998682887508
 31
0.0
  0
LINE
  5
5319
330
1A
100
AcDbEntity
  8
ZUWAKU
100
AcDbLine
 10
79.12662956154441
 20
29.99999986828868
 30
0.0
 11
79.12662956154441
 21
0.7999998682887508
 31
0.0
  0
LINE
  5
531A
330
1A
100
AcDbEntity
  8
ZUWAKU
100
AcDbLine
 10
64.14221216833721
 20
9.949999868288685
 30
0.0
 11
64.14221216833721
 21
22.72499986828868
 31
0.0
  0
LINE
  5
531B
330
1A
100
AcDbEntity
  8
ZUWAKU
100
AcDbLine
 10
61.34221216833714
 20
22.72499986828868
 30
0.0
 11
61.34221216833714
 21
10.99999986828868
 31
0.0
  0
LINE
  5
531C
330
1A
100
AcDbEntity
  8
ZUWAKU
100
AcDbLine
 10
69.04221216833718
 20
7.674999868288686
 30
0.0
 11
69.04221216833718
 21
22.72499986828868
 31
0.0
  0
LINE
  5
531D
330
1A
100
AcDbEntity
  8
ZUWAKU
100
AcDbLine
 10
66.24221216833712
 20
22.72499986828868
 30
0.0
 11
66.24221216833712
 21
7.674999868288686
 31
0.0
  0
ARC
  5
531E
330
1A
100
AcDbEntity
  8
ZUWAKU
100
AcDbCircle
 10
49.79221216833718
 20
18.63479784293338
 30
0.0
 40
1.399999999999999
100
AcDbArc
 50
180.0000000000016
 51
224.9999999999988
  0
ARC
  5
531F
330
1A
100
AcDbEntity
  8
ZUWAKU
100
AcDbCircle
 10
49.79221216833718
 20
18.63479784293338
 30
0.0
 40
4.199999999999999
100
AcDbArc
 50
180.0
 51
225.0
  0
LINE
  5
5320
330
1A
100
AcDbEntity
  8
ZUWAKU
100
AcDbLine
 10
37.31485865051513
 20
19.20504706185211
 30
0.0
 11
36.05010690517929
 21
15.1999998682887
 31
0.0
  0
LINE
  5
5321
330
1A
100
AcDbEntity
  8
ZUWAKU
100
AcDbLine
 10
40.69221216833716
 20
22.72499986828868
 30
0.0
 11
40.69221216833716
 21
7.674999868288686
 31
0.0
  0
LINE
  5
5322
330
1A
100
AcDbEntity
  8
ZUWAKU
100
AcDbLine
 10
43.49221216833711
 20
7.674999868288686
 30
0.0
 11
43.49221216833711
 21
22.72499986828868
 31
0.0
  0
LINE
  5
5323
330
1A
100
AcDbEntity
  8
ZUWAKU
100
AcDbLine
 10
55.04221216833719
 20
22.72499986828868
 30
0.0
 11
55.04221216833719
 21
9.949999868288685
 31
0.0
  0
LINE
  5
5324
330
1A
100
AcDbEntity
  8
ZUWAKU
100
AcDbLine
 10
57.84221216833714
 20
10.99999986828868
 30
0.0
 11
57.84221216833714
 21
22.72499986828868
 31
0.0
  0
LINE
  5
5325
330
1A
100
AcDbEntity
  8
ZUWAKU
100
AcDbLine
 10
32.64221216833721
 20
17.12499986828869
 30
0.0
 11
32.64221216833721
 21
22.72499986828868
 31
0.0
  0
LINE
  5
5326
330
1A
100
AcDbEntity
  8
ZUWAKU
100
AcDbLine
 10
29.84221216833714
 20
22.72499986828868
 30
0.0
 11
29.84221216833714
 21
7.674999868288686
 31
0.0
  0
LINE
  5
5327
330
1A
100
AcDbEntity
  8
ZUWAKU
100
AcDbLine
 10
35.676347105653
 20
22.88309383645565
 30
0.0
 11
33.80807723102122
 21
16.96690590012171
 31
0.0
  0
LINE
  5
5328
330
1A
100
AcDbEntity
  8
ZUWAKU
100
AcDbLine
 10
60.29221216833718
 20
9.949999868288685
 30
0.0
 11
58.89221216833721
 21
9.949999868288685
 31
0.0
  0
LINE
  5
5329
330
1A
100
AcDbEntity
  8
ZUWAKU
100
AcDbLine
 10
57.84221216833714
 20
7.149999868288688
 30
0.0
 11
61.34221216833714
 21
7.149999868288688
 31
0.0
  0
LINE
  5
532A
330
1A
100
AcDbEntity
  8
ZUWAKU
100
AcDbLine
 10
41.21721216833714
 20
7.149999868288688
 30
0.0
 11
42.96721216833714
 21
7.149999868288688
 31
0.0
  0
LINE
  5
532B
330
1A
100
AcDbEntity
  8
ZUWAKU
100
AcDbLine
 10
35.676347105653
 20
7.516905900121713
 30
0.0
 11
33.80807723102122
 21
13.43309383645565
 31
0.0
  0
ARC
  5
532C
330
1A
100
AcDbEntity
  8
ZUWAKU
100
AcDbCircle
 10
33.30744633182587
 20
17.12499986828869
 30
0.0
 40
0.525
100
AcDbArc
 50
270.0
 51
342.4744316262769
  0
LINE
  5
532D
330
1A
100
AcDbEntity
  8
ZUWAKU
100
AcDbLine
 10
33.30744633182587
 20
16.59999986828868
 30
0.0
 11
33.16721216833718
 21
16.59999986828868
 31
0.0
  0
LINE
  5
532E
330
1A
100
AcDbEntity
  8
ZUWAKU
100
AcDbLine
 10
33.16721216833718
 20
13.79999986828868
 30
0.0
 11
33.30744633182587
 21
13.79999986828868
 31
0.0
  0
ARC
  5
532F
330
1A
100
AcDbEntity
  8
ZUWAKU
100
AcDbCircle
 10
33.16721216833718
 20
17.12499986828869
 30
0.0
 40
0.525
100
AcDbArc
 50
180.0
 51
270.0
  0
LINE
  5
5330
330
1A
100
AcDbEntity
  8
ZUWAKU
100
AcDbLine
 10
30.36721216833711
 20
7.149999868288688
 30
0.0
 11
32.11721216833712
 21
7.149999868288688
 31
0.0
  0
ARC
  5
5331
330
1A
100
AcDbEntity
  8
ZUWAKU
100
AcDbCircle
 10
32.11721216833712
 20
7.674999868288686
 30
0.0
 40
0.525
100
AcDbArc
 50
270.0
 51
0.0
  0
LINE
  5
5332
330
1A
100
AcDbEntity
  8
ZUWAKU
100
AcDbLine
 10
32.64221216833721
 20
7.674999868288686
 30
0.0
 11
32.64221216833721
 21
13.27499986828868
 31
0.0
  0
LINE
  5
5333
330
1A
100
AcDbEntity
  8
ZUWAKU
100
AcDbLine
 10
27.39221216833721
 20
9.424999868288686
 30
0.0
 11
27.39221216833721
 21
7.674999868288686
 31
0.0
  0
ARC
  5
5334
330
1A
100
AcDbEntity
  8
ZUWAKU
100
AcDbCircle
 10
26.86721216833712
 20
7.674999868288686
 30
0.0
 40
0.525
100
AcDbArc
 50
270.0
 51
0.0
  0
ARC
  5
5335
330
1A
100
AcDbEntity
  8
ZUWAKU
100
AcDbCircle
 10
26.86721216833712
 20
9.424999868288686
 30
0.0
 40
0.525
100
AcDbArc
 50
0.0
 51
90.0
  0
ARC
  5
5336
330
1A
100
AcDbEntity
  8
ZUWAKU
100
AcDbCircle
 10
30.36721216833711
 20
7.674999868288686
 30
0.0
 40
0.525
100
AcDbArc
 50
180.0
 51
270.0
  0
ARC
  5
5337
330
1A
100
AcDbEntity
  8
ZUWAKU
100
AcDbCircle
 10
33.30744633182587
 20
13.27499986828868
 30
0.0
 40
0.525
100
AcDbArc
 50
17.52556837372303
 51
90.0
  0
ARC
  5
5338
330
1A
100
AcDbEntity
  8
ZUWAKU
100
AcDbCircle
 10
33.16721216833718
 20
13.27499986828868
 30
0.0
 40
0.525
100
AcDbArc
 50
90.0
 51
180.0
  0
ARC
  5
5339
330
1A
100
AcDbEntity
  8
ZUWAKU
100
AcDbCircle
 10
41.21721216833714
 20
7.674999868288686
 30
0.0
 40
0.525
100
AcDbArc
 50
180.0
 51
270.0
  0
LINE
  5
533A
330
1A
100
AcDbEntity
  8
ZUWAKU
100
AcDbLine
 10
36.17697800484847
 20
7.149999868288688
 30
0.0
 11
37.87586738445748
 21
7.149999868288688
 31
0.0
  0
ARC
  5
533B
330
1A
100
AcDbEntity
  8
ZUWAKU
100
AcDbCircle
 10
37.87586738445748
 20
7.674999868288686
 30
0.0
 40
0.525
100
AcDbArc
 50
270.0
 51
17.52556837372303
  0
LINE
  5
533C
330
1A
100
AcDbEntity
  8
ZUWAKU
100
AcDbLine
 10
38.37649828365295
 20
7.83309383645566
 30
0.0
 11
36.05010690517929
 21
15.1999998682887
 31
0.0
  0
ARC
  5
533D
330
1A
100
AcDbEntity
  8
ZUWAKU
100
AcDbCircle
 10
36.17697800484847
 20
7.674999868288686
 30
0.0
 40
0.525
100
AcDbArc
 50
197.525568373723
 51
270.0
  0
ARC
  5
533E
330
1A
100
AcDbEntity
  8
ZUWAKU
100
AcDbCircle
 10
57.84221216833714
 20
9.949999868288685
 30
0.0
 40
2.799999999999999
100
AcDbArc
 50
180.0
 51
270.0
  0
ARC
  5
533F
330
1A
100
AcDbEntity
  8
ZUWAKU
100
AcDbCircle
 10
50.14221216833721
 20
9.949999868288685
 30
0.0
 40
2.799999999999999
100
AcDbArc
 50
270.0
 51
0.0
  0
LINE
  5
5340
330
1A
100
AcDbEntity
  8
ZUWAKU
100
AcDbLine
 10
51.71206064932073
 20
14.73505037462751
 30
0.0
 11
48.80226267467595
 21
17.64484834927218
 31
0.0
  0
LINE
  5
5341
330
1A
100
AcDbEntity
  8
ZUWAKU
100
AcDbLine
 10
50.14221216833721
 20
10.47499986828869
 30
0.0
 11
50.14221216833721
 21
11.76520189364403
 31
0.0
  0
ARC
  5
5342
330
1A
100
AcDbEntity
  8
ZUWAKU
100
AcDbCircle
 10
48.74221216833712
 20
11.76520189364403
 30
0.0
 40
1.399999999999999
100
AcDbArc
 50
0.0
 51
45.0
  0
ARC
  5
5343
330
1A
100
AcDbEntity
  8
ZUWAKU
100
AcDbCircle
 10
49.61721216833712
 20
10.47499986828869
 30
0.0
 40
0.525
100
AcDbArc
 50
270.0
 51
0.0
  0
LINE
  5
5344
330
1A
100
AcDbEntity
  8
ZUWAKU
100
AcDbLine
 10
46.11721216833712
 20
7.674999868288686
 30
0.0
 11
46.11721216833712
 21
9.424999868288686
 31
0.0
  0
ARC
  5
5345
330
1A
100
AcDbEntity
  8
ZUWAKU
100
AcDbCircle
 10
46.64221216833721
 20
7.674999868288686
 30
0.0
 40
0.525
100
AcDbArc
 50
180.0
 51
270.0
  0
ARC
  5
5346
330
1A
100
AcDbEntity
  8
ZUWAKU
100
AcDbCircle
 10
42.96721216833714
 20
7.674999868288686
 30
0.0
 40
0.525
100
AcDbArc
 50
270.0
 51
0.0
  0
ARC
  5
5347
330
1A
100
AcDbEntity
  8
ZUWAKU
100
AcDbCircle
 10
46.64221216833721
 20
9.424999868288686
 30
0.0
 40
0.525
100
AcDbArc
 50
90.0
 51
180.0
  0
LINE
  5
5348
330
1A
100
AcDbEntity
  8
ZUWAKU
100
AcDbLine
 10
46.64221216833721
 20
9.949999868288685
 30
0.0
 11
49.61721216833712
 21
9.949999868288685
 31
0.0
  0
LINE
  5
5349
330
1A
100
AcDbEntity
  8
ZUWAKU
100
AcDbLine
 10
46.64221216833721
 20
7.149999868288688
 30
0.0
 11
50.14221216833721
 21
7.149999868288688
 31
0.0
  0
LINE
  5
534A
330
1A
100
AcDbEntity
  8
ZUWAKU
100
AcDbLine
 10
46.82236368735368
 20
15.66494936194986
 30
0.0
 11
49.73216166199836
 21
12.7551513873052
 31
0.0
  0
LINE
  5
534B
330
1A
100
AcDbEntity
  8
ZUWAKU
100
AcDbLine
 10
52.94221216833716
 20
9.949999868288685
 30
0.0
 11
52.94221216833716
 21
11.76520189364403
 31
0.0
  0
ARC
  5
534C
330
1A
100
AcDbEntity
  8
ZUWAKU
100
AcDbCircle
 10
48.74221216833712
 20
11.76520189364399
 30
0.0
 40
4.199999999999999
100
AcDbArc
 50
0.0
 51
45.0
  0
ARC
  5
534D
330
1A
100
AcDbEntity
  8
ZUWAKU
100
AcDbCircle
 10
58.89221216833721
 20
10.99999986828868
 30
0.0
 40
1.049999999999999
100
AcDbArc
 50
180.0
 51
270.0
  0
ARC
  5
534E
330
1A
100
AcDbEntity
  8
ZUWAKU
100
AcDbCircle
 10
61.34221216833714
 20
9.949999868288685
 30
0.0
 40
2.799999999999999
100
AcDbArc
 50
270.0
 51
0.0
  0
LINE
  5
534F
330
1A
100
AcDbEntity
  8
ZUWAKU
100
AcDbLine
 10
66.76721216833721
 20
7.149999868288688
 30
0.0
 11
68.51721216833721
 21
7.149999868288688
 31
0.0
  0
ARC
  5
5350
330
1A
100
AcDbEntity
  8
ZUWAKU
100
AcDbCircle
 10
66.76721216833721
 20
7.674999868288686
 30
0.0
 40
0.525
100
AcDbArc
 50
180.0
 51
270.0
  0
ARC
  5
5351
330
1A
100
AcDbEntity
  8
ZUWAKU
100
AcDbCircle
 10
60.29221216833718
 20
10.99999986828868
 30
0.0
 40
1.049999999999999
100
AcDbArc
 50
270.0
 51
0.0
  0
ARC
  5
5352
330
1A
100
AcDbEntity
  8
ZUWAKU
100
AcDbCircle
 10
68.51721216833721
 20
7.674999868288686
 30
0.0
 40
0.525
100
AcDbArc
 50
270.0
 51
0.0
  0
LINE
  5
5353
330
1A
100
AcDbEntity
  8
ZUWAKU
100
AcDbLine
 10
42.96721216833714
 20
23.24999986828868
 30
0.0
 11
41.21721216833714
 21
23.24999986828868
 31
0.0
  0
ARC
  5
5354
330
1A
100
AcDbEntity
  8
ZUWAKU
100
AcDbCircle
 10
32.11721216833712
 20
22.72499986828868
 30
0.0
 40
0.525
100
AcDbArc
 50
0.0
 51
90.0
  0
LINE
  5
5355
330
1A
100
AcDbEntity
  8
ZUWAKU
100
AcDbLine
 10
32.11721216833712
 20
23.24999986828868
 30
0.0
 11
30.36721216833711
 21
23.24999986828868
 31
0.0
  0
ARC
  5
5356
330
1A
100
AcDbEntity
  8
ZUWAKU
100
AcDbCircle
 10
26.86721216833712
 20
22.72499986828868
 30
0.0
 40
0.525
100
AcDbArc
 50
0.0
 51
90.0
  0
ARC
  5
5357
330
1A
100
AcDbEntity
  8
ZUWAKU
100
AcDbCircle
 10
30.36721216833711
 20
22.72499986828868
 30
0.0
 40
0.525
100
AcDbArc
 50
90.0
 51
180.0
  0
ARC
  5
5358
330
1A
100
AcDbEntity
  8
ZUWAKU
100
AcDbCircle
 10
26.86721216833712
 20
20.97499986828868
 30
0.0
 40
0.525
100
AcDbArc
 50
270.0
 51
0.0
  0
LINE
  5
5359
330
1A
100
AcDbEntity
  8
ZUWAKU
100
AcDbLine
 10
27.39221216833721
 20
22.72499986828868
 30
0.0
 11
27.39221216833721
 21
20.97499986828868
 31
0.0
  0
ARC
  5
535A
330
1A
100
AcDbEntity
  8
ZUWAKU
100
AcDbCircle
 10
41.21721216833714
 20
22.72499986828868
 30
0.0
 40
0.525
100
AcDbArc
 50
90.0
 51
180.0
  0
LINE
  5
535B
330
1A
100
AcDbEntity
  8
ZUWAKU
100
AcDbLine
 10
36.17697800484847
 20
23.24999986828868
 30
0.0
 11
37.87586738445748
 21
23.24999986828868
 31
0.0
  0
ARC
  5
535C
330
1A
100
AcDbEntity
  8
ZUWAKU
100
AcDbCircle
 10
37.87586738445748
 20
22.72499986828868
 30
0.0
 40
0.525
100
AcDbArc
 50
342.4744316262769
 51
90.0
  0
LINE
  5
535D
330
1A
100
AcDbEntity
  8
ZUWAKU
100
AcDbLine
 10
38.37649828365295
 20
22.56690590012171
 30
0.0
 11
37.31485865051513
 21
19.20504706185211
 31
0.0
  0
ARC
  5
535E
330
1A
100
AcDbEntity
  8
ZUWAKU
100
AcDbCircle
 10
36.17697800484847
 20
22.72499986828868
 30
0.0
 40
0.525
100
AcDbArc
 50
90.0
 51
162.4744316262769
  0
LINE
  5
535F
330
1A
100
AcDbEntity
  8
ZUWAKU
100
AcDbLine
 10
48.3922121683372
 20
23.24999986828868
 30
0.0
 11
51.89221216833721
 21
23.24999986828868
 31
0.0
  0
LINE
  5
5360
330
1A
100
AcDbEntity
  8
ZUWAKU
100
AcDbLine
 10
51.89221216833721
 20
20.44999986828868
 30
0.0
 11
48.91721216833719
 21
20.44999986828868
 31
0.0
  0
ARC
  5
5361
330
1A
100
AcDbEntity
  8
ZUWAKU
100
AcDbCircle
 10
48.91721216833719
 20
19.92499986828868
 30
0.0
 40
0.525
100
AcDbArc
 50
90.0
 51
180.0
  0
LINE
  5
5362
330
1A
100
AcDbEntity
  8
ZUWAKU
100
AcDbLine
 10
48.3922121683372
 20
19.92499986828868
 30
0.0
 11
48.3922121683372
 21
18.63479784293334
 31
0.0
  0
ARC
  5
5363
330
1A
100
AcDbEntity
  8
ZUWAKU
100
AcDbCircle
 10
42.96721216833714
 20
22.72499986828868
 30
0.0
 40
0.525
100
AcDbArc
 50
0.0
 51
90.0
  0
LINE
  5
5364
330
1A
100
AcDbEntity
  8
ZUWAKU
100
AcDbLine
 10
45.59221216833714
 20
20.44999986828868
 30
0.0
 11
45.59221216833714
 21
18.63479784293334
 31
0.0
  0
ARC
  5
5365
330
1A
100
AcDbEntity
  8
ZUWAKU
100
AcDbCircle
 10
48.3922121683372
 20
20.44999986828868
 30
0.0
 40
2.799999999999999
100
AcDbArc
 50
90.0
 51
180.0
  0
ARC
  5
5366
330
1A
100
AcDbEntity
  8
ZUWAKU
100
AcDbCircle
 10
57.31721216833716
 20
22.72499986828868
 30
0.0
 40
0.525
100
AcDbArc
 50
0.0
 51
90.0
  0
ARC
  5
5367
330
1A
100
AcDbEntity
  8
ZUWAKU
100
AcDbCircle
 10
55.56721216833716
 20
22.72499986828868
 30
0.0
 40
0.525
100
AcDbArc
 50
90.0
 51
180.0
  0
LINE
  5
5368
330
1A
100
AcDbEntity
  8
ZUWAKU
100
AcDbLine
 10
57.31721216833716
 20
23.24999986828868
 30
0.0
 11
55.56721216833716
 21
23.24999986828868
 31
0.0
  0
ARC
  5
5369
330
1A
100
AcDbEntity
  8
ZUWAKU
100
AcDbCircle
 10
51.89221216833721
 20
22.72499986828868
 30
0.0
 40
0.525
100
AcDbArc
 50
0.0
 51
90.0
  0
ARC
  5
536A
330
1A
100
AcDbEntity
  8
ZUWAKU
100
AcDbCircle
 10
51.89221216833721
 20
20.97499986828868
 30
0.0
 40
0.525
100
AcDbArc
 50
270.0
 51
0.0
  0
LINE
  5
536B
330
1A
100
AcDbEntity
  8
ZUWAKU
100
AcDbLine
 10
52.41721216833719
 20
22.72499986828868
 30
0.0
 11
52.41721216833719
 21
20.97499986828868
 31
0.0
  0
LINE
  5
536C
330
1A
100
AcDbEntity
  8
ZUWAKU
100
AcDbLine
 10
68.51721216833721
 20
23.24999986828868
 30
0.0
 11
66.76721216833721
 21
23.24999986828868
 31
0.0
  0
ARC
  5
536D
330
1A
100
AcDbEntity
  8
ZUWAKU
100
AcDbCircle
 10
66.76721216833721
 20
22.72499986828868
 30
0.0
 40
0.525
100
AcDbArc
 50
90.0
 51
180.0
  0
ARC
  5
536E
330
1A
100
AcDbEntity
  8
ZUWAKU
100
AcDbCircle
 10
63.61721216833712
 20
22.72499986828868
 30
0.0
 40
0.525
100
AcDbArc
 50
0.0
 51
90.0
  0
LINE
  5
536F
330
1A
100
AcDbEntity
  8
ZUWAKU
100
AcDbLine
 10
63.61721216833712
 20
23.24999986828868
 30
0.0
 11
61.86721216833712
 21
23.24999986828868
 31
0.0
  0
ARC
  5
5370
330
1A
100
AcDbEntity
  8
ZUWAKU
100
AcDbCircle
 10
61.86721216833712
 20
22.72499986828868
 30
0.0
 40
0.525
100
AcDbArc
 50
90.0
 51
180.0
  0
ARC
  5
5371
330
1A
100
AcDbEntity
  8
ZUWAKU
100
AcDbCircle
 10
68.51721216833721
 20
22.72499986828868
 30
0.0
 40
0.525
100
AcDbArc
 50
0.0
 51
90.0
  0
TEXT
  5
5372
330
1A
100
AcDbEntity
  8
MOJI
100
AcDbText
 10
239.827202694407
 20
18.00492092569607
 30
0.0
 40
5.599999999999999
  1
曲り（入）
 41
0.9
  7
ｽﾀｲﾙ1
100
AcDbText
  0
TEXT
  5
5373
330
1A
100
AcDbEntity
  8
MOJI
100
AcDbText
 10
239.827202694407
 20
3.204920925696104
 30
0.0
 40
5.599999999999999
  1
ＶＭ１６０
 41
0.9
  7
ｽﾀｲﾙ1
100
AcDbText
  0
LINE
  5
5374
330
1A
100
AcDbEntity
  8
ZUWAKU
100
AcDbLine
 10
208.2466013036239
 20
29.99999986828868
 30
0.0
 11
208.2466013036239
 21
0.7999998682887508
 31
0.0
  0
LINE
  5
5375
330
1A
100
AcDbEntity
  8
ZUWAKU
100
AcDbLine
 10
208.6466013036238
 20
29.99999986828868
 30
0.0
 11
208.646601303624
 21
0.7999998682887508
 31
0.0
  0
LINE
  5
5376
330
1A
100
AcDbEntity
  8
ZUWAKU
100
AcDbLine
 10
208.4466013036237
 20
29.99999986828868
 30
0.0
 11
208.446601303624
 21
0.7999998682887508
 31
0.0
  0
TEXT
  5
5377
330
1A
100
AcDbEntity
  8
ZUWAKU
100
AcDbText
 10
209.7240463258335
 20
9.6553564066743
 30
0.0
 40
4.0
  1
サイズ
 41
0.9
  7
ｽﾀｲﾙ1
100
AcDbText
  0
TEXT
  5
5378
330
1A
100
AcDbEntity
  8
ZUWAKU
100
AcDbText
 10
209.7240463258333
 20
24.05535640667426
 30
0.0
 40
4.0
  1
品名
 41
0.9
  7
ｽﾀｲﾙ1
100
AcDbText
  0
LINE
  5
5379
330
1A
100
AcDbEntity
  8
ZUWAKU
100
AcDbLine
 10
648.8172025237602
 20
15.19999986828871
 30
0.0
 11
697.2490105620972
 21
15.19999986828871
 31
0.0
  0
LINE
  5
537A
330
1A
100
AcDbEntity
  8
ZUWAKU
100
AcDbLine
 10
648.8172025237604
 20
15.39999986828872
 30
0.0
 11
697.2490105620972
 21
15.39999986828871
 31
0.0
  0
LINE
  5
537B
330
1A
100
AcDbEntity
  8
ZUWAKU
100
AcDbLine
 10
648.8172025237602
 20
15.59999986828871
 30
0.0
 11
697.2490105620972
 21
15.59999986828871
 31
0.0
  0
TEXT
  5
537C
330
1A
100
AcDbEntity
  8
ZUWAKU
100
AcDbText
 10
658.2039377008584
 20
18.00492092569607
 30
0.0
 40
5.599999999999999
  1
　　．　　．　　
 41
0.9
  7
ｽﾀｲﾙ1
100
AcDbText
  0
LINE
  5
537D
330
1A
100
AcDbEntity
  8
ZUWAKU
100
AcDbLine
 10
505.1991795116968
 20
15.19999986828872
 30
0.0
 11
552.5269557796685
 21
15.19999986828872
 31
0.0
  0
LINE
  5
537E
330
1A
100
AcDbEntity
  8
ZUWAKU
100
AcDbLine
 10
505.1991795116968
 20
15.39999986828871
 30
0.0
 11
552.5269557796685
 21
15.39999986828871
 31
0.0
  0
LINE
  5
537F
330
1A
100
AcDbEntity
  8
ZUWAKU
100
AcDbLine
 10
505.1991795116968
 20
15.59999986828871
 30
0.0
 11
552.5269557796685
 21
15.59999986828871
 31
0.0
  0
TEXT
  5
5380
330
1A
100
AcDbEntity
  8
MOJI
100
AcDbText
 10
463.246432004558
 20
11.94261758994866
 30
0.0
 40
5.599999999999999
  1
ＰＧ２４□
 41
0.9
  7
ｽﾀｲﾙ1
100
AcDbText
  0
LINE
  5
5381
330
1A
100
AcDbEntity
  8
ZUWAKU
100
AcDbLine
 10
447.6243639845472
 20
29.99999986828868
 30
0.0
 11
447.6243639845474
 21
0.7999998682887508
 31
0.0
  0
LINE
  5
5382
330
1A
100
AcDbEntity
  8
ZUWAKU
100
AcDbLine
 10
447.8243639845472
 20
29.99999986828868
 30
0.0
 11
447.8243639845475
 21
0.7999998682887508
 31
0.0
  0
LINE
  5
5383
330
1A
100
AcDbEntity
  8
ZUWAKU
100
AcDbLine
 10
447.4243639845474
 20
29.99999986828868
 30
0.0
 11
447.4243639845474
 21
0.7999998682887508
 31
0.0
  0
TEXT
  5
5384
330
1A
100
AcDbEntity
  8
MOJI
100
AcDbText
 10
528.0409079858689
 20
18.00492092569607
 30
0.0
 40
5.599999999999999
  1
Ａ３
 41
0.9
  7
ｽﾀｲﾙ1
100
AcDbText
  0
LINE
  5
5385
330
1A
100
AcDbEntity
  8
ZUWAKU
100
AcDbLine
 10
504.9991795116969
 20
29.99999986828868
 30
0.0
 11
504.999179511697
 21
0.7999998682887508
 31
0.0
  0
LINE
  5
5386
330
1A
100
AcDbEntity
  8
ZUWAKU
100
AcDbLine
 10
505.1991795116968
 20
29.99999986828868
 30
0.0
 11
505.1991795116971
 21
0.7999998682887508
 31
0.0
  0
LINE
  5
5387
330
1A
100
AcDbEntity
  8
ZUWAKU
100
AcDbLine
 10
504.799179511697
 20
29.99999986828868
 30
0.0
 11
504.799179511697
 21
0.7999998682887508
 31
0.0
  0
TEXT
  5
5388
330
1A
100
AcDbEntity
  8
ZUWAKU
100
AcDbText
 10
461.8574426386929
 20
2.614070779428175
 30
0.0
 40
3.0
  1
□には色品番が入ります
 41
0.9
  7
ｽﾀｲﾙ1
100
AcDbText
  0
TEXT
  5
5389
330
1A
100
AcDbEntity
  8
ZUWAKU
100
AcDbText
 10
506.6766245339067
 20
9.6553564066743
 30
0.0
 40
4.0
  1
縮尺
 41
0.9
  7
ｽﾀｲﾙ1
100
AcDbText
  0
TEXT
  5
538A
330
1A
100
AcDbEntity
  8
MOJI
100
AcDbText
 10
528.0409079858689
 20
3.204920925696104
 30
0.0
 40
5.599999999999999
  1
１/２
 41
0.9
  7
ｽﾀｲﾙ1
100
AcDbText
  0
TEXT
  5
538B
330
1A
100
AcDbEntity
  8
ZUWAKU
100
AcDbText
 10
449.3018090067569
 20
24.05535640667426
 30
0.0
 40
4.0
  1
品番
 41
0.9
  7
ｽﾀｲﾙ1
100
AcDbText
  0
TEXT
  5
538C
330
1A
100
AcDbEntity
  8
ZUWAKU
100
AcDbText
 10
506.6766245339065
 20
24.05535640667426
 30
0.0
 40
4.0
  1
用紙
 41
0.9
  7
ｽﾀｲﾙ1
100
AcDbText
  0
LINE
  5
538D
330
1A
100
AcDbEntity
  8
ZUWAKU
100
AcDbLine
 10
648.6172025237603
 20
29.99999986828868
 30
0.0
 11
648.6172025237606
 21
0.7999998682887508
 31
0.0
  0
LINE
  5
538E
330
1A
100
AcDbEntity
  8
ZUWAKU
100
AcDbLine
 10
648.8172025237604
 20
29.99999986828868
 30
0.0
 11
648.8172025237607
 21
0.7999998682887508
 31
0.0
  0
LINE
  5
538F
330
1A
100
AcDbEntity
  8
ZUWAKU
100
AcDbLine
 10
648.4172025237605
 20
29.99999986828868
 30
0.0
 11
648.4172025237605
 21
0.7999998682887508
 31
0.0
  0
LINE
  5
5390
330
1A
100
AcDbEntity
  8
ZUWAKU
100
AcDbLine
 10
552.7269557796683
 20
29.99999986828868
 30
0.0
 11
552.7269557796684
 21
0.7999998682887508
 31
0.0
  0
LINE
  5
5391
330
1A
100
AcDbEntity
  8
ZUWAKU
100
AcDbLine
 10
552.9269557796683
 20
29.99999986828868
 30
0.0
 11
552.9269557796685
 21
0.7999998682887508
 31
0.0
  0
LINE
  5
5392
330
1A
100
AcDbEntity
  8
ZUWAKU
100
AcDbLine
 10
552.5269557796685
 20
29.99999986828868
 30
0.0
 11
552.5269557796685
 21
0.7999998682887508
 31
0.0
  0
TEXT
  5
5393
330
1A
100
AcDbEntity
  8
ZUWAKU
100
AcDbText
 10
650.29464754597
 20
24.05535640667426
 30
0.0
 40
4.0
  1
DATE
 41
0.9
  7
ｽﾀｲﾙ1
100
AcDbText
  0
LINE
  5
5394
330
1A
100
AcDbEntity
  8
ZUWAKU
100
AcDbLine
 10
697.2490105620972
 20
29.99999986828868
 30
0.0
 11
697.2490105620972
 21
0.7999998682887508
 31
0.0
  0
LINE
  5
5395
330
1A
100
AcDbEntity
  8
ZUWAKU
100
AcDbLine
 10
697.4490105620973
 20
29.99999986828868
 30
0.0
 11
697.4490105620973
 21
0.7999998682887508
 31
0.0
  0
LINE
  5
5396
330
1A
100
AcDbEntity
  8
ZUWAKU
100
AcDbLine
 10
697.6490105620971
 20
29.99999986828868
 30
0.0
 11
697.6490105620974
 21
0.7999998682887508
 31
0.0
  0
LINE
  5
5397
330
1A
100
AcDbEntity
  8
ZUWAKU
100
AcDbLine
 10
697.8490105620972
 20
29.99999986828868
 30
0.0
 11
697.8490105620974
 21
0.7999998682887508
 31
0.0
  0
TEXT
  5
5398
330
1A
100
AcDbEntity
  8
ZUWAKU
100
AcDbText
 10
708.5280842057998
 20
17.55383920397548
 30
0.0
 40
6.0
  1
積水化学工業株式会社
 41
0.9
  7
ｽﾀｲﾙ1
100
AcDbText
  0
TEXT
  5
5399
330
1A
100
AcDbEntity
  8
ZUWAKU
100
AcDbText
 10
708.5280842057998
 20
6.648840182142748
 30
0.0
 40
6.0
  1
建材事業部
 41
0.9
  7
ｽﾀｲﾙ1
100
AcDbText
  0
DIMENSION
  5
56C0
330
1A
100
AcDbEntity
  8
SUNPOU
100
AcDbDimension
  2
*D1
 10
459.6383501753548
 20
72.30973116796381
 30
0.0
 11
454.6383501753548
 21
117.3597284067912
 31
0.0
 70
    32
  3
STANDARD
100
AcDbAlignedDimension
 13
408.1608540985063
 23
162.4097256456186
 33
0.0
 14
357.4215908756118
 24
72.30973116796383
 34
0.0
 50
90.0
100
AcDbRotatedDimension
1001
ACAD
1000
DSTYLE
1002
{
1070
    41
1040
7.0
1070
    42
1040
6.0
1070
    43
1040
14.0
1070
    44
1040
3.0
1070
    73
1070
     0
1070
    74
1070
     0
1070
    77
1070
     3
1070
   140
1040
6.0
1070
   141
1040
30.0
1070
   147
1040
2.0
1070
   172
1070
     1
1070
   176
1070
   256
1070
   177
1070
   256
1070
   178
1070
   256
1070
   271
1070
     0
1070
   272
1070
     0
1070
   341
1005
6D
1070
     5
1000
OPEN
1070
   371
1070
    -1
1070
   372
1070
    -1
1002
}
  0
LINE
  5
56C1
330
1A
100
AcDbEntity
  8
CENTER_L
 48
5.0
100
AcDbLine
 10
357.4215908756119
 20
468.3085697820758
 30
0.0
 11
357.4215908756118
 21
276.1429030478737
 31
0.0
  0
DIMENSION
  5
56C2
330
1A
100
AcDbEntity
  8
SUNPOU
100
AcDbDimension
  2
*D2
 10
182.7610432252063
 20
258.8722514975799
 30
0.0
 11
297.9609486618563
 21
263.87225149758
 31
0.0
 70
    32
  3
STANDARD
100
AcDbAlignedDimension
 13
413.1608540985062
 23
157.4097256456186
 33
0.0
 14
182.7610432252063
 24
214.6333089982188
 34
0.0
100
AcDbRotatedDimension
1001
ACAD
1000
DSTYLE
1002
{
1070
    41
1040
7.0
1070
    42
1040
6.0
1070
    43
1040
14.0
1070
    44
1040
3.0
1070
    73
1070
     0
1070
    74
1070
     0
1070
    77
1070
     3
1070
   140
1040
6.0
1070
   141
1040
30.0
1070
   147
1040
2.0
1070
   172
1070
     1
1070
   176
1070
   256
1070
   177
1070
   256
1070
   178
1070
   256
1070
   271
1070
     0
1070
   272
1070
     0
1070
   341
1005
6D
1070
     5
1000
OPEN
1070
   371
1070
    -1
1070
   372
1070
    -1
1002
}
  0
DIMENSION
  5
56C3
330
1A
100
AcDbEntity
  8
SUNPOU
100
AcDbDimension
  2
*D3
 10
147.3825408018894
 20
187.8097256456188
 30
0.0
 11
147.3825408018894
 21
201.0558047388743
 31
0.0
 70
   160
  3
STANDARD
100
AcDbAlignedDimension
 13
182.7610432252063
 23
214.6333089982188
 33
0.0
 14
201.0934511467063
 24
187.8097256456187
 34
0.0
 50
90.0
100
AcDbRotatedDimension
1001
ACAD
1000
DSTYLE
1002
{
1070
    41
1040
7.0
1070
    42
1040
6.0
1070
    43
1040
14.0
1070
    44
1040
3.0
1070
    73
1070
     0
1070
    74
1070
     0
1070
    77
1070
     3
1070
   140
1040
6.0
1070
   141
1040
30.0
1070
   147
1040
2.0
1070
   172
1070
     1
1070
   176
1070
   256
1070
   177
1070
   256
1070
   178
1070
   256
1070
   271
1070
     0
1070
   272
1070
     0
1070
   341
1005
6D
1070
     5
1000
OPEN
1070
   371
1070
    -1
1070
   372
1070
    -1
1002
}
  0
DIMENSION
  5
56C4
330
1A
100
AcDbEntity
  8
SUNPOU
100
AcDbDimension
  2
*D4
 10
129.8790368626226
 20
72.30972564562439
 30
0.0
 11
129.8790368626225
 21
143.2543555590244
 31
0.0
 70
   160
  3
STANDARD
100
AcDbAlignedDimension
 13
182.7610432252063
 23
214.6333089982188
 33
0.0
 14
357.3163553750252
 24
72.30972564562432
 34
0.0
 50
90.0
100
AcDbRotatedDimension
1001
ACAD
1000
DSTYLE
1002
{
1070
    41
1040
7.0
1070
    42
1040
6.0
1070
    43
1040
14.0
1070
    44
1040
3.0
1070
    73
1070
     0
1070
    74
1070
     0
1070
    77
1070
     3
1070
   140
1040
6.0
1070
   141
1040
30.0
1070
   147
1040
2.0
1070
   172
1070
     1
1070
   176
1070
   256
1070
   177
1070
   256
1070
   178
1070
   256
1070
   271
1070
     0
1070
   272
1070
     0
1070
   341
1005
6D
1070
     5
1000
OPEN
1070
   371
1070
    -1
1070
   372
1070
    -1
1002
}
  0
LINE
  5
56C5
330
1A
100
AcDbEntity
  8
SEIHIN
100
AcDbLine
 10
194.4790538690062
 20
214.7390903632187
 30
0.0
 11
182.7610432252063
 21
214.6333089982188
 31
0.0
  0
LINE
  5
56C6
330
1A
100
AcDbEntity
  8
SEIHIN
100
AcDbLine
 10
194.4304851001063
 20
187.9207442498186
 30
0.0
 11
182.7610432252063
 21
188.3097256456187
 31
0.0
  0
LINE
  5
56C7
330
1A
100
AcDbEntity
  8
SEIHIN
100
AcDbLine
 10
182.7610432252063
 20
72.80972564561875
 30
0.0
 11
194.4304851001063
 21
72.42074424981876
 31
0.0
  0
LINE
  5
56C8
330
1A
100
AcDbEntity
  8
SEIHIN
100
AcDbLine
 10
194.4304851001063
 20
82.42074424981877
 30
0.0
 11
182.7610432252063
 21
82.80972564561876
 31
0.0
  0
LINE
  5
56C9
330
1A
100
AcDbEntity
  8
SEIHIN
100
AcDbLine
 10
190.4338590945062
 20
73.50629457641867
 30
0.0
 11
182.7610432252063
 21
73.75378996661869
 31
0.0
  0
LINE
  5
56CA
330
1A
100
AcDbEntity
  8
SEIHIN
100
AcDbLine
 10
182.7610432252063
 20
72.80972564561875
 30
0.0
 11
182.7610432252063
 21
214.6333089982188
 31
0.0
  0
ARC
  5
56CB
330
1A
100
AcDbEntity
  8
NOKITOI
 48
0.5
100
AcDbCircle
 10
-72.68620729645625
 20
-13.86099393809183
 30
0.0
 40
391.6000000000002
100
AcDbArc
 50
15.08870500059682
 51
27.63121951273503
  0
ARC
  5
56CC
330
1A
100
AcDbEntity
  8
NOKITOI
 48
0.5
100
AcDbCircle
 10
-72.68620729646534
 20
-13.86099393809456
 30
0.0
 40
390.0000000000088
100
AcDbArc
 50
14.79702449878652
 51
31.68717393609645
  0
ARC
  5
56CD
330
1A
100
AcDbEntity
  8
NOKITOI
 48
0.5
100
AcDbCircle
 10
-583.1760354126816
 20
254.7257526612351
 30
0.0
 40
999.9999999999998
100
AcDbArc
 50
349.9208000871301
 51
353.0775507891167
  0
ARC
  5
56CE
330
1A
100
AcDbEntity
  8
NOKITOI
 48
0.5
100
AcDbCircle
 10
-583.1760354126816
 20
254.7257526612351
 30
0.0
 40
998.3999999999999
100
AcDbArc
 50
349.9208000871301
 51
353.0740991196978
  0
LINE
  5
56CF
330
1A
100
AcDbEntity
  8
SEIHIN
100
AcDbLine
 10
398.2691445640066
 20
82.51756482991879
 30
0.0
 11
402.6795157483065
 21
105.7205042545187
 31
0.0
  0
ARC
  5
56D0
330
1A
100
AcDbEntity
  8
SEIHIN
100
AcDbCircle
 10
-72.56653490349345
 20
-14.72096104418119
 30
0.0
 40
393.5
100
AcDbArc
 50
15.34714292550042
 51
21.38005534509746
  0
ARC
  5
56D1
330
1A
100
AcDbEntity
  8
SEIHIN
100
AcDbCircle
 10
-586.2443399635833
 20
254.2790324190186
 30
0.0
 40
998.2499999999996
100
AcDbArc
 50
350.095039586907
 51
353.137999820808
  0
ARC
  5
56D2
330
1A
100
AcDbEntity
  8
SEIHIN
100
AcDbCircle
 10
-583.4037313066935
 20
254.2790324190186
 30
0.0
 40
998.2499999999996
100
AcDbArc
 50
350.0762492762457
 51
352.9163022552999
  0
ARC
  5
56D3
330
1A
100
AcDbEntity
  8
SEIHIN
100
AcDbCircle
 10
-583.4037313066935
 20
254.2790324190186
 30
0.0
 40
1002.699999999999
100
AcDbArc
 50
349.9484262152928
 51
353.1558364366026
  0
ARC
  5
56D4
330
1A
100
AcDbEntity
  8
SEIHIN
100
AcDbCircle
 10
-583.4037313066935
 20
254.2790324190186
 30
0.0
 40
1002.199999999999
100
AcDbArc
 50
349.9714305165982
 51
353.1547695818027
  0
ARC
  5
56D5
330
1A
100
AcDbEntity
  8
SEIHIN
100
AcDbCircle
 10
-583.4037313066935
 20
254.2790324190186
 30
0.0
 40
999.9999999999998
100
AcDbArc
 50
349.9577015421031
 51
353.1500659143998
  0
ARC
  5
56D6
330
1A
100
AcDbEntity
  8
SEIHIN
100
AcDbCircle
 10
-72.56652099639371
 20
-14.72096238528126
 30
0.0
 40
394.5
100
AcDbArc
 50
15.43054251819971
 51
21.32320714780005
  0
ARC
  5
56D7
330
1A
100
AcDbEntity
  8
SEIHIN
100
AcDbCircle
 10
-72.56652099639371
 20
-14.72096238528126
 30
0.0
 40
391.7499999999999
100
AcDbArc
 50
15.34757332199717
 51
22.470629915699
  0
ARC
  5
56D8
330
1A
100
AcDbEntity
  8
SEIHIN
100
AcDbCircle
 10
-72.56652099639371
 20
-14.72096238528126
 30
0.0
 40
387.8
100
AcDbArc
 50
14.6800708756022
 51
31.57033399959925
  0
ARC
  5
56D9
330
1A
100
AcDbEntity
  8
SEIHIN
100
AcDbCircle
 10
-72.56652099639371
 20
-14.72096238528126
 30
0.0
 40
387.3
100
AcDbArc
 50
14.62320187209679
 51
31.52897859499872
  0
ARC
  5
56DA
330
1A
100
AcDbEntity
  8
SEIHIN
100
AcDbCircle
 10
-72.56652099639371
 20
-14.72096238528126
 30
0.0
 40
390.0
100
AcDbArc
 50
14.92908040490244
 51
31.75125391330047
  0
ARC
  5
56DB
330
1A
100
AcDbEntity
  8
NOKITOI
 48
0.5
100
AcDbCircle
 10
362.125992971743
 20
1074.998665422106
 30
0.0
 40
998.3999999999994
100
AcDbArc
 50
267.3988777093053
 51
271.9779273652207
  0
ARC
  5
56DC
330
1A
100
AcDbEntity
  8
NOKITOI
 48
0.5
100
AcDbCircle
 10
362.125992971743
 20
1074.998665422106
 30
0.0
 40
999.9999999999994
100
AcDbArc
 50
267.3333119235699
 51
271.9779273652207
  0
ARC
  5
56DD
330
1A
100
AcDbEntity
  8
SEIHIN
100
AcDbCircle
 10
357.3163414679065
 20
1075.009726986719
 30
0.0
 40
996.5000000000001
100
AcDbArc
 50
267.7177917677015
 51
269.1815256244997
  0
ARC
  5
56DE
330
1A
100
AcDbEntity
  8
SEIHIN
100
AcDbCircle
 10
357.3163553749064
 20
1075.009725645618
 30
0.0
 40
998.2499999999999
100
AcDbArc
 50
267.7179499257
 51
269.4055284541001
  0
ARC
  5
56DF
330
1A
100
AcDbEntity
  8
SEIHIN
100
AcDbCircle
 10
357.3163553749064
 20
1075.009725645618
 30
0.0
 40
995.5000000000001
100
AcDbArc
 50
267.7283928595997
 51
269.4038862083464
  0
ARC
  5
56E0
330
1A
100
AcDbEntity
  8
SEIHIN
100
AcDbCircle
 10
357.3163553749064
 20
1075.009725645618
 30
0.0
 40
1000.0
100
AcDbArc
 50
267.6038484566002
 51
272.2484030991004
  0
ARC
  5
56E1
330
1A
100
AcDbEntity
  8
SEIHIN
100
AcDbCircle
 10
357.3163553749064
 20
1075.009725645618
 30
0.0
 40
1002.199999999999
100
AcDbArc
 50
267.5128881251001
 51
272.2346741245999
  0
ARC
  5
56E2
330
1A
100
AcDbEntity
  8
SEIHIN
100
AcDbCircle
 10
357.3163553749064
 20
1075.009725645618
 30
0.0
 40
1002.699999999999
100
AcDbArc
 50
267.4923205683378
 51
272.2576784259271
  0
LINE
  5
56E3
330
1A
100
AcDbEntity
  8
SEIHIN
100
AcDbLine
 10
201.0934511467063
 20
72.30972564561875
 30
0.0
 11
357.3163553749064
 21
72.30972564561875
 31
0.0
  0
LINE
  5
56E4
330
1A
100
AcDbEntity
  8
SEIHIN
100
AcDbLine
 10
300.2524622263063
 20
82.30972564561875
 30
0.0
 11
201.0934511467063
 21
82.30972564561875
 31
0.0
  0
LINE
  5
56E5
330
1A
100
AcDbEntity
  8
SEIHIN
100
AcDbLine
 10
309.6874871043063
 20
73.2699450147187
 30
0.0
 11
201.0934511467063
 21
73.2699450147187
 31
0.0
  0
ARC
  5
56E6
330
1A
100
AcDbEntity
  8
SEIHIN
100
AcDbCircle
 10
201.0934511467063
 20
272.3097256456187
 30
0.0
 40
200.0
100
AcDbArc
 50
268.0908475670002
 51
270.0
  0
LINE
  5
56E7
330
1A
100
AcDbEntity
  8
SEIHIN
100
AcDbLine
 10
197.7786209292063
 20
73.29653286441874
 30
0.0
 11
194.4304851001063
 21
73.37739249421872
 31
0.0
  0
LINE
  5
56E8
330
1A
100
AcDbEntity
  8
SEIHIN
100
AcDbLine
 10
197.7712354316063
 20
82.33732034241871
 30
0.0
 11
194.4304851001063
 21
82.42074424981877
 31
0.0
  0
LINE
  5
56E9
330
1A
100
AcDbEntity
  8
SEIHIN
100
AcDbLine
 10
194.4304851001063
 20
73.37739249421872
 30
0.0
 11
190.4338590945062
 21
73.50629457641867
 31
0.0
  0
LINE
  5
56EA
330
1A
100
AcDbEntity
  8
SEIHIN
100
AcDbLine
 10
201.0934511467063
 20
73.2699450147187
 30
0.0
 11
197.7786209292063
 21
73.29653286441874
 31
0.0
  0
LINE
  5
56EB
330
1A
100
AcDbEntity
  8
SEIHIN
100
AcDbLine
 10
201.0934511467063
 20
82.30972564561875
 30
0.0
 11
197.7712354316063
 21
82.33732034241871
 31
0.0
  0
ARC
  5
56EC
330
1A
100
AcDbEntity
  8
SEIHIN
100
AcDbCircle
 10
303.5878907938458
 20
83.87000723097946
 30
0.0
 40
1.061320656722035
100
AcDbArc
 50
197.2156224566262
 51
267.4644484294828
  0
ARC
  5
56ED
330
1A
100
AcDbEntity
  8
SEIHIN
100
AcDbCircle
 10
303.1552832739063
 20
83.30972564561875
 30
0.0
 40
0.9999999999999872
100
AcDbArc
 50
194.6232018720967
 51
270.0
  0
LINE
  5
56EE
330
1A
100
AcDbEntity
  8
SEIHIN
100
AcDbLine
 10
303.1552832739063
 20
82.30972564561875
 30
0.0
 11
300.2524622263063
 21
82.30972564561875
 31
0.0
  0
LINE
  5
56EF
330
1A
100
AcDbEntity
  8
NOKITOI
 48
0.5
100
AcDbLine
 10
314.9879155309487
 20
79.0615141448344
 30
0.0
 11
312.9845238028989
 21
85.88054594881226
 31
0.0
  0
LINE
  5
56F0
330
1A
100
AcDbEntity
  8
NOKITOI
 48
0.5
100
AcDbLine
 10
311.7869721847338
 20
84.28054596464358
 30
0.0
 11
313.7744598613334
 21
77.51564457164113
 31
0.0
  0
LINE
  5
56F1
330
1A
100
AcDbEntity
  8
SEIHIN
100
AcDbLine
 10
316.4868184617064
 20
80.20100982161881
 30
0.0
 11
314.1632505944064
 21
88.3015767415188
 31
0.0
  0
LINE
  5
56F2
330
1A
100
AcDbEntity
  8
SEIHIN
100
AcDbLine
 10
312.8887984374063
 20
86.39769953771873
 30
0.0
 11
314.8038876031063
 21
79.72119712601875
 31
0.0
  0
LINE
  5
56F3
330
1A
100
AcDbEntity
  8
SEIHIN
100
AcDbLine
 10
315.2725439408063
 20
88.06116875211875
 30
0.0
 11
317.3972818320063
 21
80.6537759743187
 31
0.0
  0
LINE
  5
56F4
330
1A
100
AcDbEntity
  8
SEIHIN
100
AcDbLine
 10
313.6689530522063
 20
77.33089326131869
 30
0.0
 11
311.7779836170062
 21
83.92330797551869
 31
0.0
  0
LINE
  5
56F5
330
1A
100
AcDbEntity
  8
SEIHIN
100
AcDbLine
 10
311.9915601825063
 20
75.19965983821873
 30
0.0
 11
310.0163243623062
 21
82.08584924081879
 31
0.0
  0
LINE
  5
56F6
330
1A
100
AcDbEntity
  8
SEIHIN
100
AcDbLine
 10
309.6396969904062
 20
81.58544719881877
 30
0.0
 11
311.6099622018296
 21
74.7165866406376
 31
0.0
  0
LINE
  5
56F7
330
1A
100
AcDbEntity
  8
SEIHIN
100
AcDbLine
 10
311.4430629523062
 20
73.28816429201868
 30
0.0
 11
310.2702394197062
 21
73.27180246461876
 31
0.0
  0
ARC
  5
56F8
330
1A
100
AcDbEntity
  8
SEIHIN
100
AcDbCircle
 10
309.0557234702655
 20
81.81041754343667
 30
0.0
 40
0.9993081074985532
100
AcDbArc
 50
15.99910847178162
 51
90.00591016447234
  0
ARC
  5
56F9
330
1A
100
AcDbEntity
  8
SEIHIN
100
AcDbCircle
 10
308.6784594417063
 20
81.30972564561876
 30
0.0
 40
0.9999999999999969
100
AcDbArc
 50
16.00501863099847
 51
90.0
  0
LINE
  5
56FA
330
1A
100
AcDbEntity
  8
SEIHIN
100
AcDbLine
 10
310.2702394197062
 20
73.27180246461876
 30
0.0
 11
309.6874871043063
 21
73.2699450147187
 31
0.0
  0
LINE
  5
56FB
330
1A
100
AcDbEntity
  8
SEIHIN
100
AcDbLine
 10
309.0556203898063
 20
82.80972564561876
 30
0.0
 11
303.5409387318063
 21
82.80972564561876
 31
0.0
  0
LINE
  5
56FC
330
1A
100
AcDbEntity
  8
SEIHIN
100
AcDbLine
 10
303.1552832739063
 20
82.30972564561875
 30
0.0
 11
308.6784594417063
 21
82.30972564561875
 31
0.0
  0
ARC
  5
56FD
330
1A
100
AcDbEntity
  8
NOKITOI
 48
0.5
100
AcDbCircle
 10
316.906814548343
 20
79.62527522990797
 30
0.0
 40
2.000000000000056
100
AcDbArc
 50
196.3724734766114
 51
267.3988776934213
  0
ARC
  5
56FE
330
1A
100
AcDbEntity
  8
NOKITOI
 48
0.5
100
AcDbCircle
 10
315.6933588787288
 20
78.0794056567114
 30
0.0
 40
2.000000000000095
100
AcDbArc
 50
196.3724734765215
 51
267.3333119235504
  0
ARC
  5
56FF
330
1A
100
AcDbEntity
  8
SEIHIN
100
AcDbCircle
 10
317.6928827587403
 20
80.55599230263132
 30
0.0
 40
1.257220605305867
100
AcDbArc
 50
196.4008068346513
 51
267.324699595614
  0
ARC
  5
5700
330
1A
100
AcDbEntity
  8
SEIHIN
100
AcDbCircle
 10
313.9127730693062
 20
75.75054933283734
 30
0.0
 40
1.99863408148842
100
AcDbArc
 50
195.9997399801158
 51
267.5181667677041
  0
ARC
  5
5701
330
1A
100
AcDbEntity
  8
SEIHIN
100
AcDbCircle
 10
317.7005545121151
 20
80.56574890504412
 30
0.0
 40
3.017274745395495
100
AcDbArc
 50
196.2545643953221
 51
267.4684040303106
  0
ARC
  5
5702
330
1A
100
AcDbEntity
  8
SEIHIN
100
AcDbCircle
 10
315.5914281496063
 20
77.88233636781876
 30
0.0
 40
1.999999999999993
100
AcDbArc
 50
196.0050186309984
 51
267.6038484566002
  0
LINE
  5
5703
330
1A
100
AcDbEntity
  8
SEIHIN
100
AcDbLine
 10
313.4449307177062
 20
73.2699450147187
 30
0.0
 11
313.2347215308062
 21
73.27917327251873
 31
0.0
  0
LINE
  5
5704
330
1A
100
AcDbEntity
  8
SEIHIN
100
AcDbLine
 10
313.2347215308062
 20
73.27917327251873
 30
0.0
 11
312.6075117427062
 21
73.3069706823187
 31
0.0
  0
LINE
  5
5705
330
1A
100
AcDbEntity
  8
SEIHIN
100
AcDbLine
 10
317.3972818320063
 20
80.6537759743187
 30
0.0
 11
317.4629378296062
 21
80.51269967211874
 31
0.0
  0
LINE
  5
5706
330
1A
100
AcDbEntity
  8
SEIHIN
100
AcDbLine
 10
317.4629378296062
 20
80.51269967211874
 30
0.0
 11
317.5688193180062
 21
80.39861161531872
 31
0.0
  0
LINE
  5
5707
330
1A
100
AcDbEntity
  8
SEIHIN
100
AcDbLine
 10
317.5688193180062
 20
80.39861161531872
 30
0.0
 11
317.7046876163062
 21
80.32259809571872
 31
0.0
  0
LINE
  5
5708
330
1A
100
AcDbEntity
  8
SEIHIN
100
AcDbLine
 10
317.7046876163062
 20
80.32259809571872
 30
0.0
 11
317.8580822874063
 21
80.29202967101879
 31
0.0
  0
LINE
  5
5709
330
1A
100
AcDbEntity
  8
SEIHIN
100
AcDbLine
 10
311.5415421640062
 20
74.59403046801867
 30
0.0
 11
311.6099622018063
 21
74.71658664071878
 31
0.0
  0
LINE
  5
570A
330
1A
100
AcDbEntity
  8
SEIHIN
100
AcDbLine
 10
312.3644918360063
 20
73.31784689031872
 30
0.0
 11
311.4430629523062
 21
73.28816429201868
 31
0.0
  0
LINE
  5
570B
330
1A
100
AcDbEntity
  8
SEIHIN
100
AcDbLine
 10
312.6075117427062
 20
73.3069706823187
 30
0.0
 11
312.3644918360063
 21
73.31784689031872
 31
0.0
  0
ARC
  5
570C
330
1A
100
AcDbEntity
  8
SEIHIN
100
AcDbCircle
 10
313.5324372992063
 20
75.2680297471187
 30
0.0
 40
1.999999999999993
100
AcDbArc
 50
196.0050186309984
 51
267.4923205682996
  0
ARC
  5
570D
330
1A
100
AcDbEntity
  8
NOKITOI
 48
0.5
100
AcDbCircle
 10
310.8275226760362
 20
83.99866542210849
 30
0.0
 40
1.000000000000015
100
AcDbArc
 50
16.3724734765164
 51
90.0
  0
LINE
  5
570E
330
1A
100
AcDbEntity
  8
NOKITOI
 48
0.5
100
AcDbLine
 10
312.0250743540779
 20
86.59866529494058
 30
0.0
 11
307.344025979543
 21
86.59866542210796
 31
0.0
  0
LINE
  5
570F
330
1A
100
AcDbEntity
  8
SEIHIN
100
AcDbLine
 10
313.8869979671064
 20
88.50972733691879
 30
0.0
 11
308.1018456510064
 21
88.50972733691879
 31
0.0
  0
LINE
  5
5710
330
1A
100
AcDbEntity
  8
SEIHIN
100
AcDbLine
 10
308.1049966255063
 20
86.75972564561869
 30
0.0
 11
312.4083297861063
 21
86.75972564561869
 31
0.0
  0
ARC
  5
5711
330
1A
100
AcDbEntity
  8
SEIHIN
100
AcDbCircle
 10
310.3361272939063
 20
83.50972564561869
 30
0.0
 40
1.499999999999995
100
AcDbArc
 50
16.00501863099847
 51
90.0
  0
LINE
  5
5712
330
1A
100
AcDbEntity
  8
SEIHIN
100
AcDbLine
 10
308.6771704878062
 20
89.50972564561869
 30
0.0
 11
313.3500688434063
 21
89.50972564561869
 31
0.0
  0
ARC
  5
5713
330
1A
100
AcDbEntity
  8
NOKITOI
 48
0.5
100
AcDbCircle
 10
305.3469240987493
 20
85.9986654221085
 30
0.0
 40
0.9999999999999346
100
AcDbArc
 50
194.797024498788
 51
270.0
  0
ARC
  5
5714
330
1A
100
AcDbEntity
  8
NOKITOI
 48
0.5
100
AcDbCircle
 10
307.344025979543
 20
88.59866542210795
 30
0.0
 40
1.999999999999926
100
AcDbArc
 50
195.0887049995158
 51
270.0
  0
LINE
  5
5715
330
1A
100
AcDbEntity
  8
NOKITOI
 48
0.5
100
AcDbLine
 10
305.3469240987493
 20
84.99866542210851
 30
0.0
 11
310.8275226760362
 21
84.99866542210851
 31
0.0
  0
ARC
  5
5716
330
1A
100
AcDbEntity
  8
SEIHIN
100
AcDbCircle
 10
308.1119330942896
 20
89.76790541532659
 30
0.0
 40
1.258217094909471
100
AcDbArc
 50
195.7987035537829
 51
269.5487833419029
  0
ARC
  5
5717
330
1A
100
AcDbEntity
  8
SEIHIN
100
AcDbCircle
 10
308.6771704877978
 20
90.50972564558824
 30
0.0
 40
0.9999999999695331
100
AcDbArc
 50
195.4305425190536
 51
270.0000000004852
  0
ARC
  5
5718
330
1A
100
AcDbEntity
  8
SEIHIN
100
AcDbCircle
 10
308.1155461202414
 20
89.7726265649563
 30
0.0
 40
3.013148171907152
100
AcDbArc
 50
197.0368743662149
 51
268.3293785612601
  0
ARC
  5
5719
330
1A
100
AcDbEntity
  8
SEIHIN
100
AcDbCircle
 10
305.2354489413063
 20
86.00972564561869
 30
0.0
 40
1.000000000000005
100
AcDbArc
 50
194.9290804049024
 51
270.0
  0
LINE
  5
571A
330
1A
100
AcDbEntity
  8
SEIHIN
100
AcDbLine
 10
310.3361272939063
 20
85.00972564561868
 30
0.0
 11
305.2354489413063
 21
85.00972564561868
 31
0.0
  0
ARC
  5
571B
330
1A
100
AcDbEntity
  8
NOKITOI
 48
0.5
100
AcDbCircle
 10
312.0250743269112
 20
85.59866529494058
 30
0.0
 40
1.000000000000037
100
AcDbArc
 50
16.37248012523539
 51
89.99999844346808
  0
LINE
  5
571C
330
1A
100
AcDbEntity
  8
SEIHIN
100
AcDbLine
 10
314.0528031877065
 20
88.45797560411881
 30
0.0
 11
313.9671662143064
 21
88.49866881271879
 31
0.0
  0
ARC
  5
571D
330
1A
100
AcDbEntity
  8
SEIHIN
100
AcDbCircle
 10
313.8891777498196
 20
88.22522696634583
 30
0.0
 40
0.2845087209714636
100
AcDbArc
 50
15.56649462008635
 51
90.43897976546935
  0
ARC
  5
571E
330
1A
100
AcDbEntity
  8
SEIHIN
100
AcDbCircle
 10
312.4056261673993
 20
86.25629367234855
 30
0.0
 40
0.5034392329415382
100
AcDbArc
 50
16.31271551189881
 51
89.69230311072514
  0
ARC
  5
571F
330
1A
100
AcDbEntity
  8
SEIHIN
100
AcDbCircle
 10
313.3500688433453
 20
87.50972564559658
 30
0.0
 40
2.000000000022097
100
AcDbArc
 50
16.00501863189556
 51
89.99999999825268
  0
LINE
  5
5720
330
1A
100
AcDbEntity
  8
SEIHIN
100
AcDbLine
 10
394.4368341258063
 20
79.03297065991882
 30
0.0
 11
367.5941331527065
 21
76.93209694785885
 31
0.0
  0
LINE
  5
5721
330
1A
100
AcDbEntity
  8
SEIHIN
100
AcDbLine
 10
394.1081837165063
 20
80.18983673741876
 30
0.0
 11
370.7358713486063
 21
79.60017847871871
 31
0.0
  0
ARC
  5
5722
330
1A
100
AcDbEntity
  8
SEIHIN
100
AcDbCircle
 10
357.3163553749064
 20
1075.009725645618
 30
0.0
 40
998.2499999999999
100
AcDbArc
 50
270.5899160467999
 51
272.1204520666002
  0
LINE
  5
5723
330
1A
100
AcDbEntity
  8
SEIHIN
100
AcDbLine
 10
329.3058771980063
 20
79.90387041601877
 30
0.0
 11
385.3268335519062
 21
79.90387041601877
 31
0.0
  0
ARC
  5
5724
330
1A
100
AcDbEntity
  8
SEIHIN
100
AcDbCircle
 10
357.3163553749064
 20
1075.009725645618
 30
0.0
 40
997.75
100
AcDbArc
 50
269.4755472452001
 51
270.5228592946996
  0
LINE
  5
5725
330
1A
100
AcDbEntity
  8
SEIHIN
100
AcDbLine
 10
343.0817553094066
 20
78.61139981311879
 30
0.0
 11
343.7246361068064
 21
78.57057808201881
 31
0.0
  0
LINE
  5
5726
330
1A
100
AcDbEntity
  8
SEIHIN
100
AcDbLine
 10
343.7246361068064
 20
78.57057808201881
 30
0.0
 11
344.2938902667065
 21
78.4720567264188
 31
0.0
  0
LINE
  5
5727
330
1A
100
AcDbEntity
  8
SEIHIN
100
AcDbLine
 10
344.2938902667065
 20
78.4720567264188
 30
0.0
 11
344.7395243934065
 21
78.3247261517188
 31
0.0
  0
LINE
  5
5728
330
1A
100
AcDbEntity
  8
SEIHIN
100
AcDbLine
 10
344.7395243934065
 20
78.3247261517188
 30
0.0
 11
345.0153299859066
 21
78.13896687931879
 31
0.0
  0
LINE
  5
5729
330
1A
100
AcDbEntity
  8
SEIHIN
100
AcDbLine
 10
345.0153299859066
 20
78.13896687931879
 30
0.0
 11
345.0616427949066
 21
78.06989627191882
 31
0.0
  0
LINE
  5
572A
330
1A
100
AcDbEntity
  8
SEIHIN
100
AcDbLine
 10
345.6496595496021
 20
76.82790317612512
 30
0.0
 11
345.0616427949066
 21
78.06989627191882
 31
0.0
  0
ARC
  5
572B
330
1A
100
AcDbEntity
  8
SEIHIN
100
AcDbCircle
 10
348.0867961141126
 20
76.01334993609201
 30
0.0
 40
0.9597225350061801
100
AcDbArc
 50
201.4752064740967
 51
271.4542472819353
  0
ARC
  5
572C
330
1A
100
AcDbEntity
  8
SEIHIN
100
AcDbCircle
 10
348.1476283559241
 20
78.27344461140938
 30
0.0
 40
0.9725882224986182
100
AcDbArc
 50
191.2418861876285
 51
272.1225887536094
  0
LINE
  5
572D
330
1A
100
AcDbEntity
  8
SEIHIN
100
AcDbLine
 10
346.9592125178063
 20
79.56360475721874
 30
0.0
 11
347.1937012830062
 21
78.08383714821866
 31
0.0
  0
LINE
  5
572E
330
1A
100
AcDbEntity
  8
SEIHIN
100
AcDbLine
 10
348.1836507766063
 20
75.05142966191875
 30
0.0
 11
348.1836507766063
 21
77.30152371141866
 31
0.0
  0
LINE
  5
572F
330
1A
100
AcDbEntity
  8
SEIHIN
100
AcDbLine
 10
346.9592125178063
 20
76.81345632191869
 30
0.0
 11
347.1937012830062
 21
75.66199688451877
 31
0.0
  0
LINE
  5
5730
330
1A
100
AcDbEntity
  8
SEIHIN
100
AcDbLine
 10
346.9592125178121
 20
79.56360475718122
 30
0.0
 11
346.9592125178121
 21
76.81345632187618
 31
0.0
  0
LINE
  5
5731
330
1A
100
AcDbEntity
  8
CENTER_L
 48
5.0
100
AcDbLine
 10
357.4215908756118
 20
84.5988241141506
 30
0.0
 11
357.4215908756118
 21
68.11391934547032
 31
0.0
  0
LINE
  5
5732
330
1A
100
AcDbEntity
  8
SEIHIN
100
AcDbLine
 10
369.0953926234062
 20
79.57941453311878
 30
0.0
 11
367.5941331527062
 21
79.56278216551869
 31
0.0
  0
ARC
  5
5733
330
1A
100
AcDbEntity
  8
SEIHIN
100
AcDbCircle
 10
366.5407861597839
 20
75.96066363362554
 30
0.0
 40
0.9173006867978102
100
AcDbArc
 50
262.5162655944376
 51
342.4098566957626
  0
ARC
  5
5734
330
1A
100
AcDbEntity
  8
SEIHIN
100
AcDbCircle
 10
366.4497505282299
 20
78.28108672724036
 30
0.0
 40
0.9802292217158777
100
AcDbArc
 50
268.3375286698142
 51
350.0365716984172
  0
LINE
  5
5735
330
1A
100
AcDbEntity
  8
SEIHIN
100
AcDbLine
 10
367.4151963165063
 20
75.68344994741869
 30
0.0
 11
367.5941331527062
 21
76.81263599651868
 31
0.0
  0
LINE
  5
5736
330
1A
100
AcDbEntity
  8
SEIHIN
100
AcDbLine
 10
367.4151963165063
 20
78.11148791531877
 30
0.0
 11
367.5941331527062
 21
79.56278216551869
 31
0.0
  0
LINE
  5
5737
330
1A
100
AcDbEntity
  8
SEIHIN
100
AcDbLine
 10
367.5941331527064
 20
76.81263599651869
 30
0.0
 11
367.5941331527064
 21
79.56278216551908
 31
0.0
  0
LINE
  5
5738
330
1A
100
AcDbEntity
  8
SEIHIN
100
AcDbLine
 10
366.4213125818063
 20
77.3012701065187
 30
0.0
 11
366.4213125818063
 21
75.0511766276187
 31
0.0
  0
LINE
  5
5739
330
1A
100
AcDbEntity
  8
SEIHIN
100
AcDbLine
 10
370.7358713486063
 20
79.60017847871871
 30
0.0
 11
370.1034734044062
 21
79.59185378851874
 31
0.0
  0
LINE
  5
573A
330
1A
100
AcDbEntity
  8
SEIHIN
100
AcDbLine
 10
370.1034734044062
 20
79.59185378851874
 30
0.0
 11
369.5815213610062
 21
79.58528566871871
 31
0.0
  0
LINE
  5
573B
330
1A
100
AcDbEntity
  8
SEIHIN
100
AcDbLine
 10
369.5815213610062
 20
79.58528566871871
 30
0.0
 11
369.2288979239062
 21
79.58100327021873
 31
0.0
  0
LINE
  5
573C
330
1A
100
AcDbEntity
  8
SEIHIN
100
AcDbLine
 10
369.2288979239062
 20
79.58100327021873
 30
0.0
 11
369.0953926234062
 21
79.57941453311878
 31
0.0
  0
ARC
  5
573D
330
1A
100
AcDbEntity
  8
SEIHIN
100
AcDbCircle
 10
396.5209913907063
 20
80.58223381181869
 30
0.0
 40
7.500000000000006
100
AcDbArc
 50
272.2576784259002
 51
349.9484262153003
  0
ARC
  5
573E
330
1A
100
AcDbEntity
  8
NOKITOI
 48
0.5
100
AcDbCircle
 10
396.4679091771913
 20
80.59148886346145
 30
0.0
 40
5.00000000000004
100
AcDbArc
 50
271.9779273652142
 51
349.9208000871218
  0
ARC
  5
573F
330
1A
100
AcDbEntity
  8
SEIHIN
100
AcDbCircle
 10
395.7426948203601
 20
81.47431598088344
 30
0.0
 40
7.929268851969109
100
AcDbArc
 50
274.7164238634824
 51
347.4896807791273
  0
ARC
  5
5740
330
1A
100
AcDbEntity
  8
SEIHIN
100
AcDbCircle
 10
396.3521615973063
 20
80.77574622601877
 30
0.0
 40
4.999999999999999
100
AcDbArc
 50
272.2484030990996
 51
349.9577015421031
  0
ARC
  5
5741
330
1A
100
AcDbEntity
  8
NOKITOI
 48
0.5
100
AcDbCircle
 10
396.4679091771913
 20
80.59148886346145
 30
0.0
 40
3.39999999999992
100
AcDbArc
 50
271.9779273652077
 51
349.9208000871218
  0
ARC
  5
5742
330
1A
100
AcDbEntity
  8
SEIHIN
100
AcDbCircle
 10
393.824128303486
 20
83.55647573427166
 30
0.0
 40
4.564811652573939
100
AcDbArc
 50
277.7137031452129
 51
346.8447037563754
  0
LINE
  5
5743
330
1A
100
AcDbEntity
  8
SEIHIN
100
AcDbLine
 10
399.7360898505063
 20
81.59581504831871
 30
0.0
 11
399.9104242788632
 21
82.24318172195387
 31
0.0
  0
ARC
  5
5744
330
1A
100
AcDbEntity
  8
SEIHIN
100
AcDbCircle
 10
393.9866560985253
 20
83.49128225109978
 30
0.0
 40
6.053823947327645
100
AcDbArc
 50
272.5123815873975
 51
341.7537006982685
  0
ARC
  5
5745
330
1A
100
AcDbEntity
  8
SEIHIN
100
AcDbCircle
 10
394.0159799903795
 20
83.41174599691999
 30
0.0
 40
3.223228320111893
100
AcDbArc
 50
271.6392276948039
 51
344.7819689895252
  0
DIMENSION
  5
5746
330
1A
100
AcDbEntity
  8
SUNPOU
100
AcDbDimension
  2
*D5
 10
413.1608540985062
 20
241.9824544355078
 30
0.0
 11
332.9609486618563
 21
246.9824544355078
 31
0.0
 70
    32
  3
STANDARD
100
AcDbAlignedDimension
 13
252.7610432252063
 23
212.7689370380187
 33
0.0
 14
413.1608540985062
 24
157.4097256456186
 34
0.0
100
AcDbRotatedDimension
1001
ACAD
1000
DSTYLE
1002
{
1070
    41
1040
7.0
1070
    42
1040
6.0
1070
    43
1040
14.0
1070
    44
1040
3.0
1070
    73
1070
     0
1070
    74
1070
     0
1070
    77
1070
     3
1070
   140
1040
6.0
1070
   141
1040
30.0
1070
   147
1040
2.0
1070
   172
1070
     1
1070
   176
1070
   256
1070
   177
1070
   256
1070
   178
1070
   256
1070
   271
1070
     0
1070
   272
1070
     0
1070
   341
1005
6D
1070
     5
1000
OPEN
1070
   371
1070
    -1
1070
   372
1070
    -1
1002
}
  0
LINE
  5
5747
330
1A
100
AcDbEntity
  8
SEIHIN
100
AcDbLine
 10
409.4582089759062
 20
135.0097256456187
 30
0.0
 11
292.4142607740063
 21
135.0097256456187
 31
0.0
  0
LINE
  5
5748
330
1A
100
AcDbEntity
  8
SEIHIN
100
AcDbLine
 10
282.1356639399064
 20
147.4097256456186
 30
0.0
 11
405.0195498003063
 21
147.4097256456186
 31
0.0
  0
ARC
  5
5749
330
1A
100
AcDbEntity
  8
NOKITOI
 48
0.5
100
AcDbCircle
 10
-72.68620729684005
 20
-13.86099393832648
 30
0.0
 40
391.6000000004494
100
AcDbArc
 50
30.84341462564419
 51
31.09487578279883
  0
LINE
  5
574A
330
1A
100
AcDbEntity
  8
SEIHIN
100
AcDbLine
 10
254.1717080965063
 20
187.9207442498186
 30
0.0
 11
254.5408376583063
 21
188.3097256456187
 31
0.0
  0
LINE
  5
574B
330
1A
100
AcDbEntity
  8
SEIHIN
100
AcDbLine
 10
257.6207532404064
 20
187.9207442498186
 30
0.0
 11
257.8383514218063
 21
188.3097256456187
 31
0.0
  0
LINE
  5
574C
330
1A
100
AcDbEntity
  8
SEIHIN
100
AcDbLine
 10
252.7637841557063
 20
212.6642651255187
 30
0.0
 11
254.0663553749063
 21
187.8097256456187
 31
0.0
  0
LINE
  5
574D
330
1A
100
AcDbEntity
  8
SEIHIN
100
AcDbLine
 10
254.0663553749063
 20
187.8097256456187
 30
0.0
 11
252.0690963054063
 21
187.8097256456187
 31
0.0
  0
LINE
  5
574E
330
1A
100
AcDbEntity
  8
SEIHIN
100
AcDbLine
 10
252.0690963054063
 20
187.8097256456187
 30
0.0
 11
201.0934511467063
 21
187.8097256456187
 31
0.0
  0
LINE
  5
574F
330
1A
100
AcDbEntity
  8
SEIHIN
100
AcDbLine
 10
197.7615057064062
 20
187.8374822227187
 30
0.0
 11
194.4304851001063
 21
187.9207442498186
 31
0.0
  0
LINE
  5
5750
330
1A
100
AcDbEntity
  8
SEIHIN
100
AcDbLine
 10
201.0934511467063
 20
187.8097256456187
 30
0.0
 11
197.7615057064062
 21
187.8374822227187
 31
0.0
  0
LINE
  5
5751
330
1A
100
AcDbEntity
  8
SEIHIN
100
AcDbLine
 10
292.6258274606066
 20
131.1630579387187
 30
0.0
 11
293.3778294614064
 21
129.8176916991188
 31
0.0
  0
LINE
  5
5752
330
1A
100
AcDbEntity
  8
SEIHIN
100
AcDbLine
 10
294.3767044793063
 20
130.1338589962186
 30
0.0
 11
293.8838060734062
 21
131.3762921761186
 31
0.0
  0
LINE
  5
5753
330
1A
100
AcDbEntity
  8
SEIHIN
100
AcDbLine
 10
294.9275946850062
 20
128.7305100347186
 30
0.0
 11
294.3767044793063
 21
130.1338589962186
 31
0.0
  0
LINE
  5
5754
330
1A
100
AcDbEntity
  8
SEIHIN
100
AcDbLine
 10
293.3778294614064
 20
129.8176916991188
 30
0.0
 11
293.8538917592065
 21
128.7305104290188
 31
0.0
  0
LINE
  5
5755
330
1A
100
AcDbEntity
  8
SEIHIN
100
AcDbLine
 10
291.2534305146063
 20
132.6528350566188
 30
0.0
 11
290.5307575870065
 21
133.0097269867188
 31
0.0
  0
LINE
  5
5756
330
1A
100
AcDbEntity
  8
SEIHIN
100
AcDbLine
 10
291.2534305146063
 20
132.6528350566188
 30
0.0
 11
291.9061311772066
 21
132.1156034921187
 31
0.0
  0
LINE
  5
5757
330
1A
100
AcDbEntity
  8
SEIHIN
100
AcDbLine
 10
291.9061311772066
 20
132.1156034921187
 30
0.0
 11
292.6258274606066
 21
131.1630579387187
 31
0.0
  0
LINE
  5
5758
330
1A
100
AcDbEntity
  8
SEIHIN
100
AcDbLine
 10
290.5307575870065
 20
133.0097269867188
 30
0.0
 11
289.4400721657066
 21
135.0097269867188
 31
0.0
  0
LINE
  5
5759
330
1A
100
AcDbEntity
  8
SEIHIN
100
AcDbLine
 10
293.3722915270062
 20
132.6528327375187
 30
0.0
 11
292.4142607740063
 21
135.0097256456187
 31
0.0
  0
LINE
  5
575A
330
1A
100
AcDbEntity
  8
SEIHIN
100
AcDbLine
 10
289.4400860728062
 20
135.0097256456187
 30
0.0
 11
292.4142607740063
 21
135.0097256456187
 31
0.0
  0
LINE
  5
575B
330
1A
100
AcDbEntity
  8
SEIHIN
100
AcDbLine
 10
293.8838060734062
 20
131.3762921761186
 30
0.0
 11
293.5289587720062
 21
132.2632193932187
 31
0.0
  0
LINE
  5
575C
330
1A
100
AcDbEntity
  8
SEIHIN
100
AcDbLine
 10
293.5289587720062
 20
132.2632193932187
 30
0.0
 11
293.3722915270062
 21
132.6528327375187
 31
0.0
  0
LINE
  5
575D
330
1A
100
AcDbEntity
  8
SEIHIN
100
AcDbLine
 10
289.4400860728062
 20
135.0097256456187
 30
0.0
 11
287.5455741375062
 21
135.0097256456187
 31
0.0
  0
LINE
  5
575E
330
1A
100
AcDbEntity
  8
SEIHIN
100
AcDbLine
 10
278.5663553749063
 20
186.0097256456187
 30
0.0
 11
278.1711078406063
 21
155.8167628187186
 31
0.0
  0
LINE
  5
575F
330
1A
100
AcDbEntity
  8
SEIHIN
100
AcDbLine
 10
280.2175619038064
 20
151.5420547058187
 30
0.0
 11
279.7663553749064
 21
186.0097256456187
 31
0.0
  0
LINE
  5
5760
330
1A
100
AcDbEntity
  8
NOKITOI
 48
0.5
100
AcDbLine
 10
269.5404568110949
 20
183.4986654221085
 30
0.0
 11
277.0153479007939
 21
183.4986654221075
 31
0.0
  0
LINE
  5
5761
330
1A
100
AcDbEntity
  8
NOKITOI
 48
0.5
100
AcDbLine
 10
269.5404568110949
 20
181.9986654221084
 30
0.0
 11
277.0153479007936
 21
181.9986654221075
 31
0.0
  0
ARC
  5
5762
330
1A
100
AcDbEntity
  8
NOKITOI
 48
0.5
100
AcDbCircle
 10
-72.68620729646534
 20
-13.86099393809456
 30
0.0
 40
391.6000000000092
100
AcDbArc
 50
28.28464033564904
 51
30.14414153245299
  0
LINE
  5
5763
330
1A
100
AcDbEntity
  8
SEIHIN
100
AcDbLine
 10
261.8093018177063
 20
186.0097256456187
 30
0.0
 11
278.5663553749063
 21
186.0097256456187
 31
0.0
  0
LINE
  5
5764
330
1A
100
AcDbEntity
  8
SEIHIN
100
AcDbLine
 10
257.5586225563063
 20
187.8097256456187
 30
0.0
 11
257.6207532404064
 21
187.9207442498186
 31
0.0
  0
LINE
  5
5765
330
1A
100
AcDbEntity
  8
SEIHIN
100
AcDbLine
 10
254.0663553749063
 20
187.8097256456187
 30
0.0
 11
254.1717080965063
 21
187.9207442498186
 31
0.0
  0
LINE
  5
5766
330
1A
100
AcDbEntity
  8
SEIHIN
100
AcDbLine
 10
254.0663553749063
 20
187.8097256456187
 30
0.0
 11
257.5586225563063
 21
187.8097256456187
 31
0.0
  0
ARC
  5
5767
330
1A
100
AcDbEntity
  8
NOKITOI
 48
0.5
100
AcDbCircle
 10
269.5404568110949
 20
190.4986654221085
 30
0.0
 40
7.000000000000143
100
AcDbArc
 50
210.8434146257332
 51
270.0
  0
ARC
  5
5768
330
1A
100
AcDbEntity
  8
NOKITOI
 48
0.5
100
AcDbCircle
 10
269.5404568110949
 20
190.4986654221085
 30
0.0
 40
8.499999999999944
100
AcDbArc
 50
245.0556485248561
 51
270.0
  0
LINE
  5
5769
330
1A
100
AcDbEntity
  8
NOKITOI
 48
0.5
100
AcDbLine
 10
275.1754456095271
 20
174.6248005132001
 30
0.0
 11
279.9254050012804
 21
179.7293697223622
 31
0.0
  0
LINE
  5
576A
330
1A
100
AcDbEntity
  8
NOKITOI
 48
0.5
100
AcDbLine
 10
274.0773288971983
 20
175.6466320482896
 30
0.0
 11
278.1757595657692
 21
180.051032438111
 31
0.0
  0
ARC
  5
576B
330
1A
100
AcDbEntity
  8
NOKITOI
 48
0.5
100
AcDbCircle
 10
279.5679124588438
 20
170.5374743728422
 30
0.0
 40
7.499999999999871
100
AcDbArc
 50
137.0608680432694
 51
171.0867903269343
  0
ARC
  5
576C
330
1A
100
AcDbEntity
  8
NOKITOI
 48
0.5
100
AcDbCircle
 10
279.5679124588438
 20
170.5374743728422
 30
0.0
 40
5.999999999999833
100
AcDbArc
 50
137.0608680432694
 51
207.6312195127922
  0
ARC
  5
576D
330
1A
100
AcDbEntity
  8
NOKITOI
 48
0.5
100
AcDbCircle
 10
277.0153479007936
 20
181.4986654221075
 30
0.0
 40
2.000000000000133
100
AcDbArc
 50
29.74488129691324
 51
90.0
  0
LINE
  5
576E
330
1A
100
AcDbEntity
  8
NOKITOI
 48
0.5
100
AcDbLine
 10
278.2166091659406
 20
180.4042404266361
 30
0.0
 11
277.4494694718561
 21
181.7467348912858
 31
0.0
  0
ARC
  5
576F
330
1A
100
AcDbEntity
  8
NOKITOI
 48
0.5
100
AcDbCircle
 10
277.0153479007936
 20
181.4986654221075
 30
0.0
 40
0.5000000000000898
100
AcDbArc
 50
29.74488129691617
 51
90.0
  0
ARC
  5
5770
330
1A
100
AcDbEntity
  8
NOKITOI
 48
0.5
100
AcDbCircle
 10
279.5593660971704
 20
180.0699802340588
 30
0.0
 40
0.4999999999999604
100
AcDbArc
 50
317.0608680432694
 51
29.74488129696686
  0
ARC
  5
5771
330
1A
100
AcDbEntity
  8
NOKITOI
 48
0.5
100
AcDbCircle
 10
277.9561362233031
 20
180.2553987451291
 30
0.0
 40
0.300000000000178
100
AcDbArc
 50
317.0608680432883
 51
29.74488129692637
  0
LINE
  5
5772
330
1A
100
AcDbEntity
  8
NOKITOI
 48
0.5
100
AcDbLine
 10
279.9934876682328
 20
180.318049703237
 30
0.0
 11
278.7518341850431
 21
182.4909432988207
 31
0.0
  0
LINE
  5
5773
330
1A
100
AcDbEntity
  8
SEIHIN
100
AcDbLine
 10
279.7663553749064
 20
186.0097256456187
 30
0.0
 11
278.5663553749063
 21
186.0097256456187
 31
0.0
  0
ARC
  5
5774
330
1A
100
AcDbEntity
  8
SEIHIN
100
AcDbCircle
 10
255.2689095310263
 20
212.6334253666261
 30
0.0
 40
2.000078214151347
100
AcDbArc
 50
75.03821310145908
 51
182.9866375163967
  0
ARC
  5
5775
330
1A
100
AcDbEntity
  8
SEIHIN
100
AcDbCircle
 10
254.7610432252063
 20
212.7689370380187
 30
0.0
 40
1.999999999999988
100
AcDbArc
 50
75.06858282190032
 51
182.9999999999991
  0
LINE
  5
5776
330
1A
100
AcDbEntity
  8
SEIHIN
100
AcDbLine
 10
254.5408376583063
 20
188.3097256456187
 30
0.0
 11
253.2715479964063
 21
212.5292151812186
 31
0.0
  0
LINE
  5
5777
330
1A
100
AcDbEntity
  8
SEIHIN
100
AcDbLine
 10
254.7610432252063
 20
214.7689370380187
 30
0.0
 11
201.0934511467063
 21
214.7689370266186
 31
0.0
  0
LINE
  5
5778
330
1A
100
AcDbEntity
  8
SEIHIN
100
AcDbLine
 10
199.4395688809063
 20
214.7670714674186
 30
0.0
 11
194.4790610022063
 21
214.7390904388187
 31
0.0
  0
LINE
  5
5779
330
1A
100
AcDbEntity
  8
SEIHIN
100
AcDbLine
 10
201.0934511467063
 20
214.7689370380187
 30
0.0
 11
199.4395688809063
 21
214.7670714674186
 31
0.0
  0
ARC
  5
577A
330
1A
100
AcDbEntity
  8
SEIHIN
100
AcDbCircle
 10
257.2696883118037
 20
210.8545875696787
 30
0.0
 40
0.5033515806864754
100
AcDbArc
 50
75.63754904813375
 51
179.5068598729307
  0
LINE
  5
577B
330
1A
100
AcDbEntity
  8
SEIHIN
100
AcDbLine
 10
270.7663553749064
 20
212.0355415290187
 30
0.0
 11
270.7663553749064
 21
211.4339395884187
 31
0.0
  0
LINE
  5
577C
330
1A
100
AcDbEntity
  8
NOKITOI
 48
0.5
100
AcDbLine
 10
268.6402649381221
 20
198.9986654221085
 30
0.0
 11
274.2482929798522
 21
198.9986654221085
 31
0.0
  0
LINE
  5
577D
330
1A
100
AcDbEntity
  8
NOKITOI
 48
0.5
100
AcDbLine
 10
268.6402649381221
 20
200.4986654221085
 30
0.0
 11
274.9852441103326
 21
200.4986654221085
 31
0.0
  0
LINE
  5
577E
330
1A
100
AcDbEntity
  8
NOKITOI
 48
0.5
100
AcDbLine
 10
264.0759921817444
 20
204.3880786131818
 30
0.0
 11
279.3169945466421
 21
201.420093832651
 31
0.0
  0
LINE
  5
577F
330
1A
100
AcDbEntity
  8
NOKITOI
 48
0.5
100
AcDbLine
 10
264.1759924867961
 20
205.9986605266723
 30
0.0
 11
281.5582838911244
 21
202.6136878651882
 31
0.0
  0
ARC
  5
5780
330
1A
100
AcDbEntity
  8
SEIHIN
100
AcDbCircle
 10
268.2663553749064
 20
211.4339395884187
 30
0.0
 40
2.499999999999982
100
AcDbArc
 50
294.9999999999996
 51
0.0
  0
ARC
  5
5781
330
1A
100
AcDbEntity
  8
NOKITOI
 48
0.5
100
AcDbCircle
 10
268.6402649381221
 20
191.9986654221085
 30
0.0
 40
8.5
100
AcDbArc
 50
90.0
 51
122.4778405323751
  0
ARC
  5
5782
330
1A
100
AcDbEntity
  8
NOKITOI
 48
0.5
100
AcDbCircle
 10
268.6402649381221
 20
191.9986654221085
 30
0.0
 40
7.0
100
AcDbArc
 50
90.0
 51
211.0948757823082
  0
LINE
  5
5783
330
1A
100
AcDbEntity
  8
NOKITOI
 48
0.5
100
AcDbLine
 10
262.575992783558
 20
207.5654878844819
 30
0.0
 11
262.5759909862437
 21
198.0761662550806
 31
0.0
  0
LINE
  5
5784
330
1A
100
AcDbEntity
  8
NOKITOI
 48
0.5
100
AcDbLine
 10
258.7759929567279
 20
208.479773712408
 30
0.0
 11
258.7759900056117
 21
192.8986653120326
 31
0.0
  0
LINE
  5
5785
330
1A
100
AcDbEntity
  8
NOKITOI
 48
0.5
100
AcDbLine
 10
257.175993182716
 20
209.6729307839248
 30
0.0
 11
257.1759896457443
 21
190.9986620842086
 31
0.0
  0
LINE
  5
5786
330
1A
100
AcDbEntity
  8
NOKITOI
 48
0.5
100
AcDbLine
 10
264.0759921817444
 20
204.3880786131818
 30
0.0
 11
264.0759911932797
 21
199.1692585065148
 31
0.0
  0
LINE
  5
5787
330
1A
100
AcDbEntity
  8
SEIHIN
100
AcDbLine
 10
256.7663553749064
 20
190.5097256456188
 30
0.0
 11
256.7663553749063
 21
210.8589198224162
 31
0.0
  0
ARC
  5
5788
330
1A
100
AcDbEntity
  8
NOKITOI
 48
0.5
100
AcDbCircle
 10
268.6402649381221
 20
191.9986654221085
 30
0.0
 40
8.500000000000364
100
AcDbArc
 50
136.3203885738161
 51
174.1299329295389
  0
ARC
  5
5789
330
1A
100
AcDbEntity
  8
NOKITOI
 48
0.5
100
AcDbCircle
 10
259.8864087669345
 20
192.8986666077577
 30
0.0
 40
0.2999999999999176
100
AcDbArc
 50
270.0000956236189
 51
354.1299329295536
  0
ARC
  5
578A
330
1A
100
AcDbEntity
  8
NOKITOI
 48
0.5
100
AcDbCircle
 10
259.0759900056119
 20
192.8986652552115
 30
0.0
 40
0.2999999999999176
100
AcDbArc
 50
179.9999891479612
 51
270.0000956236189
  0
LINE
  5
578B
330
1A
100
AcDbEntity
  8
NOKITOI
 48
0.5
100
AcDbLine
 10
259.1759929717014
 20
190.9986654221085
 30
0.0
 11
257.1759896457443
 21
190.9986620842086
 31
0.0
  0
LINE
  5
578C
330
1A
100
AcDbEntity
  8
NOKITOI
 48
0.5
100
AcDbLine
 10
259.8864092676186
 20
192.5986666077582
 30
0.0
 11
259.075990506296
 21
192.598665255212
 31
0.0
  0
LINE
  5
578D
330
1A
100
AcDbEntity
  8
SEIHIN
100
AcDbLine
 10
259.0663553749063
 20
190.5097256456188
 30
0.0
 11
256.7663553749064
 21
190.5097256456188
 31
0.0
  0
LINE
  5
578E
330
1A
100
AcDbEntity
  8
SEIHIN
100
AcDbLine
 10
257.8383514218063
 20
188.3097256456187
 30
0.0
 11
254.5408376583063
 21
188.3097256456187
 31
0.0
  0
ARC
  5
578F
330
1A
100
AcDbEntity
  8
NOKITOI
 48
0.5
100
AcDbCircle
 10
262.2759909862435
 20
198.0761663119018
 30
0.0
 40
0.2999999999999576
100
AcDbArc
 50
316.3203885738161
 51
359.9999891479612
  0
LINE
  5
5790
330
1A
100
AcDbEntity
  8
NOKITOI
 48
0.5
100
AcDbLine
 10
258.4507143243575
 20
210.6344545382352
 30
0.0
 11
264.1759930550052
 21
208.9986605266741
 31
0.0
  0
LINE
  5
5791
330
1A
100
AcDbEntity
  8
NOKITOI
 48
0.5
100
AcDbLine
 10
259.1584092992208
 20
208.768230838701
 30
0.0
 11
262.3584091260501
 21
207.8539451244172
 31
0.0
  0
LINE
  5
5792
330
1A
100
AcDbEntity
  8
SEIHIN
100
AcDbLine
 10
257.3951867002063
 20
211.3420372922187
 30
0.0
 11
264.2663553749064
 21
209.5097256456187
 31
0.0
  0
ARC
  5
5793
330
1A
100
AcDbEntity
  8
NOKITOI
 48
0.5
100
AcDbCircle
 10
258.175993182716
 20
209.6729305945213
 30
0.0
 40
1.000000000000065
100
AcDbArc
 50
74.05460328007052
 51
179.999989147984
  0
ARC
  5
5794
330
1A
100
AcDbEntity
  8
NOKITOI
 48
0.5
100
AcDbCircle
 10
259.0759929567281
 20
208.4797736555868
 30
0.0
 40
0.3000000000001873
100
AcDbArc
 50
74.05460328003677
 51
179.9999891479612
  0
LINE
  5
5795
330
1A
100
AcDbEntity
  8
NOKITOI
 48
0.5
100
AcDbLine
 10
264.1759930550052
 20
208.9986605266741
 30
0.0
 11
264.1759924867961
 21
205.9986605266723
 31
0.0
  0
ARC
  5
5796
330
1A
100
AcDbEntity
  8
NOKITOI
 48
0.5
100
AcDbCircle
 10
262.2759927835578
 20
207.565487941303
 30
0.0
 40
0.299999999999901
100
AcDbArc
 50
359.9999891479612
 51
74.05460328011796
  0
ARC
  5
5797
330
1A
100
AcDbEntity
  8
NOKITOI
 48
0.5
100
AcDbCircle
 10
263.8759930121451
 20
208.7723701184576
 30
0.0
 40
0.3000000000000258
100
AcDbArc
 50
359.9999891480052
 51
74.05460328003677
  0
LINE
  5
5798
330
1A
100
AcDbEntity
  8
SEIHIN
100
AcDbLine
 10
264.2663553749064
 20
209.5097256456187
 30
0.0
 11
264.2663553749064
 21
207.5097256456188
 31
0.0
  0
LINE
  5
5799
330
1A
100
AcDbEntity
  8
SEIHIN
100
AcDbLine
 10
264.2663553749064
 20
207.5097256456188
 30
0.0
 11
265.2121187183063
 21
207.5097256456188
 31
0.0
  0
LINE
  5
579A
330
1A
100
AcDbEntity
  8
SEIHIN
100
AcDbLine
 10
265.2663553749064
 20
207.5103140378187
 30
0.0
 11
265.2121187183063
 21
207.5097256456188
 31
0.0
  0
ARC
  5
579B
330
1A
100
AcDbEntity
  8
SEIHIN
100
AcDbCircle
 10
265.2121187183063
 20
210.0097256456188
 30
0.0
 40
2.499999999999996
100
AcDbArc
 50
271.2431101337997
 51
294.9999999999996
  0
LINE
  5
579C
330
1A
100
AcDbEntity
  8
SEIHIN
100
AcDbLine
 10
269.3229010293064
 20
209.1681701208187
 30
0.0
 11
266.2686643727063
 21
207.7439561780187
 31
0.0
  0
LINE
  5
579D
330
1A
100
AcDbEntity
  8
NOKITOI
 48
0.5
100
AcDbLine
 10
276.8924816349127
 20
198.7145298836175
 30
0.0
 11
281.2551699686047
 21
200.6341102062866
 31
0.0
  0
LINE
  5
579E
330
1A
100
AcDbEntity
  8
NOKITOI
 48
0.5
100
AcDbLine
 10
281.6759912556768
 20
199.4986645697939
 30
0.0
 11
281.6759914187247
 21
200.3595155807084
 31
0.0
  0
LINE
  5
579F
330
1A
100
AcDbEntity
  8
NOKITOI
 48
0.5
100
AcDbLine
 10
283.1759912556768
 20
199.4986642856911
 30
0.0
 11
283.1759914738498
 21
200.6505643349489
 31
0.0
  0
ARC
  5
57A0
330
1A
100
AcDbEntity
  8
NOKITOI
 48
0.5
100
AcDbCircle
 10
277.1759912556768
 20
199.4986654221085
 30
0.0
 40
4.5
100
AcDbArc
 50
270.0
 51
359.9999891479971
  0
ARC
  5
57A1
330
1A
100
AcDbEntity
  8
NOKITOI
 48
0.5
100
AcDbCircle
 10
277.1759912556768
 20
199.4986654221085
 30
0.0
 40
6.0
100
AcDbArc
 50
270.0
 51
359.9999891479971
  0
LINE
  5
57A2
330
1A
100
AcDbEntity
  8
NOKITOI
 48
0.5
100
AcDbLine
 10
277.1759912556768
 20
194.9986654221085
 30
0.0
 11
276.2458529571259
 21
194.9986654221082
 31
0.0
  0
ARC
  5
57A3
330
1A
100
AcDbEntity
  8
NOKITOI
 48
0.5
100
AcDbCircle
 10
274.2482929798522
 20
197.9986654221085
 30
0.0
 40
2.500000000000012
100
AcDbArc
 50
340.0168934781067
 51
9.067409553813016
  0
ARC
  5
57A4
330
1A
100
AcDbEntity
  8
NOKITOI
 48
0.5
100
AcDbCircle
 10
277.0133030850325
 20
198.4399353148602
 30
0.0
 40
0.2999999999999199
100
AcDbArc
 50
113.7494664995851
 51
189.0674095538221
  0
LINE
  5
57A5
330
1A
100
AcDbEntity
  8
NOKITOI
 48
0.5
100
AcDbLine
 10
275.1880864033406
 20
197.6569223590218
 30
0.0
 11
273.9199462559332
 21
194.1695369536507
 31
0.0
  0
ARC
  5
57A6
330
1A
100
AcDbEntity
  8
NOKITOI
 48
0.5
100
AcDbCircle
 10
274.389842967677
 20
193.9986654221075
 30
0.0
 40
0.5000000000000025
100
AcDbArc
 50
160.0168934781066
 51
270.0
  0
ARC
  5
57A7
330
1A
100
AcDbEntity
  8
NOKITOI
 48
0.5
100
AcDbCircle
 10
274.2482929798522
 20
197.9986654221085
 30
0.0
 40
1.000000000000004
100
AcDbArc
 50
340.0168934781067
 51
90.0
  0
LINE
  5
57A8
330
1A
100
AcDbEntity
  8
NOKITOI
 48
0.5
100
AcDbLine
 10
276.5977765385729
 20
197.1443077643917
 30
0.0
 11
275.9639149300793
 21
195.4011883410343
 31
0.0
  0
ARC
  5
57A9
330
1A
100
AcDbEntity
  8
NOKITOI
 48
0.5
100
AcDbCircle
 10
276.2458529571259
 20
195.2986654221082
 30
0.0
 40
0.300000000000118
100
AcDbArc
 50
160.0168934780935
 51
270.0
  0
LINE
  5
57AA
330
1A
100
AcDbEntity
  8
NOKITOI
 48
0.5
100
AcDbLine
 10
277.1759912556789
 20
193.4986654221084
 30
0.0
 11
274.3898429676772
 21
193.4986654221076
 31
0.0
  0
LINE
  5
57AB
330
1A
100
AcDbEntity
  8
NOKITOI
 48
0.5
100
AcDbLine
 10
276.2318454002476
 20
200.06263000738
 30
0.0
 11
279.3169945466421
 21
201.420093832651
 31
0.0
  0
ARC
  5
57AC
330
1A
100
AcDbEntity
  8
NOKITOI
 48
0.5
100
AcDbCircle
 10
274.9852441103326
 20
198.4986654221085
 30
0.0
 40
2.000000000000145
100
AcDbArc
 50
51.44243227598005
 51
90.0
  0
ARC
  5
57AD
330
1A
100
AcDbEntity
  8
NOKITOI
 48
0.5
100
AcDbCircle
 10
281.3759914187245
 20
200.3595156375293
 30
0.0
 40
0.3000000000000748
100
AcDbArc
 50
359.9999891480052
 51
113.7494664995851
  0
ARC
  5
57AE
330
1A
100
AcDbEntity
  8
NOKITOI
 48
0.5
100
AcDbCircle
 10
281.1759914738501
 20
200.6505647137547
 30
0.0
 40
2.000000000000035
100
AcDbArc
 50
359.999989147971
 51
78.98029157818554
  0
LINE
  5
57AF
330
1A
100
AcDbEntity
  8
SEIHIN
100
AcDbLine
 10
268.3556709779063
 20
211.6962637218187
 30
0.0
 11
270.0550462441063
 21
212.4886954225187
 31
0.0
  0
LINE
  5
57B0
330
1A
100
AcDbEntity
  8
SEIHIN
100
AcDbLine
 10
266.9951091533064
 20
211.5764094167186
 30
0.0
 11
255.7852792614063
 21
214.5656973879187
 31
0.0
  0
LINE
  5
57B1
330
1A
100
AcDbEntity
  8
SEIHIN
100
AcDbLine
 10
255.7852792614063
 20
214.5656973879187
 30
0.0
 11
255.2763685263726
 21
214.7014069172696
 31
0.0
  0
ARC
  5
57B2
330
1A
100
AcDbEntity
  8
SEIHIN
100
AcDbCircle
 10
267.5104344544063
 20
213.5088792959187
 30
0.0
 40
2.000000000000035
100
AcDbArc
 50
255.068582821901
 51
294.999999999999
  0
ARC
  5
57B3
330
1A
100
AcDbEntity
  8
SEIHIN
100
AcDbCircle
 10
270.2663553749064
 20
212.0355415290187
 30
0.0
 40
0.5
100
AcDbArc
 50
0.0
 51
114.9999999999989
  0
LINE
  5
57B4
330
1A
100
AcDbEntity
  8
NOKITOI
 48
0.5
100
AcDbLine
 10
407.9385718547473
 20
134.3330815340858
 30
0.0
 11
408.3452496851974
 21
143.2371320713228
 31
0.0
  0
LINE
  5
57B5
330
1A
100
AcDbEntity
  8
NOKITOI
 48
0.5
100
AcDbLine
 10
409.5341591828209
 20
134.1999481787146
 30
0.0
 11
410.437206800781
 21
153.9718192417335
 31
0.0
  0
LINE
  5
57B6
330
1A
100
AcDbEntity
  8
NOKITOI
 48
0.5
100
AcDbLine
 10
404.2873639903795
 20
140.1988005121098
 30
0.0
 11
405.3312952462252
 21
143.0000794749995
 31
0.0
  0
LINE
  5
57B7
330
1A
100
AcDbEntity
  8
NOKITOI
 48
0.5
100
AcDbLine
 10
403.1045349834353
 20
141.3203086147347
 30
0.0
 11
404.2598372579646
 21
144.4204399110241
 31
0.0
  0
LINE
  5
57B8
330
1A
100
AcDbEntity
  8
NOKITOI
 48
0.5
100
AcDbLine
 10
402.4349357949345
 20
158.5474512520758
 30
0.0
 11
395.2759929716944
 21
139.1999481787103
 31
0.0
  0
LINE
  5
57B9
330
1A
100
AcDbEntity
  8
NOKITOI
 48
0.5
100
AcDbLine
 10
403.6837342588492
 20
157.5999481787108
 30
0.0
 11
397.4967581110409
 21
140.8792475124115
 31
0.0
  0
LINE
  5
57BA
330
1A
100
AcDbEntity
  8
SEIHIN
100
AcDbLine
 10
410.3319803605042
 20
154.4856299285592
 30
0.0
 11
409.4582089759062
 21
135.0097256456187
 31
0.0
  0
LINE
  5
57BB
330
1A
100
AcDbEntity
  8
SEIHIN
100
AcDbLine
 10
412.1509757603063
 20
134.7879648167187
 30
0.0
 11
413.1558296850063
 21
157.1856299286187
 31
0.0
  0
LINE
  5
57BC
330
1A
100
AcDbEntity
  8
SEIHIN
100
AcDbLine
 10
412.6553323191063
 20
157.1857543226187
 30
0.0
 11
411.6523147844063
 21
134.8290213793186
 31
0.0
  0
LINE
  5
57BD
330
1A
100
AcDbEntity
  8
SEIHIN
100
AcDbLine
 10
402.6795157483065
 20
105.7205042545187
 30
0.0
 11
406.5419414332064
 21
129.0209936653188
 31
0.0
  0
LINE
  5
57BE
330
1A
100
AcDbEntity
  8
NOKITOI
 48
0.5
100
AcDbLine
 10
395.2759929716944
 20
139.1999481787103
 30
0.0
 11
403.8580450765307
 21
139.8749410408887
 31
0.0
  0
LINE
  5
57BF
330
1A
100
AcDbEntity
  8
NOKITOI
 48
0.5
100
AcDbLine
 10
397.4967581110409
 20
140.8792475124115
 30
0.0
 11
403.1045349834353
 21
141.3203086147347
 31
0.0
  0
LINE
  5
57C0
330
1A
100
AcDbEntity
  8
SEIHIN
100
AcDbLine
 10
406.5419414332064
 20
129.0209936653188
 30
0.0
 11
406.8080016664066
 21
130.3154426370187
 31
0.0
  0
ARC
  5
57C1
330
1A
100
AcDbEntity
  8
NOKITOI
 48
0.5
100
AcDbCircle
 10
403.8188403089411
 20
140.3734016573854
 30
0.0
 40
0.5000000000000096
100
AcDbArc
 50
274.4971516146625
 51
339.5614685906799
  0
LINE
  5
57C2
330
1A
100
AcDbEntity
  8
SEIHIN
100
AcDbLine
 10
407.1264394811064
 20
132.4022198771187
 30
0.0
 11
407.1493127635064
 21
132.5882310723188
 31
0.0
  0
LINE
  5
57C3
330
1A
100
AcDbEntity
  8
SEIHIN
100
AcDbLine
 10
407.2053113273064
 20
133.0450112675188
 30
0.0
 11
407.1493127635064
 21
132.5882310723188
 31
0.0
  0
LINE
  5
57C4
330
1A
100
AcDbEntity
  8
SEIHIN
100
AcDbLine
 10
406.8080016664066
 20
130.3154426370187
 30
0.0
 11
406.9147386840063
 21
130.6938986038188
 31
0.0
  0
LINE
  5
57C5
330
1A
100
AcDbEntity
  8
SEIHIN
100
AcDbLine
 10
406.9147386840063
 20
130.6938986038188
 30
0.0
 11
407.0421734145066
 21
131.7193518136188
 31
0.0
  0
LINE
  5
57C6
330
1A
100
AcDbEntity
  8
SEIHIN
100
AcDbLine
 10
407.0421734145066
 20
131.7193518136188
 30
0.0
 11
407.1264394811064
 21
132.4022198771187
 31
0.0
  0
LINE
  5
57C7
330
1A
100
AcDbEntity
  8
SEIHIN
100
AcDbLine
 10
407.2053113273064
 20
133.0450112675188
 30
0.0
 11
407.6955913624065
 21
135.0097269867188
 31
0.0
  0
LINE
  5
57C8
330
1A
100
AcDbEntity
  8
SEIHIN
100
AcDbLine
 10
407.4254859441711
 20
132.7861324534724
 30
0.0
 11
407.2266921301976
 21
131.1757153993505
 31
0.0
  0
ARC
  5
57C9
330
1A
100
AcDbEntity
  8
SEIHIN
100
AcDbCircle
 10
-583.4037313066935
 20
254.2790324190186
 30
0.0
 40
998.2499999999996
100
AcDbArc
 50
353.0094356991976
 51
353.1379998208021
  0
ARC
  5
57CA
330
1A
100
AcDbEntity
  8
SEIHIN
100
AcDbCircle
 10
401.5762100982063
 20
160.4097256456186
 30
0.0
 40
2.0
100
AcDbArc
 50
90.0
 51
159.9999999999965
  0
LINE
  5
57CB
330
1A
100
AcDbEntity
  8
SEIHIN
100
AcDbLine
 10
400.4986449547064
 20
157.4491397459187
 30
0.0
 11
401.1564297893062
 21
157.2097256456187
 31
0.0
  0
LINE
  5
57CC
330
1A
100
AcDbEntity
  8
SEIHIN
100
AcDbLine
 10
399.6968248566063
 20
161.0937659323187
 30
0.0
 11
399.3032999998063
 21
160.0125652742187
 31
0.0
  0
LINE
  5
57CD
330
1A
100
AcDbEntity
  8
SEIHIN
100
AcDbLine
 10
400.4986449547064
 20
157.4491397459187
 30
0.0
 11
400.4052206475063
 21
157.4858234910186
 31
0.0
  0
LINE
  5
57CE
330
1A
100
AcDbEntity
  8
SEIHIN
100
AcDbLine
 10
400.4052206475063
 20
157.4858234910186
 30
0.0
 11
400.3137543457062
 21
157.5271479868187
 31
0.0
  0
LINE
  5
57CF
330
1A
100
AcDbEntity
  8
SEIHIN
100
AcDbLine
 10
400.3137543457062
 20
157.5271479868187
 30
0.0
 11
400.2244764026063
 21
157.5730091598187
 31
0.0
  0
ARC
  5
57D0
330
1A
100
AcDbEntity
  8
SEIHIN
100
AcDbCircle
 10
401.1826852414063
 20
159.3285249875186
 30
0.0
 40
1.999999999999994
100
AcDbArc
 50
159.9999999999965
 51
241.3730734412987
  0
LINE
  5
57D1
330
1A
100
AcDbEntity
  8
NOKITOI
 48
0.5
100
AcDbLine
 10
408.4142190480238
 20
144.7471890405791
 30
0.0
 11
408.8388730383712
 21
154.0448205015656
 31
0.0
  0
LINE
  5
57D2
330
1A
100
AcDbEntity
  8
SEIHIN
100
AcDbLine
 10
405.0195498003063
 20
147.4097256456186
 30
0.0
 11
410.0145253867062
 21
147.4097256456186
 31
0.0
  0
LINE
  5
57D3
330
1A
100
AcDbEntity
  8
NOKITOI
 48
0.5
100
AcDbLine
 10
404.2598372579646
 20
144.4204399110241
 30
0.0
 11
408.4142190480238
 21
144.7471890405791
 31
0.0
  0
LINE
  5
57D4
330
1A
100
AcDbEntity
  8
NOKITOI
 48
0.5
100
AcDbLine
 10
405.3312952462252
 20
143.0000794749995
 30
0.0
 11
408.3452496851974
 21
143.2371320713228
 31
0.0
  0
ARC
  5
57D5
330
1A
100
AcDbEntity
  8
NOKITOI
 48
0.5
100
AcDbCircle
 10
405.4424137932478
 20
154.1999481787105
 30
0.0
 40
3.400000000000112
100
AcDbArc
 50
357.3849271045766
 51
90.0
  0
ARC
  5
57D6
330
1A
100
AcDbEntity
  8
NOKITOI
 48
0.5
100
AcDbCircle
 10
405.4424137932469
 20
154.1999481787107
 30
0.0
 40
4.999999999999845
100
AcDbArc
 50
357.3849271045685
 51
90.0
  0
ARC
  5
57D7
330
1A
100
AcDbEntity
  8
SEIHIN
100
AcDbCircle
 10
405.2893828284257
 20
154.6642024664499
 30
0.0
 40
5.045758418891415
100
AcDbArc
 50
357.971843096883
 51
89.44659158112507
  0
ARC
  5
57D8
330
1A
100
AcDbEntity
  8
SEIHIN
100
AcDbCircle
 10
407.6592306092037
 20
157.4086543633134
 30
0.0
 40
5.001071557559718
100
AcDbArc
 50
357.4454547152962
 51
90.01900961556922
  0
ARC
  5
57D9
330
1A
100
AcDbEntity
  8
SEIHIN
100
AcDbCircle
 10
408.1608540985063
 20
157.4097256456186
 30
0.0
 40
4.999999999999993
100
AcDbArc
 50
357.4311917339966
 51
90.0
  0
LINE
  5
57DA
330
1A
100
AcDbEntity
  8
NOKITOI
 48
0.5
100
AcDbLine
 10
403.3726146386766
 20
159.1999481787107
 30
0.0
 11
405.4424137932469
 21
159.1999481787107
 31
0.0
  0
LINE
  5
57DB
330
1A
100
AcDbEntity
  8
NOKITOI
 48
0.5
100
AcDbLine
 10
403.6837342588492
 20
157.5999481787108
 30
0.0
 11
405.4424137932478
 21
157.5999481787106
 31
0.0
  0
ARC
  5
57DC
330
1A
100
AcDbEntity
  8
NOKITOI
 48
0.5
100
AcDbCircle
 10
403.3726146386766
 20
158.1999481787107
 30
0.0
 40
1.0
100
AcDbArc
 50
90.00000000005213
 51
159.7238100727588
  0
LINE
  5
57DD
330
1A
100
AcDbEntity
  8
SEIHIN
100
AcDbLine
 10
401.1564297893062
 20
157.2097256456187
 30
0.0
 11
402.0663553749064
 21
159.7097256456187
 31
0.0
  0
LINE
  5
57DE
330
1A
100
AcDbEntity
  8
SEIHIN
100
AcDbLine
 10
402.0663553749064
 20
159.7097256456187
 30
0.0
 11
405.3370047740063
 21
159.7097256456187
 31
0.0
  0
LINE
  5
57DF
330
1A
100
AcDbEntity
  8
SEIHIN
100
AcDbLine
 10
408.1608540985063
 20
162.4097256456186
 30
0.0
 11
401.5762100982063
 21
162.4097256456186
 31
0.0
  0
DIMENSION
  5
57E0
330
1A
100
AcDbEntity
  8
SUNPOU
100
AcDbDimension
  2
*D6
 10
129.8790368626226
 20
282.7304151633402
 30
0.0
 11
124.8790368626226
 21
397.9146918795152
 31
0.0
 70
    32
  3
STANDARD
100
AcDbAlignedDimension
 13
198.5945737760062
 23
513.0989685956903
 33
0.0
 14
253.2715479964061
 24
282.7304151633402
 34
0.0
 50
90.0
100
AcDbRotatedDimension
1001
ACAD
1000
DSTYLE
1002
{
1070
    41
1040
7.0
1070
    42
1040
6.0
1070
    43
1040
14.0
1070
    44
1040
3.0
1070
    73
1070
     0
1070
    74
1070
     0
1070
    77
1070
     3
1070
   140
1040
6.0
1070
   141
1040
30.0
1070
   147
1040
2.0
1070
   172
1070
     1
1070
   176
1070
   256
1070
   177
1070
   256
1070
   178
1070
   256
1070
   271
1070
     0
1070
   272
1070
     0
1070
   341
1005
6D
1070
     5
1000
OPEN
1070
   371
1070
    -1
1070
   372
1070
    -1
1002
}
  0
LINE
  5
57E1
330
1A
100
AcDbEntity
  8
SEIHIN
100
AcDbLine
 10
211.7610432252062
 20
413.6383249903404
 30
0.0
 11
182.7610432252063
 21
413.6383249903404
 31
0.0
  0
LINE
  5
57E2
330
1A
100
AcDbEntity
  8
SEIHIN
100
AcDbLine
 10
182.7610432252063
 20
411.7473555551403
 30
0.0
 11
211.7610432252062
 21
411.7473555551403
 31
0.0
  0
LINE
  5
57E3
330
1A
100
AcDbEntity
  8
SEIHIN
100
AcDbLine
 10
211.7610432252062
 20
404.2385754320402
 30
0.0
 11
182.7610432252063
 21
404.2385754320402
 31
0.0
  0
LINE
  5
57E4
330
1A
100
AcDbEntity
  8
SEIHIN
100
AcDbLine
 10
182.7610432252063
 20
370.7357273131403
 30
0.0
 11
221.7610432252062
 21
370.7357273131403
 31
0.0
  0
LINE
  5
57E5
330
1A
100
AcDbEntity
  8
SEIHIN
100
AcDbLine
 10
194.4294491685061
 20
352.8431793232403
 30
0.0
 11
182.7610432252063
 21
353.2381802567401
 31
0.0
  0
LINE
  5
57E6
330
1A
100
AcDbEntity
  8
SEIHIN
100
AcDbLine
 10
182.7610432252063
 20
512.6297258845402
 30
0.0
 11
194.4303177396063
 21
513.0190926956402
 31
0.0
  0
LINE
  5
57E7
330
1A
100
AcDbEntity
  8
SEIHIN
100
AcDbLine
 10
221.7610432252062
 20
499.1520571795401
 30
0.0
 11
182.7610432252063
 21
499.1520571795401
 31
0.0
  0
LINE
  5
57E8
330
1A
100
AcDbEntity
  8
SEIHIN
100
AcDbLine
 10
206.947370651506
 20
496.5176933657403
 30
0.0
 11
182.7610432252063
 21
496.5176933657403
 31
0.0
  0
LINE
  5
57E9
330
1A
100
AcDbEntity
  8
CENTER_L
 48
5.0
100
AcDbLine
 10
368.3391978439418
 20
457.3909628137458
 30
0.0
 11
176.1735311097397
 21
457.3909628137459
 31
0.0
  0
DIMENSION
  5
57EA
330
1A
100
AcDbEntity
  8
SUNPOU
100
AcDbDimension
  2
*D7
 10
147.3825408018895
 20
352.7304151633402
 30
0.0
 11
142.3825408018894
 21
317.7304151633402
 31
0.0
 70
    32
  3
STANDARD
100
AcDbAlignedDimension
 13
253.2715479964061
 23
282.7304151633402
 33
0.0
 14
201.0934511467064
 24
352.7304151633402
 34
0.0
 50
90.0
100
AcDbRotatedDimension
1001
ACAD
1000
DSTYLE
1002
{
1070
    41
1040
7.0
1070
    42
1040
6.0
1070
    43
1040
14.0
1070
    44
1040
3.0
1070
    73
1070
     0
1070
    74
1070
     0
1070
    77
1070
     3
1070
   140
1040
6.0
1070
   141
1040
30.0
1070
   147
1040
2.0
1070
   172
1070
     1
1070
   176
1070
   256
1070
   177
1070
   256
1070
   178
1070
   256
1070
   271
1070
     0
1070
   272
1070
     0
1070
   341
1005
6D
1070
     5
1000
OPEN
1070
   371
1070
    -1
1070
   372
1070
    -1
1002
}
  0
LINE
  5
57EB
330
1A
100
AcDbEntity
  8
SEIHIN
100
AcDbLine
 10
182.7610432252063
 20
512.6297258845402
 30
0.0
 11
182.7610432252063
 21
353.2381802567401
 31
0.0
  0
LINE
  5
57EC
330
1A
100
AcDbEntity
  8
SEIHIN
100
AcDbLine
 10
231.7610432252062
 20
509.4275809140404
 30
0.0
 11
231.7610432252062
 21
387.5149460757402
 31
0.0
  0
ARC
  5
57ED
330
1A
100
AcDbEntity
  8
SEIHIN
100
AcDbCircle
 10
228.2610432252249
 20
466.3906845199863
 30
0.0
 40
0.9999999999811848
100
AcDbArc
 50
359.9999999973684
 51
83.659808253605
  0
LINE
  5
57EE
330
1A
100
AcDbEntity
  8
CENTER_L
 48
5.0
100
AcDbLine
 10
420.7172412992061
 20
520.68661323734
 30
0.0
 11
244.7610432252062
 21
344.7304151633402
 31
0.0
  0
LINE
  5
57EF
330
1A
100
AcDbEntity
  8
SEIHIN
100
AcDbLine
 10
401.2755580441063
 20
331.7304151633402
 30
0.0
 11
401.2755580441063
 21
496.3215335354402
 31
0.0
  0
LINE
  5
57F0
330
1A
100
AcDbEntity
  8
SEIHIN
100
AcDbLine
 10
412.7172412992061
 20
326.7304151633402
 30
0.0
 11
412.7172412992061
 21
505.1941498576402
 31
0.0
  0
LINE
  5
57F1
330
1A
100
AcDbEntity
  8
SEIHIN
100
AcDbLine
 10
410.0145253868062
 20
326.7304151633402
 30
0.0
 11
410.0145253868062
 21
504.9889217383402
 31
0.0
  0
LINE
  5
57F2
330
1A
100
AcDbEntity
  8
SEIHIN
100
AcDbLine
 10
346.9592125178063
 20
326.7304151633402
 30
0.0
 11
292.4142607741062
 21
326.7304151633402
 31
0.0
  0
LINE
  5
57F3
330
1A
100
AcDbEntity
  8
SEIHIN
100
AcDbLine
 10
317.8580822874063
 20
311.7304151633402
 30
0.0
 11
343.0817645716061
 21
311.7304151633402
 31
0.0
  0
LINE
  5
57F4
330
1A
100
AcDbEntity
  8
SEIHIN
100
AcDbLine
 10
409.4582089759063
 20
331.7304151633402
 30
0.0
 11
287.5455741376061
 21
331.7304151633402
 31
0.0
  0
LINE
  5
57F5
330
1A
100
AcDbEntity
  8
SEIHIN
100
AcDbLine
 10
412.6603539464062
 20
282.73041516334
 30
0.0
 11
253.2688083186061
 21
282.7304151633402
 31
0.0
  0
LINE
  5
57F6
330
1A
100
AcDbEntity
  8
SEIHIN
100
AcDbLine
 10
258.829825780782
 20
358.7991977189161
 30
0.0
 11
278.1711078407062
 21
378.1404797788402
 31
0.0
  0
LINE
  5
57F7
330
1A
100
AcDbEntity
  8
SEIHIN
100
AcDbLine
 10
280.2175619038063
 20
329.2304151633402
 30
0.0
 11
280.2175619038063
 21
380.1869338419403
 31
0.0
  0
LINE
  5
57F8
330
1A
100
AcDbEntity
  8
SEIHIN
100
AcDbLine
 10
278.1711078407062
 20
378.1404797788402
 30
0.0
 11
278.1711078407062
 21
329.2304151633402
 31
0.0
  0
LINE
  5
57F9
330
1A
100
AcDbEntity
  8
SEIHIN
100
AcDbLine
 10
304.2692034939062
 20
331.7304151633402
 30
0.0
 11
304.2692034939062
 21
403.2723299845401
 31
0.0
  0
LINE
  5
57FA
330
1A
100
AcDbEntity
  8
SEIHIN
100
AcDbLine
 10
313.6689530522063
 20
331.7304151633402
 30
0.0
 11
313.6689530522063
 21
412.6770874415401
 31
0.0
  0
LINE
  5
57FB
330
1A
100
AcDbEntity
  8
SEIHIN
100
AcDbLine
 10
311.7779836170062
 20
410.78611800634
 30
0.0
 11
311.7779836170062
 21
331.7304151633402
 31
0.0
  0
LINE
  5
57FC
330
1A
100
AcDbEntity
  8
SEIHIN
100
AcDbLine
 10
258.216014666306
 20
359.0357273131401
 30
0.0
 11
221.8438527960062
 21
359.0357273131401
 31
0.0
  0
LINE
  5
57FD
330
1A
100
AcDbEntity
  8
SEIHIN
100
AcDbLine
 10
255.7663553749061
 20
356.7357273131404
 30
0.0
 11
224.7610432252062
 21
356.7357273131404
 31
0.0
  0
LINE
  5
57FE
330
1A
100
AcDbEntity
  8
SEIHIN
100
AcDbLine
 10
252.7610432252062
 20
350.7304151633402
 30
0.0
 11
252.7610432252062
 21
301.0628230847401
 31
0.0
  0
LINE
  5
57FF
330
1A
100
AcDbEntity
  8
SEIHIN
100
AcDbLine
 10
252.8738073851062
 20
294.3988211066401
 30
0.0
 11
253.2688083186061
 21
282.7304151633402
 31
0.0
  0
LINE
  5
5800
330
1A
100
AcDbEntity
  8
SEIHIN
100
AcDbLine
 10
252.7680915983061
 20
299.3965332555401
 30
0.0
 11
252.8738073851062
 21
294.3988211066401
 31
0.0
  0
LINE
  5
5801
330
1A
100
AcDbEntity
  8
SEIHIN
100
AcDbLine
 10
252.7610432252062
 20
301.0628230847401
 30
0.0
 11
252.7680915983061
 21
299.3965332555401
 31
0.0
  0
LINE
  5
5802
330
1A
100
AcDbEntity
  8
SEIHIN
100
AcDbLine
 10
250.7610432252062
 20
352.7304151633402
 30
0.0
 11
201.0934511466061
 21
352.7304151633402
 31
0.0
  0
LINE
  5
5803
330
1A
100
AcDbEntity
  8
SEIHIN
100
AcDbLine
 10
199.4271613174062
 20
352.7374635364401
 30
0.0
 11
194.4294491685061
 21
352.8431793232403
 31
0.0
  0
LINE
  5
5804
330
1A
100
AcDbEntity
  8
SEIHIN
100
AcDbLine
 10
201.0934511466061
 20
352.7304151633402
 30
0.0
 11
199.4271613174062
 21
352.7374635364401
 31
0.0
  0
LINE
  5
5805
330
1A
100
AcDbEntity
  8
SEIHIN
100
AcDbLine
 10
221.7610432252062
 20
366.9644810914403
 30
0.0
 11
221.7610432252062
 21
359.7357273131403
 31
0.0
  0
LINE
  5
5806
330
1A
100
AcDbEntity
  8
SEIHIN
100
AcDbLine
 10
221.9894046276061
 20
358.5876770160402
 30
0.0
 11
221.818687384006
 21
359.1504563470402
 31
0.0
  0
LINE
  5
5807
330
1A
100
AcDbEntity
  8
SEIHIN
100
AcDbLine
 10
221.818687384006
 20
359.1504563470402
 30
0.0
 11
221.7610432252062
 21
359.7357273131403
 31
0.0
  0
LINE
  5
5808
330
1A
100
AcDbEntity
  8
SEIHIN
100
AcDbLine
 10
224.175772259106
 20
356.7933714719401
 30
0.0
 11
223.6129929281061
 21
356.9640887155403
 31
0.0
  0
LINE
  5
5809
330
1A
100
AcDbEntity
  8
SEIHIN
100
AcDbLine
 10
223.6129929281061
 20
356.9640887155403
 30
0.0
 11
223.0943325261061
 21
357.2413184762401
 31
0.0
  0
LINE
  5
580A
330
1A
100
AcDbEntity
  8
SEIHIN
100
AcDbLine
 10
223.0943325261061
 20
357.2413184762401
 30
0.0
 11
222.6397228816062
 21
357.6144069695403
 31
0.0
  0
LINE
  5
580B
330
1A
100
AcDbEntity
  8
SEIHIN
100
AcDbLine
 10
222.6397228816062
 20
357.6144069695403
 30
0.0
 11
222.2666343883062
 21
358.0690166140402
 31
0.0
  0
LINE
  5
580C
330
1A
100
AcDbEntity
  8
SEIHIN
100
AcDbLine
 10
222.2666343883062
 20
358.0690166140402
 30
0.0
 11
221.9894046276061
 21
358.5876770160402
 31
0.0
  0
LINE
  5
580D
330
1A
100
AcDbEntity
  8
SEIHIN
100
AcDbLine
 10
224.7610432252062
 20
356.7357273131404
 30
0.0
 11
224.175772259106
 21
356.7933714719401
 31
0.0
  0
LINE
  5
580E
330
1A
100
AcDbEntity
  8
SEIHIN
100
AcDbLine
 10
221.7610432252062
 20
370.7357273131403
 30
0.0
 11
221.7610432252062
 21
370.0244181822402
 31
0.0
  0
LINE
  5
580F
330
1A
100
AcDbEntity
  8
SEIHIN
100
AcDbLine
 10
221.7610432252062
 20
368.3250429160402
 30
0.0
 11
221.7610432252062
 21
366.9644810914403
 31
0.0
  0
LINE
  5
5810
330
1A
100
AcDbEntity
  8
SEIHIN
100
AcDbLine
 10
221.7610432252062
 20
368.3250429160402
 30
0.0
 11
221.7610432252062
 21
370.0244181822402
 31
0.0
  0
ARC
  5
5811
330
1A
100
AcDbEntity
  8
SEIHIN
100
AcDbCircle
 10
250.7646070939792
 20
350.7312358443263
 30
0.0
 40
1.999182495605166
100
AcDbArc
 50
0.1335876964225314
 51
90.10213912338599
  0
LINE
  5
5812
330
1A
100
AcDbEntity
  8
SEIHIN
100
AcDbLine
 10
289.4400860728061
 20
326.7304151633402
 30
0.0
 11
287.5455741376061
 21
329.2304151633402
 31
0.0
  0
LINE
  5
5813
330
1A
100
AcDbEntity
  8
SEIHIN
100
AcDbLine
 10
287.5455741376061
 20
331.7304151633402
 30
0.0
 11
292.4142607741062
 21
326.7304151633402
 31
0.0
  0
LINE
  5
5814
330
1A
100
AcDbEntity
  8
SEIHIN
100
AcDbLine
 10
315.1375034469062
 20
326.7687001748402
 30
0.0
 11
313.1010773511062
 21
329.62047023294
 31
0.0
  0
LINE
  5
5815
330
1A
100
AcDbEntity
  8
SEIHIN
100
AcDbLine
 10
304.3329950665062
 20
331.7114477322402
 30
0.0
 11
307.7650722175061
 21
326.7304150823401
 31
0.0
  0
LINE
  5
5816
330
1A
100
AcDbEntity
  8
SEIHIN
100
AcDbLine
 10
259.0663553750061
 20
358.18538660444
 30
0.0
 11
259.0663553750061
 21
321.8132247341402
 31
0.0
  0
LINE
  5
5817
330
1A
100
AcDbEntity
  8
SEIHIN
100
AcDbLine
 10
256.7663553750063
 20
355.7357273130401
 30
0.0
 11
256.7663553750063
 21
324.7304151633402
 31
0.0
  0
LINE
  5
5818
330
1A
100
AcDbEntity
  8
SEIHIN
100
AcDbLine
 10
316.7500445025063
 20
327.6860535099401
 30
0.0
 11
317.4229015167062
 21
326.7304151633402
 31
0.0
  0
LINE
  5
5819
330
1A
100
AcDbEntity
  8
SEIHIN
100
AcDbLine
 10
270.7663553750063
 20
282.7304151633402
 30
0.0
 11
270.7663553750063
 21
321.7304151633402
 31
0.0
  0
LINE
  5
581A
330
1A
100
AcDbEntity
  8
SEIHIN
100
AcDbLine
 10
268.3556709779062
 20
321.7304151633402
 30
0.0
 11
270.0550462441061
 21
321.7304151633402
 31
0.0
  0
LINE
  5
581B
330
1A
100
AcDbEntity
  8
SEIHIN
100
AcDbLine
 10
266.9951091533063
 20
321.7304151633402
 30
0.0
 11
259.7663553750063
 21
321.7304151633402
 31
0.0
  0
LINE
  5
581C
330
1A
100
AcDbEntity
  8
SEIHIN
100
AcDbLine
 10
256.7663553750063
 20
324.7304151633402
 30
0.0
 11
256.8239995338061
 21
324.1451441972401
 31
0.0
  0
LINE
  5
581D
330
1A
100
AcDbEntity
  8
SEIHIN
100
AcDbLine
 10
256.8239995338061
 20
324.1451441972401
 30
0.0
 11
256.9947167774063
 21
323.5823648662401
 31
0.0
  0
LINE
  5
581E
330
1A
100
AcDbEntity
  8
SEIHIN
100
AcDbLine
 10
256.9947167774063
 20
323.5823648662401
 30
0.0
 11
257.2719465381061
 21
323.0637044642401
 31
0.0
  0
LINE
  5
581F
330
1A
100
AcDbEntity
  8
SEIHIN
100
AcDbLine
 10
257.2719465381061
 20
323.0637044642401
 30
0.0
 11
257.6450350314063
 21
322.6090948197402
 31
0.0
  0
LINE
  5
5820
330
1A
100
AcDbEntity
  8
SEIHIN
100
AcDbLine
 10
257.6450350314063
 20
322.6090948197402
 30
0.0
 11
258.0996446759062
 21
322.2360063264402
 31
0.0
  0
LINE
  5
5821
330
1A
100
AcDbEntity
  8
SEIHIN
100
AcDbLine
 10
258.0996446759062
 20
322.2360063264402
 30
0.0
 11
258.6183050779062
 21
321.9587765657402
 31
0.0
  0
LINE
  5
5822
330
1A
100
AcDbEntity
  8
SEIHIN
100
AcDbLine
 10
258.6183050779062
 20
321.9587765657402
 30
0.0
 11
259.1810844089062
 21
321.78805932214
 31
0.0
  0
LINE
  5
5823
330
1A
100
AcDbEntity
  8
SEIHIN
100
AcDbLine
 10
259.1810844089062
 20
321.78805932214
 30
0.0
 11
259.7663553750063
 21
321.7304151633402
 31
0.0
  0
LINE
  5
5824
330
1A
100
AcDbEntity
  8
SEIHIN
100
AcDbLine
 10
268.3556709779062
 20
321.7304151633402
 30
0.0
 11
266.9951091533063
 21
321.7304151633402
 31
0.0
  0
LINE
  5
5825
330
1A
100
AcDbEntity
  8
SEIHIN
100
AcDbLine
 10
270.7663553750063
 20
321.7304151633402
 30
0.0
 11
270.0550462441061
 21
321.7304151633402
 31
0.0
  0
LINE
  5
5826
330
1A
100
AcDbEntity
  8
SEIHIN
100
AcDbLine
 10
304.2692034939062
 20
311.7304151633402
 30
0.0
 11
304.2692034939062
 21
282.7304151633402
 31
0.0
  0
LINE
  5
5827
330
1A
100
AcDbEntity
  8
SEIHIN
100
AcDbLine
 10
313.6689530522063
 20
311.7304151633402
 30
0.0
 11
313.6689530522063
 21
282.7304151633402
 31
0.0
  0
LINE
  5
5828
330
1A
100
AcDbEntity
  8
SEIHIN
100
AcDbLine
 10
311.7779836170062
 20
282.7304151633402
 30
0.0
 11
311.7779836170062
 21
311.7304151633402
 31
0.0
  0
LINE
  5
5829
330
1A
100
AcDbEntity
  8
SEIHIN
100
AcDbLine
 10
294.9275946851063
 20
311.7304151633402
 30
0.0
 11
307.7132167799062
 21
311.7304151633402
 31
0.0
  0
LINE
  5
582A
330
1A
100
AcDbEntity
  8
SEIHIN
100
AcDbLine
 10
291.2534305720063
 20
314.9459506227401
 30
0.0
 11
290.5307714941062
 21
316.7304151633402
 31
0.0
  0
LINE
  5
582B
330
1A
100
AcDbEntity
  8
SEIHIN
100
AcDbLine
 10
293.3722915271063
 20
314.9459506227401
 30
0.0
 11
292.4142607741062
 21
326.7304151633402
 31
0.0
  0
LINE
  5
582C
330
1A
100
AcDbEntity
  8
SEIHIN
100
AcDbLine
 10
293.8539001874063
 20
311.7304151633402
 30
0.0
 11
294.9275946851063
 21
311.7304151633402
 31
0.0
  0
LINE
  5
582D
330
1A
100
AcDbEntity
  8
SEIHIN
100
AcDbLine
 10
294.9275946851063
 20
311.7304151633402
 30
0.0
 11
294.3767044793063
 21
311.9846693507402
 31
0.0
  0
LINE
  5
582E
330
1A
100
AcDbEntity
  8
SEIHIN
100
AcDbLine
 10
291.2534305720063
 20
314.9459506227401
 30
0.0
 11
291.9061350635061
 21
313.5994156442402
 31
0.0
  0
LINE
  5
582F
330
1A
100
AcDbEntity
  8
SEIHIN
100
AcDbLine
 10
293.5289587721062
 20
313.8542582965401
 30
0.0
 11
293.3722915271063
 21
314.9459506227401
 31
0.0
  0
LINE
  5
5830
330
1A
100
AcDbEntity
  8
SEIHIN
100
AcDbLine
 10
292.6258374278062
 20
312.5550870723402
 30
0.0
 11
293.3778443944062
 21
311.8809942042401
 31
0.0
  0
LINE
  5
5831
330
1A
100
AcDbEntity
  8
SEIHIN
100
AcDbLine
 10
293.3778443944062
 20
311.8809942042401
 30
0.0
 11
293.8539001874063
 21
311.7304151633402
 31
0.0
  0
LINE
  5
5832
330
1A
100
AcDbEntity
  8
SEIHIN
100
AcDbLine
 10
294.3767044793063
 20
311.9846693507402
 30
0.0
 11
293.8838060734061
 21
312.7304423534401
 31
0.0
  0
LINE
  5
5833
330
1A
100
AcDbEntity
  8
SEIHIN
100
AcDbLine
 10
291.9061350635061
 20
313.5994156442402
 30
0.0
 11
292.6258374278062
 21
312.5550870723402
 31
0.0
  0
LINE
  5
5834
330
1A
100
AcDbEntity
  8
SEIHIN
100
AcDbLine
 10
293.8838060734061
 20
312.7304423534401
 30
0.0
 11
293.5289587721062
 21
313.8542582965401
 31
0.0
  0
LINE
  5
5835
330
1A
100
AcDbEntity
  8
SEIHIN
100
AcDbLine
 10
290.5307714941062
 20
316.7304151633402
 30
0.0
 11
289.4400860728061
 21
326.7304151633402
 31
0.0
  0
LINE
  5
5836
330
1A
100
AcDbEntity
  8
SEIHIN
100
AcDbLine
 10
307.7132167799062
 20
326.7304151633402
 30
0.0
 11
307.7132167799062
 21
311.7304151633402
 31
0.0
  0
LINE
  5
5837
330
1A
100
AcDbEntity
  8
SEIHIN
100
AcDbLine
 10
315.2725439409063
 20
311.7304151633402
 30
0.0
 11
315.2725439409063
 21
326.7304151633402
 31
0.0
  0
LINE
  5
5838
330
1A
100
AcDbEntity
  8
SEIHIN
100
AcDbLine
 10
317.3972818320063
 20
326.7304151633402
 30
0.0
 11
317.3972818320063
 21
311.7304151633402
 31
0.0
  0
LINE
  5
5839
330
1A
100
AcDbEntity
  8
SEIHIN
100
AcDbLine
 10
308.6771704878061
 20
311.7304151633402
 30
0.0
 11
313.3500688434063
 21
311.7304151633402
 31
0.0
  0
LINE
  5
583A
330
1A
100
AcDbEntity
  8
SEIHIN
100
AcDbLine
 10
307.7132167799062
 20
311.7304151633402
 30
0.0
 11
308.6771704878061
 21
311.7304151633402
 31
0.0
  0
LINE
  5
583B
330
1A
100
AcDbEntity
  8
SEIHIN
100
AcDbLine
 10
313.3500688434063
 20
311.7304151633402
 30
0.0
 11
315.2725439409063
 21
311.7304151633402
 31
0.0
  0
LINE
  5
583C
330
1A
100
AcDbEntity
  8
SEIHIN
100
AcDbLine
 10
317.3972818320063
 20
311.7304151633402
 30
0.0
 11
317.8580822874063
 21
311.7304151633402
 31
0.0
  0
LINE
  5
583D
330
1A
100
AcDbEntity
  8
SEIHIN
100
AcDbLine
 10
315.2725439409063
 20
311.7304151633402
 30
0.0
 11
317.3972818320063
 21
311.7304151633402
 31
0.0
  0
LINE
  5
583E
330
1A
100
AcDbEntity
  8
SEIHIN
100
AcDbLine
 10
280.2175619038063
 20
329.2304151633402
 30
0.0
 11
278.1711078407062
 21
329.2304151633402
 31
0.0
  0
ARC
  5
583F
330
1A
100
AcDbEntity
  8
SEIHIN
100
AcDbCircle
 10
258.2563676204246
 20
358.2257395584635
 30
0.0
 40
0.8109923078982848
100
AcDbArc
 50
357.1479272583768
 51
92.85207274834389
  0
ARC
  5
5840
330
1A
100
AcDbEntity
  8
SEIHIN
100
AcDbCircle
 10
255.7496381327424
 20
355.7190100707763
 30
0.0
 40
1.016854668527165
100
AcDbArc
 50
0.9419935890595004
 51
89.05800641093968
  0
LINE
  5
5841
330
1A
100
AcDbEntity
  8
SEIHIN
100
AcDbLine
 10
287.5455741376061
 20
331.7304151633402
 30
0.0
 11
287.5455741376061
 21
329.2304151633402
 31
0.0
  0
LINE
  5
5842
330
1A
100
AcDbEntity
  8
SEIHIN
100
AcDbLine
 10
313.7513092656984
 20
331.7304151633402
 30
0.0
 11
315.1713552399063
 21
329.8159534724402
 31
0.0
  0
LINE
  5
5843
330
1A
100
AcDbEntity
  8
SEIHIN
100
AcDbLine
 10
315.1713552399063
 20
329.8159534724402
 30
0.0
 11
316.0680728879061
 21
328.6149793204401
 31
0.0
  0
LINE
  5
5844
330
1A
100
AcDbEntity
  8
SEIHIN
100
AcDbLine
 10
316.0680728879061
 20
328.6149793204401
 30
0.0
 11
316.7500445025063
 21
327.6860535099401
 31
0.0
  0
LINE
  5
5845
330
1A
100
AcDbEntity
  8
SEIHIN
100
AcDbLine
 10
313.1010773511062
 20
329.62047023294
 30
0.0
 11
311.5549701521061
 21
331.82745485144
 31
0.0
  0
LINE
  5
5846
330
1A
100
AcDbEntity
  8
SEIHIN
100
AcDbLine
 10
231.7610432252062
 20
404.2385754320402
 30
0.0
 11
303.3029580464061
 21
404.2385754320402
 31
0.0
  0
LINE
  5
5847
330
1A
100
AcDbEntity
  8
SEIHIN
100
AcDbLine
 10
231.7610432252062
 20
413.6383249903404
 30
0.0
 11
312.7077155034061
 21
413.6383249903404
 31
0.0
  0
LINE
  5
5848
330
1A
100
AcDbEntity
  8
SEIHIN
100
AcDbLine
 10
310.816746068206
 20
411.7473555551403
 30
0.0
 11
231.7610432252062
 21
411.7473555551403
 31
0.0
  0
LINE
  5
5849
330
1A
100
AcDbEntity
  8
SEIHIN
100
AcDbLine
 10
229.2610432252061
 20
380.1869338419403
 30
0.0
 11
280.2175619038062
 21
380.1869338419403
 31
0.0
  0
LINE
  5
584A
330
1A
100
AcDbEntity
  8
SEIHIN
100
AcDbLine
 10
278.1711078407062
 20
378.1404797788402
 30
0.0
 11
229.2610432252061
 21
378.1404797788402
 31
0.0
  0
LINE
  5
584B
330
1A
100
AcDbEntity
  8
SEIHIN
100
AcDbLine
 10
211.7610432252062
 20
417.8274542255403
 30
0.0
 11
211.7610432252062
 21
443.0511365097402
 31
0.0
  0
LINE
  5
584C
330
1A
100
AcDbEntity
  8
SEIHIN
100
AcDbLine
 10
226.7610432252062
 20
446.9285844559403
 30
0.0
 11
226.7610432252062
 21
392.3836327122403
 31
0.0
  0
LINE
  5
584D
330
1A
100
AcDbEntity
  8
SEIHIN
100
AcDbLine
 10
216.7610432252061
 20
390.5001434322402
 30
0.0
 11
226.7610432252062
 21
389.4094580109401
 31
0.0
  0
LINE
  5
584E
330
1A
100
AcDbEntity
  8
SEIHIN
100
AcDbLine
 10
211.7610432252062
 20
415.2419158790403
 30
0.0
 11
226.7610432252062
 21
415.2419158790403
 31
0.0
  0
LINE
  5
584F
330
1A
100
AcDbEntity
  8
SEIHIN
100
AcDbLine
 10
226.7610432252062
 20
417.3666537701404
 30
0.0
 11
211.7610432252062
 21
417.3666537701404
 31
0.0
  0
LINE
  5
5850
330
1A
100
AcDbEntity
  8
SEIHIN
100
AcDbLine
 10
226.7610432252062
 20
407.6825887180403
 30
0.0
 11
211.7610432252062
 21
407.6825887180403
 31
0.0
  0
LINE
  5
5851
330
1A
100
AcDbEntity
  8
SEIHIN
100
AcDbLine
 10
214.9765786846061
 20
393.3416634652403
 30
0.0
 11
226.7610432252062
 21
392.3836327122403
 31
0.0
  0
LINE
  5
5852
330
1A
100
AcDbEntity
  8
SEIHIN
100
AcDbLine
 10
211.7610432252062
 20
394.8969666232403
 30
0.0
 11
211.7610432252062
 21
407.6825887180403
 31
0.0
  0
LINE
  5
5853
330
1A
100
AcDbEntity
  8
SEIHIN
100
AcDbLine
 10
212.5857151342062
 20
392.5952093659402
 30
0.0
 11
211.911622266106
 21
393.3472163325402
 31
0.0
  0
LINE
  5
5854
330
1A
100
AcDbEntity
  8
SEIHIN
100
AcDbLine
 10
212.0152974126061
 20
394.3460764174403
 30
0.0
 11
212.761070415306
 21
393.8531780115401
 31
0.0
  0
LINE
  5
5855
330
1A
100
AcDbEntity
  8
SEIHIN
100
AcDbLine
 10
211.911622266106
 20
393.3472163325402
 30
0.0
 11
211.7610432252062
 21
393.8232721255403
 31
0.0
  0
LINE
  5
5856
330
1A
100
AcDbEntity
  8
SEIHIN
100
AcDbLine
 10
211.7610432252062
 20
393.8232721255403
 30
0.0
 11
211.7610432252062
 21
394.8969666232403
 31
0.0
  0
LINE
  5
5857
330
1A
100
AcDbEntity
  8
SEIHIN
100
AcDbLine
 10
211.7610432252062
 20
394.8969666232403
 30
0.0
 11
212.0152974126061
 21
394.3460764174403
 31
0.0
  0
LINE
  5
5858
330
1A
100
AcDbEntity
  8
SEIHIN
100
AcDbLine
 10
214.9765786846061
 20
391.2228025101403
 30
0.0
 11
216.7610432252061
 21
390.5001434322402
 31
0.0
  0
LINE
  5
5859
330
1A
100
AcDbEntity
  8
SEIHIN
100
AcDbLine
 10
214.9765786846061
 20
391.2228025101403
 30
0.0
 11
213.6300437061062
 21
391.8755070016402
 31
0.0
  0
LINE
  5
585A
330
1A
100
AcDbEntity
  8
SEIHIN
100
AcDbLine
 10
213.8848863584061
 20
393.4983307102402
 30
0.0
 11
214.9765786846061
 21
393.3416634652403
 31
0.0
  0
LINE
  5
585B
330
1A
100
AcDbEntity
  8
SEIHIN
100
AcDbLine
 10
213.6300437061062
 20
391.8755070016402
 30
0.0
 11
212.5857151342062
 21
392.5952093659402
 31
0.0
  0
LINE
  5
585C
330
1A
100
AcDbEntity
  8
SEIHIN
100
AcDbLine
 10
212.761070415306
 20
393.8531780115401
 30
0.0
 11
213.8848863584061
 21
393.4983307102402
 31
0.0
  0
LINE
  5
585D
330
1A
100
AcDbEntity
  8
SEIHIN
100
AcDbLine
 10
211.7610432252062
 20
408.6465424259402
 30
0.0
 11
211.7610432252062
 21
413.3194407815404
 31
0.0
  0
LINE
  5
585E
330
1A
100
AcDbEntity
  8
SEIHIN
100
AcDbLine
 10
211.7610432252062
 20
407.6825887180403
 30
0.0
 11
211.7610432252062
 21
408.6465424259402
 31
0.0
  0
LINE
  5
585F
330
1A
100
AcDbEntity
  8
SEIHIN
100
AcDbLine
 10
211.7610432252062
 20
413.3194407815404
 30
0.0
 11
211.7610432252062
 21
415.2419158790403
 31
0.0
  0
LINE
  5
5860
330
1A
100
AcDbEntity
  8
SEIHIN
100
AcDbLine
 10
211.7610432252062
 20
417.3666537701404
 30
0.0
 11
211.7610432252062
 21
417.8274542255403
 31
0.0
  0
LINE
  5
5861
330
1A
100
AcDbEntity
  8
SEIHIN
100
AcDbLine
 10
211.7610432252062
 20
415.2419158790403
 30
0.0
 11
211.7610432252062
 21
417.3666537701404
 31
0.0
  0
LINE
  5
5862
330
1A
100
AcDbEntity
  8
SEIHIN
100
AcDbLine
 10
229.2610432252061
 20
380.1869338419403
 30
0.0
 11
229.2610432252061
 21
378.1404797788402
 31
0.0
  0
LINE
  5
5863
330
1A
100
AcDbEntity
  8
SEIHIN
100
AcDbLine
 10
226.7610432252062
 20
389.4094580109401
 30
0.0
 11
229.2610432252061
 21
387.5149460757402
 31
0.0
  0
LINE
  5
5864
330
1A
100
AcDbEntity
  8
SEIHIN
100
AcDbLine
 10
231.7610432252062
 20
387.5149460757402
 30
0.0
 11
226.7610432252062
 21
392.3836327122403
 31
0.0
  0
LINE
  5
5865
330
1A
100
AcDbEntity
  8
SEIHIN
100
AcDbLine
 10
231.7610432252062
 20
387.5149460757402
 30
0.0
 11
229.2610432252061
 21
387.5149460757402
 31
0.0
  0
LINE
  5
5866
330
1A
100
AcDbEntity
  8
SEIHIN
100
AcDbLine
 10
231.7420757941062
 20
404.3023670046402
 30
0.0
 11
226.7610431442061
 21
407.7344441556402
 31
0.0
  0
LINE
  5
5867
330
1A
100
AcDbEntity
  8
SEIHIN
100
AcDbLine
 10
229.8465815343062
 20
415.1407271780404
 30
0.0
 11
228.6456073823061
 21
416.0374448260402
 31
0.0
  0
LINE
  5
5868
330
1A
100
AcDbEntity
  8
SEIHIN
100
AcDbLine
 10
226.7993282367061
 20
415.1068753850402
 30
0.0
 11
229.651098294806
 21
413.0704492892403
 31
0.0
  0
LINE
  5
5869
330
1A
100
AcDbEntity
  8
SEIHIN
100
AcDbLine
 10
228.6456073823061
 20
416.0374448260402
 30
0.0
 11
227.7166815718061
 21
416.7194164406403
 31
0.0
  0
LINE
  5
586A
330
1A
100
AcDbEntity
  8
SEIHIN
100
AcDbLine
 10
227.7166815718061
 20
416.7194164406403
 30
0.0
 11
226.7610432252062
 21
417.3922734548402
 31
0.0
  0
LINE
  5
586B
330
1A
100
AcDbEntity
  8
SEIHIN
100
AcDbLine
 10
229.651098294806
 20
413.0704492892403
 30
0.0
 11
231.858082913306
 21
411.5243420902402
 31
0.0
  0
LINE
  5
586C
330
1A
100
AcDbEntity
  8
SEIHIN
100
AcDbLine
 10
231.7610432252062
 20
413.7206812038325
 30
0.0
 11
229.8465815343062
 21
415.1407271780404
 31
0.0
  0
LINE
  5
586D
330
1A
100
AcDbEntity
  8
SEIHIN
100
AcDbLine
 10
226.7610432252062
 20
446.9285844559403
 30
0.0
 11
213.4782005127061
 21
445.0310354970402
 31
0.0
  0
ARC
  5
586E
330
1A
100
AcDbEntity
  8
SEIHIN
100
AcDbCircle
 10
213.7610432251533
 20
443.0511365097674
 30
0.0
 40
1.999999999947135
100
AcDbArc
 50
98.13010235357815
 51
180.0000000007783
  0
LINE
  5
586F
330
1A
100
AcDbEntity
  8
SEIHIN
100
AcDbLine
 10
229.2610432252061
 20
448.1530227148403
 30
0.0
 11
229.2610432252061
 21
466.3906845199403
 31
0.0
  0
ARC
  5
5870
330
1A
100
AcDbEntity
  8
SEIHIN
100
AcDbCircle
 10
228.21794416691
 20
448.1904023298845
 30
0.0
 40
1.043768595541793
100
AcDbArc
 50
280.1824272146016
 51
357.9476751393197
  0
LINE
  5
5871
330
1A
100
AcDbEntity
  8
SEIHIN
100
AcDbLine
 10
226.7610432252062
 20
446.9285844559403
 30
0.0
 11
228.4024645814062
 21
447.1630732211401
 31
0.0
  0
LINE
  5
5872
330
1A
100
AcDbEntity
  8
SEIHIN
100
AcDbLine
 10
280.2175619038064
 20
380.1869338419403
 30
0.0
 11
304.0040844330996
 21
403.9734563712336
 31
0.0
  0
ARC
  5
5873
330
1A
100
AcDbEntity
  8
SEIHIN
100
AcDbCircle
 10
303.3597531420628
 20
403.3291250800966
 30
0.0
 40
0.9112220505164478
100
AcDbArc
 50
356.4265242282613
 51
93.5734757717493
  0
ARC
  5
5874
330
1A
100
AcDbEntity
  8
SEIHIN
100
AcDbCircle
 10
310.7108812783863
 20
410.6802532164206
 30
0.0
 40
1.072340782975499
100
AcDbArc
 50
5.665644763733276
 51
84.33435523625117
  0
ARC
  5
5875
330
1A
100
AcDbEntity
  8
SEIHIN
100
AcDbCircle
 10
312.8519045067695
 20
412.8212764448884
 30
0.0
 40
0.8296739084043862
100
AcDbArc
 50
349.9917504868909
 51
100.0082495071577
  0
LINE
  5
5876
330
1A
100
AcDbEntity
  8
SEIHIN
100
AcDbLine
 10
404.9257089417061
 20
326.7304151633402
 30
0.0
 11
367.5941331528061
 21
326.7304151633402
 31
0.0
  0
LINE
  5
5877
330
1A
100
AcDbEntity
  8
SEIHIN
100
AcDbLine
 10
394.1081837166062
 20
307.3492499850401
 30
0.0
 11
370.7358713486063
 21
311.4703261315401
 31
0.0
  0
LINE
  5
5878
330
1A
100
AcDbEntity
  8
SEIHIN
100
AcDbLine
 10
346.9592125178063
 20
326.7304151633402
 30
0.0
 11
347.1937012830061
 21
328.3718365195402
 31
0.0
  0
LINE
  5
5879
330
1A
100
AcDbEntity
  8
SEIHIN
100
AcDbLine
 10
367.4151963165062
 20
328.3408466894402
 30
0.0
 11
367.5941331528061
 21
326.7304151633402
 31
0.0
  0
LINE
  5
587A
330
1A
100
AcDbEntity
  8
SEIHIN
100
AcDbLine
 10
346.9592125178063
 20
326.7304151633402
 30
0.0
 11
345.0616635589061
 21
313.4475724508401
 31
0.0
  0
ARC
  5
587B
330
1A
100
AcDbEntity
  8
SEIHIN
100
AcDbCircle
 10
343.0817645716333
 20
313.7304151632875
 30
0.0
 40
1.999999999947135
100
AcDbArc
 50
269.9999999992215
 51
351.8698976464218
  0
LINE
  5
587C
330
1A
100
AcDbEntity
  8
SEIHIN
100
AcDbLine
 10
369.0953926234061
 20
313.2190799275401
 30
0.0
 11
367.5941331528061
 21
326.7304151633402
 31
0.0
  0
ARC
  5
587D
330
1A
100
AcDbEntity
  8
SEIHIN
100
AcDbCircle
 10
371.1998497423586
 20
313.5494077241858
 30
0.0
 40
2.130224452668432
100
AcDbArc
 50
188.920689715153
 51
257.419723436099
  0
LINE
  5
587E
330
1A
100
AcDbEntity
  8
SEIHIN
100
AcDbLine
 10
348.1836507767062
 20
329.2304151633402
 30
0.0
 11
366.4213125818063
 21
329.2304151633402
 31
0.0
  0
ARC
  5
587F
330
1A
100
AcDbEntity
  8
SEIHIN
100
AcDbCircle
 10
348.2210303917505
 20
328.1873161050441
 30
0.0
 40
1.043768595541793
100
AcDbArc
 50
92.05232486068023
 51
169.8175727853983
  0
ARC
  5
5880
330
1A
100
AcDbEntity
  8
SEIHIN
100
AcDbCircle
 10
366.4213125818522
 20
328.2304151633591
 30
0.0
 40
0.9999999999811848
100
AcDbArc
 50
6.340191746395006
 51
90.00000000263158
  0
DIMENSION
  5
5881
330
1A
100
AcDbEntity
  8
SUNPOU
100
AcDbDimension
  2
*D8
 10
442.5491630806813
 20
282.73041516334
 30
0.0
 11
437.5491630806813
 21
305.9804151633402
 31
0.0
 70
    32
  1
\U+203B<>
  3
STANDARD
100
AcDbAlignedDimension
 13
409.4582089759063
 23
329.2304151633402
 33
0.0
 14
412.6603539464062
 24
282.73041516334
 34
0.0
 50
90.0
100
AcDbRotatedDimension
1001
ACAD
1000
DSTYLE
1002
{
1070
    41
1040
7.0
1070
    42
1040
6.0
1070
    43
1040
14.0
1070
    44
1040
3.0
1070
    73
1070
     0
1070
    74
1070
     0
1070
    77
1070
     3
1070
   140
1040
6.0
1070
   141
1040
30.0
1070
   147
1040
2.0
1070
   172
1070
     1
1070
   176
1070
   256
1070
   177
1070
   256
1070
   178
1070
   256
1070
   271
1070
     0
1070
   272
1070
     0
1070
   341
1005
6D
1070
     5
1000
OPEN
1070
   371
1070
    -1
1070
   372
1070
    -1
1002
}
  0
LINE
  5
5882
330
1A
100
AcDbEntity
  8
SEIHIN
100
AcDbLine
 10
396.2145175463061
 20
329.15270189504
 30
0.0
 11
395.0822464475985
 21
326.7304151633402
 31
0.0
  0
LINE
  5
5883
330
1A
100
AcDbEntity
  8
SEIHIN
100
AcDbLine
 10
397.0689700673687
 20
326.7304151633402
 30
0.0
 11
399.0334987407062
 21
329.15270189504
 31
0.0
  0
LINE
  5
5884
330
1A
100
AcDbEntity
  8
SEIHIN
100
AcDbLine
 10
409.4582089759063
 20
329.2304151633402
 30
0.0
 11
407.6956052695062
 21
326.7304151633402
 31
0.0
  0
LINE
  5
5885
330
1A
100
AcDbEntity
  8
SEIHIN
100
AcDbLine
 10
404.9257089417061
 20
326.7304151633402
 30
0.0
 11
409.4582089759063
 21
331.7304151633402
 31
0.0
  0
LINE
  5
5886
330
1A
100
AcDbEntity
  8
SEIHIN
100
AcDbLine
 10
399.1826852414061
 20
321.7304151633402
 30
0.0
 11
399.1826852414061
 21
282.7304151633401
 31
0.0
  0
LINE
  5
5887
330
1A
100
AcDbEntity
  8
SEIHIN
100
AcDbLine
 10
396.5483214276062
 20
306.9167425896401
 30
0.0
 11
396.5483214276062
 21
282.7304151633401
 31
0.0
  0
LINE
  5
5888
330
1A
100
AcDbEntity
  8
SEIHIN
100
AcDbLine
 10
413.1608540985062
 20
301.06282308474
 30
0.0
 11
413.1608540985062
 21
321.7304151633402
 31
0.0
  0
LINE
  5
5889
330
1A
100
AcDbEntity
  8
SEIHIN
100
AcDbLine
 10
412.6603539464062
 20
282.7304151633401
 30
0.0
 11
413.0497207575062
 21
294.3996896777401
 31
0.0
  0
LINE
  5
588A
330
1A
100
AcDbEntity
  8
SEIHIN
100
AcDbLine
 10
413.0497210315062
 20
294.39968966864
 30
0.0
 11
413.0983392166061
 21
296.06506834354
 31
0.0
  0
LINE
  5
588B
330
1A
100
AcDbEntity
  8
SEIHIN
100
AcDbLine
 10
413.0983392166061
 20
296.06506834354
 30
0.0
 11
413.1608540985062
 21
301.06282308474
 31
0.0
  0
LINE
  5
588C
330
1A
100
AcDbEntity
  8
SEIHIN
100
AcDbLine
 10
401.5762100982061
 20
321.7304151633402
 30
0.0
 11
399.6968248567062
 21
321.7304151633402
 31
0.0
  0
LINE
  5
588D
330
1A
100
AcDbEntity
  8
SEIHIN
100
AcDbLine
 10
397.2369644927063
 20
307.0531718987401
 30
0.0
 11
397.2369644927063
 21
326.7304151633402
 31
0.0
  0
LINE
  5
588E
330
1A
100
AcDbEntity
  8
SEIHIN
100
AcDbLine
 10
394.1081837166062
 20
326.7304151633402
 30
0.0
 11
394.1081837166062
 21
307.3492499850401
 31
0.0
  0
LINE
  5
588F
330
1A
100
AcDbEntity
  8
SEIHIN
100
AcDbLine
 10
397.0881203040063
 20
306.82381863724
 30
0.0
 11
396.5537872796063
 21
306.9180338371402
 31
0.0
  0
LINE
  5
5890
330
1A
100
AcDbEntity
  8
SEIHIN
100
AcDbLine
 10
398.2691523991062
 20
307.01707794464
 30
0.0
 11
397.8451477519062
 21
306.9125981318402
 31
0.0
  0
LINE
  5
5891
330
1A
100
AcDbEntity
  8
SEIHIN
100
AcDbLine
 10
397.8451477519062
 20
306.9125981318402
 30
0.0
 11
397.0881203040063
 21
306.82381863724
 31
0.0
  0
LINE
  5
5892
330
1A
100
AcDbEntity
  8
SEIHIN
100
AcDbLine
 10
398.2691525188062
 20
307.0170779424401
 30
0.0
 11
399.1826852414061
 21
307.42742814914
 31
0.0
  0
LINE
  5
5893
330
1A
100
AcDbEntity
  8
SEIHIN
100
AcDbLine
 10
394.1081837166062
 20
307.3492499850401
 30
0.0
 11
396.5537872796063
 21
306.9180338371402
 31
0.0
  0
LINE
  5
5894
330
1A
100
AcDbEntity
  8
SEIHIN
100
AcDbLine
 10
399.6968248567062
 20
321.7304151633402
 30
0.0
 11
399.3032999998062
 21
321.7304151633402
 31
0.0
  0
LINE
  5
5895
330
1A
100
AcDbEntity
  8
SEIHIN
100
AcDbLine
 10
399.3032999998062
 20
321.7304151633402
 30
0.0
 11
399.1826852414061
 21
321.7304151633402
 31
0.0
  0
LINE
  5
5896
330
1A
100
AcDbEntity
  8
SEIHIN
100
AcDbLine
 10
413.1608540985062
 20
321.7304151633402
 30
0.0
 11
408.1608540985063
 21
321.7304151633402
 31
0.0
  0
LINE
  5
5897
330
1A
100
AcDbEntity
  8
SEIHIN
100
AcDbLine
 10
404.8066648059062
 20
321.7304151633402
 30
0.0
 11
404.9257089417061
 21
326.7304151633402
 31
0.0
  0
LINE
  5
5898
330
1A
100
AcDbEntity
  8
SEIHIN
100
AcDbLine
 10
407.4509768165063
 20
321.7304151633402
 30
0.0
 11
407.6956052695062
 21
326.7304151633402
 31
0.0
  0
LINE
  5
5899
330
1A
100
AcDbEntity
  8
SEIHIN
100
AcDbLine
 10
408.1608540985063
 20
321.7304151633402
 30
0.0
 11
401.5762100982061
 21
321.7304151633402
 31
0.0
  0
LINE
  5
589A
330
1A
100
AcDbEntity
  8
SEIHIN
100
AcDbLine
 10
410.0145253868062
 20
326.7304151633402
 30
0.0
 11
410.0179333288061
 21
325.8621742749401
 31
0.0
  0
LINE
  5
589B
330
1A
100
AcDbEntity
  8
SEIHIN
100
AcDbLine
 10
412.7206492413062
 20
325.8621742749401
 30
0.0
 11
412.7172412992061
 21
326.7304151633402
 31
0.0
  0
LINE
  5
589C
330
1A
100
AcDbEntity
  8
SEIHIN
100
AcDbLine
 10
410.0280536064061
 20
325.0203144467402
 30
0.0
 11
410.0445787201062
 21
324.2304151633402
 31
0.0
  0
LINE
  5
589D
330
1A
100
AcDbEntity
  8
SEIHIN
100
AcDbLine
 10
410.0445787201062
 20
324.2304151633402
 30
0.0
 11
410.0670065625061
 21
323.5164771149402
 31
0.0
  0
LINE
  5
589E
330
1A
100
AcDbEntity
  8
SEIHIN
100
AcDbLine
 10
410.0670065625061
 20
323.5164771149402
 30
0.0
 11
410.0946556750062
 21
322.9001929477401
 31
0.0
  0
LINE
  5
589F
330
1A
100
AcDbEntity
  8
SEIHIN
100
AcDbLine
 10
410.0946556750062
 20
322.9001929477401
 30
0.0
 11
410.1266859535063
 21
322.4002881444401
 31
0.0
  0
LINE
  5
58A0
330
1A
100
AcDbEntity
  8
SEIHIN
100
AcDbLine
 10
410.1266859535063
 20
322.4002881444401
 30
0.0
 11
410.1621241740061
 21
322.03195205944
 31
0.0
  0
LINE
  5
58A1
330
1A
100
AcDbEntity
  8
SEIHIN
100
AcDbLine
 10
410.1621241740061
 20
322.03195205944
 30
0.0
 11
410.1998935642062
 21
321.8063763982402
 31
0.0
  0
LINE
  5
58A2
330
1A
100
AcDbEntity
  8
SEIHIN
100
AcDbLine
 10
410.1998935642062
 20
321.8063763982402
 30
0.0
 11
410.2388465202063
 21
321.7304151633402
 31
0.0
  0
LINE
  5
58A3
330
1A
100
AcDbEntity
  8
SEIHIN
100
AcDbLine
 10
412.9415624327062
 20
321.7304151633402
 30
0.0
 11
412.9026094766062
 21
321.8063763982402
 31
0.0
  0
LINE
  5
58A4
330
1A
100
AcDbEntity
  8
SEIHIN
100
AcDbLine
 10
412.9026094766062
 20
321.8063763982402
 30
0.0
 11
412.8648400865062
 21
322.03195205944
 31
0.0
  0
LINE
  5
58A5
330
1A
100
AcDbEntity
  8
SEIHIN
100
AcDbLine
 10
412.8648400865062
 20
322.03195205944
 30
0.0
 11
412.8294018660061
 21
322.4002881444401
 31
0.0
  0
LINE
  5
58A6
330
1A
100
AcDbEntity
  8
SEIHIN
100
AcDbLine
 10
412.8294018660061
 20
322.4002881444401
 30
0.0
 11
412.7973715875063
 21
322.9001929477401
 31
0.0
  0
LINE
  5
58A7
330
1A
100
AcDbEntity
  8
SEIHIN
100
AcDbLine
 10
412.7973715875063
 20
322.9001929477401
 30
0.0
 11
412.7697224749061
 21
323.5164771149402
 31
0.0
  0
LINE
  5
58A8
330
1A
100
AcDbEntity
  8
SEIHIN
100
AcDbLine
 10
412.7697224749061
 20
323.5164771149402
 30
0.0
 11
412.7472946325061
 21
324.2304151633402
 31
0.0
  0
LINE
  5
58A9
330
1A
100
AcDbEntity
  8
SEIHIN
100
AcDbLine
 10
412.7472946325061
 20
324.2304151633402
 30
0.0
 11
412.7307695189061
 21
325.0203144467402
 31
0.0
  0
LINE
  5
58AA
330
1A
100
AcDbEntity
  8
SEIHIN
100
AcDbLine
 10
410.0179333288061
 20
325.8621742749401
 30
0.0
 11
410.0280536064061
 21
325.0203144467402
 31
0.0
  0
LINE
  5
58AB
330
1A
100
AcDbEntity
  8
SEIHIN
100
AcDbLine
 10
412.7307695189061
 20
325.0203144467402
 30
0.0
 11
412.7206492413062
 21
325.8621742749401
 31
0.0
  0
LINE
  5
58AC
330
1A
100
AcDbEntity
  8
SEIHIN
100
AcDbLine
 10
396.7561071294063
 20
330.4318975446401
 30
0.0
 11
396.2145175463061
 21
329.15270189504
 31
0.0
  0
LINE
  5
58AD
330
1A
100
AcDbEntity
  8
SEIHIN
100
AcDbLine
 10
399.0334987407062
 20
329.15270189504
 30
0.0
 11
400.0805033209063
 21
330.4318975446401
 31
0.0
  0
LINE
  5
58AE
330
1A
100
AcDbEntity
  8
SEIHIN
100
AcDbLine
 10
397.5061925868061
 20
331.6270720909401
 30
0.0
 11
396.7561071294063
 21
330.4318975446401
 31
0.0
  0
LINE
  5
58AF
330
1A
100
AcDbEntity
  8
SEIHIN
100
AcDbLine
 10
400.0805033209063
 20
330.4318975446401
 30
0.0
 11
401.0157207307062
 21
331.6270720909401
 31
0.0
  0
LINE
  5
58B0
330
1A
100
AcDbEntity
  8
SEIHIN
100
AcDbLine
 10
409.4582089759063
 20
331.7304151633402
 30
0.0
 11
409.4582089759063
 21
329.2304151633402
 31
0.0
  0
LINE
  5
58B1
330
1A
100
AcDbEntity
  8
SEIHIN
100
AcDbLine
 10
231.7610432252062
 20
501.2449299822403
 30
0.0
 11
396.3521615973062
 21
501.2449299822401
 31
0.0
  0
LINE
  5
58B2
330
1A
100
AcDbEntity
  8
SEIHIN
100
AcDbLine
 10
226.7610432252062
 20
512.6866132373402
 30
0.0
 11
405.2247779195061
 21
512.6866132373399
 31
0.0
  0
LINE
  5
58B3
330
1A
100
AcDbEntity
  8
SEIHIN
100
AcDbLine
 10
226.7610432252062
 20
509.9838973249402
 30
0.0
 11
405.0195498002061
 21
509.98389732494
 31
0.0
  0
LINE
  5
58B4
330
1A
100
AcDbEntity
  8
SEIHIN
100
AcDbLine
 10
221.7610432252062
 20
513.1302260366403
 30
0.0
 11
221.7610432252062
 21
508.1302260366403
 31
0.0
  0
LINE
  5
58B5
330
1A
100
AcDbEntity
  8
SEIHIN
100
AcDbLine
 10
196.0956964054062
 20
513.0677111547401
 30
0.0
 11
201.0934511466061
 21
513.1302260366403
 31
0.0
  0
LINE
  5
58B6
330
1A
100
AcDbEntity
  8
SEIHIN
100
AcDbLine
 10
207.0837999606061
 20
497.2063364308403
 30
0.0
 11
226.7610432252062
 21
497.2063364308403
 31
0.0
  0
LINE
  5
58B7
330
1A
100
AcDbEntity
  8
SEIHIN
100
AcDbLine
 10
226.7610432252062
 20
494.0775556547403
 30
0.0
 11
207.3798780469061
 21
494.0775556547403
 31
0.0
  0
LINE
  5
58B8
330
1A
100
AcDbEntity
  8
SEIHIN
100
AcDbLine
 10
213.2497079894061
 20
469.0647645615402
 30
0.0
 11
226.7610432252062
 21
467.5635050909402
 31
0.0
  0
LINE
  5
58B9
330
1A
100
AcDbEntity
  8
SEIHIN
100
AcDbLine
 10
207.3798780469061
 20
494.0775556547403
 30
0.0
 11
211.500954193406
 21
470.7052432867404
 31
0.0
  0
ARC
  5
58BA
330
1A
100
AcDbEntity
  8
SEIHIN
100
AcDbCircle
 10
213.5800357860516
 20
471.1692216804928
 30
0.0
 40
2.130224452668432
100
AcDbArc
 50
192.5802765639009
 51
261.0793102848469
  0
LINE
  5
58BB
330
1A
100
AcDbEntity
  8
SEIHIN
100
AcDbLine
 10
194.4303177305062
 20
513.0190929696403
 30
0.0
 11
196.0956964054062
 21
513.0677111547401
 31
0.0
  0
LINE
  5
58BC
330
1A
100
AcDbEntity
  8
SEIHIN
100
AcDbLine
 10
206.854446699106
 20
497.0574922421404
 30
0.0
 11
206.9486618990061
 21
496.5231592177404
 31
0.0
  0
LINE
  5
58BD
330
1A
100
AcDbEntity
  8
SEIHIN
100
AcDbLine
 10
207.047706006506
 20
498.2385243372402
 30
0.0
 11
206.9432261937062
 21
497.8145196900402
 31
0.0
  0
LINE
  5
58BE
330
1A
100
AcDbEntity
  8
SEIHIN
100
AcDbLine
 10
206.9432261937062
 20
497.8145196900402
 30
0.0
 11
206.854446699106
 21
497.0574922421404
 31
0.0
  0
LINE
  5
58BF
330
1A
100
AcDbEntity
  8
SEIHIN
100
AcDbLine
 10
207.0477060043061
 20
498.2385244569402
 30
0.0
 11
207.4580562110059
 21
499.1520571795401
 31
0.0
  0
LINE
  5
58C0
330
1A
100
AcDbEntity
  8
SEIHIN
100
AcDbLine
 10
207.3798780469061
 20
494.0775556547403
 30
0.0
 11
206.9486618990061
 21
496.5231592177404
 31
0.0
  0
LINE
  5
58C1
330
1A
100
AcDbEntity
  8
SEIHIN
100
AcDbLine
 10
226.7610432252062
 20
504.8950808798402
 30
0.0
 11
226.7610432252062
 21
467.5635050909402
 31
0.0
  0
LINE
  5
58C2
330
1A
100
AcDbEntity
  8
SEIHIN
100
AcDbLine
 10
228.3714747513062
 20
467.3845682546402
 30
0.0
 11
226.7610432252062
 21
467.5635050909402
 31
0.0
  0
LINE
  5
58C3
330
1A
100
AcDbEntity
  8
SEIHIN
100
AcDbLine
 10
221.7610432252062
 20
501.5455820363402
 30
0.0
 11
221.7610432252062
 21
499.6661967948402
 31
0.0
  0
LINE
  5
58C4
330
1A
100
AcDbEntity
  8
SEIHIN
100
AcDbLine
 10
229.183329956906
 20
496.1838894844402
 30
0.0
 11
226.7610432252062
 21
495.0516183857326
 31
0.0
  0
LINE
  5
58C5
330
1A
100
AcDbEntity
  8
SEIHIN
100
AcDbLine
 10
226.7610432252062
 20
497.0383420055027
 30
0.0
 11
229.183329956906
 21
499.0028706788402
 31
0.0
  0
LINE
  5
58C6
330
1A
100
AcDbEntity
  8
SEIHIN
100
AcDbLine
 10
221.7610432252062
 20
499.6661967948402
 30
0.0
 11
221.7610432252062
 21
499.2726719379402
 31
0.0
  0
LINE
  5
58C7
330
1A
100
AcDbEntity
  8
SEIHIN
100
AcDbLine
 10
221.7610432252062
 20
499.2726719379402
 30
0.0
 11
221.7610432252062
 21
499.1520571795401
 31
0.0
  0
LINE
  5
58C8
330
1A
100
AcDbEntity
  8
SEIHIN
100
AcDbLine
 10
231.6577001528061
 20
497.4755645249401
 30
0.0
 11
230.4625256065061
 21
496.7254790675403
 31
0.0
  0
LINE
  5
58C9
330
1A
100
AcDbEntity
  8
SEIHIN
100
AcDbLine
 10
230.4625256065061
 20
500.0498752590403
 30
0.0
 11
231.6577001528061
 21
500.9850926688402
 31
0.0
  0
LINE
  5
58CA
330
1A
100
AcDbEntity
  8
SEIHIN
100
AcDbLine
 10
230.4625256065061
 20
496.7254790675403
 30
0.0
 11
229.183329956906
 21
496.1838894844402
 31
0.0
  0
LINE
  5
58CB
330
1A
100
AcDbEntity
  8
SEIHIN
100
AcDbLine
 10
229.183329956906
 20
499.0028706788402
 30
0.0
 11
230.4625256065061
 21
500.0498752590403
 31
0.0
  0
LINE
  5
58CC
330
1A
100
AcDbEntity
  8
SEIHIN
100
AcDbLine
 10
229.2610432252061
 20
509.4275809140404
 30
0.0
 11
226.7610432252062
 21
507.6649772076402
 31
0.0
  0
LINE
  5
58CD
330
1A
100
AcDbEntity
  8
SEIHIN
100
AcDbLine
 10
226.7610432252062
 20
504.8950808798402
 30
0.0
 11
231.7610432252062
 21
509.4275809140404
 31
0.0
  0
LINE
  5
58CE
330
1A
100
AcDbEntity
  8
SEIHIN
100
AcDbLine
 10
226.7610432252062
 20
509.9838973249402
 30
0.0
 11
225.892802336806
 21
509.9873052669401
 31
0.0
  0
LINE
  5
58CF
330
1A
100
AcDbEntity
  8
SEIHIN
100
AcDbLine
 10
225.892802336806
 20
512.6900211794402
 30
0.0
 11
226.7610432252062
 21
512.6866132373402
 31
0.0
  0
LINE
  5
58D0
330
1A
100
AcDbEntity
  8
SEIHIN
100
AcDbLine
 10
225.892802336806
 20
509.9873052669401
 30
0.0
 11
225.0509425086062
 21
509.9974255445402
 31
0.0
  0
LINE
  5
58D1
330
1A
100
AcDbEntity
  8
SEIHIN
100
AcDbLine
 10
225.0509425086062
 20
512.7001414570401
 30
0.0
 11
225.892802336806
 21
512.6900211794402
 31
0.0
  0
LINE
  5
58D2
330
1A
100
AcDbEntity
  8
SEIHIN
100
AcDbLine
 10
222.062580121306
 20
510.1314961121402
 30
0.0
 11
221.8370044601062
 21
510.1692655023403
 31
0.0
  0
LINE
  5
58D3
330
1A
100
AcDbEntity
  8
SEIHIN
100
AcDbLine
 10
221.8370044601062
 20
512.8719814147403
 30
0.0
 11
222.062580121306
 21
512.8342120246402
 31
0.0
  0
LINE
  5
58D4
330
1A
100
AcDbEntity
  8
SEIHIN
100
AcDbLine
 10
221.8370044601062
 20
510.1692655023403
 30
0.0
 11
221.7610432252062
 21
510.2082184583403
 31
0.0
  0
LINE
  5
58D5
330
1A
100
AcDbEntity
  8
SEIHIN
100
AcDbLine
 10
221.7610432252062
 20
512.9109343708403
 30
0.0
 11
221.8370044601062
 21
512.8719814147403
 31
0.0
  0
LINE
  5
58D6
330
1A
100
AcDbEntity
  8
SEIHIN
100
AcDbLine
 10
224.2610432252062
 20
510.0139506582402
 30
0.0
 11
223.5471051768062
 21
510.0363785006402
 31
0.0
  0
LINE
  5
58D7
330
1A
100
AcDbEntity
  8
SEIHIN
100
AcDbLine
 10
223.5471051768062
 20
510.0363785006402
 30
0.0
 11
222.9308210096061
 21
510.0640276131403
 31
0.0
  0
LINE
  5
58D8
330
1A
100
AcDbEntity
  8
SEIHIN
100
AcDbLine
 10
222.9308210096061
 20
510.0640276131403
 30
0.0
 11
222.430916206306
 21
510.0960578916404
 31
0.0
  0
LINE
  5
58D9
330
1A
100
AcDbEntity
  8
SEIHIN
100
AcDbLine
 10
222.430916206306
 20
510.0960578916404
 30
0.0
 11
222.062580121306
 21
510.1314961121402
 31
0.0
  0
LINE
  5
58DA
330
1A
100
AcDbEntity
  8
SEIHIN
100
AcDbLine
 10
222.062580121306
 20
512.8342120246402
 30
0.0
 11
222.430916206306
 21
512.7987738041402
 31
0.0
  0
LINE
  5
58DB
330
1A
100
AcDbEntity
  8
SEIHIN
100
AcDbLine
 10
222.430916206306
 20
512.7987738041402
 30
0.0
 11
222.9308210096061
 21
512.7667435256403
 31
0.0
  0
LINE
  5
58DC
330
1A
100
AcDbEntity
  8
SEIHIN
100
AcDbLine
 10
222.9308210096061
 20
512.7667435256403
 30
0.0
 11
223.5471051768062
 21
512.7390944130402
 31
0.0
  0
LINE
  5
58DD
330
1A
100
AcDbEntity
  8
SEIHIN
100
AcDbLine
 10
223.5471051768062
 20
512.7390944130402
 30
0.0
 11
224.2610432252062
 21
512.7166665706401
 31
0.0
  0
LINE
  5
58DE
330
1A
100
AcDbEntity
  8
SEIHIN
100
AcDbLine
 10
221.7610432252062
 20
508.1302260366403
 30
0.0
 11
221.7610432252062
 21
501.5455820363402
 31
0.0
  0
LINE
  5
58DF
330
1A
100
AcDbEntity
  8
SEIHIN
100
AcDbLine
 10
221.7610432252062
 20
504.7760367440402
 30
0.0
 11
226.7610432252062
 21
504.8950808798402
 31
0.0
  0
LINE
  5
58E0
330
1A
100
AcDbEntity
  8
SEIHIN
100
AcDbLine
 10
221.7610432252062
 20
507.4203487546403
 30
0.0
 11
226.7610432252062
 21
507.6649772076402
 31
0.0
  0
LINE
  5
58E1
330
1A
100
AcDbEntity
  8
SEIHIN
100
AcDbLine
 10
225.0509425086062
 20
509.9974255445402
 30
0.0
 11
224.2610432252062
 21
510.0139506582402
 31
0.0
  0
LINE
  5
58E2
330
1A
100
AcDbEntity
  8
SEIHIN
100
AcDbLine
 10
224.2610432252062
 20
512.7166665706401
 30
0.0
 11
225.0509425086062
 21
512.7001414570401
 31
0.0
  0
LINE
  5
58E3
330
1A
100
AcDbEntity
  8
SEIHIN
100
AcDbLine
 10
231.7610432252062
 20
509.4275809140404
 30
0.0
 11
229.2610432252061
 21
509.4275809140404
 31
0.0
  0
LINE
  5
58E4
330
1A
100
AcDbEntity
  8
SEIHIN
100
AcDbLine
 10
201.0934511466061
 20
513.1302260366403
 30
0.0
 11
221.7610432252062
 21
513.1302260366403
 31
0.0
  0
ARC
  5
58E5
330
1A
100
AcDbEntity
  8
SEIHIN
100
AcDbCircle
 10
405.2277931025352
 20
505.1970270686362
 30
0.0
 40
7.489586775635422
100
AcDbArc
 50
0.2345418579047265
 51
90.0230663282047
  0
ARC
  5
58E6
330
1A
100
AcDbEntity
  8
SEIHIN
100
AcDbCircle
 10
396.1674084631561
 20
496.1367804011862
 30
0.0
 40
5.111489593257389
100
AcDbArc
 50
2.071388566153917
 51
87.92861143501282
  0
ARC
  5
58E7
330
1A
100
AcDbEntity
  8
SEIHIN
100
AcDbCircle
 10
405.0216248977151
 20
504.9909968357491
 30
0.0
 40
4.992900920306388
100
AcDbArc
 50
359.9761873249795
 51
90.02381267502213
  0
LINE
  5
58E8
330
1A
100
AcDbEntity
  8
SEIHIN
100
AcDbLine
 10
706.7507046392064
 20
72.50432700991871
 30
0.0
 11
720.5890034909065
 21
73.08805556751872
 31
0.0
  0
LINE
  5
58E9
330
1A
100
AcDbEntity
  8
SEIHIN
100
AcDbLine
 10
732.4071212609064
 20
73.08805556751872
 30
0.0
 11
712.6609105614065
 21
72.50432700991871
 31
0.0
  0
LINE
  5
58EA
330
1A
100
AcDbEntity
  8
SEIHIN
100
AcDbLine
 10
562.3517201512064
 20
147.4097256456186
 30
0.0
 11
740.8154548455065
 21
147.4097256456186
 31
0.0
  0
LINE
  5
58EB
330
1A
100
AcDbEntity
  8
SEIHIN
100
AcDbLine
 10
536.6841280726064
 20
73.08805556751872
 30
0.0
 11
720.5890034909065
 21
73.08805556751872
 31
0.0
  0
LINE
  5
58EC
330
1A
100
AcDbEntity
  8
SEIHIN
100
AcDbLine
 10
518.3517201512065
 20
214.6333089982188
 30
0.0
 11
518.3517201512065
 21
72.80972564561875
 31
0.0
  0
LINE
  5
58ED
330
1A
100
AcDbEntity
  8
SEIHIN
100
AcDbLine
 10
536.6841280726064
 20
72.30972564561875
 30
0.0
 11
692.9070323009065
 21
72.30972564561875
 31
0.0
  0
LINE
  5
58EE
330
1A
100
AcDbEntity
  8
SEIHIN
100
AcDbLine
 10
530.0211620261063
 20
73.19557612391872
 30
0.0
 11
533.4339885263063
 21
73.11363301721872
 31
0.0
  0
ARC
  5
58EF
330
1A
100
AcDbEntity
  8
SEIHIN
100
AcDbCircle
 10
536.6841280726064
 20
272.3097256456187
 30
0.0
 40
200.0
100
AcDbArc
 50
268.0908475670002
 51
270.0
  0
LINE
  5
58F0
330
1A
100
AcDbEntity
  8
SEIHIN
100
AcDbLine
 10
518.3517201512064
 20
73.57189675791869
 30
0.0
 11
524.3456368323064
 21
73.3785906210187
 31
0.0
  0
LINE
  5
58F1
330
1A
100
AcDbEntity
  8
SEIHIN
100
AcDbLine
 10
518.3517201512064
 20
72.80972564561875
 30
0.0
 11
530.0211620261063
 21
72.42074424981876
 31
0.0
  0
LINE
  5
58F2
330
1A
100
AcDbEntity
  8
SEIHIN
100
AcDbLine
 10
524.3456368323064
 20
73.3785906210187
 30
0.0
 11
530.0211620261063
 21
73.19557612391872
 31
0.0
  0
LINE
  5
58F3
330
1A
100
AcDbEntity
  8
SEIHIN
100
AcDbLine
 10
533.4339885263063
 20
73.11363301721872
 30
0.0
 11
536.6841280726064
 21
73.08805556751872
 31
0.0
  0
LINE
  5
58F4
330
1A
100
AcDbEntity
  8
SEIHIN
100
AcDbLine
 10
712.6609105614065
 20
72.50432700991871
 30
0.0
 11
692.9070323009065
 21
72.30972564561875
 31
0.0
  0
LINE
  5
58F5
330
1A
100
AcDbEntity
  8
SEIHIN
100
AcDbLine
 10
692.9070323009065
 20
72.30972564561875
 30
0.0
 11
706.7507046392064
 21
72.50432700991871
 31
0.0
  0
LINE
  5
58F6
330
1A
100
AcDbEntity
  8
SEIHIN
100
AcDbLine
 10
591.3570323009064
 20
214.3040770909187
 30
0.0
 11
560.3517201512064
 21
214.3040770909187
 31
0.0
  0
LINE
  5
58F7
330
1A
100
AcDbEntity
  8
SEIHIN
100
AcDbLine
 10
590.3517201512064
 20
214.7689370380187
 30
0.0
 11
536.6841280726064
 21
214.7689370266186
 31
0.0
  0
LINE
  5
58F8
330
1A
100
AcDbEntity
  8
SEIHIN
100
AcDbLine
 10
564.8517201512064
 20
186.0097256456187
 30
0.0
 11
615.3570323009064
 21
186.0097256456187
 31
0.0
  0
LINE
  5
58F9
330
1A
100
AcDbEntity
  8
SEIHIN
100
AcDbLine
 10
564.8517201512064
 20
151.5420547058187
 30
0.0
 11
614.9036642582063
 21
151.5420547058187
 31
0.0
  0
LINE
  5
58FA
330
1A
100
AcDbEntity
  8
SEIHIN
100
AcDbLine
 10
593.8066915923063
 20
190.5097256456188
 30
0.0
 11
518.3517201512064
 21
190.5097256456188
 31
0.0
  0
LINE
  5
58FB
330
1A
100
AcDbEntity
  8
SEIHIN
100
AcDbLine
 10
557.3517201512064
 20
162.4097256456186
 30
0.0
 11
536.6841280726064
 21
162.4097256456186
 31
0.0
  0
LINE
  5
58FC
330
1A
100
AcDbEntity
  8
SEIHIN
100
AcDbLine
 10
536.6841280726064
 20
162.4097256456186
 30
0.0
 11
530.1877361773064
 21
162.4097256456186
 31
0.0
  0
LINE
  5
58FD
330
1A
100
AcDbEntity
  8
SEIHIN
100
AcDbLine
 10
530.1877361773064
 20
162.4097256456186
 30
0.0
 11
518.3517201512064
 21
162.4097256456186
 31
0.0
  0
LINE
  5
58FE
330
1A
100
AcDbEntity
  8
SEIHIN
100
AcDbLine
 10
564.8517201512064
 20
151.5420547058187
 30
0.0
 11
564.8517201512064
 21
186.0097256456187
 31
0.0
  0
LINE
  5
58FF
330
1A
100
AcDbEntity
  8
SEIHIN
100
AcDbLine
 10
557.3517201512064
 20
152.4097256456186
 30
0.0
 11
557.3517201512064
 21
157.1856299286187
 31
0.0
  0
LINE
  5
5900
330
1A
100
AcDbEntity
  8
SEIHIN
100
AcDbLine
 10
561.4834792628064
 20
147.4856868805186
 30
0.0
 11
562.3517201512064
 21
147.4097256456186
 31
0.0
  0
LINE
  5
5901
330
1A
100
AcDbEntity
  8
SEIHIN
100
AcDbLine
 10
557.3517201512064
 20
152.4097256456186
 30
0.0
 11
557.4276813861064
 21
151.5414847573187
 31
0.0
  0
LINE
  5
5902
330
1A
100
AcDbEntity
  8
SEIHIN
100
AcDbLine
 10
557.4276813861064
 20
151.5414847573187
 30
0.0
 11
557.6532570473063
 21
150.6996249290186
 31
0.0
  0
LINE
  5
5903
330
1A
100
AcDbEntity
  8
SEIHIN
100
AcDbLine
 10
557.6532570473063
 20
150.6996249290186
 30
0.0
 11
558.0215931323063
 21
149.9097256456186
 31
0.0
  0
LINE
  5
5904
330
1A
100
AcDbEntity
  8
SEIHIN
100
AcDbLine
 10
558.0215931323063
 20
149.9097256456186
 30
0.0
 11
558.5214979356065
 21
149.1957875972186
 31
0.0
  0
LINE
  5
5905
330
1A
100
AcDbEntity
  8
SEIHIN
100
AcDbLine
 10
558.5214979356065
 20
149.1957875972186
 30
0.0
 11
559.1377821028064
 21
148.5795034300188
 31
0.0
  0
LINE
  5
5906
330
1A
100
AcDbEntity
  8
SEIHIN
100
AcDbLine
 10
559.1377821028064
 20
148.5795034300188
 30
0.0
 11
559.8517201512065
 21
148.0795986267187
 31
0.0
  0
LINE
  5
5907
330
1A
100
AcDbEntity
  8
SEIHIN
100
AcDbLine
 10
559.8517201512065
 20
148.0795986267187
 30
0.0
 11
560.6416194346064
 21
147.7112625417187
 31
0.0
  0
LINE
  5
5908
330
1A
100
AcDbEntity
  8
SEIHIN
100
AcDbLine
 10
560.6416194346064
 20
147.7112625417187
 30
0.0
 11
561.4834792628064
 21
147.4856868805186
 31
0.0
  0
LINE
  5
5909
330
1A
100
AcDbEntity
  8
SEIHIN
100
AcDbLine
 10
557.3517201512064
 20
157.1856299286187
 30
0.0
 11
557.3517201512064
 21
162.4097256456186
 31
0.0
  0
LINE
  5
590A
330
1A
100
AcDbEntity
  8
SEIHIN
100
AcDbLine
 10
518.3517201512064
 20
207.5097256456188
 30
0.0
 11
557.3517201512064
 21
207.5097256456188
 31
0.0
  0
LINE
  5
590B
330
1A
100
AcDbEntity
  8
SEIHIN
100
AcDbLine
 10
557.3517201512064
 20
212.5355415290187
 30
0.0
 11
518.3517201512064
 21
212.5355415290187
 31
0.0
  0
LINE
  5
590C
330
1A
100
AcDbEntity
  8
SEIHIN
100
AcDbLine
 10
535.0302458068064
 20
214.7670714674186
 30
0.0
 11
530.0697379282064
 21
214.7390904388187
 31
0.0
  0
LINE
  5
590D
330
1A
100
AcDbEntity
  8
SEIHIN
100
AcDbLine
 10
530.0697379282064
 20
214.7390904388187
 30
0.0
 11
518.3517201512064
 21
214.6333089982188
 31
0.0
  0
LINE
  5
590E
330
1A
100
AcDbEntity
  8
SEIHIN
100
AcDbLine
 10
536.6841280726064
 20
214.7689370380187
 30
0.0
 11
535.0302458068064
 21
214.7670714674186
 31
0.0
  0
LINE
  5
590F
330
1A
100
AcDbEntity
  8
SEIHIN
100
AcDbLine
 10
557.3517201512064
 20
212.0355415290187
 30
0.0
 11
557.3517201512064
 21
211.4339395884187
 31
0.0
  0
LINE
  5
5910
330
1A
100
AcDbEntity
  8
SEIHIN
100
AcDbLine
 10
560.3517201512064
 20
210.8589198224187
 30
0.0
 11
560.3517201512064
 21
214.3040770909187
 31
0.0
  0
LINE
  5
5911
330
1A
100
AcDbEntity
  8
SEIHIN
100
AcDbLine
 10
559.5164586245064
 20
211.1822632204186
 30
0.0
 11
558.8682871971063
 21
211.3472112044187
 31
0.0
  0
LINE
  5
5912
330
1A
100
AcDbEntity
  8
SEIHIN
100
AcDbLine
 10
558.8682871971063
 20
211.3472112044187
 30
0.0
 11
558.5139064729064
 21
211.3420372922187
 31
0.0
  0
LINE
  5
5913
330
1A
100
AcDbEntity
  8
SEIHIN
100
AcDbLine
 10
557.7892460726063
 20
211.1257364657187
 30
0.0
 11
558.1145086537064
 21
211.2427178509187
 31
0.0
  0
LINE
  5
5914
330
1A
100
AcDbEntity
  8
SEIHIN
100
AcDbLine
 10
558.1145086537064
 20
211.2427178509187
 30
0.0
 11
558.5139064729064
 21
211.3420372922187
 31
0.0
  0
LINE
  5
5915
330
1A
100
AcDbEntity
  8
SEIHIN
100
AcDbLine
 10
557.4043511235064
 20
210.8589198224187
 30
0.0
 11
560.3517201512064
 21
210.8589198224187
 31
0.0
  0
LINE
  5
5916
330
1A
100
AcDbEntity
  8
SEIHIN
100
AcDbLine
 10
557.3517201512064
 20
209.1681701208187
 30
0.0
 11
557.3517201512064
 21
207.7439561780187
 31
0.0
  0
LINE
  5
5917
330
1A
100
AcDbEntity
  8
SEIHIN
100
AcDbLine
 10
557.3517201512064
 20
207.5097256456188
 30
0.0
 11
557.3517201512064
 21
207.7439561780187
 31
0.0
  0
LINE
  5
5918
330
1A
100
AcDbEntity
  8
SEIHIN
100
AcDbLine
 10
560.3517201512064
 20
210.8589198224187
 30
0.0
 11
560.3415782900064
 21
210.8630601910188
 31
0.0
  0
LINE
  5
5919
330
1A
100
AcDbEntity
  8
SEIHIN
100
AcDbLine
 10
557.3517201512064
 20
210.7097256456187
 30
0.0
 11
557.4014261612064
 21
210.8547504858187
 31
0.0
  0
LINE
  5
591A
330
1A
100
AcDbEntity
  8
SEIHIN
100
AcDbLine
 10
557.4014261612064
 20
210.8547504858187
 30
0.0
 11
557.5488970661065
 21
210.9949695885186
 31
0.0
  0
LINE
  5
591B
330
1A
100
AcDbEntity
  8
SEIHIN
100
AcDbLine
 10
557.3517201512064
 20
209.1681701208187
 30
0.0
 11
557.3517201512064
 21
211.4339395884187
 31
0.0
  0
LINE
  5
591C
330
1A
100
AcDbEntity
  8
SEIHIN
100
AcDbLine
 10
560.3415782900064
 20
210.8630601910188
 30
0.0
 11
559.5164586245064
 21
211.1822632204186
 31
0.0
  0
LINE
  5
591D
330
1A
100
AcDbEntity
  8
SEIHIN
100
AcDbLine
 10
557.5488970661065
 20
210.9949695885186
 30
0.0
 11
557.7892460726063
 21
211.1257364657187
 31
0.0
  0
LINE
  5
591E
330
1A
100
AcDbEntity
  8
SEIHIN
100
AcDbLine
 10
557.3517201512064
 20
212.5355415290187
 30
0.0
 11
557.3517201512064
 21
213.5040770909187
 31
0.0
  0
LINE
  5
591F
330
1A
100
AcDbEntity
  8
SEIHIN
100
AcDbLine
 10
557.3517201512064
 20
212.0355415290187
 30
0.0
 11
557.3517201512064
 21
212.5355415290187
 31
0.0
  0
LINE
  5
5920
330
1A
100
AcDbEntity
  8
SEIHIN
100
AcDbLine
 10
560.3517201512064
 20
214.3040770909187
 30
0.0
 11
559.7664491851064
 21
214.2887053153188
 31
0.0
  0
LINE
  5
5921
330
1A
100
AcDbEntity
  8
SEIHIN
100
AcDbLine
 10
559.7664491851064
 20
214.2887053153188
 30
0.0
 11
559.2036698541064
 21
214.2431807169186
 31
0.0
  0
LINE
  5
5922
330
1A
100
AcDbEntity
  8
SEIHIN
100
AcDbLine
 10
559.2036698541064
 20
214.2431807169186
 30
0.0
 11
558.6850094521064
 21
214.1692527808187
 31
0.0
  0
LINE
  5
5923
330
1A
100
AcDbEntity
  8
SEIHIN
100
AcDbLine
 10
558.6850094521064
 20
214.1692527808187
 30
0.0
 11
558.2303998076064
 21
214.0697625159186
 31
0.0
  0
LINE
  5
5924
330
1A
100
AcDbEntity
  8
SEIHIN
100
AcDbLine
 10
558.2303998076064
 20
214.0697625159186
 30
0.0
 11
557.8573113143064
 21
213.9485332773188
 31
0.0
  0
LINE
  5
5925
330
1A
100
AcDbEntity
  8
SEIHIN
100
AcDbLine
 10
557.8573113143064
 20
213.9485332773188
 30
0.0
 11
557.5800815536064
 21
213.8102238368187
 31
0.0
  0
LINE
  5
5926
330
1A
100
AcDbEntity
  8
SEIHIN
100
AcDbLine
 10
557.5800815536064
 20
213.8102238368187
 30
0.0
 11
557.4093643100063
 21
213.6601493485186
 31
0.0
  0
LINE
  5
5927
330
1A
100
AcDbEntity
  8
SEIHIN
100
AcDbLine
 10
557.4093643100063
 20
213.6601493485186
 30
0.0
 11
557.3517201512064
 21
213.5040770909187
 31
0.0
  0
LINE
  5
5928
330
1A
100
AcDbEntity
  8
SEIHIN
100
AcDbLine
 10
594.6570323009064
 20
190.5097256456188
 30
0.0
 11
597.3999787437064
 21
186.0097256456187
 31
0.0
  0
LINE
  5
5929
330
1A
100
AcDbEntity
  8
SEIHIN
100
AcDbLine
 10
615.8155681628064
 20
150.9821668866186
 30
0.0
 11
615.3570323009064
 21
186.0097256456187
 31
0.0
  0
LINE
  5
592A
330
1A
100
AcDbEntity
  8
SEIHIN
100
AcDbLine
 10
615.8082388298064
 20
151.5420547058187
 30
0.0
 11
617.7263408659064
 21
147.4097256456186
 31
0.0
  0
LINE
  5
592B
330
1A
100
AcDbEntity
  8
SEIHIN
100
AcDbLine
 10
615.4765223505064
 20
151.2961982773188
 30
0.0
 11
615.8155681628064
 21
150.9821668866186
 31
0.0
  0
LINE
  5
592C
330
1A
100
AcDbEntity
  8
SEIHIN
100
AcDbLine
 10
614.9036642582063
 20
151.5420547058187
 30
0.0
 11
615.1355050080065
 21
151.4949804924187
 31
0.0
  0
LINE
  5
592D
330
1A
100
AcDbEntity
  8
SEIHIN
100
AcDbLine
 10
616.8168480840064
 20
147.4097256456186
 30
0.0
 11
614.9036642582063
 21
151.5420547058187
 31
0.0
  0
LINE
  5
592E
330
1A
100
AcDbEntity
  8
SEIHIN
100
AcDbLine
 10
615.1355050080065
 20
151.4949804924187
 30
0.0
 11
615.4765223505064
 21
151.2961982773188
 31
0.0
  0
LINE
  5
592F
330
1A
100
AcDbEntity
  8
SEIHIN
100
AcDbLine
 10
606.3570323009064
 20
212.0355415290187
 30
0.0
 11
606.3570323009064
 21
211.4339395884187
 31
0.0
  0
LINE
  5
5930
330
1A
100
AcDbEntity
  8
SEIHIN
100
AcDbLine
 10
592.3570323009064
 20
214.3040770909187
 30
0.0
 11
592.3570323009064
 21
190.5097256456188
 31
0.0
  0
LINE
  5
5931
330
1A
100
AcDbEntity
  8
SEIHIN
100
AcDbLine
 10
595.3570323009064
 20
213.5040770909187
 30
0.0
 11
595.3570323009064
 21
210.7097256456187
 31
0.0
  0
LINE
  5
5932
330
1A
100
AcDbEntity
  8
SEIHIN
100
AcDbLine
 10
595.3570323009064
 20
210.7097256456187
 30
0.0
 11
599.8570323009064
 21
209.5097256456187
 31
0.0
  0
LINE
  5
5933
330
1A
100
AcDbEntity
  8
SEIHIN
100
AcDbLine
 10
593.8066915923063
 20
190.5097256456188
 30
0.0
 11
594.6570323009064
 21
190.5097256456188
 31
0.0
  0
LINE
  5
5934
330
1A
100
AcDbEntity
  8
SEIHIN
100
AcDbLine
 10
592.4756544739063
 20
211.1822632204186
 30
0.0
 11
592.7494612720064
 21
211.3472112044187
 31
0.0
  0
LINE
  5
5935
330
1A
100
AcDbEntity
  8
SEIHIN
100
AcDbLine
 10
592.7494612720064
 20
211.3472112044187
 30
0.0
 11
592.9858636262064
 21
211.3420372922187
 31
0.0
  0
LINE
  5
5936
330
1A
100
AcDbEntity
  8
SEIHIN
100
AcDbLine
 10
592.3570323009064
 20
210.8589198224187
 30
0.0
 11
592.3570494439063
 21
210.8630601910188
 31
0.0
  0
LINE
  5
5937
330
1A
100
AcDbEntity
  8
SEIHIN
100
AcDbLine
 10
595.3570323009064
 20
210.7097256456187
 30
0.0
 11
592.9858636262064
 21
211.3420372922187
 31
0.0
  0
LINE
  5
5938
330
1A
100
AcDbEntity
  8
SEIHIN
100
AcDbLine
 10
592.3570494439063
 20
210.8630601910188
 30
0.0
 11
592.4756544739063
 21
211.1822632204186
 31
0.0
  0
ARC
  5
5939
330
1A
100
AcDbEntity
  8
SEIHIN
100
AcDbCircle
 10
603.8570323009064
 20
211.4339395884187
 30
0.0
 40
2.499999999999982
100
AcDbArc
 50
294.9999999999996
 51
0.0
  0
ARC
  5
593A
330
1A
100
AcDbEntity
  8
SEIHIN
100
AcDbCircle
 10
600.8027956443064
 20
210.0097256456188
 30
0.0
 40
2.5
100
AcDbArc
 50
270.0
 51
294.9999999999996
  0
LINE
  5
593B
330
1A
100
AcDbEntity
  8
SEIHIN
100
AcDbLine
 10
599.8570323009064
 20
209.5097256456187
 30
0.0
 11
599.8570323009064
 21
207.5097256456188
 31
0.0
  0
LINE
  5
593C
330
1A
100
AcDbEntity
  8
SEIHIN
100
AcDbLine
 10
599.8570323009064
 20
207.5097256456188
 30
0.0
 11
600.8027956443064
 21
207.5097256456188
 31
0.0
  0
LINE
  5
593D
330
1A
100
AcDbEntity
  8
SEIHIN
100
AcDbLine
 10
604.9135779553064
 20
209.1681701208187
 30
0.0
 11
601.8593412987065
 21
207.7439561780187
 31
0.0
  0
LINE
  5
593E
330
1A
100
AcDbEntity
  8
SEIHIN
100
AcDbLine
 10
602.5857860793064
 20
211.5764094167186
 30
0.0
 11
595.3570323009064
 21
213.5040770909187
 31
0.0
  0
LINE
  5
593F
330
1A
100
AcDbEntity
  8
SEIHIN
100
AcDbLine
 10
592.2731856185064
 20
214.3264362063187
 30
0.0
 11
592.3570323009064
 21
214.3040770909187
 31
0.0
  0
LINE
  5
5940
330
1A
100
AcDbEntity
  8
SEIHIN
100
AcDbLine
 10
592.3570323009064
 20
214.3040770909187
 30
0.0
 11
595.3570323009064
 21
213.5040770909187
 31
0.0
  0
LINE
  5
5941
330
1A
100
AcDbEntity
  8
SEIHIN
100
AcDbLine
 10
591.7578603173065
 20
214.3264362063187
 30
0.0
 11
592.0285487728064
 21
214.3471506151187
 31
0.0
  0
LINE
  5
5942
330
1A
100
AcDbEntity
  8
SEIHIN
100
AcDbLine
 10
592.0285487728064
 20
214.3471506151187
 30
0.0
 11
592.2297483783064
 21
214.3357473753187
 31
0.0
  0
LINE
  5
5943
330
1A
100
AcDbEntity
  8
SEIHIN
100
AcDbLine
 10
592.2297483783064
 20
214.3357473753187
 30
0.0
 11
592.2731856185064
 21
214.3264362063187
 31
0.0
  0
LINE
  5
5944
330
1A
100
AcDbEntity
  8
SEIHIN
100
AcDbLine
 10
591.3570323009064
 20
214.3040770909187
 30
0.0
 11
591.4940731804064
 21
214.3065929862186
 31
0.0
  0
LINE
  5
5945
330
1A
100
AcDbEntity
  8
SEIHIN
100
AcDbLine
 10
591.4940731804064
 20
214.3065929862186
 30
0.0
 11
591.6285282061064
 21
214.3140931990187
 31
0.0
  0
LINE
  5
5946
330
1A
100
AcDbEntity
  8
SEIHIN
100
AcDbLine
 10
591.6285282061064
 20
214.3140931990187
 30
0.0
 11
591.7578603173065
 21
214.3264362063187
 31
0.0
  0
ARC
  5
5947
330
1A
100
AcDbEntity
  8
SEIHIN
100
AcDbCircle
 10
590.3517201512064
 20
212.7689370380187
 30
0.0
 40
1.99999999999998
100
AcDbArc
 50
75.0685828219011
 51
90.0
  0
LINE
  5
5948
330
1A
100
AcDbEntity
  8
SEIHIN
100
AcDbLine
 10
590.8670454523064
 20
214.7014069172187
 30
0.0
 11
590.8050200977064
 21
214.7157760142186
 31
0.0
  0
LINE
  5
5949
330
1A
100
AcDbEntity
  8
SEIHIN
100
AcDbLine
 10
590.8050200977064
 20
214.7157760142186
 30
0.0
 11
590.7420438586064
 21
214.7260612392187
 31
0.0
  0
LINE
  5
594A
330
1A
100
AcDbEntity
  8
SEIHIN
100
AcDbLine
 10
590.8670454523064
 20
214.7014069172187
 30
0.0
 11
592.2731856185064
 21
214.3264362063187
 31
0.0
  0
ARC
  5
594B
330
1A
100
AcDbEntity
  8
SEIHIN
100
AcDbCircle
 10
605.8570323009064
 20
212.0355415290187
 30
0.0
 40
0.5
100
AcDbArc
 50
0.0
 51
114.9999999999989
  0
LINE
  5
594C
330
1A
100
AcDbEntity
  8
SEIHIN
100
AcDbLine
 10
603.9463479039063
 20
211.6962637218187
 30
0.0
 11
605.6457231700065
 21
212.4886954225187
 31
0.0
  0
ARC
  5
594D
330
1A
100
AcDbEntity
  8
SEIHIN
100
AcDbCircle
 10
603.1011113804064
 20
213.5088792959187
 30
0.0
 40
2.000000000000035
100
AcDbArc
 50
255.068582821901
 51
294.999999999999
  0
LINE
  5
594E
330
1A
100
AcDbEntity
  8
SEIHIN
100
AcDbLine
 10
742.5899824453064
 20
97.72516103381873
 30
0.0
 11
739.4965511746065
 21
79.27322457791877
 31
0.0
  0
LINE
  5
594F
330
1A
100
AcDbEntity
  8
SEIHIN
100
AcDbLine
 10
720.7304211923063
 20
73.08869723591874
 30
0.0
 11
732.1116683167064
 21
73.25017775821868
 31
0.0
  0
LINE
  5
5950
330
1A
100
AcDbEntity
  8
SEIHIN
100
AcDbLine
 10
720.5890034909065
 20
73.08805556751872
 30
0.0
 11
720.7304211923063
 21
73.08869723591874
 31
0.0
  0
ARC
  5
5951
330
1A
100
AcDbEntity
  8
SEIHIN
100
AcDbCircle
 10
732.1116683166065
 20
80.58223381181869
 30
0.0
 40
7.500000000000006
100
AcDbArc
 50
282.1479483246999
 51
349.9484262153003
  0
LINE
  5
5952
330
1A
100
AcDbEntity
  8
SEIHIN
100
AcDbLine
 10
733.6899439665065
 20
73.25017775821868
 30
0.0
 11
732.4229713616063
 21
73.08869723591874
 31
0.0
  0
LINE
  5
5953
330
1A
100
AcDbEntity
  8
SEIHIN
100
AcDbLine
 10
732.4229713616063
 20
73.08869723591874
 30
0.0
 11
732.4071212609064
 21
73.08805556751872
 31
0.0
  0
LINE
  5
5954
330
1A
100
AcDbEntity
  8
SEIHIN
100
AcDbLine
 10
733.6899439665065
 20
73.25017775821868
 30
0.0
 11
733.6612187345064
 21
73.2596327741187
 31
0.0
  0
LINE
  5
5955
330
1A
100
AcDbEntity
  8
SEIHIN
100
AcDbLine
 10
733.6612187345064
 20
73.2596327741187
 30
0.0
 11
733.4760003742064
 21
73.26489829691877
 31
0.0
  0
LINE
  5
5956
330
1A
100
AcDbEntity
  8
SEIHIN
100
AcDbLine
 10
733.4760003742064
 20
73.26489829691877
 30
0.0
 11
733.1543291322064
 21
73.26562536201868
 31
0.0
  0
LINE
  5
5957
330
1A
100
AcDbEntity
  8
SEIHIN
100
AcDbLine
 10
733.1543291322064
 20
73.26562536201868
 30
0.0
 11
732.7307654615063
 21
73.26170879391873
 31
0.0
  0
LINE
  5
5958
330
1A
100
AcDbEntity
  8
SEIHIN
100
AcDbLine
 10
732.7307654615063
 20
73.26170879391873
 30
0.0
 11
732.2551996166064
 21
73.25340877871872
 31
0.0
  0
LINE
  5
5959
330
1A
100
AcDbEntity
  8
SEIHIN
100
AcDbLine
 10
732.2551996166064
 20
73.25340877871872
 30
0.0
 11
732.1116683166065
 21
73.25017775821868
 31
0.0
  0
LINE
  5
595A
330
1A
100
AcDbEntity
  8
SEIHIN
100
AcDbLine
 10
748.3079182252064
 20
147.4097256456186
 30
0.0
 11
747.7416526862064
 21
134.7879648167187
 31
0.0
  0
LINE
  5
595B
330
1A
100
AcDbEntity
  8
SEIHIN
100
AcDbLine
 10
747.7414298727064
 20
134.7861084324186
 30
0.0
 11
745.3385943308064
 21
116.2316033904187
 31
0.0
  0
LINE
  5
595C
330
1A
100
AcDbEntity
  8
SEIHIN
100
AcDbLine
 10
745.3385943308064
 20
116.2316033904187
 30
0.0
 11
742.5899824453064
 21
97.72516103381873
 31
0.0
  0
LINE
  5
595D
330
1A
100
AcDbEntity
  8
SEIHIN
100
AcDbLine
 10
745.6052023127064
 20
147.4097256456186
 30
0.0
 11
745.8295234461064
 21
152.4097256456186
 31
0.0
  0
ARC
  5
595E
330
1A
100
AcDbEntity
  8
SEIHIN
100
AcDbCircle
 10
743.7515310245064
 20
157.4097256456186
 30
0.0
 40
4.999999999999993
100
AcDbArc
 50
357.4311917339966
 51
90.0
  0
ARC
  5
595F
330
1A
100
AcDbEntity
  8
SEIHIN
100
AcDbCircle
 10
740.9276817000065
 20
154.7097256456187
 30
0.0
 40
4.999999999999993
100
AcDbArc
 50
357.4311917339966
 51
90.0
  0
LINE
  5
5960
330
1A
100
AcDbEntity
  8
SEIHIN
100
AcDbLine
 10
740.8154548455065
 20
147.4097256456186
 30
0.0
 11
748.3079182252064
 21
147.4097256456186
 31
0.0
  0
LINE
  5
5961
330
1A
100
AcDbEntity
  8
SEIHIN
100
AcDbLine
 10
736.7471067153064
 20
157.2097256456187
 30
0.0
 11
737.6570323009064
 21
159.7097256456187
 31
0.0
  0
LINE
  5
5962
330
1A
100
AcDbEntity
  8
SEIHIN
100
AcDbLine
 10
743.7515310245064
 20
162.4097256456186
 30
0.0
 11
737.1668870242063
 21
162.4097256456186
 31
0.0
  0
LINE
  5
5963
330
1A
100
AcDbEntity
  8
SEIHIN
100
AcDbLine
 10
735.2875017826065
 20
161.0937659323187
 30
0.0
 11
734.8939769258064
 21
160.0125652742187
 31
0.0
  0
ARC
  5
5964
330
1A
100
AcDbEntity
  8
SEIHIN
100
AcDbCircle
 10
737.1668870242063
 20
160.4097256456186
 30
0.0
 40
2.0
100
AcDbArc
 50
90.0
 51
160.0000000000035
  0
LINE
  5
5965
330
1A
100
AcDbEntity
  8
SEIHIN
100
AcDbLine
 10
736.0893218807063
 20
157.4491397459187
 30
0.0
 11
736.7471067153064
 21
157.2097256456187
 31
0.0
  0
ARC
  5
5966
330
1A
100
AcDbEntity
  8
SEIHIN
100
AcDbCircle
 10
736.7733621674063
 20
159.3285249875186
 30
0.0
 40
2.000000000000047
100
AcDbArc
 50
160.0000000000035
 51
249.9999999999991
  0
LINE
  5
5967
330
1A
100
AcDbEntity
  8
SEIHIN
100
AcDbLine
 10
737.6570323009064
 20
159.7097256456187
 30
0.0
 11
740.9276817000065
 21
159.7097256456187
 31
0.0
  0
LINE
  5
5968
330
1A
100
AcDbEntity
  8
SEIHIN
100
AcDbLine
 10
745.9226572865064
 20
154.4856299286186
 30
0.0
 11
745.8295234461064
 21
152.4097256456186
 31
0.0
  0
LINE
  5
5969
330
1A
100
AcDbEntity
  8
SEIHIN
100
AcDbLine
 10
748.5322393586065
 20
152.4097256456186
 30
0.0
 11
748.7465066110064
 21
157.1856299286187
 31
0.0
  0
LINE
  5
596A
330
1A
100
AcDbEntity
  8
SEIHIN
100
AcDbLine
 10
745.8295234461064
 20
152.4097256456186
 30
0.0
 11
748.5322393586065
 21
152.4097256456186
 31
0.0
  0
LINE
  5
596B
330
1A
100
AcDbEntity
  8
SEIHIN
100
AcDbLine
 10
748.5322393586065
 20
152.4097256456186
 30
0.0
 11
748.3079182252064
 21
147.4097256456186
 31
0.0
  0
VIEWPORT
  5
22
330
17
100
AcDbEntity
 67
     1
  8
0
100
AcDbViewport
 10
313.6808219178082
 20
148.5
 30
0.0
 40
627.3616438356165
 41
297.0
 68
     2
 69
     1
1001
ACAD
1000
MVIEW
1002
{
1070
    16
1010
0.0
1020
0.0
1030
0.0
1010
0.0
1020
0.0
1030
1.0
1040
0.0
1040
297.0
1040
313.6808219178082
1040
148.5
1040
50.0
1040
0.0
1040
0.0
1070
     0
1070
   100
1070
     1
1070
     0
1070
     0
1070
     0
1070
     0
1070
     0
1040
0.0
1040
0.0
1040
0.0
1040
1.0
1040
1.0
1040
10.0
1040
10.0
1070
     0
1002
{
1002
}
1002
}
  0
VIEWPORT
  5
64
330
17
100
AcDbEntity
 67
     1
  8
VIEWPORT
100
AcDbViewport
 10
210.0
 20
148.5
 30
0.0
 40
420.0
 41
297.0
 68
     1
 69
     2
1001
ACAD
1000
MVIEW
1002
{
1070
    16
1010
0.0
1020
0.0
1030
0.0
1010
0.0
1020
0.0
1030
1.0
1040
0.0
1040
605.8799999999997
1040
420.0
1040
297.0
1040
50.0
1040
0.0
1040
0.0
1070
     0
1070
   100
1070
     1
1070
     0
1070
     0
1070
     0
1070
     0
1070
     0
1040
0.0
1040
0.0
1040
0.0
1040
10.0
1040
10.0
1040
0.0
1040
0.0
1070
     0
1002
{
1002
}
1002
}
  0
ENDSEC
  0
SECTION
  2
OBJECTS
  0
DICTIONARY
  5
C
330
0
100
AcDbDictionary
  3
ACAD_GROUP
350
D
  3
ACAD_LAYOUT
350
556
  3
ACAD_MLINESTYLE
350
E
  3
ACAD_PLOTSETTINGS
350
557
  3
ACAD_PLOTSTYLENAME
350
554
  3
ACDBHEADERROUNDTRIPXREC
350
5A1F
  0
DICTIONARY
  5
6C6
330
1A
100
AcDbDictionary
280
     1
  3
ACAD_LAYOUTSELFREF
360
5A41
  0
DICTIONARY
  5
6C4
330
17
100
AcDbDictionary
280
     1
  3
ACAD_LAYOUTSELFREF
360
5A40
  0
DICTIONARY
  5
D
102
{ACAD_REACTORS
330
C
102
}
330
C
100
AcDbDictionary
  0
DICTIONARY
  5
556
102
{ACAD_REACTORS
330
C
102
}
330
C
100
AcDbDictionary
  0
DICTIONARY
  5
E
102
{ACAD_REACTORS
330
C
102
}
330
C
100
AcDbDictionary
  3
STANDARD
350
13
  0
DICTIONARY
  5
557
102
{ACAD_REACTORS
330
C
102
}
330
C
100
AcDbDictionary
  0
ACDBDICTIONARYWDFLT
  5
554
102
{ACAD_REACTORS
330
C
102
}
330
C
100
AcDbDictionary
281
     1
  3
Normal
350
555
100
AcDbDictionaryWithDefault
340
555
1001
ACAD
1000
TREAT_AS_HARD
1070
     0
1000
TREAT_AS_HARD
1070
     0
1000
TREAT_AS_HARD
1070
     0
1000
TREAT_AS_HARD
1070
     0
1000
TREAT_AS_HARD
1070
     0
1000
TREAT_AS_HARD
1070
     0
1000
TREAT_AS_HARD
1070
     0
1000
TREAT_AS_HARD
1070
     0
  0
DICTIONARY
  5
5A1F
102
{ACAD_REACTORS
330
C
102
}
330
C
100
AcDbDictionary
  3
TSTACKALIGN
350
5A20
  3
TSTACKSIZE
350
5A21
  3
HYPERLINKBASE
350
5A22
  3
STYLESHEET
350
5A23
  3
LAYOUTDICT
350
5A24
  3
PLOTSETDICT
350
5A25
  3
PLOTSTYLNAMDICT
350
5A26
  3
LWETCUNION
350
5A27
  3
INSUNITS
350
5A28
  3
CEPSNTYPE
350
5A29
  3
FINGERPRINTGUID
350
5A2A
  3
VERSIONGUID
350
5A2B
  3
PSVPSCALE
350
5A2C
  3
DIMSTYLEDATA
350
5A2D
  3
PUCSORTHOREF
350
5A2E
  3
PUCSORTHOVIEW
350
5A2F
  3
PUCSBASE
350
5A30
  3
PUCSORGTOP
350
5A31
  3
PUCSORGBOTTOM
350
5A32
  3
PUCSORGLEFT
350
5A33
  3
PUCSORGRIGHT
350
5A34
  3
PUCSORGFRONT
350
5A35
  3
PUCSORGBACK
350
5A36
  3
UCSORTHOREF
350
5A37
  3
UCSORTHOVIEW
350
5A38
  3
UCSBASE
350
5A39
  3
UCSORGTOP
350
5A3A
  3
UCSORGBOTTOM
350
5A3B
  3
UCSORGLEFT
350
5A3C
  3
UCSORGRIGHT
350
5A3D
  3
UCSORGFRONT
350
5A3E
  3
UCSORGBACK
350
5A3F
  0
XRECORD
  5
5A41
102
{ACAD_REACTORS
330
6C6
102
}
330
6C6
100
AcDbXrecord
340
1A
  0
XRECORD
  5
5A40
102
{ACAD_REACTORS
330
6C4
102
}
330
6C4
100
AcDbXrecord
340
17
  0
MLINESTYLE
  5
13
102
{ACAD_REACTORS
330
E
102
}
330
E
100
AcDbMlineStyle
  2
STANDARD
 70
     0
  3

 62
     0
 51
90.0
 52
90.0
 71
     2
 49
0.5
 62
   256
  6
BYLAYER
 49
-0.5
 62
   256
  6
BYLAYER
  0
ACDBPLACEHOLDER
  5
555
102
{ACAD_REACTORS
330
554
102
}
330
554
100
AcDbPlaceHolder
280
     0
  0
XRECORD
  5
5A20
102
{ACAD_REACTORS
330
5A1F
102
}
330
5A1F
100
AcDbXrecord
 90
        1
  0
XRECORD
  5
5A21
102
{ACAD_REACTORS
330
5A1F
102
}
330
5A1F
100
AcDbXrecord
 90
       70
  0
XRECORD
  5
5A22
102
{ACAD_REACTORS
330
5A1F
102
}
330
5A1F
100
AcDbXrecord
  1

  0
XRECORD
  5
5A23
102
{ACAD_REACTORS
330
5A1F
102
}
330
5A1F
100
AcDbXrecord
  1
systemprinter.ctb
  0
XRECORD
  5
5A24
102
{ACAD_REACTORS
330
5A1F
102
}
330
5A1F
100
AcDbXrecord
340
556
  0
XRECORD
  5
5A25
102
{ACAD_REACTORS
330
5A1F
102
}
330
5A1F
100
AcDbXrecord
340
557
  0
XRECORD
  5
5A26
102
{ACAD_REACTORS
330
5A1F
102
}
330
5A1F
100
AcDbXrecord
340
554
  0
XRECORD
  5
5A27
102
{ACAD_REACTORS
330
5A1F
102
}
330
5A1F
100
AcDbXrecord
 90
    10781
  0
XRECORD
  5
5A28
102
{ACAD_REACTORS
330
5A1F
102
}
330
5A1F
100
AcDbXrecord
 90
        0
  0
XRECORD
  5
5A29
102
{ACAD_REACTORS
330
5A1F
102
}
330
5A1F
100
AcDbXrecord
 90
        0
  0
XRECORD
  5
5A2A
102
{ACAD_REACTORS
330
5A1F
102
}
330
5A1F
100
AcDbXrecord
  1
{B06877AA-F1AE-4EC1-AEA7-B60A7FDC8903}
  0
XRECORD
  5
5A2B
102
{ACAD_REACTORS
330
5A1F
102
}
330
5A1F
100
AcDbXrecord
  1
{EABE63A8-BB31-47AA-BE44-BB44887B5806}
  0
XRECORD
  5
5A2C
102
{ACAD_REACTORS
330
5A1F
102
}
330
5A1F
100
AcDbXrecord
 40
0.0
  0
XRECORD
  5
5A2D
102
{ACAD_REACTORS
330
5A1F
102
}
330
5A1F
100
AcDbXrecord
1000
DSTYLE
1002
{
1070
   341
340
6D
1070
   343
340
6D
1070
   344
340
6D
1070
   371
 70
    -1
1070
   372
 70
    -1
1002
}
  0
XRECORD
  5
5A2E
102
{ACAD_REACTORS
330
5A1F
102
}
330
5A1F
100
AcDbXrecord
340
0
  0
XRECORD
  5
5A2F
102
{ACAD_REACTORS
330
5A1F
102
}
330
5A1F
100
AcDbXrecord
 70
     0
  0
XRECORD
  5
5A30
102
{ACAD_REACTORS
330
5A1F
102
}
330
5A1F
100
AcDbXrecord
340
0
  0
XRECORD
  5
5A31
102
{ACAD_REACTORS
330
5A1F
102
}
330
5A1F
100
AcDbXrecord
 10
0.0
 20
0.0
 30
0.0
  0
XRECORD
  5
5A32
102
{ACAD_REACTORS
330
5A1F
102
}
330
5A1F
100
AcDbXrecord
 10
0.0
 20
0.0
 30
0.0
  0
XRECORD
  5
5A33
102
{ACAD_REACTORS
330
5A1F
102
}
330
5A1F
100
AcDbXrecord
 10
0.0
 20
0.0
 30
0.0
  0
XRECORD
  5
5A34
102
{ACAD_REACTORS
330
5A1F
102
}
330
5A1F
100
AcDbXrecord
 10
0.0
 20
0.0
 30
0.0
  0
XRECORD
  5
5A35
102
{ACAD_REACTORS
330
5A1F
102
}
330
5A1F
100
AcDbXrecord
 10
0.0
 20
0.0
 30
0.0
  0
XRECORD
  5
5A36
102
{ACAD_REACTORS
330
5A1F
102
}
330
5A1F
100
AcDbXrecord
 10
0.0
 20
0.0
 30
0.0
  0
XRECORD
  5
5A37
102
{ACAD_REACTORS
330
5A1F
102
}
330
5A1F
100
AcDbXrecord
340
0
  0
XRECORD
  5
5A38
102
{ACAD_REACTORS
330
5A1F
102
}
330
5A1F
100
AcDbXrecord
 70
     0
  0
XRECORD
  5
5A39
102
{ACAD_REACTORS
330
5A1F
102
}
330
5A1F
100
AcDbXrecord
340
0
  0
XRECORD
  5
5A3A
102
{ACAD_REACTORS
330
5A1F
102
}
330
5A1F
100
AcDbXrecord
 10
0.0
 20
0.0
 30
0.0
  0
XRECORD
  5
5A3B
102
{ACAD_REACTORS
330
5A1F
102
}
330
5A1F
100
AcDbXrecord
 10
0.0
 20
0.0
 30
0.0
  0
XRECORD
  5
5A3C
102
{ACAD_REACTORS
330
5A1F
102
}
330
5A1F
100
AcDbXrecord
 10
0.0
 20
0.0
 30
0.0
  0
XRECORD
  5
5A3D
102
{ACAD_REACTORS
330
5A1F
102
}
330
5A1F
100
AcDbXrecord
 10
0.0
 20
0.0
 30
0.0
  0
XRECORD
  5
5A3E
102
{ACAD_REACTORS
330
5A1F
102
}
330
5A1F
100
AcDbXrecord
 10
0.0
 20
0.0
 30
0.0
  0
XRECORD
  5
5A3F
102
{ACAD_REACTORS
330
5A1F
102
}
330
5A1F
100
AcDbXrecord
 10
0.0
 20
0.0
 30
0.0
  0
ENDSEC
  0
EOF
