  0
SECTION
  2
HEADER
  9
$ACADVER
  1
AC1014
  9
$ACADMAINTVER
 70
     9
  9
$DWGCODEPAGE
  3
ANSI_932
  9
$INSBASE
 10
0.0
 20
0.0
 30
0.0
  9
$EXTMIN
 10
-0.05126640194635
 20
-0.0362529057047141
 30
-0.0000000349181948
  9
$EXTMAX
 10
797.6628945888771
 20
551.6439420049414
 30
0.0000000814935746
  9
$LIMMIN
 10
0.0
 20
0.0
  9
$LIMMAX
 10
840.0
 20
594.0
  9
$ORTHOMODE
 70
     1
  9
$REGENMODE
 70
     1
  9
$FILLMODE
 70
     1
  9
$QTEXTMODE
 70
     0
  9
$MIRRTEXT
 70
     1
  9
$DRAGMODE
 70
     2
  9
$LTSCALE
 40
2.0
  9
$OSMODE
 70
    35
  9
$ATTMODE
 70
     1
  9
$TEXTSIZE
 40
5.0
  9
$TRACEWID
 40
1.0
  9
$TEXTSTYLE
  7
STANDARD
  9
$CLAYER
  8
0
  9
$CELTYPE
  6
BYLAYER
  9
$CECOLOR
 62
   256
  9
$CELTSCALE
 40
1.0
  9
$DELOBJ
 70
     1
  9
$DISPSILH
 70
     0
  9
$DIMSCALE
 40
1.0
  9
$DIMASZ
 40
7.0
  9
$DIMEXO
 40
6.0
  9
$DIMDLI
 40
14.0
  9
$DIMRND
 40
0.0
  9
$DIMDLE
 40
0.0
  9
$DIMEXE
 40
3.0
  9
$DIMTP
 40
0.0
  9
$DIMTM
 40
0.0
  9
$DIMTXT
 40
6.0
  9
$DIMCEN
 40
150.0
  9
$DIMTSZ
 40
0.0
  9
$DIMTOL
 70
     0
  9
$DIMLIM
 70
     0
  9
$DIMTIH
 70
     0
  9
$DIMTOH
 70
     0
  9
$DIMSE1
 70
     0
  9
$DIMSE2
 70
     0
  9
$DIMTAD
 70
     3
  9
$DIMZIN
 70
     0
  9
$DIMBLK
  1

  9
$DIMASO
 70
     1
  9
$DIMSHO
 70
     1
  9
$DIMPOST
  1

  9
$DIMAPOST
  1

  9
$DIMALT
 70
     0
  9
$DIMALTD
 70
     2
  9
$DIMALTF
 40
25.4
  9
$DIMLFAC
 40
1.0
  9
$DIMTOFL
 70
     1
  9
$DIMTVP
 40
0.0
  9
$DIMTIX
 70
     0
  9
$DIMSOXD
 70
     0
  9
$DIMSAH
 70
     1
  9
$DIMBLK1
  1
OPEN
  9
$DIMBLK2
  1
OPEN
  9
$DIMSTYLE
  2
STANDARD
  9
$DIMCLRD
 70
   256
  9
$DIMCLRE
 70
   256
  9
$DIMCLRT
 70
   256
  9
$DIMTFAC
 40
1.0
  9
$DIMGAP
 40
2.0
  9
$DIMJUST
 70
     0
  9
$DIMSD1
 70
     0
  9
$DIMSD2
 70
     0
  9
$DIMTOLJ
 70
     1
  9
$DIMTZIN
 70
     0
  9
$DIMALTZ
 70
     0
  9
$DIMALTTZ
 70
     0
  9
$DIMFIT
 70
     3
  9
$DIMUPT
 70
     0
  9
$DIMUNIT
 70
     2
  9
$DIMDEC
 70
     0
  9
$DIMTDEC
 70
     0
  9
$DIMALTU
 70
     2
  9
$DIMALTTD
 70
     2
  9
$DIMTXSTY
  7
STANDARD
  9
$DIMAUNIT
 70
     0
  9
$LUNITS
 70
     2
  9
$LUPREC
 70
     4
  9
$SKETCHINC
 40
1.0
  9
$FILLETRAD
 40
3.2
  9
$AUNITS
 70
     0
  9
$AUPREC
 70
     0
  9
$MENU
  1
.
  9
$ELEVATION
 40
0.0
  9
$PELEVATION
 40
0.0
  9
$THICKNESS
 40
0.0
  9
$LIMCHECK
 70
     0
  9
$BLIPMODE
 70
     0
  9
$CHAMFERA
 40
0.0
  9
$CHAMFERB
 40
0.0
  9
$CHAMFERC
 40
40.0
  9
$CHAMFERD
 40
0.0
  9
$SKPOLY
 70
     0
  9
$TDCREATE
 40
2451159.670660069
  9
$TDUPDATE
 40
2454216.498128067
  9
$TDINDWG
 40
0.1968490625
  9
$TDUSRTIMER
 40
0.1968487037
  9
$USRTIMER
 70
     1
  9
$ANGBASE
 50
0.0
  9
$ANGDIR
 70
     0
  9
$PDMODE
 70
     0
  9
$PDSIZE
 40
0.0
  9
$PLINEWID
 40
0.0
  9
$COORDS
 70
     0
  9
$SPLFRAME
 70
     0
  9
$SPLINETYPE
 70
     6
  9
$SPLINESEGS
 70
     8
  9
$ATTDIA
 70
     0
  9
$ATTREQ
 70
     1
  9
$HANDLING
 70
 10241
  9
$HANDSEED
  5
358A
  9
$SURFTAB1
 70
     6
  9
$SURFTAB2
 70
     6
  9
$SURFTYPE
 70
     6
  9
$SURFU
 70
     6
  9
$SURFV
 70
     6
  9
$UCSNAME
  2

  9
$UCSORG
 10
0.0
 20
0.0
 30
0.0
  9
$UCSXDIR
 10
1.0
 20
0.0
 30
0.0
  9
$UCSYDIR
 10
0.0
 20
1.0
 30
0.0
  9
$PUCSNAME
  2

  9
$PUCSORG
 10
0.0
 20
0.0
 30
0.0
  9
$PUCSXDIR
 10
1.0
 20
0.0
 30
0.0
  9
$PUCSYDIR
 10
0.0
 20
1.0
 30
0.0
  9
$USERI1
 70
     0
  9
$USERI2
 70
     0
  9
$USERI3
 70
     0
  9
$USERI4
 70
     0
  9
$USERI5
 70
     0
  9
$USERR1
 40
0.0
  9
$USERR2
 40
0.0
  9
$USERR3
 40
0.0
  9
$USERR4
 40
0.0
  9
$USERR5
 40
0.0
  9
$WORLDVIEW
 70
     1
  9
$SHADEDGE
 70
     3
  9
$SHADEDIF
 70
    70
  9
$TILEMODE
 70
     1
  9
$MAXACTVP
 70
    16
  9
$PINSBASE
 10
0.0
 20
0.0
 30
0.0
  9
$PLIMCHECK
 70
     0
  9
$PEXTMIN
 10
0.0
 20
0.0
 30
0.0
  9
$PEXTMAX
 10
420.0
 20
297.0
 30
0.0
  9
$PLIMMIN
 10
0.0
 20
0.0
  9
$PLIMMAX
 10
420.0
 20
297.0
  9
$UNITMODE
 70
     0
  9
$VISRETAIN
 70
     0
  9
$PLINEGEN
 70
     0
  9
$PSLTSCALE
 70
     1
  9
$TREEDEPTH
 70
  3020
  9
$PICKSTYLE
 70
     1
  9
$CMLSTYLE
  2
STANDARD
  9
$CMLJUST
 70
     0
  9
$CMLSCALE
 40
1.0
  9
$PROXYGRAPHICS
 70
     1
  9
$MEASUREMENT
 70
     1
  0
ENDSEC
  0
SECTION
  2
CLASSES
  0
CLASS
  1
ACDBDICTIONARYWDFLT
  2
AcDbDictionaryWithDefault
  3
AutoCAD 2000
 90
        0
280
     0
281
     0
  0
CLASS
  1
ACDBPLACEHOLDER
  2
AcDbPlaceHolder
  3
AutoCAD 2000
 90
        0
280
     0
281
     0
  0
CLASS
  1
LAYOUT
  2
AcDbLayout
  3
AutoCAD 2000
 90
        0
280
     0
281
     0
  0
CLASS
  1
LONG_TRANSACTION
  2
AcDbLongTransaction
  3
AutoCAD 2000
 90
        0
280
     0
281
     0
  0
CLASS
  1
LWPOLYLINE
  2
AcDbPolyline
  3
AutoCAD 2000
 90
        0
280
     0
281
     1
  0
CLASS
  1
HATCH
  2
AcDbHatch
  3
AutoCAD 2000
 90
        0
280
     0
281
     1
  0
CLASS
  1
XRECORD
  2
AcDbXrecord
  3
AutoCAD 2000
 90
        0
280
     0
281
     0
  0
CLASS
  1
LONG_TRANSACTION
  2
AcDbLongTransaction
  3
AutoCAD 2000
 90
        0
280
     0
281
     0
  0
CLASS
  1
LWPOLYLINE
  2
AcDbPolyline
  3
AutoCAD 2000
 90
        0
280
     0
281
     1
  0
CLASS
  1
HATCH
  2
AcDbHatch
  3
AutoCAD 2000
 90
        0
280
     0
281
     1
  0
CLASS
  1
XRECORD
  2
AcDbXrecord
  3
AutoCAD 2000
 90
        0
280
     0
281
     0
  0
CLASS
  1
LONG_TRANSACTION
  2
AcDbLongTransaction
  3
AutoCAD 2000
 90
        0
280
     0
281
     0
  0
CLASS
  1
LWPOLYLINE
  2
AcDbPolyline
  3
AutoCAD 2000
 90
        0
280
     0
281
     1
  0
CLASS
  1
HATCH
  2
AcDbHatch
  3
AutoCAD 2000
 90
        0
280
     0
281
     1
  0
CLASS
  1
XRECORD
  2
AcDbXrecord
  3
AutoCAD 2000
 90
        0
280
     0
281
     0
  0
CLASS
  1
LONG_TRANSACTION
  2
AcDbLongTransaction
  3
AutoCAD 2000
 90
        0
280
     0
281
     0
  0
CLASS
  1
LWPOLYLINE
  2
AcDbPolyline
  3
AutoCAD 2000
 90
        0
280
     0
281
     1
  0
CLASS
  1
HATCH
  2
AcDbHatch
  3
AutoCAD 2000
 90
        0
280
     0
281
     1
  0
CLASS
  1
XRECORD
  2
AcDbXrecord
  3
AutoCAD 2000
 90
        0
280
     0
281
     0
  0
CLASS
  1
LONG_TRANSACTION
  2
AcDbLongTransaction
  3
AutoCAD 2000
 90
        0
280
     0
281
     0
  0
CLASS
  1
LWPOLYLINE
  2
AcDbPolyline
  3
AutoCAD 2000
 90
        0
280
     0
281
     1
  0
CLASS
  1
HATCH
  2
AcDbHatch
  3
AutoCAD 2000
 90
        0
280
     0
281
     1
  0
CLASS
  1
XRECORD
  2
AcDbXrecord
  3
AutoCAD 2000
 90
        0
280
     0
281
     0
  0
CLASS
  1
LONG_TRANSACTION
  2
AcDbLongTransaction
  3
AutoCAD 2000
 90
        0
280
     0
281
     0
  0
CLASS
  1
LWPOLYLINE
  2
AcDbPolyline
  3
AutoCAD 2000
 90
        0
280
     0
281
     1
  0
CLASS
  1
HATCH
  2
AcDbHatch
  3
AutoCAD 2000
 90
        0
280
     0
281
     1
  0
CLASS
  1
XRECORD
  2
AcDbXrecord
  3
AutoCAD 2000
 90
        0
280
     0
281
     0
  0
CLASS
  1
LONG_TRANSACTION
  2
AcDbLongTransaction
  3
AutoCAD 2000
 90
        0
280
     0
281
     0
  0
CLASS
  1
LWPOLYLINE
  2
AcDbPolyline
  3
AutoCAD 2000
 90
        0
280
     0
281
     1
  0
CLASS
  1
HATCH
  2
AcDbHatch
  3
AutoCAD 2000
 90
        0
280
     0
281
     1
  0
CLASS
  1
XRECORD
  2
AcDbXrecord
  3
AutoCAD 2000
 90
        0
280
     0
281
     0
  0
CLASS
  1
LONG_TRANSACTION
  2
AcDbLongTransaction
  3
AutoCAD 2000
 90
        0
280
     0
281
     0
  0
CLASS
  1
LWPOLYLINE
  2
AcDbPolyline
  3
AutoCAD 2000
 90
        0
280
     0
281
     1
  0
CLASS
  1
HATCH
  2
AcDbHatch
  3
AutoCAD 2000
 90
        0
280
     0
281
     1
  0
CLASS
  1
XRECORD
  2
AcDbXrecord
  3
AutoCAD 2000
 90
        0
280
     0
281
     0
  0
CLASS
  1
LONG_TRANSACTION
  2
AcDbLongTransaction
  3
AutoCAD 2000
 90
        0
280
     0
281
     0
  0
CLASS
  1
LWPOLYLINE
  2
AcDbPolyline
  3
AutoCAD 2000
 90
        0
280
     0
281
     1
  0
CLASS
  1
HATCH
  2
AcDbHatch
  3
AutoCAD 2000
 90
        0
280
     0
281
     1
  0
CLASS
  1
XRECORD
  2
AcDbXrecord
  3
AutoCAD 2000
 90
        0
280
     0
281
     0
  0
CLASS
  1
LONG_TRANSACTION
  2
AcDbLongTransaction
  3
AutoCAD 2000
 90
        0
280
     0
281
     0
  0
CLASS
  1
LWPOLYLINE
  2
AcDbPolyline
  3
AutoCAD 2000
 90
        0
280
     0
281
     1
  0
CLASS
  1
HATCH
  2
AcDbHatch
  3
AutoCAD 2000
 90
        0
280
     0
281
     1
  0
CLASS
  1
XRECORD
  2
AcDbXrecord
  3
AutoCAD 2000
 90
        0
280
     0
281
     0
  0
CLASS
  1
LONG_TRANSACTION
  2
AcDbLongTransaction
  3
AutoCAD 2000
 90
        0
280
     0
281
     0
  0
CLASS
  1
LWPOLYLINE
  2
AcDbPolyline
  3
AutoCAD 2000
 90
        0
280
     0
281
     1
  0
CLASS
  1
HATCH
  2
AcDbHatch
  3
AutoCAD 2000
 90
        0
280
     0
281
     1
  0
CLASS
  1
XRECORD
  2
AcDbXrecord
  3
AutoCAD 2000
 90
        0
280
     0
281
     0
  0
CLASS
  1
LONG_TRANSACTION
  2
AcDbLongTransaction
  3
AutoCAD 2000
 90
        0
280
     0
281
     0
  0
CLASS
  1
LWPOLYLINE
  2
AcDbPolyline
  3
AutoCAD 2000
 90
        0
280
     0
281
     1
  0
CLASS
  1
HATCH
  2
AcDbHatch
  3
AutoCAD 2000
 90
        0
280
     0
281
     1
  0
CLASS
  1
XRECORD
  2
AcDbXrecord
  3
AutoCAD 2000
 90
        0
280
     0
281
     0
  0
CLASS
  1
LONG_TRANSACTION
  2
AcDbLongTransaction
  3
AutoCAD 2000
 90
        0
280
     0
281
     0
  0
CLASS
  1
LWPOLYLINE
  2
AcDbPolyline
  3
AutoCAD 2000
 90
        0
280
     0
281
     1
  0
CLASS
  1
HATCH
  2
AcDbHatch
  3
AutoCAD 2000
 90
        0
280
     0
281
     1
  0
CLASS
  1
XRECORD
  2
AcDbXrecord
  3
AutoCAD 2000
 90
        0
280
     0
281
     0
  0
ENDSEC
  0
SECTION
  2
TABLES
  0
TABLE
  2
VPORT
  5
8
330
0
100
AcDbSymbolTable
 70
     2
  0
VPORT
  5
3530
330
8
100
AcDbSymbolTableRecord
100
AcDbViewportTableRecord
  2
*ACTIVE
 70
     0
 10
0.0
 20
0.0
 11
1.0
 21
1.0
 12
416.5737999225346
 22
316.6039966183475
 13
0.0
 23
0.0
 14
5.0
 24
5.0
 15
0.0
 25
0.0
 16
0.0
 26
0.0
 36
1.0
 17
0.0
 27
0.0
 37
0.0
 40
708.2493708824878
 41
1.566326530612244
 42
50.0
 43
0.0
 44
0.0
 50
0.0
 51
0.0
 71
     0
 72
   100
 73
     1
 74
     0
 75
     0
 76
     0
 77
     0
 78
     0
  0
ENDTAB
  0
TABLE
  2
LTYPE
  5
5
330
0
100
AcDbSymbolTable
 70
     3
  0
LTYPE
  5
14
330
5
100
AcDbSymbolTableRecord
100
AcDbLinetypeTableRecord
  2
BYBLOCK
 70
     0
  3

 72
    65
 73
     0
 40
0.0
  0
LTYPE
  5
15
330
5
100
AcDbSymbolTableRecord
100
AcDbLinetypeTableRecord
  2
BYLAYER
 70
     0
  3

 72
    65
 73
     0
 40
0.0
  0
LTYPE
  5
16
330
5
100
AcDbSymbolTableRecord
100
AcDbLinetypeTableRecord
  2
CONTINUOUS
 70
     0
  3
Solid line
 72
    65
 73
     0
 40
0.0
  0
LTYPE
  5
135
330
5
100
AcDbSymbolTableRecord
100
AcDbLinetypeTableRecord
  2
CENTER
 70
     0
  3
____ _ ____ _ ____ _ ____ _ ____ _ ____ _ ____ 
 72
    65
 73
     4
 40
2.0
 49
1.25
 74
     0
 49
-0.25
 74
     0
 49
0.25
 74
     0
 49
-0.25
 74
     0
  0
LTYPE
  5
2763
330
5
100
AcDbSymbolTableRecord
100
AcDbLinetypeTableRecord
  2
PHANTOM
 70
     0
  3
______  __  __  ______  __  __  ______  __  __ 
 72
    65
 73
     6
 40
2.5
 49
1.25
 74
     0
 49
-0.25
 74
     0
 49
0.25
 74
     0
 49
-0.25
 74
     0
 49
0.25
 74
     0
 49
-0.25
 74
     0
  0
ENDTAB
  0
TABLE
  2
LAYER
  5
2
330
0
100
AcDbSymbolTable
 70
     9
  0
LAYER
  5
F
330
2
100
AcDbSymbolTableRecord
100
AcDbLayerTableRecord
  2
0
 70
     0
 62
     7
  6
CONTINUOUS
  0
LAYER
  5
62
330
2
100
AcDbSymbolTableRecord
100
AcDbLayerTableRecord
  2
VIEWPORT
 70
     0
 62
     7
  6
CONTINUOUS
  0
LAYER
  5
65
330
2
100
AcDbSymbolTableRecord
100
AcDbLayerTableRecord
  2
ZUWAKU
 70
     0
 62
     7
  6
CONTINUOUS
  0
LAYER
  5
2CF
330
2
100
AcDbSymbolTableRecord
100
AcDbLayerTableRecord
  2
SUNPOU
 70
     0
 62
     4
  6
CONTINUOUS
  0
LAYER
  5
2D1
330
2
100
AcDbSymbolTableRecord
100
AcDbLayerTableRecord
  2
SEIHIN
 70
     0
 62
     3
  6
CONTINUOUS
  0
LAYER
  5
532
330
2
100
AcDbSymbolTableRecord
100
AcDbLayerTableRecord
  2
DEFPOINTS
 70
     0
 62
     7
  6
CONTINUOUS
  0
LAYER
  5
2764
330
2
100
AcDbSymbolTableRecord
100
AcDbLayerTableRecord
  2
NOKITOI
 70
     0
 62
     9
  6
PHANTOM
  0
LAYER
  5
3067
330
2
100
AcDbSymbolTableRecord
100
AcDbLayerTableRecord
  2
MOJI
 70
     0
 62
     2
  6
CONTINUOUS
  0
LAYER
  5
322F
330
2
100
AcDbSymbolTableRecord
100
AcDbLayerTableRecord
  2
CENTER_L
 70
     0
 62
     1
  6
CENTER
  0
ENDTAB
  0
TABLE
  2
STYLE
  5
3
330
0
100
AcDbSymbolTable
 70
     2
  0
STYLE
  5
10
330
3
100
AcDbSymbolTableRecord
100
AcDbTextStyleTableRecord
  2
STANDARD
 70
     0
 40
0.0
 41
1.0
 50
0.0
 71
     0
 42
5.0
  3
TXT
  4
bigfont.shx
  0
STYLE
  5
3068
330
3
100
AcDbSymbolTableRecord
100
AcDbTextStyleTableRecord
  2
ｽﾀｲﾙ1
 70
     0
 40
0.0
 41
1.0
 50
0.0
 71
     0
 42
2.5
  3
MS PGothic.ttf
  4

1001
ACAD
1000
MS PGothic
1071
    32818
  0
ENDTAB
  0
TABLE
  2
VIEW
  5
6
330
0
100
AcDbSymbolTable
 70
     0
  0
ENDTAB
  0
TABLE
  2
UCS
  5
7
330
0
100
AcDbSymbolTable
 70
     0
  0
ENDTAB
  0
TABLE
  2
APPID
  5
9
330
0
100
AcDbSymbolTable
 70
     1
  0
APPID
  5
11
330
9
100
AcDbSymbolTableRecord
100
AcDbRegAppTableRecord
  2
ACAD
 70
     0
  0
ENDTAB
  0
TABLE
  2
DIMSTYLE
  5
A
330
0
100
AcDbSymbolTable
 70
     1
  0
DIMSTYLE
105
1D
102
{ACAD_REACTORS
330
3370
330
3371
330
3372
330
337A
330
337B
330
3472
102
}
330
A
100
AcDbSymbolTableRecord
100
AcDbDimStyleTableRecord
  2
STANDARD
 70
     0
  3

  4

  5

  6

  7

 40
1.0
 41
0.18
 42
0.0625
 43
0.38
 44
0.18
 45
0.0
 46
0.0
 47
0.0
 48
0.0
140
0.18
141
0.09
142
0.0
143
25.4
144
1.0
145
0.0
146
1.0
147
0.09
 71
     0
 72
     0
 73
     1
 74
     1
 75
     0
 76
     0
 77
     0
 78
     0
170
     0
171
     2
172
     0
173
     0
174
     0
175
     0
176
     0
177
     0
178
     0
270
     2
271
     4
272
     4
273
     2
274
     2
340
10
275
     0
280
     0
281
     0
282
     0
283
     1
284
     0
285
     0
286
     0
287
     3
288
     0
  0
ENDTAB
  0
TABLE
  2
BLOCK_RECORD
  5
1
330
0
100
AcDbSymbolTable
 70
     7
  0
BLOCK_RECORD
  5
1A
102
{ACAD_XDICTIONARY
360
9DE
102
}
330
1
100
AcDbSymbolTableRecord
100
AcDbBlockTableRecord
  2
*MODEL_SPACE
  0
BLOCK_RECORD
  5
17
102
{ACAD_XDICTIONARY
360
9DC
102
}
330
1
100
AcDbSymbolTableRecord
100
AcDbBlockTableRecord
  2
*PAPER_SPACE
  0
BLOCK_RECORD
  5
6D
330
1
100
AcDbSymbolTableRecord
100
AcDbBlockTableRecord
  2
_OPEN
  0
BLOCK_RECORD
  5
34AC
330
1
100
AcDbSymbolTableRecord
100
AcDbBlockTableRecord
  2
*D1
  0
BLOCK_RECORD
  5
34B8
330
1
100
AcDbSymbolTableRecord
100
AcDbBlockTableRecord
  2
*D2
  0
BLOCK_RECORD
  5
34C4
330
1
100
AcDbSymbolTableRecord
100
AcDbBlockTableRecord
  2
*D3
  0
BLOCK_RECORD
  5
34D0
330
1
100
AcDbSymbolTableRecord
100
AcDbBlockTableRecord
  2
*D4
  0
BLOCK_RECORD
  5
34DC
330
1
100
AcDbSymbolTableRecord
100
AcDbBlockTableRecord
  2
*D5
  0
BLOCK_RECORD
  5
34E8
330
1
100
AcDbSymbolTableRecord
100
AcDbBlockTableRecord
  2
*D6
  0
ENDTAB
  0
ENDSEC
  0
SECTION
  2
BLOCKS
  0
BLOCK
  5
1B
330
1A
100
AcDbEntity
  8
0
100
AcDbBlockBegin
  2
*MODEL_SPACE
 70
     0
 10
0.0
 20
0.0
 30
0.0
  3
*MODEL_SPACE
  1

  0
ENDBLK
  5
1C
330
1A
100
AcDbEntity
  8
0
100
AcDbBlockEnd
  0
BLOCK
  5
18
330
17
100
AcDbEntity
 67
     1
  8
0
100
AcDbBlockBegin
  2
*PAPER_SPACE
 70
     0
 10
0.0
 20
0.0
 30
0.0
  3
*PAPER_SPACE
  1

  0
ENDBLK
  5
19
330
17
100
AcDbEntity
 67
     1
  8
0
100
AcDbBlockEnd
  0
BLOCK
  5
6E
330
6D
100
AcDbEntity
  8
0
100
AcDbBlockBegin
  2
_OPEN
 70
     0
 10
0.0
 20
0.0
 30
0.0
  3
_OPEN
  1

  0
LINE
  5
6F
330
6D
100
AcDbEntity
  8
0
  6
BYBLOCK
 62
     0
100
AcDbLine
 10
-1.0
 20
0.1666666666666666
 30
0.0
 11
0.0
 21
0.0
 31
0.0
  0
LINE
  5
70
330
6D
100
AcDbEntity
  8
0
  6
BYBLOCK
 62
     0
100
AcDbLine
 10
0.0
 20
0.0
 30
0.0
 11
-1.0
 21
-0.1666666666666666
 31
0.0
  0
LINE
  5
71
330
6D
100
AcDbEntity
  8
0
  6
BYBLOCK
 62
     0
100
AcDbLine
 10
0.0
 20
0.0
 30
0.0
 11
-1.0
 21
0.0
 31
0.0
  0
ENDBLK
  5
72
330
6D
100
AcDbEntity
  8
0
100
AcDbBlockEnd
  0
BLOCK
  5
34B6
330
34AC
100
AcDbEntity
  8
0
100
AcDbBlockBegin
  2
*D1
 70
     1
 10
0.0
 20
0.0
 30
0.0
  3
*D1
  1

  0
LINE
  5
3554
330
34AC
100
AcDbEntity
  8
SUNPOU
100
AcDbLine
 10
371.22902125215
 20
143.1340391286529
 30
0.0
 11
371.22902125215
 21
116.4235717672652
 31
0.0
  0
LINE
  5
3555
330
34AC
100
AcDbEntity
  8
SUNPOU
100
AcDbLine
 10
461.7364157053907
 20
143.1427609771035
 30
0.0
 11
461.7364157053907
 21
116.4235717672652
 31
0.0
  0
LINE
  5
3556
330
34AC
100
AcDbEntity
  8
SUNPOU
100
AcDbLine
 10
378.22902125215
 20
119.4235717672652
 30
0.0
 11
454.7364157053907
 21
119.4235717672652
 31
0.0
  0
INSERT
  5
3557
330
34AC
100
AcDbEntity
  8
SUNPOU
100
AcDbBlockReference
  2
_OPEN
 10
371.22902125215
 20
119.4235717672652
 30
0.0
 41
7.0
 42
7.0
 43
7.0
 50
180.0
  0
INSERT
  5
3558
330
34AC
100
AcDbEntity
  8
SUNPOU
100
AcDbBlockReference
  2
_OPEN
 10
461.7364157053907
 20
119.4235717672652
 30
0.0
 41
7.0
 42
7.0
 43
7.0
  0
MTEXT
  5
3559
330
34AC
100
AcDbEntity
  8
SUNPOU
100
AcDbMText
 10
416.4827184787704
 20
124.4235717672652
 30
0.0
 40
6.0
 41
0.0
 71
     5
 72
     1
  1
\A1;91
  0
POINT
  5
355A
330
34AC
100
AcDbEntity
  8
DEFPOINTS
 62
     0
100
AcDbPoint
 10
371.22902125215
 20
149.1340391286529
 30
0.0
  0
POINT
  5
355B
330
34AC
100
AcDbEntity
  8
DEFPOINTS
 62
     0
100
AcDbPoint
 10
461.7364157053907
 20
149.1427609771035
 30
0.0
  0
POINT
  5
355C
330
34AC
100
AcDbEntity
  8
DEFPOINTS
 62
     0
100
AcDbPoint
 10
461.7364157053907
 20
119.4235717672652
 30
0.0
  0
ENDBLK
  5
34B7
330
34AC
100
AcDbEntity
  8
0
100
AcDbBlockEnd
  0
BLOCK
  5
34C2
330
34B8
100
AcDbEntity
  8
0
100
AcDbBlockBegin
  2
*D2
 70
     1
 10
0.0
 20
0.0
 30
0.0
  3
*D2
  1

  0
LINE
  5
355D
330
34B8
100
AcDbEntity
  8
SUNPOU
100
AcDbLine
 10
471.9054673461857
 20
235.8164794706945
 30
0.0
 11
471.9054673461857
 21
317.292671896263
 31
0.0
  0
LINE
  5
355E
330
34B8
100
AcDbEntity
  8
SUNPOU
100
AcDbLine
 10
312.0819394390857
 20
293.6017574167944
 30
0.0
 11
312.0819394390857
 21
317.292671896263
 31
0.0
  0
LINE
  5
355F
330
34B8
100
AcDbEntity
  8
SUNPOU
100
AcDbLine
 10
464.9054673461858
 20
314.292671896263
 30
0.0
 11
319.0819394390857
 21
314.292671896263
 31
0.0
  0
INSERT
  5
3560
330
34B8
100
AcDbEntity
  8
SUNPOU
100
AcDbBlockReference
  2
_OPEN
 10
471.9054673461857
 20
314.292671896263
 30
0.0
 41
7.0
 42
7.0
 43
7.0
  0
INSERT
  5
3561
330
34B8
100
AcDbEntity
  8
SUNPOU
100
AcDbBlockReference
  2
_OPEN
 10
312.0819394390857
 20
314.292671896263
 30
0.0
 41
7.0
 42
7.0
 43
7.0
 50
180.0
  0
MTEXT
  5
3562
330
34B8
100
AcDbEntity
  8
SUNPOU
100
AcDbMText
 10
391.9937033926357
 20
319.292671896263
 30
0.0
 40
6.0
 41
0.0
 71
     5
 72
     1
  1
\A1;160
  0
POINT
  5
3563
330
34B8
100
AcDbEntity
  8
DEFPOINTS
 62
     0
100
AcDbPoint
 10
471.9054673461857
 20
229.8164794706945
 30
0.0
  0
POINT
  5
3564
330
34B8
100
AcDbEntity
  8
DEFPOINTS
 62
     0
100
AcDbPoint
 10
312.0819394390857
 20
287.6017574167945
 30
0.0
  0
POINT
  5
3565
330
34B8
100
AcDbEntity
  8
DEFPOINTS
 62
     0
100
AcDbPoint
 10
312.0819394390857
 20
314.292671896263
 30
0.0
  0
ENDBLK
  5
34C3
330
34B8
100
AcDbEntity
  8
0
100
AcDbBlockEnd
  0
BLOCK
  5
34CE
330
34C4
100
AcDbEntity
  8
0
100
AcDbBlockBegin
  2
*D3
 70
     1
 10
0.0
 20
0.0
 30
0.0
  3
*D3
  1

  0
LINE
  5
3566
330
34C4
100
AcDbEntity
  8
SUNPOU
100
AcDbLine
 10
472.0775442664844
 20
237.1277145765164
 30
0.0
 11
510.9357560758176
 21
237.1277145765164
 31
0.0
  0
LINE
  5
3567
330
34C4
100
AcDbEntity
  8
SUNPOU
100
AcDbLine
 10
422.3862098996855
 20
148.1164794706945
 30
0.0
 11
510.9357560758176
 21
148.1164794706945
 31
0.0
  0
LINE
  5
3568
330
34C4
100
AcDbEntity
  8
SUNPOU
100
AcDbLine
 10
507.9357560758175
 20
230.1277145765165
 30
0.0
 11
507.9357560758175
 21
155.1164794706945
 31
0.0
  0
INSERT
  5
3569
330
34C4
100
AcDbEntity
  8
SUNPOU
100
AcDbBlockReference
  2
_OPEN
 10
507.9357560758175
 20
237.1277145765164
 30
0.0
 41
7.0
 42
7.0
 43
7.0
 50
90.0
  0
INSERT
  5
356A
330
34C4
100
AcDbEntity
  8
SUNPOU
100
AcDbBlockReference
  2
_OPEN
 10
507.9357560758175
 20
148.1164794706945
 30
0.0
 41
7.0
 42
7.0
 43
7.0
 50
270.0
  0
MTEXT
  5
356B
330
34C4
100
AcDbEntity
  8
SUNPOU
100
AcDbMText
 10
502.9357560758175
 20
192.6220970236056
 30
0.0
 40
6.0
 41
0.0
 71
     5
 72
     1
  1
\A1;89
 11
0.0000000000000001
 21
1.0
 31
0.0
  0
POINT
  5
356C
330
34C4
100
AcDbEntity
  8
DEFPOINTS
 62
     0
100
AcDbPoint
 10
466.0775442664844
 20
237.1277145765164
 30
0.0
  0
POINT
  5
356D
330
34C4
100
AcDbEntity
  8
DEFPOINTS
 62
     0
100
AcDbPoint
 10
416.3862098996855
 20
148.1164794706945
 30
0.0
  0
POINT
  5
356E
330
34C4
100
AcDbEntity
  8
DEFPOINTS
 62
     0
100
AcDbPoint
 10
507.9357560758175
 20
148.1164794706945
 30
0.0
  0
ENDBLK
  5
34CF
330
34C4
100
AcDbEntity
  8
0
100
AcDbBlockEnd
  0
BLOCK
  5
34DA
330
34D0
100
AcDbEntity
  8
0
100
AcDbBlockBegin
  2
*D4
 70
     1
 10
0.0
 20
0.0
 30
0.0
  3
*D4
  1

  0
LINE
  5
356F
330
34D0
100
AcDbEntity
  8
SUNPOU
100
AcDbLine
 10
308.0819394390857
 20
289.6017574167945
 30
0.0
 11
267.4087635869186
 21
289.6017574167945
 31
0.0
  0
LINE
  5
3570
330
34D0
100
AcDbEntity
  8
SUNPOU
100
AcDbLine
 10
410.3862098996855
 20
148.1164794706945
 30
0.0
 11
267.4087635869186
 21
148.1164794706945
 31
0.0
  0
LINE
  5
3571
330
34D0
100
AcDbEntity
  8
SUNPOU
100
AcDbLine
 10
270.4087635869186
 20
282.6017574167945
 30
0.0
 11
270.4087635869186
 21
155.1164794706946
 31
0.0
  0
INSERT
  5
3572
330
34D0
100
AcDbEntity
  8
SUNPOU
100
AcDbBlockReference
  2
_OPEN
 10
270.4087635869186
 20
289.6017574167945
 30
0.0
 41
7.0
 42
7.0
 43
7.0
 50
90.0
  0
INSERT
  5
3573
330
34D0
100
AcDbEntity
  8
SUNPOU
100
AcDbBlockReference
  2
_OPEN
 10
270.4087635869186
 20
148.1164794706945
 30
0.0
 41
7.0
 42
7.0
 43
7.0
 50
270.0
  0
MTEXT
  5
3574
330
34D0
100
AcDbEntity
  8
SUNPOU
100
AcDbMText
 10
265.4087635869186
 20
218.8591184437445
 30
0.0
 40
6.0
 41
0.0
 71
     5
 72
     1
  1
\A1;141
 11
0.0000000000000001
 21
1.0
 31
0.0
  0
POINT
  5
3575
330
34D0
100
AcDbEntity
  8
DEFPOINTS
 62
     0
100
AcDbPoint
 10
314.0819394390857
 20
289.6017574167945
 30
0.0
  0
POINT
  5
3576
330
34D0
100
AcDbEntity
  8
DEFPOINTS
 62
     0
100
AcDbPoint
 10
416.3862098996855
 20
148.1164794706945
 30
0.0
  0
POINT
  5
3577
330
34D0
100
AcDbEntity
  8
DEFPOINTS
 62
     0
100
AcDbPoint
 10
270.4087635869186
 20
148.1164794706945
 30
0.0
  0
ENDBLK
  5
34DB
330
34D0
100
AcDbEntity
  8
0
100
AcDbBlockEnd
  0
BLOCK
  5
34E6
330
34DC
100
AcDbEntity
  8
0
100
AcDbBlockBegin
  2
*D5
 70
     1
 10
0.0
 20
0.0
 30
0.0
  3
*D5
  1

  0
LINE
  5
3578
330
34DC
100
AcDbEntity
  8
SUNPOU
100
AcDbLine
 10
308.0819394390857
 20
289.6017574167945
 30
0.0
 11
284.9533689747709
 21
289.6017574167945
 31
0.0
  0
LINE
  5
3579
330
34DC
100
AcDbEntity
  8
SUNPOU
100
AcDbLine
 10
307.3362089340857
 20
263.6164775037944
 30
0.0
 11
284.9533689747709
 21
263.6164775037944
 31
0.0
  0
LINE
  5
357A
330
34DC
100
AcDbEntity
  8
SUNPOU
100
AcDbLine
 10
287.9533689747709
 20
282.6017574167945
 30
0.0
 11
287.9533689747709
 21
270.6164775037945
 31
0.0
  0
INSERT
  5
357B
330
34DC
100
AcDbEntity
  8
SUNPOU
100
AcDbBlockReference
  2
_OPEN
 10
287.9533689747709
 20
289.6017574167945
 30
0.0
 41
7.0
 42
7.0
 43
7.0
 50
90.0
  0
INSERT
  5
357C
330
34DC
100
AcDbEntity
  8
SUNPOU
100
AcDbBlockReference
  2
_OPEN
 10
287.9533689747709
 20
263.6164775037944
 30
0.0
 41
7.0
 42
7.0
 43
7.0
 50
270.0
  0
MTEXT
  5
357D
330
34DC
100
AcDbEntity
  8
SUNPOU
100
AcDbMText
 10
282.9533689747708
 20
276.6091174602945
 30
0.0
 40
6.0
 41
0.0
 71
     5
 72
     1
  1
\A1;26
 11
0.0000000000000001
 21
1.0
 31
0.0
  0
POINT
  5
357E
330
34DC
100
AcDbEntity
  8
DEFPOINTS
 62
     0
100
AcDbPoint
 10
314.0819394390857
 20
289.6017574167945
 30
0.0
  0
POINT
  5
357F
330
34DC
100
AcDbEntity
  8
DEFPOINTS
 62
     0
100
AcDbPoint
 10
313.3362089340857
 20
263.6164775037944
 30
0.0
  0
POINT
  5
3580
330
34DC
100
AcDbEntity
  8
DEFPOINTS
 62
     0
100
AcDbPoint
 10
287.9533689747709
 20
263.6164775037944
 30
0.0
  0
ENDBLK
  5
34E7
330
34DC
100
AcDbEntity
  8
0
100
AcDbBlockEnd
  0
BLOCK
  5
34F2
330
34E8
100
AcDbEntity
  8
0
100
AcDbBlockBegin
  2
*D6
 70
     1
 10
0.0
 20
0.0
 30
0.0
  3
*D6
  1

  0
LINE
  5
3581
330
34E8
100
AcDbEntity
  8
SUNPOU
100
AcDbLine
 10
477.9054673461858
 20
437.6835240080457
 30
0.0
 11
510.9357560758176
 21
437.6835240080457
 31
0.0
  0
LINE
  5
3582
330
34E8
100
AcDbEntity
  8
SUNPOU
100
AcDbLine
 10
477.9054673461858
 20
347.6835240080457
 30
0.0
 11
510.9357560758176
 21
347.6835240080457
 31
0.0
  0
LINE
  5
3583
330
34E8
100
AcDbEntity
  8
SUNPOU
100
AcDbLine
 10
507.9357560758176
 20
430.6835240080457
 30
0.0
 11
507.9357560758175
 21
354.6835240080457
 31
0.0
  0
INSERT
  5
3584
330
34E8
100
AcDbEntity
  8
SUNPOU
100
AcDbBlockReference
  2
_OPEN
 10
507.9357560758176
 20
437.6835240080457
 30
0.0
 41
7.0
 42
7.0
 43
7.0
 50
90.0
  0
INSERT
  5
3585
330
34E8
100
AcDbEntity
  8
SUNPOU
100
AcDbBlockReference
  2
_OPEN
 10
507.9357560758175
 20
347.6835240080457
 30
0.0
 41
7.0
 42
7.0
 43
7.0
 50
270.0
  0
MTEXT
  5
3586
330
34E8
100
AcDbEntity
  8
SUNPOU
100
AcDbMText
 10
502.9357560758175
 20
392.6835240080457
 30
0.0
 40
6.0
 41
0.0
 71
     5
 72
     1
  1
\A1;90
 11
0.0000000000000001
 21
1.0
 31
0.0
  0
POINT
  5
3587
330
34E8
100
AcDbEntity
  8
DEFPOINTS
 62
     0
100
AcDbPoint
 10
471.9054673461857
 20
437.6835240080457
 30
0.0
  0
POINT
  5
3588
330
34E8
100
AcDbEntity
  8
DEFPOINTS
 62
     0
100
AcDbPoint
 10
471.9054673461857
 20
347.6835240080457
 30
0.0
  0
POINT
  5
3589
330
34E8
100
AcDbEntity
  8
DEFPOINTS
 62
     0
100
AcDbPoint
 10
507.9357560758175
 20
347.6835240080457
 30
0.0
  0
ENDBLK
  5
34F3
330
34E8
100
AcDbEntity
  8
0
100
AcDbBlockEnd
  0
ENDSEC
  0
SECTION
  2
ENTITIES
  0
LWPOLYLINE
  5
3123
330
1A
100
AcDbEntity
  8
ZUWAKU
100
AcDbPolyline
 90
        4
 70
     1
 43
0.0
 10
0.8000004691136837
 20
550.7999997642577
 10
0.8000004691136837
 20
0.7999997642576773
 10
796.8000004691137
 20
0.7999997642576773
 10
796.8000004691137
 20
550.7999997642577
  0
LWPOLYLINE
  5
3124
330
1A
100
AcDbEntity
  8
ZUWAKU
100
AcDbPolyline
 90
        4
 70
     1
 43
0.0
 10
0.4000004691137065
 20
551.1999997642576
 10
0.4000004691137065
 20
0.3999997642577
 10
797.2000004691137
 20
0.3999997642576769
 10
797.2000004691137
 20
551.1999997642576
  0
LWPOLYLINE
  5
3125
330
1A
100
AcDbEntity
  8
ZUWAKU
100
AcDbPolyline
 90
        4
 70
     1
 43
0.0
 10
0.0000004691137292
 20
551.5999997642576
 10
0.0000004691137292
 20
-0.0000002357423909
 10
797.6000004691139
 20
-0.0000002357423234
 10
797.6000004691139
 20
551.5999997642577
  0
LWPOLYLINE
  5
3126
330
1A
100
AcDbEntity
  8
ZUWAKU
100
AcDbPolyline
 90
        4
 70
     1
 43
0.0
 10
0.6000004691136383
 20
550.9999997642577
 10
0.6000004691136383
 20
0.5999997642576318
 10
797.0000004691139
 20
0.599999764257678
 10
797.0000004691137
 20
550.9999997642577
  0
LWPOLYLINE
  5
3127
330
1A
100
AcDbEntity
  8
ZUWAKU
100
AcDbPolyline
 90
        4
 70
     1
 43
0.0
 10
0.200000469113661
 20
551.3999997642577
 10
0.200000469113661
 20
0.1999997642576545
 10
797.4000004691135
 20
0.1999997642576776
 10
797.4000004691138
 20
551.3999997642577
  0
LINE
  5
3128
330
1A
100
AcDbEntity
  8
ZUWAKU
100
AcDbLine
 10
208.6466017591817
 20
15.19999976425764
 30
0.0
 11
447.4243644401051
 21
15.19999976425764
 31
0.0
  0
LINE
  5
3129
330
1A
100
AcDbEntity
  8
ZUWAKU
100
AcDbLine
 10
208.6466017591817
 20
15.59999976425764
 30
0.0
 11
447.4243644401051
 21
15.59999976425765
 31
0.0
  0
LINE
  5
312A
330
1A
100
AcDbEntity
  8
ZUWAKU
100
AcDbLine
 10
208.6466017591817
 20
15.39999976425764
 30
0.0
 11
447.4243644401051
 21
15.39999976425764
 31
0.0
  0
TEXT
  5
312B
330
1A
100
AcDbEntity
  8
MOJI
100
AcDbText
 10
239.8272031499648
 20
3.20492082166503
 30
0.0
 40
5.599999999999999
  1
ＶＭ１６０
 41
0.9
  7
ｽﾀｲﾙ1
100
AcDbText
  0
LINE
  5
312C
330
1A
100
AcDbEntity
  8
ZUWAKU
100
AcDbLine
 10
0.0000004691137292
 20
29.9999997642576
 30
0.0
 11
797.4000004691135
 21
29.9999997642576
 31
0.0
  0
LINE
  5
312D
330
1A
100
AcDbEntity
  8
ZUWAKU
100
AcDbLine
 10
0.0000004691137292
 20
30.19999976425761
 30
0.0
 11
797.4000004691135
 21
30.19999976425761
 31
0.0
  0
LINE
  5
312E
330
1A
100
AcDbEntity
  8
ZUWAKU
100
AcDbLine
 10
0.0000004691137292
 20
30.39999976425761
 30
0.0
 11
797.4000004691135
 21
30.39999976425761
 31
0.0
  0
LINE
  5
312F
330
1A
100
AcDbEntity
  8
ZUWAKU
100
AcDbLine
 10
0.0000004691137292
 20
30.59999976425761
 30
0.0
 11
797.4000004691135
 21
30.59999976425761
 31
0.0
  0
LINE
  5
3130
330
1A
100
AcDbEntity
  8
ZUWAKU
100
AcDbLine
 10
0.0000004691137292
 20
30.79999976425762
 30
0.0
 11
797.4000004691135
 21
30.79999976425762
 31
0.0
  0
ARC
  5
3131
330
1A
100
AcDbEntity
  8
ZUWAKU
100
AcDbCircle
 10
48.74221262389482
 20
11.76520178961291
 30
0.0
 40
4.199999999999999
100
AcDbArc
 50
0.0
 51
45.0
  0
ARC
  5
3132
330
1A
100
AcDbEntity
  8
ZUWAKU
100
AcDbCircle
 10
50.14221262389492
 20
9.949999764257611
 30
0.0
 40
2.799999999999999
100
AcDbArc
 50
270.0
 51
0.0
  0
HATCH
  5
3133
330
1A
100
AcDbEntity
  8
ZUWAKU
100
AcDbHatch
 10
0.0
 20
0.0
 30
0.0
210
0.0
220
0.0
230
1.0
  2
ANSI37
 70
     0
 71
     0
 91
        8
 92
        7
 72
     1
 73
     1
 93
       24
 10
14.50226313023358
 20
17.64484824524119
 42
-0.1989123673796348
 10
14.09221262389485
 20
18.63479773890224
 42
0.0
 10
14.09221262389485
 20
19.92499976425762
 42
-0.4142135623730912
 10
14.61721262389483
 20
20.44999976425761
 42
0.0
 10
17.59221262389473
 20
20.44999976425761
 42
0.4142135623731546
 10
18.11721262389482
 20
20.9749997642576
 42
0.0
 10
18.11721262389482
 20
22.72499976425761
 42
0.4142135623731586
 10
17.59221262389473
 20
23.24999976425761
 42
0.0
 10
14.09221262389485
 20
23.24999976425761
 42
0.4142135623730928
 10
11.29221262389489
 20
20.44999976425764
 42
0.0
 10
11.29221262389489
 20
18.63479773890237
 42
0.1989123673796619
 10
12.52236414291132
 20
15.66494925791876
 42
0.0
 10
15.432162117556
 20
12.7551512832741
 42
-0.1989123673796613
 10
15.84221262389485
 20
11.76520178961292
 42
0.0
 10
15.84221262389485
 20
10.4749997642576
 42
-0.4142135623730911
 10
15.31721262389487
 20
9.949999764257611
 42
0.0
 10
12.34221262389496
 20
9.949999764257611
 42
0.4142135623731526
 10
11.81721262389487
 20
9.424999764257623
 42
0.0
 10
11.81721262389487
 20
7.674999764257602
 42
0.4142135623731526
 10
12.34221262389496
 20
7.149999764257614
 42
0.0
 10
15.84221262389485
 20
7.149999764257614
 42
0.4142135623731044
 10
18.64221262389492
 20
9.94999976425759
 42
0.0
 10
18.64221262389492
 20
11.76520178961286
 42
0.1989123673796604
 10
17.41206110487837
 20
14.7350502705964
 42
0.0
 97
        0
 92
        7
 72
     1
 73
     1
 93
       16
 10
23.5422126238949
 20
19.04999976425762
 42
-0.4142135623730935
 10
24.94221262389487
 20
20.44999976425761
 42
0.0
 10
26.86721262389482
 20
20.44999976425761
 42
0.4142135623731546
 10
27.39221262389492
 20
20.9749997642576
 42
0.0
 10
27.39221262389492
 20
22.72499976425761
 42
0.4142135623730951
 10
26.86721262389494
 20
23.24999976425761
 42
0.0
 10
24.94221262389476
 20
23.24999976425757
 42
0.4142135623730892
 10
20.74221262389483
 20
19.04999976425754
 42
0.0
 10
20.74221262389483
 20
11.34999976425763
 42
0.4142135623730969
 10
24.94221262389487
 20
7.149999764257614
 42
0.0
 10
26.86721262389482
 20
7.149999764257614
 42
0.4142135623731526
 10
27.39221262389492
 20
7.674999764257602
 42
0.0
 10
27.39221262389492
 20
9.424999764257623
 42
0.4142135623730891
 10
26.86721262389494
 20
9.949999764257611
 42
0.0
 10
24.94221262389487
 20
9.949999764257611
 42
-0.4142135623730928
 10
23.5422126238949
 20
11.3499997642576
 42
0.0
 97
        0
 92
        7
 72
     1
 73
     1
 93
        2
 10
24.24221262389483
 20
15.19999976425761
 42
1.0
 10
27.74221262389483
 20
15.19999976425761
 42
1.0
 97
        0
 92
        7
 72
     1
 73
     1
 93
       26
 10
37.31485910607284
 20
19.20504695782104
 42
0.0
 10
38.37649873921066
 20
22.56690579609063
 42
0.5069206636600134
 10
37.8758678400153
 20
23.24999976425761
 42
0.0
 10
36.17697846040607
 20
23.24999976425761
 42
0.3272098845218764
 10
35.67634756121071
 20
22.88309373242458
 42
0.0
 10
33.80807768657894
 20
16.96690579609069
 42
-0.3272098845219541
 10
33.30744678738347
 20
16.59999976425761
 42
0.0
 10
33.16721262389501
 20
16.59999976425761
 42
-0.4142135623731526
 10
32.64221262389492
 20
17.1249997642576
 42
0.0
 10
32.64221262389492
 20
22.72499976425761
 42
0.4142135623730951
 10
32.11721262389494
 20
23.24999976425761
 42
0.0
 10
30.36721262389483
 20
23.24999976425761
 42
0.4142135623730871
 10
29.84221262389485
 20
22.72499976425763
 42
0.0
 10
29.84221262389485
 20
7.674999764257602
 42
0.4142135623730891
 10
30.36721262389483
 20
7.149999764257614
 42
0.0
 10
32.11721262389483
 20
7.149999764257614
 42
0.4142135623731526
 10
32.64221262389492
 20
7.674999764257602
 42
0.0
 10
32.64221262389492
 20
13.27499976425762
 42
-0.4142135623731526
 10
33.16721262389501
 20
13.79999976425761
 42
0.0
 10
33.30744678738358
 20
13.79999976425761
 42
-0.3272098845218915
 10
33.80807768657894
 20
13.43309373242453
 42
0.0
 10
35.67634756121071
 20
7.516905796090686
 42
0.3272098845218902
 10
36.17697846040607
 20
7.149999764257614
 42
0.0
 10
37.8758678400153
 20
7.149999764257614
 42
0.5069206636600335
 10
38.37649873921066
 20
7.833093732424622
 42
0.0
 10
36.050107360737
 20
15.19999976425775
 42
0.0
 97
        0
 92
        7
 72
     1
 73
     1
 93
        8
 10
43.49221262389483
 20
22.72499976425762
 42
0.4142135623731546
 10
42.96721262389474
 20
23.24999976425761
 42
0.0
 10
41.21721262389496
 20
23.24999976425761
 42
0.4142135623731507
 10
40.69221262389487
 20
22.72499976425763
 42
0.0
 10
40.69221262389487
 20
7.674999764257602
 42
0.4142135623731526
 10
41.21721262389496
 20
7.149999764257614
 42
0.0
 10
42.96721262389474
 20
7.149999764257614
 42
0.4142135623731526
 10
43.49221262389483
 20
7.674999764257602
 42
0.0
 97
        0
 92
        7
 72
     1
 73
     1
 93
       24
 10
48.39221262389492
 20
19.92499976425762
 42
-0.4142135623731546
 10
48.91721262389501
 20
20.44999976425761
 42
0.0
 10
51.89221262389492
 20
20.44999976425761
 42
0.4142135623730911
 10
52.41721262389489
 20
20.9749997642576
 42
0.0
 10
52.41721262389489
 20
22.72499976425761
 42
0.4142135623730952
 10
51.89221262389492
 20
23.24999976425761
 42
0.0
 10
48.39221262389492
 20
23.24999976425761
 42
0.4142135623731048
 10
45.59221262389485
 20
20.44999976425764
 42
0.0
 10
45.59221262389485
 20
18.63479773890237
 42
0.1989123673796613
 10
46.82236414291139
 20
15.66494925791882
 42
0.0
 10
49.73216211755607
 20
12.75515128327415
 42
-0.1989123673796402
 10
50.14221262389492
 20
11.76520178961308
 42
0.0
 10
50.14221262389492
 20
10.4749997642576
 42
-0.4142135623730911
 10
49.61721262389494
 20
9.949999764257611
 42
0.0
 10
46.64221262389491
 20
9.949999764257611
 42
0.4142135623731526
 10
46.11721262389482
 20
9.424999764257623
 42
0.0
 10
46.11721262389482
 20
7.674999764257602
 42
0.4142135623730891
 10
46.64221262389481
 20
7.149999764257614
 42
0.0
 10
50.14221262389492
 20
7.149999764257614
 42
0.4142135623730925
 10
52.94221262389488
 20
9.94999976425759
 42
0.0
 10
52.94221262389488
 20
11.76520178961286
 42
0.1989123673796675
 10
51.71206110487833
 20
14.73505027059651
 42
0.0
 10
48.80226313023377
 20
17.64484824524103
 42
-0.1989123673796652
 10
48.39221262389492
 20
18.6347977389022
 42
0.0
 97
        0
 92
        7
 72
     1
 73
     1
 93
       16
 10
57.84221262389485
 20
22.7249997642576
 42
0.414213562373103
 10
57.31721262389488
 20
23.24999976425761
 42
0.0
 10
55.56721262389487
 20
23.24999976425761
 42
0.4142135623730871
 10
55.04221262389489
 20
22.72499976425763
 42
0.0
 10
55.04221262389489
 20
9.94999976425759
 42
0.4142135623730926
 10
57.84221262389485
 20
7.149999764257614
 42
0.0
 10
61.34221262389485
 20
7.149999764257614
 42
0.4142135623731044
 10
64.14221262389492
 20
9.94999976425759
 42
0.0
 10
64.14221262389492
 20
22.72499976425761
 42
0.4142135623730951
 10
63.61721262389494
 20
23.24999976425761
 42
0.0
 10
61.86721262389482
 20
23.24999976425761
 42
0.4142135623730871
 10
61.34221262389485
 20
22.72499976425763
 42
0.0
 10
61.34221262389485
 20
10.99999976425758
 42
-0.414213562373088
 10
60.2922126238949
 20
9.949999764257611
 42
0.0
 10
58.89221262389492
 20
9.949999764257611
 42
-0.4142135623731197
 10
57.84221262389485
 20
10.99999976425758
 42
0.0
 97
        0
 92
        7
 72
     1
 73
     1
 93
        8
 10
69.0422126238949
 20
22.72499976425763
 42
0.4142135623730871
 10
68.51721262389492
 20
23.24999976425761
 42
0.0
 10
66.76721262389492
 20
23.24999976425761
 42
0.4142135623731507
 10
66.24221262389482
 20
22.72499976425763
 42
0.0
 10
66.24221262389482
 20
7.674999764257602
 42
0.4142135623730891
 10
66.76721262389481
 20
7.149999764257614
 42
0.0
 10
68.51721262389492
 20
7.149999764257614
 42
0.4142135623730891
 10
69.0422126238949
 20
7.674999764257602
 42
0.0
 97
        0
 75
     0
 76
     1
 52
0.0
 41
0.2
 77
     0
 78
     2
 53
45.0
 43
-900.9423038655652
 44
-13.20000023574232
 45
-0.4490128060534576
 46
0.4490128060534577
 79
     0
 53
135.0
 43
-900.9423038655652
 44
-13.20000023574232
 45
-0.4490128060534577
 46
-0.4490128060534576
 79
     0
 47
0.057451373970553
 98
        8
 10
16.07985543213703
 20
15.16717341014316
 10
22.40451547555289
 20
18.84406194670862
 10
25.16436835477338
 20
15.51188141032833
 10
30.91406045075086
 20
16.20129741069911
 10
41.83847248807047
 20
16.66090967824072
 10
46.89820136424327
 20
19.41857608066482
 10
56.55768644151407
 20
18.72915767935262
 10
67.82708008873647
 20
19.18876994689424
  0
LINE
  5
3134
330
1A
100
AcDbEntity
  8
ZUWAKU
100
AcDbLine
 10
35.67634756121071
 20
22.88309373242458
 30
0.0
 11
33.80807768657894
 21
16.96690579609064
 31
0.0
  0
LINE
  5
3135
330
1A
100
AcDbEntity
  8
ZUWAKU
100
AcDbLine
 10
32.64221262389492
 20
17.12499976425761
 30
0.0
 11
32.64221262389492
 21
22.7249997642576
 31
0.0
  0
LINE
  5
3136
330
1A
100
AcDbEntity
  8
ZUWAKU
100
AcDbLine
 10
29.84221262389485
 20
22.7249997642576
 30
0.0
 11
29.84221262389485
 21
7.674999764257613
 31
0.0
  0
LINE
  5
3137
330
1A
100
AcDbEntity
  8
ZUWAKU
100
AcDbLine
 10
20.74221262389483
 20
11.34999976425761
 30
0.0
 11
20.74221262389483
 21
19.04999976425757
 31
0.0
  0
LINE
  5
3138
330
1A
100
AcDbEntity
  8
ZUWAKU
100
AcDbLine
 10
23.5422126238949
 20
19.04999976425761
 30
0.0
 11
23.5422126238949
 21
11.34999976425761
 31
0.0
  0
LINE
  5
3139
330
1A
100
AcDbEntity
  8
ZUWAKU
100
AcDbLine
 10
43.49221262389483
 20
7.674999764257613
 30
0.0
 11
43.49221262389483
 21
22.7249997642576
 31
0.0
  0
LINE
  5
313A
330
1A
100
AcDbEntity
  8
ZUWAKU
100
AcDbLine
 10
40.69221262389487
 20
22.7249997642576
 30
0.0
 11
40.69221262389487
 21
7.674999764257613
 31
0.0
  0
LINE
  5
313B
330
1A
100
AcDbEntity
  8
ZUWAKU
100
AcDbLine
 10
37.31485910607284
 20
19.20504695782104
 30
0.0
 11
36.050107360737
 21
15.19999976425763
 31
0.0
  0
ARC
  5
313C
330
1A
100
AcDbEntity
  8
ZUWAKU
100
AcDbCircle
 10
49.7922126238949
 20
18.63479773890231
 30
0.0
 40
4.199999999999999
100
AcDbArc
 50
180.0
 51
225.0
  0
ARC
  5
313D
330
1A
100
AcDbEntity
  8
ZUWAKU
100
AcDbCircle
 10
49.7922126238949
 20
18.63479773890231
 30
0.0
 40
1.399999999999999
100
AcDbArc
 50
180.0000000000016
 51
224.9999999999988
  0
ARC
  5
313E
330
1A
100
AcDbEntity
  8
ZUWAKU
100
AcDbCircle
 10
15.49221262389482
 20
18.63479773890231
 30
0.0
 40
1.399999999999999
100
AcDbArc
 50
180.0000000000016
 51
224.9999999999988
  0
ARC
  5
313F
330
1A
100
AcDbEntity
  8
ZUWAKU
100
AcDbCircle
 10
15.49221262389482
 20
18.63479773890231
 30
0.0
 40
4.199999999999999
100
AcDbArc
 50
180.0
 51
225.0
  0
ARC
  5
3140
330
1A
100
AcDbEntity
  8
ZUWAKU
100
AcDbCircle
 10
24.94221262389487
 20
11.34999976425761
 30
0.0
 40
4.199999999999999
100
AcDbArc
 50
180.0
 51
270.0
  0
ARC
  5
3141
330
1A
100
AcDbEntity
  8
ZUWAKU
100
AcDbCircle
 10
15.84221262389485
 20
9.949999764257611
 30
0.0
 40
2.799999999999999
100
AcDbArc
 50
270.0
 51
0.0
  0
ARC
  5
3142
330
1A
100
AcDbEntity
  8
ZUWAKU
100
AcDbCircle
 10
14.44221262389487
 20
11.76520178961291
 30
0.0
 40
4.199999999999999
100
AcDbArc
 50
0.0
 51
45.0
  0
ARC
  5
3143
330
1A
100
AcDbEntity
  8
ZUWAKU
100
AcDbCircle
 10
14.44221262389487
 20
11.76520178961296
 30
0.0
 40
1.399999999999999
100
AcDbArc
 50
0.0
 51
45.0
  0
LINE
  5
3144
330
1A
100
AcDbEntity
  8
ZUWAKU
100
AcDbLine
 10
15.84221262389485
 20
10.47499976425761
 30
0.0
 11
15.84221262389485
 21
11.76520178961296
 31
0.0
  0
LINE
  5
3145
330
1A
100
AcDbEntity
  8
ZUWAKU
100
AcDbLine
 10
18.64221262389492
 20
9.949999764257611
 30
0.0
 11
18.64221262389492
 21
11.76520178961296
 31
0.0
  0
LINE
  5
3146
330
1A
100
AcDbEntity
  8
ZUWAKU
100
AcDbLine
 10
12.34221262389485
 20
9.949999764257611
 30
0.0
 11
15.31721262389487
 21
9.949999764257611
 31
0.0
  0
ARC
  5
3147
330
1A
100
AcDbEntity
  8
ZUWAKU
100
AcDbCircle
 10
12.34221262389485
 20
9.424999764257613
 30
0.0
 40
0.525
100
AcDbArc
 50
90.0
 51
180.0
  0
ARC
  5
3148
330
1A
100
AcDbEntity
  8
ZUWAKU
100
AcDbCircle
 10
12.34221262389485
 20
7.674999764257613
 30
0.0
 40
0.525
100
AcDbArc
 50
180.0
 51
270.0
  0
LINE
  5
3149
330
1A
100
AcDbEntity
  8
ZUWAKU
100
AcDbLine
 10
11.81721262389487
 20
7.674999764257613
 30
0.0
 11
11.81721262389487
 21
9.424999764257613
 31
0.0
  0
LINE
  5
314A
330
1A
100
AcDbEntity
  8
ZUWAKU
100
AcDbLine
 10
12.52236414291132
 20
15.66494925791879
 30
0.0
 11
15.432162117556
 21
12.75515128327413
 31
0.0
  0
LINE
  5
314B
330
1A
100
AcDbEntity
  8
ZUWAKU
100
AcDbLine
 10
12.34221262389485
 20
7.149999764257614
 30
0.0
 11
15.84221262389485
 21
7.149999764257614
 31
0.0
  0
ARC
  5
314C
330
1A
100
AcDbEntity
  8
ZUWAKU
100
AcDbCircle
 10
15.31721262389487
 20
10.47499976425761
 30
0.0
 40
0.525
100
AcDbArc
 50
270.0
 51
0.0
  0
LINE
  5
314D
330
1A
100
AcDbEntity
  8
ZUWAKU
100
AcDbLine
 10
17.41206110487837
 20
14.73505027059643
 30
0.0
 11
14.5022631302337
 21
17.64484824524111
 31
0.0
  0
LINE
  5
314E
330
1A
100
AcDbEntity
  8
ZUWAKU
100
AcDbLine
 10
38.37649873921066
 20
7.833093732424586
 30
0.0
 11
36.050107360737
 21
15.19999976425763
 31
0.0
  0
LINE
  5
314F
330
1A
100
AcDbEntity
  8
ZUWAKU
100
AcDbLine
 10
36.17697846040619
 20
7.149999764257614
 30
0.0
 11
37.87586784001518
 21
7.149999764257614
 31
0.0
  0
LINE
  5
3150
330
1A
100
AcDbEntity
  8
ZUWAKU
100
AcDbLine
 10
35.67634756121071
 20
7.51690579609064
 30
0.0
 11
33.80807768657894
 21
13.43309373242458
 31
0.0
  0
ARC
  5
3151
330
1A
100
AcDbEntity
  8
ZUWAKU
100
AcDbCircle
 10
36.17697846040619
 20
7.674999764257613
 30
0.0
 40
0.525
100
AcDbArc
 50
197.525568373723
 51
270.0
  0
ARC
  5
3152
330
1A
100
AcDbEntity
  8
ZUWAKU
100
AcDbCircle
 10
33.16721262389489
 20
13.27499976425761
 30
0.0
 40
0.525
100
AcDbArc
 50
90.0
 51
180.0
  0
ARC
  5
3153
330
1A
100
AcDbEntity
  8
ZUWAKU
100
AcDbCircle
 10
33.30744678738358
 20
13.27499976425761
 30
0.0
 40
0.525
100
AcDbArc
 50
17.52556837372303
 51
90.0
  0
LINE
  5
3154
330
1A
100
AcDbEntity
  8
ZUWAKU
100
AcDbLine
 10
32.64221262389492
 20
7.674999764257613
 30
0.0
 11
32.64221262389492
 21
13.27499976425761
 31
0.0
  0
ARC
  5
3155
330
1A
100
AcDbEntity
  8
ZUWAKU
100
AcDbCircle
 10
32.11721262389483
 20
7.674999764257613
 30
0.0
 40
0.525
100
AcDbArc
 50
270.0
 51
0.0
  0
LINE
  5
3156
330
1A
100
AcDbEntity
  8
ZUWAKU
100
AcDbLine
 10
33.16721262389489
 20
13.79999976425761
 30
0.0
 11
33.30744678738358
 21
13.79999976425761
 31
0.0
  0
LINE
  5
3157
330
1A
100
AcDbEntity
  8
ZUWAKU
100
AcDbLine
 10
33.30744678738358
 20
16.59999976425761
 30
0.0
 11
33.16721262389489
 21
16.59999976425761
 31
0.0
  0
CIRCLE
  5
3158
330
1A
100
AcDbEntity
  8
ZUWAKU
100
AcDbCircle
 10
25.99221262389483
 20
15.19999976425761
 30
0.0
 40
1.75
  0
ARC
  5
3159
330
1A
100
AcDbEntity
  8
ZUWAKU
100
AcDbCircle
 10
24.94221262389487
 20
11.34999976425761
 30
0.0
 40
1.399999999999999
100
AcDbArc
 50
180.0
 51
270.0
  0
ARC
  5
315A
330
1A
100
AcDbEntity
  8
ZUWAKU
100
AcDbCircle
 10
30.36721262389483
 20
7.674999764257613
 30
0.0
 40
0.525
100
AcDbArc
 50
180.0
 51
270.0
  0
ARC
  5
315B
330
1A
100
AcDbEntity
  8
ZUWAKU
100
AcDbCircle
 10
26.86721262389482
 20
9.424999764257613
 30
0.0
 40
0.525
100
AcDbArc
 50
0.0
 51
90.0
  0
ARC
  5
315C
330
1A
100
AcDbEntity
  8
ZUWAKU
100
AcDbCircle
 10
26.86721262389482
 20
7.674999764257613
 30
0.0
 40
0.525
100
AcDbArc
 50
270.0
 51
0.0
  0
LINE
  5
315D
330
1A
100
AcDbEntity
  8
ZUWAKU
100
AcDbLine
 10
26.86721262389482
 20
7.149999764257614
 30
0.0
 11
24.94221262389487
 21
7.149999764257614
 31
0.0
  0
LINE
  5
315E
330
1A
100
AcDbEntity
  8
ZUWAKU
100
AcDbLine
 10
27.39221262389492
 20
9.424999764257613
 30
0.0
 11
27.39221262389492
 21
7.674999764257613
 31
0.0
  0
LINE
  5
315F
330
1A
100
AcDbEntity
  8
ZUWAKU
100
AcDbLine
 10
24.94221262389487
 20
9.949999764257611
 30
0.0
 11
26.86721262389482
 21
9.949999764257611
 31
0.0
  0
LINE
  5
3160
330
1A
100
AcDbEntity
  8
ZUWAKU
100
AcDbLine
 10
30.36721262389483
 20
7.149999764257614
 30
0.0
 11
32.11721262389483
 21
7.149999764257614
 31
0.0
  0
ARC
  5
3161
330
1A
100
AcDbEntity
  8
ZUWAKU
100
AcDbCircle
 10
33.16721262389489
 20
17.12499976425761
 30
0.0
 40
0.525
100
AcDbArc
 50
180.0
 51
270.0
  0
ARC
  5
3162
330
1A
100
AcDbEntity
  8
ZUWAKU
100
AcDbCircle
 10
33.30744678738358
 20
17.12499976425761
 30
0.0
 40
0.525
100
AcDbArc
 50
270.0
 51
342.4744316262769
  0
ARC
  5
3163
330
1A
100
AcDbEntity
  8
ZUWAKU
100
AcDbCircle
 10
49.61721262389483
 20
10.47499976425761
 30
0.0
 40
0.525
100
AcDbArc
 50
270.0
 51
0.0
  0
ARC
  5
3164
330
1A
100
AcDbEntity
  8
ZUWAKU
100
AcDbCircle
 10
48.74221262389482
 20
11.76520178961296
 30
0.0
 40
1.399999999999999
100
AcDbArc
 50
0.0
 51
45.0
  0
LINE
  5
3165
330
1A
100
AcDbEntity
  8
ZUWAKU
100
AcDbLine
 10
50.14221262389492
 20
10.47499976425761
 30
0.0
 11
50.14221262389492
 21
11.76520178961296
 31
0.0
  0
LINE
  5
3166
330
1A
100
AcDbEntity
  8
ZUWAKU
100
AcDbLine
 10
52.94221262389488
 20
9.949999764257611
 30
0.0
 11
52.94221262389488
 21
11.76520178961296
 31
0.0
  0
LINE
  5
3167
330
1A
100
AcDbEntity
  8
ZUWAKU
100
AcDbLine
 10
51.71206110487844
 20
14.73505027059643
 30
0.0
 11
48.80226313023365
 21
17.64484824524111
 31
0.0
  0
LINE
  5
3168
330
1A
100
AcDbEntity
  8
ZUWAKU
100
AcDbLine
 10
41.21721262389485
 20
7.149999764257614
 30
0.0
 11
42.96721262389485
 21
7.149999764257614
 31
0.0
  0
ARC
  5
3169
330
1A
100
AcDbEntity
  8
ZUWAKU
100
AcDbCircle
 10
37.87586784001518
 20
7.674999764257613
 30
0.0
 40
0.525
100
AcDbArc
 50
270.0
 51
17.52556837372303
  0
ARC
  5
316A
330
1A
100
AcDbEntity
  8
ZUWAKU
100
AcDbCircle
 10
41.21721262389485
 20
7.674999764257613
 30
0.0
 40
0.525
100
AcDbArc
 50
180.0
 51
270.0
  0
ARC
  5
316B
330
1A
100
AcDbEntity
  8
ZUWAKU
100
AcDbCircle
 10
46.64221262389491
 20
9.424999764257613
 30
0.0
 40
0.525
100
AcDbArc
 50
90.0
 51
180.0
  0
ARC
  5
316C
330
1A
100
AcDbEntity
  8
ZUWAKU
100
AcDbCircle
 10
42.96721262389485
 20
7.674999764257613
 30
0.0
 40
0.525
100
AcDbArc
 50
270.0
 51
0.0
  0
ARC
  5
316D
330
1A
100
AcDbEntity
  8
ZUWAKU
100
AcDbCircle
 10
46.64221262389491
 20
7.674999764257613
 30
0.0
 40
0.525
100
AcDbArc
 50
180.0
 51
270.0
  0
LINE
  5
316E
330
1A
100
AcDbEntity
  8
ZUWAKU
100
AcDbLine
 10
46.11721262389482
 20
7.674999764257613
 30
0.0
 11
46.11721262389482
 21
9.424999764257613
 31
0.0
  0
LINE
  5
316F
330
1A
100
AcDbEntity
  8
ZUWAKU
100
AcDbLine
 10
46.82236414291139
 20
15.66494925791879
 30
0.0
 11
49.73216211755607
 21
12.75515128327413
 31
0.0
  0
LINE
  5
3170
330
1A
100
AcDbEntity
  8
ZUWAKU
100
AcDbLine
 10
46.64221262389491
 20
7.149999764257614
 30
0.0
 11
50.14221262389492
 21
7.149999764257614
 31
0.0
  0
LINE
  5
3171
330
1A
100
AcDbEntity
  8
ZUWAKU
100
AcDbLine
 10
46.64221262389491
 20
9.949999764257611
 30
0.0
 11
49.61721262389483
 21
9.949999764257611
 31
0.0
  0
ARC
  5
3172
330
1A
100
AcDbEntity
  8
ZUWAKU
100
AcDbCircle
 10
24.94221262389487
 20
19.04999976425757
 30
0.0
 40
4.199999999999999
100
AcDbArc
 50
90.0
 51
180.0
  0
LINE
  5
3173
330
1A
100
AcDbEntity
  8
ZUWAKU
100
AcDbLine
 10
18.11721262389482
 20
22.7249997642576
 30
0.0
 11
18.11721262389482
 21
20.97499976425761
 31
0.0
  0
ARC
  5
3174
330
1A
100
AcDbEntity
  8
ZUWAKU
100
AcDbCircle
 10
17.59221262389485
 20
20.97499976425761
 30
0.0
 40
0.525
100
AcDbArc
 50
270.0
 51
0.0
  0
ARC
  5
3175
330
1A
100
AcDbEntity
  8
ZUWAKU
100
AcDbCircle
 10
17.59221262389485
 20
22.7249997642576
 30
0.0
 40
0.525
100
AcDbArc
 50
0.0
 51
90.0
  0
ARC
  5
3176
330
1A
100
AcDbEntity
  8
ZUWAKU
100
AcDbCircle
 10
14.09221262389485
 20
20.44999976425761
 30
0.0
 40
2.799999999999999
100
AcDbArc
 50
90.0
 51
180.0
  0
LINE
  5
3177
330
1A
100
AcDbEntity
  8
ZUWAKU
100
AcDbLine
 10
11.29221262389489
 20
20.44999976425761
 30
0.0
 11
11.29221262389489
 21
18.63479773890227
 31
0.0
  0
LINE
  5
3178
330
1A
100
AcDbEntity
  8
ZUWAKU
100
AcDbLine
 10
14.09221262389485
 20
19.92499976425761
 30
0.0
 11
14.09221262389485
 21
18.63479773890227
 31
0.0
  0
ARC
  5
3179
330
1A
100
AcDbEntity
  8
ZUWAKU
100
AcDbCircle
 10
14.61721262389483
 20
19.92499976425761
 30
0.0
 40
0.525
100
AcDbArc
 50
90.0
 51
180.0
  0
LINE
  5
317A
330
1A
100
AcDbEntity
  8
ZUWAKU
100
AcDbLine
 10
17.59221262389485
 20
20.44999976425761
 30
0.0
 11
14.61721262389483
 21
20.44999976425761
 31
0.0
  0
LINE
  5
317B
330
1A
100
AcDbEntity
  8
ZUWAKU
100
AcDbLine
 10
14.09221262389485
 20
23.24999976425761
 30
0.0
 11
17.59221262389485
 21
23.24999976425761
 31
0.0
  0
LINE
  5
317C
330
1A
100
AcDbEntity
  8
ZUWAKU
100
AcDbLine
 10
36.17697846040619
 20
23.24999976425761
 30
0.0
 11
37.87586784001518
 21
23.24999976425761
 31
0.0
  0
ARC
  5
317D
330
1A
100
AcDbEntity
  8
ZUWAKU
100
AcDbCircle
 10
36.17697846040619
 20
22.7249997642576
 30
0.0
 40
0.525
100
AcDbArc
 50
90.0
 51
162.4744316262769
  0
ARC
  5
317E
330
1A
100
AcDbEntity
  8
ZUWAKU
100
AcDbCircle
 10
32.11721262389483
 20
22.7249997642576
 30
0.0
 40
0.525
100
AcDbArc
 50
0.0
 51
90.0
  0
ARC
  5
317F
330
1A
100
AcDbEntity
  8
ZUWAKU
100
AcDbCircle
 10
24.94221262389487
 20
19.04999976425761
 30
0.0
 40
1.399999999999999
100
AcDbArc
 50
90.0
 51
180.0
  0
LINE
  5
3180
330
1A
100
AcDbEntity
  8
ZUWAKU
100
AcDbLine
 10
27.39221262389492
 20
22.7249997642576
 30
0.0
 11
27.39221262389492
 21
20.97499976425761
 31
0.0
  0
ARC
  5
3181
330
1A
100
AcDbEntity
  8
ZUWAKU
100
AcDbCircle
 10
26.86721262389482
 20
20.97499976425761
 30
0.0
 40
0.525
100
AcDbArc
 50
270.0
 51
0.0
  0
LINE
  5
3182
330
1A
100
AcDbEntity
  8
ZUWAKU
100
AcDbLine
 10
26.86721262389482
 20
20.44999976425761
 30
0.0
 11
24.94221262389487
 21
20.44999976425761
 31
0.0
  0
ARC
  5
3183
330
1A
100
AcDbEntity
  8
ZUWAKU
100
AcDbCircle
 10
30.36721262389483
 20
22.7249997642576
 30
0.0
 40
0.525
100
AcDbArc
 50
90.0
 51
180.0
  0
ARC
  5
3184
330
1A
100
AcDbEntity
  8
ZUWAKU
100
AcDbCircle
 10
26.86721262389482
 20
22.7249997642576
 30
0.0
 40
0.525
100
AcDbArc
 50
0.0
 51
90.0
  0
LINE
  5
3185
330
1A
100
AcDbEntity
  8
ZUWAKU
100
AcDbLine
 10
24.94221262389487
 20
23.24999976425757
 30
0.0
 11
26.86721262389482
 21
23.24999976425761
 31
0.0
  0
LINE
  5
3186
330
1A
100
AcDbEntity
  8
ZUWAKU
100
AcDbLine
 10
32.11721262389483
 20
23.24999976425761
 30
0.0
 11
30.36721262389483
 21
23.24999976425761
 31
0.0
  0
LINE
  5
3187
330
1A
100
AcDbEntity
  8
ZUWAKU
100
AcDbLine
 10
52.41721262389489
 20
22.7249997642576
 30
0.0
 11
52.41721262389489
 21
20.97499976425761
 31
0.0
  0
LINE
  5
3188
330
1A
100
AcDbEntity
  8
ZUWAKU
100
AcDbLine
 10
51.89221262389492
 20
20.44999976425761
 30
0.0
 11
48.9172126238949
 21
20.44999976425761
 31
0.0
  0
ARC
  5
3189
330
1A
100
AcDbEntity
  8
ZUWAKU
100
AcDbCircle
 10
51.89221262389492
 20
20.97499976425761
 30
0.0
 40
0.525
100
AcDbArc
 50
270.0
 51
0.0
  0
ARC
  5
318A
330
1A
100
AcDbEntity
  8
ZUWAKU
100
AcDbCircle
 10
51.89221262389492
 20
22.7249997642576
 30
0.0
 40
0.525
100
AcDbArc
 50
0.0
 51
90.0
  0
ARC
  5
318B
330
1A
100
AcDbEntity
  8
ZUWAKU
100
AcDbCircle
 10
48.39221262389492
 20
20.44999976425761
 30
0.0
 40
2.799999999999999
100
AcDbArc
 50
90.0
 51
180.0
  0
LINE
  5
318C
330
1A
100
AcDbEntity
  8
ZUWAKU
100
AcDbLine
 10
38.37649873921066
 20
22.56690579609064
 30
0.0
 11
37.31485910607284
 21
19.20504695782104
 31
0.0
  0
LINE
  5
318D
330
1A
100
AcDbEntity
  8
ZUWAKU
100
AcDbLine
 10
45.59221262389485
 20
20.44999976425761
 30
0.0
 11
45.59221262389485
 21
18.63479773890227
 31
0.0
  0
LINE
  5
318E
330
1A
100
AcDbEntity
  8
ZUWAKU
100
AcDbLine
 10
42.96721262389485
 20
23.24999976425761
 30
0.0
 11
41.21721262389485
 21
23.24999976425761
 31
0.0
  0
ARC
  5
318F
330
1A
100
AcDbEntity
  8
ZUWAKU
100
AcDbCircle
 10
37.87586784001518
 20
22.7249997642576
 30
0.0
 40
0.525
100
AcDbArc
 50
342.4744316262769
 51
90.0
  0
ARC
  5
3190
330
1A
100
AcDbEntity
  8
ZUWAKU
100
AcDbCircle
 10
41.21721262389485
 20
22.7249997642576
 30
0.0
 40
0.525
100
AcDbArc
 50
90.0
 51
180.0
  0
ARC
  5
3191
330
1A
100
AcDbEntity
  8
ZUWAKU
100
AcDbCircle
 10
42.96721262389485
 20
22.7249997642576
 30
0.0
 40
0.525
100
AcDbArc
 50
0.0
 51
90.0
  0
LINE
  5
3192
330
1A
100
AcDbEntity
  8
ZUWAKU
100
AcDbLine
 10
48.39221262389492
 20
19.92499976425761
 30
0.0
 11
48.39221262389492
 21
18.63479773890227
 31
0.0
  0
ARC
  5
3193
330
1A
100
AcDbEntity
  8
ZUWAKU
100
AcDbCircle
 10
48.9172126238949
 20
19.92499976425761
 30
0.0
 40
0.525
100
AcDbArc
 50
90.0
 51
180.0
  0
LINE
  5
3194
330
1A
100
AcDbEntity
  8
ZUWAKU
100
AcDbLine
 10
48.39221262389492
 20
23.24999976425761
 30
0.0
 11
51.89221262389492
 21
23.24999976425761
 31
0.0
  0
TEXT
  5
3195
330
1A
100
AcDbEntity
  8
MOJI
100
AcDbText
 10
239.8272031499648
 20
18.00492082166499
 30
0.0
 40
5.599999999999999
  1
ジョイント
 41
0.9
  7
ｽﾀｲﾙ1
100
AcDbText
  0
TEXT
  5
3196
330
1A
100
AcDbEntity
  8
MOJI
100
AcDbText
 10
92.95779005728286
 20
12.74117789453237
 30
0.0
 40
6.0
  1
アートフェイスＶＭ１６０
 41
0.9
  7
ｽﾀｲﾙ1
100
AcDbText
  0
LINE
  5
3197
330
1A
100
AcDbEntity
  8
ZUWAKU
100
AcDbLine
 10
57.84221262389485
 20
10.9999997642576
 30
0.0
 11
57.84221262389485
 21
22.7249997642576
 31
0.0
  0
LINE
  5
3198
330
1A
100
AcDbEntity
  8
ZUWAKU
100
AcDbLine
 10
55.04221262389489
 20
22.7249997642576
 30
0.0
 11
55.04221262389489
 21
9.949999764257611
 31
0.0
  0
LINE
  5
3199
330
1A
100
AcDbEntity
  8
ZUWAKU
100
AcDbLine
 10
66.24221262389482
 20
22.7249997642576
 30
0.0
 11
66.24221262389482
 21
7.674999764257613
 31
0.0
  0
LINE
  5
319A
330
1A
100
AcDbEntity
  8
ZUWAKU
100
AcDbLine
 10
69.0422126238949
 20
7.674999764257613
 30
0.0
 11
69.0422126238949
 21
22.7249997642576
 31
0.0
  0
LINE
  5
319B
330
1A
100
AcDbEntity
  8
ZUWAKU
100
AcDbLine
 10
61.34221262389485
 20
22.7249997642576
 30
0.0
 11
61.34221262389485
 21
10.9999997642576
 31
0.0
  0
LINE
  5
319C
330
1A
100
AcDbEntity
  8
ZUWAKU
100
AcDbLine
 10
64.14221262389492
 20
9.949999764257611
 30
0.0
 11
64.14221262389492
 21
22.7249997642576
 31
0.0
  0
LINE
  5
319D
330
1A
100
AcDbEntity
  8
ZUWAKU
100
AcDbLine
 10
79.12663001710211
 20
29.9999997642576
 30
0.0
 11
79.12663001710211
 21
0.7999997642576773
 31
0.0
  0
LINE
  5
319E
330
1A
100
AcDbEntity
  8
ZUWAKU
100
AcDbLine
 10
79.52663001710198
 20
29.9999997642576
 30
0.0
 11
79.5266300171022
 21
0.7999997642576773
 31
0.0
  0
LINE
  5
319F
330
1A
100
AcDbEntity
  8
ZUWAKU
100
AcDbLine
 10
79.32663001710193
 20
29.9999997642576
 30
0.0
 11
79.32663001710216
 21
0.7999997642576773
 31
0.0
  0
LINE
  5
31A0
330
1A
100
AcDbEntity
  8
ZUWAKU
100
AcDbLine
 10
208.4466017591814
 20
29.9999997642576
 30
0.0
 11
208.4466017591817
 21
0.7999997642576773
 31
0.0
  0
LINE
  5
31A1
330
1A
100
AcDbEntity
  8
ZUWAKU
100
AcDbLine
 10
208.6466017591815
 20
29.9999997642576
 30
0.0
 11
208.6466017591817
 21
0.7999997642576773
 31
0.0
  0
LINE
  5
31A2
330
1A
100
AcDbEntity
  8
ZUWAKU
100
AcDbLine
 10
208.2466017591816
 20
29.9999997642576
 30
0.0
 11
208.2466017591816
 21
0.7999997642576773
 31
0.0
  0
ARC
  5
31A3
330
1A
100
AcDbEntity
  8
ZUWAKU
100
AcDbCircle
 10
57.84221262389485
 20
9.949999764257611
 30
0.0
 40
2.799999999999999
100
AcDbArc
 50
180.0
 51
270.0
  0
ARC
  5
31A4
330
1A
100
AcDbEntity
  8
ZUWAKU
100
AcDbCircle
 10
61.34221262389485
 20
9.949999764257611
 30
0.0
 40
2.799999999999999
100
AcDbArc
 50
270.0
 51
0.0
  0
LINE
  5
31A5
330
1A
100
AcDbEntity
  8
ZUWAKU
100
AcDbLine
 10
66.76721262389492
 20
7.149999764257614
 30
0.0
 11
68.51721262389492
 21
7.149999764257614
 31
0.0
  0
ARC
  5
31A6
330
1A
100
AcDbEntity
  8
ZUWAKU
100
AcDbCircle
 10
66.76721262389492
 20
7.674999764257613
 30
0.0
 40
0.525
100
AcDbArc
 50
180.0
 51
270.0
  0
ARC
  5
31A7
330
1A
100
AcDbEntity
  8
ZUWAKU
100
AcDbCircle
 10
68.51721262389492
 20
7.674999764257613
 30
0.0
 40
0.525
100
AcDbArc
 50
270.0
 51
0.0
  0
ARC
  5
31A8
330
1A
100
AcDbEntity
  8
ZUWAKU
100
AcDbCircle
 10
58.89221262389492
 20
10.9999997642576
 30
0.0
 40
1.049999999999999
100
AcDbArc
 50
180.0
 51
270.0
  0
LINE
  5
31A9
330
1A
100
AcDbEntity
  8
ZUWAKU
100
AcDbLine
 10
57.84221262389485
 20
7.149999764257614
 30
0.0
 11
61.34221262389485
 21
7.149999764257614
 31
0.0
  0
ARC
  5
31AA
330
1A
100
AcDbEntity
  8
ZUWAKU
100
AcDbCircle
 10
60.2922126238949
 20
10.9999997642576
 30
0.0
 40
1.049999999999999
100
AcDbArc
 50
270.0
 51
0.0
  0
LINE
  5
31AB
330
1A
100
AcDbEntity
  8
ZUWAKU
100
AcDbLine
 10
60.2922126238949
 20
9.949999764257611
 30
0.0
 11
58.89221262389492
 21
9.949999764257611
 31
0.0
  0
TEXT
  5
31AC
330
1A
100
AcDbEntity
  8
ZUWAKU
100
AcDbText
 10
209.7240467813912
 20
9.655356302643227
 30
0.0
 40
4.0
  1
サイズ
 41
0.9
  7
ｽﾀｲﾙ1
100
AcDbText
  0
LINE
  5
31AD
330
1A
100
AcDbEntity
  8
ZUWAKU
100
AcDbLine
 10
68.51721262389492
 20
23.24999976425761
 30
0.0
 11
66.76721262389492
 21
23.24999976425761
 31
0.0
  0
ARC
  5
31AE
330
1A
100
AcDbEntity
  8
ZUWAKU
100
AcDbCircle
 10
66.76721262389492
 20
22.7249997642576
 30
0.0
 40
0.525
100
AcDbArc
 50
90.0
 51
180.0
  0
ARC
  5
31AF
330
1A
100
AcDbEntity
  8
ZUWAKU
100
AcDbCircle
 10
68.51721262389492
 20
22.7249997642576
 30
0.0
 40
0.525
100
AcDbArc
 50
0.0
 51
90.0
  0
LINE
  5
31B0
330
1A
100
AcDbEntity
  8
ZUWAKU
100
AcDbLine
 10
57.31721262389488
 20
23.24999976425761
 30
0.0
 11
55.56721262389487
 21
23.24999976425761
 31
0.0
  0
ARC
  5
31B1
330
1A
100
AcDbEntity
  8
ZUWAKU
100
AcDbCircle
 10
55.56721262389487
 20
22.7249997642576
 30
0.0
 40
0.525
100
AcDbArc
 50
90.0
 51
180.0
  0
ARC
  5
31B2
330
1A
100
AcDbEntity
  8
ZUWAKU
100
AcDbCircle
 10
57.31721262389488
 20
22.7249997642576
 30
0.0
 40
0.525
100
AcDbArc
 50
0.0
 51
90.0
  0
ARC
  5
31B3
330
1A
100
AcDbEntity
  8
ZUWAKU
100
AcDbCircle
 10
61.86721262389482
 20
22.7249997642576
 30
0.0
 40
0.525
100
AcDbArc
 50
90.0
 51
180.0
  0
LINE
  5
31B4
330
1A
100
AcDbEntity
  8
ZUWAKU
100
AcDbLine
 10
63.61721262389483
 20
23.24999976425761
 30
0.0
 11
61.86721262389482
 21
23.24999976425761
 31
0.0
  0
ARC
  5
31B5
330
1A
100
AcDbEntity
  8
ZUWAKU
100
AcDbCircle
 10
63.61721262389483
 20
22.7249997642576
 30
0.0
 40
0.525
100
AcDbArc
 50
0.0
 51
90.0
  0
TEXT
  5
31B6
330
1A
100
AcDbEntity
  8
ZUWAKU
100
AcDbText
 10
209.724046781391
 20
24.05535630264319
 30
0.0
 40
4.0
  1
品名
 41
0.9
  7
ｽﾀｲﾙ1
100
AcDbText
  0
TEXT
  5
31B7
330
1A
100
AcDbEntity
  8
MOJI
100
AcDbText
 10
528.0409084414266
 20
18.00492082166499
 30
0.0
 40
5.599999999999999
  1
Ａ３
 41
0.9
  7
ｽﾀｲﾙ1
100
AcDbText
  0
LINE
  5
31B8
330
1A
100
AcDbEntity
  8
ZUWAKU
100
AcDbLine
 10
504.9991799672546
 20
29.9999997642576
 30
0.0
 11
504.9991799672548
 21
0.7999997642576773
 31
0.0
  0
LINE
  5
31B9
330
1A
100
AcDbEntity
  8
ZUWAKU
100
AcDbLine
 10
505.1991799672546
 20
29.9999997642576
 30
0.0
 11
505.1991799672548
 21
0.7999997642576773
 31
0.0
  0
LINE
  5
31BA
330
1A
100
AcDbEntity
  8
ZUWAKU
100
AcDbLine
 10
504.7991799672547
 20
29.9999997642576
 30
0.0
 11
504.7991799672547
 21
0.7999997642576773
 31
0.0
  0
LINE
  5
31BB
330
1A
100
AcDbEntity
  8
ZUWAKU
100
AcDbLine
 10
552.5269562352262
 20
29.9999997642576
 30
0.0
 11
552.5269562352262
 21
0.7999997642576773
 31
0.0
  0
LINE
  5
31BC
330
1A
100
AcDbEntity
  8
ZUWAKU
100
AcDbLine
 10
552.926956235226
 20
29.9999997642576
 30
0.0
 11
552.9269562352262
 21
0.7999997642576773
 31
0.0
  0
LINE
  5
31BD
330
1A
100
AcDbEntity
  8
ZUWAKU
100
AcDbLine
 10
552.726956235226
 20
29.9999997642576
 30
0.0
 11
552.7269562352262
 21
0.7999997642576773
 31
0.0
  0
LINE
  5
31BE
330
1A
100
AcDbEntity
  8
ZUWAKU
100
AcDbLine
 10
447.624364440105
 20
29.9999997642576
 30
0.0
 11
447.6243644401051
 21
0.7999997642576773
 31
0.0
  0
LINE
  5
31BF
330
1A
100
AcDbEntity
  8
ZUWAKU
100
AcDbLine
 10
447.8243644401049
 20
29.9999997642576
 30
0.0
 11
447.8243644401052
 21
0.7999997642576773
 31
0.0
  0
LINE
  5
31C0
330
1A
100
AcDbEntity
  8
ZUWAKU
100
AcDbLine
 10
447.4243644401051
 20
29.9999997642576
 30
0.0
 11
447.4243644401051
 21
0.7999997642576773
 31
0.0
  0
TEXT
  5
31C1
330
1A
100
AcDbEntity
  8
MOJI
100
AcDbText
 10
463.2464324601158
 20
11.94261748591759
 30
0.0
 40
5.599999999999999
  1
ＰＧ２７□
 41
0.9
  7
ｽﾀｲﾙ1
100
AcDbText
  0
LINE
  5
31C2
330
1A
100
AcDbEntity
  8
ZUWAKU
100
AcDbLine
 10
505.1991799672546
 20
15.19999976425764
 30
0.0
 11
552.5269562352262
 21
15.19999976425764
 31
0.0
  0
LINE
  5
31C3
330
1A
100
AcDbEntity
  8
ZUWAKU
100
AcDbLine
 10
505.1991799672546
 20
15.39999976425764
 30
0.0
 11
552.5269562352262
 21
15.39999976425764
 31
0.0
  0
LINE
  5
31C4
330
1A
100
AcDbEntity
  8
ZUWAKU
100
AcDbLine
 10
505.1991799672546
 20
15.59999976425764
 30
0.0
 11
552.5269562352262
 21
15.59999976425764
 31
0.0
  0
TEXT
  5
31C5
330
1A
100
AcDbEntity
  8
ZUWAKU
100
AcDbText
 10
506.6766249894644
 20
9.655356302643227
 30
0.0
 40
4.0
  1
縮尺
 41
0.9
  7
ｽﾀｲﾙ1
100
AcDbText
  0
TEXT
  5
31C6
330
1A
100
AcDbEntity
  8
ZUWAKU
100
AcDbText
 10
460.7178436121728
 20
2.614070675397101
 30
0.0
 40
3.0
  1
□には色品番が入ります
 41
0.9
  7
ｽﾀｲﾙ1
100
AcDbText
  0
TEXT
  5
31C7
330
1A
100
AcDbEntity
  8
MOJI
100
AcDbText
 10
528.0409084414266
 20
3.20492082166503
 30
0.0
 40
5.599999999999999
  1
１/２
 41
0.9
  7
ｽﾀｲﾙ1
100
AcDbText
  0
TEXT
  5
31C8
330
1A
100
AcDbEntity
  8
ZUWAKU
100
AcDbText
 10
449.3018094623145
 20
24.05535630264319
 30
0.0
 40
4.0
  1
品番
 41
0.9
  7
ｽﾀｲﾙ1
100
AcDbText
  0
TEXT
  5
31C9
330
1A
100
AcDbEntity
  8
ZUWAKU
100
AcDbText
 10
506.6766249894642
 20
24.05535630264319
 30
0.0
 40
4.0
  1
用紙
 41
0.9
  7
ｽﾀｲﾙ1
100
AcDbText
  0
TEXT
  5
31CA
330
1A
100
AcDbEntity
  8
ZUWAKU
100
AcDbText
 10
708.5280846613575
 20
17.55383909994441
 30
0.0
 40
6.0
  1
積水化学工業株式会社
 41
0.9
  7
ｽﾀｲﾙ1
100
AcDbText
  0
TEXT
  5
31CB
330
1A
100
AcDbEntity
  8
ZUWAKU
100
AcDbText
 10
658.2039381564161
 20
18.00492082166499
 30
0.0
 40
5.599999999999999
  1
　　．　　．　　
 41
0.9
  7
ｽﾀｲﾙ1
100
AcDbText
  0
LINE
  5
31CC
330
1A
100
AcDbEntity
  8
ZUWAKU
100
AcDbLine
 10
697.8490110176549
 20
29.9999997642576
 30
0.0
 11
697.8490110176551
 21
0.7999997642576773
 31
0.0
  0
LINE
  5
31CD
330
1A
100
AcDbEntity
  8
ZUWAKU
100
AcDbLine
 10
697.6490110176548
 20
29.9999997642576
 30
0.0
 11
697.649011017655
 21
0.7999997642576773
 31
0.0
  0
LINE
  5
31CE
330
1A
100
AcDbEntity
  8
ZUWAKU
100
AcDbLine
 10
697.449011017655
 20
29.9999997642576
 30
0.0
 11
697.449011017655
 21
0.7999997642576773
 31
0.0
  0
LINE
  5
31CF
330
1A
100
AcDbEntity
  8
ZUWAKU
100
AcDbLine
 10
697.249011017655
 20
29.9999997642576
 30
0.0
 11
697.249011017655
 21
0.7999997642576773
 31
0.0
  0
LINE
  5
31D0
330
1A
100
AcDbEntity
  8
ZUWAKU
100
AcDbLine
 10
648.4172029793183
 20
29.9999997642576
 30
0.0
 11
648.4172029793183
 21
0.7999997642576773
 31
0.0
  0
LINE
  5
31D1
330
1A
100
AcDbEntity
  8
ZUWAKU
100
AcDbLine
 10
648.8172029793181
 20
29.9999997642576
 30
0.0
 11
648.8172029793183
 21
0.7999997642576773
 31
0.0
  0
LINE
  5
31D2
330
1A
100
AcDbEntity
  8
ZUWAKU
100
AcDbLine
 10
648.6172029793181
 20
29.9999997642576
 30
0.0
 11
648.6172029793183
 21
0.7999997642576773
 31
0.0
  0
TEXT
  5
31D3
330
1A
100
AcDbEntity
  8
ZUWAKU
100
AcDbText
 10
708.5280846613575
 20
6.648840078111675
 30
0.0
 40
6.0
  1
建材事業部
 41
0.9
  7
ｽﾀｲﾙ1
100
AcDbText
  0
LINE
  5
31D4
330
1A
100
AcDbEntity
  8
ZUWAKU
100
AcDbLine
 10
648.8172029793179
 20
15.19999976425764
 30
0.0
 11
697.249011017655
 21
15.19999976425764
 31
0.0
  0
LINE
  5
31D5
330
1A
100
AcDbEntity
  8
ZUWAKU
100
AcDbLine
 10
648.8172029793181
 20
15.39999976425764
 30
0.0
 11
697.249011017655
 21
15.39999976425764
 31
0.0
  0
LINE
  5
31D6
330
1A
100
AcDbEntity
  8
ZUWAKU
100
AcDbLine
 10
648.8172029793179
 20
15.59999976425764
 30
0.0
 11
697.249011017655
 21
15.59999976425764
 31
0.0
  0
TEXT
  5
31D7
330
1A
100
AcDbEntity
  8
ZUWAKU
100
AcDbText
 10
650.2946480015277
 20
24.05535630264319
 30
0.0
 40
4.0
  1
DATE
 41
0.9
  7
ｽﾀｲﾙ1
100
AcDbText
  0
DIMENSION
  5
3370
330
1A
100
AcDbEntity
  8
SUNPOU
100
AcDbDimension
  2
*D1
 10
461.7364157053907
 20
119.4235717672652
 30
0.0
 11
416.4827184787704
 21
124.4235717672652
 31
0.0
 70
    32
  3
STANDARD
100
AcDbAlignedDimension
 13
371.22902125215
 23
149.1340391286529
 33
0.0
 14
461.7364157053907
 24
149.1427609771035
 34
0.0
100
AcDbRotatedDimension
1001
ACAD
1000
DSTYLE
1002
{
1070
    41
1040
7.0
1070
    42
1040
6.0
1070
    43
1040
14.0
1070
    44
1040
3.0
1070
    73
1070
     0
1070
    74
1070
     0
1070
    77
1070
     3
1070
   140
1040
6.0
1070
   141
1040
30.0
1070
   147
1040
2.0
1070
   172
1070
     1
1070
   176
1070
   256
1070
   177
1070
   256
1070
   178
1070
   256
1070
   271
1070
     0
1070
   272
1070
     0
1070
   341
1005
6D
1070
     5
1000
OPEN
1070
   371
1070
    -1
1070
   372
1070
    -1
1002
}
  0
DIMENSION
  5
3371
330
1A
100
AcDbEntity
  8
SUNPOU
100
AcDbDimension
  2
*D2
 10
312.0819394390857
 20
314.292671896263
 30
0.0
 11
391.9937033926357
 21
319.292671896263
 31
0.0
 70
    32
  3
STANDARD
100
AcDbAlignedDimension
 13
471.9054673461857
 23
229.8164794706945
 33
0.0
 14
312.0819394390857
 24
287.6017574167945
 34
0.0
100
AcDbRotatedDimension
1001
ACAD
1000
DSTYLE
1002
{
1070
    41
1040
7.0
1070
    42
1040
6.0
1070
    43
1040
14.0
1070
    44
1040
3.0
1070
    73
1070
     0
1070
    74
1070
     0
1070
    77
1070
     3
1070
   140
1040
6.0
1070
   141
1040
30.0
1070
   147
1040
2.0
1070
   172
1070
     1
1070
   176
1070
   256
1070
   177
1070
   256
1070
   178
1070
   256
1070
   271
1070
     0
1070
   272
1070
     0
1070
   341
1005
6D
1070
     5
1000
OPEN
1070
   371
1070
    -1
1070
   372
1070
    -1
1002
}
  0
DIMENSION
  5
3372
330
1A
100
AcDbEntity
  8
SUNPOU
100
AcDbDimension
  2
*D3
 10
507.9357560758175
 20
148.1164794706945
 30
0.0
 11
502.9357560758175
 21
192.6220970236056
 31
0.0
 70
    32
  3
STANDARD
100
AcDbAlignedDimension
 13
466.0775442664844
 23
237.1277145765164
 33
0.0
 14
416.3862098996855
 24
148.1164794706945
 34
0.0
 50
90.0
100
AcDbRotatedDimension
1001
ACAD
1000
DSTYLE
1002
{
1070
    41
1040
7.0
1070
    42
1040
6.0
1070
    43
1040
14.0
1070
    44
1040
3.0
1070
    73
1070
     0
1070
    74
1070
     0
1070
    77
1070
     3
1070
   140
1040
6.0
1070
   141
1040
30.0
1070
   147
1040
2.0
1070
   172
1070
     1
1070
   176
1070
   256
1070
   177
1070
   256
1070
   178
1070
   256
1070
   271
1070
     0
1070
   272
1070
     0
1070
   341
1005
6D
1070
     5
1000
OPEN
1070
   371
1070
    -1
1070
   372
1070
    -1
1002
}
  0
LINE
  5
3373
330
1A
100
AcDbEntity
  8
SEIHIN
  6
CONTINUOUS
100
AcDbLine
 10
470.9054673461857
 20
437.6835240080457
 30
0.0
 11
374.5776655857858
 21
437.6835240080457
 31
0.0
  0
ARC
  5
3374
330
1A
100
AcDbEntity
  8
NOKITOI
 48
0.5
100
AcDbCircle
 10
421.0906119958169
 20
1150.605413709927
 30
0.0
 40
999.9999999999994
100
AcDbArc
 50
267.3333119235699
 51
271.9779273652207
  0
ARC
  5
3375
330
1A
100
AcDbEntity
  8
NOKITOI
 48
0.5
100
AcDbCircle
 10
421.0906119958169
 20
1150.605413709927
 30
0.0
 40
998.3999999999994
100
AcDbArc
 50
267.3988777093053
 51
271.9779273652207
  0
LINE
  5
3376
330
1A
100
AcDbEntity
  8
SEIHIN
  6
CONTINUOUS
100
AcDbLine
 10
470.9054673461857
 20
347.6835240080457
 30
0.0
 11
374.5776655857858
 21
347.6835240080457
 31
0.0
  0
ARC
  5
3377
330
1A
100
AcDbEntity
  8
SEIHIN
  6
CONTINUOUS
100
AcDbCircle
 10
416.3862098996857
 20
1150.616479470694
 30
0.0
 40
1000.0
100
AcDbArc
 50
267.6038484565977
 51
272.2486160746025
  0
ARC
  5
3378
330
1A
100
AcDbEntity
  8
SEIHIN
  6
CONTINUOUS
100
AcDbCircle
 10
416.3862098996857
 20
1150.616479470694
 30
0.0
 40
1002.5
100
AcDbArc
 50
267.5005637322281
 51
272.248616074596
  0
LINE
  5
3379
330
1A
100
AcDbEntity
  8
CENTER_L
  6
CENTER
 48
5.0
100
AcDbLine
 10
301.1240885397819
 20
392.6835240080457
 30
0.0
 11
480.289414183991
 21
392.6835240080457
 31
0.0
  0
DIMENSION
  5
337A
330
1A
100
AcDbEntity
  8
SUNPOU
100
AcDbDimension
  2
*D4
 10
270.4087635869186
 20
148.1164794706945
 30
0.0
 11
265.4087635869186
 21
218.8591184437445
 31
0.0
 70
    32
  3
STANDARD
100
AcDbAlignedDimension
 13
314.0819394390857
 23
289.6017574167945
 33
0.0
 14
416.3862098996855
 24
148.1164794706945
 34
0.0
 50
90.0
100
AcDbRotatedDimension
1001
ACAD
1000
DSTYLE
1002
{
1070
    41
1040
7.0
1070
    42
1040
6.0
1070
    43
1040
14.0
1070
    44
1040
3.0
1070
    73
1070
     0
1070
    74
1070
     0
1070
    77
1070
     3
1070
   140
1040
6.0
1070
   141
1040
30.0
1070
   147
1040
2.0
1070
   172
1070
     1
1070
   176
1070
   256
1070
   177
1070
   256
1070
   178
1070
   256
1070
   271
1070
     0
1070
   272
1070
     0
1070
   341
1005
6D
1070
     5
1000
OPEN
1070
   371
1070
    -1
1070
   372
1070
    -1
1002
}
  0
DIMENSION
  5
337B
330
1A
100
AcDbEntity
  8
SUNPOU
100
AcDbDimension
  2
*D5
 10
287.9533689747709
 20
263.6164775037944
 30
0.0
 11
282.9533689747708
 21
276.6091174602945
 31
0.0
 70
    32
  3
STANDARD
100
AcDbAlignedDimension
 13
314.0819394390857
 23
289.6017574167945
 33
0.0
 14
313.3362089340857
 24
263.6164775037944
 34
0.0
 50
90.0
100
AcDbRotatedDimension
1001
ACAD
1000
DSTYLE
1002
{
1070
    41
1040
7.0
1070
    42
1040
6.0
1070
    43
1040
14.0
1070
    44
1040
3.0
1070
    73
1070
     0
1070
    74
1070
     0
1070
    77
1070
     3
1070
   140
1040
6.0
1070
   141
1040
30.0
1070
   147
1040
2.0
1070
   172
1070
     1
1070
   176
1070
   256
1070
   177
1070
   256
1070
   178
1070
   256
1070
   271
1070
     0
1070
   272
1070
     0
1070
   341
1005
6D
1070
     5
1000
OPEN
1070
   371
1070
    -1
1070
   372
1070
    -1
1002
}
  0
LINE
  5
337C
330
1A
100
AcDbEntity
  8
NOKITOI
 48
0.5
100
AcDbLine
 10
323.0406112058182
 20
279.9948269010024
 30
0.0
 11
323.0406102173535
 21
274.7760067943354
 31
0.0
  0
LINE
  5
337D
330
1A
100
AcDbEntity
  8
NOKITOI
 48
0.5
100
AcDbLine
 10
323.1406115108699
 20
281.6054088144928
 30
0.0
 11
340.5229029151982
 21
278.2204361530087
 31
0.0
  0
LINE
  5
337E
330
1A
100
AcDbEntity
  8
NOKITOI
 48
0.5
100
AcDbLine
 10
323.0406112058182
 20
279.9948269010024
 30
0.0
 11
338.2816135707159
 21
277.0268421204716
 31
0.0
  0
LINE
  5
337F
330
1A
100
AcDbEntity
  8
NOKITOI
 48
0.5
100
AcDbLine
 10
316.1406122067898
 20
285.2796790717453
 30
0.0
 11
316.1406086698181
 21
266.6054103720291
 31
0.0
  0
LINE
  5
3380
330
1A
100
AcDbEntity
  8
NOKITOI
 48
0.5
100
AcDbLine
 10
317.7406119808017
 20
284.0865220002285
 30
0.0
 11
317.7406090296855
 21
268.5054135998532
 31
0.0
  0
LINE
  5
3381
330
1A
100
AcDbEntity
  8
NOKITOI
 48
0.5
100
AcDbLine
 10
321.5406118076318
 20
283.1722361723025
 30
0.0
 11
321.5406100103174
 21
273.6829145429012
 31
0.0
  0
LINE
  5
3382
330
1A
100
AcDbEntity
  8
SEIHIN
  6
CONTINUOUS
100
AcDbLine
 10
315.8362065498859
 20
266.1164825701945
 30
0.0
 11
315.8362098996858
 21
285.3148678242945
 31
0.0
  0
LINE
  5
3383
330
1A
100
AcDbEntity
  8
SEIHIN
  6
CONTINUOUS
100
AcDbLine
 10
313.3362089340857
 20
263.6164775037944
 30
0.0
 11
312.0846803695858
 21
287.4970855042945
 31
0.0
  0
LINE
  5
3384
330
1A
100
AcDbEntity
  8
SEIHIN
  6
CONTINUOUS
100
AcDbLine
 10
236.6279414713794
 20
288.6017574167945
 30
0.0
 11
236.6279414713794
 21
149.1164794706945
 31
0.0
  0
LINE
  5
3385
330
1A
100
AcDbEntity
  8
CENTER_L
  6
CENTER
 48
5.0
100
AcDbLine
 10
191.6279414713794
 20
138.4326662634878
 30
0.0
 11
191.6279414713794
 21
300.2010193033149
 31
0.0
  0
LINE
  5
3386
330
1A
100
AcDbEntity
  8
SEIHIN
  6
CONTINUOUS
100
AcDbLine
 10
146.6279414713792
 20
288.6017574167945
 30
0.0
 11
146.6279414713792
 21
149.1164794706945
 31
0.0
  0
LINE
  5
3387
330
1A
100
AcDbEntity
  8
SEIHIN
  6
CONTINUOUS
100
AcDbLine
 10
235.6279414713794
 20
158.1164794706945
 30
0.0
 11
147.6279414713792
 21
158.1164794706945
 31
0.0
  0
LINE
  5
3388
330
1A
100
AcDbEntity
  8
SEIHIN
  6
CONTINUOUS
100
AcDbLine
 10
147.6279414713792
 20
148.1164794706945
 30
0.0
 11
235.6279414713794
 21
148.1164794706945
 31
0.0
  0
LINE
  5
3389
330
1A
100
AcDbEntity
  8
SEIHIN
  6
CONTINUOUS
100
AcDbLine
 10
235.6279414713794
 20
149.0702071399945
 30
0.0
 11
147.6279414713792
 21
149.0702071399945
 31
0.0
  0
LINE
  5
338A
330
1A
100
AcDbEntity
  8
SEIHIN
  6
CONTINUOUS
100
AcDbLine
 10
235.6279414713794
 20
263.6164794706945
 30
0.0
 11
147.6279414713792
 21
263.6164794706945
 31
0.0
  0
ARC
  5
338B
330
1A
100
AcDbEntity
  8
SEIHIN
  6
CONTINUOUS
100
AcDbCircle
 10
147.6279414713792
 20
150.0702071399945
 30
0.0
 40
1.0
100
AcDbArc
 50
180.0
 51
270.0
  0
ARC
  5
338C
330
1A
100
AcDbEntity
  8
SEIHIN
  6
CONTINUOUS
100
AcDbCircle
 10
147.6279414713792
 20
159.1164794706945
 30
0.0
 40
1.0
100
AcDbArc
 50
180.0
 51
270.0
  0
ARC
  5
338D
330
1A
100
AcDbEntity
  8
SEIHIN
  6
CONTINUOUS
100
AcDbCircle
 10
147.6279414713792
 20
149.1164794706945
 30
0.0
 40
1.0
100
AcDbArc
 50
180.0
 51
270.0
  0
ARC
  5
338E
330
1A
100
AcDbEntity
  8
SEIHIN
  6
CONTINUOUS
100
AcDbCircle
 10
147.6279469998794
 20
264.6164848202945
 30
0.0
 40
1.000007316600013
100
AcDbArc
 50
180.0
 51
269.9996969068967
  0
ARC
  5
338F
330
1A
100
AcDbEntity
  8
SEIHIN
  6
CONTINUOUS
100
AcDbCircle
 10
235.6279414713794
 20
149.1164794706945
 30
0.0
 40
1.0
100
AcDbArc
 50
270.0
 51
0.0
  0
ARC
  5
3390
330
1A
100
AcDbEntity
  8
SEIHIN
  6
CONTINUOUS
100
AcDbCircle
 10
235.6279414713794
 20
150.0702071399945
 30
0.0
 40
1.0
100
AcDbArc
 50
270.0
 51
0.0
  0
ARC
  5
3391
330
1A
100
AcDbEntity
  8
SEIHIN
  6
CONTINUOUS
100
AcDbCircle
 10
235.6279414713794
 20
159.1164794706945
 30
0.0
 40
1.0
100
AcDbArc
 50
270.0
 51
0.0
  0
ARC
  5
3392
330
1A
100
AcDbEntity
  8
SEIHIN
  6
CONTINUOUS
100
AcDbCircle
 10
235.6279359428792
 20
264.6164848202945
 30
0.0
 40
1.000007316600013
100
AcDbArc
 50
270.0003030931032
 51
0.0
  0
ARC
  5
3393
330
1A
100
AcDbEntity
  8
NOKITOI
 48
0.5
100
AcDbCircle
 10
-13.72158827239155
 20
61.74575434972599
 30
0.0
 40
390.0000000000088
100
AcDbArc
 50
14.7970244987883
 51
31.68717393609757
  0
ARC
  5
3394
330
1A
100
AcDbEntity
  8
NOKITOI
 48
0.5
100
AcDbCircle
 10
-13.72158827238246
 20
61.74575434972871
 30
0.0
 40
391.6000000000002
100
AcDbArc
 50
15.08870500059782
 51
27.6312195127365
  0
ARC
  5
3395
330
1A
100
AcDbEntity
  8
SEIHIN
  6
CONTINUOUS
100
AcDbCircle
 10
-13.4966664717142
 20
60.8857914397945
 30
0.0
 40
387.5
100
AcDbArc
 50
14.64599053660295
 51
31.54553136399946
  0
ARC
  5
3396
330
1A
100
AcDbEntity
  8
SEIHIN
  6
CONTINUOUS
100
AcDbCircle
 10
-13.4966664717142
 20
60.8857914397945
 30
0.0
 40
390.0
100
AcDbArc
 50
14.92908040489594
 51
31.75125391330047
  0
LINE
  5
3397
330
1A
100
AcDbEntity
  8
CENTER_L
  6
CENTER
 48
5.0
100
AcDbLine
 10
416.3862098996855
 20
165.8356972610213
 30
0.0
 11
416.3862098996855
 21
138.3073854309366
 31
0.0
  0
ARC
  5
3398
330
1A
100
AcDbEntity
  8
NOKITOI
 48
0.5
100
AcDbCircle
 10
366.3086450036168
 20
164.2054137099285
 30
0.0
 40
1.999999999999926
100
AcDbArc
 50
195.088704999515
 51
270.0
  0
ARC
  5
3399
330
1A
100
AcDbEntity
  8
NOKITOI
 48
0.5
100
AcDbCircle
 10
374.6579779028026
 20
153.6861539445319
 30
0.0
 40
2.000000000000095
100
AcDbArc
 50
196.3724734765241
 51
267.3333119235504
  0
LINE
  5
339A
330
1A
100
AcDbEntity
  8
SEIHIN
  6
CONTINUOUS
100
AcDbLine
 10
370.8323722790814
 20
150.5168613349093
 30
0.0
 11
368.8602485925857
 21
157.3922010239945
 31
0.0
  0
ARC
  5
339B
330
1A
100
AcDbEntity
  8
SEIHIN
  6
CONTINUOUS
100
AcDbCircle
 10
374.6612826743858
 20
153.4890901928945
 30
0.0
 40
1.999999999999993
100
AcDbArc
 50
196.0050186309987
 51
267.6038484565977
  0
ARC
  5
339C
330
1A
100
AcDbEntity
  8
SEIHIN
  6
CONTINUOUS
100
AcDbCircle
 10
372.7548473764859
 20
151.0683044413944
 30
0.0
 40
1.999999999999993
100
AcDbArc
 50
196.0050186309987
 51
267.5005637322021
  0
LINE
  5
339D
330
1A
100
AcDbEntity
  8
NOKITOI
 48
0.5
100
AcDbLine
 10
370.9896933781517
 20
162.2054135827611
 30
0.0
 11
366.3086450036168
 21
162.2054137099285
 31
0.0
  0
LINE
  5
339E
330
1A
100
AcDbEntity
  8
NOKITOI
 48
0.5
100
AcDbLine
 10
364.3115431228231
 20
160.605413709929
 30
0.0
 11
369.7921417001099
 21
160.605413709929
 31
0.0
  0
LINE
  5
339F
330
1A
100
AcDbEntity
  8
SEIHIN
  6
CONTINUOUS
100
AcDbLine
 10
369.7827245122857
 20
160.6164794706945
 30
0.0
 11
364.3053034659858
 21
160.6164794706945
 31
0.0
  0
ARC
  5
33A0
330
1A
100
AcDbEntity
  8
SEIHIN
  6
CONTINUOUS
100
AcDbCircle
 10
367.8990110438858
 20
157.1164794706945
 30
0.0
 40
0.9999999999999969
100
AcDbArc
 50
16.0050186309987
 51
90.0
  0
ARC
  5
33A1
330
1A
100
AcDbEntity
  8
NOKITOI
 48
0.5
100
AcDbCircle
 10
364.3115431228231
 20
161.605413709929
 30
0.0
 40
0.9999999999999346
100
AcDbArc
 50
194.7970244987914
 51
270.0
  0
LINE
  5
33A2
330
1A
100
AcDbEntity
  8
SEIHIN
  6
CONTINUOUS
100
AcDbLine
 10
367.8990110438858
 20
158.1164794706945
 30
0.0
 11
362.3796189321858
 21
158.1164794706945
 31
0.0
  0
ARC
  5
33A3
330
1A
100
AcDbEntity
  8
SEIHIN
  6
CONTINUOUS
100
AcDbCircle
 10
362.3796189321858
 20
159.1164794706945
 30
0.0
 40
0.9999999999999898
100
AcDbArc
 50
194.6459905366029
 51
270.0
  0
ARC
  5
33A4
330
1A
100
AcDbEntity
  8
SEIHIN
  6
CONTINUOUS
100
AcDbCircle
 10
364.3053034659858
 20
161.6164794706945
 30
0.0
 40
1.000000000000005
100
AcDbArc
 50
194.9290804048959
 51
270.0
  0
ARC
  5
33A5
330
1A
100
AcDbEntity
  8
NOKITOI
 48
0.5
100
AcDbCircle
 10
375.8714335724168
 20
155.2320235177285
 30
0.0
 40
2.000000000000056
100
AcDbArc
 50
196.3724734766122
 51
267.3988776934213
  0
ARC
  5
33A6
330
1A
100
AcDbEntity
  8
NOKITOI
 48
0.5
100
AcDbCircle
 10
369.7921417001099
 20
159.605413709929
 30
0.0
 40
1.000000000000015
100
AcDbArc
 50
16.37247347651741
 51
90.0
  0
ARC
  5
33A7
330
1A
100
AcDbEntity
  8
NOKITOI
 48
0.5
100
AcDbCircle
 10
370.989693350985
 20
161.2054135827611
 30
0.0
 40
1.000000000000037
100
AcDbArc
 50
16.37248012523617
 51
89.99999844346808
  0
LINE
  5
33A8
330
1A
100
AcDbEntity
  8
NOKITOI
 48
0.5
100
AcDbLine
 10
370.7515912088076
 20
159.8872942524641
 30
0.0
 11
372.7390788854072
 21
153.1223928594616
 31
0.0
  0
LINE
  5
33A9
330
1A
100
AcDbEntity
  8
NOKITOI
 48
0.5
100
AcDbLine
 10
373.9525345550225
 20
154.6682624326549
 30
0.0
 11
371.9491428269727
 21
161.4872942366328
 31
0.0
  0
LINE
  5
33AA
330
1A
100
AcDbEntity
  8
SEIHIN
  6
CONTINUOUS
100
AcDbLine
 10
372.7388075769859
 20
152.9376470863945
 30
0.0
 11
370.7439620610857
 21
159.8922010239945
 31
0.0
  0
ARC
  5
33AB
330
1A
100
AcDbEntity
  8
SEIHIN
  6
CONTINUOUS
100
AcDbCircle
 10
369.7827245122857
 20
159.6164794706945
 30
0.0
 40
0.9999999999999969
100
AcDbArc
 50
16.0050186309987
 51
90.0
  0
ARC
  5
33AC
330
1A
100
AcDbEntity
  8
NOKITOI
 48
0.5
100
AcDbCircle
 10
327.6048839621959
 20
267.605413709929
 30
0.0
 40
7.0
100
AcDbArc
 50
90.0
 51
211.0948757823094
  0
ARC
  5
33AD
330
1A
100
AcDbEntity
  8
NOKITOI
 48
0.5
100
AcDbCircle
 10
327.6048839621959
 20
267.605413709929
 30
0.0
 40
8.5
100
AcDbArc
 50
90.0
 51
122.4778405323755
  0
ARC
  5
33AE
330
1A
100
AcDbEntity
  8
NOKITOI
 48
0.5
100
AcDbCircle
 10
328.5050758351687
 20
266.105413709929
 30
0.0
 40
8.499999999999944
100
AcDbArc
 50
245.0556485248561
 51
270.0
  0
ARC
  5
33AF
330
1A
100
AcDbEntity
  8
NOKITOI
 48
0.5
100
AcDbCircle
 10
-13.72158827239155
 20
61.74575434972599
 30
0.0
 40
391.6000000000092
100
AcDbArc
 50
28.28464033565046
 51
30.1441415324523
  0
ARC
  5
33B0
330
1A
100
AcDbEntity
  8
NOKITOI
 48
0.5
100
AcDbCircle
 10
328.5050758351687
 20
266.105413709929
 30
0.0
 40
7.000000000000143
100
AcDbArc
 50
210.8434146257348
 51
270.0
  0
LINE
  5
33B1
330
1A
100
AcDbEntity
  8
NOKITOI
 48
0.5
100
AcDbLine
 10
318.1406119957752
 20
266.605413709929
 30
0.0
 11
316.1406086698181
 21
266.6054103720291
 31
0.0
  0
LINE
  5
33B2
330
1A
100
AcDbEntity
  8
SEIHIN
  6
CONTINUOUS
100
AcDbLine
 10
318.1362098996858
 20
266.1164794706945
 30
0.0
 11
315.8362065498859
 21
266.1164825701945
 31
0.0
  0
LINE
  5
33B3
330
1A
100
AcDbEntity
  8
SEIHIN
  6
CONTINUOUS
100
AcDbLine
 10
316.7403970606858
 20
263.6164794706945
 30
0.0
 11
313.3362089340857
 21
263.6164775037944
 31
0.0
  0
ARC
  5
33B4
330
1A
100
AcDbEntity
  8
NOKITOI
 48
0.5
100
AcDbCircle
 10
-13.72158827276626
 20
61.74575434949407
 30
0.0
 40
391.6000000004494
100
AcDbArc
 50
30.8434146256435
 51
31.09487578279952
  0
ARC
  5
33B5
330
1A
100
AcDbEntity
  8
NOKITOI
 48
0.5
100
AcDbCircle
 10
327.6048839621959
 20
267.605413709929
 30
0.0
 40
8.500000000000364
100
AcDbArc
 50
136.3203885738155
 51
174.1299329295406
  0
ARC
  5
33B6
330
1A
100
AcDbEntity
  8
NOKITOI
 48
0.5
100
AcDbCircle
 10
318.8510277910083
 20
268.5054148955782
 30
0.0
 40
0.2999999999999176
100
AcDbArc
 50
270.0000956236189
 51
354.1299329295536
  0
ARC
  5
33B7
330
1A
100
AcDbEntity
  8
NOKITOI
 48
0.5
100
AcDbCircle
 10
318.0406090296857
 20
268.505413543032
 30
0.0
 40
0.2999999999999176
100
AcDbArc
 50
179.9999891479612
 51
270.0000956236189
  0
LINE
  5
33B8
330
1A
100
AcDbEntity
  8
NOKITOI
 48
0.5
100
AcDbLine
 10
318.8510282916924
 20
268.2054148955787
 30
0.0
 11
318.0406095303698
 21
268.2054135430326
 31
0.0
  0
ARC
  5
33B9
330
1A
100
AcDbEntity
  8
NOKITOI
 48
0.5
100
AcDbCircle
 10
321.2406100103173
 20
273.6829145997223
 30
0.0
 40
0.2999999999999576
100
AcDbArc
 50
316.3203885738155
 51
359.9999891479612
  0
LINE
  5
33BA
330
1A
100
AcDbEntity
  8
NOKITOI
 48
0.5
100
AcDbLine
 10
338.9581066923066
 20
255.9247979910576
 30
0.0
 11
337.7164532091168
 21
258.0976915866413
 31
0.0
  0
LINE
  5
33BB
330
1A
100
AcDbEntity
  8
NOKITOI
 48
0.5
100
AcDbLine
 10
337.1812281900144
 20
256.0109887144567
 30
0.0
 11
336.4140884959299
 21
257.3534831791064
 31
0.0
  0
ARC
  5
33BC
330
1A
100
AcDbEntity
  8
NOKITOI
 48
0.5
100
AcDbCircle
 10
338.5325314829175
 20
246.1442226606627
 30
0.0
 40
5.999999999999833
100
AcDbArc
 50
137.0608680432694
 51
207.6312195127911
  0
LINE
  5
33BD
330
1A
100
AcDbEntity
  8
NOKITOI
 48
0.5
100
AcDbLine
 10
333.0419479212721
 20
251.2533803361102
 30
0.0
 11
337.140378589843
 21
255.6577807259316
 31
0.0
  0
LINE
  5
33BE
330
1A
100
AcDbEntity
  8
NOKITOI
 48
0.5
100
AcDbLine
 10
334.1400646336009
 20
250.2315488010207
 30
0.0
 11
338.8900240253541
 21
255.3361180101828
 31
0.0
  0
ARC
  5
33BF
330
1A
100
AcDbEntity
  8
NOKITOI
 48
0.5
100
AcDbCircle
 10
338.5325314829175
 20
246.1442226606627
 30
0.0
 40
7.499999999999871
100
AcDbArc
 50
137.0608680432694
 51
171.0867903269361
  0
ARC
  5
33C0
330
1A
100
AcDbEntity
  8
NOKITOI
 48
0.5
100
AcDbCircle
 10
336.9207552473769
 20
255.8621470329496
 30
0.0
 40
0.300000000000178
100
AcDbArc
 50
317.0608680432878
 51
29.74488129692526
  0
ARC
  5
33C1
330
1A
100
AcDbEntity
  8
NOKITOI
 48
0.5
100
AcDbCircle
 10
338.5239851212442
 20
255.6767285218793
 30
0.0
 40
0.4999999999999604
100
AcDbArc
 50
317.0608680432694
 51
29.74488129696686
  0
ARC
  5
33C2
330
1A
100
AcDbEntity
  8
NOKITOI
 48
0.5
100
AcDbCircle
 10
336.1406102797506
 20
275.105413709929
 30
0.0
 40
6.0
100
AcDbArc
 50
270.0
 51
359.9999891479971
  0
LINE
  5
33C3
330
1A
100
AcDbEntity
  8
NOKITOI
 48
0.5
100
AcDbLine
 10
328.5050758351687
 20
257.605413709929
 30
0.0
 11
335.9799669248674
 21
257.6054137099281
 31
0.0
  0
LINE
  5
33C4
330
1A
100
AcDbEntity
  8
NOKITOI
 48
0.5
100
AcDbLine
 10
328.5050758351687
 20
259.105413709929
 30
0.0
 11
335.9799669248677
 21
259.1054137099281
 31
0.0
  0
ARC
  5
33C5
330
1A
100
AcDbEntity
  8
NOKITOI
 48
0.5
100
AcDbCircle
 10
335.9799669248674
 20
257.1054137099281
 30
0.0
 40
0.5000000000000898
100
AcDbArc
 50
29.74488129691798
 51
90.0
  0
ARC
  5
33C6
330
1A
100
AcDbEntity
  8
NOKITOI
 48
0.5
100
AcDbCircle
 10
335.9799669248674
 20
257.1054137099281
 30
0.0
 40
2.000000000000133
100
AcDbArc
 50
29.74488129691435
 51
90.0
  0
LINE
  5
33C7
330
1A
100
AcDbEntity
  8
NOKITOI
 48
0.5
100
AcDbLine
 10
335.1964644243214
 20
275.6693782952006
 30
0.0
 11
338.2816135707159
 21
277.0268421204716
 31
0.0
  0
ARC
  5
33C8
330
1A
100
AcDbEntity
  8
NOKITOI
 48
0.5
100
AcDbCircle
 10
335.9779221091063
 20
274.0466836026807
 30
0.0
 40
0.2999999999999199
100
AcDbArc
 50
113.7494664995854
 51
189.0674095538221
  0
LINE
  5
33C9
330
1A
100
AcDbEntity
  8
NOKITOI
 48
0.5
100
AcDbLine
 10
336.1406102797527
 20
269.105413709929
 30
0.0
 11
333.354461991751
 21
269.1054137099281
 31
0.0
  0
LINE
  5
33CA
330
1A
100
AcDbEntity
  8
NOKITOI
 48
0.5
100
AcDbLine
 10
336.1406102797506
 20
270.605413709929
 30
0.0
 11
335.2104719811997
 21
270.6054137099288
 31
0.0
  0
ARC
  5
33CB
330
1A
100
AcDbEntity
  8
NOKITOI
 48
0.5
100
AcDbCircle
 10
333.2129120039259
 20
273.605413709929
 30
0.0
 40
1.000000000000004
100
AcDbArc
 50
340.0168934781067
 51
90.0
  0
ARC
  5
33CC
330
1A
100
AcDbEntity
  8
NOKITOI
 48
0.5
100
AcDbCircle
 10
333.2129120039259
 20
273.605413709929
 30
0.0
 40
2.500000000000012
100
AcDbArc
 50
340.0168934781067
 51
9.067409553812211
  0
ARC
  5
33CD
330
1A
100
AcDbEntity
  8
NOKITOI
 48
0.5
100
AcDbCircle
 10
333.9498631344064
 20
274.105413709929
 30
0.0
 40
2.000000000000145
100
AcDbArc
 50
51.44243227598005
 51
90.0
  0
LINE
  5
33CE
330
1A
100
AcDbEntity
  8
NOKITOI
 48
0.5
100
AcDbLine
 10
327.6048839621959
 20
276.105413709929
 30
0.0
 11
333.9498631344064
 21
276.105413709929
 31
0.0
  0
LINE
  5
33CF
330
1A
100
AcDbEntity
  8
NOKITOI
 48
0.5
100
AcDbLine
 10
327.6048839621959
 20
274.605413709929
 30
0.0
 11
333.2129120039259
 21
274.605413709929
 31
0.0
  0
ARC
  5
33D0
330
1A
100
AcDbEntity
  8
NOKITOI
 48
0.5
100
AcDbCircle
 10
333.3544619917508
 20
269.6054137099281
 30
0.0
 40
0.5000000000000025
100
AcDbArc
 50
160.0168934781066
 51
270.0
  0
ARC
  5
33D1
330
1A
100
AcDbEntity
  8
NOKITOI
 48
0.5
100
AcDbCircle
 10
335.2104719811997
 20
270.9054137099287
 30
0.0
 40
0.300000000000118
100
AcDbArc
 50
160.0168934780963
 51
270.0
  0
LINE
  5
33D2
330
1A
100
AcDbEntity
  8
NOKITOI
 48
0.5
100
AcDbLine
 10
334.1527054274144
 20
273.2636706468424
 30
0.0
 11
332.884565280007
 21
269.7762852414713
 31
0.0
  0
LINE
  5
33D3
330
1A
100
AcDbEntity
  8
NOKITOI
 48
0.5
100
AcDbLine
 10
335.5623955626467
 20
272.7510560522123
 30
0.0
 11
334.9285339541531
 21
271.0079366288548
 31
0.0
  0
LINE
  5
33D4
330
1A
100
AcDbEntity
  8
NOKITOI
 48
0.5
100
AcDbLine
 10
342.1406102797506
 20
275.1054125735116
 30
0.0
 11
342.1406104979236
 21
276.2573126227695
 31
0.0
  0
LINE
  5
33D5
330
1A
100
AcDbEntity
  8
NOKITOI
 48
0.5
100
AcDbLine
 10
340.6406102797506
 20
275.1054128576145
 30
0.0
 11
340.6406104427984
 21
275.966263868529
 31
0.0
  0
LINE
  5
33D6
330
1A
100
AcDbEntity
  8
NOKITOI
 48
0.5
100
AcDbLine
 10
335.8571006589865
 20
274.321278171438
 30
0.0
 11
340.2197889926785
 21
276.2408584941072
 31
0.0
  0
ARC
  5
33D7
330
1A
100
AcDbEntity
  8
NOKITOI
 48
0.5
100
AcDbCircle
 10
340.1406104979238
 20
276.2573130015752
 30
0.0
 40
2.000000000000035
100
AcDbArc
 50
359.999989147971
 51
78.98029157818554
  0
ARC
  5
33D8
330
1A
100
AcDbEntity
  8
NOKITOI
 48
0.5
100
AcDbCircle
 10
336.1406102797506
 20
275.105413709929
 30
0.0
 40
4.5
100
AcDbArc
 50
270.0
 51
359.9999891479971
  0
ARC
  5
33D9
330
1A
100
AcDbEntity
  8
NOKITOI
 48
0.5
100
AcDbCircle
 10
340.3406104427983
 20
275.9662639253499
 30
0.0
 40
0.3000000000000748
100
AcDbArc
 50
359.9999891480035
 51
113.7494664995854
  0
LINE
  5
33DA
330
1A
100
AcDbEntity
  8
SEIHIN
  6
CONTINUOUS
100
AcDbLine
 10
235.6279414713794
 20
289.6017574167945
 30
0.0
 11
147.6279414713792
 21
289.6017574167945
 31
0.0
  0
ARC
  5
33DB
330
1A
100
AcDbEntity
  8
SEIHIN
  6
CONTINUOUS
100
AcDbCircle
 10
147.6279414713792
 20
288.6017574167945
 30
0.0
 40
1.0
100
AcDbArc
 50
90.0
 51
180.0
  0
ARC
  5
33DC
330
1A
100
AcDbEntity
  8
SEIHIN
  6
CONTINUOUS
100
AcDbCircle
 10
235.6279414713794
 20
288.6017574167945
 30
0.0
 40
1.0
100
AcDbArc
 50
0.0
 51
90.0
  0
LINE
  5
33DD
330
1A
100
AcDbEntity
  8
CENTER_L
  6
CENTER
 48
5.0
100
AcDbLine
 10
416.3862098996855
 20
444.315244501752
 30
0.0
 11
416.3862098996855
 21
340.3884041109015
 31
0.0
  0
LINE
  5
33DE
330
1A
100
AcDbEntity
  8
SEIHIN
  6
CONTINUOUS
100
AcDbLine
 10
329.8362098996858
 20
377.6835240080457
 30
0.0
 11
329.8362125699859
 21
347.7261022880457
 31
0.0
  0
LINE
  5
33DF
330
1A
100
AcDbEntity
  8
SEIHIN
  6
CONTINUOUS
100
AcDbLine
 10
314.5972647401858
 20
436.6835240080456
 30
0.0
 11
314.5972647401858
 21
348.6835240080456
 31
0.0
  0
LINE
  5
33E0
330
1A
100
AcDbEntity
  8
SEIHIN
  6
CONTINUOUS
100
AcDbLine
 10
312.0819394390857
 20
436.6835240080456
 30
0.0
 11
312.0819394390857
 21
348.6835240080456
 31
0.0
  0
LINE
  5
33E1
330
1A
100
AcDbEntity
  8
SEIHIN
  6
CONTINUOUS
100
AcDbLine
 10
370.7439620610857
 20
437.6835240080457
 30
0.0
 11
370.7439620610857
 21
347.6835240080457
 31
0.0
  0
LINE
  5
33E2
330
1A
100
AcDbEntity
  8
SEIHIN
  6
CONTINUOUS
100
AcDbLine
 10
363.3390580185857
 20
347.6835240080457
 30
0.0
 11
363.3390580185857
 21
437.6835240080457
 31
0.0
  0
LINE
  5
33E3
330
1A
100
AcDbEntity
  8
SEIHIN
  6
CONTINUOUS
100
AcDbLine
 10
372.7388075769859
 20
347.6835240080457
 30
0.0
 11
372.7388075769859
 21
437.6835240080457
 31
0.0
  0
LINE
  5
33E4
330
1A
100
AcDbEntity
  8
SEIHIN
  6
CONTINUOUS
100
AcDbLine
 10
363.3390580185857
 20
347.6835240080457
 30
0.0
 11
329.8362098996858
 21
347.6835240080457
 31
0.0
  0
LINE
  5
33E5
330
1A
100
AcDbEntity
  8
SEIHIN
  6
CONTINUOUS
100
AcDbLine
 10
325.2380570978857
 20
282.8038638965945
 30
0.0
 11
328.6814464231858
 21
284.4095427089945
 31
0.0
  0
LINE
  5
33E6
330
1A
100
AcDbEntity
  8
SEIHIN
  6
CONTINUOUS
100
AcDbLine
 10
327.4441981728857
 20
286.5910491722944
 30
0.0
 11
329.1248981897858
 21
287.3747771524945
 31
0.0
  0
LINE
  5
33E7
330
1A
100
AcDbEntity
  8
NOKITOI
 48
0.5
100
AcDbLine
 10
318.1230283232945
 20
284.3749791265215
 30
0.0
 11
321.3230281501239
 21
283.4606934122378
 31
0.0
  0
LINE
  5
33E8
330
1A
100
AcDbEntity
  8
NOKITOI
 48
0.5
100
AcDbLine
 10
317.4153333484313
 20
286.2412028260557
 30
0.0
 11
323.140612079079
 21
284.6054088144946
 31
0.0
  0
LINE
  5
33E9
330
1A
100
AcDbEntity
  8
SEIHIN
  6
CONTINUOUS
100
AcDbLine
 10
314.5972647401858
 20
289.5342272959945
 30
0.0
 11
326.0836363482858
 21
286.4711948670944
 31
0.0
  0
LINE
  5
33EA
330
1A
100
AcDbEntity
  8
SEIHIN
  6
CONTINUOUS
100
AcDbLine
 10
317.0938725502858
 20
286.2811027638945
 30
0.0
 11
323.3362068479857
 21
284.6164828085945
 31
0.0
  0
ARC
  5
33EB
330
1A
100
AcDbEntity
  8
NOKITOI
 48
0.5
100
AcDbCircle
 10
318.0406119808019
 20
284.0865219434074
 30
0.0
 40
0.3000000000001873
100
AcDbArc
 50
74.05460328003677
 51
179.9999891479612
  0
ARC
  5
33EC
330
1A
100
AcDbEntity
  8
NOKITOI
 48
0.5
100
AcDbCircle
 10
317.1406122067898
 20
285.2796788823418
 30
0.0
 40
1.000000000000065
100
AcDbArc
 50
74.05460328007052
 51
179.999989147984
  0
ARC
  5
33ED
330
1A
100
AcDbEntity
  8
SEIHIN
  6
CONTINUOUS
100
AcDbCircle
 10
316.8362098996858
 20
285.3148678242945
 30
0.0
 40
0.9999999999999904
100
AcDbArc
 50
75.06858282189853
 51
180.0
  0
ARC
  5
33EE
330
1A
100
AcDbEntity
  8
SEIHIN
  6
CONTINUOUS
100
AcDbCircle
 10
314.0819394390857
 20
287.6017574167945
 30
0.0
 40
2.000000000000008
100
AcDbArc
 50
75.06858282189853
 51
182.9999999999991
  0
ARC
  5
33EF
330
1A
100
AcDbEntity
  8
NOKITOI
 48
0.5
100
AcDbCircle
 10
322.8406120362189
 20
284.3791184062781
 30
0.0
 40
0.3000000000000258
100
AcDbArc
 50
359.9999891480035
 51
74.05460328003677
  0
ARC
  5
33F0
330
1A
100
AcDbEntity
  8
NOKITOI
 48
0.5
100
AcDbCircle
 10
321.2406118076316
 20
283.1722362291236
 30
0.0
 40
0.299999999999901
100
AcDbArc
 50
359.9999891479612
 51
74.05460328011796
  0
LINE
  5
33F1
330
1A
100
AcDbEntity
  8
NOKITOI
 48
0.5
100
AcDbLine
 10
323.140612079079
 20
284.6054088144946
 30
0.0
 11
323.1406115108699
 21
281.6054088144928
 31
0.0
  0
ARC
  5
33F2
330
1A
100
AcDbEntity
  8
SEIHIN
  6
CONTINUOUS
100
AcDbCircle
 10
326.5989616493857
 20
288.4036647462945
 30
0.0
 40
2.000000000000008
100
AcDbArc
 50
255.0685828218985
 51
294.9999999999996
  0
LINE
  5
33F3
330
1A
100
AcDbEntity
  8
SEIHIN
  6
CONTINUOUS
100
AcDbLine
 10
323.3362068479857
 20
282.6164787554945
 30
0.0
 11
324.3928205743859
 21
282.6164794706945
 31
0.0
  0
LINE
  5
33F4
330
1A
100
AcDbEntity
  8
SEIHIN
  6
CONTINUOUS
100
AcDbLine
 10
323.3362068479857
 20
284.6164828085945
 30
0.0
 11
323.3362068479857
 21
282.6164787554945
 31
0.0
  0
ARC
  5
33F5
330
1A
100
AcDbEntity
  8
SEIHIN
  6
CONTINUOUS
100
AcDbCircle
 10
324.3928205743859
 20
284.6164794706945
 30
0.0
 40
2.0
100
AcDbArc
 50
270.0
 51
294.9999999999996
  0
ARC
  5
33F6
330
1A
100
AcDbEntity
  8
SEIHIN
  6
CONTINUOUS
100
AcDbCircle
 10
327.8362098996858
 20
286.2221582830945
 30
0.0
 40
2.0
100
AcDbArc
 50
294.9999999999996
 51
0.0
  0
ARC
  5
33F7
330
1A
100
AcDbEntity
  8
SEIHIN
  6
CONTINUOUS
100
AcDbCircle
 10
329.3362116901858
 20
286.9216243256945
 30
0.0
 40
0.5000008799
100
AcDbArc
 50
0.0
 51
115.0005054502028
  0
LINE
  5
33F8
330
1A
100
AcDbEntity
  8
SEIHIN
  6
CONTINUOUS
100
AcDbLine
 10
329.8362125699859
 20
286.9216179394945
 30
0.0
 11
329.8362125699859
 21
286.6030907177945
 31
0.0
  0
LINE
  5
33F9
330
1A
100
AcDbEntity
  8
SEIHIN
  6
CONTINUOUS
100
AcDbLine
 10
329.8362098996858
 20
286.2221582830945
 30
0.0
 11
329.8362125699859
 21
286.6030907177945
 31
0.0
  0
LINE
  5
33FA
330
1A
100
AcDbEntity
  8
SEIHIN
  6
CONTINUOUS
100
AcDbLine
 10
329.8362098996858
 20
347.6835240080457
 30
0.0
 11
313.0819394390857
 21
347.6835240080457
 31
0.0
  0
ARC
  5
33FB
330
1A
100
AcDbEntity
  8
SEIHIN
  6
CONTINUOUS
100
AcDbCircle
 10
313.0819394390857
 20
348.6835240080456
 30
0.0
 40
1.0
100
AcDbArc
 50
180.0
 51
270.0
  0
LINE
  5
33FC
330
1A
100
AcDbEntity
  8
SEIHIN
  6
CONTINUOUS
100
AcDbLine
 10
369.7827245122857
 20
347.6835240080457
 30
0.0
 11
364.3053034659858
 21
347.6835240080457
 31
0.0
  0
LINE
  5
33FD
330
1A
100
AcDbEntity
  8
SEIHIN
  6
CONTINUOUS
100
AcDbLine
 10
364.3053034659858
 20
347.6835240080457
 30
0.0
 11
363.3390580185857
 21
347.6835240080457
 31
0.0
  0
LINE
  5
33FE
330
1A
100
AcDbEntity
  8
SEIHIN
  6
CONTINUOUS
100
AcDbLine
 10
372.7388075769859
 20
347.6835240080457
 30
0.0
 11
370.7439620610857
 21
347.6835240080457
 31
0.0
  0
LINE
  5
33FF
330
1A
100
AcDbEntity
  8
SEIHIN
  6
CONTINUOUS
100
AcDbLine
 10
370.7439620610857
 20
347.6835240080457
 30
0.0
 11
369.7827245122857
 21
347.6835240080457
 31
0.0
  0
LINE
  5
3400
330
1A
100
AcDbEntity
  8
SEIHIN
  6
CONTINUOUS
100
AcDbLine
 10
374.5776655857858
 20
347.6835240080457
 30
0.0
 11
372.7388075769859
 21
347.6835240080457
 31
0.0
  0
LINE
  5
3401
330
1A
100
AcDbEntity
  8
SEIHIN
  6
CONTINUOUS
100
AcDbLine
 10
363.3390580185857
 20
437.6835240080457
 30
0.0
 11
329.8362098996858
 21
437.6835240080457
 31
0.0
  0
LINE
  5
3402
330
1A
100
AcDbEntity
  8
SEIHIN
  6
CONTINUOUS
100
AcDbLine
 10
329.8362098996858
 20
407.6835240080456
 30
0.0
 11
329.8362125699859
 21
437.6409457280457
 31
0.0
  0
LINE
  5
3403
330
1A
100
AcDbEntity
  8
SEIHIN
  6
CONTINUOUS
100
AcDbLine
 10
329.1249007687858
 20
407.6835240080456
 30
0.0
 11
327.4441981728857
 21
407.6835240080456
 31
0.0
  0
LINE
  5
3404
330
1A
100
AcDbEntity
  8
SEIHIN
  6
CONTINUOUS
100
AcDbLine
 10
329.1249007687858
 20
377.6835240080457
 30
0.0
 11
327.4441981728857
 21
377.6835240080457
 31
0.0
  0
LINE
  5
3405
330
1A
100
AcDbEntity
  8
SEIHIN
  6
CONTINUOUS
100
AcDbLine
 10
320.8362092320858
 20
405.6835242763456
 30
0.0
 11
320.8362092320858
 21
379.6835237398456
 31
0.0
  0
LINE
  5
3406
330
1A
100
AcDbEntity
  8
SEIHIN
  6
CONTINUOUS
100
AcDbLine
 10
326.0836363482858
 20
377.6835240080457
 30
0.0
 11
322.8362132852858
 21
377.6835243433457
 31
0.0
  0
ARC
  5
3407
330
1A
100
AcDbEntity
  8
SEIHIN
  6
CONTINUOUS
100
AcDbCircle
 10
322.8362085752858
 20
379.6835236865457
 30
0.0
 40
1.999999343199988
100
AcDbArc
 50
180.0
 51
270.0001349301989
  0
LINE
  5
3408
330
1A
100
AcDbEntity
  8
SEIHIN
  6
CONTINUOUS
100
AcDbLine
 10
326.0836363482858
 20
377.6835240080457
 30
0.0
 11
327.4441981728857
 21
377.6835240080457
 31
0.0
  0
ARC
  5
3409
330
1A
100
AcDbEntity
  8
SEIHIN
  6
CONTINUOUS
100
AcDbCircle
 10
322.8362085752858
 20
405.6835243295457
 30
0.0
 40
1.999999343199988
100
AcDbArc
 50
89.99986506980105
 51
180.0
  0
LINE
  5
340A
330
1A
100
AcDbEntity
  8
SEIHIN
  6
CONTINUOUS
100
AcDbLine
 10
326.0836363482858
 20
407.6835240080456
 30
0.0
 11
327.4441981728857
 21
407.6835240080456
 31
0.0
  0
LINE
  5
340B
330
1A
100
AcDbEntity
  8
SEIHIN
  6
CONTINUOUS
100
AcDbLine
 10
326.0836363482858
 20
407.6835240080456
 30
0.0
 11
322.8362132852858
 21
407.6835236727457
 31
0.0
  0
LINE
  5
340C
330
1A
100
AcDbEntity
  8
SEIHIN
  6
CONTINUOUS
100
AcDbLine
 10
329.1249007687858
 20
377.6835240080457
 30
0.0
 11
329.8362098996858
 21
377.6835240080457
 31
0.0
  0
LINE
  5
340D
330
1A
100
AcDbEntity
  8
SEIHIN
  6
CONTINUOUS
100
AcDbLine
 10
329.1249007687858
 20
407.6835240080456
 30
0.0
 11
329.8362098996858
 21
407.6835240080456
 31
0.0
  0
LINE
  5
340E
330
1A
100
AcDbEntity
  8
SEIHIN
  6
CONTINUOUS
100
AcDbLine
 10
329.8362098996858
 20
437.6835240080457
 30
0.0
 11
313.0819394390857
 21
437.6835240080457
 31
0.0
  0
ARC
  5
340F
330
1A
100
AcDbEntity
  8
SEIHIN
  6
CONTINUOUS
100
AcDbCircle
 10
313.0819394390857
 20
436.6835240080456
 30
0.0
 40
1.0
100
AcDbArc
 50
90.0
 51
180.0
  0
LINE
  5
3410
330
1A
100
AcDbEntity
  8
SEIHIN
  6
CONTINUOUS
100
AcDbLine
 10
369.7827245122857
 20
437.6835240080457
 30
0.0
 11
364.3053034659858
 21
437.6835240080457
 31
0.0
  0
LINE
  5
3411
330
1A
100
AcDbEntity
  8
SEIHIN
  6
CONTINUOUS
100
AcDbLine
 10
364.3053034659858
 20
437.6835240080457
 30
0.0
 11
363.3390580185857
 21
437.6835240080457
 31
0.0
  0
LINE
  5
3412
330
1A
100
AcDbEntity
  8
SEIHIN
  6
CONTINUOUS
100
AcDbLine
 10
374.5776655857858
 20
437.6835240080457
 30
0.0
 11
372.7388075769859
 21
437.6835240080457
 31
0.0
  0
LINE
  5
3413
330
1A
100
AcDbEntity
  8
SEIHIN
  6
CONTINUOUS
100
AcDbLine
 10
370.7439620610857
 20
437.6835240080457
 30
0.0
 11
369.7827245122857
 21
437.6835240080457
 31
0.0
  0
LINE
  5
3414
330
1A
100
AcDbEntity
  8
SEIHIN
  6
CONTINUOUS
100
AcDbLine
 10
372.7388075769859
 20
437.6835240080457
 30
0.0
 11
370.7439620610857
 21
437.6835240080457
 31
0.0
  0
LINE
  5
3415
330
1A
100
AcDbEntity
  8
SEIHIN
  6
CONTINUOUS
100
AcDbLine
 10
551.4235240054858
 20
149.1515973021477
 30
0.0
 11
551.4235240054858
 21
288.6017574167945
 31
0.0
  0
LINE
  5
3416
330
1A
100
AcDbEntity
  8
CENTER_L
  6
CENTER
 48
5.0
100
AcDbLine
 10
596.4235240054859
 20
300.2904320263685
 30
0.0
 11
596.4235240054859
 21
137.2735725379518
 31
0.0
  0
LINE
  5
3417
330
1A
100
AcDbEntity
  8
SEIHIN
  6
CONTINUOUS
100
AcDbLine
 10
641.4235240054859
 20
149.1515973021477
 30
0.0
 11
641.4235240054859
 21
288.6017574167945
 31
0.0
  0
LINE
  5
3418
330
1A
100
AcDbEntity
  8
SEIHIN
  6
CONTINUOUS
100
AcDbLine
 10
552.4235240054858
 20
237.3164794706945
 30
0.0
 11
565.4235245120857
 21
237.3164793395944
 31
0.0
  0
LINE
  5
3419
330
1A
100
AcDbEntity
  8
SEIHIN
  6
CONTINUOUS
100
AcDbLine
 10
551.4235240054858
 20
266.1164794706945
 30
0.0
 11
641.4235240054859
 21
266.1164794706945
 31
0.0
  0
LINE
  5
341A
330
1A
100
AcDbEntity
  8
SEIHIN
  6
CONTINUOUS
100
AcDbLine
 10
552.4235240054858
 20
148.1164794706945
 30
0.0
 11
640.4235240054859
 21
148.1164794706945
 31
0.0
  0
LINE
  5
341B
330
1A
100
AcDbEntity
  8
SEIHIN
  6
CONTINUOUS
100
AcDbLine
 10
640.4235240054859
 20
148.8884202771944
 30
0.0
 11
552.4235240054858
 21
148.8884202771944
 31
0.0
  0
ARC
  5
341C
330
1A
100
AcDbEntity
  8
NOKITOI
 48
0.5
100
AcDbCircle
 10
-524.2114163886078
 20
330.3325009490556
 30
0.0
 40
998.3999999999999
100
AcDbArc
 50
349.9208000871319
 51
353.074099119696
  0
ARC
  5
341D
330
1A
100
AcDbEntity
  8
NOKITOI
 48
0.5
100
AcDbCircle
 10
-524.2114163886078
 20
330.3325009490556
 30
0.0
 40
999.9999999999998
100
AcDbArc
 50
349.9208000871319
 51
353.0775507891159
  0
ARC
  5
341E
330
1A
100
AcDbEntity
  8
SEIHIN
  6
CONTINUOUS
100
AcDbCircle
 10
-524.1731661526142
 20
330.7702544921945
 30
0.0
 40
1002.5
100
AcDbArc
 50
349.9059824956625
 51
353.0734219597965
  0
ARC
  5
341F
330
1A
100
AcDbEntity
  8
SEIHIN
  6
CONTINUOUS
100
AcDbCircle
 10
-524.1731661526142
 20
330.7702544921945
 30
0.0
 40
1000.0
100
AcDbArc
 50
349.9059824956958
 51
353.0701647169014
  0
ARC
  5
3420
330
1A
100
AcDbEntity
  8
NOKITOI
 48
0.5
100
AcDbCircle
 10
455.4325282012652
 20
156.198237151282
 30
0.0
 40
5.00000000000004
100
AcDbArc
 50
271.9779273652142
 51
349.920800087122
  0
ARC
  5
3421
330
1A
100
AcDbEntity
  8
NOKITOI
 48
0.5
100
AcDbCircle
 10
455.4325282012652
 20
156.198237151282
 30
0.0
 40
3.39999999999992
100
AcDbArc
 50
271.9779273652077
 51
349.920800087122
  0
ARC
  5
3422
330
1A
100
AcDbEntity
  8
SEIHIN
  6
CONTINUOUS
100
AcDbCircle
 10
455.4257118127857
 20
156.3826451588944
 30
0.0
 40
4.999999999999994
100
AcDbArc
 50
272.2486160746025
 51
349.9059824956958
  0
ARC
  5
3423
330
1A
100
AcDbEntity
  8
SEIHIN
  6
CONTINUOUS
100
AcDbCircle
 10
455.4257118127857
 20
156.3826451588944
 30
0.0
 40
7.499999999999998
100
AcDbArc
 50
272.2486160746025
 51
349.9059824956958
  0
ARC
  5
3424
330
1A
100
AcDbEntity
  8
SEIHIN
  6
CONTINUOUS
100
AcDbCircle
 10
552.4235240054858
 20
149.1164794706945
 30
0.0
 40
1.0
100
AcDbArc
 50
180.0
 51
270.0
  0
ARC
  5
3425
330
1A
100
AcDbEntity
  8
SEIHIN
  6
CONTINUOUS
100
AcDbCircle
 10
552.4235240054858
 20
149.8884202771944
 30
0.0
 40
1.0
100
AcDbArc
 50
180.0
 51
270.0
  0
ARC
  5
3426
330
1A
100
AcDbEntity
  8
NOKITOI
 48
0.5
100
AcDbCircle
 10
464.4070328173208
 20
229.8066964665313
 30
0.0
 40
4.999999999999845
100
AcDbArc
 50
357.3849271045684
 51
90.0
  0
ARC
  5
3427
330
1A
100
AcDbEntity
  8
NOKITOI
 48
0.5
100
AcDbCircle
 10
464.4070328173217
 20
229.8066964665311
 30
0.0
 40
3.400000000000112
100
AcDbArc
 50
357.3849271045749
 51
90.0
  0
LINE
  5
3428
330
1A
100
AcDbEntity
  8
NOKITOI
 48
0.5
100
AcDbLine
 10
461.3995548190081
 20
234.1541995398964
 30
0.0
 11
454.2406119957683
 21
214.8066964665308
 31
0.0
  0
LINE
  5
3429
330
1A
100
AcDbEntity
  8
SEIHIN
  6
CONTINUOUS
100
AcDbLine
 10
460.5683055763859
 20
233.2561736845945
 30
0.0
 11
460.5015781765858
 21
233.0728446983945
 31
0.0
  0
ARC
  5
342A
330
1A
100
AcDbEntity
  8
SEIHIN
  6
CONTINUOUS
100
AcDbCircle
 10
464.4054673461858
 20
229.8164794706945
 30
0.0
 40
5.0
100
AcDbArc
 50
357.4159581435977
 51
90.0
  0
ARC
  5
342B
330
1A
100
AcDbEntity
  8
SEIHIN
  6
CONTINUOUS
100
AcDbCircle
 10
464.4054673461858
 20
229.8164794706945
 30
0.0
 40
7.499999999999973
100
AcDbArc
 50
357.4159581435977
 51
90.0
  0
ARC
  5
342C
330
1A
100
AcDbEntity
  8
SEIHIN
  6
CONTINUOUS
100
AcDbCircle
 10
461.0813346723857
 20
234.6657110226944
 30
0.0
 40
2.49999999999998
100
AcDbArc
 50
159.9999999999962
 51
250.0000000000035
  0
LINE
  5
342D
330
1A
100
AcDbEntity
  8
NOKITOI
 48
0.5
100
AcDbLine
 10
456.4613771351147
 20
216.485995800232
 30
0.0
 11
462.0691540075092
 21
216.9270569025552
 31
0.0
  0
LINE
  5
342E
330
1A
100
AcDbEntity
  8
NOKITOI
 48
0.5
100
AcDbLine
 10
462.648353282923
 20
233.2066964665314
 30
0.0
 11
456.4613771351147
 21
216.485995800232
 31
0.0
  0
LINE
  5
342F
330
1A
100
AcDbEntity
  8
NOKITOI
 48
0.5
100
AcDbLine
 10
454.2406119957683
 20
214.8066964665308
 30
0.0
 11
462.8226641006046
 21
215.4816893287093
 31
0.0
  0
LINE
  5
3430
330
1A
100
AcDbEntity
  8
NOKITOI
 48
0.5
100
AcDbLine
 10
468.4987782068948
 20
209.8066964665351
 30
0.0
 11
469.4018258248549
 21
229.5785675295541
 31
0.0
  0
LINE
  5
3431
330
1A
100
AcDbEntity
  8
NOKITOI
 48
0.5
100
AcDbLine
 10
466.9031908788212
 20
209.9398298219063
 30
0.0
 11
467.3098687092712
 21
218.8438803591434
 31
0.0
  0
LINE
  5
3432
330
1A
100
AcDbEntity
  8
SEIHIN
  6
CONTINUOUS
100
AcDbLine
 10
471.8978410884858
 20
229.4783438385945
 30
0.0
 11
471.0163760007858
 21
209.9469332097945
 31
0.0
  0
LINE
  5
3433
330
1A
100
AcDbEntity
  8
NOKITOI
 48
0.5
100
AcDbLine
 10
467.3788380720977
 20
220.3539373283997
 30
0.0
 11
467.8034920624451
 21
229.6515687893861
 31
0.0
  0
LINE
  5
3434
330
1A
100
AcDbEntity
  8
SEIHIN
  6
CONTINUOUS
100
AcDbLine
 10
469.4003831743857
 20
229.5910557159945
 30
0.0
 11
468.5214830588859
 21
210.1164794706945
 31
0.0
  0
LINE
  5
3435
330
1A
100
AcDbEntity
  8
NOKITOI
 48
0.5
100
AcDbLine
 10
464.2959142702991
 20
218.60682776282
 30
0.0
 11
467.3098687092712
 21
218.8438803591434
 31
0.0
  0
LINE
  5
3436
330
1A
100
AcDbEntity
  8
NOKITOI
 48
0.5
100
AcDbLine
 10
463.2244562820384
 20
220.0271881988446
 30
0.0
 11
467.3788380720977
 21
220.3539373283997
 31
0.0
  0
LINE
  5
3437
330
1A
100
AcDbEntity
  8
NOKITOI
 48
0.5
100
AcDbLine
 10
462.0691540075092
 20
216.9270569025552
 30
0.0
 11
463.2244562820384
 21
220.0271881988446
 31
0.0
  0
ARC
  5
3438
330
1A
100
AcDbEntity
  8
NOKITOI
 48
0.5
100
AcDbCircle
 10
462.783459333015
 20
215.980149945206
 30
0.0
 40
0.5000000000000096
100
AcDbArc
 50
274.4971516146625
 51
339.5614685906815
  0
LINE
  5
3439
330
1A
100
AcDbEntity
  8
NOKITOI
 48
0.5
100
AcDbLine
 10
463.2519830144535
 20
215.8055487999304
 30
0.0
 11
464.2959142702991
 21
218.60682776282
 31
0.0
  0
LINE
  5
343A
330
1A
100
AcDbEntity
  8
NOKITOI
 48
0.5
100
AcDbLine
 10
462.648353282923
 20
233.2066964665314
 30
0.0
 11
464.4070328173217
 21
233.2066964665311
 31
0.0
  0
LINE
  5
343B
330
1A
100
AcDbEntity
  8
SEIHIN
  6
CONTINUOUS
100
AcDbLine
 10
460.2328543608857
 20
232.3345368646945
 30
0.0
 11
460.2262829487858
 21
232.3164766573944
 31
0.0
  0
LINE
  5
343C
330
1A
100
AcDbEntity
  8
SEIHIN
  6
CONTINUOUS
100
AcDbLine
 10
460.2523190026858
 20
232.3880096816945
 30
0.0
 11
460.2328543608857
 21
232.3345368646945
 31
0.0
  0
LINE
  5
343D
330
1A
100
AcDbEntity
  8
SEIHIN
  6
CONTINUOUS
100
AcDbLine
 10
460.2839243655857
 20
232.4748461984945
 30
0.0
 11
460.2523190026858
 21
232.3880096816945
 31
0.0
  0
LINE
  5
343E
330
1A
100
AcDbEntity
  8
SEIHIN
  6
CONTINUOUS
100
AcDbLine
 10
460.3264597301858
 20
232.5917085551945
 30
0.0
 11
460.2839243655857
 21
232.4748461984945
 31
0.0
  0
LINE
  5
343F
330
1A
100
AcDbEntity
  8
SEIHIN
  6
CONTINUOUS
100
AcDbLine
 10
460.3782896940859
 20
232.7341040515944
 30
0.0
 11
460.3264597301858
 21
232.5917085551945
 31
0.0
  0
LINE
  5
3440
330
1A
100
AcDbEntity
  8
SEIHIN
  6
CONTINUOUS
100
AcDbLine
 10
460.4374175016857
 20
232.8965639614945
 30
0.0
 11
460.3782896940859
 21
232.7341040515944
 31
0.0
  0
LINE
  5
3441
330
1A
100
AcDbEntity
  8
SEIHIN
  6
CONTINUOUS
100
AcDbLine
 10
460.5015781765858
 20
233.0728446983945
 30
0.0
 11
460.4374175016857
 21
232.8965639614945
 31
0.0
  0
ARC
  5
3442
330
1A
100
AcDbEntity
  8
SEIHIN
  6
CONTINUOUS
100
AcDbCircle
 10
464.0775437563856
 20
234.8164794706945
 30
0.0
 40
5.499999999999995
100
AcDbArc
 50
86.58185685250005
 51
182.8806787332956
  0
ARC
  5
3443
330
1A
100
AcDbEntity
  8
SEIHIN
  6
CONTINUOUS
100
AcDbCircle
 10
461.1362098996858
 20
234.8164794706945
 30
0.0
 40
2.5
100
AcDbArc
 50
90.0
 51
159.9999999999962
  0
LINE
  5
3444
330
1A
100
AcDbEntity
  8
SEIHIN
  6
CONTINUOUS
100
AcDbLine
 10
458.7321031203857
 20
235.5207613809944
 30
0.0
 11
458.7869783477859
 21
235.6715298289945
 31
0.0
  0
ARC
  5
3445
330
1A
100
AcDbEntity
  8
NOKITOI
 48
0.5
100
AcDbCircle
 10
462.3372336627505
 20
233.8066964665313
 30
0.0
 40
1.0
100
AcDbArc
 50
90.00000000005213
 51
159.7238100727599
  0
LINE
  5
3446
330
1A
100
AcDbEntity
  8
NOKITOI
 48
0.5
100
AcDbLine
 10
462.3372336627505
 20
234.8066964665313
 30
0.0
 11
464.4070328173208
 21
234.8066964665313
 31
0.0
  0
ARC
  5
3447
330
1A
100
AcDbEntity
  8
SEIHIN
  6
CONTINUOUS
100
AcDbCircle
 10
464.0775437563856
 20
238.3164794706944
 30
0.0
 40
2.0
100
AcDbArc
 50
0.0
 51
80.56307165609924
  0
LINE
  5
3448
330
1A
100
AcDbEntity
  8
SEIHIN
  6
CONTINUOUS
100
AcDbLine
 10
461.1362098996858
 20
237.3164794706945
 30
0.0
 11
464.4054673461858
 21
237.3164794706945
 31
0.0
  0
LINE
  5
3449
330
1A
100
AcDbEntity
  8
SEIHIN
  6
CONTINUOUS
100
AcDbLine
 10
466.0775442664857
 20
237.1277114295945
 30
0.0
 11
466.0775437563857
 21
238.3164794706944
 31
0.0
  0
LINE
  5
344A
330
1A
100
AcDbEntity
  8
SEIHIN
  6
CONTINUOUS
100
AcDbLine
 10
464.4054673461858
 20
240.2894128499945
 30
0.0
 11
464.4054673461858
 21
240.3066949599945
 31
0.0
  0
LINE
  5
344B
330
1A
100
AcDbEntity
  8
SEIHIN
  6
CONTINUOUS
100
AcDbLine
 10
460.5683044573857
 20
233.2561720914944
 30
0.0
 11
461.1362111811859
 21
234.8164817237945
 31
0.0
  0
LINE
  5
344C
330
1A
100
AcDbEntity
  8
SEIHIN
  6
CONTINUOUS
100
AcDbLine
 10
461.1362111811859
 20
234.8164817237945
 30
0.0
 11
464.4054673461858
 21
234.8164794706945
 31
0.0
  0
ARC
  5
344D
330
1A
100
AcDbEntity
  8
SEIHIN
  6
CONTINUOUS
100
AcDbCircle
 10
640.4235240054859
 20
149.8884202771944
 30
0.0
 40
1.0
100
AcDbArc
 50
270.0
 51
0.0
  0
ARC
  5
344E
330
1A
100
AcDbEntity
  8
SEIHIN
  6
CONTINUOUS
100
AcDbCircle
 10
640.4235240054859
 20
149.1164794706945
 30
0.0
 40
1.0
100
AcDbArc
 50
270.0
 51
0.0
  0
LINE
  5
344F
330
1A
100
AcDbEntity
  8
SEIHIN
  6
CONTINUOUS
100
AcDbLine
 10
625.4235231710858
 20
237.3164793395944
 30
0.0
 11
611.4235240054859
 21
237.3164794706945
 31
0.0
  0
LINE
  5
3450
330
1A
100
AcDbEntity
  8
SEIHIN
  6
CONTINUOUS
100
AcDbLine
 10
583.4235237372858
 20
235.1755401038944
 30
0.0
 11
609.4235242736858
 21
235.1755401038944
 31
0.0
  0
LINE
  5
3451
330
1A
100
AcDbEntity
  8
SEIHIN
  6
CONTINUOUS
100
AcDbLine
 10
567.4235248398859
 20
237.3164793395944
 30
0.0
 11
581.4235240054858
 21
237.3164794706945
 31
0.0
  0
LINE
  5
3452
330
1A
100
AcDbEntity
  8
SEIHIN
  6
CONTINUOUS
100
AcDbLine
 10
565.4235245120857
 20
237.1277114295945
 30
0.0
 11
567.4235248398859
 21
237.1277114295945
 31
0.0
  0
LINE
  5
3453
330
1A
100
AcDbEntity
  8
SEIHIN
  6
CONTINUOUS
100
AcDbLine
 10
567.4235240054859
 20
238.3164794706944
 30
0.0
 11
565.4235240054858
 21
238.3164794706944
 31
0.0
  0
LINE
  5
3454
330
1A
100
AcDbEntity
  8
SEIHIN
  6
CONTINUOUS
100
AcDbLine
 10
567.4235240054859
 20
240.3164794706944
 30
0.0
 11
565.4235240054858
 21
240.3164794706944
 31
0.0
  0
LINE
  5
3455
330
1A
100
AcDbEntity
  8
SEIHIN
  6
CONTINUOUS
100
AcDbLine
 10
565.4235240054858
 20
238.3164794706944
 30
0.0
 11
565.4235240054858
 21
240.2894128499945
 31
0.0
  0
LINE
  5
3456
330
1A
100
AcDbEntity
  8
SEIHIN
  6
CONTINUOUS
100
AcDbLine
 10
565.4235245120857
 20
237.1277114295945
 30
0.0
 11
565.4235240054858
 21
238.3164794706944
 31
0.0
  0
LINE
  5
3457
330
1A
100
AcDbEntity
  8
SEIHIN
  6
CONTINUOUS
100
AcDbLine
 10
565.4235240054858
 20
240.2894128499945
 30
0.0
 11
565.4235240054858
 21
240.3066949599945
 31
0.0
  0
LINE
  5
3458
330
1A
100
AcDbEntity
  8
SEIHIN
  6
CONTINUOUS
100
AcDbLine
 10
565.4235240054858
 20
240.3066949599945
 30
0.0
 11
565.4235240054858
 21
240.3164794706944
 31
0.0
  0
LINE
  5
3459
330
1A
100
AcDbEntity
  8
SEIHIN
  6
CONTINUOUS
100
AcDbLine
 10
567.4235240054859
 20
238.3164794706944
 30
0.0
 11
567.4235240054859
 21
240.2894128499945
 31
0.0
  0
LINE
  5
345A
330
1A
100
AcDbEntity
  8
SEIHIN
  6
CONTINUOUS
100
AcDbLine
 10
567.4235248398859
 20
237.1277114295945
 30
0.0
 11
567.4235240054859
 21
238.3164794706944
 31
0.0
  0
LINE
  5
345B
330
1A
100
AcDbEntity
  8
SEIHIN
  6
CONTINUOUS
100
AcDbLine
 10
567.4235240054859
 20
240.2894128499945
 30
0.0
 11
567.4235240054859
 21
240.3066949599945
 31
0.0
  0
LINE
  5
345C
330
1A
100
AcDbEntity
  8
SEIHIN
  6
CONTINUOUS
100
AcDbLine
 10
567.4235240054859
 20
240.3066949599945
 30
0.0
 11
567.4235240054859
 21
240.3164794706944
 31
0.0
  0
ARC
  5
345D
330
1A
100
AcDbEntity
  8
SEIHIN
  6
CONTINUOUS
100
AcDbCircle
 10
583.3026528670857
 20
237.1428253895945
 30
0.0
 40
1.97099496759997
100
AcDbArc
 50
197.5620319685978
 51
273.5158582134993
  0
LINE
  5
345E
330
1A
100
AcDbEntity
  8
SEIHIN
  6
CONTINUOUS
100
AcDbLine
 10
581.4235240054858
 20
237.3164794706945
 30
0.0
 11
581.4235240054858
 21
236.5480991796945
 31
0.0
  0
LINE
  5
345F
330
1A
100
AcDbEntity
  8
SEIHIN
  6
CONTINUOUS
100
AcDbLine
 10
611.4235240054859
 20
237.3164794706945
 30
0.0
 11
611.4235240054859
 21
236.5480991796945
 31
0.0
  0
ARC
  5
3460
330
1A
100
AcDbEntity
  8
SEIHIN
  6
CONTINUOUS
100
AcDbCircle
 10
609.544395143886
 20
237.1428253895945
 30
0.0
 40
1.97099496759997
100
AcDbArc
 50
266.4841417865007
 51
342.4379680314021
  0
LINE
  5
3461
330
1A
100
AcDbEntity
  8
SEIHIN
  6
CONTINUOUS
100
AcDbLine
 10
641.4235240054859
 20
229.5234285895945
 30
0.0
 11
641.4235240054859
 21
236.3164794706944
 31
0.0
  0
LINE
  5
3462
330
1A
100
AcDbEntity
  8
SEIHIN
  6
CONTINUOUS
100
AcDbLine
 10
640.4235240054859
 20
237.3164794706945
 30
0.0
 11
627.4235234988859
 21
237.3164793395944
 31
0.0
  0
LINE
  5
3463
330
1A
100
AcDbEntity
  8
SEIHIN
  6
CONTINUOUS
100
AcDbLine
 10
625.4235240054859
 20
240.3164794706944
 30
0.0
 11
627.4235240054858
 21
240.3164794706944
 31
0.0
  0
LINE
  5
3464
330
1A
100
AcDbEntity
  8
SEIHIN
  6
CONTINUOUS
100
AcDbLine
 10
625.4235240054859
 20
238.3164794706944
 30
0.0
 11
627.4235240054858
 21
238.3164794706944
 31
0.0
  0
LINE
  5
3465
330
1A
100
AcDbEntity
  8
SEIHIN
  6
CONTINUOUS
100
AcDbLine
 10
627.4235234988859
 20
237.1277114295945
 30
0.0
 11
625.4235231710858
 21
237.1277114295945
 31
0.0
  0
LINE
  5
3466
330
1A
100
AcDbEntity
  8
SEIHIN
  6
CONTINUOUS
100
AcDbLine
 10
627.4235240054858
 20
240.3066949599945
 30
0.0
 11
627.4235240054858
 21
240.3164794706944
 31
0.0
  0
LINE
  5
3467
330
1A
100
AcDbEntity
  8
SEIHIN
  6
CONTINUOUS
100
AcDbLine
 10
627.4235240054858
 20
240.2894128499945
 30
0.0
 11
627.4235240054858
 21
240.3066949599945
 31
0.0
  0
LINE
  5
3468
330
1A
100
AcDbEntity
  8
SEIHIN
  6
CONTINUOUS
100
AcDbLine
 10
627.4235234988859
 20
237.1277114295945
 30
0.0
 11
627.4235240054858
 21
238.3164794706944
 31
0.0
  0
LINE
  5
3469
330
1A
100
AcDbEntity
  8
SEIHIN
  6
CONTINUOUS
100
AcDbLine
 10
627.4235240054858
 20
238.3164794706944
 30
0.0
 11
627.4235240054858
 21
240.2894128499945
 31
0.0
  0
LINE
  5
346A
330
1A
100
AcDbEntity
  8
SEIHIN
  6
CONTINUOUS
100
AcDbLine
 10
625.4235240054859
 20
240.3066949599945
 30
0.0
 11
625.4235240054859
 21
240.3164794706944
 31
0.0
  0
LINE
  5
346B
330
1A
100
AcDbEntity
  8
SEIHIN
  6
CONTINUOUS
100
AcDbLine
 10
625.4235240054859
 20
240.2894128499945
 30
0.0
 11
625.4235240054859
 21
240.3066949599945
 31
0.0
  0
LINE
  5
346C
330
1A
100
AcDbEntity
  8
SEIHIN
  6
CONTINUOUS
100
AcDbLine
 10
625.4235231710858
 20
237.1277114295945
 30
0.0
 11
625.4235240054859
 21
238.3164794706944
 31
0.0
  0
LINE
  5
346D
330
1A
100
AcDbEntity
  8
SEIHIN
  6
CONTINUOUS
100
AcDbLine
 10
625.4235240054859
 20
238.3164794706944
 30
0.0
 11
625.4235240054859
 21
240.2894128499945
 31
0.0
  0
ARC
  5
346E
330
1A
100
AcDbEntity
  8
SEIHIN
  6
CONTINUOUS
100
AcDbCircle
 10
640.4235240054859
 20
236.3164794706944
 30
0.0
 40
1.0
100
AcDbArc
 50
0.0
 51
90.0
  0
LINE
  5
346F
330
1A
100
AcDbEntity
  8
SEIHIN
  6
CONTINUOUS
100
AcDbLine
 10
640.4235240054859
 20
289.6017574167945
 30
0.0
 11
552.4235240054858
 21
289.6017574167945
 31
0.0
  0
LINE
  5
3470
330
1A
100
AcDbEntity
  8
SEIHIN
  6
CONTINUOUS
100
AcDbLine
 10
581.4235240054858
 20
287.4216197702945
 30
0.0
 11
552.1232248675858
 21
287.4216264032945
 31
0.0
  0
LINE
  5
3471
330
1A
100
AcDbEntity
  8
SEIHIN
  6
CONTINUOUS
100
AcDbLine
 10
581.4235240054858
 20
282.6164794706945
 30
0.0
 11
551.4235240054858
 21
282.6164794706945
 31
0.0
  0
DIMENSION
  5
3472
330
1A
100
AcDbEntity
  8
SUNPOU
100
AcDbDimension
  2
*D6
 10
507.9357560758175
 20
347.6835240080457
 30
0.0
 11
502.9357560758175
 21
392.6835240080457
 31
0.0
 70
    32
  3
STANDARD
100
AcDbAlignedDimension
 13
471.9054673461857
 23
437.6835240080457
 33
0.0
 14
471.9054673461857
 24
347.6835240080457
 34
0.0
 50
90.0
100
AcDbRotatedDimension
1001
ACAD
1000
DSTYLE
1002
{
1070
    41
1040
7.0
1070
    42
1040
6.0
1070
    43
1040
14.0
1070
    44
1040
3.0
1070
    73
1070
     0
1070
    74
1070
     0
1070
    77
1070
     3
1070
   140
1040
6.0
1070
   141
1040
30.0
1070
   147
1040
2.0
1070
   172
1070
     1
1070
   176
1070
   256
1070
   177
1070
   256
1070
   178
1070
   256
1070
   271
1070
     0
1070
   272
1070
     0
1070
   341
1005
6D
1070
     5
1000
OPEN
1070
   371
1070
    -1
1070
   372
1070
    -1
1002
}
  0
LINE
  5
3473
330
1A
100
AcDbEntity
  8
SEIHIN
  6
CONTINUOUS
100
AcDbLine
 10
458.5813346723857
 20
377.6835240080457
 30
0.0
 11
458.5813363139859
 21
363.6835248425457
 31
0.0
  0
LINE
  5
3474
330
1A
100
AcDbEntity
  8
SEIHIN
  6
CONTINUOUS
100
AcDbLine
 10
471.9054673461857
 20
348.6835240080456
 30
0.0
 11
471.9054673461857
 21
436.6835240080456
 31
0.0
  0
LINE
  5
3475
330
1A
100
AcDbEntity
  8
SEIHIN
  6
CONTINUOUS
100
AcDbLine
 10
455.6218902142859
 20
347.6835240080457
 30
0.0
 11
455.6218902142859
 21
437.6835240080457
 31
0.0
  0
ARC
  5
3476
330
1A
100
AcDbEntity
  8
SEIHIN
  6
CONTINUOUS
100
AcDbCircle
 10
459.5813346723857
 20
348.6835240080456
 30
0.0
 40
1.0
100
AcDbArc
 50
180.0
 51
270.0
  0
LINE
  5
3477
330
1A
100
AcDbEntity
  8
SEIHIN
  6
CONTINUOUS
100
AcDbLine
 10
466.0775437563857
 20
361.6835240080457
 30
0.0
 11
458.5775437563857
 21
361.6835240080457
 31
0.0
  0
LINE
  5
3478
330
1A
100
AcDbEntity
  8
SEIHIN
  6
CONTINUOUS
100
AcDbLine
 10
466.0775437563857
 20
363.6835240080457
 30
0.0
 11
458.5775437563857
 21
363.6835240080457
 31
0.0
  0
LINE
  5
3479
330
1A
100
AcDbEntity
  8
SEIHIN
  6
CONTINUOUS
100
AcDbLine
 10
458.5813363139859
 20
361.6835245147456
 30
0.0
 11
458.5813346723857
 21
348.6835240080456
 31
0.0
  0
LINE
  5
347A
330
1A
100
AcDbEntity
  8
SEIHIN
  6
CONTINUOUS
100
AcDbLine
 10
458.5775437563857
 20
363.6835240080457
 30
0.0
 11
458.5775437563857
 21
361.6835240080457
 31
0.0
  0
ARC
  5
347B
330
1A
100
AcDbEntity
  8
SEIHIN
  6
CONTINUOUS
100
AcDbCircle
 10
470.9054673461857
 20
348.6835240080456
 30
0.0
 40
1.0
100
AcDbArc
 50
270.0
 51
0.0
  0
LINE
  5
347C
330
1A
100
AcDbEntity
  8
SEIHIN
  6
CONTINUOUS
100
AcDbLine
 10
466.0775437563857
 20
363.6835240080457
 30
0.0
 11
466.0775437563857
 21
361.6835240080457
 31
0.0
  0
ARC
  5
347D
330
1A
100
AcDbEntity
  8
SEIHIN
  6
CONTINUOUS
100
AcDbCircle
 10
552.4235240054858
 20
288.6017574167945
 30
0.0
 40
1.0
100
AcDbArc
 50
90.0
 51
180.0
  0
ARC
  5
347E
330
1A
100
AcDbEntity
  8
SEIHIN
  6
CONTINUOUS
100
AcDbCircle
 10
552.0827421477859
 20
286.7857028872945
 30
0.0
 40
0.6314409087000116
100
AcDbArc
 50
86.32415183410026
 51
167.5700472422997
  0
LINE
  5
347F
330
1A
100
AcDbEntity
  8
SEIHIN
  6
CONTINUOUS
100
AcDbLine
 10
458.5813346723857
 20
407.6835240080456
 30
0.0
 11
458.5813363139859
 21
421.6835231735457
 31
0.0
  0
LINE
  5
3480
330
1A
100
AcDbEntity
  8
SEIHIN
  6
CONTINUOUS
100
AcDbLine
 10
458.7869783477859
 20
407.6835240080456
 30
0.0
 11
461.1362098996858
 21
407.6835240080456
 31
0.0
  0
LINE
  5
3481
330
1A
100
AcDbEntity
  8
SEIHIN
  6
CONTINUOUS
100
AcDbLine
 10
458.7869783477859
 20
377.6835240080457
 30
0.0
 11
461.1362098996858
 21
377.6835240080457
 31
0.0
  0
LINE
  5
3482
330
1A
100
AcDbEntity
  8
SEIHIN
  6
CONTINUOUS
100
AcDbLine
 10
458.5813346723857
 20
377.6835240080457
 30
0.0
 11
458.7321031203857
 21
377.6835240080457
 31
0.0
  0
LINE
  5
3483
330
1A
100
AcDbEntity
  8
SEIHIN
  6
CONTINUOUS
100
AcDbLine
 10
458.7869783477859
 20
377.6835240080457
 30
0.0
 11
458.7321031203857
 21
377.6835240080457
 31
0.0
  0
LINE
  5
3484
330
1A
100
AcDbEntity
  8
SEIHIN
  6
CONTINUOUS
100
AcDbLine
 10
458.7869783477859
 20
407.6835240080456
 30
0.0
 11
458.7321031203857
 21
407.6835240080456
 31
0.0
  0
LINE
  5
3485
330
1A
100
AcDbEntity
  8
SEIHIN
  6
CONTINUOUS
100
AcDbLine
 10
458.5813346723857
 20
407.6835240080456
 30
0.0
 11
458.7321031203857
 21
407.6835240080456
 31
0.0
  0
LINE
  5
3486
330
1A
100
AcDbEntity
  8
SEIHIN
  6
CONTINUOUS
100
AcDbLine
 10
460.3483197336859
 20
407.6835236728457
 30
0.0
 11
460.3483197336859
 21
377.6835243433457
 31
0.0
  0
LINE
  5
3487
330
1A
100
AcDbEntity
  8
SEIHIN
  6
CONTINUOUS
100
AcDbLine
 10
468.5214837138858
 20
377.9433503031456
 30
0.0
 11
468.5214837138858
 21
407.3690151080456
 31
0.0
  0
LINE
  5
3488
330
1A
100
AcDbEntity
  8
SEIHIN
  6
CONTINUOUS
100
AcDbLine
 10
469.6524147932859
 20
379.6835237398456
 30
0.0
 11
469.6524147932859
 21
405.6835242763456
 31
0.0
  0
LINE
  5
3489
330
1A
100
AcDbEntity
  8
SEIHIN
  6
CONTINUOUS
100
AcDbLine
 10
464.4054673461858
 20
377.6835240080457
 30
0.0
 11
467.7123232689857
 21
377.6835240080457
 31
0.0
  0
LINE
  5
348A
330
1A
100
AcDbEntity
  8
SEIHIN
  6
CONTINUOUS
100
AcDbLine
 10
464.4054673461858
 20
377.6835240080457
 30
0.0
 11
461.1362098996858
 21
377.6835240080457
 31
0.0
  0
ARC
  5
348B
330
1A
100
AcDbEntity
  8
SEIHIN
  6
CONTINUOUS
100
AcDbCircle
 10
467.6944373519859
 20
379.6418632576457
 30
0.0
 40
1.958420602500002
100
AcDbArc
 50
270.5233182036026
 51
1.218915825295436
  0
ARC
  5
348C
330
1A
100
AcDbEntity
  8
SEIHIN
  6
CONTINUOUS
100
AcDbCircle
 10
467.6944373519859
 20
405.7251847584457
 30
0.0
 40
1.958420602500002
100
AcDbArc
 50
358.7810841747045
 51
89.47668179639737
  0
LINE
  5
348D
330
1A
100
AcDbEntity
  8
SEIHIN
  6
CONTINUOUS
100
AcDbLine
 10
464.4054673461858
 20
407.6835240080456
 30
0.0
 11
467.7123232689857
 21
407.6835240080456
 31
0.0
  0
LINE
  5
348E
330
1A
100
AcDbEntity
  8
SEIHIN
  6
CONTINUOUS
100
AcDbLine
 10
464.4054673461858
 20
407.6835240080456
 30
0.0
 11
461.1362098996858
 21
407.6835240080456
 31
0.0
  0
LINE
  5
348F
330
1A
100
AcDbEntity
  8
SEIHIN
  6
CONTINUOUS
100
AcDbLine
 10
466.0775437563857
 20
421.6835240080457
 30
0.0
 11
458.5775437563857
 21
421.6835240080457
 31
0.0
  0
LINE
  5
3490
330
1A
100
AcDbEntity
  8
SEIHIN
  6
CONTINUOUS
100
AcDbLine
 10
466.0775437563857
 20
423.6835240080456
 30
0.0
 11
458.5775437563857
 21
423.6835240080456
 31
0.0
  0
ARC
  5
3491
330
1A
100
AcDbEntity
  8
SEIHIN
  6
CONTINUOUS
100
AcDbCircle
 10
459.5813346723857
 20
436.6835240080456
 30
0.0
 40
1.0
100
AcDbArc
 50
90.0
 51
180.0
  0
LINE
  5
3492
330
1A
100
AcDbEntity
  8
SEIHIN
  6
CONTINUOUS
100
AcDbLine
 10
458.5813363139859
 20
423.6835235013457
 30
0.0
 11
458.5813346723857
 21
436.6835240080456
 31
0.0
  0
LINE
  5
3493
330
1A
100
AcDbEntity
  8
SEIHIN
  6
CONTINUOUS
100
AcDbLine
 10
458.5775437563857
 20
421.6835240080457
 30
0.0
 11
458.5775437563857
 21
423.6835240080456
 31
0.0
  0
LINE
  5
3494
330
1A
100
AcDbEntity
  8
SEIHIN
  6
CONTINUOUS
100
AcDbLine
 10
466.0775437563857
 20
421.6835240080457
 30
0.0
 11
466.0775437563857
 21
423.6835240080456
 31
0.0
  0
ARC
  5
3495
330
1A
100
AcDbEntity
  8
SEIHIN
  6
CONTINUOUS
100
AcDbCircle
 10
470.9054673461857
 20
436.6835240080456
 30
0.0
 40
1.0
100
AcDbArc
 50
0.0
 51
90.0
  0
LINE
  5
3496
330
1A
100
AcDbEntity
  8
SEIHIN
  6
CONTINUOUS
100
AcDbLine
 10
611.4235240054859
 20
282.6164794706945
 30
0.0
 11
641.4235240054859
 21
282.6164794706945
 31
0.0
  0
LINE
  5
3497
330
1A
100
AcDbEntity
  8
SEIHIN
  6
CONTINUOUS
100
AcDbLine
 10
611.4235240054859
 20
287.4216197702945
 30
0.0
 11
640.723823143386
 21
287.4216264032945
 31
0.0
  0
LINE
  5
3498
330
1A
100
AcDbEntity
  8
SEIHIN
  6
CONTINUOUS
100
AcDbLine
 10
609.4235242736858
 20
287.8705089830944
 30
0.0
 11
583.4235237372858
 21
287.8705089830944
 31
0.0
  0
LINE
  5
3499
330
1A
100
AcDbEntity
  8
SEIHIN
  6
CONTINUOUS
100
AcDbLine
 10
583.4235237372858
 20
285.2831458591945
 30
0.0
 11
609.4235242736858
 21
285.2831458591945
 31
0.0
  0
ARC
  5
349A
330
1A
100
AcDbEntity
  8
SEIHIN
  6
CONTINUOUS
100
AcDbCircle
 10
582.9018323607859
 20
283.2228067117945
 30
0.0
 40
2.125360979800005
100
AcDbArc
 50
75.79097256129744
 51
134.0715562426048
  0
ARC
  5
349B
330
1A
100
AcDbEntity
  8
SEIHIN
  6
CONTINUOUS
100
AcDbCircle
 10
583.0163455696858
 20
285.3807407029945
 30
0.0
 40
2.522843663199999
100
AcDbArc
 50
80.71203593599658
 51
129.1504928679028
  0
LINE
  5
349C
330
1A
100
AcDbEntity
  8
SEIHIN
  6
CONTINUOUS
100
AcDbLine
 10
581.4235240054858
 20
286.2221582830945
 30
0.0
 11
581.4235240054858
 21
284.4095427089945
 31
0.0
  0
LINE
  5
349D
330
1A
100
AcDbEntity
  8
SEIHIN
  6
CONTINUOUS
100
AcDbLine
 10
581.4235240054858
 20
282.8038638965945
 30
0.0
 11
581.4235240054858
 21
284.4095427089945
 31
0.0
  0
LINE
  5
349E
330
1A
100
AcDbEntity
  8
SEIHIN
  6
CONTINUOUS
100
AcDbLine
 10
581.4235240054858
 20
287.4216197702945
 30
0.0
 11
581.4235240054858
 21
286.9216197702945
 31
0.0
  0
LINE
  5
349F
330
1A
100
AcDbEntity
  8
SEIHIN
  6
CONTINUOUS
100
AcDbLine
 10
581.4235240054858
 20
286.2221582830945
 30
0.0
 11
581.4235240054858
 21
286.9216197702945
 31
0.0
  0
LINE
  5
34A0
330
1A
100
AcDbEntity
  8
SEIHIN
  6
CONTINUOUS
100
AcDbLine
 10
581.4235240054858
 20
282.8038638965945
 30
0.0
 11
581.4235240054858
 21
282.6164794706945
 31
0.0
  0
LINE
  5
34A1
330
1A
100
AcDbEntity
  8
SEIHIN
  6
CONTINUOUS
100
AcDbLine
 10
583.4235237372858
 20
287.8705089830944
 30
0.0
 11
583.4235237372858
 21
285.2831458591945
 31
0.0
  0
LINE
  5
34A2
330
1A
100
AcDbEntity
  8
SEIHIN
  6
CONTINUOUS
100
AcDbLine
 10
611.4235240054859
 20
282.8038638965945
 30
0.0
 11
611.4235240054859
 21
284.4095427089945
 31
0.0
  0
ARC
  5
34A3
330
1A
100
AcDbEntity
  8
SEIHIN
  6
CONTINUOUS
100
AcDbCircle
 10
609.8307024412859
 20
285.3807407029945
 30
0.0
 40
2.522843663199999
100
AcDbArc
 50
50.8495071320971
 51
99.28796406400342
  0
ARC
  5
34A4
330
1A
100
AcDbEntity
  8
SEIHIN
  6
CONTINUOUS
100
AcDbCircle
 10
609.9452156501858
 20
283.2228067117945
 30
0.0
 40
2.125360979800005
100
AcDbArc
 50
45.92844375739516
 51
104.2090274387025
  0
LINE
  5
34A5
330
1A
100
AcDbEntity
  8
SEIHIN
  6
CONTINUOUS
100
AcDbLine
 10
611.4235240054859
 20
286.2221582830945
 30
0.0
 11
611.4235240054859
 21
286.9216197702945
 31
0.0
  0
LINE
  5
34A6
330
1A
100
AcDbEntity
  8
SEIHIN
  6
CONTINUOUS
100
AcDbLine
 10
611.4235240054859
 20
287.4216197702945
 30
0.0
 11
611.4235240054859
 21
286.9216197702945
 31
0.0
  0
LINE
  5
34A7
330
1A
100
AcDbEntity
  8
SEIHIN
  6
CONTINUOUS
100
AcDbLine
 10
611.4235240054859
 20
286.2221582830945
 30
0.0
 11
611.4235240054859
 21
284.4095427089945
 31
0.0
  0
LINE
  5
34A8
330
1A
100
AcDbEntity
  8
SEIHIN
  6
CONTINUOUS
100
AcDbLine
 10
609.4235242736858
 20
287.8705089830944
 30
0.0
 11
609.4235242736858
 21
285.2831458591945
 31
0.0
  0
LINE
  5
34A9
330
1A
100
AcDbEntity
  8
SEIHIN
  6
CONTINUOUS
100
AcDbLine
 10
611.4235240054859
 20
282.8038638965945
 30
0.0
 11
611.4235240054859
 21
282.6164794706945
 31
0.0
  0
ARC
  5
34AA
330
1A
100
AcDbEntity
  8
SEIHIN
  6
CONTINUOUS
100
AcDbCircle
 10
640.7643058631858
 20
286.7857028872945
 30
0.0
 40
0.6314409087000116
100
AcDbArc
 50
12.42995275770024
 51
93.67584816589973
  0
ARC
  5
34AB
330
1A
100
AcDbEntity
  8
SEIHIN
  6
CONTINUOUS
100
AcDbCircle
 10
640.4235240054859
 20
288.6017574167945
 30
0.0
 40
1.0
100
AcDbArc
 50
0.0
 51
90.0
  0
VIEWPORT
  5
22
330
17
100
AcDbEntity
 67
     1
  8
0
100
AcDbViewport
 10
313.6808219178082
 20
148.5
 30
0.0
 40
627.3616438356165
 41
297.0
 68
     2
 69
     1
1001
ACAD
1000
MVIEW
1002
{
1070
    16
1010
0.0
1020
0.0
1030
0.0
1010
0.0
1020
0.0
1030
1.0
1040
0.0
1040
297.0
1040
313.6808219178082
1040
148.5
1040
50.0
1040
0.0
1040
0.0
1070
     0
1070
   100
1070
     1
1070
     0
1070
     0
1070
     0
1070
     0
1070
     0
1040
0.0
1040
0.0
1040
0.0
1040
1.0
1040
1.0
1040
10.0
1040
10.0
1070
     0
1002
{
1002
}
1002
}
  0
VIEWPORT
  5
64
330
17
100
AcDbEntity
 67
     1
  8
VIEWPORT
100
AcDbViewport
 10
210.0
 20
148.5
 30
0.0
 40
420.0
 41
297.0
 68
     1
 69
     2
1001
ACAD
1000
MVIEW
1002
{
1070
    16
1010
0.0
1020
0.0
1030
0.0
1010
0.0
1020
0.0
1030
1.0
1040
0.0
1040
605.8799999999997
1040
420.0
1040
297.0
1040
50.0
1040
0.0
1040
0.0
1070
     0
1070
   100
1070
     1
1070
     0
1070
     0
1070
     0
1070
     0
1070
     0
1040
0.0
1040
0.0
1040
0.0
1040
10.0
1040
10.0
1040
0.0
1040
0.0
1070
     0
1002
{
1002
}
1002
}
  0
ENDSEC
  0
SECTION
  2
OBJECTS
  0
DICTIONARY
  5
C
330
0
100
AcDbDictionary
  3
ACAD_GROUP
350
D
  3
ACAD_LAYOUT
350
8CD
  3
ACAD_MLINESTYLE
350
E
  3
ACAD_PLOTSETTINGS
350
8CE
  3
ACAD_PLOTSTYLENAME
350
8CB
  3
ACDBHEADERROUNDTRIPXREC
350
3531
  0
DICTIONARY
  5
9DE
330
1A
100
AcDbDictionary
280
     1
  3
ACAD_LAYOUTSELFREF
360
3553
  0
DICTIONARY
  5
9DC
330
17
100
AcDbDictionary
280
     1
  3
ACAD_LAYOUTSELFREF
360
3552
  0
DICTIONARY
  5
D
102
{ACAD_REACTORS
330
C
102
}
330
C
100
AcDbDictionary
  3
*A1
350
2642
  0
DICTIONARY
  5
8CD
102
{ACAD_REACTORS
330
C
102
}
330
C
100
AcDbDictionary
  0
DICTIONARY
  5
E
102
{ACAD_REACTORS
330
C
102
}
330
C
100
AcDbDictionary
  3
STANDARD
350
13
  0
DICTIONARY
  5
8CE
102
{ACAD_REACTORS
330
C
102
}
330
C
100
AcDbDictionary
  0
ACDBDICTIONARYWDFLT
  5
8CB
102
{ACAD_REACTORS
330
C
102
}
330
C
100
AcDbDictionary
281
     1
  3
Normal
350
8CC
100
AcDbDictionaryWithDefault
340
8CC
1001
ACAD
1000
TREAT_AS_HARD
1070
     0
1000
TREAT_AS_HARD
1070
     0
1000
TREAT_AS_HARD
1070
     0
1000
TREAT_AS_HARD
1070
     0
1000
TREAT_AS_HARD
1070
     0
1000
TREAT_AS_HARD
1070
     0
1000
TREAT_AS_HARD
1070
     0
1000
TREAT_AS_HARD
1070
     0
1000
TREAT_AS_HARD
1070
     0
1000
TREAT_AS_HARD
1070
     0
1000
TREAT_AS_HARD
1070
     0
  0
DICTIONARY
  5
3531
102
{ACAD_REACTORS
330
C
102
}
330
C
100
AcDbDictionary
  3
TSTACKALIGN
350
3532
  3
TSTACKSIZE
350
3533
  3
HYPERLINKBASE
350
3534
  3
STYLESHEET
350
3535
  3
LAYOUTDICT
350
3536
  3
PLOTSETDICT
350
3537
  3
PLOTSTYLNAMDICT
350
3538
  3
LWETCUNION
350
3539
  3
INSUNITS
350
353A
  3
CEPSNTYPE
350
353B
  3
FINGERPRINTGUID
350
353C
  3
VERSIONGUID
350
353D
  3
PSVPSCALE
350
353E
  3
DIMSTYLEDATA
350
353F
  3
PUCSORTHOREF
350
3540
  3
PUCSORTHOVIEW
350
3541
  3
PUCSBASE
350
3542
  3
PUCSORGTOP
350
3543
  3
PUCSORGBOTTOM
350
3544
  3
PUCSORGLEFT
350
3545
  3
PUCSORGRIGHT
350
3546
  3
PUCSORGFRONT
350
3547
  3
PUCSORGBACK
350
3548
  3
UCSORTHOREF
350
3549
  3
UCSORTHOVIEW
350
354A
  3
UCSBASE
350
354B
  3
UCSORGTOP
350
354C
  3
UCSORGBOTTOM
350
354D
  3
UCSORGLEFT
350
354E
  3
UCSORGRIGHT
350
354F
  3
UCSORGFRONT
350
3550
  3
UCSORGBACK
350
3551
  0
XRECORD
  5
3553
102
{ACAD_REACTORS
330
9DE
102
}
330
9DE
100
AcDbXrecord
340
1A
  0
XRECORD
  5
3552
102
{ACAD_REACTORS
330
9DC
102
}
330
9DC
100
AcDbXrecord
340
17
  0
GROUP
  5
2642
102
{ACAD_REACTORS
330
D
102
}
330
D
100
AcDbGroup
300

 70
     1
 71
     1
  0
MLINESTYLE
  5
13
102
{ACAD_REACTORS
330
E
102
}
330
E
100
AcDbMlineStyle
  2
STANDARD
 70
     0
  3

 62
     0
 51
90.0
 52
90.0
 71
     2
 49
0.5
 62
   256
  6
BYLAYER
 49
-0.5
 62
   256
  6
BYLAYER
  0
ACDBPLACEHOLDER
  5
8CC
102
{ACAD_REACTORS
330
8CB
102
}
330
8CB
100
AcDbPlaceHolder
280
     0
  0
XRECORD
  5
3532
102
{ACAD_REACTORS
330
3531
102
}
330
3531
100
AcDbXrecord
 90
        1
  0
XRECORD
  5
3533
102
{ACAD_REACTORS
330
3531
102
}
330
3531
100
AcDbXrecord
 90
       70
  0
XRECORD
  5
3534
102
{ACAD_REACTORS
330
3531
102
}
330
3531
100
AcDbXrecord
  1

  0
XRECORD
  5
3535
102
{ACAD_REACTORS
330
3531
102
}
330
3531
100
AcDbXrecord
  1
systemprinter.ctb
  0
XRECORD
  5
3536
102
{ACAD_REACTORS
330
3531
102
}
330
3531
100
AcDbXrecord
340
8CD
  0
XRECORD
  5
3537
102
{ACAD_REACTORS
330
3531
102
}
330
3531
100
AcDbXrecord
340
8CE
  0
XRECORD
  5
3538
102
{ACAD_REACTORS
330
3531
102
}
330
3531
100
AcDbXrecord
340
8CB
  0
XRECORD
  5
3539
102
{ACAD_REACTORS
330
3531
102
}
330
3531
100
AcDbXrecord
 90
    10781
  0
XRECORD
  5
353A
102
{ACAD_REACTORS
330
3531
102
}
330
3531
100
AcDbXrecord
 90
        0
  0
XRECORD
  5
353B
102
{ACAD_REACTORS
330
3531
102
}
330
3531
100
AcDbXrecord
 90
        0
  0
XRECORD
  5
353C
102
{ACAD_REACTORS
330
3531
102
}
330
3531
100
AcDbXrecord
  1
{B4B71FC0-A839-11D5-932D-0050DA99388B}
  0
XRECORD
  5
353D
102
{ACAD_REACTORS
330
3531
102
}
330
3531
100
AcDbXrecord
  1
{B1EDB4E7-1A2F-4E69-BFB8-681A4F31FA92}
  0
XRECORD
  5
353E
102
{ACAD_REACTORS
330
3531
102
}
330
3531
100
AcDbXrecord
 40
0.0
  0
XRECORD
  5
353F
102
{ACAD_REACTORS
330
3531
102
}
330
3531
100
AcDbXrecord
1000
DSTYLE
1002
{
1070
   341
340
6D
1070
   343
340
6D
1070
   344
340
6D
1070
   371
 70
    -1
1070
   372
 70
    -1
1002
}
  0
XRECORD
  5
3540
102
{ACAD_REACTORS
330
3531
102
}
330
3531
100
AcDbXrecord
340
0
  0
XRECORD
  5
3541
102
{ACAD_REACTORS
330
3531
102
}
330
3531
100
AcDbXrecord
 70
     0
  0
XRECORD
  5
3542
102
{ACAD_REACTORS
330
3531
102
}
330
3531
100
AcDbXrecord
340
0
  0
XRECORD
  5
3543
102
{ACAD_REACTORS
330
3531
102
}
330
3531
100
AcDbXrecord
 10
0.0
 20
0.0
 30
0.0
  0
XRECORD
  5
3544
102
{ACAD_REACTORS
330
3531
102
}
330
3531
100
AcDbXrecord
 10
0.0
 20
0.0
 30
0.0
  0
XRECORD
  5
3545
102
{ACAD_REACTORS
330
3531
102
}
330
3531
100
AcDbXrecord
 10
0.0
 20
0.0
 30
0.0
  0
XRECORD
  5
3546
102
{ACAD_REACTORS
330
3531
102
}
330
3531
100
AcDbXrecord
 10
0.0
 20
0.0
 30
0.0
  0
XRECORD
  5
3547
102
{ACAD_REACTORS
330
3531
102
}
330
3531
100
AcDbXrecord
 10
0.0
 20
0.0
 30
0.0
  0
XRECORD
  5
3548
102
{ACAD_REACTORS
330
3531
102
}
330
3531
100
AcDbXrecord
 10
0.0
 20
0.0
 30
0.0
  0
XRECORD
  5
3549
102
{ACAD_REACTORS
330
3531
102
}
330
3531
100
AcDbXrecord
340
0
  0
XRECORD
  5
354A
102
{ACAD_REACTORS
330
3531
102
}
330
3531
100
AcDbXrecord
 70
     0
  0
XRECORD
  5
354B
102
{ACAD_REACTORS
330
3531
102
}
330
3531
100
AcDbXrecord
340
0
  0
XRECORD
  5
354C
102
{ACAD_REACTORS
330
3531
102
}
330
3531
100
AcDbXrecord
 10
0.0
 20
0.0
 30
0.0
  0
XRECORD
  5
354D
102
{ACAD_REACTORS
330
3531
102
}
330
3531
100
AcDbXrecord
 10
0.0
 20
0.0
 30
0.0
  0
XRECORD
  5
354E
102
{ACAD_REACTORS
330
3531
102
}
330
3531
100
AcDbXrecord
 10
0.0
 20
0.0
 30
0.0
  0
XRECORD
  5
354F
102
{ACAD_REACTORS
330
3531
102
}
330
3531
100
AcDbXrecord
 10
0.0
 20
0.0
 30
0.0
  0
XRECORD
  5
3550
102
{ACAD_REACTORS
330
3531
102
}
330
3531
100
AcDbXrecord
 10
0.0
 20
0.0
 30
0.0
  0
XRECORD
  5
3551
102
{ACAD_REACTORS
330
3531
102
}
330
3531
100
AcDbXrecord
 10
0.0
 20
0.0
 30
0.0
  0
ENDSEC
  0
EOF
