  0
SECTION
  2
HEADER
  9
$ACADVER
  1
AC1014
  9
$ACADMAINTVER
 70
     9
  9
$DWGCODEPAGE
  3
ANSI_932
  9
$INSBASE
 10
0.0
 20
0.0
 30
0.0
  9
$EXTMIN
 10
-0.0256328098773793
 20
-0.0181261901288963
 30
-0.0015258207003583
  9
$EXTMAX
 10
797.6000995626677
 20
551.6452344786116
 30
0.0000000349246037
  9
$LIMMIN
 10
0.0
 20
0.0
  9
$LIMMAX
 10
840.0
 20
594.0
  9
$ORTHOMODE
 70
     0
  9
$REGENMODE
 70
     1
  9
$FILLMODE
 70
     1
  9
$QTEXTMODE
 70
     0
  9
$MIRRTEXT
 70
     1
  9
$DRAGMODE
 70
     2
  9
$LTSCALE
 40
2.0
  9
$OSMODE
 70
    35
  9
$ATTMODE
 70
     1
  9
$TEXTSIZE
 40
5.0
  9
$TRACEWID
 40
1.0
  9
$TEXTSTYLE
  7
STANDARD
  9
$CLAYER
  8
0
  9
$CELTYPE
  6
BYLAYER
  9
$CECOLOR
 62
   256
  9
$CELTSCALE
 40
1.0
  9
$DELOBJ
 70
     1
  9
$DISPSILH
 70
     0
  9
$DIMSCALE
 40
1.0
  9
$DIMASZ
 40
7.0
  9
$DIMEXO
 40
6.0
  9
$DIMDLI
 40
14.0
  9
$DIMRND
 40
0.0
  9
$DIMDLE
 40
0.0
  9
$DIMEXE
 40
3.0
  9
$DIMTP
 40
0.0
  9
$DIMTM
 40
0.0
  9
$DIMTXT
 40
6.0
  9
$DIMCEN
 40
150.0
  9
$DIMTSZ
 40
0.0
  9
$DIMTOL
 70
     0
  9
$DIMLIM
 70
     0
  9
$DIMTIH
 70
     0
  9
$DIMTOH
 70
     0
  9
$DIMSE1
 70
     0
  9
$DIMSE2
 70
     0
  9
$DIMTAD
 70
     3
  9
$DIMZIN
 70
     0
  9
$DIMBLK
  1

  9
$DIMASO
 70
     1
  9
$DIMSHO
 70
     1
  9
$DIMPOST
  1

  9
$DIMAPOST
  1

  9
$DIMALT
 70
     0
  9
$DIMALTD
 70
     2
  9
$DIMALTF
 40
25.4
  9
$DIMLFAC
 40
1.0
  9
$DIMTOFL
 70
     1
  9
$DIMTVP
 40
0.0
  9
$DIMTIX
 70
     0
  9
$DIMSOXD
 70
     0
  9
$DIMSAH
 70
     1
  9
$DIMBLK1
  1
OPEN
  9
$DIMBLK2
  1
OPEN
  9
$DIMSTYLE
  2
STANDARD
  9
$DIMCLRD
 70
   256
  9
$DIMCLRE
 70
   256
  9
$DIMCLRT
 70
   256
  9
$DIMTFAC
 40
1.0
  9
$DIMGAP
 40
2.0
  9
$DIMJUST
 70
     0
  9
$DIMSD1
 70
     0
  9
$DIMSD2
 70
     0
  9
$DIMTOLJ
 70
     1
  9
$DIMTZIN
 70
     0
  9
$DIMALTZ
 70
     0
  9
$DIMALTTZ
 70
     0
  9
$DIMFIT
 70
     3
  9
$DIMUPT
 70
     0
  9
$DIMUNIT
 70
     2
  9
$DIMDEC
 70
     0
  9
$DIMTDEC
 70
     0
  9
$DIMALTU
 70
     2
  9
$DIMALTTD
 70
     2
  9
$DIMTXSTY
  7
STANDARD
  9
$DIMAUNIT
 70
     0
  9
$LUNITS
 70
     2
  9
$LUPREC
 70
     4
  9
$SKETCHINC
 40
1.0
  9
$FILLETRAD
 40
20.0
  9
$AUNITS
 70
     0
  9
$AUPREC
 70
     0
  9
$MENU
  1
.
  9
$ELEVATION
 40
0.0
  9
$PELEVATION
 40
0.0
  9
$THICKNESS
 40
0.0
  9
$LIMCHECK
 70
     0
  9
$BLIPMODE
 70
     0
  9
$CHAMFERA
 40
0.0
  9
$CHAMFERB
 40
0.0
  9
$CHAMFERC
 40
40.0
  9
$CHAMFERD
 40
0.0
  9
$SKPOLY
 70
     0
  9
$TDCREATE
 40
2451159.834708796
  9
$TDUPDATE
 40
2454216.556945706
  9
$TDINDWG
 40
0.2724275694
  9
$TDUSRTIMER
 40
0.2724273843
  9
$USRTIMER
 70
     1
  9
$ANGBASE
 50
0.0
  9
$ANGDIR
 70
     0
  9
$PDMODE
 70
     0
  9
$PDSIZE
 40
0.0
  9
$PLINEWID
 40
0.0
  9
$COORDS
 70
     0
  9
$SPLFRAME
 70
     0
  9
$SPLINETYPE
 70
     6
  9
$SPLINESEGS
 70
     8
  9
$ATTDIA
 70
     0
  9
$ATTREQ
 70
     1
  9
$HANDLING
 70
 10241
  9
$HANDSEED
  5
5E57
  9
$SURFTAB1
 70
     6
  9
$SURFTAB2
 70
     6
  9
$SURFTYPE
 70
     6
  9
$SURFU
 70
     6
  9
$SURFV
 70
     6
  9
$UCSNAME
  2

  9
$UCSORG
 10
0.0
 20
0.0
 30
0.0
  9
$UCSXDIR
 10
1.0
 20
0.0
 30
0.0
  9
$UCSYDIR
 10
0.0
 20
1.0
 30
0.0
  9
$PUCSNAME
  2

  9
$PUCSORG
 10
0.0
 20
0.0
 30
0.0
  9
$PUCSXDIR
 10
1.0
 20
0.0
 30
0.0
  9
$PUCSYDIR
 10
0.0
 20
1.0
 30
0.0
  9
$USERI1
 70
     0
  9
$USERI2
 70
     0
  9
$USERI3
 70
     0
  9
$USERI4
 70
     0
  9
$USERI5
 70
     0
  9
$USERR1
 40
0.0
  9
$USERR2
 40
0.0
  9
$USERR3
 40
0.0
  9
$USERR4
 40
0.0
  9
$USERR5
 40
0.0
  9
$WORLDVIEW
 70
     1
  9
$SHADEDGE
 70
     3
  9
$SHADEDIF
 70
    70
  9
$TILEMODE
 70
     1
  9
$MAXACTVP
 70
    16
  9
$PINSBASE
 10
0.0
 20
0.0
 30
0.0
  9
$PLIMCHECK
 70
     0
  9
$PEXTMIN
 10
0.0
 20
0.0
 30
0.0
  9
$PEXTMAX
 10
420.0
 20
297.0
 30
0.0
  9
$PLIMMIN
 10
0.0
 20
0.0
  9
$PLIMMAX
 10
420.0
 20
297.0
  9
$UNITMODE
 70
     0
  9
$VISRETAIN
 70
     0
  9
$PLINEGEN
 70
     0
  9
$PSLTSCALE
 70
     1
  9
$TREEDEPTH
 70
  3020
  9
$PICKSTYLE
 70
     1
  9
$CMLSTYLE
  2
STANDARD
  9
$CMLJUST
 70
     0
  9
$CMLSCALE
 40
1.0
  9
$PROXYGRAPHICS
 70
     1
  9
$MEASUREMENT
 70
     1
  0
ENDSEC
  0
SECTION
  2
CLASSES
  0
CLASS
  1
ACDBDICTIONARYWDFLT
  2
AcDbDictionaryWithDefault
  3
AutoCAD 2000
 90
        0
280
     0
281
     0
  0
CLASS
  1
ACDBPLACEHOLDER
  2
AcDbPlaceHolder
  3
AutoCAD 2000
 90
        0
280
     0
281
     0
  0
CLASS
  1
LAYOUT
  2
AcDbLayout
  3
AutoCAD 2000
 90
        0
280
     0
281
     0
  0
CLASS
  1
LONG_TRANSACTION
  2
AcDbLongTransaction
  3
AutoCAD 2000
 90
        0
280
     0
281
     0
  0
CLASS
  1
LWPOLYLINE
  2
AcDbPolyline
  3
AutoCAD 2000
 90
        0
280
     0
281
     1
  0
CLASS
  1
HATCH
  2
AcDbHatch
  3
AutoCAD 2000
 90
        0
280
     0
281
     1
  0
CLASS
  1
XRECORD
  2
AcDbXrecord
  3
AutoCAD 2000
 90
        0
280
     0
281
     0
  0
CLASS
  1
LONG_TRANSACTION
  2
AcDbLongTransaction
  3
AutoCAD 2000
 90
        0
280
     0
281
     0
  0
CLASS
  1
LWPOLYLINE
  2
AcDbPolyline
  3
AutoCAD 2000
 90
        0
280
     0
281
     1
  0
CLASS
  1
HATCH
  2
AcDbHatch
  3
AutoCAD 2000
 90
        0
280
     0
281
     1
  0
CLASS
  1
XRECORD
  2
AcDbXrecord
  3
AutoCAD 2000
 90
        0
280
     0
281
     0
  0
CLASS
  1
LONG_TRANSACTION
  2
AcDbLongTransaction
  3
AutoCAD 2000
 90
        0
280
     0
281
     0
  0
CLASS
  1
LWPOLYLINE
  2
AcDbPolyline
  3
AutoCAD 2000
 90
        0
280
     0
281
     1
  0
CLASS
  1
HATCH
  2
AcDbHatch
  3
AutoCAD 2000
 90
        0
280
     0
281
     1
  0
CLASS
  1
XRECORD
  2
AcDbXrecord
  3
AutoCAD 2000
 90
        0
280
     0
281
     0
  0
CLASS
  1
LONG_TRANSACTION
  2
AcDbLongTransaction
  3
AutoCAD 2000
 90
        0
280
     0
281
     0
  0
CLASS
  1
LWPOLYLINE
  2
AcDbPolyline
  3
AutoCAD 2000
 90
        0
280
     0
281
     1
  0
CLASS
  1
HATCH
  2
AcDbHatch
  3
AutoCAD 2000
 90
        0
280
     0
281
     1
  0
CLASS
  1
XRECORD
  2
AcDbXrecord
  3
AutoCAD 2000
 90
        0
280
     0
281
     0
  0
CLASS
  1
LONG_TRANSACTION
  2
AcDbLongTransaction
  3
AutoCAD 2000
 90
        0
280
     0
281
     0
  0
CLASS
  1
LWPOLYLINE
  2
AcDbPolyline
  3
AutoCAD 2000
 90
        0
280
     0
281
     1
  0
CLASS
  1
HATCH
  2
AcDbHatch
  3
AutoCAD 2000
 90
        0
280
     0
281
     1
  0
CLASS
  1
XRECORD
  2
AcDbXrecord
  3
AutoCAD 2000
 90
        0
280
     0
281
     0
  0
CLASS
  1
LONG_TRANSACTION
  2
AcDbLongTransaction
  3
AutoCAD 2000
 90
        0
280
     0
281
     0
  0
CLASS
  1
LWPOLYLINE
  2
AcDbPolyline
  3
AutoCAD 2000
 90
        0
280
     0
281
     1
  0
CLASS
  1
HATCH
  2
AcDbHatch
  3
AutoCAD 2000
 90
        0
280
     0
281
     1
  0
CLASS
  1
XRECORD
  2
AcDbXrecord
  3
AutoCAD 2000
 90
        0
280
     0
281
     0
  0
CLASS
  1
LONG_TRANSACTION
  2
AcDbLongTransaction
  3
AutoCAD 2000
 90
        0
280
     0
281
     0
  0
CLASS
  1
LWPOLYLINE
  2
AcDbPolyline
  3
AutoCAD 2000
 90
        0
280
     0
281
     1
  0
CLASS
  1
HATCH
  2
AcDbHatch
  3
AutoCAD 2000
 90
        0
280
     0
281
     1
  0
CLASS
  1
XRECORD
  2
AcDbXrecord
  3
AutoCAD 2000
 90
        0
280
     0
281
     0
  0
CLASS
  1
LONG_TRANSACTION
  2
AcDbLongTransaction
  3
AutoCAD 2000
 90
        0
280
     0
281
     0
  0
CLASS
  1
LWPOLYLINE
  2
AcDbPolyline
  3
AutoCAD 2000
 90
        0
280
     0
281
     1
  0
CLASS
  1
HATCH
  2
AcDbHatch
  3
AutoCAD 2000
 90
        0
280
     0
281
     1
  0
CLASS
  1
XRECORD
  2
AcDbXrecord
  3
AutoCAD 2000
 90
        0
280
     0
281
     0
  0
CLASS
  1
LONG_TRANSACTION
  2
AcDbLongTransaction
  3
AutoCAD 2000
 90
        0
280
     0
281
     0
  0
CLASS
  1
LWPOLYLINE
  2
AcDbPolyline
  3
AutoCAD 2000
 90
        0
280
     0
281
     1
  0
CLASS
  1
HATCH
  2
AcDbHatch
  3
AutoCAD 2000
 90
        0
280
     0
281
     1
  0
CLASS
  1
XRECORD
  2
AcDbXrecord
  3
AutoCAD 2000
 90
        0
280
     0
281
     0
  0
CLASS
  1
LONG_TRANSACTION
  2
AcDbLongTransaction
  3
AutoCAD 2000
 90
        0
280
     0
281
     0
  0
CLASS
  1
LWPOLYLINE
  2
AcDbPolyline
  3
AutoCAD 2000
 90
        0
280
     0
281
     1
  0
CLASS
  1
HATCH
  2
AcDbHatch
  3
AutoCAD 2000
 90
        0
280
     0
281
     1
  0
CLASS
  1
XRECORD
  2
AcDbXrecord
  3
AutoCAD 2000
 90
        0
280
     0
281
     0
  0
ENDSEC
  0
SECTION
  2
TABLES
  0
TABLE
  2
VPORT
  5
8
330
0
100
AcDbSymbolTable
 70
     2
  0
VPORT
  5
5DE6
330
8
100
AcDbSymbolTableRecord
100
AcDbViewportTableRecord
  2
*ACTIVE
 70
     0
 10
0.0
 20
0.0
 11
1.0
 21
1.0
 12
448.1478113414245
 22
320.0923932330118
 13
0.0
 23
0.0
 14
5.0
 24
5.0
 15
0.0
 25
0.0
 16
0.0
 26
0.0
 36
1.0
 17
0.0
 27
0.0
 37
0.0
 40
703.0837108657348
 41
1.566326530612244
 42
50.0
 43
0.0
 44
0.0
 50
0.0
 51
0.0
 71
     0
 72
   100
 73
     1
 74
     0
 75
     0
 76
     0
 77
     0
 78
     0
  0
ENDTAB
  0
TABLE
  2
LTYPE
  5
5
330
0
100
AcDbSymbolTable
 70
     3
  0
LTYPE
  5
14
330
5
100
AcDbSymbolTableRecord
100
AcDbLinetypeTableRecord
  2
BYBLOCK
 70
     0
  3

 72
    65
 73
     0
 40
0.0
  0
LTYPE
  5
15
330
5
100
AcDbSymbolTableRecord
100
AcDbLinetypeTableRecord
  2
BYLAYER
 70
     0
  3

 72
    65
 73
     0
 40
0.0
  0
LTYPE
  5
16
330
5
100
AcDbSymbolTableRecord
100
AcDbLinetypeTableRecord
  2
CONTINUOUS
 70
     0
  3
Solid line
 72
    65
 73
     0
 40
0.0
  0
LTYPE
  5
135
330
5
100
AcDbSymbolTableRecord
100
AcDbLinetypeTableRecord
  2
CENTER
 70
     0
  3
____ _ ____ _ ____ _ ____ _ ____ _ ____ _ ____ 
 72
    65
 73
     4
 40
2.0
 49
1.25
 74
     0
 49
-0.25
 74
     0
 49
0.25
 74
     0
 49
-0.25
 74
     0
  0
LTYPE
  5
47FE
330
5
100
AcDbSymbolTableRecord
100
AcDbLinetypeTableRecord
  2
PHANTOM
 70
     0
  3
______  __  __  ______  __  __  ______  __  __ 
 72
    65
 73
     6
 40
2.5
 49
1.25
 74
     0
 49
-0.25
 74
     0
 49
0.25
 74
     0
 49
-0.25
 74
     0
 49
0.25
 74
     0
 49
-0.25
 74
     0
  0
ENDTAB
  0
TABLE
  2
LAYER
  5
2
330
0
100
AcDbSymbolTable
 70
     9
  0
LAYER
  5
F
330
2
100
AcDbSymbolTableRecord
100
AcDbLayerTableRecord
  2
0
 70
     0
 62
     7
  6
CONTINUOUS
  0
LAYER
  5
62
330
2
100
AcDbSymbolTableRecord
100
AcDbLayerTableRecord
  2
VIEWPORT
 70
     0
 62
     7
  6
CONTINUOUS
  0
LAYER
  5
65
330
2
100
AcDbSymbolTableRecord
100
AcDbLayerTableRecord
  2
ZUWAKU
 70
     0
 62
     7
  6
CONTINUOUS
  0
LAYER
  5
144
330
2
100
AcDbSymbolTableRecord
100
AcDbLayerTableRecord
  2
SEIHIN
 70
     0
 62
     3
  6
CONTINUOUS
  0
LAYER
  5
2B4
330
2
100
AcDbSymbolTableRecord
100
AcDbLayerTableRecord
  2
SUNPOU
 70
     0
 62
     4
  6
CONTINUOUS
  0
LAYER
  5
43A
330
2
100
AcDbSymbolTableRecord
100
AcDbLayerTableRecord
  2
DEFPOINTS
 70
     0
 62
     7
  6
CONTINUOUS
  0
LAYER
  5
47FF
330
2
100
AcDbSymbolTableRecord
100
AcDbLayerTableRecord
  2
NOKITOI
 70
     0
 62
     9
  6
PHANTOM
  0
LAYER
  5
51CF
330
2
100
AcDbSymbolTableRecord
100
AcDbLayerTableRecord
  2
MOJI
 70
     0
 62
     2
  6
CONTINUOUS
  0
LAYER
  5
5418
330
2
100
AcDbSymbolTableRecord
100
AcDbLayerTableRecord
  2
CENTER_L
 70
     0
 62
     1
  6
CENTER
  0
ENDTAB
  0
TABLE
  2
STYLE
  5
3
330
0
100
AcDbSymbolTable
 70
     2
  0
STYLE
  5
10
330
3
100
AcDbSymbolTableRecord
100
AcDbTextStyleTableRecord
  2
STANDARD
 70
     0
 40
0.0
 41
1.0
 50
0.0
 71
     0
 42
5.0
  3
TXT
  4
A:\Program Files\AutoCAD LT\ms\bigfont.shx
  0
STYLE
  5
51D0
330
3
100
AcDbSymbolTableRecord
100
AcDbTextStyleTableRecord
  2
ｽﾀｲﾙ1
 70
     0
 40
0.0
 41
1.0
 50
0.0
 71
     0
 42
2.5
  3
MS PGothic.ttf
  4

1001
ACAD
1000
MS PGothic
1071
    32818
  0
ENDTAB
  0
TABLE
  2
VIEW
  5
6
330
0
100
AcDbSymbolTable
 70
     0
  0
ENDTAB
  0
TABLE
  2
UCS
  5
7
330
0
100
AcDbSymbolTable
 70
     0
  0
ENDTAB
  0
TABLE
  2
APPID
  5
9
330
0
100
AcDbSymbolTable
 70
     1
  0
APPID
  5
11
330
9
100
AcDbSymbolTableRecord
100
AcDbRegAppTableRecord
  2
ACAD
 70
     0
  0
ENDTAB
  0
TABLE
  2
DIMSTYLE
  5
A
330
0
100
AcDbSymbolTable
 70
     1
  0
DIMSTYLE
105
1D
102
{ACAD_REACTORS
330
5B35
330
5B36
330
5B37
330
5B38
330
5B52
330
5B61
330
5B6C
330
5B6E
102
}
330
A
100
AcDbSymbolTableRecord
100
AcDbDimStyleTableRecord
  2
STANDARD
 70
     0
  3

  4

  5

  6

  7

 40
1.0
 41
0.18
 42
0.0625
 43
0.38
 44
0.18
 45
0.0
 46
0.0
 47
0.0
 48
0.0
140
0.18
141
0.09
142
0.0
143
25.4
144
1.0
145
0.0
146
1.0
147
0.09
 71
     0
 72
     0
 73
     1
 74
     1
 75
     0
 76
     0
 77
     0
 78
     0
170
     0
171
     2
172
     0
173
     0
174
     0
175
     0
176
     0
177
     0
178
     0
270
     2
271
     4
272
     4
273
     2
274
     2
340
10
275
     0
280
     0
281
     0
282
     0
283
     1
284
     0
285
     0
286
     0
287
     3
288
     0
  0
ENDTAB
  0
TABLE
  2
BLOCK_RECORD
  5
1
330
0
100
AcDbSymbolTable
 70
    10
  0
BLOCK_RECORD
  5
1A
102
{ACAD_XDICTIONARY
360
6C6
102
}
330
1
100
AcDbSymbolTableRecord
100
AcDbBlockTableRecord
  2
*MODEL_SPACE
  0
BLOCK_RECORD
  5
17
102
{ACAD_XDICTIONARY
360
6C4
102
}
330
1
100
AcDbSymbolTableRecord
100
AcDbBlockTableRecord
  2
*PAPER_SPACE
  0
BLOCK_RECORD
  5
6D
330
1
100
AcDbSymbolTableRecord
100
AcDbBlockTableRecord
  2
_OPEN
  0
BLOCK_RECORD
  5
53AC
330
1
100
AcDbSymbolTableRecord
100
AcDbBlockTableRecord
  2
_OPEN30
  0
BLOCK_RECORD
  5
5D2E
330
1
100
AcDbSymbolTableRecord
100
AcDbBlockTableRecord
  2
*D2
  0
BLOCK_RECORD
  5
5D3A
330
1
100
AcDbSymbolTableRecord
100
AcDbBlockTableRecord
  2
*D3
  0
BLOCK_RECORD
  5
5D46
330
1
100
AcDbSymbolTableRecord
100
AcDbBlockTableRecord
  2
*D4
  0
BLOCK_RECORD
  5
5D54
330
1
100
AcDbSymbolTableRecord
100
AcDbBlockTableRecord
  2
*D5
  0
BLOCK_RECORD
  5
5D62
330
1
100
AcDbSymbolTableRecord
100
AcDbBlockTableRecord
  2
*D6
  0
BLOCK_RECORD
  5
5D6E
330
1
100
AcDbSymbolTableRecord
100
AcDbBlockTableRecord
  2
*D7
  0
BLOCK_RECORD
  5
5D7A
330
1
100
AcDbSymbolTableRecord
100
AcDbBlockTableRecord
  2
*D8
  0
BLOCK_RECORD
  5
5D87
330
1
100
AcDbSymbolTableRecord
100
AcDbBlockTableRecord
  2
*D9
  0
ENDTAB
  0
ENDSEC
  0
SECTION
  2
BLOCKS
  0
BLOCK
  5
1B
330
1A
100
AcDbEntity
  8
0
100
AcDbBlockBegin
  2
*MODEL_SPACE
 70
     0
 10
0.0
 20
0.0
 30
0.0
  3
*MODEL_SPACE
  1

  0
ENDBLK
  5
1C
330
1A
100
AcDbEntity
  8
0
100
AcDbBlockEnd
  0
BLOCK
  5
18
330
17
100
AcDbEntity
 67
     1
  8
0
100
AcDbBlockBegin
  2
*PAPER_SPACE
 70
     0
 10
0.0
 20
0.0
 30
0.0
  3
*PAPER_SPACE
  1

  0
ENDBLK
  5
19
330
17
100
AcDbEntity
 67
     1
  8
0
100
AcDbBlockEnd
  0
BLOCK
  5
6E
330
6D
100
AcDbEntity
  8
0
100
AcDbBlockBegin
  2
_OPEN
 70
     0
 10
0.0
 20
0.0
 30
0.0
  3
_OPEN
  1

  0
LINE
  5
6F
330
6D
100
AcDbEntity
  8
0
  6
BYBLOCK
 62
     0
100
AcDbLine
 10
-1.0
 20
0.1666666666666666
 30
0.0
 11
0.0
 21
0.0
 31
0.0
  0
LINE
  5
70
330
6D
100
AcDbEntity
  8
0
  6
BYBLOCK
 62
     0
100
AcDbLine
 10
0.0
 20
0.0
 30
0.0
 11
-1.0
 21
-0.1666666666666666
 31
0.0
  0
LINE
  5
71
330
6D
100
AcDbEntity
  8
0
  6
BYBLOCK
 62
     0
100
AcDbLine
 10
0.0
 20
0.0
 30
0.0
 11
-1.0
 21
0.0
 31
0.0
  0
ENDBLK
  5
72
330
6D
100
AcDbEntity
  8
0
100
AcDbBlockEnd
  0
BLOCK
  5
53B0
330
53AC
100
AcDbEntity
  8
0
100
AcDbBlockBegin
  2
_OPEN30
 70
     0
 10
0.0
 20
0.0
 30
0.0
  3
_OPEN30
  1

  0
LINE
  5
53AD
330
53AC
100
AcDbEntity
  8
ZUWAKU
 62
     0
100
AcDbLine
 10
-1.0
 20
0.26794919
 30
0.0
 11
0.0
 21
0.0
 31
0.0
  0
LINE
  5
53AE
330
53AC
100
AcDbEntity
  8
ZUWAKU
 62
     0
100
AcDbLine
 10
0.0
 20
0.0
 30
0.0
 11
-1.0
 21
-0.26794919
 31
0.0
  0
LINE
  5
53AF
330
53AC
100
AcDbEntity
  8
ZUWAKU
 62
     0
100
AcDbLine
 10
0.0
 20
0.0
 30
0.0
 11
-1.0
 21
0.0
 31
0.0
  0
ENDBLK
  5
53B1
330
53AC
100
AcDbEntity
  8
0
100
AcDbBlockEnd
  0
BLOCK
  5
5D38
330
5D2E
100
AcDbEntity
  8
0
100
AcDbBlockBegin
  2
*D2
 70
     1
 10
0.0
 20
0.0
 30
0.0
  3
*D2
  1

  0
LINE
  5
5E0A
330
5D2E
100
AcDbEntity
  8
SUNPOU
100
AcDbLine
 10
231.7389285257911
 20
305.6578790703681
 30
0.0
 11
201.7350778806819
 21
305.6578790703681
 31
0.0
  0
LINE
  5
5E0B
330
5D2E
100
AcDbEntity
  8
SUNPOU
100
AcDbLine
 10
230.3710436910908
 20
279.2686192435683
 30
0.0
 11
201.7350778806819
 21
279.2686192435683
 31
0.0
  0
LINE
  5
5E0C
330
5D2E
100
AcDbEntity
  8
SUNPOU
100
AcDbLine
 10
204.7350778806819
 20
298.6578790703681
 30
0.0
 11
204.7350778806819
 21
286.2686192435683
 31
0.0
  0
INSERT
  5
5E0D
330
5D2E
100
AcDbEntity
  8
SUNPOU
100
AcDbBlockReference
  2
_OPEN
 10
204.7350778806819
 20
305.6578790703681
 30
0.0
 41
7.0
 42
7.0
 43
7.0
 50
90.0
  0
INSERT
  5
5E0E
330
5D2E
100
AcDbEntity
  8
SUNPOU
100
AcDbBlockReference
  2
_OPEN
 10
204.7350778806819
 20
279.2686192435683
 30
0.0
 41
7.0
 42
7.0
 43
7.0
 50
270.0
  0
MTEXT
  5
5E0F
330
5D2E
100
AcDbEntity
  8
SUNPOU
100
AcDbMText
 10
199.7350778806819
 20
292.4632491569683
 30
0.0
 40
6.0
 41
0.0
 71
     5
 72
     1
  1
\A1;26
 11
0.0000000000000001
 21
1.0
 31
0.0
  0
POINT
  5
5E10
330
5D2E
100
AcDbEntity
  8
DEFPOINTS
 62
     0
100
AcDbPoint
 10
237.7389285257911
 20
305.6578790703681
 30
0.0
  0
POINT
  5
5E11
330
5D2E
100
AcDbEntity
  8
DEFPOINTS
 62
     0
100
AcDbPoint
 10
236.3710436910908
 20
279.2686192435683
 30
0.0
  0
POINT
  5
5E12
330
5D2E
100
AcDbEntity
  8
DEFPOINTS
 62
     0
100
AcDbPoint
 10
204.7350778806819
 20
279.2686192435683
 30
0.0
  0
ENDBLK
  5
5D39
330
5D2E
100
AcDbEntity
  8
0
100
AcDbBlockEnd
  0
BLOCK
  5
5D44
330
5D3A
100
AcDbEntity
  8
0
100
AcDbBlockBegin
  2
*D3
 70
     1
 10
0.0
 20
0.0
 30
0.0
  3
*D3
  1

  0
LINE
  5
5E13
330
5D3A
100
AcDbEntity
  8
SUNPOU
100
AcDbLine
 10
231.7389285257911
 20
305.6578790703681
 30
0.0
 11
185.0402735002178
 21
305.6578790703681
 31
0.0
  0
LINE
  5
5E14
330
5D3A
100
AcDbEntity
  8
SUNPOU
100
AcDbLine
 10
333.4210436910907
 20
163.7686192435684
 30
0.0
 11
185.0402735002178
 21
163.7686192435684
 31
0.0
  0
LINE
  5
5E15
330
5D3A
100
AcDbEntity
  8
SUNPOU
100
AcDbLine
 10
188.0402735002178
 20
298.6578790703681
 30
0.0
 11
188.0402735002178
 21
170.7686192435684
 31
0.0
  0
INSERT
  5
5E16
330
5D3A
100
AcDbEntity
  8
SUNPOU
100
AcDbBlockReference
  2
_OPEN
 10
188.0402735002178
 20
305.6578790703681
 30
0.0
 41
7.0
 42
7.0
 43
7.0
 50
90.0
  0
INSERT
  5
5E17
330
5D3A
100
AcDbEntity
  8
SUNPOU
100
AcDbBlockReference
  2
_OPEN
 10
188.0402735002178
 20
163.7686192435684
 30
0.0
 41
7.0
 42
7.0
 43
7.0
 50
270.0
  0
MTEXT
  5
5E18
330
5D3A
100
AcDbEntity
  8
SUNPOU
100
AcDbMText
 10
183.0402735002178
 20
234.7132491569683
 30
0.0
 40
6.0
 41
0.0
 71
     5
 72
     1
  1
\A1;142
 11
0.0000000000000001
 21
1.0
 31
0.0
  0
POINT
  5
5E19
330
5D3A
100
AcDbEntity
  8
DEFPOINTS
 62
     0
100
AcDbPoint
 10
237.7389285257911
 20
305.6578790703681
 30
0.0
  0
POINT
  5
5E1A
330
5D3A
100
AcDbEntity
  8
DEFPOINTS
 62
     0
100
AcDbPoint
 10
339.4210436910907
 20
163.7686192435684
 30
0.0
  0
POINT
  5
5E1B
330
5D3A
100
AcDbEntity
  8
DEFPOINTS
 62
     0
100
AcDbPoint
 10
188.0402735002178
 20
163.7686192435684
 30
0.0
  0
ENDBLK
  5
5D45
330
5D3A
100
AcDbEntity
  8
0
100
AcDbBlockEnd
  0
BLOCK
  5
5D52
330
5D46
100
AcDbEntity
  8
0
100
AcDbBlockBegin
  2
*D4
 70
     1
 10
0.0
 20
0.0
 30
0.0
  3
*D4
  1

  0
LINE
  5
5E1C
330
5D46
100
AcDbEntity
  8
SUNPOU
100
AcDbLine
 10
150.7504054825436
 20
159.9704579927679
 30
0.0
 11
150.7504054825436
 21
123.5626633174601
 31
0.0
  0
LINE
  5
5E1D
330
5D46
100
AcDbEntity
  8
SUNPOU
100
AcDbLine
 10
153.7504054825436
 20
168.7056744043678
 30
0.0
 11
153.7504054825436
 21
123.5626633174601
 31
0.0
  0
LINE
  5
5E1E
330
5D46
100
AcDbEntity
  8
SUNPOU
100
AcDbLine
 10
143.7504054825436
 20
126.5626633174602
 30
0.0
 11
136.7504054825436
 21
126.5626633174602
 31
0.0
  0
LINE
  5
5E1F
330
5D46
100
AcDbEntity
  8
SUNPOU
100
AcDbLine
 10
160.7504054825436
 20
126.5626633174602
 30
0.0
 11
175.7504054825436
 21
126.5626633174602
 31
0.0
  0
LINE
  5
5E20
330
5D46
100
AcDbEntity
  8
SUNPOU
100
AcDbLine
 10
150.7504054825436
 20
126.5626633174602
 30
0.0
 11
153.7504054825436
 21
126.5626633174602
 31
0.0
  0
INSERT
  5
5E21
330
5D46
100
AcDbEntity
  8
SUNPOU
100
AcDbBlockReference
  2
_OPEN
 10
150.7504054825436
 20
126.5626633174602
 30
0.0
 41
7.0
 42
7.0
 43
7.0
  0
INSERT
  5
5E22
330
5D46
100
AcDbEntity
  8
SUNPOU
100
AcDbBlockReference
  2
_OPEN
 10
153.7504054825436
 20
126.5626633174602
 30
0.0
 41
7.0
 42
7.0
 43
7.0
 50
180.0
  0
MTEXT
  5
5E23
330
5D46
100
AcDbEntity
  8
SUNPOU
100
AcDbMText
 10
171.7504054825436
 20
131.5626633174602
 30
0.0
 40
6.0
 41
0.0
 71
     5
 72
     1
  1
\A1;3
  0
POINT
  5
5E24
330
5D46
100
AcDbEntity
  8
DEFPOINTS
 62
     0
100
AcDbPoint
 10
150.7504054825436
 20
165.9704579927679
 30
0.0
  0
POINT
  5
5E25
330
5D46
100
AcDbEntity
  8
DEFPOINTS
 62
     0
100
AcDbPoint
 10
153.7504054825436
 20
174.7056744043678
 30
0.0
  0
POINT
  5
5E26
330
5D46
100
AcDbEntity
  8
DEFPOINTS
 62
     0
100
AcDbPoint
 10
153.7504054825436
 20
126.5626633174602
 30
0.0
  0
ENDBLK
  5
5D53
330
5D46
100
AcDbEntity
  8
0
100
AcDbBlockEnd
  0
BLOCK
  5
5D60
330
5D54
100
AcDbEntity
  8
0
100
AcDbBlockBegin
  2
*D5
 70
     1
 10
0.0
 20
0.0
 30
0.0
  3
*D5
  1

  0
LINE
  5
5E27
330
5D54
100
AcDbEntity
  8
SUNPOU
100
AcDbLine
 10
153.7504054825436
 20
273.2056744043678
 30
0.0
 11
153.7504054825436
 21
250.9999085711249
 31
0.0
  0
LINE
  5
5E28
330
5D54
100
AcDbEntity
  8
SUNPOU
100
AcDbLine
 10
156.7504054825436
 20
273.2056744043678
 30
0.0
 11
156.7504054825436
 21
250.9999085711249
 31
0.0
  0
LINE
  5
5E29
330
5D54
100
AcDbEntity
  8
SUNPOU
100
AcDbLine
 10
146.7504054825436
 20
253.9999085711249
 30
0.0
 11
139.7504054825436
 21
253.9999085711249
 31
0.0
  0
LINE
  5
5E2A
330
5D54
100
AcDbEntity
  8
SUNPOU
100
AcDbLine
 10
163.7504054825436
 20
253.9999085711249
 30
0.0
 11
178.7504054825436
 21
253.9999085711249
 31
0.0
  0
LINE
  5
5E2B
330
5D54
100
AcDbEntity
  8
SUNPOU
100
AcDbLine
 10
153.7504054825436
 20
253.9999085711249
 30
0.0
 11
156.7504054825436
 21
253.9999085711249
 31
0.0
  0
INSERT
  5
5E2C
330
5D54
100
AcDbEntity
  8
SUNPOU
100
AcDbBlockReference
  2
_OPEN
 10
153.7504054825436
 20
253.9999085711249
 30
0.0
 41
7.0
 42
7.0
 43
7.0
  0
INSERT
  5
5E2D
330
5D54
100
AcDbEntity
  8
SUNPOU
100
AcDbBlockReference
  2
_OPEN
 10
156.7504054825436
 20
253.9999085711249
 30
0.0
 41
7.0
 42
7.0
 43
7.0
 50
180.0
  0
MTEXT
  5
5E2E
330
5D54
100
AcDbEntity
  8
SUNPOU
100
AcDbMText
 10
174.7504054825436
 20
258.9999085711249
 30
0.0
 40
6.0
 41
0.0
 71
     5
 72
     1
  1
\A1;3
  0
POINT
  5
5E2F
330
5D54
100
AcDbEntity
  8
DEFPOINTS
 62
     0
100
AcDbPoint
 10
153.7504054825436
 20
279.2056744043678
 30
0.0
  0
POINT
  5
5E30
330
5D54
100
AcDbEntity
  8
DEFPOINTS
 62
     0
100
AcDbPoint
 10
156.7504054825436
 20
279.2056744043678
 30
0.0
  0
POINT
  5
5E31
330
5D54
100
AcDbEntity
  8
DEFPOINTS
 62
     0
100
AcDbPoint
 10
156.7504054825436
 20
253.9999085711249
 30
0.0
  0
ENDBLK
  5
5D61
330
5D54
100
AcDbEntity
  8
0
100
AcDbBlockEnd
  0
BLOCK
  5
5D6C
330
5D62
100
AcDbEntity
  8
0
100
AcDbBlockBegin
  2
*D6
 70
     1
 10
0.0
 20
0.0
 30
0.0
  3
*D6
  1

  0
LINE
  5
5E32
330
5D62
100
AcDbEntity
  8
SUNPOU
100
AcDbLine
 10
294.2638550434688
 20
158.7861789015305
 30
0.0
 11
294.2638550434688
 21
123.5626633174601
 31
0.0
  0
LINE
  5
5E33
330
5D62
100
AcDbEntity
  8
SUNPOU
100
AcDbLine
 10
384.7730836010612
 20
158.794983806267
 30
0.0
 11
384.7730836010612
 21
123.5626633174601
 31
0.0
  0
LINE
  5
5E34
330
5D62
100
AcDbEntity
  8
SUNPOU
100
AcDbLine
 10
301.2638550434688
 20
126.5626633174602
 30
0.0
 11
377.7730836010612
 21
126.5626633174602
 31
0.0
  0
INSERT
  5
5E35
330
5D62
100
AcDbEntity
  8
SUNPOU
100
AcDbBlockReference
  2
_OPEN
 10
294.2638550434688
 20
126.5626633174602
 30
0.0
 41
7.0
 42
7.0
 43
7.0
 50
180.0
  0
INSERT
  5
5E36
330
5D62
100
AcDbEntity
  8
SUNPOU
100
AcDbBlockReference
  2
_OPEN
 10
384.7730836010612
 20
126.5626633174602
 30
0.0
 41
7.0
 42
7.0
 43
7.0
  0
MTEXT
  5
5E37
330
5D62
100
AcDbEntity
  8
SUNPOU
100
AcDbMText
 10
339.5184693222649
 20
131.5626633174602
 30
0.0
 40
6.0
 41
0.0
 71
     5
 72
     1
  1
\A1;91
  0
POINT
  5
5E38
330
5D62
100
AcDbEntity
  8
DEFPOINTS
 62
     0
100
AcDbPoint
 10
294.2638550434688
 20
164.7861789015305
 30
0.0
  0
POINT
  5
5E39
330
5D62
100
AcDbEntity
  8
DEFPOINTS
 62
     0
100
AcDbPoint
 10
384.7730836010612
 20
164.794983806267
 30
0.0
  0
POINT
  5
5E3A
330
5D62
100
AcDbEntity
  8
DEFPOINTS
 62
     0
100
AcDbPoint
 10
384.7730836010612
 20
126.5626633174602
 30
0.0
  0
ENDBLK
  5
5D6D
330
5D62
100
AcDbEntity
  8
0
100
AcDbBlockEnd
  0
BLOCK
  5
5D78
330
5D6E
100
AcDbEntity
  8
0
100
AcDbBlockBegin
  2
*D7
 70
     1
 10
0.0
 20
0.0
 30
0.0
  3
*D7
  1

  0
LINE
  5
5E3B
330
5D6E
100
AcDbEntity
  8
SUNPOU
100
AcDbLine
 10
123.7504054825436
 20
311.3783154101679
 30
0.0
 11
123.7504054825436
 21
340.4549760455804
 31
0.0
  0
LINE
  5
5E3C
330
5D6E
100
AcDbEntity
  8
SUNPOU
100
AcDbLine
 10
156.7504054825436
 20
310.0278262099678
 30
0.0
 11
156.7504054825436
 21
340.4549760455804
 31
0.0
  0
LINE
  5
5E3D
330
5D6E
100
AcDbEntity
  8
SUNPOU
100
AcDbLine
 10
130.7504054825436
 20
337.4549760455804
 30
0.0
 11
149.7504054825436
 21
337.4549760455804
 31
0.0
  0
INSERT
  5
5E3E
330
5D6E
100
AcDbEntity
  8
SUNPOU
100
AcDbBlockReference
  2
_OPEN
 10
123.7504054825436
 20
337.4549760455804
 30
0.0
 41
7.0
 42
7.0
 43
7.0
 50
180.0
  0
INSERT
  5
5E3F
330
5D6E
100
AcDbEntity
  8
SUNPOU
100
AcDbBlockReference
  2
_OPEN
 10
156.7504054825436
 20
337.4549760455804
 30
0.0
 41
7.0
 42
7.0
 43
7.0
  0
MTEXT
  5
5E40
330
5D6E
100
AcDbEntity
  8
SUNPOU
100
AcDbMText
 10
140.2504054825436
 20
342.4549760455804
 30
0.0
 40
6.0
 41
0.0
 71
     5
 72
     1
  1
\A1;33
  0
POINT
  5
5E41
330
5D6E
100
AcDbEntity
  8
DEFPOINTS
 62
     0
100
AcDbPoint
 10
123.7504054825436
 20
305.3783154101679
 30
0.0
  0
POINT
  5
5E42
330
5D6E
100
AcDbEntity
  8
DEFPOINTS
 62
     0
100
AcDbPoint
 10
156.7504054825436
 20
304.0278262099679
 30
0.0
  0
POINT
  5
5E43
330
5D6E
100
AcDbEntity
  8
DEFPOINTS
 62
     0
100
AcDbPoint
 10
156.7504054825436
 20
337.4549760455804
 30
0.0
  0
ENDBLK
  5
5D79
330
5D6E
100
AcDbEntity
  8
0
100
AcDbBlockEnd
  0
BLOCK
  5
5D85
330
5D7A
100
AcDbEntity
  8
0
100
AcDbBlockBegin
  2
*D8
 70
     1
 10
0.0
 20
0.0
 30
0.0
  3
*D8
  1

  0
LINE
  5
5E44
330
5D7A
100
AcDbEntity
  8
SUNPOU
100
AcDbLine
 10
231.4191992767908
 20
450.5841616124471
 30
0.0
 11
201.7350778806821
 21
450.5841616124471
 31
0.0
  0
LINE
  5
5E45
330
5D7A
100
AcDbEntity
  8
SUNPOU
100
AcDbLine
 10
291.9959310344907
 20
426.0532276434969
 30
0.0
 11
201.735077880682
 21
426.0532276434969
 31
0.0
  0
LINE
  5
5E46
330
5D7A
100
AcDbEntity
  8
SUNPOU
100
AcDbLine
 10
204.735077880682
 20
443.5841616124471
 30
0.0
 11
204.735077880682
 21
433.0532276434969
 31
0.0
  0
LINE
  5
5E47
330
5D7A
100
AcDbEntity
  8
SUNPOU
100
AcDbLine
 10
204.735077880682
 20
426.0532276434969
 30
0.0
 11
204.735077880682
 21
390.2532276434969
 31
0.0
  0
INSERT
  5
5E48
330
5D7A
100
AcDbEntity
  8
SUNPOU
100
AcDbBlockReference
  2
_OPEN
 10
204.7350778806821
 20
450.5841616124471
 30
0.0
 41
7.0
 42
7.0
 43
7.0
 50
90.0
  0
INSERT
  5
5E49
330
5D7A
100
AcDbEntity
  8
SUNPOU
100
AcDbBlockReference
  2
_OPEN
 10
204.735077880682
 20
426.0532276434969
 30
0.0
 41
7.0
 42
7.0
 43
7.0
 50
270.0
  0
MTEXT
  5
5E4A
330
5D7A
100
AcDbEntity
  8
SUNPOU
100
AcDbMText
 10
199.735077880682
 20
404.653227643497
 30
0.0
 40
6.0
 41
0.0
 71
     5
 72
     1
  1
\A1;\U+203B24.5
 11
0.0000000000000001
 21
1.0
 31
0.0
  0
POINT
  5
5E4B
330
5D7A
100
AcDbEntity
  8
DEFPOINTS
 62
     0
100
AcDbPoint
 10
237.4191992767908
 20
450.5841616124471
 30
0.0
  0
POINT
  5
5E4C
330
5D7A
100
AcDbEntity
  8
DEFPOINTS
 62
     0
100
AcDbPoint
 10
297.9959310344908
 20
426.0532276434969
 30
0.0
  0
POINT
  5
5E4D
330
5D7A
100
AcDbEntity
  8
DEFPOINTS
 62
     0
100
AcDbPoint
 10
204.735077880682
 20
426.0532276434969
 30
0.0
  0
ENDBLK
  5
5D86
330
5D7A
100
AcDbEntity
  8
0
100
AcDbBlockEnd
  0
BLOCK
  5
5D91
330
5D87
100
AcDbEntity
  8
0
100
AcDbBlockBegin
  2
*D9
 70
     1
 10
0.0
 20
0.0
 30
0.0
  3
*D9
  1

  0
LINE
  5
5E4E
330
5D87
100
AcDbEntity
  8
SUNPOU
100
AcDbLine
 10
395.285718991591
 20
309.6551343783683
 30
0.0
 11
395.285718991591
 21
340.4549760455804
 31
0.0
  0
LINE
  5
5E4F
330
5D87
100
AcDbEntity
  8
SUNPOU
100
AcDbLine
 10
236.3710436910908
 20
310.7214021705681
 30
0.0
 11
236.3710436910908
 21
340.4549760455804
 31
0.0
  0
LINE
  5
5E50
330
5D87
100
AcDbEntity
  8
SUNPOU
100
AcDbLine
 10
388.285718991591
 20
337.4549760455804
 30
0.0
 11
243.3710436910907
 21
337.4549760455804
 31
0.0
  0
INSERT
  5
5E51
330
5D87
100
AcDbEntity
  8
SUNPOU
100
AcDbBlockReference
  2
_OPEN
 10
395.285718991591
 20
337.4549760455804
 30
0.0
 41
7.0
 42
7.0
 43
7.0
  0
INSERT
  5
5E52
330
5D87
100
AcDbEntity
  8
SUNPOU
100
AcDbBlockReference
  2
_OPEN
 10
236.3710436910908
 20
337.4549760455804
 30
0.0
 41
7.0
 42
7.0
 43
7.0
 50
180.0
  0
MTEXT
  5
5E53
330
5D87
100
AcDbEntity
  8
SUNPOU
100
AcDbMText
 10
315.8283813413409
 20
342.4549760455804
 30
0.0
 40
6.0
 41
0.0
 71
     5
 72
     1
  1
\A1;159
  0
POINT
  5
5E54
330
5D87
100
AcDbEntity
  8
DEFPOINTS
 62
     0
100
AcDbPoint
 10
395.285718991591
 20
303.6551343783683
 30
0.0
  0
POINT
  5
5E55
330
5D87
100
AcDbEntity
  8
DEFPOINTS
 62
     0
100
AcDbPoint
 10
236.3710436910908
 20
304.7214021705681
 30
0.0
  0
POINT
  5
5E56
330
5D87
100
AcDbEntity
  8
DEFPOINTS
 62
     0
100
AcDbPoint
 10
236.3710436910908
 20
337.4549760455804
 30
0.0
  0
ENDBLK
  5
5D92
330
5D87
100
AcDbEntity
  8
0
100
AcDbBlockEnd
  0
ENDSEC
  0
SECTION
  2
ENTITIES
  0
TEXT
  5
4F7
330
1A
100
AcDbEntity
  8
SUNPOU
 62
     4
100
AcDbText
 10
683.0721434841443
 20
36.11754564219644
 30
0.0
 40
6.0
  1
※　のきといの差込み寸法を示す
100
AcDbText
  0
LINE
  5
52E5
330
1A
100
AcDbEntity
  8
ZUWAKU
100
AcDbLine
 10
208.646601303624
 20
15.19999986828872
 30
0.0
 11
447.4243639845474
 21
15.19999986828871
 31
0.0
  0
LINE
  5
52E6
330
1A
100
AcDbEntity
  8
ZUWAKU
100
AcDbLine
 10
208.646601303624
 20
15.59999986828871
 30
0.0
 11
447.4243639845474
 21
15.59999986828872
 31
0.0
  0
LINE
  5
52E7
330
1A
100
AcDbEntity
  8
ZUWAKU
100
AcDbLine
 10
208.646601303624
 20
15.39999986828871
 30
0.0
 11
447.4243639845474
 21
15.39999986828871
 31
0.0
  0
LINE
  5
52E8
330
1A
100
AcDbEntity
  8
ZUWAKU
100
AcDbLine
 10
0.0000000135560185
 20
30.79999986828869
 30
0.0
 11
797.4000000135559
 21
30.79999986828869
 31
0.0
  0
LINE
  5
52E9
330
1A
100
AcDbEntity
  8
ZUWAKU
100
AcDbLine
 10
0.0000000135560185
 20
30.59999986828869
 30
0.0
 11
797.4000000135559
 21
30.59999986828869
 31
0.0
  0
LINE
  5
52EA
330
1A
100
AcDbEntity
  8
ZUWAKU
100
AcDbLine
 10
0.0000000135560185
 20
30.39999986828869
 30
0.0
 11
797.4000000135559
 21
30.39999986828869
 31
0.0
  0
LINE
  5
52EB
330
1A
100
AcDbEntity
  8
ZUWAKU
100
AcDbLine
 10
0.0000000135560185
 20
30.19999986828868
 30
0.0
 11
797.4000000135559
 21
30.19999986828868
 31
0.0
  0
LINE
  5
52EC
330
1A
100
AcDbEntity
  8
ZUWAKU
100
AcDbLine
 10
0.0000000135560185
 20
29.99999986828868
 30
0.0
 11
797.4000000135559
 21
29.99999986828868
 31
0.0
  0
LWPOLYLINE
  5
52ED
330
1A
100
AcDbEntity
  8
ZUWAKU
100
AcDbPolyline
 90
        4
 70
     1
 43
0.0
 10
0.2000000135559503
 20
551.3999998682887
 10
0.2000000135559503
 20
0.1999998682887281
 10
797.4000000135559
 20
0.1999998682887511
 10
797.4000000135561
 20
551.3999998682887
  0
LWPOLYLINE
  5
52EE
330
1A
100
AcDbEntity
  8
ZUWAKU
100
AcDbPolyline
 90
        4
 70
     1
 43
0.0
 10
0.6000000135559276
 20
550.9999998682888
 10
0.6000000135559276
 20
0.5999998682887054
 10
797.0000000135562
 20
0.5999998682887516
 10
797.000000013556
 20
550.9999998682888
  0
LWPOLYLINE
  5
52EF
330
1A
100
AcDbEntity
  8
ZUWAKU
100
AcDbPolyline
 90
        4
 70
     1
 43
0.0
 10
0.0000000135560185
 20
551.5999998682887
 10
0.0000000135560185
 20
-0.0000001317113174
 10
797.6000000135561
 20
-0.0000001317112499
 10
797.6000000135561
 20
551.5999998682888
  0
LWPOLYLINE
  5
52F0
330
1A
100
AcDbEntity
  8
ZUWAKU
100
AcDbPolyline
 90
        4
 70
     1
 43
0.0
 10
0.4000000135559958
 20
551.1999998682887
 10
0.4000000135559958
 20
0.3999998682887735
 10
797.200000013556
 20
0.3999998682887504
 10
797.200000013556
 20
551.1999998682887
  0
LWPOLYLINE
  5
52F1
330
1A
100
AcDbEntity
  8
ZUWAKU
100
AcDbPolyline
 90
        4
 70
     1
 43
0.0
 10
0.800000013555973
 20
550.7999998682887
 10
0.800000013555973
 20
0.7999998682887508
 10
796.8000000135559
 20
0.7999998682887508
 10
796.8000000135559
 20
550.7999998682887
  0
TEXT
  5
52F2
330
1A
100
AcDbEntity
  8
MOJI
100
AcDbText
 10
92.95778960172516
 20
12.74117799856344
 30
0.0
 40
6.0
  1
アートフェイスＶＭ１６０
 41
0.9
  7
ｽﾀｲﾙ1
100
AcDbText
  0
HATCH
  5
52F3
330
1A
100
AcDbEntity
  8
ZUWAKU
100
AcDbHatch
 10
0.0
 20
0.0
 30
0.0
210
0.0
220
0.0
230
1.0
  2
ANSI37
 70
     0
 71
     0
 91
        8
 92
        7
 72
     1
 73
     1
 93
       24
 10
14.50226267467587
 20
17.64484834927226
 42
-0.1989123673796348
 10
14.09221216833714
 20
18.63479784293331
 42
0.0
 10
14.09221216833714
 20
19.92499986828869
 42
-0.4142135623730912
 10
14.61721216833711
 20
20.44999986828868
 42
0.0
 10
17.59221216833702
 20
20.44999986828868
 42
0.4142135623731546
 10
18.11721216833712
 20
20.97499986828867
 42
0.0
 10
18.11721216833712
 20
22.72499986828869
 42
0.4142135623731586
 10
17.59221216833702
 20
23.24999986828868
 42
0.0
 10
14.09221216833714
 20
23.24999986828868
 42
0.4142135623730928
 10
11.29221216833718
 20
20.44999986828871
 42
0.0
 10
11.29221216833718
 20
18.63479784293344
 42
0.1989123673796619
 10
12.52236368735361
 20
15.66494936194983
 42
0.0
 10
15.43216166199829
 20
12.75515138730518
 42
-0.1989123673796613
 10
15.84221216833714
 20
11.76520189364399
 42
0.0
 10
15.84221216833714
 20
10.47499986828867
 42
-0.4142135623730911
 10
15.31721216833716
 20
9.949999868288685
 42
0.0
 10
12.34221216833725
 20
9.949999868288685
 42
0.4142135623731526
 10
11.81721216833716
 20
9.424999868288697
 42
0.0
 10
11.81721216833716
 20
7.674999868288676
 42
0.4142135623731526
 10
12.34221216833725
 20
7.149999868288688
 42
0.0
 10
15.84221216833714
 20
7.149999868288688
 42
0.4142135623731044
 10
18.64221216833721
 20
9.949999868288664
 42
0.0
 10
18.64221216833721
 20
11.76520189364393
 42
0.1989123673796604
 10
17.41206064932066
 20
14.73505037462747
 42
0.0
 97
        0
 92
        7
 72
     1
 73
     1
 93
       16
 10
23.54221216833718
 20
19.04999986828869
 42
-0.4142135623730935
 10
24.94221216833716
 20
20.44999986828868
 42
0.0
 10
26.86721216833712
 20
20.44999986828868
 42
0.4142135623731546
 10
27.39221216833721
 20
20.97499986828867
 42
0.0
 10
27.39221216833721
 20
22.72499986828869
 42
0.4142135623730951
 10
26.86721216833723
 20
23.24999986828868
 42
0.0
 10
24.94221216833705
 20
23.24999986828864
 42
0.4142135623730892
 10
20.74221216833711
 20
19.04999986828862
 42
0.0
 10
20.74221216833711
 20
11.34999986828871
 42
0.4142135623730969
 10
24.94221216833716
 20
7.149999868288688
 42
0.0
 10
26.86721216833712
 20
7.149999868288688
 42
0.4142135623731526
 10
27.39221216833721
 20
7.674999868288676
 42
0.0
 10
27.39221216833721
 20
9.424999868288697
 42
0.4142135623730891
 10
26.86721216833723
 20
9.949999868288685
 42
0.0
 10
24.94221216833716
 20
9.949999868288685
 42
-0.4142135623730928
 10
23.54221216833718
 20
11.34999986828867
 42
0.0
 97
        0
 92
        7
 72
     1
 73
     1
 93
        2
 10
24.24221216833712
 20
15.19999986828868
 42
1.0
 10
27.74221216833712
 20
15.19999986828868
 42
1.0
 97
        0
 92
        7
 72
     1
 73
     1
 93
       26
 10
37.31485865051513
 20
19.20504706185211
 42
0.0
 10
38.37649828365295
 20
22.5669059001217
 42
0.5069206636600134
 10
37.87586738445759
 20
23.24999986828868
 42
0.0
 10
36.17697800484836
 20
23.24999986828868
 42
0.3272098845218764
 10
35.676347105653
 20
22.88309383645565
 42
0.0
 10
33.80807723102122
 20
16.96690590012176
 42
-0.3272098845219541
 10
33.30744633182575
 20
16.59999986828868
 42
0.0
 10
33.1672121683373
 20
16.59999986828868
 42
-0.4142135623731526
 10
32.64221216833721
 20
17.12499986828867
 42
0.0
 10
32.64221216833721
 20
22.72499986828869
 42
0.4142135623730951
 10
32.11721216833723
 20
23.24999986828868
 42
0.0
 10
30.36721216833711
 20
23.24999986828868
 42
0.4142135623730871
 10
29.84221216833714
 20
22.7249998682887
 42
0.0
 10
29.84221216833714
 20
7.674999868288676
 42
0.4142135623730891
 10
30.36721216833711
 20
7.149999868288688
 42
0.0
 10
32.11721216833712
 20
7.149999868288688
 42
0.4142135623731526
 10
32.64221216833721
 20
7.674999868288676
 42
0.0
 10
32.64221216833721
 20
13.27499986828869
 42
-0.4142135623731526
 10
33.1672121683373
 20
13.79999986828868
 42
0.0
 10
33.30744633182587
 20
13.79999986828868
 42
-0.3272098845218915
 10
33.80807723102122
 20
13.43309383645561
 42
0.0
 10
35.676347105653
 20
7.516905900121759
 42
0.3272098845218902
 10
36.17697800484836
 20
7.149999868288688
 42
0.0
 10
37.87586738445759
 20
7.149999868288688
 42
0.5069206636600335
 10
38.37649828365295
 20
7.833093836455695
 42
0.0
 10
36.05010690517929
 20
15.19999986828882
 42
0.0
 97
        0
 92
        7
 72
     1
 73
     1
 93
        8
 10
43.49221216833711
 20
22.7249998682887
 42
0.4142135623731546
 10
42.96721216833702
 20
23.24999986828868
 42
0.0
 10
41.21721216833726
 20
23.24999986828868
 42
0.4142135623731507
 10
40.69221216833716
 20
22.7249998682887
 42
0.0
 10
40.69221216833716
 20
7.674999868288676
 42
0.4142135623731526
 10
41.21721216833726
 20
7.149999868288688
 42
0.0
 10
42.96721216833702
 20
7.149999868288688
 42
0.4142135623731526
 10
43.49221216833711
 20
7.674999868288676
 42
0.0
 97
        0
 92
        7
 72
     1
 73
     1
 93
       24
 10
48.3922121683372
 20
19.92499986828869
 42
-0.4142135623731546
 10
48.9172121683373
 20
20.44999986828868
 42
0.0
 10
51.89221216833721
 20
20.44999986828868
 42
0.4142135623730911
 10
52.41721216833719
 20
20.97499986828867
 42
0.0
 10
52.41721216833719
 20
22.72499986828869
 42
0.4142135623730952
 10
51.89221216833721
 20
23.24999986828868
 42
0.0
 10
48.3922121683372
 20
23.24999986828868
 42
0.4142135623731048
 10
45.59221216833714
 20
20.44999986828871
 42
0.0
 10
45.59221216833714
 20
18.63479784293344
 42
0.1989123673796613
 10
46.82236368735368
 20
15.66494936194989
 42
0.0
 10
49.73216166199836
 20
12.75515138730522
 42
-0.1989123673796402
 10
50.14221216833721
 20
11.76520189364415
 42
0.0
 10
50.14221216833721
 20
10.47499986828867
 42
-0.4142135623730911
 10
49.61721216833723
 20
9.949999868288685
 42
0.0
 10
46.64221216833721
 20
9.949999868288685
 42
0.4142135623731526
 10
46.11721216833712
 20
9.424999868288697
 42
0.0
 10
46.11721216833712
 20
7.674999868288676
 42
0.4142135623730891
 10
46.64221216833709
 20
7.149999868288688
 42
0.0
 10
50.14221216833721
 20
7.149999868288688
 42
0.4142135623730925
 10
52.94221216833716
 20
9.949999868288664
 42
0.0
 10
52.94221216833716
 20
11.76520189364393
 42
0.1989123673796675
 10
51.71206064932062
 20
14.73505037462759
 42
0.0
 10
48.80226267467605
 20
17.6448483492721
 42
-0.1989123673796652
 10
48.3922121683372
 20
18.63479784293327
 42
0.0
 97
        0
 92
        7
 72
     1
 73
     1
 93
       16
 10
57.84221216833714
 20
22.72499986828867
 42
0.414213562373103
 10
57.31721216833716
 20
23.24999986828868
 42
0.0
 10
55.56721216833716
 20
23.24999986828868
 42
0.4142135623730871
 10
55.04221216833719
 20
22.7249998682887
 42
0.0
 10
55.04221216833719
 20
9.949999868288664
 42
0.4142135623730926
 10
57.84221216833714
 20
7.149999868288688
 42
0.0
 10
61.34221216833714
 20
7.149999868288688
 42
0.4142135623731044
 10
64.14221216833721
 20
9.949999868288664
 42
0.0
 10
64.14221216833721
 20
22.72499986828869
 42
0.4142135623730951
 10
63.61721216833723
 20
23.24999986828868
 42
0.0
 10
61.86721216833712
 20
23.24999986828868
 42
0.4142135623730871
 10
61.34221216833714
 20
22.7249998682887
 42
0.0
 10
61.34221216833714
 20
10.99999986828866
 42
-0.414213562373088
 10
60.29221216833718
 20
9.949999868288685
 42
0.0
 10
58.89221216833721
 20
9.949999868288685
 42
-0.4142135623731197
 10
57.84221216833714
 20
10.99999986828866
 42
0.0
 97
        0
 92
        7
 72
     1
 73
     1
 93
        8
 10
69.04221216833718
 20
22.7249998682887
 42
0.4142135623730871
 10
68.51721216833721
 20
23.24999986828868
 42
0.0
 10
66.76721216833721
 20
23.24999986828868
 42
0.4142135623731507
 10
66.24221216833712
 20
22.7249998682887
 42
0.0
 10
66.24221216833712
 20
7.674999868288676
 42
0.4142135623730891
 10
66.76721216833709
 20
7.149999868288688
 42
0.0
 10
68.51721216833721
 20
7.149999868288688
 42
0.4142135623730891
 10
69.04221216833718
 20
7.674999868288676
 42
0.0
 97
        0
 75
     0
 76
     1
 52
0.0
 41
0.2
 77
     0
 78
     2
 53
45.0
 43
-900.942304321123
 44
-13.20000013171124
 45
-0.4490128060534576
 46
0.4490128060534577
 79
     0
 53
135.0
 43
-900.942304321123
 44
-13.20000013171124
 45
-0.4490128060534577
 46
-0.4490128060534576
 79
     0
 47
0.057451373970553
 98
        8
 10
16.07985497657932
 20
15.16717351417423
 10
22.40451501999519
 20
18.84406205073969
 10
25.16436789921567
 20
15.5118815143594
 10
30.91405999519315
 20
16.20129751473018
 10
41.83847203251275
 20
16.6609097822718
 10
46.89820090868557
 20
19.41857618469589
 10
56.55768598595637
 20
18.72915778338369
 10
67.82707963317875
 20
19.18877005092531
  0
LINE
  5
52F4
330
1A
100
AcDbEntity
  8
ZUWAKU
100
AcDbLine
 10
24.94221216833716
 20
23.24999986828864
 30
0.0
 11
26.86721216833712
 21
23.24999986828868
 31
0.0
  0
LINE
  5
52F5
330
1A
100
AcDbEntity
  8
ZUWAKU
100
AcDbLine
 10
26.86721216833712
 20
20.44999986828868
 30
0.0
 11
24.94221216833716
 21
20.44999986828868
 31
0.0
  0
LINE
  5
52F6
330
1A
100
AcDbEntity
  8
ZUWAKU
100
AcDbLine
 10
24.94221216833716
 20
9.949999868288685
 30
0.0
 11
26.86721216833712
 21
9.949999868288685
 31
0.0
  0
LINE
  5
52F7
330
1A
100
AcDbEntity
  8
ZUWAKU
100
AcDbLine
 10
26.86721216833712
 20
7.149999868288688
 30
0.0
 11
24.94221216833716
 21
7.149999868288688
 31
0.0
  0
CIRCLE
  5
52F8
330
1A
100
AcDbEntity
  8
ZUWAKU
100
AcDbCircle
 10
25.99221216833711
 20
15.19999986828868
 30
0.0
 40
1.75
  0
ARC
  5
52F9
330
1A
100
AcDbEntity
  8
ZUWAKU
100
AcDbCircle
 10
15.49221216833712
 20
18.63479784293338
 30
0.0
 40
1.399999999999999
100
AcDbArc
 50
180.0000000000016
 51
224.9999999999988
  0
LINE
  5
52FA
330
1A
100
AcDbEntity
  8
ZUWAKU
100
AcDbLine
 10
23.54221216833718
 20
19.04999986828868
 30
0.0
 11
23.54221216833718
 21
11.34999986828869
 31
0.0
  0
LINE
  5
52FB
330
1A
100
AcDbEntity
  8
ZUWAKU
100
AcDbLine
 10
20.74221216833711
 20
11.34999986828869
 30
0.0
 11
20.74221216833711
 21
19.04999986828864
 31
0.0
  0
ARC
  5
52FC
330
1A
100
AcDbEntity
  8
ZUWAKU
100
AcDbCircle
 10
15.49221216833712
 20
18.63479784293338
 30
0.0
 40
4.199999999999999
100
AcDbArc
 50
180.0
 51
225.0
  0
ARC
  5
52FD
330
1A
100
AcDbEntity
  8
ZUWAKU
100
AcDbCircle
 10
15.84221216833714
 20
9.949999868288685
 30
0.0
 40
2.799999999999999
100
AcDbArc
 50
270.0
 51
0.0
  0
ARC
  5
52FE
330
1A
100
AcDbEntity
  8
ZUWAKU
100
AcDbCircle
 10
24.94221216833716
 20
11.34999986828869
 30
0.0
 40
4.199999999999999
100
AcDbArc
 50
180.0
 51
270.0
  0
ARC
  5
52FF
330
1A
100
AcDbEntity
  8
ZUWAKU
100
AcDbCircle
 10
14.44221216833716
 20
11.76520189364399
 30
0.0
 40
4.199999999999999
100
AcDbArc
 50
0.0
 51
45.0
  0
LINE
  5
5300
330
1A
100
AcDbEntity
  8
ZUWAKU
100
AcDbLine
 10
17.41206064932066
 20
14.73505037462751
 30
0.0
 11
14.50226267467598
 21
17.64484834927218
 31
0.0
  0
LINE
  5
5301
330
1A
100
AcDbEntity
  8
ZUWAKU
100
AcDbLine
 10
15.84221216833714
 20
10.47499986828869
 30
0.0
 11
15.84221216833714
 21
11.76520189364403
 31
0.0
  0
ARC
  5
5302
330
1A
100
AcDbEntity
  8
ZUWAKU
100
AcDbCircle
 10
15.31721216833716
 20
10.47499986828869
 30
0.0
 40
0.525
100
AcDbArc
 50
270.0
 51
0.0
  0
ARC
  5
5303
330
1A
100
AcDbEntity
  8
ZUWAKU
100
AcDbCircle
 10
14.44221216833716
 20
11.76520189364403
 30
0.0
 40
1.399999999999999
100
AcDbArc
 50
0.0
 51
45.0
  0
LINE
  5
5304
330
1A
100
AcDbEntity
  8
ZUWAKU
100
AcDbLine
 10
11.81721216833716
 20
7.674999868288686
 30
0.0
 11
11.81721216833716
 21
9.424999868288686
 31
0.0
  0
ARC
  5
5305
330
1A
100
AcDbEntity
  8
ZUWAKU
100
AcDbCircle
 10
12.34221216833714
 20
7.674999868288686
 30
0.0
 40
0.525
100
AcDbArc
 50
180.0
 51
270.0
  0
ARC
  5
5306
330
1A
100
AcDbEntity
  8
ZUWAKU
100
AcDbCircle
 10
12.34221216833714
 20
9.424999868288686
 30
0.0
 40
0.525
100
AcDbArc
 50
90.0
 51
180.0
  0
LINE
  5
5307
330
1A
100
AcDbEntity
  8
ZUWAKU
100
AcDbLine
 10
12.34221216833714
 20
7.149999868288688
 30
0.0
 11
15.84221216833714
 21
7.149999868288688
 31
0.0
  0
LINE
  5
5308
330
1A
100
AcDbEntity
  8
ZUWAKU
100
AcDbLine
 10
12.34221216833714
 20
9.949999868288685
 30
0.0
 11
15.31721216833716
 21
9.949999868288685
 31
0.0
  0
LINE
  5
5309
330
1A
100
AcDbEntity
  8
ZUWAKU
100
AcDbLine
 10
12.52236368735361
 20
15.66494936194986
 30
0.0
 11
15.43216166199829
 21
12.7551513873052
 31
0.0
  0
LINE
  5
530A
330
1A
100
AcDbEntity
  8
ZUWAKU
100
AcDbLine
 10
18.64221216833721
 20
9.949999868288685
 30
0.0
 11
18.64221216833721
 21
11.76520189364403
 31
0.0
  0
ARC
  5
530B
330
1A
100
AcDbEntity
  8
ZUWAKU
100
AcDbCircle
 10
24.94221216833716
 20
11.34999986828869
 30
0.0
 40
1.399999999999999
100
AcDbArc
 50
180.0
 51
270.0
  0
ARC
  5
530C
330
1A
100
AcDbEntity
  8
ZUWAKU
100
AcDbCircle
 10
17.59221216833714
 20
22.72499986828868
 30
0.0
 40
0.525
100
AcDbArc
 50
0.0
 51
90.0
  0
ARC
  5
530D
330
1A
100
AcDbEntity
  8
ZUWAKU
100
AcDbCircle
 10
17.59221216833714
 20
20.97499986828868
 30
0.0
 40
0.525
100
AcDbArc
 50
270.0
 51
0.0
  0
LINE
  5
530E
330
1A
100
AcDbEntity
  8
ZUWAKU
100
AcDbLine
 10
14.09221216833714
 20
23.24999986828868
 30
0.0
 11
17.59221216833714
 21
23.24999986828868
 31
0.0
  0
ARC
  5
530F
330
1A
100
AcDbEntity
  8
ZUWAKU
100
AcDbCircle
 10
14.61721216833711
 20
19.92499986828868
 30
0.0
 40
0.525
100
AcDbArc
 50
90.0
 51
180.0
  0
LINE
  5
5310
330
1A
100
AcDbEntity
  8
ZUWAKU
100
AcDbLine
 10
14.09221216833714
 20
19.92499986828868
 30
0.0
 11
14.09221216833714
 21
18.63479784293334
 31
0.0
  0
LINE
  5
5311
330
1A
100
AcDbEntity
  8
ZUWAKU
100
AcDbLine
 10
17.59221216833714
 20
20.44999986828868
 30
0.0
 11
14.61721216833711
 21
20.44999986828868
 31
0.0
  0
LINE
  5
5312
330
1A
100
AcDbEntity
  8
ZUWAKU
100
AcDbLine
 10
11.29221216833718
 20
20.44999986828868
 30
0.0
 11
11.29221216833718
 21
18.63479784293334
 31
0.0
  0
ARC
  5
5313
330
1A
100
AcDbEntity
  8
ZUWAKU
100
AcDbCircle
 10
14.09221216833714
 20
20.44999986828868
 30
0.0
 40
2.799999999999999
100
AcDbArc
 50
90.0
 51
180.0
  0
LINE
  5
5314
330
1A
100
AcDbEntity
  8
ZUWAKU
100
AcDbLine
 10
18.11721216833712
 20
22.72499986828868
 30
0.0
 11
18.11721216833712
 21
20.97499986828868
 31
0.0
  0
ARC
  5
5315
330
1A
100
AcDbEntity
  8
ZUWAKU
100
AcDbCircle
 10
24.94221216833716
 20
19.04999986828868
 30
0.0
 40
1.399999999999999
100
AcDbArc
 50
90.0
 51
180.0
  0
ARC
  5
5316
330
1A
100
AcDbEntity
  8
ZUWAKU
100
AcDbCircle
 10
24.94221216833716
 20
19.04999986828864
 30
0.0
 40
4.199999999999999
100
AcDbArc
 50
90.0
 51
180.0
  0
LINE
  5
5317
330
1A
100
AcDbEntity
  8
ZUWAKU
100
AcDbLine
 10
79.32662956154422
 20
29.99999986828868
 30
0.0
 11
79.32662956154445
 21
0.7999998682887508
 31
0.0
  0
LINE
  5
5318
330
1A
100
AcDbEntity
  8
ZUWAKU
100
AcDbLine
 10
79.52662956154426
 20
29.99999986828868
 30
0.0
 11
79.52662956154449
 21
0.7999998682887508
 31
0.0
  0
LINE
  5
5319
330
1A
100
AcDbEntity
  8
ZUWAKU
100
AcDbLine
 10
79.12662956154441
 20
29.99999986828868
 30
0.0
 11
79.12662956154441
 21
0.7999998682887508
 31
0.0
  0
LINE
  5
531A
330
1A
100
AcDbEntity
  8
ZUWAKU
100
AcDbLine
 10
64.14221216833721
 20
9.949999868288685
 30
0.0
 11
64.14221216833721
 21
22.72499986828868
 31
0.0
  0
LINE
  5
531B
330
1A
100
AcDbEntity
  8
ZUWAKU
100
AcDbLine
 10
61.34221216833714
 20
22.72499986828868
 30
0.0
 11
61.34221216833714
 21
10.99999986828868
 31
0.0
  0
LINE
  5
531C
330
1A
100
AcDbEntity
  8
ZUWAKU
100
AcDbLine
 10
69.04221216833718
 20
7.674999868288686
 30
0.0
 11
69.04221216833718
 21
22.72499986828868
 31
0.0
  0
LINE
  5
531D
330
1A
100
AcDbEntity
  8
ZUWAKU
100
AcDbLine
 10
66.24221216833712
 20
22.72499986828868
 30
0.0
 11
66.24221216833712
 21
7.674999868288686
 31
0.0
  0
ARC
  5
531E
330
1A
100
AcDbEntity
  8
ZUWAKU
100
AcDbCircle
 10
49.79221216833718
 20
18.63479784293338
 30
0.0
 40
1.399999999999999
100
AcDbArc
 50
180.0000000000016
 51
224.9999999999988
  0
ARC
  5
531F
330
1A
100
AcDbEntity
  8
ZUWAKU
100
AcDbCircle
 10
49.79221216833718
 20
18.63479784293338
 30
0.0
 40
4.199999999999999
100
AcDbArc
 50
180.0
 51
225.0
  0
LINE
  5
5320
330
1A
100
AcDbEntity
  8
ZUWAKU
100
AcDbLine
 10
37.31485865051513
 20
19.20504706185211
 30
0.0
 11
36.05010690517929
 21
15.1999998682887
 31
0.0
  0
LINE
  5
5321
330
1A
100
AcDbEntity
  8
ZUWAKU
100
AcDbLine
 10
40.69221216833716
 20
22.72499986828868
 30
0.0
 11
40.69221216833716
 21
7.674999868288686
 31
0.0
  0
LINE
  5
5322
330
1A
100
AcDbEntity
  8
ZUWAKU
100
AcDbLine
 10
43.49221216833711
 20
7.674999868288686
 30
0.0
 11
43.49221216833711
 21
22.72499986828868
 31
0.0
  0
LINE
  5
5323
330
1A
100
AcDbEntity
  8
ZUWAKU
100
AcDbLine
 10
55.04221216833719
 20
22.72499986828868
 30
0.0
 11
55.04221216833719
 21
9.949999868288685
 31
0.0
  0
LINE
  5
5324
330
1A
100
AcDbEntity
  8
ZUWAKU
100
AcDbLine
 10
57.84221216833714
 20
10.99999986828868
 30
0.0
 11
57.84221216833714
 21
22.72499986828868
 31
0.0
  0
LINE
  5
5325
330
1A
100
AcDbEntity
  8
ZUWAKU
100
AcDbLine
 10
32.64221216833721
 20
17.12499986828869
 30
0.0
 11
32.64221216833721
 21
22.72499986828868
 31
0.0
  0
LINE
  5
5326
330
1A
100
AcDbEntity
  8
ZUWAKU
100
AcDbLine
 10
29.84221216833714
 20
22.72499986828868
 30
0.0
 11
29.84221216833714
 21
7.674999868288686
 31
0.0
  0
LINE
  5
5327
330
1A
100
AcDbEntity
  8
ZUWAKU
100
AcDbLine
 10
35.676347105653
 20
22.88309383645565
 30
0.0
 11
33.80807723102122
 21
16.96690590012171
 31
0.0
  0
LINE
  5
5328
330
1A
100
AcDbEntity
  8
ZUWAKU
100
AcDbLine
 10
60.29221216833718
 20
9.949999868288685
 30
0.0
 11
58.89221216833721
 21
9.949999868288685
 31
0.0
  0
LINE
  5
5329
330
1A
100
AcDbEntity
  8
ZUWAKU
100
AcDbLine
 10
57.84221216833714
 20
7.149999868288688
 30
0.0
 11
61.34221216833714
 21
7.149999868288688
 31
0.0
  0
LINE
  5
532A
330
1A
100
AcDbEntity
  8
ZUWAKU
100
AcDbLine
 10
41.21721216833714
 20
7.149999868288688
 30
0.0
 11
42.96721216833714
 21
7.149999868288688
 31
0.0
  0
LINE
  5
532B
330
1A
100
AcDbEntity
  8
ZUWAKU
100
AcDbLine
 10
35.676347105653
 20
7.516905900121713
 30
0.0
 11
33.80807723102122
 21
13.43309383645565
 31
0.0
  0
ARC
  5
532C
330
1A
100
AcDbEntity
  8
ZUWAKU
100
AcDbCircle
 10
33.30744633182587
 20
17.12499986828869
 30
0.0
 40
0.525
100
AcDbArc
 50
270.0
 51
342.4744316262769
  0
LINE
  5
532D
330
1A
100
AcDbEntity
  8
ZUWAKU
100
AcDbLine
 10
33.30744633182587
 20
16.59999986828868
 30
0.0
 11
33.16721216833718
 21
16.59999986828868
 31
0.0
  0
LINE
  5
532E
330
1A
100
AcDbEntity
  8
ZUWAKU
100
AcDbLine
 10
33.16721216833718
 20
13.79999986828868
 30
0.0
 11
33.30744633182587
 21
13.79999986828868
 31
0.0
  0
ARC
  5
532F
330
1A
100
AcDbEntity
  8
ZUWAKU
100
AcDbCircle
 10
33.16721216833718
 20
17.12499986828869
 30
0.0
 40
0.525
100
AcDbArc
 50
180.0
 51
270.0
  0
LINE
  5
5330
330
1A
100
AcDbEntity
  8
ZUWAKU
100
AcDbLine
 10
30.36721216833711
 20
7.149999868288688
 30
0.0
 11
32.11721216833712
 21
7.149999868288688
 31
0.0
  0
ARC
  5
5331
330
1A
100
AcDbEntity
  8
ZUWAKU
100
AcDbCircle
 10
32.11721216833712
 20
7.674999868288686
 30
0.0
 40
0.525
100
AcDbArc
 50
270.0
 51
0.0
  0
LINE
  5
5332
330
1A
100
AcDbEntity
  8
ZUWAKU
100
AcDbLine
 10
32.64221216833721
 20
7.674999868288686
 30
0.0
 11
32.64221216833721
 21
13.27499986828868
 31
0.0
  0
LINE
  5
5333
330
1A
100
AcDbEntity
  8
ZUWAKU
100
AcDbLine
 10
27.39221216833721
 20
9.424999868288686
 30
0.0
 11
27.39221216833721
 21
7.674999868288686
 31
0.0
  0
ARC
  5
5334
330
1A
100
AcDbEntity
  8
ZUWAKU
100
AcDbCircle
 10
26.86721216833712
 20
7.674999868288686
 30
0.0
 40
0.525
100
AcDbArc
 50
270.0
 51
0.0
  0
ARC
  5
5335
330
1A
100
AcDbEntity
  8
ZUWAKU
100
AcDbCircle
 10
26.86721216833712
 20
9.424999868288686
 30
0.0
 40
0.525
100
AcDbArc
 50
0.0
 51
90.0
  0
ARC
  5
5336
330
1A
100
AcDbEntity
  8
ZUWAKU
100
AcDbCircle
 10
30.36721216833711
 20
7.674999868288686
 30
0.0
 40
0.525
100
AcDbArc
 50
180.0
 51
270.0
  0
ARC
  5
5337
330
1A
100
AcDbEntity
  8
ZUWAKU
100
AcDbCircle
 10
33.30744633182587
 20
13.27499986828868
 30
0.0
 40
0.525
100
AcDbArc
 50
17.52556837372303
 51
90.0
  0
ARC
  5
5338
330
1A
100
AcDbEntity
  8
ZUWAKU
100
AcDbCircle
 10
33.16721216833718
 20
13.27499986828868
 30
0.0
 40
0.525
100
AcDbArc
 50
90.0
 51
180.0
  0
ARC
  5
5339
330
1A
100
AcDbEntity
  8
ZUWAKU
100
AcDbCircle
 10
41.21721216833714
 20
7.674999868288686
 30
0.0
 40
0.525
100
AcDbArc
 50
180.0
 51
270.0
  0
LINE
  5
533A
330
1A
100
AcDbEntity
  8
ZUWAKU
100
AcDbLine
 10
36.17697800484847
 20
7.149999868288688
 30
0.0
 11
37.87586738445748
 21
7.149999868288688
 31
0.0
  0
ARC
  5
533B
330
1A
100
AcDbEntity
  8
ZUWAKU
100
AcDbCircle
 10
37.87586738445748
 20
7.674999868288686
 30
0.0
 40
0.525
100
AcDbArc
 50
270.0
 51
17.52556837372303
  0
LINE
  5
533C
330
1A
100
AcDbEntity
  8
ZUWAKU
100
AcDbLine
 10
38.37649828365295
 20
7.83309383645566
 30
0.0
 11
36.05010690517929
 21
15.1999998682887
 31
0.0
  0
ARC
  5
533D
330
1A
100
AcDbEntity
  8
ZUWAKU
100
AcDbCircle
 10
36.17697800484847
 20
7.674999868288686
 30
0.0
 40
0.525
100
AcDbArc
 50
197.525568373723
 51
270.0
  0
ARC
  5
533E
330
1A
100
AcDbEntity
  8
ZUWAKU
100
AcDbCircle
 10
57.84221216833714
 20
9.949999868288685
 30
0.0
 40
2.799999999999999
100
AcDbArc
 50
180.0
 51
270.0
  0
ARC
  5
533F
330
1A
100
AcDbEntity
  8
ZUWAKU
100
AcDbCircle
 10
50.14221216833721
 20
9.949999868288685
 30
0.0
 40
2.799999999999999
100
AcDbArc
 50
270.0
 51
0.0
  0
LINE
  5
5340
330
1A
100
AcDbEntity
  8
ZUWAKU
100
AcDbLine
 10
51.71206064932073
 20
14.73505037462751
 30
0.0
 11
48.80226267467595
 21
17.64484834927218
 31
0.0
  0
LINE
  5
5341
330
1A
100
AcDbEntity
  8
ZUWAKU
100
AcDbLine
 10
50.14221216833721
 20
10.47499986828869
 30
0.0
 11
50.14221216833721
 21
11.76520189364403
 31
0.0
  0
ARC
  5
5342
330
1A
100
AcDbEntity
  8
ZUWAKU
100
AcDbCircle
 10
48.74221216833712
 20
11.76520189364403
 30
0.0
 40
1.399999999999999
100
AcDbArc
 50
0.0
 51
45.0
  0
ARC
  5
5343
330
1A
100
AcDbEntity
  8
ZUWAKU
100
AcDbCircle
 10
49.61721216833712
 20
10.47499986828869
 30
0.0
 40
0.525
100
AcDbArc
 50
270.0
 51
0.0
  0
LINE
  5
5344
330
1A
100
AcDbEntity
  8
ZUWAKU
100
AcDbLine
 10
46.11721216833712
 20
7.674999868288686
 30
0.0
 11
46.11721216833712
 21
9.424999868288686
 31
0.0
  0
ARC
  5
5345
330
1A
100
AcDbEntity
  8
ZUWAKU
100
AcDbCircle
 10
46.64221216833721
 20
7.674999868288686
 30
0.0
 40
0.525
100
AcDbArc
 50
180.0
 51
270.0
  0
ARC
  5
5346
330
1A
100
AcDbEntity
  8
ZUWAKU
100
AcDbCircle
 10
42.96721216833714
 20
7.674999868288686
 30
0.0
 40
0.525
100
AcDbArc
 50
270.0
 51
0.0
  0
ARC
  5
5347
330
1A
100
AcDbEntity
  8
ZUWAKU
100
AcDbCircle
 10
46.64221216833721
 20
9.424999868288686
 30
0.0
 40
0.525
100
AcDbArc
 50
90.0
 51
180.0
  0
LINE
  5
5348
330
1A
100
AcDbEntity
  8
ZUWAKU
100
AcDbLine
 10
46.64221216833721
 20
9.949999868288685
 30
0.0
 11
49.61721216833712
 21
9.949999868288685
 31
0.0
  0
LINE
  5
5349
330
1A
100
AcDbEntity
  8
ZUWAKU
100
AcDbLine
 10
46.64221216833721
 20
7.149999868288688
 30
0.0
 11
50.14221216833721
 21
7.149999868288688
 31
0.0
  0
LINE
  5
534A
330
1A
100
AcDbEntity
  8
ZUWAKU
100
AcDbLine
 10
46.82236368735368
 20
15.66494936194986
 30
0.0
 11
49.73216166199836
 21
12.7551513873052
 31
0.0
  0
LINE
  5
534B
330
1A
100
AcDbEntity
  8
ZUWAKU
100
AcDbLine
 10
52.94221216833716
 20
9.949999868288685
 30
0.0
 11
52.94221216833716
 21
11.76520189364403
 31
0.0
  0
ARC
  5
534C
330
1A
100
AcDbEntity
  8
ZUWAKU
100
AcDbCircle
 10
48.74221216833712
 20
11.76520189364399
 30
0.0
 40
4.199999999999999
100
AcDbArc
 50
0.0
 51
45.0
  0
ARC
  5
534D
330
1A
100
AcDbEntity
  8
ZUWAKU
100
AcDbCircle
 10
58.89221216833721
 20
10.99999986828868
 30
0.0
 40
1.049999999999999
100
AcDbArc
 50
180.0
 51
270.0
  0
ARC
  5
534E
330
1A
100
AcDbEntity
  8
ZUWAKU
100
AcDbCircle
 10
61.34221216833714
 20
9.949999868288685
 30
0.0
 40
2.799999999999999
100
AcDbArc
 50
270.0
 51
0.0
  0
LINE
  5
534F
330
1A
100
AcDbEntity
  8
ZUWAKU
100
AcDbLine
 10
66.76721216833721
 20
7.149999868288688
 30
0.0
 11
68.51721216833721
 21
7.149999868288688
 31
0.0
  0
ARC
  5
5350
330
1A
100
AcDbEntity
  8
ZUWAKU
100
AcDbCircle
 10
66.76721216833721
 20
7.674999868288686
 30
0.0
 40
0.525
100
AcDbArc
 50
180.0
 51
270.0
  0
ARC
  5
5351
330
1A
100
AcDbEntity
  8
ZUWAKU
100
AcDbCircle
 10
60.29221216833718
 20
10.99999986828868
 30
0.0
 40
1.049999999999999
100
AcDbArc
 50
270.0
 51
0.0
  0
ARC
  5
5352
330
1A
100
AcDbEntity
  8
ZUWAKU
100
AcDbCircle
 10
68.51721216833721
 20
7.674999868288686
 30
0.0
 40
0.525
100
AcDbArc
 50
270.0
 51
0.0
  0
LINE
  5
5353
330
1A
100
AcDbEntity
  8
ZUWAKU
100
AcDbLine
 10
42.96721216833714
 20
23.24999986828868
 30
0.0
 11
41.21721216833714
 21
23.24999986828868
 31
0.0
  0
ARC
  5
5354
330
1A
100
AcDbEntity
  8
ZUWAKU
100
AcDbCircle
 10
32.11721216833712
 20
22.72499986828868
 30
0.0
 40
0.525
100
AcDbArc
 50
0.0
 51
90.0
  0
LINE
  5
5355
330
1A
100
AcDbEntity
  8
ZUWAKU
100
AcDbLine
 10
32.11721216833712
 20
23.24999986828868
 30
0.0
 11
30.36721216833711
 21
23.24999986828868
 31
0.0
  0
ARC
  5
5356
330
1A
100
AcDbEntity
  8
ZUWAKU
100
AcDbCircle
 10
26.86721216833712
 20
22.72499986828868
 30
0.0
 40
0.525
100
AcDbArc
 50
0.0
 51
90.0
  0
ARC
  5
5357
330
1A
100
AcDbEntity
  8
ZUWAKU
100
AcDbCircle
 10
30.36721216833711
 20
22.72499986828868
 30
0.0
 40
0.525
100
AcDbArc
 50
90.0
 51
180.0
  0
ARC
  5
5358
330
1A
100
AcDbEntity
  8
ZUWAKU
100
AcDbCircle
 10
26.86721216833712
 20
20.97499986828868
 30
0.0
 40
0.525
100
AcDbArc
 50
270.0
 51
0.0
  0
LINE
  5
5359
330
1A
100
AcDbEntity
  8
ZUWAKU
100
AcDbLine
 10
27.39221216833721
 20
22.72499986828868
 30
0.0
 11
27.39221216833721
 21
20.97499986828868
 31
0.0
  0
ARC
  5
535A
330
1A
100
AcDbEntity
  8
ZUWAKU
100
AcDbCircle
 10
41.21721216833714
 20
22.72499986828868
 30
0.0
 40
0.525
100
AcDbArc
 50
90.0
 51
180.0
  0
LINE
  5
535B
330
1A
100
AcDbEntity
  8
ZUWAKU
100
AcDbLine
 10
36.17697800484847
 20
23.24999986828868
 30
0.0
 11
37.87586738445748
 21
23.24999986828868
 31
0.0
  0
ARC
  5
535C
330
1A
100
AcDbEntity
  8
ZUWAKU
100
AcDbCircle
 10
37.87586738445748
 20
22.72499986828868
 30
0.0
 40
0.525
100
AcDbArc
 50
342.4744316262769
 51
90.0
  0
LINE
  5
535D
330
1A
100
AcDbEntity
  8
ZUWAKU
100
AcDbLine
 10
38.37649828365295
 20
22.56690590012171
 30
0.0
 11
37.31485865051513
 21
19.20504706185211
 31
0.0
  0
ARC
  5
535E
330
1A
100
AcDbEntity
  8
ZUWAKU
100
AcDbCircle
 10
36.17697800484847
 20
22.72499986828868
 30
0.0
 40
0.525
100
AcDbArc
 50
90.0
 51
162.4744316262769
  0
LINE
  5
535F
330
1A
100
AcDbEntity
  8
ZUWAKU
100
AcDbLine
 10
48.3922121683372
 20
23.24999986828868
 30
0.0
 11
51.89221216833721
 21
23.24999986828868
 31
0.0
  0
LINE
  5
5360
330
1A
100
AcDbEntity
  8
ZUWAKU
100
AcDbLine
 10
51.89221216833721
 20
20.44999986828868
 30
0.0
 11
48.91721216833719
 21
20.44999986828868
 31
0.0
  0
ARC
  5
5361
330
1A
100
AcDbEntity
  8
ZUWAKU
100
AcDbCircle
 10
48.91721216833719
 20
19.92499986828868
 30
0.0
 40
0.525
100
AcDbArc
 50
90.0
 51
180.0
  0
LINE
  5
5362
330
1A
100
AcDbEntity
  8
ZUWAKU
100
AcDbLine
 10
48.3922121683372
 20
19.92499986828868
 30
0.0
 11
48.3922121683372
 21
18.63479784293334
 31
0.0
  0
ARC
  5
5363
330
1A
100
AcDbEntity
  8
ZUWAKU
100
AcDbCircle
 10
42.96721216833714
 20
22.72499986828868
 30
0.0
 40
0.525
100
AcDbArc
 50
0.0
 51
90.0
  0
LINE
  5
5364
330
1A
100
AcDbEntity
  8
ZUWAKU
100
AcDbLine
 10
45.59221216833714
 20
20.44999986828868
 30
0.0
 11
45.59221216833714
 21
18.63479784293334
 31
0.0
  0
ARC
  5
5365
330
1A
100
AcDbEntity
  8
ZUWAKU
100
AcDbCircle
 10
48.3922121683372
 20
20.44999986828868
 30
0.0
 40
2.799999999999999
100
AcDbArc
 50
90.0
 51
180.0
  0
ARC
  5
5366
330
1A
100
AcDbEntity
  8
ZUWAKU
100
AcDbCircle
 10
57.31721216833716
 20
22.72499986828868
 30
0.0
 40
0.525
100
AcDbArc
 50
0.0
 51
90.0
  0
ARC
  5
5367
330
1A
100
AcDbEntity
  8
ZUWAKU
100
AcDbCircle
 10
55.56721216833716
 20
22.72499986828868
 30
0.0
 40
0.525
100
AcDbArc
 50
90.0
 51
180.0
  0
LINE
  5
5368
330
1A
100
AcDbEntity
  8
ZUWAKU
100
AcDbLine
 10
57.31721216833716
 20
23.24999986828868
 30
0.0
 11
55.56721216833716
 21
23.24999986828868
 31
0.0
  0
ARC
  5
5369
330
1A
100
AcDbEntity
  8
ZUWAKU
100
AcDbCircle
 10
51.89221216833721
 20
22.72499986828868
 30
0.0
 40
0.525
100
AcDbArc
 50
0.0
 51
90.0
  0
ARC
  5
536A
330
1A
100
AcDbEntity
  8
ZUWAKU
100
AcDbCircle
 10
51.89221216833721
 20
20.97499986828868
 30
0.0
 40
0.525
100
AcDbArc
 50
270.0
 51
0.0
  0
LINE
  5
536B
330
1A
100
AcDbEntity
  8
ZUWAKU
100
AcDbLine
 10
52.41721216833719
 20
22.72499986828868
 30
0.0
 11
52.41721216833719
 21
20.97499986828868
 31
0.0
  0
LINE
  5
536C
330
1A
100
AcDbEntity
  8
ZUWAKU
100
AcDbLine
 10
68.51721216833721
 20
23.24999986828868
 30
0.0
 11
66.76721216833721
 21
23.24999986828868
 31
0.0
  0
ARC
  5
536D
330
1A
100
AcDbEntity
  8
ZUWAKU
100
AcDbCircle
 10
66.76721216833721
 20
22.72499986828868
 30
0.0
 40
0.525
100
AcDbArc
 50
90.0
 51
180.0
  0
ARC
  5
536E
330
1A
100
AcDbEntity
  8
ZUWAKU
100
AcDbCircle
 10
63.61721216833712
 20
22.72499986828868
 30
0.0
 40
0.525
100
AcDbArc
 50
0.0
 51
90.0
  0
LINE
  5
536F
330
1A
100
AcDbEntity
  8
ZUWAKU
100
AcDbLine
 10
63.61721216833712
 20
23.24999986828868
 30
0.0
 11
61.86721216833712
 21
23.24999986828868
 31
0.0
  0
ARC
  5
5370
330
1A
100
AcDbEntity
  8
ZUWAKU
100
AcDbCircle
 10
61.86721216833712
 20
22.72499986828868
 30
0.0
 40
0.525
100
AcDbArc
 50
90.0
 51
180.0
  0
ARC
  5
5371
330
1A
100
AcDbEntity
  8
ZUWAKU
100
AcDbCircle
 10
68.51721216833721
 20
22.72499986828868
 30
0.0
 40
0.525
100
AcDbArc
 50
0.0
 51
90.0
  0
TEXT
  5
5372
330
1A
100
AcDbEntity
  8
MOJI
100
AcDbText
 10
239.827202694407
 20
18.00492092569607
 30
0.0
 40
5.599999999999999
  1
止りⅡ（右）
 41
0.9
  7
ｽﾀｲﾙ1
100
AcDbText
  0
TEXT
  5
5373
330
1A
100
AcDbEntity
  8
MOJI
100
AcDbText
 10
239.827202694407
 20
3.204920925696104
 30
0.0
 40
5.599999999999999
  1
ＶＭ１６０
 41
0.9
  7
ｽﾀｲﾙ1
100
AcDbText
  0
LINE
  5
5374
330
1A
100
AcDbEntity
  8
ZUWAKU
100
AcDbLine
 10
208.2466013036239
 20
29.99999986828868
 30
0.0
 11
208.2466013036239
 21
0.7999998682887508
 31
0.0
  0
LINE
  5
5375
330
1A
100
AcDbEntity
  8
ZUWAKU
100
AcDbLine
 10
208.6466013036238
 20
29.99999986828868
 30
0.0
 11
208.646601303624
 21
0.7999998682887508
 31
0.0
  0
LINE
  5
5376
330
1A
100
AcDbEntity
  8
ZUWAKU
100
AcDbLine
 10
208.4466013036237
 20
29.99999986828868
 30
0.0
 11
208.446601303624
 21
0.7999998682887508
 31
0.0
  0
TEXT
  5
5377
330
1A
100
AcDbEntity
  8
ZUWAKU
100
AcDbText
 10
209.7240463258335
 20
9.6553564066743
 30
0.0
 40
4.0
  1
サイズ
 41
0.9
  7
ｽﾀｲﾙ1
100
AcDbText
  0
TEXT
  5
5378
330
1A
100
AcDbEntity
  8
ZUWAKU
100
AcDbText
 10
209.7240463258333
 20
24.05535640667426
 30
0.0
 40
4.0
  1
品名
 41
0.9
  7
ｽﾀｲﾙ1
100
AcDbText
  0
LINE
  5
5379
330
1A
100
AcDbEntity
  8
ZUWAKU
100
AcDbLine
 10
648.8172025237602
 20
15.19999986828871
 30
0.0
 11
697.2490105620972
 21
15.19999986828871
 31
0.0
  0
LINE
  5
537A
330
1A
100
AcDbEntity
  8
ZUWAKU
100
AcDbLine
 10
648.8172025237604
 20
15.39999986828872
 30
0.0
 11
697.2490105620972
 21
15.39999986828871
 31
0.0
  0
LINE
  5
537B
330
1A
100
AcDbEntity
  8
ZUWAKU
100
AcDbLine
 10
648.8172025237602
 20
15.59999986828871
 30
0.0
 11
697.2490105620972
 21
15.59999986828871
 31
0.0
  0
TEXT
  5
537C
330
1A
100
AcDbEntity
  8
ZUWAKU
100
AcDbText
 10
658.2039377008584
 20
18.00492092569607
 30
0.0
 40
5.599999999999999
  1
　　．　　．　　
 41
0.9
  7
ｽﾀｲﾙ1
100
AcDbText
  0
LINE
  5
537D
330
1A
100
AcDbEntity
  8
ZUWAKU
100
AcDbLine
 10
505.1991795116968
 20
15.19999986828872
 30
0.0
 11
552.5269557796685
 21
15.19999986828872
 31
0.0
  0
LINE
  5
537E
330
1A
100
AcDbEntity
  8
ZUWAKU
100
AcDbLine
 10
505.1991795116968
 20
15.39999986828871
 30
0.0
 11
552.5269557796685
 21
15.39999986828871
 31
0.0
  0
LINE
  5
537F
330
1A
100
AcDbEntity
  8
ZUWAKU
100
AcDbLine
 10
505.1991795116968
 20
15.59999986828871
 30
0.0
 11
552.5269557796685
 21
15.59999986828871
 31
0.0
  0
TEXT
  5
5380
330
1A
100
AcDbEntity
  8
MOJI
100
AcDbText
 10
463.246432004558
 20
11.94261758994866
 30
0.0
 40
5.599999999999999
  1
ＰＧ２８□
 41
0.9
  7
ｽﾀｲﾙ1
100
AcDbText
  0
LINE
  5
5381
330
1A
100
AcDbEntity
  8
ZUWAKU
100
AcDbLine
 10
447.6243639845472
 20
29.99999986828868
 30
0.0
 11
447.6243639845474
 21
0.7999998682887508
 31
0.0
  0
LINE
  5
5382
330
1A
100
AcDbEntity
  8
ZUWAKU
100
AcDbLine
 10
447.8243639845472
 20
29.99999986828868
 30
0.0
 11
447.8243639845475
 21
0.7999998682887508
 31
0.0
  0
LINE
  5
5383
330
1A
100
AcDbEntity
  8
ZUWAKU
100
AcDbLine
 10
447.4243639845474
 20
29.99999986828868
 30
0.0
 11
447.4243639845474
 21
0.7999998682887508
 31
0.0
  0
TEXT
  5
5384
330
1A
100
AcDbEntity
  8
MOJI
100
AcDbText
 10
528.0409079858689
 20
18.00492092569607
 30
0.0
 40
5.599999999999999
  1
Ａ３
 41
0.9
  7
ｽﾀｲﾙ1
100
AcDbText
  0
LINE
  5
5385
330
1A
100
AcDbEntity
  8
ZUWAKU
100
AcDbLine
 10
504.9991795116969
 20
29.99999986828868
 30
0.0
 11
504.999179511697
 21
0.7999998682887508
 31
0.0
  0
LINE
  5
5386
330
1A
100
AcDbEntity
  8
ZUWAKU
100
AcDbLine
 10
505.1991795116968
 20
29.99999986828868
 30
0.0
 11
505.1991795116971
 21
0.7999998682887508
 31
0.0
  0
LINE
  5
5387
330
1A
100
AcDbEntity
  8
ZUWAKU
100
AcDbLine
 10
504.799179511697
 20
29.99999986828868
 30
0.0
 11
504.799179511697
 21
0.7999998682887508
 31
0.0
  0
TEXT
  5
5388
330
1A
100
AcDbEntity
  8
ZUWAKU
100
AcDbText
 10
461.8574426386929
 20
2.614070779428175
 30
0.0
 40
3.0
  1
□には色品番が入ります
 41
0.9
  7
ｽﾀｲﾙ1
100
AcDbText
  0
TEXT
  5
5389
330
1A
100
AcDbEntity
  8
ZUWAKU
100
AcDbText
 10
506.6766245339067
 20
9.6553564066743
 30
0.0
 40
4.0
  1
縮尺
 41
0.9
  7
ｽﾀｲﾙ1
100
AcDbText
  0
TEXT
  5
538A
330
1A
100
AcDbEntity
  8
MOJI
100
AcDbText
 10
528.0409079858689
 20
3.204920925696104
 30
0.0
 40
5.599999999999999
  1
１/２
 41
0.9
  7
ｽﾀｲﾙ1
100
AcDbText
  0
TEXT
  5
538B
330
1A
100
AcDbEntity
  8
ZUWAKU
100
AcDbText
 10
449.3018090067569
 20
24.05535640667426
 30
0.0
 40
4.0
  1
品番
 41
0.9
  7
ｽﾀｲﾙ1
100
AcDbText
  0
TEXT
  5
538C
330
1A
100
AcDbEntity
  8
ZUWAKU
100
AcDbText
 10
506.6766245339065
 20
24.05535640667426
 30
0.0
 40
4.0
  1
用紙
 41
0.9
  7
ｽﾀｲﾙ1
100
AcDbText
  0
LINE
  5
538D
330
1A
100
AcDbEntity
  8
ZUWAKU
100
AcDbLine
 10
648.6172025237603
 20
29.99999986828868
 30
0.0
 11
648.6172025237606
 21
0.7999998682887508
 31
0.0
  0
LINE
  5
538E
330
1A
100
AcDbEntity
  8
ZUWAKU
100
AcDbLine
 10
648.8172025237604
 20
29.99999986828868
 30
0.0
 11
648.8172025237607
 21
0.7999998682887508
 31
0.0
  0
LINE
  5
538F
330
1A
100
AcDbEntity
  8
ZUWAKU
100
AcDbLine
 10
648.4172025237605
 20
29.99999986828868
 30
0.0
 11
648.4172025237605
 21
0.7999998682887508
 31
0.0
  0
LINE
  5
5390
330
1A
100
AcDbEntity
  8
ZUWAKU
100
AcDbLine
 10
552.7269557796683
 20
29.99999986828868
 30
0.0
 11
552.7269557796684
 21
0.7999998682887508
 31
0.0
  0
LINE
  5
5391
330
1A
100
AcDbEntity
  8
ZUWAKU
100
AcDbLine
 10
552.9269557796683
 20
29.99999986828868
 30
0.0
 11
552.9269557796685
 21
0.7999998682887508
 31
0.0
  0
LINE
  5
5392
330
1A
100
AcDbEntity
  8
ZUWAKU
100
AcDbLine
 10
552.5269557796685
 20
29.99999986828868
 30
0.0
 11
552.5269557796685
 21
0.7999998682887508
 31
0.0
  0
TEXT
  5
5393
330
1A
100
AcDbEntity
  8
ZUWAKU
100
AcDbText
 10
650.29464754597
 20
24.05535640667426
 30
0.0
 40
4.0
  1
DATE
 41
0.9
  7
ｽﾀｲﾙ1
100
AcDbText
  0
LINE
  5
5394
330
1A
100
AcDbEntity
  8
ZUWAKU
100
AcDbLine
 10
697.2490105620972
 20
29.99999986828868
 30
0.0
 11
697.2490105620972
 21
0.7999998682887508
 31
0.0
  0
LINE
  5
5395
330
1A
100
AcDbEntity
  8
ZUWAKU
100
AcDbLine
 10
697.4490105620973
 20
29.99999986828868
 30
0.0
 11
697.4490105620973
 21
0.7999998682887508
 31
0.0
  0
LINE
  5
5396
330
1A
100
AcDbEntity
  8
ZUWAKU
100
AcDbLine
 10
697.6490105620971
 20
29.99999986828868
 30
0.0
 11
697.6490105620974
 21
0.7999998682887508
 31
0.0
  0
LINE
  5
5397
330
1A
100
AcDbEntity
  8
ZUWAKU
100
AcDbLine
 10
697.8490105620972
 20
29.99999986828868
 30
0.0
 11
697.8490105620974
 21
0.7999998682887508
 31
0.0
  0
TEXT
  5
5398
330
1A
100
AcDbEntity
  8
ZUWAKU
100
AcDbText
 10
708.5280842057998
 20
17.55383920397548
 30
0.0
 40
6.0
  1
積水化学工業株式会社
 41
0.9
  7
ｽﾀｲﾙ1
100
AcDbText
  0
TEXT
  5
5399
330
1A
100
AcDbEntity
  8
ZUWAKU
100
AcDbText
 10
708.5280842057998
 20
6.648840182142748
 30
0.0
 40
6.0
  1
建材事業部
 41
0.9
  7
ｽﾀｲﾙ1
100
AcDbText
  0
LINE
  5
5B31
330
1A
100
AcDbEntity
  8
SEIHIN
100
AcDbLine
 10
123.7504054825436
 20
304.3789491752678
 30
0.0
 11
123.7504054825436
 21
280.2538299900678
 31
0.0
  0
LINE
  5
5B32
330
1A
100
AcDbEntity
  8
SEIHIN
100
AcDbLine
 10
156.7504054825436
 20
279.2056744043678
 30
0.0
 11
156.7504054825436
 21
304.0278262099679
 31
0.0
  0
LINE
  5
5B33
330
1A
100
AcDbEntity
  8
SEIHIN
  6
CONTINUOUS
100
AcDbLine
 10
395.285718991591
 20
258.7305450390681
 30
0.0
 11
395.285718991591
 21
303.6551343781697
 31
0.0
  0
LINE
  5
5B34
330
1A
100
AcDbEntity
  8
SEIHIN
  6
CONTINUOUS
100
AcDbLine
 10
236.37104369109
 20
279.2686192435683
 30
0.0
 11
236.37104369109
 21
304.6578718045394
 31
0.0
  0
DIMENSION
  5
5B35
330
1A
100
AcDbEntity
  8
SUNPOU
100
AcDbDimension
  2
*D2
 10
204.7350778806819
 20
279.2686192435683
 30
0.0
 11
199.7350778806819
 21
292.4632491569683
 31
0.0
 70
    32
  3
STANDARD
100
AcDbAlignedDimension
 13
237.7389285257911
 23
305.6578790703681
 33
0.0
 14
236.3710436910908
 24
279.2686192435683
 34
0.0
 50
90.0
100
AcDbRotatedDimension
1001
ACAD
1000
DSTYLE
1002
{
1070
    41
1040
7.0
1070
    42
1040
6.0
1070
    43
1040
14.0
1070
    44
1040
3.0
1070
    73
1070
     0
1070
    74
1070
     0
1070
    77
1070
     3
1070
   140
1040
6.0
1070
   141
1040
30.0
1070
   147
1040
2.0
1070
   172
1070
     1
1070
   173
1070
     1
1070
   176
1070
   256
1070
   177
1070
   256
1070
   178
1070
   256
1070
   271
1070
     0
1070
   272
1070
     0
1070
   341
1005
53AC
1070
     6
1000
OPEN
1070
     7
1000
OPEN
1070
   371
1070
    -1
1070
   372
1070
    -1
1002
}
  0
DIMENSION
  5
5B36
330
1A
100
AcDbEntity
  8
SUNPOU
100
AcDbDimension
  2
*D3
 10
188.0402735002178
 20
163.7686192435684
 30
0.0
 11
183.0402735002178
 21
234.7132491569683
 31
0.0
 70
    32
  3
STANDARD
100
AcDbAlignedDimension
 13
237.7389285257911
 23
305.6578790703681
 33
0.0
 14
339.4210436910907
 24
163.7686192435684
 34
0.0
 50
90.0
100
AcDbRotatedDimension
1001
ACAD
1000
DSTYLE
1002
{
1070
    41
1040
7.0
1070
    42
1040
6.0
1070
    43
1040
14.0
1070
    44
1040
3.0
1070
    73
1070
     0
1070
    74
1070
     0
1070
    77
1070
     3
1070
   140
1040
6.0
1070
   141
1040
30.0
1070
   147
1040
2.0
1070
   172
1070
     1
1070
   173
1070
     1
1070
   176
1070
   256
1070
   177
1070
   256
1070
   178
1070
   256
1070
   271
1070
     0
1070
   272
1070
     0
1070
   341
1005
53AC
1070
     6
1000
OPEN
1070
     7
1000
OPEN
1070
   371
1070
    -1
1070
   372
1070
    -1
1002
}
  0
DIMENSION
  5
5B37
330
1A
100
AcDbEntity
  8
SUNPOU
100
AcDbDimension
  2
*D4
 10
153.7504054825436
 20
126.5626633174602
 30
0.0
 11
171.7504054825436
 21
131.5626633174602
 31
0.0
 70
    32
  3
STANDARD
100
AcDbAlignedDimension
 13
150.7504054825436
 23
165.9704579927679
 33
0.0
 14
153.7504054825436
 24
174.7056744043678
 34
0.0
100
AcDbRotatedDimension
1001
ACAD
1000
DSTYLE
1002
{
1070
    41
1040
7.0
1070
    42
1040
6.0
1070
    43
1040
14.0
1070
    44
1040
3.0
1070
    73
1070
     0
1070
    74
1070
     0
1070
    77
1070
     3
1070
   140
1040
6.0
1070
   141
1040
30.0
1070
   147
1040
2.0
1070
   172
1070
     1
1070
   176
1070
   256
1070
   177
1070
   256
1070
   178
1070
   256
1070
   271
1070
     0
1070
   272
1070
     0
1070
   341
1005
6D
1070
     5
1000
OPEN
1070
   371
1070
    -1
1070
   372
1070
    -1
1002
}
  0
DIMENSION
  5
5B38
330
1A
100
AcDbEntity
  8
SUNPOU
100
AcDbDimension
  2
*D5
 10
156.7504054825436
 20
253.9999085711249
 30
0.0
 11
174.7504054825436
 21
258.9999085711249
 31
0.0
 70
    32
  3
STANDARD
100
AcDbAlignedDimension
 13
153.7504054825436
 23
279.2056744043678
 33
0.0
 14
156.7504054825436
 24
279.2056744043678
 34
0.0
100
AcDbRotatedDimension
1001
ACAD
1000
DSTYLE
1002
{
1070
    41
1040
7.0
1070
    42
1040
6.0
1070
    43
1040
14.0
1070
    44
1040
3.0
1070
    73
1070
     0
1070
    74
1070
     0
1070
    77
1070
     3
1070
   140
1040
6.0
1070
   141
1040
30.0
1070
   147
1040
2.0
1070
   172
1070
     1
1070
   176
1070
   256
1070
   177
1070
   256
1070
   178
1070
   256
1070
   271
1070
     0
1070
   272
1070
     0
1070
   341
1005
6D
1070
     5
1000
OPEN
1070
   371
1070
    -1
1070
   372
1070
    -1
1002
}
  0
LINE
  5
5B39
330
1A
100
AcDbEntity
  8
SEIHIN
100
AcDbLine
 10
123.7504054825436
 20
280.2538299900678
 30
0.0
 11
123.7504054825436
 21
175.4979550066678
 31
0.0
  0
LINE
  5
5B3A
330
1A
100
AcDbEntity
  8
SEIHIN
100
AcDbLine
 10
153.7504054825436
 20
174.7056744043678
 30
0.0
 11
153.7504054825436
 21
279.2056744043678
 31
0.0
  0
LINE
  5
5B3B
330
1A
100
AcDbEntity
  8
SEIHIN
100
AcDbLine
 10
123.7504054825436
 20
174.7538299900678
 30
0.0
 11
143.7503473867435
 21
173.7056774490678
 31
0.0
  0
LINE
  5
5B3C
330
1A
100
AcDbEntity
  8
SEIHIN
100
AcDbLine
 10
143.7504054825436
 20
163.7056744043678
 30
0.0
 11
123.7504054825436
 21
164.7538299900678
 31
0.0
  0
LINE
  5
5B3D
330
1A
100
AcDbEntity
  8
SEIHIN
100
AcDbLine
 10
123.7504054825436
 20
174.0305441417679
 30
0.0
 11
123.7504054825436
 21
167.1187017367678
 31
0.0
  0
LINE
  5
5B3E
330
1A
100
AcDbEntity
  8
SEIHIN
100
AcDbLine
 10
123.7504054825436
 20
165.6739651240678
 30
0.0
 11
123.7504054825436
 21
164.7538299900678
 31
0.0
  0
LINE
  5
5B3F
330
1A
100
AcDbEntity
  8
SEIHIN
100
AcDbLine
 10
123.7504054825436
 20
167.1187017367678
 30
0.0
 11
123.7504054825436
 21
165.6739651240678
 31
0.0
  0
LINE
  5
5B40
330
1A
100
AcDbEntity
  8
SEIHIN
100
AcDbLine
 10
123.7504054825436
 20
175.4979550066678
 30
0.0
 11
123.7504054825436
 21
174.7538299900678
 31
0.0
  0
LINE
  5
5B41
330
1A
100
AcDbEntity
  8
SEIHIN
100
AcDbLine
 10
123.7504054825436
 20
174.7538299900678
 30
0.0
 11
123.7504054825436
 21
174.0305441417679
 31
0.0
  0
ARC
  5
5B42
330
1A
100
AcDbEntity
  8
SEIHIN
100
AcDbCircle
 10
151.7504054825436
 20
172.7056744043678
 30
0.0
 40
1.0
100
AcDbArc
 50
90.0
 51
180.0
  0
LINE
  5
5B43
330
1A
100
AcDbEntity
  8
SEIHIN
100
AcDbLine
 10
150.7504054825436
 20
166.9137374310679
 30
0.0
 11
150.7504054825436
 21
172.7056744043678
 31
0.0
  0
ARC
  5
5B44
330
1A
100
AcDbEntity
  8
SEIHIN
100
AcDbCircle
 10
148.7504054825436
 20
165.9704579927679
 30
0.0
 40
2.0
100
AcDbArc
 50
272.9999999999991
 51
0.0
  0
LINE
  5
5B45
330
1A
100
AcDbEntity
  8
SEIHIN
100
AcDbLine
 10
148.8550773950436
 20
163.9731989232678
 30
0.0
 11
143.7504054825436
 21
163.7056744043678
 31
0.0
  0
LINE
  5
5B46
330
1A
100
AcDbEntity
  8
SEIHIN
100
AcDbLine
 10
150.7504054825436
 20
165.9704579927679
 30
0.0
 11
150.7504054825436
 21
166.9137374310679
 31
0.0
  0
LINE
  5
5B47
330
1A
100
AcDbEntity
  8
SEIHIN
100
AcDbLine
 10
143.7504054825436
 20
173.7056744043678
 30
0.0
 11
152.7504054825436
 21
173.7056744043678
 31
0.0
  0
ARC
  5
5B48
330
1A
100
AcDbEntity
  8
SEIHIN
100
AcDbCircle
 10
152.7504054825436
 20
174.7056744043678
 30
0.0
 40
1.0
100
AcDbArc
 50
270.0
 51
0.0
  0
LINE
  5
5B49
330
1A
100
AcDbEntity
  8
SEIHIN
100
AcDbLine
 10
123.7504054825436
 20
280.2538299900678
 30
0.0
 11
143.7504054825436
 21
279.2056744043678
 31
0.0
  0
LINE
  5
5B4A
330
1A
100
AcDbEntity
  8
SEIHIN
100
AcDbLine
 10
155.8027414388435
 20
279.2056744043678
 30
0.0
 11
143.7504054825436
 21
279.2056744043678
 31
0.0
  0
LINE
  5
5B4B
330
1A
100
AcDbEntity
  8
SEIHIN
100
AcDbLine
 10
155.8027414388435
 20
279.2056744043678
 30
0.0
 11
156.7504054825436
 21
279.2056744043678
 31
0.0
  0
LINE
  5
5B4C
330
1A
100
AcDbEntity
  8
SEIHIN
  6
CONTINUOUS
100
AcDbLine
 10
395.285718991591
 20
279.2686192435683
 30
0.0
 11
236.37104369109
 21
279.2686192435683
 31
0.0
  0
LINE
  5
5B4D
330
1A
100
AcDbEntity
  8
SEIHIN
  6
CONTINUOUS
100
AcDbLine
 10
386.3757796360414
 20
173.7686192435683
 30
0.0
 11
285.4133943843903
 21
173.7686192435681
 31
0.0
  0
ARC
  5
5B4E
330
1A
100
AcDbEntity
  8
SEIHIN
100
AcDbCircle
 10
290.9351314742445
 20
172.7703268267255
 30
0.0
 40
0.9982924491592159
100
AcDbArc
 50
15.99043984094513
 51
90.01457879307173
  0
ARC
  5
5B4F
330
1A
100
AcDbEntity
  8
SEIHIN
  6
CONTINUOUS
100
AcDbCircle
 10
-90.46183268030972
 20
76.53793121266812
 30
0.0
 40
387.5
100
AcDbArc
 50
14.64583445300207
 51
31.54553136400645
  0
ARC
  5
5B50
330
1A
100
AcDbEntity
  8
SEIHIN
100
AcDbCircle
 10
285.4131166375427
 20
174.7668891186228
 30
0.0
 40
0.9982699136932215
100
AcDbArc
 50
194.6298931661295
 51
270.015941302168
  0
ARC
  5
5B51
330
1A
100
AcDbEntity
  8
SEIHIN
  6
CONTINUOUS
100
AcDbCircle
 10
-601.2990429906099
 20
345.5379260169681
 30
0.0
 40
1002.5
100
AcDbArc
 50
349.9572247400042
 51
353.155409790498
  0
DIMENSION
  5
5B52
330
1A
100
AcDbEntity
  8
SUNPOU
100
AcDbDimension
  2
*D6
 10
384.7730836010612
 20
126.5626633174602
 30
0.0
 11
339.5184693222649
 21
131.5626633174602
 31
0.0
 70
    32
  3
STANDARD
100
AcDbAlignedDimension
 13
294.2638550434688
 23
164.7861789015305
 33
0.0
 14
384.7730836010612
 24
164.794983806267
 34
0.0
100
AcDbRotatedDimension
1001
ACAD
1000
DSTYLE
1002
{
1070
    41
1040
7.0
1070
    42
1040
6.0
1070
    43
1040
14.0
1070
    44
1040
3.0
1070
    73
1070
     0
1070
    74
1070
     0
1070
    77
1070
     3
1070
   140
1040
6.0
1070
   141
1040
30.0
1070
   147
1040
2.0
1070
   172
1070
     1
1070
   176
1070
   256
1070
   177
1070
   256
1070
   178
1070
   256
1070
   271
1070
     0
1070
   272
1070
     0
1070
   341
1005
6D
1070
     5
1000
OPEN
1070
   371
1070
    -1
1070
   372
1070
    -1
1002
}
  0
ARC
  5
5B53
330
1A
100
AcDbEntity
  8
SEIHIN
  6
CONTINUOUS
100
AcDbCircle
 10
339.4210436910903
 20
1166.268619243567
 30
0.0
 40
1002.499999999999
100
AcDbArc
 50
267.5004507429081
 51
272.2488799012083
  0
LINE
  5
5B54
330
1A
100
AcDbEntity
  8
CENTER_L
  6
CENTER
 48
5.0
100
AcDbLine
 10
339.4210436910907
 20
175.0077591928429
 30
0.0
 11
339.4210436910907
 21
154.2107563245681
 31
0.0
  0
LINE
  5
5B55
330
1A
100
AcDbEntity
  8
SEIHIN
  6
CONTINUOUS
100
AcDbLine
 10
293.8677500755902
 20
166.1671045632681
 30
0.0
 11
291.8947976668901
 21
173.0453333952681
 31
0.0
  0
ARC
  5
5B56
330
1A
100
AcDbEntity
  8
SEIHIN
100
AcDbCircle
 10
295.8912697309811
 20
166.8493213410612
 30
0.0
 40
2.135427715389831
100
AcDbArc
 50
198.6312066423801
 51
264.8742627298895
  0
ARC
  5
5B57
330
1A
100
AcDbEntity
  8
SEIHIN
100
AcDbCircle
 10
378.4679840305898
 20
172.0218779183583
 30
0.0
 40
7.486811419268768
100
AcDbArc
 50
272.230936903531
 51
349.9751677387887
  0
LINE
  5
5B58
330
1A
100
AcDbEntity
  8
SEIHIN
  6
CONTINUOUS
100
AcDbLine
 10
394.816298231891
 20
248.2674033700681
 30
0.0
 11
395.285718991591
 21
258.7305450390681
 31
0.0
  0
LINE
  5
5B59
330
1A
100
AcDbEntity
  8
SEIHIN
  6
CONTINUOUS
100
AcDbLine
 10
394.9341771375909
 20
245.6329363411681
 30
0.0
 11
394.056199660991
 21
226.0632804808681
 31
0.0
  0
LINE
  5
5B5A
330
1A
100
AcDbEntity
  8
SEIHIN
  6
CONTINUOUS
100
AcDbLine
 10
394.816298231891
 20
248.2674033700681
 30
0.0
 11
394.8687098647908
 21
247.8396722353682
 31
0.0
  0
LINE
  5
5B5B
330
1A
100
AcDbEntity
  8
SEIHIN
  6
CONTINUOUS
100
AcDbLine
 10
394.8687098647908
 20
247.8396722353682
 30
0.0
 11
394.9081545160909
 21
247.4053453157681
 31
0.0
  0
LINE
  5
5B5C
330
1A
100
AcDbEntity
  8
SEIHIN
  6
CONTINUOUS
100
AcDbLine
 10
394.9081545160909
 20
247.4053453157681
 30
0.0
 11
394.9344931367911
 21
246.9659536887681
 31
0.0
  0
LINE
  5
5B5D
330
1A
100
AcDbEntity
  8
SEIHIN
  6
CONTINUOUS
100
AcDbLine
 10
394.9344931367911
 20
246.9659536887681
 30
0.0
 11
394.9476328785911
 21
246.5230462856682
 31
0.0
  0
LINE
  5
5B5E
330
1A
100
AcDbEntity
  8
SEIHIN
  6
CONTINUOUS
100
AcDbLine
 10
394.9476328785911
 20
246.5230462856682
 30
0.0
 11
394.9475274215908
 21
246.0781844314681
 31
0.0
  0
LINE
  5
5B5F
330
1A
100
AcDbEntity
  8
SEIHIN
  6
CONTINUOUS
100
AcDbLine
 10
394.9475274215908
 20
246.0781844314681
 30
0.0
 11
394.9341771375909
 21
245.6329363411681
 31
0.0
  0
LINE
  5
5B60
330
1A
100
AcDbEntity
  8
SEIHIN
100
AcDbLine
 10
123.7504054825436
 20
305.3783154101679
 30
0.0
 11
143.7544415603436
 21
305.6578799721678
 31
0.0
  0
DIMENSION
  5
5B61
330
1A
100
AcDbEntity
  8
SUNPOU
100
AcDbDimension
  2
*D7
 10
156.7504054825436
 20
337.4549760455804
 30
0.0
 11
140.2504054825436
 21
342.4549760455804
 31
0.0
 70
    32
  3
STANDARD
100
AcDbAlignedDimension
 13
123.7504054825436
 23
305.3783154101679
 33
0.0
 14
156.7504054825436
 24
304.0278262099679
 34
0.0
100
AcDbRotatedDimension
1001
ACAD
1000
DSTYLE
1002
{
1070
    41
1040
7.0
1070
    42
1040
6.0
1070
    43
1040
14.0
1070
    44
1040
3.0
1070
    73
1070
     0
1070
    74
1070
     0
1070
    77
1070
     3
1070
   140
1040
6.0
1070
   141
1040
30.0
1070
   147
1040
2.0
1070
   172
1070
     1
1070
   173
1070
     1
1070
   176
1070
   256
1070
   177
1070
   256
1070
   178
1070
   256
1070
   271
1070
     0
1070
   272
1070
     0
1070
   341
1005
53AC
1070
     6
1000
OPEN
1070
     7
1000
OPEN
1070
   371
1070
    -1
1070
   372
1070
    -1
1002
}
  0
LINE
  5
5B62
330
1A
100
AcDbEntity
  8
SEIHIN
100
AcDbLine
 10
123.7504054825436
 20
305.3783154101679
 30
0.0
 11
123.7504054825436
 21
304.3789491752678
 31
0.0
  0
LINE
  5
5B63
330
1A
100
AcDbEntity
  8
SEIHIN
100
AcDbLine
 10
154.2504054825436
 20
305.3172792779679
 30
0.0
 11
150.2534978489435
 21
305.3172792779679
 31
0.0
  0
LINE
  5
5B64
330
1A
100
AcDbEntity
  8
SEIHIN
100
AcDbLine
 10
155.8027414388435
 20
305.0264557447678
 30
0.0
 11
143.7544666545436
 21
305.6578790703679
 31
0.0
  0
ARC
  5
5B65
330
1A
100
AcDbEntity
  8
SEIHIN
100
AcDbCircle
 10
155.7504054825436
 20
304.0278262099679
 30
0.0
 40
0.9999999999999898
100
AcDbArc
 50
0.0
 51
87.00000000000747
  0
LINE
  5
5B66
330
1A
100
AcDbEntity
  8
SEIHIN
100
AcDbLine
 10
154.2504054825436
 20
305.1078102249679
 30
0.0
 11
154.2504054825436
 21
305.3172792779679
 31
0.0
  0
LINE
  5
5B67
330
1A
100
AcDbEntity
  8
SEIHIN
100
AcDbLine
 10
294.9499671345908
 20
437.0841616124469
 30
0.0
 11
290.2644296756909
 21
437.0841616124469
 31
0.0
  0
LINE
  5
5B68
330
1A
100
AcDbEntity
  8
SEIHIN
100
AcDbLine
 10
238.0013093884908
 20
417.5841616124468
 30
0.0
 11
393.285718991591
 21
417.5841616124468
 31
0.0
  0
LINE
  5
5B69
330
1A
100
AcDbEntity
  8
SEIHIN
100
AcDbLine
 10
393.285718991591
 20
420.0841616124469
 30
0.0
 11
239.5656435492908
 21
420.0841616124469
 31
0.0
  0
LINE
  5
5B6A
330
1A
100
AcDbEntity
  8
SEIHIN
100
AcDbLine
 10
395.285718991591
 20
423.0841616124469
 30
0.0
 11
248.8710436910908
 21
423.0841616124469
 31
0.0
  0
LINE
  5
5B6B
330
1A
100
AcDbEntity
  8
SEIHIN
100
AcDbLine
 10
393.8924935210908
 20
450.5841616124468
 30
0.0
 11
237.4191992767908
 21
450.5841616124471
 31
0.0
  0
DIMENSION
  5
5B6C
330
1A
100
AcDbEntity
  8
SUNPOU
100
AcDbDimension
  2
*D8
 10
204.735077880682
 20
426.0532276434969
 30
0.0
 11
199.735077880682
 21
404.653227643497
 31
0.0
 70
    32
  1
\U+203B<>
  3
STANDARD
100
AcDbAlignedDimension
 13
237.4191992767908
 23
450.5841616124471
 33
0.0
 14
297.9959310344908
 24
426.0532276434969
 34
0.0
 50
90.0
100
AcDbRotatedDimension
1001
ACAD
1000
DSTYLE
1002
{
1070
    41
1040
7.0
1070
    42
1040
6.0
1070
    43
1040
14.0
1070
    44
1040
3.0
1070
    73
1070
     0
1070
    74
1070
     0
1070
    77
1070
     3
1070
   140
1040
6.0
1070
   141
1040
30.0
1070
   147
1040
2.0
1070
   172
1070
     1
1070
   176
1070
   256
1070
   177
1070
   256
1070
   178
1070
   256
1070
   271
1070
     1
1070
   272
1070
     0
1070
   341
1005
6D
1070
     5
1000
OPEN
1070
   371
1070
    -1
1070
   372
1070
    -1
1002
}
  0
LINE
  5
5B6D
330
1A
100
AcDbEntity
  8
SEIHIN
  6
CONTINUOUS
100
AcDbLine
 10
237.3709469878899
 20
305.6578790703681
 30
0.0
 11
393.285718991591
 21
305.6578790703681
 31
0.0
  0
DIMENSION
  5
5B6E
330
1A
100
AcDbEntity
  8
SUNPOU
100
AcDbDimension
  2
*D9
 10
236.3710436910908
 20
337.4549760455804
 30
0.0
 11
315.8283813413409
 21
342.4549760455804
 31
0.0
 70
    32
  3
STANDARD
100
AcDbAlignedDimension
 13
395.285718991591
 23
303.6551343783683
 33
0.0
 14
236.3710436910908
 24
304.7214021705681
 34
0.0
 50
180.0
100
AcDbRotatedDimension
1001
ACAD
1000
DSTYLE
1002
{
1070
    41
1040
7.0
1070
    42
1040
6.0
1070
    43
1040
14.0
1070
    44
1040
3.0
1070
    73
1070
     0
1070
    74
1070
     0
1070
    77
1070
     3
1070
   140
1040
6.0
1070
   141
1040
30.0
1070
   147
1040
2.0
1070
   172
1070
     1
1070
   173
1070
     1
1070
   176
1070
   256
1070
   177
1070
   256
1070
   178
1070
   256
1070
   271
1070
     0
1070
   272
1070
     0
1070
   341
1005
53AC
1070
     6
1000
OPEN
1070
     7
1000
OPEN
1070
   371
1070
    -1
1070
   372
1070
    -1
1002
}
  0
ARC
  5
5B6F
330
1A
100
AcDbEntity
  8
SEIHIN
100
AcDbCircle
 10
237.4024791104084
 20
304.6264469239856
 30
0.0
 40
1.031914021293405
100
AcDbArc
 50
91.75105558613584
 51
178.2549016857848
  0
ARC
  5
5B70
330
1A
100
AcDbEntity
  8
SEIHIN
100
AcDbCircle
 10
-81.76330482671994
 20
448.9278374229952
 30
0.0
 40
369.4910276775338
100
AcDbArc
 50
358.1784759026334
 51
0.2568416992260736
  0
ARC
  5
5B71
330
1A
100
AcDbEntity
  8
SEIHIN
100
AcDbCircle
 10
1753.090949212621
 20
474.8055809846214
 30
0.0
 40
1467.498717396337
100
AcDbArc
 50
180.9457235674964
 51
181.472925443889
  0
LINE
  5
5B72
330
1A
100
AcDbEntity
  8
SEIHIN
100
AcDbLine
 10
248.8710436910908
 20
428.0841616124469
 30
0.0
 11
248.8710436910908
 21
450.5841616124468
 31
0.0
  0
LINE
  5
5B73
330
1A
100
AcDbEntity
  8
SEIHIN
100
AcDbLine
 10
237.4191992767908
 20
450.5841616124468
 30
0.0
 11
236.3710436910908
 21
430.5841616124468
 31
0.0
  0
LINE
  5
5B74
330
1A
100
AcDbEntity
  8
SEIHIN
100
AcDbLine
 10
236.3710446289908
 20
430.5841437172468
 30
0.0
 11
237.0026798537908
 21
418.531825656247
 31
0.0
  0
LINE
  5
5B75
330
1A
100
AcDbEntity
  8
SEIHIN
100
AcDbLine
 10
238.7801346001908
 20
420.0841616124469
 30
0.0
 11
239.5656435492908
 21
420.0841616124469
 31
0.0
  0
ARC
  5
5B76
330
1A
100
AcDbEntity
  8
SEIHIN
100
AcDbCircle
 10
238.0013093884908
 20
418.5841616124468
 30
0.0
 40
1.0
100
AcDbArc
 50
182.9999999999991
 51
270.0
  0
LINE
  5
5B77
330
1A
100
AcDbEntity
  8
SEIHIN
100
AcDbLine
 10
248.8710436910908
 20
420.0841616124469
 30
0.0
 11
248.8710436910908
 21
428.0841616124469
 31
0.0
  0
LINE
  5
5B78
330
1A
100
AcDbEntity
  8
SEIHIN
100
AcDbLine
 10
288.8714756261908
 20
437.0841616124469
 30
0.0
 11
274.3723894698907
 21
437.0841616124469
 31
0.0
  0
LINE
  5
5B79
330
1A
100
AcDbEntity
  8
SEIHIN
100
AcDbLine
 10
272.5154862994908
 20
427.3082242419468
 30
0.0
 11
273.1903854616907
 21
434.7373454821467
 31
0.0
  0
LINE
  5
5B7A
330
1A
100
AcDbEntity
  8
SEIHIN
100
AcDbLine
 10
271.2257839893908
 20
425.7988062949468
 30
0.0
 11
272.2766565115907
 21
434.6026981566467
 31
0.0
  0
LINE
  5
5B7B
330
1A
100
AcDbEntity
  8
SEIHIN
100
AcDbLine
 10
272.3047312275907
 20
424.9709850158467
 30
0.0
 11
272.5154862994908
 21
427.3082242419468
 31
0.0
  0
LINE
  5
5B7C
330
1A
100
AcDbEntity
  8
SEIHIN
100
AcDbLine
 10
270.8993230844908
 20
423.0856497565467
 30
0.0
 11
271.2257839893908
 21
425.7988062949468
 31
0.0
  0
LINE
  5
5B7D
330
1A
100
AcDbEntity
  8
SEIHIN
100
AcDbLine
 10
272.1346916185907
 20
423.0841616123468
 30
0.0
 11
272.3047312275907
 21
424.970985015847
 31
0.0
  0
LINE
  5
5B7E
330
1A
100
AcDbEntity
  8
SEIHIN
100
AcDbLine
 10
272.0775704249908
 20
423.0841616124469
 30
0.0
 11
272.3047312275907
 21
424.970985015847
 31
0.0
  0
LINE
  5
5B7F
330
1A
100
AcDbEntity
  8
SEIHIN
100
AcDbLine
 10
274.2251817781907
 20
437.0841587583468
 30
0.0
 11
274.2279369054908
 21
437.0836848452468
 31
0.0
  0
LINE
  5
5B80
330
1A
100
AcDbEntity
  8
SEIHIN
100
AcDbLine
 10
273.7251210940907
 20
436.9974655960468
 30
0.0
 11
274.2251817781907
 21
437.0841587583468
 31
0.0
  0
LINE
  5
5B81
330
1A
100
AcDbEntity
  8
SEIHIN
100
AcDbLine
 10
273.2845488854908
 20
436.7593929561469
 30
0.0
 11
273.7251210940907
 21
436.9974655960468
 31
0.0
  0
LINE
  5
5B82
330
1A
100
AcDbEntity
  8
SEIHIN
100
AcDbLine
 10
272.9198839992908
 20
436.3946131503468
 30
0.0
 11
273.2845488854908
 21
436.7593929561469
 31
0.0
  0
LINE
  5
5B83
330
1A
100
AcDbEntity
  8
SEIHIN
100
AcDbLine
 10
272.5731441528907
 20
435.7849612869467
 30
0.0
 11
272.9198839992908
 21
436.3946131503468
 31
0.0
  0
LINE
  5
5B84
330
1A
100
AcDbEntity
  8
SEIHIN
100
AcDbLine
 10
272.3699736883907
 20
435.1430693080467
 30
0.0
 11
272.5731441528907
 21
435.7849612869467
 31
0.0
  0
LINE
  5
5B85
330
1A
100
AcDbEntity
  8
SEIHIN
100
AcDbLine
 10
272.2837526607908
 20
434.5989284211468
 30
0.0
 11
272.3699736883907
 21
435.1430693080467
 31
0.0
  0
LINE
  5
5B86
330
1A
100
AcDbEntity
  8
SEIHIN
100
AcDbLine
 10
273.9232658261907
 20
436.8718343850466
 30
0.0
 11
274.0057595719907
 21
436.9444639146467
 31
0.0
  0
LINE
  5
5B87
330
1A
100
AcDbEntity
  8
SEIHIN
100
AcDbLine
 10
273.5860511555908
 20
436.3659569017467
 30
0.0
 11
273.9232658261907
 21
436.8718343850466
 31
0.0
  0
LINE
  5
5B88
330
1A
100
AcDbEntity
  8
SEIHIN
100
AcDbLine
 10
273.3364536138908
 20
435.6354421288467
 30
0.0
 11
273.5860511555908
 21
436.3659569017467
 31
0.0
  0
LINE
  5
5B89
330
1A
100
AcDbEntity
  8
SEIHIN
100
AcDbLine
 10
273.1903854616907
 20
434.7373454821467
 30
0.0
 11
273.3364536138908
 21
435.6354421288467
 31
0.0
  0
LINE
  5
5B8A
330
1A
100
AcDbEntity
  8
SEIHIN
100
AcDbLine
 10
274.3154806272907
 20
437.0808524472468
 30
0.0
 11
274.3723894698907
 21
437.0841616124469
 31
0.0
  0
LINE
  5
5B8B
330
1A
100
AcDbEntity
  8
SEIHIN
100
AcDbLine
 10
274.0057595719907
 20
436.9444639146467
 30
0.0
 11
274.3154806272907
 21
437.0808524472468
 31
0.0
  0
LINE
  5
5B8C
330
1A
100
AcDbEntity
  8
SEIHIN
100
AcDbLine
 10
274.0057595719907
 20
436.944463914647
 30
0.0
 11
274.2280951577908
 21
437.0841616124469
 31
0.0
  0
LINE
  5
5B8D
330
1A
100
AcDbEntity
  8
SEIHIN
100
AcDbLine
 10
274.3723894698907
 20
437.0841616124469
 30
0.0
 11
274.2280951577908
 21
437.0841616124469
 31
0.0
  0
LINE
  5
5B8E
330
1A
100
AcDbEntity
  8
SEIHIN
100
AcDbLine
 10
289.3875874097441
 20
437.0841616124469
 30
0.0
 11
289.3875874097441
 21
423.0841616124469
 31
0.0
  0
LINE
  5
5B8F
330
1A
100
AcDbEntity
  8
SEIHIN
100
AcDbLine
 10
290.2644296756909
 20
437.0841616124469
 30
0.0
 11
288.8714756261908
 21
437.0841616124469
 31
0.0
  0
ARC
  5
5B90
330
1A
100
AcDbEntity
  8
SEIHIN
100
AcDbCircle
 10
393.2845149709123
 20
303.6566748190052
 30
0.0
 40
2.001204613561205
100
AcDbArc
 50
359.9558961861188
 51
89.96552810890841
  0
LINE
  5
5B91
330
1A
100
AcDbEntity
  8
SEIHIN
100
AcDbLine
 10
380.1931370216909
 20
426.0841616124468
 30
0.0
 11
298.0898955967907
 21
426.0841616124468
 31
0.0
  0
LINE
  5
5B92
330
1A
100
AcDbEntity
  8
SEIHIN
100
AcDbLine
 10
381.5096421054047
 20
437.0841616124471
 30
0.0
 11
299.8849828694908
 21
437.0841616124469
 31
0.0
  0
ARC
  5
5B93
330
1A
100
AcDbEntity
  8
SEIHIN
100
AcDbCircle
 10
-333.4904670270591
 20
456.4669208230352
 30
0.0
 40
631.5344927353077
100
AcDbArc
 50
358.2412287283691
 51
358.9909903060207
  0
ARC
  5
5B94
330
1A
100
AcDbEntity
  8
SEIHIN
100
AcDbCircle
 10
1471.970209793441
 20
472.1242304823663
 30
0.0
 40
1176.973422928581
100
AcDbArc
 50
181.0486421500102
 51
181.7058277388767
  0
ARC
  5
5B95
330
1A
100
AcDbEntity
  8
SEIHIN
100
AcDbCircle
 10
-1026.841595006222
 20
434.1952964251131
 30
0.0
 40
1320.553017049939
100
AcDbArc
 50
0.1253413628230955
 51
0.7110936863160264
  0
ARC
  5
5B96
330
1A
100
AcDbEntity
  8
SEIHIN
100
AcDbCircle
 10
612.5468312659637
 20
459.2724966022274
 30
0.0
 40
320.9768684473916
100
AcDbArc
 50
181.5510953751036
 51
183.9638764189417
  0
LINE
  5
5B97
330
1A
100
AcDbEntity
  8
CENTER_L
  6
CENTER
 48
5.0
100
AcDbLine
 10
339.4210436910907
 20
411.1556161961111
 30
0.0
 11
339.4210436910907
 21
455.8451340420178
 31
0.0
  0
LINE
  5
5B98
330
1A
100
AcDbEntity
  8
SEIHIN
100
AcDbLine
 10
295.9366011524813
 20
437.0841616124469
 30
0.0
 11
295.9366011524813
 21
423.0841616124469
 31
0.0
  0
LINE
  5
5B99
330
1A
100
AcDbEntity
  8
SEIHIN
100
AcDbLine
 10
299.0182312584364
 20
437.0841616124469
 30
0.0
 11
299.0182312584364
 21
426.0841616124468
 31
0.0
  0
LINE
  5
5B9A
330
1A
100
AcDbEntity
  8
SEIHIN
100
AcDbLine
 10
297.0058153673908
 20
423.0929998893468
 30
0.0
 11
296.9789683495907
 21
423.0841616124469
 31
0.0
  0
LINE
  5
5B9B
330
1A
100
AcDbEntity
  8
SEIHIN
100
AcDbLine
 10
297.0317132596908
 20
423.1192022593468
 30
0.0
 11
297.0058153673908
 21
423.0929998893468
 31
0.0
  0
LINE
  5
5B9C
330
1A
100
AcDbEntity
  8
SEIHIN
100
AcDbLine
 10
297.0557464554908
 20
423.1618423872467
 30
0.0
 11
297.0317132596908
 21
423.1192022593468
 31
0.0
  0
LINE
  5
5B9D
330
1A
100
AcDbEntity
  8
SEIHIN
100
AcDbLine
 10
297.0770653066907
 20
423.2194128120467
 30
0.0
 11
297.0557464554908
 21
423.1618423872467
 31
0.0
  0
LINE
  5
5B9E
330
1A
100
AcDbEntity
  8
SEIHIN
100
AcDbLine
 10
297.0949161255907
 20
423.2898782404467
 30
0.0
 11
297.0770653066907
 21
423.2194128120467
 31
0.0
  0
LINE
  5
5B9F
330
1A
100
AcDbEntity
  8
SEIHIN
100
AcDbLine
 10
297.1086678303908
 20
423.3707475004469
 30
0.0
 11
297.0949161255907
 21
423.2898782404467
 31
0.0
  0
LINE
  5
5BA0
330
1A
100
AcDbEntity
  8
SEIHIN
100
AcDbLine
 10
297.1178342554908
 20
423.4591616124468
 30
0.0
 11
297.1086678303908
 21
423.3707475004469
 31
0.0
  0
LINE
  5
5BA1
330
1A
100
AcDbEntity
  8
SEIHIN
100
AcDbLine
 10
297.1819992310908
 20
424.0780603966468
 30
0.0
 11
297.1178342554908
 21
423.4591616124468
 31
0.0
  0
LINE
  5
5BA2
330
1A
100
AcDbEntity
  8
SEIHIN
100
AcDbLine
 10
297.2782611644908
 20
424.6441452167468
 30
0.0
 11
297.1819992310908
 21
424.0780603966468
 31
0.0
  0
LINE
  5
5BA3
330
1A
100
AcDbEntity
  8
SEIHIN
100
AcDbLine
 10
297.4032168970908
 20
425.1374032152468
 30
0.0
 11
297.2782611644908
 21
424.6441452167468
 31
0.0
  0
LINE
  5
5BA4
330
1A
100
AcDbEntity
  8
SEIHIN
100
AcDbLine
 10
297.5524488553908
 20
425.5403961891468
 30
0.0
 11
297.4032168970908
 21
425.1374032152468
 31
0.0
  0
LINE
  5
5BA5
330
1A
100
AcDbEntity
  8
SEIHIN
100
AcDbLine
 10
297.7206812261907
 20
425.8388770846468
 30
0.0
 11
297.5524488553908
 21
425.5403961891468
 31
0.0
  0
LINE
  5
5BA6
330
1A
100
AcDbEntity
  8
SEIHIN
100
AcDbLine
 10
297.9019664721907
 20
426.0222936745469
 30
0.0
 11
297.7206812261907
 21
425.8388770846468
 31
0.0
  0
LINE
  5
5BA7
330
1A
100
AcDbEntity
  8
SEIHIN
100
AcDbLine
 10
298.0898955967908
 20
426.0841616124468
 30
0.0
 11
297.9019664721907
 21
426.0222936745469
 31
0.0
  0
LINE
  5
5BA8
330
1A
100
AcDbEntity
  8
SEIHIN
100
AcDbLine
 10
299.8849828694908
 20
437.0841616124469
 30
0.0
 11
298.5026359450908
 21
437.0841616124469
 31
0.0
  0
LINE
  5
5BA9
330
1A
100
AcDbEntity
  8
SEIHIN
100
AcDbLine
 10
295.6058666991907
 20
437.0841616124469
 30
0.0
 11
295.9366011524907
 21
437.0689379417469
 31
0.0
  0
LINE
  5
5BAA
330
1A
100
AcDbEntity
  8
SEIHIN
100
AcDbLine
 10
296.5237469518908
 20
437.0841616124469
 30
0.0
 11
296.2128677116909
 21
437.0841616124469
 31
0.0
  0
LINE
  5
5BAB
330
1A
100
AcDbEntity
  8
SEIHIN
100
AcDbLine
 10
295.9366011524907
 20
437.0689379417469
 30
0.0
 11
296.2128677116909
 21
437.0841616124469
 31
0.0
  0
LINE
  5
5BAC
330
1A
100
AcDbEntity
  8
SEIHIN
100
AcDbLine
 10
295.6058666991907
 20
437.0841616124469
 30
0.0
 11
294.9499671345908
 21
437.0841616124469
 31
0.0
  0
LINE
  5
5BAD
330
1A
100
AcDbEntity
  8
SEIHIN
100
AcDbLine
 10
298.5026359450908
 20
437.0841616124469
 30
0.0
 11
296.5237469518908
 21
437.0841616124469
 31
0.0
  0
LINE
  5
5BAE
330
1A
100
AcDbEntity
  8
SEIHIN
100
AcDbLine
 10
297.9517454451884
 20
450.5841616124471
 30
0.0
 11
297.9460989746907
 21
445.3458313817966
 31
0.0
  0
ARC
  5
5BAF
330
1A
100
AcDbEntity
  8
SEIHIN
100
AcDbCircle
 10
807.6463048125699
 20
453.4619020359732
 30
0.0
 40
429.4254495626
100
AcDbArc
 50
180.7714258238935
 51
182.1857182471151
  0
ARC
  5
5BB0
330
1A
100
AcDbEntity
  8
SEIHIN
100
AcDbCircle
 10
-72120.32571577017
 20
2551.318524715254
 30
0.0
 40
72535.27351244235
100
AcDbArc
 50
358.3214273284969
 51
358.3403930306126
  0
LINE
  5
5BB1
330
1A
100
AcDbEntity
  8
SEIHIN
100
AcDbLine
 10
386.3821802234908
 20
450.5841616124468
 30
0.0
 11
387.8248438614284
 21
423.0841616124469
 31
0.0
  0
LINE
  5
5BB2
330
1A
100
AcDbEntity
  8
SEIHIN
100
AcDbLine
 10
381.3712794549912
 20
423.5795736027468
 30
0.0
 11
381.647957748891
 21
450.5841616124468
 31
0.0
  0
LINE
  5
5BB3
330
1A
100
AcDbEntity
  8
SEIHIN
100
AcDbLine
 10
393.8924935210909
 20
450.5841616124468
 30
0.0
 11
394.9417034395912
 21
430.5841616124468
 31
0.0
  0
LINE
  5
5BB4
330
1A
100
AcDbEntity
  8
SEIHIN
100
AcDbLine
 10
393.8924935210909
 20
450.5841616124468
 30
0.0
 11
394.9454703655908
 21
430.5123566120469
 31
0.0
  0
LINE
  5
5BB5
330
1A
100
AcDbEntity
  8
SEIHIN
100
AcDbLine
 10
378.8944696868848
 20
426.0589299640607
 30
0.0
 11
378.8944696868848
 21
437.0710077303608
 31
0.0
  0
LINE
  5
5BB6
330
1A
100
AcDbEntity
  8
SEIHIN
100
AcDbLine
 10
380.967795585591
 20
423.0935776601468
 30
0.0
 11
380.8714412242908
 21
423.0841616626468
 31
0.0
  0
LINE
  5
5BB7
330
1A
100
AcDbEntity
  8
SEIHIN
100
AcDbLine
 10
381.0605290971908
 20
423.1213862912468
 30
0.0
 11
380.967795585591
 21
423.0935776601468
 31
0.0
  0
LINE
  5
5BB8
330
1A
100
AcDbEntity
  8
SEIHIN
100
AcDbLine
 10
381.1461650587908
 20
423.1665449739469
 30
0.0
 11
381.0605290971908
 21
423.1213862912468
 31
0.0
  0
LINE
  5
5BB9
330
1A
100
AcDbEntity
  8
SEIHIN
100
AcDbLine
 10
381.221492865991
 20
423.2273606503468
 30
0.0
 11
381.1461650587908
 21
423.1665449739469
 31
0.0
  0
LINE
  5
5BBA
330
1A
100
AcDbEntity
  8
SEIHIN
100
AcDbLine
 10
381.2836883810911
 20
423.3015532610468
 30
0.0
 11
381.221492865991
 21
423.2273606503468
 31
0.0
  0
LINE
  5
5BBB
330
1A
100
AcDbEntity
  8
SEIHIN
100
AcDbLine
 10
381.3304198127908
 20
423.3863412282468
 30
0.0
 11
381.2836883810911
 21
423.3015532610468
 31
0.0
  0
LINE
  5
5BBC
330
1A
100
AcDbEntity
  8
SEIHIN
100
AcDbLine
 10
381.3599351385911
 20
423.478545740247
 30
0.0
 11
381.3304198127908
 21
423.3863412282468
 31
0.0
  0
LINE
  5
5BBD
330
1A
100
AcDbEntity
  8
SEIHIN
100
AcDbLine
 10
381.3711277904909
 20
423.5747099293469
 30
0.0
 11
381.3599351385911
 21
423.478545740247
 31
0.0
  0
LINE
  5
5BBE
330
1A
100
AcDbEntity
  8
SEIHIN
100
AcDbLine
 10
380.8052841058907
 20
423.3247733771468
 30
0.0
 11
380.7955272761911
 21
423.4591616124468
 31
0.0
  0
LINE
  5
5BBF
330
1A
100
AcDbEntity
  8
SEIHIN
100
AcDbLine
 10
380.824494116791
 20
423.1965351342466
 30
0.0
 11
380.8052841058907
 21
423.3247733771468
 31
0.0
  0
LINE
  5
5BC0
330
1A
100
AcDbEntity
  8
SEIHIN
100
AcDbLine
 10
380.850025222891
 20
423.1129979541467
 30
0.0
 11
380.824494116791
 21
423.1965351342466
 31
0.0
  0
LINE
  5
5BC1
330
1A
100
AcDbEntity
  8
SEIHIN
100
AcDbLine
 10
380.8787728745911
 20
423.0841616124469
 30
0.0
 11
380.850025222891
 21
423.1129979541467
 31
0.0
  0
LINE
  5
5BC2
330
1A
100
AcDbEntity
  8
SEIHIN
100
AcDbLine
 10
380.3952494765909
 20
425.9131511879468
 30
0.0
 11
380.2569410884908
 21
426.0720838461468
 31
0.0
  0
LINE
  5
5BC3
330
1A
100
AcDbEntity
  8
SEIHIN
100
AcDbLine
 10
380.5754530990908
 20
425.3722279540467
 30
0.0
 11
380.3952494765909
 21
425.9131511879468
 31
0.0
  0
LINE
  5
5BC4
330
1A
100
AcDbEntity
  8
SEIHIN
100
AcDbLine
 10
380.7133275676911
 20
424.5255522245468
 30
0.0
 11
380.5754530990908
 21
425.3722279540467
 31
0.0
  0
LINE
  5
5BC5
330
1A
100
AcDbEntity
  8
SEIHIN
100
AcDbLine
 10
380.7955272761911
 20
423.4591616124468
 30
0.0
 11
380.7133275676911
 21
424.5255522245468
 31
0.0
  0
LINE
  5
5BC6
330
1A
100
AcDbEntity
  8
SEIHIN
100
AcDbLine
 10
380.2569410884909
 20
426.0720838461468
 30
0.0
 11
380.1931370216909
 21
426.0841616124468
 31
0.0
  0
LINE
  5
5BC7
330
1A
100
AcDbEntity
  8
SEIHIN
100
AcDbLine
 10
383.8218029136908
 20
426.5841616124468
 30
0.0
 11
383.8216259254911
 21
423.5841616124469
 31
0.0
  0
LINE
  5
5BC8
330
1A
100
AcDbEntity
  8
SEIHIN
100
AcDbLine
 10
383.8216259254911
 20
423.5841616124469
 30
0.0
 11
383.8216259254911
 21
423.0841616124469
 31
0.0
  0
LINE
  5
5BC9
330
1A
100
AcDbEntity
  8
SEIHIN
100
AcDbLine
 10
394.9417034395912
 20
430.5841616124468
 30
0.0
 11
394.5758541302909
 21
423.6103558405468
 31
0.0
  0
LINE
  5
5BCA
330
1A
100
AcDbEntity
  8
SEIHIN
100
AcDbLine
 10
394.6288960295911
 20
423.180663309847
 30
0.0
 11
394.5792815210907
 21
423.5321214881467
 31
0.0
  0
LINE
  5
5BCB
330
1A
100
AcDbEntity
  8
SEIHIN
100
AcDbLine
 10
394.6686628153908
 20
423.0841616124469
 30
0.0
 11
394.6288960295911
 21
423.180663309847
 31
0.0
  0
LINE
  5
5BCC
330
1A
100
AcDbEntity
  8
SEIHIN
100
AcDbLine
 10
395.285718991591
 20
418.5841616124468
 30
0.0
 11
395.285718991591
 21
420.0841616124469
 31
0.0
  0
LINE
  5
5BCD
330
1A
100
AcDbEntity
  8
SEIHIN
100
AcDbLine
 10
395.285718991591
 20
420.0841616124469
 30
0.0
 11
393.285718991591
 21
420.0841616124469
 31
0.0
  0
LINE
  5
5BCE
330
1A
100
AcDbEntity
  8
SEIHIN
100
AcDbLine
 10
394.285718991591
 20
417.5841616124468
 30
0.0
 11
393.285718991591
 21
417.5841616124468
 31
0.0
  0
ARC
  5
5BCF
330
1A
100
AcDbEntity
  8
SEIHIN
100
AcDbCircle
 10
394.285718991591
 20
418.5841616124468
 30
0.0
 40
1.0
100
AcDbArc
 50
270.0
 51
0.0
  0
LINE
  5
5BD0
330
1A
100
AcDbEntity
  8
SEIHIN
100
AcDbLine
 10
395.285718991591
 20
420.0841616124469
 30
0.0
 11
395.285718991591
 21
421.0841616124469
 31
0.0
  0
LINE
  5
5BD1
330
1A
100
AcDbEntity
  8
SEIHIN
100
AcDbLine
 10
395.285718991591
 20
422.0841616124468
 30
0.0
 11
395.285718991591
 21
421.0841616124469
 31
0.0
  0
LINE
  5
5BD2
330
1A
100
AcDbEntity
  8
SEIHIN
100
AcDbLine
 10
395.285718991591
 20
422.0841616124468
 30
0.0
 11
395.285718991591
 21
423.0841616124469
 31
0.0
  0
LINE
  5
5BD3
330
1A
100
AcDbEntity
  8
SEIHIN
100
AcDbLine
 10
378.2695614910909
 20
450.5841616121467
 30
0.0
 11
378.2597771742909
 21
447.6803265774467
 31
0.0
  0
LINE
  5
5BD4
330
1A
100
AcDbEntity
  8
SEIHIN
100
AcDbLine
 10
504.5006931670267
 20
300.7686192435686
 30
0.0
 11
491.9006931670264
 21
300.5499097499686
 31
0.0
  0
LINE
  5
5BD5
330
1A
100
AcDbEntity
  8
SEIHIN
100
AcDbLine
 10
474.0006931670268
 20
282.7686192435685
 30
0.0
 11
474.0006931670268
 21
303.1680103721685
 31
0.0
  0
LINE
  5
5BD6
330
1A
100
AcDbEntity
  8
SEIHIN
100
AcDbLine
 10
471.5006931670268
 20
303.0893987031686
 30
0.0
 11
471.5006931670268
 21
279.2686192435685
 31
0.0
  0
LINE
  5
5BD7
330
1A
100
AcDbEntity
  8
SEIHIN
100
AcDbLine
 10
504.5006931670268
 20
298.8321275704686
 30
0.0
 11
504.5006931670268
 21
300.7686192435687
 31
0.0
  0
LINE
  5
5BD8
330
1A
100
AcDbEntity
  8
SEIHIN
  6
CONTINUOUS
100
AcDbLine
 10
687.1912289513497
 20
302.1205067454683
 30
0.0
 11
687.1912289513497
 21
282.2585192743682
 31
0.0
  0
LINE
  5
5BD9
330
1A
100
AcDbEntity
  8
NOKITOI
 48
0.5
100
AcDbLine
 10
687.3767266750458
 20
301.4217188754191
 30
0.0
 11
687.3767302120175
 21
282.7474501757029
 31
0.0
  0
LINE
  5
5BDA
330
1A
100
AcDbEntity
  8
SEIHIN
  6
CONTINUOUS
100
AcDbLine
 10
689.1329733964498
 20
304.4418940143683
 30
0.0
 11
689.1329733964498
 21
280.3167748291683
 31
0.0
  0
LINE
  5
5BDB
330
1A
100
AcDbEntity
  8
SEIHIN
  6
CONTINUOUS
100
AcDbLine
 10
688.1811289821499
 20
281.2686192435684
 30
0.0
 11
688.1811289821499
 21
303.2845944112683
 31
0.0
  0
LINE
  5
5BDC
330
1A
100
AcDbEntity
  8
SEIHIN
  6
CONTINUOUS
100
AcDbLine
 10
680.1811289821499
 20
301.8035642232683
 30
0.0
 11
680.1811289821499
 21
298.7686192435684
 31
0.0
  0
LINE
  5
5BDD
330
1A
100
AcDbEntity
  8
SEIHIN
  6
CONTINUOUS
100
AcDbLine
 10
677.6811289821498
 20
300.7686192435684
 30
0.0
 11
677.6811289821498
 21
300.2686192435684
 31
0.0
  0
ARC
  5
5BDE
330
1A
100
AcDbEntity
  8
NOKITOI
 48
0.5
100
AcDbCircle
 10
680.6767268456167
 20
300.5211582099519
 30
0.0
 40
0.3000000000000258
100
AcDbArc
 50
105.9453967199691
 51
180.0000108519963
  0
LINE
  5
5BDF
330
1A
100
AcDbEntity
  8
NOKITOI
 48
0.5
100
AcDbLine
 10
680.3767268027566
 20
300.7474486181685
 30
0.0
 11
680.3767273709657
 21
297.7474486181666
 31
0.0
  0
LINE
  5
5BE0
330
1A
100
AcDbEntity
  8
SEIHIN
  6
CONTINUOUS
100
AcDbLine
 10
680.1811289821499
 20
300.2511467536684
 30
0.0
 11
687.1912289513497
 21
302.1205067454683
 31
0.0
  0
LINE
  5
5BE1
330
1A
100
AcDbEntity
  8
SEIHIN
  6
CONTINUOUS
100
AcDbLine
 10
690.1811289821498
 20
279.2686192435684
 30
0.0
 11
690.1811289821498
 21
304.7214021705682
 31
0.0
  0
LINE
  5
5BE2
330
1A
100
AcDbEntity
  8
SEIHIN
  6
CONTINUOUS
100
AcDbLine
 10
531.2664536816496
 20
303.6551343783684
 30
0.0
 11
531.2664536816496
 21
258.7305450390682
 31
0.0
  0
ARC
  5
5BE3
330
1A
100
AcDbEntity
  8
NOKITOI
 48
0.5
100
AcDbCircle
 10
675.9124549196396
 20
283.7474535136028
 30
0.0
 40
7.0
100
AcDbArc
 50
328.905124217691
 51
90.0
  0
LINE
  5
5BE4
330
1A
100
AcDbEntity
  8
NOKITOI
 48
0.5
100
AcDbLine
 10
685.394310558541
 20
300.5170189301953
 30
0.0
 11
682.1943107317117
 21
299.6027332159115
 31
0.0
  0
LINE
  5
5BE5
330
1A
100
AcDbEntity
  8
NOKITOI
 48
0.5
100
AcDbLine
 10
684.6663105901432
 20
284.3474546992526
 30
0.0
 11
685.4767293514657
 21
284.3474533467063
 31
0.0
  0
ARC
  5
5BE6
330
1A
100
AcDbEntity
  8
SEIHIN
  6
CONTINUOUS
100
AcDbCircle
 10
1017.014005353549
 20
76.53793121266824
 30
0.0
 40
387.5000000000001
100
AcDbArc
 50
148.4544686359935
 51
165.3541655469979
  0
ARC
  5
5BE7
330
1A
100
AcDbEntity
  8
SEIHIN
  6
CONTINUOUS
100
AcDbCircle
 10
1017.014005353549
 20
76.53793121266824
 30
0.0
 40
388.5481555856999
100
AcDbArc
 50
148.367950118597
 51
165.2350785185025
  0
ARC
  5
5BE8
330
1A
100
AcDbEntity
  8
SEIHIN
  6
CONTINUOUS
100
AcDbCircle
 10
1017.014005353549
 20
76.53793121266824
 30
0.0
 40
389.5
100
AcDbArc
 50
148.2897156558005
 51
165.0147145317959
  0
ARC
  5
5BE9
330
1A
100
AcDbEntity
  8
SEIHIN
  6
CONTINUOUS
100
AcDbCircle
 10
1017.014005353549
 20
76.53793121266824
 30
0.0
 40
390.4899000308
100
AcDbArc
 50
148.2086883363983
 51
165.0719417271033
  0
ARC
  5
5BEA
330
1A
100
AcDbEntity
  8
NOKITOI
 48
0.5
100
AcDbCircle
 10
1017.238927154227
 20
77.8877941533998
 30
0.0
 40
390.0000000000088
100
AcDbArc
 50
148.3128260639064
 51
165.2029755012118
  0
LINE
  5
5BEB
330
1A
100
AcDbEntity
  8
SEIHIN
100
AcDbLine
 10
682.7522703288464
 20
282.2585192746326
 30
0.0
 11
531.2664536816496
 21
282.2585192746324
 31
0.0
  0
LINE
  5
5BEC
330
1A
100
AcDbEntity
  8
SEIHIN
  6
CONTINUOUS
100
AcDbLine
 10
629.5216759810018
 20
176.720683566535
 30
0.0
 11
545.7042606966044
 21
176.720683566535
 31
0.0
  0
ARC
  5
5BED
330
1A
100
AcDbEntity
  8
SEIHIN
  6
CONTINUOUS
100
AcDbCircle
 10
587.1311289821496
 20
1166.268619243567
 30
0.0
 40
1000.499999999999
100
AcDbArc
 50
267.7746945664083
 51
272.3755088672074
  0
ARC
  5
5BEE
330
1A
100
AcDbEntity
  8
SEIHIN
  6
CONTINUOUS
100
AcDbCircle
 10
587.1311289821496
 20
1166.268619243567
 30
0.0
 40
998.2499999999996
100
AcDbArc
 50
267.879450318405
 51
272.2820935299941
  0
ARC
  5
5BEF
330
1A
100
AcDbEntity
  8
SEIHIN
  6
CONTINUOUS
100
AcDbCircle
 10
587.1311289821496
 20
1166.268619243567
 30
0.0
 40
996.5499999999996
100
AcDbArc
 50
267.8422909050943
 51
272.2736882979016
  0
ARC
  5
5BF0
330
1A
100
AcDbEntity
  8
SEIHIN
  6
CONTINUOUS
100
AcDbCircle
 10
587.1311289821496
 20
1166.268619243567
 30
0.0
 40
1002.499999999999
100
AcDbArc
 50
267.7508500805577
 51
272.4996011933964
  0
ARC
  5
5BF1
330
1A
100
AcDbEntity
  8
SEIHIN
  6
CONTINUOUS
100
AcDbCircle
 10
587.1311289821496
 20
1166.268619243567
 30
0.0
 40
1001.451844414299
100
AcDbArc
 50
267.7998095815973
 51
272.4563014238085
  0
ARC
  5
5BF2
330
1A
100
AcDbEntity
  8
SEIHIN
  6
CONTINUOUS
100
AcDbCircle
 10
587.1311289821496
 20
1166.268619243567
 30
0.0
 40
999.5100999691997
100
AcDbArc
 50
267.7512124791084
 51
272.3964753037982
  0
ARC
  5
5BF3
330
1A
100
AcDbEntity
  8
NOKITOI
 48
0.5
100
AcDbCircle
 10
582.4267268860187
 20
1166.7474535136
 30
0.0
 40
998.3999999999994
100
AcDbArc
 50
268.0220726347792
 51
272.6011222906947
  0
ARC
  5
5BF4
330
1A
100
AcDbEntity
  8
NOKITOI
 48
0.5
100
AcDbCircle
 10
582.4267268860187
 20
1166.7474535136
 30
0.0
 40
999.9999999999994
100
AcDbArc
 50
268.0220726347792
 51
272.6666880764235
  0
LINE
  5
5BF5
330
1A
100
AcDbEntity
  8
SEIHIN
100
AcDbLine
 10
504.5006931670268
 20
171.7394412025686
 30
0.0
 11
504.5006931670268
 21
226.1493570720686
 31
0.0
  0
LINE
  5
5BF6
330
1A
100
AcDbEntity
  8
SEIHIN
100
AcDbLine
 10
474.5006931670268
 20
226.1842554428685
 30
0.0
 11
474.5006931670268
 21
175.5990874022686
 31
0.0
  0
ARC
  5
5BF7
330
1A
100
AcDbEntity
  8
SEIHIN
  6
CONTINUOUS
100
AcDbCircle
 10
1527.851215663849
 20
345.5379260169682
 30
0.0
 40
998.2500000000001
100
AcDbArc
 50
186.8536867427999
 51
189.9144450404043
  0
ARC
  5
5BF8
330
1A
100
AcDbEntity
  8
SEIHIN
  6
CONTINUOUS
100
AcDbCircle
 10
1527.851215663849
 20
345.5379260169682
 30
0.0
 40
996.55
100
AcDbArc
 50
186.8982810876982
 51
189.9839487841182
  0
ARC
  5
5BF9
330
1A
100
AcDbEntity
  8
SEIHIN
  6
CONTINUOUS
100
AcDbCircle
 10
1527.851215663849
 20
345.5379260169682
 30
0.0
 40
999.5100999692001
100
AcDbArc
 50
186.850983621403
 51
190.0427028448977
  0
ARC
  5
5BFA
330
1A
100
AcDbEntity
  8
SEIHIN
  6
CONTINUOUS
100
AcDbCircle
 10
1527.851215663849
 20
345.5379260169682
 30
0.0
 40
1000.499999999999
100
AcDbArc
 50
186.8488637074019
 51
190.0192007924038
  0
ARC
  5
5BFB
330
1A
100
AcDbEntity
  8
SEIHIN
  6
CONTINUOUS
100
AcDbCircle
 10
1527.851215663849
 20
345.5379260169682
 30
0.0
 40
1002.5
100
AcDbArc
 50
186.8445902095019
 51
190.0430452782084
  0
ARC
  5
5BFC
330
1A
100
AcDbEntity
  8
SEIHIN
  6
CONTINUOUS
100
AcDbCircle
 10
1527.851215663849
 20
345.5379260169682
 30
0.0
 40
1001.4518444143
100
AcDbArc
 50
186.846828257601
 51
189.9940857772002
  0
ARC
  5
5BFD
330
1A
100
AcDbEntity
  8
NOKITOI
 48
0.5
100
AcDbCircle
 10
1527.728755270443
 20
346.4745407527294
 30
0.0
 40
999.9999999999998
100
AcDbArc
 50
186.9224492108841
 51
190.0791999128714
  0
ARC
  5
5BFE
330
1A
100
AcDbEntity
  8
NOKITOI
 48
0.5
100
AcDbCircle
 10
1527.728755270443
 20
346.4745407527294
 30
0.0
 40
998.3999999999999
100
AcDbArc
 50
186.9259008803006
 51
190.0791999128714
  0
LINE
  5
5BFF
330
1A
100
AcDbEntity
  8
SEIHIN
100
AcDbLine
 10
504.5006931670268
 20
164.8167748292686
 30
0.0
 11
484.5006931670268
 21
163.7686192435686
 31
0.0
  0
LINE
  5
5C00
330
1A
100
AcDbEntity
  8
SEIHIN
100
AcDbLine
 10
477.3397510202265
 20
173.3126614468685
 30
0.0
 11
477.4714449648266
 21
173.0087045348685
 31
0.0
  0
LINE
  5
5C01
330
1A
100
AcDbEntity
  8
SEIHIN
100
AcDbLine
 10
484.5006931670268
 20
163.7686192435686
 30
0.0
 11
479.3960212545266
 21
164.0361437624685
 31
0.0
  0
LINE
  5
5C02
330
1A
100
AcDbEntity
  8
SEIHIN
100
AcDbLine
 10
477.4714449648266
 20
173.0087045348685
 30
0.0
 11
477.5006931670267
 21
172.7686192435686
 31
0.0
  0
LINE
  5
5C03
330
1A
100
AcDbEntity
  8
SEIHIN
100
AcDbLine
 10
477.5006931670268
 20
171.3269562514685
 30
0.0
 11
477.5006931670268
 21
166.7952997112686
 31
0.0
  0
LINE
  5
5C04
330
1A
100
AcDbEntity
  8
SEIHIN
100
AcDbLine
 10
477.5006931670268
 20
172.7686192435685
 30
0.0
 11
477.5006931670268
 21
171.3269562514685
 31
0.0
  0
ARC
  5
5C05
330
1A
100
AcDbEntity
  8
SEIHIN
100
AcDbCircle
 10
479.5006931670268
 20
166.0334028319686
 30
0.0
 40
2.000000000000003
100
AcDbArc
 50
180.0
 51
266.9999999999943
  0
LINE
  5
5C06
330
1A
100
AcDbEntity
  8
SEIHIN
100
AcDbLine
 10
477.5006931670268
 20
166.7952997112686
 30
0.0
 11
477.5006931670268
 21
166.0334028319686
 31
0.0
  0
LINE
  5
5C07
330
1A
100
AcDbEntity
  8
SEIHIN
100
AcDbLine
 10
477.1172496611264
 20
173.5559299126686
 30
0.0
 11
477.3397510202265
 21
173.3126614468685
 31
0.0
  0
LINE
  5
5C08
330
1A
100
AcDbEntity
  8
SEIHIN
100
AcDbLine
 10
476.8268506476264
 20
173.7139346924685
 30
0.0
 11
477.1172496611264
 21
173.5559299126686
 31
0.0
  0
LINE
  5
5C09
330
1A
100
AcDbEntity
  8
SEIHIN
100
AcDbLine
 10
476.5006931670267
 20
173.7686192435686
 30
0.0
 11
476.8268506476264
 21
173.7139346924685
 31
0.0
  0
LINE
  5
5C0A
330
1A
100
AcDbEntity
  8
SEIHIN
100
AcDbLine
 10
475.5006931670268
 20
173.7686192435685
 30
0.0
 11
476.5006931670268
 21
173.7686192435685
 31
0.0
  0
LINE
  5
5C0B
330
1A
100
AcDbEntity
  8
SEIHIN
100
AcDbLine
 10
474.5006931670268
 20
174.7686192435685
 30
0.0
 11
474.5006931670268
 21
175.5990874022686
 31
0.0
  0
ARC
  5
5C0C
330
1A
100
AcDbEntity
  8
SEIHIN
100
AcDbCircle
 10
475.5006931670268
 20
174.7686192435685
 30
0.0
 40
1.0
100
AcDbArc
 50
180.0
 51
270.0
  0
LINE
  5
5C0D
330
1A
100
AcDbEntity
  8
SEIHIN
100
AcDbLine
 10
504.5006931670268
 20
164.8167748292686
 30
0.0
 11
504.5006931670268
 21
165.5550563191686
 31
0.0
  0
LINE
  5
5C0E
330
1A
100
AcDbEntity
  8
SEIHIN
100
AcDbLine
 10
504.5006931670268
 20
165.5550563191686
 30
0.0
 11
504.5006931670268
 21
171.7394412025686
 31
0.0
  0
ARC
  5
5C0F
330
1A
100
AcDbEntity
  8
SEIHIN
100
AcDbCircle
 10
550.4146653182024
 20
174.6930662122853
 30
0.0
 40
5.994903800830947
100
AcDbArc
 50
189.9056797438694
 51
267.8882156194116
  0
ARC
  5
5C10
330
1A
100
AcDbEntity
  8
SEIHIN
100
AcDbCircle
 10
548.5152340425113
 20
172.5159414025221
 30
0.0
 40
5.997324261570523
100
AcDbArc
 50
190.0172082586639
 51
267.7766871086425
  0
ARC
  5
5C11
330
1A
100
AcDbEntity
  8
SEIHIN
100
AcDbCircle
 10
548.9693335811526
 20
173.0364295004104
 30
0.0
 40
7.486802459710353
100
AcDbArc
 50
189.976056179523
 51
267.8178391889214
  0
ARC
  5
5C12
330
1A
100
AcDbEntity
  8
SEIHIN
100
AcDbCircle
 10
548.0878399184355
 20
172.0260629769336
 30
0.0
 40
4.501236157131915
100
AcDbArc
 50
190.041201298272
 51
267.7571270281319
  0
ARC
  5
5C13
330
1A
100
AcDbEntity
  8
NOKITOI
 48
0.5
100
AcDbCircle
 10
548.0848106805703
 20
172.3402769549558
 30
0.0
 40
5.00000000000004
100
AcDbArc
 50
190.0791999128781
 51
268.0220726347792
  0
ARC
  5
5C14
330
1A
100
AcDbEntity
  8
NOKITOI
 48
0.5
100
AcDbCircle
 10
548.0848106805703
 20
172.3402769549558
 30
0.0
 40
3.39999999999992
100
AcDbArc
 50
190.0791999128781
 51
268.0220726347922
  0
ARC
  5
5C15
330
1A
100
AcDbEntity
  8
SEIHIN
100
AcDbCircle
 10
548.0841886426325
 20
172.021877918312
 30
0.0
 40
7.486811419221738
100
AcDbArc
 50
190.0248322627525
 51
267.7690630981898
  0
ARC
  5
5C16
330
1A
100
AcDbEntity
  8
SEIHIN
100
AcDbCircle
 10
549.816984492641
 20
174.0925428201527
 30
0.0
 40
3.673140263442668
100
AcDbArc
 50
201.2077802814806
 51
266.7820456330924
  0
LINE
  5
5C17
330
1A
100
AcDbEntity
  8
SEIHIN
100
AcDbLine
 10
491.9006931670264
 20
300.5499097499686
 30
0.0
 11
482.0006931670267
 21
300.3121955020685
 31
0.0
  0
LINE
  5
5C18
330
1A
100
AcDbEntity
  8
SEIHIN
100
AcDbLine
 10
482.0006931670268
 20
298.7686192435687
 30
0.0
 11
499.8771736729268
 21
298.7686192435687
 31
0.0
  0
LINE
  5
5C19
330
1A
100
AcDbEntity
  8
SEIHIN
100
AcDbLine
 10
477.2034514419767
 20
281.7686192435685
 30
0.0
 11
504.5006931670268
 21
281.2686192435685
 31
0.0
  0
LINE
  5
5C1A
330
1A
100
AcDbEntity
  8
SEIHIN
100
AcDbLine
 10
504.5006931670268
 20
253.4686192435685
 30
0.0
 11
484.5006931670268
 21
253.4686192435685
 31
0.0
  0
LINE
  5
5C1B
330
1A
100
AcDbEntity
  8
SEIHIN
100
AcDbLine
 10
477.0006931670268
 20
253.7740306065793
 30
0.0
 11
477.0006931670268
 21
262.2384955694685
 31
0.0
  0
LINE
  5
5C1C
330
1A
100
AcDbEntity
  8
SEIHIN
100
AcDbLine
 10
474.5006931670268
 20
264.0455113105685
 30
0.0
 11
474.5006931670268
 21
226.1842554428685
 31
0.0
  0
LINE
  5
5C1D
330
1A
100
AcDbEntity
  8
SEIHIN
100
AcDbLine
 10
484.5006931670268
 20
253.4686192435685
 30
0.0
 11
477.5006931670268
 21
253.4686192435685
 31
0.0
  0
ARC
  5
5C1E
330
1A
100
AcDbEntity
  8
SEIHIN
100
AcDbCircle
 10
477.5006931670268
 20
253.9686192435685
 30
0.0
 40
0.5
100
AcDbArc
 50
180.0
 51
270.0
  0
LINE
  5
5C1F
330
1A
100
AcDbEntity
  8
SEIHIN
100
AcDbLine
 10
474.5006931670268
 20
279.2686192435685
 30
0.0
 11
474.5006931670268
 21
264.0455113105685
 31
0.0
  0
LINE
  5
5C20
330
1A
100
AcDbEntity
  8
SEIHIN
100
AcDbLine
 10
477.0006931670268
 20
280.7686192435685
 30
0.0
 11
477.0006931670268
 21
262.2384955694685
 31
0.0
  0
LINE
  5
5C21
330
1A
100
AcDbEntity
  8
SEIHIN
100
AcDbLine
 10
471.5006931670268
 20
279.2686192435685
 30
0.0
 11
474.5006931670268
 21
279.2686192435685
 31
0.0
  0
ARC
  5
5C22
330
1A
100
AcDbEntity
  8
SEIHIN
100
AcDbCircle
 10
476.0006931670268
 20
280.7686192435685
 30
0.0
 40
1.0
100
AcDbArc
 50
0.0
 51
90.0
  0
LINE
  5
5C23
330
1A
100
AcDbEntity
  8
SEIHIN
100
AcDbLine
 10
477.0006931670268
 20
281.7686192435685
 30
0.0
 11
476.0006931670268
 21
281.7686192435685
 31
0.0
  0
LINE
  5
5C24
330
1A
100
AcDbEntity
  8
SEIHIN
100
AcDbLine
 10
477.4062097169267
 20
281.7686192435685
 30
0.0
 11
477.0006931670268
 21
281.7686192435685
 31
0.0
  0
LINE
  5
5C25
330
1A
100
AcDbEntity
  8
SEIHIN
100
AcDbLine
 10
476.0006931670268
 20
281.7686192435685
 30
0.0
 11
475.0006931670268
 21
281.7686192435685
 31
0.0
  0
ARC
  5
5C26
330
1A
100
AcDbEntity
  8
SEIHIN
100
AcDbCircle
 10
475.0006931670268
 20
282.7686192435685
 30
0.0
 40
1.0
100
AcDbArc
 50
180.0
 51
270.0
  0
LINE
  5
5C27
330
1A
100
AcDbEntity
  8
SEIHIN
100
AcDbLine
 10
474.0006931670268
 20
300.3121955020685
 30
0.0
 11
482.0006931670268
 21
300.3121955020685
 31
0.0
  0
LINE
  5
5C28
330
1A
100
AcDbEntity
  8
SEIHIN
100
AcDbLine
 10
474.0006931670268
 20
298.7686192435687
 30
0.0
 11
482.0006931670268
 21
298.7686192435687
 31
0.0
  0
LINE
  5
5C29
330
1A
100
AcDbEntity
  8
SEIHIN
100
AcDbLine
 10
504.5006931670268
 20
253.4686192435685
 30
0.0
 11
504.5006931670268
 21
281.2686192435685
 31
0.0
  0
ARC
  5
5C2A
330
1A
100
AcDbEntity
  8
SEIHIN
100
AcDbCircle
 10
540.1460353245938
 20
246.0144524811559
 30
0.0
 40
7.454205260502461
100
AcDbArc
 50
89.81585635470345
 51
177.7699730098118
  0
LINE
  5
5C2B
330
1A
100
AcDbEntity
  8
SEIHIN
  6
CONTINUOUS
100
AcDbLine
 10
531.7358744413495
 20
248.2674033700682
 30
0.0
 11
531.2664536816496
 21
258.7305450390682
 31
0.0
  0
LINE
  5
5C2C
330
1A
100
AcDbEntity
  8
SEIHIN
100
AcDbLine
 10
504.5006931670268
 20
226.1493570720686
 30
0.0
 11
504.5006931670268
 21
245.6329363411687
 31
0.0
  0
LINE
  5
5C2D
330
1A
100
AcDbEntity
  8
SEIHIN
100
AcDbLine
 10
504.5006931670268
 20
245.6329363411687
 30
0.0
 11
504.5006931670268
 21
253.4686192435685
 31
0.0
  0
LINE
  5
5C2E
330
1A
100
AcDbEntity
  8
NOKITOI
 48
0.5
100
AcDbLine
 10
549.2767268860673
 20
230.9487362702046
 30
0.0
 11
540.694674781231
 21
231.6237291323831
 31
0.0
  0
LINE
  5
5C2F
330
1A
100
AcDbEntity
  8
SEIHIN
  6
CONTINUOUS
100
AcDbLine
 10
533.5413211710497
 20
226.1493570720682
 30
0.0
 11
532.6672054541496
 21
245.6329363411682
 31
0.0
  0
LINE
  5
5C30
330
1A
100
AcDbEntity
  8
SEIHIN
  6
CONTINUOUS
100
AcDbLine
 10
531.6179955356497
 20
245.6329363411682
 30
0.0
 11
532.4959730122495
 21
226.0632804808682
 31
0.0
  0
LINE
  5
5C31
330
1A
100
AcDbEntity
  8
SEIHIN
  6
CONTINUOUS
100
AcDbLine
 10
533.5707958427497
 20
246.7298343259682
 30
0.0
 11
534.4906153261494
 21
226.2275421570682
 31
0.0
  0
LINE
  5
5C32
330
1A
100
AcDbEntity
  8
SEIHIN
  6
CONTINUOUS
100
AcDbLine
 10
535.4778623304496
 20
226.3088711086683
 30
0.0
 11
534.6048895428498
 21
245.7669750855682
 31
0.0
  0
LINE
  5
5C33
330
1A
100
AcDbEntity
  8
NOKITOI
 48
0.5
100
AcDbLine
 10
536.6141480030144
 20
226.0818696255802
 30
0.0
 11
536.2074701725644
 21
234.9859201628172
 31
0.0
  0
LINE
  5
5C34
330
1A
100
AcDbEntity
  8
NOKITOI
 48
0.5
100
AcDbLine
 10
535.0185606749407
 20
225.948736270209
 30
0.0
 11
534.1155130569807
 21
245.7206073332279
 31
0.0
  0
LINE
  5
5C35
330
1A
100
AcDbEntity
  8
NOKITOI
 48
0.5
100
AcDbLine
 10
542.1177840628274
 20
250.2962393435701
 30
0.0
 11
549.2767268860673
 21
230.9487362702046
 31
0.0
  0
ARC
  5
5C36
330
1A
100
AcDbEntity
  8
SEIHIN
100
AcDbCircle
 10
537.8601314317561
 20
228.0699678110513
 30
0.0
 40
1.198706300966377
100
AcDbArc
 50
90.54820659639545
 51
182.6038544326507
  0
LINE
  5
5C37
330
1A
100
AcDbEntity
  8
SEIHIN
  6
CONTINUOUS
100
AcDbLine
 10
536.7345839214494
 20
226.4124258768682
 30
0.0
 11
536.6626627760497
 21
228.0155103544682
 31
0.0
  0
LINE
  5
5C38
330
1A
100
AcDbEntity
  8
SEIHIN
  6
CONTINUOUS
100
AcDbLine
 10
538.4300240372494
 20
226.5521787182682
 30
0.0
 11
538.3081530337087
 21
229.2686192435683
 31
0.0
  0
LINE
  5
5C39
330
1A
100
AcDbEntity
  8
SEIHIN
  6
CONTINUOUS
100
AcDbLine
 10
538.5152952570497
 20
225.8452399712682
 30
0.0
 11
538.4300240372494
 21
226.5521787182682
 31
0.0
  0
LINE
  5
5C3A
330
1A
100
AcDbEntity
  8
SEIHIN
  6
CONTINUOUS
100
AcDbLine
 10
537.8486623733181
 20
229.2686192435683
 30
0.0
 11
538.3081530337494
 21
229.2686192435683
 31
0.0
  0
ARC
  5
5C3B
330
1A
100
AcDbEntity
  8
SEIHIN
100
AcDbCircle
 10
538.8797746492323
 20
245.9609420341121
 30
0.0
 40
7.507001670071081
100
AcDbArc
 50
100.2736381140691
 51
162.106940105153
  0
ARC
  5
5C3C
330
1A
100
AcDbEntity
  8
SEIHIN
100
AcDbCircle
 10
539.1459175555151
 20
245.9250594058472
 30
0.0
 40
4.543778830899224
100
AcDbArc
 50
90.56253050167699
 51
181.9938014074222
  0
ARC
  5
5C3D
330
1A
100
AcDbEntity
  8
SEIHIN
100
AcDbCircle
 10
538.5664267104687
 20
246.9673582046899
 30
0.0
 40
5.001274373544252
100
AcDbArc
 50
90.13230871662154
 51
182.7221535918062
  0
ARC
  5
5C3E
330
1A
100
AcDbEntity
  8
NOKITOI
 48
0.5
100
AcDbCircle
 10
539.1103060645138
 20
245.9487362702049
 30
0.0
 40
3.400000000000112
100
AcDbArc
 50
90.0
 51
182.615072895425
  0
ARC
  5
5C3F
330
1A
100
AcDbEntity
  8
NOKITOI
 48
0.5
100
AcDbCircle
 10
539.1103060645148
 20
245.9487362702051
 30
0.0
 40
4.999999999999845
100
AcDbArc
 50
90.0
 51
182.6150728954314
  0
LINE
  5
5C40
330
1A
100
AcDbEntity
  8
NOKITOI
 48
0.5
100
AcDbLine
 10
539.2214246115365
 20
234.7488675664939
 30
0.0
 11
536.2074701725644
 21
234.9859201628172
 31
0.0
  0
LINE
  5
5C41
330
1A
100
AcDbEntity
  8
NOKITOI
 48
0.5
100
AcDbLine
 10
540.2928825997971
 20
236.1692280025184
 30
0.0
 11
536.1385008097379
 21
236.4959771320735
 31
0.0
  0
LINE
  5
5C42
330
1A
100
AcDbEntity
  8
NOKITOI
 48
0.5
100
AcDbLine
 10
536.1385008097379
 20
236.4959771320735
 30
0.0
 11
535.7138468193904
 21
245.7936085930599
 31
0.0
  0
ARC
  5
5C43
330
1A
100
AcDbEntity
  8
SEIHIN
100
AcDbCircle
 10
546.1429834673204
 20
246.3028882818587
 30
0.0
 40
14.54043018682782
100
AcDbArc
 50
172.2351880561205
 51
182.6408443683096
  0
LINE
  5
5C44
330
1A
100
AcDbEntity
  8
SEIHIN
100
AcDbLine
 10
532.6974754222496
 20
246.3045066948683
 30
0.0
 11
532.6672054541496
 21
245.6329363411682
 31
0.0
  0
LINE
  5
5C45
330
1A
100
AcDbEntity
  8
NOKITOI
 48
0.5
100
AcDbLine
 10
540.8689855989125
 20
249.3487362702052
 30
0.0
 11
547.0559617467208
 21
232.6280356039059
 31
0.0
  0
LINE
  5
5C46
330
1A
100
AcDbEntity
  8
NOKITOI
 48
0.5
100
AcDbLine
 10
547.0559617467208
 20
232.6280356039059
 30
0.0
 11
541.4481848743264
 21
233.069096706229
 31
0.0
  0
ARC
  5
5C47
330
1A
100
AcDbEntity
  8
NOKITOI
 48
0.5
100
AcDbCircle
 10
540.7338795488206
 20
232.1221897488797
 30
0.0
 40
0.5000000000000096
100
AcDbArc
 50
200.4385314093218
 51
265.5028483853374
  0
LINE
  5
5C48
330
1A
100
AcDbEntity
  8
NOKITOI
 48
0.5
100
AcDbLine
 10
540.2653558673821
 20
231.9475886036042
 30
0.0
 11
539.2214246115365
 21
234.7488675664939
 31
0.0
  0
LINE
  5
5C49
330
1A
100
AcDbEntity
  8
NOKITOI
 48
0.5
100
AcDbLine
 10
541.4481848743264
 20
233.069096706229
 30
0.0
 11
540.2928825997971
 21
236.1692280025184
 31
0.0
  0
LINE
  5
5C4A
330
1A
100
AcDbEntity
  8
SEIHIN
  6
CONTINUOUS
100
AcDbLine
 10
539.1013074089496
 20
250.4686192435682
 30
0.0
 11
542.5631140992495
 21
250.4686192435682
 31
0.0
  0
LINE
  5
5C4B
330
1A
100
AcDbEntity
  8
SEIHIN
  6
CONTINUOUS
100
AcDbLine
 10
543.5070076293495
 20
251.9686192435682
 30
0.0
 11
538.5548776642495
 21
251.9686192435682
 31
0.0
  0
LINE
  5
5C4C
330
1A
100
AcDbEntity
  8
SEIHIN
  6
CONTINUOUS
100
AcDbLine
 10
540.1699924498498
 20
253.4686192435682
 30
0.0
 11
542.0310252130498
 21
253.4686192435682
 31
0.0
  0
LINE
  5
5C4D
330
1A
100
AcDbEntity
  8
SEIHIN
  6
CONTINUOUS
100
AcDbLine
 10
543.4002456380494
 20
248.1686192435682
 30
0.0
 11
543.5344874410498
 21
248.2174792639682
 31
0.0
  0
LINE
  5
5C4E
330
1A
100
AcDbEntity
  8
SEIHIN
  6
CONTINUOUS
100
AcDbLine
 10
543.6155687219497
 20
248.2692534804682
 30
0.0
 11
543.5984824820498
 21
248.2543972695682
 31
0.0
  0
LINE
  5
5C4F
330
1A
100
AcDbEntity
  8
SEIHIN
  6
CONTINUOUS
100
AcDbLine
 10
543.5984824820498
 20
248.2543972695682
 30
0.0
 11
543.5344874410498
 21
248.2174792639682
 31
0.0
  0
LINE
  5
5C50
330
1A
100
AcDbEntity
  8
SEIHIN
  6
CONTINUOUS
100
AcDbLine
 10
543.1474157834495
 20
253.4248379643682
 30
0.0
 11
542.7312327512495
 21
253.4686192435682
 31
0.0
  0
LINE
  5
5C51
330
1A
100
AcDbEntity
  8
SEIHIN
  6
CONTINUOUS
100
AcDbLine
 10
542.7312327512495
 20
253.4686192435682
 30
0.0
 11
542.0310252130498
 21
253.4686192435682
 31
0.0
  0
LINE
  5
5C52
330
1A
100
AcDbEntity
  8
SEIHIN
  6
CONTINUOUS
100
AcDbLine
 10
542.5631140992495
 20
250.4686192435682
 30
0.0
 11
543.4002456380494
 21
248.1686192435682
 31
0.0
  0
LINE
  5
5C53
330
1A
100
AcDbEntity
  8
SEIHIN
  6
CONTINUOUS
100
AcDbLine
 10
538.3787210738894
 20
250.4036010906716
 30
0.0
 11
539.1013074089496
 21
250.4686192435682
 31
0.0
  0
LINE
  5
5C54
330
1A
100
AcDbEntity
  8
SEIHIN
  6
CONTINUOUS
100
AcDbLine
 10
544.7958288310497
 20
251.6437969341682
 30
0.0
 11
544.6106179928497
 21
252.1526595301683
 31
0.0
  0
LINE
  5
5C55
330
1A
100
AcDbEntity
  8
SEIHIN
  6
CONTINUOUS
100
AcDbLine
 10
545.0654369033495
 20
250.9030548434682
 30
0.0
 11
544.8110184985498
 21
251.6020636658682
 31
0.0
  0
LINE
  5
5C56
330
1A
100
AcDbEntity
  8
SEIHIN
  6
CONTINUOUS
100
AcDbLine
 10
543.8700919484495
 20
248.3396293151682
 30
0.0
 11
544.4536187943494
 21
248.6719936892682
 31
0.0
  0
LINE
  5
5C57
330
1A
100
AcDbEntity
  8
SEIHIN
  6
CONTINUOUS
100
AcDbLine
 10
544.4536187943494
 20
248.6719936892682
 30
0.0
 11
544.8942370614495
 21
249.1787729307682
 31
0.0
  0
LINE
  5
5C58
330
1A
100
AcDbEntity
  8
SEIHIN
  6
CONTINUOUS
100
AcDbLine
 10
544.8942370614495
 20
249.1787729307682
 30
0.0
 11
545.1422703826497
 21
249.8028315245683
 31
0.0
  0
LINE
  5
5C59
330
1A
100
AcDbEntity
  8
SEIHIN
  6
CONTINUOUS
100
AcDbLine
 10
545.1422703826497
 20
249.8028315245683
 30
0.0
 11
545.1697548824495
 21
250.4738115982683
 31
0.0
  0
LINE
  5
5C5A
330
1A
100
AcDbEntity
  8
SEIHIN
  6
CONTINUOUS
100
AcDbLine
 10
545.1697548824495
 20
250.4738115982683
 30
0.0
 11
545.0654369033495
 21
250.9030548434682
 31
0.0
  0
LINE
  5
5C5B
330
1A
100
AcDbEntity
  8
SEIHIN
  6
CONTINUOUS
100
AcDbLine
 10
544.6106179928497
 20
252.1526595301683
 30
0.0
 11
544.2782536187496
 21
252.7361863760682
 31
0.0
  0
LINE
  5
5C5C
330
1A
100
AcDbEntity
  8
SEIHIN
  6
CONTINUOUS
100
AcDbLine
 10
544.2782536187496
 20
252.7361863760682
 30
0.0
 11
543.7714743772499
 21
253.1768046431682
 31
0.0
  0
LINE
  5
5C5D
330
1A
100
AcDbEntity
  8
SEIHIN
  6
CONTINUOUS
100
AcDbLine
 10
543.5344874410498
 20
248.2174792639682
 30
0.0
 11
543.8700919484495
 21
248.3396293151682
 31
0.0
  0
LINE
  5
5C5E
330
1A
100
AcDbEntity
  8
SEIHIN
  6
CONTINUOUS
100
AcDbLine
 10
544.6321458342383
 20
248.8773274319147
 30
0.0
 11
543.5070076293495
 21
251.9686192435682
 31
0.0
  0
LINE
  5
5C5F
330
1A
100
AcDbEntity
  8
SEIHIN
  6
CONTINUOUS
100
AcDbLine
 10
543.7714743772499
 20
253.1768046431682
 30
0.0
 11
543.1474157834495
 21
253.4248379643682
 31
0.0
  0
LINE
  5
5C60
330
1A
100
AcDbEntity
  8
NOKITOI
 48
0.5
100
AcDbLine
 10
541.1801052190851
 20
250.9487362702051
 30
0.0
 11
539.1103060645148
 21
250.9487362702051
 31
0.0
  0
LINE
  5
5C61
330
1A
100
AcDbEntity
  8
NOKITOI
 48
0.5
100
AcDbLine
 10
540.8689855989125
 20
249.3487362702052
 30
0.0
 11
539.1103060645138
 21
249.348736270205
 31
0.0
  0
ARC
  5
5C62
330
1A
100
AcDbEntity
  8
NOKITOI
 48
0.5
100
AcDbCircle
 10
541.1801052190851
 20
249.9487362702051
 30
0.0
 40
1.0
100
AcDbArc
 50
20.2761899272437
 51
89.99999999994789
  0
LINE
  5
5C63
330
1A
100
AcDbEntity
  8
SEIHIN
100
AcDbLine
 10
537.5409045871497
 20
253.3475854552682
 30
0.0
 11
540.1460353245938
 21
253.4686577416583
 31
0.0
  0
LINE
  5
5C64
330
1A
100
AcDbEntity
  8
SEIHIN
100
AcDbLine
 10
504.5006931670268
 20
281.2686192435685
 30
0.0
 11
504.5006931670268
 21
298.7242715515685
 31
0.0
  0
LINE
  5
5C65
330
1A
100
AcDbEntity
  8
SEIHIN
100
AcDbLine
 10
502.8622852435263
 20
298.7962791347685
 30
0.0
 11
504.5006931670267
 21
298.8321275704686
 31
0.0
  0
LINE
  5
5C66
330
1A
100
AcDbEntity
  8
SEIHIN
100
AcDbLine
 10
499.8771736729266
 20
298.7686192435686
 30
0.0
 11
502.8622852435263
 21
298.7962791347685
 31
0.0
  0
ARC
  5
5C67
330
1A
100
AcDbEntity
  8
SEIHIN
  6
CONTINUOUS
100
AcDbCircle
 10
1017.014005353549
 20
76.53793121266824
 30
0.0
 40
391.75
100
AcDbArc
 50
157.3174079039987
 51
164.626991953302
  0
ARC
  5
5C68
330
1A
100
AcDbEntity
  8
SEIHIN
  6
CONTINUOUS
100
AcDbCircle
 10
1017.014005353549
 20
76.53793121266824
 30
0.0
 40
393.45
100
AcDbArc
 50
157.698381523298
 51
164.6054690637043
  0
ARC
  5
5C69
330
1A
100
AcDbEntity
  8
NOKITOI
 48
0.5
100
AcDbCircle
 10
1017.238927154218
 20
77.88779415340252
 30
0.0
 40
391.6000000000002
100
AcDbArc
 50
152.3687804872638
 51
164.9112949994057
  0
LINE
  5
5C6A
330
1A
100
AcDbEntity
  8
CENTER_L
  6
CENTER
 48
5.0
100
AcDbLine
 10
587.1311289821498
 20
180.880855948311
 30
0.0
 11
587.1311289821498
 21
155.67902946441
 31
0.0
  0
LINE
  5
5C6B
330
1A
100
AcDbEntity
  8
SEIHIN
  6
CONTINUOUS
100
AcDbLine
 10
640.3302107427498
 20
174.8167748291682
 30
0.0
 11
634.8275252949497
 21
174.8167748291682
 31
0.0
  0
LINE
  5
5C6C
330
1A
100
AcDbEntity
  8
SEIHIN
  6
CONTINUOUS
100
AcDbLine
 10
635.6172952123497
 20
173.7686192435683
 30
0.0
 11
641.1387782887495
 21
173.7686192435683
 31
0.0
  0
LINE
  5
5C6D
330
1A
100
AcDbEntity
  8
SEIHIN
  6
CONTINUOUS
100
AcDbLine
 10
634.8645287270496
 20
175.7686192435683
 30
0.0
 11
638.8282336775496
 21
175.7686192435683
 31
0.0
  0
LINE
  5
5C6E
330
1A
100
AcDbEntity
  8
SEIHIN
  6
CONTINUOUS
100
AcDbLine
 10
639.2190106342495
 20
176.7585192743682
 30
0.0
 11
633.7429228479495
 21
176.7585192743682
 31
0.0
  0
LINE
  5
5C6F
330
1A
100
AcDbEntity
  8
SEIHIN
  6
CONTINUOUS
100
AcDbLine
 10
636.4962967661495
 20
178.1902521866683
 30
0.0
 11
631.6625295542496
 21
178.0186192435683
 31
0.0
  0
LINE
  5
5C70
330
1A
100
AcDbEntity
  8
SEIHIN
  6
CONTINUOUS
100
AcDbLine
 10
631.6022055386497
 20
179.7175486161683
 30
0.0
 11
636.2877429975497
 21
179.8839183540683
 31
0.0
  0
LINE
  5
5C71
330
1A
100
AcDbEntity
  8
NOKITOI
 48
0.5
100
AcDbLine
 10
632.5276455036839
 20
178.3474533864349
 30
0.0
 11
637.2086938782188
 21
178.3474535136023
 31
0.0
  0
LINE
  5
5C72
330
1A
100
AcDbEntity
  8
NOKITOI
 48
0.5
100
AcDbLine
 10
639.2057957590125
 20
176.7474535136028
 30
0.0
 11
633.7251971817257
 21
176.7474535136028
 31
0.0
  0
LINE
  5
5C73
330
1A
100
AcDbEntity
  8
SEIHIN
  6
CONTINUOUS
100
AcDbLine
 10
631.3582643548498
 20
168.7974644064683
 30
0.0
 11
632.9424538534494
 21
174.3203639128682
 31
0.0
  0
LINE
  5
5C74
330
1A
100
AcDbEntity
  8
SEIHIN
  6
CONTINUOUS
100
AcDbLine
 10
633.8676050888498
 20
174.0934889808682
 30
0.0
 11
631.8850109567497
 21
167.1816465759683
 31
0.0
  0
LINE
  5
5C75
330
1A
100
AcDbEntity
  8
SEIHIN
  6
CONTINUOUS
100
AcDbLine
 10
632.6841725408992
 20
166.166232800293
 30
0.0
 11
634.6573750063498
 21
173.0453333952682
 31
0.0
  0
LINE
  5
5C76
330
1A
100
AcDbEntity
  8
SEIHIN
  6
CONTINUOUS
100
AcDbLine
 10
628.0495367282497
 20
171.5884205638682
 30
0.0
 11
630.0284257213498
 21
178.4873458840683
 31
0.0
  0
LINE
  5
5C77
330
1A
100
AcDbEntity
  8
SEIHIN
  6
CONTINUOUS
100
AcDbLine
 10
631.6625295542496
 20
178.0186192435683
 30
0.0
 11
629.6433886255495
 21
170.9793651337682
 31
0.0
  0
LINE
  5
5C78
330
1A
100
AcDbEntity
  8
SEIHIN
  6
CONTINUOUS
100
AcDbLine
 10
632.3001756894496
 20
175.6714303727683
 30
0.0
 11
630.3061208008498
 21
168.7196327690683
 31
0.0
  0
LINE
  5
5C79
330
1A
100
AcDbEntity
  8
NOKITOI
 48
0.5
100
AcDbLine
 10
632.765747673028
 20
176.0293340561379
 30
0.0
 11
630.7782599964284
 21
169.2644326631354
 31
0.0
  0
LINE
  5
5C7A
330
1A
100
AcDbEntity
  8
NOKITOI
 48
0.5
100
AcDbLine
 10
629.5648043268131
 20
170.8103022363287
 30
0.0
 11
631.5681960548629
 21
177.6293340403066
 31
0.0
  0
ARC
  5
5C7B
330
1A
100
AcDbEntity
  8
SEIHIN
100
AcDbCircle
 10
626.7619309606106
 20
171.8055373352437
 30
0.0
 40
2.9975588036477
100
AcDbArc
 50
272.2757430352916
 51
344.0013318763417
  0
ARC
  5
5C7C
330
1A
100
AcDbEntity
  8
SEIHIN
  6
CONTINUOUS
100
AcDbCircle
 10
626.6076804051494
 20
172.0020028936683
 30
0.0
 40
1.500000000000054
100
AcDbArc
 50
272.2736882979016
 51
343.9949813690014
  0
ARC
  5
5C7D
330
1A
100
AcDbEntity
  8
SEIHIN
100
AcDbCircle
 10
628.7840293091266
 20
169.2327604251842
 30
0.0
 40
1.60625729590454
100
AcDbArc
 50
275.0290186280596
 51
341.3700036538815
  0
ARC
  5
5C7E
330
1A
100
AcDbEntity
  8
SEIHIN
100
AcDbCircle
 10
628.4950551216004
 20
169.5730570825731
 30
0.0
 40
2.946531495763965
100
AcDbArc
 50
272.0494145616933
 51
344.9961974949056
  0
ARC
  5
5C7F
330
1A
100
AcDbEntity
  8
SEIHIN
100
AcDbCircle
 10
629.9656516902391
 20
167.7317230844666
 30
0.0
 40
1.996628197522523
100
AcDbArc
 50
272.4432582952138
 51
344.0080244992056
  0
ARC
  5
5C80
330
1A
100
AcDbEntity
  8
SEIHIN
100
AcDbCircle
 10
630.7650626853887
 20
166.7171823649657
 30
0.0
 40
1.996629174466498
100
AcDbArc
 50
272.486536704026
 51
344.0079939298306
  0
ARC
  5
5C81
330
1A
100
AcDbEntity
  8
NOKITOI
 48
0.5
100
AcDbCircle
 10
628.8593609790329
 20
169.8281937482057
 30
0.0
 40
2.000000000000095
100
AcDbArc
 50
272.6666880764495
 51
343.6275265234761
  0
ARC
  5
5C82
330
1A
100
AcDbEntity
  8
NOKITOI
 48
0.5
100
AcDbCircle
 10
627.6459053094188
 20
171.3740633214023
 30
0.0
 40
2.000000000000056
100
AcDbArc
 50
272.6011223065786
 51
343.6275265233877
  0
ARC
  5
5C83
330
1A
100
AcDbEntity
  8
SEIHIN
100
AcDbCircle
 10
631.6625295542573
 20
178.0186192435345
 30
0.0
 40
1.700000000016724
100
AcDbArc
 50
92.03355132545848
 51
163.9949813679781
  0
ARC
  5
5C84
330
1A
100
AcDbEntity
  8
SEIHIN
100
AcDbCircle
 10
633.7428342687942
 20
175.2577100747298
 30
0.0
 40
1.500809202252423
100
AcDbArc
 50
89.99661834978354
 51
163.9983630190938
  0
ARC
  5
5C85
330
1A
100
AcDbEntity
  8
NOKITOI
 48
0.5
100
AcDbCircle
 10
632.5276455308506
 20
177.3474533864349
 30
0.0
 40
1.000000000000037
100
AcDbArc
 50
90.00000155653189
 51
163.6275198747635
  0
ARC
  5
5C86
330
1A
100
AcDbEntity
  8
NOKITOI
 48
0.5
100
AcDbCircle
 10
633.7251971817257
 20
175.7474535136028
 30
0.0
 40
1.000000000000015
100
AcDbArc
 50
90.0
 51
163.6275265234828
  0
ARC
  5
5C87
330
1A
100
AcDbEntity
  8
SEIHIN
100
AcDbCircle
 10
635.6312004227709
 20
172.7515351898708
 30
0.0
 40
1.017179102794839
100
AcDbArc
 50
90.78327866250939
 51
163.2117027092229
  0
ARC
  5
5C88
330
1A
100
AcDbEntity
  8
SEIHIN
100
AcDbCircle
 10
634.8273148366306
 20
173.8184246074415
 30
0.0
 40
0.998350243909673
100
AcDbArc
 50
89.98792170022335
 51
164.007059665767
  0
ARC
  5
5C89
330
1A
100
AcDbEntity
  8
SEIHIN
100
AcDbCircle
 10
634.9599827935476
 20
173.6423522388246
 30
0.0
 40
2.128408526169939
100
AcDbArc
 50
92.57044175913978
 51
161.4245396101457
  0
ARC
  5
5C8A
330
1A
100
AcDbEntity
  8
SEIHIN
100
AcDbCircle
 10
636.2377565013062
 20
181.3788369057128
 30
0.0
 40
3.199049167966992
100
AcDbArc
 50
274.6355771189096
 51
342.0249661602753
  0
ARC
  5
5C8B
330
1A
100
AcDbEntity
  8
SEIHIN
100
AcDbCircle
 10
636.2345159250117
 20
181.3829736828934
 30
0.0
 40
1.500000000043264
100
AcDbArc
 50
272.0335513232424
 51
344.6054690631571
  0
ARC
  5
5C8C
330
1A
100
AcDbEntity
  8
SEIHIN
100
AcDbCircle
 10
639.1953701835348
 20
177.2903095023708
 30
0.0
 40
0.5323154304630755
100
AcDbArc
 50
272.5453774516912
 51
342.5265675096287
  0
ARC
  5
5C8D
330
1A
100
AcDbEntity
  8
NOKITOI
 48
0.5
100
AcDbCircle
 10
639.2057957590125
 20
177.7474535136028
 30
0.0
 40
0.9999999999999346
100
AcDbArc
 50
270.0
 51
345.2029755012119
  0
ARC
  5
5C8E
330
1A
100
AcDbEntity
  8
NOKITOI
 48
0.5
100
AcDbCircle
 10
637.2086938782188
 20
180.3474535136023
 30
0.0
 40
1.999999999999926
100
AcDbArc
 50
270.0
 51
344.9112950004851
  0
ARC
  5
5C8F
330
1A
100
AcDbEntity
  8
SEIHIN
100
AcDbCircle
 10
641.1390560357672
 20
174.766889118423
 30
0.0
 40
0.9982699134932662
100
AcDbArc
 50
269.9840586880613
 51
345.3701068615996
  0
ARC
  5
5C90
330
1A
100
AcDbEntity
  8
SEIHIN
100
AcDbCircle
 10
638.828305173158
 20
177.7683195565958
 30
0.0
 40
1.999700314305585
100
AcDbArc
 50
269.9979514947308
 51
345.0167630810023
  0
ARC
  5
5C91
330
1A
100
AcDbEntity
  8
SEIHIN
100
AcDbCircle
 10
640.330486804426
 20
175.8150461174544
 30
0.0
 40
0.9982713264572272
100
AcDbArc
 50
269.9841554407883
 51
345.2509230847321
  0
LINE
  5
5C92
330
1A
100
AcDbEntity
  8
SEIHIN
  6
CONTINUOUS
100
AcDbLine
 10
653.2829800756497
 20
226.5467434547682
 30
0.0
 11
652.9944591046496
 21
225.8452399712682
 31
0.0
  0
LINE
  5
5C93
330
1A
100
AcDbEntity
  8
SEIHIN
  6
CONTINUOUS
100
AcDbLine
 10
654.7890928358497
 20
229.2222579950682
 30
0.0
 11
654.4585155309496
 21
229.2686192435683
 31
0.0
  0
LINE
  5
5C94
330
1A
100
AcDbEntity
  8
SEIHIN
  6
CONTINUOUS
100
AcDbLine
 10
655.5637935877498
 20
227.6068125696682
 30
0.0
 11
655.6548412512498
 21
228.0002098304683
 31
0.0
  0
LINE
  5
5C95
330
1A
100
AcDbEntity
  8
SEIHIN
  6
CONTINUOUS
100
AcDbLine
 10
655.6548412512498
 20
228.0002098304683
 30
0.0
 11
655.6104297255497
 21
228.4015944569682
 31
0.0
  0
LINE
  5
5C96
330
1A
100
AcDbEntity
  8
SEIHIN
  6
CONTINUOUS
100
AcDbLine
 10
655.6104297255497
 20
228.4015944569682
 30
0.0
 11
655.4357499207494
 21
228.7646587249682
 31
0.0
  0
LINE
  5
5C97
330
1A
100
AcDbEntity
  8
SEIHIN
  6
CONTINUOUS
100
AcDbLine
 10
655.4357499207494
 20
228.7646587249682
 30
0.0
 11
655.1512697263497
 21
229.0485780720682
 31
0.0
  0
LINE
  5
5C98
330
1A
100
AcDbEntity
  8
SEIHIN
  6
CONTINUOUS
100
AcDbLine
 10
655.1512697263497
 20
229.0485780720682
 30
0.0
 11
654.7890928358497
 21
229.2222579950682
 31
0.0
  0
LINE
  5
5C99
330
1A
100
AcDbEntity
  8
SEIHIN
  6
CONTINUOUS
100
AcDbLine
 10
654.4585155309496
 20
229.2686192435683
 30
0.0
 11
654.3944006407496
 21
229.2138126672682
 31
0.0
  0
LINE
  5
5C9A
330
1A
100
AcDbEntity
  8
SEIHIN
  6
CONTINUOUS
100
AcDbLine
 10
654.4174810546496
 20
229.2686192435683
 30
0.0
 11
654.4585155309496
 21
229.2686192435683
 31
0.0
  0
LINE
  5
5C9B
330
1A
100
AcDbEntity
  8
SEIHIN
  6
CONTINUOUS
100
AcDbLine
 10
654.4174810546496
 20
229.2686192435683
 30
0.0
 11
654.3944006407496
 21
229.2138126672682
 31
0.0
  0
LINE
  5
5C9C
330
1A
100
AcDbEntity
  8
SEIHIN
  6
CONTINUOUS
100
AcDbLine
 10
653.3890931316496
 20
226.8037813304682
 30
0.0
 11
653.2829800756497
 21
226.5467434547682
 31
0.0
  0
LINE
  5
5C9D
330
1A
100
AcDbEntity
  8
SEIHIN
  6
CONTINUOUS
100
AcDbLine
 10
654.2247972735495
 20
228.8103614182682
 30
0.0
 11
654.1385431130497
 21
228.6046974823682
 31
0.0
  0
LINE
  5
5C9E
330
1A
100
AcDbEntity
  8
SEIHIN
  6
CONTINUOUS
100
AcDbLine
 10
654.1385431130497
 20
228.6046974823682
 30
0.0
 11
653.9391742780496
 21
228.1280678953683
 31
0.0
  0
LINE
  5
5C9F
330
1A
100
AcDbEntity
  8
SEIHIN
  6
CONTINUOUS
100
AcDbLine
 10
653.9391742780496
 20
228.1280678953683
 30
0.0
 11
653.6404370187497
 21
227.4105673520682
 31
0.0
  0
LINE
  5
5CA0
330
1A
100
AcDbEntity
  8
SEIHIN
  6
CONTINUOUS
100
AcDbLine
 10
653.6404370187497
 20
227.4105673520682
 30
0.0
 11
653.3890931316496
 21
226.8037813304682
 31
0.0
  0
LINE
  5
5CA1
330
1A
100
AcDbEntity
  8
SEIHIN
  6
CONTINUOUS
100
AcDbLine
 10
654.3944006407496
 20
229.2138126672682
 30
0.0
 11
654.3400607910498
 21
229.0846861288682
 31
0.0
  0
LINE
  5
5CA2
330
1A
100
AcDbEntity
  8
SEIHIN
  6
CONTINUOUS
100
AcDbLine
 10
654.3400607910498
 20
229.0846861288682
 30
0.0
 11
654.2247972735495
 21
228.8103614182682
 31
0.0
  0
ARC
  5
5CA3
330
1A
100
AcDbEntity
  8
NOKITOI
 48
0.5
100
AcDbCircle
 10
675.0122630466669
 20
282.2474535136028
 30
0.0
 40
7.000000000000143
100
AcDbArc
 50
270.0
 51
329.1565853742655
  0
LINE
  5
5CA4
330
1A
100
AcDbEntity
  8
NOKITOI
 48
0.5
100
AcDbLine
 10
675.0122630466669
 20
275.2474535136028
 30
0.0
 11
667.5373719569679
 21
275.2474535136019
 31
0.0
  0
LINE
  5
5CA5
330
1A
100
AcDbEntity
  8
NOKITOI
 48
0.5
100
AcDbLine
 10
675.0122630466669
 20
273.7474535136028
 30
0.0
 11
667.5373719569681
 21
273.7474535136019
 31
0.0
  0
LINE
  5
5CA6
330
1A
100
AcDbEntity
  8
NOKITOI
 48
0.5
100
AcDbLine
 10
669.3772742482346
 20
266.3735886046945
 30
0.0
 11
664.6273148564814
 21
271.4781578138566
 31
0.0
  0
LINE
  5
5CA7
330
1A
100
AcDbEntity
  8
NOKITOI
 48
0.5
100
AcDbLine
 10
670.4753909605635
 20
267.395420139784
 30
0.0
 11
666.3769602919926
 21
271.7998205296054
 31
0.0
  0
ARC
  5
5CA8
330
1A
100
AcDbEntity
  8
NOKITOI
 48
0.5
100
AcDbCircle
 10
666.5965836344587
 20
272.0041868366235
 30
0.0
 40
0.300000000000178
100
AcDbArc
 50
150.2551187030743
 51
222.9391319567127
  0
LINE
  5
5CA9
330
1A
100
AcDbEntity
  8
NOKITOI
 48
0.5
100
AcDbLine
 10
666.3361106918212
 20
272.1530285181305
 30
0.0
 11
667.1032503859057
 21
273.4955229827802
 31
0.0
  0
ARC
  5
5CAA
330
1A
100
AcDbEntity
  8
NOKITOI
 48
0.5
100
AcDbCircle
 10
664.9933537605914
 20
271.8187683255531
 30
0.0
 40
0.4999999999999604
100
AcDbArc
 50
150.2551187030367
 51
222.93913195673
  0
LINE
  5
5CAB
330
1A
100
AcDbEntity
  8
NOKITOI
 48
0.5
100
AcDbLine
 10
664.5592321895289
 20
272.0668377947314
 30
0.0
 11
665.8008856727187
 21
274.2397313903151
 31
0.0
  0
ARC
  5
5CAC
330
1A
100
AcDbEntity
  8
NOKITOI
 48
0.5
100
AcDbCircle
 10
667.5373719569681
 20
273.2474535136019
 30
0.0
 40
2.000000000000133
100
AcDbArc
 50
90.0
 51
150.2551187030904
  0
ARC
  5
5CAD
330
1A
100
AcDbEntity
  8
NOKITOI
 48
0.5
100
AcDbCircle
 10
667.5373719569681
 20
273.2474535136019
 30
0.0
 40
0.5000000000000898
100
AcDbArc
 50
90.0
 51
150.2551187030813
  0
ARC
  5
5CAE
330
1A
100
AcDbEntity
  8
NOKITOI
 48
0.5
100
AcDbCircle
 10
664.984807398918
 20
262.2862624643365
 30
0.0
 40
7.499999999999871
100
AcDbArc
 50
8.913209673064027
 51
42.93913195673058
  0
ARC
  5
5CAF
330
1A
100
AcDbEntity
  8
NOKITOI
 48
0.5
100
AcDbCircle
 10
664.984807398918
 20
262.2862624643365
 30
0.0
 40
5.999999999999833
100
AcDbArc
 50
332.3687804872052
 51
42.93913195673058
  0
ARC
  5
5CB0
330
1A
100
AcDbEntity
  8
NOKITOI
 48
0.5
100
AcDbCircle
 10
1017.238927154227
 20
77.8877941533998
 30
0.0
 40
391.6000000000092
100
AcDbArc
 50
149.85585846754
 51
151.7153596643527
  0
ARC
  5
5CB1
330
1A
100
AcDbEntity
  8
NOKITOI
 48
0.5
100
AcDbCircle
 10
675.0122630466669
 20
282.2474535136028
 30
0.0
 40
8.499999999999944
100
AcDbArc
 50
270.0
 51
294.9443514751446
  0
LINE
  5
5CB2
330
1A
100
AcDbEntity
  8
NOKITOI
 48
0.5
100
AcDbLine
 10
667.9549433191889
 20
288.8930958558861
 30
0.0
 11
668.5888049276825
 21
287.1499764325286
 31
0.0
  0
ARC
  5
5CB3
330
1A
100
AcDbEntity
  8
NOKITOI
 48
0.5
100
AcDbCircle
 10
668.3068669006359
 20
287.0474535136025
 30
0.0
 40
0.300000000000118
100
AcDbArc
 50
270.0
 51
19.98310652190025
  0
LINE
  5
5CB4
330
1A
100
AcDbEntity
  8
NOKITOI
 48
0.5
100
AcDbLine
 10
667.3767286020829
 20
285.2474535136028
 30
0.0
 11
670.1628768900846
 21
285.2474535136019
 31
0.0
  0
LINE
  5
5CB5
330
1A
100
AcDbEntity
  8
NOKITOI
 48
0.5
100
AcDbLine
 10
680.4767276760173
 20
296.1368667046762
 30
0.0
 11
665.2357253111197
 21
293.1688819241454
 31
0.0
  0
LINE
  5
5CB6
330
1A
100
AcDbEntity
  8
NOKITOI
 48
0.5
100
AcDbLine
 10
680.3767273709657
 20
297.7474486181666
 30
0.0
 11
662.9944359666374
 21
294.3624759566826
 31
0.0
  0
ARC
  5
5CB7
330
1A
100
AcDbEntity
  8
NOKITOI
 48
0.5
100
AcDbCircle
 10
669.5674757474291
 20
290.2474535136028
 30
0.0
 40
2.000000000000145
100
AcDbArc
 50
90.0
 51
128.5575677240199
  0
ARC
  5
5CB8
330
1A
100
AcDbEntity
  8
NOKITOI
 48
0.5
100
AcDbCircle
 10
670.3044268779096
 20
289.7474535136028
 30
0.0
 40
2.500000000000012
100
AcDbArc
 50
170.932590446191
 51
199.9831065218933
  0
ARC
  5
5CB9
330
1A
100
AcDbEntity
  8
NOKITOI
 48
0.5
100
AcDbCircle
 10
667.376728602085
 20
291.2474535136028
 30
0.0
 40
4.5
100
AcDbArc
 50
180.0000108520029
 51
270.0
  0
ARC
  5
5CBA
330
1A
100
AcDbEntity
  8
NOKITOI
 48
0.5
100
AcDbCircle
 10
667.376728602085
 20
291.2474535136028
 30
0.0
 40
6.0
100
AcDbArc
 50
180.0000108520029
 51
270.0
  0
LINE
  5
5CBB
330
1A
100
AcDbEntity
  8
NOKITOI
 48
0.5
100
AcDbLine
 10
667.376728602085
 20
286.7474535136028
 30
0.0
 11
668.3068669006359
 21
286.7474535136026
 31
0.0
  0
LINE
  5
5CBC
330
1A
100
AcDbEntity
  8
NOKITOI
 48
0.5
100
AcDbLine
 10
668.3208744575142
 20
291.8114180988744
 30
0.0
 11
665.2357253111197
 21
293.1688819241454
 31
0.0
  0
ARC
  5
5CBD
330
1A
100
AcDbEntity
  8
NOKITOI
 48
0.5
100
AcDbCircle
 10
663.1767284390373
 20
292.1083037290237
 30
0.0
 40
0.3000000000000748
100
AcDbArc
 50
66.25053350041563
 51
180.0000108519963
  0
ARC
  5
5CBE
330
1A
100
AcDbEntity
  8
NOKITOI
 48
0.5
100
AcDbCircle
 10
663.3767283839118
 20
292.3993528052491
 30
0.0
 40
2.000000000000035
100
AcDbArc
 50
101.0197084218144
 51
180.0000108520289
  0
ARC
  5
5CBF
330
1A
100
AcDbEntity
  8
NOKITOI
 48
0.5
100
AcDbCircle
 10
667.5394167727293
 20
290.1887234063546
 30
0.0
 40
0.2999999999999199
100
AcDbArc
 50
350.9325904461778
 51
66.25053350041563
  0
LINE
  5
5CC0
330
1A
100
AcDbEntity
  8
NOKITOI
 48
0.5
100
AcDbLine
 10
667.6602382228491
 20
290.4633179751118
 30
0.0
 11
663.2975498891571
 21
292.382898297781
 31
0.0
  0
LINE
  5
5CC1
330
1A
100
AcDbEntity
  8
NOKITOI
 48
0.5
100
AcDbLine
 10
662.876728602085
 20
291.2474526612882
 30
0.0
 11
662.8767284390371
 21
292.1083036722028
 31
0.0
  0
LINE
  5
5CC2
330
1A
100
AcDbEntity
  8
NOKITOI
 48
0.5
100
AcDbLine
 10
661.3767286020849
 20
291.2474523771854
 30
0.0
 11
661.376728383912
 21
292.3993524264433
 31
0.0
  0
ARC
  5
5CC3
330
1A
100
AcDbEntity
  8
NOKITOI
 48
0.5
100
AcDbCircle
 10
675.9124549196396
 20
283.7474535136028
 30
0.0
 40
8.500000000000364
100
AcDbArc
 50
5.870067070462671
 51
43.6796114261821
  0
LINE
  5
5CC4
330
1A
100
AcDbEntity
  8
NOKITOI
 48
0.5
100
AcDbLine
 10
669.3646334544212
 20
289.4057104505162
 30
0.0
 11
670.6327736018286
 21
285.9183250451451
 31
0.0
  0
ARC
  5
5CC5
330
1A
100
AcDbEntity
  8
NOKITOI
 48
0.5
100
AcDbCircle
 10
670.1628768900848
 20
285.7474535136019
 30
0.0
 40
0.5000000000000025
100
AcDbArc
 50
270.0
 51
19.9831065218933
  0
ARC
  5
5CC6
330
1A
100
AcDbEntity
  8
NOKITOI
 48
0.5
100
AcDbCircle
 10
684.6663110908273
 20
284.647454699252
 30
0.0
 40
0.2999999999999176
100
AcDbArc
 50
185.8700670704496
 51
269.9999043763745
  0
ARC
  5
5CC7
330
1A
100
AcDbEntity
  8
NOKITOI
 48
0.5
100
AcDbCircle
 10
1017.238927154602
 20
77.88779415316787
 30
0.0
 40
391.6000000004494
100
AcDbArc
 50
148.9051242171964
 51
149.1565853743499
  0
ARC
  5
5CC8
330
1A
100
AcDbEntity
  8
NOKITOI
 48
0.5
100
AcDbCircle
 10
675.9124549196396
 20
283.7474535136028
 30
0.0
 40
8.5
100
AcDbArc
 50
57.5221594676197
 51
90.0
  0
LINE
  5
5CC9
330
1A
100
AcDbEntity
  8
NOKITOI
 48
0.5
100
AcDbLine
 10
675.9124549196396
 20
292.2474535136028
 30
0.0
 11
669.5674757474291
 21
292.2474535136028
 31
0.0
  0
ARC
  5
5CCA
330
1A
100
AcDbEntity
  8
NOKITOI
 48
0.5
100
AcDbCircle
 10
670.3044268779096
 20
289.7474535136028
 30
0.0
 40
1.000000000000004
100
AcDbArc
 50
90.0
 51
199.9831065218933
  0
LINE
  5
5CCB
330
1A
100
AcDbEntity
  8
NOKITOI
 48
0.5
100
AcDbLine
 10
675.9124549196396
 20
290.7474535136028
 30
0.0
 11
670.3044268779096
 21
290.7474535136028
 31
0.0
  0
LINE
  5
5CCC
330
1A
100
AcDbEntity
  8
SEIHIN
  6
CONTINUOUS
100
AcDbLine
 10
677.7656857928495
 20
299.7721108570682
 30
0.0
 11
678.0098230858498
 21
299.3315800248682
 31
0.0
  0
LINE
  5
5CCD
330
1A
100
AcDbEntity
  8
SEIHIN
  6
CONTINUOUS
100
AcDbLine
 10
679.1811289821498
 20
298.7686192435684
 30
0.0
 11
679.6811289821498
 21
298.7686192435684
 31
0.0
  0
LINE
  5
5CCE
330
1A
100
AcDbEntity
  8
SEIHIN
  6
CONTINUOUS
100
AcDbLine
 10
680.1811289821499
 20
298.7686192435684
 30
0.0
 11
679.6811289821498
 21
298.7686192435684
 31
0.0
  0
LINE
  5
5CCF
330
1A
100
AcDbEntity
  8
SEIHIN
  6
CONTINUOUS
100
AcDbLine
 10
678.0098230858498
 20
299.3315800248682
 30
0.0
 11
678.3860162334494
 21
298.9966932563683
 31
0.0
  0
LINE
  5
5CD0
330
1A
100
AcDbEntity
  8
SEIHIN
  6
CONTINUOUS
100
AcDbLine
 10
678.3860162334494
 20
298.9966932563683
 30
0.0
 11
678.8518523119496
 21
298.8052064943682
 31
0.0
  0
LINE
  5
5CD1
330
1A
100
AcDbEntity
  8
SEIHIN
  6
CONTINUOUS
100
AcDbLine
 10
678.8518523119496
 20
298.8052064943682
 30
0.0
 11
679.1811289821498
 21
298.7686192435684
 31
0.0
  0
LINE
  5
5CD2
330
1A
100
AcDbEntity
  8
SEIHIN
  6
CONTINUOUS
100
AcDbLine
 10
677.6811289821498
 20
300.2686192435684
 30
0.0
 11
677.7656857928495
 21
299.7721108570682
 31
0.0
  0
ARC
  5
5CD3
330
1A
100
AcDbEntity
  8
NOKITOI
 48
0.5
100
AcDbCircle
 10
682.276727074204
 20
299.3142760327974
 30
0.0
 40
0.299999999999901
100
AcDbArc
 50
105.9453967198751
 51
180.0000108520354
  0
ARC
  5
5CD4
330
1A
100
AcDbEntity
  8
NOKITOI
 48
0.5
100
AcDbCircle
 10
682.2767288715184
 20
289.8249544033962
 30
0.0
 40
0.2999999999999576
100
AcDbArc
 50
180.0000108520354
 51
223.6796114261872
  0
LINE
  5
5CD5
330
1A
100
AcDbEntity
  8
NOKITOI
 48
0.5
100
AcDbLine
 10
680.4767276760173
 20
296.1368667046762
 30
0.0
 11
680.4767286644821
 21
290.9180465980092
 31
0.0
  0
LINE
  5
5CD6
330
1A
100
AcDbEntity
  8
NOKITOI
 48
0.5
100
AcDbLine
 10
681.9767270742038
 20
299.3142759759763
 30
0.0
 11
681.9767288715182
 21
289.824954346575
 31
0.0
  0
LINE
  5
5CD7
330
1A
100
AcDbEntity
  8
NOKITOI
 48
0.5
100
AcDbLine
 10
685.7767269010339
 20
300.2285618039024
 30
0.0
 11
685.77672985215
 21
284.647453403527
 31
0.0
  0
LINE
  5
5CD8
330
1A
100
AcDbEntity
  8
SEIHIN
  6
CONTINUOUS
100
AcDbLine
 10
685.6598211662494
 20
281.2686192435684
 30
0.0
 11
688.1811289821499
 21
281.2686192435684
 31
0.0
  0
LINE
  5
5CD9
330
1A
100
AcDbEntity
  8
SEIHIN
  6
CONTINUOUS
100
AcDbLine
 10
689.1329733964498
 20
280.3167748291683
 30
0.0
 11
686.1910132515495
 21
280.3167748291683
 31
0.0
  0
ARC
  5
5CDA
330
1A
100
AcDbEntity
  8
NOKITOI
 48
0.5
100
AcDbCircle
 10
685.4767298521498
 20
284.6474533467059
 30
0.0
 40
0.2999999999999176
100
AcDbArc
 50
269.9999043763745
 51
0.0000108520354745
  0
LINE
  5
5CDB
330
1A
100
AcDbEntity
  8
NOKITOI
 48
0.5
100
AcDbLine
 10
685.3767268860604
 20
282.7474535136028
 30
0.0
 11
687.3767302120175
 21
282.7474501757029
 31
0.0
  0
LINE
  5
5CDC
330
1A
100
AcDbEntity
  8
SEIHIN
  6
CONTINUOUS
100
AcDbLine
 10
687.1912289513497
 20
282.2585192743682
 30
0.0
 11
685.1082933303496
 21
282.2585192743682
 31
0.0
  0
LINE
  5
5CDD
330
1A
100
AcDbEntity
  8
SEIHIN
  6
CONTINUOUS
100
AcDbLine
 10
686.7769418210496
 20
279.2686192435684
 30
0.0
 11
690.1811289821498
 21
279.2686192435684
 31
0.0
  0
LINE
  5
5CDE
330
1A
100
AcDbEntity
  8
SEIHIN
  6
CONTINUOUS
100
AcDbLine
 10
689.1329733964498
 20
280.3167748291683
 30
0.0
 11
690.1811289821498
 21
279.2686192435684
 31
0.0
  0
LINE
  5
5CDF
330
1A
100
AcDbEntity
  8
SEIHIN
  6
CONTINUOUS
100
AcDbLine
 10
686.1910132515495
 20
280.3167748291683
 30
0.0
 11
686.7769418210496
 21
279.2686192435684
 31
0.0
  0
ARC
  5
5CE0
330
1A
100
AcDbEntity
  8
NOKITOI
 48
0.5
100
AcDbCircle
 10
685.4767269010338
 20
300.2285617470812
 30
0.0
 40
0.3000000000001873
100
AcDbArc
 50
0.0000108520354745
 51
105.9453967199691
  0
LINE
  5
5CE1
330
1A
100
AcDbEntity
  8
SEIHIN
  6
CONTINUOUS
100
AcDbLine
 10
679.1658036810495
 20
303.0852282792683
 30
0.0
 11
687.8739383999495
 21
305.4073975376683
 31
0.0
  0
LINE
  5
5CE2
330
1A
100
AcDbEntity
  8
SEIHIN
  6
CONTINUOUS
100
AcDbLine
 10
687.5538482538495
 20
303.7696226957683
 30
0.0
 11
680.1811289821499
 21
301.8035642232683
 31
0.0
  0
LINE
  5
5CE3
330
1A
100
AcDbEntity
  8
NOKITOI
 48
0.5
100
AcDbLine
 10
686.1020055334043
 20
302.3832426297295
 30
0.0
 11
680.3767268027566
 21
300.7474486181685
 31
0.0
  0
LINE
  5
5CE4
330
1A
100
AcDbEntity
  8
SEIHIN
  6
CONTINUOUS
100
AcDbLine
 10
688.8132441474494
 20
305.6578790703682
 30
0.0
 11
533.2664536816496
 21
305.6578790703682
 31
0.0
  0
LINE
  5
5CE5
330
1A
100
AcDbEntity
  8
SEIHIN
100
AcDbLine
 10
491.9006931670264
 20
303.0419332857686
 30
0.0
 11
482.0006931670267
 21
302.9948761751686
 31
0.0
  0
LINE
  5
5CE6
330
1A
100
AcDbEntity
  8
SEIHIN
100
AcDbLine
 10
482.0006931670267
 20
301.5034188623685
 30
0.0
 11
494.6006931670266
 21
301.2662669111686
 31
0.0
  0
LINE
  5
5CE7
330
1A
100
AcDbEntity
  8
SEIHIN
100
AcDbLine
 10
484.4966508622264
 20
305.7208248983686
 30
0.0
 11
504.5006931670268
 21
305.4412602493687
 31
0.0
  0
LINE
  5
5CE8
330
1A
100
AcDbEntity
  8
SEIHIN
100
AcDbLine
 10
484.4745072455266
 20
305.6872716527684
 30
0.0
 11
504.5006931670268
 21
305.4073975376686
 31
0.0
  0
ARC
  5
5CE9
330
1A
100
AcDbEntity
  8
SEIHIN
100
AcDbCircle
 10
472.5006931670268
 20
304.0907710491685
 30
0.0
 40
1.0
100
AcDbArc
 50
93.00000000000558
 51
180.0
  0
LINE
  5
5CEA
330
1A
100
AcDbEntity
  8
SEIHIN
100
AcDbLine
 10
471.5006931670268
 20
303.0893987031686
 30
0.0
 11
471.5006931670268
 21
304.0907710491685
 31
0.0
  0
LINE
  5
5CEB
330
1A
100
AcDbEntity
  8
SEIHIN
100
AcDbLine
 10
483.8564167972267
 20
305.6872716527684
 30
0.0
 11
477.9976008006265
 21
305.3802241171686
 31
0.0
  0
LINE
  5
5CEC
330
1A
100
AcDbEntity
  8
SEIHIN
100
AcDbLine
 10
474.0006931670268
 20
302.9948761751686
 30
0.0
 11
482.0006931670268
 21
302.9948761751686
 31
0.0
  0
LINE
  5
5CED
330
1A
100
AcDbEntity
  8
SEIHIN
100
AcDbLine
 10
474.0006931670268
 20
301.5034188623685
 30
0.0
 11
482.0006931670268
 21
301.5034188623685
 31
0.0
  0
LINE
  5
5CEE
330
1A
100
AcDbEntity
  8
SEIHIN
100
AcDbLine
 10
474.0006931670268
 20
305.1707550641685
 30
0.0
 11
472.4483572108265
 21
305.0894005839686
 31
0.0
  0
LINE
  5
5CEF
330
1A
100
AcDbEntity
  8
SEIHIN
100
AcDbLine
 10
474.0006931670268
 20
303.1680103721685
 30
0.0
 11
474.0006931670268
 21
305.1707550641685
 31
0.0
  0
LINE
  5
5CF0
330
1A
100
AcDbEntity
  8
SEIHIN
100
AcDbLine
 10
474.0006931670268
 20
305.3802241171686
 30
0.0
 11
474.0006931670268
 21
305.1707550641685
 31
0.0
  0
LINE
  5
5CF1
330
1A
100
AcDbEntity
  8
SEIHIN
100
AcDbLine
 10
474.0006931670268
 20
305.3802241171686
 30
0.0
 11
477.9976008006265
 21
305.3802241171686
 31
0.0
  0
LINE
  5
5CF2
330
1A
100
AcDbEntity
  8
SEIHIN
100
AcDbLine
 10
484.4764417170266
 20
305.7031996116686
 30
0.0
 11
484.4745072455265
 21
305.6872716527685
 31
0.0
  0
LINE
  5
5CF3
330
1A
100
AcDbEntity
  8
SEIHIN
100
AcDbLine
 10
484.4783663185266
 20
305.7141164531685
 30
0.0
 11
484.4764417170266
 21
305.7031996116686
 31
0.0
  0
LINE
  5
5CF4
330
1A
100
AcDbEntity
  8
SEIHIN
100
AcDbLine
 10
484.4802712306267
 20
305.7199664782686
 30
0.0
 11
484.4783663185266
 21
305.7141164531685
 31
0.0
  0
LINE
  5
5CF5
330
1A
100
AcDbEntity
  8
SEIHIN
100
AcDbLine
 10
483.8564167972267
 20
305.6872716527684
 30
0.0
 11
484.4802712306268
 21
305.7199664782686
 31
0.0
  0
LINE
  5
5CF6
330
1A
100
AcDbEntity
  8
SEIHIN
100
AcDbLine
 10
483.8564167972267
 20
305.6872716527684
 30
0.0
 11
484.4745072455266
 21
305.6872716527684
 31
0.0
  0
LINE
  5
5CF7
330
1A
100
AcDbEntity
  8
SEIHIN
100
AcDbLine
 10
484.4802712306268
 20
305.7199664782686
 30
0.0
 11
484.4966319950267
 21
305.7208239095686
 31
0.0
  0
LINE
  5
5CF8
330
1A
100
AcDbEntity
  8
SEIHIN
100
AcDbLine
 10
504.5006931670267
 20
303.0852282793686
 30
0.0
 11
491.9006931670264
 21
303.0419332857686
 31
0.0
  0
LINE
  5
5CF9
330
1A
100
AcDbEntity
  8
SEIHIN
100
AcDbLine
 10
494.6006931670266
 20
301.2662669111686
 30
0.0
 11
504.5006931670267
 21
301.1527584001686
 31
0.0
  0
LINE
  5
5CFA
330
1A
100
AcDbEntity
  8
SEIHIN
100
AcDbLine
 10
504.5006931670268
 20
300.7686192435687
 30
0.0
 11
504.5006931670268
 21
301.1527584001685
 31
0.0
  0
LINE
  5
5CFB
330
1A
100
AcDbEntity
  8
SEIHIN
100
AcDbLine
 10
504.5006931670268
 20
303.0852282793687
 30
0.0
 11
504.5006931670268
 21
305.4073975376686
 31
0.0
  0
LINE
  5
5CFC
330
1A
100
AcDbEntity
  8
SEIHIN
100
AcDbLine
 10
504.5006931670268
 20
301.1527584001685
 30
0.0
 11
504.5006931670268
 21
303.0852282793687
 31
0.0
  0
LINE
  5
5CFD
330
1A
100
AcDbEntity
  8
SEIHIN
100
AcDbLine
 10
504.5006931670268
 20
305.4073975376686
 30
0.0
 11
504.5006931670268
 21
305.4412602493687
 31
0.0
  0
LINE
  5
5CFE
330
1A
100
AcDbEntity
  8
SEIHIN
  6
CONTINUOUS
100
AcDbLine
 10
531.5344028740496
 20
304.6565067243683
 30
0.0
 11
531.7343647954499
 21
304.9424738517683
 31
0.0
  0
LINE
  5
5CFF
330
1A
100
AcDbEntity
  8
SEIHIN
  6
CONTINUOUS
100
AcDbLine
 10
531.7343647954499
 20
304.9424738517683
 30
0.0
 11
531.9808784622495
 21
305.1893258206683
 31
0.0
  0
LINE
  5
5D00
330
1A
100
AcDbEntity
  8
SEIHIN
  6
CONTINUOUS
100
AcDbLine
 10
531.9808784622495
 20
305.1893258206683
 30
0.0
 11
532.2664536816496
 21
305.3895621588684
 31
0.0
  0
LINE
  5
5D01
330
1A
100
AcDbEntity
  8
SEIHIN
  6
CONTINUOUS
100
AcDbLine
 10
532.2664536816496
 20
305.3895621588684
 30
0.0
 11
532.5824133950495
 21
305.5370987867683
 31
0.0
  0
LINE
  5
5D02
330
1A
100
AcDbEntity
  8
SEIHIN
  6
CONTINUOUS
100
AcDbLine
 10
532.5824133950495
 20
305.5370987867683
 30
0.0
 11
532.9191573263496
 21
305.6274528783684
 31
0.0
  0
LINE
  5
5D03
330
1A
100
AcDbEntity
  8
SEIHIN
  6
CONTINUOUS
100
AcDbLine
 10
532.9191573263496
 20
305.6274528783684
 30
0.0
 11
533.2664536816496
 21
305.6578790703682
 31
0.0
  0
LINE
  5
5D04
330
1A
100
AcDbEntity
  8
SEIHIN
  6
CONTINUOUS
100
AcDbLine
 10
531.2664536816496
 20
303.6551343783684
 30
0.0
 11
531.2968381756495
 21
304.0029073444683
 31
0.0
  0
LINE
  5
5D05
330
1A
100
AcDbEntity
  8
SEIHIN
  6
CONTINUOUS
100
AcDbLine
 10
531.2968381756495
 20
304.0029073444683
 30
0.0
 11
531.3870684400495
 21
304.3401134049683
 31
0.0
  0
LINE
  5
5D06
330
1A
100
AcDbEntity
  8
SEIHIN
  6
CONTINUOUS
100
AcDbLine
 10
531.3870684400495
 20
304.3401134049683
 30
0.0
 11
531.5344028740496
 21
304.6565067243683
 31
0.0
  0
LINE
  5
5D07
330
1A
100
AcDbEntity
  8
SEIHIN
  6
CONTINUOUS
100
AcDbLine
 10
677.9739271673498
 20
302.4272142297683
 30
0.0
 11
677.7472787943497
 21
301.9774354540682
 31
0.0
  0
LINE
  5
5D08
330
1A
100
AcDbEntity
  8
SEIHIN
  6
CONTINUOUS
100
AcDbLine
 10
679.1658036810495
 20
303.0852282792683
 30
0.0
 11
678.7946350062497
 21
302.9862499660683
 31
0.0
  0
LINE
  5
5D09
330
1A
100
AcDbEntity
  8
SEIHIN
  6
CONTINUOUS
100
AcDbLine
 10
678.7946350062497
 20
302.9862499660683
 30
0.0
 11
678.3366783874498
 21
302.7766165542683
 31
0.0
  0
LINE
  5
5D0A
330
1A
100
AcDbEntity
  8
SEIHIN
  6
CONTINUOUS
100
AcDbLine
 10
678.3366783874498
 20
302.7766165542683
 30
0.0
 11
677.9739271673498
 21
302.4272142297683
 31
0.0
  0
LINE
  5
5D0B
330
1A
100
AcDbEntity
  8
SEIHIN
  6
CONTINUOUS
100
AcDbLine
 10
677.6811289821498
 20
300.7686192435684
 30
0.0
 11
677.6811289821498
 21
301.1527584000683
 31
0.0
  0
LINE
  5
5D0C
330
1A
100
AcDbEntity
  8
SEIHIN
  6
CONTINUOUS
100
AcDbLine
 10
677.6811289821498
 20
301.5368975566683
 30
0.0
 11
677.6811289821498
 21
301.1527584000683
 31
0.0
  0
LINE
  5
5D0D
330
1A
100
AcDbEntity
  8
SEIHIN
  6
CONTINUOUS
100
AcDbLine
 10
677.7472787943497
 20
301.9774354540682
 30
0.0
 11
677.6811289821498
 21
301.5368975566683
 31
0.0
  0
LINE
  5
5D0E
330
1A
100
AcDbEntity
  8
SEIHIN
  6
CONTINUOUS
100
AcDbLine
 10
688.9220939855495
 20
305.6869056938684
 30
0.0
 11
687.8739383999495
 21
305.4073975376683
 31
0.0
  0
LINE
  5
5D0F
330
1A
100
AcDbEntity
  8
SEIHIN
  6
CONTINUOUS
100
AcDbLine
 10
687.8739383999495
 20
305.4073975376683
 30
0.0
 11
688.0544381400495
 21
305.4382300080684
 31
0.0
  0
LINE
  5
5D10
330
1A
100
AcDbEntity
  8
SEIHIN
  6
CONTINUOUS
100
AcDbLine
 10
688.0544381400495
 20
305.4382300080684
 30
0.0
 11
688.2375176880495
 21
305.4357272618682
 31
0.0
  0
LINE
  5
5D11
330
1A
100
AcDbEntity
  8
SEIHIN
  6
CONTINUOUS
100
AcDbLine
 10
688.2375176880495
 20
305.4357272618682
 30
0.0
 11
688.4170560972497
 21
305.3999729740684
 31
0.0
  0
LINE
  5
5D12
330
1A
100
AcDbEntity
  8
SEIHIN
  6
CONTINUOUS
100
AcDbLine
 10
688.4170560972497
 20
305.3999729740684
 30
0.0
 11
688.5870508128496
 21
305.3321625271684
 31
0.0
  0
LINE
  5
5D13
330
1A
100
AcDbEntity
  8
SEIHIN
  6
CONTINUOUS
100
AcDbLine
 10
688.5870508128496
 20
305.3321625271684
 30
0.0
 11
688.7418183570498
 21
305.2345630456683
 31
0.0
  0
LINE
  5
5D14
330
1A
100
AcDbEntity
  8
SEIHIN
  6
CONTINUOUS
100
AcDbLine
 10
688.7418183570498
 20
305.2345630456683
 30
0.0
 11
688.8761843457496
 21
305.1104375986682
 31
0.0
  0
LINE
  5
5D15
330
1A
100
AcDbEntity
  8
SEIHIN
  6
CONTINUOUS
100
AcDbLine
 10
688.8761843457496
 20
305.1104375986682
 30
0.0
 11
688.9856564855494
 21
304.9639361047683
 31
0.0
  0
LINE
  5
5D16
330
1A
100
AcDbEntity
  8
SEIHIN
  6
CONTINUOUS
100
AcDbLine
 10
688.9856564855494
 20
304.9639361047683
 30
0.0
 11
689.0665747657494
 21
304.7999565868682
 31
0.0
  0
LINE
  5
5D17
330
1A
100
AcDbEntity
  8
SEIHIN
  6
CONTINUOUS
100
AcDbLine
 10
689.0665747657494
 20
304.7999565868682
 30
0.0
 11
689.1162338241497
 21
304.6239814153683
 31
0.0
  0
LINE
  5
5D18
330
1A
100
AcDbEntity
  8
SEIHIN
  6
CONTINUOUS
100
AcDbLine
 10
689.1162338241497
 20
304.6239814153683
 30
0.0
 11
689.1329733964498
 21
304.4418940143683
 31
0.0
  0
LINE
  5
5D19
330
1A
100
AcDbEntity
  8
SEIHIN
  6
CONTINUOUS
100
AcDbLine
 10
690.1811289821498
 20
304.7214021705682
 30
0.0
 11
690.1643894098497
 21
304.9034895715682
 31
0.0
  0
LINE
  5
5D1A
330
1A
100
AcDbEntity
  8
SEIHIN
  6
CONTINUOUS
100
AcDbLine
 10
690.1643894098497
 20
304.9034895715682
 30
0.0
 11
690.1147303514497
 21
305.0794647430683
 31
0.0
  0
LINE
  5
5D1B
330
1A
100
AcDbEntity
  8
SEIHIN
  6
CONTINUOUS
100
AcDbLine
 10
690.1147303514497
 20
305.0794647430683
 30
0.0
 11
690.0338120712494
 21
305.2434442608683
 31
0.0
  0
LINE
  5
5D1C
330
1A
100
AcDbEntity
  8
SEIHIN
  6
CONTINUOUS
100
AcDbLine
 10
690.0338120712494
 20
305.2434442608683
 30
0.0
 11
689.9243399313495
 21
305.3899457547682
 31
0.0
  0
LINE
  5
5D1D
330
1A
100
AcDbEntity
  8
SEIHIN
  6
CONTINUOUS
100
AcDbLine
 10
689.9243399313495
 20
305.3899457547682
 30
0.0
 11
689.7899739426498
 21
305.5140712018684
 31
0.0
  0
LINE
  5
5D1E
330
1A
100
AcDbEntity
  8
SEIHIN
  6
CONTINUOUS
100
AcDbLine
 10
689.7899739426498
 20
305.5140712018684
 30
0.0
 11
689.6352063985496
 21
305.6116706833682
 31
0.0
  0
LINE
  5
5D1F
330
1A
100
AcDbEntity
  8
SEIHIN
  6
CONTINUOUS
100
AcDbLine
 10
689.6352063985496
 20
305.6116706833682
 30
0.0
 11
689.4652116828496
 21
305.6794811302683
 31
0.0
  0
LINE
  5
5D20
330
1A
100
AcDbEntity
  8
SEIHIN
  6
CONTINUOUS
100
AcDbLine
 10
689.4652116828496
 20
305.6794811302683
 30
0.0
 11
689.2856732736495
 21
305.7152354180683
 31
0.0
  0
LINE
  5
5D21
330
1A
100
AcDbEntity
  8
SEIHIN
  6
CONTINUOUS
100
AcDbLine
 10
689.2856732736495
 20
305.7152354180683
 30
0.0
 11
689.1025937256495
 21
305.7177381641682
 31
0.0
  0
LINE
  5
5D22
330
1A
100
AcDbEntity
  8
SEIHIN
  6
CONTINUOUS
100
AcDbLine
 10
689.1025937256495
 20
305.7177381641682
 30
0.0
 11
688.9220939855495
 21
305.6869056938684
 31
0.0
  0
LINE
  5
5D23
330
1A
100
AcDbEntity
  8
SEIHIN
  6
CONTINUOUS
100
AcDbLine
 10
688.1811289821499
 20
303.2845944112683
 30
0.0
 11
688.1727972475496
 21
303.3760012787682
 31
0.0
  0
LINE
  5
5D24
330
1A
100
AcDbEntity
  8
SEIHIN
  6
CONTINUOUS
100
AcDbLine
 10
688.1727972475496
 20
303.3760012787682
 30
0.0
 11
688.1480796573496
 21
303.4643254387682
 31
0.0
  0
LINE
  5
5D25
330
1A
100
AcDbEntity
  8
SEIHIN
  6
CONTINUOUS
100
AcDbLine
 10
688.1480796573496
 20
303.4643254387682
 30
0.0
 11
688.1077998014498
 21
303.5466239300682
 31
0.0
  0
LINE
  5
5D26
330
1A
100
AcDbEntity
  8
SEIHIN
  6
CONTINUOUS
100
AcDbLine
 10
688.1077998014498
 20
303.5466239300682
 30
0.0
 11
688.0532998047497
 21
303.6201545670684
 31
0.0
  0
LINE
  5
5D27
330
1A
100
AcDbEntity
  8
SEIHIN
  6
CONTINUOUS
100
AcDbLine
 10
688.0532998047497
 20
303.6201545670684
 30
0.0
 11
687.9863956072495
 21
303.6824673087684
 31
0.0
  0
LINE
  5
5D28
330
1A
100
AcDbEntity
  8
SEIHIN
  6
CONTINUOUS
100
AcDbLine
 10
687.9863956072495
 20
303.6824673087684
 30
0.0
 11
687.9093164566498
 21
303.7314858947683
 31
0.0
  0
LINE
  5
5D29
330
1A
100
AcDbEntity
  8
SEIHIN
  6
CONTINUOUS
100
AcDbLine
 10
687.9093164566498
 20
303.7314858947683
 30
0.0
 11
687.8246306303495
 21
303.7655770256682
 31
0.0
  0
LINE
  5
5D2A
330
1A
100
AcDbEntity
  8
SEIHIN
  6
CONTINUOUS
100
AcDbLine
 10
687.8246306303495
 20
303.7655770256682
 30
0.0
 11
687.7351598600498
 21
303.7836047850684
 31
0.0
  0
LINE
  5
5D2B
330
1A
100
AcDbEntity
  8
SEIHIN
  6
CONTINUOUS
100
AcDbLine
 10
687.7351598600498
 20
303.7836047850684
 30
0.0
 11
687.6438853119497
 21
303.7849684879682
 31
0.0
  0
LINE
  5
5D2C
330
1A
100
AcDbEntity
  8
SEIHIN
  6
CONTINUOUS
100
AcDbLine
 10
687.6438853119497
 20
303.7849684879682
 30
0.0
 11
687.5538482538495
 21
303.7696226957683
 31
0.0
  0
ARC
  5
5D2D
330
1A
100
AcDbEntity
  8
NOKITOI
 48
0.5
100
AcDbCircle
 10
686.3767266750458
 20
301.4217186860156
 30
0.0
 40
1.000000000000065
100
AcDbArc
 50
0.0000108520159332
 51
105.9453967199302
  0
VIEWPORT
  5
22
330
17
100
AcDbEntity
 67
     1
  8
0
100
AcDbViewport
 10
313.6808219178082
 20
148.5
 30
0.0
 40
627.3616438356165
 41
297.0
 68
     2
 69
     1
1001
ACAD
1000
MVIEW
1002
{
1070
    16
1010
0.0
1020
0.0
1030
0.0
1010
0.0
1020
0.0
1030
1.0
1040
0.0
1040
297.0
1040
313.6808219178082
1040
148.5
1040
50.0
1040
0.0
1040
0.0
1070
     0
1070
   100
1070
     1
1070
     0
1070
     0
1070
     0
1070
     0
1070
     0
1040
0.0
1040
0.0
1040
0.0
1040
1.0
1040
1.0
1040
10.0
1040
10.0
1070
     0
1002
{
1002
}
1002
}
  0
VIEWPORT
  5
64
330
17
100
AcDbEntity
 67
     1
  8
VIEWPORT
100
AcDbViewport
 10
210.0
 20
148.5
 30
0.0
 40
420.0
 41
297.0
 68
     1
 69
     2
1001
ACAD
1000
MVIEW
1002
{
1070
    16
1010
0.0
1020
0.0
1030
0.0
1010
0.0
1020
0.0
1030
1.0
1040
0.0
1040
605.8799999999997
1040
420.0
1040
297.0
1040
50.0
1040
0.0
1040
0.0
1070
     0
1070
   100
1070
     1
1070
     0
1070
     0
1070
     0
1070
     0
1070
     0
1040
0.0
1040
0.0
1040
0.0
1040
10.0
1040
10.0
1040
0.0
1040
0.0
1070
     0
1002
{
1002
}
1002
}
  0
ENDSEC
  0
SECTION
  2
OBJECTS
  0
DICTIONARY
  5
C
330
0
100
AcDbDictionary
  3
ACAD_GROUP
350
D
  3
ACAD_LAYOUT
350
556
  3
ACAD_MLINESTYLE
350
E
  3
ACAD_PLOTSETTINGS
350
557
  3
ACAD_PLOTSTYLENAME
350
554
  3
ACDBHEADERROUNDTRIPXREC
350
5DE7
  0
DICTIONARY
  5
6C6
330
1A
100
AcDbDictionary
280
     1
  3
ACAD_LAYOUTSELFREF
360
5E09
  0
DICTIONARY
  5
6C4
330
17
100
AcDbDictionary
280
     1
  3
ACAD_LAYOUTSELFREF
360
5E08
  0
DICTIONARY
  5
D
102
{ACAD_REACTORS
330
C
102
}
330
C
100
AcDbDictionary
  0
DICTIONARY
  5
556
102
{ACAD_REACTORS
330
C
102
}
330
C
100
AcDbDictionary
  0
DICTIONARY
  5
E
102
{ACAD_REACTORS
330
C
102
}
330
C
100
AcDbDictionary
  3
STANDARD
350
13
  0
DICTIONARY
  5
557
102
{ACAD_REACTORS
330
C
102
}
330
C
100
AcDbDictionary
  0
ACDBDICTIONARYWDFLT
  5
554
102
{ACAD_REACTORS
330
C
102
}
330
C
100
AcDbDictionary
281
     1
  3
Normal
350
555
100
AcDbDictionaryWithDefault
340
555
1001
ACAD
1000
TREAT_AS_HARD
1070
     0
1000
TREAT_AS_HARD
1070
     0
1000
TREAT_AS_HARD
1070
     0
1000
TREAT_AS_HARD
1070
     0
1000
TREAT_AS_HARD
1070
     0
1000
TREAT_AS_HARD
1070
     0
1000
TREAT_AS_HARD
1070
     0
1000
TREAT_AS_HARD
1070
     0
  0
DICTIONARY
  5
5DE7
102
{ACAD_REACTORS
330
C
102
}
330
C
100
AcDbDictionary
  3
TSTACKALIGN
350
5DE8
  3
TSTACKSIZE
350
5DE9
  3
HYPERLINKBASE
350
5DEA
  3
STYLESHEET
350
5DEB
  3
LAYOUTDICT
350
5DEC
  3
PLOTSETDICT
350
5DED
  3
PLOTSTYLNAMDICT
350
5DEE
  3
LWETCUNION
350
5DEF
  3
INSUNITS
350
5DF0
  3
CEPSNTYPE
350
5DF1
  3
FINGERPRINTGUID
350
5DF2
  3
VERSIONGUID
350
5DF3
  3
PSVPSCALE
350
5DF4
  3
DIMSTYLEDATA
350
5DF5
  3
PUCSORTHOREF
350
5DF6
  3
PUCSORTHOVIEW
350
5DF7
  3
PUCSBASE
350
5DF8
  3
PUCSORGTOP
350
5DF9
  3
PUCSORGBOTTOM
350
5DFA
  3
PUCSORGLEFT
350
5DFB
  3
PUCSORGRIGHT
350
5DFC
  3
PUCSORGFRONT
350
5DFD
  3
PUCSORGBACK
350
5DFE
  3
UCSORTHOREF
350
5DFF
  3
UCSORTHOVIEW
350
5E00
  3
UCSBASE
350
5E01
  3
UCSORGTOP
350
5E02
  3
UCSORGBOTTOM
350
5E03
  3
UCSORGLEFT
350
5E04
  3
UCSORGRIGHT
350
5E05
  3
UCSORGFRONT
350
5E06
  3
UCSORGBACK
350
5E07
  0
XRECORD
  5
5E09
102
{ACAD_REACTORS
330
6C6
102
}
330
6C6
100
AcDbXrecord
340
1A
  0
XRECORD
  5
5E08
102
{ACAD_REACTORS
330
6C4
102
}
330
6C4
100
AcDbXrecord
340
17
  0
MLINESTYLE
  5
13
102
{ACAD_REACTORS
330
E
102
}
330
E
100
AcDbMlineStyle
  2
STANDARD
 70
     0
  3

 62
     0
 51
90.0
 52
90.0
 71
     2
 49
0.5
 62
   256
  6
BYLAYER
 49
-0.5
 62
   256
  6
BYLAYER
  0
ACDBPLACEHOLDER
  5
555
102
{ACAD_REACTORS
330
554
102
}
330
554
100
AcDbPlaceHolder
280
     0
  0
XRECORD
  5
5DE8
102
{ACAD_REACTORS
330
5DE7
102
}
330
5DE7
100
AcDbXrecord
 90
        1
  0
XRECORD
  5
5DE9
102
{ACAD_REACTORS
330
5DE7
102
}
330
5DE7
100
AcDbXrecord
 90
       70
  0
XRECORD
  5
5DEA
102
{ACAD_REACTORS
330
5DE7
102
}
330
5DE7
100
AcDbXrecord
  1

  0
XRECORD
  5
5DEB
102
{ACAD_REACTORS
330
5DE7
102
}
330
5DE7
100
AcDbXrecord
  1
systemprinter.ctb
  0
XRECORD
  5
5DEC
102
{ACAD_REACTORS
330
5DE7
102
}
330
5DE7
100
AcDbXrecord
340
556
  0
XRECORD
  5
5DED
102
{ACAD_REACTORS
330
5DE7
102
}
330
5DE7
100
AcDbXrecord
340
557
  0
XRECORD
  5
5DEE
102
{ACAD_REACTORS
330
5DE7
102
}
330
5DE7
100
AcDbXrecord
340
554
  0
XRECORD
  5
5DEF
102
{ACAD_REACTORS
330
5DE7
102
}
330
5DE7
100
AcDbXrecord
 90
    10781
  0
XRECORD
  5
5DF0
102
{ACAD_REACTORS
330
5DE7
102
}
330
5DE7
100
AcDbXrecord
 90
        0
  0
XRECORD
  5
5DF1
102
{ACAD_REACTORS
330
5DE7
102
}
330
5DE7
100
AcDbXrecord
 90
        0
  0
XRECORD
  5
5DF2
102
{ACAD_REACTORS
330
5DE7
102
}
330
5DE7
100
AcDbXrecord
  1
{B06877AA-F1AE-4EC1-AEA7-B60A7FDC8903}
  0
XRECORD
  5
5DF3
102
{ACAD_REACTORS
330
5DE7
102
}
330
5DE7
100
AcDbXrecord
  1
{A71D681E-1442-411A-9BD6-B52AE01DBC53}
  0
XRECORD
  5
5DF4
102
{ACAD_REACTORS
330
5DE7
102
}
330
5DE7
100
AcDbXrecord
 40
0.0
  0
XRECORD
  5
5DF5
102
{ACAD_REACTORS
330
5DE7
102
}
330
5DE7
100
AcDbXrecord
1000
DSTYLE
1002
{
1070
   341
340
6D
1070
   343
340
6D
1070
   344
340
6D
1070
   371
 70
    -1
1070
   372
 70
    -1
1002
}
  0
XRECORD
  5
5DF6
102
{ACAD_REACTORS
330
5DE7
102
}
330
5DE7
100
AcDbXrecord
340
0
  0
XRECORD
  5
5DF7
102
{ACAD_REACTORS
330
5DE7
102
}
330
5DE7
100
AcDbXrecord
 70
     0
  0
XRECORD
  5
5DF8
102
{ACAD_REACTORS
330
5DE7
102
}
330
5DE7
100
AcDbXrecord
340
0
  0
XRECORD
  5
5DF9
102
{ACAD_REACTORS
330
5DE7
102
}
330
5DE7
100
AcDbXrecord
 10
0.0
 20
0.0
 30
0.0
  0
XRECORD
  5
5DFA
102
{ACAD_REACTORS
330
5DE7
102
}
330
5DE7
100
AcDbXrecord
 10
0.0
 20
0.0
 30
0.0
  0
XRECORD
  5
5DFB
102
{ACAD_REACTORS
330
5DE7
102
}
330
5DE7
100
AcDbXrecord
 10
0.0
 20
0.0
 30
0.0
  0
XRECORD
  5
5DFC
102
{ACAD_REACTORS
330
5DE7
102
}
330
5DE7
100
AcDbXrecord
 10
0.0
 20
0.0
 30
0.0
  0
XRECORD
  5
5DFD
102
{ACAD_REACTORS
330
5DE7
102
}
330
5DE7
100
AcDbXrecord
 10
0.0
 20
0.0
 30
0.0
  0
XRECORD
  5
5DFE
102
{ACAD_REACTORS
330
5DE7
102
}
330
5DE7
100
AcDbXrecord
 10
0.0
 20
0.0
 30
0.0
  0
XRECORD
  5
5DFF
102
{ACAD_REACTORS
330
5DE7
102
}
330
5DE7
100
AcDbXrecord
340
0
  0
XRECORD
  5
5E00
102
{ACAD_REACTORS
330
5DE7
102
}
330
5DE7
100
AcDbXrecord
 70
     0
  0
XRECORD
  5
5E01
102
{ACAD_REACTORS
330
5DE7
102
}
330
5DE7
100
AcDbXrecord
340
0
  0
XRECORD
  5
5E02
102
{ACAD_REACTORS
330
5DE7
102
}
330
5DE7
100
AcDbXrecord
 10
0.0
 20
0.0
 30
0.0
  0
XRECORD
  5
5E03
102
{ACAD_REACTORS
330
5DE7
102
}
330
5DE7
100
AcDbXrecord
 10
0.0
 20
0.0
 30
0.0
  0
XRECORD
  5
5E04
102
{ACAD_REACTORS
330
5DE7
102
}
330
5DE7
100
AcDbXrecord
 10
0.0
 20
0.0
 30
0.0
  0
XRECORD
  5
5E05
102
{ACAD_REACTORS
330
5DE7
102
}
330
5DE7
100
AcDbXrecord
 10
0.0
 20
0.0
 30
0.0
  0
XRECORD
  5
5E06
102
{ACAD_REACTORS
330
5DE7
102
}
330
5DE7
100
AcDbXrecord
 10
0.0
 20
0.0
 30
0.0
  0
XRECORD
  5
5E07
102
{ACAD_REACTORS
330
5DE7
102
}
330
5DE7
100
AcDbXrecord
 10
0.0
 20
0.0
 30
0.0
  0
ENDSEC
  0
EOF
