  0
SECTION
  2
HEADER
  9
$ACADVER
  1
AC1014
  9
$ACADMAINTVER
 70
     9
  9
$DWGCODEPAGE
  3
ANSI_932
  9
$INSBASE
 10
0.0
 20
0.0
 30
0.0
  9
$EXTMIN
 10
0.0000000135560185
 20
-0.0000001317113174
 30
0.0
  9
$EXTMAX
 10
797.6000000135561
 20
551.5999998682888
 30
0.0
  9
$LIMMIN
 10
0.0
 20
0.0
  9
$LIMMAX
 10
840.0
 20
594.0
  9
$ORTHOMODE
 70
     0
  9
$REGENMODE
 70
     1
  9
$FILLMODE
 70
     1
  9
$QTEXTMODE
 70
     0
  9
$MIRRTEXT
 70
     1
  9
$DRAGMODE
 70
     2
  9
$LTSCALE
 40
2.0
  9
$OSMODE
 70
    37
  9
$ATTMODE
 70
     1
  9
$TEXTSIZE
 40
5.0
  9
$TRACEWID
 40
1.0
  9
$TEXTSTYLE
  7
STANDARD
  9
$CLAYER
  8
0
  9
$CELTYPE
  6
BYLAYER
  9
$CECOLOR
 62
   256
  9
$CELTSCALE
 40
1.0
  9
$DELOBJ
 70
     1
  9
$DISPSILH
 70
     0
  9
$DIMSCALE
 40
1.0
  9
$DIMASZ
 40
7.0
  9
$DIMEXO
 40
6.0
  9
$DIMDLI
 40
14.0
  9
$DIMRND
 40
0.0
  9
$DIMDLE
 40
0.0
  9
$DIMEXE
 40
3.0
  9
$DIMTP
 40
0.0
  9
$DIMTM
 40
0.0
  9
$DIMTXT
 40
6.0
  9
$DIMCEN
 40
150.0
  9
$DIMTSZ
 40
0.0
  9
$DIMTOL
 70
     0
  9
$DIMLIM
 70
     0
  9
$DIMTIH
 70
     0
  9
$DIMTOH
 70
     0
  9
$DIMSE1
 70
     0
  9
$DIMSE2
 70
     0
  9
$DIMTAD
 70
     3
  9
$DIMZIN
 70
     0
  9
$DIMBLK
  1

  9
$DIMASO
 70
     1
  9
$DIMSHO
 70
     1
  9
$DIMPOST
  1

  9
$DIMAPOST
  1

  9
$DIMALT
 70
     0
  9
$DIMALTD
 70
     2
  9
$DIMALTF
 40
25.4
  9
$DIMLFAC
 40
1.0
  9
$DIMTOFL
 70
     1
  9
$DIMTVP
 40
0.0
  9
$DIMTIX
 70
     0
  9
$DIMSOXD
 70
     0
  9
$DIMSAH
 70
     1
  9
$DIMBLK1
  1
OPEN
  9
$DIMBLK2
  1
OPEN
  9
$DIMSTYLE
  2
STANDARD
  9
$DIMCLRD
 70
   256
  9
$DIMCLRE
 70
   256
  9
$DIMCLRT
 70
   256
  9
$DIMTFAC
 40
1.0
  9
$DIMGAP
 40
2.0
  9
$DIMJUST
 70
     0
  9
$DIMSD1
 70
     0
  9
$DIMSD2
 70
     0
  9
$DIMTOLJ
 70
     1
  9
$DIMTZIN
 70
     0
  9
$DIMALTZ
 70
     0
  9
$DIMALTTZ
 70
     0
  9
$DIMFIT
 70
     3
  9
$DIMUPT
 70
     0
  9
$DIMUNIT
 70
     2
  9
$DIMDEC
 70
     0
  9
$DIMTDEC
 70
     0
  9
$DIMALTU
 70
     2
  9
$DIMALTTD
 70
     2
  9
$DIMTXSTY
  7
STANDARD
  9
$DIMAUNIT
 70
     0
  9
$LUNITS
 70
     2
  9
$LUPREC
 70
     4
  9
$SKETCHINC
 40
1.0
  9
$FILLETRAD
 40
20.0
  9
$AUNITS
 70
     0
  9
$AUPREC
 70
     0
  9
$MENU
  1
.
  9
$ELEVATION
 40
0.0
  9
$PELEVATION
 40
0.0
  9
$THICKNESS
 40
0.0
  9
$LIMCHECK
 70
     0
  9
$BLIPMODE
 70
     0
  9
$CHAMFERA
 40
0.0
  9
$CHAMFERB
 40
0.0
  9
$CHAMFERC
 40
40.0
  9
$CHAMFERD
 40
0.0
  9
$SKPOLY
 70
     0
  9
$TDCREATE
 40
2451159.834708796
  9
$TDUPDATE
 40
2454484.381503588
  9
$TDINDWG
 40
0.2584871528
  9
$TDUSRTIMER
 40
0.2584869676
  9
$USRTIMER
 70
     1
  9
$ANGBASE
 50
0.0
  9
$ANGDIR
 70
     0
  9
$PDMODE
 70
     0
  9
$PDSIZE
 40
0.0
  9
$PLINEWID
 40
0.0
  9
$COORDS
 70
     1
  9
$SPLFRAME
 70
     0
  9
$SPLINETYPE
 70
     6
  9
$SPLINESEGS
 70
     8
  9
$ATTDIA
 70
     0
  9
$ATTREQ
 70
     1
  9
$HANDLING
 70
 10241
  9
$HANDSEED
  5
5940
  9
$SURFTAB1
 70
     6
  9
$SURFTAB2
 70
     6
  9
$SURFTYPE
 70
     6
  9
$SURFU
 70
     6
  9
$SURFV
 70
     6
  9
$UCSNAME
  2

  9
$UCSORG
 10
0.0
 20
0.0
 30
0.0
  9
$UCSXDIR
 10
1.0
 20
0.0
 30
0.0
  9
$UCSYDIR
 10
0.0
 20
1.0
 30
0.0
  9
$PUCSNAME
  2

  9
$PUCSORG
 10
0.0
 20
0.0
 30
0.0
  9
$PUCSXDIR
 10
1.0
 20
0.0
 30
0.0
  9
$PUCSYDIR
 10
0.0
 20
1.0
 30
0.0
  9
$USERI1
 70
     0
  9
$USERI2
 70
     0
  9
$USERI3
 70
     0
  9
$USERI4
 70
     0
  9
$USERI5
 70
     0
  9
$USERR1
 40
0.0
  9
$USERR2
 40
0.0
  9
$USERR3
 40
0.0
  9
$USERR4
 40
0.0
  9
$USERR5
 40
0.0
  9
$WORLDVIEW
 70
     1
  9
$SHADEDGE
 70
     3
  9
$SHADEDIF
 70
    70
  9
$TILEMODE
 70
     1
  9
$MAXACTVP
 70
    16
  9
$PINSBASE
 10
0.0
 20
0.0
 30
0.0
  9
$PLIMCHECK
 70
     0
  9
$PEXTMIN
 10
0.0
 20
0.0
 30
0.0
  9
$PEXTMAX
 10
420.0
 20
297.0
 30
0.0
  9
$PLIMMIN
 10
0.0
 20
0.0
  9
$PLIMMAX
 10
420.0
 20
297.0
  9
$UNITMODE
 70
     0
  9
$VISRETAIN
 70
     0
  9
$PLINEGEN
 70
     0
  9
$PSLTSCALE
 70
     1
  9
$TREEDEPTH
 70
  3020
  9
$PICKSTYLE
 70
     1
  9
$CMLSTYLE
  2
STANDARD
  9
$CMLJUST
 70
     0
  9
$CMLSCALE
 40
1.0
  9
$PROXYGRAPHICS
 70
     1
  9
$MEASUREMENT
 70
     1
  0
ENDSEC
  0
SECTION
  2
CLASSES
  0
CLASS
  1
ACDBDICTIONARYWDFLT
  2
AcDbDictionaryWithDefault
  3
AutoCAD 2000
 90
        0
280
     0
281
     0
  0
CLASS
  1
ACDBPLACEHOLDER
  2
AcDbPlaceHolder
  3
AutoCAD 2000
 90
        0
280
     0
281
     0
  0
CLASS
  1
LAYOUT
  2
AcDbLayout
  3
AutoCAD 2000
 90
        0
280
     0
281
     0
  0
CLASS
  1
LONG_TRANSACTION
  2
AcDbLongTransaction
  3
AutoCAD 2000
 90
        0
280
     0
281
     0
  0
CLASS
  1
LWPOLYLINE
  2
AcDbPolyline
  3
AutoCAD 2000
 90
        0
280
     0
281
     1
  0
CLASS
  1
HATCH
  2
AcDbHatch
  3
AutoCAD 2000
 90
        0
280
     0
281
     1
  0
CLASS
  1
XRECORD
  2
AcDbXrecord
  3
AutoCAD 2000
 90
        0
280
     0
281
     0
  0
CLASS
  1
LONG_TRANSACTION
  2
AcDbLongTransaction
  3
AutoCAD 2000
 90
        0
280
     0
281
     0
  0
CLASS
  1
LWPOLYLINE
  2
AcDbPolyline
  3
AutoCAD 2000
 90
        0
280
     0
281
     1
  0
CLASS
  1
HATCH
  2
AcDbHatch
  3
AutoCAD 2000
 90
        0
280
     0
281
     1
  0
CLASS
  1
XRECORD
  2
AcDbXrecord
  3
AutoCAD 2000
 90
        0
280
     0
281
     0
  0
CLASS
  1
LONG_TRANSACTION
  2
AcDbLongTransaction
  3
AutoCAD 2000
 90
        0
280
     0
281
     0
  0
CLASS
  1
LWPOLYLINE
  2
AcDbPolyline
  3
AutoCAD 2000
 90
        0
280
     0
281
     1
  0
CLASS
  1
HATCH
  2
AcDbHatch
  3
AutoCAD 2000
 90
        0
280
     0
281
     1
  0
CLASS
  1
XRECORD
  2
AcDbXrecord
  3
AutoCAD 2000
 90
        0
280
     0
281
     0
  0
CLASS
  1
LONG_TRANSACTION
  2
AcDbLongTransaction
  3
AutoCAD 2000
 90
        0
280
     0
281
     0
  0
CLASS
  1
LWPOLYLINE
  2
AcDbPolyline
  3
AutoCAD 2000
 90
        0
280
     0
281
     1
  0
CLASS
  1
HATCH
  2
AcDbHatch
  3
AutoCAD 2000
 90
        0
280
     0
281
     1
  0
CLASS
  1
XRECORD
  2
AcDbXrecord
  3
AutoCAD 2000
 90
        0
280
     0
281
     0
  0
CLASS
  1
LONG_TRANSACTION
  2
AcDbLongTransaction
  3
AutoCAD 2000
 90
        0
280
     0
281
     0
  0
CLASS
  1
LWPOLYLINE
  2
AcDbPolyline
  3
AutoCAD 2000
 90
        0
280
     0
281
     1
  0
CLASS
  1
HATCH
  2
AcDbHatch
  3
AutoCAD 2000
 90
        0
280
     0
281
     1
  0
CLASS
  1
XRECORD
  2
AcDbXrecord
  3
AutoCAD 2000
 90
        0
280
     0
281
     0
  0
CLASS
  1
LONG_TRANSACTION
  2
AcDbLongTransaction
  3
AutoCAD 2000
 90
        0
280
     0
281
     0
  0
CLASS
  1
LWPOLYLINE
  2
AcDbPolyline
  3
AutoCAD 2000
 90
        0
280
     0
281
     1
  0
CLASS
  1
HATCH
  2
AcDbHatch
  3
AutoCAD 2000
 90
        0
280
     0
281
     1
  0
CLASS
  1
XRECORD
  2
AcDbXrecord
  3
AutoCAD 2000
 90
        0
280
     0
281
     0
  0
CLASS
  1
LONG_TRANSACTION
  2
AcDbLongTransaction
  3
AutoCAD 2000
 90
        0
280
     0
281
     0
  0
CLASS
  1
LWPOLYLINE
  2
AcDbPolyline
  3
AutoCAD 2000
 90
        0
280
     0
281
     1
  0
CLASS
  1
HATCH
  2
AcDbHatch
  3
AutoCAD 2000
 90
        0
280
     0
281
     1
  0
CLASS
  1
XRECORD
  2
AcDbXrecord
  3
AutoCAD 2000
 90
        0
280
     0
281
     0
  0
CLASS
  1
LONG_TRANSACTION
  2
AcDbLongTransaction
  3
AutoCAD 2000
 90
        0
280
     0
281
     0
  0
CLASS
  1
LWPOLYLINE
  2
AcDbPolyline
  3
AutoCAD 2000
 90
        0
280
     0
281
     1
  0
CLASS
  1
HATCH
  2
AcDbHatch
  3
AutoCAD 2000
 90
        0
280
     0
281
     1
  0
CLASS
  1
XRECORD
  2
AcDbXrecord
  3
AutoCAD 2000
 90
        0
280
     0
281
     0
  0
CLASS
  1
LONG_TRANSACTION
  2
AcDbLongTransaction
  3
AutoCAD 2000
 90
        0
280
     0
281
     0
  0
CLASS
  1
LWPOLYLINE
  2
AcDbPolyline
  3
AutoCAD 2000
 90
        0
280
     0
281
     1
  0
CLASS
  1
HATCH
  2
AcDbHatch
  3
AutoCAD 2000
 90
        0
280
     0
281
     1
  0
CLASS
  1
XRECORD
  2
AcDbXrecord
  3
AutoCAD 2000
 90
        0
280
     0
281
     0
  0
CLASS
  1
LONG_TRANSACTION
  2
AcDbLongTransaction
  3
AutoCAD 2000
 90
        0
280
     0
281
     0
  0
CLASS
  1
LWPOLYLINE
  2
AcDbPolyline
  3
AutoCAD 2000
 90
        0
280
     0
281
     1
  0
CLASS
  1
HATCH
  2
AcDbHatch
  3
AutoCAD 2000
 90
        0
280
     0
281
     1
  0
CLASS
  1
XRECORD
  2
AcDbXrecord
  3
AutoCAD 2000
 90
        0
280
     0
281
     0
  0
ENDSEC
  0
SECTION
  2
TABLES
  0
TABLE
  2
VPORT
  5
8
330
0
100
AcDbSymbolTable
 70
     2
  0
VPORT
  5
58CF
330
8
100
AcDbSymbolTableRecord
100
AcDbViewportTableRecord
  2
*ACTIVE
 70
     0
 10
0.0
 20
0.0
 11
1.0
 21
1.0
 12
448.1478113414245
 22
319.2356705958886
 13
0.0
 23
0.0
 14
5.0
 24
5.0
 15
0.0
 25
0.0
 16
0.0
 26
0.0
 36
1.0
 17
0.0
 27
0.0
 37
0.0
 40
701.3702655914885
 41
1.570153061224489
 42
50.0
 43
0.0
 44
0.0
 50
0.0
 51
0.0
 71
     0
 72
   100
 73
     1
 74
     0
 75
     0
 76
     0
 77
     0
 78
     0
  0
ENDTAB
  0
TABLE
  2
LTYPE
  5
5
330
0
100
AcDbSymbolTable
 70
     3
  0
LTYPE
  5
14
330
5
100
AcDbSymbolTableRecord
100
AcDbLinetypeTableRecord
  2
BYBLOCK
 70
     0
  3

 72
    65
 73
     0
 40
0.0
  0
LTYPE
  5
15
330
5
100
AcDbSymbolTableRecord
100
AcDbLinetypeTableRecord
  2
BYLAYER
 70
     0
  3

 72
    65
 73
     0
 40
0.0
  0
LTYPE
  5
16
330
5
100
AcDbSymbolTableRecord
100
AcDbLinetypeTableRecord
  2
CONTINUOUS
 70
     0
  3
Solid line
 72
    65
 73
     0
 40
0.0
  0
LTYPE
  5
135
330
5
100
AcDbSymbolTableRecord
100
AcDbLinetypeTableRecord
  2
CENTER
 70
     0
  3
____ _ ____ _ ____ _ ____ _ ____ _ ____ _ ____ 
 72
    65
 73
     4
 40
2.0
 49
1.25
 74
     0
 49
-0.25
 74
     0
 49
0.25
 74
     0
 49
-0.25
 74
     0
  0
LTYPE
  5
47FE
330
5
100
AcDbSymbolTableRecord
100
AcDbLinetypeTableRecord
  2
PHANTOM
 70
     0
  3
______  __  __  ______  __  __  ______  __  __ 
 72
    65
 73
     6
 40
2.5
 49
1.25
 74
     0
 49
-0.25
 74
     0
 49
0.25
 74
     0
 49
-0.25
 74
     0
 49
0.25
 74
     0
 49
-0.25
 74
     0
  0
ENDTAB
  0
TABLE
  2
LAYER
  5
2
330
0
100
AcDbSymbolTable
 70
     9
  0
LAYER
  5
F
330
2
100
AcDbSymbolTableRecord
100
AcDbLayerTableRecord
  2
0
 70
     0
 62
     7
  6
CONTINUOUS
  0
LAYER
  5
62
330
2
100
AcDbSymbolTableRecord
100
AcDbLayerTableRecord
  2
VIEWPORT
 70
     0
 62
     7
  6
CONTINUOUS
  0
LAYER
  5
65
330
2
100
AcDbSymbolTableRecord
100
AcDbLayerTableRecord
  2
ZUWAKU
 70
     0
 62
     7
  6
CONTINUOUS
  0
LAYER
  5
144
330
2
100
AcDbSymbolTableRecord
100
AcDbLayerTableRecord
  2
SEIHIN
 70
     0
 62
     3
  6
CONTINUOUS
  0
LAYER
  5
2B4
330
2
100
AcDbSymbolTableRecord
100
AcDbLayerTableRecord
  2
SUNPOU
 70
     0
 62
     4
  6
CONTINUOUS
  0
LAYER
  5
43A
330
2
100
AcDbSymbolTableRecord
100
AcDbLayerTableRecord
  2
DEFPOINTS
 70
     0
 62
     7
  6
CONTINUOUS
  0
LAYER
  5
47FF
330
2
100
AcDbSymbolTableRecord
100
AcDbLayerTableRecord
  2
NOKITOI
 70
     0
 62
     9
  6
PHANTOM
  0
LAYER
  5
51CF
330
2
100
AcDbSymbolTableRecord
100
AcDbLayerTableRecord
  2
MOJI
 70
     0
 62
     2
  6
CONTINUOUS
  0
LAYER
  5
5418
330
2
100
AcDbSymbolTableRecord
100
AcDbLayerTableRecord
  2
CENTER_L
 70
     0
 62
     1
  6
CENTER
  0
ENDTAB
  0
TABLE
  2
STYLE
  5
3
330
0
100
AcDbSymbolTable
 70
     2
  0
STYLE
  5
10
330
3
100
AcDbSymbolTableRecord
100
AcDbTextStyleTableRecord
  2
STANDARD
 70
     0
 40
0.0
 41
1.0
 50
0.0
 71
     0
 42
5.0
  3
TXT
  4
A:\Program Files\AutoCAD LT\ms\bigfont.shx
  0
STYLE
  5
51D0
330
3
100
AcDbSymbolTableRecord
100
AcDbTextStyleTableRecord
  2
ｽﾀｲﾙ1
 70
     0
 40
0.0
 41
1.0
 50
0.0
 71
     0
 42
2.5
  3
MS PGothic.ttf
  4

1001
ACAD
1000
MS PGothic
1071
    32818
  0
ENDTAB
  0
TABLE
  2
VIEW
  5
6
330
0
100
AcDbSymbolTable
 70
     0
  0
ENDTAB
  0
TABLE
  2
UCS
  5
7
330
0
100
AcDbSymbolTable
 70
     0
  0
ENDTAB
  0
TABLE
  2
APPID
  5
9
330
0
100
AcDbSymbolTable
 70
     1
  0
APPID
  5
11
330
9
100
AcDbSymbolTableRecord
100
AcDbRegAppTableRecord
  2
ACAD
 70
     0
  0
ENDTAB
  0
TABLE
  2
DIMSTYLE
  5
A
330
0
100
AcDbSymbolTable
 70
     1
  0
DIMSTYLE
105
1D
102
{ACAD_REACTORS
330
5773
330
5778
330
577C
330
578D
330
579C
330
57A1
330
57A4
330
5804
102
}
330
A
100
AcDbSymbolTableRecord
100
AcDbDimStyleTableRecord
  2
STANDARD
 70
     0
  3

  4

  5

  6

  7

 40
1.0
 41
0.18
 42
0.0625
 43
0.38
 44
0.18
 45
0.0
 46
0.0
 47
0.0
 48
0.0
140
0.18
141
0.09
142
0.0
143
25.4
144
1.0
145
0.0
146
1.0
147
0.09
 71
     0
 72
     0
 73
     1
 74
     1
 75
     0
 76
     0
 77
     0
 78
     0
170
     0
171
     2
172
     0
173
     0
174
     0
175
     0
176
     0
177
     0
178
     0
270
     2
271
     4
272
     4
273
     2
274
     2
340
10
275
     0
280
     0
281
     0
282
     0
283
     1
284
     0
285
     0
286
     0
287
     3
288
     0
  0
ENDTAB
  0
TABLE
  2
BLOCK_RECORD
  5
1
330
0
100
AcDbSymbolTable
 70
    10
  0
BLOCK_RECORD
  5
1A
102
{ACAD_XDICTIONARY
360
6C6
102
}
330
1
100
AcDbSymbolTableRecord
100
AcDbBlockTableRecord
  2
*MODEL_SPACE
  0
BLOCK_RECORD
  5
17
102
{ACAD_XDICTIONARY
360
6C4
102
}
330
1
100
AcDbSymbolTableRecord
100
AcDbBlockTableRecord
  2
*PAPER_SPACE
  0
BLOCK_RECORD
  5
6D
330
1
100
AcDbSymbolTableRecord
100
AcDbBlockTableRecord
  2
_OPEN
  0
BLOCK_RECORD
  5
53AC
330
1
100
AcDbSymbolTableRecord
100
AcDbBlockTableRecord
  2
_OPEN30
  0
BLOCK_RECORD
  5
5815
330
1
100
AcDbSymbolTableRecord
100
AcDbBlockTableRecord
  2
*D2
  0
BLOCK_RECORD
  5
5823
330
1
100
AcDbSymbolTableRecord
100
AcDbBlockTableRecord
  2
*D3
  0
BLOCK_RECORD
  5
582F
330
1
100
AcDbSymbolTableRecord
100
AcDbBlockTableRecord
  2
*D4
  0
BLOCK_RECORD
  5
583B
330
1
100
AcDbSymbolTableRecord
100
AcDbBlockTableRecord
  2
*D5
  0
BLOCK_RECORD
  5
5849
330
1
100
AcDbSymbolTableRecord
100
AcDbBlockTableRecord
  2
*D6
  0
BLOCK_RECORD
  5
5855
330
1
100
AcDbSymbolTableRecord
100
AcDbBlockTableRecord
  2
*D7
  0
BLOCK_RECORD
  5
5862
330
1
100
AcDbSymbolTableRecord
100
AcDbBlockTableRecord
  2
*D8
  0
BLOCK_RECORD
  5
586E
330
1
100
AcDbSymbolTableRecord
100
AcDbBlockTableRecord
  2
*D9
  0
ENDTAB
  0
ENDSEC
  0
SECTION
  2
BLOCKS
  0
BLOCK
  5
1B
330
1A
100
AcDbEntity
  8
0
100
AcDbBlockBegin
  2
*MODEL_SPACE
 70
     0
 10
0.0
 20
0.0
 30
0.0
  3
*MODEL_SPACE
  1

  0
ENDBLK
  5
1C
330
1A
100
AcDbEntity
  8
0
100
AcDbBlockEnd
  0
BLOCK
  5
18
330
17
100
AcDbEntity
 67
     1
  8
0
100
AcDbBlockBegin
  2
*PAPER_SPACE
 70
     0
 10
0.0
 20
0.0
 30
0.0
  3
*PAPER_SPACE
  1

  0
ENDBLK
  5
19
330
17
100
AcDbEntity
 67
     1
  8
0
100
AcDbBlockEnd
  0
BLOCK
  5
6E
330
6D
100
AcDbEntity
  8
0
100
AcDbBlockBegin
  2
_OPEN
 70
     0
 10
0.0
 20
0.0
 30
0.0
  3
_OPEN
  1

  0
LINE
  5
6F
330
6D
100
AcDbEntity
  8
0
  6
BYBLOCK
 62
     0
100
AcDbLine
 10
-1.0
 20
0.1666666666666666
 30
0.0
 11
0.0
 21
0.0
 31
0.0
  0
LINE
  5
70
330
6D
100
AcDbEntity
  8
0
  6
BYBLOCK
 62
     0
100
AcDbLine
 10
0.0
 20
0.0
 30
0.0
 11
-1.0
 21
-0.1666666666666666
 31
0.0
  0
LINE
  5
71
330
6D
100
AcDbEntity
  8
0
  6
BYBLOCK
 62
     0
100
AcDbLine
 10
0.0
 20
0.0
 30
0.0
 11
-1.0
 21
0.0
 31
0.0
  0
ENDBLK
  5
72
330
6D
100
AcDbEntity
  8
0
100
AcDbBlockEnd
  0
BLOCK
  5
53B0
330
53AC
100
AcDbEntity
  8
0
100
AcDbBlockBegin
  2
_OPEN30
 70
     0
 10
0.0
 20
0.0
 30
0.0
  3
_OPEN30
  1

  0
LINE
  5
53AD
330
53AC
100
AcDbEntity
  8
ZUWAKU
 62
     0
100
AcDbLine
 10
-1.0
 20
0.26794919
 30
0.0
 11
0.0
 21
0.0
 31
0.0
  0
LINE
  5
53AE
330
53AC
100
AcDbEntity
  8
ZUWAKU
 62
     0
100
AcDbLine
 10
0.0
 20
0.0
 30
0.0
 11
-1.0
 21
-0.26794919
 31
0.0
  0
LINE
  5
53AF
330
53AC
100
AcDbEntity
  8
ZUWAKU
 62
     0
100
AcDbLine
 10
0.0
 20
0.0
 30
0.0
 11
-1.0
 21
0.0
 31
0.0
  0
ENDBLK
  5
53B1
330
53AC
100
AcDbEntity
  8
0
100
AcDbBlockEnd
  0
BLOCK
  5
5821
330
5815
100
AcDbEntity
  8
0
100
AcDbBlockBegin
  2
*D2
 70
     1
 10
0.0
 20
0.0
 30
0.0
  3
*D2
  1

  0
LINE
  5
58F3
330
5815
100
AcDbEntity
  8
SUNPOU
100
AcDbLine
 10
641.5222462666626
 20
275.5990248295931
 30
0.0
 11
641.5222462666626
 21
252.4462574969768
 31
0.0
  0
LINE
  5
58F4
330
5815
100
AcDbEntity
  8
SUNPOU
100
AcDbLine
 10
638.5222462666627
 20
275.5990248295931
 30
0.0
 11
638.5222462666627
 21
252.4462574969768
 31
0.0
  0
LINE
  5
58F5
330
5815
100
AcDbEntity
  8
SUNPOU
100
AcDbLine
 10
648.5222462666627
 20
255.4462574969768
 30
0.0
 11
655.5222462666627
 21
255.4462574969768
 31
0.0
  0
LINE
  5
58F6
330
5815
100
AcDbEntity
  8
SUNPOU
100
AcDbLine
 10
631.5222462666627
 20
255.4462574969768
 30
0.0
 11
616.5222462666626
 21
255.4462574969768
 31
0.0
  0
LINE
  5
58F7
330
5815
100
AcDbEntity
  8
SUNPOU
100
AcDbLine
 10
641.5222462666626
 20
255.4462574969768
 30
0.0
 11
638.5222462666627
 21
255.4462574969768
 31
0.0
  0
INSERT
  5
58F8
330
5815
100
AcDbEntity
  8
SUNPOU
100
AcDbBlockReference
  2
_OPEN
 10
641.5222462666626
 20
255.4462574969768
 30
0.0
 41
7.0
 42
7.0
 43
7.0
 50
180.0
  0
INSERT
  5
58F9
330
5815
100
AcDbEntity
  8
SUNPOU
100
AcDbBlockReference
  2
_OPEN
 10
638.5222462666627
 20
255.4462574969768
 30
0.0
 41
7.0
 42
7.0
 43
7.0
  0
MTEXT
  5
58FA
330
5815
100
AcDbEntity
  8
SUNPOU
100
AcDbMText
 10
620.5222462666626
 20
260.4462574969768
 30
0.0
 40
6.0
 41
0.0
 71
     5
 72
     1
  1
\A1;3
  0
POINT
  5
58FB
330
5815
100
AcDbEntity
  8
DEFPOINTS
 62
     0
100
AcDbPoint
 10
641.5222462666626
 20
281.5990248295932
 30
0.0
  0
POINT
  5
58FC
330
5815
100
AcDbEntity
  8
DEFPOINTS
 62
     0
100
AcDbPoint
 10
638.5222462666627
 20
281.5990248295932
 30
0.0
  0
POINT
  5
58FD
330
5815
100
AcDbEntity
  8
DEFPOINTS
 62
     0
100
AcDbPoint
 10
638.5222462666627
 20
255.4462574969768
 30
0.0
  0
ENDBLK
  5
5822
330
5815
100
AcDbEntity
  8
0
100
AcDbBlockEnd
  0
BLOCK
  5
582D
330
5823
100
AcDbEntity
  8
0
100
AcDbBlockBegin
  2
*D3
 70
     1
 10
0.0
 20
0.0
 30
0.0
  3
*D3
  1

  0
LINE
  5
58FE
330
5823
100
AcDbEntity
  8
SUNPOU
100
AcDbLine
 10
563.5337232234153
 20
308.0512294955934
 30
0.0
 11
610.2323782489888
 21
308.0512294955934
 31
0.0
  0
LINE
  5
58FF
330
5823
100
AcDbEntity
  8
SUNPOU
100
AcDbLine
 10
461.8516080581157
 20
166.1619696687937
 30
0.0
 11
610.2323782489886
 21
166.1619696687937
 31
0.0
  0
LINE
  5
5900
330
5823
100
AcDbEntity
  8
SUNPOU
100
AcDbLine
 10
607.2323782489887
 20
301.0512294955934
 30
0.0
 11
607.2323782489887
 21
173.1619696687937
 31
0.0
  0
INSERT
  5
5901
330
5823
100
AcDbEntity
  8
SUNPOU
100
AcDbBlockReference
  2
_OPEN
 10
607.2323782489887
 20
308.0512294955934
 30
0.0
 41
7.0
 42
7.0
 43
7.0
 50
90.0
  0
INSERT
  5
5902
330
5823
100
AcDbEntity
  8
SUNPOU
100
AcDbBlockReference
  2
_OPEN
 10
607.2323782489887
 20
166.1619696687937
 30
0.0
 41
7.0
 42
7.0
 43
7.0
 50
270.0
  0
MTEXT
  5
5903
330
5823
100
AcDbEntity
  8
SUNPOU
100
AcDbMText
 10
602.2323782489886
 20
237.1065995821937
 30
0.0
 40
6.0
 41
0.0
 71
     5
 72
     1
  1
\A1;142
 11
0.0000000000000001
 21
1.0
 31
0.0
  0
POINT
  5
5904
330
5823
100
AcDbEntity
  8
DEFPOINTS
 62
     0
100
AcDbPoint
 10
557.5337232234153
 20
308.0512294955934
 30
0.0
  0
POINT
  5
5905
330
5823
100
AcDbEntity
  8
DEFPOINTS
 62
     0
100
AcDbPoint
 10
455.8516080581157
 20
166.1619696687937
 30
0.0
  0
POINT
  5
5906
330
5823
100
AcDbEntity
  8
DEFPOINTS
 62
     0
100
AcDbPoint
 10
607.2323782489887
 20
166.1619696687937
 30
0.0
  0
ENDBLK
  5
582E
330
5823
100
AcDbEntity
  8
0
100
AcDbBlockEnd
  0
BLOCK
  5
5839
330
582F
100
AcDbEntity
  8
0
100
AcDbBlockBegin
  2
*D4
 70
     1
 10
0.0
 20
0.0
 30
0.0
  3
*D4
  1

  0
LINE
  5
5907
330
582F
100
AcDbEntity
  8
SUNPOU
100
AcDbLine
 10
501.0087967057375
 20
161.1795293267557
 30
0.0
 11
501.0087967057375
 21
123.5626638470578
 31
0.0
  0
LINE
  5
5908
330
582F
100
AcDbEntity
  8
SUNPOU
100
AcDbLine
 10
410.4995681481453
 20
161.1883342314922
 30
0.0
 11
410.4995681481453
 21
123.5626638470578
 31
0.0
  0
LINE
  5
5909
330
582F
100
AcDbEntity
  8
SUNPOU
100
AcDbLine
 10
494.0087967057374
 20
126.5626638470578
 30
0.0
 11
417.4995681481452
 21
126.5626638470578
 31
0.0
  0
INSERT
  5
590A
330
582F
100
AcDbEntity
  8
SUNPOU
100
AcDbBlockReference
  2
_OPEN
 10
501.0087967057375
 20
126.5626638470578
 30
0.0
 41
7.0
 42
7.0
 43
7.0
  0
INSERT
  5
590B
330
582F
100
AcDbEntity
  8
SUNPOU
100
AcDbBlockReference
  2
_OPEN
 10
410.4995681481453
 20
126.5626638470578
 30
0.0
 41
7.0
 42
7.0
 43
7.0
 50
180.0
  0
MTEXT
  5
590C
330
582F
100
AcDbEntity
  8
SUNPOU
100
AcDbMText
 10
455.7541824269414
 20
131.5626638470578
 30
0.0
 40
6.0
 41
0.0
 71
     5
 72
     1
  1
\A1;91
  0
POINT
  5
590D
330
582F
100
AcDbEntity
  8
DEFPOINTS
 62
     0
100
AcDbPoint
 10
501.0087967057375
 20
167.1795293267557
 30
0.0
  0
POINT
  5
590E
330
582F
100
AcDbEntity
  8
DEFPOINTS
 62
     0
100
AcDbPoint
 10
410.4995681481453
 20
167.1883342314922
 30
0.0
  0
POINT
  5
590F
330
582F
100
AcDbEntity
  8
DEFPOINTS
 62
     0
100
AcDbPoint
 10
410.4995681481453
 20
126.5626638470578
 30
0.0
  0
ENDBLK
  5
583A
330
582F
100
AcDbEntity
  8
0
100
AcDbBlockEnd
  0
BLOCK
  5
5847
330
583B
100
AcDbEntity
  8
0
100
AcDbBlockBegin
  2
*D5
 70
     1
 10
0.0
 20
0.0
 30
0.0
  3
*D5
  1

  0
LINE
  5
5910
330
583B
100
AcDbEntity
  8
SUNPOU
100
AcDbLine
 10
644.5222462666627
 20
162.3638084179932
 30
0.0
 11
644.5222462666627
 21
123.5626638470578
 31
0.0
  0
LINE
  5
5911
330
583B
100
AcDbEntity
  8
SUNPOU
100
AcDbLine
 10
641.5222462666626
 20
171.0990248295932
 30
0.0
 11
641.5222462666626
 21
123.5626638470578
 31
0.0
  0
LINE
  5
5912
330
583B
100
AcDbEntity
  8
SUNPOU
100
AcDbLine
 10
651.5222462666627
 20
126.5626638470578
 30
0.0
 11
658.5222462666627
 21
126.5626638470578
 31
0.0
  0
LINE
  5
5913
330
583B
100
AcDbEntity
  8
SUNPOU
100
AcDbLine
 10
634.5222462666627
 20
126.5626638470578
 30
0.0
 11
619.5222462666627
 21
126.5626638470578
 31
0.0
  0
LINE
  5
5914
330
583B
100
AcDbEntity
  8
SUNPOU
100
AcDbLine
 10
644.5222462666627
 20
126.5626638470578
 30
0.0
 11
641.5222462666626
 21
126.5626638470578
 31
0.0
  0
INSERT
  5
5915
330
583B
100
AcDbEntity
  8
SUNPOU
100
AcDbBlockReference
  2
_OPEN
 10
644.5222462666627
 20
126.5626638470578
 30
0.0
 41
7.0
 42
7.0
 43
7.0
 50
180.0
  0
INSERT
  5
5916
330
583B
100
AcDbEntity
  8
SUNPOU
100
AcDbBlockReference
  2
_OPEN
 10
641.5222462666626
 20
126.5626638470578
 30
0.0
 41
7.0
 42
7.0
 43
7.0
  0
MTEXT
  5
5917
330
583B
100
AcDbEntity
  8
SUNPOU
100
AcDbMText
 10
623.5222462666627
 20
131.5626638470578
 30
0.0
 40
6.0
 41
0.0
 71
     5
 72
     1
  1
\A1;3
  0
POINT
  5
5918
330
583B
100
AcDbEntity
  8
DEFPOINTS
 62
     0
100
AcDbPoint
 10
644.5222462666627
 20
168.3638084179932
 30
0.0
  0
POINT
  5
5919
330
583B
100
AcDbEntity
  8
DEFPOINTS
 62
     0
100
AcDbPoint
 10
641.5222462666626
 20
177.0990248295931
 30
0.0
  0
POINT
  5
591A
330
583B
100
AcDbEntity
  8
DEFPOINTS
 62
     0
100
AcDbPoint
 10
641.5222462666626
 20
126.5626638470578
 30
0.0
  0
ENDBLK
  5
5848
330
583B
100
AcDbEntity
  8
0
100
AcDbBlockEnd
  0
BLOCK
  5
5853
330
5849
100
AcDbEntity
  8
0
100
AcDbBlockBegin
  2
*D6
 70
     1
 10
0.0
 20
0.0
 30
0.0
  3
*D6
  1

  0
LINE
  5
591B
330
5849
100
AcDbEntity
  8
SUNPOU
100
AcDbLine
 10
671.5222462666629
 20
313.7716658353932
 30
0.0
 11
671.5222462666629
 21
342.8483264708057
 31
0.0
  0
LINE
  5
591C
330
5849
100
AcDbEntity
  8
SUNPOU
100
AcDbLine
 10
638.5222462666627
 20
312.4211766351931
 30
0.0
 11
638.5222462666627
 21
342.8483264708057
 31
0.0
  0
LINE
  5
591D
330
5849
100
AcDbEntity
  8
SUNPOU
100
AcDbLine
 10
664.5222462666629
 20
339.8483264708057
 30
0.0
 11
645.5222462666626
 21
339.8483264708057
 31
0.0
  0
INSERT
  5
591E
330
5849
100
AcDbEntity
  8
SUNPOU
100
AcDbBlockReference
  2
_OPEN
 10
671.5222462666629
 20
339.8483264708057
 30
0.0
 41
7.0
 42
7.0
 43
7.0
  0
INSERT
  5
591F
330
5849
100
AcDbEntity
  8
SUNPOU
100
AcDbBlockReference
  2
_OPEN
 10
638.5222462666627
 20
339.8483264708057
 30
0.0
 41
7.0
 42
7.0
 43
7.0
 50
180.0
  0
MTEXT
  5
5920
330
5849
100
AcDbEntity
  8
SUNPOU
100
AcDbMText
 10
655.0222462666628
 20
344.8483264708057
 30
0.0
 40
6.0
 41
0.0
 71
     5
 72
     1
  1
\A1;33
  0
POINT
  5
5921
330
5849
100
AcDbEntity
  8
DEFPOINTS
 62
     0
100
AcDbPoint
 10
671.5222462666629
 20
307.7716658353932
 30
0.0
  0
POINT
  5
5922
330
5849
100
AcDbEntity
  8
DEFPOINTS
 62
     0
100
AcDbPoint
 10
638.5222462666627
 20
306.4211766351931
 30
0.0
  0
POINT
  5
5923
330
5849
100
AcDbEntity
  8
DEFPOINTS
 62
     0
100
AcDbPoint
 10
638.5222462666627
 20
339.8483264708057
 30
0.0
  0
ENDBLK
  5
5854
330
5849
100
AcDbEntity
  8
0
100
AcDbBlockEnd
  0
BLOCK
  5
5860
330
5855
100
AcDbEntity
  8
0
100
AcDbBlockBegin
  2
*D7
 70
     1
 10
0.0
 20
0.0
 30
0.0
  3
*D7
  1

  0
LINE
  5
5924
330
5855
100
AcDbEntity
  8
SUNPOU
100
AcDbLine
 10
563.8534524724157
 20
434.673848161233
 30
0.0
 11
593.5375738685245
 21
434.673848161233
 31
0.0
  0
LINE
  5
5925
330
5855
100
AcDbEntity
  8
SUNPOU
100
AcDbLine
 10
503.2767207147156
 20
410.1429141922828
 30
0.0
 11
593.5375738685245
 21
410.1429141922828
 31
0.0
  0
LINE
  5
5926
330
5855
100
AcDbEntity
  8
SUNPOU
100
AcDbLine
 10
590.5375738685245
 20
427.6738481612331
 30
0.0
 11
590.5375738685245
 21
417.1429141922828
 31
0.0
  0
LINE
  5
5927
330
5855
100
AcDbEntity
  8
SUNPOU
100
AcDbLine
 10
590.5375738685245
 20
410.1429141922828
 30
0.0
 11
590.5375738685245
 21
374.3429141922828
 31
0.0
  0
INSERT
  5
5928
330
5855
100
AcDbEntity
  8
SUNPOU
100
AcDbBlockReference
  2
_OPEN
 10
590.5375738685245
 20
434.673848161233
 30
0.0
 41
7.0
 42
7.0
 43
7.0
 50
90.0
  0
INSERT
  5
5929
330
5855
100
AcDbEntity
  8
SUNPOU
100
AcDbBlockReference
  2
_OPEN
 10
590.5375738685245
 20
410.1429141922828
 30
0.0
 41
7.0
 42
7.0
 43
7.0
 50
270.0
  0
MTEXT
  5
592A
330
5855
100
AcDbEntity
  8
SUNPOU
100
AcDbMText
 10
585.5375738685244
 20
388.7429141922829
 30
0.0
 40
6.0
 41
0.0
 71
     5
 72
     1
  1
\A1;\U+203B24.5
 11
0.0000000000000001
 21
1.0
 31
0.0
  0
POINT
  5
592B
330
5855
100
AcDbEntity
  8
DEFPOINTS
 62
     0
100
AcDbPoint
 10
557.8534524724156
 20
434.673848161233
 30
0.0
  0
POINT
  5
592C
330
5855
100
AcDbEntity
  8
DEFPOINTS
 62
     0
100
AcDbPoint
 10
497.2767207147155
 20
410.1429141922828
 30
0.0
  0
POINT
  5
592D
330
5855
100
AcDbEntity
  8
DEFPOINTS
 62
     0
100
AcDbPoint
 10
590.5375738685245
 20
410.1429141922828
 30
0.0
  0
ENDBLK
  5
5861
330
5855
100
AcDbEntity
  8
0
100
AcDbBlockEnd
  0
BLOCK
  5
586C
330
5862
100
AcDbEntity
  8
0
100
AcDbBlockBegin
  2
*D8
 70
     1
 10
0.0
 20
0.0
 30
0.0
  3
*D8
  1

  0
LINE
  5
592E
330
5862
100
AcDbEntity
  8
SUNPOU
100
AcDbLine
 10
399.9869327576154
 20
312.0484848035936
 30
0.0
 11
399.9869327576154
 21
342.8483264708057
 31
0.0
  0
LINE
  5
592F
330
5862
100
AcDbEntity
  8
SUNPOU
100
AcDbLine
 10
558.9016080581156
 20
313.1147525957934
 30
0.0
 11
558.9016080581156
 21
342.8483264708057
 31
0.0
  0
LINE
  5
5930
330
5862
100
AcDbEntity
  8
SUNPOU
100
AcDbLine
 10
406.9869327576155
 20
339.8483264708057
 30
0.0
 11
551.9016080581157
 21
339.8483264708057
 31
0.0
  0
INSERT
  5
5931
330
5862
100
AcDbEntity
  8
SUNPOU
100
AcDbBlockReference
  2
_OPEN
 10
399.9869327576154
 20
339.8483264708057
 30
0.0
 41
7.0
 42
7.0
 43
7.0
 50
180.0
  0
INSERT
  5
5932
330
5862
100
AcDbEntity
  8
SUNPOU
100
AcDbBlockReference
  2
_OPEN
 10
558.9016080581156
 20
339.8483264708057
 30
0.0
 41
7.0
 42
7.0
 43
7.0
  0
MTEXT
  5
5933
330
5862
100
AcDbEntity
  8
SUNPOU
100
AcDbMText
 10
479.4442704078655
 20
344.8483264708057
 30
0.0
 40
6.0
 41
0.0
 71
     5
 72
     1
  1
\A1;159
  0
POINT
  5
5934
330
5862
100
AcDbEntity
  8
DEFPOINTS
 62
     0
100
AcDbPoint
 10
399.9869327576154
 20
306.0484848035936
 30
0.0
  0
POINT
  5
5935
330
5862
100
AcDbEntity
  8
DEFPOINTS
 62
     0
100
AcDbPoint
 10
558.9016080581156
 20
307.1147525957934
 30
0.0
  0
POINT
  5
5936
330
5862
100
AcDbEntity
  8
DEFPOINTS
 62
     0
100
AcDbPoint
 10
558.9016080581156
 20
339.8483264708057
 30
0.0
  0
ENDBLK
  5
586D
330
5862
100
AcDbEntity
  8
0
100
AcDbBlockEnd
  0
BLOCK
  5
5878
330
586E
100
AcDbEntity
  8
0
100
AcDbBlockBegin
  2
*D9
 70
     1
 10
0.0
 20
0.0
 30
0.0
  3
*D9
  1

  0
LINE
  5
5937
330
586E
100
AcDbEntity
  8
SUNPOU
100
AcDbLine
 10
563.5337232234153
 20
308.0512294955934
 30
0.0
 11
593.5375738685245
 21
308.0512294955934
 31
0.0
  0
LINE
  5
5938
330
586E
100
AcDbEntity
  8
SUNPOU
100
AcDbLine
 10
564.9016080581157
 20
281.6619696687936
 30
0.0
 11
593.5375738685245
 21
281.6619696687936
 31
0.0
  0
LINE
  5
5939
330
586E
100
AcDbEntity
  8
SUNPOU
100
AcDbLine
 10
590.5375738685245
 20
301.0512294955934
 30
0.0
 11
590.5375738685245
 21
288.6619696687936
 31
0.0
  0
INSERT
  5
593A
330
586E
100
AcDbEntity
  8
SUNPOU
100
AcDbBlockReference
  2
_OPEN
 10
590.5375738685245
 20
308.0512294955934
 30
0.0
 41
7.0
 42
7.0
 43
7.0
 50
90.0
  0
INSERT
  5
593B
330
586E
100
AcDbEntity
  8
SUNPOU
100
AcDbBlockReference
  2
_OPEN
 10
590.5375738685245
 20
281.6619696687936
 30
0.0
 41
7.0
 42
7.0
 43
7.0
 50
270.0
  0
MTEXT
  5
593C
330
586E
100
AcDbEntity
  8
SUNPOU
100
AcDbMText
 10
585.5375738685244
 20
294.8565995821936
 30
0.0
 40
6.0
 41
0.0
 71
     5
 72
     1
  1
\A1;26
 11
0.0000000000000001
 21
1.0
 31
0.0
  0
POINT
  5
593D
330
586E
100
AcDbEntity
  8
DEFPOINTS
 62
     0
100
AcDbPoint
 10
557.5337232234153
 20
308.0512294955934
 30
0.0
  0
POINT
  5
593E
330
586E
100
AcDbEntity
  8
DEFPOINTS
 62
     0
100
AcDbPoint
 10
558.9016080581156
 20
281.6619696687936
 30
0.0
  0
POINT
  5
593F
330
586E
100
AcDbEntity
  8
DEFPOINTS
 62
     0
100
AcDbPoint
 10
590.5375738685245
 20
281.6619696687936
 30
0.0
  0
ENDBLK
  5
5879
330
586E
100
AcDbEntity
  8
0
100
AcDbBlockEnd
  0
ENDSEC
  0
SECTION
  2
ENTITIES
  0
TEXT
  5
4F7
330
1A
100
AcDbEntity
  8
SUNPOU
 62
     4
100
AcDbText
 10
683.0721434841443
 20
36.11754564219644
 30
0.0
 40
6.0
  1
※　のきといの差込み寸法を示す
100
AcDbText
  0
LINE
  5
52E5
330
1A
100
AcDbEntity
  8
ZUWAKU
100
AcDbLine
 10
208.646601303624
 20
15.19999986828872
 30
0.0
 11
447.4243639845474
 21
15.19999986828871
 31
0.0
  0
LINE
  5
52E6
330
1A
100
AcDbEntity
  8
ZUWAKU
100
AcDbLine
 10
208.646601303624
 20
15.59999986828871
 30
0.0
 11
447.4243639845474
 21
15.59999986828872
 31
0.0
  0
LINE
  5
52E7
330
1A
100
AcDbEntity
  8
ZUWAKU
100
AcDbLine
 10
208.646601303624
 20
15.39999986828871
 30
0.0
 11
447.4243639845474
 21
15.39999986828871
 31
0.0
  0
LINE
  5
52E8
330
1A
100
AcDbEntity
  8
ZUWAKU
100
AcDbLine
 10
0.0000000135560185
 20
30.79999986828869
 30
0.0
 11
797.4000000135559
 21
30.79999986828869
 31
0.0
  0
LINE
  5
52E9
330
1A
100
AcDbEntity
  8
ZUWAKU
100
AcDbLine
 10
0.0000000135560185
 20
30.59999986828869
 30
0.0
 11
797.4000000135559
 21
30.59999986828869
 31
0.0
  0
LINE
  5
52EA
330
1A
100
AcDbEntity
  8
ZUWAKU
100
AcDbLine
 10
0.0000000135560185
 20
30.39999986828869
 30
0.0
 11
797.4000000135559
 21
30.39999986828869
 31
0.0
  0
LINE
  5
52EB
330
1A
100
AcDbEntity
  8
ZUWAKU
100
AcDbLine
 10
0.0000000135560185
 20
30.19999986828868
 30
0.0
 11
797.4000000135559
 21
30.19999986828868
 31
0.0
  0
LINE
  5
52EC
330
1A
100
AcDbEntity
  8
ZUWAKU
100
AcDbLine
 10
0.0000000135560185
 20
29.99999986828868
 30
0.0
 11
797.4000000135559
 21
29.99999986828868
 31
0.0
  0
LWPOLYLINE
  5
52ED
330
1A
100
AcDbEntity
  8
ZUWAKU
100
AcDbPolyline
 90
        4
 70
     1
 43
0.0
 10
0.2000000135559503
 20
551.3999998682887
 10
0.2000000135559503
 20
0.1999998682887281
 10
797.4000000135559
 20
0.1999998682887511
 10
797.4000000135561
 20
551.3999998682887
  0
LWPOLYLINE
  5
52EE
330
1A
100
AcDbEntity
  8
ZUWAKU
100
AcDbPolyline
 90
        4
 70
     1
 43
0.0
 10
0.6000000135559276
 20
550.9999998682888
 10
0.6000000135559276
 20
0.5999998682887054
 10
797.0000000135562
 20
0.5999998682887516
 10
797.000000013556
 20
550.9999998682888
  0
LWPOLYLINE
  5
52EF
330
1A
100
AcDbEntity
  8
ZUWAKU
100
AcDbPolyline
 90
        4
 70
     1
 43
0.0
 10
0.0000000135560185
 20
551.5999998682887
 10
0.0000000135560185
 20
-0.0000001317113174
 10
797.6000000135561
 20
-0.0000001317112499
 10
797.6000000135561
 20
551.5999998682888
  0
LWPOLYLINE
  5
52F0
330
1A
100
AcDbEntity
  8
ZUWAKU
100
AcDbPolyline
 90
        4
 70
     1
 43
0.0
 10
0.4000000135559958
 20
551.1999998682887
 10
0.4000000135559958
 20
0.3999998682887735
 10
797.200000013556
 20
0.3999998682887504
 10
797.200000013556
 20
551.1999998682887
  0
LWPOLYLINE
  5
52F1
330
1A
100
AcDbEntity
  8
ZUWAKU
100
AcDbPolyline
 90
        4
 70
     1
 43
0.0
 10
0.800000013555973
 20
550.7999998682887
 10
0.800000013555973
 20
0.7999998682887508
 10
796.8000000135559
 20
0.7999998682887508
 10
796.8000000135559
 20
550.7999998682887
  0
TEXT
  5
52F2
330
1A
100
AcDbEntity
  8
MOJI
100
AcDbText
 10
92.95778960172516
 20
12.74117799856344
 30
0.0
 40
6.0
  1
アートフェイスＶＭ１６０
 41
0.9
  7
ｽﾀｲﾙ1
100
AcDbText
  0
HATCH
  5
52F3
330
1A
100
AcDbEntity
  8
ZUWAKU
100
AcDbHatch
 10
0.0
 20
0.0
 30
0.0
210
0.0
220
0.0
230
1.0
  2
ANSI37
 70
     0
 71
     0
 91
        8
 92
        7
 72
     1
 73
     1
 93
       24
 10
14.50226267467587
 20
17.64484834927226
 42
-0.1989123673796348
 10
14.09221216833714
 20
18.63479784293331
 42
0.0
 10
14.09221216833714
 20
19.92499986828869
 42
-0.4142135623730912
 10
14.61721216833711
 20
20.44999986828868
 42
0.0
 10
17.59221216833702
 20
20.44999986828868
 42
0.4142135623731546
 10
18.11721216833712
 20
20.97499986828867
 42
0.0
 10
18.11721216833712
 20
22.72499986828869
 42
0.4142135623731586
 10
17.59221216833702
 20
23.24999986828868
 42
0.0
 10
14.09221216833714
 20
23.24999986828868
 42
0.4142135623730928
 10
11.29221216833718
 20
20.44999986828871
 42
0.0
 10
11.29221216833718
 20
18.63479784293344
 42
0.1989123673796619
 10
12.52236368735361
 20
15.66494936194983
 42
0.0
 10
15.43216166199829
 20
12.75515138730518
 42
-0.1989123673796613
 10
15.84221216833714
 20
11.76520189364399
 42
0.0
 10
15.84221216833714
 20
10.47499986828867
 42
-0.4142135623730911
 10
15.31721216833716
 20
9.949999868288685
 42
0.0
 10
12.34221216833725
 20
9.949999868288685
 42
0.4142135623731526
 10
11.81721216833716
 20
9.424999868288697
 42
0.0
 10
11.81721216833716
 20
7.674999868288676
 42
0.4142135623731526
 10
12.34221216833725
 20
7.149999868288688
 42
0.0
 10
15.84221216833714
 20
7.149999868288688
 42
0.4142135623731044
 10
18.64221216833721
 20
9.949999868288664
 42
0.0
 10
18.64221216833721
 20
11.76520189364393
 42
0.1989123673796604
 10
17.41206064932066
 20
14.73505037462747
 42
0.0
 97
        0
 92
        7
 72
     1
 73
     1
 93
       16
 10
23.54221216833718
 20
19.04999986828869
 42
-0.4142135623730935
 10
24.94221216833716
 20
20.44999986828868
 42
0.0
 10
26.86721216833712
 20
20.44999986828868
 42
0.4142135623731546
 10
27.39221216833721
 20
20.97499986828867
 42
0.0
 10
27.39221216833721
 20
22.72499986828869
 42
0.4142135623730951
 10
26.86721216833723
 20
23.24999986828868
 42
0.0
 10
24.94221216833705
 20
23.24999986828864
 42
0.4142135623730892
 10
20.74221216833711
 20
19.04999986828862
 42
0.0
 10
20.74221216833711
 20
11.34999986828871
 42
0.4142135623730969
 10
24.94221216833716
 20
7.149999868288688
 42
0.0
 10
26.86721216833712
 20
7.149999868288688
 42
0.4142135623731526
 10
27.39221216833721
 20
7.674999868288676
 42
0.0
 10
27.39221216833721
 20
9.424999868288697
 42
0.4142135623730891
 10
26.86721216833723
 20
9.949999868288685
 42
0.0
 10
24.94221216833716
 20
9.949999868288685
 42
-0.4142135623730928
 10
23.54221216833718
 20
11.34999986828867
 42
0.0
 97
        0
 92
        7
 72
     1
 73
     1
 93
        2
 10
24.24221216833712
 20
15.19999986828868
 42
1.0
 10
27.74221216833712
 20
15.19999986828868
 42
1.0
 97
        0
 92
        7
 72
     1
 73
     1
 93
       26
 10
37.31485865051513
 20
19.20504706185211
 42
0.0
 10
38.37649828365295
 20
22.5669059001217
 42
0.5069206636600134
 10
37.87586738445759
 20
23.24999986828868
 42
0.0
 10
36.17697800484836
 20
23.24999986828868
 42
0.3272098845218764
 10
35.676347105653
 20
22.88309383645565
 42
0.0
 10
33.80807723102122
 20
16.96690590012176
 42
-0.3272098845219541
 10
33.30744633182575
 20
16.59999986828868
 42
0.0
 10
33.1672121683373
 20
16.59999986828868
 42
-0.4142135623731526
 10
32.64221216833721
 20
17.12499986828867
 42
0.0
 10
32.64221216833721
 20
22.72499986828869
 42
0.4142135623730951
 10
32.11721216833723
 20
23.24999986828868
 42
0.0
 10
30.36721216833711
 20
23.24999986828868
 42
0.4142135623730871
 10
29.84221216833714
 20
22.7249998682887
 42
0.0
 10
29.84221216833714
 20
7.674999868288676
 42
0.4142135623730891
 10
30.36721216833711
 20
7.149999868288688
 42
0.0
 10
32.11721216833712
 20
7.149999868288688
 42
0.4142135623731526
 10
32.64221216833721
 20
7.674999868288676
 42
0.0
 10
32.64221216833721
 20
13.27499986828869
 42
-0.4142135623731526
 10
33.1672121683373
 20
13.79999986828868
 42
0.0
 10
33.30744633182587
 20
13.79999986828868
 42
-0.3272098845218915
 10
33.80807723102122
 20
13.43309383645561
 42
0.0
 10
35.676347105653
 20
7.516905900121759
 42
0.3272098845218902
 10
36.17697800484836
 20
7.149999868288688
 42
0.0
 10
37.87586738445759
 20
7.149999868288688
 42
0.5069206636600335
 10
38.37649828365295
 20
7.833093836455695
 42
0.0
 10
36.05010690517929
 20
15.19999986828882
 42
0.0
 97
        0
 92
        7
 72
     1
 73
     1
 93
        8
 10
43.49221216833711
 20
22.7249998682887
 42
0.4142135623731546
 10
42.96721216833702
 20
23.24999986828868
 42
0.0
 10
41.21721216833726
 20
23.24999986828868
 42
0.4142135623731507
 10
40.69221216833716
 20
22.7249998682887
 42
0.0
 10
40.69221216833716
 20
7.674999868288676
 42
0.4142135623731526
 10
41.21721216833726
 20
7.149999868288688
 42
0.0
 10
42.96721216833702
 20
7.149999868288688
 42
0.4142135623731526
 10
43.49221216833711
 20
7.674999868288676
 42
0.0
 97
        0
 92
        7
 72
     1
 73
     1
 93
       24
 10
48.3922121683372
 20
19.92499986828869
 42
-0.4142135623731546
 10
48.9172121683373
 20
20.44999986828868
 42
0.0
 10
51.89221216833721
 20
20.44999986828868
 42
0.4142135623730911
 10
52.41721216833719
 20
20.97499986828867
 42
0.0
 10
52.41721216833719
 20
22.72499986828869
 42
0.4142135623730952
 10
51.89221216833721
 20
23.24999986828868
 42
0.0
 10
48.3922121683372
 20
23.24999986828868
 42
0.4142135623731048
 10
45.59221216833714
 20
20.44999986828871
 42
0.0
 10
45.59221216833714
 20
18.63479784293344
 42
0.1989123673796613
 10
46.82236368735368
 20
15.66494936194989
 42
0.0
 10
49.73216166199836
 20
12.75515138730522
 42
-0.1989123673796402
 10
50.14221216833721
 20
11.76520189364415
 42
0.0
 10
50.14221216833721
 20
10.47499986828867
 42
-0.4142135623730911
 10
49.61721216833723
 20
9.949999868288685
 42
0.0
 10
46.64221216833721
 20
9.949999868288685
 42
0.4142135623731526
 10
46.11721216833712
 20
9.424999868288697
 42
0.0
 10
46.11721216833712
 20
7.674999868288676
 42
0.4142135623730891
 10
46.64221216833709
 20
7.149999868288688
 42
0.0
 10
50.14221216833721
 20
7.149999868288688
 42
0.4142135623730925
 10
52.94221216833716
 20
9.949999868288664
 42
0.0
 10
52.94221216833716
 20
11.76520189364393
 42
0.1989123673796675
 10
51.71206064932062
 20
14.73505037462759
 42
0.0
 10
48.80226267467605
 20
17.6448483492721
 42
-0.1989123673796652
 10
48.3922121683372
 20
18.63479784293327
 42
0.0
 97
        0
 92
        7
 72
     1
 73
     1
 93
       16
 10
57.84221216833714
 20
22.72499986828867
 42
0.414213562373103
 10
57.31721216833716
 20
23.24999986828868
 42
0.0
 10
55.56721216833716
 20
23.24999986828868
 42
0.4142135623730871
 10
55.04221216833719
 20
22.7249998682887
 42
0.0
 10
55.04221216833719
 20
9.949999868288664
 42
0.4142135623730926
 10
57.84221216833714
 20
7.149999868288688
 42
0.0
 10
61.34221216833714
 20
7.149999868288688
 42
0.4142135623731044
 10
64.14221216833721
 20
9.949999868288664
 42
0.0
 10
64.14221216833721
 20
22.72499986828869
 42
0.4142135623730951
 10
63.61721216833723
 20
23.24999986828868
 42
0.0
 10
61.86721216833712
 20
23.24999986828868
 42
0.4142135623730871
 10
61.34221216833714
 20
22.7249998682887
 42
0.0
 10
61.34221216833714
 20
10.99999986828866
 42
-0.414213562373088
 10
60.29221216833718
 20
9.949999868288685
 42
0.0
 10
58.89221216833721
 20
9.949999868288685
 42
-0.4142135623731197
 10
57.84221216833714
 20
10.99999986828866
 42
0.0
 97
        0
 92
        7
 72
     1
 73
     1
 93
        8
 10
69.04221216833718
 20
22.7249998682887
 42
0.4142135623730871
 10
68.51721216833721
 20
23.24999986828868
 42
0.0
 10
66.76721216833721
 20
23.24999986828868
 42
0.4142135623731507
 10
66.24221216833712
 20
22.7249998682887
 42
0.0
 10
66.24221216833712
 20
7.674999868288676
 42
0.4142135623730891
 10
66.76721216833709
 20
7.149999868288688
 42
0.0
 10
68.51721216833721
 20
7.149999868288688
 42
0.4142135623730891
 10
69.04221216833718
 20
7.674999868288676
 42
0.0
 97
        0
 75
     0
 76
     1
 52
0.0
 41
0.2
 77
     0
 78
     2
 53
45.0
 43
-900.942304321123
 44
-13.20000013171124
 45
-0.4490128060534576
 46
0.4490128060534577
 79
     0
 53
135.0
 43
-900.942304321123
 44
-13.20000013171124
 45
-0.4490128060534577
 46
-0.4490128060534576
 79
     0
 47
0.057451373970553
 98
        8
 10
16.07985497657932
 20
15.16717351417423
 10
22.40451501999519
 20
18.84406205073969
 10
25.16436789921567
 20
15.5118815143594
 10
30.91405999519315
 20
16.20129751473018
 10
41.83847203251275
 20
16.6609097822718
 10
46.89820090868557
 20
19.41857618469589
 10
56.55768598595637
 20
18.72915778338369
 10
67.82707963317875
 20
19.18877005092531
  0
LINE
  5
52F4
330
1A
100
AcDbEntity
  8
ZUWAKU
100
AcDbLine
 10
24.94221216833716
 20
23.24999986828864
 30
0.0
 11
26.86721216833712
 21
23.24999986828868
 31
0.0
  0
LINE
  5
52F5
330
1A
100
AcDbEntity
  8
ZUWAKU
100
AcDbLine
 10
26.86721216833712
 20
20.44999986828868
 30
0.0
 11
24.94221216833716
 21
20.44999986828868
 31
0.0
  0
LINE
  5
52F6
330
1A
100
AcDbEntity
  8
ZUWAKU
100
AcDbLine
 10
24.94221216833716
 20
9.949999868288685
 30
0.0
 11
26.86721216833712
 21
9.949999868288685
 31
0.0
  0
LINE
  5
52F7
330
1A
100
AcDbEntity
  8
ZUWAKU
100
AcDbLine
 10
26.86721216833712
 20
7.149999868288688
 30
0.0
 11
24.94221216833716
 21
7.149999868288688
 31
0.0
  0
CIRCLE
  5
52F8
330
1A
100
AcDbEntity
  8
ZUWAKU
100
AcDbCircle
 10
25.99221216833711
 20
15.19999986828868
 30
0.0
 40
1.75
  0
ARC
  5
52F9
330
1A
100
AcDbEntity
  8
ZUWAKU
100
AcDbCircle
 10
15.49221216833712
 20
18.63479784293338
 30
0.0
 40
1.399999999999999
100
AcDbArc
 50
180.0000000000016
 51
224.9999999999988
  0
LINE
  5
52FA
330
1A
100
AcDbEntity
  8
ZUWAKU
100
AcDbLine
 10
23.54221216833718
 20
19.04999986828868
 30
0.0
 11
23.54221216833718
 21
11.34999986828869
 31
0.0
  0
LINE
  5
52FB
330
1A
100
AcDbEntity
  8
ZUWAKU
100
AcDbLine
 10
20.74221216833711
 20
11.34999986828869
 30
0.0
 11
20.74221216833711
 21
19.04999986828864
 31
0.0
  0
ARC
  5
52FC
330
1A
100
AcDbEntity
  8
ZUWAKU
100
AcDbCircle
 10
15.49221216833712
 20
18.63479784293338
 30
0.0
 40
4.199999999999999
100
AcDbArc
 50
180.0
 51
225.0
  0
ARC
  5
52FD
330
1A
100
AcDbEntity
  8
ZUWAKU
100
AcDbCircle
 10
15.84221216833714
 20
9.949999868288685
 30
0.0
 40
2.799999999999999
100
AcDbArc
 50
270.0
 51
0.0
  0
ARC
  5
52FE
330
1A
100
AcDbEntity
  8
ZUWAKU
100
AcDbCircle
 10
24.94221216833716
 20
11.34999986828869
 30
0.0
 40
4.199999999999999
100
AcDbArc
 50
180.0
 51
270.0
  0
ARC
  5
52FF
330
1A
100
AcDbEntity
  8
ZUWAKU
100
AcDbCircle
 10
14.44221216833716
 20
11.76520189364399
 30
0.0
 40
4.199999999999999
100
AcDbArc
 50
0.0
 51
45.0
  0
LINE
  5
5300
330
1A
100
AcDbEntity
  8
ZUWAKU
100
AcDbLine
 10
17.41206064932066
 20
14.73505037462751
 30
0.0
 11
14.50226267467598
 21
17.64484834927218
 31
0.0
  0
LINE
  5
5301
330
1A
100
AcDbEntity
  8
ZUWAKU
100
AcDbLine
 10
15.84221216833714
 20
10.47499986828869
 30
0.0
 11
15.84221216833714
 21
11.76520189364403
 31
0.0
  0
ARC
  5
5302
330
1A
100
AcDbEntity
  8
ZUWAKU
100
AcDbCircle
 10
15.31721216833716
 20
10.47499986828869
 30
0.0
 40
0.525
100
AcDbArc
 50
270.0
 51
0.0
  0
ARC
  5
5303
330
1A
100
AcDbEntity
  8
ZUWAKU
100
AcDbCircle
 10
14.44221216833716
 20
11.76520189364403
 30
0.0
 40
1.399999999999999
100
AcDbArc
 50
0.0
 51
45.0
  0
LINE
  5
5304
330
1A
100
AcDbEntity
  8
ZUWAKU
100
AcDbLine
 10
11.81721216833716
 20
7.674999868288686
 30
0.0
 11
11.81721216833716
 21
9.424999868288686
 31
0.0
  0
ARC
  5
5305
330
1A
100
AcDbEntity
  8
ZUWAKU
100
AcDbCircle
 10
12.34221216833714
 20
7.674999868288686
 30
0.0
 40
0.525
100
AcDbArc
 50
180.0
 51
270.0
  0
ARC
  5
5306
330
1A
100
AcDbEntity
  8
ZUWAKU
100
AcDbCircle
 10
12.34221216833714
 20
9.424999868288686
 30
0.0
 40
0.525
100
AcDbArc
 50
90.0
 51
180.0
  0
LINE
  5
5307
330
1A
100
AcDbEntity
  8
ZUWAKU
100
AcDbLine
 10
12.34221216833714
 20
7.149999868288688
 30
0.0
 11
15.84221216833714
 21
7.149999868288688
 31
0.0
  0
LINE
  5
5308
330
1A
100
AcDbEntity
  8
ZUWAKU
100
AcDbLine
 10
12.34221216833714
 20
9.949999868288685
 30
0.0
 11
15.31721216833716
 21
9.949999868288685
 31
0.0
  0
LINE
  5
5309
330
1A
100
AcDbEntity
  8
ZUWAKU
100
AcDbLine
 10
12.52236368735361
 20
15.66494936194986
 30
0.0
 11
15.43216166199829
 21
12.7551513873052
 31
0.0
  0
LINE
  5
530A
330
1A
100
AcDbEntity
  8
ZUWAKU
100
AcDbLine
 10
18.64221216833721
 20
9.949999868288685
 30
0.0
 11
18.64221216833721
 21
11.76520189364403
 31
0.0
  0
ARC
  5
530B
330
1A
100
AcDbEntity
  8
ZUWAKU
100
AcDbCircle
 10
24.94221216833716
 20
11.34999986828869
 30
0.0
 40
1.399999999999999
100
AcDbArc
 50
180.0
 51
270.0
  0
ARC
  5
530C
330
1A
100
AcDbEntity
  8
ZUWAKU
100
AcDbCircle
 10
17.59221216833714
 20
22.72499986828868
 30
0.0
 40
0.525
100
AcDbArc
 50
0.0
 51
90.0
  0
ARC
  5
530D
330
1A
100
AcDbEntity
  8
ZUWAKU
100
AcDbCircle
 10
17.59221216833714
 20
20.97499986828868
 30
0.0
 40
0.525
100
AcDbArc
 50
270.0
 51
0.0
  0
LINE
  5
530E
330
1A
100
AcDbEntity
  8
ZUWAKU
100
AcDbLine
 10
14.09221216833714
 20
23.24999986828868
 30
0.0
 11
17.59221216833714
 21
23.24999986828868
 31
0.0
  0
ARC
  5
530F
330
1A
100
AcDbEntity
  8
ZUWAKU
100
AcDbCircle
 10
14.61721216833711
 20
19.92499986828868
 30
0.0
 40
0.525
100
AcDbArc
 50
90.0
 51
180.0
  0
LINE
  5
5310
330
1A
100
AcDbEntity
  8
ZUWAKU
100
AcDbLine
 10
14.09221216833714
 20
19.92499986828868
 30
0.0
 11
14.09221216833714
 21
18.63479784293334
 31
0.0
  0
LINE
  5
5311
330
1A
100
AcDbEntity
  8
ZUWAKU
100
AcDbLine
 10
17.59221216833714
 20
20.44999986828868
 30
0.0
 11
14.61721216833711
 21
20.44999986828868
 31
0.0
  0
LINE
  5
5312
330
1A
100
AcDbEntity
  8
ZUWAKU
100
AcDbLine
 10
11.29221216833718
 20
20.44999986828868
 30
0.0
 11
11.29221216833718
 21
18.63479784293334
 31
0.0
  0
ARC
  5
5313
330
1A
100
AcDbEntity
  8
ZUWAKU
100
AcDbCircle
 10
14.09221216833714
 20
20.44999986828868
 30
0.0
 40
2.799999999999999
100
AcDbArc
 50
90.0
 51
180.0
  0
LINE
  5
5314
330
1A
100
AcDbEntity
  8
ZUWAKU
100
AcDbLine
 10
18.11721216833712
 20
22.72499986828868
 30
0.0
 11
18.11721216833712
 21
20.97499986828868
 31
0.0
  0
ARC
  5
5315
330
1A
100
AcDbEntity
  8
ZUWAKU
100
AcDbCircle
 10
24.94221216833716
 20
19.04999986828868
 30
0.0
 40
1.399999999999999
100
AcDbArc
 50
90.0
 51
180.0
  0
ARC
  5
5316
330
1A
100
AcDbEntity
  8
ZUWAKU
100
AcDbCircle
 10
24.94221216833716
 20
19.04999986828864
 30
0.0
 40
4.199999999999999
100
AcDbArc
 50
90.0
 51
180.0
  0
LINE
  5
5317
330
1A
100
AcDbEntity
  8
ZUWAKU
100
AcDbLine
 10
79.32662956154422
 20
29.99999986828868
 30
0.0
 11
79.32662956154445
 21
0.7999998682887508
 31
0.0
  0
LINE
  5
5318
330
1A
100
AcDbEntity
  8
ZUWAKU
100
AcDbLine
 10
79.52662956154426
 20
29.99999986828868
 30
0.0
 11
79.52662956154449
 21
0.7999998682887508
 31
0.0
  0
LINE
  5
5319
330
1A
100
AcDbEntity
  8
ZUWAKU
100
AcDbLine
 10
79.12662956154441
 20
29.99999986828868
 30
0.0
 11
79.12662956154441
 21
0.7999998682887508
 31
0.0
  0
LINE
  5
531A
330
1A
100
AcDbEntity
  8
ZUWAKU
100
AcDbLine
 10
64.14221216833721
 20
9.949999868288685
 30
0.0
 11
64.14221216833721
 21
22.72499986828868
 31
0.0
  0
LINE
  5
531B
330
1A
100
AcDbEntity
  8
ZUWAKU
100
AcDbLine
 10
61.34221216833714
 20
22.72499986828868
 30
0.0
 11
61.34221216833714
 21
10.99999986828868
 31
0.0
  0
LINE
  5
531C
330
1A
100
AcDbEntity
  8
ZUWAKU
100
AcDbLine
 10
69.04221216833718
 20
7.674999868288686
 30
0.0
 11
69.04221216833718
 21
22.72499986828868
 31
0.0
  0
LINE
  5
531D
330
1A
100
AcDbEntity
  8
ZUWAKU
100
AcDbLine
 10
66.24221216833712
 20
22.72499986828868
 30
0.0
 11
66.24221216833712
 21
7.674999868288686
 31
0.0
  0
ARC
  5
531E
330
1A
100
AcDbEntity
  8
ZUWAKU
100
AcDbCircle
 10
49.79221216833718
 20
18.63479784293338
 30
0.0
 40
1.399999999999999
100
AcDbArc
 50
180.0000000000016
 51
224.9999999999988
  0
ARC
  5
531F
330
1A
100
AcDbEntity
  8
ZUWAKU
100
AcDbCircle
 10
49.79221216833718
 20
18.63479784293338
 30
0.0
 40
4.199999999999999
100
AcDbArc
 50
180.0
 51
225.0
  0
LINE
  5
5320
330
1A
100
AcDbEntity
  8
ZUWAKU
100
AcDbLine
 10
37.31485865051513
 20
19.20504706185211
 30
0.0
 11
36.05010690517929
 21
15.1999998682887
 31
0.0
  0
LINE
  5
5321
330
1A
100
AcDbEntity
  8
ZUWAKU
100
AcDbLine
 10
40.69221216833716
 20
22.72499986828868
 30
0.0
 11
40.69221216833716
 21
7.674999868288686
 31
0.0
  0
LINE
  5
5322
330
1A
100
AcDbEntity
  8
ZUWAKU
100
AcDbLine
 10
43.49221216833711
 20
7.674999868288686
 30
0.0
 11
43.49221216833711
 21
22.72499986828868
 31
0.0
  0
LINE
  5
5323
330
1A
100
AcDbEntity
  8
ZUWAKU
100
AcDbLine
 10
55.04221216833719
 20
22.72499986828868
 30
0.0
 11
55.04221216833719
 21
9.949999868288685
 31
0.0
  0
LINE
  5
5324
330
1A
100
AcDbEntity
  8
ZUWAKU
100
AcDbLine
 10
57.84221216833714
 20
10.99999986828868
 30
0.0
 11
57.84221216833714
 21
22.72499986828868
 31
0.0
  0
LINE
  5
5325
330
1A
100
AcDbEntity
  8
ZUWAKU
100
AcDbLine
 10
32.64221216833721
 20
17.12499986828869
 30
0.0
 11
32.64221216833721
 21
22.72499986828868
 31
0.0
  0
LINE
  5
5326
330
1A
100
AcDbEntity
  8
ZUWAKU
100
AcDbLine
 10
29.84221216833714
 20
22.72499986828868
 30
0.0
 11
29.84221216833714
 21
7.674999868288686
 31
0.0
  0
LINE
  5
5327
330
1A
100
AcDbEntity
  8
ZUWAKU
100
AcDbLine
 10
35.676347105653
 20
22.88309383645565
 30
0.0
 11
33.80807723102122
 21
16.96690590012171
 31
0.0
  0
LINE
  5
5328
330
1A
100
AcDbEntity
  8
ZUWAKU
100
AcDbLine
 10
60.29221216833718
 20
9.949999868288685
 30
0.0
 11
58.89221216833721
 21
9.949999868288685
 31
0.0
  0
LINE
  5
5329
330
1A
100
AcDbEntity
  8
ZUWAKU
100
AcDbLine
 10
57.84221216833714
 20
7.149999868288688
 30
0.0
 11
61.34221216833714
 21
7.149999868288688
 31
0.0
  0
LINE
  5
532A
330
1A
100
AcDbEntity
  8
ZUWAKU
100
AcDbLine
 10
41.21721216833714
 20
7.149999868288688
 30
0.0
 11
42.96721216833714
 21
7.149999868288688
 31
0.0
  0
LINE
  5
532B
330
1A
100
AcDbEntity
  8
ZUWAKU
100
AcDbLine
 10
35.676347105653
 20
7.516905900121713
 30
0.0
 11
33.80807723102122
 21
13.43309383645565
 31
0.0
  0
ARC
  5
532C
330
1A
100
AcDbEntity
  8
ZUWAKU
100
AcDbCircle
 10
33.30744633182587
 20
17.12499986828869
 30
0.0
 40
0.525
100
AcDbArc
 50
270.0
 51
342.4744316262769
  0
LINE
  5
532D
330
1A
100
AcDbEntity
  8
ZUWAKU
100
AcDbLine
 10
33.30744633182587
 20
16.59999986828868
 30
0.0
 11
33.16721216833718
 21
16.59999986828868
 31
0.0
  0
LINE
  5
532E
330
1A
100
AcDbEntity
  8
ZUWAKU
100
AcDbLine
 10
33.16721216833718
 20
13.79999986828868
 30
0.0
 11
33.30744633182587
 21
13.79999986828868
 31
0.0
  0
ARC
  5
532F
330
1A
100
AcDbEntity
  8
ZUWAKU
100
AcDbCircle
 10
33.16721216833718
 20
17.12499986828869
 30
0.0
 40
0.525
100
AcDbArc
 50
180.0
 51
270.0
  0
LINE
  5
5330
330
1A
100
AcDbEntity
  8
ZUWAKU
100
AcDbLine
 10
30.36721216833711
 20
7.149999868288688
 30
0.0
 11
32.11721216833712
 21
7.149999868288688
 31
0.0
  0
ARC
  5
5331
330
1A
100
AcDbEntity
  8
ZUWAKU
100
AcDbCircle
 10
32.11721216833712
 20
7.674999868288686
 30
0.0
 40
0.525
100
AcDbArc
 50
270.0
 51
0.0
  0
LINE
  5
5332
330
1A
100
AcDbEntity
  8
ZUWAKU
100
AcDbLine
 10
32.64221216833721
 20
7.674999868288686
 30
0.0
 11
32.64221216833721
 21
13.27499986828868
 31
0.0
  0
LINE
  5
5333
330
1A
100
AcDbEntity
  8
ZUWAKU
100
AcDbLine
 10
27.39221216833721
 20
9.424999868288686
 30
0.0
 11
27.39221216833721
 21
7.674999868288686
 31
0.0
  0
ARC
  5
5334
330
1A
100
AcDbEntity
  8
ZUWAKU
100
AcDbCircle
 10
26.86721216833712
 20
7.674999868288686
 30
0.0
 40
0.525
100
AcDbArc
 50
270.0
 51
0.0
  0
ARC
  5
5335
330
1A
100
AcDbEntity
  8
ZUWAKU
100
AcDbCircle
 10
26.86721216833712
 20
9.424999868288686
 30
0.0
 40
0.525
100
AcDbArc
 50
0.0
 51
90.0
  0
ARC
  5
5336
330
1A
100
AcDbEntity
  8
ZUWAKU
100
AcDbCircle
 10
30.36721216833711
 20
7.674999868288686
 30
0.0
 40
0.525
100
AcDbArc
 50
180.0
 51
270.0
  0
ARC
  5
5337
330
1A
100
AcDbEntity
  8
ZUWAKU
100
AcDbCircle
 10
33.30744633182587
 20
13.27499986828868
 30
0.0
 40
0.525
100
AcDbArc
 50
17.52556837372303
 51
90.0
  0
ARC
  5
5338
330
1A
100
AcDbEntity
  8
ZUWAKU
100
AcDbCircle
 10
33.16721216833718
 20
13.27499986828868
 30
0.0
 40
0.525
100
AcDbArc
 50
90.0
 51
180.0
  0
ARC
  5
5339
330
1A
100
AcDbEntity
  8
ZUWAKU
100
AcDbCircle
 10
41.21721216833714
 20
7.674999868288686
 30
0.0
 40
0.525
100
AcDbArc
 50
180.0
 51
270.0
  0
LINE
  5
533A
330
1A
100
AcDbEntity
  8
ZUWAKU
100
AcDbLine
 10
36.17697800484847
 20
7.149999868288688
 30
0.0
 11
37.87586738445748
 21
7.149999868288688
 31
0.0
  0
ARC
  5
533B
330
1A
100
AcDbEntity
  8
ZUWAKU
100
AcDbCircle
 10
37.87586738445748
 20
7.674999868288686
 30
0.0
 40
0.525
100
AcDbArc
 50
270.0
 51
17.52556837372303
  0
LINE
  5
533C
330
1A
100
AcDbEntity
  8
ZUWAKU
100
AcDbLine
 10
38.37649828365295
 20
7.83309383645566
 30
0.0
 11
36.05010690517929
 21
15.1999998682887
 31
0.0
  0
ARC
  5
533D
330
1A
100
AcDbEntity
  8
ZUWAKU
100
AcDbCircle
 10
36.17697800484847
 20
7.674999868288686
 30
0.0
 40
0.525
100
AcDbArc
 50
197.525568373723
 51
270.0
  0
ARC
  5
533E
330
1A
100
AcDbEntity
  8
ZUWAKU
100
AcDbCircle
 10
57.84221216833714
 20
9.949999868288685
 30
0.0
 40
2.799999999999999
100
AcDbArc
 50
180.0
 51
270.0
  0
ARC
  5
533F
330
1A
100
AcDbEntity
  8
ZUWAKU
100
AcDbCircle
 10
50.14221216833721
 20
9.949999868288685
 30
0.0
 40
2.799999999999999
100
AcDbArc
 50
270.0
 51
0.0
  0
LINE
  5
5340
330
1A
100
AcDbEntity
  8
ZUWAKU
100
AcDbLine
 10
51.71206064932073
 20
14.73505037462751
 30
0.0
 11
48.80226267467595
 21
17.64484834927218
 31
0.0
  0
LINE
  5
5341
330
1A
100
AcDbEntity
  8
ZUWAKU
100
AcDbLine
 10
50.14221216833721
 20
10.47499986828869
 30
0.0
 11
50.14221216833721
 21
11.76520189364403
 31
0.0
  0
ARC
  5
5342
330
1A
100
AcDbEntity
  8
ZUWAKU
100
AcDbCircle
 10
48.74221216833712
 20
11.76520189364403
 30
0.0
 40
1.399999999999999
100
AcDbArc
 50
0.0
 51
45.0
  0
ARC
  5
5343
330
1A
100
AcDbEntity
  8
ZUWAKU
100
AcDbCircle
 10
49.61721216833712
 20
10.47499986828869
 30
0.0
 40
0.525
100
AcDbArc
 50
270.0
 51
0.0
  0
LINE
  5
5344
330
1A
100
AcDbEntity
  8
ZUWAKU
100
AcDbLine
 10
46.11721216833712
 20
7.674999868288686
 30
0.0
 11
46.11721216833712
 21
9.424999868288686
 31
0.0
  0
ARC
  5
5345
330
1A
100
AcDbEntity
  8
ZUWAKU
100
AcDbCircle
 10
46.64221216833721
 20
7.674999868288686
 30
0.0
 40
0.525
100
AcDbArc
 50
180.0
 51
270.0
  0
ARC
  5
5346
330
1A
100
AcDbEntity
  8
ZUWAKU
100
AcDbCircle
 10
42.96721216833714
 20
7.674999868288686
 30
0.0
 40
0.525
100
AcDbArc
 50
270.0
 51
0.0
  0
ARC
  5
5347
330
1A
100
AcDbEntity
  8
ZUWAKU
100
AcDbCircle
 10
46.64221216833721
 20
9.424999868288686
 30
0.0
 40
0.525
100
AcDbArc
 50
90.0
 51
180.0
  0
LINE
  5
5348
330
1A
100
AcDbEntity
  8
ZUWAKU
100
AcDbLine
 10
46.64221216833721
 20
9.949999868288685
 30
0.0
 11
49.61721216833712
 21
9.949999868288685
 31
0.0
  0
LINE
  5
5349
330
1A
100
AcDbEntity
  8
ZUWAKU
100
AcDbLine
 10
46.64221216833721
 20
7.149999868288688
 30
0.0
 11
50.14221216833721
 21
7.149999868288688
 31
0.0
  0
LINE
  5
534A
330
1A
100
AcDbEntity
  8
ZUWAKU
100
AcDbLine
 10
46.82236368735368
 20
15.66494936194986
 30
0.0
 11
49.73216166199836
 21
12.7551513873052
 31
0.0
  0
LINE
  5
534B
330
1A
100
AcDbEntity
  8
ZUWAKU
100
AcDbLine
 10
52.94221216833716
 20
9.949999868288685
 30
0.0
 11
52.94221216833716
 21
11.76520189364403
 31
0.0
  0
ARC
  5
534C
330
1A
100
AcDbEntity
  8
ZUWAKU
100
AcDbCircle
 10
48.74221216833712
 20
11.76520189364399
 30
0.0
 40
4.199999999999999
100
AcDbArc
 50
0.0
 51
45.0
  0
ARC
  5
534D
330
1A
100
AcDbEntity
  8
ZUWAKU
100
AcDbCircle
 10
58.89221216833721
 20
10.99999986828868
 30
0.0
 40
1.049999999999999
100
AcDbArc
 50
180.0
 51
270.0
  0
ARC
  5
534E
330
1A
100
AcDbEntity
  8
ZUWAKU
100
AcDbCircle
 10
61.34221216833714
 20
9.949999868288685
 30
0.0
 40
2.799999999999999
100
AcDbArc
 50
270.0
 51
0.0
  0
LINE
  5
534F
330
1A
100
AcDbEntity
  8
ZUWAKU
100
AcDbLine
 10
66.76721216833721
 20
7.149999868288688
 30
0.0
 11
68.51721216833721
 21
7.149999868288688
 31
0.0
  0
ARC
  5
5350
330
1A
100
AcDbEntity
  8
ZUWAKU
100
AcDbCircle
 10
66.76721216833721
 20
7.674999868288686
 30
0.0
 40
0.525
100
AcDbArc
 50
180.0
 51
270.0
  0
ARC
  5
5351
330
1A
100
AcDbEntity
  8
ZUWAKU
100
AcDbCircle
 10
60.29221216833718
 20
10.99999986828868
 30
0.0
 40
1.049999999999999
100
AcDbArc
 50
270.0
 51
0.0
  0
ARC
  5
5352
330
1A
100
AcDbEntity
  8
ZUWAKU
100
AcDbCircle
 10
68.51721216833721
 20
7.674999868288686
 30
0.0
 40
0.525
100
AcDbArc
 50
270.0
 51
0.0
  0
LINE
  5
5353
330
1A
100
AcDbEntity
  8
ZUWAKU
100
AcDbLine
 10
42.96721216833714
 20
23.24999986828868
 30
0.0
 11
41.21721216833714
 21
23.24999986828868
 31
0.0
  0
ARC
  5
5354
330
1A
100
AcDbEntity
  8
ZUWAKU
100
AcDbCircle
 10
32.11721216833712
 20
22.72499986828868
 30
0.0
 40
0.525
100
AcDbArc
 50
0.0
 51
90.0
  0
LINE
  5
5355
330
1A
100
AcDbEntity
  8
ZUWAKU
100
AcDbLine
 10
32.11721216833712
 20
23.24999986828868
 30
0.0
 11
30.36721216833711
 21
23.24999986828868
 31
0.0
  0
ARC
  5
5356
330
1A
100
AcDbEntity
  8
ZUWAKU
100
AcDbCircle
 10
26.86721216833712
 20
22.72499986828868
 30
0.0
 40
0.525
100
AcDbArc
 50
0.0
 51
90.0
  0
ARC
  5
5357
330
1A
100
AcDbEntity
  8
ZUWAKU
100
AcDbCircle
 10
30.36721216833711
 20
22.72499986828868
 30
0.0
 40
0.525
100
AcDbArc
 50
90.0
 51
180.0
  0
ARC
  5
5358
330
1A
100
AcDbEntity
  8
ZUWAKU
100
AcDbCircle
 10
26.86721216833712
 20
20.97499986828868
 30
0.0
 40
0.525
100
AcDbArc
 50
270.0
 51
0.0
  0
LINE
  5
5359
330
1A
100
AcDbEntity
  8
ZUWAKU
100
AcDbLine
 10
27.39221216833721
 20
22.72499986828868
 30
0.0
 11
27.39221216833721
 21
20.97499986828868
 31
0.0
  0
ARC
  5
535A
330
1A
100
AcDbEntity
  8
ZUWAKU
100
AcDbCircle
 10
41.21721216833714
 20
22.72499986828868
 30
0.0
 40
0.525
100
AcDbArc
 50
90.0
 51
180.0
  0
LINE
  5
535B
330
1A
100
AcDbEntity
  8
ZUWAKU
100
AcDbLine
 10
36.17697800484847
 20
23.24999986828868
 30
0.0
 11
37.87586738445748
 21
23.24999986828868
 31
0.0
  0
ARC
  5
535C
330
1A
100
AcDbEntity
  8
ZUWAKU
100
AcDbCircle
 10
37.87586738445748
 20
22.72499986828868
 30
0.0
 40
0.525
100
AcDbArc
 50
342.4744316262769
 51
90.0
  0
LINE
  5
535D
330
1A
100
AcDbEntity
  8
ZUWAKU
100
AcDbLine
 10
38.37649828365295
 20
22.56690590012171
 30
0.0
 11
37.31485865051513
 21
19.20504706185211
 31
0.0
  0
ARC
  5
535E
330
1A
100
AcDbEntity
  8
ZUWAKU
100
AcDbCircle
 10
36.17697800484847
 20
22.72499986828868
 30
0.0
 40
0.525
100
AcDbArc
 50
90.0
 51
162.4744316262769
  0
LINE
  5
535F
330
1A
100
AcDbEntity
  8
ZUWAKU
100
AcDbLine
 10
48.3922121683372
 20
23.24999986828868
 30
0.0
 11
51.89221216833721
 21
23.24999986828868
 31
0.0
  0
LINE
  5
5360
330
1A
100
AcDbEntity
  8
ZUWAKU
100
AcDbLine
 10
51.89221216833721
 20
20.44999986828868
 30
0.0
 11
48.91721216833719
 21
20.44999986828868
 31
0.0
  0
ARC
  5
5361
330
1A
100
AcDbEntity
  8
ZUWAKU
100
AcDbCircle
 10
48.91721216833719
 20
19.92499986828868
 30
0.0
 40
0.525
100
AcDbArc
 50
90.0
 51
180.0
  0
LINE
  5
5362
330
1A
100
AcDbEntity
  8
ZUWAKU
100
AcDbLine
 10
48.3922121683372
 20
19.92499986828868
 30
0.0
 11
48.3922121683372
 21
18.63479784293334
 31
0.0
  0
ARC
  5
5363
330
1A
100
AcDbEntity
  8
ZUWAKU
100
AcDbCircle
 10
42.96721216833714
 20
22.72499986828868
 30
0.0
 40
0.525
100
AcDbArc
 50
0.0
 51
90.0
  0
LINE
  5
5364
330
1A
100
AcDbEntity
  8
ZUWAKU
100
AcDbLine
 10
45.59221216833714
 20
20.44999986828868
 30
0.0
 11
45.59221216833714
 21
18.63479784293334
 31
0.0
  0
ARC
  5
5365
330
1A
100
AcDbEntity
  8
ZUWAKU
100
AcDbCircle
 10
48.3922121683372
 20
20.44999986828868
 30
0.0
 40
2.799999999999999
100
AcDbArc
 50
90.0
 51
180.0
  0
ARC
  5
5366
330
1A
100
AcDbEntity
  8
ZUWAKU
100
AcDbCircle
 10
57.31721216833716
 20
22.72499986828868
 30
0.0
 40
0.525
100
AcDbArc
 50
0.0
 51
90.0
  0
ARC
  5
5367
330
1A
100
AcDbEntity
  8
ZUWAKU
100
AcDbCircle
 10
55.56721216833716
 20
22.72499986828868
 30
0.0
 40
0.525
100
AcDbArc
 50
90.0
 51
180.0
  0
LINE
  5
5368
330
1A
100
AcDbEntity
  8
ZUWAKU
100
AcDbLine
 10
57.31721216833716
 20
23.24999986828868
 30
0.0
 11
55.56721216833716
 21
23.24999986828868
 31
0.0
  0
ARC
  5
5369
330
1A
100
AcDbEntity
  8
ZUWAKU
100
AcDbCircle
 10
51.89221216833721
 20
22.72499986828868
 30
0.0
 40
0.525
100
AcDbArc
 50
0.0
 51
90.0
  0
ARC
  5
536A
330
1A
100
AcDbEntity
  8
ZUWAKU
100
AcDbCircle
 10
51.89221216833721
 20
20.97499986828868
 30
0.0
 40
0.525
100
AcDbArc
 50
270.0
 51
0.0
  0
LINE
  5
536B
330
1A
100
AcDbEntity
  8
ZUWAKU
100
AcDbLine
 10
52.41721216833719
 20
22.72499986828868
 30
0.0
 11
52.41721216833719
 21
20.97499986828868
 31
0.0
  0
LINE
  5
536C
330
1A
100
AcDbEntity
  8
ZUWAKU
100
AcDbLine
 10
68.51721216833721
 20
23.24999986828868
 30
0.0
 11
66.76721216833721
 21
23.24999986828868
 31
0.0
  0
ARC
  5
536D
330
1A
100
AcDbEntity
  8
ZUWAKU
100
AcDbCircle
 10
66.76721216833721
 20
22.72499986828868
 30
0.0
 40
0.525
100
AcDbArc
 50
90.0
 51
180.0
  0
ARC
  5
536E
330
1A
100
AcDbEntity
  8
ZUWAKU
100
AcDbCircle
 10
63.61721216833712
 20
22.72499986828868
 30
0.0
 40
0.525
100
AcDbArc
 50
0.0
 51
90.0
  0
LINE
  5
536F
330
1A
100
AcDbEntity
  8
ZUWAKU
100
AcDbLine
 10
63.61721216833712
 20
23.24999986828868
 30
0.0
 11
61.86721216833712
 21
23.24999986828868
 31
0.0
  0
ARC
  5
5370
330
1A
100
AcDbEntity
  8
ZUWAKU
100
AcDbCircle
 10
61.86721216833712
 20
22.72499986828868
 30
0.0
 40
0.525
100
AcDbArc
 50
90.0
 51
180.0
  0
ARC
  5
5371
330
1A
100
AcDbEntity
  8
ZUWAKU
100
AcDbCircle
 10
68.51721216833721
 20
22.72499986828868
 30
0.0
 40
0.525
100
AcDbArc
 50
0.0
 51
90.0
  0
TEXT
  5
5372
330
1A
100
AcDbEntity
  8
MOJI
100
AcDbText
 10
239.827202694407
 20
18.00492092569607
 30
0.0
 40
5.599999999999999
  1
止りⅡ（左）
 41
0.9
  7
ｽﾀｲﾙ1
100
AcDbText
  0
TEXT
  5
5373
330
1A
100
AcDbEntity
  8
MOJI
100
AcDbText
 10
239.827202694407
 20
3.204920925696104
 30
0.0
 40
5.599999999999999
  1
ＶＭ１６０
 41
0.9
  7
ｽﾀｲﾙ1
100
AcDbText
  0
LINE
  5
5374
330
1A
100
AcDbEntity
  8
ZUWAKU
100
AcDbLine
 10
208.2466013036239
 20
29.99999986828868
 30
0.0
 11
208.2466013036239
 21
0.7999998682887508
 31
0.0
  0
LINE
  5
5375
330
1A
100
AcDbEntity
  8
ZUWAKU
100
AcDbLine
 10
208.6466013036238
 20
29.99999986828868
 30
0.0
 11
208.646601303624
 21
0.7999998682887508
 31
0.0
  0
LINE
  5
5376
330
1A
100
AcDbEntity
  8
ZUWAKU
100
AcDbLine
 10
208.4466013036237
 20
29.99999986828868
 30
0.0
 11
208.446601303624
 21
0.7999998682887508
 31
0.0
  0
TEXT
  5
5377
330
1A
100
AcDbEntity
  8
ZUWAKU
100
AcDbText
 10
209.7240463258335
 20
9.6553564066743
 30
0.0
 40
4.0
  1
サイズ
 41
0.9
  7
ｽﾀｲﾙ1
100
AcDbText
  0
TEXT
  5
5378
330
1A
100
AcDbEntity
  8
ZUWAKU
100
AcDbText
 10
209.7240463258333
 20
24.05535640667426
 30
0.0
 40
4.0
  1
品名
 41
0.9
  7
ｽﾀｲﾙ1
100
AcDbText
  0
LINE
  5
5379
330
1A
100
AcDbEntity
  8
ZUWAKU
100
AcDbLine
 10
648.8172025237602
 20
15.19999986828871
 30
0.0
 11
697.2490105620972
 21
15.19999986828871
 31
0.0
  0
LINE
  5
537A
330
1A
100
AcDbEntity
  8
ZUWAKU
100
AcDbLine
 10
648.8172025237604
 20
15.39999986828872
 30
0.0
 11
697.2490105620972
 21
15.39999986828871
 31
0.0
  0
LINE
  5
537B
330
1A
100
AcDbEntity
  8
ZUWAKU
100
AcDbLine
 10
648.8172025237602
 20
15.59999986828871
 30
0.0
 11
697.2490105620972
 21
15.59999986828871
 31
0.0
  0
TEXT
  5
537C
330
1A
100
AcDbEntity
  8
ZUWAKU
100
AcDbText
 10
658.2039377008584
 20
18.00492092569607
 30
0.0
 40
5.599999999999999
  1
　　．　　．　　
 41
0.9
  7
ｽﾀｲﾙ1
100
AcDbText
  0
LINE
  5
537D
330
1A
100
AcDbEntity
  8
ZUWAKU
100
AcDbLine
 10
505.1991795116968
 20
15.19999986828872
 30
0.0
 11
552.5269557796685
 21
15.19999986828872
 31
0.0
  0
LINE
  5
537E
330
1A
100
AcDbEntity
  8
ZUWAKU
100
AcDbLine
 10
505.1991795116968
 20
15.39999986828871
 30
0.0
 11
552.5269557796685
 21
15.39999986828871
 31
0.0
  0
LINE
  5
537F
330
1A
100
AcDbEntity
  8
ZUWAKU
100
AcDbLine
 10
505.1991795116968
 20
15.59999986828871
 30
0.0
 11
552.5269557796685
 21
15.59999986828871
 31
0.0
  0
TEXT
  5
5380
330
1A
100
AcDbEntity
  8
MOJI
100
AcDbText
 10
463.246432004558
 20
11.94261758994866
 30
0.0
 40
5.599999999999999
  1
ＰＧ２９□
 41
0.9
  7
ｽﾀｲﾙ1
100
AcDbText
  0
LINE
  5
5381
330
1A
100
AcDbEntity
  8
ZUWAKU
100
AcDbLine
 10
447.6243639845472
 20
29.99999986828868
 30
0.0
 11
447.6243639845474
 21
0.7999998682887508
 31
0.0
  0
LINE
  5
5382
330
1A
100
AcDbEntity
  8
ZUWAKU
100
AcDbLine
 10
447.8243639845472
 20
29.99999986828868
 30
0.0
 11
447.8243639845475
 21
0.7999998682887508
 31
0.0
  0
LINE
  5
5383
330
1A
100
AcDbEntity
  8
ZUWAKU
100
AcDbLine
 10
447.4243639845474
 20
29.99999986828868
 30
0.0
 11
447.4243639845474
 21
0.7999998682887508
 31
0.0
  0
TEXT
  5
5384
330
1A
100
AcDbEntity
  8
MOJI
100
AcDbText
 10
528.0409079858689
 20
18.00492092569607
 30
0.0
 40
5.599999999999999
  1
Ａ３
 41
0.9
  7
ｽﾀｲﾙ1
100
AcDbText
  0
LINE
  5
5385
330
1A
100
AcDbEntity
  8
ZUWAKU
100
AcDbLine
 10
504.9991795116969
 20
29.99999986828868
 30
0.0
 11
504.999179511697
 21
0.7999998682887508
 31
0.0
  0
LINE
  5
5386
330
1A
100
AcDbEntity
  8
ZUWAKU
100
AcDbLine
 10
505.1991795116968
 20
29.99999986828868
 30
0.0
 11
505.1991795116971
 21
0.7999998682887508
 31
0.0
  0
LINE
  5
5387
330
1A
100
AcDbEntity
  8
ZUWAKU
100
AcDbLine
 10
504.799179511697
 20
29.99999986828868
 30
0.0
 11
504.799179511697
 21
0.7999998682887508
 31
0.0
  0
TEXT
  5
5388
330
1A
100
AcDbEntity
  8
ZUWAKU
100
AcDbText
 10
461.8574426386929
 20
2.614070779428175
 30
0.0
 40
3.0
  1
□には色品番が入ります
 41
0.9
  7
ｽﾀｲﾙ1
100
AcDbText
  0
TEXT
  5
5389
330
1A
100
AcDbEntity
  8
ZUWAKU
100
AcDbText
 10
506.6766245339067
 20
9.6553564066743
 30
0.0
 40
4.0
  1
縮尺
 41
0.9
  7
ｽﾀｲﾙ1
100
AcDbText
  0
TEXT
  5
538A
330
1A
100
AcDbEntity
  8
MOJI
100
AcDbText
 10
528.0409079858689
 20
3.204920925696104
 30
0.0
 40
5.599999999999999
  1
１/２
 41
0.9
  7
ｽﾀｲﾙ1
100
AcDbText
  0
TEXT
  5
538B
330
1A
100
AcDbEntity
  8
ZUWAKU
100
AcDbText
 10
449.3018090067569
 20
24.05535640667426
 30
0.0
 40
4.0
  1
品番
 41
0.9
  7
ｽﾀｲﾙ1
100
AcDbText
  0
TEXT
  5
538C
330
1A
100
AcDbEntity
  8
ZUWAKU
100
AcDbText
 10
506.6766245339065
 20
24.05535640667426
 30
0.0
 40
4.0
  1
用紙
 41
0.9
  7
ｽﾀｲﾙ1
100
AcDbText
  0
LINE
  5
538D
330
1A
100
AcDbEntity
  8
ZUWAKU
100
AcDbLine
 10
648.6172025237603
 20
29.99999986828868
 30
0.0
 11
648.6172025237606
 21
0.7999998682887508
 31
0.0
  0
LINE
  5
538E
330
1A
100
AcDbEntity
  8
ZUWAKU
100
AcDbLine
 10
648.8172025237604
 20
29.99999986828868
 30
0.0
 11
648.8172025237607
 21
0.7999998682887508
 31
0.0
  0
LINE
  5
538F
330
1A
100
AcDbEntity
  8
ZUWAKU
100
AcDbLine
 10
648.4172025237605
 20
29.99999986828868
 30
0.0
 11
648.4172025237605
 21
0.7999998682887508
 31
0.0
  0
LINE
  5
5390
330
1A
100
AcDbEntity
  8
ZUWAKU
100
AcDbLine
 10
552.7269557796683
 20
29.99999986828868
 30
0.0
 11
552.7269557796684
 21
0.7999998682887508
 31
0.0
  0
LINE
  5
5391
330
1A
100
AcDbEntity
  8
ZUWAKU
100
AcDbLine
 10
552.9269557796683
 20
29.99999986828868
 30
0.0
 11
552.9269557796685
 21
0.7999998682887508
 31
0.0
  0
LINE
  5
5392
330
1A
100
AcDbEntity
  8
ZUWAKU
100
AcDbLine
 10
552.5269557796685
 20
29.99999986828868
 30
0.0
 11
552.5269557796685
 21
0.7999998682887508
 31
0.0
  0
TEXT
  5
5393
330
1A
100
AcDbEntity
  8
ZUWAKU
100
AcDbText
 10
650.29464754597
 20
24.05535640667426
 30
0.0
 40
4.0
  1
DATE
 41
0.9
  7
ｽﾀｲﾙ1
100
AcDbText
  0
LINE
  5
5394
330
1A
100
AcDbEntity
  8
ZUWAKU
100
AcDbLine
 10
697.2490105620972
 20
29.99999986828868
 30
0.0
 11
697.2490105620972
 21
0.7999998682887508
 31
0.0
  0
LINE
  5
5395
330
1A
100
AcDbEntity
  8
ZUWAKU
100
AcDbLine
 10
697.4490105620973
 20
29.99999986828868
 30
0.0
 11
697.4490105620973
 21
0.7999998682887508
 31
0.0
  0
LINE
  5
5396
330
1A
100
AcDbEntity
  8
ZUWAKU
100
AcDbLine
 10
697.6490105620971
 20
29.99999986828868
 30
0.0
 11
697.6490105620974
 21
0.7999998682887508
 31
0.0
  0
LINE
  5
5397
330
1A
100
AcDbEntity
  8
ZUWAKU
100
AcDbLine
 10
697.8490105620972
 20
29.99999986828868
 30
0.0
 11
697.8490105620974
 21
0.7999998682887508
 31
0.0
  0
TEXT
  5
5398
330
1A
100
AcDbEntity
  8
ZUWAKU
100
AcDbText
 10
708.5280842057998
 20
17.55383920397548
 30
0.0
 40
6.0
  1
積水化学工業株式会社
 41
0.9
  7
ｽﾀｲﾙ1
100
AcDbText
  0
TEXT
  5
5399
330
1A
100
AcDbEntity
  8
ZUWAKU
100
AcDbText
 10
708.5280842057998
 20
6.648840182142748
 30
0.0
 40
6.0
  1
建材事業部
 41
0.9
  7
ｽﾀｲﾙ1
100
AcDbText
  0
ARC
  5
5619
330
1A
100
AcDbEntity
  8
NOKITOI
 48
0.5
100
AcDbCircle
 10
106.1974440190936
 20
284.6408039388279
 30
0.0
 40
7.000000000000143
100
AcDbArc
 50
210.8434146257343
 51
270.0
  0
ARC
  5
561A
330
1A
100
AcDbEntity
  8
NOKITOI
 48
0.5
100
AcDbCircle
 10
-236.0292200884666
 20
80.28114457862489
 30
0.0
 40
390.0000000000088
100
AcDbArc
 50
14.7970244987881
 51
31.68717393609351
  0
ARC
  5
561B
330
1A
100
AcDbEntity
  8
SEIHIN
  6
CONTINUOUS
100
AcDbCircle
 10
-235.8042982877891
 20
78.93128163789334
 30
0.0
 40
390.4899000308
100
AcDbArc
 50
14.92805827289668
 51
31.79131166360238
  0
ARC
  5
561C
330
1A
100
AcDbEntity
  8
SEIHIN
  6
CONTINUOUS
100
AcDbCircle
 10
-235.8042982877891
 20
78.93128163789334
 30
0.0
 40
389.5
100
AcDbArc
 50
14.98528546820403
 51
31.7102843441995
  0
ARC
  5
561D
330
1A
100
AcDbEntity
  8
SEIHIN
  6
CONTINUOUS
100
AcDbCircle
 10
-235.8042982877891
 20
78.93128163789334
 30
0.0
 40
388.5481555856999
100
AcDbArc
 50
14.76492148149745
 51
31.63204988140297
  0
ARC
  5
561E
330
1A
100
AcDbEntity
  8
SEIHIN
  6
CONTINUOUS
100
AcDbCircle
 10
-235.8042982877891
 20
78.93128163789334
 30
0.0
 40
387.5000000000001
100
AcDbArc
 50
14.64583445300207
 51
31.54553136400714
  0
LINE
  5
561F
330
1A
100
AcDbEntity
  8
SEIHIN
100
AcDbLine
 10
304.2090138987337
 20
283.1619696687936
 30
0.0
 11
304.2090138987337
 21
264.6318459946936
 31
0.0
  0
LINE
  5
5620
330
1A
100
AcDbEntity
  8
SEIHIN
100
AcDbLine
 10
306.7090138987337
 20
281.6619696687936
 30
0.0
 11
306.7090138987337
 21
266.4388617357936
 31
0.0
  0
LINE
  5
5621
330
1A
100
AcDbEntity
  8
SEIHIN
100
AcDbLine
 10
276.7090138987337
 20
255.8619696687936
 30
0.0
 11
276.7090138987337
 21
283.6619696687936
 31
0.0
  0
LINE
  5
5622
330
1A
100
AcDbEntity
  8
SEIHIN
  6
CONTINUOUS
100
AcDbLine
 10
249.9432533841109
 20
306.0484848035935
 30
0.0
 11
249.9432533841109
 21
261.1238954642933
 31
0.0
  0
ARC
  5
5623
330
1A
100
AcDbEntity
  8
SEIHIN
  6
CONTINUOUS
100
AcDbCircle
 10
-235.8042982877891
 20
78.93128163789334
 30
0.0
 40
393.45
100
AcDbArc
 50
15.39453093629568
 51
22.30161847670199
  0
ARC
  5
5624
330
1A
100
AcDbEntity
  8
SEIHIN
  6
CONTINUOUS
100
AcDbCircle
 10
-235.8042982877891
 20
78.93128163789334
 30
0.0
 40
391.75
100
AcDbArc
 50
15.37300804669792
 51
22.68259209600198
  0
ARC
  5
5625
330
1A
100
AcDbEntity
  8
NOKITOI
 48
0.5
100
AcDbCircle
 10
-236.0292200884575
 20
80.28114457862761
 30
0.0
 40
391.6000000000002
100
AcDbArc
 50
15.08870500059425
 51
27.63121951273613
  0
LINE
  5
5626
330
1A
100
AcDbEntity
  8
SEIHIN
  6
CONTINUOUS
100
AcDbLine
 10
126.4206142299108
 20
231.6156084202933
 30
0.0
 11
126.7511915348109
 21
231.6619696687934
 31
0.0
  0
LINE
  5
5627
330
1A
100
AcDbEntity
  8
SEIHIN
  6
CONTINUOUS
100
AcDbLine
 10
126.0584373394108
 20
231.4419284972933
 30
0.0
 11
126.4206142299108
 21
231.6156084202933
 31
0.0
  0
LINE
  5
5628
330
1A
100
AcDbEntity
  8
SEIHIN
  6
CONTINUOUS
100
AcDbLine
 10
125.773957145011
 20
231.1580091501933
 30
0.0
 11
126.0584373394108
 21
231.4419284972933
 31
0.0
  0
LINE
  5
5629
330
1A
100
AcDbEntity
  8
SEIHIN
  6
CONTINUOUS
100
AcDbLine
 10
125.5992773402108
 20
230.7949448821933
 30
0.0
 11
125.773957145011
 21
231.1580091501933
 31
0.0
  0
LINE
  5
562A
330
1A
100
AcDbEntity
  8
SEIHIN
  6
CONTINUOUS
100
AcDbLine
 10
125.5548658145107
 20
230.3935602556933
 30
0.0
 11
125.5992773402108
 21
230.7949448821933
 31
0.0
  0
LINE
  5
562B
330
1A
100
AcDbEntity
  8
SEIHIN
  6
CONTINUOUS
100
AcDbLine
 10
125.6459134780107
 20
230.0001629948933
 30
0.0
 11
125.5548658145107
 21
230.3935602556933
 31
0.0
  0
LINE
  5
562C
330
1A
100
AcDbEntity
  8
SEIHIN
  6
CONTINUOUS
100
AcDbLine
 10
126.8696462747107
 20
231.4780365540933
 30
0.0
 11
126.984909792211
 21
231.2037118434933
 31
0.0
  0
LINE
  5
562D
330
1A
100
AcDbEntity
  8
SEIHIN
  6
CONTINUOUS
100
AcDbLine
 10
126.8153064250109
 20
231.6071630924933
 30
0.0
 11
126.8696462747107
 21
231.4780365540933
 31
0.0
  0
LINE
  5
562E
330
1A
100
AcDbEntity
  8
SEIHIN
  6
CONTINUOUS
100
AcDbLine
 10
127.5692700470108
 20
229.8039177772933
 30
0.0
 11
127.8206139341109
 21
229.1971317556933
 31
0.0
  0
LINE
  5
562F
330
1A
100
AcDbEntity
  8
SEIHIN
  6
CONTINUOUS
100
AcDbLine
 10
127.2705327877108
 20
230.5214183205933
 30
0.0
 11
127.5692700470108
 21
229.8039177772933
 31
0.0
  0
LINE
  5
5630
330
1A
100
AcDbEntity
  8
SEIHIN
  6
CONTINUOUS
100
AcDbLine
 10
127.0711639527107
 20
230.9980479075933
 30
0.0
 11
127.2705327877108
 21
230.5214183205933
 31
0.0
  0
LINE
  5
5631
330
1A
100
AcDbEntity
  8
SEIHIN
  6
CONTINUOUS
100
AcDbLine
 10
126.984909792211
 20
231.2037118434933
 30
0.0
 11
127.0711639527107
 21
230.9980479075933
 31
0.0
  0
LINE
  5
5632
330
1A
100
AcDbEntity
  8
SEIHIN
  6
CONTINUOUS
100
AcDbLine
 10
127.8206139341109
 20
229.1971317556933
 30
0.0
 11
127.9267269901108
 21
228.9400938799933
 31
0.0
  0
LINE
  5
5633
330
1A
100
AcDbEntity
  8
SEIHIN
  6
CONTINUOUS
100
AcDbLine
 10
126.7922260111108
 20
231.6619696687934
 30
0.0
 11
126.8153064250109
 21
231.6071630924933
 31
0.0
  0
LINE
  5
5634
330
1A
100
AcDbEntity
  8
SEIHIN
  6
CONTINUOUS
100
AcDbLine
 10
126.7922260111108
 20
231.6619696687934
 30
0.0
 11
126.7511915348109
 21
231.6619696687934
 31
0.0
  0
LINE
  5
5635
330
1A
100
AcDbEntity
  8
SEIHIN
  6
CONTINUOUS
100
AcDbLine
 10
126.7511915348109
 20
231.6619696687934
 30
0.0
 11
126.8153064250109
 21
231.6071630924933
 31
0.0
  0
LINE
  5
5636
330
1A
100
AcDbEntity
  8
SEIHIN
  6
CONTINUOUS
100
AcDbLine
 10
127.9267269901108
 20
228.9400938799933
 30
0.0
 11
128.2152479611109
 21
228.2385903964933
 31
0.0
  0
ARC
  5
5637
330
1A
100
AcDbEntity
  8
NOKITOI
 48
0.5
100
AcDbCircle
 10
-236.0292200884666
 20
80.28114457862489
 30
0.0
 40
391.6000000000092
100
AcDbArc
 50
28.28464033564721
 51
30.14414153245997
  0
ARC
  5
5638
330
1A
100
AcDbEntity
  8
NOKITOI
 48
0.5
100
AcDbCircle
 10
116.2248996668424
 20
264.6796128895616
 30
0.0
 40
7.499999999999871
100
AcDbArc
 50
137.0608680432694
 51
171.0867903269359
  0
ARC
  5
5639
330
1A
100
AcDbEntity
  8
NOKITOI
 48
0.5
100
AcDbCircle
 10
116.2248996668424
 20
264.6796128895616
 30
0.0
 40
5.999999999999833
100
AcDbArc
 50
137.0608680432694
 51
207.6312195127947
  0
LINE
  5
563A
330
1A
100
AcDbEntity
  8
NOKITOI
 48
0.5
100
AcDbLine
 10
106.1974440190936
 20
276.1408039388279
 30
0.0
 11
113.6723351087923
 21
276.140803938827
 31
0.0
  0
LINE
  5
563B
330
1A
100
AcDbEntity
  8
NOKITOI
 48
0.5
100
AcDbLine
 10
106.1974440190936
 20
277.6408039388279
 30
0.0
 11
113.6723351087925
 21
277.640803938827
 31
0.0
  0
ARC
  5
563C
330
1A
100
AcDbEntity
  8
NOKITOI
 48
0.5
100
AcDbCircle
 10
106.1974440190936
 20
284.6408039388279
 30
0.0
 40
8.499999999999944
100
AcDbArc
 50
245.0556485248553
 51
270.0
  0
LINE
  5
563D
330
1A
100
AcDbEntity
  8
NOKITOI
 48
0.5
100
AcDbLine
 10
116.6504748762315
 20
274.4601882199565
 30
0.0
 11
115.4088213930417
 21
276.6330818155402
 31
0.0
  0
ARC
  5
563E
330
1A
100
AcDbEntity
  8
NOKITOI
 48
0.5
100
AcDbCircle
 10
116.2163533051691
 20
274.2121187507782
 30
0.0
 40
0.4999999999999604
100
AcDbArc
 50
317.06086804327
 51
29.74488129696323
  0
ARC
  5
563F
330
1A
100
AcDbEntity
  8
NOKITOI
 48
0.5
100
AcDbCircle
 10
113.6723351087923
 20
275.640803938827
 30
0.0
 40
0.5000000000000898
100
AcDbArc
 50
29.74488129691798
 51
90.0
  0
ARC
  5
5640
330
1A
100
AcDbEntity
  8
NOKITOI
 48
0.5
100
AcDbCircle
 10
113.6723351087923
 20
275.640803938827
 30
0.0
 40
2.000000000000133
100
AcDbArc
 50
29.7448812969103
 51
90.0
  0
LINE
  5
5641
330
1A
100
AcDbEntity
  8
NOKITOI
 48
0.5
100
AcDbLine
 10
114.8735963739393
 20
274.5463789433556
 30
0.0
 11
114.1064566798547
 21
275.8888734080053
 31
0.0
  0
ARC
  5
5642
330
1A
100
AcDbEntity
  8
NOKITOI
 48
0.5
100
AcDbCircle
 10
114.6131234313018
 20
274.3975372618485
 30
0.0
 40
0.300000000000178
100
AcDbArc
 50
317.0608680432873
 51
29.74488129692566
  0
LINE
  5
5643
330
1A
100
AcDbEntity
  8
NOKITOI
 48
0.5
100
AcDbLine
 10
111.8324328175258
 20
268.7669390299196
 30
0.0
 11
116.582392209279
 21
273.8715082390817
 31
0.0
  0
LINE
  5
5644
330
1A
100
AcDbEntity
  8
NOKITOI
 48
0.5
100
AcDbLine
 10
110.7343161051969
 20
269.7887705650091
 30
0.0
 11
114.8327467737678
 21
274.1931709548305
 31
0.0
  0
ARC
  5
5645
330
1A
100
AcDbEntity
  8
NOKITOI
 48
0.5
100
AcDbCircle
 10
-746.519048204683
 20
348.8678911779545
 30
0.0
 40
998.3999999999999
100
AcDbArc
 50
349.9208000871285
 51
353.0740991196994
  0
ARC
  5
5646
330
1A
100
AcDbEntity
  8
NOKITOI
 48
0.5
100
AcDbCircle
 10
-746.519048204683
 20
348.8678911779545
 30
0.0
 40
999.9999999999998
100
AcDbArc
 50
349.9208000871285
 51
353.0775507891159
  0
ARC
  5
5647
330
1A
100
AcDbEntity
  8
SEIHIN
  6
CONTINUOUS
100
AcDbCircle
 10
-746.6415085980886
 20
347.9312764421933
 30
0.0
 40
1001.4518444143
100
AcDbArc
 50
350.0059142227997
 51
353.1531717423989
  0
ARC
  5
5648
330
1A
100
AcDbEntity
  8
SEIHIN
  6
CONTINUOUS
100
AcDbCircle
 10
-746.6415085980886
 20
347.9312764421933
 30
0.0
 40
1002.5
100
AcDbArc
 50
349.9569547217916
 51
353.155409790498
  0
ARC
  5
5649
330
1A
100
AcDbEntity
  8
SEIHIN
  6
CONTINUOUS
100
AcDbCircle
 10
-746.6415085980886
 20
347.9312764421933
 30
0.0
 40
1000.499999999999
100
AcDbArc
 50
349.9807992075961
 51
353.151136292598
  0
ARC
  5
564A
330
1A
100
AcDbEntity
  8
SEIHIN
  6
CONTINUOUS
100
AcDbCircle
 10
-746.6415085980886
 20
347.9312764421933
 30
0.0
 40
999.5100999692001
100
AcDbArc
 50
349.9572971551023
 51
353.1490163785969
  0
ARC
  5
564B
330
1A
100
AcDbEntity
  8
SEIHIN
  6
CONTINUOUS
100
AcDbCircle
 10
-746.6415085980886
 20
347.9312764421933
 30
0.0
 40
996.55
100
AcDbArc
 50
350.0160512158817
 51
353.1017189123017
  0
ARC
  5
564C
330
1A
100
AcDbEntity
  8
SEIHIN
  6
CONTINUOUS
100
AcDbCircle
 10
-746.6415085980886
 20
347.9312764421933
 30
0.0
 40
998.2500000000001
100
AcDbArc
 50
350.0855549595957
 51
353.1463132572
  0
ARC
  5
564D
330
1A
100
AcDbEntity
  8
SEIHIN
  6
CONTINUOUS
100
AcDbCircle
 10
194.0785780836108
 20
1168.661969668793
 30
0.0
 40
1001.451844414299
100
AcDbArc
 50
267.5436985761915
 51
272.2001904184027
  0
ARC
  5
564E
330
1A
100
AcDbEntity
  8
NOKITOI
 48
0.5
100
AcDbCircle
 10
198.7829801797418
 20
1169.140803938826
 30
0.0
 40
999.9999999999994
100
AcDbArc
 50
267.3333119235765
 51
271.9779273652207
  0
ARC
  5
564F
330
1A
100
AcDbEntity
  8
NOKITOI
 48
0.5
100
AcDbCircle
 10
198.7829801797418
 20
1169.140803938826
 30
0.0
 40
998.3999999999994
100
AcDbArc
 50
267.3988777093053
 51
271.9779273652207
  0
ARC
  5
5650
330
1A
100
AcDbEntity
  8
SEIHIN
  6
CONTINUOUS
100
AcDbCircle
 10
194.0785780836108
 20
1168.661969668793
 30
0.0
 40
999.5100999691997
100
AcDbArc
 50
267.6035246962018
 51
272.2487875208916
  0
ARC
  5
5651
330
1A
100
AcDbEntity
  8
SEIHIN
  6
CONTINUOUS
100
AcDbCircle
 10
194.0785780836108
 20
1168.661969668793
 30
0.0
 40
996.5499999999996
100
AcDbArc
 50
267.7263117020983
 51
272.1577090949056
  0
ARC
  5
5652
330
1A
100
AcDbEntity
  8
SEIHIN
  6
CONTINUOUS
100
AcDbCircle
 10
194.0785780836108
 20
1168.661969668793
 30
0.0
 40
998.2499999999996
100
AcDbArc
 50
267.7179064700058
 51
272.120549681595
  0
ARC
  5
5653
330
1A
100
AcDbEntity
  8
SEIHIN
  6
CONTINUOUS
100
AcDbCircle
 10
194.0785780836108
 20
1168.661969668793
 30
0.0
 40
1000.499999999999
100
AcDbArc
 50
267.6244911327925
 51
272.2253054335916
  0
LINE
  5
5654
330
1A
100
AcDbEntity
  8
SEIHIN
  6
CONTINUOUS
100
AcDbLine
 10
151.6880310847586
 20
179.1140339917601
 30
0.0
 11
235.505446369156
 21
179.1140339917601
 31
0.0
  0
ARC
  5
5655
330
1A
100
AcDbEntity
  8
SEIHIN
  6
CONTINUOUS
100
AcDbCircle
 10
194.0785780836108
 20
1168.661969668793
 30
0.0
 40
1002.499999999999
100
AcDbArc
 50
267.5003988066035
 51
272.2491499194422
  0
LINE
  5
5656
330
1A
100
AcDbEntity
  8
NOKITOI
 48
0.5
100
AcDbLine
 10
151.6449027389473
 20
173.2036526615538
 30
0.0
 11
149.6415110108975
 21
180.0226844655317
 31
0.0
  0
LINE
  5
5657
330
1A
100
AcDbEntity
  8
SEIHIN
  6
CONTINUOUS
100
AcDbLine
 10
149.5471775115108
 20
180.4119696687934
 30
0.0
 11
151.566318440211
 21
173.3727155589933
 31
0.0
  0
LINE
  5
5658
330
1A
100
AcDbEntity
  8
SEIHIN
  6
CONTINUOUS
100
AcDbLine
 10
153.1601703375108
 20
173.9817709890933
 30
0.0
 11
151.1812813444107
 21
180.8806963092933
 31
0.0
  0
ARC
  5
5659
330
1A
100
AcDbEntity
  8
NOKITOI
 48
0.5
100
AcDbCircle
 10
152.3503460867275
 20
172.2215441734308
 30
0.0
 40
2.000000000000095
100
AcDbArc
 50
196.3724734765238
 51
267.3333119235504
  0
ARC
  5
565A
330
1A
100
AcDbEntity
  8
SEIHIN
100
AcDbCircle
 10
152.71465194416
 20
171.9664075077982
 30
0.0
 40
2.946531495763965
100
AcDbArc
 50
195.0038025050943
 51
267.9505854383066
  0
ARC
  5
565B
330
1A
100
AcDbEntity
  8
SEIHIN
100
AcDbCircle
 10
152.4256777566338
 20
171.6261108504093
 30
0.0
 40
1.60625729590454
100
AcDbArc
 50
198.6299963461185
 51
264.9709813719403
  0
ARC
  5
565C
330
1A
100
AcDbEntity
  8
SEIHIN
100
AcDbCircle
 10
149.5471775115031
 20
180.4119696687596
 30
0.0
 40
1.700000000016724
100
AcDbArc
 50
16.00501863202183
 51
87.96644867454153
  0
LINE
  5
565D
330
1A
100
AcDbEntity
  8
NOKITOI
 48
0.5
100
AcDbLine
 10
148.4439593927324
 20
178.422684481363
 30
0.0
 11
150.431447069332
 21
171.6577830883605
 31
0.0
  0
LINE
  5
565E
330
1A
100
AcDbEntity
  8
SEIHIN
  6
CONTINUOUS
100
AcDbLine
 10
148.9095313763109
 20
178.0647807979934
 30
0.0
 11
150.9035862649106
 21
171.1129831942933
 31
0.0
  0
LINE
  5
565F
330
1A
100
AcDbEntity
  8
SEIHIN
  6
CONTINUOUS
100
AcDbLine
 10
147.3421019769107
 20
176.4868394060933
 30
0.0
 11
149.3246961090108
 21
169.5749970011934
 31
0.0
  0
LINE
  5
5660
330
1A
100
AcDbEntity
  8
SEIHIN
  6
CONTINUOUS
100
AcDbLine
 10
149.8514427109107
 20
171.1908148316933
 30
0.0
 11
148.267253212311
 21
176.7137143380933
 31
0.0
  0
ARC
  5
5661
330
1A
100
AcDbEntity
  8
SEIHIN
100
AcDbCircle
 10
145.5785066429896
 20
175.1448856150959
 30
0.0
 40
1.017179102794839
100
AcDbArc
 50
16.78829729077708
 51
89.21672133749062
  0
ARC
  5
5662
330
1A
100
AcDbEntity
  8
SEIHIN
100
AcDbCircle
 10
150.4446443803717
 20
169.1105327901908
 30
0.0
 40
1.996629174466498
100
AcDbArc
 50
195.9920060701693
 51
267.5134632959739
  0
ARC
  5
5663
330
1A
100
AcDbEntity
  8
SEIHIN
100
AcDbCircle
 10
151.2440553755213
 20
170.1250735096917
 30
0.0
 40
1.996628197522523
100
AcDbArc
 50
195.9919755007944
 51
267.5567417047861
  0
LINE
  5
5664
330
1A
100
AcDbEntity
  8
SEIHIN
  6
CONTINUOUS
100
AcDbLine
 10
148.5255345248613
 20
168.5595832255181
 30
0.0
 11
146.5523320594106
 21
175.4386838204933
 31
0.0
  0
LINE
  5
5665
330
1A
100
AcDbEntity
  8
SEIHIN
  6
CONTINUOUS
100
AcDbLine
 10
145.5924118534108
 20
176.1619696687934
 30
0.0
 11
140.0709287770109
 21
176.1619696687934
 31
0.0
  0
LINE
  5
5666
330
1A
100
AcDbEntity
  8
NOKITOI
 48
0.5
100
AcDbLine
 10
142.003911306748
 20
179.1408039388279
 30
0.0
 11
147.4845098840348
 21
179.1408039388279
 31
0.0
  0
LINE
  5
5667
330
1A
100
AcDbEntity
  8
SEIHIN
  6
CONTINUOUS
100
AcDbLine
 10
141.9906964315109
 20
179.1518696995933
 30
0.0
 11
147.4667842178109
 21
179.1518696995933
 31
0.0
  0
LINE
  5
5668
330
1A
100
AcDbEntity
  8
SEIHIN
  6
CONTINUOUS
100
AcDbLine
 10
146.3451783387108
 20
178.1619696687934
 30
0.0
 11
142.3814733882108
 21
178.1619696687934
 31
0.0
  0
LINE
  5
5669
330
1A
100
AcDbEntity
  8
SEIHIN
  6
CONTINUOUS
100
AcDbLine
 10
140.8794963230107
 20
177.2101252543933
 30
0.0
 11
146.3821817708108
 21
177.2101252543933
 31
0.0
  0
ARC
  5
566A
330
1A
100
AcDbEntity
  8
NOKITOI
 48
0.5
100
AcDbCircle
 10
144.0010131875417
 20
182.7408039388274
 30
0.0
 40
1.999999999999926
100
AcDbArc
 50
195.0887049995148
 51
270.0
  0
ARC
  5
566B
330
1A
100
AcDbEntity
  8
SEIHIN
100
AcDbCircle
 10
144.9719505644543
 20
183.7721873309379
 30
0.0
 40
3.199049167966992
100
AcDbArc
 50
197.9750338397246
 51
265.3644228810903
  0
ARC
  5
566C
330
1A
100
AcDbEntity
  8
SEIHIN
100
AcDbCircle
 10
142.3814018926025
 20
180.1616699818209
 30
0.0
 40
1.999700314305585
100
AcDbArc
 50
194.9832369189976
 51
270.0020485052691
  0
ARC
  5
566D
330
1A
100
AcDbEntity
  8
NOKITOI
 48
0.5
100
AcDbCircle
 10
142.003911306748
 20
180.1408039388279
 30
0.0
 40
0.9999999999999346
100
AcDbArc
 50
194.797024498788
 51
270.0
  0
ARC
  5
566E
330
1A
100
AcDbEntity
  8
SEIHIN
100
AcDbCircle
 10
142.0143368822257
 20
179.6836599275959
 30
0.0
 40
0.5323154304630755
100
AcDbArc
 50
197.4734324903713
 51
267.4546225483087
  0
ARC
  5
566F
330
1A
100
AcDbEntity
  8
SEIHIN
100
AcDbCircle
 10
140.8792202613344
 20
178.2083965426795
 30
0.0
 40
0.9982713264572272
100
AcDbArc
 50
194.7490769152678
 51
270.0158445592115
  0
ARC
  5
5670
330
1A
100
AcDbEntity
  8
SEIHIN
100
AcDbCircle
 10
140.0706510299933
 20
177.1602395436481
 30
0.0
 40
0.9982699134932662
100
AcDbArc
 50
194.6298931384003
 51
270.0159413119387
  0
LINE
  5
5671
330
1A
100
AcDbEntity
  8
SEIHIN
  6
CONTINUOUS
100
AcDbLine
 10
149.6075015271108
 20
182.1108990413933
 30
0.0
 11
144.9219640682108
 21
182.2772687792934
 31
0.0
  0
LINE
  5
5672
330
1A
100
AcDbEntity
  8
SEIHIN
  6
CONTINUOUS
100
AcDbLine
 10
144.713410299611
 20
180.5836026118934
 30
0.0
 11
149.5471775115108
 21
180.4119696687934
 31
0.0
  0
LINE
  5
5673
330
1A
100
AcDbEntity
  8
NOKITOI
 48
0.5
100
AcDbLine
 10
148.6820615620765
 20
180.74080381166
 30
0.0
 11
144.0010131875417
 21
180.7408039388274
 31
0.0
  0
ARC
  5
5674
330
1A
100
AcDbEntity
  8
NOKITOI
 48
0.5
100
AcDbCircle
 10
148.6820615349099
 20
179.74080381166
 30
0.0
 40
1.000000000000037
100
AcDbArc
 50
16.3724801252364
 51
89.99999844346808
  0
ARC
  5
5675
330
1A
100
AcDbEntity
  8
SEIHIN
100
AcDbCircle
 10
147.4668727969663
 20
177.6510604999549
 30
0.0
 40
1.500809202252423
100
AcDbArc
 50
16.00163698090611
 51
90.00338165021645
  0
ARC
  5
5676
330
1A
100
AcDbEntity
  8
NOKITOI
 48
0.5
100
AcDbCircle
 10
147.4845098840348
 20
178.1408039388279
 30
0.0
 40
1.000000000000015
100
AcDbArc
 50
16.37247347651719
 51
90.0
  0
ARC
  5
5677
330
1A
100
AcDbEntity
  8
SEIHIN
100
AcDbCircle
 10
146.2497242722129
 20
176.0357026640497
 30
0.0
 40
2.128408526169939
100
AcDbArc
 50
18.57546038985429
 51
87.42955824086022
  0
ARC
  5
5678
330
1A
100
AcDbEntity
  8
SEIHIN
100
AcDbCircle
 10
146.3823922291298
 20
176.2117750326666
 30
0.0
 40
0.998350243909673
100
AcDbArc
 50
15.99294033423291
 51
90.01207829977666
  0
ARC
  5
5679
330
1A
100
AcDbEntity
  8
SEIHIN
100
AcDbCircle
 10
144.9751911407488
 20
183.7763241081185
 30
0.0
 40
1.500000000043264
100
AcDbArc
 50
195.3945309368428
 51
267.9664486767575
  0
ARC
  5
567A
330
1A
100
AcDbEntity
  8
NOKITOI
 48
0.5
100
AcDbCircle
 10
153.5638017563417
 20
173.7674137466274
 30
0.0
 40
2.000000000000056
100
AcDbArc
 50
196.3724734766122
 51
267.3988776934213
  0
ARC
  5
567B
330
1A
100
AcDbEntity
  8
SEIHIN
  6
CONTINUOUS
100
AcDbCircle
 10
154.602026660611
 20
174.3953533188934
 30
0.0
 40
1.500000000000054
100
AcDbArc
 50
196.0050186309984
 51
267.7263117020983
  0
ARC
  5
567C
330
1A
100
AcDbEntity
  8
SEIHIN
100
AcDbCircle
 10
154.4477761051498
 20
174.1988877604689
 30
0.0
 40
2.9975588036477
100
AcDbArc
 50
195.9986681236582
 51
267.7242569647083
  0
LINE
  5
567D
330
1A
100
AcDbEntity
  8
CENTER_L
  6
CENTER
 48
5.0
100
AcDbLine
 10
194.0785780836106
 20
182.6950339172135
 30
0.0
 11
194.0785780836106
 21
157.4932074333125
 31
0.0
  0
ARC
  5
567E
330
1A
100
AcDbEntity
  8
SEIHIN
100
AcDbCircle
 10
232.2403734846079
 20
175.4297799256355
 30
0.0
 40
7.486802459710353
100
AcDbArc
 50
272.1821608110786
 51
350.0239438204769
  0
ARC
  5
567F
330
1A
100
AcDbEntity
  8
SEIHIN
100
AcDbCircle
 10
232.6944730232491
 20
174.9092918277472
 30
0.0
 40
5.997324261570523
100
AcDbArc
 50
272.2233128913574
 51
349.9827917413361
  0
ARC
  5
5680
330
1A
100
AcDbEntity
  8
SEIHIN
100
AcDbCircle
 10
231.3927225731195
 20
176.4858932453778
 30
0.0
 40
3.673140263442668
100
AcDbArc
 50
273.2179543669075
 51
338.7922197185193
  0
ARC
  5
5681
330
1A
100
AcDbEntity
  8
SEIHIN
100
AcDbCircle
 10
230.7950417475581
 20
177.0864166375104
 30
0.0
 40
5.994903800830947
100
AcDbArc
 50
272.1117843805882
 51
350.0943202561305
  0
ARC
  5
5682
330
1A
100
AcDbEntity
  8
SEIHIN
100
AcDbCircle
 10
233.1255184231279
 20
174.4152283435371
 30
0.0
 40
7.486811419221738
100
AcDbArc
 50
272.2309369018101
 51
349.9751677372474
  0
ARC
  5
5683
330
1A
100
AcDbEntity
  8
NOKITOI
 48
0.5
100
AcDbCircle
 10
233.1248963851901
 20
174.7336273801809
 30
0.0
 40
3.39999999999992
100
AcDbArc
 50
271.9779273652077
 51
349.9208000871218
  0
ARC
  5
5684
330
1A
100
AcDbEntity
  8
NOKITOI
 48
0.5
100
AcDbCircle
 10
233.1248963851901
 20
174.7336273801809
 30
0.0
 40
5.00000000000004
100
AcDbArc
 50
271.9779273652207
 51
349.9208000871218
  0
ARC
  5
5685
330
1A
100
AcDbEntity
  8
SEIHIN
100
AcDbCircle
 10
233.121867147325
 20
174.4194134021587
 30
0.0
 40
4.501236157131915
100
AcDbArc
 50
272.2428729718679
 51
349.958798701728
  0
LINE
  5
5686
330
1A
100
AcDbEntity
  8
NOKITOI
 48
0.5
100
AcDbLine
 10
244.5955590627461
 20
228.4752200508053
 30
0.0
 11
245.0022368931961
 21
237.3792705880423
 31
0.0
  0
LINE
  5
5687
330
1A
100
AcDbEntity
  8
NOKITOI
 48
0.5
100
AcDbLine
 10
231.9329801796932
 20
233.3420866954297
 30
0.0
 11
240.5150322845295
 21
234.0170795576081
 31
0.0
  0
LINE
  5
5688
330
1A
100
AcDbEntity
  8
SEIHIN
  6
CONTINUOUS
100
AcDbLine
 10
247.6389112230108
 20
249.1231847511933
 30
0.0
 11
246.719091739611
 21
228.6208925822933
 31
0.0
  0
LINE
  5
5689
330
1A
100
AcDbEntity
  8
SEIHIN
  6
CONTINUOUS
100
AcDbLine
 10
249.5917115301108
 20
248.0262867663933
 30
0.0
 11
248.7137340535109
 21
228.4566309060933
 31
0.0
  0
LINE
  5
568A
330
1A
100
AcDbEntity
  8
SEIHIN
  6
CONTINUOUS
100
AcDbLine
 10
247.6683858947108
 20
228.5427074972933
 30
0.0
 11
248.5425016116109
 21
248.0262867663933
 31
0.0
  0
LINE
  5
568B
330
1A
100
AcDbEntity
  8
NOKITOI
 48
0.5
100
AcDbLine
 10
246.1911463908197
 20
228.342086695434
 30
0.0
 11
247.0941940087798
 21
248.113957758453
 31
0.0
  0
LINE
  5
568C
330
1A
100
AcDbEntity
  8
SEIHIN
  6
CONTINUOUS
100
AcDbLine
 10
245.7318447353109
 20
228.7022215338934
 30
0.0
 11
246.6048175229107
 21
248.1603255107933
 31
0.0
  0
LINE
  5
568D
330
1A
100
AcDbEntity
  8
NOKITOI
 48
0.5
100
AcDbLine
 10
239.091923002933
 20
252.6895897687952
 30
0.0
 11
231.9329801796932
 21
233.3420866954297
 31
0.0
  0
ARC
  5
568E
330
1A
100
AcDbEntity
  8
SEIHIN
100
AcDbCircle
 10
243.3495756340044
 20
230.4633182362764
 30
0.0
 40
1.198706300966377
100
AcDbArc
 50
357.3961455673491
 51
89.45179340360452
  0
LINE
  5
568F
330
1A
100
AcDbEntity
  8
SEIHIN
  6
CONTINUOUS
100
AcDbLine
 10
244.475123144311
 20
228.8057763020933
 30
0.0
 11
244.5470442897108
 21
230.4088607796933
 31
0.0
  0
LINE
  5
5690
330
1A
100
AcDbEntity
  8
SEIHIN
  6
CONTINUOUS
100
AcDbLine
 10
243.3610446924424
 20
231.6619696687934
 30
0.0
 11
242.901554032011
 21
231.6619696687934
 31
0.0
  0
LINE
  5
5691
330
1A
100
AcDbEntity
  8
SEIHIN
  6
CONTINUOUS
100
AcDbLine
 10
242.6944118087108
 20
228.2385903964933
 30
0.0
 11
242.779683028511
 21
228.9455291434933
 31
0.0
  0
LINE
  5
5692
330
1A
100
AcDbEntity
  8
SEIHIN
  6
CONTINUOUS
100
AcDbLine
 10
242.779683028511
 20
228.9455291434933
 30
0.0
 11
242.9015540320517
 21
231.6619696687934
 31
0.0
  0
LINE
  5
5693
330
1A
100
AcDbEntity
  8
SEIHIN
  6
CONTINUOUS
100
AcDbLine
 10
249.4738326244109
 20
250.6607537952933
 30
0.0
 11
249.9432533841109
 21
261.1238954642933
 31
0.0
  0
ARC
  5
5694
330
1A
100
AcDbEntity
  8
SEIHIN
100
AcDbCircle
 10
241.0636717411666
 20
248.4078029063809
 30
0.0
 40
7.454205260502461
100
AcDbArc
 50
2.230026990188193
 51
90.18414364529654
  0
ARC
  5
5695
330
1A
100
AcDbEntity
  8
SEIHIN
100
AcDbCircle
 10
242.3299324165282
 20
248.3542924593372
 30
0.0
 40
7.507001670071081
100
AcDbArc
 50
17.89305989484693
 51
79.72636188593085
  0
ARC
  5
5696
330
1A
100
AcDbEntity
  8
SEIHIN
100
AcDbCircle
 10
235.0667235984401
 20
248.6962387070838
 30
0.0
 40
14.54043018682782
100
AcDbArc
 50
357.3591556316904
 51
7.764811943879474
  0
LINE
  5
5697
330
1A
100
AcDbEntity
  8
NOKITOI
 48
0.5
100
AcDbLine
 10
245.0712062560226
 20
238.8893275572986
 30
0.0
 11
245.49586024637
 21
248.186959018285
 31
0.0
  0
LINE
  5
5698
330
1A
100
AcDbEntity
  8
NOKITOI
 48
0.5
100
AcDbLine
 10
240.3407214668479
 20
251.7420866954303
 30
0.0
 11
234.1537453190396
 21
235.021386029131
 31
0.0
  0
LINE
  5
5699
330
1A
100
AcDbEntity
  8
NOKITOI
 48
0.5
100
AcDbLine
 10
240.9443511983784
 20
234.3409390288293
 30
0.0
 11
241.9882824542239
 21
237.1422179917189
 31
0.0
  0
LINE
  5
569A
330
1A
100
AcDbEntity
  8
NOKITOI
 48
0.5
100
AcDbLine
 10
240.9168244659633
 20
238.5625784277435
 30
0.0
 11
245.0712062560226
 21
238.8893275572986
 31
0.0
  0
LINE
  5
569B
330
1A
100
AcDbEntity
  8
NOKITOI
 48
0.5
100
AcDbLine
 10
239.7615221914341
 20
235.4624471314541
 30
0.0
 11
240.9168244659633
 21
238.5625784277435
 31
0.0
  0
ARC
  5
569C
330
1A
100
AcDbEntity
  8
NOKITOI
 48
0.5
100
AcDbCircle
 10
240.4758275169399
 20
234.5155401741048
 30
0.0
 40
0.5000000000000096
100
AcDbArc
 50
274.4971516146625
 51
339.561468590678
  0
LINE
  5
569D
330
1A
100
AcDbEntity
  8
NOKITOI
 48
0.5
100
AcDbLine
 10
234.1537453190396
 20
235.021386029131
 30
0.0
 11
239.7615221914341
 21
235.4624471314541
 31
0.0
  0
LINE
  5
569E
330
1A
100
AcDbEntity
  8
NOKITOI
 48
0.5
100
AcDbLine
 10
241.9882824542239
 20
237.1422179917189
 30
0.0
 11
245.0022368931961
 21
237.3792705880423
 31
0.0
  0
LINE
  5
569F
330
1A
100
AcDbEntity
  8
SEIHIN
  6
CONTINUOUS
100
AcDbLine
 10
237.7026994364109
 20
254.3619696687933
 30
0.0
 11
242.654829401511
 21
254.3619696687933
 31
0.0
  0
LINE
  5
56A0
330
1A
100
AcDbEntity
  8
SEIHIN
  6
CONTINUOUS
100
AcDbLine
 10
242.1083996568108
 20
252.8619696687933
 30
0.0
 11
238.646592966511
 21
252.8619696687933
 31
0.0
  0
LINE
  5
56A1
330
1A
100
AcDbEntity
  8
NOKITOI
 48
0.5
100
AcDbLine
 10
240.3407214668479
 20
251.7420866954303
 30
0.0
 11
242.0994010012466
 21
251.74208669543
 31
0.0
  0
LINE
  5
56A2
330
1A
100
AcDbEntity
  8
NOKITOI
 48
0.5
100
AcDbLine
 10
240.0296018466753
 20
253.3420866954302
 30
0.0
 11
242.0994010012457
 21
253.3420866954302
 31
0.0
  0
LINE
  5
56A3
330
1A
100
AcDbEntity
  8
SEIHIN
100
AcDbLine
 10
243.6688024786108
 20
255.7409358804933
 30
0.0
 11
241.0636717411666
 21
255.8620081668834
 31
0.0
  0
LINE
  5
56A4
330
1A
100
AcDbEntity
  8
SEIHIN
  6
CONTINUOUS
100
AcDbLine
 10
241.0397146159107
 20
255.8619696687933
 30
0.0
 11
239.1786818527107
 21
255.8619696687933
 31
0.0
  0
ARC
  5
56A5
330
1A
100
AcDbEntity
  8
NOKITOI
 48
0.5
100
AcDbCircle
 10
240.0296018466753
 20
252.3420866954302
 30
0.0
 40
1.0
100
AcDbArc
 50
90.00000000005213
 51
159.7238100727562
  0
LINE
  5
56A6
330
1A
100
AcDbEntity
  8
SEIHIN
  6
CONTINUOUS
100
AcDbLine
 10
237.4382326885106
 20
255.5701550683933
 30
0.0
 11
238.0622912823109
 21
255.8181883895934
 31
0.0
  0
LINE
  5
56A7
330
1A
100
AcDbEntity
  8
SEIHIN
  6
CONTINUOUS
100
AcDbLine
 10
236.5775612315221
 20
251.2706778571398
 30
0.0
 11
237.7026994364109
 21
254.3619696687933
 31
0.0
  0
LINE
  5
56A8
330
1A
100
AcDbEntity
  8
SEIHIN
  6
CONTINUOUS
100
AcDbLine
 10
237.6752196247107
 20
250.6108296891933
 30
0.0
 11
237.339615117311
 21
250.7329797403933
 31
0.0
  0
LINE
  5
56A9
330
1A
100
AcDbEntity
  8
SEIHIN
  6
CONTINUOUS
100
AcDbLine
 10
236.9314534470108
 20
255.1295368012933
 30
0.0
 11
237.4382326885106
 21
255.5701550683933
 31
0.0
  0
LINE
  5
56AA
330
1A
100
AcDbEntity
  8
SEIHIN
  6
CONTINUOUS
100
AcDbLine
 10
236.5990890729108
 20
254.5460099553934
 30
0.0
 11
236.9314534470108
 21
255.1295368012933
 31
0.0
  0
LINE
  5
56AB
330
1A
100
AcDbEntity
  8
SEIHIN
  6
CONTINUOUS
100
AcDbLine
 10
236.039952183311
 20
252.8671620234934
 30
0.0
 11
236.1442701624109
 21
253.2964052686933
 31
0.0
  0
LINE
  5
56AC
330
1A
100
AcDbEntity
  8
SEIHIN
  6
CONTINUOUS
100
AcDbLine
 10
236.0674366831108
 20
252.1961819497934
 30
0.0
 11
236.039952183311
 21
252.8671620234934
 31
0.0
  0
LINE
  5
56AD
330
1A
100
AcDbEntity
  8
SEIHIN
  6
CONTINUOUS
100
AcDbLine
 10
236.315470004311
 20
251.5721233559933
 30
0.0
 11
236.0674366831108
 21
252.1961819497934
 31
0.0
  0
LINE
  5
56AE
330
1A
100
AcDbEntity
  8
SEIHIN
  6
CONTINUOUS
100
AcDbLine
 10
236.756088271411
 20
251.0653441144933
 30
0.0
 11
236.315470004311
 21
251.5721233559933
 31
0.0
  0
LINE
  5
56AF
330
1A
100
AcDbEntity
  8
SEIHIN
  6
CONTINUOUS
100
AcDbLine
 10
237.339615117311
 20
250.7329797403933
 30
0.0
 11
236.756088271411
 21
251.0653441144933
 31
0.0
  0
LINE
  5
56B0
330
1A
100
AcDbEntity
  8
SEIHIN
  6
CONTINUOUS
100
AcDbLine
 10
236.1442701624109
 20
253.2964052686933
 30
0.0
 11
236.3986885672106
 21
253.9954140910933
 31
0.0
  0
LINE
  5
56B1
330
1A
100
AcDbEntity
  8
SEIHIN
  6
CONTINUOUS
100
AcDbLine
 10
236.4138782347108
 20
254.0371473593933
 30
0.0
 11
236.5990890729108
 21
254.5460099553934
 31
0.0
  0
LINE
  5
56B2
330
1A
100
AcDbEntity
  8
SEIHIN
  6
CONTINUOUS
100
AcDbLine
 10
238.646592966511
 20
252.8619696687933
 30
0.0
 11
237.809461427711
 21
250.5619696687933
 31
0.0
  0
LINE
  5
56B3
330
1A
100
AcDbEntity
  8
SEIHIN
  6
CONTINUOUS
100
AcDbLine
 10
238.478474314511
 20
255.8619696687933
 30
0.0
 11
239.1786818527107
 21
255.8619696687933
 31
0.0
  0
LINE
  5
56B4
330
1A
100
AcDbEntity
  8
SEIHIN
  6
CONTINUOUS
100
AcDbLine
 10
238.0622912823109
 20
255.8181883895934
 30
0.0
 11
238.478474314511
 21
255.8619696687933
 31
0.0
  0
LINE
  5
56B5
330
1A
100
AcDbEntity
  8
SEIHIN
  6
CONTINUOUS
100
AcDbLine
 10
237.6112245837107
 20
250.6477476947933
 30
0.0
 11
237.6752196247107
 21
250.6108296891933
 31
0.0
  0
LINE
  5
56B6
330
1A
100
AcDbEntity
  8
SEIHIN
  6
CONTINUOUS
100
AcDbLine
 10
237.5941383438107
 20
250.6626039056933
 30
0.0
 11
237.6112245837107
 21
250.6477476947933
 31
0.0
  0
LINE
  5
56B7
330
1A
100
AcDbEntity
  8
SEIHIN
  6
CONTINUOUS
100
AcDbLine
 10
237.809461427711
 20
250.5619696687933
 30
0.0
 11
237.6752196247107
 21
250.6108296891933
 31
0.0
  0
ARC
  5
56B8
330
1A
100
AcDbEntity
  8
NOKITOI
 48
0.5
100
AcDbCircle
 10
242.0994010012457
 20
248.3420866954302
 30
0.0
 40
4.999999999999845
100
AcDbArc
 50
357.3849271045685
 51
90.0
  0
ARC
  5
56B9
330
1A
100
AcDbEntity
  8
SEIHIN
100
AcDbCircle
 10
242.6432803552918
 20
249.360708629915
 30
0.0
 40
5.001274373544252
100
AcDbArc
 50
357.2778464081937
 51
89.86769128337845
  0
ARC
  5
56BA
330
1A
100
AcDbEntity
  8
SEIHIN
100
AcDbCircle
 10
242.0637895102454
 20
248.3184098310723
 30
0.0
 40
4.543778830899224
100
AcDbArc
 50
358.0061985925776
 51
89.437469498323
  0
LINE
  5
56BB
330
1A
100
AcDbEntity
  8
SEIHIN
100
AcDbLine
 10
248.5122316435108
 20
248.6978571200934
 30
0.0
 11
248.5425016116109
 21
248.0262867663933
 31
0.0
  0
ARC
  5
56BC
330
1A
100
AcDbEntity
  8
NOKITOI
 48
0.5
100
AcDbCircle
 10
242.0994010012466
 20
248.34208669543
 30
0.0
 40
3.400000000000112
100
AcDbArc
 50
357.384927104575
 51
90.0
  0
LINE
  5
56BD
330
1A
100
AcDbEntity
  8
SEIHIN
  6
CONTINUOUS
100
AcDbLine
 10
242.830985991871
 20
252.7969515158967
 30
0.0
 11
242.1083996568108
 21
252.8619696687933
 31
0.0
  0
LINE
  5
56BE
330
1A
100
AcDbEntity
  8
SEIHIN
100
AcDbLine
 10
276.7090138987337
 20
174.1327916277937
 30
0.0
 11
276.7090138987337
 21
228.5427074972937
 31
0.0
  0
LINE
  5
56BF
330
1A
100
AcDbEntity
  8
SEIHIN
100
AcDbLine
 10
306.7090138987337
 20
228.5776058680936
 30
0.0
 11
306.7090138987337
 21
177.9924378274937
 31
0.0
  0
LINE
  5
56C0
330
1A
100
AcDbEntity
  8
SEIHIN
100
AcDbLine
 10
296.7090138987336
 20
166.1619696687937
 30
0.0
 11
301.8136858112338
 21
166.4294941876936
 31
0.0
  0
LINE
  5
56C1
330
1A
100
AcDbEntity
  8
SEIHIN
100
AcDbLine
 10
276.7090138987337
 20
167.2101252544937
 30
0.0
 11
296.7090138987336
 21
166.1619696687937
 31
0.0
  0
LINE
  5
56C2
330
1A
100
AcDbEntity
  8
SEIHIN
100
AcDbLine
 10
276.7090138987337
 20
167.9484067443937
 30
0.0
 11
276.7090138987337
 21
174.1327916277937
 31
0.0
  0
LINE
  5
56C3
330
1A
100
AcDbEntity
  8
SEIHIN
100
AcDbLine
 10
276.7090138987337
 20
167.2101252544937
 30
0.0
 11
276.7090138987337
 21
167.9484067443937
 31
0.0
  0
LINE
  5
56C4
330
1A
100
AcDbEntity
  8
SEIHIN
100
AcDbLine
 10
303.8699560455341
 20
175.7060118720936
 30
0.0
 11
303.7382621009339
 21
175.4020549600936
 31
0.0
  0
LINE
  5
56C5
330
1A
100
AcDbEntity
  8
SEIHIN
100
AcDbLine
 10
303.7382621009339
 20
175.4020549600936
 30
0.0
 11
303.7090138987339
 21
175.1619696687937
 31
0.0
  0
LINE
  5
56C6
330
1A
100
AcDbEntity
  8
SEIHIN
100
AcDbLine
 10
303.7090138987337
 20
173.7203066766936
 30
0.0
 11
303.7090138987337
 21
169.1886501364937
 31
0.0
  0
LINE
  5
56C7
330
1A
100
AcDbEntity
  8
SEIHIN
100
AcDbLine
 10
303.7090138987337
 20
175.1619696687936
 30
0.0
 11
303.7090138987337
 21
173.7203066766936
 31
0.0
  0
LINE
  5
56C8
330
1A
100
AcDbEntity
  8
SEIHIN
100
AcDbLine
 10
303.7090138987337
 20
169.1886501364937
 30
0.0
 11
303.7090138987337
 21
168.4267532571936
 31
0.0
  0
ARC
  5
56C9
330
1A
100
AcDbEntity
  8
SEIHIN
100
AcDbCircle
 10
301.7090138987337
 20
168.4267532571936
 30
0.0
 40
2.000000000000003
100
AcDbArc
 50
273.0000000000056
 51
0.0
  0
LINE
  5
56CA
330
1A
100
AcDbEntity
  8
SEIHIN
100
AcDbLine
 10
304.0924574046341
 20
175.9492803378936
 30
0.0
 11
303.8699560455341
 21
175.7060118720936
 31
0.0
  0
LINE
  5
56CB
330
1A
100
AcDbEntity
  8
SEIHIN
100
AcDbLine
 10
304.3828564181342
 20
176.1072851176936
 30
0.0
 11
304.0924574046341
 21
175.9492803378936
 31
0.0
  0
LINE
  5
56CC
330
1A
100
AcDbEntity
  8
SEIHIN
100
AcDbLine
 10
304.7090138987339
 20
176.1619696687937
 30
0.0
 11
304.3828564181342
 21
176.1072851176936
 31
0.0
  0
LINE
  5
56CD
330
1A
100
AcDbEntity
  8
SEIHIN
100
AcDbLine
 10
305.7090138987337
 20
176.1619696687936
 30
0.0
 11
304.7090138987337
 21
176.1619696687936
 31
0.0
  0
LINE
  5
56CE
330
1A
100
AcDbEntity
  8
SEIHIN
100
AcDbLine
 10
306.7090138987337
 20
177.1619696687936
 30
0.0
 11
306.7090138987337
 21
177.9924378274937
 31
0.0
  0
ARC
  5
56CF
330
1A
100
AcDbEntity
  8
SEIHIN
100
AcDbCircle
 10
305.7090138987337
 20
177.1619696687936
 30
0.0
 40
1.0
100
AcDbArc
 50
270.0
 51
0.0
  0
LINE
  5
56D0
330
1A
100
AcDbEntity
  8
SEIHIN
100
AcDbLine
 10
276.7090138987337
 20
228.5427074972937
 30
0.0
 11
276.7090138987337
 21
248.0262867663938
 31
0.0
  0
LINE
  5
56D1
330
1A
100
AcDbEntity
  8
SEIHIN
100
AcDbLine
 10
306.7090138987337
 20
266.4388617357936
 30
0.0
 11
306.7090138987337
 21
228.5776058680936
 31
0.0
  0
LINE
  5
56D2
330
1A
100
AcDbEntity
  8
SEIHIN
100
AcDbLine
 10
296.7090138987336
 20
255.8619696687936
 30
0.0
 11
303.7090138987337
 21
255.8619696687936
 31
0.0
  0
LINE
  5
56D3
330
1A
100
AcDbEntity
  8
SEIHIN
100
AcDbLine
 10
276.7090138987337
 20
255.8619696687936
 30
0.0
 11
296.7090138987336
 21
255.8619696687936
 31
0.0
  0
LINE
  5
56D4
330
1A
100
AcDbEntity
  8
SEIHIN
100
AcDbLine
 10
276.7090138987337
 20
248.0262867663938
 30
0.0
 11
276.7090138987337
 21
255.8619696687936
 31
0.0
  0
LINE
  5
56D5
330
1A
100
AcDbEntity
  8
SEIHIN
100
AcDbLine
 10
304.2090138987337
 20
256.1673810318044
 30
0.0
 11
304.2090138987337
 21
264.6318459946936
 31
0.0
  0
ARC
  5
56D6
330
1A
100
AcDbEntity
  8
SEIHIN
100
AcDbCircle
 10
303.7090138987337
 20
256.3619696687936
 30
0.0
 40
0.5
100
AcDbArc
 50
270.0
 51
0.0
  0
LINE
  5
56D7
330
1A
100
AcDbEntity
  8
SEIHIN
  6
CONTINUOUS
100
AcDbLine
 10
92.39646291831105
 20
308.0512294955933
 30
0.0
 11
247.9432533841109
 21
308.0512294955933
 31
0.0
  0
LINE
  5
56D8
330
1A
100
AcDbEntity
  8
SEIHIN
100
AcDbLine
 10
98.45743673691414
 20
284.6518696998576
 30
0.0
 11
249.9432533841109
 21
284.6518696998575
 31
0.0
  0
LINE
  5
56D9
330
1A
100
AcDbEntity
  8
SEIHIN
  6
CONTINUOUS
100
AcDbLine
 10
102.043903384711
 20
305.4785787044934
 30
0.0
 11
93.33576866581097
 21
307.8007479628934
 31
0.0
  0
ARC
  5
56DA
330
1A
100
AcDbEntity
  8
NOKITOI
 48
0.5
100
AcDbCircle
 10
105.2972521461208
 20
286.1408039388279
 30
0.0
 40
8.5
100
AcDbArc
 50
90.0
 51
122.4778405323798
  0
LINE
  5
56DB
330
1A
100
AcDbEntity
  8
SEIHIN
  6
CONTINUOUS
100
AcDbLine
 10
102.0285780836106
 20
301.1619696687935
 30
0.0
 11
101.5285780836106
 21
301.1619696687935
 31
0.0
  0
ARC
  5
56DC
330
1A
100
AcDbEntity
  8
NOKITOI
 48
0.5
100
AcDbCircle
 10
105.2972521461208
 20
286.1408039388279
 30
0.0
 40
7.0
100
AcDbArc
 50
90.0
 51
211.0948757823089
  0
LINE
  5
56DD
330
1A
100
AcDbEntity
  8
NOKITOI
 48
0.5
100
AcDbLine
 10
100.8329796947948
 20
300.1407990433917
 30
0.0
 11
118.2152710991231
 21
296.7558263819077
 31
0.0
  0
LINE
  5
56DE
330
1A
100
AcDbEntity
  8
NOKITOI
 48
0.5
100
AcDbLine
 10
100.7329793897431
 20
298.5302171299013
 30
0.0
 11
115.9739817546408
 21
295.5622323493705
 31
0.0
  0
LINE
  5
56DF
330
1A
100
AcDbEntity
  8
SEIHIN
  6
CONTINUOUS
100
AcDbLine
 10
101.0285780836106
 20
302.6444971788935
 30
0.0
 11
94.01847811441076
 21
304.5138571706934
 31
0.0
  0
LINE
  5
56E0
330
1A
100
AcDbEntity
  8
NOKITOI
 48
0.5
100
AcDbLine
 10
100.8329802630039
 20
303.1407990433935
 30
0.0
 11
100.8329796947948
 21
300.1407990433917
 31
0.0
  0
ARC
  5
56E1
330
1A
100
AcDbEntity
  8
NOKITOI
 48
0.5
100
AcDbCircle
 10
100.5329802201438
 20
302.914508635177
 30
0.0
 40
0.3000000000000258
100
AcDbArc
 50
359.9999891480035
 51
74.05460328003083
  0
LINE
  5
56E2
330
1A
100
AcDbEntity
  8
SEIHIN
  6
CONTINUOUS
100
AcDbLine
 10
101.0285780836106
 20
304.1969146484934
 30
0.0
 11
101.0285780836106
 21
301.1619696687935
 31
0.0
  0
LINE
  5
56E3
330
1A
100
AcDbEntity
  8
SEIHIN
  6
CONTINUOUS
100
AcDbLine
 10
91.02857808361068
 20
281.6619696687935
 30
0.0
 11
91.02857808361068
 21
307.1147525957933
 31
0.0
  0
LINE
  5
56E4
330
1A
100
AcDbEntity
  8
SEIHIN
  6
CONTINUOUS
100
AcDbLine
 10
92.07673366931066
 20
306.8352444395934
 30
0.0
 11
92.07673366931066
 21
282.7101252543934
 31
0.0
  0
LINE
  5
56E5
330
1A
100
AcDbEntity
  8
SEIHIN
  6
CONTINUOUS
100
AcDbLine
 10
93.02857808361068
 20
283.6619696687935
 30
0.0
 11
93.02857808361068
 21
305.6779448364934
 31
0.0
  0
LINE
  5
56E6
330
1A
100
AcDbEntity
  8
NOKITOI
 48
0.5
100
AcDbLine
 10
93.83298039071474
 20
303.8150693006442
 30
0.0
 11
93.83297685374305
 21
285.140800600928
 31
0.0
  0
LINE
  5
56E7
330
1A
100
AcDbEntity
  8
SEIHIN
  6
CONTINUOUS
100
AcDbLine
 10
94.01847811441076
 20
304.5138571706934
 30
0.0
 11
94.01847811441076
 21
284.6518696995933
 31
0.0
  0
ARC
  5
56E8
330
1A
100
AcDbEntity
  8
NOKITOI
 48
0.5
100
AcDbCircle
 10
105.2972521461208
 20
286.1408039388279
 30
0.0
 40
8.500000000000364
100
AcDbArc
 50
136.3203885738178
 51
174.1299329295373
  0
LINE
  5
56E9
330
1A
100
AcDbEntity
  8
NOKITOI
 48
0.5
100
AcDbLine
 10
95.43298016472659
 20
302.6219122291274
 30
0.0
 11
95.43297721361046
 21
287.0408038287521
 31
0.0
  0
LINE
  5
56EA
330
1A
100
AcDbEntity
  8
SEIHIN
  6
CONTINUOUS
100
AcDbLine
 10
94.43276524471093
 20
281.6619696687935
 30
0.0
 11
91.02857808361068
 21
281.6619696687935
 31
0.0
  0
LINE
  5
56EB
330
1A
100
AcDbEntity
  8
SEIHIN
  6
CONTINUOUS
100
AcDbLine
 10
92.07673366931066
 20
282.7101252543934
 30
0.0
 11
95.01869381421101
 21
282.7101252543934
 31
0.0
  0
LINE
  5
56EC
330
1A
100
AcDbEntity
  8
SEIHIN
  6
CONTINUOUS
100
AcDbLine
 10
95.54988589951108
 20
283.6619696687935
 30
0.0
 11
93.02857808361068
 21
283.6619696687935
 31
0.0
  0
LINE
  5
56ED
330
1A
100
AcDbEntity
  8
SEIHIN
  6
CONTINUOUS
100
AcDbLine
 10
92.07673366931066
 20
282.7101252543934
 30
0.0
 11
91.02857808361068
 21
281.6619696687935
 31
0.0
  0
ARC
  5
56EE
330
1A
100
AcDbEntity
  8
NOKITOI
 48
0.5
100
AcDbCircle
 10
-236.0292200888413
 20
80.28114457839297
 30
0.0
 40
391.6000000004494
100
AcDbArc
 50
30.84341462565075
 51
31.09487578280358
  0
LINE
  5
56EF
330
1A
100
AcDbEntity
  8
SEIHIN
  6
CONTINUOUS
100
AcDbLine
 10
95.01869381421101
 20
282.7101252543934
 30
0.0
 11
94.43276524471093
 21
281.6619696687935
 31
0.0
  0
LINE
  5
56F0
330
1A
100
AcDbEntity
  8
NOKITOI
 48
0.5
100
AcDbLine
 10
96.54339647561734
 20
286.7408051244776
 30
0.0
 11
95.73297771429475
 21
286.7408037719314
 31
0.0
  0
LINE
  5
56F1
330
1A
100
AcDbEntity
  8
SEIHIN
  6
CONTINUOUS
100
AcDbLine
 10
94.01847811441076
 20
284.6518696995933
 30
0.0
 11
96.10141373541091
 21
284.6518696995933
 31
0.0
  0
ARC
  5
56F2
330
1A
100
AcDbEntity
  8
NOKITOI
 48
0.5
100
AcDbCircle
 10
96.54339597493322
 20
287.0408051244771
 30
0.0
 40
0.2999999999999176
100
AcDbArc
 50
270.0000956236254
 51
354.1299329295503
  0
LINE
  5
56F3
330
1A
100
AcDbEntity
  8
NOKITOI
 48
0.5
100
AcDbLine
 10
95.83298017970014
 20
285.1408039388279
 30
0.0
 11
93.83297685374305
 21
285.140800600928
 31
0.0
  0
ARC
  5
56F4
330
1A
100
AcDbEntity
  8
NOKITOI
 48
0.5
100
AcDbCircle
 10
95.73297721361063
 20
287.040803771931
 30
0.0
 40
0.2999999999999176
100
AcDbArc
 50
179.9999891479645
 51
270.0000956236254
  0
LINE
  5
56F5
330
1A
100
AcDbEntity
  8
NOKITOI
 48
0.5
100
AcDbLine
 10
95.81539650721948
 20
302.9103693554204
 30
0.0
 11
99.01539633404878
 21
301.9960836411367
 31
0.0
  0
LINE
  5
56F6
330
1A
100
AcDbEntity
  8
NOKITOI
 48
0.5
100
AcDbLine
 10
100.7329793897431
 20
298.5302171299013
 30
0.0
 11
100.7329784012783
 21
293.3113970232343
 31
0.0
  0
LINE
  5
56F7
330
1A
100
AcDbEntity
  8
SEIHIN
  6
CONTINUOUS
100
AcDbLine
 10
101.0285780836106
 20
301.1619696687935
 30
0.0
 11
101.5285780836106
 21
301.1619696687935
 31
0.0
  0
LINE
  5
56F8
330
1A
100
AcDbEntity
  8
NOKITOI
 48
0.5
100
AcDbLine
 10
99.23297999155671
 20
301.7076264012014
 30
0.0
 11
99.23297819424238
 21
292.2183047718001
 31
0.0
  0
ARC
  5
56F9
330
1A
100
AcDbEntity
  8
NOKITOI
 48
0.5
100
AcDbCircle
 10
98.93297819424219
 20
292.2183048286212
 30
0.0
 40
0.2999999999999576
100
AcDbArc
 50
316.3203885738127
 51
359.9999891479645
  0
ARC
  5
56FA
330
1A
100
AcDbEntity
  8
NOKITOI
 48
0.5
100
AcDbCircle
 10
98.93297999155652
 20
301.7076264580225
 30
0.0
 40
0.299999999999901
100
AcDbArc
 50
359.9999891479645
 51
74.05460328012489
  0
ARC
  5
56FB
330
1A
100
AcDbEntity
  8
NOKITOI
 48
0.5
100
AcDbCircle
 10
95.73298016472676
 20
302.6219121723063
 30
0.0
 40
0.3000000000001873
100
AcDbArc
 50
74.05460328003083
 51
179.9999891479645
  0
LINE
  5
56FC
330
1A
100
AcDbEntity
  8
SEIHIN
  6
CONTINUOUS
100
AcDbLine
 10
93.65585881191099
 20
306.1629731209934
 30
0.0
 11
101.0285780836106
 21
304.1969146484934
 31
0.0
  0
ARC
  5
56FD
330
1A
100
AcDbEntity
  8
NOKITOI
 48
0.5
100
AcDbCircle
 10
94.83298039071474
 20
303.8150691112407
 30
0.0
 40
1.000000000000065
100
AcDbArc
 50
74.05460328006975
 51
179.999989147984
  0
LINE
  5
56FE
330
1A
100
AcDbEntity
  8
SEIHIN
  6
CONTINUOUS
100
AcDbLine
 10
92.09347324161081
 20
307.0173318405934
 30
0.0
 11
92.07673366931066
 21
306.8352444395934
 31
0.0
  0
LINE
  5
56FF
330
1A
100
AcDbEntity
  8
SEIHIN
  6
CONTINUOUS
100
AcDbLine
 10
93.56582175381072
 20
306.1783189131933
 30
0.0
 11
93.65585881191099
 21
306.1629731209934
 31
0.0
  0
LINE
  5
5700
330
1A
100
AcDbEntity
  8
SEIHIN
  6
CONTINUOUS
100
AcDbLine
 10
93.47454720571068
 20
306.1769552102934
 30
0.0
 11
93.56582175381072
 21
306.1783189131933
 31
0.0
  0
LINE
  5
5701
330
1A
100
AcDbEntity
  8
SEIHIN
  6
CONTINUOUS
100
AcDbLine
 10
93.38507643541106
 20
306.1589274508933
 30
0.0
 11
93.47454720571068
 21
306.1769552102934
 31
0.0
  0
LINE
  5
5702
330
1A
100
AcDbEntity
  8
SEIHIN
  6
CONTINUOUS
100
AcDbLine
 10
93.30039060911076
 20
306.1248363199934
 30
0.0
 11
93.38507643541106
 21
306.1589274508933
 31
0.0
  0
LINE
  5
5703
330
1A
100
AcDbEntity
  8
SEIHIN
  6
CONTINUOUS
100
AcDbLine
 10
93.22331145851103
 20
306.0758177339935
 30
0.0
 11
93.30039060911076
 21
306.1248363199934
 31
0.0
  0
LINE
  5
5704
330
1A
100
AcDbEntity
  8
SEIHIN
  6
CONTINUOUS
100
AcDbLine
 10
93.15640726101083
 20
306.0135049922935
 30
0.0
 11
93.22331145851103
 21
306.0758177339935
 31
0.0
  0
LINE
  5
5705
330
1A
100
AcDbEntity
  8
SEIHIN
  6
CONTINUOUS
100
AcDbLine
 10
93.10190726431073
 20
305.9399743552933
 30
0.0
 11
93.15640726101083
 21
306.0135049922935
 31
0.0
  0
LINE
  5
5706
330
1A
100
AcDbEntity
  8
SEIHIN
  6
CONTINUOUS
100
AcDbLine
 10
93.06162740841092
 20
305.8576758639933
 30
0.0
 11
93.10190726431073
 21
305.9399743552933
 31
0.0
  0
LINE
  5
5707
330
1A
100
AcDbEntity
  8
SEIHIN
  6
CONTINUOUS
100
AcDbLine
 10
93.03690981821091
 20
305.7693517039933
 30
0.0
 11
93.06162740841092
 21
305.8576758639933
 31
0.0
  0
LINE
  5
5708
330
1A
100
AcDbEntity
  8
SEIHIN
  6
CONTINUOUS
100
AcDbLine
 10
93.02857808361068
 20
305.6779448364934
 30
0.0
 11
93.03690981821091
 21
305.7693517039933
 31
0.0
  0
LINE
  5
5709
330
1A
100
AcDbEntity
  8
SEIHIN
  6
CONTINUOUS
100
AcDbLine
 10
91.57450066721095
 20
308.0050211085934
 30
0.0
 11
91.74449538291083
 21
308.0728315554933
 31
0.0
  0
LINE
  5
570A
330
1A
100
AcDbEntity
  8
SEIHIN
  6
CONTINUOUS
100
AcDbLine
 10
92.10711334011103
 20
308.1110885893934
 30
0.0
 11
92.28761308021104
 21
308.0802561190935
 31
0.0
  0
LINE
  5
570B
330
1A
100
AcDbEntity
  8
SEIHIN
  6
CONTINUOUS
100
AcDbLine
 10
91.924033792111
 20
308.1085858432934
 30
0.0
 11
92.10711334011103
 21
308.1110885893934
 31
0.0
  0
LINE
  5
570C
330
1A
100
AcDbEntity
  8
SEIHIN
  6
CONTINUOUS
100
AcDbLine
 10
91.74449538291083
 20
308.0728315554933
 30
0.0
 11
91.924033792111
 21
308.1085858432934
 31
0.0
  0
LINE
  5
570D
330
1A
100
AcDbEntity
  8
SEIHIN
  6
CONTINUOUS
100
AcDbLine
 10
92.14313230001108
 20
307.1933070120933
 30
0.0
 11
92.09347324161081
 21
307.0173318405934
 31
0.0
  0
LINE
  5
570E
330
1A
100
AcDbEntity
  8
SEIHIN
  6
CONTINUOUS
100
AcDbLine
 10
92.22405058021104
 20
307.3572865299934
 30
0.0
 11
92.14313230001108
 21
307.1933070120933
 31
0.0
  0
LINE
  5
570F
330
1A
100
AcDbEntity
  8
SEIHIN
  6
CONTINUOUS
100
AcDbLine
 10
92.33352272001093
 20
307.5037880238933
 30
0.0
 11
92.22405058021104
 21
307.3572865299934
 31
0.0
  0
LINE
  5
5710
330
1A
100
AcDbEntity
  8
SEIHIN
  6
CONTINUOUS
100
AcDbLine
 10
92.46788870871069
 20
307.6279134708934
 30
0.0
 11
92.33352272001093
 21
307.5037880238933
 31
0.0
  0
LINE
  5
5711
330
1A
100
AcDbEntity
  8
SEIHIN
  6
CONTINUOUS
100
AcDbLine
 10
92.62265625291092
 20
307.7255129523935
 30
0.0
 11
92.46788870871069
 21
307.6279134708934
 31
0.0
  0
LINE
  5
5712
330
1A
100
AcDbEntity
  8
SEIHIN
  6
CONTINUOUS
100
AcDbLine
 10
92.79265096851077
 20
307.7933233992935
 30
0.0
 11
92.62265625291092
 21
307.7255129523935
 31
0.0
  0
LINE
  5
5713
330
1A
100
AcDbEntity
  8
SEIHIN
  6
CONTINUOUS
100
AcDbLine
 10
92.97218937771095
 20
307.8290776870933
 30
0.0
 11
92.79265096851077
 21
307.7933233992935
 31
0.0
  0
LINE
  5
5714
330
1A
100
AcDbEntity
  8
SEIHIN
  6
CONTINUOUS
100
AcDbLine
 10
93.15526892571098
 20
307.8315804332935
 30
0.0
 11
92.97218937771095
 21
307.8290776870933
 31
0.0
  0
LINE
  5
5715
330
1A
100
AcDbEntity
  8
SEIHIN
  6
CONTINUOUS
100
AcDbLine
 10
93.33576866581097
 20
307.8007479628934
 30
0.0
 11
93.15526892571098
 21
307.8315804332935
 31
0.0
  0
LINE
  5
5716
330
1A
100
AcDbEntity
  8
SEIHIN
  6
CONTINUOUS
100
AcDbLine
 10
92.28761308021104
 20
308.0802561190935
 30
0.0
 11
93.33576866581097
 21
307.8007479628934
 31
0.0
  0
LINE
  5
5717
330
1A
100
AcDbEntity
  8
SEIHIN
  6
CONTINUOUS
100
AcDbLine
 10
91.41973312311074
 20
307.9074216270935
 30
0.0
 11
91.57450066721095
 21
308.0050211085934
 31
0.0
  0
LINE
  5
5718
330
1A
100
AcDbEntity
  8
SEIHIN
  6
CONTINUOUS
100
AcDbLine
 10
91.28536713441098
 20
307.7832961799933
 30
0.0
 11
91.41973312311074
 21
307.9074216270935
 31
0.0
  0
LINE
  5
5719
330
1A
100
AcDbEntity
  8
SEIHIN
  6
CONTINUOUS
100
AcDbLine
 10
91.17589499451105
 20
307.6367946860934
 30
0.0
 11
91.28536713441098
 21
307.7832961799933
 31
0.0
  0
LINE
  5
571A
330
1A
100
AcDbEntity
  8
SEIHIN
  6
CONTINUOUS
100
AcDbLine
 10
91.09497671431086
 20
307.4728151682934
 30
0.0
 11
91.17589499451105
 21
307.6367946860934
 31
0.0
  0
LINE
  5
571B
330
1A
100
AcDbEntity
  8
SEIHIN
  6
CONTINUOUS
100
AcDbLine
 10
91.04531765591081
 20
307.2968399967933
 30
0.0
 11
91.09497671431086
 21
307.4728151682934
 31
0.0
  0
LINE
  5
571C
330
1A
100
AcDbEntity
  8
SEIHIN
  6
CONTINUOUS
100
AcDbLine
 10
91.02857808361068
 20
307.1147525957933
 30
0.0
 11
91.04531765591081
 21
307.2968399967933
 31
0.0
  0
LINE
  5
571D
330
1A
100
AcDbEntity
  8
NOKITOI
 48
0.5
100
AcDbLine
 10
95.10770153235625
 20
304.7765930549546
 30
0.0
 11
100.8329802630039
 21
303.1407990433935
 31
0.0
  0
LINE
  5
571E
330
1A
100
AcDbEntity
  8
SEIHIN
  6
CONTINUOUS
100
AcDbLine
 10
103.5285780836106
 20
303.1619696687935
 30
0.0
 11
103.5285780836106
 21
302.6619696687935
 31
0.0
  0
ARC
  5
571F
330
1A
100
AcDbEntity
  8
NOKITOI
 48
0.5
100
AcDbCircle
 10
113.8329784636755
 20
293.6408039388279
 30
0.0
 40
4.5
100
AcDbArc
 50
270.0
 51
359.9999891479971
  0
ARC
  5
5720
330
1A
100
AcDbEntity
  8
NOKITOI
 48
0.5
100
AcDbCircle
 10
117.8329786818487
 20
294.7927032304742
 30
0.0
 40
2.000000000000035
100
AcDbArc
 50
359.999989147971
 51
78.98029157818554
  0
ARC
  5
5721
330
1A
100
AcDbEntity
  8
NOKITOI
 48
0.5
100
AcDbCircle
 10
118.0329786267232
 20
294.5016541542488
 30
0.0
 40
0.3000000000000748
100
AcDbArc
 50
359.9999891480035
 51
113.7494664995843
  0
ARC
  5
5722
330
1A
100
AcDbEntity
  8
NOKITOI
 48
0.5
100
AcDbCircle
 10
113.8329784636755
 20
293.6408039388279
 30
0.0
 40
6.0
100
AcDbArc
 50
270.0
 51
359.9999891479971
  0
ARC
  5
5723
330
1A
100
AcDbEntity
  8
NOKITOI
 48
0.5
100
AcDbCircle
 10
110.9052801878508
 20
292.1408039388279
 30
0.0
 40
2.500000000000012
100
AcDbArc
 50
340.0168934781067
 51
9.067409553808996
  0
LINE
  5
5724
330
1A
100
AcDbEntity
  8
NOKITOI
 48
0.5
100
AcDbLine
 10
111.8450736113393
 20
291.7990608757413
 30
0.0
 11
110.5769334639319
 21
288.3116754703702
 31
0.0
  0
ARC
  5
5725
330
1A
100
AcDbEntity
  8
NOKITOI
 48
0.5
100
AcDbCircle
 10
111.0468301756757
 20
288.140803938827
 30
0.0
 40
0.5000000000000025
100
AcDbArc
 50
160.0168934781066
 51
270.0
  0
ARC
  5
5726
330
1A
100
AcDbEntity
  8
NOKITOI
 48
0.5
100
AcDbCircle
 10
112.9028401651246
 20
289.4408039388276
 30
0.0
 40
0.300000000000118
100
AcDbArc
 50
160.0168934780997
 51
270.0
  0
LINE
  5
5727
330
1A
100
AcDbEntity
  8
NOKITOI
 48
0.5
100
AcDbLine
 10
113.8329784636755
 20
289.1408039388279
 30
0.0
 11
112.9028401651246
 21
289.1408039388277
 31
0.0
  0
LINE
  5
5728
330
1A
100
AcDbEntity
  8
NOKITOI
 48
0.5
100
AcDbLine
 10
113.2547637465715
 20
291.2864462811112
 30
0.0
 11
112.620902138078
 21
289.5433268577537
 31
0.0
  0
LINE
  5
5729
330
1A
100
AcDbEntity
  8
NOKITOI
 48
0.5
100
AcDbLine
 10
113.8329784636775
 20
287.6408039388279
 30
0.0
 11
111.0468301756759
 21
287.640803938827
 31
0.0
  0
LINE
  5
572A
330
1A
100
AcDbEntity
  8
NOKITOI
 48
0.5
100
AcDbLine
 10
105.2972521461208
 20
293.1408039388279
 30
0.0
 11
110.9052801878508
 21
293.1408039388279
 31
0.0
  0
LINE
  5
572B
330
1A
100
AcDbEntity
  8
NOKITOI
 48
0.5
100
AcDbLine
 10
105.2972521461208
 20
294.6408039388279
 30
0.0
 11
111.6422313183313
 21
294.6408039388279
 31
0.0
  0
LINE
  5
572C
330
1A
100
AcDbEntity
  8
SEIHIN
  6
CONTINUOUS
100
AcDbLine
 10
103.5285780836106
 20
302.6619696687935
 30
0.0
 11
103.4440212729109
 21
302.1654612822933
 31
0.0
  0
LINE
  5
572D
330
1A
100
AcDbEntity
  8
SEIHIN
  6
CONTINUOUS
100
AcDbLine
 10
102.3578547538108
 20
301.1985569195933
 30
0.0
 11
102.0285780836106
 21
301.1619696687935
 31
0.0
  0
LINE
  5
572E
330
1A
100
AcDbEntity
  8
SEIHIN
  6
CONTINUOUS
100
AcDbLine
 10
102.823690832311
 20
301.3900436815934
 30
0.0
 11
102.3578547538108
 21
301.1985569195933
 31
0.0
  0
LINE
  5
572F
330
1A
100
AcDbEntity
  8
SEIHIN
  6
CONTINUOUS
100
AcDbLine
 10
103.1998839799107
 20
301.7249304500933
 30
0.0
 11
102.823690832311
 21
301.3900436815934
 31
0.0
  0
LINE
  5
5730
330
1A
100
AcDbEntity
  8
SEIHIN
  6
CONTINUOUS
100
AcDbLine
 10
103.4440212729109
 20
302.1654612822933
 30
0.0
 11
103.1998839799107
 21
301.7249304500933
 31
0.0
  0
LINE
  5
5731
330
1A
100
AcDbEntity
  8
NOKITOI
 48
0.5
100
AcDbLine
 10
113.5494688429114
 20
292.8566684003369
 30
0.0
 11
117.9121571766033
 21
294.7762487230061
 31
0.0
  0
LINE
  5
5732
330
1A
100
AcDbEntity
  8
NOKITOI
 48
0.5
100
AcDbLine
 10
118.3329784636755
 20
293.6408030865134
 30
0.0
 11
118.3329786267233
 21
294.5016540974279
 31
0.0
  0
LINE
  5
5733
330
1A
100
AcDbEntity
  8
NOKITOI
 48
0.5
100
AcDbLine
 10
112.8888326082462
 20
294.2047685240995
 30
0.0
 11
115.9739817546408
 21
295.5622323493705
 31
0.0
  0
ARC
  5
5734
330
1A
100
AcDbEntity
  8
NOKITOI
 48
0.5
100
AcDbCircle
 10
113.6702902930312
 20
292.5820738315796
 30
0.0
 40
0.2999999999999199
100
AcDbArc
 50
113.7494664995843
 51
189.0674095538221
  0
ARC
  5
5735
330
1A
100
AcDbEntity
  8
NOKITOI
 48
0.5
100
AcDbCircle
 10
111.6422313183313
 20
292.6408039388279
 30
0.0
 40
2.000000000000145
100
AcDbArc
 50
51.44243227598056
 51
90.0
  0
ARC
  5
5736
330
1A
100
AcDbEntity
  8
NOKITOI
 48
0.5
100
AcDbCircle
 10
110.9052801878508
 20
292.1408039388279
 30
0.0
 40
1.000000000000004
100
AcDbArc
 50
340.0168934781067
 51
90.0
  0
LINE
  5
5737
330
1A
100
AcDbEntity
  8
NOKITOI
 48
0.5
100
AcDbLine
 10
119.8329784636755
 20
293.6408028024105
 30
0.0
 11
119.8329786818485
 21
294.7927028516684
 31
0.0
  0
LINE
  5
5738
330
1A
100
AcDbEntity
  8
SEIHIN
  6
CONTINUOUS
100
AcDbLine
 10
103.4624282714107
 20
304.3707858792934
 30
0.0
 11
103.5285780836106
 21
303.9302479818934
 31
0.0
  0
LINE
  5
5739
330
1A
100
AcDbEntity
  8
SEIHIN
  6
CONTINUOUS
100
AcDbLine
 10
103.5285780836106
 20
303.9302479818934
 30
0.0
 11
103.5285780836106
 21
303.5461088252934
 31
0.0
  0
LINE
  5
573A
330
1A
100
AcDbEntity
  8
SEIHIN
  6
CONTINUOUS
100
AcDbLine
 10
103.5285780836106
 20
303.1619696687935
 30
0.0
 11
103.5285780836106
 21
303.5461088252934
 31
0.0
  0
LINE
  5
573B
330
1A
100
AcDbEntity
  8
SEIHIN
  6
CONTINUOUS
100
AcDbLine
 10
102.8730286783106
 20
305.1699669794934
 30
0.0
 11
103.2357798984107
 21
304.8205646549934
 31
0.0
  0
LINE
  5
573C
330
1A
100
AcDbEntity
  8
SEIHIN
  6
CONTINUOUS
100
AcDbLine
 10
102.4150720595107
 20
305.3796003912935
 30
0.0
 11
102.8730286783106
 21
305.1699669794934
 31
0.0
  0
LINE
  5
573D
330
1A
100
AcDbEntity
  8
SEIHIN
  6
CONTINUOUS
100
AcDbLine
 10
102.043903384711
 20
305.4785787044934
 30
0.0
 11
102.4150720595107
 21
305.3796003912935
 31
0.0
  0
LINE
  5
573E
330
1A
100
AcDbEntity
  8
SEIHIN
  6
CONTINUOUS
100
AcDbLine
 10
103.2357798984107
 20
304.8205646549934
 30
0.0
 11
103.4624282714107
 21
304.3707858792934
 31
0.0
  0
LINE
  5
573F
330
1A
100
AcDbEntity
  8
SEIHIN
  6
CONTINUOUS
100
AcDbLine
 10
249.6753041917108
 20
307.0498571495934
 30
0.0
 11
249.4753422703106
 21
307.3358242769934
 31
0.0
  0
LINE
  5
5740
330
1A
100
AcDbEntity
  8
SEIHIN
  6
CONTINUOUS
100
AcDbLine
 10
248.2905497394108
 20
308.0208033035935
 30
0.0
 11
247.9432533841109
 21
308.0512294955933
 31
0.0
  0
LINE
  5
5741
330
1A
100
AcDbEntity
  8
SEIHIN
  6
CONTINUOUS
100
AcDbLine
 10
248.6272936707109
 20
307.9304492119934
 30
0.0
 11
248.2905497394108
 21
308.0208033035935
 31
0.0
  0
LINE
  5
5742
330
1A
100
AcDbEntity
  8
SEIHIN
  6
CONTINUOUS
100
AcDbLine
 10
248.9432533841108
 20
307.7829125840935
 30
0.0
 11
248.6272936707109
 21
307.9304492119934
 31
0.0
  0
LINE
  5
5743
330
1A
100
AcDbEntity
  8
SEIHIN
  6
CONTINUOUS
100
AcDbLine
 10
249.2288286035109
 20
307.5826762458934
 30
0.0
 11
248.9432533841108
 21
307.7829125840935
 31
0.0
  0
LINE
  5
5744
330
1A
100
AcDbEntity
  8
SEIHIN
  6
CONTINUOUS
100
AcDbLine
 10
249.4753422703106
 20
307.3358242769934
 30
0.0
 11
249.2288286035109
 21
307.5826762458934
 31
0.0
  0
LINE
  5
5745
330
1A
100
AcDbEntity
  8
SEIHIN
  6
CONTINUOUS
100
AcDbLine
 10
249.8226386257111
 20
306.7334638301933
 30
0.0
 11
249.6753041917108
 21
307.0498571495934
 31
0.0
  0
LINE
  5
5746
330
1A
100
AcDbEntity
  8
SEIHIN
  6
CONTINUOUS
100
AcDbLine
 10
249.9128688901109
 20
306.3962577696934
 30
0.0
 11
249.8226386257111
 21
306.7334638301933
 31
0.0
  0
LINE
  5
5747
330
1A
100
AcDbEntity
  8
SEIHIN
  6
CONTINUOUS
100
AcDbLine
 10
249.9432533841109
 20
306.0484848035935
 30
0.0
 11
249.9128688901109
 21
306.3962577696934
 31
0.0
  0
LINE
  5
5748
330
1A
100
AcDbEntity
  8
SEIHIN
100
AcDbLine
 10
299.2090138987339
 20
303.8967692875936
 30
0.0
 11
286.609013898734
 21
303.6596173363936
 31
0.0
  0
LINE
  5
5749
330
1A
100
AcDbEntity
  8
SEIHIN
100
AcDbLine
 10
299.2090138987336
 20
301.1619696687938
 30
0.0
 11
281.3325333928337
 21
301.1619696687938
 31
0.0
  0
LINE
  5
574A
330
1A
100
AcDbEntity
  8
SEIHIN
100
AcDbLine
 10
289.3090138987342
 20
305.4352837109937
 30
0.0
 11
299.2090138987339
 21
305.3882266003937
 31
0.0
  0
LINE
  5
574B
330
1A
100
AcDbEntity
  8
SEIHIN
100
AcDbLine
 10
289.3090138987342
 20
302.9432601751937
 30
0.0
 11
299.2090138987339
 21
302.7055459272936
 31
0.0
  0
LINE
  5
574C
330
1A
100
AcDbEntity
  8
SEIHIN
100
AcDbLine
 10
304.0062556237837
 20
284.1619696687936
 30
0.0
 11
276.7090138987337
 21
283.6619696687936
 31
0.0
  0
LINE
  5
574D
330
1A
100
AcDbEntity
  8
SEIHIN
100
AcDbLine
 10
297.3532902685338
 20
308.0806220779935
 30
0.0
 11
303.212106265134
 21
307.7735745423936
 31
0.0
  0
LINE
  5
574E
330
1A
100
AcDbEntity
  8
SEIHIN
100
AcDbLine
 10
276.7090138987337
 20
301.2254779956937
 30
0.0
 11
276.7090138987337
 21
303.1619696687938
 31
0.0
  0
LINE
  5
574F
330
1A
100
AcDbEntity
  8
SEIHIN
100
AcDbLine
 10
276.7090138987339
 20
303.1619696687937
 30
0.0
 11
289.3090138987342
 21
302.9432601751937
 31
0.0
  0
LINE
  5
5750
330
1A
100
AcDbEntity
  8
SEIHIN
100
AcDbLine
 10
276.7090138987337
 20
283.6619696687936
 30
0.0
 11
276.7090138987337
 21
301.1176219767936
 31
0.0
  0
LINE
  5
5751
330
1A
100
AcDbEntity
  8
SEIHIN
100
AcDbLine
 10
278.3474218222343
 20
301.1896295599937
 30
0.0
 11
276.7090138987339
 21
301.2254779956937
 31
0.0
  0
LINE
  5
5752
330
1A
100
AcDbEntity
  8
SEIHIN
100
AcDbLine
 10
281.3325333928339
 20
301.1619696687937
 30
0.0
 11
278.3474218222343
 21
301.1896295599937
 31
0.0
  0
LINE
  5
5753
330
1A
100
AcDbEntity
  8
SEIHIN
100
AcDbLine
 10
276.7090138987339
 20
305.4785787045937
 30
0.0
 11
289.3090138987342
 21
305.4352837109937
 31
0.0
  0
LINE
  5
5754
330
1A
100
AcDbEntity
  8
SEIHIN
100
AcDbLine
 10
296.713056203534
 20
308.1141753235937
 30
0.0
 11
276.7090138987337
 21
307.8346106745938
 31
0.0
  0
LINE
  5
5755
330
1A
100
AcDbEntity
  8
SEIHIN
100
AcDbLine
 10
296.7351998202338
 20
308.0806220779935
 30
0.0
 11
276.7090138987337
 21
307.8007479628937
 31
0.0
  0
LINE
  5
5756
330
1A
100
AcDbEntity
  8
SEIHIN
100
AcDbLine
 10
286.609013898734
 20
303.6596173363936
 30
0.0
 11
276.7090138987339
 21
303.5461088253937
 31
0.0
  0
LINE
  5
5757
330
1A
100
AcDbEntity
  8
SEIHIN
100
AcDbLine
 10
276.7090138987337
 20
303.1619696687938
 30
0.0
 11
276.7090138987337
 21
303.5461088253936
 31
0.0
  0
LINE
  5
5758
330
1A
100
AcDbEntity
  8
SEIHIN
100
AcDbLine
 10
276.7090138987337
 20
305.4785787045938
 30
0.0
 11
276.7090138987337
 21
307.8007479628937
 31
0.0
  0
LINE
  5
5759
330
1A
100
AcDbEntity
  8
SEIHIN
100
AcDbLine
 10
276.7090138987337
 20
303.5461088253936
 30
0.0
 11
276.7090138987337
 21
305.4785787045938
 31
0.0
  0
LINE
  5
575A
330
1A
100
AcDbEntity
  8
SEIHIN
100
AcDbLine
 10
276.7090138987337
 20
307.8007479628937
 30
0.0
 11
276.7090138987337
 21
307.8346106745938
 31
0.0
  0
LINE
  5
575B
330
1A
100
AcDbEntity
  8
SEIHIN
100
AcDbLine
 10
296.733265348734
 20
308.0965500368937
 30
0.0
 11
296.7351998202341
 21
308.0806220779936
 31
0.0
  0
LINE
  5
575C
330
1A
100
AcDbEntity
  8
SEIHIN
100
AcDbLine
 10
296.731340747234
 20
308.1074668783936
 30
0.0
 11
296.733265348734
 21
308.0965500368937
 31
0.0
  0
LINE
  5
575D
330
1A
100
AcDbEntity
  8
SEIHIN
100
AcDbLine
 10
296.7294358351339
 20
308.1133169034937
 30
0.0
 11
296.731340747234
 21
308.1074668783936
 31
0.0
  0
LINE
  5
575E
330
1A
100
AcDbEntity
  8
SEIHIN
100
AcDbLine
 10
297.3532902685338
 20
308.0806220779935
 30
0.0
 11
296.7294358351336
 21
308.1133169034937
 31
0.0
  0
LINE
  5
575F
330
1A
100
AcDbEntity
  8
SEIHIN
100
AcDbLine
 10
297.3532902685338
 20
308.0806220779935
 30
0.0
 11
296.7351998202338
 21
308.0806220779935
 31
0.0
  0
LINE
  5
5760
330
1A
100
AcDbEntity
  8
SEIHIN
100
AcDbLine
 10
296.7294358351336
 20
308.1133169034937
 30
0.0
 11
296.7130750707338
 21
308.1141743347938
 31
0.0
  0
LINE
  5
5761
330
1A
100
AcDbEntity
  8
SEIHIN
100
AcDbLine
 10
307.2090138987336
 20
285.1619696687936
 30
0.0
 11
307.2090138987336
 21
305.5613607973936
 31
0.0
  0
LINE
  5
5762
330
1A
100
AcDbEntity
  8
SEIHIN
100
AcDbLine
 10
309.7090138987336
 20
305.4827491283937
 30
0.0
 11
309.7090138987336
 21
281.6619696687936
 31
0.0
  0
ARC
  5
5763
330
1A
100
AcDbEntity
  8
SEIHIN
100
AcDbCircle
 10
306.2090138987337
 20
285.1619696687936
 30
0.0
 40
1.0
100
AcDbArc
 50
270.0
 51
0.0
  0
LINE
  5
5764
330
1A
100
AcDbEntity
  8
SEIHIN
100
AcDbLine
 10
309.7090138987336
 20
281.6619696687936
 30
0.0
 11
306.7090138987337
 21
281.6619696687936
 31
0.0
  0
ARC
  5
5765
330
1A
100
AcDbEntity
  8
SEIHIN
100
AcDbCircle
 10
305.2090138987336
 20
283.1619696687936
 30
0.0
 40
1.0
100
AcDbArc
 50
90.0
 51
180.0
  0
LINE
  5
5766
330
1A
100
AcDbEntity
  8
SEIHIN
100
AcDbLine
 10
304.2090138987337
 20
284.1619696687936
 30
0.0
 11
305.2090138987336
 21
284.1619696687936
 31
0.0
  0
LINE
  5
5767
330
1A
100
AcDbEntity
  8
SEIHIN
100
AcDbLine
 10
303.8034973488338
 20
284.1619696687936
 30
0.0
 11
304.2090138987337
 21
284.1619696687936
 31
0.0
  0
LINE
  5
5768
330
1A
100
AcDbEntity
  8
SEIHIN
100
AcDbLine
 10
305.2090138987336
 20
284.1619696687936
 30
0.0
 11
306.2090138987337
 21
284.1619696687936
 31
0.0
  0
LINE
  5
5769
330
1A
100
AcDbEntity
  8
SEIHIN
100
AcDbLine
 10
307.2090138987336
 20
302.7055459272936
 30
0.0
 11
299.2090138987336
 21
302.7055459272936
 31
0.0
  0
LINE
  5
576A
330
1A
100
AcDbEntity
  8
SEIHIN
100
AcDbLine
 10
307.2090138987336
 20
301.1619696687938
 30
0.0
 11
299.2090138987336
 21
301.1619696687938
 31
0.0
  0
LINE
  5
576B
330
1A
100
AcDbEntity
  8
SEIHIN
100
AcDbLine
 10
307.2090138987336
 20
307.7735745423936
 30
0.0
 11
303.212106265134
 21
307.7735745423936
 31
0.0
  0
LINE
  5
576C
330
1A
100
AcDbEntity
  8
SEIHIN
100
AcDbLine
 10
307.2090138987336
 20
305.3882266003937
 30
0.0
 11
299.2090138987336
 21
305.3882266003937
 31
0.0
  0
LINE
  5
576D
330
1A
100
AcDbEntity
  8
SEIHIN
100
AcDbLine
 10
307.2090138987336
 20
303.8967692875936
 30
0.0
 11
299.2090138987336
 21
303.8967692875936
 31
0.0
  0
LINE
  5
576E
330
1A
100
AcDbEntity
  8
SEIHIN
100
AcDbLine
 10
307.2090138987336
 20
307.5641054893937
 30
0.0
 11
308.761349854934
 21
307.4827510091937
 31
0.0
  0
LINE
  5
576F
330
1A
100
AcDbEntity
  8
SEIHIN
100
AcDbLine
 10
307.2090138987336
 20
305.5613607973936
 30
0.0
 11
307.2090138987336
 21
307.5641054893937
 31
0.0
  0
LINE
  5
5770
330
1A
100
AcDbEntity
  8
SEIHIN
100
AcDbLine
 10
307.2090138987336
 20
307.7735745423936
 30
0.0
 11
307.2090138987336
 21
307.5641054893937
 31
0.0
  0
ARC
  5
5771
330
1A
100
AcDbEntity
  8
SEIHIN
100
AcDbCircle
 10
308.7090138987337
 20
306.4841214743936
 30
0.0
 40
1.0
100
AcDbArc
 50
0.0
 51
86.99999999999441
  0
LINE
  5
5772
330
1A
100
AcDbEntity
  8
SEIHIN
100
AcDbLine
 10
309.7090138987336
 20
305.4827491283937
 30
0.0
 11
309.7090138987336
 21
306.4841214743936
 31
0.0
  0
DIMENSION
  5
5773
330
1A
100
AcDbEntity
  8
SUNPOU
100
AcDbDimension
  2
*D2
 10
638.5222462666627
 20
255.4462574969768
 30
0.0
 11
620.5222462666626
 21
260.4462574969768
 31
0.0
 70
    32
  3
STANDARD
100
AcDbAlignedDimension
 13
641.5222462666626
 23
281.5990248295932
 33
0.0
 14
638.5222462666627
 24
281.5990248295932
 34
0.0
100
AcDbRotatedDimension
1001
ACAD
1000
DSTYLE
1002
{
1070
    41
1040
7.0
1070
    42
1040
6.0
1070
    43
1040
14.0
1070
    44
1040
3.0
1070
    73
1070
     0
1070
    74
1070
     0
1070
    77
1070
     3
1070
   140
1040
6.0
1070
   141
1040
30.0
1070
   147
1040
2.0
1070
   172
1070
     1
1070
   176
1070
   256
1070
   177
1070
   256
1070
   178
1070
   256
1070
   271
1070
     0
1070
   272
1070
     0
1070
   341
1005
6D
1070
     5
1000
OPEN
1070
   371
1070
    -1
1070
   372
1070
    -1
1002
}
  0
ARC
  5
5774
330
1A
100
AcDbEntity
  8
SEIHIN
  6
CONTINUOUS
100
AcDbCircle
 10
885.7344844295162
 20
78.93128163789345
 30
0.0
 40
387.5
100
AcDbArc
 50
148.4544686359928
 51
165.3541655469979
  0
LINE
  5
5775
330
1A
100
AcDbEntity
  8
SEIHIN
  6
CONTINUOUS
100
AcDbLine
 10
399.9869327576154
 20
261.1238954642934
 30
0.0
 11
399.9869327576154
 21
306.0484848033951
 31
0.0
  0
LINE
  5
5776
330
1A
100
AcDbEntity
  8
SEIHIN
100
AcDbLine
 10
671.5222462666629
 20
282.6471804152932
 30
0.0
 11
671.5222462666629
 21
177.8913054318932
 31
0.0
  0
LINE
  5
5777
330
1A
100
AcDbEntity
  8
SEIHIN
100
AcDbLine
 10
641.5222462666626
 20
177.0990248295931
 30
0.0
 11
641.5222462666626
 21
281.5990248295932
 31
0.0
  0
DIMENSION
  5
5778
330
1A
100
AcDbEntity
  8
SUNPOU
100
AcDbDimension
  2
*D3
 10
607.2323782489887
 20
166.1619696687937
 30
0.0
 11
602.2323782489886
 21
237.1065995821937
 31
0.0
 70
    32
  3
STANDARD
100
AcDbAlignedDimension
 13
557.5337232234153
 23
308.0512294955934
 33
0.0
 14
455.8516080581157
 24
166.1619696687937
 34
0.0
 50
90.0
100
AcDbRotatedDimension
1001
ACAD
1000
DSTYLE
1002
{
1070
    41
1040
7.0
1070
    42
1040
6.0
1070
    43
1040
14.0
1070
    44
1040
3.0
1070
    73
1070
     0
1070
    74
1070
     0
1070
    77
1070
     3
1070
   140
1040
6.0
1070
   141
1040
30.0
1070
   147
1040
2.0
1070
   172
1070
     1
1070
   173
1070
     1
1070
   176
1070
   256
1070
   177
1070
   256
1070
   178
1070
   256
1070
   271
1070
     0
1070
   272
1070
     0
1070
   341
1005
53AC
1070
     6
1000
OPEN
1070
     7
1000
OPEN
1070
   371
1070
    -1
1070
   372
1070
    -1
1002
}
  0
LINE
  5
5779
330
1A
100
AcDbEntity
  8
SEIHIN
100
AcDbLine
 10
671.5222462666629
 20
177.1471804152931
 30
0.0
 11
651.522304362463
 21
176.0990278742931
 31
0.0
  0
LINE
  5
577A
330
1A
100
AcDbEntity
  8
SEIHIN
100
AcDbLine
 10
651.5222462666627
 20
166.0990248295932
 30
0.0
 11
671.5222462666629
 21
167.1471804152931
 31
0.0
  0
ARC
  5
577B
330
1A
100
AcDbEntity
  8
SEIHIN
  6
CONTINUOUS
100
AcDbCircle
 10
1396.571694739816
 20
347.9312764421935
 30
0.0
 40
1002.5
100
AcDbArc
 50
186.8445902095019
 51
190.0427752599957
  0
DIMENSION
  5
577C
330
1A
100
AcDbEntity
  8
SUNPOU
100
AcDbDimension
  2
*D4
 10
410.4995681481453
 20
126.5626638470578
 30
0.0
 11
455.7541824269414
 21
131.5626638470578
 31
0.0
 70
    32
  3
STANDARD
100
AcDbAlignedDimension
 13
501.0087967057375
 23
167.1795293267557
 33
0.0
 14
410.4995681481453
 24
167.1883342314922
 34
0.0
100
AcDbRotatedDimension
1001
ACAD
1000
DSTYLE
1002
{
1070
    41
1040
7.0
1070
    42
1040
6.0
1070
    43
1040
14.0
1070
    44
1040
3.0
1070
    73
1070
     0
1070
    74
1070
     0
1070
    77
1070
     3
1070
   140
1040
6.0
1070
   141
1040
30.0
1070
   147
1040
2.0
1070
   172
1070
     1
1070
   176
1070
   256
1070
   177
1070
   256
1070
   178
1070
   256
1070
   271
1070
     0
1070
   272
1070
     0
1070
   341
1005
6D
1070
     5
1000
OPEN
1070
   371
1070
    -1
1070
   372
1070
    -1
1002
}
  0
LINE
  5
577D
330
1A
100
AcDbEntity
  8
SEIHIN
  6
CONTINUOUS
100
AcDbLine
 10
408.896872113165
 20
176.1619696687936
 30
0.0
 11
509.859257364816
 21
176.1619696687935
 31
0.0
  0
ARC
  5
577E
330
1A
100
AcDbEntity
  8
SEIHIN
  6
CONTINUOUS
100
AcDbCircle
 10
455.8516080581162
 20
1168.661969668793
 30
0.0
 40
1002.499999999999
100
AcDbArc
 50
267.7511200987916
 51
272.4995492570917
  0
ARC
  5
577F
330
1A
100
AcDbEntity
  8
SEIHIN
100
AcDbCircle
 10
416.8046677186167
 20
174.4152283435836
 30
0.0
 40
7.486811419268768
100
AcDbArc
 50
190.0248322612112
 51
267.7690630964688
  0
LINE
  5
5780
330
1A
100
AcDbEntity
  8
CENTER_L
  6
CENTER
 48
5.0
100
AcDbLine
 10
455.8516080581157
 20
177.4011096180682
 30
0.0
 11
455.8516080581157
 21
156.7369329330634
 31
0.0
  0
ARC
  5
5781
330
1A
100
AcDbEntity
  8
SEIHIN
100
AcDbCircle
 10
504.3375202749619
 20
175.1636772519508
 30
0.0
 40
0.9982924491592159
100
AcDbArc
 50
89.98542120692828
 51
164.0095601590548
  0
ARC
  5
5782
330
1A
100
AcDbEntity
  8
SEIHIN
100
AcDbCircle
 10
499.3813820182253
 20
169.2426717662865
 30
0.0
 40
2.135427715389831
100
AcDbArc
 50
275.1257372701104
 51
341.3687933576198
  0
LINE
  5
5783
330
1A
100
AcDbEntity
  8
SEIHIN
  6
CONTINUOUS
100
AcDbLine
 10
501.4049016736162
 20
168.5604549884934
 30
0.0
 11
503.3778540823163
 21
175.4386838204934
 31
0.0
  0
ARC
  5
5784
330
1A
100
AcDbEntity
  8
SEIHIN
100
AcDbCircle
 10
509.8595351116637
 20
177.1602395438482
 30
0.0
 40
0.9982699136932215
100
AcDbArc
 50
269.9840586978319
 51
345.3701068338704
  0
LINE
  5
5785
330
1A
100
AcDbEntity
  8
SEIHIN
  6
CONTINUOUS
100
AcDbLine
 10
400.3384746116155
 20
248.0262867663934
 30
0.0
 11
401.2164520882154
 21
228.4566309060934
 31
0.0
  0
LINE
  5
5786
330
1A
100
AcDbEntity
  8
SEIHIN
  6
CONTINUOUS
100
AcDbLine
 10
400.4563535173153
 20
250.6607537952934
 30
0.0
 11
399.9869327576154
 21
261.1238954642934
 31
0.0
  0
LINE
  5
5787
330
1A
100
AcDbEntity
  8
SEIHIN
  6
CONTINUOUS
100
AcDbLine
 10
400.4563535173153
 20
250.6607537952934
 30
0.0
 11
400.4039418844156
 21
250.2330226605935
 31
0.0
  0
LINE
  5
5788
330
1A
100
AcDbEntity
  8
SEIHIN
  6
CONTINUOUS
100
AcDbLine
 10
400.4039418844156
 20
250.2330226605935
 30
0.0
 11
400.3644972331155
 21
249.7986957409934
 31
0.0
  0
LINE
  5
5789
330
1A
100
AcDbEntity
  8
SEIHIN
  6
CONTINUOUS
100
AcDbLine
 10
400.3644972331155
 20
249.7986957409934
 30
0.0
 11
400.3381586124153
 21
249.3593041139935
 31
0.0
  0
LINE
  5
578A
330
1A
100
AcDbEntity
  8
SEIHIN
  6
CONTINUOUS
100
AcDbLine
 10
400.3381586124153
 20
249.3593041139935
 30
0.0
 11
400.3250188706154
 21
248.9163967108935
 31
0.0
  0
LINE
  5
578B
330
1A
100
AcDbEntity
  8
SEIHIN
  6
CONTINUOUS
100
AcDbLine
 10
400.3251243276156
 20
248.4715348566934
 30
0.0
 11
400.3384746116155
 21
248.0262867663934
 31
0.0
  0
LINE
  5
578C
330
1A
100
AcDbEntity
  8
SEIHIN
  6
CONTINUOUS
100
AcDbLine
 10
400.3250188706154
 20
248.9163967108935
 30
0.0
 11
400.3251243276156
 21
248.4715348566934
 31
0.0
  0
DIMENSION
  5
578D
330
1A
100
AcDbEntity
  8
SUNPOU
100
AcDbDimension
  2
*D5
 10
641.5222462666626
 20
126.5626638470578
 30
0.0
 11
623.5222462666627
 21
131.5626638470578
 31
0.0
 70
    32
  3
STANDARD
100
AcDbAlignedDimension
 13
644.5222462666627
 23
168.3638084179932
 33
0.0
 14
641.5222462666626
 24
177.0990248295931
 34
0.0
100
AcDbRotatedDimension
1001
ACAD
1000
DSTYLE
1002
{
1070
    41
1040
7.0
1070
    42
1040
6.0
1070
    43
1040
14.0
1070
    44
1040
3.0
1070
    73
1070
     0
1070
    74
1070
     0
1070
    77
1070
     3
1070
   140
1040
6.0
1070
   141
1040
30.0
1070
   147
1040
2.0
1070
   172
1070
     1
1070
   176
1070
   256
1070
   177
1070
   256
1070
   178
1070
   256
1070
   271
1070
     0
1070
   272
1070
     0
1070
   341
1005
6D
1070
     5
1000
OPEN
1070
   371
1070
    -1
1070
   372
1070
    -1
1002
}
  0
LINE
  5
578E
330
1A
100
AcDbEntity
  8
SEIHIN
100
AcDbLine
 10
651.5222462666627
 20
176.0990248295931
 30
0.0
 11
642.5222462666627
 21
176.0990248295931
 31
0.0
  0
ARC
  5
578F
330
1A
100
AcDbEntity
  8
SEIHIN
100
AcDbCircle
 10
642.5222462666627
 20
177.0990248295931
 30
0.0
 40
1.0
100
AcDbArc
 50
180.0
 51
270.0
  0
ARC
  5
5790
330
1A
100
AcDbEntity
  8
SEIHIN
100
AcDbCircle
 10
643.5222462666627
 20
175.0990248295931
 30
0.0
 40
1.0
100
AcDbArc
 50
0.0
 51
90.0
  0
LINE
  5
5791
330
1A
100
AcDbEntity
  8
SEIHIN
100
AcDbLine
 10
644.5222462666627
 20
169.3070878562932
 30
0.0
 11
644.5222462666627
 21
175.0990248295931
 31
0.0
  0
LINE
  5
5792
330
1A
100
AcDbEntity
  8
SEIHIN
100
AcDbLine
 10
644.5222462666627
 20
168.3638084179932
 30
0.0
 11
644.5222462666627
 21
169.3070878562932
 31
0.0
  0
ARC
  5
5793
330
1A
100
AcDbEntity
  8
SEIHIN
100
AcDbCircle
 10
646.5222462666627
 20
168.3638084179932
 30
0.0
 40
2.0
100
AcDbArc
 50
180.0
 51
267.0000000000009
  0
LINE
  5
5794
330
1A
100
AcDbEntity
  8
SEIHIN
100
AcDbLine
 10
646.417574354163
 20
166.3665493484932
 30
0.0
 11
651.5222462666627
 21
166.0990248295932
 31
0.0
  0
LINE
  5
5795
330
1A
100
AcDbEntity
  8
SEIHIN
100
AcDbLine
 10
671.5222462666629
 20
176.4238945669932
 30
0.0
 11
671.5222462666629
 21
169.5120521619932
 31
0.0
  0
LINE
  5
5796
330
1A
100
AcDbEntity
  8
SEIHIN
100
AcDbLine
 10
671.5222462666629
 20
169.5120521619932
 30
0.0
 11
671.5222462666629
 21
168.0673155492931
 31
0.0
  0
LINE
  5
5797
330
1A
100
AcDbEntity
  8
SEIHIN
100
AcDbLine
 10
671.5222462666629
 20
168.0673155492931
 30
0.0
 11
671.5222462666629
 21
167.1471804152931
 31
0.0
  0
LINE
  5
5798
330
1A
100
AcDbEntity
  8
SEIHIN
100
AcDbLine
 10
671.5222462666629
 20
177.8913054318932
 30
0.0
 11
671.5222462666629
 21
177.1471804152931
 31
0.0
  0
LINE
  5
5799
330
1A
100
AcDbEntity
  8
SEIHIN
100
AcDbLine
 10
671.5222462666629
 20
177.1471804152931
 30
0.0
 11
671.5222462666629
 21
176.4238945669932
 31
0.0
  0
LINE
  5
579A
330
1A
100
AcDbEntity
  8
SEIHIN
100
AcDbLine
 10
671.5222462666629
 20
307.7716658353932
 30
0.0
 11
651.5182101888629
 21
308.0512303973931
 31
0.0
  0
LINE
  5
579B
330
1A
100
AcDbEntity
  8
SEIHIN
100
AcDbLine
 10
671.5222462666629
 20
282.6471804152932
 30
0.0
 11
651.52224626666
 21
281.599024829593
 31
0.0
  0
DIMENSION
  5
579C
330
1A
100
AcDbEntity
  8
SUNPOU
100
AcDbDimension
  2
*D6
 10
638.5222462666627
 20
339.8483264708057
 30
0.0
 11
655.0222462666628
 21
344.8483264708057
 31
0.0
 70
    32
  3
STANDARD
100
AcDbAlignedDimension
 13
671.5222462666629
 23
307.7716658353932
 33
0.0
 14
638.5222462666627
 24
306.4211766351931
 34
0.0
 50
180.0
100
AcDbRotatedDimension
1001
ACAD
1000
DSTYLE
1002
{
1070
    41
1040
7.0
1070
    42
1040
6.0
1070
    43
1040
14.0
1070
    44
1040
3.0
1070
    73
1070
     0
1070
    74
1070
     0
1070
    77
1070
     3
1070
   140
1040
6.0
1070
   141
1040
30.0
1070
   147
1040
2.0
1070
   172
1070
     1
1070
   173
1070
     1
1070
   176
1070
   256
1070
   177
1070
   256
1070
   178
1070
   256
1070
   271
1070
     0
1070
   272
1070
     0
1070
   341
1005
53AC
1070
     6
1000
OPEN
1070
     7
1000
OPEN
1070
   371
1070
    -1
1070
   372
1070
    -1
1002
}
  0
LINE
  5
579D
330
1A
100
AcDbEntity
  8
SEIHIN
100
AcDbLine
 10
399.9869327576154
 20
407.1738481612328
 30
0.0
 11
546.4016080581156
 21
407.1738481612328
 31
0.0
  0
LINE
  5
579E
330
1A
100
AcDbEntity
  8
SEIHIN
100
AcDbLine
 10
557.2713423607155
 20
401.6738481612328
 30
0.0
 11
401.9869327576154
 21
401.6738481612328
 31
0.0
  0
LINE
  5
579F
330
1A
100
AcDbEntity
  8
SEIHIN
100
AcDbLine
 10
401.9869327576154
 20
404.1738481612328
 30
0.0
 11
555.7070081999156
 21
404.1738481612328
 31
0.0
  0
LINE
  5
57A0
330
1A
100
AcDbEntity
  8
SEIHIN
100
AcDbLine
 10
401.3801582281155
 20
434.6738481612328
 30
0.0
 11
557.8534524724156
 21
434.673848161233
 31
0.0
  0
DIMENSION
  5
57A1
330
1A
100
AcDbEntity
  8
SUNPOU
100
AcDbDimension
  2
*D7
 10
590.5375738685245
 20
410.1429141922828
 30
0.0
 11
585.5375738685244
 21
388.7429141922829
 31
0.0
 70
    32
  1
\U+203B<>
  3
STANDARD
100
AcDbAlignedDimension
 13
557.8534524724156
 23
434.673848161233
 33
0.0
 14
497.2767207147155
 24
410.1429141922828
 34
0.0
 50
90.0
100
AcDbRotatedDimension
1001
ACAD
1000
DSTYLE
1002
{
1070
    41
1040
7.0
1070
    42
1040
6.0
1070
    43
1040
14.0
1070
    44
1040
3.0
1070
    73
1070
     0
1070
    74
1070
     0
1070
    77
1070
     3
1070
   140
1040
6.0
1070
   141
1040
30.0
1070
   147
1040
2.0
1070
   172
1070
     1
1070
   176
1070
   256
1070
   177
1070
   256
1070
   178
1070
   256
1070
   271
1070
     1
1070
   272
1070
     0
1070
   341
1005
6D
1070
     5
1000
OPEN
1070
   371
1070
    -1
1070
   372
1070
    -1
1002
}
  0
LINE
  5
57A2
330
1A
100
AcDbEntity
  8
SEIHIN
  6
CONTINUOUS
100
AcDbLine
 10
399.9869327576154
 20
281.6619696687936
 30
0.0
 11
558.9016080581163
 21
281.6619696687936
 31
0.0
  0
LINE
  5
57A3
330
1A
100
AcDbEntity
  8
SEIHIN
  6
CONTINUOUS
100
AcDbLine
 10
557.9017047613165
 20
308.0512294955934
 30
0.0
 11
401.9869327576154
 21
308.0512294955934
 31
0.0
  0
DIMENSION
  5
57A4
330
1A
100
AcDbEntity
  8
SUNPOU
100
AcDbDimension
  2
*D8
 10
558.9016080581156
 20
339.8483264708057
 30
0.0
 11
479.4442704078655
 21
344.8483264708057
 31
0.0
 70
    32
  3
STANDARD
100
AcDbAlignedDimension
 13
399.9869327576154
 23
306.0484848035936
 33
0.0
 14
558.9016080581156
 24
307.1147525957934
 34
0.0
100
AcDbRotatedDimension
1001
ACAD
1000
DSTYLE
1002
{
1070
    41
1040
7.0
1070
    42
1040
6.0
1070
    43
1040
14.0
1070
    44
1040
3.0
1070
    73
1070
     0
1070
    74
1070
     0
1070
    77
1070
     3
1070
   140
1040
6.0
1070
   141
1040
30.0
1070
   147
1040
2.0
1070
   172
1070
     1
1070
   173
1070
     1
1070
   176
1070
   256
1070
   177
1070
   256
1070
   178
1070
   256
1070
   271
1070
     0
1070
   272
1070
     0
1070
   341
1005
53AC
1070
     6
1000
OPEN
1070
     7
1000
OPEN
1070
   371
1070
    -1
1070
   372
1070
    -1
1002
}
  0
ARC
  5
57A5
330
1A
100
AcDbEntity
  8
SEIHIN
100
AcDbCircle
 10
401.9881367782941
 20
306.0500252442305
 30
0.0
 40
2.001204613561205
100
AcDbArc
 50
90.03447189109158
 51
180.0441038138811
  0
LINE
  5
57A6
330
1A
100
AcDbEntity
  8
SEIHIN
100
AcDbLine
 10
415.0795147275155
 20
410.1738481612328
 30
0.0
 11
497.1827561524158
 21
410.1738481612328
 31
0.0
  0
LINE
  5
57A7
330
1A
100
AcDbEntity
  8
SEIHIN
100
AcDbLine
 10
413.7630096438017
 20
421.173848161233
 30
0.0
 11
495.3876688797156
 21
421.1738481612328
 31
0.0
  0
ARC
  5
57A8
330
1A
100
AcDbEntity
  8
SEIHIN
100
AcDbCircle
 10
72915.59836751937
 20
2535.408211264041
 30
0.0
 40
72535.27351244235
100
AcDbArc
 50
181.6596069693874
 51
181.6785726715022
  0
LINE
  5
57A9
330
1A
100
AcDbEntity
  8
SEIHIN
100
AcDbLine
 10
408.8904715257156
 20
434.6738481612328
 30
0.0
 11
407.4478078877779
 21
407.1738481612328
 31
0.0
  0
LINE
  5
57AA
330
1A
100
AcDbEntity
  8
SEIHIN
100
AcDbLine
 10
401.3801582281155
 20
434.6738481612328
 30
0.0
 11
400.3309483096152
 21
414.6738481612328
 31
0.0
  0
LINE
  5
57AB
330
1A
100
AcDbEntity
  8
SEIHIN
100
AcDbLine
 10
401.3801582281155
 20
434.6738481612328
 30
0.0
 11
400.3271813836156
 21
414.6020431608328
 31
0.0
  0
LINE
  5
57AC
330
1A
100
AcDbEntity
  8
SEIHIN
100
AcDbLine
 10
416.3781820623216
 20
410.1486165128467
 30
0.0
 11
416.3781820623216
 21
421.1606942791467
 31
0.0
  0
LINE
  5
57AD
330
1A
100
AcDbEntity
  8
SEIHIN
100
AcDbLine
 10
413.9013722942151
 20
407.6692601515328
 30
0.0
 11
413.6246940003154
 21
434.6738481612328
 31
0.0
  0
LINE
  5
57AE
330
1A
100
AcDbEntity
  8
CENTER_L
  6
CENTER
 48
5.0
100
AcDbLine
 10
455.8516080581157
 20
395.0032255937976
 30
0.0
 11
455.8516080581157
 21
441.2173177709641
 31
0.0
  0
LINE
  5
57AF
330
1A
100
AcDbEntity
  8
SEIHIN
100
AcDbLine
 10
400.6437557196152
 20
407.2703498586329
 30
0.0
 11
400.6933702281155
 21
407.6218080369326
 31
0.0
  0
LINE
  5
57B0
330
1A
100
AcDbEntity
  8
SEIHIN
100
AcDbLine
 10
411.4510258237153
 20
407.6738481612328
 30
0.0
 11
411.4510258237153
 21
407.1738481612328
 31
0.0
  0
LINE
  5
57B1
330
1A
100
AcDbEntity
  8
SEIHIN
100
AcDbLine
 10
400.6039889338155
 20
407.1738481612328
 30
0.0
 11
400.6437557196152
 21
407.2703498586329
 31
0.0
  0
LINE
  5
57B2
330
1A
100
AcDbEntity
  8
SEIHIN
100
AcDbLine
 10
399.9869327576154
 20
402.6738481612328
 30
0.0
 11
399.9869327576154
 21
404.1738481612328
 31
0.0
  0
LINE
  5
57B3
330
1A
100
AcDbEntity
  8
SEIHIN
100
AcDbLine
 10
399.9869327576154
 20
404.1738481612328
 30
0.0
 11
401.9869327576154
 21
404.1738481612328
 31
0.0
  0
LINE
  5
57B4
330
1A
100
AcDbEntity
  8
SEIHIN
100
AcDbLine
 10
400.9869327576154
 20
401.6738481612328
 30
0.0
 11
401.9869327576154
 21
401.6738481612328
 31
0.0
  0
ARC
  5
57B5
330
1A
100
AcDbEntity
  8
SEIHIN
100
AcDbCircle
 10
400.9869327576154
 20
402.6738481612328
 30
0.0
 40
1.0
100
AcDbArc
 50
180.0
 51
270.0
  0
LINE
  5
57B6
330
1A
100
AcDbEntity
  8
SEIHIN
100
AcDbLine
 10
399.9869327576154
 20
404.1738481612328
 30
0.0
 11
399.9869327576154
 21
405.1738481612328
 31
0.0
  0
LINE
  5
57B7
330
1A
100
AcDbEntity
  8
SEIHIN
100
AcDbLine
 10
399.9869327576154
 20
406.1738481612328
 30
0.0
 11
399.9869327576154
 21
405.1738481612328
 31
0.0
  0
LINE
  5
57B8
330
1A
100
AcDbEntity
  8
SEIHIN
100
AcDbLine
 10
399.9869327576154
 20
406.1738481612328
 30
0.0
 11
399.9869327576154
 21
407.1738481612328
 31
0.0
  0
LINE
  5
57B9
330
1A
100
AcDbEntity
  8
SEIHIN
100
AcDbLine
 10
400.3309483096152
 20
414.6738481612328
 30
0.0
 11
400.6967976189155
 21
407.7000423893328
 31
0.0
  0
LINE
  5
57BA
330
1A
100
AcDbEntity
  8
SEIHIN
100
AcDbLine
 10
411.4508488355157
 20
410.6738481612328
 30
0.0
 11
411.4510258237153
 21
407.6738481612328
 31
0.0
  0
LINE
  5
57BB
330
1A
100
AcDbEntity
  8
SEIHIN
100
AcDbLine
 10
413.9127166106152
 20
407.5682322890329
 30
0.0
 11
413.9422319364155
 21
407.4760277770328
 31
0.0
  0
LINE
  5
57BC
330
1A
100
AcDbEntity
  8
SEIHIN
100
AcDbLine
 10
414.4673676433155
 20
407.4144599259327
 30
0.0
 11
414.4771244730152
 21
407.5488481612328
 31
0.0
  0
LINE
  5
57BD
330
1A
100
AcDbEntity
  8
SEIHIN
100
AcDbLine
 10
414.3048561636153
 20
407.1832642089328
 30
0.0
 11
414.4012105249155
 21
407.1738482114328
 31
0.0
  0
LINE
  5
57BE
330
1A
100
AcDbEntity
  8
SEIHIN
100
AcDbLine
 10
414.2121226520155
 20
407.2110728400327
 30
0.0
 11
414.3048561636153
 21
407.1832642089328
 31
0.0
  0
LINE
  5
57BF
330
1A
100
AcDbEntity
  8
SEIHIN
100
AcDbLine
 10
414.1264866904155
 20
407.2562315227328
 30
0.0
 11
414.2121226520155
 21
407.2110728400327
 31
0.0
  0
LINE
  5
57C0
330
1A
100
AcDbEntity
  8
SEIHIN
100
AcDbLine
 10
414.0511588832152
 20
407.3170471991327
 30
0.0
 11
414.1264866904155
 21
407.2562315227328
 31
0.0
  0
LINE
  5
57C1
330
1A
100
AcDbEntity
  8
SEIHIN
100
AcDbLine
 10
413.9889633681153
 20
407.3912398098327
 30
0.0
 11
414.0511588832152
 21
407.3170471991327
 31
0.0
  0
LINE
  5
57C2
330
1A
100
AcDbEntity
  8
SEIHIN
100
AcDbLine
 10
413.9422319364155
 20
407.4760277770328
 30
0.0
 11
413.9889633681153
 21
407.3912398098327
 31
0.0
  0
LINE
  5
57C3
330
1A
100
AcDbEntity
  8
SEIHIN
100
AcDbLine
 10
414.4481576324153
 20
407.2862216830326
 30
0.0
 11
414.4673676433155
 21
407.4144599259327
 31
0.0
  0
LINE
  5
57C4
330
1A
100
AcDbEntity
  8
SEIHIN
100
AcDbLine
 10
414.4226265263153
 20
407.2026845029326
 30
0.0
 11
414.4481576324153
 21
407.2862216830326
 31
0.0
  0
LINE
  5
57C5
330
1A
100
AcDbEntity
  8
SEIHIN
100
AcDbLine
 10
414.3938788746152
 20
407.1738481612328
 30
0.0
 11
414.4226265263153
 21
407.2026845029326
 31
0.0
  0
LINE
  5
57C6
330
1A
100
AcDbEntity
  8
SEIHIN
100
AcDbLine
 10
413.9015239587154
 20
407.6643964781328
 30
0.0
 11
413.9127166106152
 21
407.5682322890329
 31
0.0
  0
LINE
  5
57C7
330
1A
100
AcDbEntity
  8
SEIHIN
100
AcDbLine
 10
414.8774022726154
 20
410.0028377367327
 30
0.0
 11
415.0157106607155
 21
410.1617703949328
 31
0.0
  0
LINE
  5
57C8
330
1A
100
AcDbEntity
  8
SEIHIN
100
AcDbLine
 10
414.6971986501155
 20
409.4619145028327
 30
0.0
 11
414.8774022726154
 21
410.0028377367327
 31
0.0
  0
LINE
  5
57C9
330
1A
100
AcDbEntity
  8
SEIHIN
100
AcDbLine
 10
414.5593241815151
 20
408.6152387733327
 30
0.0
 11
414.6971986501155
 21
409.4619145028327
 31
0.0
  0
LINE
  5
57CA
330
1A
100
AcDbEntity
  8
SEIHIN
100
AcDbLine
 10
414.4771244730152
 20
407.5488481612328
 30
0.0
 11
414.5593241815151
 21
408.6152387733327
 31
0.0
  0
LINE
  5
57CB
330
1A
100
AcDbEntity
  8
SEIHIN
100
AcDbLine
 10
415.0157106607155
 20
410.1617703949328
 30
0.0
 11
415.0795147275155
 21
410.1738481612328
 31
0.0
  0
ARC
  5
57CC
330
1A
100
AcDbEntity
  8
SEIHIN
100
AcDbCircle
 10
-12.37365306336346
 20
437.5515885847591
 30
0.0
 40
429.4254495626
100
AcDbArc
 50
357.8142817528839
 51
359.2285741761064
  0
LINE
  5
57CD
330
1A
100
AcDbEntity
  8
SEIHIN
100
AcDbLine
 10
417.0030902581154
 20
434.6738481609327
 30
0.0
 11
417.0128745749154
 21
431.7700131262326
 31
0.0
  0
LINE
  5
57CE
330
1A
100
AcDbEntity
  8
SEIHIN
100
AcDbLine
 10
499.336050596725
 20
421.1738481612328
 30
0.0
 11
499.336050596725
 21
407.1738481612328
 31
0.0
  0
LINE
  5
57CF
330
1A
100
AcDbEntity
  8
SEIHIN
100
AcDbLine
 10
496.2544204907701
 20
421.1738481612328
 30
0.0
 11
496.2544204907701
 21
410.1738481612328
 31
0.0
  0
LINE
  5
57D0
330
1A
100
AcDbEntity
  8
SEIHIN
100
AcDbLine
 10
505.8850643394623
 20
421.1738481612328
 30
0.0
 11
505.8850643394623
 21
407.1738481612328
 31
0.0
  0
LINE
  5
57D1
330
1A
100
AcDbEntity
  8
SEIHIN
100
AcDbLine
 10
522.9888990884157
 20
418.6886149699327
 30
0.0
 11
522.9026780608157
 21
419.2327558568327
 31
0.0
  0
LINE
  5
57D2
330
1A
100
AcDbEntity
  8
SEIHIN
100
AcDbLine
 10
522.0822662875157
 20
418.8270320309327
 30
0.0
 11
521.9361981353156
 21
419.7251286776326
 31
0.0
  0
LINE
  5
57D3
330
1A
100
AcDbEntity
  8
SEIHIN
100
AcDbLine
 10
498.1548174937156
 20
407.5488481612328
 30
0.0
 11
498.1639839188158
 21
407.4604340492328
 31
0.0
  0
LINE
  5
57D4
330
1A
100
AcDbEntity
  8
SEIHIN
100
AcDbLine
 10
498.2668363818156
 20
407.1826864381328
 30
0.0
 11
498.2936833996157
 21
407.1738481612328
 31
0.0
  0
LINE
  5
57D5
330
1A
100
AcDbEntity
  8
SEIHIN
100
AcDbLine
 10
498.2409384895156
 20
407.2088888081327
 30
0.0
 11
498.2668363818156
 21
407.1826864381328
 31
0.0
  0
LINE
  5
57D6
330
1A
100
AcDbEntity
  8
SEIHIN
100
AcDbLine
 10
498.2169052937156
 20
407.2515289360326
 30
0.0
 11
498.2409384895156
 21
407.2088888081327
 31
0.0
  0
LINE
  5
57D7
330
1A
100
AcDbEntity
  8
SEIHIN
100
AcDbLine
 10
498.1955864425156
 20
407.3090993608327
 30
0.0
 11
498.2169052937156
 21
407.2515289360326
 31
0.0
  0
LINE
  5
57D8
330
1A
100
AcDbEntity
  8
SEIHIN
100
AcDbLine
 10
498.1777356236157
 20
407.3795647892327
 30
0.0
 11
498.1955864425156
 21
407.3090993608327
 31
0.0
  0
LINE
  5
57D9
330
1A
100
AcDbEntity
  8
SEIHIN
100
AcDbLine
 10
498.1639839188158
 20
407.4604340492328
 30
0.0
 11
498.1777356236157
 21
407.3795647892327
 31
0.0
  0
LINE
  5
57DA
330
1A
100
AcDbEntity
  8
SEIHIN
100
AcDbLine
 10
498.0906525181155
 20
408.1677469454327
 30
0.0
 11
498.1548174937156
 21
407.5488481612328
 31
0.0
  0
LINE
  5
57DB
330
1A
100
AcDbEntity
  8
SEIHIN
100
AcDbLine
 10
497.9943905847155
 20
408.7338317655328
 30
0.0
 11
498.0906525181155
 21
408.1677469454327
 31
0.0
  0
LINE
  5
57DC
330
1A
100
AcDbEntity
  8
SEIHIN
100
AcDbLine
 10
497.8694348521155
 20
409.2270897640328
 30
0.0
 11
497.9943905847155
 21
408.7338317655328
 31
0.0
  0
LINE
  5
57DD
330
1A
100
AcDbEntity
  8
SEIHIN
100
AcDbLine
 10
497.7202028938156
 20
409.6300827379327
 30
0.0
 11
497.8694348521155
 21
409.2270897640328
 31
0.0
  0
LINE
  5
57DE
330
1A
100
AcDbEntity
  8
SEIHIN
100
AcDbLine
 10
497.5519705230156
 20
409.9285636334327
 30
0.0
 11
497.7202028938156
 21
409.6300827379327
 31
0.0
  0
LINE
  5
57DF
330
1A
100
AcDbEntity
  8
SEIHIN
100
AcDbLine
 10
497.3706852770158
 20
410.1119802233329
 30
0.0
 11
497.5519705230156
 21
409.9285636334327
 31
0.0
  0
LINE
  5
57E0
330
1A
100
AcDbEntity
  8
SEIHIN
100
AcDbLine
 10
497.1827561524158
 20
410.1738481612328
 30
0.0
 11
497.3706852770158
 21
410.1119802233329
 31
0.0
  0
LINE
  5
57E1
330
1A
100
AcDbEntity
  8
SEIHIN
100
AcDbLine
 10
524.3733286647157
 20
407.1753363053326
 30
0.0
 11
524.0468677598157
 21
409.8884928437327
 31
0.0
  0
LINE
  5
57E2
330
1A
100
AcDbEntity
  8
SEIHIN
100
AcDbLine
 10
523.1379601306157
 20
407.1738481611328
 30
0.0
 11
522.9679205216156
 21
409.0606715646329
 31
0.0
  0
LINE
  5
57E3
330
1A
100
AcDbEntity
  8
SEIHIN
100
AcDbLine
 10
523.1950813242156
 20
407.1738481612328
 30
0.0
 11
522.9679205216156
 21
409.0606715646329
 31
0.0
  0
LINE
  5
57E4
330
1A
100
AcDbEntity
  8
SEIHIN
100
AcDbLine
 10
522.9679205216156
 20
409.0606715646327
 30
0.0
 11
522.7571654497157
 21
411.3979107907328
 31
0.0
  0
LINE
  5
57E5
330
1A
100
AcDbEntity
  8
SEIHIN
100
AcDbLine
 10
522.7571654497157
 20
411.3979107907328
 30
0.0
 11
522.0822662875157
 21
418.8270320309327
 31
0.0
  0
LINE
  5
57E6
330
1A
100
AcDbEntity
  8
SEIHIN
100
AcDbLine
 10
524.0468677598157
 20
409.8884928437327
 30
0.0
 11
522.9959952376157
 21
418.6923847054327
 31
0.0
  0
LINE
  5
57E7
330
1A
100
AcDbEntity
  8
SEIHIN
100
AcDbLine
 10
495.3876688797156
 20
421.1738481612328
 30
0.0
 11
496.7700158041156
 21
421.1738481612328
 31
0.0
  0
LINE
  5
57E8
330
1A
100
AcDbEntity
  8
SEIHIN
100
AcDbLine
 10
506.4011761230156
 20
421.1738481612328
 30
0.0
 11
520.9002622793157
 21
421.1738481612328
 31
0.0
  0
LINE
  5
57E9
330
1A
100
AcDbEntity
  8
SEIHIN
100
AcDbLine
 10
497.320906304018
 20
434.673848161233
 30
0.0
 11
497.3265527745156
 21
429.4355179305825
 31
0.0
  0
ARC
  5
57EA
330
1A
100
AcDbEntity
  8
SEIHIN
100
AcDbCircle
 10
-676.6975580442351
 20
456.2139170311523
 30
0.0
 40
1176.973422928581
100
AcDbArc
 50
358.2941722611224
 51
358.9513578499889
  0
ARC
  5
57EB
330
1A
100
AcDbEntity
  8
SEIHIN
100
AcDbCircle
 10
1822.114246755429
 20
418.2849829738991
 30
0.0
 40
1320.553017049939
100
AcDbArc
 50
179.2889063136839
 51
179.8746586371769
  0
ARC
  5
57EC
330
1A
100
AcDbEntity
  8
SEIHIN
100
AcDbCircle
 10
182.7258204832426
 20
443.3621831510134
 30
0.0
 40
320.9768684473916
100
AcDbArc
 50
356.0361235810582
 51
358.4489046248962
  0
ARC
  5
57ED
330
1A
100
AcDbEntity
  8
SEIHIN
100
AcDbCircle
 10
877.0359565759266
 20
433.0175239717812
 30
0.0
 40
369.4910276775338
100
AcDbArc
 50
179.7431583007739
 51
181.8215240973657
  0
ARC
  5
57EE
330
1A
100
AcDbEntity
  8
SEIHIN
100
AcDbCircle
 10
-957.8182974634149
 20
458.8952675334073
 30
0.0
 40
1467.498717396337
100
AcDbArc
 50
358.5270745561101
 51
359.0542764325035
  0
LINE
  5
57EF
330
1A
100
AcDbEntity
  8
SEIHIN
100
AcDbLine
 10
500.3226846146155
 20
421.1738481612328
 30
0.0
 11
505.0082220735155
 21
421.1738481612328
 31
0.0
  0
ARC
  5
57F0
330
1A
100
AcDbEntity
  8
SEIHIN
100
AcDbCircle
 10
1128.763118776265
 20
440.5566073718212
 30
0.0
 40
631.5344927353077
100
AcDbArc
 50
181.0090096939792
 51
181.7587712716317
  0
LINE
  5
57F1
330
1A
100
AcDbEntity
  8
SEIHIN
100
AcDbLine
 10
499.6667850500157
 20
421.1738481612328
 30
0.0
 11
499.3360505967157
 21
421.1586244905329
 31
0.0
  0
LINE
  5
57F2
330
1A
100
AcDbEntity
  8
SEIHIN
100
AcDbLine
 10
498.7489047973156
 20
421.1738481612328
 30
0.0
 11
499.0597840375155
 21
421.1738481612328
 31
0.0
  0
LINE
  5
57F3
330
1A
100
AcDbEntity
  8
SEIHIN
100
AcDbLine
 10
499.3360505967157
 20
421.1586244905329
 30
0.0
 11
499.0597840375155
 21
421.1738481612328
 31
0.0
  0
LINE
  5
57F4
330
1A
100
AcDbEntity
  8
SEIHIN
100
AcDbLine
 10
499.6667850500157
 20
421.1738481612328
 30
0.0
 11
500.3226846146155
 21
421.1738481612328
 31
0.0
  0
LINE
  5
57F5
330
1A
100
AcDbEntity
  8
SEIHIN
100
AcDbLine
 10
496.7700158041156
 20
421.1738481612328
 30
0.0
 11
498.7489047973156
 21
421.1738481612328
 31
0.0
  0
LINE
  5
57F6
330
1A
100
AcDbEntity
  8
SEIHIN
100
AcDbLine
 10
505.0082220735155
 20
421.1738481612328
 30
0.0
 11
506.4011761230156
 21
421.1738481612328
 31
0.0
  0
LINE
  5
57F7
330
1A
100
AcDbEntity
  8
SEIHIN
100
AcDbLine
 10
521.0474699710157
 20
421.1738453071327
 30
0.0
 11
521.0447148437156
 21
421.1733713940327
 31
0.0
  0
LINE
  5
57F8
330
1A
100
AcDbEntity
  8
SEIHIN
100
AcDbLine
 10
521.5475306551156
 20
421.0871521448328
 30
0.0
 11
521.0474699710157
 21
421.1738453071327
 31
0.0
  0
LINE
  5
57F9
330
1A
100
AcDbEntity
  8
SEIHIN
100
AcDbLine
 10
521.9881028637157
 20
420.8490795049328
 30
0.0
 11
521.5475306551156
 21
421.0871521448328
 31
0.0
  0
LINE
  5
57FA
330
1A
100
AcDbEntity
  8
SEIHIN
100
AcDbLine
 10
522.3527677499157
 20
420.4842996991328
 30
0.0
 11
521.9881028637157
 21
420.8490795049328
 31
0.0
  0
LINE
  5
57FB
330
1A
100
AcDbEntity
  8
SEIHIN
100
AcDbLine
 10
522.6995075963157
 20
419.8746478357326
 30
0.0
 11
522.3527677499157
 21
420.4842996991328
 31
0.0
  0
LINE
  5
57FC
330
1A
100
AcDbEntity
  8
SEIHIN
100
AcDbLine
 10
522.9026780608157
 20
419.2327558568327
 30
0.0
 11
522.6995075963157
 21
419.8746478357326
 31
0.0
  0
LINE
  5
57FD
330
1A
100
AcDbEntity
  8
SEIHIN
100
AcDbLine
 10
521.3493859230156
 20
420.9615209338326
 30
0.0
 11
521.2668921772158
 21
421.0341504634327
 31
0.0
  0
LINE
  5
57FE
330
1A
100
AcDbEntity
  8
SEIHIN
100
AcDbLine
 10
521.6866005936156
 20
420.4556434505327
 30
0.0
 11
521.3493859230156
 21
420.9615209338326
 31
0.0
  0
LINE
  5
57FF
330
1A
100
AcDbEntity
  8
SEIHIN
100
AcDbLine
 10
521.9361981353156
 20
419.7251286776326
 30
0.0
 11
521.6866005936156
 21
420.4556434505327
 31
0.0
  0
LINE
  5
5800
330
1A
100
AcDbEntity
  8
SEIHIN
100
AcDbLine
 10
520.9571711219157
 20
421.1705389960327
 30
0.0
 11
520.9002622793157
 21
421.1738481612328
 31
0.0
  0
LINE
  5
5801
330
1A
100
AcDbEntity
  8
SEIHIN
100
AcDbLine
 10
521.2668921772158
 20
421.0341504634327
 30
0.0
 11
520.9571711219157
 21
421.1705389960327
 31
0.0
  0
LINE
  5
5802
330
1A
100
AcDbEntity
  8
SEIHIN
100
AcDbLine
 10
521.2668921772158
 20
421.0341504634329
 30
0.0
 11
521.0445565914158
 21
421.1738481612328
 31
0.0
  0
LINE
  5
5803
330
1A
100
AcDbEntity
  8
SEIHIN
100
AcDbLine
 10
520.9002622793157
 20
421.1738481612328
 30
0.0
 11
521.0445565914158
 21
421.1738481612328
 31
0.0
  0
DIMENSION
  5
5804
330
1A
100
AcDbEntity
  8
SUNPOU
100
AcDbDimension
  2
*D9
 10
590.5375738685245
 20
281.6619696687936
 30
0.0
 11
585.5375738685244
 21
294.8565995821936
 31
0.0
 70
    32
  3
STANDARD
100
AcDbAlignedDimension
 13
557.5337232234153
 23
308.0512294955934
 33
0.0
 14
558.9016080581156
 24
281.6619696687936
 34
0.0
 50
90.0
100
AcDbRotatedDimension
1001
ACAD
1000
DSTYLE
1002
{
1070
    41
1040
7.0
1070
    42
1040
6.0
1070
    43
1040
14.0
1070
    44
1040
3.0
1070
    73
1070
     0
1070
    74
1070
     0
1070
    77
1070
     3
1070
   140
1040
6.0
1070
   141
1040
30.0
1070
   147
1040
2.0
1070
   172
1070
     1
1070
   173
1070
     1
1070
   176
1070
   256
1070
   177
1070
   256
1070
   178
1070
   256
1070
   271
1070
     0
1070
   272
1070
     0
1070
   341
1005
53AC
1070
     6
1000
OPEN
1070
     7
1000
OPEN
1070
   371
1070
    -1
1070
   372
1070
    -1
1002
}
  0
LINE
  5
5805
330
1A
100
AcDbEntity
  8
SEIHIN
  6
CONTINUOUS
100
AcDbLine
 10
558.9016080581163
 20
281.6619696687936
 30
0.0
 11
558.9016080581163
 21
307.0512222297647
 31
0.0
  0
ARC
  5
5806
330
1A
100
AcDbEntity
  8
SEIHIN
100
AcDbCircle
 10
557.870172638798
 20
307.0197973492109
 30
0.0
 40
1.031914021293405
100
AcDbArc
 50
1.745098314215138
 51
88.24894441386417
  0
LINE
  5
5807
330
1A
100
AcDbEntity
  8
SEIHIN
100
AcDbLine
 10
638.5222462666627
 20
281.5990248295932
 30
0.0
 11
638.5222462666627
 21
306.4211766351931
 31
0.0
  0
LINE
  5
5808
330
1A
100
AcDbEntity
  8
SEIHIN
100
AcDbLine
 10
651.52224626666
 20
281.599024829593
 30
0.0
 11
638.5222462666627
 21
281.5990248295932
 31
0.0
  0
LINE
  5
5809
330
1A
100
AcDbEntity
  8
SEIHIN
100
AcDbLine
 10
641.0222462666626
 20
307.7106297031932
 30
0.0
 11
645.0191539002628
 21
307.7106297031932
 31
0.0
  0
LINE
  5
580A
330
1A
100
AcDbEntity
  8
SEIHIN
100
AcDbLine
 10
639.4699103103627
 20
307.4198061699931
 30
0.0
 11
651.5181850946628
 21
308.0512294955932
 31
0.0
  0
LINE
  5
580B
330
1A
100
AcDbEntity
  8
SEIHIN
100
AcDbLine
 10
641.0222462666626
 20
307.5011606501932
 30
0.0
 11
641.0222462666626
 21
307.7106297031932
 31
0.0
  0
ARC
  5
580C
330
1A
100
AcDbEntity
  8
SEIHIN
100
AcDbCircle
 10
639.5222462666627
 20
306.4211766351931
 30
0.0
 40
0.9999999999999898
100
AcDbArc
 50
92.99999999999254
 51
180.0
  0
LINE
  5
580D
330
1A
100
AcDbEntity
  8
SEIHIN
100
AcDbLine
 10
546.4016080581156
 20
412.1738481612328
 30
0.0
 11
546.4016080581156
 21
434.6738481612328
 31
0.0
  0
LINE
  5
580E
330
1A
100
AcDbEntity
  8
SEIHIN
100
AcDbLine
 10
557.8534524724156
 20
434.6738481612328
 30
0.0
 11
558.9016080581156
 21
414.6738481612328
 31
0.0
  0
LINE
  5
580F
330
1A
100
AcDbEntity
  8
SEIHIN
100
AcDbLine
 10
546.4016080581156
 20
404.1738481612328
 30
0.0
 11
546.4016080581156
 21
412.1738481612328
 31
0.0
  0
LINE
  5
5810
330
1A
100
AcDbEntity
  8
SEIHIN
100
AcDbLine
 10
558.9016071202157
 20
414.6738302660328
 30
0.0
 11
558.2699718954156
 21
402.621512205033
 31
0.0
  0
LINE
  5
5811
330
1A
100
AcDbEntity
  8
SEIHIN
100
AcDbLine
 10
556.4925171490155
 20
404.1738481612328
 30
0.0
 11
555.7070081999156
 21
404.1738481612328
 31
0.0
  0
ARC
  5
5812
330
1A
100
AcDbEntity
  8
SEIHIN
100
AcDbCircle
 10
557.2713423607155
 20
402.6738481612328
 30
0.0
 40
1.0
100
AcDbArc
 50
270.0
 51
357.0000000000009
  0
LINE
  5
5813
330
1A
100
AcDbEntity
  8
SEIHIN
100
AcDbLine
 10
671.5222462666629
 20
306.7722996004931
 30
0.0
 11
671.5222462666629
 21
282.6471804152932
 31
0.0
  0
LINE
  5
5814
330
1A
100
AcDbEntity
  8
SEIHIN
100
AcDbLine
 10
671.5222462666629
 20
307.7716658353932
 30
0.0
 11
671.5222462666629
 21
306.7722996004931
 31
0.0
  0
VIEWPORT
  5
22
330
17
100
AcDbEntity
 67
     1
  8
0
100
AcDbViewport
 10
313.6808219178082
 20
148.5
 30
0.0
 40
627.3616438356165
 41
297.0
 68
     2
 69
     1
1001
ACAD
1000
MVIEW
1002
{
1070
    16
1010
0.0
1020
0.0
1030
0.0
1010
0.0
1020
0.0
1030
1.0
1040
0.0
1040
297.0
1040
313.6808219178082
1040
148.5
1040
50.0
1040
0.0
1040
0.0
1070
     0
1070
   100
1070
     1
1070
     0
1070
     0
1070
     0
1070
     0
1070
     0
1040
0.0
1040
0.0
1040
0.0
1040
1.0
1040
1.0
1040
10.0
1040
10.0
1070
     0
1002
{
1002
}
1002
}
  0
VIEWPORT
  5
64
330
17
100
AcDbEntity
 67
     1
  8
VIEWPORT
100
AcDbViewport
 10
210.0
 20
148.5
 30
0.0
 40
420.0
 41
297.0
 68
     1
 69
     2
1001
ACAD
1000
MVIEW
1002
{
1070
    16
1010
0.0
1020
0.0
1030
0.0
1010
0.0
1020
0.0
1030
1.0
1040
0.0
1040
605.8799999999997
1040
420.0
1040
297.0
1040
50.0
1040
0.0
1040
0.0
1070
     0
1070
   100
1070
     1
1070
     0
1070
     0
1070
     0
1070
     0
1070
     0
1040
0.0
1040
0.0
1040
0.0
1040
10.0
1040
10.0
1040
0.0
1040
0.0
1070
     0
1002
{
1002
}
1002
}
  0
ENDSEC
  0
SECTION
  2
OBJECTS
  0
DICTIONARY
  5
C
330
0
100
AcDbDictionary
  3
ACAD_GROUP
350
D
  3
ACAD_LAYOUT
350
556
  3
ACAD_MLINESTYLE
350
E
  3
ACAD_PLOTSETTINGS
350
557
  3
ACAD_PLOTSTYLENAME
350
554
  3
ACDBHEADERROUNDTRIPXREC
350
58D0
  0
DICTIONARY
  5
6C6
330
1A
100
AcDbDictionary
280
     1
  3
ACAD_LAYOUTSELFREF
360
58F2
  0
DICTIONARY
  5
6C4
330
17
100
AcDbDictionary
280
     1
  3
ACAD_LAYOUTSELFREF
360
58F1
  0
DICTIONARY
  5
D
102
{ACAD_REACTORS
330
C
102
}
330
C
100
AcDbDictionary
  0
DICTIONARY
  5
556
102
{ACAD_REACTORS
330
C
102
}
330
C
100
AcDbDictionary
  0
DICTIONARY
  5
E
102
{ACAD_REACTORS
330
C
102
}
330
C
100
AcDbDictionary
  3
STANDARD
350
13
  0
DICTIONARY
  5
557
102
{ACAD_REACTORS
330
C
102
}
330
C
100
AcDbDictionary
  0
ACDBDICTIONARYWDFLT
  5
554
102
{ACAD_REACTORS
330
C
102
}
330
C
100
AcDbDictionary
281
     1
  3
Normal
350
555
100
AcDbDictionaryWithDefault
340
555
1001
ACAD
1000
TREAT_AS_HARD
1070
     0
1000
TREAT_AS_HARD
1070
     0
1000
TREAT_AS_HARD
1070
     0
1000
TREAT_AS_HARD
1070
     0
1000
TREAT_AS_HARD
1070
     0
1000
TREAT_AS_HARD
1070
     0
1000
TREAT_AS_HARD
1070
     0
1000
TREAT_AS_HARD
1070
     0
  0
DICTIONARY
  5
58D0
102
{ACAD_REACTORS
330
C
102
}
330
C
100
AcDbDictionary
  3
TSTACKALIGN
350
58D1
  3
TSTACKSIZE
350
58D2
  3
HYPERLINKBASE
350
58D3
  3
STYLESHEET
350
58D4
  3
LAYOUTDICT
350
58D5
  3
PLOTSETDICT
350
58D6
  3
PLOTSTYLNAMDICT
350
58D7
  3
LWETCUNION
350
58D8
  3
INSUNITS
350
58D9
  3
CEPSNTYPE
350
58DA
  3
FINGERPRINTGUID
350
58DB
  3
VERSIONGUID
350
58DC
  3
PSVPSCALE
350
58DD
  3
DIMSTYLEDATA
350
58DE
  3
PUCSORTHOREF
350
58DF
  3
PUCSORTHOVIEW
350
58E0
  3
PUCSBASE
350
58E1
  3
PUCSORGTOP
350
58E2
  3
PUCSORGBOTTOM
350
58E3
  3
PUCSORGLEFT
350
58E4
  3
PUCSORGRIGHT
350
58E5
  3
PUCSORGFRONT
350
58E6
  3
PUCSORGBACK
350
58E7
  3
UCSORTHOREF
350
58E8
  3
UCSORTHOVIEW
350
58E9
  3
UCSBASE
350
58EA
  3
UCSORGTOP
350
58EB
  3
UCSORGBOTTOM
350
58EC
  3
UCSORGLEFT
350
58ED
  3
UCSORGRIGHT
350
58EE
  3
UCSORGFRONT
350
58EF
  3
UCSORGBACK
350
58F0
  0
XRECORD
  5
58F2
102
{ACAD_REACTORS
330
6C6
102
}
330
6C6
100
AcDbXrecord
340
1A
  0
XRECORD
  5
58F1
102
{ACAD_REACTORS
330
6C4
102
}
330
6C4
100
AcDbXrecord
340
17
  0
MLINESTYLE
  5
13
102
{ACAD_REACTORS
330
E
102
}
330
E
100
AcDbMlineStyle
  2
STANDARD
 70
     0
  3

 62
     0
 51
90.0
 52
90.0
 71
     2
 49
0.5
 62
   256
  6
BYLAYER
 49
-0.5
 62
   256
  6
BYLAYER
  0
ACDBPLACEHOLDER
  5
555
102
{ACAD_REACTORS
330
554
102
}
330
554
100
AcDbPlaceHolder
280
     0
  0
XRECORD
  5
58D1
102
{ACAD_REACTORS
330
58D0
102
}
330
58D0
100
AcDbXrecord
 90
        1
  0
XRECORD
  5
58D2
102
{ACAD_REACTORS
330
58D0
102
}
330
58D0
100
AcDbXrecord
 90
       70
  0
XRECORD
  5
58D3
102
{ACAD_REACTORS
330
58D0
102
}
330
58D0
100
AcDbXrecord
  1

  0
XRECORD
  5
58D4
102
{ACAD_REACTORS
330
58D0
102
}
330
58D0
100
AcDbXrecord
  1
print.ctb
  0
XRECORD
  5
58D5
102
{ACAD_REACTORS
330
58D0
102
}
330
58D0
100
AcDbXrecord
340
556
  0
XRECORD
  5
58D6
102
{ACAD_REACTORS
330
58D0
102
}
330
58D0
100
AcDbXrecord
340
557
  0
XRECORD
  5
58D7
102
{ACAD_REACTORS
330
58D0
102
}
330
58D0
100
AcDbXrecord
340
554
  0
XRECORD
  5
58D8
102
{ACAD_REACTORS
330
58D0
102
}
330
58D0
100
AcDbXrecord
 90
    10781
  0
XRECORD
  5
58D9
102
{ACAD_REACTORS
330
58D0
102
}
330
58D0
100
AcDbXrecord
 90
        0
  0
XRECORD
  5
58DA
102
{ACAD_REACTORS
330
58D0
102
}
330
58D0
100
AcDbXrecord
 90
        0
  0
XRECORD
  5
58DB
102
{ACAD_REACTORS
330
58D0
102
}
330
58D0
100
AcDbXrecord
  1
{B06877AA-F1AE-4EC1-AEA7-B60A7FDC8903}
  0
XRECORD
  5
58DC
102
{ACAD_REACTORS
330
58D0
102
}
330
58D0
100
AcDbXrecord
  1
{9F073F5E-F279-4307-A13C-7063E6E7A754}
  0
XRECORD
  5
58DD
102
{ACAD_REACTORS
330
58D0
102
}
330
58D0
100
AcDbXrecord
 40
0.0
  0
XRECORD
  5
58DE
102
{ACAD_REACTORS
330
58D0
102
}
330
58D0
100
AcDbXrecord
1000
DSTYLE
1002
{
1070
   341
340
6D
1070
   343
340
6D
1070
   344
340
6D
1070
   371
 70
    -1
1070
   372
 70
    -1
1002
}
  0
XRECORD
  5
58DF
102
{ACAD_REACTORS
330
58D0
102
}
330
58D0
100
AcDbXrecord
340
0
  0
XRECORD
  5
58E0
102
{ACAD_REACTORS
330
58D0
102
}
330
58D0
100
AcDbXrecord
 70
     0
  0
XRECORD
  5
58E1
102
{ACAD_REACTORS
330
58D0
102
}
330
58D0
100
AcDbXrecord
340
0
  0
XRECORD
  5
58E2
102
{ACAD_REACTORS
330
58D0
102
}
330
58D0
100
AcDbXrecord
 10
0.0
 20
0.0
 30
0.0
  0
XRECORD
  5
58E3
102
{ACAD_REACTORS
330
58D0
102
}
330
58D0
100
AcDbXrecord
 10
0.0
 20
0.0
 30
0.0
  0
XRECORD
  5
58E4
102
{ACAD_REACTORS
330
58D0
102
}
330
58D0
100
AcDbXrecord
 10
0.0
 20
0.0
 30
0.0
  0
XRECORD
  5
58E5
102
{ACAD_REACTORS
330
58D0
102
}
330
58D0
100
AcDbXrecord
 10
0.0
 20
0.0
 30
0.0
  0
XRECORD
  5
58E6
102
{ACAD_REACTORS
330
58D0
102
}
330
58D0
100
AcDbXrecord
 10
0.0
 20
0.0
 30
0.0
  0
XRECORD
  5
58E7
102
{ACAD_REACTORS
330
58D0
102
}
330
58D0
100
AcDbXrecord
 10
0.0
 20
0.0
 30
0.0
  0
XRECORD
  5
58E8
102
{ACAD_REACTORS
330
58D0
102
}
330
58D0
100
AcDbXrecord
340
0
  0
XRECORD
  5
58E9
102
{ACAD_REACTORS
330
58D0
102
}
330
58D0
100
AcDbXrecord
 70
     0
  0
XRECORD
  5
58EA
102
{ACAD_REACTORS
330
58D0
102
}
330
58D0
100
AcDbXrecord
340
0
  0
XRECORD
  5
58EB
102
{ACAD_REACTORS
330
58D0
102
}
330
58D0
100
AcDbXrecord
 10
0.0
 20
0.0
 30
0.0
  0
XRECORD
  5
58EC
102
{ACAD_REACTORS
330
58D0
102
}
330
58D0
100
AcDbXrecord
 10
0.0
 20
0.0
 30
0.0
  0
XRECORD
  5
58ED
102
{ACAD_REACTORS
330
58D0
102
}
330
58D0
100
AcDbXrecord
 10
0.0
 20
0.0
 30
0.0
  0
XRECORD
  5
58EE
102
{ACAD_REACTORS
330
58D0
102
}
330
58D0
100
AcDbXrecord
 10
0.0
 20
0.0
 30
0.0
  0
XRECORD
  5
58EF
102
{ACAD_REACTORS
330
58D0
102
}
330
58D0
100
AcDbXrecord
 10
0.0
 20
0.0
 30
0.0
  0
XRECORD
  5
58F0
102
{ACAD_REACTORS
330
58D0
102
}
330
58D0
100
AcDbXrecord
 10
0.0
 20
0.0
 30
0.0
  0
ENDSEC
  0
EOF
