  0
SECTION
  2
HEADER
  9
$ACADVER
  1
AC1014
  9
$ACADMAINTVER
 70
     9
  9
$DWGCODEPAGE
  3
ANSI_932
  9
$INSBASE
 10
0.0
 20
0.0
 30
0.0
  9
$EXTMIN
 10
-0.0256328098773793
 20
-0.0181261901288963
 30
-0.0000000100021914
  9
$EXTMAX
 10
797.6000995626677
 20
551.6452344786116
 30
0.0000000100021442
  9
$LIMMIN
 10
0.0
 20
0.0
  9
$LIMMAX
 10
840.0
 20
594.0
  9
$ORTHOMODE
 70
     0
  9
$REGENMODE
 70
     1
  9
$FILLMODE
 70
     1
  9
$QTEXTMODE
 70
     0
  9
$MIRRTEXT
 70
     1
  9
$DRAGMODE
 70
     2
  9
$LTSCALE
 40
2.0
  9
$OSMODE
 70
    37
  9
$ATTMODE
 70
     1
  9
$TEXTSIZE
 40
5.0
  9
$TRACEWID
 40
1.0
  9
$TEXTSTYLE
  7
STANDARD
  9
$CLAYER
  8
SUNPOU
  9
$CELTYPE
  6
BYLAYER
  9
$CECOLOR
 62
   256
  9
$CELTSCALE
 40
1.0
  9
$DELOBJ
 70
     1
  9
$DISPSILH
 70
     0
  9
$DIMSCALE
 40
1.0
  9
$DIMASZ
 40
7.0
  9
$DIMEXO
 40
6.0
  9
$DIMDLI
 40
14.0
  9
$DIMRND
 40
0.0
  9
$DIMDLE
 40
0.0
  9
$DIMEXE
 40
3.0
  9
$DIMTP
 40
0.0
  9
$DIMTM
 40
0.0
  9
$DIMTXT
 40
6.0
  9
$DIMCEN
 40
150.0
  9
$DIMTSZ
 40
0.0
  9
$DIMTOL
 70
     0
  9
$DIMLIM
 70
     0
  9
$DIMTIH
 70
     0
  9
$DIMTOH
 70
     0
  9
$DIMSE1
 70
     0
  9
$DIMSE2
 70
     0
  9
$DIMTAD
 70
     3
  9
$DIMZIN
 70
     0
  9
$DIMBLK
  1

  9
$DIMASO
 70
     1
  9
$DIMSHO
 70
     1
  9
$DIMPOST
  1

  9
$DIMAPOST
  1

  9
$DIMALT
 70
     0
  9
$DIMALTD
 70
     2
  9
$DIMALTF
 40
25.4
  9
$DIMLFAC
 40
1.0
  9
$DIMTOFL
 70
     1
  9
$DIMTVP
 40
0.0
  9
$DIMTIX
 70
     0
  9
$DIMSOXD
 70
     0
  9
$DIMSAH
 70
     1
  9
$DIMBLK1
  1
OPEN
  9
$DIMBLK2
  1
OPEN
  9
$DIMSTYLE
  2
STANDARD
  9
$DIMCLRD
 70
   256
  9
$DIMCLRE
 70
   256
  9
$DIMCLRT
 70
   256
  9
$DIMTFAC
 40
1.0
  9
$DIMGAP
 40
2.0
  9
$DIMJUST
 70
     0
  9
$DIMSD1
 70
     0
  9
$DIMSD2
 70
     0
  9
$DIMTOLJ
 70
     1
  9
$DIMTZIN
 70
     0
  9
$DIMALTZ
 70
     0
  9
$DIMALTTZ
 70
     0
  9
$DIMFIT
 70
     3
  9
$DIMUPT
 70
     0
  9
$DIMUNIT
 70
     2
  9
$DIMDEC
 70
     0
  9
$DIMTDEC
 70
     0
  9
$DIMALTU
 70
     2
  9
$DIMALTTD
 70
     2
  9
$DIMTXSTY
  7
STANDARD
  9
$DIMAUNIT
 70
     0
  9
$LUNITS
 70
     2
  9
$LUPREC
 70
     4
  9
$SKETCHINC
 40
1.0
  9
$FILLETRAD
 40
1.0
  9
$AUNITS
 70
     0
  9
$AUPREC
 70
     0
  9
$MENU
  1
.
  9
$ELEVATION
 40
0.0
  9
$PELEVATION
 40
0.0
  9
$THICKNESS
 40
0.0
  9
$LIMCHECK
 70
     0
  9
$BLIPMODE
 70
     0
  9
$CHAMFERA
 40
0.0
  9
$CHAMFERB
 40
0.0
  9
$CHAMFERC
 40
40.0
  9
$CHAMFERD
 40
0.0
  9
$SKPOLY
 70
     0
  9
$TDCREATE
 40
2451159.834708796
  9
$TDUPDATE
 40
2454635.392690498
  9
$TDINDWG
 40
0.2804058796
  9
$TDUSRTIMER
 40
0.2804056944
  9
$USRTIMER
 70
     1
  9
$ANGBASE
 50
0.0
  9
$ANGDIR
 70
     0
  9
$PDMODE
 70
     0
  9
$PDSIZE
 40
0.0
  9
$PLINEWID
 40
0.0
  9
$COORDS
 70
     0
  9
$SPLFRAME
 70
     0
  9
$SPLINETYPE
 70
     6
  9
$SPLINESEGS
 70
     8
  9
$ATTDIA
 70
     0
  9
$ATTREQ
 70
     1
  9
$HANDLING
 70
 10241
  9
$HANDSEED
  5
684A
  9
$SURFTAB1
 70
     6
  9
$SURFTAB2
 70
     6
  9
$SURFTYPE
 70
     6
  9
$SURFU
 70
     6
  9
$SURFV
 70
     6
  9
$UCSNAME
  2

  9
$UCSORG
 10
0.0
 20
0.0
 30
0.0
  9
$UCSXDIR
 10
1.0
 20
0.0
 30
0.0
  9
$UCSYDIR
 10
0.0
 20
1.0
 30
0.0
  9
$PUCSNAME
  2

  9
$PUCSORG
 10
0.0
 20
0.0
 30
0.0
  9
$PUCSXDIR
 10
1.0
 20
0.0
 30
0.0
  9
$PUCSYDIR
 10
0.0
 20
1.0
 30
0.0
  9
$USERI1
 70
     0
  9
$USERI2
 70
     0
  9
$USERI3
 70
     0
  9
$USERI4
 70
     0
  9
$USERI5
 70
     0
  9
$USERR1
 40
0.0
  9
$USERR2
 40
0.0
  9
$USERR3
 40
0.0
  9
$USERR4
 40
0.0
  9
$USERR5
 40
0.0
  9
$WORLDVIEW
 70
     1
  9
$SHADEDGE
 70
     3
  9
$SHADEDIF
 70
    70
  9
$TILEMODE
 70
     1
  9
$MAXACTVP
 70
    16
  9
$PINSBASE
 10
0.0
 20
0.0
 30
0.0
  9
$PLIMCHECK
 70
     0
  9
$PEXTMIN
 10
0.0
 20
0.0
 30
0.0
  9
$PEXTMAX
 10
420.0
 20
297.0
 30
0.0
  9
$PLIMMIN
 10
0.0
 20
0.0
  9
$PLIMMAX
 10
420.0
 20
297.0
  9
$UNITMODE
 70
     0
  9
$VISRETAIN
 70
     0
  9
$PLINEGEN
 70
     0
  9
$PSLTSCALE
 70
     1
  9
$TREEDEPTH
 70
  3020
  9
$PICKSTYLE
 70
     1
  9
$CMLSTYLE
  2
STANDARD
  9
$CMLJUST
 70
     0
  9
$CMLSCALE
 40
1.0
  9
$PROXYGRAPHICS
 70
     1
  9
$MEASUREMENT
 70
     1
  0
ENDSEC
  0
SECTION
  2
CLASSES
  0
CLASS
  1
ACDBDICTIONARYWDFLT
  2
AcDbDictionaryWithDefault
  3
AutoCAD 2000
 90
        0
280
     0
281
     0
  0
CLASS
  1
ACDBPLACEHOLDER
  2
AcDbPlaceHolder
  3
AutoCAD 2000
 90
        0
280
     0
281
     0
  0
CLASS
  1
LAYOUT
  2
AcDbLayout
  3
AutoCAD 2000
 90
        0
280
     0
281
     0
  0
CLASS
  1
LONG_TRANSACTION
  2
AcDbLongTransaction
  3
AutoCAD 2000
 90
        0
280
     0
281
     0
  0
CLASS
  1
LWPOLYLINE
  2
AcDbPolyline
  3
AutoCAD 2000
 90
        0
280
     0
281
     1
  0
CLASS
  1
HATCH
  2
AcDbHatch
  3
AutoCAD 2000
 90
        0
280
     0
281
     1
  0
CLASS
  1
XRECORD
  2
AcDbXrecord
  3
AutoCAD 2000
 90
        0
280
     0
281
     0
  0
CLASS
  1
LONG_TRANSACTION
  2
AcDbLongTransaction
  3
AutoCAD 2000
 90
        0
280
     0
281
     0
  0
CLASS
  1
LWPOLYLINE
  2
AcDbPolyline
  3
AutoCAD 2000
 90
        0
280
     0
281
     1
  0
CLASS
  1
HATCH
  2
AcDbHatch
  3
AutoCAD 2000
 90
        0
280
     0
281
     1
  0
CLASS
  1
XRECORD
  2
AcDbXrecord
  3
AutoCAD 2000
 90
        0
280
     0
281
     0
  0
CLASS
  1
LONG_TRANSACTION
  2
AcDbLongTransaction
  3
AutoCAD 2000
 90
        0
280
     0
281
     0
  0
CLASS
  1
LWPOLYLINE
  2
AcDbPolyline
  3
AutoCAD 2000
 90
        0
280
     0
281
     1
  0
CLASS
  1
HATCH
  2
AcDbHatch
  3
AutoCAD 2000
 90
        0
280
     0
281
     1
  0
CLASS
  1
XRECORD
  2
AcDbXrecord
  3
AutoCAD 2000
 90
        0
280
     0
281
     0
  0
CLASS
  1
LONG_TRANSACTION
  2
AcDbLongTransaction
  3
AutoCAD 2000
 90
        0
280
     0
281
     0
  0
CLASS
  1
LWPOLYLINE
  2
AcDbPolyline
  3
AutoCAD 2000
 90
        0
280
     0
281
     1
  0
CLASS
  1
HATCH
  2
AcDbHatch
  3
AutoCAD 2000
 90
        0
280
     0
281
     1
  0
CLASS
  1
XRECORD
  2
AcDbXrecord
  3
AutoCAD 2000
 90
        0
280
     0
281
     0
  0
CLASS
  1
LONG_TRANSACTION
  2
AcDbLongTransaction
  3
AutoCAD 2000
 90
        0
280
     0
281
     0
  0
CLASS
  1
LWPOLYLINE
  2
AcDbPolyline
  3
AutoCAD 2000
 90
        0
280
     0
281
     1
  0
CLASS
  1
HATCH
  2
AcDbHatch
  3
AutoCAD 2000
 90
        0
280
     0
281
     1
  0
CLASS
  1
XRECORD
  2
AcDbXrecord
  3
AutoCAD 2000
 90
        0
280
     0
281
     0
  0
CLASS
  1
LONG_TRANSACTION
  2
AcDbLongTransaction
  3
AutoCAD 2000
 90
        0
280
     0
281
     0
  0
CLASS
  1
LWPOLYLINE
  2
AcDbPolyline
  3
AutoCAD 2000
 90
        0
280
     0
281
     1
  0
CLASS
  1
HATCH
  2
AcDbHatch
  3
AutoCAD 2000
 90
        0
280
     0
281
     1
  0
CLASS
  1
XRECORD
  2
AcDbXrecord
  3
AutoCAD 2000
 90
        0
280
     0
281
     0
  0
CLASS
  1
LONG_TRANSACTION
  2
AcDbLongTransaction
  3
AutoCAD 2000
 90
        0
280
     0
281
     0
  0
CLASS
  1
LWPOLYLINE
  2
AcDbPolyline
  3
AutoCAD 2000
 90
        0
280
     0
281
     1
  0
CLASS
  1
HATCH
  2
AcDbHatch
  3
AutoCAD 2000
 90
        0
280
     0
281
     1
  0
CLASS
  1
XRECORD
  2
AcDbXrecord
  3
AutoCAD 2000
 90
        0
280
     0
281
     0
  0
CLASS
  1
LONG_TRANSACTION
  2
AcDbLongTransaction
  3
AutoCAD 2000
 90
        0
280
     0
281
     0
  0
CLASS
  1
LWPOLYLINE
  2
AcDbPolyline
  3
AutoCAD 2000
 90
        0
280
     0
281
     1
  0
CLASS
  1
HATCH
  2
AcDbHatch
  3
AutoCAD 2000
 90
        0
280
     0
281
     1
  0
CLASS
  1
XRECORD
  2
AcDbXrecord
  3
AutoCAD 2000
 90
        0
280
     0
281
     0
  0
CLASS
  1
LONG_TRANSACTION
  2
AcDbLongTransaction
  3
AutoCAD 2000
 90
        0
280
     0
281
     0
  0
CLASS
  1
LWPOLYLINE
  2
AcDbPolyline
  3
AutoCAD 2000
 90
        0
280
     0
281
     1
  0
CLASS
  1
HATCH
  2
AcDbHatch
  3
AutoCAD 2000
 90
        0
280
     0
281
     1
  0
CLASS
  1
XRECORD
  2
AcDbXrecord
  3
AutoCAD 2000
 90
        0
280
     0
281
     0
  0
CLASS
  1
LONG_TRANSACTION
  2
AcDbLongTransaction
  3
AutoCAD 2000
 90
        0
280
     0
281
     0
  0
CLASS
  1
LWPOLYLINE
  2
AcDbPolyline
  3
AutoCAD 2000
 90
        0
280
     0
281
     1
  0
CLASS
  1
HATCH
  2
AcDbHatch
  3
AutoCAD 2000
 90
        0
280
     0
281
     1
  0
CLASS
  1
XRECORD
  2
AcDbXrecord
  3
AutoCAD 2000
 90
        0
280
     0
281
     0
  0
ENDSEC
  0
SECTION
  2
TABLES
  0
TABLE
  2
VPORT
  5
8
330
0
100
AcDbSymbolTable
 70
     3
  0
VPORT
  5
67CC
330
8
100
AcDbSymbolTableRecord
100
AcDbViewportTableRecord
  2
*ACTIVE
 70
     0
 10
0.0
 20
0.0
 11
1.0
 21
1.0
 12
401.7557948713831
 22
273.9671258298252
 13
0.0
 23
0.0
 14
5.0
 24
5.0
 15
0.0
 25
0.0
 16
0.0
 26
0.0
 36
1.0
 17
0.0
 27
0.0
 37
0.0
 40
668.3952025587152
 41
1.570153061224489
 42
50.0
 43
0.0
 44
0.0
 50
0.0
 51
0.0
 71
     0
 72
   100
 73
     1
 74
     0
 75
     0
 76
     0
 77
     0
 78
     0
  0
ENDTAB
  0
TABLE
  2
LTYPE
  5
5
330
0
100
AcDbSymbolTable
 70
     2
  0
LTYPE
  5
14
330
5
100
AcDbSymbolTableRecord
100
AcDbLinetypeTableRecord
  2
BYBLOCK
 70
     0
  3

 72
    65
 73
     0
 40
0.0
  0
LTYPE
  5
15
330
5
100
AcDbSymbolTableRecord
100
AcDbLinetypeTableRecord
  2
BYLAYER
 70
     0
  3

 72
    65
 73
     0
 40
0.0
  0
LTYPE
  5
16
330
5
100
AcDbSymbolTableRecord
100
AcDbLinetypeTableRecord
  2
CONTINUOUS
 70
     0
  3
Solid line
 72
    65
 73
     0
 40
0.0
  0
LTYPE
  5
135
330
5
100
AcDbSymbolTableRecord
100
AcDbLinetypeTableRecord
  2
CENTER
 70
     0
  3
____ _ ____ _ ____ _ ____ _ ____ _ ____ _ ____ 
 72
    65
 73
     4
 40
2.0
 49
1.25
 74
     0
 49
-0.25
 74
     0
 49
0.25
 74
     0
 49
-0.25
 74
     0
  0
ENDTAB
  0
TABLE
  2
LAYER
  5
2
102
{ACAD_XDICTIONARY
360
62CC
102
}
330
0
100
AcDbSymbolTable
 70
     9
  0
LAYER
  5
F
330
2
100
AcDbSymbolTableRecord
100
AcDbLayerTableRecord
  2
0
 70
     0
 62
     7
  6
CONTINUOUS
  0
LAYER
  5
62
330
2
100
AcDbSymbolTableRecord
100
AcDbLayerTableRecord
  2
VIEWPORT
 70
     0
 62
     7
  6
CONTINUOUS
  0
LAYER
  5
65
330
2
100
AcDbSymbolTableRecord
100
AcDbLayerTableRecord
  2
ZUWAKU
 70
     0
 62
     7
  6
CONTINUOUS
  0
LAYER
  5
144
330
2
100
AcDbSymbolTableRecord
100
AcDbLayerTableRecord
  2
SEIHIN
 70
     0
 62
     3
  6
CONTINUOUS
  0
LAYER
  5
2B4
330
2
100
AcDbSymbolTableRecord
100
AcDbLayerTableRecord
  2
SUNPOU
 70
     0
 62
     4
  6
CONTINUOUS
  0
LAYER
  5
43A
330
2
100
AcDbSymbolTableRecord
100
AcDbLayerTableRecord
  2
DEFPOINTS
 70
     0
 62
     7
  6
CONTINUOUS
  0
LAYER
  5
51CF
330
2
100
AcDbSymbolTableRecord
100
AcDbLayerTableRecord
  2
MOJI
 70
     0
 62
     2
  6
CONTINUOUS
  0
LAYER
  5
6347
330
2
100
AcDbSymbolTableRecord
100
AcDbLayerTableRecord
  2
CENTER_L
 70
     0
 62
     1
  6
CENTER
  0
ENDTAB
  0
TABLE
  2
STYLE
  5
3
330
0
100
AcDbSymbolTable
 70
     3
  0
STYLE
  5
10
330
3
100
AcDbSymbolTableRecord
100
AcDbTextStyleTableRecord
  2
STANDARD
 70
     0
 40
0.0
 41
1.0
 50
0.0
 71
     0
 42
5.0
  3
TXT
  4
A:\Program Files\AutoCAD LT\ms\bigfont.shx
  0
STYLE
  5
51D0
330
3
100
AcDbSymbolTableRecord
100
AcDbTextStyleTableRecord
  2
ｽﾀｲﾙ1
 70
     0
 40
0.0
 41
1.0
 50
0.0
 71
     0
 42
2.5
  3
MS PGothic.ttf
  4

1001
ACAD
1000
MS PGothic
1071
    32818
  0
ENDTAB
  0
TABLE
  2
VIEW
  5
6
330
0
100
AcDbSymbolTable
 70
     0
  0
ENDTAB
  0
TABLE
  2
UCS
  5
7
330
0
100
AcDbSymbolTable
 70
     0
  0
ENDTAB
  0
TABLE
  2
APPID
  5
9
330
0
100
AcDbSymbolTable
 70
     1
  0
APPID
  5
11
330
9
100
AcDbSymbolTableRecord
100
AcDbRegAppTableRecord
  2
ACAD
 70
     0
  0
ENDTAB
  0
TABLE
  2
DIMSTYLE
  5
A
330
0
100
AcDbSymbolTable
 70
     2
  0
DIMSTYLE
105
1D
102
{ACAD_REACTORS
330
6140
330
614D
330
615A
330
6167
330
6174
330
6181
330
618E
330
628D
330
62A3
330
62B0
330
65F2
330
65E2
330
654C
330
654B
330
6552
330
6551
330
65E5
330
6530
330
6531
330
6621
102
}
330
A
100
AcDbSymbolTableRecord
100
AcDbDimStyleTableRecord
  2
STANDARD
 70
     0
  3

  4

  5

  6

  7

 40
1.0
 41
0.18
 42
0.0625
 43
0.38
 44
0.18
 45
0.0
 46
0.0
 47
0.0
 48
0.0
140
0.18
141
0.09
142
0.0
143
25.4
144
1.0
145
0.0
146
1.0
147
0.09
 71
     0
 72
     0
 73
     1
 74
     1
 75
     0
 76
     0
 77
     0
 78
     0
170
     0
171
     2
172
     0
173
     0
174
     0
175
     0
176
     0
177
     0
178
     0
270
     2
271
     4
272
     4
273
     2
274
     2
340
10
275
     0
280
     0
281
     0
282
     0
283
     1
284
     0
285
     0
286
     0
287
     3
288
     0
  0
ENDTAB
  0
TABLE
  2
BLOCK_RECORD
  5
1
330
0
100
AcDbSymbolTable
 70
    32
  0
BLOCK_RECORD
  5
1A
102
{ACAD_XDICTIONARY
360
6C6
102
}
330
1
100
AcDbSymbolTableRecord
100
AcDbBlockTableRecord
  2
*MODEL_SPACE
  0
BLOCK_RECORD
  5
17
102
{ACAD_XDICTIONARY
360
6C4
102
}
330
1
100
AcDbSymbolTableRecord
100
AcDbBlockTableRecord
  2
*PAPER_SPACE
  0
BLOCK_RECORD
  5
6D
330
1
100
AcDbSymbolTableRecord
100
AcDbBlockTableRecord
  2
_OPEN
  0
BLOCK_RECORD
  5
6141
330
1
100
AcDbSymbolTableRecord
100
AcDbBlockTableRecord
  2
*D1
  0
BLOCK_RECORD
  5
614E
330
1
100
AcDbSymbolTableRecord
100
AcDbBlockTableRecord
  2
*D2
  0
BLOCK_RECORD
  5
615B
330
1
100
AcDbSymbolTableRecord
100
AcDbBlockTableRecord
  2
*D3
  0
BLOCK_RECORD
  5
6168
330
1
100
AcDbSymbolTableRecord
100
AcDbBlockTableRecord
  2
*D4
  0
BLOCK_RECORD
  5
6175
330
1
100
AcDbSymbolTableRecord
100
AcDbBlockTableRecord
  2
*D5
  0
BLOCK_RECORD
  5
6182
330
1
100
AcDbSymbolTableRecord
100
AcDbBlockTableRecord
  2
*D6
  0
BLOCK_RECORD
  5
618F
330
1
100
AcDbSymbolTableRecord
100
AcDbBlockTableRecord
  2
*D7
  0
BLOCK_RECORD
  5
628E
330
1
100
AcDbSymbolTableRecord
100
AcDbBlockTableRecord
  2
*D8
  0
BLOCK_RECORD
  5
62A4
330
1
100
AcDbSymbolTableRecord
100
AcDbBlockTableRecord
  2
*D9
  0
BLOCK_RECORD
  5
62B1
330
1
100
AcDbSymbolTableRecord
100
AcDbBlockTableRecord
  2
*D10
  0
ENDTAB
  0
ENDSEC
  0
SECTION
  2
BLOCKS
  0
BLOCK
  5
1B
330
1A
100
AcDbEntity
  8
0
100
AcDbBlockBegin
  2
*MODEL_SPACE
 70
     0
 10
0.0
 20
0.0
 30
0.0
  3
*MODEL_SPACE
  1

  0
ENDBLK
  5
1C
330
1A
100
AcDbEntity
  8
0
100
AcDbBlockEnd
  0
BLOCK
  5
18
330
17
100
AcDbEntity
 67
     1
  8
0
100
AcDbBlockBegin
  2
*PAPER_SPACE
 70
     0
 10
0.0
 20
0.0
 30
0.0
  3
*PAPER_SPACE
  1

  0
ENDBLK
  5
19
330
17
100
AcDbEntity
 67
     1
  8
0
100
AcDbBlockEnd
  0
BLOCK
  5
6E
330
6D
100
AcDbEntity
  8
0
100
AcDbBlockBegin
  2
_OPEN
 70
     0
 10
0.0
 20
0.0
 30
0.0
  3
_OPEN
  1

  0
LINE
  5
6F
330
6D
100
AcDbEntity
  8
0
  6
BYBLOCK
 62
     0
100
AcDbLine
 10
-1.0
 20
0.1666666666666666
 30
0.0
 11
0.0
 21
0.0
 31
0.0
  0
LINE
  5
70
330
6D
100
AcDbEntity
  8
0
  6
BYBLOCK
 62
     0
100
AcDbLine
 10
0.0
 20
0.0
 30
0.0
 11
-1.0
 21
-0.1666666666666666
 31
0.0
  0
LINE
  5
71
330
6D
100
AcDbEntity
  8
0
  6
BYBLOCK
 62
     0
100
AcDbLine
 10
0.0
 20
0.0
 30
0.0
 11
-1.0
 21
0.0
 31
0.0
  0
ENDBLK
  5
72
330
6D
100
AcDbEntity
  8
0
100
AcDbBlockEnd
  0
BLOCK
  5
614B
330
6141
100
AcDbEntity
  8
0
100
AcDbBlockBegin
  2
*D1
 70
     1
 10
0.0
 20
0.0
 30
0.0
  3
*D1
  1

  0
LINE
  5
67F0
330
6141
100
AcDbEntity
  8
SUNPOU
100
AcDbLine
 10
478.0201102709736
 20
180.9219798903308
 30
0.0
 11
502.4805066817398
 21
180.9219798903308
 31
0.0
  0
LINE
  5
67F1
330
6141
100
AcDbEntity
  8
SUNPOU
100
AcDbLine
 10
478.2060089803676
 20
156.9219798903308
 30
0.0
 11
502.4805066817398
 21
156.9219798903308
 31
0.0
  0
LINE
  5
67F2
330
6141
100
AcDbEntity
  8
SUNPOU
100
AcDbLine
 10
499.4805066817398
 20
173.9219798903308
 30
0.0
 11
499.4805066817398
 21
163.9219798903308
 31
0.0
  0
INSERT
  5
67F3
330
6141
100
AcDbEntity
  8
SUNPOU
100
AcDbBlockReference
  2
_OPEN
 10
499.4805066817398
 20
180.9219798903308
 30
0.0
 41
7.0
 42
7.0
 43
7.0
 50
90.0
  0
INSERT
  5
67F4
330
6141
100
AcDbEntity
  8
SUNPOU
100
AcDbBlockReference
  2
_OPEN
 10
499.4805066817398
 20
156.9219798903308
 30
0.0
 41
7.0
 42
7.0
 43
7.0
 50
270.0
  0
MTEXT
  5
67F5
330
6141
100
AcDbEntity
  8
SUNPOU
100
AcDbMText
 10
494.4805066817397
 20
168.9219798903309
 30
0.0
 40
6.0
 41
0.0
 71
     5
 72
     1
  1
\A1;24
 11
0.0000000000000001
 21
1.0
 31
0.0
  0
POINT
  5
67F6
330
6141
100
AcDbEntity
  8
DEFPOINTS
 62
     0
100
AcDbPoint
 10
472.0201102709736
 20
180.9219798903308
 30
0.0
  0
POINT
  5
67F7
330
6141
100
AcDbEntity
  8
DEFPOINTS
 62
     0
100
AcDbPoint
 10
472.2060089803676
 20
156.9219798903308
 30
0.0
  0
POINT
  5
67F8
330
6141
100
AcDbEntity
  8
DEFPOINTS
 62
     0
100
AcDbPoint
 10
499.4805066817398
 20
156.9219798903308
 30
0.0
  0
ENDBLK
  5
614C
330
6141
100
AcDbEntity
  8
0
100
AcDbBlockEnd
  0
BLOCK
  5
6158
330
614E
100
AcDbEntity
  8
0
100
AcDbBlockBegin
  2
*D2
 70
     1
 10
0.0
 20
0.0
 30
0.0
  3
*D2
  1

  0
LINE
  5
67F9
330
614E
100
AcDbEntity
  8
SUNPOU
100
AcDbLine
 10
484.0201102709736
 20
180.9219798903308
 30
0.0
 11
517.5086327656854
 21
180.9219798903308
 31
0.0
  0
LINE
  5
67FA
330
614E
100
AcDbEntity
  8
SUNPOU
100
AcDbLine
 10
431.3658321107697
 20
87.92205777865536
 30
0.0
 11
517.5086327656854
 21
87.92205777865534
 31
0.0
  0
LINE
  5
67FB
330
614E
100
AcDbEntity
  8
SUNPOU
100
AcDbLine
 10
514.5086327656854
 20
173.9219798903308
 30
0.0
 11
514.5086327656854
 21
94.92205777865533
 31
0.0
  0
INSERT
  5
67FC
330
614E
100
AcDbEntity
  8
SUNPOU
100
AcDbBlockReference
  2
_OPEN
 10
514.5086327656854
 20
180.9219798903308
 30
0.0
 41
7.0
 42
7.0
 43
7.0
 50
90.0
  0
INSERT
  5
67FD
330
614E
100
AcDbEntity
  8
SUNPOU
100
AcDbBlockReference
  2
_OPEN
 10
514.5086327656854
 20
87.92205777865534
 30
0.0
 41
7.0
 42
7.0
 43
7.0
 50
270.0
  0
MTEXT
  5
67FE
330
614E
100
AcDbEntity
  8
SUNPOU
100
AcDbMText
 10
509.5086327656854
 20
134.4220188344932
 30
0.0
 40
6.0
 41
0.0
 71
     5
 72
     1
  1
\A1;93
 11
0.0000000000000001
 21
1.0
 31
0.0
  0
POINT
  5
67FF
330
614E
100
AcDbEntity
  8
DEFPOINTS
 62
     0
100
AcDbPoint
 10
478.0201102709736
 20
180.9219798903308
 30
0.0
  0
POINT
  5
6800
330
614E
100
AcDbEntity
  8
DEFPOINTS
 62
     0
100
AcDbPoint
 10
425.3658321107697
 20
87.92205777865536
 30
0.0
  0
POINT
  5
6801
330
614E
100
AcDbEntity
  8
DEFPOINTS
 62
     0
100
AcDbPoint
 10
514.5086327656854
 20
87.92205777865534
 30
0.0
  0
ENDBLK
  5
6159
330
614E
100
AcDbEntity
  8
0
100
AcDbBlockEnd
  0
BLOCK
  5
6165
330
615B
100
AcDbEntity
  8
0
100
AcDbBlockBegin
  2
*D3
 70
     1
 10
0.0
 20
0.0
 30
0.0
  3
*D3
  1

  0
LINE
  5
6802
330
615B
100
AcDbEntity
  8
SUNPOU
100
AcDbLine
 10
390.5406987514322
 20
83.34135395194072
 30
0.0
 11
390.5406987514322
 21
58.23335758906523
 31
0.0
  0
LINE
  5
6803
330
615B
100
AcDbEntity
  8
SUNPOU
100
AcDbLine
 10
461.4124462002447
 20
83.35661481980674
 30
0.0
 11
461.4124462002447
 21
58.23335758906523
 31
0.0
  0
LINE
  5
6804
330
615B
100
AcDbEntity
  8
SUNPOU
100
AcDbLine
 10
397.5406987514322
 20
61.23335758906524
 30
0.0
 11
454.4124462002447
 21
61.23335758906524
 31
0.0
  0
INSERT
  5
6805
330
615B
100
AcDbEntity
  8
SUNPOU
100
AcDbBlockReference
  2
_OPEN
 10
390.5406987514322
 20
61.23335758906524
 30
0.0
 41
7.0
 42
7.0
 43
7.0
 50
180.0
  0
INSERT
  5
6806
330
615B
100
AcDbEntity
  8
SUNPOU
100
AcDbBlockReference
  2
_OPEN
 10
461.4124462002447
 20
61.23335758906524
 30
0.0
 41
7.0
 42
7.0
 43
7.0
  0
MTEXT
  5
6807
330
615B
100
AcDbEntity
  8
SUNPOU
100
AcDbMText
 10
425.9765724758385
 20
66.23335758906524
 30
0.0
 40
6.0
 41
0.0
 71
     5
 72
     1
  1
\A1;71
  0
POINT
  5
6808
330
615B
100
AcDbEntity
  8
DEFPOINTS
 62
     0
100
AcDbPoint
 10
390.5406987514322
 20
89.34135395194074
 30
0.0
  0
POINT
  5
6809
330
615B
100
AcDbEntity
  8
DEFPOINTS
 62
     0
100
AcDbPoint
 10
461.4124462002447
 20
89.35661481980673
 30
0.0
  0
POINT
  5
680A
330
615B
100
AcDbEntity
  8
DEFPOINTS
 62
     0
100
AcDbPoint
 10
461.4124462002447
 20
61.23335758906524
 30
0.0
  0
ENDBLK
  5
6166
330
615B
100
AcDbEntity
  8
0
100
AcDbBlockEnd
  0
BLOCK
  5
6172
330
6168
100
AcDbEntity
  8
0
100
AcDbBlockBegin
  2
*D4
 70
     1
 10
0.0
 20
0.0
 30
0.0
  3
*D4
  1

  0
LINE
  5
680B
330
6168
100
AcDbEntity
  8
SUNPOU
100
AcDbLine
 10
291.9682997679676
 20
204.1529917629309
 30
0.0
 11
268.4020710279592
 21
204.1529917629309
 31
0.0
  0
LINE
  5
680C
330
6168
100
AcDbEntity
  8
SUNPOU
100
AcDbLine
 10
307.9730933771263
 20
178.0817881459675
 30
0.0
 11
268.4020710279592
 21
178.0817881459675
 31
0.0
  0
LINE
  5
680D
330
6168
100
AcDbEntity
  8
SUNPOU
100
AcDbLine
 10
271.4020710279592
 20
197.1529917629309
 30
0.0
 11
271.4020710279592
 21
185.0817881459675
 31
0.0
  0
INSERT
  5
680E
330
6168
100
AcDbEntity
  8
SUNPOU
100
AcDbBlockReference
  2
_OPEN
 10
271.4020710279592
 20
204.1529917629309
 30
0.0
 41
7.0
 42
7.0
 43
7.0
 50
90.0
  0
INSERT
  5
680F
330
6168
100
AcDbEntity
  8
SUNPOU
100
AcDbBlockReference
  2
_OPEN
 10
271.4020710279592
 20
178.0817881459675
 30
0.0
 41
7.0
 42
7.0
 43
7.0
 50
270.0
  0
MTEXT
  5
6810
330
6168
100
AcDbEntity
  8
SUNPOU
100
AcDbMText
 10
266.4020710279591
 20
191.1173899544492
 30
0.0
 40
6.0
 41
0.0
 71
     5
 72
     1
  1
\A1;26
 11
0.0000000000000001
 21
1.0
 31
0.0
  0
POINT
  5
6811
330
6168
100
AcDbEntity
  8
DEFPOINTS
 62
     0
100
AcDbPoint
 10
297.9682997679676
 20
204.1529917629309
 30
0.0
  0
POINT
  5
6812
330
6168
100
AcDbEntity
  8
DEFPOINTS
 62
     0
100
AcDbPoint
 10
313.9730933771263
 20
178.0817881459675
 30
0.0
  0
POINT
  5
6813
330
6168
100
AcDbEntity
  8
DEFPOINTS
 62
     0
100
AcDbPoint
 10
271.4020710279592
 20
178.0817881459675
 30
0.0
  0
ENDBLK
  5
6173
330
6168
100
AcDbEntity
  8
0
100
AcDbBlockEnd
  0
BLOCK
  5
617F
330
6175
100
AcDbEntity
  8
0
100
AcDbBlockBegin
  2
*D5
 70
     1
 10
0.0
 20
0.0
 30
0.0
  3
*D5
  1

  0
LINE
  5
6814
330
6175
100
AcDbEntity
  8
SUNPOU
100
AcDbLine
 10
285.9682997679676
 20
204.1529917629309
 30
0.0
 11
250.4873762922616
 21
204.1529917629309
 31
0.0
  0
LINE
  5
6815
330
6175
100
AcDbEntity
  8
SUNPOU
100
AcDbLine
 10
419.3658321107696
 20
87.92197986980932
 30
0.0
 11
250.4873762922616
 21
87.92197986980937
 31
0.0
  0
LINE
  5
6816
330
6175
100
AcDbEntity
  8
SUNPOU
100
AcDbLine
 10
253.4873762922616
 20
197.1529917629309
 30
0.0
 11
253.4873762922616
 21
94.92197986980938
 31
0.0
  0
INSERT
  5
6817
330
6175
100
AcDbEntity
  8
SUNPOU
100
AcDbBlockReference
  2
_OPEN
 10
253.4873762922616
 20
204.1529917629309
 30
0.0
 41
7.0
 42
7.0
 43
7.0
 50
90.0
  0
INSERT
  5
6818
330
6175
100
AcDbEntity
  8
SUNPOU
100
AcDbBlockReference
  2
_OPEN
 10
253.4873762922616
 20
87.92197986980937
 30
0.0
 41
7.0
 42
7.0
 43
7.0
 50
270.0
  0
MTEXT
  5
6819
330
6175
100
AcDbEntity
  8
SUNPOU
100
AcDbMText
 10
248.4873762922616
 20
146.0374858163701
 30
0.0
 40
6.0
 41
0.0
 71
     5
 72
     1
  1
\A1;116
 11
0.0000000000000001
 21
1.0
 31
0.0
  0
POINT
  5
681A
330
6175
100
AcDbEntity
  8
DEFPOINTS
 62
     0
100
AcDbPoint
 10
291.9682997679676
 20
204.1529917629309
 30
0.0
  0
POINT
  5
681B
330
6175
100
AcDbEntity
  8
DEFPOINTS
 62
     0
100
AcDbPoint
 10
425.3658321107697
 20
87.92197986980932
 30
0.0
  0
POINT
  5
681C
330
6175
100
AcDbEntity
  8
DEFPOINTS
 62
     0
100
AcDbPoint
 10
253.4873762922616
 20
87.92197986980937
 30
0.0
  0
ENDBLK
  5
6180
330
6175
100
AcDbEntity
  8
0
100
AcDbBlockEnd
  0
BLOCK
  5
618C
330
6182
100
AcDbEntity
  8
0
100
AcDbBlockBegin
  2
*D6
 70
     1
 10
0.0
 20
0.0
 30
0.0
  3
*D6
  1

  0
LINE
  5
681D
330
6182
100
AcDbEntity
  8
SUNPOU
100
AcDbLine
 10
474.2060089803676
 20
184.9219798903308
 30
0.0
 11
474.2060089803676
 21
241.4105602074914
 31
0.0
  0
LINE
  5
681E
330
6182
100
AcDbEntity
  8
SUNPOU
100
AcDbLine
 10
337.9565553432676
 20
201.5406684754308
 30
0.0
 11
337.9565553432676
 21
241.4105602074914
 31
0.0
  0
LINE
  5
681F
330
6182
100
AcDbEntity
  8
SUNPOU
100
AcDbLine
 10
467.2060089803676
 20
238.4105602074914
 30
0.0
 11
344.9565553432676
 21
238.4105602074914
 31
0.0
  0
INSERT
  5
6820
330
6182
100
AcDbEntity
  8
SUNPOU
100
AcDbBlockReference
  2
_OPEN
 10
474.2060089803676
 20
238.4105602074914
 30
0.0
 41
7.0
 42
7.0
 43
7.0
  0
INSERT
  5
6821
330
6182
100
AcDbEntity
  8
SUNPOU
100
AcDbBlockReference
  2
_OPEN
 10
337.9565553432676
 20
238.4105602074914
 30
0.0
 41
7.0
 42
7.0
 43
7.0
 50
180.0
  0
MTEXT
  5
6822
330
6182
100
AcDbEntity
  8
SUNPOU
100
AcDbMText
 10
406.0812821618176
 20
243.4105602074914
 30
0.0
 40
6.0
 41
0.0
 71
     5
 72
     1
  1
\A1;136
  0
POINT
  5
6823
330
6182
100
AcDbEntity
  8
DEFPOINTS
 62
     0
100
AcDbPoint
 10
474.2060089803676
 20
178.9219798903308
 30
0.0
  0
POINT
  5
6824
330
6182
100
AcDbEntity
  8
DEFPOINTS
 62
     0
100
AcDbPoint
 10
337.9565553432676
 20
195.5406684754309
 30
0.0
  0
POINT
  5
6825
330
6182
100
AcDbEntity
  8
DEFPOINTS
 62
     0
100
AcDbPoint
 10
337.9565553432676
 20
238.4105602074914
 30
0.0
  0
ENDBLK
  5
618D
330
6182
100
AcDbEntity
  8
0
100
AcDbBlockEnd
  0
BLOCK
  5
6199
330
618F
100
AcDbEntity
  8
0
100
AcDbBlockBegin
  2
*D7
 70
     1
 10
0.0
 20
0.0
 30
0.0
  3
*D7
  1

  0
LINE
  5
6826
330
618F
100
AcDbEntity
  8
SUNPOU
100
AcDbLine
 10
474.2060089803676
 20
190.9219798903308
 30
0.0
 11
474.2060089803676
 21
260.4123919733674
 31
0.0
  0
LINE
  5
6827
330
618F
100
AcDbEntity
  8
SUNPOU
100
AcDbLine
 10
297.9682997679676
 20
206.3754406949308
 30
0.0
 11
297.9682997679676
 21
260.4123919733674
 31
0.0
  0
LINE
  5
6828
330
618F
100
AcDbEntity
  8
SUNPOU
100
AcDbLine
 10
467.2060089803676
 20
257.4123919733674
 30
0.0
 11
304.9682997679676
 21
257.4123919733674
 31
0.0
  0
INSERT
  5
6829
330
618F
100
AcDbEntity
  8
SUNPOU
100
AcDbBlockReference
  2
_OPEN
 10
474.2060089803676
 20
257.4123919733674
 30
0.0
 41
7.0
 42
7.0
 43
7.0
  0
INSERT
  5
682A
330
618F
100
AcDbEntity
  8
SUNPOU
100
AcDbBlockReference
  2
_OPEN
 10
297.9682997679676
 20
257.4123919733674
 30
0.0
 41
7.0
 42
7.0
 43
7.0
 50
180.0
  0
MTEXT
  5
682B
330
618F
100
AcDbEntity
  8
SUNPOU
100
AcDbMText
 10
386.0871543741676
 20
262.4123919733674
 30
0.0
 40
6.0
 41
0.0
 71
     5
 72
     1
  1
\A1;176
  0
POINT
  5
682C
330
618F
100
AcDbEntity
  8
DEFPOINTS
 62
     0
100
AcDbPoint
 10
474.2060089803676
 20
184.9219798903308
 30
0.0
  0
POINT
  5
682D
330
618F
100
AcDbEntity
  8
DEFPOINTS
 62
     0
100
AcDbPoint
 10
297.9682997679676
 20
200.3754406949308
 30
0.0
  0
POINT
  5
682E
330
618F
100
AcDbEntity
  8
DEFPOINTS
 62
     0
100
AcDbPoint
 10
297.9682997679676
 20
257.4123919733674
 30
0.0
  0
ENDBLK
  5
619A
330
618F
100
AcDbEntity
  8
0
100
AcDbBlockEnd
  0
BLOCK
  5
6298
330
628E
100
AcDbEntity
  8
0
100
AcDbBlockBegin
  2
*D8
 70
     1
 10
0.0
 20
0.0
 30
0.0
  3
*D8
  1

  0
LINE
  5
682F
330
628E
100
AcDbEntity
  8
SUNPOU
100
AcDbLine
 10
359.0681294037677
 20
345.8038232758484
 30
0.0
 11
312.6618835957033
 21
345.8038232758484
 31
0.0
  0
LINE
  5
6830
330
628E
100
AcDbEntity
  8
SUNPOU
100
AcDbLine
 10
332.7610106581677
 20
310.3136776138485
 30
0.0
 11
312.6618835957033
 21
310.3136776138485
 31
0.0
  0
LINE
  5
6831
330
628E
100
AcDbEntity
  8
SUNPOU
100
AcDbLine
 10
315.6618835957033
 20
338.8038232758484
 30
0.0
 11
315.6618835957033
 21
317.3136776138485
 31
0.0
  0
INSERT
  5
6832
330
628E
100
AcDbEntity
  8
SUNPOU
100
AcDbBlockReference
  2
_OPEN
 10
315.6618835957033
 20
345.8038232758484
 30
0.0
 41
7.0
 42
7.0
 43
7.0
 50
90.0
  0
INSERT
  5
6833
330
628E
100
AcDbEntity
  8
SUNPOU
100
AcDbBlockReference
  2
_OPEN
 10
315.6618835957033
 20
310.3136776138485
 30
0.0
 41
7.0
 42
7.0
 43
7.0
 50
270.0
  0
MTEXT
  5
6834
330
628E
100
AcDbEntity
  8
SUNPOU
100
AcDbMText
 10
310.6618835957032
 20
328.0587504448485
 30
0.0
 40
6.0
 41
0.0
 71
     5
 72
     1
  1
\A1;\U+203B35
 11
0.0000000000000001
 21
1.0
 31
0.0
  0
POINT
  5
6835
330
628E
100
AcDbEntity
  8
DEFPOINTS
 62
     0
100
AcDbPoint
 10
365.0681294037677
 20
345.8038232758484
 30
0.0
  0
POINT
  5
6836
330
628E
100
AcDbEntity
  8
DEFPOINTS
 62
     0
100
AcDbPoint
 10
338.7610106581677
 20
310.3136776138485
 30
0.0
  0
POINT
  5
6837
330
628E
100
AcDbEntity
  8
DEFPOINTS
 62
     0
100
AcDbPoint
 10
315.6618835957033
 20
310.3136776138485
 30
0.0
  0
ENDBLK
  5
6299
330
628E
100
AcDbEntity
  8
0
100
AcDbBlockEnd
  0
BLOCK
  5
62AE
330
62A4
100
AcDbEntity
  8
0
100
AcDbBlockBegin
  2
*D9
 70
     1
 10
0.0
 20
0.0
 30
0.0
  3
*D9
  1

  0
LINE
  5
6838
330
62A4
100
AcDbEntity
  8
SUNPOU
100
AcDbLine
 10
291.9682997679669
 20
486.5513868261201
 30
0.0
 11
268.4020710279592
 21
486.5513868261201
 31
0.0
  0
LINE
  5
6839
330
62A4
100
AcDbEntity
  8
SUNPOU
100
AcDbLine
 10
330.7894377829138
 20
349.1348156286947
 30
0.0
 11
268.4020710279592
 21
349.1348156286947
 31
0.0
  0
LINE
  5
683A
330
62A4
100
AcDbEntity
  8
SUNPOU
100
AcDbLine
 10
271.4020710279592
 20
479.5513868261202
 30
0.0
 11
271.4020710279592
 21
356.1348156286947
 31
0.0
  0
INSERT
  5
683B
330
62A4
100
AcDbEntity
  8
SUNPOU
100
AcDbBlockReference
  2
_OPEN
 10
271.4020710279592
 20
486.5513868261201
 30
0.0
 41
7.0
 42
7.0
 43
7.0
 50
90.0
  0
INSERT
  5
683C
330
62A4
100
AcDbEntity
  8
SUNPOU
100
AcDbBlockReference
  2
_OPEN
 10
271.4020710279592
 20
349.1348156286947
 30
0.0
 41
7.0
 42
7.0
 43
7.0
 50
270.0
  0
MTEXT
  5
683D
330
62A4
100
AcDbEntity
  8
SUNPOU
100
AcDbMText
 10
266.4020710279591
 20
417.8431012274074
 30
0.0
 40
6.0
 41
0.0
 71
     5
 72
     1
  1
\A1;137
 11
0.0000000000000001
 21
1.0
 31
0.0
  0
POINT
  5
683E
330
62A4
100
AcDbEntity
  8
DEFPOINTS
 62
     0
100
AcDbPoint
 10
297.9682997679669
 20
486.5513868261201
 30
0.0
  0
POINT
  5
683F
330
62A4
100
AcDbEntity
  8
DEFPOINTS
 62
     0
100
AcDbPoint
 10
336.7894377829138
 20
349.1348156286947
 30
0.0
  0
POINT
  5
6840
330
62A4
100
AcDbEntity
  8
DEFPOINTS
 62
     0
100
AcDbPoint
 10
271.4020710279592
 20
349.1348156286947
 30
0.0
  0
ENDBLK
  5
62AF
330
62A4
100
AcDbEntity
  8
0
100
AcDbBlockEnd
  0
BLOCK
  5
62BB
330
62B1
100
AcDbEntity
  8
0
100
AcDbBlockBegin
  2
*D10
 70
     1
 10
0.0
 20
0.0
 30
0.0
  3
*D10
  1

  0
LINE
  5
6841
330
62B1
100
AcDbEntity
  8
SUNPOU
100
AcDbLine
 10
285.9682997679669
 20
486.5513868261201
 30
0.0
 11
250.4873762922616
 21
486.5513868261201
 31
0.0
  0
LINE
  5
6842
330
62B1
100
AcDbEntity
  8
SUNPOU
100
AcDbLine
 10
332.7610106581677
 20
310.3136776138485
 30
0.0
 11
250.4873762922616
 21
310.3136776138485
 31
0.0
  0
LINE
  5
6843
330
62B1
100
AcDbEntity
  8
SUNPOU
100
AcDbLine
 10
253.4873762922617
 20
479.5513868261202
 30
0.0
 11
253.4873762922616
 21
317.3136776138485
 31
0.0
  0
INSERT
  5
6844
330
62B1
100
AcDbEntity
  8
SUNPOU
100
AcDbBlockReference
  2
_OPEN
 10
253.4873762922617
 20
486.5513868261201
 30
0.0
 41
7.0
 42
7.0
 43
7.0
 50
90.0
  0
INSERT
  5
6845
330
62B1
100
AcDbEntity
  8
SUNPOU
100
AcDbBlockReference
  2
_OPEN
 10
253.4873762922616
 20
310.3136776138485
 30
0.0
 41
7.0
 42
7.0
 43
7.0
 50
270.0
  0
MTEXT
  5
6846
330
62B1
100
AcDbEntity
  8
SUNPOU
100
AcDbMText
 10
248.4873762922616
 20
398.4325322199844
 30
0.0
 40
6.0
 41
0.0
 71
     5
 72
     1
  1
\A1;176
 11
0.0000000000000001
 21
1.0
 31
0.0
  0
POINT
  5
6847
330
62B1
100
AcDbEntity
  8
DEFPOINTS
 62
     0
100
AcDbPoint
 10
291.9682997679669
 20
486.5513868261201
 30
0.0
  0
POINT
  5
6848
330
62B1
100
AcDbEntity
  8
DEFPOINTS
 62
     0
100
AcDbPoint
 10
338.7610106581677
 20
310.3136776138485
 30
0.0
  0
POINT
  5
6849
330
62B1
100
AcDbEntity
  8
DEFPOINTS
 62
     0
100
AcDbPoint
 10
253.4873762922616
 20
310.3136776138485
 30
0.0
  0
ENDBLK
  5
62BC
330
62B1
100
AcDbEntity
  8
0
100
AcDbBlockEnd
  0
ENDSEC
  0
SECTION
  2
ENTITIES
  0
TEXT
  5
4F7
330
1A
100
AcDbEntity
  8
SUNPOU
 62
     4
100
AcDbText
 10
683.0721434841443
 20
36.11754564219644
 30
0.0
 40
6.0
  1
※　のきといの差込み寸法を示す
100
AcDbText
  0
LINE
  5
52E5
330
1A
100
AcDbEntity
  8
ZUWAKU
100
AcDbLine
 10
208.646601303624
 20
15.19999986828872
 30
0.0
 11
447.4243639845474
 21
15.19999986828871
 31
0.0
  0
LINE
  5
52E6
330
1A
100
AcDbEntity
  8
ZUWAKU
100
AcDbLine
 10
208.646601303624
 20
15.59999986828871
 30
0.0
 11
447.4243639845474
 21
15.59999986828872
 31
0.0
  0
LINE
  5
52E7
330
1A
100
AcDbEntity
  8
ZUWAKU
100
AcDbLine
 10
208.646601303624
 20
15.39999986828871
 30
0.0
 11
447.4243639845474
 21
15.39999986828871
 31
0.0
  0
LINE
  5
52E8
330
1A
100
AcDbEntity
  8
ZUWAKU
100
AcDbLine
 10
0.0000000135560185
 20
30.79999986828869
 30
0.0
 11
797.4000000135559
 21
30.79999986828869
 31
0.0
  0
LINE
  5
52E9
330
1A
100
AcDbEntity
  8
ZUWAKU
100
AcDbLine
 10
0.0000000135560185
 20
30.59999986828869
 30
0.0
 11
797.4000000135559
 21
30.59999986828869
 31
0.0
  0
LINE
  5
52EA
330
1A
100
AcDbEntity
  8
ZUWAKU
100
AcDbLine
 10
0.0000000135560185
 20
30.39999986828869
 30
0.0
 11
797.4000000135559
 21
30.39999986828869
 31
0.0
  0
LINE
  5
52EB
330
1A
100
AcDbEntity
  8
ZUWAKU
100
AcDbLine
 10
0.0000000135560185
 20
30.19999986828868
 30
0.0
 11
797.4000000135559
 21
30.19999986828868
 31
0.0
  0
LINE
  5
52EC
330
1A
100
AcDbEntity
  8
ZUWAKU
100
AcDbLine
 10
0.0000000135560185
 20
29.99999986828868
 30
0.0
 11
797.4000000135559
 21
29.99999986828868
 31
0.0
  0
LWPOLYLINE
  5
52ED
330
1A
100
AcDbEntity
  8
ZUWAKU
100
AcDbPolyline
 90
        4
 70
     1
 43
0.0
 10
0.2000000135559503
 20
551.3999998682887
 10
0.2000000135559503
 20
0.1999998682887281
 10
797.4000000135559
 20
0.1999998682887511
 10
797.4000000135561
 20
551.3999998682887
  0
LWPOLYLINE
  5
52EE
330
1A
100
AcDbEntity
  8
ZUWAKU
100
AcDbPolyline
 90
        4
 70
     1
 43
0.0
 10
0.6000000135559276
 20
550.9999998682888
 10
0.6000000135559276
 20
0.5999998682887054
 10
797.0000000135562
 20
0.5999998682887516
 10
797.000000013556
 20
550.9999998682888
  0
LWPOLYLINE
  5
52EF
330
1A
100
AcDbEntity
  8
ZUWAKU
100
AcDbPolyline
 90
        4
 70
     1
 43
0.0
 10
0.0000000135560185
 20
551.5999998682887
 10
0.0000000135560185
 20
-0.0000001317113174
 10
797.6000000135561
 20
-0.0000001317112499
 10
797.6000000135561
 20
551.5999998682888
  0
LWPOLYLINE
  5
52F0
330
1A
100
AcDbEntity
  8
ZUWAKU
100
AcDbPolyline
 90
        4
 70
     1
 43
0.0
 10
0.4000000135559958
 20
551.1999998682887
 10
0.4000000135559958
 20
0.3999998682887735
 10
797.200000013556
 20
0.3999998682887504
 10
797.200000013556
 20
551.1999998682887
  0
LWPOLYLINE
  5
52F1
330
1A
100
AcDbEntity
  8
ZUWAKU
100
AcDbPolyline
 90
        4
 70
     1
 43
0.0
 10
0.800000013555973
 20
550.7999998682887
 10
0.800000013555973
 20
0.7999998682887508
 10
796.8000000135559
 20
0.7999998682887508
 10
796.8000000135559
 20
550.7999998682887
  0
TEXT
  5
52F2
330
1A
100
AcDbEntity
  8
MOJI
100
AcDbText
 10
92.95778960172516
 20
12.74117799856344
 30
0.0
 40
6.0
  1
アートフェイスＶＭ１２０
 41
0.9
  7
ｽﾀｲﾙ1
100
AcDbText
  0
HATCH
  5
52F3
330
1A
100
AcDbEntity
  8
ZUWAKU
100
AcDbHatch
 10
0.0
 20
0.0
 30
0.0
210
0.0
220
0.0
230
1.0
  2
ANSI37
 70
     0
 71
     0
 91
        8
 92
        7
 72
     1
 73
     1
 93
       24
 10
14.50226267467587
 20
17.64484834927226
 42
-0.1989123673796348
 10
14.09221216833714
 20
18.63479784293331
 42
0.0
 10
14.09221216833714
 20
19.92499986828869
 42
-0.4142135623730912
 10
14.61721216833711
 20
20.44999986828868
 42
0.0
 10
17.59221216833702
 20
20.44999986828868
 42
0.4142135623731546
 10
18.11721216833712
 20
20.97499986828867
 42
0.0
 10
18.11721216833712
 20
22.72499986828869
 42
0.4142135623731586
 10
17.59221216833702
 20
23.24999986828868
 42
0.0
 10
14.09221216833714
 20
23.24999986828868
 42
0.4142135623730928
 10
11.29221216833718
 20
20.44999986828871
 42
0.0
 10
11.29221216833718
 20
18.63479784293344
 42
0.1989123673796619
 10
12.52236368735361
 20
15.66494936194983
 42
0.0
 10
15.43216166199829
 20
12.75515138730518
 42
-0.1989123673796613
 10
15.84221216833714
 20
11.76520189364399
 42
0.0
 10
15.84221216833714
 20
10.47499986828867
 42
-0.4142135623730911
 10
15.31721216833716
 20
9.949999868288685
 42
0.0
 10
12.34221216833725
 20
9.949999868288685
 42
0.4142135623731526
 10
11.81721216833716
 20
9.424999868288697
 42
0.0
 10
11.81721216833716
 20
7.674999868288676
 42
0.4142135623731526
 10
12.34221216833725
 20
7.149999868288688
 42
0.0
 10
15.84221216833714
 20
7.149999868288688
 42
0.4142135623731044
 10
18.64221216833721
 20
9.949999868288664
 42
0.0
 10
18.64221216833721
 20
11.76520189364393
 42
0.1989123673796604
 10
17.41206064932066
 20
14.73505037462747
 42
0.0
 97
        0
 92
        7
 72
     1
 73
     1
 93
       16
 10
23.54221216833718
 20
19.04999986828869
 42
-0.4142135623730935
 10
24.94221216833716
 20
20.44999986828868
 42
0.0
 10
26.86721216833712
 20
20.44999986828868
 42
0.4142135623731546
 10
27.39221216833721
 20
20.97499986828867
 42
0.0
 10
27.39221216833721
 20
22.72499986828869
 42
0.4142135623730951
 10
26.86721216833723
 20
23.24999986828868
 42
0.0
 10
24.94221216833705
 20
23.24999986828864
 42
0.4142135623730892
 10
20.74221216833711
 20
19.04999986828862
 42
0.0
 10
20.74221216833711
 20
11.34999986828871
 42
0.4142135623730969
 10
24.94221216833716
 20
7.149999868288688
 42
0.0
 10
26.86721216833712
 20
7.149999868288688
 42
0.4142135623731526
 10
27.39221216833721
 20
7.674999868288676
 42
0.0
 10
27.39221216833721
 20
9.424999868288697
 42
0.4142135623730891
 10
26.86721216833723
 20
9.949999868288685
 42
0.0
 10
24.94221216833716
 20
9.949999868288685
 42
-0.4142135623730928
 10
23.54221216833718
 20
11.34999986828867
 42
0.0
 97
        0
 92
        7
 72
     1
 73
     1
 93
        2
 10
24.24221216833712
 20
15.19999986828868
 42
1.0
 10
27.74221216833712
 20
15.19999986828868
 42
1.0
 97
        0
 92
        7
 72
     1
 73
     1
 93
       26
 10
37.31485865051513
 20
19.20504706185211
 42
0.0
 10
38.37649828365295
 20
22.5669059001217
 42
0.5069206636600134
 10
37.87586738445759
 20
23.24999986828868
 42
0.0
 10
36.17697800484836
 20
23.24999986828868
 42
0.3272098845218764
 10
35.676347105653
 20
22.88309383645565
 42
0.0
 10
33.80807723102122
 20
16.96690590012176
 42
-0.3272098845219541
 10
33.30744633182575
 20
16.59999986828868
 42
0.0
 10
33.1672121683373
 20
16.59999986828868
 42
-0.4142135623731526
 10
32.64221216833721
 20
17.12499986828867
 42
0.0
 10
32.64221216833721
 20
22.72499986828869
 42
0.4142135623730951
 10
32.11721216833723
 20
23.24999986828868
 42
0.0
 10
30.36721216833711
 20
23.24999986828868
 42
0.4142135623730871
 10
29.84221216833714
 20
22.7249998682887
 42
0.0
 10
29.84221216833714
 20
7.674999868288676
 42
0.4142135623730891
 10
30.36721216833711
 20
7.149999868288688
 42
0.0
 10
32.11721216833712
 20
7.149999868288688
 42
0.4142135623731526
 10
32.64221216833721
 20
7.674999868288676
 42
0.0
 10
32.64221216833721
 20
13.27499986828869
 42
-0.4142135623731526
 10
33.1672121683373
 20
13.79999986828868
 42
0.0
 10
33.30744633182587
 20
13.79999986828868
 42
-0.3272098845218915
 10
33.80807723102122
 20
13.43309383645561
 42
0.0
 10
35.676347105653
 20
7.516905900121759
 42
0.3272098845218902
 10
36.17697800484836
 20
7.149999868288688
 42
0.0
 10
37.87586738445759
 20
7.149999868288688
 42
0.5069206636600335
 10
38.37649828365295
 20
7.833093836455695
 42
0.0
 10
36.05010690517929
 20
15.19999986828882
 42
0.0
 97
        0
 92
        7
 72
     1
 73
     1
 93
        8
 10
43.49221216833711
 20
22.7249998682887
 42
0.4142135623731546
 10
42.96721216833702
 20
23.24999986828868
 42
0.0
 10
41.21721216833726
 20
23.24999986828868
 42
0.4142135623731507
 10
40.69221216833716
 20
22.7249998682887
 42
0.0
 10
40.69221216833716
 20
7.674999868288676
 42
0.4142135623731526
 10
41.21721216833726
 20
7.149999868288688
 42
0.0
 10
42.96721216833702
 20
7.149999868288688
 42
0.4142135623731526
 10
43.49221216833711
 20
7.674999868288676
 42
0.0
 97
        0
 92
        7
 72
     1
 73
     1
 93
       24
 10
48.3922121683372
 20
19.92499986828869
 42
-0.4142135623731546
 10
48.9172121683373
 20
20.44999986828868
 42
0.0
 10
51.89221216833721
 20
20.44999986828868
 42
0.4142135623730911
 10
52.41721216833719
 20
20.97499986828867
 42
0.0
 10
52.41721216833719
 20
22.72499986828869
 42
0.4142135623730952
 10
51.89221216833721
 20
23.24999986828868
 42
0.0
 10
48.3922121683372
 20
23.24999986828868
 42
0.4142135623731048
 10
45.59221216833714
 20
20.44999986828871
 42
0.0
 10
45.59221216833714
 20
18.63479784293344
 42
0.1989123673796613
 10
46.82236368735368
 20
15.66494936194989
 42
0.0
 10
49.73216166199836
 20
12.75515138730522
 42
-0.1989123673796402
 10
50.14221216833721
 20
11.76520189364415
 42
0.0
 10
50.14221216833721
 20
10.47499986828867
 42
-0.4142135623730911
 10
49.61721216833723
 20
9.949999868288685
 42
0.0
 10
46.64221216833721
 20
9.949999868288685
 42
0.4142135623731526
 10
46.11721216833712
 20
9.424999868288697
 42
0.0
 10
46.11721216833712
 20
7.674999868288676
 42
0.4142135623730891
 10
46.64221216833709
 20
7.149999868288688
 42
0.0
 10
50.14221216833721
 20
7.149999868288688
 42
0.4142135623730925
 10
52.94221216833716
 20
9.949999868288664
 42
0.0
 10
52.94221216833716
 20
11.76520189364393
 42
0.1989123673796675
 10
51.71206064932062
 20
14.73505037462759
 42
0.0
 10
48.80226267467605
 20
17.6448483492721
 42
-0.1989123673796652
 10
48.3922121683372
 20
18.63479784293327
 42
0.0
 97
        0
 92
        7
 72
     1
 73
     1
 93
       16
 10
57.84221216833714
 20
22.72499986828867
 42
0.414213562373103
 10
57.31721216833716
 20
23.24999986828868
 42
0.0
 10
55.56721216833716
 20
23.24999986828868
 42
0.4142135623730871
 10
55.04221216833719
 20
22.7249998682887
 42
0.0
 10
55.04221216833719
 20
9.949999868288664
 42
0.4142135623730926
 10
57.84221216833714
 20
7.149999868288688
 42
0.0
 10
61.34221216833714
 20
7.149999868288688
 42
0.4142135623731044
 10
64.14221216833721
 20
9.949999868288664
 42
0.0
 10
64.14221216833721
 20
22.72499986828869
 42
0.4142135623730951
 10
63.61721216833723
 20
23.24999986828868
 42
0.0
 10
61.86721216833712
 20
23.24999986828868
 42
0.4142135623730871
 10
61.34221216833714
 20
22.7249998682887
 42
0.0
 10
61.34221216833714
 20
10.99999986828866
 42
-0.414213562373088
 10
60.29221216833718
 20
9.949999868288685
 42
0.0
 10
58.89221216833721
 20
9.949999868288685
 42
-0.4142135623731197
 10
57.84221216833714
 20
10.99999986828866
 42
0.0
 97
        0
 92
        7
 72
     1
 73
     1
 93
        8
 10
69.04221216833718
 20
22.7249998682887
 42
0.4142135623730871
 10
68.51721216833721
 20
23.24999986828868
 42
0.0
 10
66.76721216833721
 20
23.24999986828868
 42
0.4142135623731507
 10
66.24221216833712
 20
22.7249998682887
 42
0.0
 10
66.24221216833712
 20
7.674999868288676
 42
0.4142135623730891
 10
66.76721216833709
 20
7.149999868288688
 42
0.0
 10
68.51721216833721
 20
7.149999868288688
 42
0.4142135623730891
 10
69.04221216833718
 20
7.674999868288676
 42
0.0
 97
        0
 75
     0
 76
     1
 52
0.0
 41
0.2
 77
     0
 78
     2
 53
45.0
 43
-900.942304321123
 44
-13.20000013171124
 45
-0.4490128060534576
 46
0.4490128060534577
 79
     0
 53
135.0
 43
-900.942304321123
 44
-13.20000013171124
 45
-0.4490128060534577
 46
-0.4490128060534576
 79
     0
 47
0.057451373970553
 98
        8
 10
16.07985497657932
 20
15.16717351417423
 10
22.40451501999519
 20
18.84406205073969
 10
25.16436789921567
 20
15.5118815143594
 10
30.91405999519315
 20
16.20129751473018
 10
41.83847203251275
 20
16.6609097822718
 10
46.89820090868557
 20
19.41857618469589
 10
56.55768598595637
 20
18.72915778338369
 10
67.82707963317875
 20
19.18877005092531
  0
LINE
  5
52F4
330
1A
100
AcDbEntity
  8
ZUWAKU
100
AcDbLine
 10
24.94221216833716
 20
23.24999986828864
 30
0.0
 11
26.86721216833712
 21
23.24999986828868
 31
0.0
  0
LINE
  5
52F5
330
1A
100
AcDbEntity
  8
ZUWAKU
100
AcDbLine
 10
26.86721216833712
 20
20.44999986828868
 30
0.0
 11
24.94221216833716
 21
20.44999986828868
 31
0.0
  0
LINE
  5
52F6
330
1A
100
AcDbEntity
  8
ZUWAKU
100
AcDbLine
 10
24.94221216833716
 20
9.949999868288685
 30
0.0
 11
26.86721216833712
 21
9.949999868288685
 31
0.0
  0
LINE
  5
52F7
330
1A
100
AcDbEntity
  8
ZUWAKU
100
AcDbLine
 10
26.86721216833712
 20
7.149999868288688
 30
0.0
 11
24.94221216833716
 21
7.149999868288688
 31
0.0
  0
CIRCLE
  5
52F8
330
1A
100
AcDbEntity
  8
ZUWAKU
100
AcDbCircle
 10
25.99221216833711
 20
15.19999986828868
 30
0.0
 40
1.75
  0
ARC
  5
52F9
330
1A
100
AcDbEntity
  8
ZUWAKU
100
AcDbCircle
 10
15.49221216833712
 20
18.63479784293338
 30
0.0
 40
1.399999999999999
100
AcDbArc
 50
180.0000000000016
 51
224.9999999999988
  0
LINE
  5
52FA
330
1A
100
AcDbEntity
  8
ZUWAKU
100
AcDbLine
 10
23.54221216833718
 20
19.04999986828868
 30
0.0
 11
23.54221216833718
 21
11.34999986828869
 31
0.0
  0
LINE
  5
52FB
330
1A
100
AcDbEntity
  8
ZUWAKU
100
AcDbLine
 10
20.74221216833711
 20
11.34999986828869
 30
0.0
 11
20.74221216833711
 21
19.04999986828864
 31
0.0
  0
ARC
  5
52FC
330
1A
100
AcDbEntity
  8
ZUWAKU
100
AcDbCircle
 10
15.49221216833712
 20
18.63479784293338
 30
0.0
 40
4.199999999999999
100
AcDbArc
 50
180.0
 51
225.0
  0
ARC
  5
52FD
330
1A
100
AcDbEntity
  8
ZUWAKU
100
AcDbCircle
 10
15.84221216833714
 20
9.949999868288685
 30
0.0
 40
2.799999999999999
100
AcDbArc
 50
270.0
 51
0.0
  0
ARC
  5
52FE
330
1A
100
AcDbEntity
  8
ZUWAKU
100
AcDbCircle
 10
24.94221216833716
 20
11.34999986828869
 30
0.0
 40
4.199999999999999
100
AcDbArc
 50
180.0
 51
270.0
  0
ARC
  5
52FF
330
1A
100
AcDbEntity
  8
ZUWAKU
100
AcDbCircle
 10
14.44221216833716
 20
11.76520189364399
 30
0.0
 40
4.199999999999999
100
AcDbArc
 50
0.0
 51
45.0
  0
LINE
  5
5300
330
1A
100
AcDbEntity
  8
ZUWAKU
100
AcDbLine
 10
17.41206064932066
 20
14.73505037462751
 30
0.0
 11
14.50226267467598
 21
17.64484834927218
 31
0.0
  0
LINE
  5
5301
330
1A
100
AcDbEntity
  8
ZUWAKU
100
AcDbLine
 10
15.84221216833714
 20
10.47499986828869
 30
0.0
 11
15.84221216833714
 21
11.76520189364403
 31
0.0
  0
ARC
  5
5302
330
1A
100
AcDbEntity
  8
ZUWAKU
100
AcDbCircle
 10
15.31721216833716
 20
10.47499986828869
 30
0.0
 40
0.525
100
AcDbArc
 50
270.0
 51
0.0
  0
ARC
  5
5303
330
1A
100
AcDbEntity
  8
ZUWAKU
100
AcDbCircle
 10
14.44221216833716
 20
11.76520189364403
 30
0.0
 40
1.399999999999999
100
AcDbArc
 50
0.0
 51
45.0
  0
LINE
  5
5304
330
1A
100
AcDbEntity
  8
ZUWAKU
100
AcDbLine
 10
11.81721216833716
 20
7.674999868288686
 30
0.0
 11
11.81721216833716
 21
9.424999868288686
 31
0.0
  0
ARC
  5
5305
330
1A
100
AcDbEntity
  8
ZUWAKU
100
AcDbCircle
 10
12.34221216833714
 20
7.674999868288686
 30
0.0
 40
0.525
100
AcDbArc
 50
180.0
 51
270.0
  0
ARC
  5
5306
330
1A
100
AcDbEntity
  8
ZUWAKU
100
AcDbCircle
 10
12.34221216833714
 20
9.424999868288686
 30
0.0
 40
0.525
100
AcDbArc
 50
90.0
 51
180.0
  0
LINE
  5
5307
330
1A
100
AcDbEntity
  8
ZUWAKU
100
AcDbLine
 10
12.34221216833714
 20
7.149999868288688
 30
0.0
 11
15.84221216833714
 21
7.149999868288688
 31
0.0
  0
LINE
  5
5308
330
1A
100
AcDbEntity
  8
ZUWAKU
100
AcDbLine
 10
12.34221216833714
 20
9.949999868288685
 30
0.0
 11
15.31721216833716
 21
9.949999868288685
 31
0.0
  0
LINE
  5
5309
330
1A
100
AcDbEntity
  8
ZUWAKU
100
AcDbLine
 10
12.52236368735361
 20
15.66494936194986
 30
0.0
 11
15.43216166199829
 21
12.7551513873052
 31
0.0
  0
LINE
  5
530A
330
1A
100
AcDbEntity
  8
ZUWAKU
100
AcDbLine
 10
18.64221216833721
 20
9.949999868288685
 30
0.0
 11
18.64221216833721
 21
11.76520189364403
 31
0.0
  0
ARC
  5
530B
330
1A
100
AcDbEntity
  8
ZUWAKU
100
AcDbCircle
 10
24.94221216833716
 20
11.34999986828869
 30
0.0
 40
1.399999999999999
100
AcDbArc
 50
180.0
 51
270.0
  0
ARC
  5
530C
330
1A
100
AcDbEntity
  8
ZUWAKU
100
AcDbCircle
 10
17.59221216833714
 20
22.72499986828868
 30
0.0
 40
0.525
100
AcDbArc
 50
0.0
 51
90.0
  0
ARC
  5
530D
330
1A
100
AcDbEntity
  8
ZUWAKU
100
AcDbCircle
 10
17.59221216833714
 20
20.97499986828868
 30
0.0
 40
0.525
100
AcDbArc
 50
270.0
 51
0.0
  0
LINE
  5
530E
330
1A
100
AcDbEntity
  8
ZUWAKU
100
AcDbLine
 10
14.09221216833714
 20
23.24999986828868
 30
0.0
 11
17.59221216833714
 21
23.24999986828868
 31
0.0
  0
ARC
  5
530F
330
1A
100
AcDbEntity
  8
ZUWAKU
100
AcDbCircle
 10
14.61721216833711
 20
19.92499986828868
 30
0.0
 40
0.525
100
AcDbArc
 50
90.0
 51
180.0
  0
LINE
  5
5310
330
1A
100
AcDbEntity
  8
ZUWAKU
100
AcDbLine
 10
14.09221216833714
 20
19.92499986828868
 30
0.0
 11
14.09221216833714
 21
18.63479784293334
 31
0.0
  0
LINE
  5
5311
330
1A
100
AcDbEntity
  8
ZUWAKU
100
AcDbLine
 10
17.59221216833714
 20
20.44999986828868
 30
0.0
 11
14.61721216833711
 21
20.44999986828868
 31
0.0
  0
LINE
  5
5312
330
1A
100
AcDbEntity
  8
ZUWAKU
100
AcDbLine
 10
11.29221216833718
 20
20.44999986828868
 30
0.0
 11
11.29221216833718
 21
18.63479784293334
 31
0.0
  0
ARC
  5
5313
330
1A
100
AcDbEntity
  8
ZUWAKU
100
AcDbCircle
 10
14.09221216833714
 20
20.44999986828868
 30
0.0
 40
2.799999999999999
100
AcDbArc
 50
90.0
 51
180.0
  0
LINE
  5
5314
330
1A
100
AcDbEntity
  8
ZUWAKU
100
AcDbLine
 10
18.11721216833712
 20
22.72499986828868
 30
0.0
 11
18.11721216833712
 21
20.97499986828868
 31
0.0
  0
ARC
  5
5315
330
1A
100
AcDbEntity
  8
ZUWAKU
100
AcDbCircle
 10
24.94221216833716
 20
19.04999986828868
 30
0.0
 40
1.399999999999999
100
AcDbArc
 50
90.0
 51
180.0
  0
ARC
  5
5316
330
1A
100
AcDbEntity
  8
ZUWAKU
100
AcDbCircle
 10
24.94221216833716
 20
19.04999986828864
 30
0.0
 40
4.199999999999999
100
AcDbArc
 50
90.0
 51
180.0
  0
LINE
  5
5317
330
1A
100
AcDbEntity
  8
ZUWAKU
100
AcDbLine
 10
79.32662956154422
 20
29.99999986828868
 30
0.0
 11
79.32662956154445
 21
0.7999998682887508
 31
0.0
  0
LINE
  5
5318
330
1A
100
AcDbEntity
  8
ZUWAKU
100
AcDbLine
 10
79.52662956154426
 20
29.99999986828868
 30
0.0
 11
79.52662956154449
 21
0.7999998682887508
 31
0.0
  0
LINE
  5
5319
330
1A
100
AcDbEntity
  8
ZUWAKU
100
AcDbLine
 10
79.12662956154441
 20
29.99999986828868
 30
0.0
 11
79.12662956154441
 21
0.7999998682887508
 31
0.0
  0
LINE
  5
531A
330
1A
100
AcDbEntity
  8
ZUWAKU
100
AcDbLine
 10
64.14221216833721
 20
9.949999868288685
 30
0.0
 11
64.14221216833721
 21
22.72499986828868
 31
0.0
  0
LINE
  5
531B
330
1A
100
AcDbEntity
  8
ZUWAKU
100
AcDbLine
 10
61.34221216833714
 20
22.72499986828868
 30
0.0
 11
61.34221216833714
 21
10.99999986828868
 31
0.0
  0
LINE
  5
531C
330
1A
100
AcDbEntity
  8
ZUWAKU
100
AcDbLine
 10
69.04221216833718
 20
7.674999868288686
 30
0.0
 11
69.04221216833718
 21
22.72499986828868
 31
0.0
  0
LINE
  5
531D
330
1A
100
AcDbEntity
  8
ZUWAKU
100
AcDbLine
 10
66.24221216833712
 20
22.72499986828868
 30
0.0
 11
66.24221216833712
 21
7.674999868288686
 31
0.0
  0
ARC
  5
531E
330
1A
100
AcDbEntity
  8
ZUWAKU
100
AcDbCircle
 10
49.79221216833718
 20
18.63479784293338
 30
0.0
 40
1.399999999999999
100
AcDbArc
 50
180.0000000000016
 51
224.9999999999988
  0
ARC
  5
531F
330
1A
100
AcDbEntity
  8
ZUWAKU
100
AcDbCircle
 10
49.79221216833718
 20
18.63479784293338
 30
0.0
 40
4.199999999999999
100
AcDbArc
 50
180.0
 51
225.0
  0
LINE
  5
5320
330
1A
100
AcDbEntity
  8
ZUWAKU
100
AcDbLine
 10
37.31485865051513
 20
19.20504706185211
 30
0.0
 11
36.05010690517929
 21
15.1999998682887
 31
0.0
  0
LINE
  5
5321
330
1A
100
AcDbEntity
  8
ZUWAKU
100
AcDbLine
 10
40.69221216833716
 20
22.72499986828868
 30
0.0
 11
40.69221216833716
 21
7.674999868288686
 31
0.0
  0
LINE
  5
5322
330
1A
100
AcDbEntity
  8
ZUWAKU
100
AcDbLine
 10
43.49221216833711
 20
7.674999868288686
 30
0.0
 11
43.49221216833711
 21
22.72499986828868
 31
0.0
  0
LINE
  5
5323
330
1A
100
AcDbEntity
  8
ZUWAKU
100
AcDbLine
 10
55.04221216833719
 20
22.72499986828868
 30
0.0
 11
55.04221216833719
 21
9.949999868288685
 31
0.0
  0
LINE
  5
5324
330
1A
100
AcDbEntity
  8
ZUWAKU
100
AcDbLine
 10
57.84221216833714
 20
10.99999986828868
 30
0.0
 11
57.84221216833714
 21
22.72499986828868
 31
0.0
  0
LINE
  5
5325
330
1A
100
AcDbEntity
  8
ZUWAKU
100
AcDbLine
 10
32.64221216833721
 20
17.12499986828869
 30
0.0
 11
32.64221216833721
 21
22.72499986828868
 31
0.0
  0
LINE
  5
5326
330
1A
100
AcDbEntity
  8
ZUWAKU
100
AcDbLine
 10
29.84221216833714
 20
22.72499986828868
 30
0.0
 11
29.84221216833714
 21
7.674999868288686
 31
0.0
  0
LINE
  5
5327
330
1A
100
AcDbEntity
  8
ZUWAKU
100
AcDbLine
 10
35.676347105653
 20
22.88309383645565
 30
0.0
 11
33.80807723102122
 21
16.96690590012171
 31
0.0
  0
LINE
  5
5328
330
1A
100
AcDbEntity
  8
ZUWAKU
100
AcDbLine
 10
60.29221216833718
 20
9.949999868288685
 30
0.0
 11
58.89221216833721
 21
9.949999868288685
 31
0.0
  0
LINE
  5
5329
330
1A
100
AcDbEntity
  8
ZUWAKU
100
AcDbLine
 10
57.84221216833714
 20
7.149999868288688
 30
0.0
 11
61.34221216833714
 21
7.149999868288688
 31
0.0
  0
LINE
  5
532A
330
1A
100
AcDbEntity
  8
ZUWAKU
100
AcDbLine
 10
41.21721216833714
 20
7.149999868288688
 30
0.0
 11
42.96721216833714
 21
7.149999868288688
 31
0.0
  0
LINE
  5
532B
330
1A
100
AcDbEntity
  8
ZUWAKU
100
AcDbLine
 10
35.676347105653
 20
7.516905900121713
 30
0.0
 11
33.80807723102122
 21
13.43309383645565
 31
0.0
  0
ARC
  5
532C
330
1A
100
AcDbEntity
  8
ZUWAKU
100
AcDbCircle
 10
33.30744633182587
 20
17.12499986828869
 30
0.0
 40
0.525
100
AcDbArc
 50
270.0
 51
342.4744316262769
  0
LINE
  5
532D
330
1A
100
AcDbEntity
  8
ZUWAKU
100
AcDbLine
 10
33.30744633182587
 20
16.59999986828868
 30
0.0
 11
33.16721216833718
 21
16.59999986828868
 31
0.0
  0
LINE
  5
532E
330
1A
100
AcDbEntity
  8
ZUWAKU
100
AcDbLine
 10
33.16721216833718
 20
13.79999986828868
 30
0.0
 11
33.30744633182587
 21
13.79999986828868
 31
0.0
  0
ARC
  5
532F
330
1A
100
AcDbEntity
  8
ZUWAKU
100
AcDbCircle
 10
33.16721216833718
 20
17.12499986828869
 30
0.0
 40
0.525
100
AcDbArc
 50
180.0
 51
270.0
  0
LINE
  5
5330
330
1A
100
AcDbEntity
  8
ZUWAKU
100
AcDbLine
 10
30.36721216833711
 20
7.149999868288688
 30
0.0
 11
32.11721216833712
 21
7.149999868288688
 31
0.0
  0
ARC
  5
5331
330
1A
100
AcDbEntity
  8
ZUWAKU
100
AcDbCircle
 10
32.11721216833712
 20
7.674999868288686
 30
0.0
 40
0.525
100
AcDbArc
 50
270.0
 51
0.0
  0
LINE
  5
5332
330
1A
100
AcDbEntity
  8
ZUWAKU
100
AcDbLine
 10
32.64221216833721
 20
7.674999868288686
 30
0.0
 11
32.64221216833721
 21
13.27499986828868
 31
0.0
  0
LINE
  5
5333
330
1A
100
AcDbEntity
  8
ZUWAKU
100
AcDbLine
 10
27.39221216833721
 20
9.424999868288686
 30
0.0
 11
27.39221216833721
 21
7.674999868288686
 31
0.0
  0
ARC
  5
5334
330
1A
100
AcDbEntity
  8
ZUWAKU
100
AcDbCircle
 10
26.86721216833712
 20
7.674999868288686
 30
0.0
 40
0.525
100
AcDbArc
 50
270.0
 51
0.0
  0
ARC
  5
5335
330
1A
100
AcDbEntity
  8
ZUWAKU
100
AcDbCircle
 10
26.86721216833712
 20
9.424999868288686
 30
0.0
 40
0.525
100
AcDbArc
 50
0.0
 51
90.0
  0
ARC
  5
5336
330
1A
100
AcDbEntity
  8
ZUWAKU
100
AcDbCircle
 10
30.36721216833711
 20
7.674999868288686
 30
0.0
 40
0.525
100
AcDbArc
 50
180.0
 51
270.0
  0
ARC
  5
5337
330
1A
100
AcDbEntity
  8
ZUWAKU
100
AcDbCircle
 10
33.30744633182587
 20
13.27499986828868
 30
0.0
 40
0.525
100
AcDbArc
 50
17.52556837372303
 51
90.0
  0
ARC
  5
5338
330
1A
100
AcDbEntity
  8
ZUWAKU
100
AcDbCircle
 10
33.16721216833718
 20
13.27499986828868
 30
0.0
 40
0.525
100
AcDbArc
 50
90.0
 51
180.0
  0
ARC
  5
5339
330
1A
100
AcDbEntity
  8
ZUWAKU
100
AcDbCircle
 10
41.21721216833714
 20
7.674999868288686
 30
0.0
 40
0.525
100
AcDbArc
 50
180.0
 51
270.0
  0
LINE
  5
533A
330
1A
100
AcDbEntity
  8
ZUWAKU
100
AcDbLine
 10
36.17697800484847
 20
7.149999868288688
 30
0.0
 11
37.87586738445748
 21
7.149999868288688
 31
0.0
  0
ARC
  5
533B
330
1A
100
AcDbEntity
  8
ZUWAKU
100
AcDbCircle
 10
37.87586738445748
 20
7.674999868288686
 30
0.0
 40
0.525
100
AcDbArc
 50
270.0
 51
17.52556837372303
  0
LINE
  5
533C
330
1A
100
AcDbEntity
  8
ZUWAKU
100
AcDbLine
 10
38.37649828365295
 20
7.83309383645566
 30
0.0
 11
36.05010690517929
 21
15.1999998682887
 31
0.0
  0
ARC
  5
533D
330
1A
100
AcDbEntity
  8
ZUWAKU
100
AcDbCircle
 10
36.17697800484847
 20
7.674999868288686
 30
0.0
 40
0.525
100
AcDbArc
 50
197.525568373723
 51
270.0
  0
ARC
  5
533E
330
1A
100
AcDbEntity
  8
ZUWAKU
100
AcDbCircle
 10
57.84221216833714
 20
9.949999868288685
 30
0.0
 40
2.799999999999999
100
AcDbArc
 50
180.0
 51
270.0
  0
ARC
  5
533F
330
1A
100
AcDbEntity
  8
ZUWAKU
100
AcDbCircle
 10
50.14221216833721
 20
9.949999868288685
 30
0.0
 40
2.799999999999999
100
AcDbArc
 50
270.0
 51
0.0
  0
LINE
  5
5340
330
1A
100
AcDbEntity
  8
ZUWAKU
100
AcDbLine
 10
51.71206064932073
 20
14.73505037462751
 30
0.0
 11
48.80226267467595
 21
17.64484834927218
 31
0.0
  0
LINE
  5
5341
330
1A
100
AcDbEntity
  8
ZUWAKU
100
AcDbLine
 10
50.14221216833721
 20
10.47499986828869
 30
0.0
 11
50.14221216833721
 21
11.76520189364403
 31
0.0
  0
ARC
  5
5342
330
1A
100
AcDbEntity
  8
ZUWAKU
100
AcDbCircle
 10
48.74221216833712
 20
11.76520189364403
 30
0.0
 40
1.399999999999999
100
AcDbArc
 50
0.0
 51
45.0
  0
ARC
  5
5343
330
1A
100
AcDbEntity
  8
ZUWAKU
100
AcDbCircle
 10
49.61721216833712
 20
10.47499986828869
 30
0.0
 40
0.525
100
AcDbArc
 50
270.0
 51
0.0
  0
LINE
  5
5344
330
1A
100
AcDbEntity
  8
ZUWAKU
100
AcDbLine
 10
46.11721216833712
 20
7.674999868288686
 30
0.0
 11
46.11721216833712
 21
9.424999868288686
 31
0.0
  0
ARC
  5
5345
330
1A
100
AcDbEntity
  8
ZUWAKU
100
AcDbCircle
 10
46.64221216833721
 20
7.674999868288686
 30
0.0
 40
0.525
100
AcDbArc
 50
180.0
 51
270.0
  0
ARC
  5
5346
330
1A
100
AcDbEntity
  8
ZUWAKU
100
AcDbCircle
 10
42.96721216833714
 20
7.674999868288686
 30
0.0
 40
0.525
100
AcDbArc
 50
270.0
 51
0.0
  0
ARC
  5
5347
330
1A
100
AcDbEntity
  8
ZUWAKU
100
AcDbCircle
 10
46.64221216833721
 20
9.424999868288686
 30
0.0
 40
0.525
100
AcDbArc
 50
90.0
 51
180.0
  0
LINE
  5
5348
330
1A
100
AcDbEntity
  8
ZUWAKU
100
AcDbLine
 10
46.64221216833721
 20
9.949999868288685
 30
0.0
 11
49.61721216833712
 21
9.949999868288685
 31
0.0
  0
LINE
  5
5349
330
1A
100
AcDbEntity
  8
ZUWAKU
100
AcDbLine
 10
46.64221216833721
 20
7.149999868288688
 30
0.0
 11
50.14221216833721
 21
7.149999868288688
 31
0.0
  0
LINE
  5
534A
330
1A
100
AcDbEntity
  8
ZUWAKU
100
AcDbLine
 10
46.82236368735368
 20
15.66494936194986
 30
0.0
 11
49.73216166199836
 21
12.7551513873052
 31
0.0
  0
LINE
  5
534B
330
1A
100
AcDbEntity
  8
ZUWAKU
100
AcDbLine
 10
52.94221216833716
 20
9.949999868288685
 30
0.0
 11
52.94221216833716
 21
11.76520189364403
 31
0.0
  0
ARC
  5
534C
330
1A
100
AcDbEntity
  8
ZUWAKU
100
AcDbCircle
 10
48.74221216833712
 20
11.76520189364399
 30
0.0
 40
4.199999999999999
100
AcDbArc
 50
0.0
 51
45.0
  0
ARC
  5
534D
330
1A
100
AcDbEntity
  8
ZUWAKU
100
AcDbCircle
 10
58.89221216833721
 20
10.99999986828868
 30
0.0
 40
1.049999999999999
100
AcDbArc
 50
180.0
 51
270.0
  0
ARC
  5
534E
330
1A
100
AcDbEntity
  8
ZUWAKU
100
AcDbCircle
 10
61.34221216833714
 20
9.949999868288685
 30
0.0
 40
2.799999999999999
100
AcDbArc
 50
270.0
 51
0.0
  0
LINE
  5
534F
330
1A
100
AcDbEntity
  8
ZUWAKU
100
AcDbLine
 10
66.76721216833721
 20
7.149999868288688
 30
0.0
 11
68.51721216833721
 21
7.149999868288688
 31
0.0
  0
ARC
  5
5350
330
1A
100
AcDbEntity
  8
ZUWAKU
100
AcDbCircle
 10
66.76721216833721
 20
7.674999868288686
 30
0.0
 40
0.525
100
AcDbArc
 50
180.0
 51
270.0
  0
ARC
  5
5351
330
1A
100
AcDbEntity
  8
ZUWAKU
100
AcDbCircle
 10
60.29221216833718
 20
10.99999986828868
 30
0.0
 40
1.049999999999999
100
AcDbArc
 50
270.0
 51
0.0
  0
ARC
  5
5352
330
1A
100
AcDbEntity
  8
ZUWAKU
100
AcDbCircle
 10
68.51721216833721
 20
7.674999868288686
 30
0.0
 40
0.525
100
AcDbArc
 50
270.0
 51
0.0
  0
LINE
  5
5353
330
1A
100
AcDbEntity
  8
ZUWAKU
100
AcDbLine
 10
42.96721216833714
 20
23.24999986828868
 30
0.0
 11
41.21721216833714
 21
23.24999986828868
 31
0.0
  0
ARC
  5
5354
330
1A
100
AcDbEntity
  8
ZUWAKU
100
AcDbCircle
 10
32.11721216833712
 20
22.72499986828868
 30
0.0
 40
0.525
100
AcDbArc
 50
0.0
 51
90.0
  0
LINE
  5
5355
330
1A
100
AcDbEntity
  8
ZUWAKU
100
AcDbLine
 10
32.11721216833712
 20
23.24999986828868
 30
0.0
 11
30.36721216833711
 21
23.24999986828868
 31
0.0
  0
ARC
  5
5356
330
1A
100
AcDbEntity
  8
ZUWAKU
100
AcDbCircle
 10
26.86721216833712
 20
22.72499986828868
 30
0.0
 40
0.525
100
AcDbArc
 50
0.0
 51
90.0
  0
ARC
  5
5357
330
1A
100
AcDbEntity
  8
ZUWAKU
100
AcDbCircle
 10
30.36721216833711
 20
22.72499986828868
 30
0.0
 40
0.525
100
AcDbArc
 50
90.0
 51
180.0
  0
ARC
  5
5358
330
1A
100
AcDbEntity
  8
ZUWAKU
100
AcDbCircle
 10
26.86721216833712
 20
20.97499986828868
 30
0.0
 40
0.525
100
AcDbArc
 50
270.0
 51
0.0
  0
LINE
  5
5359
330
1A
100
AcDbEntity
  8
ZUWAKU
100
AcDbLine
 10
27.39221216833721
 20
22.72499986828868
 30
0.0
 11
27.39221216833721
 21
20.97499986828868
 31
0.0
  0
ARC
  5
535A
330
1A
100
AcDbEntity
  8
ZUWAKU
100
AcDbCircle
 10
41.21721216833714
 20
22.72499986828868
 30
0.0
 40
0.525
100
AcDbArc
 50
90.0
 51
180.0
  0
LINE
  5
535B
330
1A
100
AcDbEntity
  8
ZUWAKU
100
AcDbLine
 10
36.17697800484847
 20
23.24999986828868
 30
0.0
 11
37.87586738445748
 21
23.24999986828868
 31
0.0
  0
ARC
  5
535C
330
1A
100
AcDbEntity
  8
ZUWAKU
100
AcDbCircle
 10
37.87586738445748
 20
22.72499986828868
 30
0.0
 40
0.525
100
AcDbArc
 50
342.4744316262769
 51
90.0
  0
LINE
  5
535D
330
1A
100
AcDbEntity
  8
ZUWAKU
100
AcDbLine
 10
38.37649828365295
 20
22.56690590012171
 30
0.0
 11
37.31485865051513
 21
19.20504706185211
 31
0.0
  0
ARC
  5
535E
330
1A
100
AcDbEntity
  8
ZUWAKU
100
AcDbCircle
 10
36.17697800484847
 20
22.72499986828868
 30
0.0
 40
0.525
100
AcDbArc
 50
90.0
 51
162.4744316262769
  0
LINE
  5
535F
330
1A
100
AcDbEntity
  8
ZUWAKU
100
AcDbLine
 10
48.3922121683372
 20
23.24999986828868
 30
0.0
 11
51.89221216833721
 21
23.24999986828868
 31
0.0
  0
LINE
  5
5360
330
1A
100
AcDbEntity
  8
ZUWAKU
100
AcDbLine
 10
51.89221216833721
 20
20.44999986828868
 30
0.0
 11
48.91721216833719
 21
20.44999986828868
 31
0.0
  0
ARC
  5
5361
330
1A
100
AcDbEntity
  8
ZUWAKU
100
AcDbCircle
 10
48.91721216833719
 20
19.92499986828868
 30
0.0
 40
0.525
100
AcDbArc
 50
90.0
 51
180.0
  0
LINE
  5
5362
330
1A
100
AcDbEntity
  8
ZUWAKU
100
AcDbLine
 10
48.3922121683372
 20
19.92499986828868
 30
0.0
 11
48.3922121683372
 21
18.63479784293334
 31
0.0
  0
ARC
  5
5363
330
1A
100
AcDbEntity
  8
ZUWAKU
100
AcDbCircle
 10
42.96721216833714
 20
22.72499986828868
 30
0.0
 40
0.525
100
AcDbArc
 50
0.0
 51
90.0
  0
LINE
  5
5364
330
1A
100
AcDbEntity
  8
ZUWAKU
100
AcDbLine
 10
45.59221216833714
 20
20.44999986828868
 30
0.0
 11
45.59221216833714
 21
18.63479784293334
 31
0.0
  0
ARC
  5
5365
330
1A
100
AcDbEntity
  8
ZUWAKU
100
AcDbCircle
 10
48.3922121683372
 20
20.44999986828868
 30
0.0
 40
2.799999999999999
100
AcDbArc
 50
90.0
 51
180.0
  0
ARC
  5
5366
330
1A
100
AcDbEntity
  8
ZUWAKU
100
AcDbCircle
 10
57.31721216833716
 20
22.72499986828868
 30
0.0
 40
0.525
100
AcDbArc
 50
0.0
 51
90.0
  0
ARC
  5
5367
330
1A
100
AcDbEntity
  8
ZUWAKU
100
AcDbCircle
 10
55.56721216833716
 20
22.72499986828868
 30
0.0
 40
0.525
100
AcDbArc
 50
90.0
 51
180.0
  0
LINE
  5
5368
330
1A
100
AcDbEntity
  8
ZUWAKU
100
AcDbLine
 10
57.31721216833716
 20
23.24999986828868
 30
0.0
 11
55.56721216833716
 21
23.24999986828868
 31
0.0
  0
ARC
  5
5369
330
1A
100
AcDbEntity
  8
ZUWAKU
100
AcDbCircle
 10
51.89221216833721
 20
22.72499986828868
 30
0.0
 40
0.525
100
AcDbArc
 50
0.0
 51
90.0
  0
ARC
  5
536A
330
1A
100
AcDbEntity
  8
ZUWAKU
100
AcDbCircle
 10
51.89221216833721
 20
20.97499986828868
 30
0.0
 40
0.525
100
AcDbArc
 50
270.0
 51
0.0
  0
LINE
  5
536B
330
1A
100
AcDbEntity
  8
ZUWAKU
100
AcDbLine
 10
52.41721216833719
 20
22.72499986828868
 30
0.0
 11
52.41721216833719
 21
20.97499986828868
 31
0.0
  0
LINE
  5
536C
330
1A
100
AcDbEntity
  8
ZUWAKU
100
AcDbLine
 10
68.51721216833721
 20
23.24999986828868
 30
0.0
 11
66.76721216833721
 21
23.24999986828868
 31
0.0
  0
ARC
  5
536D
330
1A
100
AcDbEntity
  8
ZUWAKU
100
AcDbCircle
 10
66.76721216833721
 20
22.72499986828868
 30
0.0
 40
0.525
100
AcDbArc
 50
90.0
 51
180.0
  0
ARC
  5
536E
330
1A
100
AcDbEntity
  8
ZUWAKU
100
AcDbCircle
 10
63.61721216833712
 20
22.72499986828868
 30
0.0
 40
0.525
100
AcDbArc
 50
0.0
 51
90.0
  0
LINE
  5
536F
330
1A
100
AcDbEntity
  8
ZUWAKU
100
AcDbLine
 10
63.61721216833712
 20
23.24999986828868
 30
0.0
 11
61.86721216833712
 21
23.24999986828868
 31
0.0
  0
ARC
  5
5370
330
1A
100
AcDbEntity
  8
ZUWAKU
100
AcDbCircle
 10
61.86721216833712
 20
22.72499986828868
 30
0.0
 40
0.525
100
AcDbArc
 50
90.0
 51
180.0
  0
ARC
  5
5371
330
1A
100
AcDbEntity
  8
ZUWAKU
100
AcDbCircle
 10
68.51721216833721
 20
22.72499986828868
 30
0.0
 40
0.525
100
AcDbArc
 50
0.0
 51
90.0
  0
TEXT
  5
5372
330
1A
100
AcDbEntity
  8
MOJI
100
AcDbText
 10
239.827202694407
 20
18.00492092569607
 30
0.0
 40
5.599999999999999
  1
曲り（入）Ⅱ
 41
0.9
  7
ｽﾀｲﾙ1
100
AcDbText
  0
TEXT
  5
5373
330
1A
100
AcDbEntity
  8
MOJI
100
AcDbText
 10
239.827202694407
 20
3.204920925696104
 30
0.0
 40
5.599999999999999
  1
ＶＭ１２０
 41
0.9
  7
ｽﾀｲﾙ1
100
AcDbText
  0
LINE
  5
5374
330
1A
100
AcDbEntity
  8
ZUWAKU
100
AcDbLine
 10
208.2466013036239
 20
29.99999986828868
 30
0.0
 11
208.2466013036239
 21
0.7999998682887508
 31
0.0
  0
LINE
  5
5375
330
1A
100
AcDbEntity
  8
ZUWAKU
100
AcDbLine
 10
208.6466013036238
 20
29.99999986828868
 30
0.0
 11
208.646601303624
 21
0.7999998682887508
 31
0.0
  0
LINE
  5
5376
330
1A
100
AcDbEntity
  8
ZUWAKU
100
AcDbLine
 10
208.4466013036237
 20
29.99999986828868
 30
0.0
 11
208.446601303624
 21
0.7999998682887508
 31
0.0
  0
TEXT
  5
5377
330
1A
100
AcDbEntity
  8
ZUWAKU
100
AcDbText
 10
209.7240463258335
 20
9.6553564066743
 30
0.0
 40
4.0
  1
サイズ
 41
0.9
  7
ｽﾀｲﾙ1
100
AcDbText
  0
TEXT
  5
5378
330
1A
100
AcDbEntity
  8
ZUWAKU
100
AcDbText
 10
209.7240463258333
 20
24.05535640667426
 30
0.0
 40
4.0
  1
品名
 41
0.9
  7
ｽﾀｲﾙ1
100
AcDbText
  0
LINE
  5
5379
330
1A
100
AcDbEntity
  8
ZUWAKU
100
AcDbLine
 10
648.8172025237602
 20
15.19999986828871
 30
0.0
 11
697.2490105620972
 21
15.19999986828871
 31
0.0
  0
LINE
  5
537A
330
1A
100
AcDbEntity
  8
ZUWAKU
100
AcDbLine
 10
648.8172025237604
 20
15.39999986828872
 30
0.0
 11
697.2490105620972
 21
15.39999986828871
 31
0.0
  0
LINE
  5
537B
330
1A
100
AcDbEntity
  8
ZUWAKU
100
AcDbLine
 10
648.8172025237602
 20
15.59999986828871
 30
0.0
 11
697.2490105620972
 21
15.59999986828871
 31
0.0
  0
TEXT
  5
537C
330
1A
100
AcDbEntity
  8
ZUWAKU
100
AcDbText
 10
658.2039377008584
 20
18.00492092569607
 30
0.0
 40
5.599999999999999
  1
　　．　　．　　
 41
0.9
  7
ｽﾀｲﾙ1
100
AcDbText
  0
LINE
  5
537D
330
1A
100
AcDbEntity
  8
ZUWAKU
100
AcDbLine
 10
505.1991795116968
 20
15.19999986828872
 30
0.0
 11
552.5269557796685
 21
15.19999986828872
 31
0.0
  0
LINE
  5
537E
330
1A
100
AcDbEntity
  8
ZUWAKU
100
AcDbLine
 10
505.1991795116968
 20
15.39999986828871
 30
0.0
 11
552.5269557796685
 21
15.39999986828871
 31
0.0
  0
LINE
  5
537F
330
1A
100
AcDbEntity
  8
ZUWAKU
100
AcDbLine
 10
505.1991795116968
 20
15.59999986828871
 30
0.0
 11
552.5269557796685
 21
15.59999986828871
 31
0.0
  0
TEXT
  5
5380
330
1A
100
AcDbEntity
  8
MOJI
100
AcDbText
 10
463.246432004558
 20
11.94261758994866
 30
0.0
 40
5.599999999999999
  1
ＰＧ５６□
 41
0.9
  7
ｽﾀｲﾙ1
100
AcDbText
  0
LINE
  5
5381
330
1A
100
AcDbEntity
  8
ZUWAKU
100
AcDbLine
 10
447.6243639845472
 20
29.99999986828868
 30
0.0
 11
447.6243639845474
 21
0.7999998682887508
 31
0.0
  0
LINE
  5
5382
330
1A
100
AcDbEntity
  8
ZUWAKU
100
AcDbLine
 10
447.8243639845472
 20
29.99999986828868
 30
0.0
 11
447.8243639845475
 21
0.7999998682887508
 31
0.0
  0
LINE
  5
5383
330
1A
100
AcDbEntity
  8
ZUWAKU
100
AcDbLine
 10
447.4243639845474
 20
29.99999986828868
 30
0.0
 11
447.4243639845474
 21
0.7999998682887508
 31
0.0
  0
TEXT
  5
5384
330
1A
100
AcDbEntity
  8
MOJI
100
AcDbText
 10
528.0409079858689
 20
18.00492092569607
 30
0.0
 40
5.599999999999999
  1
Ａ３
 41
0.9
  7
ｽﾀｲﾙ1
100
AcDbText
  0
LINE
  5
5385
330
1A
100
AcDbEntity
  8
ZUWAKU
100
AcDbLine
 10
504.9991795116969
 20
29.99999986828868
 30
0.0
 11
504.999179511697
 21
0.7999998682887508
 31
0.0
  0
LINE
  5
5386
330
1A
100
AcDbEntity
  8
ZUWAKU
100
AcDbLine
 10
505.1991795116968
 20
29.99999986828868
 30
0.0
 11
505.1991795116971
 21
0.7999998682887508
 31
0.0
  0
LINE
  5
5387
330
1A
100
AcDbEntity
  8
ZUWAKU
100
AcDbLine
 10
504.799179511697
 20
29.99999986828868
 30
0.0
 11
504.799179511697
 21
0.7999998682887508
 31
0.0
  0
TEXT
  5
5388
330
1A
100
AcDbEntity
  8
ZUWAKU
100
AcDbText
 10
461.8574426386929
 20
2.614070779428175
 30
0.0
 40
3.0
  1
□には色品番が入ります
 41
0.9
  7
ｽﾀｲﾙ1
100
AcDbText
  0
TEXT
  5
5389
330
1A
100
AcDbEntity
  8
ZUWAKU
100
AcDbText
 10
506.6766245339067
 20
9.6553564066743
 30
0.0
 40
4.0
  1
縮尺
 41
0.9
  7
ｽﾀｲﾙ1
100
AcDbText
  0
TEXT
  5
538A
330
1A
100
AcDbEntity
  8
MOJI
100
AcDbText
 10
528.0409079858689
 20
3.204920925696104
 30
0.0
 40
5.599999999999999
  1
１/２
 41
0.9
  7
ｽﾀｲﾙ1
100
AcDbText
  0
TEXT
  5
538B
330
1A
100
AcDbEntity
  8
ZUWAKU
100
AcDbText
 10
449.3018090067569
 20
24.05535640667426
 30
0.0
 40
4.0
  1
品番
 41
0.9
  7
ｽﾀｲﾙ1
100
AcDbText
  0
TEXT
  5
538C
330
1A
100
AcDbEntity
  8
ZUWAKU
100
AcDbText
 10
506.6766245339065
 20
24.05535640667426
 30
0.0
 40
4.0
  1
用紙
 41
0.9
  7
ｽﾀｲﾙ1
100
AcDbText
  0
LINE
  5
538D
330
1A
100
AcDbEntity
  8
ZUWAKU
100
AcDbLine
 10
648.6172025237603
 20
29.99999986828868
 30
0.0
 11
648.6172025237606
 21
0.7999998682887508
 31
0.0
  0
LINE
  5
538E
330
1A
100
AcDbEntity
  8
ZUWAKU
100
AcDbLine
 10
648.8172025237604
 20
29.99999986828868
 30
0.0
 11
648.8172025237607
 21
0.7999998682887508
 31
0.0
  0
LINE
  5
538F
330
1A
100
AcDbEntity
  8
ZUWAKU
100
AcDbLine
 10
648.4172025237605
 20
29.99999986828868
 30
0.0
 11
648.4172025237605
 21
0.7999998682887508
 31
0.0
  0
LINE
  5
5390
330
1A
100
AcDbEntity
  8
ZUWAKU
100
AcDbLine
 10
552.7269557796683
 20
29.99999986828868
 30
0.0
 11
552.7269557796684
 21
0.7999998682887508
 31
0.0
  0
LINE
  5
5391
330
1A
100
AcDbEntity
  8
ZUWAKU
100
AcDbLine
 10
552.9269557796683
 20
29.99999986828868
 30
0.0
 11
552.9269557796685
 21
0.7999998682887508
 31
0.0
  0
LINE
  5
5392
330
1A
100
AcDbEntity
  8
ZUWAKU
100
AcDbLine
 10
552.5269557796685
 20
29.99999986828868
 30
0.0
 11
552.5269557796685
 21
0.7999998682887508
 31
0.0
  0
TEXT
  5
5393
330
1A
100
AcDbEntity
  8
ZUWAKU
100
AcDbText
 10
650.29464754597
 20
24.05535640667426
 30
0.0
 40
4.0
  1
DATE
 41
0.9
  7
ｽﾀｲﾙ1
100
AcDbText
  0
LINE
  5
5394
330
1A
100
AcDbEntity
  8
ZUWAKU
100
AcDbLine
 10
697.2490105620972
 20
29.99999986828868
 30
0.0
 11
697.2490105620972
 21
0.7999998682887508
 31
0.0
  0
LINE
  5
5395
330
1A
100
AcDbEntity
  8
ZUWAKU
100
AcDbLine
 10
697.4490105620973
 20
29.99999986828868
 30
0.0
 11
697.4490105620973
 21
0.7999998682887508
 31
0.0
  0
LINE
  5
5396
330
1A
100
AcDbEntity
  8
ZUWAKU
100
AcDbLine
 10
697.6490105620971
 20
29.99999986828868
 30
0.0
 11
697.6490105620974
 21
0.7999998682887508
 31
0.0
  0
LINE
  5
5397
330
1A
100
AcDbEntity
  8
ZUWAKU
100
AcDbLine
 10
697.8490105620972
 20
29.99999986828868
 30
0.0
 11
697.8490105620974
 21
0.7999998682887508
 31
0.0
  0
TEXT
  5
5398
330
1A
100
AcDbEntity
  8
ZUWAKU
100
AcDbText
 10
708.5280842057998
 20
17.55383920397548
 30
0.0
 40
6.0
  1
積水化学工業株式会社
 41
0.9
  7
ｽﾀｲﾙ1
100
AcDbText
  0
TEXT
  5
5399
330
1A
100
AcDbEntity
  8
ZUWAKU
100
AcDbText
 10
708.5280842057998
 20
6.648840182142748
 30
0.0
 40
6.0
  1
建材事業部
 41
0.9
  7
ｽﾀｲﾙ1
100
AcDbText
  0
DIMENSION
  5
6140
330
1A
100
AcDbEntity
  8
SUNPOU
100
AcDbDimension
  2
*D1
 10
499.4805066817398
 20
156.9219798903308
 30
0.0
 11
494.4805066817397
 21
168.9219798903309
 31
0.0
 70
    32
  3
STANDARD
100
AcDbAlignedDimension
 13
472.0201102709736
 23
180.9219798903308
 33
0.0
 14
472.2060089803676
 24
156.9219798903308
 34
0.0
 50
90.0
100
AcDbRotatedDimension
1001
ACAD
1000
DSTYLE
1002
{
1070
    41
1040
7.0
1070
    42
1040
6.0
1070
    43
1040
14.0
1070
    44
1040
3.0
1070
    73
1070
     0
1070
    74
1070
     0
1070
    77
1070
     3
1070
   140
1040
6.0
1070
   141
1040
150.0
1070
   147
1040
2.0
1070
   172
1070
     1
1070
   173
1070
     1
1070
   176
1070
   256
1070
   177
1070
   256
1070
   178
1070
   256
1070
   271
1070
     0
1070
   272
1070
     0
1070
   341
1005
6D
1070
     6
1000
OPEN
1070
     7
1000
OPEN
1070
   371
1070
    -1
1070
   372
1070
    -1
1002
}
  0
DIMENSION
  5
614D
330
1A
100
AcDbEntity
  8
SUNPOU
100
AcDbDimension
  2
*D2
 10
514.5086327656854
 20
87.92205777865534
 30
0.0
 11
509.5086327656854
 21
134.4220188344932
 31
0.0
 70
    32
  3
STANDARD
100
AcDbAlignedDimension
 13
478.0201102709736
 23
180.9219798903308
 33
0.0
 14
425.3658321107697
 24
87.92205777865536
 34
0.0
 50
90.0
100
AcDbRotatedDimension
1001
ACAD
1000
DSTYLE
1002
{
1070
    41
1040
7.0
1070
    42
1040
6.0
1070
    43
1040
14.0
1070
    44
1040
3.0
1070
    73
1070
     0
1070
    74
1070
     0
1070
    77
1070
     3
1070
   140
1040
6.0
1070
   141
1040
150.0
1070
   147
1040
2.0
1070
   172
1070
     1
1070
   173
1070
     1
1070
   176
1070
   256
1070
   177
1070
   256
1070
   178
1070
   256
1070
   271
1070
     0
1070
   272
1070
     0
1070
   341
1005
6D
1070
     6
1000
OPEN
1070
     7
1000
OPEN
1070
   371
1070
    -1
1070
   372
1070
    -1
1002
}
  0
DIMENSION
  5
615A
330
1A
100
AcDbEntity
  8
SUNPOU
100
AcDbDimension
  2
*D3
 10
461.4124462002447
 20
61.23335758906524
 30
0.0
 11
425.9765724758385
 21
66.23335758906524
 31
0.0
 70
    32
  3
STANDARD
100
AcDbAlignedDimension
 13
390.5406987514322
 23
89.34135395194074
 33
0.0
 14
461.4124462002447
 24
89.35661481980673
 34
0.0
100
AcDbRotatedDimension
1001
ACAD
1000
DSTYLE
1002
{
1070
    41
1040
7.0
1070
    42
1040
6.0
1070
    43
1040
14.0
1070
    44
1040
3.0
1070
    73
1070
     0
1070
    74
1070
     0
1070
    77
1070
     3
1070
   140
1040
6.0
1070
   141
1040
150.0
1070
   147
1040
2.0
1070
   172
1070
     1
1070
   173
1070
     1
1070
   176
1070
   256
1070
   177
1070
   256
1070
   178
1070
   256
1070
   271
1070
     0
1070
   272
1070
     0
1070
   341
1005
6D
1070
     6
1000
OPEN
1070
     7
1000
OPEN
1070
   371
1070
    -1
1070
   372
1070
    -1
1002
}
  0
DIMENSION
  5
6167
330
1A
100
AcDbEntity
  8
SUNPOU
100
AcDbDimension
  2
*D4
 10
271.4020710279592
 20
178.0817881459675
 30
0.0
 11
266.4020710279591
 21
191.1173899544492
 31
0.0
 70
    32
  3
STANDARD
100
AcDbAlignedDimension
 13
297.9682997679676
 23
204.1529917629309
 33
0.0
 14
313.9730933771263
 24
178.0817881459675
 34
0.0
 50
90.0
100
AcDbRotatedDimension
1001
ACAD
1000
DSTYLE
1002
{
1070
    41
1040
7.0
1070
    42
1040
6.0
1070
    43
1040
14.0
1070
    44
1040
3.0
1070
    73
1070
     0
1070
    74
1070
     0
1070
    77
1070
     3
1070
   140
1040
6.0
1070
   141
1040
150.0
1070
   147
1040
2.0
1070
   172
1070
     1
1070
   173
1070
     1
1070
   176
1070
   256
1070
   177
1070
   256
1070
   178
1070
   256
1070
   271
1070
     0
1070
   272
1070
     0
1070
   341
1005
6D
1070
     6
1000
OPEN
1070
     7
1000
OPEN
1070
   371
1070
    -1
1070
   372
1070
    -1
1002
}
  0
DIMENSION
  5
6174
330
1A
100
AcDbEntity
  8
SUNPOU
100
AcDbDimension
  2
*D5
 10
253.4873762922616
 20
87.92197986980937
 30
0.0
 11
248.4873762922616
 21
146.0374858163701
 31
0.0
 70
    32
  3
STANDARD
100
AcDbAlignedDimension
 13
291.9682997679676
 23
204.1529917629309
 33
0.0
 14
425.3658321107697
 24
87.92197986980932
 34
0.0
 50
90.0
100
AcDbRotatedDimension
1001
ACAD
1000
DSTYLE
1002
{
1070
    41
1040
7.0
1070
    42
1040
6.0
1070
    43
1040
14.0
1070
    44
1040
3.0
1070
    73
1070
     0
1070
    74
1070
     0
1070
    77
1070
     3
1070
   140
1040
6.0
1070
   141
1040
150.0
1070
   147
1040
2.0
1070
   172
1070
     1
1070
   173
1070
     1
1070
   176
1070
   256
1070
   177
1070
   256
1070
   178
1070
   256
1070
   271
1070
     0
1070
   272
1070
     0
1070
   341
1005
6D
1070
     6
1000
OPEN
1070
     7
1000
OPEN
1070
   371
1070
    -1
1070
   372
1070
    -1
1002
}
  0
DIMENSION
  5
6181
330
1A
100
AcDbEntity
  8
SUNPOU
100
AcDbDimension
  2
*D6
 10
337.9565553432676
 20
238.4105602074914
 30
0.0
 11
406.0812821618176
 21
243.4105602074914
 31
0.0
 70
    32
  3
STANDARD
100
AcDbAlignedDimension
 13
474.2060089803676
 23
178.9219798903308
 33
0.0
 14
337.9565553432676
 24
195.5406684754309
 34
0.0
100
AcDbRotatedDimension
1001
ACAD
1000
DSTYLE
1002
{
1070
    41
1040
7.0
1070
    42
1040
6.0
1070
    43
1040
14.0
1070
    44
1040
3.0
1070
    73
1070
     0
1070
    74
1070
     0
1070
    77
1070
     3
1070
   140
1040
6.0
1070
   141
1040
150.0
1070
   147
1040
2.0
1070
   172
1070
     1
1070
   173
1070
     1
1070
   176
1070
   256
1070
   177
1070
   256
1070
   178
1070
   256
1070
   271
1070
     0
1070
   272
1070
     0
1070
   341
1005
6D
1070
     6
1000
OPEN
1070
     7
1000
OPEN
1070
   371
1070
    -1
1070
   372
1070
    -1
1002
}
  0
DIMENSION
  5
618E
330
1A
100
AcDbEntity
  8
SUNPOU
100
AcDbDimension
  2
*D7
 10
297.9682997679676
 20
257.4123919733674
 30
0.0
 11
386.0871543741676
 21
262.4123919733674
 31
0.0
 70
    32
  3
STANDARD
100
AcDbAlignedDimension
 13
474.2060089803676
 23
184.9219798903308
 33
0.0
 14
297.9682997679676
 24
200.3754406949308
 34
0.0
100
AcDbRotatedDimension
1001
ACAD
1000
DSTYLE
1002
{
1070
    41
1040
7.0
1070
    42
1040
6.0
1070
    43
1040
14.0
1070
    44
1040
3.0
1070
    73
1070
     0
1070
    74
1070
     0
1070
    77
1070
     3
1070
   140
1040
6.0
1070
   141
1040
150.0
1070
   147
1040
2.0
1070
   172
1070
     1
1070
   173
1070
     1
1070
   176
1070
   256
1070
   177
1070
   256
1070
   178
1070
   256
1070
   271
1070
     0
1070
   272
1070
     0
1070
   341
1005
6D
1070
     6
1000
OPEN
1070
     7
1000
OPEN
1070
   371
1070
    -1
1070
   372
1070
    -1
1002
}
  0
DIMENSION
  5
628D
330
1A
100
AcDbEntity
  8
SUNPOU
100
AcDbDimension
  2
*D8
 10
315.6618835957033
 20
310.3136776138485
 30
0.0
 11
310.6618835957032
 21
328.0587504448485
 31
0.0
 70
    32
  1
\U+203B<>
  3
STANDARD
100
AcDbAlignedDimension
 13
365.0681294037677
 23
345.8038232758484
 33
0.0
 14
338.7610106581677
 24
310.3136776138485
 34
0.0
 50
90.0
100
AcDbRotatedDimension
1001
ACAD
1000
DSTYLE
1002
{
1070
    41
1040
7.0
1070
    42
1040
6.0
1070
    43
1040
14.0
1070
    44
1040
3.0
1070
    73
1070
     0
1070
    74
1070
     0
1070
    77
1070
     3
1070
   140
1040
6.0
1070
   141
1040
150.0
1070
   147
1040
2.0
1070
   172
1070
     1
1070
   173
1070
     1
1070
   176
1070
   256
1070
   177
1070
   256
1070
   178
1070
   256
1070
   271
1070
     0
1070
   272
1070
     0
1070
   341
1005
6D
1070
     6
1000
OPEN
1070
     7
1000
OPEN
1070
   371
1070
    -1
1070
   372
1070
    -1
1002
}
  0
DIMENSION
  5
62A3
330
1A
100
AcDbEntity
  8
SUNPOU
100
AcDbDimension
  2
*D9
 10
271.4020710279592
 20
349.1348156286947
 30
0.0
 11
266.4020710279591
 21
417.8431012274074
 31
0.0
 70
    32
  3
STANDARD
100
AcDbAlignedDimension
 13
297.9682997679669
 23
486.5513868261201
 33
0.0
 14
336.7894377829138
 24
349.1348156286947
 34
0.0
 50
90.0
100
AcDbRotatedDimension
1001
ACAD
1000
DSTYLE
1002
{
1070
    41
1040
7.0
1070
    42
1040
6.0
1070
    43
1040
14.0
1070
    44
1040
3.0
1070
    73
1070
     0
1070
    74
1070
     0
1070
    77
1070
     3
1070
   140
1040
6.0
1070
   141
1040
150.0
1070
   147
1040
2.0
1070
   172
1070
     1
1070
   173
1070
     1
1070
   176
1070
   256
1070
   177
1070
   256
1070
   178
1070
   256
1070
   271
1070
     0
1070
   272
1070
     0
1070
   341
1005
6D
1070
     6
1000
OPEN
1070
     7
1000
OPEN
1070
   371
1070
    -1
1070
   372
1070
    -1
1002
}
  0
DIMENSION
  5
62B0
330
1A
100
AcDbEntity
  8
SUNPOU
100
AcDbDimension
  2
*D10
 10
253.4873762922616
 20
310.3136776138485
 30
0.0
 11
248.4873762922616
 21
398.4325322199844
 31
0.0
 70
    32
  3
STANDARD
100
AcDbAlignedDimension
 13
291.9682997679669
 23
486.5513868261201
 33
0.0
 14
338.7610106581677
 24
310.3136776138485
 34
0.0
 50
90.0
100
AcDbRotatedDimension
1001
ACAD
1000
DSTYLE
1002
{
1070
    41
1040
7.0
1070
    42
1040
6.0
1070
    43
1040
14.0
1070
    44
1040
3.0
1070
    73
1070
     0
1070
    74
1070
     0
1070
    77
1070
     3
1070
   140
1040
6.0
1070
   141
1040
150.0
1070
   147
1040
2.0
1070
   172
1070
     1
1070
   173
1070
     1
1070
   176
1070
   256
1070
   177
1070
   256
1070
   178
1070
   256
1070
   271
1070
     0
1070
   272
1070
     0
1070
   341
1005
6D
1070
     6
1000
OPEN
1070
     7
1000
OPEN
1070
   371
1070
    -1
1070
   372
1070
    -1
1002
}
  0
LINE
  5
6523
330
1A
100
AcDbEntity
  8
SEIHIN
100
AcDbLine
 10
357.6752242205407
 20
370.0206020663216
 30
0.0
 11
380.6191553857468
 21
392.9645332315597
 31
0.0
  0
LINE
  5
6524
330
1A
100
AcDbEntity
  8
SEIHIN
  6
CONTINUOUS
 62
     3
100
AcDbLine
 10
465.0594798541677
 20
335.3136773260485
 30
0.0
 11
465.0594752901677
 21
475.4111561646484
 31
0.0
  0
LINE
  5
6525
330
1A
100
AcDbEntity
  8
SEIHIN
  6
CONTINUOUS
 62
     3
100
AcDbLine
 10
459.8672910511678
 20
470.2189719256485
 30
0.0
 11
459.8672894390857
 21
350.3136776138485
 31
0.0
  0
LINE
  5
6526
330
1A
100
AcDbEntity
  8
SEIHIN
  6
CONTINUOUS
 62
     3
100
AcDbLine
 10
474.2060089803676
 20
482.5513868262485
 30
0.0
 11
474.2060089803676
 21
310.3136776138486
 31
0.0
  0
LINE
  5
6527
330
1A
100
AcDbEntity
  8
SEIHIN
  6
CONTINUOUS
 62
     3
100
AcDbLine
 10
471.7060089803677
 20
482.0513868262485
 30
0.0
 11
471.7060089803677
 21
337.3136776138486
 31
0.0
  0
LINE
  5
6528
330
1A
100
AcDbEntity
  8
CENTER_L
  6
CENTER
 48
10.0
100
AcDbLine
 10
425.0910094886676
 20
296.3895770493664
 30
0.0
 11
425.0910094886676
 21
450.32753930822
 31
0.0
  0
LINE
  5
6529
330
1A
100
AcDbEntity
  8
SEIHIN
  6
CONTINUOUS
 62
     3
100
AcDbLine
 10
337.9682997679772
 20
472.4413509019457
 30
0.0
 11
337.9682997680468
 21
377.4135072495496
 31
0.0
  0
LINE
  5
652A
330
1A
100
AcDbEntity
  8
SEIHIN
  6
CONTINUOUS
 62
     3
100
AcDbLine
 10
333.4584454300468
 20
377.4135072495462
 30
0.0
 11
333.4584454300457
 21
378.5942199518042
 31
0.0
  0
ARC
  5
652B
330
1A
100
AcDbEntity
  8
SEIHIN
  6
CONTINUOUS
 62
     3
100
AcDbCircle
 10
336.1245680347475
 20
376.5994565513481
 30
0.0
 40
2.01544657320185
100
AcDbArc
 50
23.8225529227395
 51
61.3553043498383
  0
LINE
  5
652C
330
1A
100
AcDbEntity
  8
SEIHIN
  6
CONTINUOUS
 62
     3
100
AcDbLine
 10
391.7610106683676
 20
402.2187921257485
 30
0.0
 11
391.7610106683676
 21
350.3136776138485
 31
0.0
  0
LINE
  5
652D
330
1A
100
AcDbEntity
  8
SEIHIN
  6
CONTINUOUS
 62
     3
100
AcDbLine
 10
388.1126928996678
 20
398.5704755966485
 30
0.0
 11
388.1126923180677
 21
350.3136779220485
 31
0.0
  0
LINE
  5
652E
330
1A
100
AcDbEntity
  8
SEIHIN
  6
CONTINUOUS
 62
     3
100
AcDbLine
 10
381.1405954575678
 20
350.3136779220485
 30
0.0
 11
381.1405966168677
 21
391.6086678443485
 31
0.0
  0
LINE
  5
652F
330
1A
100
AcDbEntity
  8
SEIHIN
  6
CONTINUOUS
 62
     3
100
AcDbLine
 10
297.9682997680352
 20
393.4859744626202
 30
0.0
 11
297.968299768052
 21
370.6063885039203
 31
0.0
  0
LINE
  5
6532
330
1A
100
AcDbEntity
  8
CENTER_L
  6
CENTER
 48
10.0
100
AcDbLine
 10
327.6613976720858
 20
340.0067755178599
 30
0.0
 11
479.4684252022417
 21
491.8138030481272
 31
0.0
  0
ELLIPSE
  5
6533
330
1A
100
AcDbEntity
  8
SEIHIN
  6
CONTINUOUS
 62
     3
100
AcDbEllipse
 10
461.5182566131678
 20
333.3136776138486
 30
0.0
 11
0.5553345739699582
 21
2.999695566789341
 31
0.0
210
0.0
220
0.0
230
1.0
 40
0.0769583785
 41
3.155839018265836
 42
4.529239785210514
  0
ELLIPSE
  5
6534
330
1A
100
AcDbEntity
  8
SEIHIN
  6
CONTINUOUS
 62
     3
100
AcDbEllipse
 10
459.9631056018678
 20
333.3136776138486
 30
0.0
 11
0.0000000000000002
 21
3.0
 31
0.0
210
0.0
220
0.0
230
1.0
 40
0.0795798372
 41
3.141592653589792
 42
4.514993420534825
  0
ELLIPSE
  5
6535
330
1A
100
AcDbEntity
  8
SEIHIN
  6
CONTINUOUS
 62
     3
100
AcDbEllipse
 10
463.4866289674678
 20
349.0636776138486
 30
0.0
 11
0.9988270259247544
 21
1.249400478155564
 31
0.0
210
0.0
220
0.0
230
1.0
 40
0.0387552145
 41
0.0309727563950873
 42
1.522356602221982
  0
ELLIPSE
  5
6536
330
1A
100
AcDbEntity
  8
SEIHIN
  6
CONTINUOUS
 62
     3
100
AcDbEllipse
 10
463.4866289674678
 20
345.7581220583484
 30
0.0
 11
-0.9998252063994071
 21
-0.5545318961688963
 31
0.0
210
0.0
220
0.0
230
1.0
 40
0.0337157055
 41
4.690742705938057
 42
4.693691456861849
  0
ELLIPSE
  5
6537
330
1A
100
AcDbEntity
  8
SEIHIN
  6
CONTINUOUS
 62
     3
100
AcDbEllipse
 10
680.3036657375677
 20
1090.422057799177
 30
0.0
 11
1060.594396165567
 21
0.0
 31
0.0
210
0.0
220
0.0
230
1.0
 40
0.9707728879999997
 41
4.464686118052988
 42
4.464741864465368
  0
ELLIPSE
  5
6538
330
1A
100
AcDbEntity
  8
SEIHIN
  6
CONTINUOUS
 62
     3
100
AcDbEllipse
 10
171.1525621726678
 20
1090.422057799177
 30
0.0
 11
1060.86853535661
 21
0.0
 31
0.0
210
0.0
220
0.0
230
1.0
 40
0.9707728879999997
 41
4.961081489979525
 42
4.961487187481483
  0
ELLIPSE
  5
6539
330
1A
100
AcDbEntity
  8
SEIHIN
  6
CONTINUOUS
 62
     3
100
AcDbEllipse
 10
468.5612015974676
 20
154.9220577991768
 30
0.0
 11
-2.001609485110236
 21
-0.0000000000001137
 31
0.0
210
0.0
220
0.0
230
1.0
 40
0.9991959045000001
 41
4.712388980384647
 42
6.203836413627878
  0
ELLIPSE
  5
653A
330
1A
100
AcDbEntity
  8
SEIHIN
  6
CONTINUOUS
 62
     3
100
AcDbEllipse
 10
469.7060089803677
 20
177.4120826748767
 30
0.0
 11
0.0
 21
2.009975124224184
 31
0.0
210
0.0
220
0.0
230
1.0
 40
0.9950371901999998
 41
4.712388980384703
 42
6.283185307179585
  0
ELLIPSE
  5
653B
330
1A
100
AcDbEntity
  8
SEIHIN
  6
CONTINUOUS
 62
     3
100
AcDbEllipse
 10
41.92021952186775
 20
334.3120788926485
 30
0.0
 11
-305.4393824966414
 21
-0.0000000000002655
 31
0.0
210
0.0
220
0.0
230
1.0
 40
0.6547944092
 41
3.101613966466503
 42
3.141592653589792
  0
ELLIPSE
  5
653C
330
1A
100
AcDbEntity
  8
SEIHIN
  6
CONTINUOUS
 62
     3
100
AcDbEllipse
 10
1319.793905786967
 20
1836.262726405448
 30
0.0
 11
-0.0000000000316411
 21
4979.999999999819
 31
0.0
210
0.0
220
0.0
230
1.0
 40
0.2
 41
1.874846823541579
 42
1.875391604890734
  0
ELLIPSE
  5
653D
330
1A
100
AcDbEntity
  8
SEIHIN
  6
CONTINUOUS
 62
     3
100
AcDbEllipse
 10
1319.793905786967
 20
1836.262726405448
 30
0.0
 11
-0.0000000000318678
 21
4990.999999999817
 31
0.0
210
0.0
220
0.0
230
1.0
 40
0.2
 41
1.874155337857269
 42
1.874575259793591
  0
ELLIPSE
  5
653E
330
1A
100
AcDbEntity
  8
SEIHIN
  6
CONTINUOUS
 62
     3
100
AcDbEllipse
 10
1319.793905786968
 20
2734.518413512748
 30
0.0
 11
-0.0000000000343445
 21
5389.534122649184
 31
0.0
210
0.0
220
0.0
230
1.0
 40
0.1972026594
 41
2.030492219991496
 42
2.030614034098829
  0
ELLIPSE
  5
653F
330
1A
100
AcDbEntity
  8
SEIHIN
  6
CONTINUOUS
 62
     3
100
AcDbEllipse
 10
343.3595036877678
 20
355.7048815336485
 30
0.0
 11
-1.55445538578249
 21
-1.55445538578249
 31
0.0
210
0.0
220
0.0
230
1.0
 40
0.9097807343000001
 41
2.403400035996039
 42
3.879785271183562
  0
ELLIPSE
  5
6540
330
1A
100
AcDbEntity
  8
SEIHIN
  6
CONTINUOUS
 62
     3
100
AcDbEllipse
 10
321.9667010470837
 20
54.26559736763789
 30
0.0
 11
0.00000000022368
 21
-305.4393824966414
 31
0.0
210
0.0
220
0.0
230
-1.0
 40
0.6547944092
 41
3.101613966466503
 42
3.141592653589792
  0
ELLIPSE
  5
6541
330
1A
100
AcDbEntity
  8
SEIHIN
  6
CONTINUOUS
 62
     3
100
AcDbEllipse
 10
341.9610106580677
 20
200.3755186037767
 30
0.0
 11
8.0
 21
0.0
 31
0.0
210
0.0
220
0.0
230
1.0
 40
0.5
 41
1.966877508746758
 42
3.141592653589792
  0
ELLIPSE
  5
6542
330
1A
100
AcDbEntity
  8
SEIHIN
  6
CONTINUOUS
 62
     3
100
AcDbEllipse
 10
1319.793905786967
 20
447.6118675574769
 30
0.0
 11
1006.499999999999
 21
0.0
 31
0.0
210
0.0
220
0.0
230
1.0
 40
0.9960258320999999
 41
3.419499988340903
 42
3.495078848976195
  0
ELLIPSE
  5
6543
330
1A
100
AcDbEntity
  8
SEIHIN
  6
CONTINUOUS
 62
     3
100
AcDbEllipse
 10
385.8452179944677
 20
99.72125811887678
 30
0.0
 11
-0.579260778345116
 21
-0.8166161999879903
 31
0.0
210
0.0
220
0.0
230
1.0
 40
0.9987996310999999
 41
2.52519055212824
 42
3.757994755051596
  0
ELLIPSE
  5
6544
330
1A
100
AcDbEntity
  8
SEIHIN
  6
CONTINUOUS
 62
     3
100
AcDbEllipse
 10
1319.793905786967
 20
627.2630049789768
 30
0.0
 11
-0.0000000000752607
 21
1077.906824529875
 31
0.0
210
0.0
220
0.0
230
1.0
 40
0.9860132971999998
 41
2.030492219991459
 42
2.03061403409879
  0
ELLIPSE
  5
6545
330
1A
100
AcDbEntity
  8
SEIHIN
  6
CONTINUOUS
 62
     3
100
AcDbEllipse
 10
355.5602109778677
 20
177.7212581188767
 30
0.0
 11
-0.7082372483850464
 21
-0.7082372483850184
 31
0.0
210
0.0
220
0.0
230
1.0
 40
0.9984038298000001
 41
2.356993212576805
 42
3.926192094602921
  0
ELLIPSE
  5
6546
330
1A
100
AcDbEntity
  8
SEIHIN
  6
CONTINUOUS
 62
     3
100
AcDbEllipse
 10
341.9610106580677
 20
201.3893475187767
 30
0.0
 11
0.0
 21
-1.50780521371297
 31
0.0
210
0.0
220
0.0
230
1.0
 40
0.9948234601999999
 41
2.937231071961456
 42
4.712388980384703
  0
ELLIPSE
  5
6547
330
1A
100
AcDbEntity
  8
SEIHIN
  6
CONTINUOUS
 62
     3
100
AcDbEllipse
 10
346.5586557111677
 20
204.7309582091768
 30
0.0
 11
1.816658229977632
 21
0.8471216448888867
 31
0.0
210
0.0
220
0.0
230
1.0
 40
0.9977746745000001
 41
4.069592708154748
 42
4.712388980384693
  0
LINE
  5
6548
330
1A
100
AcDbEntity
  8
SEIHIN
  6
CONTINUOUS
 62
     3
100
AcDbLine
 10
351.9116474008677
 20
176.9320054842767
 30
0.0
 11
351.9116474008677
 21
172.5821324521767
 31
0.0
  0
LINE
  5
6549
330
1A
100
AcDbEntity
  8
SEIHIN
  6
CONTINUOUS
 62
     3
100
AcDbLine
 10
474.2060089803677
 20
158.9220577991768
 30
0.0
 11
474.2060089803677
 21
178.9220577991768
 31
0.0
  0
LINE
  5
654A
330
1A
100
AcDbEntity
  8
SEIHIN
  6
CONTINUOUS
 62
     3
100
AcDbLine
 10
471.7060086941677
 20
177.4120830827768
 30
0.0
 11
471.7060089803677
 21
161.4220577991767
 31
0.0
  0
LINE
  5
654D
330
1A
100
AcDbEntity
  8
SEIHIN
  6
CONTINUOUS
 62
     3
100
AcDbLine
 10
355.7610106580678
 20
176.9220577991768
 30
0.0
 11
355.7610106580678
 21
172.5721847670768
 31
0.0
  0
LINE
  5
654E
330
1A
100
AcDbEntity
  8
SEIHIN
  6
CONTINUOUS
 62
     3
100
AcDbLine
 10
358.2610106580679
 20
172.9220577991767
 30
0.0
 11
358.2610106580679
 21
179.4220577991767
 31
0.0
  0
LINE
  5
654F
330
1A
100
AcDbEntity
  8
SEIHIN
  6
CONTINUOUS
 62
     3
100
AcDbLine
 10
356.5610106580676
 20
172.6840956943767
 30
0.0
 11
356.5610108590677
 21
177.7228542500768
 31
0.0
  0
LINE
  5
6550
330
1A
100
AcDbEntity
  8
SEIHIN
  6
CONTINUOUS
 62
     3
100
AcDbLine
 10
297.9682997679677
 20
172.6840956943767
 30
0.0
 11
297.9683002150678
 21
177.7228542500768
 31
0.0
  0
LINE
  5
6553
330
1A
100
AcDbEntity
  8
SEIHIN
  6
CONTINUOUS
 62
     3
100
AcDbLine
 10
321.9667010466679
 20
172.5721847670768
 30
0.0
 11
351.7610115623678
 21
172.5721859270768
 31
0.0
  0
LINE
  5
6554
330
1A
100
AcDbEntity
  8
SEIHIN
  6
CONTINUOUS
 62
     3
100
AcDbLine
 10
384.4651221606678
 20
88.51338240077684
 30
0.0
 11
321.9667010467677
 21
88.51338240077684
 31
0.0
  0
LINE
  5
6555
330
1A
100
AcDbEntity
  8
SEIHIN
  6
CONTINUOUS
 62
     3
100
AcDbLine
 10
375.5241922392678
 20
99.9220577991768
 30
0.0
 11
321.9667010467677
 21
99.9220577991768
 31
0.0
  0
LINE
  5
6556
330
1A
100
AcDbEntity
  8
SEIHIN
  6
CONTINUOUS
 62
     3
100
AcDbLine
 10
321.9667010467677
 20
87.92205779917679
 30
0.0
 11
425.7610125160677
 21
87.92205777857679
 31
0.0
  0
LINE
  5
6557
330
1A
100
AcDbEntity
  8
SEIHIN
  6
CONTINUOUS
 62
     3
100
AcDbLine
 10
297.9682997679677
 20
101.3758865664768
 30
0.0
 11
297.9682997679677
 21
172.6840956943767
 31
0.0
  0
LINE
  5
6558
330
1A
100
AcDbEntity
  8
SEIHIN
  6
CONTINUOUS
 62
     3
100
AcDbLine
 10
297.9683002150678
 20
90.63101506167681
 30
0.0
 11
297.9683002150678
 21
100.0531163894768
 31
0.0
  0
LWPOLYLINE
  5
6559
330
1A
100
AcDbEntity
  8
SEIHIN
  6
CONTINUOUS
 62
     3
100
AcDbPolyline
 90
        3
 70
   128
 43
0.0
 10
313.9730935609678
 20
88.6693795341768
 10
309.9777877023676
 20
88.82535499427683
 10
297.9683002150678
 20
89.29427462997683
  0
LINE
  5
655A
330
1A
100
AcDbEntity
  8
SEIHIN
  6
CONTINUOUS
 62
     3
100
AcDbLine
 10
297.9682997679677
 20
88.72205779917681
 30
0.0
 11
313.9730933769677
 21
88.08186605477681
 31
0.0
  0
LINE
  5
655B
330
1A
100
AcDbEntity
  8
SEIHIN
  6
CONTINUOUS
 62
     3
100
AcDbLine
 10
297.9682997679677
 20
88.72205779917681
 30
0.0
 11
297.9682997679677
 21
89.29427458387682
 31
0.0
  0
LINE
  5
655C
330
1A
100
AcDbEntity
  8
SEIHIN
  6
CONTINUOUS
 62
     3
100
AcDbLine
 10
297.9682997679677
 20
89.29427458387682
 30
0.0
 11
297.9683002150678
 21
90.63101506167681
 31
0.0
  0
LWPOLYLINE
  5
655D
330
1A
100
AcDbEntity
  8
SEIHIN
  6
CONTINUOUS
 62
     3
100
AcDbPolyline
 90
        3
 70
   128
 43
0.0
 10
321.9667008771676
 20
88.51338242087678
 10
317.9875189517678
 20
88.55202578847679
 10
313.9730935609678
 20
88.6693795341768
  0
ARC
  5
655E
330
1A
100
AcDbEntity
  8
SEIHIN
  6
CONTINUOUS
 62
     3
100
AcDbCircle
 10
321.9667010467677
 20
287.9220577991768
 30
0.0
 40
200.0
100
AcDbArc
 50
267.7093899573995
 51
270.0
  0
LWPOLYLINE
  5
655F
330
1A
100
AcDbEntity
  8
SEIHIN
  6
CONTINUOUS
 62
     3
100
AcDbPolyline
 90
        3
 70
   128
 43
0.0
 10
313.9730935609678
 20
100.0818663173768
 10
305.9900562903677
 20
100.4011879572768
 10
297.9683002150678
 20
100.7220574551768
  0
LINE
  5
6560
330
1A
100
AcDbEntity
  8
SEIHIN
  6
CONTINUOUS
 62
     3
100
AcDbLine
 10
297.9683002150678
 20
100.0531163894768
 30
0.0
 11
297.9683002150678
 21
100.7220574551768
 31
0.0
  0
LINE
  5
6561
330
1A
100
AcDbEntity
  8
SEIHIN
  6
CONTINUOUS
 62
     3
100
AcDbLine
 10
297.9683002150678
 20
100.7220574551768
 30
0.0
 11
297.9682997679677
 21
101.3758865664768
 31
0.0
  0
LWPOLYLINE
  5
6562
330
1A
100
AcDbEntity
  8
SEIHIN
  6
CONTINUOUS
 62
     3
100
AcDbPolyline
 90
        3
 70
   128
 43
0.0
 10
321.9667008771676
 20
99.9220578828768
 10
317.9784429904676
 20
99.96182721947679
 10
313.9730935609678
 20
100.0818663173768
  0
LINE
  5
6563
330
1A
100
AcDbEntity
  8
SEIHIN
  6
CONTINUOUS
 62
     3
100
AcDbLine
 10
313.9730933769677
 20
172.5945364898767
 30
0.0
 11
297.9682997679677
 21
172.6840956943767
 31
0.0
  0
LINE
  5
6564
330
1A
100
AcDbEntity
  8
SEIHIN
  6
CONTINUOUS
 62
     3
100
AcDbLine
 10
313.9730933769677
 20
172.5945364898767
 30
0.0
 11
321.9667010466679
 21
172.5721847670768
 31
0.0
  0
LINE
  5
6565
330
1A
100
AcDbEntity
  8
SEIHIN
  6
CONTINUOUS
 62
     3
100
AcDbLine
 10
456.0928909580938
 20
95.3295228613261
 30
0.0
 11
460.3975676224141
 21
149.4220585459768
 31
0.0
  0
ARC
  5
6566
330
1A
100
AcDbEntity
  8
SEIHIN
  6
CONTINUOUS
 62
     3
100
AcDbCircle
 10
1319.793905786967
 20
447.6118675574769
 30
0.0
 40
995.9999999999997
100
AcDbArc
 50
197.420810222449
 51
199.1352577285365
  0
LINE
  5
6567
330
1A
100
AcDbEntity
  8
SEIHIN
  6
CONTINUOUS
 62
     3
100
AcDbLine
 10
458.1651910112399
 20
93.63744656222735
 30
0.0
 11
462.5090269065678
 21
148.2220568591768
 31
0.0
  0
LINE
  5
6568
330
1A
100
AcDbEntity
  8
SEIHIN
  6
CONTINUOUS
 62
     3
100
AcDbLine
 10
461.4007245225196
 20
149.4220585459768
 30
0.0
 11
457.0541940130384
 21
94.80361239136607
 31
0.0
  0
LINE
  5
6569
330
1A
100
AcDbEntity
  8
SEIHIN
  6
CONTINUOUS
 62
     3
100
AcDbLine
 10
462.2885427395678
 20
91.24687519107681
 30
0.0
 11
467.3684293914676
 21
155.0807158795768
 31
0.0
  0
LINE
  5
656A
330
1A
100
AcDbEntity
  8
SEIHIN
  6
CONTINUOUS
 62
     3
100
AcDbLine
 10
466.5658829426678
 20
155.0805919700767
 30
0.0
 11
461.5475222336969
 21
92.01973589059248
 31
0.0
  0
LINE
  5
656B
330
1A
100
AcDbEntity
  8
SEIHIN
  6
CONTINUOUS
 62
     3
100
AcDbLine
 10
465.0594752900677
 20
157.5807158795768
 30
0.0
 11
459.8672910510678
 21
92.3357440427768
 31
0.0
  0
ARC
  5
656C
330
1A
100
AcDbEntity
  8
SEIHIN
  6
CONTINUOUS
 62
     3
100
AcDbCircle
 10
1319.793905786967
 20
447.6118675574769
 30
0.0
 40
998.2000000000002
100
AcDbArc
 50
197.4052507657982
 51
199.2095815595994
  0
ARC
  5
656D
330
1A
100
AcDbEntity
  8
SEIHIN
  6
CONTINUOUS
 62
     3
100
AcDbCircle
 10
1319.793905786967
 20
447.6118675574769
 30
0.0
 40
997.7999999999997
100
AcDbArc
 50
197.5966592793972
 51
199.1960885578715
  0
ARC
  5
656E
330
1A
100
AcDbEntity
  8
SEIHIN
  6
CONTINUOUS
 62
     3
100
AcDbCircle
 10
1319.793905786967
 20
447.6118675574769
 30
0.0
 40
1002.5
100
AcDbArc
 50
195.9235084711004
 51
200.2532671117982
  0
ARC
  5
656F
330
1A
100
AcDbEntity
  8
SEIHIN
  6
CONTINUOUS
 62
     3
100
AcDbCircle
 10
1319.793905786967
 20
447.6118675574769
 30
0.0
 40
1000.0
100
AcDbArc
 50
195.9435297084021
 51
200.1733866673994
  0
ARC
  5
6570
330
1A
100
AcDbEntity
  8
SEIHIN
  6
CONTINUOUS
 62
     3
100
AcDbCircle
 10
1319.793905786967
 20
447.6118675574769
 30
0.0
 40
1001.7
100
AcDbArc
 50
195.9299070583978
 51
200.2213802330994
  0
LINE
  5
6571
330
1A
100
AcDbEntity
  8
SEIHIN
  6
CONTINUOUS
 62
     3
100
AcDbLine
 10
394.5170331593495
 20
95.23251000041033
 30
0.0
 11
391.8352024217864
 21
102.8903623990333
 31
0.0
  0
LINE
  5
6572
330
1A
100
AcDbEntity
  8
SEIHIN
  6
CONTINUOUS
 62
     3
100
AcDbLine
 10
391.3084644075787
 20
92.29245184658338
 30
0.0
 11
388.1126928996678
 21
101.4178438533767
 31
0.0
  0
LINE
  5
6573
330
1A
100
AcDbEntity
  8
SEIHIN
  6
CONTINUOUS
 62
     3
100
AcDbLine
 10
389.7466195440678
 20
102.1981338867768
 30
0.0
 11
392.8260909909746
 21
93.40481906092952
 31
0.0
  0
LINE
  5
6574
330
1A
100
AcDbEntity
  8
SEIHIN
  6
CONTINUOUS
 62
     3
100
AcDbLine
 10
393.1129708688382
 20
93.79585412318078
 30
0.0
 11
390.1363668656678
 21
102.2954189115768
 31
0.0
  0
LINE
  5
6575
330
1A
100
AcDbEntity
  8
SEIHIN
  6
CONTINUOUS
 62
     3
100
AcDbLine
 10
385.7400067327677
 20
89.84930547657683
 30
0.0
 11
382.4469183211677
 21
99.25258183527683
 31
0.0
  0
LINE
  5
6576
330
1A
100
AcDbEntity
  8
SEIHIN
  6
CONTINUOUS
 62
     3
100
AcDbLine
 10
386.2221086188677
 20
99.25258183527683
 30
0.0
 11
389.5145494454678
 21
89.85115462847682
 31
0.0
  0
LINE
  5
6577
330
1A
100
AcDbEntity
  8
SEIHIN
  6
CONTINUOUS
 62
     3
100
AcDbLine
 10
390.0891973815831
 20
90.63067426007677
 30
0.0
 11
386.7893946981677
 21
100.0531163894768
 31
0.0
  0
ARC
  5
6578
330
1A
100
AcDbEntity
  8
SEIHIN
  6
CONTINUOUS
 62
     3
100
AcDbCircle
 10
425.7610106580679
 20
1090.422057799177
 30
0.0
 40
996.0
100
AcDbArc
 50
268.2286377351605
 51
269.5131645255035
  0
ARC
  5
6579
330
1A
100
AcDbEntity
  8
SEIHIN
  6
CONTINUOUS
 62
     3
100
AcDbCircle
 10
425.7610106580679
 20
1090.422057799177
 30
0.0
 40
997.7999999999997
100
AcDbArc
 50
268.1773418081117
 51
269.5140427825993
  0
ARC
  5
657A
330
1A
100
AcDbEntity
  8
SEIHIN
  6
CONTINUOUS
 62
     3
100
AcDbCircle
 10
425.7610106580679
 20
1090.422057799177
 30
0.0
 40
998.2000000000002
100
AcDbArc
 50
268.1615816043734
 51
269.6880920134
  0
ARC
  5
657B
330
1A
100
AcDbEntity
  8
SEIHIN
  6
CONTINUOUS
 62
     3
100
AcDbCircle
 10
425.7610106580679
 20
1090.422057799177
 30
0.0
 40
1002.5
100
AcDbArc
 50
268.0319788417982
 51
271.9228499591979
  0
ARC
  5
657C
330
1A
100
AcDbEntity
  8
SEIHIN
  6
CONTINUOUS
 62
     3
100
AcDbCircle
 10
425.7610078745689
 20
1090.421888631819
 30
0.0
 40
1001.699830835209
100
AcDbArc
 50
268.0632320151965
 51
271.8819910690667
  0
ARC
  5
657D
330
1A
100
AcDbEntity
  8
SEIHIN
  6
CONTINUOUS
 62
     3
100
AcDbCircle
 10
425.7610106580679
 20
1090.422057799177
 30
0.0
 40
1000.0
100
AcDbArc
 50
268.1300946705856
 51
271.8716128593908
  0
ARC
  5
657E
330
1A
100
AcDbEntity
  8
SEIHIN
  6
CONTINUOUS
 62
     3
100
AcDbCircle
 10
387.6275919466696
 20
90.51032914273861
 30
0.0
 40
1.99996705173282
100
AcDbArc
 50
242.0533653777901
 51
268.2296178040067
  0
ARC
  5
657F
330
1A
100
AcDbEntity
  8
SEIHIN
  6
CONTINUOUS
 62
     3
100
AcDbCircle
 10
387.6275787811697
 20
90.5103399252386
 30
0.0
 40
1.999970406858946
100
AcDbArc
 50
199.3004693905006
 51
242.0538433293075
  0
ARC
  5
6580
330
1A
100
AcDbEntity
  8
SEIHIN
  6
CONTINUOUS
 62
     3
100
AcDbCircle
 10
394.9889319249381
 20
95.39777208025942
 30
0.0
 40
0.5
100
AcDbArc
 50
199.3005929301372
 51
268.2286377351605
  0
ARC
  5
6581
330
1A
100
AcDbEntity
  8
SEIHIN
  6
CONTINUOUS
 62
     3
100
AcDbCircle
 10
393.1960595564602
 20
92.95349991890464
 30
0.0
 40
2.0
100
AcDbArc
 50
199.3005854304602
 51
268.1300946705987
  0
ARC
  5
6582
330
1A
100
AcDbEntity
  8
SEIHIN
  6
CONTINUOUS
 62
     3
100
AcDbCircle
 10
391.4027787833678
 20
90.51032914267683
 30
0.0
 40
1.99996705173282
100
AcDbArc
 50
242.0533653777901
 51
268.2296178040067
  0
ARC
  5
6583
330
1A
100
AcDbEntity
  8
SEIHIN
  6
CONTINUOUS
 62
     3
100
AcDbCircle
 10
391.4027656178678
 20
90.51033992517682
 30
0.0
 40
1.999970406858946
100
AcDbArc
 50
199.3004693905006
 51
242.0538433293075
  0
ARC
  5
6584
330
1A
100
AcDbEntity
  8
SEIHIN
  6
CONTINUOUS
 62
     3
100
AcDbCircle
 10
391.9749757011678
 20
91.2912773832768
 30
0.0
 40
1.998138222695665
100
AcDbArc
 50
199.2954087433993
 51
268.0683290369072
  0
ARC
  5
6585
330
1A
100
AcDbEntity
  8
SEIHIN
  6
CONTINUOUS
 62
     3
100
AcDbCircle
 10
393.7698887153107
 20
93.73534266906938
 30
0.0
 40
1.0
100
AcDbArc
 50
199.3005594463026
 51
268.1615816043603
  0
ARC
  5
6586
330
1A
100
AcDbEntity
  8
SEIHIN
  6
CONTINUOUS
 62
     3
100
AcDbCircle
 10
394.0567684000153
 20
94.12637828287882
 30
0.0
 40
1.0
100
AcDbArc
 50
199.3005929301304
 51
268.1773418080856
  0
LINE
  5
6587
330
1A
100
AcDbEntity
  8
SEIHIN
  6
CONTINUOUS
 62
     3
100
AcDbLine
 10
385.7342743623677
 20
88.5113167920768
 30
0.0
 11
384.4651221606678
 21
88.51338240077684
 31
0.0
  0
LWPOLYLINE
  5
6588
330
1A
100
AcDbEntity
  8
SEIHIN
  6
CONTINUOUS
 62
     3
100
AcDbPolyline
 90
        6
 70
   128
 43
0.0
 10
391.3409916377678
 20
88.51131674737677
 10
391.2060541725678
 20
88.5092598050768
 10
390.5473632431677
 20
88.50995317467681
 10
389.3463520026676
 20
88.51033094237681
 10
387.6482454753678
 20
88.50927680167684
 10
385.7342732763678
 20
88.51131674737677
  0
LINE
  5
6589
330
1A
100
AcDbEntity
  8
CENTER_L
  6
CENTER
 48
10.0
100
AcDbLine
 10
425.3658321107697
 20
81.43846124581306
 30
0.0
 11
425.3658321107697
 21
97.05374957963194
 31
0.0
  0
ARC
  5
658A
330
1A
100
AcDbEntity
  8
SEIHIN
  6
CONTINUOUS
 62
     3
100
AcDbCircle
 10
430.5350412452677
 20
92.82638139657683
 30
0.0
 40
0.6144192726294601
100
AcDbArc
 50
271.1768406265985
 51
349.2798270592992
  0
LWPOLYLINE
  5
658B
330
1A
100
AcDbEntity
  8
SEIHIN
  6
CONTINUOUS
 62
     3
100
AcDbPolyline
 90
        5
 70
   128
 43
0.0
 10
431.1149624800679
 20
92.23641612467678
 10
431.2696812367676
 20
92.23725804027679
 10
431.3940984821678
 20
92.23795234127681
 10
431.4741847729677
 20
92.23840752517679
 10
431.4961863374677
 20
92.23853371937678
  0
LINE
  5
658C
330
1A
100
AcDbEntity
  8
SEIHIN
  6
CONTINUOUS
 62
     3
100
AcDbLine
 10
430.9315244197676
 20
92.21209171597678
 30
0.0
 11
430.9994835007677
 21
92.21209171597678
 31
0.0
  0
LINE
  5
658D
330
1A
100
AcDbEntity
  8
SEIHIN
  6
CONTINUOUS
 62
     3
100
AcDbLine
 10
430.9315244197676
 20
92.21209171597678
 30
0.0
 11
430.9994859314677
 21
92.21664717327678
 31
0.0
  0
LINE
  5
658E
330
1A
100
AcDbEntity
  8
SEIHIN
  6
CONTINUOUS
 62
     3
100
AcDbLine
 10
430.9994859314677
 20
92.21664717327678
 30
0.0
 11
430.9994835007677
 21
92.21209171597678
 31
0.0
  0
LWPOLYLINE
  5
658F
330
1A
100
AcDbEntity
  8
SEIHIN
  6
CONTINUOUS
 62
     3
100
AcDbPolyline
 90
        3
 70
   128
 43
0.0
 10
430.9994859314677
 20
92.21209172527682
 10
431.0865310645677
 20
92.22583245857681
 10
431.1149624800679
 20
92.23641612467678
  0
LINE
  5
6590
330
1A
100
AcDbEntity
  8
SEIHIN
  6
CONTINUOUS
 62
     3
100
AcDbLine
 10
421.0430902615676
 20
92.21209171597678
 30
0.0
 11
421.1111969346676
 21
92.21209171597678
 31
0.0
  0
LINE
  5
6591
330
1A
100
AcDbEntity
  8
SEIHIN
  6
CONTINUOUS
 62
     3
100
AcDbLine
 10
421.0430888152679
 20
92.21666673097677
 30
0.0
 11
421.1111969346676
 21
92.21209171597678
 31
0.0
  0
ARC
  5
6592
330
1A
100
AcDbEntity
  8
SEIHIN
  6
CONTINUOUS
 62
     3
100
AcDbCircle
 10
421.5088651202678
 20
92.82809796347681
 30
0.0
 40
0.6161657117122324
100
AcDbArc
 50
190.8519119672986
 51
268.6964056556088
  0
LWPOLYLINE
  5
6593
330
1A
100
AcDbEntity
  8
SEIHIN
  6
CONTINUOUS
 62
     3
100
AcDbPolyline
 90
        5
 70
   128
 43
0.0
 10
420.5465299701678
 20
92.23567781877681
 10
420.5972162699678
 20
92.2354143708768
 10
420.6980226254678
 20
92.23489795247678
 10
420.8375794506677
 20
92.23419980977679
 10
420.9341017222678
 20
92.2337284441768
  0
LWPOLYLINE
  5
6594
330
1A
100
AcDbEntity
  8
SEIHIN
  6
CONTINUOUS
 62
     3
100
AcDbPolyline
 90
        3
 70
   128
 43
0.0
 10
420.9341017222678
 20
92.2337284441768
 10
421.0186509108677
 20
92.21316763567683
 10
421.0430888152679
 20
92.21209172527682
  0
LINE
  5
6595
330
1A
100
AcDbEntity
  8
SEIHIN
  6
CONTINUOUS
 62
     3
100
AcDbLine
 10
421.0430902615676
 20
92.21209171597678
 30
0.0
 11
421.0430888152679
 21
92.21666673097677
 31
0.0
  0
LINE
  5
6596
330
1A
100
AcDbEntity
  8
SEIHIN
  6
CONTINUOUS
 62
     3
100
AcDbLine
 10
420.2696948927679
 20
94.43719573987682
 30
0.0
 11
420.6047928252677
 21
94.4354045664768
 31
0.0
  0
LINE
  5
6597
330
1A
100
AcDbEntity
  8
SEIHIN
  6
CONTINUOUS
 62
     3
100
AcDbLine
 10
420.3270150474678
 20
92.2368486862768
 30
0.0
 11
420.5465312514676
 21
92.2356778056768
 31
0.0
  0
LINE
  5
6598
330
1A
100
AcDbEntity
  8
SEIHIN
  6
CONTINUOUS
 62
     3
100
AcDbLine
 10
420.9037182545676
 20
92.71209169077678
 30
0.0
 11
420.6047935104678
 21
94.43540469647677
 31
0.0
  0
LINE
  5
6599
330
1A
100
AcDbEntity
  8
SEIHIN
  6
CONTINUOUS
 62
     3
100
AcDbLine
 10
420.1262524427678
 20
92.2713326740768
 30
0.0
 11
420.2696961975676
 21
92.2509193783768
 31
0.0
  0
LINE
  5
659A
330
1A
100
AcDbEntity
  8
SEIHIN
  6
CONTINUOUS
 62
     3
100
AcDbLine
 10
421.1111969346676
 20
92.21209171597678
 30
0.0
 11
430.9315244197676
 21
92.21209171597678
 31
0.0
  0
LINE
  5
659B
330
1A
100
AcDbEntity
  8
SEIHIN
  6
CONTINUOUS
 62
     3
100
AcDbLine
 10
417.2982180732677
 20
94.45801169017682
 30
0.0
 11
417.2982180732677
 21
92.65794682817682
 31
0.0
  0
LWPOLYLINE
  5
659C
330
1A
100
AcDbEntity
  8
SEIHIN
  6
CONTINUOUS
 62
     3
100
AcDbPolyline
 90
        6
 70
   128
 43
0.0
 10
420.2696961975676
 20
94.4371956297768
 10
419.9655858492677
 20
94.43891904217679
 10
419.3607626175677
 20
94.44262198077684
 10
418.5234142160676
 20
94.4483547368768
 10
417.5479395008677
 20
94.4559212670768
 10
417.2982183909677
 20
94.45801162067681
  0
ARC
  5
659D
330
1A
100
AcDbEntity
  8
SEIHIN
  6
CONTINUOUS
 62
     3
100
AcDbCircle
 10
417.6886897353678
 20
84.97754743057681
 30
0.0
 40
7.690318865943795
100
AcDbArc
 50
71.52053178600396
 51
92.91041040290274
  0
ARC
  5
659E
330
1A
100
AcDbEntity
  8
SEIHIN
  6
CONTINUOUS
 62
     3
100
AcDbCircle
 10
455.5944667163381
 20
95.36918739498606
 30
0.0
 40
0.5
100
AcDbArc
 50
271.7173149996928
 51
355.4499984432201
  0
LINE
  5
659F
330
1A
100
AcDbEntity
  8
SEIHIN
  6
CONTINUOUS
 62
     3
100
AcDbLine
 10
434.1635800195941
 20
94.45752938328075
 30
0.0
 11
434.1635800195941
 21
93.29602116148128
 31
0.0
  0
ARC
  5
65A0
330
1A
100
AcDbEntity
  8
SEIHIN
  6
CONTINUOUS
 62
     3
100
AcDbCircle
 10
458.3720183225678
 20
92.45473760317679
 30
0.0
 40
1.500000000000046
100
AcDbArc
 50
271.8716128593908
 51
355.4500000000006
  0
LWPOLYLINE
  5
65A1
330
1A
100
AcDbEntity
  8
SEIHIN
  6
CONTINUOUS
 62
     3
100
AcDbPolyline
 90
        3
 70
   128
 43
0.0
 10
459.4039378380677
 20
91.37401491307679
 10
459.4061134076676
 20
91.37173154297682
 10
459.4079015469677
 20
91.3698627859768
  0
LINE
  5
65A2
330
1A
100
AcDbEntity
  8
SEIHIN
  6
CONTINUOUS
 62
     3
100
AcDbLine
 10
454.0766982054678
 20
94.82463839367682
 30
0.0
 11
454.2897699093678
 21
94.83583568497682
 31
0.0
  0
ARC
  5
65A3
330
1A
100
AcDbEntity
  8
SEIHIN
  6
CONTINUOUS
 62
     3
100
AcDbCircle
 10
457.1683425277289
 20
93.71677562954733
 30
0.0
 40
1.0
100
AcDbArc
 50
271.8048588083473
 51
355.4499984432168
  0
ARC
  5
65A4
330
1A
100
AcDbEntity
  8
SEIHIN
  6
CONTINUOUS
 62
     3
100
AcDbCircle
 10
456.057345532358
 20
94.88294149425462
 30
0.0
 40
1.0
100
AcDbArc
 50
271.7430922880094
 51
355.4499963988445
  0
ARC
  5
65A5
330
1A
100
AcDbEntity
  8
SEIHIN
  6
CONTINUOUS
 62
     3
100
AcDbCircle
 10
458.5598710597677
 20
92.25791454307682
 30
0.0
 40
2.997130061839147
100
AcDbArc
 50
271.873701133601
 51
355.4580708482999
  0
ARC
  5
65A6
330
1A
100
AcDbEntity
  8
SEIHIN
  6
CONTINUOUS
 62
     3
100
AcDbCircle
 10
459.2979972825677
 20
91.48486231177679
 30
0.0
 40
3.000000000000056
100
AcDbArc
 50
271.9228499591979
 51
355.4500000000006
  0
LWPOLYLINE
  5
65A7
330
1A
100
AcDbEntity
  8
SEIHIN
  6
CONTINUOUS
 62
     3
100
AcDbPolyline
 90
        6
 70
   128
 43
0.0
 10
436.1335916137679
 20
94.47607043107678
 10
435.1405484294679
 20
94.46622309177678
 10
434.2594576692678
 20
94.45831523177679
 10
433.5896877265678
 20
94.45282555087681
 10
433.2067427849677
 20
94.44988909077682
 10
433.1621138072677
 20
94.44955614297681
  0
ARC
  5
65A8
330
1A
100
AcDbEntity
  8
SEIHIN
  6
CONTINUOUS
 62
     3
100
AcDbCircle
 10
435.7728162301679
 20
86.5539370138768
 30
0.0
 40
6.931474578673846
100
AcDbArc
 50
87.0164715742908
 51
112.1259952650994
  0
ARC
  5
65A9
330
1A
100
AcDbEntity
  8
SEIHIN
  6
CONTINUOUS
 62
     3
100
AcDbCircle
 10
425.7610106580679
 20
1090.422057799177
 30
0.0
 40
996.0000000000004
100
AcDbArc
 50
270.3265828506991
 51
270.4257588647976
  0
LINE
  5
65AA
330
1A
100
AcDbEntity
  8
SEIHIN
  6
CONTINUOUS
 62
     3
100
AcDbLine
 10
431.4381239628677
 20
94.43823731407679
 30
0.0
 11
431.1387372827677
 21
92.71209169077678
 31
0.0
  0
LINE
  5
65AB
330
1A
100
AcDbEntity
  8
SEIHIN
  6
CONTINUOUS
 62
     3
100
AcDbLine
 10
431.4961873657677
 20
92.23853371747679
 30
0.0
 11
432.2714594918678
 21
92.24328921307682
 31
0.0
  0
LINE
  5
65AC
330
1A
100
AcDbEntity
  8
SEIHIN
  6
CONTINUOUS
 62
     3
100
AcDbLine
 10
433.1621138072677
 20
92.97496284257681
 30
0.0
 11
432.6885887360678
 21
92.34621045757682
 31
0.0
  0
ARC
  5
65AD
330
1A
100
AcDbEntity
  8
SEIHIN
  6
CONTINUOUS
 62
     3
100
AcDbCircle
 10
425.7610106580679
 20
1090.422057799177
 30
0.0
 40
998.2000000000059
100
AcDbArc
 50
270.3736965393962
 51
271.8048588083473
  0
ARC
  5
65AE
330
1A
100
AcDbEntity
  8
SEIHIN
  6
CONTINUOUS
 62
     3
100
AcDbCircle
 10
425.7610106580679
 20
1090.422057799177
 30
0.0
 40
996.0
100
AcDbArc
 50
270.5967025609016
 51
271.7173149997058
  0
ARC
  5
65AF
330
1A
100
AcDbEntity
  8
SEIHIN
  6
CONTINUOUS
 62
     3
100
AcDbCircle
 10
425.7610106580679
 20
1090.422057799177
 30
0.0
 40
997.0000000000004
100
AcDbArc
 50
270.5961040413059
 51
271.7430922880355
  0
LINE
  5
65B0
330
1A
100
AcDbEntity
  8
SEIHIN
  6
CONTINUOUS
 62
     3
100
AcDbLine
 10
391.9155139244111
 20
102.5686143422951
 30
0.0
 11
389.6958408228548
 21
117.0239251782825
 31
0.0
  0
LINE
  5
65B1
330
1A
100
AcDbEntity
  8
SEIHIN
  6
CONTINUOUS
 62
     3
100
AcDbLine
 10
387.5104395365677
 20
116.7609427952768
 30
0.0
 11
389.7466195440678
 21
102.1981338867768
 31
0.0
  0
LINE
  5
65B2
330
1A
100
AcDbEntity
  8
SEIHIN
  6
CONTINUOUS
 62
     3
100
AcDbLine
 10
390.1363668656678
 20
102.2954189115768
 30
0.0
 11
387.9166937641115
 21
116.7507297475642
 31
0.0
  0
ARC
  5
65B3
330
1A
100
AcDbEntity
  8
SEIHIN
  6
CONTINUOUS
 62
     3
100
AcDbCircle
 10
1319.793905786967
 20
447.6118675574769
 30
0.0
 40
997.7999999999999
100
AcDbArc
 50
199.4982108597612
 51
200.1052688485494
  0
LINE
  5
65B4
330
1A
100
AcDbEntity
  8
SEIHIN
  6
CONTINUOUS
 62
     3
100
AcDbLine
 10
385.3962815117819
 20
104.6220577991767
 30
0.0
 11
383.9977122205397
 21
113.7300463237487
 31
0.0
  0
ARC
  5
65B5
330
1A
100
AcDbEntity
  8
SEIHIN
  6
CONTINUOUS
 62
     3
100
AcDbCircle
 10
376.4623638373421
 20
100.9220577995371
 30
0.0
 40
1.000000000000045
100
AcDbArc
 50
200.2532671117982
 51
270.0
  0
ARC
  5
65B6
330
1A
100
AcDbEntity
  8
SEIHIN
  6
CONTINUOUS
 62
     3
100
AcDbCircle
 10
381.5031207467678
 20
98.92205779917681
 30
0.0
 40
1.0
100
AcDbArc
 50
19.3005854307996
 51
90.0
  0
ARC
  5
65B7
330
1A
100
AcDbEntity
  8
SEIHIN
  6
CONTINUOUS
 62
     3
100
AcDbCircle
 10
381.6099232714678
 20
102.9220577991768
 30
0.0
 40
0.500000000000036
100
AcDbArc
 50
200.1733866673994
 51
270.0
  0
LINE
  5
65B8
330
1A
100
AcDbEntity
  8
SEIHIN
  6
CONTINUOUS
 62
     3
100
AcDbLine
 10
386.6969965379677
 20
102.4220577991767
 30
0.0
 11
381.6099232714678
 21
102.4220577991767
 31
0.0
  0
LINE
  5
65B9
330
1A
100
AcDbEntity
  8
SEIHIN
  6
CONTINUOUS
 62
     3
100
AcDbLine
 10
380.2150502300677
 20
99.9220577991768
 30
0.0
 11
385.2783110444678
 21
99.9220577991768
 31
0.0
  0
ARC
  5
65BA
330
1A
100
AcDbEntity
  8
SEIHIN
  6
CONTINUOUS
 62
     3
100
AcDbCircle
 10
380.2150502300677
 20
100.9220577991768
 30
0.0
 40
1.000000000000045
100
AcDbArc
 50
200.2532671117982
 51
270.0
  0
ARC
  5
65BB
330
1A
100
AcDbEntity
  8
SEIHIN
  6
CONTINUOUS
 62
     3
100
AcDbCircle
 10
380.7720999774677
 20
101.7211235567767
 30
0.0
 40
0.9990661060138558
100
AcDbArc
 50
200.2159468574981
 51
270.0053949612989
  0
LINE
  5
65BC
330
1A
100
AcDbEntity
  8
SEIHIN
  6
CONTINUOUS
 62
     3
100
AcDbLine
 10
385.8463523602678
 20
100.7220574551768
 30
0.0
 11
380.7721940493678
 21
100.7220574551768
 31
0.0
  0
LINE
  5
65BD
330
1A
100
AcDbEntity
  8
SEIHIN
  6
CONTINUOUS
 62
     3
100
AcDbLine
 10
385.3962815117816
 20
104.6220577991767
 30
0.0
 11
382.7971980008811
 21
104.6220577991767
 31
0.0
  0
LINE
  5
65BE
330
1A
100
AcDbEntity
  8
SEIHIN
  6
CONTINUOUS
 62
     3
100
AcDbLine
 10
380.2150502300677
 20
99.9220577991768
 30
0.0
 11
375.5241922392678
 21
99.9220577991768
 31
0.0
  0
ARC
  5
65BF
330
1A
100
AcDbEntity
  8
SEIHIN
  6
CONTINUOUS
 62
     3
100
AcDbCircle
 10
385.2783110444678
 20
98.92205779917681
 30
0.0
 40
1.0
100
AcDbArc
 50
19.3005854307996
 51
90.0
  0
ARC
  5
65C0
330
1A
100
AcDbEntity
  8
SEIHIN
  6
CONTINUOUS
 62
     3
100
AcDbCircle
 10
386.6969965379677
 20
100.9220577991768
 30
0.0
 40
1.5
100
AcDbArc
 50
19.3005854307996
 51
90.0
  0
ARC
  5
65C1
330
1A
100
AcDbEntity
  8
SEIHIN
  6
CONTINUOUS
 62
     3
100
AcDbCircle
 10
379.2978936537316
 20
121.2876405048729
 30
0.0
 40
0.5
100
AcDbArc
 50
199.1352577285082
 51
260.0519357381099
  0
ARC
  5
65C2
330
1A
100
AcDbEntity
  8
SEIHIN
  6
CONTINUOUS
 62
     3
100
AcDbCircle
 10
377.9449636431569
 20
119.6974577146285
 30
0.0
 40
0.5
100
AcDbArc
 50
199.1960885578715
 51
260.0519357381364
  0
ARC
  5
65C3
330
1A
100
AcDbEntity
  8
SEIHIN
  6
CONTINUOUS
 62
     3
100
AcDbCircle
 10
386.9282787314765
 20
116.5989545082762
 30
0.0
 40
2.799999999999999
100
AcDbArc
 50
8.729818307745158
 51
80.05193573812304
  0
LINE
  5
65C4
330
1A
100
AcDbEntity
  8
SEIHIN
  6
CONTINUOUS
 62
     3
100
AcDbLine
 10
387.4119939293924
 20
119.3568558131283
 30
0.0
 11
379.211515939818
 21
120.7951581290064
 31
0.0
  0
LINE
  5
65C5
330
1A
100
AcDbEntity
  8
SEIHIN
  6
CONTINUOUS
 62
     3
100
AcDbLine
 10
383.9977122205397
 20
113.7300463237487
 30
0.0
 11
379.2158257831562
 21
114.568754107666
 31
0.0
  0
ARC
  5
65C6
330
1A
100
AcDbEntity
  8
SEIHIN
  6
CONTINUOUS
 62
     3
100
AcDbCircle
 10
377.6444627097677
 20
119.3440262420767
 30
0.0
 40
0.4999687269306535
100
AcDbArc
 50
199.2260901785005
 51
260.0351958714088
  0
LINE
  5
65C7
330
1A
100
AcDbEntity
  8
SEIHIN
  6
CONTINUOUS
 62
     3
100
AcDbLine
 10
377.5581067121678
 20
118.8515719854768
 30
0.0
 11
387.1026096558677
 21
117.1775382840768
 31
0.0
  0
LINE
  5
65C8
330
1A
100
AcDbEntity
  8
SEIHIN
  6
CONTINUOUS
 62
     3
100
AcDbLine
 10
387.1010341593036
 20
117.5839192600091
 30
0.0
 11
377.8585859292435
 21
119.2049753387619
 31
0.0
  0
ARC
  5
65C9
330
1A
100
AcDbEntity
  8
SEIHIN
  6
CONTINUOUS
 62
     3
100
AcDbCircle
 10
387.0162292845676
 20
116.6850550612767
 30
0.0
 40
0.5000000396613434
100
AcDbArc
 50
8.752648209799387
 51
80.02911179659893
  0
ARC
  5
65CA
330
1A
100
AcDbEntity
  8
SEIHIN
  6
CONTINUOUS
 62
     3
100
AcDbCircle
 10
386.9282787314765
 20
116.5989545082762
 30
0.0
 40
1.0
100
AcDbArc
 50
8.729818307745158
 51
80.05193573812304
  0
LINE
  5
65CB
330
1A
100
AcDbEntity
  8
SEIHIN
  6
CONTINUOUS
 62
     3
100
AcDbLine
 10
463.4866324877676
 20
149.4220585459768
 30
0.0
 11
460.3975676224141
 21
149.4220585459768
 31
0.0
  0
LINE
  5
65CC
330
1A
100
AcDbEntity
  8
SEIHIN
  6
CONTINUOUS
 62
     3
100
AcDbLine
 10
362.2206022656677
 20
159.4220601850768
 30
0.0
 11
463.0657783187676
 21
159.4220577991768
 31
0.0
  0
LINE
  5
65CD
330
1A
100
AcDbEntity
  8
SEIHIN
  6
CONTINUOUS
 62
     3
100
AcDbLine
 10
462.5090269065678
 20
148.2220568591768
 30
0.0
 11
462.6045135474677
 21
149.4220585459768
 31
0.0
  0
LINE
  5
65CE
330
1A
100
AcDbEntity
  8
SEIHIN
  6
CONTINUOUS
 62
     3
100
AcDbLine
 10
367.1732691449677
 20
149.4220577991768
 30
0.0
 11
367.2985695734679
 21
149.0220577991767
 31
0.0
  0
ARC
  5
65CF
330
1A
100
AcDbEntity
  8
SEIHIN
  6
CONTINUOUS
 62
     3
100
AcDbCircle
 10
358.6706135732678
 20
143.1453929366767
 30
0.0
 40
10.40087046380097
100
AcDbArc
 50
15.71586733790041
 51
32.87245735350196
  0
LINE
  5
65D0
330
1A
100
AcDbEntity
  8
SEIHIN
  6
CONTINUOUS
 62
     3
100
AcDbLine
 10
367.3560192501678
 20
148.9043884807767
 30
0.0
 11
367.4061072984678
 21
148.7906804605768
 31
0.0
  0
LINE
  5
65D1
330
1A
100
AcDbEntity
  8
SEIHIN
  6
CONTINUOUS
 62
     3
100
AcDbLine
 10
369.4787804963085
 20
149.4220585459768
 30
0.0
 11
366.0228533363678
 21
149.4220585459768
 31
0.0
  0
ARC
  5
65D2
330
1A
100
AcDbEntity
  8
SEIHIN
  6
CONTINUOUS
 62
     3
100
AcDbCircle
 10
366.0228271532679
 20
150.4220302407768
 30
0.0
 40
0.999966048125356
100
AcDbArc
 50
197.3057251730003
 51
253.668722080802
  0
LINE
  5
65D3
330
1A
100
AcDbEntity
  8
SEIHIN
  6
CONTINUOUS
 62
     3
100
AcDbLine
 10
365.7416458764677
 20
149.4624113394768
 30
0.0
 11
366.0228533363678
 21
149.4220585459768
 31
0.0
  0
LINE
  5
65D4
330
1A
100
AcDbEntity
  8
SEIHIN
100
AcDbLine
 10
351.9116474008677
 20
172.5821324521767
 30
0.0
 11
355.7610106580678
 21
172.5721847670768
 31
0.0
  0
LINE
  5
65D5
330
1A
100
AcDbEntity
  8
SEIHIN
  6
CONTINUOUS
 62
     3
100
AcDbLine
 10
351.9116474008677
 20
172.5821324521767
 30
0.0
 11
351.7610115623678
 21
172.5721859270768
 31
0.0
  0
ARC
  5
65D6
330
1A
100
AcDbEntity
  8
SEIHIN
  6
CONTINUOUS
 62
     3
100
AcDbCircle
 10
469.7060089803677
 20
161.4220577991767
 30
0.0
 40
2.0
100
AcDbArc
 50
270.0
 51
0.0
  0
LINE
  5
65D7
330
1A
100
AcDbEntity
  8
SEIHIN
  6
CONTINUOUS
 62
     3
100
AcDbLine
 10
463.0657783187676
 20
159.4220577991768
 30
0.0
 11
467.0531722614679
 21
159.4220577991768
 31
0.0
  0
LINE
  5
65D8
330
1A
100
AcDbEntity
  8
SEIHIN
  6
CONTINUOUS
 62
     3
100
AcDbLine
 10
469.7060089803677
 20
159.4220577991768
 30
0.0
 11
467.0531722614679
 21
159.4220577991768
 31
0.0
  0
ARC
  5
65D9
330
1A
100
AcDbEntity
  8
SEIHIN
  6
CONTINUOUS
 62
     3
100
AcDbCircle
 10
463.4875474726678
 20
150.4214676511768
 30
0.0
 40
0.9990355893155815
100
AcDbArc
 50
299.0830393418024
 51
355.4796515265989
  0
ARC
  5
65DA
330
1A
100
AcDbEntity
  8
SEIHIN
  6
CONTINUOUS
 62
     3
100
AcDbCircle
 10
463.4866289674676
 20
150.4220577991768
 30
0.0
 40
1.000000000000103
100
AcDbArc
 50
270.0
 51
299.113004225499
  0
ARC
  5
65DB
330
1A
100
AcDbEntity
  8
SEIHIN
  6
CONTINUOUS
 62
     3
100
AcDbCircle
 10
469.3621263627677
 20
154.9220577991768
 30
0.0
 40
2.000000000000035
100
AcDbArc
 50
90.0
 51
175.4500000000006
  0
LINE
  5
65DC
330
1A
100
AcDbEntity
  8
SEIHIN
  6
CONTINUOUS
 62
     3
100
AcDbLine
 10
468.5612080311677
 20
156.9220551186767
 30
0.0
 11
472.2060089803677
 21
156.9220577991768
 31
0.0
  0
ARC
  5
65DD
330
1A
100
AcDbEntity
  8
SEIHIN
  6
CONTINUOUS
 62
     3
100
AcDbCircle
 10
467.0531722614679
 20
157.4220577991767
 30
0.0
 40
2.000000000000034
100
AcDbArc
 50
90.0
 51
175.4500000000006
  0
ARC
  5
65DE
330
1A
100
AcDbEntity
  8
SEIHIN
  6
CONTINUOUS
 62
     3
100
AcDbCircle
 10
472.2060089803677
 20
158.9220577991768
 30
0.0
 40
2.0
100
AcDbArc
 50
270.0
 51
0.0
  0
LINE
  5
65DF
330
1A
100
AcDbEntity
  8
SEIHIN
  6
CONTINUOUS
 62
     3
100
AcDbLine
 10
324.9682999840678
 20
204.0836193495767
 30
0.0
 11
338.4610099411678
 21
204.0836193495767
 31
0.0
  0
LINE
  5
65E0
330
1A
100
AcDbEntity
  8
SEIHIN
  6
CONTINUOUS
 62
     3
100
AcDbLine
 10
321.9667010467677
 20
177.9220577991767
 30
0.0
 11
339.8338818615676
 21
177.9220604234768
 31
0.0
  0
LINE
  5
65E1
330
1A
100
AcDbEntity
  8
SEIHIN
  6
CONTINUOUS
 62
     3
100
AcDbLine
 10
339.8338818615676
 20
177.9220604234768
 30
0.0
 11
333.9610101994911
 21
196.1258113719505
 31
0.0
  0
LINE
  5
65E3
330
1A
100
AcDbEntity
  8
SEIHIN
  6
CONTINUOUS
 62
     3
100
AcDbLine
 10
333.9610101994914
 20
196.12581137195
 30
0.0
 11
333.9610106580677
 21
200.3755186037767
 31
0.0
  0
LINE
  5
65E4
330
1A
100
AcDbEntity
  8
SEIHIN
  6
CONTINUOUS
 62
     3
100
AcDbLine
 10
297.9683002150678
 20
195.6527882152768
 30
0.0
 11
297.9682997679677
 21
200.3755186037767
 31
0.0
  0
LINE
  5
65E6
330
1A
100
AcDbEntity
  8
SEIHIN
  6
CONTINUOUS
 62
     3
100
AcDbLine
 10
297.9683002150678
 20
178.7220590644768
 30
0.0
 11
297.9683002150678
 21
195.6527882152768
 31
0.0
  0
LINE
  5
65E7
330
1A
100
AcDbEntity
  8
SEIHIN
  6
CONTINUOUS
 62
     3
100
AcDbLine
 10
313.9730933769677
 20
178.0818660547768
 30
0.0
 11
297.9683002150678
 21
178.7220590644768
 31
0.0
  0
LINE
  5
65E8
330
1A
100
AcDbEntity
  8
SEIHIN
  6
CONTINUOUS
 62
     3
100
AcDbLine
 10
297.9683002150678
 20
177.7228542500768
 30
0.0
 11
297.9683002150678
 21
178.7220590644768
 31
0.0
  0
ARC
  5
65E9
330
1A
100
AcDbEntity
  8
SEIHIN
  6
CONTINUOUS
 62
     3
100
AcDbCircle
 10
321.9667010467677
 20
377.9220577991768
 30
0.0
 40
200.0
100
AcDbArc
 50
267.7093899573995
 51
270.0
  0
LINE
  5
65EA
330
1A
100
AcDbEntity
  8
SEIHIN
  6
CONTINUOUS
 62
     3
100
AcDbLine
 10
312.4070765143677
 20
204.1530662113768
 30
0.0
 11
297.9682997679677
 21
204.1530696717768
 31
0.0
  0
LINE
  5
65EB
330
1A
100
AcDbEntity
  8
SEIHIN
  6
CONTINUOUS
 62
     3
100
AcDbLine
 10
297.9682997679677
 20
204.1062235652767
 30
0.0
 11
297.9682997679677
 21
204.1530696717768
 31
0.0
  0
LINE
  5
65EC
330
1A
100
AcDbEntity
  8
SEIHIN
  6
CONTINUOUS
 62
     3
100
AcDbLine
 10
297.9682997679677
 20
203.5755186037767
 30
0.0
 11
297.9682997679677
 21
204.1062235652767
 31
0.0
  0
LINE
  5
65ED
330
1A
100
AcDbEntity
  8
SEIHIN
  6
CONTINUOUS
 62
     3
100
AcDbLine
 10
297.9682997679677
 20
200.3755186037767
 30
0.0
 11
297.9682997679677
 21
203.5755186037767
 31
0.0
  0
LINE
  5
65EE
330
1A
100
AcDbEntity
  8
SEIHIN
  6
CONTINUOUS
 62
     3
100
AcDbLine
 10
323.0337562663677
 20
204.3755181962767
 30
0.0
 11
321.9667010467677
 21
204.3755186037767
 31
0.0
  0
ARC
  5
65EF
330
1A
100
AcDbEntity
  8
SEIHIN
  6
CONTINUOUS
 62
     3
100
AcDbCircle
 10
321.9667010467677
 20
4.375518603776811
 30
0.0
 40
200.0
100
AcDbArc
 50
90.0
 51
92.29061004260039
  0
LINE
  5
65F0
330
1A
100
AcDbEntity
  8
SEIHIN
  6
CONTINUOUS
 62
     3
100
AcDbLine
 10
313.9730933769677
 20
204.2157103480767
 30
0.0
 11
312.406989959841
 21
204.1530662113975
 31
0.0
  0
ARC
  5
65F1
330
1A
100
AcDbEntity
  8
SEIHIN
  6
CONTINUOUS
 62
     3
100
AcDbCircle
 10
327.0788136959678
 20
224.6828881625767
 30
0.0
 40
20.70710370274285
100
AcDbArc
 50
258.735042047004
 51
264.150129515495
  0
ARC
  5
65F3
330
1A
100
AcDbEntity
  8
SEIHIN
  6
CONTINUOUS
 62
     3
100
AcDbCircle
 10
464.2060089803677
 20
179.0220577991767
 30
0.0
 40
1.899999999999976
100
AcDbArc
 50
180.0
 51
270.0
  0
ARC
  5
65F4
330
1A
100
AcDbEntity
  8
SEIHIN
  6
CONTINUOUS
 62
     3
100
AcDbCircle
 10
464.2060089803677
 20
179.0220577991767
 30
0.0
 40
1.900000000000005
100
AcDbArc
 50
90.0
 51
180.0
  0
LINE
  5
65F5
330
1A
100
AcDbEntity
  8
SEIHIN
  6
CONTINUOUS
 62
     3
100
AcDbLine
 10
464.2060089803677
 20
180.9220577991768
 30
0.0
 11
345.2997004306677
 21
180.9220590525768
 31
0.0
  0
LINE
  5
65F6
330
1A
100
AcDbEntity
  8
SEIHIN
  6
CONTINUOUS
 62
     3
100
AcDbLine
 10
345.4571330613676
 20
202.2008352809767
 30
0.0
 11
344.9610100752678
 21
199.7202240758767
 31
0.0
  0
LINE
  5
65F7
330
1A
100
AcDbEntity
  8
SEIHIN
  6
CONTINUOUS
 62
     3
100
AcDbLine
 10
340.4610102689677
 20
195.9202268057767
 30
0.0
 11
340.4610102689677
 21
201.3893478446767
 31
0.0
  0
LINE
  5
65F8
330
1A
100
AcDbEntity
  8
SEIHIN
  6
CONTINUOUS
 62
     3
100
AcDbLine
 10
338.7610112941678
 20
195.6527882152768
 30
0.0
 11
338.7610106580678
 21
200.3755186037767
 31
0.0
  0
ARC
  5
65F9
330
1A
100
AcDbEntity
  8
SEIHIN
  6
CONTINUOUS
 62
     3
100
AcDbCircle
 10
345.3525373448677
 20
204.7202249377768
 30
0.0
 40
5.0
100
AcDbArc
 50
270.0
 51
294.9999999999927
  0
LINE
  5
65FA
330
1A
100
AcDbEntity
  8
SEIHIN
  6
CONTINUOUS
 62
     3
100
AcDbLine
 10
337.9610106580677
 20
200.3755186037767
 30
0.0
 11
337.9610107904678
 21
195.5269330078768
 31
0.0
  0
LINE
  5
65FB
330
1A
100
AcDbEntity
  8
SEIHIN
  6
CONTINUOUS
 62
     3
100
AcDbLine
 10
345.4610110885677
 20
180.4220580392767
 30
0.0
 11
340.4610102689677
 21
195.9202268057767
 31
0.0
  0
LINE
  5
65FC
330
1A
100
AcDbEntity
  8
SEIHIN
  6
CONTINUOUS
 62
     3
100
AcDbLine
 10
344.2231809413677
 20
178.7220590644768
 30
0.0
 11
338.7610112941678
 21
195.6527882152768
 31
0.0
  0
LINE
  5
65FD
330
1A
100
AcDbEntity
  8
SEIHIN
  6
CONTINUOUS
 62
     3
100
AcDbLine
 10
337.9610107904678
 20
195.5269330078768
 30
0.0
 11
343.6406740611677
 21
177.9220604234768
 31
0.0
  0
ARC
  5
65FE
330
1A
100
AcDbEntity
  8
SEIHIN
  6
CONTINUOUS
 62
     3
100
AcDbCircle
 10
350.9116474008677
 20
176.9320054842767
 30
0.0
 40
1.000000000000027
100
AcDbArc
 50
0.0
 51
90.0
  0
ARC
  5
65FF
330
1A
100
AcDbEntity
  8
SEIHIN
  6
CONTINUOUS
 62
     3
100
AcDbCircle
 10
354.7610106580679
 20
176.9220577991768
 30
0.0
 40
1.000000000000027
100
AcDbArc
 50
0.0
 51
90.0
  0
ARC
  5
6600
330
1A
100
AcDbEntity
  8
SEIHIN
  6
CONTINUOUS
 62
     3
100
AcDbCircle
 10
357.2610106580679
 20
179.4220577991767
 30
0.0
 40
1.0
100
AcDbArc
 50
0.0
 51
90.0
  0
LINE
  5
6601
330
1A
100
AcDbEntity
  8
SEIHIN
  6
CONTINUOUS
 62
     3
100
AcDbLine
 10
343.6406740611677
 20
177.9220604234768
 30
0.0
 11
339.8338818615676
 21
177.9220604234768
 31
0.0
  0
LINE
  5
6602
330
1A
100
AcDbEntity
  8
SEIHIN
  6
CONTINUOUS
 62
     3
100
AcDbLine
 10
343.6406740611677
 20
177.9220604234768
 30
0.0
 11
354.7610106580679
 21
177.9220577991767
 31
0.0
  0
LINE
  5
6603
330
1A
100
AcDbEntity
  8
SEIHIN
  6
CONTINUOUS
 62
     3
100
AcDbLine
 10
357.2610106580679
 20
180.4220577991767
 30
0.0
 11
345.4610110885677
 21
180.4220580392767
 31
0.0
  0
LINE
  5
6604
330
1A
100
AcDbEntity
  8
SEIHIN
  6
CONTINUOUS
 62
     3
100
AcDbLine
 10
355.5618097698676
 20
178.7220590644768
 30
0.0
 11
344.2231809413677
 21
178.7220590644768
 31
0.0
  0
LINE
  5
6605
330
1A
100
AcDbEntity
  8
SEIHIN
  6
CONTINUOUS
 62
     3
100
AcDbLine
 10
344.9610100752678
 20
199.7202240758767
 30
0.0
 11
345.3525373448677
 21
199.7202249377768
 31
0.0
  0
LWPOLYLINE
  5
6606
330
1A
100
AcDbEntity
  8
SEIHIN
  6
CONTINUOUS
 62
     3
100
AcDbPolyline
 90
        3
 70
   128
 43
0.0
 10
337.9610107904678
 20
195.5269330078768
 10
337.9598969286677
 20
195.5303826266767
 10
337.9565553432677
 20
195.5407463842768
  0
ARC
  5
6607
330
1A
100
AcDbEntity
  8
SEIHIN
  6
CONTINUOUS
 62
     3
100
AcDbCircle
 10
347.7675105266677
 20
205.2946564671767
 30
0.0
 40
2.000000000000011
100
AcDbArc
 50
258.2317110680071
 51
294.9999999999927
  0
LINE
  5
6608
330
1A
100
AcDbEntity
  8
SEIHIN
  6
CONTINUOUS
 62
     3
100
AcDbLine
 10
349.6483950840678
 20
201.2065267050768
 30
0.0
 11
347.4656286535676
 21
200.1886860025767
 31
0.0
  0
ARC
  5
6609
330
1A
100
AcDbEntity
  8
SEIHIN
  6
CONTINUOUS
 62
     3
100
AcDbCircle
 10
348.8031585605678
 20
203.0191422790768
 30
0.0
 40
2.000000000000013
100
AcDbArc
 50
294.9999999999927
 51
24.99999999999935
  0
LINE
  5
660A
330
1A
100
AcDbEntity
  8
SEIHIN
  6
CONTINUOUS
 62
     3
100
AcDbLine
 10
347.4038915401678
 20
202.9183410936768
 30
0.0
 11
349.9513111102677
 21
204.1062235652767
 31
0.0
  0
LINE
  5
660B
330
1A
100
AcDbEntity
  8
SEIHIN
  6
CONTINUOUS
 62
     3
100
AcDbLine
 10
345.4571330613676
 20
202.2008352809767
 30
0.0
 11
342.2654235428677
 21
202.8657772475768
 31
0.0
  0
LINE
  5
660C
330
1A
100
AcDbEntity
  8
SEIHIN
  6
CONTINUOUS
 62
     3
100
AcDbLine
 10
342.6136642712677
 20
203.5082559468768
 30
0.0
 11
346.1462316727678
 21
202.7723022633767
 31
0.0
  0
LINE
  5
660D
330
1A
100
AcDbEntity
  8
SEIHIN
  6
CONTINUOUS
 62
     3
100
AcDbLine
 10
338.8745637303678
 20
204.0658348136768
 30
0.0
 11
338.4610099411678
 21
204.0836193495767
 31
0.0
  0
ARC
  5
660E
330
1A
100
AcDbEntity
  8
SEIHIN
  6
CONTINUOUS
 62
     3
100
AcDbCircle
 10
339.6461756593676
 20
208.8605261648767
 30
0.0
 40
4.856382411032551
100
AcDbArc
 50
260.8577493980056
 51
279.1422506019943
  0
ARC
  5
660F
330
1A
100
AcDbEntity
  8
SEIHIN
  6
CONTINUOUS
 62
     3
100
AcDbCircle
 10
341.9610106580677
 20
200.3755186037767
 30
0.0
 40
4.000000000000023
100
AcDbArc
 50
78.23171106800725
 51
180.0
  0
LINE
  5
6610
330
1A
100
AcDbEntity
  8
SEIHIN
  6
CONTINUOUS
 62
     3
100
AcDbLine
 10
347.3596020184678
 20
203.3366956276768
 30
0.0
 11
342.7768276745679
 21
204.2914402826768
 31
0.0
  0
ARC
  5
6611
330
1A
100
AcDbEntity
  8
SEIHIN
  6
CONTINUOUS
 62
     3
100
AcDbCircle
 10
341.9610106580677
 20
200.3755186037767
 30
0.0
 40
3.200000000000055
100
AcDbArc
 50
78.23171106800725
 51
180.0
  0
ARC
  5
6612
330
1A
100
AcDbEntity
  8
SEIHIN
  6
CONTINUOUS
 62
     3
100
AcDbCircle
 10
350.1626202410676
 20
203.6530696717768
 30
0.0
 40
0.499999999999969
100
AcDbArc
 50
24.99999999999935
 51
114.9999999999927
  0
ARC
  5
6613
330
1A
100
AcDbEntity
  8
SEIHIN
  6
CONTINUOUS
 62
     3
100
AcDbCircle
 10
471.0201055413677
 20
181.9220917159767
 30
0.0
 40
1.0
100
AcDbArc
 50
0.0
 51
90.0
  0
LINE
  5
6614
330
1A
100
AcDbEntity
  8
SEIHIN
  6
CONTINUOUS
 62
     3
100
AcDbLine
 10
471.0201055413677
 20
182.9220917159767
 30
0.0
 11
470.1736757560678
 21
182.9220917159767
 31
0.0
  0
LINE
  5
6615
330
1A
100
AcDbEntity
  8
SEIHIN
  6
CONTINUOUS
 62
     3
100
AcDbLine
 10
464.2060089803677
 20
177.1220577991767
 30
0.0
 11
464.8060111022677
 21
177.1220543318768
 31
0.0
  0
LINE
  5
6616
330
1A
100
AcDbEntity
  8
SEIHIN
  6
CONTINUOUS
 62
     3
100
AcDbLine
 10
464.8060111022677
 20
177.1220543318768
 30
0.0
 11
464.8060111022677
 21
179.4220560127768
 31
0.0
  0
LINE
  5
6617
330
1A
100
AcDbEntity
  8
SEIHIN
  6
CONTINUOUS
 62
     3
100
AcDbLine
 10
472.2060089803677
 20
180.9220577991768
 30
0.0
 11
464.2060089803677
 21
180.9220577991768
 31
0.0
  0
LINE
  5
6618
330
1A
100
AcDbEntity
  8
SEIHIN
  6
CONTINUOUS
 62
     3
100
AcDbLine
 10
469.7060046410678
 20
179.4220560127768
 30
0.0
 11
464.8060111022677
 21
179.4220560127768
 31
0.0
  0
ARC
  5
6619
330
1A
100
AcDbEntity
  8
SEIHIN
  6
CONTINUOUS
 62
     3
100
AcDbCircle
 10
470.1736757560678
 20
174.9220917159767
 30
0.0
 40
8.00000000000003
100
AcDbArc
 50
90.0
 51
131.4099893551029
  0
LINE
  5
661A
330
1A
100
AcDbEntity
  8
SEIHIN
  6
CONTINUOUS
 62
     3
100
AcDbLine
 10
472.0201102709678
 20
180.9220590525768
 30
0.0
 11
472.0201055413678
 21
181.9220917159767
 31
0.0
  0
ARC
  5
661B
330
1A
100
AcDbEntity
  8
SEIHIN
  6
CONTINUOUS
 62
     3
100
AcDbCircle
 10
472.2060089803677
 20
178.9220577991768
 30
0.0
 40
2.0
100
AcDbArc
 50
0.0
 51
90.0
  0
LINE
  5
661C
330
1A
100
AcDbEntity
  8
SEIHIN
  6
CONTINUOUS
 62
     3
100
AcDbLine
 10
337.9682997680468
 20
377.4135072495496
 30
0.0
 11
333.4584454300468
 21
377.4135072495462
 31
0.0
  0
ARC
  5
661D
330
1A
100
AcDbEntity
  8
SEIHIN
  6
CONTINUOUS
 62
     3
100
AcDbCircle
 10
333.9610106581677
 20
346.3063885039485
 30
0.0
 40
4.0
100
AcDbArc
 50
0.0
 51
90.0
  0
LINE
  5
661E
330
1A
100
AcDbEntity
  8
SEIHIN
  6
CONTINUOUS
 62
     3
100
AcDbLine
 10
322.9682994802613
 20
357.8063889343386
 30
0.0
 11
343.5576138813613
 21
357.8063889343537
 31
0.0
  0
LINE
  5
661F
330
1A
100
AcDbEntity
  8
SEIHIN
  6
CONTINUOUS
 62
     3
100
AcDbLine
 10
324.9682960827649
 20
352.80638811474
 30
0.0
 11
338.4610069711648
 21
352.8063881147499
 31
0.0
  0
LINE
  5
6620
330
1A
100
AcDbEntity
  8
SEIHIN
  6
CONTINUOUS
 62
     3
100
AcDbLine
 10
356.2610106581517
 20
370.606388503963
 30
0.0
 11
297.968299768052
 21
370.6063885039203
 31
0.0
  0
ARC
  5
6622
330
1A
100
AcDbEntity
  8
SEIHIN
  6
CONTINUOUS
 62
     3
100
AcDbCircle
 10
324.9683009213636
 20
354.80638955594
 30
0.0
 40
2.000001441141674
100
AcDbArc
 50
180.0000318940429
 51
269.9998613842414
  0
LINE
  5
6623
330
1A
100
AcDbEntity
  8
SEIHIN
  6
CONTINUOUS
 62
     3
100
AcDbLine
 10
297.9682997680661
 20
351.1063885039202
 30
0.0
 11
297.9682997680634
 21
354.9590421170202
 31
0.0
  0
LINE
  5
6624
330
1A
100
AcDbEntity
  8
SEIHIN
  6
CONTINUOUS
 62
     3
100
AcDbLine
 10
313.9730933770666
 20
350.4661967595319
 30
0.0
 11
297.9682997680661
 21
351.1063885039202
 31
0.0
  0
LINE
  5
6625
330
1A
100
AcDbEntity
  8
SEIHIN
  6
CONTINUOUS
 62
     3
100
AcDbLine
 10
333.9610106581667
 20
350.3063885039466
 30
0.0
 11
321.9667010468668
 21
350.3063885039378
 31
0.0
  0
ARC
  5
6626
330
1A
100
AcDbEntity
  8
SEIHIN
  6
CONTINUOUS
 62
     3
100
AcDbCircle
 10
321.9667010467201
 20
550.3063885039377
 30
0.0
 40
200.0
100
AcDbArc
 50
267.7093899574387
 51
270.000000000039
  0
LINE
  5
6627
330
1A
100
AcDbEntity
  8
SEIHIN
  6
CONTINUOUS
 62
     3
100
AcDbLine
 10
297.9682997680527
 20
369.6063885039202
 30
0.0
 11
297.9682997680575
 21
363.1485364063202
 31
0.0
  0
LINE
  5
6628
330
1A
100
AcDbEntity
  8
SEIHIN
  6
CONTINUOUS
 62
     3
100
AcDbLine
 10
313.97309337706
 20
359.460921189632
 30
0.0
 11
297.9683009703608
 21
358.4916095186203
 31
0.0
  0
LINE
  5
6629
330
1A
100
AcDbEntity
  8
SEIHIN
  6
CONTINUOUS
 62
     3
100
AcDbLine
 10
297.9682997680575
 20
363.1485364063202
 30
0.0
 11
322.9682997680573
 21
363.1485364063385
 31
0.0
  0
LINE
  5
662A
330
1A
100
AcDbEntity
  8
SEIHIN
  6
CONTINUOUS
 62
     3
100
AcDbLine
 10
297.9683009703599
 20
359.7492693860203
 30
0.0
 11
297.9682997680579
 21
362.2966889560202
 31
0.0
  0
LINE
  5
662B
330
1A
100
AcDbEntity
  8
SEIHIN
  6
CONTINUOUS
 62
     3
100
AcDbLine
 10
297.9683009703608
 20
358.4916095186203
 30
0.0
 11
297.9683009703599
 21
359.7492693860203
 31
0.0
  0
LINE
  5
662C
330
1A
100
AcDbEntity
  8
SEIHIN
  6
CONTINUOUS
 62
     3
100
AcDbLine
 10
297.9682997680575
 20
362.9611519804203
 30
0.0
 11
297.9682997680575
 21
363.1485364063202
 31
0.0
  0
LINE
  5
662D
330
1A
100
AcDbEntity
  8
SEIHIN
  6
CONTINUOUS
 62
     3
100
AcDbLine
 10
297.9682997680579
 20
362.2966889560202
 30
0.0
 11
297.9682997680575
 21
362.9611519804203
 31
0.0
  0
LINE
  5
662E
330
1A
100
AcDbEntity
  8
SEIHIN
  6
CONTINUOUS
 62
     3
100
AcDbLine
 10
297.9682997680634
 20
354.9590421170202
 30
0.0
 11
297.9683009703608
 21
358.4916095186203
 31
0.0
  0
LINE
  5
662F
330
1A
100
AcDbEntity
  8
SEIHIN
  6
CONTINUOUS
 62
     3
100
AcDbLine
 10
322.9682997680589
 20
360.9581248959385
 30
0.0
 11
322.96829976806
 21
359.7049798642386
 31
0.0
  0
LINE
  5
6630
330
1A
100
AcDbEntity
  8
SEIHIN
  6
CONTINUOUS
 62
     3
100
AcDbLine
 10
322.96829976806
 20
359.7049798642386
 30
0.0
 11
321.96670104686
 21
359.7049798642379
 31
0.0
  0
LINE
  5
6631
330
1A
100
AcDbEntity
  8
SEIHIN
  6
CONTINUOUS
 62
     3
100
AcDbLine
 10
322.9682997680632
 20
355.1222055203385
 30
0.0
 11
322.96829976806
 21
359.7049798642386
 31
0.0
  0
LINE
  5
6632
330
1A
100
AcDbEntity
  8
SEIHIN
  6
CONTINUOUS
 62
     3
100
AcDbLine
 10
322.9682997680573
 20
363.1485364063385
 30
0.0
 11
322.9682997680575
 21
362.9611519804386
 31
0.0
  0
LINE
  5
6633
330
1A
100
AcDbEntity
  8
SEIHIN
  6
CONTINUOUS
 62
     3
100
AcDbLine
 10
322.9682997680589
 20
360.9581248959385
 30
0.0
 11
322.9682997680579
 21
362.2966889560385
 31
0.0
  0
LINE
  5
6634
330
1A
100
AcDbEntity
  8
SEIHIN
  6
CONTINUOUS
 62
     3
100
AcDbLine
 10
322.9682997680575
 20
362.9611519804386
 30
0.0
 11
322.9682997680579
 21
362.2966889560385
 31
0.0
  0
LINE
  5
6635
330
1A
100
AcDbEntity
  8
SEIHIN
  6
CONTINUOUS
 62
     3
100
AcDbLine
 10
322.9682997680632
 20
355.1222055203385
 30
0.0
 11
322.9682997680634
 21
354.8063885039385
 31
0.0
  0
LINE
  5
6636
330
1A
100
AcDbEntity
  8
SEIHIN
  6
CONTINUOUS
 62
     3
100
AcDbLine
 10
297.968299768052
 20
370.6063885039203
 30
0.0
 11
297.9682997680527
 21
369.6063885039202
 31
0.0
  0
LINE
  5
6637
330
1A
100
AcDbEntity
  8
SEIHIN
  6
CONTINUOUS
 62
     3
100
AcDbLine
 10
462.3060089803678
 20
335.3136776138486
 30
0.0
 11
462.3060089803678
 21
310.3136776138486
 31
0.0
  0
LINE
  5
6638
330
1A
100
AcDbEntity
  8
SEIHIN
  6
CONTINUOUS
 62
     3
100
AcDbLine
 10
459.8672894454678
 20
330.3136746438485
 30
0.0
 11
459.8672910511678
 21
310.3136776138486
 31
0.0
  0
LINE
  5
6639
330
1A
100
AcDbEntity
  8
SEIHIN
  6
CONTINUOUS
 62
     3
100
AcDbLine
 10
388.1126928996678
 20
310.3136776138486
 30
0.0
 11
388.1126923180677
 21
340.3136800082484
 31
0.0
  0
LINE
  5
663A
330
1A
100
AcDbEntity
  8
SEIHIN
  6
CONTINUOUS
 62
     3
100
AcDbLine
 10
391.7610106581678
 20
310.3136776138486
 30
0.0
 11
391.7610106683676
 21
340.3136800082484
 31
0.0
  0
LINE
  5
663B
330
1A
100
AcDbEntity
  8
SEIHIN
  6
CONTINUOUS
 62
     3
100
AcDbLine
 10
381.1405954575678
 20
340.3136800082484
 30
0.0
 11
381.1405966168677
 21
310.3136776138486
 31
0.0
  0
LINE
  5
663C
330
1A
100
AcDbEntity
  8
SEIHIN
  6
CONTINUOUS
 62
     3
100
AcDbLine
 10
358.2610106581678
 20
368.6063885039485
 30
0.0
 11
358.2610106581678
 21
310.3136776138486
 31
0.0
  0
ARC
  5
663D
330
1A
100
AcDbEntity
  8
SEIHIN
  6
CONTINUOUS
 62
     3
100
AcDbCircle
 10
537.9610106581676
 20
334.3120788926485
 30
0.0
 40
200.0
100
AcDbArc
 50
180.0
 51
182.2906100426002
  0
LINE
  5
663E
330
1A
100
AcDbEntity
  8
SEIHIN
  6
CONTINUOUS
 62
     3
100
AcDbLine
 10
350.8031585605677
 20
310.3136776138486
 30
0.0
 11
350.8031585605677
 21
335.3136776138486
 31
0.0
  0
LINE
  5
663F
330
1A
100
AcDbEntity
  8
SEIHIN
  6
CONTINUOUS
 62
     3
100
AcDbLine
 10
462.3060089803678
 20
310.3136776138486
 30
0.0
 11
464.2060089803677
 21
310.3136776138486
 31
0.0
  0
LINE
  5
6640
330
1A
100
AcDbEntity
  8
SEIHIN
  6
CONTINUOUS
 62
     3
100
AcDbLine
 10
458.4210083191677
 20
310.3136776138486
 30
0.0
 11
391.7610106581678
 21
310.3136776138486
 31
0.0
  0
LINE
  5
6641
330
1A
100
AcDbEntity
  8
SEIHIN
  6
CONTINUOUS
 62
     3
100
AcDbLine
 10
347.1155433438678
 20
326.3184712228485
 30
0.0
 11
346.1462316728678
 21
310.3136788161485
 31
0.0
  0
LINE
  5
6642
330
1A
100
AcDbEntity
  8
SEIHIN
  6
CONTINUOUS
 62
     3
100
AcDbLine
 10
338.1208189137676
 20
326.3184712228485
 30
0.0
 11
338.7610106581679
 21
310.3136776138486
 31
0.0
  0
LINE
  5
6643
330
1A
100
AcDbEntity
  8
SEIHIN
  6
CONTINUOUS
 62
     3
100
AcDbLine
 10
381.1405966168677
 20
310.3136776138486
 30
0.0
 11
358.2610106581678
 21
310.3136776138486
 31
0.0
  0
LINE
  5
6644
330
1A
100
AcDbEntity
  8
SEIHIN
  6
CONTINUOUS
 62
     3
100
AcDbLine
 10
358.2610106581678
 20
310.3136776138486
 30
0.0
 11
357.2610106581679
 21
310.3136776138486
 31
0.0
  0
LINE
  5
6645
330
1A
100
AcDbEntity
  8
SEIHIN
  6
CONTINUOUS
 62
     3
100
AcDbLine
 10
350.6157741346679
 20
310.3136776138486
 30
0.0
 11
350.8031585605677
 21
310.3136776138486
 31
0.0
  0
LINE
  5
6646
330
1A
100
AcDbEntity
  8
SEIHIN
  6
CONTINUOUS
 62
     3
100
AcDbLine
 10
347.4038915402678
 20
310.3136788161485
 30
0.0
 11
349.9513111102676
 21
310.3136776138486
 31
0.0
  0
LINE
  5
6647
330
1A
100
AcDbEntity
  8
SEIHIN
  6
CONTINUOUS
 62
     3
100
AcDbLine
 10
349.9513111102676
 20
310.3136776138486
 30
0.0
 11
350.6157741346679
 21
310.3136776138486
 31
0.0
  0
LINE
  5
6648
330
1A
100
AcDbEntity
  8
SEIHIN
  6
CONTINUOUS
 62
     3
100
AcDbLine
 10
342.6136642712677
 20
310.3136776138486
 30
0.0
 11
346.1462316728678
 21
310.3136788161485
 31
0.0
  0
LINE
  5
6649
330
1A
100
AcDbEntity
  8
SEIHIN
  6
CONTINUOUS
 62
     3
100
AcDbLine
 10
338.7610106581679
 20
310.3136776138486
 30
0.0
 11
342.6136642712677
 21
310.3136776138486
 31
0.0
  0
LINE
  5
664A
330
1A
100
AcDbEntity
  8
SEIHIN
  6
CONTINUOUS
 62
     3
100
AcDbLine
 10
346.1462316728678
 20
310.3136788161485
 30
0.0
 11
347.4038915402678
 21
310.3136788161485
 31
0.0
  0
LINE
  5
664B
330
1A
100
AcDbEntity
  8
SEIHIN
  6
CONTINUOUS
 62
     3
100
AcDbLine
 10
357.2610106581679
 20
310.3136776138486
 30
0.0
 11
350.8031585605677
 21
310.3136776138486
 31
0.0
  0
LINE
  5
664C
330
1A
100
AcDbEntity
  8
SEIHIN
  6
CONTINUOUS
 62
     3
100
AcDbLine
 10
391.7610106581678
 20
310.3136776138486
 30
0.0
 11
388.1126928996678
 21
310.3136776138486
 31
0.0
  0
LINE
  5
664D
330
1A
100
AcDbEntity
  8
SEIHIN
  6
CONTINUOUS
 62
     3
100
AcDbLine
 10
381.1405966168677
 20
310.3136776138486
 30
0.0
 11
381.6099232714678
 21
310.3136776138486
 31
0.0
  0
LINE
  5
664E
330
1A
100
AcDbEntity
  8
SEIHIN
  6
CONTINUOUS
 62
     3
100
AcDbLine
 10
386.6969965379679
 20
310.3136776138486
 30
0.0
 11
381.6099232714678
 21
310.3136776138486
 31
0.0
  0
LINE
  5
664F
330
1A
100
AcDbEntity
  8
SEIHIN
  6
CONTINUOUS
 62
     3
100
AcDbLine
 10
386.6969965379679
 20
310.3136776138486
 30
0.0
 11
388.1126928996678
 21
310.3136776138486
 31
0.0
  0
LINE
  5
6650
330
1A
100
AcDbEntity
  8
SEIHIN
  6
CONTINUOUS
 62
     3
100
AcDbLine
 10
459.8672910511678
 20
310.3136776138486
 30
0.0
 11
458.4210083191677
 21
310.3136776138486
 31
0.0
  0
LINE
  5
6651
330
1A
100
AcDbEntity
  8
SEIHIN
  6
CONTINUOUS
 62
     3
100
AcDbLine
 10
462.3060089803678
 20
310.3136776138486
 30
0.0
 11
459.8672910511678
 21
310.3136776138486
 31
0.0
  0
LINE
  5
6652
330
1A
100
AcDbEntity
  8
SEIHIN
  6
CONTINUOUS
 62
     3
100
AcDbLine
 10
474.2060089803676
 20
310.3136776138486
 30
0.0
 11
472.2060089803677
 21
310.3136776138486
 31
0.0
  0
LINE
  5
6653
330
1A
100
AcDbEntity
  8
SEIHIN
  6
CONTINUOUS
 62
     3
100
AcDbLine
 10
472.2060089803677
 20
310.3136776138486
 30
0.0
 11
464.2060089803677
 21
310.3136776138486
 31
0.0
  0
LINE
  5
6654
330
1A
100
AcDbEntity
  8
SEIHIN
  6
CONTINUOUS
 62
     3
100
AcDbLine
 10
471.0201055414677
 20
320.3136776138486
 30
0.0
 11
470.1736757560677
 21
320.3136776138486
 31
0.0
  0
LINE
  5
6655
330
1A
100
AcDbEntity
  8
SEIHIN
  6
CONTINUOUS
 62
     3
100
AcDbLine
 10
470.1736757560677
 20
323.3136776138485
 30
0.0
 11
471.0201055414677
 21
323.3136776138485
 31
0.0
  0
LINE
  5
6656
330
1A
100
AcDbEntity
  8
SEIHIN
  6
CONTINUOUS
 62
     3
100
AcDbLine
 10
472.0201055414677
 20
320.3136776138486
 30
0.0
 11
471.0201055414677
 21
320.3136776138486
 31
0.0
  0
LINE
  5
6657
330
1A
100
AcDbEntity
  8
SEIHIN
  6
CONTINUOUS
 62
     3
100
AcDbLine
 10
472.0201055414677
 20
323.3136776138485
 30
0.0
 11
472.0201055414677
 21
320.3136776138486
 31
0.0
  0
LINE
  5
6658
330
1A
100
AcDbEntity
  8
SEIHIN
  6
CONTINUOUS
 62
     3
100
AcDbLine
 10
471.0201055414677
 20
323.3136776138485
 30
0.0
 11
472.0201055414677
 21
323.3136776138485
 31
0.0
  0
LINE
  5
6659
330
1A
100
AcDbEntity
  8
SEIHIN
  6
CONTINUOUS
 62
     3
100
AcDbLine
 10
464.8821346761677
 20
320.3136776138486
 30
0.0
 11
464.8821346761677
 21
323.3136776138485
 31
0.0
  0
LINE
  5
665A
330
1A
100
AcDbEntity
  8
SEIHIN
  6
CONTINUOUS
 62
     3
100
AcDbLine
 10
470.1736757560677
 20
320.3136776138486
 30
0.0
 11
464.8821346761677
 21
320.3136776138486
 31
0.0
  0
LINE
  5
665B
330
1A
100
AcDbEntity
  8
SEIHIN
  6
CONTINUOUS
 62
     3
100
AcDbLine
 10
464.8821346761677
 20
323.3136776138485
 30
0.0
 11
470.1736757560677
 21
323.3136776138485
 31
0.0
  0
LINE
  5
665C
330
1A
100
AcDbEntity
  8
SEIHIN
  6
CONTINUOUS
 62
     3
100
AcDbLine
 10
463.4866324878679
 20
345.8021949084484
 30
0.0
 11
462.6045135474678
 21
345.3136752398484
 31
0.0
  0
LINE
  5
665D
330
1A
100
AcDbEntity
  8
SEIHIN
  6
CONTINUOUS
 62
     3
100
AcDbLine
 10
460.3975621676678
 20
345.3136752398484
 30
0.0
 11
463.4866324878679
 21
349.1628388913484
 31
0.0
  0
LINE
  5
665E
330
1A
100
AcDbEntity
  8
SEIHIN
  6
CONTINUOUS
 62
     3
100
AcDbLine
 10
464.2060089803677
 20
335.3136776138486
 30
0.0
 11
462.3060089803678
 21
335.3136776138486
 31
0.0
  0
LINE
  5
665F
330
1A
100
AcDbEntity
  8
SEIHIN
  6
CONTINUOUS
 62
     3
100
AcDbLine
 10
464.4834754681676
 20
350.3136776138485
 30
0.0
 11
365.0681294037679
 21
350.3136776138485
 31
0.0
  0
ARC
  5
6660
330
1A
100
AcDbEntity
  8
SEIHIN
  6
CONTINUOUS
 62
     3
100
AcDbCircle
 10
338.4610089770677
 20
350.8063894408485
 30
0.0
 40
2.000002516826823
100
AcDbArc
 50
11.93354957340307
 51
78.0664504266049
  0
LINE
  5
6661
330
1A
100
AcDbEntity
  8
SEIHIN
  6
CONTINUOUS
 62
     3
100
AcDbLine
 10
345.4610110885679
 20
335.3136773260485
 30
0.0
 11
345.4610110885679
 21
355.9029917271485
 31
0.0
  0
LINE
  5
6662
330
1A
100
AcDbEntity
  8
SEIHIN
  6
CONTINUOUS
 62
     3
100
AcDbLine
 10
368.6826659059677
 20
340.3136800082484
 30
0.0
 11
417.2982302136677
 21
340.3136800082484
 31
0.0
  0
LINE
  5
6663
330
1A
100
AcDbEntity
  8
SEIHIN
  6
CONTINUOUS
 62
     3
100
AcDbLine
 10
369.4787804963053
 20
345.3136776138486
 30
0.0
 11
420.6047928252677
 21
345.3136776138486
 31
0.0
  0
LINE
  5
6664
330
1A
100
AcDbEntity
  8
SEIHIN
  6
CONTINUOUS
 62
     3
100
AcDbLine
 10
340.4610102689678
 20
337.3136739285485
 30
0.0
 11
340.4610102689678
 21
350.8063848169484
 31
0.0
  0
LINE
  5
6665
330
1A
100
AcDbEntity
  8
SEIHIN
  6
CONTINUOUS
 62
     3
100
AcDbLine
 10
337.9610106581677
 20
346.3063885039485
 30
0.0
 11
337.9610106581677
 21
334.3120788926485
 31
0.0
  0
LINE
  5
6666
330
1A
100
AcDbEntity
  8
SEIHIN
  6
CONTINUOUS
 62
     3
100
AcDbLine
 10
348.6127470501676
 20
335.3136776138486
 30
0.0
 11
347.3596020184678
 21
335.3136776138486
 31
0.0
  0
LINE
  5
6667
330
1A
100
AcDbEntity
  8
SEIHIN
  6
CONTINUOUS
 62
     3
100
AcDbLine
 10
350.8031585605677
 20
335.3136776138486
 30
0.0
 11
350.6157741346679
 21
335.3136776138486
 31
0.0
  0
LINE
  5
6668
330
1A
100
AcDbEntity
  8
SEIHIN
  6
CONTINUOUS
 62
     3
100
AcDbLine
 10
348.6127470501676
 20
335.3136776138486
 30
0.0
 11
349.9513111102676
 21
335.3136776138486
 31
0.0
  0
LINE
  5
6669
330
1A
100
AcDbEntity
  8
SEIHIN
  6
CONTINUOUS
 62
     3
100
AcDbLine
 10
350.6157741346679
 20
335.3136776138486
 30
0.0
 11
349.9513111102676
 21
335.3136776138486
 31
0.0
  0
LINE
  5
666A
330
1A
100
AcDbEntity
  8
SEIHIN
  6
CONTINUOUS
 62
     3
100
AcDbLine
 10
347.3596020184678
 20
335.3136776138486
 30
0.0
 11
347.3596020184678
 21
334.3120788926485
 31
0.0
  0
LINE
  5
666B
330
1A
100
AcDbEntity
  8
SEIHIN
  6
CONTINUOUS
 62
     3
100
AcDbLine
 10
342.7768276745678
 20
335.3136776138486
 30
0.0
 11
342.4610106581677
 21
335.3136776138486
 31
0.0
  0
ARC
  5
666C
330
1A
100
AcDbEntity
  8
SEIHIN
  6
CONTINUOUS
 62
     3
100
AcDbCircle
 10
342.4610117101677
 20
337.3136787671485
 30
0.0
 40
2.000001441141674
100
AcDbArc
 50
180.0001386157975
 51
269.9999681059993
  0
LINE
  5
666D
330
1A
100
AcDbEntity
  8
SEIHIN
  6
CONTINUOUS
 62
     3
100
AcDbLine
 10
342.7768276745678
 20
335.3136776138486
 30
0.0
 11
347.3596020184678
 21
335.3136776138486
 31
0.0
  0
LINE
  5
666E
330
1A
100
AcDbEntity
  8
SEIHIN
  6
CONTINUOUS
 62
     3
100
AcDbLine
 10
366.0228533363677
 20
349.4361038358484
 30
0.0
 11
369.4787804962678
 21
345.3136776138486
 31
0.0
  0
LWPOLYLINE
  5
666F
330
1A
100
AcDbEntity
  8
SEIHIN
  6
CONTINUOUS
 62
     3
100
AcDbPolyline
 90
        5
 70
   128
 43
0.0
 10
367.4061057782679
 20
342.3125664742485
 10
367.7449581838678
 20
341.3981939704486
 10
368.1227584994676
 20
340.7267476471485
 10
368.5106953299678
 20
340.3583238871485
 10
368.6826659059677
 20
340.3136800082484
  0
LINE
  5
6670
330
1A
100
AcDbEntity
  8
SEIHIN
  6
CONTINUOUS
 62
     3
100
AcDbLine
 10
365.0681294037677
 20
345.8038232758485
 30
0.0
 11
366.2488421060257
 21
345.8038232758485
 31
0.0
  0
LINE
  5
6671
330
1A
100
AcDbEntity
  8
SEIHIN
  6
CONTINUOUS
 62
     3
100
AcDbLine
 10
367.1732676840677
 20
345.3136752398484
 30
0.0
 11
366.2488421060259
 21
345.8038232758485
 31
0.0
  0
ARC
  5
6672
330
1A
100
AcDbEntity
  8
SEIHIN
  6
CONTINUOUS
 62
     3
100
AcDbCircle
 10
364.2540787055677
 20
348.4699458805485
 30
0.0
 40
2.01544657320185
100
AcDbArc
 50
28.64469565019887
 51
66.17744707729471
  0
LINE
  5
6673
330
1A
100
AcDbEntity
  8
SEIHIN
  6
CONTINUOUS
 62
     3
100
AcDbLine
 10
365.0681294037677
 20
350.3136776138485
 30
0.0
 11
365.0681294037677
 21
345.8038232758485
 31
0.0
  0
LINE
  5
6674
330
1A
100
AcDbEntity
  8
SEIHIN
  6
CONTINUOUS
 62
     3
100
AcDbLine
 10
367.3560192501677
 20
342.7253286393485
 30
0.0
 11
367.4061057782679
 21
342.3125664742485
 31
0.0
  0
LINE
  5
6675
330
1A
100
AcDbEntity
  8
SEIHIN
  6
CONTINUOUS
 62
     3
100
AcDbLine
 10
340.4610102689678
 20
350.8063848169484
 30
0.0
 11
340.4177875882679
 21
351.2199441941484
 31
0.0
  0
LWPOLYLINE
  5
6676
330
1A
100
AcDbEntity
  8
SEIHIN
  6
CONTINUOUS
 62
     3
100
AcDbPolyline
 90
        3
 70
   128
 43
0.0
 10
391.0539580202678
 20
350.3136779220485
 10
392.1410424328679
 20
348.4185929449485
 10
393.9212990618678
 20
345.3136752398484
  0
LINE
  5
6677
330
1A
100
AcDbEntity
  8
SEIHIN
  6
CONTINUOUS
 62
     3
100
AcDbLine
 10
391.8902409887678
 20
345.3136752398484
 30
0.0
 11
387.9927454209678
 21
350.3136779220485
 31
0.0
  0
LWPOLYLINE
  5
6678
330
1A
100
AcDbEntity
  8
SEIHIN
  6
CONTINUOUS
 62
     3
100
AcDbPolyline
 90
        4
 70
   128
 43
0.0
 10
375.8423311329678
 20
350.3136779220485
 10
377.3090598798676
 20
347.8713478000485
 10
378.8466510987678
 20
345.3136752398484
 10
378.8495680010679
 20
345.3088323624485
  0
LWPOLYLINE
  5
6679
330
1A
100
AcDbEntity
  8
SEIHIN
  6
CONTINUOUS
 62
     3
100
AcDbPolyline
 90
        5
 70
   128
 43
0.0
 10
370.5711980975677
 20
340.3136800082484
 10
370.2443113243678
 20
340.4962490351484
 10
369.9552921271677
 20
341.0296286495484
 10
369.7449026322677
 20
341.8391491325485
 10
369.6413693642678
 20
342.7253286393485
  0
LINE
  5
667A
330
1A
100
AcDbEntity
  8
SEIHIN
  6
CONTINUOUS
 62
     3
100
AcDbLine
 10
391.8902409887678
 20
345.3136752398484
 30
0.0
 11
391.8902409887678
 21
340.3136800082484
 31
0.0
  0
LINE
  5
667B
330
1A
100
AcDbEntity
  8
SEIHIN
  6
CONTINUOUS
 62
     3
100
AcDbLine
 10
378.8255198289678
 20
345.3136776138486
 30
0.0
 11
378.8255198289678
 21
340.3136776138485
 31
0.0
  0
LINE
  5
667C
330
1A
100
AcDbEntity
  8
SEIHIN
  6
CONTINUOUS
 62
     3
100
AcDbLine
 10
460.3975621676678
 20
345.3136752398484
 30
0.0
 11
460.1972160554678
 21
332.7253307254484
 31
0.0
  0
LINE
  5
667D
330
1A
100
AcDbEntity
  8
SEIHIN
  6
CONTINUOUS
 62
     3
100
AcDbLine
 10
462.5090269065677
 20
339.3136779816484
 30
0.0
 11
462.6045135474678
 21
345.3136752398484
 31
0.0
  0
LINE
  5
667E
330
1A
100
AcDbEntity
  8
SEIHIN
  6
CONTINUOUS
 62
     3
100
AcDbLine
 10
431.4381261585677
 20
345.3136776138486
 30
0.0
 11
433.1621138072678
 21
332.9009707124485
 31
0.0
  0
LINE
  5
667F
330
1A
100
AcDbEntity
  8
SEIHIN
  6
CONTINUOUS
 62
     3
100
AcDbLine
 10
462.3607901549679
 20
336.3103489430485
 30
0.0
 11
461.6441039061676
 21
332.7253307254484
 31
0.0
  0
LINE
  5
6680
330
1A
100
AcDbEntity
  8
SEIHIN
  6
CONTINUOUS
 62
     3
100
AcDbLine
 10
462.5090269065677
 20
339.3136779816484
 30
0.0
 11
462.3607901549679
 21
336.3103489430485
 31
0.0
  0
LINE
  5
6681
330
1A
100
AcDbEntity
  8
SEIHIN
  6
CONTINUOUS
 62
     3
100
AcDbLine
 10
459.9631039119677
 20
330.3136746438485
 30
0.0
 11
460.9662649846677
 21
330.3136746438485
 31
0.0
  0
ARC
  5
6682
330
1A
100
AcDbEntity
  8
SEIHIN
  6
CONTINUOUS
 62
     3
100
AcDbCircle
 10
436.1335912462678
 20
333.3136751666484
 30
0.0
 40
3.000000522815912
100
AcDbArc
 50
187.9071485962993
 51
270.0000070201959
  0
LINE
  5
6683
330
1A
100
AcDbEntity
  8
SEIHIN
  6
CONTINUOUS
 62
     3
100
AcDbLine
 10
459.6784895234826
 20
330.3136776138486
 30
0.0
 11
436.1335897994677
 21
330.3136776138486
 31
0.0
  0
ARC
  5
6684
330
1A
100
AcDbEntity
  8
SEIHIN
  6
CONTINUOUS
 62
     3
100
AcDbCircle
 10
431.0009412291677
 20
344.8268527363484
 30
0.0
 40
0.5000000000000072
100
AcDbArc
 50
7.907162702999138
 51
90.16704361229558
  0
ARC
  5
6685
330
1A
100
AcDbEntity
  8
SEIHIN
  6
CONTINUOUS
 62
     3
100
AcDbCircle
 10
430.4950503258677
 20
347.4486190907485
 30
0.0
 40
0.6440176502469864
100
AcDbArc
 50
1.836200091098107
 51
85.31426455189901
  0
LINE
  5
6686
330
1A
100
AcDbEntity
  8
SEIHIN
  6
CONTINUOUS
 62
     3
100
AcDbLine
 10
430.9315217352678
 20
345.3266541512485
 30
0.0
 11
430.9994859314677
 21
345.3268478663486
 31
0.0
  0
LINE
  5
6687
330
1A
100
AcDbEntity
  8
SEIHIN
  6
CONTINUOUS
 62
     3
100
AcDbLine
 10
430.5476603722677
 20
348.0904842765484
 30
0.0
 11
430.9315217352678
 21
345.3266541512485
 31
0.0
  0
LINE
  5
6688
330
1A
100
AcDbEntity
  8
SEIHIN
  6
CONTINUOUS
 62
     3
100
AcDbLine
 10
420.9037182546676
 20
347.4659170063485
 30
0.0
 11
420.6047928252677
 21
345.3136776138486
 31
0.0
  0
ARC
  5
6689
330
1A
100
AcDbEntity
  8
SEIHIN
  6
CONTINUOUS
 62
     3
100
AcDbCircle
 10
421.5759908182676
 20
347.4184933906486
 30
0.0
 40
0.6739431720839886
100
AcDbArc
 50
96.91525174530418
 51
175.9649113954023
  0
LINE
  5
668A
330
1A
100
AcDbEntity
  8
SEIHIN
  6
CONTINUOUS
 62
     3
100
AcDbLine
 10
421.4948473191678
 20
348.0875338466485
 30
0.0
 11
430.5476603722677
 21
348.0904842765484
 31
0.0
  0
LINE
  5
668B
330
1A
100
AcDbEntity
  8
SEIHIN
  6
CONTINUOUS
 62
     3
100
AcDbLine
 10
420.2696961975678
 20
342.9009760768486
 30
0.0
 11
420.6047928252677
 21
345.3136776138486
 31
0.0
  0
ARC
  5
668C
330
1A
100
AcDbEntity
  8
SEIHIN
  6
CONTINUOUS
 62
     3
100
AcDbCircle
 10
417.2982302136677
 20
343.3136673750485
 30
0.0
 40
2.999987366815414
100
AcDbArc
 50
269.9997742027953
 51
352.0930701805989
  0
LINE
  5
668D
330
1A
100
AcDbEntity
  8
SEIHIN
  6
CONTINUOUS
 62
     3
100
AcDbLine
 10
456.3352970099677
 20
345.3136752398484
 30
0.0
 11
460.3975621676678
 21
345.3136752398484
 31
0.0
  0
LINE
  5
668E
330
1A
100
AcDbEntity
  8
SEIHIN
  6
CONTINUOUS
 62
     3
100
AcDbLine
 10
431.4381261585677
 20
345.3136776138486
 30
0.0
 11
431.1387372827678
 21
347.4692548664484
 31
0.0
  0
LINE
  5
668F
330
1A
100
AcDbEntity
  8
SEIHIN
  6
CONTINUOUS
 62
     3
100
AcDbLine
 10
431.4381261585677
 20
345.3136776138486
 30
0.0
 11
456.3898213526456
 21
345.3136776138486
 31
0.0
  0
LINE
  5
6690
330
1A
100
AcDbEntity
  8
SEIHIN
  6
CONTINUOUS
 62
     3
100
AcDbLine
 10
338.8745637303678
 20
352.7631680520485
 30
0.0
 11
338.4610099411677
 21
352.8063888700486
 31
0.0
  0
ARC
  5
6691
330
1A
100
AcDbEntity
  8
SEIHIN
  6
CONTINUOUS
 62
     3
100
AcDbCircle
 10
356.2610106581676
 20
368.6063885039485
 30
0.0
 40
2.0
100
AcDbArc
 50
0.0
 51
90.0
  0
ARC
  5
6692
330
1A
100
AcDbEntity
  8
SEIHIN
  6
CONTINUOUS
 62
     3
100
AcDbCircle
 10
469.7060089803676
 20
337.3136776138486
 30
0.0
 40
2.0
100
AcDbArc
 50
270.0
 51
0.0
  0
LINE
  5
6693
330
1A
100
AcDbEntity
  8
SEIHIN
  6
CONTINUOUS
 62
     3
100
AcDbLine
 10
464.2060089803677
 20
335.3136776138486
 30
0.0
 11
469.7060089803676
 21
335.3136776138486
 31
0.0
  0
LINE
  5
6694
330
1A
100
AcDbEntity
  8
SEIHIN
  6
CONTINUOUS
 62
     3
100
AcDbLine
 10
463.4895680165678
 20
345.8038265855485
 30
0.0
 11
464.4834754681676
 21
345.8038265855485
 31
0.0
  0
LINE
  5
6695
330
1A
100
AcDbEntity
  8
SEIHIN
  6
CONTINUOUS
 62
     3
100
AcDbLine
 10
464.4834754681676
 20
345.8038265855485
 30
0.0
 11
464.4834754681676
 21
350.3136779220485
 31
0.0
  0
ELLIPSE
  5
6696
330
1A
100
AcDbEntity
  8
SEIHIN
  6
CONTINUOUS
 62
     3
100
AcDbEllipse
 10
463.0405263503678
 20
475.3859041962485
 30
0.0
 11
1.440941443291763
 21
1.440941443291763
 31
0.0
210
0.0
220
0.0
230
1.0
 40
0.9814510984999998
 41
5.500933712863599
 42
7.065436901495572
  0
ELLIPSE
  5
6697
330
1A
100
AcDbEntity
  8
SEIHIN
  6
CONTINUOUS
 62
     3
100
AcDbEllipse
 10
386.1672219194677
 20
398.5125997652485
 30
0.0
 11
-1.414213562372993
 21
1.414213562373219
 31
0.0
210
0.0
220
0.0
230
1.0
 40
0.9510693385999999
 41
3.981723125764757
 42
5.443054835004782
  0
ELLIPSE
  5
6698
330
1A
100
AcDbEntity
  8
SEIHIN
  6
CONTINUOUS
 62
     3
100
AcDbEllipse
 10
1823.917348558946
 20
1332.139283633838
 30
0.0
 11
4979.999999999819
 21
0.0000000036190986
 31
0.0
210
0.0
220
0.0
230
-1.0
 40
0.2
 41
1.874846823541579
 42
1.875391604890734
  0
ELLIPSE
  5
6699
330
1A
100
AcDbEntity
  8
SEIHIN
  6
CONTINUOUS
 62
     3
100
AcDbEllipse
 10
1823.917348558946
 20
1332.139283633838
 30
0.0
 11
4990.999999999817
 21
0.0000000036269358
 31
0.0
210
0.0
220
0.0
230
-1.0
 40
0.2
 41
1.874155337857269
 42
1.874575259793591
  0
ELLIPSE
  5
669A
330
1A
100
AcDbEntity
  8
SEIHIN
  6
CONTINUOUS
 62
     3
100
AcDbEllipse
 10
2722.173035666247
 20
1332.139283634497
 30
0.0
 11
5389.534122649184
 21
0.0000000039166166
 31
0.0
210
0.0
220
0.0
230
-1.0
 40
0.1972026594
 41
2.030492219991496
 42
2.030614034098829
  0
ELLIPSE
  5
669B
330
1A
100
AcDbEntity
  8
SEIHIN
  6
CONTINUOUS
 62
     3
100
AcDbEllipse
 10
320.9682997679772
 20
472.3084834476371
 30
0.0
 11
3.0
 21
0.0000000000021994
 31
0.0
210
0.0
220
0.0
230
-1.0
 40
0.0795798372
 41
3.141592653589792
 42
4.514993420534825
  0
ELLIPSE
  5
669C
330
1A
100
AcDbEntity
  8
SEIHIN
  6
CONTINUOUS
 62
     3
100
AcDbEllipse
 10
320.9682997679761
 20
473.8636344589371
 30
0.0
 11
2.999695566788934
 21
0.5553345739721573
 31
0.0
210
0.0
220
0.0
230
-1.0
 40
0.0769583785
 41
3.155839018265836
 42
4.529239785210514
  0
ELLIPSE
  5
669D
330
1A
100
AcDbEntity
  8
SEIHIN
  6
CONTINUOUS
 62
     3
100
AcDbEllipse
 10
336.7182997679747
 20
475.8320068132487
 30
0.0
 11
1.249400478154832
 21
0.9988270259256704
 31
0.0
210
0.0
220
0.0
230
-1.0
 40
0.0387552145
 41
0.0309727563950873
 42
1.522356602221982
  0
LINE
  5
669E
330
1A
100
AcDbEntity
  8
SEIHIN
  6
CONTINUOUS
 62
     3
100
AcDbLine
 10
322.9682997679743
 20
476.5513868261385
 30
0.0
 11
322.9682997679702
 21
482.0513868261385
 31
0.0
  0
LINE
  5
669F
330
1A
100
AcDbEntity
  8
SEIHIN
  6
CONTINUOUS
 62
     3
100
AcDbLine
 10
307.96829976797
 20
482.5190536018276
 30
0.0
 11
307.9682997679738
 21
477.2275125219275
 31
0.0
  0
LINE
  5
66A0
330
1A
100
AcDbEntity
  8
SEIHIN
  6
CONTINUOUS
 62
     3
100
AcDbLine
 10
310.9682997679738
 20
477.2275125219297
 30
0.0
 11
310.96829976797
 21
482.5190536018298
 31
0.0
  0
LINE
  5
66A1
330
1A
100
AcDbEntity
  8
SEIHIN
  6
CONTINUOUS
 62
     3
100
AcDbLine
 10
297.9682997679684
 20
484.5513868261202
 30
0.0
 11
297.9682997679743
 21
476.5513868261201
 31
0.0
  0
LINE
  5
66A2
330
1A
100
AcDbEntity
  8
SEIHIN
  6
CONTINUOUS
 62
     3
100
AcDbLine
 10
332.9682973939769
 20
472.742940013446
 30
0.0
 11
336.8174610454746
 21
475.8320103336487
 31
0.0
  0
LINE
  5
66A3
330
1A
100
AcDbEntity
  8
SEIHIN
  6
CONTINUOUS
 62
     3
100
AcDbLine
 10
333.4584487396739
 20
476.8288533139462
 30
0.0
 11
337.9683000761738
 21
476.8288533139495
 31
0.0
  0
LINE
  5
66A4
330
1A
100
AcDbEntity
  8
SEIHIN
  6
CONTINUOUS
 62
     3
100
AcDbLine
 10
335.7451064306988
 20
442.893038218048
 30
0.0
 11
332.9812763053985
 21
443.2768995810461
 31
0.0
  0
ARC
  5
66A5
330
1A
100
AcDbEntity
  8
SEIHIN
  6
CONTINUOUS
 62
     3
100
AcDbCircle
 10
335.103241244899
 20
442.8404281716473
 30
0.0
 40
0.6440176502469864
100
AcDbArc
 50
4.68573544814346
 51
88.16379990894096
  0
ARC
  5
66A6
330
1A
100
AcDbEntity
  8
SEIHIN
  6
CONTINUOUS
 62
     3
100
AcDbCircle
 10
335.0731155448054
 20
433.9213686640474
 30
0.0
 40
0.6739431720839886
100
AcDbArc
 50
274.0350886046369
 51
353.0847482547416
  0
LWPOLYLINE
  5
66A7
330
1A
100
AcDbEntity
  8
SEIHIN
  6
CONTINUOUS
 62
     3
100
AcDbPolyline
 90
        3
 70
   128
 43
0.0
 10
337.9683000762277
 20
403.3993358660496
 10
336.0732150991271
 20
404.4864202786483
 10
332.9682973940255
 20
406.2666769076459
  0
LINE
  5
66A8
330
1A
100
AcDbEntity
  8
SEIHIN
  6
CONTINUOUS
 62
     3
100
AcDbLine
 10
332.9682973940271
 20
404.2356188345459
 30
0.0
 11
337.96830007623
 21
400.3381232667496
 31
0.0
  0
LINE
  5
66A9
330
1A
100
AcDbEntity
  8
SEIHIN
  6
CONTINUOUS
 62
     3
100
AcDbLine
 10
337.090725990046
 20
378.3682311821489
 30
0.0
 11
332.9682997680436
 21
381.824158342046
 31
0.0
  0
LWPOLYLINE
  5
66AA
330
1A
100
AcDbEntity
  8
SEIHIN
  6
CONTINUOUS
 62
     3
100
AcDbPolyline
 90
        4
 70
   128
 43
0.0
 10
337.9683000762389
 20
388.1877089787496
 10
335.5259699542378
 20
389.6544377256477
 10
332.9682973940367
 20
391.1920289445459
 10
332.9634545166366
 20
391.1949458468459
  0
LINE
  5
66AB
330
1A
100
AcDbEntity
  8
SEIHIN
  6
CONTINUOUS
 62
     3
100
AcDbLine
 10
322.9682994801736
 20
477.4048576999385
 30
0.0
 11
463.0657783187735
 21
477.4048531360413
 31
0.0
  0
LINE
  5
66AC
330
1A
100
AcDbEntity
  8
CENTER_L
  6
CENTER
 48
10.0
100
AcDbLine
 10
284.0441992035207
 20
437.4363873344099
 30
0.0
 11
437.9821614623743
 21
437.4363873345228
 31
0.0
  0
LINE
  5
66AD
330
1A
100
AcDbEntity
  8
SEIHIN
  6
CONTINUOUS
 62
     3
100
AcDbLine
 10
327.9683021624253
 20
406.7490721989422
 30
0.0
 11
327.9682997680086
 21
429.6435959190421
 31
0.0
  0
LINE
  5
66AE
330
1A
100
AcDbEntity
  8
SEIHIN
  6
CONTINUOUS
 62
     3
100
AcDbLine
 10
332.9682997680432
 20
381.824158342046
 30
0.0
 11
332.9682997680061
 21
432.9501706710458
 31
0.0
  0
LINE
  5
66AF
330
1A
100
AcDbEntity
  8
SEIHIN
  6
CONTINUOUS
 62
     3
100
AcDbLine
 10
297.9682997679784
 20
470.7663861649201
 30
0.0
 11
297.9682997680275
 21
404.1063885039203
 31
0.0
  0
LINE
  5
66B0
330
1A
100
AcDbEntity
  8
SEIHIN
  6
CONTINUOUS
 62
     3
100
AcDbLine
 10
327.9682997680291
 20
401.7907359576422
 30
0.0
 11
327.9683021624271
 21
404.2356188345421
 31
0.0
  0
LINE
  5
66B1
330
1A
100
AcDbEntity
  8
SEIHIN
  6
CONTINUOUS
 62
     3
100
AcDbLine
 10
297.9682997680275
 20
404.1063885039203
 30
0.0
 11
297.96829976803
 21
400.4580707454203
 31
0.0
  0
LINE
  5
66B2
330
1A
100
AcDbEntity
  8
SEIHIN
  6
CONTINUOUS
 62
     3
100
AcDbLine
 10
327.968299768043
 20
382.9165767885422
 30
0.0
 11
327.9682997680368
 21
391.1708976747423
 31
0.0
  0
LINE
  5
66B3
330
1A
100
AcDbEntity
  8
SEIHIN
  6
CONTINUOUS
 62
     3
100
AcDbLine
 10
330.3799507935453
 20
379.701397095944
 30
0.0
 11
329.967188628445
 21
379.7514836240437
 31
0.0
  0
LINE
  5
66B4
330
1A
100
AcDbEntity
  8
SEIHIN
  6
CONTINUOUS
 62
     3
100
AcDbLine
 10
332.9682973940453
 20
379.5186455298459
 30
0.0
 11
333.4584454300459
 21
378.5942199518045
 31
0.0
  0
LINE
  5
66B5
330
1A
100
AcDbEntity
  8
SEIHIN
  6
CONTINUOUS
 62
     3
100
AcDbLine
 10
327.9683021624442
 20
381.0280437517422
 30
0.0
 11
327.968299768043
 21
382.9165767885422
 31
0.0
  0
LWPOLYLINE
  5
66B6
330
1A
100
AcDbEntity
  8
SEIHIN
  6
CONTINUOUS
 62
     3
100
AcDbPolyline
 90
        5
 70
   128
 43
0.0
 10
327.9683021624428
 20
382.9165759433422
 10
328.150871189343
 20
382.5896891701425
 10
328.6842508037433
 20
382.3006699729427
 10
329.4937712867434
 20
382.0902804780433
 10
330.3799507935435
 20
381.986747210044
  0
LWPOLYLINE
  5
66B7
330
1A
100
AcDbEntity
  8
SEIHIN
  6
CONTINUOUS
 62
     3
100
AcDbPolyline
 90
        5
 70
   128
 43
0.0
 10
329.967188628445
 20
379.7514836240437
 10
329.052816124645
 20
380.090336029643
 10
328.3813698013446
 20
380.4681363452425
 10
328.0129460413443
 20
380.8560731757423
 10
327.9683021624442
 20
381.0280437517422
  0
LINE
  5
66B8
330
1A
100
AcDbEntity
  8
SEIHIN
  6
CONTINUOUS
 62
     3
100
AcDbLine
 10
297.96829976803
 20
400.4580707454203
 30
0.0
 11
327.9683021624299
 21
400.4580701638422
 31
0.0
  0
LINE
  5
66B9
330
1A
100
AcDbEntity
  8
SEIHIN
  6
CONTINUOUS
 62
     3
100
AcDbLine
 10
327.968302162431
 20
399.0423778939421
 30
0.0
 11
297.9682997680311
 21
399.0423743837203
 31
0.0
  0
LINE
  5
66BA
330
1A
100
AcDbEntity
  8
SEIHIN
  6
CONTINUOUS
 62
     3
100
AcDbLine
 10
327.9683021624351
 20
393.4859733033423
 30
0.0
 11
297.9682997680352
 21
393.4859744626202
 31
0.0
  0
LINE
  5
66BB
330
1A
100
AcDbEntity
  8
SEIHIN
  6
CONTINUOUS
 62
     3
100
AcDbLine
 10
297.9682997680352
 20
393.4859744626202
 30
0.0
 11
297.9682997680347
 21
393.9553011172203
 31
0.0
  0
LINE
  5
66BC
330
1A
100
AcDbEntity
  8
SEIHIN
  6
CONTINUOUS
 62
     3
100
AcDbLine
 10
297.9682997680311
 20
399.0423743837203
 30
0.0
 11
297.96829976803
 21
400.4580707454203
 31
0.0
  0
LINE
  5
66BD
330
1A
100
AcDbEntity
  8
SEIHIN
  6
CONTINUOUS
 62
     3
100
AcDbLine
 10
297.9682997680311
 20
399.0423743837203
 30
0.0
 11
297.9682997680347
 21
393.9553011172203
 31
0.0
  0
LINE
  5
66BE
330
1A
100
AcDbEntity
  8
SEIHIN
  6
CONTINUOUS
 62
     3
100
AcDbLine
 10
327.9682997680366
 20
391.5568936239422
 30
0.0
 11
327.9682997680293
 21
401.3829061915421
 31
0.0
  0
LINE
  5
66BF
330
1A
100
AcDbEntity
  8
SEIHIN
  6
CONTINUOUS
 62
     3
100
AcDbLine
 10
327.9682997680368
 20
391.1708976747423
 30
0.0
 11
327.9682997680366
 21
391.5568936239422
 31
0.0
  0
LINE
  5
66C0
330
1A
100
AcDbEntity
  8
SEIHIN
  6
CONTINUOUS
 62
     3
100
AcDbLine
 10
332.9682997680368
 20
391.170897674746
 30
0.0
 11
327.9682997680368
 21
391.1708976747423
 31
0.0
  0
LINE
  5
66C1
330
1A
100
AcDbEntity
  8
SEIHIN
  6
CONTINUOUS
 62
     3
100
AcDbLine
 10
327.9682997680293
 20
401.3829061915421
 30
0.0
 11
327.9682997680291
 21
401.7907359576422
 31
0.0
  0
LINE
  5
66C2
330
1A
100
AcDbEntity
  8
SEIHIN
  6
CONTINUOUS
 62
     3
100
AcDbLine
 10
297.9682997680275
 20
404.1063885039203
 30
0.0
 11
327.9683021624271
 21
404.106388514142
 31
0.0
  0
LINE
  5
66C3
330
1A
100
AcDbEntity
  8
SEIHIN
  6
CONTINUOUS
 62
     3
100
AcDbLine
 10
327.9683021624271
 20
404.2356188345421
 30
0.0
 11
327.9683021624253
 21
406.7490721989422
 31
0.0
  0
LINE
  5
66C4
330
1A
100
AcDbEntity
  8
SEIHIN
  6
CONTINUOUS
 62
     3
100
AcDbLine
 10
332.9682973940271
 20
404.2356188345459
 30
0.0
 11
327.9683021624271
 21
404.2356188345421
 31
0.0
  0
LINE
  5
66C5
330
1A
100
AcDbEntity
  8
SEIHIN
  6
CONTINUOUS
 62
     3
100
AcDbLine
 10
332.9682997679981
 20
443.7835040043459
 30
0.0
 11
332.96829976798
 21
468.7351991984239
 31
0.0
  0
LINE
  5
66C6
330
1A
100
AcDbEntity
  8
SEIHIN
  6
CONTINUOUS
 62
     3
100
AcDbLine
 10
317.9682997679766
 20
473.3116449254154
 30
0.0
 11
317.9682997679947
 21
448.4789676452349
 31
0.0
  0
LINE
  5
66C7
330
1A
100
AcDbEntity
  8
SEIHIN
  6
CONTINUOUS
 62
     3
100
AcDbLine
 10
330.5555982310063
 20
432.615074043344
 30
0.0
 11
332.9682997680061
 21
432.9501706710458
 31
0.0
  0
LINE
  5
66C8
330
1A
100
AcDbEntity
  8
SEIHIN
  6
CONTINUOUS
 62
     3
100
AcDbLine
 10
335.1205391605058
 20
433.2490961004475
 30
0.0
 11
332.9682997680061
 21
432.9501706710458
 31
0.0
  0
ARC
  5
66C9
330
1A
100
AcDbEntity
  8
SEIHIN
  6
CONTINUOUS
 62
     3
100
AcDbCircle
 10
330.9682895292085
 20
429.6436080594444
 30
0.0
 40
2.999987366815414
100
AcDbArc
 50
97.90692981944024
 51
180.0002257972404
  0
LINE
  5
66CA
330
1A
100
AcDbEntity
  8
SEIHIN
  6
CONTINUOUS
 62
     3
100
AcDbLine
 10
332.9812763053985
 20
443.2768995810461
 30
0.0
 11
332.9814700204986
 21
443.344863777246
 31
0.0
  0
ARC
  5
66CB
330
1A
100
AcDbEntity
  8
SEIHIN
  6
CONTINUOUS
 62
     3
100
AcDbCircle
 10
332.4814748904985
 20
443.3463190749455
 30
0.0
 40
0.5000000000000072
100
AcDbArc
 50
359.8329563877435
 51
82.09283729704024
  0
LINE
  5
66CC
330
1A
100
AcDbEntity
  8
SEIHIN
  6
CONTINUOUS
 62
     3
100
AcDbLine
 10
332.9682997679981
 20
443.7835040043459
 30
0.0
 11
335.1238770205982
 21
443.4841151285475
 31
0.0
  0
ARC
  5
66CD
330
1A
100
AcDbEntity
  8
SEIHIN
  6
CONTINUOUS
 62
     3
100
AcDbCircle
 10
320.9682973207948
 20
448.478969092037
 30
0.0
 40
3.000000522815912
100
AcDbArc
 50
179.999992979843
 51
262.0928514037462
  0
LINE
  5
66CE
330
1A
100
AcDbEntity
  8
SEIHIN
  6
CONTINUOUS
 62
     3
100
AcDbLine
 10
332.9682997679981
 20
443.7835040043459
 30
0.0
 11
320.555592866597
 21
445.5074916530368
 31
0.0
  0
LINE
  5
66CF
330
1A
100
AcDbEntity
  8
SEIHIN
  6
CONTINUOUS
 62
     3
100
AcDbLine
 10
317.9682967979772
 20
472.2126672912349
 30
0.0
 11
297.9682997679775
 21
472.2126688969203
 31
0.0
  0
LINE
  5
66D0
330
1A
100
AcDbEntity
  8
SEIHIN
  6
CONTINUOUS
 62
     3
100
AcDbLine
 10
322.9682997679756
 20
474.6513868261386
 30
0.0
 11
297.9682997679756
 21
474.6513868261203
 31
0.0
  0
LINE
  5
66D1
330
1A
100
AcDbEntity
  8
SEIHIN
  6
CONTINUOUS
 62
     3
100
AcDbLine
 10
297.9682997679756
 20
474.6513868261203
 30
0.0
 11
297.9682997679775
 21
472.2126688969203
 31
0.0
  0
LINE
  5
66D2
330
1A
100
AcDbEntity
  8
SEIHIN
  6
CONTINUOUS
 62
     3
100
AcDbLine
 10
297.9682997679756
 20
474.6513868261203
 30
0.0
 11
297.9682997679743
 21
476.5513868261201
 31
0.0
  0
LINE
  5
66D3
330
1A
100
AcDbEntity
  8
SEIHIN
  6
CONTINUOUS
 62
     3
100
AcDbLine
 10
297.9682997679775
 20
472.2126688969203
 30
0.0
 11
297.9682997679784
 21
470.7663861649201
 31
0.0
  0
LINE
  5
66D4
330
1A
100
AcDbEntity
  8
SEIHIN
  6
CONTINUOUS
 62
     3
100
AcDbLine
 10
333.4568170625746
 20
475.8320103336463
 30
0.0
 11
332.9682973939753
 21
474.949891393246
 31
0.0
  0
LINE
  5
66D5
330
1A
100
AcDbEntity
  8
SEIHIN
  6
CONTINUOUS
 62
     3
100
AcDbLine
 10
333.4584487396746
 20
475.8349458623463
 30
0.0
 11
333.4584487396739
 21
476.8288533139462
 31
0.0
  0
LINE
  5
66D6
330
1A
100
AcDbEntity
  8
SEIHIN
  6
CONTINUOUS
 62
     3
100
AcDbLine
 10
322.9682997679743
 20
476.5513868261385
 30
0.0
 11
322.9682997679756
 21
474.6513868261386
 31
0.0
  0
LINE
  5
66D7
330
1A
100
AcDbEntity
  8
SEIHIN
  6
CONTINUOUS
 62
     3
100
AcDbLine
 10
326.9683001357753
 20
474.8544047523415
 30
0.0
 11
323.9649710971755
 21
474.7061680007393
 31
0.0
  0
LINE
  5
66D8
330
1A
100
AcDbEntity
  8
SEIHIN
  6
CONTINUOUS
 62
     3
100
AcDbLine
 10
326.9683001357753
 20
474.8544047523415
 30
0.0
 11
332.9682973939753
 21
474.949891393246
 31
0.0
  0
LINE
  5
66D9
330
1A
100
AcDbEntity
  8
SEIHIN
  6
CONTINUOUS
 62
     3
100
AcDbLine
 10
332.9682973939798
 20
468.6806748557459
 30
0.0
 11
332.9682973939769
 21
472.742940013446
 31
0.0
  0
LINE
  5
66DA
330
1A
100
AcDbEntity
  8
SEIHIN
  6
CONTINUOUS
 62
     3
100
AcDbLine
 10
307.9682997679738
 20
477.2275125219275
 30
0.0
 11
310.9682997679738
 21
477.2275125219297
 31
0.0
  0
LINE
  5
66DB
330
1A
100
AcDbEntity
  8
SEIHIN
  6
CONTINUOUS
 62
     3
100
AcDbLine
 10
332.9682973939769
 20
472.742940013446
 30
0.0
 11
320.3799528795771
 21
472.5425939012366
 31
0.0
  0
LINE
  5
66DC
330
1A
100
AcDbEntity
  8
SEIHIN
  6
CONTINUOUS
 62
     3
100
AcDbLine
 10
323.9649710971755
 20
474.7061680007393
 30
0.0
 11
320.379952879576
 21
473.9894817519365
 31
0.0
  0
LINE
  5
66DD
330
1A
100
AcDbEntity
  8
SEIHIN
100
AcDbLine
 10
387.5122370768729
 20
399.857614922654
 30
0.0
 11
391.2134920931862
 21
403.5588699390069
 31
0.0
  0
ARC
  5
66DE
330
1A
100
AcDbEntity
  8
SEIHIN
  6
CONTINUOUS
 62
     3
100
AcDbCircle
 10
389.8932937062678
 20
402.2375841972484
 30
0.0
 40
1.867811498036182
100
AcDbArc
 50
359.4235368231005
 51
45.02368273110231
  0
LINE
  5
66DF
330
1A
100
AcDbEntity
  8
SEIHIN
  6
CONTINUOUS
 62
     3
100
AcDbLine
 10
337.9683000762387
 20
388.4888092923496
 30
0.0
 11
337.9682997680391
 21
388.1877071285495
 31
0.0
  0
LINE
  5
66E0
330
1A
100
AcDbEntity
  8
SEIHIN
  6
CONTINUOUS
 62
     3
100
AcDbLine
 10
337.968300076235
 20
393.4859733033496
 30
0.0
 11
379.2632899985351
 21
393.4859744626798
 31
0.0
  0
LINE
  5
66E1
330
1A
100
AcDbEntity
  8
SEIHIN
  6
CONTINUOUS
 62
     3
100
AcDbLine
 10
386.2250977508299
 20
400.458070745485
 30
0.0
 11
337.96830007623
 21
400.4580701638496
 31
0.0
  0
LINE
  5
66E2
330
1A
100
AcDbEntity
  8
SEIHIN
  6
CONTINUOUS
 62
     3
100
AcDbLine
 10
337.96830007623
 20
400.3381232667496
 30
0.0
 11
337.96830007623
 21
400.4580701638496
 31
0.0
  0
ARC
  5
66E3
330
1A
100
AcDbEntity
  8
SEIHIN
  6
CONTINUOUS
 62
     3
100
AcDbCircle
 10
379.3546488319676
 20
391.7000272517485
 30
0.0
 40
1.788281912207588
100
AcDbArc
 50
357.0715554831012
 51
92.92833082029986
  0
LINE
  5
66E4
330
1A
100
AcDbEntity
  8
SEIHIN
  6
CONTINUOUS
 62
     3
100
AcDbLine
 10
389.8734142799272
 20
404.1063885141875
 30
0.0
 11
338.6250464041273
 21
404.1063885141499
 31
0.0
  0
ARC
  5
66E5
330
1A
100
AcDbEntity
  8
SEIHIN
  6
CONTINUOUS
 62
     3
100
AcDbCircle
 10
389.9027014976678
 20
402.2643615752486
 30
0.0
 40
1.842260516752611
100
AcDbArc
 50
44.64202407419262
 51
90.91091782190373
  0
LINE
  5
66E6
330
1A
100
AcDbEntity
  8
SEIHIN
100
AcDbLine
 10
459.2798558688803
 20
471.6252270193477
 30
0.0
 11
464.4814677936627
 21
476.8268456395372
 31
0.0
  0
LINE
  5
66E7
330
1A
100
AcDbEntity
  8
SEIHIN
  6
CONTINUOUS
 62
     3
100
AcDbLine
 10
335.7421560008054
 20
433.840225164948
 30
0.0
 11
335.7451064306988
 21
442.893038218048
 31
0.0
  0
LINE
  5
66E8
330
1A
100
AcDbEntity
  8
SEIHIN
  6
CONTINUOUS
 62
     3
100
AcDbLine
 10
457.8735940797774
 20
472.2126688970375
 30
0.0
 11
337.9683000761772
 21
472.2126672848673
 31
0.0
  0
LINE
  5
66E9
330
1A
100
AcDbEntity
  8
SEIHIN
  6
CONTINUOUS
 62
     3
100
AcDbLine
 10
337.9683000761738
 20
476.8288533139495
 30
0.0
 11
337.9683000761772
 21
472.3833302903496
 31
0.0
  0
ARC
  5
66EA
330
1A
100
AcDbEntity
  8
SEIHIN
  6
CONTINUOUS
 62
     3
100
AcDbCircle
 10
457.8632485257677
 20
470.2109723022484
 30
0.0
 40
2.001722450640547
100
AcDbArc
 50
44.95238358230083
 51
89.7040327422045
  0
ARC
  5
66EB
330
1A
100
AcDbEntity
  8
SEIHIN
  6
CONTINUOUS
 62
     3
100
AcDbCircle
 10
457.8656078907677
 20
470.2086330144484
 30
0.0
 40
2.001708250058646
100
AcDbArc
 50
0.295907464397025
 51
45.04748318999507
  0
LINE
  5
66EC
330
1A
100
AcDbEntity
  8
SEIHIN
  6
CONTINUOUS
 62
     3
100
AcDbLine
 10
470.206008980367
 20
486.5513868262465
 30
0.0
 11
297.968299767967
 21
486.5513868261202
 31
0.0
  0
LINE
  5
66ED
330
1A
100
AcDbEntity
  8
SEIHIN
  6
CONTINUOUS
 62
     3
100
AcDbLine
 10
469.7060089803688
 20
484.051386826246
 30
0.0
 11
324.9682997679688
 21
484.05138682614
 31
0.0
  0
LINE
  5
66EE
330
1A
100
AcDbEntity
  8
SEIHIN
  6
CONTINUOUS
 62
     3
100
AcDbLine
 10
297.968299767967
 20
486.5513868261202
 30
0.0
 11
297.9682997679684
 21
484.5513868261202
 31
0.0
  0
LINE
  5
66EF
330
1A
100
AcDbEntity
  8
SEIHIN
  6
CONTINUOUS
 62
     3
100
AcDbLine
 10
307.9682997679686
 20
484.3654833872276
 30
0.0
 11
307.9682997679693
 21
483.3654833872276
 31
0.0
  0
LINE
  5
66F0
330
1A
100
AcDbEntity
  8
SEIHIN
  6
CONTINUOUS
 62
     3
100
AcDbLine
 10
310.9682997679686
 20
484.3654833872299
 30
0.0
 11
307.9682997679686
 21
484.3654833872276
 31
0.0
  0
LINE
  5
66F1
330
1A
100
AcDbEntity
  8
SEIHIN
  6
CONTINUOUS
 62
     3
100
AcDbLine
 10
310.9682997679693
 20
483.3654833872298
 30
0.0
 11
310.9682997679686
 21
484.3654833872299
 31
0.0
  0
LINE
  5
66F2
330
1A
100
AcDbEntity
  8
SEIHIN
  6
CONTINUOUS
 62
     3
100
AcDbLine
 10
307.9682997679693
 20
483.3654833872276
 30
0.0
 11
307.96829976797
 21
482.5190536018276
 31
0.0
  0
LINE
  5
66F3
330
1A
100
AcDbEntity
  8
SEIHIN
  6
CONTINUOUS
 62
     3
100
AcDbLine
 10
310.96829976797
 20
482.5190536018298
 30
0.0
 11
310.9682997679693
 21
483.3654833872298
 31
0.0
  0
ARC
  5
66F4
330
1A
100
AcDbEntity
  8
SEIHIN
  6
CONTINUOUS
 62
     3
100
AcDbCircle
 10
324.9682997679702
 20
482.0513868261399
 30
0.0
 40
2.0
100
AcDbArc
 50
90.00000000003907
 51
180.0000000000423
  0
ARC
  5
66F5
330
1A
100
AcDbEntity
  8
SEIHIN
  6
CONTINUOUS
 62
     3
100
AcDbCircle
 10
470.2060089803676
 20
482.5513868262485
 30
0.0
 40
4.0
100
AcDbArc
 50
0.0
 51
90.0
  0
ARC
  5
66F6
330
1A
100
AcDbEntity
  8
SEIHIN
  6
CONTINUOUS
 62
     3
100
AcDbCircle
 10
469.7060089803676
 20
482.0513868262485
 30
0.0
 40
2.0
100
AcDbArc
 50
0.0
 51
90.0
  0
VIEWPORT
  5
22
330
17
100
AcDbEntity
 67
     1
  8
0
100
AcDbViewport
 10
313.6808219178082
 20
148.5
 30
0.0
 40
627.3616438356165
 41
297.0
 68
     2
 69
     1
1001
ACAD
1000
MVIEW
1002
{
1070
    16
1010
0.0
1020
0.0
1030
0.0
1010
0.0
1020
0.0
1030
1.0
1040
0.0
1040
297.0
1040
313.6808219178082
1040
148.5
1040
50.0
1040
0.0
1040
0.0
1070
     0
1070
   100
1070
     1
1070
     0
1070
     0
1070
     0
1070
     0
1070
     0
1040
0.0
1040
0.0
1040
0.0
1040
1.0
1040
1.0
1040
10.0
1040
10.0
1070
     0
1002
{
1002
}
1002
}
  0
VIEWPORT
  5
64
330
17
100
AcDbEntity
 67
     1
  8
VIEWPORT
100
AcDbViewport
 10
210.0
 20
148.5
 30
0.0
 40
420.0
 41
297.0
 68
     1
 69
     2
1001
ACAD
1000
MVIEW
1002
{
1070
    16
1010
0.0
1020
0.0
1030
0.0
1010
0.0
1020
0.0
1030
1.0
1040
0.0
1040
605.8799999999997
1040
420.0
1040
297.0
1040
50.0
1040
0.0
1040
0.0
1070
     0
1070
   100
1070
     1
1070
     0
1070
     0
1070
     0
1070
     0
1070
     0
1040
0.0
1040
0.0
1040
0.0
1040
10.0
1040
10.0
1040
0.0
1040
0.0
1070
     0
1002
{
1002
}
1002
}
  0
ENDSEC
  0
SECTION
  2
OBJECTS
  0
DICTIONARY
  5
C
330
0
100
AcDbDictionary
  3
ACAD_GROUP
350
D
  3
ACAD_LAYOUT
350
556
  3
ACAD_MLINESTYLE
350
E
  3
ACAD_PLOTSETTINGS
350
557
  3
ACAD_PLOTSTYLENAME
350
554
  3
ACDBHEADERROUNDTRIPXREC
350
67CD
  0
DICTIONARY
  5
62CC
330
2
100
AcDbDictionary
280
     1
  3
ACAD_LAYERFILTERS
360
62CD
  0
DICTIONARY
  5
6C6
330
1A
100
AcDbDictionary
280
     1
  3
ACAD_LAYOUTSELFREF
360
67EF
  0
DICTIONARY
  5
6C4
330
17
100
AcDbDictionary
280
     1
  3
ACAD_LAYOUTSELFREF
360
67EE
  0
DICTIONARY
  5
D
102
{ACAD_REACTORS
330
C
102
}
330
C
100
AcDbDictionary
  0
DICTIONARY
  5
556
102
{ACAD_REACTORS
330
C
102
}
330
C
100
AcDbDictionary
  0
DICTIONARY
  5
E
102
{ACAD_REACTORS
330
C
102
}
330
C
100
AcDbDictionary
  3
STANDARD
350
13
  0
DICTIONARY
  5
557
102
{ACAD_REACTORS
330
C
102
}
330
C
100
AcDbDictionary
  0
ACDBDICTIONARYWDFLT
  5
554
102
{ACAD_REACTORS
330
C
102
}
330
C
100
AcDbDictionary
281
     1
  3
Normal
350
555
100
AcDbDictionaryWithDefault
340
555
1001
ACAD
1000
TREAT_AS_HARD
1070
     0
1000
TREAT_AS_HARD
1070
     0
1000
TREAT_AS_HARD
1070
     0
1000
TREAT_AS_HARD
1070
     0
1000
TREAT_AS_HARD
1070
     0
1000
TREAT_AS_HARD
1070
     0
1000
TREAT_AS_HARD
1070
     0
1000
TREAT_AS_HARD
1070
     0
  0
DICTIONARY
  5
67CD
102
{ACAD_REACTORS
330
C
102
}
330
C
100
AcDbDictionary
  3
TSTACKALIGN
350
67CE
  3
TSTACKSIZE
350
67CF
  3
HYPERLINKBASE
350
67D0
  3
STYLESHEET
350
67D1
  3
LAYOUTDICT
350
67D2
  3
PLOTSETDICT
350
67D3
  3
PLOTSTYLNAMDICT
350
67D4
  3
LWETCUNION
350
67D5
  3
INSUNITS
350
67D6
  3
CEPSNTYPE
350
67D7
  3
FINGERPRINTGUID
350
67D8
  3
VERSIONGUID
350
67D9
  3
PSVPSCALE
350
67DA
  3
DIMSTYLEDATA
350
67DB
  3
PUCSORTHOREF
350
67DC
  3
PUCSORTHOVIEW
350
67DD
  3
PUCSBASE
350
67DE
  3
PUCSORGTOP
350
67DF
  3
PUCSORGBOTTOM
350
67E0
  3
PUCSORGLEFT
350
67E1
  3
PUCSORGRIGHT
350
67E2
  3
PUCSORGFRONT
350
67E3
  3
PUCSORGBACK
350
67E4
  3
UCSORTHOREF
350
67E5
  3
UCSORTHOVIEW
350
67E6
  3
UCSBASE
350
67E7
  3
UCSORGTOP
350
67E8
  3
UCSORGBOTTOM
350
67E9
  3
UCSORGLEFT
350
67EA
  3
UCSORGRIGHT
350
67EB
  3
UCSORGFRONT
350
67EC
  3
UCSORGBACK
350
67ED
  0
DICTIONARY
  5
62CD
102
{ACAD_REACTORS
330
62CC
102
}
330
62CC
100
AcDbDictionary
280
     1
  3
50
360
62CE
  0
XRECORD
  5
67EF
102
{ACAD_REACTORS
330
6C6
102
}
330
6C6
100
AcDbXrecord
340
1A
  0
XRECORD
  5
67EE
102
{ACAD_REACTORS
330
6C4
102
}
330
6C4
100
AcDbXrecord
340
17
  0
MLINESTYLE
  5
13
102
{ACAD_REACTORS
330
E
102
}
330
E
100
AcDbMlineStyle
  2
STANDARD
 70
     0
  3

 62
     0
 51
90.0
 52
90.0
 71
     2
 49
0.5
 62
   256
  6
BYLAYER
 49
-0.5
 62
   256
  6
BYLAYER
  0
ACDBPLACEHOLDER
  5
555
102
{ACAD_REACTORS
330
554
102
}
330
554
100
AcDbPlaceHolder
280
     0
  0
XRECORD
  5
67CE
102
{ACAD_REACTORS
330
67CD
102
}
330
67CD
100
AcDbXrecord
 90
        1
  0
XRECORD
  5
67CF
102
{ACAD_REACTORS
330
67CD
102
}
330
67CD
100
AcDbXrecord
 90
       70
  0
XRECORD
  5
67D0
102
{ACAD_REACTORS
330
67CD
102
}
330
67CD
100
AcDbXrecord
  1

  0
XRECORD
  5
67D1
102
{ACAD_REACTORS
330
67CD
102
}
330
67CD
100
AcDbXrecord
  1
systemprinter.ctb
  0
XRECORD
  5
67D2
102
{ACAD_REACTORS
330
67CD
102
}
330
67CD
100
AcDbXrecord
340
556
  0
XRECORD
  5
67D3
102
{ACAD_REACTORS
330
67CD
102
}
330
67CD
100
AcDbXrecord
340
557
  0
XRECORD
  5
67D4
102
{ACAD_REACTORS
330
67CD
102
}
330
67CD
100
AcDbXrecord
340
554
  0
XRECORD
  5
67D5
102
{ACAD_REACTORS
330
67CD
102
}
330
67CD
100
AcDbXrecord
 90
    10781
  0
XRECORD
  5
67D6
102
{ACAD_REACTORS
330
67CD
102
}
330
67CD
100
AcDbXrecord
 90
        0
  0
XRECORD
  5
67D7
102
{ACAD_REACTORS
330
67CD
102
}
330
67CD
100
AcDbXrecord
 90
        0
  0
XRECORD
  5
67D8
102
{ACAD_REACTORS
330
67CD
102
}
330
67CD
100
AcDbXrecord
  1
{B06877AA-F1AE-4EC1-AEA7-B60A7FDC8903}
  0
XRECORD
  5
67D9
102
{ACAD_REACTORS
330
67CD
102
}
330
67CD
100
AcDbXrecord
  1
{67C2BA30-EB1C-46B6-84FF-81A24F688DF2}
  0
XRECORD
  5
67DA
102
{ACAD_REACTORS
330
67CD
102
}
330
67CD
100
AcDbXrecord
 40
0.0
  0
XRECORD
  5
67DB
102
{ACAD_REACTORS
330
67CD
102
}
330
67CD
100
AcDbXrecord
1000
DSTYLE
1002
{
1070
   341
340
6D
1070
   343
340
6D
1070
   344
340
6D
1070
   371
 70
    -1
1070
   372
 70
    -1
1002
}
  0
XRECORD
  5
67DC
102
{ACAD_REACTORS
330
67CD
102
}
330
67CD
100
AcDbXrecord
340
0
  0
XRECORD
  5
67DD
102
{ACAD_REACTORS
330
67CD
102
}
330
67CD
100
AcDbXrecord
 70
     0
  0
XRECORD
  5
67DE
102
{ACAD_REACTORS
330
67CD
102
}
330
67CD
100
AcDbXrecord
340
0
  0
XRECORD
  5
67DF
102
{ACAD_REACTORS
330
67CD
102
}
330
67CD
100
AcDbXrecord
 10
0.0
 20
0.0
 30
0.0
  0
XRECORD
  5
67E0
102
{ACAD_REACTORS
330
67CD
102
}
330
67CD
100
AcDbXrecord
 10
0.0
 20
0.0
 30
0.0
  0
XRECORD
  5
67E1
102
{ACAD_REACTORS
330
67CD
102
}
330
67CD
100
AcDbXrecord
 10
0.0
 20
0.0
 30
0.0
  0
XRECORD
  5
67E2
102
{ACAD_REACTORS
330
67CD
102
}
330
67CD
100
AcDbXrecord
 10
0.0
 20
0.0
 30
0.0
  0
XRECORD
  5
67E3
102
{ACAD_REACTORS
330
67CD
102
}
330
67CD
100
AcDbXrecord
 10
0.0
 20
0.0
 30
0.0
  0
XRECORD
  5
67E4
102
{ACAD_REACTORS
330
67CD
102
}
330
67CD
100
AcDbXrecord
 10
0.0
 20
0.0
 30
0.0
  0
XRECORD
  5
67E5
102
{ACAD_REACTORS
330
67CD
102
}
330
67CD
100
AcDbXrecord
340
0
  0
XRECORD
  5
67E6
102
{ACAD_REACTORS
330
67CD
102
}
330
67CD
100
AcDbXrecord
 70
     0
  0
XRECORD
  5
67E7
102
{ACAD_REACTORS
330
67CD
102
}
330
67CD
100
AcDbXrecord
340
0
  0
XRECORD
  5
67E8
102
{ACAD_REACTORS
330
67CD
102
}
330
67CD
100
AcDbXrecord
 10
0.0
 20
0.0
 30
0.0
  0
XRECORD
  5
67E9
102
{ACAD_REACTORS
330
67CD
102
}
330
67CD
100
AcDbXrecord
 10
0.0
 20
0.0
 30
0.0
  0
XRECORD
  5
67EA
102
{ACAD_REACTORS
330
67CD
102
}
330
67CD
100
AcDbXrecord
 10
0.0
 20
0.0
 30
0.0
  0
XRECORD
  5
67EB
102
{ACAD_REACTORS
330
67CD
102
}
330
67CD
100
AcDbXrecord
 10
0.0
 20
0.0
 30
0.0
  0
XRECORD
  5
67EC
102
{ACAD_REACTORS
330
67CD
102
}
330
67CD
100
AcDbXrecord
 10
0.0
 20
0.0
 30
0.0
  0
XRECORD
  5
67ED
102
{ACAD_REACTORS
330
67CD
102
}
330
67CD
100
AcDbXrecord
 10
0.0
 20
0.0
 30
0.0
  0
XRECORD
  5
62CE
102
{ACAD_REACTORS
330
62CD
102
}
330
62CD
100
AcDbXrecord
  1
50
  1
*-50
  1
*
  1
*
 70
     0
  1
*
  1
*
  0
ENDSEC
  0
EOF
