  0
SECTION
  2
HEADER
  9
$ACADVER
  1
AC1014
  9
$ACADMAINTVER
 70
     9
  9
$DWGCODEPAGE
  3
ANSI_932
  9
$INSBASE
 10
0.0
 20
0.0
 30
0.0
  9
$EXTMIN
 10
-0.0628509518264764
 20
-0.0359585201003938
 30
-0.0000000110254197
  9
$EXTMAX
 10
797.7337197667602
 20
551.6078050814644
 30
0.0000000109780697
  9
$LIMMIN
 10
0.0
 20
0.0
  9
$LIMMAX
 10
840.0
 20
594.0
  9
$ORTHOMODE
 70
     1
  9
$REGENMODE
 70
     1
  9
$FILLMODE
 70
     1
  9
$QTEXTMODE
 70
     0
  9
$MIRRTEXT
 70
     1
  9
$DRAGMODE
 70
     2
  9
$LTSCALE
 40
2.0
  9
$OSMODE
 70
    37
  9
$ATTMODE
 70
     1
  9
$TEXTSIZE
 40
5.0
  9
$TRACEWID
 40
1.0
  9
$TEXTSTYLE
  7
STANDARD
  9
$CLAYER
  8
SUNPOU
  9
$CELTYPE
  6
BYLAYER
  9
$CECOLOR
 62
   256
  9
$CELTSCALE
 40
1.0
  9
$DELOBJ
 70
     1
  9
$DISPSILH
 70
     0
  9
$DIMSCALE
 40
1.0
  9
$DIMASZ
 40
7.0
  9
$DIMEXO
 40
6.0
  9
$DIMDLI
 40
14.0
  9
$DIMRND
 40
0.0
  9
$DIMDLE
 40
0.0
  9
$DIMEXE
 40
3.0
  9
$DIMTP
 40
0.0
  9
$DIMTM
 40
0.0
  9
$DIMTXT
 40
6.0
  9
$DIMCEN
 40
150.0
  9
$DIMTSZ
 40
0.0
  9
$DIMTOL
 70
     0
  9
$DIMLIM
 70
     0
  9
$DIMTIH
 70
     0
  9
$DIMTOH
 70
     0
  9
$DIMSE1
 70
     0
  9
$DIMSE2
 70
     0
  9
$DIMTAD
 70
     3
  9
$DIMZIN
 70
     0
  9
$DIMBLK
  1

  9
$DIMASO
 70
     1
  9
$DIMSHO
 70
     1
  9
$DIMPOST
  1

  9
$DIMAPOST
  1

  9
$DIMALT
 70
     0
  9
$DIMALTD
 70
     2
  9
$DIMALTF
 40
25.4
  9
$DIMLFAC
 40
1.0
  9
$DIMTOFL
 70
     1
  9
$DIMTVP
 40
0.0
  9
$DIMTIX
 70
     0
  9
$DIMSOXD
 70
     0
  9
$DIMSAH
 70
     1
  9
$DIMBLK1
  1
OPEN
  9
$DIMBLK2
  1
OPEN
  9
$DIMSTYLE
  2
STANDARD
  9
$DIMCLRD
 70
   256
  9
$DIMCLRE
 70
   256
  9
$DIMCLRT
 70
   256
  9
$DIMTFAC
 40
1.0
  9
$DIMGAP
 40
2.0
  9
$DIMJUST
 70
     0
  9
$DIMSD1
 70
     0
  9
$DIMSD2
 70
     0
  9
$DIMTOLJ
 70
     1
  9
$DIMTZIN
 70
     0
  9
$DIMALTZ
 70
     0
  9
$DIMALTTZ
 70
     0
  9
$DIMFIT
 70
     3
  9
$DIMUPT
 70
     0
  9
$DIMUNIT
 70
     2
  9
$DIMDEC
 70
     0
  9
$DIMTDEC
 70
     0
  9
$DIMALTU
 70
     2
  9
$DIMALTTD
 70
     2
  9
$DIMTXSTY
  7
STANDARD
  9
$DIMAUNIT
 70
     0
  9
$LUNITS
 70
     2
  9
$LUPREC
 70
     4
  9
$SKETCHINC
 40
1.0
  9
$FILLETRAD
 40
20.0
  9
$AUNITS
 70
     0
  9
$AUPREC
 70
     0
  9
$MENU
  1
.
  9
$ELEVATION
 40
0.0
  9
$PELEVATION
 40
0.0
  9
$THICKNESS
 40
0.0
  9
$LIMCHECK
 70
     0
  9
$BLIPMODE
 70
     0
  9
$CHAMFERA
 40
0.0
  9
$CHAMFERB
 40
0.0
  9
$CHAMFERC
 40
40.0
  9
$CHAMFERD
 40
0.0
  9
$SKPOLY
 70
     0
  9
$TDCREATE
 40
2451159.834708796
  9
$TDUPDATE
 40
2454522.440494166
  9
$TDINDWG
 40
0.3492504167
  9
$TDUSRTIMER
 40
0.3492504167
  9
$USRTIMER
 70
     1
  9
$ANGBASE
 50
0.0
  9
$ANGDIR
 70
     0
  9
$PDMODE
 70
     0
  9
$PDSIZE
 40
0.0
  9
$PLINEWID
 40
0.0
  9
$COORDS
 70
     2
  9
$SPLFRAME
 70
     0
  9
$SPLINETYPE
 70
     6
  9
$SPLINESEGS
 70
     8
  9
$ATTDIA
 70
     0
  9
$ATTREQ
 70
     1
  9
$HANDLING
 70
 10241
  9
$HANDSEED
  5
BE24
  9
$SURFTAB1
 70
     6
  9
$SURFTAB2
 70
     6
  9
$SURFTYPE
 70
     6
  9
$SURFU
 70
     6
  9
$SURFV
 70
     6
  9
$UCSNAME
  2

  9
$UCSORG
 10
0.0
 20
0.0
 30
0.0
  9
$UCSXDIR
 10
1.0
 20
0.0
 30
0.0
  9
$UCSYDIR
 10
0.0
 20
1.0
 30
0.0
  9
$PUCSNAME
  2

  9
$PUCSORG
 10
0.0
 20
0.0
 30
0.0
  9
$PUCSXDIR
 10
1.0
 20
0.0
 30
0.0
  9
$PUCSYDIR
 10
0.0
 20
1.0
 30
0.0
  9
$USERI1
 70
     0
  9
$USERI2
 70
     0
  9
$USERI3
 70
     0
  9
$USERI4
 70
     0
  9
$USERI5
 70
     0
  9
$USERR1
 40
0.0
  9
$USERR2
 40
0.0
  9
$USERR3
 40
0.0
  9
$USERR4
 40
0.0
  9
$USERR5
 40
0.0
  9
$WORLDVIEW
 70
     1
  9
$SHADEDGE
 70
     3
  9
$SHADEDIF
 70
    70
  9
$TILEMODE
 70
     1
  9
$MAXACTVP
 70
    16
  9
$PINSBASE
 10
0.0
 20
0.0
 30
0.0
  9
$PLIMCHECK
 70
     0
  9
$PEXTMIN
 10
0.0
 20
0.0
 30
0.0
  9
$PEXTMAX
 10
420.0
 20
297.0
 30
0.0
  9
$PLIMMIN
 10
0.0
 20
0.0
  9
$PLIMMAX
 10
420.0
 20
297.0
  9
$UNITMODE
 70
     0
  9
$VISRETAIN
 70
     0
  9
$PLINEGEN
 70
     0
  9
$PSLTSCALE
 70
     1
  9
$TREEDEPTH
 70
  3020
  9
$PICKSTYLE
 70
     1
  9
$CMLSTYLE
  2
STANDARD
  9
$CMLJUST
 70
     0
  9
$CMLSCALE
 40
1.0
  9
$PROXYGRAPHICS
 70
     1
  9
$MEASUREMENT
 70
     1
  0
ENDSEC
  0
SECTION
  2
CLASSES
  0
CLASS
  1
ACDBDICTIONARYWDFLT
  2
AcDbDictionaryWithDefault
  3
AutoCAD 2000
 90
        0
280
     0
281
     0
  0
CLASS
  1
ACDBPLACEHOLDER
  2
AcDbPlaceHolder
  3
AutoCAD 2000
 90
        0
280
     0
281
     0
  0
CLASS
  1
LAYOUT
  2
AcDbLayout
  3
AutoCAD 2000
 90
        0
280
     0
281
     0
  0
CLASS
  1
LONG_TRANSACTION
  2
AcDbLongTransaction
  3
AutoCAD 2000
 90
        0
280
     0
281
     0
  0
CLASS
  1
LWPOLYLINE
  2
AcDbPolyline
  3
AutoCAD 2000
 90
        0
280
     0
281
     1
  0
CLASS
  1
HATCH
  2
AcDbHatch
  3
AutoCAD 2000
 90
        0
280
     0
281
     1
  0
CLASS
  1
XRECORD
  2
AcDbXrecord
  3
AutoCAD 2000
 90
        0
280
     0
281
     0
  0
CLASS
  1
LONG_TRANSACTION
  2
AcDbLongTransaction
  3
AutoCAD 2000
 90
        0
280
     0
281
     0
  0
CLASS
  1
LWPOLYLINE
  2
AcDbPolyline
  3
AutoCAD 2000
 90
        0
280
     0
281
     1
  0
CLASS
  1
HATCH
  2
AcDbHatch
  3
AutoCAD 2000
 90
        0
280
     0
281
     1
  0
CLASS
  1
XRECORD
  2
AcDbXrecord
  3
AutoCAD 2000
 90
        0
280
     0
281
     0
  0
CLASS
  1
DICTIONARYVAR
  2
AcDbDictionaryVar
  3
AutoCAD 2000
 90
        0
280
     0
281
     0
  0
CLASS
  1
LONG_TRANSACTION
  2
AcDbLongTransaction
  3
AutoCAD 2000
 90
        0
280
     0
281
     0
  0
CLASS
  1
LWPOLYLINE
  2
AcDbPolyline
  3
AutoCAD 2000
 90
        0
280
     0
281
     1
  0
CLASS
  1
HATCH
  2
AcDbHatch
  3
AutoCAD 2000
 90
        0
280
     0
281
     1
  0
CLASS
  1
XRECORD
  2
AcDbXrecord
  3
AutoCAD 2000
 90
        0
280
     0
281
     0
  0
CLASS
  1
LONG_TRANSACTION
  2
AcDbLongTransaction
  3
AutoCAD 2000
 90
        0
280
     0
281
     0
  0
CLASS
  1
LWPOLYLINE
  2
AcDbPolyline
  3
AutoCAD 2000
 90
        0
280
     0
281
     1
  0
CLASS
  1
HATCH
  2
AcDbHatch
  3
AutoCAD 2000
 90
        0
280
     0
281
     1
  0
CLASS
  1
XRECORD
  2
AcDbXrecord
  3
AutoCAD 2000
 90
        0
280
     0
281
     0
  0
CLASS
  1
LONG_TRANSACTION
  2
AcDbLongTransaction
  3
AutoCAD 2000
 90
        0
280
     0
281
     0
  0
CLASS
  1
LWPOLYLINE
  2
AcDbPolyline
  3
AutoCAD 2000
 90
        0
280
     0
281
     1
  0
CLASS
  1
HATCH
  2
AcDbHatch
  3
AutoCAD 2000
 90
        0
280
     0
281
     1
  0
CLASS
  1
XRECORD
  2
AcDbXrecord
  3
AutoCAD 2000
 90
        0
280
     0
281
     0
  0
CLASS
  1
LONG_TRANSACTION
  2
AcDbLongTransaction
  3
AutoCAD 2000
 90
        0
280
     0
281
     0
  0
CLASS
  1
LWPOLYLINE
  2
AcDbPolyline
  3
AutoCAD 2000
 90
        0
280
     0
281
     1
  0
CLASS
  1
HATCH
  2
AcDbHatch
  3
AutoCAD 2000
 90
        0
280
     0
281
     1
  0
CLASS
  1
XRECORD
  2
AcDbXrecord
  3
AutoCAD 2000
 90
        0
280
     0
281
     0
  0
CLASS
  1
LONG_TRANSACTION
  2
AcDbLongTransaction
  3
AutoCAD 2000
 90
        0
280
     0
281
     0
  0
CLASS
  1
LWPOLYLINE
  2
AcDbPolyline
  3
AutoCAD 2000
 90
        0
280
     0
281
     1
  0
CLASS
  1
HATCH
  2
AcDbHatch
  3
AutoCAD 2000
 90
        0
280
     0
281
     1
  0
CLASS
  1
XRECORD
  2
AcDbXrecord
  3
AutoCAD 2000
 90
        0
280
     0
281
     0
  0
CLASS
  1
LONG_TRANSACTION
  2
AcDbLongTransaction
  3
AutoCAD 2000
 90
        0
280
     0
281
     0
  0
CLASS
  1
LWPOLYLINE
  2
AcDbPolyline
  3
AutoCAD 2000
 90
        0
280
     0
281
     1
  0
CLASS
  1
HATCH
  2
AcDbHatch
  3
AutoCAD 2000
 90
        0
280
     0
281
     1
  0
CLASS
  1
XRECORD
  2
AcDbXrecord
  3
AutoCAD 2000
 90
        0
280
     0
281
     0
  0
CLASS
  1
LONG_TRANSACTION
  2
AcDbLongTransaction
  3
AutoCAD 2000
 90
        0
280
     0
281
     0
  0
CLASS
  1
LWPOLYLINE
  2
AcDbPolyline
  3
AutoCAD 2000
 90
        0
280
     0
281
     1
  0
CLASS
  1
HATCH
  2
AcDbHatch
  3
AutoCAD 2000
 90
        0
280
     0
281
     1
  0
CLASS
  1
XRECORD
  2
AcDbXrecord
  3
AutoCAD 2000
 90
        0
280
     0
281
     0
  0
CLASS
  1
LONG_TRANSACTION
  2
AcDbLongTransaction
  3
AutoCAD 2000
 90
        0
280
     0
281
     0
  0
CLASS
  1
LWPOLYLINE
  2
AcDbPolyline
  3
AutoCAD 2000
 90
        0
280
     0
281
     1
  0
CLASS
  1
HATCH
  2
AcDbHatch
  3
AutoCAD 2000
 90
        0
280
     0
281
     1
  0
CLASS
  1
XRECORD
  2
AcDbXrecord
  3
AutoCAD 2000
 90
        0
280
     0
281
     0
  0
CLASS
  1
LONG_TRANSACTION
  2
AcDbLongTransaction
  3
AutoCAD 2000
 90
        0
280
     0
281
     0
  0
CLASS
  1
LWPOLYLINE
  2
AcDbPolyline
  3
AutoCAD 2000
 90
        0
280
     0
281
     1
  0
CLASS
  1
HATCH
  2
AcDbHatch
  3
AutoCAD 2000
 90
        0
280
     0
281
     1
  0
CLASS
  1
XRECORD
  2
AcDbXrecord
  3
AutoCAD 2000
 90
        0
280
     0
281
     0
  0
CLASS
  1
LONG_TRANSACTION
  2
AcDbLongTransaction
  3
AutoCAD 2000
 90
        0
280
     0
281
     0
  0
CLASS
  1
LWPOLYLINE
  2
AcDbPolyline
  3
AutoCAD 2000
 90
        0
280
     0
281
     1
  0
CLASS
  1
HATCH
  2
AcDbHatch
  3
AutoCAD 2000
 90
        0
280
     0
281
     1
  0
CLASS
  1
XRECORD
  2
AcDbXrecord
  3
AutoCAD 2000
 90
        0
280
     0
281
     0
  0
CLASS
  1
LONG_TRANSACTION
  2
AcDbLongTransaction
  3
AutoCAD 2000
 90
        0
280
     0
281
     0
  0
CLASS
  1
LWPOLYLINE
  2
AcDbPolyline
  3
AutoCAD 2000
 90
        0
280
     0
281
     1
  0
CLASS
  1
HATCH
  2
AcDbHatch
  3
AutoCAD 2000
 90
        0
280
     0
281
     1
  0
CLASS
  1
XRECORD
  2
AcDbXrecord
  3
AutoCAD 2000
 90
        0
280
     0
281
     0
  0
CLASS
  1
LONG_TRANSACTION
  2
AcDbLongTransaction
  3
AutoCAD 2000
 90
        0
280
     0
281
     0
  0
CLASS
  1
LWPOLYLINE
  2
AcDbPolyline
  3
AutoCAD 2000
 90
        0
280
     0
281
     1
  0
CLASS
  1
HATCH
  2
AcDbHatch
  3
AutoCAD 2000
 90
        0
280
     0
281
     1
  0
CLASS
  1
XRECORD
  2
AcDbXrecord
  3
AutoCAD 2000
 90
        0
280
     0
281
     0
  0
CLASS
  1
LONG_TRANSACTION
  2
AcDbLongTransaction
  3
AutoCAD 2000
 90
        0
280
     0
281
     0
  0
CLASS
  1
LWPOLYLINE
  2
AcDbPolyline
  3
AutoCAD 2000
 90
        0
280
     0
281
     1
  0
CLASS
  1
HATCH
  2
AcDbHatch
  3
AutoCAD 2000
 90
        0
280
     0
281
     1
  0
CLASS
  1
XRECORD
  2
AcDbXrecord
  3
AutoCAD 2000
 90
        0
280
     0
281
     0
  0
ENDSEC
  0
SECTION
  2
TABLES
  0
TABLE
  2
VPORT
  5
8
330
0
100
AcDbSymbolTable
 70
     4
  0
VPORT
  5
BDA6
330
8
100
AcDbSymbolTableRecord
100
AcDbViewportTableRecord
  2
*ACTIVE
 70
     0
 10
0.0
 20
0.0
 11
1.0
 21
1.0
 12
390.3509732802813
 22
272.5218331071024
 13
0.0
 23
0.0
 14
5.0
 24
5.0
 15
0.0
 25
0.0
 16
0.0
 26
0.0
 36
1.0
 17
0.0
 27
0.0
 37
0.0
 40
601.9167838194728
 41
1.570153061224489
 42
50.0
 43
0.0
 44
0.0
 50
0.0
 51
0.0
 71
     0
 72
   100
 73
     1
 74
     0
 75
     0
 76
     0
 77
     0
 78
     0
  0
ENDTAB
  0
TABLE
  2
LTYPE
  5
5
330
0
100
AcDbSymbolTable
 70
     4
  0
LTYPE
  5
14
330
5
100
AcDbSymbolTableRecord
100
AcDbLinetypeTableRecord
  2
BYBLOCK
 70
     0
  3

 72
    65
 73
     0
 40
0.0
  0
LTYPE
  5
15
330
5
100
AcDbSymbolTableRecord
100
AcDbLinetypeTableRecord
  2
BYLAYER
 70
     0
  3

 72
    65
 73
     0
 40
0.0
  0
LTYPE
  5
16
330
5
100
AcDbSymbolTableRecord
100
AcDbLinetypeTableRecord
  2
CONTINUOUS
 70
     0
  3
Solid line
 72
    65
 73
     0
 40
0.0
  0
LTYPE
  5
135
330
5
100
AcDbSymbolTableRecord
100
AcDbLinetypeTableRecord
  2
CENTER
 70
     0
  3
____ _ ____ _ ____ _ ____ _ ____ _ ____ _ ____ 
 72
    65
 73
     4
 40
2.0
 49
1.25
 74
     0
 49
-0.25
 74
     0
 49
0.25
 74
     0
 49
-0.25
 74
     0
  0
ENDTAB
  0
TABLE
  2
LAYER
  5
2
330
0
100
AcDbSymbolTable
 70
    10
  0
LAYER
  5
F
330
2
100
AcDbSymbolTableRecord
100
AcDbLayerTableRecord
  2
0
 70
     0
 62
     7
  6
CONTINUOUS
  0
LAYER
  5
62
330
2
100
AcDbSymbolTableRecord
100
AcDbLayerTableRecord
  2
VIEWPORT
 70
     0
 62
     7
  6
CONTINUOUS
  0
LAYER
  5
65
330
2
100
AcDbSymbolTableRecord
100
AcDbLayerTableRecord
  2
ZUWAKU
 70
     0
 62
     7
  6
CONTINUOUS
  0
LAYER
  5
144
330
2
100
AcDbSymbolTableRecord
100
AcDbLayerTableRecord
  2
SEIHIN
 70
     0
 62
     3
  6
CONTINUOUS
  0
LAYER
  5
2B4
330
2
100
AcDbSymbolTableRecord
100
AcDbLayerTableRecord
  2
SUNPOU
 70
     0
 62
     4
  6
CONTINUOUS
  0
LAYER
  5
2B5
330
2
100
AcDbSymbolTableRecord
100
AcDbLayerTableRecord
  2
CENTER_L
 70
     0
 62
     1
  6
CENTER
  0
LAYER
  5
43A
330
2
100
AcDbSymbolTableRecord
100
AcDbLayerTableRecord
  2
DEFPOINTS
 70
     0
 62
     7
  6
CONTINUOUS
  0
LAYER
  5
9077
330
2
100
AcDbSymbolTableRecord
100
AcDbLayerTableRecord
  2
MOJI
 70
     0
 62
     2
  6
CONTINUOUS
  0
ENDTAB
  0
TABLE
  2
STYLE
  5
3
330
0
100
AcDbSymbolTable
 70
     4
  0
STYLE
  5
10
330
3
100
AcDbSymbolTableRecord
100
AcDbTextStyleTableRecord
  2
STANDARD
 70
     0
 40
0.0
 41
1.0
 50
0.0
 71
     0
 42
5.0
  3
TXT
  4
A:\Program Files\AutoCAD LT\ms\bigfont.shx
  0
STYLE
  5
9078
330
3
100
AcDbSymbolTableRecord
100
AcDbTextStyleTableRecord
  2
ｽﾀｲﾙ1
 70
     0
 40
0.0
 41
1.0
 50
0.0
 71
     0
 42
2.5
  3
MS PGothic.ttf
  4

1001
ACAD
1000
MS PGothic
1071
    32818
  0
ENDTAB
  0
TABLE
  2
VIEW
  5
6
330
0
100
AcDbSymbolTable
 70
     0
  0
ENDTAB
  0
TABLE
  2
UCS
  5
7
330
0
100
AcDbSymbolTable
 70
     0
  0
ENDTAB
  0
TABLE
  2
APPID
  5
9
330
0
100
AcDbSymbolTable
 70
     1
  0
APPID
  5
11
330
9
100
AcDbSymbolTableRecord
100
AcDbRegAppTableRecord
  2
ACAD
 70
     0
  0
ENDTAB
  0
TABLE
  2
DIMSTYLE
  5
A
330
0
100
AcDbSymbolTable
 70
    19
  0
DIMSTYLE
105
1D
102
{ACAD_REACTORS
330
B81A
330
B83A
330
B859
330
8E0C
330
6CF3
330
B866
330
B873
330
6CE6
330
6CD9
330
B880
330
B88D
330
6F4A
330
6F21
330
6F14
330
BD3E
330
BD4B
330
BD58
330
69C8
330
69BB
330
69D8
102
}
330
A
100
AcDbSymbolTableRecord
100
AcDbDimStyleTableRecord
  2
STANDARD
 70
     0
  3

  4

  5

  6

  7

 40
1.0
 41
0.18
 42
0.0625
 43
0.38
 44
0.18
 45
0.0
 46
0.0
 47
0.0
 48
0.0
140
0.18
141
0.09
142
0.0
143
25.4
144
1.0
145
0.0
146
1.0
147
0.09
 71
     0
 72
     0
 73
     1
 74
     1
 75
     0
 76
     0
 77
     0
 78
     0
170
     0
171
     2
172
     0
173
     0
174
     0
175
     0
176
     0
177
     0
178
     0
270
     2
271
     4
272
     4
273
     2
274
     2
340
10
275
     0
280
     0
281
     0
282
     0
283
     1
284
     0
285
     0
286
     0
287
     3
288
     0
  0
ENDTAB
  0
TABLE
  2
BLOCK_RECORD
  5
1
330
0
100
AcDbSymbolTable
 70
   261
  0
BLOCK_RECORD
  5
1A
102
{ACAD_XDICTIONARY
360
6C6
102
}
330
1
100
AcDbSymbolTableRecord
100
AcDbBlockTableRecord
  2
*MODEL_SPACE
  0
BLOCK_RECORD
  5
17
102
{ACAD_XDICTIONARY
360
6C4
102
}
330
1
100
AcDbSymbolTableRecord
100
AcDbBlockTableRecord
  2
*PAPER_SPACE
  0
BLOCK_RECORD
  5
6D
330
1
100
AcDbSymbolTableRecord
100
AcDbBlockTableRecord
  2
_OPEN
  0
BLOCK_RECORD
  5
B81B
330
1
100
AcDbSymbolTableRecord
100
AcDbBlockTableRecord
  2
*D237
  0
BLOCK_RECORD
  5
B83B
330
1
100
AcDbSymbolTableRecord
100
AcDbBlockTableRecord
  2
*D238
  0
BLOCK_RECORD
  5
B85A
330
1
100
AcDbSymbolTableRecord
100
AcDbBlockTableRecord
  2
*D239
  0
BLOCK_RECORD
  5
B867
330
1
100
AcDbSymbolTableRecord
100
AcDbBlockTableRecord
  2
*D240
  0
BLOCK_RECORD
  5
B874
330
1
100
AcDbSymbolTableRecord
100
AcDbBlockTableRecord
  2
*D241
  0
BLOCK_RECORD
  5
B881
330
1
100
AcDbSymbolTableRecord
100
AcDbBlockTableRecord
  2
*D242
  0
BLOCK_RECORD
  5
B88E
330
1
100
AcDbSymbolTableRecord
100
AcDbBlockTableRecord
  2
*D243
  0
BLOCK_RECORD
  5
BD3F
330
1
100
AcDbSymbolTableRecord
100
AcDbBlockTableRecord
  2
*D258
  0
BLOCK_RECORD
  5
BD4C
330
1
100
AcDbSymbolTableRecord
100
AcDbBlockTableRecord
  2
*D259
  0
BLOCK_RECORD
  5
BD59
330
1
100
AcDbSymbolTableRecord
100
AcDbBlockTableRecord
  2
*D260
  0
ENDTAB
  0
ENDSEC
  0
SECTION
  2
BLOCKS
  0
BLOCK
  5
1B
330
1A
100
AcDbEntity
  8
0
100
AcDbBlockBegin
  2
*MODEL_SPACE
 70
     0
 10
0.0
 20
0.0
 30
0.0
  3
*MODEL_SPACE
  1

  0
ENDBLK
  5
1C
330
1A
100
AcDbEntity
  8
0
100
AcDbBlockEnd
  0
BLOCK
  5
18
330
17
100
AcDbEntity
 67
     1
  8
0
100
AcDbBlockBegin
  2
*PAPER_SPACE
 70
     0
 10
0.0
 20
0.0
 30
0.0
  3
*PAPER_SPACE
  1

  0
ENDBLK
  5
19
330
17
100
AcDbEntity
 67
     1
  8
0
100
AcDbBlockEnd
  0
BLOCK
  5
6E
330
6D
100
AcDbEntity
  8
0
100
AcDbBlockBegin
  2
_OPEN
 70
     0
 10
0.0
 20
0.0
 30
0.0
  3
_OPEN
  1

  0
LINE
  5
6F
330
6D
100
AcDbEntity
  8
0
  6
BYBLOCK
 62
     0
100
AcDbLine
 10
-1.0
 20
0.1666666666666666
 30
0.0
 11
0.0
 21
0.0
 31
0.0
  0
LINE
  5
70
330
6D
100
AcDbEntity
  8
0
  6
BYBLOCK
 62
     0
100
AcDbLine
 10
0.0
 20
0.0
 30
0.0
 11
-1.0
 21
-0.1666666666666666
 31
0.0
  0
LINE
  5
71
330
6D
100
AcDbEntity
  8
0
  6
BYBLOCK
 62
     0
100
AcDbLine
 10
0.0
 20
0.0
 30
0.0
 11
-1.0
 21
0.0
 31
0.0
  0
ENDBLK
  5
72
330
6D
100
AcDbEntity
  8
0
100
AcDbBlockEnd
  0
BLOCK
  5
B825
330
B81B
100
AcDbEntity
  8
0
100
AcDbBlockBegin
  2
*D237
 70
     1
 10
0.0
 20
0.0
 30
0.0
  3
*D237
  1

  0
LINE
  5
BDCA
330
B81B
100
AcDbEntity
  8
SUNPOU
100
AcDbLine
 10
436.5820727473093
 20
81.11043833524389
 30
0.0
 11
436.5820727473093
 21
56.71616600381231
 31
0.0
  0
LINE
  5
BDCB
330
B81B
100
AcDbEntity
  8
SUNPOU
100
AcDbLine
 10
508.6921220301925
 20
81.12917247876112
 30
0.0
 11
508.6921220301925
 21
56.71616600381231
 31
0.0
  0
LINE
  5
BDCC
330
B81B
100
AcDbEntity
  8
SUNPOU
100
AcDbLine
 10
443.5820727473092
 20
59.7161660038123
 30
0.0
 11
501.6921220301925
 21
59.7161660038123
 31
0.0
  0
INSERT
  5
BDCD
330
B81B
100
AcDbEntity
  8
SUNPOU
100
AcDbBlockReference
  2
_OPEN
 10
436.5820727473093
 20
59.7161660038123
 30
0.0
 41
7.0
 42
7.0
 43
7.0
 50
180.0
  0
INSERT
  5
BDCE
330
B81B
100
AcDbEntity
  8
SUNPOU
100
AcDbBlockReference
  2
_OPEN
 10
508.6921220301925
 20
59.7161660038123
 30
0.0
 41
7.0
 42
7.0
 43
7.0
  0
MTEXT
  5
BDCF
330
B81B
100
AcDbEntity
  8
SUNPOU
100
AcDbMText
 10
472.6370973887509
 20
64.7161660038123
 30
0.0
 40
6.0
 41
0.0
 71
     5
 72
     1
  1
\A1;72
  0
POINT
  5
BDD0
330
B81B
100
AcDbEntity
  8
DEFPOINTS
 62
     0
100
AcDbPoint
 10
436.5820727473093
 20
87.11043833524389
 30
0.0
  0
POINT
  5
BDD1
330
B81B
100
AcDbEntity
  8
DEFPOINTS
 62
     0
100
AcDbPoint
 10
508.6921220301925
 20
87.12917247876111
 30
0.0
  0
POINT
  5
BDD2
330
B81B
100
AcDbEntity
  8
DEFPOINTS
 62
     0
100
AcDbPoint
 10
508.6921220301925
 20
59.7161660038123
 30
0.0
  0
ENDBLK
  5
B826
330
B81B
100
AcDbEntity
  8
0
100
AcDbBlockEnd
  0
BLOCK
  5
B845
330
B83B
100
AcDbEntity
  8
0
100
AcDbBlockBegin
  2
*D238
 70
     1
 10
0.0
 20
0.0
 30
0.0
  3
*D238
  1

  0
LINE
  5
BDD3
330
B83B
100
AcDbEntity
  8
SUNPOU
100
AcDbLine
 10
376.3249827152622
 20
202.6359856269107
 30
0.0
 11
341.8683307570054
 21
202.6359856269107
 31
0.0
  0
LINE
  5
BDD4
330
B83B
100
AcDbEntity
  8
SUNPOU
100
AcDbLine
 10
466.3768170533398
 20
86.47120025781077
 30
0.0
 11
341.8683307570054
 21
86.47120025781083
 31
0.0
  0
LINE
  5
BDD5
330
B83B
100
AcDbEntity
  8
SUNPOU
100
AcDbLine
 10
344.8683307570054
 20
195.6359856269107
 30
0.0
 11
344.8683307570054
 21
93.47120025781082
 31
0.0
  0
INSERT
  5
BDD6
330
B83B
100
AcDbEntity
  8
SUNPOU
100
AcDbBlockReference
  2
_OPEN
 10
344.8683307570054
 20
202.6359856269107
 30
0.0
 41
7.0
 42
7.0
 43
7.0
 50
90.0
  0
INSERT
  5
BDD7
330
B83B
100
AcDbEntity
  8
SUNPOU
100
AcDbBlockReference
  2
_OPEN
 10
344.8683307570054
 20
86.47120025781083
 30
0.0
 41
7.0
 42
7.0
 43
7.0
 50
270.0
  0
MTEXT
  5
BDD8
330
B83B
100
AcDbEntity
  8
SUNPOU
100
AcDbMText
 10
339.8683307570054
 20
144.5535929423608
 30
0.0
 40
6.0
 41
0.0
 71
     5
 72
     1
  1
\A1;116
 11
0.0000000000000001
 21
1.0
 31
0.0
  0
POINT
  5
BDD9
330
B83B
100
AcDbEntity
  8
DEFPOINTS
 62
     0
100
AcDbPoint
 10
382.3249827152622
 20
202.6359856269107
 30
0.0
  0
POINT
  5
BDDA
330
B83B
100
AcDbEntity
  8
DEFPOINTS
 62
     0
100
AcDbPoint
 10
472.3768170533397
 20
86.47120025781077
 30
0.0
  0
POINT
  5
BDDB
330
B83B
100
AcDbEntity
  8
DEFPOINTS
 62
     0
100
AcDbPoint
 10
344.8683307570054
 20
86.47120025781083
 30
0.0
  0
ENDBLK
  5
B846
330
B83B
100
AcDbEntity
  8
0
100
AcDbBlockEnd
  0
BLOCK
  5
B864
330
B85A
100
AcDbEntity
  8
0
100
AcDbBlockBegin
  2
*D239
 70
     1
 10
0.0
 20
0.0
 30
0.0
  3
*D239
  1

  0
LINE
  5
BDDC
330
B85A
100
AcDbEntity
  8
SUNPOU
100
AcDbLine
 10
370.3249827152621
 20
202.6359856269107
 30
0.0
 11
358.386742838376
 21
202.6359856269107
 31
0.0
  0
LINE
  5
BDDD
330
B85A
100
AcDbEntity
  8
SUNPOU
100
AcDbLine
 10
384.2564803268398
 20
176.4712002578107
 30
0.0
 11
358.386742838376
 21
176.4712002578107
 31
0.0
  0
LINE
  5
BDDE
330
B85A
100
AcDbEntity
  8
SUNPOU
100
AcDbLine
 10
361.3867428383759
 20
195.6359856269107
 30
0.0
 11
361.3867428383759
 21
183.4712002578107
 31
0.0
  0
INSERT
  5
BDDF
330
B85A
100
AcDbEntity
  8
SUNPOU
100
AcDbBlockReference
  2
_OPEN
 10
361.3867428383759
 20
202.6359856269107
 30
0.0
 41
7.0
 42
7.0
 43
7.0
 50
90.0
  0
INSERT
  5
BDE0
330
B85A
100
AcDbEntity
  8
SUNPOU
100
AcDbBlockReference
  2
_OPEN
 10
361.3867428383759
 20
176.4712002578107
 30
0.0
 41
7.0
 42
7.0
 43
7.0
 50
270.0
  0
MTEXT
  5
BDE1
330
B85A
100
AcDbEntity
  8
SUNPOU
100
AcDbMText
 10
356.3867428383759
 20
189.5535929423608
 30
0.0
 40
6.0
 41
0.0
 71
     5
 72
     1
  1
\A1;26
 11
0.0000000000000001
 21
1.0
 31
0.0
  0
POINT
  5
BDE2
330
B85A
100
AcDbEntity
  8
DEFPOINTS
 62
     0
100
AcDbPoint
 10
376.3249827152622
 20
202.6359856269107
 30
0.0
  0
POINT
  5
BDE3
330
B85A
100
AcDbEntity
  8
DEFPOINTS
 62
     0
100
AcDbPoint
 10
390.2564803268398
 20
176.4712002578107
 30
0.0
  0
POINT
  5
BDE4
330
B85A
100
AcDbEntity
  8
DEFPOINTS
 62
     0
100
AcDbPoint
 10
361.3867428383759
 20
176.4712002578107
 30
0.0
  0
ENDBLK
  5
B865
330
B85A
100
AcDbEntity
  8
0
100
AcDbBlockEnd
  0
BLOCK
  5
B871
330
B867
100
AcDbEntity
  8
0
100
AcDbBlockBegin
  2
*D240
 70
     1
 10
0.0
 20
0.0
 30
0.0
  3
*D240
  1

  0
LINE
  5
BDE5
330
B867
100
AcDbEntity
  8
SUNPOU
100
AcDbLine
 10
384.57154945054
 20
204.9300469364108
 30
0.0
 11
384.57154945054
 21
237.9922526300413
 31
0.0
  0
LINE
  5
BDE6
330
B867
100
AcDbEntity
  8
SUNPOU
100
AcDbLine
 10
520.82181537564
 20
183.4712002578107
 30
0.0
 11
520.82181537564
 21
237.9922526300413
 31
0.0
  0
LINE
  5
BDE7
330
B867
100
AcDbEntity
  8
SUNPOU
100
AcDbLine
 10
391.5715494505399
 20
234.9922526300413
 30
0.0
 11
513.8218153756399
 21
234.9922526300413
 31
0.0
  0
INSERT
  5
BDE8
330
B867
100
AcDbEntity
  8
SUNPOU
100
AcDbBlockReference
  2
_OPEN
 10
384.57154945054
 20
234.9922526300413
 30
0.0
 41
7.0
 42
7.0
 43
7.0
 50
180.0
  0
INSERT
  5
BDE9
330
B867
100
AcDbEntity
  8
SUNPOU
100
AcDbBlockReference
  2
_OPEN
 10
520.82181537564
 20
234.9922526300413
 30
0.0
 41
7.0
 42
7.0
 43
7.0
  0
MTEXT
  5
BDEA
330
B867
100
AcDbEntity
  8
SUNPOU
100
AcDbMText
 10
452.69668241309
 20
239.9922526300413
 30
0.0
 40
6.0
 41
0.0
 71
     5
 72
     1
  1
\A1;136
  0
POINT
  5
BDEB
330
B867
100
AcDbEntity
  8
DEFPOINTS
 62
     0
100
AcDbPoint
 10
384.57154945054
 20
198.9300469364108
 30
0.0
  0
POINT
  5
BDEC
330
B867
100
AcDbEntity
  8
DEFPOINTS
 62
     0
100
AcDbPoint
 10
520.82181537564
 20
177.4712002578107
 30
0.0
  0
POINT
  5
BDED
330
B867
100
AcDbEntity
  8
DEFPOINTS
 62
     0
100
AcDbPoint
 10
520.82181537564
 20
234.9922526300413
 30
0.0
  0
ENDBLK
  5
B872
330
B867
100
AcDbEntity
  8
0
100
AcDbBlockEnd
  0
BLOCK
  5
B87E
330
B874
100
AcDbEntity
  8
0
100
AcDbBlockBegin
  2
*D241
 70
     1
 10
0.0
 20
0.0
 30
0.0
  3
*D241
  1

  0
LINE
  5
BDEE
330
B874
100
AcDbEntity
  8
SUNPOU
100
AcDbLine
 10
384.57154945054
 20
210.9300469364108
 30
0.0
 11
384.57154945054
 21
256.87477473082
 31
0.0
  0
LINE
  5
BDEF
330
B874
100
AcDbEntity
  8
SUNPOU
100
AcDbLine
 10
575.8218153756399
 20
208.4135212612108
 30
0.0
 11
575.8218153756399
 21
256.87477473082
 31
0.0
  0
LINE
  5
BDF0
330
B874
100
AcDbEntity
  8
SUNPOU
100
AcDbLine
 10
391.5715494505399
 20
253.87477473082
 30
0.0
 11
568.8218153756399
 21
253.87477473082
 31
0.0
  0
INSERT
  5
BDF1
330
B874
100
AcDbEntity
  8
SUNPOU
100
AcDbBlockReference
  2
_OPEN
 10
384.57154945054
 20
253.87477473082
 30
0.0
 41
7.0
 42
7.0
 43
7.0
 50
180.0
  0
INSERT
  5
BDF2
330
B874
100
AcDbEntity
  8
SUNPOU
100
AcDbBlockReference
  2
_OPEN
 10
575.8218153756399
 20
253.87477473082
 30
0.0
 41
7.0
 42
7.0
 43
7.0
  0
MTEXT
  5
BDF3
330
B874
100
AcDbEntity
  8
SUNPOU
100
AcDbMText
 10
480.1966824130899
 20
258.87477473082
 30
0.0
 40
6.0
 41
0.0
 71
     5
 72
     1
  1
\A1;191
  0
POINT
  5
BDF4
330
B874
100
AcDbEntity
  8
DEFPOINTS
 62
     0
100
AcDbPoint
 10
384.57154945054
 20
204.9300469364108
 30
0.0
  0
POINT
  5
BDF5
330
B874
100
AcDbEntity
  8
DEFPOINTS
 62
     0
100
AcDbPoint
 10
575.8218153756399
 20
202.4135212612108
 30
0.0
  0
POINT
  5
BDF6
330
B874
100
AcDbEntity
  8
DEFPOINTS
 62
     0
100
AcDbPoint
 10
575.8218153756399
 20
253.87477473082
 30
0.0
  0
ENDBLK
  5
B87F
330
B874
100
AcDbEntity
  8
0
100
AcDbBlockEnd
  0
BLOCK
  5
B88B
330
B881
100
AcDbEntity
  8
0
100
AcDbBlockBegin
  2
*D242
 70
     1
 10
0.0
 20
0.0
 30
0.0
  3
*D242
  1

  0
LINE
  5
BDF7
330
B881
100
AcDbEntity
  8
SUNPOU
100
AcDbLine
 10
524.82181537564
 20
179.4712002578107
 30
0.0
 11
598.7023479334234
 21
179.4712002578107
 31
0.0
  0
LINE
  5
BDF8
330
B881
100
AcDbEntity
  8
SUNPOU
100
AcDbLine
 10
524.82181537564
 20
155.4712002578107
 30
0.0
 11
598.7023479334234
 21
155.4712002578107
 31
0.0
  0
LINE
  5
BDF9
330
B881
100
AcDbEntity
  8
SUNPOU
100
AcDbLine
 10
595.7023479334234
 20
172.4712002578107
 30
0.0
 11
595.7023479334234
 21
162.4712002578107
 31
0.0
  0
INSERT
  5
BDFA
330
B881
100
AcDbEntity
  8
SUNPOU
100
AcDbBlockReference
  2
_OPEN
 10
595.7023479334234
 20
179.4712002578107
 30
0.0
 41
7.0
 42
7.0
 43
7.0
 50
90.0
  0
INSERT
  5
BDFB
330
B881
100
AcDbEntity
  8
SUNPOU
100
AcDbBlockReference
  2
_OPEN
 10
595.7023479334234
 20
155.4712002578107
 30
0.0
 41
7.0
 42
7.0
 43
7.0
 50
270.0
  0
MTEXT
  5
BDFC
330
B881
100
AcDbEntity
  8
SUNPOU
100
AcDbMText
 10
590.7023479334234
 20
167.4712002578108
 30
0.0
 40
6.0
 41
0.0
 71
     5
 72
     1
  1
\A1;24
 11
0.0000000000000001
 21
1.0
 31
0.0
  0
POINT
  5
BDFD
330
B881
100
AcDbEntity
  8
DEFPOINTS
 62
     0
100
AcDbPoint
 10
518.8218153756399
 20
179.4712002578107
 30
0.0
  0
POINT
  5
BDFE
330
B881
100
AcDbEntity
  8
DEFPOINTS
 62
     0
100
AcDbPoint
 10
518.8218153756399
 20
155.4712002578107
 30
0.0
  0
POINT
  5
BDFF
330
B881
100
AcDbEntity
  8
DEFPOINTS
 62
     0
100
AcDbPoint
 10
595.7023479334234
 20
155.4712002578107
 30
0.0
  0
ENDBLK
  5
B88C
330
B881
100
AcDbEntity
  8
0
100
AcDbBlockEnd
  0
BLOCK
  5
B898
330
B88E
100
AcDbEntity
  8
0
100
AcDbBlockBegin
  2
*D243
 70
     1
 10
0.0
 20
0.0
 30
0.0
  3
*D243
  1

  0
LINE
  5
BE00
330
B88E
100
AcDbEntity
  8
SUNPOU
100
AcDbLine
 10
524.82181537564
 20
179.4712002578107
 30
0.0
 11
613.6548152377145
 21
179.4712002578107
 31
0.0
  0
LINE
  5
BE01
330
B88E
100
AcDbEntity
  8
SUNPOU
100
AcDbLine
 10
478.3768170533398
 20
86.47120025781081
 30
0.0
 11
613.6548152377145
 21
86.47120025781076
 31
0.0
  0
LINE
  5
BE02
330
B88E
100
AcDbEntity
  8
SUNPOU
100
AcDbLine
 10
610.6548152377144
 20
172.4712002578107
 30
0.0
 11
610.6548152377144
 21
93.47120025781075
 31
0.0
  0
INSERT
  5
BE03
330
B88E
100
AcDbEntity
  8
SUNPOU
100
AcDbBlockReference
  2
_OPEN
 10
610.6548152377144
 20
179.4712002578107
 30
0.0
 41
7.0
 42
7.0
 43
7.0
 50
90.0
  0
INSERT
  5
BE04
330
B88E
100
AcDbEntity
  8
SUNPOU
100
AcDbBlockReference
  2
_OPEN
 10
610.6548152377144
 20
86.47120025781076
 30
0.0
 41
7.0
 42
7.0
 43
7.0
 50
270.0
  0
MTEXT
  5
BE05
330
B88E
100
AcDbEntity
  8
SUNPOU
100
AcDbMText
 10
605.6548152377144
 20
132.9712002578108
 30
0.0
 40
6.0
 41
0.0
 71
     5
 72
     1
  1
\A1;93
 11
0.0000000000000001
 21
1.0
 31
0.0
  0
POINT
  5
BE06
330
B88E
100
AcDbEntity
  8
DEFPOINTS
 62
     0
100
AcDbPoint
 10
518.8218153756399
 20
179.4712002578107
 30
0.0
  0
POINT
  5
BE07
330
B88E
100
AcDbEntity
  8
DEFPOINTS
 62
     0
100
AcDbPoint
 10
472.3768170533398
 20
86.47120025781081
 30
0.0
  0
POINT
  5
BE08
330
B88E
100
AcDbEntity
  8
DEFPOINTS
 62
     0
100
AcDbPoint
 10
610.6548152377144
 20
86.47120025781076
 30
0.0
  0
ENDBLK
  5
B899
330
B88E
100
AcDbEntity
  8
0
100
AcDbBlockEnd
  0
BLOCK
  5
BD49
330
BD3F
100
AcDbEntity
  8
0
100
AcDbBlockBegin
  2
*D258
 70
     1
 10
0.0
 20
0.0
 30
0.0
  3
*D258
  1

  0
LINE
  5
BE09
330
BD3F
100
AcDbEntity
  8
SUNPOU
100
AcDbLine
 10
561.4922654669398
 20
496.8677766588423
 30
0.0
 11
619.8395517978299
 21
496.8677766588423
 31
0.0
  0
LINE
  5
BE0A
330
BD3F
100
AcDbEntity
  8
SUNPOU
100
AcDbLine
 10
581.8218127513412
 20
360.6123413112425
 30
0.0
 11
619.8395517978299
 21
360.6123413112425
 31
0.0
  0
LINE
  5
BE0B
330
BD3F
100
AcDbEntity
  8
SUNPOU
100
AcDbLine
 10
616.8395517978299
 20
489.8677766588423
 30
0.0
 11
616.8395517978299
 21
367.6123413112425
 31
0.0
  0
INSERT
  5
BE0C
330
BD3F
100
AcDbEntity
  8
SUNPOU
100
AcDbBlockReference
  2
_OPEN
 10
616.8395517978299
 20
496.8677766588423
 30
0.0
 41
7.0
 42
7.0
 43
7.0
 50
90.0
  0
INSERT
  5
BE0D
330
BD3F
100
AcDbEntity
  8
SUNPOU
100
AcDbBlockReference
  2
_OPEN
 10
616.8395517978299
 20
360.6123413112425
 30
0.0
 41
7.0
 42
7.0
 43
7.0
 50
270.0
  0
MTEXT
  5
BE0E
330
BD3F
100
AcDbEntity
  8
SUNPOU
100
AcDbMText
 10
611.8395517978298
 20
428.7400589850425
 30
0.0
 40
6.0
 41
0.0
 71
     5
 72
     1
  1
\A1;136
 11
0.0000000000000001
 21
1.0
 31
0.0
  0
POINT
  5
BE0F
330
BD3F
100
AcDbEntity
  8
DEFPOINTS
 62
     0
100
AcDbPoint
 10
555.4922654669399
 20
496.8677766588423
 30
0.0
  0
POINT
  5
BE10
330
BD3F
100
AcDbEntity
  8
DEFPOINTS
 62
     0
100
AcDbPoint
 10
575.8218127513412
 20
360.6123413112425
 30
0.0
  0
POINT
  5
BE11
330
BD3F
100
AcDbEntity
  8
DEFPOINTS
 62
     0
100
AcDbPoint
 10
616.8395517978299
 20
360.6123413112425
 30
0.0
  0
ENDBLK
  5
BD4A
330
BD3F
100
AcDbEntity
  8
0
100
AcDbBlockEnd
  0
BLOCK
  5
BD56
330
BD4C
100
AcDbEntity
  8
0
100
AcDbBlockBegin
  2
*D259
 70
     1
 10
0.0
 20
0.0
 30
0.0
  3
*D259
  1

  0
LINE
  5
BE12
330
BD4C
100
AcDbEntity
  8
SUNPOU
100
AcDbLine
 10
561.4922654669398
 20
496.8677766588423
 30
0.0
 11
642.4974345389121
 21
496.8677766588422
 31
0.0
  0
LINE
  5
BE13
330
BD4C
100
AcDbEntity
  8
SUNPOU
100
AcDbLine
 10
511.0368120900408
 20
305.6123413112417
 30
0.0
 11
642.4974345389121
 21
305.6123413112416
 31
0.0
  0
LINE
  5
BE14
330
BD4C
100
AcDbEntity
  8
SUNPOU
100
AcDbLine
 10
639.4974345389121
 20
489.8677766588423
 30
0.0
 11
639.4974345389121
 21
312.6123413112417
 31
0.0
  0
INSERT
  5
BE15
330
BD4C
100
AcDbEntity
  8
SUNPOU
100
AcDbBlockReference
  2
_OPEN
 10
639.4974345389121
 20
496.8677766588423
 30
0.0
 41
7.0
 42
7.0
 43
7.0
 50
90.0
  0
INSERT
  5
BE16
330
BD4C
100
AcDbEntity
  8
SUNPOU
100
AcDbBlockReference
  2
_OPEN
 10
639.4974345389121
 20
305.6123413112417
 30
0.0
 41
7.0
 42
7.0
 43
7.0
 50
270.0
  0
MTEXT
  5
BE17
330
BD4C
100
AcDbEntity
  8
SUNPOU
100
AcDbMText
 10
634.4974345389119
 20
401.240058985042
 30
0.0
 40
6.0
 41
0.0
 71
     5
 72
     1
  1
\A1;191
 11
0.0000000000000001
 21
1.0
 31
0.0
  0
POINT
  5
BE18
330
BD4C
100
AcDbEntity
  8
DEFPOINTS
 62
     0
100
AcDbPoint
 10
555.4922654669399
 20
496.8677766588423
 30
0.0
  0
POINT
  5
BE19
330
BD4C
100
AcDbEntity
  8
DEFPOINTS
 62
     0
100
AcDbPoint
 10
505.0368120900408
 20
305.6123413112417
 30
0.0
  0
POINT
  5
BE1A
330
BD4C
100
AcDbEntity
  8
DEFPOINTS
 62
     0
100
AcDbPoint
 10
639.4974345389121
 20
305.6123413112417
 30
0.0
  0
ENDBLK
  5
BD57
330
BD4C
100
AcDbEntity
  8
0
100
AcDbBlockEnd
  0
BLOCK
  5
BD63
330
BD59
100
AcDbEntity
  8
0
100
AcDbBlockBegin
  2
*D260
 70
     1
 10
0.0
 20
0.0
 30
0.0
  3
*D260
  1

  0
LINE
  5
BE1B
330
BD59
100
AcDbEntity
  8
SUNPOU
100
AcDbLine
 10
517.0992971087022
 20
341.1024864563879
 30
0.0
 11
572.5280089185982
 21
341.1024864563879
 31
0.0
  0
LINE
  5
BE1C
330
BD59
100
AcDbEntity
  8
SUNPOU
100
AcDbLine
 10
517.0368120900408
 20
305.6123413112417
 30
0.0
 11
572.5280089185982
 21
305.6123413112417
 31
0.0
  0
LINE
  5
BE1D
330
BD59
100
AcDbEntity
  8
SUNPOU
100
AcDbLine
 10
569.5280089185983
 20
334.1024864563879
 30
0.0
 11
569.5280089185983
 21
312.6123413112417
 31
0.0
  0
INSERT
  5
BE1E
330
BD59
100
AcDbEntity
  8
SUNPOU
100
AcDbBlockReference
  2
_OPEN
 10
569.5280089185983
 20
341.1024864563879
 30
0.0
 41
7.0
 42
7.0
 43
7.0
 50
90.0
  0
INSERT
  5
BE1F
330
BD59
100
AcDbEntity
  8
SUNPOU
100
AcDbBlockReference
  2
_OPEN
 10
569.5280089185983
 20
305.6123413112417
 30
0.0
 41
7.0
 42
7.0
 43
7.0
 50
270.0
  0
MTEXT
  5
BE20
330
BD59
100
AcDbEntity
  8
SUNPOU
100
AcDbMText
 10
564.5280089185981
 20
323.3574138838148
 30
0.0
 40
6.0
 41
0.0
 71
     5
 72
     1
  1
\A1;\U+203B35
 11
0.0000000000000001
 21
1.0
 31
0.0
  0
POINT
  5
BE21
330
BD59
100
AcDbEntity
  8
DEFPOINTS
 62
     0
100
AcDbPoint
 10
511.099297108702
 20
341.1024864563879
 30
0.0
  0
POINT
  5
BE22
330
BD59
100
AcDbEntity
  8
DEFPOINTS
 62
     0
100
AcDbPoint
 10
511.0368120900408
 20
305.6123413112417
 30
0.0
  0
POINT
  5
BE23
330
BD59
100
AcDbEntity
  8
DEFPOINTS
 62
     0
100
AcDbPoint
 10
569.5280089185983
 20
305.6123413112417
 30
0.0
  0
ENDBLK
  5
BD64
330
BD59
100
AcDbEntity
  8
0
100
AcDbBlockEnd
  0
ENDSEC
  0
SECTION
  2
ENTITIES
  0
TEXT
  5
4F7
330
1A
100
AcDbEntity
  8
SUNPOU
 62
     4
100
AcDbText
 10
677.1849723834143
 20
36.94439020711241
 30
0.0
 40
6.0
  1
※　のきといの差込み寸法を示す
100
AcDbText
  0
LINE
  5
9133
330
1A
100
AcDbEntity
  8
ZUWAKU
100
AcDbLine
 10
208.646601303624
 20
15.19999986828872
 30
0.0
 11
447.4243639845474
 21
15.19999986828871
 31
0.0
  0
LINE
  5
9134
330
1A
100
AcDbEntity
  8
ZUWAKU
100
AcDbLine
 10
208.646601303624
 20
15.59999986828871
 30
0.0
 11
447.4243639845474
 21
15.59999986828872
 31
0.0
  0
LINE
  5
9135
330
1A
100
AcDbEntity
  8
ZUWAKU
100
AcDbLine
 10
208.646601303624
 20
15.39999986828871
 30
0.0
 11
447.4243639845474
 21
15.39999986828871
 31
0.0
  0
LINE
  5
9136
330
1A
100
AcDbEntity
  8
ZUWAKU
100
AcDbLine
 10
0.0000000135560185
 20
30.79999986828869
 30
0.0
 11
797.4000000135559
 21
30.79999986828869
 31
0.0
  0
LINE
  5
9137
330
1A
100
AcDbEntity
  8
ZUWAKU
100
AcDbLine
 10
0.0000000135560185
 20
30.59999986828869
 30
0.0
 11
797.4000000135559
 21
30.59999986828869
 31
0.0
  0
LINE
  5
9138
330
1A
100
AcDbEntity
  8
ZUWAKU
100
AcDbLine
 10
0.0000000135560185
 20
30.39999986828869
 30
0.0
 11
797.4000000135559
 21
30.39999986828869
 31
0.0
  0
LINE
  5
9139
330
1A
100
AcDbEntity
  8
ZUWAKU
100
AcDbLine
 10
0.0000000135560185
 20
30.19999986828868
 30
0.0
 11
797.4000000135559
 21
30.19999986828868
 31
0.0
  0
LINE
  5
913A
330
1A
100
AcDbEntity
  8
ZUWAKU
100
AcDbLine
 10
0.0000000135560185
 20
29.99999986828868
 30
0.0
 11
797.4000000135559
 21
29.99999986828868
 31
0.0
  0
LWPOLYLINE
  5
913B
330
1A
100
AcDbEntity
  8
ZUWAKU
100
AcDbPolyline
 90
        4
 70
     1
 43
0.0
 10
0.2000000135559503
 20
551.3999998682887
 10
0.2000000135559503
 20
0.1999998682887281
 10
797.4000000135559
 20
0.1999998682887511
 10
797.4000000135561
 20
551.3999998682887
  0
LWPOLYLINE
  5
913C
330
1A
100
AcDbEntity
  8
ZUWAKU
100
AcDbPolyline
 90
        4
 70
     1
 43
0.0
 10
0.6000000135559276
 20
550.9999998682888
 10
0.6000000135559276
 20
0.5999998682887054
 10
797.0000000135562
 20
0.5999998682887516
 10
797.000000013556
 20
550.9999998682888
  0
LWPOLYLINE
  5
913D
330
1A
100
AcDbEntity
  8
ZUWAKU
100
AcDbPolyline
 90
        4
 70
     1
 43
0.0
 10
0.0000000135560185
 20
551.5999998682887
 10
0.0000000135560185
 20
-0.0000001317113174
 10
797.6000000135561
 20
-0.0000001317112499
 10
797.6000000135561
 20
551.5999998682888
  0
LWPOLYLINE
  5
913E
330
1A
100
AcDbEntity
  8
ZUWAKU
100
AcDbPolyline
 90
        4
 70
     1
 43
0.0
 10
0.4000000135559958
 20
551.1999998682887
 10
0.4000000135559958
 20
0.3999998682887735
 10
797.200000013556
 20
0.3999998682887504
 10
797.200000013556
 20
551.1999998682887
  0
LWPOLYLINE
  5
913F
330
1A
100
AcDbEntity
  8
ZUWAKU
100
AcDbPolyline
 90
        4
 70
     1
 43
0.0
 10
0.800000013555973
 20
550.7999998682887
 10
0.800000013555973
 20
0.7999998682887508
 10
796.8000000135559
 20
0.7999998682887508
 10
796.8000000135559
 20
550.7999998682887
  0
TEXT
  5
9140
330
1A
100
AcDbEntity
  8
MOJI
100
AcDbText
 10
92.95778960172516
 20
12.74117799856344
 30
0.0
 40
6.0
  1
アートフェイスＶＭ１２０
 41
0.9
  7
ｽﾀｲﾙ1
100
AcDbText
  0
HATCH
  5
9141
330
1A
100
AcDbEntity
  8
ZUWAKU
100
AcDbHatch
 10
0.0
 20
0.0
 30
0.0
210
0.0
220
0.0
230
1.0
  2
ANSI37
 70
     0
 71
     0
 91
        8
 92
        7
 72
     1
 73
     1
 93
       24
 10
14.50226267467587
 20
17.64484834927226
 42
-0.1989123673796348
 10
14.09221216833714
 20
18.63479784293331
 42
0.0
 10
14.09221216833714
 20
19.92499986828869
 42
-0.4142135623730912
 10
14.61721216833711
 20
20.44999986828868
 42
0.0
 10
17.59221216833702
 20
20.44999986828868
 42
0.4142135623731546
 10
18.11721216833712
 20
20.97499986828867
 42
0.0
 10
18.11721216833712
 20
22.72499986828869
 42
0.4142135623731586
 10
17.59221216833702
 20
23.24999986828868
 42
0.0
 10
14.09221216833714
 20
23.24999986828868
 42
0.4142135623730928
 10
11.29221216833718
 20
20.44999986828871
 42
0.0
 10
11.29221216833718
 20
18.63479784293344
 42
0.1989123673796619
 10
12.52236368735361
 20
15.66494936194983
 42
0.0
 10
15.43216166199829
 20
12.75515138730518
 42
-0.1989123673796613
 10
15.84221216833714
 20
11.76520189364399
 42
0.0
 10
15.84221216833714
 20
10.47499986828867
 42
-0.4142135623730911
 10
15.31721216833716
 20
9.949999868288685
 42
0.0
 10
12.34221216833725
 20
9.949999868288685
 42
0.4142135623731526
 10
11.81721216833716
 20
9.424999868288697
 42
0.0
 10
11.81721216833716
 20
7.674999868288676
 42
0.4142135623731526
 10
12.34221216833725
 20
7.149999868288688
 42
0.0
 10
15.84221216833714
 20
7.149999868288688
 42
0.4142135623731044
 10
18.64221216833721
 20
9.949999868288664
 42
0.0
 10
18.64221216833721
 20
11.76520189364393
 42
0.1989123673796604
 10
17.41206064932066
 20
14.73505037462747
 42
0.0
 97
        0
 92
        7
 72
     1
 73
     1
 93
       16
 10
23.54221216833718
 20
19.04999986828869
 42
-0.4142135623730935
 10
24.94221216833716
 20
20.44999986828868
 42
0.0
 10
26.86721216833712
 20
20.44999986828868
 42
0.4142135623731546
 10
27.39221216833721
 20
20.97499986828867
 42
0.0
 10
27.39221216833721
 20
22.72499986828869
 42
0.4142135623730951
 10
26.86721216833723
 20
23.24999986828868
 42
0.0
 10
24.94221216833705
 20
23.24999986828864
 42
0.4142135623730892
 10
20.74221216833711
 20
19.04999986828862
 42
0.0
 10
20.74221216833711
 20
11.34999986828871
 42
0.4142135623730969
 10
24.94221216833716
 20
7.149999868288688
 42
0.0
 10
26.86721216833712
 20
7.149999868288688
 42
0.4142135623731526
 10
27.39221216833721
 20
7.674999868288676
 42
0.0
 10
27.39221216833721
 20
9.424999868288697
 42
0.4142135623730891
 10
26.86721216833723
 20
9.949999868288685
 42
0.0
 10
24.94221216833716
 20
9.949999868288685
 42
-0.4142135623730928
 10
23.54221216833718
 20
11.34999986828867
 42
0.0
 97
        0
 92
        7
 72
     1
 73
     1
 93
        2
 10
24.24221216833712
 20
15.19999986828868
 42
1.0
 10
27.74221216833712
 20
15.19999986828868
 42
1.0
 97
        0
 92
        7
 72
     1
 73
     1
 93
       26
 10
37.31485865051513
 20
19.20504706185211
 42
0.0
 10
38.37649828365295
 20
22.5669059001217
 42
0.5069206636600134
 10
37.87586738445759
 20
23.24999986828868
 42
0.0
 10
36.17697800484836
 20
23.24999986828868
 42
0.3272098845218764
 10
35.676347105653
 20
22.88309383645565
 42
0.0
 10
33.80807723102122
 20
16.96690590012176
 42
-0.3272098845219541
 10
33.30744633182575
 20
16.59999986828868
 42
0.0
 10
33.1672121683373
 20
16.59999986828868
 42
-0.4142135623731526
 10
32.64221216833721
 20
17.12499986828867
 42
0.0
 10
32.64221216833721
 20
22.72499986828869
 42
0.4142135623730951
 10
32.11721216833723
 20
23.24999986828868
 42
0.0
 10
30.36721216833711
 20
23.24999986828868
 42
0.4142135623730871
 10
29.84221216833714
 20
22.7249998682887
 42
0.0
 10
29.84221216833714
 20
7.674999868288676
 42
0.4142135623730891
 10
30.36721216833711
 20
7.149999868288688
 42
0.0
 10
32.11721216833712
 20
7.149999868288688
 42
0.4142135623731526
 10
32.64221216833721
 20
7.674999868288676
 42
0.0
 10
32.64221216833721
 20
13.27499986828869
 42
-0.4142135623731526
 10
33.1672121683373
 20
13.79999986828868
 42
0.0
 10
33.30744633182587
 20
13.79999986828868
 42
-0.3272098845218915
 10
33.80807723102122
 20
13.43309383645561
 42
0.0
 10
35.676347105653
 20
7.516905900121759
 42
0.3272098845218902
 10
36.17697800484836
 20
7.149999868288688
 42
0.0
 10
37.87586738445759
 20
7.149999868288688
 42
0.5069206636600335
 10
38.37649828365295
 20
7.833093836455695
 42
0.0
 10
36.05010690517929
 20
15.19999986828882
 42
0.0
 97
        0
 92
        7
 72
     1
 73
     1
 93
        8
 10
43.49221216833711
 20
22.7249998682887
 42
0.4142135623731546
 10
42.96721216833702
 20
23.24999986828868
 42
0.0
 10
41.21721216833726
 20
23.24999986828868
 42
0.4142135623731507
 10
40.69221216833716
 20
22.7249998682887
 42
0.0
 10
40.69221216833716
 20
7.674999868288676
 42
0.4142135623731526
 10
41.21721216833726
 20
7.149999868288688
 42
0.0
 10
42.96721216833702
 20
7.149999868288688
 42
0.4142135623731526
 10
43.49221216833711
 20
7.674999868288676
 42
0.0
 97
        0
 92
        7
 72
     1
 73
     1
 93
       24
 10
48.3922121683372
 20
19.92499986828869
 42
-0.4142135623731546
 10
48.9172121683373
 20
20.44999986828868
 42
0.0
 10
51.89221216833721
 20
20.44999986828868
 42
0.4142135623730911
 10
52.41721216833719
 20
20.97499986828867
 42
0.0
 10
52.41721216833719
 20
22.72499986828869
 42
0.4142135623730952
 10
51.89221216833721
 20
23.24999986828868
 42
0.0
 10
48.3922121683372
 20
23.24999986828868
 42
0.4142135623731048
 10
45.59221216833714
 20
20.44999986828871
 42
0.0
 10
45.59221216833714
 20
18.63479784293344
 42
0.1989123673796613
 10
46.82236368735368
 20
15.66494936194989
 42
0.0
 10
49.73216166199836
 20
12.75515138730522
 42
-0.1989123673796402
 10
50.14221216833721
 20
11.76520189364415
 42
0.0
 10
50.14221216833721
 20
10.47499986828867
 42
-0.4142135623730911
 10
49.61721216833723
 20
9.949999868288685
 42
0.0
 10
46.64221216833721
 20
9.949999868288685
 42
0.4142135623731526
 10
46.11721216833712
 20
9.424999868288697
 42
0.0
 10
46.11721216833712
 20
7.674999868288676
 42
0.4142135623730891
 10
46.64221216833709
 20
7.149999868288688
 42
0.0
 10
50.14221216833721
 20
7.149999868288688
 42
0.4142135623730925
 10
52.94221216833716
 20
9.949999868288664
 42
0.0
 10
52.94221216833716
 20
11.76520189364393
 42
0.1989123673796675
 10
51.71206064932062
 20
14.73505037462759
 42
0.0
 10
48.80226267467605
 20
17.6448483492721
 42
-0.1989123673796652
 10
48.3922121683372
 20
18.63479784293327
 42
0.0
 97
        0
 92
        7
 72
     1
 73
     1
 93
       16
 10
57.84221216833714
 20
22.72499986828867
 42
0.414213562373103
 10
57.31721216833716
 20
23.24999986828868
 42
0.0
 10
55.56721216833716
 20
23.24999986828868
 42
0.4142135623730871
 10
55.04221216833719
 20
22.7249998682887
 42
0.0
 10
55.04221216833719
 20
9.949999868288664
 42
0.4142135623730926
 10
57.84221216833714
 20
7.149999868288688
 42
0.0
 10
61.34221216833714
 20
7.149999868288688
 42
0.4142135623731044
 10
64.14221216833721
 20
9.949999868288664
 42
0.0
 10
64.14221216833721
 20
22.72499986828869
 42
0.4142135623730951
 10
63.61721216833723
 20
23.24999986828868
 42
0.0
 10
61.86721216833712
 20
23.24999986828868
 42
0.4142135623730871
 10
61.34221216833714
 20
22.7249998682887
 42
0.0
 10
61.34221216833714
 20
10.99999986828866
 42
-0.414213562373088
 10
60.29221216833718
 20
9.949999868288685
 42
0.0
 10
58.89221216833721
 20
9.949999868288685
 42
-0.4142135623731197
 10
57.84221216833714
 20
10.99999986828866
 42
0.0
 97
        0
 92
        7
 72
     1
 73
     1
 93
        8
 10
69.04221216833718
 20
22.7249998682887
 42
0.4142135623730871
 10
68.51721216833721
 20
23.24999986828868
 42
0.0
 10
66.76721216833721
 20
23.24999986828868
 42
0.4142135623731507
 10
66.24221216833712
 20
22.7249998682887
 42
0.0
 10
66.24221216833712
 20
7.674999868288676
 42
0.4142135623730891
 10
66.76721216833709
 20
7.149999868288688
 42
0.0
 10
68.51721216833721
 20
7.149999868288688
 42
0.4142135623730891
 10
69.04221216833718
 20
7.674999868288676
 42
0.0
 97
        0
 75
     0
 76
     1
 52
0.0
 41
0.2
 77
     0
 78
     2
 53
45.0
 43
-900.942304321123
 44
-13.20000013171124
 45
-0.4490128060534576
 46
0.4490128060534577
 79
     0
 53
135.0
 43
-900.942304321123
 44
-13.20000013171124
 45
-0.4490128060534577
 46
-0.4490128060534576
 79
     0
 47
0.057451373970553
 98
        8
 10
16.07985497657932
 20
15.16717351417423
 10
22.40451501999519
 20
18.84406205073969
 10
25.16436789921567
 20
15.5118815143594
 10
30.91405999519315
 20
16.20129751473018
 10
41.83847203251275
 20
16.6609097822718
 10
46.89820090868557
 20
19.41857618469589
 10
56.55768598595637
 20
18.72915778338369
 10
67.82707963317875
 20
19.18877005092531
  0
LINE
  5
9142
330
1A
100
AcDbEntity
  8
ZUWAKU
100
AcDbLine
 10
24.94221216833716
 20
23.24999986828864
 30
0.0
 11
26.86721216833712
 21
23.24999986828868
 31
0.0
  0
LINE
  5
9143
330
1A
100
AcDbEntity
  8
ZUWAKU
100
AcDbLine
 10
26.86721216833712
 20
20.44999986828868
 30
0.0
 11
24.94221216833716
 21
20.44999986828868
 31
0.0
  0
LINE
  5
9144
330
1A
100
AcDbEntity
  8
ZUWAKU
100
AcDbLine
 10
24.94221216833716
 20
9.949999868288685
 30
0.0
 11
26.86721216833712
 21
9.949999868288685
 31
0.0
  0
LINE
  5
9145
330
1A
100
AcDbEntity
  8
ZUWAKU
100
AcDbLine
 10
26.86721216833712
 20
7.149999868288688
 30
0.0
 11
24.94221216833716
 21
7.149999868288688
 31
0.0
  0
CIRCLE
  5
9146
330
1A
100
AcDbEntity
  8
ZUWAKU
100
AcDbCircle
 10
25.99221216833711
 20
15.19999986828868
 30
0.0
 40
1.75
  0
ARC
  5
9147
330
1A
100
AcDbEntity
  8
ZUWAKU
100
AcDbCircle
 10
15.49221216833712
 20
18.63479784293338
 30
0.0
 40
1.399999999999999
100
AcDbArc
 50
180.0000000000016
 51
224.9999999999988
  0
LINE
  5
9148
330
1A
100
AcDbEntity
  8
ZUWAKU
100
AcDbLine
 10
23.54221216833718
 20
19.04999986828868
 30
0.0
 11
23.54221216833718
 21
11.34999986828869
 31
0.0
  0
LINE
  5
9149
330
1A
100
AcDbEntity
  8
ZUWAKU
100
AcDbLine
 10
20.74221216833711
 20
11.34999986828869
 30
0.0
 11
20.74221216833711
 21
19.04999986828864
 31
0.0
  0
ARC
  5
914A
330
1A
100
AcDbEntity
  8
ZUWAKU
100
AcDbCircle
 10
15.49221216833712
 20
18.63479784293338
 30
0.0
 40
4.199999999999999
100
AcDbArc
 50
180.0
 51
225.0
  0
ARC
  5
914B
330
1A
100
AcDbEntity
  8
ZUWAKU
100
AcDbCircle
 10
15.84221216833714
 20
9.949999868288685
 30
0.0
 40
2.799999999999999
100
AcDbArc
 50
270.0
 51
0.0
  0
ARC
  5
914C
330
1A
100
AcDbEntity
  8
ZUWAKU
100
AcDbCircle
 10
24.94221216833716
 20
11.34999986828869
 30
0.0
 40
4.199999999999999
100
AcDbArc
 50
180.0
 51
270.0
  0
ARC
  5
914D
330
1A
100
AcDbEntity
  8
ZUWAKU
100
AcDbCircle
 10
14.44221216833716
 20
11.76520189364399
 30
0.0
 40
4.199999999999999
100
AcDbArc
 50
0.0
 51
45.0
  0
LINE
  5
914E
330
1A
100
AcDbEntity
  8
ZUWAKU
100
AcDbLine
 10
17.41206064932066
 20
14.73505037462751
 30
0.0
 11
14.50226267467598
 21
17.64484834927218
 31
0.0
  0
LINE
  5
914F
330
1A
100
AcDbEntity
  8
ZUWAKU
100
AcDbLine
 10
15.84221216833714
 20
10.47499986828869
 30
0.0
 11
15.84221216833714
 21
11.76520189364403
 31
0.0
  0
ARC
  5
9150
330
1A
100
AcDbEntity
  8
ZUWAKU
100
AcDbCircle
 10
15.31721216833716
 20
10.47499986828869
 30
0.0
 40
0.525
100
AcDbArc
 50
270.0
 51
0.0
  0
ARC
  5
9151
330
1A
100
AcDbEntity
  8
ZUWAKU
100
AcDbCircle
 10
14.44221216833716
 20
11.76520189364403
 30
0.0
 40
1.399999999999999
100
AcDbArc
 50
0.0
 51
45.0
  0
LINE
  5
9152
330
1A
100
AcDbEntity
  8
ZUWAKU
100
AcDbLine
 10
11.81721216833716
 20
7.674999868288686
 30
0.0
 11
11.81721216833716
 21
9.424999868288686
 31
0.0
  0
ARC
  5
9153
330
1A
100
AcDbEntity
  8
ZUWAKU
100
AcDbCircle
 10
12.34221216833714
 20
7.674999868288686
 30
0.0
 40
0.525
100
AcDbArc
 50
180.0
 51
270.0
  0
ARC
  5
9154
330
1A
100
AcDbEntity
  8
ZUWAKU
100
AcDbCircle
 10
12.34221216833714
 20
9.424999868288686
 30
0.0
 40
0.525
100
AcDbArc
 50
90.0
 51
180.0
  0
LINE
  5
9155
330
1A
100
AcDbEntity
  8
ZUWAKU
100
AcDbLine
 10
12.34221216833714
 20
7.149999868288688
 30
0.0
 11
15.84221216833714
 21
7.149999868288688
 31
0.0
  0
LINE
  5
9156
330
1A
100
AcDbEntity
  8
ZUWAKU
100
AcDbLine
 10
12.34221216833714
 20
9.949999868288685
 30
0.0
 11
15.31721216833716
 21
9.949999868288685
 31
0.0
  0
LINE
  5
9157
330
1A
100
AcDbEntity
  8
ZUWAKU
100
AcDbLine
 10
12.52236368735361
 20
15.66494936194986
 30
0.0
 11
15.43216166199829
 21
12.7551513873052
 31
0.0
  0
LINE
  5
9158
330
1A
100
AcDbEntity
  8
ZUWAKU
100
AcDbLine
 10
18.64221216833721
 20
9.949999868288685
 30
0.0
 11
18.64221216833721
 21
11.76520189364403
 31
0.0
  0
ARC
  5
9159
330
1A
100
AcDbEntity
  8
ZUWAKU
100
AcDbCircle
 10
24.94221216833716
 20
11.34999986828869
 30
0.0
 40
1.399999999999999
100
AcDbArc
 50
180.0
 51
270.0
  0
ARC
  5
915A
330
1A
100
AcDbEntity
  8
ZUWAKU
100
AcDbCircle
 10
17.59221216833714
 20
22.72499986828868
 30
0.0
 40
0.525
100
AcDbArc
 50
0.0
 51
90.0
  0
ARC
  5
915B
330
1A
100
AcDbEntity
  8
ZUWAKU
100
AcDbCircle
 10
17.59221216833714
 20
20.97499986828868
 30
0.0
 40
0.525
100
AcDbArc
 50
270.0
 51
0.0
  0
LINE
  5
915C
330
1A
100
AcDbEntity
  8
ZUWAKU
100
AcDbLine
 10
14.09221216833714
 20
23.24999986828868
 30
0.0
 11
17.59221216833714
 21
23.24999986828868
 31
0.0
  0
ARC
  5
915D
330
1A
100
AcDbEntity
  8
ZUWAKU
100
AcDbCircle
 10
14.61721216833711
 20
19.92499986828868
 30
0.0
 40
0.525
100
AcDbArc
 50
90.0
 51
180.0
  0
LINE
  5
915E
330
1A
100
AcDbEntity
  8
ZUWAKU
100
AcDbLine
 10
14.09221216833714
 20
19.92499986828868
 30
0.0
 11
14.09221216833714
 21
18.63479784293334
 31
0.0
  0
LINE
  5
915F
330
1A
100
AcDbEntity
  8
ZUWAKU
100
AcDbLine
 10
17.59221216833714
 20
20.44999986828868
 30
0.0
 11
14.61721216833711
 21
20.44999986828868
 31
0.0
  0
LINE
  5
9160
330
1A
100
AcDbEntity
  8
ZUWAKU
100
AcDbLine
 10
11.29221216833718
 20
20.44999986828868
 30
0.0
 11
11.29221216833718
 21
18.63479784293334
 31
0.0
  0
ARC
  5
9161
330
1A
100
AcDbEntity
  8
ZUWAKU
100
AcDbCircle
 10
14.09221216833714
 20
20.44999986828868
 30
0.0
 40
2.799999999999999
100
AcDbArc
 50
90.0
 51
180.0
  0
LINE
  5
9162
330
1A
100
AcDbEntity
  8
ZUWAKU
100
AcDbLine
 10
18.11721216833712
 20
22.72499986828868
 30
0.0
 11
18.11721216833712
 21
20.97499986828868
 31
0.0
  0
ARC
  5
9163
330
1A
100
AcDbEntity
  8
ZUWAKU
100
AcDbCircle
 10
24.94221216833716
 20
19.04999986828868
 30
0.0
 40
1.399999999999999
100
AcDbArc
 50
90.0
 51
180.0
  0
ARC
  5
9164
330
1A
100
AcDbEntity
  8
ZUWAKU
100
AcDbCircle
 10
24.94221216833716
 20
19.04999986828864
 30
0.0
 40
4.199999999999999
100
AcDbArc
 50
90.0
 51
180.0
  0
LINE
  5
9165
330
1A
100
AcDbEntity
  8
ZUWAKU
100
AcDbLine
 10
79.32662956154422
 20
29.99999986828868
 30
0.0
 11
79.32662956154445
 21
0.7999998682887508
 31
0.0
  0
LINE
  5
9166
330
1A
100
AcDbEntity
  8
ZUWAKU
100
AcDbLine
 10
79.52662956154426
 20
29.99999986828868
 30
0.0
 11
79.52662956154449
 21
0.7999998682887508
 31
0.0
  0
LINE
  5
9167
330
1A
100
AcDbEntity
  8
ZUWAKU
100
AcDbLine
 10
79.12662956154441
 20
29.99999986828868
 30
0.0
 11
79.12662956154441
 21
0.7999998682887508
 31
0.0
  0
LINE
  5
9168
330
1A
100
AcDbEntity
  8
ZUWAKU
100
AcDbLine
 10
64.14221216833721
 20
9.949999868288685
 30
0.0
 11
64.14221216833721
 21
22.72499986828868
 31
0.0
  0
LINE
  5
9169
330
1A
100
AcDbEntity
  8
ZUWAKU
100
AcDbLine
 10
61.34221216833714
 20
22.72499986828868
 30
0.0
 11
61.34221216833714
 21
10.99999986828868
 31
0.0
  0
LINE
  5
916A
330
1A
100
AcDbEntity
  8
ZUWAKU
100
AcDbLine
 10
69.04221216833718
 20
7.674999868288686
 30
0.0
 11
69.04221216833718
 21
22.72499986828868
 31
0.0
  0
LINE
  5
916B
330
1A
100
AcDbEntity
  8
ZUWAKU
100
AcDbLine
 10
66.24221216833712
 20
22.72499986828868
 30
0.0
 11
66.24221216833712
 21
7.674999868288686
 31
0.0
  0
ARC
  5
916C
330
1A
100
AcDbEntity
  8
ZUWAKU
100
AcDbCircle
 10
49.79221216833718
 20
18.63479784293338
 30
0.0
 40
1.399999999999999
100
AcDbArc
 50
180.0000000000016
 51
224.9999999999988
  0
ARC
  5
916D
330
1A
100
AcDbEntity
  8
ZUWAKU
100
AcDbCircle
 10
49.79221216833718
 20
18.63479784293338
 30
0.0
 40
4.199999999999999
100
AcDbArc
 50
180.0
 51
225.0
  0
LINE
  5
916E
330
1A
100
AcDbEntity
  8
ZUWAKU
100
AcDbLine
 10
37.31485865051513
 20
19.20504706185211
 30
0.0
 11
36.05010690517929
 21
15.1999998682887
 31
0.0
  0
LINE
  5
916F
330
1A
100
AcDbEntity
  8
ZUWAKU
100
AcDbLine
 10
40.69221216833716
 20
22.72499986828868
 30
0.0
 11
40.69221216833716
 21
7.674999868288686
 31
0.0
  0
LINE
  5
9170
330
1A
100
AcDbEntity
  8
ZUWAKU
100
AcDbLine
 10
43.49221216833711
 20
7.674999868288686
 30
0.0
 11
43.49221216833711
 21
22.72499986828868
 31
0.0
  0
LINE
  5
9171
330
1A
100
AcDbEntity
  8
ZUWAKU
100
AcDbLine
 10
55.04221216833719
 20
22.72499986828868
 30
0.0
 11
55.04221216833719
 21
9.949999868288685
 31
0.0
  0
LINE
  5
9172
330
1A
100
AcDbEntity
  8
ZUWAKU
100
AcDbLine
 10
57.84221216833714
 20
10.99999986828868
 30
0.0
 11
57.84221216833714
 21
22.72499986828868
 31
0.0
  0
LINE
  5
9173
330
1A
100
AcDbEntity
  8
ZUWAKU
100
AcDbLine
 10
32.64221216833721
 20
17.12499986828869
 30
0.0
 11
32.64221216833721
 21
22.72499986828868
 31
0.0
  0
LINE
  5
9174
330
1A
100
AcDbEntity
  8
ZUWAKU
100
AcDbLine
 10
29.84221216833714
 20
22.72499986828868
 30
0.0
 11
29.84221216833714
 21
7.674999868288686
 31
0.0
  0
LINE
  5
9175
330
1A
100
AcDbEntity
  8
ZUWAKU
100
AcDbLine
 10
35.676347105653
 20
22.88309383645565
 30
0.0
 11
33.80807723102122
 21
16.96690590012171
 31
0.0
  0
LINE
  5
9176
330
1A
100
AcDbEntity
  8
ZUWAKU
100
AcDbLine
 10
60.29221216833718
 20
9.949999868288685
 30
0.0
 11
58.89221216833721
 21
9.949999868288685
 31
0.0
  0
LINE
  5
9177
330
1A
100
AcDbEntity
  8
ZUWAKU
100
AcDbLine
 10
57.84221216833714
 20
7.149999868288688
 30
0.0
 11
61.34221216833714
 21
7.149999868288688
 31
0.0
  0
LINE
  5
9178
330
1A
100
AcDbEntity
  8
ZUWAKU
100
AcDbLine
 10
41.21721216833714
 20
7.149999868288688
 30
0.0
 11
42.96721216833714
 21
7.149999868288688
 31
0.0
  0
LINE
  5
9179
330
1A
100
AcDbEntity
  8
ZUWAKU
100
AcDbLine
 10
35.676347105653
 20
7.516905900121713
 30
0.0
 11
33.80807723102122
 21
13.43309383645565
 31
0.0
  0
ARC
  5
917A
330
1A
100
AcDbEntity
  8
ZUWAKU
100
AcDbCircle
 10
33.30744633182587
 20
17.12499986828869
 30
0.0
 40
0.525
100
AcDbArc
 50
270.0
 51
342.4744316262769
  0
LINE
  5
917B
330
1A
100
AcDbEntity
  8
ZUWAKU
100
AcDbLine
 10
33.30744633182587
 20
16.59999986828868
 30
0.0
 11
33.16721216833718
 21
16.59999986828868
 31
0.0
  0
LINE
  5
917C
330
1A
100
AcDbEntity
  8
ZUWAKU
100
AcDbLine
 10
33.16721216833718
 20
13.79999986828868
 30
0.0
 11
33.30744633182587
 21
13.79999986828868
 31
0.0
  0
ARC
  5
917D
330
1A
100
AcDbEntity
  8
ZUWAKU
100
AcDbCircle
 10
33.16721216833718
 20
17.12499986828869
 30
0.0
 40
0.525
100
AcDbArc
 50
180.0
 51
270.0
  0
LINE
  5
917E
330
1A
100
AcDbEntity
  8
ZUWAKU
100
AcDbLine
 10
30.36721216833711
 20
7.149999868288688
 30
0.0
 11
32.11721216833712
 21
7.149999868288688
 31
0.0
  0
ARC
  5
917F
330
1A
100
AcDbEntity
  8
ZUWAKU
100
AcDbCircle
 10
32.11721216833712
 20
7.674999868288686
 30
0.0
 40
0.525
100
AcDbArc
 50
270.0
 51
0.0
  0
LINE
  5
9180
330
1A
100
AcDbEntity
  8
ZUWAKU
100
AcDbLine
 10
32.64221216833721
 20
7.674999868288686
 30
0.0
 11
32.64221216833721
 21
13.27499986828868
 31
0.0
  0
LINE
  5
9181
330
1A
100
AcDbEntity
  8
ZUWAKU
100
AcDbLine
 10
27.39221216833721
 20
9.424999868288686
 30
0.0
 11
27.39221216833721
 21
7.674999868288686
 31
0.0
  0
ARC
  5
9182
330
1A
100
AcDbEntity
  8
ZUWAKU
100
AcDbCircle
 10
26.86721216833712
 20
7.674999868288686
 30
0.0
 40
0.525
100
AcDbArc
 50
270.0
 51
0.0
  0
ARC
  5
9183
330
1A
100
AcDbEntity
  8
ZUWAKU
100
AcDbCircle
 10
26.86721216833712
 20
9.424999868288686
 30
0.0
 40
0.525
100
AcDbArc
 50
0.0
 51
90.0
  0
ARC
  5
9184
330
1A
100
AcDbEntity
  8
ZUWAKU
100
AcDbCircle
 10
30.36721216833711
 20
7.674999868288686
 30
0.0
 40
0.525
100
AcDbArc
 50
180.0
 51
270.0
  0
ARC
  5
9185
330
1A
100
AcDbEntity
  8
ZUWAKU
100
AcDbCircle
 10
33.30744633182587
 20
13.27499986828868
 30
0.0
 40
0.525
100
AcDbArc
 50
17.52556837372303
 51
90.0
  0
ARC
  5
9186
330
1A
100
AcDbEntity
  8
ZUWAKU
100
AcDbCircle
 10
33.16721216833718
 20
13.27499986828868
 30
0.0
 40
0.525
100
AcDbArc
 50
90.0
 51
180.0
  0
ARC
  5
9187
330
1A
100
AcDbEntity
  8
ZUWAKU
100
AcDbCircle
 10
41.21721216833714
 20
7.674999868288686
 30
0.0
 40
0.525
100
AcDbArc
 50
180.0
 51
270.0
  0
LINE
  5
9188
330
1A
100
AcDbEntity
  8
ZUWAKU
100
AcDbLine
 10
36.17697800484847
 20
7.149999868288688
 30
0.0
 11
37.87586738445748
 21
7.149999868288688
 31
0.0
  0
ARC
  5
9189
330
1A
100
AcDbEntity
  8
ZUWAKU
100
AcDbCircle
 10
37.87586738445748
 20
7.674999868288686
 30
0.0
 40
0.525
100
AcDbArc
 50
270.0
 51
17.52556837372303
  0
LINE
  5
918A
330
1A
100
AcDbEntity
  8
ZUWAKU
100
AcDbLine
 10
38.37649828365295
 20
7.83309383645566
 30
0.0
 11
36.05010690517929
 21
15.1999998682887
 31
0.0
  0
ARC
  5
918B
330
1A
100
AcDbEntity
  8
ZUWAKU
100
AcDbCircle
 10
36.17697800484847
 20
7.674999868288686
 30
0.0
 40
0.525
100
AcDbArc
 50
197.525568373723
 51
270.0
  0
ARC
  5
918C
330
1A
100
AcDbEntity
  8
ZUWAKU
100
AcDbCircle
 10
57.84221216833714
 20
9.949999868288685
 30
0.0
 40
2.799999999999999
100
AcDbArc
 50
180.0
 51
270.0
  0
ARC
  5
918D
330
1A
100
AcDbEntity
  8
ZUWAKU
100
AcDbCircle
 10
50.14221216833721
 20
9.949999868288685
 30
0.0
 40
2.799999999999999
100
AcDbArc
 50
270.0
 51
0.0
  0
LINE
  5
918E
330
1A
100
AcDbEntity
  8
ZUWAKU
100
AcDbLine
 10
51.71206064932073
 20
14.73505037462751
 30
0.0
 11
48.80226267467595
 21
17.64484834927218
 31
0.0
  0
LINE
  5
918F
330
1A
100
AcDbEntity
  8
ZUWAKU
100
AcDbLine
 10
50.14221216833721
 20
10.47499986828869
 30
0.0
 11
50.14221216833721
 21
11.76520189364403
 31
0.0
  0
ARC
  5
9190
330
1A
100
AcDbEntity
  8
ZUWAKU
100
AcDbCircle
 10
48.74221216833712
 20
11.76520189364403
 30
0.0
 40
1.399999999999999
100
AcDbArc
 50
0.0
 51
45.0
  0
ARC
  5
9191
330
1A
100
AcDbEntity
  8
ZUWAKU
100
AcDbCircle
 10
49.61721216833712
 20
10.47499986828869
 30
0.0
 40
0.525
100
AcDbArc
 50
270.0
 51
0.0
  0
LINE
  5
9192
330
1A
100
AcDbEntity
  8
ZUWAKU
100
AcDbLine
 10
46.11721216833712
 20
7.674999868288686
 30
0.0
 11
46.11721216833712
 21
9.424999868288686
 31
0.0
  0
ARC
  5
9193
330
1A
100
AcDbEntity
  8
ZUWAKU
100
AcDbCircle
 10
46.64221216833721
 20
7.674999868288686
 30
0.0
 40
0.525
100
AcDbArc
 50
180.0
 51
270.0
  0
ARC
  5
9194
330
1A
100
AcDbEntity
  8
ZUWAKU
100
AcDbCircle
 10
42.96721216833714
 20
7.674999868288686
 30
0.0
 40
0.525
100
AcDbArc
 50
270.0
 51
0.0
  0
ARC
  5
9195
330
1A
100
AcDbEntity
  8
ZUWAKU
100
AcDbCircle
 10
46.64221216833721
 20
9.424999868288686
 30
0.0
 40
0.525
100
AcDbArc
 50
90.0
 51
180.0
  0
LINE
  5
9196
330
1A
100
AcDbEntity
  8
ZUWAKU
100
AcDbLine
 10
46.64221216833721
 20
9.949999868288685
 30
0.0
 11
49.61721216833712
 21
9.949999868288685
 31
0.0
  0
LINE
  5
9197
330
1A
100
AcDbEntity
  8
ZUWAKU
100
AcDbLine
 10
46.64221216833721
 20
7.149999868288688
 30
0.0
 11
50.14221216833721
 21
7.149999868288688
 31
0.0
  0
LINE
  5
9198
330
1A
100
AcDbEntity
  8
ZUWAKU
100
AcDbLine
 10
46.82236368735368
 20
15.66494936194986
 30
0.0
 11
49.73216166199836
 21
12.7551513873052
 31
0.0
  0
LINE
  5
9199
330
1A
100
AcDbEntity
  8
ZUWAKU
100
AcDbLine
 10
52.94221216833716
 20
9.949999868288685
 30
0.0
 11
52.94221216833716
 21
11.76520189364403
 31
0.0
  0
ARC
  5
919A
330
1A
100
AcDbEntity
  8
ZUWAKU
100
AcDbCircle
 10
48.74221216833712
 20
11.76520189364399
 30
0.0
 40
4.199999999999999
100
AcDbArc
 50
0.0
 51
45.0
  0
ARC
  5
919B
330
1A
100
AcDbEntity
  8
ZUWAKU
100
AcDbCircle
 10
58.89221216833721
 20
10.99999986828868
 30
0.0
 40
1.049999999999999
100
AcDbArc
 50
180.0
 51
270.0
  0
ARC
  5
919C
330
1A
100
AcDbEntity
  8
ZUWAKU
100
AcDbCircle
 10
61.34221216833714
 20
9.949999868288685
 30
0.0
 40
2.799999999999999
100
AcDbArc
 50
270.0
 51
0.0
  0
LINE
  5
919D
330
1A
100
AcDbEntity
  8
ZUWAKU
100
AcDbLine
 10
66.76721216833721
 20
7.149999868288688
 30
0.0
 11
68.51721216833721
 21
7.149999868288688
 31
0.0
  0
ARC
  5
919E
330
1A
100
AcDbEntity
  8
ZUWAKU
100
AcDbCircle
 10
66.76721216833721
 20
7.674999868288686
 30
0.0
 40
0.525
100
AcDbArc
 50
180.0
 51
270.0
  0
ARC
  5
919F
330
1A
100
AcDbEntity
  8
ZUWAKU
100
AcDbCircle
 10
60.29221216833718
 20
10.99999986828868
 30
0.0
 40
1.049999999999999
100
AcDbArc
 50
270.0
 51
0.0
  0
ARC
  5
91A0
330
1A
100
AcDbEntity
  8
ZUWAKU
100
AcDbCircle
 10
68.51721216833721
 20
7.674999868288686
 30
0.0
 40
0.525
100
AcDbArc
 50
270.0
 51
0.0
  0
LINE
  5
91A1
330
1A
100
AcDbEntity
  8
ZUWAKU
100
AcDbLine
 10
42.96721216833714
 20
23.24999986828868
 30
0.0
 11
41.21721216833714
 21
23.24999986828868
 31
0.0
  0
ARC
  5
91A2
330
1A
100
AcDbEntity
  8
ZUWAKU
100
AcDbCircle
 10
32.11721216833712
 20
22.72499986828868
 30
0.0
 40
0.525
100
AcDbArc
 50
0.0
 51
90.0
  0
LINE
  5
91A3
330
1A
100
AcDbEntity
  8
ZUWAKU
100
AcDbLine
 10
32.11721216833712
 20
23.24999986828868
 30
0.0
 11
30.36721216833711
 21
23.24999986828868
 31
0.0
  0
ARC
  5
91A4
330
1A
100
AcDbEntity
  8
ZUWAKU
100
AcDbCircle
 10
26.86721216833712
 20
22.72499986828868
 30
0.0
 40
0.525
100
AcDbArc
 50
0.0
 51
90.0
  0
ARC
  5
91A5
330
1A
100
AcDbEntity
  8
ZUWAKU
100
AcDbCircle
 10
30.36721216833711
 20
22.72499986828868
 30
0.0
 40
0.525
100
AcDbArc
 50
90.0
 51
180.0
  0
ARC
  5
91A6
330
1A
100
AcDbEntity
  8
ZUWAKU
100
AcDbCircle
 10
26.86721216833712
 20
20.97499986828868
 30
0.0
 40
0.525
100
AcDbArc
 50
270.0
 51
0.0
  0
LINE
  5
91A7
330
1A
100
AcDbEntity
  8
ZUWAKU
100
AcDbLine
 10
27.39221216833721
 20
22.72499986828868
 30
0.0
 11
27.39221216833721
 21
20.97499986828868
 31
0.0
  0
ARC
  5
91A8
330
1A
100
AcDbEntity
  8
ZUWAKU
100
AcDbCircle
 10
41.21721216833714
 20
22.72499986828868
 30
0.0
 40
0.525
100
AcDbArc
 50
90.0
 51
180.0
  0
LINE
  5
91A9
330
1A
100
AcDbEntity
  8
ZUWAKU
100
AcDbLine
 10
36.17697800484847
 20
23.24999986828868
 30
0.0
 11
37.87586738445748
 21
23.24999986828868
 31
0.0
  0
ARC
  5
91AA
330
1A
100
AcDbEntity
  8
ZUWAKU
100
AcDbCircle
 10
37.87586738445748
 20
22.72499986828868
 30
0.0
 40
0.525
100
AcDbArc
 50
342.4744316262769
 51
90.0
  0
LINE
  5
91AB
330
1A
100
AcDbEntity
  8
ZUWAKU
100
AcDbLine
 10
38.37649828365295
 20
22.56690590012171
 30
0.0
 11
37.31485865051513
 21
19.20504706185211
 31
0.0
  0
ARC
  5
91AC
330
1A
100
AcDbEntity
  8
ZUWAKU
100
AcDbCircle
 10
36.17697800484847
 20
22.72499986828868
 30
0.0
 40
0.525
100
AcDbArc
 50
90.0
 51
162.4744316262769
  0
LINE
  5
91AD
330
1A
100
AcDbEntity
  8
ZUWAKU
100
AcDbLine
 10
48.3922121683372
 20
23.24999986828868
 30
0.0
 11
51.89221216833721
 21
23.24999986828868
 31
0.0
  0
LINE
  5
91AE
330
1A
100
AcDbEntity
  8
ZUWAKU
100
AcDbLine
 10
51.89221216833721
 20
20.44999986828868
 30
0.0
 11
48.91721216833719
 21
20.44999986828868
 31
0.0
  0
ARC
  5
91AF
330
1A
100
AcDbEntity
  8
ZUWAKU
100
AcDbCircle
 10
48.91721216833719
 20
19.92499986828868
 30
0.0
 40
0.525
100
AcDbArc
 50
90.0
 51
180.0
  0
LINE
  5
91B0
330
1A
100
AcDbEntity
  8
ZUWAKU
100
AcDbLine
 10
48.3922121683372
 20
19.92499986828868
 30
0.0
 11
48.3922121683372
 21
18.63479784293334
 31
0.0
  0
ARC
  5
91B1
330
1A
100
AcDbEntity
  8
ZUWAKU
100
AcDbCircle
 10
42.96721216833714
 20
22.72499986828868
 30
0.0
 40
0.525
100
AcDbArc
 50
0.0
 51
90.0
  0
LINE
  5
91B2
330
1A
100
AcDbEntity
  8
ZUWAKU
100
AcDbLine
 10
45.59221216833714
 20
20.44999986828868
 30
0.0
 11
45.59221216833714
 21
18.63479784293334
 31
0.0
  0
ARC
  5
91B3
330
1A
100
AcDbEntity
  8
ZUWAKU
100
AcDbCircle
 10
48.3922121683372
 20
20.44999986828868
 30
0.0
 40
2.799999999999999
100
AcDbArc
 50
90.0
 51
180.0
  0
ARC
  5
91B4
330
1A
100
AcDbEntity
  8
ZUWAKU
100
AcDbCircle
 10
57.31721216833716
 20
22.72499986828868
 30
0.0
 40
0.525
100
AcDbArc
 50
0.0
 51
90.0
  0
ARC
  5
91B5
330
1A
100
AcDbEntity
  8
ZUWAKU
100
AcDbCircle
 10
55.56721216833716
 20
22.72499986828868
 30
0.0
 40
0.525
100
AcDbArc
 50
90.0
 51
180.0
  0
LINE
  5
91B6
330
1A
100
AcDbEntity
  8
ZUWAKU
100
AcDbLine
 10
57.31721216833716
 20
23.24999986828868
 30
0.0
 11
55.56721216833716
 21
23.24999986828868
 31
0.0
  0
ARC
  5
91B7
330
1A
100
AcDbEntity
  8
ZUWAKU
100
AcDbCircle
 10
51.89221216833721
 20
22.72499986828868
 30
0.0
 40
0.525
100
AcDbArc
 50
0.0
 51
90.0
  0
ARC
  5
91B8
330
1A
100
AcDbEntity
  8
ZUWAKU
100
AcDbCircle
 10
51.89221216833721
 20
20.97499986828868
 30
0.0
 40
0.525
100
AcDbArc
 50
270.0
 51
0.0
  0
LINE
  5
91B9
330
1A
100
AcDbEntity
  8
ZUWAKU
100
AcDbLine
 10
52.41721216833719
 20
22.72499986828868
 30
0.0
 11
52.41721216833719
 21
20.97499986828868
 31
0.0
  0
LINE
  5
91BA
330
1A
100
AcDbEntity
  8
ZUWAKU
100
AcDbLine
 10
68.51721216833721
 20
23.24999986828868
 30
0.0
 11
66.76721216833721
 21
23.24999986828868
 31
0.0
  0
ARC
  5
91BB
330
1A
100
AcDbEntity
  8
ZUWAKU
100
AcDbCircle
 10
66.76721216833721
 20
22.72499986828868
 30
0.0
 40
0.525
100
AcDbArc
 50
90.0
 51
180.0
  0
ARC
  5
91BC
330
1A
100
AcDbEntity
  8
ZUWAKU
100
AcDbCircle
 10
63.61721216833712
 20
22.72499986828868
 30
0.0
 40
0.525
100
AcDbArc
 50
0.0
 51
90.0
  0
LINE
  5
91BD
330
1A
100
AcDbEntity
  8
ZUWAKU
100
AcDbLine
 10
63.61721216833712
 20
23.24999986828868
 30
0.0
 11
61.86721216833712
 21
23.24999986828868
 31
0.0
  0
ARC
  5
91BE
330
1A
100
AcDbEntity
  8
ZUWAKU
100
AcDbCircle
 10
61.86721216833712
 20
22.72499986828868
 30
0.0
 40
0.525
100
AcDbArc
 50
90.0
 51
180.0
  0
ARC
  5
91BF
330
1A
100
AcDbEntity
  8
ZUWAKU
100
AcDbCircle
 10
68.51721216833721
 20
22.72499986828868
 30
0.0
 40
0.525
100
AcDbArc
 50
0.0
 51
90.0
  0
TEXT
  5
91C0
330
1A
100
AcDbEntity
  8
MOJI
100
AcDbText
 10
239.827202694407
 20
18.00492092569607
 30
0.0
 40
5.599999999999999
  1
曲り（出）Ⅱ
 41
0.9
  7
ｽﾀｲﾙ1
100
AcDbText
  0
TEXT
  5
91C1
330
1A
100
AcDbEntity
  8
MOJI
100
AcDbText
 10
239.827202694407
 20
3.204920925696104
 30
0.0
 40
5.599999999999999
  1
ＶＭ１２０
 41
0.9
  7
ｽﾀｲﾙ1
100
AcDbText
  0
LINE
  5
91C2
330
1A
100
AcDbEntity
  8
ZUWAKU
100
AcDbLine
 10
208.2466013036239
 20
29.99999986828868
 30
0.0
 11
208.2466013036239
 21
0.7999998682887508
 31
0.0
  0
LINE
  5
91C3
330
1A
100
AcDbEntity
  8
ZUWAKU
100
AcDbLine
 10
208.6466013036238
 20
29.99999986828868
 30
0.0
 11
208.646601303624
 21
0.7999998682887508
 31
0.0
  0
LINE
  5
91C4
330
1A
100
AcDbEntity
  8
ZUWAKU
100
AcDbLine
 10
208.4466013036237
 20
29.99999986828868
 30
0.0
 11
208.446601303624
 21
0.7999998682887508
 31
0.0
  0
TEXT
  5
91C5
330
1A
100
AcDbEntity
  8
ZUWAKU
100
AcDbText
 10
209.7240463258335
 20
9.6553564066743
 30
0.0
 40
4.0
  1
サイズ
 41
0.9
  7
ｽﾀｲﾙ1
100
AcDbText
  0
TEXT
  5
91C6
330
1A
100
AcDbEntity
  8
ZUWAKU
100
AcDbText
 10
209.7240463258333
 20
24.05535640667426
 30
0.0
 40
4.0
  1
品名
 41
0.9
  7
ｽﾀｲﾙ1
100
AcDbText
  0
LINE
  5
91C7
330
1A
100
AcDbEntity
  8
ZUWAKU
100
AcDbLine
 10
648.8172025237602
 20
15.19999986828871
 30
0.0
 11
697.2490105620972
 21
15.19999986828871
 31
0.0
  0
LINE
  5
91C8
330
1A
100
AcDbEntity
  8
ZUWAKU
100
AcDbLine
 10
648.8172025237604
 20
15.39999986828872
 30
0.0
 11
697.2490105620972
 21
15.39999986828871
 31
0.0
  0
LINE
  5
91C9
330
1A
100
AcDbEntity
  8
ZUWAKU
100
AcDbLine
 10
648.8172025237602
 20
15.59999986828871
 30
0.0
 11
697.2490105620972
 21
15.59999986828871
 31
0.0
  0
TEXT
  5
91CA
330
1A
100
AcDbEntity
  8
ZUWAKU
100
AcDbText
 10
658.2039377008584
 20
18.00492092569607
 30
0.0
 40
5.599999999999999
  1
　　．　　．　　
 41
0.9
  7
ｽﾀｲﾙ1
100
AcDbText
  0
LINE
  5
91CB
330
1A
100
AcDbEntity
  8
ZUWAKU
100
AcDbLine
 10
505.1991795116968
 20
15.19999986828872
 30
0.0
 11
552.5269557796685
 21
15.19999986828872
 31
0.0
  0
LINE
  5
91CC
330
1A
100
AcDbEntity
  8
ZUWAKU
100
AcDbLine
 10
505.1991795116968
 20
15.39999986828871
 30
0.0
 11
552.5269557796685
 21
15.39999986828871
 31
0.0
  0
LINE
  5
91CD
330
1A
100
AcDbEntity
  8
ZUWAKU
100
AcDbLine
 10
505.1991795116968
 20
15.59999986828871
 30
0.0
 11
552.5269557796685
 21
15.59999986828871
 31
0.0
  0
TEXT
  5
91CE
330
1A
100
AcDbEntity
  8
MOJI
100
AcDbText
 10
463.246432004558
 20
11.94261758994866
 30
0.0
 40
5.599999999999999
  1
ＰＧ５９□
 41
0.9
  7
ｽﾀｲﾙ1
100
AcDbText
  0
LINE
  5
91CF
330
1A
100
AcDbEntity
  8
ZUWAKU
100
AcDbLine
 10
447.6243639845472
 20
29.99999986828868
 30
0.0
 11
447.6243639845474
 21
0.7999998682887508
 31
0.0
  0
LINE
  5
91D0
330
1A
100
AcDbEntity
  8
ZUWAKU
100
AcDbLine
 10
447.8243639845472
 20
29.99999986828868
 30
0.0
 11
447.8243639845475
 21
0.7999998682887508
 31
0.0
  0
LINE
  5
91D1
330
1A
100
AcDbEntity
  8
ZUWAKU
100
AcDbLine
 10
447.4243639845474
 20
29.99999986828868
 30
0.0
 11
447.4243639845474
 21
0.7999998682887508
 31
0.0
  0
TEXT
  5
91D2
330
1A
100
AcDbEntity
  8
MOJI
100
AcDbText
 10
528.0409079858689
 20
18.00492092569607
 30
0.0
 40
5.599999999999999
  1
Ａ３
 41
0.9
  7
ｽﾀｲﾙ1
100
AcDbText
  0
LINE
  5
91D3
330
1A
100
AcDbEntity
  8
ZUWAKU
100
AcDbLine
 10
504.9991795116969
 20
29.99999986828868
 30
0.0
 11
504.999179511697
 21
0.7999998682887508
 31
0.0
  0
LINE
  5
91D4
330
1A
100
AcDbEntity
  8
ZUWAKU
100
AcDbLine
 10
505.1991795116968
 20
29.99999986828868
 30
0.0
 11
505.1991795116971
 21
0.7999998682887508
 31
0.0
  0
LINE
  5
91D5
330
1A
100
AcDbEntity
  8
ZUWAKU
100
AcDbLine
 10
504.799179511697
 20
29.99999986828868
 30
0.0
 11
504.799179511697
 21
0.7999998682887508
 31
0.0
  0
TEXT
  5
91D6
330
1A
100
AcDbEntity
  8
ZUWAKU
100
AcDbText
 10
461.9484764378114
 20
2.614070779428175
 30
0.0
 40
3.0
  1
□には色品番が入ります
 41
0.9
  7
ｽﾀｲﾙ1
100
AcDbText
  0
TEXT
  5
91D7
330
1A
100
AcDbEntity
  8
ZUWAKU
100
AcDbText
 10
506.6766245339067
 20
9.6553564066743
 30
0.0
 40
4.0
  1
縮尺
 41
0.9
  7
ｽﾀｲﾙ1
100
AcDbText
  0
TEXT
  5
91D8
330
1A
100
AcDbEntity
  8
MOJI
100
AcDbText
 10
528.0409079858689
 20
3.204920925696104
 30
0.0
 40
5.599999999999999
  1
１/２
 41
0.9
  7
ｽﾀｲﾙ1
100
AcDbText
  0
TEXT
  5
91D9
330
1A
100
AcDbEntity
  8
ZUWAKU
100
AcDbText
 10
449.3018090067569
 20
24.05535640667426
 30
0.0
 40
4.0
  1
品番
 41
0.9
  7
ｽﾀｲﾙ1
100
AcDbText
  0
TEXT
  5
91DA
330
1A
100
AcDbEntity
  8
ZUWAKU
100
AcDbText
 10
506.6766245339065
 20
24.05535640667426
 30
0.0
 40
4.0
  1
用紙
 41
0.9
  7
ｽﾀｲﾙ1
100
AcDbText
  0
LINE
  5
91DB
330
1A
100
AcDbEntity
  8
ZUWAKU
100
AcDbLine
 10
648.6172025237603
 20
29.99999986828868
 30
0.0
 11
648.6172025237606
 21
0.7999998682887508
 31
0.0
  0
LINE
  5
91DC
330
1A
100
AcDbEntity
  8
ZUWAKU
100
AcDbLine
 10
648.8172025237604
 20
29.99999986828868
 30
0.0
 11
648.8172025237607
 21
0.7999998682887508
 31
0.0
  0
LINE
  5
91DD
330
1A
100
AcDbEntity
  8
ZUWAKU
100
AcDbLine
 10
648.4172025237605
 20
29.99999986828868
 30
0.0
 11
648.4172025237605
 21
0.7999998682887508
 31
0.0
  0
LINE
  5
91DE
330
1A
100
AcDbEntity
  8
ZUWAKU
100
AcDbLine
 10
552.7269557796683
 20
29.99999986828868
 30
0.0
 11
552.7269557796684
 21
0.7999998682887508
 31
0.0
  0
LINE
  5
91DF
330
1A
100
AcDbEntity
  8
ZUWAKU
100
AcDbLine
 10
552.9269557796683
 20
29.99999986828868
 30
0.0
 11
552.9269557796685
 21
0.7999998682887508
 31
0.0
  0
LINE
  5
91E0
330
1A
100
AcDbEntity
  8
ZUWAKU
100
AcDbLine
 10
552.5269557796685
 20
29.99999986828868
 30
0.0
 11
552.5269557796685
 21
0.7999998682887508
 31
0.0
  0
TEXT
  5
91E1
330
1A
100
AcDbEntity
  8
ZUWAKU
100
AcDbText
 10
650.29464754597
 20
24.05535640667426
 30
0.0
 40
4.0
  1
DATE
 41
0.9
  7
ｽﾀｲﾙ1
100
AcDbText
  0
LINE
  5
91E2
330
1A
100
AcDbEntity
  8
ZUWAKU
100
AcDbLine
 10
697.2490105620972
 20
29.99999986828868
 30
0.0
 11
697.2490105620972
 21
0.7999998682887508
 31
0.0
  0
LINE
  5
91E3
330
1A
100
AcDbEntity
  8
ZUWAKU
100
AcDbLine
 10
697.4490105620973
 20
29.99999986828868
 30
0.0
 11
697.4490105620973
 21
0.7999998682887508
 31
0.0
  0
LINE
  5
91E4
330
1A
100
AcDbEntity
  8
ZUWAKU
100
AcDbLine
 10
697.6490105620971
 20
29.99999986828868
 30
0.0
 11
697.6490105620974
 21
0.7999998682887508
 31
0.0
  0
LINE
  5
91E5
330
1A
100
AcDbEntity
  8
ZUWAKU
100
AcDbLine
 10
697.8490105620972
 20
29.99999986828868
 30
0.0
 11
697.8490105620974
 21
0.7999998682887508
 31
0.0
  0
TEXT
  5
91E6
330
1A
100
AcDbEntity
  8
ZUWAKU
100
AcDbText
 10
708.5280842057998
 20
17.55383920397548
 30
0.0
 40
6.0
  1
積水化学工業株式会社
 41
0.9
  7
ｽﾀｲﾙ1
100
AcDbText
  0
TEXT
  5
91E7
330
1A
100
AcDbEntity
  8
ZUWAKU
100
AcDbText
 10
708.5280842057998
 20
6.648840182142748
 30
0.0
 40
6.0
  1
建材事業部
 41
0.9
  7
ｽﾀｲﾙ1
100
AcDbText
  0
LINE
  5
B093
330
1A
100
AcDbEntity
  8
SEIHIN
100
AcDbLine
 10
110.1859475907341
 20
176.5934067569107
 30
0.0
 11
273.5183404960341
 21
176.5934067569107
 31
0.0
  0
LINE
  5
B096
330
1A
100
AcDbEntity
  8
SEIHIN
100
AcDbLine
 10
266.8478866211341
 20
202.7581921260107
 30
0.0
 11
108.4007714643338
 21
202.7581921260107
 31
0.0
  0
LINE
  5
B099
330
1A
100
AcDbEntity
  8
SEIHIN
100
AcDbLine
 10
190.402888298934
 20
86.59340675691078
 30
0.0
 11
273.5183404961341
 21
86.59340675691078
 31
0.0
  0
LINE
  5
B09B
330
1A
100
AcDbEntity
  8
SEIHIN
100
AcDbLine
 10
273.5183404961341
 20
98.59340675691079
 30
0.0
 11
145.795099469034
 21
98.59340675691079
 31
0.0
  0
ARC
  5
B09F
330
1A
100
AcDbEntity
  8
SEIHIN
100
AcDbCircle
 10
1084.435783427833
 20
446.2832165152108
 30
0.0
 40
1002.5
100
AcDbArc
 50
195.9238040743997
 51
200.2532671118002
  0
ARC
  5
B0A2
330
1A
100
AcDbEntity
  8
SEIHIN
100
AcDbCircle
 10
190.402888298934
 20
1089.09340675691
 30
0.0
 40
1002.5
100
AcDbArc
 50
268.0319788417982
 51
270.0
  0
LINE
  5
B0A3
330
1A
100
AcDbEntity
  8
SEIHIN
100
AcDbLine
 10
154.104301959034
 20
88.67134470921076
 30
0.0
 11
150.863986259734
 21
97.92393079301078
 31
0.0
  0
LINE
  5
B0A7
330
1A
100
AcDbEntity
  8
SEIHIN
100
AcDbLine
 10
154.156427086334
 20
88.52250358621077
 30
0.0
 11
154.104301959034
 21
88.67134470921076
 31
0.0
  0
ARC
  5
B0AA
330
1A
100
AcDbEntity
  8
SEIHIN
100
AcDbCircle
 10
156.044022235234
 20
89.18355165851076
 30
0.0
 40
2.000000000000003
100
AcDbArc
 50
199.3005854308005
 51
268.0319788417982
  0
ARC
  5
B0AC
330
1A
100
AcDbEntity
  8
SEIHIN
100
AcDbCircle
 10
144.8569278708341
 20
99.59340675691079
 30
0.0
 40
1.0
100
AcDbArc
 50
200.2532671117009
 51
270.0
  0
ARC
  5
B0AD
330
1A
100
AcDbEntity
  8
SEIHIN
100
AcDbCircle
 10
149.9201886852341
 20
97.59340675691078
 30
0.0
 40
1.000000000000013
100
AcDbArc
 50
19.30058543080056
 51
90.0
  0
LINE
  5
B0AE
330
1A
100
AcDbEntity
  8
SEIHIN
100
AcDbLine
 10
145.795099469034
 20
98.59340675691079
 30
0.0
 11
144.8569278708341
 21
98.59340675691079
 31
0.0
  0
LINE
  5
B0B3
330
1A
100
AcDbEntity
  8
SEIHIN
100
AcDbLine
 10
108.282551572334
 20
176.5934067569107
 30
0.0
 11
102.594672457634
 21
194.2237469938107
 31
0.0
  0
LINE
  5
B0B4
330
1A
100
AcDbEntity
  8
SEIHIN
100
AcDbLine
 10
110.1859475907341
 20
176.5934067569107
 30
0.0
 11
108.282551572334
 21
176.5934067569107
 31
0.0
  0
LINE
  5
B0B5
330
1A
100
AcDbEntity
  8
SEIHIN
100
AcDbLine
 10
120.4028882989341
 20
171.2435337248107
 30
0.0
 11
120.4028882989341
 21
176.0934067569107
 31
0.0
  0
LINE
  5
B0B9
330
1A
100
AcDbEntity
  8
SEIHIN
100
AcDbLine
 10
120.404307310434
 20
171.2385600411107
 30
0.0
 11
120.4028882989341
 21
171.2435337248107
 31
0.0
  0
ARC
  5
B0BC
330
1A
100
AcDbEntity
  8
SEIHIN
100
AcDbCircle
 10
119.902888298934
 20
176.0934067569107
 30
0.0
 40
0.5
100
AcDbArc
 50
0.0
 51
90.0
  0
LINE
  5
B0BD
330
1A
100
AcDbEntity
  8
SEIHIN
100
AcDbLine
 10
102.592451939134
 20
194.2306297872107
 30
0.0
 11
102.597620696134
 21
199.0522534355107
 31
0.0
  0
LINE
  5
B0BF
330
1A
100
AcDbEntity
  8
SEIHIN
100
AcDbLine
 10
102.594672457634
 20
194.2237469938107
 30
0.0
 11
102.592451939134
 21
194.2306297872107
 31
0.0
  0
ARC
  5
B0C1
330
1A
100
AcDbEntity
  8
SEIHIN
100
AcDbCircle
 10
106.597618397734
 20
199.0479654575107
 30
0.0
 40
3.999999999999988
100
AcDbArc
 50
107.0238135234007
 51
179.938579228
  0
LINE
  5
B0C2
330
1A
100
AcDbEntity
  8
SEIHIN
100
AcDbLine
 10
107.413435414234
 20
202.9638871365107
 30
0.0
 11
108.4007714643341
 21
202.7581921260107
 31
0.0
  0
ARC
  5
B0C3
330
1A
100
AcDbEntity
  8
SEIHIN
100
AcDbCircle
 10
106.597618397734
 20
199.0479654575107
 30
0.0
 40
4.000000000000023
100
AcDbArc
 50
78.23171106800072
 51
82.74315532219757
  0
ARC
  5
B0C7
330
1A
100
AcDbEntity
  8
SEIHIN
100
AcDbCircle
 10
106.5854036860341
 20
199.2518668371107
 30
0.0
 40
3.799463594440458
100
AcDbArc
 50
82.17201965489946
 51
107.5889441085021
  0
ARC
  5
B0C8
330
1A
100
AcDbEntity
  8
SEIHIN
100
AcDbCircle
 10
114.804497881934
 20
202.3244186295107
 30
0.0
 40
0.4999999999999677
100
AcDbArc
 50
60.17482353419962
 51
114.9999999999996
  0
LINE
  5
B0CB
330
1A
100
AcDbEntity
  8
SEIHIN
100
AcDbLine
 10
293.8478866211341
 20
100.0468293204107
 30
0.0
 11
293.8478866211341
 21
171.3554446521107
 31
0.0
  0
LINE
  5
B0CD
330
1A
100
AcDbEntity
  8
SEIHIN
100
AcDbLine
 10
293.8478866211341
 20
99.39340675691077
 30
0.0
 11
284.169869079334
 21
98.87724582131077
 31
0.0
  0
LINE
  5
B0CF
330
1A
100
AcDbEntity
  8
SEIHIN
100
AcDbLine
 10
284.169869079334
 20
86.87724582131076
 30
0.0
 11
293.8478866211341
 21
87.39340675691076
 31
0.0
  0
ARC
  5
B0D4
330
1A
100
AcDbEntity
  8
SEIHIN
100
AcDbCircle
 10
273.5183404961341
 20
286.5934067569107
 30
0.0
 40
200.0
100
AcDbArc
 50
270.0
 51
273.0528825147989
  0
LINE
  5
B0E1
330
1A
100
AcDbEntity
  8
SEIHIN
100
AcDbLine
 10
293.8478866211341
 20
89.3015630468108
 30
0.0
 11
293.8478866211341
 21
98.72488091021081
 31
0.0
  0
LINE
  5
B0E2
330
1A
100
AcDbEntity
  8
SEIHIN
100
AcDbLine
 10
293.8478866211341
 20
89.3015630468108
 30
0.0
 11
293.8478866211341
 21
87.96565228061075
 31
0.0
  0
LINE
  5
B0E3
330
1A
100
AcDbEntity
  8
SEIHIN
100
AcDbLine
 10
293.8478866211341
 20
87.39340675691076
 30
0.0
 11
293.8478866211341
 21
87.96565228061075
 31
0.0
  0
LINE
  5
B0E4
330
1A
100
AcDbEntity
  8
SEIHIN
100
AcDbLine
 10
293.8478866211341
 20
100.0468293204107
 30
0.0
 11
293.8478866211341
 21
99.39340675691077
 31
0.0
  0
LINE
  5
B0E5
330
1A
100
AcDbEntity
  8
SEIHIN
100
AcDbLine
 10
293.8478866211341
 20
99.39340675691077
 30
0.0
 11
293.8478866211341
 21
98.72488091021081
 31
0.0
  0
LINE
  5
B0E6
330
1A
100
AcDbEntity
  8
SEIHIN
100
AcDbLine
 10
293.8478866211341
 20
202.8803986251107
 30
0.0
 11
284.001197144434
 21
202.9897816839107
 31
0.0
  0
LINE
  5
B0E9
330
1A
100
AcDbEntity
  8
SEIHIN
100
AcDbLine
 10
284.169869079334
 20
176.8772458213107
 30
0.0
 11
293.8478866211341
 21
177.3934067569107
 31
0.0
  0
ARC
  5
B0EE
330
1A
100
AcDbEntity
  8
SEIHIN
100
AcDbCircle
 10
273.5183404960341
 20
376.5934067569107
 30
0.0
 40
200.0
100
AcDbArc
 50
270.0
 51
273.0528825147989
  0
ARC
  5
B0F6
330
1A
100
AcDbEntity
  8
SEIHIN
100
AcDbCircle
 10
264.504879410234
 20
225.0598628764107
 30
0.0
 40
22.42441082941011
100
AcDbArc
 50
275.9974771319003
 51
280.9905597093978
  0
LINE
  5
B0F8
330
1A
100
AcDbEntity
  8
SEIHIN
100
AcDbLine
 10
273.5183404960341
 20
203.0479654575108
 30
0.0
 11
268.7800317981341
 21
203.0479654575108
 31
0.0
  0
LINE
  5
B0FB
330
1A
100
AcDbEntity
  8
SEIHIN
100
AcDbLine
 10
293.8478866211341
 20
177.3934067569107
 30
0.0
 11
293.8478866211341
 21
194.3560653255108
 31
0.0
  0
LINE
  5
B0FC
330
1A
100
AcDbEntity
  8
SEIHIN
100
AcDbLine
 10
293.8478866211341
 20
171.3554446521107
 30
0.0
 11
293.8478866211341
 21
176.8941163545107
 31
0.0
  0
LINE
  5
B0FD
330
1A
100
AcDbEntity
  8
SEIHIN
100
AcDbLine
 10
293.8478866211341
 20
177.3934067569107
 30
0.0
 11
293.8478866211341
 21
176.8941163545107
 31
0.0
  0
LINE
  5
B0FE
330
1A
100
AcDbEntity
  8
SEIHIN
100
AcDbLine
 10
293.8478866211341
 20
194.3560653255108
 30
0.0
 11
293.8478866211341
 21
198.8868002008107
 31
0.0
  0
LINE
  5
B0FF
330
1A
100
AcDbEntity
  8
SEIHIN
100
AcDbLine
 10
293.8478866211341
 20
198.8868002008107
 30
0.0
 11
293.8478866211341
 21
202.8803986251107
 31
0.0
  0
LINE
  5
B10D
330
1A
100
AcDbEntity
  8
SEIHIN
100
AcDbLine
 10
284.169869079334
 20
98.87724582131077
 30
0.0
 11
278.833946563834
 21
98.66405840571079
 31
0.0
  0
LINE
  5
B10E
330
1A
100
AcDbEntity
  8
SEIHIN
100
AcDbLine
 10
278.833946563834
 20
98.66405840571079
 30
0.0
 11
273.5183404961341
 21
98.59340675691079
 31
0.0
  0
LINE
  5
B11F
330
1A
100
AcDbEntity
  8
SEIHIN
100
AcDbLine
 10
284.0012703125341
 20
202.9897811071107
 30
0.0
 11
281.382146051434
 21
203.0152334962107
 31
0.0
  0
LINE
  5
B120
330
1A
100
AcDbEntity
  8
SEIHIN
100
AcDbLine
 10
281.382146051434
 20
203.0152334962107
 30
0.0
 11
274.5857514792341
 21
203.0473626200107
 31
0.0
  0
LINE
  5
B121
330
1A
100
AcDbEntity
  8
SEIHIN
100
AcDbLine
 10
274.5857514792341
 20
203.0473626200107
 30
0.0
 11
273.5183404961341
 21
203.0479654575108
 31
0.0
  0
SPLINE
  5
B123
330
1A
100
AcDbEntity
  8
SEIHIN
100
AcDbSpline
210
0.0
220
0.0
230
1.0
 70
    12
 71
     3
 72
     8
 73
     4
 74
     0
 42
0.0000000001
 43
0.0000000001
 40
0.0
 40
0.0
 40
0.0
 40
0.0
 40
0.0001405974296854
 40
0.0001405974296854
 40
0.0001405974296854
 40
0.0001405974296854
 10
424.2157828877531
 20
117.3815355120643
 30
0.0
 41
1.0
 10
424.0405519234934
 20
117.4108096427116
 30
0.0
 41
1.0
 10
423.8874147122523
 20
117.5405897093481
 30
0.0
 41
1.0
 10
423.8302193867117
 20
117.7093083474881
 30
0.0
 41
1.0
  0
ELLIPSE
  5
B127
330
1A
100
AcDbEntity
  8
SEIHIN
100
AcDbEllipse
 10
1366.40971218224
 20
625.8123344584107
 30
0.0
 11
0.000000000043201
 21
1077.907946653699
 31
0.0
210
0.0
220
0.0
230
1.0
 40
0.9860132971999998
 41
2.030498674281854
 42
2.030620488651678
  0
SPLINE
  5
B12A
330
1A
100
AcDbEntity
  8
SEIHIN
100
AcDbSpline
210
0.0
220
0.0
230
1.0
 70
    12
 71
     3
 72
     8
 73
     4
 74
     0
 42
0.0000000001
 43
0.0000000001
 40
-0.6220045412550786
 40
-0.6220045412550786
 40
-0.6220045412550786
 40
-0.6220045412550786
 40
0.6220045412523038
 40
0.6220045412523038
 40
0.6220045412523038
 40
0.6220045412523038
 10
433.8951136613992
 20
115.3389801830511
 30
0.0
 41
1.0
 10
433.8664665384483
 20
115.5462652232794
 30
0.0
 41
1.0
 10
433.6941394077101
 20
115.7222959378741
 30
0.0
 41
1.0
 10
433.4875102787815
 20
115.7553436100172
 30
0.0
 41
1.0
  0
ELLIPSE
  5
B12D
330
1A
100
AcDbEntity
  8
SEIHIN
100
AcDbEllipse
 10
431.79764883054
 20
113.6933403280108
 30
0.0
 11
0.4355798367066085
 21
0.4264154902733139
 31
0.0
210
0.0
220
0.0
230
1.0
 40
0.8202675819000001
 41
5.996134942725863
 42
6.570235671633232
  0
ELLIPSE
  5
B12F
330
1A
100
AcDbEntity
  8
SEIHIN
100
AcDbEllipse
 10
432.46058351054
 20
98.2697790455108
 30
0.0
 11
-0.5798010114438626
 21
-0.8173777966934498
 31
0.0
210
0.0
220
0.0
230
1.0
 40
0.9978689935
 41
2.525630208754285
 42
3.757555098425173
  0
SPLINE
  5
B130
330
1A
100
AcDbEntity
  8
SEIHIN
100
AcDbSpline
210
0.0
220
0.0
230
1.0
 70
    12
 71
     3
 72
     8
 73
     4
 74
     0
 42
0.0000000001
 43
0.0000000001
 40
0.0
 40
0.0
 40
0.0
 40
0.0
 40
0.0026698269740669
 40
0.0026698269740669
 40
0.0026698269740669
 40
0.0026698269740669
 10
441.4854256048042
 20
91.2827055380319
 30
0.0
 41
1.0
 10
440.4319432167828
 20
91.31452016882978
 30
0.0
 41
1.0
 10
439.459901314271
 20
92.02234707891198
 30
0.0
 41
1.0
 10
439.110230095493
 20
93.02227254984922
 30
0.0
 41
1.0
  0
ELLIPSE
  5
B13A
330
1A
100
AcDbEntity
  8
SEIHIN
100
AcDbEllipse
 10
1366.40971218224
 20
446.1610100161108
 30
0.0
 11
0.0
 21
1000.0
 31
0.0
210
0.0
220
0.0
230
1.0
 40
0.998
 41
1.849068605817879
 42
1.873572436763576
  0
ELLIPSE
  5
B13B
330
1A
100
AcDbEntity
  8
SEIHIN
100
AcDbEllipse
 10
548.8218153756399
 20
200.3527007297107
 30
0.0
 11
2.0
 21
0.0
 31
0.0
210
0.0
220
0.0
230
1.0
 40
0.2083333333
 41
0.0
 42
0.0971872318780854
  0
ELLIPSE
  5
B13D
330
1A
100
AcDbEntity
  8
SEIHIN
100
AcDbEllipse
 10
516.32181537564
 20
175.9612251335107
 30
0.0
 11
0.0
 21
-2.009975124224184
 31
0.0
210
0.0
220
0.0
230
1.0
 40
0.9950371901999998
 41
1.570796326794897
 42
3.141592653589792
  0
ELLIPSE
  5
B13E
330
1A
100
AcDbEntity
  8
SEIHIN
100
AcDbEllipse
 10
555.4922692505399
 20
153.4712002578107
 30
0.0
 11
200.0
 21
0.0
 31
0.0
210
0.0
220
0.0
230
1.0
 40
0.0007932904
 41
1.517513475235215
 42
1.570796326794896
  0
ELLIPSE
  5
B13F
330
1A
100
AcDbEntity
  8
SEIHIN
100
AcDbEllipse
 10
515.17825498674
 20
153.4712002578107
 30
0.0
 11
2.002860412680092
 21
0.0
 31
0.0
210
0.0
220
0.0
230
1.0
 40
0.9985718362
 41
1.570796326794897
 42
3.062293111449529
  0
ELLIPSE
  5
B140
330
1A
100
AcDbEntity
  8
SEIHIN
100
AcDbEllipse
 10
508.1340694283398
 20
142.5118692222108
 30
0.0
 11
0.2470297177199541
 21
2.999677329241478
 31
0.0
210
0.0
220
0.0
230
1.0
 40
0.1827974446
 41
0.2124614228879745
 42
1.585862189833071
  0
ELLIPSE
  5
B141
330
1A
100
AcDbEntity
  8
SEIHIN
100
AcDbEllipse
 10
507.9552770971399
 20
147.2014641673108
 30
0.0
 11
0.7906020207159941
 21
0.826174127298259
 31
0.0
210
0.0
220
0.0
230
1.0
 40
0.7799911523000001
 41
1.718513522269934
 42
2.378310300201678
  0
SPLINE
  5
B146
330
1A
100
AcDbEntity
  8
SEIHIN
100
AcDbSpline
210
0.0
220
0.0
230
1.0
 70
    12
 71
     3
 72
    12
 73
     8
 74
     0
 42
0.0000000001
 43
0.0000000001
 40
0.0
 40
0.0
 40
0.0
 40
0.0
 40
0.250000000000001
 40
0.250000000000001
 40
0.500000000000002
 40
0.500000000000002
 40
1.0
 40
1.0
 40
1.0
 40
1.0
 10
500.8764929945249
 20
93.37903045322411
 30
0.0
 41
1.0
 10
500.8707655073369
 20
93.37886648734627
 30
0.0
 41
1.0
 10
500.8450235926331
 20
93.37812926907714
 30
0.0
 41
1.0
 10
500.7614169078599
 20
93.37574213619589
 30
0.0
 41
1.0
 10
500.7050802660896
 20
93.37413681464539
 30
0.0
 41
1.0
 10
500.5139348251813
 20
93.36871092078411
 30
0.0
 41
1.0
 10
500.3569752549287
 20
93.36428710096923
 30
0.0
 41
1.0
 10
500.2278389133208
 20
93.36067436513138
 30
0.0
 41
1.0
  0
SPLINE
  5
B148
330
1A
100
AcDbEntity
  8
SEIHIN
100
AcDbSpline
210
0.0
220
0.0
230
1.0
 70
    12
 71
     3
 72
     8
 73
     4
 74
     0
 42
0.0000000001
 43
0.0000000001
 40
0.0307030910652451
 40
0.0307030910652451
 40
0.0307030910652451
 40
0.0307030910652451
 40
0.0359455291595823
 40
0.0359455291595823
 40
0.0359455291595823
 40
0.0359455291595823
 10
504.9867442928539
 20
96.03399258187799
 30
0.0
 41
1.0
 10
504.8441101194486
 20
93.80779766072777
 30
0.0
 41
1.0
 10
503.1142691145734
 20
91.85157838715511
 30
0.0
 41
1.0
 10
500.9629674477541
 20
91.37686406015697
 30
0.0
 41
1.0
  0
ELLIPSE
  5
B14B
330
1A
100
AcDbEntity
  8
SEIHIN
100
AcDbEllipse
 10
-152.3501712871601
 20
1088.97120025781
 30
0.0
 11
1301.15322793242
 21
0.0
 31
0.0
210
0.0
220
0.0
230
1.0
 40
0.8771955414
 41
5.218680407688701
 42
5.219047622673633
  0
ELLIPSE
  5
B14C
330
1A
100
AcDbEntity
  8
SEIHIN
100
AcDbEllipse
 10
477.3581286687399
 20
91.2712002578108
 30
0.0
 11
0.3770889104831098
 21
0.3770889104831098
 31
0.0
210
0.0
220
0.0
230
1.0
 40
0.8707101025000001
 41
4.083390696497572
 42
5.428784131953394
  0
ELLIPSE
  5
B14D
330
1A
100
AcDbEntity
  8
SEIHIN
100
AcDbEllipse
 10
726.93539090734
 20
1088.97120025781
 30
0.0
 11
1060.660724391611
 21
0.0
 31
0.0
210
0.0
220
0.0
230
1.0
 40
0.9707728879999999
 41
4.464433159854597
 42
4.464488906348476
  0
ELLIPSE
  5
B14E
330
1A
100
AcDbEntity
  8
SEIHIN
100
AcDbEllipse
 10
467.3955054379399
 20
91.2712002578108
 30
0.0
 11
0.3770889104831098
 21
-0.3770889104831098
 31
0.0
210
0.0
220
0.0
230
1.0
 40
0.8707101025000001
 41
3.995993828816011
 42
5.341387264272632
  0
ELLIPSE
  5
B150
330
1A
100
AcDbEntity
  8
SEIHIN
100
AcDbEllipse
 10
388.5768170533399
 20
199.9384899775108
 30
0.0
 11
0.0
 21
1.50780521371297
 31
0.0
210
0.0
220
0.0
230
1.0
 40
0.9948234601999999
 41
6.078823725551222
 42
7.853981633974497
  0
ELLIPSE
  5
B152
330
1A
100
AcDbEntity
  8
SEIHIN
100
AcDbEllipse
 10
389.0768170533398
 20
188.2701005409107
 30
0.0
 11
0.0
 21
6.199266855448057
 31
0.0
210
0.0
220
0.0
230
1.0
 40
0.3226187946000001
 41
0.0
 42
0.0472055458037887
  0
ELLIPSE
  5
B153
330
1A
100
AcDbEntity
  8
SEIHIN
100
AcDbEllipse
 10
403.8768170533398
 20
177.9712002578107
 30
0.0
 11
3.0
 21
0.0
 31
0.0
210
0.0
220
0.0
230
1.0
 40
0.3333333333
 41
0.0
 42
1.570796326794878
  0
ELLIPSE
  5
B154
330
1A
100
AcDbEntity
  8
SEIHIN
100
AcDbEllipse
 10
402.67610644724
 20
176.7704896516108
 30
0.0
 11
-0.3545576273486404
 21
-0.3545576273486404
 31
0.0
210
0.0
220
0.0
230
1.0
 40
0.9971676345999998
 41
2.357612680358303
 42
3.925572626821181
  0
ELLIPSE
  5
B155
330
1A
100
AcDbEntity
  8
SEIHIN
100
AcDbEllipse
 10
389.3770525689398
 20
198.7579453300107
 30
0.0
 11
-3.921725823877352
 21
0.8170262133077706
 31
0.0
210
0.0
220
0.0
230
1.0
 40
0.9985200023999997
 41
4.712388980384708
 42
6.487214631980035
  0
LINE
  5
B15F
330
1A
100
AcDbEntity
  8
SEIHIN
100
AcDbLine
 10
548.8218153756399
 20
202.6359856269107
 30
0.0
 11
397.0271042462399
 21
202.6359856269107
 31
0.0
  0
LINE
  5
B165
330
1A
100
AcDbEntity
  8
SEIHIN
100
AcDbLine
 10
516.32181537564
 20
177.9712002578107
 30
0.0
 11
511.4218153756397
 21
177.9712002578107
 31
0.0
  0
LINE
  5
B166
330
1A
100
AcDbEntity
  8
SEIHIN
100
AcDbLine
 10
511.4218153756397
 20
176.9712002578107
 30
0.0
 11
516.32181537564
 21
176.9712002578107
 31
0.0
  0
ARC
  5
B167
330
1A
100
AcDbEntity
  8
SEIHIN
100
AcDbCircle
 10
516.5290333175398
 20
173.4712002578107
 30
0.0
 40
8.000000000000012
100
AcDbArc
 50
90.0
 51
131.4096221093018
  0
LINE
  5
B168
330
1A
100
AcDbEntity
  8
SEIHIN
100
AcDbLine
 10
508.72002076794
 20
174.9712002578107
 30
0.0
 11
516.9468512016399
 21
174.9712002578107
 31
0.0
  0
LINE
  5
B169
330
1A
100
AcDbEntity
  8
SEIHIN
100
AcDbLine
 10
518.8218153756399
 20
179.4712002578107
 30
0.0
 11
510.8218153756399
 21
179.4712002578107
 31
0.0
  0
LINE
  5
B16A
330
1A
100
AcDbEntity
  8
SEIHIN
100
AcDbLine
 10
516.32181537564
 20
157.9712002578107
 30
0.0
 11
513.6689786567399
 21
157.9712002578107
 31
0.0
  0
ARC
  5
B16C
330
1A
100
AcDbEntity
  8
SEIHIN
100
AcDbCircle
 10
515.9779327580399
 20
153.4712002578107
 30
0.0
 40
2.000000000000031
100
AcDbArc
 50
90.0
 51
175.4499999999998
  0
LINE
  5
B171
330
1A
100
AcDbEntity
  8
SEIHIN
100
AcDbLine
 10
472.3768170533398
 20
86.47120025781081
 30
0.0
 11
555.4922692505399
 21
86.47120025781081
 31
0.0
  0
LINE
  5
B175
330
1A
100
AcDbEntity
  8
SEIHIN
100
AcDbLine
 10
432.3144359385397
 20
114.0011501145107
 30
0.0
 11
433.8132894267397
 21
115.4684685970107
 31
0.0
  0
LINE
  5
B176
330
1A
100
AcDbEntity
  8
SEIHIN
100
AcDbLine
 10
432.1163762954399
 20
114.2034663739108
 30
0.0
 11
422.9440565553399
 21
115.8122229147107
 31
0.0
  0
LINE
  5
B179
330
1A
100
AcDbEntity
  8
SEIHIN
100
AcDbLine
 10
433.8951136614397
 20
115.3389801830107
 30
0.0
 11
435.9255674013399
 21
102.1159475725108
 31
0.0
  0
LINE
  5
B17D
330
1A
100
AcDbEntity
  8
SEIHIN
100
AcDbLine
 10
438.0366756484399
 20
102.6429011324107
 30
0.0
 11
435.8007156732398
 21
117.2042630022107
 31
0.0
  0
ARC
  5
B17E
330
1A
100
AcDbEntity
  8
SEIHIN
100
AcDbCircle
 10
1366.40971218224
 20
446.1610100161108
 30
0.0
 40
1001.7
100
AcDbArc
 50
195.929907058399
 51
200.221404993501
  0
ARC
  5
B180
330
1A
100
AcDbEntity
  8
SEIHIN
100
AcDbCircle
 10
1366.40971218224
 20
446.1610100161108
 30
0.0
 40
1000.0
100
AcDbArc
 50
195.9435297083996
 51
200.1733866673992
  0
ARC
  5
B181
330
1A
100
AcDbEntity
  8
SEIHIN
100
AcDbCircle
 10
1366.40971218224
 20
446.1610100161108
 30
0.0
 40
1002.5
100
AcDbArc
 50
195.9235084710996
 51
200.2532671118002
  0
LINE
  5
B182
330
1A
100
AcDbEntity
  8
SEIHIN
100
AcDbLine
 10
513.18168868574
 20
153.6296331714108
 30
0.0
 11
508.2340786859399
 21
91.45798050271082
 31
0.0
  0
LINE
  5
B183
330
1A
100
AcDbEntity
  8
SEIHIN
100
AcDbLine
 10
511.6752816853399
 20
156.1298583382107
 30
0.0
 11
506.4830974463399
 21
90.88488650151077
 31
0.0
  0
LINE
  5
B185
330
1A
100
AcDbEntity
  8
SEIHIN
100
AcDbLine
 10
508.9752186605365
 20
90.68656390086898
 30
0.0
 11
513.9842357867398
 21
153.6298583382107
 31
0.0
  0
LINE
  5
B188
330
1A
100
AcDbEntity
  8
SEIHIN
100
AcDbLine
 10
504.98674429284
 20
96.03399258191082
 30
0.0
 11
508.9766133579398
 21
146.1706754888107
 31
0.0
  0
LINE
  5
B189
330
1A
100
AcDbEntity
  8
SEIHIN
100
AcDbLine
 10
506.5808051286398
 20
142.5355776351107
 30
0.0
 11
502.8156187388399
 21
95.22225656381079
 31
0.0
  0
LINE
  5
B18C
330
1A
100
AcDbEntity
  8
SEIHIN
100
AcDbLine
 10
502.80824083334
 20
174.9712002578107
 30
0.0
 11
495.6983230946399
 21
93.7044686351108
 31
0.0
  0
ARC
  5
B18E
330
1A
100
AcDbEntity
  8
SEIHIN
100
AcDbCircle
 10
472.3768170533398
 20
1088.97120025781
 30
0.0
 40
1001.7
100
AcDbArc
 50
268.0632183008987
 51
271.8308445329035
  0
ARC
  5
B18F
330
1A
100
AcDbEntity
  8
SEIHIN
100
AcDbCircle
 10
472.3768170533398
 20
1088.97120025781
 30
0.0
 40
1000.0
100
AcDbArc
 50
268.1104374228981
 51
271.8716128593973
  0
ARC
  5
B191
330
1A
100
AcDbEntity
  8
SEIHIN
100
AcDbCircle
 10
472.3768170533398
 20
1088.97120025781
 30
0.0
 40
1002.5
100
AcDbArc
 50
268.0319788418305
 51
271.8716128594114
  0
ARC
  5
B192
330
1A
100
AcDbEntity
  8
SEIHIN
100
AcDbCircle
 10
472.3768170533398
 20
1088.97120025781
 30
0.0
 40
998.166629660465
100
AcDbArc
 50
268.2264278634986
 51
269.6616071535983
  0
ARC
  5
B195
330
1A
100
AcDbEntity
  8
SEIHIN
100
AcDbCircle
 10
472.3768170533398
 20
1088.97120025781
 30
0.0
 40
996.0
100
AcDbArc
 50
268.2495256764996
 51
269.4983325271989
  0
LINE
  5
B199
330
1A
100
AcDbEntity
  8
SEIHIN
100
AcDbLine
 10
438.5073993970399
 20
101.2987691373108
 30
0.0
 11
496.3627382959398
 21
101.2987691373108
 31
0.0
  0
LWPOLYLINE
  5
B19B
330
1A
100
AcDbEntity
  8
SEIHIN
100
AcDbPolyline
 90
        3
 70
   128
 43
0.0
 10
439.29022961054
 20
92.6384783039108
 10
438.4109932527398
 20
91.43982112321081
 10
438.2593592191398
 20
91.2332065048108
  0
LINE
  5
B19D
330
1A
100
AcDbEntity
  8
SEIHIN
100
AcDbLine
 10
436.7051635509398
 20
89.17935654771083
 30
0.0
 11
433.4050564743399
 21
98.60267441111083
 31
0.0
  0
LINE
  5
B19E
330
1A
100
AcDbEntity
  8
SEIHIN
100
AcDbLine
 10
438.0374697606398
 20
90.51835941141082
 30
0.0
 11
434.4940444672399
 21
100.6364622758108
 31
0.0
  0
LINE
  5
B19F
330
1A
100
AcDbEntity
  8
SEIHIN
100
AcDbLine
 10
432.8379150141399
 20
97.80172429391081
 30
0.0
 11
436.1303558407533
 21
88.40029708707225
 31
0.0
  0
LWPOLYLINE
  5
B1A2
330
1A
100
AcDbEntity
  8
SEIHIN
100
AcDbPolyline
 90
        3
 70
   128
 43
0.0
 10
440.0347068163397
 20
89.94026941091082
 10
440.7914997343397
 20
90.96982227481081
 10
441.0627721431398
 20
91.33905520001082
  0
ARC
  5
B1A8
330
1A
100
AcDbEntity
  8
SEIHIN
100
AcDbCircle
 10
438.5897490254398
 20
89.83901642091081
 30
0.0
 40
1.996700668369981
100
AcDbArc
 50
199.2915346920991
 51
268.0722690395993
  0
ARC
  5
B1A9
330
1A
100
AcDbEntity
  8
SEIHIN
100
AcDbCircle
 10
439.4531661222399
 20
91.01414546561079
 30
0.0
 40
1.500000000000053
100
AcDbArc
 50
199.3005854308005
 51
268.1104374228981
  0
ARC
  5
B1AB
330
1A
100
AcDbEntity
  8
SEIHIN
100
AcDbCircle
 10
438.0179509896399
 20
89.06134515941079
 30
0.0
 40
2.000000000000096
100
AcDbArc
 50
199.3005854308005
 51
268.0319788417982
  0
LINE
  5
B1B8
330
1A
100
AcDbEntity
  8
SEIHIN
100
AcDbLine
 10
434.0221456800399
 20
100.9712002578108
 30
0.0
 11
428.2257296667398
 21
100.9712002578108
 31
0.0
  0
ARC
  5
B1B9
330
1A
100
AcDbEntity
  8
SEIHIN
100
AcDbCircle
 10
431.8941174397397
 20
97.47120025781081
 30
0.0
 40
1.000000000000199
100
AcDbArc
 50
19.30058543080056
 51
90.0
  0
LINE
  5
B1BB
330
1A
100
AcDbEntity
  8
SEIHIN
100
AcDbLine
 10
432.4625983330399
 20
99.27120025781078
 30
0.0
 11
427.3875675485398
 21
99.27120025781078
 31
0.0
  0
ARC
  5
B1BD
330
1A
100
AcDbEntity
  8
SEIHIN
100
AcDbCircle
 10
428.2257296667398
 20
101.4712002578108
 30
0.0
 40
0.500000000000024
100
AcDbArc
 50
200.1733866673992
 51
270.0
  0
ARC
  5
B1C5
330
1A
100
AcDbEntity
  8
SEIHIN
100
AcDbCircle
 10
427.3873990644398
 20
100.2695394499107
 30
0.0
 40
0.9983392063677035
100
AcDbArc
 50
200.2117355039007
 51
270.0096694895965
  0
ARC
  5
B1C7
330
1A
100
AcDbEntity
  8
SEIHIN
100
AcDbCircle
 10
426.8308566253399
 20
99.47120025781082
 30
0.0
 40
1.0
100
AcDbArc
 50
200.2532671118002
 51
270.0
  0
LINE
  5
B1CA
330
1A
100
AcDbEntity
  8
SEIHIN
100
AcDbLine
 10
426.8308566253399
 20
98.4712002578108
 30
0.0
 11
431.8941174397397
 21
98.4712002578108
 31
0.0
  0
LINE
  5
B1CC
330
1A
100
AcDbEntity
  8
SEIHIN
100
AcDbLine
 10
434.2053921442399
 20
101.6865747648108
 30
0.0
 11
432.3144359385397
 21
114.0011501145107
 31
0.0
  0
LINE
  5
B1CE
330
1A
100
AcDbEntity
  8
SEIHIN
100
AcDbLine
 10
441.0224740392397
 20
94.11707858791078
 30
0.0
 11
438.0366756484399
 21
102.6429011324107
 31
0.0
  0
LINE
  5
B1D3
330
1A
100
AcDbEntity
  8
SEIHIN
100
AcDbLine
 10
435.9255674013399
 20
102.1159475725108
 30
0.0
 11
435.8930522002398
 21
102.1078314558107
 31
0.0
  0
LINE
  5
B1D4
330
1A
100
AcDbEntity
  8
SEIHIN
100
AcDbLine
 10
432.6316026323399
 20
100.9712002578108
 30
0.0
 11
432.2823501447398
 21
100.9712002578108
 31
0.0
  0
ARC
  5
B1D6
330
1A
100
AcDbEntity
  8
SEIHIN
100
AcDbCircle
 10
434.0221456800399
 20
100.4712002578107
 30
0.0
 40
0.5
100
AcDbArc
 50
19.30058543080056
 51
90.0
  0
LINE
  5
B1D8
330
1A
100
AcDbEntity
  8
SEIHIN
100
AcDbLine
 10
434.3413137637401
 20
101.2984562598107
 30
0.0
 11
434.2053921442399
 21
101.6865747648108
 31
0.0
  0
LWPOLYLINE
  5
B1DA
330
1A
100
AcDbEntity
  8
SEIHIN
100
AcDbPolyline
 90
        9
 70
   128
 43
0.0
 10
434.1356853660399
 20
100.9581383849107
 10
434.1656604792398
 20
100.9592105601107
 10
434.1976322689399
 20
100.9755182203107
 10
434.2299273536397
 20
101.0062078340107
 10
434.2608554312398
 20
101.0496731281107
 10
434.2887977475399
 20
101.1036391593107
 10
434.3122918210398
 20
101.1652813830108
 10
434.3301079884398
 20
101.2313734882108
 10
434.3413137637401
 20
101.2984562598107
  0
LINE
  5
B1E2
330
1A
100
AcDbEntity
  8
SEIHIN
100
AcDbLine
 10
435.8930522002398
 20
102.1078314558107
 30
0.0
 11
434.2053921442399
 21
101.6865747648108
 31
0.0
  0
LINE
  5
B1E4
330
1A
100
AcDbEntity
  8
SEIHIN
100
AcDbLine
 10
435.9255674013399
 20
102.1159475725108
 30
0.0
 11
439.1102332623399
 21
93.02226727641082
 31
0.0
  0
ARC
  5
B1E7
330
1A
100
AcDbEntity
  8
SEIHIN
100
AcDbCircle
 10
441.9818604993399
 20
94.45159701841081
 30
0.0
 40
1.016033008103033
100
AcDbArc
 50
199.2916731759002
 51
268.2583655051018
  0
LWPOLYLINE
  5
B1EA
330
1A
100
AcDbEntity
  8
SEIHIN
100
AcDbPolyline
 90
        6
 70
   128
 43
0.0
 10
482.4859024557398
 20
93.02250359091081
 10
482.2611961751398
 20
93.02024812741079
 10
481.3835299692398
 20
93.01192442241079
 10
480.6301556550399
 20
93.0053964262108
 10
480.0859897664399
 20
93.00103571661081
 10
479.8123785964398
 20
92.99895545141081
  0
ARC
  5
B1EC
330
1A
100
AcDbEntity
  8
SEIHIN
100
AcDbCircle
 10
472.3768170533398
 20
1088.97120025781
 30
0.0
 40
998.1998334720938
100
AcDbArc
 50
270.3587865938008
 51
271.5832197655008
  0
ARC
  5
B1ED
330
1A
100
AcDbEntity
  8
SEIHIN
100
AcDbCircle
 10
472.3768170533398
 20
1088.97120025781
 30
0.0
 40
998.2000000000001
100
AcDbArc
 50
270.3587467058985
 51
271.5832197655008
  0
LINE
  5
B1EE
330
1A
100
AcDbEntity
  8
SEIHIN
100
AcDbLine
 10
479.5174705414399
 20
91.73527464841081
 30
0.0
 11
479.0453304436398
 21
90.99425521061078
 31
0.0
  0
LINE
  5
B1EF
330
1A
100
AcDbEntity
  8
SEIHIN
100
AcDbLine
 10
477.7416858714397
 20
92.6872891314108
 30
0.0
 11
477.4960647150398
 21
91.2712002578108
 31
0.0
  0
LINE
  5
B1F1
330
1A
100
AcDbEntity
  8
SEIHIN
100
AcDbLine
 10
466.6250524542398
 20
90.80152868701077
 30
0.0
 11
466.6250524542398
 21
92.68956303851078
 31
0.0
  0
LINE
  5
B1F2
330
1A
100
AcDbEntity
  8
SEIHIN
100
AcDbLine
 10
467.2575693917399
 20
91.2712002578108
 30
0.0
 11
467.0119482352399
 21
92.6872891314108
 31
0.0
  0
LINE
  5
B1F4
330
1A
100
AcDbEntity
  8
SEIHIN
100
AcDbLine
 10
472.3768170533398
 20
90.77120025781079
 30
0.0
 11
477.2877521014399
 21
90.77120025781079
 31
0.0
  0
LINE
  5
B1F5
330
1A
100
AcDbEntity
  8
SEIHIN
100
AcDbLine
 10
466.4816100042398
 20
90.82197939871079
 30
0.0
 11
466.6250524542398
 21
90.80152868701077
 31
0.0
  0
LINE
  5
B1F6
330
1A
100
AcDbEntity
  8
SEIHIN
100
AcDbLine
 10
467.2575693917399
 20
91.2712002578108
 30
0.0
 11
466.9002593013399
 21
91.2712002578108
 31
0.0
  0
LINE
  5
B1F7
330
1A
100
AcDbEntity
  8
SEIHIN
100
AcDbLine
 10
466.9002593013399
 20
91.2712002578108
 30
0.0
 11
466.9002593013399
 21
90.78622375531081
 31
0.0
  0
LINE
  5
B1F8
330
1A
100
AcDbEntity
  8
SEIHIN
100
AcDbLine
 10
466.6823726089398
 20
90.78744297531079
 30
0.0
 11
466.9002593013399
 21
90.78622375531081
 31
0.0
  0
LWPOLYLINE
  5
B1F9
330
1A
100
AcDbEntity
  8
SEIHIN
100
AcDbPolyline
 90
        5
 70
   128
 43
0.0
 10
466.9002593013399
 20
90.78622375531081
 10
466.9509442128398
 20
90.78594695861083
 10
467.05174865934
 20
90.78540410231079
 10
467.1913088218399
 20
90.78466934061077
 10
467.3518626125398
 20
90.7838481876108
  0
ARC
  5
B1FA
330
1A
100
AcDbEntity
  8
SEIHIN
100
AcDbCircle
 10
467.8627064804399
 20
91.38719433861082
 30
0.0
 40
0.6161538143059505
100
AcDbArc
 50
190.8509696908997
 51
268.6953306552995
  0
LINE
  5
B1FB
330
1A
100
AcDbEntity
  8
SEIHIN
100
AcDbLine
 10
467.35213366744
 20
90.7838468231108
 30
0.0
 11
467.4658820053397
 21
90.77120025781079
 31
0.0
  0
LINE
  5
B1FC
330
1A
100
AcDbEntity
  8
SEIHIN
100
AcDbLine
 10
467.35213366744
 20
90.7838468231108
 30
0.0
 11
467.3518626125398
 21
90.7838481876108
 31
0.0
  0
LINE
  5
B1FD
330
1A
100
AcDbEntity
  8
SEIHIN
100
AcDbLine
 10
467.4658820053397
 20
90.77120025781079
 30
0.0
 11
472.3768170533398
 21
90.77120025781079
 31
0.0
  0
LINE
  5
B1FE
330
1A
100
AcDbEntity
  8
SEIHIN
100
AcDbLine
 10
478.6268170534398
 20
90.79076691921079
 30
0.0
 11
478.6275109196398
 21
90.79093779521082
 31
0.0
  0
LINE
  5
B1FF
330
1A
100
AcDbEntity
  8
SEIHIN
100
AcDbLine
 10
477.8533748053398
 20
90.78622375531081
 30
0.0
 11
478.6268170533398
 21
90.79076691921079
 31
0.0
  0
LINE
  5
B200
330
1A
100
AcDbEntity
  8
SEIHIN
100
AcDbLine
 10
477.8533748053398
 20
90.78622375531081
 30
0.0
 11
477.8533748053398
 21
91.2712002578108
 31
0.0
  0
LINE
  5
B201
330
1A
100
AcDbEntity
  8
SEIHIN
100
AcDbLine
 10
477.8533748053398
 20
91.2712002578108
 30
0.0
 11
477.4960647150398
 21
91.2712002578108
 31
0.0
  0
LWPOLYLINE
  5
B202
330
1A
100
AcDbEntity
  8
SEIHIN
100
AcDbPolyline
 90
        5
 70
   128
 43
0.0
 10
477.4017714942399
 20
90.7838481876108
 10
477.5641839099398
 20
90.78467899781079
 10
477.7033650744399
 20
90.78541199681081
 10
477.8036223362398
 20
90.78595202751079
 10
477.8533748053398
 20
90.78622375531081
  0
LINE
  5
B203
330
1A
100
AcDbEntity
  8
SEIHIN
100
AcDbLine
 10
477.2877521014399
 20
90.77120025781079
 30
0.0
 11
477.4015004393399
 21
90.7838468231108
 31
0.0
  0
ARC
  5
B204
330
1A
100
AcDbEntity
  8
SEIHIN
100
AcDbCircle
 10
476.8923419726399
 20
91.3855222757108
 30
0.0
 40
0.6144515224599693
100
AcDbArc
 50
271.1763698310009
 51
349.2773298220997
  0
LINE
  5
B205
330
1A
100
AcDbEntity
  8
SEIHIN
100
AcDbLine
 10
477.4015004393399
 20
90.7838468231108
 30
0.0
 11
477.4017714942399
 21
90.7838481876108
 31
0.0
  0
LWPOLYLINE
  5
B207
330
1A
100
AcDbEntity
  8
SEIHIN
100
AcDbPolyline
 90
        6
 70
   128
 43
0.0
 10
466.3297261852398
 20
92.98955750921079
 10
466.2895645700397
 20
92.9898021598108
 10
465.9450104063398
 20
92.99196761121081
 10
465.3423978254399
 20
92.99604145801081
 10
464.5496623976398
 20
93.00195592841081
 10
463.6562023258399
 20
93.0093782592108
  0
ARC
  5
B209
330
1A
100
AcDbEntity
  8
SEIHIN
100
AcDbCircle
 10
466.3264920466398
 20
92.6910111071108
 30
0.0
 40
0.2985639192863163
100
AcDbArc
 50
359.7221079451
 51
89.37934189999989
  0
ARC
  5
B20B
330
1A
100
AcDbEntity
  8
SEIHIN
100
AcDbCircle
 10
466.6494046391398
 20
92.61877701771082
 30
0.0
 40
0.3689603892289042
100
AcDbArc
 50
10.70134128369989
 51
88.51086943529885
  0
LINE
  5
B20C
330
1A
100
AcDbEntity
  8
SEIHIN
100
AcDbLine
 10
466.3297261852398
 20
92.98955750921079
 30
0.0
 11
466.6589929254397
 21
92.98761279901077
 31
0.0
  0
LINE
  5
B20D
330
1A
100
AcDbEntity
  8
SEIHIN
100
AcDbLine
 10
479.5174705414399
 20
92.6989638114108
 30
0.0
 11
479.5174705414399
 21
91.73527464841081
 31
0.0
  0
ARC
  5
B20E
330
1A
100
AcDbEntity
  8
SEIHIN
100
AcDbCircle
 10
479.8160262667399
 20
92.70041846601079
 30
0.0
 40
0.2985592690801428
100
AcDbArc
 50
90.70003291809612
 51
180.2791603123999
  0
ARC
  5
B210
330
1A
100
AcDbEntity
  8
SEIHIN
100
AcDbCircle
 10
478.1050878360399
 20
92.61776822041076
 30
0.0
 40
0.3699920876221695
100
AcDbArc
 50
91.61795022919612
 51
169.1698390516998
  0
ARC
  5
B211
330
1A
100
AcDbEntity
  8
SEIHIN
100
AcDbCircle
 10
472.3768170533398
 20
1088.97120025781
 30
0.0
 40
996.0
100
AcDbArc
 50
270.3289246887982
 51
270.4277412169031
  0
LWPOLYLINE
  5
B215
330
1A
100
AcDbEntity
  8
SEIHIN
100
AcDbPolyline
 90
        3
 70
   128
 43
0.0
 10
502.0733977369399
 20
91.7110417712108
 10
503.3903264940398
 20
90.33121656241078
 10
503.7920363412399
 20
89.91069314091081
  0
ARC
  5
B21A
330
1A
100
AcDbEntity
  8
SEIHIN
100
AcDbCircle
 10
504.25342660724
 20
91.7737107015108
 30
0.0
 40
3.993153707298418
100
AcDbArc
 50
271.8158340138964
 51
355.4650105190002
  0
ARC
  5
B21B
330
1A
100
AcDbEntity
  8
SEIHIN
100
AcDbCircle
 10
504.9878247178398
 20
91.00388006181081
 30
0.0
 40
1.500000000000043
100
AcDbArc
 50
271.8716128593973
 51
355.4499999999998
  0
ARC
  5
B21E
330
1A
100
AcDbEntity
  8
SEIHIN
100
AcDbCircle
 10
504.9878247178398
 20
91.00388006181081
 30
0.0
 40
4.000000000000147
100
AcDbArc
 50
271.8716128593973
 51
355.4499999999998
  0
ARC
  5
B226
330
1A
100
AcDbEntity
  8
SEIHIN
100
AcDbCircle
 10
499.8882150225399
 20
93.77786825891082
 30
0.0
 40
2.626319451039047
100
AcDbArc
 50
271.4779718591965
 51
294.1144246346011
  0
ARC
  5
B22D
330
1A
100
AcDbEntity
  8
SEIHIN
100
AcDbCircle
 10
472.3768170533398
 20
1088.97120025781
 30
0.0
 40
996.0
100
AcDbArc
 50
270.5815440496008
 51
271.6396817581018
  0
ARC
  5
B230
330
1A
100
AcDbEntity
  8
SEIHIN
100
AcDbCircle
 10
490.7173496041397
 20
94.14024734881079
 30
0.0
 40
5.000000000000016
100
AcDbArc
 50
349.6602318669005
 51
354.9999999999997
  0
LWPOLYLINE
  5
B231
330
1A
100
AcDbEntity
  8
SEIHIN
100
AcDbPolyline
 90
        3
 70
   128
 43
0.0
 10
506.13628153404
 20
92.14508027171078
 10
505.7355149183399
 20
92.56563316931082
 10
504.4238991285398
 20
93.9432257111108
  0
LINE
  5
B232
330
1A
100
AcDbEntity
  8
SEIHIN
100
AcDbLine
 10
500.70786550364
 20
93.3742179484108
 30
0.0
 11
500.90202348614
 21
93.38466638721078
 31
0.0
  0
ARC
  5
B234
330
1A
100
AcDbEntity
  8
SEIHIN
100
AcDbCircle
 10
500.8191889483398
 20
95.38093639651078
 30
0.0
 40
2.002725932215169
100
AcDbArc
 50
271.6396292790006
 51
355.4500669067
  0
LINE
  5
B238
330
1A
100
AcDbEntity
  8
SEIHIN
100
AcDbLine
 10
406.8768170533398
 20
171.4712002578107
 30
0.0
 11
502.5020305110398
 21
171.4712002578107
 31
0.0
  0
LINE
  5
B239
330
1A
100
AcDbEntity
  8
SEIHIN
100
AcDbLine
 10
403.8768170533398
 20
178.9712002578107
 30
0.0
 11
509.5372921177399
 21
178.9712002578107
 31
0.0
  0
ARC
  5
B23F
330
1A
100
AcDbEntity
  8
SEIHIN
100
AcDbCircle
 10
415.5342449382398
 20
147.3482526132108
 30
0.0
 40
0.6225463760158851
100
AcDbArc
 50
38.38697025990067
 51
81.94341043410059
  0
ARC
  5
B241
330
1A
100
AcDbEntity
  8
SEIHIN
100
AcDbCircle
 10
1366.40971218224
 20
446.1610100161108
 30
0.0
 40
998.1666296604652
100
AcDbArc
 50
197.4201641919997
 51
199.2114267482003
  0
LINE
  5
B245
330
1A
100
AcDbEntity
  8
SEIHIN
100
AcDbLine
 10
413.9738776340399
 20
147.4469848551107
 30
0.0
 11
414.0239675040399
 21
147.3332771976108
 31
0.0
  0
LINE
  5
B248
330
1A
100
AcDbEntity
  8
SEIHIN
100
AcDbLine
 10
415.6214954946398
 20
147.9646545362107
 30
0.0
 11
415.35652709084
 21
147.9646545362107
 31
0.0
  0
LINE
  5
B249
330
1A
100
AcDbEntity
  8
SEIHIN
100
AcDbLine
 10
413.7911245101399
 20
147.9646545362107
 30
0.0
 11
413.9164279570397
 21
147.5646545362108
 31
0.0
  0
LINE
  5
B24A
330
1A
100
AcDbEntity
  8
SEIHIN
100
AcDbLine
 10
415.35652709084
 20
147.9646545362107
 30
0.0
 11
413.7911245101399
 21
147.9646545362107
 31
0.0
  0
LWPOLYLINE
  5
B24B
330
1A
100
AcDbEntity
  8
SEIHIN
100
AcDbPolyline
 90
        3
 70
   128
 43
0.0
 10
412.3594984932398
 20
148.0050061466108
 10
412.5970996355398
 20
147.9656055371107
 10
412.6407012108399
 20
147.9646545362107
  0
LINE
  5
B24C
330
1A
100
AcDbEntity
  8
SEIHIN
100
AcDbLine
 10
413.7911245101399
 20
147.9646545362107
 30
0.0
 11
412.6407012108399
 21
147.9646545362107
 31
0.0
  0
ARC
  5
B24D
330
1A
100
AcDbEntity
  8
SEIHIN
100
AcDbCircle
 10
412.6407012108399
 20
148.9646545362107
 30
0.0
 40
0.9999999999940168
100
AcDbArc
 50
197.3071399159992
 51
253.6680002378978
  0
ARC
  5
B24F
330
1A
100
AcDbEntity
  8
SEIHIN
100
AcDbCircle
 10
1366.40971218224
 20
446.1610100161108
 30
0.0
 40
996.0
100
AcDbArc
 50
197.6244149759994
 51
199.1382231888002
  0
LINE
  5
B251
330
1A
100
AcDbEntity
  8
SEIHIN
100
AcDbLine
 10
435.3928859072399
 20
117.6208576780108
 30
0.0
 11
425.8442131480398
 21
119.2956237341108
 31
0.0
  0
LINE
  5
B252
330
1A
100
AcDbEntity
  8
SEIHIN
100
AcDbLine
 10
424.21578288774
 20
117.3815355121107
 30
0.0
 11
433.48751027874
 21
115.7553436100108
 31
0.0
  0
LINE
  5
B258
330
1A
100
AcDbEntity
  8
SEIHIN
100
AcDbLine
 10
423.8051047517398
 20
117.6799693902107
 30
0.0
 11
423.8051584005399
 21
117.6798154404107
 31
0.0
  0
ARC
  5
B259
330
1A
100
AcDbEntity
  8
SEIHIN
100
AcDbCircle
 10
417.9760800134399
 20
115.6175527130108
 30
0.0
 40
4.915550046620798
100
AcDbArc
 50
4.530046576200009
 51
8.457353373200067
  0
LINE
  5
B25A
330
1A
100
AcDbEntity
  8
SEIHIN
100
AcDbLine
 10
422.8762741362399
 20
116.0057920970107
 30
0.0
 11
422.9440565553399
 21
115.8122229147107
 31
0.0
  0
LINE
  5
B25B
330
1A
100
AcDbEntity
  8
SEIHIN
100
AcDbLine
 10
422.4174458081399
 20
116.1934342971107
 30
0.0
 11
422.8381764394399
 21
116.3404984960107
 31
0.0
  0
LWPOLYLINE
  5
B25D
330
1A
100
AcDbEntity
  8
SEIHIN
100
AcDbPolyline
 90
        9
 70
   128
 43
0.0
 10
422.6357551253399
 20
115.5695431251107
 10
422.6332680678399
 20
115.5997805366108
 10
422.6453457071399
 20
115.6335334347107
 10
422.6713721631399
 20
115.6690806442107
 10
422.7100202584399
 20
115.7046094921107
 10
422.7593191952398
 20
115.7383082415107
 10
422.8167550529398
 20
115.7684584786108
 10
422.8793989820398
 20
115.7935227403108
 10
422.9440565553399
 20
115.8122229147107
  0
LWPOLYLINE
  5
B260
330
1A
100
AcDbEntity
  8
SEIHIN
100
AcDbPolyline
 90
        4
 70
   128
 43
0.0
 10
423.8697034399399
 20
117.5548508448108
 10
423.8548213282398
 20
117.5373381251107
 10
423.2709115244398
 20
116.8500514207108
 10
422.8381764394399
 20
116.3404984960107
  0
ARC
  5
B263
330
1A
100
AcDbEntity
  8
SEIHIN
100
AcDbCircle
 10
425.9305908865398
 20
119.7881061057108
 30
0.0
 40
0.499999999999899
100
AcDbArc
 50
199.1382231888002
 51
260.051932871701
  0
ARC
  5
B26A
330
1A
100
AcDbEntity
  8
SEIHIN
100
AcDbCircle
 10
435.3065081686399
 20
117.1283753065107
 30
0.0
 40
0.5000000000000308
100
AcDbArc
 50
8.729827134799942
 51
80.05193287170111
  0
LINE
  5
B26E
330
1A
100
AcDbEntity
  8
SEIHIN
100
AcDbLine
 10
433.4581607417398
 20
115.7266115701108
 30
0.0
 11
433.4579645845399
 21
115.7266459747107
 31
0.0
  0
LINE
  5
B26F
330
1A
100
AcDbEntity
  8
SEIHIN
100
AcDbLine
 10
433.8657943506397
 20
115.3100512989107
 30
0.0
 11
433.8657641243398
 21
115.3102481432108
 31
0.0
  0
LWPOLYLINE
  5
B272
330
1A
100
AcDbEntity
  8
SEIHIN
100
AcDbPolyline
 90
        4
 70
   128
 43
0.0
 10
417.1602242421399
 20
144.5960756396107
 10
417.1000712859399
 20
144.7854872853108
 10
416.8171451121399
 20
145.6781376838108
 10
416.5719673290399
 20
146.4540557220107
  0
LWPOLYLINE
  5
B274
330
1A
100
AcDbEntity
  8
SEIHIN
100
AcDbPolyline
 90
        3
 70
   128
 43
0.0
 10
416.3227691540398
 20
147.2449671424108
 10
416.2025903643399
 20
147.5047101277108
 10
416.0222183859398
 20
147.7348349518107
  0
LINE
  5
B275
330
1A
100
AcDbEntity
  8
SEIHIN
100
AcDbLine
 10
416.3227691540398
 20
147.2449671424108
 30
0.0
 11
416.5719673290399
 21
146.4540557220107
 31
0.0
  0
LINE
  5
B276
330
1A
100
AcDbEntity
  8
SEIHIN
100
AcDbLine
 10
391.9650353940398
 20
179.3176824255107
 30
0.0
 11
387.0768170533398
 21
194.4693673964108
 31
0.0
  0
LINE
  5
B277
330
1A
100
AcDbEntity
  8
SEIHIN
100
AcDbLine
 10
388.9824410215398
 20
194.4624615688107
 30
0.0
 11
393.9802130718179
 21
178.9712002578107
 31
0.0
  0
LINE
  5
B279
330
1A
100
AcDbEntity
  8
SEIHIN
100
AcDbLine
 10
390.8389880793399
 20
177.2712002578107
 30
0.0
 11
385.3665156195399
 21
194.2338588264108
 31
0.0
  0
LINE
  5
B27A
330
1A
100
AcDbEntity
  8
SEIHIN
100
AcDbLine
 10
384.5663806935398
 20
194.1084232881107
 30
0.0
 11
390.2564803268398
 21
176.4712002578107
 31
0.0
  0
LINE
  5
B27D
330
1A
100
AcDbEntity
  8
SEIHIN
100
AcDbLine
 10
402.6775266510398
 20
177.2712002578107
 30
0.0
 11
390.8389880793399
 21
177.2712002578107
 31
0.0
  0
LINE
  5
B27F
330
1A
100
AcDbEntity
  8
SEIHIN
100
AcDbLine
 10
390.2564803268398
 20
176.4712002578107
 30
0.0
 11
401.8768170533398
 21
176.4712002578107
 31
0.0
  0
LINE
  5
B280
330
1A
100
AcDbEntity
  8
SEIHIN
100
AcDbLine
 10
403.8768170533398
 20
178.9712002578107
 30
0.0
 11
392.44088439874
 21
178.9712002578107
 31
0.0
  0
ARC
  5
B284
330
1A
100
AcDbEntity
  8
SEIHIN
100
AcDbCircle
 10
392.44088439874
 20
179.4712002578107
 30
0.0
 40
0.5000000000000564
100
AcDbArc
 50
197.8806763596997
 51
270.0
  0
LINE
  5
B286
330
1A
100
AcDbEntity
  8
SEIHIN
100
AcDbLine
 10
396.83644917394
 20
178.9712002578107
 30
0.0
 11
392.44088439874
 21
178.9712002578107
 31
0.0
  0
LINE
  5
B287
330
1A
100
AcDbEntity
  8
SEIHIN
100
AcDbLine
 10
403.1768170533397
 20
171.2332381530108
 30
0.0
 11
403.1768170533397
 21
176.7719098554108
 31
0.0
  0
LINE
  5
B288
330
1A
100
AcDbEntity
  8
SEIHIN
100
AcDbLine
 10
404.8768170533397
 20
171.4712002578107
 30
0.0
 11
404.8768170533397
 21
177.9712002578107
 31
0.0
  0
LINE
  5
B289
330
1A
100
AcDbEntity
  8
SEIHIN
100
AcDbLine
 10
406.8768170533398
 20
177.9712002578107
 30
0.0
 11
406.8768170533398
 21
171.4712002578107
 31
0.0
  0
LINE
  5
B28B
330
1A
100
AcDbEntity
  8
SEIHIN
100
AcDbLine
 10
402.3768170533398
 20
175.9712002578107
 30
0.0
 11
402.3768170533398
 21
171.1213272257107
 31
0.0
  0
ARC
  5
B28C
330
1A
100
AcDbEntity
  8
SEIHIN
100
AcDbCircle
 10
405.8397745114399
 20
175.0830857801107
 30
0.0
 40
3.742504824337426
100
AcDbArc
 50
255.1125030489998
 51
284.8874969510001
  0
LINE
  5
B28D
330
1A
100
AcDbEntity
  8
SEIHIN
100
AcDbLine
 10
406.8768170533398
 20
171.4712002578107
 30
0.0
 11
406.80130598054
 21
171.4662087302108
 31
0.0
  0
ARC
  5
B290
330
1A
100
AcDbEntity
  8
SEIHIN
100
AcDbCircle
 10
403.8768170533398
 20
177.9712002578107
 30
0.0
 40
1.0
100
AcDbArc
 50
0.0
 51
90.0
  0
ARC
  5
B296
330
1A
100
AcDbEntity
  8
SEIHIN
100
AcDbCircle
 10
401.8768170533398
 20
175.9712002578107
 30
0.0
 40
0.5000000000000569
100
AcDbArc
 50
0.0000000001001493
 51
90.0
  0
LINE
  5
B298
330
1A
100
AcDbEntity
  8
SEIHIN
100
AcDbLine
 10
387.0768170533398
 20
194.4693673964108
 30
0.0
 11
387.0768170533398
 21
199.9384899775108
 31
0.0
  0
LINE
  5
B299
330
1A
100
AcDbEntity
  8
SEIHIN
100
AcDbLine
 10
389.0768170533397
 20
201.3741716190931
 30
0.0
 11
389.0768170533398
 21
194.4693673964108
 31
0.0
  0
LINE
  5
B29A
330
1A
100
AcDbEntity
  8
SEIHIN
100
AcDbLine
 10
385.3665156195399
 20
194.2338588264108
 30
0.0
 11
385.3713725451399
 21
198.7645937017108
 31
0.0
  0
LINE
  5
B29C
330
1A
100
AcDbEntity
  8
SEIHIN
100
AcDbLine
 10
384.57154945054
 20
198.9300469364108
 30
0.0
 11
384.5663806935398
 21
194.1084232881107
 31
0.0
  0
LINE
  5
B29F
330
1A
100
AcDbEntity
  8
SEIHIN
100
AcDbLine
 10
392.0627362301399
 20
200.7521051239107
 30
0.0
 11
388.88123015534
 21
201.4149188895107
 31
0.0
  0
LINE
  5
B2A1
330
1A
100
AcDbEntity
  8
SEIHIN
100
AcDbLine
 10
393.97540841374
 20
201.8858380863107
 30
0.0
 11
390.1928695854398
 21
202.6738670089108
 31
0.0
  0
LINE
  5
B2A2
330
1A
100
AcDbEntity
  8
SEIHIN
100
AcDbLine
 10
396.52555611014
 20
202.6359856269107
 30
0.0
 11
390.3747002188399
 21
202.6359856269107
 31
0.0
  0
LINE
  5
B2A6
330
1A
100
AcDbEntity
  8
SEIHIN
100
AcDbLine
 10
390.1928695854398
 20
202.6738670089108
 30
0.0
 11
389.6654645028399
 21
202.7837430678108
 31
0.0
  0
LINE
  5
B2A7
330
1A
100
AcDbEntity
  8
SEIHIN
100
AcDbLine
 10
389.6654645028399
 20
202.7837430678108
 30
0.0
 11
389.3873641686399
 21
202.8416806374107
 31
0.0
  0
ARC
  5
B2AB
330
1A
100
AcDbEntity
  8
SEIHIN
100
AcDbCircle
 10
388.57154715224
 20
198.9257589584108
 30
0.0
 40
4.000000000000044
100
AcDbArc
 50
78.23171106800072
 51
179.938579228
  0
ARC
  5
B2AC
330
1A
100
AcDbEntity
  8
SEIHIN
100
AcDbCircle
 10
396.7784266363398
 20
202.2022121304107
 30
0.0
 40
0.4999999999999793
100
AcDbArc
 50
24.9999999999999
 51
114.9999999999996
  0
ARC
  5
B2AD
330
1A
100
AcDbEntity
  8
SEIHIN
100
AcDbCircle
 10
395.4189649558399
 20
201.5682847378108
 30
0.0
 40
2.000000000000051
100
AcDbArc
 50
294.9999999999996
 51
24.9999999999999
  0
LINE
  5
B2AE
330
1A
100
AcDbEntity
  8
SEIHIN
100
AcDbLine
 10
396.5671175055399
 20
202.6553660239108
 30
0.0
 11
395.2285534454399
 21
202.0311833517108
 31
0.0
  0
ARC
  5
B2AF
330
1A
100
AcDbEntity
  8
SEIHIN
100
AcDbCircle
 10
391.9683437401399
 20
203.2693673964108
 30
0.0
 40
5.000000000000016
100
AcDbArc
 50
270.0
 51
294.9999999999996
  0
LINE
  5
B2B0
330
1A
100
AcDbEntity
  8
SEIHIN
100
AcDbLine
 10
391.5768170533398
 20
198.2693673964108
 30
0.0
 11
391.9683437401399
 21
198.2693673964108
 31
0.0
  0
LINE
  5
B2B1
330
1A
100
AcDbEntity
  8
SEIHIN
100
AcDbLine
 10
392.0627362301399
 20
200.7521051239107
 30
0.0
 11
391.5768170533398
 21
198.2693673964108
 31
0.0
  0
ARC
  5
B2B2
330
1A
100
AcDbEntity
  8
SEIHIN
100
AcDbCircle
 10
394.3833169219398
 20
203.8437989258107
 30
0.0
 40
2.000000000000066
100
AcDbArc
 50
258.2317110680007
 51
294.9999999999996
  0
LINE
  5
B2B3
330
1A
100
AcDbEntity
  8
SEIHIN
100
AcDbLine
 10
394.0814350488398
 20
198.7378284612108
 30
0.0
 11
396.2642014793397
 21
199.7556691637108
 31
0.0
  0
LINE
  5
B2B6
330
1A
100
AcDbEntity
  8
SEIHIN
100
AcDbLine
 10
510.8218153756399
 20
168.4940826340107
 30
0.0
 11
510.8218153756399
 21
153.9104251373108
 31
0.0
  0
LINE
  5
B2B7
330
1A
100
AcDbEntity
  8
SEIHIN
100
AcDbLine
 10
509.1599919530398
 20
147.9713600464107
 30
0.0
 11
510.8218153756399
 21
168.4940826340107
 31
0.0
  0
ARC
  5
B2B8
330
1A
100
AcDbEntity
  8
SEIHIN
100
AcDbCircle
 10
510.1024530618398
 20
148.9714226646108
 30
0.0
 40
0.9999999999999815
100
AcDbArc
 50
270.0041251177969
 51
299.1130042254992
  0
ARC
  5
B2B9
330
1A
100
AcDbEntity
  8
SEIHIN
100
AcDbCircle
 10
510.1024530618398
 20
148.9714226646108
 30
0.0
 40
1.000000000000283
100
AcDbArc
 50
299.1130042254992
 51
355.4499999999998
  0
LINE
  5
B2BA
330
1A
100
AcDbEntity
  8
SEIHIN
100
AcDbLine
 10
506.8798596743398
 20
142.5117789231108
 30
0.0
 11
507.5820767321399
 21
142.5118294805108
 31
0.0
  0
LINE
  5
B2BB
330
1A
100
AcDbEntity
  8
SEIHIN
100
AcDbLine
 10
508.9766133579398
 20
146.1706754888107
 30
0.0
 11
508.2599194477399
 21
145.4536203178108
 31
0.0
  0
LINE
  5
B2BC
330
1A
100
AcDbEntity
  8
SEIHIN
100
AcDbLine
 10
506.8798596743398
 20
142.5117789231108
 30
0.0
 11
506.5808051286398
 21
142.5355776351107
 31
0.0
  0
LINE
  5
B2BE
330
1A
100
AcDbEntity
  8
SEIHIN
100
AcDbLine
 10
508.2599194477399
 20
145.4536203178108
 30
0.0
 11
507.7380759291399
 21
145.4535827466108
 31
0.0
  0
LINE
  5
B2C0
330
1A
100
AcDbEntity
  8
SEIHIN
100
AcDbLine
 10
506.7137866290399
 20
144.2066227765108
 30
0.0
 11
506.5808051286398
 21
142.5355776351107
 31
0.0
  0
ARC
  5
B2C2
330
1A
100
AcDbEntity
  8
SEIHIN
100
AcDbCircle
 10
508.1133458613398
 20
144.1011545329107
 30
0.0
 40
1.403527554150419
100
AcDbArc
 50
105.5081978213989
 51
175.6904395201
  0
ARC
  5
B2C3
330
1A
100
AcDbEntity
  8
SEIHIN
100
AcDbCircle
 10
507.7322016632399
 20
147.3570384573108
 30
0.0
 40
0.6263843027549889
100
AcDbArc
 50
101.3172242662992
 51
147.909058665299
  0
LINE
  5
B2C4
330
1A
100
AcDbEntity
  8
SEIHIN
100
AcDbLine
 10
507.9384328210398
 20
147.9712668593107
 30
0.0
 11
507.60927942644
 21
147.9712431613107
 31
0.0
  0
LINE
  5
B2C6
330
1A
100
AcDbEntity
  8
SEIHIN
100
AcDbLine
 10
506.93853353814
 20
147.0307917746108
 30
0.0
 11
506.7137866290399
 21
144.2066227765108
 31
0.0
  0
LINE
  5
B2C7
330
1A
100
AcDbEntity
  8
SEIHIN
100
AcDbLine
 10
509.2203394256397
 20
147.9713646501107
 30
0.0
 11
507.9384328210398
 21
147.9712668593107
 31
0.0
  0
LINE
  5
B2C8
330
1A
100
AcDbEntity
  8
SEIHIN
100
AcDbLine
 10
509.12484263604
 20
146.7713522740107
 30
0.0
 11
509.2203394256397
 21
147.9713646501107
 31
0.0
  0
LINE
  5
B2C9
330
1A
100
AcDbEntity
  8
SEIHIN
100
AcDbLine
 10
509.12484263604
 20
146.7713522740107
 30
0.0
 11
508.9766133579398
 21
146.1706754888107
 31
0.0
  0
LINE
  5
B2CA
330
1A
100
AcDbEntity
  8
SEIHIN
100
AcDbLine
 10
510.1025250587398
 20
147.9714226672107
 30
0.0
 11
509.2203394256397
 21
147.9713646501107
 31
0.0
  0
ARC
  5
B2CB
330
1A
100
AcDbEntity
  8
SEIHIN
100
AcDbCircle
 10
513.6689786567399
 20
155.9712002578107
 30
0.0
 40
2.000000000000031
100
AcDbArc
 50
90.0
 51
175.4499999999998
  0
LINE
  5
B2CE
330
1A
100
AcDbEntity
  8
SEIHIN
100
AcDbLine
 10
510.8218153756399
 20
153.4711974067108
 30
0.0
 11
510.8218153756399
 21
153.9104251373108
 31
0.0
  0
ARC
  5
B2CF
330
1A
100
AcDbEntity
  8
SEIHIN
100
AcDbCircle
 10
512.8218153756399
 20
153.4712002578107
 30
0.0
 40
2.000000000000043
100
AcDbArc
 50
180.0000816780998
 51
222.8469943445999
  0
ARC
  5
B2D0
330
1A
100
AcDbEntity
  8
SEIHIN
100
AcDbCircle
 10
514.47838134734
 20
153.3673047814107
 30
0.0
 40
3.696681542451687
100
AcDbArc
 50
171.5514608435997
 51
210.8460265877993
  0
LINE
  5
B2D1
330
1A
100
AcDbEntity
  8
SEIHIN
100
AcDbLine
 10
510.8218153756399
 20
168.4940826340107
 30
0.0
 11
510.8218153756399
 21
172.9712002578107
 31
0.0
  0
LINE
  5
B2D2
330
1A
100
AcDbEntity
  8
SEIHIN
100
AcDbLine
 10
508.8218153756399
 20
174.9712002578107
 30
0.0
 11
502.80824083334
 21
174.9712002578107
 31
0.0
  0
LINE
  5
B2D3
330
1A
100
AcDbEntity
  8
SEIHIN
100
AcDbLine
 10
511.4218153756397
 20
175.6712002578108
 30
0.0
 11
511.4218153756397
 21
177.9712002578107
 31
0.0
  0
LINE
  5
B2D4
330
1A
100
AcDbEntity
  8
SEIHIN
100
AcDbLine
 10
510.8218153756399
 20
175.6712002578108
 30
0.0
 11
511.4218153756397
 21
175.6712002578108
 31
0.0
  0
ARC
  5
B2D6
330
1A
100
AcDbEntity
  8
SEIHIN
100
AcDbCircle
 10
510.8218153756399
 20
177.5712002578108
 30
0.0
 40
1.900000000000034
100
AcDbArc
 50
180.0
 51
270.0
  0
ARC
  5
B2D7
330
1A
100
AcDbEntity
  8
SEIHIN
100
AcDbCircle
 10
510.8218153756399
 20
177.5712002578108
 30
0.0
 40
1.899999999999976
100
AcDbArc
 50
90.0
 51
180.0
  0
ARC
  5
B2D8
330
1A
100
AcDbEntity
  8
SEIHIN
100
AcDbCircle
 10
508.8218153756399
 20
172.9712002578107
 30
0.0
 40
2.000000000000114
100
AcDbArc
 50
0.0
 51
90.0
  0
LWPOLYLINE
  5
B2DA
330
1A
100
AcDbEntity
  8
SEIHIN
100
AcDbPolyline
 90
        5
 70
   128
 43
0.0
 10
526.4202610702398
 20
93.71057302271081
 10
526.4164210547399
 20
96.99271921271083
 10
526.37148273874
 20
136.8591969185108
 10
526.3557971059399
 20
151.4712002578107
 10
526.3547357534398
 20
152.4742471336107
  0
LINE
  5
B2DD
330
1A
100
AcDbEntity
  8
SEIHIN
100
AcDbLine
 10
575.8218153756399
 20
153.6296331714108
 30
0.0
 11
575.8218153756399
 21
91.45798050271082
 31
0.0
  0
LINE
  5
B2E0
330
1A
100
AcDbEntity
  8
SEIHIN
100
AcDbLine
 10
555.4922692505399
 20
87.0060139819108
 30
0.0
 11
533.3959905120398
 21
87.0060139819108
 31
0.0
  0
ARC
  5
B2E4
330
1A
100
AcDbEntity
  8
SEIHIN
100
AcDbCircle
 10
534.3718516333399
 20
94.55827571991079
 30
0.0
 40
7.996648819675248
100
AcDbArc
 50
186.0852012503003
 51
218.554681634602
  0
ARC
  5
B2E6
330
1A
100
AcDbEntity
  8
SEIHIN
100
AcDbCircle
 10
533.42634896084
 20
93.77514013521082
 30
0.0
 40
6.769194229374835
100
AcDbArc
 50
218.3589250312999
 51
269.7430393099012
  0
ARC
  5
B2EA
330
1A
100
AcDbEntity
  8
SEIHIN
100
AcDbCircle
 10
555.4922692505399
 20
286.4712002578107
 30
0.0
 40
200.0
100
AcDbArc
 50
270.0
 51
273.0528825147989
  0
LINE
  5
B2EC
330
1A
100
AcDbEntity
  8
SEIHIN
100
AcDbLine
 10
566.1437978337401
 20
87.28158066551079
 30
0.0
 11
555.4922692505399
 21
87.0060139819108
 31
0.0
  0
LINE
  5
B2EF
330
1A
100
AcDbEntity
  8
SEIHIN
100
AcDbLine
 10
566.1437978337401
 20
86.75503932221079
 30
0.0
 11
575.8218153756399
 21
87.27120025781079
 31
0.0
  0
LWPOLYLINE
  5
B2F1
330
1A
100
AcDbEntity
  8
SEIHIN
100
AcDbPolyline
 90
        3
 70
   128
 43
0.0
 10
575.8218153756399
 20
87.78256218971078
 10
567.84228555504
 20
87.36948715061078
 10
566.1437978337401
 20
87.28158066551079
  0
LINE
  5
B2F4
330
1A
100
AcDbEntity
  8
SEIHIN
100
AcDbLine
 10
575.8218153756399
 20
91.45798050271082
 30
0.0
 11
575.8218153756399
 21
87.78256218971078
 31
0.0
  0
LINE
  5
B2F5
330
1A
100
AcDbEntity
  8
SEIHIN
100
AcDbLine
 10
575.8218153756399
 20
87.78256218971078
 30
0.0
 11
575.8218153756399
 21
87.27120025781079
 31
0.0
  0
LINE
  5
B2F8
330
1A
100
AcDbEntity
  8
SEIHIN
100
AcDbLine
 10
518.3218153756399
 20
175.9612251335107
 30
0.0
 11
518.3218153756399
 21
159.9712002578107
 31
0.0
  0
LINE
  5
B2F9
330
1A
100
AcDbEntity
  8
SEIHIN
100
AcDbLine
 10
520.82181537564
 20
157.4712002578107
 30
0.0
 11
520.82181537564
 21
177.4712002578107
 31
0.0
  0
LINE
  5
B2FA
330
1A
100
AcDbEntity
  8
SEIHIN
100
AcDbLine
 10
535.2249351472399
 20
157.4712002578107
 30
0.0
 11
536.19166649004
 21
177.4712002578107
 31
0.0
  0
LINE
  5
B2FB
330
1A
100
AcDbEntity
  8
SEIHIN
100
AcDbLine
 10
575.8218153756399
 20
157.4712002578107
 30
0.0
 11
575.8218153756399
 21
177.4712002578107
 31
0.0
  0
LINE
  5
B2FD
330
1A
100
AcDbEntity
  8
SEIHIN
100
AcDbLine
 10
525.11073068164
 20
172.9712002578107
 30
0.0
 11
526.1761424287398
 21
153.4712002578107
 31
0.0
  0
LWPOLYLINE
  5
B2FE
330
1A
100
AcDbEntity
  8
SEIHIN
100
AcDbPolyline
 90
        3
 70
   128
 43
0.0
 10
531.07807942674
 20
153.9104251373108
 10
530.6052062457399
 20
159.8928874054107
 10
530.1927420602399
 20
168.4940826340107
  0
LINE
  5
B2FF
330
1A
100
AcDbEntity
  8
SEIHIN
100
AcDbLine
 10
535.2249351472399
 20
157.4712002578107
 30
0.0
 11
575.8218153756399
 21
157.4712002578107
 31
0.0
  0
LINE
  5
B301
330
1A
100
AcDbEntity
  8
SEIHIN
100
AcDbLine
 10
555.4922692505399
 20
153.6298583382107
 30
0.0
 11
535.0392578656399
 21
153.6298583382107
 31
0.0
  0
LINE
  5
B305
330
1A
100
AcDbEntity
  8
SEIHIN
100
AcDbLine
 10
527.86109364864
 20
151.4712002578107
 30
0.0
 11
530.8442065269398
 21
151.4712002578107
 31
0.0
  0
ARC
  5
B306
330
1A
100
AcDbEntity
  8
SEIHIN
100
AcDbCircle
 10
533.0292538180399
 20
153.4712002578107
 30
0.0
 40
2.000000000000056
100
AcDbArc
 50
180.0
 51
270.0
  0
ARC
  5
B309
330
1A
100
AcDbEntity
  8
SEIHIN
100
AcDbCircle
 10
518.8218153756399
 20
157.4712002578107
 30
0.0
 40
2.0
100
AcDbArc
 50
270.0
 51
0.0
  0
ARC
  5
B30A
330
1A
100
AcDbEntity
  8
SEIHIN
100
AcDbCircle
 10
516.32181537564
 20
159.9712002578107
 30
0.0
 40
2.0
100
AcDbArc
 50
270.0
 51
0.0
  0
LINE
  5
B30B
330
1A
100
AcDbEntity
  8
SEIHIN
100
AcDbLine
 10
515.17825498674
 20
155.4712002578107
 30
0.0
 11
518.8218153756399
 21
155.4712002578107
 31
0.0
  0
LWPOLYLINE
  5
B30C
330
1A
100
AcDbEntity
  8
SEIHIN
100
AcDbPolyline
 90
        3
 70
   128
 43
0.0
 10
526.3547357534398
 20
152.4742471336107
 10
526.21804710224
 20
153.0523781935107
 10
526.1761424287398
 20
153.4712002578107
  0
ARC
  5
B30D
330
1A
100
AcDbEntity
  8
SEIHIN
100
AcDbCircle
 10
527.6960080701399
 20
152.8559118208107
 30
0.0
 40
1.394517608749532
100
AcDbArc
 50
195.8839261657992
 51
276.7987239071015
  0
LINE
  5
B30E
330
1A
100
AcDbEntity
  8
SEIHIN
100
AcDbLine
 10
535.12826201294
 20
155.4712002578107
 30
0.0
 11
535.2249351472399
 21
157.4712002578107
 31
0.0
  0
LINE
  5
B30F
330
1A
100
AcDbEntity
  8
SEIHIN
100
AcDbLine
 10
535.0392578656399
 20
153.6298583382107
 30
0.0
 11
535.12826201294
 21
155.4712002578107
 31
0.0
  0
LINE
  5
B310
330
1A
100
AcDbEntity
  8
SEIHIN
100
AcDbLine
 10
535.0392578656399
 20
153.6298583382107
 30
0.0
 11
535.02692148054
 21
153.3746398607108
 31
0.0
  0
ARC
  5
B311
330
1A
100
AcDbEntity
  8
SEIHIN
100
AcDbCircle
 10
533.0292538180399
 20
153.4712002578107
 30
0.0
 40
2.000000000000056
100
AcDbArc
 50
167.3137292550993
 51
180.0
  0
LINE
  5
B312
330
1A
100
AcDbEntity
  8
SEIHIN
100
AcDbLine
 10
533.0292538180399
 20
151.4712002578107
 30
0.0
 11
530.8442065269398
 21
151.4712002578107
 31
0.0
  0
ARC
  5
B313
330
1A
100
AcDbEntity
  8
SEIHIN
100
AcDbCircle
 10
533.0292538180399
 20
153.4712002578107
 30
0.0
 40
2.0
100
AcDbArc
 50
270.0
 51
357.2326725819999
  0
LINE
  5
B315
330
1A
100
AcDbEntity
  8
SEIHIN
100
AcDbLine
 10
575.8218153756399
 20
153.6296331714108
 30
0.0
 11
566.1437978337401
 21
153.6296331714108
 31
0.0
  0
LINE
  5
B317
330
1A
100
AcDbEntity
  8
SEIHIN
100
AcDbLine
 10
575.8218153756399
 20
157.4712002578107
 30
0.0
 11
575.8218153756399
 21
155.4712002578107
 31
0.0
  0
LINE
  5
B318
330
1A
100
AcDbEntity
  8
SEIHIN
100
AcDbLine
 10
575.8218153756399
 20
155.4712002578107
 30
0.0
 11
575.8218153756399
 21
153.6296331714108
 31
0.0
  0
LINE
  5
B319
330
1A
100
AcDbEntity
  8
SEIHIN
100
AcDbLine
 10
575.8218153756399
 20
177.4712002578107
 30
0.0
 11
536.19166649004
 21
177.4712002578107
 31
0.0
  0
LINE
  5
B31A
330
1A
100
AcDbEntity
  8
SEIHIN
100
AcDbLine
 10
536.2883396243399
 20
179.4712002578107
 30
0.0
 11
575.8218153756399
 21
179.4712002578107
 31
0.0
  0
LINE
  5
B31C
330
1A
100
AcDbEntity
  8
SEIHIN
100
AcDbLine
 10
530.08460511324
 20
171.4712002578107
 30
0.0
 11
535.90164708714
 21
171.4712002578107
 31
0.0
  0
LINE
  5
B31E
330
1A
100
AcDbEntity
  8
SEIHIN
100
AcDbLine
 10
536.2158347735398
 20
177.9712002578107
 30
0.0
 11
520.7583070487401
 21
177.9712002578107
 31
0.0
  0
LINE
  5
B31F
330
1A
100
AcDbEntity
  8
SEIHIN
100
AcDbLine
 10
519.5902576989399
 20
179.3176824255107
 30
0.0
 11
536.28091909924
 21
179.3176824255107
 31
0.0
  0
LINE
  5
B322
330
1A
100
AcDbEntity
  8
SEIHIN
100
AcDbLine
 10
530.1927420602399
 20
168.4940826340107
 30
0.0
 11
530.0301210648399
 21
172.9712002578107
 31
0.0
  0
LINE
  5
B323
330
1A
100
AcDbEntity
  8
SEIHIN
100
AcDbLine
 10
520.82181537564
 20
174.9712002578107
 30
0.0
 11
522.94196755294
 21
174.9712002578107
 31
0.0
  0
ARC
  5
B324
330
1A
100
AcDbEntity
  8
SEIHIN
100
AcDbCircle
 10
518.8218153756399
 20
177.4712002578107
 30
0.0
 40
2.0
100
AcDbArc
 50
0.0
 51
90.0
  0
LINE
  5
B325
330
1A
100
AcDbEntity
  8
SEIHIN
100
AcDbLine
 10
518.3754631029398
 20
179.4712002578107
 30
0.0
 11
518.3754631029398
 21
180.4712002578107
 31
0.0
  0
LINE
  5
B327
330
1A
100
AcDbEntity
  8
SEIHIN
100
AcDbLine
 10
517.3754631029399
 20
181.4712002578107
 30
0.0
 11
516.5290333175398
 21
181.4712002578107
 31
0.0
  0
ARC
  5
B328
330
1A
100
AcDbEntity
  8
SEIHIN
100
AcDbCircle
 10
516.32181537564
 20
174.9712002578107
 30
0.0
 40
2.0
100
AcDbArc
 50
0.0
 51
90.0
  0
ARC
  5
B329
330
1A
100
AcDbEntity
  8
SEIHIN
100
AcDbCircle
 10
517.3754631029399
 20
180.4712002578107
 30
0.0
 40
1.0
100
AcDbArc
 50
0.0
 51
90.0
  0
LINE
  5
B32A
330
1A
100
AcDbEntity
  8
SEIHIN
100
AcDbLine
 10
516.9468512016399
 20
174.9712002578107
 30
0.0
 11
518.3218153756399
 21
174.9712002578107
 31
0.0
  0
LINE
  5
B32B
330
1A
100
AcDbEntity
  8
SEIHIN
100
AcDbLine
 10
522.94196755294
 20
174.9712002578107
 30
0.0
 11
528.7940512136399
 21
174.9712002578107
 31
0.0
  0
ARC
  5
B32D
330
1A
100
AcDbEntity
  8
SEIHIN
100
AcDbCircle
 10
523.0638871333399
 20
172.9275242260108
 30
0.0
 40
2.04730947995944
100
AcDbArc
 50
1.222405387900139
 51
93.41404798749662
  0
LWPOLYLINE
  5
B32E
330
1A
100
AcDbEntity
  8
SEIHIN
100
AcDbPolyline
 90
        6
 70
   128
 43
0.0
 10
528.7940512136399
 20
174.9712002578107
 10
529.3420170850399
 20
174.7876523055107
 10
529.6761033397399
 20
174.3990832342107
 10
529.9124161116399
 20
173.8036908218107
 10
530.0193205604398
 20
173.1541437210107
 10
530.0301210648399
 20
172.9712002578107
  0
LINE
  5
B32F
330
1A
100
AcDbEntity
  8
SEIHIN
100
AcDbLine
 10
536.19166649004
 20
177.4712002578107
 30
0.0
 11
536.2883396243399
 21
179.4712002578107
 31
0.0
  0
LINE
  5
B330
330
1A
100
AcDbEntity
  8
SEIHIN
100
AcDbLine
 10
575.8218153756399
 20
179.4712002578107
 30
0.0
 11
575.8218153756399
 21
194.4693673964108
 31
0.0
  0
LINE
  5
B333
330
1A
100
AcDbEntity
  8
SEIHIN
100
AcDbLine
 10
562.8218153756399
 20
181.4712002578107
 30
0.0
 11
564.8218153756399
 21
181.4712002578107
 31
0.0
  0
LINE
  5
B335
330
1A
100
AcDbEntity
  8
SEIHIN
100
AcDbLine
 10
562.8218153756399
 20
179.4712002578107
 30
0.0
 11
562.8218153756399
 21
180.4712002578107
 31
0.0
  0
LINE
  5
B336
330
1A
100
AcDbEntity
  8
SEIHIN
100
AcDbLine
 10
562.8218153756399
 20
180.4712002578107
 30
0.0
 11
562.8218153756399
 21
181.4712002578107
 31
0.0
  0
LINE
  5
B337
330
1A
100
AcDbEntity
  8
SEIHIN
100
AcDbLine
 10
564.8218153756399
 20
179.4712002578107
 30
0.0
 11
564.8218153756399
 21
180.4712002578107
 31
0.0
  0
LINE
  5
B338
330
1A
100
AcDbEntity
  8
SEIHIN
100
AcDbLine
 10
564.8218153756399
 20
181.4712002578107
 30
0.0
 11
564.8218153756399
 21
180.4712002578107
 31
0.0
  0
LINE
  5
B339
330
1A
100
AcDbEntity
  8
SEIHIN
100
AcDbLine
 10
575.8218153756399
 20
179.4712002578107
 30
0.0
 11
575.8218153756399
 21
177.4712002578107
 31
0.0
  0
LWPOLYLINE
  5
B33A
330
1A
100
AcDbEntity
  8
SEIHIN
100
AcDbPolyline
 90
        4
 70
   128
 43
0.0
 10
565.9751990670399
 20
202.8675746080107
 10
563.3560748058401
 20
202.8930269971108
 10
556.5596802336399
 20
202.9251561209107
 10
555.4922692505399
 20
202.9257589584108
  0
LINE
  5
B33C
330
1A
100
AcDbEntity
  8
SEIHIN
100
AcDbLine
 10
550.8218153756399
 20
202.4135212612108
 30
0.0
 11
575.8218153756399
 21
202.4135212612108
 31
0.0
  0
LINE
  5
B33D
330
1A
100
AcDbEntity
  8
SEIHIN
100
AcDbLine
 10
575.8218153756399
 20
199.7556691637108
 30
0.0
 11
550.8218153756399
 21
199.7556691637108
 31
0.0
  0
LINE
  5
B33F
330
1A
100
AcDbEntity
  8
SEIHIN
100
AcDbLine
 10
575.8218153756399
 20
198.2693673964108
 30
0.0
 11
550.8218153756399
 21
198.2693673964108
 31
0.0
  0
LINE
  5
B340
330
1A
100
AcDbEntity
  8
SEIHIN
100
AcDbLine
 10
555.4922692505399
 20
202.9257587284108
 30
0.0
 11
550.7539605526401
 21
202.9257589584108
 31
0.0
  0
LINE
  5
B342
330
1A
100
AcDbEntity
  8
SEIHIN
100
AcDbLine
 10
550.8218153756399
 20
199.7556691637108
 30
0.0
 11
550.8218153756399
 21
202.4135212612108
 31
0.0
  0
LINE
  5
B343
330
1A
100
AcDbEntity
  8
SEIHIN
100
AcDbLine
 10
550.8218153756399
 20
202.4135212612108
 30
0.0
 11
550.8218153756399
 21
202.7022121304107
 31
0.0
  0
LINE
  5
B344
330
1A
100
AcDbEntity
  8
SEIHIN
100
AcDbLine
 10
550.8218153756399
 20
199.7556691637108
 30
0.0
 11
550.8218153756399
 21
198.7378284612108
 31
0.0
  0
LINE
  5
B345
330
1A
100
AcDbEntity
  8
SEIHIN
100
AcDbLine
 10
550.8218153756399
 20
198.2693673964108
 30
0.0
 11
550.8218153756399
 21
198.7378284612108
 31
0.0
  0
LINE
  5
B346
330
1A
100
AcDbEntity
  8
SEIHIN
100
AcDbLine
 10
550.8218153756399
 20
202.8416806374107
 30
0.0
 11
550.8218153756399
 21
202.7022121304107
 31
0.0
  0
LINE
  5
B347
330
1A
100
AcDbEntity
  8
SEIHIN
100
AcDbLine
 10
550.8218153756399
 20
202.8416806374107
 30
0.0
 11
550.8218153756399
 21
202.8937184248107
 31
0.0
  0
LINE
  5
B348
330
1A
100
AcDbEntity
  8
SEIHIN
100
AcDbLine
 10
548.8218153756399
 20
198.9246610624108
 30
0.0
 11
548.8218153756399
 21
202.6359856269107
 31
0.0
  0
LWPOLYLINE
  5
B349
330
1A
100
AcDbEntity
  8
SEIHIN
100
AcDbPolyline
 90
        6
 70
   128
 43
0.0
 10
548.8218153756399
 20
202.6359856269107
 10
549.45968981704
 20
202.6763744488107
 10
550.0249959484399
 20
202.7737186686108
 10
550.4842423079401
 20
202.8794903218108
 10
550.76106269964
 20
202.9257266911108
 10
550.8218153756399
 20
202.8937184248107
  0
ARC
  5
B34A
330
1A
100
AcDbEntity
  8
SEIHIN
100
AcDbCircle
 10
554.1129958473399
 20
193.8356580253108
 30
0.0
 40
7.341290260951275
100
AcDbArc
 50
116.7177986759007
 51
136.115823164299
  0
LINE
  5
B34B
330
1A
100
AcDbEntity
  8
SEIHIN
100
AcDbLine
 10
550.8218153756399
 20
198.9246610624108
 30
0.0
 11
548.8218153756399
 21
198.9246610624108
 31
0.0
  0
LINE
  5
B34D
330
1A
100
AcDbEntity
  8
SEIHIN
100
AcDbLine
 10
575.8218153756399
 20
194.4693673964108
 30
0.0
 11
575.8218153756399
 21
198.2693673964108
 31
0.0
  0
LINE
  5
B34E
330
1A
100
AcDbEntity
  8
SEIHIN
100
AcDbLine
 10
575.8218153756399
 20
202.7581921260107
 30
0.0
 11
565.9751990670399
 21
202.8675746080107
 31
0.0
  0
LINE
  5
B351
330
1A
100
AcDbEntity
  8
SEIHIN
100
AcDbLine
 10
575.8218153756399
 20
202.4135212612108
 30
0.0
 11
575.8218153756399
 21
199.7556691637108
 31
0.0
  0
LINE
  5
B352
330
1A
100
AcDbEntity
  8
SEIHIN
100
AcDbLine
 10
575.8218153756399
 20
202.7022121304107
 30
0.0
 11
575.8218153756399
 21
202.4135212612108
 31
0.0
  0
LINE
  5
B353
330
1A
100
AcDbEntity
  8
SEIHIN
100
AcDbLine
 10
575.8218153756399
 20
198.7378284612108
 30
0.0
 11
575.8218153756399
 21
199.7556691637108
 31
0.0
  0
LINE
  5
B354
330
1A
100
AcDbEntity
  8
SEIHIN
100
AcDbLine
 10
575.8218153756399
 20
198.7378284612108
 30
0.0
 11
575.8218153756399
 21
198.2693673964108
 31
0.0
  0
LINE
  5
B355
330
1A
100
AcDbEntity
  8
SEIHIN
100
AcDbLine
 10
575.8218153756399
 20
202.7581921260107
 30
0.0
 11
575.8218153756399
 21
202.7022121304107
 31
0.0
  0
LINE
  5
B359
330
1A
100
AcDbEntity
  8
CENTER_L
  6
CENTER
 62
     1
 48
5.0
100
AcDbLine
 10
472.3768170533398
 20
77.08021246010957
 30
0.0
 11
472.3768170533396
 21
97.84345876788211
 31
0.0
  0
DIMENSION
  5
B81A
330
1A
100
AcDbEntity
  8
SUNPOU
100
AcDbDimension
  2
*D237
 10
508.6921220301925
 20
59.7161660038123
 30
0.0
 11
472.6370973887509
 21
64.7161660038123
 31
0.0
 70
    32
  3
STANDARD
100
AcDbAlignedDimension
 13
436.5820727473093
 23
87.11043833524389
 33
0.0
 14
508.6921220301925
 24
87.12917247876111
 34
0.0
100
AcDbRotatedDimension
1001
ACAD
1000
DSTYLE
1002
{
1070
    41
1040
7.0
1070
    42
1040
6.0
1070
    43
1040
14.0
1070
    44
1040
3.0
1070
    73
1070
     0
1070
    74
1070
     0
1070
    77
1070
     3
1070
   140
1040
6.0
1070
   141
1040
150.0
1070
   147
1040
2.0
1070
   172
1070
     1
1070
   173
1070
     1
1070
   176
1070
   256
1070
   177
1070
   256
1070
   178
1070
   256
1070
   271
1070
     0
1070
   272
1070
     0
1070
   341
1005
6D
1070
     6
1000
OPEN
1070
     7
1000
OPEN
1070
   371
1070
    -1
1070
   372
1070
    -1
1002
}
  0
DIMENSION
  5
B83A
330
1A
100
AcDbEntity
  8
SUNPOU
100
AcDbDimension
  2
*D238
 10
344.8683307570054
 20
86.47120025781083
 30
0.0
 11
339.8683307570054
 21
144.5535929423608
 31
0.0
 70
    32
  3
STANDARD
100
AcDbAlignedDimension
 13
382.3249827152622
 23
202.6359856269107
 33
0.0
 14
472.3768170533397
 24
86.47120025781077
 34
0.0
 50
90.0
100
AcDbRotatedDimension
1001
ACAD
1000
DSTYLE
1002
{
1070
    41
1040
7.0
1070
    42
1040
6.0
1070
    43
1040
14.0
1070
    44
1040
3.0
1070
    73
1070
     0
1070
    74
1070
     0
1070
    77
1070
     3
1070
   140
1040
6.0
1070
   141
1040
150.0
1070
   147
1040
2.0
1070
   172
1070
     1
1070
   173
1070
     1
1070
   176
1070
   256
1070
   177
1070
   256
1070
   178
1070
   256
1070
   271
1070
     0
1070
   272
1070
     0
1070
   341
1005
6D
1070
     6
1000
OPEN
1070
     7
1000
OPEN
1070
   371
1070
    -1
1070
   372
1070
    -1
1002
}
  0
DIMENSION
  5
B859
330
1A
100
AcDbEntity
  8
SUNPOU
100
AcDbDimension
  2
*D239
 10
361.3867428383759
 20
176.4712002578107
 30
0.0
 11
356.3867428383759
 21
189.5535929423608
 31
0.0
 70
    32
  3
STANDARD
100
AcDbAlignedDimension
 13
376.3249827152622
 23
202.6359856269107
 33
0.0
 14
390.2564803268398
 24
176.4712002578107
 34
0.0
 50
90.0
100
AcDbRotatedDimension
1001
ACAD
1000
DSTYLE
1002
{
1070
    41
1040
7.0
1070
    42
1040
6.0
1070
    43
1040
14.0
1070
    44
1040
3.0
1070
    73
1070
     0
1070
    74
1070
     0
1070
    77
1070
     3
1070
   140
1040
6.0
1070
   141
1040
150.0
1070
   147
1040
2.0
1070
   172
1070
     1
1070
   173
1070
     1
1070
   176
1070
   256
1070
   177
1070
   256
1070
   178
1070
   256
1070
   271
1070
     0
1070
   272
1070
     0
1070
   341
1005
6D
1070
     6
1000
OPEN
1070
     7
1000
OPEN
1070
   371
1070
    -1
1070
   372
1070
    -1
1002
}
  0
DIMENSION
  5
B866
330
1A
100
AcDbEntity
  8
SUNPOU
100
AcDbDimension
  2
*D240
 10
520.82181537564
 20
234.9922526300413
 30
0.0
 11
452.69668241309
 21
239.9922526300413
 31
0.0
 70
    32
  3
STANDARD
100
AcDbAlignedDimension
 13
384.57154945054
 23
198.9300469364108
 33
0.0
 14
520.82181537564
 24
177.4712002578107
 34
0.0
100
AcDbRotatedDimension
1001
ACAD
1000
DSTYLE
1002
{
1070
    41
1040
7.0
1070
    42
1040
6.0
1070
    43
1040
14.0
1070
    44
1040
3.0
1070
    73
1070
     0
1070
    74
1070
     0
1070
    77
1070
     3
1070
   140
1040
6.0
1070
   141
1040
150.0
1070
   147
1040
2.0
1070
   172
1070
     1
1070
   173
1070
     1
1070
   176
1070
   256
1070
   177
1070
   256
1070
   178
1070
   256
1070
   271
1070
     0
1070
   272
1070
     0
1070
   341
1005
6D
1070
     6
1000
OPEN
1070
     7
1000
OPEN
1070
   371
1070
    -1
1070
   372
1070
    -1
1002
}
  0
DIMENSION
  5
B873
330
1A
100
AcDbEntity
  8
SUNPOU
100
AcDbDimension
  2
*D241
 10
575.8218153756399
 20
253.87477473082
 30
0.0
 11
480.1966824130899
 21
258.87477473082
 31
0.0
 70
    32
  3
STANDARD
100
AcDbAlignedDimension
 13
384.57154945054
 23
204.9300469364108
 33
0.0
 14
575.8218153756399
 24
202.4135212612108
 34
0.0
100
AcDbRotatedDimension
1001
ACAD
1000
DSTYLE
1002
{
1070
    41
1040
7.0
1070
    42
1040
6.0
1070
    43
1040
14.0
1070
    44
1040
3.0
1070
    73
1070
     0
1070
    74
1070
     0
1070
    77
1070
     3
1070
   140
1040
6.0
1070
   141
1040
150.0
1070
   147
1040
2.0
1070
   172
1070
     1
1070
   173
1070
     1
1070
   176
1070
   256
1070
   177
1070
   256
1070
   178
1070
   256
1070
   271
1070
     0
1070
   272
1070
     0
1070
   341
1005
6D
1070
     6
1000
OPEN
1070
     7
1000
OPEN
1070
   371
1070
    -1
1070
   372
1070
    -1
1002
}
  0
DIMENSION
  5
B880
330
1A
100
AcDbEntity
  8
SUNPOU
100
AcDbDimension
  2
*D242
 10
595.7023479334234
 20
155.4712002578107
 30
0.0
 11
590.7023479334234
 21
167.4712002578108
 31
0.0
 70
    32
  3
STANDARD
100
AcDbAlignedDimension
 13
518.8218153756399
 23
179.4712002578107
 33
0.0
 14
518.8218153756399
 24
155.4712002578107
 34
0.0
 50
90.0
100
AcDbRotatedDimension
1001
ACAD
1000
DSTYLE
1002
{
1070
    41
1040
7.0
1070
    42
1040
6.0
1070
    43
1040
14.0
1070
    44
1040
3.0
1070
    73
1070
     0
1070
    74
1070
     0
1070
    77
1070
     3
1070
   140
1040
6.0
1070
   141
1040
150.0
1070
   147
1040
2.0
1070
   172
1070
     1
1070
   173
1070
     1
1070
   176
1070
   256
1070
   177
1070
   256
1070
   178
1070
   256
1070
   271
1070
     0
1070
   272
1070
     0
1070
   341
1005
6D
1070
     6
1000
OPEN
1070
     7
1000
OPEN
1070
   371
1070
    -1
1070
   372
1070
    -1
1002
}
  0
DIMENSION
  5
B88D
330
1A
100
AcDbEntity
  8
SUNPOU
100
AcDbDimension
  2
*D243
 10
610.6548152377144
 20
86.47120025781076
 30
0.0
 11
605.6548152377144
 21
132.9712002578108
 31
0.0
 70
    32
  3
STANDARD
100
AcDbAlignedDimension
 13
518.8218153756399
 23
179.4712002578107
 33
0.0
 14
472.3768170533398
 24
86.47120025781081
 34
0.0
 50
90.0
100
AcDbRotatedDimension
1001
ACAD
1000
DSTYLE
1002
{
1070
    41
1040
7.0
1070
    42
1040
6.0
1070
    43
1040
14.0
1070
    44
1040
3.0
1070
    73
1070
     0
1070
    74
1070
     0
1070
    77
1070
     3
1070
   140
1040
6.0
1070
   141
1040
150.0
1070
   147
1040
2.0
1070
   172
1070
     1
1070
   173
1070
     1
1070
   176
1070
   256
1070
   177
1070
   256
1070
   178
1070
   256
1070
   271
1070
     0
1070
   272
1070
     0
1070
   341
1005
6D
1070
     6
1000
OPEN
1070
     7
1000
OPEN
1070
   371
1070
    -1
1070
   372
1070
    -1
1002
}
  0
LWPOLYLINE
  5
B8AB
330
1A
100
AcDbEntity
  8
SEIHIN
100
AcDbPolyline
 90
        9
 70
   128
 43
0.0
 10
495.6983204703409
 20
370.8126978305663
 10
486.5837800527409
 20
379.9127116600418
 10
469.6229431057408
 20
396.8927766929416
 10
454.316924812841
 20
412.3154952923417
 10
446.7083174014409
 20
420.0719520251417
 10
442.9331678176407
 20
423.9794397528418
 10
441.0635936284408
 20
425.9510617504417
 10
440.1396173263409
 20
426.9474409322417
 10
439.2382907891409
 20
427.9650449554416
  0
LINE
  5
B8AD
330
1A
100
AcDbEntity
  8
SEIHIN
100
AcDbLine
 10
434.3236643100407
 20
445.2256541500418
 30
0.0
 11
434.3236643100407
 21
345.6123377929417
 31
0.0
  0
LINE
  5
B8AE
330
1A
100
AcDbEntity
  8
SEIHIN
100
AcDbLine
 10
438.0349773192409
 20
441.5143299649417
 30
0.0
 11
438.0349773192409
 21
345.6123377929417
 31
0.0
  0
LINE
  5
B8B0
330
1A
100
AcDbEntity
  8
SEIHIN
100
AcDbLine
 10
427.7563947463407
 20
345.6123377929417
 30
0.0
 11
427.7564003878409
 21
451.8004470564418
 31
0.0
  0
LINE
  5
B8B7
330
1A
100
AcDbEntity
  8
SEIHIN
100
AcDbLine
 10
392.4408811355409
 20
330.6123446474417
 30
0.0
 11
392.4408811355409
 21
488.5965715895418
 31
0.0
  0
LINE
  5
B8B8
330
1A
100
AcDbEntity
  8
SEIHIN
100
AcDbLine
 10
387.0768207335407
 20
332.6123412499417
 30
0.0
 11
387.0768207335407
 21
492.3573415527418
 31
0.0
  0
LINE
  5
B8B9
330
1A
100
AcDbEntity
  8
SEIHIN
100
AcDbLine
 10
384.5715468262409
 20
494.8626083855417
 30
0.0
 11
384.5715468262409
 21
325.9418874363417
 31
0.0
  0
LINE
  5
B8BB
330
1A
100
AcDbEntity
  8
SEIHIN
100
AcDbLine
 10
403.8768070960408
 20
477.5573368917418
 30
0.0
 11
403.8768144290408
 21
305.6123413112417
 31
0.0
  0
ARC
  5
B8C2
330
1A
100
AcDbEntity
  8
SEIHIN
100
AcDbCircle
 10
509.7041202336408
 20
364.3157155303417
 30
0.0
 40
14.00584060722672
100
AcDbArc
 50
180.1395450682999
 51
249.5636201374991
  0
LINE
  5
B8C5
330
1A
100
AcDbEntity
  8
SEIHIN
100
AcDbLine
 10
478.0946385569408
 20
340.6123413112417
 30
0.0
 11
499.1640625784408
 21
340.6123413112417
 31
0.0
  0
LINE
  5
B8C6
330
1A
100
AcDbEntity
  8
SEIHIN
100
AcDbLine
 10
482.4889447366407
 20
325.6123413112417
 30
0.0
 11
500.8848821325408
 21
325.6123413112417
 31
0.0
  0
LINE
  5
B8C7
330
1A
100
AcDbEntity
  8
SEIHIN
100
AcDbLine
 10
502.8808098927408
 20
345.6123413112417
 30
0.0
 11
440.5253835906409
 21
345.6123413112417
 31
0.0
  0
LINE
  5
B8C8
330
1A
100
AcDbEntity
  8
SEIHIN
100
AcDbLine
 10
505.0368120900408
 20
305.6123413112417
 30
0.0
 11
439.4037038320408
 21
305.6123413112417
 31
0.0
  0
ARC
  5
B8C9
330
1A
100
AcDbEntity
  8
SEIHIN
100
AcDbCircle
 10
509.5498226682408
 20
371.8517718628418
 30
0.0
 40
13.85164325053255
100
AcDbArc
 50
134.9047752857984
 51
180.2592067818
  0
LINE
  5
B8CB
330
1A
100
AcDbEntity
  8
SEIHIN
100
AcDbLine
 10
427.7563947463407
 20
335.6123398790417
 30
0.0
 11
427.7564003878409
 21
305.6123413112417
 31
0.0
  0
LINE
  5
B8CD
330
1A
100
AcDbEntity
  8
SEIHIN
100
AcDbLine
 10
434.4940418429408
 20
305.6123413112417
 30
0.0
 11
434.4940441871407
 21
335.6123398790417
 31
0.0
  0
LINE
  5
B8CF
330
1A
100
AcDbEntity
  8
SEIHIN
100
AcDbLine
 10
438.0374658132408
 20
335.6123398790417
 30
0.0
 11
438.0374671363407
 21
305.6123413112417
 31
0.0
  0
LINE
  5
B8D2
330
1A
100
AcDbEntity
  8
SEIHIN
100
AcDbLine
 10
384.8553239384408
 20
315.2903588531417
 30
0.0
 11
385.371367933741
 21
305.6123386869417
 31
0.0
  0
LINE
  5
B8D4
330
1A
100
AcDbEntity
  8
SEIHIN
100
AcDbLine
 10
397.4189623315409
 20
305.6123413112417
 30
0.0
 11
397.4189623315409
 21
330.6123413112417
 31
0.0
  0
LINE
  5
B8D5
330
1A
100
AcDbEntity
  8
SEIHIN
100
AcDbLine
 10
393.9754057894409
 20
330.6123413112417
 30
0.0
 11
393.9754057894409
 21
305.6123413112417
 31
0.0
  0
LINE
  5
B8D7
330
1A
100
AcDbEntity
  8
SEIHIN
100
AcDbLine
 10
396.5671148812408
 20
330.6123413112417
 30
0.0
 11
396.5671148812408
 21
305.6123413112417
 31
0.0
  0
LINE
  5
B8DA
330
1A
100
AcDbEntity
  8
SEIHIN
100
AcDbLine
 10
427.7564003878409
 20
305.6123413112417
 30
0.0
 11
404.8768144290407
 21
305.6123413112417
 31
0.0
  0
LINE
  5
B8DB
330
1A
100
AcDbEntity
  8
SEIHIN
100
AcDbLine
 10
396.5671148812408
 20
305.6123413112417
 30
0.0
 11
397.2315779056408
 21
305.6123413112417
 31
0.0
  0
LINE
  5
B8DC
330
1A
100
AcDbEntity
  8
SEIHIN
100
AcDbLine
 10
396.5671148812408
 20
305.6123413112417
 30
0.0
 11
395.2285508211408
 21
305.6123413112417
 31
0.0
  0
LINE
  5
B8DD
330
1A
100
AcDbEntity
  8
SEIHIN
100
AcDbLine
 10
393.9754057894409
 20
305.6123413112417
 30
0.0
 11
395.2285508211408
 21
305.6123413112417
 31
0.0
  0
LINE
  5
B8DE
330
1A
100
AcDbEntity
  8
SEIHIN
100
AcDbLine
 10
385.3665101552408
 20
305.6123386869417
 30
0.0
 11
385.371367933741
 21
305.6123386869417
 31
0.0
  0
LINE
  5
B8DF
330
1A
100
AcDbEntity
  8
SEIHIN
100
AcDbLine
 10
385.371367933741
 20
305.6123386869417
 30
0.0
 11
390.1928621554408
 21
305.6123386869417
 31
0.0
  0
LINE
  5
B8E0
330
1A
100
AcDbEntity
  8
SEIHIN
100
AcDbLine
 10
393.9754057894409
 20
305.6123413112417
 30
0.0
 11
390.1928621554408
 21
305.6123386869417
 31
0.0
  0
LINE
  5
B8E1
330
1A
100
AcDbEntity
  8
SEIHIN
100
AcDbLine
 10
403.8768144290408
 20
305.6123413112417
 30
0.0
 11
404.8768144290407
 21
305.6123413112417
 31
0.0
  0
LINE
  5
B8E2
330
1A
100
AcDbEntity
  8
SEIHIN
100
AcDbLine
 10
397.2315779056408
 20
305.6123413112417
 30
0.0
 11
397.4189623315409
 21
305.6123413112417
 31
0.0
  0
LINE
  5
B8E3
330
1A
100
AcDbEntity
  8
SEIHIN
100
AcDbLine
 10
403.8768144290408
 20
305.6123413112417
 30
0.0
 11
397.4189623315409
 21
305.6123413112417
 31
0.0
  0
LINE
  5
B8E4
330
1A
100
AcDbEntity
  8
SEIHIN
100
AcDbLine
 10
438.0374671363407
 20
305.6123413112417
 30
0.0
 11
434.4940418429408
 21
305.6123413112417
 31
0.0
  0
LINE
  5
B8E5
330
1A
100
AcDbEntity
  8
SEIHIN
100
AcDbLine
 10
434.0221430557408
 20
305.6123413112417
 30
0.0
 11
434.4940418429408
 21
305.6123413112417
 31
0.0
  0
LINE
  5
B8E6
330
1A
100
AcDbEntity
  8
SEIHIN
100
AcDbLine
 10
427.7564003878409
 20
305.6123413112417
 30
0.0
 11
428.2257270424407
 21
305.6123413112417
 31
0.0
  0
LINE
  5
B8E7
330
1A
100
AcDbEntity
  8
SEIHIN
100
AcDbLine
 10
434.0221430557408
 20
305.6123413112417
 30
0.0
 11
428.2257270424407
 21
305.6123413112417
 31
0.0
  0
LINE
  5
B8E8
330
1A
100
AcDbEntity
  8
SEIHIN
100
AcDbLine
 10
438.0374671363407
 20
305.6123413112417
 30
0.0
 11
439.4037038320408
 21
305.6123413112417
 31
0.0
  0
LINE
  5
B8E9
330
1A
100
AcDbEntity
  8
SEIHIN
100
AcDbLine
 10
422.4751713598408
 20
345.6123413112417
 30
0.0
 11
411.8075282760409
 21
345.6123413112417
 31
0.0
  0
LINE
  5
B8EA
330
1A
100
AcDbEntity
  8
SEIHIN
100
AcDbLine
 10
416.3227665297407
 20
340.6123413112417
 30
0.0
 11
425.4582230582408
 21
340.6123413112417
 31
0.0
  0
LINE
  5
B8ED
330
1A
100
AcDbEntity
  8
SEIHIN
100
AcDbLine
 10
416.8743030974409
 20
335.6123413112417
 30
0.0
 11
425.1748039357408
 21
335.6123413112417
 31
0.0
  0
ELLIPSE
  5
B8EF
330
1A
100
AcDbEntity
  8
SEIHIN
100
AcDbEllipse
 10
1366.40970955794
 20
2729.850740922441
 30
0.0
 11
0.0000000000011369
 21
5389.539733268755
 31
0.0
210
0.0
220
0.0
230
1.0
 40
0.1972026594
 41
2.030498674281814
 42
2.030620488651639
  0
ELLIPSE
  5
B8F0
330
1A
100
AcDbEntity
  8
SEIHIN
100
AcDbEllipse
 10
1366.40970955794
 20
1836.497022089341
 30
0.0
 11
0.0000000000011369
 21
4985.000000000238
 31
0.0
210
0.0
220
0.0
230
1.0
 40
0.2
 41
1.875569875525744
 42
1.87611423418178
  0
LINE
  5
B8F2
330
1A
100
AcDbEntity
  8
SEIHIN
100
AcDbLine
 10
397.2315779056408
 20
330.6123413112417
 30
0.0
 11
396.5671148812408
 21
330.6123413112417
 31
0.0
  0
LINE
  5
B8F3
330
1A
100
AcDbEntity
  8
SEIHIN
100
AcDbLine
 10
395.2285508211408
 20
330.6123413112417
 30
0.0
 11
396.5671148812408
 21
330.6123413112417
 31
0.0
  0
LINE
  5
B8F4
330
1A
100
AcDbEntity
  8
SEIHIN
100
AcDbLine
 10
395.2285508211408
 20
330.6123413112417
 30
0.0
 11
393.9754057894409
 21
330.6123413112417
 31
0.0
  0
ARC
  5
B8F5
330
1A
100
AcDbEntity
  8
SEIHIN
100
AcDbCircle
 10
389.0768012253407
 20
332.6123251392417
 30
0.0
 40
1.999980491823324
100
AcDbArc
 50
179.9995384570999
 51
270.0002480987972
  0
LINE
  5
B8F6
330
1A
100
AcDbEntity
  8
SEIHIN
100
AcDbLine
 10
389.3873615443409
 20
330.6123413112417
 30
0.0
 11
389.0768144290408
 21
330.6123413112417
 31
0.0
  0
LINE
  5
B8F7
330
1A
100
AcDbEntity
  8
SEIHIN
100
AcDbLine
 10
384.5715468262409
 20
325.9418874363417
 30
0.0
 11
384.5663774037408
 21
325.9418885956417
 31
0.0
  0
LINE
  5
B8FA
330
1A
100
AcDbEntity
  8
SEIHIN
100
AcDbLine
 10
389.3873615443409
 20
330.6123413112417
 30
0.0
 11
393.9754057894409
 21
330.6123413112417
 31
0.0
  0
LINE
  5
B8FB
330
1A
100
AcDbEntity
  8
SEIHIN
100
AcDbLine
 10
384.8502594256409
 20
315.2903597603418
 30
0.0
 11
384.8553239384408
 21
315.2903588531417
 31
0.0
  0
ELLIPSE
  5
B8FE
330
1A
100
AcDbEntity
  8
SEIHIN
100
AcDbEllipse
 10
584.5278937618408
 20
325.9418874363417
 30
0.0
 11
0.0000000005937864
 21
200.0
 31
0.0
210
0.0
220
0.0
230
1.0
 40
0.9997817346999999
 41
1.570796326797865
 42
1.624079178357559
  0
LWPOLYLINE
  5
B901
330
1A
100
AcDbEntity
  8
SEIHIN
100
AcDbPolyline
 90
       12
 70
   128
 43
0.0
 10
416.2858682895408
 20
336.4362027297417
 10
416.3144487166408
 20
336.3449331174417
 10
416.3750517392408
 20
336.1764605889417
 10
416.4398419881407
 20
336.0278885613418
 10
416.4804923558407
 20
335.9488230000418
 10
416.5311265016408
 20
335.8639534364418
 10
416.5663677478408
 20
335.8130659709417
 10
416.6387426877407
 20
335.7280026922417
 10
416.7132037902407
 20
335.6658275971418
 10
416.7587119365408
 20
335.6397431145417
 10
416.8141293549409
 20
335.6197383056417
 10
416.8743002438408
 20
335.6123398790417
  0
LINE
  5
B902
330
1A
100
AcDbEntity
  8
SEIHIN
100
AcDbLine
 10
415.5195313716407
 20
338.0239959607417
 30
0.0
 11
413.973878624441
 21
338.0239959607417
 31
0.0
  0
LINE
  5
B903
330
1A
100
AcDbEntity
  8
SEIHIN
100
AcDbLine
 10
413.973878624441
 20
338.0239959607417
 30
0.0
 11
414.0239614272408
 21
337.6112337956417
 31
0.0
  0
LWPOLYLINE
  5
B904
330
1A
100
AcDbEntity
  8
SEIHIN
100
AcDbPolyline
 90
       15
 70
   128
 43
0.0
 10
414.0239614272408
 20
337.6112337956417
 10
414.0680539632409
 20
337.4700527439417
 10
414.1610074067408
 20
337.1969666133417
 10
414.2595785880408
 20
336.9384314666417
 10
414.3628138328407
 20
336.6968538413417
 10
414.4359040284408
 20
336.5420531282417
 10
414.5864057565407
 20
336.2618591437417
 10
414.7406327748407
 20
336.0254075179417
 10
414.8389208341408
 20
335.9008040080417
 10
414.9368065619409
 20
335.7971664319417
 10
415.0335896039409
 20
335.7155676732418
 10
415.1285696053409
 20
335.6569837580417
 10
415.1726323390408
 20
335.6375749955417
 10
415.2587014460408
 20
335.6151710997417
 10
415.3005439067409
 20
335.6123398790417
  0
LINE
  5
B905
330
1A
100
AcDbEntity
  8
SEIHIN
100
AcDbLine
 10
397.4189623315409
 20
330.6123413112417
 30
0.0
 11
397.2315779056408
 21
330.6123413112417
 31
0.0
  0
ARC
  5
B907
330
1A
100
AcDbEntity
  8
SEIHIN
100
AcDbCircle
 10
400.1783430637409
 20
329.6408522915417
 30
0.0
 40
17.48225261446665
100
AcDbArc
 50
22.87362966010033
 51
28.65425843870081
  0
LINE
  5
B908
330
1A
100
AcDbEntity
  8
SEIHIN
100
AcDbLine
 10
415.3005439067409
 20
335.6123398790417
 30
0.0
 11
416.8743030974409
 21
335.6123413112417
 31
0.0
  0
ARC
  5
B909
330
1A
100
AcDbEntity
  8
SEIHIN
100
AcDbCircle
 10
411.8683624465408
 20
345.4192367191417
 30
0.0
 40
0.2024555688027287
100
AcDbArc
 50
107.4851559530988
 51
154.2772662106013
  0
ARC
  5
B90B
330
1A
100
AcDbEntity
  8
SEIHIN
100
AcDbCircle
 10
408.3677473972407
 20
341.1213408739417
 30
0.0
 40
5.65695834282419
100
AcDbArc
 50
37.35752586900173
 51
52.55044311270093
  0
LWPOLYLINE
  5
B90C
330
1A
100
AcDbEntity
  8
SEIHIN
100
AcDbPolyline
 90
        9
 70
   128
 43
0.0
 10
412.6407015347407
 20
344.3664964089417
 10
412.6788932109408
 20
344.3985190043417
 10
412.7160418057409
 20
344.4296475301417
 10
412.7510744357408
 20
344.4590251694417
 10
412.7830523276408
 20
344.4858249078417
 10
412.8110665107409
 20
344.5093165884417
 10
412.8343570256407
 20
344.5288296590417
 10
412.8522533202406
 20
344.5438351283417
 10
412.8642636561409
 20
344.5539083133417
  0
ARC
  5
B90D
330
1A
100
AcDbEntity
  8
SEIHIN
100
AcDbCircle
 10
416.5117634168408
 20
341.2830924308417
 30
0.0
 40
0.696868948739412
100
AcDbArc
 50
225.3731220737012
 51
254.2635454671012
  0
LWPOLYLINE
  5
B90E
330
1A
100
AcDbEntity
  8
SEIHIN
100
AcDbPolyline
 90
        3
 70
   128
 43
0.0
 10
412.3595017219408
 20
341.3647319922417
 10
412.5971007371407
 20
341.2452768335417
 10
412.6407015347407
 20
341.2223141441417
  0
ARC
  5
B90F
330
1A
100
AcDbEntity
  8
SEIHIN
100
AcDbCircle
 10
412.177370076441
 20
340.8364568970418
 30
0.0
 40
0.5587902222858448
100
AcDbArc
 50
70.97751335270252
 51
151.5702251383002
  0
ARC
  5
B910
330
1A
100
AcDbEntity
  8
SEIHIN
100
AcDbCircle
 10
415.3160142988407
 20
340.9423682999417
 30
0.0
 40
0.3325031026791712
100
AcDbArc
 50
276.9984957846978
 51
336.7433616374012
  0
LINE
  5
B911
330
1A
100
AcDbEntity
  8
SEIHIN
100
AcDbLine
 10
415.3565275693408
 20
340.6123425612417
 30
0.0
 11
413.7911158824407
 21
340.6123425612417
 31
0.0
  0
LINE
  5
B912
330
1A
100
AcDbEntity
  8
SEIHIN
100
AcDbLine
 10
413.7911158824407
 20
340.6123425612417
 30
0.0
 11
412.6407015347407
 21
341.2223141441417
 31
0.0
  0
LINE
  5
B913
330
1A
100
AcDbEntity
  8
SEIHIN
100
AcDbLine
 10
411.6859748518407
 20
341.1024869732418
 30
0.0
 11
412.5436804912409
 21
341.1024869732418
 31
0.0
  0
LWPOLYLINE
  5
B914
330
1A
100
AcDbEntity
  8
SEIHIN
100
AcDbPolyline
 90
        7
 70
   128
 43
0.0
 10
416.0222220445408
 20
340.7871331821418
 10
415.8651787066409
 20
340.8670108566417
 10
415.7808083320409
 20
340.8794235239418
 10
415.7051551366408
 20
340.8707137952418
 10
415.6632083678408
 20
340.8524971256417
 10
415.6280416274409
 20
340.8206086407417
 10
415.6215000176408
 20
340.8110793481418
  0
ELLIPSE
  5
B915
330
1A
100
AcDbEntity
  8
SEIHIN
100
AcDbEllipse
 10
1366.40970955794
 20
1831.594118710841
 30
0.0
 11
0.0000000000011369
 21
4991.000000000241
 31
0.0
210
0.0
220
0.0
230
1.0
 40
0.2
 41
1.874162209143038
 42
1.874582131983289
  0
LINE
  5
B916
330
1A
100
AcDbEntity
  8
SEIHIN
100
AcDbLine
 10
411.6859692359408
 20
345.5071057925418
 30
0.0
 11
411.6859748518407
 21
341.1024869732418
 31
0.0
  0
LINE
  5
B917
330
1A
100
AcDbEntity
  8
SEIHIN
100
AcDbLine
 10
412.6407015347407
 20
341.2223141441417
 30
0.0
 11
412.6406985865409
 21
344.3664978581417
 31
0.0
  0
LWPOLYLINE
  5
B919
330
1A
100
AcDbEntity
  8
SEIHIN
100
AcDbPolyline
 90
        4
 70
   128
 43
0.0
 10
416.0222220445408
 20
340.7871331821418
 10
415.7832670236408
 20
341.0721029887417
 10
414.2413246655409
 20
342.9112341056417
 10
412.8642636561409
 20
344.5539083133417
  0
LINE
  5
B91A
330
1A
100
AcDbEntity
  8
SEIHIN
100
AcDbLine
 10
495.6983204703409
 20
364.2816033514417
 30
0.0
 11
495.6983204703409
 21
371.7891078190417
 31
0.0
  0
LINE
  5
B91D
330
1A
100
AcDbEntity
  8
SEIHIN
100
AcDbLine
 10
443.4013407857409
 20
340.6123413112417
 30
0.0
 11
466.6589903011407
 21
340.6123413112417
 31
0.0
  0
LINE
  5
B91E
330
1A
100
AcDbEntity
  8
SEIHIN
100
AcDbLine
 10
441.9418136001407
 20
335.6123413112417
 30
0.0
 11
463.6535730104409
 21
335.6123413112417
 31
0.0
  0
LINE
  5
B920
330
1A
100
AcDbEntity
  8
SEIHIN
100
AcDbLine
 10
438.0366760516407
 20
340.6123425612417
 30
0.0
 11
438.0366760516407
 21
335.9123449574417
 31
0.0
  0
SPLINE
  5
B922
330
1A
100
AcDbEntity
  8
SEIHIN
100
AcDbSpline
210
0.0
220
0.0
230
1.0
 70
    12
 71
     3
 72
     8
 73
     4
 74
     0
 42
0.0000000001
 43
0.0000000001
 40
0.0
 40
0.0
 40
0.0
 40
0.0
 40
1.0
 40
1.0
 40
1.0
 40
1.0
 10
443.2648600379715
 20
340.6154323328976
 30
0.0
 41
1.0
 10
443.0299157910757
 20
339.0477495665783
 30
0.0
 41
1.0
 10
442.065627889288
 20
337.4800668002596
 30
0.0
 41
1.0
 10
441.9509811394867
 20
335.9123840339396
 30
0.0
 41
1.0
  0
LINE
  5
B925
330
1A
100
AcDbEntity
  8
SEIHIN
100
AcDbLine
 10
425.4582230582408
 20
340.6123413112417
 30
0.0
 11
425.4582230582408
 21
335.9123413112417
 31
0.0
  0
LINE
  5
B928
330
1A
100
AcDbEntity
  8
SEIHIN
100
AcDbLine
 10
435.5041885462409
 20
335.6123413112417
 30
0.0
 11
437.7443599725408
 21
335.6123398790417
 31
0.0
  0
LINE
  5
B92A
330
1A
100
AcDbEntity
  8
SEIHIN
100
AcDbLine
 10
435.3410566397409
 20
335.6123413112417
 30
0.0
 11
435.5041885462409
 21
335.6123413112417
 31
0.0
  0
ARC
  5
B92D
330
1A
100
AcDbEntity
  8
SEIHIN
100
AcDbCircle
 10
425.1662753368408
 20
335.9042702552418
 30
0.0
 40
0.2920547665536465
100
AcDbArc
 50
271.6723003084001
 51
1.584310094199937
  0
LINE
  5
B930
330
1A
100
AcDbEntity
  8
SEIHIN
100
AcDbLine
 10
425.1748039357408
 20
335.6123413112417
 30
0.0
 11
425.7923838806408
 21
335.6123413112417
 31
0.0
  0
LINE
  5
B933
330
1A
100
AcDbEntity
  8
SEIHIN
100
AcDbLine
 10
425.7923838806408
 20
335.6123413112417
 30
0.0
 11
435.3410566397409
 21
335.6123413112417
 31
0.0
  0
LINE
  5
B935
330
1A
100
AcDbEntity
  8
SEIHIN
100
AcDbLine
 10
440.7397317910407
 20
335.6123398790417
 30
0.0
 11
441.9418136001407
 21
335.6123413112417
 31
0.0
  0
LINE
  5
B937
330
1A
100
AcDbEntity
  8
SEIHIN
100
AcDbLine
 10
437.7443599725408
 20
335.6123398790417
 30
0.0
 11
440.7397317910407
 21
335.6123398790417
 31
0.0
  0
ELLIPSE
  5
B938
330
1A
100
AcDbEntity
  8
SEIHIN
100
AcDbEllipse
 10
437.7443607357407
 20
335.9123413112417
 30
0.0
 11
0.0
 21
0.3000000000000114
 31
0.0
210
0.0
220
0.0
230
1.0
 40
0.9743742945999999
 41
3.141592653589792
 42
4.712388980384702
  0
SPLINE
  5
B93A
330
1A
100
AcDbEntity
  8
SEIHIN
100
AcDbSpline
210
0.0
220
0.0
230
1.0
 70
    12
 71
     3
 72
    10
 73
     6
 74
     0
 42
0.0000000001
 43
0.0000000001
 40
0.0
 40
0.0
 40
0.0
 40
0.0
 40
0.5
 40
0.5
 40
1.0
 40
1.0
 40
1.0
 40
1.0
 10
441.9418135998556
 20
335.6123413112641
 30
0.0
 41
1.0
 10
441.9442128375859
 20
335.6123413091852
 30
0.0
 41
1.0
 10
441.9465973012437
 20
335.6446732371727
 30
0.0
 41
1.0
 10
441.9499903364929
 20
335.7557453110284
 30
0.0
 41
1.0
 10
441.9509780143536
 20
335.8338014936007
 30
0.0
 41
1.0
 10
441.9509780154927
 20
335.9123413112639
 30
0.0
 41
1.0
  0
LINE
  5
B93B
330
1A
100
AcDbEntity
  8
SEIHIN
100
AcDbLine
 10
437.6769471192409
 20
345.6123377929417
 30
0.0
 11
434.1391730332408
 21
345.6123377929417
 31
0.0
  0
LINE
  5
B93C
330
1A
100
AcDbEntity
  8
SEIHIN
100
AcDbLine
 10
435.8007121110407
 20
340.6123425612417
 30
0.0
 11
438.0366760516407
 21
340.6123425612417
 31
0.0
  0
LINE
  5
B93D
330
1A
100
AcDbEntity
  8
SEIHIN
100
AcDbLine
 10
434.1391730332408
 20
345.6123377929417
 30
0.0
 11
438.0366760516407
 21
340.6123425612417
 31
0.0
  0
LINE
  5
B93E
330
1A
100
AcDbEntity
  8
SEIHIN
100
AcDbLine
 10
434.1391730332408
 20
345.6123377929417
 30
0.0
 11
432.2707462335407
 21
345.6123377929417
 31
0.0
  0
LINE
  5
B93F
330
1A
100
AcDbEntity
  8
SEIHIN
100
AcDbLine
 10
422.7762627625407
 20
345.6123377929417
 30
0.0
 11
422.4751713598408
 21
345.6123413112417
 31
0.0
  0
LINE
  5
B940
330
1A
100
AcDbEntity
  8
SEIHIN
100
AcDbLine
 10
431.9522786164408
 20
345.6123377929417
 30
0.0
 11
422.7762627625407
 21
345.6123377929417
 31
0.0
  0
LINE
  5
B941
330
1A
100
AcDbEntity
  8
SEIHIN
100
AcDbLine
 10
432.2707462335407
 20
345.6123377929417
 30
0.0
 11
431.9522786164408
 21
345.6123377929417
 31
0.0
  0
LINE
  5
B942
330
1A
100
AcDbEntity
  8
SEIHIN
100
AcDbLine
 10
425.4822689319409
 20
340.6074922333417
 30
0.0
 11
425.4582230582408
 21
340.6123413112417
 31
0.0
  0
ARC
  5
B943
330
1A
100
AcDbEntity
  8
SEIHIN
100
AcDbCircle
 10
425.6329718256408
 20
341.3285720308417
 30
0.0
 40
0.7366596476788651
100
AcDbArc
 50
258.1953196094008
 51
281.8046803905991
  0
LINE
  5
B944
330
1A
100
AcDbEntity
  8
SEIHIN
100
AcDbLine
 10
425.8442032361407
 20
340.6123425612417
 30
0.0
 11
435.3928822303409
 21
340.6123425612417
 31
0.0
  0
ELLIPSE
  5
B945
330
1A
100
AcDbEntity
  8
SEIHIN
100
AcDbEllipse
 10
435.3065055443408
 20
341.2373413112417
 30
0.0
 11
-0.4978379492678755
 21
0.6239001231936641
 31
0.0
210
0.0
220
0.0
230
1.0
 40
0.0744471158
 41
2.932494365981654
 42
3.082257684414781
  0
ELLIPSE
  5
B946
330
1A
100
AcDbEntity
  8
SEIHIN
100
AcDbEllipse
 10
435.3065055443408
 20
341.2373413112417
 30
0.0
 11
-0.2056509513477636
 21
0.6055307540771651
 31
0.0
210
0.0
220
0.0
230
1.0
 40
0.7526448229
 41
2.89133726725435
 42
3.041100585687549
  0
ELLIPSE
  5
B947
330
1A
100
AcDbEntity
  8
SEIHIN
100
AcDbEllipse
 10
425.9305882622408
 20
339.9873413112417
 30
0.0
 11
-0.2056509513478204
 21
0.6055307540772219
 31
0.0
210
0.0
220
0.0
230
1.0
 40
0.7526448229
 41
6.032929920843745
 42
6.157543952298074
  0
ELLIPSE
  5
B948
330
1A
100
AcDbEntity
  8
SEIHIN
100
AcDbEllipse
 10
435.3065055443408
 20
340.4369507815417
 30
0.0
 11
0.4982854426542643
 21
0.1577329722602485
 31
0.0
210
0.0
220
0.0
230
1.0
 40
0.2622894906
 41
0.2192894343890042
 42
1.164568372087136
  0
LWPOLYLINE
  5
B94A
330
1A
100
AcDbEntity
  8
SEIHIN
100
AcDbPolyline
 90
        4
 70
   128
 43
0.0
 10
422.4751698995409
 20
345.6123377929417
 10
423.9418315911408
 20
343.1700076709417
 10
425.4793632054408
 20
340.6123425612417
 10
425.4822689319409
 20
340.6074922333417
  0
LINE
  5
B94D
330
1A
100
AcDbEntity
  8
SEIHIN
100
AcDbLine
 10
440.5253835906409
 20
345.6123413112417
 30
0.0
 11
437.6769471192409
 21
345.6123377929417
 31
0.0
  0
LINE
  5
B94E
330
1A
100
AcDbEntity
  8
SEIHIN
100
AcDbLine
 10
440.5442732596408
 20
340.6123425612417
 30
0.0
 11
440.5892747664408
 21
340.6154271016418
 31
0.0
  0
LINE
  5
B94F
330
1A
100
AcDbEntity
  8
SEIHIN
100
AcDbLine
 10
443.2648527646409
 20
340.6154345522417
 30
0.0
 11
443.4013407857409
 21
340.6123413112417
 31
0.0
  0
LINE
  5
B950
330
1A
100
AcDbEntity
  8
SEIHIN
100
AcDbLine
 10
438.0366760516407
 20
340.6123425612417
 30
0.0
 11
440.5442732596408
 21
340.6123425612417
 31
0.0
  0
SPLINE
  5
B951
330
1A
100
AcDbEntity
  8
SEIHIN
100
AcDbSpline
210
0.0
220
0.0
230
1.0
 70
    12
 71
     3
 72
    21
 73
    17
 74
     0
 42
0.0000000001
 43
0.0000000001
 40
0.0
 40
0.0
 40
0.0
 40
0.0
 40
0.0391844043386311
 40
0.0837419173483379
 40
0.1338247809795365
 40
0.1895578960864555
 40
0.2510218002734538
 40
0.3751258782378329
 40
0.5006329982365312
 40
0.5421123565316024
 40
0.6251272380937789
 40
0.7022426375925156
 40
0.7503587677240149
 40
0.8489520616670118
 40
0.9319836260679236
 40
1.0
 40
1.0
 40
1.0
 40
1.0
 10
440.589272759389
 20
340.6154248154305
 30
0.0
 41
1.0
 10
440.60507383631
 20
340.6172772027999
 30
0.0
 41
1.0
 10
440.6388426915433
 20
340.6212359836622
 30
0.0
 41
1.0
 10
440.7021247447925
 20
340.6250740859354
 30
0.0
 41
1.0
 10
440.7817660512081
 20
340.6279765279479
 30
0.0
 41
1.0
 10
440.8815607375919
 20
340.6297288912651
 30
0.0
 41
1.0
 10
441.0422581127431
 20
340.6303479869011
 30
0.0
 41
1.0
 10
441.282432303242
 20
340.6301448328266
 30
0.0
 41
1.0
 10
441.543532544198
 20
340.6287986099744
 30
0.0
 41
1.0
 10
441.7849033972728
 20
340.6288896422922
 30
0.0
 41
1.0
 10
441.9894333088326
 20
340.6294650226206
 30
0.0
 41
1.0
 10
442.2115720715586
 20
340.6299473638137
 30
0.0
 41
1.0
 10
442.4577118266983
 20
340.6303182753689
 30
0.0
 41
1.0
 10
442.7183133416573
 20
340.6290257438433
 30
0.0
 41
1.0
 10
443.0080258157603
 20
340.6249559903826
 30
0.0
 41
1.0
 10
443.1851166406292
 20
340.6183892939929
 30
0.0
 41
1.0
 10
443.2648600379715
 20
340.6154323328976
 30
0.0
 41
1.0
  0
LWPOLYLINE
  5
B952
330
1A
100
AcDbEntity
  8
SEIHIN
100
AcDbPolyline
 90
        3
 70
   128
 43
0.0
 10
443.4013474011408
 20
340.6123425612417
 10
441.6157263541407
 20
343.7172677169417
 10
440.5253934884407
 20
345.6123377929417
  0
LINE
  5
B955
330
1A
100
AcDbEntity
  8
SEIHIN
100
AcDbLine
 10
477.8533721810372
 20
340.1811254968804
 30
0.0
 11
479.5174679171408
 21
328.1996361974417
 31
0.0
  0
LINE
  5
B957
330
1A
100
AcDbEntity
  8
SEIHIN
100
AcDbLine
 10
466.6250498299408
 20
338.1996361974417
 30
0.0
 11
466.900354638661
 21
340.1818271718293
 31
0.0
  0
LINE
  5
B959
330
1A
100
AcDbEntity
  8
CENTER_L
  6
CENTER
 62
     1
 48
5.0
100
AcDbLine
 10
472.3768144290407
 20
417.8615607513406
 30
0.0
 11
472.3768144290407
 21
297.8473510213984
 31
0.0
  0
ARC
  5
B95F
330
1A
100
AcDbEntity
  8
SEIHIN
100
AcDbCircle
 10
463.6535681220408
 20
338.6123489350417
 30
0.0
 40
3.000009055972569
100
AcDbArc
 50
270.0001348799972
 51
352.0927095034998
  0
ARC
  5
B964
330
1A
100
AcDbEntity
  8
SEIHIN
100
AcDbCircle
 10
482.4889390786408
 20
328.6123321964418
 30
0.0
 40
2.999990231208821
100
AcDbArc
 50
187.9069774529
 51
270.0001781636999
  0
ARC
  5
B965
330
1A
100
AcDbEntity
  8
SEIHIN
100
AcDbCircle
 10
476.8367341929409
 20
342.7184435728418
 30
0.0
 40
0.6602719370891394
100
AcDbArc
 50
3.065963920000086
 51
84.0695446450991
  0
LINE
  5
B967
330
1A
100
AcDbEntity
  8
SEIHIN
100
AcDbLine
 10
477.2108856747407
 20
340.6188441564418
 30
0.0
 11
478.0946385569408
 21
340.6123413112417
 31
0.0
  0
LWPOLYLINE
  5
B968
330
1A
100
AcDbEntity
  8
SEIHIN
100
AcDbPolyline
 90
        3
 70
   128
 43
0.0
 10
477.2877502465409
 20
340.6190555344417
 10
477.3446205282408
 20
340.6174536595417
 10
477.4014982605409
 20
340.6123425612417
  0
LINE
  5
B96A
330
1A
100
AcDbEntity
  8
SEIHIN
100
AcDbLine
 10
472.3768144290407
 20
345.6123413112417
 30
0.0
 11
472.3768144290407
 21
343.4311286142417
 31
0.0
  0
LINE
  5
B96B
330
1A
100
AcDbEntity
  8
SEIHIN
100
AcDbLine
 10
467.4081336304408
 20
343.3623413112417
 30
0.0
 11
467.4098351409408
 21
343.3745921862417
 31
0.0
  0
ARC
  5
B96C
330
1A
100
AcDbEntity
  8
SEIHIN
100
AcDbCircle
 10
467.9186395076409
 20
342.7167859480417
 30
0.0
 40
0.6621025848145631
100
AcDbArc
 50
96.06562885530188
 51
176.7988625795997
  0
LWPOLYLINE
  5
B96D
330
1A
100
AcDbEntity
  8
SEIHIN
100
AcDbPolyline
 90
        3
 70
   128
 43
0.0
 10
467.8486767435409
 20
343.3751817594417
 10
472.3767447495407
 20
343.3623444090417
 10
476.9049543166407
 20
343.3751817594417
  0
LINE
  5
B96E
330
1A
100
AcDbEntity
  8
SEIHIN
100
AcDbLine
 10
467.4658793810407
 20
340.6190525963417
 30
0.0
 11
466.6589903011407
 21
340.6123413112417
 31
0.0
  0
ARC
  5
B96F
330
1A
100
AcDbEntity
  8
SEIHIN
100
AcDbCircle
 10
466.6254480157407
 20
340.9975791449417
 30
0.0
 40
0.3866940857881542
100
AcDbArc
 50
274.9761671955994
 51
358.1786580725997
  0
LINE
  5
B970
330
1A
100
AcDbEntity
  8
SEIHIN
100
AcDbLine
 10
467.3521327996407
 20
340.6123425612417
 30
0.0
 11
467.3518571281407
 21
340.6104352126417
 31
0.0
  0
ARC
  5
B971
330
1A
100
AcDbEntity
  8
SEIHIN
100
AcDbCircle
 10
467.3955028136409
 20
340.1123413112417
 30
0.0
 40
0.5000000000075661
100
AcDbArc
 50
95.00747166080136
 51
172.0928372970002
  0
LINE
  5
B972
330
1A
100
AcDbEntity
  8
SEIHIN
100
AcDbLine
 10
467.3521327996407
 20
340.6123425612417
 30
0.0
 11
467.4658808136408
 21
340.6190555344417
 31
0.0
  0
LINE
  5
B973
330
1A
100
AcDbEntity
  8
SEIHIN
100
AcDbLine
 10
467.4658808136408
 20
340.6190555344417
 30
0.0
 11
472.3768118048409
 21
340.6123425612417
 31
0.0
  0
LINE
  5
B974
330
1A
100
AcDbEntity
  8
SEIHIN
100
AcDbLine
 10
472.3768118048409
 20
340.6123425612417
 30
0.0
 11
477.2877502465409
 21
340.6190555344417
 31
0.0
  0
LINE
  5
B975
330
1A
100
AcDbEntity
  8
SEIHIN
100
AcDbLine
 10
476.9049543166407
 20
343.3751817594417
 30
0.0
 11
477.2877502465409
 21
340.6190555344417
 31
0.0
  0
LINE
  5
B976
330
1A
100
AcDbEntity
  8
SEIHIN
100
AcDbLine
 10
467.2575700307407
 20
342.7537586341417
 30
0.0
 11
467.0119467401408
 21
340.9852888236418
 31
0.0
  0
LINE
  5
B977
330
1A
100
AcDbEntity
  8
SEIHIN
100
AcDbLine
 10
467.4658808136408
 20
340.6190555344417
 30
0.0
 11
467.8486767435409
 21
343.3751817594417
 31
0.0
  0
LINE
  5
B97A
330
1A
100
AcDbEntity
  8
SEIHIN
100
AcDbLine
 10
477.4115366513409
 20
343.3623413112417
 30
0.0
 11
477.4098351409407
 21
343.3745921862417
 31
0.0
  0
ARC
  5
B97B
330
1A
100
AcDbEntity
  8
SEIHIN
100
AcDbCircle
 10
478.1455728746408
 20
341.0140368808417
 30
0.0
 40
0.4049103793760838
100
AcDbArc
 50
184.0713436724998
 51
262.7738310592964
  0
ARC
  5
B97C
330
1A
100
AcDbEntity
  8
SEIHIN
100
AcDbCircle
 10
477.3581260444408
 20
340.1123413112417
 30
0.0
 40
0.5000000000076009
100
AcDbArc
 50
7.907162702999745
 51
84.99252833919864
  0
LINE
  5
B97D
330
1A
100
AcDbEntity
  8
SEIHIN
100
AcDbLine
 10
477.4014982605409
 20
340.6123425612417
 30
0.0
 11
477.4017664814408
 21
340.6104352126417
 31
0.0
  0
LINE
  5
B97E
330
1A
100
AcDbEntity
  8
SEIHIN
100
AcDbLine
 10
477.7416843200409
 20
340.9852888236418
 30
0.0
 11
477.4960610294409
 21
342.7537586341417
 31
0.0
  0
LINE
  5
B988
330
1A
100
AcDbEntity
  8
SEIHIN
100
AcDbLine
 10
506.4830948220409
 20
305.6123413112417
 30
0.0
 11
506.4830961847409
 21
325.6123419652417
 31
0.0
  0
LINE
  5
B98B
330
1A
100
AcDbEntity
  8
SEIHIN
100
AcDbLine
 10
508.9218127513407
 20
330.6123413112417
 30
0.0
 11
508.9218127513407
 21
305.6123413112417
 31
0.0
  0
LINE
  5
B98D
330
1A
100
AcDbEntity
  8
SEIHIN
100
AcDbLine
 10
520.8218130493409
 20
345.2424909720417
 30
0.0
 11
520.8218127513409
 21
305.6123413112417
 31
0.0
  0
LINE
  5
B98F
330
1A
100
AcDbEntity
  8
SEIHIN
100
AcDbLine
 10
518.8218127513408
 20
305.6123413112417
 30
0.0
 11
510.8218127513408
 21
305.6123413112417
 31
0.0
  0
LINE
  5
B990
330
1A
100
AcDbEntity
  8
SEIHIN
100
AcDbLine
 10
508.9218127513407
 20
305.6123413112417
 30
0.0
 11
506.4830948220409
 21
305.6123413112417
 31
0.0
  0
LINE
  5
B991
330
1A
100
AcDbEntity
  8
SEIHIN
100
AcDbLine
 10
508.9218127513407
 20
305.6123413112417
 30
0.0
 11
510.8218127513408
 21
305.6123413112417
 31
0.0
  0
LINE
  5
B992
330
1A
100
AcDbEntity
  8
SEIHIN
100
AcDbLine
 10
505.0368120900408
 20
305.6123413112417
 30
0.0
 11
506.4830948220409
 21
305.6123413112417
 31
0.0
  0
LINE
  5
B993
330
1A
100
AcDbEntity
  8
SEIHIN
100
AcDbLine
 10
520.8218127513409
 20
305.6123413112417
 30
0.0
 11
518.8218127513408
 21
305.6123413112417
 31
0.0
  0
ELLIPSE
  5
B99B
330
1A
100
AcDbEntity
  8
SEIHIN
100
AcDbEllipse
 10
516.8617159346407
 20
364.5724381279417
 30
0.0
 11
-9.974980510463579
 21
9.974980510463579
 31
0.0000000000000355
210
0.0
220
-0.0000000000000036
230
1.0
 40
0.9924325091
 41
5.501585242055433
 42
7.064785372303768
  0
ELLIPSE
  5
B99C
330
1A
100
AcDbEntity
  8
SEIHIN
100
AcDbEllipse
 10
518.3674456910408
 20
363.0667083715417
 30
0.0
 11
-8.549983294683103
 21
8.549983294683103
 31
0.0000000000000284
210
0.0000000000000017
220
-0.0000000000000017
230
1.0
 40
0.9924325091
 41
5.612196749886386
 42
6.954173864472812
  0
LINE
  5
B9A3
330
1A
100
AcDbEntity
  8
SEIHIN
100
AcDbLine
 10
507.7380719805408
 20
328.0239905963417
 30
0.0
 11
507.9384329939408
 21
340.6123425612417
 31
0.0
  0
LINE
  5
B9A4
330
1A
100
AcDbEntity
  8
SEIHIN
100
AcDbLine
 10
509.1248410964407
 20
334.6123378525417
 30
0.0
 11
509.2203351879407
 21
340.6123425612417
 31
0.0
  0
LINE
  5
B9A5
330
1A
100
AcDbEntity
  8
SEIHIN
100
AcDbLine
 10
506.9385278249409
 20
340.6123425612417
 30
0.0
 11
506.7137840047409
 21
326.4915772631417
 31
0.0
  0
SPLINE
  5
B9A6
330
1A
100
AcDbEntity
  8
SEIHIN
100
AcDbSpline
210
0.0
220
0.0
230
1.0
 70
    12
 71
     3
 72
    16
 73
    12
 74
     0
 42
0.0000000001
 43
0.0000000001
 40
0.0
 40
0.0
 40
0.0
 40
0.0
 40
0.125
 40
0.125
 40
0.25
 40
0.5
 40
0.5
 40
0.75
 40
0.875
 40
0.875
 40
1.0
 40
1.0
 40
1.0
 40
1.0
 10
502.8865613086435
 20
340.6123413112639
 30
0.0
 41
1.0
 10
502.8863866319319
 20
339.9998413647316
 30
0.0
 41
1.0
 10
502.885560225735
 20
339.3873414181987
 30
0.0
 41
1.0
 10
502.881807210258
 20
338.1623415251342
 30
0.0
 41
1.0
 10
502.8737560263583
 20
336.3248416855337
 30
0.0
 41
1.0
 10
502.8607996250669
 20
334.4873418459391
 30
0.0
 41
1.0
 10
502.8433567151904
 20
332.0373420598095
 30
0.0
 41
1.0
 10
502.8301489097381
 20
330.1998422202117
 30
0.0
 41
1.0
 10
502.8214628958102
 20
328.3623423806143
 30
0.0
 41
1.0
 10
502.8172001496203
 20
327.1373424875493
 30
0.0
 41
1.0
 10
502.815951349679
 20
326.5248425410169
 30
0.0
 41
1.0
 10
502.8156008230679
 20
325.9123425944844
 30
0.0
 41
1.0
  0
LINE
  5
B9A8
330
1A
100
AcDbEntity
  8
SEIHIN
100
AcDbLine
 10
518.3218117082409
 20
345.1458196888417
 30
0.0
 11
518.3218127513408
 21
332.6123413112417
 31
0.0
  0
LINE
  5
B9A9
330
1A
100
AcDbEntity
  8
SEIHIN
100
AcDbLine
 10
516.3218113804409
 20
346.1850564728417
 30
0.0
 11
516.3218127513409
 21
330.6123413112417
 31
0.0
  0
LINE
  5
B9AB
330
1A
100
AcDbEntity
  8
SEIHIN
100
AcDbLine
 10
511.6752791428408
 20
330.6123446474417
 30
0.0
 11
511.6752791428408
 21
346.2740611086418
 31
0.0
  0
ARC
  5
B9AC
330
1A
100
AcDbEntity
  8
SEIHIN
100
AcDbCircle
 10
516.3218127513409
 20
332.6123413112417
 30
0.0
 40
2.0
100
AcDbArc
 50
270.0
 51
0.0
  0
LINE
  5
B9AD
330
1A
100
AcDbEntity
  8
SEIHIN
100
AcDbLine
 10
517.3754604786408
 20
316.6123413112417
 30
0.0
 11
518.3754604786408
 21
316.6123413112417
 31
0.0
  0
LINE
  5
B9AE
330
1A
100
AcDbEntity
  8
SEIHIN
100
AcDbLine
 10
518.3754604786408
 20
318.6123413112417
 30
0.0
 11
517.3754604786408
 21
318.6123413112417
 31
0.0
  0
LINE
  5
B9B2
330
1A
100
AcDbEntity
  8
SEIHIN
100
AcDbLine
 10
517.3754604786408
 20
316.6123413112417
 30
0.0
 11
516.5290306932408
 21
316.6123413112417
 31
0.0
  0
LINE
  5
B9B3
330
1A
100
AcDbEntity
  8
SEIHIN
100
AcDbLine
 10
517.3754604786408
 20
318.6123413112417
 30
0.0
 11
516.5290306932408
 21
318.6123413112417
 31
0.0
  0
LINE
  5
B9B4
330
1A
100
AcDbEntity
  8
SEIHIN
100
AcDbLine
 10
509.1248410964407
 20
334.6123378525417
 30
0.0
 11
508.9766117954408
 21
331.6090088139417
 31
0.0
  0
LINE
  5
B9B5
330
1A
100
AcDbEntity
  8
SEIHIN
100
AcDbLine
 10
508.9766117954408
 20
331.6090088139417
 30
0.0
 11
508.2599180961409
 21
328.0239905963417
 31
0.0
  0
LINE
  5
B9B6
330
1A
100
AcDbEntity
  8
SEIHIN
100
AcDbLine
 10
508.2599180961409
 20
328.0239905963417
 30
0.0
 11
507.7380719805408
 21
328.0239905963417
 31
0.0
  0
LINE
  5
B9B7
330
1A
100
AcDbEntity
  8
SEIHIN
100
AcDbLine
 10
510.8218127513408
 20
330.6123413112417
 30
0.0
 11
508.9218127513407
 21
330.6123413112417
 31
0.0
  0
LINE
  5
B9BC
330
1A
100
AcDbEntity
  8
SEIHIN
100
AcDbLine
 10
511.2375280710408
 20
318.6123413112417
 30
0.0
 11
511.2375280710408
 21
316.6123413112417
 31
0.0
  0
LINE
  5
B9BD
330
1A
100
AcDbEntity
  8
SEIHIN
100
AcDbLine
 10
506.8798570500408
 20
325.6123413112417
 30
0.0
 11
507.5820717239408
 21
325.6123419652417
 31
0.0
  0
LINE
  5
B9BE
330
1A
100
AcDbEntity
  8
SEIHIN
100
AcDbLine
 10
500.8848821325408
 20
325.6123413112417
 30
0.0
 11
503.1146588945408
 21
325.6123419652417
 31
0.0
  0
LINE
  5
B9BF
330
1A
100
AcDbEntity
  8
SEIHIN
100
AcDbLine
 10
503.1146588945408
 20
325.6123419652417
 30
0.0
 11
506.8798570500408
 21
325.6123413112417
 31
0.0
  0
ARC
  5
B9C0
330
1A
100
AcDbEntity
  8
SEIHIN
100
AcDbCircle
 10
506.8803235897409
 20
325.9118624689418
 30
0.0
 40
0.2995208710301218
100
AcDbArc
 50
179.9087302174999
 51
269.910267632198
  0
LINE
  5
B9C2
330
1A
100
AcDbEntity
  8
SEIHIN
100
AcDbLine
 10
510.8218127513408
 20
330.6123413112417
 30
0.0
 11
516.3218127513409
 21
330.6123413112417
 31
0.0
  0
LINE
  5
B9C3
330
1A
100
AcDbEntity
  8
SEIHIN
100
AcDbLine
 10
516.5290306932408
 20
316.6123413112417
 30
0.0
 11
511.2375280710408
 21
316.6123413112417
 31
0.0
  0
LINE
  5
B9C4
330
1A
100
AcDbEntity
  8
SEIHIN
100
AcDbLine
 10
516.5290306932408
 20
318.6123413112417
 30
0.0
 11
511.2375280710408
 21
318.6123413112417
 31
0.0
  0
ELLIPSE
  5
B9C5
330
1A
100
AcDbEntity
  8
SEIHIN
100
AcDbEllipse
 10
506.5808025043407
 20
328.6123413112417
 30
0.0
 11
0.0
 21
2.700000000000044
 31
0.0
210
0.0
220
0.0
230
1.0
 40
0.0795802934
 41
3.141592653589792
 42
3.808936770064412
  0
SPLINE
  5
B9C7
330
1A
100
AcDbEntity
  8
SEIHIN
100
AcDbSpline
210
0.0
220
0.0
230
1.0
 70
    12
 71
     3
 72
    10
 73
     6
 74
     0
 42
0.0000000001
 43
0.0000000001
 40
0.0
 40
0.0
 40
0.0
 40
0.0
 40
0.5
 40
0.5
 40
1.0
 40
1.0
 40
1.0
 40
1.0
 10
502.815608468445
 20
325.9123413112639
 30
0.0
 41
1.0
 10
502.815608468445
 20
325.8338014949243
 30
0.0
 41
1.0
 10
502.8478385028246
 20
325.755745313635
 30
0.0
 41
1.0
 10
502.9585605310471
 20
325.6446732401811
 30
0.0
 41
1.0
 10
503.0363707171622
 20
325.6123413112639
 30
0.0
 41
1.0
 10
503.114663014145
 20
325.6123413112639
 30
0.0
 41
1.0
  0
ELLIPSE
  5
B9C9
330
1A
100
AcDbEntity
  8
SEIHIN
100
AcDbEllipse
 10
508.1340668040407
 20
328.6123413112417
 30
0.0
 11
0.5553377924528605
 21
2.99969556000127
 31
0.0
210
0.0
220
0.0
230
1.0
 40
0.0769587904
 41
3.155839177094738
 42
4.529239944039637
  0
LINE
  5
B9CB
330
1A
100
AcDbEntity
  8
SEIHIN
100
AcDbLine
 10
518.3754604786408
 20
316.6123413112417
 30
0.0
 11
518.3754604786408
 21
318.6123413112417
 31
0.0
  0
LINE
  5
B9CC
330
1A
100
AcDbEntity
  8
SEIHIN
100
AcDbLine
 10
518.8218127215407
 20
346.3058974395417
 30
0.0
 11
515.9779298329407
 21
346.3058974395417
 31
0.0
  0
LINE
  5
B9CE
330
1A
100
AcDbEntity
  8
SEIHIN
100
AcDbLine
 10
502.8082388663409
 20
364.6791893790417
 30
0.0
 11
502.8082388663409
 21
364.1238864312417
 31
0.0
  0
LINE
  5
B9CF
330
1A
100
AcDbEntity
  8
SEIHIN
100
AcDbLine
 10
510.8218151355408
 20
351.2414153466417
 30
0.0
 11
510.8218151355408
 21
351.4040354440417
 31
0.0
  0
LINE
  5
B9D0
330
1A
100
AcDbEntity
  8
SEIHIN
100
AcDbLine
 10
510.8218151355408
 20
356.3234265695417
 30
0.0
 11
510.8218151355408
 21
351.4040354440417
 31
0.0
  0
ARC
  5
B9D1
330
1A
100
AcDbEntity
  8
SEIHIN
100
AcDbCircle
 10
508.442759698641
 20
350.2837947335418
 30
0.0
 40
5.476804261336305
100
AcDbArc
 50
36.9115731037013
 51
61.11903693630082
  0
ARC
  5
B9D2
330
1A
100
AcDbEntity
  8
SEIHIN
100
AcDbCircle
 10
511.5456509559407
 20
356.0492140351417
 30
0.0
 40
1.07234919248016
100
AcDbArc
 50
227.5458414277012
 51
244.7375445187012
  0
ARC
  5
B9D4
330
1A
100
AcDbEntity
  8
SEIHIN
100
AcDbCircle
 10
513.7263906823408
 20
358.3398123776417
 30
0.0
 40
7.519412262898697
100
AcDbArc
 50
229.2881104142978
 51
247.2769629429008
  0
LWPOLYLINE
  5
B9D5
330
1A
100
AcDbEntity
  8
SEIHIN
100
AcDbPolyline
 90
       18
 70
   128
 43
0.0
 10
508.8218110824408
 20
358.4921899984417
 10
509.0462374711409
 20
358.2091983209417
 10
509.2778983736407
 20
357.9317908535417
 10
509.3978899741408
 20
357.7934931765417
 10
509.5187532926409
 20
357.6576504657417
 10
509.6406820440409
 20
357.5239423463417
 10
509.7625437403409
 20
357.3934528778418
 10
509.8952683830408
 20
357.2546969900418
 10
510.0261974358407
 20
357.1209888706417
 10
510.1554948115407
 20
356.9917660007417
 10
510.2801653767409
 20
356.8694945226417
 10
510.4641500139408
 20
356.6922303090417
 10
510.6234732294409
 20
356.5397430012417
 10
510.6776613021407
 20
356.4872089574417
 10
510.7633057260407
 20
356.4008977065417
 10
510.7929143333409
 20
356.3682269106418
 10
510.814431610141
 20
356.3404287944417
 10
510.8218151355408
 20
356.3234265695417
  0
LINE
  5
B9D6
330
1A
100
AcDbEntity
  8
SEIHIN
100
AcDbLine
 10
510.8218151355408
 20
351.2414153466417
 30
0.0
 11
510.8218151355408
 21
350.3560777555417
 31
0.0
  0
ARC
  5
B9D7
330
1A
100
AcDbEntity
  8
SEIHIN
100
AcDbCircle
 10
508.8238511928408
 20
350.5893720712417
 30
0.0
 40
4.9885972255605
100
AcDbArc
 50
0.0066547172001206
 51
36.73410291769929
  0
ARC
  5
B9D9
330
1A
100
AcDbEntity
  8
SEIHIN
100
AcDbCircle
 10
518.2994409898409
 20
365.8170128581417
 30
0.0
 40
11.97825106555969
100
AcDbArc
 50
186.3735412964
 51
217.6987814792004
  0
ARC
  5
B9DA
330
1A
100
AcDbEntity
  8
SEIHIN
100
AcDbCircle
 10
516.7969952261408
 20
364.1327909635417
 30
0.0
 40
13.9887591938431
100
AcDbArc
 50
180.0364715802
 51
235.2418408256995
  0
LINE
  5
B9DB
330
1A
100
AcDbEntity
  8
SEIHIN
100
AcDbLine
 10
511.4560160065408
 20
346.4072327862417
 30
0.0
 11
513.9639224136409
 21
346.4072327862417
 31
0.0
  0
LINE
  5
B9DC
330
1A
100
AcDbEntity
  8
SEIHIN
100
AcDbLine
 10
513.9842326963409
 20
346.3949020753418
 30
0.0
 11
513.9639224136409
 21
346.4072327862417
 31
0.0
  0
LINE
  5
B9DD
330
1A
100
AcDbEntity
  8
SEIHIN
100
AcDbLine
 10
511.4560160065408
 20
346.4072327862417
 30
0.0
 11
511.6752791428408
 21
346.2740611086418
 31
0.0
  0
ARC
  5
B9DE
330
1A
100
AcDbEntity
  8
SEIHIN
100
AcDbCircle
 10
510.8197085694408
 20
345.4786732536418
 30
0.0
 40
0.2810305330759562
100
AcDbArc
 50
5.806687580600018
 51
28.39991059470056
  0
ARC
  5
B9E1
330
1A
100
AcDbEntity
  8
SEIHIN
100
AcDbCircle
 10
561.7553340831408
 20
345.7129862931417
 30
0.0
 40
55.37859251654431
100
AcDbArc
 50
177.2373403994
 51
180.0924468434998
  0
LINE
  5
B9E3
330
1A
100
AcDbEntity
  8
SEIHIN
100
AcDbLine
 10
511.0669168854409
 20
345.6123377929417
 30
0.0
 11
506.6537517333407
 21
345.6123377929417
 31
0.0
  0
LINE
  5
B9E4
330
1A
100
AcDbEntity
  8
SEIHIN
100
AcDbLine
 10
506.6537517333407
 20
345.6123377929417
 30
0.0
 11
502.8808098927408
 21
345.6123413112417
 31
0.0
  0
LWPOLYLINE
  5
B9E5
330
1A
100
AcDbEntity
  8
SEIHIN
100
AcDbPolyline
 90
       13
 70
   128
 43
0.0
 10
510.8218151355408
 20
350.3560777555417
 10
510.7674184465407
 20
350.3965567598417
 10
510.7401120686407
 20
350.4029195557417
 10
510.7436063909407
 20
350.3734897623417
 10
510.7757034922409
 20
350.3074515412417
 10
510.8284461522409
 20
350.2116258988417
 10
510.8970809007408
 20
350.0844370375418
 10
510.9881269956408
 20
349.8991932521418
 10
511.0824662471408
 20
349.6739696512417
 10
511.1770811701409
 20
349.3870626936417
 10
511.2530398393409
 20
349.0544389734417
 10
511.2912464166408
 20
348.7656879971418
 10
511.3045978570409
 20
348.4576213906417
  0
LINE
  5
B9E7
330
1A
100
AcDbEntity
  8
SEIHIN
100
AcDbLine
 10
513.8124483848408
 20
348.4049010823417
 30
0.0
 11
513.8124483848408
 21
350.5899514804417
 31
0.0
  0
ARC
  5
B9E8
330
1A
100
AcDbEntity
  8
SEIHIN
100
AcDbCircle
 10
503.6088584179409
 20
348.6174436681417
 30
0.0
 40
2.842001596250845
100
AcDbArc
 50
355.2513503540999
 51
64.91541383280223
  0
ELLIPSE
  5
B9EB
330
1A
100
AcDbEntity
  8
SEIHIN
100
AcDbEllipse
 10
515.9779301337408
 20
346.4025678082417
 30
0.0
 11
2.0
 21
0.0
 31
0.0
210
0.0
220
0.0
230
1.0
 40
0.0483365671
 41
3.22100513455518
 42
4.712388980384691
  0
ELLIPSE
  5
B9ED
330
1A
100
AcDbEntity
  8
SEIHIN
100
AcDbEllipse
 10
511.4637034837409
 20
348.4049028688417
 30
0.0
 11
0.0
 21
2.0
 31
0.0
210
0.0
220
0.0
230
1.0
 40
0.0795798372
 41
1.54443349845619
 42
3.09329367866514
  0
ELLIPSE
  5
B9EE
330
1A
100
AcDbEntity
  8
SEIHIN
100
AcDbEllipse
 10
513.9716071782408
 20
348.4049028688417
 30
0.0
 11
0.0
 21
2.0
 31
0.0
210
0.0
220
0.0
230
1.0
 40
0.0795798372
 41
1.570796326794897
 42
3.093293678664761
  0
ELLIPSE
  5
B9EF
330
1A
100
AcDbEntity
  8
SEIHIN
100
AcDbEllipse
 10
510.1024504375408
 20
343.8821069934417
 30
0.0
 11
0.998339871918802
 21
1.624614490313604
 31
0.0
210
0.0
220
0.0
230
1.0
 40
0.0354531765
 41
0.0217828423728254
 42
1.513094691314421
  0
ARC
  5
B9F1
330
1A
100
AcDbEntity
  8
SEIHIN
100
AcDbCircle
 10
510.7486161171408
 20
341.0477244546417
 30
0.0
 40
0.3549310280570699
100
AcDbArc
 50
8.875570824300041
 51
116.7278975451973
  0
LINE
  5
B9F2
330
1A
100
AcDbEntity
  8
SEIHIN
100
AcDbLine
 10
510.1053896570407
 20
341.1024864564418
 30
0.0
 11
511.0992971086408
 21
341.1024864564418
 31
0.0
  0
LWPOLYLINE
  5
B9F3
330
1A
100
AcDbEntity
  8
SEIHIN
100
AcDbPolyline
 90
       11
 70
   128
 43
0.0
 10
507.6092737937409
 20
340.9044127712417
 10
507.5820344710408
 20
340.9407269011418
 10
507.5460034633409
 20
340.9666400204417
 10
507.5189727569408
 20
340.9779649029417
 10
507.4905934954407
 20
340.9850504050418
 10
507.4476334476409
 20
340.9888203988417
 10
507.4052843475409
 20
340.9858401666417
 10
507.3448452377407
 20
340.9710954676417
 10
507.2892192030409
 20
340.9458305488417
 10
507.2426754260408
 20
340.9139718661418
 10
507.2015258694408
 20
340.8746924052417
  0
ARC
  5
B9F4
330
1A
100
AcDbEntity
  8
SEIHIN
100
AcDbCircle
 10
508.0301283836409
 20
341.0471961345417
 30
0.0
 40
0.4444161053567379
100
AcDbArc
 50
198.7405362702991
 51
258.0927627504022
  0
LINE
  5
B9F5
330
1A
100
AcDbEntity
  8
SEIHIN
100
AcDbLine
 10
509.2203351879407
 20
340.6123425612417
 30
0.0
 11
507.9384329939408
 21
340.6123425612417
 31
0.0
  0
LINE
  5
B9F6
330
1A
100
AcDbEntity
  8
SEIHIN
100
AcDbLine
 10
510.1025211835406
 20
341.1008994827417
 30
0.0
 11
509.2203351879407
 21
340.6123425612417
 31
0.0
  0
LWPOLYLINE
  5
B9F7
330
1A
100
AcDbEntity
  8
SEIHIN
100
AcDbPolyline
 90
        3
 70
   128
 43
0.0
 10
502.8865817213407
 20
340.6868483672417
 10
502.9185894155408
 20
340.6319524894417
 10
502.9510962987409
 20
340.6123425612417
  0
LWPOLYLINE
  5
B9F8
330
1A
100
AcDbEntity
  8
SEIHIN
100
AcDbPolyline
 90
        3
 70
   128
 43
0.0
 10
499.1640630388409
 20
340.6123425612417
 10
499.5719525242408
 20
340.6316991696417
 10
499.9798420095409
 20
340.6870048294417
  0
ARC
  5
B9F9
330
1A
100
AcDbEntity
  8
SEIHIN
100
AcDbCircle
 10
501.432912073641
 20
335.1174219365417
 30
0.0
 40
5.756011310995547
100
AcDbArc
 50
75.37165374610305
 51
104.6221780900983
  0
LINE
  5
B9FA
330
1A
100
AcDbEntity
  8
SEIHIN
100
AcDbLine
 10
502.9510962987409
 20
340.6123425612417
 30
0.0
 11
506.9385278249409
 21
340.6123425612417
 31
0.0
  0
ELLIPSE
  5
B9FB
330
1A
100
AcDbEntity
  8
SEIHIN
100
AcDbEllipse
 10
510.1024504375408
 20
341.0567857557417
 30
0.0
 11
0.9998252063994643
 21
0.5545318961688963
 31
0.0
210
0.0
220
0.0
230
1.0
 40
0.0337157055
 41
1.04398102438931
 42
1.552026806385391
  0
ELLIPSE
  5
B9FC
330
1A
100
AcDbEntity
  8
SEIHIN
100
AcDbEllipse
 10
507.9552744728409
 20
341.8623413112417
 30
0.0
 11
1.018798287781408
 21
1.249371076818136
 31
0.0
210
0.0
220
0.0
230
1.0
 40
0.0389158002
 41
3.173315854642108
 42
3.833112632574403
  0
SPLINE
  5
B9FD
330
1A
100
AcDbEntity
  8
SEIHIN
100
AcDbSpline
210
0.0
220
0.0
230
1.0
 70
    12
 71
     3
 72
     8
 73
     4
 74
     0
 42
0.0000000001
 43
0.0000000001
 40
0.0
 40
0.0
 40
0.0
 40
0.0
 40
1.0
 40
1.0
 40
1.0
 40
1.0
 10
502.8865804299238
 20
340.6868451555463
 30
0.0
 41
1.0
 10
502.8865747395842
 20
340.6620105407855
 30
0.0
 41
1.0
 10
502.8865683911402
 20
340.6371759260248
 30
0.0
 41
1.0
 10
502.8865613086435
 20
340.6123413112639
 30
0.0
 41
1.0
  0
SPLINE
  5
B9FE
330
1A
100
AcDbEntity
  8
SEIHIN
100
AcDbSpline
210
0.0
220
0.0
230
1.0
 70
    28
 71
     3
 72
     8
 73
     4
 74
     0
 42
0.0000000001
 43
0.0000000001
 40
0.0
 40
0.0
 40
0.0
 40
0.0
 40
1.0
 40
1.0
 40
1.0
 40
1.0
 10
499.9798438198387
 20
340.6870035497466
 30
0.0
 41
1.0
 10
499.9799245320597
 20
340.6621161369191
 30
0.0
 41
1.0
 10
499.9800052442802
 20
340.6372287240915
 30
0.0
 41
1.0
 10
499.9800859565006
 20
340.6123413112639
 30
0.0
 41
1.0
  0
LINE
  5
B9FF
330
1A
100
AcDbEntity
  8
SEIHIN
100
AcDbLine
 10
511.0992971086408
 20
341.1024864564418
 30
0.0
 11
511.0992971086408
 21
345.5071057925418
 31
0.0
  0
LINE
  5
BA00
330
1A
100
AcDbEntity
  8
SEIHIN
100
AcDbLine
 10
510.1025224344408
 20
344.0111333097417
 30
0.0
 11
510.1025211835406
 21
341.1008994827417
 31
0.0
  0
LINE
  5
BA02
330
1A
100
AcDbEntity
  8
SEIHIN
100
AcDbLine
 10
507.6092737937409
 20
340.9044127712417
 30
0.0
 11
510.1025224344408
 21
344.0111333097417
 31
0.0
  0
LWPOLYLINE
  5
BA04
330
1A
100
AcDbEntity
  8
SEIHIN
100
AcDbPolyline
 90
        3
 70
   128
 43
0.0
 10
502.9510962987409
 20
340.6123425612417
 10
505.3092870140409
 20
343.7969665775418
 10
506.6537517333407
 20
345.6123377929417
  0
LINE
  5
BA09
330
1A
100
AcDbEntity
  8
SEIHIN
100
AcDbLine
 10
520.8218130493409
 20
346.2092187057418
 30
0.0
 11
520.8218130493409
 21
345.2424909720417
 31
0.0
  0
LINE
  5
BA0B
330
1A
100
AcDbEntity
  8
SEIHIN
100
AcDbLine
 10
518.3218117082409
 20
346.0883777390417
 30
0.0
 11
518.3218117082409
 21
345.1458196888417
 31
0.0
  0
ELLIPSE
  5
BA0F
330
1A
100
AcDbEntity
  8
SEIHIN
100
AcDbEllipse
 10
518.8218127513408
 20
346.2092215396417
 30
0.0
 11
2.0
 21
0.0
 31
0.0
210
0.0
220
0.0
230
1.0
 40
0.0483365671
 41
0.0
 42
1.570796326794897
  0
ARC
  5
BAB3
330
1A
100
AcDbEntity
  8
SEIHIN
100
AcDbCircle
 10
394.3631291551409
 20
487.0429501882417
 30
0.0
 40
2.476095562645368
100
AcDbArc
 50
101.5247438690987
 51
128.0326799989996
  0
ARC
  5
BAB4
330
1A
100
AcDbEntity
  8
SEIHIN
100
AcDbCircle
 10
389.0766050370408
 20
492.3574075371417
 30
0.0
 40
1.999784304561379
100
AcDbArc
 50
146.9459001037983
 51
180.0018905152999
  0
ARC
  5
BAB5
330
1A
100
AcDbEntity
  8
SEIHIN
100
AcDbCircle
 10
389.0768108828409
 20
492.3573281034418
 30
0.0
 40
2.000010051871094
100
AcDbArc
 50
90.00002857039854
 51
123.0521808105008
  0
ARC
  5
BAB7
330
1A
100
AcDbEntity
  8
SEIHIN
100
AcDbCircle
 10
389.0767659418408
 20
492.3574068264417
 30
0.0
 40
1.99991955735719
100
AcDbArc
 50
123.0523317135007
 51
146.9483973470982
  0
LINE
  5
BAB8
330
1A
100
AcDbEntity
  8
SEIHIN
100
AcDbLine
 10
386.566381456841
 20
496.8677740345417
 30
0.0
 11
386.5715456770407
 21
496.8626072363417
 31
0.0
  0
LINE
  5
BAB9
330
1A
100
AcDbEntity
  8
SEIHIN
100
AcDbLine
 10
384.5715468262409
 20
494.8626083855417
 30
0.0
 11
384.5663774037408
 21
494.8677774320417
 31
0.0
  0
ELLIPSE
  5
BAC2
330
1A
100
AcDbEntity
  8
SEIHIN
100
AcDbEllipse
 10
386.5597556396409
 20
494.8743984229416
 30
0.0
 11
1.849729904396383
 21
0.7641993512924046
 31
0.0
210
0.0
220
0.0
230
1.0
 40
0.9953204518999999
 41
1.177354977124114
 42
1.224559948341822
  0
ELLIPSE
  5
BAC3
330
1A
100
AcDbEntity
  8
SEIHIN
100
AcDbEllipse
 10
394.1783213994409
 20
487.2558326631417
 30
0.0
 11
-1.554455385782546
 21
1.554455385782376
 31
0.0000000000000071
210
-0.0000000000000002
220
-0.0000000000000048
230
1.0
 40
0.9097807343000001
 41
6.1424673136236
 42
6.423903300735522
  0
ELLIPSE
  5
BAC4
330
1A
100
AcDbEntity
  8
SEIHIN
100
AcDbEllipse
 10
386.5597556396409
 20
494.8743984229416
 30
0.0
 11
0.7641993512953605
 21
1.849729904395076
 31
0.0
210
0.0
220
0.0
230
1.0
 40
0.9953204518999999
 41
1.917032705249568
 42
1.964237676467305
  0
ELLIPSE
  5
BAC5
330
1A
100
AcDbEntity
  8
SEIHIN
100
AcDbEllipse
 10
386.5667153841408
 20
494.8674386784417
 30
0.0
 11
-1.414679633283071
 21
1.414679633285799
 31
0.0
210
0.0
220
0.0
230
1.0
 40
0.9996705466999999
 41
5.54499268958687
 42
7.021377924774168
  0
LINE
  5
BAC6
330
1A
100
AcDbEntity
  8
SEIHIN
100
AcDbLine
 10
429.6337070061407
 20
453.2084270201417
 30
0.0
 11
429.6337070061407
 21
453.6777536747417
 31
0.0
  0
ARC
  5
BAC8
330
1A
100
AcDbEntity
  8
SEIHIN
100
AcDbCircle
 10
429.6704434254407
 20
451.7637042146417
 30
0.0
 40
1.914401345253278
100
AcDbArc
 50
91.09967604299965
 51
178.9002102604001
  0
ELLIPSE
  5
BACC
330
1A
100
AcDbEntity
  8
SEIHIN
100
AcDbEllipse
 10
436.4458500835409
 20
444.9883039790417
 30
0.0
 11
-1.582309689143641
 21
1.582309689143641
 31
0.0000000000000071
210
0.0000000000000022
220
-0.0000000000000022
230
1.0
 40
0.8937653431999999
 41
5.553825465120608
 42
7.012545149238595
  0
ARC
  5
BACF
330
1A
100
AcDbEntity
  8
SEIHIN
100
AcDbCircle
 10
440.8311927323408
 20
441.2575552405416
 30
0.0
 40
2.327467775501
100
AcDbArc
 50
113.0522508493026
 51
146.4708430177012
  0
ARC
  5
BAD3
330
1A
100
AcDbEntity
  8
SEIHIN
100
AcDbCircle
 10
440.1595970706408
 20
440.6170987272417
 30
0.0
 40
2.306302881587003
100
AcDbArc
 50
123.3707658346024
 51
157.105567558699
  0
LINE
  5
BC63
330
1A
100
AcDbEntity
  8
CENTER_L
  6
CENTER
 62
     1
 48
5.0
100
AcDbLine
 10
372.5838638861656
 20
508.8502901764159
 30
0.0000000000000284
 11
534.8460485911792
 21
346.5881054714037
 31
0.0000000000000284
  0
LINE
  5
BC64
330
1A
100
AcDbEntity
  8
SEIHIN
100
AcDbLine
 10
545.8218127513405
 20
439.4923404624424
 30
0.0
 11
545.8218127513407
 21
417.7805810521422
 31
0.0
  0
LINE
  5
BC65
330
1A
100
AcDbEntity
  8
SEIHIN
100
AcDbLine
 10
540.8218127513405
 20
438.0328132768421
 30
0.0
 11
540.8218127513407
 21
414.7751637614423
 31
0.0
  0
LINE
  5
BC66
330
1A
100
AcDbEntity
  8
SEIHIN
100
AcDbLine
 10
575.8218127513409
 20
376.3973419725425
 30
0.0
 11
575.8218127513405
 21
442.0304502305425
 31
0.0
  0
LINE
  5
BC67
330
1A
100
AcDbEntity
  8
SEIHIN
100
AcDbLine
 10
535.8218127513409
 20
378.5533441698422
 30
0.0
 11
535.8218127513405
 21
440.9087704719421
 31
0.0
  0
LWPOLYLINE
  5
BC68
330
1A
100
AcDbEntity
  8
SEIHIN
100
AcDbPolyline
 90
        3
 70
   128
 43
0.0
 10
540.8218115013404
 20
438.0328066614421
 10
537.7168863456404
 20
439.8184277084423
 10
535.8218162696405
 20
440.9087605741423
  0
LWPOLYLINE
  5
BC69
330
1A
100
AcDbEntity
  8
SEIHIN
100
AcDbPolyline
 90
        4
 70
   128
 43
0.0
 10
535.8218162696402
 20
458.9589841630421
 10
538.2641463916402
 20
457.4923224714422
 10
540.8218115013403
 20
455.9547908571422
 10
540.8266618292402
 20
455.9518851306421
  0
LINE
  5
BC6A
330
1A
100
AcDbEntity
  8
SEIHIN
100
AcDbLine
 10
535.8218162696403
 20
447.2949810293422
 30
0.0
 11
540.8218115013404
 21
443.3974780109423
 31
0.0
  0
LWPOLYLINE
  5
BC6B
330
1A
100
AcDbEntity
  8
SEIHIN
100
AcDbPolyline
 90
        4
 70
   128
 43
0.0
 10
540.64702088044
 20
465.4119320180422
 10
540.3620510738402
 20
465.6508870389422
 10
538.5229199569401
 20
467.1928293970421
 10
536.8802457492401
 20
468.5698904064421
  0
LINE
  5
BC6C
330
1A
100
AcDbEntity
  8
SEIHIN
100
AcDbLine
 10
540.21183991844
 20
468.7934525278422
 30
0.0
 11
537.0676562044401
 21
468.7934554760421
 31
0.0
  0
LINE
  5
BC6D
330
1A
100
AcDbEntity
  8
SEIHIN
100
AcDbLine
 10
535.9270482700401
 20
469.7481848266421
 30
0.0
 11
540.33166708934
 21
469.7481792107423
 31
0.0
  0
LINE
  5
BC6E
330
1A
100
AcDbEntity
  8
SEIHIN
100
AcDbLine
 10
545.8218127513402
 20
464.5598509651422
 30
0.0
 11
545.8218127513402
 21
456.2593501268422
 31
0.0
  0
LINE
  5
BC6F
330
1A
100
AcDbEntity
  8
SEIHIN
100
AcDbLine
 10
540.8218127513403
 20
465.1113875328422
 30
0.0
 11
540.8218127513403
 21
455.9759310043422
 31
0.0
  0
LINE
  5
BC70
330
1A
100
AcDbEntity
  8
SEIHIN
100
AcDbLine
 10
575.8218127513402
 20
453.6777536747425
 30
0.0
 11
575.8218127513401
 21
476.5573396335425
 31
0.0
  0
ELLIPSE
  5
BC71
330
1A
100
AcDbEntity
  8
SEIHIN
100
AcDbEllipse
 10
555.4922666262418
 20
296.9062603007424
 30
0.0
 11
-200.0
 21
-0.0000000005956071
 31
0.0
210
0.0
220
0.0
230
-1.0
 40
0.9997817346999999
 41
1.570796326797865
 42
1.624079178357559
  0
LINE
  5
BC72
330
1A
100
AcDbEntity
  8
SEIHIN
100
AcDbLine
 10
550.8218127513401
 20
484.8670391813422
 30
0.0
 11
575.8218127513401
 21
484.8670391813425
 31
0.0
  0
LINE
  5
BC73
330
1A
100
AcDbEntity
  8
SEIHIN
100
AcDbLine
 10
550.8218127513401
 20
487.4587482731421
 30
0.0
 11
575.8218127513401
 21
487.4587482731424
 31
0.0
  0
LINE
  5
BC74
330
1A
100
AcDbEntity
  8
SEIHIN
100
AcDbLine
 10
575.8218127513401
 20
484.0151917310424
 30
0.0
 11
550.8218127513401
 21
484.0151917310422
 31
0.0
  0
LINE
  5
BC75
330
1A
100
AcDbEntity
  8
SEIHIN
100
AcDbLine
 10
575.8218127513401
 20
477.5573396335426
 30
0.0
 11
575.8218127513401
 21
484.0151917310424
 31
0.0
  0
LINE
  5
BC76
330
1A
100
AcDbEntity
  8
SEIHIN
100
AcDbLine
 10
566.1437943022399
 20
496.5838946369423
 30
0.0
 11
566.14379520944
 21
496.5788301241424
 31
0.0
  0
LINE
  5
BC77
330
1A
100
AcDbEntity
  8
SEIHIN
100
AcDbLine
 10
575.8218127513401
 20
484.2025761569425
 30
0.0
 11
575.8218127513401
 21
484.0151917310424
 31
0.0
  0
LINE
  5
BC78
330
1A
100
AcDbEntity
  8
SEIHIN
100
AcDbLine
 10
575.8218127513401
 20
487.4587482731424
 30
0.0
 11
575.8218153756399
 21
491.2412919071425
 31
0.0
  0
LINE
  5
BC79
330
1A
100
AcDbEntity
  8
SEIHIN
100
AcDbLine
 10
575.8218153756399
 20
496.0627861288424
 30
0.0
 11
575.8218153756399
 21
491.2412919071425
 31
0.0
  0
LINE
  5
BC7A
330
1A
100
AcDbEntity
  8
SEIHIN
100
AcDbLine
 10
575.8218153756399
 20
496.0676439073425
 30
0.0
 11
575.8218153756399
 21
496.0627861288424
 31
0.0
  0
LINE
  5
BC7B
330
1A
100
AcDbEntity
  8
SEIHIN
100
AcDbLine
 10
575.8218127513401
 20
487.4587482731424
 30
0.0
 11
575.8218127513401
 21
486.2056032414425
 31
0.0
  0
LINE
  5
BC7C
330
1A
100
AcDbEntity
  8
SEIHIN
100
AcDbLine
 10
575.8218127513401
 20
484.8670391813425
 30
0.0
 11
575.8218127513401
 21
486.2056032414425
 31
0.0
  0
LINE
  5
BC7D
330
1A
100
AcDbEntity
  8
SEIHIN
100
AcDbLine
 10
575.8218127513401
 20
484.8670391813425
 30
0.0
 11
575.8218127513401
 21
484.2025761569425
 31
0.0
  0
LINE
  5
BC7E
330
1A
100
AcDbEntity
  8
SEIHIN
100
AcDbLine
 10
566.14379520944
 20
496.5788301241424
 30
0.0
 11
575.8218153756399
 21
496.0627861288424
 31
0.0
  0
LINE
  5
BC7F
330
1A
100
AcDbEntity
  8
SEIHIN
100
AcDbLine
 10
575.8218127513401
 20
477.5573396335426
 30
0.0
 11
575.8218127513401
 21
476.5573396335425
 31
0.0
  0
LINE
  5
BC80
330
1A
100
AcDbEntity
  8
SEIHIN
100
AcDbLine
 10
550.8218127513401
 20
484.0151917310422
 30
0.0
 11
550.8218127513401
 21
484.2025761569423
 31
0.0
  0
LINE
  5
BC81
330
1A
100
AcDbEntity
  8
SEIHIN
100
AcDbLine
 10
550.8218127513401
 20
492.0467925182422
 30
0.0
 11
550.8218127513401
 21
487.4587482731421
 31
0.0
  0
LINE
  5
BC82
330
1A
100
AcDbEntity
  8
SEIHIN
100
AcDbLine
 10
555.4922666262399
 20
496.8626072363422
 30
0.0
 11
555.4922654669399
 21
496.8677766588423
 31
0.0
  0
LINE
  5
BC83
330
1A
100
AcDbEntity
  8
SEIHIN
100
AcDbLine
 10
550.8218127513401
 20
492.0467925182422
 30
0.0
 11
550.8218127513401
 21
492.3573396335423
 31
0.0
  0
ARC
  5
BC84
330
1A
100
AcDbEntity
  8
SEIHIN
100
AcDbCircle
 10
548.82182892334
 20
492.3573528372424
 30
0.0
 40
1.999980491823324
100
AcDbArc
 50
359.9997519012032
 51
90.0004615429006
  0
LINE
  5
BC85
330
1A
100
AcDbEntity
  8
SEIHIN
100
AcDbLine
 10
550.8218127513401
 20
486.2056032414423
 30
0.0
 11
550.8218127513401
 21
487.4587482731421
 31
0.0
  0
LINE
  5
BC86
330
1A
100
AcDbEntity
  8
SEIHIN
100
AcDbLine
 10
550.8218127513401
 20
486.2056032414423
 30
0.0
 11
550.8218127513401
 21
484.8670391813422
 31
0.0
  0
LINE
  5
BC87
330
1A
100
AcDbEntity
  8
SEIHIN
100
AcDbLine
 10
550.8218127513401
 20
484.2025761569423
 30
0.0
 11
550.8218127513401
 21
484.8670391813422
 31
0.0
  0
ELLIPSE
  5
BC88
330
1A
100
AcDbEntity
  8
SEIHIN
100
AcDbEllipse
 10
-950.1599646482512
 20
-484.9755554953713
 30
0.0
 11
-4991.000000000241
 21
-0.0000000000465741
 31
0.0
210
0.0
220
0.0
230
-1.0
 40
0.2
 41
1.874162209143038
 42
1.874582131983289
  0
LWPOLYLINE
  5
BC89
330
1A
100
AcDbEntity
  8
SEIHIN
100
AcDbPolyline
 90
        7
 70
   128
 43
0.0
 10
540.64702088044
 20
465.4119320180422
 10
540.5671432059403
 20
465.5689753559421
 10
540.55473053864
 20
465.6533457305421
 10
540.5634402673402
 20
465.7289989259421
 10
540.5816569369401
 20
465.7709456947421
 10
540.6135454218401
 20
465.8061124351421
 10
540.6230747144402
 20
465.8126540449422
  0
LINE
  5
BC8A
330
1A
100
AcDbEntity
  8
SEIHIN
100
AcDbLine
 10
540.33166708934
 20
469.7481792107423
 30
0.0
 11
540.33166708934
 21
468.890473571342
 31
0.0
  0
LINE
  5
BC8B
330
1A
100
AcDbEntity
  8
SEIHIN
100
AcDbLine
 10
540.8218115013402
 20
467.6430381801423
 30
0.0
 11
540.21183991844
 21
468.7934525278422
 31
0.0
  0
LINE
  5
BC8C
330
1A
100
AcDbEntity
  8
SEIHIN
100
AcDbLine
 10
540.8218115013402
 20
466.0776264932422
 30
0.0
 11
540.8218115013402
 21
467.6430381801423
 31
0.0
  0
ARC
  5
BC8D
330
1A
100
AcDbEntity
  8
SEIHIN
100
AcDbCircle
 10
540.4917857626401
 20
466.1181397637423
 30
0.0
 40
0.3325031026791712
100
AcDbArc
 50
293.2566383625992
 51
353.0015042153026
  0
ARC
  5
BC8E
330
1A
100
AcDbEntity
  8
SEIHIN
100
AcDbCircle
 10
540.5976971655401
 20
469.256783986142
 30
0.0
 40
0.5587902222858448
100
AcDbArc
 50
118.4297748617003
 51
199.022486647298
  0
LWPOLYLINE
  5
BC8F
330
1A
100
AcDbEntity
  8
SEIHIN
100
AcDbPolyline
 90
        3
 70
   128
 43
0.0
 10
540.06942207034
 20
469.0746523406422
 10
540.1888772290401
 20
468.8370533254422
 10
540.21183991844
 20
468.7934525278422
  0
ARC
  5
BC90
330
1A
100
AcDbEntity
  8
SEIHIN
100
AcDbCircle
 10
540.1510616317402
 20
464.9223906457422
 30
0.0
 40
0.696868948739412
100
AcDbArc
 50
15.73645453289927
 51
44.62687792629928
  0
LINE
  5
BC91
330
1A
100
AcDbEntity
  8
SEIHIN
100
AcDbLine
 10
545.8218141835402
 20
466.1336101558422
 30
0.0
 11
545.8218127513402
 21
464.5598509651422
 31
0.0
  0
ARC
  5
BC92
330
1A
100
AcDbEntity
  8
SEIHIN
100
AcDbCircle
 10
551.7933017710399
 20
481.2558109988422
 30
0.0
 40
17.48225261446665
100
AcDbArc
 50
241.3457415612997
 51
247.1263703399002
  0
LWPOLYLINE
  5
BC93
330
1A
100
AcDbEntity
  8
SEIHIN
100
AcDbPolyline
 90
       15
 70
   128
 43
0.0
 10
543.8229202669401
 20
467.4101926353423
 10
543.9641013186401
 20
467.3661000993422
 10
544.2371874492403
 20
467.2731466558423
 10
544.4957225959401
 20
467.1745754745423
 10
544.7373002212402
 20
467.0713402297423
 10
544.8921009343401
 20
466.9982500341423
 10
545.1722949188401
 20
466.8477483060423
 10
545.4087465446402
 20
466.6935212877424
 10
545.5333500545402
 20
466.5952332284423
 10
545.6369876306403
 20
466.4973475006422
 10
545.7185863893401
 20
466.4005644586422
 10
545.7771703045402
 20
466.3055844572422
 10
545.7965790670402
 20
466.2615217235423
 10
545.8189829628402
 20
466.1754526165423
 10
545.8218141835402
 20
466.1336101558422
  0
LINE
  5
BC94
330
1A
100
AcDbEntity
  8
SEIHIN
100
AcDbLine
 10
543.4101581018401
 20
467.4602754381421
 30
0.0
 11
543.8229202669401
 21
467.4101926353423
 31
0.0
  0
LINE
  5
BC95
330
1A
100
AcDbEntity
  8
SEIHIN
100
AcDbLine
 10
543.4101581018401
 20
465.9146226909424
 30
0.0
 11
543.4101581018401
 21
467.4602754381421
 31
0.0
  0
LWPOLYLINE
  5
BC96
330
1A
100
AcDbEntity
  8
SEIHIN
100
AcDbPolyline
 90
       12
 70
   128
 43
0.0
 10
544.9979513328401
 20
465.1482857730423
 10
545.0892209451401
 20
465.1197053459423
 10
545.2576934736401
 20
465.0591023233423
 10
545.4062655012401
 20
464.9943120744423
 10
545.4853310625401
 20
464.9536617067424
 10
545.5702006261401
 20
464.9030275609423
 10
545.6210880916402
 20
464.8677863147423
 10
545.7061513703401
 20
464.7954113748424
 10
545.7683264654401
 20
464.7209502723423
 10
545.7944109480401
 20
464.6754421260423
 10
545.8144157569401
 20
464.6200247076421
 10
545.8218141835402
 20
464.5598538187423
  0
ELLIPSE
  5
BC97
330
1A
100
AcDbEntity
  8
SEIHIN
100
AcDbEllipse
 10
-955.0628680267516
 20
-484.9755554953713
 30
0.0
 11
-4985.000000000238
 21
-0.0000000000465195
 31
0.0
210
0.0
220
0.0
230
-1.0
 40
0.2
 41
1.875569875525744
 42
1.87611423418178
  0
ELLIPSE
  5
BC98
330
1A
100
AcDbEntity
  8
SEIHIN
100
AcDbEllipse
 10
-1848.41658685985
 20
-484.9755554953794
 30
0.0
 11
-5389.539733268755
 21
-0.0000000000502023
 31
0.0
210
0.0
220
0.0
230
-1.0
 40
0.1972026594
 41
2.030498674281814
 42
2.030620488651639
  0
LINE
  5
BC99
330
1A
100
AcDbEntity
  8
SEIHIN
100
AcDbLine
 10
545.8218141835405
 20
443.3966882493423
 30
0.0
 11
575.8218127513405
 21
443.3966869262426
 31
0.0
  0
LINE
  5
BC9A
330
1A
100
AcDbEntity
  8
SEIHIN
100
AcDbLine
 10
575.8218127513404
 20
446.9401122196424
 30
0.0
 11
545.8218141835405
 21
446.9401098754424
 31
0.0
  0
LINE
  5
BC9B
330
1A
100
AcDbEntity
  8
SEIHIN
100
AcDbLine
 10
545.8218141835403
 20
453.6777593162423
 30
0.0
 11
575.8218127513402
 21
453.6777536747425
 31
0.0
  0
LINE
  5
BC9C
330
1A
100
AcDbEntity
  8
SEIHIN
100
AcDbLine
 10
575.8218127513405
 20
443.3966869262426
 30
0.0
 11
575.8218127513405
 21
442.0304502305425
 31
0.0
  0
LINE
  5
BC9D
330
1A
100
AcDbEntity
  8
SEIHIN
100
AcDbLine
 10
575.8218127513404
 20
447.4120110068424
 30
0.0
 11
575.8218127513402
 21
453.2084270201425
 31
0.0
  0
LINE
  5
BC9E
330
1A
100
AcDbEntity
  8
SEIHIN
100
AcDbLine
 10
575.8218127513402
 20
453.6777536747425
 30
0.0
 11
575.8218127513402
 21
453.2084270201425
 31
0.0
  0
LINE
  5
BC9F
330
1A
100
AcDbEntity
  8
SEIHIN
100
AcDbLine
 10
575.8218127513404
 20
447.4120110068424
 30
0.0
 11
575.8218127513404
 21
446.9401122196424
 31
0.0
  0
LINE
  5
BCA0
330
1A
100
AcDbEntity
  8
SEIHIN
100
AcDbLine
 10
575.8218127513405
 20
443.3966869262426
 30
0.0
 11
575.8218127513404
 21
446.9401122196424
 31
0.0
  0
LINE
  5
BCA1
330
1A
100
AcDbEntity
  8
SEIHIN
100
AcDbLine
 10
540.8218115013404
 20
443.3974780109423
 30
0.0
 11
540.8218115013404
 21
440.8898808029422
 31
0.0
  0
LINE
  5
BCA2
330
1A
100
AcDbEntity
  8
SEIHIN
100
AcDbLine
 10
545.8218141835405
 20
443.6897940900423
 30
0.0
 11
545.8218141835405
 21
440.6944222715424
 31
0.0
  0
ELLIPSE
  5
BCA3
330
1A
100
AcDbEntity
  8
SEIHIN
100
AcDbEllipse
 10
540.9972032810403
 20
446.1276485182422
 30
0.0
 11
-0.157732972260244
 21
-0.4982854426542657
 31
0.0
210
0.0
220
0.0
230
-1.0
 40
0.2622894906
 41
0.2192894343890042
 42
1.164568372087136
  0
ELLIPSE
  5
BCA4
330
1A
100
AcDbEntity
  8
SEIHIN
100
AcDbEllipse
 10
541.4468127513402
 20
455.5035658003422
 30
0.0
 11
-0.6055307540772237
 21
0.2056509513478149
 31
0.0
210
0.0
220
0.0
230
-1.0
 40
0.7526448229
 41
6.032929920843745
 42
6.157543952298074
  0
ELLIPSE
  5
BCA5
330
1A
100
AcDbEntity
  8
SEIHIN
100
AcDbEllipse
 10
540.1968127513404
 20
446.1276485182422
 30
0.0
 11
-0.605530754077167
 21
0.2056509513477581
 31
0.0
210
0.0
220
0.0
230
-1.0
 40
0.7526448229
 41
2.89133726725435
 42
3.041100585687549
  0
ELLIPSE
  5
BCA6
330
1A
100
AcDbEntity
  8
SEIHIN
100
AcDbEllipse
 10
540.1968127513404
 20
446.1276485182422
 30
0.0
 11
-0.6239001231936685
 21
0.4978379492678697
 31
0.0
210
0.0
220
0.0
230
-1.0
 40
0.0744471158
 41
2.932494365981654
 42
3.082257684414781
  0
LINE
  5
BCA7
330
1A
100
AcDbEntity
  8
SEIHIN
100
AcDbLine
 10
540.8218115013403
 20
455.5899508264423
 30
0.0
 11
540.8218115013403
 21
446.0412718322421
 31
0.0
  0
ARC
  5
BCA8
330
1A
100
AcDbEntity
  8
SEIHIN
100
AcDbCircle
 10
540.1055820317403
 20
455.8011822369422
 30
0.0
 40
0.7366596476788651
100
AcDbArc
 50
348.1953196094014
 51
11.80468039059963
  0
LINE
  5
BCA9
330
1A
100
AcDbEntity
  8
SEIHIN
100
AcDbLine
 10
540.8266618292402
 20
455.9518851306421
 30
0.0
 11
540.8218127513403
 21
455.9759310043422
 31
0.0
  0
LINE
  5
BCAA
330
1A
100
AcDbEntity
  8
SEIHIN
100
AcDbLine
 10
540.8218115013403
 20
445.6334419515423
 30
0.0
 11
540.8218115013404
 21
443.3974780109423
 31
0.0
  0
ELLIPSE
  5
BCAB
330
1A
100
AcDbEntity
  8
SEIHIN
100
AcDbEllipse
 10
545.5218127513403
 20
443.6897933268424
 30
0.0
 11
-0.3000000000000114
 21
-0.0000000000000027
 31
0.0
210
0.0
220
0.0
230
-1.0
 40
0.9743742945999999
 41
3.141592653589792
 42
4.712388980384702
  0
LINE
  5
BCAC
330
1A
100
AcDbEntity
  8
SEIHIN
100
AcDbLine
 10
545.8218127513402
 20
455.6417701819423
 30
0.0
 11
545.8218127513403
 21
446.0930974228422
 31
0.0
  0
LINE
  5
BCAD
330
1A
100
AcDbEntity
  8
SEIHIN
100
AcDbLine
 10
545.8218127513402
 20
456.2593501268422
 30
0.0
 11
545.8218127513402
 21
455.6417701819423
 31
0.0
  0
ARC
  5
BCAE
330
1A
100
AcDbEntity
  8
SEIHIN
100
AcDbCircle
 10
545.5298838073401
 20
456.2678787257423
 30
0.0
 40
0.2920547665536465
100
AcDbArc
 50
268.4156899058005
 51
358.3276996916004
  0
LINE
  5
BCAF
330
1A
100
AcDbEntity
  8
SEIHIN
100
AcDbLine
 10
545.8218127513403
 20
446.0930974228422
 30
0.0
 11
545.8218127513403
 21
445.9299655163422
 31
0.0
  0
LINE
  5
BCB0
330
1A
100
AcDbEntity
  8
SEIHIN
100
AcDbLine
 10
545.8218127513403
 20
445.9299655163422
 30
0.0
 11
545.8218141835405
 21
443.6897940900423
 31
0.0
  0
LINE
  5
BCB1
330
1A
100
AcDbEntity
  8
SEIHIN
100
AcDbLine
 10
540.8218127513403
 20
455.9759310043422
 30
0.0
 11
545.5218127513403
 21
455.9759310043423
 31
0.0
  0
LINE
  5
BCB2
330
1A
100
AcDbEntity
  8
SEIHIN
100
AcDbLine
 10
540.8218115013404
 20
443.3974780109423
 30
0.0
 11
545.5218091051404
 21
443.3974780109424
 31
0.0
  0
SPLINE
  5
BCB3
330
1A
100
AcDbEntity
  8
SEIHIN
100
AcDbSpline
210
0.0
220
0.0
230
1.0
 70
    12
 71
     3
 72
    21
 73
    17
 74
     0
 42
0.0000000001
 43
0.0000000001
 40
0.0
 40
0.0
 40
0.0
 40
0.0
 40
0.0391844043386311
 40
0.0837419173483379
 40
0.1338247809795365
 40
0.1895578960864555
 40
0.2510218002734538
 40
0.3751258782378329
 40
0.5006329982365312
 40
0.5421123565316024
 40
0.6251272380937789
 40
0.7022426375925156
 40
0.7503587677240149
 40
0.8489520616670118
 40
0.9319836260679236
 40
1.0
 40
1.0
 40
1.0
 40
1.0
 10
540.8187292471516
 20
440.844881303194
 30
0.0
 41
1.0
 10
540.8168768597822
 20
440.829080226273
 30
0.0
 41
1.0
 10
540.8129180789199
 20
440.7953113710397
 30
0.0
 41
1.0
 10
540.8090799766467
 20
440.7320293177905
 30
0.0
 41
1.0
 10
540.8061775346342
 20
440.6523880113748
 30
0.0
 41
1.0
 10
540.804425171317
 20
440.5525933249911
 30
0.0
 41
1.0
 10
540.8038060756809
 20
440.3918959498399
 30
0.0
 41
1.0
 10
540.8040092297556
 20
440.151721759341
 30
0.0
 41
1.0
 10
540.8053554526077
 20
439.890621518385
 30
0.0
 41
1.0
 10
540.8052644202899
 20
439.6492506653101
 30
0.0
 41
1.0
 10
540.8046890399616
 20
439.4447207537504
 30
0.0
 41
1.0
 10
540.8042066987684
 20
439.2225819910244
 30
0.0
 41
1.0
 10
540.8038357872133
 20
438.9764422358847
 30
0.0
 41
1.0
 10
540.8051283187387
 20
438.7158407209256
 30
0.0
 41
1.0
 10
540.8091980721994
 20
438.4261282468226
 30
0.0
 41
1.0
 10
540.8157647685893
 20
438.2490374219538
 30
0.0
 41
1.0
 10
540.8187217296845
 20
438.1692940246115
 30
0.0
 41
1.0
  0
LINE
  5
BCB4
330
1A
100
AcDbEntity
  8
SEIHIN
100
AcDbLine
 10
540.8187195103405
 20
438.169301297942
 30
0.0
 11
540.8218127513405
 21
438.0328132768421
 31
0.0
  0
LINE
  5
BCB5
330
1A
100
AcDbEntity
  8
SEIHIN
100
AcDbLine
 10
540.8218115013404
 20
440.8898808029422
 30
0.0
 11
540.8187269609404
 21
440.8448792961422
 31
0.0
  0
SPLINE
  5
BCB6
330
1A
100
AcDbEntity
  8
SEIHIN
100
AcDbSpline
210
0.0
220
0.0
230
1.0
 70
    12
 71
     3
 72
    10
 73
     6
 74
     0
 42
0.0000000001
 43
0.0000000001
 40
0.0
 40
0.0
 40
0.0
 40
0.0
 40
0.5
 40
0.5
 40
1.0
 40
1.0
 40
1.0
 40
1.0
 10
545.821812751318
 20
439.4923404627275
 30
0.0
 41
1.0
 10
545.821812753397
 20
439.4899412249972
 30
0.0
 41
1.0
 10
545.7894808254094
 20
439.4875567613394
 30
0.0
 41
1.0
 10
545.6784087515537
 20
439.4841637260902
 30
0.0
 41
1.0
 10
545.6003525689814
 20
439.4831760482295
 30
0.0
 41
1.0
 10
545.5218127513183
 20
439.4831760470903
 30
0.0
 41
1.0
  0
LINE
  5
BCB7
330
1A
100
AcDbEntity
  8
SEIHIN
100
AcDbLine
 10
545.8218141835405
 20
440.6944222715424
 30
0.0
 11
545.8218127513405
 21
439.4923404624424
 31
0.0
  0
SPLINE
  5
BCB8
330
1A
100
AcDbEntity
  8
SEIHIN
100
AcDbSpline
210
0.0
220
0.0
230
1.0
 70
    12
 71
     3
 72
     8
 73
     4
 74
     0
 42
0.0000000001
 43
0.0000000001
 40
0.0
 40
0.0
 40
0.0
 40
0.0
 40
1.0
 40
1.0
 40
1.0
 40
1.0
 10
540.8187217296845
 20
438.1692940246115
 30
0.0
 41
1.0
 10
542.3864044960038
 20
438.4042382715074
 30
0.0
 41
1.0
 10
543.9540872623225
 20
439.3685261732951
 30
0.0
 41
1.0
 10
545.5217700286425
 20
439.4831729230964
 30
0.0
 41
1.0
  0
LINE
  5
BCB9
330
1A
100
AcDbEntity
  8
SEIHIN
100
AcDbLine
 10
535.8218127513403
 20
458.9589827027422
 30
0.0
 11
535.8218127513402
 21
469.6266257865421
 31
0.0
  0
LWPOLYLINE
  5
BCBA
330
1A
100
AcDbEntity
  8
SEIHIN
100
AcDbPolyline
 90
        9
 70
   128
 43
0.0
 10
537.0676576536401
 20
468.7934525278422
 10
537.0356350582401
 20
468.7552608516422
 10
537.0045065324402
 20
468.7181122568421
 10
536.9751288931402
 20
468.6830796268422
 10
536.9483291547401
 20
468.6511017349422
 10
536.9248374741402
 20
468.6230875518421
 10
536.9053244035402
 20
468.5997970369422
 10
536.8903189342402
 20
468.5819007423423
 10
536.8802457492401
 20
468.5698904064421
  0
ARC
  5
BCBB
330
1A
100
AcDbEntity
  8
SEIHIN
100
AcDbCircle
 10
540.3128131886401
 20
473.0664066653422
 30
0.0
 40
5.65695834282419
100
AcDbArc
 50
217.4495568872995
 51
232.6424741309988
  0
ARC
  5
BCBC
330
1A
100
AcDbEntity
  8
SEIHIN
100
AcDbCircle
 10
536.0149173434401
 20
469.5657916160422
 30
0.0
 40
0.2024555688027287
100
AcDbArc
 50
115.7227337893991
 51
162.5148440469016
  0
LINE
  5
BCBD
330
1A
100
AcDbEntity
  8
SEIHIN
100
AcDbLine
 10
535.8218127513405
 20
440.9087704719421
 30
0.0
 11
535.8218162696403
 21
443.7572069433421
 31
0.0
  0
LINE
  5
BCBE
330
1A
100
AcDbEntity
  8
SEIHIN
100
AcDbLine
 10
535.8218162696403
 20
449.1634078290423
 30
0.0
 11
535.8218162696403
 21
449.4818754461422
 31
0.0
  0
LINE
  5
BCBF
330
1A
100
AcDbEntity
  8
SEIHIN
100
AcDbLine
 10
535.8218162696403
 20
449.4818754461422
 30
0.0
 11
535.8218162696402
 21
458.6578913000422
 31
0.0
  0
LINE
  5
BCC0
330
1A
100
AcDbEntity
  8
SEIHIN
100
AcDbLine
 10
535.8218162696402
 20
458.6578913000422
 30
0.0
 11
535.8218127513403
 21
458.9589827027422
 31
0.0
  0
LINE
  5
BCC1
330
1A
100
AcDbEntity
  8
SEIHIN
100
AcDbLine
 10
535.8218162696403
 20
447.2949810293422
 30
0.0
 11
535.8218162696403
 21
449.1634078290423
 31
0.0
  0
LINE
  5
BCC2
330
1A
100
AcDbEntity
  8
SEIHIN
100
AcDbLine
 10
535.8218162696403
 20
443.7572069433421
 30
0.0
 11
535.8218162696403
 21
447.2949810293422
 31
0.0
  0
LINE
  5
BCC3
330
1A
100
AcDbEntity
  8
SEIHIN
100
AcDbLine
 10
540.8150985281406
 20
413.9682732489421
 30
0.0
 11
538.0589723031406
 21
413.5854773190421
 31
0.0
  0
LWPOLYLINE
  5
BCC4
330
1A
100
AcDbEntity
  8
SEIHIN
100
AcDbPolyline
 90
        3
 70
   128
 43
0.0
 10
540.821811501341
 20
378.4830577638422
 10
537.6371874850409
 20
376.1248670485421
 10
535.821816269641
 20
374.7804023292423
  0
LINE
  5
BCC5
330
1A
100
AcDbEntity
  8
SEIHIN
100
AcDbLine
 10
540.529741291341
 20
373.8248802688421
 30
0.0
 11
537.423020752841
 21
371.3316316281421
 31
0.0
  0
LINE
  5
BCC6
330
1A
100
AcDbEntity
  8
SEIHIN
100
AcDbLine
 10
537.423020752841
 20
371.3316316281421
 30
0.0
 11
540.333254579841
 21
371.3316328790424
 31
0.0
  0
LINE
  5
BCC7
330
1A
100
AcDbEntity
  8
SEIHIN
100
AcDbLine
 10
540.331667606141
 20
370.3348569539423
 30
0.0
 11
535.927048270041
 21
370.3348569539422
 31
0.0
  0
LINE
  5
BCC8
330
1A
100
AcDbEntity
  8
SEIHIN
100
AcDbLine
 10
550.821809415141
 20
369.7588749197423
 30
0.0
 11
535.160092953941
 21
369.7588749197421
 31
0.0
  0
LINE
  5
BCC9
330
1A
100
AcDbEntity
  8
SEIHIN
100
AcDbLine
 10
535.249097589741
 20
365.1123426821421
 30
0.0
 11
550.8218127513412
 21
365.1123413112423
 31
0.0
  0
LINE
  5
BCCA
330
1A
100
AcDbEntity
  8
SEIHIN
100
AcDbLine
 10
536.2883343737411
 20
363.1123423543421
 30
0.0
 11
548.8218127513412
 21
363.1123413112423
 31
0.0
  0
LINE
  5
BCCB
330
1A
100
AcDbEntity
  8
SEIHIN
100
AcDbLine
 10
540.4488652389407
 20
403.6924697425421
 30
0.0
 11
538.6803954284407
 21
403.9380930331421
 31
0.0
  0
LINE
  5
BCCC
330
1A
100
AcDbEntity
  8
SEIHIN
100
AcDbLine
 10
538.6803954284406
 20
414.1765840318422
 30
0.0
 11
540.4488652389407
 21
414.4222073224422
 31
0.0
  0
LINE
  5
BCCD
330
1A
100
AcDbEntity
  8
SEIHIN
100
AcDbLine
 10
538.0589723031407
 20
404.5291997459422
 30
0.0
 11
540.8150985281407
 21
404.1464038160421
 31
0.0
  0
LINE
  5
BCCE
330
1A
100
AcDbEntity
  8
SEIHIN
100
AcDbLine
 10
536.1916630905411
 20
360.6123410132421
 30
0.0
 11
575.8218127513412
 21
360.6123413112425
 31
0.0
  0
ARC
  5
BCCF
330
1A
100
AcDbEntity
  8
SEIHIN
100
AcDbCircle
 10
546.3167321260409
 20
380.0012419889421
 30
0.0
 40
5.756011310995547
100
AcDbArc
 50
165.3778219099021
 51
194.6283462538974
  0
LINE
  5
BCD0
330
1A
100
AcDbEntity
  8
SEIHIN
100
AcDbLine
 10
555.8218127513408
 20
398.9452093259424
 30
0.0
 11
555.8218127513409
 21
380.5492719300423
 31
0.0
  0
LINE
  5
BCD1
330
1A
100
AcDbEntity
  8
SEIHIN
100
AcDbLine
 10
540.8218127513407
 20
403.3395155056422
 30
0.0
 11
540.821812751341
 21
382.2700914841423
 31
0.0
  0
ARC
  5
BCD2
330
1A
100
AcDbEntity
  8
SEIHIN
100
AcDbCircle
 10
552.8218218661407
 20
398.9452149839424
 30
0.0
 40
2.999990231208821
100
AcDbArc
 50
359.9998218363005
 51
82.09302254710049
  0
LINE
  5
BCD3
330
1A
100
AcDbEntity
  8
SEIHIN
100
AcDbLine
 10
541.2530285657021
 20
403.5807818815458
 30
0.0
 11
553.2345178651407
 21
401.9166861454423
 31
0.0
  0
LINE
  5
BCD4
330
1A
100
AcDbEntity
  8
SEIHIN
100
AcDbLine
 10
543.2345178651407
 20
414.8091042326423
 30
0.0
 11
541.2523268907531
 21
414.5337994239221
 31
0.0
  0
LINE
  5
BCD5
330
1A
100
AcDbEntity
  8
SEIHIN
100
AcDbLine
 10
540.8218115013408
 20
404.0326558020421
 30
0.0
 11
540.8237188499408
 21
404.0323875811422
 31
0.0
  0
ARC
  5
BCD6
330
1A
100
AcDbEntity
  8
SEIHIN
100
AcDbCircle
 10
541.3218127513407
 20
404.0760280181421
 30
0.0
 40
0.5000000000076009
100
AcDbArc
 50
185.0074716608018
 51
262.0928372970007
  0
ARC
  5
BCD7
330
1A
100
AcDbEntity
  8
SEIHIN
100
AcDbCircle
 10
540.4201171817407
 20
403.2885811879422
 30
0.0
 40
0.4049103793760838
100
AcDbArc
 50
7.226168940704049
 51
85.92865632750067
  0
LINE
  5
BCD8
330
1A
100
AcDbEntity
  8
SEIHIN
100
AcDbLine
 10
540.8218115013408
 20
409.0573422577421
 30
0.0
 11
540.8150985281407
 21
404.1464038160421
 31
0.0
  0
LINE
  5
BCD9
330
1A
100
AcDbEntity
  8
SEIHIN
100
AcDbLine
 10
540.8150985281406
 20
413.9682732489421
 30
0.0
 11
540.8218115013408
 21
409.0573422577421
 31
0.0
  0
LINE
  5
BCDA
330
1A
100
AcDbEntity
  8
SEIHIN
100
AcDbLine
 10
540.8218115013406
 20
414.0820212629422
 30
0.0
 11
540.8150985281406
 21
413.9682732489421
 31
0.0
  0
ARC
  5
BCDB
330
1A
100
AcDbEntity
  8
SEIHIN
100
AcDbCircle
 10
541.3218127513407
 20
414.0386512489421
 30
0.0
 40
0.5000000000075661
100
AcDbArc
 50
97.90716270300027
 51
174.9925283391991
  0
LINE
  5
BCDC
330
1A
100
AcDbEntity
  8
SEIHIN
100
AcDbLine
 10
540.8218115013406
 20
414.0820212629422
 30
0.0
 11
540.8237188499406
 21
414.0822969344423
 31
0.0
  0
ARC
  5
BCDD
330
1A
100
AcDbEntity
  8
SEIHIN
100
AcDbCircle
 10
540.4365749176406
 20
414.8087060468423
 30
0.0
 40
0.3866940857881542
100
AcDbArc
 50
271.8213419274007
 51
355.023832804401
  0
LINE
  5
BCDE
330
1A
100
AcDbEntity
  8
SEIHIN
100
AcDbLine
 10
540.8151014662406
 20
413.9682746815423
 30
0.0
 11
540.8218127513407
 21
414.7751637614423
 31
0.0
  0
LWPOLYLINE
  5
BCDF
330
1A
100
AcDbEntity
  8
SEIHIN
100
AcDbPolyline
 90
        3
 70
   128
 43
0.0
 10
540.8150985281407
 20
404.1464038160421
 10
540.8167004030408
 20
404.0895335343422
 10
540.8218115013408
 20
404.0326558020421
  0
LINE
  5
BCE0
330
1A
100
AcDbEntity
  8
SEIHIN
100
AcDbLine
 10
540.8153099061407
 20
404.2232683878422
 30
0.0
 11
540.8218127513407
 21
403.3395155056422
 31
0.0
  0
ARC
  5
BCE1
330
1A
100
AcDbEntity
  8
SEIHIN
100
AcDbCircle
 10
542.8218051275406
 20
417.7805859405423
 30
0.0
 40
3.000009055972569
100
AcDbArc
 50
277.9072904965007
 51
359.9998651200032
  0
SPLINE
  5
BCE2
330
1A
100
AcDbEntity
  8
SEIHIN
100
AcDbSpline
210
0.0
220
0.0
230
1.0
 70
    28
 71
     3
 72
     8
 73
     4
 74
     0
 42
0.0000000001
 43
0.0000000001
 40
0.0
 40
0.0
 40
0.0
 40
0.0
 40
1.0
 40
1.0
 40
1.0
 40
1.0
 10
540.747150512836
 20
381.4543102427444
 30
0.0
 41
1.0
 10
540.7720379256637
 20
381.4542295305234
 30
0.0
 41
1.0
 10
540.7969253384911
 20
381.4541488183028
 30
0.0
 41
1.0
 10
540.8218127513187
 20
381.4540681060825
 30
0.0
 41
1.0
  0
LWPOLYLINE
  5
BCE3
330
1A
100
AcDbEntity
  8
SEIHIN
100
AcDbPolyline
 90
        3
 70
   128
 43
0.0
 10
540.821811501341
 20
382.2700910237422
 10
540.8024548929408
 20
381.8622015383423
 10
540.747149233141
 20
381.4543120530422
  0
LINE
  5
BCE4
330
1A
100
AcDbEntity
  8
SEIHIN
100
AcDbLine
 10
564.8218127513412
 20
363.0586935839425
 30
0.0
 11
562.8218127513412
 21
363.0586935839425
 31
0.0
  0
LINE
  5
BCE5
330
1A
100
AcDbEntity
  8
SEIHIN
100
AcDbLine
 10
562.821812751341
 20
370.1966259915424
 30
0.0
 11
564.8218127513411
 21
370.1966259915424
 31
0.0
  0
LINE
  5
BCE6
330
1A
100
AcDbEntity
  8
SEIHIN
100
AcDbLine
 10
550.821812751341
 20
372.5123413112423
 30
0.0
 11
575.821812751341
 21
372.5123413112426
 31
0.0
  0
LINE
  5
BCE7
330
1A
100
AcDbEntity
  8
SEIHIN
100
AcDbLine
 10
575.821812751341
 20
374.9510592405424
 30
0.0
 11
555.821812097341
 21
374.9510578778422
 31
0.0
  0
LINE
  5
BCE8
330
1A
100
AcDbEntity
  8
SEIHIN
100
AcDbLine
 10
575.8218127513412
 20
360.6123413112425
 30
0.0
 11
575.8218127513412
 21
362.6123413112425
 31
0.0
  0
LINE
  5
BCE9
330
1A
100
AcDbEntity
  8
SEIHIN
100
AcDbLine
 10
564.8218127513412
 20
364.9051233693425
 30
0.0
 11
564.8218127513411
 21
370.1966259915424
 31
0.0
  0
LINE
  5
BCEA
330
1A
100
AcDbEntity
  8
SEIHIN
100
AcDbLine
 10
564.8218127513412
 20
364.0586935839424
 30
0.0
 11
564.8218127513412
 21
364.9051233693425
 31
0.0
  0
LINE
  5
BCEB
330
1A
100
AcDbEntity
  8
SEIHIN
100
AcDbLine
 10
564.8218127513412
 20
364.0586935839424
 30
0.0
 11
564.8218127513412
 21
363.0586935839425
 31
0.0
  0
LINE
  5
BCEC
330
1A
100
AcDbEntity
  8
SEIHIN
100
AcDbLine
 10
575.8218127513409
 20
376.3973419725425
 30
0.0
 11
575.821812751341
 21
374.9510592405424
 31
0.0
  0
LINE
  5
BCED
330
1A
100
AcDbEntity
  8
SEIHIN
100
AcDbLine
 10
575.821812751341
 20
372.5123413112426
 30
0.0
 11
575.821812751341
 21
370.6123413112425
 31
0.0
  0
LINE
  5
BCEE
330
1A
100
AcDbEntity
  8
SEIHIN
100
AcDbLine
 10
575.821812751341
 20
372.5123413112426
 30
0.0
 11
575.821812751341
 21
374.9510592405424
 31
0.0
  0
LINE
  5
BCEF
330
1A
100
AcDbEntity
  8
SEIHIN
100
AcDbLine
 10
575.8218127513412
 20
362.6123413112425
 30
0.0
 11
575.821812751341
 21
370.6123413112425
 31
0.0
  0
SPLINE
  5
BCF0
330
1A
100
AcDbEntity
  8
SEIHIN
100
AcDbSpline
210
0.0
220
0.0
230
1.0
 70
    12
 71
     3
 72
     8
 73
     4
 74
     0
 42
0.0000000001
 43
0.0000000001
 40
0.0
 40
0.0
 40
0.0
 40
0.0
 40
1.0
 40
1.0
 40
1.0
 40
1.0
 10
540.7473089070363
 20
378.5475736326593
 30
0.0
 41
1.0
 10
540.7721435217972
 20
378.5475793229989
 30
0.0
 41
1.0
 10
540.7969781365579
 20
378.5475856714429
 30
0.0
 41
1.0
 10
540.8218127513188
 20
378.5475927539396
 30
0.0
 41
1.0
  0
ELLIPSE
  5
BCF1
330
1A
100
AcDbEntity
  8
SEIHIN
100
AcDbEllipse
 10
539.571812751341
 20
373.4788795897421
 30
0.0
 11
-1.249371076818126
 21
-1.018798287781419
 31
0.0
210
0.0
220
0.0
230
-1.0
 40
0.0389158002
 41
3.173315854642108
 42
3.833112632574403
  0
ELLIPSE
  5
BCF2
330
1A
100
AcDbEntity
  8
SEIHIN
100
AcDbEllipse
 10
540.377368306841
 20
371.3317036250423
 30
0.0
 11
-0.5545318961688873
 21
-0.9998252063994693
 31
0.0
210
0.0
220
0.0
230
-1.0
 40
0.0337157055
 41
1.04398102438931
 42
1.552026806385391
  0
LINE
  5
BCF3
330
1A
100
AcDbEntity
  8
SEIHIN
100
AcDbLine
 10
540.821811501341
 20
378.4830577638422
 30
0.0
 11
540.821811501341
 21
374.4956262376422
 31
0.0
  0
LWPOLYLINE
  5
BCF4
330
1A
100
AcDbEntity
  8
SEIHIN
100
AcDbPolyline
 90
        3
 70
   128
 43
0.0
 10
540.7473056953411
 20
378.5475723412423
 10
540.802201573141
 20
378.5155646470423
 10
540.821811501341
 20
378.4830577638422
  0
LINE
  5
BCF5
330
1A
100
AcDbEntity
  8
SEIHIN
100
AcDbLine
 10
540.333254579841
 20
371.3316328790424
 30
0.0
 11
540.821811501341
 21
372.2138188746423
 31
0.0
  0
LINE
  5
BCF6
330
1A
100
AcDbEntity
  8
SEIHIN
100
AcDbLine
 10
540.821811501341
 20
372.2138188746423
 30
0.0
 11
540.821811501341
 21
373.4957210686423
 31
0.0
  0
ARC
  5
BCF7
330
1A
100
AcDbEntity
  8
SEIHIN
100
AcDbCircle
 10
540.386957928041
 20
373.4040256789421
 30
0.0
 40
0.4444161053567379
100
AcDbArc
 50
11.90723724959826
 51
71.2594637297014
  0
LWPOLYLINE
  5
BCF8
330
1A
100
AcDbEntity
  8
SEIHIN
100
AcDbPolyline
 90
       11
 70
   128
 43
0.0
 10
540.529741291341
 20
373.8248802688421
 10
540.4934271614409
 20
373.8521195915422
 10
540.4675140421411
 20
373.8881505992421
 10
540.4561891596411
 20
373.9151813056423
 10
540.4491036575409
 20
373.9435605671424
 10
540.445333663741
 20
373.9865206149422
 10
540.4483138959411
 20
374.0288697150422
 10
540.4630585949409
 20
374.0893088248424
 10
540.488323513741
 20
374.1449348595422
 10
540.520182196441
 20
374.1914786365423
 10
540.5594616573409
 20
374.2326281931423
  0
LINE
  5
BCF9
330
1A
100
AcDbEntity
  8
SEIHIN
100
AcDbLine
 10
540.331667606141
 20
371.3287644055424
 30
0.0
 11
540.331667606141
 21
370.3348569539423
 31
0.0
  0
ARC
  5
BCFA
330
1A
100
AcDbEntity
  8
SEIHIN
100
AcDbCircle
 10
540.3864296079409
 20
370.6855379454423
 30
0.0
 40
0.3549310280570699
100
AcDbArc
 50
153.2721024548032
 51
261.1244291757004
  0
ELLIPSE
  5
BCFB
330
1A
100
AcDbEntity
  8
SEIHIN
100
AcDbEllipse
 10
552.8218127513411
 20
373.3000872585423
 30
0.0
 11
-2.999695560001265
 21
-0.5553377924528878
 31
0.0
210
0.0
220
0.0
230
-1.0
 40
0.0769587904
 41
3.155839177094738
 42
4.529239944039637
  0
SPLINE
  5
BCFC
330
1A
100
AcDbEntity
  8
SEIHIN
100
AcDbSpline
210
0.0
220
0.0
230
1.0
 70
    12
 71
     3
 72
    10
 73
     6
 74
     0
 42
0.0000000001
 43
0.0000000001
 40
0.0
 40
0.0
 40
0.0
 40
0.0
 40
0.5
 40
0.5
 40
1.0
 40
1.0
 40
1.0
 40
1.0
 10
555.5218127513187
 20
378.6185455941381
 30
0.0
 41
1.0
 10
555.6003525676584
 20
378.6185455941381
 30
0.0
 41
1.0
 10
555.6784087489477
 20
378.5863155597585
 30
0.0
 41
1.0
 10
555.7894808224016
 20
378.4755935315361
 30
0.0
 41
1.0
 10
555.8218127513188
 20
378.3977833454209
 30
0.0
 41
1.0
 10
555.8218127513188
 20
378.319491048438
 30
0.0
 41
1.0
  0
ELLIPSE
  5
BCFD
330
1A
100
AcDbEntity
  8
SEIHIN
100
AcDbEllipse
 10
552.8218127513411
 20
374.8533515582423
 30
0.0
 11
-2.700000000000044
 21
-0.0000000000000246
 31
0.0
210
0.0
220
0.0
230
-1.0
 40
0.0795802934
 41
3.141592653589792
 42
3.808936770064412
  0
LINE
  5
BCFE
330
1A
100
AcDbEntity
  8
SEIHIN
100
AcDbLine
 10
562.8218127513412
 20
364.9051233693425
 30
0.0
 11
562.821812751341
 21
370.1966259915424
 31
0.0
  0
LINE
  5
BCFF
330
1A
100
AcDbEntity
  8
SEIHIN
100
AcDbLine
 10
550.821812751341
 20
370.6123413112422
 30
0.0
 11
550.8218127513412
 21
365.1123413112423
 31
0.0
  0
ARC
  5
BD00
330
1A
100
AcDbEntity
  8
SEIHIN
100
AcDbCircle
 10
555.522291593641
 20
374.5538304728422
 30
0.0
 40
0.2995208710301218
100
AcDbArc
 50
0.0897323678025251
 51
90.09126978250062
  0
LINE
  5
BD01
330
1A
100
AcDbEntity
  8
SEIHIN
100
AcDbLine
 10
555.821812097341
 20
378.3194951680422
 30
0.0
 11
555.8218127513411
 21
374.5542970125423
 31
0.0
  0
LINE
  5
BD02
330
1A
100
AcDbEntity
  8
SEIHIN
100
AcDbLine
 10
555.8218127513409
 20
380.5492719300423
 30
0.0
 11
555.821812097341
 21
378.3194951680422
 31
0.0
  0
LINE
  5
BD03
330
1A
100
AcDbEntity
  8
SEIHIN
100
AcDbLine
 10
555.8218127513411
 20
374.5542970125423
 30
0.0
 11
555.821812097341
 21
373.8520823386422
 31
0.0
  0
LINE
  5
BD04
330
1A
100
AcDbEntity
  8
SEIHIN
100
AcDbLine
 10
550.821812751341
 20
370.6123413112422
 30
0.0
 11
550.821812751341
 21
372.5123413112423
 31
0.0
  0
LINE
  5
BD05
330
1A
100
AcDbEntity
  8
SEIHIN
100
AcDbLine
 10
553.4101634662411
 20
373.1742359664422
 30
0.0
 11
553.4101634662411
 21
373.6960820820422
 31
0.0
  0
LINE
  5
BD06
330
1A
100
AcDbEntity
  8
SEIHIN
100
AcDbLine
 10
549.825145248641
 20
372.4575422671423
 30
0.0
 11
553.4101634662411
 21
373.1742359664422
 31
0.0
  0
LINE
  5
BD07
330
1A
100
AcDbEntity
  8
SEIHIN
100
AcDbLine
 10
546.8218162100411
 20
372.3093129661424
 30
0.0
 11
549.825145248641
 21
372.4575422671423
 31
0.0
  0
LINE
  5
BD08
330
1A
100
AcDbEntity
  8
SEIHIN
100
AcDbLine
 10
562.8218127513412
 20
364.0586935839424
 30
0.0
 11
562.8218127513412
 21
364.9051233693425
 31
0.0
  0
LINE
  5
BD09
330
1A
100
AcDbEntity
  8
SEIHIN
100
AcDbLine
 10
562.8218127513412
 20
363.0586935839425
 30
0.0
 11
562.8218127513412
 21
364.0586935839424
 31
0.0
  0
ARC
  5
BD0A
330
1A
100
AcDbEntity
  8
SEIHIN
100
AcDbCircle
 10
548.8218127513412
 20
365.1123413112423
 30
0.0
 40
2.0
100
AcDbArc
 50
270.0000000000005
 51
0.0000000000005321
  0
SPLINE
  5
BD0B
330
1A
100
AcDbEntity
  8
SEIHIN
100
AcDbSpline
210
0.0
220
0.0
230
1.0
 70
    12
 71
     3
 72
    16
 73
    12
 74
     0
 42
0.0000000001
 43
0.0000000001
 40
0.0
 40
0.0
 40
0.0
 40
0.0
 40
0.125
 40
0.125
 40
0.25
 40
0.5
 40
0.5
 40
0.75
 40
0.875
 40
0.875
 40
1.0
 40
1.0
 40
1.0
 40
1.0
 10
540.8218127513188
 20
378.5475927539396
 30
0.0
 41
1.0
 10
541.434312697851
 20
378.5477674306512
 30
0.0
 41
1.0
 10
542.0468126443839
 20
378.5485938368481
 30
0.0
 41
1.0
 10
543.2718125374485
 20
378.5523468523251
 30
0.0
 41
1.0
 10
545.109312377049
 20
378.5603980362247
 30
0.0
 41
1.0
 10
546.9468122166436
 20
378.5733544375161
 30
0.0
 41
1.0
 10
549.3968120027732
 20
378.5907973473927
 30
0.0
 41
1.0
 10
551.2343118423709
 20
378.604005152845
 30
0.0
 41
1.0
 10
553.0718116819683
 20
378.6126911667729
 30
0.0
 41
1.0
 10
554.2968115750333
 20
378.6169539129628
 30
0.0
 41
1.0
 10
554.9093115215657
 20
378.6182027129041
 30
0.0
 41
1.0
 10
555.5218114680983
 20
378.6185532395152
 30
0.0
 41
1.0
  0
LINE
  5
BD0C
330
1A
100
AcDbEntity
  8
SEIHIN
100
AcDbLine
 10
540.821811501341
 20
374.4956262376422
 30
0.0
 11
554.9425767994409
 21
374.7203700578422
 31
0.0
  0
LINE
  5
BD0D
330
1A
100
AcDbEntity
  8
SEIHIN
100
AcDbLine
 10
546.8218162100411
 20
372.3093129661424
 30
0.0
 11
540.821811501341
 21
372.2138188746423
 31
0.0
  0
LINE
  5
BD0E
330
1A
100
AcDbEntity
  8
SEIHIN
100
AcDbLine
 10
553.4101634662411
 20
373.6960820820422
 30
0.0
 11
540.821811501341
 21
373.4957210686423
 31
0.0
  0
ARC
  5
BD0F
330
1A
100
AcDbEntity
  8
SEIHIN
100
AcDbCircle
 10
517.118438532241
 20
371.7300338289421
 30
0.0
 40
14.00584060722672
100
AcDbArc
 50
20.43637986250132
 51
89.86045493170056
  0
LINE
  5
BD10
330
1A
100
AcDbEntity
  8
SEIHIN
100
AcDbLine
 10
538.0718127513407
 20
404.0226174112421
 30
0.0
 11
538.0595618763408
 21
404.0243189216422
 31
0.0
  0
LWPOLYLINE
  5
BD11
330
1A
100
AcDbEntity
  8
SEIHIN
100
AcDbPolyline
 90
        3
 70
   128
 43
0.0
 10
538.0589723031406
 20
413.5854773190421
 10
538.0718096535408
 20
409.0574093130422
 10
538.0589723031407
 20
404.5291997459422
  0
ARC
  5
BD12
330
1A
100
AcDbEntity
  8
SEIHIN
100
AcDbCircle
 10
538.7173681145407
 20
413.5155145549421
 30
0.0
 40
0.6621025848145631
100
AcDbArc
 50
93.20113742040076
 51
173.9343711446986
  0
LINE
  5
BD13
330
1A
100
AcDbEntity
  8
SEIHIN
100
AcDbLine
 10
538.0718127513407
 20
414.0260204321422
 30
0.0
 11
538.0595618763407
 21
414.0243189216422
 31
0.0
  0
LINE
  5
BD14
330
1A
100
AcDbEntity
  8
SEIHIN
100
AcDbLine
 10
535.8218127513407
 20
409.0573396335422
 30
0.0
 11
538.0030254483406
 21
409.0573396335422
 31
0.0
  0
ARC
  5
BD15
330
1A
100
AcDbEntity
  8
SEIHIN
100
AcDbCircle
 10
538.7157104897408
 20
404.597419869642
 30
0.0
 40
0.6602719370891394
100
AcDbArc
 50
185.9304553549014
 51
266.9340360800004
  0
LINE
  5
BD16
330
1A
100
AcDbEntity
  8
SEIHIN
100
AcDbLine
 10
516.7549646835409
 20
378.6259151962419
 30
0.0
 11
517.310267631341
 21
378.6259151962419
 31
0.0
  0
ELLIPSE
  5
BD17
330
1A
100
AcDbEntity
  8
SEIHIN
100
AcDbEllipse
 10
535.224932522941
 20
362.6123413112421
 30
0.0
 11
0.0000000000000182
 21
-2.0
 31
0.0
210
0.0
220
0.0
230
-1.0
 40
0.0483365671
 41
0.0
 42
1.570796326794897
  0
LINE
  5
BD18
330
1A
100
AcDbEntity
  8
SEIHIN
100
AcDbLine
 10
535.3457763235411
 20
363.1123423543421
 30
0.0
 11
536.2883343737411
 21
363.1123423543421
 31
0.0
  0
ELLIPSE
  5
BD19
330
1A
100
AcDbEntity
  8
SEIHIN
100
AcDbEllipse
 10
537.5520470691411
 20
371.3317036250422
 30
0.0
 11
-1.624614490313595
 21
-0.9983398719188167
 31
0.0
210
0.0
220
0.0
230
-1.0
 40
0.0354531765
 41
0.0217828423728254
 42
1.513094691314421
  0
ELLIPSE
  5
BD1A
330
1A
100
AcDbEntity
  8
SEIHIN
100
AcDbEllipse
 10
533.0292511937411
 20
367.4625468843421
 30
0.0
 11
-2.0
 21
-0.0000000000000182
 31
0.0
210
0.0
220
0.0
230
-1.0
 40
0.0795798372
 41
1.570796326794897
 42
3.093293678664761
  0
ELLIPSE
  5
BD1B
330
1A
100
AcDbEntity
  8
SEIHIN
100
AcDbEllipse
 10
533.029251193741
 20
369.970450578842
 30
0.0
 11
-2.0
 21
-0.0000000000000182
 31
0.0
210
0.0
220
0.0
230
-1.0
 40
0.0795798372
 41
1.54443349845619
 42
3.09329367866514
  0
ELLIPSE
  5
BD1C
330
1A
100
AcDbEntity
  8
SEIHIN
100
AcDbEllipse
 10
535.0315862543411
 20
365.4562239288421
 30
0.0
 11
0.0000000000000182
 21
-2.0
 31
0.0
210
0.0
220
0.0
230
-1.0
 40
0.0483365671
 41
3.22100513455518
 42
4.712388980384691
  0
ARC
  5
BD1D
330
1A
100
AcDbEntity
  8
SEIHIN
100
AcDbCircle
 10
532.816710394441
 20
377.825295644642
 30
0.0
 40
2.842001596250845
100
AcDbArc
 50
205.0845861671983
 51
274.7486496459006
  0
LINE
  5
BD1E
330
1A
100
AcDbEntity
  8
SEIHIN
100
AcDbLine
 10
533.0292529802411
 20
367.621705677742
 30
0.0
 11
530.8442025821412
 21
367.621705677742
 31
0.0
  0
LWPOLYLINE
  5
BD1F
330
1A
100
AcDbEntity
  8
SEIHIN
100
AcDbPolyline
 90
       13
 70
   128
 43
0.0
 10
531.078076307041
 20
370.6123389270421
 10
531.037597302741
 20
370.6667356160421
 10
531.0312345068409
 20
370.6940419939421
 10
531.0606643002411
 20
370.6905476716422
 10
531.1267025213409
 20
370.6584505703419
 10
531.222528163741
 20
370.605707910342
 10
531.3497170250409
 20
370.537073161842
 10
531.534960810441
 20
370.4460270669422
 10
531.760184411341
 20
370.3516878154421
 10
532.0470913689409
 20
370.257072892442
 10
532.3797150891411
 20
370.181114223242
 10
532.6684660654409
 20
370.1429076459421
 10
532.976532671941
 20
370.129556205542
  0
LINE
  5
BD20
330
1A
100
AcDbEntity
  8
SEIHIN
100
AcDbLine
 10
535.821816269641
 20
374.7804023292423
 30
0.0
 11
535.8218127513409
 21
378.5533441698422
 31
0.0
  0
LINE
  5
BD21
330
1A
100
AcDbEntity
  8
SEIHIN
100
AcDbLine
 10
535.821816269641
 20
370.3672371771421
 30
0.0
 11
535.821816269641
 21
374.7804023292423
 31
0.0
  0
ARC
  5
BD22
330
1A
100
AcDbEntity
  8
SEIHIN
100
AcDbCircle
 10
535.7211677694415
 20
319.6788199794422
 30
0.0
 40
55.37859251654431
100
AcDbArc
 50
89.90755315650069
 51
92.76265960060044
  0
ARC
  5
BD23
330
1A
100
AcDbEntity
  8
SEIHIN
100
AcDbCircle
 10
535.955480808941
 20
370.6144454931421
 30
0.0
 40
0.2810305330759562
100
AcDbArc
 50
241.6000894052999
 51
264.1933124194005
  0
LINE
  5
BD24
330
1A
100
AcDbEntity
  8
SEIHIN
100
AcDbLine
 10
535.026921276341
 20
369.9781380560422
 30
0.0
 11
535.160092953941
 21
369.7588749197421
 31
0.0
  0
LINE
  5
BD25
330
1A
100
AcDbEntity
  8
SEIHIN
100
AcDbLine
 10
535.0392519872411
 20
367.4499213662421
 30
0.0
 11
535.0269212763411
 21
367.4702316489421
 31
0.0
  0
LINE
  5
BD26
330
1A
100
AcDbEntity
  8
SEIHIN
100
AcDbLine
 10
535.026921276341
 20
369.9781380560422
 30
0.0
 11
535.0269212763411
 21
367.4702316489421
 31
0.0
  0
ARC
  5
BD27
330
1A
100
AcDbEntity
  8
SEIHIN
100
AcDbCircle
 10
517.301363099041
 20
364.637158836442
 30
0.0
 40
13.9887591938431
100
AcDbArc
 50
34.75815917430098
 51
89.96352841980048
  0
ARC
  5
BD28
330
1A
100
AcDbEntity
  8
SEIHIN
100
AcDbCircle
 10
515.6171412044411
 20
363.1347130727419
 30
0.0
 40
11.97825106555969
100
AcDbArc
 50
52.3012185208001
 51
83.62645870360053
  0
ARC
  5
BD29
330
1A
100
AcDbEntity
  8
SEIHIN
100
AcDbCircle
 10
530.844781991341
 20
372.6103028697421
 30
0.0
 40
4.9885972255605
100
AcDbArc
 50
233.2658970823012
 51
269.9933452828003
  0
LINE
  5
BD2A
330
1A
100
AcDbEntity
  8
SEIHIN
100
AcDbLine
 10
530.192738715941
 20
370.6123389270421
 30
0.0
 11
531.078076307041
 21
370.6123389270421
 31
0.0
  0
LWPOLYLINE
  5
BD2B
330
1A
100
AcDbEntity
  8
SEIHIN
100
AcDbPolyline
 90
       18
 70
   128
 43
0.0
 10
522.9419640641411
 20
372.612342980142
 10
523.224955741641
 20
372.387916591442
 10
523.502363209041
 20
372.1562556889421
 10
523.6406608860411
 20
372.036264088442
 10
523.776503596841
 20
371.9154007699419
 10
523.910211716241
 20
371.7934720185419
 10
524.040701184741
 20
371.671610322242
 10
524.179457072541
 20
371.5388856795421
 10
524.313165191941
 20
371.4079566267421
 10
524.442388061841
 20
371.2786592510421
 10
524.5646595399411
 20
371.153988685842
 10
524.741923753541
 20
370.970004048642
 10
524.894411061341
 20
370.8106808331419
 10
524.9469451051409
 20
370.7564927604421
 10
525.0332563560411
 20
370.6708483365421
 10
525.0659271519409
 20
370.641239729242
 10
525.093725268141
 20
370.6197224524419
 10
525.1107274930411
 20
370.6123389270421
  0
ARC
  5
BD2C
330
1A
100
AcDbEntity
  8
SEIHIN
100
AcDbCircle
 10
523.0943416849411
 20
367.7077633802421
 30
0.0
 40
7.519412262898697
100
AcDbArc
 50
22.72303705709971
 51
40.71188958570265
  0
ARC
  5
BD2D
330
1A
100
AcDbEntity
  8
SEIHIN
100
AcDbCircle
 10
525.384940027441
 20
369.8885031066422
 30
0.0
 40
1.07234919248016
100
AcDbArc
 50
25.26245548129928
 51
42.45415857229931
  0
ARC
  5
BD2E
330
1A
100
AcDbEntity
  8
SEIHIN
100
AcDbCircle
 10
531.150359329041
 20
372.9913943639419
 30
0.0
 40
5.476804261336305
100
AcDbArc
 50
208.8809630636996
 51
233.0884268962992
  0
LINE
  5
BD2F
330
1A
100
AcDbEntity
  8
SEIHIN
100
AcDbLine
 10
525.1107274930411
 20
370.6123389270421
 30
0.0
 11
530.0301186185411
 21
370.6123389270421
 31
0.0
  0
LINE
  5
BD30
330
1A
100
AcDbEntity
  8
SEIHIN
100
AcDbLine
 10
530.192738715941
 20
370.6123389270421
 30
0.0
 11
530.0301186185411
 21
370.6123389270421
 31
0.0
  0
LINE
  5
BD31
330
1A
100
AcDbEntity
  8
SEIHIN
100
AcDbLine
 10
535.1282566230411
 20
362.6123413410422
 30
0.0
 11
535.1282566230411
 21
365.4562242296423
 31
0.0
  0
LINE
  5
BD32
330
1A
100
AcDbEntity
  8
SEIHIN
100
AcDbLine
 10
535.2249353568411
 20
360.6123410132421
 30
0.0
 11
536.1916630905411
 21
360.6123410132421
 31
0.0
  0
LWPOLYLINE
  5
BD33
330
1A
100
AcDbEntity
  8
SEIHIN
100
AcDbPolyline
 90
        9
 70
   128
 43
0.0
 10
510.6214562320163
 20
385.7358335922418
 10
501.5214424025407
 20
394.8503740098417
 10
484.5413773696408
 20
411.8112109568418
 10
469.1186587702405
 20
427.1172292497415
 10
461.3622020374405
 20
434.7258366611414
 10
457.4547143097404
 20
438.5009862449416
 10
455.4830923121405
 20
440.3705604341414
 10
454.4867131303404
 20
441.2945367362413
 10
453.4691091071405
 20
442.1958632734413
  0
LINE
  5
BD34
330
1A
100
AcDbEntity
  8
SEIHIN
100
AcDbLine
 10
403.87681717084
 20
477.557346966541
 30
0.0
 11
575.8218127513401
 21
477.5573396335426
 31
0.0
  0
LINE
  5
BD35
330
1A
100
AcDbEntity
  8
SEIHIN
100
AcDbLine
 10
386.5715456770399
 20
496.8626072363407
 30
0.0
 11
555.4922666262399
 21
496.8626072363422
 31
0.0
  0
LINE
  5
BD36
330
1A
100
AcDbEntity
  8
SEIHIN
100
AcDbLine
 10
548.8218128126399
 20
494.3573333290423
 30
0.0
 11
389.0768125098399
 21
494.3573333290409
 31
0.0
  0
LINE
  5
BD37
330
1A
100
AcDbEntity
  8
SEIHIN
100
AcDbLine
 10
550.82180941514
 20
488.9932729270421
 30
0.0
 11
392.8375824730399
 21
488.9932729270408
 31
0.0
  0
LINE
  5
BD38
330
1A
100
AcDbEntity
  8
SEIHIN
100
AcDbLine
 10
535.8218162696402
 20
453.6777593162423
 30
0.0
 11
429.6337070061402
 21
453.677753674741
 31
0.0
  0
LINE
  5
BD39
330
1A
100
AcDbEntity
  8
SEIHIN
100
AcDbLine
 10
439.9198240976404
 20
443.3991767433411
 30
0.0
 11
535.8218162696405
 21
443.399176743342
 31
0.0
  0
LINE
  5
BD3A
330
1A
100
AcDbEntity
  8
SEIHIN
100
AcDbLine
 10
436.2084999125403
 20
447.1104897525414
 30
0.0
 11
535.8218162696403
 21
447.1104897525423
 31
0.0
  0
ARC
  5
BD3B
330
1A
100
AcDbEntity
  8
SEIHIN
100
AcDbCircle
 10
509.582382199741
 20
371.8843313943419
 30
0.0
 40
13.85164325053255
100
AcDbArc
 50
89.74079321820047
 51
135.0952247142021
  0
LINE
  5
BD3C
330
1A
100
AcDbEntity
  8
SEIHIN
100
AcDbLine
 10
517.1525507111409
 20
385.735833592242
 30
0.0
 11
509.6450462435409
 21
385.7358335922418
 31
0.0
  0
LINE
  5
BD3D
330
1A
100
AcDbEntity
  8
CENTER_L
  6
CENTER
 62
     1
 48
5.0
100
AcDbLine
 10
463.5725933112418
 20
409.0573396335416
 30
0.0
 11
583.5868030411839
 21
409.0573396335427
 31
0.0
  0
DIMENSION
  5
BD3E
330
1A
100
AcDbEntity
  8
SUNPOU
100
AcDbDimension
  2
*D258
 10
616.8395517978299
 20
360.6123413112425
 30
0.0
 11
611.8395517978298
 21
428.7400589850425
 31
0.0
 70
    32
  3
STANDARD
100
AcDbAlignedDimension
 13
555.4922654669399
 23
496.8677766588423
 33
0.0
 14
575.8218127513412
 24
360.6123413112425
 34
0.0
 50
90.0
100
AcDbRotatedDimension
1001
ACAD
1000
DSTYLE
1002
{
1070
    41
1040
7.0
1070
    42
1040
6.0
1070
    43
1040
14.0
1070
    44
1040
3.0
1070
    73
1070
     0
1070
    74
1070
     0
1070
    77
1070
     3
1070
   140
1040
6.0
1070
   141
1040
150.0
1070
   147
1040
2.0
1070
   172
1070
     1
1070
   173
1070
     1
1070
   176
1070
   256
1070
   177
1070
   256
1070
   178
1070
   256
1070
   271
1070
     0
1070
   272
1070
     0
1070
   341
1005
6D
1070
     6
1000
OPEN
1070
     7
1000
OPEN
1070
   371
1070
    -1
1070
   372
1070
    -1
1002
}
  0
DIMENSION
  5
BD4B
330
1A
100
AcDbEntity
  8
SUNPOU
100
AcDbDimension
  2
*D259
 10
639.4974345389121
 20
305.6123413112417
 30
0.0
 11
634.4974345389119
 21
401.240058985042
 31
0.0
 70
    32
  3
STANDARD
100
AcDbAlignedDimension
 13
555.4922654669399
 23
496.8677766588423
 33
0.0
 14
505.0368120900408
 24
305.6123413112417
 34
0.0
 50
90.0
100
AcDbRotatedDimension
1001
ACAD
1000
DSTYLE
1002
{
1070
    41
1040
7.0
1070
    42
1040
6.0
1070
    43
1040
14.0
1070
    44
1040
3.0
1070
    73
1070
     0
1070
    74
1070
     0
1070
    77
1070
     3
1070
   140
1040
6.0
1070
   141
1040
150.0
1070
   147
1040
2.0
1070
   172
1070
     1
1070
   173
1070
     1
1070
   176
1070
   256
1070
   177
1070
   256
1070
   178
1070
   256
1070
   271
1070
     0
1070
   272
1070
     0
1070
   341
1005
6D
1070
     6
1000
OPEN
1070
     7
1000
OPEN
1070
   371
1070
    -1
1070
   372
1070
    -1
1002
}
  0
DIMENSION
  5
BD58
330
1A
100
AcDbEntity
  8
SUNPOU
100
AcDbDimension
  2
*D260
 10
569.5280089185983
 20
305.6123413112417
 30
0.0
 11
564.5280089185981
 21
323.3574138838148
 31
0.0
 70
    32
  1
\U+203B<>
  3
STANDARD
100
AcDbAlignedDimension
 13
511.099297108702
 23
341.1024864563879
 33
0.0
 14
511.0368120900408
 24
305.6123413112417
 34
0.0
 50
90.0
100
AcDbRotatedDimension
1001
ACAD
1000
DSTYLE
1002
{
1070
    41
1040
7.0
1070
    42
1040
6.0
1070
    43
1040
14.0
1070
    44
1040
3.0
1070
    73
1070
     0
1070
    74
1070
     0
1070
    77
1070
     3
1070
   140
1040
6.0
1070
   141
1040
150.0
1070
   147
1040
2.0
1070
   172
1070
     1
1070
   173
1070
     1
1070
   176
1070
   256
1070
   177
1070
   256
1070
   178
1070
   256
1070
   271
1070
     0
1070
   272
1070
     0
1070
   341
1005
6D
1070
     6
1000
OPEN
1070
     7
1000
OPEN
1070
   371
1070
    -1
1070
   372
1070
    -1
1002
}
  0
VIEWPORT
  5
22
330
17
100
AcDbEntity
 67
     1
  8
0
100
AcDbViewport
 10
313.6808219178082
 20
148.5
 30
0.0
 40
627.3616438356165
 41
297.0
 68
     2
 69
     1
1001
ACAD
1000
MVIEW
1002
{
1070
    16
1010
0.0
1020
0.0
1030
0.0
1010
0.0
1020
0.0
1030
1.0
1040
0.0
1040
297.0
1040
313.6808219178082
1040
148.5
1040
50.0
1040
0.0
1040
0.0
1070
     0
1070
   100
1070
     1
1070
     0
1070
     0
1070
     0
1070
     0
1070
     0
1040
0.0
1040
0.0
1040
0.0
1040
1.0
1040
1.0
1040
10.0
1040
10.0
1070
     0
1002
{
1002
}
1002
}
  0
VIEWPORT
  5
64
330
17
100
AcDbEntity
 67
     1
  8
VIEWPORT
100
AcDbViewport
 10
210.0
 20
148.5
 30
0.0
 40
420.0
 41
297.0
 68
     1
 69
     2
1001
ACAD
1000
MVIEW
1002
{
1070
    16
1010
0.0
1020
0.0
1030
0.0
1010
0.0
1020
0.0
1030
1.0
1040
0.0
1040
605.8799999999997
1040
420.0
1040
297.0
1040
50.0
1040
0.0
1040
0.0
1070
     0
1070
   100
1070
     1
1070
     0
1070
     0
1070
     0
1070
     0
1070
     0
1040
0.0
1040
0.0
1040
0.0
1040
10.0
1040
10.0
1040
0.0
1040
0.0
1070
     0
1002
{
1002
}
1002
}
  0
ENDSEC
  0
SECTION
  2
OBJECTS
  0
DICTIONARY
  5
C
330
0
100
AcDbDictionary
  3
ACAD_GROUP
350
D
  3
ACAD_LAYOUT
350
556
  3
ACAD_MLINESTYLE
350
E
  3
ACAD_PLOTSETTINGS
350
557
  3
ACAD_PLOTSTYLENAME
350
554
  3
ACDBVARIABLEDICTIONARY
350
6FB9
  3
ACDBHEADERROUNDTRIPXREC
350
BDA7
  0
DICTIONARY
  5
6C6
330
1A
100
AcDbDictionary
280
     1
  3
ACAD_LAYOUTSELFREF
360
BDC9
  0
DICTIONARY
  5
6C4
330
17
100
AcDbDictionary
280
     1
  3
ACAD_LAYOUTSELFREF
360
BDC8
  0
DICTIONARY
  5
D
102
{ACAD_REACTORS
330
C
102
}
330
C
100
AcDbDictionary
  3
*A1
350
45AE
  3
*A2
350
6BC5
  3
*A3
350
B6FE
  0
DICTIONARY
  5
556
102
{ACAD_REACTORS
330
C
102
}
330
C
100
AcDbDictionary
  0
DICTIONARY
  5
E
102
{ACAD_REACTORS
330
C
102
}
330
C
100
AcDbDictionary
  3
STANDARD
350
13
  0
DICTIONARY
  5
557
102
{ACAD_REACTORS
330
C
102
}
330
C
100
AcDbDictionary
  0
ACDBDICTIONARYWDFLT
  5
554
102
{ACAD_REACTORS
330
C
102
}
330
C
100
AcDbDictionary
281
     1
  3
Normal
350
555
100
AcDbDictionaryWithDefault
340
555
1001
ACAD
1000
TREAT_AS_HARD
1070
     0
1000
TREAT_AS_HARD
1070
     0
1000
TREAT_AS_HARD
1070
     0
1000
TREAT_AS_HARD
1070
     0
1000
TREAT_AS_HARD
1070
     0
1000
TREAT_AS_HARD
1070
     0
1000
TREAT_AS_HARD
1070
     0
1000
TREAT_AS_HARD
1070
     0
1000
TREAT_AS_HARD
1070
     0
1000
TREAT_AS_HARD
1070
     0
1000
TREAT_AS_HARD
1070
     0
1000
TREAT_AS_HARD
1070
     0
1000
TREAT_AS_HARD
1070
     0
  0
DICTIONARY
  5
6FB9
102
{ACAD_REACTORS
330
C
102
}
330
C
100
AcDbDictionary
  3
SORTENTS
350
6FBA
  0
DICTIONARY
  5
BDA7
102
{ACAD_REACTORS
330
C
102
}
330
C
100
AcDbDictionary
  3
TSTACKALIGN
350
BDA8
  3
TSTACKSIZE
350
BDA9
  3
HYPERLINKBASE
350
BDAA
  3
STYLESHEET
350
BDAB
  3
LAYOUTDICT
350
BDAC
  3
PLOTSETDICT
350
BDAD
  3
PLOTSTYLNAMDICT
350
BDAE
  3
LWETCUNION
350
BDAF
  3
INSUNITS
350
BDB0
  3
CEPSNTYPE
350
BDB1
  3
FINGERPRINTGUID
350
BDB2
  3
VERSIONGUID
350
BDB3
  3
PSVPSCALE
350
BDB4
  3
DIMSTYLEDATA
350
BDB5
  3
PUCSORTHOREF
350
BDB6
  3
PUCSORTHOVIEW
350
BDB7
  3
PUCSBASE
350
BDB8
  3
PUCSORGTOP
350
BDB9
  3
PUCSORGBOTTOM
350
BDBA
  3
PUCSORGLEFT
350
BDBB
  3
PUCSORGRIGHT
350
BDBC
  3
PUCSORGFRONT
350
BDBD
  3
PUCSORGBACK
350
BDBE
  3
UCSORTHOREF
350
BDBF
  3
UCSORTHOVIEW
350
BDC0
  3
UCSBASE
350
BDC1
  3
UCSORGTOP
350
BDC2
  3
UCSORGBOTTOM
350
BDC3
  3
UCSORGLEFT
350
BDC4
  3
UCSORGRIGHT
350
BDC5
  3
UCSORGFRONT
350
BDC6
  3
UCSORGBACK
350
BDC7
  0
XRECORD
  5
BDC9
102
{ACAD_REACTORS
330
6C6
102
}
330
6C6
100
AcDbXrecord
340
1A
  0
XRECORD
  5
BDC8
102
{ACAD_REACTORS
330
6C4
102
}
330
6C4
100
AcDbXrecord
340
17
  0
GROUP
  5
45AE
102
{ACAD_REACTORS
330
D
102
}
330
D
100
AcDbGroup
300

 70
     1
 71
     1
  0
GROUP
  5
6BC5
102
{ACAD_REACTORS
330
D
102
}
330
D
100
AcDbGroup
300

 70
     1
 71
     1
  0
GROUP
  5
B6FE
102
{ACAD_REACTORS
330
D
102
}
330
D
100
AcDbGroup
300

 70
     1
 71
     1
  0
MLINESTYLE
  5
13
102
{ACAD_REACTORS
330
E
102
}
330
E
100
AcDbMlineStyle
  2
STANDARD
 70
     0
  3

 62
     0
 51
90.0
 52
90.0
 71
     2
 49
0.5
 62
   256
  6
BYLAYER
 49
-0.5
 62
   256
  6
BYLAYER
  0
ACDBPLACEHOLDER
  5
555
102
{ACAD_REACTORS
330
554
102
}
330
554
100
AcDbPlaceHolder
280
     0
  0
DICTIONARYVAR
  5
6FBA
102
{ACAD_REACTORS
330
6FB9
102
}
330
6FB9
100
DictionaryVariables
280
     0
  1
96
  0
XRECORD
  5
BDA8
102
{ACAD_REACTORS
330
BDA7
102
}
330
BDA7
100
AcDbXrecord
 90
        1
  0
XRECORD
  5
BDA9
102
{ACAD_REACTORS
330
BDA7
102
}
330
BDA7
100
AcDbXrecord
 90
       70
  0
XRECORD
  5
BDAA
102
{ACAD_REACTORS
330
BDA7
102
}
330
BDA7
100
AcDbXrecord
  1

  0
XRECORD
  5
BDAB
102
{ACAD_REACTORS
330
BDA7
102
}
330
BDA7
100
AcDbXrecord
  1
systemprinter.ctb
  0
XRECORD
  5
BDAC
102
{ACAD_REACTORS
330
BDA7
102
}
330
BDA7
100
AcDbXrecord
340
556
  0
XRECORD
  5
BDAD
102
{ACAD_REACTORS
330
BDA7
102
}
330
BDA7
100
AcDbXrecord
340
557
  0
XRECORD
  5
BDAE
102
{ACAD_REACTORS
330
BDA7
102
}
330
BDA7
100
AcDbXrecord
340
554
  0
XRECORD
  5
BDAF
102
{ACAD_REACTORS
330
BDA7
102
}
330
BDA7
100
AcDbXrecord
 90
    10781
  0
XRECORD
  5
BDB0
102
{ACAD_REACTORS
330
BDA7
102
}
330
BDA7
100
AcDbXrecord
 90
        0
  0
XRECORD
  5
BDB1
102
{ACAD_REACTORS
330
BDA7
102
}
330
BDA7
100
AcDbXrecord
 90
        0
  0
XRECORD
  5
BDB2
102
{ACAD_REACTORS
330
BDA7
102
}
330
BDA7
100
AcDbXrecord
  1
{B06877AA-F1AE-4EC1-AEA7-B60A7FDC8903}
  0
XRECORD
  5
BDB3
102
{ACAD_REACTORS
330
BDA7
102
}
330
BDA7
100
AcDbXrecord
  1
{49076FA8-177A-4959-B23F-6FE9E05170BD}
  0
XRECORD
  5
BDB4
102
{ACAD_REACTORS
330
BDA7
102
}
330
BDA7
100
AcDbXrecord
 40
0.0
  0
XRECORD
  5
BDB5
102
{ACAD_REACTORS
330
BDA7
102
}
330
BDA7
100
AcDbXrecord
1000
DSTYLE
1002
{
1070
   341
340
6D
1070
   343
340
6D
1070
   344
340
6D
1070
   371
 70
    -1
1070
   372
 70
    -1
1002
}
  0
XRECORD
  5
BDB6
102
{ACAD_REACTORS
330
BDA7
102
}
330
BDA7
100
AcDbXrecord
340
0
  0
XRECORD
  5
BDB7
102
{ACAD_REACTORS
330
BDA7
102
}
330
BDA7
100
AcDbXrecord
 70
     0
  0
XRECORD
  5
BDB8
102
{ACAD_REACTORS
330
BDA7
102
}
330
BDA7
100
AcDbXrecord
340
0
  0
XRECORD
  5
BDB9
102
{ACAD_REACTORS
330
BDA7
102
}
330
BDA7
100
AcDbXrecord
 10
0.0
 20
0.0
 30
0.0
  0
XRECORD
  5
BDBA
102
{ACAD_REACTORS
330
BDA7
102
}
330
BDA7
100
AcDbXrecord
 10
0.0
 20
0.0
 30
0.0
  0
XRECORD
  5
BDBB
102
{ACAD_REACTORS
330
BDA7
102
}
330
BDA7
100
AcDbXrecord
 10
0.0
 20
0.0
 30
0.0
  0
XRECORD
  5
BDBC
102
{ACAD_REACTORS
330
BDA7
102
}
330
BDA7
100
AcDbXrecord
 10
0.0
 20
0.0
 30
0.0
  0
XRECORD
  5
BDBD
102
{ACAD_REACTORS
330
BDA7
102
}
330
BDA7
100
AcDbXrecord
 10
0.0
 20
0.0
 30
0.0
  0
XRECORD
  5
BDBE
102
{ACAD_REACTORS
330
BDA7
102
}
330
BDA7
100
AcDbXrecord
 10
0.0
 20
0.0
 30
0.0
  0
XRECORD
  5
BDBF
102
{ACAD_REACTORS
330
BDA7
102
}
330
BDA7
100
AcDbXrecord
340
0
  0
XRECORD
  5
BDC0
102
{ACAD_REACTORS
330
BDA7
102
}
330
BDA7
100
AcDbXrecord
 70
     0
  0
XRECORD
  5
BDC1
102
{ACAD_REACTORS
330
BDA7
102
}
330
BDA7
100
AcDbXrecord
340
0
  0
XRECORD
  5
BDC2
102
{ACAD_REACTORS
330
BDA7
102
}
330
BDA7
100
AcDbXrecord
 10
0.0
 20
0.0
 30
0.0
  0
XRECORD
  5
BDC3
102
{ACAD_REACTORS
330
BDA7
102
}
330
BDA7
100
AcDbXrecord
 10
0.0
 20
0.0
 30
0.0
  0
XRECORD
  5
BDC4
102
{ACAD_REACTORS
330
BDA7
102
}
330
BDA7
100
AcDbXrecord
 10
0.0
 20
0.0
 30
0.0
  0
XRECORD
  5
BDC5
102
{ACAD_REACTORS
330
BDA7
102
}
330
BDA7
100
AcDbXrecord
 10
0.0
 20
0.0
 30
0.0
  0
XRECORD
  5
BDC6
102
{ACAD_REACTORS
330
BDA7
102
}
330
BDA7
100
AcDbXrecord
 10
0.0
 20
0.0
 30
0.0
  0
XRECORD
  5
BDC7
102
{ACAD_REACTORS
330
BDA7
102
}
330
BDA7
100
AcDbXrecord
 10
0.0
 20
0.0
 30
0.0
  0
ENDSEC
  0
EOF
