  0
SECTION
  2
HEADER
  9
$ACADVER
  1
AC1015
  9
$ACADMAINTVER
 70
     6
  9
$DWGCODEPAGE
  3
ANSI_932
  9
$INSBASE
 10
0.0
 20
0.0
 30
0.0
  9
$EXTMIN
 10
0.0000002654082891
 20
-0.0000004524473525
 30
-0.0000000000028831
  9
$EXTMAX
 10
398.8000002654083
 20
275.7999995475527
 30
0.0
  9
$LIMMIN
 10
0.0
 20
0.0
  9
$LIMMAX
 10
420.0
 20
297.0
  9
$ORTHOMODE
 70
     0
  9
$REGENMODE
 70
     1
  9
$FILLMODE
 70
     1
  9
$QTEXTMODE
 70
     0
  9
$MIRRTEXT
 70
     1
  9
$LTSCALE
 40
1.0
  9
$ATTMODE
 70
     1
  9
$TEXTSIZE
 40
2.5
  9
$TRACEWID
 40
1.0
  9
$TEXTSTYLE
  7
STANDARD
  9
$CLAYER
  8
0
  9
$CELTYPE
  6
BYLAYER
  9
$CECOLOR
 62
   256
  9
$CELTSCALE
 40
1.0
  9
$DISPSILH
 70
     0
  9
$DIMSCALE
 40
1.0
  9
$DIMASZ
 40
3.0
  9
$DIMEXO
 40
3.0
  9
$DIMDLI
 40
7.0
  9
$DIMRND
 40
0.0
  9
$DIMDLE
 40
0.0
  9
$DIMEXE
 40
1.5
  9
$DIMTP
 40
0.0
  9
$DIMTM
 40
0.0
  9
$DIMTXT
 40
3.0
  9
$DIMCEN
 40
150.0
  9
$DIMTSZ
 40
0.0
  9
$DIMTOL
 70
     0
  9
$DIMLIM
 70
     0
  9
$DIMTIH
 70
     0
  9
$DIMTOH
 70
     0
  9
$DIMSE1
 70
     0
  9
$DIMSE2
 70
     0
  9
$DIMTAD
 70
     3
  9
$DIMZIN
 70
     0
  9
$DIMBLK
  1

  9
$DIMASO
 70
     1
  9
$DIMSHO
 70
     1
  9
$DIMPOST
  1

  9
$DIMAPOST
  1

  9
$DIMALT
 70
     0
  9
$DIMALTD
 70
     2
  9
$DIMALTF
 40
25.4
  9
$DIMLFAC
 40
1.0
  9
$DIMTOFL
 70
     1
  9
$DIMTVP
 40
0.0
  9
$DIMTIX
 70
     0
  9
$DIMSOXD
 70
     0
  9
$DIMSAH
 70
     1
  9
$DIMBLK1
  1
OPEN
  9
$DIMBLK2
  1
OPEN
  9
$DIMSTYLE
  2
STANDARD
  9
$DIMCLRD
 70
   256
  9
$DIMCLRE
 70
   256
  9
$DIMCLRT
 70
   256
  9
$DIMTFAC
 40
1.0
  9
$DIMGAP
 40
1.0
  9
$DIMJUST
 70
     0
  9
$DIMSD1
 70
     0
  9
$DIMSD2
 70
     0
  9
$DIMTOLJ
 70
     1
  9
$DIMTZIN
 70
     0
  9
$DIMALTZ
 70
     0
  9
$DIMALTTZ
 70
     0
  9
$DIMUPT
 70
     0
  9
$DIMDEC
 70
     0
  9
$DIMTDEC
 70
     0
  9
$DIMALTU
 70
     2
  9
$DIMALTTD
 70
     2
  9
$DIMTXSTY
  7
STANDARD
  9
$DIMAUNIT
 70
     0
  9
$DIMADEC
 70
     0
  9
$DIMALTRND
 40
0.0
  9
$DIMAZIN
 70
     0
  9
$DIMDSEP
 70
    46
  9
$DIMATFIT
 70
     3
  9
$DIMFRAC
 70
     0
  9
$DIMLDRBLK
  1
OPEN
  9
$DIMLUNIT
 70
     2
  9
$DIMLWD
 70
    -1
  9
$DIMLWE
 70
    -1
  9
$DIMTMOVE
 70
     0
  9
$LUNITS
 70
     2
  9
$LUPREC
 70
     4
  9
$SKETCHINC
 40
1.0
  9
$FILLETRAD
 40
55.0
  9
$AUNITS
 70
     0
  9
$AUPREC
 70
     0
  9
$MENU
  1
.
  9
$ELEVATION
 40
0.0
  9
$PELEVATION
 40
0.0
  9
$THICKNESS
 40
0.0
  9
$LIMCHECK
 70
     0
  9
$CHAMFERA
 40
10.0
  9
$CHAMFERB
 40
10.0
  9
$CHAMFERC
 40
20.0
  9
$CHAMFERD
 40
0.0
  9
$SKPOLY
 70
     0
  9
$TDCREATE
 40
2451074.584006712
  9
$TDUCREATE
 40
2451074.209006713
  9
$TDUPDATE
 40
2455838.549956226
  9
$TDUUPDATE
 40
2455838.174956226
  9
$TDINDWG
 40
0.0658306829
  9
$TDUSRTIMER
 40
0.0658306829
  9
$USRTIMER
 70
     1
  9
$ANGBASE
 50
0.0
  9
$ANGDIR
 70
     0
  9
$PDMODE
 70
     0
  9
$PDSIZE
 40
0.0
  9
$PLINEWID
 40
0.0
  9
$SPLFRAME
 70
     0
  9
$SPLINETYPE
 70
     6
  9
$SPLINESEGS
 70
     8
  9
$HANDSEED
  5
4544
  9
$SURFTAB1
 70
     6
  9
$SURFTAB2
 70
     6
  9
$SURFTYPE
 70
     6
  9
$SURFU
 70
     6
  9
$SURFV
 70
     6
  9
$UCSBASE
  2

  9
$UCSNAME
  2

  9
$UCSORG
 10
0.0
 20
0.0
 30
0.0
  9
$UCSXDIR
 10
1.0
 20
0.0
 30
0.0
  9
$UCSYDIR
 10
0.0
 20
1.0
 30
0.0
  9
$UCSORTHOREF
  2

  9
$UCSORTHOVIEW
 70
     0
  9
$UCSORGTOP
 10
0.0
 20
0.0
 30
0.0
  9
$UCSORGBOTTOM
 10
0.0
 20
0.0
 30
0.0
  9
$UCSORGLEFT
 10
0.0
 20
0.0
 30
0.0
  9
$UCSORGRIGHT
 10
0.0
 20
0.0
 30
0.0
  9
$UCSORGFRONT
 10
0.0
 20
0.0
 30
0.0
  9
$UCSORGBACK
 10
0.0
 20
0.0
 30
0.0
  9
$PUCSBASE
  2

  9
$PUCSNAME
  2

  9
$PUCSORG
 10
0.0
 20
0.0
 30
0.0
  9
$PUCSXDIR
 10
1.0
 20
0.0
 30
0.0
  9
$PUCSYDIR
 10
0.0
 20
1.0
 30
0.0
  9
$PUCSORTHOREF
  2

  9
$PUCSORTHOVIEW
 70
     0
  9
$PUCSORGTOP
 10
0.0
 20
0.0
 30
0.0
  9
$PUCSORGBOTTOM
 10
0.0
 20
0.0
 30
0.0
  9
$PUCSORGLEFT
 10
0.0
 20
0.0
 30
0.0
  9
$PUCSORGRIGHT
 10
0.0
 20
0.0
 30
0.0
  9
$PUCSORGFRONT
 10
0.0
 20
0.0
 30
0.0
  9
$PUCSORGBACK
 10
0.0
 20
0.0
 30
0.0
  9
$USERI1
 70
     0
  9
$USERI2
 70
     0
  9
$USERI3
 70
     0
  9
$USERI4
 70
     0
  9
$USERI5
 70
     0
  9
$USERR1
 40
0.0
  9
$USERR2
 40
0.0
  9
$USERR3
 40
0.0
  9
$USERR4
 40
0.0
  9
$USERR5
 40
0.0
  9
$WORLDVIEW
 70
     1
  9
$SHADEDGE
 70
     3
  9
$SHADEDIF
 70
    70
  9
$TILEMODE
 70
     1
  9
$MAXACTVP
 70
    16
  9
$PINSBASE
 10
0.0
 20
0.0
 30
0.0
  9
$PLIMCHECK
 70
     0
  9
$PEXTMIN
 10
0.0
 20
0.0
 30
0.0
  9
$PEXTMAX
 10
420.0
 20
297.0
 30
0.0
  9
$PLIMMIN
 10
0.0
 20
0.0
  9
$PLIMMAX
 10
420.0
 20
297.0
  9
$UNITMODE
 70
     0
  9
$VISRETAIN
 70
     0
  9
$PLINEGEN
 70
     0
  9
$PSLTSCALE
 70
     1
  9
$TREEDEPTH
 70
  3020
  9
$CMLSTYLE
  2
STANDARD
  9
$CMLJUST
 70
     0
  9
$CMLSCALE
 40
1.0
  9
$PROXYGRAPHICS
 70
     1
  9
$MEASUREMENT
 70
     1
  9
$CELWEIGHT
370
    -1
  9
$ENDCAPS
280
     0
  9
$JOINSTYLE
280
     0
  9
$LWDISPLAY
290
     0
  9
$INSUNITS
 70
     0
  9
$HYPERLINKBASE
  1

  9
$STYLESHEET
  1
print.ctb
  9
$XEDIT
290
     1
  9
$CEPSNTYPE
380
     0
  9
$PSTYLEMODE
290
     1
  9
$FINGERPRINTGUID
  2
{D4F8574C-2E33-4D51-A6AD-99326D707132}
  9
$VERSIONGUID
  2
{FA85ABE4-A7A9-4C65-BC63-AE920D89DA67}
  9
$EXTNAMES
290
     1
  9
$PSVPSCALE
 40
0.0
  9
$OLESTARTUP
290
     0
  0
ENDSEC
  0
SECTION
  2
CLASSES
  0
CLASS
  1
ACDBDICTIONARYWDFLT
  2
AcDbDictionaryWithDefault
  3
AutoCAD 2000
 90
        0
280
     0
281
     0
  0
CLASS
  1
ACDBPLACEHOLDER
  2
AcDbPlaceHolder
  3
AutoCAD 2000
 90
        0
280
     0
281
     0
  0
CLASS
  1
LAYOUT
  2
AcDbLayout
  3
AutoCAD 2000
 90
        0
280
     0
281
     0
  0
CLASS
  1
LONG_TRANSACTION
  2
AcDbLongTransaction
  3
AutoCAD 2000
 90
    32768
280
     0
281
     0
  0
CLASS
  1
LWPOLYLINE
  2
AcDbPolyline
  3
AutoCAD 2000
 90
    32768
280
     0
281
     1
  0
CLASS
  1
HATCH
  2
AcDbHatch
  3
AutoCAD 2000
 90
    32768
280
     0
281
     1
  0
CLASS
  1
XRECORD
  2
AcDbXrecord
  3
AutoCAD 2000
 90
    32768
280
     0
281
     0
  0
CLASS
  1
LONG_TRANSACTION
  2
AcDbLongTransaction
  3
AutoCAD 2000
 90
    32768
280
     0
281
     0
  0
CLASS
  1
LWPOLYLINE
  2
AcDbPolyline
  3
AutoCAD 2000
 90
    32768
280
     0
281
     1
  0
CLASS
  1
HATCH
  2
AcDbHatch
  3
AutoCAD 2000
 90
    32768
280
     0
281
     1
  0
CLASS
  1
XRECORD
  2
AcDbXrecord
  3
AutoCAD 2000
 90
    32768
280
     0
281
     0
  0
CLASS
  1
LONG_TRANSACTION
  2
AcDbLongTransaction
  3
AutoCAD 2000
 90
    32768
280
     0
281
     0
  0
CLASS
  1
LWPOLYLINE
  2
AcDbPolyline
  3
AutoCAD 2000
 90
    32768
280
     0
281
     1
  0
CLASS
  1
HATCH
  2
AcDbHatch
  3
AutoCAD 2000
 90
    32768
280
     0
281
     1
  0
CLASS
  1
XRECORD
  2
AcDbXrecord
  3
AutoCAD 2000
 90
    32768
280
     0
281
     0
  0
CLASS
  1
LONG_TRANSACTION
  2
AcDbLongTransaction
  3
AutoCAD 2000
 90
    32768
280
     0
281
     0
  0
CLASS
  1
LWPOLYLINE
  2
AcDbPolyline
  3
AutoCAD 2000
 90
    32768
280
     0
281
     1
  0
CLASS
  1
HATCH
  2
AcDbHatch
  3
AutoCAD 2000
 90
    32768
280
     0
281
     1
  0
CLASS
  1
XRECORD
  2
AcDbXrecord
  3
AutoCAD 2000
 90
    32768
280
     0
281
     0
  0
CLASS
  1
LONG_TRANSACTION
  2
AcDbLongTransaction
  3
AutoCAD 2000
 90
    32768
280
     0
281
     0
  0
CLASS
  1
LWPOLYLINE
  2
AcDbPolyline
  3
AutoCAD 2000
 90
    32768
280
     0
281
     1
  0
CLASS
  1
HATCH
  2
AcDbHatch
  3
AutoCAD 2000
 90
    32768
280
     0
281
     1
  0
CLASS
  1
XRECORD
  2
AcDbXrecord
  3
AutoCAD 2000
 90
    32768
280
     0
281
     0
  0
CLASS
  1
LONG_TRANSACTION
  2
AcDbLongTransaction
  3
AutoCAD 2000
 90
    32768
280
     0
281
     0
  0
CLASS
  1
LWPOLYLINE
  2
AcDbPolyline
  3
AutoCAD 2000
 90
    32768
280
     0
281
     1
  0
CLASS
  1
HATCH
  2
AcDbHatch
  3
AutoCAD 2000
 90
    32768
280
     0
281
     1
  0
CLASS
  1
XRECORD
  2
AcDbXrecord
  3
AutoCAD 2000
 90
    32768
280
     0
281
     0
  0
CLASS
  1
LONG_TRANSACTION
  2
AcDbLongTransaction
  3
AutoCAD 2000
 90
    32768
280
     0
281
     0
  0
CLASS
  1
LWPOLYLINE
  2
AcDbPolyline
  3
AutoCAD 2000
 90
    32768
280
     0
281
     1
  0
CLASS
  1
HATCH
  2
AcDbHatch
  3
AutoCAD 2000
 90
    32768
280
     0
281
     1
  0
CLASS
  1
XRECORD
  2
AcDbXrecord
  3
AutoCAD 2000
 90
    32768
280
     0
281
     0
  0
CLASS
  1
LONG_TRANSACTION
  2
AcDbLongTransaction
  3
AutoCAD 2000
 90
    32768
280
     0
281
     0
  0
CLASS
  1
LWPOLYLINE
  2
AcDbPolyline
  3
AutoCAD 2000
 90
    32768
280
     0
281
     1
  0
CLASS
  1
HATCH
  2
AcDbHatch
  3
AutoCAD 2000
 90
    32768
280
     0
281
     1
  0
CLASS
  1
XRECORD
  2
AcDbXrecord
  3
AutoCAD 2000
 90
    32768
280
     0
281
     0
  0
ENDSEC
  0
SECTION
  2
TABLES
  0
TABLE
  2
VPORT
  5
8
330
0
100
AcDbSymbolTable
 70
     2
  0
VPORT
  5
4543
330
8
100
AcDbSymbolTableRecord
100
AcDbViewportTableRecord
  2
*Active
 70
     0
 10
0.0
 20
0.0
 11
1.0
 21
1.0
 12
209.9839807163665
 22
153.2340390244925
 13
0.0
 23
0.0
 14
5.0
 24
5.0
 15
0.0
 25
0.0
 16
0.0
 26
0.0
 36
1.0
 17
0.0
 27
0.0
 37
0.0
 40
308.9613795674607
 41
1.527918781725888
 42
50.0
 43
0.0
 44
0.0
 50
0.0
 51
0.0
 71
     0
 72
   100
 73
     1
 74
     0
 75
     0
 76
     0
 77
     0
 78
     0
281
     0
 65
     1
110
0.0
120
0.0
130
0.0
111
1.0
121
0.0
131
0.0
112
0.0
122
1.0
132
0.0
 79
     0
146
0.0
  0
ENDTAB
  0
TABLE
  2
LTYPE
  5
5
330
0
100
AcDbSymbolTable
 70
     2
  0
LTYPE
  5
14
330
5
100
AcDbSymbolTableRecord
100
AcDbLinetypeTableRecord
  2
BYBLOCK
 70
     0
  3

 72
    65
 73
     0
 40
0.0
  0
LTYPE
  5
15
330
5
100
AcDbSymbolTableRecord
100
AcDbLinetypeTableRecord
  2
BYLAYER
 70
     0
  3

 72
    65
 73
     0
 40
0.0
  0
LTYPE
  5
16
330
5
100
AcDbSymbolTableRecord
100
AcDbLinetypeTableRecord
  2
CONTINUOUS
 70
     0
  3
Solid line
 72
    65
 73
     0
 40
0.0
  0
LTYPE
  5
120
330
5
100
AcDbSymbolTableRecord
100
AcDbLinetypeTableRecord
  2
CENTER
 70
     0
  3
____ _ ____ _ ____ _ ____ _ ____ _ ____ _ ____ 
 72
    65
 73
     4
 40
2.0
 49
1.25
 74
     0
 49
-0.25
 74
     0
 49
0.25
 74
     0
 49
-0.25
 74
     0
  0
ENDTAB
  0
TABLE
  2
LAYER
  5
2
330
0
100
AcDbSymbolTable
 70
     9
  0
LAYER
  5
F
330
2
100
AcDbSymbolTableRecord
100
AcDbLayerTableRecord
  2
0
 70
     0
 62
     7
  6
CONTINUOUS
370
    -3
390
33A
  0
LAYER
  5
62
330
2
100
AcDbSymbolTableRecord
100
AcDbLayerTableRecord
  2
VIEWPORT
 70
     0
 62
     7
  6
CONTINUOUS
370
    -3
390
33A
  0
LAYER
  5
6B
330
2
100
AcDbSymbolTableRecord
100
AcDbLayerTableRecord
  2
ZUWAKU
 70
     0
 62
     7
  6
CONTINUOUS
370
    -3
390
33A
  0
LAYER
  5
140
330
2
100
AcDbSymbolTableRecord
100
AcDbLayerTableRecord
  2
SEIHIN
 70
     0
 62
     3
  6
CONTINUOUS
370
    -3
390
33A
  0
LAYER
  5
141
330
2
100
AcDbSymbolTableRecord
100
AcDbLayerTableRecord
  2
SUNPOU
 70
     0
 62
     4
  6
CONTINUOUS
370
    -3
390
33A
  0
LAYER
  5
142
330
2
100
AcDbSymbolTableRecord
100
AcDbLayerTableRecord
  2
CENTER L
 70
     0
 62
     1
  6
CENTER
370
    -3
390
33A
  0
LAYER
  5
143
330
2
100
AcDbSymbolTableRecord
100
AcDbLayerTableRecord
  2
DEFPOINTS
 70
     0
 62
     7
  6
CONTINUOUS
290
     0
370
    -3
390
33A
  0
LAYER
  5
5D7
330
2
100
AcDbSymbolTableRecord
100
AcDbLayerTableRecord
  2
MOJI
 70
     0
 62
     2
  6
CONTINUOUS
370
    -3
390
33A
  0
LAYER
  5
A31
330
2
100
AcDbSymbolTableRecord
100
AcDbLayerTableRecord
  2
ﾊｯﾁﾝｸﾞ
 70
     0
 62
     7
  6
CONTINUOUS
370
    -3
390
33A
  0
ENDTAB
  0
TABLE
  2
STYLE
  5
3
330
0
100
AcDbSymbolTable
 70
     3
  0
STYLE
  5
10
330
3
100
AcDbSymbolTableRecord
100
AcDbTextStyleTableRecord
  2
STANDARD
 70
     0
 40
0.0
 41
1.0
 50
0.0
 71
     0
 42
2.5
  3
TXT
  4
bigfont.shx
  0
STYLE
  5
5D8
330
3
100
AcDbSymbolTableRecord
100
AcDbTextStyleTableRecord
  2
ｽﾀｲﾙ1
 70
     0
 40
0.0
 41
1.0
 50
0.0
 71
     0
 42
2.5
  3
MS PGothic.ttf
  4

1001
ACAD
1000
MS PGothic
1071
    32818
  0
STYLE
  5
402E
330
3
100
AcDbSymbolTableRecord
100
AcDbTextStyleTableRecord
  2
MSPｺﾞｼｯｸ
 70
     0
 40
0.0
 41
1.0
 50
0.0
 71
     0
 42
2.5
  3
MS PGothic.ttf
  4

1001
ACAD
1000
MS PGothic
1071
    32818
  0
ENDTAB
  0
TABLE
  2
VIEW
  5
6
330
0
100
AcDbSymbolTable
 70
     0
  0
ENDTAB
  0
TABLE
  2
UCS
  5
7
330
0
100
AcDbSymbolTable
 70
     0
  0
ENDTAB
  0
TABLE
  2
APPID
  5
9
330
0
100
AcDbSymbolTable
 70
     1
  0
APPID
  5
11
330
9
100
AcDbSymbolTableRecord
100
AcDbRegAppTableRecord
  2
ACAD
 70
     0
  0
ENDTAB
  0
TABLE
  2
DIMSTYLE
  5
A
330
0
100
AcDbSymbolTable
 70
     1
100
AcDbDimStyleTable
 71
     0
  0
DIMSTYLE
105
1D
102
{ACAD_REACTORS
330
35E1
330
35E2
330
35EC
330
35ED
330
35EE
330
35F0
330
35F1
330
35F2
330
35F3
102
}
330
A
100
AcDbSymbolTableRecord
100
AcDbDimStyleTableRecord
  2
STANDARD
 70
     0
340
10
  0
ENDTAB
  0
TABLE
  2
BLOCK_RECORD
  5
1
330
0
100
AcDbSymbolTable
 70
    14
  0
BLOCK_RECORD
  5
1A
102
{ACAD_XDICTIONARY
360
36A
102
}
330
1
100
AcDbSymbolTableRecord
100
AcDbBlockTableRecord
  2
*MODEL_SPACE
340
33D
  0
BLOCK_RECORD
  5
17
102
{ACAD_XDICTIONARY
360
368
102
}
330
1
100
AcDbSymbolTableRecord
100
AcDbBlockTableRecord
  2
*PAPER_SPACE
340
33E
  0
BLOCK_RECORD
  5
B2
330
1
100
AcDbSymbolTableRecord
100
AcDbBlockTableRecord
  2
_OPEN
340
0
102
{BLKREFS
331
43E9
331
43EA
331
39B0
331
39B1
331
3967
331
3968
331
43E0
331
43E1
331
4450
331
4451
331
43F2
331
43F3
331
3995
331
3996
331
43FB
331
43FC
331
398C
331
398D
102
}
  0
BLOCK_RECORD
  5
10FA
330
1
100
AcDbSymbolTableRecord
100
AcDbBlockTableRecord
  2
*X1
340
0
102
{BLKREFS
331
6A2
102
}
  0
BLOCK_RECORD
  5
375B
330
1
100
AcDbSymbolTableRecord
100
AcDbBlockTableRecord
  2
*D2
340
0
  0
BLOCK_RECORD
  5
3767
330
1
100
AcDbSymbolTableRecord
100
AcDbBlockTableRecord
  2
*D3
340
0
  0
BLOCK_RECORD
  5
3773
330
1
100
AcDbSymbolTableRecord
100
AcDbBlockTableRecord
  2
*D4
340
0
  0
BLOCK_RECORD
  5
377F
330
1
100
AcDbSymbolTableRecord
100
AcDbBlockTableRecord
  2
*D5
340
0
  0
BLOCK_RECORD
  5
378B
330
1
100
AcDbSymbolTableRecord
100
AcDbBlockTableRecord
  2
*D6
340
0
  0
BLOCK_RECORD
  5
3798
330
1
100
AcDbSymbolTableRecord
100
AcDbBlockTableRecord
  2
*D7
340
0
  0
BLOCK_RECORD
  5
37A4
330
1
100
AcDbSymbolTableRecord
100
AcDbBlockTableRecord
  2
*D8
340
0
  0
BLOCK_RECORD
  5
37B0
330
1
100
AcDbSymbolTableRecord
100
AcDbBlockTableRecord
  2
*D9
340
0
  0
BLOCK_RECORD
  5
37BC
330
1
100
AcDbSymbolTableRecord
100
AcDbBlockTableRecord
  2
*D10
340
0
  0
BLOCK_RECORD
  5
3E98
330
1
100
AcDbSymbolTableRecord
100
AcDbBlockTableRecord
  2
*X11
340
0
102
{BLKREFS
331
403C
102
}
  0
BLOCK_RECORD
  5
402F
330
1
100
AcDbSymbolTableRecord
100
AcDbBlockTableRecord
  2
A$C10B13E77
340
0
  0
ENDTAB
  0
ENDSEC
  0
SECTION
  2
BLOCKS
  0
BLOCK
  5
1B
330
1A
100
AcDbEntity
  8
0
100
AcDbBlockBegin
  2
*MODEL_SPACE
 70
     0
 10
0.0
 20
0.0
 30
0.0
  3
*MODEL_SPACE
  1

  0
ENDBLK
  5
1C
330
1A
100
AcDbEntity
  8
0
100
AcDbBlockEnd
  0
BLOCK
  5
18
330
17
100
AcDbEntity
 67
     1
  8
0
100
AcDbBlockBegin
  2
*PAPER_SPACE
 70
     0
 10
0.0
 20
0.0
 30
0.0
  3
*PAPER_SPACE
  1

  0
ENDBLK
  5
19
330
17
100
AcDbEntity
 67
     1
  8
0
100
AcDbBlockEnd
  0
BLOCK
  5
B3
330
B2
100
AcDbEntity
  8
0
100
AcDbBlockBegin
  2
_OPEN
 70
     0
 10
0.0
 20
0.0
 30
0.0
  3
_OPEN
  1

  0
LINE
  5
B4
330
B2
100
AcDbEntity
  8
0
  6
ByBlock
 62
     0
100
AcDbLine
 10
-1.0
 20
0.1666666666666666
 30
0.0
 11
0.0
 21
0.0
 31
0.0
  0
LINE
  5
B5
330
B2
100
AcDbEntity
  8
0
  6
ByBlock
 62
     0
100
AcDbLine
 10
0.0
 20
0.0
 30
0.0
 11
-1.0
 21
-0.1666666666666666
 31
0.0
  0
LINE
  5
B6
330
B2
100
AcDbEntity
  8
0
  6
ByBlock
 62
     0
100
AcDbLine
 10
0.0
 20
0.0
 30
0.0
 11
-1.0
 21
0.0
 31
0.0
  0
ENDBLK
  5
B7
330
B2
100
AcDbEntity
  8
0
100
AcDbBlockEnd
  0
BLOCK
  5
128E
330
10FA
100
AcDbEntity
  8
0
100
AcDbBlockBegin
  2
*X1
 70
     1
 10
0.0
 20
0.0
 30
0.0
  3
*X1
  1

  0
LINE
  5
10FB
330
10FA
100
AcDbEntity
  8
0
 62
     0
100
AcDbLine
 10
34.52110634279887
 20
11.30208408269516
 30
0.0
 11
34.19819087794135
 21
11.62499954755267
 31
0.0
  0
LINE
  5
10FC
330
10FA
100
AcDbEntity
  8
0
 62
     0
100
AcDbLine
 10
34.52110634279884
 20
10.85307127664168
 30
0.0
 11
33.74917807188788
 21
11.62499954755267
 31
0.0
  0
LINE
  5
10FD
330
10FA
100
AcDbEntity
  8
0
 62
     0
100
AcDbLine
 10
34.52110634279884
 20
10.40405847058823
 30
0.0
 11
33.3105393697914
 21
11.61462544359568
 31
0.0
  0
LINE
  5
10FE
330
10FA
100
AcDbEntity
  8
0
 62
     0
100
AcDbLine
 10
34.52110634279884
 20
9.955045664534793
 30
0.0
 11
33.12110634279884
 21
11.35504566453482
 31
0.0
  0
LINE
  5
10FF
330
10FA
100
AcDbEntity
  8
0
 62
     0
100
AcDbLine
 10
34.52110634279884
 20
9.506032858481347
 30
0.0
 11
33.12110634279881
 21
10.90603285848135
 31
0.0
  0
LINE
  5
1100
330
10FA
100
AcDbEntity
  8
0
 62
     0
100
AcDbLine
 10
34.52110634279884
 20
9.057020052427873
 30
0.0
 11
33.12110634279881
 21
10.4570200524279
 31
0.0
  0
LINE
  5
1101
330
10FA
100
AcDbEntity
  8
0
 62
     0
100
AcDbLine
 10
32.07110634279885
 20
11.05800724637441
 30
0.0
 11
31.50411404162062
 21
11.62499954755267
 31
0.0
  0
LINE
  5
1102
330
10FA
100
AcDbEntity
  8
0
 62
     0
100
AcDbLine
 10
34.52110634279884
 20
8.608007246374427
 30
0.0
 11
33.12110634279881
 21
10.00800724637446
 31
0.0
  0
LINE
  5
1103
330
10FA
100
AcDbEntity
  8
0
 62
     0
100
AcDbLine
 10
32.07110634279885
 20
10.60899444032097
 30
0.0
 11
31.05510123556721
 21
11.62499954755261
 31
0.0
  0
LINE
  5
1104
330
10FA
100
AcDbEntity
  8
0
 62
     0
100
AcDbLine
 10
34.52110634279884
 20
8.158994440320981
 30
0.0
 11
33.12110634279881
 21
9.558994440321015
 31
0.0
  0
LINE
  5
1105
330
10FA
100
AcDbEntity
  8
0
 62
     0
100
AcDbLine
 10
32.07110634279888
 20
10.15998163426746
 30
0.0
 11
30.71835086023028
 21
11.51273711683603
 31
0.0
  0
LINE
  5
1106
330
10FA
100
AcDbEntity
  8
0
 62
     0
100
AcDbLine
 10
34.52110634279881
 20
7.709981634267506
 30
0.0
 11
33.12110634279881
 21
9.109981634267541
 31
0.0
  0
LINE
  5
1107
330
10FA
100
AcDbEntity
  8
0
 62
     0
100
AcDbLine
 10
32.07110634279888
 20
9.710968828213992
 30
0.0
 11
30.67110634279888
 21
11.11096882821402
 31
0.0
  0
LINE
  5
1108
330
10FA
100
AcDbEntity
  8
0
 62
     0
100
AcDbLine
 10
34.52110634279884
 20
7.26096882821406
 30
0.0
 11
33.12110634279881
 21
8.660968828214066
 31
0.0
  0
LINE
  5
1109
330
10FA
100
AcDbEntity
  8
0
 62
     0
100
AcDbLine
 10
32.07110634279888
 20
9.261956022160575
 30
0.0
 11
30.67110634279885
 21
10.66195602216058
 31
0.0
  0
LINE
  5
110A
330
10FA
100
AcDbEntity
  8
0
 62
     0
100
AcDbLine
 10
34.52110634279884
 20
6.811956022160615
 30
0.0
 11
33.12110634279881
 21
8.211956022160649
 31
0.0
  0
LINE
  5
110B
330
10FA
100
AcDbEntity
  8
0
 62
     0
100
AcDbLine
 10
32.07110634279888
 20
8.8129432161071
 30
0.0
 11
30.67110634279885
 21
10.21294321610713
 31
0.0
  0
LINE
  5
110C
330
10FA
100
AcDbEntity
  8
0
 62
     0
100
AcDbLine
 10
34.52110634279881
 20
6.36294321610714
 30
0.0
 11
33.12110634279878
 21
7.762943216107174
 31
0.0
  0
LINE
  5
110D
330
10FA
100
AcDbEntity
  8
0
 62
     0
100
AcDbLine
 10
32.07110634279885
 20
8.363930410053626
 30
0.0
 11
30.67110634279882
 21
9.76393041005366
 31
0.0
  0
LINE
  5
110E
330
10FA
100
AcDbEntity
  8
0
 62
     0
100
AcDbLine
 10
34.52110634279884
 20
5.913930410053637
 30
0.0
 11
33.12110634279878
 21
7.313930410053728
 31
0.0
  0
LINE
  5
110F
330
10FA
100
AcDbEntity
  8
0
 62
     0
100
AcDbLine
 10
32.07110634279888
 20
7.914917604000208
 30
0.0
 11
30.67110634279885
 21
9.314917604000243
 31
0.0
  0
LINE
  5
1110
330
10FA
100
AcDbEntity
  8
0
 62
     0
100
AcDbLine
 10
28.92110634279887
 20
11.06491760400021
 30
0.0
 11
28.36102439924639
 21
11.62499954755267
 31
0.0
  0
LINE
  5
1111
330
10FA
100
AcDbEntity
  8
0
 62
     0
100
AcDbLine
 10
34.52110634279887
 20
5.46491760400022
 30
0.0
 11
33.12110634279881
 21
6.864917604000282
 31
0.0
  0
LINE
  5
1112
330
10FA
100
AcDbEntity
  8
0
 62
     0
100
AcDbLine
 10
32.07110634279885
 20
7.465904797946734
 30
0.0
 11
30.67110634279885
 21
8.865904797946768
 31
0.0
  0
LINE
  5
1113
330
10FA
100
AcDbEntity
  8
0
 62
     0
100
AcDbLine
 10
28.92110634279887
 20
10.61590479794674
 30
0.0
 11
27.91201159319294
 21
11.62499954755267
 31
0.0
  0
LINE
  5
1114
330
10FA
100
AcDbEntity
  8
0
 62
     0
100
AcDbLine
 10
34.52110634279884
 20
5.015904797946745
 30
0.0
 11
33.12110634279884
 21
6.41590479794678
 31
0.0
  0
LINE
  5
1115
330
10FA
100
AcDbEntity
  8
0
 62
     0
100
AcDbLine
 10
32.07110634279885
 20
7.016891991893288
 30
0.0
 11
30.67110634279882
 21
8.416891991893294
 31
0.0
  0
LINE
  5
1116
330
10FA
100
AcDbEntity
  8
0
 62
     0
100
AcDbLine
 10
28.92110634279885
 20
10.16689199189329
 30
0.0
 11
27.57122498113676
 21
11.51677335355538
 31
0.0
  0
LINE
  5
1117
330
10FA
100
AcDbEntity
  8
0
 62
     0
100
AcDbLine
 10
34.52110634279884
 20
4.566891991893299
 30
0.0
 11
33.12110634279881
 21
5.966891991893305
 31
0.0
  0
LINE
  5
1118
330
10FA
100
AcDbEntity
  8
0
 62
     0
100
AcDbLine
 10
32.07110634279888
 20
6.567879185839814
 30
0.0
 11
30.67110634279885
 21
7.967879185839848
 31
0.0
  0
LINE
  5
1119
330
10FA
100
AcDbEntity
  8
0
 62
     0
100
AcDbLine
 10
28.92110634279887
 20
9.717879185839819
 30
0.0
 11
27.52110634279887
 21
11.11787918583979
 31
0.0
  0
LINE
  5
111A
330
10FA
100
AcDbEntity
  8
0
 62
     0
100
AcDbLine
 10
34.52110634279887
 20
4.117879185839825
 30
0.0
 11
33.12110634279884
 21
5.517879185839859
 31
0.0
  0
LINE
  5
111B
330
10FA
100
AcDbEntity
  8
0
 62
     0
100
AcDbLine
 10
32.07110634279885
 20
6.118866379786368
 30
0.0
 11
30.67110634279882
 21
7.518866379786402
 31
0.0
  0
LINE
  5
111C
330
10FA
100
AcDbEntity
  8
0
 62
     0
100
AcDbLine
 10
28.92110634279885
 20
9.268866379786373
 30
0.0
 11
27.52110634279887
 21
10.66886637978637
 31
0.0
  0
LINE
  5
111D
330
10FA
100
AcDbEntity
  8
0
 62
     0
100
AcDbLine
 10
34.48512366535388
 20
3.704849057231371
 30
0.0
 11
33.12110634279881
 21
5.068866379786413
 31
0.0
  0
LINE
  5
111E
330
10FA
100
AcDbEntity
  8
0
 62
     0
100
AcDbLine
 10
32.07110634279885
 20
5.669853573732922
 30
0.0
 11
30.67110634279882
 21
7.069853573732956
 31
0.0
  0
LINE
  5
111F
330
10FA
100
AcDbEntity
  8
0
 62
     0
100
AcDbLine
 10
28.92110634279885
 20
8.819853573732927
 30
0.0
 11
27.52110634279887
 21
10.2198535737329
 31
0.0
  0
LINE
  5
1120
330
10FA
100
AcDbEntity
  8
0
 62
     0
100
AcDbLine
 10
34.16596036897917
 20
3.574999547552607
 30
0.0
 11
33.12110634279881
 21
4.619853573732967
 31
0.0
  0
LINE
  5
1121
330
10FA
100
AcDbEntity
  8
0
 62
     0
100
AcDbLine
 10
28.92110634279885
 20
8.370840767679453
 30
0.0
 11
27.52110634279884
 21
9.770840767679459
 31
0.0
  0
LINE
  5
1122
330
10FA
100
AcDbEntity
  8
0
 62
     0
100
AcDbLine
 10
32.07110634279882
 20
5.220840767679447
 30
0.0
 11
30.67110634279882
 21
6.620840767679482
 31
0.0
  0
LINE
  5
1123
330
10FA
100
AcDbEntity
  8
0
 62
     0
100
AcDbLine
 10
26.20860634279881
 20
11.08334076767945
 30
0.0
 11
25.66694756292565
 21
11.62499954755264
 31
0.0
  0
LINE
  5
1124
330
10FA
100
AcDbEntity
  8
0
 62
     0
100
AcDbLine
 10
33.71694756292569
 20
3.574999547552579
 30
0.0
 11
33.12110634279881
 21
4.170840767679493
 31
0.0
  0
LINE
  5
1125
330
10FA
100
AcDbEntity
  8
0
 62
     0
100
AcDbLine
 10
28.92110634279885
 20
7.921827961626036
 30
0.0
 11
27.52110634279887
 21
9.321827961626013
 31
0.0
  0
LINE
  5
1126
330
10FA
100
AcDbEntity
  8
0
 62
     0
100
AcDbLine
 10
26.20860634279884
 20
10.63432796162604
 30
0.0
 11
25.21793475687221
 21
11.62499954755264
 31
0.0
  0
LINE
  5
1127
330
10FA
100
AcDbEntity
  8
0
 62
     0
100
AcDbLine
 10
32.05812719247609
 20
4.784807111948794
 30
0.0
 11
30.67110634279882
 21
6.171827961626036
 31
0.0
  0
LINE
  5
1128
330
10FA
100
AcDbEntity
  8
0
 62
     0
100
AcDbLine
 10
28.92110634279885
 20
7.472815155572561
 30
0.0
 11
27.52110634279884
 21
8.872815155572538
 31
0.0
  0
LINE
  5
1129
330
10FA
100
AcDbEntity
  8
0
 62
     0
100
AcDbLine
 10
26.1108160697419
 20
10.28310542862951
 30
0.0
 11
24.76892195081876
 21
11.62499954755264
 31
0.0
  0
LINE
  5
112A
330
10FA
100
AcDbEntity
  8
0
 62
     0
100
AcDbLine
 10
31.96163454484747
 20
4.432286953523913
 30
0.0
 11
30.67110634279882
 21
5.72281515557259
 31
0.0
  0
LINE
  5
112B
330
10FA
100
AcDbEntity
  8
0
 62
     0
100
AcDbLine
 10
28.92110634279882
 20
7.023802349519087
 30
0.0
 11
27.52110634279884
 21
8.423802349519093
 31
0.0
  0
LINE
  5
112C
330
10FA
100
AcDbEntity
  8
0
 62
     0
100
AcDbLine
 10
25.71990914476526
 20
10.22499954755264
 30
0.0
 11
24.31990914476529
 21
11.62499954755264
 31
0.0
  0
LINE
  5
112D
330
10FA
100
AcDbEntity
  8
0
 62
     0
100
AcDbLine
 10
31.79911860688565
 20
4.145790085432281
 30
0.0
 11
30.63534847321907
 21
5.309560219098869
 31
0.0
  0
LINE
  5
112E
330
10FA
100
AcDbEntity
  8
0
 62
     0
100
AcDbLine
 10
28.92110634279885
 20
6.574789543465669
 30
0.0
 11
27.52110634279887
 21
7.974789543465647
 31
0.0
  0
LINE
  5
112F
330
10FA
100
AcDbEntity
  8
0
 62
     0
100
AcDbLine
 10
25.27089633871185
 20
10.22499954755267
 30
0.0
 11
23.90211297412315
 21
11.59378291214136
 31
0.0
  0
LINE
  5
1130
330
10FA
100
AcDbEntity
  8
0
 62
     0
100
AcDbLine
 10
31.58309770822313
 20
3.912798178041384
 30
0.0
 11
30.43455565398522
 21
5.061340232279263
 31
0.0
  0
LINE
  5
1131
330
10FA
100
AcDbEntity
  8
0
 62
     0
100
AcDbLine
 10
28.92110634279885
 20
6.125776737412195
 30
0.0
 11
27.52110634279884
 21
7.525776737412201
 31
0.0
  0
LINE
  5
1132
330
10FA
100
AcDbEntity
  8
0
 62
     0
100
AcDbLine
 10
24.82188353265843
 20
10.22499954755261
 30
0.0
 11
23.56979276185652
 21
11.47709031835452
 31
0.0
  0
LINE
  5
1133
330
10FA
100
AcDbEntity
  8
0
 62
     0
100
AcDbLine
 10
31.31501653576012
 20
3.731866544450923
 30
0.0
 11
30.07188353265843
 21
4.974999547552613
 31
0.0
  0
LINE
  5
1134
330
10FA
100
AcDbEntity
  8
0
 62
     0
100
AcDbLine
 10
28.92110634279882
 20
5.676763931358749
 30
0.0
 11
27.52110634279884
 21
7.076763931358726
 31
0.0
  0
LINE
  5
1135
330
10FA
100
AcDbEntity
  8
0
 62
     0
100
AcDbLine
 10
24.38376564061403
 20
10.21410463354354
 30
0.0
 11
23.29849229325142
 21
11.29937798090614
 31
0.0
  0
LINE
  5
1136
330
10FA
100
AcDbEntity
  8
0
 62
     0
100
AcDbLine
 10
30.98681025580441
 20
3.611060018353157
 30
0.0
 11
29.62287072660492
 21
4.974999547552641
 31
0.0
  0
LINE
  5
1137
330
10FA
100
AcDbEntity
  8
0
 62
     0
100
AcDbLine
 10
24.19610634279885
 20
9.95275112530524
 30
0.0
 11
23.07943626372915
 21
11.06942120437494
 31
0.0
  0
LINE
  5
1138
330
10FA
100
AcDbEntity
  8
0
 62
     0
100
AcDbLine
 10
30.57385792055149
 20
3.574999547552607
 30
0.0
 11
27.52110634279882
 21
6.627751125305252
 31
0.0
  0
LINE
  5
1139
330
10FA
100
AcDbEntity
  8
0
 62
     0
100
AcDbLine
 10
24.19610634279885
 20
9.503738319251795
 30
0.0
 11
22.91355080755266
 21
10.78629385449801
 31
0.0
  0
LINE
  5
113A
330
10FA
100
AcDbEntity
  8
0
 62
     0
100
AcDbLine
 10
30.12484511449804
 20
3.574999547552607
 30
0.0
 11
27.52110634279884
 21
6.178738319251834
 31
0.0
  0
LINE
  5
113B
330
10FA
100
AcDbEntity
  8
0
 62
     0
100
AcDbLine
 10
24.29937848335072
 20
8.951453372646483
 30
0.0
 11
22.81246154787061
 21
10.43837030812659
 31
0.0
  0
LINE
  5
113C
330
10FA
100
AcDbEntity
  8
0
 62
     0
100
AcDbLine
 10
29.67583230844454
 20
3.574999547552636
 30
0.0
 11
27.52110634279884
 21
5.72972551319836
 31
0.0
  0
LINE
  5
113D
330
10FA
100
AcDbEntity
  8
0
 62
     0
100
AcDbLine
 10
26.40790819414448
 20
6.393910855799248
 30
0.0
 11
22.79610634279882
 21
10.0057127071449
 31
0.0
  0
LINE
  5
113E
330
10FA
100
AcDbEntity
  8
0
 62
     0
100
AcDbLine
 10
21.7461063427988
 20
11.05571270714489
 30
0.0
 11
21.17681950239108
 21
11.62499954755264
 31
0.0
  0
LINE
  5
113F
330
10FA
100
AcDbEntity
  8
0
 62
     0
100
AcDbLine
 10
29.22681950239112
 20
3.574999547552607
 30
0.0
 11
27.52110634279882
 21
5.280712707144914
 31
0.0
  0
LINE
  5
1140
330
10FA
100
AcDbEntity
  8
0
 62
     0
100
AcDbLine
 10
26.47110634279883
 20
5.881699901091479
 30
0.0
 11
22.79610634279882
 21
9.556699901091462
 31
0.0
  0
LINE
  5
1141
330
10FA
100
AcDbEntity
  8
0
 62
     0
100
AcDbLine
 10
21.74610634279884
 20
10.60669990109147
 30
0.0
 11
20.72780669633766
 21
11.62499954755261
 31
0.0
  0
LINE
  5
1142
330
10FA
100
AcDbEntity
  8
0
 62
     0
100
AcDbLine
 10
28.76958275696526
 20
3.583223486925049
 30
0.0
 11
27.52933028217126
 21
4.823475961719026
 31
0.0
  0
LINE
  5
1143
330
10FA
100
AcDbEntity
  8
0
 62
     0
100
AcDbLine
 10
21.7461063427988
 20
10.15768709503799
 30
0.0
 11
20.3924113989112
 21
11.51138203892563
 31
0.0
  0
LINE
  5
1144
330
10FA
100
AcDbEntity
  8
0
 62
     0
100
AcDbLine
 10
26.47110634279883
 20
5.432687095038005
 30
0.0
 11
22.80781167674007
 21
9.095981761096737
 31
0.0
  0
LINE
  5
1145
330
10FA
100
AcDbEntity
  8
0
 62
     0
100
AcDbLine
 10
21.7461063427988
 20
9.708674288984553
 30
0.0
 11
20.34610634279883
 21
11.10867428898453
 31
0.0
  0
LINE
  5
1146
330
10FA
100
AcDbEntity
  8
0
 62
     0
100
AcDbLine
 10
26.47110634279886
 20
4.983674288984502
 30
0.0
 11
22.96687138566017
 21
8.487909246123194
 31
0.0
  0
LINE
  5
1147
330
10FA
100
AcDbEntity
  8
0
 62
     0
100
AcDbLine
 10
21.74610634279884
 20
9.259661482931079
 30
0.0
 11
20.34610634279883
 21
10.65966148293105
 31
0.0
  0
LINE
  5
1148
330
10FA
100
AcDbEntity
  8
0
 62
     0
100
AcDbLine
 10
26.41682543400432
 20
4.588942391725595
 30
0.0
 11
25.06900803948511
 21
5.936759786244806
 31
0.0
  0
LINE
  5
1149
330
10FA
100
AcDbEntity
  8
0
 62
     0
100
AcDbLine
 10
21.7461063427988
 20
8.810648676877661
 30
0.0
 11
20.34610634279883
 21
10.21064867687764
 31
0.0
  0
LINE
  5
114A
330
10FA
100
AcDbEntity
  8
0
 62
     0
100
AcDbLine
 10
19.20036289251032
 20
11.35639212716614
 30
0.0
 11
18.93175547212382
 21
11.62499954755264
 31
0.0
  0
LINE
  5
114B
330
10FA
100
AcDbEntity
  8
0
 62
     0
100
AcDbLine
 10
26.28288758012348
 20
4.273867439552986
 30
0.0
 11
25.07110634279888
 21
5.485648676877588
 31
0.0
  0
LINE
  5
114C
330
10FA
100
AcDbEntity
  8
0
 62
     0
100
AcDbLine
 10
21.7461063427988
 20
8.361635870824187
 30
0.0
 11
20.3461063427988
 21
9.761635870824164
 31
0.0
  0
LINE
  5
114D
330
10FA
100
AcDbEntity
  8
0
 62
     0
100
AcDbLine
 10
19.10089906038402
 20
11.00684315323897
 30
0.0
 11
18.48274266607032
 21
11.62499954755267
 31
0.0
  0
LINE
  5
114E
330
10FA
100
AcDbEntity
  8
0
 62
     0
100
AcDbLine
 10
26.09139418103584
 20
4.016348032587131
 30
0.0
 11
25.02246375135559
 21
5.085278462267382
 31
0.0
  0
LINE
  5
114F
330
10FA
100
AcDbEntity
  8
0
 62
     0
100
AcDbLine
 10
21.74610634279878
 20
7.912623064770713
 30
0.0
 11
20.3461063427988
 21
9.312623064770718
 31
0.0
  0
LINE
  5
1150
330
10FA
100
AcDbEntity
  8
0
 62
     0
100
AcDbLine
 10
18.9931359869312
 20
10.66559342063831
 30
0.0
 11
18.03852820519585
 21
11.62020120237363
 31
0.0
  0
LINE
  5
1151
330
10FA
100
AcDbEntity
  8
0
 62
     0
100
AcDbLine
 10
25.84823469847799
 20
3.8104947090915
 30
0.0
 11
24.68372986001691
 21
4.974999547552613
 31
0.0
  0
LINE
  5
1152
330
10FA
100
AcDbEntity
  8
0
 62
     0
100
AcDbLine
 10
21.7461063427988
 20
7.463610258717295
 30
0.0
 11
20.34610634279886
 21
8.863610258717244
 31
0.0
  0
LINE
  5
1153
330
10FA
100
AcDbEntity
  8
0
 62
     0
100
AcDbLine
 10
18.88537291347839
 20
10.32434368803768
 30
0.0
 11
17.82137291347837
 21
11.38834368803773
 31
0.0
  0
LINE
  5
1154
330
10FA
100
AcDbEntity
  8
0
 62
     0
100
AcDbLine
 10
25.55019272424781
 20
3.65952387726827
 30
0.0
 11
24.23471705396349
 21
4.974999547552613
 31
0.0
  0
LINE
  5
1155
330
10FA
100
AcDbEntity
  8
0
 62
     0
100
AcDbLine
 10
21.7461063427988
 20
7.014597452663821
 30
0.0
 11
20.34610634279886
 21
8.41459745266377
 31
0.0
  0
LINE
  5
1156
330
10FA
100
AcDbEntity
  8
0
 62
     0
100
AcDbLine
 10
18.77760984002551
 20
9.983093955437112
 30
0.0
 11
17.71360984002549
 21
11.04709395543713
 31
0.0
  0
LINE
  5
1157
330
10FA
100
AcDbEntity
  8
0
 62
     0
100
AcDbLine
 10
25.18135639842407
 20
3.57934739703856
 30
0.0
 11
23.78570424790999
 21
4.974999547552641
 31
0.0
  0
LINE
  5
1158
330
10FA
100
AcDbEntity
  8
0
 62
     0
100
AcDbLine
 10
21.74610634279878
 20
6.565584646610375
 30
0.0
 11
20.34610634279883
 21
7.965584646610295
 31
0.0
  0
LINE
  5
1159
330
10FA
100
AcDbEntity
  8
0
 62
     0
100
AcDbLine
 10
18.6698467665727
 20
9.641844222836425
 30
0.0
 11
17.60584676657268
 21
10.70584422283647
 31
0.0
  0
LINE
  5
115A
330
10FA
100
AcDbEntity
  8
0
 62
     0
100
AcDbLine
 10
24.73669144185655
 20
3.574999547552607
 30
0.0
 11
23.33669144185648
 21
4.97499954755267
 31
0.0
  0
LINE
  5
115B
330
10FA
100
AcDbEntity
  8
0
 62
     0
100
AcDbLine
 10
21.7461063427988
 20
6.116571840556929
 30
0.0
 11
20.34610634279886
 21
7.516571840556878
 31
0.0
  0
LINE
  5
115C
330
10FA
100
AcDbEntity
  8
0
 62
     0
100
AcDbLine
 10
18.56208369311985
 20
9.30059449023588
 30
0.0
 11
17.49808369311983
 21
10.3645944902359
 31
0.0
  0
LINE
  5
115D
330
10FA
100
AcDbEntity
  8
0
 62
     0
100
AcDbLine
 10
24.2876786358031
 20
3.574999547552636
 30
0.0
 11
23.07087278715493
 21
4.7918053962008
 31
0.0
  0
LINE
  5
115E
330
10FA
100
AcDbEntity
  8
0
 62
     0
100
AcDbLine
 10
18.45432061966707
 20
8.959344757635193
 30
0.0
 11
17.39032061966702
 21
10.02334475763521
 31
0.0
  0
LINE
  5
115F
330
10FA
100
AcDbEntity
  8
0
 62
     0
100
AcDbLine
 10
21.74610634279878
 20
5.667559034503454
 30
0.0
 11
20.34610634279883
 21
7.067559034503403
 31
0.0
  0
LINE
  5
1160
330
10FA
100
AcDbEntity
  8
0
 62
     0
100
AcDbLine
 10
16.32110634279885
 20
11.09255903450341
 30
0.0
 11
15.78866582974959
 21
11.62499954755267
 31
0.0
  0
LINE
  5
1161
330
10FA
100
AcDbEntity
  8
0
 62
     0
100
AcDbLine
 10
23.83866582974965
 20
3.574999547552607
 30
0.0
 11
23.05860634279886
 21
4.355059034503398
 31
0.0
  0
LINE
  5
1162
330
10FA
100
AcDbEntity
  8
0
 62
     0
100
AcDbLine
 10
18.34655754621417
 20
8.618095025034591
 30
0.0
 11
17.28255754621415
 21
9.682095025034641
 31
0.0
  0
LINE
  5
1163
330
10FA
100
AcDbEntity
  8
0
 62
     0
100
AcDbLine
 10
21.7461063427988
 20
5.218546228449952
 30
0.0
 11
20.34610634279883
 21
6.618546228449957
 31
0.0
  0
LINE
  5
1164
330
10FA
100
AcDbEntity
  8
0
 62
     0
100
AcDbLine
 10
16.32110634279885
 20
10.64354622844993
 30
0.0
 11
15.33965302369617
 21
11.62499954755261
 31
0.0
  0
LINE
  5
1165
330
10FA
100
AcDbEntity
  8
0
 62
     0
100
AcDbLine
 10
23.38965302369618
 20
3.574999547552607
 30
0.0
 11
23.05860634279884
 21
3.906046228449952
 31
0.0
  0
LINE
  5
1166
330
10FA
100
AcDbEntity
  8
0
 62
     0
100
AcDbLine
 10
18.23879447276138
 20
8.276845292433932
 30
0.0
 11
17.17479447276136
 21
9.340845292433954
 31
0.0
  0
LINE
  5
1167
330
10FA
100
AcDbEntity
  8
0
 62
     0
100
AcDbLine
 10
16.32110634279888
 20
10.19453342239643
 30
0.0
 11
14.98338387834999
 21
11.53225588684531
 31
0.0
  0
LINE
  5
1168
330
10FA
100
AcDbEntity
  8
0
 62
     0
100
AcDbLine
 10
21.7461063427988
 20
4.769533422396506
 30
0.0
 11
20.34610634279883
 21
6.169533422396483
 31
0.0
  0
LINE
  5
1169
330
10FA
100
AcDbEntity
  8
0
 62
     0
100
AcDbLine
 10
18.13103139930854
 20
7.935595559833359
 30
0.0
 11
17.06703139930849
 21
8.999595559833409
 31
0.0
  0
LINE
  5
116A
330
10FA
100
AcDbEntity
  8
0
 62
     0
100
AcDbLine
 10
16.32110634279888
 20
9.745520616342986
 30
0.0
 11
14.92110634279882
 21
11.14552061634307
 31
0.0
  0
LINE
  5
116B
330
10FA
100
AcDbEntity
  8
0
 62
     0
100
AcDbLine
 10
21.74610634279884
 20
4.32052061634306
 30
0.0
 11
20.34610634279883
 21
5.720520616343065
 31
0.0
  0
LINE
  5
116C
330
10FA
100
AcDbEntity
  8
0
 62
     0
100
AcDbLine
 10
18.02848714461257
 20
7.589127008475855
 30
0.0
 11
16.9592683258557
 21
8.658345827232722
 31
0.0
  0
LINE
  5
116D
330
10FA
100
AcDbEntity
  8
0
 62
     0
100
AcDbLine
 10
16.32110634279888
 20
9.29650781028954
 30
0.0
 11
14.92110634279882
 21
10.6965078102896
 31
0.0
  0
LINE
  5
116E
330
10FA
100
AcDbEntity
  8
0
 62
     0
100
AcDbLine
 10
21.7461063427988
 20
3.871507810289614
 30
0.0
 11
20.34610634279886
 21
5.271507810289534
 31
0.0
  0
LINE
  5
116F
330
10FA
100
AcDbEntity
  8
0
 62
     0
100
AcDbLine
 10
18.23572382432962
 20
6.932877522705325
 30
0.0
 11
16.8139945780133
 21
8.354606769021643
 31
0.0
  0
LINE
  5
1170
330
10FA
100
AcDbEntity
  8
0
 62
     0
100
AcDbLine
 10
16.32110634279885
 20
8.847495004236066
 30
0.0
 11
14.92110634279879
 21
10.24749500423612
 31
0.0
  0
LINE
  5
1171
330
10FA
100
AcDbEntity
  8
0
 62
     0
100
AcDbLine
 10
21.57658384413261
 20
3.592017502902336
 30
0.0
 11
20.34610634279886
 21
4.822495004236088
 31
0.0
  0
LINE
  5
1172
330
10FA
100
AcDbEntity
  8
0
 62
     0
100
AcDbLine
 10
18.44296050404659
 20
6.276628036934937
 30
0.0
 11
14.92110634279882
 21
9.798482198182711
 31
0.0
  0
LINE
  5
1173
330
10FA
100
AcDbEntity
  8
0
 62
     0
100
AcDbLine
 10
13.69610634279888
 20
11.02348219818264
 30
0.0
 11
13.09458899342885
 21
11.62499954755264
 31
0.0
  0
LINE
  5
1174
330
10FA
100
AcDbEntity
  8
0
 62
     0
100
AcDbLine
 10
21.14458899342889
 20
3.574999547552636
 30
0.0
 11
20.34610634279886
 21
4.373482198182642
 31
0.0
  0
LINE
  5
1175
330
10FA
100
AcDbEntity
  8
0
 62
     0
100
AcDbLine
 10
18.65019718376359
 20
5.620378551164463
 30
0.0
 11
14.92110634279879
 21
9.349469392129236
 31
0.0
  0
LINE
  5
1176
330
10FA
100
AcDbEntity
  8
0
 62
     0
100
AcDbLine
 10
13.69610634279888
 20
10.57446939212917
 30
0.0
 11
12.64557618737544
 21
11.62499954755261
 31
0.0
  0
LINE
  5
1177
330
10FA
100
AcDbEntity
  8
0
 62
     0
100
AcDbLine
 10
20.69557618737542
 20
3.574999547552636
 30
0.0
 11
20.34610634279886
 21
3.924469392129196
 31
0.0
  0
LINE
  5
1178
330
10FA
100
AcDbEntity
  8
0
 62
     0
100
AcDbLine
 10
13.56265299510374
 20
10.25890993377083
 30
0.0
 11
12.21254213599803
 21
11.60902079287652
 31
0.0
  0
LINE
  5
1179
330
10FA
100
AcDbEntity
  8
0
 62
     0
100
AcDbLine
 10
18.85743386348056
 20
4.964129065394018
 30
0.0
 11
14.92110634279879
 21
8.90045658607579
 31
0.0
  0
LINE
  5
117A
330
10FA
100
AcDbEntity
  8
0
 62
     0
100
AcDbLine
 10
16.48986080396957
 20
6.882689318851561
 30
0.0
 11
14.92110634279885
 21
8.451443780022287
 31
0.0
  0
LINE
  5
117B
330
10FA
100
AcDbEntity
  8
0
 62
     0
100
AcDbLine
 10
13.14755057526849
 20
10.22499954755264
 30
0.0
 11
11.8435206012044
 21
11.52902952161673
 31
0.0
  0
LINE
  5
117C
330
10FA
100
AcDbEntity
  8
0
 62
     0
100
AcDbLine
 10
19.06467054319759
 20
4.307879579623545
 30
0.0
 11
17.01851669704359
 21
6.354033425777544
 31
0.0
  0
LINE
  5
117D
330
10FA
100
AcDbEntity
  8
0
 62
     0
100
AcDbLine
 10
16.32110634279891
 20
6.602430973968779
 30
0.0
 11
14.92110634279885
 21
8.002430973968841
 31
0.0
  0
LINE
  5
117E
330
10FA
100
AcDbEntity
  8
0
 62
     0
100
AcDbLine
 10
12.69853776921502
 20
10.22499954755264
 30
0.0
 11
11.52415989328903
 21
11.39937742347862
 31
0.0
  0
LINE
  5
117F
330
10FA
100
AcDbEntity
  8
0
 62
     0
100
AcDbLine
 10
19.18218997205284
 20
3.741347344714853
 30
0.0
 11
17.22575337676056
 21
5.697783940007127
 31
0.0
  0
LINE
  5
1180
330
10FA
100
AcDbEntity
  8
0
 62
     0
100
AcDbLine
 10
16.32110634279885
 20
6.153418167915361
 30
0.0
 11
14.92110634279882
 21
7.553418167915395
 31
0.0
  0
LINE
  5
1181
330
10FA
100
AcDbEntity
  8
0
 62
     0
100
AcDbLine
 10
12.27698101794325
 20
10.19754349277096
 30
0.0
 11
11.24478540562176
 21
11.22973910509244
 31
0.0
  0
LINE
  5
1182
330
10FA
100
AcDbEntity
  8
0
 62
     0
100
AcDbLine
 10
18.89952496316155
 20
3.574999547552664
 30
0.0
 11
17.43299005647756
 21
5.041534454236654
 31
0.0
  0
LINE
  5
1183
330
10FA
100
AcDbEntity
  8
0
 62
     0
100
AcDbLine
 10
16.32110634279885
 20
5.704405361861887
 30
0.0
 11
14.92110634279882
 21
7.104405361861921
 31
0.0
  0
LINE
  5
1184
330
10FA
100
AcDbEntity
  8
0
 62
     0
100
AcDbLine
 10
11.99105292152376
 20
10.03445878313698
 30
0.0
 11
11.00095780131587
 21
11.02455390334486
 31
0.0
  0
LINE
  5
1185
330
10FA
100
AcDbEntity
  8
0
 62
     0
100
AcDbLine
 10
18.4505121571081
 20
3.574999547552636
 30
0.0
 11
17.6402267361945
 21
4.385284968466237
 31
0.0
  0
LINE
  5
1186
330
10FA
100
AcDbEntity
  8
0
 62
     0
100
AcDbLine
 10
13.86382090919767
 20
7.712677989409655
 30
0.0
 11
13.10878478465579
 21
8.467714113951501
 31
0.0
  0
LINE
  5
1187
330
10FA
100
AcDbEntity
  8
0
 62
     0
100
AcDbLine
 10
16.32110634279885
 20
5.255392555808469
 30
0.0
 11
14.92110634279882
 21
6.655392555808475
 31
0.0
  0
LINE
  5
1188
330
10FA
100
AcDbEntity
  8
0
 62
     0
100
AcDbLine
 10
11.81299213645928
 20
9.76350676214804
 30
0.0
 11
10.79127478831026
 21
10.78522411029706
 31
0.0
  0
LINE
  5
1189
330
10FA
100
AcDbEntity
  8
0
 62
     0
100
AcDbLine
 10
17.97633284895226
 20
3.600166049655058
 30
0.0
 11
17.85115576315692
 21
3.725343135450401
 31
0.0
  0
LINE
  5
118A
330
10FA
100
AcDbEntity
  8
0
 62
     0
100
AcDbLine
 10
13.82056407912671
 20
7.30692201342714
 30
0.0
 11
12.70302880867328
 21
8.424457283880542
 31
0.0
  0
LINE
  5
118B
330
10FA
100
AcDbEntity
  8
0
 62
     0
100
AcDbLine
 10
11.77110634279887
 20
9.356379749754978
 30
0.0
 11
10.61680527782942
 21
10.51068081472442
 31
0.0
  0
LINE
  5
118C
330
10FA
100
AcDbEntity
  8
0
 62
     0
100
AcDbLine
 10
16.32110634279885
 20
4.806379749754995
 30
0.0
 11
14.92110634279882
 21
6.206379749755029
 31
0.0
  0
LINE
  5
118D
330
10FA
100
AcDbEntity
  8
0
 62
     0
100
AcDbLine
 10
13.65463629947771
 20
7.023836987022662
 30
0.0
 11
12.41994378226883
 21
8.258529504231546
 31
0.0
  0
LINE
  5
118E
330
10FA
100
AcDbEntity
  8
0
 62
     0
100
AcDbLine
 10
11.77110634279884
 20
8.907366943701532
 30
0.0
 11
10.48151542422434
 21
10.19695786227603
 31
0.0
  0
LINE
  5
118F
330
10FA
100
AcDbEntity
  8
0
 62
     0
100
AcDbLine
 10
16.32110634279882
 20
4.357366943701521
 30
0.0
 11
14.92110634279882
 21
5.757366943701555
 31
0.0
  0
LINE
  5
1190
330
10FA
100
AcDbEntity
  8
0
 62
     0
100
AcDbLine
 10
11.77110634279887
 20
8.458354137648086
 30
0.0
 11
10.39415848776141
 21
9.835301992685543
 31
0.0
  0
LINE
  5
1191
330
10FA
100
AcDbEntity
  8
0
 62
     0
100
AcDbLine
 10
13.40371957840946
 20
6.825740902037495
 30
0.0
 11
12.22184769728366
 21
8.007612783163295
 31
0.0
  0
LINE
  5
1192
330
10FA
100
AcDbEntity
  8
0
 62
     0
100
AcDbLine
 10
9.05860634279881
 20
11.17085413764812
 30
0.0
 11
8.604460932894284
 21
11.62499954755267
 31
0.0
  0
LINE
  5
1193
330
10FA
100
AcDbEntity
  8
0
 62
     0
100
AcDbLine
 10
16.32110634279885
 20
3.908354137648103
 30
0.0
 11
14.92110634279882
 21
5.308354137648137
 31
0.0
  0
LINE
  5
1194
330
10FA
100
AcDbEntity
  8
0
 62
     0
100
AcDbLine
 10
11.77110634279884
 20
8.009341331594612
 30
0.0
 11
10.37110634279878
 21
9.409341331594703
 31
0.0
  0
LINE
  5
1195
330
10FA
100
AcDbEntity
  8
0
 62
     0
100
AcDbLine
 10
13.05355985719575
 20
6.726887817197734
 30
0.0
 11
12.12299461244387
 21
7.657453061949581
 31
0.0
  0
LINE
  5
1196
330
10FA
100
AcDbEntity
  8
0
 62
     0
100
AcDbLine
 10
9.05860634279881
 20
10.72184133159467
 30
0.0
 11
8.155448126840809
 21
11.62499954755264
 31
0.0
  0
LINE
  5
1197
330
10FA
100
AcDbEntity
  8
0
 62
     0
100
AcDbLine
 10
16.17715444216349
 20
3.603293232229987
 30
0.0
 11
14.92110634279882
 21
4.859341331594663
 31
0.0
  0
LINE
  5
1198
330
10FA
100
AcDbEntity
  8
0
 62
     0
100
AcDbLine
 10
11.77110634279884
 20
7.560328525541166
 30
0.0
 11
10.37110634279878
 21
8.960328525541228
 31
0.0
  0
LINE
  5
1199
330
10FA
100
AcDbEntity
  8
0
 62
     0
100
AcDbLine
 10
9.004089357663644
 20
10.32734551067636
 30
0.0
 11
7.706435320787363
 21
11.62499954755264
 31
0.0
  0
LINE
  5
119A
330
10FA
100
AcDbEntity
  8
0
 62
     0
100
AcDbLine
 10
15.7564353207874
 20
3.574999547552579
 30
0.0
 11
14.92110634279879
 21
4.410328525541189
 31
0.0
  0
LINE
  5
119B
330
10FA
100
AcDbEntity
  8
0
 62
     0
100
AcDbLine
 10
11.77110634279884
 20
7.111315719487691
 30
0.0
 11
10.37110634279875
 21
8.511315719487754
 31
0.0
  0
LINE
  5
119C
330
10FA
100
AcDbEntity
  8
0
 62
     0
100
AcDbLine
 10
8.657422514733895
 20
10.22499954755264
 30
0.0
 11
7.257422514733889
 21
11.62499954755261
 31
0.0
  0
LINE
  5
119D
330
10FA
100
AcDbEntity
  8
0
 62
     0
100
AcDbLine
 10
15.3074225147339
 20
3.574999547552607
 30
0.0
 11
14.92110634279879
 21
3.961315719487743
 31
0.0
  0
LINE
  5
119E
330
10FA
100
AcDbEntity
  8
0
 62
     0
100
AcDbLine
 10
11.77110634279884
 20
6.662302913434274
 30
0.0
 11
10.37110634279878
 21
8.062302913434336
 31
0.0
  0
LINE
  5
119F
330
10FA
100
AcDbEntity
  8
0
 62
     0
100
AcDbLine
 10
8.208409708680477
 20
10.22499954755261
 30
0.0
 11
6.825845072628055
 21
11.60756418360506
 31
0.0
  0
LINE
  5
11A0
330
10FA
100
AcDbEntity
  8
0
 62
     0
100
AcDbLine
 10
13.69480511838031
 20
4.738604137852775
 30
0.0
 11
13.45971093309896
 21
4.973698323134158
 31
0.0
  0
LINE
  5
11A1
330
10FA
100
AcDbEntity
  8
0
 62
     0
100
AcDbLine
 10
11.77110634279884
 20
6.2132901073808
 30
0.0
 11
10.37110634279881
 21
7.613290107380834
 31
0.0
  0
LINE
  5
11A2
330
10FA
100
AcDbEntity
  8
0
 62
     0
100
AcDbLine
 10
7.759396902626974
 20
10.22499954755264
 30
0.0
 11
6.479277668388817
 21
11.50511878179082
 31
0.0
  0
LINE
  5
11A3
330
10FA
100
AcDbEntity
  8
0
 62
     0
100
AcDbLine
 10
13.69610634279885
 20
4.28829010738076
 30
0.0
 11
13.009396902627
 21
4.974999547552641
 31
0.0
  0
LINE
  5
11A4
330
10FA
100
AcDbEntity
  8
0
 62
     0
100
AcDbLine
 10
11.77110634279881
 20
5.764277301327325
 30
0.0
 11
10.37110634279881
 21
7.164277301327359
 31
0.0
  0
LINE
  5
11A5
330
10FA
100
AcDbEntity
  8
0
 62
     0
100
AcDbLine
 10
7.310384096573528
 20
10.22499954755264
 30
0.0
 11
6.197154338465225
 21
11.33822930566094
 31
0.0
  0
LINE
  5
11A6
330
10FA
100
AcDbEntity
  8
0
 62
     0
100
AcDbLine
 10
13.69610634279885
 20
3.839277301327314
 30
0.0
 11
12.56038409657352
 21
4.974999547552641
 31
0.0
  0
LINE
  5
11A7
330
10FA
100
AcDbEntity
  8
0
 62
     0
100
AcDbLine
 10
7.055237682766289
 20
10.03113315530643
 30
0.0
 11
5.968107932344821
 21
11.1182629057279
 31
0.0
  0
LINE
  5
11A8
330
10FA
100
AcDbEntity
  8
0
 62
     0
100
AcDbLine
 10
13.50223995055262
 20
3.584130887520132
 30
0.0
 11
10.37110634279881
 21
6.715264495273942
 31
0.0
  0
LINE
  5
11A9
330
10FA
100
AcDbEntity
  8
0
 62
     0
100
AcDbLine
 10
7.046106342798879
 20
9.591251689220399
 30
0.0
 11
5.791367331110308
 21
10.84599070090897
 31
0.0
  0
LINE
  5
11AA
330
10FA
100
AcDbEntity
  8
0
 62
     0
100
AcDbLine
 10
13.06235848446667
 20
3.574999547552607
 30
0.0
 11
10.37110634279881
 21
6.266251689220467
 31
0.0
  0
LINE
  5
11AB
330
10FA
100
AcDbEntity
  8
0
 62
     0
100
AcDbLine
 10
7.077174196866678
 20
9.111171029099125
 30
0.0
 11
5.675927279963417
 21
10.51241794600238
 31
0.0
  0
LINE
  5
11AC
330
10FA
100
AcDbEntity
  8
0
 62
     0
100
AcDbLine
 10
12.61334567841319
 20
3.574999547552607
 30
0.0
 11
10.37110634279878
 21
5.817238883166993
 31
0.0
  0
LINE
  5
11AD
330
10FA
100
AcDbEntity
  8
0
 62
     0
100
AcDbLine
 10
9.223294388410153
 20
6.516038031502176
 30
0.0
 11
5.646106342798844
 21
10.09322607711351
 31
0.0
  0
LINE
  5
11AE
330
10FA
100
AcDbEntity
  8
0
 62
     0
100
AcDbLine
 10
12.13769682883139
 20
3.601635591080963
 30
0.0
 11
10.39774238632711
 21
5.341590033585248
 31
0.0
  0
LINE
  5
11AF
330
10FA
100
AcDbEntity
  8
0
 62
     0
100
AcDbLine
 10
9.319241645452763
 20
5.971077968406149
 30
0.0
 11
5.646106342798844
 21
9.644213271060067
 31
0.0
  0
LINE
  5
11B0
330
10FA
100
AcDbEntity
  8
0
 62
     0
100
AcDbLine
 10
11.45079287253059
 20
3.839526741328285
 30
0.0
 11
10.6356335365744
 21
4.654686077284509
 31
0.0
  0
LINE
  5
11B1
330
10FA
100
AcDbEntity
  8
0
 62
     0
100
AcDbLine
 10
9.321106342798856
 20
5.520200465006553
 30
0.0
 11
5.649888566509957
 21
9.191418241295451
 31
0.0
  0
LINE
  5
11B2
330
10FA
100
AcDbEntity
  8
0
 62
     0
100
AcDbLine
 10
9.321106342798884
 20
5.07118765895305
 30
0.0
 11
5.761533945671885
 21
8.630760056080049
 31
0.0
  0
LINE
  5
11B3
330
10FA
100
AcDbEntity
  8
0
 62
     0
100
AcDbLine
 10
9.284846344732812
 20
4.658434850965733
 30
0.0
 11
7.903150522923311
 21
6.040130672775234
 31
0.0
  0
LINE
  5
11B4
330
10FA
100
AcDbEntity
  8
0
 62
     0
100
AcDbLine
 10
9.16387737521839
 20
4.33039101442668
 30
0.0
 11
7.921106342798879
 21
5.573162046846192
 31
0.0
  0
LINE
  5
11B5
330
10FA
100
AcDbEntity
  8
0
 62
     0
100
AcDbLine
 10
8.982817751527505
 20
4.062437832064091
 30
0.0
 11
7.903156826648455
 21
5.142098756943113
 31
0.0
  0
LINE
  5
11B6
330
10FA
100
AcDbEntity
  8
0
 62
     0
100
AcDbLine
 10
8.749704565394068
 20
3.846538212144082
 30
0.0
 11
7.621243229985509
 21
4.97499954755267
 31
0.0
  0
LINE
  5
11B7
330
10FA
100
AcDbEntity
  8
0
 62
     0
100
AcDbLine
 10
8.463072341527663
 20
3.684157629957041
 30
0.0
 11
7.172230423932035
 21
4.974999547552641
 31
0.0
  0
LINE
  5
11B8
330
10FA
100
AcDbEntity
  8
0
 62
     0
100
AcDbLine
 10
8.110366046984694
 20
3.587851118446536
 30
0.0
 11
6.723217617878589
 21
4.974999547552641
 31
0.0
  0
LINE
  5
11B9
330
10FA
100
AcDbEntity
  8
0
 62
     0
100
AcDbLine
 10
7.674204811825148
 20
3.574999547552607
 30
0.0
 11
6.274204811825171
 21
4.974999547552584
 31
0.0
  0
LINE
  5
11BA
330
10FA
100
AcDbEntity
  8
0
 62
     0
100
AcDbLine
 10
7.225192005771702
 20
3.574999547552607
 30
0.0
 11
5.948530058362763
 21
4.851661494961575
 31
0.0
  0
LINE
  5
11BB
330
10FA
100
AcDbEntity
  8
0
 62
     0
100
AcDbLine
 10
6.7761791997182
 20
3.574999547552636
 30
0.0
 11
5.908606342798805
 21
4.442572404472031
 31
0.0
  0
LINE
  5
11BC
330
10FA
100
AcDbEntity
  8
0
 62
     0
100
AcDbLine
 10
6.327166393664754
 20
3.574999547552636
 30
0.0
 11
5.908606342798805
 21
3.993559598418585
 31
0.0
  0
LINE
  5
11BD
330
10FA
100
AcDbEntity
  8
0
 62
     0
100
AcDbLine
 10
34.31694998513225
 20
3.581565436111389
 30
0.0
 11
34.51454045424014
 21
3.779155905219283
 31
0.0
  0
LINE
  5
11BE
330
10FA
100
AcDbEntity
  8
0
 62
     0
100
AcDbLine
 10
33.86137129052002
 20
3.574999547552579
 30
0.0
 11
34.5211063427989
 21
4.234734599831455
 31
0.0
  0
LINE
  5
11BF
330
10FA
100
AcDbEntity
  8
0
 62
     0
100
AcDbLine
 10
33.41235848446661
 20
3.574999547552636
 30
0.0
 11
34.5211063427989
 21
4.683747405884929
 31
0.0
  0
LINE
  5
11C0
330
10FA
100
AcDbEntity
  8
0
 62
     0
100
AcDbLine
 10
33.1367051244247
 20
3.748358993564181
 30
0.0
 11
34.5211063427989
 21
5.132760211938375
 31
0.0
  0
LINE
  5
11C1
330
10FA
100
AcDbEntity
  8
0
 62
     0
100
AcDbLine
 10
33.12110634279884
 20
4.181773017991787
 30
0.0
 11
34.52110634279887
 21
5.581773017991821
 31
0.0
  0
LINE
  5
11C2
330
10FA
100
AcDbEntity
  8
0
 62
     0
100
AcDbLine
 10
33.12110634279886
 20
4.630785824045261
 30
0.0
 11
34.5211063427989
 21
6.030785824045267
 31
0.0
  0
LINE
  5
11C3
330
10FA
100
AcDbEntity
  8
0
 62
     0
100
AcDbLine
 10
33.12110634279886
 20
5.079798630098707
 30
0.0
 11
34.52110634279887
 21
6.479798630098741
 31
0.0
  0
LINE
  5
11C4
330
10FA
100
AcDbEntity
  8
0
 62
     0
100
AcDbLine
 10
33.12110634279884
 20
5.528811436152182
 30
0.0
 11
34.52110634279887
 21
6.928811436152216
 31
0.0
  0
LINE
  5
11C5
330
10FA
100
AcDbEntity
  8
0
 62
     0
100
AcDbLine
 10
31.3343887738313
 20
3.742093867184649
 30
0.0
 11
31.90401202316692
 21
4.31171711652027
 31
0.0
  0
LINE
  5
11C6
330
10FA
100
AcDbEntity
  8
0
 62
     0
100
AcDbLine
 10
33.12110634279886
 20
5.977824242205599
 30
0.0
 11
34.5211063427989
 21
7.377824242205633
 31
0.0
  0
LINE
  5
11C7
330
10FA
100
AcDbEntity
  8
0
 62
     0
100
AcDbLine
 10
30.71910469057005
 20
3.575822589976809
 30
0.0
 11
32.07028330037479
 21
4.927001199781528
 31
0.0
  0
LINE
  5
11C8
330
10FA
100
AcDbEntity
  8
0
 62
     0
100
AcDbLine
 10
33.12110634279884
 20
6.426837048259073
 30
0.0
 11
34.52110634279887
 21
7.826837048259108
 31
0.0
  0
LINE
  5
11C9
330
10FA
100
AcDbEntity
  8
0
 62
     0
100
AcDbLine
 10
30.2692688420924
 20
3.574999547552607
 30
0.0
 11
32.07110634279894
 21
5.376837048259147
 31
0.0
  0
LINE
  5
11CA
330
10FA
100
AcDbEntity
  8
0
 62
     0
100
AcDbLine
 10
33.12110634279884
 20
6.875849854312548
 30
0.0
 11
34.52110634279887
 21
8.275849854312554
 31
0.0
  0
LINE
  5
11CB
330
10FA
100
AcDbEntity
  8
0
 62
     0
100
AcDbLine
 10
29.82025603603892
 20
3.574999547552636
 30
0.0
 11
32.07110634279891
 21
5.825849854312622
 31
0.0
  0
LINE
  5
11CC
330
10FA
100
AcDbEntity
  8
0
 62
     0
100
AcDbLine
 10
33.12110634279886
 20
7.324862660365965
 30
0.0
 11
34.52110634279887
 21
8.724862660366
 31
0.0
  0
LINE
  5
11CD
330
10FA
100
AcDbEntity
  8
0
 62
     0
100
AcDbLine
 10
29.37124322998548
 20
3.574999547552607
 30
0.0
 11
32.07110634279894
 21
6.274862660366039
 31
0.0
  0
LINE
  5
11CE
330
10FA
100
AcDbEntity
  8
0
 62
     0
100
AcDbLine
 10
30.61881074175846
 20
5.271579865379067
 30
0.0
 11
32.07110634279891
 21
6.723875466419514
 31
0.0
  0
LINE
  5
11CF
330
10FA
100
AcDbEntity
  8
0
 62
     0
100
AcDbLine
 10
33.12110634279884
 20
7.77387546641944
 30
0.0
 11
34.52110634279887
 21
9.173875466419474
 31
0.0
  0
LINE
  5
11D0
330
10FA
100
AcDbEntity
  8
0
 62
     0
100
AcDbLine
 10
28.92223042393203
 20
3.574999547552607
 30
0.0
 11
30.37452602497245
 21
5.027295148593054
 31
0.0
  0
LINE
  5
11D1
330
10FA
100
AcDbEntity
  8
0
 62
     0
100
AcDbLine
 10
30.67110634279885
 20
5.772888272472897
 30
0.0
 11
32.07110634279891
 21
7.172888272472988
 31
0.0
  0
LINE
  5
11D2
330
10FA
100
AcDbEntity
  8
0
 62
     0
100
AcDbLine
 10
33.12110634279884
 20
8.222888272472886
 30
0.0
 11
34.52110634279887
 21
9.62288827247292
 31
0.0
  0
LINE
  5
11D3
330
10FA
100
AcDbEntity
  8
0
 62
     0
100
AcDbLine
 10
28.52919249356713
 20
3.630974423241184
 30
0.0
 11
29.87321761787856
 21
4.974999547552613
 31
0.0
  0
LINE
  5
11D4
330
10FA
100
AcDbEntity
  8
0
 62
     0
100
AcDbLine
 10
30.67110634279882
 20
6.221901078526371
 30
0.0
 11
32.07110634279891
 21
7.621901078526434
 31
0.0
  0
LINE
  5
11D5
330
10FA
100
AcDbEntity
  8
0
 62
     0
100
AcDbLine
 10
33.12110634279881
 20
8.67190107852636
 30
0.0
 11
34.52110634279884
 21
10.07190107852639
 31
0.0
  0
LINE
  5
11D6
330
10FA
100
AcDbEntity
  8
0
 62
     0
100
AcDbLine
 10
28.21519905996206
 20
3.76599379568961
 30
0.0
 11
29.42464370464728
 21
4.97543844037483
 31
0.0
  0
LINE
  5
11D7
330
10FA
100
AcDbEntity
  8
0
 62
     0
100
AcDbLine
 10
30.67110634279888
 20
6.670913884579846
 30
0.0
 11
32.07110634279891
 21
8.07091388457988
 31
0.0
  0
LINE
  5
11D8
330
10FA
100
AcDbEntity
  8
0
 62
     0
100
AcDbLine
 10
33.12110634279884
 20
9.120913884579806
 30
0.0
 11
34.52110634279887
 21
10.52091388457981
 31
0.0
  0
LINE
  5
11D9
330
10FA
100
AcDbEntity
  8
0
 62
     0
100
AcDbLine
 10
27.95856911927953
 20
3.958376661060469
 30
0.0
 11
29.10290441029093
 21
5.102711952071899
 31
0.0
  0
LINE
  5
11DA
330
10FA
100
AcDbEntity
  8
0
 62
     0
100
AcDbLine
 10
30.67110634279888
 20
7.11992669063332
 30
0.0
 11
32.07110634279891
 21
8.519926690633326
 31
0.0
  0
LINE
  5
11DB
330
10FA
100
AcDbEntity
  8
0
 62
     0
100
AcDbLine
 10
33.12110634279884
 20
9.569926690633252
 30
0.0
 11
34.5211063427989
 21
10.96992669063331
 31
0.0
  0
LINE
  5
11DC
330
10FA
100
AcDbEntity
  8
0
 62
     0
100
AcDbLine
 10
27.75358703166699
 20
4.202407379501437
 30
0.0
 11
28.9342852710863
 21
5.383105618920723
 31
0.0
  0
LINE
  5
11DD
330
10FA
100
AcDbEntity
  8
0
 62
     0
100
AcDbLine
 10
30.67110634279888
 20
7.568939496686766
 30
0.0
 11
32.07110634279888
 21
8.9689394966868
 31
0.0
  0
LINE
  5
11DE
330
10FA
100
AcDbEntity
  8
0
 62
     0
100
AcDbLine
 10
33.12110634279886
 20
10.01893949668675
 30
0.0
 11
34.51603176602358
 21
11.4138649199115
 31
0.0
  0
LINE
  5
11DF
330
10FA
100
AcDbEntity
  8
0
 62
     0
100
AcDbLine
 10
27.60362459245004
 20
4.501457746337933
 30
0.0
 11
28.92110634279885
 21
5.818939496686766
 31
0.0
  0
LINE
  5
11E0
330
10FA
100
AcDbEntity
  8
0
 62
     0
100
AcDbLine
 10
30.67110634279888
 20
8.017952302740212
 30
0.0
 11
32.07110634279891
 21
9.417952302740246
 31
0.0
  0
LINE
  5
11E1
330
10FA
100
AcDbEntity
  8
0
 62
     0
100
AcDbLine
 10
33.12110634279886
 20
10.4679523027402
 30
0.0
 11
34.27747459348376
 21
11.62432055342509
 31
0.0
  0
LINE
  5
11E2
330
10FA
100
AcDbEntity
  8
0
 62
     0
100
AcDbLine
 10
27.52491782497182
 20
4.871763784913156
 30
0.0
 11
28.92110634279891
 21
6.267952302740241
 31
0.0
  0
LINE
  5
11E3
330
10FA
100
AcDbEntity
  8
0
 62
     0
100
AcDbLine
 10
30.67110634279888
 20
8.466965108793658
 30
0.0
 11
32.07110634279891
 21
9.866965108793692
 31
0.0
  0
LINE
  5
11E4
330
10FA
100
AcDbEntity
  8
0
 62
     0
100
AcDbLine
 10
33.12110634279886
 20
10.91696510879364
 30
0.0
 11
33.82914078155781
 21
11.62499954755261
 31
0.0
  0
LINE
  5
11E5
330
10FA
100
AcDbEntity
  8
0
 62
     0
100
AcDbLine
 10
27.52110634279887
 20
5.316965108793681
 30
0.0
 11
28.92110634279891
 21
6.716965108793687
 31
0.0
  0
LINE
  5
11E6
330
10FA
100
AcDbEntity
  8
0
 62
     0
100
AcDbLine
 10
30.67110634279885
 20
8.915977914847132
 30
0.0
 11
32.07110634279888
 21
10.31597791484716
 31
0.0
  0
LINE
  5
11E7
330
10FA
100
AcDbEntity
  8
0
 62
     0
100
AcDbLine
 10
27.52110634279887
 20
5.765977914847127
 30
0.0
 11
28.92110634279887
 21
7.165977914847161
 31
0.0
  0
LINE
  5
11E8
330
10FA
100
AcDbEntity
  8
0
 62
     0
100
AcDbLine
 10
33.12112970017258
 20
11.36600127222087
 30
0.0
 11
33.38010461813055
 21
11.62497619017881
 31
0.0
  0
LINE
  5
11E9
330
10FA
100
AcDbEntity
  8
0
 62
     0
100
AcDbLine
 10
25.36032852744276
 20
3.605200099491042
 30
0.0
 11
26.44090579086051
 21
4.685777362908794
 31
0.0
  0
LINE
  5
11EA
330
10FA
100
AcDbEntity
  8
0
 62
     0
100
AcDbLine
 10
27.52110634279884
 20
6.214990720900601
 30
0.0
 11
28.92110634279887
 21
7.614990720900635
 31
0.0
  0
LINE
  5
11EB
330
10FA
100
AcDbEntity
  8
0
 62
     0
100
AcDbLine
 10
30.67110634279885
 20
9.364990720900607
 30
0.0
 11
32.07110634279888
 21
10.76499072090061
 31
0.0
  0
LINE
  5
11EC
330
10FA
100
AcDbEntity
  8
0
 62
     0
100
AcDbLine
 10
24.88111516945088
 20
3.574999547552636
 30
0.0
 11
26.47110634279886
 21
5.16499072090059
 31
0.0
  0
LINE
  5
11ED
330
10FA
100
AcDbEntity
  8
0
 62
     0
100
AcDbLine
 10
27.52110634279887
 20
6.664003526954019
 30
0.0
 11
28.92110634279891
 21
8.064003526954053
 31
0.0
  0
LINE
  5
11EE
330
10FA
100
AcDbEntity
  8
0
 62
     0
100
AcDbLine
 10
30.67110634279888
 20
9.814003526954024
 30
0.0
 11
32.07110634279888
 21
11.21400352695405
 31
0.0
  0
LINE
  5
11EF
330
10FA
100
AcDbEntity
  8
0
 62
     0
100
AcDbLine
 10
24.43210236339743
 20
3.574999547552607
 30
0.0
 11
26.47110634279892
 21
5.614003526954064
 31
0.0
  0
LINE
  5
11F0
330
10FA
100
AcDbEntity
  8
0
 62
     0
100
AcDbLine
 10
27.52110634279884
 20
7.113016333007493
 30
0.0
 11
28.92110634279887
 21
8.513016333007527
 31
0.0
  0
LINE
  5
11F1
330
10FA
100
AcDbEntity
  8
0
 62
     0
100
AcDbLine
 10
30.67110634279885
 20
10.26301633300749
 30
0.0
 11
31.97423761538178
 21
11.56614760559043
 31
0.0
  0
LINE
  5
11F2
330
10FA
100
AcDbEntity
  8
0
 62
     0
100
AcDbLine
 10
23.98308955734393
 20
3.574999547552579
 30
0.0
 11
26.46394704259239
 21
6.055857032801014
 31
0.0
  0
LINE
  5
11F3
330
10FA
100
AcDbEntity
  8
0
 62
     0
100
AcDbLine
 10
27.52110634279887
 20
7.562029139060996
 30
0.0
 11
28.92110634279887
 21
8.962029139060973
 31
0.0
  0
LINE
  5
11F4
330
10FA
100
AcDbEntity
  8
0
 62
     0
100
AcDbLine
 10
30.67110634279885
 20
10.71202913906094
 30
0.0
 11
31.58407675129052
 21
11.62499954755264
 31
0.0
  0
LINE
  5
11F5
330
10FA
100
AcDbEntity
  8
0
 62
     0
100
AcDbLine
 10
23.53407675129051
 20
3.574999547552636
 30
0.0
 11
26.39649085727799
 21
6.437413653540119
 31
0.0
  0
LINE
  5
11F6
330
10FA
100
AcDbEntity
  8
0
 62
     0
100
AcDbLine
 10
27.5211063427989
 20
8.011041945114442
 30
0.0
 11
28.92110634279893
 21
9.411041945114448
 31
0.0
  0
LINE
  5
11F7
330
10FA
100
AcDbEntity
  8
0
 62
     0
100
AcDbLine
 10
25.07110634279891
 20
5.561041945114453
 30
0.0
 11
26.27619712881872
 21
6.766132731134263
 31
0.0
  0
LINE
  5
11F8
330
10FA
100
AcDbEntity
  8
0
 62
     0
100
AcDbLine
 10
30.67110634279885
 20
11.16104194511439
 30
0.0
 11
31.1350639452371
 21
11.62499954755264
 31
0.0
  0
LINE
  5
11F9
330
10FA
100
AcDbEntity
  8
0
 62
     0
100
AcDbLine
 10
23.14919162180268
 20
3.639127224118198
 30
0.0
 11
24.48506394523707
 21
4.974999547552613
 31
0.0
  0
LINE
  5
11FA
330
10FA
100
AcDbEntity
  8
0
 62
     0
100
AcDbLine
 10
25.06117105523518
 20
6.000119463604164
 30
0.0
 11
26.11444747638842
 21
7.053395884757406
 31
0.0
  0
LINE
  5
11FB
330
10FA
100
AcDbEntity
  8
0
 62
     0
100
AcDbLine
 10
27.5211063427989
 20
8.460054751167888
 30
0.0
 11
28.92110634279891
 21
9.860054751167922
 31
0.0
  0
LINE
  5
11FC
330
10FA
100
AcDbEntity
  8
0
 62
     0
100
AcDbLine
 10
23.05860634279884
 20
3.997554751167825
 30
0.0
 11
24.03605113918357
 21
4.974999547552584
 31
0.0
  0
LINE
  5
11FD
330
10FA
100
AcDbEntity
  8
0
 62
     0
100
AcDbLine
 10
24.92397863666573
 20
6.311939851088226
 30
0.0
 11
25.91651191742451
 21
7.304473131847004
 31
0.0
  0
LINE
  5
11FE
330
10FA
100
AcDbEntity
  8
0
 62
     0
100
AcDbLine
 10
27.52110634279887
 20
8.909067557221362
 30
0.0
 11
28.92110634279891
 21
10.30906755722139
 31
0.0
  0
LINE
  5
11FF
330
10FA
100
AcDbEntity
  8
0
 62
     0
100
AcDbLine
 10
23.05860634279881
 20
4.4465675572213
 30
0.0
 11
23.58703833313015
 21
4.974999547552641
 31
0.0
  0
LINE
  5
1200
330
10FA
100
AcDbEntity
  8
0
 62
     0
100
AcDbLine
 10
27.5211063427989
 20
9.35808036327478
 30
0.0
 11
28.92110634279891
 21
10.75808036327481
 31
0.0
  0
LINE
  5
1201
330
10FA
100
AcDbEntity
  8
0
 62
     0
100
AcDbLine
 10
24.70334118810723
 20
6.540315208583137
 30
0.0
 11
25.69329068176839
 21
7.530264702244295
 31
0.0
  0
LINE
  5
1202
330
10FA
100
AcDbEntity
  8
0
 62
     0
100
AcDbLine
 10
24.47883478508049
 20
6.764821611609875
 30
0.0
 11
25.46878427874165
 21
7.754771105271032
 31
0.0
  0
LINE
  5
1203
330
10FA
100
AcDbEntity
  8
0
 62
     0
100
AcDbLine
 10
27.52110634279887
 20
9.807093169328254
 30
0.0
 11
28.92110634279891
 21
11.20709316932828
 31
0.0
  0
LINE
  5
1204
330
10FA
100
AcDbEntity
  8
0
 62
     0
100
AcDbLine
 10
21.28901272102325
 20
3.574999547552636
 30
0.0
 11
21.74610634279886
 21
4.032093169328248
 31
0.0
  0
LINE
  5
1205
330
10FA
100
AcDbEntity
  8
0
 62
     0
100
AcDbLine
 10
24.25432838205381
 20
6.98932801463664
 30
0.0
 11
25.24427787571491
 21
7.979277508297769
 31
0.0
  0
LINE
  5
1206
330
10FA
100
AcDbEntity
  8
0
 62
     0
100
AcDbLine
 10
27.52110634279887
 20
10.25610597538172
 30
0.0
 11
28.82801588874943
 21
11.56301552133228
 31
0.0
  0
LINE
  5
1207
330
10FA
100
AcDbEntity
  8
0
 62
     0
100
AcDbLine
 10
20.83999991496975
 20
3.574999547552607
 30
0.0
 11
21.74610634279886
 21
4.481105975381723
 31
0.0
  0
LINE
  5
1208
330
10FA
100
AcDbEntity
  8
0
 62
     0
100
AcDbLine
 10
24.02982197902701
 20
7.213834417663349
 30
0.0
 11
25.01977147268817
 21
8.203783911324507
 31
0.0
  0
LINE
  5
1209
330
10FA
100
AcDbEntity
  8
0
 62
     0
100
AcDbLine
 10
27.52110634279887
 20
10.70511878143517
 30
0.0
 11
28.44098710891632
 21
11.62499954755264
 31
0.0
  0
LINE
  5
120A
330
10FA
100
AcDbEntity
  8
0
 62
     0
100
AcDbLine
 10
20.44679267784732
 20
3.630805116483657
 30
0.0
 11
21.74610634279886
 21
4.930118781435169
 31
0.0
  0
LINE
  5
120B
330
10FA
100
AcDbEntity
  8
0
 62
     0
100
AcDbLine
 10
23.8053155760003
 20
7.438340820690058
 30
0.0
 11
24.79526506966147
 21
8.428290314351215
 31
0.0
  0
LINE
  5
120C
330
10FA
100
AcDbEntity
  8
0
 62
     0
100
AcDbLine
 10
27.52110634279887
 20
11.15413158748862
 30
0.0
 11
27.99197430286287
 21
11.62499954755261
 31
0.0
  0
LINE
  5
120D
330
10FA
100
AcDbEntity
  8
0
 62
     0
100
AcDbLine
 10
20.34610634279889
 20
3.979131587488637
 30
0.0
 11
21.74610634279886
 21
5.379131587488615
 31
0.0
  0
LINE
  5
120E
330
10FA
100
AcDbEntity
  8
0
 62
     0
100
AcDbLine
 10
23.58080917297357
 20
7.662847223716795
 30
0.0
 11
24.57075866663473
 21
8.652796717377952
 31
0.0
  0
LINE
  5
120F
330
10FA
100
AcDbEntity
  8
0
 62
     0
100
AcDbLine
 10
20.34610634279886
 20
4.428144393542083
 30
0.0
 11
21.74610634279886
 21
5.828144393542061
 31
0.0
  0
LINE
  5
1210
330
10FA
100
AcDbEntity
  8
0
 62
     0
100
AcDbLine
 10
23.35731722245293
 20
7.88836807924963
 30
0.0
 11
24.34930398914392
 21
8.880354845940615
 31
0.0
  0
LINE
  5
1211
330
10FA
100
AcDbEntity
  8
0
 62
     0
100
AcDbLine
 10
20.34610634279886
 20
4.877157199595558
 30
0.0
 11
21.74610634279884
 21
6.277157199595535
 31
0.0
  0
LINE
  5
1212
330
10FA
100
AcDbEntity
  8
0
 62
     0
100
AcDbLine
 10
25.69394869075591
 20
10.22499954755261
 30
0.0
 11
26.20860634279887
 21
10.73965719959556
 31
0.0
  0
LINE
  5
1213
330
10FA
100
AcDbEntity
  8
0
 62
     0
100
AcDbLine
 10
19.09977823044334
 20
3.630829087240044
 30
0.0
 11
19.14460441117165
 21
3.675655267968352
 31
0.0
  0
LINE
  5
1214
330
10FA
100
AcDbEntity
  8
0
 62
     0
100
AcDbLine
 10
23.15831613304195
 20
8.138379795892063
 30
0.0
 11
24.20813327175128
 21
9.188196934601393
 31
0.0
  0
LINE
  5
1215
330
10FA
100
AcDbEntity
  8
0
 62
     0
100
AcDbLine
 10
20.34610634279889
 20
5.326170005648975
 30
0.0
 11
21.74610634279886
 21
6.726170005648981
 31
0.0
  0
LINE
  5
1216
330
10FA
100
AcDbEntity
  8
0
 62
     0
100
AcDbLine
 10
25.24493588470249
 20
10.22499954755258
 30
0.0
 11
26.2086063427989
 21
11.18867000564898
 31
0.0
  0
LINE
  5
1217
330
10FA
100
AcDbEntity
  8
0
 62
     0
100
AcDbLine
 10
18.59493588470249
 20
3.574999547552607
 30
0.0
 11
19.12782543285581
 21
4.1078890957059
 31
0.0
  0
LINE
  5
1218
330
10FA
100
AcDbEntity
  8
0
 62
     0
100
AcDbLine
 10
22.99539900084357
 20
8.424475469747164
 30
0.0
 11
24.19610634279888
 21
9.625182811702472
 31
0.0
  0
LINE
  5
1219
330
10FA
100
AcDbEntity
  8
0
 62
     0
100
AcDbLine
 10
20.34610634279886
 20
5.77518281170245
 30
0.0
 11
21.74610634279886
 21
7.175182811702427
 31
0.0
  0
LINE
  5
121A
330
10FA
100
AcDbEntity
  8
0
 62
     0
100
AcDbLine
 10
24.79592307864902
 20
10.22499954755261
 30
0.0
 11
26.12527187689988
 21
11.55434834580347
 31
0.0
  0
LINE
  5
121B
330
10FA
100
AcDbEntity
  8
0
 62
     0
100
AcDbLine
 10
18.14592307864899
 20
3.574999547552579
 30
0.0
 11
19.02006235940297
 21
4.44913882830653
 31
0.0
  0
LINE
  5
121C
330
10FA
100
AcDbEntity
  8
0
 62
     0
100
AcDbLine
 10
20.34610634279886
 20
6.224195617755896
 30
0.0
 11
21.74610634279884
 21
7.624195617755901
 31
0.0
  0
LINE
  5
121D
330
10FA
100
AcDbEntity
  8
0
 62
     0
100
AcDbLine
 10
22.87370796950858
 20
8.751797244465649
 30
0.0
 11
25.74691027259558
 21
11.62499954755264
 31
0.0
  0
LINE
  5
121E
330
10FA
100
AcDbEntity
  8
0
 62
     0
100
AcDbLine
 10
17.84991592332159
 20
3.728005198278623
 30
0.0
 11
18.91229928595012
 21
4.79038856090716
 31
0.0
  0
LINE
  5
121F
330
10FA
100
AcDbEntity
  8
0
 62
     0
100
AcDbLine
 10
20.34610634279883
 20
6.67320842380937
 30
0.0
 11
21.74610634279884
 21
8.073208423809347
 31
0.0
  0
LINE
  5
1220
330
10FA
100
AcDbEntity
  8
0
 62
     0
100
AcDbLine
 10
22.80435453996574
 20
9.13145662097628
 30
0.0
 11
25.29789746654214
 21
11.62499954755264
 31
0.0
  0
LINE
  5
1221
330
10FA
100
AcDbEntity
  8
0
 62
     0
100
AcDbLine
 10
17.74053621249726
 20
4.067638293507769
 30
0.0
 11
18.80453621249728
 21
5.131638293507819
 31
0.0
  0
LINE
  5
1222
330
10FA
100
AcDbEntity
  8
0
 62
     0
100
AcDbLine
 10
20.34610634279889
 20
7.122221229862844
 30
0.0
 11
21.74610634279884
 21
8.522221229862793
 31
0.0
  0
LINE
  5
1223
330
10FA
100
AcDbEntity
  8
0
 62
     0
100
AcDbLine
 10
22.79610634279884
 20
9.572221229862805
 30
0.0
 11
24.84888466048869
 21
11.62499954755264
 31
0.0
  0
LINE
  5
1224
330
10FA
100
AcDbEntity
  8
0
 62
     0
100
AcDbLine
 10
17.63277313904438
 20
4.408888026108343
 30
0.0
 11
18.69677313904449
 21
5.472888026108449
 31
0.0
  0
LINE
  5
1225
330
10FA
100
AcDbEntity
  8
0
 62
     0
100
AcDbLine
 10
20.34610634279889
 20
7.571234035916319
 30
0.0
 11
21.74610634279884
 21
8.971234035916268
 31
0.0
  0
LINE
  5
1226
330
10FA
100
AcDbEntity
  8
0
 62
     0
100
AcDbLine
 10
22.79610634279884
 20
10.02123403591625
 30
0.0
 11
24.39987185443524
 21
11.62499954755264
 31
0.0
  0
LINE
  5
1227
330
10FA
100
AcDbEntity
  8
0
 62
     0
100
AcDbLine
 10
17.5250100655916
 20
4.750137758709001
 30
0.0
 11
18.58901006559162
 21
5.814137758709051
 31
0.0
  0
LINE
  5
1228
330
10FA
100
AcDbEntity
  8
0
 62
     0
100
AcDbLine
 10
20.34610634279889
 20
8.020246841969765
 30
0.0
 11
21.74610634279884
 21
9.420246841969714
 31
0.0
  0
LINE
  5
1229
330
10FA
100
AcDbEntity
  8
0
 62
     0
100
AcDbLine
 10
17.41724699213875
 20
5.09138749130966
 30
0.0
 11
18.48124699213883
 21
6.15538749130971
 31
0.0
  0
LINE
  5
122A
330
10FA
100
AcDbEntity
  8
0
 62
     0
100
AcDbLine
 10
22.82276467785956
 20
10.49690517703044
 30
0.0
 11
23.92420071332105
 21
11.59834121249193
 31
0.0
  0
LINE
  5
122B
330
10FA
100
AcDbEntity
  8
0
 62
     0
100
AcDbLine
 10
15.9008590483817
 20
3.574999547552607
 30
0.0
 11
16.32110634279888
 21
3.995246841969787
 31
0.0
  0
LINE
  5
122C
330
10FA
100
AcDbEntity
  8
0
 62
     0
100
AcDbLine
 10
17.30948391868594
 20
5.432637223910262
 30
0.0
 11
18.37348391868596
 21
6.496637223910283
 31
0.0
  0
LINE
  5
122D
330
10FA
100
AcDbEntity
  8
0
 62
     0
100
AcDbLine
 10
20.34610634279889
 20
8.469259648023211
 30
0.0
 11
21.74610634279884
 21
9.86925964802316
 31
0.0
  0
LINE
  5
122E
330
10FA
100
AcDbEntity
  8
0
 62
     0
100
AcDbLine
 10
15.45184624232828
 20
3.574999547552579
 30
0.0
 11
16.32110634279891
 21
4.444259648023205
 31
0.0
  0
LINE
  5
122F
330
10FA
100
AcDbEntity
  8
0
 62
     0
100
AcDbLine
 10
17.20172084523307
 20
5.773886956510835
 30
0.0
 11
18.26572084523317
 21
6.837886956510942
 31
0.0
  0
LINE
  5
1230
330
10FA
100
AcDbEntity
  8
0
 62
     0
100
AcDbLine
 10
20.34610634279889
 20
8.918272454076657
 30
0.0
 11
21.74610634279884
 21
10.3182724540766
 31
0.0
  0
LINE
  5
1231
330
10FA
100
AcDbEntity
  8
0
 62
     0
100
AcDbLine
 10
15.04340831010051
 20
3.615574421378283
 30
0.0
 11
16.32110634279888
 21
4.893272454076679
 31
0.0
  0
LINE
  5
1232
330
10FA
100
AcDbEntity
  8
0
 62
     0
100
AcDbLine
 10
17.09395777178025
 20
6.115136689111523
 30
0.0
 11
18.15795777178027
 21
7.179136689111544
 31
0.0
  0
LINE
  5
1233
330
10FA
100
AcDbEntity
  8
0
 62
     0
100
AcDbLine
 10
20.34610634279886
 20
9.367285260130131
 30
0.0
 11
21.7461063427988
 21
10.76728526013008
 31
0.0
  0
LINE
  5
1234
330
10FA
100
AcDbEntity
  8
0
 62
     0
100
AcDbLine
 10
14.92110634279885
 20
3.94228526013012
 30
0.0
 11
16.32110634279888
 21
5.342285260130154
 31
0.0
  0
LINE
  5
1235
330
10FA
100
AcDbEntity
  8
0
 62
     0
100
AcDbLine
 10
16.98619469832743
 20
6.456386421712124
 30
0.0
 11
18.05019469832751
 21
7.520386421712203
 31
0.0
  0
LINE
  5
1236
330
10FA
100
AcDbEntity
  8
0
 62
     0
100
AcDbLine
 10
20.34610634279889
 20
9.816298066183577
 30
0.0
 11
21.74610634279884
 21
11.21629806618352
 31
0.0
  0
LINE
  5
1237
330
10FA
100
AcDbEntity
  8
0
 62
     0
100
AcDbLine
 10
14.92110634279887
 20
4.391298066183537
 30
0.0
 11
16.32110634279894
 21
5.791298066183628
 31
0.0
  0
LINE
  5
1238
330
10FA
100
AcDbEntity
  8
0
 62
     0
100
AcDbLine
 10
16.86879530484151
 20
6.787999834279673
 30
0.0
 11
18.18394233880707
 21
8.103146868245232
 31
0.0
  0
LINE
  5
1239
330
10FA
100
AcDbEntity
  8
0
 62
     0
100
AcDbLine
 10
20.34610634279891
 20
10.26531087223708
 30
0.0
 11
21.64796863154961
 21
11.56717316098774
 31
0.0
  0
LINE
  5
123A
330
10FA
100
AcDbEntity
  8
0
 62
     0
100
AcDbLine
 10
14.92110634279885
 20
4.840310872237012
 30
0.0
 11
16.32110634279894
 21
6.240310872237074
 31
0.0
  0
LINE
  5
123B
330
10FA
100
AcDbEntity
  8
0
 62
     0
100
AcDbLine
 10
16.52520261990778
 20
6.893419955399423
 30
0.0
 11
18.39117901852407
 21
8.759396354015706
 31
0.0
  0
LINE
  5
123C
330
10FA
100
AcDbEntity
  8
0
 62
     0
100
AcDbLine
 10
14.92110634279885
 20
5.289323678290486
 30
0.0
 11
16.32768593495208
 21
6.695903270443722
 31
0.0
  0
LINE
  5
123D
330
10FA
100
AcDbEntity
  8
0
 62
     0
100
AcDbLine
 10
20.34610634279891
 20
10.71432367829052
 30
0.0
 11
21.25678221206101
 21
11.62499954755264
 31
0.0
  0
LINE
  5
123E
330
10FA
100
AcDbEntity
  8
0
 62
     0
100
AcDbLine
 10
13.206782212061
 20
3.574999547552607
 30
0.0
 11
13.69610634279891
 21
4.064323678290548
 31
0.0
  0
LINE
  5
123F
330
10FA
100
AcDbEntity
  8
0
 62
     0
100
AcDbLine
 10
14.92110634279885
 20
5.738336484343932
 30
0.0
 11
18.59841569824107
 21
9.415645839786179
 31
0.0
  0
LINE
  5
1240
330
10FA
100
AcDbEntity
  8
0
 62
     0
100
AcDbLine
 10
20.34610634279889
 20
11.163336484344
 30
0.0
 11
20.80776940600753
 21
11.62499954755264
 31
0.0
  0
LINE
  5
1241
330
10FA
100
AcDbEntity
  8
0
 62
     0
100
AcDbLine
 10
12.75776940600752
 20
3.574999547552636
 30
0.0
 11
13.69610634279891
 21
4.513336484343994
 31
0.0
  0
LINE
  5
1242
330
10FA
100
AcDbEntity
  8
0
 62
     0
100
AcDbLine
 10
14.9211063427989
 20
6.187349290397406
 30
0.0
 11
18.80565237795809
 21
10.07189532555662
 31
0.0
  0
LINE
  5
1243
330
10FA
100
AcDbEntity
  8
0
 62
     0
100
AcDbLine
 10
12.31459691212913
 20
3.58083985972766
 30
0.0
 11
13.62543920099574
 21
4.891682148594242
 31
0.0
  0
LINE
  5
1244
330
10FA
100
AcDbEntity
  8
0
 62
     0
100
AcDbLine
 10
14.92110634279887
 20
6.636362096450881
 30
0.0
 11
16.58474379390062
 21
8.29999954755263
 31
0.0
  0
LINE
  5
1245
330
10FA
100
AcDbEntity
  8
0
 62
     0
100
AcDbLine
 10
16.96673521152115
 20
8.681990965173127
 30
0.0
 11
19.01288905767506
 21
10.72814481132706
 31
0.0
  0
LINE
  5
1246
330
10FA
100
AcDbEntity
  8
0
 62
     0
100
AcDbLine
 10
11.93051665340564
 20
3.64577240705762
 30
0.0
 11
13.25974379390061
 21
4.974999547552613
 31
0.0
  0
LINE
  5
1247
330
10FA
100
AcDbEntity
  8
0
 62
     0
100
AcDbLine
 10
14.92110634279887
 20
7.085374902504327
 30
0.0
 11
16.33010162815301
 21
8.494370187858493
 31
0.0
  0
LINE
  5
1248
330
10FA
100
AcDbEntity
  8
0
 62
     0
100
AcDbLine
 10
17.17397189123809
 20
9.338240450943573
 30
0.0
 11
19.20042478357572
 21
11.3646933432812
 31
0.0
  0
LINE
  5
1249
330
10FA
100
AcDbEntity
  8
0
 62
     0
100
AcDbLine
 10
11.59994952499243
 20
3.764218084697915
 30
0.0
 11
12.81073098784716
 21
4.974999547552613
 31
0.0
  0
LINE
  5
124A
330
10FA
100
AcDbEntity
  8
0
 62
     0
100
AcDbLine
 10
14.92110634279887
 20
7.534387708557773
 30
0.0
 11
16.32110634279891
 21
8.934387708557807
 31
0.0
  0
LINE
  5
124B
330
10FA
100
AcDbEntity
  8
0
 62
     0
100
AcDbLine
 10
17.38120857095509
 20
9.994489936713989
 30
0.0
 11
19.00341884729104
 21
11.61670021304993
 31
0.0
  0
LINE
  5
124C
330
10FA
100
AcDbEntity
  8
0
 62
     0
100
AcDbLine
 10
11.31114788291029
 20
3.924429248669156
 30
0.0
 11
12.36917881215672
 21
4.982460177915612
 31
0.0
  0
LINE
  5
124D
330
10FA
100
AcDbEntity
  8
0
 62
     0
100
AcDbLine
 10
14.92110634279887
 20
7.983400514611247
 30
0.0
 11
16.32110634279891
 21
9.383400514611253
 31
0.0
  0
LINE
  5
124E
330
10FA
100
AcDbEntity
  8
0
 62
     0
100
AcDbLine
 10
17.58844525067206
 20
10.6507394224844
 30
0.0
 11
18.56270537574025
 21
11.62499954755261
 31
0.0
  0
LINE
  5
124F
330
10FA
100
AcDbEntity
  8
0
 62
     0
100
AcDbLine
 10
11.05867039971926
 20
4.120964571531601
 30
0.0
 11
12.05202074164756
 21
5.114314913459907
 31
0.0
  0
LINE
  5
1250
330
10FA
100
AcDbEntity
  8
0
 62
     0
100
AcDbLine
 10
14.92110634279887
 20
8.432413320664693
 30
0.0
 11
16.32110634279888
 21
9.832413320664727
 31
0.0
  0
LINE
  5
1251
330
10FA
100
AcDbEntity
  8
0
 62
     0
100
AcDbLine
 10
13.25192340868696
 20
6.763230386552805
 30
0.0
 11
13.83287550379867
 21
7.344182481664518
 31
0.0
  0
LINE
  5
1252
330
10FA
100
AcDbEntity
  8
0
 62
     0
100
AcDbLine
 10
17.795681930389
 20
11.30698890825485
 30
0.0
 11
18.11369256968677
 21
11.62499954755261
 31
0.0
  0
LINE
  5
1253
330
10FA
100
AcDbEntity
  8
0
 62
     0
100
AcDbLine
 10
10.84045186305434
 20
4.351758840920183
 30
0.0
 11
11.84689526601147
 21
5.358202243877315
 31
0.0
  0
LINE
  5
1254
330
10FA
100
AcDbEntity
  8
0
 62
     0
100
AcDbLine
 10
12.7894369878721
 20
6.749756771791425
 30
0.0
 11
13.84634911856005
 21
7.806668902479373
 31
0.0
  0
LINE
  5
1255
330
10FA
100
AcDbEntity
  8
0
 62
     0
100
AcDbLine
 10
14.92110634279885
 20
8.881426126718167
 30
0.0
 11
16.32110634279888
 21
10.2814261267182
 31
0.0
  0
LINE
  5
1256
330
10FA
100
AcDbEntity
  8
0
 62
     0
100
AcDbLine
 10
10.65694225058285
 20
4.617262034502147
 30
0.0
 11
11.7711063427989
 21
5.73142612671819
 31
0.0
  0
LINE
  5
1257
330
10FA
100
AcDbEntity
  8
0
 62
     0
100
AcDbLine
 10
12.48236370316203
 20
6.891696293134742
 30
0.0
 11
13.70440959721671
 21
8.113742187189444
 31
0.0
  0
LINE
  5
1258
330
10FA
100
AcDbEntity
  8
0
 62
     0
100
AcDbLine
 10
14.92110634279887
 20
9.330438932771585
 30
0.0
 11
16.32110634279891
 21
10.73043893277161
 31
0.0
  0
LINE
  5
1259
330
10FA
100
AcDbEntity
  8
0
 62
     0
100
AcDbLine
 10
10.51128349562048
 20
4.920616085593223
 30
0.0
 11
11.7711063427989
 21
6.180438932771636
 31
0.0
  0
LINE
  5
125A
330
10FA
100
AcDbEntity
  8
0
 62
     0
100
AcDbLine
 10
12.26338373966717
 20
7.121729135693385
 30
0.0
 11
13.47437675465809
 21
8.332722150684276
 31
0.0
  0
LINE
  5
125B
330
10FA
100
AcDbEntity
  8
0
 62
     0
100
AcDbLine
 10
14.92110634279885
 20
9.779451738825059
 30
0.0
 11
16.32110634279894
 21
11.17945173882512
 31
0.0
  0
LINE
  5
125C
330
10FA
100
AcDbEntity
  8
0
 62
     0
100
AcDbLine
 10
10.41071481353316
 20
5.26906020955937
 30
0.0
 11
11.7711063427989
 21
6.62945173882511
 31
0.0
  0
LINE
  5
125D
330
10FA
100
AcDbEntity
  8
0
 62
     0
100
AcDbLine
 10
12.13535837346302
 20
7.442716575542704
 30
0.0
 11
13.15338931480877
 21
8.46074751688846
 31
0.0
  0
LINE
  5
125E
330
10FA
100
AcDbEntity
  8
0
 62
     0
100
AcDbLine
 10
10.37110634279881
 20
5.678464544878494
 30
0.0
 11
11.77110634279887
 21
7.078464544878556
 31
0.0
  0
LINE
  5
125F
330
10FA
100
AcDbEntity
  8
0
 62
     0
100
AcDbLine
 10
14.92110634279885
 20
10.22846454487853
 30
0.0
 11
16.24248128862126
 21
11.54983949070094
 31
0.0
  0
LINE
  5
1260
330
10FA
100
AcDbEntity
  8
0
 62
     0
100
AcDbLine
 10
8.328107963860986
 20
3.63546616594067
 30
0.0
 11
9.26063972441085
 21
4.567997926490534
 31
0.0
  0
LINE
  5
1261
330
10FA
100
AcDbEntity
  8
0
 62
     0
100
AcDbLine
 10
12.19456491520344
 20
7.950935923336515
 30
0.0
 11
12.64516996701493
 21
8.401540975148037
 31
0.0
  0
LINE
  5
1262
330
10FA
100
AcDbEntity
  8
0
 62
     0
100
AcDbLine
 10
10.37110634279886
 20
6.127477350931968
 30
0.0
 11
11.7711063427989
 21
7.527477350932002
 31
0.0
  0
LINE
  5
1263
330
10FA
100
AcDbEntity
  8
0
 62
     0
100
AcDbLine
 10
14.92110634279887
 20
10.67747735093195
 30
0.0
 11
15.86862853941951
 21
11.62499954755261
 31
0.0
  0
LINE
  5
1264
330
10FA
100
AcDbEntity
  8
0
 62
     0
100
AcDbLine
 10
7.818628539419506
 20
3.574999547552607
 30
0.0
 11
9.321106342798913
 21
5.077477350932014
 31
0.0
  0
LINE
  5
1265
330
10FA
100
AcDbEntity
  8
0
 62
     0
100
AcDbLine
 10
10.37110634279886
 20
6.576490156985443
 30
0.0
 11
11.7711063427989
 21
7.976490156985448
 31
0.0
  0
LINE
  5
1266
330
10FA
100
AcDbEntity
  8
0
 62
     0
100
AcDbLine
 10
14.9211063427989
 20
11.12649015698545
 30
0.0
 11
15.41961573336607
 21
11.62499954755264
 31
0.0
  0
LINE
  5
1267
330
10FA
100
AcDbEntity
  8
0
 62
     0
100
AcDbLine
 10
7.369615733366003
 20
3.574999547552579
 30
0.0
 11
9.321106342798941
 21
5.526490156985516
 31
0.0
  0
LINE
  5
1268
330
10FA
100
AcDbEntity
  8
0
 62
     0
100
AcDbLine
 10
10.37110634279886
 20
7.025502963038888
 30
0.0
 11
11.77110634279887
 21
8.425502963038923
 31
0.0
  0
LINE
  5
1269
330
10FA
100
AcDbEntity
  8
0
 62
     0
100
AcDbLine
 10
6.920602927312586
 20
3.574999547552636
 30
0.0
 11
9.319136666518289
 21
5.973533286758339
 31
0.0
  0
LINE
  5
126A
330
10FA
100
AcDbEntity
  8
0
 62
     0
100
AcDbLine
 10
10.37110634279886
 20
7.474515769092363
 30
0.0
 11
11.7711063427989
 21
8.874515769092397
 31
0.0
  0
LINE
  5
126B
330
10FA
100
AcDbEntity
  8
0
 62
     0
100
AcDbLine
 10
13.12159012125917
 20
10.22499954755267
 30
0.0
 11
13.69610634279891
 21
10.7995157690924
 31
0.0
  0
LINE
  5
126C
330
10FA
100
AcDbEntity
  8
0
 62
     0
100
AcDbLine
 10
6.471590121259112
 20
3.574999547552607
 30
0.0
 11
9.264305748357571
 21
6.367715174651067
 31
0.0
  0
LINE
  5
126D
330
10FA
100
AcDbEntity
  8
0
 62
     0
100
AcDbLine
 10
10.37110634279886
 20
7.92352857514578
 30
0.0
 11
11.77110634279887
 21
9.323528575145815
 31
0.0
  0
LINE
  5
126E
330
10FA
100
AcDbEntity
  8
0
 62
     0
100
AcDbLine
 10
7.921106342798879
 20
5.473528575145792
 30
0.0
 11
9.153136376335567
 21
6.70555860868248
 31
0.0
  0
LINE
  5
126F
330
10FA
100
AcDbEntity
  8
0
 62
     0
100
AcDbLine
 10
12.67257731520567
 20
10.22499954755261
 30
0.0
 11
13.69610634279891
 21
11.24852857514585
 31
0.0
  0
LINE
  5
1270
330
10FA
100
AcDbEntity
  8
0
 62
     0
100
AcDbLine
 10
6.051440252835647
 20
3.603862485182588
 30
0.0
 11
7.422577315205671
 21
4.974999547552613
 31
0.0
  0
LINE
  5
1271
330
10FA
100
AcDbEntity
  8
0
 62
     0
100
AcDbLine
 10
10.37110634279883
 20
8.372541381199255
 30
0.0
 11
11.85401369568864
 21
9.855448734089065
 31
0.0
  0
LINE
  5
1272
330
10FA
100
AcDbEntity
  8
0
 62
     0
100
AcDbLine
 10
7.920026796994193
 20
5.92146183539458
 30
0.0
 11
8.998920608999497
 21
7.000355647399914
 31
0.0
  0
LINE
  5
1273
330
10FA
100
AcDbEntity
  8
0
 62
     0
100
AcDbLine
 10
12.14065715626242
 20
10.14209219466283
 30
0.0
 11
13.57937263533887
 21
11.58080767373928
 31
0.0
  0
LINE
  5
1274
330
10FA
100
AcDbEntity
  8
0
 62
     0
100
AcDbLine
 10
5.908606342798861
 20
3.910041381199278
 30
0.0
 11
6.973564509152225
 21
4.974999547552613
 31
0.0
  0
LINE
  5
1275
330
10FA
100
AcDbEntity
  8
0
 62
     0
100
AcDbLine
 10
7.810225287243838
 20
6.260673131697728
 30
0.0
 11
8.807799626580049
 21
7.258247471033939
 31
0.0
  0
LINE
  5
1276
330
10FA
100
AcDbEntity
  8
0
 62
     0
100
AcDbLine
 10
10.37110634279883
 20
8.821554187252729
 30
0.0
 11
13.17455170309878
 21
11.62499954755267
 31
0.0
  0
LINE
  5
1277
330
10FA
100
AcDbEntity
  8
0
 62
     0
100
AcDbLine
 10
5.908606342798861
 20
4.359054187252723
 30
0.0
 11
6.524551703098751
 21
4.974999547552641
 31
0.0
  0
LINE
  5
1278
330
10FA
100
AcDbEntity
  8
0
 62
     0
100
AcDbLine
 10
7.597097873091513
 20
6.496558523598821
 30
0.0
 11
8.58704736675267
 21
7.486508017259978
 31
0.0
  0
LINE
  5
1279
330
10FA
100
AcDbEntity
  8
0
 62
     0
100
AcDbLine
 10
10.37110634279883
 20
9.270566993306147
 30
0.0
 11
12.72553889704525
 21
11.62499954755256
 31
0.0
  0
LINE
  5
127A
330
10FA
100
AcDbEntity
  8
0
 62
     0
100
AcDbLine
 10
5.943082303808694
 20
4.842542954316002
 30
0.0
 11
6.041062936035501
 21
4.940523586542809
 31
0.0
  0
LINE
  5
127B
330
10FA
100
AcDbEntity
  8
0
 62
     0
100
AcDbLine
 10
10.38109389987707
 20
9.729567356437826
 30
0.0
 11
12.26653853391357
 21
11.61501199047435
 31
0.0
  0
LINE
  5
127C
330
10FA
100
AcDbEntity
  8
0
 62
     0
100
AcDbLine
 10
7.372591470064776
 20
6.721064926625558
 30
0.0
 11
8.362540963725933
 21
7.711014420286716
 31
0.0
  0
LINE
  5
127D
330
10FA
100
AcDbEntity
  8
0
 62
     0
100
AcDbLine
 10
10.53082561600996
 20
10.32831187862422
 30
0.0
 11
11.66779401172721
 21
11.46528027434146
 31
0.0
  0
LINE
  5
127E
330
10FA
100
AcDbEntity
  8
0
 62
     0
100
AcDbLine
 10
7.148085067038039
 20
6.945571329652295
 30
0.0
 11
8.138034560699196
 21
7.935520823313453
 31
0.0
  0
LINE
  5
127F
330
10FA
100
AcDbEntity
  8
0
 62
     0
100
AcDbLine
 10
6.92357866401133
 20
7.170077732679004
 30
0.0
 11
7.913528157672487
 21
8.160027226340162
 31
0.0
  0
LINE
  5
1280
330
10FA
100
AcDbEntity
  8
0
 62
     0
100
AcDbLine
 10
6.699072260984593
 20
7.394584135705741
 30
0.0
 11
7.68902175464575
 21
8.384533629366899
 31
0.0
  0
LINE
  5
1281
330
10FA
100
AcDbEntity
  8
0
 62
     0
100
AcDbLine
 10
6.474565857957827
 20
7.61909053873245
 30
0.0
 11
7.464515351619013
 21
8.609040032393636
 31
0.0
  0
LINE
  5
1282
330
10FA
100
AcDbEntity
  8
0
 62
     0
100
AcDbLine
 10
8.631462060724544
 20
10.22499954755261
 30
0.0
 11
9.058606342798867
 21
10.65214382962696
 31
0.0
  0
LINE
  5
1283
330
10FA
100
AcDbEntity
  8
0
 62
     0
100
AcDbLine
 10
6.250101111945156
 20
7.843638598773253
 30
0.0
 11
7.240133933661439
 21
8.833671420489537
 31
0.0
  0
LINE
  5
1284
330
10FA
100
AcDbEntity
  8
0
 62
     0
100
AcDbLine
 10
8.182449254671098
 20
10.22499954755261
 30
0.0
 11
9.058606342798896
 21
11.10115663568038
 31
0.0
  0
LINE
  5
1285
330
10FA
100
AcDbEntity
  8
0
 62
     0
100
AcDbLine
 10
6.044367149669369
 20
8.086917442550856
 30
0.0
 11
7.075185493017499
 21
9.117735785899014
 31
0.0
  0
LINE
  5
1286
330
10FA
100
AcDbEntity
  8
0
 62
     0
100
AcDbLine
 10
7.733436448617624
 20
10.22499954755261
 30
0.0
 11
9.015326892918295
 21
11.50688999185328
 31
0.0
  0
LINE
  5
1287
330
10FA
100
AcDbEntity
  8
0
 62
     0
100
AcDbLine
 10
5.874136846538135
 20
8.365699945473096
 30
0.0
 11
7.04610634279885
 21
9.537669441733811
 31
0.0
  0
LINE
  5
1288
330
10FA
100
AcDbEntity
  8
0
 62
     0
100
AcDbLine
 10
7.283190317979148
 20
10.22376622296761
 30
0.0
 11
8.684423642564155
 21
11.62499954755261
 31
0.0
  0
LINE
  5
1289
330
10FA
100
AcDbEntity
  8
0
 62
     0
100
AcDbLine
 10
5.743790198672087
 20
8.684366103660522
 30
0.0
 11
7.047339667383937
 21
9.987915572372401
 31
0.0
  0
LINE
  5
128A
330
10FA
100
AcDbEntity
  8
0
 62
     0
100
AcDbLine
 10
5.662884217548054
 20
9.052472928589935
 30
0.0
 11
8.235410836510766
 21
11.62499954755264
 31
0.0
  0
LINE
  5
128B
330
10FA
100
AcDbEntity
  8
0
 62
     0
100
AcDbLine
 10
5.646106342798901
 20
9.484707859894228
 30
0.0
 11
7.786398030457263
 21
11.62499954755261
 31
0.0
  0
LINE
  5
128C
330
10FA
100
AcDbEntity
  8
0
 62
     0
100
AcDbLine
 10
5.646106342798873
 20
9.933720665947703
 30
0.0
 11
7.337385224403789
 21
11.62499954755261
 31
0.0
  0
LINE
  5
128D
330
10FA
100
AcDbEntity
  8
0
 62
     0
100
AcDbLine
 10
5.656202348018041
 20
10.39282947722031
 30
0.0
 11
6.878276413131175
 21
11.61490354233345
 31
0.0
  0
ENDBLK
  5
128F
330
10FA
100
AcDbEntity
  8
0
100
AcDbBlockEnd
  0
BLOCK
  5
3765
330
375B
100
AcDbEntity
  8
0
100
AcDbBlockBegin
  2
*D2
 70
     1
 10
0.0
 20
0.0
 30
0.0
  3
*D2
  1

  0
LINE
  5
43E6
330
375B
100
AcDbEntity
  8
SUNPOU
 62
     4
370
    -2
100
AcDbLine
 10
223.8604986729712
 20
121.9894992905709
 30
0.0
 11
286.806680931963
 21
118.690629664032
 31
0.0
  0
LINE
  5
43E7
330
375B
100
AcDbEntity
  8
SUNPOU
 62
     4
370
    -2
100
AcDbLine
 10
220.7203412983951
 20
62.07172720529785
 30
0.0
 11
283.666523557387
 21
58.772857578759
 31
0.0
  0
LINE
  5
43E8
330
375B
100
AcDbEntity
  8
SUNPOU
 62
     4
370
    -2
100
AcDbLine
 10
285.1517287611023
 20
115.7732449941327
 30
0.0
 11
282.3255871239839
 21
61.84725011738713
 31
0.0
  0
INSERT
  5
43E9
330
375B
100
AcDbEntity
  8
SUNPOU
 62
     4
370
    -2
100
AcDbBlockReference
  2
_OPEN
 10
285.3087366298311
 20
118.7691335983964
 30
0.0
 41
3.0
 42
3.0
 43
3.0
 50
87.00000000000041
  0
INSERT
  5
43EA
330
375B
100
AcDbEntity
  8
SUNPOU
 62
     4
370
    -2
100
AcDbBlockReference
  2
_OPEN
 10
282.1685792552551
 20
58.85136151312341
 30
0.0
 41
3.0
 42
3.0
 43
3.0
 50
267.0000000000004
  0
MTEXT
  5
43EB
330
375B
100
AcDbEntity
  8
SUNPOU
 62
     4
100
AcDbMText
 10
281.2420841056567
 20
88.94108744636724
 30
0.0
 40
3.0
 41
0.0
 71
     5
 72
     5
  1
\A1;φ60
 11
0.0523359562429362
 21
0.9986295347545743
 31
0.0
 73
     1
 44
1.0
1001
ACAD
1000
MTEXTBEGIN
1070
    73
1070
     1
1070
    44
1040
1.0
1070
    74
1070
     0
1000
MTEXTEND
  0
POINT
  5
43EC
330
375B
100
AcDbEntity
  8
DEFPOINTS
 62
     0
100
AcDbPoint
 10
220.8646100687075
 20
122.1465071592997
 30
0.0000000000028831
  0
POINT
  5
43ED
330
375B
100
AcDbEntity
  8
DEFPOINTS
 62
     0
100
AcDbPoint
 10
217.7244526941314
 20
62.22873507402665
 30
0.0000000000028831
  0
POINT
  5
43EE
330
375B
100
AcDbEntity
  8
DEFPOINTS
 62
     0
100
AcDbPoint
 10
282.1685792552551
 20
58.85136151312341
 30
0.0
  0
ENDBLK
  5
3766
330
375B
100
AcDbEntity
  8
0
100
AcDbBlockEnd
  0
BLOCK
  5
3771
330
3767
100
AcDbEntity
  8
0
100
AcDbBlockBegin
  2
*D3
 70
     1
 10
0.0
 20
0.0
 30
0.0
  3
*D3
  1

  0
LINE
  5
39AD
330
3767
100
AcDbEntity
  8
SUNPOU
 62
     4
370
    -2
100
AcDbLine
 10
255.7302972237346
 20
118.6584277371792
 30
0.0
 11
278.3248425233494
 21
117.4742977941162
 31
0.0
  0
LINE
  5
39AE
330
3767
100
AcDbEntity
  8
SUNPOU
 62
     4
370
    -2
100
AcDbLine
 10
252.7637455486153
 20
62.05324973302487
 30
0.0
 11
275.3582908482301
 21
60.86911978996187
 31
0.0
  0
LINE
  5
39AF
330
3767
100
AcDbEntity
  8
SUNPOU
 62
     4
370
    -2
100
AcDbLine
 10
276.6698903524886
 20
114.5569131242169
 30
0.0
 11
274.017354414827
 21
63.94351232859001
 31
0.0
  0
INSERT
  5
39B0
330
3767
100
AcDbEntity
  8
SUNPOU
 62
     4
370
    -2
100
AcDbBlockReference
  2
_OPEN
 10
276.8268982212175
 20
117.5528017284806
 30
0.0
 41
3.0
 42
3.0
 43
3.0
 50
86.99999999999969
  0
INSERT
  5
39B1
330
3767
100
AcDbEntity
  8
SUNPOU
 62
     4
370
    -2
100
AcDbBlockReference
  2
_OPEN
 10
273.8603465460982
 20
60.94762372432629
 30
0.0
 41
3.0
 42
3.0
 43
3.0
 50
266.9999999999997
  0
MTEXT
  5
39B2
330
3767
100
AcDbEntity
  8
SUNPOU
 62
     4
100
AcDbMText
 10
272.8470485467714
 20
89.38105261701084
 30
0.0
 40
3.0
 41
0.0
 71
     5
 72
     5
  1
\A1;φ57
 11
0.0523359562429486
 21
0.9986295347545736
 31
0.0
 73
     1
 44
1.0
1001
ACAD
1000
MTEXTBEGIN
1070
    73
1070
     1
1070
    44
1040
1.0
1070
    74
1070
     0
1000
MTEXTEND
1000
MTEXTBEGIN
1070
    73
1070
     1
1070
    44
1040
1.0
1070
    74
1070
     0
1000
MTEXTEND
  0
POINT
  5
39B3
330
3767
100
AcDbEntity
  8
DEFPOINTS
 62
     0
100
AcDbPoint
 10
252.7344086194708
 20
118.815435605908
 30
0.0000000000028831
  0
POINT
  5
39B4
330
3767
100
AcDbEntity
  8
DEFPOINTS
 62
     0
100
AcDbPoint
 10
249.7678569443515
 20
62.21025760175372
 30
0.0000000000028831
  0
POINT
  5
39B5
330
3767
100
AcDbEntity
  8
DEFPOINTS
 62
     0
100
AcDbPoint
 10
273.8603465460982
 20
60.94762372432629
 30
0.0
  0
ENDBLK
  5
3772
330
3767
100
AcDbEntity
  8
0
100
AcDbBlockEnd
  0
BLOCK
  5
377D
330
3773
100
AcDbEntity
  8
0
100
AcDbBlockBegin
  2
*D4
 70
     1
 10
0.0
 20
0.0
 30
0.0
  3
*D4
  1

  0
LINE
  5
3964
330
3773
100
AcDbEntity
  8
SUNPOU
 62
     4
370
    -2
100
AcDbLine
 10
159.6163231502652
 20
126.4619271046053
 30
0.0
 11
159.6163231502652
 21
179.7814059487323
 31
0.0
  0
LINE
  5
3965
330
3773
100
AcDbEntity
  8
SUNPOU
 62
     4
370
    -2
100
AcDbLine
 10
219.6163231502652
 20
126.4619271046053
 30
0.0
 11
219.6163231502652
 21
179.7814059487323
 31
0.0
  0
LINE
  5
3966
330
3773
100
AcDbEntity
  8
SUNPOU
 62
     4
370
    -2
100
AcDbLine
 10
162.6163231502651
 20
178.2814059487322
 30
0.0
 11
216.6163231502652
 21
178.2814059487322
 31
0.0
  0
INSERT
  5
3967
330
3773
100
AcDbEntity
  8
SUNPOU
 62
     4
370
    -2
100
AcDbBlockReference
  2
_OPEN
 10
159.6163231502652
 20
178.2814059487322
 30
0.0
 41
3.0
 42
3.0
 43
3.0
 50
180.0
  0
INSERT
  5
3968
330
3773
100
AcDbEntity
  8
SUNPOU
 62
     4
370
    -2
100
AcDbBlockReference
  2
_OPEN
 10
219.6163231502652
 20
178.2814059487322
 30
0.0
 41
3.0
 42
3.0
 43
3.0
  0
MTEXT
  5
3969
330
3773
100
AcDbEntity
  8
SUNPOU
 62
     4
100
AcDbMText
 10
189.6163231502652
 20
180.7814059487323
 30
0.0
 40
3.0
 41
0.0
 71
     5
 72
     5
  1
\A1;φ60
 73
     1
 44
1.0
1001
ACAD
1000
MTEXTBEGIN
1070
    73
1070
     1
1070
    44
1040
1.0
1070
    74
1070
     0
1000
MTEXTEND
1000
MTEXTBEGIN
1070
    73
1070
     1
1070
    44
1040
1.0
1070
    74
1070
     0
1000
MTEXTEND
  0
POINT
  5
396A
330
3773
100
AcDbEntity
  8
DEFPOINTS
 62
     0
100
AcDbPoint
 10
159.6163231502652
 20
123.4619271046053
 30
0.0000000000028831
  0
POINT
  5
396B
330
3773
100
AcDbEntity
  8
DEFPOINTS
 62
     0
100
AcDbPoint
 10
219.6163231502652
 20
123.4619271046053
 30
0.0000000000028831
  0
POINT
  5
396C
330
3773
100
AcDbEntity
  8
DEFPOINTS
 62
     0
100
AcDbPoint
 10
219.6163231502652
 20
178.2814059487322
 30
0.0
  0
ENDBLK
  5
377E
330
3773
100
AcDbEntity
  8
0
100
AcDbBlockEnd
  0
BLOCK
  5
3789
330
377F
100
AcDbEntity
  8
0
100
AcDbBlockBegin
  2
*D5
 70
     1
 10
0.0
 20
0.0
 30
0.0
  3
*D5
  1

  0
LINE
  5
43DD
330
377F
100
AcDbEntity
  8
SUNPOU
 62
     4
370
    -2
100
AcDbLine
 10
161.2748932034402
 20
158.4623840191366
 30
0.0
 11
161.2748932034402
 21
171.7520760246824
 31
0.0
  0
LINE
  5
43DE
330
377F
100
AcDbEntity
  8
SUNPOU
 62
     4
370
    -2
100
AcDbLine
 10
217.9577530970902
 20
158.4623840191366
 30
0.0
 11
217.9577530970902
 21
171.7520760246824
 31
0.0
  0
LINE
  5
43DF
330
377F
100
AcDbEntity
  8
SUNPOU
 62
     4
370
    -2
100
AcDbLine
 10
164.2748932034402
 20
170.2520760246824
 30
0.0
 11
214.9577530970901
 21
170.2520760246824
 31
0.0
  0
INSERT
  5
43E0
330
377F
100
AcDbEntity
  8
SUNPOU
 62
     4
370
    -2
100
AcDbBlockReference
  2
_OPEN
 10
161.2748932034402
 20
170.2520760246824
 30
0.0
 41
3.0
 42
3.0
 43
3.0
 50
180.0
  0
INSERT
  5
43E1
330
377F
100
AcDbEntity
  8
SUNPOU
 62
     4
370
    -2
100
AcDbBlockReference
  2
_OPEN
 10
217.9577530970902
 20
170.2520760246824
 30
0.0
 41
3.0
 42
3.0
 43
3.0
  0
MTEXT
  5
43E2
330
377F
100
AcDbEntity
  8
SUNPOU
 62
     4
100
AcDbMText
 10
189.6163231502652
 20
172.7520760246824
 30
0.0
 40
3.0
 41
0.0
 71
     5
 72
     5
  1
\A1;φ57
 73
     1
 44
1.0
1001
ACAD
1000
MTEXTBEGIN
1070
    73
1070
     1
1070
    44
1040
1.0
1070
    74
1070
     0
1000
MTEXTEND
  0
POINT
  5
43E3
330
377F
100
AcDbEntity
  8
DEFPOINTS
 62
     0
100
AcDbPoint
 10
161.2748932034402
 20
155.4623840191366
 30
0.0000000000028831
  0
POINT
  5
43E4
330
377F
100
AcDbEntity
  8
DEFPOINTS
 62
     0
100
AcDbPoint
 10
217.9577530970902
 20
155.4623840191366
 30
0.0000000000028831
  0
POINT
  5
43E5
330
377F
100
AcDbEntity
  8
DEFPOINTS
 62
     0
100
AcDbPoint
 10
217.9577530970902
 20
170.2520760246824
 30
0.0
  0
ENDBLK
  5
378A
330
377F
100
AcDbEntity
  8
0
100
AcDbBlockEnd
  0
BLOCK
  5
3796
330
378B
100
AcDbEntity
  8
0
100
AcDbBlockBegin
  2
*D6
 70
     1
 10
0.0
 20
0.0
 30
0.0
  3
*D6
  1

  0
LINE
  5
444E
330
378B
100
AcDbEntity
  8
SUNPOU
 62
     4
100
AcDbLine
 10
189.6163231502652
 20
83.67734303253973
 30
0.0
 11
189.6163231502652
 21
72.13715053827965
 31
0.0
  0
ARC
  5
444F
330
378B
100
AcDbEntity
  8
SUNPOU
 62
     4
100
AcDbCircle
 10
189.6163231502652
 20
93.74299010315869
 30
0.0
 40
20.10583956487904
100
AcDbArc
 50
278.5570757175356
 51
348.4429242824635
  0
INSERT
  5
4450
330
378B
100
AcDbEntity
  8
SUNPOU
 62
     4
100
AcDbBlockReference
  2
_OPEN
 10
189.6163231502652
 20
73.63715053827964
 30
0.0
 41
2.999999999999999
 42
3.0
 43
3.0
 50
184.2785378587677
  0
INSERT
  5
4451
330
378B
100
AcDbEntity
  8
SUNPOU
 62
     4
100
AcDbBlockReference
  2
_OPEN
 10
209.6946083607905
 20
92.69073176346328
 30
0.0
 41
3.0
 42
3.0
 43
3.0
 50
82.72146214123139
  0
MTEXT
  5
4452
330
378B
100
AcDbEntity
  8
SUNPOU
 62
     4
100
AcDbMText
 10
204.7123148026062
 20
84.68337516560707
 30
0.0
 40
3.0
 41
0.0
 71
     5
 72
     5
  1
\A1;87°
 11
0.5145801144084138
 21
0.8574423046802763
 31
0.0
 73
     1
 44
1.0
  0
POINT
  5
4453
330
378B
100
AcDbEntity
  8
DEFPOINTS
 62
     0
100
AcDbPoint
 10
199.3638275944478
 20
76.15802659113247
 30
0.0
  0
POINT
  5
4454
330
378B
100
AcDbEntity
  8
DEFPOINTS
 62
     0
100
AcDbPoint
 10
263.2819484545744
 20
89.88233827146222
 30
0.0000000000028831
  0
POINT
  5
4455
330
378B
100
AcDbEntity
  8
DEFPOINTS
 62
     0
100
AcDbPoint
 10
189.6163231502652
 20
165.1411852183268
 30
0.0000000000028831
  0
POINT
  5
4456
330
378B
100
AcDbEntity
  8
DEFPOINTS
 62
     0
100
AcDbPoint
 10
189.6163231502652
 20
86.67734303253974
 30
0.0000000000028831
  0
POINT
  5
4457
330
378B
100
AcDbEntity
  8
DEFPOINTS
 62
     0
100
AcDbPoint
 10
183.5697670927294
 20
94.05987667844465
 30
0.0000000000028831
  0
ENDBLK
  5
3797
330
378B
100
AcDbEntity
  8
0
100
AcDbBlockEnd
  0
BLOCK
  5
37A2
330
3798
100
AcDbEntity
  8
0
100
AcDbBlockBegin
  2
*D7
 70
     1
 10
0.0
 20
0.0
 30
0.0
  3
*D7
  1

  0
LINE
  5
43EF
330
3798
100
AcDbEntity
  8
SUNPOU
 62
     4
370
    -2
100
AcDbLine
 10
158.6272504227518
 20
158.4619271046053
 30
0.0
 11
143.3521071032333
 21
158.4619271046053
 31
0.0
  0
LINE
  5
43F0
330
3798
100
AcDbEntity
  8
SUNPOU
 62
     4
370
    -2
100
AcDbLine
 10
156.6163231502652
 20
123.4619271046053
 30
0.0
 11
143.3521071032333
 21
123.4619271046053
 31
0.0
  0
LINE
  5
43F1
330
3798
100
AcDbEntity
  8
SUNPOU
 62
     4
370
    -2
100
AcDbLine
 10
144.8521071032333
 20
155.4619271046053
 30
0.0
 11
144.8521071032333
 21
126.4619271046053
 31
0.0
  0
INSERT
  5
43F2
330
3798
100
AcDbEntity
  8
SUNPOU
 62
     4
370
    -2
100
AcDbBlockReference
  2
_OPEN
 10
144.8521071032333
 20
158.4619271046053
 30
0.0
 41
3.0
 42
3.0
 43
3.0
 50
90.0
  0
INSERT
  5
43F3
330
3798
100
AcDbEntity
  8
SUNPOU
 62
     4
370
    -2
100
AcDbBlockReference
  2
_OPEN
 10
144.8521071032333
 20
123.4619271046053
 30
0.0
 41
3.0
 42
3.0
 43
3.0
 50
270.0
  0
MTEXT
  5
43F4
330
3798
100
AcDbEntity
  8
SUNPOU
 62
     4
100
AcDbMText
 10
142.3521071032333
 20
140.9619271046054
 30
0.0
 40
3.0
 41
0.0
 71
     5
 72
     5
  1
\A1;※35
 11
0.0000000000000001
 21
1.0
 31
0.0
 73
     1
 44
1.0
1001
ACAD
1000
MTEXTBEGIN
1070
    73
1070
     1
1070
    44
1040
1.0
1070
    74
1070
     0
1000
MTEXTEND
  0
POINT
  5
43F5
330
3798
100
AcDbEntity
  8
DEFPOINTS
 62
     0
100
AcDbPoint
 10
161.6272504227518
 20
158.4619271046053
 30
0.0000000000028831
  0
POINT
  5
43F6
330
3798
100
AcDbEntity
  8
DEFPOINTS
 62
     0
100
AcDbPoint
 10
159.6163231502652
 20
123.4619271046053
 30
0.0000000000028831
  0
POINT
  5
43F7
330
3798
100
AcDbEntity
  8
DEFPOINTS
 62
     0
100
AcDbPoint
 10
144.8521071032333
 20
123.4619271046053
 30
0.0
  0
ENDBLK
  5
37A3
330
3798
100
AcDbEntity
  8
0
100
AcDbBlockEnd
  0
BLOCK
  5
37AE
330
37A4
100
AcDbEntity
  8
0
100
AcDbBlockBegin
  2
*D8
 70
     1
 10
0.0
 20
0.0
 30
0.0
  3
*D8
  1

  0
LINE
  5
3992
330
37A4
100
AcDbEntity
  8
SUNPOU
 62
     4
370
    -2
100
AcDbLine
 10
158.6272504227518
 20
158.4619271046053
 30
0.0
 11
134.742549523935
 21
158.4619271046053
 31
0.0
  0
LINE
  5
3993
330
37A4
100
AcDbEntity
  8
SUNPOU
 62
     4
370
    -2
100
AcDbLine
 10
186.6163231502651
 20
93.7429901031578
 30
0.0
 11
134.742549523935
 21
93.74299010315782
 31
0.0
  0
LINE
  5
3994
330
37A4
100
AcDbEntity
  8
SUNPOU
 62
     4
370
    -2
100
AcDbLine
 10
136.242549523935
 20
155.4619271046053
 30
0.0
 11
136.242549523935
 21
96.74299010315783
 31
0.0
  0
INSERT
  5
3995
330
37A4
100
AcDbEntity
  8
SUNPOU
 62
     4
370
    -2
100
AcDbBlockReference
  2
_OPEN
 10
136.242549523935
 20
158.4619271046053
 30
0.0
 41
3.0
 42
3.0
 43
3.0
 50
90.0
  0
INSERT
  5
3996
330
37A4
100
AcDbEntity
  8
SUNPOU
 62
     4
370
    -2
100
AcDbBlockReference
  2
_OPEN
 10
136.242549523935
 20
93.74299010315782
 30
0.0
 41
3.0
 42
3.0
 43
3.0
 50
270.0
  0
MTEXT
  5
3997
330
37A4
100
AcDbEntity
  8
SUNPOU
 62
     4
100
AcDbMText
 10
133.742549523935
 20
126.1024586038816
 30
0.0
 40
3.0
 41
0.0
 71
     5
 72
     5
  1
\A1;65
 11
0.0000000000000001
 21
1.0
 31
0.0
 73
     1
 44
1.0
1001
ACAD
1000
MTEXTBEGIN
1070
    73
1070
     1
1070
    44
1040
1.0
1070
    74
1070
     0
1000
MTEXTEND
1000
MTEXTBEGIN
1070
    73
1070
     1
1070
    44
1040
1.0
1070
    74
1070
     0
1000
MTEXTEND
  0
POINT
  5
3998
330
37A4
100
AcDbEntity
  8
DEFPOINTS
 62
     0
100
AcDbPoint
 10
161.6272504227518
 20
158.4619271046053
 30
0.0000000000028831
  0
POINT
  5
3999
330
37A4
100
AcDbEntity
  8
DEFPOINTS
 62
     0
100
AcDbPoint
 10
189.6163231502652
 20
93.7429901031578
 30
0.0000000000028831
  0
POINT
  5
399A
330
37A4
100
AcDbEntity
  8
DEFPOINTS
 62
     0
100
AcDbPoint
 10
136.242549523935
 20
93.74299010315782
 30
0.0
  0
ENDBLK
  5
37AF
330
37A4
100
AcDbEntity
  8
0
100
AcDbBlockEnd
  0
BLOCK
  5
37BA
330
37B0
100
AcDbEntity
  8
0
100
AcDbBlockBegin
  2
*D9
 70
     1
 10
0.0
 20
0.0
 30
0.0
  3
*D9
  1

  0
LINE
  5
43F8
330
37B0
100
AcDbEntity
  8
SUNPOU
 62
     4
370
    -2
100
AcDbLine
 10
217.5674448254025
 20
59.23284646976291
 30
0.0
 11
216.7373428939817
 21
43.39355805157261
 31
0.0
  0
LINE
  5
43F9
330
37B0
100
AcDbEntity
  8
SUNPOU
 62
     4
370
    -2
100
AcDbLine
 10
252.519478541812
 20
57.4010880012601
 30
0.0
 11
251.6893766103911
 21
41.56179958306978
 31
0.0
  0
LINE
  5
43FA
330
37B0
100
AcDbEntity
  8
SUNPOU
 62
     4
370
    -2
100
AcDbLine
 10
219.8117354326098
 20
44.73449448497565
 30
0.0
 11
248.7719919404919
 21
43.21675175393046
 31
0.0
  0
INSERT
  5
43FB
330
37B0
100
AcDbEntity
  8
SUNPOU
 62
     4
370
    -2
100
AcDbBlockReference
  2
_OPEN
 10
216.8158468283461
 20
44.89150235370447
 30
0.0
 41
3.0
 42
3.0
 43
3.0
 50
177.0000000000002
  0
INSERT
  5
43FC
330
37B0
100
AcDbEntity
  8
SUNPOU
 62
     4
370
    -2
100
AcDbBlockReference
  2
_OPEN
 10
251.7678805447555
 20
43.05974388520165
 30
0.0
 41
3.0
 42
3.0
 43
3.0
 50
357.0000000000002
  0
MTEXT
  5
43FD
330
37B0
100
AcDbEntity
  8
SUNPOU
 62
     4
100
AcDbMText
 10
234.4227035771581
 20
46.4721969563395
 30
0.0
 40
3.0
 41
0.0
 71
     5
 72
     5
  1
\A1;※35
 11
0.9986295347545741
 21
-0.0523359562429388
 31
0.0
 73
     1
 44
1.0
1001
ACAD
1000
MTEXTBEGIN
1070
    73
1070
     1
1070
    44
1040
1.0
1070
    74
1070
     0
1000
MTEXTEND
  0
POINT
  5
43FE
330
37B0
100
AcDbEntity
  8
DEFPOINTS
 62
     0
100
AcDbPoint
 10
217.7244526941314
 20
62.22873507402664
 30
0.0000000000028831
  0
POINT
  5
43FF
330
37B0
100
AcDbEntity
  8
DEFPOINTS
 62
     0
100
AcDbPoint
 10
252.6764864105408
 20
60.39697660552383
 30
0.0
  0
POINT
  5
4400
330
37B0
100
AcDbEntity
  8
DEFPOINTS
 62
     0
100
AcDbPoint
 10
251.7678805447555
 20
43.05974388520165
 30
0.0
  0
ENDBLK
  5
37BB
330
37B0
100
AcDbEntity
  8
0
100
AcDbBlockEnd
  0
BLOCK
  5
37C6
330
37BC
100
AcDbEntity
  8
0
100
AcDbBlockBegin
  2
*D10
 70
     1
 10
0.0
 20
0.0
 30
0.0
  3
*D10
  1

  0
LINE
  5
3989
330
37BC
100
AcDbEntity
  8
SUNPOU
 62
     4
370
    -2
100
AcDbLine
 10
189.4593152815364
 20
90.7471014988941
 30
0.0
 11
186.5787816031158
 21
35.78324464732932
 31
0.0
  0
LINE
  5
398A
330
37BC
100
AcDbEntity
  8
SUNPOU
 62
     4
370
    -2
100
AcDbLine
 10
254.0895572291015
 20
87.35997404389756
 30
0.0
 11
251.2090235506809
 21
32.39611719233279
 31
0.0
  0
LINE
  5
398B
330
37BC
100
AcDbEntity
  8
SUNPOU
 62
     4
370
    -2
100
AcDbLine
 10
189.6531741417439
 20
37.1241810807324
 30
0.0
 11
248.2916388807816
 21
34.05106936319345
 31
0.0
  0
INSERT
  5
398C
330
37BC
100
AcDbEntity
  8
SUNPOU
 62
     4
370
    -2
100
AcDbBlockReference
  2
_OPEN
 10
186.6572855374802
 20
37.28118894946119
 30
0.0
 41
3.0
 42
3.0
 43
3.0
 50
177.0000000000009
  0
INSERT
  5
398D
330
37BC
100
AcDbEntity
  8
SUNPOU
 62
     4
370
    -2
100
AcDbBlockReference
  2
_OPEN
 10
251.2875274850453
 20
33.89406149446466
 30
0.0
 41
3.0
 42
3.0
 43
3.0
 50
357.0000000000009
  0
MTEXT
  5
398E
330
37BC
100
AcDbEntity
  8
SUNPOU
 62
     4
100
AcDbMText
 10
219.10324640187
 20
38.08419905884935
 30
0.0
 40
3.0
 41
0.0
 71
     5
 72
     5
  1
\A1;65
 11
0.9986295347545746
 21
-0.0523359562429282
 31
0.0
 73
     1
 44
1.0
1001
ACAD
1000
MTEXTBEGIN
1070
    73
1070
     1
1070
    44
1040
1.0
1070
    74
1070
     0
1000
MTEXTEND
1000
MTEXTBEGIN
1070
    73
1070
     1
1070
    44
1040
1.0
1070
    74
1070
     0
1000
MTEXTEND
  0
POINT
  5
398F
330
37BC
100
AcDbEntity
  8
DEFPOINTS
 62
     0
100
AcDbPoint
 10
189.6163231502652
 20
93.74299010315782
 30
0.0000000000028831
  0
POINT
  5
3990
330
37BC
100
AcDbEntity
  8
DEFPOINTS
 62
     0
100
AcDbPoint
 10
254.2465650978303
 20
90.3558626481613
 30
0.0000000000028831
  0
POINT
  5
3991
330
37BC
100
AcDbEntity
  8
DEFPOINTS
 62
     0
100
AcDbPoint
 10
251.2875274850453
 20
33.89406149446466
 30
0.0
  0
ENDBLK
  5
37C7
330
37BC
100
AcDbEntity
  8
0
100
AcDbBlockEnd
  0
BLOCK
  5
402C
330
3E98
100
AcDbEntity
  8
0
100
AcDbBlockBegin
  2
*X11
 70
     1
 10
0.0
 20
0.0
 30
0.0
  3
*X11
  1

  0
LINE
  5
3E99
330
3E98
100
AcDbEntity
  8
0
 62
     0
100
AcDbLine
 10
79.04221142834842
 20
32.60416930422588
 30
0.0
 11
78.3963804986335
 21
33.25000023394085
 31
0.0
  0
LINE
  5
3E9A
330
3E98
100
AcDbEntity
  8
0
 62
     0
100
AcDbLine
 10
79.04221142834842
 20
31.70614369211898
 30
0.0
 11
77.49835488652656
 21
33.25000023394085
 31
0.0
  0
LINE
  5
3E9B
330
3E98
100
AcDbEntity
  8
0
 62
     0
100
AcDbLine
 10
79.04221142834837
 20
30.80811808001203
 30
0.0
 11
76.62107748233342
 21
33.22925202602698
 31
0.0
  0
LINE
  5
3E9C
330
3E98
100
AcDbEntity
  8
0
 62
     0
100
AcDbLine
 10
79.04221142834842
 20
29.9100924679052
 30
0.0
 11
76.24221142834835
 21
32.71009246790521
 31
0.0
  0
LINE
  5
3E9D
330
3E98
100
AcDbEntity
  8
0
 62
     0
100
AcDbLine
 10
79.04221142834842
 20
29.01206685579825
 30
0.0
 11
76.24221142834835
 21
31.81206685579832
 31
0.0
  0
LINE
  5
3E9E
330
3E98
100
AcDbEntity
  8
0
 62
     0
100
AcDbLine
 10
79.04221142834837
 20
28.1140412436913
 30
0.0
 11
76.2422114283483
 21
30.91404124369137
 31
0.0
  0
LINE
  5
3E9F
330
3E98
100
AcDbEntity
  8
0
 62
     0
100
AcDbLine
 10
74.14221142834833
 20
32.1160156315845
 30
0.0
 11
73.00822682599203
 21
33.25000023394085
 31
0.0
  0
LINE
  5
3EA0
330
3E98
100
AcDbEntity
  8
0
 62
     0
100
AcDbLine
 10
79.04221142834842
 20
27.21601563158447
 30
0.0
 11
76.24221142834835
 21
30.01601563158454
 31
0.0
  0
LINE
  5
3EA1
330
3E98
100
AcDbEntity
  8
0
 62
     0
100
AcDbLine
 10
74.14221142834833
 20
31.21799001947761
 30
0.0
 11
72.11020121388509
 21
33.25000023394079
 31
0.0
  0
LINE
  5
3EA2
330
3E98
100
AcDbEntity
  8
0
 62
     0
100
AcDbLine
 10
79.04221142834837
 20
26.31799001947752
 30
0.0
 11
76.24221142834835
 21
29.11799001947759
 31
0.0
  0
LINE
  5
3EA3
330
3E98
100
AcDbEntity
  8
0
 62
     0
100
AcDbLine
 10
74.14221142834833
 20
30.31996440737066
 30
0.0
 11
71.43670046321125
 21
33.02547537250774
 31
0.0
  0
LINE
  5
3EA4
330
3E98
100
AcDbEntity
  8
0
 62
     0
100
AcDbLine
 10
79.04221142834837
 20
25.41996440737062
 30
0.0
 11
76.2422114283483
 21
28.21996440737064
 31
0.0
  0
LINE
  5
3EA5
330
3E98
100
AcDbEntity
  8
0
 62
     0
100
AcDbLine
 10
74.14221142834844
 20
29.42193879526366
 30
0.0
 11
71.34221142834826
 21
32.22193879526378
 31
0.0
  0
LINE
  5
3EA6
330
3E98
100
AcDbEntity
  8
0
 62
     0
100
AcDbLine
 10
79.04221142834842
 20
24.52193879526368
 30
0.0
 11
76.24221142834835
 21
27.32193879526374
 31
0.0
  0
LINE
  5
3EA7
330
3E98
100
AcDbEntity
  8
0
 62
     0
100
AcDbLine
 10
74.14221142834839
 20
28.52391318315676
 30
0.0
 11
71.34221142834826
 21
31.32391318315694
 31
0.0
  0
LINE
  5
3EA8
330
3E98
100
AcDbEntity
  8
0
 62
     0
100
AcDbLine
 10
79.04221142834837
 20
23.62391318315678
 30
0.0
 11
76.2422114283483
 21
26.42391318315685
 31
0.0
  0
LINE
  5
3EA9
330
3E98
100
AcDbEntity
  8
0
 62
     0
100
AcDbLine
 10
74.14221142834839
 20
27.62588757104987
 30
0.0
 11
71.34221142834826
 21
30.42588757104999
 31
0.0
  0
LINE
  5
3EAA
330
3E98
100
AcDbEntity
  8
0
 62
     0
100
AcDbLine
 10
79.04221142834837
 20
22.72588757104989
 30
0.0
 11
76.2422114283483
 21
25.52588757104996
 31
0.0
  0
LINE
  5
3EAB
330
3E98
100
AcDbEntity
  8
0
 62
     0
100
AcDbLine
 10
74.14221142834833
 20
26.72786195894292
 30
0.0
 11
71.34221142834821
 21
29.52786195894304
 31
0.0
  0
LINE
  5
3EAC
330
3E98
100
AcDbEntity
  8
0
 62
     0
100
AcDbLine
 10
79.04221142834831
 20
21.82786195894294
 30
0.0
 11
76.2422114283483
 21
24.62786195894301
 31
0.0
  0
LINE
  5
3EAD
330
3E98
100
AcDbEntity
  8
0
 62
     0
100
AcDbLine
 10
74.14221142834839
 20
25.82983634683609
 30
0.0
 11
71.34221142834826
 21
28.62983634683621
 31
0.0
  0
LINE
  5
3EAE
330
3E98
100
AcDbEntity
  8
0
 62
     0
100
AcDbLine
 10
67.84221142834832
 20
32.12983634683615
 30
0.0
 11
66.72204754124368
 21
33.25000023394079
 31
0.0
  0
LINE
  5
3EAF
330
3E98
100
AcDbEntity
  8
0
 62
     0
100
AcDbLine
 10
79.04221142834837
 20
20.92983634683611
 30
0.0
 11
76.2422114283483
 21
23.72983634683612
 31
0.0
  0
LINE
  5
3EB0
330
3E98
100
AcDbEntity
  8
0
 62
     0
100
AcDbLine
 10
74.14221142834839
 20
24.93181073472914
 30
0.0
 11
71.34221142834821
 21
27.73181073472926
 31
0.0
  0
LINE
  5
3EB1
330
3E98
100
AcDbEntity
  8
0
 62
     0
100
AcDbLine
 10
67.84221142834827
 20
31.2318107347292
 30
0.0
 11
65.82402192913673
 21
33.25000023394079
 31
0.0
  0
LINE
  5
3EB2
330
3E98
100
AcDbEntity
  8
0
 62
     0
100
AcDbLine
 10
79.04221142834837
 20
20.03181073472916
 30
0.0
 11
76.2422114283483
 21
22.83181073472923
 31
0.0
  0
LINE
  5
3EB3
330
3E98
100
AcDbEntity
  8
0
 62
     0
100
AcDbLine
 10
74.14221142834833
 20
24.03378512262225
 30
0.0
 11
71.34221142834826
 21
26.83378512262226
 31
0.0
  0
LINE
  5
3EB4
330
3E98
100
AcDbEntity
  8
0
 62
     0
100
AcDbLine
 10
67.84221142834827
 20
30.33378512262231
 30
0.0
 11
65.14244870502427
 21
33.03354784594631
 31
0.0
  0
LINE
  5
3EB5
330
3E98
100
AcDbEntity
  8
0
 62
     0
100
AcDbLine
 10
79.04221142834831
 20
19.13378512262227
 30
0.0
 11
76.24221142834824
 21
21.93378512262228
 31
0.0
  0
LINE
  5
3EB6
330
3E98
100
AcDbEntity
  8
0
 62
     0
100
AcDbLine
 10
74.14221142834839
 20
23.1357595105153
 30
0.0
 11
71.34221142834832
 21
25.93575951051537
 31
0.0
  0
LINE
  5
3EB7
330
3E98
100
AcDbEntity
  8
0
 62
     0
100
AcDbLine
 10
67.84221142834832
 20
29.43575951051537
 30
0.0
 11
65.04221142834831
 21
32.23575951051538
 31
0.0
  0
LINE
  5
3EB8
330
3E98
100
AcDbEntity
  8
0
 62
     0
100
AcDbLine
 10
79.04221142834837
 20
18.23575951051532
 30
0.0
 11
76.2422114283483
 21
21.03575951051539
 31
0.0
  0
LINE
  5
3EB9
330
3E98
100
AcDbEntity
  8
0
 62
     0
100
AcDbLine
 10
74.14221142834833
 20
22.2377338984084
 30
0.0
 11
71.34221142834832
 21
25.03773389840847
 31
0.0
  0
LINE
  5
3EBA
330
3E98
100
AcDbEntity
  8
0
 62
     0
100
AcDbLine
 10
67.84221142834837
 20
28.53773389840842
 30
0.0
 11
65.04221142834831
 21
31.33773389840849
 31
0.0
  0
LINE
  5
3EBB
330
3E98
100
AcDbEntity
  8
0
 62
     0
100
AcDbLine
 10
78.97024607345855
 20
17.40969925329824
 30
0.0
 11
76.2422114283483
 21
20.13773389840849
 31
0.0
  0
LINE
  5
3EBC
330
3E98
100
AcDbEntity
  8
0
 62
     0
100
AcDbLine
 10
74.14221142834839
 20
21.3397082863014
 30
0.0
 11
71.34221142834826
 21
24.13970828630152
 31
0.0
  0
LINE
  5
3EBD
330
3E98
100
AcDbEntity
  8
0
 62
     0
100
AcDbLine
 10
67.84221142834832
 20
27.63970828630152
 30
0.0
 11
65.04221142834825
 21
30.43970828630154
 31
0.0
  0
LINE
  5
3EBE
330
3E98
100
AcDbEntity
  8
0
 62
     0
100
AcDbLine
 10
78.33191948070908
 20
17.15000023394077
 30
0.0
 11
76.24221142834824
 21
19.2397082863016
 31
0.0
  0
LINE
  5
3EBF
330
3E98
100
AcDbEntity
  8
0
 62
     0
100
AcDbLine
 10
67.84221142834832
 20
26.74168267419458
 30
0.0
 11
65.04221142834825
 21
29.54168267419465
 31
0.0
  0
LINE
  5
3EC0
330
3E98
100
AcDbEntity
  8
0
 62
     0
100
AcDbLine
 10
74.14221142834839
 20
20.44168267419451
 30
0.0
 11
71.34221142834826
 21
23.24168267419463
 31
0.0
  0
LINE
  5
3EC1
330
3E98
100
AcDbEntity
  8
0
 62
     0
100
AcDbLine
 10
62.41721142834831
 20
32.16668267419459
 30
0.0
 11
61.33389386860216
 21
33.25000023394068
 31
0.0
  0
LINE
  5
3EC2
330
3E98
100
AcDbEntity
  8
0
 62
     0
100
AcDbLine
 10
77.43389386860219
 20
17.15000023394066
 30
0.0
 11
76.24221142834824
 21
18.34168267419465
 31
0.0
  0
LINE
  5
3EC3
330
3E98
100
AcDbEntity
  8
0
 62
     0
100
AcDbLine
 10
67.84221142834832
 20
25.84365706208768
 30
0.0
 11
65.04221142834836
 21
28.64365706208769
 31
0.0
  0
LINE
  5
3EC4
330
3E98
100
AcDbEntity
  8
0
 62
     0
100
AcDbLine
 10
62.41721142834831
 20
31.2686570620877
 30
0.0
 11
60.43586825649533
 21
33.25000023394073
 31
0.0
  0
LINE
  5
3EC5
330
3E98
100
AcDbEntity
  8
0
 62
     0
100
AcDbLine
 10
74.1162531277028
 20
19.56961536273325
 30
0.0
 11
71.34221142834826
 21
22.34365706208774
 31
0.0
  0
LINE
  5
3EC6
330
3E98
100
AcDbEntity
  8
0
 62
     0
100
AcDbLine
 10
67.84221142834832
 20
24.94563144998079
 30
0.0
 11
65.04221142834836
 21
27.74563144998074
 31
0.0
  0
LINE
  5
3EC7
330
3E98
100
AcDbEntity
  8
0
 62
     0
100
AcDbLine
 10
62.22163088223448
 20
30.56621199609463
 30
0.0
 11
59.53784264438832
 21
33.25000023394079
 31
0.0
  0
LINE
  5
3EC8
330
3E98
100
AcDbEntity
  8
0
 62
     0
100
AcDbLine
 10
73.92326783244556
 20
18.86457504588349
 30
0.0
 11
71.34221142834826
 21
21.44563144998085
 31
0.0
  0
LINE
  5
3EC9
330
3E98
100
AcDbEntity
  8
0
 62
     0
100
AcDbLine
 10
67.84221142834832
 20
24.04760583787384
 30
0.0
 11
65.04221142834831
 21
26.84760583787385
 31
0.0
  0
LINE
  5
3ECA
330
3E98
100
AcDbEntity
  8
0
 62
     0
100
AcDbLine
 10
61.43981703228132
 20
30.45000023394078
 30
0.0
 11
58.63981703228143
 21
33.25000023394068
 31
0.0
  0
LINE
  5
3ECB
330
3E98
100
AcDbEntity
  8
0
 62
     0
100
AcDbLine
 10
73.59823595652199
 20
18.29158130970012
 30
0.0
 11
71.27069568918876
 21
20.61912157703341
 31
0.0
  0
LINE
  5
3ECC
330
3E98
100
AcDbEntity
  8
0
 62
     0
100
AcDbLine
 10
67.84221142834832
 20
23.14958022576701
 30
0.0
 11
65.04221142834836
 21
25.94958022576696
 31
0.0
  0
LINE
  5
3ECD
330
3E98
100
AcDbEntity
  8
0
 62
     0
100
AcDbLine
 10
60.54179142017449
 20
30.45000023394084
 30
0.0
 11
57.8042246909971
 21
33.18756696311822
 31
0.0
  0
LINE
  5
3ECE
330
3E98
100
AcDbEntity
  8
0
 62
     0
100
AcDbLine
 10
73.16619415919695
 20
17.82559749491832
 30
0.0
 11
70.86911005072124
 21
20.12268160339402
 31
0.0
  0
LINE
  5
3ECF
330
3E98
100
AcDbEntity
  8
0
 62
     0
100
AcDbLine
 10
67.84221142834832
 20
22.25155461366006
 30
0.0
 11
65.04221142834831
 21
25.05155461366001
 31
0.0
  0
LINE
  5
3ED0
330
3E98
100
AcDbEntity
  8
0
 62
     0
100
AcDbLine
 10
59.64376580806754
 20
30.45000023394084
 30
0.0
 11
57.13958426646371
 21
32.95418177554461
 31
0.0
  0
LINE
  5
3ED1
330
3E98
100
AcDbEntity
  8
0
 62
     0
100
AcDbLine
 10
72.63003181427092
 20
17.46373422773746
 30
0.0
 11
70.14376580806754
 21
19.95000023394078
 31
0.0
  0
LINE
  5
3ED2
330
3E98
100
AcDbEntity
  8
0
 62
     0
100
AcDbLine
 10
67.84221142834827
 20
21.35352900155311
 30
0.0
 11
65.04221142834831
 21
24.15352900155312
 31
0.0
  0
LINE
  5
3ED3
330
3E98
100
AcDbEntity
  8
0
 62
     0
100
AcDbLine
 10
58.76753002397873
 20
30.42821040592264
 30
0.0
 11
56.59698332925353
 21
32.59875710064784
 31
0.0
  0
LINE
  5
3ED4
330
3E98
100
AcDbEntity
  8
0
 62
     0
100
AcDbLine
 10
71.97361925435962
 20
17.22212117554181
 30
0.0
 11
69.24574019596064
 21
19.95000023394078
 31
0.0
  0
LINE
  5
3ED5
330
3E98
100
AcDbEntity
  8
0
 62
     0
100
AcDbLine
 10
58.39221142834839
 20
29.90550338944604
 30
0.0
 11
56.15887127020897
 21
32.13884354758545
 31
0.0
  0
LINE
  5
3ED6
330
3E98
100
AcDbEntity
  8
0
 62
     0
100
AcDbLine
 10
71.14771458385383
 20
17.1500002339406
 30
0.0
 11
65.04221142834831
 21
23.25550338944617
 31
0.0
  0
LINE
  5
3ED7
330
3E98
100
AcDbEntity
  8
0
 62
     0
100
AcDbLine
 10
58.39221142834844
 20
29.0074777773392
 30
0.0
 11
55.82710035785595
 21
31.57258884783169
 31
0.0
  0
LINE
  5
3ED8
330
3E98
100
AcDbEntity
  8
0
 62
     0
100
AcDbLine
 10
70.24968897174687
 20
17.15000023394071
 30
0.0
 11
65.04221142834831
 21
22.35747777733934
 31
0.0
  0
LINE
  5
3ED9
330
3E98
100
AcDbEntity
  8
0
 62
     0
100
AcDbLine
 10
58.59875570945217
 20
27.90290788412852
 30
0.0
 11
55.62492183849184
 21
30.8767417550888
 31
0.0
  0
LINE
  5
3EDA
330
3E98
100
AcDbEntity
  8
0
 62
     0
100
AcDbLine
 10
69.35166335963998
 20
17.15000023394071
 30
0.0
 11
65.04221142834831
 21
21.45945216523239
 31
0.0
  0
LINE
  5
3EDB
330
3E98
100
AcDbEntity
  8
0
 62
     0
100
AcDbLine
 10
62.8158151310397
 20
22.78782285043405
 30
0.0
 11
55.59221142834832
 21
30.01142655312537
 31
0.0
  0
LINE
  5
3EDC
330
3E98
100
AcDbEntity
  8
0
 62
     0
100
AcDbLine
 10
53.49221142834824
 20
32.11142655312545
 30
0.0
 11
52.35363774753295
 21
33.25000023394079
 31
0.0
  0
LINE
  5
3EDD
330
3E98
100
AcDbEntity
  8
0
 62
     0
100
AcDbLine
 10
68.45363774753304
 20
17.15000023394071
 30
0.0
 11
65.04221142834825
 21
20.56142655312544
 31
0.0
  0
LINE
  5
3EDE
330
3E98
100
AcDbEntity
  8
0
 62
     0
100
AcDbLine
 10
62.9422114283484
 20
21.76340094101851
 30
0.0
 11
55.59221142834838
 21
29.11340094101854
 31
0.0
  0
LINE
  5
3EDF
330
3E98
100
AcDbEntity
  8
0
 62
     0
100
AcDbLine
 10
53.49221142834835
 20
31.2134009410185
 30
0.0
 11
51.45561213542601
 21
33.25000023394091
 31
0.0
  0
LINE
  5
3EE0
330
3E98
100
AcDbEntity
  8
0
 62
     0
100
AcDbLine
 10
67.53916425668126
 20
17.16644811268565
 30
0.0
 11
65.05865930709325
 21
19.64695306227366
 31
0.0
  0
LINE
  5
3EE1
330
3E98
100
AcDbEntity
  8
0
 62
     0
100
AcDbLine
 10
53.49221142834835
 20
30.31537532891161
 30
0.0
 11
50.78482154057303
 21
33.02276521668687
 31
0.0
  0
LINE
  5
3EE2
330
3E98
100
AcDbEntity
  8
0
 62
     0
100
AcDbLine
 10
62.94221142834834
 20
20.86537532891156
 30
0.0
 11
55.61562209623071
 21
28.19196466102926
 31
0.0
  0
LINE
  5
3EE3
330
3E98
100
AcDbEntity
  8
0
 62
     0
100
AcDbLine
 10
53.49221142834835
 20
29.41734971680466
 30
0.0
 11
50.69221142834834
 21
32.21734971680461
 31
0.0
  0
LINE
  5
3EE4
330
3E98
100
AcDbEntity
  8
0
 62
     0
100
AcDbLine
 10
62.94221142834823
 20
19.96734971680473
 30
0.0
 11
55.93374151407073
 21
26.97581963108229
 31
0.0
  0
LINE
  5
3EE5
330
3E98
100
AcDbEntity
  8
0
 62
     0
100
AcDbLine
 10
53.49221142834835
 20
28.51932410469777
 30
0.0
 11
50.6922114283484
 21
31.31932410469772
 31
0.0
  0
LINE
  5
3EE6
330
3E98
100
AcDbEntity
  8
0
 62
     0
100
AcDbLine
 10
62.83364961075927
 20
19.17788592228686
 30
0.0
 11
60.13801482172095
 21
21.87352071132516
 31
0.0
  0
LINE
  5
3EE7
330
3E98
100
AcDbEntity
  8
0
 62
     0
100
AcDbLine
 10
53.49221142834835
 20
27.62129849259088
 30
0.0
 11
50.69221142834834
 21
30.42129849259083
 31
0.0
  0
LINE
  5
3EE8
330
3E98
100
AcDbEntity
  8
0
 62
     0
100
AcDbLine
 10
48.40072452777133
 20
32.71278539316785
 30
0.0
 11
47.86350968699832
 21
33.25000023394091
 31
0.0
  0
LINE
  5
3EE9
330
3E98
100
AcDbEntity
  8
0
 62
     0
100
AcDbLine
 10
62.56577390299771
 20
18.54773601794153
 30
0.0
 11
60.14221142834839
 21
20.97129849259084
 31
0.0
  0
LINE
  5
3EEA
330
3E98
100
AcDbEntity
  8
0
 62
     0
100
AcDbLine
 10
53.4922114283483
 20
26.72327288048393
 30
0.0
 11
50.69221142834834
 21
29.52327288048394
 31
0.0
  0
LINE
  5
3EEB
330
3E98
100
AcDbEntity
  8
0
 62
     0
100
AcDbLine
 10
48.20179686351872
 20
32.0136874453135
 30
0.0
 11
46.96548407489143
 21
33.25000023394085
 31
0.0
  0
LINE
  5
3EEC
330
3E98
100
AcDbEntity
  8
0
 62
     0
100
AcDbLine
 10
62.18278710482241
 20
18.03269720400987
 30
0.0
 11
60.04492624546191
 21
20.17055806337038
 31
0.0
  0
LINE
  5
3EED
330
3E98
100
AcDbEntity
  8
0
 62
     0
100
AcDbLine
 10
53.4922114283483
 20
25.82524726837704
 30
0.0
 11
50.69221142834834
 21
28.62524726837699
 31
0.0
  0
LINE
  5
3EEE
330
3E98
100
AcDbEntity
  8
0
 62
     0
100
AcDbLine
 10
47.98627071661303
 20
31.33118798011224
 30
0.0
 11
46.07705515314245
 21
33.24040354358288
 31
0.0
  0
LINE
  5
3EEF
330
3E98
100
AcDbEntity
  8
0
 62
     0
100
AcDbLine
 10
61.69646813970678
 20
17.6209905570185
 30
0.0
 11
59.36745846278455
 21
19.95000023394078
 31
0.0
  0
LINE
  5
3EF0
330
3E98
100
AcDbEntity
  8
0
 62
     0
100
AcDbLine
 10
53.49221142834835
 20
24.92722165627014
 30
0.0
 11
50.69221142834834
 21
27.7272216562701
 31
0.0
  0
LINE
  5
3EF1
330
3E98
100
AcDbEntity
  8
0
 62
     0
100
AcDbLine
 10
47.77074456970751
 20
30.64868851491098
 30
0.0
 11
45.64274456970747
 21
32.77668851491103
 31
0.0
  0
LINE
  5
3EF2
330
3E98
100
AcDbEntity
  8
0
 62
     0
100
AcDbLine
 10
61.10038419124641
 20
17.31904889337204
 30
0.0
 11
58.46943285067766
 21
19.95000023394084
 31
0.0
  0
LINE
  5
3EF3
330
3E98
100
AcDbEntity
  8
0
 62
     0
100
AcDbLine
 10
53.4922114283483
 20
24.02919604416325
 30
0.0
 11
50.69221142834834
 21
26.82919604416321
 31
0.0
  0
LINE
  5
3EF4
330
3E98
100
AcDbEntity
  8
0
 62
     0
100
AcDbLine
 10
47.55521842280166
 20
29.9661890497099
 30
0.0
 11
45.42721842280167
 21
32.09418904970988
 31
0.0
  0
LINE
  5
3EF5
330
3E98
100
AcDbEntity
  8
0
 62
     0
100
AcDbLine
 10
60.36271153959893
 20
17.15869593291262
 30
0.0
 11
57.57140723857077
 21
19.95000023394078
 31
0.0
  0
LINE
  5
3EF6
330
3E98
100
AcDbEntity
  8
0
 62
     0
100
AcDbLine
 10
53.4922114283483
 20
23.1311704320563
 30
0.0
 11
50.69221142834829
 21
25.93117043205626
 31
0.0
  0
LINE
  5
3EF7
330
3E98
100
AcDbEntity
  8
0
 62
     0
100
AcDbLine
 10
47.33969227589608
 20
29.28368958450852
 30
0.0
 11
45.21169227589598
 21
31.41168958450856
 31
0.0
  0
LINE
  5
3EF8
330
3E98
100
AcDbEntity
  8
0
 62
     0
100
AcDbLine
 10
59.47338162646389
 20
17.15000023394071
 30
0.0
 11
56.67338162646382
 21
19.95000023394078
 31
0.0
  0
LINE
  5
3EF9
330
3E98
100
AcDbEntity
  8
0
 62
     0
100
AcDbLine
 10
53.4922114283483
 20
22.23314481994941
 30
0.0
 11
50.69221142834834
 21
25.03314481994943
 31
0.0
  0
LINE
  5
3EFA
330
3E98
100
AcDbEntity
  8
0
 62
     0
100
AcDbLine
 10
47.12416612899045
 20
28.60119011930732
 30
0.0
 11
44.99616612899035
 21
30.72919011930736
 31
0.0
  0
LINE
  5
3EFB
330
3E98
100
AcDbEntity
  8
0
 62
     0
100
AcDbLine
 10
58.57535601435699
 20
17.15000023394077
 30
0.0
 11
56.14174431706061
 21
19.58361193123715
 31
0.0
  0
LINE
  5
3EFC
330
3E98
100
AcDbEntity
  8
0
 62
     0
100
AcDbLine
 10
46.90863998208482
 20
27.91869065410594
 30
0.0
 11
44.78063998208472
 21
30.0466906541061
 31
0.0
  0
LINE
  5
3EFD
330
3E98
100
AcDbEntity
  8
0
 62
     0
100
AcDbLine
 10
53.4922114283483
 20
21.33511920784252
 30
0.0
 11
50.69221142834834
 21
24.13511920784248
 31
0.0
  0
LINE
  5
3EFE
330
3E98
100
AcDbEntity
  8
0
 62
     0
100
AcDbLine
 10
42.64221142834833
 20
32.18511920784249
 30
0.0
 11
41.57733040225003
 21
33.25000023394073
 31
0.0
  0
LINE
  5
3EFF
330
3E98
100
AcDbEntity
  8
0
 62
     0
100
AcDbLine
 10
57.6773304022501
 20
17.15000023394071
 30
0.0
 11
56.11721142834835
 21
18.71011920784246
 31
0.0
  0
LINE
  5
3F00
330
3E98
100
AcDbEntity
  8
0
 62
     0
100
AcDbLine
 10
46.69311383517902
 20
27.23619118890485
 30
0.0
 11
44.56511383517908
 21
29.36419118890478
 31
0.0
  0
LINE
  5
3F01
330
3E98
100
AcDbEntity
  8
0
 62
     0
100
AcDbLine
 10
53.4922114283483
 20
20.43709359573557
 30
0.0
 11
50.69221142834829
 21
23.23709359573558
 31
0.0
  0
LINE
  5
3F02
330
3E98
100
AcDbEntity
  8
0
 62
     0
100
AcDbLine
 10
42.64221142834833
 20
31.28709359573554
 30
0.0
 11
40.67930479014302
 21
33.25000023394079
 31
0.0
  0
LINE
  5
3F03
330
3E98
100
AcDbEntity
  8
0
 62
     0
100
AcDbLine
 10
56.7793047901431
 20
17.15000023394077
 30
0.0
 11
56.1172114283483
 21
17.81209359573551
 31
0.0
  0
LINE
  5
3F04
330
3E98
100
AcDbEntity
  8
0
 62
     0
100
AcDbLine
 10
46.47758768827339
 20
26.55369172370353
 30
0.0
 11
44.34958768827335
 21
28.68169172370357
 31
0.0
  0
LINE
  5
3F05
330
3E98
100
AcDbEntity
  8
0
 62
     0
100
AcDbLine
 10
42.64221142834827
 20
30.38906798362859
 30
0.0
 11
39.96676649945067
 21
33.06451291252625
 31
0.0
  0
LINE
  5
3F06
330
3E98
100
AcDbEntity
  8
0
 62
     0
100
AcDbLine
 10
53.49221142834824
 20
19.53906798362868
 30
0.0
 11
50.69221142834829
 21
22.33906798362863
 31
0.0
  0
LINE
  5
3F07
330
3E98
100
AcDbEntity
  8
0
 62
     0
100
AcDbLine
 10
46.26206154136776
 20
25.87119225850233
 30
0.0
 11
44.13406154136777
 21
27.99919225850231
 31
0.0
  0
LINE
  5
3F08
330
3E98
100
AcDbEntity
  8
0
 62
     0
100
AcDbLine
 10
42.64221142834833
 20
29.49104237152175
 30
0.0
 11
39.84221142834826
 21
32.29104237152176
 31
0.0
  0
LINE
  5
3F09
330
3E98
100
AcDbEntity
  8
0
 62
     0
100
AcDbLine
 10
53.4922114283483
 20
18.64104237152179
 30
0.0
 11
50.69221142834829
 21
21.44104237152174
 31
0.0
  0
LINE
  5
3F0A
330
3E98
100
AcDbEntity
  8
0
 62
     0
100
AcDbLine
 10
46.0569730319757
 20
25.17825515578744
 30
0.0
 11
43.91853539446202
 21
27.31669279330111
 31
0.0
  0
LINE
  5
3F0B
330
3E98
100
AcDbEntity
  8
0
 62
     0
100
AcDbLine
 10
42.64221142834833
 20
28.5930167594148
 30
0.0
 11
39.84221142834826
 21
31.39301675941487
 31
0.0
  0
LINE
  5
3F0C
330
3E98
100
AcDbEntity
  8
0
 62
     0
100
AcDbLine
 10
53.49221142834824
 20
17.74301675941484
 30
0.0
 11
50.69221142834829
 21
20.54301675941485
 31
0.0
  0
LINE
  5
3F0D
330
3E98
100
AcDbEntity
  8
0
 62
     0
100
AcDbLine
 10
46.4714463914097
 20
23.86575618424649
 30
0.0
 11
43.6279878987774
 21
26.70921467687878
 31
0.0
  0
LINE
  5
3F0E
330
3E98
100
AcDbEntity
  8
0
 62
     0
100
AcDbLine
 10
42.64221142834839
 20
27.6949911473078
 30
0.0
 11
39.84221142834821
 21
30.49499114730792
 31
0.0
  0
LINE
  5
3F0F
330
3E98
100
AcDbEntity
  8
0
 62
     0
100
AcDbLine
 10
53.1531664310159
 20
17.18403614464023
 30
0.0
 11
50.69221142834834
 21
19.64499114730784
 31
0.0
  0
LINE
  5
3F10
330
3E98
100
AcDbEntity
  8
0
 62
     0
100
AcDbLine
 10
46.8859197508437
 20
22.55325721270565
 30
0.0
 11
39.84221142834826
 21
29.59696553520109
 31
0.0
  0
LINE
  5
3F11
330
3E98
100
AcDbEntity
  8
0
 62
     0
100
AcDbLine
 10
37.39221142834839
 20
32.04696553520097
 30
0.0
 11
36.18917672960861
 21
33.25000023394073
 31
0.0
  0
LINE
  5
3F12
330
3E98
100
AcDbEntity
  8
0
 62
     0
100
AcDbLine
 10
52.28917672960864
 20
17.15000023394071
 30
0.0
 11
50.6922114283484
 21
18.74696553520095
 31
0.0
  0
LINE
  5
3F13
330
3E98
100
AcDbEntity
  8
0
 62
     0
100
AcDbLine
 10
47.30039311027775
 20
21.24075824116465
 30
0.0
 11
39.84221142834826
 21
28.69893992309414
 31
0.0
  0
LINE
  5
3F14
330
3E98
100
AcDbEntity
  8
0
 62
     0
100
AcDbLine
 10
37.39221142834839
 20
31.14893992309402
 30
0.0
 11
35.29115111750161
 21
33.25000023394079
 31
0.0
  0
LINE
  5
3F15
330
3E98
100
AcDbEntity
  8
0
 62
     0
100
AcDbLine
 10
51.39115111750169
 20
17.15000023394066
 30
0.0
 11
50.69221142834834
 21
17.84893992309406
 31
0.0
  0
LINE
  5
3F16
330
3E98
100
AcDbEntity
  8
0
 62
     0
100
AcDbLine
 10
37.12530473295828
 20
30.51782100637717
 30
0.0
 11
34.42508301474686
 21
33.21804272458854
 31
0.0
  0
LINE
  5
3F17
330
3E98
100
AcDbEntity
  8
0
 62
     0
100
AcDbLine
 10
47.71486646971169
 20
19.92825926962376
 30
0.0
 11
39.84221142834832
 21
27.80091431098714
 31
0.0
  0
LINE
  5
3F18
330
3E98
100
AcDbEntity
  8
0
 62
     0
100
AcDbLine
 10
42.97972035068994
 20
23.76537977653862
 30
0.0
 11
39.84221142834832
 21
26.90288869888024
 31
0.0
  0
LINE
  5
3F19
330
3E98
100
AcDbEntity
  8
0
 62
     0
100
AcDbLine
 10
36.29509989328784
 20
30.45000023394067
 30
0.0
 11
33.68703994515959
 21
33.05806018206897
 31
0.0
  0
LINE
  5
3F1A
330
3E98
100
AcDbEntity
  8
0
 62
     0
100
AcDbLine
 10
48.12933982914575
 20
18.61576029808281
 30
0.0
 11
44.03703213683786
 21
22.70806799039064
 31
0.0
  0
LINE
  5
3F1B
330
3E98
100
AcDbEntity
  8
0
 62
     0
100
AcDbLine
 10
42.64221142834839
 20
23.20486308677328
 30
0.0
 11
39.84221142834832
 21
26.00486308677335
 31
0.0
  0
LINE
  5
3F1C
330
3E98
100
AcDbEntity
  8
0
 62
     0
100
AcDbLine
 10
35.39707428118083
 20
30.45000023394078
 30
0.0
 11
33.04831852932887
 21
32.79875598579275
 31
0.0
  0
LINE
  5
3F1D
330
3E98
100
AcDbEntity
  8
0
 62
     0
100
AcDbLine
 10
48.36437868685635
 20
17.48269582826526
 30
0.0
 11
44.45150549627181
 21
21.39556901884986
 31
0.0
  0
LINE
  5
3F1E
330
3E98
100
AcDbEntity
  8
0
 62
     0
100
AcDbLine
 10
42.64221142834833
 20
22.30683747466639
 30
0.0
 11
39.84221142834826
 21
25.1068374746664
 31
0.0
  0
LINE
  5
3F1F
330
3E98
100
AcDbEntity
  8
0
 62
     0
100
AcDbLine
 10
34.5539607786373
 20
30.39508812437742
 30
0.0
 11
32.48956955399433
 21
32.45947934902039
 31
0.0
  0
LINE
  5
3F20
330
3E98
100
AcDbEntity
  8
0
 62
     0
100
AcDbLine
 10
47.79904866907401
 20
17.15000023394071
 30
0.0
 11
44.86597885570563
 21
20.08307004730903
 31
0.0
  0
LINE
  5
3F21
330
3E98
100
AcDbEntity
  8
0
 62
     0
100
AcDbLine
 10
42.64221142834833
 20
21.40881186255944
 30
0.0
 11
39.84221142834826
 21
24.20881186255951
 31
0.0
  0
LINE
  5
3F22
330
3E98
100
AcDbEntity
  8
0
 62
     0
100
AcDbLine
 10
33.98210458579831
 20
30.06891870510946
 30
0.0
 11
32.00191434538254
 21
32.04910894552523
 31
0.0
  0
LINE
  5
3F23
330
3E98
100
AcDbEntity
  8
0
 62
     0
100
AcDbLine
 10
46.90102305696706
 20
17.15000023394071
 30
0.0
 11
45.28045221513957
 21
18.7705710757682
 31
0.0
  0
LINE
  5
3F24
330
3E98
100
AcDbEntity
  8
0
 62
     0
100
AcDbLine
 10
37.72764056114607
 20
25.42535711765486
 30
0.0
 11
36.21756831206232
 21
26.93542936673861
 31
0.0
  0
LINE
  5
3F25
330
3E98
100
AcDbEntity
  8
0
 62
     0
100
AcDbLine
 10
42.64221142834844
 20
20.51078625045249
 30
0.0
 11
39.84221142834832
 21
23.31078625045262
 31
0.0
  0
LINE
  5
3F26
330
3E98
100
AcDbEntity
  8
0
 62
     0
100
AcDbLine
 10
33.62598301566936
 20
29.52701466313158
 30
0.0
 11
31.58254831937131
 21
31.57044935942963
 31
0.0
  0
LINE
  5
3F27
330
3E98
100
AcDbEntity
  8
0
 62
     0
100
AcDbLine
 10
45.95266444065555
 20
17.20033323814539
 30
0.0
 11
45.70231026906424
 21
17.4506874097367
 31
0.0
  0
LINE
  5
3F28
330
3E98
100
AcDbEntity
  8
0
 62
     0
100
AcDbLine
 10
37.64112690100415
 20
24.61384516568983
 30
0.0
 11
35.40605636009729
 21
26.8489157065967
 31
0.0
  0
LINE
  5
3F29
330
3E98
100
AcDbEntity
  8
0
 62
     0
100
AcDbLine
 10
33.54221142834842
 20
28.71276063834557
 30
0.0
 11
31.23360929840965
 21
31.02136276828435
 31
0.0
  0
LINE
  5
3F2A
330
3E98
100
AcDbEntity
  8
0
 62
     0
100
AcDbLine
 10
42.64221142834839
 20
19.61276063834555
 30
0.0
 11
39.84221142834826
 21
22.41276063834573
 31
0.0
  0
LINE
  5
3F2B
330
3E98
100
AcDbEntity
  8
0
 62
     0
100
AcDbLine
 10
37.3092713417061
 20
24.04767511288088
 30
0.0
 11
34.83988630728834
 21
26.51706014729865
 31
0.0
  0
LINE
  5
3F2C
330
3E98
100
AcDbEntity
  8
0
 62
     0
100
AcDbLine
 10
33.54221142834842
 20
27.81473502623862
 30
0.0
 11
30.96302959119947
 21
30.39391686338757
 31
0.0
  0
LINE
  5
3F2D
330
3E98
100
AcDbEntity
  8
0
 62
     0
100
AcDbLine
 10
42.64221142834839
 20
18.71473502623865
 30
0.0
 11
39.84221142834832
 21
21.51473502623872
 31
0.0
  0
LINE
  5
3F2E
330
3E98
100
AcDbEntity
  8
0
 62
     0
100
AcDbLine
 10
33.54221142834842
 20
26.91670941413173
 30
0.0
 11
30.78831571827362
 21
29.67060512420658
 31
0.0
  0
LINE
  5
3F2F
330
3E98
100
AcDbEntity
  8
0
 62
     0
100
AcDbLine
 10
36.80743789956966
 20
23.65148294291054
 30
0.0
 11
34.443694137318
 21
26.0152267051622
 31
0.0
  0
LINE
  5
3F30
330
3E98
100
AcDbEntity
  8
0
 62
     0
100
AcDbLine
 10
28.11721142834824
 20
32.34170941413191
 30
0.0
 11
27.20892060853936
 21
33.25000023394085
 31
0.0
  0
LINE
  5
3F31
330
3E98
100
AcDbEntity
  8
0
 62
     0
100
AcDbLine
 10
42.64221142834844
 20
17.81670941413176
 30
0.0
 11
39.84221142834837
 21
20.61670941413183
 31
0.0
  0
LINE
  5
3F32
330
3E98
100
AcDbEntity
  8
0
 62
     0
100
AcDbLine
 10
33.54221142834842
 20
26.01868380202484
 30
0.0
 11
30.74221142834835
 21
28.8186838020249
 31
0.0
  0
LINE
  5
3F33
330
3E98
100
AcDbEntity
  8
0
 62
     0
100
AcDbLine
 10
36.10711845714223
 20
23.45377677323102
 30
0.0
 11
34.24598796763848
 21
25.31490726273478
 31
0.0
  0
LINE
  5
3F34
330
3E98
100
AcDbEntity
  8
0
 62
     0
100
AcDbLine
 10
28.1172114283483
 20
31.4436838020249
 30
0.0
 11
26.31089499643241
 21
33.25000023394079
 31
0.0
  0
LINE
  5
3F35
330
3E98
100
AcDbEntity
  8
0
 62
     0
100
AcDbLine
 10
42.35430762707773
 20
17.20658760329553
 30
0.0
 11
39.84221142834832
 21
19.71868380202488
 31
0.0
  0
LINE
  5
3F36
330
3E98
100
AcDbEntity
  8
0
 62
     0
100
AcDbLine
 10
33.54221142834842
 20
25.12065818991789
 30
0.0
 11
30.74221142834835
 21
27.92065818991796
 31
0.0
  0
LINE
  5
3F37
330
3E98
100
AcDbEntity
  8
0
 62
     0
100
AcDbLine
 10
28.00817745807796
 20
30.65469216018835
 30
0.0
 11
25.4128693843254
 21
33.25000023394085
 31
0.0
  0
LINE
  5
3F38
330
3E98
100
AcDbEntity
  8
0
 62
     0
100
AcDbLine
 10
41.51286938432554
 20
17.15000023394077
 30
0.0
 11
39.84221142834832
 21
18.82065818991799
 31
0.0
  0
LINE
  5
3F39
330
3E98
100
AcDbEntity
  8
0
 62
     0
100
AcDbLine
 10
33.54221142834836
 20
24.222632577811
 30
0.0
 11
30.74221142834829
 21
27.02263257781101
 31
0.0
  0
LINE
  5
3F3A
330
3E98
100
AcDbEntity
  8
0
 62
     0
100
AcDbLine
 10
27.31484377221863
 20
30.45000023394072
 30
0.0
 11
24.51484377221857
 21
33.25000023394073
 31
0.0
  0
LINE
  5
3F3B
330
3E98
100
AcDbEntity
  8
0
 62
     0
100
AcDbLine
 10
40.61484377221859
 20
17.15000023394071
 30
0.0
 11
39.84221142834832
 21
17.92263257781104
 31
0.0
  0
LINE
  5
3F3C
330
3E98
100
AcDbEntity
  8
0
 62
     0
100
AcDbLine
 10
33.54221142834842
 20
23.3246069657041
 30
0.0
 11
30.74221142834835
 21
26.12460696570417
 31
0.0
  0
LINE
  5
3F3D
330
3E98
100
AcDbEntity
  8
0
 62
     0
100
AcDbLine
 10
26.41681816011174
 20
30.45000023394072
 30
0.0
 11
23.65168888800684
 21
33.21512950604568
 31
0.0
  0
LINE
  5
3F3E
330
3E98
100
AcDbEntity
  8
0
 62
     0
100
AcDbLine
 10
37.38960897951142
 20
19.47720941454105
 30
0.0
 11
36.91942060894871
 21
19.94739778510381
 31
0.0
  0
LINE
  5
3F3F
330
3E98
100
AcDbEntity
  8
0
 62
     0
100
AcDbLine
 10
33.54221142834836
 20
22.42658135359715
 30
0.0
 11
30.74221142834835
 21
25.22658135359722
 31
0.0
  0
LINE
  5
3F40
330
3E98
100
AcDbEntity
  8
0
 62
     0
100
AcDbLine
 10
25.51879254800485
 20
30.45000023394072
 30
0.0
 11
22.95855407952836
 21
33.01023870241721
 31
0.0
  0
LINE
  5
3F41
330
3E98
100
AcDbEntity
  8
0
 62
     0
100
AcDbLine
 10
37.39221142834844
 20
18.57658135359713
 30
0.0
 11
36.01879254800479
 21
19.95000023394078
 31
0.0
  0
LINE
  5
3F42
330
3E98
100
AcDbEntity
  8
0
 62
     0
100
AcDbLine
 10
33.54221142834836
 20
21.52855574149026
 30
0.0
 11
30.74221142834841
 21
24.32855574149022
 31
0.0
  0
LINE
  5
3F43
330
3E98
100
AcDbEntity
  8
0
 62
     0
100
AcDbLine
 10
24.6207669358979
 20
30.45000023394067
 30
0.0
 11
22.39430741968112
 21
32.67645975015744
 31
0.0
  0
LINE
  5
3F44
330
3E98
100
AcDbEntity
  8
0
 62
     0
100
AcDbLine
 10
37.39221142834839
 20
17.67855574149018
 30
0.0
 11
35.1207669358979
 21
19.95000023394067
 31
0.0
  0
LINE
  5
3F45
330
3E98
100
AcDbEntity
  8
0
 62
     0
100
AcDbLine
 10
24.11047410828331
 20
30.06226744944848
 30
0.0
 11
21.93621460744037
 21
32.23652695029142
 31
0.0
  0
LINE
  5
3F46
330
3E98
100
AcDbEntity
  8
0
 62
     0
100
AcDbLine
 10
37.00447864385603
 20
17.16826291387576
 30
0.0
 11
30.74221142834841
 21
23.43053012938338
 31
0.0
  0
LINE
  5
3F47
330
3E98
100
AcDbEntity
  8
0
 62
     0
100
AcDbLine
 10
24.09221142834837
 20
29.18250451727647
 30
0.0
 11
21.58273340497129
 21
31.69198254065355
 31
0.0
  0
LINE
  5
3F48
330
3E98
100
AcDbEntity
  8
0
 62
     0
100
AcDbLine
 10
36.12471571168413
 20
17.15000023394071
 30
0.0
 11
30.74221142834841
 21
22.53250451727643
 31
0.0
  0
LINE
  5
3F49
330
3E98
100
AcDbEntity
  8
0
 62
     0
100
AcDbLine
 10
24.1543471364838
 20
28.22234319703403
 30
0.0
 11
21.35185330267757
 21
31.02483703084033
 31
0.0
  0
LINE
  5
3F4A
330
3E98
100
AcDbEntity
  8
0
 62
     0
100
AcDbLine
 10
35.22669009957712
 20
17.15000023394077
 30
0.0
 11
30.74221142834835
 21
21.63447890516948
 31
0.0
  0
LINE
  5
3F4B
330
3E98
100
AcDbEntity
  8
0
 62
     0
100
AcDbLine
 10
28.44658751957103
 20
23.03207720183996
 30
0.0
 11
21.29221142834842
 21
30.18645329306258
 31
0.0
  0
LINE
  5
3F4C
330
3E98
100
AcDbEntity
  8
0
 62
     0
100
AcDbLine
 10
34.27539240041358
 20
17.20327232099742
 30
0.0
 11
30.79548351540501
 21
20.68318120600599
 31
0.0
  0
LINE
  5
3F4D
330
3E98
100
AcDbEntity
  8
0
 62
     0
100
AcDbLine
 10
28.63848203365625
 20
21.94215707564785
 30
0.0
 11
21.2922114283483
 21
29.2884276809558
 31
0.0
  0
LINE
  5
3F4E
330
3E98
100
AcDbEntity
  8
0
 62
     0
100
AcDbLine
 10
32.90158448781198
 20
17.67905462149207
 30
0.0
 11
31.27126581589959
 21
19.30937329340451
 31
0.0
  0
LINE
  5
3F4F
330
3E98
100
AcDbEntity
  8
0
 62
     0
100
AcDbLine
 10
28.64221142834844
 20
21.04040206884872
 30
0.0
 11
21.2997758757707
 21
28.3828376214264
 31
0.0
  0
LINE
  5
3F50
330
3E98
100
AcDbEntity
  8
0
 62
     0
100
AcDbLine
 10
28.64221142834833
 20
20.14237645674188
 30
0.0
 11
21.52306663409456
 21
27.26152125099559
 31
0.0
  0
LINE
  5
3F51
330
3E98
100
AcDbEntity
  8
0
 62
     0
100
AcDbLine
 10
28.56969143221641
 20
19.31687084076696
 30
0.0
 11
25.80629978859735
 21
22.08026248438602
 31
0.0
  0
LINE
  5
3F52
330
3E98
100
AcDbEntity
  8
0
 62
     0
100
AcDbLine
 10
28.32775349318757
 20
18.66078316768886
 30
0.0
 11
25.84221142834832
 21
21.14632523252811
 31
0.0
  0
LINE
  5
3F53
330
3E98
100
AcDbEntity
  8
0
 62
     0
100
AcDbLine
 10
27.9656342458058
 20
18.12487680296368
 30
0.0
 11
25.80631239604764
 21
20.28419865272184
 31
0.0
  0
LINE
  5
3F54
330
3E98
100
AcDbEntity
  8
0
 62
     0
100
AcDbLine
 10
27.49940787353892
 20
17.69307756312366
 30
0.0
 11
25.2424852027218
 21
19.95000023394084
 31
0.0
  0
LINE
  5
3F55
330
3E98
100
AcDbEntity
  8
0
 62
     0
100
AcDbLine
 10
26.92614342580611
 20
17.36831639874958
 30
0.0
 11
24.34445959061486
 21
19.95000023394078
 31
0.0
  0
LINE
  5
3F56
330
3E98
100
AcDbEntity
  8
0
 62
     0
100
AcDbLine
 10
26.22073083672018
 20
17.17570337572857
 30
0.0
 11
23.44643397850796
 21
19.95000023394078
 31
0.0
  0
LINE
  5
3F57
330
3E98
100
AcDbEntity
  8
0
 62
     0
100
AcDbLine
 10
25.34840836640114
 20
17.1500002339406
 30
0.0
 11
22.54840836640102
 21
19.95000023394078
 31
0.0
  0
LINE
  5
3F58
330
3E98
100
AcDbEntity
  8
0
 62
     0
100
AcDbLine
 10
24.45038275429419
 20
17.15000023394071
 30
0.0
 11
21.89705885947631
 21
19.70332412875865
 31
0.0
  0
LINE
  5
3F59
330
3E98
100
AcDbEntity
  8
0
 62
     0
100
AcDbLine
 10
23.5523571421873
 20
17.15000023394071
 30
0.0
 11
21.81721142834839
 21
18.88514594777956
 31
0.0
  0
LINE
  5
3F5A
330
3E98
100
AcDbEntity
  8
0
 62
     0
100
AcDbLine
 10
22.65433153008035
 20
17.15000023394071
 30
0.0
 11
21.81721142834839
 21
17.98712033567267
 31
0.0
  0
LINE
  5
3F5B
330
3E98
100
AcDbEntity
  8
0
 62
     0
100
AcDbLine
 10
78.6338987130153
 20
17.16313201105828
 30
0.0
 11
79.02907965123109
 21
17.55831294927406
 31
0.0
  0
LINE
  5
3F5C
330
3E98
100
AcDbEntity
  8
0
 62
     0
100
AcDbLine
 10
77.72274132379095
 20
17.15000023394071
 30
0.0
 11
79.04221142834853
 21
18.46947033849835
 31
0.0
  0
LINE
  5
3F5D
330
3E98
100
AcDbEntity
  8
0
 62
     0
100
AcDbLine
 10
76.82471571168401
 20
17.15000023394077
 30
0.0
 11
79.04221142834853
 21
19.36749595060524
 31
0.0
  0
LINE
  5
3F5E
330
3E98
100
AcDbEntity
  8
0
 62
     0
100
AcDbLine
 10
76.27340899160021
 20
17.49671912596386
 30
0.0
 11
79.04221142834848
 21
20.26552156271219
 31
0.0
  0
LINE
  5
3F5F
330
3E98
100
AcDbEntity
  8
0
 62
     0
100
AcDbLine
 10
76.24221142834841
 20
18.36354717481901
 30
0.0
 11
79.04221142834848
 21
21.16354717481903
 31
0.0
  0
LINE
  5
3F60
330
3E98
100
AcDbEntity
  8
0
 62
     0
100
AcDbLine
 10
76.24221142834847
 20
19.26157278692591
 30
0.0
 11
79.04221142834848
 21
22.06157278692598
 31
0.0
  0
LINE
  5
3F61
330
3E98
100
AcDbEntity
  8
0
 62
     0
100
AcDbLine
 10
76.24221142834841
 20
20.15959839903286
 30
0.0
 11
79.04221142834848
 21
22.95959839903292
 31
0.0
  0
LINE
  5
3F62
330
3E98
100
AcDbEntity
  8
0
 62
     0
100
AcDbLine
 10
76.24221142834841
 20
21.05762401113975
 30
0.0
 11
79.04221142834848
 21
23.85762401113982
 31
0.0
  0
LINE
  5
3F63
330
3E98
100
AcDbEntity
  8
0
 62
     0
100
AcDbLine
 10
72.66877629041369
 20
17.48418887320502
 30
0.0
 11
73.80802278908425
 21
18.62343537187564
 31
0.0
  0
LINE
  5
3F64
330
3E98
100
AcDbEntity
  8
0
 62
     0
100
AcDbLine
 10
76.24221142834841
 20
21.95564962324664
 30
0.0
 11
79.04221142834848
 21
24.75564962324671
 31
0.0
  0
LINE
  5
3F65
330
3E98
100
AcDbEntity
  8
0
 62
     0
100
AcDbLine
 10
71.43820812389089
 20
17.15164631878911
 30
0.0
 11
74.14056534350021
 21
19.85400353839838
 31
0.0
  0
LINE
  5
3F66
330
3E98
100
AcDbEntity
  8
0
 62
     0
100
AcDbLine
 10
76.24221142834841
 20
22.85367523535359
 30
0.0
 11
79.04221142834848
 21
25.6536752353536
 31
0.0
  0
LINE
  5
3F67
330
3E98
100
AcDbEntity
  8
0
 62
     0
100
AcDbLine
 10
70.53853642693565
 20
17.15000023394082
 30
0.0
 11
74.14221142834851
 21
20.75367523535362
 31
0.0
  0
LINE
  5
3F68
330
3E98
100
AcDbEntity
  8
0
 62
     0
100
AcDbLine
 10
76.24221142834841
 20
23.75170084746048
 30
0.0
 11
79.04221142834842
 21
26.55170084746055
 31
0.0
  0
LINE
  5
3F69
330
3E98
100
AcDbEntity
  8
0
 62
     0
100
AcDbLine
 10
69.6405108148287
 20
17.15000023394082
 30
0.0
 11
74.14221142834844
 21
21.65170084746057
 31
0.0
  0
LINE
  5
3F6A
330
3E98
100
AcDbEntity
  8
0
 62
     0
100
AcDbLine
 10
76.24221142834841
 20
24.64972645956737
 30
0.0
 11
79.04221142834848
 21
27.44972645956744
 31
0.0
  0
LINE
  5
3F6B
330
3E98
100
AcDbEntity
  8
0
 62
     0
100
AcDbLine
 10
68.74248520272175
 20
17.15000023394071
 30
0.0
 11
74.14221142834851
 21
22.54972645956746
 31
0.0
  0
LINE
  5
3F6C
330
3E98
100
AcDbEntity
  8
0
 62
     0
100
AcDbLine
 10
71.23762022626738
 20
20.54316086959329
 30
0.0
 11
74.14221142834851
 21
23.44775207167435
 31
0.0
  0
LINE
  5
3F6D
330
3E98
100
AcDbEntity
  8
0
 62
     0
100
AcDbLine
 10
76.24221142834841
 20
25.54775207167427
 30
0.0
 11
79.04221142834848
 21
28.34775207167433
 31
0.0
  0
LINE
  5
3F6E
330
3E98
100
AcDbEntity
  8
0
 62
     0
100
AcDbLine
 10
67.84445959061492
 20
17.15000023394082
 30
0.0
 11
70.74905079269587
 21
20.05459143602172
 31
0.0
  0
LINE
  5
3F6F
330
3E98
100
AcDbEntity
  8
0
 62
     0
100
AcDbLine
 10
71.34221142834832
 20
21.54577768378118
 30
0.0
 11
74.14221142834844
 21
24.3457776837813
 31
0.0
  0
LINE
  5
3F70
330
3E98
100
AcDbEntity
  8
0
 62
     0
100
AcDbLine
 10
76.24221142834835
 20
26.44577768378121
 30
0.0
 11
79.04221142834842
 21
29.24577768378128
 31
0.0
  0
LINE
  5
3F71
330
3E98
100
AcDbEntity
  8
0
 62
     0
100
AcDbLine
 10
67.05838372988506
 20
17.26194998531787
 30
0.0
 11
69.74643397850798
 21
19.95000023394084
 31
0.0
  0
LINE
  5
3F72
330
3E98
100
AcDbEntity
  8
0
 62
     0
100
AcDbLine
 10
71.34221142834832
 20
22.44380329588807
 30
0.0
 11
74.14221142834844
 21
25.2438032958882
 31
0.0
  0
LINE
  5
3F73
330
3E98
100
AcDbEntity
  8
0
 62
     0
100
AcDbLine
 10
76.24221142834835
 20
27.34380329588816
 30
0.0
 11
79.04221142834842
 21
30.14380329588817
 31
0.0
  0
LINE
  5
3F74
330
3E98
100
AcDbEntity
  8
0
 62
     0
100
AcDbLine
 10
66.43039686267491
 20
17.53198873021472
 30
0.0
 11
68.84928615204535
 21
19.95087801958516
 31
0.0
  0
LINE
  5
3F75
330
3E98
100
AcDbEntity
  8
0
 62
     0
100
AcDbLine
 10
71.34221142834832
 20
23.34182890799496
 30
0.0
 11
74.14221142834844
 21
26.14182890799509
 31
0.0
  0
LINE
  5
3F76
330
3E98
100
AcDbEntity
  8
0
 62
     0
100
AcDbLine
 10
76.24221142834841
 20
28.241828907995
 30
0.0
 11
79.04221142834842
 21
31.04182890799506
 31
0.0
  0
LINE
  5
3F77
330
3E98
100
AcDbEntity
  8
0
 62
     0
100
AcDbLine
 10
65.91713698130973
 20
17.91675446095638
 30
0.0
 11
68.20580756333265
 21
20.20542504297929
 31
0.0
  0
LINE
  5
3F78
330
3E98
100
AcDbEntity
  8
0
 62
     0
100
AcDbLine
 10
71.34221142834832
 20
24.23985452010185
 30
0.0
 11
74.14221142834844
 21
27.03985452010204
 31
0.0
  0
LINE
  5
3F79
330
3E98
100
AcDbEntity
  8
0
 62
     0
100
AcDbLine
 10
76.24221142834835
 20
29.13985452010194
 30
0.0
 11
79.04221142834842
 21
31.93985452010201
 31
0.0
  0
LINE
  5
3F7A
330
3E98
100
AcDbEntity
  8
0
 62
     0
100
AcDbLine
 10
65.50717280608473
 20
18.40481589783826
 30
0.0
 11
67.86856928492324
 21
20.76621237667683
 31
0.0
  0
LINE
  5
3F7B
330
3E98
100
AcDbEntity
  8
0
 62
     0
100
AcDbLine
 10
71.34221142834826
 20
25.1378801322088
 30
0.0
 11
74.14221142834851
 21
27.93788013220904
 31
0.0
  0
LINE
  5
3F7C
330
3E98
100
AcDbEntity
  8
0
 62
     0
100
AcDbLine
 10
76.24221142834835
 20
30.03788013220884
 30
0.0
 11
79.03206227479796
 21
32.82773097865851
 31
0.0
  0
LINE
  5
3F7D
330
3E98
100
AcDbEntity
  8
0
 62
     0
100
AcDbLine
 10
65.20724792765071
 20
19.00291663151125
 30
0.0
 11
67.84221142834832
 21
21.63788013220886
 31
0.0
  0
LINE
  5
3F7E
330
3E98
100
AcDbEntity
  8
0
 62
     0
100
AcDbLine
 10
71.34221142834838
 20
26.03590574431575
 30
0.0
 11
74.14221142834856
 21
28.83590574431588
 31
0.0
  0
LINE
  5
3F7F
330
3E98
100
AcDbEntity
  8
0
 62
     0
100
AcDbLine
 10
76.24221142834835
 20
30.93590574431573
 30
0.0
 11
78.55494792971848
 21
33.24864224568585
 31
0.0
  0
LINE
  5
3F80
330
3E98
100
AcDbEntity
  8
0
 62
     0
100
AcDbLine
 10
65.04983439269427
 20
19.74352870866164
 30
0.0
 11
67.84221142834837
 21
22.53590574431575
 31
0.0
  0
LINE
  5
3F81
330
3E98
100
AcDbEntity
  8
0
 62
     0
100
AcDbLine
 10
71.34221142834838
 20
26.9339313564227
 30
0.0
 11
74.14221142834851
 21
29.73393135642282
 31
0.0
  0
LINE
  5
3F82
330
3E98
100
AcDbEntity
  8
0
 62
     0
100
AcDbLine
 10
76.24221142834841
 20
31.83393135642273
 30
0.0
 11
77.65828030586641
 21
33.25000023394073
 31
0.0
  0
LINE
  5
3F83
330
3E98
100
AcDbEntity
  8
0
 62
     0
100
AcDbLine
 10
65.04221142834848
 20
20.63393135642275
 30
0.0
 11
67.84221142834844
 21
23.43393135642276
 31
0.0
  0
LINE
  5
3F84
330
3E98
100
AcDbEntity
  8
0
 62
     0
100
AcDbLine
 10
71.34221142834838
 20
27.83195696852959
 30
0.0
 11
74.14221142834851
 21
30.63195696852972
 31
0.0
  0
LINE
  5
3F85
330
3E98
100
AcDbEntity
  8
0
 62
     0
100
AcDbLine
 10
65.04221142834842
 20
21.53195696852969
 30
0.0
 11
67.84221142834837
 21
24.33195696852965
 31
0.0
  0
LINE
  5
3F86
330
3E98
100
AcDbEntity
  8
0
 62
     0
100
AcDbLine
 10
76.24225814309586
 20
32.73200368327712
 30
0.0
 11
76.76020797901213
 21
33.24995351919335
 31
0.0
  0
LINE
  5
3F87
330
3E98
100
AcDbEntity
  8
0
 62
     0
100
AcDbLine
 10
60.72065579763642
 20
17.21040133781764
 30
0.0
 11
62.88181032447159
 21
19.37155586465286
 31
0.0
  0
LINE
  5
3F88
330
3E98
100
AcDbEntity
  8
0
 62
     0
100
AcDbLine
 10
65.04221142834842
 20
22.42998258063658
 30
0.0
 11
67.84221142834837
 21
25.2299825806366
 31
0.0
  0
LINE
  5
3F89
330
3E98
100
AcDbEntity
  8
0
 62
     0
100
AcDbLine
 10
71.34221142834832
 20
28.72998258063654
 30
0.0
 11
74.14221142834844
 21
31.52998258063667
 31
0.0
  0
LINE
  5
3F8A
330
3E98
100
AcDbEntity
  8
0
 62
     0
100
AcDbLine
 10
59.76222908165261
 20
17.15000023394082
 30
0.0
 11
62.94221142834834
 21
20.3299825806365
 31
0.0
  0
LINE
  5
3F8B
330
3E98
100
AcDbEntity
  8
0
 62
     0
100
AcDbLine
 10
65.04221142834842
 20
23.32800819274348
 30
0.0
 11
67.84221142834844
 21
26.12800819274343
 31
0.0
  0
LINE
  5
3F8C
330
3E98
100
AcDbEntity
  8
0
 62
     0
100
AcDbLine
 10
71.34221142834838
 20
29.62800819274338
 30
0.0
 11
74.14221142834851
 21
32.42800819274356
 31
0.0
  0
LINE
  5
3F8D
330
3E98
100
AcDbEntity
  8
0
 62
     0
100
AcDbLine
 10
58.86420346954565
 20
17.15000023394071
 30
0.0
 11
62.94221142834846
 21
21.22800819274345
 31
0.0
  0
LINE
  5
3F8E
330
3E98
100
AcDbEntity
  8
0
 62
     0
100
AcDbLine
 10
65.04221142834842
 20
24.22603380485043
 30
0.0
 11
67.84221142834837
 21
27.02603380485038
 31
0.0
  0
LINE
  5
3F8F
330
3E98
100
AcDbEntity
  8
0
 62
     0
100
AcDbLine
 10
71.34221142834832
 20
30.52603380485033
 30
0.0
 11
73.94847397351435
 21
33.13229635001636
 31
0.0
  0
LINE
  5
3F90
330
3E98
100
AcDbEntity
  8
0
 62
     0
100
AcDbLine
 10
57.96617785743876
 20
17.15000023394077
 30
0.0
 11
62.92789282793546
 21
22.11171520443747
 31
0.0
  0
LINE
  5
3F91
330
3E98
100
AcDbEntity
  8
0
 62
     0
100
AcDbLine
 10
65.04221142834842
 20
25.12405941695732
 30
0.0
 11
67.84221142834837
 21
27.92405941695733
 31
0.0
  0
LINE
  5
3F92
330
3E98
100
AcDbEntity
  8
0
 62
     0
100
AcDbLine
 10
71.34221142834832
 20
31.42405941695727
 30
0.0
 11
73.16815224533184
 21
33.25000023394079
 31
0.0
  0
LINE
  5
3F93
330
3E98
100
AcDbEntity
  8
0
 62
     0
100
AcDbLine
 10
57.06815224533182
 20
17.15000023394077
 30
0.0
 11
62.79298045730673
 21
22.87482844591562
 31
0.0
  0
LINE
  5
3F94
330
3E98
100
AcDbEntity
  8
0
 62
     0
100
AcDbLine
 10
65.04221142834842
 20
26.02208502906421
 30
0.0
 11
67.84221142834837
 21
28.82208502906417
 31
0.0
  0
LINE
  5
3F95
330
3E98
100
AcDbEntity
  8
0
 62
     0
100
AcDbLine
 10
60.14221142834845
 20
21.12208502906423
 30
0.0
 11
62.55239300038818
 21
23.53226660110391
 31
0.0
  0
LINE
  5
3F96
330
3E98
100
AcDbEntity
  8
0
 62
     0
100
AcDbLine
 10
71.34221142834838
 20
32.32208502906411
 30
0.0
 11
72.27012663322506
 21
33.25000023394085
 31
0.0
  0
LINE
  5
3F97
330
3E98
100
AcDbEntity
  8
0
 62
     0
100
AcDbLine
 10
56.29838198635605
 20
17.27825558707183
 30
0.0
 11
58.97012663322493
 21
19.95000023394072
 31
0.0
  0
LINE
  5
3F98
330
3E98
100
AcDbEntity
  8
0
 62
     0
100
AcDbLine
 10
60.12234085322115
 20
22.00024006604383
 30
0.0
 11
62.22889369552763
 21
24.10679290835031
 31
0.0
  0
LINE
  5
3F99
330
3E98
100
AcDbEntity
  8
0
 62
     0
100
AcDbLine
 10
65.04221142834842
 20
26.9201106411711
 30
0.0
 11
67.84221142834844
 21
29.72011064117117
 31
0.0
  0
LINE
  5
3F9A
330
3E98
100
AcDbEntity
  8
0
 62
     0
100
AcDbLine
 10
56.11721142834835
 20
17.99511064117109
 30
0.0
 11
58.07210102111799
 21
19.95000023394072
 31
0.0
  0
LINE
  5
3F9B
330
3E98
100
AcDbEntity
  8
0
 62
     0
100
AcDbLine
 10
59.84795601608226
 20
22.62388084101195
 30
0.0
 11
61.83302257759982
 21
24.60894740252951
 31
0.0
  0
LINE
  5
3F9C
330
3E98
100
AcDbEntity
  8
0
 62
     0
100
AcDbLine
 10
65.04221142834836
 20
27.81813625327805
 30
0.0
 11
67.84221142834844
 21
30.61813625327812
 31
0.0
  0
LINE
  5
3F9D
330
3E98
100
AcDbEntity
  8
0
 62
     0
100
AcDbLine
 10
56.11721142834835
 20
18.89313625327798
 30
0.0
 11
57.1740754090111
 21
19.95000023394078
 31
0.0
  0
LINE
  5
3F9E
330
3E98
100
AcDbEntity
  8
0
 62
     0
100
AcDbLine
 10
65.04221142834842
 20
28.71616186538494
 30
0.0
 11
67.84221142834849
 21
31.51616186538495
 31
0.0
  0
LINE
  5
3F9F
330
3E98
100
AcDbEntity
  8
0
 62
     0
100
AcDbLine
 10
59.4066811189652
 20
23.08063155600166
 30
0.0
 11
61.38658010628756
 21
25.06053054332409
 31
0.0
  0
LINE
  5
3FA0
330
3E98
100
AcDbEntity
  8
0
 62
     0
100
AcDbLine
 10
58.95766831291172
 20
23.52964436205513
 30
0.0
 11
60.93756730023404
 21
25.50954334937745
 31
0.0
  0
LINE
  5
3FA1
330
3E98
100
AcDbEntity
  8
0
 62
     0
100
AcDbLine
 10
65.04221142834836
 20
29.61418747749183
 30
0.0
 11
67.84221142834844
 21
32.4141874774919
 31
0.0
  0
LINE
  5
3FA2
330
3E98
100
AcDbEntity
  8
0
 62
     0
100
AcDbLine
 10
52.5780241847973
 20
17.15000023394077
 30
0.0
 11
53.49221142834841
 21
18.06418747749182
 31
0.0
  0
LINE
  5
3FA3
330
3E98
100
AcDbEntity
  8
0
 62
     0
100
AcDbLine
 10
58.5086555068583
 20
23.97865716810872
 30
0.0
 11
60.48855449418056
 21
25.95855615543092
 31
0.0
  0
LINE
  5
3FA4
330
3E98
100
AcDbEntity
  8
0
 62
     0
100
AcDbLine
 10
65.04221142834836
 20
30.51221308959878
 30
0.0
 11
67.65603052024977
 21
33.12603218150013
 31
0.0
  0
LINE
  5
3FA5
330
3E98
100
AcDbEntity
  8
0
 62
     0
100
AcDbLine
 10
51.67999857269029
 20
17.15000023394071
 30
0.0
 11
53.49221142834835
 21
18.96221308959877
 31
0.0
  0
LINE
  5
3FA6
330
3E98
100
AcDbEntity
  8
0
 62
     0
100
AcDbLine
 10
58.05964270080477
 20
24.42766997416208
 30
0.0
 11
60.03954168812708
 21
26.4075689614844
 31
0.0
  0
LINE
  5
3FA7
330
3E98
100
AcDbEntity
  8
0
 62
     0
100
AcDbLine
 10
65.04221142834836
 20
31.41023870170568
 30
0.0
 11
66.88197296058342
 21
33.25000023394079
 31
0.0
  0
LINE
  5
3FA8
330
3E98
100
AcDbEntity
  8
0
 62
     0
100
AcDbLine
 10
50.89358409844539
 20
17.2616113718027
 30
0.0
 11
53.49221142834841
 21
19.86023870170578
 31
0.0
  0
LINE
  5
3FA9
330
3E98
100
AcDbEntity
  8
0
 62
     0
100
AcDbLine
 10
57.61062989475135
 20
24.8766827802155
 30
0.0
 11
59.59052888207367
 21
26.85658176753781
 31
0.0
  0
LINE
  5
3FAA
330
3E98
100
AcDbEntity
  8
0
 62
     0
100
AcDbLine
 10
65.04221142834836
 20
32.30826431381257
 30
0.0
 11
65.98394734847665
 21
33.25000023394079
 31
0.0
  0
LINE
  5
3FAB
330
3E98
100
AcDbEntity
  8
0
 62
     0
100
AcDbLine
 10
50.69221142834845
 20
17.95826431381266
 30
0.0
 11
53.49221142834847
 21
20.75826431381261
 31
0.0
  0
LINE
  5
3FAC
330
3E98
100
AcDbEntity
  8
0
 62
     0
100
AcDbLine
 10
57.16161708869788
 20
25.32569558626898
 30
0.0
 11
59.14151607602019
 21
27.30559457359129
 31
0.0
  0
LINE
  5
3FAD
330
3E98
100
AcDbEntity
  8
0
 62
     0
100
AcDbLine
 10
50.69221142834845
 20
18.85628992591961
 30
0.0
 11
53.49221142834841
 21
21.65628992591956
 31
0.0
  0
LINE
  5
3FAE
330
3E98
100
AcDbEntity
  8
0
 62
     0
100
AcDbLine
 10
56.71463318765654
 20
25.77673729733465
 30
0.0
 11
58.69860672103857
 21
27.76071083071661
 31
0.0
  0
LINE
  5
3FAF
330
3E98
100
AcDbEntity
  8
0
 62
     0
100
AcDbLine
 10
50.69221142834845
 20
19.7543155380265
 30
0.0
 11
53.49221142834841
 21
22.55431553802651
 31
0.0
  0
LINE
  5
3FB0
330
3E98
100
AcDbEntity
  8
0
 62
     0
100
AcDbLine
 10
61.38789612426274
 20
30.45000023394078
 30
0.0
 11
62.41721142834848
 21
31.47931553802652
 31
0.0
  0
LINE
  5
3FB1
330
3E98
100
AcDbEntity
  8
0
 62
     0
100
AcDbLine
 10
48.19955520363823
 20
17.26165931331627
 30
0.0
 11
48.28920756509325
 21
17.35131167477135
 31
0.0
  0
LINE
  5
3FB2
330
3E98
100
AcDbEntity
  8
0
 62
     0
100
AcDbLine
 10
56.31663100883457
 20
26.27676073061951
 30
0.0
 11
58.41626528625318
 21
28.37639500803811
 31
0.0
  0
LINE
  5
3FB3
330
3E98
100
AcDbEntity
  8
0
 62
     0
100
AcDbLine
 10
50.69221142834845
 20
20.65234115013339
 30
0.0
 11
53.49221142834847
 21
23.45234115013334
 31
0.0
  0
LINE
  5
3FB4
330
3E98
100
AcDbEntity
  8
0
 62
     0
100
AcDbLine
 10
60.48987051215584
 20
30.45000023394078
 30
0.0
 11
62.41721142834842
 21
32.3773411501333
 31
0.0
  0
LINE
  5
3FB5
330
3E98
100
AcDbEntity
  8
0
 62
     0
100
AcDbLine
 10
47.18987051215577
 20
17.15000023394071
 30
0.0
 11
48.25564960846225
 21
18.21577933024713
 31
0.0
  0
LINE
  5
3FB6
330
3E98
100
AcDbEntity
  8
0
 62
     0
100
AcDbLine
 10
55.99079674443789
 20
26.84895207832977
 30
0.0
 11
58.3922114283485
 21
29.25036676224033
 31
0.0
  0
LINE
  5
3FB7
330
3E98
100
AcDbEntity
  8
0
 62
     0
100
AcDbLine
 10
50.69221142834845
 20
21.55036676224028
 30
0.0
 11
53.49221142834841
 21
24.35036676224029
 31
0.0
  0
LINE
  5
3FB8
330
3E98
100
AcDbEntity
  8
0
 62
     0
100
AcDbLine
 10
59.59184490004895
 20
30.45000023394078
 30
0.0
 11
62.25054249655056
 21
33.10869783044245
 31
0.0
  0
LINE
  5
3FB9
330
3E98
100
AcDbEntity
  8
0
 62
     0
100
AcDbLine
 10
46.29184490004888
 20
17.15000023394071
 30
0.0
 11
48.04012346155662
 21
18.8982787954485
 31
0.0
  0
LINE
  5
3FBA
330
3E98
100
AcDbEntity
  8
0
 62
     0
100
AcDbLine
 10
50.6922114283484
 20
22.44839237434723
 30
0.0
 11
53.49221142834841
 21
25.24839237434719
 31
0.0
  0
LINE
  5
3FBB
330
3E98
100
AcDbEntity
  8
0
 62
     0
100
AcDbLine
 10
55.74741468176779
 20
27.50359562776663
 30
0.0
 11
61.49381928794207
 21
33.25000023394085
 31
0.0
  0
LINE
  5
3FBC
330
3E98
100
AcDbEntity
  8
0
 62
     0
100
AcDbLine
 10
45.6998305893938
 20
17.45601153539263
 30
0.0
 11
47.82459731465093
 21
19.58077826064976
 31
0.0
  0
LINE
  5
3FBD
330
3E98
100
AcDbEntity
  8
0
 62
     0
100
AcDbLine
 10
50.6922114283484
 20
23.34641798645418
 30
0.0
 11
53.49221142834835
 21
26.14641798645414
 31
0.0
  0
LINE
  5
3FBE
330
3E98
100
AcDbEntity
  8
0
 62
     0
100
AcDbLine
 10
55.6087078226821
 20
28.26291438078789
 30
0.0
 11
60.59579367583513
 21
33.25000023394091
 31
0.0
  0
LINE
  5
3FBF
330
3E98
100
AcDbEntity
  8
0
 62
     0
100
AcDbLine
 10
45.48107116774519
 20
18.13527772585098
 30
0.0
 11
47.60907116774518
 21
20.26327772585096
 31
0.0
  0
LINE
  5
3FC0
330
3E98
100
AcDbEntity
  8
0
 62
     0
100
AcDbLine
 10
50.69221142834845
 20
24.24444359856102
 30
0.0
 11
53.49221142834841
 21
27.04444359856103
 31
0.0
  0
LINE
  5
3FC1
330
3E98
100
AcDbEntity
  8
0
 62
     0
100
AcDbLine
 10
55.59221142834843
 20
29.144443598561
 30
0.0
 11
59.69776806372817
 21
33.25000023394079
 31
0.0
  0
LINE
  5
3FC2
330
3E98
100
AcDbEntity
  8
0
 62
     0
100
AcDbLine
 10
45.26554502083956
 20
18.81777719105218
 30
0.0
 11
47.39354502083966
 21
20.94577719105223
 31
0.0
  0
LINE
  5
3FC3
330
3E98
100
AcDbEntity
  8
0
 62
     0
100
AcDbLine
 10
50.6922114283484
 20
25.14246921066797
 30
0.0
 11
53.49221142834841
 21
27.94246921066792
 31
0.0
  0
LINE
  5
3FC4
330
3E98
100
AcDbEntity
  8
0
 62
     0
100
AcDbLine
 10
55.59221142834849
 20
30.042469210668
 30
0.0
 11
58.79974245162128
 21
33.25000023394079
 31
0.0
  0
LINE
  5
3FC5
330
3E98
100
AcDbEntity
  8
0
 62
     0
100
AcDbLine
 10
45.05001887393382
 20
19.50027665625339
 30
0.0
 11
47.17801887393398
 21
21.62827665625349
 31
0.0
  0
LINE
  5
3FC6
330
3E98
100
AcDbEntity
  8
0
 62
     0
100
AcDbLine
 10
50.6922114283484
 20
26.04049482277486
 30
0.0
 11
53.49221142834835
 21
28.84049482277487
 31
0.0
  0
LINE
  5
3FC7
330
3E98
100
AcDbEntity
  8
0
 62
     0
100
AcDbLine
 10
44.83449272702819
 20
20.18277612145471
 30
0.0
 11
46.96249272702829
 21
22.31077612145475
 31
0.0
  0
LINE
  5
3FC8
330
3E98
100
AcDbEntity
  8
0
 62
     0
100
AcDbLine
 10
55.64552809846964
 20
30.99381149289615
 30
0.0
 11
57.84840016939296
 21
33.19668356381948
 31
0.0
  0
LINE
  5
3FC9
330
3E98
100
AcDbEntity
  8
0
 62
     0
100
AcDbLine
 10
41.80171683951431
 20
17.15000023394077
 30
0.0
 11
42.64221142834839
 21
17.9904948227749
 31
0.0
  0
LINE
  5
3FCA
330
3E98
100
AcDbEntity
  8
0
 62
     0
100
AcDbLine
 10
44.61896658012261
 20
20.86527558665591
 30
0.0
 11
46.74696658012254
 21
22.99327558665589
 31
0.0
  0
LINE
  5
3FCB
330
3E98
100
AcDbEntity
  8
0
 62
     0
100
AcDbLine
 10
50.6922114283484
 20
26.93852043488175
 30
0.0
 11
53.49221142834841
 21
29.7385204348817
 31
0.0
  0
LINE
  5
3FCC
330
3E98
100
AcDbEntity
  8
0
 62
     0
100
AcDbLine
 10
40.90369122740741
 20
17.15000023394077
 30
0.0
 11
42.64221142834844
 21
18.88852043488179
 31
0.0
  0
LINE
  5
3FCD
330
3E98
100
AcDbEntity
  8
0
 62
     0
100
AcDbLine
 10
44.40344043321693
 20
21.54777505185717
 30
0.0
 11
46.53144043321697
 21
23.67577505185727
 31
0.0
  0
LINE
  5
3FCE
330
3E98
100
AcDbEntity
  8
0
 62
     0
100
AcDbLine
 10
50.6922114283484
 20
27.8365460469887
 30
0.0
 11
53.49221142834835
 21
30.63654604698865
 31
0.0
  0
LINE
  5
3FCF
330
3E98
100
AcDbEntity
  8
0
 62
     0
100
AcDbLine
 10
40.08681536295171
 20
17.23114998159201
 30
0.0
 11
42.64221142834844
 21
19.78654604698869
 31
0.0
  0
LINE
  5
3FD0
330
3E98
100
AcDbEntity
  8
0
 62
     0
100
AcDbLine
 10
44.18791428631124
 20
22.23027451705843
 30
0.0
 11
46.31591428631128
 21
24.35827451705853
 31
0.0
  0
LINE
  5
3FD1
330
3E98
100
AcDbEntity
  8
0
 62
     0
100
AcDbLine
 10
50.6922114283484
 20
28.73457165909559
 30
0.0
 11
53.49221142834835
 21
31.5345716590956
 31
0.0
  0
LINE
  5
3FD2
330
3E98
100
AcDbEntity
  8
0
 62
     0
100
AcDbLine
 10
39.84221142834843
 20
17.88457165909562
 30
0.0
 11
42.64221142834839
 21
20.68457165909563
 31
0.0
  0
LINE
  5
3FD3
330
3E98
100
AcDbEntity
  8
0
 62
     0
100
AcDbLine
 10
43.9723881394056
 20
22.91277398225963
 30
0.0
 11
46.10038813940565
 21
25.04077398225973
 31
0.0
  0
LINE
  5
3FD4
330
3E98
100
AcDbEntity
  8
0
 62
     0
100
AcDbLine
 10
50.6922114283484
 20
29.63259727120248
 30
0.0
 11
53.49221142834835
 21
32.43259727120244
 31
0.0
  0
LINE
  5
3FD5
330
3E98
100
AcDbEntity
  8
0
 62
     0
100
AcDbLine
 10
39.84221142834843
 20
18.78259727120251
 30
0.0
 11
42.64221142834844
 21
21.58259727120247
 31
0.0
  0
LINE
  5
3FD6
330
3E98
100
AcDbEntity
  8
0
 62
     0
100
AcDbLine
 10
43.73758935243387
 20
23.5760008073949
 30
0.0
 11
46.36788342036476
 21
26.20629487532579
 31
0.0
  0
LINE
  5
3FD7
330
3E98
100
AcDbEntity
  8
0
 62
     0
100
AcDbLine
 10
50.69221142834845
 20
30.53062288330949
 30
0.0
 11
53.29593600585003
 21
33.134347460811
 31
0.0
  0
LINE
  5
3FD8
330
3E98
100
AcDbEntity
  8
0
 62
     0
100
AcDbLine
 10
39.84221142834843
 20
19.68062288330946
 30
0.0
 11
42.64221142834839
 21
22.48062288330942
 31
0.0
  0
LINE
  5
3FD9
330
3E98
100
AcDbEntity
  8
0
 62
     0
100
AcDbLine
 10
43.05040398256648
 20
23.78684104963446
 30
0.0
 11
46.7823567797987
 21
27.51879384686668
 31
0.0
  0
LINE
  5
3FDA
330
3E98
100
AcDbEntity
  8
0
 62
     0
100
AcDbLine
 10
39.84221142834843
 20
20.57864849541636
 30
0.0
 11
42.65537061265473
 21
23.39180767972266
 31
0.0
  0
LINE
  5
3FDB
330
3E98
100
AcDbEntity
  8
0
 62
     0
100
AcDbLine
 10
50.69221142834845
 20
31.42864849541638
 30
0.0
 11
52.51356316687282
 21
33.25000023394079
 31
0.0
  0
LINE
  5
3FDC
330
3E98
100
AcDbEntity
  8
0
 62
     0
100
AcDbLine
 10
36.41356316687279
 20
17.15000023394071
 30
0.0
 11
37.39221142834844
 21
18.12864849541642
 31
0.0
  0
LINE
  5
3FDD
330
3E98
100
AcDbEntity
  8
0
 62
     0
100
AcDbLine
 10
39.84221142834837
 20
21.47667410752331
 30
0.0
 11
47.19683013923265
 21
28.83129281840751
 31
0.0
  0
LINE
  5
3FDE
330
3E98
100
AcDbEntity
  8
0
 62
     0
100
AcDbLine
 10
50.6922114283484
 20
32.32667410752333
 30
0.0
 11
51.61553755476586
 21
33.25000023394079
 31
0.0
  0
LINE
  5
3FDF
330
3E98
100
AcDbEntity
  8
0
 62
     0
100
AcDbLine
 10
35.51553755476584
 20
17.15000023394077
 30
0.0
 11
37.39221142834844
 21
19.02667410752337
 31
0.0
  0
LINE
  5
3FE0
330
3E98
100
AcDbEntity
  8
0
 62
     0
100
AcDbLine
 10
39.84221142834843
 20
22.37469971963014
 30
0.0
 11
47.6113034986667
 21
30.14379178994841
 31
0.0
  0
LINE
  5
3FE1
330
3E98
100
AcDbEntity
  8
0
 62
     0
100
AcDbLine
 10
34.62919256700905
 20
17.16168085829082
 30
0.0
 11
37.25087714474227
 21
19.78336543602398
 31
0.0
  0
LINE
  5
3FE2
330
3E98
100
AcDbEntity
  8
0
 62
     0
100
AcDbLine
 10
39.84221142834837
 20
23.27272533173709
 30
0.0
 11
43.16948633055204
 21
26.60000023394076
 31
0.0
  0
LINE
  5
3FE3
330
3E98
100
AcDbEntity
  8
0
 62
     0
100
AcDbLine
 10
43.93346916579275
 20
27.36398306918147
 30
0.0
 11
48.0257768581007
 21
31.45629076148935
 31
0.0
  0
LINE
  5
3FE4
330
3E98
100
AcDbEntity
  8
0
 62
     0
100
AcDbLine
 10
33.86103204956208
 20
17.29154595295074
 30
0.0
 11
36.51948633055212
 21
19.95000023394078
 31
0.0
  0
LINE
  5
3FE5
330
3E98
100
AcDbEntity
  8
0
 62
     0
100
AcDbLine
 10
39.84221142834837
 20
24.17075094384404
 30
0.0
 11
42.6602019990567
 21
26.98874151455231
 31
0.0
  0
LINE
  5
3FE6
330
3E98
100
AcDbEntity
  8
0
 62
     0
100
AcDbLine
 10
44.3479425252267
 20
28.6764820407223
 30
0.0
 11
48.40084830990207
 21
32.72938782539773
 31
0.0
  0
LINE
  5
3FE7
330
3E98
100
AcDbEntity
  8
0
 62
     0
100
AcDbLine
 10
33.19989779273567
 20
17.52843730823133
 30
0.0
 11
35.62146071844518
 21
19.95000023394084
 31
0.0
  0
LINE
  5
3FE8
330
3E98
100
AcDbEntity
  8
0
 62
     0
100
AcDbLine
 10
39.84221142834843
 20
25.06877655595087
 30
0.0
 11
42.64221142834844
 21
27.86877655595094
 31
0.0
  0
LINE
  5
3FE9
330
3E98
100
AcDbEntity
  8
0
 62
     0
100
AcDbLine
 10
44.76241588466064
 20
29.98898101226314
 30
0.0
 11
48.00683643733288
 21
33.23340156493538
 31
0.0
  0
LINE
  5
3FEA
330
3E98
100
AcDbEntity
  8
0
 62
     0
100
AcDbLine
 10
32.62229450857137
 20
17.84885963617381
 30
0.0
 11
34.73835636706422
 21
19.96492149466672
 31
0.0
  0
LINE
  5
3FEB
330
3E98
100
AcDbEntity
  8
0
 62
     0
100
AcDbLine
 10
39.84221142834837
 20
25.96680216805782
 30
0.0
 11
42.64221142834844
 21
28.76680216805789
 31
0.0
  0
LINE
  5
3FEC
330
3E98
100
AcDbEntity
  8
0
 62
     0
100
AcDbLine
 10
45.17688924409464
 20
31.30147998380408
 30
0.0
 11
47.12540949423135
 21
33.25000023394079
 31
0.0
  0
LINE
  5
3FED
330
3E98
100
AcDbEntity
  8
0
 62
     0
100
AcDbLine
 10
32.11733954218931
 20
18.2419302818987
 30
0.0
 11
34.10404022604592
 21
20.22863096575531
 31
0.0
  0
LINE
  5
3FEE
330
3E98
100
AcDbEntity
  8
0
 62
     0
100
AcDbLine
 10
39.84221142834837
 20
26.86482778016471
 30
0.0
 11
42.64221142834844
 21
29.66482778016478
 31
0.0
  0
LINE
  5
3FEF
330
3E98
100
AcDbEntity
  8
0
 62
     0
100
AcDbLine
 10
36.50384556012488
 20
23.52646191194128
 30
0.0
 11
37.66574975034797
 21
24.68836610216436
 31
0.0
  0
LINE
  5
3FF0
330
3E98
100
AcDbEntity
  8
0
 62
     0
100
AcDbLine
 10
45.59136260352858
 20
32.61397895534497
 30
0.0
 11
46.22738388212446
 21
33.25000023394085
 31
0.0
  0
LINE
  5
3FF1
330
3E98
100
AcDbEntity
  8
0
 62
     0
100
AcDbLine
 10
31.68090246885947
 20
18.70351882067586
 30
0.0
 11
33.69378927477373
 21
20.71640562659013
 31
0.0
  0
LINE
  5
3FF2
330
3E98
100
AcDbEntity
  8
0
 62
     0
100
AcDbLine
 10
35.57887271849506
 20
23.4995146824184
 30
0.0
 11
37.69269697987084
 21
25.61333894379413
 31
0.0
  0
LINE
  5
3FF3
330
3E98
100
AcDbEntity
  8
0
 62
     0
100
AcDbLine
 10
39.84221142834832
 20
27.76285339227166
 30
0.0
 11
42.64221142834839
 21
30.56285339227173
 31
0.0
  0
LINE
  5
3FF4
330
3E98
100
AcDbEntity
  8
0
 62
     0
100
AcDbLine
 10
31.3138832439165
 20
19.23452520783979
 30
0.0
 11
33.54221142834842
 21
21.46285339227176
 31
0.0
  0
LINE
  5
3FF5
330
3E98
100
AcDbEntity
  8
0
 62
     0
100
AcDbLine
 10
34.96472614907486
 20
23.78339372510498
 30
0.0
 11
37.40881793718421
 21
26.22748551321439
 31
0.0
  0
LINE
  5
3FF6
330
3E98
100
AcDbEntity
  8
0
 62
     0
100
AcDbLine
 10
39.84221142834837
 20
28.66087900437856
 30
0.0
 11
42.64221142834844
 21
31.46087900437857
 31
0.0
  0
LINE
  5
3FF7
330
3E98
100
AcDbEntity
  8
0
 62
     0
100
AcDbLine
 10
31.02256573399177
 20
19.84123331002194
 30
0.0
 11
33.54221142834842
 21
22.3608790043786
 31
0.0
  0
LINE
  5
3FF8
330
3E98
100
AcDbEntity
  8
0
 62
     0
100
AcDbLine
 10
34.52676622208514
 20
24.24345941022227
 30
0.0
 11
36.94875225206698
 21
26.66544544020405
 31
0.0
  0
LINE
  5
3FF9
330
3E98
100
AcDbEntity
  8
0
 62
     0
100
AcDbLine
 10
39.84221142834837
 20
29.55890461648545
 30
0.0
 11
42.64221142834839
 21
32.35890461648551
 31
0.0
  0
LINE
  5
3FFA
330
3E98
100
AcDbEntity
  8
0
 62
     0
100
AcDbLine
 10
30.82142836981711
 20
20.53812155795424
 30
0.0
 11
33.54221142834842
 21
23.25890461648555
 31
0.0
  0
LINE
  5
3FFB
330
3E98
100
AcDbEntity
  8
0
 62
     0
100
AcDbLine
 10
34.27071548967677
 20
24.88543428992079
 30
0.0
 11
36.3067773723684
 21
26.92149617261248
 31
0.0
  0
LINE
  5
3FFC
330
3E98
100
AcDbEntity
  8
0
 62
     0
100
AcDbLine
 10
30.74221142834835
 20
21.35693022859243
 30
0.0
 11
33.54221142834842
 21
24.15693022859244
 31
0.0
  0
LINE
  5
3FFD
330
3E98
100
AcDbEntity
  8
0
 62
     0
100
AcDbLine
 10
39.84221142834832
 20
30.45693022859239
 30
0.0
 11
42.48496131999331
 21
33.09968012023739
 31
0.0
  0
LINE
  5
3FFE
330
3E98
100
AcDbEntity
  8
0
 62
     0
100
AcDbLine
 10
26.65621467047276
 20
17.27093347071684
 30
0.0
 11
28.52127819157249
 21
19.13599699181657
 31
0.0
  0
LINE
  5
3FFF
330
3E98
100
AcDbEntity
  8
0
 62
     0
100
AcDbLine
 10
34.38912857315756
 20
25.90187298550847
 30
0.0
 11
35.29033867678077
 21
26.80308308913168
 31
0.0
  0
LINE
  5
4000
330
3E98
100
AcDbEntity
  8
0
 62
     0
100
AcDbLine
 10
30.74221142834835
 20
22.25495584069926
 30
0.0
 11
33.54221142834842
 21
25.05495584069933
 31
0.0
  0
LINE
  5
4001
330
3E98
100
AcDbEntity
  8
0
 62
     0
100
AcDbLine
 10
39.84221142834837
 20
31.35495584069923
 30
0.0
 11
41.73725582158994
 21
33.25000023394085
 31
0.0
  0
LINE
  5
4002
330
3E98
100
AcDbEntity
  8
0
 62
     0
100
AcDbLine
 10
25.6372558215898
 20
17.15000023394071
 30
0.0
 11
28.64221142834844
 21
20.15495584069936
 31
0.0
  0
LINE
  5
4003
330
3E98
100
AcDbEntity
  8
0
 62
     0
100
AcDbLine
 10
30.74221142834835
 20
23.15298145280621
 30
0.0
 11
33.54221142834842
 21
25.95298145280628
 31
0.0
  0
LINE
  5
4004
330
3E98
100
AcDbEntity
  8
0
 62
     0
100
AcDbLine
 10
39.84221142834832
 20
32.25298145280618
 30
0.0
 11
40.83923020948293
 21
33.25000023394079
 31
0.0
  0
LINE
  5
4005
330
3E98
100
AcDbEntity
  8
0
 62
     0
100
AcDbLine
 10
24.73923020948291
 20
17.15000023394071
 30
0.0
 11
28.64221142834844
 21
21.0529814528063
 31
0.0
  0
LINE
  5
4006
330
3E98
100
AcDbEntity
  8
0
 62
     0
100
AcDbLine
 10
30.74221142834835
 20
24.0510070649131
 30
0.0
 11
33.54221142834836
 21
26.85100706491317
 31
0.0
  0
LINE
  5
4007
330
3E98
100
AcDbEntity
  8
0
 62
     0
100
AcDbLine
 10
23.84120459737596
 20
17.15000023394077
 30
0.0
 11
28.63827207578725
 21
21.94706771235206
 31
0.0
  0
LINE
  5
4008
330
3E98
100
AcDbEntity
  8
0
 62
     0
100
AcDbLine
 10
30.74221142834835
 20
24.94903267702005
 30
0.0
 11
33.54221142834842
 21
27.74903267702012
 31
0.0
  0
LINE
  5
4009
330
3E98
100
AcDbEntity
  8
0
 62
     0
100
AcDbLine
 10
36.24317898526914
 20
30.45000023394084
 30
0.0
 11
37.3922114283485
 21
31.59903267702015
 31
0.0
  0
LINE
  5
400A
330
3E98
100
AcDbEntity
  8
0
 62
     0
100
AcDbLine
 10
22.94317898526907
 20
17.15000023394077
 30
0.0
 11
28.52861023946593
 21
22.73543148813763
 31
0.0
  0
LINE
  5
400B
330
3E98
100
AcDbEntity
  8
0
 62
     0
100
AcDbLine
 10
30.74221142834835
 20
25.84705828912694
 30
0.0
 11
33.54221142834842
 21
28.64705828912696
 31
0.0
  0
LINE
  5
400C
330
3E98
100
AcDbEntity
  8
0
 62
     0
100
AcDbLine
 10
25.84221142834843
 20
20.94705828912702
 30
0.0
 11
28.30627149542181
 21
23.4111183562004
 31
0.0
  0
LINE
  5
400D
330
3E98
100
AcDbEntity
  8
0
 62
     0
100
AcDbLine
 10
35.34515337316213
 20
30.45000023394072
 30
0.0
 11
37.39221142834844
 21
32.49705828912704
 31
0.0
  0
LINE
  5
400E
330
3E98
100
AcDbEntity
  8
0
 62
     0
100
AcDbLine
 10
22.10287924842208
 20
17.20772610920067
 30
0.0
 11
24.84515337316213
 21
19.95000023394072
 31
0.0
  0
LINE
  5
400F
330
3E98
100
AcDbEntity
  8
0
 62
     0
100
AcDbLine
 10
30.74221142834829
 20
26.74508390123384
 30
0.0
 11
33.70802613412809
 21
29.71089860701363
 31
0.0
  0
LINE
  5
4010
330
3E98
100
AcDbEntity
  8
0
 62
     0
100
AcDbLine
 10
25.84005233673917
 20
21.84292480962466
 30
0.0
 11
27.99783996074978
 21
24.00071243363532
 31
0.0
  0
LINE
  5
4011
330
3E98
100
AcDbEntity
  8
0
 62
     0
100
AcDbLine
 10
34.28131305527563
 20
30.28418552816117
 30
0.0
 11
37.15874401342864
 21
33.16161648631413
 31
0.0
  0
LINE
  5
4012
330
3E98
100
AcDbEntity
  8
0
 62
     0
100
AcDbLine
 10
21.81721142834834
 20
17.82008390123388
 30
0.0
 11
23.94712776105529
 21
19.95000023394084
 31
0.0
  0
LINE
  5
4013
330
3E98
100
AcDbEntity
  8
0
 62
     0
100
AcDbLine
 10
25.62044931723846
 20
22.52134740223096
 30
0.0
 11
27.61559799591088
 21
24.51649608090338
 31
0.0
  0
LINE
  5
4014
330
3E98
100
AcDbEntity
  8
0
 62
     0
100
AcDbLine
 10
30.74221142834829
 20
27.64310951334079
 30
0.0
 11
36.34910214894836
 21
33.25000023394085
 31
0.0
  0
LINE
  5
4015
330
3E98
100
AcDbEntity
  8
0
 62
     0
100
AcDbLine
 10
21.81721142834834
 20
18.71810951334083
 30
0.0
 11
23.04910214894829
 21
19.95000023394078
 31
0.0
  0
LINE
  5
4016
330
3E98
100
AcDbEntity
  8
0
 62
     0
100
AcDbLine
 10
25.19419448893376
 20
22.99311818603308
 30
0.0
 11
27.17409347625613
 21
24.97301717335545
 31
0.0
  0
LINE
  5
4017
330
3E98
100
AcDbEntity
  8
0
 62
     0
100
AcDbLine
 10
30.74221142834835
 20
28.54113512544762
 30
0.0
 11
35.45107653684141
 21
33.25000023394073
 31
0.0
  0
LINE
  5
4018
330
3E98
100
AcDbEntity
  8
0
 62
     0
100
AcDbLine
 10
21.88616335036817
 20
19.6850870474675
 30
0.0
 11
22.08212461482179
 21
19.88104831192112
 31
0.0
  0
LINE
  5
4019
330
3E98
100
AcDbEntity
  8
0
 62
     0
100
AcDbLine
 10
30.76218654250493
 20
29.45913585171115
 30
0.0
 11
34.53307581057794
 21
33.23002511978421
 31
0.0
  0
LINE
  5
401A
330
3E98
100
AcDbEntity
  8
0
 62
     0
100
AcDbLine
 10
24.74518168288017
 20
23.44213099208644
 30
0.0
 11
26.72508067020265
 21
25.42202997940893
 31
0.0
  0
LINE
  5
401B
330
3E98
100
AcDbEntity
  8
0
 62
     0
100
AcDbLine
 10
31.06164997477071
 20
30.65662489608394
 30
0.0
 11
33.33558676620521
 21
32.93056168751843
 31
0.0
  0
LINE
  5
401C
330
3E98
100
AcDbEntity
  8
0
 62
     0
100
AcDbLine
 10
24.29616887682669
 20
23.89114379813992
 30
0.0
 11
26.27606786414918
 21
25.8710427854624
 31
0.0
  0
LINE
  5
401D
330
3E98
100
AcDbEntity
  8
0
 62
     0
100
AcDbLine
 10
23.84715607077345
 20
24.34015660419351
 30
0.0
 11
25.8270550580957
 21
26.32005559151571
 31
0.0
  0
LINE
  5
401E
330
3E98
100
AcDbEntity
  8
0
 62
     0
100
AcDbLine
 10
23.39814326471997
 20
24.78916941024698
 30
0.0
 11
25.37804225204223
 21
26.76906839756918
 31
0.0
  0
LINE
  5
401F
330
3E98
100
AcDbEntity
  8
0
 62
     0
100
AcDbLine
 10
22.94913045866633
 20
25.23818221630028
 30
0.0
 11
24.92902944598881
 21
27.21808120362277
 31
0.0
  0
LINE
  5
4020
330
3E98
100
AcDbEntity
  8
0
 62
     0
100
AcDbLine
 10
27.26292286419993
 20
30.45000023394084
 30
0.0
 11
28.1172114283483
 21
31.3042887980892
 31
0.0
  0
LINE
  5
4021
330
3E98
100
AcDbEntity
  8
0
 62
     0
100
AcDbLine
 10
22.5002009666411
 20
25.68727833638201
 30
0.0
 11
24.48026661007355
 21
27.66734397981446
 31
0.0
  0
LINE
  5
4022
330
3E98
100
AcDbEntity
  8
0
 62
     0
100
AcDbLine
 10
26.36489725209298
 20
30.45000023394072
 30
0.0
 11
28.11721142834841
 21
32.20231441019615
 31
0.0
  0
LINE
  5
4023
330
3E98
100
AcDbEntity
  8
0
 62
     0
100
AcDbLine
 10
22.08873304208953
 20
26.17383602393721
 30
0.0
 11
24.15036972878562
 21
28.23547271063336
 31
0.0
  0
LINE
  5
4024
330
3E98
100
AcDbEntity
  8
0
 62
     0
100
AcDbLine
 10
25.46687163998615
 20
30.45000023394078
 30
0.0
 11
28.03065252858726
 21
33.01378112254195
 31
0.0
  0
LINE
  5
4025
330
3E98
100
AcDbEntity
  8
0
 62
     0
100
AcDbLine
 10
21.74827243582706
 20
26.73140102978169
 30
0.0
 11
24.09221142834837
 21
29.07534002230306
 31
0.0
  0
LINE
  5
4026
330
3E98
100
AcDbEntity
  8
0
 62
     0
100
AcDbLine
 10
24.56637937870903
 20
30.44753358477061
 30
0.0
 11
27.36884602787921
 21
33.25000023394079
 31
0.0
  0
LINE
  5
4027
330
3E98
100
AcDbEntity
  8
0
 62
     0
100
AcDbLine
 10
21.48757914009496
 20
27.36873334615654
 30
0.0
 11
24.09467807751855
 21
29.97583228358019
 31
0.0
  0
LINE
  5
4028
330
3E98
100
AcDbEntity
  8
0
 62
     0
100
AcDbLine
 10
21.3257671778469
 20
28.10494699601537
 30
0.0
 11
26.47082041577232
 21
33.25000023394079
 31
0.0
  0
LINE
  5
4029
330
3E98
100
AcDbEntity
  8
0
 62
     0
100
AcDbLine
 10
21.29221142834842
 20
28.96941685862378
 30
0.0
 11
25.57279480366537
 21
33.25000023394079
 31
0.0
  0
LINE
  5
402A
330
3E98
100
AcDbEntity
  8
0
 62
     0
100
AcDbLine
 10
21.29221142834836
 20
29.86744247073073
 30
0.0
 11
24.67476919155848
 21
33.25000023394079
 31
0.0
  0
LINE
  5
402B
330
3E98
100
AcDbEntity
  8
0
 62
     0
100
AcDbLine
 10
21.3124034387867
 20
30.78566009327596
 30
0.0
 11
23.75655156901331
 21
33.22980822350257
 31
0.0
  0
ENDBLK
  5
402D
330
3E98
100
AcDbEntity
  8
0
100
AcDbBlockEnd
  0
BLOCK
  5
40E0
330
402F
100
AcDbEntity
  8
0
100
AcDbBlockBegin
  2
A$C10B13E77
 70
     0
 10
0.0
 20
0.0
 30
0.0
  3
A$C10B13E77
  1

  0
LINE
  5
4030
330
402F
100
AcDbEntity
  8
ZUWAKU
100
AcDbLine
 10
0.0000002159448513
 20
10.17036015627485
 30
0.0
 11
277.7344202159447
 21
10.17036015627485
 31
0.0
  0
LINE
  5
4031
330
402F
100
AcDbEntity
  8
ZUWAKU
100
AcDbLine
 10
0.0000002159448513
 20
10.24002015627473
 30
0.0
 11
277.7344202159447
 21
10.24002015627473
 31
0.0
  0
LINE
  5
4032
330
402F
100
AcDbEntity
  8
ZUWAKU
100
AcDbLine
 10
0.0000002159448513
 20
10.30968015627468
 30
0.0
 11
277.7344202159447
 21
10.30968015627468
 31
0.0
  0
LINE
  5
4033
330
402F
100
AcDbEntity
  8
ZUWAKU
100
AcDbLine
 10
0.0000002159448513
 20
10.37934015627462
 30
0.0
 11
277.7344202159447
 21
10.37934015627462
 31
0.0
  0
LINE
  5
4034
330
402F
100
AcDbEntity
  8
ZUWAKU
100
AcDbLine
 10
0.0000002159448513
 20
10.44900015627485
 30
0.0
 11
277.7344202159447
 21
10.44900015627485
 31
0.0
  0
LINE
  5
4035
330
402F
100
AcDbEntity
  8
ZUWAKU
100
AcDbLine
 10
72.67161144527563
 20
5.085180156274702
 30
0.0
 11
155.837906187041
 21
5.085180156274702
 31
0.0
  0
LINE
  5
4036
330
402F
100
AcDbEntity
  8
ZUWAKU
100
AcDbLine
 10
72.67161144527563
 20
5.154840156274929
 30
0.0
 11
155.837906187041
 21
5.154840156274929
 31
0.0
  0
LINE
  5
4037
330
402F
100
AcDbEntity
  8
ZUWAKU
100
AcDbLine
 10
72.67161144527563
 20
5.01552015627476
 30
0.0
 11
155.837906187041
 21
5.01552015627476
 31
0.0
  0
TEXT
  5
4038
330
402F
100
AcDbEntity
  8
MOJI
100
AcDbText
 10
32.37719832950427
 20
4.159112499049399
 30
0.0
 40
2.089799999999999
  1
ユニシェイプＵＲＴ６０ＢＬ
 41
0.9
  7
MSPｺﾞｼｯｸ
100
AcDbText
  0
LINE
  5
4039
330
402F
100
AcDbEntity
  8
ZUWAKU
100
AcDbLine
 10
4.908317709455104
 20
7.819335156274803
 30
0.0
 11
6.127367709455086
 21
7.819335156274803
 31
0.0
  0
LINE
  5
403A
330
402F
100
AcDbEntity
  8
ZUWAKU
100
AcDbLine
 10
6.064620935381697
 20
4.853578247632583
 30
0.0
 11
5.051138300812908
 21
5.867060882201315
 31
0.0
  0
LINE
  5
403B
330
402F
100
AcDbEntity
  8
ZUWAKU
100
AcDbLine
 10
6.127367709455086
 20
6.844095156274761
 30
0.0
 11
5.091175209455286
 21
6.844095156274761
 31
0.0
  0
INSERT
  5
403C
330
402F
100
AcDbEntity
  8
ZUWAKU
  6
Continuous
100
AcDbBlockReference
  2
*X11
 10
-3.482999531038728
 20
-3.761639925206907
 30
0.0
 41
0.3483
 42
0.3483
 43
0.3483
1001
ACAD
1000
HATCH
1002
{
1070
    19
1000
ANSI37
1040
0.2
1040
0.0
1000
R14_HATCH_DATA
1000
B3A
1011
-3.134699531038677
1021
-3.761639925206907
1031
0.0
1011
-3.482999531038728
1021
-3.413339925206912
1031
0.0
1011
-3.482999531038728
1021
-3.761639925206907
1031
0.3483
1040
0.0
1010
0.0
1020
0.0
1030
1.0
1000
ANSI37
1070
     0
1070
     0
1071
        8
1071
        7
1070
     1
1070
     1
1071
       24
1040
24.50226193468711
1040
27.64484871492438
1040
-0.1989123673796348
1040
24.09221142834837
1040
28.63479820858543
1040
0.0
1040
24.09221142834837
1040
29.92500023394081
1040
-0.4142135623730912
1040
24.61721142834835
1040
30.45000023394079
1040
0.0
1040
27.59221142834826
1040
30.45000023394079
1040
0.4142135623731546
1040
28.11721142834835
1040
30.97500023394079
1040
0.0
1040
28.11721142834835
1040
32.7250002339408
1040
0.4142135623731586
1040
27.59221142834826
1040
33.2500002339408
1040
0.0
1040
24.09221142834837
1040
33.2500002339408
1040
0.4142135623730928
1040
21.29221142834842
1040
30.45000023394083
1040
0.0
1040
21.29221142834842
1040
28.63479820858556
1040
0.1989123673796619
1040
22.52236294736485
1040
25.66494972760195
1040
0.0
1040
25.43216092200953
1040
22.75515175295729
1040
-0.1989123673796613
1040
25.84221142834838
1040
21.7652022592961
1040
0.0
1040
25.84221142834838
1040
20.47500023394078
1040
-0.4142135623730911
1040
25.3172114283484
1040
19.95000023394079
1040
0.0
1040
22.34221142834849
1040
19.95000023394079
1040
0.4142135623731526
1040
21.81721142834839
1040
19.42500023394081
1040
0.0
1040
21.81721142834839
1040
17.67500023394078
1040
0.4142135623731526
1040
22.34221142834849
1040
17.1500002339408
1040
0.0
1040
25.84221142834838
1040
17.1500002339408
1040
0.4142135623731044
1040
28.64221142834844
1040
19.95000023394077
1040
0.0
1040
28.64221142834844
1040
21.76520225929605
1040
0.1989123673796604
1040
27.4120599093319
1040
24.73505074027959
1040
0.0
1071
        0
1071
        7
1070
     1
1070
     1
1071
       16
1040
33.54221142834842
1040
29.0500002339408
1040
-0.4142135623730935
1040
34.9422114283484
1040
30.45000023394079
1040
0.0
1040
36.86721142834835
1040
30.45000023394079
1040
0.4142135623731546
1040
37.39221142834844
1040
30.97500023394079
1040
0.0
1040
37.39221142834844
1040
32.7250002339408
1040
0.4142135623730951
1040
36.86721142834846
1040
33.2500002339408
1040
0.0
1040
34.94221142834828
1040
33.25000023394076
1040
0.4142135623730892
1040
30.74221142834835
1040
29.05000023394073
1040
0.0
1040
30.74221142834835
1040
21.35000023394082
1040
0.4142135623730969
1040
34.9422114283484
1040
17.1500002339408
1040
0.0
1040
36.86721142834835
1040
17.1500002339408
1040
0.4142135623731526
1040
37.39221142834844
1040
17.67500023394078
1040
0.0
1040
37.39221142834844
1040
19.42500023394081
1040
0.4142135623730891
1040
36.86721142834846
1040
19.95000023394079
1040
0.0
1040
34.9422114283484
1040
19.95000023394079
1040
-0.4142135623730928
1040
33.54221142834842
1040
21.35000023394078
1040
0.0
1071
        0
1071
        7
1070
     1
1070
     1
1071
        2
1040
34.24221142834835
1040
25.2000002339408
1040
1.0
1040
37.74221142834835
1040
25.2000002339408
1040
1.0
1071
        0
1071
        7
1070
     1
1070
     1
1071
       26
1040
47.31485791052636
1040
29.20504742750422
1040
0.0
1040
48.37649754366418
1040
32.56690626577381
1040
0.5069206636600134
1040
47.87586664446883
1040
33.2500002339408
1040
0.0
1040
46.17697726485959
1040
33.2500002339408
1040
0.3272098845218764
1040
45.67634636566424
1040
32.88309420210777
1040
0.0
1040
43.80807649103246
1040
26.96690626577388
1040
-0.3272098845219541
1040
43.30744559183699
1040
26.60000023394079
1040
0.0
1040
43.16721142834853
1040
26.60000023394079
1040
-0.4142135623731526
1040
42.64221142834844
1040
27.12500023394078
1040
0.0
1040
42.64221142834844
1040
32.7250002339408
1040
0.4142135623730951
1040
42.11721142834846
1040
33.2500002339408
1040
0.0
1040
40.36721142834835
1040
33.2500002339408
1040
0.4142135623730871
1040
39.84221142834837
1040
32.72500023394082
1040
0.0
1040
39.84221142834837
1040
17.67500023394078
1040
0.4142135623730891
1040
40.36721142834835
1040
17.1500002339408
1040
0.0
1040
42.11721142834835
1040
17.1500002339408
1040
0.4142135623731526
1040
42.64221142834844
1040
17.67500023394078
1040
0.0
1040
42.64221142834844
1040
23.27500023394081
1040
-0.4142135623731526
1040
43.16721142834853
1040
23.80000023394079
1040
0.0
1040
43.30744559183711
1040
23.80000023394079
1040
-0.3272098845218915
1040
43.80807649103246
1040
23.43309420210772
1040
0.0
1040
45.67634636566424
1040
17.51690626577387
1040
0.3272098845218902
1040
46.17697726485959
1040
17.1500002339408
1040
0.0
1040
47.87586664446883
1040
17.1500002339408
1040
0.5069206636600335
1040
48.37649754366418
1040
17.8330942021078
1040
0.0
1040
46.05010616519052
1040
25.20000023394093
1040
0.0
1071
        0
1071
        7
1070
     1
1070
     1
1071
        8
1040
53.49221142834835
1040
32.72500023394081
1040
0.4142135623731546
1040
52.96721142834826
1040
33.2500002339408
1040
0.0
1040
51.21721142834849
1040
33.2500002339408
1040
0.4142135623731507
1040
50.6922114283484
1040
32.72500023394082
1040
0.0
1040
50.6922114283484
1040
17.67500023394078
1040
0.4142135623731526
1040
51.21721142834849
1040
17.1500002339408
1040
0.0
1040
52.96721142834826
1040
17.1500002339408
1040
0.4142135623731526
1040
53.49221142834835
1040
17.67500023394078
1040
0.0
1071
        0
1071
        7
1070
     1
1070
     1
1071
       24
1040
58.39221142834844
1040
29.92500023394081
1040
-0.4142135623731546
1040
58.91721142834853
1040
30.45000023394079
1040
0.0
1040
61.89221142834845
1040
30.45000023394079
1040
0.4142135623730911
1040
62.41721142834842
1040
30.97500023394079
1040
0.0
1040
62.41721142834842
1040
32.7250002339408
1040
0.4142135623730952
1040
61.89221142834845
1040
33.2500002339408
1040
0.0
1040
58.39221142834844
1040
33.2500002339408
1040
0.4142135623731048
1040
55.59221142834838
1040
30.45000023394083
1040
0.0
1040
55.59221142834838
1040
28.63479820858556
1040
0.1989123673796613
1040
56.82236294736492
1040
25.664949727602
1040
0.0
1040
59.7321609220096
1040
22.75515175295733
1040
-0.1989123673796402
1040
60.14221142834845
1040
21.76520225929626
1040
0.0
1040
60.14221142834845
1040
20.47500023394078
1040
-0.4142135623730911
1040
59.61721142834846
1040
19.95000023394079
1040
0.0
1040
56.64221142834844
1040
19.95000023394079
1040
0.4142135623731526
1040
56.11721142834835
1040
19.42500023394081
1040
0.0
1040
56.11721142834835
1040
17.67500023394078
1040
0.4142135623730891
1040
56.64221142834833
1040
17.1500002339408
1040
0.0
1040
60.14221142834845
1040
17.1500002339408
1040
0.4142135623730925
1040
62.9422114283484
1040
19.95000023394077
1040
0.0
1040
62.9422114283484
1040
21.76520225929605
1040
0.1989123673796675
1040
61.71205990933185
1040
24.7350507402797
1040
0.0
1040
58.80226193468729
1040
27.64484871492422
1040
-0.1989123673796652
1040
58.39221142834844
1040
28.63479820858538
1040
0.0
1071
        0
1071
        7
1070
     1
1070
     1
1071
       16
1040
67.84221142834837
1040
32.72500023394079
1040
0.414213562373103
1040
67.3172114283484
1040
33.2500002339408
1040
0.0
1040
65.5672114283484
1040
33.2500002339408
1040
0.4142135623730871
1040
65.04221142834842
1040
32.72500023394082
1040
0.0
1040
65.04221142834842
1040
19.95000023394077
1040
0.4142135623730926
1040
67.84221142834837
1040
17.1500002339408
1040
0.0
1040
71.34221142834838
1040
17.1500002339408
1040
0.4142135623731044
1040
74.14221142834844
1040
19.95000023394077
1040
0.0
1040
74.14221142834844
1040
32.7250002339408
1040
0.4142135623730951
1040
73.61721142834847
1040
33.2500002339408
1040
0.0
1040
71.86721142834835
1040
33.2500002339408
1040
0.4142135623730871
1040
71.34221142834838
1040
32.72500023394082
1040
0.0
1040
71.34221142834838
1040
21.00000023394077
1040
-0.414213562373088
1040
70.29221142834842
1040
19.95000023394079
1040
0.0
1040
68.89221142834845
1040
19.95000023394079
1040
-0.4142135623731197
1040
67.84221142834837
1040
21.00000023394077
1040
0.0
1071
        0
1071
        7
1070
     1
1070
     1
1071
        8
1040
79.04221142834842
1040
32.72500023394082
1040
0.4142135623730871
1040
78.51721142834844
1040
33.2500002339408
1040
0.0
1040
76.76721142834844
1040
33.2500002339408
1040
0.4142135623731507
1040
76.24221142834835
1040
32.72500023394082
1040
0.0
1040
76.24221142834835
1040
17.67500023394078
1040
0.4142135623730891
1040
76.76721142834833
1040
17.1500002339408
1040
0.0
1040
78.51721142834844
1040
17.1500002339408
1040
0.4142135623730891
1040
79.04221142834842
1040
17.67500023394078
1040
0.0
1071
        0
1070
     0
1070
     1
1040
0.0
1040
0.2
1070
     0
1070
     2
1040
0.7853981633974483
1040
-890.9423050611117
1040
-3.199999766059136
1040
-0.4490128060534576
1040
0.4490128060534577
1070
     0
1040
2.356194490192344
1040
-890.9423050611117
1040
-3.199999766059136
1040
-0.4490128060534577
1040
-0.4490128060534576
1070
     0
1040
0.057451373970553
1071
        8
1040
26.07985423659056
1040
25.16717387982635
1040
0.0
1040
32.40451428000642
1040
28.8440624163918
1040
0.0
1040
35.16436715922691
1040
25.51188188001151
1040
0.0
1040
40.91405925520439
1040
26.2012978803823
1040
0.0
1040
51.83847129252399
1040
26.66091014792391
1040
0.0
1040
56.8982001686968
1040
29.418576550348
1040
0.0
1040
66.5576852459676
1040
28.72915814903581
1040
0.0
1040
77.82707889318999
1040
29.18877041657742
1040
0.0
1002
}
  0
ARC
  5
403D
330
402F
100
AcDbEntity
  8
ZUWAKU
100
AcDbCircle
 10
5.517842709455067
 20
3.186945156274759
 30
0.0
 40
0.9752399999999997
100
AcDbArc
 50
270.0
 51
0.0
  0
ARC
  5
403E
330
402F
100
AcDbEntity
  8
ZUWAKU
100
AcDbCircle
 10
5.395937709455267
 20
6.211860290843389
 30
0.0
 40
1.462859999999999
100
AcDbArc
 50
180.0
 51
224.9999999999997
  0
LINE
  5
403F
330
402F
100
AcDbEntity
  8
ZUWAKU
100
AcDbLine
 10
4.361539483528474
 20
5.177462064916937
 30
0.0
 11
5.375022118097263
 21
4.163979430348149
 31
0.0
  0
ARC
  5
4040
330
402F
100
AcDbEntity
  8
ZUWAKU
100
AcDbCircle
 10
5.030222709455188
 20
3.819180021706131
 30
0.0
 40
0.4876199999999999
100
AcDbArc
 50
0.0
 51
44.99999999999973
  0
LINE
  5
4041
330
402F
100
AcDbEntity
  8
ZUWAKU
100
AcDbLine
 10
5.517842709455067
 20
3.369802656274657
 30
0.0
 11
5.517842709455067
 21
3.819180021706131
 31
0.0
  0
LINE
  5
4042
330
402F
100
AcDbEntity
  8
ZUWAKU
100
AcDbLine
 10
4.298792709455085
 20
3.186945156274759
 30
0.0
 11
5.334985209455226
 21
3.186945156274759
 31
0.0
  0
LINE
  5
4043
330
402F
100
AcDbEntity
  8
ZUWAKU
100
AcDbLine
 10
4.298792709455085
 20
2.211705156274717
 30
0.0
 11
5.517842709455067
 21
2.211705156274717
 31
0.0
  0
ARC
  5
4044
330
402F
100
AcDbEntity
  8
ZUWAKU
100
AcDbCircle
 10
4.298792709455085
 20
3.004087656274862
 30
0.0
 40
0.1828575
100
AcDbArc
 50
90.0
 51
180.0
  0
ARC
  5
4045
330
402F
100
AcDbEntity
  8
ZUWAKU
100
AcDbCircle
 10
4.298792709455085
 20
2.394562656274899
 30
0.0
 40
0.1828575
100
AcDbArc
 50
180.0
 51
270.0
  0
LINE
  5
4046
330
402F
100
AcDbEntity
  8
ZUWAKU
100
AcDbLine
 10
4.115935209455187
 20
2.394562656274899
 30
0.0
 11
4.115935209455187
 21
3.004087656274862
 31
0.0
  0
ARC
  5
4047
330
402F
100
AcDbEntity
  8
ZUWAKU
100
AcDbCircle
 10
5.334985209455226
 20
3.369802656274657
 30
0.0
 40
0.1828575
100
AcDbArc
 50
270.0
 51
0.0
  0
ARC
  5
4048
330
402F
100
AcDbEntity
  8
ZUWAKU
100
AcDbCircle
 10
5.395937709455267
 20
6.211860290843389
 30
0.0
 40
0.4876199999999999
100
AcDbArc
 50
180.0
 51
224.9999999999997
  0
LINE
  5
4049
330
402F
100
AcDbEntity
  8
ZUWAKU
100
AcDbLine
 10
3.933077709455005
 20
6.844095156274761
 30
0.0
 11
3.933077709455005
 21
6.211860290843389
 31
0.0
  0
LINE
  5
404A
330
402F
100
AcDbEntity
  8
ZUWAKU
100
AcDbLine
 10
4.908317709455104
 20
6.661237656274863
 30
0.0
 11
4.908317709455104
 21
6.211860290843389
 31
0.0
  0
ARC
  5
404B
330
402F
100
AcDbEntity
  8
ZUWAKU
100
AcDbCircle
 10
5.091175209455286
 20
6.661237656274863
 30
0.0
 40
0.1828575
100
AcDbArc
 50
90.0
 51
180.0
  0
ARC
  5
404C
330
402F
100
AcDbEntity
  8
ZUWAKU
100
AcDbCircle
 10
4.908317709455104
 20
6.844095156274761
 30
0.0
 40
0.9752399999999997
100
AcDbArc
 50
90.0
 51
180.0
  0
LINE
  5
404D
330
402F
100
AcDbEntity
  8
ZUWAKU
100
AcDbLine
 10
27.5598052875091
 20
10.17036015627485
 30
0.0
 11
27.5598052875091
 21
0.0000001562748935
 31
0.0
  0
LINE
  5
404E
330
402F
100
AcDbEntity
  8
ZUWAKU
100
AcDbLine
 10
27.69912528750899
 20
10.17036015627485
 30
0.0
 11
27.69912528750933
 21
0.0000001562748935
 31
0.0
  0
LINE
  5
404F
330
402F
100
AcDbEntity
  8
ZUWAKU
100
AcDbLine
 10
27.62946528750905
 20
10.17036015627485
 30
0.0
 11
27.62946528750939
 21
0.0000001562748935
 31
0.0
  0
LINE
  5
4050
330
402F
100
AcDbEntity
  8
ZUWAKU
100
AcDbLine
 10
18.01131093538174
 20
4.853578247632583
 30
0.0
 11
16.99782830081295
 21
5.867060882201315
 31
0.0
  0
LINE
  5
4051
330
402F
100
AcDbEntity
  8
ZUWAKU
100
AcDbLine
 10
16.30822948352852
 20
5.177462064916937
 30
0.0
 11
17.3217121180973
 21
4.163979430348149
 31
0.0
  0
LINE
  5
4052
330
402F
100
AcDbEntity
  8
ZUWAKU
100
AcDbLine
 10
18.07405770945513
 20
6.844095156274761
 30
0.0
 11
17.03786520945499
 21
6.844095156274761
 31
0.0
  0
LINE
  5
4053
330
402F
100
AcDbEntity
  8
ZUWAKU
100
AcDbLine
 10
16.85500770945515
 20
7.819335156274803
 30
0.0
 11
18.07405770945513
 21
7.819335156274803
 31
0.0
  0
LINE
  5
4054
330
402F
100
AcDbEntity
  8
ZUWAKU
100
AcDbLine
 10
16.24548270945513
 20
2.211705156274717
 30
0.0
 11
17.46453270945517
 21
2.211705156274717
 31
0.0
  0
LINE
  5
4055
330
402F
100
AcDbEntity
  8
ZUWAKU
100
AcDbLine
 10
16.24548270945513
 20
3.186945156274759
 30
0.0
 11
17.28167520945527
 21
3.186945156274759
 31
0.0
  0
ARC
  5
4056
330
402F
100
AcDbEntity
  8
ZUWAKU
100
AcDbCircle
 10
11.55214020945499
 20
4.345042656274699
 30
0.0
 40
0.1828575
100
AcDbArc
 50
90.0
 51
180.0
  0
ARC
  5
4057
330
402F
100
AcDbEntity
  8
ZUWAKU
100
AcDbCircle
 10
11.55214020945499
 20
5.685997656274821
 30
0.0
 40
0.1828575
100
AcDbArc
 50
180.0
 51
270.0
  0
LINE
  5
4058
330
402F
100
AcDbEntity
  8
ZUWAKU
100
AcDbLine
 10
7.224512709455268
 20
3.674565156274638
 30
0.0
 11
7.224512709455268
 21
6.356475156274882
 31
0.0
  0
LINE
  5
4059
330
402F
100
AcDbEntity
  8
ZUWAKU
100
AcDbLine
 10
8.199752709455026
 20
6.356475156274882
 30
0.0
 11
8.199752709455026
 21
3.674565156274638
 31
0.0
  0
LINE
  5
405A
330
402F
100
AcDbEntity
  8
ZUWAKU
100
AcDbLine
 10
10.39404270945505
 20
7.636477656274621
 30
0.0
 11
10.39404270945505
 21
2.394562656274899
 31
0.0
  0
CIRCLE
  5
405B
330
402F
100
AcDbEntity
  8
ZUWAKU
100
AcDbCircle
 10
9.053087709455269
 20
5.01552015627476
 30
0.0
 40
0.609525
  0
ARC
  5
405C
330
402F
100
AcDbEntity
  8
ZUWAKU
100
AcDbCircle
 10
8.687372709455189
 20
3.674565156274638
 30
0.0
 40
1.462859999999999
100
AcDbArc
 50
180.0
 51
270.0
  0
ARC
  5
405D
330
402F
100
AcDbEntity
  8
ZUWAKU
100
AcDbCircle
 10
8.687372709455189
 20
3.674565156274638
 30
0.0
 40
0.4876199999999999
100
AcDbArc
 50
180.0
 51
270.0
  0
LINE
  5
405E
330
402F
100
AcDbEntity
  8
ZUWAKU
100
AcDbLine
 10
6.493082709455165
 20
3.186945156274759
 30
0.0
 11
6.493082709455165
 21
3.819180021706131
 31
0.0
  0
ARC
  5
405F
330
402F
100
AcDbEntity
  8
ZUWAKU
100
AcDbCircle
 10
5.030222709455188
 20
3.819180021706131
 30
0.0
 40
1.462859999999999
100
AcDbArc
 50
0.0
 51
44.99999999999973
  0
ARC
  5
4060
330
402F
100
AcDbEntity
  8
ZUWAKU
100
AcDbCircle
 10
11.18642520945525
 20
2.394562656274899
 30
0.0
 40
0.1828575
100
AcDbArc
 50
270.0
 51
0.0
  0
ARC
  5
4061
330
402F
100
AcDbEntity
  8
ZUWAKU
100
AcDbCircle
 10
10.57690020945528
 20
2.394562656274899
 30
0.0
 40
0.1828575
100
AcDbArc
 50
180.0
 51
270.0
  0
ARC
  5
4062
330
402F
100
AcDbEntity
  8
ZUWAKU
100
AcDbCircle
 10
9.35785020945525
 20
3.004087656274862
 30
0.0
 40
0.1828575
100
AcDbArc
 50
0.0
 51
90.0
  0
ARC
  5
4063
330
402F
100
AcDbEntity
  8
ZUWAKU
100
AcDbCircle
 10
9.35785020945525
 20
2.394562656274899
 30
0.0
 40
0.1828575
100
AcDbArc
 50
270.0
 51
0.0
  0
LINE
  5
4064
330
402F
100
AcDbEntity
  8
ZUWAKU
100
AcDbLine
 10
9.540707709455148
 20
3.004087656274862
 30
0.0
 11
9.540707709455148
 21
2.394562656274899
 31
0.0
  0
LINE
  5
4065
330
402F
100
AcDbEntity
  8
ZUWAKU
100
AcDbLine
 10
10.57690020945528
 20
2.211705156274717
 30
0.0
 11
11.18642520945525
 21
2.211705156274717
 31
0.0
  0
LINE
  5
4066
330
402F
100
AcDbEntity
  8
ZUWAKU
100
AcDbLine
 10
9.35785020945525
 20
2.211705156274717
 30
0.0
 11
8.687372709455189
 21
2.211705156274717
 31
0.0
  0
LINE
  5
4067
330
402F
100
AcDbEntity
  8
ZUWAKU
100
AcDbLine
 10
8.687372709455189
 20
3.186945156274759
 30
0.0
 11
9.35785020945525
 21
3.186945156274759
 31
0.0
  0
LINE
  5
4068
330
402F
100
AcDbEntity
  8
ZUWAKU
100
AcDbLine
 10
11.36928270945514
 20
2.394562656274899
 30
0.0
 11
11.36928270945514
 21
4.345042656274699
 31
0.0
  0
ARC
  5
4069
330
402F
100
AcDbEntity
  8
ZUWAKU
100
AcDbCircle
 10
8.687372709455189
 20
6.356475156274882
 30
0.0
 40
0.4876199999999999
100
AcDbArc
 50
90.0
 51
180.0
  0
ARC
  5
406A
330
402F
100
AcDbEntity
  8
ZUWAKU
100
AcDbCircle
 10
8.687372709455189
 20
6.356475156274882
 30
0.0
 40
1.462859999999999
100
AcDbArc
 50
90.0
 51
180.0
  0
LINE
  5
406B
330
402F
100
AcDbEntity
  8
ZUWAKU
100
AcDbLine
 10
6.310225209455268
 20
7.636477656274621
 30
0.0
 11
6.310225209455268
 21
7.026952656274659
 31
0.0
  0
ARC
  5
406C
330
402F
100
AcDbEntity
  8
ZUWAKU
100
AcDbCircle
 10
6.127367709455086
 20
7.026952656274659
 30
0.0
 40
0.1828575
100
AcDbArc
 50
270.0
 51
0.0
  0
ARC
  5
406D
330
402F
100
AcDbEntity
  8
ZUWAKU
100
AcDbCircle
 10
6.127367709455086
 20
7.636477656274621
 30
0.0
 40
0.1828575
100
AcDbArc
 50
0.0
 51
90.0
  0
ARC
  5
406E
330
402F
100
AcDbEntity
  8
ZUWAKU
100
AcDbCircle
 10
11.18642520945525
 20
7.636477656274621
 30
0.0
 40
0.1828575
100
AcDbArc
 50
0.0
 51
90.0
  0
ARC
  5
406F
330
402F
100
AcDbEntity
  8
ZUWAKU
100
AcDbCircle
 10
10.57690020945528
 20
7.636477656274621
 30
0.0
 40
0.1828575
100
AcDbArc
 50
90.0
 51
180.0
  0
ARC
  5
4070
330
402F
100
AcDbEntity
  8
ZUWAKU
100
AcDbCircle
 10
9.35785020945525
 20
7.636477656274621
 30
0.0
 40
0.1828575
100
AcDbArc
 50
0.0
 51
90.0
  0
LINE
  5
4071
330
402F
100
AcDbEntity
  8
ZUWAKU
100
AcDbLine
 10
11.18642520945525
 20
7.819335156274803
 30
0.0
 11
10.57690020945528
 21
7.819335156274803
 31
0.0
  0
LINE
  5
4072
330
402F
100
AcDbEntity
  8
ZUWAKU
100
AcDbLine
 10
8.687372709455189
 20
7.819335156274803
 30
0.0
 11
9.35785020945525
 21
7.819335156274803
 31
0.0
  0
ARC
  5
4073
330
402F
100
AcDbEntity
  8
ZUWAKU
100
AcDbCircle
 10
9.35785020945525
 20
7.026952656274659
 30
0.0
 40
0.1828575
100
AcDbArc
 50
270.0
 51
0.0
  0
LINE
  5
4074
330
402F
100
AcDbEntity
  8
ZUWAKU
100
AcDbLine
 10
9.35785020945525
 20
6.844095156274761
 30
0.0
 11
8.687372709455189
 21
6.844095156274761
 31
0.0
  0
LINE
  5
4075
330
402F
100
AcDbEntity
  8
ZUWAKU
100
AcDbLine
 10
11.36928270945514
 20
5.685997656274821
 30
0.0
 11
11.36928270945514
 21
7.636477656274621
 31
0.0
  0
LINE
  5
4076
330
402F
100
AcDbEntity
  8
ZUWAKU
100
AcDbLine
 10
9.540707709455148
 20
7.636477656274621
 30
0.0
 11
9.540707709455148
 21
7.026952656274659
 31
0.0
  0
ARC
  5
4077
330
402F
100
AcDbEntity
  8
ZUWAKU
100
AcDbCircle
 10
17.34262770945503
 20
6.211860290843389
 30
0.0
 40
1.462859999999999
100
AcDbArc
 50
180.0
 51
224.9999999999997
  0
LINE
  5
4078
330
402F
100
AcDbEntity
  8
ZUWAKU
100
AcDbLine
 10
12.99676547919762
 20
6.410478093793017
 30
0.0
 11
12.55625244629709
 21
5.01552015627476
 31
0.0
  0
LINE
  5
4079
330
402F
100
AcDbEntity
  8
ZUWAKU
100
AcDbLine
 10
12.42607190812219
 20
7.691541785387244
 30
0.0
 11
11.77535351078802
 21
5.630933527162198
 31
0.0
  0
LINE
  5
407A
330
402F
100
AcDbEntity
  8
ZUWAKU
100
AcDbLine
 10
15.14833770945529
 20
2.394562656274899
 30
0.0
 11
15.14833770945529
 21
7.636477656274621
 31
0.0
  0
LINE
  5
407B
330
402F
100
AcDbEntity
  8
ZUWAKU
100
AcDbLine
 10
14.17309770945519
 20
7.636477656274621
 30
0.0
 11
14.17309770945519
 21
2.394562656274899
 31
0.0
  0
ARC
  5
407C
330
402F
100
AcDbEntity
  8
ZUWAKU
100
AcDbCircle
 10
14.35595520945509
 20
2.394562656274899
 30
0.0
 40
0.1828575
100
AcDbArc
 50
180.0
 51
270.0
  0
LINE
  5
407D
330
402F
100
AcDbEntity
  8
ZUWAKU
100
AcDbLine
 10
11.55214020945499
 20
4.527900156274881
 30
0.0
 11
11.60098376859838
 21
4.527900156274881
 31
0.0
  0
LINE
  5
407E
330
402F
100
AcDbEntity
  8
ZUWAKU
100
AcDbLine
 10
11.60098376859838
 20
5.503140156274639
 30
0.0
 11
11.55214020945499
 21
5.503140156274639
 31
0.0
  0
ARC
  5
407F
330
402F
100
AcDbEntity
  8
ZUWAKU
100
AcDbCircle
 10
11.60098376859838
 20
4.345042656274699
 30
0.0
 40
0.1828575
100
AcDbArc
 50
17.5255683737201
 51
90.0
  0
ARC
  5
4080
330
402F
100
AcDbEntity
  8
ZUWAKU
100
AcDbCircle
 10
11.60098376859838
 20
5.685997656274821
 30
0.0
 40
0.1828575
100
AcDbArc
 50
270.0
 51
342.4744316262798
  0
ARC
  5
4081
330
402F
100
AcDbEntity
  8
ZUWAKU
100
AcDbCircle
 10
12.60044165031217
 20
2.394562656274899
 30
0.0
 40
0.1828575
100
AcDbArc
 50
197.5255683737199
 51
270.0
  0
ARC
  5
4082
330
402F
100
AcDbEntity
  8
ZUWAKU
100
AcDbCircle
 10
13.19216482122988
 20
2.394562656274899
 30
0.0
 40
0.1828575
100
AcDbArc
 50
270.0
 51
17.5255683737201
  0
LINE
  5
4083
330
402F
100
AcDbEntity
  8
ZUWAKU
100
AcDbLine
 10
12.60044165031217
 20
2.211705156274717
 30
0.0
 11
13.19216482122988
 21
2.211705156274717
 31
0.0
  0
LINE
  5
4084
330
402F
100
AcDbEntity
  8
ZUWAKU
100
AcDbLine
 10
12.42607190812219
 20
2.339498527162277
 30
0.0
 11
11.77535351078802
 21
4.400106785387322
 31
0.0
  0
LINE
  5
4085
330
402F
100
AcDbEntity
  8
ZUWAKU
100
AcDbLine
 10
13.36653456341957
 20
2.449626785387465
 30
0.0
 11
12.55625244629709
 21
5.01552015627476
 31
0.0
  0
ARC
  5
4086
330
402F
100
AcDbEntity
  8
ZUWAKU
100
AcDbCircle
 10
16.24548270945513
 20
3.004087656274862
 30
0.0
 40
0.1828575
100
AcDbArc
 50
90.0
 51
180.0
  0
ARC
  5
4087
330
402F
100
AcDbEntity
  8
ZUWAKU
100
AcDbCircle
 10
14.96548020945505
 20
2.394562656274899
 30
0.0
 40
0.1828575
100
AcDbArc
 50
270.0
 51
0.0
  0
ARC
  5
4088
330
402F
100
AcDbEntity
  8
ZUWAKU
100
AcDbCircle
 10
16.24548270945513
 20
2.394562656274899
 30
0.0
 40
0.1828575
100
AcDbArc
 50
180.0
 51
270.0
  0
LINE
  5
4089
330
402F
100
AcDbEntity
  8
ZUWAKU
100
AcDbLine
 10
16.06262520945529
 20
2.394562656274899
 30
0.0
 11
16.06262520945529
 21
3.004087656274862
 31
0.0
  0
LINE
  5
408A
330
402F
100
AcDbEntity
  8
ZUWAKU
100
AcDbLine
 10
14.35595520945509
 20
2.211705156274717
 30
0.0
 11
14.96548020945505
 21
2.211705156274717
 31
0.0
  0
ARC
  5
408B
330
402F
100
AcDbEntity
  8
ZUWAKU
100
AcDbCircle
 10
14.35595520945509
 20
7.636477656274621
 30
0.0
 40
0.1828575
100
AcDbArc
 50
90.0
 51
180.0
  0
ARC
  5
408C
330
402F
100
AcDbEntity
  8
ZUWAKU
100
AcDbCircle
 10
12.60044165031217
 20
7.636477656274621
 30
0.0
 40
0.1828575
100
AcDbArc
 50
90.0
 51
162.4744316262798
  0
ARC
  5
408D
330
402F
100
AcDbEntity
  8
ZUWAKU
100
AcDbCircle
 10
13.19216482122988
 20
7.636477656274621
 30
0.0
 40
0.1828575
100
AcDbArc
 50
342.4744316262798
 51
90.0
  0
LINE
  5
408E
330
402F
100
AcDbEntity
  8
ZUWAKU
100
AcDbLine
 10
12.60044165031217
 20
7.819335156274803
 30
0.0
 11
13.19216482122988
 21
7.819335156274803
 31
0.0
  0
LINE
  5
408F
330
402F
100
AcDbEntity
  8
ZUWAKU
100
AcDbLine
 10
13.36653456341957
 20
7.581413527162339
 30
0.0
 11
12.99676547919762
 21
6.410478093793017
 31
0.0
  0
ARC
  5
4090
330
402F
100
AcDbEntity
  8
ZUWAKU
100
AcDbCircle
 10
14.96548020945505
 20
7.636477656274621
 30
0.0
 40
0.1828575
100
AcDbArc
 50
0.0
 51
90.0
  0
LINE
  5
4091
330
402F
100
AcDbEntity
  8
ZUWAKU
100
AcDbLine
 10
14.96548020945505
 20
7.819335156274803
 30
0.0
 11
14.35595520945509
 21
7.819335156274803
 31
0.0
  0
ARC
  5
4092
330
402F
100
AcDbEntity
  8
ZUWAKU
100
AcDbCircle
 10
17.34262770945503
 20
6.211860290843389
 30
0.0
 40
0.4876199999999999
100
AcDbArc
 50
180.0
 51
224.9999999999997
  0
LINE
  5
4093
330
402F
100
AcDbEntity
  8
ZUWAKU
100
AcDbLine
 10
15.87976770945505
 20
6.844095156274761
 30
0.0
 11
15.87976770945505
 21
6.211860290843389
 31
0.0
  0
LINE
  5
4094
330
402F
100
AcDbEntity
  8
ZUWAKU
100
AcDbLine
 10
16.85500770945515
 20
6.661237656274863
 30
0.0
 11
16.85500770945515
 21
6.211860290843389
 31
0.0
  0
ARC
  5
4095
330
402F
100
AcDbEntity
  8
ZUWAKU
100
AcDbCircle
 10
17.03786520945499
 20
6.661237656274863
 30
0.0
 40
0.1828575
100
AcDbArc
 50
90.0
 51
180.0
  0
ARC
  5
4096
330
402F
100
AcDbEntity
  8
ZUWAKU
100
AcDbCircle
 10
16.85500770945515
 20
6.844095156274761
 30
0.0
 40
0.9752399999999997
100
AcDbArc
 50
90.0
 51
180.0
  0
ARC
  5
4097
330
402F
100
AcDbEntity
  8
ZUWAKU
100
AcDbCircle
 10
23.25502020945515
 20
7.636477656274621
 30
0.0
 40
0.1828575
100
AcDbArc
 50
90.0
 51
180.0
  0
ARC
  5
4098
330
402F
100
AcDbEntity
  8
ZUWAKU
100
AcDbCircle
 10
23.25502020945515
 20
2.394562656274899
 30
0.0
 40
0.1828575
100
AcDbArc
 50
180.0
 51
270.0
  0
LINE
  5
4099
330
402F
100
AcDbEntity
  8
ZUWAKU
100
AcDbLine
 10
20.14644270945507
 20
3.552660156274839
 30
0.0
 11
20.14644270945507
 21
7.636477656274621
 31
0.0
  0
LINE
  5
409A
330
402F
100
AcDbEntity
  8
ZUWAKU
100
AcDbLine
 10
21.36549270945505
 20
7.636477656274621
 30
0.0
 11
21.36549270945505
 21
3.552660156274839
 31
0.0
  0
LINE
  5
409B
330
402F
100
AcDbEntity
  8
ZUWAKU
100
AcDbLine
 10
19.17120270945503
 20
7.636477656274621
 30
0.0
 11
19.17120270945503
 21
3.186945156274759
 31
0.0
  0
LINE
  5
409C
330
402F
100
AcDbEntity
  8
ZUWAKU
100
AcDbLine
 10
22.34073270945515
 20
3.186945156274759
 30
0.0
 11
22.34073270945515
 21
7.636477656274621
 31
0.0
  0
ARC
  5
409D
330
402F
100
AcDbEntity
  8
ZUWAKU
100
AcDbCircle
 10
20.14644270945507
 20
3.186945156274759
 30
0.0
 40
0.9752399999999997
100
AcDbArc
 50
180.0
 51
270.0
  0
ARC
  5
409E
330
402F
100
AcDbEntity
  8
ZUWAKU
100
AcDbCircle
 10
20.51215770945515
 20
3.552660156274839
 30
0.0
 40
0.365715
100
AcDbArc
 50
180.0
 51
270.0
  0
ARC
  5
409F
330
402F
100
AcDbEntity
  8
ZUWAKU
100
AcDbCircle
 10
16.97691270945529
 20
3.819180021706131
 30
0.0
 40
0.4876199999999999
100
AcDbArc
 50
0.0
 51
44.99999999999973
  0
LINE
  5
40A0
330
402F
100
AcDbEntity
  8
ZUWAKU
100
AcDbLine
 10
17.46453270945517
 20
3.369802656274657
 30
0.0
 11
17.46453270945517
 21
3.819180021706131
 31
0.0
  0
ARC
  5
40A1
330
402F
100
AcDbEntity
  8
ZUWAKU
100
AcDbCircle
 10
16.97691270945529
 20
3.819180021706131
 30
0.0
 40
1.462859999999999
100
AcDbArc
 50
0.0
 51
44.99999999999973
  0
ARC
  5
40A2
330
402F
100
AcDbEntity
  8
ZUWAKU
100
AcDbCircle
 10
17.46453270945517
 20
3.186945156274759
 30
0.0
 40
0.9752399999999997
100
AcDbArc
 50
270.0
 51
0.0
  0
ARC
  5
40A3
330
402F
100
AcDbEntity
  8
ZUWAKU
100
AcDbCircle
 10
17.28167520945527
 20
3.369802656274657
 30
0.0
 40
0.1828575
100
AcDbArc
 50
270.0
 51
0.0
  0
LINE
  5
40A4
330
402F
100
AcDbEntity
  8
ZUWAKU
100
AcDbLine
 10
18.43977270945521
 20
3.186945156274759
 30
0.0
 11
18.43977270945521
 21
3.819180021706131
 31
0.0
  0
LINE
  5
40A5
330
402F
100
AcDbEntity
  8
ZUWAKU
100
AcDbLine
 10
20.14644270945507
 20
2.211705156274717
 30
0.0
 11
21.36549270945505
 21
2.211705156274717
 31
0.0
  0
LINE
  5
40A6
330
402F
100
AcDbEntity
  8
ZUWAKU
100
AcDbLine
 10
20.99977770945503
 20
3.186945156274759
 30
0.0
 11
20.51215770945515
 21
3.186945156274759
 31
0.0
  0
ARC
  5
40A7
330
402F
100
AcDbEntity
  8
ZUWAKU
100
AcDbCircle
 10
21.36549270945505
 20
3.186945156274759
 30
0.0
 40
0.9752399999999997
100
AcDbArc
 50
270.0
 51
0.0
  0
ARC
  5
40A8
330
402F
100
AcDbEntity
  8
ZUWAKU
100
AcDbCircle
 10
20.99977770945503
 20
3.552660156274839
 30
0.0
 40
0.365715
100
AcDbArc
 50
270.0
 51
0.0
  0
ARC
  5
40A9
330
402F
100
AcDbEntity
  8
ZUWAKU
100
AcDbCircle
 10
19.96358520945523
 20
7.636477656274621
 30
0.0
 40
0.1828575
100
AcDbArc
 50
0.0
 51
90.0
  0
ARC
  5
40AA
330
402F
100
AcDbEntity
  8
ZUWAKU
100
AcDbCircle
 10
18.07405770945513
 20
7.636477656274621
 30
0.0
 40
0.1828575
100
AcDbArc
 50
0.0
 51
90.0
  0
LINE
  5
40AB
330
402F
100
AcDbEntity
  8
ZUWAKU
100
AcDbLine
 10
19.96358520945523
 20
7.819335156274803
 30
0.0
 11
19.35406020945521
 21
7.819335156274803
 31
0.0
  0
ARC
  5
40AC
330
402F
100
AcDbEntity
  8
ZUWAKU
100
AcDbCircle
 10
19.35406020945521
 20
7.636477656274621
 30
0.0
 40
0.1828575
100
AcDbArc
 50
90.0
 51
180.0
  0
ARC
  5
40AD
330
402F
100
AcDbEntity
  8
ZUWAKU
100
AcDbCircle
 10
18.07405770945513
 20
7.026952656274659
 30
0.0
 40
0.1828575
100
AcDbArc
 50
270.0
 51
0.0
  0
LINE
  5
40AE
330
402F
100
AcDbEntity
  8
ZUWAKU
100
AcDbLine
 10
18.25691520945503
 20
7.636477656274621
 30
0.0
 11
18.25691520945503
 21
7.026952656274659
 31
0.0
  0
ARC
  5
40AF
330
402F
100
AcDbEntity
  8
ZUWAKU
100
AcDbCircle
 10
21.54835020945529
 20
7.636477656274621
 30
0.0
 40
0.1828575
100
AcDbArc
 50
90.0
 51
180.0
  0
LINE
  5
40B0
330
402F
100
AcDbEntity
  8
ZUWAKU
100
AcDbLine
 10
22.15787520945525
 20
7.819335156274803
 30
0.0
 11
21.54835020945529
 21
7.819335156274803
 31
0.0
  0
ARC
  5
40B1
330
402F
100
AcDbEntity
  8
ZUWAKU
100
AcDbCircle
 10
22.15787520945525
 20
7.636477656274621
 30
0.0
 40
0.1828575
100
AcDbArc
 50
0.0
 51
90.0
  0
LINE
  5
40B2
330
402F
100
AcDbEntity
  8
ZUWAKU
100
AcDbLine
 10
23.07216270945525
 20
7.636477656274621
 30
0.0
 11
23.07216270945525
 21
2.394562656274899
 31
0.0
  0
LINE
  5
40B3
330
402F
100
AcDbEntity
  8
ZUWAKU
100
AcDbLine
 10
24.04740270945501
 20
2.394562656274899
 30
0.0
 11
24.04740270945501
 21
7.636477656274621
 31
0.0
  0
LINE
  5
40B4
330
402F
100
AcDbEntity
  8
ZUWAKU
100
AcDbLine
 10
23.25502020945515
 20
2.211705156274717
 30
0.0
 11
23.86454520945511
 21
2.211705156274717
 31
0.0
  0
ARC
  5
40B5
330
402F
100
AcDbEntity
  8
ZUWAKU
100
AcDbCircle
 10
23.86454520945511
 20
2.394562656274899
 30
0.0
 40
0.1828575
100
AcDbArc
 50
270.0
 51
0.0
  0
LINE
  5
40B6
330
402F
100
AcDbEntity
  8
ZUWAKU
100
AcDbLine
 10
23.86454520945511
 20
7.819335156274803
 30
0.0
 11
23.25502020945515
 21
7.819335156274803
 31
0.0
  0
ARC
  5
40B7
330
402F
100
AcDbEntity
  8
ZUWAKU
100
AcDbCircle
 10
23.86454520945511
 20
7.636477656274621
 30
0.0
 40
0.1828575
100
AcDbArc
 50
0.0
 51
90.0
  0
TEXT
  5
40B8
330
402F
100
AcDbEntity
  8
MOJI
100
AcDbText
 10
79.88729850701933
 20
6.539228773681259
 30
0.0
 40
2.089799999999999
  1
バンドレスたてとい
 41
0.9
  7
MSPｺﾞｼｯｸ
100
AcDbText
  0
TEXT
  5
40B9
330
402F
100
AcDbEntity
  8
MOJI
100
AcDbText
 10
79.88729850701933
 20
1.552318390132313
 30
0.0
 40
2.089799999999999
  1
ＵＲＴ６０ＢＬ－３，０００
 41
0.9
  7
MSPｺﾞｼｯｸ
100
AcDbText
  0
LINE
  5
40BA
330
402F
100
AcDbEntity
  8
ZUWAKU
100
AcDbLine
 10
72.60195144527535
 20
10.17036015627485
 30
0.0
 11
72.60195144527535
 21
0.0000001562748935
 31
0.0
  0
LINE
  5
40BB
330
402F
100
AcDbEntity
  8
ZUWAKU
100
AcDbLine
 10
72.67161144527563
 20
10.17036015627485
 30
0.0
 11
72.67161144527563
 21
0.0000001562748935
 31
0.0
  0
LINE
  5
40BC
330
402F
100
AcDbEntity
  8
ZUWAKU
100
AcDbLine
 10
72.53229144527541
 20
10.17036015627485
 30
0.0
 11
72.53229144527541
 21
0.0000001562748935
 31
0.0
  0
TEXT
  5
40BD
330
402F
100
AcDbEntity
  8
ZUWAKU
100
AcDbText
 10
73.04688554651097
 20
8.099840838594388
 30
0.0
 40
1.3932
  1
品名
 41
0.9
  7
MSPｺﾞｼｯｸ
100
AcDbText
  0
TEXT
  5
40BE
330
402F
100
AcDbEntity
  8
ZUWAKU
100
AcDbText
 10
73.04688554651097
 20
3.084320838594521
 30
0.0
 40
1.3932
  1
サイズ
 41
0.9
  7
MSPｺﾞｼｯｸ
100
AcDbText
  0
TEXT
  5
40BF
330
402F
100
AcDbEntity
  8
ZUWAKU
100
AcDbText
 10
229.2524317124323
 20
5.992474160569656
 30
0.0
 40
1.950479999999999
  1
　　．　　．　　
 41
0.9
  7
MSPｺﾞｼｯｸ
100
AcDbText
  0
LINE
  5
40C0
330
402F
100
AcDbEntity
  8
ZUWAKU
100
AcDbLine
 10
225.9830318502489
 20
5.154840156274929
 30
0.0
 11
242.8518305900017
 21
5.154840156274929
 31
0.0
  0
LINE
  5
40C1
330
402F
100
AcDbEntity
  8
ZUWAKU
100
AcDbLine
 10
225.9830318502489
 20
5.085180156274702
 30
0.0
 11
242.8518305900017
 21
5.085180156274702
 31
0.0
  0
LINE
  5
40C2
330
402F
100
AcDbEntity
  8
ZUWAKU
100
AcDbLine
 10
225.9830318502489
 20
5.01552015627476
 30
0.0
 11
242.8518305900017
 21
5.01552015627476
 31
0.0
  0
LINE
  5
40C3
330
402F
100
AcDbEntity
  8
ZUWAKU
100
AcDbLine
 10
175.9608744351474
 20
5.154840156274929
 30
0.0
 11
192.4451389092818
 21
5.154840156274929
 31
0.0
  0
LINE
  5
40C4
330
402F
100
AcDbEntity
  8
ZUWAKU
100
AcDbLine
 10
175.9608744351474
 20
5.085180156274702
 30
0.0
 11
192.4451389092818
 21
5.085180156274702
 31
0.0
  0
LINE
  5
40C5
330
402F
100
AcDbEntity
  8
ZUWAKU
100
AcDbLine
 10
175.9608744351474
 20
5.01552015627476
 30
0.0
 11
192.4451389092818
 21
5.01552015627476
 31
0.0
  0
TEXT
  5
40C6
330
402F
100
AcDbEntity
  8
MOJI
100
AcDbText
 10
183.9166484627015
 20
0.8376341605696211
 30
0.0
 40
1.950479999999999
  1
１/１
 41
0.9
  7
MSPｺﾞｼｯｸ
100
AcDbText
  0
TEXT
  5
40C7
330
402F
100
AcDbEntity
  8
ZUWAKU
100
AcDbText
 10
161.1562374005578
 20
0.631841054624772
 30
0.0
 40
1.044899999999999
  1
□には色品番が入ります
 41
0.9
  7
MSPｺﾞｼｯｸ
100
AcDbText
  0
LINE
  5
40C8
330
402F
100
AcDbEntity
  8
ZUWAKU
100
AcDbLine
 10
175.8215544351472
 20
10.17036015627485
 30
0.0
 11
175.8215544351472
 21
0.0000001562748935
 31
0.0
  0
LINE
  5
40C9
330
402F
100
AcDbEntity
  8
ZUWAKU
100
AcDbLine
 10
175.9608744351474
 20
10.17036015627485
 30
0.0
 11
175.9608744351474
 21
0.0000001562748935
 31
0.0
  0
LINE
  5
40CA
330
402F
100
AcDbEntity
  8
ZUWAKU
100
AcDbLine
 10
175.8912144351471
 20
10.17036015627485
 30
0.0
 11
175.8912144351471
 21
0.0000001562748935
 31
0.0
  0
LINE
  5
40CB
330
402F
100
AcDbEntity
  8
ZUWAKU
100
AcDbLine
 10
155.837906187041
 20
10.17036015627485
 30
0.0
 11
155.837906187041
 21
0.0000001562748935
 31
0.0
  0
LINE
  5
40CC
330
402F
100
AcDbEntity
  8
ZUWAKU
100
AcDbLine
 10
155.9772261870413
 20
10.17036015627485
 30
0.0
 11
155.9772261870413
 21
0.0000001562748935
 31
0.0
  0
LINE
  5
40CD
330
402F
100
AcDbEntity
  8
ZUWAKU
100
AcDbLine
 10
155.9075661870409
 20
10.17036015627485
 30
0.0
 11
155.9075661870409
 21
0.0000001562748935
 31
0.0
  0
TEXT
  5
40CE
330
402F
100
AcDbEntity
  8
MOJI
100
AcDbText
 10
159.7722213062604
 20
4.123175817290189
 30
0.0
 40
1.950479999999999
  1
ＢＨ０２□
 41
0.9
  7
MSPｺﾞｼｯｸ
100
AcDbText
  0
TEXT
  5
40CF
330
402F
100
AcDbEntity
  8
ZUWAKU
100
AcDbText
 10
156.4918202882768
 20
8.099840838594388
 30
0.0
 40
1.3932
  1
品番
 41
0.9
  7
MSPｺﾞｼｯｸ
100
AcDbText
  0
TEXT
  5
40D0
330
402F
100
AcDbEntity
  8
ZUWAKU
100
AcDbText
 10
176.475468536383
 20
8.099840838594388
 30
0.0
 40
1.3932
  1
用紙
 41
0.9
  7
MSPｺﾞｼｯｸ
100
AcDbText
  0
TEXT
  5
40D1
330
402F
100
AcDbEntity
  8
ZUWAKU
100
AcDbText
 10
176.475468536383
 20
3.084320838594521
 30
0.0
 40
1.3932
  1
縮尺
 41
0.9
  7
MSPｺﾞｼｯｸ
100
AcDbText
  0
TEXT
  5
40D2
330
402F
100
AcDbEntity
  8
MOJI
100
AcDbText
 10
183.9166484627015
 20
5.992474160569656
 30
0.0
 40
1.950479999999999
  1
Ａ４
 41
0.9
  7
MSPｺﾞｼｯｸ
100
AcDbText
  0
LINE
  5
40D3
330
402F
100
AcDbEntity
  8
ZUWAKU
100
AcDbLine
 10
225.8437118502489
 20
10.17036015627485
 30
0.0
 11
225.8437118502489
 21
0.0000001562748935
 31
0.0
  0
LINE
  5
40D4
330
402F
100
AcDbEntity
  8
ZUWAKU
100
AcDbLine
 10
225.9830318502489
 20
10.17036015627485
 30
0.0
 11
225.9830318502491
 21
0.0000001562748935
 31
0.0
  0
LINE
  5
40D5
330
402F
100
AcDbEntity
  8
ZUWAKU
100
AcDbLine
 10
225.9133718502489
 20
10.17036015627485
 30
0.0
 11
225.9133718502492
 21
0.0000001562748935
 31
0.0
  0
LINE
  5
40D6
330
402F
100
AcDbEntity
  8
ZUWAKU
100
AcDbLine
 10
192.4451389092818
 20
10.17036015627485
 30
0.0
 11
192.4451389092818
 21
0.0000001562748935
 31
0.0
  0
LINE
  5
40D7
330
402F
100
AcDbEntity
  8
ZUWAKU
100
AcDbLine
 10
192.5844589092819
 20
10.17036015627485
 30
0.0
 11
192.5844589092819
 21
0.0000001562748935
 31
0.0
  0
LINE
  5
40D8
330
402F
100
AcDbEntity
  8
ZUWAKU
100
AcDbLine
 10
192.5147989092817
 20
10.17036015627485
 30
0.0
 11
192.5147989092817
 21
0.0000001562748935
 31
0.0
  0
TEXT
  5
40D9
330
402F
100
AcDbEntity
  8
ZUWAKU
100
AcDbText
 10
226.4976259514848
 20
8.099840838594388
 30
0.0
 40
1.3932
  1
DATE
 41
0.9
  7
MSPｺﾞｼｯｸ
100
AcDbText
  0
LINE
  5
40DA
330
402F
100
AcDbEntity
  8
ZUWAKU
100
AcDbLine
 10
243.0608105900015
 20
10.17036015627485
 30
0.0
 11
243.0608105900018
 21
0.0000001562748935
 31
0.0
  0
LINE
  5
40DB
330
402F
100
AcDbEntity
  8
ZUWAKU
100
AcDbLine
 10
242.9911505900016
 20
10.17036015627485
 30
0.0
 11
242.9911505900018
 21
0.0000001562748935
 31
0.0
  0
LINE
  5
40DC
330
402F
100
AcDbEntity
  8
ZUWAKU
100
AcDbLine
 10
242.9214905900016
 20
10.17036015627485
 30
0.0
 11
242.9214905900016
 21
0.0000001562748935
 31
0.0
  0
LINE
  5
40DD
330
402F
100
AcDbEntity
  8
ZUWAKU
100
AcDbLine
 10
242.8518305900017
 20
10.17036015627485
 30
0.0
 11
242.8518305900017
 21
0.0000001562748935
 31
0.0
  0
TEXT
  5
40DE
330
402F
100
AcDbEntity
  8
ZUWAKU
100
AcDbText
 10
246.7803319401034
 20
5.835362396894424
 30
0.0
 40
2.089799999999999
  1
積水化学工業株式会社
 41
0.9
  7
MSPｺﾞｼｯｸ
100
AcDbText
  0
TEXT
  5
40DF
330
402F
100
AcDbEntity
  8
ZUWAKU
100
AcDbText
 10
246.7803319401034
 20
2.03715123759008
 30
0.0
 40
2.089799999999999
  1
建材事業部
 41
0.9
  7
MSPｺﾞｼｯｸ
100
AcDbText
  0
ENDBLK
  5
40E1
330
402F
100
AcDbEntity
  8
0
100
AcDbBlockEnd
  0
ENDSEC
  0
SECTION
  2
ENTITIES
  0
LINE
  5
693
330
1A
100
AcDbEntity
  8
ZUWAKU
100
AcDbLine
 10
104.3233009104422
 20
7.599999547552665
 30
0.0
 11
223.7121822509039
 21
7.599999547552661
 31
0.0
  0
LINE
  5
694
330
1A
100
AcDbEntity
  8
ZUWAKU
100
AcDbLine
 10
104.3233009104422
 20
7.799999547552661
 30
0.0
 11
223.7121822509039
 21
7.799999547552666
 31
0.0
  0
LINE
  5
695
330
1A
100
AcDbEntity
  8
ZUWAKU
100
AcDbLine
 10
104.3233009104422
 20
7.699999547552661
 30
0.0
 11
223.7121822509039
 21
7.699999547552661
 31
0.0
  0
LINE
  5
696
330
1A
100
AcDbEntity
  8
ZUWAKU
100
AcDbLine
 10
0.0000002654082891
 20
15.39999954755265
 30
0.0
 11
398.7000002654082
 21
15.39999954755265
 31
0.0
  0
LINE
  5
697
330
1A
100
AcDbEntity
  8
ZUWAKU
100
AcDbLine
 10
0.0000002654082891
 20
15.29999954755265
 30
0.0
 11
398.7000002654082
 21
15.29999954755265
 31
0.0
  0
LINE
  5
698
330
1A
100
AcDbEntity
  8
ZUWAKU
100
AcDbLine
 10
0.0000002654082891
 20
15.19999954755265
 30
0.0
 11
398.7000002654082
 21
15.19999954755265
 31
0.0
  0
LINE
  5
699
330
1A
100
AcDbEntity
  8
ZUWAKU
100
AcDbLine
 10
0.0000002654082891
 20
15.09999954755264
 30
0.0
 11
398.7000002654082
 21
15.09999954755264
 31
0.0
  0
LINE
  5
69A
330
1A
100
AcDbEntity
  8
ZUWAKU
100
AcDbLine
 10
0.0000002654082891
 20
14.99999954755264
 30
0.0
 11
398.7000002654082
 21
14.99999954755264
 31
0.0
  0
LWPOLYLINE
  5
69B
330
1A
100
AcDbEntity
  8
ZUWAKU
100
AcDbPolyline
 90
        4
 70
     1
 43
0.0
 10
0.100000265408255
 20
275.6999995475526
 10
0.100000265408255
 20
0.0999995475526703
 10
398.7000002654082
 20
0.0999995475526818
 10
398.7000002654083
 20
275.6999995475526
  0
LWPOLYLINE
  5
69C
330
1A
100
AcDbEntity
  8
ZUWAKU
100
AcDbPolyline
 90
        4
 70
     1
 43
0.0
 10
0.3000002654082436
 20
275.4999995475527
 10
0.3000002654082436
 20
0.2999995475526589
 10
398.5000002654084
 20
0.299999547552682
 10
398.5000002654082
 20
275.4999995475527
  0
LWPOLYLINE
  5
69D
330
1A
100
AcDbEntity
  8
ZUWAKU
100
AcDbPolyline
 90
        4
 70
     1
 43
0.0
 10
0.0000002654082891
 20
275.7999995475526
 10
0.0000002654082891
 20
-0.0000004524473525
 10
398.8000002654083
 20
-0.0000004524473187
 10
398.8000002654083
 20
275.7999995475527
  0
LWPOLYLINE
  5
69E
330
1A
100
AcDbEntity
  8
ZUWAKU
100
AcDbPolyline
 90
        4
 70
     1
 43
0.0
 10
0.2000002654082777
 20
275.5999995475526
 10
0.2000002654082777
 20
0.199999547552693
 10
398.6000002654083
 20
0.1999995475526814
 10
398.6000002654083
 20
275.5999995475526
  0
LWPOLYLINE
  5
69F
330
1A
100
AcDbEntity
  8
ZUWAKU
100
AcDbPolyline
 90
        4
 70
     1
 43
0.0
 10
0.4000002654082664
 20
275.3999995475526
 10
0.4000002654082664
 20
0.3999995475526816
 10
398.4000002654082
 20
0.3999995475526816
 10
398.4000002654082
 20
275.3999995475526
  0
INSERT
  5
6A2
330
1A
100
AcDbEntity
  8
ZUWAKU
  6
Continuous
100
AcDbBlockReference
  2
*X1
 10
0.0
 20
0.0
 30
0.0
1001
ACAD
1000
HATCH
1002
{
1070
    19
1000
ANSI37
1040
0.1
1040
0.0
1000
R14_HATCH_DATA
1000
6A2
1011
1.0
1021
0.0
1031
0.0
1011
0.0
1021
1.0
1031
0.0
1011
0.0
1021
0.0
1031
1.0
1040
0.0
1010
0.0
1020
0.0
1030
1.0
1000
ANSI37
1070
     0
1070
     0
1071
        8
1071
        7
1070
     1
1070
     1
1071
       24
1040
7.251131595968215
1040
8.822423788044437
1040
-0.1989123673796348
1040
7.046106342798849
1040
9.317398534874961
1040
0.0
1040
7.046106342798849
1040
9.962499547552651
1040
-0.4142135623730912
1040
7.308606342798834
1040
10.22499954755264
1040
0.0
1040
8.796106342798788
1040
10.22499954755264
1040
0.4142135623731546
1040
9.058606342798841
1040
10.48749954755264
1040
0.0
1040
9.058606342798841
1040
11.36249954755265
1040
0.4142135623731586
1040
8.796106342798788
1040
11.62499954755264
1040
0.0
1040
7.046106342798849
1040
11.62499954755264
1040
0.4142135623730928
1040
5.646106342798869
1040
10.22499954755266
1040
0.0
1040
5.646106342798869
1040
9.317398534875026
1040
0.1989123673796619
1040
6.261182102307084
1040
7.832474294383221
1040
0.0
1040
7.716081089629423
1040
6.377575307060895
1040
-0.1989123673796613
1040
7.921106342798849
1040
5.882600560230301
1040
0.0
1040
7.921106342798849
1040
5.237499547552641
1040
-0.4142135623730911
1040
7.658606342798859
1040
4.974999547552648
1040
0.0
1040
6.171106342798904
1040
4.974999547552648
1040
0.4142135623731526
1040
5.908606342798859
1040
4.712499547552654
1040
0.0
1040
5.908606342798859
1040
3.837499547552643
1040
0.4142135623731526
1040
6.171106342798904
1040
3.574999547552649
1040
0.0
1040
7.921106342798849
1040
3.574999547552649
1040
0.4142135623731045
1040
9.321106342798886
1040
4.974999547552638
1040
0.0
1040
9.321106342798886
1040
5.882600560230271
1040
0.1989123673796604
1040
8.706030583290608
1040
7.367524800722041
1040
0.0
1071
        0
1071
        7
1070
     1
1070
     1
1071
       16
1040
11.77110634279886
1040
9.524999547552651
1040
-0.4142135623730935
1040
12.47110634279886
1040
10.22499954755264
1040
0.0
1040
13.43360634279884
1040
10.22499954755264
1040
0.4142135623731546
1040
13.69610634279888
1040
10.48749954755264
1040
0.0
1040
13.69610634279888
1040
11.36249954755265
1040
0.4142135623730951
1040
13.43360634279889
1040
11.62499954755264
1040
0.0
1040
12.4711063427988
1040
11.62499954755262
1040
0.4142135623730893
1040
10.37110634279883
1040
9.524999547552617
1040
0.0
1040
10.37110634279883
1040
5.674999547552661
1040
0.4142135623730969
1040
12.47110634279886
1040
3.574999547552649
1040
0.0
1040
13.43360634279884
1040
3.574999547552649
1040
0.4142135623731526
1040
13.69610634279888
1040
3.837499547552643
1040
0.0
1040
13.69610634279888
1040
4.712499547552654
1040
0.4142135623730891
1040
13.43360634279889
1040
4.974999547552648
1040
0.0
1040
12.47110634279886
1040
4.974999547552648
1040
-0.4142135623730928
1040
11.77110634279886
1040
5.674999547552641
1040
0.0
1071
        0
1071
        7
1070
     1
1070
     1
1071
        2
1040
12.12110634279884
1040
7.599999547552645
1040
1.0
1040
13.87110634279884
1040
7.599999547552645
1040
1.0
1071
        0
1071
        7
1070
     1
1070
     1
1071
       26
1040
18.65742958388784
1040
9.602523144334361
1040
0.0
1040
19.18824940045675
1040
11.28345256346915
1040
0.5069206636600134
1040
18.93793395085907
1040
11.62499954755264
1040
0.0
1040
18.08848926105445
1040
11.62499954755264
1040
0.3272098845218764
1040
17.83817381145678
1040
11.44154653163613
1040
0.0
1040
16.90403887414088
1040
8.483452563469185
1040
-0.3272098845219541
1040
16.65372342454315
1040
8.299999547552646
1040
0.0
1040
16.58360634279893
1040
8.299999547552646
1040
-0.4142135623731526
1040
16.32110634279888
1040
8.56249954755264
1040
0.0
1040
16.32110634279888
1040
11.36249954755265
1040
0.4142135623730951
1040
16.05860634279889
1040
11.62499954755264
1040
0.0
1040
15.18360634279883
1040
11.62499954755264
1040
0.4142135623730871
1040
14.92110634279885
1040
11.36249954755265
1040
0.0
1040
14.92110634279885
1040
3.837499547552643
1040
0.4142135623730891
1040
15.18360634279883
1040
3.574999547552649
1040
0.0
1040
16.05860634279884
1040
3.574999547552649
1040
0.4142135623731526
1040
16.32110634279888
1040
3.837499547552643
1040
0.0
1040
16.32110634279888
1040
6.63749954755265
1040
-0.4142135623731526
1040
16.58360634279893
1040
6.899999547552646
1040
0.0
1040
16.65372342454321
1040
6.899999547552646
1040
-0.3272098845218915
1040
16.90403887414088
1040
6.716546531636111
1040
0.0
1040
17.83817381145678
1040
3.758452563469185
1040
0.3272098845218902
1040
18.08848926105445
1040
3.574999547552649
1040
0.0
1040
18.93793395085907
1040
3.574999547552649
1040
0.5069206636600336
1040
19.18824940045675
1040
3.916546531636154
1040
0.0
1040
18.02505371121992
1040
7.599999547552716
1040
0.0
1071
        0
1071
        7
1070
     1
1070
     1
1071
        8
1040
21.74610634279883
1040
11.36249954755265
1040
0.4142135623731546
1040
21.48360634279879
1040
11.62499954755264
1040
0.0
1040
20.60860634279891
1040
11.62499954755264
1040
0.4142135623731507
1040
20.34610634279885
1040
11.36249954755265
1040
0.0
1040
20.34610634279885
1040
3.837499547552643
1040
0.4142135623731526
1040
20.60860634279891
1040
3.574999547552649
1040
0.0
1040
21.48360634279879
1040
3.574999547552649
1040
0.4142135623731526
1040
21.74610634279883
1040
3.837499547552643
1040
0.0
1071
        0
1071
        7
1070
     1
1070
     1
1071
       24
1040
24.19610634279888
1040
9.962499547552651
1040
-0.4142135623731546
1040
24.45860634279893
1040
10.22499954755264
1040
0.0
1040
25.94610634279888
1040
10.22499954755264
1040
0.4142135623730911
1040
26.20860634279887
1040
10.48749954755264
1040
0.0
1040
26.20860634279887
1040
11.36249954755265
1040
0.4142135623730952
1040
25.94610634279888
1040
11.62499954755264
1040
0.0
1040
24.19610634279888
1040
11.62499954755264
1040
0.4142135623731048
1040
22.79610634279884
1040
10.22499954755266
1040
0.0
1040
22.79610634279884
1040
9.317398534875026
1040
0.1989123673796613
1040
23.41118210230712
1040
7.832474294383251
1040
0.0
1040
24.86608108962945
1040
6.377575307060917
1040
-0.1989123673796402
1040
25.07110634279888
1040
5.882600560230381
1040
0.0
1040
25.07110634279888
1040
5.237499547552641
1040
-0.4142135623730911
1040
24.80860634279889
1040
4.974999547552648
1040
0.0
1040
23.32110634279888
1040
4.974999547552648
1040
0.4142135623731526
1040
23.05860634279884
1040
4.712499547552654
1040
0.0
1040
23.05860634279884
1040
3.837499547552643
1040
0.4142135623730891
1040
23.32110634279882
1040
3.574999547552649
1040
0.0
1040
25.07110634279888
1040
3.574999547552649
1040
0.4142135623730925
1040
26.47110634279886
1040
4.974999547552638
1040
0.0
1040
26.47110634279886
1040
5.882600560230271
1040
0.1989123673796675
1040
25.85603058329059
1040
7.367524800722101
1040
0.0
1040
24.4011315959683
1040
8.822423788044357
1040
-0.1989123673796652
1040
24.19610634279888
1040
9.317398534874939
1040
0.0
1071
        0
1071
        7
1070
     1
1070
     1
1071
       16
1040
28.92110634279885
1040
11.36249954755264
1040
0.414213562373103
1040
28.65860634279886
1040
11.62499954755264
1040
0.0
1040
27.78360634279886
1040
11.62499954755264
1040
0.4142135623730871
1040
27.52110634279887
1040
11.36249954755265
1040
0.0
1040
27.52110634279887
1040
4.974999547552638
1040
0.4142135623730927
1040
28.92110634279885
1040
3.574999547552649
1040
0.0
1040
30.67110634279885
1040
3.574999547552649
1040
0.4142135623731045
1040
32.07110634279888
1040
4.974999547552638
1040
0.0
1040
32.07110634279888
1040
11.36249954755265
1040
0.4142135623730951
1040
31.80860634279889
1040
11.62499954755264
1040
0.0
1040
30.93360634279884
1040
11.62499954755264
1040
0.4142135623730871
1040
30.67110634279885
1040
11.36249954755265
1040
0.0
1040
30.67110634279885
1040
5.499999547552635
1040
-0.4142135623730879
1040
30.14610634279887
1040
4.974999547552648
1040
0.0
1040
29.44610634279888
1040
4.974999547552648
1040
-0.4142135623731197
1040
28.92110634279885
1040
5.499999547552635
1040
0.0
1071
        0
1071
        7
1070
     1
1070
     1
1071
        8
1040
34.52110634279887
1040
11.36249954755265
1040
0.4142135623730871
1040
34.25860634279888
1040
11.62499954755264
1040
0.0
1040
33.38360634279888
1040
11.62499954755264
1040
0.4142135623731507
1040
33.12110634279884
1040
11.36249954755265
1040
0.0
1040
33.12110634279884
1040
3.837499547552643
1040
0.4142135623730891
1040
33.38360634279883
1040
3.574999547552649
1040
0.0
1040
34.25860634279888
1040
3.574999547552649
1040
0.4142135623730891
1040
34.52110634279887
1040
3.837499547552643
1040
0.0
1071
        0
1070
     0
1070
     1
1040
0.0
1040
0.1
1070
     0
1070
     2
1040
0.7853981633974483
1040
-450.4711519019312
1040
-6.600000452447313
1040
-0.2245064030267288
1040
0.2245064030267288
1070
     0
1040
2.356194490192344
1040
-450.4711519019312
1040
-6.600000452447313
1040
-0.2245064030267288
1040
-0.2245064030267288
1070
     0
1040
0.057451373970553
1071
        8
1040
8.039927746919939
1040
7.583586370495421
1040
0.0
1040
11.20225776862787
1040
9.422030638778151
1040
0.0
1040
12.58218420823811
1040
7.755940370588006
1040
0.0
1040
15.45703025622685
1040
8.100648370773395
1040
0.0
1040
20.91923627488665
1040
8.330454504544206
1040
0.0
1040
23.44910071297306
1040
9.709287705756251
1040
0.0
1040
28.27884325160846
1040
9.364578505100151
1040
0.0
1040
33.91354007521965
1040
9.594384638870961
1040
0.0
1002
}
  0
LINE
  5
6A3
330
1A
100
AcDbEntity
  8
ZUWAKU
100
AcDbLine
 10
12.47110634279886
 20
11.62499954755262
 30
0.0
 11
13.43360634279884
 21
11.62499954755264
 31
0.0
  0
LINE
  5
6A4
330
1A
100
AcDbEntity
  8
ZUWAKU
100
AcDbLine
 10
13.43360634279884
 20
10.22499954755264
 30
0.0
 11
12.47110634279886
 21
10.22499954755264
 31
0.0
  0
LINE
  5
6A5
330
1A
100
AcDbEntity
  8
ZUWAKU
100
AcDbLine
 10
12.47110634279886
 20
4.974999547552648
 30
0.0
 11
13.43360634279884
 21
4.974999547552648
 31
0.0
  0
LINE
  5
6A6
330
1A
100
AcDbEntity
  8
ZUWAKU
100
AcDbLine
 10
13.43360634279884
 20
3.574999547552649
 30
0.0
 11
12.47110634279886
 21
3.574999547552649
 31
0.0
  0
CIRCLE
  5
6A7
330
1A
100
AcDbEntity
  8
ZUWAKU
100
AcDbCircle
 10
12.99610634279883
 20
7.599999547552645
 30
0.0
 40
0.875
  0
ARC
  5
6A8
330
1A
100
AcDbEntity
  8
ZUWAKU
100
AcDbCircle
 10
7.746106342798839
 20
9.317398534874994
 30
0.0
 40
0.6999999999999995
100
AcDbArc
 50
180.0000000000015
 51
224.9999999999988
  0
LINE
  5
6A9
330
1A
100
AcDbEntity
  8
ZUWAKU
100
AcDbLine
 10
11.77110634279886
 20
9.524999547552646
 30
0.0
 11
11.77110634279886
 21
5.67499954755265
 31
0.0
  0
LINE
  5
6AA
330
1A
100
AcDbEntity
  8
ZUWAKU
100
AcDbLine
 10
10.37110634279883
 20
5.67499954755265
 30
0.0
 11
10.37110634279883
 21
9.524999547552626
 31
0.0
  0
ARC
  5
6AB
330
1A
100
AcDbEntity
  8
ZUWAKU
100
AcDbCircle
 10
7.746106342798839
 20
9.317398534874994
 30
0.0
 40
2.099999999999999
100
AcDbArc
 50
180.0
 51
225.0
  0
ARC
  5
6AC
330
1A
100
AcDbEntity
  8
ZUWAKU
100
AcDbCircle
 10
7.921106342798849
 20
4.974999547552648
 30
0.0
 40
1.399999999999999
100
AcDbArc
 50
270.0
 51
0.0
  0
ARC
  5
6AD
330
1A
100
AcDbEntity
  8
ZUWAKU
100
AcDbCircle
 10
12.47110634279886
 20
5.67499954755265
 30
0.0
 40
2.099999999999999
100
AcDbArc
 50
180.0
 51
270.0
  0
ARC
  5
6AE
330
1A
100
AcDbEntity
  8
ZUWAKU
100
AcDbCircle
 10
7.221106342798859
 20
5.882600560230301
 30
0.0
 40
2.099999999999999
100
AcDbArc
 50
0.0
 51
45.0
  0
LINE
  5
6AF
330
1A
100
AcDbEntity
  8
ZUWAKU
100
AcDbLine
 10
8.706030583290608
 20
7.36752480072206
 30
0.0
 11
7.251131595968269
 21
8.822423788044396
 31
0.0
  0
LINE
  5
6B0
330
1A
100
AcDbEntity
  8
ZUWAKU
100
AcDbLine
 10
7.921106342798849
 20
5.23749954755265
 30
0.0
 11
7.921106342798849
 21
5.88260056023032
 31
0.0
  0
ARC
  5
6B1
330
1A
100
AcDbEntity
  8
ZUWAKU
100
AcDbCircle
 10
7.658606342798859
 20
5.23749954755265
 30
0.0
 40
0.2625
100
AcDbArc
 50
270.0
 51
0.0
  0
ARC
  5
6B2
330
1A
100
AcDbEntity
  8
ZUWAKU
100
AcDbCircle
 10
7.221106342798859
 20
5.88260056023032
 30
0.0
 40
0.6999999999999995
100
AcDbArc
 50
0.0
 51
45.0
  0
LINE
  5
6B3
330
1A
100
AcDbEntity
  8
ZUWAKU
100
AcDbLine
 10
5.908606342798859
 20
3.837499547552649
 30
0.0
 11
5.908606342798859
 21
4.712499547552648
 31
0.0
  0
ARC
  5
6B4
330
1A
100
AcDbEntity
  8
ZUWAKU
100
AcDbCircle
 10
6.171106342798849
 20
3.837499547552649
 30
0.0
 40
0.2625
100
AcDbArc
 50
180.0
 51
270.0
  0
ARC
  5
6B5
330
1A
100
AcDbEntity
  8
ZUWAKU
100
AcDbCircle
 10
6.171106342798849
 20
4.712499547552648
 30
0.0
 40
0.2625
100
AcDbArc
 50
90.0
 51
180.0
  0
LINE
  5
6B6
330
1A
100
AcDbEntity
  8
ZUWAKU
100
AcDbLine
 10
6.171106342798849
 20
3.574999547552649
 30
0.0
 11
7.921106342798849
 21
3.574999547552649
 31
0.0
  0
LINE
  5
6B7
330
1A
100
AcDbEntity
  8
ZUWAKU
100
AcDbLine
 10
6.171106342798849
 20
4.974999547552648
 30
0.0
 11
7.658606342798859
 21
4.974999547552648
 31
0.0
  0
LINE
  5
6B8
330
1A
100
AcDbEntity
  8
ZUWAKU
100
AcDbLine
 10
6.261182102307084
 20
7.832474294383235
 30
0.0
 11
7.716081089629423
 21
6.377575307060906
 31
0.0
  0
LINE
  5
6B9
330
1A
100
AcDbEntity
  8
ZUWAKU
100
AcDbLine
 10
9.321106342798886
 20
4.974999547552648
 30
0.0
 11
9.321106342798886
 21
5.88260056023032
 31
0.0
  0
ARC
  5
6BA
330
1A
100
AcDbEntity
  8
ZUWAKU
100
AcDbCircle
 10
12.47110634279886
 20
5.67499954755265
 30
0.0
 40
0.6999999999999995
100
AcDbArc
 50
180.0
 51
270.0
  0
ARC
  5
6BB
330
1A
100
AcDbEntity
  8
ZUWAKU
100
AcDbCircle
 10
8.79610634279885
 20
11.36249954755264
 30
0.0
 40
0.2625
100
AcDbArc
 50
0.0
 51
90.0
  0
ARC
  5
6BC
330
1A
100
AcDbEntity
  8
ZUWAKU
100
AcDbCircle
 10
8.79610634279885
 20
10.48749954755264
 30
0.0
 40
0.2625
100
AcDbArc
 50
270.0
 51
0.0
  0
LINE
  5
6BD
330
1A
100
AcDbEntity
  8
ZUWAKU
100
AcDbLine
 10
7.046106342798849
 20
11.62499954755264
 30
0.0
 11
8.79610634279885
 21
11.62499954755264
 31
0.0
  0
ARC
  5
6BE
330
1A
100
AcDbEntity
  8
ZUWAKU
100
AcDbCircle
 10
7.308606342798834
 20
9.962499547552646
 30
0.0
 40
0.2625
100
AcDbArc
 50
90.0
 51
180.0
  0
LINE
  5
6BF
330
1A
100
AcDbEntity
  8
ZUWAKU
100
AcDbLine
 10
7.046106342798849
 20
9.962499547552646
 30
0.0
 11
7.046106342798849
 21
9.317398534874977
 31
0.0
  0
LINE
  5
6C0
330
1A
100
AcDbEntity
  8
ZUWAKU
100
AcDbLine
 10
8.79610634279885
 20
10.22499954755264
 30
0.0
 11
7.308606342798834
 21
10.22499954755264
 31
0.0
  0
LINE
  5
6C1
330
1A
100
AcDbEntity
  8
ZUWAKU
100
AcDbLine
 10
5.646106342798869
 20
10.22499954755264
 30
0.0
 11
5.646106342798869
 21
9.317398534874977
 31
0.0
  0
ARC
  5
6C2
330
1A
100
AcDbEntity
  8
ZUWAKU
100
AcDbCircle
 10
7.046106342798849
 20
10.22499954755264
 30
0.0
 40
1.399999999999999
100
AcDbArc
 50
90.0
 51
180.0
  0
LINE
  5
6C3
330
1A
100
AcDbEntity
  8
ZUWAKU
100
AcDbLine
 10
9.058606342798841
 20
11.36249954755264
 30
0.0
 11
9.058606342798841
 21
10.48749954755264
 31
0.0
  0
ARC
  5
6C4
330
1A
100
AcDbEntity
  8
ZUWAKU
100
AcDbCircle
 10
12.47110634279886
 20
9.524999547552646
 30
0.0
 40
0.6999999999999995
100
AcDbArc
 50
90.0
 51
180.0
  0
ARC
  5
6C5
330
1A
100
AcDbEntity
  8
ZUWAKU
100
AcDbCircle
 10
12.47110634279886
 20
9.524999547552626
 30
0.0
 40
2.099999999999999
100
AcDbArc
 50
90.0
 51
180.0
  0
LINE
  5
6C6
330
1A
100
AcDbEntity
  8
ZUWAKU
100
AcDbLine
 10
39.66331503940239
 20
14.99999954755264
 30
0.0
 11
39.6633150394025
 21
0.3999995475526816
 31
0.0
  0
LINE
  5
6C7
330
1A
100
AcDbEntity
  8
ZUWAKU
100
AcDbLine
 10
39.76331503940241
 20
14.99999954755264
 30
0.0
 11
39.76331503940252
 21
0.3999995475526816
 31
0.0
  0
LINE
  5
6C8
330
1A
100
AcDbEntity
  8
ZUWAKU
100
AcDbLine
 10
39.56331503940248
 20
14.99999954755264
 30
0.0
 11
39.56331503940248
 21
0.3999995475526816
 31
0.0
  0
LINE
  5
6C9
330
1A
100
AcDbEntity
  8
ZUWAKU
100
AcDbLine
 10
32.07110634279888
 20
4.974999547552648
 30
0.0
 11
32.07110634279888
 21
11.36249954755264
 31
0.0
  0
LINE
  5
6CA
330
1A
100
AcDbEntity
  8
ZUWAKU
100
AcDbLine
 10
30.67110634279885
 20
11.36249954755264
 30
0.0
 11
30.67110634279885
 21
5.499999547552645
 31
0.0
  0
LINE
  5
6CB
330
1A
100
AcDbEntity
  8
ZUWAKU
100
AcDbLine
 10
34.52110634279887
 20
3.837499547552649
 30
0.0
 11
34.52110634279887
 21
11.36249954755264
 31
0.0
  0
LINE
  5
6CC
330
1A
100
AcDbEntity
  8
ZUWAKU
100
AcDbLine
 10
33.12110634279884
 20
11.36249954755264
 30
0.0
 11
33.12110634279884
 21
3.837499547552649
 31
0.0
  0
ARC
  5
6CD
330
1A
100
AcDbEntity
  8
ZUWAKU
100
AcDbCircle
 10
24.89610634279887
 20
9.317398534874994
 30
0.0
 40
0.6999999999999995
100
AcDbArc
 50
180.0000000000015
 51
224.9999999999988
  0
ARC
  5
6CE
330
1A
100
AcDbEntity
  8
ZUWAKU
100
AcDbCircle
 10
24.89610634279887
 20
9.317398534874994
 30
0.0
 40
2.099999999999999
100
AcDbArc
 50
180.0
 51
225.0
  0
LINE
  5
6CF
330
1A
100
AcDbEntity
  8
ZUWAKU
100
AcDbLine
 10
18.65742958388784
 20
9.602523144334361
 30
0.0
 11
18.02505371121992
 21
7.599999547552655
 31
0.0
  0
LINE
  5
6D0
330
1A
100
AcDbEntity
  8
ZUWAKU
100
AcDbLine
 10
20.34610634279885
 20
11.36249954755264
 30
0.0
 11
20.34610634279885
 21
3.837499547552649
 31
0.0
  0
LINE
  5
6D1
330
1A
100
AcDbEntity
  8
ZUWAKU
100
AcDbLine
 10
21.74610634279883
 20
3.837499547552649
 30
0.0
 11
21.74610634279883
 21
11.36249954755264
 31
0.0
  0
LINE
  5
6D2
330
1A
100
AcDbEntity
  8
ZUWAKU
100
AcDbLine
 10
27.52110634279887
 20
11.36249954755264
 30
0.0
 11
27.52110634279887
 21
4.974999547552648
 31
0.0
  0
LINE
  5
6D3
330
1A
100
AcDbEntity
  8
ZUWAKU
100
AcDbLine
 10
28.92110634279885
 20
5.499999547552645
 30
0.0
 11
28.92110634279885
 21
11.36249954755264
 31
0.0
  0
LINE
  5
6D4
330
1A
100
AcDbEntity
  8
ZUWAKU
100
AcDbLine
 10
16.32110634279888
 20
8.562499547552651
 30
0.0
 11
16.32110634279888
 21
11.36249954755264
 31
0.0
  0
LINE
  5
6D5
330
1A
100
AcDbEntity
  8
ZUWAKU
100
AcDbLine
 10
14.92110634279885
 20
11.36249954755264
 30
0.0
 11
14.92110634279885
 21
3.837499547552649
 31
0.0
  0
LINE
  5
6D6
330
1A
100
AcDbEntity
  8
ZUWAKU
100
AcDbLine
 10
17.83817381145678
 20
11.44154653163613
 30
0.0
 11
16.90403887414088
 21
8.48345256346916
 31
0.0
  0
LINE
  5
6D7
330
1A
100
AcDbEntity
  8
ZUWAKU
100
AcDbLine
 10
30.14610634279887
 20
4.974999547552648
 30
0.0
 11
29.44610634279888
 21
4.974999547552648
 31
0.0
  0
LINE
  5
6D8
330
1A
100
AcDbEntity
  8
ZUWAKU
100
AcDbLine
 10
28.92110634279885
 20
3.574999547552649
 30
0.0
 11
30.67110634279885
 21
3.574999547552649
 31
0.0
  0
LINE
  5
6D9
330
1A
100
AcDbEntity
  8
ZUWAKU
100
AcDbLine
 10
20.60860634279884
 20
3.574999547552649
 30
0.0
 11
21.48360634279885
 21
3.574999547552649
 31
0.0
  0
LINE
  5
6DA
330
1A
100
AcDbEntity
  8
ZUWAKU
100
AcDbLine
 10
17.83817381145678
 20
3.758452563469162
 30
0.0
 11
16.90403887414088
 21
6.716546531636131
 31
0.0
  0
ARC
  5
6DB
330
1A
100
AcDbEntity
  8
ZUWAKU
100
AcDbCircle
 10
16.65372342454321
 20
8.562499547552651
 30
0.0
 40
0.2625
100
AcDbArc
 50
270.0
 51
342.4744316262769
  0
LINE
  5
6DC
330
1A
100
AcDbEntity
  8
ZUWAKU
100
AcDbLine
 10
16.65372342454321
 20
8.299999547552646
 30
0.0
 11
16.58360634279887
 21
8.299999547552646
 31
0.0
  0
LINE
  5
6DD
330
1A
100
AcDbEntity
  8
ZUWAKU
100
AcDbLine
 10
16.58360634279887
 20
6.899999547552646
 30
0.0
 11
16.65372342454321
 21
6.899999547552646
 31
0.0
  0
ARC
  5
6DE
330
1A
100
AcDbEntity
  8
ZUWAKU
100
AcDbCircle
 10
16.58360634279887
 20
8.562499547552651
 30
0.0
 40
0.2625
100
AcDbArc
 50
180.0
 51
270.0
  0
LINE
  5
6DF
330
1A
100
AcDbEntity
  8
ZUWAKU
100
AcDbLine
 10
15.18360634279883
 20
3.574999547552649
 30
0.0
 11
16.05860634279884
 21
3.574999547552649
 31
0.0
  0
ARC
  5
6E0
330
1A
100
AcDbEntity
  8
ZUWAKU
100
AcDbCircle
 10
16.05860634279884
 20
3.837499547552649
 30
0.0
 40
0.2625
100
AcDbArc
 50
270.0
 51
0.0
  0
LINE
  5
6E1
330
1A
100
AcDbEntity
  8
ZUWAKU
100
AcDbLine
 10
16.32110634279888
 20
3.837499547552649
 30
0.0
 11
16.32110634279888
 21
6.637499547552645
 31
0.0
  0
LINE
  5
6E2
330
1A
100
AcDbEntity
  8
ZUWAKU
100
AcDbLine
 10
13.69610634279888
 20
4.712499547552648
 30
0.0
 11
13.69610634279888
 21
3.837499547552649
 31
0.0
  0
ARC
  5
6E3
330
1A
100
AcDbEntity
  8
ZUWAKU
100
AcDbCircle
 10
13.43360634279884
 20
3.837499547552649
 30
0.0
 40
0.2625
100
AcDbArc
 50
270.0
 51
0.0
  0
ARC
  5
6E4
330
1A
100
AcDbEntity
  8
ZUWAKU
100
AcDbCircle
 10
13.43360634279884
 20
4.712499547552648
 30
0.0
 40
0.2625
100
AcDbArc
 50
0.0
 51
90.0
  0
ARC
  5
6E5
330
1A
100
AcDbEntity
  8
ZUWAKU
100
AcDbCircle
 10
15.18360634279883
 20
3.837499547552649
 30
0.0
 40
0.2625
100
AcDbArc
 50
180.0
 51
270.0
  0
ARC
  5
6E6
330
1A
100
AcDbEntity
  8
ZUWAKU
100
AcDbCircle
 10
16.65372342454321
 20
6.637499547552645
 30
0.0
 40
0.2625
100
AcDbArc
 50
17.52556837372303
 51
90.0
  0
ARC
  5
6E7
330
1A
100
AcDbEntity
  8
ZUWAKU
100
AcDbCircle
 10
16.58360634279887
 20
6.637499547552645
 30
0.0
 40
0.2625
100
AcDbArc
 50
90.0
 51
180.0
  0
ARC
  5
6E8
330
1A
100
AcDbEntity
  8
ZUWAKU
100
AcDbCircle
 10
20.60860634279884
 20
3.837499547552649
 30
0.0
 40
0.2625
100
AcDbArc
 50
180.0
 51
270.0
  0
LINE
  5
6E9
330
1A
100
AcDbEntity
  8
ZUWAKU
100
AcDbLine
 10
18.08848926105451
 20
3.574999547552649
 30
0.0
 11
18.93793395085902
 21
3.574999547552649
 31
0.0
  0
ARC
  5
6EA
330
1A
100
AcDbEntity
  8
ZUWAKU
100
AcDbCircle
 10
18.93793395085902
 20
3.837499547552649
 30
0.0
 40
0.2625
100
AcDbArc
 50
270.0
 51
17.52556837372303
  0
LINE
  5
6EB
330
1A
100
AcDbEntity
  8
ZUWAKU
100
AcDbLine
 10
19.18824940045675
 20
3.916546531636136
 30
0.0
 11
18.02505371121992
 21
7.599999547552655
 31
0.0
  0
ARC
  5
6EC
330
1A
100
AcDbEntity
  8
ZUWAKU
100
AcDbCircle
 10
18.08848926105451
 20
3.837499547552649
 30
0.0
 40
0.2625
100
AcDbArc
 50
197.5255683737229
 51
270.0
  0
ARC
  5
6ED
330
1A
100
AcDbEntity
  8
ZUWAKU
100
AcDbCircle
 10
28.92110634279885
 20
4.974999547552648
 30
0.0
 40
1.399999999999999
100
AcDbArc
 50
180.0
 51
270.0
  0
ARC
  5
6EE
330
1A
100
AcDbEntity
  8
ZUWAKU
100
AcDbCircle
 10
25.07110634279888
 20
4.974999547552648
 30
0.0
 40
1.399999999999999
100
AcDbArc
 50
270.0
 51
0.0
  0
LINE
  5
6EF
330
1A
100
AcDbEntity
  8
ZUWAKU
100
AcDbLine
 10
25.85603058329064
 20
7.36752480072206
 30
0.0
 11
24.40113159596825
 21
8.822423788044396
 31
0.0
  0
LINE
  5
6F0
330
1A
100
AcDbEntity
  8
ZUWAKU
100
AcDbLine
 10
25.07110634279888
 20
5.23749954755265
 30
0.0
 11
25.07110634279888
 21
5.88260056023032
 31
0.0
  0
ARC
  5
6F1
330
1A
100
AcDbEntity
  8
ZUWAKU
100
AcDbCircle
 10
24.37110634279884
 20
5.88260056023032
 30
0.0
 40
0.6999999999999995
100
AcDbArc
 50
0.0
 51
45.0
  0
ARC
  5
6F2
330
1A
100
AcDbEntity
  8
ZUWAKU
100
AcDbCircle
 10
24.80860634279884
 20
5.23749954755265
 30
0.0
 40
0.2625
100
AcDbArc
 50
270.0
 51
0.0
  0
LINE
  5
6F3
330
1A
100
AcDbEntity
  8
ZUWAKU
100
AcDbLine
 10
23.05860634279884
 20
3.837499547552649
 30
0.0
 11
23.05860634279884
 21
4.712499547552648
 31
0.0
  0
ARC
  5
6F4
330
1A
100
AcDbEntity
  8
ZUWAKU
100
AcDbCircle
 10
23.32110634279888
 20
3.837499547552649
 30
0.0
 40
0.2625
100
AcDbArc
 50
180.0
 51
270.0
  0
ARC
  5
6F5
330
1A
100
AcDbEntity
  8
ZUWAKU
100
AcDbCircle
 10
21.48360634279885
 20
3.837499547552649
 30
0.0
 40
0.2625
100
AcDbArc
 50
270.0
 51
0.0
  0
ARC
  5
6F6
330
1A
100
AcDbEntity
  8
ZUWAKU
100
AcDbCircle
 10
23.32110634279888
 20
4.712499547552648
 30
0.0
 40
0.2625
100
AcDbArc
 50
90.0
 51
180.0
  0
LINE
  5
6F7
330
1A
100
AcDbEntity
  8
ZUWAKU
100
AcDbLine
 10
23.32110634279888
 20
4.974999547552648
 30
0.0
 11
24.80860634279884
 21
4.974999547552648
 31
0.0
  0
LINE
  5
6F8
330
1A
100
AcDbEntity
  8
ZUWAKU
100
AcDbLine
 10
23.32110634279888
 20
3.574999547552649
 30
0.0
 11
25.07110634279888
 21
3.574999547552649
 31
0.0
  0
LINE
  5
6F9
330
1A
100
AcDbEntity
  8
ZUWAKU
100
AcDbLine
 10
23.41118210230712
 20
7.832474294383235
 30
0.0
 11
24.86608108962945
 21
6.377575307060906
 31
0.0
  0
LINE
  5
6FA
330
1A
100
AcDbEntity
  8
ZUWAKU
100
AcDbLine
 10
26.47110634279886
 20
4.974999547552648
 30
0.0
 11
26.47110634279886
 21
5.88260056023032
 31
0.0
  0
ARC
  5
6FB
330
1A
100
AcDbEntity
  8
ZUWAKU
100
AcDbCircle
 10
24.37110634279884
 20
5.882600560230301
 30
0.0
 40
2.099999999999999
100
AcDbArc
 50
0.0
 51
45.0
  0
ARC
  5
6FC
330
1A
100
AcDbEntity
  8
ZUWAKU
100
AcDbCircle
 10
29.44610634279888
 20
5.499999547552645
 30
0.0
 40
0.5249999999999995
100
AcDbArc
 50
180.0
 51
270.0
  0
ARC
  5
6FD
330
1A
100
AcDbEntity
  8
ZUWAKU
100
AcDbCircle
 10
30.67110634279885
 20
4.974999547552648
 30
0.0
 40
1.399999999999999
100
AcDbArc
 50
270.0
 51
0.0
  0
LINE
  5
6FE
330
1A
100
AcDbEntity
  8
ZUWAKU
100
AcDbLine
 10
33.38360634279888
 20
3.574999547552649
 30
0.0
 11
34.25860634279888
 21
3.574999547552649
 31
0.0
  0
ARC
  5
6FF
330
1A
100
AcDbEntity
  8
ZUWAKU
100
AcDbCircle
 10
33.38360634279888
 20
3.837499547552649
 30
0.0
 40
0.2625
100
AcDbArc
 50
180.0
 51
270.0
  0
ARC
  5
700
330
1A
100
AcDbEntity
  8
ZUWAKU
100
AcDbCircle
 10
30.14610634279887
 20
5.499999547552645
 30
0.0
 40
0.5249999999999995
100
AcDbArc
 50
270.0
 51
0.0
  0
ARC
  5
701
330
1A
100
AcDbEntity
  8
ZUWAKU
100
AcDbCircle
 10
34.25860634279888
 20
3.837499547552649
 30
0.0
 40
0.2625
100
AcDbArc
 50
270.0
 51
0.0
  0
LINE
  5
702
330
1A
100
AcDbEntity
  8
ZUWAKU
100
AcDbLine
 10
21.48360634279885
 20
11.62499954755264
 30
0.0
 11
20.60860634279884
 21
11.62499954755264
 31
0.0
  0
ARC
  5
703
330
1A
100
AcDbEntity
  8
ZUWAKU
100
AcDbCircle
 10
16.05860634279884
 20
11.36249954755264
 30
0.0
 40
0.2625
100
AcDbArc
 50
0.0
 51
90.0
  0
LINE
  5
704
330
1A
100
AcDbEntity
  8
ZUWAKU
100
AcDbLine
 10
16.05860634279884
 20
11.62499954755264
 30
0.0
 11
15.18360634279883
 21
11.62499954755264
 31
0.0
  0
ARC
  5
705
330
1A
100
AcDbEntity
  8
ZUWAKU
100
AcDbCircle
 10
13.43360634279884
 20
11.36249954755264
 30
0.0
 40
0.2625
100
AcDbArc
 50
0.0
 51
90.0
  0
ARC
  5
706
330
1A
100
AcDbEntity
  8
ZUWAKU
100
AcDbCircle
 10
15.18360634279883
 20
11.36249954755264
 30
0.0
 40
0.2625
100
AcDbArc
 50
90.0
 51
180.0
  0
ARC
  5
707
330
1A
100
AcDbEntity
  8
ZUWAKU
100
AcDbCircle
 10
13.43360634279884
 20
10.48749954755264
 30
0.0
 40
0.2625
100
AcDbArc
 50
270.0
 51
0.0
  0
LINE
  5
708
330
1A
100
AcDbEntity
  8
ZUWAKU
100
AcDbLine
 10
13.69610634279888
 20
11.36249954755264
 30
0.0
 11
13.69610634279888
 21
10.48749954755264
 31
0.0
  0
ARC
  5
709
330
1A
100
AcDbEntity
  8
ZUWAKU
100
AcDbCircle
 10
20.60860634279884
 20
11.36249954755264
 30
0.0
 40
0.2625
100
AcDbArc
 50
90.0
 51
180.0
  0
LINE
  5
70A
330
1A
100
AcDbEntity
  8
ZUWAKU
100
AcDbLine
 10
18.08848926105451
 20
11.62499954755264
 30
0.0
 11
18.93793395085902
 21
11.62499954755264
 31
0.0
  0
ARC
  5
70B
330
1A
100
AcDbEntity
  8
ZUWAKU
100
AcDbCircle
 10
18.93793395085902
 20
11.36249954755264
 30
0.0
 40
0.2625
100
AcDbArc
 50
342.4744316262769
 51
90.0
  0
LINE
  5
70C
330
1A
100
AcDbEntity
  8
ZUWAKU
100
AcDbLine
 10
19.18824940045675
 20
11.28345256346916
 30
0.0
 11
18.65742958388784
 21
9.602523144334361
 31
0.0
  0
ARC
  5
70D
330
1A
100
AcDbEntity
  8
ZUWAKU
100
AcDbCircle
 10
18.08848926105451
 20
11.36249954755264
 30
0.0
 40
0.2625
100
AcDbArc
 50
90.0
 51
162.4744316262769
  0
LINE
  5
70E
330
1A
100
AcDbEntity
  8
ZUWAKU
100
AcDbLine
 10
24.19610634279888
 20
11.62499954755264
 30
0.0
 11
25.94610634279888
 21
11.62499954755264
 31
0.0
  0
LINE
  5
70F
330
1A
100
AcDbEntity
  8
ZUWAKU
100
AcDbLine
 10
25.94610634279888
 20
10.22499954755264
 30
0.0
 11
24.45860634279886
 21
10.22499954755264
 31
0.0
  0
ARC
  5
710
330
1A
100
AcDbEntity
  8
ZUWAKU
100
AcDbCircle
 10
24.45860634279886
 20
9.962499547552646
 30
0.0
 40
0.2625
100
AcDbArc
 50
90.0
 51
180.0
  0
LINE
  5
711
330
1A
100
AcDbEntity
  8
ZUWAKU
100
AcDbLine
 10
24.19610634279888
 20
9.962499547552646
 30
0.0
 11
24.19610634279888
 21
9.317398534874977
 31
0.0
  0
ARC
  5
712
330
1A
100
AcDbEntity
  8
ZUWAKU
100
AcDbCircle
 10
21.48360634279885
 20
11.36249954755264
 30
0.0
 40
0.2625
100
AcDbArc
 50
0.0
 51
90.0
  0
LINE
  5
713
330
1A
100
AcDbEntity
  8
ZUWAKU
100
AcDbLine
 10
22.79610634279884
 20
10.22499954755264
 30
0.0
 11
22.79610634279884
 21
9.317398534874977
 31
0.0
  0
ARC
  5
714
330
1A
100
AcDbEntity
  8
ZUWAKU
100
AcDbCircle
 10
24.19610634279888
 20
10.22499954755264
 30
0.0
 40
1.399999999999999
100
AcDbArc
 50
90.0
 51
180.0
  0
ARC
  5
715
330
1A
100
AcDbEntity
  8
ZUWAKU
100
AcDbCircle
 10
28.65860634279886
 20
11.36249954755264
 30
0.0
 40
0.2625
100
AcDbArc
 50
0.0
 51
90.0
  0
ARC
  5
716
330
1A
100
AcDbEntity
  8
ZUWAKU
100
AcDbCircle
 10
27.78360634279886
 20
11.36249954755264
 30
0.0
 40
0.2625
100
AcDbArc
 50
90.0
 51
180.0
  0
LINE
  5
717
330
1A
100
AcDbEntity
  8
ZUWAKU
100
AcDbLine
 10
28.65860634279886
 20
11.62499954755264
 30
0.0
 11
27.78360634279886
 21
11.62499954755264
 31
0.0
  0
ARC
  5
718
330
1A
100
AcDbEntity
  8
ZUWAKU
100
AcDbCircle
 10
25.94610634279888
 20
11.36249954755264
 30
0.0
 40
0.2625
100
AcDbArc
 50
0.0
 51
90.0
  0
ARC
  5
719
330
1A
100
AcDbEntity
  8
ZUWAKU
100
AcDbCircle
 10
25.94610634279888
 20
10.48749954755264
 30
0.0
 40
0.2625
100
AcDbArc
 50
270.0
 51
0.0
  0
LINE
  5
71A
330
1A
100
AcDbEntity
  8
ZUWAKU
100
AcDbLine
 10
26.20860634279887
 20
11.36249954755264
 30
0.0
 11
26.20860634279887
 21
10.48749954755264
 31
0.0
  0
LINE
  5
71B
330
1A
100
AcDbEntity
  8
ZUWAKU
100
AcDbLine
 10
34.25860634279888
 20
11.62499954755264
 30
0.0
 11
33.38360634279888
 21
11.62499954755264
 31
0.0
  0
ARC
  5
71C
330
1A
100
AcDbEntity
  8
ZUWAKU
100
AcDbCircle
 10
33.38360634279888
 20
11.36249954755264
 30
0.0
 40
0.2625
100
AcDbArc
 50
90.0
 51
180.0
  0
ARC
  5
71D
330
1A
100
AcDbEntity
  8
ZUWAKU
100
AcDbCircle
 10
31.80860634279884
 20
11.36249954755264
 30
0.0
 40
0.2625
100
AcDbArc
 50
0.0
 51
90.0
  0
LINE
  5
71E
330
1A
100
AcDbEntity
  8
ZUWAKU
100
AcDbLine
 10
31.80860634279884
 20
11.62499954755264
 30
0.0
 11
30.93360634279884
 21
11.62499954755264
 31
0.0
  0
ARC
  5
71F
330
1A
100
AcDbEntity
  8
ZUWAKU
100
AcDbCircle
 10
30.93360634279884
 20
11.36249954755264
 30
0.0
 40
0.2625
100
AcDbArc
 50
90.0
 51
180.0
  0
ARC
  5
720
330
1A
100
AcDbEntity
  8
ZUWAKU
100
AcDbCircle
 10
34.25860634279888
 20
11.36249954755264
 30
0.0
 40
0.2625
100
AcDbArc
 50
0.0
 51
90.0
  0
LINE
  5
722
330
1A
100
AcDbEntity
  8
ZUWAKU
100
AcDbLine
 10
104.1233009104422
 20
14.99999954755264
 30
0.0
 11
104.1233009104422
 21
0.3999995475526816
 31
0.0
  0
LINE
  5
723
330
1A
100
AcDbEntity
  8
ZUWAKU
100
AcDbLine
 10
104.3233009104421
 20
14.99999954755264
 30
0.0
 11
104.3233009104422
 21
0.3999995475526816
 31
0.0
  0
LINE
  5
724
330
1A
100
AcDbEntity
  8
ZUWAKU
100
AcDbLine
 10
104.2233009104421
 20
14.99999954755264
 30
0.0
 11
104.2233009104422
 21
0.3999995475526816
 31
0.0
  0
TEXT
  5
725
330
1A
100
AcDbEntity
  8
ZUWAKU
100
AcDbText
 10
104.862023421547
 20
4.827677816745456
 30
0.0
 40
2.0
  1
サイズ
 41
0.9
  7
ｽﾀｲﾙ1
100
AcDbText
  0
TEXT
  5
727
330
1A
100
AcDbEntity
  8
ZUWAKU
100
AcDbText
 10
104.8620234215469
 20
12.02767781674543
 30
0.0
 40
2.0
  1
品名
 41
0.9
  7
ｽﾀｲﾙ1
100
AcDbText
  0
LINE
  5
728
330
1A
100
AcDbEntity
  8
ZUWAKU
100
AcDbLine
 10
324.4086015205104
 20
7.599999547552661
 30
0.0
 11
348.6245055396789
 21
7.599999547552661
 31
0.0
  0
LINE
  5
729
330
1A
100
AcDbEntity
  8
ZUWAKU
100
AcDbLine
 10
324.4086015205104
 20
7.699999547552666
 30
0.0
 11
348.6245055396789
 21
7.699999547552661
 31
0.0
  0
LINE
  5
72A
330
1A
100
AcDbEntity
  8
ZUWAKU
100
AcDbLine
 10
324.4086015205104
 20
7.799999547552661
 30
0.0
 11
348.6245055396789
 21
7.799999547552661
 31
0.0
  0
TEXT
  5
72B
330
1A
100
AcDbEntity
  8
ZUWAKU
100
AcDbText
 10
329.1019691090594
 20
9.00246007625634
 30
0.0
 40
2.799999999999999
  1
　　．　　．　　
 41
0.9
  7
ｽﾀｲﾙ1
100
AcDbText
  0
LINE
  5
72C
330
1A
100
AcDbEntity
  8
ZUWAKU
100
AcDbLine
 10
252.5995900144786
 20
7.599999547552665
 30
0.0
 11
276.2634781484645
 21
7.599999547552665
 31
0.0
  0
LINE
  5
72D
330
1A
100
AcDbEntity
  8
ZUWAKU
100
AcDbLine
 10
252.5995900144786
 20
7.699999547552661
 30
0.0
 11
276.2634781484645
 21
7.699999547552661
 31
0.0
  0
LINE
  5
72E
330
1A
100
AcDbEntity
  8
ZUWAKU
100
AcDbLine
 10
252.5995900144786
 20
7.799999547552661
 30
0.0
 11
276.2634781484645
 21
7.799999547552661
 31
0.0
  0
LINE
  5
730
330
1A
100
AcDbEntity
  8
ZUWAKU
100
AcDbLine
 10
223.8121822509038
 20
14.99999954755264
 30
0.0
 11
223.8121822509039
 21
0.3999995475526816
 31
0.0
  0
LINE
  5
731
330
1A
100
AcDbEntity
  8
ZUWAKU
100
AcDbLine
 10
223.9121822509038
 20
14.99999954755264
 30
0.0
 11
223.912182250904
 21
0.3999995475526816
 31
0.0
  0
LINE
  5
732
330
1A
100
AcDbEntity
  8
ZUWAKU
100
AcDbLine
 10
223.7121822509039
 20
14.99999954755264
 30
0.0
 11
223.7121822509039
 21
0.3999995475526816
 31
0.0
  0
TEXT
  5
733
330
1A
100
AcDbEntity
  8
MOJI
100
AcDbText
 10
264.0204542515647
 20
9.00246007625634
 30
0.0
 40
2.799999999999999
  1
Ａ３
 41
0.9
  7
ｽﾀｲﾙ1
100
AcDbText
  0
LINE
  5
734
330
1A
100
AcDbEntity
  8
ZUWAKU
100
AcDbLine
 10
252.4995900144787
 20
14.99999954755264
 30
0.0
 11
252.4995900144787
 21
0.3999995475526816
 31
0.0
  0
LINE
  5
735
330
1A
100
AcDbEntity
  8
ZUWAKU
100
AcDbLine
 10
252.5995900144786
 20
14.99999954755264
 30
0.0
 11
252.5995900144788
 21
0.3999995475526816
 31
0.0
  0
LINE
  5
736
330
1A
100
AcDbEntity
  8
ZUWAKU
100
AcDbLine
 10
252.3995900144787
 20
14.99999954755264
 30
0.0
 11
252.3995900144787
 21
0.3999995475526816
 31
0.0
  0
TEXT
  5
737
330
1A
100
AcDbEntity
  8
ZUWAKU
100
AcDbText
 10
253.3383125255836
 20
4.827677816745456
 30
0.0
 40
2.0
  1
縮尺
 41
0.9
  7
ｽﾀｲﾙ1
100
AcDbText
  0
TEXT
  5
738
330
1A
100
AcDbEntity
  8
MOJI
100
AcDbText
 10
264.0204542515647
 20
1.602460076256358
 30
0.0
 40
2.799999999999999
  1
１/１
 41
0.9
  7
ｽﾀｲﾙ1
100
AcDbText
  0
TEXT
  5
739
330
1A
100
AcDbEntity
  8
ZUWAKU
100
AcDbText
 10
224.6509047620087
 20
12.02767781674543
 30
0.0
 40
2.0
  1
品番
 41
0.9
  7
ｽﾀｲﾙ1
100
AcDbText
  0
TEXT
  5
73A
330
1A
100
AcDbEntity
  8
ZUWAKU
100
AcDbText
 10
253.3383125255835
 20
12.02767781674543
 30
0.0
 40
2.0
  1
用紙
 41
0.9
  7
ｽﾀｲﾙ1
100
AcDbText
  0
LINE
  5
73B
330
1A
100
AcDbEntity
  8
ZUWAKU
100
AcDbLine
 10
324.3086015205103
 20
14.99999954755264
 30
0.0
 11
324.3086015205105
 21
0.3999995475526816
 31
0.0
  0
LINE
  5
73C
330
1A
100
AcDbEntity
  8
ZUWAKU
100
AcDbLine
 10
324.4086015205104
 20
14.99999954755264
 30
0.0
 11
324.4086015205106
 21
0.3999995475526816
 31
0.0
  0
LINE
  5
73D
330
1A
100
AcDbEntity
  8
ZUWAKU
100
AcDbLine
 10
324.2086015205105
 20
14.99999954755264
 30
0.0
 11
324.2086015205105
 21
0.3999995475526816
 31
0.0
  0
LINE
  5
73E
330
1A
100
AcDbEntity
  8
ZUWAKU
100
AcDbLine
 10
276.3634781484644
 20
14.99999954755264
 30
0.0
 11
276.3634781484644
 21
0.3999995475526816
 31
0.0
  0
LINE
  5
73F
330
1A
100
AcDbEntity
  8
ZUWAKU
100
AcDbLine
 10
276.4634781484644
 20
14.99999954755264
 30
0.0
 11
276.4634781484645
 21
0.3999995475526816
 31
0.0
  0
LINE
  5
740
330
1A
100
AcDbEntity
  8
ZUWAKU
100
AcDbLine
 10
276.2634781484645
 20
14.99999954755264
 30
0.0
 11
276.2634781484645
 21
0.3999995475526816
 31
0.0
  0
TEXT
  5
741
330
1A
100
AcDbEntity
  8
ZUWAKU
100
AcDbText
 10
325.1473240316152
 20
12.02767781674543
 30
0.0
 40
2.0
  1
DATE
 41
0.9
  7
ｽﾀｲﾙ1
100
AcDbText
  0
LINE
  5
742
330
1A
100
AcDbEntity
  8
ZUWAKU
100
AcDbLine
 10
348.6245055396789
 20
14.99999954755264
 30
0.0
 11
348.6245055396789
 21
0.3999995475526816
 31
0.0
  0
LINE
  5
743
330
1A
100
AcDbEntity
  8
ZUWAKU
100
AcDbLine
 10
348.7245055396789
 20
14.99999954755264
 30
0.0
 11
348.7245055396789
 21
0.3999995475526816
 31
0.0
  0
LINE
  5
744
330
1A
100
AcDbEntity
  8
ZUWAKU
100
AcDbLine
 10
348.8245055396788
 20
14.99999954755264
 30
0.0
 11
348.8245055396789
 21
0.3999995475526816
 31
0.0
  0
LINE
  5
745
330
1A
100
AcDbEntity
  8
ZUWAKU
100
AcDbLine
 10
348.9245055396789
 20
14.99999954755264
 30
0.0
 11
348.9245055396789
 21
0.3999995475526816
 31
0.0
  0
TEXT
  5
746
330
1A
100
AcDbEntity
  8
ZUWAKU
100
AcDbText
 10
354.2640423615301
 20
8.776919215396045
 30
0.0
 40
3.0
  1
積水化学工業株式会社
 41
0.9
  7
ｽﾀｲﾙ1
100
AcDbText
  0
TEXT
  5
747
330
1A
100
AcDbEntity
  8
ZUWAKU
100
AcDbText
 10
354.2640423615301
 20
3.32441970447968
 30
0.0
 40
3.0
  1
建材事業部
 41
0.9
  7
ｽﾀｲﾙ1
100
AcDbText
  0
TEXT
  5
74D
330
1A
100
AcDbEntity
  8
ZUWAKU
100
AcDbText
 10
230.9795720347352
 20
1.468216205049543
 30
0.0
 40
1.5
  1
□には色品番が入ります
 41
0.9
  7
ｽﾀｲﾙ1
100
AcDbText
  0
TEXT
  5
2862
330
1A
100
AcDbEntity
  8
MOJI
100
AcDbText
 10
113.9165150595957
 20
10.04146901401259
 30
0.0
 40
2.799999999999999
  1
インサイドエルボ
 41
0.9
  7
ｽﾀｲﾙ1
100
AcDbText
  0
DIMENSION
  5
35E1
330
1A
100
AcDbEntity
  8
SUNPOU
100
AcDbDimension
  2
*D2
 10
282.1685792552551
 20
58.85136151312341
 30
-0.0000000000028831
 11
281.2420841056567
 21
88.94108744636724
 31
-0.0000000000028831
 70
    33
  1
φ<>
 71
     5
 42
-1.0
  3
STANDARD
100
AcDbAlignedDimension
 13
220.8646100687075
 23
122.1465071592997
 33
0.0
 14
217.7244526941314
 24
62.22873507402664
 34
0.0
1001
ACAD
1000
DSTYLE
1002
{
1070
    41
1040
3.0
1070
    42
1040
3.0
1070
    43
1040
7.0
1070
    44
1040
1.5
1070
    73
1070
     0
1070
    74
1070
     0
1070
    77
1070
     3
1070
   140
1040
3.0
1070
   141
1040
150.0
1070
   144
1040
1.0
1070
   147
1040
1.0
1070
   172
1070
     1
1070
   173
1070
     1
1070
   176
1070
     4
1070
   177
1070
     4
1070
   178
1070
     4
1070
   271
1070
     0
1070
   272
1070
     2
1070
     6
1000
OPEN
1070
     7
1000
OPEN
1002
}
  0
DIMENSION
  5
35E2
330
1A
100
AcDbEntity
  8
SUNPOU
100
AcDbDimension
  2
*D3
 10
273.8603465460982
 20
60.94762372432629
 30
-0.0000000000028831
 11
272.8470485467714
 21
89.38105261701084
 31
-0.0000000000028831
 70
    33
  1
φ<>
 71
     5
 42
-1.0
  3
STANDARD
100
AcDbAlignedDimension
 13
252.7344086194708
 23
118.815435605908
 33
0.0
 14
249.7678569443515
 24
62.21025760175371
 34
0.0
1001
ACAD
1000
DSTYLE
1002
{
1070
    41
1040
3.0
1070
    42
1040
3.0
1070
    43
1040
7.0
1070
    44
1040
1.5
1070
    73
1070
     0
1070
    74
1070
     0
1070
    77
1070
     3
1070
   140
1040
3.0
1070
   141
1040
150.0
1070
   144
1040
1.0
1070
   147
1040
1.0
1070
   172
1070
     1
1070
   173
1070
     1
1070
   176
1070
     4
1070
   177
1070
     4
1070
   178
1070
     4
1070
   271
1070
     0
1070
   272
1070
     2
1070
     6
1000
OPEN
1070
     7
1000
OPEN
1002
}
  0
LINE
  5
35EB
330
1A
100
AcDbEntity
  8
CENTER L
  6
CENTER
 62
     1
 48
5.0
100
AcDbLine
 10
189.6163231502652
 20
165.1411852183268
 30
0.0
 11
189.6163231502652
 21
86.67734303253974
 31
0.0
  0
DIMENSION
  5
35EC
330
1A
100
AcDbEntity
  8
SUNPOU
100
AcDbDimension
  2
*D4
 10
219.6163231502652
 20
178.2814059487322
 30
-0.0000000000028831
 11
189.6163231502652
 21
180.7814059487323
 31
-0.0000000000028831
 70
    32
  1
φ<>
 71
     5
 42
-1.0
  3
STANDARD
100
AcDbAlignedDimension
 13
159.6163231502652
 23
123.4619271046053
 33
0.0
 14
219.6163231502652
 24
123.4619271046053
 34
0.0
100
AcDbRotatedDimension
1001
ACAD
1000
DSTYLE
1002
{
1070
   144
1040
1.0
1070
    41
1040
3.0
1070
    42
1040
3.0
1070
    43
1040
7.0
1070
    44
1040
1.5
1070
    73
1070
     0
1070
    74
1070
     0
1070
    77
1070
     3
1070
   140
1040
3.0
1070
   141
1040
150.0
1070
   147
1040
1.0
1070
   172
1070
     1
1070
   173
1070
     1
1070
   176
1070
     4
1070
   177
1070
     4
1070
   178
1070
     4
1070
   271
1070
     0
1070
   272
1070
     2
1070
     6
1000
OPEN
1070
     7
1000
OPEN
1002
}
  0
DIMENSION
  5
35ED
330
1A
100
AcDbEntity
  8
SUNPOU
100
AcDbDimension
  2
*D5
 10
217.9577530970902
 20
170.2520760246824
 30
-0.0000000000028831
 11
189.6163231502652
 21
170.2520760246824
 31
-0.0000000000028831
 70
   160
  1
φ<>
 71
     5
 42
-1.0
  3
STANDARD
100
AcDbAlignedDimension
 13
161.2748932034402
 23
155.4623840191366
 33
0.0
 14
217.9577530970902
 24
155.4623840191366
 34
0.0
100
AcDbRotatedDimension
1001
ACAD
1000
DSTYLE
1002
{
1070
    41
1040
3.0
1070
    42
1040
3.0
1070
    43
1040
7.0
1070
    44
1040
1.5
1070
    73
1070
     0
1070
    74
1070
     0
1070
    77
1070
     3
1070
   140
1040
3.0
1070
   141
1040
150.0
1070
   144
1040
1.0
1070
   147
1040
1.0
1070
   172
1070
     1
1070
   173
1070
     1
1070
   176
1070
     4
1070
   177
1070
     4
1070
   178
1070
     4
1070
   271
1070
     0
1070
   272
1070
     2
1070
     6
1000
OPEN
1070
     7
1000
OPEN
1002
}
  0
DIMENSION
  5
35EE
330
1A
100
AcDbEntity
  8
SUNPOU
100
AcDbDimension
  2
*D6
 10
183.5697670927294
 20
94.05987667844465
 30
0.0
 11
206.8559205643069
 21
83.39692487958604
 31
-0.0000000000028831
 70
   162
 71
     5
 42
-1.0
  3
STANDARD
100
AcDb2LineAngularDimension
 13
189.6163231502652
 23
165.1411852183268
 33
0.0
 14
189.6163231502652
 24
86.67734303253974
 34
0.0
 15
263.2819484545744
 25
89.88233827146222
 35
0.0
 16
199.3638275944478
 26
76.15802659113247
 36
-0.0000000000028831
1001
ACAD
1000
DSTYLE
1002
{
1070
   271
1070
     0
1070
   271
1070
     0
1070
    41
1040
3.0
1070
    42
1040
3.0
1070
    43
1040
7.0
1070
    44
1040
1.5
1070
    73
1070
     0
1070
    74
1070
     0
1070
    77
1070
     3
1070
   140
1040
3.0
1070
   141
1040
150.0
1070
   144
1040
2.0
1070
   147
1040
1.0
1070
   172
1070
     1
1070
   173
1070
     1
1070
   176
1070
     4
1070
   177
1070
     4
1070
   178
1070
     4
1070
   271
1070
     0
1070
   272
1070
     2
1070
     6
1000
OPEN
1070
     7
1000
OPEN
1002
}
  0
LINE
  5
35EF
330
1A
100
AcDbEntity
  8
CENTER L
  6
CENTER
 62
     1
 48
5.0
100
AcDbLine
 10
45.69818411919515
 20
165.1411852183268
 30
0.0
 11
45.69818411919515
 21
86.67734303253974
 31
0.0
  0
DIMENSION
  5
35F0
330
1A
100
AcDbEntity
  8
SUNPOU
100
AcDbDimension
  2
*D7
 10
144.8521071032333
 20
123.4619271046053
 30
-0.0000000000028831
 11
142.3521071032333
 21
140.9619271046054
 31
-0.0000000000028831
 70
    32
  1
※<>
 71
     5
 42
-1.0
  3
STANDARD
100
AcDbAlignedDimension
 13
161.6272504227518
 23
158.4619271046053
 33
0.0
 14
159.6163231502652
 24
123.4619271046053
 34
0.0
 50
90.0
100
AcDbRotatedDimension
1001
ACAD
1000
DSTYLE
1002
{
1070
    41
1040
3.0
1070
    42
1040
3.0
1070
    43
1040
7.0
1070
    44
1040
1.5
1070
    73
1070
     0
1070
    74
1070
     0
1070
    77
1070
     3
1070
   140
1040
3.0
1070
   141
1040
150.0
1070
   144
1040
1.0
1070
   147
1040
1.0
1070
   172
1070
     1
1070
   173
1070
     1
1070
   176
1070
     4
1070
   177
1070
     4
1070
   178
1070
     4
1070
   271
1070
     0
1070
   272
1070
     2
1070
     6
1000
OPEN
1070
     7
1000
OPEN
1002
}
  0
DIMENSION
  5
35F1
330
1A
100
AcDbEntity
  8
SUNPOU
100
AcDbDimension
  2
*D8
 10
136.242549523935
 20
93.74299010315782
 30
-0.0000000000028831
 11
133.742549523935
 21
126.1024586038816
 31
-0.0000000000028831
 70
    32
 71
     5
 42
-1.0
  3
STANDARD
100
AcDbAlignedDimension
 13
161.6272504227518
 23
158.4619271046053
 33
0.0
 14
189.6163231502652
 24
93.7429901031578
 34
0.0
 50
90.0
100
AcDbRotatedDimension
1001
ACAD
1000
DSTYLE
1002
{
1070
    41
1040
3.0
1070
    42
1040
3.0
1070
    43
1040
7.0
1070
    44
1040
1.5
1070
    73
1070
     0
1070
    74
1070
     0
1070
    77
1070
     3
1070
   140
1040
3.0
1070
   141
1040
150.0
1070
   144
1040
1.0
1070
   147
1040
1.0
1070
   172
1070
     1
1070
   173
1070
     1
1070
   176
1070
     4
1070
   177
1070
     4
1070
   178
1070
     4
1070
   271
1070
     0
1070
   272
1070
     2
1070
     6
1000
OPEN
1070
     7
1000
OPEN
1002
}
  0
DIMENSION
  5
35F2
330
1A
100
AcDbEntity
  8
SUNPOU
100
AcDbDimension
  2
*D9
 10
251.7678805447555
 20
43.05974388520165
 30
-0.0000000000028831
 11
234.4227035771581
 21
46.4721969563395
 31
-0.0000000000028831
 70
    33
  1
※<>
 71
     5
 42
-1.0
  3
STANDARD
100
AcDbAlignedDimension
 13
217.7244526941314
 23
62.22873507402664
 33
0.0
 14
252.6764864105408
 24
60.39697660552383
 34
-0.0000000000028831
1001
ACAD
1000
DSTYLE
1002
{
1070
    41
1040
3.0
1070
    42
1040
3.0
1070
    43
1040
7.0
1070
    44
1040
1.5
1070
    73
1070
     0
1070
    74
1070
     0
1070
    77
1070
     3
1070
   140
1040
3.0
1070
   141
1040
150.0
1070
   144
1040
1.0
1070
   147
1040
1.0
1070
   172
1070
     1
1070
   173
1070
     1
1070
   176
1070
     4
1070
   177
1070
     4
1070
   178
1070
     4
1070
   271
1070
     0
1070
   272
1070
     2
1070
     6
1000
OPEN
1070
     7
1000
OPEN
1002
}
  0
DIMENSION
  5
35F3
330
1A
100
AcDbEntity
  8
SUNPOU
100
AcDbDimension
  2
*D10
 10
251.2875274850453
 20
33.89406149446466
 30
-0.0000000000028831
 11
219.10324640187
 21
38.08419905884935
 31
-0.0000000000028831
 70
    33
 71
     5
 42
-1.0
  3
STANDARD
100
AcDbAlignedDimension
 13
189.6163231502652
 23
93.7429901031578
 33
0.0
 14
254.2465650978302
 24
90.3558626481613
 34
0.0
1001
ACAD
1000
DSTYLE
1002
{
1070
    41
1040
3.0
1070
    42
1040
3.0
1070
    43
1040
7.0
1070
    44
1040
1.5
1070
    73
1070
     0
1070
    74
1070
     0
1070
    77
1070
     3
1070
   140
1040
3.0
1070
   141
1040
150.0
1070
   144
1040
1.0
1070
   147
1040
1.0
1070
   172
1070
     1
1070
   173
1070
     1
1070
   176
1070
     4
1070
   177
1070
     4
1070
   178
1070
     4
1070
   271
1070
     0
1070
   272
1070
     2
1070
     6
1000
OPEN
1070
     7
1000
OPEN
1002
}
  0
LINE
  5
35F4
330
1A
100
AcDbEntity
  8
SEIHIN
  6
Continuous
 62
     3
 48
5.0
100
AcDbLine
 10
72.3481841191948
 20
158.4619271046053
 30
0.0
 11
19.04818411919552
 21
158.4619271046053
 31
0.0
  0
LINE
  5
35F5
330
1A
100
AcDbEntity
  8
ﾊｯﾁﾝｸﾞ
 48
5.0
100
AcDbLine
 10
52.91194068398147
 20
63.3237627613712
 30
0.0
 11
56.53538033042389
 21
66.94720240781362
 31
0.0
  0
LINE
  5
35F6
330
1A
100
AcDbEntity
  8
SEIHIN
 48
5.0
100
AcDbLine
 10
19.82722774876276
 20
69.19236920059166
 30
0.0
 11
108.933672832885
 21
63.74238554695193
 31
0.0
  0
LINE
  5
35F7
330
1A
100
AcDbEntity
  8
SEIHIN
 48
5.0
100
AcDbLine
 10
16.17201614107364
 20
65.24922061769257
 30
0.0
 11
73.80631366306227
 21
62.22873507402664
 31
0.0
  0
LINE
  5
35F9
330
1A
100
AcDbEntity
  8
SEIHIN
  6
Continuous
 62
     3
 48
5.0
100
AcDbLine
 10
19.82722774876276
 20
69.19236920059166
 30
0.0
 11
72.00121878658831
 21
118.7036379995865
 31
0.0
  0
LINE
  5
35FA
330
1A
100
AcDbEntity
  8
CENTER L
  6
CENTER
 62
     1
 48
5.0
100
AcDbLine
 10
119.3638094235044
 20
89.88233827146222
 30
0.0
 11
39.65162806165938
 21
94.05987667844465
 31
0.0
  0
LINE
  5
367A
330
1A
100
AcDbEntity
  8
SEIHIN
  6
Continuous
 62
     3
 48
5.0
100
AcDbLine
 10
15.69818411919516
 20
123.4619271046053
 30
0.0
 11
15.69818411919516
 21
65.74853538507023
 31
0.0
  0
LINE
  5
367B
330
1A
100
AcDbEntity
  8
SEIHIN
  6
Continuous
 62
     3
 48
5.0
100
AcDbLine
 10
19.04818411919552
 20
158.4619271046053
 30
0.0
 11
19.82722774876276
 21
69.19236920059166
 31
0.0
  0
LINE
  5
367C
330
1A
100
AcDbEntity
  8
ﾊｯﾁﾝｸﾞ
 48
5.0
100
AcDbLine
 10
23.04623934418816
 20
64.88895784532042
 30
0.0
 11
26.91607804169109
 21
68.75879654282153
 31
0.0
  0
LINE
  5
367D
330
1A
100
AcDbEntity
  8
ﾊｯﾁﾝｸﾞ
 48
5.0
100
AcDbLine
 10
15.69818411919516
 20
71.01128680193188
 30
0.0
 11
19.77576974467558
 21
75.08887242741048
 31
0.0
  0
LINE
  5
367E
330
1A
100
AcDbEntity
  8
ﾊｯﾁﾝｸﾞ
 48
5.0
100
AcDbLine
 10
15.69818411919516
 20
66.52115874139645
 30
0.0
 11
19.81461549687958
 21
70.63759011907905
 31
0.0
  0
ARC
  5
367F
330
1A
100
AcDbEntity
  8
ﾊｯﾁﾝｸﾞ
 48
5.0
100
AcDbCircle
 10
16.19818411919516
 20
65.74853538507023
 30
0.0
 40
0.5
100
AcDbArc
 50
180.0
 51
267.0000000000466
  0
LINE
  5
3680
330
1A
100
AcDbEntity
  8
ﾊｯﾁﾝｸﾞ
 48
5.0
100
AcDbLine
 10
18.77971058136029
 20
65.11255714302797
 30
0.0
 11
22.68474914330056
 21
69.01759570496733
 31
0.0
  0
LINE
  5
3681
330
1A
100
AcDbEntity
  8
ﾊｯﾁﾝｸﾞ
 48
5.0
100
AcDbLine
 10
31.57929686984391
 20
64.44175924990713
 30
0.0
 11
35.37873583847215
 21
68.24119821853355
 31
0.0
  0
LINE
  5
3682
330
1A
100
AcDbEntity
  8
ﾊｯﾁﾝｸﾞ
 48
5.0
100
AcDbLine
 10
27.31276810701604
 20
64.66535854761469
 30
0.0
 11
31.14740694008071
 21
68.49999738067754
 31
0.0
  0
LINE
  5
3683
330
1A
100
AcDbEntity
  8
ﾊｯﾁﾝｸﾞ
 48
5.0
100
AcDbLine
 10
35.84582563267179
 20
64.21815995219958
 30
0.0
 11
39.61006473686177
 21
67.98239905638957
 31
0.0
  0
LINE
  5
3684
330
1A
100
AcDbEntity
  8
ﾊｯﾁﾝｸﾞ
 48
5.0
100
AcDbLine
 10
40.11235439549875
 20
63.99456065449204
 30
0.0
 11
43.84139363525321
 21
67.72359989424558
 31
0.0
  0
LINE
  5
3685
330
1A
100
AcDbEntity
  8
ﾊｯﾁﾝｸﾞ
 48
5.0
100
AcDbLine
 10
44.37888315832572
 20
63.77096135678448
 30
0.0
 11
48.07272253364465
 21
67.46480073210159
 31
0.0
  0
LINE
  5
3686
330
1A
100
AcDbEntity
  8
ﾊｯﾁﾝｸﾞ
 48
5.0
100
AcDbLine
 10
48.6454119211536
 20
63.54736205907875
 30
0.0
 11
52.30405143203427
 21
67.20600156995761
 31
0.0
  0
LINE
  5
3687
330
1A
100
AcDbEntity
  8
ﾊｯﾁﾝｸﾞ
 48
5.0
100
AcDbLine
 10
15.69818411919516
 20
115.912567407277
 30
0.0
 11
19.38731222263379
 21
119.6016955107174
 31
0.0
  0
LINE
  5
3688
330
1A
100
AcDbEntity
  8
ﾊｯﾁﾝｸﾞ
 48
5.0
100
AcDbLine
 10
15.69818411919516
 20
93.46192710460536
 30
0.0
 11
19.58154098365378
 21
97.34528396906398
 31
0.0
  0
LINE
  5
3689
330
1A
100
AcDbEntity
  8
ﾊｯﾁﾝｸﾞ
 48
5.0
100
AcDbLine
 10
15.69818411919516
 20
84.48167098353451
 30
0.0
 11
19.65923248806359
 21
88.44271935240294
 31
0.0
  0
LINE
  5
368A
330
1A
100
AcDbEntity
  8
ﾊｯﾁﾝｸﾞ
 48
5.0
100
AcDbLine
 10
15.69818411919516
 20
75.50141486246548
 30
0.0
 11
19.73692399247158
 21
79.54015473574191
 31
0.0
  0
LINE
  5
368B
330
1A
100
AcDbEntity
  8
ﾊｯﾁﾝｸﾞ
 48
5.0
100
AcDbLine
 10
15.69818411919516
 20
79.9915429230009
 30
0.0
 11
19.69807824026577
 21
83.99143704407151
 31
0.0
  0
LINE
  5
368C
330
1A
100
AcDbEntity
  8
ﾊｯﾁﾝｸﾞ
 48
5.0
100
AcDbLine
 10
15.69818411919516
 20
88.97179904406995
 30
0.0
 11
19.62038673585868
 21
92.89400166073438
 31
0.0
  0
LINE
  5
368D
330
1A
100
AcDbEntity
  8
ﾊｯﾁﾝｸﾞ
 48
5.0
100
AcDbLine
 10
15.69818411919516
 20
106.932311286208
 30
0.0
 11
19.46500372704178
 21
110.6991308940546
 31
0.0
  0
LINE
  5
368E
330
1A
100
AcDbEntity
  8
ﾊｯﾁﾝｸﾞ
 48
5.0
100
AcDbLine
 10
15.69818411919516
 20
102.4421832256725
 30
0.0
 11
19.50384947924578
 21
106.247848585725
 31
0.0
  0
LINE
  5
368F
330
1A
100
AcDbEntity
  8
ﾊｯﾁﾝｸﾞ
 48
5.0
100
AcDbLine
 10
15.69818411919516
 20
97.95205516513897
 30
0.0
 11
19.54269523144978
 21
101.7965662773935
 31
0.0
  0
LINE
  5
3690
330
1A
100
AcDbEntity
  8
ﾊｯﾁﾝｸﾞ
 48
5.0
100
AcDbLine
 10
15.69818411919516
 20
111.4224393467434
 30
0.0
 11
19.42615797483779
 21
115.150413202386
 31
0.0
  0
LINE
  5
3691
330
1A
100
AcDbEntity
  8
ﾊｯﾁﾝｸﾞ
 48
5.0
100
AcDbLine
 10
17.08244937967413
 20
139.7474729704285
 30
0.0
 11
19.1930834616129
 21
141.8581070523673
 31
0.0
  0
LINE
  5
3692
330
1A
100
AcDbEntity
  8
SEIHIN
  6
Continuous
 62
     3
 48
5.0
100
AcDbLine
 10
17.35675417237109
 20
155.4623840191347
 30
0.0
 11
16.79818411919461
 21
123.4619271046053
 31
0.0
  0
LINE
  5
3693
330
1A
100
AcDbEntity
  8
ﾊｯﾁﾝｸﾞ
 48
5.0
100
AcDbLine
 10
15.69818411919516
 20
120.4026954678106
 30
0.0
 11
19.34846647042979
 21
124.0529778190452
 31
0.0
  0
LINE
  5
3694
330
1A
100
AcDbEntity
  8
SEIHIN
  6
Continuous
 62
     3
 48
5.0
100
AcDbLine
 10
16.79818411919461
 20
123.4619271046053
 30
0.0
 11
15.69818411919516
 21
123.4619271046053
 31
0.0
  0
LINE
  5
3695
330
1A
100
AcDbEntity
  8
ﾊｯﾁﾝｸﾞ
 48
5.0
100
AcDbLine
 10
16.8431458912488
 20
126.0377853003997
 30
0.0
 11
19.3096207182258
 21
128.5042601273767
 31
0.0
  0
LINE
  5
3696
330
1A
100
AcDbEntity
  8
ﾊｯﾁﾝｸﾞ
 48
5.0
100
AcDbLine
 10
17.00268155019841
 20
135.1775770804201
 30
0.0
 11
19.23192921381598
 21
137.4068247440359
 31
0.0
  0
LINE
  5
3697
330
1A
100
AcDbEntity
  8
ﾊｯﾁﾝｸﾞ
 48
5.0
100
AcDbLine
 10
16.92291372072361
 20
130.6076811904099
 30
0.0
 11
19.2707749660218
 21
132.9555424357063
 31
0.0
  0
LINE
  5
3698
330
1A
100
AcDbEntity
  8
ﾊｯﾁﾝｸﾞ
 48
5.0
100
AcDbLine
 10
17.24198503862464
 20
148.887264750449
 30
0.0
 11
19.11539195720399
 21
150.7606716690284
 31
0.0
  0
LINE
  5
3699
330
1A
100
AcDbEntity
  8
ﾊｯﾁﾝｸﾞ
 48
5.0
100
AcDbLine
 10
17.16221720914984
 20
144.3173688604388
 30
0.0
 11
19.1542377094089
 21
146.3093893606987
 31
0.0
  0
LINE
  5
369A
330
1A
100
AcDbEntity
  8
SEIHIN
  6
Continuous
 62
     3
 48
5.0
100
AcDbLine
 10
17.69216963282235
 20
158.3177054657157
 30
0.0
 11
17.83639127171193
 21
158.4619271046053
 31
0.0
  0
LINE
  5
369B
330
1A
100
AcDbEntity
  8
SEIHIN
  6
Continuous
 62
     3
 48
5.0
100
AcDbLine
 10
19.04818411919552
 20
158.4619271046053
 30
0.0
 11
17.70911139168276
 21
158.4619271046053
 31
0.0
  0
LINE
  5
369C
330
1A
100
AcDbEntity
  8
ﾊｯﾁﾝｸﾞ
 48
5.0
100
AcDbLine
 10
17.32175286810036
 20
153.4571606404592
 30
0.0
 11
19.07654620499999
 21
155.2119539773598
 31
0.0
  0
LINE
  5
369D
330
1A
100
AcDbEntity
  8
SEIHIN
  6
Continuous
 62
     3
 48
5.0
100
AcDbLine
 10
17.70911139168276
 20
158.4619271046053
 30
0.0
 11
17.35675417237109
 21
155.4623840191347
 31
0.0
  0
TEXT
  5
369F
330
1A
100
AcDbEntity
  8
MOJI
100
AcDbText
 10
113.859080746851
 20
2.524376541434719
 30
0.0
 40
2.799999999999999
  1
ＵＲＴ６０-８７°
 41
0.9
  7
ｽﾀｲﾙ1
100
AcDbText
  0
LINE
  5
36A5
330
1A
100
AcDbEntity
  8
SEIHIN
  6
Continuous
 62
     3
 48
5.0
100
AcDbLine
 10
111.7231793006354
 20
116.9693397493706
 30
0.0
 11
108.933672832885
 21
63.74238554695193
 31
0.0
  0
LINE
  5
36A6
330
1A
100
AcDbEntity
  8
SEIHIN
 48
5.0
100
AcDbLine
 10
73.8638832149287
 20
63.3272275622553
 30
0.0
 11
105.8497179132824
 21
62.21025760175371
 31
0.0
  0
LINE
  5
36A7
330
1A
100
AcDbEntity
  8
ﾊｯﾁﾝｸﾞ
 48
5.0
100
AcDbLine
 10
69.97805573529115
 20
62.42936557054282
 30
0.0
 11
73.46069592398601
 21
65.91200575923767
 31
0.0
  0
LINE
  5
36A8
330
1A
100
AcDbEntity
  8
ﾊｯﾁﾝｸﾞ
 48
5.0
100
AcDbLine
 10
57.17846944680935
 20
63.10016346366547
 30
0.0
 11
60.76670922881532
 21
66.68840324566963
 31
0.0
  0
LINE
  5
36A9
330
1A
100
AcDbEntity
  8
ﾊｯﾁﾝｸﾞ
 48
5.0
100
AcDbLine
 10
61.44499820963631
 20
62.87656416595791
 30
0.0
 11
64.99803812720495
 21
66.42960408352564
 31
0.0
  0
LINE
  5
36AA
330
1A
100
AcDbEntity
  8
ﾊｯﾁﾝｸﾞ
 48
5.0
100
AcDbLine
 10
65.71152697246327
 20
62.65296486825036
 30
0.0
 11
69.22936702559638
 21
66.17080492138166
 31
0.0
  0
LINE
  5
36AB
330
1A
100
AcDbEntity
  8
ﾊｯﾁﾝｸﾞ
 48
5.0
100
AcDbLine
 10
79.65397923946477
 20
63.12503295364741
 30
0.0
 11
81.92335372076707
 21
65.3944074349497
 31
0.0
  0
LINE
  5
36AC
330
1A
100
AcDbEntity
  8
ﾊｯﾁﾝｸﾞ
 48
5.0
100
AcDbLine
 10
83.99259934730219
 20
62.97352500094939
 30
0.0
 11
86.1546826191585
 21
65.13560827280571
 31
0.0
  0
LINE
  5
36AD
330
1A
100
AcDbEntity
  8
ﾊｯﾁﾝｸﾞ
 48
5.0
100
AcDbLine
 10
75.31535913162918
 20
63.27654090634542
 30
0.0
 11
77.69202482237744
 21
65.65320659709368
 31
0.0
  0
LINE
  5
36AE
330
1A
100
AcDbEntity
  8
SEIHIN
 48
5.0
100
AcDbLine
 10
73.80631366306227
 20
62.22873507402664
 30
0.0
 11
73.8638832149287
 21
63.3272275622553
 31
0.0
  0
LINE
  5
36AF
330
1A
100
AcDbEntity
  8
ﾊｯﾁﾝｸﾞ
 48
5.0
100
AcDbLine
 10
101.3470797786482
 20
62.36749319015735
 30
0.0
 11
103.0799982127206
 21
64.10041162422976
 31
0.0
  0
LINE
  5
36B0
330
1A
100
AcDbEntity
  8
ﾊｯﾁﾝｸﾞ
 48
5.0
100
AcDbLine
 10
88.33121945513779
 20
62.82201704825138
 30
0.0
 11
90.38601151754813
 21
64.87680911066172
 31
0.0
  0
LINE
  5
36B1
330
1A
100
AcDbEntity
  8
ﾊｯﾁﾝｸﾞ
 48
5.0
100
AcDbLine
 10
92.6698395629752
 20
62.67050909555337
 30
0.0
 11
94.61734041593865
 21
64.61800994851592
 31
0.0
  0
LINE
  5
36B2
330
1A
100
AcDbEntity
  8
ﾊｯﾁﾝｸﾞ
 48
5.0
100
AcDbLine
 10
97.00845967081079
 20
62.51900114285536
 30
0.0
 11
98.84866931432918
 21
64.35921078637375
 31
0.0
  0
LINE
  5
36B3
330
1A
100
AcDbEntity
  8
ﾊｯﾁﾝｸﾞ
 48
5.0
100
AcDbLine
 10
105.6856998864837
 20
62.21598523745933
 30
0.0
 11
107.3113271111102
 21
63.84161246208396
 31
0.0
  0
LINE
  5
36B4
330
1A
100
AcDbEntity
  8
SEIHIN
 48
5.0
100
AcDbLine
 10
108.8635911812122
 20
62.40514797207151
 30
0.0
 11
108.933672832885
 21
63.74238554695193
 31
0.0
  0
LINE
  5
36B5
330
1A
100
AcDbEntity
  8
SEIHIN
 48
5.0
100
AcDbLine
 10
105.8497179132824
 20
62.21025760175371
 30
0.0
 11
108.8635911812122
 21
62.40514797207151
 31
0.0
  0
LINE
  5
36B6
330
1A
100
AcDbEntity
  8
ﾊｯﾁﾝｸﾞ
 48
5.0
100
AcDbLine
 10
80.95990296072853
 20
118.3124934013253
 30
0.0
 11
83.25057283442914
 21
120.6031632750277
 31
0.0
  0
LINE
  5
36B7
330
1A
100
AcDbEntity
  8
ﾊｯﾁﾝｸﾞ
 48
5.0
100
AcDbLine
 10
85.26218914959429
 20
118.1246515296575
 30
0.0
 11
87.44724125175673
 21
120.3097036318199
 31
0.0
  0
LINE
  5
36B8
330
1A
100
AcDbEntity
  8
ﾊｯﾁﾝｸﾞ
 48
5.0
100
AcDbLine
 10
89.56447533846096
 20
117.9368096579896
 30
0.0
 11
91.64390966908252
 21
120.0162439886121
 31
0.0
  0
LINE
  5
36B9
330
1A
100
AcDbEntity
  8
ﾊｯﾁﾝｸﾞ
 48
5.0
100
AcDbLine
 10
93.86676152732764
 20
117.7489677863218
 30
0.0
 11
95.84057808641011
 21
119.7227843454043
 31
0.0
  0
LINE
  5
36BA
330
1A
100
AcDbEntity
  8
ﾊｯﾁﾝｸﾞ
 48
5.0
100
AcDbLine
 10
98.16904771619341
 20
117.5611259146521
 30
0.0
 11
100.0372465037368
 21
119.4293247021964
 31
0.0
  0
LINE
  5
36BB
330
1A
100
AcDbEntity
  8
ﾊｯﾁﾝｸﾞ
 48
5.0
100
AcDbLine
 10
102.4713339050591
 20
117.3732840429843
 30
0.0
 11
104.2339149210635
 21
119.1358650589886
 31
0.0
  0
LINE
  5
36BC
330
1A
100
AcDbEntity
  8
ﾊｯﾁﾝｸﾞ
 48
5.0
100
AcDbLine
 10
106.7736200939267
 20
117.1854421713164
 30
0.0
 11
108.4305833383911
 21
118.8424054157808
 31
0.0
  0
LINE
  5
36BD
330
1A
100
AcDbEntity
  8
SEIHIN
 48
5.0
100
AcDbLine
 10
111.7932609523082
 20
118.3065773242474
 30
0.0
 11
108.8162695884017
 21
118.815435605908
 31
0.0
  0
LINE
  5
36BE
330
1A
100
AcDbEntity
  8
ﾊｯﾁﾝｸﾞ
 48
5.0
100
AcDbLine
 10
72.35533058299518
 20
118.6881771446628
 30
0.0
 11
75.93096136170027
 21
122.2638079233679
 31
0.0
  0
LINE
  5
36BF
330
1A
100
AcDbEntity
  8
ﾊｯﾁﾝｸﾞ
 48
5.0
100
AcDbLine
 10
76.65761677186186
 20
118.5003352729931
 30
0.0
 11
79.05390441710153
 21
120.8966229182356
 31
0.0
  0
LINE
  5
36C0
330
1A
100
AcDbEntity
  8
SEIHIN
 48
5.0
100
AcDbLine
 10
72.00121878658831
 20
118.7036379995865
 30
0.0
 11
72.3481841191948
 21
158.4619271046053
 31
0.0
  0
LINE
  5
36C1
330
1A
100
AcDbEntity
  8
SEIHIN
 48
5.0
100
AcDbLine
 10
111.7231793006354
 20
116.9693397493706
 30
0.0
 11
72.00121878658831
 21
118.7036379995865
 31
0.0
  0
LINE
  5
36C2
330
1A
100
AcDbEntity
  8
ﾊｯﾁﾝｸﾞ
 48
5.0
100
AcDbLine
 10
111.0759062827925
 20
116.9976002996486
 30
0.0
 11
111.7605405340451
 21
117.6822345509012
 31
0.0
  0
LINE
  5
36C3
330
1A
100
AcDbEntity
  8
SEIHIN
  6
Continuous
 62
     3
 48
5.0
100
AcDbLine
 10
111.7231793006354
 20
116.9693397493706
 30
0.0
 11
111.7932609523082
 21
118.3065773242474
 31
0.0
  0
LINE
  5
36C4
330
1A
100
AcDbEntity
  8
SEIHIN
 48
5.0
100
AcDbLine
 10
108.8162695884017
 20
118.815435605908
 30
0.0
 11
76.88890148577195
 21
121.048014671071
 31
0.0
  0
LINE
  5
36C5
330
1A
100
AcDbEntity
  8
SEIHIN
 48
5.0
100
AcDbLine
 10
74.5981841191948
 20
123.4619271046053
 30
0.0
 11
74.03961406602104
 21
155.4623840191347
 31
0.0
  0
LINE
  5
36C6
330
1A
100
AcDbEntity
  8
ﾊｯﾁﾝｸﾞ
 48
5.0
100
AcDbLine
 10
72.07702463039424
 20
127.3901273131309
 30
0.0
 11
74.48754140273343
 21
129.8006440854701
 31
0.0
  0
LINE
  5
36C7
330
1A
100
AcDbEntity
  8
ﾊｯﾁﾝｸﾞ
 48
5.0
100
AcDbLine
 10
72.03749490576559
 20
122.8604695279668
 30
0.0
 11
74.56457230024864
 21
125.3875469224499
 31
0.0
  0
LINE
  5
36C8
330
1A
100
AcDbEntity
  8
SEIHIN
 48
5.0
100
AcDbLine
 10
75.69818411919516
 20
122.6864093879617
 30
0.0
 11
75.69818411919516
 21
123.4619271046053
 31
0.0
  0
ARC
  5
36C9
330
1A
100
AcDbEntity
  8
SEIHIN
 48
5.0
100
AcDbCircle
 10
76.19818411919516
 20
122.6864093879617
 30
0.0
 40
0.499999999999989
100
AcDbArc
 50
180.0
 51
267.0000000000466
  0
LINE
  5
36CA
330
1A
100
AcDbEntity
  8
SEIHIN
 48
5.0
100
AcDbLine
 10
76.94647103763839
 20
122.1465071592997
 30
0.0
 11
76.17201614107364
 21
122.187094620584
 31
0.0
  0
LINE
  5
36CB
330
1A
100
AcDbEntity
  8
SEIHIN
 48
5.0
100
AcDbLine
 10
76.88890148577195
 20
121.048014671071
 30
0.0
 11
76.94647103763839
 21
122.1465071592997
 31
0.0
  0
LINE
  5
36CC
330
1A
100
AcDbEntity
  8
SEIHIN
 48
5.0
100
AcDbLine
 10
75.69818411919516
 20
123.4619271046053
 30
0.0
 11
74.5981841191948
 21
123.4619271046053
 31
0.0
  0
LINE
  5
36CD
330
1A
100
AcDbEntity
  8
ﾊｯﾁﾝｸﾞ
 48
5.0
100
AcDbLine
 10
72.15608407965158
 20
136.4494428834555
 30
0.0
 11
74.333479607703
 21
138.6268384115087
 31
0.0
  0
LINE
  5
36CE
330
1A
100
AcDbEntity
  8
ﾊｯﾁﾝｸﾞ
 48
5.0
100
AcDbLine
 10
72.11655435502291
 20
131.919785098295
 30
0.0
 11
74.41051050521821
 21
134.2137412484903
 31
0.0
  0
LINE
  5
36CF
330
1A
100
AcDbEntity
  8
ﾊｯﾁﾝｸﾞ
 48
5.0
100
AcDbLine
 10
72.27467325353666
 20
150.0384162389459
 30
0.0
 11
74.10238691515917
 21
151.8661299005675
 31
0.0
  0
LINE
  5
36D0
330
1A
100
AcDbEntity
  8
ﾊｯﾁﾝｸﾞ
 48
5.0
100
AcDbLine
 10
72.23514352890891
 20
145.5087584537836
 30
0.0
 11
74.17941781267348
 21
147.4530327375491
 31
0.0
  0
LINE
  5
36D1
330
1A
100
AcDbEntity
  8
ﾊｯﾁﾝｸﾞ
 48
5.0
100
AcDbLine
 10
72.19561380428024
 20
140.9791006686196
 30
0.0
 11
74.25644871018779
 21
143.0399355745289
 31
0.0
  0
LINE
  5
36D2
330
1A
100
AcDbEntity
  8
SEIHIN
 48
5.0
100
AcDbLine
 10
73.68725684670846
 20
158.4619271046053
 30
0.0
 11
72.3481841191948
 21
158.4619271046053
 31
0.0
  0
LINE
  5
36D3
330
1A
100
AcDbEntity
  8
ﾊｯﾁﾝｸﾞ
 48
5.0
100
AcDbLine
 10
72.31420297816533
 20
154.56807402411
 30
0.0
 11
73.95224736551938
 21
156.2061184114631
 31
0.0
  0
LINE
  5
36D4
330
1A
100
AcDbEntity
  8
SEIHIN
 48
5.0
100
AcDbLine
 10
74.03961406602104
 20
155.4623840191347
 30
0.0
 11
73.68725684670846
 21
158.4619271046053
 31
0.0
  0
LINE
  5
36D5
330
1A
100
AcDbEntity
  8
SEIHIN
  6
Continuous
 62
     3
 48
5.0
100
AcDbLine
 10
161.5390098497374
 20
67.09861465240544
 30
0.0
 11
218.3452781206038
 21
121.0057504087565
 31
0.0
  0
LINE
  5
36D6
330
1A
100
AcDbEntity
  8
SEIHIN
  6
Continuous
 62
     3
 48
5.0
100
AcDbLine
 10
251.2511327819112
 20
90.51284660382998
 30
0.0
 11
249.7678569443515
 21
62.21025760175371
 31
0.0
  0
LINE
  5
36D7
330
1A
100
AcDbEntity
  8
SEIHIN
  6
Continuous
 62
     3
 48
5.0
100
AcDbLine
 10
252.7817302122822
 20
62.40514797207151
 30
0.0
 11
254.2465650978302
 21
90.35586264815947
 31
0.0
  0
LINE
  5
36D8
330
1A
100
AcDbEntity
  8
SEIHIN
  6
Continuous
 62
     3
 48
5.0
100
AcDbLine
 10
217.7244526941314
 20
62.22873507402664
 30
0.0
 11
219.2945313814198
 21
92.18762111666411
 31
0.0
  0
LINE
  5
36D9
330
1A
100
AcDbEntity
  8
SEIHIN
  6
Continuous
 62
     3
 48
5.0
100
AcDbLine
 10
159.6163231502652
 20
123.4619271046053
 30
0.0
 11
159.6163231502652
 21
65.74853538507023
 31
0.0
  0
LINE
  5
36DA
330
1A
100
AcDbEntity
  8
SEIHIN
  6
Continuous
 62
     3
 48
5.0
100
AcDbLine
 10
160.0901551721436
 20
65.24922061769257
 30
0.0
 11
217.7244526941314
 21
62.22873507402664
 31
0.0
  0
ARC
  5
36DB
330
1A
100
AcDbEntity
  8
SEIHIN
  6
Continuous
 62
     3
 48
5.0
100
AcDbCircle
 10
160.1163231502652
 20
65.74853538507023
 30
0.0
 40
0.5
100
AcDbArc
 50
180.0
 51
267.0000000000466
  0
LINE
  5
36DC
330
1A
100
AcDbEntity
  8
SEIHIN
  6
Continuous
 62
     3
 48
5.0
100
AcDbLine
 10
217.7820222459987
 20
63.3272275622553
 30
0.0
 11
249.7678569443515
 21
62.21025760175371
 31
0.0
  0
LINE
  5
36DD
330
1A
100
AcDbEntity
  8
SEIHIN
  6
Continuous
 62
     3
 48
5.0
100
AcDbLine
 10
249.7678569443515
 20
62.21025760175371
 30
0.0
 11
252.7817302122822
 21
62.40514797207151
 31
0.0
  0
LINE
  5
36DE
330
1A
100
AcDbEntity
  8
SEIHIN
  6
Continuous
 62
     3
 48
5.0
100
AcDbLine
 10
189.6163231502652
 20
158.4619271046053
 30
0.0
 11
217.6053958777775
 21
158.4619271046053
 31
0.0
  0
LINE
  5
36DF
330
1A
100
AcDbEntity
  8
SEIHIN
  6
Continuous
 62
     3
 48
5.0
100
AcDbLine
 10
189.6163231502652
 20
123.4619271046053
 30
0.0
 11
219.6163231502652
 21
123.4619271046053
 31
0.0
  0
LINE
  5
36E0
330
1A
100
AcDbEntity
  8
SEIHIN
  6
Continuous
 62
     3
 48
5.0
100
AcDbLine
 10
217.9577530970902
 20
155.4623840191366
 30
0.0
 11
189.6163231502652
 21
155.4623840191366
 31
0.0
  0
LINE
  5
36E1
330
1A
100
AcDbEntity
  8
CENTER L
  6
CENTER
 62
     1
 48
5.0
100
AcDbLine
 10
263.2819484545744
 20
89.88233827146222
 30
0.0
 11
183.5697670927294
 21
94.05987667844465
 31
0.0
  0
LINE
  5
36E2
330
1A
100
AcDbEntity
  8
SEIHIN
  6
Continuous
 62
     3
 48
5.0
100
AcDbLine
 10
161.6272504227518
 20
158.4619271046053
 30
0.0
 11
189.6163231502652
 21
158.4619271046053
 31
0.0
  0
LINE
  5
36E3
330
1A
100
AcDbEntity
  8
SEIHIN
  6
Continuous
 62
     3
 48
5.0
100
AcDbLine
 10
159.6163231502652
 20
123.4619271046053
 30
0.0
 11
189.6163231502652
 21
123.4619271046053
 31
0.0
  0
LINE
  5
36E4
330
1A
100
AcDbEntity
  8
SEIHIN
  6
Continuous
 62
     3
 48
5.0
100
AcDbLine
 10
189.6163231502652
 20
155.4623840191366
 30
0.0
 11
161.2748932034402
 21
155.4623840191366
 31
0.0
  0
LINE
  5
36E5
330
1A
100
AcDbEntity
  8
SEIHIN
  6
Continuous
 62
     3
 48
5.0
100
AcDbLine
 10
161.2748932034402
 20
155.4623840191366
 30
0.0
 11
160.7163231502637
 21
123.4619271046053
 31
0.0
  0
LINE
  5
36E6
330
1A
100
AcDbEntity
  8
SEIHIN
  6
Continuous
 62
     3
 48
5.0
100
AcDbLine
 10
161.6272504227518
 20
158.4619271046053
 30
0.0
 11
161.2748932034402
 21
155.4623840191366
 31
0.0
  0
LINE
  5
36E7
330
1A
100
AcDbEntity
  8
SEIHIN
  6
Continuous
 62
     3
 48
5.0
100
AcDbLine
 10
255.7113999833774
 20
118.3065773242492
 30
0.0
 11
252.7344086194708
 21
118.815435605908
 31
0.0
  0
LINE
  5
36E8
330
1A
100
AcDbEntity
  8
SEIHIN
  6
Continuous
 62
     3
 48
5.0
100
AcDbLine
 10
252.7344086194708
 20
118.815435605908
 30
0.0
 11
251.2511327819112
 21
90.51284660382998
 31
0.0
  0
LINE
  5
36E9
330
1A
100
AcDbEntity
  8
SEIHIN
  6
Continuous
 62
     3
 48
5.0
100
AcDbLine
 10
219.2945313814198
 20
92.18762111666411
 30
0.0
 11
220.8646100687075
 21
122.1465071592997
 31
0.0
  0
LINE
  5
36EA
330
1A
100
AcDbEntity
  8
SEIHIN
  6
Continuous
 62
     3
 48
5.0
100
AcDbLine
 10
254.2465650978302
 20
90.35586264815947
 30
0.0
 11
255.7113999833774
 21
118.3065773242492
 31
0.0
  0
LINE
  5
36EB
330
1A
100
AcDbEntity
  8
SEIHIN
  6
Continuous
 62
     3
 48
5.0
100
AcDbLine
 10
252.7344086194708
 20
118.815435605908
 30
0.0
 11
220.8070405168411
 21
121.048014671071
 31
0.0
  0
LINE
  5
36EC
330
1A
100
AcDbEntity
  8
SEIHIN
  6
Continuous
 62
     3
 48
5.0
100
AcDbLine
 10
218.5163231502657
 20
123.4619271046053
 30
0.0
 11
217.9577530970902
 21
155.4623840191366
 31
0.0
  0
LINE
  5
36ED
330
1A
100
AcDbEntity
  8
SEIHIN
  6
Continuous
 62
     3
 48
5.0
100
AcDbLine
 10
219.6163231502652
 20
122.6864093879617
 30
0.0
 11
219.6163231502652
 21
123.4619271046053
 31
0.0
  0
LINE
  5
36EE
330
1A
100
AcDbEntity
  8
SEIHIN
  6
Continuous
 62
     3
 48
5.0
100
AcDbLine
 10
220.8646100687075
 20
122.1465071592997
 30
0.0
 11
220.0901551721436
 21
122.187094620584
 31
0.0
  0
ARC
  5
36EF
330
1A
100
AcDbEntity
  8
SEIHIN
  6
Continuous
 62
     3
 48
5.0
100
AcDbCircle
 10
220.1163231502651
 20
122.6864093879617
 30
0.0
 40
0.5000000000000008
100
AcDbArc
 50
180.9490627781029
 51
265.982031490263
  0
LINE
  5
36F0
330
1A
100
AcDbEntity
  8
SEIHIN
  6
Continuous
 62
     3
 48
5.0
100
AcDbLine
 10
217.9577530970902
 20
155.4623840191366
 30
0.0
 11
217.6053958777775
 21
158.4619271046053
 31
0.0
  0
LINE
  5
36F1
330
1A
100
AcDbEntity
  8
CENTER L
  6
CENTER
 62
     1
 48
5.0
100
AcDbLine
 10
189.6163231502652
 20
192.1958817816197
 30
0.0
 11
189.6163231502652
 21
266.1958817816197
 31
0.0
  0
CIRCLE
  5
36F2
330
1A
100
AcDbEntity
  8
SEIHIN
  6
Continuous
 62
     3
 48
5.0
100
AcDbCircle
 10
189.6163231502652
 20
229.1958817816197
 30
0.0
 40
26.65
  0
CIRCLE
  5
36F3
330
1A
100
AcDbEntity
  8
SEIHIN
  6
Continuous
 62
     3
 48
5.0
100
AcDbCircle
 10
189.6163231502652
 20
229.1958817816197
 30
0.0
 40
27.98907272751308
  0
CIRCLE
  5
36F4
330
1A
100
AcDbEntity
  8
SEIHIN
  6
Continuous
 62
     3
 48
5.0
100
AcDbCircle
 10
189.6163231502652
 20
229.1958817816197
 30
0.0
 40
28.34142994682492
  0
CIRCLE
  5
36F5
330
1A
100
AcDbEntity
  8
SEIHIN
  6
Continuous
 62
     3
 48
5.0
100
AcDbCircle
 10
189.6163231502652
 20
229.1958817816197
 30
0.0
 40
30.0
  0
LWPOLYLINE
  5
36F6
330
1A
100
AcDbEntity
  8
SEIHIN
  6
Continuous
 62
     3
 48
5.0
100
AcDbPolyline
 90
       56
 70
     0
 43
0.0
 10
219.2945313814198
 20
199.1958817816197
 10
219.385823338068
 20
199.2466370334826
 10
219.4768063916327
 20
199.3987310493615
 10
219.5671726842612
 20
199.6516491912537
 10
219.6566164450233
 20
200.0045356642262
 10
219.744835024545
 20
200.4561964121552
 10
219.8315299190781
 20
201.0051031580427
 10
219.9164077805436
 20
201.6493985752116
 10
219.9991814091246
 20
202.386902571918
 10
220.0795707250637
 20
203.2151196680864
 10
220.1573037163626
 20
204.1312474392328
 10
220.2321173591836
 20
205.1321859989696
 10
220.3037585078419
 20
206.2145484880514
 10
220.3719847513676
 20
207.3746725344284
 10
220.4365652337493
 20
208.6086326455591
 10
220.4972814350768
 20
209.9122534910242
 10
220.5539279109444
 20
211.2811240305367
 10
220.6063129876084
 20
212.7106124394962
 10
220.6542594105523
 20
214.1958817816197
 10
220.6976049442565
 20
215.7319063756061
 10
220.7362029211572
 20
217.3134888004464
 10
220.7699227379181
 20
218.9352774818511
 10
220.7986502973518
 20
220.5917848002867
 10
220.8222883944928
 20
222.2774056593483
 10
220.8407570455002
 20
223.9864364516128
 10
220.8539937583074
 20
225.7130943578634
 10
220.8619537440673
 20
227.4515369143049
 10
220.8646100687075
 20
229.1958817816197
 10
220.8619537440673
 20
230.9402266489345
 10
220.8539937583074
 20
232.6786692053778
 10
220.8407570455002
 20
234.4053271116284
 10
220.8222883944928
 20
236.1143579038947
 10
220.7986502973518
 20
237.7999787629527
 10
220.7699227379181
 20
239.4564860813901
 10
220.7362029211572
 20
241.0782747627948
 10
220.6976049442565
 20
242.659857187635
 10
220.6542594105523
 20
244.1958817816197
 10
220.6063129876084
 20
245.681151123745
 10
220.5539279109444
 20
247.1106395327045
 10
220.4972814350768
 20
248.479510072217
 10
220.4365652337493
 20
249.7831309176821
 10
220.3719847513676
 20
251.017091028811
 10
220.3037585078419
 20
252.1772150751897
 10
220.2321173591836
 20
253.2595775642715
 10
220.1573037163626
 20
254.2605161240083
 10
220.0795707250637
 20
255.1766438951529
 10
219.9991814091246
 20
256.0048609913232
 10
219.9164077805436
 20
256.7423649880296
 10
219.8315299190781
 20
257.3866604051985
 10
219.744835024545
 20
257.935567151086
 10
219.6566164450233
 20
258.387227899015
 10
219.5671726842612
 20
258.7401143719874
 10
219.4768063916327
 20
258.9930325138778
 10
219.385823338068
 20
259.1451265297586
 10
219.2945313814198
 20
259.1958817816197
 10
219.2945313814198
 20
259.1958817816197
  0
LWPOLYLINE
  5
36F7
330
1A
100
AcDbEntity
  8
SEIHIN
  6
Continuous
 62
     3
 48
5.0
100
AcDbPolyline
 90
       53
 70
     0
 43
0.0
 10
251.2524896547475
 20
257.5372998700407
 10
251.3406907482459
 20
257.4856043262737
 10
251.4299219272735
 20
257.3306707944615
 10
251.518500724099
 20
257.0730764686653
 10
251.6061039242987
 20
256.7137612826448
 10
251.692411873295
 20
256.2540363385454
 10
251.7771096427424
 20
255.6955791228323
 10
251.8598881796644
 20
255.0404273853258
 10
251.9404454341584
 20
254.290971703664
 10
252.0184874615371
 20
253.4499467603567
 10
252.0937294949072
 20
252.5204213642122
 10
252.1658969842484
 20
251.5057872525998
 10
252.2347265982181
 20
250.4097467153572
 10
252.2999671850194
 20
249.2362990855439
 10
252.3613806888271
 20
247.9897261463051
 10
252.4187430184248
 20
246.6745765071067
 10
252.4718448648929
 20
245.2956490063628
 10
252.5204924653518
 20
243.8579752009794
 10
252.5645083099845
 20
242.3668010067653
 10
252.6037317897463
 20
240.8275675566404
 10
252.6380197824129
 20
239.2458913465383
 10
252.6672471748171
 20
237.6275437414227
 10
252.6913073193755
 20
235.9784299162041
 10
252.7101124232286
 20
234.3045673083855
 10
252.7235938685918
 20
232.6120636610979
 10
252.7317024631339
 20
230.9070947366093
 10
252.7344086194708
 20
229.1958817816197
 10
252.7317024631339
 20
227.4846688266319
 10
252.7235938685918
 20
225.7796999021414
 10
252.7101124232286
 20
224.0871962548557
 10
252.6913073193755
 20
222.4133336470371
 10
252.6672471748171
 20
220.7642198218167
 10
252.6380197824129
 20
219.1458722167011
 10
252.6037317897463
 20
217.5641960066008
 10
252.5645083099845
 20
216.0249625564759
 10
252.5204924653518
 20
214.53378836226
 10
252.4718448648929
 20
213.0961145568784
 10
252.4187430184248
 20
211.7171870561327
 10
252.3613806888271
 20
210.4020374169361
 10
252.2999671850194
 20
209.1554644776955
 10
252.2347265982181
 20
207.9820168478839
 10
252.1658969842484
 20
206.8859763106414
 10
252.0937294949072
 20
205.8713421990272
 10
252.0184874615371
 20
204.9418168028827
 10
251.9404454341584
 20
204.1007918595754
 10
251.8598881796644
 20
203.3513361779154
 10
251.7771096427424
 20
202.6961844404071
 10
251.692411873295
 20
202.1377272246958
 10
251.6061039242987
 20
201.6780022805964
 10
251.518500724099
 20
201.3186870945759
 10
251.4299219272735
 20
201.0610927687779
 10
251.3406907482459
 20
200.9061592369675
 10
251.2511327819112
 20
200.8544518347956
  0
LWPOLYLINE
  5
36F8
330
1A
100
AcDbEntity
  8
SEIHIN
  6
Continuous
 62
     3
 48
5.0
100
AcDbPolyline
 90
       53
 70
     0
 43
0.0
 10
254.25558314497
 20
201.2073394623734
 10
254.3350096271907
 20
201.2578735996379
 10
254.423131432056
 20
201.4108809072425
 10
254.5106089655147
 20
201.6652726698469
 10
254.5971230315363
 20
202.0201206394998
 10
254.6823579496741
 20
202.4741300144381
 10
254.7660027069551
 20
203.0256441636923
 10
254.8477520927327
 20
203.6726506719391
 10
254.9273078123625
 20
204.4127886825975
 10
255.0043795756502
 20
205.2433575123326
 10
255.0786861560919
 20
206.1613265055533
 10
255.1499564170318
 20
207.1633460929573
 10
255.2179303010181
 20
208.2457600137353
 10
255.2823597787193
 20
209.4046186568724
 10
255.3430097539586
 20
210.6356934728577
 10
255.3996589215531
 20
211.9344924031905
 10
255.4521005748339
 20
213.2962762714254
 10
255.5001433598955
 20
214.7160760759092
 10
255.5436119738252
 20
216.1887111211257
 10
255.5823478043649
 20
217.7088079214994
 10
255.6162095086694
 20
219.2708198086551
 10
255.6450735290519
 20
220.8690471706107
 10
255.6688345438325
 20
222.497658249042
 10
255.6874058516451
 20
224.1507104187461
 10
255.7007196878013
 20
225.8221718716216
 10
255.7087274715569
 20
227.5059436260893
 10
255.7113999833774
 20
229.1958817816197
 10
255.7087274715569
 20
230.8858199371501
 10
255.7007196878013
 20
232.5695916916196
 10
255.6874058516451
 20
234.2410531444951
 10
255.6688345438325
 20
235.8941053141974
 10
255.6450735290519
 20
237.5227163926305
 10
255.6162095086694
 20
239.1209437545843
 10
255.5823478043649
 20
240.68295564174
 10
255.5436119738252
 20
242.2030524421137
 10
255.5001433598955
 20
243.675687487332
 10
255.4521005748339
 20
245.0954872918158
 10
255.3996589215531
 20
246.4572711600506
 10
255.3430097539586
 20
247.7560700903835
 10
255.2823597787193
 20
248.9871449063688
 10
255.2179303010181
 20
250.1460035495077
 10
255.1499564170318
 20
251.2284174702839
 10
255.0786861560919
 20
252.2304370576879
 10
255.0043795756502
 20
253.1484060509104
 10
254.9273078123616
 20
253.9789748806437
 10
254.8477520927327
 20
254.7191128913003
 10
254.7660027069551
 20
255.3661193995488
 10
254.6823579496741
 20
255.9176335488012
 10
254.5971230315363
 20
256.3716429237414
 10
254.5106089655147
 20
256.7264908933942
 10
254.423131432056
 20
256.9808826559987
 10
254.3350096271907
 20
257.1338899636033
 10
254.25558314497
 20
257.184424100866
  0
LINE
  5
36F9
330
1A
100
AcDbEntity
  8
SEIHIN
  6
Continuous
 62
     3
 48
5.0
100
AcDbLine
 10
189.6163231502652
 20
199.1958817816197
 30
0.0
 11
219.2945313814198
 21
199.1958817816197
 31
0.0
  0
LINE
  5
36FA
330
1A
100
AcDbEntity
  8
SEIHIN
  6
Continuous
 62
     3
 48
5.0
100
AcDbLine
 10
219.7171786323543
 20
200.303257152051
 30
0.0
 11
251.2524896547475
 21
200.8544636932023
 31
0.0
  0
LINE
  5
36FB
330
1A
100
AcDbEntity
  8
SEIHIN
  6
Continuous
 62
     3
 48
5.0
100
AcDbLine
 10
251.2602643581432
 20
200.8549889204244
 30
0.0
 11
254.25558314497
 21
201.2073394623734
 31
0.0
  0
LINE
  5
36FC
330
1A
100
AcDbEntity
  8
CENTER L
  6
CENTER
 62
     1
 48
5.0
100
AcDbLine
 10
262.3411067081339
 20
229.1958817816197
 30
0.0
 11
152.6163231502652
 21
229.1958817816197
 31
0.0
  0
LINE
  5
36FD
330
1A
100
AcDbEntity
  8
SEIHIN
  6
Continuous
 62
     3
 48
5.0
100
AcDbLine
 10
219.2945313814198
 20
259.1958817816197
 30
0.0
 11
189.6163231502652
 21
259.1958817816197
 31
0.0
  0
LINE
  5
36FE
330
1A
100
AcDbEntity
  8
SEIHIN
  6
Continuous
 62
     3
 48
5.0
100
AcDbLine
 10
251.2524896547475
 20
257.5372998700407
 30
0.0
 11
219.7171786323543
 21
258.0885064111902
 31
0.0
  0
LINE
  5
36FF
330
1A
100
AcDbEntity
  8
SEIHIN
  6
Continuous
 62
     3
 48
5.0
100
AcDbLine
 10
254.25558314497
 20
257.184424100866
 30
0.0
 11
251.2602643581432
 21
257.5367746428168
 31
0.0
  0
LINE
  5
3700
330
1A
100
AcDbEntity
  8
CENTER L
  6
CENTER
 62
     1
 48
5.0
100
AcDbLine
 10
339.0035024923475
 20
165.1411852183268
 30
0.0
 11
339.0035024923475
 21
54.72446685252589
 31
0.0
  0
ARC
  5
3714
330
1A
100
AcDbEntity
  8
SEIHIN
  6
Continuous
 62
     3
 48
5.0
100
AcDbCircle
 10
339.0345430972055
 20
92.20433017902214
 30
0.0
 40
29.97235518627139
100
AcDbArc
 50
278.1273218953793
 51
359.8627597357813
  0
ARC
  5
3715
330
1A
100
AcDbEntity
  8
SEIHIN
  6
Continuous
 62
     3
 48
5.0
100
AcDbCircle
 10
338.9758529910299
 20
92.20438405697723
 30
0.0
 40
29.97235518627139
100
AcDbArc
 50
180.0320443881192
 51
261.7674822285218
  0
CIRCLE
  5
3716
330
1A
100
AcDbEntity
  8
SEIHIN
  6
Continuous
 62
     3
 48
5.0
100
AcDbCircle
 10
338.9788219541454
 20
90.35736583490189
 30
0.0
 40
26.62531950423002
  0
CIRCLE
  5
3717
330
1A
100
AcDbEntity
  8
SEIHIN
  6
Continuous
 62
     3
 48
5.0
100
AcDbCircle
 10
338.9779712922685
 20
90.35740770861821
 30
0.0
 40
27.96354157011815
  0
CIRCLE
  5
3718
330
1A
100
AcDbEntity
  8
SEIHIN
  6
Continuous
 62
     3
 48
5.0
100
AcDbCircle
 10
338.9776498774512
 20
90.51128209245916
 30
0.0
 40
28.31557737514961
  0
ARC
  5
3719
330
1A
100
AcDbEntity
  8
SEIHIN
  6
Continuous
 62
     3
 48
5.0
100
AcDbCircle
 10
338.9976886707012
 20
92.1668603836356
 30
0.0
 40
28.89419363673978
100
AcDbArc
 50
340.6125599054355
 51
179.9588324734116
  0
LINE
  5
371A
330
1A
100
AcDbEntity
  8
SEIHIN
  6
Continuous
 62
     3
 48
5.0
100
AcDbLine
 10
309.0035024923476
 20
123.4619271046053
 30
0.0
 11
369.0035024923476
 21
123.4619271046053
 31
0.0
  0
LINE
  5
371B
330
1A
100
AcDbEntity
  8
SEIHIN
  6
Continuous
 62
     3
 48
5.0
100
AcDbLine
 10
367.3449324391725
 20
155.4623840191366
 30
0.0
 11
310.6620725455226
 21
155.4623840191366
 31
0.0
  0
LINE
  5
371C
330
1A
100
AcDbEntity
  8
SEIHIN
  6
Continuous
 62
     3
 48
5.0
100
AcDbLine
 10
311.0144297648342
 20
158.4619271046053
 30
0.0
 11
366.9925752198608
 21
158.4619271046053
 31
0.0
  0
LINE
  5
371D
330
1A
100
AcDbEntity
  8
CENTER L
  6
CENTER
 62
     1
 48
5.0
100
AcDbLine
 10
372.6563778860485
 20
90.35736583490189
 30
0.0
 11
303.3529333756736
 21
90.35736583490189
 31
0.0
  0
LWPOLYLINE
  5
371E
330
1A
100
AcDbEntity
  8
SEIHIN
  6
Continuous
 62
     3
 48
5.0
100
AcDbPolyline
 90
       64
 70
     0
 43
0.0
 10
369.0035024923476
 20
93.7429901031578
 10
368.9662101289153
 20
95.16081168465508
 10
368.8544257533097
 20
96.57510833830428
 10
368.668427279102
 20
97.98236389978638
 10
368.4086771278046
 20
99.37907971004689
 10
368.0758210792204
 20
100.7617833135086
 10
367.6706866659318
 20
102.1270370911538
 10
367.1942811159254
 20
103.4714468069782
 10
366.64778884846
 20
104.7916700465998
 10
366.0325685294204
 20
106.0844245270295
 10
365.3501496934544
 20
107.3464962569382
 10
364.6022289413125
 20
108.5747475271496
 10
363.7906657218276
 20
109.7661247114833
 10
362.9174777090351
 20
110.9176658585388
 10
361.9848357859167
 20
112.0265080555896
 10
360.9950586472426
 20
113.0898945462181
 10
359.9506070349301
 20
114.1051815840623
 10
358.8540776202538
 20
115.0698450055738
 10
357.7081965481096
 20
115.9814865054927
 10
356.5158126593918
 20
116.83783959941
 10
355.2798904083205
 20
117.636775258607
 10
354.0035024923476
 20
118.3763072031492
 10
352.6898222129424
 20
119.0545968401024
 10
351.3421155862664
 20
119.6699578345564
 10
349.963733223339
 20
120.2208603021231
 10
348.5581019998984
 20
120.7059346124629
 10
347.1287165366378
 20
121.1239747944132
 10
345.6791305110376
 20
121.4739415342142
 10
344.2129478223554
 20
121.7549647594082
 10
342.7338136317724
 20
121.9663458019808
 10
341.2454052999404
 20
122.1075591353533
 10
339.7514232444895
 20
122.17825368093
 10
338.2555817402057
 20
122.17825368093
 10
336.7615996847547
 20
122.1075591353533
 10
335.2731913529236
 20
121.9663458019808
 10
333.7940571623397
 20
121.7549647594082
 10
332.3278744736584
 20
121.4739415342142
 10
330.8782884480573
 20
121.1239747944132
 10
329.4489029847967
 20
120.7059346124629
 10
328.043271761356
 20
120.2208603021231
 10
326.6648893984296
 20
119.6699578345564
 10
325.3171827717527
 20
119.0545968401024
 10
324.0035024923475
 20
118.3763072031492
 10
322.7271145763746
 20
117.636775258607
 10
321.4911923253042
 20
116.83783959941
 10
320.2988084365855
 20
115.9814865054927
 10
319.1529273644422
 20
115.0698450055738
 10
318.056397949765
 20
114.1051815840623
 10
317.0119463374534
 20
113.0898945462181
 10
316.0221691987784
 20
112.0265080555896
 10
315.0895272756601
 20
110.9176658585388
 10
314.2163392628675
 20
109.7661247114833
 10
313.4047760433835
 20
108.5747475271496
 10
312.6568552912407
 20
107.3464962569382
 10
311.9744364552756
 20
106.0844245270295
 10
311.3592161362352
 20
104.7916700465998
 10
310.8127238687706
 20
103.4714468069782
 10
310.3363183187633
 20
102.1270370911538
 10
309.9311839054756
 20
100.7617833135086
 10
309.5983278568914
 20
99.37907971004689
 10
309.338577705594
 20
97.98236389978638
 10
309.1525792313853
 20
96.57510833830428
 10
309.0407948557798
 20
95.16081168465508
 10
309.0035024923476
 20
93.7429901031578
  0
LINE
  5
371F
330
1A
100
AcDbEntity
  8
SEIHIN
  6
Continuous
 62
     3
 48
5.0
100
AcDbLine
 10
309.0035024923476
 20
123.4619271046053
 30
0.0
 11
309.0035024923476
 21
93.7429901031578
 31
0.0
  0
ARC
  5
3720
330
1A
100
AcDbEntity
  8
SEIHIN
  6
Continuous
 62
     3
 48
5.0
100
AcDbCircle
 10
336.9452436677869
 20
93.74240677061834
 30
0.0
 40
27.94174118152793
100
AcDbArc
 50
172.0455318399042
 51
179.9988038507453
  0
ARC
  5
3721
330
1A
100
AcDbEntity
  8
SEIHIN
  6
Continuous
 62
     3
 48
5.0
100
AcDbCircle
 10
338.9285475353939
 20
92.18795480104608
 30
0.0
 40
28.82504504497785
100
AcDbArc
 50
180.000663267194
 51
199.480285621336
  0
LINE
  5
3722
330
1A
100
AcDbEntity
  8
SEIHIN
  6
Continuous
 62
     3
 48
5.0
100
AcDbLine
 10
311.7535549570569
 20
82.57530687176631
 30
0.0
 11
312.2802333184348
 21
81.08631612636827
 31
0.0
  0
LINE
  5
3723
330
1A
100
AcDbEntity
  8
SEIHIN
  6
Continuous
 62
     3
 48
5.0
100
AcDbLine
 10
309.0035024923476
 20
93.74299010315963
 30
0.0
 11
309.0035024923476
 21
92.18762111666592
 31
0.0
  0
LINE
  5
3724
330
1A
100
AcDbEntity
  8
SEIHIN
  6
Continuous
 62
     3
 48
5.0
100
AcDbLine
 10
310.6620725455226
 20
155.4623840191366
 30
0.0
 11
310.103502492347
 21
123.4619271046053
 31
0.0
  0
LINE
  5
3725
330
1A
100
AcDbEntity
  8
SEIHIN
  6
Continuous
 62
     3
 48
5.0
100
AcDbLine
 10
311.0144297648342
 20
158.4619271046053
 30
0.0
 11
310.6620725455226
 21
155.4623840191366
 31
0.0
  0
LINE
  5
3726
330
1A
100
AcDbEntity
  8
SEIHIN
  6
Continuous
 62
     3
 48
5.0
100
AcDbLine
 10
369.0035024923476
 20
93.7429901031578
 30
0.0
 11
369.0035024923476
 21
123.4619271046053
 31
0.0
  0
ARC
  5
3727
330
1A
100
AcDbEntity
  8
SEIHIN
  6
Continuous
 62
     3
 48
5.0
100
AcDbCircle
 10
341.0614781591224
 20
93.74239552611697
 30
0.0
 40
27.94202433955184
100
AcDbArc
 50
0.0012191942385111
 51
8.049059199977172
  0
LINE
  5
3728
330
1A
100
AcDbEntity
  8
SEIHIN
  6
Continuous
 62
     3
 48
5.0
100
AcDbLine
 10
365.7267716662585
 20
81.08631612636463
 30
0.0
 11
366.2534500276373
 21
82.57530687176268
 31
0.0
  0
LINE
  5
3729
330
1A
100
AcDbEntity
  8
SEIHIN
  6
Continuous
 62
     3
 48
5.0
100
AcDbLine
 10
369.0035024923476
 20
92.18762111666228
 30
0.0
 11
369.0035024923476
 21
93.74299010315599
 31
0.0
  0
LINE
  5
372A
330
1A
100
AcDbEntity
  8
SEIHIN
  6
Continuous
 62
     3
 48
5.0
100
AcDbLine
 10
367.9035024923481
 20
123.4619271046053
 30
0.0
 11
367.3449324391725
 21
155.4623840191366
 31
0.0
  0
LINE
  5
372B
330
1A
100
AcDbEntity
  8
SEIHIN
  6
Continuous
 62
     3
 48
5.0
100
AcDbLine
 10
367.3449324391725
 20
155.4623840191366
 30
0.0
 11
366.9925752198608
 21
158.4619271046053
 31
0.0
  0
TEXT
  5
38BE
330
1A
100
AcDbEntity
  8
SUNPOU
100
AcDbText
 10
319.2963927395891
 20
32.6348611340262
 30
-0.0000000000028831
 40
4.0
  1
※　たてといの差込み寸法を示す。
100
AcDbText
  0
TEXT
  5
4334
330
1A
100
AcDbEntity
  8
MOJI
100
AcDbText
 10
44.44138808139745
 20
6.242677182400996
 30
0.0
 40
2.799999999999999
  1
ユニシェイプＵＲＴ６０ＢＬ
 41
0.9
  7
ｽﾀｲﾙ1
100
AcDbText
  0
TEXT
  5
43DC
330
1A
100
AcDbEntity
  8
MOJI
100
AcDbText
 10
227.707177370123
 20
6.73799520856798
 30
0.0
 40
2.799999999999999
  1
ＰＨ０３□
 41
0.9
  7
ｽﾀｲﾙ1
100
AcDbText
  0
VIEWPORT
  5
22
330
17
100
AcDbEntity
 67
     1
  8
0
100
AcDbViewport
 10
313.6808219178082
 20
148.5
 30
0.0
 40
627.3616438356165
 41
297.0
 68
     2
 69
     1
 12
313.6808219178082
 22
148.5
 13
0.0
 23
0.0
 14
1.0
 24
1.0
 15
10.0
 25
10.0
 16
0.0
 26
0.0
 36
1.0
 17
0.0
 27
0.0
 37
0.0
 42
50.0
 43
0.0
 44
0.0
 45
297.0
 50
0.0
 51
0.0
 72
   100
 90
    32768
  1

281
     0
 71
     1
 74
     0
110
0.0
120
0.0
130
0.0
111
1.0
121
0.0
131
0.0
112
0.0
122
1.0
132
0.0
 79
     0
146
0.0
  0
VIEWPORT
  5
64
330
17
100
AcDbEntity
 67
     1
  8
VIEWPORT
100
AcDbViewport
 10
210.0
 20
148.5
 30
0.0
 40
420.0
 41
297.0
 68
     1
 69
     2
 12
210.0
 22
148.5
 13
0.0
 23
0.0
 14
5.0
 24
5.0
 15
0.0
 25
0.0
 16
0.0
 26
0.0
 36
1.0
 17
0.0
 27
0.0
 37
0.0
 42
50.0
 43
0.0
 44
0.0
 45
302.9399999999998
 50
0.0
 51
0.0
 72
   100
 90
    32768
  1

281
     0
 71
     1
 74
     0
110
0.0
120
0.0
130
0.0
111
1.0
121
0.0
131
0.0
112
0.0
122
1.0
132
0.0
 79
     0
146
0.0
  0
ENDSEC
  0
SECTION
  2
OBJECTS
  0
DICTIONARY
  5
C
330
0
100
AcDbDictionary
281
     1
  3
ACAD_GROUP
350
D
  3
ACAD_LAYOUT
350
33B
  3
ACAD_MLINESTYLE
350
E
  3
ACAD_PLOTSETTINGS
350
33C
  3
ACAD_PLOTSTYLENAME
350
339
  0
DICTIONARY
  5
36A
330
1A
100
AcDbDictionary
280
     1
281
     1
  3
ACAD_LAYOUTSELFREF
360
442C
  0
DICTIONARY
  5
368
330
17
100
AcDbDictionary
280
     1
281
     1
  3
ACAD_LAYOUTSELFREF
360
442B
  0
DICTIONARY
  5
D
102
{ACAD_REACTORS
330
C
102
}
330
C
100
AcDbDictionary
281
     1
  0
DICTIONARY
  5
33B
102
{ACAD_REACTORS
330
C
102
}
330
C
100
AcDbDictionary
281
     1
  3
Model
350
33D
  3
ﾚｲｱｳﾄ1
350
33E
  0
DICTIONARY
  5
E
102
{ACAD_REACTORS
330
C
102
}
330
C
100
AcDbDictionary
281
     1
  3
STANDARD
350
13
  0
DICTIONARY
  5
33C
102
{ACAD_REACTORS
330
C
102
}
330
C
100
AcDbDictionary
281
     1
  0
ACDBDICTIONARYWDFLT
  5
339
102
{ACAD_REACTORS
330
C
102
}
330
C
100
AcDbDictionary
281
     1
  3
Normal
350
33A
100
AcDbDictionaryWithDefault
340
33A
1001
ACAD
1000
TREAT_AS_HARD
1070
     0
1000
TREAT_AS_HARD
1070
     0
1000
TREAT_AS_HARD
1070
     0
1000
TREAT_AS_HARD
1070
     0
1000
TREAT_AS_HARD
1070
     0
1000
TREAT_AS_HARD
1070
     0
1000
TREAT_AS_HARD
1070
     0
1000
TREAT_AS_HARD
1070
     0
  0
XRECORD
  5
442C
102
{ACAD_REACTORS
330
36A
102
}
330
36A
100
AcDbXrecord
280
     1
340
1A
  0
XRECORD
  5
442B
102
{ACAD_REACTORS
330
368
102
}
330
368
100
AcDbXrecord
280
     1
340
17
  0
LAYOUT
  5
33D
102
{ACAD_REACTORS
330
33B
102
}
330
33B
100
AcDbPlotSettings
  1

  2
Acrobat PDFWriter
  4
A3
  6

 40
7.143749713897705
 41
7.143756389617919
 42
7.143768310546875
 43
7.14373779296875
 44
297.1270751953125
 45
420.1583251953125
 46
0.0
 47
0.0
 48
0.0
 49
0.0
140
0.0
141
0.0
142
1.0
143
1.0
 70
 28336
 72
     1
 73
     1
 74
     2
  7
print.ctb
 75
    16
147
1.0
148
0.0
149
0.0
100
AcDbLayout
  1
Model
 70
     1
 71
     0
 10
0.0
 20
0.0
 11
12.0
 21
9.0
 12
0.0
 22
0.0
 32
0.0
 14
0.0
 24
0.0
 34
0.0
 15
0.0
 25
0.0
 35
0.0
146
0.0
 13
0.0
 23
0.0
 33
0.0
 16
1.0
 26
0.0
 36
0.0
 17
0.0
 27
1.0
 37
0.0
 76
     0
330
1A
  0
LAYOUT
  5
33E
102
{ACAD_REACTORS
330
33B
102
}
330
33B
100
AcDbPlotSettings
  1

  2
C:\PROGRAM FILES\ACAD LT 2000\plotters\DWF ePlot.pc3
  4

  6

 40
0.0
 41
0.0
 42
0.0
 43
0.0
 44
0.0
 45
0.0
 46
0.0
 47
0.0
 48
0.0
 49
0.0
140
0.0
141
0.0
142
1.0
143
1.0
 70
   688
 72
     0
 73
     0
 74
     5
  7
print.ctb
 75
    16
147
1.0
148
0.0
149
0.0
100
AcDbLayout
  1
ﾚｲｱｳﾄ1
 70
     1
 71
     1
 10
0.0
 20
0.0
 11
420.0
 21
297.0
 12
0.0
 22
0.0
 32
0.0
 14
0.0
 24
0.0
 34
0.0
 15
420.0
 25
297.0
 35
0.0
146
0.0
 13
0.0
 23
0.0
 33
0.0
 16
1.0
 26
0.0
 36
0.0
 17
0.0
 27
1.0
 37
0.0
 76
     0
330
17
331
64
  0
MLINESTYLE
  5
13
102
{ACAD_REACTORS
330
E
102
}
330
E
100
AcDbMlineStyle
  2
STANDARD
 70
     0
  3

 62
     0
 51
90.0
 52
90.0
 71
     2
 49
0.5
 62
   256
  6
BYLAYER
 49
-0.5
 62
   256
  6
BYLAYER
  0
ACDBPLACEHOLDER
  5
33A
102
{ACAD_REACTORS
330
339
102
}
330
339
  0
ENDSEC
  0
EOF
