  0
SECTION
  2
HEADER
  9
$ACADVER
  1
AC1012
  9
$DWGCODEPAGE
  3
dos932
  9
$INSBASE
 10
0.0
 20
0.0
 30
0.0
  9
$EXTMIN
 10
-0.0063986190003789
 20
-0.0045251901758547
 30
-0.0000000000000022
  9
$EXTMAX
 10
398.8308016511388
 20
275.8213250462848
 30
0.0000000000000131
  9
$LIMMIN
 10
0.0
 20
0.0
  9
$LIMMAX
 10
420.0
 20
297.0
  9
$ORTHOMODE
 70
     0
  9
$REGENMODE
 70
     1
  9
$FILLMODE
 70
     1
  9
$QTEXTMODE
 70
     0
  9
$MIRRTEXT
 70
     1
  9
$DRAGMODE
 70
     2
  9
$LTSCALE
 40
1.0
  9
$OSMODE
 70
    63
  9
$ATTMODE
 70
     1
  9
$TEXTSIZE
 40
2.5
  9
$TRACEWID
 40
1.0
  9
$TEXTSTYLE
  7
STANDARD
  9
$CLAYER
  8
0
  9
$CELTYPE
  6
BYLAYER
  9
$CECOLOR
 62
   256
  9
$CELTSCALE
 40
1.0
  9
$DELOBJ
 70
     1
  9
$DISPSILH
 70
     0
  9
$DIMSCALE
 40
1.0
  9
$DIMASZ
 40
3.0
  9
$DIMEXO
 40
3.0
  9
$DIMDLI
 40
7.0
  9
$DIMRND
 40
0.0
  9
$DIMDLE
 40
0.0
  9
$DIMEXE
 40
1.5
  9
$DIMTP
 40
0.0
  9
$DIMTM
 40
0.0
  9
$DIMTXT
 40
3.0
  9
$DIMCEN
 40
150.0
  9
$DIMTSZ
 40
0.0
  9
$DIMTOL
 70
     0
  9
$DIMLIM
 70
     0
  9
$DIMTIH
 70
     0
  9
$DIMTOH
 70
     0
  9
$DIMSE1
 70
     0
  9
$DIMSE2
 70
     0
  9
$DIMTAD
 70
     3
  9
$DIMZIN
 70
     0
  9
$DIMBLK
  1

  9
$DIMASO
 70
     1
  9
$DIMSHO
 70
     1
  9
$DIMPOST
  1

  9
$DIMAPOST
  1

  9
$DIMALT
 70
     0
  9
$DIMALTD
 70
     2
  9
$DIMALTF
 40
25.4
  9
$DIMLFAC
 40
1.0
  9
$DIMTOFL
 70
     1
  9
$DIMTVP
 40
0.0
  9
$DIMTIX
 70
     0
  9
$DIMSOXD
 70
     0
  9
$DIMSAH
 70
     1
  9
$DIMBLK1
  1
OPEN
  9
$DIMBLK2
  1
OPEN
  9
$DIMSTYLE
  2
STANDARD
  9
$DIMCLRD
 70
   256
  9
$DIMCLRE
 70
   256
  9
$DIMCLRT
 70
   256
  9
$DIMTFAC
 40
1.0
  9
$DIMGAP
 40
1.0
  9
$DIMJUST
 70
     0
  9
$DIMSD1
 70
     0
  9
$DIMSD2
 70
     0
  9
$DIMTOLJ
 70
     1
  9
$DIMTZIN
 70
     0
  9
$DIMALTZ
 70
     0
  9
$DIMALTTZ
 70
     0
  9
$DIMFIT
 70
     3
  9
$DIMUPT
 70
     0
  9
$DIMUNIT
 70
     2
  9
$DIMDEC
 70
     0
  9
$DIMTDEC
 70
     0
  9
$DIMALTU
 70
     2
  9
$DIMALTTD
 70
     2
  9
$DIMTXSTY
  7
STANDARD
  9
$DIMAUNIT
 70
     0
  9
$LUNITS
 70
     2
  9
$LUPREC
 70
     4
  9
$SKETCHINC
 40
1.0
  9
$FILLETRAD
 40
55.0
  9
$AUNITS
 70
     0
  9
$AUPREC
 70
     0
  9
$MENU
  1
.
  9
$ELEVATION
 40
0.0
  9
$PELEVATION
 40
0.0
  9
$THICKNESS
 40
0.0
  9
$LIMCHECK
 70
     0
  9
$BLIPMODE
 70
     0
  9
$CHAMFERA
 40
10.0
  9
$CHAMFERB
 40
10.0
  9
$CHAMFERC
 40
20.0
  9
$CHAMFERD
 40
0.0
  9
$SKPOLY
 70
     0
  9
$TDCREATE
 40
2451074.584006712
  9
$TDUPDATE
 40
2455847.564159109
  9
$TDINDWG
 40
0.0909682870
  9
$TDUSRTIMER
 40
0.0909682870
  9
$USRTIMER
 70
     1
  9
$ANGBASE
 50
0.0
  9
$ANGDIR
 70
     0
  9
$PDMODE
 70
     0
  9
$PDSIZE
 40
0.0
  9
$PLINEWID
 40
0.0
  9
$COORDS
 70
     0
  9
$SPLFRAME
 70
     0
  9
$SPLINETYPE
 70
     6
  9
$SPLINESEGS
 70
     8
  9
$ATTDIA
 70
     0
  9
$ATTREQ
 70
     1
  9
$HANDLING
 70
 10241
  9
$HANDSEED
  5
9633
  9
$SURFTAB1
 70
     6
  9
$SURFTAB2
 70
     6
  9
$SURFTYPE
 70
     6
  9
$SURFU
 70
     6
  9
$SURFV
 70
     6
  9
$UCSNAME
  2

  9
$UCSORG
 10
0.0
 20
0.0
 30
0.0
  9
$UCSXDIR
 10
1.0
 20
0.0
 30
0.0
  9
$UCSYDIR
 10
0.0
 20
1.0
 30
0.0
  9
$PUCSNAME
  2

  9
$PUCSORG
 10
0.0
 20
0.0
 30
0.0
  9
$PUCSXDIR
 10
1.0
 20
0.0
 30
0.0
  9
$PUCSYDIR
 10
0.0
 20
1.0
 30
0.0
  9
$USERI1
 70
     0
  9
$USERI2
 70
     0
  9
$USERI3
 70
     0
  9
$USERI4
 70
     0
  9
$USERI5
 70
     0
  9
$USERR1
 40
0.0
  9
$USERR2
 40
0.0
  9
$USERR3
 40
0.0
  9
$USERR4
 40
0.0
  9
$USERR5
 40
0.0
  9
$WORLDVIEW
 70
     1
  9
$SHADEDGE
 70
     3
  9
$SHADEDIF
 70
    70
  9
$TILEMODE
 70
     1
  9
$MAXACTVP
 70
    16
  9
$PINSBASE
 10
0.0
 20
0.0
 30
0.0
  9
$PLIMCHECK
 70
     0
  9
$PEXTMIN
 10
0.0
 20
0.0
 30
0.0
  9
$PEXTMAX
 10
420.0
 20
297.0
 30
0.0
  9
$PLIMMIN
 10
0.0
 20
0.0
  9
$PLIMMAX
 10
420.0
 20
297.0
  9
$UNITMODE
 70
     0
  9
$VISRETAIN
 70
     0
  9
$PLINEGEN
 70
     0
  9
$PSLTSCALE
 70
     1
  9
$TREEDEPTH
 70
  3020
  9
$PICKSTYLE
 70
     1
  9
$CMLSTYLE
  2
STANDARD
  9
$CMLJUST
 70
     0
  9
$CMLSCALE
 40
1.0
  9
$SAVEIMAGES
 70
     1
  0
ENDSEC
  0
SECTION
  2
CLASSES
  0
CLASS
  1
ACDBDICTIONARYWDFLT
  2
AcDbDictionaryWithDefault
  3
AutoCAD 2000
 90
    32768
280
     0
281
     0
  0
CLASS
  1
ACDBPLACEHOLDER
  2
AcDbPlaceHolder
  3
AutoCAD 2000
 90
    32768
280
     0
281
     0
  0
CLASS
  1
LAYOUT
  2
AcDbLayout
  3
AutoCAD 2000
 90
    32768
280
     0
281
     0
  0
CLASS
  1
LONG_TRANSACTION
  2
AcDbLongTransaction
  3
AutoCAD 2000
 90
    32768
280
     0
281
     0
  0
CLASS
  1
LWPOLYLINE
  2
AcDbPolyline
  3
AutoCAD 2000
 90
    32768
280
     0
281
     1
  0
CLASS
  1
HATCH
  2
AcDbHatch
  3
AutoCAD 2000
 90
    32768
280
     0
281
     1
  0
CLASS
  1
XRECORD
  2
AcDbXrecord
  3
AutoCAD 2000
 90
    32768
280
     0
281
     0
  0
CLASS
  1
LONG_TRANSACTION
  2
AcDbLongTransaction
  3
AutoCAD 2000
 90
    32768
280
     0
281
     0
  0
CLASS
  1
LWPOLYLINE
  2
AcDbPolyline
  3
AutoCAD 2000
 90
    32768
280
     0
281
     1
  0
CLASS
  1
HATCH
  2
AcDbHatch
  3
AutoCAD 2000
 90
    32768
280
     0
281
     1
  0
CLASS
  1
XRECORD
  2
AcDbXrecord
  3
AutoCAD 2000
 90
    32768
280
     0
281
     0
  0
CLASS
  1
LONG_TRANSACTION
  2
AcDbLongTransaction
  3
AutoCAD 2000
 90
    32768
280
     0
281
     0
  0
CLASS
  1
LWPOLYLINE
  2
AcDbPolyline
  3
AutoCAD 2000
 90
    32768
280
     0
281
     1
  0
CLASS
  1
HATCH
  2
AcDbHatch
  3
AutoCAD 2000
 90
    32768
280
     0
281
     1
  0
CLASS
  1
XRECORD
  2
AcDbXrecord
  3
AutoCAD 2000
 90
    32768
280
     0
281
     0
  0
CLASS
  1
LONG_TRANSACTION
  2
AcDbLongTransaction
  3
AutoCAD 2000
 90
    32768
280
     0
281
     0
  0
CLASS
  1
LWPOLYLINE
  2
AcDbPolyline
  3
AutoCAD 2000
 90
    32768
280
     0
281
     1
  0
CLASS
  1
HATCH
  2
AcDbHatch
  3
AutoCAD 2000
 90
    32768
280
     0
281
     1
  0
CLASS
  1
XRECORD
  2
AcDbXrecord
  3
AutoCAD 2000
 90
    32768
280
     0
281
     0
  0
CLASS
  1
LONG_TRANSACTION
  2
AcDbLongTransaction
  3
AutoCAD 2000
 90
    32768
280
     0
281
     0
  0
CLASS
  1
LWPOLYLINE
  2
AcDbPolyline
  3
AutoCAD 2000
 90
    32768
280
     0
281
     1
  0
CLASS
  1
HATCH
  2
AcDbHatch
  3
AutoCAD 2000
 90
    32768
280
     0
281
     1
  0
CLASS
  1
XRECORD
  2
AcDbXrecord
  3
AutoCAD 2000
 90
    32768
280
     0
281
     0
  0
CLASS
  1
LONG_TRANSACTION
  2
AcDbLongTransaction
  3
AutoCAD 2000
 90
    32768
280
     0
281
     0
  0
CLASS
  1
LWPOLYLINE
  2
AcDbPolyline
  3
AutoCAD 2000
 90
    32768
280
     0
281
     1
  0
CLASS
  1
HATCH
  2
AcDbHatch
  3
AutoCAD 2000
 90
    32768
280
     0
281
     1
  0
CLASS
  1
XRECORD
  2
AcDbXrecord
  3
AutoCAD 2000
 90
    32768
280
     0
281
     0
  0
CLASS
  1
LONG_TRANSACTION
  2
AcDbLongTransaction
  3
AutoCAD 2000
 90
    32768
280
     0
281
     0
  0
CLASS
  1
LWPOLYLINE
  2
AcDbPolyline
  3
AutoCAD 2000
 90
    32768
280
     0
281
     1
  0
CLASS
  1
HATCH
  2
AcDbHatch
  3
AutoCAD 2000
 90
    32768
280
     0
281
     1
  0
CLASS
  1
XRECORD
  2
AcDbXrecord
  3
AutoCAD 2000
 90
    32768
280
     0
281
     0
  0
CLASS
  1
LONG_TRANSACTION
  2
AcDbLongTransaction
  3
AutoCAD 2000
 90
    32768
280
     0
281
     0
  0
CLASS
  1
LWPOLYLINE
  2
AcDbPolyline
  3
AutoCAD 2000
 90
    32768
280
     0
281
     1
  0
CLASS
  1
HATCH
  2
AcDbHatch
  3
AutoCAD 2000
 90
    32768
280
     0
281
     1
  0
CLASS
  1
XRECORD
  2
AcDbXrecord
  3
AutoCAD 2000
 90
    32768
280
     0
281
     0
  0
CLASS
  1
LONG_TRANSACTION
  2
AcDbLongTransaction
  3
AutoCAD 2000
 90
    32768
280
     0
281
     0
  0
CLASS
  1
LWPOLYLINE
  2
AcDbPolyline
  3
AutoCAD 2000
 90
    32768
280
     0
281
     1
  0
CLASS
  1
HATCH
  2
AcDbHatch
  3
AutoCAD 2000
 90
    32768
280
     0
281
     1
  0
CLASS
  1
XRECORD
  2
AcDbXrecord
  3
AutoCAD 2000
 90
    32768
280
     0
281
     0
  0
CLASS
  1
LONG_TRANSACTION
  2
AcDbLongTransaction
  3
AutoCAD 2000
 90
    32768
280
     0
281
     0
  0
CLASS
  1
LWPOLYLINE
  2
AcDbPolyline
  3
AutoCAD 2000
 90
    32768
280
     0
281
     1
  0
CLASS
  1
HATCH
  2
AcDbHatch
  3
AutoCAD 2000
 90
    32768
280
     0
281
     1
  0
CLASS
  1
XRECORD
  2
AcDbXrecord
  3
AutoCAD 2000
 90
    32768
280
     0
281
     0
  0
CLASS
  1
LONG_TRANSACTION
  2
AcDbLongTransaction
  3
AutoCAD 2000
 90
    32768
280
     0
281
     0
  0
CLASS
  1
LWPOLYLINE
  2
AcDbPolyline
  3
AutoCAD 2000
 90
    32768
280
     0
281
     1
  0
CLASS
  1
HATCH
  2
AcDbHatch
  3
AutoCAD 2000
 90
    32768
280
     0
281
     1
  0
CLASS
  1
XRECORD
  2
AcDbXrecord
  3
AutoCAD 2000
 90
    32768
280
     0
281
     0
  0
ENDSEC
  0
SECTION
  2
TABLES
  0
TABLE
  2
VPORT
  5
8
330
0
100
AcDbSymbolTable
 70
     4
  0
VPORT
  5
94FE
330
8
100
AcDbSymbolTableRecord
100
AcDbViewportTableRecord
  2
*ACTIVE
 70
     0
 10
0.0
 20
0.0
 11
1.0
 21
1.0
 12
209.9968006904997
 22
148.497737404912
 13
0.0
 23
0.0
 14
5.0
 24
5.0
 15
0.0
 25
0.0
 16
0.0
 26
0.0
 36
1.0
 17
0.0
 27
0.0
 37
0.0
 40
299.2746234718842
 41
1.535714285714285
 42
50.0
 43
0.0
 44
0.0
 50
0.0
 51
0.0
 71
     0
 72
   100
 73
     1
 74
     0
 75
     0
 76
     0
 77
     0
 78
     0
  0
ENDTAB
  0
TABLE
  2
LTYPE
  5
5
330
0
100
AcDbSymbolTable
 70
     2
  0
LTYPE
  5
14
330
5
100
AcDbSymbolTableRecord
100
AcDbLinetypeTableRecord
  2
BYBLOCK
 70
     0
  3

 72
    65
 73
     0
 40
0.0
  0
LTYPE
  5
15
330
5
100
AcDbSymbolTableRecord
100
AcDbLinetypeTableRecord
  2
BYLAYER
 70
     0
  3

 72
    65
 73
     0
 40
0.0
  0
LTYPE
  5
16
330
5
100
AcDbSymbolTableRecord
100
AcDbLinetypeTableRecord
  2
CONTINUOUS
 70
     0
  3
Solid line
 72
    65
 73
     0
 40
0.0
  0
LTYPE
  5
120
330
5
100
AcDbSymbolTableRecord
100
AcDbLinetypeTableRecord
  2
CENTER
 70
     0
  3
____ _ ____ _ ____ _ ____ _ ____ _ ____ _ ____ 
 72
    65
 73
     4
 40
2.0
 49
1.25
 74
     0
 49
-0.25
 74
     0
 49
0.25
 74
     0
 49
-0.25
 74
     0
  0
ENDTAB
  0
TABLE
  2
LAYER
  5
2
330
0
100
AcDbSymbolTable
 70
     9
  0
LAYER
  5
F
330
2
100
AcDbSymbolTableRecord
100
AcDbLayerTableRecord
  2
0
 70
     0
 62
     7
  6
CONTINUOUS
  0
LAYER
  5
62
330
2
100
AcDbSymbolTableRecord
100
AcDbLayerTableRecord
  2
VIEWPORT
 70
     0
 62
     7
  6
CONTINUOUS
  0
LAYER
  5
6B
330
2
100
AcDbSymbolTableRecord
100
AcDbLayerTableRecord
  2
ZUWAKU
 70
     0
 62
     7
  6
CONTINUOUS
  0
LAYER
  5
140
330
2
100
AcDbSymbolTableRecord
100
AcDbLayerTableRecord
  2
SEIHIN
 70
     0
 62
     3
  6
CONTINUOUS
  0
LAYER
  5
141
330
2
100
AcDbSymbolTableRecord
100
AcDbLayerTableRecord
  2
SUNPOU
 70
     0
 62
     4
  6
CONTINUOUS
  0
LAYER
  5
142
330
2
100
AcDbSymbolTableRecord
100
AcDbLayerTableRecord
  2
CENTER_L
 70
     0
 62
     1
  6
CENTER
  0
LAYER
  5
143
330
2
100
AcDbSymbolTableRecord
100
AcDbLayerTableRecord
  2
DEFPOINTS
 70
     0
 62
     7
  6
CONTINUOUS
  0
LAYER
  5
5D7
330
2
100
AcDbSymbolTableRecord
100
AcDbLayerTableRecord
  2
MOJI
 70
     0
 62
     2
  6
CONTINUOUS
  0
LAYER
  5
A31
330
2
100
AcDbSymbolTableRecord
100
AcDbLayerTableRecord
  2
ﾊｯﾁﾝｸ_
 70
     0
 62
     7
  6
CONTINUOUS
  0
ENDTAB
  0
TABLE
  2
STYLE
  5
3
330
0
100
AcDbSymbolTable
 70
     2
  0
STYLE
  5
10
330
3
100
AcDbSymbolTableRecord
100
AcDbTextStyleTableRecord
  2
STANDARD
 70
     0
 40
0.0
 41
1.0
 50
0.0
 71
     0
 42
2.5
  3
TXT
  4
bigfont.shx
  0
STYLE
  5
5D8
330
3
100
AcDbSymbolTableRecord
100
AcDbTextStyleTableRecord
  2
ｽﾀｲﾙ1
 70
     0
 40
0.0
 41
1.0
 50
0.0
 71
     0
 42
2.5
  3
MS PGothic.ttf
  4

1001
ACAD
1000
MS PGothic
1071
    32818
  0
ENDTAB
  0
TABLE
  2
VIEW
  5
6
330
0
100
AcDbSymbolTable
 70
     0
  0
ENDTAB
  0
TABLE
  2
UCS
  5
7
330
0
100
AcDbSymbolTable
 70
     0
  0
ENDTAB
  0
TABLE
  2
APPID
  5
9
330
0
100
AcDbSymbolTable
 70
     1
  0
APPID
  5
11
330
9
100
AcDbSymbolTableRecord
100
AcDbRegAppTableRecord
  2
ACAD
 70
     0
  0
ENDTAB
  0
TABLE
  2
DIMSTYLE
  5
A
330
0
100
AcDbSymbolTable
 70
     1
  0
DIMSTYLE
105
1D
102
{ACAD_REACTORS
330
7B21
330
7CD2
330
7D9F
330
7DA0
330
7DF7
330
7E55
102
}
330
A
100
AcDbSymbolTableRecord
100
AcDbDimStyleTableRecord
  2
STANDARD
 70
     0
  3

  4

  5

  6

  7

 40
1.0
 41
0.18
 42
0.0625
 43
0.38
 44
0.18
 45
0.0
 46
0.0
 47
0.0
 48
0.0
140
0.18
141
0.09
142
0.0
143
25.4
144
1.0
145
0.0
146
1.0
147
0.09
 71
     0
 72
     0
 73
     1
 74
     1
 75
     0
 76
     0
 77
     0
 78
     0
170
     0
171
     2
172
     0
173
     0
174
     0
175
     0
176
     0
177
     0
178
     0
270
     2
271
     4
272
     4
273
     2
274
     2
340
10
275
     0
280
     0
281
     0
282
     0
283
     1
284
     0
285
     0
286
     0
287
     3
288
     0
  0
ENDTAB
  0
TABLE
  2
BLOCK_RECORD
  5
1
330
0
100
AcDbSymbolTable
 70
     8
  0
BLOCK_RECORD
  5
1A
102
{ACAD_XDICTIONARY
360
36A
102
}
330
1
100
AcDbSymbolTableRecord
100
AcDbBlockTableRecord
  2
*MODEL_SPACE
  0
BLOCK_RECORD
  5
17
102
{ACAD_XDICTIONARY
360
368
102
}
330
1
100
AcDbSymbolTableRecord
100
AcDbBlockTableRecord
  2
*PAPER_SPACE
  0
BLOCK_RECORD
  5
B2
330
1
100
AcDbSymbolTableRecord
100
AcDbBlockTableRecord
  2
_OPEN
  0
BLOCK_RECORD
  5
10FA
330
1
100
AcDbSymbolTableRecord
100
AcDbBlockTableRecord
  2
*X1
  0
BLOCK_RECORD
  5
7FE8
330
1
100
AcDbSymbolTableRecord
100
AcDbBlockTableRecord
  2
*D2
  0
BLOCK_RECORD
  5
7FF4
330
1
100
AcDbSymbolTableRecord
100
AcDbBlockTableRecord
  2
*D3
  0
BLOCK_RECORD
  5
8000
330
1
100
AcDbSymbolTableRecord
100
AcDbBlockTableRecord
  2
*D4
  0
BLOCK_RECORD
  5
800C
330
1
100
AcDbSymbolTableRecord
100
AcDbBlockTableRecord
  2
*D5
  0
BLOCK_RECORD
  5
8018
330
1
100
AcDbSymbolTableRecord
100
AcDbBlockTableRecord
  2
*D6
  0
BLOCK_RECORD
  5
8024
330
1
100
AcDbSymbolTableRecord
100
AcDbBlockTableRecord
  2
*D7
  0
ENDTAB
  0
ENDSEC
  0
SECTION
  2
BLOCKS
  0
BLOCK
  5
1B
330
1A
100
AcDbEntity
  8
0
100
AcDbBlockBegin
  2
*MODEL_SPACE
 70
     0
 10
0.0
 20
0.0
 30
0.0
  3
*MODEL_SPACE
  1

  0
ENDBLK
  5
1C
330
1A
100
AcDbEntity
  8
0
100
AcDbBlockEnd
  0
BLOCK
  5
18
330
17
100
AcDbEntity
 67
     1
  8
0
100
AcDbBlockBegin
  2
*PAPER_SPACE
 70
     0
 10
0.0
 20
0.0
 30
0.0
  3
*PAPER_SPACE
  1

  0
ENDBLK
  5
19
330
17
100
AcDbEntity
 67
     1
  8
0
100
AcDbBlockEnd
  0
BLOCK
  5
B3
330
B2
100
AcDbEntity
  8
0
100
AcDbBlockBegin
  2
_OPEN
 70
     0
 10
0.0
 20
0.0
 30
0.0
  3
_OPEN
  1

  0
LINE
  5
B4
330
B2
100
AcDbEntity
  8
0
  6
BYBLOCK
 62
     0
100
AcDbLine
 10
-1.0
 20
0.1666666666666666
 30
0.0
 11
0.0
 21
0.0
 31
0.0
  0
LINE
  5
B5
330
B2
100
AcDbEntity
  8
0
  6
BYBLOCK
 62
     0
100
AcDbLine
 10
0.0
 20
0.0
 30
0.0
 11
-1.0
 21
-0.1666666666666666
 31
0.0
  0
LINE
  5
B6
330
B2
100
AcDbEntity
  8
0
  6
BYBLOCK
 62
     0
100
AcDbLine
 10
0.0
 20
0.0
 30
0.0
 11
-1.0
 21
0.0
 31
0.0
  0
ENDBLK
  5
B7
330
B2
100
AcDbEntity
  8
0
100
AcDbBlockEnd
  0
BLOCK
  5
128E
330
10FA
100
AcDbEntity
  8
0
100
AcDbBlockBegin
  2
*X1
 70
     1
 10
0.0
 20
0.0
 30
0.0
  3
*X1
  1

  0
LINE
  5
10FB
330
10FA
100
AcDbEntity
  8
0
 62
     0
100
AcDbLine
 10
34.52110634279887
 20
11.30208408269516
 30
0.0
 11
34.19819087794135
 21
11.62499954755267
 31
0.0
  0
LINE
  5
10FC
330
10FA
100
AcDbEntity
  8
0
 62
     0
100
AcDbLine
 10
34.52110634279884
 20
10.85307127664168
 30
0.0
 11
33.74917807188788
 21
11.62499954755267
 31
0.0
  0
LINE
  5
10FD
330
10FA
100
AcDbEntity
  8
0
 62
     0
100
AcDbLine
 10
34.52110634279884
 20
10.40405847058823
 30
0.0
 11
33.3105393697914
 21
11.61462544359568
 31
0.0
  0
LINE
  5
10FE
330
10FA
100
AcDbEntity
  8
0
 62
     0
100
AcDbLine
 10
34.52110634279884
 20
9.955045664534793
 30
0.0
 11
33.12110634279884
 21
11.35504566453482
 31
0.0
  0
LINE
  5
10FF
330
10FA
100
AcDbEntity
  8
0
 62
     0
100
AcDbLine
 10
34.52110634279884
 20
9.506032858481347
 30
0.0
 11
33.12110634279881
 21
10.90603285848135
 31
0.0
  0
LINE
  5
1100
330
10FA
100
AcDbEntity
  8
0
 62
     0
100
AcDbLine
 10
34.52110634279884
 20
9.057020052427873
 30
0.0
 11
33.12110634279881
 21
10.4570200524279
 31
0.0
  0
LINE
  5
1101
330
10FA
100
AcDbEntity
  8
0
 62
     0
100
AcDbLine
 10
32.07110634279885
 20
11.05800724637441
 30
0.0
 11
31.50411404162062
 21
11.62499954755267
 31
0.0
  0
LINE
  5
1102
330
10FA
100
AcDbEntity
  8
0
 62
     0
100
AcDbLine
 10
34.52110634279884
 20
8.608007246374427
 30
0.0
 11
33.12110634279881
 21
10.00800724637446
 31
0.0
  0
LINE
  5
1103
330
10FA
100
AcDbEntity
  8
0
 62
     0
100
AcDbLine
 10
32.07110634279885
 20
10.60899444032097
 30
0.0
 11
31.05510123556721
 21
11.62499954755261
 31
0.0
  0
LINE
  5
1104
330
10FA
100
AcDbEntity
  8
0
 62
     0
100
AcDbLine
 10
34.52110634279884
 20
8.158994440320981
 30
0.0
 11
33.12110634279881
 21
9.558994440321015
 31
0.0
  0
LINE
  5
1105
330
10FA
100
AcDbEntity
  8
0
 62
     0
100
AcDbLine
 10
32.07110634279888
 20
10.15998163426746
 30
0.0
 11
30.71835086023028
 21
11.51273711683603
 31
0.0
  0
LINE
  5
1106
330
10FA
100
AcDbEntity
  8
0
 62
     0
100
AcDbLine
 10
34.52110634279881
 20
7.709981634267506
 30
0.0
 11
33.12110634279881
 21
9.109981634267541
 31
0.0
  0
LINE
  5
1107
330
10FA
100
AcDbEntity
  8
0
 62
     0
100
AcDbLine
 10
32.07110634279888
 20
9.710968828213992
 30
0.0
 11
30.67110634279888
 21
11.11096882821402
 31
0.0
  0
LINE
  5
1108
330
10FA
100
AcDbEntity
  8
0
 62
     0
100
AcDbLine
 10
34.52110634279884
 20
7.26096882821406
 30
0.0
 11
33.12110634279881
 21
8.660968828214066
 31
0.0
  0
LINE
  5
1109
330
10FA
100
AcDbEntity
  8
0
 62
     0
100
AcDbLine
 10
32.07110634279888
 20
9.261956022160575
 30
0.0
 11
30.67110634279885
 21
10.66195602216058
 31
0.0
  0
LINE
  5
110A
330
10FA
100
AcDbEntity
  8
0
 62
     0
100
AcDbLine
 10
34.52110634279884
 20
6.811956022160615
 30
0.0
 11
33.12110634279881
 21
8.211956022160649
 31
0.0
  0
LINE
  5
110B
330
10FA
100
AcDbEntity
  8
0
 62
     0
100
AcDbLine
 10
32.07110634279888
 20
8.8129432161071
 30
0.0
 11
30.67110634279885
 21
10.21294321610713
 31
0.0
  0
LINE
  5
110C
330
10FA
100
AcDbEntity
  8
0
 62
     0
100
AcDbLine
 10
34.52110634279881
 20
6.36294321610714
 30
0.0
 11
33.12110634279878
 21
7.762943216107174
 31
0.0
  0
LINE
  5
110D
330
10FA
100
AcDbEntity
  8
0
 62
     0
100
AcDbLine
 10
32.07110634279885
 20
8.363930410053626
 30
0.0
 11
30.67110634279882
 21
9.76393041005366
 31
0.0
  0
LINE
  5
110E
330
10FA
100
AcDbEntity
  8
0
 62
     0
100
AcDbLine
 10
34.52110634279884
 20
5.913930410053637
 30
0.0
 11
33.12110634279878
 21
7.313930410053728
 31
0.0
  0
LINE
  5
110F
330
10FA
100
AcDbEntity
  8
0
 62
     0
100
AcDbLine
 10
32.07110634279888
 20
7.914917604000208
 30
0.0
 11
30.67110634279885
 21
9.314917604000243
 31
0.0
  0
LINE
  5
1110
330
10FA
100
AcDbEntity
  8
0
 62
     0
100
AcDbLine
 10
28.92110634279887
 20
11.06491760400021
 30
0.0
 11
28.36102439924639
 21
11.62499954755267
 31
0.0
  0
LINE
  5
1111
330
10FA
100
AcDbEntity
  8
0
 62
     0
100
AcDbLine
 10
34.52110634279887
 20
5.46491760400022
 30
0.0
 11
33.12110634279881
 21
6.864917604000282
 31
0.0
  0
LINE
  5
1112
330
10FA
100
AcDbEntity
  8
0
 62
     0
100
AcDbLine
 10
32.07110634279885
 20
7.465904797946734
 30
0.0
 11
30.67110634279885
 21
8.865904797946768
 31
0.0
  0
LINE
  5
1113
330
10FA
100
AcDbEntity
  8
0
 62
     0
100
AcDbLine
 10
28.92110634279887
 20
10.61590479794674
 30
0.0
 11
27.91201159319294
 21
11.62499954755267
 31
0.0
  0
LINE
  5
1114
330
10FA
100
AcDbEntity
  8
0
 62
     0
100
AcDbLine
 10
34.52110634279884
 20
5.015904797946745
 30
0.0
 11
33.12110634279884
 21
6.41590479794678
 31
0.0
  0
LINE
  5
1115
330
10FA
100
AcDbEntity
  8
0
 62
     0
100
AcDbLine
 10
32.07110634279885
 20
7.016891991893288
 30
0.0
 11
30.67110634279882
 21
8.416891991893294
 31
0.0
  0
LINE
  5
1116
330
10FA
100
AcDbEntity
  8
0
 62
     0
100
AcDbLine
 10
28.92110634279885
 20
10.16689199189329
 30
0.0
 11
27.57122498113676
 21
11.51677335355538
 31
0.0
  0
LINE
  5
1117
330
10FA
100
AcDbEntity
  8
0
 62
     0
100
AcDbLine
 10
34.52110634279884
 20
4.566891991893299
 30
0.0
 11
33.12110634279881
 21
5.966891991893305
 31
0.0
  0
LINE
  5
1118
330
10FA
100
AcDbEntity
  8
0
 62
     0
100
AcDbLine
 10
32.07110634279888
 20
6.567879185839814
 30
0.0
 11
30.67110634279885
 21
7.967879185839848
 31
0.0
  0
LINE
  5
1119
330
10FA
100
AcDbEntity
  8
0
 62
     0
100
AcDbLine
 10
28.92110634279887
 20
9.717879185839819
 30
0.0
 11
27.52110634279887
 21
11.11787918583979
 31
0.0
  0
LINE
  5
111A
330
10FA
100
AcDbEntity
  8
0
 62
     0
100
AcDbLine
 10
34.52110634279887
 20
4.117879185839825
 30
0.0
 11
33.12110634279884
 21
5.517879185839859
 31
0.0
  0
LINE
  5
111B
330
10FA
100
AcDbEntity
  8
0
 62
     0
100
AcDbLine
 10
32.07110634279885
 20
6.118866379786368
 30
0.0
 11
30.67110634279882
 21
7.518866379786402
 31
0.0
  0
LINE
  5
111C
330
10FA
100
AcDbEntity
  8
0
 62
     0
100
AcDbLine
 10
28.92110634279885
 20
9.268866379786373
 30
0.0
 11
27.52110634279887
 21
10.66886637978637
 31
0.0
  0
LINE
  5
111D
330
10FA
100
AcDbEntity
  8
0
 62
     0
100
AcDbLine
 10
34.48512366535388
 20
3.704849057231371
 30
0.0
 11
33.12110634279881
 21
5.068866379786413
 31
0.0
  0
LINE
  5
111E
330
10FA
100
AcDbEntity
  8
0
 62
     0
100
AcDbLine
 10
32.07110634279885
 20
5.669853573732922
 30
0.0
 11
30.67110634279882
 21
7.069853573732956
 31
0.0
  0
LINE
  5
111F
330
10FA
100
AcDbEntity
  8
0
 62
     0
100
AcDbLine
 10
28.92110634279885
 20
8.819853573732927
 30
0.0
 11
27.52110634279887
 21
10.2198535737329
 31
0.0
  0
LINE
  5
1120
330
10FA
100
AcDbEntity
  8
0
 62
     0
100
AcDbLine
 10
34.16596036897917
 20
3.574999547552607
 30
0.0
 11
33.12110634279881
 21
4.619853573732967
 31
0.0
  0
LINE
  5
1121
330
10FA
100
AcDbEntity
  8
0
 62
     0
100
AcDbLine
 10
28.92110634279885
 20
8.370840767679453
 30
0.0
 11
27.52110634279884
 21
9.770840767679459
 31
0.0
  0
LINE
  5
1122
330
10FA
100
AcDbEntity
  8
0
 62
     0
100
AcDbLine
 10
32.07110634279882
 20
5.220840767679447
 30
0.0
 11
30.67110634279882
 21
6.620840767679482
 31
0.0
  0
LINE
  5
1123
330
10FA
100
AcDbEntity
  8
0
 62
     0
100
AcDbLine
 10
26.20860634279881
 20
11.08334076767945
 30
0.0
 11
25.66694756292565
 21
11.62499954755264
 31
0.0
  0
LINE
  5
1124
330
10FA
100
AcDbEntity
  8
0
 62
     0
100
AcDbLine
 10
33.71694756292569
 20
3.574999547552579
 30
0.0
 11
33.12110634279881
 21
4.170840767679493
 31
0.0
  0
LINE
  5
1125
330
10FA
100
AcDbEntity
  8
0
 62
     0
100
AcDbLine
 10
28.92110634279885
 20
7.921827961626036
 30
0.0
 11
27.52110634279887
 21
9.321827961626013
 31
0.0
  0
LINE
  5
1126
330
10FA
100
AcDbEntity
  8
0
 62
     0
100
AcDbLine
 10
26.20860634279884
 20
10.63432796162604
 30
0.0
 11
25.21793475687221
 21
11.62499954755264
 31
0.0
  0
LINE
  5
1127
330
10FA
100
AcDbEntity
  8
0
 62
     0
100
AcDbLine
 10
32.05812719247609
 20
4.784807111948794
 30
0.0
 11
30.67110634279882
 21
6.171827961626036
 31
0.0
  0
LINE
  5
1128
330
10FA
100
AcDbEntity
  8
0
 62
     0
100
AcDbLine
 10
28.92110634279885
 20
7.472815155572561
 30
0.0
 11
27.52110634279884
 21
8.872815155572538
 31
0.0
  0
LINE
  5
1129
330
10FA
100
AcDbEntity
  8
0
 62
     0
100
AcDbLine
 10
26.1108160697419
 20
10.28310542862951
 30
0.0
 11
24.76892195081876
 21
11.62499954755264
 31
0.0
  0
LINE
  5
112A
330
10FA
100
AcDbEntity
  8
0
 62
     0
100
AcDbLine
 10
31.96163454484747
 20
4.432286953523913
 30
0.0
 11
30.67110634279882
 21
5.72281515557259
 31
0.0
  0
LINE
  5
112B
330
10FA
100
AcDbEntity
  8
0
 62
     0
100
AcDbLine
 10
28.92110634279882
 20
7.023802349519087
 30
0.0
 11
27.52110634279884
 21
8.423802349519093
 31
0.0
  0
LINE
  5
112C
330
10FA
100
AcDbEntity
  8
0
 62
     0
100
AcDbLine
 10
25.71990914476526
 20
10.22499954755264
 30
0.0
 11
24.31990914476529
 21
11.62499954755264
 31
0.0
  0
LINE
  5
112D
330
10FA
100
AcDbEntity
  8
0
 62
     0
100
AcDbLine
 10
31.79911860688565
 20
4.145790085432281
 30
0.0
 11
30.63534847321907
 21
5.309560219098869
 31
0.0
  0
LINE
  5
112E
330
10FA
100
AcDbEntity
  8
0
 62
     0
100
AcDbLine
 10
28.92110634279885
 20
6.574789543465669
 30
0.0
 11
27.52110634279887
 21
7.974789543465647
 31
0.0
  0
LINE
  5
112F
330
10FA
100
AcDbEntity
  8
0
 62
     0
100
AcDbLine
 10
25.27089633871185
 20
10.22499954755267
 30
0.0
 11
23.90211297412315
 21
11.59378291214136
 31
0.0
  0
LINE
  5
1130
330
10FA
100
AcDbEntity
  8
0
 62
     0
100
AcDbLine
 10
31.58309770822313
 20
3.912798178041384
 30
0.0
 11
30.43455565398522
 21
5.061340232279263
 31
0.0
  0
LINE
  5
1131
330
10FA
100
AcDbEntity
  8
0
 62
     0
100
AcDbLine
 10
28.92110634279885
 20
6.125776737412195
 30
0.0
 11
27.52110634279884
 21
7.525776737412201
 31
0.0
  0
LINE
  5
1132
330
10FA
100
AcDbEntity
  8
0
 62
     0
100
AcDbLine
 10
24.82188353265843
 20
10.22499954755261
 30
0.0
 11
23.56979276185652
 21
11.47709031835452
 31
0.0
  0
LINE
  5
1133
330
10FA
100
AcDbEntity
  8
0
 62
     0
100
AcDbLine
 10
31.31501653576012
 20
3.731866544450923
 30
0.0
 11
30.07188353265843
 21
4.974999547552613
 31
0.0
  0
LINE
  5
1134
330
10FA
100
AcDbEntity
  8
0
 62
     0
100
AcDbLine
 10
28.92110634279882
 20
5.676763931358749
 30
0.0
 11
27.52110634279884
 21
7.076763931358726
 31
0.0
  0
LINE
  5
1135
330
10FA
100
AcDbEntity
  8
0
 62
     0
100
AcDbLine
 10
24.38376564061403
 20
10.21410463354354
 30
0.0
 11
23.29849229325142
 21
11.29937798090614
 31
0.0
  0
LINE
  5
1136
330
10FA
100
AcDbEntity
  8
0
 62
     0
100
AcDbLine
 10
30.98681025580441
 20
3.611060018353157
 30
0.0
 11
29.62287072660492
 21
4.974999547552641
 31
0.0
  0
LINE
  5
1137
330
10FA
100
AcDbEntity
  8
0
 62
     0
100
AcDbLine
 10
24.19610634279885
 20
9.95275112530524
 30
0.0
 11
23.07943626372915
 21
11.06942120437494
 31
0.0
  0
LINE
  5
1138
330
10FA
100
AcDbEntity
  8
0
 62
     0
100
AcDbLine
 10
30.57385792055149
 20
3.574999547552607
 30
0.0
 11
27.52110634279882
 21
6.627751125305252
 31
0.0
  0
LINE
  5
1139
330
10FA
100
AcDbEntity
  8
0
 62
     0
100
AcDbLine
 10
24.19610634279885
 20
9.503738319251795
 30
0.0
 11
22.91355080755266
 21
10.78629385449801
 31
0.0
  0
LINE
  5
113A
330
10FA
100
AcDbEntity
  8
0
 62
     0
100
AcDbLine
 10
30.12484511449804
 20
3.574999547552607
 30
0.0
 11
27.52110634279884
 21
6.178738319251834
 31
0.0
  0
LINE
  5
113B
330
10FA
100
AcDbEntity
  8
0
 62
     0
100
AcDbLine
 10
24.29937848335072
 20
8.951453372646483
 30
0.0
 11
22.81246154787061
 21
10.43837030812659
 31
0.0
  0
LINE
  5
113C
330
10FA
100
AcDbEntity
  8
0
 62
     0
100
AcDbLine
 10
29.67583230844454
 20
3.574999547552636
 30
0.0
 11
27.52110634279884
 21
5.72972551319836
 31
0.0
  0
LINE
  5
113D
330
10FA
100
AcDbEntity
  8
0
 62
     0
100
AcDbLine
 10
26.40790819414448
 20
6.393910855799248
 30
0.0
 11
22.79610634279882
 21
10.0057127071449
 31
0.0
  0
LINE
  5
113E
330
10FA
100
AcDbEntity
  8
0
 62
     0
100
AcDbLine
 10
21.7461063427988
 20
11.05571270714489
 30
0.0
 11
21.17681950239108
 21
11.62499954755264
 31
0.0
  0
LINE
  5
113F
330
10FA
100
AcDbEntity
  8
0
 62
     0
100
AcDbLine
 10
29.22681950239112
 20
3.574999547552607
 30
0.0
 11
27.52110634279882
 21
5.280712707144914
 31
0.0
  0
LINE
  5
1140
330
10FA
100
AcDbEntity
  8
0
 62
     0
100
AcDbLine
 10
26.47110634279883
 20
5.881699901091479
 30
0.0
 11
22.79610634279882
 21
9.556699901091462
 31
0.0
  0
LINE
  5
1141
330
10FA
100
AcDbEntity
  8
0
 62
     0
100
AcDbLine
 10
21.74610634279884
 20
10.60669990109147
 30
0.0
 11
20.72780669633766
 21
11.62499954755261
 31
0.0
  0
LINE
  5
1142
330
10FA
100
AcDbEntity
  8
0
 62
     0
100
AcDbLine
 10
28.76958275696526
 20
3.583223486925049
 30
0.0
 11
27.52933028217126
 21
4.823475961719026
 31
0.0
  0
LINE
  5
1143
330
10FA
100
AcDbEntity
  8
0
 62
     0
100
AcDbLine
 10
21.7461063427988
 20
10.15768709503799
 30
0.0
 11
20.3924113989112
 21
11.51138203892563
 31
0.0
  0
LINE
  5
1144
330
10FA
100
AcDbEntity
  8
0
 62
     0
100
AcDbLine
 10
26.47110634279883
 20
5.432687095038005
 30
0.0
 11
22.80781167674007
 21
9.095981761096737
 31
0.0
  0
LINE
  5
1145
330
10FA
100
AcDbEntity
  8
0
 62
     0
100
AcDbLine
 10
21.7461063427988
 20
9.708674288984553
 30
0.0
 11
20.34610634279883
 21
11.10867428898453
 31
0.0
  0
LINE
  5
1146
330
10FA
100
AcDbEntity
  8
0
 62
     0
100
AcDbLine
 10
26.47110634279886
 20
4.983674288984502
 30
0.0
 11
22.96687138566017
 21
8.487909246123194
 31
0.0
  0
LINE
  5
1147
330
10FA
100
AcDbEntity
  8
0
 62
     0
100
AcDbLine
 10
21.74610634279884
 20
9.259661482931079
 30
0.0
 11
20.34610634279883
 21
10.65966148293105
 31
0.0
  0
LINE
  5
1148
330
10FA
100
AcDbEntity
  8
0
 62
     0
100
AcDbLine
 10
26.41682543400432
 20
4.588942391725595
 30
0.0
 11
25.06900803948511
 21
5.936759786244806
 31
0.0
  0
LINE
  5
1149
330
10FA
100
AcDbEntity
  8
0
 62
     0
100
AcDbLine
 10
21.7461063427988
 20
8.810648676877661
 30
0.0
 11
20.34610634279883
 21
10.21064867687764
 31
0.0
  0
LINE
  5
114A
330
10FA
100
AcDbEntity
  8
0
 62
     0
100
AcDbLine
 10
19.20036289251032
 20
11.35639212716614
 30
0.0
 11
18.93175547212382
 21
11.62499954755264
 31
0.0
  0
LINE
  5
114B
330
10FA
100
AcDbEntity
  8
0
 62
     0
100
AcDbLine
 10
26.28288758012348
 20
4.273867439552986
 30
0.0
 11
25.07110634279888
 21
5.485648676877588
 31
0.0
  0
LINE
  5
114C
330
10FA
100
AcDbEntity
  8
0
 62
     0
100
AcDbLine
 10
21.7461063427988
 20
8.361635870824187
 30
0.0
 11
20.3461063427988
 21
9.761635870824164
 31
0.0
  0
LINE
  5
114D
330
10FA
100
AcDbEntity
  8
0
 62
     0
100
AcDbLine
 10
19.10089906038402
 20
11.00684315323897
 30
0.0
 11
18.48274266607032
 21
11.62499954755267
 31
0.0
  0
LINE
  5
114E
330
10FA
100
AcDbEntity
  8
0
 62
     0
100
AcDbLine
 10
26.09139418103584
 20
4.016348032587131
 30
0.0
 11
25.02246375135559
 21
5.085278462267382
 31
0.0
  0
LINE
  5
114F
330
10FA
100
AcDbEntity
  8
0
 62
     0
100
AcDbLine
 10
21.74610634279878
 20
7.912623064770713
 30
0.0
 11
20.3461063427988
 21
9.312623064770718
 31
0.0
  0
LINE
  5
1150
330
10FA
100
AcDbEntity
  8
0
 62
     0
100
AcDbLine
 10
18.9931359869312
 20
10.66559342063831
 30
0.0
 11
18.03852820519585
 21
11.62020120237363
 31
0.0
  0
LINE
  5
1151
330
10FA
100
AcDbEntity
  8
0
 62
     0
100
AcDbLine
 10
25.84823469847799
 20
3.8104947090915
 30
0.0
 11
24.68372986001691
 21
4.974999547552613
 31
0.0
  0
LINE
  5
1152
330
10FA
100
AcDbEntity
  8
0
 62
     0
100
AcDbLine
 10
21.7461063427988
 20
7.463610258717295
 30
0.0
 11
20.34610634279886
 21
8.863610258717244
 31
0.0
  0
LINE
  5
1153
330
10FA
100
AcDbEntity
  8
0
 62
     0
100
AcDbLine
 10
18.88537291347839
 20
10.32434368803768
 30
0.0
 11
17.82137291347837
 21
11.38834368803773
 31
0.0
  0
LINE
  5
1154
330
10FA
100
AcDbEntity
  8
0
 62
     0
100
AcDbLine
 10
25.55019272424781
 20
3.65952387726827
 30
0.0
 11
24.23471705396349
 21
4.974999547552613
 31
0.0
  0
LINE
  5
1155
330
10FA
100
AcDbEntity
  8
0
 62
     0
100
AcDbLine
 10
21.7461063427988
 20
7.014597452663821
 30
0.0
 11
20.34610634279886
 21
8.41459745266377
 31
0.0
  0
LINE
  5
1156
330
10FA
100
AcDbEntity
  8
0
 62
     0
100
AcDbLine
 10
18.77760984002551
 20
9.983093955437112
 30
0.0
 11
17.71360984002549
 21
11.04709395543713
 31
0.0
  0
LINE
  5
1157
330
10FA
100
AcDbEntity
  8
0
 62
     0
100
AcDbLine
 10
25.18135639842407
 20
3.57934739703856
 30
0.0
 11
23.78570424790999
 21
4.974999547552641
 31
0.0
  0
LINE
  5
1158
330
10FA
100
AcDbEntity
  8
0
 62
     0
100
AcDbLine
 10
21.74610634279878
 20
6.565584646610375
 30
0.0
 11
20.34610634279883
 21
7.965584646610295
 31
0.0
  0
LINE
  5
1159
330
10FA
100
AcDbEntity
  8
0
 62
     0
100
AcDbLine
 10
18.6698467665727
 20
9.641844222836425
 30
0.0
 11
17.60584676657268
 21
10.70584422283647
 31
0.0
  0
LINE
  5
115A
330
10FA
100
AcDbEntity
  8
0
 62
     0
100
AcDbLine
 10
24.73669144185655
 20
3.574999547552607
 30
0.0
 11
23.33669144185648
 21
4.97499954755267
 31
0.0
  0
LINE
  5
115B
330
10FA
100
AcDbEntity
  8
0
 62
     0
100
AcDbLine
 10
21.7461063427988
 20
6.116571840556929
 30
0.0
 11
20.34610634279886
 21
7.516571840556878
 31
0.0
  0
LINE
  5
115C
330
10FA
100
AcDbEntity
  8
0
 62
     0
100
AcDbLine
 10
18.56208369311985
 20
9.30059449023588
 30
0.0
 11
17.49808369311983
 21
10.3645944902359
 31
0.0
  0
LINE
  5
115D
330
10FA
100
AcDbEntity
  8
0
 62
     0
100
AcDbLine
 10
24.2876786358031
 20
3.574999547552636
 30
0.0
 11
23.07087278715493
 21
4.7918053962008
 31
0.0
  0
LINE
  5
115E
330
10FA
100
AcDbEntity
  8
0
 62
     0
100
AcDbLine
 10
18.45432061966707
 20
8.959344757635193
 30
0.0
 11
17.39032061966702
 21
10.02334475763521
 31
0.0
  0
LINE
  5
115F
330
10FA
100
AcDbEntity
  8
0
 62
     0
100
AcDbLine
 10
21.74610634279878
 20
5.667559034503454
 30
0.0
 11
20.34610634279883
 21
7.067559034503403
 31
0.0
  0
LINE
  5
1160
330
10FA
100
AcDbEntity
  8
0
 62
     0
100
AcDbLine
 10
16.32110634279885
 20
11.09255903450341
 30
0.0
 11
15.78866582974959
 21
11.62499954755267
 31
0.0
  0
LINE
  5
1161
330
10FA
100
AcDbEntity
  8
0
 62
     0
100
AcDbLine
 10
23.83866582974965
 20
3.574999547552607
 30
0.0
 11
23.05860634279886
 21
4.355059034503398
 31
0.0
  0
LINE
  5
1162
330
10FA
100
AcDbEntity
  8
0
 62
     0
100
AcDbLine
 10
18.34655754621417
 20
8.618095025034591
 30
0.0
 11
17.28255754621415
 21
9.682095025034641
 31
0.0
  0
LINE
  5
1163
330
10FA
100
AcDbEntity
  8
0
 62
     0
100
AcDbLine
 10
21.7461063427988
 20
5.218546228449952
 30
0.0
 11
20.34610634279883
 21
6.618546228449957
 31
0.0
  0
LINE
  5
1164
330
10FA
100
AcDbEntity
  8
0
 62
     0
100
AcDbLine
 10
16.32110634279885
 20
10.64354622844993
 30
0.0
 11
15.33965302369617
 21
11.62499954755261
 31
0.0
  0
LINE
  5
1165
330
10FA
100
AcDbEntity
  8
0
 62
     0
100
AcDbLine
 10
23.38965302369618
 20
3.574999547552607
 30
0.0
 11
23.05860634279884
 21
3.906046228449952
 31
0.0
  0
LINE
  5
1166
330
10FA
100
AcDbEntity
  8
0
 62
     0
100
AcDbLine
 10
18.23879447276138
 20
8.276845292433932
 30
0.0
 11
17.17479447276136
 21
9.340845292433954
 31
0.0
  0
LINE
  5
1167
330
10FA
100
AcDbEntity
  8
0
 62
     0
100
AcDbLine
 10
16.32110634279888
 20
10.19453342239643
 30
0.0
 11
14.98338387834999
 21
11.53225588684531
 31
0.0
  0
LINE
  5
1168
330
10FA
100
AcDbEntity
  8
0
 62
     0
100
AcDbLine
 10
21.7461063427988
 20
4.769533422396506
 30
0.0
 11
20.34610634279883
 21
6.169533422396483
 31
0.0
  0
LINE
  5
1169
330
10FA
100
AcDbEntity
  8
0
 62
     0
100
AcDbLine
 10
18.13103139930854
 20
7.935595559833359
 30
0.0
 11
17.06703139930849
 21
8.999595559833409
 31
0.0
  0
LINE
  5
116A
330
10FA
100
AcDbEntity
  8
0
 62
     0
100
AcDbLine
 10
16.32110634279888
 20
9.745520616342986
 30
0.0
 11
14.92110634279882
 21
11.14552061634307
 31
0.0
  0
LINE
  5
116B
330
10FA
100
AcDbEntity
  8
0
 62
     0
100
AcDbLine
 10
21.74610634279884
 20
4.32052061634306
 30
0.0
 11
20.34610634279883
 21
5.720520616343065
 31
0.0
  0
LINE
  5
116C
330
10FA
100
AcDbEntity
  8
0
 62
     0
100
AcDbLine
 10
18.02848714461257
 20
7.589127008475855
 30
0.0
 11
16.9592683258557
 21
8.658345827232722
 31
0.0
  0
LINE
  5
116D
330
10FA
100
AcDbEntity
  8
0
 62
     0
100
AcDbLine
 10
16.32110634279888
 20
9.29650781028954
 30
0.0
 11
14.92110634279882
 21
10.6965078102896
 31
0.0
  0
LINE
  5
116E
330
10FA
100
AcDbEntity
  8
0
 62
     0
100
AcDbLine
 10
21.7461063427988
 20
3.871507810289614
 30
0.0
 11
20.34610634279886
 21
5.271507810289534
 31
0.0
  0
LINE
  5
116F
330
10FA
100
AcDbEntity
  8
0
 62
     0
100
AcDbLine
 10
18.23572382432962
 20
6.932877522705325
 30
0.0
 11
16.8139945780133
 21
8.354606769021643
 31
0.0
  0
LINE
  5
1170
330
10FA
100
AcDbEntity
  8
0
 62
     0
100
AcDbLine
 10
16.32110634279885
 20
8.847495004236066
 30
0.0
 11
14.92110634279879
 21
10.24749500423612
 31
0.0
  0
LINE
  5
1171
330
10FA
100
AcDbEntity
  8
0
 62
     0
100
AcDbLine
 10
21.57658384413261
 20
3.592017502902336
 30
0.0
 11
20.34610634279886
 21
4.822495004236088
 31
0.0
  0
LINE
  5
1172
330
10FA
100
AcDbEntity
  8
0
 62
     0
100
AcDbLine
 10
18.44296050404659
 20
6.276628036934937
 30
0.0
 11
14.92110634279882
 21
9.798482198182711
 31
0.0
  0
LINE
  5
1173
330
10FA
100
AcDbEntity
  8
0
 62
     0
100
AcDbLine
 10
13.69610634279888
 20
11.02348219818264
 30
0.0
 11
13.09458899342885
 21
11.62499954755264
 31
0.0
  0
LINE
  5
1174
330
10FA
100
AcDbEntity
  8
0
 62
     0
100
AcDbLine
 10
21.14458899342889
 20
3.574999547552636
 30
0.0
 11
20.34610634279886
 21
4.373482198182642
 31
0.0
  0
LINE
  5
1175
330
10FA
100
AcDbEntity
  8
0
 62
     0
100
AcDbLine
 10
18.65019718376359
 20
5.620378551164463
 30
0.0
 11
14.92110634279879
 21
9.349469392129236
 31
0.0
  0
LINE
  5
1176
330
10FA
100
AcDbEntity
  8
0
 62
     0
100
AcDbLine
 10
13.69610634279888
 20
10.57446939212917
 30
0.0
 11
12.64557618737544
 21
11.62499954755261
 31
0.0
  0
LINE
  5
1177
330
10FA
100
AcDbEntity
  8
0
 62
     0
100
AcDbLine
 10
20.69557618737542
 20
3.574999547552636
 30
0.0
 11
20.34610634279886
 21
3.924469392129196
 31
0.0
  0
LINE
  5
1178
330
10FA
100
AcDbEntity
  8
0
 62
     0
100
AcDbLine
 10
13.56265299510374
 20
10.25890993377083
 30
0.0
 11
12.21254213599803
 21
11.60902079287652
 31
0.0
  0
LINE
  5
1179
330
10FA
100
AcDbEntity
  8
0
 62
     0
100
AcDbLine
 10
18.85743386348056
 20
4.964129065394018
 30
0.0
 11
14.92110634279879
 21
8.90045658607579
 31
0.0
  0
LINE
  5
117A
330
10FA
100
AcDbEntity
  8
0
 62
     0
100
AcDbLine
 10
16.48986080396957
 20
6.882689318851561
 30
0.0
 11
14.92110634279885
 21
8.451443780022287
 31
0.0
  0
LINE
  5
117B
330
10FA
100
AcDbEntity
  8
0
 62
     0
100
AcDbLine
 10
13.14755057526849
 20
10.22499954755264
 30
0.0
 11
11.8435206012044
 21
11.52902952161673
 31
0.0
  0
LINE
  5
117C
330
10FA
100
AcDbEntity
  8
0
 62
     0
100
AcDbLine
 10
19.06467054319759
 20
4.307879579623545
 30
0.0
 11
17.01851669704359
 21
6.354033425777544
 31
0.0
  0
LINE
  5
117D
330
10FA
100
AcDbEntity
  8
0
 62
     0
100
AcDbLine
 10
16.32110634279891
 20
6.602430973968779
 30
0.0
 11
14.92110634279885
 21
8.002430973968841
 31
0.0
  0
LINE
  5
117E
330
10FA
100
AcDbEntity
  8
0
 62
     0
100
AcDbLine
 10
12.69853776921502
 20
10.22499954755264
 30
0.0
 11
11.52415989328903
 21
11.39937742347862
 31
0.0
  0
LINE
  5
117F
330
10FA
100
AcDbEntity
  8
0
 62
     0
100
AcDbLine
 10
19.18218997205284
 20
3.741347344714853
 30
0.0
 11
17.22575337676056
 21
5.697783940007127
 31
0.0
  0
LINE
  5
1180
330
10FA
100
AcDbEntity
  8
0
 62
     0
100
AcDbLine
 10
16.32110634279885
 20
6.153418167915361
 30
0.0
 11
14.92110634279882
 21
7.553418167915395
 31
0.0
  0
LINE
  5
1181
330
10FA
100
AcDbEntity
  8
0
 62
     0
100
AcDbLine
 10
12.27698101794325
 20
10.19754349277096
 30
0.0
 11
11.24478540562176
 21
11.22973910509244
 31
0.0
  0
LINE
  5
1182
330
10FA
100
AcDbEntity
  8
0
 62
     0
100
AcDbLine
 10
18.89952496316155
 20
3.574999547552664
 30
0.0
 11
17.43299005647756
 21
5.041534454236654
 31
0.0
  0
LINE
  5
1183
330
10FA
100
AcDbEntity
  8
0
 62
     0
100
AcDbLine
 10
16.32110634279885
 20
5.704405361861887
 30
0.0
 11
14.92110634279882
 21
7.104405361861921
 31
0.0
  0
LINE
  5
1184
330
10FA
100
AcDbEntity
  8
0
 62
     0
100
AcDbLine
 10
11.99105292152376
 20
10.03445878313698
 30
0.0
 11
11.00095780131587
 21
11.02455390334486
 31
0.0
  0
LINE
  5
1185
330
10FA
100
AcDbEntity
  8
0
 62
     0
100
AcDbLine
 10
18.4505121571081
 20
3.574999547552636
 30
0.0
 11
17.6402267361945
 21
4.385284968466237
 31
0.0
  0
LINE
  5
1186
330
10FA
100
AcDbEntity
  8
0
 62
     0
100
AcDbLine
 10
13.86382090919767
 20
7.712677989409655
 30
0.0
 11
13.10878478465579
 21
8.467714113951501
 31
0.0
  0
LINE
  5
1187
330
10FA
100
AcDbEntity
  8
0
 62
     0
100
AcDbLine
 10
16.32110634279885
 20
5.255392555808469
 30
0.0
 11
14.92110634279882
 21
6.655392555808475
 31
0.0
  0
LINE
  5
1188
330
10FA
100
AcDbEntity
  8
0
 62
     0
100
AcDbLine
 10
11.81299213645928
 20
9.76350676214804
 30
0.0
 11
10.79127478831026
 21
10.78522411029706
 31
0.0
  0
LINE
  5
1189
330
10FA
100
AcDbEntity
  8
0
 62
     0
100
AcDbLine
 10
17.97633284895226
 20
3.600166049655058
 30
0.0
 11
17.85115576315692
 21
3.725343135450401
 31
0.0
  0
LINE
  5
118A
330
10FA
100
AcDbEntity
  8
0
 62
     0
100
AcDbLine
 10
13.82056407912671
 20
7.30692201342714
 30
0.0
 11
12.70302880867328
 21
8.424457283880542
 31
0.0
  0
LINE
  5
118B
330
10FA
100
AcDbEntity
  8
0
 62
     0
100
AcDbLine
 10
11.77110634279887
 20
9.356379749754978
 30
0.0
 11
10.61680527782942
 21
10.51068081472442
 31
0.0
  0
LINE
  5
118C
330
10FA
100
AcDbEntity
  8
0
 62
     0
100
AcDbLine
 10
16.32110634279885
 20
4.806379749754995
 30
0.0
 11
14.92110634279882
 21
6.206379749755029
 31
0.0
  0
LINE
  5
118D
330
10FA
100
AcDbEntity
  8
0
 62
     0
100
AcDbLine
 10
13.65463629947771
 20
7.023836987022662
 30
0.0
 11
12.41994378226883
 21
8.258529504231546
 31
0.0
  0
LINE
  5
118E
330
10FA
100
AcDbEntity
  8
0
 62
     0
100
AcDbLine
 10
11.77110634279884
 20
8.907366943701532
 30
0.0
 11
10.48151542422434
 21
10.19695786227603
 31
0.0
  0
LINE
  5
118F
330
10FA
100
AcDbEntity
  8
0
 62
     0
100
AcDbLine
 10
16.32110634279882
 20
4.357366943701521
 30
0.0
 11
14.92110634279882
 21
5.757366943701555
 31
0.0
  0
LINE
  5
1190
330
10FA
100
AcDbEntity
  8
0
 62
     0
100
AcDbLine
 10
11.77110634279887
 20
8.458354137648086
 30
0.0
 11
10.39415848776141
 21
9.835301992685543
 31
0.0
  0
LINE
  5
1191
330
10FA
100
AcDbEntity
  8
0
 62
     0
100
AcDbLine
 10
13.40371957840946
 20
6.825740902037495
 30
0.0
 11
12.22184769728366
 21
8.007612783163295
 31
0.0
  0
LINE
  5
1192
330
10FA
100
AcDbEntity
  8
0
 62
     0
100
AcDbLine
 10
9.05860634279881
 20
11.17085413764812
 30
0.0
 11
8.604460932894284
 21
11.62499954755267
 31
0.0
  0
LINE
  5
1193
330
10FA
100
AcDbEntity
  8
0
 62
     0
100
AcDbLine
 10
16.32110634279885
 20
3.908354137648103
 30
0.0
 11
14.92110634279882
 21
5.308354137648137
 31
0.0
  0
LINE
  5
1194
330
10FA
100
AcDbEntity
  8
0
 62
     0
100
AcDbLine
 10
11.77110634279884
 20
8.009341331594612
 30
0.0
 11
10.37110634279878
 21
9.409341331594703
 31
0.0
  0
LINE
  5
1195
330
10FA
100
AcDbEntity
  8
0
 62
     0
100
AcDbLine
 10
13.05355985719575
 20
6.726887817197734
 30
0.0
 11
12.12299461244387
 21
7.657453061949581
 31
0.0
  0
LINE
  5
1196
330
10FA
100
AcDbEntity
  8
0
 62
     0
100
AcDbLine
 10
9.05860634279881
 20
10.72184133159467
 30
0.0
 11
8.155448126840809
 21
11.62499954755264
 31
0.0
  0
LINE
  5
1197
330
10FA
100
AcDbEntity
  8
0
 62
     0
100
AcDbLine
 10
16.17715444216349
 20
3.603293232229987
 30
0.0
 11
14.92110634279882
 21
4.859341331594663
 31
0.0
  0
LINE
  5
1198
330
10FA
100
AcDbEntity
  8
0
 62
     0
100
AcDbLine
 10
11.77110634279884
 20
7.560328525541166
 30
0.0
 11
10.37110634279878
 21
8.960328525541228
 31
0.0
  0
LINE
  5
1199
330
10FA
100
AcDbEntity
  8
0
 62
     0
100
AcDbLine
 10
9.004089357663644
 20
10.32734551067636
 30
0.0
 11
7.706435320787363
 21
11.62499954755264
 31
0.0
  0
LINE
  5
119A
330
10FA
100
AcDbEntity
  8
0
 62
     0
100
AcDbLine
 10
15.7564353207874
 20
3.574999547552579
 30
0.0
 11
14.92110634279879
 21
4.410328525541189
 31
0.0
  0
LINE
  5
119B
330
10FA
100
AcDbEntity
  8
0
 62
     0
100
AcDbLine
 10
11.77110634279884
 20
7.111315719487691
 30
0.0
 11
10.37110634279875
 21
8.511315719487754
 31
0.0
  0
LINE
  5
119C
330
10FA
100
AcDbEntity
  8
0
 62
     0
100
AcDbLine
 10
8.657422514733895
 20
10.22499954755264
 30
0.0
 11
7.257422514733889
 21
11.62499954755261
 31
0.0
  0
LINE
  5
119D
330
10FA
100
AcDbEntity
  8
0
 62
     0
100
AcDbLine
 10
15.3074225147339
 20
3.574999547552607
 30
0.0
 11
14.92110634279879
 21
3.961315719487743
 31
0.0
  0
LINE
  5
119E
330
10FA
100
AcDbEntity
  8
0
 62
     0
100
AcDbLine
 10
11.77110634279884
 20
6.662302913434274
 30
0.0
 11
10.37110634279878
 21
8.062302913434336
 31
0.0
  0
LINE
  5
119F
330
10FA
100
AcDbEntity
  8
0
 62
     0
100
AcDbLine
 10
8.208409708680477
 20
10.22499954755261
 30
0.0
 11
6.825845072628055
 21
11.60756418360506
 31
0.0
  0
LINE
  5
11A0
330
10FA
100
AcDbEntity
  8
0
 62
     0
100
AcDbLine
 10
13.69480511838031
 20
4.738604137852775
 30
0.0
 11
13.45971093309896
 21
4.973698323134158
 31
0.0
  0
LINE
  5
11A1
330
10FA
100
AcDbEntity
  8
0
 62
     0
100
AcDbLine
 10
11.77110634279884
 20
6.2132901073808
 30
0.0
 11
10.37110634279881
 21
7.613290107380834
 31
0.0
  0
LINE
  5
11A2
330
10FA
100
AcDbEntity
  8
0
 62
     0
100
AcDbLine
 10
7.759396902626974
 20
10.22499954755264
 30
0.0
 11
6.479277668388817
 21
11.50511878179082
 31
0.0
  0
LINE
  5
11A3
330
10FA
100
AcDbEntity
  8
0
 62
     0
100
AcDbLine
 10
13.69610634279885
 20
4.28829010738076
 30
0.0
 11
13.009396902627
 21
4.974999547552641
 31
0.0
  0
LINE
  5
11A4
330
10FA
100
AcDbEntity
  8
0
 62
     0
100
AcDbLine
 10
11.77110634279881
 20
5.764277301327325
 30
0.0
 11
10.37110634279881
 21
7.164277301327359
 31
0.0
  0
LINE
  5
11A5
330
10FA
100
AcDbEntity
  8
0
 62
     0
100
AcDbLine
 10
7.310384096573528
 20
10.22499954755264
 30
0.0
 11
6.197154338465225
 21
11.33822930566094
 31
0.0
  0
LINE
  5
11A6
330
10FA
100
AcDbEntity
  8
0
 62
     0
100
AcDbLine
 10
13.69610634279885
 20
3.839277301327314
 30
0.0
 11
12.56038409657352
 21
4.974999547552641
 31
0.0
  0
LINE
  5
11A7
330
10FA
100
AcDbEntity
  8
0
 62
     0
100
AcDbLine
 10
7.055237682766289
 20
10.03113315530643
 30
0.0
 11
5.968107932344821
 21
11.1182629057279
 31
0.0
  0
LINE
  5
11A8
330
10FA
100
AcDbEntity
  8
0
 62
     0
100
AcDbLine
 10
13.50223995055262
 20
3.584130887520132
 30
0.0
 11
10.37110634279881
 21
6.715264495273942
 31
0.0
  0
LINE
  5
11A9
330
10FA
100
AcDbEntity
  8
0
 62
     0
100
AcDbLine
 10
7.046106342798879
 20
9.591251689220399
 30
0.0
 11
5.791367331110308
 21
10.84599070090897
 31
0.0
  0
LINE
  5
11AA
330
10FA
100
AcDbEntity
  8
0
 62
     0
100
AcDbLine
 10
13.06235848446667
 20
3.574999547552607
 30
0.0
 11
10.37110634279881
 21
6.266251689220467
 31
0.0
  0
LINE
  5
11AB
330
10FA
100
AcDbEntity
  8
0
 62
     0
100
AcDbLine
 10
7.077174196866678
 20
9.111171029099125
 30
0.0
 11
5.675927279963417
 21
10.51241794600238
 31
0.0
  0
LINE
  5
11AC
330
10FA
100
AcDbEntity
  8
0
 62
     0
100
AcDbLine
 10
12.61334567841319
 20
3.574999547552607
 30
0.0
 11
10.37110634279878
 21
5.817238883166993
 31
0.0
  0
LINE
  5
11AD
330
10FA
100
AcDbEntity
  8
0
 62
     0
100
AcDbLine
 10
9.223294388410153
 20
6.516038031502176
 30
0.0
 11
5.646106342798844
 21
10.09322607711351
 31
0.0
  0
LINE
  5
11AE
330
10FA
100
AcDbEntity
  8
0
 62
     0
100
AcDbLine
 10
12.13769682883139
 20
3.601635591080963
 30
0.0
 11
10.39774238632711
 21
5.341590033585248
 31
0.0
  0
LINE
  5
11AF
330
10FA
100
AcDbEntity
  8
0
 62
     0
100
AcDbLine
 10
9.319241645452763
 20
5.971077968406149
 30
0.0
 11
5.646106342798844
 21
9.644213271060067
 31
0.0
  0
LINE
  5
11B0
330
10FA
100
AcDbEntity
  8
0
 62
     0
100
AcDbLine
 10
11.45079287253059
 20
3.839526741328285
 30
0.0
 11
10.6356335365744
 21
4.654686077284509
 31
0.0
  0
LINE
  5
11B1
330
10FA
100
AcDbEntity
  8
0
 62
     0
100
AcDbLine
 10
9.321106342798856
 20
5.520200465006553
 30
0.0
 11
5.649888566509957
 21
9.191418241295451
 31
0.0
  0
LINE
  5
11B2
330
10FA
100
AcDbEntity
  8
0
 62
     0
100
AcDbLine
 10
9.321106342798884
 20
5.07118765895305
 30
0.0
 11
5.761533945671885
 21
8.630760056080049
 31
0.0
  0
LINE
  5
11B3
330
10FA
100
AcDbEntity
  8
0
 62
     0
100
AcDbLine
 10
9.284846344732812
 20
4.658434850965733
 30
0.0
 11
7.903150522923311
 21
6.040130672775234
 31
0.0
  0
LINE
  5
11B4
330
10FA
100
AcDbEntity
  8
0
 62
     0
100
AcDbLine
 10
9.16387737521839
 20
4.33039101442668
 30
0.0
 11
7.921106342798879
 21
5.573162046846192
 31
0.0
  0
LINE
  5
11B5
330
10FA
100
AcDbEntity
  8
0
 62
     0
100
AcDbLine
 10
8.982817751527505
 20
4.062437832064091
 30
0.0
 11
7.903156826648455
 21
5.142098756943113
 31
0.0
  0
LINE
  5
11B6
330
10FA
100
AcDbEntity
  8
0
 62
     0
100
AcDbLine
 10
8.749704565394068
 20
3.846538212144082
 30
0.0
 11
7.621243229985509
 21
4.97499954755267
 31
0.0
  0
LINE
  5
11B7
330
10FA
100
AcDbEntity
  8
0
 62
     0
100
AcDbLine
 10
8.463072341527663
 20
3.684157629957041
 30
0.0
 11
7.172230423932035
 21
4.974999547552641
 31
0.0
  0
LINE
  5
11B8
330
10FA
100
AcDbEntity
  8
0
 62
     0
100
AcDbLine
 10
8.110366046984694
 20
3.587851118446536
 30
0.0
 11
6.723217617878589
 21
4.974999547552641
 31
0.0
  0
LINE
  5
11B9
330
10FA
100
AcDbEntity
  8
0
 62
     0
100
AcDbLine
 10
7.674204811825148
 20
3.574999547552607
 30
0.0
 11
6.274204811825171
 21
4.974999547552584
 31
0.0
  0
LINE
  5
11BA
330
10FA
100
AcDbEntity
  8
0
 62
     0
100
AcDbLine
 10
7.225192005771702
 20
3.574999547552607
 30
0.0
 11
5.948530058362763
 21
4.851661494961575
 31
0.0
  0
LINE
  5
11BB
330
10FA
100
AcDbEntity
  8
0
 62
     0
100
AcDbLine
 10
6.7761791997182
 20
3.574999547552636
 30
0.0
 11
5.908606342798805
 21
4.442572404472031
 31
0.0
  0
LINE
  5
11BC
330
10FA
100
AcDbEntity
  8
0
 62
     0
100
AcDbLine
 10
6.327166393664754
 20
3.574999547552636
 30
0.0
 11
5.908606342798805
 21
3.993559598418585
 31
0.0
  0
LINE
  5
11BD
330
10FA
100
AcDbEntity
  8
0
 62
     0
100
AcDbLine
 10
34.31694998513225
 20
3.581565436111389
 30
0.0
 11
34.51454045424014
 21
3.779155905219283
 31
0.0
  0
LINE
  5
11BE
330
10FA
100
AcDbEntity
  8
0
 62
     0
100
AcDbLine
 10
33.86137129052002
 20
3.574999547552579
 30
0.0
 11
34.5211063427989
 21
4.234734599831455
 31
0.0
  0
LINE
  5
11BF
330
10FA
100
AcDbEntity
  8
0
 62
     0
100
AcDbLine
 10
33.41235848446661
 20
3.574999547552636
 30
0.0
 11
34.5211063427989
 21
4.683747405884929
 31
0.0
  0
LINE
  5
11C0
330
10FA
100
AcDbEntity
  8
0
 62
     0
100
AcDbLine
 10
33.1367051244247
 20
3.748358993564181
 30
0.0
 11
34.5211063427989
 21
5.132760211938375
 31
0.0
  0
LINE
  5
11C1
330
10FA
100
AcDbEntity
  8
0
 62
     0
100
AcDbLine
 10
33.12110634279884
 20
4.181773017991787
 30
0.0
 11
34.52110634279887
 21
5.581773017991821
 31
0.0
  0
LINE
  5
11C2
330
10FA
100
AcDbEntity
  8
0
 62
     0
100
AcDbLine
 10
33.12110634279886
 20
4.630785824045261
 30
0.0
 11
34.5211063427989
 21
6.030785824045267
 31
0.0
  0
LINE
  5
11C3
330
10FA
100
AcDbEntity
  8
0
 62
     0
100
AcDbLine
 10
33.12110634279886
 20
5.079798630098707
 30
0.0
 11
34.52110634279887
 21
6.479798630098741
 31
0.0
  0
LINE
  5
11C4
330
10FA
100
AcDbEntity
  8
0
 62
     0
100
AcDbLine
 10
33.12110634279884
 20
5.528811436152182
 30
0.0
 11
34.52110634279887
 21
6.928811436152216
 31
0.0
  0
LINE
  5
11C5
330
10FA
100
AcDbEntity
  8
0
 62
     0
100
AcDbLine
 10
31.3343887738313
 20
3.742093867184649
 30
0.0
 11
31.90401202316692
 21
4.31171711652027
 31
0.0
  0
LINE
  5
11C6
330
10FA
100
AcDbEntity
  8
0
 62
     0
100
AcDbLine
 10
33.12110634279886
 20
5.977824242205599
 30
0.0
 11
34.5211063427989
 21
7.377824242205633
 31
0.0
  0
LINE
  5
11C7
330
10FA
100
AcDbEntity
  8
0
 62
     0
100
AcDbLine
 10
30.71910469057005
 20
3.575822589976809
 30
0.0
 11
32.07028330037479
 21
4.927001199781528
 31
0.0
  0
LINE
  5
11C8
330
10FA
100
AcDbEntity
  8
0
 62
     0
100
AcDbLine
 10
33.12110634279884
 20
6.426837048259073
 30
0.0
 11
34.52110634279887
 21
7.826837048259108
 31
0.0
  0
LINE
  5
11C9
330
10FA
100
AcDbEntity
  8
0
 62
     0
100
AcDbLine
 10
30.2692688420924
 20
3.574999547552607
 30
0.0
 11
32.07110634279894
 21
5.376837048259147
 31
0.0
  0
LINE
  5
11CA
330
10FA
100
AcDbEntity
  8
0
 62
     0
100
AcDbLine
 10
33.12110634279884
 20
6.875849854312548
 30
0.0
 11
34.52110634279887
 21
8.275849854312554
 31
0.0
  0
LINE
  5
11CB
330
10FA
100
AcDbEntity
  8
0
 62
     0
100
AcDbLine
 10
29.82025603603892
 20
3.574999547552636
 30
0.0
 11
32.07110634279891
 21
5.825849854312622
 31
0.0
  0
LINE
  5
11CC
330
10FA
100
AcDbEntity
  8
0
 62
     0
100
AcDbLine
 10
33.12110634279886
 20
7.324862660365965
 30
0.0
 11
34.52110634279887
 21
8.724862660366
 31
0.0
  0
LINE
  5
11CD
330
10FA
100
AcDbEntity
  8
0
 62
     0
100
AcDbLine
 10
29.37124322998548
 20
3.574999547552607
 30
0.0
 11
32.07110634279894
 21
6.274862660366039
 31
0.0
  0
LINE
  5
11CE
330
10FA
100
AcDbEntity
  8
0
 62
     0
100
AcDbLine
 10
30.61881074175846
 20
5.271579865379067
 30
0.0
 11
32.07110634279891
 21
6.723875466419514
 31
0.0
  0
LINE
  5
11CF
330
10FA
100
AcDbEntity
  8
0
 62
     0
100
AcDbLine
 10
33.12110634279884
 20
7.77387546641944
 30
0.0
 11
34.52110634279887
 21
9.173875466419474
 31
0.0
  0
LINE
  5
11D0
330
10FA
100
AcDbEntity
  8
0
 62
     0
100
AcDbLine
 10
28.92223042393203
 20
3.574999547552607
 30
0.0
 11
30.37452602497245
 21
5.027295148593054
 31
0.0
  0
LINE
  5
11D1
330
10FA
100
AcDbEntity
  8
0
 62
     0
100
AcDbLine
 10
30.67110634279885
 20
5.772888272472897
 30
0.0
 11
32.07110634279891
 21
7.172888272472988
 31
0.0
  0
LINE
  5
11D2
330
10FA
100
AcDbEntity
  8
0
 62
     0
100
AcDbLine
 10
33.12110634279884
 20
8.222888272472886
 30
0.0
 11
34.52110634279887
 21
9.62288827247292
 31
0.0
  0
LINE
  5
11D3
330
10FA
100
AcDbEntity
  8
0
 62
     0
100
AcDbLine
 10
28.52919249356713
 20
3.630974423241184
 30
0.0
 11
29.87321761787856
 21
4.974999547552613
 31
0.0
  0
LINE
  5
11D4
330
10FA
100
AcDbEntity
  8
0
 62
     0
100
AcDbLine
 10
30.67110634279882
 20
6.221901078526371
 30
0.0
 11
32.07110634279891
 21
7.621901078526434
 31
0.0
  0
LINE
  5
11D5
330
10FA
100
AcDbEntity
  8
0
 62
     0
100
AcDbLine
 10
33.12110634279881
 20
8.67190107852636
 30
0.0
 11
34.52110634279884
 21
10.07190107852639
 31
0.0
  0
LINE
  5
11D6
330
10FA
100
AcDbEntity
  8
0
 62
     0
100
AcDbLine
 10
28.21519905996206
 20
3.76599379568961
 30
0.0
 11
29.42464370464728
 21
4.97543844037483
 31
0.0
  0
LINE
  5
11D7
330
10FA
100
AcDbEntity
  8
0
 62
     0
100
AcDbLine
 10
30.67110634279888
 20
6.670913884579846
 30
0.0
 11
32.07110634279891
 21
8.07091388457988
 31
0.0
  0
LINE
  5
11D8
330
10FA
100
AcDbEntity
  8
0
 62
     0
100
AcDbLine
 10
33.12110634279884
 20
9.120913884579806
 30
0.0
 11
34.52110634279887
 21
10.52091388457981
 31
0.0
  0
LINE
  5
11D9
330
10FA
100
AcDbEntity
  8
0
 62
     0
100
AcDbLine
 10
27.95856911927953
 20
3.958376661060469
 30
0.0
 11
29.10290441029093
 21
5.102711952071899
 31
0.0
  0
LINE
  5
11DA
330
10FA
100
AcDbEntity
  8
0
 62
     0
100
AcDbLine
 10
30.67110634279888
 20
7.11992669063332
 30
0.0
 11
32.07110634279891
 21
8.519926690633326
 31
0.0
  0
LINE
  5
11DB
330
10FA
100
AcDbEntity
  8
0
 62
     0
100
AcDbLine
 10
33.12110634279884
 20
9.569926690633252
 30
0.0
 11
34.5211063427989
 21
10.96992669063331
 31
0.0
  0
LINE
  5
11DC
330
10FA
100
AcDbEntity
  8
0
 62
     0
100
AcDbLine
 10
27.75358703166699
 20
4.202407379501437
 30
0.0
 11
28.9342852710863
 21
5.383105618920723
 31
0.0
  0
LINE
  5
11DD
330
10FA
100
AcDbEntity
  8
0
 62
     0
100
AcDbLine
 10
30.67110634279888
 20
7.568939496686766
 30
0.0
 11
32.07110634279888
 21
8.9689394966868
 31
0.0
  0
LINE
  5
11DE
330
10FA
100
AcDbEntity
  8
0
 62
     0
100
AcDbLine
 10
33.12110634279886
 20
10.01893949668675
 30
0.0
 11
34.51603176602358
 21
11.4138649199115
 31
0.0
  0
LINE
  5
11DF
330
10FA
100
AcDbEntity
  8
0
 62
     0
100
AcDbLine
 10
27.60362459245004
 20
4.501457746337933
 30
0.0
 11
28.92110634279885
 21
5.818939496686766
 31
0.0
  0
LINE
  5
11E0
330
10FA
100
AcDbEntity
  8
0
 62
     0
100
AcDbLine
 10
30.67110634279888
 20
8.017952302740212
 30
0.0
 11
32.07110634279891
 21
9.417952302740246
 31
0.0
  0
LINE
  5
11E1
330
10FA
100
AcDbEntity
  8
0
 62
     0
100
AcDbLine
 10
33.12110634279886
 20
10.4679523027402
 30
0.0
 11
34.27747459348376
 21
11.62432055342509
 31
0.0
  0
LINE
  5
11E2
330
10FA
100
AcDbEntity
  8
0
 62
     0
100
AcDbLine
 10
27.52491782497182
 20
4.871763784913156
 30
0.0
 11
28.92110634279891
 21
6.267952302740241
 31
0.0
  0
LINE
  5
11E3
330
10FA
100
AcDbEntity
  8
0
 62
     0
100
AcDbLine
 10
30.67110634279888
 20
8.466965108793658
 30
0.0
 11
32.07110634279891
 21
9.866965108793692
 31
0.0
  0
LINE
  5
11E4
330
10FA
100
AcDbEntity
  8
0
 62
     0
100
AcDbLine
 10
33.12110634279886
 20
10.91696510879364
 30
0.0
 11
33.82914078155781
 21
11.62499954755261
 31
0.0
  0
LINE
  5
11E5
330
10FA
100
AcDbEntity
  8
0
 62
     0
100
AcDbLine
 10
27.52110634279887
 20
5.316965108793681
 30
0.0
 11
28.92110634279891
 21
6.716965108793687
 31
0.0
  0
LINE
  5
11E6
330
10FA
100
AcDbEntity
  8
0
 62
     0
100
AcDbLine
 10
30.67110634279885
 20
8.915977914847132
 30
0.0
 11
32.07110634279888
 21
10.31597791484716
 31
0.0
  0
LINE
  5
11E7
330
10FA
100
AcDbEntity
  8
0
 62
     0
100
AcDbLine
 10
27.52110634279887
 20
5.765977914847127
 30
0.0
 11
28.92110634279887
 21
7.165977914847161
 31
0.0
  0
LINE
  5
11E8
330
10FA
100
AcDbEntity
  8
0
 62
     0
100
AcDbLine
 10
33.12112970017258
 20
11.36600127222087
 30
0.0
 11
33.38010461813055
 21
11.62497619017881
 31
0.0
  0
LINE
  5
11E9
330
10FA
100
AcDbEntity
  8
0
 62
     0
100
AcDbLine
 10
25.36032852744276
 20
3.605200099491042
 30
0.0
 11
26.44090579086051
 21
4.685777362908794
 31
0.0
  0
LINE
  5
11EA
330
10FA
100
AcDbEntity
  8
0
 62
     0
100
AcDbLine
 10
27.52110634279884
 20
6.214990720900601
 30
0.0
 11
28.92110634279887
 21
7.614990720900635
 31
0.0
  0
LINE
  5
11EB
330
10FA
100
AcDbEntity
  8
0
 62
     0
100
AcDbLine
 10
30.67110634279885
 20
9.364990720900607
 30
0.0
 11
32.07110634279888
 21
10.76499072090061
 31
0.0
  0
LINE
  5
11EC
330
10FA
100
AcDbEntity
  8
0
 62
     0
100
AcDbLine
 10
24.88111516945088
 20
3.574999547552636
 30
0.0
 11
26.47110634279886
 21
5.16499072090059
 31
0.0
  0
LINE
  5
11ED
330
10FA
100
AcDbEntity
  8
0
 62
     0
100
AcDbLine
 10
27.52110634279887
 20
6.664003526954019
 30
0.0
 11
28.92110634279891
 21
8.064003526954053
 31
0.0
  0
LINE
  5
11EE
330
10FA
100
AcDbEntity
  8
0
 62
     0
100
AcDbLine
 10
30.67110634279888
 20
9.814003526954024
 30
0.0
 11
32.07110634279888
 21
11.21400352695405
 31
0.0
  0
LINE
  5
11EF
330
10FA
100
AcDbEntity
  8
0
 62
     0
100
AcDbLine
 10
24.43210236339743
 20
3.574999547552607
 30
0.0
 11
26.47110634279892
 21
5.614003526954064
 31
0.0
  0
LINE
  5
11F0
330
10FA
100
AcDbEntity
  8
0
 62
     0
100
AcDbLine
 10
27.52110634279884
 20
7.113016333007493
 30
0.0
 11
28.92110634279887
 21
8.513016333007527
 31
0.0
  0
LINE
  5
11F1
330
10FA
100
AcDbEntity
  8
0
 62
     0
100
AcDbLine
 10
30.67110634279885
 20
10.26301633300749
 30
0.0
 11
31.97423761538178
 21
11.56614760559043
 31
0.0
  0
LINE
  5
11F2
330
10FA
100
AcDbEntity
  8
0
 62
     0
100
AcDbLine
 10
23.98308955734393
 20
3.574999547552579
 30
0.0
 11
26.46394704259239
 21
6.055857032801014
 31
0.0
  0
LINE
  5
11F3
330
10FA
100
AcDbEntity
  8
0
 62
     0
100
AcDbLine
 10
27.52110634279887
 20
7.562029139060996
 30
0.0
 11
28.92110634279887
 21
8.962029139060973
 31
0.0
  0
LINE
  5
11F4
330
10FA
100
AcDbEntity
  8
0
 62
     0
100
AcDbLine
 10
30.67110634279885
 20
10.71202913906094
 30
0.0
 11
31.58407675129052
 21
11.62499954755264
 31
0.0
  0
LINE
  5
11F5
330
10FA
100
AcDbEntity
  8
0
 62
     0
100
AcDbLine
 10
23.53407675129051
 20
3.574999547552636
 30
0.0
 11
26.39649085727799
 21
6.437413653540119
 31
0.0
  0
LINE
  5
11F6
330
10FA
100
AcDbEntity
  8
0
 62
     0
100
AcDbLine
 10
27.5211063427989
 20
8.011041945114442
 30
0.0
 11
28.92110634279893
 21
9.411041945114448
 31
0.0
  0
LINE
  5
11F7
330
10FA
100
AcDbEntity
  8
0
 62
     0
100
AcDbLine
 10
25.07110634279891
 20
5.561041945114453
 30
0.0
 11
26.27619712881872
 21
6.766132731134263
 31
0.0
  0
LINE
  5
11F8
330
10FA
100
AcDbEntity
  8
0
 62
     0
100
AcDbLine
 10
30.67110634279885
 20
11.16104194511439
 30
0.0
 11
31.1350639452371
 21
11.62499954755264
 31
0.0
  0
LINE
  5
11F9
330
10FA
100
AcDbEntity
  8
0
 62
     0
100
AcDbLine
 10
23.14919162180268
 20
3.639127224118198
 30
0.0
 11
24.48506394523707
 21
4.974999547552613
 31
0.0
  0
LINE
  5
11FA
330
10FA
100
AcDbEntity
  8
0
 62
     0
100
AcDbLine
 10
25.06117105523518
 20
6.000119463604164
 30
0.0
 11
26.11444747638842
 21
7.053395884757406
 31
0.0
  0
LINE
  5
11FB
330
10FA
100
AcDbEntity
  8
0
 62
     0
100
AcDbLine
 10
27.5211063427989
 20
8.460054751167888
 30
0.0
 11
28.92110634279891
 21
9.860054751167922
 31
0.0
  0
LINE
  5
11FC
330
10FA
100
AcDbEntity
  8
0
 62
     0
100
AcDbLine
 10
23.05860634279884
 20
3.997554751167825
 30
0.0
 11
24.03605113918357
 21
4.974999547552584
 31
0.0
  0
LINE
  5
11FD
330
10FA
100
AcDbEntity
  8
0
 62
     0
100
AcDbLine
 10
24.92397863666573
 20
6.311939851088226
 30
0.0
 11
25.91651191742451
 21
7.304473131847004
 31
0.0
  0
LINE
  5
11FE
330
10FA
100
AcDbEntity
  8
0
 62
     0
100
AcDbLine
 10
27.52110634279887
 20
8.909067557221362
 30
0.0
 11
28.92110634279891
 21
10.30906755722139
 31
0.0
  0
LINE
  5
11FF
330
10FA
100
AcDbEntity
  8
0
 62
     0
100
AcDbLine
 10
23.05860634279881
 20
4.4465675572213
 30
0.0
 11
23.58703833313015
 21
4.974999547552641
 31
0.0
  0
LINE
  5
1200
330
10FA
100
AcDbEntity
  8
0
 62
     0
100
AcDbLine
 10
27.5211063427989
 20
9.35808036327478
 30
0.0
 11
28.92110634279891
 21
10.75808036327481
 31
0.0
  0
LINE
  5
1201
330
10FA
100
AcDbEntity
  8
0
 62
     0
100
AcDbLine
 10
24.70334118810723
 20
6.540315208583137
 30
0.0
 11
25.69329068176839
 21
7.530264702244295
 31
0.0
  0
LINE
  5
1202
330
10FA
100
AcDbEntity
  8
0
 62
     0
100
AcDbLine
 10
24.47883478508049
 20
6.764821611609875
 30
0.0
 11
25.46878427874165
 21
7.754771105271032
 31
0.0
  0
LINE
  5
1203
330
10FA
100
AcDbEntity
  8
0
 62
     0
100
AcDbLine
 10
27.52110634279887
 20
9.807093169328254
 30
0.0
 11
28.92110634279891
 21
11.20709316932828
 31
0.0
  0
LINE
  5
1204
330
10FA
100
AcDbEntity
  8
0
 62
     0
100
AcDbLine
 10
21.28901272102325
 20
3.574999547552636
 30
0.0
 11
21.74610634279886
 21
4.032093169328248
 31
0.0
  0
LINE
  5
1205
330
10FA
100
AcDbEntity
  8
0
 62
     0
100
AcDbLine
 10
24.25432838205381
 20
6.98932801463664
 30
0.0
 11
25.24427787571491
 21
7.979277508297769
 31
0.0
  0
LINE
  5
1206
330
10FA
100
AcDbEntity
  8
0
 62
     0
100
AcDbLine
 10
27.52110634279887
 20
10.25610597538172
 30
0.0
 11
28.82801588874943
 21
11.56301552133228
 31
0.0
  0
LINE
  5
1207
330
10FA
100
AcDbEntity
  8
0
 62
     0
100
AcDbLine
 10
20.83999991496975
 20
3.574999547552607
 30
0.0
 11
21.74610634279886
 21
4.481105975381723
 31
0.0
  0
LINE
  5
1208
330
10FA
100
AcDbEntity
  8
0
 62
     0
100
AcDbLine
 10
24.02982197902701
 20
7.213834417663349
 30
0.0
 11
25.01977147268817
 21
8.203783911324507
 31
0.0
  0
LINE
  5
1209
330
10FA
100
AcDbEntity
  8
0
 62
     0
100
AcDbLine
 10
27.52110634279887
 20
10.70511878143517
 30
0.0
 11
28.44098710891632
 21
11.62499954755264
 31
0.0
  0
LINE
  5
120A
330
10FA
100
AcDbEntity
  8
0
 62
     0
100
AcDbLine
 10
20.44679267784732
 20
3.630805116483657
 30
0.0
 11
21.74610634279886
 21
4.930118781435169
 31
0.0
  0
LINE
  5
120B
330
10FA
100
AcDbEntity
  8
0
 62
     0
100
AcDbLine
 10
23.8053155760003
 20
7.438340820690058
 30
0.0
 11
24.79526506966147
 21
8.428290314351215
 31
0.0
  0
LINE
  5
120C
330
10FA
100
AcDbEntity
  8
0
 62
     0
100
AcDbLine
 10
27.52110634279887
 20
11.15413158748862
 30
0.0
 11
27.99197430286287
 21
11.62499954755261
 31
0.0
  0
LINE
  5
120D
330
10FA
100
AcDbEntity
  8
0
 62
     0
100
AcDbLine
 10
20.34610634279889
 20
3.979131587488637
 30
0.0
 11
21.74610634279886
 21
5.379131587488615
 31
0.0
  0
LINE
  5
120E
330
10FA
100
AcDbEntity
  8
0
 62
     0
100
AcDbLine
 10
23.58080917297357
 20
7.662847223716795
 30
0.0
 11
24.57075866663473
 21
8.652796717377952
 31
0.0
  0
LINE
  5
120F
330
10FA
100
AcDbEntity
  8
0
 62
     0
100
AcDbLine
 10
20.34610634279886
 20
4.428144393542083
 30
0.0
 11
21.74610634279886
 21
5.828144393542061
 31
0.0
  0
LINE
  5
1210
330
10FA
100
AcDbEntity
  8
0
 62
     0
100
AcDbLine
 10
23.35731722245293
 20
7.88836807924963
 30
0.0
 11
24.34930398914392
 21
8.880354845940615
 31
0.0
  0
LINE
  5
1211
330
10FA
100
AcDbEntity
  8
0
 62
     0
100
AcDbLine
 10
20.34610634279886
 20
4.877157199595558
 30
0.0
 11
21.74610634279884
 21
6.277157199595535
 31
0.0
  0
LINE
  5
1212
330
10FA
100
AcDbEntity
  8
0
 62
     0
100
AcDbLine
 10
25.69394869075591
 20
10.22499954755261
 30
0.0
 11
26.20860634279887
 21
10.73965719959556
 31
0.0
  0
LINE
  5
1213
330
10FA
100
AcDbEntity
  8
0
 62
     0
100
AcDbLine
 10
19.09977823044334
 20
3.630829087240044
 30
0.0
 11
19.14460441117165
 21
3.675655267968352
 31
0.0
  0
LINE
  5
1214
330
10FA
100
AcDbEntity
  8
0
 62
     0
100
AcDbLine
 10
23.15831613304195
 20
8.138379795892063
 30
0.0
 11
24.20813327175128
 21
9.188196934601393
 31
0.0
  0
LINE
  5
1215
330
10FA
100
AcDbEntity
  8
0
 62
     0
100
AcDbLine
 10
20.34610634279889
 20
5.326170005648975
 30
0.0
 11
21.74610634279886
 21
6.726170005648981
 31
0.0
  0
LINE
  5
1216
330
10FA
100
AcDbEntity
  8
0
 62
     0
100
AcDbLine
 10
25.24493588470249
 20
10.22499954755258
 30
0.0
 11
26.2086063427989
 21
11.18867000564898
 31
0.0
  0
LINE
  5
1217
330
10FA
100
AcDbEntity
  8
0
 62
     0
100
AcDbLine
 10
18.59493588470249
 20
3.574999547552607
 30
0.0
 11
19.12782543285581
 21
4.1078890957059
 31
0.0
  0
LINE
  5
1218
330
10FA
100
AcDbEntity
  8
0
 62
     0
100
AcDbLine
 10
22.99539900084357
 20
8.424475469747164
 30
0.0
 11
24.19610634279888
 21
9.625182811702472
 31
0.0
  0
LINE
  5
1219
330
10FA
100
AcDbEntity
  8
0
 62
     0
100
AcDbLine
 10
20.34610634279886
 20
5.77518281170245
 30
0.0
 11
21.74610634279886
 21
7.175182811702427
 31
0.0
  0
LINE
  5
121A
330
10FA
100
AcDbEntity
  8
0
 62
     0
100
AcDbLine
 10
24.79592307864902
 20
10.22499954755261
 30
0.0
 11
26.12527187689988
 21
11.55434834580347
 31
0.0
  0
LINE
  5
121B
330
10FA
100
AcDbEntity
  8
0
 62
     0
100
AcDbLine
 10
18.14592307864899
 20
3.574999547552579
 30
0.0
 11
19.02006235940297
 21
4.44913882830653
 31
0.0
  0
LINE
  5
121C
330
10FA
100
AcDbEntity
  8
0
 62
     0
100
AcDbLine
 10
20.34610634279886
 20
6.224195617755896
 30
0.0
 11
21.74610634279884
 21
7.624195617755901
 31
0.0
  0
LINE
  5
121D
330
10FA
100
AcDbEntity
  8
0
 62
     0
100
AcDbLine
 10
22.87370796950858
 20
8.751797244465649
 30
0.0
 11
25.74691027259558
 21
11.62499954755264
 31
0.0
  0
LINE
  5
121E
330
10FA
100
AcDbEntity
  8
0
 62
     0
100
AcDbLine
 10
17.84991592332159
 20
3.728005198278623
 30
0.0
 11
18.91229928595012
 21
4.79038856090716
 31
0.0
  0
LINE
  5
121F
330
10FA
100
AcDbEntity
  8
0
 62
     0
100
AcDbLine
 10
20.34610634279883
 20
6.67320842380937
 30
0.0
 11
21.74610634279884
 21
8.073208423809347
 31
0.0
  0
LINE
  5
1220
330
10FA
100
AcDbEntity
  8
0
 62
     0
100
AcDbLine
 10
22.80435453996574
 20
9.13145662097628
 30
0.0
 11
25.29789746654214
 21
11.62499954755264
 31
0.0
  0
LINE
  5
1221
330
10FA
100
AcDbEntity
  8
0
 62
     0
100
AcDbLine
 10
17.74053621249726
 20
4.067638293507769
 30
0.0
 11
18.80453621249728
 21
5.131638293507819
 31
0.0
  0
LINE
  5
1222
330
10FA
100
AcDbEntity
  8
0
 62
     0
100
AcDbLine
 10
20.34610634279889
 20
7.122221229862844
 30
0.0
 11
21.74610634279884
 21
8.522221229862793
 31
0.0
  0
LINE
  5
1223
330
10FA
100
AcDbEntity
  8
0
 62
     0
100
AcDbLine
 10
22.79610634279884
 20
9.572221229862805
 30
0.0
 11
24.84888466048869
 21
11.62499954755264
 31
0.0
  0
LINE
  5
1224
330
10FA
100
AcDbEntity
  8
0
 62
     0
100
AcDbLine
 10
17.63277313904438
 20
4.408888026108343
 30
0.0
 11
18.69677313904449
 21
5.472888026108449
 31
0.0
  0
LINE
  5
1225
330
10FA
100
AcDbEntity
  8
0
 62
     0
100
AcDbLine
 10
20.34610634279889
 20
7.571234035916319
 30
0.0
 11
21.74610634279884
 21
8.971234035916268
 31
0.0
  0
LINE
  5
1226
330
10FA
100
AcDbEntity
  8
0
 62
     0
100
AcDbLine
 10
22.79610634279884
 20
10.02123403591625
 30
0.0
 11
24.39987185443524
 21
11.62499954755264
 31
0.0
  0
LINE
  5
1227
330
10FA
100
AcDbEntity
  8
0
 62
     0
100
AcDbLine
 10
17.5250100655916
 20
4.750137758709001
 30
0.0
 11
18.58901006559162
 21
5.814137758709051
 31
0.0
  0
LINE
  5
1228
330
10FA
100
AcDbEntity
  8
0
 62
     0
100
AcDbLine
 10
20.34610634279889
 20
8.020246841969765
 30
0.0
 11
21.74610634279884
 21
9.420246841969714
 31
0.0
  0
LINE
  5
1229
330
10FA
100
AcDbEntity
  8
0
 62
     0
100
AcDbLine
 10
17.41724699213875
 20
5.09138749130966
 30
0.0
 11
18.48124699213883
 21
6.15538749130971
 31
0.0
  0
LINE
  5
122A
330
10FA
100
AcDbEntity
  8
0
 62
     0
100
AcDbLine
 10
22.82276467785956
 20
10.49690517703044
 30
0.0
 11
23.92420071332105
 21
11.59834121249193
 31
0.0
  0
LINE
  5
122B
330
10FA
100
AcDbEntity
  8
0
 62
     0
100
AcDbLine
 10
15.9008590483817
 20
3.574999547552607
 30
0.0
 11
16.32110634279888
 21
3.995246841969787
 31
0.0
  0
LINE
  5
122C
330
10FA
100
AcDbEntity
  8
0
 62
     0
100
AcDbLine
 10
17.30948391868594
 20
5.432637223910262
 30
0.0
 11
18.37348391868596
 21
6.496637223910283
 31
0.0
  0
LINE
  5
122D
330
10FA
100
AcDbEntity
  8
0
 62
     0
100
AcDbLine
 10
20.34610634279889
 20
8.469259648023211
 30
0.0
 11
21.74610634279884
 21
9.86925964802316
 31
0.0
  0
LINE
  5
122E
330
10FA
100
AcDbEntity
  8
0
 62
     0
100
AcDbLine
 10
15.45184624232828
 20
3.574999547552579
 30
0.0
 11
16.32110634279891
 21
4.444259648023205
 31
0.0
  0
LINE
  5
122F
330
10FA
100
AcDbEntity
  8
0
 62
     0
100
AcDbLine
 10
17.20172084523307
 20
5.773886956510835
 30
0.0
 11
18.26572084523317
 21
6.837886956510942
 31
0.0
  0
LINE
  5
1230
330
10FA
100
AcDbEntity
  8
0
 62
     0
100
AcDbLine
 10
20.34610634279889
 20
8.918272454076657
 30
0.0
 11
21.74610634279884
 21
10.3182724540766
 31
0.0
  0
LINE
  5
1231
330
10FA
100
AcDbEntity
  8
0
 62
     0
100
AcDbLine
 10
15.04340831010051
 20
3.615574421378283
 30
0.0
 11
16.32110634279888
 21
4.893272454076679
 31
0.0
  0
LINE
  5
1232
330
10FA
100
AcDbEntity
  8
0
 62
     0
100
AcDbLine
 10
17.09395777178025
 20
6.115136689111523
 30
0.0
 11
18.15795777178027
 21
7.179136689111544
 31
0.0
  0
LINE
  5
1233
330
10FA
100
AcDbEntity
  8
0
 62
     0
100
AcDbLine
 10
20.34610634279886
 20
9.367285260130131
 30
0.0
 11
21.7461063427988
 21
10.76728526013008
 31
0.0
  0
LINE
  5
1234
330
10FA
100
AcDbEntity
  8
0
 62
     0
100
AcDbLine
 10
14.92110634279885
 20
3.94228526013012
 30
0.0
 11
16.32110634279888
 21
5.342285260130154
 31
0.0
  0
LINE
  5
1235
330
10FA
100
AcDbEntity
  8
0
 62
     0
100
AcDbLine
 10
16.98619469832743
 20
6.456386421712124
 30
0.0
 11
18.05019469832751
 21
7.520386421712203
 31
0.0
  0
LINE
  5
1236
330
10FA
100
AcDbEntity
  8
0
 62
     0
100
AcDbLine
 10
20.34610634279889
 20
9.816298066183577
 30
0.0
 11
21.74610634279884
 21
11.21629806618352
 31
0.0
  0
LINE
  5
1237
330
10FA
100
AcDbEntity
  8
0
 62
     0
100
AcDbLine
 10
14.92110634279887
 20
4.391298066183537
 30
0.0
 11
16.32110634279894
 21
5.791298066183628
 31
0.0
  0
LINE
  5
1238
330
10FA
100
AcDbEntity
  8
0
 62
     0
100
AcDbLine
 10
16.86879530484151
 20
6.787999834279673
 30
0.0
 11
18.18394233880707
 21
8.103146868245232
 31
0.0
  0
LINE
  5
1239
330
10FA
100
AcDbEntity
  8
0
 62
     0
100
AcDbLine
 10
20.34610634279891
 20
10.26531087223708
 30
0.0
 11
21.64796863154961
 21
11.56717316098774
 31
0.0
  0
LINE
  5
123A
330
10FA
100
AcDbEntity
  8
0
 62
     0
100
AcDbLine
 10
14.92110634279885
 20
4.840310872237012
 30
0.0
 11
16.32110634279894
 21
6.240310872237074
 31
0.0
  0
LINE
  5
123B
330
10FA
100
AcDbEntity
  8
0
 62
     0
100
AcDbLine
 10
16.52520261990778
 20
6.893419955399423
 30
0.0
 11
18.39117901852407
 21
8.759396354015706
 31
0.0
  0
LINE
  5
123C
330
10FA
100
AcDbEntity
  8
0
 62
     0
100
AcDbLine
 10
14.92110634279885
 20
5.289323678290486
 30
0.0
 11
16.32768593495208
 21
6.695903270443722
 31
0.0
  0
LINE
  5
123D
330
10FA
100
AcDbEntity
  8
0
 62
     0
100
AcDbLine
 10
20.34610634279891
 20
10.71432367829052
 30
0.0
 11
21.25678221206101
 21
11.62499954755264
 31
0.0
  0
LINE
  5
123E
330
10FA
100
AcDbEntity
  8
0
 62
     0
100
AcDbLine
 10
13.206782212061
 20
3.574999547552607
 30
0.0
 11
13.69610634279891
 21
4.064323678290548
 31
0.0
  0
LINE
  5
123F
330
10FA
100
AcDbEntity
  8
0
 62
     0
100
AcDbLine
 10
14.92110634279885
 20
5.738336484343932
 30
0.0
 11
18.59841569824107
 21
9.415645839786179
 31
0.0
  0
LINE
  5
1240
330
10FA
100
AcDbEntity
  8
0
 62
     0
100
AcDbLine
 10
20.34610634279889
 20
11.163336484344
 30
0.0
 11
20.80776940600753
 21
11.62499954755264
 31
0.0
  0
LINE
  5
1241
330
10FA
100
AcDbEntity
  8
0
 62
     0
100
AcDbLine
 10
12.75776940600752
 20
3.574999547552636
 30
0.0
 11
13.69610634279891
 21
4.513336484343994
 31
0.0
  0
LINE
  5
1242
330
10FA
100
AcDbEntity
  8
0
 62
     0
100
AcDbLine
 10
14.9211063427989
 20
6.187349290397406
 30
0.0
 11
18.80565237795809
 21
10.07189532555662
 31
0.0
  0
LINE
  5
1243
330
10FA
100
AcDbEntity
  8
0
 62
     0
100
AcDbLine
 10
12.31459691212913
 20
3.58083985972766
 30
0.0
 11
13.62543920099574
 21
4.891682148594242
 31
0.0
  0
LINE
  5
1244
330
10FA
100
AcDbEntity
  8
0
 62
     0
100
AcDbLine
 10
14.92110634279887
 20
6.636362096450881
 30
0.0
 11
16.58474379390062
 21
8.29999954755263
 31
0.0
  0
LINE
  5
1245
330
10FA
100
AcDbEntity
  8
0
 62
     0
100
AcDbLine
 10
16.96673521152115
 20
8.681990965173127
 30
0.0
 11
19.01288905767506
 21
10.72814481132706
 31
0.0
  0
LINE
  5
1246
330
10FA
100
AcDbEntity
  8
0
 62
     0
100
AcDbLine
 10
11.93051665340564
 20
3.64577240705762
 30
0.0
 11
13.25974379390061
 21
4.974999547552613
 31
0.0
  0
LINE
  5
1247
330
10FA
100
AcDbEntity
  8
0
 62
     0
100
AcDbLine
 10
14.92110634279887
 20
7.085374902504327
 30
0.0
 11
16.33010162815301
 21
8.494370187858493
 31
0.0
  0
LINE
  5
1248
330
10FA
100
AcDbEntity
  8
0
 62
     0
100
AcDbLine
 10
17.17397189123809
 20
9.338240450943573
 30
0.0
 11
19.20042478357572
 21
11.3646933432812
 31
0.0
  0
LINE
  5
1249
330
10FA
100
AcDbEntity
  8
0
 62
     0
100
AcDbLine
 10
11.59994952499243
 20
3.764218084697915
 30
0.0
 11
12.81073098784716
 21
4.974999547552613
 31
0.0
  0
LINE
  5
124A
330
10FA
100
AcDbEntity
  8
0
 62
     0
100
AcDbLine
 10
14.92110634279887
 20
7.534387708557773
 30
0.0
 11
16.32110634279891
 21
8.934387708557807
 31
0.0
  0
LINE
  5
124B
330
10FA
100
AcDbEntity
  8
0
 62
     0
100
AcDbLine
 10
17.38120857095509
 20
9.994489936713989
 30
0.0
 11
19.00341884729104
 21
11.61670021304993
 31
0.0
  0
LINE
  5
124C
330
10FA
100
AcDbEntity
  8
0
 62
     0
100
AcDbLine
 10
11.31114788291029
 20
3.924429248669156
 30
0.0
 11
12.36917881215672
 21
4.982460177915612
 31
0.0
  0
LINE
  5
124D
330
10FA
100
AcDbEntity
  8
0
 62
     0
100
AcDbLine
 10
14.92110634279887
 20
7.983400514611247
 30
0.0
 11
16.32110634279891
 21
9.383400514611253
 31
0.0
  0
LINE
  5
124E
330
10FA
100
AcDbEntity
  8
0
 62
     0
100
AcDbLine
 10
17.58844525067206
 20
10.6507394224844
 30
0.0
 11
18.56270537574025
 21
11.62499954755261
 31
0.0
  0
LINE
  5
124F
330
10FA
100
AcDbEntity
  8
0
 62
     0
100
AcDbLine
 10
11.05867039971926
 20
4.120964571531601
 30
0.0
 11
12.05202074164756
 21
5.114314913459907
 31
0.0
  0
LINE
  5
1250
330
10FA
100
AcDbEntity
  8
0
 62
     0
100
AcDbLine
 10
14.92110634279887
 20
8.432413320664693
 30
0.0
 11
16.32110634279888
 21
9.832413320664727
 31
0.0
  0
LINE
  5
1251
330
10FA
100
AcDbEntity
  8
0
 62
     0
100
AcDbLine
 10
13.25192340868696
 20
6.763230386552805
 30
0.0
 11
13.83287550379867
 21
7.344182481664518
 31
0.0
  0
LINE
  5
1252
330
10FA
100
AcDbEntity
  8
0
 62
     0
100
AcDbLine
 10
17.795681930389
 20
11.30698890825485
 30
0.0
 11
18.11369256968677
 21
11.62499954755261
 31
0.0
  0
LINE
  5
1253
330
10FA
100
AcDbEntity
  8
0
 62
     0
100
AcDbLine
 10
10.84045186305434
 20
4.351758840920183
 30
0.0
 11
11.84689526601147
 21
5.358202243877315
 31
0.0
  0
LINE
  5
1254
330
10FA
100
AcDbEntity
  8
0
 62
     0
100
AcDbLine
 10
12.7894369878721
 20
6.749756771791425
 30
0.0
 11
13.84634911856005
 21
7.806668902479373
 31
0.0
  0
LINE
  5
1255
330
10FA
100
AcDbEntity
  8
0
 62
     0
100
AcDbLine
 10
14.92110634279885
 20
8.881426126718167
 30
0.0
 11
16.32110634279888
 21
10.2814261267182
 31
0.0
  0
LINE
  5
1256
330
10FA
100
AcDbEntity
  8
0
 62
     0
100
AcDbLine
 10
10.65694225058285
 20
4.617262034502147
 30
0.0
 11
11.7711063427989
 21
5.73142612671819
 31
0.0
  0
LINE
  5
1257
330
10FA
100
AcDbEntity
  8
0
 62
     0
100
AcDbLine
 10
12.48236370316203
 20
6.891696293134742
 30
0.0
 11
13.70440959721671
 21
8.113742187189444
 31
0.0
  0
LINE
  5
1258
330
10FA
100
AcDbEntity
  8
0
 62
     0
100
AcDbLine
 10
14.92110634279887
 20
9.330438932771585
 30
0.0
 11
16.32110634279891
 21
10.73043893277161
 31
0.0
  0
LINE
  5
1259
330
10FA
100
AcDbEntity
  8
0
 62
     0
100
AcDbLine
 10
10.51128349562048
 20
4.920616085593223
 30
0.0
 11
11.7711063427989
 21
6.180438932771636
 31
0.0
  0
LINE
  5
125A
330
10FA
100
AcDbEntity
  8
0
 62
     0
100
AcDbLine
 10
12.26338373966717
 20
7.121729135693385
 30
0.0
 11
13.47437675465809
 21
8.332722150684276
 31
0.0
  0
LINE
  5
125B
330
10FA
100
AcDbEntity
  8
0
 62
     0
100
AcDbLine
 10
14.92110634279885
 20
9.779451738825059
 30
0.0
 11
16.32110634279894
 21
11.17945173882512
 31
0.0
  0
LINE
  5
125C
330
10FA
100
AcDbEntity
  8
0
 62
     0
100
AcDbLine
 10
10.41071481353316
 20
5.26906020955937
 30
0.0
 11
11.7711063427989
 21
6.62945173882511
 31
0.0
  0
LINE
  5
125D
330
10FA
100
AcDbEntity
  8
0
 62
     0
100
AcDbLine
 10
12.13535837346302
 20
7.442716575542704
 30
0.0
 11
13.15338931480877
 21
8.46074751688846
 31
0.0
  0
LINE
  5
125E
330
10FA
100
AcDbEntity
  8
0
 62
     0
100
AcDbLine
 10
10.37110634279881
 20
5.678464544878494
 30
0.0
 11
11.77110634279887
 21
7.078464544878556
 31
0.0
  0
LINE
  5
125F
330
10FA
100
AcDbEntity
  8
0
 62
     0
100
AcDbLine
 10
14.92110634279885
 20
10.22846454487853
 30
0.0
 11
16.24248128862126
 21
11.54983949070094
 31
0.0
  0
LINE
  5
1260
330
10FA
100
AcDbEntity
  8
0
 62
     0
100
AcDbLine
 10
8.328107963860986
 20
3.63546616594067
 30
0.0
 11
9.26063972441085
 21
4.567997926490534
 31
0.0
  0
LINE
  5
1261
330
10FA
100
AcDbEntity
  8
0
 62
     0
100
AcDbLine
 10
12.19456491520344
 20
7.950935923336515
 30
0.0
 11
12.64516996701493
 21
8.401540975148037
 31
0.0
  0
LINE
  5
1262
330
10FA
100
AcDbEntity
  8
0
 62
     0
100
AcDbLine
 10
10.37110634279886
 20
6.127477350931968
 30
0.0
 11
11.7711063427989
 21
7.527477350932002
 31
0.0
  0
LINE
  5
1263
330
10FA
100
AcDbEntity
  8
0
 62
     0
100
AcDbLine
 10
14.92110634279887
 20
10.67747735093195
 30
0.0
 11
15.86862853941951
 21
11.62499954755261
 31
0.0
  0
LINE
  5
1264
330
10FA
100
AcDbEntity
  8
0
 62
     0
100
AcDbLine
 10
7.818628539419506
 20
3.574999547552607
 30
0.0
 11
9.321106342798913
 21
5.077477350932014
 31
0.0
  0
LINE
  5
1265
330
10FA
100
AcDbEntity
  8
0
 62
     0
100
AcDbLine
 10
10.37110634279886
 20
6.576490156985443
 30
0.0
 11
11.7711063427989
 21
7.976490156985448
 31
0.0
  0
LINE
  5
1266
330
10FA
100
AcDbEntity
  8
0
 62
     0
100
AcDbLine
 10
14.9211063427989
 20
11.12649015698545
 30
0.0
 11
15.41961573336607
 21
11.62499954755264
 31
0.0
  0
LINE
  5
1267
330
10FA
100
AcDbEntity
  8
0
 62
     0
100
AcDbLine
 10
7.369615733366003
 20
3.574999547552579
 30
0.0
 11
9.321106342798941
 21
5.526490156985516
 31
0.0
  0
LINE
  5
1268
330
10FA
100
AcDbEntity
  8
0
 62
     0
100
AcDbLine
 10
10.37110634279886
 20
7.025502963038888
 30
0.0
 11
11.77110634279887
 21
8.425502963038923
 31
0.0
  0
LINE
  5
1269
330
10FA
100
AcDbEntity
  8
0
 62
     0
100
AcDbLine
 10
6.920602927312586
 20
3.574999547552636
 30
0.0
 11
9.319136666518289
 21
5.973533286758339
 31
0.0
  0
LINE
  5
126A
330
10FA
100
AcDbEntity
  8
0
 62
     0
100
AcDbLine
 10
10.37110634279886
 20
7.474515769092363
 30
0.0
 11
11.7711063427989
 21
8.874515769092397
 31
0.0
  0
LINE
  5
126B
330
10FA
100
AcDbEntity
  8
0
 62
     0
100
AcDbLine
 10
13.12159012125917
 20
10.22499954755267
 30
0.0
 11
13.69610634279891
 21
10.7995157690924
 31
0.0
  0
LINE
  5
126C
330
10FA
100
AcDbEntity
  8
0
 62
     0
100
AcDbLine
 10
6.471590121259112
 20
3.574999547552607
 30
0.0
 11
9.264305748357571
 21
6.367715174651067
 31
0.0
  0
LINE
  5
126D
330
10FA
100
AcDbEntity
  8
0
 62
     0
100
AcDbLine
 10
10.37110634279886
 20
7.92352857514578
 30
0.0
 11
11.77110634279887
 21
9.323528575145815
 31
0.0
  0
LINE
  5
126E
330
10FA
100
AcDbEntity
  8
0
 62
     0
100
AcDbLine
 10
7.921106342798879
 20
5.473528575145792
 30
0.0
 11
9.153136376335567
 21
6.70555860868248
 31
0.0
  0
LINE
  5
126F
330
10FA
100
AcDbEntity
  8
0
 62
     0
100
AcDbLine
 10
12.67257731520567
 20
10.22499954755261
 30
0.0
 11
13.69610634279891
 21
11.24852857514585
 31
0.0
  0
LINE
  5
1270
330
10FA
100
AcDbEntity
  8
0
 62
     0
100
AcDbLine
 10
6.051440252835647
 20
3.603862485182588
 30
0.0
 11
7.422577315205671
 21
4.974999547552613
 31
0.0
  0
LINE
  5
1271
330
10FA
100
AcDbEntity
  8
0
 62
     0
100
AcDbLine
 10
10.37110634279883
 20
8.372541381199255
 30
0.0
 11
11.85401369568864
 21
9.855448734089065
 31
0.0
  0
LINE
  5
1272
330
10FA
100
AcDbEntity
  8
0
 62
     0
100
AcDbLine
 10
7.920026796994193
 20
5.92146183539458
 30
0.0
 11
8.998920608999497
 21
7.000355647399914
 31
0.0
  0
LINE
  5
1273
330
10FA
100
AcDbEntity
  8
0
 62
     0
100
AcDbLine
 10
12.14065715626242
 20
10.14209219466283
 30
0.0
 11
13.57937263533887
 21
11.58080767373928
 31
0.0
  0
LINE
  5
1274
330
10FA
100
AcDbEntity
  8
0
 62
     0
100
AcDbLine
 10
5.908606342798861
 20
3.910041381199278
 30
0.0
 11
6.973564509152225
 21
4.974999547552613
 31
0.0
  0
LINE
  5
1275
330
10FA
100
AcDbEntity
  8
0
 62
     0
100
AcDbLine
 10
7.810225287243838
 20
6.260673131697728
 30
0.0
 11
8.807799626580049
 21
7.258247471033939
 31
0.0
  0
LINE
  5
1276
330
10FA
100
AcDbEntity
  8
0
 62
     0
100
AcDbLine
 10
10.37110634279883
 20
8.821554187252729
 30
0.0
 11
13.17455170309878
 21
11.62499954755267
 31
0.0
  0
LINE
  5
1277
330
10FA
100
AcDbEntity
  8
0
 62
     0
100
AcDbLine
 10
5.908606342798861
 20
4.359054187252723
 30
0.0
 11
6.524551703098751
 21
4.974999547552641
 31
0.0
  0
LINE
  5
1278
330
10FA
100
AcDbEntity
  8
0
 62
     0
100
AcDbLine
 10
7.597097873091513
 20
6.496558523598821
 30
0.0
 11
8.58704736675267
 21
7.486508017259978
 31
0.0
  0
LINE
  5
1279
330
10FA
100
AcDbEntity
  8
0
 62
     0
100
AcDbLine
 10
10.37110634279883
 20
9.270566993306147
 30
0.0
 11
12.72553889704525
 21
11.62499954755256
 31
0.0
  0
LINE
  5
127A
330
10FA
100
AcDbEntity
  8
0
 62
     0
100
AcDbLine
 10
5.943082303808694
 20
4.842542954316002
 30
0.0
 11
6.041062936035501
 21
4.940523586542809
 31
0.0
  0
LINE
  5
127B
330
10FA
100
AcDbEntity
  8
0
 62
     0
100
AcDbLine
 10
10.38109389987707
 20
9.729567356437826
 30
0.0
 11
12.26653853391357
 21
11.61501199047435
 31
0.0
  0
LINE
  5
127C
330
10FA
100
AcDbEntity
  8
0
 62
     0
100
AcDbLine
 10
7.372591470064776
 20
6.721064926625558
 30
0.0
 11
8.362540963725933
 21
7.711014420286716
 31
0.0
  0
LINE
  5
127D
330
10FA
100
AcDbEntity
  8
0
 62
     0
100
AcDbLine
 10
10.53082561600996
 20
10.32831187862422
 30
0.0
 11
11.66779401172721
 21
11.46528027434146
 31
0.0
  0
LINE
  5
127E
330
10FA
100
AcDbEntity
  8
0
 62
     0
100
AcDbLine
 10
7.148085067038039
 20
6.945571329652295
 30
0.0
 11
8.138034560699196
 21
7.935520823313453
 31
0.0
  0
LINE
  5
127F
330
10FA
100
AcDbEntity
  8
0
 62
     0
100
AcDbLine
 10
6.92357866401133
 20
7.170077732679004
 30
0.0
 11
7.913528157672487
 21
8.160027226340162
 31
0.0
  0
LINE
  5
1280
330
10FA
100
AcDbEntity
  8
0
 62
     0
100
AcDbLine
 10
6.699072260984593
 20
7.394584135705741
 30
0.0
 11
7.68902175464575
 21
8.384533629366899
 31
0.0
  0
LINE
  5
1281
330
10FA
100
AcDbEntity
  8
0
 62
     0
100
AcDbLine
 10
6.474565857957827
 20
7.61909053873245
 30
0.0
 11
7.464515351619013
 21
8.609040032393636
 31
0.0
  0
LINE
  5
1282
330
10FA
100
AcDbEntity
  8
0
 62
     0
100
AcDbLine
 10
8.631462060724544
 20
10.22499954755261
 30
0.0
 11
9.058606342798867
 21
10.65214382962696
 31
0.0
  0
LINE
  5
1283
330
10FA
100
AcDbEntity
  8
0
 62
     0
100
AcDbLine
 10
6.250101111945156
 20
7.843638598773253
 30
0.0
 11
7.240133933661439
 21
8.833671420489537
 31
0.0
  0
LINE
  5
1284
330
10FA
100
AcDbEntity
  8
0
 62
     0
100
AcDbLine
 10
8.182449254671098
 20
10.22499954755261
 30
0.0
 11
9.058606342798896
 21
11.10115663568038
 31
0.0
  0
LINE
  5
1285
330
10FA
100
AcDbEntity
  8
0
 62
     0
100
AcDbLine
 10
6.044367149669369
 20
8.086917442550856
 30
0.0
 11
7.075185493017499
 21
9.117735785899014
 31
0.0
  0
LINE
  5
1286
330
10FA
100
AcDbEntity
  8
0
 62
     0
100
AcDbLine
 10
7.733436448617624
 20
10.22499954755261
 30
0.0
 11
9.015326892918295
 21
11.50688999185328
 31
0.0
  0
LINE
  5
1287
330
10FA
100
AcDbEntity
  8
0
 62
     0
100
AcDbLine
 10
5.874136846538135
 20
8.365699945473096
 30
0.0
 11
7.04610634279885
 21
9.537669441733811
 31
0.0
  0
LINE
  5
1288
330
10FA
100
AcDbEntity
  8
0
 62
     0
100
AcDbLine
 10
7.283190317979148
 20
10.22376622296761
 30
0.0
 11
8.684423642564155
 21
11.62499954755261
 31
0.0
  0
LINE
  5
1289
330
10FA
100
AcDbEntity
  8
0
 62
     0
100
AcDbLine
 10
5.743790198672087
 20
8.684366103660522
 30
0.0
 11
7.047339667383937
 21
9.987915572372401
 31
0.0
  0
LINE
  5
128A
330
10FA
100
AcDbEntity
  8
0
 62
     0
100
AcDbLine
 10
5.662884217548054
 20
9.052472928589935
 30
0.0
 11
8.235410836510766
 21
11.62499954755264
 31
0.0
  0
LINE
  5
128B
330
10FA
100
AcDbEntity
  8
0
 62
     0
100
AcDbLine
 10
5.646106342798901
 20
9.484707859894228
 30
0.0
 11
7.786398030457263
 21
11.62499954755261
 31
0.0
  0
LINE
  5
128C
330
10FA
100
AcDbEntity
  8
0
 62
     0
100
AcDbLine
 10
5.646106342798873
 20
9.933720665947703
 30
0.0
 11
7.337385224403789
 21
11.62499954755261
 31
0.0
  0
LINE
  5
128D
330
10FA
100
AcDbEntity
  8
0
 62
     0
100
AcDbLine
 10
5.656202348018041
 20
10.39282947722031
 30
0.0
 11
6.878276413131175
 21
11.61490354233345
 31
0.0
  0
ENDBLK
  5
128F
330
10FA
100
AcDbEntity
  8
0
100
AcDbBlockEnd
  0
BLOCK
  5
7FF2
330
7FE8
100
AcDbEntity
  8
0
100
AcDbBlockBegin
  2
*D2
 70
     1
 10
0.0
 20
0.0
 30
0.0
  3
*D2
  1

  0
LINE
  5
814D
330
7FE8
100
AcDbEntity
  8
SUNPOU
 62
     4
100
AcDbLine
 10
268.5284859220654
 20
121.4993050024921
 30
0.0
 11
289.8058838509913
 21
121.4993050024921
 31
0.0
  0
LINE
  5
814E
330
7FE8
100
AcDbEntity
  8
SUNPOU
 62
     4
100
AcDbLine
 10
248.2923609104153
 20
41.99930500249218
 30
0.0
 11
289.8058838509913
 21
41.99930500249217
 31
0.0
  0
LINE
  5
814F
330
7FE8
100
AcDbEntity
  8
SUNPOU
 62
     4
100
AcDbLine
 10
288.3058838509913
 20
118.4993050024921
 30
0.0
 11
288.3058838509913
 21
44.99930500249217
 31
0.0
  0
INSERT
  5
8150
330
7FE8
100
AcDbEntity
  8
SUNPOU
 62
     4
100
AcDbBlockReference
  2
_OPEN
 10
288.3058838509913
 20
121.4993050024921
 30
0.0
 41
3.0
 42
3.0
 43
3.0
 50
90.0
  0
INSERT
  5
8151
330
7FE8
100
AcDbEntity
  8
SUNPOU
 62
     4
100
AcDbBlockReference
  2
_OPEN
 10
288.3058838509913
 20
41.99930500249217
 30
0.0
 41
3.0
 42
3.0
 43
3.0
 50
270.0
  0
MTEXT
  5
8152
330
7FE8
100
AcDbEntity
  8
SUNPOU
 62
     4
100
AcDbMText
 10
285.8058838509913
 20
81.74930500249223
 30
0.0
 40
3.0
 41
0.0
 71
     5
 72
     1
  1
\A1;80
 11
0.0000000000000001
 21
1.0
 31
0.0
1001
ACAD
1000
MTEXTBEGIN
1070
    73
1070
     1
1070
    44
1040
1.0
1070
    74
1070
     0
1000
MTEXTEND
1000
MTEXTBEGIN
1070
    73
1070
     1
1070
    44
1040
1.0
1070
    74
1070
     0
1000
MTEXTEND
1000
MTEXTBEGIN
1070
    73
1070
     1
1070
    44
1040
1.0
1070
    74
1070
     0
1000
MTEXTEND
1000
MTEXTBEGIN
1070
    73
1070
     1
1070
    44
1040
1.0
1070
    74
1070
     0
1000
MTEXTEND
  0
POINT
  5
8153
330
7FE8
100
AcDbEntity
  8
DEFPOINTS
 62
     0
100
AcDbPoint
 10
265.5284859220654
 20
121.4993050024921
 30
0.0
  0
POINT
  5
8154
330
7FE8
100
AcDbEntity
  8
DEFPOINTS
 62
     0
100
AcDbPoint
 10
245.2923609104153
 20
41.99930500249218
 30
0.0
  0
POINT
  5
8155
330
7FE8
100
AcDbEntity
  8
DEFPOINTS
 62
     0
100
AcDbPoint
 10
288.3058838509913
 20
41.99930500249217
 30
0.0
  0
ENDBLK
  5
7FF3
330
7FE8
100
AcDbEntity
  8
0
100
AcDbBlockEnd
  0
BLOCK
  5
7FFE
330
7FF4
100
AcDbEntity
  8
0
100
AcDbBlockBegin
  2
*D3
 70
     1
 10
0.0
 20
0.0
 30
0.0
  3
*D3
  1

  0
LINE
  5
8171
330
7FF4
100
AcDbEntity
  8
SUNPOU
 62
     4
100
AcDbLine
 10
123.9798607110583
 20
65.2125935878529
 30
0.0
 11
144.8803811449147
 21
65.2125935878529
 31
0.0
  0
LINE
  5
8172
330
7FF4
100
AcDbEntity
  8
SUNPOU
 62
     4
100
AcDbLine
 10
123.9798607110583
 20
40.21259358785289
 30
0.0
 11
144.8803811449147
 21
40.21259358785289
 31
0.0
  0
LINE
  5
8173
330
7FF4
100
AcDbEntity
  8
SUNPOU
 62
     4
100
AcDbLine
 10
143.3803811449147
 20
62.21259358785289
 30
0.0
 11
143.3803811449147
 21
43.21259358785289
 31
0.0
  0
INSERT
  5
8174
330
7FF4
100
AcDbEntity
  8
SUNPOU
 62
     4
100
AcDbBlockReference
  2
_OPEN
 10
143.3803811449147
 20
65.2125935878529
 30
0.0
 41
3.0
 42
3.0
 43
3.0
 50
90.0
  0
INSERT
  5
8175
330
7FF4
100
AcDbEntity
  8
SUNPOU
 62
     4
100
AcDbBlockReference
  2
_OPEN
 10
143.3803811449147
 20
40.21259358785289
 30
0.0
 41
3.0
 42
3.0
 43
3.0
 50
270.0
  0
MTEXT
  5
8176
330
7FF4
100
AcDbEntity
  8
SUNPOU
 62
     4
100
AcDbMText
 10
140.8803811449147
 20
52.71259358785291
 30
0.0
 40
3.0
 41
0.0
 71
     5
 72
     1
  1
\A1;※25
 11
0.0000000000000001
 21
1.0
 31
0.0
1001
ACAD
1000
MTEXTBEGIN
1070
    73
1070
     1
1070
    44
1040
1.0
1070
    74
1070
     0
1000
MTEXTEND
1000
MTEXTBEGIN
1070
    73
1070
     1
1070
    44
1040
1.0
1070
    74
1070
     0
1000
MTEXTEND
1000
MTEXTBEGIN
1070
    73
1070
     1
1070
    44
1040
1.0
1070
    74
1070
     0
1000
MTEXTEND
1000
MTEXTBEGIN
1070
    73
1070
     1
1070
    44
1040
1.0
1070
    74
1070
     0
1000
MTEXTEND
  0
POINT
  5
8177
330
7FF4
100
AcDbEntity
  8
DEFPOINTS
 62
     0
100
AcDbPoint
 10
120.9798607110583
 20
65.2125935878529
 30
0.0
  0
POINT
  5
8178
330
7FF4
100
AcDbEntity
  8
DEFPOINTS
 62
     0
100
AcDbPoint
 10
120.9798607110583
 20
40.21259358785289
 30
0.0
  0
POINT
  5
8179
330
7FF4
100
AcDbEntity
  8
DEFPOINTS
 62
     0
100
AcDbPoint
 10
143.3803811449147
 20
40.21259358785289
 30
0.0
  0
ENDBLK
  5
7FFF
330
7FF4
100
AcDbEntity
  8
0
100
AcDbBlockEnd
  0
BLOCK
  5
800A
330
8000
100
AcDbEntity
  8
0
100
AcDbBlockBegin
  2
*D4
 70
     1
 10
0.0
 20
0.0
 30
0.0
  3
*D4
  1

  0
LINE
  5
8123
330
8000
100
AcDbEntity
  8
SUNPOU
 62
     4
100
AcDbLine
 10
186.0183277730201
 20
41.76578424258821
 30
0.0
 11
186.0183277730201
 21
25.73195277005959
 31
0.0
  0
LINE
  5
8124
330
8000
100
AcDbEntity
  8
SUNPOU
 62
     4
100
AcDbLine
 10
245.2923609104162
 20
41.76578424258821
 30
0.0
 11
245.2923609104162
 21
25.73195277005959
 31
0.0
  0
LINE
  5
8125
330
8000
100
AcDbEntity
  8
SUNPOU
 62
     4
100
AcDbLine
 10
189.0183277730201
 20
27.23195277005959
 30
0.0
 11
242.2923609104163
 21
27.23195277005959
 31
0.0
  0
INSERT
  5
8126
330
8000
100
AcDbEntity
  8
SUNPOU
 62
     4
100
AcDbBlockReference
  2
_OPEN
 10
186.0183277730201
 20
27.23195277005959
 30
0.0
 41
3.0
 42
3.0
 43
3.0
 50
180.0
  0
INSERT
  5
8127
330
8000
100
AcDbEntity
  8
SUNPOU
 62
     4
100
AcDbBlockReference
  2
_OPEN
 10
245.2923609104162
 20
27.23195277005959
 30
0.0
 41
3.0
 42
3.0
 43
3.0
  0
MTEXT
  5
8128
330
8000
100
AcDbEntity
  8
SUNPOU
 62
     4
100
AcDbMText
 10
215.6553443417182
 20
29.73195277005959
 30
0.0
 40
3.0
 41
0.0
 71
     5
 72
     1
  1
\A1;Φ59
1001
ACAD
1000
MTEXTBEGIN
1070
    73
1070
     1
1070
    44
1040
1.0
1070
    74
1070
     0
1000
MTEXTEND
1000
MTEXTBEGIN
1070
    73
1070
     1
1070
    44
1040
1.0
1070
    74
1070
     0
1000
MTEXTEND
1000
MTEXTBEGIN
1070
    73
1070
     1
1070
    44
1040
1.0
1070
    74
1070
     0
1000
MTEXTEND
1000
MTEXTBEGIN
1070
    73
1070
     1
1070
    44
1040
1.0
1070
    74
1070
     0
1000
MTEXTEND
  0
POINT
  5
8129
330
8000
100
AcDbEntity
  8
DEFPOINTS
 62
     0
100
AcDbPoint
 10
186.0183277730201
 20
44.7657842425882
 30
0.0
  0
POINT
  5
812A
330
8000
100
AcDbEntity
  8
DEFPOINTS
 62
     0
100
AcDbPoint
 10
245.2923609104162
 20
44.7657842425882
 30
0.0
  0
POINT
  5
812B
330
8000
100
AcDbEntity
  8
DEFPOINTS
 62
     0
100
AcDbPoint
 10
245.2923609104162
 20
27.23195277005959
 30
0.0
  0
ENDBLK
  5
800B
330
8000
100
AcDbEntity
  8
0
100
AcDbBlockEnd
  0
BLOCK
  5
8016
330
800C
100
AcDbEntity
  8
0
100
AcDbBlockBegin
  2
*D5
 70
     1
 10
0.0
 20
0.0
 30
0.0
  3
*D5
  1

  0
LINE
  5
8144
330
800C
100
AcDbEntity
  8
SUNPOU
 62
     4
100
AcDbLine
 10
248.5053443417181
 20
66.99930500249218
 30
0.0
 11
269.4058647755745
 21
66.99930500249218
 31
0.0
  0
LINE
  5
8145
330
800C
100
AcDbEntity
  8
SUNPOU
 62
     4
100
AcDbLine
 10
248.5053443417181
 20
41.99930500249218
 30
0.0
 11
269.4058647755745
 21
41.99930500249218
 31
0.0
  0
LINE
  5
8146
330
800C
100
AcDbEntity
  8
SUNPOU
 62
     4
100
AcDbLine
 10
267.9058647755744
 20
63.99930500249218
 30
0.0
 11
267.9058647755744
 21
44.99930500249218
 31
0.0
  0
INSERT
  5
8147
330
800C
100
AcDbEntity
  8
SUNPOU
 62
     4
100
AcDbBlockReference
  2
_OPEN
 10
267.9058647755744
 20
66.99930500249218
 30
0.0
 41
3.0
 42
3.0
 43
3.0
 50
90.0
  0
INSERT
  5
8148
330
800C
100
AcDbEntity
  8
SUNPOU
 62
     4
100
AcDbBlockReference
  2
_OPEN
 10
267.9058647755744
 20
41.99930500249218
 30
0.0
 41
3.0
 42
3.0
 43
3.0
 50
270.0
  0
MTEXT
  5
8149
330
800C
100
AcDbEntity
  8
SUNPOU
 62
     4
100
AcDbMText
 10
265.4058647755745
 20
54.49930500249222
 30
0.0
 40
3.0
 41
0.0
 71
     5
 72
     1
  1
\A1;※25
 11
0.0000000000000001
 21
1.0
 31
0.0
1001
ACAD
1000
MTEXTBEGIN
1070
    73
1070
     1
1070
    44
1040
1.0
1070
    74
1070
     0
1000
MTEXTEND
1000
MTEXTBEGIN
1070
    73
1070
     1
1070
    44
1040
1.0
1070
    74
1070
     0
1000
MTEXTEND
1000
MTEXTBEGIN
1070
    73
1070
     1
1070
    44
1040
1.0
1070
    74
1070
     0
1000
MTEXTEND
1000
MTEXTBEGIN
1070
    73
1070
     1
1070
    44
1040
1.0
1070
    74
1070
     0
1000
MTEXTEND
  0
POINT
  5
814A
330
800C
100
AcDbEntity
  8
DEFPOINTS
 62
     0
100
AcDbPoint
 10
245.5053443417181
 20
66.99930500249218
 30
0.0
  0
POINT
  5
814B
330
800C
100
AcDbEntity
  8
DEFPOINTS
 62
     0
100
AcDbPoint
 10
245.5053443417181
 20
41.99930500249218
 30
0.0
  0
POINT
  5
814C
330
800C
100
AcDbEntity
  8
DEFPOINTS
 62
     0
100
AcDbPoint
 10
267.9058647755744
 20
41.99930500249218
 30
0.0
  0
ENDBLK
  5
8017
330
800C
100
AcDbEntity
  8
0
100
AcDbBlockEnd
  0
BLOCK
  5
8022
330
8018
100
AcDbEntity
  8
0
100
AcDbBlockBegin
  2
*D6
 70
     1
 10
0.0
 20
0.0
 30
0.0
  3
*D6
  1

  0
LINE
  5
8132
330
8018
100
AcDbEntity
  8
SUNPOU
 62
     4
100
AcDbLine
 10
165.78220276137
 20
124.4993050024921
 30
0.0
 11
165.78220276137
 21
141.102674056773
 31
0.0
  0
LINE
  5
8133
330
8018
100
AcDbEntity
  8
SUNPOU
 62
     4
100
AcDbLine
 10
265.5284859220663
 20
124.4993050024921
 30
0.0
 11
265.5284859220663
 21
141.102674056773
 31
0.0
  0
LINE
  5
8134
330
8018
100
AcDbEntity
  8
SUNPOU
 62
     4
100
AcDbLine
 10
168.78220276137
 20
139.602674056773
 30
0.0
 11
262.5284859220663
 21
139.602674056773
 31
0.0
  0
INSERT
  5
8135
330
8018
100
AcDbEntity
  8
SUNPOU
 62
     4
100
AcDbBlockReference
  2
_OPEN
 10
165.78220276137
 20
139.602674056773
 30
0.0
 41
3.0
 42
3.0
 43
3.0
 50
180.0
  0
INSERT
  5
8136
330
8018
100
AcDbEntity
  8
SUNPOU
 62
     4
100
AcDbBlockReference
  2
_OPEN
 10
265.5284859220663
 20
139.602674056773
 30
0.0
 41
3.0
 42
3.0
 43
3.0
  0
MTEXT
  5
8137
330
8018
100
AcDbEntity
  8
SUNPOU
 62
     4
100
AcDbMText
 10
215.6553443417182
 20
142.102674056773
 30
0.0
 40
3.0
 41
0.0
 71
     5
 72
     1
  1
\A1;φ100
1001
ACAD
1000
MTEXTBEGIN
1070
    73
1070
     1
1070
    44
1040
1.0
1070
    74
1070
     0
1000
MTEXTEND
1000
MTEXTBEGIN
1070
    73
1070
     1
1070
    44
1040
1.0
1070
    74
1070
     0
1000
MTEXTEND
1000
MTEXTBEGIN
1070
    73
1070
     1
1070
    44
1040
1.0
1070
    74
1070
     0
1000
MTEXTEND
1000
MTEXTBEGIN
1070
    73
1070
     1
1070
    44
1040
1.0
1070
    74
1070
     0
1000
MTEXTEND
  0
POINT
  5
8138
330
8018
100
AcDbEntity
  8
DEFPOINTS
 62
     0
100
AcDbPoint
 10
165.78220276137
 20
121.4993050024921
 30
0.0
  0
POINT
  5
8139
330
8018
100
AcDbEntity
  8
DEFPOINTS
 62
     0
100
AcDbPoint
 10
265.5284859220663
 20
121.4993050024921
 30
0.0
  0
POINT
  5
813A
330
8018
100
AcDbEntity
  8
DEFPOINTS
 62
     0
100
AcDbPoint
 10
265.5284859220663
 20
139.602674056773
 30
0.0
  0
ENDBLK
  5
8023
330
8018
100
AcDbEntity
  8
0
100
AcDbBlockEnd
  0
BLOCK
  5
802B
330
8024
100
AcDbEntity
  8
0
100
AcDbBlockBegin
  2
*D7
 70
     1
 10
0.0
 20
0.0
 30
0.0
  3
*D7
  1

  0
LINE
  5
962D
330
8024
100
AcDbEntity
  8
SUNPOU
 62
     4
100
AcDbLine
 10
197.8692580594825
 20
190.3415785306116
 30
0.0
 11
235.1823189737666
 21
217.2439108682898
 31
0.0
  0
MTEXT
  5
962E
330
8024
100
AcDbEntity
  8
SUNPOU
 62
     4
100
AcDbMText
 10
223.4466325541631
 20
216.5008608004577
 30
0.0
 40
3.0
 41
0.0
 71
     5
 72
     1
  1
\A1;\U+220552
 11
0.8111534981366178
 21
0.5848333116886622
 31
0.0
  0
INSERT
  5
962F
330
8024
100
AcDbEntity
  8
SUNPOU
 62
     4
100
AcDbBlockReference
  2
_OPEN
 10
195.4357975650726
 20
188.5870785955456
 30
0.0
 41
3.0
 42
3.0
 43
3.0
 50
215.7912151201392
  0
INSERT
  5
9630
330
8024
100
AcDbEntity
  8
SUNPOU
 62
     4
100
AcDbBlockReference
  2
_OPEN
 10
237.6157794681765
 20
218.9984108033558
 30
0.0
 41
3.0
 42
3.0
 43
3.0
 50
35.79121512013927
  0
POINT
  5
9631
330
8024
100
AcDbEntity
  8
DEFPOINTS
 62
     0
100
AcDbPoint
 10
237.6157794681765
 20
218.9984108033558
 30
0.0
  0
POINT
  5
9632
330
8024
100
AcDbEntity
  8
DEFPOINTS
 62
     0
100
AcDbPoint
 10
195.4357975650726
 20
188.5870785955456
 30
0.0
  0
ENDBLK
  5
802C
330
8024
100
AcDbEntity
  8
0
100
AcDbBlockEnd
  0
ENDSEC
  0
SECTION
  2
ENTITIES
  0
LINE
  5
693
330
1A
100
AcDbEntity
  8
ZUWAKU
100
AcDbLine
 10
104.3233009104422
 20
7.599999547552665
 30
0.0
 11
223.7121822509039
 21
7.599999547552661
 31
0.0
  0
LINE
  5
694
330
1A
100
AcDbEntity
  8
ZUWAKU
100
AcDbLine
 10
104.3233009104422
 20
7.799999547552661
 30
0.0
 11
223.7121822509039
 21
7.799999547552666
 31
0.0
  0
LINE
  5
695
330
1A
100
AcDbEntity
  8
ZUWAKU
100
AcDbLine
 10
104.3233009104422
 20
7.699999547552661
 30
0.0
 11
223.7121822509039
 21
7.699999547552661
 31
0.0
  0
LINE
  5
696
330
1A
100
AcDbEntity
  8
ZUWAKU
100
AcDbLine
 10
0.0000002654082891
 20
15.39999954755265
 30
0.0
 11
398.7000002654082
 21
15.39999954755265
 31
0.0
  0
LINE
  5
697
330
1A
100
AcDbEntity
  8
ZUWAKU
100
AcDbLine
 10
0.0000002654082891
 20
15.29999954755265
 30
0.0
 11
398.7000002654082
 21
15.29999954755265
 31
0.0
  0
LINE
  5
698
330
1A
100
AcDbEntity
  8
ZUWAKU
100
AcDbLine
 10
0.0000002654082891
 20
15.19999954755265
 30
0.0
 11
398.7000002654082
 21
15.19999954755265
 31
0.0
  0
LINE
  5
699
330
1A
100
AcDbEntity
  8
ZUWAKU
100
AcDbLine
 10
0.0000002654082891
 20
15.09999954755264
 30
0.0
 11
398.7000002654082
 21
15.09999954755264
 31
0.0
  0
LINE
  5
69A
330
1A
100
AcDbEntity
  8
ZUWAKU
100
AcDbLine
 10
0.0000002654082891
 20
14.99999954755264
 30
0.0
 11
398.7000002654082
 21
14.99999954755264
 31
0.0
  0
POLYLINE
  5
69B
330
1A
100
AcDbEntity
  8
ZUWAKU
100
AcDb2dPolyline
 66
     1
 10
0.0
 20
0.0
 30
0.0
 70
     1
  0
VERTEX
  5
9501
330
69B
100
AcDbEntity
  8
ZUWAKU
100
AcDbVertex
100
AcDb2dVertex
 10
0.100000265408255
 20
275.6999995475526
 30
0.0
  0
VERTEX
  5
9502
330
69B
100
AcDbEntity
  8
ZUWAKU
100
AcDbVertex
100
AcDb2dVertex
 10
0.100000265408255
 20
0.0999995475526703
 30
0.0
  0
VERTEX
  5
9503
330
69B
100
AcDbEntity
  8
ZUWAKU
100
AcDbVertex
100
AcDb2dVertex
 10
398.7000002654082
 20
0.0999995475526818
 30
0.0
  0
VERTEX
  5
9504
330
69B
100
AcDbEntity
  8
ZUWAKU
100
AcDbVertex
100
AcDb2dVertex
 10
398.7000002654083
 20
275.6999995475526
 30
0.0
  0
SEQEND
  5
9505
330
69B
100
AcDbEntity
  8
ZUWAKU
  0
POLYLINE
  5
69C
330
1A
100
AcDbEntity
  8
ZUWAKU
100
AcDb2dPolyline
 66
     1
 10
0.0
 20
0.0
 30
0.0
 70
     1
  0
VERTEX
  5
9506
330
69C
100
AcDbEntity
  8
ZUWAKU
100
AcDbVertex
100
AcDb2dVertex
 10
0.3000002654082436
 20
275.4999995475527
 30
0.0
  0
VERTEX
  5
9507
330
69C
100
AcDbEntity
  8
ZUWAKU
100
AcDbVertex
100
AcDb2dVertex
 10
0.3000002654082436
 20
0.2999995475526589
 30
0.0
  0
VERTEX
  5
9508
330
69C
100
AcDbEntity
  8
ZUWAKU
100
AcDbVertex
100
AcDb2dVertex
 10
398.5000002654084
 20
0.299999547552682
 30
0.0
  0
VERTEX
  5
9509
330
69C
100
AcDbEntity
  8
ZUWAKU
100
AcDbVertex
100
AcDb2dVertex
 10
398.5000002654082
 20
275.4999995475527
 30
0.0
  0
SEQEND
  5
950A
330
69C
100
AcDbEntity
  8
ZUWAKU
  0
POLYLINE
  5
69D
330
1A
100
AcDbEntity
  8
ZUWAKU
100
AcDb2dPolyline
 66
     1
 10
0.0
 20
0.0
 30
0.0
 70
     1
  0
VERTEX
  5
950B
330
69D
100
AcDbEntity
  8
ZUWAKU
100
AcDbVertex
100
AcDb2dVertex
 10
0.0000002654082891
 20
275.7999995475526
 30
0.0
  0
VERTEX
  5
950C
330
69D
100
AcDbEntity
  8
ZUWAKU
100
AcDbVertex
100
AcDb2dVertex
 10
0.0000002654082891
 20
-0.0000004524473525
 30
0.0
  0
VERTEX
  5
950D
330
69D
100
AcDbEntity
  8
ZUWAKU
100
AcDbVertex
100
AcDb2dVertex
 10
398.8000002654083
 20
-0.0000004524473187
 30
0.0
  0
VERTEX
  5
950E
330
69D
100
AcDbEntity
  8
ZUWAKU
100
AcDbVertex
100
AcDb2dVertex
 10
398.8000002654083
 20
275.7999995475527
 30
0.0
  0
SEQEND
  5
950F
330
69D
100
AcDbEntity
  8
ZUWAKU
  0
POLYLINE
  5
69E
330
1A
100
AcDbEntity
  8
ZUWAKU
100
AcDb2dPolyline
 66
     1
 10
0.0
 20
0.0
 30
0.0
 70
     1
  0
VERTEX
  5
9510
330
69E
100
AcDbEntity
  8
ZUWAKU
100
AcDbVertex
100
AcDb2dVertex
 10
0.2000002654082777
 20
275.5999995475526
 30
0.0
  0
VERTEX
  5
9511
330
69E
100
AcDbEntity
  8
ZUWAKU
100
AcDbVertex
100
AcDb2dVertex
 10
0.2000002654082777
 20
0.199999547552693
 30
0.0
  0
VERTEX
  5
9512
330
69E
100
AcDbEntity
  8
ZUWAKU
100
AcDbVertex
100
AcDb2dVertex
 10
398.6000002654083
 20
0.1999995475526814
 30
0.0
  0
VERTEX
  5
9513
330
69E
100
AcDbEntity
  8
ZUWAKU
100
AcDbVertex
100
AcDb2dVertex
 10
398.6000002654083
 20
275.5999995475526
 30
0.0
  0
SEQEND
  5
9514
330
69E
100
AcDbEntity
  8
ZUWAKU
  0
POLYLINE
  5
69F
330
1A
100
AcDbEntity
  8
ZUWAKU
100
AcDb2dPolyline
 66
     1
 10
0.0
 20
0.0
 30
0.0
 70
     1
  0
VERTEX
  5
9515
330
69F
100
AcDbEntity
  8
ZUWAKU
100
AcDbVertex
100
AcDb2dVertex
 10
0.4000002654082664
 20
275.3999995475526
 30
0.0
  0
VERTEX
  5
9516
330
69F
100
AcDbEntity
  8
ZUWAKU
100
AcDbVertex
100
AcDb2dVertex
 10
0.4000002654082664
 20
0.3999995475526816
 30
0.0
  0
VERTEX
  5
9517
330
69F
100
AcDbEntity
  8
ZUWAKU
100
AcDbVertex
100
AcDb2dVertex
 10
398.4000002654082
 20
0.3999995475526816
 30
0.0
  0
VERTEX
  5
9518
330
69F
100
AcDbEntity
  8
ZUWAKU
100
AcDbVertex
100
AcDb2dVertex
 10
398.4000002654082
 20
275.3999995475526
 30
0.0
  0
SEQEND
  5
9519
330
69F
100
AcDbEntity
  8
ZUWAKU
  0
INSERT
  5
6A2
330
1A
100
AcDbEntity
  8
ZUWAKU
  6
CONTINUOUS
100
AcDbBlockReference
  2
*X1
 10
0.0
 20
0.0
 30
0.0
1001
ACAD
1000
HATCH
1002
{
1070
    19
1000
ANSI37
1040
0.1
1040
0.0
1000
R14_HATCH_DATA
1000
6A2
1011
1.0
1021
0.0
1031
0.0
1011
0.0
1021
1.0
1031
0.0
1011
0.0
1021
0.0
1031
1.0
1040
0.0
1010
0.0
1020
0.0
1030
1.0
1000
ANSI37
1070
     0
1070
     0
1071
        8
1071
        7
1070
     1
1070
     1
1071
       24
1040
7.251131595968215
1040
8.822423788044437
1040
-0.1989123673796348
1040
7.046106342798849
1040
9.317398534874961
1040
0.0
1040
7.046106342798849
1040
9.962499547552651
1040
-0.4142135623730912
1040
7.308606342798834
1040
10.22499954755264
1040
0.0
1040
8.796106342798788
1040
10.22499954755264
1040
0.4142135623731546
1040
9.058606342798841
1040
10.48749954755264
1040
0.0
1040
9.058606342798841
1040
11.36249954755265
1040
0.4142135623731586
1040
8.796106342798788
1040
11.62499954755264
1040
0.0
1040
7.046106342798849
1040
11.62499954755264
1040
0.4142135623730928
1040
5.646106342798869
1040
10.22499954755266
1040
0.0
1040
5.646106342798869
1040
9.317398534875026
1040
0.1989123673796619
1040
6.261182102307084
1040
7.832474294383221
1040
0.0
1040
7.716081089629423
1040
6.377575307060895
1040
-0.1989123673796613
1040
7.921106342798849
1040
5.882600560230301
1040
0.0
1040
7.921106342798849
1040
5.237499547552641
1040
-0.4142135623730911
1040
7.658606342798859
1040
4.974999547552648
1040
0.0
1040
6.171106342798904
1040
4.974999547552648
1040
0.4142135623731526
1040
5.908606342798859
1040
4.712499547552654
1040
0.0
1040
5.908606342798859
1040
3.837499547552643
1040
0.4142135623731526
1040
6.171106342798904
1040
3.574999547552649
1040
0.0
1040
7.921106342798849
1040
3.574999547552649
1040
0.4142135623731045
1040
9.321106342798886
1040
4.974999547552638
1040
0.0
1040
9.321106342798886
1040
5.882600560230271
1040
0.1989123673796604
1040
8.706030583290608
1040
7.367524800722041
1040
0.0
1071
        0
1071
        7
1070
     1
1070
     1
1071
       16
1040
11.77110634279886
1040
9.524999547552651
1040
-0.4142135623730935
1040
12.47110634279886
1040
10.22499954755264
1040
0.0
1040
13.43360634279884
1040
10.22499954755264
1040
0.4142135623731546
1040
13.69610634279888
1040
10.48749954755264
1040
0.0
1040
13.69610634279888
1040
11.36249954755265
1040
0.4142135623730951
1040
13.43360634279889
1040
11.62499954755264
1040
0.0
1040
12.4711063427988
1040
11.62499954755262
1040
0.4142135623730893
1040
10.37110634279883
1040
9.524999547552617
1040
0.0
1040
10.37110634279883
1040
5.674999547552661
1040
0.4142135623730969
1040
12.47110634279886
1040
3.574999547552649
1040
0.0
1040
13.43360634279884
1040
3.574999547552649
1040
0.4142135623731526
1040
13.69610634279888
1040
3.837499547552643
1040
0.0
1040
13.69610634279888
1040
4.712499547552654
1040
0.4142135623730891
1040
13.43360634279889
1040
4.974999547552648
1040
0.0
1040
12.47110634279886
1040
4.974999547552648
1040
-0.4142135623730928
1040
11.77110634279886
1040
5.674999547552641
1040
0.0
1071
        0
1071
        7
1070
     1
1070
     1
1071
        2
1040
12.12110634279884
1040
7.599999547552645
1040
1.0
1040
13.87110634279884
1040
7.599999547552645
1040
1.0
1071
        0
1071
        7
1070
     1
1070
     1
1071
       26
1040
18.65742958388784
1040
9.602523144334361
1040
0.0
1040
19.18824940045675
1040
11.28345256346915
1040
0.5069206636600134
1040
18.93793395085907
1040
11.62499954755264
1040
0.0
1040
18.08848926105445
1040
11.62499954755264
1040
0.3272098845218764
1040
17.83817381145678
1040
11.44154653163613
1040
0.0
1040
16.90403887414088
1040
8.483452563469185
1040
-0.3272098845219541
1040
16.65372342454315
1040
8.299999547552646
1040
0.0
1040
16.58360634279893
1040
8.299999547552646
1040
-0.4142135623731526
1040
16.32110634279888
1040
8.56249954755264
1040
0.0
1040
16.32110634279888
1040
11.36249954755265
1040
0.4142135623730951
1040
16.05860634279889
1040
11.62499954755264
1040
0.0
1040
15.18360634279883
1040
11.62499954755264
1040
0.4142135623730871
1040
14.92110634279885
1040
11.36249954755265
1040
0.0
1040
14.92110634279885
1040
3.837499547552643
1040
0.4142135623730891
1040
15.18360634279883
1040
3.574999547552649
1040
0.0
1040
16.05860634279884
1040
3.574999547552649
1040
0.4142135623731526
1040
16.32110634279888
1040
3.837499547552643
1040
0.0
1040
16.32110634279888
1040
6.63749954755265
1040
-0.4142135623731526
1040
16.58360634279893
1040
6.899999547552646
1040
0.0
1040
16.65372342454321
1040
6.899999547552646
1040
-0.3272098845218915
1040
16.90403887414088
1040
6.716546531636111
1040
0.0
1040
17.83817381145678
1040
3.758452563469185
1040
0.3272098845218902
1040
18.08848926105445
1040
3.574999547552649
1040
0.0
1040
18.93793395085907
1040
3.574999547552649
1040
0.5069206636600336
1040
19.18824940045675
1040
3.916546531636154
1040
0.0
1040
18.02505371121992
1040
7.599999547552716
1040
0.0
1071
        0
1071
        7
1070
     1
1070
     1
1071
        8
1040
21.74610634279883
1040
11.36249954755265
1040
0.4142135623731546
1040
21.48360634279879
1040
11.62499954755264
1040
0.0
1040
20.60860634279891
1040
11.62499954755264
1040
0.4142135623731507
1040
20.34610634279885
1040
11.36249954755265
1040
0.0
1040
20.34610634279885
1040
3.837499547552643
1040
0.4142135623731526
1040
20.60860634279891
1040
3.574999547552649
1040
0.0
1040
21.48360634279879
1040
3.574999547552649
1040
0.4142135623731526
1040
21.74610634279883
1040
3.837499547552643
1040
0.0
1071
        0
1071
        7
1070
     1
1070
     1
1071
       24
1040
24.19610634279888
1040
9.962499547552651
1040
-0.4142135623731546
1040
24.45860634279893
1040
10.22499954755264
1040
0.0
1040
25.94610634279888
1040
10.22499954755264
1040
0.4142135623730911
1040
26.20860634279887
1040
10.48749954755264
1040
0.0
1040
26.20860634279887
1040
11.36249954755265
1040
0.4142135623730952
1040
25.94610634279888
1040
11.62499954755264
1040
0.0
1040
24.19610634279888
1040
11.62499954755264
1040
0.4142135623731048
1040
22.79610634279884
1040
10.22499954755266
1040
0.0
1040
22.79610634279884
1040
9.317398534875026
1040
0.1989123673796613
1040
23.41118210230712
1040
7.832474294383251
1040
0.0
1040
24.86608108962945
1040
6.377575307060917
1040
-0.1989123673796402
1040
25.07110634279888
1040
5.882600560230381
1040
0.0
1040
25.07110634279888
1040
5.237499547552641
1040
-0.4142135623730911
1040
24.80860634279889
1040
4.974999547552648
1040
0.0
1040
23.32110634279888
1040
4.974999547552648
1040
0.4142135623731526
1040
23.05860634279884
1040
4.712499547552654
1040
0.0
1040
23.05860634279884
1040
3.837499547552643
1040
0.4142135623730891
1040
23.32110634279882
1040
3.574999547552649
1040
0.0
1040
25.07110634279888
1040
3.574999547552649
1040
0.4142135623730925
1040
26.47110634279886
1040
4.974999547552638
1040
0.0
1040
26.47110634279886
1040
5.882600560230271
1040
0.1989123673796675
1040
25.85603058329059
1040
7.367524800722101
1040
0.0
1040
24.4011315959683
1040
8.822423788044357
1040
-0.1989123673796652
1040
24.19610634279888
1040
9.317398534874939
1040
0.0
1071
        0
1071
        7
1070
     1
1070
     1
1071
       16
1040
28.92110634279885
1040
11.36249954755264
1040
0.414213562373103
1040
28.65860634279886
1040
11.62499954755264
1040
0.0
1040
27.78360634279886
1040
11.62499954755264
1040
0.4142135623730871
1040
27.52110634279887
1040
11.36249954755265
1040
0.0
1040
27.52110634279887
1040
4.974999547552638
1040
0.4142135623730927
1040
28.92110634279885
1040
3.574999547552649
1040
0.0
1040
30.67110634279885
1040
3.574999547552649
1040
0.4142135623731045
1040
32.07110634279888
1040
4.974999547552638
1040
0.0
1040
32.07110634279888
1040
11.36249954755265
1040
0.4142135623730951
1040
31.80860634279889
1040
11.62499954755264
1040
0.0
1040
30.93360634279884
1040
11.62499954755264
1040
0.4142135623730871
1040
30.67110634279885
1040
11.36249954755265
1040
0.0
1040
30.67110634279885
1040
5.499999547552635
1040
-0.4142135623730879
1040
30.14610634279887
1040
4.974999547552648
1040
0.0
1040
29.44610634279888
1040
4.974999547552648
1040
-0.4142135623731197
1040
28.92110634279885
1040
5.499999547552635
1040
0.0
1071
        0
1071
        7
1070
     1
1070
     1
1071
        8
1040
34.52110634279887
1040
11.36249954755265
1040
0.4142135623730871
1040
34.25860634279888
1040
11.62499954755264
1040
0.0
1040
33.38360634279888
1040
11.62499954755264
1040
0.4142135623731507
1040
33.12110634279884
1040
11.36249954755265
1040
0.0
1040
33.12110634279884
1040
3.837499547552643
1040
0.4142135623730891
1040
33.38360634279883
1040
3.574999547552649
1040
0.0
1040
34.25860634279888
1040
3.574999547552649
1040
0.4142135623730891
1040
34.52110634279887
1040
3.837499547552643
1040
0.0
1071
        0
1070
     0
1070
     1
1040
0.0
1040
0.1
1070
     0
1070
     2
1040
0.7853981633974483
1040
-450.4711519019312
1040
-6.600000452447313
1040
-0.2245064030267288
1040
0.2245064030267288
1070
     0
1040
2.356194490192344
1040
-450.4711519019312
1040
-6.600000452447313
1040
-0.2245064030267288
1040
-0.2245064030267288
1070
     0
1040
0.057451373970553
1071
        8
1040
8.039927746919939
1040
7.583586370495421
1040
0.0
1040
11.20225776862787
1040
9.422030638778151
1040
0.0
1040
12.58218420823811
1040
7.755940370588006
1040
0.0
1040
15.45703025622685
1040
8.100648370773395
1040
0.0
1040
20.91923627488665
1040
8.330454504544206
1040
0.0
1040
23.44910071297306
1040
9.709287705756251
1040
0.0
1040
28.27884325160846
1040
9.364578505100151
1040
0.0
1040
33.91354007521965
1040
9.594384638870961
1040
0.0
1002
}
  0
LINE
  5
6A3
330
1A
100
AcDbEntity
  8
ZUWAKU
100
AcDbLine
 10
12.47110634279886
 20
11.62499954755262
 30
0.0
 11
13.43360634279884
 21
11.62499954755264
 31
0.0
  0
LINE
  5
6A4
330
1A
100
AcDbEntity
  8
ZUWAKU
100
AcDbLine
 10
13.43360634279884
 20
10.22499954755264
 30
0.0
 11
12.47110634279886
 21
10.22499954755264
 31
0.0
  0
LINE
  5
6A5
330
1A
100
AcDbEntity
  8
ZUWAKU
100
AcDbLine
 10
12.47110634279886
 20
4.974999547552648
 30
0.0
 11
13.43360634279884
 21
4.974999547552648
 31
0.0
  0
LINE
  5
6A6
330
1A
100
AcDbEntity
  8
ZUWAKU
100
AcDbLine
 10
13.43360634279884
 20
3.574999547552649
 30
0.0
 11
12.47110634279886
 21
3.574999547552649
 31
0.0
  0
CIRCLE
  5
6A7
330
1A
100
AcDbEntity
  8
ZUWAKU
100
AcDbCircle
 10
12.99610634279883
 20
7.599999547552645
 30
0.0
 40
0.875
  0
ARC
  5
6A8
330
1A
100
AcDbEntity
  8
ZUWAKU
100
AcDbCircle
 10
7.746106342798839
 20
9.317398534874994
 30
0.0
 40
0.6999999999999995
100
AcDbArc
 50
180.0000000000015
 51
224.9999999999988
  0
LINE
  5
6A9
330
1A
100
AcDbEntity
  8
ZUWAKU
100
AcDbLine
 10
11.77110634279886
 20
9.524999547552646
 30
0.0
 11
11.77110634279886
 21
5.67499954755265
 31
0.0
  0
LINE
  5
6AA
330
1A
100
AcDbEntity
  8
ZUWAKU
100
AcDbLine
 10
10.37110634279883
 20
5.67499954755265
 30
0.0
 11
10.37110634279883
 21
9.524999547552626
 31
0.0
  0
ARC
  5
6AB
330
1A
100
AcDbEntity
  8
ZUWAKU
100
AcDbCircle
 10
7.746106342798839
 20
9.317398534874994
 30
0.0
 40
2.099999999999999
100
AcDbArc
 50
180.0
 51
225.0
  0
ARC
  5
6AC
330
1A
100
AcDbEntity
  8
ZUWAKU
100
AcDbCircle
 10
7.921106342798849
 20
4.974999547552648
 30
0.0
 40
1.399999999999999
100
AcDbArc
 50
270.0
 51
0.0
  0
ARC
  5
6AD
330
1A
100
AcDbEntity
  8
ZUWAKU
100
AcDbCircle
 10
12.47110634279886
 20
5.67499954755265
 30
0.0
 40
2.099999999999999
100
AcDbArc
 50
180.0
 51
270.0
  0
ARC
  5
6AE
330
1A
100
AcDbEntity
  8
ZUWAKU
100
AcDbCircle
 10
7.221106342798859
 20
5.882600560230301
 30
0.0
 40
2.099999999999999
100
AcDbArc
 50
0.0
 51
45.0
  0
LINE
  5
6AF
330
1A
100
AcDbEntity
  8
ZUWAKU
100
AcDbLine
 10
8.706030583290608
 20
7.36752480072206
 30
0.0
 11
7.251131595968269
 21
8.822423788044396
 31
0.0
  0
LINE
  5
6B0
330
1A
100
AcDbEntity
  8
ZUWAKU
100
AcDbLine
 10
7.921106342798849
 20
5.23749954755265
 30
0.0
 11
7.921106342798849
 21
5.88260056023032
 31
0.0
  0
ARC
  5
6B1
330
1A
100
AcDbEntity
  8
ZUWAKU
100
AcDbCircle
 10
7.658606342798859
 20
5.23749954755265
 30
0.0
 40
0.2625
100
AcDbArc
 50
270.0
 51
0.0
  0
ARC
  5
6B2
330
1A
100
AcDbEntity
  8
ZUWAKU
100
AcDbCircle
 10
7.221106342798859
 20
5.88260056023032
 30
0.0
 40
0.6999999999999995
100
AcDbArc
 50
0.0
 51
45.0
  0
LINE
  5
6B3
330
1A
100
AcDbEntity
  8
ZUWAKU
100
AcDbLine
 10
5.908606342798859
 20
3.837499547552649
 30
0.0
 11
5.908606342798859
 21
4.712499547552648
 31
0.0
  0
ARC
  5
6B4
330
1A
100
AcDbEntity
  8
ZUWAKU
100
AcDbCircle
 10
6.171106342798849
 20
3.837499547552649
 30
0.0
 40
0.2625
100
AcDbArc
 50
180.0
 51
270.0
  0
ARC
  5
6B5
330
1A
100
AcDbEntity
  8
ZUWAKU
100
AcDbCircle
 10
6.171106342798849
 20
4.712499547552648
 30
0.0
 40
0.2625
100
AcDbArc
 50
90.0
 51
180.0
  0
LINE
  5
6B6
330
1A
100
AcDbEntity
  8
ZUWAKU
100
AcDbLine
 10
6.171106342798849
 20
3.574999547552649
 30
0.0
 11
7.921106342798849
 21
3.574999547552649
 31
0.0
  0
LINE
  5
6B7
330
1A
100
AcDbEntity
  8
ZUWAKU
100
AcDbLine
 10
6.171106342798849
 20
4.974999547552648
 30
0.0
 11
7.658606342798859
 21
4.974999547552648
 31
0.0
  0
LINE
  5
6B8
330
1A
100
AcDbEntity
  8
ZUWAKU
100
AcDbLine
 10
6.261182102307084
 20
7.832474294383235
 30
0.0
 11
7.716081089629423
 21
6.377575307060906
 31
0.0
  0
LINE
  5
6B9
330
1A
100
AcDbEntity
  8
ZUWAKU
100
AcDbLine
 10
9.321106342798886
 20
4.974999547552648
 30
0.0
 11
9.321106342798886
 21
5.88260056023032
 31
0.0
  0
ARC
  5
6BA
330
1A
100
AcDbEntity
  8
ZUWAKU
100
AcDbCircle
 10
12.47110634279886
 20
5.67499954755265
 30
0.0
 40
0.6999999999999995
100
AcDbArc
 50
180.0
 51
270.0
  0
ARC
  5
6BB
330
1A
100
AcDbEntity
  8
ZUWAKU
100
AcDbCircle
 10
8.79610634279885
 20
11.36249954755264
 30
0.0
 40
0.2625
100
AcDbArc
 50
0.0
 51
90.0
  0
ARC
  5
6BC
330
1A
100
AcDbEntity
  8
ZUWAKU
100
AcDbCircle
 10
8.79610634279885
 20
10.48749954755264
 30
0.0
 40
0.2625
100
AcDbArc
 50
270.0
 51
0.0
  0
LINE
  5
6BD
330
1A
100
AcDbEntity
  8
ZUWAKU
100
AcDbLine
 10
7.046106342798849
 20
11.62499954755264
 30
0.0
 11
8.79610634279885
 21
11.62499954755264
 31
0.0
  0
ARC
  5
6BE
330
1A
100
AcDbEntity
  8
ZUWAKU
100
AcDbCircle
 10
7.308606342798834
 20
9.962499547552646
 30
0.0
 40
0.2625
100
AcDbArc
 50
90.0
 51
180.0
  0
LINE
  5
6BF
330
1A
100
AcDbEntity
  8
ZUWAKU
100
AcDbLine
 10
7.046106342798849
 20
9.962499547552646
 30
0.0
 11
7.046106342798849
 21
9.317398534874977
 31
0.0
  0
LINE
  5
6C0
330
1A
100
AcDbEntity
  8
ZUWAKU
100
AcDbLine
 10
8.79610634279885
 20
10.22499954755264
 30
0.0
 11
7.308606342798834
 21
10.22499954755264
 31
0.0
  0
LINE
  5
6C1
330
1A
100
AcDbEntity
  8
ZUWAKU
100
AcDbLine
 10
5.646106342798869
 20
10.22499954755264
 30
0.0
 11
5.646106342798869
 21
9.317398534874977
 31
0.0
  0
ARC
  5
6C2
330
1A
100
AcDbEntity
  8
ZUWAKU
100
AcDbCircle
 10
7.046106342798849
 20
10.22499954755264
 30
0.0
 40
1.399999999999999
100
AcDbArc
 50
90.0
 51
180.0
  0
LINE
  5
6C3
330
1A
100
AcDbEntity
  8
ZUWAKU
100
AcDbLine
 10
9.058606342798841
 20
11.36249954755264
 30
0.0
 11
9.058606342798841
 21
10.48749954755264
 31
0.0
  0
ARC
  5
6C4
330
1A
100
AcDbEntity
  8
ZUWAKU
100
AcDbCircle
 10
12.47110634279886
 20
9.524999547552646
 30
0.0
 40
0.6999999999999995
100
AcDbArc
 50
90.0
 51
180.0
  0
ARC
  5
6C5
330
1A
100
AcDbEntity
  8
ZUWAKU
100
AcDbCircle
 10
12.47110634279886
 20
9.524999547552626
 30
0.0
 40
2.099999999999999
100
AcDbArc
 50
90.0
 51
180.0
  0
LINE
  5
6C6
330
1A
100
AcDbEntity
  8
ZUWAKU
100
AcDbLine
 10
39.66331503940239
 20
14.99999954755264
 30
0.0
 11
39.6633150394025
 21
0.3999995475526816
 31
0.0
  0
LINE
  5
6C7
330
1A
100
AcDbEntity
  8
ZUWAKU
100
AcDbLine
 10
39.76331503940241
 20
14.99999954755264
 30
0.0
 11
39.76331503940252
 21
0.3999995475526816
 31
0.0
  0
LINE
  5
6C8
330
1A
100
AcDbEntity
  8
ZUWAKU
100
AcDbLine
 10
39.56331503940248
 20
14.99999954755264
 30
0.0
 11
39.56331503940248
 21
0.3999995475526816
 31
0.0
  0
LINE
  5
6C9
330
1A
100
AcDbEntity
  8
ZUWAKU
100
AcDbLine
 10
32.07110634279888
 20
4.974999547552648
 30
0.0
 11
32.07110634279888
 21
11.36249954755264
 31
0.0
  0
LINE
  5
6CA
330
1A
100
AcDbEntity
  8
ZUWAKU
100
AcDbLine
 10
30.67110634279885
 20
11.36249954755264
 30
0.0
 11
30.67110634279885
 21
5.499999547552645
 31
0.0
  0
LINE
  5
6CB
330
1A
100
AcDbEntity
  8
ZUWAKU
100
AcDbLine
 10
34.52110634279887
 20
3.837499547552649
 30
0.0
 11
34.52110634279887
 21
11.36249954755264
 31
0.0
  0
LINE
  5
6CC
330
1A
100
AcDbEntity
  8
ZUWAKU
100
AcDbLine
 10
33.12110634279884
 20
11.36249954755264
 30
0.0
 11
33.12110634279884
 21
3.837499547552649
 31
0.0
  0
ARC
  5
6CD
330
1A
100
AcDbEntity
  8
ZUWAKU
100
AcDbCircle
 10
24.89610634279887
 20
9.317398534874994
 30
0.0
 40
0.6999999999999995
100
AcDbArc
 50
180.0000000000015
 51
224.9999999999988
  0
ARC
  5
6CE
330
1A
100
AcDbEntity
  8
ZUWAKU
100
AcDbCircle
 10
24.89610634279887
 20
9.317398534874994
 30
0.0
 40
2.099999999999999
100
AcDbArc
 50
180.0
 51
225.0
  0
LINE
  5
6CF
330
1A
100
AcDbEntity
  8
ZUWAKU
100
AcDbLine
 10
18.65742958388784
 20
9.602523144334361
 30
0.0
 11
18.02505371121992
 21
7.599999547552655
 31
0.0
  0
LINE
  5
6D0
330
1A
100
AcDbEntity
  8
ZUWAKU
100
AcDbLine
 10
20.34610634279885
 20
11.36249954755264
 30
0.0
 11
20.34610634279885
 21
3.837499547552649
 31
0.0
  0
LINE
  5
6D1
330
1A
100
AcDbEntity
  8
ZUWAKU
100
AcDbLine
 10
21.74610634279883
 20
3.837499547552649
 30
0.0
 11
21.74610634279883
 21
11.36249954755264
 31
0.0
  0
LINE
  5
6D2
330
1A
100
AcDbEntity
  8
ZUWAKU
100
AcDbLine
 10
27.52110634279887
 20
11.36249954755264
 30
0.0
 11
27.52110634279887
 21
4.974999547552648
 31
0.0
  0
LINE
  5
6D3
330
1A
100
AcDbEntity
  8
ZUWAKU
100
AcDbLine
 10
28.92110634279885
 20
5.499999547552645
 30
0.0
 11
28.92110634279885
 21
11.36249954755264
 31
0.0
  0
LINE
  5
6D4
330
1A
100
AcDbEntity
  8
ZUWAKU
100
AcDbLine
 10
16.32110634279888
 20
8.562499547552651
 30
0.0
 11
16.32110634279888
 21
11.36249954755264
 31
0.0
  0
LINE
  5
6D5
330
1A
100
AcDbEntity
  8
ZUWAKU
100
AcDbLine
 10
14.92110634279885
 20
11.36249954755264
 30
0.0
 11
14.92110634279885
 21
3.837499547552649
 31
0.0
  0
LINE
  5
6D6
330
1A
100
AcDbEntity
  8
ZUWAKU
100
AcDbLine
 10
17.83817381145678
 20
11.44154653163613
 30
0.0
 11
16.90403887414088
 21
8.48345256346916
 31
0.0
  0
LINE
  5
6D7
330
1A
100
AcDbEntity
  8
ZUWAKU
100
AcDbLine
 10
30.14610634279887
 20
4.974999547552648
 30
0.0
 11
29.44610634279888
 21
4.974999547552648
 31
0.0
  0
LINE
  5
6D8
330
1A
100
AcDbEntity
  8
ZUWAKU
100
AcDbLine
 10
28.92110634279885
 20
3.574999547552649
 30
0.0
 11
30.67110634279885
 21
3.574999547552649
 31
0.0
  0
LINE
  5
6D9
330
1A
100
AcDbEntity
  8
ZUWAKU
100
AcDbLine
 10
20.60860634279884
 20
3.574999547552649
 30
0.0
 11
21.48360634279885
 21
3.574999547552649
 31
0.0
  0
LINE
  5
6DA
330
1A
100
AcDbEntity
  8
ZUWAKU
100
AcDbLine
 10
17.83817381145678
 20
3.758452563469162
 30
0.0
 11
16.90403887414088
 21
6.716546531636131
 31
0.0
  0
ARC
  5
6DB
330
1A
100
AcDbEntity
  8
ZUWAKU
100
AcDbCircle
 10
16.65372342454321
 20
8.562499547552651
 30
0.0
 40
0.2625
100
AcDbArc
 50
270.0
 51
342.4744316262769
  0
LINE
  5
6DC
330
1A
100
AcDbEntity
  8
ZUWAKU
100
AcDbLine
 10
16.65372342454321
 20
8.299999547552646
 30
0.0
 11
16.58360634279887
 21
8.299999547552646
 31
0.0
  0
LINE
  5
6DD
330
1A
100
AcDbEntity
  8
ZUWAKU
100
AcDbLine
 10
16.58360634279887
 20
6.899999547552646
 30
0.0
 11
16.65372342454321
 21
6.899999547552646
 31
0.0
  0
ARC
  5
6DE
330
1A
100
AcDbEntity
  8
ZUWAKU
100
AcDbCircle
 10
16.58360634279887
 20
8.562499547552651
 30
0.0
 40
0.2625
100
AcDbArc
 50
180.0
 51
270.0
  0
LINE
  5
6DF
330
1A
100
AcDbEntity
  8
ZUWAKU
100
AcDbLine
 10
15.18360634279883
 20
3.574999547552649
 30
0.0
 11
16.05860634279884
 21
3.574999547552649
 31
0.0
  0
ARC
  5
6E0
330
1A
100
AcDbEntity
  8
ZUWAKU
100
AcDbCircle
 10
16.05860634279884
 20
3.837499547552649
 30
0.0
 40
0.2625
100
AcDbArc
 50
270.0
 51
0.0
  0
LINE
  5
6E1
330
1A
100
AcDbEntity
  8
ZUWAKU
100
AcDbLine
 10
16.32110634279888
 20
3.837499547552649
 30
0.0
 11
16.32110634279888
 21
6.637499547552645
 31
0.0
  0
LINE
  5
6E2
330
1A
100
AcDbEntity
  8
ZUWAKU
100
AcDbLine
 10
13.69610634279888
 20
4.712499547552648
 30
0.0
 11
13.69610634279888
 21
3.837499547552649
 31
0.0
  0
ARC
  5
6E3
330
1A
100
AcDbEntity
  8
ZUWAKU
100
AcDbCircle
 10
13.43360634279884
 20
3.837499547552649
 30
0.0
 40
0.2625
100
AcDbArc
 50
270.0
 51
0.0
  0
ARC
  5
6E4
330
1A
100
AcDbEntity
  8
ZUWAKU
100
AcDbCircle
 10
13.43360634279884
 20
4.712499547552648
 30
0.0
 40
0.2625
100
AcDbArc
 50
0.0
 51
90.0
  0
ARC
  5
6E5
330
1A
100
AcDbEntity
  8
ZUWAKU
100
AcDbCircle
 10
15.18360634279883
 20
3.837499547552649
 30
0.0
 40
0.2625
100
AcDbArc
 50
180.0
 51
270.0
  0
ARC
  5
6E6
330
1A
100
AcDbEntity
  8
ZUWAKU
100
AcDbCircle
 10
16.65372342454321
 20
6.637499547552645
 30
0.0
 40
0.2625
100
AcDbArc
 50
17.52556837372303
 51
90.0
  0
ARC
  5
6E7
330
1A
100
AcDbEntity
  8
ZUWAKU
100
AcDbCircle
 10
16.58360634279887
 20
6.637499547552645
 30
0.0
 40
0.2625
100
AcDbArc
 50
90.0
 51
180.0
  0
ARC
  5
6E8
330
1A
100
AcDbEntity
  8
ZUWAKU
100
AcDbCircle
 10
20.60860634279884
 20
3.837499547552649
 30
0.0
 40
0.2625
100
AcDbArc
 50
180.0
 51
270.0
  0
LINE
  5
6E9
330
1A
100
AcDbEntity
  8
ZUWAKU
100
AcDbLine
 10
18.08848926105451
 20
3.574999547552649
 30
0.0
 11
18.93793395085902
 21
3.574999547552649
 31
0.0
  0
ARC
  5
6EA
330
1A
100
AcDbEntity
  8
ZUWAKU
100
AcDbCircle
 10
18.93793395085902
 20
3.837499547552649
 30
0.0
 40
0.2625
100
AcDbArc
 50
270.0
 51
17.52556837372303
  0
LINE
  5
6EB
330
1A
100
AcDbEntity
  8
ZUWAKU
100
AcDbLine
 10
19.18824940045675
 20
3.916546531636136
 30
0.0
 11
18.02505371121992
 21
7.599999547552655
 31
0.0
  0
ARC
  5
6EC
330
1A
100
AcDbEntity
  8
ZUWAKU
100
AcDbCircle
 10
18.08848926105451
 20
3.837499547552649
 30
0.0
 40
0.2625
100
AcDbArc
 50
197.5255683737229
 51
270.0
  0
ARC
  5
6ED
330
1A
100
AcDbEntity
  8
ZUWAKU
100
AcDbCircle
 10
28.92110634279885
 20
4.974999547552648
 30
0.0
 40
1.399999999999999
100
AcDbArc
 50
180.0
 51
270.0
  0
ARC
  5
6EE
330
1A
100
AcDbEntity
  8
ZUWAKU
100
AcDbCircle
 10
25.07110634279888
 20
4.974999547552648
 30
0.0
 40
1.399999999999999
100
AcDbArc
 50
270.0
 51
0.0
  0
LINE
  5
6EF
330
1A
100
AcDbEntity
  8
ZUWAKU
100
AcDbLine
 10
25.85603058329064
 20
7.36752480072206
 30
0.0
 11
24.40113159596825
 21
8.822423788044396
 31
0.0
  0
LINE
  5
6F0
330
1A
100
AcDbEntity
  8
ZUWAKU
100
AcDbLine
 10
25.07110634279888
 20
5.23749954755265
 30
0.0
 11
25.07110634279888
 21
5.88260056023032
 31
0.0
  0
ARC
  5
6F1
330
1A
100
AcDbEntity
  8
ZUWAKU
100
AcDbCircle
 10
24.37110634279884
 20
5.88260056023032
 30
0.0
 40
0.6999999999999995
100
AcDbArc
 50
0.0
 51
45.0
  0
ARC
  5
6F2
330
1A
100
AcDbEntity
  8
ZUWAKU
100
AcDbCircle
 10
24.80860634279884
 20
5.23749954755265
 30
0.0
 40
0.2625
100
AcDbArc
 50
270.0
 51
0.0
  0
LINE
  5
6F3
330
1A
100
AcDbEntity
  8
ZUWAKU
100
AcDbLine
 10
23.05860634279884
 20
3.837499547552649
 30
0.0
 11
23.05860634279884
 21
4.712499547552648
 31
0.0
  0
ARC
  5
6F4
330
1A
100
AcDbEntity
  8
ZUWAKU
100
AcDbCircle
 10
23.32110634279888
 20
3.837499547552649
 30
0.0
 40
0.2625
100
AcDbArc
 50
180.0
 51
270.0
  0
ARC
  5
6F5
330
1A
100
AcDbEntity
  8
ZUWAKU
100
AcDbCircle
 10
21.48360634279885
 20
3.837499547552649
 30
0.0
 40
0.2625
100
AcDbArc
 50
270.0
 51
0.0
  0
ARC
  5
6F6
330
1A
100
AcDbEntity
  8
ZUWAKU
100
AcDbCircle
 10
23.32110634279888
 20
4.712499547552648
 30
0.0
 40
0.2625
100
AcDbArc
 50
90.0
 51
180.0
  0
LINE
  5
6F7
330
1A
100
AcDbEntity
  8
ZUWAKU
100
AcDbLine
 10
23.32110634279888
 20
4.974999547552648
 30
0.0
 11
24.80860634279884
 21
4.974999547552648
 31
0.0
  0
LINE
  5
6F8
330
1A
100
AcDbEntity
  8
ZUWAKU
100
AcDbLine
 10
23.32110634279888
 20
3.574999547552649
 30
0.0
 11
25.07110634279888
 21
3.574999547552649
 31
0.0
  0
LINE
  5
6F9
330
1A
100
AcDbEntity
  8
ZUWAKU
100
AcDbLine
 10
23.41118210230712
 20
7.832474294383235
 30
0.0
 11
24.86608108962945
 21
6.377575307060906
 31
0.0
  0
LINE
  5
6FA
330
1A
100
AcDbEntity
  8
ZUWAKU
100
AcDbLine
 10
26.47110634279886
 20
4.974999547552648
 30
0.0
 11
26.47110634279886
 21
5.88260056023032
 31
0.0
  0
ARC
  5
6FB
330
1A
100
AcDbEntity
  8
ZUWAKU
100
AcDbCircle
 10
24.37110634279884
 20
5.882600560230301
 30
0.0
 40
2.099999999999999
100
AcDbArc
 50
0.0
 51
45.0
  0
ARC
  5
6FC
330
1A
100
AcDbEntity
  8
ZUWAKU
100
AcDbCircle
 10
29.44610634279888
 20
5.499999547552645
 30
0.0
 40
0.5249999999999995
100
AcDbArc
 50
180.0
 51
270.0
  0
ARC
  5
6FD
330
1A
100
AcDbEntity
  8
ZUWAKU
100
AcDbCircle
 10
30.67110634279885
 20
4.974999547552648
 30
0.0
 40
1.399999999999999
100
AcDbArc
 50
270.0
 51
0.0
  0
LINE
  5
6FE
330
1A
100
AcDbEntity
  8
ZUWAKU
100
AcDbLine
 10
33.38360634279888
 20
3.574999547552649
 30
0.0
 11
34.25860634279888
 21
3.574999547552649
 31
0.0
  0
ARC
  5
6FF
330
1A
100
AcDbEntity
  8
ZUWAKU
100
AcDbCircle
 10
33.38360634279888
 20
3.837499547552649
 30
0.0
 40
0.2625
100
AcDbArc
 50
180.0
 51
270.0
  0
ARC
  5
700
330
1A
100
AcDbEntity
  8
ZUWAKU
100
AcDbCircle
 10
30.14610634279887
 20
5.499999547552645
 30
0.0
 40
0.5249999999999995
100
AcDbArc
 50
270.0
 51
0.0
  0
ARC
  5
701
330
1A
100
AcDbEntity
  8
ZUWAKU
100
AcDbCircle
 10
34.25860634279888
 20
3.837499547552649
 30
0.0
 40
0.2625
100
AcDbArc
 50
270.0
 51
0.0
  0
LINE
  5
702
330
1A
100
AcDbEntity
  8
ZUWAKU
100
AcDbLine
 10
21.48360634279885
 20
11.62499954755264
 30
0.0
 11
20.60860634279884
 21
11.62499954755264
 31
0.0
  0
ARC
  5
703
330
1A
100
AcDbEntity
  8
ZUWAKU
100
AcDbCircle
 10
16.05860634279884
 20
11.36249954755264
 30
0.0
 40
0.2625
100
AcDbArc
 50
0.0
 51
90.0
  0
LINE
  5
704
330
1A
100
AcDbEntity
  8
ZUWAKU
100
AcDbLine
 10
16.05860634279884
 20
11.62499954755264
 30
0.0
 11
15.18360634279883
 21
11.62499954755264
 31
0.0
  0
ARC
  5
705
330
1A
100
AcDbEntity
  8
ZUWAKU
100
AcDbCircle
 10
13.43360634279884
 20
11.36249954755264
 30
0.0
 40
0.2625
100
AcDbArc
 50
0.0
 51
90.0
  0
ARC
  5
706
330
1A
100
AcDbEntity
  8
ZUWAKU
100
AcDbCircle
 10
15.18360634279883
 20
11.36249954755264
 30
0.0
 40
0.2625
100
AcDbArc
 50
90.0
 51
180.0
  0
ARC
  5
707
330
1A
100
AcDbEntity
  8
ZUWAKU
100
AcDbCircle
 10
13.43360634279884
 20
10.48749954755264
 30
0.0
 40
0.2625
100
AcDbArc
 50
270.0
 51
0.0
  0
LINE
  5
708
330
1A
100
AcDbEntity
  8
ZUWAKU
100
AcDbLine
 10
13.69610634279888
 20
11.36249954755264
 30
0.0
 11
13.69610634279888
 21
10.48749954755264
 31
0.0
  0
ARC
  5
709
330
1A
100
AcDbEntity
  8
ZUWAKU
100
AcDbCircle
 10
20.60860634279884
 20
11.36249954755264
 30
0.0
 40
0.2625
100
AcDbArc
 50
90.0
 51
180.0
  0
LINE
  5
70A
330
1A
100
AcDbEntity
  8
ZUWAKU
100
AcDbLine
 10
18.08848926105451
 20
11.62499954755264
 30
0.0
 11
18.93793395085902
 21
11.62499954755264
 31
0.0
  0
ARC
  5
70B
330
1A
100
AcDbEntity
  8
ZUWAKU
100
AcDbCircle
 10
18.93793395085902
 20
11.36249954755264
 30
0.0
 40
0.2625
100
AcDbArc
 50
342.4744316262769
 51
90.0
  0
LINE
  5
70C
330
1A
100
AcDbEntity
  8
ZUWAKU
100
AcDbLine
 10
19.18824940045675
 20
11.28345256346916
 30
0.0
 11
18.65742958388784
 21
9.602523144334361
 31
0.0
  0
ARC
  5
70D
330
1A
100
AcDbEntity
  8
ZUWAKU
100
AcDbCircle
 10
18.08848926105451
 20
11.36249954755264
 30
0.0
 40
0.2625
100
AcDbArc
 50
90.0
 51
162.4744316262769
  0
LINE
  5
70E
330
1A
100
AcDbEntity
  8
ZUWAKU
100
AcDbLine
 10
24.19610634279888
 20
11.62499954755264
 30
0.0
 11
25.94610634279888
 21
11.62499954755264
 31
0.0
  0
LINE
  5
70F
330
1A
100
AcDbEntity
  8
ZUWAKU
100
AcDbLine
 10
25.94610634279888
 20
10.22499954755264
 30
0.0
 11
24.45860634279886
 21
10.22499954755264
 31
0.0
  0
ARC
  5
710
330
1A
100
AcDbEntity
  8
ZUWAKU
100
AcDbCircle
 10
24.45860634279886
 20
9.962499547552646
 30
0.0
 40
0.2625
100
AcDbArc
 50
90.0
 51
180.0
  0
LINE
  5
711
330
1A
100
AcDbEntity
  8
ZUWAKU
100
AcDbLine
 10
24.19610634279888
 20
9.962499547552646
 30
0.0
 11
24.19610634279888
 21
9.317398534874977
 31
0.0
  0
ARC
  5
712
330
1A
100
AcDbEntity
  8
ZUWAKU
100
AcDbCircle
 10
21.48360634279885
 20
11.36249954755264
 30
0.0
 40
0.2625
100
AcDbArc
 50
0.0
 51
90.0
  0
LINE
  5
713
330
1A
100
AcDbEntity
  8
ZUWAKU
100
AcDbLine
 10
22.79610634279884
 20
10.22499954755264
 30
0.0
 11
22.79610634279884
 21
9.317398534874977
 31
0.0
  0
ARC
  5
714
330
1A
100
AcDbEntity
  8
ZUWAKU
100
AcDbCircle
 10
24.19610634279888
 20
10.22499954755264
 30
0.0
 40
1.399999999999999
100
AcDbArc
 50
90.0
 51
180.0
  0
ARC
  5
715
330
1A
100
AcDbEntity
  8
ZUWAKU
100
AcDbCircle
 10
28.65860634279886
 20
11.36249954755264
 30
0.0
 40
0.2625
100
AcDbArc
 50
0.0
 51
90.0
  0
ARC
  5
716
330
1A
100
AcDbEntity
  8
ZUWAKU
100
AcDbCircle
 10
27.78360634279886
 20
11.36249954755264
 30
0.0
 40
0.2625
100
AcDbArc
 50
90.0
 51
180.0
  0
LINE
  5
717
330
1A
100
AcDbEntity
  8
ZUWAKU
100
AcDbLine
 10
28.65860634279886
 20
11.62499954755264
 30
0.0
 11
27.78360634279886
 21
11.62499954755264
 31
0.0
  0
ARC
  5
718
330
1A
100
AcDbEntity
  8
ZUWAKU
100
AcDbCircle
 10
25.94610634279888
 20
11.36249954755264
 30
0.0
 40
0.2625
100
AcDbArc
 50
0.0
 51
90.0
  0
ARC
  5
719
330
1A
100
AcDbEntity
  8
ZUWAKU
100
AcDbCircle
 10
25.94610634279888
 20
10.48749954755264
 30
0.0
 40
0.2625
100
AcDbArc
 50
270.0
 51
0.0
  0
LINE
  5
71A
330
1A
100
AcDbEntity
  8
ZUWAKU
100
AcDbLine
 10
26.20860634279887
 20
11.36249954755264
 30
0.0
 11
26.20860634279887
 21
10.48749954755264
 31
0.0
  0
LINE
  5
71B
330
1A
100
AcDbEntity
  8
ZUWAKU
100
AcDbLine
 10
34.25860634279888
 20
11.62499954755264
 30
0.0
 11
33.38360634279888
 21
11.62499954755264
 31
0.0
  0
ARC
  5
71C
330
1A
100
AcDbEntity
  8
ZUWAKU
100
AcDbCircle
 10
33.38360634279888
 20
11.36249954755264
 30
0.0
 40
0.2625
100
AcDbArc
 50
90.0
 51
180.0
  0
ARC
  5
71D
330
1A
100
AcDbEntity
  8
ZUWAKU
100
AcDbCircle
 10
31.80860634279884
 20
11.36249954755264
 30
0.0
 40
0.2625
100
AcDbArc
 50
0.0
 51
90.0
  0
LINE
  5
71E
330
1A
100
AcDbEntity
  8
ZUWAKU
100
AcDbLine
 10
31.80860634279884
 20
11.62499954755264
 30
0.0
 11
30.93360634279884
 21
11.62499954755264
 31
0.0
  0
ARC
  5
71F
330
1A
100
AcDbEntity
  8
ZUWAKU
100
AcDbCircle
 10
30.93360634279884
 20
11.36249954755264
 30
0.0
 40
0.2625
100
AcDbArc
 50
90.0
 51
180.0
  0
ARC
  5
720
330
1A
100
AcDbEntity
  8
ZUWAKU
100
AcDbCircle
 10
34.25860634279888
 20
11.36249954755264
 30
0.0
 40
0.2625
100
AcDbArc
 50
0.0
 51
90.0
  0
LINE
  5
722
330
1A
100
AcDbEntity
  8
ZUWAKU
100
AcDbLine
 10
104.1233009104422
 20
14.99999954755264
 30
0.0
 11
104.1233009104422
 21
0.3999995475526816
 31
0.0
  0
LINE
  5
723
330
1A
100
AcDbEntity
  8
ZUWAKU
100
AcDbLine
 10
104.3233009104421
 20
14.99999954755264
 30
0.0
 11
104.3233009104422
 21
0.3999995475526816
 31
0.0
  0
LINE
  5
724
330
1A
100
AcDbEntity
  8
ZUWAKU
100
AcDbLine
 10
104.2233009104421
 20
14.99999954755264
 30
0.0
 11
104.2233009104422
 21
0.3999995475526816
 31
0.0
  0
TEXT
  5
725
330
1A
100
AcDbEntity
  8
ZUWAKU
100
AcDbText
 10
104.862023421547
 20
4.827677816745456
 30
0.0
 40
2.0
  1
サイズ
 41
0.9
  7
ｽﾀｲﾙ1
100
AcDbText
  0
TEXT
  5
727
330
1A
100
AcDbEntity
  8
ZUWAKU
100
AcDbText
 10
104.8620234215469
 20
12.02767781674543
 30
0.0
 40
2.0
  1
品名
 41
0.9
  7
ｽﾀｲﾙ1
100
AcDbText
  0
LINE
  5
728
330
1A
100
AcDbEntity
  8
ZUWAKU
100
AcDbLine
 10
324.4086015205104
 20
7.599999547552661
 30
0.0
 11
348.6245055396789
 21
7.599999547552661
 31
0.0
  0
LINE
  5
729
330
1A
100
AcDbEntity
  8
ZUWAKU
100
AcDbLine
 10
324.4086015205104
 20
7.699999547552666
 30
0.0
 11
348.6245055396789
 21
7.699999547552661
 31
0.0
  0
LINE
  5
72A
330
1A
100
AcDbEntity
  8
ZUWAKU
100
AcDbLine
 10
324.4086015205104
 20
7.799999547552661
 30
0.0
 11
348.6245055396789
 21
7.799999547552661
 31
0.0
  0
TEXT
  5
72B
330
1A
100
AcDbEntity
  8
ZUWAKU
100
AcDbText
 10
329.1019691090594
 20
9.00246007625634
 30
0.0
 40
2.799999999999999
  1
　　．　　．　　
 41
0.9
  7
ｽﾀｲﾙ1
100
AcDbText
  0
LINE
  5
72C
330
1A
100
AcDbEntity
  8
ZUWAKU
100
AcDbLine
 10
252.5995900144786
 20
7.599999547552665
 30
0.0
 11
276.2634781484645
 21
7.599999547552665
 31
0.0
  0
LINE
  5
72D
330
1A
100
AcDbEntity
  8
ZUWAKU
100
AcDbLine
 10
252.5995900144786
 20
7.699999547552661
 30
0.0
 11
276.2634781484645
 21
7.699999547552661
 31
0.0
  0
LINE
  5
72E
330
1A
100
AcDbEntity
  8
ZUWAKU
100
AcDbLine
 10
252.5995900144786
 20
7.799999547552661
 30
0.0
 11
276.2634781484645
 21
7.799999547552661
 31
0.0
  0
LINE
  5
730
330
1A
100
AcDbEntity
  8
ZUWAKU
100
AcDbLine
 10
223.8121822509038
 20
14.99999954755264
 30
0.0
 11
223.8121822509039
 21
0.3999995475526816
 31
0.0
  0
LINE
  5
731
330
1A
100
AcDbEntity
  8
ZUWAKU
100
AcDbLine
 10
223.9121822509038
 20
14.99999954755264
 30
0.0
 11
223.912182250904
 21
0.3999995475526816
 31
0.0
  0
LINE
  5
732
330
1A
100
AcDbEntity
  8
ZUWAKU
100
AcDbLine
 10
223.7121822509039
 20
14.99999954755264
 30
0.0
 11
223.7121822509039
 21
0.3999995475526816
 31
0.0
  0
TEXT
  5
733
330
1A
100
AcDbEntity
  8
MOJI
100
AcDbText
 10
264.0204542515647
 20
9.00246007625634
 30
0.0
 40
2.799999999999999
  1
Ａ３
 41
0.9
  7
ｽﾀｲﾙ1
100
AcDbText
  0
LINE
  5
734
330
1A
100
AcDbEntity
  8
ZUWAKU
100
AcDbLine
 10
252.4995900144787
 20
14.99999954755264
 30
0.0
 11
252.4995900144787
 21
0.3999995475526816
 31
0.0
  0
LINE
  5
735
330
1A
100
AcDbEntity
  8
ZUWAKU
100
AcDbLine
 10
252.5995900144786
 20
14.99999954755264
 30
0.0
 11
252.5995900144788
 21
0.3999995475526816
 31
0.0
  0
LINE
  5
736
330
1A
100
AcDbEntity
  8
ZUWAKU
100
AcDbLine
 10
252.3995900144787
 20
14.99999954755264
 30
0.0
 11
252.3995900144787
 21
0.3999995475526816
 31
0.0
  0
TEXT
  5
737
330
1A
100
AcDbEntity
  8
ZUWAKU
100
AcDbText
 10
253.3383125255836
 20
4.827677816745456
 30
0.0
 40
2.0
  1
縮尺
 41
0.9
  7
ｽﾀｲﾙ1
100
AcDbText
  0
TEXT
  5
738
330
1A
100
AcDbEntity
  8
MOJI
100
AcDbText
 10
264.0204542515647
 20
1.602460076256358
 30
0.0
 40
2.799999999999999
  1
１/１
 41
0.9
  7
ｽﾀｲﾙ1
100
AcDbText
  0
TEXT
  5
739
330
1A
100
AcDbEntity
  8
ZUWAKU
100
AcDbText
 10
224.6509047620087
 20
12.02767781674543
 30
0.0
 40
2.0
  1
品番
 41
0.9
  7
ｽﾀｲﾙ1
100
AcDbText
  0
TEXT
  5
73A
330
1A
100
AcDbEntity
  8
ZUWAKU
100
AcDbText
 10
253.3383125255835
 20
12.02767781674543
 30
0.0
 40
2.0
  1
用紙
 41
0.9
  7
ｽﾀｲﾙ1
100
AcDbText
  0
LINE
  5
73B
330
1A
100
AcDbEntity
  8
ZUWAKU
100
AcDbLine
 10
324.3086015205103
 20
14.99999954755264
 30
0.0
 11
324.3086015205105
 21
0.3999995475526816
 31
0.0
  0
LINE
  5
73C
330
1A
100
AcDbEntity
  8
ZUWAKU
100
AcDbLine
 10
324.4086015205104
 20
14.99999954755264
 30
0.0
 11
324.4086015205106
 21
0.3999995475526816
 31
0.0
  0
LINE
  5
73D
330
1A
100
AcDbEntity
  8
ZUWAKU
100
AcDbLine
 10
324.2086015205105
 20
14.99999954755264
 30
0.0
 11
324.2086015205105
 21
0.3999995475526816
 31
0.0
  0
LINE
  5
73E
330
1A
100
AcDbEntity
  8
ZUWAKU
100
AcDbLine
 10
276.3634781484644
 20
14.99999954755264
 30
0.0
 11
276.3634781484644
 21
0.3999995475526816
 31
0.0
  0
LINE
  5
73F
330
1A
100
AcDbEntity
  8
ZUWAKU
100
AcDbLine
 10
276.4634781484644
 20
14.99999954755264
 30
0.0
 11
276.4634781484645
 21
0.3999995475526816
 31
0.0
  0
LINE
  5
740
330
1A
100
AcDbEntity
  8
ZUWAKU
100
AcDbLine
 10
276.2634781484645
 20
14.99999954755264
 30
0.0
 11
276.2634781484645
 21
0.3999995475526816
 31
0.0
  0
TEXT
  5
741
330
1A
100
AcDbEntity
  8
ZUWAKU
100
AcDbText
 10
325.1473240316152
 20
12.02767781674543
 30
0.0
 40
2.0
  1
DATE
 41
0.9
  7
ｽﾀｲﾙ1
100
AcDbText
  0
LINE
  5
742
330
1A
100
AcDbEntity
  8
ZUWAKU
100
AcDbLine
 10
348.6245055396789
 20
14.99999954755264
 30
0.0
 11
348.6245055396789
 21
0.3999995475526816
 31
0.0
  0
LINE
  5
743
330
1A
100
AcDbEntity
  8
ZUWAKU
100
AcDbLine
 10
348.7245055396789
 20
14.99999954755264
 30
0.0
 11
348.7245055396789
 21
0.3999995475526816
 31
0.0
  0
LINE
  5
744
330
1A
100
AcDbEntity
  8
ZUWAKU
100
AcDbLine
 10
348.8245055396788
 20
14.99999954755264
 30
0.0
 11
348.8245055396789
 21
0.3999995475526816
 31
0.0
  0
LINE
  5
745
330
1A
100
AcDbEntity
  8
ZUWAKU
100
AcDbLine
 10
348.9245055396789
 20
14.99999954755264
 30
0.0
 11
348.9245055396789
 21
0.3999995475526816
 31
0.0
  0
TEXT
  5
746
330
1A
100
AcDbEntity
  8
ZUWAKU
100
AcDbText
 10
354.2640423615301
 20
8.776919215396045
 30
0.0
 40
3.0
  1
積水化学工業株式会社
 41
0.9
  7
ｽﾀｲﾙ1
100
AcDbText
  0
TEXT
  5
747
330
1A
100
AcDbEntity
  8
ZUWAKU
100
AcDbText
 10
354.2640423615301
 20
3.32441970447968
 30
0.0
 40
3.0
  1
建材事業部
 41
0.9
  7
ｽﾀｲﾙ1
100
AcDbText
  0
TEXT
  5
74D
330
1A
100
AcDbEntity
  8
ZUWAKU
100
AcDbText
 10
230.9795720347352
 20
1.468216205049543
 30
0.0
 40
1.5
  1
□には色品番が入ります
 41
0.9
  7
ｽﾀｲﾙ1
100
AcDbText
  0
TEXT
  5
68E6
330
1A
100
AcDbEntity
  8
MOJI
100
AcDbText
 10
113.9192909360088
 20
2.576091575721818
 30
0.0
 40
2.799999999999999
  1
ＵＲＴ６０
 41
0.9
  7
ｽﾀｲﾙ1
100
AcDbText
  0
LINE
  5
7B1C
330
1A
100
AcDbEntity
  8
CENTER_L
  6
CENTER
 62
     1
 48
5.0
100
AcDbLine
 10
91.34284414236072
 20
128.2373059871268
 30
0.0
 11
91.34284414235981
 21
32.43590447290705
 31
0.0
  0
LINE
  5
7B1D
330
1A
100
AcDbEntity
  8
SEIHIN
  6
CONTINUOUS
 62
     3
100
AcDbLine
 10
41.46970256201211
 20
106.2125935878528
 30
0.0
 11
41.46970256201211
 21
119.7125935878528
 31
0.0
  0
LINE
  5
7B1E
330
1A
100
AcDbEntity
  8
SEIHIN
  6
CONTINUOUS
 62
     3
100
AcDbLine
 10
43.47500262957192
 20
119.7125935878528
 30
0.0
 11
43.47500262957192
 21
108.7125935878529
 31
0.0
  0
LINE
  5
7B1F
330
1A
100
AcDbEntity
  8
SEIHIN
  6
CONTINUOUS
 62
     3
100
AcDbLine
 10
141.2159857227075
 20
119.7125935878528
 30
0.0
 11
141.2159857227075
 21
106.2125935878528
 31
0.0
  0
LINE
  5
7B20
330
1A
100
AcDbEntity
  8
SEIHIN
  6
CONTINUOUS
 62
     3
100
AcDbLine
 10
139.2106856551486
 20
108.7125935878529
 30
0.0
 11
139.2106856551486
 21
119.7125935878528
 31
0.0
  0
DIMENSION
  5
7B21
330
1A
100
AcDbEntity
  8
SUNPOU
100
AcDbDimension
  2
*D2
 10
288.3058838509913
 20
41.99930500249217
 30
0.0
 11
285.8058838509913
 21
81.74930500249223
 31
0.0
 70
    32
  3
STANDARD
100
AcDbAlignedDimension
 13
265.5284859220654
 23
121.4993050024921
 33
0.0
 14
245.2923609104153
 24
41.99930500249218
 34
0.0
 50
90.0
100
AcDbRotatedDimension
1001
ACAD
1000
DSTYLE
1002
{
1070
    41
1040
3.0
1070
    42
1040
3.0
1070
    43
1040
7.0
1070
    44
1040
1.5
1070
    73
1070
     0
1070
    74
1070
     0
1070
    77
1070
     3
1070
   140
1040
3.0
1070
   141
1040
150.0
1070
   144
1040
1.0
1070
   147
1040
1.0
1070
   172
1070
     1
1070
   173
1070
     1
1070
   176
1070
     4
1070
   177
1070
     4
1070
   178
1070
     4
1070
   271
1070
     0
1070
   272
1070
     2
1070
     6
1000
OPEN
1070
     7
1000
OPEN
1002
}
  0
LINE
  5
7B22
330
1A
100
AcDbEntity
  8
SEIHIN
  6
CONTINUOUS
 62
     3
100
AcDbLine
 10
265.5267894509487
 20
107.9993050024921
 30
0.0
 11
265.5267894509487
 21
121.4993050024921
 31
0.0
  0
LINE
  5
7B23
330
1A
100
AcDbEntity
  8
SEIHIN
  6
CONTINUOUS
 62
     3
100
AcDbLine
 10
265.6553443417177
 20
107.9993050024921
 30
0.0
 11
265.6553443417177
 21
121.4993050024921
 31
0.0
  0
LINE
  5
7B24
330
1A
100
AcDbEntity
  8
SEIHIN
  6
CONTINUOUS
 62
     3
100
AcDbLine
 10
266.1491007561725
 20
107.9993050024921
 30
0.0
 11
266.1491007561725
 21
121.4993050024921
 31
0.0
  0
LINE
  5
7B25
330
1A
100
AcDbEntity
  8
SEIHIN
  6
CONTINUOUS
 62
     3
100
AcDbLine
 10
225.6148040091074
 20
107.9993050024921
 30
0.0
 11
225.6148040091074
 21
121.4993050024921
 31
0.0
  0
LINE
  5
7B26
330
1A
100
AcDbEntity
  8
SEIHIN
  6
CONTINUOUS
 62
     3
100
AcDbLine
 10
233.996703823729
 20
107.9993050024921
 30
0.0
 11
233.996703823729
 21
121.4993050024921
 31
0.0
  0
LINE
  5
7B27
330
1A
100
AcDbEntity
  8
SEIHIN
  6
CONTINUOUS
 62
     3
100
AcDbLine
 10
241.8365029586528
 20
107.9993050024921
 30
0.0
 11
241.8365029586528
 21
121.4993050024921
 31
0.0
  0
LINE
  5
7B28
330
1A
100
AcDbEntity
  8
SEIHIN
  6
CONTINUOUS
 62
     3
100
AcDbLine
 10
248.8959930842955
 20
107.9993050024921
 30
0.0
 11
248.8959930842955
 21
121.4993050024921
 31
0.0
  0
LINE
  5
7B29
330
1A
100
AcDbEntity
  8
SEIHIN
  6
CONTINUOUS
 62
     3
100
AcDbLine
 10
254.9606751654609
 20
107.9993050024921
 30
0.0
 11
254.9606751654609
 21
121.4993050024921
 31
0.0
  0
LINE
  5
7B2A
330
1A
100
AcDbEntity
  8
SEIHIN
  6
CONTINUOUS
 62
     3
100
AcDbLine
 10
259.8462769059932
 20
107.9993050024921
 30
0.0
 11
259.8462769059932
 21
121.4993050024921
 31
0.0
  0
LINE
  5
7B2B
330
1A
100
AcDbEntity
  8
SEIHIN
  6
CONTINUOUS
 62
     3
100
AcDbLine
 10
263.4043517692379
 20
107.9993050024921
 30
0.0
 11
263.4043517692379
 21
121.4993050024921
 31
0.0
  0
LINE
  5
7B2C
330
1A
100
AcDbEntity
  8
SEIHIN
  6
CONTINUOUS
 62
     3
100
AcDbLine
 10
224.6233668460007
 20
121.4993050024921
 30
0.0
 11
224.6233668460007
 21
107.9993050024921
 31
0.0
  0
LINE
  5
7B2D
330
1A
100
AcDbEntity
  8
SEIHIN
  6
CONTINUOUS
 62
     3
100
AcDbLine
 10
233.0287323888704
 20
121.4993050024921
 30
0.0
 11
233.0287323888713
 21
107.9993050024921
 31
0.0
  0
LINE
  5
7B2E
330
1A
100
AcDbEntity
  8
SEIHIN
  6
CONTINUOUS
 62
     3
100
AcDbLine
 10
240.9062163272864
 20
121.4993050024921
 30
0.0
 11
240.9062163272873
 21
107.9993050024921
 31
0.0
  0
LINE
  5
7B2F
330
1A
100
AcDbEntity
  8
SEIHIN
  6
CONTINUOUS
 62
     3
100
AcDbLine
 10
248.01646529798
 20
121.4993050024921
 30
0.0
 11
248.01646529798
 21
107.9993050024921
 31
0.0
  0
LINE
  5
7B30
330
1A
100
AcDbEntity
  8
SEIHIN
  6
CONTINUOUS
 62
     3
100
AcDbLine
 10
254.1434379839328
 20
121.4993050024921
 30
0.0
 11
254.1434379839337
 21
107.9993050024921
 31
0.0
  0
LINE
  5
7B31
330
1A
100
AcDbEntity
  8
SEIHIN
  6
CONTINUOUS
 62
     3
100
AcDbLine
 10
259.100969420483
 20
121.4993050024921
 30
0.0
 11
259.1009694204839
 21
107.9993050024921
 31
0.0
  0
LINE
  5
7B32
330
1A
100
AcDbEntity
  8
SEIHIN
  6
CONTINUOUS
 62
     3
100
AcDbLine
 10
262.7384275235616
 20
121.4993050024921
 30
0.0
 11
262.7384275235625
 21
107.9993050024921
 31
0.0
  0
LINE
  5
7B33
330
1A
100
AcDbEntity
  8
SEIHIN
  6
CONTINUOUS
 62
     3
100
AcDbLine
 10
264.9452899693504
 20
121.4993050024921
 30
0.0
 11
264.9452899693504
 21
107.9993050024921
 31
0.0
  0
LINE
  5
7B34
330
1A
100
AcDbEntity
  8
SEIHIN
  6
CONTINUOUS
 62
     3
100
AcDbLine
 10
216.9454832992095
 20
107.9993050024921
 30
0.0
 11
216.9454832992095
 21
121.4993050024921
 31
0.0
  0
LINE
  5
7B35
330
1A
100
AcDbEntity
  8
SEIHIN
  6
CONTINUOUS
 62
     3
100
AcDbLine
 10
207.2521546169181
 20
121.4993050024921
 30
0.0
 11
207.2521546169181
 21
107.9993050024921
 31
0.0
  0
LINE
  5
7B36
330
1A
100
AcDbEntity
  8
SEIHIN
  6
CONTINUOUS
 62
     3
100
AcDbLine
 10
208.2462580560276
 20
107.9993050024921
 30
0.0
 11
208.2462580560276
 21
121.4993050024921
 31
0.0
  0
LINE
  5
7B37
330
1A
100
AcDbEntity
  8
SEIHIN
  6
CONTINUOUS
 62
     3
100
AcDbLine
 10
215.9455124773757
 20
121.4993050024921
 30
0.0
 11
215.9455124773757
 21
107.9993050024921
 31
0.0
  0
LINE
  5
7B38
330
1A
100
AcDbEntity
  8
SEIHIN
  6
CONTINUOUS
 62
     3
100
AcDbLine
 10
198.7989603552076
 20
121.4993050024921
 30
0.0
 11
198.7989603552076
 21
107.9993050024921
 31
0.0
  0
LINE
  5
7B39
330
1A
100
AcDbEntity
  8
SEIHIN
  6
CONTINUOUS
 62
     3
100
AcDbLine
 10
190.8427465441981
 20
121.4993050024921
 30
0.0
 11
190.8427465441981
 21
107.9993050024921
 31
0.0
  0
LINE
  5
7B3A
330
1A
100
AcDbEntity
  8
SEIHIN
  6
CONTINUOUS
 62
     3
100
AcDbLine
 10
183.6252587144971
 20
121.4993050024921
 30
0.0
 11
183.6252587144971
 21
107.9993050024921
 31
0.0
  0
LINE
  5
7B3B
330
1A
100
AcDbEntity
  8
SEIHIN
  6
CONTINUOUS
 62
     3
100
AcDbLine
 10
177.3657965815872
 20
121.4993050024921
 30
0.0
 11
177.3657965815872
 21
107.9993050024921
 31
0.0
  0
LINE
  5
7B3C
330
1A
100
AcDbEntity
  8
SEIHIN
  6
CONTINUOUS
 62
     3
100
AcDbLine
 10
172.2545507349349
 20
121.4993050024921
 30
0.0
 11
172.2545507349349
 21
107.9993050024921
 31
0.0
  0
LINE
  5
7B3D
330
1A
100
AcDbEntity
  8
SEIHIN
  6
CONTINUOUS
 62
     3
100
AcDbLine
 10
199.7722623425196
 20
107.9993050024921
 30
0.0
 11
199.7722623425196
 21
121.4993050024921
 31
0.0
  0
LINE
  5
7B3E
330
1A
100
AcDbEntity
  8
SEIHIN
  6
CONTINUOUS
 62
     3
100
AcDbLine
 10
191.7808660383296
 20
107.9993050024921
 30
0.0
 11
191.7808660383296
 21
121.4993050024921
 31
0.0
  0
LINE
  5
7B3F
330
1A
100
AcDbEntity
  8
SEIHIN
  6
CONTINUOUS
 62
     3
100
AcDbLine
 10
184.5148836763199
 20
107.9993050024921
 30
0.0
 11
184.5148836763199
 21
121.4993050024921
 31
0.0
  0
LINE
  5
7B40
330
1A
100
AcDbEntity
  8
SEIHIN
  6
CONTINUOUS
 62
     3
100
AcDbLine
 10
178.1950884537944
 20
107.9993050024921
 30
0.0
 11
178.1950884537944
 21
121.4993050024921
 31
0.0
  0
LINE
  5
7B41
330
1A
100
AcDbEntity
  8
SEIHIN
  6
CONTINUOUS
 62
     3
100
AcDbLine
 10
173.013504150619
 20
107.9993050024921
 30
0.0
 11
173.013504150619
 21
121.4993050024921
 31
0.0
  0
LINE
  5
7B42
330
1A
100
AcDbEntity
  8
SEIHIN
  6
CONTINUOUS
 62
     3
100
AcDbLine
 10
168.4468237931749
 20
121.4993050024921
 30
0.0
 11
168.4468237931749
 21
107.9993050024921
 31
0.0
  0
LINE
  5
7B43
330
1A
100
AcDbEntity
  8
SEIHIN
  6
CONTINUOUS
 62
     3
100
AcDbLine
 10
166.0583116126307
 20
121.4993050024921
 30
0.0
 11
166.0583116126307
 21
107.9993050024921
 31
0.0
  0
LINE
  5
7B44
330
1A
100
AcDbEntity
  8
SEIHIN
  6
CONTINUOUS
 62
     3
100
AcDbLine
 10
165.1615879272629
 20
121.4993050024921
 30
0.0
 11
165.1615879272629
 21
107.9993050024921
 31
0.0
  0
LINE
  5
7B45
330
1A
100
AcDbEntity
  8
SEIHIN
  6
CONTINUOUS
 62
     3
100
AcDbLine
 10
169.1275705838387
 20
107.9993050024921
 30
0.0
 11
169.1275705838387
 21
121.4993050024921
 31
0.0
  0
LINE
  5
7B46
330
1A
100
AcDbEntity
  8
SEIHIN
  6
CONTINUOUS
 62
     3
100
AcDbLine
 10
166.6553598785011
 20
107.9993050024921
 30
0.0
 11
166.6553598785011
 21
121.4993050024921
 31
0.0
  0
LINE
  5
7B47
330
1A
100
AcDbEntity
  8
SEIHIN
  6
CONTINUOUS
 62
     3
100
AcDbLine
 10
165.6719889058903
 20
107.9993050024921
 30
0.0
 11
165.6719889058903
 21
121.4993050024921
 31
0.0
  0
LINE
  5
7B48
330
1A
100
AcDbEntity
  8
CENTER_L
  6
CENTER
 62
     1
 48
5.0
100
AcDbLine
 10
215.6553443417177
 20
132.9537557420488
 30
0.0
 11
215.6553443417177
 21
37.2952001325965
 31
0.0
  0
LINE
  5
7B49
330
1A
100
AcDbEntity
  8
SEIHIN
  6
CONTINUOUS
 62
     3
100
AcDbLine
 10
117.0980426679639
 20
65.2125935878529
 30
0.0
 11
65.5876456167557
 21
65.2125935878529
 31
0.0
  0
LINE
  5
7B4A
330
1A
100
AcDbEntity
  8
SEIHIN
  6
CONTINUOUS
 62
     3
100
AcDbLine
 10
65.08298406860331
 20
67.21259358785289
 30
0.0
 11
117.6027042161172
 21
67.21259358785289
 31
0.0
  0
LINE
  5
7B4B
330
1A
100
AcDbEntity
  8
SEIHIN
  6
CONTINUOUS
 62
     3
100
AcDbLine
 10
63.72124478437081
 20
40.21259358785289
 30
0.0
 11
118.9644435003497
 21
40.21259358785289
 31
0.0
  0
LINE
  5
7B4C
330
1A
100
AcDbEntity
  8
SEIHIN
  6
CONTINUOUS
 62
     3
100
AcDbLine
 10
65.36387730965407
 20
75.01259358785398
 30
0.0
 11
117.3218109750664
 21
75.01259358785398
 31
0.0
  0
LINE
  5
7B4D
330
1A
100
AcDbEntity
  8
SEIHIN
  6
CONTINUOUS
 62
     3
100
AcDbLine
 10
65.0829840686024
 20
107.7125935878529
 30
0.0
 11
117.6027042161172
 21
107.7125935878529
 31
0.0
  0
LINE
  5
7B4E
330
1A
100
AcDbEntity
  8
SEIHIN
  6
CONTINUOUS
 62
     3
100
AcDbLine
 10
117.0980426679648
 20
107.2125935878528
 30
0.0
 11
72.66983301022219
 21
107.2125935878528
 31
0.0
  0
ARC
  5
7BD0
330
1A
100
AcDbEntity
  8
SEIHIN
  6
CONTINUOUS
 62
     3
100
AcDbCircle
 10
154.035082115452
 20
84.96297645539824
 30
0.0
 40
99.49084435005376
100
AcDbArc
 50
183.3049928955972
 51
191.450108960591
  0
POLYLINE
  5
7BD1
330
1A
100
AcDbEntity
  8
SEIHIN
  6
CONTINUOUS
 62
     3
100
AcDb2dPolyline
 66
     1
 10
0.0
 20
0.0
 30
0.0
  0
VERTEX
  5
951A
330
7BD1
100
AcDbEntity
  8
SEIHIN
  6
CONTINUOUS
 62
     3
100
AcDbVertex
100
AcDb2dVertex
 10
58.18443413216982
 20
67.21259358785289
 30
0.0
  0
VERTEX
  5
951B
330
7BD1
100
AcDbEntity
  8
SEIHIN
  6
CONTINUOUS
 62
     3
100
AcDbVertex
100
AcDb2dVertex
 10
57.26303917284576
 20
73.23011385266079
 30
0.0
  0
VERTEX
  5
951C
330
7BD1
100
AcDbEntity
  8
SEIHIN
  6
CONTINUOUS
 62
     3
100
AcDbVertex
100
AcDb2dVertex
 10
56.71636158094725
 20
79.34201108416607
 30
0.0
  0
SEQEND
  5
951D
330
7BD1
100
AcDbEntity
  8
SEIHIN
  6
CONTINUOUS
 62
     3
  0
ARC
  5
7BD2
330
1A
100
AcDbEntity
  8
SEIHIN
  6
CONTINUOUS
 62
     3
100
AcDbCircle
 10
153.7948622798471
 20
83.89729255460668
 30
0.0
 40
101.3454308743408
100
AcDbArc
 50
183.2602274916346
 51
191.1999625109227
  0
ARC
  5
7BD3
330
1A
100
AcDbEntity
  8
SEIHIN
  6
CONTINUOUS
 62
     3
100
AcDbCircle
 10
153.7587767052232
 20
83.89619766658951
 30
0.0
 40
99.50141110077341
100
AcDbArc
 50
183.2612826520186
 51
190.8228038563629
  0
LINE
  5
7BD4
330
1A
100
AcDbEntity
  8
SEIHIN
  6
CONTINUOUS
 62
     3
100
AcDbLine
 10
83.84284414236072
 20
67.21259358786562
 30
0.0
 11
83.84284414236072
 21
75.01259358785398
 31
0.0
  0
LINE
  5
7BD5
330
1A
100
AcDbEntity
  8
SEIHIN
  6
CONTINUOUS
 62
     3
100
AcDbLine
 10
85.14284414236
 20
67.21259358786562
 30
0.0
 11
85.14284414236
 21
75.01259358785398
 31
0.0
  0
LINE
  5
7BD6
330
1A
100
AcDbEntity
  8
ﾊｯﾁﾝｸ_
100
AcDbLine
 10
54.62354124630883
 20
75.75824205236393
 30
0.0
 11
52.98033468265976
 21
74.11503548871485
 31
0.0
  0
LINE
  5
7BD7
330
1A
100
AcDbEntity
  8
SEIHIN
  6
CONTINUOUS
 62
     3
100
AcDbLine
 10
98.84284414236072
 20
67.21259358786562
 30
0.0
 11
98.84284414236072
 21
75.01259358785398
 31
0.0
  0
LINE
  5
7BD8
330
1A
100
AcDbEntity
  8
SEIHIN
  6
CONTINUOUS
 62
     3
100
AcDbLine
 10
97.54284414235963
 20
67.21259358785289
 30
0.0
 11
97.54284414235963
 21
75.01259358785398
 31
0.0
  0
LINE
  5
7BD9
330
1A
100
AcDbEntity
  8
SEIHIN
  6
CONTINUOUS
 62
     3
100
AcDbLine
 10
61.77935314417187
 20
67.21259358786562
 30
0.0
 11
61.77935314417187
 21
96.81259358785325
 31
0.0
  0
POLYLINE
  5
7BDA
330
1A
100
AcDbEntity
  8
SEIHIN
  6
CONTINUOUS
 62
     3
100
AcDb2dPolyline
 66
     1
 10
0.0
 20
0.0
 30
0.0
  0
VERTEX
  5
951E
330
7BDA
100
AcDbEntity
  8
SEIHIN
  6
CONTINUOUS
 62
     3
100
AcDbVertex
100
AcDb2dVertex
 10
57.50986254114718
 20
79.37070702286553
 30
0.0
  0
VERTEX
  5
951F
330
7BDA
100
AcDbEntity
  8
SEIHIN
  6
CONTINUOUS
 62
     3
100
AcDbVertex
100
AcDb2dVertex
 10
58.059796135233
 20
73.2802501821742
 30
0.0
  0
VERTEX
  5
9520
330
7BDA
100
AcDbEntity
  8
SEIHIN
  6
CONTINUOUS
 62
     3
100
AcDbVertex
100
AcDb2dVertex
 10
59.00083627793242
 20
67.21259358785289
 30
0.0
  0
SEQEND
  5
9521
330
7BDA
100
AcDbEntity
  8
SEIHIN
  6
CONTINUOUS
 62
     3
  0
LINE
  5
7BDB
330
1A
100
AcDbEntity
  8
SEIHIN
  6
CONTINUOUS
 62
     3
100
AcDbLine
 10
56.5243109869657
 20
65.2125935878529
 30
0.0
 11
61.70582757366219
 21
65.2125935878529
 31
0.0
  0
LINE
  5
7BDC
330
1A
100
AcDbEntity
  8
SEIHIN
  6
CONTINUOUS
 62
     3
100
AcDbLine
 10
57.73078899702205
 20
64.21259358785289
 30
0.0
 11
61.70582757366219
 21
64.21259358785289
 31
0.0
  0
LINE
  5
7BDD
330
1A
100
AcDbEntity
  8
SEIHIN
  6
CONTINUOUS
 62
     3
100
AcDbLine
 10
65.08298406860331
 20
67.21259358785289
 30
0.0
 11
58.18443413216982
 21
67.21259358785289
 31
0.0
  0
LINE
  5
7BDE
330
1A
100
AcDbEntity
  8
SEIHIN
  6
CONTINUOUS
 62
     3
100
AcDbLine
 10
56.02723752940665
 20
65.2125935878529
 30
0.0
 11
57.73078899702205
 21
65.2125935878529
 31
0.0
  0
LINE
  5
7BDF
330
1A
100
AcDbEntity
  8
SEIHIN
  6
CONTINUOUS
 62
     3
100
AcDbLine
 10
57.73078899702205
 20
65.2125935878529
 30
0.0
 11
57.73078899702205
 21
64.21259358785289
 31
0.0
  0
LINE
  5
7BE0
330
1A
100
AcDbEntity
  8
ﾊｯﾁﾝｸ_
100
AcDbLine
 10
57.54827696340226
 20
65.2125935878529
 30
0.0
 11
56.54827696340226
 21
64.21259358785289
 31
0.0
  0
LINE
  5
7BE1
330
1A
100
AcDbEntity
  8
ﾊｯﾁﾝｸ_
100
AcDbLine
 10
59.54827696340226
 20
67.21259358785289
 30
0.0
 11
57.54827696340226
 21
65.2125935878529
 31
0.0
  0
LINE
  5
7BE2
330
1A
100
AcDbEntity
  8
ﾊｯﾁﾝｸ_
100
AcDbLine
 10
57.7693053463804
 20
69.92375003136555
 30
0.0
 11
55.99685818741864
 21
68.1513028724047
 31
0.0
  0
LINE
  5
7BE3
330
1A
100
AcDbEntity
  8
ﾊｯﾁﾝｸ_
100
AcDbLine
 10
57.20741570672863
 20
73.8519884522492
 30
0.0
 11
55.41453871154818
 21
72.05911145706784
 31
0.0
  0
LINE
  5
7BE4
330
1A
100
AcDbEntity
  8
SEIHIN
  6
CONTINUOUS
 62
     3
100
AcDbLine
 10
57.73078899702205
 20
64.21259358785289
 30
0.0
 11
54.37952651270325
 21
64.21259358785289
 31
0.0
  0
LINE
  5
7BE5
330
1A
100
AcDbEntity
  8
ﾊｯﾁﾝｸ_
100
AcDbLine
 10
55.58274328050675
 20
67.73718796549189
 30
0.0
 11
54.05361396426133
 21
66.20805864924739
 31
0.0
  0
LINE
  5
7BE6
330
1A
100
AcDbEntity
  8
ﾊｯﾁﾝｸ_
100
AcDbLine
 10
55.03718555240948
 20
71.68175829793006
 30
0.0
 11
53.42321713746378
 21
70.06778988298435
 31
0.0
  0
LINE
  5
7BE7
330
1A
100
AcDbEntity
  8
SEIHIN
  6
CONTINUOUS
 62
     3
100
AcDbLine
 10
61.70582757366219
 20
65.2125935878529
 30
0.0
 11
61.70582757366219
 21
40.21259358785289
 31
0.0
  0
LINE
  5
7BE8
330
1A
100
AcDbEntity
  8
SEIHIN
  6
CONTINUOUS
 62
     3
100
AcDbLine
 10
63.72124478437081
 20
65.2125935878529
 30
0.0
 11
63.72124478437081
 21
40.21259358785289
 31
0.0
  0
LINE
  5
7BE9
330
1A
100
AcDbEntity
  8
ﾊｯﾁﾝｸ_
100
AcDbLine
 10
63.72124478437081
 20
53.42504916668338
 30
0.0
 11
61.70582757366219
 21
51.40963195597476
 31
0.0
  0
LINE
  5
7BEA
330
1A
100
AcDbEntity
  8
SEIHIN
  6
CONTINUOUS
 62
     3
100
AcDbLine
 10
63.72124478437081
 20
40.21259358785289
 30
0.0
 11
61.70582757366219
 21
40.21259358785289
 31
0.0
  0
LINE
  5
7BEB
330
1A
100
AcDbEntity
  8
ﾊｯﾁﾝｸ_
100
AcDbLine
 10
63.72124478437081
 20
44.44479304561435
 30
0.0
 11
61.70582757366219
 21
42.42937583490572
 31
0.0
  0
LINE
  5
7BEC
330
1A
100
AcDbEntity
  8
ﾊｯﾁﾝｸ_
100
AcDbLine
 10
63.72124478437081
 20
48.93492110614795
 30
0.0
 11
61.70582757366219
 21
46.91950389543933
 31
0.0
  0
LINE
  5
7BED
330
1A
100
AcDbEntity
  8
ﾊｯﾁﾝｸ_
100
AcDbLine
 10
63.72124478437081
 20
57.91517722721699
 30
0.0
 11
61.70582757366219
 21
55.89976001651018
 31
0.0
  0
LINE
  5
7BEE
330
1A
100
AcDbEntity
  8
ﾊｯﾁﾝｸ_
100
AcDbLine
 10
63.72124478437081
 20
62.40530528775241
 30
0.0
 11
61.70582757366219
 21
60.38988807704379
 31
0.0
  0
LINE
  5
7BEF
330
1A
100
AcDbEntity
  8
SEIHIN
  6
CONTINUOUS
 62
     3
100
AcDbLine
 10
63.72124478437081
 20
65.2125935878529
 30
0.0
 11
65.5876456167557
 21
65.2125935878529
 31
0.0
  0
LINE
  5
7BF0
330
1A
100
AcDbEntity
  8
SEIHIN
  6
CONTINUOUS
 62
     3
100
AcDbLine
 10
65.5876456167557
 20
65.2125935878529
 30
0.0
 11
65.5876456167557
 21
66.71259358785289
 31
0.0
  0
ARC
  5
7BF1
330
1A
100
AcDbEntity
  8
SEIHIN
  6
CONTINUOUS
 62
     3
100
AcDbCircle
 10
65.0849192792034
 20
66.70986356242508
 30
0.0
 40
0.5027337501175801
100
AcDbArc
 50
0.3111382590675963
 51
90.22055347124352
  0
LINE
  5
7BF2
330
1A
100
AcDbEntity
  8
ﾊｯﾁﾝｸ_
100
AcDbLine
 10
64.03840502393677
 20
67.21259358785289
 30
0.0
 11
61.70582757366219
 21
64.8800161375774
 31
0.0
  0
LINE
  5
7BF3
330
1A
100
AcDbEntity
  8
SEIHIN
  6
CONTINUOUS
 62
     3
100
AcDbLine
 10
61.55475506143239
 20
99.61259358785254
 30
0.0
 11
56.01957521955546
 21
99.61259358785254
 31
0.0
  0
LINE
  5
7BF4
330
1A
100
AcDbEntity
  8
ﾊｯﾁﾝｸ_
100
AcDbLine
 10
60.51738053966028
 20
99.61259358785254
 30
0.0
 11
58.51738053966028
 21
97.61259358785252
 31
0.0
  0
LINE
  5
7BF5
330
1A
100
AcDbEntity
  8
SEIHIN
  6
CONTINUOUS
 62
     3
100
AcDbLine
 10
56.19291279427443
 20
97.61259358785252
 30
0.0
 11
63.06599405092902
 21
97.61259358785252
 31
0.0
  0
LINE
  5
7BF6
330
1A
100
AcDbEntity
  8
SEIHIN
  6
CONTINUOUS
 62
     3
100
AcDbLine
 10
54.36707607238213
 20
104.2125935878528
 30
0.0
 11
63.06599405092811
 21
104.2125935878528
 31
0.0
  0
LINE
  5
7BF7
330
1A
100
AcDbEntity
  8
SEIHIN
  6
CONTINUOUS
 62
     3
100
AcDbLine
 10
47.48705488833684
 20
104.7125935878528
 30
0.0
 11
63.06599405092811
 21
104.7125935878528
 31
0.0
  0
LINE
  5
7BF8
330
1A
100
AcDbEntity
  8
SEIHIN
  6
CONTINUOUS
 62
     3
100
AcDbLine
 10
62.05837298283086
 20
105.7125935878528
 30
0.0
 11
43.47500262957192
 21
105.7125935878528
 31
0.0
  0
LINE
  5
7BF9
330
1A
100
AcDbEntity
  8
SEIHIN
  6
CONTINUOUS
 62
     3
100
AcDbLine
 10
44.47782252609113
 20
107.7125935878529
 30
0.0
 11
65.0829840686024
 21
107.7125935878529
 31
0.0
  0
POLYLINE
  5
7BFA
330
1A
100
AcDbEntity
  8
SEIHIN
  6
CONTINUOUS
 62
     3
100
AcDb2dPolyline
 66
     1
 10
0.0
 20
0.0
 30
0.0
  0
VERTEX
  5
9522
330
7BFA
100
AcDbEntity
  8
SEIHIN
  6
CONTINUOUS
 62
     3
100
AcDbVertex
100
AcDb2dVertex
 10
53.38647132864981
 20
102.1412895265538
 30
0.0
  0
VERTEX
  5
9523
330
7BFA
100
AcDbEntity
  8
SEIHIN
  6
CONTINUOUS
 62
     3
100
AcDbVertex
100
AcDb2dVertex
 10
54.07705100225348
 20
90.18185735277155
 30
0.0
  0
VERTEX
  5
9524
330
7BFA
100
AcDbEntity
  8
SEIHIN
  6
CONTINUOUS
 62
     3
100
AcDbVertex
100
AcDb2dVertex
 10
54.70971128075643
 20
79.22722732936461
 30
0.0
  0
SEQEND
  5
9525
330
7BFA
100
AcDbEntity
  8
SEIHIN
  6
CONTINUOUS
 62
     3
  0
POLYLINE
  5
7BFB
330
1A
100
AcDbEntity
  8
SEIHIN
  6
CONTINUOUS
 62
     3
100
AcDb2dPolyline
 66
     1
 10
0.0
 20
0.0
 30
0.0
  0
VERTEX
  5
9526
330
7BFB
100
AcDbEntity
  8
SEIHIN
  6
CONTINUOUS
 62
     3
100
AcDbVertex
100
AcDb2dVertex
 10
56.71636158094725
 20
79.34201108416607
 30
0.0
  0
VERTEX
  5
9527
330
7BFB
100
AcDbEntity
  8
SEIHIN
  6
CONTINUOUS
 62
     3
100
AcDbVertex
100
AcDb2dVertex
 10
56.58712912393139
 20
81.57831401476403
 30
0.0
  0
VERTEX
  5
9528
330
7BFB
100
AcDbEntity
  8
SEIHIN
  6
CONTINUOUS
 62
     3
100
AcDbVertex
100
AcDb2dVertex
 10
55.69121986788605
 20
97.08389764915308
 30
0.0
  0
SEQEND
  5
9529
330
7BFB
100
AcDbEntity
  8
SEIHIN
  6
CONTINUOUS
 62
     3
  0
POLYLINE
  5
7BFC
330
1A
100
AcDbEntity
  8
SEIHIN
  6
CONTINUOUS
 62
     3
100
AcDb2dPolyline
 66
     1
 10
0.0
 20
0.0
 30
0.0
  0
VERTEX
  5
952A
330
7BFC
100
AcDbEntity
  8
SEIHIN
  6
CONTINUOUS
 62
     3
100
AcDbVertex
100
AcDb2dVertex
 10
52.61345545898485
 20
78.13367625431863
 30
0.0
  0
VERTEX
  5
952B
330
7BFC
100
AcDbEntity
  8
SEIHIN
  6
CONTINUOUS
 62
     3
100
AcDbVertex
100
AcDb2dVertex
 10
52.41670933744853
 20
81.58741632999669
 30
0.0
  0
VERTEX
  5
952C
330
7BFC
100
AcDbEntity
  8
SEIHIN
  6
CONTINUOUS
 62
     3
100
AcDbVertex
100
AcDb2dVertex
 10
51.96040377196687
 20
89.59809381971069
 30
0.0
  0
VERTEX
  5
952D
330
7BFC
100
AcDbEntity
  8
SEIHIN
  6
CONTINUOUS
 62
     3
100
AcDbVertex
100
AcDb2dVertex
 10
51.24763591265446
 20
102.1125935878525
 30
0.0
  0
SEQEND
  5
952E
330
7BFC
100
AcDbEntity
  8
SEIHIN
  6
CONTINUOUS
 62
     3
  0
POLYLINE
  5
7BFD
330
1A
100
AcDbEntity
  8
SEIHIN
  6
CONTINUOUS
 62
     3
100
AcDb2dPolyline
 66
     1
 10
0.0
 20
0.0
 30
0.0
  0
VERTEX
  5
952F
330
7BFD
100
AcDbEntity
  8
SEIHIN
  6
CONTINUOUS
 62
     3
100
AcDbVertex
100
AcDb2dVertex
 10
53.05795481127688
 20
102.1125935878525
 30
0.0
  0
VERTEX
  5
9530
330
7BFD
100
AcDbEntity
  8
SEIHIN
  6
CONTINUOUS
 62
     3
100
AcDbVertex
100
AcDb2dVertex
 10
53.76663599172616
 20
89.67467787812609
 30
0.0
  0
VERTEX
  5
9531
330
7BFD
100
AcDbEntity
  8
SEIHIN
  6
CONTINUOUS
 62
     3
100
AcDbVertex
100
AcDb2dVertex
 10
54.41850940451195
 20
78.23562316673349
 30
0.0
  0
SEQEND
  5
9532
330
7BFD
100
AcDbEntity
  8
SEIHIN
  6
CONTINUOUS
 62
     3
  0
LINE
  5
7BFE
330
1A
100
AcDbEntity
  8
ﾊｯﾁﾝｸ_
100
AcDbLine
 10
53.35278307442831
 20
96.93812418315509
 30
0.0
 11
51.63990715588034
 21
95.225248264608
 31
0.0
  0
LINE
  5
7BFF
330
1A
100
AcDbEntity
  8
SEIHIN
  6
CONTINUOUS
 62
     3
100
AcDbLine
 10
56.44760758290136
 20
97.59987610799079
 30
0.0
 11
57.50986254114718
 21
79.37070702286553
 31
0.0
  0
LINE
  5
7C00
330
1A
100
AcDbEntity
  8
ﾊｯﾁﾝｸ_
100
AcDbLine
 10
56.30725004073838
 20
86.42220696786251
 30
0.0
 11
54.40409379704442
 21
84.51905072416854
 31
0.0
  0
LINE
  5
7C01
330
1A
100
AcDbEntity
  8
ﾊｯﾁﾝｸ_
100
AcDbLine
 10
56.83877039439858
 20
77.97347120045277
 30
0.0
 11
54.96681778714037
 21
76.10151859319455
 31
0.0
  0
LINE
  5
7C02
330
1A
100
AcDbEntity
  8
ﾊｯﾁﾝｸ_
100
AcDbLine
 10
54.07896586617198
 20
84.19392279329702
 30
0.0
 11
52.36582149492687
 21
82.480778422051
 31
0.0
  0
LINE
  5
7C03
330
1A
100
AcDbEntity
  8
ﾊｯﾁﾝｸ_
100
AcDbLine
 10
54.32104778681651
 20
79.94587665340521
 30
0.0
 11
52.56067508728984
 21
78.18550395387944
 31
0.0
  0
LINE
  5
7C04
330
1A
100
AcDbEntity
  8
ﾊｯﾁﾝｸ_
100
AcDbLine
 10
56.55251718301179
 20
82.1773460496014
 30
0.0
 11
54.64925255248044
 21
80.27408141907006
 31
0.0
  0
LINE
  5
7C05
330
1A
100
AcDbEntity
  8
ﾊｯﾁﾝｸ_
100
AcDbLine
 10
53.83688394552837
 20
88.441968933187
 30
0.0
 11
52.12383796780841
 21
86.72892295546706
 31
0.0
  0
LINE
  5
7C06
330
1A
100
AcDbEntity
  8
ﾊｯﾁﾝｸ_
100
AcDbLine
 10
53.59482816646823
 20
92.69004121466139
 30
0.0
 11
51.88186332217856
 21
90.97707637037173
 31
0.0
  0
LINE
  5
7C07
330
1A
100
AcDbEntity
  8
ﾊｯﾁﾝｸ_
100
AcDbLine
 10
56.06198289846407
 20
90.66706788612362
 30
0.0
 11
54.15893504160931
 21
88.76402002926704
 31
0.0
  0
LINE
  5
7C08
330
1A
100
AcDbEntity
  8
ﾊｯﾁﾝｸ_
100
AcDbLine
 10
55.81671575619066
 20
94.91192880438473
 30
0.0
 11
53.91380103014808
 21
93.00901407834032
 31
0.0
  0
LINE
  5
7C09
330
1A
100
AcDbEntity
  8
ﾊｯﾁﾝｸ_
100
AcDbLine
 10
59.63712441856796
 20
107.7125935878419
 30
0.0
 11
57.63712441856796
 21
105.7125935878419
 31
0.0
  0
LINE
  5
7C0A
330
1A
100
AcDbEntity
  8
ﾊｯﾁﾝｸ_
100
AcDbLine
 10
55.14699635803345
 20
107.7125935878419
 30
0.0
 11
53.14699635803345
 21
105.7125935878419
 31
0.0
  0
LINE
  5
7C0B
330
1A
100
AcDbEntity
  8
ﾊｯﾁﾝｸ_
100
AcDbLine
 10
50.65686829749802
 20
107.7125935878419
 30
0.0
 11
48.65686829749893
 21
105.7125935878419
 31
0.0
  0
LINE
  5
7C0C
330
1A
100
AcDbEntity
  8
ﾊｯﾁﾝｸ_
100
AcDbLine
 10
43.47500262957192
 20
109.5109840409721
 30
0.0
 11
41.46970256201211
 21
107.5056839734142
 31
0.0
  0
ARC
  5
7C0D
330
1A
100
AcDbEntity
  8
SEIHIN
  6
CONTINUOUS
 62
     3
100
AcDbCircle
 10
44.47636456240843
 20
108.7139553852911
 30
0.0
 40
1.00136285882075
100
AcDbArc
 50
180.0779190770707
 51
270.083421503469
  0
LINE
  5
7C0E
330
1A
100
AcDbEntity
  8
ﾊｯﾁﾝｸ_
100
AcDbLine
 10
46.1667402369635
 20
107.7125935878419
 30
0.0
 11
44.16674023696441
 21
105.7125935878419
 31
0.0
  0
LINE
  5
7C0F
330
1A
100
AcDbEntity
  8
SEIHIN
  6
CONTINUOUS
 62
     3
100
AcDbLine
 10
47.98871802853727
 20
104.2125935878528
 30
0.0
 11
54.36707607238213
 21
104.2125935878528
 31
0.0
  0
LINE
  5
7C10
330
1A
100
AcDbEntity
  8
SEIHIN
  6
CONTINUOUS
 62
     3
100
AcDbLine
 10
43.47500262957374
 20
102.6125935878525
 30
0.0
 11
52.88513382170686
 21
102.6125935878525
 31
0.0
  0
ARC
  5
7C11
330
1A
100
AcDbEntity
  8
SEIHIN
  6
CONTINUOUS
 62
     3
100
AcDbCircle
 10
47.48774791751157
 20
104.2116230160016
 30
0.0
 40
0.5009710512099778
100
AcDbArc
 50
0.1110038303328541
 51
90.07926138515271
  0
ARC
  5
7C12
330
1A
100
AcDbEntity
  8
SEIHIN
  6
CONTINUOUS
 62
     3
100
AcDbCircle
 10
47.486145545638
 20
104.2118776606702
 30
0.0
 40
0.5007167529032421
100
AcDbArc
 50
89.89594610702431
 51
179.9180781954827
  0
LINE
  5
7C13
330
1A
100
AcDbEntity
  8
SEIHIN
  6
CONTINUOUS
 62
     3
100
AcDbLine
 10
41.46970256201393
 20
106.2125935878528
 30
0.0
 11
42.973636467505
 21
106.2125935878528
 31
0.0
  0
ARC
  5
7C14
330
1A
100
AcDbEntity
  8
SEIHIN
  6
CONTINUOUS
 62
     3
100
AcDbCircle
 10
43.47220316131688
 20
104.6150937911505
 30
0.0
 40
2.002502160105707
100
AcDbArc
 50
180.0715360696829
 51
270.0800986742316
  0
LINE
  5
7C15
330
1A
100
AcDbEntity
  8
SEIHIN
  6
CONTINUOUS
 62
     3
100
AcDbLine
 10
43.47500262957192
 20
106.2125935878528
 30
0.0
 11
41.46970256201211
 21
106.2125935878528
 31
0.0
  0
LINE
  5
7C16
330
1A
100
AcDbEntity
  8
ﾊｯﾁﾝｸ_
100
AcDbLine
 10
42.973636467505
 20
104.5194898183698
 30
0.0
 11
41.88681131307612
 21
103.4326646639409
 31
0.0
  0
LINE
  5
7C17
330
1A
100
AcDbEntity
  8
SEIHIN
  6
CONTINUOUS
 62
     3
100
AcDbLine
 10
41.46970256201393
 20
104.6125935878525
 30
0.0
 11
41.46970256201393
 21
106.2125935878528
 31
0.0
  0
LINE
  5
7C18
330
1A
100
AcDbEntity
  8
SEIHIN
  6
CONTINUOUS
 62
     3
100
AcDbLine
 10
42.973636467505
 20
104.2125935878528
 30
0.0
 11
42.973636467505
 21
106.2125935878528
 31
0.0
  0
LINE
  5
7C19
330
1A
100
AcDbEntity
  8
SEIHIN
  6
CONTINUOUS
 62
     3
100
AcDbLine
 10
43.47500262957192
 20
105.7125935878528
 30
0.0
 11
43.47500262957192
 21
106.2125935878528
 31
0.0
  0
LINE
  5
7C1A
330
1A
100
AcDbEntity
  8
SEIHIN
  6
CONTINUOUS
 62
     3
100
AcDbLine
 10
42.973636467505
 20
104.2125935878528
 30
0.0
 11
46.98542930455324
 21
104.2125935878528
 31
0.0
  0
LINE
  5
7C1B
330
1A
100
AcDbEntity
  8
ﾊｯﾁﾝｸ_
100
AcDbLine
 10
47.63127319849672
 20
104.6869984888279
 30
0.0
 11
45.55686829752221
 21
102.6125935878525
 31
0.0
  0
ARC
  5
7C1C
330
1A
100
AcDbEntity
  8
SEIHIN
  6
CONTINUOUS
 62
     3
100
AcDbCircle
 10
56.19177093157896
 20
97.11129461777353
 30
0.0
 40
0.5013002705498053
100
AcDbArc
 50
89.86949145321011
 51
183.1328791049158
  0
ARC
  5
7C1D
330
1A
100
AcDbEntity
  8
SEIHIN
  6
CONTINUOUS
 62
     3
100
AcDbCircle
 10
56.01834755692516
 20
100.1139334869284
 30
0.0
 40
0.5013414022007286
100
AcDbArc
 50
183.4347011651999
 51
270.1403035085176
  0
LINE
  5
7C1E
330
1A
100
AcDbEntity
  8
SEIHIN
  6
CONTINUOUS
 62
     3
100
AcDbLine
 10
55.51790670126911
 20
100.083897649153
 30
0.0
 11
55.37182763825285
 21
102.6125935878525
 31
0.0
  0
LINE
  5
7C1F
330
1A
100
AcDbEntity
  8
SEIHIN
  6
CONTINUOUS
 62
     3
100
AcDbLine
 10
55.37182763825285
 20
102.6125935878525
 30
0.0
 11
55.37182763825285
 21
103.2125935878528
 31
0.0
  0
ARC
  5
7C20
330
1A
100
AcDbEntity
  8
SEIHIN
  6
CONTINUOUS
 62
     3
100
AcDbCircle
 10
56.64716943519715
 20
100.0012128209299
 30
0.0
 40
0.3886207744301613
100
AcDbArc
 50
167.715572976949
 51
269.8386288192472
  0
LINE
  5
7C21
330
1A
100
AcDbEntity
  8
SEIHIN
  6
CONTINUOUS
 62
     3
100
AcDbLine
 10
55.51790670126911
 20
100.083897649153
 30
0.0
 11
56.26744673966777
 21
100.083897649153
 31
0.0
  0
ARC
  5
7C22
330
1A
100
AcDbEntity
  8
SEIHIN
  6
CONTINUOUS
 62
     3
100
AcDbCircle
 10
52.88631334820866
 20
102.111553843987
 30
0.0
 40
0.501041132260596
100
AcDbArc
 50
3.402377020908663
 51
90.13488304341079
  0
LINE
  5
7C23
330
1A
100
AcDbEntity
  8
SEIHIN
  6
CONTINUOUS
 62
     3
100
AcDbLine
 10
51.24763591265446
 20
102.1125935878525
 30
0.0
 11
53.05795481127688
 21
102.1125935878525
 31
0.0
  0
LINE
  5
7C24
330
1A
100
AcDbEntity
  8
SEIHIN
  6
CONTINUOUS
 62
     3
100
AcDbLine
 10
53.05795481127688
 20
102.1125935878525
 30
0.0
 11
53.32857241202919
 21
102.1125935878525
 31
0.0
  0
LINE
  5
7C25
330
1A
100
AcDbEntity
  8
ﾊｯﾁﾝｸ_
100
AcDbLine
 10
53.11073798238658
 20
101.1862071516487
 30
0.0
 11
51.39795098958211
 21
99.4734201588443
 31
0.0
  0
LINE
  5
7C26
330
1A
100
AcDbEntity
  8
ﾊｯﾁﾝｸ_
100
AcDbLine
 10
51.6469963580571
 20
104.2125935878528
 30
0.0
 11
50.04699635805673
 21
102.6125935878525
 31
0.0
  0
ARC
  5
7C27
330
1A
100
AcDbEntity
  8
SEIHIN
  6
CONTINUOUS
 62
     3
100
AcDbCircle
 10
54.36942902149758
 20
103.2101948626012
 30
0.0
 40
1.002401486808024
100
AcDbArc
 50
0.1371077019356142
 51
90.13449119873394
  0
LINE
  5
7C28
330
1A
100
AcDbEntity
  8
ﾊｯﾁﾝｸ_
100
AcDbLine
 10
56.02468542017459
 20
99.61002652890137
 30
0.0
 11
53.66867942805811
 21
97.25402053678488
 31
0.0
  0
LINE
  5
7C29
330
1A
100
AcDbEntity
  8
ﾊｯﾁﾝｸ_
100
AcDbLine
 10
55.34746046325608
 20
103.4229296325182
 30
0.0
 11
53.42355782596905
 21
101.4990269952312
 31
0.0
  0
LINE
  5
7C2A
330
1A
100
AcDbEntity
  8
ﾊｯﾁﾝｸ_
100
AcDbLine
 10
43.47500262957192
 20
114.0011121015076
 30
0.0
 11
41.46970256201211
 21
111.9958120339477
 31
0.0
  0
LINE
  5
7C2B
330
1A
100
AcDbEntity
  8
ﾊｯﾁﾝｸ_
100
AcDbLine
 10
43.47500262957192
 20
118.4912401620412
 30
0.0
 11
41.46970256201211
 21
116.4859400944814
 31
0.0
  0
LINE
  5
7C2C
330
1A
100
AcDbEntity
  8
SEIHIN
  6
CONTINUOUS
 62
     3
100
AcDbLine
 10
67.60478700004615
 20
96.41249084488016
 30
0.0
 11
67.60478700004615
 21
97.5086432675879
 31
0.0
  0
LINE
  5
7C2D
330
1A
100
AcDbEntity
  8
SEIHIN
  6
CONTINUOUS
 62
     3
100
AcDbLine
 10
65.94243263950875
 20
96.02800129708237
 30
0.0
 11
65.94243263950875
 21
97.92800129708201
 31
0.0
  0
LINE
  5
7C2E
330
1A
100
AcDbEntity
  8
SEIHIN
  6
CONTINUOUS
 62
     3
100
AcDbLine
 10
65.5876456167557
 20
107.2125935878528
 30
0.0
 11
65.5876456167557
 21
87.7125935878529
 31
0.0
  0
ARC
  5
7C2F
330
1A
100
AcDbEntity
  8
SEIHIN
  6
CONTINUOUS
 62
     3
100
AcDbCircle
 10
63.56422505392811
 20
96.81844591480047
 30
0.0
 40
1.505863443264348
100
AcDbArc
 50
180.222672567068
 51
270.2201534754363
  0
LINE
  5
7C30
330
1A
100
AcDbEntity
  8
SEIHIN
  6
CONTINUOUS
 62
     3
100
AcDbLine
 10
73.95716213587775
 20
96.07471891660033
 30
0.0
 11
73.95716213587775
 21
97.32812915272086
 31
0.0
  0
LINE
  5
7C31
330
1A
100
AcDbEntity
  8
SEIHIN
  6
CONTINUOUS
 62
     3
100
AcDbLine
 10
62.70750860017187
 20
97.31259358784235
 30
0.0
 11
62.06713626762985
 21
96.67222125528759
 31
0.0
  0
LINE
  5
7C32
330
1A
100
AcDbEntity
  8
SEIHIN
  6
CONTINUOUS
 62
     3
100
AcDbLine
 10
63.57001117391201
 20
75.01259358785398
 30
0.0
 11
63.57001117391201
 21
95.31259358785325
 31
0.0
  0
POLYLINE
  5
7C33
330
1A
100
AcDbEntity
  8
SEIHIN
  6
CONTINUOUS
 62
     3
100
AcDb2dPolyline
 66
     1
 10
0.0
 20
0.0
 30
0.0
  0
VERTEX
  5
9533
330
7C33
100
AcDbEntity
  8
SEIHIN
  6
CONTINUOUS
 62
     3
100
AcDbVertex
100
AcDb2dVertex
 10
65.5876456167557
 20
87.7125935878529
 30
0.0
  0
VERTEX
  5
9534
330
7C33
100
AcDbEntity
  8
SEIHIN
  6
CONTINUOUS
 62
     3
100
AcDbVertex
100
AcDb2dVertex
 10
65.47769383471359
 20
81.4725207430555
 30
0.0
  0
VERTEX
  5
9535
330
7C33
100
AcDbEntity
  8
SEIHIN
  6
CONTINUOUS
 62
     3
100
AcDbVertex
100
AcDb2dVertex
 10
65.36387730965407
 20
75.01259358785398
 30
0.0
  0
SEQEND
  5
9536
330
7C33
100
AcDbEntity
  8
SEIHIN
  6
CONTINUOUS
 62
     3
  0
LINE
  5
7C34
330
1A
100
AcDbEntity
  8
ﾊｯﾁﾝｸ_
100
AcDbLine
 10
65.56988423172834
 20
86.70458503778434
 30
0.0
 11
63.57001117391201
 21
84.7047119799671
 31
0.0
  0
LINE
  5
7C35
330
1A
100
AcDbEntity
  8
SEIHIN
  6
CONTINUOUS
 62
     3
100
AcDbLine
 10
65.36387730965407
 20
75.01259358785398
 30
0.0
 11
63.57001117391201
 21
75.01259358785398
 31
0.0
  0
LINE
  5
7C36
330
1A
100
AcDbEntity
  8
ﾊｯﾁﾝｸ_
100
AcDbLine
 10
65.40881716598915
 20
77.5632618509743
 30
0.0
 11
63.57001117391201
 21
75.72445585889806
 31
0.0
  0
LINE
  5
7C37
330
1A
100
AcDbEntity
  8
ﾊｯﾁﾝｸ_
100
AcDbLine
 10
65.48934788068482
 20
82.13392062620448
 30
0.0
 11
63.57001117391201
 21
80.21458391943168
 31
0.0
  0
LINE
  5
7C38
330
1A
100
AcDbEntity
  8
SEIHIN
  6
CONTINUOUS
 62
     3
100
AcDbLine
 10
67.60478700004615
 20
87.7125935878529
 30
0.0
 11
73.67816927338708
 21
87.7125935878529
 31
0.0
  0
ARC
  5
7C39
330
1A
100
AcDbEntity
  8
SEIHIN
  6
CONTINUOUS
 62
     3
100
AcDbCircle
 10
76.09162483696718
 20
227.7273246062912
 30
0.0
 40
134.5826919957605
100
AcDbArc
 50
266.3845065190893
 51
268.9724664558165
  0
ARC
  5
7C3A
330
1A
100
AcDbEntity
  8
SEIHIN
  6
CONTINUOUS
 62
     3
100
AcDbCircle
 10
76.09162483697355
 20
224.7273246064331
 30
0.0
 40
134.5826919959011
100
AcDbArc
 50
266.3845065190893
 51
268.9724664558165
  0
ARC
  5
7C3B
330
1A
100
AcDbEntity
  8
SEIHIN
  6
CONTINUOUS
 62
     3
100
AcDbCircle
 10
76.09162483696718
 20
230.7273246062858
 30
0.0
 40
134.5826919957538
100
AcDbArc
 50
266.3845065190893
 51
268.9724664558165
  0
ARC
  5
7C3C
330
1A
100
AcDbEntity
  8
SEIHIN
  6
CONTINUOUS
 62
     3
100
AcDbCircle
 10
76.09162483694991
 20
228.8234770285661
 30
0.0
 40
134.5826919953278
100
AcDbArc
 50
266.3845065190893
 51
268.9724664558165
  0
ARC
  5
7C3D
330
1A
100
AcDbEntity
  8
SEIHIN
  6
CONTINUOUS
 62
     3
100
AcDbCircle
 10
76.09162483694354
 20
222.8234770283933
 30
0.0
 40
134.5826919951555
100
AcDbArc
 50
266.3845065190893
 51
268.9724664558165
  0
ARC
  5
7C3E
330
1A
100
AcDbEntity
  8
SEIHIN
  6
CONTINUOUS
 62
     3
100
AcDbCircle
 10
76.09162483694991
 20
225.8234770285643
 30
0.0
 40
134.5826919953256
100
AcDbArc
 50
266.3845065190893
 51
268.9724664558165
  0
ARC
  5
7C3F
330
1A
100
AcDbEntity
  8
SEIHIN
  6
CONTINUOUS
 62
     3
100
AcDbCircle
 10
75.32408160294699
 20
241.7799002466189
 30
0.0
 40
150.1452861599572
100
AcDbArc
 50
266.4176079545184
 51
269.2032385675811
  0
ARC
  5
7C40
330
1A
100
AcDbEntity
  8
SEIHIN
  6
CONTINUOUS
 62
     3
100
AcDbCircle
 10
75.32408160293243
 20
239.8799002462936
 30
0.0
 40
150.1452861596307
100
AcDbArc
 50
266.4176079545184
 51
269.2032385675811
  0
ARC
  5
7C41
330
1A
100
AcDbEntity
  8
SEIHIN
  6
CONTINUOUS
 62
     3
100
AcDbCircle
 10
75.3240816029479
 20
244.7799002466225
 30
0.0
 40
150.1452861599607
100
AcDbArc
 50
266.4176079545184
 51
269.2032385675811
  0
ARC
  5
7C42
330
1A
100
AcDbEntity
  8
SEIHIN
  6
CONTINUOUS
 62
     3
100
AcDbCircle
 10
75.32408160293243
 20
242.8799002462864
 30
0.0
 40
150.145286159624
100
AcDbArc
 50
266.4176079545184
 51
269.2032385675811
  0
ARC
  5
7C43
330
1A
100
AcDbEntity
  8
SEIHIN
  6
CONTINUOUS
 62
     3
100
AcDbCircle
 10
75.32408160294153
 20
245.8799002465938
 30
0.0
 40
150.1452861599313
100
AcDbArc
 50
266.4176079545184
 51
269.2032385675811
  0
ARC
  5
7C44
330
1A
100
AcDbEntity
  8
SEIHIN
  6
CONTINUOUS
 62
     3
100
AcDbCircle
 10
75.32408160293243
 20
238.7799002462751
 30
0.0
 40
150.1452861596122
100
AcDbArc
 50
266.4176079545184
 51
269.2032385675811
  0
LINE
  5
7C45
330
1A
100
AcDbEntity
  8
SEIHIN
  6
CONTINUOUS
 62
     3
100
AcDbLine
 10
65.94243263950875
 20
87.7125935878529
 30
0.0
 11
66.14963475257218
 21
87.7125935878529
 31
0.0
  0
LINE
  5
7C46
330
1A
100
AcDbEntity
  8
SEIHIN
  6
CONTINUOUS
 62
     3
100
AcDbLine
 10
67.60478700004615
 20
90.41249084488015
 30
0.0
 11
67.60478700004615
 21
91.50864326758791
 31
0.0
  0
LINE
  5
7C47
330
1A
100
AcDbEntity
  8
SEIHIN
  6
CONTINUOUS
 62
     3
100
AcDbLine
 10
67.60478700004615
 20
93.41249084488016
 30
0.0
 11
67.60478700004615
 21
94.50864326758789
 31
0.0
  0
LINE
  5
7C48
330
1A
100
AcDbEntity
  8
SEIHIN
  6
CONTINUOUS
 62
     3
100
AcDbLine
 10
67.60478700004615
 20
87.7125935878529
 30
0.0
 11
67.60478700004615
 21
88.5086432675879
 31
0.0
  0
LINE
  5
7C49
330
1A
100
AcDbEntity
  8
SEIHIN
  6
CONTINUOUS
 62
     3
100
AcDbLine
 10
66.14963475257218
 20
87.7125935878529
 30
0.0
 11
67.60478700004615
 21
87.7125935878529
 31
0.0
  0
ARC
  5
7C4A
330
1A
100
AcDbEntity
  8
SEIHIN
  6
CONTINUOUS
 62
     3
100
AcDbCircle
 10
68.29930183970509
 20
86.83174497601328
 30
0.0
 40
6.617293030622101
100
AcDbArc
 50
96.02454649574246
 51
108.9568486648244
  0
LINE
  5
7C4B
330
1A
100
AcDbEntity
  8
SEIHIN
  6
CONTINUOUS
 62
     3
100
AcDbLine
 10
65.94243263950966
 20
93.02800129708236
 30
0.0
 11
66.14963475257218
 21
93.09013921636221
 31
0.0
  0
ARC
  5
7C4C
330
1A
100
AcDbEntity
  8
SEIHIN
  6
CONTINUOUS
 62
     3
100
AcDbCircle
 10
68.29930183971146
 20
83.83174497598417
 30
0.0
 40
6.617293030652004
100
AcDbArc
 50
96.02454649579485
 51
108.9568486647762
  0
LINE
  5
7C4D
330
1A
100
AcDbEntity
  8
SEIHIN
  6
CONTINUOUS
 62
     3
100
AcDbLine
 10
65.94243263950875
 20
90.02800129708237
 30
0.0
 11
66.14963475257218
 21
90.09013921636222
 31
0.0
  0
ARC
  5
7C4E
330
1A
100
AcDbEntity
  8
SEIHIN
  6
CONTINUOUS
 62
     3
100
AcDbCircle
 10
68.29930183970237
 20
89.83174497602965
 30
0.0
 40
6.617293030605195
100
AcDbArc
 50
96.02454649574246
 51
108.9568486648382
  0
LINE
  5
7C4F
330
1A
100
AcDbEntity
  8
SEIHIN
  6
CONTINUOUS
 62
     3
100
AcDbLine
 10
65.94243263950966
 20
96.02800129708237
 30
0.0
 11
66.14963475257218
 21
96.09013921636222
 31
0.0
  0
LINE
  5
7C50
330
1A
100
AcDbEntity
  8
SEIHIN
  6
CONTINUOUS
 62
     3
100
AcDbLine
 10
66.14963475257309
 20
94.8685159727437
 30
0.0
 11
65.94243263950966
 21
94.928001297082
 31
0.0
  0
ARC
  5
7C51
330
1A
100
AcDbEntity
  8
SEIHIN
  6
CONTINUOUS
 62
     3
100
AcDbCircle
 10
70.43553373899567
 20
109.0767269753167
 30
0.0
 40
14.8405589522601
100
AcDbArc
 50
253.2140921203096
 51
259.0037969318081
  0
LINE
  5
7C52
330
1A
100
AcDbEntity
  8
SEIHIN
  6
CONTINUOUS
 62
     3
100
AcDbLine
 10
66.14963475257218
 20
88.8685159727437
 30
0.0
 11
65.94243263950966
 21
88.928001297082
 31
0.0
  0
ARC
  5
7C53
330
1A
100
AcDbEntity
  8
SEIHIN
  6
CONTINUOUS
 62
     3
100
AcDbCircle
 10
70.43553373903205
 20
103.0767269754677
 30
0.0
 40
14.84055895241391
100
AcDbArc
 50
253.2140921203096
 51
259.0037969317548
  0
LINE
  5
7C54
330
1A
100
AcDbEntity
  8
SEIHIN
  6
CONTINUOUS
 62
     3
100
AcDbLine
 10
66.14963475257218
 20
91.86851597274369
 30
0.0
 11
65.94243263950966
 21
91.92800129708201
 31
0.0
  0
ARC
  5
7C55
330
1A
100
AcDbEntity
  8
SEIHIN
  6
CONTINUOUS
 62
     3
100
AcDbCircle
 10
70.43553373901295
 20
106.0767269753895
 30
0.0
 40
14.84055895233476
100
AcDbArc
 50
253.2140921203096
 51
259.0037969317548
  0
LINE
  5
7C56
330
1A
100
AcDbEntity
  8
SEIHIN
  6
CONTINUOUS
 62
     3
100
AcDbLine
 10
65.94243263950875
 20
90.02800129708237
 30
0.0
 11
65.94243263950875
 21
91.92800129708201
 31
0.0
  0
LINE
  5
7C57
330
1A
100
AcDbEntity
  8
SEIHIN
  6
CONTINUOUS
 62
     3
100
AcDbLine
 10
65.94243263950875
 20
93.02800129708236
 30
0.0
 11
65.94243263950875
 21
94.928001297082
 31
0.0
  0
LINE
  5
7C58
330
1A
100
AcDbEntity
  8
SEIHIN
  6
CONTINUOUS
 62
     3
100
AcDbLine
 10
65.94243263950875
 20
87.7125935878529
 30
0.0
 11
65.94243263950875
 21
88.928001297082
 31
0.0
  0
LINE
  5
7C59
330
1A
100
AcDbEntity
  8
SEIHIN
  6
CONTINUOUS
 62
     3
100
AcDbLine
 10
65.5876456167557
 20
87.7125935878529
 30
0.0
 11
65.94243263950875
 21
87.7125935878529
 31
0.0
  0
LINE
  5
7C5A
330
1A
100
AcDbEntity
  8
ﾊｯﾁﾝｸ_
100
AcDbLine
 10
65.5876456167557
 20
91.21247448334441
 30
0.0
 11
63.57001117391201
 21
89.19484004050071
 31
0.0
  0
LINE
  5
7C5B
330
1A
100
AcDbEntity
  8
ﾊｯﾁﾝｸ_
100
AcDbLine
 10
65.5876456167557
 20
95.70260254387983
 30
0.0
 11
63.57001117391201
 21
93.68496810103613
 31
0.0
  0
LINE
  5
7C5C
330
1A
100
AcDbEntity
  8
SEIHIN
  6
CONTINUOUS
 62
     3
100
AcDbLine
 10
73.67816927338708
 20
87.7125935878529
 30
0.0
 11
73.95716213587775
 21
87.7125935878529
 31
0.0
  0
POLYLINE
  5
7C5D
330
1A
100
AcDbEntity
  8
SEIHIN
  6
CONTINUOUS
 62
     3
100
AcDb2dPolyline
 66
     1
 10
0.0
 20
0.0
 30
0.0
  0
VERTEX
  5
9537
330
7C5D
100
AcDbEntity
  8
SEIHIN
  6
CONTINUOUS
 62
     3
100
AcDbVertex
100
AcDb2dVertex
 10
73.67816927338799
 20
93.16627445778692
 30
0.0
  0
VERTEX
  5
9538
330
7C5D
100
AcDbEntity
  8
SEIHIN
  6
CONTINUOUS
 62
     3
100
AcDbVertex
100
AcDb2dVertex
 10
73.8632943465559
 20
93.14564565235457
 30
0.0
  0
VERTEX
  5
9539
330
7C5D
100
AcDbEntity
  8
SEIHIN
  6
CONTINUOUS
 62
     3
100
AcDbVertex
100
AcDb2dVertex
 10
73.95100452573706
 20
93.09817070638279
 30
0.0
  0
VERTEX
  5
953A
330
7C5D
100
AcDbEntity
  8
SEIHIN
  6
CONTINUOUS
 62
     3
100
AcDbVertex
100
AcDb2dVertex
 10
73.93368257908014
 20
93.02872402466244
 30
0.0
  0
VERTEX
  5
953B
330
7C5D
100
AcDbEntity
  8
SEIHIN
  6
CONTINUOUS
 62
     3
100
AcDbVertex
100
AcDb2dVertex
 10
73.80765631581789
 20
92.94325314193963
 30
0.0
  0
VERTEX
  5
953C
330
7C5D
100
AcDbEntity
  8
SEIHIN
  6
CONTINUOUS
 62
     3
100
AcDbVertex
100
AcDb2dVertex
 10
73.5792504358692
 20
92.85096710138612
 30
0.0
  0
VERTEX
  5
953D
330
7C5D
100
AcDbEntity
  8
SEIHIN
  6
CONTINUOUS
 62
     3
100
AcDbVertex
100
AcDb2dVertex
 10
73.44341409183698
 20
92.80877308203423
 30
0.0
  0
SEQEND
  5
953E
330
7C5D
100
AcDbEntity
  8
SEIHIN
  6
CONTINUOUS
 62
     3
  0
LINE
  5
7C5E
330
1A
100
AcDbEntity
  8
SEIHIN
  6
CONTINUOUS
 62
     3
100
AcDbLine
 10
73.4434140918288
 20
92.80877308203423
 30
0.0
 11
73.23621197876537
 21
92.74913139330317
 31
0.0
  0
POLYLINE
  5
7C5F
330
1A
100
AcDbEntity
  8
SEIHIN
  6
CONTINUOUS
 62
     3
100
AcDb2dPolyline
 66
     1
 10
0.0
 20
0.0
 30
0.0
  0
VERTEX
  5
953F
330
7C5F
100
AcDbEntity
  8
SEIHIN
  6
CONTINUOUS
 62
     3
100
AcDbVertex
100
AcDb2dVertex
 10
73.67816927338799
 20
90.16627445778693
 30
0.0
  0
VERTEX
  5
9540
330
7C5F
100
AcDbEntity
  8
SEIHIN
  6
CONTINUOUS
 62
     3
100
AcDbVertex
100
AcDb2dVertex
 10
73.8632943465559
 20
90.14564565235458
 30
0.0
  0
VERTEX
  5
9541
330
7C5F
100
AcDbEntity
  8
SEIHIN
  6
CONTINUOUS
 62
     3
100
AcDbVertex
100
AcDb2dVertex
 10
73.95100452573706
 20
90.0981707063828
 30
0.0
  0
VERTEX
  5
9542
330
7C5F
100
AcDbEntity
  8
SEIHIN
  6
CONTINUOUS
 62
     3
100
AcDbVertex
100
AcDb2dVertex
 10
73.93368257908014
 20
90.02872402466243
 30
0.0
  0
VERTEX
  5
9543
330
7C5F
100
AcDbEntity
  8
SEIHIN
  6
CONTINUOUS
 62
     3
100
AcDbVertex
100
AcDb2dVertex
 10
73.80765631581789
 20
89.94325314193963
 30
0.0
  0
VERTEX
  5
9544
330
7C5F
100
AcDbEntity
  8
SEIHIN
  6
CONTINUOUS
 62
     3
100
AcDbVertex
100
AcDb2dVertex
 10
73.5792504358692
 20
89.85096710138611
 30
0.0
  0
VERTEX
  5
9545
330
7C5F
100
AcDbEntity
  8
SEIHIN
  6
CONTINUOUS
 62
     3
100
AcDbVertex
100
AcDb2dVertex
 10
73.44341409183698
 20
89.80877308203423
 30
0.0
  0
SEQEND
  5
9546
330
7C5F
100
AcDbEntity
  8
SEIHIN
  6
CONTINUOUS
 62
     3
  0
LINE
  5
7C60
330
1A
100
AcDbEntity
  8
SEIHIN
  6
CONTINUOUS
 62
     3
100
AcDbLine
 10
73.4434140918288
 20
89.80877308203423
 30
0.0
 11
73.23621197876537
 21
89.74913139330316
 31
0.0
  0
POLYLINE
  5
7C61
330
1A
100
AcDbEntity
  8
SEIHIN
  6
CONTINUOUS
 62
     3
100
AcDb2dPolyline
 66
     1
 10
0.0
 20
0.0
 30
0.0
  0
VERTEX
  5
9547
330
7C61
100
AcDbEntity
  8
SEIHIN
  6
CONTINUOUS
 62
     3
100
AcDbVertex
100
AcDb2dVertex
 10
73.67816927338708
 20
96.16627445778693
 30
0.0
  0
VERTEX
  5
9548
330
7C61
100
AcDbEntity
  8
SEIHIN
  6
CONTINUOUS
 62
     3
100
AcDbVertex
100
AcDb2dVertex
 10
73.8632943465559
 20
96.14564565235458
 30
0.0
  0
VERTEX
  5
9549
330
7C61
100
AcDbEntity
  8
SEIHIN
  6
CONTINUOUS
 62
     3
100
AcDbVertex
100
AcDb2dVertex
 10
73.95100452573706
 20
96.09817070638099
 30
0.0
  0
VERTEX
  5
954A
330
7C61
100
AcDbEntity
  8
SEIHIN
  6
CONTINUOUS
 62
     3
100
AcDbVertex
100
AcDb2dVertex
 10
73.93368257908014
 20
96.02872402466244
 30
0.0
  0
VERTEX
  5
954B
330
7C61
100
AcDbEntity
  8
SEIHIN
  6
CONTINUOUS
 62
     3
100
AcDbVertex
100
AcDb2dVertex
 10
73.80765631581789
 20
95.94325314193964
 30
0.0
  0
VERTEX
  5
954C
330
7C61
100
AcDbEntity
  8
SEIHIN
  6
CONTINUOUS
 62
     3
100
AcDbVertex
100
AcDb2dVertex
 10
73.5792504358692
 20
95.85096710138612
 30
0.0
  0
VERTEX
  5
954D
330
7C61
100
AcDbEntity
  8
SEIHIN
  6
CONTINUOUS
 62
     3
100
AcDbVertex
100
AcDb2dVertex
 10
73.44341409183698
 20
95.80877308203424
 30
0.0
  0
SEQEND
  5
954E
330
7C61
100
AcDbEntity
  8
SEIHIN
  6
CONTINUOUS
 62
     3
  0
LINE
  5
7C62
330
1A
100
AcDbEntity
  8
SEIHIN
  6
CONTINUOUS
 62
     3
100
AcDbLine
 10
73.4434140918288
 20
95.80877308203424
 30
0.0
 11
73.23621197876537
 21
95.74913139330318
 31
0.0
  0
POLYLINE
  5
7C63
330
1A
100
AcDbEntity
  8
SEIHIN
  6
CONTINUOUS
 62
     3
100
AcDb2dPolyline
 66
     1
 10
0.0
 20
0.0
 30
0.0
  0
VERTEX
  5
954F
330
7C63
100
AcDbEntity
  8
SEIHIN
  6
CONTINUOUS
 62
     3
100
AcDbVertex
100
AcDb2dVertex
 10
73.4434140918288
 20
94.58714983841572
 30
0.0
  0
VERTEX
  5
9550
330
7C63
100
AcDbEntity
  8
SEIHIN
  6
CONTINUOUS
 62
     3
100
AcDbVertex
100
AcDb2dVertex
 10
73.7127361852331
 20
94.49414107775272
 30
0.0
  0
VERTEX
  5
9551
330
7C63
100
AcDbEntity
  8
SEIHIN
  6
CONTINUOUS
 62
     3
100
AcDbVertex
100
AcDb2dVertex
 10
73.89145216924816
 20
94.40470022989108
 30
0.0
  0
VERTEX
  5
9552
330
7C63
100
AcDbEntity
  8
SEIHIN
  6
CONTINUOUS
 62
     3
100
AcDbVertex
100
AcDb2dVertex
 10
73.9570678698351
 20
94.33007153277765
 30
0.0
  0
VERTEX
  5
9553
330
7C63
100
AcDbEntity
  8
SEIHIN
  6
CONTINUOUS
 62
     3
100
AcDbVertex
100
AcDb2dVertex
 10
73.90277585981266
 20
94.28082735085524
 30
0.0
  0
VERTEX
  5
9554
330
7C63
100
AcDbEntity
  8
SEIHIN
  6
CONTINUOUS
 62
     3
100
AcDbVertex
100
AcDb2dVertex
 10
73.74308113109918
 20
94.26204301002952
 30
0.0
  0
VERTEX
  5
9555
330
7C63
100
AcDbEntity
  8
SEIHIN
  6
CONTINUOUS
 62
     3
100
AcDbVertex
100
AcDb2dVertex
 10
73.67816927338708
 20
94.26242688049468
 30
0.0
  0
SEQEND
  5
9556
330
7C63
100
AcDbEntity
  8
SEIHIN
  6
CONTINUOUS
 62
     3
  0
LINE
  5
7C64
330
1A
100
AcDbEntity
  8
SEIHIN
  6
CONTINUOUS
 62
     3
100
AcDbLine
 10
73.23621197876537
 20
94.64913139330281
 30
0.0
 11
73.4434140918288
 21
94.58714983841572
 31
0.0
  0
POLYLINE
  5
7C65
330
1A
100
AcDbEntity
  8
SEIHIN
  6
CONTINUOUS
 62
     3
100
AcDb2dPolyline
 66
     1
 10
0.0
 20
0.0
 30
0.0
  0
VERTEX
  5
9557
330
7C65
100
AcDbEntity
  8
SEIHIN
  6
CONTINUOUS
 62
     3
100
AcDbVertex
100
AcDb2dVertex
 10
73.4434140918288
 20
88.5871498384157
 30
0.0
  0
VERTEX
  5
9558
330
7C65
100
AcDbEntity
  8
SEIHIN
  6
CONTINUOUS
 62
     3
100
AcDbVertex
100
AcDb2dVertex
 10
73.7127361852331
 20
88.49414107775272
 30
0.0
  0
VERTEX
  5
9559
330
7C65
100
AcDbEntity
  8
SEIHIN
  6
CONTINUOUS
 62
     3
100
AcDbVertex
100
AcDb2dVertex
 10
73.89145216924816
 20
88.40470022989109
 30
0.0
  0
VERTEX
  5
955A
330
7C65
100
AcDbEntity
  8
SEIHIN
  6
CONTINUOUS
 62
     3
100
AcDbVertex
100
AcDb2dVertex
 10
73.9570678698351
 20
88.33007153277765
 30
0.0
  0
VERTEX
  5
955B
330
7C65
100
AcDbEntity
  8
SEIHIN
  6
CONTINUOUS
 62
     3
100
AcDbVertex
100
AcDb2dVertex
 10
73.90277585981266
 20
88.28082735085525
 30
0.0
  0
VERTEX
  5
955C
330
7C65
100
AcDbEntity
  8
SEIHIN
  6
CONTINUOUS
 62
     3
100
AcDbVertex
100
AcDb2dVertex
 10
73.74308113109918
 20
88.26204301002951
 30
0.0
  0
VERTEX
  5
955D
330
7C65
100
AcDbEntity
  8
SEIHIN
  6
CONTINUOUS
 62
     3
100
AcDbVertex
100
AcDb2dVertex
 10
73.67816927338799
 20
88.26242688049466
 30
0.0
  0
SEQEND
  5
955E
330
7C65
100
AcDbEntity
  8
SEIHIN
  6
CONTINUOUS
 62
     3
  0
LINE
  5
7C66
330
1A
100
AcDbEntity
  8
SEIHIN
  6
CONTINUOUS
 62
     3
100
AcDbLine
 10
73.23621197876537
 20
88.64913139330282
 30
0.0
 11
73.4434140918288
 21
88.5871498384157
 31
0.0
  0
POLYLINE
  5
7C67
330
1A
100
AcDbEntity
  8
SEIHIN
  6
CONTINUOUS
 62
     3
100
AcDb2dPolyline
 66
     1
 10
0.0
 20
0.0
 30
0.0
  0
VERTEX
  5
955F
330
7C67
100
AcDbEntity
  8
SEIHIN
  6
CONTINUOUS
 62
     3
100
AcDbVertex
100
AcDb2dVertex
 10
73.4434140918288
 20
91.58714983841571
 30
0.0
  0
VERTEX
  5
9560
330
7C67
100
AcDbEntity
  8
SEIHIN
  6
CONTINUOUS
 62
     3
100
AcDbVertex
100
AcDb2dVertex
 10
73.7127361852331
 20
91.49414107775271
 30
0.0
  0
VERTEX
  5
9561
330
7C67
100
AcDbEntity
  8
SEIHIN
  6
CONTINUOUS
 62
     3
100
AcDbVertex
100
AcDb2dVertex
 10
73.89145216924816
 20
91.40470022989109
 30
0.0
  0
VERTEX
  5
9562
330
7C67
100
AcDbEntity
  8
SEIHIN
  6
CONTINUOUS
 62
     3
100
AcDbVertex
100
AcDb2dVertex
 10
73.9570678698351
 20
91.33007153277764
 30
0.0
  0
VERTEX
  5
9563
330
7C67
100
AcDbEntity
  8
SEIHIN
  6
CONTINUOUS
 62
     3
100
AcDbVertex
100
AcDb2dVertex
 10
73.90277585981266
 20
91.28082735085525
 30
0.0
  0
VERTEX
  5
9564
330
7C67
100
AcDbEntity
  8
SEIHIN
  6
CONTINUOUS
 62
     3
100
AcDbVertex
100
AcDb2dVertex
 10
73.74308113109918
 20
91.26204301002951
 30
0.0
  0
VERTEX
  5
9565
330
7C67
100
AcDbEntity
  8
SEIHIN
  6
CONTINUOUS
 62
     3
100
AcDbVertex
100
AcDb2dVertex
 10
73.67816927338799
 20
91.26242688049467
 30
0.0
  0
SEQEND
  5
9566
330
7C67
100
AcDbEntity
  8
SEIHIN
  6
CONTINUOUS
 62
     3
  0
LINE
  5
7C68
330
1A
100
AcDbEntity
  8
SEIHIN
  6
CONTINUOUS
 62
     3
100
AcDbLine
 10
73.23621197876537
 20
91.6491313933028
 30
0.0
 11
73.4434140918288
 21
91.58714983841571
 31
0.0
  0
LINE
  5
7C69
330
1A
100
AcDbEntity
  8
SEIHIN
  6
CONTINUOUS
 62
     3
100
AcDbLine
 10
73.95716213587775
 20
93.07471891660032
 30
0.0
 11
73.95716213587775
 21
94.32812915272085
 31
0.0
  0
LINE
  5
7C6A
330
1A
100
AcDbEntity
  8
SEIHIN
  6
CONTINUOUS
 62
     3
100
AcDbLine
 10
73.95716213587775
 20
87.7125935878529
 30
0.0
 11
73.95716213587775
 21
88.32812915272086
 31
0.0
  0
LINE
  5
7C6B
330
1A
100
AcDbEntity
  8
SEIHIN
  6
CONTINUOUS
 62
     3
100
AcDbLine
 10
73.95716213587775
 20
90.07471891660031
 30
0.0
 11
73.95716213587775
 21
91.32812915272086
 31
0.0
  0
ARC
  5
7C6C
330
1A
100
AcDbEntity
  8
SEIHIN
  6
CONTINUOUS
 62
     3
100
AcDbCircle
 10
65.08512301214932
 20
107.2100691947933
 30
0.0
 40
0.5025289451369539
100
AcDbArc
 50
0.2878195931209628
 51
90.24387213723768
  0
LINE
  5
7C6D
330
1A
100
AcDbEntity
  8
ﾊｯﾁﾝｸ_
100
AcDbLine
 10
64.12725247910248
 20
107.7125935878419
 30
0.0
 11
62.1231295768107
 21
105.7084706855392
 31
0.0
  0
POLYLINE
  5
7C6E
330
1A
100
AcDbEntity
  8
SEIHIN
  6
CONTINUOUS
 62
     3
100
AcDb2dPolyline
 66
     1
 10
0.0
 20
0.0
 30
0.0
  0
VERTEX
  5
9567
330
7C6E
100
AcDbEntity
  8
SEIHIN
  6
CONTINUOUS
 62
     3
100
AcDbVertex
100
AcDb2dVertex
 10
70.76346109637189
 20
106.7125935878528
 30
0.0
  0
VERTEX
  5
9568
330
7C6E
100
AcDbEntity
  8
SEIHIN
  6
CONTINUOUS
 62
     3
100
AcDbVertex
100
AcDb2dVertex
 10
71.95902817566502
 20
106.6801670854737
 30
0.0
  0
VERTEX
  5
9569
330
7C6E
100
AcDbEntity
  8
SEIHIN
  6
CONTINUOUS
 62
     3
100
AcDbVertex
100
AcDb2dVertex
 10
73.23621197876537
 20
106.6491313933028
 30
0.0
  0
SEQEND
  5
956A
330
7C6E
100
AcDbEntity
  8
SEIHIN
  6
CONTINUOUS
 62
     3
  0
ARC
  5
7C6F
330
1A
100
AcDbEntity
  8
SEIHIN
  6
CONTINUOUS
 62
     3
100
AcDbCircle
 10
76.09162483694991
 20
240.8234770286243
 30
0.0
 40
134.5826919953853
100
AcDbArc
 50
266.3845065190893
 51
268.9724664558165
  0
ARC
  5
7C70
330
1A
100
AcDbEntity
  8
SEIHIN
  6
CONTINUOUS
 62
     3
100
AcDbCircle
 10
76.09162483696718
 20
236.7273246062931
 30
0.0
 40
134.5826919957615
100
AcDbArc
 50
266.3845065190893
 51
268.9724664558165
  0
ARC
  5
7C71
330
1A
100
AcDbEntity
  8
SEIHIN
  6
CONTINUOUS
 62
     3
100
AcDbCircle
 10
76.09162483696718
 20
233.7273246062821
 30
0.0
 40
134.582691995751
100
AcDbArc
 50
266.3845065190893
 51
268.9724664558165
  0
ARC
  5
7C72
330
1A
100
AcDbEntity
  8
SEIHIN
  6
CONTINUOUS
 62
     3
100
AcDbCircle
 10
76.09162483696718
 20
239.7273246062858
 30
0.0
 40
134.5826919957547
100
AcDbArc
 50
266.3845065190893
 51
268.9724664558165
  0
ARC
  5
7C73
330
1A
100
AcDbEntity
  8
SEIHIN
  6
CONTINUOUS
 62
     3
100
AcDbCircle
 10
76.09162483694991
 20
234.8234770285715
 30
0.0
 40
134.5826919953339
100
AcDbArc
 50
266.3845065190893
 51
268.9724664558165
  0
ARC
  5
7C74
330
1A
100
AcDbEntity
  8
SEIHIN
  6
CONTINUOUS
 62
     3
100
AcDbCircle
 10
76.09162483693899
 20
231.8234770283005
 30
0.0
 40
134.5826919950623
100
AcDbArc
 50
266.3845065190893
 51
268.9724664558687
  0
ARC
  5
7C75
330
1A
100
AcDbEntity
  8
SEIHIN
  6
CONTINUOUS
 62
     3
100
AcDbCircle
 10
76.09162483695991
 20
237.8234770288717
 30
0.0
 40
134.5826919956327
100
AcDbArc
 50
266.3845065190893
 51
268.9724664558165
  0
ARC
  5
7C76
330
1A
100
AcDbEntity
  8
SEIHIN
  6
CONTINUOUS
 62
     3
100
AcDbCircle
 10
75.3240816029479
 20
247.7799002466243
 30
0.0
 40
150.1452861599623
100
AcDbArc
 50
266.4176079545184
 51
269.2032385675811
  0
ARC
  5
7C77
330
1A
100
AcDbEntity
  8
SEIHIN
  6
CONTINUOUS
 62
     3
100
AcDbCircle
 10
75.32408160293517
 20
250.7799002463024
 30
0.0
 40
150.1452861596401
100
AcDbArc
 50
266.4176079545184
 51
269.2032385675811
  0
ARC
  5
7C78
330
1A
100
AcDbEntity
  8
SEIHIN
  6
CONTINUOUS
 62
     3
100
AcDbCircle
 10
75.32408160295699
 20
248.879900246923
 30
0.0
 40
150.1452861602605
100
AcDbArc
 50
266.4176079545184
 51
269.2032385675811
  0
ARC
  5
7C79
330
1A
100
AcDbEntity
  8
SEIHIN
  6
CONTINUOUS
 62
     3
100
AcDbCircle
 10
75.32408160293972
 20
253.7799002464042
 30
0.0
 40
150.1452861597416
100
AcDbArc
 50
266.4176079545184
 51
269.2032385675811
  0
ARC
  5
7C7A
330
1A
100
AcDbEntity
  8
SEIHIN
  6
CONTINUOUS
 62
     3
100
AcDbCircle
 10
75.32408160295791
 20
251.8799002469412
 30
0.0
 40
150.1452861602795
100
AcDbArc
 50
266.4176079545184
 51
269.2032385675811
  0
ARC
  5
7C7B
330
1A
100
AcDbEntity
  8
SEIHIN
  6
CONTINUOUS
 62
     3
100
AcDbCircle
 10
75.3240816029379
 20
254.879900246421
 30
0.0
 40
150.1452861597591
100
AcDbArc
 50
266.4176079545184
 51
269.2032385675811
  0
LINE
  5
7C7C
330
1A
100
AcDbEntity
  8
SEIHIN
  6
CONTINUOUS
 62
     3
100
AcDbLine
 10
72.66983301022219
 20
107.2125935878528
 30
0.0
 11
65.5876456167557
 21
107.2125935878528
 31
0.0
  0
LINE
  5
7C7D
330
1A
100
AcDbEntity
  8
SEIHIN
  6
CONTINUOUS
 62
     3
100
AcDbLine
 10
63.06599405092902
 20
97.61259358785252
 30
0.0
 11
63.06599405092902
 21
98.11259358785253
 31
0.0
  0
LINE
  5
7C7E
330
1A
100
AcDbEntity
  8
SEIHIN
  6
CONTINUOUS
 62
     3
100
AcDbLine
 10
66.14963475257309
 20
106.7125935878528
 30
0.0
 11
65.94243263950966
 21
106.7125935878528
 31
0.0
  0
LINE
  5
7C7F
330
1A
100
AcDbEntity
  8
SEIHIN
  6
CONTINUOUS
 62
     3
100
AcDbLine
 10
66.71844944092163
 20
106.7125935878528
 30
0.0
 11
66.14963475257309
 21
106.7125935878528
 31
0.0
  0
LINE
  5
7C80
330
1A
100
AcDbEntity
  8
SEIHIN
  6
CONTINUOUS
 62
     3
100
AcDbLine
 10
67.60478700004615
 20
105.4124908448801
 30
0.0
 11
67.60478700004615
 21
106.5086432675879
 31
0.0
  0
LINE
  5
7C81
330
1A
100
AcDbEntity
  8
SEIHIN
  6
CONTINUOUS
 62
     3
100
AcDbLine
 10
67.60478700004615
 20
102.4124908448801
 30
0.0
 11
67.60478700004615
 21
103.5086432675879
 31
0.0
  0
LINE
  5
7C82
330
1A
100
AcDbEntity
  8
SEIHIN
  6
CONTINUOUS
 62
     3
100
AcDbLine
 10
67.60478700004615
 20
99.41249084488015
 30
0.0
 11
67.60478700004615
 21
100.5086432675879
 31
0.0
  0
ARC
  5
7C83
330
1A
100
AcDbEntity
  8
SEIHIN
  6
CONTINUOUS
 62
     3
100
AcDbCircle
 10
69.22142285624113
 20
115.5622210079462
 30
0.0
 40
9.19678103426704
100
AcDbArc
 50
254.2073057915086
 51
259.8757849720068
  0
ARC
  5
7C84
330
1A
100
AcDbEntity
  8
SEIHIN
  6
CONTINUOUS
 62
     3
100
AcDbCircle
 10
68.29930183970873
 20
95.83174497599873
 30
0.0
 40
6.617293030637592
100
AcDbArc
 50
96.02454649579485
 51
108.9568486648244
  0
LINE
  5
7C85
330
1A
100
AcDbEntity
  8
SEIHIN
  6
CONTINUOUS
 62
     3
100
AcDbLine
 10
65.94243263950875
 20
102.0280012970823
 30
0.0
 11
66.14963475257218
 21
102.0901392163622
 31
0.0
  0
ARC
  5
7C86
330
1A
100
AcDbEntity
  8
SEIHIN
  6
CONTINUOUS
 62
     3
100
AcDbCircle
 10
68.29930183970327
 20
92.83174497602237
 30
0.0
 40
6.617293030612776
100
AcDbArc
 50
96.02454649574246
 51
108.9568486648244
  0
LINE
  5
7C87
330
1A
100
AcDbEntity
  8
SEIHIN
  6
CONTINUOUS
 62
     3
100
AcDbLine
 10
65.94243263950966
 20
99.02800129708237
 30
0.0
 11
66.14963475257218
 21
99.09013921636223
 31
0.0
  0
ARC
  5
7C88
330
1A
100
AcDbEntity
  8
SEIHIN
  6
CONTINUOUS
 62
     3
100
AcDbCircle
 10
68.29930183970873
 20
98.83174497599691
 30
0.0
 40
6.617293030639109
100
AcDbArc
 50
96.02454649579485
 51
108.9568486648244
  0
LINE
  5
7C89
330
1A
100
AcDbEntity
  8
SEIHIN
  6
CONTINUOUS
 62
     3
100
AcDbLine
 10
65.94243263950966
 20
105.0280012970823
 30
0.0
 11
66.14963475257218
 21
105.0901392163622
 31
0.0
  0
LINE
  5
7C8A
330
1A
100
AcDbEntity
  8
SEIHIN
  6
CONTINUOUS
 62
     3
100
AcDbLine
 10
66.14963475257309
 20
100.8685159727436
 30
0.0
 11
65.94243263950966
 21
100.928001297082
 31
0.0
  0
ARC
  5
7C8B
330
1A
100
AcDbEntity
  8
SEIHIN
  6
CONTINUOUS
 62
     3
100
AcDbCircle
 10
70.43553373899567
 20
115.0767269753167
 30
0.0
 40
14.8405589522601
100
AcDbArc
 50
253.2140921203096
 51
259.0037969318081
  0
LINE
  5
7C8C
330
1A
100
AcDbEntity
  8
SEIHIN
  6
CONTINUOUS
 62
     3
100
AcDbLine
 10
66.14963475257309
 20
97.8685159727437
 30
0.0
 11
65.94243263950966
 21
97.92800129708201
 31
0.0
  0
ARC
  5
7C8D
330
1A
100
AcDbEntity
  8
SEIHIN
  6
CONTINUOUS
 62
     3
100
AcDbCircle
 10
70.43553373895929
 20
112.0767269751694
 30
0.0
 40
14.84055895210752
100
AcDbArc
 50
253.214092120255
 51
259.0037969318081
  0
LINE
  5
7C8E
330
1A
100
AcDbEntity
  8
SEIHIN
  6
CONTINUOUS
 62
     3
100
AcDbLine
 10
66.14963475257309
 20
103.8685159727436
 30
0.0
 11
65.94243263950875
 21
103.928001297082
 31
0.0
  0
ARC
  5
7C8F
330
1A
100
AcDbEntity
  8
SEIHIN
  6
CONTINUOUS
 62
     3
100
AcDbCircle
 10
70.4355337389893
 20
118.0767269752894
 30
0.0
 40
14.84055895223187
100
AcDbArc
 50
253.214092120255
 51
259.0037969318081
  0
LINE
  5
7C90
330
1A
100
AcDbEntity
  8
SEIHIN
  6
CONTINUOUS
 62
     3
100
AcDbLine
 10
63.06599405092811
 20
97.31259358785326
 30
0.0
 11
63.06599405092811
 21
104.7125935878528
 31
0.0
  0
LINE
  5
7C91
330
1A
100
AcDbEntity
  8
SEIHIN
  6
CONTINUOUS
 62
     3
100
AcDbLine
 10
65.94243263950875
 20
99.02800129708237
 30
0.0
 11
65.94243263950875
 21
100.928001297082
 31
0.0
  0
LINE
  5
7C92
330
1A
100
AcDbEntity
  8
SEIHIN
  6
CONTINUOUS
 62
     3
100
AcDbLine
 10
65.94243263950875
 20
102.0280012970823
 30
0.0
 11
65.94243263950875
 21
103.928001297082
 31
0.0
  0
LINE
  5
7C93
330
1A
100
AcDbEntity
  8
SEIHIN
  6
CONTINUOUS
 62
     3
100
AcDbLine
 10
65.94243263950875
 20
105.0280012970823
 30
0.0
 11
65.94243263950966
 21
106.7125935878528
 31
0.0
  0
LINE
  5
7C94
330
1A
100
AcDbEntity
  8
ﾊｯﾁﾝｸ_
100
AcDbLine
 10
65.5876456167557
 20
100.1927306044134
 30
0.0
 11
63.06599405092811
 21
97.67107903858676
 31
0.0
  0
LINE
  5
7C95
330
1A
100
AcDbEntity
  8
ﾊｯﾁﾝｸ_
100
AcDbLine
 10
65.5876456167557
 20
104.6828586649488
 30
0.0
 11
63.06599405092811
 21
102.1612070991221
 31
0.0
  0
LINE
  5
7C96
330
1A
100
AcDbEntity
  8
SEIHIN
  6
CONTINUOUS
 62
     3
100
AcDbLine
 10
63.06599405092902
 20
97.67107903858676
 30
0.0
 11
63.0075086001948
 21
97.61259358785252
 31
0.0
  0
LINE
  5
7C97
330
1A
100
AcDbEntity
  8
SEIHIN
  6
CONTINUOUS
 62
     3
100
AcDbLine
 10
70.76346109637189
 20
106.7125935878528
 30
0.0
 11
66.71844944092163
 21
106.7125935878528
 31
0.0
  0
LINE
  5
7C98
330
1A
100
AcDbEntity
  8
SEIHIN
  6
CONTINUOUS
 62
     3
100
AcDbLine
 10
61.55475506143239
 20
99.61259358785254
 30
0.0
 11
62.29546904580502
 21
99.61259358785254
 31
0.0
  0
LINE
  5
7C99
330
1A
100
AcDbEntity
  8
SEIHIN
  6
CONTINUOUS
 62
     3
100
AcDbLine
 10
62.05837298283086
 20
96.81259358785325
 30
0.0
 11
62.05837298283086
 21
97.31259358785326
 31
0.0
  0
POLYLINE
  5
7C9A
330
1A
100
AcDbEntity
  8
SEIHIN
  6
CONTINUOUS
 62
     3
100
AcDb2dPolyline
 66
     1
 10
0.0
 20
0.0
 30
0.0
  0
VERTEX
  5
956B
330
7C9A
100
AcDbEntity
  8
SEIHIN
  6
CONTINUOUS
 62
     3
100
AcDbVertex
100
AcDb2dVertex
 10
62.29546904580502
 20
99.61259358785254
 30
0.0
  0
VERTEX
  5
956C
330
7C9A
100
AcDbEntity
  8
SEIHIN
  6
CONTINUOUS
 62
     3
100
AcDbVertex
100
AcDb2dVertex
 10
62.82231232401546
 20
99.52329692026331
 30
0.0
  0
VERTEX
  5
956D
330
7C9A
100
AcDbEntity
  8
SEIHIN
  6
CONTINUOUS
 62
     3
100
AcDbVertex
100
AcDb2dVertex
 10
63.06599405092811
 20
99.38801395380949
 30
0.0
  0
SEQEND
  5
956E
330
7C9A
100
AcDbEntity
  8
SEIHIN
  6
CONTINUOUS
 62
     3
  0
ARC
  5
7C9B
330
1A
100
AcDbEntity
  8
SEIHIN
  6
CONTINUOUS
 62
     3
100
AcDbCircle
 10
61.55998782294455
 20
98.10658446220884
 30
0.0
 40
1.506018216462704
100
AcDbArc
 50
0.2286150644164246
 51
90.19907843734124
  0
LINE
  5
7C9C
330
1A
100
AcDbEntity
  8
SEIHIN
  6
CONTINUOUS
 62
     3
100
AcDbLine
 10
62.05837298283086
 20
97.31259358785326
 30
0.0
 11
63.06599405092811
 21
97.31259358785326
 31
0.0
  0
ARC
  5
7C9D
330
1A
100
AcDbEntity
  8
SEIHIN
  6
CONTINUOUS
 62
     3
100
AcDbCircle
 10
62.06203582822263
 20
104.7086342396022
 30
0.0
 40
1.003966029991424
100
AcDbArc
 50
0.2259583747290082
 51
90.20903700053153
  0
ARC
  5
7C9E
330
1A
100
AcDbEntity
  8
SEIHIN
  6
CONTINUOUS
 62
     3
100
AcDbCircle
 10
62.59008123714625
 20
96.80194045961878
 30
0.0
 40
0.8107980820650332
100
AcDbArc
 50
88.91656567124401
 51
179.2471653997743
  0
POLYLINE
  5
7C9F
330
1A
100
AcDbEntity
  8
SEIHIN
  6
CONTINUOUS
 62
     3
100
AcDb2dPolyline
 66
     1
 10
0.0
 20
0.0
 30
0.0
  0
VERTEX
  5
956F
330
7C9F
100
AcDbEntity
  8
SEIHIN
  6
CONTINUOUS
 62
     3
100
AcDbVertex
100
AcDb2dVertex
 10
73.4434140918288
 20
106.5871498384157
 30
0.0
  0
VERTEX
  5
9570
330
7C9F
100
AcDbEntity
  8
SEIHIN
  6
CONTINUOUS
 62
     3
100
AcDbVertex
100
AcDb2dVertex
 10
73.7127361852331
 20
106.4941410777527
 30
0.0
  0
VERTEX
  5
9571
330
7C9F
100
AcDbEntity
  8
SEIHIN
  6
CONTINUOUS
 62
     3
100
AcDbVertex
100
AcDb2dVertex
 10
73.89145216924816
 20
106.4047002298911
 30
0.0
  0
VERTEX
  5
9572
330
7C9F
100
AcDbEntity
  8
SEIHIN
  6
CONTINUOUS
 62
     3
100
AcDbVertex
100
AcDb2dVertex
 10
73.9570678698351
 20
106.3300715327758
 30
0.0
  0
VERTEX
  5
9573
330
7C9F
100
AcDbEntity
  8
SEIHIN
  6
CONTINUOUS
 62
     3
100
AcDbVertex
100
AcDb2dVertex
 10
73.90277585981266
 20
106.2808273508552
 30
0.0
  0
VERTEX
  5
9574
330
7C9F
100
AcDbEntity
  8
SEIHIN
  6
CONTINUOUS
 62
     3
100
AcDbVertex
100
AcDb2dVertex
 10
73.74308113109918
 20
106.2620430100295
 30
0.0
  0
VERTEX
  5
9575
330
7C9F
100
AcDbEntity
  8
SEIHIN
  6
CONTINUOUS
 62
     3
100
AcDbVertex
100
AcDb2dVertex
 10
73.67816927338708
 20
106.2624268804946
 30
0.0
  0
SEQEND
  5
9576
330
7C9F
100
AcDbEntity
  8
SEIHIN
  6
CONTINUOUS
 62
     3
  0
LINE
  5
7CA0
330
1A
100
AcDbEntity
  8
SEIHIN
  6
CONTINUOUS
 62
     3
100
AcDbLine
 10
73.23621197876537
 20
106.6491313933028
 30
0.0
 11
73.4434140918288
 21
106.5871498384157
 31
0.0
  0
POLYLINE
  5
7CA1
330
1A
100
AcDbEntity
  8
SEIHIN
  6
CONTINUOUS
 62
     3
100
AcDb2dPolyline
 66
     1
 10
0.0
 20
0.0
 30
0.0
  0
VERTEX
  5
9577
330
7CA1
100
AcDbEntity
  8
SEIHIN
  6
CONTINUOUS
 62
     3
100
AcDbVertex
100
AcDb2dVertex
 10
73.67816927338708
 20
102.1662744577869
 30
0.0
  0
VERTEX
  5
9578
330
7CA1
100
AcDbEntity
  8
SEIHIN
  6
CONTINUOUS
 62
     3
100
AcDbVertex
100
AcDb2dVertex
 10
73.8632943465559
 20
102.1456456523545
 30
0.0
  0
VERTEX
  5
9579
330
7CA1
100
AcDbEntity
  8
SEIHIN
  6
CONTINUOUS
 62
     3
100
AcDbVertex
100
AcDb2dVertex
 10
73.95100452573706
 20
102.0981707063809
 30
0.0
  0
VERTEX
  5
957A
330
7CA1
100
AcDbEntity
  8
SEIHIN
  6
CONTINUOUS
 62
     3
100
AcDbVertex
100
AcDb2dVertex
 10
73.93368257908014
 20
102.0287240246624
 30
0.0
  0
VERTEX
  5
957B
330
7CA1
100
AcDbEntity
  8
SEIHIN
  6
CONTINUOUS
 62
     3
100
AcDbVertex
100
AcDb2dVertex
 10
73.80765631581789
 20
101.9432531419396
 30
0.0
  0
VERTEX
  5
957C
330
7CA1
100
AcDbEntity
  8
SEIHIN
  6
CONTINUOUS
 62
     3
100
AcDbVertex
100
AcDb2dVertex
 10
73.5792504358692
 20
101.8509671013861
 30
0.0
  0
VERTEX
  5
957D
330
7CA1
100
AcDbEntity
  8
SEIHIN
  6
CONTINUOUS
 62
     3
100
AcDbVertex
100
AcDb2dVertex
 10
73.44341409183698
 20
101.8087730820342
 30
0.0
  0
SEQEND
  5
957E
330
7CA1
100
AcDbEntity
  8
SEIHIN
  6
CONTINUOUS
 62
     3
  0
LINE
  5
7CA2
330
1A
100
AcDbEntity
  8
SEIHIN
  6
CONTINUOUS
 62
     3
100
AcDbLine
 10
73.4434140918288
 20
101.8087730820342
 30
0.0
 11
73.23621197876537
 21
101.7491313933031
 31
0.0
  0
POLYLINE
  5
7CA3
330
1A
100
AcDbEntity
  8
SEIHIN
  6
CONTINUOUS
 62
     3
100
AcDb2dPolyline
 66
     1
 10
0.0
 20
0.0
 30
0.0
  0
VERTEX
  5
957F
330
7CA3
100
AcDbEntity
  8
SEIHIN
  6
CONTINUOUS
 62
     3
100
AcDbVertex
100
AcDb2dVertex
 10
73.67816927338708
 20
99.16627445778694
 30
0.0
  0
VERTEX
  5
9580
330
7CA3
100
AcDbEntity
  8
SEIHIN
  6
CONTINUOUS
 62
     3
100
AcDbVertex
100
AcDb2dVertex
 10
73.8632943465559
 20
99.14564565235458
 30
0.0
  0
VERTEX
  5
9581
330
7CA3
100
AcDbEntity
  8
SEIHIN
  6
CONTINUOUS
 62
     3
100
AcDbVertex
100
AcDb2dVertex
 10
73.95100452573706
 20
99.09817070638098
 30
0.0
  0
VERTEX
  5
9582
330
7CA3
100
AcDbEntity
  8
SEIHIN
  6
CONTINUOUS
 62
     3
100
AcDbVertex
100
AcDb2dVertex
 10
73.93368257908014
 20
99.02872402466243
 30
0.0
  0
VERTEX
  5
9583
330
7CA3
100
AcDbEntity
  8
SEIHIN
  6
CONTINUOUS
 62
     3
100
AcDbVertex
100
AcDb2dVertex
 10
73.80765631581789
 20
98.94325314193963
 30
0.0
  0
VERTEX
  5
9584
330
7CA3
100
AcDbEntity
  8
SEIHIN
  6
CONTINUOUS
 62
     3
100
AcDbVertex
100
AcDb2dVertex
 10
73.5792504358692
 20
98.85096710138611
 30
0.0
  0
VERTEX
  5
9585
330
7CA3
100
AcDbEntity
  8
SEIHIN
  6
CONTINUOUS
 62
     3
100
AcDbVertex
100
AcDb2dVertex
 10
73.44341409183698
 20
98.80877308203423
 30
0.0
  0
SEQEND
  5
9586
330
7CA3
100
AcDbEntity
  8
SEIHIN
  6
CONTINUOUS
 62
     3
  0
LINE
  5
7CA4
330
1A
100
AcDbEntity
  8
SEIHIN
  6
CONTINUOUS
 62
     3
100
AcDbLine
 10
73.4434140918288
 20
98.80877308203423
 30
0.0
 11
73.23621197876537
 21
98.74913139330317
 31
0.0
  0
POLYLINE
  5
7CA5
330
1A
100
AcDbEntity
  8
SEIHIN
  6
CONTINUOUS
 62
     3
100
AcDb2dPolyline
 66
     1
 10
0.0
 20
0.0
 30
0.0
  0
VERTEX
  5
9587
330
7CA5
100
AcDbEntity
  8
SEIHIN
  6
CONTINUOUS
 62
     3
100
AcDbVertex
100
AcDb2dVertex
 10
73.67816927338708
 20
105.1662744577869
 30
0.0
  0
VERTEX
  5
9588
330
7CA5
100
AcDbEntity
  8
SEIHIN
  6
CONTINUOUS
 62
     3
100
AcDbVertex
100
AcDb2dVertex
 10
73.86329434655682
 20
105.1456456523545
 30
0.0
  0
VERTEX
  5
9589
330
7CA5
100
AcDbEntity
  8
SEIHIN
  6
CONTINUOUS
 62
     3
100
AcDbVertex
100
AcDb2dVertex
 10
73.95100452573797
 20
105.0981707063809
 30
0.0
  0
VERTEX
  5
958A
330
7CA5
100
AcDbEntity
  8
SEIHIN
  6
CONTINUOUS
 62
     3
100
AcDbVertex
100
AcDb2dVertex
 10
73.93368257908014
 20
105.0287240246624
 30
0.0
  0
VERTEX
  5
958B
330
7CA5
100
AcDbEntity
  8
SEIHIN
  6
CONTINUOUS
 62
     3
100
AcDbVertex
100
AcDb2dVertex
 10
73.80765631581789
 20
104.9432531419396
 30
0.0
  0
VERTEX
  5
958C
330
7CA5
100
AcDbEntity
  8
SEIHIN
  6
CONTINUOUS
 62
     3
100
AcDbVertex
100
AcDb2dVertex
 10
73.5792504358692
 20
104.8509671013861
 30
0.0
  0
VERTEX
  5
958D
330
7CA5
100
AcDbEntity
  8
SEIHIN
  6
CONTINUOUS
 62
     3
100
AcDbVertex
100
AcDb2dVertex
 10
73.44341409183698
 20
104.8087730820342
 30
0.0
  0
SEQEND
  5
958E
330
7CA5
100
AcDbEntity
  8
SEIHIN
  6
CONTINUOUS
 62
     3
  0
LINE
  5
7CA6
330
1A
100
AcDbEntity
  8
SEIHIN
  6
CONTINUOUS
 62
     3
100
AcDbLine
 10
73.4434140918288
 20
104.8087730820342
 30
0.0
 11
73.23621197876537
 21
104.7491313933031
 31
0.0
  0
POLYLINE
  5
7CA7
330
1A
100
AcDbEntity
  8
SEIHIN
  6
CONTINUOUS
 62
     3
100
AcDb2dPolyline
 66
     1
 10
0.0
 20
0.0
 30
0.0
  0
VERTEX
  5
958F
330
7CA7
100
AcDbEntity
  8
SEIHIN
  6
CONTINUOUS
 62
     3
100
AcDbVertex
100
AcDb2dVertex
 10
73.4434140918288
 20
100.5871498384157
 30
0.0
  0
VERTEX
  5
9590
330
7CA7
100
AcDbEntity
  8
SEIHIN
  6
CONTINUOUS
 62
     3
100
AcDbVertex
100
AcDb2dVertex
 10
73.7127361852331
 20
100.4941410777527
 30
0.0
  0
VERTEX
  5
9591
330
7CA7
100
AcDbEntity
  8
SEIHIN
  6
CONTINUOUS
 62
     3
100
AcDbVertex
100
AcDb2dVertex
 10
73.89145216924816
 20
100.404700229891
 30
0.0
  0
VERTEX
  5
9592
330
7CA7
100
AcDbEntity
  8
SEIHIN
  6
CONTINUOUS
 62
     3
100
AcDbVertex
100
AcDb2dVertex
 10
73.9570678698351
 20
100.3300715327776
 30
0.0
  0
VERTEX
  5
9593
330
7CA7
100
AcDbEntity
  8
SEIHIN
  6
CONTINUOUS
 62
     3
100
AcDbVertex
100
AcDb2dVertex
 10
73.90277585981266
 20
100.2808273508552
 30
0.0
  0
VERTEX
  5
9594
330
7CA7
100
AcDbEntity
  8
SEIHIN
  6
CONTINUOUS
 62
     3
100
AcDbVertex
100
AcDb2dVertex
 10
73.74308113109918
 20
100.2620430100295
 30
0.0
  0
VERTEX
  5
9595
330
7CA7
100
AcDbEntity
  8
SEIHIN
  6
CONTINUOUS
 62
     3
100
AcDbVertex
100
AcDb2dVertex
 10
73.67816927338708
 20
100.2624268804946
 30
0.0
  0
SEQEND
  5
9596
330
7CA7
100
AcDbEntity
  8
SEIHIN
  6
CONTINUOUS
 62
     3
  0
LINE
  5
7CA8
330
1A
100
AcDbEntity
  8
SEIHIN
  6
CONTINUOUS
 62
     3
100
AcDbLine
 10
73.23621197876537
 20
100.6491313933028
 30
0.0
 11
73.4434140918288
 21
100.5871498384157
 31
0.0
  0
POLYLINE
  5
7CA9
330
1A
100
AcDbEntity
  8
SEIHIN
  6
CONTINUOUS
 62
     3
100
AcDb2dPolyline
 66
     1
 10
0.0
 20
0.0
 30
0.0
  0
VERTEX
  5
9597
330
7CA9
100
AcDbEntity
  8
SEIHIN
  6
CONTINUOUS
 62
     3
100
AcDbVertex
100
AcDb2dVertex
 10
73.4434140918288
 20
97.58714983841571
 30
0.0
  0
VERTEX
  5
9598
330
7CA9
100
AcDbEntity
  8
SEIHIN
  6
CONTINUOUS
 62
     3
100
AcDbVertex
100
AcDb2dVertex
 10
73.7127361852331
 20
97.49414107775272
 30
0.0
  0
VERTEX
  5
9599
330
7CA9
100
AcDbEntity
  8
SEIHIN
  6
CONTINUOUS
 62
     3
100
AcDbVertex
100
AcDb2dVertex
 10
73.89145216924816
 20
97.40470022989109
 30
0.0
  0
VERTEX
  5
959A
330
7CA9
100
AcDbEntity
  8
SEIHIN
  6
CONTINUOUS
 62
     3
100
AcDbVertex
100
AcDb2dVertex
 10
73.9570678698351
 20
97.33007153277766
 30
0.0
  0
VERTEX
  5
959B
330
7CA9
100
AcDbEntity
  8
SEIHIN
  6
CONTINUOUS
 62
     3
100
AcDbVertex
100
AcDb2dVertex
 10
73.90277585981266
 20
97.28082735085525
 30
0.0
  0
VERTEX
  5
959C
330
7CA9
100
AcDbEntity
  8
SEIHIN
  6
CONTINUOUS
 62
     3
100
AcDbVertex
100
AcDb2dVertex
 10
73.74308113109918
 20
97.26204301002951
 30
0.0
  0
VERTEX
  5
959D
330
7CA9
100
AcDbEntity
  8
SEIHIN
  6
CONTINUOUS
 62
     3
100
AcDbVertex
100
AcDb2dVertex
 10
73.67816927338708
 20
97.26242688049467
 30
0.0
  0
SEQEND
  5
959E
330
7CA9
100
AcDbEntity
  8
SEIHIN
  6
CONTINUOUS
 62
     3
  0
LINE
  5
7CAA
330
1A
100
AcDbEntity
  8
SEIHIN
  6
CONTINUOUS
 62
     3
100
AcDbLine
 10
73.23621197876537
 20
97.64913139330282
 30
0.0
 11
73.4434140918288
 21
97.58714983841571
 31
0.0
  0
POLYLINE
  5
7CAB
330
1A
100
AcDbEntity
  8
SEIHIN
  6
CONTINUOUS
 62
     3
100
AcDb2dPolyline
 66
     1
 10
0.0
 20
0.0
 30
0.0
  0
VERTEX
  5
959F
330
7CAB
100
AcDbEntity
  8
SEIHIN
  6
CONTINUOUS
 62
     3
100
AcDbVertex
100
AcDb2dVertex
 10
73.4434140918288
 20
103.5871498384157
 30
0.0
  0
VERTEX
  5
95A0
330
7CAB
100
AcDbEntity
  8
SEIHIN
  6
CONTINUOUS
 62
     3
100
AcDbVertex
100
AcDb2dVertex
 10
73.7127361852331
 20
103.4941410777527
 30
0.0
  0
VERTEX
  5
95A1
330
7CAB
100
AcDbEntity
  8
SEIHIN
  6
CONTINUOUS
 62
     3
100
AcDbVertex
100
AcDb2dVertex
 10
73.89145216924816
 20
103.404700229891
 30
0.0
  0
VERTEX
  5
95A2
330
7CAB
100
AcDbEntity
  8
SEIHIN
  6
CONTINUOUS
 62
     3
100
AcDbVertex
100
AcDb2dVertex
 10
73.9570678698351
 20
103.3300715327776
 30
0.0
  0
VERTEX
  5
95A3
330
7CAB
100
AcDbEntity
  8
SEIHIN
  6
CONTINUOUS
 62
     3
100
AcDbVertex
100
AcDb2dVertex
 10
73.90277585981266
 20
103.2808273508552
 30
0.0
  0
VERTEX
  5
95A4
330
7CAB
100
AcDbEntity
  8
SEIHIN
  6
CONTINUOUS
 62
     3
100
AcDbVertex
100
AcDb2dVertex
 10
73.74308113109918
 20
103.2620430100295
 30
0.0
  0
VERTEX
  5
95A5
330
7CAB
100
AcDbEntity
  8
SEIHIN
  6
CONTINUOUS
 62
     3
100
AcDbVertex
100
AcDb2dVertex
 10
73.67816927338708
 20
103.2624268804946
 30
0.0
  0
SEQEND
  5
95A6
330
7CAB
100
AcDbEntity
  8
SEIHIN
  6
CONTINUOUS
 62
     3
  0
LINE
  5
7CAC
330
1A
100
AcDbEntity
  8
SEIHIN
  6
CONTINUOUS
 62
     3
100
AcDbLine
 10
73.23621197876537
 20
103.6491313933028
 30
0.0
 11
73.4434140918288
 21
103.5871498384157
 31
0.0
  0
LINE
  5
7CAD
330
1A
100
AcDbEntity
  8
SEIHIN
  6
CONTINUOUS
 62
     3
100
AcDbLine
 10
72.66983301022219
 20
107.2125935878528
 30
0.0
 11
73.23621197876537
 21
107.1991313933039
 31
0.0
  0
LINE
  5
7CAE
330
1A
100
AcDbEntity
  8
SEIHIN
  6
CONTINUOUS
 62
     3
100
AcDbLine
 10
73.95716213587775
 20
105.0747189166003
 30
0.0
 11
73.95716213587775
 21
106.3281291527208
 31
0.0
  0
LINE
  5
7CAF
330
1A
100
AcDbEntity
  8
SEIHIN
  6
CONTINUOUS
 62
     3
100
AcDbLine
 10
73.95716213587775
 20
102.0747189166003
 30
0.0
 11
73.95716213587775
 21
103.3281291527208
 31
0.0
  0
LINE
  5
7CB0
330
1A
100
AcDbEntity
  8
SEIHIN
  6
CONTINUOUS
 62
     3
100
AcDbLine
 10
73.95716213587775
 20
99.07471891660032
 30
0.0
 11
73.95716213587775
 21
100.3281291527208
 31
0.0
  0
TEXT
  5
7CB9
330
1A
100
AcDbEntity
  8
MOJI
100
AcDbText
 10
113.9963665365447
 20
9.814920881117757
 30
0.0
 40
2.799999999999999
  1
ポーチドレン
 41
0.9
  7
ｽﾀｲﾙ1
100
AcDbText
  0
LINE
  5
7CC8
330
1A
100
AcDbEntity
  8
SEIHIN
  6
CONTINUOUS
 62
     3
100
AcDbLine
 10
215.6553443417177
 20
104.3993050024918
 30
0.0
 11
167.6553443417177
 21
104.3993050024918
 31
0.0
  0
POLYLINE
  5
7CC9
330
1A
100
AcDbEntity
  8
SEIHIN
  6
CONTINUOUS
 62
     3
100
AcDb2dPolyline
 66
     1
 10
0.0
 20
0.0
 30
0.0
  0
VERTEX
  5
95A7
330
7CC9
100
AcDbEntity
  8
SEIHIN
  6
CONTINUOUS
 62
     3
100
AcDbVertex
100
AcDb2dVertex
 10
125.9693267037732
 20
79.34201108416607
 30
0.0
  0
VERTEX
  5
95A8
330
7CC9
100
AcDbEntity
  8
SEIHIN
  6
CONTINUOUS
 62
     3
100
AcDbVertex
100
AcDb2dVertex
 10
125.4226491118747
 20
73.23011385266079
 30
0.0
  0
VERTEX
  5
95A9
330
7CC9
100
AcDbEntity
  8
SEIHIN
  6
CONTINUOUS
 62
     3
100
AcDbVertex
100
AcDb2dVertex
 10
124.5012541525507
 20
67.21259358785289
 30
0.0
  0
SEQEND
  5
95AA
330
7CC9
100
AcDbEntity
  8
SEIHIN
  6
CONTINUOUS
 62
     3
  0
ARC
  5
7CCA
330
1A
100
AcDbEntity
  8
SEIHIN
  6
CONTINUOUS
 62
     3
100
AcDbCircle
 10
28.64543306366476
 20
84.96364626355068
 30
0.0
 40
99.4960474675463
100
AcDbArc
 50
348.5501043720357
 51
356.69479377178
  0
ARC
  5
7CCB
330
1A
100
AcDbEntity
  8
SEIHIN
  6
CONTINUOUS
 62
     3
100
AcDbCircle
 10
28.89286327269156
 20
83.89703410058871
 30
0.0
 40
101.3433822053297
100
AcDbArc
 50
348.7999571090451
 51
356.7398528883828
  0
ARC
  5
7CCC
330
1A
100
AcDbEntity
  8
SEIHIN
  6
CONTINUOUS
 62
     3
100
AcDbCircle
 10
28.9202234946556
 20
83.89702384225973
 30
0.0
 40
99.50813535579731
100
AcDbArc
 50
349.1774519996965
 51
356.7384614919237
  0
LINE
  5
7CCD
330
1A
100
AcDbEntity
  8
ﾊｯﾁﾝｸ_
100
AcDbLine
 10
127.8179060501293
 20
77.11055788763122
 30
0.0
 11
125.5685406594025
 21
74.86119249690353
 31
0.0
  0
POLYLINE
  5
7CCE
330
1A
100
AcDbEntity
  8
SEIHIN
  6
CONTINUOUS
 62
     3
100
AcDb2dPolyline
 66
     1
 10
0.0
 20
0.0
 30
0.0
  0
VERTEX
  5
95AB
330
7CCE
100
AcDbEntity
  8
SEIHIN
  6
CONTINUOUS
 62
     3
100
AcDbVertex
100
AcDb2dVertex
 10
125.1758257435733
 20
79.37070702286553
 30
0.0
  0
VERTEX
  5
95AC
330
7CCE
100
AcDbEntity
  8
SEIHIN
  6
CONTINUOUS
 62
     3
100
AcDbVertex
100
AcDb2dVertex
 10
124.6258921494875
 20
73.2802501821742
 30
0.0
  0
VERTEX
  5
95AD
330
7CCE
100
AcDbEntity
  8
SEIHIN
  6
CONTINUOUS
 62
     3
100
AcDbVertex
100
AcDb2dVertex
 10
123.6848520067881
 20
67.21259358785289
 30
0.0
  0
SEQEND
  5
95AE
330
7CCE
100
AcDbEntity
  8
SEIHIN
  6
CONTINUOUS
 62
     3
  0
LINE
  5
7CCF
330
1A
100
AcDbEntity
  8
SEIHIN
  6
CONTINUOUS
 62
     3
100
AcDbLine
 10
120.9063351405486
 20
67.21259358786562
 30
0.0
 11
120.9063351405486
 21
96.81259358785325
 31
0.0
  0
LINE
  5
7CD0
330
1A
100
AcDbEntity
  8
SEIHIN
  6
CONTINUOUS
 62
     3
100
AcDbLine
 10
118.9644435003497
 20
40.21259358785289
 30
0.0
 11
118.9644435003497
 21
65.2125935878529
 31
0.0
  0
LINE
  5
7CD1
330
1A
100
AcDbEntity
  8
SEIHIN
  6
CONTINUOUS
 62
     3
100
AcDbLine
 10
120.9798607110583
 20
40.21259358785289
 30
0.0
 11
120.9798607110583
 21
65.2125935878529
 31
0.0
  0
DIMENSION
  5
7CD2
330
1A
100
AcDbEntity
  8
SUNPOU
100
AcDbDimension
  2
*D3
 10
143.3803811449147
 20
40.21259358785289
 30
0.0
 11
140.8803811449147
 21
52.71259358785291
 31
0.0
 70
    32
  1
※<>
  3
STANDARD
100
AcDbAlignedDimension
 13
120.9798607110583
 23
65.2125935878529
 33
0.0
 14
120.9798607110583
 24
40.21259358785289
 34
0.0
 50
90.0
100
AcDbRotatedDimension
1001
ACAD
1000
DSTYLE
1002
{
1070
    41
1040
3.0
1070
    42
1040
3.0
1070
    43
1040
7.0
1070
    44
1040
1.5
1070
    73
1070
     0
1070
    74
1070
     0
1070
    77
1070
     3
1070
   140
1040
3.0
1070
   141
1040
150.0
1070
   144
1040
1.0
1070
   147
1040
1.0
1070
   172
1070
     1
1070
   173
1070
     1
1070
   176
1070
     4
1070
   177
1070
     4
1070
   178
1070
     4
1070
   271
1070
     0
1070
   272
1070
     2
1070
     6
1000
OPEN
1070
     7
1000
OPEN
1002
}
  0
LINE
  5
7CD3
330
1A
100
AcDbEntity
  8
ﾊｯﾁﾝｸ_
100
AcDbLine
 10
120.9798607110583
 20
43.33174418535134
 30
0.0
 11
118.9644435003497
 21
41.31632697464453
 31
0.0
  0
LINE
  5
7CD4
330
1A
100
AcDbEntity
  8
SEIHIN
  6
CONTINUOUS
 62
     3
100
AcDbLine
 10
120.9798607110583
 20
40.21259358785289
 30
0.0
 11
118.9644435003497
 21
40.21259358785289
 31
0.0
  0
LINE
  5
7CD5
330
1A
100
AcDbEntity
  8
ﾊｯﾁﾝｸ_
100
AcDbLine
 10
120.9798607110583
 20
47.82187224588676
 30
0.0
 11
118.9644435003497
 21
45.80645503517814
 31
0.0
  0
LINE
  5
7CD6
330
1A
100
AcDbEntity
  8
ﾊｯﾁﾝｸ_
100
AcDbLine
 10
120.9798607110583
 20
52.31200030642219
 30
0.0
 11
118.9644435003497
 21
50.29658309571175
 31
0.0
  0
LINE
  5
7CD7
330
1A
100
AcDbEntity
  8
SEIHIN
  6
CONTINUOUS
 62
     3
100
AcDbLine
 10
120.9798607110583
 20
65.2125935878529
 30
0.0
 11
126.1613772977548
 21
65.2125935878529
 31
0.0
  0
LINE
  5
7CD8
330
1A
100
AcDbEntity
  8
SEIHIN
  6
CONTINUOUS
 62
     3
100
AcDbLine
 10
128.3061617720172
 20
64.21259358785289
 30
0.0
 11
124.9548992876984
 21
64.21259358785289
 31
0.0
  0
LINE
  5
7CD9
330
1A
100
AcDbEntity
  8
SEIHIN
  6
CONTINUOUS
 62
     3
100
AcDbLine
 10
124.9548992876984
 20
65.2125935878529
 30
0.0
 11
126.6584507553129
 21
65.2125935878529
 31
0.0
  0
LINE
  5
7CDA
330
1A
100
AcDbEntity
  8
ﾊｯﾁﾝｸ_
100
AcDbLine
 10
126.4200231451618
 20
66.73241886159383
 30
0.0
 11
124.9001978714209
 21
65.2125935878529
 31
0.0
  0
LINE
  5
7CDB
330
1A
100
AcDbEntity
  8
ﾊｯﾁﾝｸ_
100
AcDbLine
 10
127.2839159237032
 20
72.08643970067067
 30
0.0
 11
124.879346643595
 21
69.6818704205624
 31
0.0
  0
LINE
  5
7CDC
330
1A
100
AcDbEntity
  8
ﾊｯﾁﾝｸ_
100
AcDbLine
 10
122.4100698108864
 20
67.21259358785289
 30
0.0
 11
118.9644435003497
 21
63.76696727731621
 31
0.0
  0
LINE
  5
7CDD
330
1A
100
AcDbEntity
  8
ﾊｯﾁﾝｸ_
100
AcDbLine
 10
120.9798607110583
 20
56.8021283669558
 30
0.0
 11
118.9644435003497
 21
54.78671115624718
 31
0.0
  0
LINE
  5
7CDE
330
1A
100
AcDbEntity
  8
ﾊｯﾁﾝｸ_
100
AcDbLine
 10
120.9798607110583
 20
61.29225642748941
 30
0.0
 11
118.9644435003497
 21
59.2768392167826
 31
0.0
  0
LINE
  5
7CDF
330
1A
100
AcDbEntity
  8
SEIHIN
  6
CONTINUOUS
 62
     3
100
AcDbLine
 10
124.5012541525507
 20
67.21259358785289
 30
0.0
 11
117.6027042161172
 21
67.21259358785289
 31
0.0
  0
LINE
  5
7CE0
330
1A
100
AcDbEntity
  8
SEIHIN
  6
CONTINUOUS
 62
     3
100
AcDbLine
 10
120.9798607110583
 20
64.21259358785289
 30
0.0
 11
124.9548992876984
 21
64.21259358785289
 31
0.0
  0
LINE
  5
7CE1
330
1A
100
AcDbEntity
  8
SEIHIN
  6
CONTINUOUS
 62
     3
100
AcDbLine
 10
124.9548992876984
 20
64.21259358785289
 30
0.0
 11
124.9548992876984
 21
65.2125935878529
 31
0.0
  0
LINE
  5
7CE2
330
1A
100
AcDbEntity
  8
SEIHIN
  6
CONTINUOUS
 62
     3
100
AcDbLine
 10
117.0980426679639
 20
66.71259358785289
 30
0.0
 11
117.0980426679639
 21
65.2125935878529
 31
0.0
  0
ARC
  5
7CE3
330
1A
100
AcDbEntity
  8
SEIHIN
  6
CONTINUOUS
 62
     3
100
AcDbCircle
 10
117.6003652525582
 20
66.71027107961061
 30
0.0
 40
0.5023279536690728
100
AcDbArc
 50
89.73321567387342
 51
179.7350925957934
  0
LINE
  5
7CE4
330
1A
100
AcDbEntity
  8
SEIHIN
  6
CONTINUOUS
 62
     3
100
AcDbLine
 10
117.0980426679639
 20
65.2125935878529
 30
0.0
 11
118.9644435003497
 21
65.2125935878529
 31
0.0
  0
LINE
  5
7CE5
330
1A
100
AcDbEntity
  8
ﾊｯﾁﾝｸ_
100
AcDbLine
 10
117.9199417503518
 20
67.21259358785289
 30
0.0
 11
117.0980426679639
 21
66.39069450546674
 31
0.0
  0
LINE
  5
7CE6
330
1A
100
AcDbEntity
  8
ﾊｯﾁﾝｸ_
100
AcDbLine
 10
129.1936555005127
 20
69.50605121694469
 30
0.0
 11
126.9951874400526
 21
67.30758315648461
 31
0.0
  0
LINE
  5
7CE7
330
1A
100
AcDbEntity
  8
ﾊｯﾁﾝｸ_
100
AcDbLine
 10
129.7752800136954
 20
74.57780379066105
 30
0.0
 11
127.7450460932463
 21
72.5475698702129
 31
0.0
  0
POLYLINE
  5
7CE8
330
1A
100
AcDbEntity
  8
SEIHIN
  6
CONTINUOUS
 62
     3
100
AcDb2dPolyline
 66
     1
 10
0.0
 20
0.0
 30
0.0
  0
VERTEX
  5
95AF
330
7CE8
100
AcDbEntity
  8
SEIHIN
  6
CONTINUOUS
 62
     3
100
AcDbVertex
100
AcDb2dVertex
 10
126.9944684168335
 20
97.08389764915308
 30
0.0
  0
VERTEX
  5
95B0
330
7CE8
100
AcDbEntity
  8
SEIHIN
  6
CONTINUOUS
 62
     3
100
AcDbVertex
100
AcDb2dVertex
 10
126.0985591607882
 20
81.57831401476403
 30
0.0
  0
VERTEX
  5
95B1
330
7CE8
100
AcDbEntity
  8
SEIHIN
  6
CONTINUOUS
 62
     3
100
AcDbVertex
100
AcDb2dVertex
 10
125.9693267037732
 20
79.34201108416607
 30
0.0
  0
SEQEND
  5
95B2
330
7CE8
100
AcDbEntity
  8
SEIHIN
  6
CONTINUOUS
 62
     3
  0
POLYLINE
  5
7CE9
330
1A
100
AcDbEntity
  8
SEIHIN
  6
CONTINUOUS
 62
     3
100
AcDb2dPolyline
 66
     1
 10
0.0
 20
0.0
 30
0.0
  0
VERTEX
  5
95B3
330
7CE9
100
AcDbEntity
  8
SEIHIN
  6
CONTINUOUS
 62
     3
100
AcDbVertex
100
AcDb2dVertex
 10
127.9759770039641
 20
79.22722732936461
 30
0.0
  0
VERTEX
  5
95B4
330
7CE9
100
AcDbEntity
  8
SEIHIN
  6
CONTINUOUS
 62
     3
100
AcDbVertex
100
AcDb2dVertex
 10
128.1654848188231
 20
82.50840872020933
 30
0.0
  0
VERTEX
  5
95B5
330
7CE9
100
AcDbEntity
  8
SEIHIN
  6
CONTINUOUS
 62
     3
100
AcDbVertex
100
AcDb2dVertex
 10
128.608637282467
 20
90.18185735277155
 30
0.0
  0
VERTEX
  5
95B6
330
7CE9
100
AcDbEntity
  8
SEIHIN
  6
CONTINUOUS
 62
     3
100
AcDbVertex
100
AcDb2dVertex
 10
129.2992169560698
 20
102.1412895265538
 30
0.0
  0
SEQEND
  5
95B7
330
7CE9
100
AcDbEntity
  8
SEIHIN
  6
CONTINUOUS
 62
     3
  0
POLYLINE
  5
7CEA
330
1A
100
AcDbEntity
  8
SEIHIN
  6
CONTINUOUS
 62
     3
100
AcDb2dPolyline
 66
     1
 10
0.0
 20
0.0
 30
0.0
  0
VERTEX
  5
95B8
330
7CEA
100
AcDbEntity
  8
SEIHIN
  6
CONTINUOUS
 62
     3
100
AcDbVertex
100
AcDb2dVertex
 10
131.4380523720651
 20
102.1125935878525
 30
0.0
  0
VERTEX
  5
95B9
330
7CEA
100
AcDbEntity
  8
SEIHIN
  6
CONTINUOUS
 62
     3
100
AcDbVertex
100
AcDb2dVertex
 10
130.7252845127527
 20
89.59809381971069
 30
0.0
  0
VERTEX
  5
95BA
330
7CEA
100
AcDbEntity
  8
SEIHIN
  6
CONTINUOUS
 62
     3
100
AcDbVertex
100
AcDb2dVertex
 10
130.0722328257347
 20
78.13367625431863
 30
0.0
  0
SEQEND
  5
95BB
330
7CEA
100
AcDbEntity
  8
SEIHIN
  6
CONTINUOUS
 62
     3
  0
POLYLINE
  5
7CEB
330
1A
100
AcDbEntity
  8
SEIHIN
  6
CONTINUOUS
 62
     3
100
AcDb2dPolyline
 66
     1
 10
0.0
 20
0.0
 30
0.0
  0
VERTEX
  5
95BC
330
7CEB
100
AcDbEntity
  8
SEIHIN
  6
CONTINUOUS
 62
     3
100
AcDbVertex
100
AcDb2dVertex
 10
128.2671788802076
 20
78.23562316673349
 30
0.0
  0
VERTEX
  5
95BD
330
7CEB
100
AcDbEntity
  8
SEIHIN
  6
CONTINUOUS
 62
     3
100
AcDbVertex
100
AcDb2dVertex
 10
128.4833265448519
 20
82.02837445133525
 30
0.0
  0
VERTEX
  5
95BE
330
7CEB
100
AcDbEntity
  8
SEIHIN
  6
CONTINUOUS
 62
     3
100
AcDbVertex
100
AcDb2dVertex
 10
128.9190522929943
 20
89.67467787812609
 30
0.0
  0
VERTEX
  5
95BF
330
7CEB
100
AcDbEntity
  8
SEIHIN
  6
CONTINUOUS
 62
     3
100
AcDbVertex
100
AcDb2dVertex
 10
129.6277334734427
 20
102.1125935878525
 30
0.0
  0
SEQEND
  5
95C0
330
7CEB
100
AcDbEntity
  8
SEIHIN
  6
CONTINUOUS
 62
     3
  0
LINE
  5
7CEC
330
1A
100
AcDbEntity
  8
SEIHIN
  6
CONTINUOUS
 62
     3
100
AcDbLine
 10
117.0980426679648
 20
87.7125935878529
 30
0.0
 11
117.0980426679648
 21
107.2125935878528
 31
0.0
  0
ARC
  5
7CED
330
1A
100
AcDbEntity
  8
SEIHIN
  6
CONTINUOUS
 62
     3
100
AcDbCircle
 10
119.1216921509117
 20
96.81821521853715
 30
0.0
 40
1.505633645842
100
AcDbArc
 50
269.7711014699474
 51
359.7860724875236
  0
LINE
  5
7CEE
330
1A
100
AcDbEntity
  8
ﾊｯﾁﾝｸ_
100
AcDbLine
 10
120.5994929513603
 20
96.83291315207032
 30
0.0
 11
117.0980426679648
 21
93.33146286867384
 31
0.0
  0
LINE
  5
7CEF
330
1A
100
AcDbEntity
  8
ﾊｯﾁﾝｸ_
100
AcDbLine
 10
131.2314176445465
 20
98.48458172418657
 30
0.0
 11
129.3116340287256
 21
96.5647981083647
 31
0.0
  0
LINE
  5
7CF0
330
1A
100
AcDbEntity
  8
SEIHIN
  6
CONTINUOUS
 62
     3
100
AcDbLine
 10
126.2380807018191
 20
97.59987610799079
 30
0.0
 11
125.1758257435733
 21
79.37070702286553
 31
0.0
  0
POLYLINE
  5
7CF1
330
1A
100
AcDbEntity
  8
SEIHIN
  6
CONTINUOUS
 62
     3
100
AcDb2dPolyline
 66
     1
 10
0.0
 20
0.0
 30
0.0
  0
VERTEX
  5
95C1
330
7CF1
100
AcDbEntity
  8
SEIHIN
  6
CONTINUOUS
 62
     3
100
AcDbVertex
100
AcDb2dVertex
 10
108.4622043536314
 20
96.50864326758791
 30
0.0
  0
VERTEX
  5
95C2
330
7CF1
100
AcDbEntity
  8
SEIHIN
  6
CONTINUOUS
 62
     3
100
AcDbVertex
100
AcDb2dVertex
 10
108.2685677850499
 20
96.53015835144913
 30
0.0
  0
VERTEX
  5
95C3
330
7CF1
100
AcDbEntity
  8
SEIHIN
  6
CONTINUOUS
 62
     3
100
AcDbVertex
100
AcDb2dVertex
 10
108.171071488357
 20
96.57839114672686
 30
0.0
  0
VERTEX
  5
95C4
330
7CF1
100
AcDbEntity
  8
SEIHIN
  6
CONTINUOUS
 62
     3
100
AcDbVertex
100
AcDb2dVertex
 10
108.1782039238337
 20
96.64843450064552
 30
0.0
  0
VERTEX
  5
95C5
330
7CF1
100
AcDbEntity
  8
SEIHIN
  6
CONTINUOUS
 62
     3
100
AcDbVertex
100
AcDb2dVertex
 10
108.2946441542749
 20
96.73428684505314
 30
0.0
  0
VERTEX
  5
95C6
330
7CF1
100
AcDbEntity
  8
SEIHIN
  6
CONTINUOUS
 62
     3
100
AcDbVertex
100
AcDb2dVertex
 10
108.515184502738
 20
96.82665958050428
 30
0.0
  0
VERTEX
  5
95C7
330
7CF1
100
AcDbEntity
  8
SEIHIN
  6
CONTINUOUS
 62
     3
100
AcDbVertex
100
AcDb2dVertex
 10
108.6473305776639
 20
96.86851597274369
 30
0.0
  0
SEQEND
  5
95C8
330
7CF1
100
AcDbEntity
  8
SEIHIN
  6
CONTINUOUS
 62
     3
  0
ARC
  5
7CF2
330
1A
100
AcDbEntity
  8
SEIHIN
  6
CONTINUOUS
 62
     3
100
AcDbCircle
 10
104.5430923562394
 20
-128.6443335029699
 30
0.0
 40
225.6134624691699
100
AcDbArc
 50
86.94803315037985
 51
88.9059711593557
  0
LINE
  5
7CF3
330
1A
100
AcDbEntity
  8
SEIHIN
  6
CONTINUOUS
 62
     3
100
AcDbLine
 10
119.1156771108085
 20
95.31259358785325
 30
0.0
 11
119.1156771108085
 21
75.01259358785398
 31
0.0
  0
POLYLINE
  5
7CF4
330
1A
100
AcDbEntity
  8
SEIHIN
  6
CONTINUOUS
 62
     3
100
AcDb2dPolyline
 66
     1
 10
0.0
 20
0.0
 30
0.0
  0
VERTEX
  5
95C9
330
7CF4
100
AcDbEntity
  8
SEIHIN
  6
CONTINUOUS
 62
     3
100
AcDbVertex
100
AcDb2dVertex
 10
117.3218109750664
 20
75.01259358785398
 30
0.0
  0
VERTEX
  5
95CA
330
7CF4
100
AcDbEntity
  8
SEIHIN
  6
CONTINUOUS
 62
     3
100
AcDbVertex
100
AcDb2dVertex
 10
117.2079944500069
 20
81.4725207430555
 30
0.0
  0
VERTEX
  5
95CB
330
7CF4
100
AcDbEntity
  8
SEIHIN
  6
CONTINUOUS
 62
     3
100
AcDbVertex
100
AcDb2dVertex
 10
117.0980426679648
 20
87.7125935878529
 30
0.0
  0
SEQEND
  5
95CC
330
7CF4
100
AcDbEntity
  8
SEIHIN
  6
CONTINUOUS
 62
     3
  0
LINE
  5
7CF5
330
1A
100
AcDbEntity
  8
ﾊｯﾁﾝｸ_
100
AcDbLine
 10
119.1156771108085
 20
86.3688411904485
 30
0.0
 11
117.1562456663682
 21
84.40940974600824
 31
0.0
  0
LINE
  5
7CF6
330
1A
100
AcDbEntity
  8
SEIHIN
  6
CONTINUOUS
 62
     3
100
AcDbLine
 10
119.1156771108085
 20
75.01259358785398
 30
0.0
 11
117.3218109750664
 21
75.01259358785398
 31
0.0
  0
LINE
  5
7CF7
330
1A
100
AcDbEntity
  8
ﾊｯﾁﾝｸ_
100
AcDbLine
 10
119.1156771108085
 20
77.38858506937948
 30
0.0
 11
117.3117321695595
 21
75.58464012813136
 31
0.0
  0
LINE
  5
7CF8
330
1A
100
AcDbEntity
  8
ﾊｯﾁﾝｸ_
100
AcDbLine
 10
119.1156771108085
 20
81.87871312991308
 30
0.0
 11
117.2339909618426
 21
79.99702698094814
 31
0.0
  0
LINE
  5
7CF9
330
1A
100
AcDbEntity
  8
SEIHIN
  6
CONTINUOUS
 62
     3
100
AcDbLine
 10
115.3935946756523
 20
87.7125935878529
 30
0.0
 11
108.2566037038
 21
87.7125935878529
 31
0.0
  0
ARC
  5
7CFA
330
1A
100
AcDbEntity
  8
SEIHIN
  6
CONTINUOUS
 62
     3
100
AcDbCircle
 10
103.2566616505778
 20
-125.8225475892987
 30
0.0
 40
219.3929555786445
100
AcDbArc
 50
86.96373867423758
 51
88.64041387204352
  0
ARC
  5
7CFB
330
1A
100
AcDbEntity
  8
SEIHIN
  6
CONTINUOUS
 62
     3
100
AcDbCircle
 10
103.2566616505896
 20
-122.8225475890859
 30
0.0
 40
219.3929555784307
100
AcDbArc
 50
86.96373867423758
 51
88.64041387204352
  0
ARC
  5
7CFC
330
1A
100
AcDbEntity
  8
SEIHIN
  6
CONTINUOUS
 62
     3
100
AcDbCircle
 10
103.2566616505632
 20
-128.822547589648
 30
0.0
 40
219.3929555789938
100
AcDbArc
 50
86.96373867423758
 51
88.64041387204352
  0
ARC
  5
7CFD
330
1A
100
AcDbEntity
  8
SEIHIN
  6
CONTINUOUS
 62
     3
100
AcDbCircle
 10
103.2566616505914
 20
-126.9187000116445
 30
0.0
 40
219.3929555782838
100
AcDbArc
 50
86.96373867423758
 51
88.64041387204352
  0
ARC
  5
7CFE
330
1A
100
AcDbEntity
  8
SEIHIN
  6
CONTINUOUS
 62
     3
100
AcDbCircle
 10
103.2566616505941
 20
-129.9187000115645
 30
0.0
 40
219.392955578204
100
AcDbArc
 50
86.96373867423758
 51
88.64041387204352
  0
ARC
  5
7CFF
330
1A
100
AcDbEntity
  8
SEIHIN
  6
CONTINUOUS
 62
     3
100
AcDbCircle
 10
103.2566616505932
 20
-123.9187000115845
 30
0.0
 40
219.3929555782226
100
AcDbArc
 50
86.96373867423758
 51
88.64041387204352
  0
ARC
  5
7D00
330
1A
100
AcDbEntity
  8
SEIHIN
  6
CONTINUOUS
 62
     3
100
AcDbCircle
 10
104.5430923562403
 20
-134.6443335029372
 30
0.0
 40
225.6134624691369
100
AcDbArc
 50
86.94803315037985
 51
88.9059711593557
  0
ARC
  5
7D01
330
1A
100
AcDbEntity
  8
SEIHIN
  6
CONTINUOUS
 62
     3
100
AcDbCircle
 10
104.543092356303
 20
-136.5443335012997
 30
0.0
 40
225.613462467498
100
AcDbArc
 50
86.94803315037985
 51
88.9059711593557
  0
ARC
  5
7D02
330
1A
100
AcDbEntity
  8
SEIHIN
  6
CONTINUOUS
 62
     3
100
AcDbCircle
 10
104.5430923562494
 20
-131.6443335026916
 30
0.0
 40
225.6134624688923
100
AcDbArc
 50
86.94803315037985
 51
88.9059711593557
  0
ARC
  5
7D03
330
1A
100
AcDbEntity
  8
SEIHIN
  6
CONTINUOUS
 62
     3
100
AcDbCircle
 10
104.5430923563021
 20
-133.5443335013179
 30
0.0
 40
225.6134624675173
100
AcDbArc
 50
86.94803315037985
 51
88.9059711593557
  0
ARC
  5
7D04
330
1A
100
AcDbEntity
  8
SEIHIN
  6
CONTINUOUS
 62
     3
100
AcDbCircle
 10
104.5430923563003
 20
-130.5443335014089
 30
0.0
 40
225.6134624676067
100
AcDbArc
 50
86.94803315037985
 51
88.9059711593557
  0
ARC
  5
7D05
330
1A
100
AcDbEntity
  8
SEIHIN
  6
CONTINUOUS
 62
     3
100
AcDbCircle
 10
100.4938958541474
 20
-265.378343964846
 30
0.0
 40
353.4051657896589
100
AcDbArc
 50
87.58367152201362
 51
88.64501374915485
  0
POLYLINE
  5
7D06
330
1A
100
AcDbEntity
  8
SEIHIN
  6
CONTINUOUS
 62
     3
100
AcDb2dPolyline
 66
     1
 10
0.0
 20
0.0
 30
0.0
  0
VERTEX
  5
95CD
330
7D06
100
AcDbEntity
  8
SEIHIN
  6
CONTINUOUS
 62
     3
100
AcDbVertex
100
AcDb2dVertex
 10
108.2566037038
 20
87.7125935878529
 30
0.0
  0
VERTEX
  5
95CE
330
7D06
100
AcDbEntity
  8
SEIHIN
  6
CONTINUOUS
 62
     3
100
AcDbVertex
100
AcDb2dVertex
 10
108.4568690595629
 20
87.80571016612965
 30
0.0
  0
VERTEX
  5
95CF
330
7D06
100
AcDbEntity
  8
SEIHIN
  6
CONTINUOUS
 62
     3
100
AcDbVertex
100
AcDb2dVertex
 10
108.6473305776712
 20
87.86851597274369
 30
0.0
  0
SEQEND
  5
95D0
330
7D06
100
AcDbEntity
  8
SEIHIN
  6
CONTINUOUS
 62
     3
  0
LINE
  5
7D07
330
1A
100
AcDbEntity
  8
SEIHIN
  6
CONTINUOUS
 62
     3
100
AcDbLine
 10
108.6473305776712
 20
87.86851597274369
 30
0.0
 11
108.8507854953327
 21
87.92800129708201
 31
0.0
  0
POLYLINE
  5
7D08
330
1A
100
AcDbEntity
  8
SEIHIN
  6
CONTINUOUS
 62
     3
100
AcDb2dPolyline
 66
     1
 10
0.0
 20
0.0
 30
0.0
  0
VERTEX
  5
95D1
330
7D08
100
AcDbEntity
  8
SEIHIN
  6
CONTINUOUS
 62
     3
100
AcDbVertex
100
AcDb2dVertex
 10
108.4622043536314
 20
93.5086432675879
 30
0.0
  0
VERTEX
  5
95D2
330
7D08
100
AcDbEntity
  8
SEIHIN
  6
CONTINUOUS
 62
     3
100
AcDbVertex
100
AcDb2dVertex
 10
108.2685677850499
 20
93.53015835144914
 30
0.0
  0
VERTEX
  5
95D3
330
7D08
100
AcDbEntity
  8
SEIHIN
  6
CONTINUOUS
 62
     3
100
AcDbVertex
100
AcDb2dVertex
 10
108.171071488357
 20
93.57839114672685
 30
0.0
  0
VERTEX
  5
95D4
330
7D08
100
AcDbEntity
  8
SEIHIN
  6
CONTINUOUS
 62
     3
100
AcDbVertex
100
AcDb2dVertex
 10
108.1782039238337
 20
93.64843450064553
 30
0.0
  0
VERTEX
  5
95D5
330
7D08
100
AcDbEntity
  8
SEIHIN
  6
CONTINUOUS
 62
     3
100
AcDbVertex
100
AcDb2dVertex
 10
108.2946441542749
 20
93.73428684505313
 30
0.0
  0
VERTEX
  5
95D6
330
7D08
100
AcDbEntity
  8
SEIHIN
  6
CONTINUOUS
 62
     3
100
AcDbVertex
100
AcDb2dVertex
 10
108.515184502738
 20
93.82665958050427
 30
0.0
  0
VERTEX
  5
95D7
330
7D08
100
AcDbEntity
  8
SEIHIN
  6
CONTINUOUS
 62
     3
100
AcDbVertex
100
AcDb2dVertex
 10
108.6473305776639
 20
93.8685159727437
 30
0.0
  0
SEQEND
  5
95D8
330
7D08
100
AcDbEntity
  8
SEIHIN
  6
CONTINUOUS
 62
     3
  0
LINE
  5
7D09
330
1A
100
AcDbEntity
  8
SEIHIN
  6
CONTINUOUS
 62
     3
100
AcDbLine
 10
108.6473305776712
 20
93.8685159727437
 30
0.0
 11
108.8507854953336
 21
93.928001297082
 31
0.0
  0
POLYLINE
  5
7D0A
330
1A
100
AcDbEntity
  8
SEIHIN
  6
CONTINUOUS
 62
     3
100
AcDb2dPolyline
 66
     1
 10
0.0
 20
0.0
 30
0.0
  0
VERTEX
  5
95D9
330
7D0A
100
AcDbEntity
  8
SEIHIN
  6
CONTINUOUS
 62
     3
100
AcDbVertex
100
AcDb2dVertex
 10
108.4622043536314
 20
90.50864326758789
 30
0.0
  0
VERTEX
  5
95DA
330
7D0A
100
AcDbEntity
  8
SEIHIN
  6
CONTINUOUS
 62
     3
100
AcDbVertex
100
AcDb2dVertex
 10
108.2685677850499
 20
90.53015835144913
 30
0.0
  0
VERTEX
  5
95DB
330
7D0A
100
AcDbEntity
  8
SEIHIN
  6
CONTINUOUS
 62
     3
100
AcDbVertex
100
AcDb2dVertex
 10
108.1710714883561
 20
90.57839114672686
 30
0.0
  0
VERTEX
  5
95DC
330
7D0A
100
AcDbEntity
  8
SEIHIN
  6
CONTINUOUS
 62
     3
100
AcDbVertex
100
AcDb2dVertex
 10
108.1782039238337
 20
90.64843450064552
 30
0.0
  0
VERTEX
  5
95DD
330
7D0A
100
AcDbEntity
  8
SEIHIN
  6
CONTINUOUS
 62
     3
100
AcDbVertex
100
AcDb2dVertex
 10
108.2946441542749
 20
90.73428684505314
 30
0.0
  0
VERTEX
  5
95DE
330
7D0A
100
AcDbEntity
  8
SEIHIN
  6
CONTINUOUS
 62
     3
100
AcDbVertex
100
AcDb2dVertex
 10
108.515184502738
 20
90.82665958050426
 30
0.0
  0
VERTEX
  5
95DF
330
7D0A
100
AcDbEntity
  8
SEIHIN
  6
CONTINUOUS
 62
     3
100
AcDbVertex
100
AcDb2dVertex
 10
108.6473305776639
 20
90.86851597274369
 30
0.0
  0
SEQEND
  5
95E0
330
7D0A
100
AcDbEntity
  8
SEIHIN
  6
CONTINUOUS
 62
     3
  0
LINE
  5
7D0B
330
1A
100
AcDbEntity
  8
SEIHIN
  6
CONTINUOUS
 62
     3
100
AcDbLine
 10
108.6473305776712
 20
90.86851597274369
 30
0.0
 11
108.8507854953327
 21
90.928001297082
 31
0.0
  0
POLYLINE
  5
7D0C
330
1A
100
AcDbEntity
  8
SEIHIN
  6
CONTINUOUS
 62
     3
100
AcDb2dPolyline
 66
     1
 10
0.0
 20
0.0
 30
0.0
  0
VERTEX
  5
95E1
330
7D0C
100
AcDbEntity
  8
SEIHIN
  6
CONTINUOUS
 62
     3
100
AcDbVertex
100
AcDb2dVertex
 10
108.6473305776712
 20
92.09013921636222
 30
0.0
  0
VERTEX
  5
95E2
330
7D0C
100
AcDbEntity
  8
SEIHIN
  6
CONTINUOUS
 62
     3
100
AcDbVertex
100
AcDb2dVertex
 10
108.3850631154077
 20
92.18324104991268
 30
0.0
  0
VERTEX
  5
95E3
330
7D0C
100
AcDbEntity
  8
SEIHIN
  6
CONTINUOUS
 62
     3
100
AcDbVertex
100
AcDb2dVertex
 10
108.2158466259975
 20
92.27251500493082
 30
0.0
  0
VERTEX
  5
95E4
330
7D0C
100
AcDbEntity
  8
SEIHIN
  6
CONTINUOUS
 62
     3
100
AcDbVertex
100
AcDb2dVertex
 10
108.161113623008
 20
92.34666984025613
 30
0.0
  0
VERTEX
  5
95E5
330
7D0C
100
AcDbEntity
  8
SEIHIN
  6
CONTINUOUS
 62
     3
100
AcDbVertex
100
AcDb2dVertex
 10
108.2260209136697
 20
92.39519306224872
 30
0.0
  0
VERTEX
  5
95E6
330
7D0C
100
AcDbEntity
  8
SEIHIN
  6
CONTINUOUS
 62
     3
100
AcDbVertex
100
AcDb2dVertex
 10
108.3946577033334
 20
92.41313912315751
 30
0.0
  0
VERTEX
  5
95E7
330
7D0C
100
AcDbEntity
  8
SEIHIN
  6
CONTINUOUS
 62
     3
100
AcDbVertex
100
AcDb2dVertex
 10
108.4622043536314
 20
92.41249084488016
 30
0.0
  0
SEQEND
  5
95E8
330
7D0C
100
AcDbEntity
  8
SEIHIN
  6
CONTINUOUS
 62
     3
  0
LINE
  5
7D0D
330
1A
100
AcDbEntity
  8
SEIHIN
  6
CONTINUOUS
 62
     3
100
AcDbLine
 10
108.8507854953336
 20
92.02800129708236
 30
0.0
 11
108.6473305776712
 21
92.09013921636222
 31
0.0
  0
POLYLINE
  5
7D0E
330
1A
100
AcDbEntity
  8
SEIHIN
  6
CONTINUOUS
 62
     3
100
AcDb2dPolyline
 66
     1
 10
0.0
 20
0.0
 30
0.0
  0
VERTEX
  5
95E9
330
7D0E
100
AcDbEntity
  8
SEIHIN
  6
CONTINUOUS
 62
     3
100
AcDbVertex
100
AcDb2dVertex
 10
108.6473305776712
 20
89.09013921636221
 30
0.0
  0
VERTEX
  5
95EA
330
7D0E
100
AcDbEntity
  8
SEIHIN
  6
CONTINUOUS
 62
     3
100
AcDbVertex
100
AcDb2dVertex
 10
108.3850631154077
 20
89.18324104991269
 30
0.0
  0
VERTEX
  5
95EB
330
7D0E
100
AcDbEntity
  8
SEIHIN
  6
CONTINUOUS
 62
     3
100
AcDbVertex
100
AcDb2dVertex
 10
108.2158466259975
 20
89.27251500493083
 30
0.0
  0
VERTEX
  5
95EC
330
7D0E
100
AcDbEntity
  8
SEIHIN
  6
CONTINUOUS
 62
     3
100
AcDbVertex
100
AcDb2dVertex
 10
108.1611136230089
 20
89.34666984025614
 30
0.0
  0
VERTEX
  5
95ED
330
7D0E
100
AcDbEntity
  8
SEIHIN
  6
CONTINUOUS
 62
     3
100
AcDbVertex
100
AcDb2dVertex
 10
108.2260209136688
 20
89.39519306224871
 30
0.0
  0
VERTEX
  5
95EE
330
7D0E
100
AcDbEntity
  8
SEIHIN
  6
CONTINUOUS
 62
     3
100
AcDbVertex
100
AcDb2dVertex
 10
108.3946577033325
 20
89.41313912315752
 30
0.0
  0
VERTEX
  5
95EF
330
7D0E
100
AcDbEntity
  8
SEIHIN
  6
CONTINUOUS
 62
     3
100
AcDbVertex
100
AcDb2dVertex
 10
108.4622043536314
 20
89.41249084488015
 30
0.0
  0
SEQEND
  5
95F0
330
7D0E
100
AcDbEntity
  8
SEIHIN
  6
CONTINUOUS
 62
     3
  0
LINE
  5
7D0F
330
1A
100
AcDbEntity
  8
SEIHIN
  6
CONTINUOUS
 62
     3
100
AcDbLine
 10
108.8507854953336
 20
89.02800129708237
 30
0.0
 11
108.6473305776712
 21
89.09013921636221
 31
0.0
  0
POLYLINE
  5
7D10
330
1A
100
AcDbEntity
  8
SEIHIN
  6
CONTINUOUS
 62
     3
100
AcDb2dPolyline
 66
     1
 10
0.0
 20
0.0
 30
0.0
  0
VERTEX
  5
95F1
330
7D10
100
AcDbEntity
  8
SEIHIN
  6
CONTINUOUS
 62
     3
100
AcDbVertex
100
AcDb2dVertex
 10
108.6473305776712
 20
95.09013921636222
 30
0.0
  0
VERTEX
  5
95F2
330
7D10
100
AcDbEntity
  8
SEIHIN
  6
CONTINUOUS
 62
     3
100
AcDbVertex
100
AcDb2dVertex
 10
108.3850631154077
 20
95.18324104991268
 30
0.0
  0
VERTEX
  5
95F3
330
7D10
100
AcDbEntity
  8
SEIHIN
  6
CONTINUOUS
 62
     3
100
AcDbVertex
100
AcDb2dVertex
 10
108.2158466259975
 20
95.27251500493083
 30
0.0
  0
VERTEX
  5
95F4
330
7D10
100
AcDbEntity
  8
SEIHIN
  6
CONTINUOUS
 62
     3
100
AcDbVertex
100
AcDb2dVertex
 10
108.161113623008
 20
95.34666984025614
 30
0.0
  0
VERTEX
  5
95F5
330
7D10
100
AcDbEntity
  8
SEIHIN
  6
CONTINUOUS
 62
     3
100
AcDbVertex
100
AcDb2dVertex
 10
108.2260209136688
 20
95.39519306224873
 30
0.0
  0
VERTEX
  5
95F6
330
7D10
100
AcDbEntity
  8
SEIHIN
  6
CONTINUOUS
 62
     3
100
AcDbVertex
100
AcDb2dVertex
 10
108.3946577033334
 20
95.41313912315752
 30
0.0
  0
VERTEX
  5
95F7
330
7D10
100
AcDbEntity
  8
SEIHIN
  6
CONTINUOUS
 62
     3
100
AcDbVertex
100
AcDb2dVertex
 10
108.4622043536314
 20
95.41249084488015
 30
0.0
  0
SEQEND
  5
95F8
330
7D10
100
AcDbEntity
  8
SEIHIN
  6
CONTINUOUS
 62
     3
  0
LINE
  5
7D11
330
1A
100
AcDbEntity
  8
SEIHIN
  6
CONTINUOUS
 62
     3
100
AcDbLine
 10
108.8507854953336
 20
95.02800129708237
 30
0.0
 11
108.6473305776712
 21
95.09013921636222
 31
0.0
  0
LINE
  5
7D12
330
1A
100
AcDbEntity
  8
SEIHIN
  6
CONTINUOUS
 62
     3
100
AcDbLine
 10
108.1609537500103
 20
96.60873815101957
 30
0.0
 11
108.1609537500103
 21
95.3429225044573
 31
0.0
  0
LINE
  5
7D13
330
1A
100
AcDbEntity
  8
SEIHIN
  6
CONTINUOUS
 62
     3
100
AcDbLine
 10
108.1609537500103
 20
90.60873815101956
 30
0.0
 11
108.1609537500103
 21
89.3429225044573
 31
0.0
  0
LINE
  5
7D14
330
1A
100
AcDbEntity
  8
SEIHIN
  6
CONTINUOUS
 62
     3
100
AcDbLine
 10
108.1609537500103
 20
93.60873815101957
 30
0.0
 11
108.1609537500103
 21
92.34292250445731
 31
0.0
  0
LINE
  5
7D15
330
1A
100
AcDbEntity
  8
SEIHIN
  6
CONTINUOUS
 62
     3
100
AcDbLine
 10
114.8774584865682
 20
92.16627445778692
 30
0.0
 11
114.8774584865682
 21
93.26242688049466
 31
0.0
  0
LINE
  5
7D16
330
1A
100
AcDbEntity
  8
SEIHIN
  6
CONTINUOUS
 62
     3
100
AcDbLine
 10
114.8774584865682
 20
89.16627445778692
 30
0.0
 11
114.8774584865682
 21
90.26242688049467
 31
0.0
  0
LINE
  5
7D17
330
1A
100
AcDbEntity
  8
SEIHIN
  6
CONTINUOUS
 62
     3
100
AcDbLine
 10
114.8774584865682
 20
95.16627445778693
 30
0.0
 11
114.8774584865682
 21
96.26242688049467
 31
0.0
  0
ARC
  5
7D18
330
1A
100
AcDbEntity
  8
SEIHIN
  6
CONTINUOUS
 62
     3
100
AcDbCircle
 10
114.223202212072
 20
99.74149387691511
 30
0.0
 40
6.5120166167498
100
AcDbArc
 50
275.7661824318221
 51
289.0779115146356
  0
LINE
  5
7D19
330
1A
100
AcDbEntity
  8
SEIHIN
  6
CONTINUOUS
 62
     3
100
AcDbLine
 10
116.5551330804141
 20
93.64913139330282
 30
0.0
 11
116.3516781627518
 21
93.5871498384157
 31
0.0
  0
ARC
  5
7D1A
330
1A
100
AcDbEntity
  8
SEIHIN
  6
CONTINUOUS
 62
     3
100
AcDbCircle
 10
114.223202212072
 20
102.7414938769151
 30
0.0
 40
6.512016616749355
100
AcDbArc
 50
275.7661824318221
 51
289.0779115146356
  0
LINE
  5
7D1B
330
1A
100
AcDbEntity
  8
SEIHIN
  6
CONTINUOUS
 62
     3
100
AcDbLine
 10
116.5551330804141
 20
96.6491313933028
 30
0.0
 11
116.3516781627518
 21
96.58714983841571
 31
0.0
  0
ARC
  5
7D1C
330
1A
100
AcDbEntity
  8
SEIHIN
  6
CONTINUOUS
 62
     3
100
AcDbCircle
 10
114.223202212072
 20
96.74149387691512
 30
0.0
 40
6.512016616750307
100
AcDbArc
 50
275.7661824318221
 51
289.0779115146356
  0
LINE
  5
7D1D
330
1A
100
AcDbEntity
  8
SEIHIN
  6
CONTINUOUS
 62
     3
100
AcDbLine
 10
116.5551330804141
 20
90.64913139330281
 30
0.0
 11
116.3516781627518
 21
90.58714983841571
 31
0.0
  0
LINE
  5
7D1E
330
1A
100
AcDbEntity
  8
SEIHIN
  6
CONTINUOUS
 62
     3
100
AcDbLine
 10
116.3516781627518
 20
91.80877308203424
 30
0.0
 11
116.5551330804141
 21
91.74913139330318
 31
0.0
  0
ARC
  5
7D1F
330
1A
100
AcDbEntity
  8
SEIHIN
  6
CONTINUOUS
 62
     3
100
AcDbCircle
 10
112.7377133546365
 20
80.12430731819847
 30
0.0
 40
12.23059613512725
100
AcDbArc
 50
72.8133427739376
 51
79.92424044448585
  0
LINE
  5
7D20
330
1A
100
AcDbEntity
  8
SEIHIN
  6
CONTINUOUS
 62
     3
100
AcDbLine
 10
116.3516781627518
 20
88.80877308203423
 30
0.0
 11
116.5551330804141
 21
88.74913139330317
 31
0.0
  0
ARC
  5
7D21
330
1A
100
AcDbEntity
  8
SEIHIN
  6
CONTINUOUS
 62
     3
100
AcDbCircle
 10
112.737713354661
 20
77.1243073182967
 30
0.0
 40
12.2305961350245
100
AcDbArc
 50
72.81334277388314
 51
79.92424044448585
  0
LINE
  5
7D22
330
1A
100
AcDbEntity
  8
SEIHIN
  6
CONTINUOUS
 62
     3
100
AcDbLine
 10
116.3516781627518
 20
94.80877308203423
 30
0.0
 11
116.5551330804141
 21
94.74913139330316
 31
0.0
  0
ARC
  5
7D23
330
1A
100
AcDbEntity
  8
SEIHIN
  6
CONTINUOUS
 62
     3
100
AcDbCircle
 10
112.7377133546519
 20
83.12430731826214
 30
0.0
 40
12.23059613506062
100
AcDbArc
 50
72.81334277388314
 51
79.92424044448585
  0
LINE
  5
7D24
330
1A
100
AcDbEntity
  8
SEIHIN
  6
CONTINUOUS
 62
     3
100
AcDbLine
 10
116.5551330804141
 20
88.74913139330317
 30
0.0
 11
116.5551330804141
 21
90.64913139330281
 31
0.0
  0
LINE
  5
7D25
330
1A
100
AcDbEntity
  8
SEIHIN
  6
CONTINUOUS
 62
     3
100
AcDbLine
 10
116.5551330804141
 20
91.74913139330318
 30
0.0
 11
116.5551330804141
 21
93.64913139330282
 31
0.0
  0
LINE
  5
7D26
330
1A
100
AcDbEntity
  8
SEIHIN
  6
CONTINUOUS
 62
     3
100
AcDbLine
 10
116.5551330804141
 20
94.74913139330316
 30
0.0
 11
116.5551330804132
 21
96.6491313933028
 31
0.0
  0
LINE
  5
7D27
330
1A
100
AcDbEntity
  8
SEIHIN
  6
CONTINUOUS
 62
     3
100
AcDbLine
 10
115.3935946756523
 20
87.7125935878529
 30
0.0
 11
117.0980426679648
 21
87.7125935878529
 31
0.0
  0
LINE
  5
7D28
330
1A
100
AcDbEntity
  8
ﾊｯﾁﾝｸ_
100
AcDbLine
 10
119.1156771108085
 20
90.85896925098211
 30
0.0
 11
117.0980426679648
 21
88.84133480813842
 31
0.0
  0
LINE
  5
7D29
330
1A
100
AcDbEntity
  8
ﾊｯﾁﾝｸ_
100
AcDbLine
 10
128.4063576788462
 20
86.67926563741719
 30
0.0
 11
126.269843725739
 21
84.5427516843091
 31
0.0
  0
LINE
  5
7D2A
330
1A
100
AcDbEntity
  8
ﾊｯﾁﾝｸ_
100
AcDbLine
 10
130.1466029596808
 20
79.4392547971828
 30
0.0
 11
128.2210840711982
 21
77.51373590869923
 31
0.0
  0
LINE
  5
7D2B
330
1A
100
AcDbEntity
  8
ﾊｯﾁﾝｸ_
100
AcDbLine
 10
130.4178254618004
 20
84.20060535983509
 30
0.0
 11
128.4976923771741
 21
82.2804722752088
 31
0.0
  0
LINE
  5
7D2C
330
1A
100
AcDbEntity
  8
ﾊｯﾁﾝｸ_
100
AcDbLine
 10
128.1311501248551
 20
81.91393002289158
 30
0.0
 11
125.9944789955548
 21
79.77725889359033
 31
0.0
  0
LINE
  5
7D2D
330
1A
100
AcDbEntity
  8
ﾊｯﾁﾝｸ_
100
AcDbLine
 10
130.6890479639191
 20
88.9619559224892
 30
0.0
 11
128.7690249243883
 21
87.04193288295835
 31
0.0
  0
LINE
  5
7D2E
330
1A
100
AcDbEntity
  8
ﾊｯﾁﾝｸ_
100
AcDbLine
 10
130.9602355002248
 20
93.7232715193303
 30
0.0
 11
129.0403401734988
 21
91.80337619260432
 31
0.0
  0
LINE
  5
7D2F
330
1A
100
AcDbEntity
  8
ﾊｯﾁﾝｸ_
100
AcDbLine
 10
128.681551779267
 20
91.44458779837156
 30
0.0
 11
126.5451919084621
 21
89.3082279275667
 31
0.0
  0
LINE
  5
7D30
330
1A
100
AcDbEntity
  8
ﾊｯﾁﾝｸ_
100
AcDbLine
 10
128.9567165460816
 20
96.20988062572076
 30
0.0
 11
126.8205400911861
 21
94.07370417082608
 31
0.0
  0
LINE
  5
7D31
330
1A
100
AcDbEntity
  8
SEIHIN
  6
CONTINUOUS
 62
     3
100
AcDbLine
 10
139.2106856551486
 20
105.7125935878528
 30
0.0
 11
120.6273153018896
 21
105.7125935878528
 31
0.0
  0
LINE
  5
7D32
330
1A
100
AcDbEntity
  8
SEIHIN
  6
CONTINUOUS
 62
     3
100
AcDbLine
 10
117.6027042161172
 20
107.7125935878529
 30
0.0
 11
138.2078657586312
 21
107.7125935878401
 31
0.0
  0
LINE
  5
7D33
330
1A
100
AcDbEntity
  8
SEIHIN
  6
CONTINUOUS
 62
     3
100
AcDbLine
 10
119.6196942337924
 20
104.2125935878528
 30
0.0
 11
128.3186122123384
 21
104.2125935878528
 31
0.0
  0
LINE
  5
7D34
330
1A
100
AcDbEntity
  8
SEIHIN
  6
CONTINUOUS
 62
     3
100
AcDbLine
 10
119.6196942337924
 20
104.7125935878528
 30
0.0
 11
135.1986333963836
 21
104.7125935878528
 31
0.0
  0
LINE
  5
7D35
330
1A
100
AcDbEntity
  8
SEIHIN
  6
CONTINUOUS
 62
     3
100
AcDbLine
 10
126.666113065165
 20
99.61259358785254
 30
0.0
 11
121.1309332232872
 21
99.61259358785254
 31
0.0
  0
LINE
  5
7D36
330
1A
100
AcDbEntity
  8
SEIHIN
  6
CONTINUOUS
 62
     3
100
AcDbLine
 10
119.6196942337915
 20
97.61259358785252
 30
0.0
 11
126.492775490446
 21
97.61259358785252
 31
0.0
  0
LINE
  5
7D37
330
1A
100
AcDbEntity
  8
ﾊｯﾁﾝｸ_
100
AcDbLine
 10
126.9890453265875
 20
107.7125935878419
 30
0.0
 11
124.9890453265884
 21
105.7125935878419
 31
0.0
  0
ARC
  5
7D38
330
1A
100
AcDbEntity
  8
SEIHIN
  6
CONTINUOUS
 62
     3
100
AcDbCircle
 10
117.6004821799165
 20
107.2101530621283
 30
0.0
 40
0.5024454391632123
100
AcDbArc
 50
89.74661186806022
 51
179.7216964016425
  0
LINE
  5
7D39
330
1A
100
AcDbEntity
  8
ﾊｯﾁﾝｸ_
100
AcDbLine
 10
122.4989172660539
 20
107.7125935878419
 30
0.0
 11
120.4750584010857
 21
105.6887347228629
 31
0.0
  0
LINE
  5
7D3A
330
1A
100
AcDbEntity
  8
ﾊｯﾁﾝｸ_
100
AcDbLine
 10
118.0087892055184
 20
107.7125935878419
 30
0.0
 11
117.0980426679648
 21
106.8018470502783
 31
0.0
  0
ARC
  5
7D3B
330
1A
100
AcDbEntity
  8
SEIHIN
  6
CONTINUOUS
 62
     3
100
AcDbCircle
 10
103.2566616505905
 20
-119.8225475890641
 30
0.0
 40
219.3929555784091
100
AcDbArc
 50
86.96373867423758
 51
88.64041387204352
  0
ARC
  5
7D3C
330
1A
100
AcDbEntity
  8
SEIHIN
  6
CONTINUOUS
 62
     3
100
AcDbCircle
 10
103.256661650606
 20
-113.822547588562
 30
0.0
 40
219.3929555779071
100
AcDbArc
 50
86.96373867423758
 51
88.64041387204352
  0
ARC
  5
7D3D
330
1A
100
AcDbEntity
  8
SEIHIN
  6
CONTINUOUS
 62
     3
100
AcDbCircle
 10
103.2566616505814
 20
-116.8225475892896
 30
0.0
 40
219.3929555786346
100
AcDbArc
 50
86.96373867423758
 51
88.64041387204352
  0
ARC
  5
7D3E
330
1A
100
AcDbEntity
  8
SEIHIN
  6
CONTINUOUS
 62
     3
100
AcDbCircle
 10
103.2566616505932
 20
-120.9187000115917
 30
0.0
 40
219.3929555782301
100
AcDbArc
 50
86.96373867423758
 51
88.64041387204352
  0
ARC
  5
7D3F
330
1A
100
AcDbEntity
  8
SEIHIN
  6
CONTINUOUS
 62
     3
100
AcDbCircle
 10
103.2566616506196
 20
-114.918700011006
 30
0.0
 40
219.3929555776438
100
AcDbArc
 50
86.96373867423758
 51
88.64041387204352
  0
ARC
  5
7D40
330
1A
100
AcDbEntity
  8
SEIHIN
  6
CONTINUOUS
 62
     3
100
AcDbCircle
 10
103.2566616505778
 20
-117.9187000119901
 30
0.0
 40
219.392955578629
100
AcDbArc
 50
86.96373867423758
 51
88.64041387204352
  0
ARC
  5
7D41
330
1A
100
AcDbEntity
  8
SEIHIN
  6
CONTINUOUS
 62
     3
100
AcDbCircle
 10
104.5430923562803
 20
-125.6443335017494
 30
0.0
 40
225.6134624679476
100
AcDbArc
 50
86.94803315037985
 51
88.9059711593557
  0
ARC
  5
7D42
330
1A
100
AcDbEntity
  8
SEIHIN
  6
CONTINUOUS
 62
     3
100
AcDbCircle
 10
104.5430923562757
 20
-127.5443335020655
 30
0.0
 40
225.6134624682644
100
AcDbArc
 50
86.94803315037985
 51
88.9059711593557
  0
ARC
  5
7D43
330
1A
100
AcDbEntity
  8
SEIHIN
  6
CONTINUOUS
 62
     3
100
AcDbCircle
 10
104.5430923562394
 20
-122.6443335029754
 30
0.0
 40
225.6134624691758
100
AcDbArc
 50
86.94803315037985
 51
88.9059711593557
  0
ARC
  5
7D44
330
1A
100
AcDbEntity
  8
SEIHIN
  6
CONTINUOUS
 62
     3
100
AcDbCircle
 10
104.5430923562785
 20
-124.5443335019891
 30
0.0
 40
225.6134624681886
100
AcDbArc
 50
86.94803315037985
 51
88.9059711593557
  0
ARC
  5
7D45
330
1A
100
AcDbEntity
  8
SEIHIN
  6
CONTINUOUS
 62
     3
100
AcDbCircle
 10
104.5430923562803
 20
-119.6443335017548
 30
0.0
 40
225.6134624679544
100
AcDbArc
 50
86.94803315037985
 51
88.9059711593557
  0
ARC
  5
7D46
330
1A
100
AcDbEntity
  8
SEIHIN
  6
CONTINUOUS
 62
     3
100
AcDbCircle
 10
104.5430923562648
 20
-121.5443335023657
 30
0.0
 40
225.6134624685649
100
AcDbArc
 50
86.94803315037985
 51
88.9059711593557
  0
POLYLINE
  5
7D47
330
1A
100
AcDbEntity
  8
SEIHIN
  6
CONTINUOUS
 62
     3
100
AcDb2dPolyline
 66
     1
 10
0.0
 20
0.0
 30
0.0
  0
VERTEX
  5
95F9
330
7D47
100
AcDbEntity
  8
SEIHIN
  6
CONTINUOUS
 62
     3
100
AcDbVertex
100
AcDb2dVertex
 10
108.4622043536314
 20
99.50864326758789
 30
0.0
  0
VERTEX
  5
95FA
330
7D47
100
AcDbEntity
  8
SEIHIN
  6
CONTINUOUS
 62
     3
100
AcDbVertex
100
AcDb2dVertex
 10
108.2685677850499
 20
99.53015835144913
 30
0.0
  0
VERTEX
  5
95FB
330
7D47
100
AcDbEntity
  8
SEIHIN
  6
CONTINUOUS
 62
     3
100
AcDbVertex
100
AcDb2dVertex
 10
108.171071488357
 20
99.57839114672687
 30
0.0
  0
VERTEX
  5
95FC
330
7D47
100
AcDbEntity
  8
SEIHIN
  6
CONTINUOUS
 62
     3
100
AcDbVertex
100
AcDb2dVertex
 10
108.1782039238337
 20
99.64843450064552
 30
0.0
  0
VERTEX
  5
95FD
330
7D47
100
AcDbEntity
  8
SEIHIN
  6
CONTINUOUS
 62
     3
100
AcDbVertex
100
AcDb2dVertex
 10
108.2946441542749
 20
99.73428684505314
 30
0.0
  0
VERTEX
  5
95FE
330
7D47
100
AcDbEntity
  8
SEIHIN
  6
CONTINUOUS
 62
     3
100
AcDbVertex
100
AcDb2dVertex
 10
108.515184502738
 20
99.82665958050427
 30
0.0
  0
VERTEX
  5
95FF
330
7D47
100
AcDbEntity
  8
SEIHIN
  6
CONTINUOUS
 62
     3
100
AcDbVertex
100
AcDb2dVertex
 10
108.6473305776639
 20
99.8685159727437
 30
0.0
  0
SEQEND
  5
9600
330
7D47
100
AcDbEntity
  8
SEIHIN
  6
CONTINUOUS
 62
     3
  0
LINE
  5
7D48
330
1A
100
AcDbEntity
  8
SEIHIN
  6
CONTINUOUS
 62
     3
100
AcDbLine
 10
108.6473305776712
 20
99.8685159727437
 30
0.0
 11
108.8507854953336
 21
99.928001297082
 31
0.0
  0
LINE
  5
7D49
330
1A
100
AcDbEntity
  8
SEIHIN
  6
CONTINUOUS
 62
     3
100
AcDbLine
 10
108.6473305776712
 20
96.86851597274369
 30
0.0
 11
108.8507854953336
 21
96.92800129708201
 31
0.0
  0
POLYLINE
  5
7D4A
330
1A
100
AcDbEntity
  8
SEIHIN
  6
CONTINUOUS
 62
     3
100
AcDb2dPolyline
 66
     1
 10
0.0
 20
0.0
 30
0.0
  0
VERTEX
  5
9601
330
7D4A
100
AcDbEntity
  8
SEIHIN
  6
CONTINUOUS
 62
     3
100
AcDbVertex
100
AcDb2dVertex
 10
108.4622043536314
 20
105.5086432675879
 30
0.0
  0
VERTEX
  5
9602
330
7D4A
100
AcDbEntity
  8
SEIHIN
  6
CONTINUOUS
 62
     3
100
AcDbVertex
100
AcDb2dVertex
 10
108.2685677850499
 20
105.5301583514491
 30
0.0
  0
VERTEX
  5
9603
330
7D4A
100
AcDbEntity
  8
SEIHIN
  6
CONTINUOUS
 62
     3
100
AcDbVertex
100
AcDb2dVertex
 10
108.171071488357
 20
105.5783911467268
 30
0.0
  0
VERTEX
  5
9604
330
7D4A
100
AcDbEntity
  8
SEIHIN
  6
CONTINUOUS
 62
     3
100
AcDbVertex
100
AcDb2dVertex
 10
108.1782039238337
 20
105.6484345006455
 30
0.0
  0
VERTEX
  5
9605
330
7D4A
100
AcDbEntity
  8
SEIHIN
  6
CONTINUOUS
 62
     3
100
AcDbVertex
100
AcDb2dVertex
 10
108.2946441542758
 20
105.7342868450531
 30
0.0
  0
VERTEX
  5
9606
330
7D4A
100
AcDbEntity
  8
SEIHIN
  6
CONTINUOUS
 62
     3
100
AcDbVertex
100
AcDb2dVertex
 10
108.515184502738
 20
105.8266595805042
 30
0.0
  0
VERTEX
  5
9607
330
7D4A
100
AcDbEntity
  8
SEIHIN
  6
CONTINUOUS
 62
     3
100
AcDbVertex
100
AcDb2dVertex
 10
108.6473305776639
 20
105.8685159727436
 30
0.0
  0
SEQEND
  5
9608
330
7D4A
100
AcDbEntity
  8
SEIHIN
  6
CONTINUOUS
 62
     3
  0
LINE
  5
7D4B
330
1A
100
AcDbEntity
  8
SEIHIN
  6
CONTINUOUS
 62
     3
100
AcDbLine
 10
108.6473305776712
 20
105.8685159727436
 30
0.0
 11
108.8507854953336
 21
105.9280012970819
 31
0.0
  0
POLYLINE
  5
7D4C
330
1A
100
AcDbEntity
  8
SEIHIN
  6
CONTINUOUS
 62
     3
100
AcDb2dPolyline
 66
     1
 10
0.0
 20
0.0
 30
0.0
  0
VERTEX
  5
9609
330
7D4C
100
AcDbEntity
  8
SEIHIN
  6
CONTINUOUS
 62
     3
100
AcDbVertex
100
AcDb2dVertex
 10
108.4622043536314
 20
102.5086432675879
 30
0.0
  0
VERTEX
  5
960A
330
7D4C
100
AcDbEntity
  8
SEIHIN
  6
CONTINUOUS
 62
     3
100
AcDbVertex
100
AcDb2dVertex
 10
108.2685677850499
 20
102.5301583514491
 30
0.0
  0
VERTEX
  5
960B
330
7D4C
100
AcDbEntity
  8
SEIHIN
  6
CONTINUOUS
 62
     3
100
AcDbVertex
100
AcDb2dVertex
 10
108.171071488357
 20
102.5783911467268
 30
0.0
  0
VERTEX
  5
960C
330
7D4C
100
AcDbEntity
  8
SEIHIN
  6
CONTINUOUS
 62
     3
100
AcDbVertex
100
AcDb2dVertex
 10
108.1782039238337
 20
102.6484345006455
 30
0.0
  0
VERTEX
  5
960D
330
7D4C
100
AcDbEntity
  8
SEIHIN
  6
CONTINUOUS
 62
     3
100
AcDbVertex
100
AcDb2dVertex
 10
108.2946441542758
 20
102.7342868450531
 30
0.0
  0
VERTEX
  5
960E
330
7D4C
100
AcDbEntity
  8
SEIHIN
  6
CONTINUOUS
 62
     3
100
AcDbVertex
100
AcDb2dVertex
 10
108.5151845027389
 20
102.8266595805042
 30
0.0
  0
VERTEX
  5
960F
330
7D4C
100
AcDbEntity
  8
SEIHIN
  6
CONTINUOUS
 62
     3
100
AcDbVertex
100
AcDb2dVertex
 10
108.6473305776639
 20
102.8685159727436
 30
0.0
  0
SEQEND
  5
9610
330
7D4C
100
AcDbEntity
  8
SEIHIN
  6
CONTINUOUS
 62
     3
  0
LINE
  5
7D4D
330
1A
100
AcDbEntity
  8
SEIHIN
  6
CONTINUOUS
 62
     3
100
AcDbLine
 10
108.6473305776712
 20
102.8685159727436
 30
0.0
 11
108.8507854953336
 21
102.928001297082
 31
0.0
  0
POLYLINE
  5
7D4E
330
1A
100
AcDbEntity
  8
SEIHIN
  6
CONTINUOUS
 62
     3
100
AcDb2dPolyline
 66
     1
 10
0.0
 20
0.0
 30
0.0
  0
VERTEX
  5
9611
330
7D4E
100
AcDbEntity
  8
SEIHIN
  6
CONTINUOUS
 62
     3
100
AcDbVertex
100
AcDb2dVertex
 10
108.6473305776712
 20
98.09013921636221
 30
0.0
  0
VERTEX
  5
9612
330
7D4E
100
AcDbEntity
  8
SEIHIN
  6
CONTINUOUS
 62
     3
100
AcDbVertex
100
AcDb2dVertex
 10
108.3850631154077
 20
98.18324104991269
 30
0.0
  0
VERTEX
  5
9613
330
7D4E
100
AcDbEntity
  8
SEIHIN
  6
CONTINUOUS
 62
     3
100
AcDbVertex
100
AcDb2dVertex
 10
108.2158466259975
 20
98.27251500493083
 30
0.0
  0
VERTEX
  5
9614
330
7D4E
100
AcDbEntity
  8
SEIHIN
  6
CONTINUOUS
 62
     3
100
AcDbVertex
100
AcDb2dVertex
 10
108.1611136230089
 20
98.34666984025615
 30
0.0
  0
VERTEX
  5
9615
330
7D4E
100
AcDbEntity
  8
SEIHIN
  6
CONTINUOUS
 62
     3
100
AcDbVertex
100
AcDb2dVertex
 10
108.2260209136688
 20
98.39519306224872
 30
0.0
  0
VERTEX
  5
9616
330
7D4E
100
AcDbEntity
  8
SEIHIN
  6
CONTINUOUS
 62
     3
100
AcDbVertex
100
AcDb2dVertex
 10
108.3946577033334
 20
98.41313912315753
 30
0.0
  0
VERTEX
  5
9617
330
7D4E
100
AcDbEntity
  8
SEIHIN
  6
CONTINUOUS
 62
     3
100
AcDbVertex
100
AcDb2dVertex
 10
108.4622043536314
 20
98.41249084488016
 30
0.0
  0
SEQEND
  5
9618
330
7D4E
100
AcDbEntity
  8
SEIHIN
  6
CONTINUOUS
 62
     3
  0
LINE
  5
7D4F
330
1A
100
AcDbEntity
  8
SEIHIN
  6
CONTINUOUS
 62
     3
100
AcDbLine
 10
108.8507854953327
 20
98.02800129708238
 30
0.0
 11
108.6473305776712
 21
98.09013921636221
 31
0.0
  0
POLYLINE
  5
7D50
330
1A
100
AcDbEntity
  8
SEIHIN
  6
CONTINUOUS
 62
     3
100
AcDb2dPolyline
 66
     1
 10
0.0
 20
0.0
 30
0.0
  0
VERTEX
  5
9619
330
7D50
100
AcDbEntity
  8
SEIHIN
  6
CONTINUOUS
 62
     3
100
AcDbVertex
100
AcDb2dVertex
 10
108.6473305776712
 20
104.0901392163622
 30
0.0
  0
VERTEX
  5
961A
330
7D50
100
AcDbEntity
  8
SEIHIN
  6
CONTINUOUS
 62
     3
100
AcDbVertex
100
AcDb2dVertex
 10
108.3850631154077
 20
104.1832410499126
 30
0.0
  0
VERTEX
  5
961B
330
7D50
100
AcDbEntity
  8
SEIHIN
  6
CONTINUOUS
 62
     3
100
AcDbVertex
100
AcDb2dVertex
 10
108.2158466259975
 20
104.2725150049308
 30
0.0
  0
VERTEX
  5
961C
330
7D50
100
AcDbEntity
  8
SEIHIN
  6
CONTINUOUS
 62
     3
100
AcDbVertex
100
AcDb2dVertex
 10
108.1611136230089
 20
104.3466698402561
 30
0.0
  0
VERTEX
  5
961D
330
7D50
100
AcDbEntity
  8
SEIHIN
  6
CONTINUOUS
 62
     3
100
AcDbVertex
100
AcDb2dVertex
 10
108.2260209136688
 20
104.3951930622487
 30
0.0
  0
VERTEX
  5
961E
330
7D50
100
AcDbEntity
  8
SEIHIN
  6
CONTINUOUS
 62
     3
100
AcDbVertex
100
AcDb2dVertex
 10
108.3946577033334
 20
104.4131391231575
 30
0.0
  0
VERTEX
  5
961F
330
7D50
100
AcDbEntity
  8
SEIHIN
  6
CONTINUOUS
 62
     3
100
AcDbVertex
100
AcDb2dVertex
 10
108.4622043536314
 20
104.4124908448801
 30
0.0
  0
SEQEND
  5
9620
330
7D50
100
AcDbEntity
  8
SEIHIN
  6
CONTINUOUS
 62
     3
  0
LINE
  5
7D51
330
1A
100
AcDbEntity
  8
SEIHIN
  6
CONTINUOUS
 62
     3
100
AcDbLine
 10
108.8507854953327
 20
104.0280012970823
 30
0.0
 11
108.6473305776712
 21
104.0901392163622
 31
0.0
  0
POLYLINE
  5
7D52
330
1A
100
AcDbEntity
  8
SEIHIN
  6
CONTINUOUS
 62
     3
100
AcDb2dPolyline
 66
     1
 10
0.0
 20
0.0
 30
0.0
  0
VERTEX
  5
9621
330
7D52
100
AcDbEntity
  8
SEIHIN
  6
CONTINUOUS
 62
     3
100
AcDbVertex
100
AcDb2dVertex
 10
108.6473305776712
 20
101.0901392163622
 30
0.0
  0
VERTEX
  5
9622
330
7D52
100
AcDbEntity
  8
SEIHIN
  6
CONTINUOUS
 62
     3
100
AcDbVertex
100
AcDb2dVertex
 10
108.3850631154077
 20
101.1832410499126
 30
0.0
  0
VERTEX
  5
9623
330
7D52
100
AcDbEntity
  8
SEIHIN
  6
CONTINUOUS
 62
     3
100
AcDbVertex
100
AcDb2dVertex
 10
108.2158466259975
 20
101.2725150049308
 30
0.0
  0
VERTEX
  5
9624
330
7D52
100
AcDbEntity
  8
SEIHIN
  6
CONTINUOUS
 62
     3
100
AcDbVertex
100
AcDb2dVertex
 10
108.1611136230089
 20
101.3466698402561
 30
0.0
  0
VERTEX
  5
9625
330
7D52
100
AcDbEntity
  8
SEIHIN
  6
CONTINUOUS
 62
     3
100
AcDbVertex
100
AcDb2dVertex
 10
108.2260209136688
 20
101.3951930622487
 30
0.0
  0
VERTEX
  5
9626
330
7D52
100
AcDbEntity
  8
SEIHIN
  6
CONTINUOUS
 62
     3
100
AcDbVertex
100
AcDb2dVertex
 10
108.3946577033334
 20
101.4131391231575
 30
0.0
  0
VERTEX
  5
9627
330
7D52
100
AcDbEntity
  8
SEIHIN
  6
CONTINUOUS
 62
     3
100
AcDbVertex
100
AcDb2dVertex
 10
108.4622043536314
 20
101.4124908448801
 30
0.0
  0
SEQEND
  5
9628
330
7D52
100
AcDbEntity
  8
SEIHIN
  6
CONTINUOUS
 62
     3
  0
LINE
  5
7D53
330
1A
100
AcDbEntity
  8
SEIHIN
  6
CONTINUOUS
 62
     3
100
AcDbLine
 10
108.8507854953336
 20
101.0280012970823
 30
0.0
 11
108.6473305776712
 21
101.0901392163622
 31
0.0
  0
LINE
  5
7D54
330
1A
100
AcDbEntity
  8
SEIHIN
  6
CONTINUOUS
 62
     3
100
AcDbLine
 10
108.1609537500103
 20
105.6087381510195
 30
0.0
 11
108.1609537500103
 21
104.3429225044573
 31
0.0
  0
LINE
  5
7D55
330
1A
100
AcDbEntity
  8
SEIHIN
  6
CONTINUOUS
 62
     3
100
AcDbLine
 10
108.1609537500103
 20
102.6087381510195
 30
0.0
 11
108.1609537500103
 21
101.3429225044573
 31
0.0
  0
LINE
  5
7D56
330
1A
100
AcDbEntity
  8
SEIHIN
  6
CONTINUOUS
 62
     3
100
AcDbLine
 10
108.1609537500103
 20
99.60873815101956
 30
0.0
 11
108.1609537500103
 21
98.34292250445731
 31
0.0
  0
LINE
  5
7D57
330
1A
100
AcDbEntity
  8
SEIHIN
  6
CONTINUOUS
 62
     3
100
AcDbLine
 10
120.3902192389155
 20
99.61259358785254
 30
0.0
 11
121.1309332232872
 21
99.61259358785254
 31
0.0
  0
POLYLINE
  5
7D58
330
1A
100
AcDbEntity
  8
SEIHIN
  6
CONTINUOUS
 62
     3
100
AcDb2dPolyline
 66
     1
 10
0.0
 20
0.0
 30
0.0
  0
VERTEX
  5
9629
330
7D58
100
AcDbEntity
  8
SEIHIN
  6
CONTINUOUS
 62
     3
100
AcDbVertex
100
AcDb2dVertex
 10
119.6196942337924
 20
99.39918971944724
 30
0.0
  0
VERTEX
  5
962A
330
7D58
100
AcDbEntity
  8
SEIHIN
  6
CONTINUOUS
 62
     3
100
AcDbVertex
100
AcDb2dVertex
 10
120.000635645661
 20
99.56443082112025
 30
0.0
  0
VERTEX
  5
962B
330
7D58
100
AcDbEntity
  8
SEIHIN
  6
CONTINUOUS
 62
     3
100
AcDbVertex
100
AcDb2dVertex
 10
120.3902192389155
 20
99.61259358785254
 30
0.0
  0
SEQEND
  5
962C
330
7D58
100
AcDbEntity
  8
SEIHIN
  6
CONTINUOUS
 62
     3
  0
ARC
  5
7D59
330
1A
100
AcDbEntity
  8
SEIHIN
  6
CONTINUOUS
 62
     3
100
AcDbCircle
 10
121.1261791223828
 20
98.1061022151597
 30
0.0
 40
1.506498874036311
100
AcDbArc
 50
89.81918979561148
 51
179.7531167026726
  0
LINE
  5
7D5A
330
1A
100
AcDbEntity
  8
SEIHIN
  6
CONTINUOUS
 62
     3
100
AcDbLine
 10
119.6196942337915
 20
98.11259358785253
 30
0.0
 11
119.6196942337915
 21
97.61259358785252
 31
0.0
  0
LINE
  5
7D5B
330
1A
100
AcDbEntity
  8
SEIHIN
  6
CONTINUOUS
 62
     3
100
AcDbLine
 10
120.6273153018896
 20
97.31259358785326
 30
0.0
 11
120.6273153018896
 21
96.81259358785325
 31
0.0
  0
LINE
  5
7D5C
330
1A
100
AcDbEntity
  8
SEIHIN
  6
CONTINUOUS
 62
     3
100
AcDbLine
 10
119.6196942337924
 20
97.31259358785326
 30
0.0
 11
120.6273153018896
 21
97.31259358785326
 31
0.0
  0
LINE
  5
7D5D
330
1A
100
AcDbEntity
  8
SEIHIN
  6
CONTINUOUS
 62
     3
100
AcDbLine
 10
119.6196942337924
 20
104.7125935878528
 30
0.0
 11
119.6196942337924
 21
97.31259358785326
 31
0.0
  0
ARC
  5
7D5E
330
1A
100
AcDbEntity
  8
SEIHIN
  6
CONTINUOUS
 62
     3
100
AcDbCircle
 10
120.6230512927118
 20
104.7092399848996
 30
0.0
 40
1.003362663415507
100
AcDbArc
 50
89.75650831548358
 51
179.8084963092264
  0
LINE
  5
7D5F
330
1A
100
AcDbEntity
  8
ﾊｯﾁﾝｸ_
100
AcDbLine
 10
123.3791733871444
 20
99.61259358785254
 30
0.0
 11
121.3791733871444
 21
97.61259358785252
 31
0.0
  0
ARC
  5
7D60
330
1A
100
AcDbEntity
  8
SEIHIN
  6
CONTINUOUS
 62
     3
100
AcDbCircle
 10
120.0956070475742
 20
96.80194045961878
 30
0.0
 40
0.8107980820650332
100
AcDbArc
 50
0.7528346002256594
 51
91.08343432875598
  0
LINE
  5
7D61
330
1A
100
AcDbEntity
  8
SEIHIN
  6
CONTINUOUS
 62
     3
100
AcDbLine
 10
114.8774584865682
 20
104.1662744577869
 30
0.0
 11
114.8774584865682
 21
105.2624268804946
 31
0.0
  0
LINE
  5
7D62
330
1A
100
AcDbEntity
  8
SEIHIN
  6
CONTINUOUS
 62
     3
100
AcDbLine
 10
114.8774584865682
 20
98.16627445778692
 30
0.0
 11
114.8774584865682
 21
99.26242688049468
 31
0.0
  0
LINE
  5
7D63
330
1A
100
AcDbEntity
  8
SEIHIN
  6
CONTINUOUS
 62
     3
100
AcDbLine
 10
114.8774584865682
 20
101.1662744577869
 30
0.0
 11
114.8774584865682
 21
102.2624268804946
 31
0.0
  0
ARC
  5
7D64
330
1A
100
AcDbEntity
  8
SEIHIN
  6
CONTINUOUS
 62
     3
100
AcDbCircle
 10
114.2232022120665
 20
105.7414938769405
 30
0.0
 40
6.512016616774961
100
AcDbArc
 50
275.7661824318744
 51
289.0779115145875
  0
LINE
  5
7D65
330
1A
100
AcDbEntity
  8
SEIHIN
  6
CONTINUOUS
 62
     3
100
AcDbLine
 10
116.5551330804141
 20
99.64913139330281
 30
0.0
 11
116.3516781627518
 21
99.58714983841572
 31
0.0
  0
ARC
  5
7D66
330
1A
100
AcDbEntity
  8
SEIHIN
  6
CONTINUOUS
 62
     3
100
AcDbCircle
 10
114.2232022120638
 20
111.7414938769514
 30
0.0
 40
6.512016616787332
100
AcDbArc
 50
275.7661824318744
 51
289.0779115145875
  0
LINE
  5
7D67
330
1A
100
AcDbEntity
  8
SEIHIN
  6
CONTINUOUS
 62
     3
100
AcDbLine
 10
116.5551330804141
 20
105.6491313933028
 30
0.0
 11
116.3516781627518
 21
105.5871498384157
 31
0.0
  0
ARC
  5
7D68
330
1A
100
AcDbEntity
  8
SEIHIN
  6
CONTINUOUS
 62
     3
100
AcDbCircle
 10
114.2232022120665
 20
108.7414938769351
 30
0.0
 40
6.512016616770385
100
AcDbArc
 50
275.7661824318221
 51
289.0779115145875
  0
LINE
  5
7D69
330
1A
100
AcDbEntity
  8
SEIHIN
  6
CONTINUOUS
 62
     3
100
AcDbLine
 10
116.5551330804141
 20
102.6491313933028
 30
0.0
 11
116.3516781627518
 21
102.5871498384157
 31
0.0
  0
LINE
  5
7D6A
330
1A
100
AcDbEntity
  8
SEIHIN
  6
CONTINUOUS
 62
     3
100
AcDbLine
 10
116.3516781627518
 20
97.80877308203423
 30
0.0
 11
116.5551330804141
 21
97.74913139330317
 31
0.0
  0
ARC
  5
7D6B
330
1A
100
AcDbEntity
  8
SEIHIN
  6
CONTINUOUS
 62
     3
100
AcDbCircle
 10
112.7377133546565
 20
86.1243073182767
 30
0.0
 40
12.23059613504558
100
AcDbArc
 50
72.81334277388314
 51
79.92424044448585
  0
LINE
  5
7D6C
330
1A
100
AcDbEntity
  8
SEIHIN
  6
CONTINUOUS
 62
     3
100
AcDbLine
 10
116.3516781627518
 20
103.8087730820342
 30
0.0
 11
116.5551330804141
 21
103.7491313933031
 31
0.0
  0
ARC
  5
7D6D
330
1A
100
AcDbEntity
  8
SEIHIN
  6
CONTINUOUS
 62
     3
100
AcDbCircle
 10
112.7377133546883
 20
92.12430731841493
 30
0.0
 40
12.23059613490458
100
AcDbArc
 50
72.81334277382865
 51
79.92424044453873
  0
LINE
  5
7D6E
330
1A
100
AcDbEntity
  8
SEIHIN
  6
CONTINUOUS
 62
     3
100
AcDbLine
 10
116.3516781627518
 20
100.8087730820342
 30
0.0
 11
116.5551330804141
 21
100.7491313933031
 31
0.0
  0
ARC
  5
7D6F
330
1A
100
AcDbEntity
  8
SEIHIN
  6
CONTINUOUS
 62
     3
100
AcDbCircle
 10
112.7377133546201
 20
89.12430731812936
 30
0.0
 40
12.23059613519642
100
AcDbArc
 50
72.8133427739376
 51
79.92424044448585
  0
LINE
  5
7D70
330
1A
100
AcDbEntity
  8
SEIHIN
  6
CONTINUOUS
 62
     3
100
AcDbLine
 10
116.5551330804132
 20
97.74913139330317
 30
0.0
 11
116.5551330804141
 21
99.64913139330281
 31
0.0
  0
LINE
  5
7D71
330
1A
100
AcDbEntity
  8
SEIHIN
  6
CONTINUOUS
 62
     3
100
AcDbLine
 10
116.5551330804132
 20
100.7491313933031
 30
0.0
 11
116.5551330804141
 21
102.6491313933028
 31
0.0
  0
LINE
  5
7D72
330
1A
100
AcDbEntity
  8
SEIHIN
  6
CONTINUOUS
 62
     3
100
AcDbLine
 10
116.5551330804141
 20
103.7491313933031
 30
0.0
 11
116.5551330804141
 21
105.6491313933028
 31
0.0
  0
LINE
  5
7D73
330
1A
100
AcDbEntity
  8
ﾊｯﾁﾝｸ_
100
AcDbLine
 10
119.6196942337924
 20
100.3432424950359
 30
0.0
 11
117.0980426679648
 21
97.82159092920927
 31
0.0
  0
LINE
  5
7D74
330
1A
100
AcDbEntity
  8
ﾊｯﾁﾝｸ_
100
AcDbLine
 10
119.6420955427915
 20
104.8557718645705
 30
0.0
 11
117.0980426679648
 21
102.3117189897428
 31
0.0
  0
LINE
  5
7D75
330
1A
100
AcDbEntity
  8
ﾊｯﾁﾝｸ_
100
AcDbLine
 10
135.9693014476574
 20
107.7125935878419
 30
0.0
 11
133.9693014476574
 21
105.7125935878419
 31
0.0
  0
LINE
  5
7D76
330
1A
100
AcDbEntity
  8
ﾊｯﾁﾝｸ_
100
AcDbLine
 10
131.4791733871229
 20
107.7125935878419
 30
0.0
 11
129.4791733871229
 21
105.7125935878419
 31
0.0
  0
ARC
  5
7D77
330
1A
100
AcDbEntity
  8
SEIHIN
  6
CONTINUOUS
 62
     3
100
AcDbCircle
 10
138.2092237313249
 20
108.7140556582315
 30
0.0
 40
1.001462991087976
100
AcDbArc
 50
269.9223075355027
 51
359.9163518847071
  0
LINE
  5
7D78
330
1A
100
AcDbEntity
  8
ﾊｯﾁﾝｸ_
100
AcDbLine
 10
141.2159857227075
 20
108.4691498023484
 30
0.0
 11
138.4594295081919
 21
105.7125935878419
 31
0.0
  0
LINE
  5
7D79
330
1A
100
AcDbEntity
  8
ﾊｯﾁﾝｸ_
100
AcDbLine
 10
136.9594295082138
 20
104.2125935878528
 30
0.0
 11
135.3594295082134
 21
102.6125935878525
 31
0.0
  0
LINE
  5
7D7A
330
1A
100
AcDbEntity
  8
SEIHIN
  6
CONTINUOUS
 62
     3
100
AcDbLine
 10
135.7002589801672
 20
104.2125935878528
 30
0.0
 11
139.7120518172155
 21
104.2125935878528
 31
0.0
  0
LINE
  5
7D7B
330
1A
100
AcDbEntity
  8
SEIHIN
  6
CONTINUOUS
 62
     3
100
AcDbLine
 10
129.8005544630127
 20
102.6125935878525
 30
0.0
 11
139.2106856551467
 21
102.6125935878525
 31
0.0
  0
ARC
  5
7D7C
330
1A
100
AcDbEntity
  8
SEIHIN
  6
CONTINUOUS
 62
     3
100
AcDbCircle
 10
135.1993837832474
 20
104.2117181880447
 30
0.0
 40
0.5008759619048657
100
AcDbArc
 50
0.1001380456961945
 51
90.08583765175645
  0
ARC
  5
7D7D
330
1A
100
AcDbEntity
  8
SEIHIN
  6
CONTINUOUS
 62
     3
100
AcDbCircle
 10
135.1979362253955
 20
104.2116271715921
 30
0.0
 40
0.5009669013710076
100
AcDbArc
 50
89.92026425704409
 51
179.8894705274311
  0
ARC
  5
7D7E
330
1A
100
AcDbEntity
  8
SEIHIN
  6
CONTINUOUS
 62
     3
100
AcDbCircle
 10
128.3163956444136
 20
103.2100578333855
 30
0.0
 40
1.002538204837195
100
AcDbArc
 50
89.87332144557722
 51
179.8550796537698
  0
LINE
  5
7D7F
330
1A
100
AcDbEntity
  8
SEIHIN
  6
CONTINUOUS
 62
     3
100
AcDbLine
 10
127.3138606464676
 20
103.2125935878528
 30
0.0
 11
127.3138606464676
 21
102.6125935878525
 31
0.0
  0
LINE
  5
7D80
330
1A
100
AcDbEntity
  8
SEIHIN
  6
CONTINUOUS
 62
     3
100
AcDbLine
 10
127.3138606464676
 20
102.6125935878525
 30
0.0
 11
127.1677815834505
 21
100.083897649153
 31
0.0
  0
ARC
  5
7D81
330
1A
100
AcDbEntity
  8
SEIHIN
  6
CONTINUOUS
 62
     3
100
AcDbCircle
 10
126.6674264936696
 20
100.1138421954609
 30
0.0
 40
0.5012503284026158
100
AcDbArc
 50
269.8498674377489
 51
356.5751278885691
  0
ARC
  5
7D82
330
1A
100
AcDbEntity
  8
SEIHIN
  6
CONTINUOUS
 62
     3
100
AcDbCircle
 10
126.4941938714086
 20
97.11155701294126
 30
0.0
 40
0.5010385825514636
100
AcDbArc
 50
356.8354316504776
 51
90.1621977913402
  0
ARC
  5
7D83
330
1A
100
AcDbEntity
  8
SEIHIN
  6
CONTINUOUS
 62
     3
100
AcDbCircle
 10
129.7994561455138
 20
102.1114674600111
 30
0.0
 40
0.5011273314322119
100
AcDbArc
 50
89.87442511374196
 51
176.588314821954
  0
LINE
  5
7D84
330
1A
100
AcDbEntity
  8
SEIHIN
  6
CONTINUOUS
 62
     3
100
AcDbLine
 10
129.6277334734427
 20
102.1125935878525
 30
0.0
 11
131.4380523720651
 21
102.1125935878525
 31
0.0
  0
LINE
  5
7D85
330
1A
100
AcDbEntity
  8
SEIHIN
  6
CONTINUOUS
 62
     3
100
AcDbLine
 10
129.3309015364707
 20
102.1125935878525
 30
0.0
 11
129.6277334734427
 21
102.1125935878525
 31
0.0
  0
LINE
  5
7D86
330
1A
100
AcDbEntity
  8
ﾊｯﾁﾝｸ_
100
AcDbLine
 10
130.3693014476789
 20
102.1125935878525
 30
0.0
 11
129.5829278839523
 21
101.3262200241268
 31
0.0
  0
LINE
  5
7D87
330
1A
100
AcDbEntity
  8
ﾊｯﾁﾝｸ_
100
AcDbLine
 10
132.4693014476792
 20
104.2125935878528
 30
0.0
 11
130.8693014476789
 21
102.6125935878525
 31
0.0
  0
LINE
  5
7D88
330
1A
100
AcDbEntity
  8
ﾊｯﾁﾝｸ_
100
AcDbLine
 10
129.2318813128972
 20
100.9751734530699
 30
0.0
 11
125.8693014476789
 21
97.61259358785252
 31
0.0
  0
LINE
  5
7D89
330
1A
100
AcDbEntity
  8
SEIHIN
  6
CONTINUOUS
 62
     3
100
AcDbLine
 10
127.167781583452
 20
100.0838976491544
 30
0.0
 11
126.4182415450534
 21
100.0838976491544
 31
0.0
  0
ARC
  5
7D8A
330
1A
100
AcDbEntity
  8
SEIHIN
  6
CONTINUOUS
 62
     3
100
AcDbCircle
 10
126.038518849524
 20
100.0012128209313
 30
0.0
 40
0.3886207744301613
100
AcDbArc
 50
270.1613711807527
 51
12.28442702305095
  0
LINE
  5
7D8B
330
1A
100
AcDbEntity
  8
SEIHIN
  6
CONTINUOUS
 62
     3
100
AcDbLine
 10
128.3186122123384
 20
104.2125935878528
 30
0.0
 11
134.6969702561832
 21
104.2125935878528
 31
0.0
  0
LINE
  5
7D8C
330
1A
100
AcDbEntity
  8
SEIHIN
  6
CONTINUOUS
 62
     3
100
AcDbLine
 10
141.2159857227065
 20
106.2125935878528
 30
0.0
 11
141.2159857227065
 21
104.6125935878525
 31
0.0
  0
LINE
  5
7D8D
330
1A
100
AcDbEntity
  8
SEIHIN
  6
CONTINUOUS
 62
     3
100
AcDbLine
 10
139.7120518172155
 20
106.2125935878528
 30
0.0
 11
139.7120518172155
 21
104.2125935878528
 31
0.0
  0
LINE
  5
7D8E
330
1A
100
AcDbEntity
  8
SEIHIN
  6
CONTINUOUS
 62
     3
100
AcDbLine
 10
139.2106856551486
 20
106.2125935878528
 30
0.0
 11
139.2106856551486
 21
105.7125935878528
 31
0.0
  0
LINE
  5
7D8F
330
1A
100
AcDbEntity
  8
SEIHIN
  6
CONTINUOUS
 62
     3
100
AcDbLine
 10
139.7120518172155
 20
106.2125935878528
 30
0.0
 11
141.2159857227065
 21
106.2125935878528
 31
0.0
  0
ARC
  5
7D90
330
1A
100
AcDbEntity
  8
SEIHIN
  6
CONTINUOUS
 62
     3
100
AcDbCircle
 10
139.2130641207245
 20
104.6155159095004
 30
0.0
 40
2.002923733857793
100
AcDbArc
 50
269.9319614276491
 51
359.9164038284
  0
LINE
  5
7D91
330
1A
100
AcDbEntity
  8
SEIHIN
  6
CONTINUOUS
 62
     3
100
AcDbLine
 10
141.2159857227075
 20
106.2125935878528
 30
0.0
 11
139.2106856551486
 21
106.2125935878528
 31
0.0
  0
LINE
  5
7D92
330
1A
100
AcDbEntity
  8
ﾊｯﾁﾝｸ_
100
AcDbLine
 10
141.2159857227075
 20
112.959277862882
 30
0.0
 11
139.2106856551486
 21
110.9539777953222
 31
0.0
  0
LINE
  5
7D93
330
1A
100
AcDbEntity
  8
ﾊｯﾁﾝｸ_
100
AcDbLine
 10
141.2159857227075
 20
117.4494059234174
 30
0.0
 11
139.2106856551486
 21
115.4441058558576
 31
0.0
  0
LINE
  5
7D94
330
1A
100
AcDbEntity
  8
SEIHIN
  6
CONTINUOUS
 62
     3
100
AcDbLine
 10
165.6553443417177
 20
107.9993050024921
 30
0.0
 11
165.6553443417177
 21
106.3993050024918
 31
0.0
  0
ARC
  5
7D95
330
1A
100
AcDbEntity
  8
SEIHIN
  6
CONTINUOUS
 62
     3
100
AcDbCircle
 10
167.6553443417177
 20
106.3993050024918
 30
0.0
 40
2.0
100
AcDbArc
 50
180.0
 51
270.0
  0
DIMENSION
  5
7D9F
330
1A
100
AcDbEntity
  8
SUNPOU
100
AcDbDimension
  2
*D4
 10
245.2923609104162
 20
27.23195277005959
 30
0.0
 11
215.6553443417182
 21
29.73195277005959
 31
0.0
 70
    32
  1
Φ<>
  3
STANDARD
100
AcDbAlignedDimension
 13
186.0183277730201
 23
44.7657842425882
 33
0.0
 14
245.2923609104162
 24
44.7657842425882
 34
0.0
100
AcDbRotatedDimension
1001
ACAD
1000
DSTYLE
1002
{
1070
    41
1040
3.0
1070
    42
1040
3.0
1070
    43
1040
7.0
1070
    44
1040
1.5
1070
    73
1070
     0
1070
    74
1070
     0
1070
    77
1070
     3
1070
   140
1040
3.0
1070
   141
1040
150.0
1070
   144
1040
1.0
1070
   147
1040
1.0
1070
   172
1070
     1
1070
   173
1070
     1
1070
   176
1070
     4
1070
   177
1070
     4
1070
   178
1070
     4
1070
   271
1070
     0
1070
   272
1070
     2
1070
     6
1000
OPEN
1070
     7
1000
OPEN
1002
}
  0
DIMENSION
  5
7DA0
330
1A
100
AcDbEntity
  8
SUNPOU
100
AcDbDimension
  2
*D5
 10
267.9058647755744
 20
41.99930500249218
 30
0.0
 11
265.4058647755745
 21
54.49930500249222
 31
0.0
 70
    32
  1
※<>
  3
STANDARD
100
AcDbAlignedDimension
 13
245.5053443417181
 23
66.99930500249218
 33
0.0
 14
245.5053443417181
 24
41.99930500249218
 34
0.0
 50
90.0
100
AcDbRotatedDimension
1001
ACAD
1000
DSTYLE
1002
{
1070
    41
1040
3.0
1070
    42
1040
3.0
1070
    43
1040
7.0
1070
    44
1040
1.5
1070
    73
1070
     0
1070
    74
1070
     0
1070
    77
1070
     3
1070
   140
1040
3.0
1070
   141
1040
150.0
1070
   144
1040
1.0
1070
   147
1040
1.0
1070
   172
1070
     1
1070
   173
1070
     1
1070
   176
1070
     4
1070
   177
1070
     4
1070
   178
1070
     4
1070
   271
1070
     0
1070
   272
1070
     2
1070
     6
1000
OPEN
1070
     7
1000
OPEN
1002
}
  0
LINE
  5
7DA2
330
1A
100
AcDbEntity
  8
SEIHIN
  6
CONTINUOUS
 62
     3
100
AcDbLine
 10
263.6553443417177
 20
104.3993050024918
 30
0.0
 11
215.6553443417177
 21
104.3993050024918
 31
0.0
  0
ARC
  5
7DA3
330
1A
100
AcDbEntity
  8
SEIHIN
  6
CONTINUOUS
 62
     3
100
AcDbCircle
 10
152.9113633201549
 20
85.68605193767586
 30
0.0
 40
101.8
100
AcDbArc
 50
348.8495164852157
 51
356.7531915755662
  0
ARC
  5
7DA4
330
1A
100
AcDbEntity
  8
SEIHIN
  6
CONTINUOUS
 62
     3
100
AcDbCircle
 10
278.3993253632814
 20
85.68605193767586
 30
0.0
 40
101.8
100
AcDbArc
 50
183.2468084244337
 51
191.1504835148092
  0
LINE
  5
7DA5
330
1A
100
AcDbEntity
  8
SEIHIN
  6
CONTINUOUS
 62
     3
100
AcDbLine
 10
252.7896492240987
 20
65.99930500249218
 30
0.0
 11
178.5210394593367
 21
65.99930500249218
 31
0.0
  0
LINE
  5
7DA6
330
1A
100
AcDbEntity
  8
SEIHIN
  6
CONTINUOUS
 62
     3
100
AcDbLine
 10
245.5053443417181
 20
41.99930500249218
 30
0.0
 11
185.8053443417173
 21
41.99930500249218
 31
0.0
  0
LINE
  5
7DA7
330
1A
100
AcDbEntity
  8
SEIHIN
  6
CONTINUOUS
 62
     3
100
AcDbLine
 10
185.8053443417173
 20
65.99930500249218
 30
0.0
 11
185.8053443417173
 21
41.99930500249218
 31
0.0
  0
LINE
  5
7DA8
330
1A
100
AcDbEntity
  8
SEIHIN
  6
CONTINUOUS
 62
     3
100
AcDbLine
 10
245.5053443417181
 20
41.99930500249218
 30
0.0
 11
245.5053443417181
 21
65.99930500249218
 31
0.0
  0
LINE
  5
7DA9
330
1A
100
AcDbEntity
  8
SEIHIN
  6
CONTINUOUS
 62
     3
100
AcDbLine
 10
215.9455124773757
 20
107.9993050024921
 30
0.0
 11
208.2462580560276
 21
107.9993050024921
 31
0.0
  0
LINE
  5
7DAB
330
1A
100
AcDbEntity
  8
SEIHIN
  6
CONTINUOUS
 62
     3
100
AcDbLine
 10
253.77825065905
 20
103.928000941193
 30
0.0
 11
215.6553443417177
 21
103.928000941193
 31
0.0
  0
LINE
  5
7DAC
330
1A
100
AcDbEntity
  8
SEIHIN
  6
CONTINUOUS
 62
     3
100
AcDbLine
 10
255.9082382984278
 20
103.8993050024918
 30
0.0
 11
175.4024503850085
 21
103.8993050024918
 31
0.0
  0
LINE
  5
7DAD
330
1A
100
AcDbEntity
  8
SEIHIN
  6
CONTINUOUS
 62
     3
100
AcDbLine
 10
175.4024503850085
 20
103.8993050024918
 30
0.0
 11
176.762731975169
 21
79.92038766895792
 31
0.0
  0
LINE
  5
7DB0
330
1A
100
AcDbEntity
  8
SEIHIN
  6
CONTINUOUS
 62
     3
100
AcDbLine
 10
215.6553443417177
 20
103.928000941193
 30
0.0
 11
177.5324380243863
 21
103.928000941193
 31
0.0
  0
ARC
  5
7DB1
330
1A
100
AcDbEntity
  8
SEIHIN
  6
CONTINUOUS
 62
     3
100
AcDbCircle
 10
177.0332621604846
 20
103.8993050024918
 30
0.0
 40
0.5000000000000795
100
AcDbArc
 50
3.290120223312424
 51
90.0
  0
LINE
  5
7DB2
330
1A
100
AcDbEntity
  8
SEIHIN
  6
CONTINUOUS
 62
     3
100
AcDbLine
 10
177.5324380243863
 20
103.928000941193
 30
0.0
 11
177.5340876572262
 21
103.8993050024918
 31
0.0
  0
LINE
  5
7DC0
330
1A
100
AcDbEntity
  8
SEIHIN
  6
CONTINUOUS
 62
     3
100
AcDbLine
 10
165.161587927263
 20
107.9993050024921
 30
0.0
 11
266.1491007561725
 21
107.9993050024921
 31
0.0
  0
LINE
  5
7DC1
330
1A
100
AcDbEntity
  8
SEIHIN
  6
CONTINUOUS
 62
     3
100
AcDbLine
 10
254.5479567082673
 20
79.92038766895792
 30
0.0
 11
255.9082382984278
 21
103.8993050024918
 31
0.0
  0
ARC
  5
7DCB
330
1A
100
AcDbEntity
  8
SEIHIN
  6
CONTINUOUS
 62
     3
100
AcDbCircle
 10
254.2774265229517
 20
103.8993050024918
 30
0.0
 40
0.5000000000000795
100
AcDbArc
 50
90.0
 51
176.7098797766875
  0
LINE
  5
7DCC
330
1A
100
AcDbEntity
  8
SEIHIN
  6
CONTINUOUS
 62
     3
100
AcDbLine
 10
253.7766010262092
 20
103.8993050024918
 30
0.0
 11
253.77825065905
 21
103.928000941193
 31
0.0
  0
LINE
  5
7DD6
330
1A
100
AcDbEntity
  8
SEIHIN
  6
CONTINUOUS
 62
     3
100
AcDbLine
 10
265.6553443417177
 20
106.3993050024918
 30
0.0
 11
265.6553443417177
 21
107.9993050024921
 31
0.0
  0
ARC
  5
7DD7
330
1A
100
AcDbEntity
  8
SEIHIN
  6
CONTINUOUS
 62
     3
100
AcDbCircle
 10
263.6553443417177
 20
106.3993050024918
 30
0.0
 40
2.0
100
AcDbArc
 50
270.0
 51
0.0
  0
LINE
  5
7DE1
330
1A
100
AcDbEntity
  8
SEIHIN
  6
CONTINUOUS
 62
     3
100
AcDbLine
 10
41.46970256201211
 20
119.7125935878528
 30
0.0
 11
141.2159857227075
 21
119.7125935878529
 31
0.0
  0
LINE
  5
7DE2
330
1A
100
AcDbEntity
  8
SEIHIN
  6
CONTINUOUS
 62
     3
100
AcDbLine
 10
47.41097318583206
 20
119.7125935878528
 30
0.0
 11
47.15191157808521
 21
119.7125935878528
 31
0.0
  0
LINE
  5
7DE6
330
1A
100
AcDbEntity
  8
SEIHIN
  6
CONTINUOUS
 62
     3
100
AcDbLine
 10
58.22594167834222
 20
119.7125935878528
 30
0.0
 11
58.10219539978288
 21
119.7125935878528
 31
0.0
  0
LINE
  5
7DE7
330
1A
100
AcDbEntity
  8
SEIHIN
  6
CONTINUOUS
 62
     3
100
AcDbLine
 10
52.22415667017094
 20
119.7125935878528
 30
0.0
 11
52.03751331861667
 21
119.7125935878528
 31
0.0
  0
LINE
  5
7DE8
330
1A
100
AcDbEntity
  8
SEIHIN
  6
CONTINUOUS
 62
     3
100
AcDbLine
 10
65.23396700992043
 20
119.7125935878528
 30
0.0
 11
65.16168552542467
 21
119.7125935878528
 31
0.0
  0
LINE
  5
7DE9
330
1A
100
AcDbEntity
  8
SEIHIN
  6
CONTINUOUS
 62
     3
100
AcDbLine
 10
81.39289325783057
 20
119.7125935878528
 30
0.0
 11
81.38338447497108
 21
119.7125935878528
 31
0.0
  0
LINE
  5
7DEA
330
1A
100
AcDbEntity
  8
SEIHIN
  6
CONTINUOUS
 62
     3
100
AcDbLine
 10
73.03529736143946
 20
119.7125935878528
 30
0.0
 11
73.00148466034944
 21
119.7125935878528
 31
0.0
  0
LINE
  5
7DEB
330
1A
100
AcDbEntity
  8
SEIHIN
  6
CONTINUOUS
 62
     3
100
AcDbLine
 10
90.05281337693077
 20
119.7125935878528
 30
0.0
 11
90.05270518486804
 21
119.7125935878528
 31
0.0
  0
LINE
  5
7DEC
330
1A
100
AcDbEntity
  8
SEIHIN
  6
CONTINUOUS
 62
     3
100
AcDbLine
 10
99.74603386716035
 20
119.7125935878528
 30
0.0
 11
99.73934698729728
 21
119.7125935878528
 31
0.0
  0
LINE
  5
7DED
330
1A
100
AcDbEntity
  8
CENTER_L
  6
CENTER
 62
     1
 48
5.0
100
AcDbLine
 10
216.525788516621
 20
144.5599357923659
 30
0.0
 11
216.525788516621
 21
263.0255536065404
 31
0.0
  0
ARC
  5
7DEE
330
1A
100
AcDbEntity
  8
SEIHIN
  6
CONTINUOUS
 62
     3
100
AcDbCircle
 10
216.525788516621
 20
203.7927446994532
 30
0.0
 40
50.0
100
AcDbArc
 50
61.47843042186994
 51
70.332510056898
  0
ARC
  5
7DEF
330
1A
100
AcDbEntity
  8
SEIHIN
  6
CONTINUOUS
 62
     3
100
AcDbCircle
 10
216.525788516621
 20
203.7927446994532
 30
0.0
 40
50.0
100
AcDbArc
 50
111.478430421885
 51
120.3325100568886
  0
ARC
  5
7DF0
330
1A
100
AcDbEntity
  8
SEIHIN
  6
CONTINUOUS
 62
     3
100
AcDbCircle
 10
198.6844290346097
 20
250.5012652479951
 30
0.0
 40
0.5000000000002417
100
AcDbArc
 50
20.61899014813872
 51
201.1919503306255
  0
CIRCLE
  5
7DF1
330
1A
100
AcDbEntity
  8
SEIHIN
  6
CONTINUOUS
 62
     3
100
AcDbCircle
 10
216.525788516621
 20
203.7927446994532
 30
0.0
 40
48.00000000000004
  0
CIRCLE
  5
7DF2
330
1A
100
AcDbEntity
  8
SEIHIN
  6
CONTINUOUS
 62
     3
100
AcDbCircle
 10
216.525788516621
 20
203.7927446994532
 30
0.0
 40
47.00000000000005
  0
LINE
  5
7DF3
330
1A
100
AcDbEntity
  8
CENTER_L
  6
CENTER
 62
     1
 48
5.0
100
AcDbLine
 10
275.7585974237151
 20
203.7927446994532
 30
0.0
 11
157.2929796095408
 21
203.7927446994532
 31
0.0
  0
ARC
  5
7DF4
330
1A
100
AcDbEntity
  8
SEIHIN
  6
CONTINUOUS
 62
     3
100
AcDbCircle
 10
172.8348559523464
 20
228.105342496971
 30
0.0
 40
0.500000000000218
100
AcDbArc
 50
60.61899014813715
 51
241.1919503306382
  0
ARC
  5
7DF5
330
1A
100
AcDbEntity
  8
SEIHIN
  6
CONTINUOUS
 62
     3
100
AcDbCircle
 10
216.525788516621
 20
203.7927446994532
 30
0.0
 40
50.00000000000015
100
AcDbArc
 50
201.4784304218696
 51
210.3325100569001
  0
DIMENSION
  5
7DF7
330
1A
100
AcDbEntity
  8
SUNPOU
100
AcDbDimension
  2
*D6
 10
265.5284859220663
 20
139.602674056773
 30
0.0
 11
215.6553443417182
 21
142.102674056773
 31
0.0
 70
    32
  1
φ<>
  3
STANDARD
100
AcDbAlignedDimension
 13
165.78220276137
 23
121.4993050024921
 33
0.0
 14
265.5284859220663
 24
121.4993050024921
 34
0.0
100
AcDbRotatedDimension
1001
ACAD
1000
DSTYLE
1002
{
1070
    41
1040
3.0
1070
    42
1040
3.0
1070
    43
1040
7.0
1070
    44
1040
1.5
1070
    73
1070
     0
1070
    74
1070
     0
1070
    77
1070
     3
1070
   140
1040
3.0
1070
   141
1040
150.0
1070
   144
1040
1.0
1070
   147
1040
1.0
1070
   172
1070
     1
1070
   173
1070
     1
1070
   176
1070
     4
1070
   177
1070
     4
1070
   178
1070
     4
1070
   271
1070
     0
1070
   272
1070
     2
1070
     6
1000
OPEN
1070
     7
1000
OPEN
1002
}
  0
LINE
  5
7DF8
330
1A
100
AcDbEntity
  8
SEIHIN
  6
CONTINUOUS
 62
     3
100
AcDbLine
 10
108.1992281288698
 20
119.7125935878528
 30
0.0
 11
108.1708944777842
 21
119.7125935878528
 31
0.0
  0
LINE
  5
7DF9
330
1A
100
AcDbEntity
  8
SEIHIN
  6
CONTINUOUS
 62
     3
100
AcDbLine
 10
123.3729297695804
 20
119.7125935878528
 30
0.0
 11
123.2594017228398
 21
119.7125935878528
 31
0.0
  0
LINE
  5
7DFA
330
1A
100
AcDbEntity
  8
SEIHIN
  6
CONTINUOUS
 62
     3
100
AcDbLine
 10
116.1554419398803
 20
119.7125935878528
 30
0.0
 11
116.091130174233
 21
119.7125935878528
 31
0.0
  0
LINE
  5
7DFB
330
1A
100
AcDbEntity
  8
SEIHIN
  6
CONTINUOUS
 62
     3
100
AcDbLine
 10
134.7436377491444
 20
119.7125935878528
 30
0.0
 11
134.498301085468
 21
119.7125935878528
 31
0.0
  0
LINE
  5
7DFC
330
1A
100
AcDbEntity
  8
SEIHIN
  6
CONTINUOUS
 62
     3
100
AcDbLine
 10
129.6323919024903
 20
119.7125935878528
 30
0.0
 11
129.4579048199216
 21
119.7125935878528
 31
0.0
  0
ARC
  5
7E09
330
1A
100
AcDbEntity
  8
SEIHIN
  6
CONTINUOUS
 62
     3
100
AcDbCircle
 10
216.525788516621
 20
203.7927446994532
 30
0.0
 40
50.00000000000017
100
AcDbArc
 50
171.4784304218802
 51
180.3325100569101
  0
ARC
  5
7E0A
330
1A
100
AcDbEntity
  8
SEIHIN
  6
CONTINUOUS
 62
     3
100
AcDbCircle
 10
216.525788516621
 20
203.7927446994532
 30
0.0
 40
50.00000000000015
100
AcDbArc
 50
181.4784304218604
 51
190.3325100569148
  0
ARC
  5
7E0B
330
1A
100
AcDbEntity
  8
SEIHIN
  6
CONTINUOUS
 62
     3
100
AcDbCircle
 10
167.428755787534
 20
194.3332850320626
 30
0.0
 40
0.5000000000001876
100
AcDbArc
 50
100.6189901481292
 51
281.1919503306118
  0
ARC
  5
7E0C
330
1A
100
AcDbEntity
  8
SEIHIN
  6
CONTINUOUS
 62
     3
100
AcDbCircle
 10
169.8172679680782
 20
185.951385217441
 30
0.0
 40
0.5000000000001354
100
AcDbArc
 50
110.6189901481464
 51
291.1919503306356
  0
ARC
  5
7E0D
330
1A
100
AcDbEntity
  8
SEIHIN
  6
CONTINUOUS
 62
     3
100
AcDbCircle
 10
216.525788516621
 20
203.7927446994532
 30
0.0
 40
50.00000000000015
100
AcDbArc
 50
191.4784304218746
 51
200.3325100568944
  0
ARC
  5
7E0E
330
1A
100
AcDbEntity
  8
SEIHIN
  6
CONTINUOUS
 62
     3
100
AcDbCircle
 10
166.5320321021662
 20
203.0026057419605
 30
0.0
 40
0.5000000000002265
100
AcDbArc
 50
90.61899014814537
 51
271.1919503306386
  0
ARC
  5
7E0F
330
1A
100
AcDbEntity
  8
SEIHIN
  6
CONTINUOUS
 62
     3
100
AcDbCircle
 10
216.525788516621
 20
203.7927446994532
 30
0.0
 40
50.00000000000011
100
AcDbArc
 50
161.4784304218611
 51
170.3325100569167
  0
ARC
  5
7E10
330
1A
100
AcDbEntity
  8
SEIHIN
  6
CONTINUOUS
 62
     3
100
AcDbCircle
 10
167.15434340739
 20
211.6959344242519
 30
0.0
 40
0.5000000000001736
100
AcDbArc
 50
80.61899014812498
 51
261.191950330631
  0
ARC
  5
7E11
330
1A
100
AcDbEntity
  8
SEIHIN
  6
CONTINUOUS
 62
     3
100
AcDbCircle
 10
169.2767810891017
 20
220.1491286859624
 30
0.0
 40
0.5000000000002204
100
AcDbArc
 50
70.61899014812983
 51
251.1919503306399
  0
ARC
  5
7E12
330
1A
100
AcDbEntity
  8
SEIHIN
  6
CONTINUOUS
 62
     3
100
AcDbCircle
 10
216.525788516621
 20
203.7927446994532
 30
0.0
 40
50.00000000000005
100
AcDbArc
 50
151.4784304218702
 51
160.3325100569043
  0
ARC
  5
7E13
330
1A
100
AcDbEntity
  8
SEIHIN
  6
CONTINUOUS
 62
     3
100
AcDbCircle
 10
216.525788516621
 20
203.7927446994532
 30
0.0
 40
50.00000000000015
100
AcDbArc
 50
301.4784304218745
 51
310.3325100569172
  0
ARC
  5
7E14
330
1A
100
AcDbEntity
  8
SEIHIN
  6
CONTINUOUS
 62
     3
100
AcDbCircle
 10
216.525788516621
 20
203.7927446994532
 30
0.0
 40
50.00000000000014
100
AcDbArc
 50
231.478430421865
 51
240.332510056917
  0
LINE
  5
7E16
330
1A
100
AcDbEntity
  8
SEIHIN
  6
CONTINUOUS
 62
     3
100
AcDbLine
 10
266.1491007561725
 20
121.4993050024921
 30
0.0
 11
165.161587927263
 21
121.4993050024921
 31
0.0
  0
LINE
  5
7E26
330
1A
100
AcDbEntity
  8
SEIHIN
  6
CONTINUOUS
 62
     3
100
AcDbLine
 10
214.3653135762878
 20
121.4993050024921
 30
0.0
 11
214.3652053842259
 21
121.4993050024921
 31
0.0
  0
ARC
  5
7E39
330
1A
100
AcDbEntity
  8
SEIHIN
  6
CONTINUOUS
 62
     3
100
AcDbCircle
 10
216.525788516621
 20
203.7927446994532
 30
0.0
 40
50.00000000000017
100
AcDbArc
 50
261.4784304218773
 51
270.3325100568841
  0
ARC
  5
7E3A
330
1A
100
AcDbEntity
  8
SEIHIN
  6
CONTINUOUS
 62
     3
100
AcDbCircle
 10
216.525788516621
 20
203.7927446994532
 30
0.0
 40
50.00000000000018
100
AcDbArc
 50
241.4784304218699
 51
250.3325100568978
  0
ARC
  5
7E3B
330
1A
100
AcDbEntity
  8
SEIHIN
  6
CONTINUOUS
 62
     3
100
AcDbCircle
 10
192.2131907191013
 20
160.1018121351759
 30
0.0
 40
0.500000000000218
100
AcDbArc
 50
150.6189901481364
 51
331.1919503306189
  0
ARC
  5
7E3C
330
1A
100
AcDbEntity
  8
SEIHIN
  6
CONTINUOUS
 62
     3
100
AcDbCircle
 10
216.525788516621
 20
203.7927446994532
 30
0.0
 40
50.00000000000017
100
AcDbArc
 50
251.4784304218515
 51
260.3325100569133
  0
ARC
  5
7E3D
330
1A
100
AcDbEntity
  8
SEIHIN
  6
CONTINUOUS
 62
     3
100
AcDbCircle
 10
200.1694045301109
 20
156.5437372719321
 30
0.0
 40
0.5000000000001826
100
AcDbArc
 50
160.6189901481533
 51
341.1919503306069
  0
ARC
  5
7E3E
330
1A
100
AcDbEntity
  8
SEIHIN
  6
CONTINUOUS
 62
     3
100
AcDbCircle
 10
208.6225987918213
 20
154.4212995902204
 30
0.0
 40
0.5000000000001736
100
AcDbArc
 50
170.6189901481507
 51
351.1919503306081
  0
ARC
  5
7E3F
330
1A
100
AcDbEntity
  8
SEIHIN
  6
CONTINUOUS
 62
     3
100
AcDbCircle
 10
216.525788516621
 20
203.7927446994532
 30
0.0
 40
50.00000000000006
100
AcDbArc
 50
291.4784304218851
 51
300.3325100568884
  0
ARC
  5
7E40
330
1A
100
AcDbEntity
  8
SEIHIN
  6
CONTINUOUS
 62
     3
100
AcDbCircle
 10
216.525788516621
 20
203.7927446994532
 30
0.0
 40
50.00000000000015
100
AcDbArc
 50
281.4784304218749
 51
290.3325100568975
  0
ARC
  5
7E41
330
1A
100
AcDbEntity
  8
SEIHIN
  6
CONTINUOUS
 62
     3
100
AcDbCircle
 10
225.9852481840106
 20
154.6957119703644
 30
0.0
 40
0.5000000000002087
100
AcDbArc
 50
190.6189901481592
 51
11.191950330612
  0
ARC
  5
7E42
330
1A
100
AcDbEntity
  8
SEIHIN
  6
CONTINUOUS
 62
     3
100
AcDbCircle
 10
217.3159274741127
 20
153.7989882849966
 30
0.0
 40
0.5000000000002265
100
AcDbArc
 50
180.6189901481453
 51
1.191950330638702
  0
ARC
  5
7E43
330
1A
100
AcDbEntity
  8
SEIHIN
  6
CONTINUOUS
 62
     3
100
AcDbCircle
 10
216.525788516621
 20
203.7927446994532
 30
0.0
 40
50.00000000000014
100
AcDbArc
 50
271.4784304218865
 51
280.3325100568844
  0
ARC
  5
7E44
330
1A
100
AcDbEntity
  8
SEIHIN
  6
CONTINUOUS
 62
     3
100
AcDbCircle
 10
234.3671479986322
 20
157.0842241509095
 30
0.0
 40
0.5000000000001191
100
AcDbArc
 50
200.618990148117
 51
21.19195033062558
  0
ARC
  5
7E45
330
1A
100
AcDbEntity
  8
SEIHIN
  6
CONTINUOUS
 62
     3
100
AcDbCircle
 10
242.2069471335561
 20
160.8919510926686
 30
0.0
 40
0.500000000000155
100
AcDbArc
 50
210.6189901481295
 51
31.19195033062516
  0
ARC
  5
7E4E
330
1A
100
AcDbEntity
  8
SEIHIN
  6
CONTINUOUS
 62
     3
100
AcDbCircle
 10
216.525788516621
 20
203.7927446994532
 30
0.0
 40
49.99999999999997
100
AcDbArc
 50
31.47843042185915
 51
40.33251005691198
  0
ARC
  5
7E4F
330
1A
100
AcDbEntity
  8
SEIHIN
  6
CONTINUOUS
 62
     3
100
AcDbCircle
 10
259.4265821234038
 20
229.4739033163883
 30
0.0
 40
0.500000000000155
100
AcDbArc
 50
300.6189901481295
 51
121.1919503306468
  0
ARC
  5
7E50
330
1A
100
AcDbEntity
  8
SEIHIN
  6
CONTINUOUS
 62
     3
100
AcDbCircle
 10
216.525788516621
 20
203.7927446994532
 30
0.0
 40
49.99999999999995
100
AcDbArc
 50
321.4784304218633
 51
330.3325100568976
  0
ARC
  5
7E51
330
1A
100
AcDbEntity
  8
SEIHIN
  6
CONTINUOUS
 62
     3
100
AcDbCircle
 10
216.525788516621
 20
203.7927446994532
 30
0.0
 40
24.50000000000002
100
AcDbArc
 50
346.1376942928511
 51
15.67324618591142
  0
ARC
  5
7E52
330
1A
100
AcDbEntity
  8
SEIHIN
  6
CONTINUOUS
 62
     3
100
AcDbCircle
 10
216.525788516621
 20
203.7927446994532
 30
0.0
 40
26.00000000000023
100
AcDbArc
 50
137.7151734532337
 51
225.905470239391
  0
CIRCLE
  5
7E53
330
1A
100
AcDbEntity
  8
SEIHIN
  6
CONTINUOUS
 62
     3
100
AcDbCircle
 10
216.525788516621
 20
203.7927446994532
 30
0.0
 40
26.50000000000007
  0
CIRCLE
  5
7E54
330
1A
100
AcDbEntity
  8
SEIHIN
  6
CONTINUOUS
 62
     3
100
AcDbCircle
 10
216.525788516621
 20
203.7927446994532
 30
0.0
 40
26.00000000000015
  0
DIMENSION
  5
7E55
330
1A
100
AcDbEntity
  8
SUNPOU
100
AcDbDimension
  2
*D7
 10
195.4357975650726
 20
188.5870785955456
 30
0.0
 11
223.4466325541631
 21
216.5008608004577
 31
0.0
 70
   163
  3
STANDARD
100
AcDbDiametricDimension
 15
237.6157794681765
 25
218.9984108033558
 35
0.0
 40
0.0
1001
ACAD
1000
DSTYLE
1002
{
1070
   287
1070
     5
1070
   287
1070
     5
1070
   287
1070
     5
1070
   287
1070
     5
1070
   287
1070
     5
1070
   287
1070
     5
1070
   287
1070
     5
1070
   144
1040
1.0
1070
    41
1040
3.0
1070
    42
1040
3.0
1070
    43
1040
7.0
1070
    44
1040
1.5
1070
    73
1070
     0
1070
    74
1070
     0
1070
    77
1070
     3
1070
   140
1040
3.0
1070
   141
1040
150.0
1070
   147
1040
1.0
1070
   172
1070
     1
1070
   173
1070
     1
1070
   176
1070
     4
1070
   177
1070
     4
1070
   178
1070
     4
1070
   271
1070
     0
1070
   272
1070
     2
1070
   279
1070
     2
1070
   288
1070
     1
1070
     6
1000
OPEN
1070
     7
1000
OPEN
1002
}
  0
ARC
  5
7E56
330
1A
100
AcDbEntity
  8
SEIHIN
  6
CONTINUOUS
 62
     3
100
AcDbCircle
 10
216.525788516621
 20
203.7927446994532
 30
0.0
 40
26.00000000000006
100
AcDbArc
 50
257.7077289575376
 51
344.1151206389972
  0
ARC
  5
7E57
330
1A
100
AcDbEntity
  8
SEIHIN
  6
CONTINUOUS
 62
     3
100
AcDbCircle
 10
216.5257885166218
 20
203.7927446994532
 30
0.0
 40
24.50000000000073
100
AcDbArc
 50
226.137694292847
 51
255.6732461859058
  0
ARC
  5
7E58
330
1A
100
AcDbEntity
  8
SEIHIN
  6
CONTINUOUS
 62
     3
100
AcDbCircle
 10
216.525788516621
 20
203.7927446994532
 30
0.0
 40
50.00000000000017
100
AcDbArc
 50
211.4784304218605
 51
220.3325100569092
  0
ARC
  5
7E59
330
1A
100
AcDbEntity
  8
SEIHIN
  6
CONTINUOUS
 62
     3
100
AcDbCircle
 10
216.525788516621
 20
203.7927446994532
 30
0.0
 40
50.00000000000015
100
AcDbArc
 50
221.478430421844
 51
230.3325100569185
  0
ARC
  5
7E5A
330
1A
100
AcDbEntity
  8
SEIHIN
  6
CONTINUOUS
 62
     3
100
AcDbCircle
 10
178.7362407564904
 20
171.0520959568754
 30
0.0
 40
0.5000000000002062
100
AcDbArc
 50
130.6189901481127
 51
311.1919503306379
  0
ARC
  5
7E5B
330
1A
100
AcDbEntity
  8
SEIHIN
  6
CONTINUOUS
 62
     3
100
AcDbCircle
 10
184.9957028894003
 20
164.9874138757082
 30
0.0
 40
0.5000000000003211
100
AcDbArc
 50
140.618990148139
 51
321.1919503306584
  0
ARC
  5
7E5C
330
1A
100
AcDbEntity
  8
SEIHIN
  6
CONTINUOUS
 62
     3
100
AcDbCircle
 10
173.6249949098381
 20
178.1115860825181
 30
0.0
 40
0.5000000000000572
100
AcDbArc
 50
120.6189901481295
 51
301.1919503306468
  0
ARC
  5
7E5D
330
1A
100
AcDbEntity
  8
SEIHIN
  6
CONTINUOUS
 62
     3
100
AcDbCircle
 10
214.6958173417605
 20
204.126166962104
 30
0.0
 40
25.19974380136687
100
AcDbArc
 50
236.0865839151664
 51
262.0543459241813
  0
ARC
  5
7E5E
330
1A
100
AcDbEntity
  8
SEIHIN
  6
CONTINUOUS
 62
     3
100
AcDbCircle
 10
210.2157762850473
 20
179.0857872656111
 30
0.0
 40
1.000000000003907
100
AcDbArc
 50
4.735886984886052
 51
75.67324618579828
  0
LINE
  5
7E5F
330
1A
100
AcDbEntity
  8
SEIHIN
  6
CONTINUOUS
 62
     3
100
AcDbLine
 10
211.0895949363356
 20
178.5995353096646
 30
0.0
 11
210.9742936291294
 21
178.3923331966021
 31
0.0
  0
ARC
  5
7E60
330
1A
100
AcDbEntity
  8
SEIHIN
  6
CONTINUOUS
 62
     3
100
AcDbCircle
 10
210.2157762850501
 20
179.0857872656148
 30
0.0
 40
1.000000000001143
100
AcDbArc
 50
330.9054702393737
 51
4.735886984704568
  0
LINE
  5
7E61
330
1A
100
AcDbEntity
  8
SEIHIN
  6
CONTINUOUS
 62
     3
100
AcDbLine
 10
197.8670138598471
 20
185.6861125358578
 30
0.0
 11
197.9823151670533
 21
185.8933146489204
 31
0.0
  0
ARC
  5
7E62
330
1A
100
AcDbEntity
  8
SEIHIN
  6
CONTINUOUS
 62
     3
100
AcDbCircle
 10
198.8561338183388
 20
185.4070626929702
 30
0.0
 40
0.999999999999996
100
AcDbArc
 50
46.13769429286547
 51
150.9054702393737
  0
ARC
  5
7E63
330
1A
100
AcDbEntity
  8
SEIHIN
  6
CONTINUOUS
 62
     3
100
AcDbCircle
 10
255.3311193403641
 20
172.2626590722308
 30
0.0
 40
0.5000000000003211
100
AcDbArc
 50
230.618990148139
 51
51.19195033062329
  0
ARC
  5
7E64
330
1A
100
AcDbEntity
  8
SEIHIN
  6
CONTINUOUS
 62
     3
100
AcDbCircle
 10
216.525788516621
 20
203.7927446994532
 30
0.0
 40
50.00000000000007
100
AcDbArc
 50
311.4784304218648
 51
320.332510056896
  0
ARC
  5
7E65
330
1A
100
AcDbEntity
  8
SEIHIN
  6
CONTINUOUS
 62
     3
100
AcDbCircle
 10
249.2664372591979
 20
166.0031969393209
 30
0.0
 40
0.5000000000000561
100
AcDbArc
 50
220.6189901481363
 51
41.19195033062125
  0
LINE
  5
7E66
330
1A
100
AcDbEntity
  8
SEIHIN
  6
CONTINUOUS
 62
     3
100
AcDbLine
 10
241.5359792756615
 20
196.6870879249933
 30
0.0
 11
241.2988863284279
 21
196.6833407295913
 31
0.0
  0
ARC
  5
7E67
330
1A
100
AcDbEntity
  8
SEIHIN
  6
CONTINUOUS
 62
     3
100
AcDbCircle
 10
241.2830835492785
 20
197.6832158578823
 30
0.0
 40
0.9999999999999932
100
AcDbArc
 50
166.1376942928511
 51
270.9054702394128
  0
ARC
  5
7E68
330
1A
100
AcDbEntity
  8
SEIHIN
  6
CONTINUOUS
 62
     3
100
AcDbCircle
 10
216.525788516621
 20
203.7927446994532
 30
0.0
 40
26.0
100
AcDbArc
 50
90.0
 51
113.5026637351605
  0
ARC
  5
7E69
330
1A
100
AcDbEntity
  8
SEIHIN
  6
CONTINUOUS
 62
     3
100
AcDbCircle
 10
209.4381481822473
 20
228.2879555475052
 30
0.0
 40
1.000000000000085
100
AcDbArc
 50
286.1376942928509
 51
30.9054702393646
  0
ARC
  5
7E6A
330
1A
100
AcDbEntity
  8
SEIHIN
  6
CONTINUOUS
 62
     3
100
AcDbCircle
 10
216.525788516621
 20
203.7927446994532
 30
0.0
 40
50.00000000000004
100
AcDbArc
 50
141.4784304218636
 51
150.3325100568983
  0
ARC
  5
7E6B
330
1A
100
AcDbEntity
  8
SEIHIN
  6
CONTINUOUS
 62
     3
100
AcDbCircle
 10
216.52578851662
 20
203.7927446994532
 30
0.0
 40
24.49999999999801
100
AcDbArc
 50
106.1376942928442
 51
135.6732461859025
  0
LINE
  5
7E6C
330
1A
100
AcDbEntity
  8
SEIHIN
  6
CONTINUOUS
 62
     3
100
AcDbLine
 10
197.4259259723474
 20
221.0972311347637
 30
0.0
 11
197.3041343323201
 21
221.3006860524243
 31
0.0
  0
ARC
  5
7E6D
330
1A
100
AcDbEntity
  8
SEIHIN
  6
CONTINUOUS
 62
     3
100
AcDbCircle
 10
198.2839418444799
 20
221.610854307141
 30
0.0
 40
1.000000000030215
100
AcDbArc
 50
210.9054702414916
 51
315.6732461843917
  0
ARC
  5
7E6E
330
1A
100
AcDbEntity
  8
SEIHIN
  6
CONTINUOUS
 62
     3
100
AcDbCircle
 10
216.525788516621
 20
203.7927446994532
 30
0.0
 40
50.00000000000003
100
AcDbArc
 50
131.4784304218651
 51
140.332510056896
  0
ARC
  5
7E6F
330
1A
100
AcDbEntity
  8
SEIHIN
  6
CONTINUOUS
 62
     3
100
AcDbCircle
 10
177.7204576928778
 20
235.322830326672
 30
0.0
 40
0.5000000000001612
100
AcDbArc
 50
50.61899014813906
 51
231.1919503306235
  0
ARC
  5
7E70
330
1A
100
AcDbEntity
  8
SEIHIN
  6
CONTINUOUS
 62
     3
100
AcDbCircle
 10
183.785139774044
 20
241.5822924595819
 30
0.0
 40
0.5000000000001199
100
AcDbArc
 50
40.61899014813664
 51
221.191950330624
  0
ARC
  5
7E71
330
1A
100
AcDbEntity
  8
SEIHIN
  6
CONTINUOUS
 62
     3
100
AcDbCircle
 10
216.525788516621
 20
203.7927446994532
 30
0.0
 40
50.00000000000003
100
AcDbArc
 50
121.478430421874
 51
130.3325100569167
  0
ARC
  5
7E72
330
1A
100
AcDbEntity
  8
SEIHIN
  6
CONTINUOUS
 62
     3
100
AcDbCircle
 10
190.8446298996858
 20
246.693538306236
 30
0.0
 40
0.500000000000155
100
AcDbArc
 50
30.61899014812953
 51
211.1919503306258
  0
LINE
  5
7E73
330
1A
100
AcDbEntity
  8
SEIHIN
  6
CONTINUOUS
 62
     3
100
AcDbLine
 10
210.1743724143542
 20
229.0050336375049
 30
0.0
 11
210.2961640543825
 21
228.8015787198443
 31
0.0
  0
ARC
  5
7E74
330
1A
100
AcDbEntity
  8
SEIHIN
  6
CONTINUOUS
 62
     3
100
AcDbCircle
 10
216.525788516621
 20
203.7927446994532
 30
0.0
 40
26.0
100
AcDbArc
 50
17.69709745226536
 51
90.0
  0
ARC
  5
7E75
330
1A
100
AcDbEntity
  8
SEIHIN
  6
CONTINUOUS
 62
     3
100
AcDbCircle
 10
241.0776474203302
 20
210.6815925256402
 30
0.0
 40
0.9999999999999909
100
AcDbArc
 50
90.90547023936077
 51
195.6732461859093
  0
LINE
  5
7E76
330
1A
100
AcDbEntity
  8
SEIHIN
  6
CONTINUOUS
 62
     3
100
AcDbLine
 10
241.0618446411807
 20
211.6814676539275
 30
0.0
 11
241.2989375884143
 21
211.6852148493295
 31
0.0
  0
ARC
  5
7E77
330
1A
100
AcDbEntity
  8
SEIHIN
  6
CONTINUOUS
 62
     3
100
AcDbCircle
 10
216.525788516621
 20
203.7927446994532
 30
0.0
 40
49.99999999999992
100
AcDbArc
 50
41.47843042184318
 51
50.33251005691907
  0
ARC
  5
7E78
330
1A
100
AcDbEntity
  8
SEIHIN
  6
CONTINUOUS
 62
     3
100
AcDbCircle
 10
254.3153362767515
 20
236.5333934420292
 30
0.0
 40
0.5000000000000561
100
AcDbArc
 50
310.6189901481722
 51
131.1919503306376
  0
ARC
  5
7E79
330
1A
100
AcDbEntity
  8
SEIHIN
  6
CONTINUOUS
 62
     3
100
AcDbCircle
 10
248.0558741438416
 20
242.5980755231963
 30
0.0
 40
0.5000000000001612
100
AcDbArc
 50
320.618990148139
 51
141.1919503306089
  0
ARC
  5
7E7A
330
1A
100
AcDbEntity
  8
SEIHIN
  6
CONTINUOUS
 62
     3
100
AcDbCircle
 10
240.8383863141406
 20
247.4836772637269
 30
0.0
 40
0.5000000000001622
100
AcDbArc
 50
330.6189901481609
 51
151.1919503306162
  0
ARC
  5
7E7B
330
1A
100
AcDbEntity
  8
SEIHIN
  6
CONTINUOUS
 62
     3
100
AcDbCircle
 10
216.525788516621
 20
203.7927446994532
 30
0.0
 40
50.00000000000002
100
AcDbArc
 50
51.47843042186448
 51
60.33251005691681
  0
ARC
  5
7E7C
330
1A
100
AcDbEntity
  8
SEIHIN
  6
CONTINUOUS
 62
     3
100
AcDbCircle
 10
216.525788516621
 20
203.7927446994532
 30
0.0
 40
50.00000000000004
100
AcDbArc
 50
1.478430421860435
 51
10.33251005691482
  0
ARC
  5
7E7D
330
1A
100
AcDbEntity
  8
SEIHIN
  6
CONTINUOUS
 62
     3
100
AcDbCircle
 10
216.525788516621
 20
203.7927446994532
 30
0.0
 40
50.00000000000007
100
AcDbArc
 50
331.4784304218702
 51
340.3325100569043
  0
ARC
  5
7E7E
330
1A
100
AcDbEntity
  8
SEIHIN
  6
CONTINUOUS
 62
     3
100
AcDbCircle
 10
260.2167210808965
 20
179.4801469019317
 30
0.0
 40
0.500000000000119
100
AcDbArc
 50
240.6189901481371
 51
61.19195033063038
  0
ARC
  5
7E7F
330
1A
100
AcDbEntity
  8
SEIHIN
  6
CONTINUOUS
 62
     3
100
AcDbCircle
 10
265.897233625852
 20
195.8895549746527
 30
0.0
 40
0.5000000000000614
100
AcDbArc
 50
260.618990148125
 51
81.19195033063109
  0
ARC
  5
7E80
330
1A
100
AcDbEntity
  8
SEIHIN
  6
CONTINUOUS
 62
     3
100
AcDbCircle
 10
263.7747959441411
 20
187.4363607129422
 30
0.0
 40
0.5000000000003277
100
AcDbArc
 50
250.6189901481298
 51
71.19195033059181
  0
ARC
  5
7E81
330
1A
100
AcDbEntity
  8
SEIHIN
  6
CONTINUOUS
 62
     3
100
AcDbCircle
 10
216.525788516621
 20
203.7927446994532
 30
0.0
 40
50.0000000000001
100
AcDbArc
 50
341.4784304218844
 51
350.3325100569167
  0
ARC
  5
7E82
330
1A
100
AcDbEntity
  8
SEIHIN
  6
CONTINUOUS
 62
     3
100
AcDbCircle
 10
266.5195449310757
 20
204.5828836569441
 30
0.0
 40
0.5000000000001116
100
AcDbArc
 50
270.6189901481453
 51
91.19195033063872
  0
ARC
  5
7E83
330
1A
100
AcDbEntity
  8
SEIHIN
  6
CONTINUOUS
 62
     3
100
AcDbCircle
 10
216.525788516621
 20
203.7927446994532
 30
0.0
 40
50.00000000000003
100
AcDbArc
 50
351.4784304218802
 51
0.3325100569101921
  0
ARC
  5
7E84
330
1A
100
AcDbEntity
  8
SEIHIN
  6
CONTINUOUS
 62
     3
100
AcDbCircle
 10
216.525788516621
 20
203.7927446994532
 30
0.0
 40
49.99999999999988
100
AcDbArc
 50
21.47843042186961
 51
30.33251005690043
  0
ARC
  5
7E85
330
1A
100
AcDbEntity
  8
SEIHIN
  6
CONTINUOUS
 62
     3
100
AcDbCircle
 10
216.525788516621
 20
203.7927446994532
 30
0.0
 40
49.99999999999996
100
AcDbArc
 50
11.47843042187468
 51
20.33251005689324
  0
ARC
  5
7E86
330
1A
100
AcDbEntity
  8
SEIHIN
  6
CONTINUOUS
 62
     3
100
AcDbCircle
 10
265.6228212457079
 20
213.2522043668419
 30
0.0
 40
0.5000000000001876
100
AcDbArc
 50
280.6189901481292
 51
101.1919503306117
  0
ARC
  5
7E87
330
1A
100
AcDbEntity
  8
SEIHIN
  6
CONTINUOUS
 62
     3
100
AcDbCircle
 10
263.2343090651646
 20
221.6341041814636
 30
0.0
 40
0.5000000000002417
100
AcDbArc
 50
290.6189901481466
 51
111.1919503306355
  0
ARC
  5
7E88
330
1A
100
AcDbEntity
  8
SEIHIN
  6
CONTINUOUS
 62
     3
100
AcDbCircle
 10
215.7356495591292
 20
253.7865011139061
 30
0.0
 40
0.5000000000002265
100
AcDbArc
 50
0.6189901481453671
 51
181.1919503306126
  0
ARC
  5
7E89
330
1A
100
AcDbEntity
  8
SEIHIN
  6
CONTINUOUS
 62
     3
100
AcDbCircle
 10
216.525788516621
 20
203.7927446994532
 30
0.0
 40
50.00000000000002
100
AcDbArc
 50
101.4784304218749
 51
110.3325100568973
  0
ARC
  5
7E8A
330
1A
100
AcDbEntity
  8
SEIHIN
  6
CONTINUOUS
 62
     3
100
AcDbCircle
 10
207.0663288492313
 20
252.8897774285384
 30
0.0
 40
0.5000000000001876
100
AcDbArc
 50
10.61899014813245
 51
191.1919503306386
  0
ARC
  5
7E8B
330
1A
100
AcDbEntity
  8
SEIHIN
  6
CONTINUOUS
 62
     3
100
AcDbCircle
 10
216.525788516621
 20
203.7927446994532
 30
0.0
 40
50.00000000000006
100
AcDbArc
 50
91.47843042188648
 51
100.3325100568843
  0
ARC
  5
7E8C
330
1A
100
AcDbEntity
  8
SEIHIN
  6
CONTINUOUS
 62
     3
100
AcDbCircle
 10
216.525788516621
 20
203.7927446994532
 30
0.0
 40
50.00000000000002
100
AcDbArc
 50
71.47843042185141
 51
80.33251005691345
  0
ARC
  5
7E8D
330
1A
100
AcDbEntity
  8
SEIHIN
  6
CONTINUOUS
 62
     3
100
AcDbCircle
 10
224.4289782414206
 20
253.1641898086842
 30
0.0
 40
0.5000000000000472
100
AcDbArc
 50
350.6189901481507
 51
171.1919503306347
  0
ARC
  5
7E8E
330
1A
100
AcDbEntity
  8
SEIHIN
  6
CONTINUOUS
 62
     3
100
AcDbCircle
 10
216.525788516621
 20
203.7927446994532
 30
0.0
 40
49.99999999999998
100
AcDbArc
 50
81.47843042187732
 51
90.33251005688414
  0
ARC
  5
7E8F
330
1A
100
AcDbEntity
  8
SEIHIN
  6
CONTINUOUS
 62
     3
100
AcDbCircle
 10
232.882172503131
 20
251.0417521269725
 30
0.0
 40
0.5000000000001826
100
AcDbArc
 50
340.6189901481537
 51
161.1919503306081
  0
TEXT
  5
7E90
330
1A
100
AcDbEntity
  8
SUNPOU
100
AcDbText
 10
277.7015905458139
 20
22.88658705611101
 30
0.0
 40
4.0
  1
※　エルボ・ソケット等の差込み寸法を示す。
100
AcDbText
  0
TEXT
  5
8EEB
330
1A
100
AcDbEntity
  8
MOJI
100
AcDbText
 10
44.44138808139745
 20
6.242677182400996
 30
0.0
 40
2.799999999999999
  1
ユニシェイプＵＲＴ６０ＢＬ
 41
0.9
  7
ｽﾀｲﾙ1
100
AcDbText
  0
TEXT
  5
8F79
330
1A
100
AcDbEntity
  8
MOJI
100
AcDbText
 10
227.707177370123
 20
6.73799520856798
 30
0.0
 40
2.799999999999999
  1
ＰＨ０７□
 41
0.9
  7
ｽﾀｲﾙ1
100
AcDbText
  0
VIEWPORT
  5
22
330
17
100
AcDbEntity
 67
     1
  8
0
100
AcDbViewport
 10
313.6808219178082
 20
148.5
 30
0.0
 40
627.3616438356165
 41
297.0
 68
     2
 69
     1
1001
ACAD
1000
MVIEW
1002
{
1070
    16
1010
0.0
1020
0.0
1030
0.0
1010
0.0
1020
0.0
1030
1.0
1040
0.0
1040
297.0
1040
313.6808219178082
1040
148.5
1040
50.0
1040
0.0
1040
0.0
1070
     0
1070
   100
1070
     1
1070
     0
1070
     0
1070
     0
1070
     0
1070
     0
1040
0.0
1040
0.0
1040
0.0
1040
1.0
1040
1.0
1040
10.0
1040
10.0
1070
     0
1002
{
1002
}
1002
}
  0
VIEWPORT
  5
64
330
17
100
AcDbEntity
 67
     1
  8
VIEWPORT
100
AcDbViewport
 10
210.0
 20
148.5
 30
0.0
 40
420.0
 41
297.0
 68
     1
 69
     2
1001
ACAD
1000
MVIEW
1002
{
1070
    16
1010
0.0
1020
0.0
1030
0.0
1010
0.0
1020
0.0
1030
1.0
1040
0.0
1040
302.9399999999998
1040
210.0
1040
148.5
1040
50.0
1040
0.0
1040
0.0
1070
     0
1070
   100
1070
     1
1070
     0
1070
     0
1070
     0
1070
     0
1070
     0
1040
0.0
1040
0.0
1040
0.0
1040
5.0
1040
5.0
1040
0.0
1040
0.0
1070
     0
1002
{
1002
}
1002
}
  0
ENDSEC
  0
SECTION
  2
OBJECTS
  0
DICTIONARY
  5
C
330
0
100
AcDbDictionary
  3
ACAD_GROUP
350
D
  3
ACAD_LAYOUT
350
33B
  3
ACAD_MLINESTYLE
350
E
  3
ACAD_PLOTSETTINGS
350
33C
1001
ACAD
1000
TREAT_AS_HARD
1070
     0
  0
DICTIONARY
  5
36A
330
1A
100
AcDbDictionary
  3
ACAD_LAYOUTSELFREF
350
9500
1001
ACAD
1000
TREAT_AS_HARD
1070
     1
  0
DICTIONARY
  5
368
330
17
100
AcDbDictionary
  3
ACAD_LAYOUTSELFREF
350
94FF
1001
ACAD
1000
TREAT_AS_HARD
1070
     1
  0
DICTIONARY
  5
D
102
{ACAD_REACTORS
330
C
102
}
330
C
100
AcDbDictionary
1001
ACAD
1000
TREAT_AS_HARD
1070
     0
  0
DICTIONARY
  5
33B
102
{ACAD_REACTORS
330
C
102
}
330
C
100
AcDbDictionary
1001
ACAD
1000
TREAT_AS_HARD
1070
     0
  0
DICTIONARY
  5
E
102
{ACAD_REACTORS
330
C
102
}
330
C
100
AcDbDictionary
  3
STANDARD
350
13
1001
ACAD
1000
TREAT_AS_HARD
1070
     0
  0
DICTIONARY
  5
33C
102
{ACAD_REACTORS
330
C
102
}
330
C
100
AcDbDictionary
1001
ACAD
1000
TREAT_AS_HARD
1070
     0
  0
XRECORD
  5
9500
102
{ACAD_REACTORS
330
36A
102
}
330
36A
100
AcDbXrecord
340
1A
  0
XRECORD
  5
94FF
102
{ACAD_REACTORS
330
368
102
}
330
368
100
AcDbXrecord
340
17
  0
MLINESTYLE
  5
13
102
{ACAD_REACTORS
330
E
102
}
330
E
100
AcDbMlineStyle
  2
STANDARD
 70
     0
  3

 62
     0
 51
90.0
 52
90.0
 71
     2
 49
0.5
 62
   256
  6
BYLAYER
 49
-0.5
 62
   256
  6
BYLAYER
  0
ENDSEC
  0
EOF
