  0
SECTION
  2
HEADER
  9
$ACADVER
  1
AC1015
  9
$ACADMAINTVER
 70
     6
  9
$DWGCODEPAGE
  3
ANSI_932
  9
$INSBASE
 10
0.0
 20
0.0
 30
0.0
  9
$EXTMIN
 10
0.0000000135560185
 20
-0.0000001317113174
 30
0.0
  9
$EXTMAX
 10
797.6000000135561
 20
551.5999998682888
 30
0.0
  9
$LIMMIN
 10
0.0
 20
0.0
  9
$LIMMAX
 10
840.0
 20
594.0
  9
$ORTHOMODE
 70
     1
  9
$REGENMODE
 70
     1
  9
$FILLMODE
 70
     1
  9
$QTEXTMODE
 70
     0
  9
$MIRRTEXT
 70
     1
  9
$LTSCALE
 40
1.0
  9
$ATTMODE
 70
     1
  9
$TEXTSIZE
 40
5.0
  9
$TRACEWID
 40
1.0
  9
$TEXTSTYLE
  7
MSｺﾞｼｯｸ
  9
$CLAYER
  8
SUNPOU
  9
$CELTYPE
  6
BYLAYER
  9
$CECOLOR
 62
   256
  9
$CELTSCALE
 40
1.0
  9
$DISPSILH
 70
     0
  9
$DIMSCALE
 40
1.0
  9
$DIMASZ
 40
4.0
  9
$DIMEXO
 40
3.0
  9
$DIMDLI
 40
9.0
  9
$DIMRND
 40
0.0
  9
$DIMDLE
 40
0.0
  9
$DIMEXE
 40
3.0
  9
$DIMTP
 40
0.0
  9
$DIMTM
 40
0.0
  9
$DIMTXT
 40
6.0
  9
$DIMCEN
 40
0.0
  9
$DIMTSZ
 40
0.0
  9
$DIMTOL
 70
     0
  9
$DIMLIM
 70
     0
  9
$DIMTIH
 70
     0
  9
$DIMTOH
 70
     0
  9
$DIMSE1
 70
     0
  9
$DIMSE2
 70
     0
  9
$DIMTAD
 70
     3
  9
$DIMZIN
 70
     0
  9
$DIMBLK
  1
OPEN
  9
$DIMASO
 70
     1
  9
$DIMSHO
 70
     1
  9
$DIMPOST
  1

  9
$DIMAPOST
  1

  9
$DIMALT
 70
     0
  9
$DIMALTD
 70
     2
  9
$DIMALTF
 40
25.4
  9
$DIMLFAC
 40
1.0
  9
$DIMTOFL
 70
     0
  9
$DIMTVP
 40
0.0
  9
$DIMTIX
 70
     0
  9
$DIMSOXD
 70
     0
  9
$DIMSAH
 70
     0
  9
$DIMBLK1
  1

  9
$DIMBLK2
  1

  9
$DIMSTYLE
  2
STANDARD
  9
$DIMCLRD
 70
   256
  9
$DIMCLRE
 70
   256
  9
$DIMCLRT
 70
   256
  9
$DIMTFAC
 40
1.0
  9
$DIMGAP
 40
3.0
  9
$DIMJUST
 70
     0
  9
$DIMSD1
 70
     0
  9
$DIMSD2
 70
     0
  9
$DIMTOLJ
 70
     1
  9
$DIMTZIN
 70
     0
  9
$DIMALTZ
 70
     0
  9
$DIMALTTZ
 70
     0
  9
$DIMUPT
 70
     0
  9
$DIMDEC
 70
     0
  9
$DIMTDEC
 70
     0
  9
$DIMALTU
 70
     2
  9
$DIMALTTD
 70
     2
  9
$DIMTXSTY
  7
STANDARD
  9
$DIMAUNIT
 70
     0
  9
$DIMADEC
 70
     0
  9
$DIMALTRND
 40
0.0
  9
$DIMAZIN
 70
     0
  9
$DIMDSEP
 70
    46
  9
$DIMATFIT
 70
     3
  9
$DIMFRAC
 70
     0
  9
$DIMLDRBLK
  1
OPEN
  9
$DIMLUNIT
 70
     2
  9
$DIMLWD
 70
    -1
  9
$DIMLWE
 70
    -1
  9
$DIMTMOVE
 70
     0
  9
$LUNITS
 70
     2
  9
$LUPREC
 70
     4
  9
$SKETCHINC
 40
1.0
  9
$FILLETRAD
 40
2.0
  9
$AUNITS
 70
     0
  9
$AUPREC
 70
     0
  9
$MENU
  1
.
  9
$ELEVATION
 40
0.0
  9
$PELEVATION
 40
0.0
  9
$THICKNESS
 40
0.0
  9
$LIMCHECK
 70
     0
  9
$CHAMFERA
 40
20.0
  9
$CHAMFERB
 40
20.0
  9
$CHAMFERC
 40
40.0
  9
$CHAMFERD
 40
0.0
  9
$SKPOLY
 70
     0
  9
$TDCREATE
 40
2451806.684426273
  9
$TDUCREATE
 40
2451806.309426273
  9
$TDUPDATE
 40
2455838.575171250
  9
$TDUUPDATE
 40
2455838.200171249
  9
$TDINDWG
 40
0.0593788542
  9
$TDUSRTIMER
 40
0.0593788542
  9
$USRTIMER
 70
     1
  9
$ANGBASE
 50
0.0
  9
$ANGDIR
 70
     0
  9
$PDMODE
 70
     0
  9
$PDSIZE
 40
0.0
  9
$PLINEWID
 40
0.0
  9
$SPLFRAME
 70
     0
  9
$SPLINETYPE
 70
     6
  9
$SPLINESEGS
 70
     8
  9
$HANDSEED
  5
2D85
  9
$SURFTAB1
 70
     6
  9
$SURFTAB2
 70
     6
  9
$SURFTYPE
 70
     6
  9
$SURFU
 70
     6
  9
$SURFV
 70
     6
  9
$UCSBASE
  2

  9
$UCSNAME
  2

  9
$UCSORG
 10
0.0
 20
0.0
 30
0.0
  9
$UCSXDIR
 10
1.0
 20
0.0
 30
0.0
  9
$UCSYDIR
 10
0.0
 20
1.0
 30
0.0
  9
$UCSORTHOREF
  2

  9
$UCSORTHOVIEW
 70
     0
  9
$UCSORGTOP
 10
0.0
 20
0.0
 30
0.0
  9
$UCSORGBOTTOM
 10
0.0
 20
0.0
 30
0.0
  9
$UCSORGLEFT
 10
0.0
 20
0.0
 30
0.0
  9
$UCSORGRIGHT
 10
0.0
 20
0.0
 30
0.0
  9
$UCSORGFRONT
 10
0.0
 20
0.0
 30
0.0
  9
$UCSORGBACK
 10
0.0
 20
0.0
 30
0.0
  9
$PUCSBASE
  2

  9
$PUCSNAME
  2

  9
$PUCSORG
 10
0.0
 20
0.0
 30
0.0
  9
$PUCSXDIR
 10
1.0
 20
0.0
 30
0.0
  9
$PUCSYDIR
 10
0.0
 20
1.0
 30
0.0
  9
$PUCSORTHOREF
  2

  9
$PUCSORTHOVIEW
 70
     0
  9
$PUCSORGTOP
 10
0.0
 20
0.0
 30
0.0
  9
$PUCSORGBOTTOM
 10
0.0
 20
0.0
 30
0.0
  9
$PUCSORGLEFT
 10
0.0
 20
0.0
 30
0.0
  9
$PUCSORGRIGHT
 10
0.0
 20
0.0
 30
0.0
  9
$PUCSORGFRONT
 10
0.0
 20
0.0
 30
0.0
  9
$PUCSORGBACK
 10
0.0
 20
0.0
 30
0.0
  9
$USERI1
 70
     0
  9
$USERI2
 70
     0
  9
$USERI3
 70
     0
  9
$USERI4
 70
     0
  9
$USERI5
 70
     0
  9
$USERR1
 40
0.0
  9
$USERR2
 40
0.0
  9
$USERR3
 40
0.0
  9
$USERR4
 40
0.0
  9
$USERR5
 40
0.0
  9
$WORLDVIEW
 70
     1
  9
$SHADEDGE
 70
     3
  9
$SHADEDIF
 70
    70
  9
$TILEMODE
 70
     1
  9
$MAXACTVP
 70
    16
  9
$PINSBASE
 10
0.0
 20
0.0
 30
0.0
  9
$PLIMCHECK
 70
     0
  9
$PEXTMIN
 10
0.0
 20
0.0
 30
0.0
  9
$PEXTMAX
 10
420.0
 20
297.0
 30
0.0
  9
$PLIMMIN
 10
0.0
 20
0.0
  9
$PLIMMAX
 10
420.0
 20
297.0
  9
$UNITMODE
 70
     0
  9
$VISRETAIN
 70
     0
  9
$PLINEGEN
 70
     0
  9
$PSLTSCALE
 70
     1
  9
$TREEDEPTH
 70
  3020
  9
$CMLSTYLE
  2
STANDARD
  9
$CMLJUST
 70
     0
  9
$CMLSCALE
 40
1.0
  9
$PROXYGRAPHICS
 70
     1
  9
$MEASUREMENT
 70
     1
  9
$CELWEIGHT
370
    -1
  9
$ENDCAPS
280
     0
  9
$JOINSTYLE
280
     0
  9
$LWDISPLAY
290
     0
  9
$INSUNITS
 70
     0
  9
$HYPERLINKBASE
  1

  9
$STYLESHEET
  1
print.ctb
  9
$XEDIT
290
     1
  9
$CEPSNTYPE
380
     0
  9
$PSTYLEMODE
290
     1
  9
$FINGERPRINTGUID
  2
{75772F4A-CE5A-11D3-932C-444553540000}
  9
$VERSIONGUID
  2
{7C7FF5FB-D111-48E1-8D09-9BF70F5C2375}
  9
$EXTNAMES
290
     1
  9
$PSVPSCALE
 40
0.0
  9
$OLESTARTUP
290
     0
  0
ENDSEC
  0
SECTION
  2
CLASSES
  0
CLASS
  1
ACDBDICTIONARYWDFLT
  2
AcDbDictionaryWithDefault
  3
AutoCAD 2000
 90
        0
280
     0
281
     0
  0
CLASS
  1
ACDBPLACEHOLDER
  2
AcDbPlaceHolder
  3
AutoCAD 2000
 90
        0
280
     0
281
     0
  0
CLASS
  1
LAYOUT
  2
AcDbLayout
  3
AutoCAD 2000
 90
        0
280
     0
281
     0
  0
CLASS
  1
LONG_TRANSACTION
  2
AcDbLongTransaction
  3
AutoCAD 2000
 90
    32768
280
     0
281
     0
  0
CLASS
  1
LWPOLYLINE
  2
AcDbPolyline
  3
AutoCAD 2000
 90
    32768
280
     0
281
     1
  0
CLASS
  1
HATCH
  2
AcDbHatch
  3
AutoCAD 2000
 90
    32768
280
     0
281
     1
  0
CLASS
  1
XRECORD
  2
AcDbXrecord
  3
AutoCAD 2000
 90
    32768
280
     0
281
     0
  0
CLASS
  1
LONG_TRANSACTION
  2
AcDbLongTransaction
  3
AutoCAD 2000
 90
    32768
280
     0
281
     0
  0
CLASS
  1
LWPOLYLINE
  2
AcDbPolyline
  3
AutoCAD 2000
 90
    32768
280
     0
281
     1
  0
CLASS
  1
HATCH
  2
AcDbHatch
  3
AutoCAD 2000
 90
    32768
280
     0
281
     1
  0
CLASS
  1
XRECORD
  2
AcDbXrecord
  3
AutoCAD 2000
 90
    32768
280
     0
281
     0
  0
CLASS
  1
LONG_TRANSACTION
  2
AcDbLongTransaction
  3
AutoCAD 2000
 90
    32768
280
     0
281
     0
  0
CLASS
  1
LWPOLYLINE
  2
AcDbPolyline
  3
AutoCAD 2000
 90
    32768
280
     0
281
     1
  0
CLASS
  1
HATCH
  2
AcDbHatch
  3
AutoCAD 2000
 90
    32768
280
     0
281
     1
  0
CLASS
  1
XRECORD
  2
AcDbXrecord
  3
AutoCAD 2000
 90
    32768
280
     0
281
     0
  0
ENDSEC
  0
SECTION
  2
TABLES
  0
TABLE
  2
VPORT
  5
8
330
0
100
AcDbSymbolTable
 70
     5
  0
VPORT
  5
2D84
330
8
100
AcDbSymbolTableRecord
100
AcDbViewportTableRecord
  2
*Active
 70
     0
 10
0.0
 20
0.0
 11
1.0
 21
1.0
 12
402.8172467278734
 22
273.2388323364679
 13
0.0
 23
0.0
 14
5.0
 24
5.0
 15
0.0
 25
0.0
 16
0.0
 26
0.0
 36
1.0
 17
0.0
 27
0.0
 37
0.0
 40
592.435306342434
 41
1.527918781725888
 42
50.0
 43
0.0
 44
0.0
 50
0.0
 51
0.0
 71
     0
 72
   100
 73
     1
 74
     0
 75
     0
 76
     0
 77
     0
 78
     0
281
     0
 65
     1
110
0.0
120
0.0
130
0.0
111
1.0
121
0.0
131
0.0
112
0.0
122
1.0
132
0.0
 79
     0
146
0.0
  0
ENDTAB
  0
TABLE
  2
LTYPE
  5
5
330
0
100
AcDbSymbolTable
 70
     2
  0
LTYPE
  5
14
330
5
100
AcDbSymbolTableRecord
100
AcDbLinetypeTableRecord
  2
BYBLOCK
 70
     0
  3

 72
    65
 73
     0
 40
0.0
  0
LTYPE
  5
15
330
5
100
AcDbSymbolTableRecord
100
AcDbLinetypeTableRecord
  2
BYLAYER
 70
     0
  3

 72
    65
 73
     0
 40
0.0
  0
LTYPE
  5
16
330
5
100
AcDbSymbolTableRecord
100
AcDbLinetypeTableRecord
  2
CONTINUOUS
 70
     0
  3
Solid line
 72
    65
 73
     0
 40
0.0
  0
LTYPE
  5
135
330
5
100
AcDbSymbolTableRecord
100
AcDbLinetypeTableRecord
  2
CENTER
 70
     0
  3
____ _ ____ _ ____ _ ____ _ ____ _ ____ _ ____ 
 72
    65
 73
     4
 40
2.0
 49
1.25
 74
     0
 49
-0.25
 74
     0
 49
0.25
 74
     0
 49
-0.25
 74
     0
  0
ENDTAB
  0
TABLE
  2
LAYER
  5
2
330
0
100
AcDbSymbolTable
 70
     9
  0
LAYER
  5
F
330
2
100
AcDbSymbolTableRecord
100
AcDbLayerTableRecord
  2
0
 70
     0
 62
     7
  6
CONTINUOUS
370
    -3
390
14B
  0
LAYER
  5
62
330
2
100
AcDbSymbolTableRecord
100
AcDbLayerTableRecord
  2
VIEWPORT
 70
     0
 62
     7
  6
CONTINUOUS
370
    -3
390
14B
  0
LAYER
  5
65
330
2
100
AcDbSymbolTableRecord
100
AcDbLayerTableRecord
  2
ZUWAKU
 70
     0
 62
     7
  6
CONTINUOUS
370
    -3
390
14B
  0
LAYER
  5
1BD
330
2
100
AcDbSymbolTableRecord
100
AcDbLayerTableRecord
  2
DEFPOINTS
 70
     0
 62
     7
  6
CONTINUOUS
290
     0
370
    -3
390
14B
  0
LAYER
  5
1BF
330
2
100
AcDbSymbolTableRecord
100
AcDbLayerTableRecord
  2
SEIHIN
 70
     0
 62
     3
  6
CONTINUOUS
370
    -3
390
14B
  0
LAYER
  5
1C0
330
2
100
AcDbSymbolTableRecord
100
AcDbLayerTableRecord
  2
CENTER L
 70
     0
 62
     1
  6
CENTER
370
    -3
390
14B
  0
LAYER
  5
1C1
330
2
100
AcDbSymbolTableRecord
100
AcDbLayerTableRecord
  2
SUNPOU
 70
     0
 62
     4
  6
CONTINUOUS
370
    -3
390
14B
  0
LAYER
  5
DE3
330
2
100
AcDbSymbolTableRecord
100
AcDbLayerTableRecord
  2
moji
 70
     0
 62
     2
  6
CONTINUOUS
370
    -3
390
14B
  0
LAYER
  5
2A6C
330
2
100
AcDbSymbolTableRecord
100
AcDbLayerTableRecord
  2
ﾊｯﾁﾝｸﾞ
 70
     0
 62
     7
  6
CONTINUOUS
370
    -3
390
14B
  0
ENDTAB
  0
TABLE
  2
STYLE
  5
3
330
0
100
AcDbSymbolTable
 70
     4
  0
STYLE
  5
10
330
3
100
AcDbSymbolTableRecord
100
AcDbTextStyleTableRecord
  2
STANDARD
 70
     0
 40
0.0
 41
1.0
 50
0.0
 71
     0
 42
5.0
  3
TXT
  4
c:\PROGRAM FILES\AUTOCAD LT\ms\bigfont.shx
  0
STYLE
  5
DD6
330
3
100
AcDbSymbolTableRecord
100
AcDbTextStyleTableRecord
  2
MSｺﾞｼｯｸ
 70
     0
 40
0.0
 41
1.0
 50
0.0
 71
     0
 42
5.0
  3
MS Gothic.ttf
  4

1001
ACAD
1000
MS Gothic
1071
    32817
  0
STYLE
  5
2967
330
3
100
AcDbSymbolTableRecord
100
AcDbTextStyleTableRecord
  2
ｽﾀｲﾙ1
 70
     0
 40
0.0
 41
1.0
 50
0.0
 71
     0
 42
2.5
  3
MS PGothic.ttf
  4

1001
ACAD
1000
MS PGothic
1071
    32818
  0
STYLE
  5
2A6D
330
3
100
AcDbSymbolTableRecord
100
AcDbTextStyleTableRecord
  2
MSPｺﾞｼｯｸ
 70
     0
 40
0.0
 41
1.0
 50
0.0
 71
     0
 42
2.5
  3
MS PGothic.ttf
  4

1001
ACAD
1000
MS PGothic
1071
    32818
  0
ENDTAB
  0
TABLE
  2
VIEW
  5
6
330
0
100
AcDbSymbolTable
 70
     0
  0
ENDTAB
  0
TABLE
  2
UCS
  5
7
330
0
100
AcDbSymbolTable
 70
     0
  0
ENDTAB
  0
TABLE
  2
APPID
  5
9
330
0
100
AcDbSymbolTable
 70
     1
  0
APPID
  5
11
330
9
100
AcDbSymbolTableRecord
100
AcDbRegAppTableRecord
  2
ACAD
 70
     0
  0
ENDTAB
  0
TABLE
  2
DIMSTYLE
  5
A
330
0
100
AcDbSymbolTable
 70
     1
100
AcDbDimStyleTable
 71
     0
  0
DIMSTYLE
105
1D
102
{ACAD_REACTORS
330
2388
330
2375
330
238A
330
238B
330
23B4
330
23A9
330
23AA
330
23C4
330
23C3
330
23C2
330
2B3D
330
2B42
330
2B44
330
2B47
330
2B4B
330
2B51
330
2BC1
330
2BC9
330
2BCF
330
2BD2
330
2BE5
330
2BEA
330
2BEB
102
}
330
A
100
AcDbSymbolTableRecord
100
AcDbDimStyleTableRecord
  2
STANDARD
 70
     0
 41
4.0
 42
3.0
 43
9.0
 44
3.0
 73
     0
 74
     0
 77
     3
140
6.0
141
0.0
147
3.0
176
   256
177
   256
178
   256
271
     0
272
     0
340
10
341
6D
342
6D
371
    -1
372
    -1
  0
ENDTAB
  0
TABLE
  2
BLOCK_RECORD
  5
1
330
0
100
AcDbSymbolTable
 70
    39
  0
BLOCK_RECORD
  5
1A
102
{ACAD_XDICTIONARY
360
CFB
102
}
330
1
100
AcDbSymbolTableRecord
100
AcDbBlockTableRecord
  2
*MODEL_SPACE
340
14E
  0
BLOCK_RECORD
  5
17
102
{ACAD_XDICTIONARY
360
CF9
102
}
330
1
100
AcDbSymbolTableRecord
100
AcDbBlockTableRecord
  2
*PAPER_SPACE
340
14F
  0
BLOCK_RECORD
  5
6D
330
1
100
AcDbSymbolTableRecord
100
AcDbBlockTableRecord
  2
_OPEN
340
0
102
{BLKREFS
331
2557
331
2558
331
2560
331
2561
331
254E
331
254F
331
2545
331
2546
331
2572
331
2573
331
253C
331
253D
331
2569
331
256A
331
2584
331
2585
331
257B
331
257C
331
2533
331
2534
331
2A66
331
2A67
331
29E6
331
29E7
331
29DA
331
29DB
331
2A46
331
2A47
331
2A3A
331
2A3B
331
29F2
331
29F3
331
2A52
331
2A53
331
29FE
331
29FF
331
2A16
331
2A17
331
2A0A
331
2A0B
331
2A2E
331
2A2F
331
2A22
331
2A23
331
2A5D
331
2A5E
331
2C0C
331
2C0D
331
2C16
331
2C17
331
2C22
331
2C23
331
2C2E
331
2C2F
331
2C3A
331
2C3B
331
2C46
331
2C47
331
2C52
331
2C53
331
2C5E
331
2C5F
331
2C6A
331
2C6B
331
2C76
331
2C77
331
2C82
331
2C83
331
2C8E
331
2C8F
331
2C9A
331
2C9B
331
2CA3
331
2CA4
331
2CAA
331
2CAB
331
2CB3
331
2CB4
331
2CBC
331
2CBD
331
2CC5
331
2CC6
331
2CCE
331
2CCF
331
2CD7
331
2CD8
331
2CE0
331
2CE1
331
2CE9
331
2CEA
331
2CF2
331
2CF3
331
2CFB
331
2CFC
331
2D04
331
2D05
331
2D0D
331
2D0E
331
2D14
331
2D15
331
2D1D
331
2D1E
331
2D26
331
2D27
331
2D2D
331
2D2E
331
2D36
331
2D37
331
2D3F
331
2D40
331
2D48
331
2D49
331
2D51
331
2D52
331
2D5A
331
2D5B
331
2D63
331
2D64
331
2D6A
331
2D6B
331
2D73
331
2D74
331
2D7C
331
2D7D
102
}
  0
BLOCK_RECORD
  5
2404
330
1
100
AcDbSymbolTableRecord
100
AcDbBlockTableRecord
  2
*D1
340
0
  0
BLOCK_RECORD
  5
2410
330
1
100
AcDbSymbolTableRecord
100
AcDbBlockTableRecord
  2
*D2
340
0
  0
BLOCK_RECORD
  5
241C
330
1
100
AcDbSymbolTableRecord
100
AcDbBlockTableRecord
  2
*D3
340
0
  0
BLOCK_RECORD
  5
2428
330
1
100
AcDbSymbolTableRecord
100
AcDbBlockTableRecord
  2
*D4
340
0
  0
BLOCK_RECORD
  5
2434
330
1
100
AcDbSymbolTableRecord
100
AcDbBlockTableRecord
  2
*D5
340
0
  0
BLOCK_RECORD
  5
2440
330
1
100
AcDbSymbolTableRecord
100
AcDbBlockTableRecord
  2
*D6
340
0
  0
BLOCK_RECORD
  5
244C
330
1
100
AcDbSymbolTableRecord
100
AcDbBlockTableRecord
  2
*D7
340
0
  0
BLOCK_RECORD
  5
2458
330
1
100
AcDbSymbolTableRecord
100
AcDbBlockTableRecord
  2
*D8
340
0
  0
BLOCK_RECORD
  5
2464
330
1
100
AcDbSymbolTableRecord
100
AcDbBlockTableRecord
  2
*D9
340
0
  0
BLOCK_RECORD
  5
2470
330
1
100
AcDbSymbolTableRecord
100
AcDbBlockTableRecord
  2
*D10
340
0
  0
BLOCK_RECORD
  5
27CC
330
1
100
AcDbSymbolTableRecord
100
AcDbBlockTableRecord
  2
*X11
340
0
102
{BLKREFS
331
EF4
102
}
  0
BLOCK_RECORD
  5
29D6
330
1
100
AcDbSymbolTableRecord
100
AcDbBlockTableRecord
  2
*D12
340
0
  0
BLOCK_RECORD
  5
29E2
330
1
100
AcDbSymbolTableRecord
100
AcDbBlockTableRecord
  2
*D13
340
0
  0
BLOCK_RECORD
  5
29EE
330
1
100
AcDbSymbolTableRecord
100
AcDbBlockTableRecord
  2
*D14
340
0
  0
BLOCK_RECORD
  5
29FA
330
1
100
AcDbSymbolTableRecord
100
AcDbBlockTableRecord
  2
*D15
340
0
  0
BLOCK_RECORD
  5
2A06
330
1
100
AcDbSymbolTableRecord
100
AcDbBlockTableRecord
  2
*D16
340
0
  0
BLOCK_RECORD
  5
2A12
330
1
100
AcDbSymbolTableRecord
100
AcDbBlockTableRecord
  2
*D17
340
0
  0
BLOCK_RECORD
  5
2A1E
330
1
100
AcDbSymbolTableRecord
100
AcDbBlockTableRecord
  2
*D18
340
0
  0
BLOCK_RECORD
  5
2A2A
330
1
100
AcDbSymbolTableRecord
100
AcDbBlockTableRecord
  2
*D19
340
0
  0
BLOCK_RECORD
  5
2A36
330
1
100
AcDbSymbolTableRecord
100
AcDbBlockTableRecord
  2
*D20
340
0
  0
BLOCK_RECORD
  5
2A42
330
1
100
AcDbSymbolTableRecord
100
AcDbBlockTableRecord
  2
*D21
340
0
  0
BLOCK_RECORD
  5
2A4E
330
1
100
AcDbSymbolTableRecord
100
AcDbBlockTableRecord
  2
*D22
340
0
  0
BLOCK_RECORD
  5
2A5A
330
1
100
AcDbSymbolTableRecord
100
AcDbBlockTableRecord
  2
*D23
340
0
  0
BLOCK_RECORD
  5
2A63
330
1
100
AcDbSymbolTableRecord
100
AcDbBlockTableRecord
  2
*D24
340
0
  0
BLOCK_RECORD
  5
2C08
330
1
100
AcDbSymbolTableRecord
100
AcDbBlockTableRecord
  2
*D26
340
0
  0
BLOCK_RECORD
  5
2C12
330
1
100
AcDbSymbolTableRecord
100
AcDbBlockTableRecord
  2
*D27
340
0
  0
BLOCK_RECORD
  5
2C1E
330
1
100
AcDbSymbolTableRecord
100
AcDbBlockTableRecord
  2
*D28
340
0
  0
BLOCK_RECORD
  5
2C2A
330
1
100
AcDbSymbolTableRecord
100
AcDbBlockTableRecord
  2
*D29
340
0
  0
BLOCK_RECORD
  5
2C36
330
1
100
AcDbSymbolTableRecord
100
AcDbBlockTableRecord
  2
*D30
340
0
  0
BLOCK_RECORD
  5
2C42
330
1
100
AcDbSymbolTableRecord
100
AcDbBlockTableRecord
  2
*D31
340
0
  0
BLOCK_RECORD
  5
2C4E
330
1
100
AcDbSymbolTableRecord
100
AcDbBlockTableRecord
  2
*D32
340
0
  0
BLOCK_RECORD
  5
2C5A
330
1
100
AcDbSymbolTableRecord
100
AcDbBlockTableRecord
  2
*D33
340
0
  0
BLOCK_RECORD
  5
2C66
330
1
100
AcDbSymbolTableRecord
100
AcDbBlockTableRecord
  2
*D34
340
0
  0
BLOCK_RECORD
  5
2C72
330
1
100
AcDbSymbolTableRecord
100
AcDbBlockTableRecord
  2
*D35
340
0
  0
BLOCK_RECORD
  5
2C7E
330
1
100
AcDbSymbolTableRecord
100
AcDbBlockTableRecord
  2
*D36
340
0
  0
BLOCK_RECORD
  5
2C8A
330
1
100
AcDbSymbolTableRecord
100
AcDbBlockTableRecord
  2
*D37
340
0
  0
BLOCK_RECORD
  5
2C96
330
1
100
AcDbSymbolTableRecord
100
AcDbBlockTableRecord
  2
*D38
340
0
  0
ENDTAB
  0
ENDSEC
  0
SECTION
  2
BLOCKS
  0
BLOCK
  5
1B
330
1A
100
AcDbEntity
  8
0
100
AcDbBlockBegin
  2
*MODEL_SPACE
 70
     0
 10
0.0
 20
0.0
 30
0.0
  3
*MODEL_SPACE
  1

  0
ENDBLK
  5
1C
330
1A
100
AcDbEntity
  8
0
100
AcDbBlockEnd
  0
BLOCK
  5
18
330
17
100
AcDbEntity
 67
     1
  8
0
100
AcDbBlockBegin
  2
*PAPER_SPACE
 70
     0
 10
0.0
 20
0.0
 30
0.0
  3
*PAPER_SPACE
  1

  0
ENDBLK
  5
19
330
17
100
AcDbEntity
 67
     1
  8
0
100
AcDbBlockEnd
  0
BLOCK
  5
6E
330
6D
100
AcDbEntity
  8
0
100
AcDbBlockBegin
  2
_OPEN
 70
     0
 10
0.0
 20
0.0
 30
0.0
  3
_OPEN
  1

  0
LINE
  5
6F
330
6D
100
AcDbEntity
  8
0
  6
ByBlock
 62
     0
100
AcDbLine
 10
-1.0
 20
0.1666666666666666
 30
0.0
 11
0.0
 21
0.0
 31
0.0
  0
LINE
  5
70
330
6D
100
AcDbEntity
  8
0
  6
ByBlock
 62
     0
100
AcDbLine
 10
0.0
 20
0.0
 30
0.0
 11
-1.0
 21
-0.1666666666666666
 31
0.0
  0
LINE
  5
71
330
6D
100
AcDbEntity
  8
0
  6
ByBlock
 62
     0
100
AcDbLine
 10
0.0
 20
0.0
 30
0.0
 11
-1.0
 21
0.0
 31
0.0
  0
ENDBLK
  5
72
330
6D
100
AcDbEntity
  8
0
100
AcDbBlockEnd
  0
BLOCK
  5
240E
330
2404
100
AcDbEntity
  8
0
100
AcDbBlockBegin
  2
*D1
 70
     1
 10
0.0
 20
0.0
 30
0.0
  3
*D1
  1

  0
LINE
  5
2554
330
2404
100
AcDbEntity
  8
SUNPOU
100
AcDbLine
 10
173.9868585701414
 20
345.3683602610677
 30
0.0
 11
141.3998563663332
 21
345.3683602610677
 31
0.0
  0
LINE
  5
2555
330
2404
100
AcDbEntity
  8
SUNPOU
100
AcDbLine
 10
222.2649585701414
 20
275.1549602610678
 30
0.0
 11
141.3998563663332
 21
275.1549602610678
 31
0.0
  0
LINE
  5
2556
330
2404
100
AcDbEntity
  8
SUNPOU
100
AcDbLine
 10
144.3998563663332
 20
338.3683602610677
 30
0.0
 11
144.3998563663332
 21
282.1549602610678
 31
0.0
  0
INSERT
  5
2557
330
2404
100
AcDbEntity
  8
SUNPOU
100
AcDbBlockReference
  2
_OPEN
 10
144.3998563663332
 20
345.3683602610677
 30
0.0
 41
7.0
 42
7.0
 43
7.0
 50
90.0
  0
INSERT
  5
2558
330
2404
100
AcDbEntity
  8
SUNPOU
100
AcDbBlockReference
  2
_OPEN
 10
144.3998563663332
 20
275.1549602610678
 30
0.0
 41
7.0
 42
7.0
 43
7.0
 50
270.0
  0
MTEXT
  5
2559
330
2404
100
AcDbEntity
  8
SUNPOU
100
AcDbMText
 10
139.3998563663331
 20
310.2616602610678
 30
0.0
 40
6.0
 41
0.0
 71
     5
 72
     5
  1
\A1;70
 11
0.0000000000000001
 21
1.0
 31
0.0
 73
     1
 44
1.0
1001
ACAD
1000
MTEXTBEGIN
1070
    73
1070
     1
1070
    44
1040
1.0
1070
    74
1070
     0
1000
MTEXTEND
  0
POINT
  5
255A
330
2404
100
AcDbEntity
  8
DEFPOINTS
 62
     0
100
AcDbPoint
 10
179.9868585701414
 20
345.3683602610677
 30
0.0
  0
POINT
  5
255B
330
2404
100
AcDbEntity
  8
DEFPOINTS
 62
     0
100
AcDbPoint
 10
228.2649585701414
 20
275.1549602610678
 30
0.0
  0
POINT
  5
255C
330
2404
100
AcDbEntity
  8
DEFPOINTS
 62
     0
100
AcDbPoint
 10
144.3998563663332
 20
275.1549602610678
 30
0.0
  0
ENDBLK
  5
240F
330
2404
100
AcDbEntity
  8
0
100
AcDbBlockEnd
  0
BLOCK
  5
241A
330
2410
100
AcDbEntity
  8
0
100
AcDbBlockBegin
  2
*D2
 70
     1
 10
0.0
 20
0.0
 30
0.0
  3
*D2
  1

  0
LINE
  5
255D
330
2410
100
AcDbEntity
  8
SUNPOU
100
AcDbLine
 10
284.8999585701414
 20
301.7049602610679
 30
0.0
 11
316.145708719168
 21
301.7049602610679
 31
0.0
  0
LINE
  5
255E
330
2410
100
AcDbEntity
  8
SUNPOU
100
AcDbLine
 10
284.8999585701414
 20
248.6049602610679
 30
0.0
 11
316.145708719168
 21
248.6049602610679
 31
0.0
  0
LINE
  5
255F
330
2410
100
AcDbEntity
  8
SUNPOU
100
AcDbLine
 10
313.145708719168
 20
294.7049602610679
 30
0.0
 11
313.145708719168
 21
255.6049602610679
 31
0.0
  0
INSERT
  5
2560
330
2410
100
AcDbEntity
  8
SUNPOU
100
AcDbBlockReference
  2
_OPEN
 10
313.145708719168
 20
301.7049602610679
 30
0.0
 41
7.0
 42
7.0
 43
7.0
 50
90.0
  0
INSERT
  5
2561
330
2410
100
AcDbEntity
  8
SUNPOU
100
AcDbBlockReference
  2
_OPEN
 10
313.145708719168
 20
248.6049602610679
 30
0.0
 41
7.0
 42
7.0
 43
7.0
 50
270.0
  0
MTEXT
  5
2562
330
2410
100
AcDbEntity
  8
SUNPOU
100
AcDbMText
 10
308.1457087191679
 20
275.154960261068
 30
0.0
 40
6.0
 41
0.0
 71
     5
 72
     5
  1
\A1;φ53
 11
0.0000000000000001
 21
1.0
 31
0.0
 73
     1
 44
1.0
1001
ACAD
1000
MTEXTBEGIN
1070
    73
1070
     1
1070
    44
1040
1.0
1070
    74
1070
     0
1000
MTEXTEND
  0
POINT
  5
2563
330
2410
100
AcDbEntity
  8
DEFPOINTS
 62
     0
100
AcDbPoint
 10
278.8999585701414
 20
301.7049602610679
 30
0.0
  0
POINT
  5
2564
330
2410
100
AcDbEntity
  8
DEFPOINTS
 62
     0
100
AcDbPoint
 10
278.8999585701414
 20
248.6049602610679
 30
0.0
  0
POINT
  5
2565
330
2410
100
AcDbEntity
  8
DEFPOINTS
 62
     0
100
AcDbPoint
 10
313.145708719168
 20
248.6049602610679
 30
0.0
  0
ENDBLK
  5
241B
330
2410
100
AcDbEntity
  8
0
100
AcDbBlockEnd
  0
BLOCK
  5
2426
330
241C
100
AcDbEntity
  8
0
100
AcDbBlockBegin
  2
*D3
 70
     1
 10
0.0
 20
0.0
 30
0.0
  3
*D3
  1

  0
LINE
  5
254B
330
241C
100
AcDbEntity
  8
SUNPOU
100
AcDbLine
 10
211.6867585701412
 20
282.4519602610679
 30
0.0
 11
211.6867585701412
 21
185.9816610128868
 31
0.0
  0
LINE
  5
254C
330
241C
100
AcDbEntity
  8
SUNPOU
100
AcDbLine
 10
278.8999585701414
 20
242.6049602610679
 30
0.0
 11
278.8999585701414
 21
185.9816610128868
 31
0.0
  0
LINE
  5
254D
330
241C
100
AcDbEntity
  8
SUNPOU
100
AcDbLine
 10
218.6867585701412
 20
188.9816610128868
 30
0.0
 11
271.8999585701414
 21
188.9816610128868
 31
0.0
  0
INSERT
  5
254E
330
241C
100
AcDbEntity
  8
SUNPOU
100
AcDbBlockReference
  2
_OPEN
 10
211.6867585701412
 20
188.9816610128868
 30
0.0
 41
7.0
 42
7.0
 43
7.0
 50
180.0
  0
INSERT
  5
254F
330
241C
100
AcDbEntity
  8
SUNPOU
100
AcDbBlockReference
  2
_OPEN
 10
278.8999585701414
 20
188.9816610128868
 30
0.0
 41
7.0
 42
7.0
 43
7.0
  0
MTEXT
  5
2550
330
241C
100
AcDbEntity
  8
SUNPOU
100
AcDbMText
 10
245.2933585701413
 20
193.9816610128868
 30
0.0
 40
6.0
 41
0.0
 71
     5
 72
     5
  1
\A1;67
 73
     1
 44
1.0
1001
ACAD
1000
MTEXTBEGIN
1070
    73
1070
     1
1070
    44
1040
1.0
1070
    74
1070
     0
1000
MTEXTEND
  0
POINT
  5
2551
330
241C
100
AcDbEntity
  8
DEFPOINTS
 62
     0
100
AcDbPoint
 10
211.6867585701412
 20
288.4519602610679
 30
0.0
  0
POINT
  5
2552
330
241C
100
AcDbEntity
  8
DEFPOINTS
 62
     0
100
AcDbPoint
 10
278.8999585701414
 20
248.6049602610679
 30
0.0
  0
POINT
  5
2553
330
241C
100
AcDbEntity
  8
DEFPOINTS
 62
     0
100
AcDbPoint
 10
278.8999585701414
 20
188.9816610128868
 30
0.0
  0
ENDBLK
  5
2427
330
241C
100
AcDbEntity
  8
0
100
AcDbBlockEnd
  0
BLOCK
  5
2432
330
2428
100
AcDbEntity
  8
0
100
AcDbBlockBegin
  2
*D4
 70
     1
 10
0.0
 20
0.0
 30
0.0
  3
*D4
  1

  0
LINE
  5
2542
330
2428
100
AcDbEntity
  8
SUNPOU
100
AcDbLine
 10
211.6867585701412
 20
282.4519602610679
 30
0.0
 11
211.6867585701412
 21
203.8441005007416
 31
0.0
  0
LINE
  5
2543
330
2428
100
AcDbEntity
  8
SUNPOU
100
AcDbLine
 10
248.8999585701413
 20
239.0049602610679
 30
0.0
 11
248.8999585701413
 21
203.8441005007416
 31
0.0
  0
LINE
  5
2544
330
2428
100
AcDbEntity
  8
SUNPOU
100
AcDbLine
 10
218.6867585701412
 20
206.8441005007416
 30
0.0
 11
241.8999585701413
 21
206.8441005007416
 31
0.0
  0
INSERT
  5
2545
330
2428
100
AcDbEntity
  8
SUNPOU
100
AcDbBlockReference
  2
_OPEN
 10
211.6867585701412
 20
206.8441005007416
 30
0.0
 41
7.0
 42
7.0
 43
7.0
 50
180.0
  0
INSERT
  5
2546
330
2428
100
AcDbEntity
  8
SUNPOU
100
AcDbBlockReference
  2
_OPEN
 10
248.8999585701413
 20
206.8441005007416
 30
0.0
 41
7.0
 42
7.0
 43
7.0
  0
MTEXT
  5
2547
330
2428
100
AcDbEntity
  8
SUNPOU
100
AcDbMText
 10
230.2933585701413
 20
211.8441005007416
 30
0.0
 40
6.0
 41
0.0
 71
     5
 72
     5
  1
\A1;37
 73
     1
 44
1.0
1001
ACAD
1000
MTEXTBEGIN
1070
    73
1070
     1
1070
    44
1040
1.0
1070
    74
1070
     0
1000
MTEXTEND
  0
POINT
  5
2548
330
2428
100
AcDbEntity
  8
DEFPOINTS
 62
     0
100
AcDbPoint
 10
211.6867585701412
 20
288.4519602610679
 30
0.0
  0
POINT
  5
2549
330
2428
100
AcDbEntity
  8
DEFPOINTS
 62
     0
100
AcDbPoint
 10
248.8999585701413
 20
245.0049602610679
 30
0.0
  0
POINT
  5
254A
330
2428
100
AcDbEntity
  8
DEFPOINTS
 62
     0
100
AcDbPoint
 10
248.8999585701413
 20
206.8441005007416
 30
0.0
  0
ENDBLK
  5
2433
330
2428
100
AcDbEntity
  8
0
100
AcDbBlockEnd
  0
BLOCK
  5
243E
330
2434
100
AcDbEntity
  8
0
100
AcDbBlockBegin
  2
*D5
 70
     1
 10
0.0
 20
0.0
 30
0.0
  3
*D5
  1

  0
LINE
  5
256F
330
2434
100
AcDbEntity
  8
SUNPOU
100
AcDbLine
 10
249.3868585701412
 20
345.3681602610679
 30
0.0
 11
296.0303113430173
 21
345.3681602610679
 31
0.0
  0
LINE
  5
2570
330
2434
100
AcDbEntity
  8
SUNPOU
100
AcDbLine
 10
249.3868585701412
 20
318.3681602610679
 30
0.0
 11
296.0303113430173
 21
318.3681602610679
 31
0.0
  0
LINE
  5
2571
330
2434
100
AcDbEntity
  8
SUNPOU
100
AcDbLine
 10
293.0303113430174
 20
338.3681602610679
 30
0.0
 11
293.0303113430174
 21
325.3681602610679
 31
0.0
  0
INSERT
  5
2572
330
2434
100
AcDbEntity
  8
SUNPOU
100
AcDbBlockReference
  2
_OPEN
 10
293.0303113430174
 20
345.3681602610679
 30
0.0
 41
7.0
 42
7.0
 43
7.0
 50
90.0
  0
INSERT
  5
2573
330
2434
100
AcDbEntity
  8
SUNPOU
100
AcDbBlockReference
  2
_OPEN
 10
293.0303113430174
 20
318.3681602610679
 30
0.0
 41
7.0
 42
7.0
 43
7.0
 50
270.0
  0
MTEXT
  5
2574
330
2434
100
AcDbEntity
  8
SUNPOU
100
AcDbMText
 10
288.0303113430173
 20
331.868160261068
 30
0.0
 40
6.0
 41
0.0
 71
     5
 72
     5
  1
\A1;27
 11
0.0000000000000001
 21
1.0
 31
0.0
 73
     1
 44
1.0
1001
ACAD
1000
MTEXTBEGIN
1070
    73
1070
     1
1070
    44
1040
1.0
1070
    74
1070
     0
1000
MTEXTEND
  0
POINT
  5
2575
330
2434
100
AcDbEntity
  8
DEFPOINTS
 62
     0
100
AcDbPoint
 10
243.3868585701412
 20
345.3681602610679
 30
0.0
  0
POINT
  5
2576
330
2434
100
AcDbEntity
  8
DEFPOINTS
 62
     0
100
AcDbPoint
 10
243.3868585701412
 20
318.3681602610679
 30
0.0
  0
POINT
  5
2577
330
2434
100
AcDbEntity
  8
DEFPOINTS
 62
     0
100
AcDbPoint
 10
293.0303113430174
 20
318.3681602610679
 30
0.0
  0
ENDBLK
  5
243F
330
2434
100
AcDbEntity
  8
0
100
AcDbBlockEnd
  0
BLOCK
  5
244A
330
2440
100
AcDbEntity
  8
0
100
AcDbBlockBegin
  2
*D6
 70
     1
 10
0.0
 20
0.0
 30
0.0
  3
*D6
  1

  0
LINE
  5
2539
330
2440
100
AcDbEntity
  8
SUNPOU
100
AcDbLine
 10
179.9868585701414
 20
351.3683602610677
 30
0.0
 11
179.9868585701414
 21
394.050512770091
 31
0.0
  0
LINE
  5
253A
330
2440
100
AcDbEntity
  8
SUNPOU
100
AcDbLine
 10
243.3868585701412
 20
351.3681602610679
 30
0.0
 11
243.3868585701412
 21
394.050512770091
 31
0.0
  0
LINE
  5
253B
330
2440
100
AcDbEntity
  8
SUNPOU
100
AcDbLine
 10
186.9868585701414
 20
391.050512770091
 30
0.0
 11
236.3868585701412
 21
391.050512770091
 31
0.0
  0
INSERT
  5
253C
330
2440
100
AcDbEntity
  8
SUNPOU
100
AcDbBlockReference
  2
_OPEN
 10
179.9868585701414
 20
391.050512770091
 30
0.0
 41
7.0
 42
7.0
 43
7.0
 50
180.0
  0
INSERT
  5
253D
330
2440
100
AcDbEntity
  8
SUNPOU
100
AcDbBlockReference
  2
_OPEN
 10
243.3868585701412
 20
391.050512770091
 30
0.0
 41
7.0
 42
7.0
 43
7.0
  0
MTEXT
  5
253E
330
2440
100
AcDbEntity
  8
SUNPOU
100
AcDbMText
 10
211.6868585701413
 20
396.050512770091
 30
0.0
 40
6.0
 41
0.0
 71
     5
 72
     5
  1
\A1;φ63
 73
     1
 44
1.0
1001
ACAD
1000
MTEXTBEGIN
1070
    73
1070
     1
1070
    44
1040
1.0
1070
    74
1070
     0
1000
MTEXTEND
  0
POINT
  5
253F
330
2440
100
AcDbEntity
  8
DEFPOINTS
 62
     0
100
AcDbPoint
 10
179.9868585701414
 20
345.3683602610677
 30
0.0
  0
POINT
  5
2540
330
2440
100
AcDbEntity
  8
DEFPOINTS
 62
     0
100
AcDbPoint
 10
243.3868585701412
 20
345.3681602610679
 30
0.0
  0
POINT
  5
2541
330
2440
100
AcDbEntity
  8
DEFPOINTS
 62
     0
100
AcDbPoint
 10
243.3868585701412
 20
391.050512770091
 30
0.0
  0
ENDBLK
  5
244B
330
2440
100
AcDbEntity
  8
0
100
AcDbBlockEnd
  0
BLOCK
  5
2456
330
244C
100
AcDbEntity
  8
0
100
AcDbBlockBegin
  2
*D7
 70
     1
 10
0.0
 20
0.0
 30
0.0
  3
*D7
  1

  0
LINE
  5
2566
330
244C
100
AcDbEntity
  8
SUNPOU
100
AcDbLine
 10
249.3868585701412
 20
345.3681602610679
 30
0.0
 11
276.4736703029781
 21
345.3681602610679
 31
0.0
  0
LINE
  5
2567
330
244C
100
AcDbEntity
  8
SUNPOU
100
AcDbLine
 10
249.3868585701412
 20
320.3681602610679
 30
0.0
 11
276.4736703029781
 21
320.3681602610679
 31
0.0
  0
LINE
  5
2568
330
244C
100
AcDbEntity
  8
SUNPOU
100
AcDbLine
 10
273.4736703029781
 20
338.3681602610679
 30
0.0
 11
273.4736703029781
 21
327.3681602610679
 31
0.0
  0
INSERT
  5
2569
330
244C
100
AcDbEntity
  8
SUNPOU
100
AcDbBlockReference
  2
_OPEN
 10
273.4736703029781
 20
345.3681602610679
 30
0.0
 41
7.0
 42
7.0
 43
7.0
 50
90.0
  0
INSERT
  5
256A
330
244C
100
AcDbEntity
  8
SUNPOU
100
AcDbBlockReference
  2
_OPEN
 10
273.4736703029781
 20
320.3681602610679
 30
0.0
 41
7.0
 42
7.0
 43
7.0
 50
270.0
  0
MTEXT
  5
256B
330
244C
100
AcDbEntity
  8
SUNPOU
100
AcDbMText
 10
268.473670302978
 20
332.868160261068
 30
0.0
 40
6.0
 41
0.0
 71
     5
 72
     5
  1
\A1;\U+203B25
 11
0.0000000000000001
 21
1.0
 31
0.0
 73
     1
 44
1.0
1001
ACAD
1000
MTEXTBEGIN
1070
    73
1070
     1
1070
    44
1040
1.0
1070
    74
1070
     0
1000
MTEXTEND
  0
POINT
  5
256C
330
244C
100
AcDbEntity
  8
DEFPOINTS
 62
     0
100
AcDbPoint
 10
243.3868585701412
 20
345.3681602610679
 30
0.0
  0
POINT
  5
256D
330
244C
100
AcDbEntity
  8
DEFPOINTS
 62
     0
100
AcDbPoint
 10
243.3868585701412
 20
320.3681602610679
 30
0.0
  0
POINT
  5
256E
330
244C
100
AcDbEntity
  8
DEFPOINTS
 62
     0
100
AcDbPoint
 10
273.4736703029781
 20
320.3681602610679
 30
0.0
  0
ENDBLK
  5
2457
330
244C
100
AcDbEntity
  8
0
100
AcDbBlockEnd
  0
BLOCK
  5
2462
330
2458
100
AcDbEntity
  8
0
100
AcDbBlockBegin
  2
*D8
 70
     1
 10
0.0
 20
0.0
 30
0.0
  3
*D8
  1

  0
LINE
  5
2581
330
2458
100
AcDbEntity
  8
SUNPOU
100
AcDbLine
 10
576.8868641479022
 20
345.3683602610677
 30
0.0
 11
528.4187774186364
 21
345.3683602610677
 31
0.0
  0
LINE
  5
2582
330
2458
100
AcDbEntity
  8
SUNPOU
100
AcDbLine
 10
603.2496641479025
 20
229.1550602610679
 30
0.0
 11
528.4187774186363
 21
229.1550602610679
 31
0.0
  0
LINE
  5
2583
330
2458
100
AcDbEntity
  8
SUNPOU
100
AcDbLine
 10
531.4187774186364
 20
338.3683602610677
 30
0.0
 11
531.4187774186363
 21
236.1550602610679
 31
0.0
  0
INSERT
  5
2584
330
2458
100
AcDbEntity
  8
SUNPOU
100
AcDbBlockReference
  2
_OPEN
 10
531.4187774186364
 20
345.3683602610677
 30
0.0
 41
7.0
 42
7.0
 43
7.0
 50
90.0
  0
INSERT
  5
2585
330
2458
100
AcDbEntity
  8
SUNPOU
100
AcDbBlockReference
  2
_OPEN
 10
531.4187774186363
 20
229.1550602610679
 30
0.0
 41
7.0
 42
7.0
 43
7.0
 50
270.0
  0
MTEXT
  5
2586
330
2458
100
AcDbEntity
  8
SUNPOU
100
AcDbMText
 10
526.4187774186362
 20
287.2617102610679
 30
0.0
 40
6.0
 41
0.0
 71
     5
 72
     5
  1
\A1;116
 11
0.0000000000000001
 21
1.0
 31
0.0
 73
     1
 44
1.0
1001
ACAD
1000
MTEXTBEGIN
1070
    73
1070
     1
1070
    44
1040
1.0
1070
    74
1070
     0
1000
MTEXTEND
  0
POINT
  5
2587
330
2458
100
AcDbEntity
  8
DEFPOINTS
 62
     0
100
AcDbPoint
 10
582.8868641479021
 20
345.3683602610677
 30
0.0
  0
POINT
  5
2588
330
2458
100
AcDbEntity
  8
DEFPOINTS
 62
     0
100
AcDbPoint
 10
609.2496641479025
 20
229.1550602610679
 30
0.0
  0
POINT
  5
2589
330
2458
100
AcDbEntity
  8
DEFPOINTS
 62
     0
100
AcDbPoint
 10
531.4187774186363
 20
229.1550602610679
 30
0.0
  0
ENDBLK
  5
2463
330
2458
100
AcDbEntity
  8
0
100
AcDbBlockEnd
  0
BLOCK
  5
246E
330
2464
100
AcDbEntity
  8
0
100
AcDbBlockBegin
  2
*D9
 70
     1
 10
0.0
 20
0.0
 30
0.0
  3
*D9
  1

  0
LINE
  5
2578
330
2464
100
AcDbEntity
  8
SUNPOU
100
AcDbLine
 10
576.8868641476025
 20
345.3682602610677
 30
0.0
 11
545.1442207069218
 21
345.3682602610677
 31
0.0
  0
LINE
  5
2579
330
2464
100
AcDbEntity
  8
SUNPOU
100
AcDbLine
 10
599.6498641479021
 20
259.1550602610677
 30
0.0
 11
545.1442207069218
 21
259.1550602610677
 31
0.0
  0
LINE
  5
257A
330
2464
100
AcDbEntity
  8
SUNPOU
100
AcDbLine
 10
548.1442207069218
 20
338.3682602610678
 30
0.0
 11
548.1442207069218
 21
266.1550602610677
 31
0.0
  0
INSERT
  5
257B
330
2464
100
AcDbEntity
  8
SUNPOU
100
AcDbBlockReference
  2
_OPEN
 10
548.1442207069218
 20
345.3682602610677
 30
0.0
 41
7.0
 42
7.0
 43
7.0
 50
90.0
  0
INSERT
  5
257C
330
2464
100
AcDbEntity
  8
SUNPOU
100
AcDbBlockReference
  2
_OPEN
 10
548.1442207069218
 20
259.1550602610677
 30
0.0
 41
7.0
 42
7.0
 43
7.0
 50
270.0
  0
MTEXT
  5
257D
330
2464
100
AcDbEntity
  8
SUNPOU
100
AcDbMText
 10
543.1442207069217
 20
302.2616602610678
 30
0.0
 40
6.0
 41
0.0
 71
     5
 72
     5
  1
\A1;86
 11
0.0000000000000001
 21
1.0
 31
0.0
 73
     1
 44
1.0
1001
ACAD
1000
MTEXTBEGIN
1070
    73
1070
     1
1070
    44
1040
1.0
1070
    74
1070
     0
1000
MTEXTEND
  0
POINT
  5
257E
330
2464
100
AcDbEntity
  8
DEFPOINTS
 62
     0
100
AcDbPoint
 10
582.8868641476025
 20
345.3682602610677
 30
0.0
  0
POINT
  5
257F
330
2464
100
AcDbEntity
  8
DEFPOINTS
 62
     0
100
AcDbPoint
 10
605.6498641479021
 20
259.1550602610677
 30
0.0
  0
POINT
  5
2580
330
2464
100
AcDbEntity
  8
DEFPOINTS
 62
     0
100
AcDbPoint
 10
548.1442207069218
 20
259.1550602610677
 30
0.0
  0
ENDBLK
  5
246F
330
2464
100
AcDbEntity
  8
0
100
AcDbBlockEnd
  0
BLOCK
  5
247A
330
2470
100
AcDbEntity
  8
0
100
AcDbBlockBegin
  2
*D10
 70
     1
 10
0.0
 20
0.0
 30
0.0
  3
*D10
  1

  0
LINE
  5
2530
330
2470
100
AcDbEntity
  8
SUNPOU
100
AcDbLine
 10
614.5868641479024
 20
356.6508602610678
 30
0.0
 11
614.5868641479024
 21
394.6678528725446
 31
0.0
  0
LINE
  5
2531
330
2470
100
AcDbEntity
  8
SUNPOU
100
AcDbLine
 10
635.7999641479024
 20
283.7942602610678
 30
0.0
 11
635.7999641479024
 21
394.6678528725446
 31
0.0
  0
LINE
  5
2532
330
2470
100
AcDbEntity
  8
SUNPOU
100
AcDbLine
 10
621.5868641479024
 20
391.6678528725446
 30
0.0
 11
628.7999641479024
 21
391.6678528725446
 31
0.0
  0
INSERT
  5
2533
330
2470
100
AcDbEntity
  8
SUNPOU
100
AcDbBlockReference
  2
_OPEN
 10
614.5868641479024
 20
391.6678528725446
 30
0.0
 41
7.0
 42
7.0
 43
7.0
 50
180.0
  0
INSERT
  5
2534
330
2470
100
AcDbEntity
  8
SUNPOU
100
AcDbBlockReference
  2
_OPEN
 10
635.7999641479024
 20
391.6678528725446
 30
0.0
 41
7.0
 42
7.0
 43
7.0
  0
MTEXT
  5
2535
330
2470
100
AcDbEntity
  8
SUNPOU
100
AcDbMText
 10
625.1934141479024
 20
396.6678528725446
 30
0.0
 40
6.0
 41
0.0
 71
     5
 72
     5
  1
\A1;21
 73
     1
 44
1.0
1001
ACAD
1000
MTEXTBEGIN
1070
    73
1070
     1
1070
    44
1040
1.0
1070
    74
1070
     0
1000
MTEXTEND
  0
POINT
  5
2536
330
2470
100
AcDbEntity
  8
DEFPOINTS
 62
     0
100
AcDbPoint
 10
614.5868641479024
 20
350.6508602610677
 30
0.0
  0
POINT
  5
2537
330
2470
100
AcDbEntity
  8
DEFPOINTS
 62
     0
100
AcDbPoint
 10
635.7999641479024
 20
277.7942602610678
 30
0.0
  0
POINT
  5
2538
330
2470
100
AcDbEntity
  8
DEFPOINTS
 62
     0
100
AcDbPoint
 10
635.7999641479024
 20
391.6678528725446
 30
0.0
  0
ENDBLK
  5
247B
330
2470
100
AcDbEntity
  8
0
100
AcDbBlockEnd
  0
BLOCK
  5
2960
330
27CC
100
AcDbEntity
  8
0
100
AcDbBlockBegin
  2
*X11
 70
     1
 10
0.0
 20
0.0
 30
0.0
  3
*X11
  1

  0
LINE
  5
27CD
330
27CC
100
AcDbEntity
  8
0
 62
     0
100
AcDbLine
 10
69.04221216833718
 20
22.60416893857376
 30
0.0
 11
68.39638123862227
 21
23.24999986828874
 31
0.0
  0
LINE
  5
27CE
330
27CC
100
AcDbEntity
  8
0
 62
     0
100
AcDbLine
 10
69.04221216833718
 20
21.70614332646687
 30
0.0
 11
67.49835562651532
 21
23.24999986828874
 31
0.0
  0
LINE
  5
27CF
330
27CC
100
AcDbEntity
  8
0
 62
     0
100
AcDbLine
 10
69.04221216833713
 20
20.80811771435992
 30
0.0
 11
66.62107822232218
 21
23.22925166037486
 31
0.0
  0
LINE
  5
27D0
330
27CC
100
AcDbEntity
  8
0
 62
     0
100
AcDbLine
 10
69.04221216833718
 20
19.91009210225309
 30
0.0
 11
66.24221216833712
 21
22.71009210225309
 31
0.0
  0
LINE
  5
27D1
330
27CC
100
AcDbEntity
  8
0
 62
     0
100
AcDbLine
 10
69.04221216833718
 20
19.01206649014613
 30
0.0
 11
66.24221216833712
 21
21.8120664901462
 31
0.0
  0
LINE
  5
27D2
330
27CC
100
AcDbEntity
  8
0
 62
     0
100
AcDbLine
 10
69.04221216833713
 20
18.11404087803919
 30
0.0
 11
66.24221216833706
 21
20.91404087803926
 31
0.0
  0
LINE
  5
27D3
330
27CC
100
AcDbEntity
  8
0
 62
     0
100
AcDbLine
 10
64.14221216833709
 20
22.11601526593239
 30
0.0
 11
63.0082275659808
 21
23.24999986828874
 31
0.0
  0
LINE
  5
27D4
330
27CC
100
AcDbEntity
  8
0
 62
     0
100
AcDbLine
 10
69.04221216833718
 20
17.21601526593235
 30
0.0
 11
66.24221216833712
 21
20.01601526593242
 31
0.0
  0
LINE
  5
27D5
330
27CC
100
AcDbEntity
  8
0
 62
     0
100
AcDbLine
 10
64.14221216833709
 20
21.21798965382549
 30
0.0
 11
62.11020195387385
 21
23.24999986828868
 31
0.0
  0
LINE
  5
27D6
330
27CC
100
AcDbEntity
  8
0
 62
     0
100
AcDbLine
 10
69.04221216833713
 20
16.3179896538254
 30
0.0
 11
66.24221216833712
 21
19.11798965382547
 31
0.0
  0
LINE
  5
27D7
330
27CC
100
AcDbEntity
  8
0
 62
     0
100
AcDbLine
 10
64.14221216833709
 20
20.31996404171855
 30
0.0
 11
61.43670120320002
 21
23.02547500685562
 31
0.0
  0
LINE
  5
27D8
330
27CC
100
AcDbEntity
  8
0
 62
     0
100
AcDbLine
 10
69.04221216833713
 20
15.41996404171851
 30
0.0
 11
66.24221216833706
 21
18.21996404171852
 31
0.0
  0
LINE
  5
27D9
330
27CC
100
AcDbEntity
  8
0
 62
     0
100
AcDbLine
 10
64.14221216833721
 20
19.42193842961154
 30
0.0
 11
61.34221216833703
 21
22.22193842961166
 31
0.0
  0
LINE
  5
27DA
330
27CC
100
AcDbEntity
  8
0
 62
     0
100
AcDbLine
 10
69.04221216833718
 20
14.52193842961156
 30
0.0
 11
66.24221216833712
 21
17.32193842961163
 31
0.0
  0
LINE
  5
27DB
330
27CC
100
AcDbEntity
  8
0
 62
     0
100
AcDbLine
 10
64.14221216833715
 20
18.52391281750465
 30
0.0
 11
61.34221216833703
 21
21.32391281750483
 31
0.0
  0
LINE
  5
27DC
330
27CC
100
AcDbEntity
  8
0
 62
     0
100
AcDbLine
 10
69.04221216833713
 20
13.62391281750467
 30
0.0
 11
66.24221216833706
 21
16.42391281750474
 31
0.0
  0
LINE
  5
27DD
330
27CC
100
AcDbEntity
  8
0
 62
     0
100
AcDbLine
 10
64.14221216833715
 20
17.62588720539776
 30
0.0
 11
61.34221216833703
 21
20.42588720539788
 31
0.0
  0
LINE
  5
27DE
330
27CC
100
AcDbEntity
  8
0
 62
     0
100
AcDbLine
 10
69.04221216833713
 20
12.72588720539778
 30
0.0
 11
66.24221216833706
 21
15.52588720539785
 31
0.0
  0
LINE
  5
27DF
330
27CC
100
AcDbEntity
  8
0
 62
     0
100
AcDbLine
 10
64.14221216833709
 20
16.72786159329081
 30
0.0
 11
61.34221216833697
 21
19.52786159329093
 31
0.0
  0
LINE
  5
27E0
330
27CC
100
AcDbEntity
  8
0
 62
     0
100
AcDbLine
 10
69.04221216833708
 20
11.82786159329083
 30
0.0
 11
66.24221216833706
 21
14.6278615932909
 31
0.0
  0
LINE
  5
27E1
330
27CC
100
AcDbEntity
  8
0
 62
     0
100
AcDbLine
 10
64.14221216833715
 20
15.82983598118397
 30
0.0
 11
61.34221216833703
 21
18.6298359811841
 31
0.0
  0
LINE
  5
27E2
330
27CC
100
AcDbEntity
  8
0
 62
     0
100
AcDbLine
 10
57.84221216833708
 20
22.12983598118404
 30
0.0
 11
56.72204828123245
 21
23.24999986828868
 31
0.0
  0
LINE
  5
27E3
330
27CC
100
AcDbEntity
  8
0
 62
     0
100
AcDbLine
 10
69.04221216833713
 20
10.92983598118399
 30
0.0
 11
66.24221216833706
 21
13.72983598118401
 31
0.0
  0
LINE
  5
27E4
330
27CC
100
AcDbEntity
  8
0
 62
     0
100
AcDbLine
 10
64.14221216833715
 20
14.93181036907702
 30
0.0
 11
61.34221216833697
 21
17.73181036907715
 31
0.0
  0
LINE
  5
27E5
330
27CC
100
AcDbEntity
  8
0
 62
     0
100
AcDbLine
 10
57.84221216833703
 20
21.23181036907709
 30
0.0
 11
55.82402266912549
 21
23.24999986828868
 31
0.0
  0
LINE
  5
27E6
330
27CC
100
AcDbEntity
  8
0
 62
     0
100
AcDbLine
 10
69.04221216833713
 20
10.03181036907704
 30
0.0
 11
66.24221216833706
 21
12.83181036907711
 31
0.0
  0
LINE
  5
27E7
330
27CC
100
AcDbEntity
  8
0
 62
     0
100
AcDbLine
 10
64.14221216833709
 20
14.03378475697013
 30
0.0
 11
61.34221216833703
 21
16.83378475697014
 31
0.0
  0
LINE
  5
27E8
330
27CC
100
AcDbEntity
  8
0
 62
     0
100
AcDbLine
 10
57.84221216833703
 20
20.3337847569702
 30
0.0
 11
55.14244944501303
 21
23.0335474802942
 31
0.0
  0
LINE
  5
27E9
330
27CC
100
AcDbEntity
  8
0
 62
     0
100
AcDbLine
 10
69.04221216833708
 20
9.133784756970158
 30
0.0
 11
66.242212168337
 21
11.93378475697016
 31
0.0
  0
LINE
  5
27EA
330
27CC
100
AcDbEntity
  8
0
 62
     0
100
AcDbLine
 10
64.14221216833715
 20
13.13575914486318
 30
0.0
 11
61.34221216833708
 21
15.93575914486325
 31
0.0
  0
LINE
  5
27EB
330
27CC
100
AcDbEntity
  8
0
 62
     0
100
AcDbLine
 10
57.84221216833708
 20
19.43575914486325
 30
0.0
 11
55.04221216833707
 21
22.23575914486326
 31
0.0
  0
LINE
  5
27EC
330
27CC
100
AcDbEntity
  8
0
 62
     0
100
AcDbLine
 10
69.04221216833713
 20
8.235759144863209
 30
0.0
 11
66.24221216833706
 21
11.03575914486327
 31
0.0
  0
LINE
  5
27ED
330
27CC
100
AcDbEntity
  8
0
 62
     0
100
AcDbLine
 10
64.14221216833709
 20
12.23773353275629
 30
0.0
 11
61.34221216833708
 21
15.03773353275636
 31
0.0
  0
LINE
  5
27EE
330
27CC
100
AcDbEntity
  8
0
 62
     0
100
AcDbLine
 10
57.84221216833714
 20
18.5377335327563
 30
0.0
 11
55.04221216833713
 21
21.33773353275632
 31
0.0
  0
LINE
  5
27EF
330
27CC
100
AcDbEntity
  8
0
 62
     0
100
AcDbLine
 10
68.97024681344731
 20
7.409698887646129
 30
0.0
 11
66.24221216833706
 21
10.13773353275638
 31
0.0
  0
LINE
  5
27F0
330
27CC
100
AcDbEntity
  8
0
 62
     0
100
AcDbLine
 10
64.14221216833715
 20
11.33970792064928
 30
0.0
 11
61.34221216833703
 21
14.13970792064941
 31
0.0
  0
LINE
  5
27F1
330
27CC
100
AcDbEntity
  8
0
 62
     0
100
AcDbLine
 10
57.84221216833708
 20
17.63970792064941
 30
0.0
 11
55.04221216833713
 21
20.43970792064937
 31
0.0
  0
LINE
  5
27F2
330
27CC
100
AcDbEntity
  8
0
 62
     0
100
AcDbLine
 10
68.33192022069784
 20
7.149999868288659
 30
0.0
 11
66.242212168337
 21
9.239707920649493
 31
0.0
  0
LINE
  5
27F3
330
27CC
100
AcDbEntity
  8
0
 62
     0
100
AcDbLine
 10
57.84221216833708
 20
16.74168230854246
 30
0.0
 11
55.04221216833707
 21
19.54168230854241
 31
0.0
  0
LINE
  5
27F4
330
27CC
100
AcDbEntity
  8
0
 62
     0
100
AcDbLine
 10
64.14221216833715
 20
10.44168230854239
 30
0.0
 11
61.34221216833703
 21
13.24168230854252
 31
0.0
  0
LINE
  5
27F5
330
27CC
100
AcDbEntity
  8
0
 62
     0
100
AcDbLine
 10
52.41721216833707
 20
22.16668230854247
 30
0.0
 11
51.33389460859075
 21
23.24999986828874
 31
0.0
  0
LINE
  5
27F6
330
27CC
100
AcDbEntity
  8
0
 62
     0
100
AcDbLine
 10
67.43389460859095
 20
7.149999868288546
 30
0.0
 11
66.242212168337
 21
8.341682308542544
 31
0.0
  0
LINE
  5
27F7
330
27CC
100
AcDbEntity
  8
0
 62
     0
100
AcDbLine
 10
57.84221216833708
 20
15.84365669643557
 30
0.0
 11
55.04221216833713
 21
18.64365669643558
 31
0.0
  0
LINE
  5
27F8
330
27CC
100
AcDbEntity
  8
0
 62
     0
100
AcDbLine
 10
52.41721216833707
 20
21.26865669643558
 30
0.0
 11
50.43586899648392
 21
23.24999986828879
 31
0.0
  0
LINE
  5
27F9
330
27CC
100
AcDbEntity
  8
0
 62
     0
100
AcDbLine
 10
64.11625386769157
 20
9.569614997081146
 30
0.0
 11
61.34221216833703
 21
12.34365669643563
 31
0.0
  0
LINE
  5
27FA
330
27CC
100
AcDbEntity
  8
0
 62
     0
100
AcDbLine
 10
57.84221216833708
 20
14.94563108432868
 30
0.0
 11
55.04221216833713
 21
17.74563108432863
 31
0.0
  0
LINE
  5
27FB
330
27CC
100
AcDbEntity
  8
0
 62
     0
100
AcDbLine
 10
52.22163162222324
 20
20.56621163044252
 30
0.0
 11
49.53784338437708
 21
23.24999986828868
 31
0.0
  0
LINE
  5
27FC
330
27CC
100
AcDbEntity
  8
0
 62
     0
100
AcDbLine
 10
63.92326857243432
 20
8.864574680231385
 30
0.0
 11
61.34221216833703
 21
11.44563108432873
 31
0.0
  0
LINE
  5
27FD
330
27CC
100
AcDbEntity
  8
0
 62
     0
100
AcDbLine
 10
57.84221216833708
 20
14.04760547222173
 30
0.0
 11
55.04221216833707
 21
16.84760547222174
 31
0.0
  0
LINE
  5
27FE
330
27CC
100
AcDbEntity
  8
0
 62
     0
100
AcDbLine
 10
51.43981777227009
 20
20.44999986828867
 30
0.0
 11
48.63981777227007
 21
23.24999986828874
 31
0.0
  0
LINE
  5
27FF
330
27CC
100
AcDbEntity
  8
0
 62
     0
100
AcDbLine
 10
63.59823669651075
 20
8.291580944048007
 30
0.0
 11
61.27069642917752
 21
10.61912121138129
 31
0.0
  0
LINE
  5
2800
330
27CC
100
AcDbEntity
  8
0
 62
     0
100
AcDbLine
 10
57.84221216833708
 20
13.14957986011489
 30
0.0
 11
55.04221216833713
 21
15.94957986011485
 31
0.0
  0
LINE
  5
2801
330
27CC
100
AcDbEntity
  8
0
 62
     0
100
AcDbLine
 10
50.54179216016326
 20
20.44999986828873
 30
0.0
 11
47.80422543098587
 21
23.18756659746611
 31
0.0
  0
LINE
  5
2802
330
27CC
100
AcDbEntity
  8
0
 62
     0
100
AcDbLine
 10
63.16619489918571
 20
7.825597129266213
 30
0.0
 11
60.86911079071001
 21
10.12268123774191
 31
0.0
  0
LINE
  5
2803
330
27CC
100
AcDbEntity
  8
0
 62
     0
100
AcDbLine
 10
57.84221216833708
 20
12.25155424800794
 30
0.0
 11
55.04221216833707
 21
15.0515542480079
 31
0.0
  0
LINE
  5
2804
330
27CC
100
AcDbEntity
  8
0
 62
     0
100
AcDbLine
 10
49.6437665480563
 20
20.44999986828873
 30
0.0
 11
47.13958500645247
 21
22.95418140989249
 31
0.0
  0
LINE
  5
2805
330
27CC
100
AcDbEntity
  8
0
 62
     0
100
AcDbLine
 10
62.63003255425968
 20
7.463733862085348
 30
0.0
 11
60.1437665480563
 21
9.949999868288671
 31
0.0
  0
LINE
  5
2806
330
27CC
100
AcDbEntity
  8
0
 62
     0
100
AcDbLine
 10
57.84221216833703
 20
11.353528635901
 30
0.0
 11
55.04221216833713
 21
14.15352863590089
 31
0.0
  0
LINE
  5
2807
330
27CC
100
AcDbEntity
  8
0
 62
     0
100
AcDbLine
 10
48.7675307639675
 20
20.42821004027052
 30
0.0
 11
46.59698406924229
 21
22.59875673499573
 31
0.0
  0
LINE
  5
2808
330
27CC
100
AcDbEntity
  8
0
 62
     0
100
AcDbLine
 10
61.97361999434838
 20
7.222120809889702
 30
0.0
 11
59.24574093594941
 21
9.949999868288671
 31
0.0
  0
LINE
  5
2809
330
27CC
100
AcDbEntity
  8
0
 62
     0
100
AcDbLine
 10
48.39221216833715
 20
19.90550302379392
 30
0.0
 11
46.15887201019774
 21
22.13884318193334
 31
0.0
  0
LINE
  5
280A
330
27CC
100
AcDbEntity
  8
0
 62
     0
100
AcDbLine
 10
61.14771532384253
 20
7.149999868288603
 30
0.0
 11
55.04221216833713
 21
13.255503023794
 31
0.0
  0
LINE
  5
280B
330
27CC
100
AcDbEntity
  8
0
 62
     0
100
AcDbLine
 10
48.3922121683372
 20
19.00747741168709
 30
0.0
 11
45.82710109784471
 21
21.57258848217958
 31
0.0
  0
LINE
  5
280C
330
27CC
100
AcDbEntity
  8
0
 62
     0
100
AcDbLine
 10
60.24968971173564
 20
7.149999868288603
 30
0.0
 11
55.04221216833719
 21
12.35747741168711
 31
0.0
  0
LINE
  5
280D
330
27CC
100
AcDbEntity
  8
0
 62
     0
100
AcDbLine
 10
48.59875644944094
 20
17.90290751847641
 30
0.0
 11
45.6249225784806
 21
20.87674138943668
 31
0.0
  0
LINE
  5
280E
330
27CC
100
AcDbEntity
  8
0
 62
     0
100
AcDbLine
 10
59.35166409962874
 20
7.149999868288603
 30
0.0
 11
55.04221216833713
 21
11.45945179958022
 31
0.0
  0
LINE
  5
280F
330
27CC
100
AcDbEntity
  8
0
 62
     0
100
AcDbLine
 10
52.81581587102846
 20
12.78782248478194
 30
0.0
 11
45.59221216833708
 21
20.01142618747326
 31
0.0
  0
LINE
  5
2810
330
27CC
100
AcDbEntity
  8
0
 62
     0
100
AcDbLine
 10
43.492212168337
 20
22.11142618747334
 30
0.0
 11
42.35363848752172
 21
23.24999986828868
 31
0.0
  0
LINE
  5
2811
330
27CC
100
AcDbEntity
  8
0
 62
     0
100
AcDbLine
 10
58.4536384875218
 20
7.149999868288603
 30
0.0
 11
55.04221216833713
 21
10.56142618747327
 31
0.0
  0
LINE
  5
2812
330
27CC
100
AcDbEntity
  8
0
 62
     0
100
AcDbLine
 10
52.94221216833716
 20
11.7634005753664
 30
0.0
 11
45.59221216833714
 21
19.11340057536642
 31
0.0
  0
LINE
  5
2813
330
27CC
100
AcDbEntity
  8
0
 62
     0
100
AcDbLine
 10
43.49221216833711
 20
21.21340057536639
 30
0.0
 11
41.45561287541477
 21
23.24999986828879
 31
0.0
  0
LINE
  5
2814
330
27CC
100
AcDbEntity
  8
0
 62
     0
100
AcDbLine
 10
57.53916499667003
 20
7.166447747033544
 30
0.0
 11
55.05866004708201
 21
9.646952696621553
 31
0.0
  0
LINE
  5
2815
330
27CC
100
AcDbEntity
  8
0
 62
     0
100
AcDbLine
 10
43.49221216833711
 20
20.3153749632595
 30
0.0
 11
40.7848222805618
 21
23.02276485103476
 31
0.0
  0
LINE
  5
2816
330
27CC
100
AcDbEntity
  8
0
 62
     0
100
AcDbLine
 10
52.94221216833711
 20
10.86537496325945
 30
0.0
 11
45.61562283621947
 21
18.19196429537714
 31
0.0
  0
LINE
  5
2817
330
27CC
100
AcDbEntity
  8
0
 62
     0
100
AcDbLine
 10
43.49221216833711
 20
19.41734935115255
 30
0.0
 11
40.6922121683371
 21
22.2173493511525
 31
0.0
  0
LINE
  5
2818
330
27CC
100
AcDbEntity
  8
0
 62
     0
100
AcDbLine
 10
52.94221216833699
 20
9.96734935115262
 30
0.0
 11
45.93374225405949
 21
16.97581926543017
 31
0.0
  0
LINE
  5
2819
330
27CC
100
AcDbEntity
  8
0
 62
     0
100
AcDbLine
 10
43.49221216833711
 20
18.51932373904566
 30
0.0
 11
40.69221216833716
 21
21.31932373904561
 31
0.0
  0
LINE
  5
281A
330
27CC
100
AcDbEntity
  8
0
 62
     0
100
AcDbLine
 10
52.83365035074803
 20
9.177885556634748
 30
0.0
 11
50.13801556170972
 21
11.87352034567305
 31
0.0
  0
LINE
  5
281B
330
27CC
100
AcDbEntity
  8
0
 62
     0
100
AcDbLine
 10
43.49221216833711
 20
17.62129812693876
 30
0.0
 11
40.6922121683371
 21
20.42129812693872
 31
0.0
  0
LINE
  5
281C
330
27CC
100
AcDbEntity
  8
0
 62
     0
100
AcDbLine
 10
38.40072526776009
 20
22.71278502751573
 30
0.0
 11
37.86351042698709
 21
23.24999986828879
 31
0.0
  0
LINE
  5
281D
330
27CC
100
AcDbEntity
  8
0
 62
     0
100
AcDbLine
 10
52.56577464298647
 20
8.547735652289418
 30
0.0
 11
50.14221216833715
 21
10.97129812693873
 31
0.0
  0
LINE
  5
281E
330
27CC
100
AcDbEntity
  8
0
 62
     0
100
AcDbLine
 10
43.49221216833706
 20
16.72327251483181
 30
0.0
 11
40.6922121683371
 21
19.52327251483183
 31
0.0
  0
LINE
  5
281F
330
27CC
100
AcDbEntity
  8
0
 62
     0
100
AcDbLine
 10
38.20179760350749
 20
22.01368707966139
 30
0.0
 11
36.9654848148802
 21
23.24999986828874
 31
0.0
  0
LINE
  5
2820
330
27CC
100
AcDbEntity
  8
0
 62
     0
100
AcDbLine
 10
52.18278784481118
 20
8.032696838357765
 30
0.0
 11
50.04492698545067
 21
10.17055769771826
 31
0.0
  0
LINE
  5
2821
330
27CC
100
AcDbEntity
  8
0
 62
     0
100
AcDbLine
 10
43.49221216833706
 20
15.82524690272492
 30
0.0
 11
40.6922121683371
 21
18.62524690272488
 31
0.0
  0
LINE
  5
2822
330
27CC
100
AcDbEntity
  8
0
 62
     0
100
AcDbLine
 10
37.9862714566018
 20
21.33118761446013
 30
0.0
 11
36.07705589313122
 21
23.24040317793077
 31
0.0
  0
LINE
  5
2823
330
27CC
100
AcDbEntity
  8
0
 62
     0
100
AcDbLine
 10
51.69646887969554
 20
7.620990191366388
 30
0.0
 11
49.36745920277331
 21
9.949999868288671
 31
0.0
  0
LINE
  5
2824
330
27CC
100
AcDbEntity
  8
0
 62
     0
100
AcDbLine
 10
43.49221216833711
 20
14.92722129061803
 30
0.0
 11
40.6922121683371
 21
17.72722129061799
 31
0.0
  0
LINE
  5
2825
330
27CC
100
AcDbEntity
  8
0
 62
     0
100
AcDbLine
 10
37.77074530969628
 20
20.64868814925887
 30
0.0
 11
35.64274530969623
 21
22.77668814925891
 31
0.0
  0
LINE
  5
2826
330
27CC
100
AcDbEntity
  8
0
 62
     0
100
AcDbLine
 10
51.10038493123517
 20
7.319048527719928
 30
0.0
 11
48.46943359066642
 21
9.949999868288728
 31
0.0
  0
LINE
  5
2827
330
27CC
100
AcDbEntity
  8
0
 62
     0
100
AcDbLine
 10
43.49221216833706
 20
14.02919567851114
 30
0.0
 11
40.6922121683371
 21
16.8291956785111
 31
0.0
  0
LINE
  5
2828
330
27CC
100
AcDbEntity
  8
0
 62
     0
100
AcDbLine
 10
37.55521916279042
 20
19.96618868405778
 30
0.0
 11
35.42721916279043
 21
22.09418868405776
 31
0.0
  0
LINE
  5
2829
330
27CC
100
AcDbEntity
  8
0
 62
     0
100
AcDbLine
 10
50.3627122795877
 20
7.158695567260508
 30
0.0
 11
47.57140797855953
 21
9.949999868288671
 31
0.0
  0
LINE
  5
282A
330
27CC
100
AcDbEntity
  8
0
 62
     0
100
AcDbLine
 10
43.49221216833706
 20
13.13117006640419
 30
0.0
 11
40.69221216833705
 21
15.93117006640414
 31
0.0
  0
LINE
  5
282B
330
27CC
100
AcDbEntity
  8
0
 62
     0
100
AcDbLine
 10
37.33969301588484
 20
19.2836892188564
 30
0.0
 11
35.21169301588475
 21
21.41168921885645
 31
0.0
  0
LINE
  5
282C
330
27CC
100
AcDbEntity
  8
0
 62
     0
100
AcDbLine
 10
49.47338236645265
 20
7.149999868288603
 30
0.0
 11
46.67338236645258
 21
9.949999868288671
 31
0.0
  0
LINE
  5
282D
330
27CC
100
AcDbEntity
  8
0
 62
     0
100
AcDbLine
 10
43.49221216833706
 20
12.2331444542973
 30
0.0
 11
40.6922121683371
 21
15.03314445429731
 31
0.0
  0
LINE
  5
282E
330
27CC
100
AcDbEntity
  8
0
 62
     0
100
AcDbLine
 10
37.12416686897927
 20
18.60118975365514
 30
0.0
 11
34.99616686897911
 21
20.72918975365524
 31
0.0
  0
LINE
  5
282F
330
27CC
100
AcDbEntity
  8
0
 62
     0
100
AcDbLine
 10
48.57535675434576
 20
7.149999868288659
 30
0.0
 11
46.14174505704937
 21
9.583611565585044
 31
0.0
  0
LINE
  5
2830
330
27CC
100
AcDbEntity
  8
0
 62
     0
100
AcDbLine
 10
36.90864072207352
 20
17.91869028845394
 30
0.0
 11
34.78064072207348
 21
20.04669028845398
 31
0.0
  0
LINE
  5
2831
330
27CC
100
AcDbEntity
  8
0
 62
     0
100
AcDbLine
 10
43.49221216833706
 20
11.33511884219041
 30
0.0
 11
40.6922121683371
 21
14.13511884219036
 31
0.0
  0
LINE
  5
2832
330
27CC
100
AcDbEntity
  8
0
 62
     0
100
AcDbLine
 10
32.64221216833709
 20
22.18511884219037
 30
0.0
 11
31.57733114223879
 21
23.24999986828862
 31
0.0
  0
LINE
  5
2833
330
27CC
100
AcDbEntity
  8
0
 62
     0
100
AcDbLine
 10
47.67733114223887
 20
7.149999868288603
 30
0.0
 11
46.11721216833712
 21
8.710118842190354
 31
0.0
  0
LINE
  5
2834
330
27CC
100
AcDbEntity
  8
0
 62
     0
100
AcDbLine
 10
36.69311457516784
 20
17.23619082325268
 30
0.0
 11
34.56511457516785
 21
19.36419082325267
 31
0.0
  0
LINE
  5
2835
330
27CC
100
AcDbEntity
  8
0
 62
     0
100
AcDbLine
 10
43.49221216833706
 20
10.43709323008346
 30
0.0
 11
40.69221216833705
 21
13.23709323008347
 31
0.0
  0
LINE
  5
2836
330
27CC
100
AcDbEntity
  8
0
 62
     0
100
AcDbLine
 10
32.64221216833709
 20
21.28709323008342
 30
0.0
 11
30.67930553013189
 21
23.24999986828862
 31
0.0
  0
LINE
  5
2837
330
27CC
100
AcDbEntity
  8
0
 62
     0
100
AcDbLine
 10
46.77930553013186
 20
7.149999868288659
 30
0.0
 11
46.11721216833706
 21
7.812093230083405
 31
0.0
  0
LINE
  5
2838
330
27CC
100
AcDbEntity
  8
0
 62
     0
100
AcDbLine
 10
36.47758842826215
 20
16.55369135805142
 30
0.0
 11
34.34958842826211
 21
18.68169135805146
 31
0.0
  0
LINE
  5
2839
330
27CC
100
AcDbEntity
  8
0
 62
     0
100
AcDbLine
 10
32.64221216833703
 20
20.38906761797647
 30
0.0
 11
29.96676723943943
 21
23.06451254687414
 31
0.0
  0
LINE
  5
283A
330
27CC
100
AcDbEntity
  8
0
 62
     0
100
AcDbLine
 10
43.492212168337
 20
9.53906761797657
 30
0.0
 11
40.69221216833705
 21
12.33906761797652
 31
0.0
  0
LINE
  5
283B
330
27CC
100
AcDbEntity
  8
0
 62
     0
100
AcDbLine
 10
36.26206228135652
 20
15.87119189285022
 30
0.0
 11
34.13406228135653
 21
17.9991918928502
 31
0.0
  0
LINE
  5
283C
330
27CC
100
AcDbEntity
  8
0
 62
     0
100
AcDbLine
 10
32.64221216833709
 20
19.49104200586964
 30
0.0
 11
29.84221216833702
 21
22.29104200586965
 31
0.0
  0
LINE
  5
283D
330
27CC
100
AcDbEntity
  8
0
 62
     0
100
AcDbLine
 10
43.49221216833706
 20
8.641042005869678
 30
0.0
 11
40.69221216833705
 21
11.44104200586963
 31
0.0
  0
LINE
  5
283E
330
27CC
100
AcDbEntity
  8
0
 62
     0
100
AcDbLine
 10
36.05697377196463
 20
15.17825479013515
 30
0.0
 11
33.91853613445078
 21
17.316692427649
 31
0.0
  0
LINE
  5
283F
330
27CC
100
AcDbEntity
  8
0
 62
     0
100
AcDbLine
 10
32.64221216833709
 20
18.59301639376269
 30
0.0
 11
29.84221216833702
 21
21.39301639376276
 31
0.0
  0
LINE
  5
2840
330
27CC
100
AcDbEntity
  8
0
 62
     0
100
AcDbLine
 10
43.492212168337
 20
7.743016393762729
 30
0.0
 11
40.69221216833705
 21
10.54301639376274
 31
0.0
  0
LINE
  5
2841
330
27CC
100
AcDbEntity
  8
0
 62
     0
100
AcDbLine
 10
36.47144713139863
 20
13.8657558185942
 30
0.0
 11
33.62798863876617
 21
16.70921431122667
 31
0.0
  0
LINE
  5
2842
330
27CC
100
AcDbEntity
  8
0
 62
     0
100
AcDbLine
 10
32.64221216833715
 20
17.69499078165569
 30
0.0
 11
29.84221216833697
 21
20.49499078165581
 31
0.0
  0
LINE
  5
2843
330
27CC
100
AcDbEntity
  8
0
 62
     0
100
AcDbLine
 10
43.15316717100467
 20
7.184035778988118
 30
0.0
 11
40.6922121683371
 21
9.644990781655735
 31
0.0
  0
LINE
  5
2844
330
27CC
100
AcDbEntity
  8
0
 62
     0
100
AcDbLine
 10
36.88592049083268
 20
12.55325684705332
 30
0.0
 11
29.84221216833702
 21
19.59696516954898
 31
0.0
  0
LINE
  5
2845
330
27CC
100
AcDbEntity
  8
0
 62
     0
100
AcDbLine
 10
27.39221216833715
 20
22.04696516954885
 30
0.0
 11
26.18917746959738
 21
23.24999986828862
 31
0.0
  0
LINE
  5
2846
330
27CC
100
AcDbEntity
  8
0
 62
     0
100
AcDbLine
 10
42.28917746959734
 20
7.149999868288659
 30
0.0
 11
40.69221216833716
 21
8.746965169548843
 31
0.0
  0
LINE
  5
2847
330
27CC
100
AcDbEntity
  8
0
 62
     0
100
AcDbLine
 10
37.30039385026657
 20
11.24075787551243
 30
0.0
 11
29.84221216833702
 21
18.69893955744203
 31
0.0
  0
LINE
  5
2848
330
27CC
100
AcDbEntity
  8
0
 62
     0
100
AcDbLine
 10
27.39221216833715
 20
21.1489395574419
 30
0.0
 11
25.29115185749037
 21
23.24999986828868
 31
0.0
  0
LINE
  5
2849
330
27CC
100
AcDbEntity
  8
0
 62
     0
100
AcDbLine
 10
41.39115185749034
 20
7.149999868288716
 30
0.0
 11
40.6922121683371
 21
7.848939557441951
 31
0.0
  0
LINE
  5
284A
330
27CC
100
AcDbEntity
  8
0
 62
     0
100
AcDbLine
 10
27.12530547294704
 20
20.51782064072506
 30
0.0
 11
24.42508375473562
 21
23.21804235893643
 31
0.0
  0
LINE
  5
284B
330
27CC
100
AcDbEntity
  8
0
 62
     0
100
AcDbLine
 10
37.71486720970051
 20
9.928258903971595
 30
0.0
 11
29.84221216833708
 21
17.80091394533502
 31
0.0
  0
LINE
  5
284C
330
27CC
100
AcDbEntity
  8
0
 62
     0
100
AcDbLine
 10
32.9797210906787
 20
13.76537941088651
 30
0.0
 11
29.84221216833708
 21
16.90288833322813
 31
0.0
  0
LINE
  5
284D
330
27CC
100
AcDbEntity
  8
0
 62
     0
100
AcDbLine
 10
26.2951006332766
 20
20.44999986828855
 30
0.0
 11
23.68704068514836
 21
23.05805981641686
 31
0.0
  0
LINE
  5
284E
330
27CC
100
AcDbEntity
  8
0
 62
     0
100
AcDbLine
 10
38.12934056913451
 20
8.615759932430705
 30
0.0
 11
34.03703287682663
 21
12.70806762473853
 31
0.0
  0
LINE
  5
284F
330
27CC
100
AcDbEntity
  8
0
 62
     0
100
AcDbLine
 10
32.64221216833715
 20
13.20486272112117
 30
0.0
 11
29.84221216833708
 21
16.00486272112124
 31
0.0
  0
LINE
  5
2850
330
27CC
100
AcDbEntity
  8
0
 62
     0
100
AcDbLine
 10
25.39707502116959
 20
20.44999986828867
 30
0.0
 11
23.04831926931762
 21
22.79875562014063
 31
0.0
  0
LINE
  5
2851
330
27CC
100
AcDbEntity
  8
0
 62
     0
100
AcDbLine
 10
38.36437942684511
 20
7.48269546261315
 30
0.0
 11
34.45150623626057
 21
11.39556865319775
 31
0.0
  0
LINE
  5
2852
330
27CC
100
AcDbEntity
  8
0
 62
     0
100
AcDbLine
 10
32.64221216833709
 20
12.30683710901428
 30
0.0
 11
29.84221216833702
 21
15.10683710901429
 31
0.0
  0
LINE
  5
2853
330
27CC
100
AcDbEntity
  8
0
 62
     0
100
AcDbLine
 10
24.55396151862606
 20
20.39508775872531
 30
0.0
 11
22.48957029398309
 21
22.45947898336828
 31
0.0
  0
LINE
  5
2854
330
27CC
100
AcDbEntity
  8
0
 62
     0
100
AcDbLine
 10
37.79904940906277
 20
7.149999868288603
 30
0.0
 11
34.86597959569451
 21
10.08306968165686
 31
0.0
  0
LINE
  5
2855
330
27CC
100
AcDbEntity
  8
0
 62
     0
100
AcDbLine
 10
32.64221216833709
 20
11.40881149690733
 30
0.0
 11
29.84221216833702
 21
14.2088114969074
 31
0.0
  0
LINE
  5
2856
330
27CC
100
AcDbEntity
  8
0
 62
     0
100
AcDbLine
 10
23.98210532578707
 20
20.06891833945735
 30
0.0
 11
22.0019150853713
 21
22.04910857987312
 31
0.0
  0
LINE
  5
2857
330
27CC
100
AcDbEntity
  8
0
 62
     0
100
AcDbLine
 10
36.90102379695582
 20
7.149999868288603
 30
0.0
 11
35.28045295512856
 21
8.770570710115862
 31
0.0
  0
LINE
  5
2858
330
27CC
100
AcDbEntity
  8
0
 62
     0
100
AcDbLine
 10
27.72764130113483
 20
15.42535675200275
 30
0.0
 11
26.21756905205109
 21
16.9354290010865
 31
0.0
  0
LINE
  5
2859
330
27CC
100
AcDbEntity
  8
0
 62
     0
100
AcDbLine
 10
32.64221216833721
 20
10.51078588480038
 30
0.0
 11
29.84221216833708
 21
13.31078588480051
 31
0.0
  0
LINE
  5
285A
330
27CC
100
AcDbEntity
  8
0
 62
     0
100
AcDbLine
 10
23.62598375565812
 20
19.52701429747946
 30
0.0
 11
21.58254905936007
 21
21.57044899377751
 31
0.0
  0
LINE
  5
285B
330
27CC
100
AcDbEntity
  8
0
 62
     0
100
AcDbLine
 10
35.95266518064431
 20
7.200332872493277
 30
0.0
 11
35.702311009053
 21
7.450687044084588
 31
0.0
  0
LINE
  5
285C
330
27CC
100
AcDbEntity
  8
0
 62
     0
100
AcDbLine
 10
27.64112764099292
 20
14.61384480003772
 30
0.0
 11
25.40605710008605
 21
16.84891534094458
 31
0.0
  0
LINE
  5
285D
330
27CC
100
AcDbEntity
  8
0
 62
     0
100
AcDbLine
 10
23.54221216833718
 20
18.71276027269345
 30
0.0
 11
21.2336100383984
 21
21.02136240263223
 31
0.0
  0
LINE
  5
285E
330
27CC
100
AcDbEntity
  8
0
 62
     0
100
AcDbLine
 10
32.64221216833715
 20
9.612760272693435
 30
0.0
 11
29.84221216833702
 21
12.41276027269361
 31
0.0
  0
LINE
  5
285F
330
27CC
100
AcDbEntity
  8
0
 62
     0
100
AcDbLine
 10
27.30927208169487
 20
14.04767474722876
 30
0.0
 11
24.8398870472771
 21
16.51705978164653
 31
0.0
  0
LINE
  5
2860
330
27CC
100
AcDbEntity
  8
0
 62
     0
100
AcDbLine
 10
23.54221216833718
 20
17.81473466058651
 30
0.0
 11
20.96303033118823
 21
20.39391649773546
 31
0.0
  0
LINE
  5
2861
330
27CC
100
AcDbEntity
  8
0
 62
     0
100
AcDbLine
 10
32.64221216833715
 20
8.714734660586543
 30
0.0
 11
29.84221216833708
 21
11.51473466058661
 31
0.0
  0
LINE
  5
2862
330
27CC
100
AcDbEntity
  8
0
 62
     0
100
AcDbLine
 10
23.54221216833718
 20
16.91670904847961
 30
0.0
 11
20.78831645826238
 21
19.67060475855447
 31
0.0
  0
LINE
  5
2863
330
27CC
100
AcDbEntity
  8
0
 62
     0
100
AcDbLine
 10
26.80743863955842
 20
13.65148257725843
 30
0.0
 11
24.44369487730677
 21
16.01522633951009
 31
0.0
  0
LINE
  5
2864
330
27CC
100
AcDbEntity
  8
0
 62
     0
100
AcDbLine
 10
18.11721216833712
 20
22.34170904847974
 30
0.0
 11
17.20892134852812
 21
23.24999986828874
 31
0.0
  0
LINE
  5
2865
330
27CC
100
AcDbEntity
  8
0
 62
     0
100
AcDbLine
 10
32.64221216833721
 20
7.816709048479651
 30
0.0
 11
29.84221216833714
 21
10.61670904847971
 31
0.0
  0
LINE
  5
2866
330
27CC
100
AcDbEntity
  8
0
 62
     0
100
AcDbLine
 10
23.54221216833718
 20
16.01868343637272
 30
0.0
 11
20.74221216833711
 21
18.81868343637279
 31
0.0
  0
LINE
  5
2867
330
27CC
100
AcDbEntity
  8
0
 62
     0
100
AcDbLine
 10
26.107119197131
 20
13.45377640757891
 30
0.0
 11
24.24598870762725
 21
15.31490689708266
 31
0.0
  0
LINE
  5
2868
330
27CC
100
AcDbEntity
  8
0
 62
     0
100
AcDbLine
 10
18.11721216833706
 20
21.44368343637279
 30
0.0
 11
16.31089573642117
 21
23.24999986828868
 31
0.0
  0
LINE
  5
2869
330
27CC
100
AcDbEntity
  8
0
 62
     0
100
AcDbLine
 10
32.35430836706649
 20
7.206587237643418
 30
0.0
 11
29.84221216833708
 21
9.718683436372771
 31
0.0
  0
LINE
  5
286A
330
27CC
100
AcDbEntity
  8
0
 62
     0
100
AcDbLine
 10
23.54221216833718
 20
15.12065782426577
 30
0.0
 11
20.74221216833711
 21
17.92065782426584
 31
0.0
  0
LINE
  5
286B
330
27CC
100
AcDbEntity
  8
0
 62
     0
100
AcDbLine
 10
18.00817819806673
 20
20.65469179453623
 30
0.0
 11
15.41287012431416
 21
23.24999986828874
 31
0.0
  0
LINE
  5
286C
330
27CC
100
AcDbEntity
  8
0
 62
     0
100
AcDbLine
 10
31.5128701243143
 20
7.149999868288659
 30
0.0
 11
29.84221216833708
 21
8.820657824265879
 31
0.0
  0
LINE
  5
286D
330
27CC
100
AcDbEntity
  8
0
 62
     0
100
AcDbLine
 10
23.54221216833713
 20
14.22263221215888
 30
0.0
 11
20.74221216833706
 21
17.02263221215889
 31
0.0
  0
LINE
  5
286E
330
27CC
100
AcDbEntity
  8
0
 62
     0
100
AcDbLine
 10
17.31484451220734
 20
20.44999986828867
 30
0.0
 11
14.51484451220727
 21
23.24999986828874
 31
0.0
  0
LINE
  5
286F
330
27CC
100
AcDbEntity
  8
0
 62
     0
100
AcDbLine
 10
30.61484451220735
 20
7.149999868288603
 30
0.0
 11
29.84221216833708
 21
7.92263221215893
 31
0.0
  0
LINE
  5
2870
330
27CC
100
AcDbEntity
  8
0
 62
     0
100
AcDbLine
 10
23.54221216833724
 20
13.32460660005193
 30
0.0
 11
20.74221216833711
 21
16.12460660005206
 31
0.0
  0
LINE
  5
2871
330
27CC
100
AcDbEntity
  8
0
 62
     0
100
AcDbLine
 10
16.41681890010045
 20
20.44999986828873
 30
0.0
 11
13.6516896279956
 21
23.21512914039357
 31
0.0
  0
LINE
  5
2872
330
27CC
100
AcDbEntity
  8
0
 62
     0
100
AcDbLine
 10
27.38960971950018
 20
9.477209048888937
 30
0.0
 11
26.91942134893747
 21
9.947397419451704
 31
0.0
  0
LINE
  5
2873
330
27CC
100
AcDbEntity
  8
0
 62
     0
100
AcDbLine
 10
23.54221216833724
 20
12.42658098794498
 30
0.0
 11
20.74221216833711
 21
15.22658098794511
 31
0.0
  0
LINE
  5
2874
330
27CC
100
AcDbEntity
  8
0
 62
     0
100
AcDbLine
 10
15.5187932879935
 20
20.44999986828867
 30
0.0
 11
12.95855481951713
 21
23.01023833676509
 31
0.0
  0
LINE
  5
2875
330
27CC
100
AcDbEntity
  8
0
 62
     0
100
AcDbLine
 10
27.39221216833721
 20
8.576580987945021
 30
0.0
 11
26.01879328799356
 21
9.949999868288671
 31
0.0
  0
LINE
  5
2876
330
27CC
100
AcDbEntity
  8
0
 62
     0
100
AcDbLine
 10
23.54221216833718
 20
11.52855537583803
 30
0.0
 11
20.74221216833717
 21
14.3285553758381
 31
0.0
  0
LINE
  5
2877
330
27CC
100
AcDbEntity
  8
0
 62
     0
100
AcDbLine
 10
14.62076767588667
 20
20.44999986828855
 30
0.0
 11
12.39430815966989
 21
22.67645938450533
 31
0.0
  0
LINE
  5
2878
330
27CC
100
AcDbEntity
  8
0
 62
     0
100
AcDbLine
 10
27.39221216833715
 20
7.678555375838072
 30
0.0
 11
25.12076767588666
 21
9.949999868288557
 31
0.0
  0
LINE
  5
2879
330
27CC
100
AcDbEntity
  8
0
 62
     0
100
AcDbLine
 10
14.11047484827207
 20
20.06226708379637
 30
0.0
 11
11.93621534742914
 21
22.2365265846393
 31
0.0
  0
LINE
  5
287A
330
27CC
100
AcDbEntity
  8
0
 62
     0
100
AcDbLine
 10
27.00447938384479
 20
7.168262548223651
 30
0.0
 11
20.74221216833717
 21
13.43052976373127
 31
0.0
  0
LINE
  5
287B
330
27CC
100
AcDbEntity
  8
0
 62
     0
100
AcDbLine
 10
14.09221216833714
 20
19.18250415162435
 30
0.0
 11
11.58273414496005
 21
21.69198217500144
 31
0.0
  0
LINE
  5
287C
330
27CC
100
AcDbEntity
  8
0
 62
     0
100
AcDbLine
 10
26.12471645167289
 20
7.149999868288603
 30
0.0
 11
20.74221216833717
 21
12.53250415162432
 31
0.0
  0
LINE
  5
287D
330
27CC
100
AcDbEntity
  8
0
 62
     0
100
AcDbLine
 10
14.15434787647257
 20
18.22234283138192
 30
0.0
 11
11.35185404266633
 21
21.02483666518821
 31
0.0
  0
LINE
  5
287E
330
27CC
100
AcDbEntity
  8
0
 62
     0
100
AcDbLine
 10
25.22669083956589
 20
7.149999868288659
 30
0.0
 11
20.74221216833711
 21
11.63447853951737
 31
0.0
  0
LINE
  5
287F
330
27CC
100
AcDbEntity
  8
0
 62
     0
100
AcDbLine
 10
18.4465882595598
 20
13.03207683618785
 30
0.0
 11
11.29221216833718
 21
20.18645292741047
 31
0.0
  0
LINE
  5
2880
330
27CC
100
AcDbEntity
  8
0
 62
     0
100
AcDbLine
 10
24.27539314040234
 20
7.203271955345314
 30
0.0
 11
20.79548425539377
 21
10.68318084035388
 31
0.0
  0
LINE
  5
2881
330
27CC
100
AcDbEntity
  8
0
 62
     0
100
AcDbLine
 10
18.63848277364502
 20
11.94215670999574
 30
0.0
 11
11.29221216833707
 21
19.28842731530369
 31
0.0
  0
LINE
  5
2882
330
27CC
100
AcDbEntity
  8
0
 62
     0
100
AcDbLine
 10
22.90158522780075
 20
7.679054255839957
 30
0.0
 11
21.27126655588836
 21
9.309372927752406
 31
0.0
  0
LINE
  5
2883
330
27CC
100
AcDbEntity
  8
0
 62
     0
100
AcDbLine
 10
18.64221216833721
 20
11.0404017031966
 30
0.0
 11
11.29977661575946
 21
18.38283725577429
 31
0.0
  0
LINE
  5
2884
330
27CC
100
AcDbEntity
  8
0
 62
     0
100
AcDbLine
 10
18.64221216833709
 20
10.14237609108977
 30
0.0
 11
11.52306737408332
 21
17.26152088534348
 31
0.0
  0
LINE
  5
2885
330
27CC
100
AcDbEntity
  8
0
 62
     0
100
AcDbLine
 10
18.56969217220518
 20
9.316870475114853
 30
0.0
 11
15.80630052858612
 21
12.08026211873391
 31
0.0
  0
LINE
  5
2886
330
27CC
100
AcDbEntity
  8
0
 62
     0
100
AcDbLine
 10
18.32775423317633
 20
8.660782802036749
 30
0.0
 11
15.84221216833708
 21
11.146324866876
 31
0.0
  0
LINE
  5
2887
330
27CC
100
AcDbEntity
  8
0
 62
     0
100
AcDbLine
 10
17.96563498579456
 20
8.12487643731157
 30
0.0
 11
15.8063131360364
 21
10.28419828706972
 31
0.0
  0
LINE
  5
2888
330
27CC
100
AcDbEntity
  8
0
 62
     0
100
AcDbLine
 10
17.49940861352769
 20
7.693077197471552
 30
0.0
 11
15.24248594271057
 21
9.949999868288728
 31
0.0
  0
LINE
  5
2889
330
27CC
100
AcDbEntity
  8
0
 62
     0
100
AcDbLine
 10
16.92614416579488
 20
7.368316033097471
 30
0.0
 11
14.34446033060362
 21
9.949999868288671
 31
0.0
  0
LINE
  5
288A
330
27CC
100
AcDbEntity
  8
0
 62
     0
100
AcDbLine
 10
16.22073157670894
 20
7.17570301007646
 30
0.0
 11
13.44643471849673
 21
9.949999868288671
 31
0.0
  0
LINE
  5
288B
330
27CC
100
AcDbEntity
  8
0
 62
     0
100
AcDbLine
 10
15.34840910638979
 20
7.149999868288659
 30
0.0
 11
12.54840910638978
 21
9.949999868288671
 31
0.0
  0
LINE
  5
288C
330
27CC
100
AcDbEntity
  8
0
 62
     0
100
AcDbLine
 10
14.45038349428296
 20
7.149999868288603
 30
0.0
 11
11.89705959946508
 21
9.703323763106538
 31
0.0
  0
LINE
  5
288D
330
27CC
100
AcDbEntity
  8
0
 62
     0
100
AcDbLine
 10
13.55235788217595
 20
7.149999868288659
 30
0.0
 11
11.81721216833716
 21
8.885145582127449
 31
0.0
  0
LINE
  5
288E
330
27CC
100
AcDbEntity
  8
0
 62
     0
100
AcDbLine
 10
12.65433227006911
 20
7.149999868288603
 30
0.0
 11
11.81721216833716
 21
7.987119970020557
 31
0.0
  0
LINE
  5
288F
330
27CC
100
AcDbEntity
  8
0
 62
     0
100
AcDbLine
 10
68.63389945300406
 20
7.163131645406167
 30
0.0
 11
69.02908039121985
 21
7.558312583621955
 31
0.0
  0
LINE
  5
2890
330
27CC
100
AcDbEntity
  8
0
 62
     0
100
AcDbLine
 10
67.72274206377961
 20
7.149999868288546
 30
0.0
 11
69.0422121683373
 21
8.469469972846241
 31
0.0
  0
LINE
  5
2891
330
27CC
100
AcDbEntity
  8
0
 62
     0
100
AcDbLine
 10
66.82471645167272
 20
7.149999868288546
 30
0.0
 11
69.0422121683373
 21
9.367495584953132
 31
0.0
  0
LINE
  5
2892
330
27CC
100
AcDbEntity
  8
0
 62
     0
100
AcDbLine
 10
66.27340973158897
 20
7.49671876031175
 30
0.0
 11
69.04221216833724
 21
10.26552119706008
 31
0.0
  0
LINE
  5
2893
330
27CC
100
AcDbEntity
  8
0
 62
     0
100
AcDbLine
 10
66.24221216833717
 20
8.363546809166905
 30
0.0
 11
69.04221216833724
 21
11.16354680916691
 31
0.0
  0
LINE
  5
2894
330
27CC
100
AcDbEntity
  8
0
 62
     0
100
AcDbLine
 10
66.24221216833723
 20
9.261572421273797
 30
0.0
 11
69.04221216833724
 21
12.06157242127386
 31
0.0
  0
LINE
  5
2895
330
27CC
100
AcDbEntity
  8
0
 62
     0
100
AcDbLine
 10
66.24221216833717
 20
10.15959803338074
 30
0.0
 11
69.04221216833724
 21
12.95959803338081
 31
0.0
  0
LINE
  5
2896
330
27CC
100
AcDbEntity
  8
0
 62
     0
100
AcDbLine
 10
66.24221216833717
 20
11.05762364548763
 30
0.0
 11
69.04221216833724
 21
13.8576236454877
 31
0.0
  0
LINE
  5
2897
330
27CC
100
AcDbEntity
  8
0
 62
     0
100
AcDbLine
 10
62.66877703040245
 20
7.484188507552914
 30
0.0
 11
63.80802352907301
 21
8.62343500622353
 31
0.0
  0
LINE
  5
2898
330
27CC
100
AcDbEntity
  8
0
 62
     0
100
AcDbLine
 10
66.24221216833717
 20
11.95564925759452
 30
0.0
 11
69.04221216833724
 21
14.75564925759459
 31
0.0
  0
LINE
  5
2899
330
27CC
100
AcDbEntity
  8
0
 62
     0
100
AcDbLine
 10
61.43820886387965
 20
7.151645953137006
 30
0.0
 11
64.14056608348897
 21
9.854003172746274
 31
0.0
  0
LINE
  5
289A
330
27CC
100
AcDbEntity
  8
0
 62
     0
100
AcDbLine
 10
66.24221216833717
 20
12.85367486970147
 30
0.0
 11
69.04221216833724
 21
15.65367486970149
 31
0.0
  0
LINE
  5
289B
330
27CC
100
AcDbEntity
  8
0
 62
     0
100
AcDbLine
 10
60.53853716692424
 20
7.149999868288546
 30
0.0
 11
64.14221216833727
 21
10.75367486970151
 31
0.0
  0
LINE
  5
289C
330
27CC
100
AcDbEntity
  8
0
 62
     0
100
AcDbLine
 10
66.24221216833717
 20
13.75170048180837
 30
0.0
 11
69.04221216833718
 21
16.55170048180844
 31
0.0
  0
LINE
  5
289D
330
27CC
100
AcDbEntity
  8
0
 62
     0
100
AcDbLine
 10
59.64051155481735
 20
7.149999868288546
 30
0.0
 11
64.14221216833721
 21
11.65170048180846
 31
0.0
  0
LINE
  5
289E
330
27CC
100
AcDbEntity
  8
0
 62
     0
100
AcDbLine
 10
66.24221216833729
 20
14.64972609391532
 30
0.0
 11
69.04221216833724
 21
17.44972609391533
 31
0.0
  0
LINE
  5
289F
330
27CC
100
AcDbEntity
  8
0
 62
     0
100
AcDbLine
 10
58.74248594271051
 20
7.149999868288603
 30
0.0
 11
64.14221216833727
 21
12.54972609391535
 31
0.0
  0
LINE
  5
28A0
330
27CC
100
AcDbEntity
  8
0
 62
     0
100
AcDbLine
 10
61.23762096625615
 20
10.54316050394118
 30
0.0
 11
64.14221216833727
 21
13.44775170602224
 31
0.0
  0
LINE
  5
28A1
330
27CC
100
AcDbEntity
  8
0
 62
     0
100
AcDbLine
 10
66.24221216833723
 20
15.54775170602226
 30
0.0
 11
69.04221216833724
 21
18.34775170602222
 31
0.0
  0
LINE
  5
28A2
330
27CC
100
AcDbEntity
  8
0
 62
     0
100
AcDbLine
 10
57.84446033060351
 20
7.149999868288546
 30
0.0
 11
60.74905153268463
 21
10.05459107036961
 31
0.0
  0
LINE
  5
28A3
330
27CC
100
AcDbEntity
  8
0
 62
     0
100
AcDbLine
 10
61.34221216833714
 20
11.54577731812912
 30
0.0
 11
64.14221216833721
 21
14.34577731812919
 31
0.0
  0
LINE
  5
28A4
330
27CC
100
AcDbEntity
  8
0
 62
     0
100
AcDbLine
 10
66.24221216833723
 20
16.44577731812915
 30
0.0
 11
69.04221216833718
 21
19.24577731812917
 31
0.0
  0
LINE
  5
28A5
330
27CC
100
AcDbEntity
  8
0
 62
     0
100
AcDbLine
 10
57.05838446987383
 20
7.261949619665756
 30
0.0
 11
59.74643471849669
 21
9.949999868288614
 31
0.0
  0
LINE
  5
28A6
330
27CC
100
AcDbEntity
  8
0
 62
     0
100
AcDbLine
 10
61.3422121683372
 20
12.44380293023613
 30
0.0
 11
64.14221216833721
 21
15.24380293023608
 31
0.0
  0
LINE
  5
28A7
330
27CC
100
AcDbEntity
  8
0
 62
     0
100
AcDbLine
 10
66.24221216833717
 20
17.3438029302361
 30
0.0
 11
69.04221216833718
 21
20.14380293023606
 31
0.0
  0
LINE
  5
28A8
330
27CC
100
AcDbEntity
  8
0
 62
     0
100
AcDbLine
 10
56.43039760266367
 20
7.531988364562607
 30
0.0
 11
58.84928689203412
 21
9.950877653933048
 31
0.0
  0
LINE
  5
28A9
330
27CC
100
AcDbEntity
  8
0
 62
     0
100
AcDbLine
 10
61.34221216833726
 20
13.34182854234302
 30
0.0
 11
64.14221216833721
 21
16.14182854234297
 31
0.0
  0
LINE
  5
28AA
330
27CC
100
AcDbEntity
  8
0
 62
     0
100
AcDbLine
 10
66.24221216833723
 20
18.241828542343
 30
0.0
 11
69.04221216833718
 21
21.04182854234295
 31
0.0
  0
LINE
  5
28AB
330
27CC
100
AcDbEntity
  8
0
 62
     0
100
AcDbLine
 10
55.91713772129861
 20
7.916754095304327
 30
0.0
 11
58.20580830332142
 21
10.20542467732718
 31
0.0
  0
LINE
  5
28AC
330
27CC
100
AcDbEntity
  8
0
 62
     0
100
AcDbLine
 10
61.34221216833726
 20
14.23985415444991
 30
0.0
 11
64.14221216833721
 21
17.03985415444992
 31
0.0
  0
LINE
  5
28AD
330
27CC
100
AcDbEntity
  8
0
 62
     0
100
AcDbLine
 10
66.24221216833723
 20
19.13985415444989
 30
0.0
 11
69.04221216833718
 21
21.9398541544499
 31
0.0
  0
LINE
  5
28AE
330
27CC
100
AcDbEntity
  8
0
 62
     0
100
AcDbLine
 10
55.50717354607349
 20
8.404815532186148
 30
0.0
 11
57.868570024912
 21
10.76621201102472
 31
0.0
  0
LINE
  5
28AF
330
27CC
100
AcDbEntity
  8
0
 62
     0
100
AcDbLine
 10
61.3422121683372
 20
15.13787976655686
 30
0.0
 11
64.14221216833727
 21
17.93787976655693
 31
0.0
  0
LINE
  5
28B0
330
27CC
100
AcDbEntity
  8
0
 62
     0
100
AcDbLine
 10
66.24221216833717
 20
20.03787976655684
 30
0.0
 11
69.03206301478673
 21
22.82773061300639
 31
0.0
  0
LINE
  5
28B1
330
27CC
100
AcDbEntity
  8
0
 62
     0
100
AcDbLine
 10
55.20724866763948
 20
9.002916265859141
 30
0.0
 11
57.8422121683372
 21
11.6378797665568
 31
0.0
  0
LINE
  5
28B2
330
27CC
100
AcDbEntity
  8
0
 62
     0
100
AcDbLine
 10
61.34221216833726
 20
16.03590537866369
 30
0.0
 11
64.14221216833732
 21
18.83590537866376
 31
0.0
  0
LINE
  5
28B3
330
27CC
100
AcDbEntity
  8
0
 62
     0
100
AcDbLine
 10
66.24221216833729
 20
20.93590537866379
 30
0.0
 11
68.55494866970724
 21
23.24864188003374
 31
0.0
  0
LINE
  5
28B4
330
27CC
100
AcDbEntity
  8
0
 62
     0
100
AcDbLine
 10
55.04983513268303
 20
9.743528343009529
 30
0.0
 11
57.8422121683372
 21
12.5359053786637
 31
0.0
  0
LINE
  5
28B5
330
27CC
100
AcDbEntity
  8
0
 62
     0
100
AcDbLine
 10
61.3422121683372
 20
16.93393099077064
 30
0.0
 11
64.14221216833727
 21
19.73393099077071
 31
0.0
  0
LINE
  5
28B6
330
27CC
100
AcDbEntity
  8
0
 62
     0
100
AcDbLine
 10
66.24221216833729
 20
21.83393099077068
 30
0.0
 11
67.65828104585517
 21
23.24999986828862
 31
0.0
  0
LINE
  5
28B7
330
27CC
100
AcDbEntity
  8
0
 62
     0
100
AcDbLine
 10
55.04221216833724
 20
10.63393099077063
 30
0.0
 11
57.84221216833725
 21
13.4339309907707
 31
0.0
  0
LINE
  5
28B8
330
27CC
100
AcDbEntity
  8
0
 62
     0
100
AcDbLine
 10
61.3422121683372
 20
17.83195660287759
 30
0.0
 11
64.14221216833727
 21
20.6319566028776
 31
0.0
  0
LINE
  5
28B9
330
27CC
100
AcDbEntity
  8
0
 62
     0
100
AcDbLine
 10
55.04221216833719
 20
11.53195660287758
 30
0.0
 11
57.84221216833725
 21
14.33195660287765
 31
0.0
  0
LINE
  5
28BA
330
27CC
100
AcDbEntity
  8
0
 62
     0
100
AcDbLine
 10
66.24225888308462
 20
22.73200331762501
 30
0.0
 11
66.7602087190009
 21
23.24995315354124
 31
0.0
  0
LINE
  5
28BB
330
27CC
100
AcDbEntity
  8
0
 62
     0
100
AcDbLine
 10
50.72065653762519
 20
7.21040097216553
 30
0.0
 11
52.88181106446035
 21
9.371555499000749
 31
0.0
  0
LINE
  5
28BC
330
27CC
100
AcDbEntity
  8
0
 62
     0
100
AcDbLine
 10
55.04221216833719
 20
12.42998221498447
 30
0.0
 11
57.84221216833725
 21
15.22998221498454
 31
0.0
  0
LINE
  5
28BD
330
27CC
100
AcDbEntity
  8
0
 62
     0
100
AcDbLine
 10
61.3422121683372
 20
18.72998221498448
 30
0.0
 11
64.14221216833721
 21
21.52998221498455
 31
0.0
  0
LINE
  5
28BE
330
27CC
100
AcDbEntity
  8
0
 62
     0
100
AcDbLine
 10
49.76222982164131
 20
7.149999868288659
 30
0.0
 11
52.94221216833716
 21
10.32998221498451
 31
0.0
  0
LINE
  5
28BF
330
27CC
100
AcDbEntity
  8
0
 62
     0
100
AcDbLine
 10
55.04221216833719
 20
13.32800782709137
 30
0.0
 11
57.84221216833725
 21
16.12800782709143
 31
0.0
  0
LINE
  5
28C0
330
27CC
100
AcDbEntity
  8
0
 62
     0
100
AcDbLine
 10
61.3422121683372
 20
19.62800782709138
 30
0.0
 11
64.14221216833727
 21
22.42800782709144
 31
0.0
  0
LINE
  5
28C1
330
27CC
100
AcDbEntity
  8
0
 62
     0
100
AcDbLine
 10
48.86420420953442
 20
7.149999868288603
 30
0.0
 11
52.94221216833722
 21
11.22800782709134
 31
0.0
  0
LINE
  5
28C2
330
27CC
100
AcDbEntity
  8
0
 62
     0
100
AcDbLine
 10
55.04221216833719
 20
14.22603343919831
 30
0.0
 11
57.84221216833725
 21
17.02603343919832
 31
0.0
  0
LINE
  5
28C3
330
27CC
100
AcDbEntity
  8
0
 62
     0
100
AcDbLine
 10
61.3422121683372
 20
20.52603343919827
 30
0.0
 11
63.94847471350312
 21
23.13229598436425
 31
0.0
  0
LINE
  5
28C4
330
27CC
100
AcDbEntity
  8
0
 62
     0
100
AcDbLine
 10
47.96617859742752
 20
7.149999868288659
 30
0.0
 11
52.92789356792423
 21
12.11171483878536
 31
0.0
  0
LINE
  5
28C5
330
27CC
100
AcDbEntity
  8
0
 62
     0
100
AcDbLine
 10
55.04221216833724
 20
15.12405905130532
 30
0.0
 11
57.8422121683372
 21
17.92405905130527
 31
0.0
  0
LINE
  5
28C6
330
27CC
100
AcDbEntity
  8
0
 62
     0
100
AcDbLine
 10
61.34221216833714
 20
21.42405905130522
 30
0.0
 11
63.1681529853206
 21
23.24999986828868
 31
0.0
  0
LINE
  5
28C7
330
27CC
100
AcDbEntity
  8
0
 62
     0
100
AcDbLine
 10
47.06815298532058
 20
7.149999868288659
 30
0.0
 11
52.79298119729549
 21
12.87482808026351
 31
0.0
  0
LINE
  5
28C8
330
27CC
100
AcDbEntity
  8
0
 62
     0
100
AcDbLine
 10
55.0422121683373
 20
16.02208466341215
 30
0.0
 11
57.84221216833725
 21
18.82208466341216
 31
0.0
  0
LINE
  5
28C9
330
27CC
100
AcDbEntity
  8
0
 62
     0
100
AcDbLine
 10
50.14221216833732
 20
11.12208466341218
 30
0.0
 11
52.55239374037694
 21
13.5322662354518
 31
0.0
  0
LINE
  5
28CA
330
27CC
100
AcDbEntity
  8
0
 62
     0
100
AcDbLine
 10
61.3422121683372
 20
22.32208466341211
 30
0.0
 11
62.27012737321377
 21
23.24999986828868
 31
0.0
  0
LINE
  5
28CB
330
27CC
100
AcDbEntity
  8
0
 62
     0
100
AcDbLine
 10
46.29838272634481
 20
7.278255221419726
 30
0.0
 11
48.9701273732137
 21
9.949999868288614
 31
0.0
  0
LINE
  5
28CC
330
27CC
100
AcDbEntity
  8
0
 62
     0
100
AcDbLine
 10
50.12234159320991
 20
12.00023970039171
 30
0.0
 11
52.2288944355164
 21
14.1067925426982
 31
0.0
  0
LINE
  5
28CD
330
27CC
100
AcDbEntity
  8
0
 62
     0
100
AcDbLine
 10
55.04221216833724
 20
16.9201102755191
 30
0.0
 11
57.8422121683372
 21
19.72011027551906
 31
0.0
  0
LINE
  5
28CE
330
27CC
100
AcDbEntity
  8
0
 62
     0
100
AcDbLine
 10
46.11721216833723
 20
7.995110275519039
 30
0.0
 11
48.07210176110675
 21
9.949999868288614
 31
0.0
  0
LINE
  5
28CF
330
27CC
100
AcDbEntity
  8
0
 62
     0
100
AcDbLine
 10
49.84795675607102
 20
12.62388047535984
 30
0.0
 11
51.83302331758858
 21
14.60894703687739
 31
0.0
  0
LINE
  5
28D0
330
27CC
100
AcDbEntity
  8
0
 62
     0
100
AcDbLine
 10
55.04221216833724
 20
17.818135887626
 30
0.0
 11
57.8422121683372
 21
20.61813588762601
 31
0.0
  0
LINE
  5
28D1
330
27CC
100
AcDbEntity
  8
0
 62
     0
100
AcDbLine
 10
46.11721216833717
 20
8.893135887625987
 30
0.0
 11
47.17407614899985
 21
9.949999868288671
 31
0.0
  0
LINE
  5
28D2
330
27CC
100
AcDbEntity
  8
0
 62
     0
100
AcDbLine
 10
55.04221216833724
 20
18.71616149973289
 30
0.0
 11
57.84221216833725
 21
21.51616149973284
 31
0.0
  0
LINE
  5
28D3
330
27CC
100
AcDbEntity
  8
0
 62
     0
100
AcDbLine
 10
49.40668185895396
 20
13.08063119034954
 30
0.0
 11
51.38658084627627
 21
15.06053017767186
 31
0.0
  0
LINE
  5
28D4
330
27CC
100
AcDbEntity
  8
0
 62
     0
100
AcDbLine
 10
48.95766905290049
 20
13.52964399640302
 30
0.0
 11
50.93756804022286
 21
15.50954298372545
 31
0.0
  0
LINE
  5
28D5
330
27CC
100
AcDbEntity
  8
0
 62
     0
100
AcDbLine
 10
55.04221216833724
 20
19.61418711183983
 30
0.0
 11
57.8422121683372
 21
22.41418711183979
 31
0.0
  0
LINE
  5
28D6
330
27CC
100
AcDbEntity
  8
0
 62
     0
100
AcDbLine
 10
42.578024924786
 20
7.149999868288603
 30
0.0
 11
43.49221216833718
 21
8.064187111839714
 31
0.0
  0
LINE
  5
28D7
330
27CC
100
AcDbEntity
  8
0
 62
     0
100
AcDbLine
 10
48.50865624684701
 20
13.97865680245649
 30
0.0
 11
50.48855523416938
 21
15.95855578977892
 31
0.0
  0
LINE
  5
28D8
330
27CC
100
AcDbEntity
  8
0
 62
     0
100
AcDbLine
 10
55.04221216833719
 20
20.51221272394673
 30
0.0
 11
57.65603126023854
 21
23.12603181584802
 31
0.0
  0
LINE
  5
28D9
330
27CC
100
AcDbEntity
  8
0
 62
     0
100
AcDbLine
 10
41.67999931267906
 20
7.149999868288603
 30
0.0
 11
43.49221216833723
 21
8.96221272394672
 31
0.0
  0
LINE
  5
28DA
330
27CC
100
AcDbEntity
  8
0
 62
     0
100
AcDbLine
 10
48.05964344079353
 20
14.42766960850997
 30
0.0
 11
50.03954242811591
 21
16.4075685958324
 31
0.0
  0
LINE
  5
28DB
330
27CC
100
AcDbEntity
  8
0
 62
     0
100
AcDbLine
 10
55.04221216833719
 20
21.41023833605367
 30
0.0
 11
56.88197370057219
 21
23.24999986828868
 31
0.0
  0
LINE
  5
28DC
330
27CC
100
AcDbEntity
  8
0
 62
     0
100
AcDbLine
 10
40.89358483843414
 20
7.261611006150587
 30
0.0
 11
43.49221216833718
 21
9.860238336053669
 31
0.0
  0
LINE
  5
28DD
330
27CC
100
AcDbEntity
  8
0
 62
     0
100
AcDbLine
 10
47.61063063474011
 20
14.87668241456339
 30
0.0
 11
49.59052962206249
 21
16.85658140188581
 31
0.0
  0
LINE
  5
28DE
330
27CC
100
AcDbEntity
  8
0
 62
     0
100
AcDbLine
 10
55.0422121683373
 20
22.30826394816062
 30
0.0
 11
55.9839480884653
 21
23.24999986828862
 31
0.0
  0
LINE
  5
28DF
330
27CC
100
AcDbEntity
  8
0
 62
     0
100
AcDbLine
 10
40.69221216833722
 20
7.958263948160549
 30
0.0
 11
43.49221216833723
 21
10.7582639481605
 31
0.0
  0
LINE
  5
28E0
330
27CC
100
AcDbEntity
  8
0
 62
     0
100
AcDbLine
 10
47.16161782868664
 20
15.32569522061686
 30
0.0
 11
49.14151681600902
 21
17.30559420793929
 31
0.0
  0
LINE
  5
28E1
330
27CC
100
AcDbEntity
  8
0
 62
     0
100
AcDbLine
 10
40.69221216833722
 20
8.856289560267498
 30
0.0
 11
43.49221216833718
 21
11.65628956026745
 31
0.0
  0
LINE
  5
28E2
330
27CC
100
AcDbEntity
  8
0
 62
     0
100
AcDbLine
 10
46.71463392764531
 20
15.77673693168253
 30
0.0
 11
48.69860746102734
 21
17.7607104650645
 31
0.0
  0
LINE
  5
28E3
330
27CC
100
AcDbEntity
  8
0
 62
     0
100
AcDbLine
 10
40.69221216833722
 20
9.75431517237439
 30
0.0
 11
43.49221216833718
 21
12.5543151723744
 31
0.0
  0
LINE
  5
28E4
330
27CC
100
AcDbEntity
  8
0
 62
     0
100
AcDbLine
 10
51.38789686425139
 20
20.44999986828861
 30
0.0
 11
52.41721216833724
 21
21.47931517237441
 31
0.0
  0
LINE
  5
28E5
330
27CC
100
AcDbEntity
  8
0
 62
     0
100
AcDbLine
 10
38.19955594362699
 20
7.261658947664159
 30
0.0
 11
38.28920830508201
 21
7.351311309119239
 31
0.0
  0
LINE
  5
28E6
330
27CC
100
AcDbEntity
  8
0
 62
     0
100
AcDbLine
 10
46.31663174882334
 20
16.2767603649674
 30
0.0
 11
48.41626602624194
 21
18.376394642386
 31
0.0
  0
LINE
  5
28E7
330
27CC
100
AcDbEntity
  8
0
 62
     0
100
AcDbLine
 10
40.69221216833722
 20
10.65234078448128
 30
0.0
 11
43.49221216833723
 21
13.45234078448123
 31
0.0
  0
LINE
  5
28E8
330
27CC
100
AcDbEntity
  8
0
 62
     0
100
AcDbLine
 10
50.48987125214461
 20
20.44999986828867
 30
0.0
 11
52.41721216833724
 21
22.3773407844813
 31
0.0
  0
LINE
  5
28E9
330
27CC
100
AcDbEntity
  8
0
 62
     0
100
AcDbLine
 10
37.18987125214454
 20
7.149999868288603
 30
0.0
 11
38.25565034845107
 21
8.215778964595131
 31
0.0
  0
LINE
  5
28EA
330
27CC
100
AcDbEntity
  8
0
 62
     0
100
AcDbLine
 10
45.99079748442664
 20
16.84895171267766
 30
0.0
 11
48.39221216833732
 21
19.25036639658833
 31
0.0
  0
LINE
  5
28EB
330
27CC
100
AcDbEntity
  8
0
 62
     0
100
AcDbLine
 10
40.69221216833722
 20
11.55036639658817
 30
0.0
 11
43.49221216833718
 21
14.35036639658818
 31
0.0
  0
LINE
  5
28EC
330
27CC
100
AcDbEntity
  8
0
 62
     0
100
AcDbLine
 10
49.5918456400376
 20
20.44999986828861
 30
0.0
 11
52.25054323653933
 21
23.10869746479033
 31
0.0
  0
LINE
  5
28ED
330
27CC
100
AcDbEntity
  8
0
 62
     0
100
AcDbLine
 10
36.29184564003753
 20
7.149999868288546
 30
0.0
 11
38.04012420154538
 21
8.898278429796391
 31
0.0
  0
LINE
  5
28EE
330
27CC
100
AcDbEntity
  8
0
 62
     0
100
AcDbLine
 10
40.69221216833716
 20
12.44839200869512
 30
0.0
 11
43.49221216833718
 21
15.24839200869507
 31
0.0
  0
LINE
  5
28EF
330
27CC
100
AcDbEntity
  8
0
 62
     0
100
AcDbLine
 10
45.74741542175655
 20
17.50359526211451
 30
0.0
 11
51.49382002793072
 21
23.24999986828868
 31
0.0
  0
LINE
  5
28F0
330
27CC
100
AcDbEntity
  8
0
 62
     0
100
AcDbLine
 10
35.69983132938256
 20
7.45601116974052
 30
0.0
 11
37.82459805463969
 21
9.580777894997652
 31
0.0
  0
LINE
  5
28F1
330
27CC
100
AcDbEntity
  8
0
 62
     0
100
AcDbLine
 10
40.69221216833716
 20
13.34641762080207
 30
0.0
 11
43.49221216833711
 21
16.14641762080202
 31
0.0
  0
LINE
  5
28F2
330
27CC
100
AcDbEntity
  8
0
 62
     0
100
AcDbLine
 10
45.60870856267086
 20
18.26291401513577
 30
0.0
 11
50.59579441582383
 21
23.24999986828868
 31
0.0
  0
LINE
  5
28F3
330
27CC
100
AcDbEntity
  8
0
 62
     0
100
AcDbLine
 10
35.48107190773396
 20
8.13527736019887
 30
0.0
 11
37.609071907734
 21
10.26327736019891
 31
0.0
  0
LINE
  5
28F4
330
27CC
100
AcDbEntity
  8
0
 62
     0
100
AcDbLine
 10
40.69221216833722
 20
14.2444432329089
 30
0.0
 11
43.49221216833718
 21
17.04444323290891
 31
0.0
  0
LINE
  5
28F5
330
27CC
100
AcDbEntity
  8
0
 62
     0
100
AcDbLine
 10
45.59221216833726
 20
19.14444323290899
 30
0.0
 11
49.69776880371694
 21
23.24999986828868
 31
0.0
  0
LINE
  5
28F6
330
27CC
100
AcDbEntity
  8
0
 62
     0
100
AcDbLine
 10
35.26554576082833
 20
8.817776825400073
 30
0.0
 11
37.39354576082843
 21
10.94577682540011
 31
0.0
  0
LINE
  5
28F7
330
27CC
100
AcDbEntity
  8
0
 62
     0
100
AcDbLine
 10
40.69221216833727
 20
15.14246884501591
 30
0.0
 11
43.49221216833718
 21
17.94246884501581
 31
0.0
  0
LINE
  5
28F8
330
27CC
100
AcDbEntity
  8
0
 62
     0
100
AcDbLine
 10
45.59221216833726
 20
20.04246884501589
 30
0.0
 11
48.79974319161004
 21
23.24999986828868
 31
0.0
  0
LINE
  5
28F9
330
27CC
100
AcDbEntity
  8
0
 62
     0
100
AcDbLine
 10
35.05001961392264
 20
9.500276290601334
 30
0.0
 11
37.1780196139228
 21
11.62827629060149
 31
0.0
  0
LINE
  5
28FA
330
27CC
100
AcDbEntity
  8
0
 62
     0
100
AcDbLine
 10
40.69221216833722
 20
16.04049445712286
 30
0.0
 11
43.49221216833723
 21
18.84049445712281
 31
0.0
  0
LINE
  5
28FB
330
27CC
100
AcDbEntity
  8
0
 62
     0
100
AcDbLine
 10
34.83449346701695
 20
10.18277575580259
 30
0.0
 11
36.96249346701705
 21
12.31077575580263
 31
0.0
  0
LINE
  5
28FC
330
27CC
100
AcDbEntity
  8
0
 62
     0
100
AcDbLine
 10
45.6455288384584
 20
20.99381112724404
 30
0.0
 11
47.84840090938172
 21
23.19668319816736
 31
0.0
  0
LINE
  5
28FD
330
27CC
100
AcDbEntity
  8
0
 62
     0
100
AcDbLine
 10
31.80171757950296
 20
7.149999868288603
 30
0.0
 11
32.64221216833715
 21
7.990494457122792
 31
0.0
  0
LINE
  5
28FE
330
27CC
100
AcDbEntity
  8
0
 62
     0
100
AcDbLine
 10
34.61896732011144
 20
10.86527522100391
 30
0.0
 11
36.74696732011142
 21
12.99327522100389
 31
0.0
  0
LINE
  5
28FF
330
27CC
100
AcDbEntity
  8
0
 62
     0
100
AcDbLine
 10
40.69221216833727
 20
16.93852006922969
 30
0.0
 11
43.49221216833723
 21
19.7385200692297
 31
0.0
  0
LINE
  5
2900
330
27CC
100
AcDbEntity
  8
0
 62
     0
100
AcDbLine
 10
30.90369196739612
 20
7.149999868288546
 30
0.0
 11
32.64221216833727
 21
8.888520069229741
 31
0.0
  0
LINE
  5
2901
330
27CC
100
AcDbEntity
  8
0
 62
     0
100
AcDbLine
 10
34.40344117320569
 20
11.54777468620505
 30
0.0
 11
36.53144117320573
 21
13.67577468620515
 31
0.0
  0
LINE
  5
2902
330
27CC
100
AcDbEntity
  8
0
 62
     0
100
AcDbLine
 10
40.69221216833722
 20
17.83654568133664
 30
0.0
 11
43.49221216833723
 21
20.6365456813366
 31
0.0
  0
LINE
  5
2903
330
27CC
100
AcDbEntity
  8
0
 62
     0
100
AcDbLine
 10
30.08681610294047
 20
7.231149615939898
 30
0.0
 11
32.64221216833727
 21
9.78654568133669
 31
0.0
  0
LINE
  5
2904
330
27CC
100
AcDbEntity
  8
0
 62
     0
100
AcDbLine
 10
34.1879150263
 20
12.23027415140632
 30
0.0
 11
36.31591502630004
 21
14.35827415140642
 31
0.0
  0
LINE
  5
2905
330
27CC
100
AcDbEntity
  8
0
 62
     0
100
AcDbLine
 10
40.69221216833722
 20
18.73457129344359
 30
0.0
 11
43.49221216833718
 21
21.53457129344354
 31
0.0
  0
LINE
  5
2906
330
27CC
100
AcDbEntity
  8
0
 62
     0
100
AcDbLine
 10
29.8422121683372
 20
7.884571293443514
 30
0.0
 11
32.64221216833727
 21
10.68457129344358
 31
0.0
  0
LINE
  5
2907
330
27CC
100
AcDbEntity
  8
0
 62
     0
100
AcDbLine
 10
33.97238887939437
 20
12.91277361660752
 30
0.0
 11
36.10038887939452
 21
15.04077361660768
 31
0.0
  0
LINE
  5
2908
330
27CC
100
AcDbEntity
  8
0
 62
     0
100
AcDbLine
 10
40.69221216833727
 20
19.63259690555043
 30
0.0
 11
43.49221216833723
 21
22.43259690555043
 31
0.0
  0
LINE
  5
2909
330
27CC
100
AcDbEntity
  8
0
 62
     0
100
AcDbLine
 10
29.8422121683372
 20
8.782596905550406
 30
0.0
 11
32.64221216833727
 21
11.58259690555047
 31
0.0
  0
LINE
  5
290A
330
27CC
100
AcDbEntity
  8
0
 62
     0
100
AcDbLine
 10
33.73759009242263
 20
13.57600044174279
 30
0.0
 11
36.36788416035352
 21
16.20629450967368
 31
0.0
  0
LINE
  5
290B
330
27CC
100
AcDbEntity
  8
0
 62
     0
100
AcDbLine
 10
40.69221216833722
 20
20.53062251765737
 30
0.0
 11
43.29593674583878
 21
23.13434709515888
 31
0.0
  0
LINE
  5
290C
330
27CC
100
AcDbEntity
  8
0
 62
     0
100
AcDbLine
 10
29.8422121683372
 20
9.680622517657354
 30
0.0
 11
32.64221216833727
 21
12.48062251765736
 31
0.0
  0
LINE
  5
290D
330
27CC
100
AcDbEntity
  8
0
 62
     0
100
AcDbLine
 10
33.05040472255524
 20
13.78684068398234
 30
0.0
 11
36.78235751978752
 21
17.51879348121462
 31
0.0
  0
LINE
  5
290E
330
27CC
100
AcDbEntity
  8
0
 62
     0
100
AcDbLine
 10
29.8422121683372
 20
10.57864812976424
 30
0.0
 11
32.6553713526435
 21
13.39180731407054
 31
0.0
  0
LINE
  5
290F
330
27CC
100
AcDbEntity
  8
0
 62
     0
100
AcDbLine
 10
40.69221216833722
 20
21.42864812976426
 30
0.0
 11
42.51356390686157
 21
23.24999986828868
 31
0.0
  0
LINE
  5
2910
330
27CC
100
AcDbEntity
  8
0
 62
     0
100
AcDbLine
 10
26.41356390686155
 20
7.149999868288603
 30
0.0
 11
27.39221216833721
 21
8.128648129764314
 31
0.0
  0
LINE
  5
2911
330
27CC
100
AcDbEntity
  8
0
 62
     0
100
AcDbLine
 10
29.84221216833714
 20
11.47667374187119
 30
0.0
 11
37.19683087922146
 21
18.83129245275552
 31
0.0
  0
LINE
  5
2912
330
27CC
100
AcDbEntity
  8
0
 62
     0
100
AcDbLine
 10
40.69221216833716
 20
22.32667374187121
 30
0.0
 11
41.61553829475457
 21
23.24999986828862
 31
0.0
  0
LINE
  5
2913
330
27CC
100
AcDbEntity
  8
0
 62
     0
100
AcDbLine
 10
25.5155382947546
 20
7.149999868288659
 30
0.0
 11
27.39221216833726
 21
9.02667374187132
 31
0.0
  0
LINE
  5
2914
330
27CC
100
AcDbEntity
  8
0
 62
     0
100
AcDbLine
 10
29.8422121683372
 20
12.37469935397803
 30
0.0
 11
37.61130423865557
 21
20.14379142429646
 31
0.0
  0
LINE
  5
2915
330
27CC
100
AcDbEntity
  8
0
 62
     0
100
AcDbLine
 10
24.62919330699782
 20
7.161680492638708
 30
0.0
 11
27.25087788473103
 21
9.783365070371871
 31
0.0
  0
LINE
  5
2916
330
27CC
100
AcDbEntity
  8
0
 62
     0
100
AcDbLine
 10
29.84221216833714
 20
13.27272496608498
 30
0.0
 11
33.16948707054081
 21
16.59999986828864
 31
0.0
  0
LINE
  5
2917
330
27CC
100
AcDbEntity
  8
0
 62
     0
100
AcDbLine
 10
33.93346990578169
 20
17.36398270352952
 30
0.0
 11
38.02577759808952
 21
21.45629039583735
 31
0.0
  0
LINE
  5
2918
330
27CC
100
AcDbEntity
  8
0
 62
     0
100
AcDbLine
 10
23.86103278955084
 20
7.291545587298628
 30
0.0
 11
26.51948707054077
 21
9.949999868288614
 31
0.0
  0
LINE
  5
2919
330
27CC
100
AcDbEntity
  8
0
 62
     0
100
AcDbLine
 10
29.84221216833714
 20
14.17075057819192
 30
0.0
 11
32.66020273904547
 21
16.9887411489002
 31
0.0
  0
LINE
  5
291A
330
27CC
100
AcDbEntity
  8
0
 62
     0
100
AcDbLine
 10
34.34794326521563
 20
18.67648167507036
 30
0.0
 11
38.40084904989083
 21
22.72938745974562
 31
0.0
  0
LINE
  5
291B
330
27CC
100
AcDbEntity
  8
0
 62
     0
100
AcDbLine
 10
23.19989853272443
 20
7.528436942579219
 30
0.0
 11
25.62146145843388
 21
9.949999868288614
 31
0.0
  0
LINE
  5
291C
330
27CC
100
AcDbEntity
  8
0
 62
     0
100
AcDbLine
 10
29.8422121683372
 20
15.06877619029876
 30
0.0
 11
32.64221216833732
 21
17.86877619029888
 31
0.0
  0
LINE
  5
291D
330
27CC
100
AcDbEntity
  8
0
 62
     0
100
AcDbLine
 10
34.76241662464957
 20
19.98898064661119
 30
0.0
 11
38.00683717732164
 21
23.23340119928326
 31
0.0
  0
LINE
  5
291E
330
27CC
100
AcDbEntity
  8
0
 62
     0
100
AcDbLine
 10
22.62229524856013
 20
7.8488592705217
 30
0.0
 11
24.73835710705299
 21
9.964921129014612
 31
0.0
  0
LINE
  5
291F
330
27CC
100
AcDbEntity
  8
0
 62
     0
100
AcDbLine
 10
29.84221216833714
 20
15.96680180240571
 30
0.0
 11
32.64221216833727
 21
18.76680180240583
 31
0.0
  0
LINE
  5
2920
330
27CC
100
AcDbEntity
  8
0
 62
     0
100
AcDbLine
 10
35.17688998408351
 20
21.30147961815203
 30
0.0
 11
37.12541023422005
 21
23.24999986828862
 31
0.0
  0
LINE
  5
2921
330
27CC
100
AcDbEntity
  8
0
 62
     0
100
AcDbLine
 10
22.11734028217807
 20
8.24192991624659
 30
0.0
 11
24.10404096603468
 21
10.2286306001032
 31
0.0
  0
LINE
  5
2922
330
27CC
100
AcDbEntity
  8
0
 62
     0
100
AcDbLine
 10
29.84221216833714
 20
16.8648274145126
 30
0.0
 11
32.64221216833727
 21
19.66482741451278
 31
0.0
  0
LINE
  5
2923
330
27CC
100
AcDbEntity
  8
0
 62
     0
100
AcDbLine
 10
26.50384630011365
 20
13.52646154628917
 30
0.0
 11
27.66575049033673
 21
14.68836573651225
 31
0.0
  0
LINE
  5
2924
330
27CC
100
AcDbEntity
  8
0
 62
     0
100
AcDbLine
 10
35.5913633435174
 20
22.61397858969292
 30
0.0
 11
36.22738462211311
 21
23.24999986828862
 31
0.0
  0
LINE
  5
2925
330
27CC
100
AcDbEntity
  8
0
 62
     0
100
AcDbLine
 10
21.68090320884823
 20
8.703518455023754
 30
0.0
 11
23.6937900147625
 21
10.71640526093801
 31
0.0
  0
LINE
  5
2926
330
27CC
100
AcDbEntity
  8
0
 62
     0
100
AcDbLine
 10
25.57887345848382
 20
13.49951431676629
 30
0.0
 11
27.6926977198596
 21
15.61333857814202
 31
0.0
  0
LINE
  5
2927
330
27CC
100
AcDbEntity
  8
0
 62
     0
100
AcDbLine
 10
29.8422121683372
 20
17.7628530266196
 30
0.0
 11
32.64221216833727
 21
20.56285302661967
 31
0.0
  0
LINE
  5
2928
330
27CC
100
AcDbEntity
  8
0
 62
     0
100
AcDbLine
 10
21.31388398390527
 20
9.234524842187681
 30
0.0
 11
23.54221216833718
 21
11.46285302661965
 31
0.0
  0
LINE
  5
2929
330
27CC
100
AcDbEntity
  8
0
 62
     0
100
AcDbLine
 10
24.96472688906362
 20
13.78339335945287
 30
0.0
 11
27.40881867717297
 21
16.22748514756227
 31
0.0
  0
LINE
  5
292A
330
27CC
100
AcDbEntity
  8
0
 62
     0
100
AcDbLine
 10
29.8422121683372
 20
18.6608786387265
 30
0.0
 11
32.64221216833727
 21
21.46087863872657
 31
0.0
  0
LINE
  5
292B
330
27CC
100
AcDbEntity
  8
0
 62
     0
100
AcDbLine
 10
21.02256647398053
 20
9.841232944369835
 30
0.0
 11
23.54221216833718
 21
12.36087863872649
 31
0.0
  0
LINE
  5
292C
330
27CC
100
AcDbEntity
  8
0
 62
     0
100
AcDbLine
 10
24.5267669620739
 20
14.24345904457015
 30
0.0
 11
26.94875299205574
 21
16.66544507455194
 31
0.0
  0
LINE
  5
292D
330
27CC
100
AcDbEntity
  8
0
 62
     0
100
AcDbLine
 10
29.8422121683372
 20
19.55890425083345
 30
0.0
 11
32.64221216833727
 21
22.35890425083346
 31
0.0
  0
LINE
  5
292E
330
27CC
100
AcDbEntity
  8
0
 62
     0
100
AcDbLine
 10
20.82142910980587
 20
10.53812119230212
 30
0.0
 11
23.54221216833718
 21
13.25890425083343
 31
0.0
  0
LINE
  5
292F
330
27CC
100
AcDbEntity
  8
0
 62
     0
100
AcDbLine
 10
24.27071622966554
 20
14.88543392426868
 30
0.0
 11
26.30677811235716
 21
16.92149580696036
 31
0.0
  0
LINE
  5
2930
330
27CC
100
AcDbEntity
  8
0
 62
     0
100
AcDbLine
 10
20.74221216833711
 20
11.35692986294031
 30
0.0
 11
23.54221216833718
 21
14.15692986294033
 31
0.0
  0
LINE
  5
2931
330
27CC
100
AcDbEntity
  8
0
 62
     0
100
AcDbLine
 10
29.8422121683372
 20
20.45692986294034
 30
0.0
 11
32.48496205998208
 21
23.09967975458528
 31
0.0
  0
LINE
  5
2932
330
27CC
100
AcDbEntity
  8
0
 62
     0
100
AcDbLine
 10
16.65621541046152
 20
7.270933105064727
 30
0.0
 11
18.52127893156125
 21
9.135996626164455
 31
0.0
  0
LINE
  5
2933
330
27CC
100
AcDbEntity
  8
0
 62
     0
100
AcDbLine
 10
24.38912931314632
 20
15.90187261985636
 30
0.0
 11
25.29033941676954
 21
16.80308272347957
 31
0.0
  0
LINE
  5
2934
330
27CC
100
AcDbEntity
  8
0
 62
     0
100
AcDbLine
 10
20.74221216833711
 20
12.25495547504715
 30
0.0
 11
23.54221216833729
 21
15.05495547504728
 31
0.0
  0
LINE
  5
2935
330
27CC
100
AcDbEntity
  8
0
 62
     0
100
AcDbLine
 10
29.8422121683372
 20
21.35495547504723
 30
0.0
 11
31.73725656157859
 21
23.24999986828862
 31
0.0
  0
LINE
  5
2936
330
27CC
100
AcDbEntity
  8
0
 62
     0
100
AcDbLine
 10
15.63725656157856
 20
7.149999868288603
 30
0.0
 11
18.64221216833732
 21
10.1549554750473
 31
0.0
  0
LINE
  5
2937
330
27CC
100
AcDbEntity
  8
0
 62
     0
100
AcDbLine
 10
20.74221216833711
 20
13.1529810871541
 30
0.0
 11
23.54221216833724
 21
15.95298108715422
 31
0.0
  0
LINE
  5
2938
330
27CC
100
AcDbEntity
  8
0
 62
     0
100
AcDbLine
 10
29.8422121683372
 20
22.25298108715412
 30
0.0
 11
30.8392309494717
 21
23.24999986828868
 31
0.0
  0
LINE
  5
2939
330
27CC
100
AcDbEntity
  8
0
 62
     0
100
AcDbLine
 10
14.73923094947156
 20
7.149999868288546
 30
0.0
 11
18.64221216833726
 21
11.05298108715425
 31
0.0
  0
LINE
  5
293A
330
27CC
100
AcDbEntity
  8
0
 62
     0
100
AcDbLine
 10
20.74221216833711
 20
14.05100669926099
 30
0.0
 11
23.54221216833724
 21
16.85100669926117
 31
0.0
  0
LINE
  5
293B
330
27CC
100
AcDbEntity
  8
0
 62
     0
100
AcDbLine
 10
13.84120533736472
 20
7.149999868288659
 30
0.0
 11
18.63827281577601
 21
11.94706734669995
 31
0.0
  0
LINE
  5
293C
330
27CC
100
AcDbEntity
  8
0
 62
     0
100
AcDbLine
 10
20.74221216833711
 20
14.94903231136794
 30
0.0
 11
23.54221216833724
 21
17.74903231136806
 31
0.0
  0
LINE
  5
293D
330
27CC
100
AcDbEntity
  8
0
 62
     0
100
AcDbLine
 10
26.2431797252579
 20
20.44999986828873
 30
0.0
 11
27.39221216833732
 21
21.59903231136814
 31
0.0
  0
LINE
  5
293E
330
27CC
100
AcDbEntity
  8
0
 62
     0
100
AcDbLine
 10
12.94317972525777
 20
7.149999868288603
 30
0.0
 11
18.52861097945469
 21
12.73543112248552
 31
0.0
  0
LINE
  5
293F
330
27CC
100
AcDbEntity
  8
0
 62
     0
100
AcDbLine
 10
20.74221216833711
 20
15.84705792347483
 30
0.0
 11
23.54221216833724
 21
18.64705792347496
 31
0.0
  0
LINE
  5
2940
330
27CC
100
AcDbEntity
  8
0
 62
     0
100
AcDbLine
 10
15.8422121683372
 20
10.94705792347491
 30
0.0
 11
18.30627223541057
 21
13.41111799054829
 31
0.0
  0
LINE
  5
2941
330
27CC
100
AcDbEntity
  8
0
 62
     0
100
AcDbLine
 10
25.34515411315089
 20
20.44999986828861
 30
0.0
 11
27.39221216833732
 21
22.49705792347498
 31
0.0
  0
LINE
  5
2942
330
27CC
100
AcDbEntity
  8
0
 62
     0
100
AcDbLine
 10
12.10287998841084
 20
7.207725743548564
 30
0.0
 11
14.84515411315089
 21
9.949999868288614
 31
0.0
  0
LINE
  5
2943
330
27CC
100
AcDbEntity
  8
0
 62
     0
100
AcDbLine
 10
20.74221216833706
 20
16.74508353558172
 30
0.0
 11
23.70802687411685
 21
19.71089824136152
 31
0.0
  0
LINE
  5
2944
330
27CC
100
AcDbEntity
  8
0
 62
     0
100
AcDbLine
 10
15.84005307672794
 20
11.84292444397254
 30
0.0
 11
17.99784070073854
 21
14.00071206798321
 31
0.0
  0
LINE
  5
2945
330
27CC
100
AcDbEntity
  8
0
 62
     0
100
AcDbLine
 10
24.28131379526439
 20
20.28418516250906
 30
0.0
 11
27.1587447534174
 21
23.16161612066201
 31
0.0
  0
LINE
  5
2946
330
27CC
100
AcDbEntity
  8
0
 62
     0
100
AcDbLine
 10
11.81721216833722
 20
7.820083535581829
 30
0.0
 11
13.947128501044
 21
9.949999868288614
 31
0.0
  0
LINE
  5
2947
330
27CC
100
AcDbEntity
  8
0
 62
     0
100
AcDbLine
 10
15.62045005722723
 20
12.52134703657884
 30
0.0
 11
17.61559873589965
 21
14.51649571525126
 31
0.0
  0
LINE
  5
2948
330
27CC
100
AcDbEntity
  8
0
 62
     0
100
AcDbLine
 10
20.74221216833706
 20
17.64310914768867
 30
0.0
 11
26.34910288893701
 21
23.24999986828862
 31
0.0
  0
LINE
  5
2949
330
27CC
100
AcDbEntity
  8
0
 62
     0
100
AcDbLine
 10
11.81721216833716
 20
8.718109147688778
 30
0.0
 11
13.04910288893705
 21
9.949999868288671
 31
0.0
  0
LINE
  5
294A
330
27CC
100
AcDbEntity
  8
0
 62
     0
100
AcDbLine
 10
15.19419522892252
 20
12.99311782038097
 30
0.0
 11
17.17409421624489
 21
14.97301680770334
 31
0.0
  0
LINE
  5
294B
330
27CC
100
AcDbEntity
  8
0
 62
     0
100
AcDbLine
 10
20.74221216833711
 20
18.54113475979551
 30
0.0
 11
25.45107727683006
 21
23.24999986828851
 31
0.0
  0
LINE
  5
294C
330
27CC
100
AcDbEntity
  8
0
 62
     0
100
AcDbLine
 10
11.88616409035694
 20
9.685086681815391
 30
0.0
 11
12.08212535481055
 21
9.881047946269006
 31
0.0
  0
LINE
  5
294D
330
27CC
100
AcDbEntity
  8
0
 62
     0
100
AcDbLine
 10
20.7621872824937
 20
19.45913548605903
 30
0.0
 11
24.5330765505667
 21
23.2300247541321
 31
0.0
  0
LINE
  5
294E
330
27CC
100
AcDbEntity
  8
0
 62
     0
100
AcDbLine
 10
14.74518242286904
 20
13.44213062643444
 30
0.0
 11
16.72508141019142
 21
15.42202961375681
 31
0.0
  0
LINE
  5
294F
330
27CC
100
AcDbEntity
  8
0
 62
     0
100
AcDbLine
 10
21.06165071475948
 20
20.65662453043182
 30
0.0
 11
23.33558750619397
 21
22.93056132186632
 31
0.0
  0
LINE
  5
2950
330
27CC
100
AcDbEntity
  8
0
 62
     0
100
AcDbLine
 10
14.29616961681557
 20
13.89114343248792
 30
0.0
 11
16.27606860413794
 21
15.87104241981029
 31
0.0
  0
LINE
  5
2951
330
27CC
100
AcDbEntity
  8
0
 62
     0
100
AcDbLine
 10
13.84715681076215
 20
14.34015623854134
 30
0.0
 11
15.82705579808447
 21
16.32005522586359
 31
0.0
  0
LINE
  5
2952
330
27CC
100
AcDbEntity
  8
0
 62
     0
100
AcDbLine
 10
13.39814400470868
 20
14.78916904459481
 30
0.0
 11
15.378042992031
 21
16.76906803191707
 31
0.0
  0
LINE
  5
2953
330
27CC
100
AcDbEntity
  8
0
 62
     0
100
AcDbLine
 10
12.94913119865521
 20
15.23818185064828
 30
0.0
 11
14.92903018597752
 21
17.21808083797054
 31
0.0
  0
LINE
  5
2954
330
27CC
100
AcDbEntity
  8
0
 62
     0
100
AcDbLine
 10
17.26292360418864
 20
20.44999986828861
 30
0.0
 11
18.11721216833712
 21
21.30428843243714
 31
0.0
  0
LINE
  5
2955
330
27CC
100
AcDbEntity
  8
0
 62
     0
100
AcDbLine
 10
12.50020170662986
 20
15.68727797072989
 30
0.0
 11
14.48026735006232
 21
17.66734361416235
 31
0.0
  0
LINE
  5
2956
330
27CC
100
AcDbEntity
  8
0
 62
     0
100
AcDbLine
 10
16.36489799208175
 20
20.44999986828861
 30
0.0
 11
18.11721216833717
 21
22.20231404454403
 31
0.0
  0
LINE
  5
2957
330
27CC
100
AcDbEntity
  8
0
 62
     0
100
AcDbLine
 10
12.08873378207829
 20
16.1738356582851
 30
0.0
 11
14.15037046877438
 21
18.23547234498124
 31
0.0
  0
LINE
  5
2958
330
27CC
100
AcDbEntity
  8
0
 62
     0
100
AcDbLine
 10
15.4668723799748
 20
20.44999986828861
 30
0.0
 11
18.03065326857603
 21
23.01378075688984
 31
0.0
  0
LINE
  5
2959
330
27CC
100
AcDbEntity
  8
0
 62
     0
100
AcDbLine
 10
11.74827317581582
 20
16.73140066412958
 30
0.0
 11
14.09221216833725
 21
19.07533965665101
 31
0.0
  0
LINE
  5
295A
330
27CC
100
AcDbEntity
  8
0
 62
     0
100
AcDbLine
 10
14.56638011869779
 20
20.44753321911849
 30
0.0
 11
17.36884676786786
 21
23.24999986828862
 31
0.0
  0
LINE
  5
295B
330
27CC
100
AcDbEntity
  8
0
 62
     0
100
AcDbLine
 10
11.48757988008372
 20
17.36873298050443
 30
0.0
 11
14.09467881750731
 21
19.97583191792807
 31
0.0
  0
LINE
  5
295C
330
27CC
100
AcDbEntity
  8
0
 62
     0
100
AcDbLine
 10
11.32576791783566
 20
18.10494663036325
 30
0.0
 11
16.47082115576103
 21
23.24999986828856
 31
0.0
  0
LINE
  5
295D
330
27CC
100
AcDbEntity
  8
0
 62
     0
100
AcDbLine
 10
11.29221216833724
 20
18.96941649297178
 30
0.0
 11
15.57279554365408
 21
23.24999986828862
 31
0.0
  0
LINE
  5
295E
330
27CC
100
AcDbEntity
  8
0
 62
     0
100
AcDbLine
 10
11.29221216833724
 20
19.86744210507868
 30
0.0
 11
14.67476993154713
 21
23.24999986828862
 31
0.0
  0
LINE
  5
295F
330
27CC
100
AcDbEntity
  8
0
 62
     0
100
AcDbLine
 10
11.31240417877546
 20
20.78565972762385
 30
0.0
 11
13.75655230900207
 21
23.22980785785046
 31
0.0
  0
ENDBLK
  5
2961
330
27CC
100
AcDbEntity
  8
0
100
AcDbBlockEnd
  0
BLOCK
  5
29E0
330
29D6
100
AcDbEntity
  8
0
100
AcDbBlockBegin
  2
*D12
 70
     1
 10
0.0
 20
0.0
 30
0.0
  3
*D12
  1

  0
LINE
  5
29D7
330
29D6
100
AcDbEntity
  8
SUNPOU
100
AcDbLine
 10
391.0643067898991
 20
331.6036779303102
 30
0.0
 11
391.0643067898991
 21
364.4331869764947
 31
0.0
  0
LINE
  5
29D8
330
29D6
100
AcDbEntity
  8
SUNPOU
100
AcDbLine
 10
520.1115109868669
 20
331.6036779303102
 30
0.0
 11
520.1115109868669
 21
364.4331869764947
 31
0.0
  0
LINE
  5
29D9
330
29D6
100
AcDbEntity
  8
SUNPOU
100
AcDbLine
 10
395.0643067898991
 20
362.9331869764947
 30
0.0
 11
516.1115109868669
 21
362.9331869764947
 31
0.0
  0
INSERT
  5
29DA
330
29D6
100
AcDbEntity
  8
SUNPOU
100
AcDbBlockReference
  2
_OPEN
 10
391.0643067898991
 20
362.9331869764947
 30
0.0
 41
4.0
 42
4.0
 43
4.0
 50
180.0
  0
INSERT
  5
29DB
330
29D6
100
AcDbEntity
  8
SUNPOU
100
AcDbBlockReference
  2
_OPEN
 10
520.1115109868669
 20
362.9331869764947
 30
0.0
 41
4.0
 42
4.0
 43
4.0
  0
MTEXT
  5
29DC
330
29D6
100
AcDbEntity
  8
SUNPOU
100
AcDbMText
 10
455.2016618759584
 20
366.9331869764947
 30
0.0
 40
4.0
 41
0.0
 71
     5
 72
     5
  1
\A1;129
 73
     1
 44
1.0
1001
ACAD
1000
MTEXTBEGIN
1070
    73
1070
     1
1070
    44
1040
1.0
1070
    74
1070
     0
1000
MTEXTEND
1000
MTEXTBEGIN
1070
    73
1070
     1
1070
    44
1040
1.0
1070
    74
1070
     0
1000
MTEXTEND
1000
MTEXTBEGIN
1070
    73
1070
     1
1070
    44
1040
1.0
1070
    74
1070
     0
1000
MTEXTEND
  0
POINT
  5
29DD
330
29D6
100
AcDbEntity
  8
DEFPOINTS
 62
     0
100
AcDbPoint
 10
391.0643067898991
 20
330.1036779303102
 30
0.0
  0
POINT
  5
29DE
330
29D6
100
AcDbEntity
  8
DEFPOINTS
 62
     0
100
AcDbPoint
 10
520.1115109868669
 20
330.1036779303102
 30
0.0
  0
POINT
  5
29DF
330
29D6
100
AcDbEntity
  8
DEFPOINTS
 62
     0
100
AcDbPoint
 10
520.1115109868669
 20
362.9331869764947
 30
0.0
  0
ENDBLK
  5
29E1
330
29D6
100
AcDbEntity
  8
0
100
AcDbBlockEnd
  0
BLOCK
  5
29EC
330
29E2
100
AcDbEntity
  8
0
100
AcDbBlockBegin
  2
*D13
 70
     1
 10
0.0
 20
0.0
 30
0.0
  3
*D13
  1

  0
LINE
  5
29E3
330
29E2
100
AcDbEntity
  8
SUNPOU
100
AcDbLine
 10
395.1592036169177
 20
181.603221015779
 30
0.0
 11
395.1592036169177
 21
155.6824378529526
 31
0.0
  0
LINE
  5
29E4
330
29E2
100
AcDbEntity
  8
SUNPOU
100
AcDbLine
 10
452.0166141598483
 20
181.603221015779
 30
0.0
 11
452.0166141598483
 21
155.6824378529526
 31
0.0
  0
LINE
  5
29E5
330
29E2
100
AcDbEntity
  8
SUNPOU
100
AcDbLine
 10
399.1592036169177
 20
157.1824378529526
 30
0.0
 11
448.0166141598483
 21
157.1824378529526
 31
0.0
  0
INSERT
  5
29E6
330
29E2
100
AcDbEntity
  8
SUNPOU
100
AcDbBlockReference
  2
_OPEN
 10
395.1592036169177
 20
157.1824378529526
 30
0.0
 41
4.0
 42
4.0
 43
4.0
 50
180.0
  0
INSERT
  5
29E7
330
29E2
100
AcDbEntity
  8
SUNPOU
100
AcDbBlockReference
  2
_OPEN
 10
452.0166141598483
 20
157.1824378529526
 30
0.0
 41
4.0
 42
4.0
 43
4.0
  0
MTEXT
  5
29E8
330
29E2
100
AcDbEntity
  8
SUNPOU
100
AcDbMText
 10
423.587908888383
 20
161.1824378529526
 30
0.0
 40
4.0
 41
0.0
 71
     5
 72
     5
  1
\A1;φ57
 73
     1
 44
1.0
1001
ACAD
1000
MTEXTBEGIN
1070
    73
1070
     1
1070
    44
1040
1.0
1070
    74
1070
     0
1000
MTEXTEND
1000
MTEXTBEGIN
1070
    73
1070
     1
1070
    44
1040
1.0
1070
    74
1070
     0
1000
MTEXTEND
1000
MTEXTBEGIN
1070
    73
1070
     1
1070
    44
1040
1.0
1070
    74
1070
     0
1000
MTEXTEND
  0
POINT
  5
29E9
330
29E2
100
AcDbEntity
  8
DEFPOINTS
 62
     0
100
AcDbPoint
 10
395.1592036169177
 20
183.103221015779
 30
0.0
  0
POINT
  5
29EA
330
29E2
100
AcDbEntity
  8
DEFPOINTS
 62
     0
100
AcDbPoint
 10
452.0166141598483
 20
183.103221015779
 30
0.0
  0
POINT
  5
29EB
330
29E2
100
AcDbEntity
  8
DEFPOINTS
 62
     0
100
AcDbPoint
 10
452.0166141598483
 20
157.1824378529526
 30
0.0
  0
ENDBLK
  5
29ED
330
29E2
100
AcDbEntity
  8
0
100
AcDbBlockEnd
  0
BLOCK
  5
29F8
330
29EE
100
AcDbEntity
  8
0
100
AcDbBlockBegin
  2
*D14
 70
     1
 10
0.0
 20
0.0
 30
0.0
  3
*D14
  1

  0
LINE
  5
29EF
330
29EE
100
AcDbEntity
  8
SUNPOU
100
AcDbLine
 10
389.5643067898991
 20
330.1036779303102
 30
0.0
 11
355.4307805737703
 21
330.1036779303103
 31
0.0
  0
LINE
  5
29F0
330
29EE
100
AcDbEntity
  8
SUNPOU
100
AcDbLine
 10
394.0115608362293
 20
180.1036779303102
 30
0.0
 11
355.4307805737703
 21
180.1036779303102
 31
0.0
  0
LINE
  5
29F1
330
29EE
100
AcDbEntity
  8
SUNPOU
100
AcDbLine
 10
356.9307805737703
 20
326.1036779303103
 30
0.0
 11
356.9307805737703
 21
184.1036779303102
 31
0.0
  0
INSERT
  5
29F2
330
29EE
100
AcDbEntity
  8
SUNPOU
100
AcDbBlockReference
  2
_OPEN
 10
356.9307805737703
 20
330.1036779303103
 30
0.0
 41
4.0
 42
4.0
 43
4.0
 50
90.0
  0
INSERT
  5
29F3
330
29EE
100
AcDbEntity
  8
SUNPOU
100
AcDbBlockReference
  2
_OPEN
 10
356.9307805737703
 20
180.1036779303102
 30
0.0
 41
4.0
 42
4.0
 43
4.0
 50
270.0
  0
MTEXT
  5
29F4
330
29EE
100
AcDbEntity
  8
SUNPOU
100
AcDbMText
 10
352.9307805737702
 20
255.1036779303103
 30
0.0
 40
4.0
 41
0.0
 71
     5
 72
     5
  1
\A1;150
 11
0.0000000000000001
 21
1.0
 31
0.0
 73
     1
 44
1.0
1001
ACAD
1000
MTEXTBEGIN
1070
    73
1070
     1
1070
    44
1040
1.0
1070
    74
1070
     0
1000
MTEXTEND
1000
MTEXTBEGIN
1070
    73
1070
     1
1070
    44
1040
1.0
1070
    74
1070
     0
1000
MTEXTEND
1000
MTEXTBEGIN
1070
    73
1070
     1
1070
    44
1040
1.0
1070
    74
1070
     0
1000
MTEXTEND
  0
POINT
  5
29F5
330
29EE
100
AcDbEntity
  8
DEFPOINTS
 62
     0
100
AcDbPoint
 10
391.0643067898991
 20
330.1036779303102
 30
0.0
  0
POINT
  5
29F6
330
29EE
100
AcDbEntity
  8
DEFPOINTS
 62
     0
100
AcDbPoint
 10
395.5115608362293
 20
180.1036779303102
 30
0.0
  0
POINT
  5
29F7
330
29EE
100
AcDbEntity
  8
DEFPOINTS
 62
     0
100
AcDbPoint
 10
356.9307805737703
 20
180.1036779303102
 30
0.0
  0
ENDBLK
  5
29F9
330
29EE
100
AcDbEntity
  8
0
100
AcDbBlockEnd
  0
BLOCK
  5
2A04
330
29FA
100
AcDbEntity
  8
0
100
AcDbBlockBegin
  2
*D15
 70
     1
 10
0.0
 20
0.0
 30
0.0
  3
*D15
  1

  0
LINE
  5
29FB
330
29FA
100
AcDbEntity
  8
SUNPOU
100
AcDbLine
 10
521.2399694699788
 20
244.9531749900269
 30
0.0
 11
555.3527250816022
 21
244.9531749900269
 31
0.0
  0
LINE
  5
29FC
330
29FA
100
AcDbEntity
  8
SUNPOU
100
AcDbLine
 10
521.6115109868669
 20
330.1036779303102
 30
0.0
 11
555.3527250816023
 21
330.1036779303102
 31
0.0
  0
LINE
  5
29FD
330
29FA
100
AcDbEntity
  8
SUNPOU
100
AcDbLine
 10
553.8527250816022
 20
248.9531749900269
 30
0.0
 11
553.8527250816023
 21
326.1036779303102
 31
0.0
  0
INSERT
  5
29FE
330
29FA
100
AcDbEntity
  8
SUNPOU
100
AcDbBlockReference
  2
_OPEN
 10
553.8527250816022
 20
244.9531749900269
 30
0.0
 41
4.0
 42
4.0
 43
4.0
 50
270.0
  0
INSERT
  5
29FF
330
29FA
100
AcDbEntity
  8
SUNPOU
100
AcDbBlockReference
  2
_OPEN
 10
553.8527250816023
 20
330.1036779303102
 30
0.0
 41
4.0
 42
4.0
 43
4.0
 50
90.0
  0
MTEXT
  5
2A00
330
29FA
100
AcDbEntity
  8
SUNPOU
100
AcDbMText
 10
549.8527250816022
 20
287.5284264601686
 30
0.0
 40
4.0
 41
0.0
 71
     5
 72
     5
  1
\A1;85
 11
0.0000000000000001
 21
1.0
 31
0.0
 73
     1
 44
1.0
1001
ACAD
1000
MTEXTBEGIN
1070
    73
1070
     1
1070
    44
1040
1.0
1070
    74
1070
     0
1000
MTEXTEND
1000
MTEXTBEGIN
1070
    73
1070
     1
1070
    44
1040
1.0
1070
    74
1070
     0
1000
MTEXTEND
1000
MTEXTBEGIN
1070
    73
1070
     1
1070
    44
1040
1.0
1070
    74
1070
     0
1000
MTEXTEND
  0
POINT
  5
2A01
330
29FA
100
AcDbEntity
  8
DEFPOINTS
 62
     0
100
AcDbPoint
 10
519.7399694699789
 20
244.9531749900269
 30
0.0
  0
POINT
  5
2A02
330
29FA
100
AcDbEntity
  8
DEFPOINTS
 62
     0
100
AcDbPoint
 10
520.1115109868669
 20
330.1036779303102
 30
0.0
  0
POINT
  5
2A03
330
29FA
100
AcDbEntity
  8
DEFPOINTS
 62
     0
100
AcDbPoint
 10
553.8527250816023
 20
330.1036779303102
 30
0.0
  0
ENDBLK
  5
2A05
330
29FA
100
AcDbEntity
  8
0
100
AcDbBlockEnd
  0
BLOCK
  5
2A10
330
2A06
100
AcDbEntity
  8
0
100
AcDbBlockBegin
  2
*D16
 70
     1
 10
0.0
 20
0.0
 30
0.0
  3
*D16
  1

  0
LINE
  5
2A07
330
2A06
100
AcDbEntity
  8
SUNPOU
100
AcDbLine
 10
453.9879088883817
 20
210.1036779303102
 30
0.0
 11
474.7567413550086
 21
210.1036779303102
 31
0.0
  0
LINE
  5
2A08
330
2A06
100
AcDbEntity
  8
SUNPOU
100
AcDbLine
 10
453.1642569405367
 20
180.1036779303102
 30
0.0
 11
474.7567413550086
 21
180.1036779303102
 31
0.0
  0
LINE
  5
2A09
330
2A06
100
AcDbEntity
  8
SUNPOU
100
AcDbLine
 10
473.2567413550087
 20
206.1036779303102
 30
0.0
 11
473.2567413550087
 21
184.1036779303102
 31
0.0
  0
INSERT
  5
2A0A
330
2A06
100
AcDbEntity
  8
SUNPOU
100
AcDbBlockReference
  2
_OPEN
 10
473.2567413550087
 20
210.1036779303102
 30
0.0
 41
4.0
 42
4.0
 43
4.0
 50
90.0
  0
INSERT
  5
2A0B
330
2A06
100
AcDbEntity
  8
SUNPOU
100
AcDbBlockReference
  2
_OPEN
 10
473.2567413550087
 20
180.1036779303102
 30
0.0
 41
4.0
 42
4.0
 43
4.0
 50
270.0
  0
MTEXT
  5
2A0C
330
2A06
100
AcDbEntity
  8
SUNPOU
100
AcDbMText
 10
469.2567413550086
 20
195.1036779303103
 30
0.0
 40
4.0
 41
0.0
 71
     5
 72
     5
  1
\A1;※30
 11
0.0000000000000001
 21
1.0
 31
0.0
 73
     1
 44
1.0
1001
ACAD
1000
MTEXTBEGIN
1070
    73
1070
     1
1070
    44
1040
1.0
1070
    74
1070
     0
1000
MTEXTEND
1000
MTEXTBEGIN
1070
    73
1070
     1
1070
    44
1040
1.0
1070
    74
1070
     0
1000
MTEXTEND
1000
MTEXTBEGIN
1070
    73
1070
     1
1070
    44
1040
1.0
1070
    74
1070
     0
1000
MTEXTEND
  0
POINT
  5
2A0D
330
2A06
100
AcDbEntity
  8
DEFPOINTS
 62
     0
100
AcDbPoint
 10
452.4879088883817
 20
210.1036779303102
 30
0.0
  0
POINT
  5
2A0E
330
2A06
100
AcDbEntity
  8
DEFPOINTS
 62
     0
100
AcDbPoint
 10
451.6642569405367
 20
180.1036779303102
 30
0.0
  0
POINT
  5
2A0F
330
2A06
100
AcDbEntity
  8
DEFPOINTS
 62
     0
100
AcDbPoint
 10
473.2567413550087
 20
180.1036779303102
 30
0.0
  0
ENDBLK
  5
2A11
330
2A06
100
AcDbEntity
  8
0
100
AcDbBlockEnd
  0
BLOCK
  5
2A1C
330
2A12
100
AcDbEntity
  8
0
100
AcDbBlockBegin
  2
*D17
 70
     1
 10
0.0
 20
0.0
 30
0.0
  3
*D17
  1

  0
LINE
  5
2A13
330
2A12
100
AcDbEntity
  8
SUNPOU
100
AcDbLine
 10
661.136570964918
 20
208.6036779303102
 30
0.0
 11
661.136570964918
 21
159.6079991217228
 31
0.0
  0
LINE
  5
2A14
330
2A12
100
AcDbEntity
  8
SUNPOU
100
AcDbLine
 10
597.1377894268644
 20
208.3244287943633
 30
0.0
 11
597.1377894268644
 21
159.6079991217228
 31
0.0
  0
LINE
  5
2A15
330
2A12
100
AcDbEntity
  8
SUNPOU
100
AcDbLine
 10
657.136570964918
 20
161.1079991217228
 30
0.0
 11
601.1377894268644
 21
161.1079991217228
 31
0.0
  0
INSERT
  5
2A16
330
2A12
100
AcDbEntity
  8
SUNPOU
100
AcDbBlockReference
  2
_OPEN
 10
661.136570964918
 20
161.1079991217228
 30
0.0
 41
4.0
 42
4.0
 43
4.0
  0
INSERT
  5
2A17
330
2A12
100
AcDbEntity
  8
SUNPOU
100
AcDbBlockReference
  2
_OPEN
 10
597.1377894268644
 20
161.1079991217228
 30
0.0
 41
4.0
 42
4.0
 43
4.0
 50
180.0
  0
MTEXT
  5
2A18
330
2A12
100
AcDbEntity
  8
SUNPOU
100
AcDbMText
 10
629.1371801958912
 20
165.1079991217228
 30
0.0
 40
4.0
 41
0.0
 71
     5
 72
     5
  1
\A1;64
 73
     1
 44
1.0
1001
ACAD
1000
MTEXTBEGIN
1070
    73
1070
     1
1070
    44
1040
1.0
1070
    74
1070
     0
1000
MTEXTEND
1000
MTEXTBEGIN
1070
    73
1070
     1
1070
    44
1040
1.0
1070
    74
1070
     0
1000
MTEXTEND
1000
MTEXTBEGIN
1070
    73
1070
     1
1070
    44
1040
1.0
1070
    74
1070
     0
1000
MTEXTEND
  0
POINT
  5
2A19
330
2A12
100
AcDbEntity
  8
DEFPOINTS
 62
     0
100
AcDbPoint
 10
661.136570964918
 20
210.1036779303102
 30
0.0
  0
POINT
  5
2A1A
330
2A12
100
AcDbEntity
  8
DEFPOINTS
 62
     0
100
AcDbPoint
 10
597.1377894268644
 20
209.8244287943633
 30
0.0
  0
POINT
  5
2A1B
330
2A12
100
AcDbEntity
  8
DEFPOINTS
 62
     0
100
AcDbPoint
 10
597.1377894268644
 20
161.1079991217228
 30
0.0
  0
ENDBLK
  5
2A1D
330
2A12
100
AcDbEntity
  8
0
100
AcDbBlockEnd
  0
BLOCK
  5
2A28
330
2A1E
100
AcDbEntity
  8
0
100
AcDbBlockBegin
  2
*D18
 70
     1
 10
0.0
 20
0.0
 30
0.0
  3
*D18
  1

  0
LINE
  5
2A1F
330
2A1E
100
AcDbEntity
  8
SUNPOU
100
AcDbLine
 10
423.587908888383
 20
341.5267986834972
 30
0.0
 11
423.587908888383
 21
353.8028224948524
 31
0.0
  0
LINE
  5
2A20
330
2A1E
100
AcDbEntity
  8
SUNPOU
100
AcDbLine
 10
487.587908888383
 20
341.5267986834972
 30
0.0
 11
487.587908888383
 21
353.8028224948524
 31
0.0
  0
LINE
  5
2A21
330
2A1E
100
AcDbEntity
  8
SUNPOU
100
AcDbLine
 10
427.587908888383
 20
352.3028224948524
 30
0.0
 11
483.587908888383
 21
352.3028224948524
 31
0.0
  0
INSERT
  5
2A22
330
2A1E
100
AcDbEntity
  8
SUNPOU
100
AcDbBlockReference
  2
_OPEN
 10
423.587908888383
 20
352.3028224948524
 30
0.0
 41
4.0
 42
4.0
 43
4.0
 50
180.0
  0
INSERT
  5
2A23
330
2A1E
100
AcDbEntity
  8
SUNPOU
100
AcDbBlockReference
  2
_OPEN
 10
487.587908888383
 20
352.3028224948524
 30
0.0
 41
4.0
 42
4.0
 43
4.0
  0
MTEXT
  5
2A24
330
2A1E
100
AcDbEntity
  8
SUNPOU
100
AcDbMText
 10
454.2517644590125
 20
356.3028224948524
 30
0.0
 40
4.0
 41
0.0
 71
     5
 72
     5
  1
\A1;64
 73
     1
 44
1.0
1001
ACAD
1000
MTEXTBEGIN
1070
    73
1070
     1
1070
    44
1040
1.0
1070
    74
1070
     0
1000
MTEXTEND
1000
MTEXTBEGIN
1070
    73
1070
     1
1070
    44
1040
1.0
1070
    74
1070
     0
1000
MTEXTEND
1000
MTEXTBEGIN
1070
    73
1070
     1
1070
    44
1040
1.0
1070
    74
1070
     0
1000
MTEXTEND
  0
POINT
  5
2A25
330
2A1E
100
AcDbEntity
  8
DEFPOINTS
 62
     0
100
AcDbPoint
 10
423.587908888383
 20
340.0267986834973
 30
0.0
  0
POINT
  5
2A26
330
2A1E
100
AcDbEntity
  8
DEFPOINTS
 62
     0
100
AcDbPoint
 10
487.587908888383
 20
340.0267986834973
 30
0.0
  0
POINT
  5
2A27
330
2A1E
100
AcDbEntity
  8
DEFPOINTS
 62
     0
100
AcDbPoint
 10
487.587908888383
 20
352.3028224948524
 30
0.0
  0
ENDBLK
  5
2A29
330
2A1E
100
AcDbEntity
  8
0
100
AcDbBlockEnd
  0
BLOCK
  5
2A34
330
2A2A
100
AcDbEntity
  8
0
100
AcDbBlockBegin
  2
*D19
 70
     1
 10
0.0
 20
0.0
 30
0.0
  3
*D19
  1

  0
LINE
  5
2A2B
330
2A2A
100
AcDbEntity
  8
SUNPOU
100
AcDbLine
 10
596.6129688664332
 20
331.6036779303102
 30
0.0
 11
596.6129688664332
 21
350.1423251543491
 31
0.0
  0
LINE
  5
2A2C
330
2A2A
100
AcDbEntity
  8
SUNPOU
100
AcDbLine
 10
661.6601730634029
 20
331.6036779303102
 30
0.0
 11
661.6601730634029
 21
350.1423251543491
 31
0.0
  0
LINE
  5
2A2D
330
2A2A
100
AcDbEntity
  8
SUNPOU
100
AcDbLine
 10
600.6129688664332
 20
348.6423251543491
 30
0.0
 11
657.6601730634028
 21
348.6423251543491
 31
0.0
  0
INSERT
  5
2A2E
330
2A2A
100
AcDbEntity
  8
SUNPOU
100
AcDbBlockReference
  2
_OPEN
 10
596.6129688664332
 20
348.6423251543491
 30
0.0
 41
4.0
 42
4.0
 43
4.0
 50
180.0
  0
INSERT
  5
2A2F
330
2A2A
100
AcDbEntity
  8
SUNPOU
100
AcDbBlockReference
  2
_OPEN
 10
661.6601730634029
 20
348.6423251543491
 30
0.0
 41
4.0
 42
4.0
 43
4.0
  0
MTEXT
  5
2A30
330
2A2A
100
AcDbEntity
  8
SUNPOU
100
AcDbMText
 10
629.1365709649181
 20
352.6423251543491
 30
0.0
 40
4.0
 41
0.0
 71
     5
 72
     5
  1
\A1;65
 73
     1
 44
1.0
1001
ACAD
1000
MTEXTBEGIN
1070
    73
1070
     1
1070
    44
1040
1.0
1070
    74
1070
     0
1000
MTEXTEND
1000
MTEXTBEGIN
1070
    73
1070
     1
1070
    44
1040
1.0
1070
    74
1070
     0
1000
MTEXTEND
1000
MTEXTBEGIN
1070
    73
1070
     1
1070
    44
1040
1.0
1070
    74
1070
     0
1000
MTEXTEND
  0
POINT
  5
2A31
330
2A2A
100
AcDbEntity
  8
DEFPOINTS
 62
     0
100
AcDbPoint
 10
596.6129688664332
 20
330.1036779303102
 30
0.0
  0
POINT
  5
2A32
330
2A2A
100
AcDbEntity
  8
DEFPOINTS
 62
     0
100
AcDbPoint
 10
661.6601730634029
 20
330.1036779303102
 30
0.0
  0
POINT
  5
2A33
330
2A2A
100
AcDbEntity
  8
DEFPOINTS
 62
     0
100
AcDbPoint
 10
661.6601730634029
 20
348.6423251543491
 30
0.0
  0
ENDBLK
  5
2A35
330
2A2A
100
AcDbEntity
  8
0
100
AcDbBlockEnd
  0
BLOCK
  5
2A40
330
2A36
100
AcDbEntity
  8
0
100
AcDbBlockBegin
  2
*D20
 70
     1
 10
0.0
 20
0.0
 30
0.0
  3
*D20
  1

  0
LINE
  5
2A37
330
2A36
100
AcDbEntity
  8
SUNPOU
100
AcDbLine
 10
229.9592410407603
 20
260.1043442798744
 30
0.0
 11
217.4664486117835
 21
260.1043442798744
 31
0.0
  0
LINE
  5
2A38
330
2A36
100
AcDbEntity
  8
SUNPOU
100
AcDbLine
 10
229.9592410407603
 20
330.1036779303102
 30
0.0
 11
217.4664486117835
 21
330.1036779303102
 31
0.0
  0
LINE
  5
2A39
330
2A36
100
AcDbEntity
  8
SUNPOU
100
AcDbLine
 10
218.9664486117835
 20
264.1043442798744
 30
0.0
 11
218.9664486117835
 21
326.1036779303102
 31
0.0
  0
INSERT
  5
2A3A
330
2A36
100
AcDbEntity
  8
SUNPOU
100
AcDbBlockReference
  2
_OPEN
 10
218.9664486117835
 20
260.1043442798744
 30
0.0
 41
4.0
 42
4.0
 43
4.0
 50
270.0
  0
INSERT
  5
2A3B
330
2A36
100
AcDbEntity
  8
SUNPOU
100
AcDbBlockReference
  2
_OPEN
 10
218.9664486117835
 20
330.1036779303102
 30
0.0
 41
4.0
 42
4.0
 43
4.0
 50
90.0
  0
MTEXT
  5
2A3C
330
2A36
100
AcDbEntity
  8
SUNPOU
100
AcDbMText
 10
214.9664486117834
 20
295.1040111050924
 30
0.0
 40
4.0
 41
0.0
 71
     5
 72
     5
  1
\A1;※70
 11
0.0000000000000001
 21
1.0
 31
0.0
 73
     1
 44
1.0
1001
ACAD
1000
MTEXTBEGIN
1070
    73
1070
     1
1070
    44
1040
1.0
1070
    74
1070
     0
1000
MTEXTEND
1000
MTEXTBEGIN
1070
    73
1070
     1
1070
    44
1040
1.0
1070
    74
1070
     0
1000
MTEXTEND
1000
MTEXTBEGIN
1070
    73
1070
     1
1070
    44
1040
1.0
1070
    74
1070
     0
1000
MTEXTEND
  0
POINT
  5
2A3D
330
2A36
100
AcDbEntity
  8
DEFPOINTS
 62
     0
100
AcDbPoint
 10
231.4592410407604
 20
260.1043442798744
 30
0.0
  0
POINT
  5
2A3E
330
2A36
100
AcDbEntity
  8
DEFPOINTS
 62
     0
100
AcDbPoint
 10
231.4592410407604
 20
330.1036779303102
 30
0.0
  0
POINT
  5
2A3F
330
2A36
100
AcDbEntity
  8
DEFPOINTS
 62
     0
100
AcDbPoint
 10
218.9664486117835
 20
330.1036779303102
 30
0.0
  0
ENDBLK
  5
2A41
330
2A36
100
AcDbEntity
  8
0
100
AcDbBlockEnd
  0
BLOCK
  5
2A4C
330
2A42
100
AcDbEntity
  8
0
100
AcDbBlockBegin
  2
*D21
 70
     1
 10
0.0
 20
0.0
 30
0.0
  3
*D21
  1

  0
LINE
  5
2A43
330
2A42
100
AcDbEntity
  8
SUNPOU
100
AcDbLine
 10
389.5643067898991
 20
260.1043442798744
 30
0.0
 11
368.5791370862596
 21
260.1043442798744
 31
0.0
  0
LINE
  5
2A44
330
2A42
100
AcDbEntity
  8
SUNPOU
100
AcDbLine
 10
389.5643067898991
 20
330.1036779303102
 30
0.0
 11
368.5791370862596
 21
330.1036779303103
 31
0.0
  0
LINE
  5
2A45
330
2A42
100
AcDbEntity
  8
SUNPOU
100
AcDbLine
 10
370.0791370862596
 20
264.1043442798745
 30
0.0
 11
370.0791370862596
 21
326.1036779303103
 31
0.0
  0
INSERT
  5
2A46
330
2A42
100
AcDbEntity
  8
SUNPOU
100
AcDbBlockReference
  2
_OPEN
 10
370.0791370862596
 20
260.1043442798744
 30
0.0
 41
4.0
 42
4.0
 43
4.0
 50
270.0
  0
INSERT
  5
2A47
330
2A42
100
AcDbEntity
  8
SUNPOU
100
AcDbBlockReference
  2
_OPEN
 10
370.0791370862596
 20
330.1036779303103
 30
0.0
 41
4.0
 42
4.0
 43
4.0
 50
90.0
  0
MTEXT
  5
2A48
330
2A42
100
AcDbEntity
  8
SUNPOU
100
AcDbMText
 10
366.0791370862595
 20
295.1040111050924
 30
0.0
 40
4.0
 41
0.0
 71
     5
 72
     5
  1
\A1;※70
 11
0.0000000000000001
 21
1.0
 31
0.0
 73
     1
 44
1.0
1001
ACAD
1000
MTEXTBEGIN
1070
    73
1070
     1
1070
    44
1040
1.0
1070
    74
1070
     0
1000
MTEXTEND
1000
MTEXTBEGIN
1070
    73
1070
     1
1070
    44
1040
1.0
1070
    74
1070
     0
1000
MTEXTEND
1000
MTEXTBEGIN
1070
    73
1070
     1
1070
    44
1040
1.0
1070
    74
1070
     0
1000
MTEXTEND
  0
POINT
  5
2A49
330
2A42
100
AcDbEntity
  8
DEFPOINTS
 62
     0
100
AcDbPoint
 10
391.0643067898991
 20
260.1043442798744
 30
0.0
  0
POINT
  5
2A4A
330
2A42
100
AcDbEntity
  8
DEFPOINTS
 62
     0
100
AcDbPoint
 10
391.0643067898991
 20
330.1036779303102
 30
0.0
  0
POINT
  5
2A4B
330
2A42
100
AcDbEntity
  8
DEFPOINTS
 62
     0
100
AcDbPoint
 10
370.0791370862596
 20
330.1036779303103
 30
0.0
  0
ENDBLK
  5
2A4D
330
2A42
100
AcDbEntity
  8
0
100
AcDbBlockEnd
  0
BLOCK
  5
2A58
330
2A4E
100
AcDbEntity
  8
0
100
AcDbBlockBegin
  2
*D22
 70
     1
 10
0.0
 20
0.0
 30
0.0
  3
*D22
  1

  0
LINE
  5
2A4F
330
2A4E
100
AcDbEntity
  8
SUNPOU
100
AcDbLine
 10
523.1216294185244
 20
260.1043442798744
 30
0.0
 11
544.1067991221639
 21
260.1043442798744
 31
0.0
  0
LINE
  5
2A50
330
2A4E
100
AcDbEntity
  8
SUNPOU
100
AcDbLine
 10
526.1216294185244
 20
330.1036779303102
 30
0.0
 11
544.1067991221639
 21
330.1036779303102
 31
0.0
  0
LINE
  5
2A51
330
2A4E
100
AcDbEntity
  8
SUNPOU
100
AcDbLine
 10
542.6067991221639
 20
264.1043442798745
 30
0.0
 11
542.6067991221639
 21
326.1036779303102
 31
0.0
  0
INSERT
  5
2A52
330
2A4E
100
AcDbEntity
  8
SUNPOU
100
AcDbBlockReference
  2
_OPEN
 10
542.6067991221639
 20
260.1043442798744
 30
0.0
 41
4.0
 42
4.0
 43
4.0
 50
270.0
  0
INSERT
  5
2A53
330
2A4E
100
AcDbEntity
  8
SUNPOU
100
AcDbBlockReference
  2
_OPEN
 10
542.6067991221639
 20
330.1036779303102
 30
0.0
 41
4.0
 42
4.0
 43
4.0
 50
90.0
  0
MTEXT
  5
2A54
330
2A4E
100
AcDbEntity
  8
SUNPOU
100
AcDbMText
 10
538.6067991221637
 20
295.1040111050924
 30
0.0
 40
4.0
 41
0.0
 71
     5
 72
     5
  1
\A1;※70
 11
0.0000000000000001
 21
1.0
 31
0.0
 73
     1
 44
1.0
1001
ACAD
1000
MTEXTBEGIN
1070
    73
1070
     1
1070
    44
1040
1.0
1070
    74
1070
     0
1000
MTEXTEND
1000
MTEXTBEGIN
1070
    73
1070
     1
1070
    44
1040
1.0
1070
    74
1070
     0
1000
MTEXTEND
1000
MTEXTBEGIN
1070
    73
1070
     1
1070
    44
1040
1.0
1070
    74
1070
     0
1000
MTEXTEND
  0
POINT
  5
2A55
330
2A4E
100
AcDbEntity
  8
DEFPOINTS
 62
     0
100
AcDbPoint
 10
521.6216294185244
 20
260.1043442798744
 30
0.0
  0
POINT
  5
2A56
330
2A4E
100
AcDbEntity
  8
DEFPOINTS
 62
     0
100
AcDbPoint
 10
524.6216294185244
 20
330.1036779303102
 30
0.0
  0
POINT
  5
2A57
330
2A4E
100
AcDbEntity
  8
DEFPOINTS
 62
     0
100
AcDbPoint
 10
542.6067991221639
 20
330.1036779303102
 30
0.0
  0
ENDBLK
  5
2A59
330
2A4E
100
AcDbEntity
  8
0
100
AcDbBlockEnd
  0
BLOCK
  5
2A61
330
2A5A
100
AcDbEntity
  8
0
100
AcDbBlockBegin
  2
*D23
 70
     1
 10
0.0
 20
0.0
 30
0.0
  3
*D23
  1

  0
LINE
  5
2A5B
330
2A5A
100
AcDbEntity
  8
SUNPOU
100
AcDbLine
 10
464.1783357160582
 20
416.5232797288975
 30
0.0
 11
510.997482060707
 21
449.117006767225
 31
0.0
  0
MTEXT
  5
2A5C
330
2A5A
100
AcDbEntity
  8
SUNPOU
100
AcDbMText
 10
496.4083675424914
 20
444.1112409662565
 30
0.0
 40
4.0
 41
0.0
 71
     5
 72
     5
  1
\A1;\U+220565
 11
0.8207088673968121
 21
0.5713466154413115
 31
0.0
 73
     1
 44
1.0
  0
INSERT
  5
2A5D
330
2A5A
100
AcDbEntity
  8
SUNPOU
100
AcDbBlockReference
  2
_OPEN
 10
460.895500246471
 20
414.2378932671323
 30
0.0
 41
4.0
 42
4.0
 43
4.0
 50
214.8441828236197
  0
INSERT
  5
2A5E
330
2A5A
100
AcDbEntity
  8
SUNPOU
100
AcDbBlockReference
  2
_OPEN
 10
514.2803175302942
 20
451.4023932289902
 30
0.0
 41
4.0
 42
4.0
 43
4.0
 50
34.84418282361982
  0
POINT
  5
2A5F
330
2A5A
100
AcDbEntity
  8
DEFPOINTS
 62
     0
100
AcDbPoint
 10
514.2803175302942
 20
451.4023932289902
 30
0.0
  0
POINT
  5
2A60
330
2A5A
100
AcDbEntity
  8
DEFPOINTS
 62
     0
100
AcDbPoint
 10
460.895500246471
 20
414.2378932671323
 30
0.0
  0
ENDBLK
  5
2A62
330
2A5A
100
AcDbEntity
  8
0
100
AcDbBlockEnd
  0
BLOCK
  5
2A6A
330
2A63
100
AcDbEntity
  8
0
100
AcDbBlockBegin
  2
*D24
 70
     1
 10
0.0
 20
0.0
 30
0.0
  3
*D24
  1

  0
LINE
  5
2A64
330
2A63
100
AcDbEntity
  8
SUNPOU
100
AcDbLine
 10
403.7172648170182
 20
412.3566787109454
 30
0.0
 11
443.4585529597476
 21
453.2836077851779
 31
0.0
  0
MTEXT
  5
2A65
330
2A63
100
AcDbEntity
  8
SUNPOU
100
AcDbMText
 10
431.5430677065829
 20
446.7576285811678
 30
0.0
 40
4.0
 41
0.0
 71
     5
 72
     5
  1
\A1;\U+220565
 11
0.6966386644560702
 21
0.717422170820545
 31
0.0
 73
     1
 44
1.0
  0
INSERT
  5
2A66
330
2A63
100
AcDbEntity
  8
SUNPOU
100
AcDbBlockReference
  2
_OPEN
 10
400.9307101591939
 20
409.4869900276632
 30
0.0
 41
4.0
 42
4.0
 43
4.0
 50
225.8420581576405
  0
INSERT
  5
2A67
330
2A63
100
AcDbEntity
  8
SUNPOU
100
AcDbBlockReference
  2
_OPEN
 10
446.2451076175718
 20
456.1532964684601
 30
0.0
 41
4.0
 42
4.0
 43
4.0
 50
45.84205815764054
  0
POINT
  5
2A68
330
2A63
100
AcDbEntity
  8
DEFPOINTS
 62
     0
100
AcDbPoint
 10
446.2451076175718
 20
456.1532964684601
 30
0.0
  0
POINT
  5
2A69
330
2A63
100
AcDbEntity
  8
DEFPOINTS
 62
     0
100
AcDbPoint
 10
400.9307101591939
 20
409.4869900276632
 30
0.0
  0
ENDBLK
  5
2A6B
330
2A63
100
AcDbEntity
  8
0
100
AcDbBlockEnd
  0
BLOCK
  5
2C10
330
2C08
100
AcDbEntity
  8
0
100
AcDbBlockBegin
  2
*D26
 70
     1
 10
0.0
 20
0.0
 30
0.0
  3
*D26
  1

  0
LINE
  5
2D23
330
2C08
100
AcDbEntity
  8
SUNPOU
100
AcDbLine
 10
396.7172648305748
 20
405.7566785792343
 30
0.0
 11
419.7512978438117
 21
429.4779085514628
 31
0.0
  0
LINE
  5
2D24
330
2C08
100
AcDbEntity
  8
SUNPOU
100
AcDbLine
 10
436.4585529733043
 20
446.6836076534669
 30
0.0
 11
435.0773484618454
 21
445.2611963095147
 31
0.0
  0
MTEXT
  5
2D25
330
2C08
100
AcDbEntity
  8
SUNPOU
100
AcDbMText
 10
424.5430677201396
 20
440.1576284494566
 30
0.0
 40
6.0
 41
0.0
 71
     5
 72
     1
  1
\A1;\U+220565
 11
0.6966386644560702
 21
0.717422170820545
 31
0.0
 73
     1
 44
1.0
  0
INSERT
  5
2D26
330
2C08
100
AcDbEntity
  8
SUNPOU
100
AcDbBlockReference
  2
_OPEN
 10
393.9307101727505
 20
402.8869898959522
 30
0.0
 41
4.0
 42
4.0
 43
4.0
 50
225.8420581576405
  0
INSERT
  5
2D27
330
2C08
100
AcDbEntity
  8
SUNPOU
100
AcDbBlockReference
  2
_OPEN
 10
439.2451076311285
 20
449.5532963367491
 30
0.0
 41
4.0
 42
4.0
 43
4.0
 50
45.84205815764054
  0
POINT
  5
2D28
330
2C08
100
AcDbEntity
  8
DEFPOINTS
 62
     0
100
AcDbPoint
 10
439.2451076311285
 20
449.5532963367491
 30
0.0
  0
POINT
  5
2D29
330
2C08
100
AcDbEntity
  8
DEFPOINTS
 62
     0
100
AcDbPoint
 10
393.9307101727505
 20
402.8869898959522
 30
0.0
  0
ENDBLK
  5
2C11
330
2C08
100
AcDbEntity
  8
0
100
AcDbBlockEnd
  0
BLOCK
  5
2C1C
330
2C12
100
AcDbEntity
  8
0
100
AcDbBlockBegin
  2
*D27
 70
     1
 10
0.0
 20
0.0
 30
0.0
  3
*D27
  1

  0
LINE
  5
2D1A
330
2C12
100
AcDbEntity
  8
SUNPOU
100
AcDbLine
 10
388.1592036304743
 20
173.5032208840679
 30
0.0
 11
388.1592036304743
 21
147.5824377212414
 31
0.0
  0
LINE
  5
2D1B
330
2C12
100
AcDbEntity
  8
SUNPOU
100
AcDbLine
 10
445.016614173405
 20
173.5032208840679
 30
0.0
 11
445.016614173405
 21
147.5824377212414
 31
0.0
  0
LINE
  5
2D1C
330
2C12
100
AcDbEntity
  8
SUNPOU
100
AcDbLine
 10
392.1592036304744
 20
150.5824377212414
 30
0.0
 11
441.016614173405
 21
150.5824377212414
 31
0.0
  0
INSERT
  5
2D1D
330
2C12
100
AcDbEntity
  8
SUNPOU
100
AcDbBlockReference
  2
_OPEN
 10
388.1592036304743
 20
150.5824377212414
 30
0.0
 41
4.0
 42
4.0
 43
4.0
 50
180.0
  0
INSERT
  5
2D1E
330
2C12
100
AcDbEntity
  8
SUNPOU
100
AcDbBlockReference
  2
_OPEN
 10
445.016614173405
 20
150.5824377212414
 30
0.0
 41
4.0
 42
4.0
 43
4.0
  0
MTEXT
  5
2D1F
330
2C12
100
AcDbEntity
  8
SUNPOU
100
AcDbMText
 10
416.5879089019397
 20
156.5824377212415
 30
0.0
 40
6.0
 41
0.0
 71
     5
 72
     1
  1
\A1;φ57
 73
     1
 44
1.0
  0
POINT
  5
2D20
330
2C12
100
AcDbEntity
  8
DEFPOINTS
 62
     0
100
AcDbPoint
 10
388.1592036304743
 20
176.5032208840679
 30
0.0
  0
POINT
  5
2D21
330
2C12
100
AcDbEntity
  8
DEFPOINTS
 62
     0
100
AcDbPoint
 10
445.016614173405
 20
176.5032208840679
 30
0.0
  0
POINT
  5
2D22
330
2C12
100
AcDbEntity
  8
DEFPOINTS
 62
     0
100
AcDbPoint
 10
445.016614173405
 20
150.5824377212414
 30
0.0
  0
ENDBLK
  5
2C1D
330
2C12
100
AcDbEntity
  8
0
100
AcDbBlockEnd
  0
BLOCK
  5
2C28
330
2C1E
100
AcDbEntity
  8
0
100
AcDbBlockBegin
  2
*D28
 70
     1
 10
0.0
 20
0.0
 30
0.0
  3
*D28
  1

  0
LINE
  5
2D11
330
2C1E
100
AcDbEntity
  8
SUNPOU
100
AcDbLine
 10
384.0643068034557
 20
326.5036777985991
 30
0.0
 11
384.0643068034557
 21
359.3331868447836
 31
0.0
  0
LINE
  5
2D12
330
2C1E
100
AcDbEntity
  8
SUNPOU
100
AcDbLine
 10
513.1115110004237
 20
326.5036777985991
 30
0.0
 11
513.1115110004237
 21
359.3331868447836
 31
0.0
  0
LINE
  5
2D13
330
2C1E
100
AcDbEntity
  8
SUNPOU
100
AcDbLine
 10
388.0643068034558
 20
356.3331868447836
 30
0.0
 11
509.1115110004237
 21
356.3331868447836
 31
0.0
  0
INSERT
  5
2D14
330
2C1E
100
AcDbEntity
  8
SUNPOU
100
AcDbBlockReference
  2
_OPEN
 10
384.0643068034557
 20
356.3331868447836
 30
0.0
 41
4.0
 42
4.0
 43
4.0
 50
180.0
  0
INSERT
  5
2D15
330
2C1E
100
AcDbEntity
  8
SUNPOU
100
AcDbBlockReference
  2
_OPEN
 10
513.1115110004237
 20
356.3331868447836
 30
0.0
 41
4.0
 42
4.0
 43
4.0
  0
MTEXT
  5
2D16
330
2C1E
100
AcDbEntity
  8
SUNPOU
100
AcDbMText
 10
448.2016618895151
 20
362.3331868447836
 30
0.0
 40
6.0
 41
0.0
 71
     5
 72
     1
  1
\A1;129
 73
     1
 44
1.0
  0
POINT
  5
2D17
330
2C1E
100
AcDbEntity
  8
DEFPOINTS
 62
     0
100
AcDbPoint
 10
384.0643068034557
 20
323.5036777985991
 30
0.0
  0
POINT
  5
2D18
330
2C1E
100
AcDbEntity
  8
DEFPOINTS
 62
     0
100
AcDbPoint
 10
513.1115110004237
 20
323.5036777985991
 30
0.0
  0
POINT
  5
2D19
330
2C1E
100
AcDbEntity
  8
DEFPOINTS
 62
     0
100
AcDbPoint
 10
513.1115110004237
 20
356.3331868447836
 30
0.0
  0
ENDBLK
  5
2C29
330
2C1E
100
AcDbEntity
  8
0
100
AcDbBlockEnd
  0
BLOCK
  5
2C34
330
2C2A
100
AcDbEntity
  8
0
100
AcDbBlockBegin
  2
*D29
 70
     1
 10
0.0
 20
0.0
 30
0.0
  3
*D29
  1

  0
LINE
  5
2D3C
330
2C2A
100
AcDbEntity
  8
SUNPOU
100
AcDbLine
 10
381.0643068034558
 20
253.5043441481633
 30
0.0
 11
360.0791370998162
 21
253.5043441481633
 31
0.0
  0
LINE
  5
2D3D
330
2C2A
100
AcDbEntity
  8
SUNPOU
100
AcDbLine
 10
381.0643068034558
 20
323.5036777985992
 30
0.0
 11
360.0791370998162
 21
323.5036777985992
 31
0.0
  0
LINE
  5
2D3E
330
2C2A
100
AcDbEntity
  8
SUNPOU
100
AcDbLine
 10
363.0791370998163
 20
257.5043441481633
 30
0.0
 11
363.0791370998163
 21
319.5036777985992
 31
0.0
  0
INSERT
  5
2D3F
330
2C2A
100
AcDbEntity
  8
SUNPOU
100
AcDbBlockReference
  2
_OPEN
 10
363.0791370998163
 20
253.5043441481633
 30
0.0
 41
4.0
 42
4.0
 43
4.0
 50
270.0
  0
INSERT
  5
2D40
330
2C2A
100
AcDbEntity
  8
SUNPOU
100
AcDbBlockReference
  2
_OPEN
 10
363.0791370998163
 20
323.5036777985992
 30
0.0
 41
4.0
 42
4.0
 43
4.0
 50
90.0
  0
MTEXT
  5
2D41
330
2C2A
100
AcDbEntity
  8
SUNPOU
100
AcDbMText
 10
357.0791370998162
 20
288.5040109733813
 30
0.0
 40
6.0
 41
0.0
 71
     5
 72
     1
  1
\A1;※70
 11
0.0000000000000001
 21
1.0
 31
0.0
 73
     1
 44
1.0
  0
POINT
  5
2D42
330
2C2A
100
AcDbEntity
  8
DEFPOINTS
 62
     0
100
AcDbPoint
 10
384.0643068034557
 20
253.5043441481633
 30
0.0
  0
POINT
  5
2D43
330
2C2A
100
AcDbEntity
  8
DEFPOINTS
 62
     0
100
AcDbPoint
 10
384.0643068034557
 20
323.5036777985991
 30
0.0
  0
POINT
  5
2D44
330
2C2A
100
AcDbEntity
  8
DEFPOINTS
 62
     0
100
AcDbPoint
 10
363.0791370998163
 20
323.5036777985992
 30
0.0
  0
ENDBLK
  5
2C35
330
2C2A
100
AcDbEntity
  8
0
100
AcDbBlockEnd
  0
BLOCK
  5
2C40
330
2C36
100
AcDbEntity
  8
0
100
AcDbBlockBegin
  2
*D30
 70
     1
 10
0.0
 20
0.0
 30
0.0
  3
*D30
  1

  0
LINE
  5
2D33
330
2C36
100
AcDbEntity
  8
SUNPOU
100
AcDbLine
 10
221.4592410543171
 20
253.5043441481633
 30
0.0
 11
208.9664486253402
 21
253.5043441481633
 31
0.0
  0
LINE
  5
2D34
330
2C36
100
AcDbEntity
  8
SUNPOU
100
AcDbLine
 10
221.4592410543171
 20
323.5036777985991
 30
0.0
 11
208.9664486253402
 21
323.5036777985991
 31
0.0
  0
LINE
  5
2D35
330
2C36
100
AcDbEntity
  8
SUNPOU
100
AcDbLine
 10
211.9664486253402
 20
257.5043441481633
 30
0.0
 11
211.9664486253402
 21
319.5036777985991
 31
0.0
  0
INSERT
  5
2D36
330
2C36
100
AcDbEntity
  8
SUNPOU
100
AcDbBlockReference
  2
_OPEN
 10
211.9664486253402
 20
253.5043441481633
 30
0.0
 41
4.0
 42
4.0
 43
4.0
 50
270.0
  0
INSERT
  5
2D37
330
2C36
100
AcDbEntity
  8
SUNPOU
100
AcDbBlockReference
  2
_OPEN
 10
211.9664486253402
 20
323.5036777985991
 30
0.0
 41
4.0
 42
4.0
 43
4.0
 50
90.0
  0
MTEXT
  5
2D38
330
2C36
100
AcDbEntity
  8
SUNPOU
100
AcDbMText
 10
205.9664486253402
 20
288.5040109733813
 30
0.0
 40
6.0
 41
0.0
 71
     5
 72
     1
  1
\A1;※70
 11
0.0000000000000001
 21
1.0
 31
0.0
 73
     1
 44
1.0
  0
POINT
  5
2D39
330
2C36
100
AcDbEntity
  8
DEFPOINTS
 62
     0
100
AcDbPoint
 10
224.459241054317
 20
253.5043441481633
 30
0.0
  0
POINT
  5
2D3A
330
2C36
100
AcDbEntity
  8
DEFPOINTS
 62
     0
100
AcDbPoint
 10
224.459241054317
 20
323.5036777985991
 30
0.0
  0
POINT
  5
2D3B
330
2C36
100
AcDbEntity
  8
DEFPOINTS
 62
     0
100
AcDbPoint
 10
211.9664486253402
 20
323.5036777985991
 30
0.0
  0
ENDBLK
  5
2C41
330
2C36
100
AcDbEntity
  8
0
100
AcDbBlockEnd
  0
BLOCK
  5
2C4C
330
2C42
100
AcDbEntity
  8
0
100
AcDbBlockBegin
  2
*D31
 70
     1
 10
0.0
 20
0.0
 30
0.0
  3
*D31
  1

  0
LINE
  5
2D2A
330
2C42
100
AcDbEntity
  8
SUNPOU
100
AcDbLine
 10
381.0643068034558
 20
323.5036777985992
 30
0.0
 11
346.930780587327
 21
323.5036777985992
 31
0.0
  0
LINE
  5
2D2B
330
2C42
100
AcDbEntity
  8
SUNPOU
100
AcDbLine
 10
385.511560849786
 20
173.5036777985991
 30
0.0
 11
346.930780587327
 21
173.5036777985991
 31
0.0
  0
LINE
  5
2D2C
330
2C42
100
AcDbEntity
  8
SUNPOU
100
AcDbLine
 10
349.930780587327
 20
319.5036777985992
 30
0.0
 11
349.930780587327
 21
177.5036777985991
 31
0.0
  0
INSERT
  5
2D2D
330
2C42
100
AcDbEntity
  8
SUNPOU
100
AcDbBlockReference
  2
_OPEN
 10
349.930780587327
 20
323.5036777985992
 30
0.0
 41
4.0
 42
4.0
 43
4.0
 50
90.0
  0
INSERT
  5
2D2E
330
2C42
100
AcDbEntity
  8
SUNPOU
100
AcDbBlockReference
  2
_OPEN
 10
349.930780587327
 20
173.5036777985991
 30
0.0
 41
4.0
 42
4.0
 43
4.0
 50
270.0
  0
MTEXT
  5
2D2F
330
2C42
100
AcDbEntity
  8
SUNPOU
100
AcDbMText
 10
343.9307805873269
 20
248.5036777985992
 30
0.0
 40
6.0
 41
0.0
 71
     5
 72
     1
  1
\A1;150
 11
0.0000000000000001
 21
1.0
 31
0.0
 73
     1
 44
1.0
  0
POINT
  5
2D30
330
2C42
100
AcDbEntity
  8
DEFPOINTS
 62
     0
100
AcDbPoint
 10
384.0643068034557
 20
323.5036777985991
 30
0.0
  0
POINT
  5
2D31
330
2C42
100
AcDbEntity
  8
DEFPOINTS
 62
     0
100
AcDbPoint
 10
388.511560849786
 20
173.5036777985991
 30
0.0
  0
POINT
  5
2D32
330
2C42
100
AcDbEntity
  8
DEFPOINTS
 62
     0
100
AcDbPoint
 10
349.930780587327
 20
173.5036777985991
 30
0.0
  0
ENDBLK
  5
2C4D
330
2C42
100
AcDbEntity
  8
0
100
AcDbBlockEnd
  0
BLOCK
  5
2C58
330
2C4E
100
AcDbEntity
  8
0
100
AcDbBlockBegin
  2
*D32
 70
     1
 10
0.0
 20
0.0
 30
0.0
  3
*D32
  1

  0
LINE
  5
2D70
330
2C4E
100
AcDbEntity
  8
SUNPOU
100
AcDbLine
 10
517.6216294320811
 20
253.5043441481633
 30
0.0
 11
538.6067991357204
 21
253.5043441481633
 31
0.0
  0
LINE
  5
2D71
330
2C4E
100
AcDbEntity
  8
SUNPOU
100
AcDbLine
 10
520.6216294320811
 20
323.5036777985991
 30
0.0
 11
538.6067991357206
 21
323.5036777985991
 31
0.0
  0
LINE
  5
2D72
330
2C4E
100
AcDbEntity
  8
SUNPOU
100
AcDbLine
 10
535.6067991357206
 20
257.5043441481633
 30
0.0
 11
535.6067991357206
 21
319.5036777985991
 31
0.0
  0
INSERT
  5
2D73
330
2C4E
100
AcDbEntity
  8
SUNPOU
100
AcDbBlockReference
  2
_OPEN
 10
535.6067991357205
 20
253.5043441481633
 30
0.0
 41
4.0
 42
4.0
 43
4.0
 50
270.0
  0
INSERT
  5
2D74
330
2C4E
100
AcDbEntity
  8
SUNPOU
100
AcDbBlockReference
  2
_OPEN
 10
535.6067991357206
 20
323.5036777985991
 30
0.0
 41
4.0
 42
4.0
 43
4.0
 50
90.0
  0
MTEXT
  5
2D75
330
2C4E
100
AcDbEntity
  8
SUNPOU
100
AcDbMText
 10
529.6067991357205
 20
288.5040109733813
 30
0.0
 40
6.0
 41
0.0
 71
     5
 72
     1
  1
\A1;※70
 11
0.0000000000000001
 21
1.0
 31
0.0
 73
     1
 44
1.0
  0
POINT
  5
2D76
330
2C4E
100
AcDbEntity
  8
DEFPOINTS
 62
     0
100
AcDbPoint
 10
514.6216294320811
 20
253.5043441481633
 30
0.0
  0
POINT
  5
2D77
330
2C4E
100
AcDbEntity
  8
DEFPOINTS
 62
     0
100
AcDbPoint
 10
517.6216294320811
 20
323.5036777985991
 30
0.0
  0
POINT
  5
2D78
330
2C4E
100
AcDbEntity
  8
DEFPOINTS
 62
     0
100
AcDbPoint
 10
535.6067991357206
 20
323.5036777985991
 30
0.0
  0
ENDBLK
  5
2C59
330
2C4E
100
AcDbEntity
  8
0
100
AcDbBlockEnd
  0
BLOCK
  5
2C64
330
2C5A
100
AcDbEntity
  8
0
100
AcDbBlockBegin
  2
*D33
 70
     1
 10
0.0
 20
0.0
 30
0.0
  3
*D33
  1

  0
LINE
  5
2D45
330
2C5A
100
AcDbEntity
  8
SUNPOU
100
AcDbLine
 10
515.7399694835355
 20
238.3531748583158
 30
0.0
 11
549.8527250951589
 21
238.3531748583158
 31
0.0
  0
LINE
  5
2D46
330
2C5A
100
AcDbEntity
  8
SUNPOU
100
AcDbLine
 10
516.1115110004236
 20
323.5036777985991
 30
0.0
 11
549.852725095159
 21
323.5036777985991
 31
0.0
  0
LINE
  5
2D47
330
2C5A
100
AcDbEntity
  8
SUNPOU
100
AcDbLine
 10
546.8527250951589
 20
242.3531748583158
 30
0.0
 11
546.852725095159
 21
319.5036777985991
 31
0.0
  0
INSERT
  5
2D48
330
2C5A
100
AcDbEntity
  8
SUNPOU
100
AcDbBlockReference
  2
_OPEN
 10
546.8527250951589
 20
238.3531748583158
 30
0.0
 41
4.0
 42
4.0
 43
4.0
 50
270.0
  0
INSERT
  5
2D49
330
2C5A
100
AcDbEntity
  8
SUNPOU
100
AcDbBlockReference
  2
_OPEN
 10
546.852725095159
 20
323.5036777985991
 30
0.0
 41
4.0
 42
4.0
 43
4.0
 50
90.0
  0
MTEXT
  5
2D4A
330
2C5A
100
AcDbEntity
  8
SUNPOU
100
AcDbMText
 10
540.8527250951589
 20
280.9284263284575
 30
0.0
 40
6.0
 41
0.0
 71
     5
 72
     1
  1
\A1;85
 11
0.0000000000000001
 21
1.0
 31
0.0
 73
     1
 44
1.0
  0
POINT
  5
2D4B
330
2C5A
100
AcDbEntity
  8
DEFPOINTS
 62
     0
100
AcDbPoint
 10
512.7399694835355
 20
238.3531748583158
 30
0.0
  0
POINT
  5
2D4C
330
2C5A
100
AcDbEntity
  8
DEFPOINTS
 62
     0
100
AcDbPoint
 10
513.1115110004237
 20
323.5036777985991
 30
0.0
  0
POINT
  5
2D4D
330
2C5A
100
AcDbEntity
  8
DEFPOINTS
 62
     0
100
AcDbPoint
 10
546.852725095159
 20
323.5036777985991
 30
0.0
  0
ENDBLK
  5
2C65
330
2C5A
100
AcDbEntity
  8
0
100
AcDbBlockEnd
  0
BLOCK
  5
2C70
330
2C66
100
AcDbEntity
  8
0
100
AcDbBlockBegin
  2
*D34
 70
     1
 10
0.0
 20
0.0
 30
0.0
  3
*D34
  1

  0
LINE
  5
2D57
330
2C66
100
AcDbEntity
  8
SUNPOU
100
AcDbLine
 10
654.1365709784748
 20
200.5036777985991
 30
0.0
 11
654.1365709784748
 21
151.5079989900117
 31
0.0
  0
LINE
  5
2D58
330
2C66
100
AcDbEntity
  8
SUNPOU
100
AcDbLine
 10
590.1377894404211
 20
200.2244286626522
 30
0.0
 11
590.1377894404211
 21
151.5079989900117
 31
0.0
  0
LINE
  5
2D59
330
2C66
100
AcDbEntity
  8
SUNPOU
100
AcDbLine
 10
650.1365709784748
 20
154.5079989900117
 30
0.0
 11
594.1377894404211
 21
154.5079989900117
 31
0.0
  0
INSERT
  5
2D5A
330
2C66
100
AcDbEntity
  8
SUNPOU
100
AcDbBlockReference
  2
_OPEN
 10
654.1365709784748
 20
154.5079989900117
 30
0.0
 41
4.0
 42
4.0
 43
4.0
  0
INSERT
  5
2D5B
330
2C66
100
AcDbEntity
  8
SUNPOU
100
AcDbBlockReference
  2
_OPEN
 10
590.1377894404211
 20
154.5079989900117
 30
0.0
 41
4.0
 42
4.0
 43
4.0
 50
180.0
  0
MTEXT
  5
2D5C
330
2C66
100
AcDbEntity
  8
SUNPOU
100
AcDbMText
 10
622.1371802094479
 20
160.5079989900117
 30
0.0
 40
6.0
 41
0.0
 71
     5
 72
     1
  1
\A1;64
 73
     1
 44
1.0
  0
POINT
  5
2D5D
330
2C66
100
AcDbEntity
  8
DEFPOINTS
 62
     0
100
AcDbPoint
 10
654.1365709784748
 20
203.5036777985991
 30
0.0
  0
POINT
  5
2D5E
330
2C66
100
AcDbEntity
  8
DEFPOINTS
 62
     0
100
AcDbPoint
 10
590.1377894404211
 20
203.2244286626522
 30
0.0
  0
POINT
  5
2D5F
330
2C66
100
AcDbEntity
  8
DEFPOINTS
 62
     0
100
AcDbPoint
 10
590.1377894404211
 20
154.5079989900117
 30
0.0
  0
ENDBLK
  5
2C71
330
2C66
100
AcDbEntity
  8
0
100
AcDbBlockEnd
  0
BLOCK
  5
2C7C
330
2C72
100
AcDbEntity
  8
0
100
AcDbBlockBegin
  2
*D35
 70
     1
 10
0.0
 20
0.0
 30
0.0
  3
*D35
  1

  0
LINE
  5
2D4E
330
2C72
100
AcDbEntity
  8
SUNPOU
100
AcDbLine
 10
448.4879089019385
 20
203.5036777985991
 30
0.0
 11
469.2567413685654
 21
203.5036777985991
 31
0.0
  0
LINE
  5
2D4F
330
2C72
100
AcDbEntity
  8
SUNPOU
100
AcDbLine
 10
447.6642569540934
 20
173.5036777985991
 30
0.0
 11
469.2567413685654
 21
173.5036777985991
 31
0.0
  0
LINE
  5
2D50
330
2C72
100
AcDbEntity
  8
SUNPOU
100
AcDbLine
 10
466.2567413685653
 20
199.5036777985991
 30
0.0
 11
466.2567413685653
 21
177.5036777985991
 31
0.0
  0
INSERT
  5
2D51
330
2C72
100
AcDbEntity
  8
SUNPOU
100
AcDbBlockReference
  2
_OPEN
 10
466.2567413685653
 20
203.5036777985991
 30
0.0
 41
4.0
 42
4.0
 43
4.0
 50
90.0
  0
INSERT
  5
2D52
330
2C72
100
AcDbEntity
  8
SUNPOU
100
AcDbBlockReference
  2
_OPEN
 10
466.2567413685653
 20
173.5036777985991
 30
0.0
 41
4.0
 42
4.0
 43
4.0
 50
270.0
  0
MTEXT
  5
2D53
330
2C72
100
AcDbEntity
  8
SUNPOU
100
AcDbMText
 10
460.2567413685653
 20
188.5036777985991
 30
0.0
 40
6.0
 41
0.0
 71
     5
 72
     1
  1
\A1;※30
 11
0.0000000000000001
 21
1.0
 31
0.0
 73
     1
 44
1.0
  0
POINT
  5
2D54
330
2C72
100
AcDbEntity
  8
DEFPOINTS
 62
     0
100
AcDbPoint
 10
445.4879089019384
 20
203.5036777985991
 30
0.0
  0
POINT
  5
2D55
330
2C72
100
AcDbEntity
  8
DEFPOINTS
 62
     0
100
AcDbPoint
 10
444.6642569540934
 20
173.5036777985991
 30
0.0
  0
POINT
  5
2D56
330
2C72
100
AcDbEntity
  8
DEFPOINTS
 62
     0
100
AcDbPoint
 10
466.2567413685653
 20
173.5036777985991
 30
0.0
  0
ENDBLK
  5
2C7D
330
2C72
100
AcDbEntity
  8
0
100
AcDbBlockEnd
  0
BLOCK
  5
2C88
330
2C7E
100
AcDbEntity
  8
0
100
AcDbBlockBegin
  2
*D36
 70
     1
 10
0.0
 20
0.0
 30
0.0
  3
*D36
  1

  0
LINE
  5
2D79
330
2C7E
100
AcDbEntity
  8
SUNPOU
100
AcDbLine
 10
589.6129688799899
 20
326.5036777985991
 30
0.0
 11
589.6129688799899
 21
345.042325022638
 31
0.0
  0
LINE
  5
2D7A
330
2C7E
100
AcDbEntity
  8
SUNPOU
100
AcDbLine
 10
654.6601730769595
 20
326.5036777985991
 30
0.0
 11
654.6601730769595
 21
345.042325022638
 31
0.0
  0
LINE
  5
2D7B
330
2C7E
100
AcDbEntity
  8
SUNPOU
100
AcDbLine
 10
593.6129688799899
 20
342.042325022638
 30
0.0
 11
650.6601730769595
 21
342.042325022638
 31
0.0
  0
INSERT
  5
2D7C
330
2C7E
100
AcDbEntity
  8
SUNPOU
100
AcDbBlockReference
  2
_OPEN
 10
589.6129688799899
 20
342.042325022638
 30
0.0
 41
4.0
 42
4.0
 43
4.0
 50
180.0
  0
INSERT
  5
2D7D
330
2C7E
100
AcDbEntity
  8
SUNPOU
100
AcDbBlockReference
  2
_OPEN
 10
654.6601730769595
 20
342.042325022638
 30
0.0
 41
4.0
 42
4.0
 43
4.0
  0
MTEXT
  5
2D7E
330
2C7E
100
AcDbEntity
  8
SUNPOU
100
AcDbMText
 10
622.1365709784747
 20
348.042325022638
 30
0.0
 40
6.0
 41
0.0
 71
     5
 72
     1
  1
\A1;65
 73
     1
 44
1.0
  0
POINT
  5
2D7F
330
2C7E
100
AcDbEntity
  8
DEFPOINTS
 62
     0
100
AcDbPoint
 10
589.6129688799899
 20
323.5036777985991
 30
0.0
  0
POINT
  5
2D80
330
2C7E
100
AcDbEntity
  8
DEFPOINTS
 62
     0
100
AcDbPoint
 10
654.6601730769595
 20
323.5036777985991
 30
0.0
  0
POINT
  5
2D81
330
2C7E
100
AcDbEntity
  8
DEFPOINTS
 62
     0
100
AcDbPoint
 10
654.6601730769595
 20
342.042325022638
 30
0.0
  0
ENDBLK
  5
2C89
330
2C7E
100
AcDbEntity
  8
0
100
AcDbBlockEnd
  0
BLOCK
  5
2C94
330
2C8A
100
AcDbEntity
  8
0
100
AcDbBlockBegin
  2
*D37
 70
     1
 10
0.0
 20
0.0
 30
0.0
  3
*D37
  1

  0
LINE
  5
2D67
330
2C8A
100
AcDbEntity
  8
SUNPOU
100
AcDbLine
 10
416.5879089019397
 20
336.4267985517861
 30
0.0
 11
416.5879089019397
 21
348.7028223631412
 31
0.0
  0
LINE
  5
2D68
330
2C8A
100
AcDbEntity
  8
SUNPOU
100
AcDbLine
 10
480.5879089019397
 20
336.4267985517861
 30
0.0
 11
480.5879089019397
 21
348.7028223631412
 31
0.0
  0
LINE
  5
2D69
330
2C8A
100
AcDbEntity
  8
SUNPOU
100
AcDbLine
 10
420.5879089019397
 20
345.7028223631413
 30
0.0
 11
476.5879089019397
 21
345.7028223631413
 31
0.0
  0
INSERT
  5
2D6A
330
2C8A
100
AcDbEntity
  8
SUNPOU
100
AcDbBlockReference
  2
_OPEN
 10
416.5879089019397
 20
345.7028223631413
 30
0.0
 41
4.0
 42
4.0
 43
4.0
 50
180.0
  0
INSERT
  5
2D6B
330
2C8A
100
AcDbEntity
  8
SUNPOU
100
AcDbBlockReference
  2
_OPEN
 10
480.5879089019397
 20
345.7028223631413
 30
0.0
 41
4.0
 42
4.0
 43
4.0
  0
MTEXT
  5
2D6C
330
2C8A
100
AcDbEntity
  8
SUNPOU
100
AcDbMText
 10
447.2517644725692
 20
351.7028223631413
 30
0.0
 40
6.0
 41
0.0
 71
     5
 72
     1
  1
\A1;64
 73
     1
 44
1.0
  0
POINT
  5
2D6D
330
2C8A
100
AcDbEntity
  8
DEFPOINTS
 62
     0
100
AcDbPoint
 10
416.5879089019397
 20
333.4267985517862
 30
0.0
  0
POINT
  5
2D6E
330
2C8A
100
AcDbEntity
  8
DEFPOINTS
 62
     0
100
AcDbPoint
 10
480.5879089019397
 20
333.4267985517862
 30
0.0
  0
POINT
  5
2D6F
330
2C8A
100
AcDbEntity
  8
DEFPOINTS
 62
     0
100
AcDbPoint
 10
480.5879089019397
 20
345.7028223631413
 30
0.0
  0
ENDBLK
  5
2C95
330
2C8A
100
AcDbEntity
  8
0
100
AcDbBlockEnd
  0
BLOCK
  5
2C9E
330
2C96
100
AcDbEntity
  8
0
100
AcDbBlockBegin
  2
*D38
 70
     1
 10
0.0
 20
0.0
 30
0.0
  3
*D38
  1

  0
LINE
  5
2D60
330
2C96
100
AcDbEntity
  8
SUNPOU
100
AcDbLine
 10
457.1783357296149
 20
409.9232795971865
 30
0.0
 11
482.7957463282466
 21
427.757156411901
 31
0.0
  0
LINE
  5
2D61
330
2C96
100
AcDbEntity
  8
SUNPOU
100
AcDbLine
 10
503.9974820742635
 20
442.5170066355138
 30
0.0
 11
500.8513414109765
 21
440.3267819516099
 31
0.0
  0
MTEXT
  5
2D62
330
2C96
100
AcDbEntity
  8
SUNPOU
100
AcDbMText
 10
489.4083675560483
 20
437.5112408345455
 30
0.0
 40
6.0
 41
0.0
 71
     5
 72
     1
  1
\A1;\U+220565
 11
0.8207088673968121
 21
0.5713466154413115
 31
0.0
 73
     1
 44
1.0
  0
INSERT
  5
2D63
330
2C96
100
AcDbEntity
  8
SUNPOU
100
AcDbBlockReference
  2
_OPEN
 10
453.8955002600276
 20
407.6378931354212
 30
0.0
 41
4.0
 42
4.0
 43
4.0
 50
214.8441828236197
  0
INSERT
  5
2D64
330
2C96
100
AcDbEntity
  8
SUNPOU
100
AcDbBlockReference
  2
_OPEN
 10
507.2803175438509
 20
444.802393097279
 30
0.0
 41
4.0
 42
4.0
 43
4.0
 50
34.84418282361982
  0
POINT
  5
2D65
330
2C96
100
AcDbEntity
  8
DEFPOINTS
 62
     0
100
AcDbPoint
 10
507.2803175438509
 20
444.802393097279
 30
0.0
  0
POINT
  5
2D66
330
2C96
100
AcDbEntity
  8
DEFPOINTS
 62
     0
100
AcDbPoint
 10
453.8955002600276
 20
407.6378931354212
 30
0.0
  0
ENDBLK
  5
2C9F
330
2C96
100
AcDbEntity
  8
0
100
AcDbBlockEnd
  0
ENDSEC
  0
SECTION
  2
ENTITIES
  0
LINE
  5
EE6
330
1A
100
AcDbEntity
  8
ZUWAKU
100
AcDbLine
 10
208.646601303624
 20
15.19999986828872
 30
0.0
 11
447.4243639845474
 21
15.19999986828871
 31
0.0
  0
LINE
  5
EE7
330
1A
100
AcDbEntity
  8
ZUWAKU
100
AcDbLine
 10
208.646601303624
 20
15.59999986828871
 30
0.0
 11
447.4243639845474
 21
15.59999986828872
 31
0.0
  0
LINE
  5
EE8
330
1A
100
AcDbEntity
  8
ZUWAKU
100
AcDbLine
 10
208.646601303624
 20
15.39999986828871
 30
0.0
 11
447.4243639845474
 21
15.39999986828871
 31
0.0
  0
LINE
  5
EE9
330
1A
100
AcDbEntity
  8
ZUWAKU
100
AcDbLine
 10
0.0000000135560185
 20
30.79999986828869
 30
0.0
 11
797.4000000135559
 21
30.79999986828869
 31
0.0
  0
LINE
  5
EEA
330
1A
100
AcDbEntity
  8
ZUWAKU
100
AcDbLine
 10
0.0000000135560185
 20
30.59999986828869
 30
0.0
 11
797.4000000135559
 21
30.59999986828869
 31
0.0
  0
LINE
  5
EEB
330
1A
100
AcDbEntity
  8
ZUWAKU
100
AcDbLine
 10
0.0000000135560185
 20
30.39999986828869
 30
0.0
 11
797.4000000135559
 21
30.39999986828869
 31
0.0
  0
LINE
  5
EEC
330
1A
100
AcDbEntity
  8
ZUWAKU
100
AcDbLine
 10
0.0000000135560185
 20
30.19999986828868
 30
0.0
 11
797.4000000135559
 21
30.19999986828868
 31
0.0
  0
LINE
  5
EED
330
1A
100
AcDbEntity
  8
ZUWAKU
100
AcDbLine
 10
0.0000000135560185
 20
29.99999986828868
 30
0.0
 11
797.4000000135559
 21
29.99999986828868
 31
0.0
  0
LWPOLYLINE
  5
EEE
330
1A
100
AcDbEntity
  8
ZUWAKU
100
AcDbPolyline
 90
        4
 70
     1
 43
0.0
 10
0.2000000135559503
 20
551.3999998682887
 10
0.2000000135559503
 20
0.1999998682887281
 10
797.4000000135559
 20
0.1999998682887511
 10
797.4000000135561
 20
551.3999998682887
  0
LWPOLYLINE
  5
EEF
330
1A
100
AcDbEntity
  8
ZUWAKU
100
AcDbPolyline
 90
        4
 70
     1
 43
0.0
 10
0.6000000135559276
 20
550.9999998682888
 10
0.6000000135559276
 20
0.5999998682887054
 10
797.0000000135562
 20
0.5999998682887516
 10
797.000000013556
 20
550.9999998682888
  0
LWPOLYLINE
  5
EF0
330
1A
100
AcDbEntity
  8
ZUWAKU
100
AcDbPolyline
 90
        4
 70
     1
 43
0.0
 10
0.0000000135560185
 20
551.5999998682887
 10
0.0000000135560185
 20
-0.0000001317113174
 10
797.6000000135561
 20
-0.0000001317112499
 10
797.6000000135561
 20
551.5999998682888
  0
LWPOLYLINE
  5
EF1
330
1A
100
AcDbEntity
  8
ZUWAKU
100
AcDbPolyline
 90
        4
 70
     1
 43
0.0
 10
0.4000000135559958
 20
551.1999998682887
 10
0.4000000135559958
 20
0.3999998682887735
 10
797.200000013556
 20
0.3999998682887504
 10
797.200000013556
 20
551.1999998682887
  0
LWPOLYLINE
  5
EF2
330
1A
100
AcDbEntity
  8
ZUWAKU
100
AcDbPolyline
 90
        4
 70
     1
 43
0.0
 10
0.800000013555973
 20
550.7999998682887
 10
0.800000013555973
 20
0.7999998682887508
 10
796.8000000135559
 20
0.7999998682887508
 10
796.8000000135559
 20
550.7999998682887
  0
TEXT
  5
EF3
330
1A
100
AcDbEntity
  8
moji
100
AcDbText
 10
92.95778960172516
 20
12.74117799856344
 30
0.0
 40
6.0
  1
ユニシェイプＵＲＴ６０ＢＬ
 41
0.9
  7
MSｺﾞｼｯｸ
100
AcDbText
  0
INSERT
  5
EF4
330
1A
100
AcDbEntity
  8
ZUWAKU
  6
Continuous
100
AcDbBlockReference
  2
*X11
 10
0.0
 20
0.0
 30
0.0
1001
ACAD
1000
HATCH
1002
{
1070
    19
1000
ANSI37
1040
0.2
1040
0.0
1000
R14_HATCH_DATA
1000
EF4
1011
1.0
1021
0.0
1031
0.0
1011
0.0
1021
1.0
1031
0.0
1011
0.0
1021
0.0
1031
1.0
1040
0.0
1010
0.0
1020
0.0
1030
1.0
1000
ANSI37
1070
     0
1070
     0
1071
        8
1071
        7
1070
     1
1070
     1
1071
       24
1040
14.50226267467587
1040
17.64484834927226
1040
-0.1989123673796348
1040
14.09221216833714
1040
18.63479784293331
1040
0.0
1040
14.09221216833714
1040
19.92499986828869
1040
-0.4142135623730912
1040
14.61721216833711
1040
20.44999986828868
1040
0.0
1040
17.59221216833702
1040
20.44999986828868
1040
0.4142135623731546
1040
18.11721216833712
1040
20.97499986828867
1040
0.0
1040
18.11721216833712
1040
22.72499986828869
1040
0.4142135623731586
1040
17.59221216833702
1040
23.24999986828868
1040
0.0
1040
14.09221216833714
1040
23.24999986828868
1040
0.4142135623730928
1040
11.29221216833718
1040
20.44999986828871
1040
0.0
1040
11.29221216833718
1040
18.63479784293344
1040
0.1989123673796619
1040
12.52236368735361
1040
15.66494936194983
1040
0.0
1040
15.43216166199829
1040
12.75515138730518
1040
-0.1989123673796613
1040
15.84221216833714
1040
11.76520189364399
1040
0.0
1040
15.84221216833714
1040
10.47499986828867
1040
-0.4142135623730911
1040
15.31721216833716
1040
9.949999868288685
1040
0.0
1040
12.34221216833725
1040
9.949999868288685
1040
0.4142135623731526
1040
11.81721216833716
1040
9.424999868288697
1040
0.0
1040
11.81721216833716
1040
7.674999868288676
1040
0.4142135623731526
1040
12.34221216833725
1040
7.149999868288688
1040
0.0
1040
15.84221216833714
1040
7.149999868288688
1040
0.4142135623731044
1040
18.64221216833721
1040
9.949999868288664
1040
0.0
1040
18.64221216833721
1040
11.76520189364393
1040
0.1989123673796604
1040
17.41206064932066
1040
14.73505037462747
1040
0.0
1071
        0
1071
        7
1070
     1
1070
     1
1071
       16
1040
23.54221216833718
1040
19.04999986828869
1040
-0.4142135623730935
1040
24.94221216833716
1040
20.44999986828868
1040
0.0
1040
26.86721216833712
1040
20.44999986828868
1040
0.4142135623731546
1040
27.39221216833721
1040
20.97499986828867
1040
0.0
1040
27.39221216833721
1040
22.72499986828869
1040
0.4142135623730951
1040
26.86721216833723
1040
23.24999986828868
1040
0.0
1040
24.94221216833705
1040
23.24999986828864
1040
0.4142135623730892
1040
20.74221216833711
1040
19.04999986828862
1040
0.0
1040
20.74221216833711
1040
11.34999986828871
1040
0.4142135623730969
1040
24.94221216833716
1040
7.149999868288688
1040
0.0
1040
26.86721216833712
1040
7.149999868288688
1040
0.4142135623731526
1040
27.39221216833721
1040
7.674999868288676
1040
0.0
1040
27.39221216833721
1040
9.424999868288697
1040
0.4142135623730891
1040
26.86721216833723
1040
9.949999868288685
1040
0.0
1040
24.94221216833716
1040
9.949999868288685
1040
-0.4142135623730928
1040
23.54221216833718
1040
11.34999986828867
1040
0.0
1071
        0
1071
        7
1070
     1
1070
     1
1071
        2
1040
24.24221216833712
1040
15.19999986828868
1040
1.0
1040
27.74221216833712
1040
15.19999986828868
1040
1.0
1071
        0
1071
        7
1070
     1
1070
     1
1071
       26
1040
37.31485865051513
1040
19.20504706185211
1040
0.0
1040
38.37649828365295
1040
22.5669059001217
1040
0.5069206636600134
1040
37.87586738445759
1040
23.24999986828868
1040
0.0
1040
36.17697800484836
1040
23.24999986828868
1040
0.3272098845218764
1040
35.676347105653
1040
22.88309383645565
1040
0.0
1040
33.80807723102122
1040
16.96690590012176
1040
-0.3272098845219541
1040
33.30744633182575
1040
16.59999986828868
1040
0.0
1040
33.1672121683373
1040
16.59999986828868
1040
-0.4142135623731526
1040
32.64221216833721
1040
17.12499986828867
1040
0.0
1040
32.64221216833721
1040
22.72499986828869
1040
0.4142135623730951
1040
32.11721216833723
1040
23.24999986828868
1040
0.0
1040
30.36721216833711
1040
23.24999986828868
1040
0.4142135623730871
1040
29.84221216833714
1040
22.7249998682887
1040
0.0
1040
29.84221216833714
1040
7.674999868288676
1040
0.4142135623730891
1040
30.36721216833711
1040
7.149999868288688
1040
0.0
1040
32.11721216833712
1040
7.149999868288688
1040
0.4142135623731526
1040
32.64221216833721
1040
7.674999868288676
1040
0.0
1040
32.64221216833721
1040
13.27499986828869
1040
-0.4142135623731526
1040
33.1672121683373
1040
13.79999986828868
1040
0.0
1040
33.30744633182587
1040
13.79999986828868
1040
-0.3272098845218915
1040
33.80807723102122
1040
13.43309383645561
1040
0.0
1040
35.676347105653
1040
7.516905900121759
1040
0.3272098845218902
1040
36.17697800484836
1040
7.149999868288688
1040
0.0
1040
37.87586738445759
1040
7.149999868288688
1040
0.5069206636600335
1040
38.37649828365295
1040
7.833093836455695
1040
0.0
1040
36.05010690517929
1040
15.19999986828882
1040
0.0
1071
        0
1071
        7
1070
     1
1070
     1
1071
        8
1040
43.49221216833711
1040
22.7249998682887
1040
0.4142135623731546
1040
42.96721216833702
1040
23.24999986828868
1040
0.0
1040
41.21721216833726
1040
23.24999986828868
1040
0.4142135623731507
1040
40.69221216833716
1040
22.7249998682887
1040
0.0
1040
40.69221216833716
1040
7.674999868288676
1040
0.4142135623731526
1040
41.21721216833726
1040
7.149999868288688
1040
0.0
1040
42.96721216833702
1040
7.149999868288688
1040
0.4142135623731526
1040
43.49221216833711
1040
7.674999868288676
1040
0.0
1071
        0
1071
        7
1070
     1
1070
     1
1071
       24
1040
48.3922121683372
1040
19.92499986828869
1040
-0.4142135623731546
1040
48.9172121683373
1040
20.44999986828868
1040
0.0
1040
51.89221216833721
1040
20.44999986828868
1040
0.4142135623730911
1040
52.41721216833719
1040
20.97499986828867
1040
0.0
1040
52.41721216833719
1040
22.72499986828869
1040
0.4142135623730952
1040
51.89221216833721
1040
23.24999986828868
1040
0.0
1040
48.3922121683372
1040
23.24999986828868
1040
0.4142135623731048
1040
45.59221216833714
1040
20.44999986828871
1040
0.0
1040
45.59221216833714
1040
18.63479784293344
1040
0.1989123673796613
1040
46.82236368735368
1040
15.66494936194989
1040
0.0
1040
49.73216166199836
1040
12.75515138730522
1040
-0.1989123673796402
1040
50.14221216833721
1040
11.76520189364415
1040
0.0
1040
50.14221216833721
1040
10.47499986828867
1040
-0.4142135623730911
1040
49.61721216833723
1040
9.949999868288685
1040
0.0
1040
46.64221216833721
1040
9.949999868288685
1040
0.4142135623731526
1040
46.11721216833712
1040
9.424999868288697
1040
0.0
1040
46.11721216833712
1040
7.674999868288676
1040
0.4142135623730891
1040
46.64221216833709
1040
7.149999868288688
1040
0.0
1040
50.14221216833721
1040
7.149999868288688
1040
0.4142135623730925
1040
52.94221216833716
1040
9.949999868288664
1040
0.0
1040
52.94221216833716
1040
11.76520189364393
1040
0.1989123673796675
1040
51.71206064932062
1040
14.73505037462759
1040
0.0
1040
48.80226267467605
1040
17.6448483492721
1040
-0.1989123673796652
1040
48.3922121683372
1040
18.63479784293327
1040
0.0
1071
        0
1071
        7
1070
     1
1070
     1
1071
       16
1040
57.84221216833714
1040
22.72499986828867
1040
0.414213562373103
1040
57.31721216833716
1040
23.24999986828868
1040
0.0
1040
55.56721216833716
1040
23.24999986828868
1040
0.4142135623730871
1040
55.04221216833719
1040
22.7249998682887
1040
0.0
1040
55.04221216833719
1040
9.949999868288664
1040
0.4142135623730926
1040
57.84221216833714
1040
7.149999868288688
1040
0.0
1040
61.34221216833714
1040
7.149999868288688
1040
0.4142135623731044
1040
64.14221216833721
1040
9.949999868288664
1040
0.0
1040
64.14221216833721
1040
22.72499986828869
1040
0.4142135623730951
1040
63.61721216833723
1040
23.24999986828868
1040
0.0
1040
61.86721216833712
1040
23.24999986828868
1040
0.4142135623730871
1040
61.34221216833714
1040
22.7249998682887
1040
0.0
1040
61.34221216833714
1040
10.99999986828866
1040
-0.414213562373088
1040
60.29221216833718
1040
9.949999868288685
1040
0.0
1040
58.89221216833721
1040
9.949999868288685
1040
-0.4142135623731197
1040
57.84221216833714
1040
10.99999986828866
1040
0.0
1071
        0
1071
        7
1070
     1
1070
     1
1071
        8
1040
69.04221216833718
1040
22.7249998682887
1040
0.4142135623730871
1040
68.51721216833721
1040
23.24999986828868
1040
0.0
1040
66.76721216833721
1040
23.24999986828868
1040
0.4142135623731507
1040
66.24221216833712
1040
22.7249998682887
1040
0.0
1040
66.24221216833712
1040
7.674999868288676
1040
0.4142135623730891
1040
66.76721216833709
1040
7.149999868288688
1040
0.0
1040
68.51721216833721
1040
7.149999868288688
1040
0.4142135623730891
1040
69.04221216833718
1040
7.674999868288676
1040
0.0
1071
        0
1070
     0
1070
     1
1040
0.0
1040
0.2
1070
     0
1070
     2
1040
0.7853981633974483
1040
-900.942304321123
1040
-13.20000013171124
1040
-0.4490128060534576
1040
0.4490128060534577
1070
     0
1040
2.356194490192344
1040
-900.942304321123
1040
-13.20000013171124
1040
-0.4490128060534577
1040
-0.4490128060534576
1070
     0
1040
0.057451373970553
1071
        8
1040
16.07985497657932
1040
15.16717351417423
1040
0.0
1040
22.40451501999519
1040
18.84406205073969
1040
0.0
1040
25.16436789921567
1040
15.5118815143594
1040
0.0
1040
30.91405999519315
1040
16.20129751473018
1040
0.0
1040
41.83847203251275
1040
16.6609097822718
1040
0.0
1040
46.89820090868557
1040
19.41857618469589
1040
0.0
1040
56.55768598595637
1040
18.72915778338369
1040
0.0
1040
67.82707963317875
1040
19.18877005092531
1040
0.0
1002
}
  0
LINE
  5
EF5
330
1A
100
AcDbEntity
  8
ZUWAKU
100
AcDbLine
 10
24.94221216833716
 20
23.24999986828864
 30
0.0
 11
26.86721216833712
 21
23.24999986828868
 31
0.0
  0
LINE
  5
EF6
330
1A
100
AcDbEntity
  8
ZUWAKU
100
AcDbLine
 10
26.86721216833712
 20
20.44999986828868
 30
0.0
 11
24.94221216833716
 21
20.44999986828868
 31
0.0
  0
LINE
  5
EF7
330
1A
100
AcDbEntity
  8
ZUWAKU
100
AcDbLine
 10
24.94221216833716
 20
9.949999868288685
 30
0.0
 11
26.86721216833712
 21
9.949999868288685
 31
0.0
  0
LINE
  5
EF8
330
1A
100
AcDbEntity
  8
ZUWAKU
100
AcDbLine
 10
26.86721216833712
 20
7.149999868288688
 30
0.0
 11
24.94221216833716
 21
7.149999868288688
 31
0.0
  0
CIRCLE
  5
EF9
330
1A
100
AcDbEntity
  8
ZUWAKU
100
AcDbCircle
 10
25.99221216833711
 20
15.19999986828868
 30
0.0
 40
1.75
  0
ARC
  5
EFA
330
1A
100
AcDbEntity
  8
ZUWAKU
100
AcDbCircle
 10
15.49221216833712
 20
18.63479784293338
 30
0.0
 40
1.399999999999999
100
AcDbArc
 50
180.0000000000016
 51
224.9999999999988
  0
LINE
  5
EFB
330
1A
100
AcDbEntity
  8
ZUWAKU
100
AcDbLine
 10
23.54221216833718
 20
19.04999986828868
 30
0.0
 11
23.54221216833718
 21
11.34999986828869
 31
0.0
  0
LINE
  5
EFC
330
1A
100
AcDbEntity
  8
ZUWAKU
100
AcDbLine
 10
20.74221216833711
 20
11.34999986828869
 30
0.0
 11
20.74221216833711
 21
19.04999986828864
 31
0.0
  0
ARC
  5
EFD
330
1A
100
AcDbEntity
  8
ZUWAKU
100
AcDbCircle
 10
15.49221216833712
 20
18.63479784293338
 30
0.0
 40
4.199999999999999
100
AcDbArc
 50
180.0
 51
225.0
  0
ARC
  5
EFE
330
1A
100
AcDbEntity
  8
ZUWAKU
100
AcDbCircle
 10
15.84221216833714
 20
9.949999868288685
 30
0.0
 40
2.799999999999999
100
AcDbArc
 50
270.0
 51
0.0
  0
ARC
  5
EFF
330
1A
100
AcDbEntity
  8
ZUWAKU
100
AcDbCircle
 10
24.94221216833716
 20
11.34999986828869
 30
0.0
 40
4.199999999999999
100
AcDbArc
 50
180.0
 51
270.0
  0
ARC
  5
F00
330
1A
100
AcDbEntity
  8
ZUWAKU
100
AcDbCircle
 10
14.44221216833716
 20
11.76520189364399
 30
0.0
 40
4.199999999999999
100
AcDbArc
 50
0.0
 51
45.0
  0
LINE
  5
F01
330
1A
100
AcDbEntity
  8
ZUWAKU
100
AcDbLine
 10
17.41206064932066
 20
14.73505037462751
 30
0.0
 11
14.50226267467598
 21
17.64484834927218
 31
0.0
  0
LINE
  5
F02
330
1A
100
AcDbEntity
  8
ZUWAKU
100
AcDbLine
 10
15.84221216833714
 20
10.47499986828869
 30
0.0
 11
15.84221216833714
 21
11.76520189364403
 31
0.0
  0
ARC
  5
F03
330
1A
100
AcDbEntity
  8
ZUWAKU
100
AcDbCircle
 10
15.31721216833716
 20
10.47499986828869
 30
0.0
 40
0.525
100
AcDbArc
 50
270.0
 51
0.0
  0
ARC
  5
F04
330
1A
100
AcDbEntity
  8
ZUWAKU
100
AcDbCircle
 10
14.44221216833716
 20
11.76520189364403
 30
0.0
 40
1.399999999999999
100
AcDbArc
 50
0.0
 51
45.0
  0
LINE
  5
F05
330
1A
100
AcDbEntity
  8
ZUWAKU
100
AcDbLine
 10
11.81721216833716
 20
7.674999868288686
 30
0.0
 11
11.81721216833716
 21
9.424999868288686
 31
0.0
  0
ARC
  5
F06
330
1A
100
AcDbEntity
  8
ZUWAKU
100
AcDbCircle
 10
12.34221216833714
 20
7.674999868288686
 30
0.0
 40
0.525
100
AcDbArc
 50
180.0
 51
270.0
  0
ARC
  5
F07
330
1A
100
AcDbEntity
  8
ZUWAKU
100
AcDbCircle
 10
12.34221216833714
 20
9.424999868288686
 30
0.0
 40
0.525
100
AcDbArc
 50
90.0
 51
180.0
  0
LINE
  5
F08
330
1A
100
AcDbEntity
  8
ZUWAKU
100
AcDbLine
 10
12.34221216833714
 20
7.149999868288688
 30
0.0
 11
15.84221216833714
 21
7.149999868288688
 31
0.0
  0
LINE
  5
F09
330
1A
100
AcDbEntity
  8
ZUWAKU
100
AcDbLine
 10
12.34221216833714
 20
9.949999868288685
 30
0.0
 11
15.31721216833716
 21
9.949999868288685
 31
0.0
  0
LINE
  5
F0A
330
1A
100
AcDbEntity
  8
ZUWAKU
100
AcDbLine
 10
12.52236368735361
 20
15.66494936194986
 30
0.0
 11
15.43216166199829
 21
12.7551513873052
 31
0.0
  0
LINE
  5
F0B
330
1A
100
AcDbEntity
  8
ZUWAKU
100
AcDbLine
 10
18.64221216833721
 20
9.949999868288685
 30
0.0
 11
18.64221216833721
 21
11.76520189364403
 31
0.0
  0
ARC
  5
F0C
330
1A
100
AcDbEntity
  8
ZUWAKU
100
AcDbCircle
 10
24.94221216833716
 20
11.34999986828869
 30
0.0
 40
1.399999999999999
100
AcDbArc
 50
180.0
 51
270.0
  0
ARC
  5
F0D
330
1A
100
AcDbEntity
  8
ZUWAKU
100
AcDbCircle
 10
17.59221216833714
 20
22.72499986828868
 30
0.0
 40
0.525
100
AcDbArc
 50
0.0
 51
90.0
  0
ARC
  5
F0E
330
1A
100
AcDbEntity
  8
ZUWAKU
100
AcDbCircle
 10
17.59221216833714
 20
20.97499986828868
 30
0.0
 40
0.525
100
AcDbArc
 50
270.0
 51
0.0
  0
LINE
  5
F0F
330
1A
100
AcDbEntity
  8
ZUWAKU
100
AcDbLine
 10
14.09221216833714
 20
23.24999986828868
 30
0.0
 11
17.59221216833714
 21
23.24999986828868
 31
0.0
  0
ARC
  5
F10
330
1A
100
AcDbEntity
  8
ZUWAKU
100
AcDbCircle
 10
14.61721216833711
 20
19.92499986828868
 30
0.0
 40
0.525
100
AcDbArc
 50
90.0
 51
180.0
  0
LINE
  5
F11
330
1A
100
AcDbEntity
  8
ZUWAKU
100
AcDbLine
 10
14.09221216833714
 20
19.92499986828868
 30
0.0
 11
14.09221216833714
 21
18.63479784293334
 31
0.0
  0
LINE
  5
F12
330
1A
100
AcDbEntity
  8
ZUWAKU
100
AcDbLine
 10
17.59221216833714
 20
20.44999986828868
 30
0.0
 11
14.61721216833711
 21
20.44999986828868
 31
0.0
  0
LINE
  5
F13
330
1A
100
AcDbEntity
  8
ZUWAKU
100
AcDbLine
 10
11.29221216833718
 20
20.44999986828868
 30
0.0
 11
11.29221216833718
 21
18.63479784293334
 31
0.0
  0
ARC
  5
F14
330
1A
100
AcDbEntity
  8
ZUWAKU
100
AcDbCircle
 10
14.09221216833714
 20
20.44999986828868
 30
0.0
 40
2.799999999999999
100
AcDbArc
 50
90.0
 51
180.0
  0
LINE
  5
F15
330
1A
100
AcDbEntity
  8
ZUWAKU
100
AcDbLine
 10
18.11721216833712
 20
22.72499986828868
 30
0.0
 11
18.11721216833712
 21
20.97499986828868
 31
0.0
  0
ARC
  5
F16
330
1A
100
AcDbEntity
  8
ZUWAKU
100
AcDbCircle
 10
24.94221216833716
 20
19.04999986828868
 30
0.0
 40
1.399999999999999
100
AcDbArc
 50
90.0
 51
180.0
  0
ARC
  5
F17
330
1A
100
AcDbEntity
  8
ZUWAKU
100
AcDbCircle
 10
24.94221216833716
 20
19.04999986828864
 30
0.0
 40
4.199999999999999
100
AcDbArc
 50
90.0
 51
180.0
  0
LINE
  5
F18
330
1A
100
AcDbEntity
  8
ZUWAKU
100
AcDbLine
 10
79.32662956154422
 20
29.99999986828868
 30
0.0
 11
79.32662956154445
 21
0.7999998682887508
 31
0.0
  0
LINE
  5
F19
330
1A
100
AcDbEntity
  8
ZUWAKU
100
AcDbLine
 10
79.52662956154426
 20
29.99999986828868
 30
0.0
 11
79.52662956154449
 21
0.7999998682887508
 31
0.0
  0
LINE
  5
F1A
330
1A
100
AcDbEntity
  8
ZUWAKU
100
AcDbLine
 10
79.12662956154441
 20
29.99999986828868
 30
0.0
 11
79.12662956154441
 21
0.7999998682887508
 31
0.0
  0
LINE
  5
F1B
330
1A
100
AcDbEntity
  8
ZUWAKU
100
AcDbLine
 10
64.14221216833721
 20
9.949999868288685
 30
0.0
 11
64.14221216833721
 21
22.72499986828868
 31
0.0
  0
LINE
  5
F1C
330
1A
100
AcDbEntity
  8
ZUWAKU
100
AcDbLine
 10
61.34221216833714
 20
22.72499986828868
 30
0.0
 11
61.34221216833714
 21
10.99999986828868
 31
0.0
  0
LINE
  5
F1D
330
1A
100
AcDbEntity
  8
ZUWAKU
100
AcDbLine
 10
69.04221216833718
 20
7.674999868288686
 30
0.0
 11
69.04221216833718
 21
22.72499986828868
 31
0.0
  0
LINE
  5
F1E
330
1A
100
AcDbEntity
  8
ZUWAKU
100
AcDbLine
 10
66.24221216833712
 20
22.72499986828868
 30
0.0
 11
66.24221216833712
 21
7.674999868288686
 31
0.0
  0
ARC
  5
F1F
330
1A
100
AcDbEntity
  8
ZUWAKU
100
AcDbCircle
 10
49.79221216833718
 20
18.63479784293338
 30
0.0
 40
1.399999999999999
100
AcDbArc
 50
180.0000000000016
 51
224.9999999999988
  0
ARC
  5
F20
330
1A
100
AcDbEntity
  8
ZUWAKU
100
AcDbCircle
 10
49.79221216833718
 20
18.63479784293338
 30
0.0
 40
4.199999999999999
100
AcDbArc
 50
180.0
 51
225.0
  0
LINE
  5
F21
330
1A
100
AcDbEntity
  8
ZUWAKU
100
AcDbLine
 10
37.31485865051513
 20
19.20504706185211
 30
0.0
 11
36.05010690517929
 21
15.1999998682887
 31
0.0
  0
LINE
  5
F22
330
1A
100
AcDbEntity
  8
ZUWAKU
100
AcDbLine
 10
40.69221216833716
 20
22.72499986828868
 30
0.0
 11
40.69221216833716
 21
7.674999868288686
 31
0.0
  0
LINE
  5
F23
330
1A
100
AcDbEntity
  8
ZUWAKU
100
AcDbLine
 10
43.49221216833711
 20
7.674999868288686
 30
0.0
 11
43.49221216833711
 21
22.72499986828868
 31
0.0
  0
LINE
  5
F24
330
1A
100
AcDbEntity
  8
ZUWAKU
100
AcDbLine
 10
55.04221216833719
 20
22.72499986828868
 30
0.0
 11
55.04221216833719
 21
9.949999868288685
 31
0.0
  0
LINE
  5
F25
330
1A
100
AcDbEntity
  8
ZUWAKU
100
AcDbLine
 10
57.84221216833714
 20
10.99999986828868
 30
0.0
 11
57.84221216833714
 21
22.72499986828868
 31
0.0
  0
LINE
  5
F26
330
1A
100
AcDbEntity
  8
ZUWAKU
100
AcDbLine
 10
32.64221216833721
 20
17.12499986828869
 30
0.0
 11
32.64221216833721
 21
22.72499986828868
 31
0.0
  0
LINE
  5
F27
330
1A
100
AcDbEntity
  8
ZUWAKU
100
AcDbLine
 10
29.84221216833714
 20
22.72499986828868
 30
0.0
 11
29.84221216833714
 21
7.674999868288686
 31
0.0
  0
LINE
  5
F28
330
1A
100
AcDbEntity
  8
ZUWAKU
100
AcDbLine
 10
35.676347105653
 20
22.88309383645565
 30
0.0
 11
33.80807723102122
 21
16.96690590012171
 31
0.0
  0
LINE
  5
F29
330
1A
100
AcDbEntity
  8
ZUWAKU
100
AcDbLine
 10
60.29221216833718
 20
9.949999868288685
 30
0.0
 11
58.89221216833721
 21
9.949999868288685
 31
0.0
  0
LINE
  5
F2A
330
1A
100
AcDbEntity
  8
ZUWAKU
100
AcDbLine
 10
57.84221216833714
 20
7.149999868288688
 30
0.0
 11
61.34221216833714
 21
7.149999868288688
 31
0.0
  0
LINE
  5
F2B
330
1A
100
AcDbEntity
  8
ZUWAKU
100
AcDbLine
 10
41.21721216833714
 20
7.149999868288688
 30
0.0
 11
42.96721216833714
 21
7.149999868288688
 31
0.0
  0
LINE
  5
F2C
330
1A
100
AcDbEntity
  8
ZUWAKU
100
AcDbLine
 10
35.676347105653
 20
7.516905900121713
 30
0.0
 11
33.80807723102122
 21
13.43309383645565
 31
0.0
  0
ARC
  5
F2D
330
1A
100
AcDbEntity
  8
ZUWAKU
100
AcDbCircle
 10
33.30744633182587
 20
17.12499986828869
 30
0.0
 40
0.525
100
AcDbArc
 50
270.0
 51
342.4744316262769
  0
LINE
  5
F2E
330
1A
100
AcDbEntity
  8
ZUWAKU
100
AcDbLine
 10
33.30744633182587
 20
16.59999986828868
 30
0.0
 11
33.16721216833718
 21
16.59999986828868
 31
0.0
  0
LINE
  5
F2F
330
1A
100
AcDbEntity
  8
ZUWAKU
100
AcDbLine
 10
33.16721216833718
 20
13.79999986828868
 30
0.0
 11
33.30744633182587
 21
13.79999986828868
 31
0.0
  0
ARC
  5
F30
330
1A
100
AcDbEntity
  8
ZUWAKU
100
AcDbCircle
 10
33.16721216833718
 20
17.12499986828869
 30
0.0
 40
0.525
100
AcDbArc
 50
180.0
 51
270.0
  0
LINE
  5
F31
330
1A
100
AcDbEntity
  8
ZUWAKU
100
AcDbLine
 10
30.36721216833711
 20
7.149999868288688
 30
0.0
 11
32.11721216833712
 21
7.149999868288688
 31
0.0
  0
ARC
  5
F32
330
1A
100
AcDbEntity
  8
ZUWAKU
100
AcDbCircle
 10
32.11721216833712
 20
7.674999868288686
 30
0.0
 40
0.525
100
AcDbArc
 50
270.0
 51
0.0
  0
LINE
  5
F33
330
1A
100
AcDbEntity
  8
ZUWAKU
100
AcDbLine
 10
32.64221216833721
 20
7.674999868288686
 30
0.0
 11
32.64221216833721
 21
13.27499986828868
 31
0.0
  0
LINE
  5
F34
330
1A
100
AcDbEntity
  8
ZUWAKU
100
AcDbLine
 10
27.39221216833721
 20
9.424999868288686
 30
0.0
 11
27.39221216833721
 21
7.674999868288686
 31
0.0
  0
ARC
  5
F35
330
1A
100
AcDbEntity
  8
ZUWAKU
100
AcDbCircle
 10
26.86721216833712
 20
7.674999868288686
 30
0.0
 40
0.525
100
AcDbArc
 50
270.0
 51
0.0
  0
ARC
  5
F36
330
1A
100
AcDbEntity
  8
ZUWAKU
100
AcDbCircle
 10
26.86721216833712
 20
9.424999868288686
 30
0.0
 40
0.525
100
AcDbArc
 50
0.0
 51
90.0
  0
ARC
  5
F37
330
1A
100
AcDbEntity
  8
ZUWAKU
100
AcDbCircle
 10
30.36721216833711
 20
7.674999868288686
 30
0.0
 40
0.525
100
AcDbArc
 50
180.0
 51
270.0
  0
ARC
  5
F38
330
1A
100
AcDbEntity
  8
ZUWAKU
100
AcDbCircle
 10
33.30744633182587
 20
13.27499986828868
 30
0.0
 40
0.525
100
AcDbArc
 50
17.52556837372303
 51
90.0
  0
ARC
  5
F39
330
1A
100
AcDbEntity
  8
ZUWAKU
100
AcDbCircle
 10
33.16721216833718
 20
13.27499986828868
 30
0.0
 40
0.525
100
AcDbArc
 50
90.0
 51
180.0
  0
ARC
  5
F3A
330
1A
100
AcDbEntity
  8
ZUWAKU
100
AcDbCircle
 10
41.21721216833714
 20
7.674999868288686
 30
0.0
 40
0.525
100
AcDbArc
 50
180.0
 51
270.0
  0
LINE
  5
F3B
330
1A
100
AcDbEntity
  8
ZUWAKU
100
AcDbLine
 10
36.17697800484847
 20
7.149999868288688
 30
0.0
 11
37.87586738445748
 21
7.149999868288688
 31
0.0
  0
ARC
  5
F3C
330
1A
100
AcDbEntity
  8
ZUWAKU
100
AcDbCircle
 10
37.87586738445748
 20
7.674999868288686
 30
0.0
 40
0.525
100
AcDbArc
 50
270.0
 51
17.52556837372303
  0
LINE
  5
F3D
330
1A
100
AcDbEntity
  8
ZUWAKU
100
AcDbLine
 10
38.37649828365295
 20
7.83309383645566
 30
0.0
 11
36.05010690517929
 21
15.1999998682887
 31
0.0
  0
ARC
  5
F3E
330
1A
100
AcDbEntity
  8
ZUWAKU
100
AcDbCircle
 10
36.17697800484847
 20
7.674999868288686
 30
0.0
 40
0.525
100
AcDbArc
 50
197.525568373723
 51
270.0
  0
ARC
  5
F3F
330
1A
100
AcDbEntity
  8
ZUWAKU
100
AcDbCircle
 10
57.84221216833714
 20
9.949999868288685
 30
0.0
 40
2.799999999999999
100
AcDbArc
 50
180.0
 51
270.0
  0
ARC
  5
F40
330
1A
100
AcDbEntity
  8
ZUWAKU
100
AcDbCircle
 10
50.14221216833721
 20
9.949999868288685
 30
0.0
 40
2.799999999999999
100
AcDbArc
 50
270.0
 51
0.0
  0
LINE
  5
F41
330
1A
100
AcDbEntity
  8
ZUWAKU
100
AcDbLine
 10
51.71206064932073
 20
14.73505037462751
 30
0.0
 11
48.80226267467595
 21
17.64484834927218
 31
0.0
  0
LINE
  5
F42
330
1A
100
AcDbEntity
  8
ZUWAKU
100
AcDbLine
 10
50.14221216833721
 20
10.47499986828869
 30
0.0
 11
50.14221216833721
 21
11.76520189364403
 31
0.0
  0
ARC
  5
F43
330
1A
100
AcDbEntity
  8
ZUWAKU
100
AcDbCircle
 10
48.74221216833712
 20
11.76520189364403
 30
0.0
 40
1.399999999999999
100
AcDbArc
 50
0.0
 51
45.0
  0
ARC
  5
F44
330
1A
100
AcDbEntity
  8
ZUWAKU
100
AcDbCircle
 10
49.61721216833712
 20
10.47499986828869
 30
0.0
 40
0.525
100
AcDbArc
 50
270.0
 51
0.0
  0
LINE
  5
F45
330
1A
100
AcDbEntity
  8
ZUWAKU
100
AcDbLine
 10
46.11721216833712
 20
7.674999868288686
 30
0.0
 11
46.11721216833712
 21
9.424999868288686
 31
0.0
  0
ARC
  5
F46
330
1A
100
AcDbEntity
  8
ZUWAKU
100
AcDbCircle
 10
46.64221216833721
 20
7.674999868288686
 30
0.0
 40
0.525
100
AcDbArc
 50
180.0
 51
270.0
  0
ARC
  5
F47
330
1A
100
AcDbEntity
  8
ZUWAKU
100
AcDbCircle
 10
42.96721216833714
 20
7.674999868288686
 30
0.0
 40
0.525
100
AcDbArc
 50
270.0
 51
0.0
  0
ARC
  5
F48
330
1A
100
AcDbEntity
  8
ZUWAKU
100
AcDbCircle
 10
46.64221216833721
 20
9.424999868288686
 30
0.0
 40
0.525
100
AcDbArc
 50
90.0
 51
180.0
  0
LINE
  5
F49
330
1A
100
AcDbEntity
  8
ZUWAKU
100
AcDbLine
 10
46.64221216833721
 20
9.949999868288685
 30
0.0
 11
49.61721216833712
 21
9.949999868288685
 31
0.0
  0
LINE
  5
F4A
330
1A
100
AcDbEntity
  8
ZUWAKU
100
AcDbLine
 10
46.64221216833721
 20
7.149999868288688
 30
0.0
 11
50.14221216833721
 21
7.149999868288688
 31
0.0
  0
LINE
  5
F4B
330
1A
100
AcDbEntity
  8
ZUWAKU
100
AcDbLine
 10
46.82236368735368
 20
15.66494936194986
 30
0.0
 11
49.73216166199836
 21
12.7551513873052
 31
0.0
  0
LINE
  5
F4C
330
1A
100
AcDbEntity
  8
ZUWAKU
100
AcDbLine
 10
52.94221216833716
 20
9.949999868288685
 30
0.0
 11
52.94221216833716
 21
11.76520189364403
 31
0.0
  0
ARC
  5
F4D
330
1A
100
AcDbEntity
  8
ZUWAKU
100
AcDbCircle
 10
48.74221216833712
 20
11.76520189364399
 30
0.0
 40
4.199999999999999
100
AcDbArc
 50
0.0
 51
45.0
  0
ARC
  5
F4E
330
1A
100
AcDbEntity
  8
ZUWAKU
100
AcDbCircle
 10
58.89221216833721
 20
10.99999986828868
 30
0.0
 40
1.049999999999999
100
AcDbArc
 50
180.0
 51
270.0
  0
ARC
  5
F4F
330
1A
100
AcDbEntity
  8
ZUWAKU
100
AcDbCircle
 10
61.34221216833714
 20
9.949999868288685
 30
0.0
 40
2.799999999999999
100
AcDbArc
 50
270.0
 51
0.0
  0
LINE
  5
F50
330
1A
100
AcDbEntity
  8
ZUWAKU
100
AcDbLine
 10
66.76721216833721
 20
7.149999868288688
 30
0.0
 11
68.51721216833721
 21
7.149999868288688
 31
0.0
  0
ARC
  5
F51
330
1A
100
AcDbEntity
  8
ZUWAKU
100
AcDbCircle
 10
66.76721216833721
 20
7.674999868288686
 30
0.0
 40
0.525
100
AcDbArc
 50
180.0
 51
270.0
  0
ARC
  5
F52
330
1A
100
AcDbEntity
  8
ZUWAKU
100
AcDbCircle
 10
60.29221216833718
 20
10.99999986828868
 30
0.0
 40
1.049999999999999
100
AcDbArc
 50
270.0
 51
0.0
  0
ARC
  5
F53
330
1A
100
AcDbEntity
  8
ZUWAKU
100
AcDbCircle
 10
68.51721216833721
 20
7.674999868288686
 30
0.0
 40
0.525
100
AcDbArc
 50
270.0
 51
0.0
  0
LINE
  5
F54
330
1A
100
AcDbEntity
  8
ZUWAKU
100
AcDbLine
 10
42.96721216833714
 20
23.24999986828868
 30
0.0
 11
41.21721216833714
 21
23.24999986828868
 31
0.0
  0
ARC
  5
F55
330
1A
100
AcDbEntity
  8
ZUWAKU
100
AcDbCircle
 10
32.11721216833712
 20
22.72499986828868
 30
0.0
 40
0.525
100
AcDbArc
 50
0.0
 51
90.0
  0
LINE
  5
F56
330
1A
100
AcDbEntity
  8
ZUWAKU
100
AcDbLine
 10
32.11721216833712
 20
23.24999986828868
 30
0.0
 11
30.36721216833711
 21
23.24999986828868
 31
0.0
  0
ARC
  5
F57
330
1A
100
AcDbEntity
  8
ZUWAKU
100
AcDbCircle
 10
26.86721216833712
 20
22.72499986828868
 30
0.0
 40
0.525
100
AcDbArc
 50
0.0
 51
90.0
  0
ARC
  5
F58
330
1A
100
AcDbEntity
  8
ZUWAKU
100
AcDbCircle
 10
30.36721216833711
 20
22.72499986828868
 30
0.0
 40
0.525
100
AcDbArc
 50
90.0
 51
180.0
  0
ARC
  5
F59
330
1A
100
AcDbEntity
  8
ZUWAKU
100
AcDbCircle
 10
26.86721216833712
 20
20.97499986828868
 30
0.0
 40
0.525
100
AcDbArc
 50
270.0
 51
0.0
  0
LINE
  5
F5A
330
1A
100
AcDbEntity
  8
ZUWAKU
100
AcDbLine
 10
27.39221216833721
 20
22.72499986828868
 30
0.0
 11
27.39221216833721
 21
20.97499986828868
 31
0.0
  0
ARC
  5
F5B
330
1A
100
AcDbEntity
  8
ZUWAKU
100
AcDbCircle
 10
41.21721216833714
 20
22.72499986828868
 30
0.0
 40
0.525
100
AcDbArc
 50
90.0
 51
180.0
  0
LINE
  5
F5C
330
1A
100
AcDbEntity
  8
ZUWAKU
100
AcDbLine
 10
36.17697800484847
 20
23.24999986828868
 30
0.0
 11
37.87586738445748
 21
23.24999986828868
 31
0.0
  0
ARC
  5
F5D
330
1A
100
AcDbEntity
  8
ZUWAKU
100
AcDbCircle
 10
37.87586738445748
 20
22.72499986828868
 30
0.0
 40
0.525
100
AcDbArc
 50
342.4744316262769
 51
90.0
  0
LINE
  5
F5E
330
1A
100
AcDbEntity
  8
ZUWAKU
100
AcDbLine
 10
38.37649828365295
 20
22.56690590012171
 30
0.0
 11
37.31485865051513
 21
19.20504706185211
 31
0.0
  0
ARC
  5
F5F
330
1A
100
AcDbEntity
  8
ZUWAKU
100
AcDbCircle
 10
36.17697800484847
 20
22.72499986828868
 30
0.0
 40
0.525
100
AcDbArc
 50
90.0
 51
162.4744316262769
  0
LINE
  5
F60
330
1A
100
AcDbEntity
  8
ZUWAKU
100
AcDbLine
 10
48.3922121683372
 20
23.24999986828868
 30
0.0
 11
51.89221216833721
 21
23.24999986828868
 31
0.0
  0
LINE
  5
F61
330
1A
100
AcDbEntity
  8
ZUWAKU
100
AcDbLine
 10
51.89221216833721
 20
20.44999986828868
 30
0.0
 11
48.91721216833719
 21
20.44999986828868
 31
0.0
  0
ARC
  5
F62
330
1A
100
AcDbEntity
  8
ZUWAKU
100
AcDbCircle
 10
48.91721216833719
 20
19.92499986828868
 30
0.0
 40
0.525
100
AcDbArc
 50
90.0
 51
180.0
  0
LINE
  5
F63
330
1A
100
AcDbEntity
  8
ZUWAKU
100
AcDbLine
 10
48.3922121683372
 20
19.92499986828868
 30
0.0
 11
48.3922121683372
 21
18.63479784293334
 31
0.0
  0
ARC
  5
F64
330
1A
100
AcDbEntity
  8
ZUWAKU
100
AcDbCircle
 10
42.96721216833714
 20
22.72499986828868
 30
0.0
 40
0.525
100
AcDbArc
 50
0.0
 51
90.0
  0
LINE
  5
F65
330
1A
100
AcDbEntity
  8
ZUWAKU
100
AcDbLine
 10
45.59221216833714
 20
20.44999986828868
 30
0.0
 11
45.59221216833714
 21
18.63479784293334
 31
0.0
  0
ARC
  5
F66
330
1A
100
AcDbEntity
  8
ZUWAKU
100
AcDbCircle
 10
48.3922121683372
 20
20.44999986828868
 30
0.0
 40
2.799999999999999
100
AcDbArc
 50
90.0
 51
180.0
  0
ARC
  5
F67
330
1A
100
AcDbEntity
  8
ZUWAKU
100
AcDbCircle
 10
57.31721216833716
 20
22.72499986828868
 30
0.0
 40
0.525
100
AcDbArc
 50
0.0
 51
90.0
  0
ARC
  5
F68
330
1A
100
AcDbEntity
  8
ZUWAKU
100
AcDbCircle
 10
55.56721216833716
 20
22.72499986828868
 30
0.0
 40
0.525
100
AcDbArc
 50
90.0
 51
180.0
  0
LINE
  5
F69
330
1A
100
AcDbEntity
  8
ZUWAKU
100
AcDbLine
 10
57.31721216833716
 20
23.24999986828868
 30
0.0
 11
55.56721216833716
 21
23.24999986828868
 31
0.0
  0
ARC
  5
F6A
330
1A
100
AcDbEntity
  8
ZUWAKU
100
AcDbCircle
 10
51.89221216833721
 20
22.72499986828868
 30
0.0
 40
0.525
100
AcDbArc
 50
0.0
 51
90.0
  0
ARC
  5
F6B
330
1A
100
AcDbEntity
  8
ZUWAKU
100
AcDbCircle
 10
51.89221216833721
 20
20.97499986828868
 30
0.0
 40
0.525
100
AcDbArc
 50
270.0
 51
0.0
  0
LINE
  5
F6C
330
1A
100
AcDbEntity
  8
ZUWAKU
100
AcDbLine
 10
52.41721216833719
 20
22.72499986828868
 30
0.0
 11
52.41721216833719
 21
20.97499986828868
 31
0.0
  0
LINE
  5
F6D
330
1A
100
AcDbEntity
  8
ZUWAKU
100
AcDbLine
 10
68.51721216833721
 20
23.24999986828868
 30
0.0
 11
66.76721216833721
 21
23.24999986828868
 31
0.0
  0
ARC
  5
F6E
330
1A
100
AcDbEntity
  8
ZUWAKU
100
AcDbCircle
 10
66.76721216833721
 20
22.72499986828868
 30
0.0
 40
0.525
100
AcDbArc
 50
90.0
 51
180.0
  0
ARC
  5
F6F
330
1A
100
AcDbEntity
  8
ZUWAKU
100
AcDbCircle
 10
63.61721216833712
 20
22.72499986828868
 30
0.0
 40
0.525
100
AcDbArc
 50
0.0
 51
90.0
  0
LINE
  5
F70
330
1A
100
AcDbEntity
  8
ZUWAKU
100
AcDbLine
 10
63.61721216833712
 20
23.24999986828868
 30
0.0
 11
61.86721216833712
 21
23.24999986828868
 31
0.0
  0
ARC
  5
F71
330
1A
100
AcDbEntity
  8
ZUWAKU
100
AcDbCircle
 10
61.86721216833712
 20
22.72499986828868
 30
0.0
 40
0.525
100
AcDbArc
 50
90.0
 51
180.0
  0
ARC
  5
F72
330
1A
100
AcDbEntity
  8
ZUWAKU
100
AcDbCircle
 10
68.51721216833721
 20
22.72499986828868
 30
0.0
 40
0.525
100
AcDbArc
 50
0.0
 51
90.0
  0
LINE
  5
F75
330
1A
100
AcDbEntity
  8
ZUWAKU
100
AcDbLine
 10
208.2466013036239
 20
29.99999986828868
 30
0.0
 11
208.2466013036239
 21
0.7999998682887508
 31
0.0
  0
LINE
  5
F76
330
1A
100
AcDbEntity
  8
ZUWAKU
100
AcDbLine
 10
208.6466013036238
 20
29.99999986828868
 30
0.0
 11
208.646601303624
 21
0.7999998682887508
 31
0.0
  0
LINE
  5
F77
330
1A
100
AcDbEntity
  8
ZUWAKU
100
AcDbLine
 10
208.4466013036237
 20
29.99999986828868
 30
0.0
 11
208.446601303624
 21
0.7999998682887508
 31
0.0
  0
TEXT
  5
F78
330
1A
100
AcDbEntity
  8
ZUWAKU
100
AcDbText
 10
209.7240463258335
 20
9.6553564066743
 30
0.0
 40
4.0
  1
サイズ
 41
0.9
  7
MSｺﾞｼｯｸ
100
AcDbText
  0
TEXT
  5
F79
330
1A
100
AcDbEntity
  8
ZUWAKU
100
AcDbText
 10
209.7240463258333
 20
24.05535640667426
 30
0.0
 40
4.0
  1
品名
 41
0.9
  7
MSｺﾞｼｯｸ
100
AcDbText
  0
LINE
  5
F7A
330
1A
100
AcDbEntity
  8
ZUWAKU
100
AcDbLine
 10
648.8172025237602
 20
15.19999986828871
 30
0.0
 11
697.2490105620972
 21
15.19999986828871
 31
0.0
  0
LINE
  5
F7B
330
1A
100
AcDbEntity
  8
ZUWAKU
100
AcDbLine
 10
648.8172025237604
 20
15.39999986828872
 30
0.0
 11
697.2490105620972
 21
15.39999986828871
 31
0.0
  0
LINE
  5
F7C
330
1A
100
AcDbEntity
  8
ZUWAKU
100
AcDbLine
 10
648.8172025237602
 20
15.59999986828871
 30
0.0
 11
697.2490105620972
 21
15.59999986828871
 31
0.0
  0
TEXT
  5
F7D
330
1A
100
AcDbEntity
  8
ZUWAKU
100
AcDbText
 10
656.0374517031416
 20
18.66376316516152
 30
0.0
 40
5.599999999999999
  1
　　．  ．　　
 41
0.9
  7
MSｺﾞｼｯｸ
100
AcDbText
  0
LINE
  5
F7E
330
1A
100
AcDbEntity
  8
ZUWAKU
100
AcDbLine
 10
505.1991795116968
 20
15.19999986828872
 30
0.0
 11
552.5269557796685
 21
15.19999986828872
 31
0.0
  0
LINE
  5
F7F
330
1A
100
AcDbEntity
  8
ZUWAKU
100
AcDbLine
 10
505.1991795116968
 20
15.39999986828871
 30
0.0
 11
552.5269557796685
 21
15.39999986828871
 31
0.0
  0
LINE
  5
F80
330
1A
100
AcDbEntity
  8
ZUWAKU
100
AcDbLine
 10
505.1991795116968
 20
15.59999986828871
 30
0.0
 11
552.5269557796685
 21
15.59999986828871
 31
0.0
  0
TEXT
  5
F81
330
1A
100
AcDbEntity
  8
moji
100
AcDbText
 10
463.246432004558
 20
11.94261758994866
 30
0.0
 40
5.599999999999999
  1
ＰＨ０８□
 41
0.9
  7
MSｺﾞｼｯｸ
100
AcDbText
  0
LINE
  5
F82
330
1A
100
AcDbEntity
  8
ZUWAKU
100
AcDbLine
 10
447.6243639845472
 20
29.99999986828868
 30
0.0
 11
447.6243639845474
 21
0.7999998682887508
 31
0.0
  0
LINE
  5
F83
330
1A
100
AcDbEntity
  8
ZUWAKU
100
AcDbLine
 10
447.8243639845472
 20
29.99999986828868
 30
0.0
 11
447.8243639845475
 21
0.7999998682887508
 31
0.0
  0
LINE
  5
F84
330
1A
100
AcDbEntity
  8
ZUWAKU
100
AcDbLine
 10
447.4243639845474
 20
29.99999986828868
 30
0.0
 11
447.4243639845474
 21
0.7999998682887508
 31
0.0
  0
TEXT
  5
F85
330
1A
100
AcDbEntity
  8
moji
100
AcDbText
 10
528.0409079858689
 20
18.00492092569607
 30
0.0
 40
5.599999999999999
  1
Ａ３
 41
0.9
  7
MSｺﾞｼｯｸ
100
AcDbText
  0
LINE
  5
F86
330
1A
100
AcDbEntity
  8
ZUWAKU
100
AcDbLine
 10
504.9991795116969
 20
29.99999986828868
 30
0.0
 11
504.999179511697
 21
0.7999998682887508
 31
0.0
  0
LINE
  5
F87
330
1A
100
AcDbEntity
  8
ZUWAKU
100
AcDbLine
 10
505.1991795116968
 20
29.99999986828868
 30
0.0
 11
505.1991795116971
 21
0.7999998682887508
 31
0.0
  0
LINE
  5
F88
330
1A
100
AcDbEntity
  8
ZUWAKU
100
AcDbLine
 10
504.799179511697
 20
29.99999986828868
 30
0.0
 11
504.799179511697
 21
0.7999998682887508
 31
0.0
  0
TEXT
  5
F89
330
1A
100
AcDbEntity
  8
ZUWAKU
100
AcDbText
 10
464.0120022211934
 20
2.614070779428175
 30
0.0
 40
3.0
  1
□には色品番が入ります
 41
0.9
  7
MSｺﾞｼｯｸ
100
AcDbText
  0
TEXT
  5
F8A
330
1A
100
AcDbEntity
  8
ZUWAKU
100
AcDbText
 10
506.6766245339067
 20
9.6553564066743
 30
0.0
 40
4.0
  1
縮尺
 41
0.9
  7
MSｺﾞｼｯｸ
100
AcDbText
  0
TEXT
  5
F8B
330
1A
100
AcDbEntity
  8
moji
100
AcDbText
 10
528.0409079858689
 20
3.204920925696104
 30
0.0
 40
5.599999999999999
  1
１/２
 41
0.9
  7
MSｺﾞｼｯｸ
100
AcDbText
  0
TEXT
  5
F8C
330
1A
100
AcDbEntity
  8
ZUWAKU
100
AcDbText
 10
449.3018090067569
 20
24.05535640667426
 30
0.0
 40
4.0
  1
品番
 41
0.9
  7
MSｺﾞｼｯｸ
100
AcDbText
  0
TEXT
  5
F8D
330
1A
100
AcDbEntity
  8
ZUWAKU
100
AcDbText
 10
506.6766245339065
 20
24.05535640667426
 30
0.0
 40
4.0
  1
用紙
 41
0.9
  7
MSｺﾞｼｯｸ
100
AcDbText
  0
LINE
  5
F8E
330
1A
100
AcDbEntity
  8
ZUWAKU
100
AcDbLine
 10
648.6172025237603
 20
29.99999986828868
 30
0.0
 11
648.6172025237606
 21
0.7999998682887508
 31
0.0
  0
LINE
  5
F8F
330
1A
100
AcDbEntity
  8
ZUWAKU
100
AcDbLine
 10
648.8172025237604
 20
29.99999986828868
 30
0.0
 11
648.8172025237607
 21
0.7999998682887508
 31
0.0
  0
LINE
  5
F90
330
1A
100
AcDbEntity
  8
ZUWAKU
100
AcDbLine
 10
648.4172025237605
 20
29.99999986828868
 30
0.0
 11
648.4172025237605
 21
0.7999998682887508
 31
0.0
  0
LINE
  5
F91
330
1A
100
AcDbEntity
  8
ZUWAKU
100
AcDbLine
 10
552.7269557796683
 20
29.99999986828868
 30
0.0
 11
552.7269557796684
 21
0.7999998682887508
 31
0.0
  0
LINE
  5
F92
330
1A
100
AcDbEntity
  8
ZUWAKU
100
AcDbLine
 10
552.9269557796683
 20
29.99999986828868
 30
0.0
 11
552.9269557796685
 21
0.7999998682887508
 31
0.0
  0
LINE
  5
F93
330
1A
100
AcDbEntity
  8
ZUWAKU
100
AcDbLine
 10
552.5269557796685
 20
29.99999986828868
 30
0.0
 11
552.5269557796685
 21
0.7999998682887508
 31
0.0
  0
TEXT
  5
F94
330
1A
100
AcDbEntity
  8
ZUWAKU
100
AcDbText
 10
650.29464754597
 20
24.05535640667426
 30
0.0
 40
4.0
  1
DATE
 41
0.9
  7
MSｺﾞｼｯｸ
100
AcDbText
  0
LINE
  5
F95
330
1A
100
AcDbEntity
  8
ZUWAKU
100
AcDbLine
 10
697.2490105620972
 20
29.99999986828868
 30
0.0
 11
697.2490105620972
 21
0.7999998682887508
 31
0.0
  0
LINE
  5
F96
330
1A
100
AcDbEntity
  8
ZUWAKU
100
AcDbLine
 10
697.4490105620973
 20
29.99999986828868
 30
0.0
 11
697.4490105620973
 21
0.7999998682887508
 31
0.0
  0
LINE
  5
F97
330
1A
100
AcDbEntity
  8
ZUWAKU
100
AcDbLine
 10
697.6490105620971
 20
29.99999986828868
 30
0.0
 11
697.6490105620974
 21
0.7999998682887508
 31
0.0
  0
LINE
  5
F98
330
1A
100
AcDbEntity
  8
ZUWAKU
100
AcDbLine
 10
697.8490105620972
 20
29.99999986828868
 30
0.0
 11
697.8490105620974
 21
0.7999998682887508
 31
0.0
  0
TEXT
  5
F99
330
1A
100
AcDbEntity
  8
ZUWAKU
100
AcDbText
 10
708.5280842057998
 20
17.55383920397548
 30
0.0
 40
6.0
  1
積水化学工業株式会社
 41
0.9
  7
MSｺﾞｼｯｸ
100
AcDbText
  0
TEXT
  5
F9A
330
1A
100
AcDbEntity
  8
ZUWAKU
100
AcDbText
 10
708.5280842057998
 20
6.648840182142748
 30
0.0
 40
6.0
  1
建材事業部
 41
0.9
  7
MSｺﾞｼｯｸ
100
AcDbText
  0
TEXT
  5
2384
330
1A
100
AcDbEntity
  8
moji
100
AcDbText
 10
229.065770333445
 20
20.03631360942472
 30
0.0
 40
5.599999999999999
  1
合せマス
 41
0.9
  7
MSｺﾞｼｯｸ
100
AcDbText
  0
TEXT
  5
23CB
330
1A
100
AcDbEntity
  8
SUNPOU
  6
Continuous
 62
     4
100
AcDbText
 10
611.246053068413
 20
44.84773987937034
 30
0.0
 40
8.0
  1
※　たてといの差込み寸法を示す。
100
AcDbText
  0
TEXT
  5
258A
330
1A
100
AcDbEntity
  8
moji
100
AcDbText
 10
229.065770333445
 20
5.21469019940082
 30
0.0
 40
5.599999999999999
  1
ＵＲＴ６０
 41
0.9
  7
MSｺﾞｼｯｸ
100
AcDbText
  0
DIMENSION
  5
2B3D
330
1A
100
AcDbEntity
  8
SUNPOU
100
AcDbDimension
  2
*D26
 10
393.9307101727505
 20
402.8869898959522
 30
0.0
 11
424.5430677201396
 21
440.1576284494566
 31
0.0
 70
   163
 71
     5
 42
65.04720419696923
  3
STANDARD
100
AcDbDiametricDimension
 15
439.2451076311285
 25
449.5532963367491
 35
0.0
 40
0.0
1001
ACAD
1000
DSTYLE
1002
{
1070
   287
1070
     5
1070
   287
1070
     5
1070
   287
1070
     5
1070
   287
1070
     5
1070
   287
1070
     5
1070
   287
1070
     5
1070
   287
1070
     5
1070
   279
1070
     2
1070
   288
1070
     1
1002
}
  0
ARC
  5
2B3E
330
1A
100
AcDbEntity
  8
SEIHIN
 48
5.0
100
AcDbCircle
 10
416.5879089019397
 20
426.2201431163525
 30
0.0
 40
30.51051208755814
100
AcDbArc
 50
28.39780948655611
 51
331.6021905134358
  0
LINE
  5
2B3F
330
1A
100
AcDbEntity
  8
SEIHIN
 48
5.0
100
AcDbLine
 10
388.1592036304743
 20
176.5032208840679
 30
0.0
 11
445.016614173405
 21
176.5032208840679
 31
0.0
  0
LINE
  5
2B40
330
1A
100
AcDbEntity
  8
CENTER L
 48
5.0
100
AcDbLine
 10
521.400225059194
 20
426.2201431163528
 30
0.0
 11
375.7755927446853
 21
426.2201431163525
 31
0.0
  0
LINE
  5
2B41
330
1A
100
AcDbEntity
  8
SEIHIN
 48
5.0
100
AcDbLine
 10
452.7947112231074
 20
203.5036777985991
 30
0.0
 11
385.0857319862141
 21
203.5036777985991
 31
0.0
  0
DIMENSION
  5
2B42
330
1A
100
AcDbEntity
  8
SUNPOU
100
AcDbDimension
  2
*D27
 10
445.016614173405
 20
150.5824377212414
 30
0.0
 11
416.5879089019397
 21
156.5824377212415
 31
0.0
 70
    32
  1
φ<>
 71
     5
 42
56.85741054293067
  3
STANDARD
100
AcDbAlignedDimension
 13
388.1592036304743
 23
176.5032208840679
 33
0.0
 14
445.016614173405
 24
176.5032208840679
 34
0.0
100
AcDbRotatedDimension
  0
LINE
  5
2B43
330
1A
100
AcDbEntity
  8
SEIHIN
 48
5.0
100
AcDbLine
 10
388.511560849786
 20
173.5036777985991
 30
0.0
 11
444.6642569540933
 21
173.5036777985991
 31
0.0
  0
DIMENSION
  5
2B44
330
1A
100
AcDbEntity
  8
SUNPOU
100
AcDbDimension
  2
*D28
 10
513.1115110004237
 20
356.3331868447836
 30
0.0
 11
448.2016618895151
 21
356.3331868447836
 31
0.0
 70
   160
 71
     5
 42
129.0472041969678
  3
STANDARD
100
AcDbAlignedDimension
 13
384.0643068034557
 23
323.5036777985991
 33
0.0
 14
513.1115110004237
 24
323.5036777985991
 34
0.0
100
AcDbRotatedDimension
  0
LINE
  5
2B45
330
1A
100
AcDbEntity
  8
SEIHIN
 48
5.0
100
AcDbLine
 10
385.5730335050964
 20
323.5036777985991
 30
0.0
 11
513.1115110004237
 21
323.5036777985992
 31
0.0
  0
ARC
  5
2B46
330
1A
100
AcDbEntity
  8
SEIHIN
 48
5.0
100
AcDbCircle
 10
416.5879089019397
 20
426.2201431163506
 30
0.0
 40
32.52360209848456
100
AcDbArc
 50
30.83355614178421
 51
329.1664438582157
  0
DIMENSION
  5
2B47
330
1A
100
AcDbEntity
  8
SUNPOU
100
AcDbDimension
  2
*D29
 10
363.0791370998163
 20
323.5036777985992
 30
0.0
 11
357.0791370998162
 21
288.5040109733813
 31
0.0
 70
    32
  1
※<>
 71
     5
 42
69.99933365043583
  3
STANDARD
100
AcDbAlignedDimension
 13
384.0643068034557
 23
253.5043441481633
 33
0.0
 14
384.0643068034557
 24
323.5036777985991
 34
0.0
 50
90.0
100
AcDbRotatedDimension
  0
LINE
  5
2B48
330
1A
100
AcDbEntity
  8
SEIHIN
 48
5.0
100
AcDbLine
 10
294.9523031566457
 20
238.3531748583158
 30
0.0
 11
295.3238446735338
 21
323.5036777985991
 31
0.0
  0
LINE
  5
2B49
330
1A
100
AcDbEntity
  8
CENTER L
 48
5.0
100
AcDbLine
 10
262.8002425750498
 20
332.728285007582
 30
0.0
 11
262.8002425750498
 21
237.6651121304465
 31
0.0
  0
LINE
  5
2B4A
330
1A
100
AcDbEntity
  8
CENTER L
 48
5.0
100
AcDbLine
 10
198.8002425750498
 20
331.913123701603
 30
0.0
 11
198.8002425750498
 21
165.1856880368183
 31
0.0
  0
DIMENSION
  5
2B4B
330
1A
100
AcDbEntity
  8
SUNPOU
100
AcDbDimension
  2
*D30
 10
211.9664486253402
 20
323.5036777985991
 30
0.0
 11
205.9664486253402
 21
288.5040109733813
 31
0.0
 70
    32
  1
※<>
 71
     5
 42
69.9993336504358
  3
STANDARD
100
AcDbAlignedDimension
 13
224.459241054317
 23
253.5043441481633
 33
0.0
 14
224.459241054317
 24
323.5036777985991
 34
0.0
 50
90.0
100
AcDbRotatedDimension
  0
LWPOLYLINE
  5
2B4C
330
1A
100
AcDbEntity
  8
SEIHIN
 48
5.0
100
AcDbPolyline
 90
        3
 70
     0
 43
0.0
 10
225.6393257710494
 20
322.5036873178781
 10
225.4834156912108
 20
262.7398469967014
 10
225.4592410539714
 20
253.504344133706
  0
LINE
  5
2B4D
330
1A
100
AcDbEntity
  8
SEIHIN
 48
5.0
100
AcDbLine
 10
292.9486055034865
 20
239.5057405556475
 30
0.0
 11
293.3107546626067
 21
322.5036873178781
 31
0.0
  0
LWPOLYLINE
  5
2B4E
330
1A
100
AcDbEntity
  8
SEIHIN
 48
5.0
100
AcDbPolyline
 90
        3
 70
     0
 43
0.0
 10
235.9611593790484
 20
322.5036873178781
 10
236.1170694588888
 20
262.7398469967014
 10
236.1412440990132
 20
253.5043430323752
  0
LINE
  5
2B4F
330
1A
100
AcDbEntity
  8
SEIHIN
 48
5.0
100
AcDbLine
 10
168.2897304874911
 20
322.5036873178781
 30
0.0
 11
168.7980704189628
 21
206.0014961439559
 31
0.0
  0
LINE
  5
2B50
330
1A
100
AcDbEntity
  8
SEIHIN
 48
5.0
100
AcDbLine
 10
166.2766404765659
 20
323.5036777985991
 30
0.0
 11
166.7980704189628
 21
204.0014961439559
 31
0.0
  0
DIMENSION
  5
2B51
330
1A
100
AcDbEntity
  8
SUNPOU
100
AcDbDimension
  2
*D31
 10
349.930780587327
 20
173.5036777985991
 30
0.0
 11
343.9307805873269
 21
248.5036777985992
 31
0.0
 70
    32
 71
     5
 42
150.0
  3
STANDARD
100
AcDbAlignedDimension
 13
384.0643068034557
 23
323.5036777985991
 33
0.0
 14
388.511560849786
 24
173.5036777985991
 34
0.0
 50
90.0
100
AcDbRotatedDimension
  0
LINE
  5
2B52
330
1A
100
AcDbEntity
  8
SEIHIN
 48
5.0
100
AcDbLine
 10
384.0643068034557
 20
323.5036777985991
 30
0.0
 11
384.5857367458527
 21
204.0014961439559
 31
0.0
  0
LINE
  5
2B53
330
1A
100
AcDbEntity
  8
ﾊｯﾁﾝｸﾞ
 48
5.0
100
AcDbLine
 10
269.01074292313
 20
223.0893118463649
 30
0.0
 11
274.4748445382681
 21
228.553413461503
 31
0.0
  0
LINE
  5
2B54
330
1A
100
AcDbEntity
  8
SEIHIN
 48
5.0
100
AcDbLine
 10
292.6986102631251
 20
239.0749095083996
 30
0.0
 11
234.5515312690856
 21
205.5036777985991
 31
0.0
  0
LINE
  5
2B55
330
1A
100
AcDbEntity
  8
SEIHIN
 48
5.0
100
AcDbLine
 10
294.7023079162861
 20
237.922343811066
 30
0.0
 11
235.1570448962172
 21
203.5438701774641
 31
0.0
  0
LINE
  5
2B56
330
1A
100
AcDbEntity
  8
ﾊｯﾁﾝｸﾞ
 48
5.0
100
AcDbLine
 10
225.6198359452898
 20
184.1885329290602
 30
0.0
 11
227.3940647461693
 21
185.9627617299396
 31
0.0
  0
LINE
  5
2B57
330
1A
100
AcDbEntity
  8
SEIHIN
 48
5.0
100
AcDbLine
 10
227.2289478465152
 20
176.5032208840679
 30
0.0
 11
227.7002425750485
 21
203.5036777985991
 31
0.0
  0
LINE
  5
2B58
330
1A
100
AcDbEntity
  8
SEIHIN
 48
5.0
100
AcDbLine
 10
225.5265906272031
 20
173.5036777985991
 30
0.0
 11
225.8058503965073
 21
205.5036777985991
 31
0.0
  0
LINE
  5
2B59
330
1A
100
AcDbEntity
  8
SEIHIN
 48
5.0
100
AcDbLine
 10
169.9002425750493
 20
203.5036777985991
 30
0.0
 11
170.3715373035845
 21
176.5032208840679
 31
0.0
  0
LINE
  5
2B5A
330
1A
100
AcDbEntity
  8
SEIHIN
 48
5.0
100
AcDbLine
 10
171.7946347535924
 20
205.5036777985991
 30
0.0
 11
172.0738945228965
 21
173.5036777985991
 31
0.0
  0
LINE
  5
2B5B
330
1A
100
AcDbEntity
  8
SEIHIN
 48
5.0
100
AcDbLine
 10
172.0738945228965
 20
173.5036777985991
 30
0.0
 11
225.5265906272031
 21
173.5036777985991
 31
0.0
  0
LINE
  5
2B5C
330
1A
100
AcDbEntity
  8
SEIHIN
 48
5.0
100
AcDbLine
 10
170.3715373035845
 20
176.5032208840679
 30
0.0
 11
170.7238945228962
 21
173.5036777985991
 31
0.0
  0
LINE
  5
2B5D
330
1A
100
AcDbEntity
  8
ﾊｯﾁﾝｸﾞ
 48
5.0
100
AcDbLine
 10
170.6513401725439
 20
174.1213177616595
 30
0.0
 11
172.0562440501978
 21
175.5262216393133
 31
0.0
  0
LINE
  5
2B5E
330
1A
100
AcDbEntity
  8
SEIHIN
 48
5.0
100
AcDbLine
 10
170.7238945228962
 20
173.5036777985991
 30
0.0
 11
172.0738945228965
 21
173.5036777985991
 31
0.0
  0
LINE
  5
2B5F
330
1A
100
AcDbEntity
  8
ﾊｯﾁﾝｸﾞ
 48
5.0
100
AcDbLine
 10
170.3401696029029
 20
178.3002752525538
 30
0.0
 11
172.0173982979938
 21
179.9775039476447
 31
0.0
  0
LINE
  5
2B60
330
1A
100
AcDbEntity
  8
ﾊｯﾁﾝｸﾞ
 48
5.0
100
AcDbLine
 10
170.2631387053877
 20
182.7133724155722
 30
0.0
 11
171.9785525457898
 21
184.4287862559743
 31
0.0
  0
LINE
  5
2B61
330
1A
100
AcDbEntity
  8
SEIHIN
 48
5.0
100
AcDbLine
 10
226.8765906272035
 20
173.5036777985991
 30
0.0
 11
227.2289478465152
 21
176.5032208840679
 31
0.0
  0
LINE
  5
2B62
330
1A
100
AcDbEntity
  8
SEIHIN
 48
5.0
100
AcDbLine
 10
225.5265906272031
 20
173.5036777985991
 30
0.0
 11
226.8765906272035
 21
173.5036777985991
 31
0.0
  0
LINE
  5
2B63
330
1A
100
AcDbEntity
  8
ﾊｯﾁﾝｸﾞ
 48
5.0
100
AcDbLine
 10
225.5407764960343
 20
175.1292173587338
 30
0.0
 11
227.2345290872197
 21
176.822969949921
 31
0.0
  0
LINE
  5
2B64
330
1A
100
AcDbEntity
  8
ﾊｯﾁﾝｸﾞ
 48
5.0
100
AcDbLine
 10
225.580306220663
 20
179.6588751438979
 30
0.0
 11
227.3142969166944
 21
181.3928658399312
 31
0.0
  0
LINE
  5
2B65
330
1A
100
AcDbEntity
  8
SEIHIN
 48
5.0
100
AcDbLine
 10
225.8058503965073
 20
205.5036777985991
 30
0.0
 11
171.7946347535924
 21
205.5036777985991
 31
0.0
  0
LINE
  5
2B66
330
1A
100
AcDbEntity
  8
ﾊｯﾁﾝｸﾞ
 48
5.0
100
AcDbLine
 10
166.6910322810651
 20
228.5326746571303
 30
0.0
 11
168.691032281067
 21
230.5326746571321
 31
0.0
  0
LINE
  5
2B67
330
1A
100
AcDbEntity
  8
ﾊｯﾁﾝｸﾞ
 48
5.0
100
AcDbLine
 10
166.788566723864
 20
206.1795687972574
 30
0.0
 11
168.788566723864
 21
208.1795687972556
 31
0.0
  0
LINE
  5
2B68
330
1A
100
AcDbEntity
  8
ﾊｯﾁﾝｸﾞ
 48
5.0
100
AcDbLine
 10
170.0320460128439
 20
195.9526639046311
 30
0.0
 11
171.862015289176
 21
197.7826331809668
 31
0.0
  0
LINE
  5
2B69
330
1A
100
AcDbEntity
  8
ﾊｯﾁﾝｸﾞ
 48
5.0
100
AcDbLine
 10
170.1090769103573
 20
191.5395667416126
 30
0.0
 11
171.9008610413818
 21
193.3313508726354
 31
0.0
  0
LINE
  5
2B6A
330
1A
100
AcDbEntity
  8
ﾊｯﾁﾝｸﾞ
 48
5.0
100
AcDbLine
 10
170.1861078078725
 20
187.1264695785924
 30
0.0
 11
171.9397067935858
 21
188.8800685643039
 31
0.0
  0
LINE
  5
2B6B
330
1A
100
AcDbEntity
  8
SEIHIN
 48
5.0
100
AcDbLine
 10
169.9002425750493
 20
203.5036777985991
 30
0.0
 11
167.2980656593242
 21
203.5036777985991
 31
0.0
  0
ARC
  5
2B6C
330
1A
100
AcDbEntity
  8
SEIHIN
 48
5.0
100
AcDbCircle
 10
167.2980656593242
 20
204.0036777985991
 30
0.0
 40
0.5000000000001094
100
AcDbArc
 50
180.2499999999915
 51
270.0
  0
LINE
  5
2B6D
330
1A
100
AcDbEntity
  8
SEIHIN
 48
5.0
100
AcDbLine
 10
171.7946347535924
 20
205.5036777985991
 30
0.0
 11
169.2980656593242
 21
205.5036777985991
 31
0.0
  0
LINE
  5
2B6E
330
1A
100
AcDbEntity
  8
ﾊｯﾁﾝｸﾞ
 48
5.0
100
AcDbLine
 10
169.9550151153287
 20
200.3657610676512
 30
0.0
 11
171.8231695369738
 21
202.2339154892964
 31
0.0
  0
LINE
  5
2B6F
330
1A
100
AcDbEntity
  8
ﾊｯﾁﾝｸﾞ
 48
5.0
100
AcDbLine
 10
168.6028037857411
 20
203.5036777985991
 30
0.0
 11
170.6028037857411
 21
205.5036777985991
 31
0.0
  0
ARC
  5
2B70
330
1A
100
AcDbEntity
  8
SEIHIN
 48
5.0
100
AcDbCircle
 10
169.2980656593242
 20
206.0036777985991
 30
0.0
 40
0.5000000000001096
100
AcDbArc
 50
180.2500000000176
 51
270.0
  0
LINE
  5
2B71
330
1A
100
AcDbEntity
  8
ﾊｯﾁﾝｸﾞ
 48
5.0
100
AcDbLine
 10
166.7495529467448
 20
215.1208111412055
 30
0.0
 11
168.7495529467448
 21
217.1208111412091
 31
0.0
  0
LINE
  5
2B72
330
1A
100
AcDbEntity
  8
ﾊｯﾁﾝｸﾞ
 48
5.0
100
AcDbLine
 10
166.7690598353053
 20
210.6501899692324
 30
0.0
 11
168.7690598353053
 21
212.6501899692342
 31
0.0
  0
LINE
  5
2B73
330
1A
100
AcDbEntity
  8
ﾊｯﾁﾝｸﾞ
 48
5.0
100
AcDbLine
 10
166.7105391696257
 20
224.0620534851553
 30
0.0
 11
168.7105391696256
 21
226.0620534851572
 31
0.0
  0
LINE
  5
2B74
330
1A
100
AcDbEntity
  8
ﾊｯﾁﾝｸﾞ
 48
5.0
100
AcDbLine
 10
166.7300460581843
 20
219.5914323131822
 30
0.0
 11
168.7300460581843
 21
221.5914323131804
 31
0.0
  0
LINE
  5
2B75
330
1A
100
AcDbEntity
  8
ﾊｯﾁﾝｸﾞ
 48
5.0
100
AcDbLine
 10
166.652018503946
 20
237.473917001082
 30
0.0
 11
168.652018503946
 21
239.4739170010801
 31
0.0
  0
LINE
  5
2B76
330
1A
100
AcDbEntity
  8
ﾊｯﾁﾝｸﾞ
 48
5.0
100
AcDbLine
 10
166.6715253925046
 20
233.0032958291052
 30
0.0
 11
168.6715253925065
 21
235.0032958291088
 31
0.0
  0
LINE
  5
2B77
330
1A
100
AcDbEntity
  8
ﾊｯﾁﾝｸﾞ
 48
5.0
100
AcDbLine
 10
166.6325116153873
 20
241.944538173055
 30
0.0
 11
168.6325116153873
 21
243.9445381730569
 31
0.0
  0
LINE
  5
2B78
330
1A
100
AcDbEntity
  8
ﾊｯﾁﾝｸﾞ
 48
5.0
100
AcDbLine
 10
166.6130047268268
 20
246.41515934503
 30
0.0
 11
168.6130047268268
 21
248.41515934503
 31
0.0
  0
LINE
  5
2B79
330
1A
100
AcDbEntity
  8
ﾊｯﾁﾝｸﾞ
 48
5.0
100
AcDbLine
 10
166.5544840611471
 20
259.8270228609548
 30
0.0
 11
168.5544840611471
 21
261.8270228609548
 31
0.0
  0
LINE
  5
2B7A
330
1A
100
AcDbEntity
  8
ﾊｯﾁﾝｸﾞ
 48
5.0
100
AcDbLine
 10
166.5739909497076
 20
255.3564016889798
 30
0.0
 11
168.5739909497076
 21
257.3564016889816
 31
0.0
  0
LINE
  5
2B7B
330
1A
100
AcDbEntity
  8
ﾊｯﾁﾝｸﾞ
 48
5.0
100
AcDbLine
 10
166.5934978382663
 20
250.8857805170049
 30
0.0
 11
168.5934978382663
 21
252.8857805170049
 31
0.0
  0
LINE
  5
2B7C
330
1A
100
AcDbEntity
  8
ﾊｯﾁﾝｸﾞ
 48
5.0
100
AcDbLine
 10
166.5349771725884
 20
264.2976440329297
 30
0.0
 11
168.5349771725866
 21
266.2976440329297
 31
0.0
  0
LINE
  5
2B7D
330
1A
100
AcDbEntity
  8
ﾊｯﾁﾝｸﾞ
 48
5.0
100
AcDbLine
 10
166.5154702840279
 20
268.7682652049046
 30
0.0
 11
168.5154702840279
 21
270.7682652049046
 31
0.0
  0
LINE
  5
2B7E
330
1A
100
AcDbEntity
  8
SEIHIN
 48
5.0
100
AcDbLine
 10
237.141244095799
 20
253.5043441487454
 30
0.0
 11
237.2608683432024
 21
207.9326262180187
 31
0.0
  0
LINE
  5
2B7F
330
1A
100
AcDbEntity
  8
SEIHIN
 48
5.0
100
AcDbLine
 10
224.3345499360891
 20
206.0023653197116
 30
0.0
 11
224.459241054317
 21
253.5043441481633
 31
0.0
  0
LINE
  5
2B80
330
1A
100
AcDbEntity
  8
ﾊｯﾁﾝｸﾞ
 48
5.0
100
AcDbLine
 10
237.1394717507189
 20
204.6884248555583
 30
0.0
 11
242.603573365857
 21
210.1525264706964
 31
0.0
  0
LINE
  5
2B81
330
1A
100
AcDbEntity
  8
ﾊｯﾁﾝｸﾞ
 48
5.0
100
AcDbLine
 10
225.6988953945472
 20
193.2478484993865
 30
0.0
 11
227.5536004051207
 21
195.1025535099601
 31
0.0
  0
LINE
  5
2B82
330
1A
100
AcDbEntity
  8
ﾊｯﾁﾝｸﾞ
 48
5.0
100
AcDbLine
 10
225.6593656699185
 20
188.7181907142224
 30
0.0
 11
227.4738325756459
 21
190.5326576199498
 31
0.0
  0
LINE
  5
2B83
330
1A
100
AcDbEntity
  8
SEIHIN
 48
5.0
100
AcDbLine
 10
235.0070448962176
 20
203.5036777985991
 30
0.0
 11
227.7002425750485
 21
203.5036777985991
 31
0.0
  0
LINE
  5
2B84
330
1A
100
AcDbEntity
  8
SEIHIN
 48
5.0
100
AcDbLine
 10
234.5515312690856
 20
205.5036777985991
 30
0.0
 11
225.8058503965073
 21
205.5036777985991
 31
0.0
  0
LINE
  5
2B85
330
1A
100
AcDbEntity
  8
ﾊｯﾁﾝｸﾞ
 48
5.0
100
AcDbLine
 10
225.7384251191758
 20
197.7775062845488
 30
0.0
 11
227.6333682345955
 21
199.6724493999703
 31
0.0
  0
LINE
  5
2B86
330
1A
100
AcDbEntity
  8
ﾊｯﾁﾝｸﾞ
 48
5.0
100
AcDbLine
 10
225.7779548438045
 20
202.3071640697129
 30
0.0
 11
228.9744685726907
 21
205.5036777985991
 31
0.0
  0
LINE
  5
2B87
330
1A
100
AcDbEntity
  8
ﾊｯﾁﾝｸﾞ
 48
5.0
100
AcDbLine
 10
231.4645966332261
 20
203.5036777985991
 30
0.0
 11
233.4645966332261
 21
205.5036777985991
 31
0.0
  0
ARC
  5
2B88
330
1A
100
AcDbEntity
  8
SEIHIN
 48
5.0
100
AcDbCircle
 10
235.0070448962176
 20
203.8036777985984
 30
0.0
 40
0.3000000000000258
100
AcDbArc
 50
270.0
 51
300.000000000015
  0
LINE
  5
2B89
330
1A
100
AcDbEntity
  8
ﾊｯﾁﾝｸﾞ
 48
5.0
100
AcDbLine
 10
247.7632288081911
 20
210.822053852495
 30
0.0
 11
253.2273304233292
 21
216.2861554676331
 31
0.0
  0
LINE
  5
2B8A
330
1A
100
AcDbEntity
  8
ﾊｯﾁﾝｸﾞ
 48
5.0
100
AcDbLine
 10
258.3869858656596
 20
216.9556828494299
 30
0.0
 11
263.8510874807977
 21
222.4197844645681
 31
0.0
  0
LINE
  5
2B8B
330
1A
100
AcDbEntity
  8
SEIHIN
 48
5.0
100
AcDbLine
 10
224.9592370501557
 20
253.5043441481633
 30
0.0
 11
225.4592410540078
 21
253.5043441481633
 31
0.0
  0
LINE
  5
2B8C
330
1A
100
AcDbEntity
  8
SEIHIN
 48
5.0
100
AcDbLine
 10
224.459241054317
 20
253.5043441481633
 30
0.0
 11
224.9592370501557
 21
253.5043441481633
 31
0.0
  0
LINE
  5
2B8D
330
1A
100
AcDbEntity
  8
SEIHIN
 48
5.0
100
AcDbLine
 10
236.6412480999604
 20
253.5043441487454
 30
0.0
 11
237.141244095799
 21
253.5043441487454
 31
0.0
  0
LINE
  5
2B8E
330
1A
100
AcDbEntity
  8
SEIHIN
 48
5.0
100
AcDbLine
 10
236.1412440975507
 20
253.5043435905594
 30
0.0
 11
236.6412480999604
 21
253.5043441487454
 31
0.0
  0
LINE
  5
2B8F
330
1A
100
AcDbEntity
  8
SEIHIN
 48
5.0
100
AcDbLine
 10
387.6879089019391
 20
203.5036777985991
 30
0.0
 11
388.1592036304743
 21
176.5032208840679
 31
0.0
  0
LINE
  5
2B90
330
1A
100
AcDbEntity
  8
SEIHIN
 48
5.0
100
AcDbLine
 10
388.1592036304743
 20
176.5032208840679
 30
0.0
 11
388.511560849786
 21
173.5036777985991
 31
0.0
  0
LINE
  5
2B91
330
1A
100
AcDbEntity
  8
ﾊｯﾁﾝｸﾞ
 48
5.0
100
AcDbLine
 10
279.6344999806003
 20
229.2229408433016
 30
0.0
 11
285.0986015957385
 21
234.687042458438
 31
0.0
  0
LINE
  5
2B92
330
1A
100
AcDbEntity
  8
ﾊｯﾁﾝｸﾞ
 48
5.0
100
AcDbLine
 10
290.2582570380707
 20
235.3565698402366
 30
0.0
 11
294.9597421465875
 21
240.0580549487534
 31
0.0
  0
ARC
  5
2B93
330
1A
100
AcDbEntity
  8
SEIHIN
 48
5.0
100
AcDbCircle
 10
292.4486102631251
 20
239.5079222102907
 30
0.0
 40
0.5000000000001095
100
AcDbArc
 50
299.9999999999999
 51
359.7500000000084
  0
ARC
  5
2B94
330
1A
100
AcDbEntity
  8
SEIHIN
 48
5.0
100
AcDbCircle
 10
294.4523079162861
 20
238.355356512959
 30
0.0
 40
0.5000000000002192
100
AcDbArc
 50
300.000000000015
 51
359.7500000000084
  0
LINE
  5
2B95
330
1A
100
AcDbEntity
  8
ﾊｯﾁﾝｸﾞ
 48
5.0
100
AcDbLine
 10
292.9618901196224
 20
242.5503309823255
 30
0.0
 11
294.9794200119756
 21
244.5678608746769
 31
0.0
  0
LINE
  5
2B96
330
1A
100
AcDbEntity
  8
ﾊｯﾁﾝｸﾞ
 48
5.0
100
AcDbLine
 10
292.9815679850123
 20
247.0601369082472
 30
0.0
 11
294.9990978773637
 21
249.0776668006004
 31
0.0
  0
LINE
  5
2B97
330
1A
100
AcDbEntity
  8
ﾊｯﾁﾝｸﾞ
 48
5.0
100
AcDbLine
 10
293.0406015811765
 20
260.5895546860159
 30
0.0
 11
295.0581314735279
 21
262.6070845783673
 31
0.0
  0
LINE
  5
2B98
330
1A
100
AcDbEntity
  8
ﾊｯﾁﾝｸﾞ
 48
5.0
100
AcDbLine
 10
293.0209237157885
 20
256.0797487600924
 30
0.0
 11
295.0384536081399
 21
258.0972786524456
 31
0.0
  0
LINE
  5
2B99
330
1A
100
AcDbEntity
  8
ﾊｯﾁﾝｸﾞ
 48
5.0
100
AcDbLine
 10
293.0012458503986
 20
251.5699428341689
 30
0.0
 11
295.0187757427518
 21
253.5874727265221
 31
0.0
  0
LINE
  5
2B9A
330
1A
100
AcDbEntity
  8
ﾊｯﾁﾝｸﾞ
 48
5.0
100
AcDbLine
 10
293.0799573119527
 20
269.6091665378611
 30
0.0
 11
295.0974872043041
 21
271.6266964302125
 31
0.0
  0
LINE
  5
2B9B
330
1A
100
AcDbEntity
  8
ﾊｯﾁﾝｸﾞ
 48
5.0
100
AcDbLine
 10
293.0602794465646
 20
265.0993606119394
 30
0.0
 11
295.077809338916
 21
267.1168905042908
 31
0.0
  0
ARC
  5
2B9C
330
1A
100
AcDbEntity
  8
SEIHIN
 48
5.0
100
AcDbCircle
 10
385.0857319862141
 20
204.0036777985991
 30
0.0
 40
0.5000000000001094
100
AcDbArc
 50
180.2499999999915
 51
270.0
  0
LINE
  5
2B9D
330
1A
100
AcDbEntity
  8
SEIHIN
 48
5.0
100
AcDbLine
 10
293.3107546626067
 20
322.5036873178781
 30
0.0
 11
235.9611593790484
 21
322.5036873178781
 31
0.0
  0
LINE
  5
2B9E
330
1A
100
AcDbEntity
  8
SEIHIN
 48
5.0
100
AcDbLine
 10
235.6621510301572
 20
323.5036777985991
 30
0.0
 11
293.8151179718932
 21
323.5036777985991
 31
0.0
  0
LINE
  5
2B9F
330
1A
100
AcDbEntity
  8
SEIHIN
 48
5.0
100
AcDbLine
 10
225.6393257710494
 20
322.5036873178781
 30
0.0
 11
168.2897304874911
 21
322.5036873178781
 31
0.0
  0
LINE
  5
2BA0
330
1A
100
AcDbEntity
  8
SEIHIN
 48
5.0
100
AcDbLine
 10
167.7853671782065
 20
323.5036777985991
 30
0.0
 11
225.9383341199425
 21
323.5036777985991
 31
0.0
  0
LINE
  5
2BA1
330
1A
100
AcDbEntity
  8
ﾊｯﾁﾝｸﾞ
 48
5.0
100
AcDbLine
 10
166.4569496183482
 20
282.1801287208294
 30
0.0
 11
168.4569496183482
 21
284.1801287208294
 31
0.0
  0
LINE
  5
2BA2
330
1A
100
AcDbEntity
  8
ﾊｯﾁﾝｸﾞ
 48
5.0
100
AcDbLine
 10
166.4959633954674
 20
273.2388863768795
 30
0.0
 11
168.4959633954674
 21
275.2388863768795
 31
0.0
  0
LINE
  5
2BA3
330
1A
100
AcDbEntity
  8
ﾊｯﾁﾝｸﾞ
 48
5.0
100
AcDbLine
 10
166.4764565069087
 20
277.7095075488545
 30
0.0
 11
168.4764565069087
 21
279.7095075488545
 31
0.0
  0
LINE
  5
2BA4
330
1A
100
AcDbEntity
  8
ﾊｯﾁﾝｸﾞ
 48
5.0
100
AcDbLine
 10
166.417935841229
 20
291.1213710647792
 30
0.0
 11
168.4179358412291
 21
293.1213710647792
 31
0.0
  0
LINE
  5
2BA5
330
1A
100
AcDbEntity
  8
ﾊｯﾁﾝｸﾞ
 48
5.0
100
AcDbLine
 10
166.4374427297896
 20
286.6507498928043
 30
0.0
 11
168.4374427297896
 21
288.6507498928043
 31
0.0
  0
LINE
  5
2BA6
330
1A
100
AcDbEntity
  8
ﾊｯﾁﾝｸﾞ
 48
5.0
100
AcDbLine
 10
166.3594151755494
 20
304.533234580704
 30
0.0
 11
168.3594151755494
 21
306.533234580704
 31
0.0
  0
LINE
  5
2BA7
330
1A
100
AcDbEntity
  8
ﾊｯﾁﾝｸﾞ
 48
5.0
100
AcDbLine
 10
166.3984289526686
 20
295.5919922367542
 30
0.0
 11
168.3984289526686
 21
297.5919922367542
 31
0.0
  0
LINE
  5
2BA8
330
1A
100
AcDbEntity
  8
ﾊｯﾁﾝｸﾞ
 48
5.0
100
AcDbLine
 10
166.3789220641081
 20
300.0626134087273
 30
0.0
 11
168.3789220641099
 21
302.0626134087291
 31
0.0
  0
LINE
  5
2BA9
330
1A
100
AcDbEntity
  8
ﾊｯﾁﾝｸﾞ
 48
5.0
100
AcDbLine
 10
166.3399082869889
 20
309.0038557526789
 30
0.0
 11
168.3399082869889
 21
311.0038557526789
 31
0.0
  0
LINE
  5
2BAA
330
1A
100
AcDbEntity
  8
ﾊｯﾁﾝｸﾞ
 48
5.0
100
AcDbLine
 10
166.3204013984302
 20
313.4744769246521
 30
0.0
 11
168.3204013984302
 21
315.4744769246521
 31
0.0
  0
LINE
  5
2BAB
330
1A
100
AcDbEntity
  8
SEIHIN
 48
5.0
100
AcDbLine
 10
167.7853671782065
 20
323.5036777985991
 30
0.0
 11
166.2766404765659
 21
323.5036777985991
 31
0.0
  0
LINE
  5
2BAC
330
1A
100
AcDbEntity
  8
ﾊｯﾁﾝｸﾞ
 48
5.0
100
AcDbLine
 10
166.3008945098697
 20
317.9450980966288
 30
0.0
 11
168.3008945098715
 21
319.9450980966288
 31
0.0
  0
LINE
  5
2BAD
330
1A
100
AcDbEntity
  8
ﾊｯﾁﾝｸﾞ
 48
5.0
100
AcDbLine
 10
166.281387621311
 20
322.4157192686037
 30
0.0
 11
167.3693461513082
 21
323.5036777985991
 31
0.0
  0
LINE
  5
2BAE
330
1A
100
AcDbEntity
  8
SEIHIN
 48
5.0
100
AcDbLine
 10
168.2897304874911
 20
322.5036873178781
 30
0.0
 11
167.7853671782065
 21
323.5036777985991
 31
0.0
  0
LINE
  5
2BAF
330
1A
100
AcDbEntity
  8
SEIHIN
 48
5.0
100
AcDbLine
 10
225.9383341199425
 20
323.5036777985991
 30
0.0
 11
235.6621510301572
 21
323.5036777985991
 31
0.0
  0
LINE
  5
2BB0
330
1A
100
AcDbEntity
  8
SEIHIN
 48
5.0
100
AcDbLine
 10
235.9611593790484
 20
322.5036873178781
 30
0.0
 11
225.6393257710494
 21
322.5036873178781
 31
0.0
  0
LINE
  5
2BB1
330
1A
100
AcDbEntity
  8
SEIHIN
 48
5.0
100
AcDbLine
 10
225.6393257710494
 20
322.5036873178781
 30
0.0
 11
225.9383341199425
 21
323.5036777985991
 31
0.0
  0
LINE
  5
2BB2
330
1A
100
AcDbEntity
  8
SEIHIN
 48
5.0
100
AcDbLine
 10
235.6621510301572
 20
323.5036777985991
 30
0.0
 11
235.9611593790484
 21
322.5036873178781
 31
0.0
  0
LINE
  5
2BB3
330
1A
100
AcDbEntity
  8
ﾊｯﾁﾝｸﾞ
 48
5.0
100
AcDbLine
 10
293.2767359658317
 20
314.707225797087
 30
0.0
 11
295.2942658581866
 21
316.7247556894402
 31
0.0
  0
LINE
  5
2BB4
330
1A
100
AcDbEntity
  8
ﾊｯﾁﾝｸﾞ
 48
5.0
100
AcDbLine
 10
293.1389909081151
 20
283.1385843156279
 30
0.0
 11
295.1565208004683
 21
285.1561142079793
 31
0.0
  0
LINE
  5
2BB5
330
1A
100
AcDbEntity
  8
ﾊｯﾁﾝｸﾞ
 48
5.0
100
AcDbLine
 10
293.0996351773408
 20
274.1189724637846
 30
0.0
 11
295.1171650696922
 21
276.1365023561342
 31
0.0
  0
LINE
  5
2BB6
330
1A
100
AcDbEntity
  8
ﾊｯﾁﾝｸﾞ
 48
5.0
100
AcDbLine
 10
293.1193130427288
 20
278.6287783897063
 30
0.0
 11
295.1368429350802
 21
280.6463082820576
 31
0.0
  0
LINE
  5
2BB7
330
1A
100
AcDbEntity
  8
ﾊｯﾁﾝｸﾞ
 48
5.0
100
AcDbLine
 10
293.1783466388931
 20
292.1581961674732
 30
0.0
 11
295.1958765312444
 21
294.1757260598245
 31
0.0
  0
LINE
  5
2BB8
330
1A
100
AcDbEntity
  8
ﾊｯﾁﾝｸﾞ
 48
5.0
100
AcDbLine
 10
293.158668773505
 20
287.6483902415515
 30
0.0
 11
295.1761986658564
 21
289.6659201339029
 31
0.0
  0
LINE
  5
2BB9
330
1A
100
AcDbEntity
  8
ﾊｯﾁﾝｸﾞ
 48
5.0
100
AcDbLine
 10
293.2177023696692
 20
301.1778080193183
 30
0.0
 11
295.2352322620206
 21
303.1953379116715
 31
0.0
  0
LINE
  5
2BBA
330
1A
100
AcDbEntity
  8
ﾊｯﾁﾝｸﾞ
 48
5.0
100
AcDbLine
 10
293.1980245042793
 20
296.6680020933967
 30
0.0
 11
295.2155543966343
 21
298.6855319857498
 31
0.0
  0
LINE
  5
2BBB
330
1A
100
AcDbEntity
  8
ﾊｯﾁﾝｸﾞ
 48
5.0
100
AcDbLine
 10
293.2373802350573
 20
305.6876139452418
 30
0.0
 11
295.2549101274087
 21
307.7051438375932
 31
0.0
  0
LINE
  5
2BBC
330
1A
100
AcDbEntity
  8
ﾊｯﾁﾝｸﾞ
 48
5.0
100
AcDbLine
 10
293.2570581004436
 20
310.1974198711654
 30
0.0
 11
295.2745879927967
 21
312.2149497635185
 31
0.0
  0
LINE
  5
2BBD
330
1A
100
AcDbEntity
  8
SEIHIN
 48
5.0
100
AcDbLine
 10
295.3238446735338
 20
323.5036777985991
 30
0.0
 11
293.8151179718932
 21
323.5036777985991
 31
0.0
  0
LINE
  5
2BBE
330
1A
100
AcDbEntity
  8
SEIHIN
 48
5.0
100
AcDbLine
 10
293.8151179718932
 20
323.5036777985991
 30
0.0
 11
293.3107546626067
 21
322.5036873178781
 31
0.0
  0
LINE
  5
2BBF
330
1A
100
AcDbEntity
  8
ﾊｯﾁﾝｸﾞ
 48
5.0
100
AcDbLine
 10
293.2964138312215
 20
319.2170317230105
 30
0.0
 11
295.3139437235729
 21
321.2345616153619
 31
0.0
  0
LINE
  5
2BC0
330
1A
100
AcDbEntity
  8
SEIHIN
 48
5.0
100
AcDbLine
 10
385.5730335050964
 20
323.5036777985991
 30
0.0
 11
384.0643068034557
 21
323.5036777985991
 31
0.0
  0
DIMENSION
  5
2BC1
330
1A
100
AcDbEntity
  8
SUNPOU
100
AcDbDimension
  2
*D32
 10
535.6067991357206
 20
323.5036777985991
 30
0.0
 11
529.6067991357205
 21
288.5040109733813
 31
0.0
 70
    32
  1
※<>
 71
     5
 42
69.99933365043574
  3
STANDARD
100
AcDbAlignedDimension
 13
514.6216294320811
 23
253.5043441481633
 33
0.0
 14
517.6216294320811
 24
323.5036777985991
 34
0.0
 50
90.0
100
AcDbRotatedDimension
  0
LINE
  5
2BC2
330
1A
100
AcDbEntity
  8
SEIHIN
 48
5.0
100
AcDbLine
 10
452.5744252351135
 20
323.5036777985991
 30
0.0
 11
452.5744252351135
 21
203.5036777985991
 31
0.0
  0
LINE
  5
2BC3
330
1A
100
AcDbEntity
  8
SEIHIN
 48
5.0
100
AcDbLine
 10
444.6013925687662
 20
323.5036777985992
 30
0.0
 11
444.6013925687662
 21
203.5036777985991
 31
0.0
  0
LINE
  5
2BC4
330
1A
100
AcDbEntity
  8
CENTER L
 48
5.0
100
AcDbLine
 10
416.5879089019397
 20
333.4267985517862
 30
0.0
 11
416.5879089019397
 21
165.1856880368183
 31
0.0
  0
LINE
  5
2BC5
330
1A
100
AcDbEntity
  8
CENTER L
 48
5.0
100
AcDbLine
 10
622.1365709784747
 20
329.0308542289498
 30
0.0
 11
622.1365709784747
 21
168.073939261982
 31
0.0
  0
LINE
  5
2BC6
330
1A
100
AcDbEntity
  8
SEIHIN
 48
5.0
100
AcDbLine
 10
654.2088933488719
 20
220.0786389625358
 30
0.0
 11
654.6601730769595
 21
323.5036777985991
 31
0.0
  0
LINE
  5
2BC7
330
1A
100
AcDbEntity
  8
SEIHIN
 48
5.0
100
AcDbLine
 10
589.6129688799899
 20
323.5036777985991
 30
0.0
 11
590.0642488164192
 21
220.078591214355
 31
0.0
  0
LINE
  5
2BC8
330
1A
100
AcDbEntity
  8
CENTER L
 48
5.0
100
AcDbLine
 10
480.5879089019397
 20
332.728285007582
 30
0.0
 11
480.5879089019397
 21
237.6651121304465
 31
0.0
  0
DIMENSION
  5
2BC9
330
1A
100
AcDbEntity
  8
SUNPOU
100
AcDbDimension
  2
*D33
 10
546.852725095159
 20
323.5036777985991
 30
0.0
 11
540.8527250951589
 21
280.9284263284575
 31
0.0
 70
    32
 71
     5
 42
85.15050294028332
  3
STANDARD
100
AcDbAlignedDimension
 13
512.7399694835355
 23
238.3531748583158
 33
0.0
 14
513.1115110004237
 24
323.5036777985991
 34
0.0
 50
90.0
100
AcDbRotatedDimension
  0
LINE
  5
2BCA
330
1A
100
AcDbEntity
  8
SEIHIN
 48
5.0
100
AcDbLine
 10
512.7399694835355
 20
238.3531748583158
 30
0.0
 11
513.1115110004237
 21
323.5036777985991
 31
0.0
  0
LINE
  5
2BCB
330
1A
100
AcDbEntity
  8
SEIHIN
 48
5.0
100
AcDbLine
 10
653.6387478941994
 20
203.5036777985991
 30
0.0
 11
622.1365709784747
 21
203.5036777985991
 31
0.0
  0
LWPOLYLINE
  5
2BCC
330
1A
100
AcDbEntity
  8
SEIHIN
 48
5.0
100
AcDbPolyline
 90
       16
 70
     0
 43
0.0
 10
637.0466045113191
 20
203.5036777985991
 10
639.0727022226144
 20
204.2109209419217
 10
640.6901347710461
 20
204.8365313450889
 10
642.2436461383274
 20
205.5201073264073
 10
643.7299290427724
 20
206.2612315271093
 10
645.1426476827726
 20
207.0581593900245
 10
646.4754501774202
 20
207.9088707432168
 10
647.7219981231772
 20
208.8110330499133
 10
648.8760155249981
 20
209.7619647973536
 10
649.9313486442932
 20
210.7585931180041
 10
650.8820419333094
 20
211.7974062511042
 10
651.7224372828438
 20
212.8744058791129
 10
652.4473035088592
 20
213.985072087977
 10
653.0519967812741
 20
215.1243633098314
 10
653.5326374347731
 20
216.2867795274399
 10
653.8315310934356
 20
217.2839088176591
  0
LINE
  5
2BCD
330
1A
100
AcDbEntity
  8
SEIHIN
 48
5.0
100
AcDbLine
 10
650.2129190306275
 20
173.5036777985991
 30
0.0
 11
594.060222926322
 21
173.5036777985991
 31
0.0
  0
LINE
  5
2BCE
330
1A
100
AcDbEntity
  8
SEIHIN
 48
5.0
100
AcDbLine
 10
593.7078657070103
 20
176.5032208840679
 30
0.0
 11
650.5652762499392
 21
176.5032208840679
 31
0.0
  0
DIMENSION
  5
2BCF
330
1A
100
AcDbEntity
  8
SUNPOU
100
AcDbDimension
  2
*D34
 10
590.1377894404211
 20
154.5079989900117
 30
0.0
 11
622.1371802094479
 21
160.5079989900117
 31
0.0
 70
    32
 71
     5
 42
63.99878153805366
  3
STANDARD
100
AcDbAlignedDimension
 13
654.1365709784748
 23
203.5036777985991
 33
0.0
 14
590.1377894404211
 24
203.2244286626522
 34
0.0
100
AcDbRotatedDimension
  0
LWPOLYLINE
  5
2BD0
330
1A
100
AcDbEntity
  8
SEIHIN
 48
5.0
100
AcDbPolyline
 90
       34
 70
     0
 43
0.0
 10
590.3980050367551
 20
222.7386942605429
 10
590.9664128053662
 20
224.417364422616
 10
591.8389708450174
 20
226.1038687459444
 10
593.0335883247969
 20
227.7844226313012
 10
594.5454895714317
 20
229.4176528237188
 10
596.2156688951088
 20
230.859180140855
 10
598.1596329016736
 20
232.231009977428
 10
600.422541052865
 20
233.5397150836764
 10
602.9698959418363
 20
234.7398640619398
 10
605.3089870958118
 20
235.6424665811285
 10
607.8314052651109
 20
236.4394056054665
 10
610.5391270527832
 20
237.11961344798
 10
613.432604711297
 20
237.669027304901
 10
616.1330030139558
 20
238.030946954865
 10
618.68136609527
 20
238.2470780313454
 10
621.2814115231046
 20
238.3466935801337
 10
623.6664335325456
 20
238.33242374916
 10
626.0053355158759
 20
238.2200613192129
 10
628.3335984557304
 20
238.0096428471828
 10
630.6342661827946
 20
237.701663938977
 10
632.8912172091602
 20
237.297723356802
 10
635.0488936275375
 20
236.810507089542
 10
637.1352731760396
 20
236.236940467363
 10
639.1375984558997
 20
235.5812738877105
 10
641.0448525730332
 20
234.8481910344984
 10
643.4588439595406
 20
233.7411952912737
 10
645.6651115567289
 20
232.5119414895965
 10
647.8713142184804
 20
231.0029047005485
 10
649.3458048277277
 20
229.774482705969
 10
650.6347463945001
 20
228.4867800214636
 10
651.7354178725398
 20
227.1438969034355
 10
652.6437226240538
 20
225.7491900330245
 10
653.39954901557
 20
224.1935174593821
 10
653.8698717918921
 20
222.7311746435337
  0
LINE
  5
2BD1
330
1A
100
AcDbEntity
  8
SEIHIN
 48
5.0
100
AcDbLine
 10
445.016614173405
 20
176.5032208840679
 30
0.0
 11
445.4879089019384
 21
203.5036777985991
 31
0.0
  0
DIMENSION
  5
2BD2
330
1A
100
AcDbEntity
  8
SUNPOU
100
AcDbDimension
  2
*D35
 10
466.2567413685653
 20
173.5036777985991
 30
0.0
 11
460.2567413685653
 21
188.5036777985991
 31
0.0
 70
    32
  1
※<>
 71
     5
 42
30.0
  3
STANDARD
100
AcDbAlignedDimension
 13
445.4879089019384
 23
203.5036777985991
 33
0.0
 14
444.6642569540934
 24
173.5036777985991
 34
0.0
 50
90.0
100
AcDbRotatedDimension
  0
LINE
  5
2BD3
330
1A
100
AcDbEntity
  8
SEIHIN
 48
5.0
100
AcDbLine
 10
444.6642569540934
 20
173.5036777985991
 30
0.0
 11
445.016614173405
 21
176.5032208840679
 31
0.0
  0
LINE
  5
2BD4
330
1A
100
AcDbEntity
  8
SEIHIN
 48
5.0
100
AcDbLine
 10
512.4899742431759
 20
237.922343811066
 30
0.0
 11
452.944711223107
 21
203.5438701774641
 31
0.0
  0
ARC
  5
2BD5
330
1A
100
AcDbEntity
  8
SEIHIN
 48
5.0
100
AcDbCircle
 10
452.7947112231074
 20
203.8036777985984
 30
0.0
 40
0.3000000000000258
100
AcDbArc
 50
270.0
 51
300.000000000015
  0
ARC
  5
2BD6
330
1A
100
AcDbEntity
  8
SEIHIN
 48
5.0
100
AcDbCircle
 10
512.239974243176
 20
238.355356512959
 30
0.0
 40
0.5000000000002192
100
AcDbArc
 50
300.000000000015
 51
359.7500000000084
  0
LINE
  5
2BD7
330
1A
100
AcDbEntity
  8
SEIHIN
 48
5.0
100
AcDbLine
 10
593.2365709784751
 20
203.5036777985991
 30
0.0
 11
593.7078657070103
 21
176.5032208840679
 31
0.0
  0
LINE
  5
2BD8
330
1A
100
AcDbEntity
  8
SEIHIN
 48
5.0
100
AcDbLine
 10
593.7078657070103
 20
176.5032208840679
 30
0.0
 11
594.060222926322
 21
173.5036777985991
 31
0.0
  0
LINE
  5
2BD9
330
1A
100
AcDbEntity
  8
SEIHIN
 48
5.0
100
AcDbLine
 10
622.1365709784747
 20
203.5036777985991
 30
0.0
 11
590.63439406275
 21
203.5036777985991
 31
0.0
  0
LINE
  5
2BDA
330
1A
100
AcDbEntity
  8
SEIHIN
 48
5.0
100
AcDbLine
 10
590.0642488164192
 20
220.078591214355
 30
0.0
 11
590.1343988223889
 21
204.0014961439567
 31
0.0
  0
LWPOLYLINE
  5
2BDB
330
1A
100
AcDbEntity
  8
SEIHIN
 48
5.0
100
AcDbPolyline
 90
       16
 70
     0
 43
0.0
 10
590.447944661422
 20
217.2836908024732
 10
590.5487210233311
 20
216.8713376439703
 10
590.9652800389192
 20
215.7026285243395
 10
591.5073250536022
 20
214.5531371028449
 10
592.1721731986378
 20
213.427904396762
 10
592.9563146674643
 20
212.3319945001825
 10
593.8554097915873
 20
211.2703373066691
 10
594.8643754281654
 20
210.2475751905552
 10
595.9775241277054
 20
209.2679539344684
 10
597.1887160937783
 20
208.3352684205987
 10
598.4914975829122
 20
207.452853049663
 10
599.8792154701366
 20
206.6236000806424
 10
601.3451082325189
 20
205.8499914473144
 10
602.882377760721
 20
205.1341349736961
 10
604.4842465714553
 20
204.4778006008221
 10
607.1926656677493
 20
203.5036777985991
  0
ARC
  5
2BDC
330
1A
100
AcDbEntity
  8
SEIHIN
 48
5.0
100
AcDbCircle
 10
590.63439406275
 20
204.0036777985991
 30
0.0
 40
0.5
100
AcDbArc
 50
180.2500000000176
 51
270.0
  0
ARC
  5
2BDD
330
1A
100
AcDbEntity
  8
SEIHIN
 48
5.0
100
AcDbCircle
 10
598.9586984443974
 20
220.1430919621092
 30
0.0
 40
8.945536479792702
100
AcDbArc
 50
163.1326961200407
 51
197.8013493029878
  0
LINE
  5
2BDE
330
1A
100
AcDbEntity
  8
SEIHIN
 48
5.0
100
AcDbLine
 10
650.5652762499392
 20
176.5032208840679
 30
0.0
 11
651.0365709784744
 21
203.5036777985991
 31
0.0
  0
LINE
  5
2BDF
330
1A
100
AcDbEntity
  8
SEIHIN
 48
5.0
100
AcDbLine
 10
650.2129190306275
 20
173.5036777985991
 30
0.0
 11
650.5652762499392
 21
176.5032208840679
 31
0.0
  0
LINE
  5
2BE0
330
1A
100
AcDbEntity
  8
SEIHIN
 48
5.0
100
AcDbLine
 10
654.1387431345604
 20
204.0014961439567
 30
0.0
 11
654.2088933488719
 21
220.0786389625358
 31
0.0
  0
ARC
  5
2BE1
330
1A
100
AcDbEntity
  8
SEIHIN
 48
5.0
100
AcDbCircle
 10
653.6387478941994
 20
204.0036777985991
 30
0.0
 40
0.5000000000001095
100
AcDbArc
 50
270.0
 51
359.7500000000084
  0
ARC
  5
2BE2
330
1A
100
AcDbEntity
  8
SEIHIN
 48
5.0
100
AcDbCircle
 10
645.3599926849144
 20
220.1238608949173
 30
0.0
 40
8.900344229247163
100
AcDbArc
 50
342.2380967350523
 51
17.03436762082339
  0
LINE
  5
2BE3
330
1A
100
AcDbEntity
  8
SEIHIN
 48
5.0
100
AcDbLine
 10
638.8064079329231
 20
323.5036777985991
 30
0.0
 11
654.6601730769595
 21
323.5036777985991
 31
0.0
  0
LINE
  5
2BE4
330
1A
100
AcDbEntity
  8
SEIHIN
 48
5.0
100
AcDbLine
 10
589.6129688799899
 20
323.5036777985991
 30
0.0
 11
654.6601730769595
 21
323.5036777985991
 31
0.0
  0
DIMENSION
  5
2BE5
330
1A
100
AcDbEntity
  8
SUNPOU
100
AcDbDimension
  2
*D36
 10
654.6601730769595
 20
342.042325022638
 30
0.0
 11
622.1365709784747
 21
348.042325022638
 31
0.0
 70
    32
 71
     5
 42
65.04720419696969
  3
STANDARD
100
AcDbAlignedDimension
 13
589.6129688799899
 23
323.5036777985991
 33
0.0
 14
654.6601730769595
 24
323.5036777985991
 34
0.0
100
AcDbRotatedDimension
  0
LINE
  5
2BE6
330
1A
100
AcDbEntity
  8
CENTER L
 48
5.0
100
AcDbLine
 10
480.5879089019397
 20
385.4078269590963
 30
0.0
 11
480.5879089019397
 21
467.0324592736051
 31
0.0
  0
LINE
  5
2BE7
330
1A
100
AcDbEntity
  8
CENTER L
 48
5.0
100
AcDbLine
 10
416.5879089019397
 20
385.4078269590981
 30
0.0
 11
416.5879089019397
 21
467.0324592736069
 31
0.0
  0
ARC
  5
2BE8
330
1A
100
AcDbEntity
  8
SEIHIN
 48
5.0
100
AcDbCircle
 10
480.5879089019397
 20
426.2201431163506
 30
0.0
 40
30.51051208755772
100
AcDbArc
 50
208.3978094865528
 51
151.6021905134471
  0
ARC
  5
2BE9
330
1A
100
AcDbEntity
  8
SEIHIN
 48
5.0
100
AcDbCircle
 10
480.5879089019397
 20
426.2201431163506
 30
0.0
 40
32.52360209848417
100
AcDbArc
 50
210.8335561417841
 51
149.1664438582158
  0
DIMENSION
  5
2BEA
330
1A
100
AcDbEntity
  8
SUNPOU
100
AcDbDimension
  2
*D37
 10
480.5879089019397
 20
345.7028223631413
 30
0.0
 11
447.2517644725692
 21
345.7028223631413
 31
0.0
 70
   160
 71
     5
 42
64.0
  3
STANDARD
100
AcDbAlignedDimension
 13
416.5879089019397
 23
333.4267985517862
 33
0.0
 14
480.5879089019397
 24
333.4267985517862
 34
0.0
100
AcDbRotatedDimension
  0
DIMENSION
  5
2BEB
330
1A
100
AcDbEntity
  8
SUNPOU
100
AcDbDimension
  2
*D38
 10
453.8955002600276
 20
407.6378931354212
 30
0.0
 11
489.4083675560483
 21
437.5112408345455
 31
0.0
 70
   163
 71
     5
 42
65.04720419696855
  3
STANDARD
100
AcDbDiametricDimension
 15
507.2803175438509
 25
444.802393097279
 35
0.0
 40
0.0
1001
ACAD
1000
DSTYLE
1002
{
1070
   287
1070
     5
1070
   287
1070
     5
1070
   287
1070
     5
1070
   287
1070
     5
1070
   287
1070
     5
1070
   287
1070
     5
1070
   287
1070
     5
1070
   279
1070
     2
1070
   288
1070
     1
1002
}
  0
ARC
  5
2BEC
330
1A
100
AcDbEntity
  8
SEIHIN
 48
5.0
100
AcDbCircle
 10
416.5879089019397
 20
426.2201431163525
 30
0.0
 40
30.51051208755814
100
AcDbArc
 50
332.6808290284765
 51
27.31917097152382
  0
LINE
  5
2BED
330
1A
100
AcDbEntity
  8
SEIHIN
 48
5.0
100
AcDbLine
 10
453.7488257059392
 20
440.2262038882359
 30
0.0
 11
453.7488257059392
 21
412.2124606986822
 31
0.0
  0
ARC
  5
2BEE
330
1A
100
AcDbEntity
  8
SEIHIN
 48
5.0
100
AcDbCircle
 10
442.6222058646888
 20
411.7179813583996
 30
0.0
 40
0.4999896018851055
100
AcDbArc
 50
89.9995287242427
 51
180.0015153363937
  0
LINE
  5
2BEF
330
1A
100
AcDbEntity
  8
SEIHIN
 48
5.0
100
AcDbLine
 10
442.122216262978
 20
409.5201282829147
 30
0.0
 11
442.122216262978
 21
411.7179681348705
 31
0.0
  0
LINE
  5
2BF0
330
1A
100
AcDbEntity
  8
SEIHIN
 48
5.0
100
AcDbLine
 10
442.62220997726
 20
412.2179709602678
 30
0.0
 11
454.5500541756516
 21
412.2120639043139
 31
0.0
  0
LINE
  5
2BF1
330
1A
100
AcDbEntity
  8
SEIHIN
 48
5.0
100
AcDbLine
 10
443.426992097942
 20
411.7096310287928
 30
0.0
 11
453.7488257059392
 21
411.7096310287928
 31
0.0
  0
LINE
  5
2BF2
330
1A
100
AcDbEntity
  8
SEIHIN
 48
5.0
100
AcDbLine
 10
452.4036016412244
 20
409.6965410178676
 30
0.0
 11
444.772216162655
 21
409.6965410178676
 31
0.0
  0
ARC
  5
2BF3
330
1A
100
AcDbEntity
  8
SEIHIN
 48
5.0
100
AcDbCircle
 10
444.7722159461952
 20
409.396544254951
 30
0.0
 40
0.2999967629158147
100
AcDbArc
 50
89.99995865857499
 51
149.166485199742
  0
ARC
  5
2BF4
330
1A
100
AcDbEntity
  8
SEIHIN
 48
5.0
100
AcDbCircle
 10
454.546337717207
 20
411.709880591611
 30
0.0
 40
0.5021970645292066
100
AcDbArc
 50
359.9617954894912
 51
89.57598452416432
  0
LINE
  5
2BF5
330
1A
100
AcDbEntity
  8
SEIHIN
 48
5.0
100
AcDbLine
 10
455.0485346700932
 20
411.7095457293951
 30
0.0
 11
455.0485346700931
 21
409.52787809058
 31
0.0
  0
ARC
  5
2BF6
330
1A
100
AcDbEntity
  8
SEIHIN
 48
5.0
100
AcDbCircle
 10
452.4036018576859
 20
409.396544254951
 30
0.0
 40
0.2999967629162014
100
AcDbArc
 50
30.83351480035684
 51
90.000041341425
  0
ARC
  5
2BF7
330
1A
100
AcDbEntity
  8
SEIHIN
 48
5.0
100
AcDbCircle
 10
442.6222058646888
 20
440.7223048743057
 30
0.0
 40
0.4999896018851055
100
AcDbArc
 50
179.9984846636062
 51
270.0004712757573
  0
LINE
  5
2BF8
330
1A
100
AcDbEntity
  8
SEIHIN
 48
5.0
100
AcDbLine
 10
442.122216262978
 20
442.9201579497906
 30
0.0
 11
442.122216262978
 21
440.7223180978347
 31
0.0
  0
LINE
  5
2BF9
330
1A
100
AcDbEntity
  8
SEIHIN
 48
5.0
100
AcDbLine
 10
442.62220997726
 20
440.2223152724375
 30
0.0
 11
454.5500541756516
 21
440.2282223283913
 31
0.0
  0
LINE
  5
2BFA
330
1A
100
AcDbEntity
  8
SEIHIN
 48
5.0
100
AcDbLine
 10
453.7488257059392
 20
440.7306552039084
 30
0.0
 11
443.426992097942
 21
440.7306552039084
 31
0.0
  0
LINE
  5
2BFB
330
1A
100
AcDbEntity
  8
SEIHIN
 48
5.0
100
AcDbLine
 10
452.4036016412244
 20
442.7437452148355
 30
0.0
 11
444.772216162655
 21
442.7437452148355
 31
0.0
  0
ARC
  5
2BFC
330
1A
100
AcDbEntity
  8
SEIHIN
 48
5.0
100
AcDbCircle
 10
444.7722159461952
 20
443.0437419777521
 30
0.0
 40
0.2999967629166131
100
AcDbArc
 50
210.8335148003816
 51
270.0000413413207
  0
LINE
  5
2BFD
330
1A
100
AcDbEntity
  8
SEIHIN
 48
5.0
100
AcDbLine
 10
455.0485346700932
 20
440.7307405033101
 30
0.0
 11
455.0485346700931
 21
442.9124081421252
 31
0.0
  0
ARC
  5
2BFE
330
1A
100
AcDbEntity
  8
SEIHIN
 48
5.0
100
AcDbCircle
 10
454.546337717207
 20
440.7304056410943
 30
0.0
 40
0.5021970645292066
100
AcDbArc
 50
270.4240154758356
 51
0.0382045105087655
  0
ARC
  5
2BFF
330
1A
100
AcDbEntity
  8
SEIHIN
 48
5.0
100
AcDbCircle
 10
452.4036018576859
 20
443.0437419777521
 30
0.0
 40
0.2999967629157565
100
AcDbArc
 50
269.999958658575
 51
329.166485199742
  0
LINE
  5
2C00
330
1A
100
AcDbEntity
  8
SEIHIN
 48
5.0
100
AcDbLine
 10
589.6129688799899
 20
323.5036777985991
 30
0.0
 11
605.4667340240282
 21
323.5036777985991
 31
0.0
  0
LINE
  5
2C01
330
1A
100
AcDbEntity
  8
SEIHIN
 48
5.0
100
AcDbLine
 10
605.4667340240282
 20
323.5036777985991
 30
0.0
 11
605.6129688799899
 21
323.5036777985991
 31
0.0
  0
LINE
  5
2C02
330
1A
100
AcDbEntity
  8
SEIHIN
 48
5.0
100
AcDbLine
 10
638.6601730769596
 20
323.5036777985991
 30
0.0
 11
638.8064079329231
 21
323.5036777985991
 31
0.0
  0
VIEWPORT
  5
22
330
17
100
AcDbEntity
 67
     1
  8
0
100
AcDbViewport
 10
313.6808219178082
 20
148.5
 30
0.0
 40
627.3616438356165
 41
297.0
 68
     2
 69
     1
 12
313.6808219178082
 22
148.5
 13
0.0
 23
0.0
 14
1.0
 24
1.0
 15
10.0
 25
10.0
 16
0.0
 26
0.0
 36
1.0
 17
0.0
 27
0.0
 37
0.0
 42
50.0
 43
0.0
 44
0.0
 45
297.0
 50
0.0
 51
0.0
 72
   100
 90
    32768
  1

281
     0
 71
     1
 74
     0
110
0.0
120
0.0
130
0.0
111
1.0
121
0.0
131
0.0
112
0.0
122
1.0
132
0.0
 79
     0
146
0.0
  0
VIEWPORT
  5
64
330
17
100
AcDbEntity
 67
     1
  8
VIEWPORT
100
AcDbViewport
 10
210.0
 20
148.5
 30
0.0
 40
420.0
 41
297.0
 68
     1
 69
     2
 12
420.0
 22
297.0
 13
0.0
 23
0.0
 14
10.0
 24
10.0
 15
0.0
 25
0.0
 16
0.0
 26
0.0
 36
1.0
 17
0.0
 27
0.0
 37
0.0
 42
50.0
 43
0.0
 44
0.0
 45
605.8799999999998
 50
0.0
 51
0.0
 72
   100
 90
    32768
  1

281
     0
 71
     1
 74
     0
110
0.0
120
0.0
130
0.0
111
1.0
121
0.0
131
0.0
112
0.0
122
1.0
132
0.0
 79
     0
146
0.0
  0
ENDSEC
  0
SECTION
  2
OBJECTS
  0
DICTIONARY
  5
C
330
0
100
AcDbDictionary
281
     1
  3
ACAD_GROUP
350
D
  3
ACAD_LAYOUT
350
14C
  3
ACAD_MLINESTYLE
350
E
  3
ACAD_PLOTSETTINGS
350
14D
  3
ACAD_PLOTSTYLENAME
350
14A
  0
DICTIONARY
  5
CFB
330
1A
100
AcDbDictionary
280
     1
281
     1
  3
ACAD_LAYOUTSELFREF
360
27A8
  0
DICTIONARY
  5
CF9
330
17
100
AcDbDictionary
280
     1
281
     1
  3
ACAD_LAYOUTSELFREF
360
27A7
  0
DICTIONARY
  5
D
102
{ACAD_REACTORS
330
C
102
}
330
C
100
AcDbDictionary
281
     1
  0
DICTIONARY
  5
14C
102
{ACAD_REACTORS
330
C
102
}
330
C
100
AcDbDictionary
281
     1
  3
Model
350
14E
  3
ﾚｲｱｳﾄ1
350
14F
  0
DICTIONARY
  5
E
102
{ACAD_REACTORS
330
C
102
}
330
C
100
AcDbDictionary
281
     1
  3
STANDARD
350
13
  0
DICTIONARY
  5
14D
102
{ACAD_REACTORS
330
C
102
}
330
C
100
AcDbDictionary
281
     1
  0
ACDBDICTIONARYWDFLT
  5
14A
102
{ACAD_REACTORS
330
C
102
}
330
C
100
AcDbDictionary
281
     1
  3
Normal
350
14B
100
AcDbDictionaryWithDefault
340
14B
1001
ACAD
1000
TREAT_AS_HARD
1070
     0
1000
TREAT_AS_HARD
1070
     0
1000
TREAT_AS_HARD
1070
     0
  0
XRECORD
  5
27A8
102
{ACAD_REACTORS
330
CFB
102
}
330
CFB
100
AcDbXrecord
280
     1
340
1A
  0
XRECORD
  5
27A7
102
{ACAD_REACTORS
330
CF9
102
}
330
CF9
100
AcDbXrecord
280
     1
340
17
  0
LAYOUT
  5
14E
102
{ACAD_REACTORS
330
14C
102
}
330
14C
100
AcDbPlotSettings
  1

  2
Acrobat Distiller
  4
A3
  6

 40
3.174999952316284
 41
3.174999952316284
 42
3.17498779296875
 43
3.17498779296875
 44
297.0318298339843
 45
420.1583251953125
 46
7.0
 47
7.0
 48
-3.141893428214643
 49
2.226765358008606
140
826.862778806495
141
580.5215870209385
142
1.0
143
2.0
 70
 11952
 72
     1
 73
     1
 74
     2
  7
print.ctb
 75
    17
147
0.5
148
0.0
149
0.0
100
AcDbLayout
  1
Model
 70
     1
 71
     0
 10
0.0
 20
0.0
 11
12.0
 21
9.0
 12
0.0
 22
0.0
 32
0.0
 14
0.0
 24
0.0
 34
0.0
 15
0.0
 25
0.0
 35
0.0
146
0.0
 13
0.0
 23
0.0
 33
0.0
 16
1.0
 26
0.0
 36
0.0
 17
0.0
 27
1.0
 37
0.0
 76
     0
330
1A
  0
LAYOUT
  5
14F
102
{ACAD_REACTORS
330
14C
102
}
330
14C
100
AcDbPlotSettings
  1

  2
Canon LBP-A404 LIPS3
  4

  6

 40
0.0
 41
0.0
 42
0.0
 43
0.0
 44
0.0
 45
0.0
 46
0.0
 47
0.0
 48
0.0
 49
0.0
140
0.0
141
0.0
142
1.0
143
1.0
 70
   688
 72
     0
 73
     0
 74
     5
  7
print.ctb
 75
    16
147
1.0
148
0.0
149
0.0
100
AcDbLayout
  1
ﾚｲｱｳﾄ1
 70
     1
 71
     1
 10
0.0
 20
0.0
 11
420.0
 21
297.0
 12
0.0
 22
0.0
 32
0.0
 14
0.0
 24
0.0
 34
0.0
 15
420.0
 25
297.0
 35
0.0
146
0.0
 13
0.0
 23
0.0
 33
0.0
 16
1.0
 26
0.0
 36
0.0
 17
0.0
 27
1.0
 37
0.0
 76
     0
330
17
331
64
  0
MLINESTYLE
  5
13
102
{ACAD_REACTORS
330
E
102
}
330
E
100
AcDbMlineStyle
  2
STANDARD
 70
     0
  3

 62
     0
 51
90.0
 52
90.0
 71
     2
 49
0.5
 62
   256
  6
BYLAYER
 49
-0.5
 62
   256
  6
BYLAYER
  0
ACDBPLACEHOLDER
  5
14B
102
{ACAD_REACTORS
330
14A
102
}
330
14A
  0
ENDSEC
  0
EOF
