  0
SECTION
  2
HEADER
  9
$ACADVER
  1
AC1015
  9
$ACADMAINTVER
 70
    20
  9
$DWGCODEPAGE
  3
ANSI_932
  9
$INSBASE
 10
0.0
 20
0.0
 30
0.0
  9
$EXTMIN
 10
831.3934409867668
 20
79.07888705118548
 30
0.0
  9
$EXTMAX
 10
1106.545553741879
 20
269.367133535288
 30
0.0
  9
$LIMMIN
 10
0.0
 20
0.0
  9
$LIMMAX
 10
420.0
 20
297.0
  9
$ORTHOMODE
 70
     1
  9
$REGENMODE
 70
     1
  9
$FILLMODE
 70
     1
  9
$QTEXTMODE
 70
     0
  9
$MIRRTEXT
 70
     1
  9
$LTSCALE
 40
1.0
  9
$ATTMODE
 70
     1
  9
$TEXTSIZE
 40
2.5
  9
$TRACEWID
 40
1.0
  9
$TEXTSTYLE
  7
kanji
  9
$CLAYER
  8
寸法
  9
$CELTYPE
  6
BYLAYER
  9
$CECOLOR
 62
   256
  9
$CELTSCALE
 40
1.0
  9
$DISPSILH
 70
     0
  9
$DIMSCALE
 40
1.0
  9
$DIMASZ
 40
3.0
  9
$DIMEXO
 40
3.0
  9
$DIMDLI
 40
7.0
  9
$DIMRND
 40
0.0
  9
$DIMDLE
 40
0.0
  9
$DIMEXE
 40
1.5
  9
$DIMTP
 40
0.0
  9
$DIMTM
 40
0.0
  9
$DIMTXT
 40
3.0
  9
$DIMCEN
 40
15.0
  9
$DIMTSZ
 40
0.0
  9
$DIMTOL
 70
     0
  9
$DIMLIM
 70
     0
  9
$DIMTIH
 70
     0
  9
$DIMTOH
 70
     0
  9
$DIMSE1
 70
     0
  9
$DIMSE2
 70
     0
  9
$DIMTAD
 70
     3
  9
$DIMZIN
 70
     0
  9
$DIMBLK
  1
Open30
  9
$DIMASO
 70
     1
  9
$DIMSHO
 70
     1
  9
$DIMPOST
  1

  9
$DIMAPOST
  1

  9
$DIMALT
 70
     0
  9
$DIMALTD
 70
     2
  9
$DIMALTF
 40
25.4
  9
$DIMLFAC
 40
1.0
  9
$DIMTOFL
 70
     1
  9
$DIMTVP
 40
0.0
  9
$DIMTIX
 70
     0
  9
$DIMSOXD
 70
     0
  9
$DIMSAH
 70
     0
  9
$DIMBLK1
  1

  9
$DIMBLK2
  1

  9
$DIMSTYLE
  2
STANDARD
  9
$DIMCLRD
 70
     4
  9
$DIMCLRE
 70
     4
  9
$DIMCLRT
 70
     4
  9
$DIMTFAC
 40
1.0
  9
$DIMGAP
 40
1.5
  9
$DIMJUST
 70
     0
  9
$DIMSD1
 70
     0
  9
$DIMSD2
 70
     0
  9
$DIMTOLJ
 70
     1
  9
$DIMTZIN
 70
     0
  9
$DIMALTZ
 70
     0
  9
$DIMALTTZ
 70
     0
  9
$DIMUPT
 70
     0
  9
$DIMDEC
 70
     0
  9
$DIMTDEC
 70
     0
  9
$DIMALTU
 70
     2
  9
$DIMALTTD
 70
     2
  9
$DIMTXSTY
  7
STANDARD
  9
$DIMAUNIT
 70
     0
  9
$DIMADEC
 70
     0
  9
$DIMALTRND
 40
0.0
  9
$DIMAZIN
 70
     0
  9
$DIMDSEP
 70
    46
  9
$DIMATFIT
 70
     3
  9
$DIMFRAC
 70
     0
  9
$DIMLDRBLK
  1
Open30
  9
$DIMLUNIT
 70
     2
  9
$DIMLWD
 70
    -2
  9
$DIMLWE
 70
    -2
  9
$DIMTMOVE
 70
     0
  9
$LUNITS
 70
     2
  9
$LUPREC
 70
     4
  9
$SKETCHINC
 40
1.0
  9
$FILLETRAD
 40
10.0
  9
$AUNITS
 70
     0
  9
$AUPREC
 70
     0
  9
$MENU
  1
.
  9
$ELEVATION
 40
0.0
  9
$PELEVATION
 40
0.0
  9
$THICKNESS
 40
0.0
  9
$LIMCHECK
 70
     0
  9
$CHAMFERA
 40
10.0
  9
$CHAMFERB
 40
10.0
  9
$CHAMFERC
 40
20.0
  9
$CHAMFERD
 40
0.0
  9
$SKPOLY
 70
     0
  9
$TDCREATE
 40
2450994.350997107
  9
$TDUCREATE
 40
2450993.975997107
  9
$TDUPDATE
 40
2459167.567767199
  9
$TDUUPDATE
 40
2459167.192767199
  9
$TDINDWG
 40
0.0602091319
  9
$TDUSRTIMER
 40
0.0602091319
  9
$USRTIMER
 70
     1
  9
$ANGBASE
 50
0.0
  9
$ANGDIR
 70
     0
  9
$PDMODE
 70
     1
  9
$PDSIZE
 40
0.0
  9
$PLINEWID
 40
0.0
  9
$SPLFRAME
 70
     0
  9
$SPLINETYPE
 70
     6
  9
$SPLINESEGS
 70
     8
  9
$HANDSEED
  5
7E2
  9
$SURFTAB1
 70
     6
  9
$SURFTAB2
 70
     6
  9
$SURFTYPE
 70
     6
  9
$SURFU
 70
     6
  9
$SURFV
 70
     6
  9
$UCSBASE
  2

  9
$UCSNAME
  2

  9
$UCSORG
 10
0.0
 20
0.0
 30
0.0
  9
$UCSXDIR
 10
1.0
 20
0.0
 30
0.0
  9
$UCSYDIR
 10
0.0
 20
1.0
 30
0.0
  9
$UCSORTHOREF
  2

  9
$UCSORTHOVIEW
 70
     0
  9
$UCSORGTOP
 10
0.0
 20
0.0
 30
0.0
  9
$UCSORGBOTTOM
 10
0.0
 20
0.0
 30
0.0
  9
$UCSORGLEFT
 10
0.0
 20
0.0
 30
0.0
  9
$UCSORGRIGHT
 10
0.0
 20
0.0
 30
0.0
  9
$UCSORGFRONT
 10
0.0
 20
0.0
 30
0.0
  9
$UCSORGBACK
 10
0.0
 20
0.0
 30
0.0
  9
$PUCSBASE
  2

  9
$PUCSNAME
  2

  9
$PUCSORG
 10
0.0
 20
0.0
 30
0.0
  9
$PUCSXDIR
 10
1.0
 20
0.0
 30
0.0
  9
$PUCSYDIR
 10
0.0
 20
1.0
 30
0.0
  9
$PUCSORTHOREF
  2

  9
$PUCSORTHOVIEW
 70
     0
  9
$PUCSORGTOP
 10
0.0
 20
0.0
 30
0.0
  9
$PUCSORGBOTTOM
 10
0.0
 20
0.0
 30
0.0
  9
$PUCSORGLEFT
 10
0.0
 20
0.0
 30
0.0
  9
$PUCSORGRIGHT
 10
0.0
 20
0.0
 30
0.0
  9
$PUCSORGFRONT
 10
0.0
 20
0.0
 30
0.0
  9
$PUCSORGBACK
 10
0.0
 20
0.0
 30
0.0
  9
$USERI1
 70
     0
  9
$USERI2
 70
     0
  9
$USERI3
 70
     0
  9
$USERI4
 70
     0
  9
$USERI5
 70
     0
  9
$USERR1
 40
0.0
  9
$USERR2
 40
0.0
  9
$USERR3
 40
0.0
  9
$USERR4
 40
0.0
  9
$USERR5
 40
0.0
  9
$WORLDVIEW
 70
     1
  9
$SHADEDGE
 70
     3
  9
$SHADEDIF
 70
    70
  9
$TILEMODE
 70
     0
  9
$MAXACTVP
 70
    16
  9
$PINSBASE
 10
0.0
 20
0.0
 30
0.0
  9
$PLIMCHECK
 70
     0
  9
$PEXTMIN
 10
-63.74323948185497
 20
-15.5656985835908
 30
0.0
  9
$PEXTMAX
 10
490.2985485181907
 20
372.7890336595101
 30
0.0
  9
$PLIMMIN
 10
-66.94226540695627
 20
-18.74154380681261
  9
$PLIMMAX
 10
230.0895644270281
 20
191.168292008617
  9
$UNITMODE
 70
     0
  9
$VISRETAIN
 70
     0
  9
$PLINEGEN
 70
     0
  9
$PSLTSCALE
 70
     1
  9
$TREEDEPTH
 70
  3020
  9
$CMLSTYLE
  2
STANDARD
  9
$CMLJUST
 70
     0
  9
$CMLSCALE
 40
1.0
  9
$PROXYGRAPHICS
 70
     1
  9
$MEASUREMENT
 70
     1
  9
$CELWEIGHT
370
    -1
  9
$ENDCAPS
280
     0
  9
$JOINSTYLE
280
     0
  9
$LWDISPLAY
290
     0
  9
$INSUNITS
 70
     0
  9
$HYPERLINKBASE
  1

  9
$STYLESHEET
  1
monochrome.ctb
  9
$XEDIT
290
     1
  9
$CEPSNTYPE
380
     0
  9
$PSTYLEMODE
290
     1
  9
$FINGERPRINTGUID
  2
{D5C42BA0-D3BA-11D7-B8F8-000039219C21}
  9
$VERSIONGUID
  2
{FD59EEAB-B73F-47E5-A0A7-C757F31FC02A}
  9
$EXTNAMES
290
     1
  9
$PSVPSCALE
 40
0.0
  9
$OLESTARTUP
290
     0
  0
ENDSEC
  0
SECTION
  2
CLASSES
  0
CLASS
  1
ACDBDICTIONARYWDFLT
  2
AcDbDictionaryWithDefault
  3
ObjectDBX Classes
 90
        0
280
     0
281
     0
  0
CLASS
  1
ACDBPLACEHOLDER
  2
AcDbPlaceHolder
  3
ObjectDBX Classes
 90
        0
280
     0
281
     0
  0
CLASS
  1
LAYOUT
  2
AcDbLayout
  3
ObjectDBX Classes
 90
        0
280
     0
281
     0
  0
CLASS
  1
DICTIONARYVAR
  2
AcDbDictionaryVar
  3
ObjectDBX Classes
 90
        0
280
     0
281
     0
  0
ENDSEC
  0
SECTION
  2
TABLES
  0
TABLE
  2
VPORT
  5
8
330
0
100
AcDbSymbolTable
 70
     1
  0
VPORT
  5
7CD
330
8
100
AcDbSymbolTableRecord
100
AcDbViewportTableRecord
  2
*Active
 70
     0
 10
0.0
 20
0.0
 11
1.0
 21
1.0
 12
988.4014292303938
 22
186.1358877507045
 13
0.0
 23
0.0
 14
5.0
 24
5.0
 15
0.0
 25
0.0
 16
0.0
 26
0.0
 36
1.0
 17
0.0
 27
0.0
 37
0.0
 40
240.7724983693601
 41
1.922916666666666
 42
50.0
 43
0.0
 44
0.0
 50
0.0
 51
0.0
 71
     0
 72
   100
 73
     1
 74
     0
 75
     0
 76
     0
 77
     0
 78
     0
281
     0
 65
     1
110
0.0
120
0.0
130
0.0
111
1.0
121
0.0
131
0.0
112
0.0
122
1.0
132
0.0
 79
     0
146
0.0
  0
ENDTAB
  0
TABLE
  2
LTYPE
  5
5
330
0
100
AcDbSymbolTable
 70
     4
  0
LTYPE
  5
14
330
5
100
AcDbSymbolTableRecord
100
AcDbLinetypeTableRecord
  2
BYBLOCK
 70
     0
  3

 72
    65
 73
     0
 40
0.0
  0
LTYPE
  5
15
330
5
100
AcDbSymbolTableRecord
100
AcDbLinetypeTableRecord
  2
BYLAYER
 70
     0
  3

 72
    65
 73
     0
 40
0.0
  0
LTYPE
  5
16
330
5
100
AcDbSymbolTableRecord
100
AcDbLinetypeTableRecord
  2
CONTINUOUS
 70
     0
  3
Solid line
 72
    65
 73
     0
 40
0.0
  0
LTYPE
  5
120
330
5
100
AcDbSymbolTableRecord
100
AcDbLinetypeTableRecord
  2
CENTER
 70
     0
  3
____ _ ____ _ ____ _ ____ _ ____ _ ____ _ ____ 
 72
    65
 73
     4
 40
2.0
 49
1.25
 74
     0
 49
-0.25
 74
     0
 49
0.25
 74
     0
 49
-0.25
 74
     0
  0
LTYPE
  5
122
330
5
100
AcDbSymbolTableRecord
100
AcDbLinetypeTableRecord
  2
PHANTOM
 70
     0
  3
______  __  __  ______  __  __  ______  __  __ 
 72
    65
 73
     6
 40
2.5
 49
1.25
 74
     0
 49
-0.25
 74
     0
 49
0.25
 74
     0
 49
-0.25
 74
     0
 49
0.25
 74
     0
 49
-0.25
 74
     0
  0
LTYPE
  5
12B
330
5
100
AcDbSymbolTableRecord
100
AcDbLinetypeTableRecord
  2
DASHED
 70
     0
  3
__ __ __ __ __ __ __ __ __ __ __ __ __ __ __ __
 72
    65
 73
     2
 40
0.75
 49
0.5
 74
     0
 49
-0.25
 74
     0
  0
ENDTAB
  0
TABLE
  2
LAYER
  5
2
102
{ACAD_XDICTIONARY
360
66A
102
}
330
0
100
AcDbSymbolTable
 70
    12
  0
LAYER
  5
F
330
2
100
AcDbSymbolTableRecord
100
AcDbLayerTableRecord
  2
0
 70
     0
 62
     7
  6
CONTINUOUS
370
    -3
390
159
  0
LAYER
  5
62
330
2
100
AcDbSymbolTableRecord
100
AcDbLayerTableRecord
  2
VIEWPORT
 70
     0
 62
     7
  6
CONTINUOUS
370
    -3
390
159
  0
LAYER
  5
6B
330
2
100
AcDbSymbolTableRecord
100
AcDbLayerTableRecord
  2
図枠
 70
     0
 62
     7
  6
CONTINUOUS
370
    -3
390
159
  0
LAYER
  5
14E
330
2
100
AcDbSymbolTableRecord
100
AcDbLayerTableRecord
  2
軒樋
 70
     0
 62
     8
  6
PHANTOM
370
    -3
390
159
  0
LAYER
  5
14F
330
2
100
AcDbSymbolTableRecord
100
AcDbLayerTableRecord
  2
製品
 70
     0
 62
     3
  6
CONTINUOUS
370
    -3
390
159
  0
LAYER
  5
150
330
2
100
AcDbSymbolTableRecord
100
AcDbLayerTableRecord
  2
寸法
 70
     0
 62
     4
  6
CONTINUOUS
370
    -3
390
159
  0
LAYER
  5
151
330
2
100
AcDbSymbolTableRecord
100
AcDbLayerTableRecord
  2
中心線
 70
     0
 62
     1
  6
CENTER
370
    -3
390
159
  0
LAYER
  5
16E
330
2
100
AcDbSymbolTableRecord
100
AcDbLayerTableRecord
  2
Defpoints
 70
     0
 62
     7
  6
CONTINUOUS
290
     0
370
    -3
390
159
  0
LAYER
  5
180
330
2
100
AcDbSymbolTableRecord
100
AcDbLayerTableRecord
  2
ZUWAKU
 70
     0
 62
     7
  6
CONTINUOUS
370
    -3
390
159
  0
LAYER
  5
181
330
2
100
AcDbSymbolTableRecord
100
AcDbLayerTableRecord
  2
MOJI
 70
     0
 62
     2
  6
CONTINUOUS
370
    -3
390
159
  0
LAYER
  5
446
330
2
100
AcDbSymbolTableRecord
100
AcDbLayerTableRecord
  2
SEIHIN
 70
     0
 62
     3
  6
CONTINUOUS
370
    -3
390
159
  0
LAYER
  5
447
330
2
100
AcDbSymbolTableRecord
100
AcDbLayerTableRecord
  2
SUNPOU
 70
     0
 62
     4
  6
CONTINUOUS
370
    -3
390
159
  0
ENDTAB
  0
TABLE
  2
STYLE
  5
3
330
0
100
AcDbSymbolTable
 70
     3
  0
STYLE
  5
10
330
3
100
AcDbSymbolTableRecord
100
AcDbTextStyleTableRecord
  2
STANDARD
 70
     0
 40
0.0
 41
1.0
 50
0.0
 71
     0
 42
2.5
  3
TXT
  4
bigfont.shx
  0
STYLE
  5
16C
330
3
100
AcDbSymbolTableRecord
100
AcDbTextStyleTableRecord
  2
kanji
 70
     0
 40
0.0
 41
1.0
 50
0.0
 71
     0
 42
2.5
  3
TXT.shx
  4
bigfont.shx
  0
STYLE
  5
182
330
3
100
AcDbSymbolTableRecord
100
AcDbTextStyleTableRecord
  2
ｽﾀｲﾙ1
 70
     0
 40
0.0
 41
1.0
 50
0.0
 71
     0
 42
2.5
  3

  4

1001
ACAD
1000
MS PGothic
1071
    32818
  0
ENDTAB
  0
TABLE
  2
VIEW
  5
6
330
0
100
AcDbSymbolTable
 70
     0
  0
ENDTAB
  0
TABLE
  2
UCS
  5
7
330
0
100
AcDbSymbolTable
 70
     0
  0
ENDTAB
  0
TABLE
  2
APPID
  5
9
330
0
100
AcDbSymbolTable
 70
     1
  0
APPID
  5
11
330
9
100
AcDbSymbolTableRecord
100
AcDbRegAppTableRecord
  2
ACAD
 70
     0
  0
ENDTAB
  0
TABLE
  2
DIMSTYLE
  5
A
330
0
100
AcDbSymbolTable
 70
     8
100
AcDbDimStyleTable
 71
     1
340
1D
  0
DIMSTYLE
105
1D
102
{ACAD_REACTORS
330
507
330
527
330
528
330
52F
330
570
330
725
102
}
330
A
100
AcDbSymbolTableRecord
100
AcDbDimStyleTableRecord
  2
STANDARD
 70
     0
340
10
  0
DIMSTYLE
105
24
330
A
100
AcDbSymbolTableRecord
100
AcDbDimStyleTableRecord
  2
ISO-25
 70
     0
 41
2.5
 42
0.625
 43
3.75
 44
1.25
 74
     0
 77
     1
 78
     8
140
2.5
141
2.5
143
0.0394
145
1.0
147
0.625
172
     1
340
10
  0
DIMSTYLE
105
25
330
A
100
AcDbSymbolTableRecord
100
AcDbDimStyleTableRecord
  2
ISO-35
 70
     0
 41
3.5
 42
0.875
 43
5.25
 44
1.75
 74
     0
 77
     1
 78
     8
140
3.5
141
3.5
143
0.0394
145
1.399999999999999
147
0.875
172
     1
340
10
  0
DIMSTYLE
105
26
330
A
100
AcDbSymbolTableRecord
100
AcDbDimStyleTableRecord
  2
ISO-5
 70
     0
 41
5.0
 42
1.25
 43
7.5
 44
2.5
 74
     0
 77
     1
 78
     8
140
5.0
141
5.0
143
0.0394
145
2.0
147
1.25
172
     1
340
10
  0
DIMSTYLE
105
27
330
A
100
AcDbSymbolTableRecord
100
AcDbDimStyleTableRecord
  2
ISO-7
 70
     0
 41
7.0
 42
1.75
 43
10.5
 44
3.5
 74
     0
 77
     1
 78
     8
140
7.0
141
7.0
143
0.0394
145
2.799999999999999
147
1.75
172
     1
340
10
  0
DIMSTYLE
105
28
330
A
100
AcDbSymbolTableRecord
100
AcDbDimStyleTableRecord
  2
ISO1
 70
     0
 41
10.0
 42
2.5
 43
15.0
 44
5.0
 74
     0
 77
     1
 78
     8
140
10.0
141
10.0
143
0.0394
145
4.0
147
2.5
172
     1
340
10
  0
DIMSTYLE
105
29
330
A
100
AcDbSymbolTableRecord
100
AcDbDimStyleTableRecord
  2
ISO1-4
 70
     0
 41
14.0
 42
3.5
 43
21.0
 44
7.0
 74
     0
 77
     1
 78
     8
140
14.0
141
14.0
143
0.0394
145
5.599999999999999
147
3.5
172
     1
340
10
  0
DIMSTYLE
105
2A
330
A
100
AcDbSymbolTableRecord
100
AcDbDimStyleTableRecord
  2
ISO2
 70
     0
 41
20.0
 42
5.0
 43
30.0
 44
10.0
 74
     0
 77
     1
 78
     8
140
20.0
141
20.0
143
0.0394
145
8.0
147
5.0
172
     1
340
10
  0
ENDTAB
  0
TABLE
  2
BLOCK_RECORD
  5
1
330
0
100
AcDbSymbolTable
 70
     9
  0
BLOCK_RECORD
  5
1A
330
1
100
AcDbSymbolTableRecord
100
AcDbBlockTableRecord
  2
*MODEL_SPACE
340
15C
  0
BLOCK_RECORD
  5
17
330
1
100
AcDbSymbolTableRecord
100
AcDbBlockTableRecord
  2
*PAPER_SPACE
340
15D
  0
BLOCK_RECORD
  5
70
330
1
100
AcDbSymbolTableRecord
100
AcDbBlockTableRecord
  2
A$C13B5
340
0
  0
BLOCK_RECORD
  5
B2
330
1
100
AcDbSymbolTableRecord
100
AcDbBlockTableRecord
  2
_OPEN
340
0
102
{BLKREFS
331
62E
331
62F
331
637
331
638
331
640
331
641
331
652
331
653
331
749
331
74A
331
7BA
331
7BB
102
}
  0
BLOCK_RECORD
  5
166
330
1
100
AcDbSymbolTableRecord
100
AcDbBlockTableRecord
  2
_Open30
340
0
  0
BLOCK_RECORD
  5
5C2
330
1
100
AcDbSymbolTableRecord
100
AcDbBlockTableRecord
  2
*D3
340
0
  0
BLOCK_RECORD
  5
5CE
330
1
100
AcDbSymbolTableRecord
100
AcDbBlockTableRecord
  2
*D4
340
0
  0
BLOCK_RECORD
  5
5DA
330
1
100
AcDbSymbolTableRecord
100
AcDbBlockTableRecord
  2
*D5
340
0
  0
BLOCK_RECORD
  5
5E6
330
1
100
AcDbSymbolTableRecord
100
AcDbBlockTableRecord
  2
*D6
340
0
  0
BLOCK_RECORD
  5
5F2
330
1
100
AcDbSymbolTableRecord
100
AcDbBlockTableRecord
  2
*D7
340
0
  0
BLOCK_RECORD
  5
726
330
1
100
AcDbSymbolTableRecord
100
AcDbBlockTableRecord
  2
*D8
340
0
  0
ENDTAB
  0
ENDSEC
  0
SECTION
  2
BLOCKS
  0
BLOCK
  5
1B
330
1A
100
AcDbEntity
  8
0
100
AcDbBlockBegin
  2
*MODEL_SPACE
 70
     0
 10
0.0
 20
0.0
 30
0.0
  3
*MODEL_SPACE
  1

  0
ENDBLK
  5
1C
330
1A
100
AcDbEntity
  8
0
100
AcDbBlockEnd
  0
BLOCK
  5
18
330
17
100
AcDbEntity
 67
     1
  8
0
100
AcDbBlockBegin
  2
*PAPER_SPACE
 70
     0
 10
0.0
 20
0.0
 30
0.0
  3
*PAPER_SPACE
  1

  0
ENDBLK
  5
19
330
17
100
AcDbEntity
 67
     1
  8
0
100
AcDbBlockEnd
  0
BLOCK
  5
8A
330
70
100
AcDbEntity
  8
0
100
AcDbBlockBegin
  2
A$C13B5
 70
     0
 10
0.0
 20
0.0
 30
0.0
  3
A$C13B5
  1

  0
LINE
  5
71
330
70
100
AcDbEntity
  8
図枠
 62
     4
 48
10.0
100
AcDbLine
 10
1.288909537446727
 20
14.55345049516773
 30
0.0
 11
389.2889095374467
 21
14.55345049516768
 31
0.0
  0
LINE
  5
72
330
70
100
AcDbEntity
  8
図枠
 62
     6
 48
10.0
100
AcDbLine
 10
1.288909537446727
 20
6.553450495167737
 30
0.0
 11
389.2889095374467
 21
6.553450495167737
 31
0.0
  0
LINE
  5
73
330
70
100
AcDbEntity
  8
図枠
 62
     6
 48
10.0
100
AcDbLine
 10
1.288909537446727
 20
282.5534504951678
 30
0.0
 11
389.2889095374467
 21
282.5534504951677
 31
0.0
  0
LINE
  5
74
330
70
100
AcDbEntity
  8
図枠
 62
     6
 48
10.0
100
AcDbLine
 10
1.288909537446727
 20
6.553450495167737
 30
0.0
 11
1.288909537446727
 21
282.5534504951678
 31
0.0
  0
TEXT
  5
75
330
70
100
AcDbEntity
  8
図枠
100
AcDbText
 10
27.01140845066024
 20
7.713688301955187
 30
0.0
 40
6.0
  1
たてとい ｱｰﾊﾞﾝﾄｯﾌﾟ 
100
AcDbText
  0
TEXT
  5
76
330
70
100
AcDbEntity
  8
図枠
100
AcDbText
 10
5.016931864020591
 20
7.42362867277842
 30
0.0
 40
6.0
  1
品 名
100
AcDbText
  0
LINE
  5
77
330
70
100
AcDbEntity
  8
図枠
 62
     4
 48
10.0
100
AcDbLine
 10
23.28890953744673
 20
6.553450495167737
 30
0.0
 11
23.28890953744673
 21
14.55345049516774
 31
0.0
  0
LINE
  5
78
330
70
100
AcDbEntity
  8
図枠
 62
     4
 48
10.0
100
AcDbLine
 10
200.2889095374467
 20
6.553450495167737
 30
0.0
 11
200.2889095374467
 21
14.55345049516774
 31
0.0
  0
LINE
  5
79
330
70
100
AcDbEntity
  8
図枠
 62
     6
 48
10.0
100
AcDbLine
 10
170.2889095374467
 20
6.553450495167737
 30
0.0
 11
170.2889095374467
 21
14.55345049516774
 31
0.0
  0
TEXT
  5
7A
330
70
100
AcDbEntity
  8
図枠
100
AcDbText
 10
176.0849013274096
 20
7.75394793026868
 30
0.0
 40
6.0
  1
ｻ ｲ ｽﾞ
100
AcDbText
  0
LINE
  5
7B
330
70
100
AcDbEntity
  8
図枠
 62
     6
 48
10.0
100
AcDbLine
 10
389.2889095374467
 20
282.5534504951678
 30
0.0
 11
389.2889095374467
 21
6.553450495167737
 31
0.0
  0
TEXT
  5
7C
330
70
100
AcDbEntity
  8
図枠
100
AcDbText
 10
204.0370891170811
 20
7.483365856018338
 30
0.0
 40
6.0
  1
MY60
100
AcDbText
  0
LINE
  5
7D
330
70
100
AcDbEntity
  8
図枠
 62
     4
 48
10.0
100
AcDbLine
 10
302.2889095374467
 20
6.553450495167624
 30
0.0
 11
302.2889095374467
 21
14.55345049516774
 31
0.0
  0
LINE
  5
7E
330
70
100
AcDbEntity
  8
図枠
 62
     6
 48
10.0
100
AcDbLine
 10
280.2889095374467
 20
6.553450495167624
 30
0.0
 11
280.2889095374467
 21
14.55345049516774
 31
0.0
  0
TEXT
  5
7F
330
70
100
AcDbEntity
  8
図枠
100
AcDbText
 10
283.0671879169738
 20
7.488111900969613
 30
0.0
 40
6.0
  1
品 番
100
AcDbText
  0
TEXT
  5
80
330
70
100
AcDbEntity
  8
図枠
100
AcDbText
 10
305.4357802301391
 20
7.613597276414054
 30
0.0
 40
6.0
  1
C
100
AcDbText
  0
TEXT
  5
81
330
70
100
AcDbEntity
  8
図枠
 62
     6
 48
10.0
100
AcDbText
 10
287.5750180087266
 20
1.264336022576742
 30
0.0
 40
4.0
  1
積水化学工業株式会社
100
AcDbText
  0
TEXT
  5
82
330
70
100
AcDbEntity
  8
図枠
100
AcDbText
 10
378.9143972244913
 20
7.28414306680321
 30
0.0
 40
6.0
  1
1
100
AcDbText
  0
LINE
  5
83
330
70
100
AcDbEntity
  8
図枠
 62
     6
 48
10.0
100
AcDbLine
 10
363.2889095374467
 20
6.553450495167624
 30
0.0
 11
363.2889095374467
 21
14.55345049516774
 31
0.0
  0
TEXT
  5
84
330
70
100
AcDbEntity
  8
図枠
100
AcDbText
 10
366.7712800492437
 20
7.439601954164061
 30
0.0
 40
6.0
  1
1
100
AcDbText
  0
TEXT
  5
85
330
70
100
AcDbEntity
  8
図枠
100
AcDbText
 10
343.2307409172757
 20
7.283296132810676
 30
0.0
 40
6.0
  1
尺 度
100
AcDbText
  0
LINE
  5
86
330
70
100
AcDbEntity
  8
図枠
 62
     6
 48
10.0
100
AcDbLine
 10
340.2889095374467
 20
6.553450495167624
 30
0.0
 11
340.2889095374467
 21
14.55345049516774
 31
0.0
  0
LINE
  5
87
330
70
100
AcDbEntity
  8
図枠
 62
     4
100
AcDbLine
 10
375.8063876295765
 20
13.2465143593065
 30
0.0
 11
371.5781694695176
 21
7.361027351289919
 31
0.0
  0
TEXT
  5
88
330
70
100
AcDbEntity
  8
図枠
 62
     6
 48
10.0
100
AcDbText
 10
341.4974857461839
 20
1.41668541775158
 30
0.0
 40
4.0
  1
建材
100
AcDbText
  0
TEXT
  5
89
330
70
100
AcDbEntity
  8
図枠
 62
     6
 48
10.0
100
AcDbText
 10
380.7768613132438
 20
1.181327481845247
 30
0.0
 40
4.0
  1
A3
100
AcDbText
  0
ENDBLK
  5
8B
330
70
100
AcDbEntity
  8
0
100
AcDbBlockEnd
  0
BLOCK
  5
B3
330
B2
100
AcDbEntity
  8
0
100
AcDbBlockBegin
  2
_OPEN
 70
     0
 10
0.0
 20
0.0
 30
0.0
  3
_OPEN
  1

  0
LINE
  5
B4
330
B2
100
AcDbEntity
  8
0
  6
ByBlock
 62
     0
100
AcDbLine
 10
-1.0
 20
0.1666666666666666
 30
0.0
 11
0.0
 21
0.0
 31
0.0
  0
LINE
  5
B5
330
B2
100
AcDbEntity
  8
0
  6
ByBlock
 62
     0
100
AcDbLine
 10
0.0
 20
0.0
 30
0.0
 11
-1.0
 21
-0.1666666666666666
 31
0.0
  0
LINE
  5
B6
330
B2
100
AcDbEntity
  8
0
  6
ByBlock
 62
     0
100
AcDbLine
 10
0.0
 20
0.0
 30
0.0
 11
-1.0
 21
0.0
 31
0.0
  0
ENDBLK
  5
B7
330
B2
100
AcDbEntity
  8
0
100
AcDbBlockEnd
  0
BLOCK
  5
16A
330
166
100
AcDbEntity
  8
0
100
AcDbBlockBegin
  2
_Open30
 70
     0
 10
0.0
 20
0.0
 30
0.0
  3
_Open30
  1

  0
LINE
  5
167
330
166
100
AcDbEntity
  8
図枠
 62
     0
370
    -2
100
AcDbLine
 10
-1.0
 20
0.26794919
 30
0.0
 11
0.0
 21
0.0
 31
0.0
  0
LINE
  5
168
330
166
100
AcDbEntity
  8
図枠
 62
     0
370
    -2
100
AcDbLine
 10
0.0
 20
0.0
 30
0.0
 11
-1.0
 21
-0.26794919
 31
0.0
  0
LINE
  5
169
330
166
100
AcDbEntity
  8
図枠
 62
     0
370
    -2
100
AcDbLine
 10
0.0
 20
0.0
 30
0.0
 11
-1.0
 21
0.0
 31
0.0
  0
ENDBLK
  5
16B
330
166
100
AcDbEntity
  8
0
100
AcDbBlockEnd
  0
BLOCK
  5
5CC
330
5C2
100
AcDbEntity
  8
0
100
AcDbBlockBegin
  2
*D3
 70
     1
 10
0.0
 20
0.0
 30
0.0
  3
*D3
  1

  0
LINE
  5
63D
330
5C2
100
AcDbEntity
  8
SUNPOU
 62
     4
370
    -2
100
AcDbLine
 10
929.2793792661695
 20
150.1531676286564
 30
0.0
 11
929.2793792661695
 21
158.0143692773523
 31
0.0
  0
LINE
  5
63E
330
5C2
100
AcDbEntity
  8
SUNPOU
 62
     4
370
    -2
100
AcDbLine
 10
942.2793792661659
 20
150.1531686428331
 30
0.0
 11
942.2793792661659
 21
158.0143692773523
 31
0.0
  0
LINE
  5
63F
330
5C2
100
AcDbEntity
  8
SUNPOU
 62
     4
370
    -2
100
AcDbLine
 10
932.2793792661697
 20
156.5143692773523
 30
0.0
 11
939.279379266166
 21
156.5143692773523
 31
0.0
  0
INSERT
  5
640
330
5C2
100
AcDbEntity
  8
SUNPOU
 62
     4
370
    -2
100
AcDbBlockReference
  2
_OPEN
 10
929.2793792661695
 20
156.5143692773523
 30
0.0
 41
3.0
 42
3.0
 43
3.0
 50
180.0
  0
INSERT
  5
641
330
5C2
100
AcDbEntity
  8
SUNPOU
 62
     4
370
    -2
100
AcDbBlockReference
  2
_OPEN
 10
942.2793792661659
 20
156.5143692773523
 30
0.0
 41
3.0
 42
3.0
 43
3.0
  0
MTEXT
  5
642
330
5C2
100
AcDbEntity
  8
SUNPOU
 62
     4
100
AcDbMText
 10
935.9239702795685
 20
159.0143692773523
 30
0.0
 40
3.0
 41
0.0
 71
     5
 72
     1
  1
\A1;13
 73
     1
 44
1.0
1001
ACAD
1000
MTEXTBEGIN
1070
    73
1070
     1
1070
    44
1040
1.0
1070
    74
1070
     0
1000
MTEXTEND
  0
POINT
  5
643
330
5C2
100
AcDbEntity
  8
Defpoints
 62
     0
100
AcDbPoint
 10
929.2793792661695
 20
147.1531676286564
 30
0.0
  0
POINT
  5
644
330
5C2
100
AcDbEntity
  8
Defpoints
 62
     0
100
AcDbPoint
 10
942.2793792661659
 20
147.153168642833
 30
0.0
  0
POINT
  5
645
330
5C2
100
AcDbEntity
  8
Defpoints
 62
     0
100
AcDbPoint
 10
942.2793792661659
 20
156.5143692773523
 30
0.0
  0
ENDBLK
  5
5CD
330
5C2
100
AcDbEntity
  8
0
100
AcDbBlockEnd
  0
BLOCK
  5
5D8
330
5CE
100
AcDbEntity
  8
0
100
AcDbBlockBegin
  2
*D4
 70
     1
 10
0.0
 20
0.0
 30
0.0
  3
*D4
  1

  0
LINE
  5
7B7
330
5CE
100
AcDbEntity
  8
SUNPOU
 62
     4
370
    -2
100
AcDbLine
 10
925.2793792661668
 20
150.1531676286563
 30
0.0
 11
925.2793792661668
 21
168.0838347838878
 31
0.0
  0
LINE
  5
7B8
330
5CE
100
AcDbEntity
  8
SUNPOU
 62
     4
370
    -2
100
AcDbLine
 10
946.279379266166
 20
150.1531663709608
 30
0.0
 11
946.279379266166
 21
168.0838347838878
 31
0.0
  0
LINE
  5
7B9
330
5CE
100
AcDbEntity
  8
SUNPOU
 62
     4
370
    -2
100
AcDbLine
 10
928.2793792661669
 20
166.5838347838878
 30
0.0
 11
943.2793792661659
 21
166.5838347838878
 31
0.0
  0
INSERT
  5
7BA
330
5CE
100
AcDbEntity
  8
SUNPOU
 62
     4
370
    -2
100
AcDbBlockReference
  2
_OPEN
 10
925.2793792661668
 20
166.5838347838878
 30
0.0
 41
3.0
 42
3.0
 43
3.0
 50
180.0
  0
INSERT
  5
7BB
330
5CE
100
AcDbEntity
  8
SUNPOU
 62
     4
370
    -2
100
AcDbBlockReference
  2
_OPEN
 10
946.279379266166
 20
166.5838347838878
 30
0.0
 41
3.0
 42
3.0
 43
3.0
  0
MTEXT
  5
7BC
330
5CE
100
AcDbEntity
  8
SUNPOU
 62
     4
100
AcDbMText
 10
935.7793792661665
 20
169.0838347838878
 30
0.0
 40
3.0
 41
0.0
 71
     5
 72
     1
  1
\A1;21
 73
     1
 44
1.0
1001
ACAD
1000
MTEXTBEGIN
1070
    73
1070
     1
1070
    44
1040
1.0
1070
    74
1070
     0
1000
MTEXTEND
  0
POINT
  5
7BD
330
5CE
100
AcDbEntity
  8
Defpoints
 62
     0
100
AcDbPoint
 10
925.2793792661668
 20
147.1531676286563
 30
0.0
  0
POINT
  5
7BE
330
5CE
100
AcDbEntity
  8
Defpoints
 62
     0
100
AcDbPoint
 10
946.279379266166
 20
147.1531663709608
 30
0.0
  0
POINT
  5
7BF
330
5CE
100
AcDbEntity
  8
Defpoints
 62
     0
100
AcDbPoint
 10
946.279379266166
 20
166.5838347838878
 30
0.0
  0
ENDBLK
  5
5D9
330
5CE
100
AcDbEntity
  8
0
100
AcDbBlockEnd
  0
BLOCK
  5
5E4
330
5DA
100
AcDbEntity
  8
0
100
AcDbBlockBegin
  2
*D5
 70
     1
 10
0.0
 20
0.0
 30
0.0
  3
*D5
  1

  0
LINE
  5
634
330
5DA
100
AcDbEntity
  8
SUNPOU
 62
     4
370
    -2
100
AcDbLine
 10
924.2793802258939
 20
149.1531676286573
 30
0.0
 11
911.5013179202987
 21
149.1531676286573
 31
0.0
  0
LINE
  5
635
330
5DA
100
AcDbEntity
  8
SUNPOU
 62
     4
370
    -2
100
AcDbLine
 10
923.5293792661659
 20
131.1773550829563
 30
0.0
 11
911.5013179202987
 21
131.1773550829563
 31
0.0
  0
LINE
  5
636
330
5DA
100
AcDbEntity
  8
SUNPOU
 62
     4
370
    -2
100
AcDbLine
 10
913.0013179202988
 20
146.1531676286573
 30
0.0
 11
913.0013179202988
 21
134.1773550829563
 31
0.0
  0
INSERT
  5
637
330
5DA
100
AcDbEntity
  8
SUNPOU
 62
     4
370
    -2
100
AcDbBlockReference
  2
_OPEN
 10
913.0013179202988
 20
149.1531676286573
 30
0.0
 41
3.0
 42
3.0
 43
3.0
 50
90.0
  0
INSERT
  5
638
330
5DA
100
AcDbEntity
  8
SUNPOU
 62
     4
370
    -2
100
AcDbBlockReference
  2
_OPEN
 10
913.0013179202988
 20
131.1773550829563
 30
0.0
 41
3.0
 42
3.0
 43
3.0
 50
270.0
  0
MTEXT
  5
639
330
5DA
100
AcDbEntity
  8
SUNPOU
 62
     4
100
AcDbMText
 10
910.5013179202988
 20
140.1652613558069
 30
0.0
 40
3.0
 41
0.0
 71
     5
 72
     1
  1
\A1;18
 11
0.0000000000000001
 21
1.0
 31
0.0
 73
     1
 44
1.0
1001
ACAD
1000
MTEXTBEGIN
1070
    73
1070
     1
1070
    44
1040
1.0
1070
    74
1070
     0
1000
MTEXTEND
  0
POINT
  5
63A
330
5DA
100
AcDbEntity
  8
Defpoints
 62
     0
100
AcDbPoint
 10
927.2793802258938
 20
149.1531676286573
 30
0.0
  0
POINT
  5
63B
330
5DA
100
AcDbEntity
  8
Defpoints
 62
     0
100
AcDbPoint
 10
926.529379266166
 20
131.1773550829563
 30
0.0
  0
POINT
  5
63C
330
5DA
100
AcDbEntity
  8
Defpoints
 62
     0
100
AcDbPoint
 10
913.0013179202988
 20
131.1773550829563
 30
0.0
  0
ENDBLK
  5
5E5
330
5DA
100
AcDbEntity
  8
0
100
AcDbBlockEnd
  0
BLOCK
  5
5F0
330
5E6
100
AcDbEntity
  8
0
100
AcDbBlockBegin
  2
*D6
 70
     1
 10
0.0
 20
0.0
 30
0.0
  3
*D6
  1

  0
LINE
  5
62B
330
5E6
100
AcDbEntity
  8
SUNPOU
 62
     4
370
    -2
100
AcDbLine
 10
924.2793802258939
 20
149.1531676286573
 30
0.0
 11
917.5401851671223
 21
149.1531676286573
 31
0.0
  0
LINE
  5
62C
330
5E6
100
AcDbEntity
  8
SUNPOU
 62
     4
370
    -2
100
AcDbLine
 10
928.7793792661677
 20
140.6773550829563
 30
0.0
 11
917.5401851671223
 21
140.6773550829563
 31
0.0
  0
LINE
  5
62D
330
5E6
100
AcDbEntity
  8
SUNPOU
 62
     4
370
    -2
100
AcDbLine
 10
919.0401851671222
 20
146.1531676286573
 30
0.0
 11
919.0401851671222
 21
143.6773550829563
 31
0.0
  0
INSERT
  5
62E
330
5E6
100
AcDbEntity
  8
SUNPOU
 62
     4
370
    -2
100
AcDbBlockReference
  2
_OPEN
 10
919.0401851671222
 20
149.1531676286573
 30
0.0
 41
3.0
 42
3.0
 43
3.0
 50
90.0
  0
INSERT
  5
62F
330
5E6
100
AcDbEntity
  8
SUNPOU
 62
     4
370
    -2
100
AcDbBlockReference
  2
_OPEN
 10
919.0401851671222
 20
140.6773550829563
 30
0.0
 41
3.0
 42
3.0
 43
3.0
 50
270.0
  0
MTEXT
  5
630
330
5E6
100
AcDbEntity
  8
SUNPOU
 62
     4
100
AcDbMText
 10
916.5401851671221
 20
144.9152613558069
 30
0.0
 40
3.0
 41
0.0
 71
     5
 72
     1
  1
\A1;8
 11
0.0000000000000001
 21
1.0
 31
0.0
 73
     1
 44
1.0
1001
ACAD
1000
MTEXTBEGIN
1070
    73
1070
     1
1070
    44
1040
1.0
1070
    74
1070
     0
1000
MTEXTEND
  0
POINT
  5
631
330
5E6
100
AcDbEntity
  8
Defpoints
 62
     0
100
AcDbPoint
 10
927.2793802258938
 20
149.1531676286573
 30
0.0
  0
POINT
  5
632
330
5E6
100
AcDbEntity
  8
Defpoints
 62
     0
100
AcDbPoint
 10
931.7793792661678
 20
140.6773550829563
 30
0.0
  0
POINT
  5
633
330
5E6
100
AcDbEntity
  8
Defpoints
 62
     0
100
AcDbPoint
 10
919.0401851671222
 20
140.6773550829563
 30
0.0
  0
ENDBLK
  5
5F1
330
5E6
100
AcDbEntity
  8
0
100
AcDbBlockEnd
  0
BLOCK
  5
5FC
330
5F2
100
AcDbEntity
  8
0
100
AcDbBlockBegin
  2
*D7
 70
     1
 10
0.0
 20
0.0
 30
0.0
  3
*D7
  1

  0
LINE
  5
64F
330
5F2
100
AcDbEntity
  8
SUNPOU
 62
     4
370
    -2
100
AcDbLine
 10
1018.747875147649
 20
152.1531676286564
 30
0.0
 11
1018.747875147649
 21
158.5481058962438
 31
0.0
  0
LINE
  5
650
330
5F2
100
AcDbEntity
  8
SUNPOU
 62
     4
370
    -2
100
AcDbLine
 10
1038.747875147649
 20
152.1531676286546
 30
0.0
 11
1038.747875147649
 21
158.5481058962438
 31
0.0
  0
LINE
  5
651
330
5F2
100
AcDbEntity
  8
SUNPOU
 62
     4
370
    -2
100
AcDbLine
 10
1021.747875147649
 20
157.0481058962438
 30
0.0
 11
1035.747875147649
 21
157.0481058962438
 31
0.0
  0
INSERT
  5
652
330
5F2
100
AcDbEntity
  8
SUNPOU
 62
     4
370
    -2
100
AcDbBlockReference
  2
_OPEN
 10
1018.747875147649
 20
157.0481058962438
 30
0.0
 41
3.0
 42
3.0
 43
3.0
 50
180.0
  0
INSERT
  5
653
330
5F2
100
AcDbEntity
  8
SUNPOU
 62
     4
370
    -2
100
AcDbBlockReference
  2
_OPEN
 10
1038.747875147649
 20
157.0481058962438
 30
0.0
 41
3.0
 42
3.0
 43
3.0
  0
MTEXT
  5
654
330
5F2
100
AcDbEntity
  8
SUNPOU
 62
     4
100
AcDbMText
 10
1028.747875147649
 20
159.5481058962438
 30
0.0
 40
3.0
 41
0.0
 71
     5
 72
     1
  1
\A1;20
 73
     1
 44
1.0
1001
ACAD
1000
MTEXTBEGIN
1070
    73
1070
     1
1070
    44
1040
1.0
1070
    74
1070
     0
1000
MTEXTEND
  0
POINT
  5
655
330
5F2
100
AcDbEntity
  8
Defpoints
 62
     0
100
AcDbPoint
 10
1018.747875147649
 20
149.1531676286564
 30
0.0
  0
POINT
  5
656
330
5F2
100
AcDbEntity
  8
Defpoints
 62
     0
100
AcDbPoint
 10
1038.747875147649
 20
149.1531676286546
 30
0.0
  0
POINT
  5
657
330
5F2
100
AcDbEntity
  8
Defpoints
 62
     0
100
AcDbPoint
 10
1038.747875147649
 20
157.0481058962438
 30
0.0
  0
ENDBLK
  5
5FD
330
5F2
100
AcDbEntity
  8
0
100
AcDbBlockEnd
  0
BLOCK
  5
730
330
726
100
AcDbEntity
  8
0
100
AcDbBlockBegin
  2
*D8
 70
     1
 10
0.0
 20
0.0
 30
0.0
  3
*D8
  1

  0
LINE
  5
746
330
726
100
AcDbEntity
  8
SUNPOU
 62
     4
370
    -2
100
AcDbLine
 10
1076.9113309626
 20
150.9949038466086
 30
0.0
 11
1083.306269230187
 21
150.9949038466086
 31
0.0
  0
LINE
  5
747
330
726
100
AcDbEntity
  8
SUNPOU
 62
     4
370
    -2
100
AcDbLine
 10
1076.911330962598
 20
130.9949038466086
 30
0.0
 11
1083.306269230187
 21
130.9949038466086
 31
0.0
  0
LINE
  5
748
330
726
100
AcDbEntity
  8
SUNPOU
 62
     4
370
    -2
100
AcDbLine
 10
1081.806269230187
 20
147.9949038466086
 30
0.0
 11
1081.806269230187
 21
133.9949038466086
 31
0.0
  0
INSERT
  5
749
330
726
100
AcDbEntity
  8
SUNPOU
 62
     4
370
    -2
100
AcDbBlockReference
  2
_OPEN
 10
1081.806269230187
 20
150.9949038466086
 30
0.0
 41
3.0
 42
3.0
 43
3.0
 50
90.0
  0
INSERT
  5
74A
330
726
100
AcDbEntity
  8
SUNPOU
 62
     4
370
    -2
100
AcDbBlockReference
  2
_OPEN
 10
1081.806269230187
 20
130.9949038466086
 30
0.0
 41
3.0
 42
3.0
 43
3.0
 50
270.0
  0
MTEXT
  5
74B
330
726
100
AcDbEntity
  8
SUNPOU
 62
     4
100
AcDbMText
 10
1079.306269230187
 20
140.9949038466086
 30
0.0
 40
3.0
 41
0.0
 71
     5
 72
     1
  1
\A1;20
 11
0.0000000000000001
 21
1.0
 31
0.0
 73
     1
 44
1.0
1001
ACAD
1000
MTEXTBEGIN
1070
    73
1070
     1
1070
    44
1040
1.0
1070
    74
1070
     0
1000
MTEXTEND
  0
POINT
  5
74C
330
726
100
AcDbEntity
  8
Defpoints
 62
     0
100
AcDbPoint
 10
1073.9113309626
 20
150.9949038466086
 30
0.0
  0
POINT
  5
74D
330
726
100
AcDbEntity
  8
Defpoints
 62
     0
100
AcDbPoint
 10
1073.911330962598
 20
130.9949038466086
 30
0.0
  0
POINT
  5
74E
330
726
100
AcDbEntity
  8
Defpoints
 62
     0
100
AcDbPoint
 10
1081.806269230187
 20
130.9949038466086
 30
0.0
  0
ENDBLK
  5
731
330
726
100
AcDbEntity
  8
0
100
AcDbBlockEnd
  0
ENDSEC
  0
SECTION
  2
ENTITIES
  0
LWPOLYLINE
  5
300
330
1A
100
AcDbEntity
  8
ZUWAKU
100
AcDbPolyline
 90
        4
 70
     1
 43
0.0
 10
831.6694210396805
 20
269.091153482374
 10
831.6694210396805
 20
79.35486710409938
 10
1106.269573688965
 20
79.35486710409922
 10
1106.269573688965
 20
269.0911534823738
  0
LWPOLYLINE
  5
301
330
1A
100
AcDbEntity
  8
ZUWAKU
100
AcDbPolyline
 90
        4
 70
     1
 43
0.0
 10
831.5314310132237
 20
269.2291435088309
 10
831.5314310132237
 20
79.21687707764244
 10
1106.407563715422
 20
79.21687707764228
 10
1106.407563715422
 20
269.2291435088308
  0
LWPOLYLINE
  5
302
330
1A
100
AcDbEntity
  8
ZUWAKU
100
AcDbPolyline
 90
        4
 70
     1
 43
0.0
 10
831.3934409867668
 20
269.367133535288
 10
831.3934409867668
 20
79.07888705118548
 10
1106.545553741879
 20
79.07888705118548
 10
1106.545553741879
 20
269.3671335352878
  0
LWPOLYLINE
  5
303
330
1A
100
AcDbEntity
  8
ZUWAKU
100
AcDbPolyline
 90
        4
 70
     1
 43
0.0
 10
831.6004260264522
 20
269.1601484956026
 10
831.6004260264522
 20
79.28587209087083
 10
1106.338568702194
 20
79.28587209087067
 10
1106.338568702194
 20
269.1601484956024
  0
LWPOLYLINE
  5
304
330
1A
100
AcDbEntity
  8
ZUWAKU
100
AcDbPolyline
 90
        4
 70
     1
 43
0.0
 10
831.4624359999951
 20
269.2981385220594
 10
831.4624359999951
 20
79.14788206441404
 10
1106.47655872865
 20
79.14788206441388
 10
1106.476558728651
 20
269.2981385220592
  0
LINE
  5
305
330
1A
100
AcDbEntity
  8
ZUWAKU
100
AcDbLine
 10
831.3934409867668
 20
89.42813903545498
 30
0.0
 11
1106.47655872865
 21
89.42813903545484
 31
0.0
  0
LINE
  5
306
330
1A
100
AcDbEntity
  8
ZUWAKU
100
AcDbLine
 10
831.3934409867668
 20
89.49713404868356
 30
0.0
 11
1106.47655872865
 21
89.49713404868338
 31
0.0
  0
LINE
  5
307
330
1A
100
AcDbEntity
  8
ZUWAKU
100
AcDbLine
 10
831.3934409867668
 20
89.56612906191196
 30
0.0
 11
1106.47655872865
 21
89.5661290619118
 31
0.0
  0
LINE
  5
308
330
1A
100
AcDbEntity
  8
ZUWAKU
100
AcDbLine
 10
831.3934409867668
 20
89.63512407514036
 30
0.0
 11
1106.47655872865
 21
89.6351240751402
 31
0.0
  0
LINE
  5
309
330
1A
100
AcDbEntity
  8
ZUWAKU
100
AcDbLine
 10
831.3934409867668
 20
89.70411908836892
 30
0.0
 11
1106.47655872865
 21
89.70411908836878
 31
0.0
  0
HATCH
  5
30A
330
1A
100
AcDbEntity
  8
ZUWAKU
100
AcDbHatch
 10
0.0
 20
0.0
 30
0.0
210
0.0
220
0.0
230
1.0
  2
ANSI37
 70
     0
 71
     0
 91
        8
 92
        7
 72
     1
 73
     1
 93
       24
 10
836.3963600074999
 20
85.16591982298406
 42
-0.1989123673796348
 10
836.254902806954
 20
85.50742771503726
 42
0.0
 10
836.254902806954
 20
85.95251524407121
 42
-0.4142135623730912
 10
836.4360147166788
 20
86.13362715379595
 42
0.0
 10
837.462315538452
 20
86.13362715379595
 42
0.4142135623731546
 10
837.6434274481766
 20
86.31473906352054
 42
0.0
 10
837.6434274481766
 20
86.91844542926961
 42
0.4142135623731586
 10
837.462315538452
 20
87.09955733899436
 42
0.0
 10
836.254902806954
 20
87.09955733899436
 42
0.4142135623730928
 10
835.2889726217554
 20
86.13362715379595
 42
0.0
 10
835.2889726217554
 20
85.50742771503726
 42
0.1989123673796619
 10
835.7133442233932
 20
84.48290403887737
 42
0.0
 10
836.7171519721571
 20
83.47909629011352
 42
-0.1989123673796613
 10
836.8586091727031
 20
83.13758839806018
 42
0.0
 10
836.8586091727031
 20
82.69250086902621
 42
-0.4142135623730911
 10
836.6774972629782
 20
82.51138895930163
 42
0.0
 10
835.651196441205
 20
82.51138895930163
 42
0.4142135623731526
 10
835.47008453148
 20
82.33027704957688
 42
0.0
 10
835.47008453148
 20
81.72657068382781
 42
0.4142135623731526
 10
835.651196441205
 20
81.54545877410306
 42
0.0
 10
836.8586091727031
 20
81.54545877410306
 42
0.4142135623731045
 10
837.8245393579016
 20
82.51138895930163
 42
0.0
 10
837.8245393579016
 20
83.13758839806018
 42
0.1989123673796604
 10
837.4001677562636
 20
84.16211207422021
 42
0.0
 97
        0
 92
        7
 72
     1
 73
     1
 93
       16
 10
839.5149171819989
 20
85.65066206119668
 42
-0.4142135623730935
 10
839.9978822745982
 20
86.13362715379595
 42
0.0
 10
840.6619592769221
 20
86.13362715379595
 42
0.4142135623731546
 10
840.8430711866467
 20
86.31473906352054
 42
0.0
 10
840.8430711866467
 20
86.91844542926961
 42
0.4142135623730951
 10
840.6619592769221
 20
87.09955733899436
 42
0.0
 10
839.9978822745982
 20
87.09955733899436
 42
0.4142135623730893
 10
838.5489869968003
 20
85.65066206119668
 42
0.0
 10
838.5489869968003
 20
82.99435405190074
 42
0.4142135623730969
 10
839.9978822745982
 20
81.54545877410306
 42
0.0
 10
840.6619592769221
 20
81.54545877410306
 42
0.4142135623731526
 10
840.8430711866467
 20
81.72657068382781
 42
0.0
 10
840.8430711866467
 20
82.33027704957688
 42
0.4142135623730891
 10
840.6619592769221
 20
82.51138895930163
 42
0.0
 10
839.9978822745982
 20
82.51138895930163
 42
-0.4142135623730928
 10
839.5149171819989
 20
82.99435405190074
 42
0.0
 97
        0
 92
        7
 72
     1
 73
     1
 93
        2
 10
839.7563997282984
 20
84.32250805654879
 42
1.0
 10
840.9638124597966
 20
84.32250805654879
 42
1.0
 97
        0
 92
        7
 72
     1
 73
     1
 93
       26
 10
844.266136813143
 20
85.7041494770514
 42
0.0
 10
844.632376015804
 20
86.86390695214461
 42
0.5069206636600134
 10
844.4596708382412
 20
87.09955733899436
 42
0.0
 10
843.873596362142
 20
87.09955733899436
 42
0.3272098845218764
 10
843.7008911845792
 20
86.97298390639476
 42
0.0
 10
843.0563846610064
 20
84.93204658174766
 42
-0.3272098845219541
 10
842.8836794834435
 20
84.80547314914792
 42
0.0
 10
842.8353021936185
 20
84.80547314914792
 42
-0.4142135623731526
 10
842.6541902838939
 20
84.98658505887267
 42
0.0
 10
842.6541902838939
 20
86.91844542926961
 42
0.4142135623730951
 10
842.4730783741692
 20
87.09955733899436
 42
0.0
 10
841.8693720084203
 20
87.09955733899436
 42
0.4142135623730871
 10
841.6882600986955
 20
86.91844542926961
 42
0.0
 10
841.6882600986955
 20
81.72657068382781
 42
0.4142135623730891
 10
841.8693720084203
 20
81.54545877410306
 42
0.0
 10
842.4730783741692
 20
81.54545877410306
 42
0.4142135623731526
 10
842.6541902838939
 20
81.72657068382781
 42
0.0
 10
842.6541902838939
 20
83.65843105422476
 42
-0.4142135623731526
 10
842.8353021936185
 20
83.83954296394952
 42
0.0
 10
842.8836794834436
 20
83.83954296394952
 42
-0.3272098845218915
 10
843.0563846610064
 20
83.71296953134992
 42
0.0
 10
843.7008911845792
 20
81.67203220670266
 42
0.3272098845218902
 10
843.873596362142
 20
81.54545877410306
 42
0.0
 10
844.4596708382412
 20
81.54545877410306
 42
0.5069206636600336
 10
844.632376015804
 20
81.78110916095283
 42
0.0
 10
843.8298289961421
 20
84.32250805654879
 42
0.0
 97
        0
 92
        7
 72
     1
 73
     1
 93
        8
 10
846.3971697515381
 20
86.91844542926961
 42
0.4142135623731546
 10
846.2160578418133
 20
87.09955733899436
 42
0.0
 10
845.6123514760642
 20
87.09955733899436
 42
0.4142135623731507
 10
845.4312395663396
 20
86.91844542926961
 42
0.0
 10
845.4312395663396
 20
81.72657068382781
 42
0.4142135623731526
 10
845.6123514760642
 20
81.54545877410306
 42
0.0
 10
846.2160578418133
 20
81.54545877410306
 42
0.4142135623731526
 10
846.3971697515381
 20
81.72657068382781
 42
0.0
 97
        0
 92
        7
 72
     1
 73
     1
 93
       24
 10
848.0875475756354
 20
85.95251524407121
 42
-0.4142135623731546
 10
848.2686594853603
 20
86.13362715379595
 42
0.0
 10
849.2949603071336
 20
86.13362715379595
 42
0.4142135623730911
 10
849.4760722168582
 20
86.31473906352054
 42
0.0
 10
849.4760722168582
 20
86.91844542926961
 42
0.4142135623730952
 10
849.2949603071336
 20
87.09955733899436
 42
0.0
 10
848.0875475756354
 20
87.09955733899436
 42
0.4142135623731048
 10
847.121617390437
 20
86.13362715379595
 42
0.0
 10
847.121617390437
 20
85.50742771503726
 42
0.1989123673796613
 10
847.5459889920749
 20
84.48290403887737
 42
0.0
 10
848.5497967408386
 20
83.47909629011352
 42
-0.1989123673796402
 10
848.6912539413845
 20
83.13758839806032
 42
0.0
 10
848.6912539413845
 20
82.69250086902621
 42
-0.4142135623730911
 10
848.5101420316597
 20
82.51138895930163
 42
0.0
 10
847.4838412098863
 20
82.51138895930163
 42
0.4142135623731526
 10
847.3027293001617
 20
82.33027704957688
 42
0.0
 10
847.3027293001617
 20
81.72657068382781
 42
0.4142135623730891
 10
847.4838412098863
 20
81.54545877410306
 42
0.0
 10
848.6912539413845
 20
81.54545877410306
 42
0.4142135623730925
 10
849.6571841265829
 20
82.51138895930163
 42
0.0
 10
849.6571841265829
 20
83.13758839806018
 42
0.1989123673796675
 10
849.2328125249454
 20
84.16211207422021
 42
0.0
 10
848.2290047761814
 20
85.16591982298391
 42
-0.1989123673796652
 10
848.0875475756354
 20
85.50742771503726
 42
0.0
 97
        0
 92
        7
 72
     1
 73
     1
 93
       16
 10
851.3475619506802
 20
86.91844542926961
 42
0.414213562373103
 10
851.1664500409557
 20
87.09955733899436
 42
0.0
 10
850.5627436752066
 20
87.09955733899436
 42
0.4142135623730871
 10
850.3816317654818
 20
86.91844542926961
 42
0.0
 10
850.3816317654818
 20
82.51138895930163
 42
0.4142135623730927
 10
851.3475619506802
 20
81.54545877410306
 42
0.0
 10
852.5549746821784
 20
81.54545877410306
 42
0.4142135623731045
 10
853.5209048673769
 20
82.51138895930163
 42
0.0
 10
853.5209048673769
 20
86.91844542926961
 42
0.4142135623730951
 10
853.3397929576521
 20
87.09955733899436
 42
0.0
 10
852.7360865919032
 20
87.09955733899436
 42
0.4142135623730871
 10
852.5549746821784
 20
86.91844542926961
 42
0.0
 10
852.5549746821784
 20
82.87361277875097
 42
-0.4142135623730879
 10
852.1927508627291
 20
82.51138895930163
 42
0.0
 10
851.7097857701298
 20
82.51138895930163
 42
-0.4142135623731197
 10
851.3475619506802
 20
82.87361277875097
 42
0.0
 97
        0
 92
        7
 72
     1
 73
     1
 93
        8
 10
855.2112826914742
 20
86.91844542926961
 42
0.4142135623730871
 10
855.0301707817496
 20
87.09955733899436
 42
0.0
 10
854.4264644160005
 20
87.09955733899436
 42
0.4142135623731507
 10
854.2453525062757
 20
86.91844542926961
 42
0.0
 10
854.2453525062757
 20
81.72657068382781
 42
0.4142135623730891
 10
854.4264644160005
 20
81.54545877410306
 42
0.0
 10
855.0301707817496
 20
81.54545877410306
 42
0.4142135623730891
 10
855.2112826914742
 20
81.72657068382781
 42
0.0
 97
        0
 75
     0
 76
     1
 52
-0.0000000000000127
 41
0.0689950132284635
 77
     0
 78
     2
 53
44.99999999999999
 43
520.590809958499
 44
74.52521617810694
 45
-0.1548982224670391
 46
0.1548982224670392
 79
     0
 53
134.9999999999999
 43
520.590809958499
 44
74.52521617810694
 45
-0.1548982224670392
 46
-0.1548982224670391
 79
     0
 47
0.057451373970553
 98
        8
 10
836.9405900161947
 20
84.31118378286688
 10
839.1224400329997
 20
85.57961864896649
 10
840.0745204625518
 20
84.43009944803057
 10
842.0580208736597
 20
84.66793077835804
 10
845.8266706387998
 20
84.82648555075304
 10
847.5721509425197
 20
85.77781170032773
 10
850.9044324459521
 20
85.53997954173532
 10
854.7920922647863
 20
85.69853431413031
  0
ARC
  5
30B
330
1A
100
AcDbEntity
  8
ZUWAKU
100
AcDbCircle
 10
836.3756440801038
 20
83.13758839806022
 30
0.0
 40
0.4829650925992441
100
AcDbArc
 50
0.0
 51
44.99999999999955
  0
ARC
  5
30C
330
1A
100
AcDbEntity
  8
ZUWAKU
100
AcDbCircle
 10
836.3756440801038
 20
83.13758839806007
 30
0.0
 40
1.448895277797732
100
AcDbArc
 50
0.0
 51
44.99999999999955
  0
LINE
  5
30D
330
1A
100
AcDbEntity
  8
ZUWAKU
100
AcDbLine
 10
836.2549028069539
 20
87.09955733899434
 30
0.0
 11
837.462315538452
 21
87.09955733899434
 31
0.0
  0
ARC
  5
30E
330
1A
100
AcDbEntity
  8
ZUWAKU
100
AcDbCircle
 10
837.462315538452
 20
86.91844542926963
 30
0.0
 40
0.1811119097247167
100
AcDbArc
 50
0.0
 51
89.99999999999998
  0
LINE
  5
30F
330
1A
100
AcDbEntity
  8
ZUWAKU
100
AcDbLine
 10
837.462315538452
 20
86.13362715379597
 30
0.0
 11
836.4360147166786
 21
86.13362715379597
 31
0.0
  0
ARC
  5
310
330
1A
100
AcDbEntity
  8
ZUWAKU
100
AcDbCircle
 10
836.4360147166786
 20
85.95251524407109
 30
0.0
 40
0.1811119097247167
100
AcDbArc
 50
89.99999999999998
 51
180.0
  0
ARC
  5
311
330
1A
100
AcDbEntity
  8
ZUWAKU
100
AcDbCircle
 10
837.462315538452
 20
86.31473906352059
 30
0.0
 40
0.1811119097247167
100
AcDbArc
 50
270.0
 51
0.0
  0
ARC
  5
312
330
1A
100
AcDbEntity
  8
ZUWAKU
100
AcDbCircle
 10
836.2549028069539
 20
86.13362715379585
 30
0.0
 40
0.9659301851984885
100
AcDbArc
 50
89.99999999999998
 51
180.0
  0
LINE
  5
313
330
1A
100
AcDbEntity
  8
ZUWAKU
100
AcDbLine
 10
837.6434274481768
 20
86.91844542926961
 30
0.0
 11
837.6434274481768
 21
86.31473906352056
 31
0.0
  0
ARC
  5
314
330
1A
100
AcDbEntity
  8
ZUWAKU
100
AcDbCircle
 10
836.7378678995532
 20
85.50742771503712
 30
0.0
 40
1.448895277797732
100
AcDbArc
 50
180.0
 51
224.9999999999996
  0
ARC
  5
315
330
1A
100
AcDbEntity
  8
ZUWAKU
100
AcDbCircle
 10
836.7378678995532
 20
85.50742771503712
 30
0.0
 40
0.4829650925992441
100
AcDbArc
 50
180.0000000000016
 51
224.9999999999994
  0
LINE
  5
316
330
1A
100
AcDbEntity
  8
ZUWAKU
100
AcDbLine
 10
835.7133442233932
 20
84.48290403887739
 30
0.0
 11
836.7171519721571
 21
83.47909629011352
 31
0.0
  0
LINE
  5
317
330
1A
100
AcDbEntity
  8
ZUWAKU
100
AcDbLine
 10
837.4001677562636
 20
84.16211207422021
 30
0.0
 11
836.3963600074999
 21
85.16591982298391
 31
0.0
  0
LINE
  5
318
330
1A
100
AcDbEntity
  8
ZUWAKU
100
AcDbLine
 10
835.2889726217554
 20
86.13362715379597
 30
0.0
 11
835.2889726217554
 21
85.50742771503726
 31
0.0
  0
LINE
  5
319
330
1A
100
AcDbEntity
  8
ZUWAKU
100
AcDbLine
 10
836.2549028069539
 20
85.95251524407121
 30
0.0
 11
836.2549028069539
 21
85.50742771503726
 31
0.0
  0
ARC
  5
31A
330
1A
100
AcDbEntity
  8
ZUWAKU
100
AcDbCircle
 10
836.858609172703
 20
82.51138895930152
 30
0.0
 40
0.9659301851984885
100
AcDbArc
 50
270.0
 51
0.0
  0
LINE
  5
31B
330
1A
100
AcDbEntity
  8
ZUWAKU
100
AcDbLine
 10
837.8245393579016
 20
82.51138895930163
 30
0.0
 11
837.8245393579016
 21
83.13758839806018
 31
0.0
  0
LINE
  5
31C
330
1A
100
AcDbEntity
  8
ZUWAKU
100
AcDbLine
 10
835.651196441205
 20
82.51138895930163
 30
0.0
 11
836.6774972629784
 21
82.51138895930163
 31
0.0
  0
LINE
  5
31D
330
1A
100
AcDbEntity
  8
ZUWAKU
100
AcDbLine
 10
835.651196441205
 20
81.54545877410308
 30
0.0
 11
836.858609172703
 21
81.54545877410308
 31
0.0
  0
ARC
  5
31E
330
1A
100
AcDbEntity
  8
ZUWAKU
100
AcDbCircle
 10
835.651196441205
 20
82.33027704957676
 30
0.0
 40
0.1811119097247167
100
AcDbArc
 50
89.99999999999998
 51
180.0
  0
ARC
  5
31F
330
1A
100
AcDbEntity
  8
ZUWAKU
100
AcDbCircle
 10
835.651196441205
 20
81.7265706838277
 30
0.0
 40
0.1811119097247167
100
AcDbArc
 50
180.0
 51
270.0
  0
LINE
  5
320
330
1A
100
AcDbEntity
  8
ZUWAKU
100
AcDbLine
 10
835.4700845314802
 20
81.72657068382781
 30
0.0
 11
835.4700845314802
 21
82.3302770495769
 31
0.0
  0
ARC
  5
321
330
1A
100
AcDbEntity
  8
ZUWAKU
100
AcDbCircle
 10
836.6774972629784
 20
82.69250086902625
 30
0.0
 40
0.1811119097247167
100
AcDbArc
 50
270.0
 51
0.0
  0
LINE
  5
322
330
1A
100
AcDbEntity
  8
ZUWAKU
100
AcDbLine
 10
836.858609172703
 20
82.69250086902621
 30
0.0
 11
836.858609172703
 21
83.13758839806018
 31
0.0
  0
LINE
  5
323
330
1A
100
AcDbEntity
  8
ZUWAKU
100
AcDbLine
 10
1055.219198336998
 20
84.46049808300561
 30
0.0
 11
1071.926964518415
 21
84.46049808300561
 31
0.0
  0
LINE
  5
324
330
1A
100
AcDbEntity
  8
ZUWAKU
100
AcDbLine
 10
1055.219198336998
 20
84.39150306977721
 30
0.0
 11
1071.926964518415
 21
84.39150306977721
 31
0.0
  0
LINE
  5
325
330
1A
100
AcDbEntity
  8
ZUWAKU
100
AcDbLine
 10
1055.219198336998
 20
84.32250805654879
 30
0.0
 11
1071.926964518415
 21
84.32250805654879
 31
0.0
  0
TEXT
  5
326
330
1A
100
AcDbEntity
  8
ZUWAKU
100
AcDbText
 10
1057.183787695704
 20
85.29013588385168
 30
0.0
 40
1.931860370396977
  1
　　．　．　　
 41
0.9
  7
ｽﾀｲﾙ1
100
AcDbText
  0
LINE
  5
328
330
1A
100
AcDbEntity
  8
ZUWAKU
100
AcDbLine
 10
903.3713160671778
 20
84.39150306977721
 30
0.0
 11
985.7436905413438
 21
84.39150306977721
 31
0.0
  0
LINE
  5
329
330
1A
100
AcDbEntity
  8
ZUWAKU
100
AcDbLine
 10
903.3713160671778
 20
84.46049808300561
 30
0.0
 11
985.7436905413438
 21
84.46049808300561
 31
0.0
  0
LINE
  5
32A
330
1A
100
AcDbEntity
  8
ZUWAKU
100
AcDbLine
 10
903.3713160671778
 20
84.32250805654879
 30
0.0
 11
985.7436905413438
 21
84.32250805654879
 31
0.0
  0
ARC
  5
32E
330
1A
100
AcDbEntity
  8
ZUWAKU
100
AcDbCircle
 10
852.7360865919032
 20
86.91844542926963
 30
0.0
 40
0.1811119097247167
100
AcDbArc
 50
89.99999999999998
 51
180.0
  0
LINE
  5
32F
330
1A
100
AcDbEntity
  8
ZUWAKU
100
AcDbLine
 10
851.3475619506804
 20
81.54545877410308
 30
0.0
 11
852.5549746821786
 21
81.54545877410308
 31
0.0
  0
ARC
  5
330
330
1A
100
AcDbEntity
  8
ZUWAKU
100
AcDbCircle
 10
852.1927508627289
 20
82.87361277875101
 30
0.0
 40
0.362223819449433
100
AcDbArc
 50
270.0
 51
0.0
  0
LINE
  5
331
330
1A
100
AcDbEntity
  8
ZUWAKU
100
AcDbLine
 10
844.632376015804
 20
81.78110916095281
 30
0.0
 11
843.8298289961421
 21
84.32250805654879
 31
0.0
  0
LINE
  5
332
330
1A
100
AcDbEntity
  8
ZUWAKU
100
AcDbLine
 10
842.6541902838939
 20
81.72657068382781
 30
0.0
 11
842.6541902838939
 21
83.65843105422476
 31
0.0
  0
LINE
  5
333
330
1A
100
AcDbEntity
  8
ZUWAKU
100
AcDbLine
 10
843.7008911845792
 20
81.67203220670268
 30
0.0
 11
843.0563846610064
 21
83.71296953134992
 31
0.0
  0
LINE
  5
334
330
1A
100
AcDbEntity
  8
ZUWAKU
100
AcDbLine
 10
838.5489869968004
 20
82.99435405190076
 30
0.0
 11
838.5489869968004
 21
85.6506620611967
 31
0.0
  0
LINE
  5
335
330
1A
100
AcDbEntity
  8
ZUWAKU
100
AcDbLine
 10
839.5149171819989
 20
85.6506620611967
 30
0.0
 11
839.5149171819989
 21
82.99435405190076
 31
0.0
  0
LINE
  5
336
330
1A
100
AcDbEntity
  8
ZUWAKU
100
AcDbLine
 10
841.6882600986955
 20
86.91844542926961
 30
0.0
 11
841.6882600986955
 21
81.72657068382781
 31
0.0
  0
LINE
  5
337
330
1A
100
AcDbEntity
  8
ZUWAKU
100
AcDbLine
 10
840.6619592769221
 20
86.13362715379597
 30
0.0
 11
839.9978822745982
 21
86.13362715379597
 31
0.0
  0
LINE
  5
338
330
1A
100
AcDbEntity
  8
ZUWAKU
100
AcDbLine
 10
839.9978822745982
 20
87.09955733899434
 30
0.0
 11
840.6619592769221
 21
87.09955733899434
 31
0.0
  0
ARC
  5
339
330
1A
100
AcDbEntity
  8
ZUWAKU
100
AcDbCircle
 10
843.873596362142
 20
86.91844542926963
 30
0.0
 40
0.1811119097247167
100
AcDbArc
 50
89.99999999999998
 51
162.4744316262773
  0
ARC
  5
33A
330
1A
100
AcDbEntity
  8
ZUWAKU
100
AcDbCircle
 10
844.4596708382412
 20
86.91844542926963
 30
0.0
 40
0.1811119097247167
100
AcDbArc
 50
342.4744316262774
 51
89.99999999999998
  0
LINE
  5
33B
330
1A
100
AcDbEntity
  8
ZUWAKU
100
AcDbLine
 10
843.873596362142
 20
87.09955733899434
 30
0.0
 11
844.4596708382412
 21
87.09955733899434
 31
0.0
  0
ARC
  5
33C
330
1A
100
AcDbEntity
  8
ZUWAKU
100
AcDbCircle
 10
841.8693720084203
 20
86.91844542926963
 30
0.0
 40
0.1811119097247167
100
AcDbArc
 50
89.99999999999998
 51
180.0
  0
ARC
  5
33D
330
1A
100
AcDbEntity
  8
ZUWAKU
100
AcDbCircle
 10
840.6619592769221
 20
86.91844542926963
 30
0.0
 40
0.1811119097247167
100
AcDbArc
 50
0.0
 51
89.99999999999998
  0
LINE
  5
33E
330
1A
100
AcDbEntity
  8
ZUWAKU
100
AcDbLine
 10
842.4730783741692
 20
87.09955733899434
 30
0.0
 11
841.8693720084203
 21
87.09955733899434
 31
0.0
  0
ARC
  5
33F
330
1A
100
AcDbEntity
  8
ZUWAKU
100
AcDbCircle
 10
842.4730783741692
 20
86.91844542926963
 30
0.0
 40
0.1811119097247167
100
AcDbArc
 50
0.0
 51
89.99999999999998
  0
ARC
  5
340
330
1A
100
AcDbEntity
  8
ZUWAKU
100
AcDbCircle
 10
840.6619592769221
 20
86.31473906352059
 30
0.0
 40
0.1811119097247167
100
AcDbArc
 50
270.0
 51
0.0
  0
LINE
  5
341
330
1A
100
AcDbEntity
  8
ZUWAKU
100
AcDbLine
 10
840.8430711866468
 20
86.91844542926961
 30
0.0
 11
840.8430711866468
 21
86.31473906352056
 31
0.0
  0
LINE
  5
342
330
1A
100
AcDbEntity
  8
ZUWAKU
100
AcDbLine
 10
844.266136813143
 20
85.7041494770514
 30
0.0
 11
843.8298289961421
 21
84.32250805654879
 31
0.0
  0
CIRCLE
  5
343
330
1A
100
AcDbEntity
  8
ZUWAKU
100
AcDbCircle
 10
840.3601060940475
 20
84.32250805654868
 30
0.0
 40
0.6037063657490556
  0
ARC
  5
344
330
1A
100
AcDbEntity
  8
ZUWAKU
100
AcDbCircle
 10
842.8353021936185
 20
83.65843105422465
 30
0.0
 40
0.1811119097247167
100
AcDbArc
 50
89.99999999999998
 51
180.0
  0
ARC
  5
345
330
1A
100
AcDbEntity
  8
ZUWAKU
100
AcDbCircle
 10
842.8836794834436
 20
83.65843105422465
 30
0.0
 40
0.1811119097247167
100
AcDbArc
 50
17.52556837372264
 51
89.99999999999998
  0
ARC
  5
346
330
1A
100
AcDbEntity
  8
ZUWAKU
100
AcDbCircle
 10
842.8353021936185
 20
84.98658505887268
 30
0.0
 40
0.1811119097247167
100
AcDbArc
 50
180.0
 51
270.0
  0
LINE
  5
347
330
1A
100
AcDbEntity
  8
ZUWAKU
100
AcDbLine
 10
842.8353021936185
 20
83.83954296394952
 30
0.0
 11
842.8836794834436
 21
83.83954296394952
 31
0.0
  0
LINE
  5
348
330
1A
100
AcDbEntity
  8
ZUWAKU
100
AcDbLine
 10
842.8836794834436
 20
84.80547314914792
 30
0.0
 11
842.8353021936185
 21
84.80547314914792
 31
0.0
  0
ARC
  5
349
330
1A
100
AcDbEntity
  8
ZUWAKU
100
AcDbCircle
 10
842.8836794834436
 20
84.98658505887268
 30
0.0
 40
0.1811119097247167
100
AcDbArc
 50
270.0
 51
342.4744316262774
  0
LINE
  5
34A
330
1A
100
AcDbEntity
  8
ZUWAKU
100
AcDbLine
 10
843.7008911845792
 20
86.97298390639478
 30
0.0
 11
843.0563846610064
 21
84.93204658174766
 31
0.0
  0
LINE
  5
34B
330
1A
100
AcDbEntity
  8
ZUWAKU
100
AcDbLine
 10
842.6541902838939
 20
84.98658505887267
 30
0.0
 11
842.6541902838939
 21
86.91844542926961
 31
0.0
  0
ARC
  5
34C
330
1A
100
AcDbEntity
  8
ZUWAKU
100
AcDbCircle
 10
839.9978822745982
 20
85.65066206119656
 30
0.0
 40
0.4829650925992441
100
AcDbArc
 50
89.99999999999998
 51
180.0
  0
ARC
  5
34D
330
1A
100
AcDbEntity
  8
ZUWAKU
100
AcDbCircle
 10
839.9978822745982
 20
85.65066206119656
 30
0.0
 40
1.448895277797732
100
AcDbArc
 50
89.99999999999998
 51
180.0
  0
LINE
  5
34E
330
1A
100
AcDbEntity
  8
ZUWAKU
100
AcDbLine
 10
844.632376015804
 20
86.86390695214461
 30
0.0
 11
844.266136813143
 21
85.7041494770514
 31
0.0
  0
LINE
  5
34F
330
1A
100
AcDbEntity
  8
ZUWAKU
100
AcDbLine
 10
840.6619592769221
 20
81.54545877410308
 30
0.0
 11
839.9978822745982
 21
81.54545877410308
 31
0.0
  0
LINE
  5
350
330
1A
100
AcDbEntity
  8
ZUWAKU
100
AcDbLine
 10
839.9978822745982
 20
82.51138895930163
 30
0.0
 11
840.6619592769221
 21
82.51138895930163
 31
0.0
  0
ARC
  5
351
330
1A
100
AcDbEntity
  8
ZUWAKU
100
AcDbCircle
 10
843.873596362142
 20
81.7265706838277
 30
0.0
 40
0.1811119097247167
100
AcDbArc
 50
197.5255683737227
 51
270.0
  0
ARC
  5
352
330
1A
100
AcDbEntity
  8
ZUWAKU
100
AcDbCircle
 10
844.4596708382412
 20
81.7265706838277
 30
0.0
 40
0.1811119097247167
100
AcDbArc
 50
270.0
 51
17.52556837372264
  0
LINE
  5
353
330
1A
100
AcDbEntity
  8
ZUWAKU
100
AcDbLine
 10
843.873596362142
 20
81.54545877410308
 30
0.0
 11
844.4596708382412
 21
81.54545877410308
 31
0.0
  0
ARC
  5
354
330
1A
100
AcDbEntity
  8
ZUWAKU
100
AcDbCircle
 10
841.8693720084203
 20
81.7265706838277
 30
0.0
 40
0.1811119097247167
100
AcDbArc
 50
180.0
 51
270.0
  0
ARC
  5
355
330
1A
100
AcDbEntity
  8
ZUWAKU
100
AcDbCircle
 10
840.6619592769221
 20
82.33027704957676
 30
0.0
 40
0.1811119097247167
100
AcDbArc
 50
0.0
 51
89.99999999999998
  0
ARC
  5
356
330
1A
100
AcDbEntity
  8
ZUWAKU
100
AcDbCircle
 10
840.6619592769221
 20
81.7265706838277
 30
0.0
 40
0.1811119097247167
100
AcDbArc
 50
270.0
 51
0.0
  0
LINE
  5
357
330
1A
100
AcDbEntity
  8
ZUWAKU
100
AcDbLine
 10
840.8430711866468
 20
82.3302770495769
 30
0.0
 11
840.8430711866468
 21
81.72657068382781
 31
0.0
  0
ARC
  5
358
330
1A
100
AcDbEntity
  8
ZUWAKU
100
AcDbCircle
 10
842.4730783741692
 20
81.7265706838277
 30
0.0
 40
0.1811119097247167
100
AcDbArc
 50
270.0
 51
0.0
  0
LINE
  5
359
330
1A
100
AcDbEntity
  8
ZUWAKU
100
AcDbLine
 10
841.8693720084203
 20
81.54545877410308
 30
0.0
 11
842.4730783741692
 21
81.54545877410308
 31
0.0
  0
ARC
  5
35A
330
1A
100
AcDbEntity
  8
ZUWAKU
100
AcDbCircle
 10
839.9978822745982
 20
82.99435405190079
 30
0.0
 40
1.448895277797732
100
AcDbArc
 50
180.0
 51
270.0
  0
ARC
  5
35B
330
1A
100
AcDbEntity
  8
ZUWAKU
100
AcDbCircle
 10
839.9978822745982
 20
82.99435405190079
 30
0.0
 40
0.4829650925992441
100
AcDbArc
 50
180.0
 51
270.0
  0
ARC
  5
35C
330
1A
100
AcDbEntity
  8
ZUWAKU
100
AcDbCircle
 10
848.2082888487852
 20
83.13758839806007
 30
0.0
 40
1.448895277797732
100
AcDbArc
 50
0.0
 51
44.99999999999955
  0
ARC
  5
35D
330
1A
100
AcDbEntity
  8
ZUWAKU
100
AcDbCircle
 10
848.2082888487852
 20
83.13758839806022
 30
0.0
 40
0.4829650925992441
100
AcDbArc
 50
0.0
 51
44.99999999999955
  0
LINE
  5
35E
330
1A
100
AcDbEntity
  8
ZUWAKU
100
AcDbLine
 10
851.3475619506804
 20
82.87361277875097
 30
0.0
 11
851.3475619506804
 21
86.91844542926961
 31
0.0
  0
LINE
  5
35F
330
1A
100
AcDbEntity
  8
ZUWAKU
100
AcDbLine
 10
850.3816317654818
 20
86.91844542926961
 30
0.0
 11
850.3816317654818
 21
82.51138895930163
 31
0.0
  0
LINE
  5
360
330
1A
100
AcDbEntity
  8
ZUWAKU
100
AcDbLine
 10
846.3971697515381
 20
81.72657068382781
 30
0.0
 11
846.3971697515381
 21
86.91844542926961
 31
0.0
  0
LINE
  5
361
330
1A
100
AcDbEntity
  8
ZUWAKU
100
AcDbLine
 10
845.4312395663396
 20
86.91844542926961
 30
0.0
 11
845.4312395663396
 21
81.72657068382781
 31
0.0
  0
ARC
  5
362
330
1A
100
AcDbEntity
  8
ZUWAKU
100
AcDbCircle
 10
849.2949603071336
 20
86.91844542926963
 30
0.0
 40
0.1811119097247167
100
AcDbArc
 50
0.0
 51
89.99999999999998
  0
LINE
  5
363
330
1A
100
AcDbEntity
  8
ZUWAKU
100
AcDbLine
 10
851.1664500409557
 20
87.09955733899434
 30
0.0
 11
850.5627436752066
 21
87.09955733899434
 31
0.0
  0
ARC
  5
364
330
1A
100
AcDbEntity
  8
ZUWAKU
100
AcDbCircle
 10
850.5627436752066
 20
86.91844542926963
 30
0.0
 40
0.1811119097247167
100
AcDbArc
 50
89.99999999999998
 51
180.0
  0
ARC
  5
365
330
1A
100
AcDbEntity
  8
ZUWAKU
100
AcDbCircle
 10
851.1664500409557
 20
86.91844542926963
 30
0.0
 40
0.1811119097247167
100
AcDbArc
 50
0.0
 51
89.99999999999998
  0
ARC
  5
366
330
1A
100
AcDbEntity
  8
ZUWAKU
100
AcDbCircle
 10
846.2160578418133
 20
86.91844542926963
 30
0.0
 40
0.1811119097247167
100
AcDbArc
 50
0.0
 51
89.99999999999998
  0
LINE
  5
367
330
1A
100
AcDbEntity
  8
ZUWAKU
100
AcDbLine
 10
848.0875475756356
 20
87.09955733899434
 30
0.0
 11
849.2949603071336
 21
87.09955733899434
 31
0.0
  0
ARC
  5
368
330
1A
100
AcDbEntity
  8
ZUWAKU
100
AcDbCircle
 10
849.2949603071336
 20
86.31473906352059
 30
0.0
 40
0.1811119097247167
100
AcDbArc
 50
270.0
 51
0.0
  0
ARC
  5
369
330
1A
100
AcDbEntity
  8
ZUWAKU
100
AcDbCircle
 10
848.26865948536
 20
85.95251524407109
 30
0.0
 40
0.1811119097247167
100
AcDbArc
 50
89.99999999999998
 51
180.0
  0
LINE
  5
36A
330
1A
100
AcDbEntity
  8
ZUWAKU
100
AcDbLine
 10
849.2949603071336
 20
86.13362715379597
 30
0.0
 11
848.26865948536
 21
86.13362715379597
 31
0.0
  0
ARC
  5
36B
330
1A
100
AcDbEntity
  8
ZUWAKU
100
AcDbCircle
 10
848.0875475756356
 20
86.13362715379585
 30
0.0
 40
0.9659301851984885
100
AcDbArc
 50
89.99999999999998
 51
180.0
  0
LINE
  5
36C
330
1A
100
AcDbEntity
  8
ZUWAKU
100
AcDbLine
 10
849.4760722168582
 20
86.91844542926961
 30
0.0
 11
849.4760722168582
 21
86.31473906352056
 31
0.0
  0
ARC
  5
36D
330
1A
100
AcDbEntity
  8
ZUWAKU
100
AcDbCircle
 10
845.6123514760644
 20
86.91844542926963
 30
0.0
 40
0.1811119097247167
100
AcDbArc
 50
89.99999999999998
 51
180.0
  0
LINE
  5
36E
330
1A
100
AcDbEntity
  8
ZUWAKU
100
AcDbLine
 10
846.2160578418133
 20
87.09955733899434
 30
0.0
 11
845.6123514760644
 21
87.09955733899434
 31
0.0
  0
ARC
  5
36F
330
1A
100
AcDbEntity
  8
ZUWAKU
100
AcDbCircle
 10
848.5705126682345
 20
85.50742771503712
 30
0.0
 40
1.448895277797732
100
AcDbArc
 50
180.0
 51
224.9999999999996
  0
ARC
  5
370
330
1A
100
AcDbEntity
  8
ZUWAKU
100
AcDbCircle
 10
848.5705126682345
 20
85.50742771503712
 30
0.0
 40
0.4829650925992441
100
AcDbArc
 50
180.0000000000016
 51
224.9999999999994
  0
LINE
  5
371
330
1A
100
AcDbEntity
  8
ZUWAKU
100
AcDbLine
 10
847.5459889920749
 20
84.48290403887739
 30
0.0
 11
848.5497967408386
 21
83.47909629011352
 31
0.0
  0
LINE
  5
372
330
1A
100
AcDbEntity
  8
ZUWAKU
100
AcDbLine
 10
849.2328125249452
 20
84.16211207422021
 30
0.0
 11
848.2290047761813
 21
85.16591982298391
 31
0.0
  0
LINE
  5
373
330
1A
100
AcDbEntity
  8
ZUWAKU
100
AcDbLine
 10
847.121617390437
 20
86.13362715379597
 30
0.0
 11
847.121617390437
 21
85.50742771503726
 31
0.0
  0
LINE
  5
374
330
1A
100
AcDbEntity
  8
ZUWAKU
100
AcDbLine
 10
848.0875475756356
 20
85.95251524407121
 30
0.0
 11
848.0875475756356
 21
85.50742771503726
 31
0.0
  0
ARC
  5
375
330
1A
100
AcDbEntity
  8
ZUWAKU
100
AcDbCircle
 10
851.7097857701298
 20
82.87361277875101
 30
0.0
 40
0.362223819449433
100
AcDbArc
 50
180.0
 51
270.0
  0
ARC
  5
376
330
1A
100
AcDbEntity
  8
ZUWAKU
100
AcDbCircle
 10
851.3475619506804
 20
82.51138895930152
 30
0.0
 40
0.9659301851984885
100
AcDbArc
 50
180.0
 51
270.0
  0
ARC
  5
377
330
1A
100
AcDbEntity
  8
ZUWAKU
100
AcDbCircle
 10
848.6912539413845
 20
82.51138895930152
 30
0.0
 40
0.9659301851984885
100
AcDbArc
 50
270.0
 51
0.0
  0
LINE
  5
378
330
1A
100
AcDbEntity
  8
ZUWAKU
100
AcDbLine
 10
849.6571841265829
 20
82.51138895930163
 30
0.0
 11
849.6571841265829
 21
83.13758839806018
 31
0.0
  0
LINE
  5
379
330
1A
100
AcDbEntity
  8
ZUWAKU
100
AcDbLine
 10
847.4838412098865
 20
81.54545877410308
 30
0.0
 11
848.6912539413845
 21
81.54545877410308
 31
0.0
  0
LINE
  5
37A
330
1A
100
AcDbEntity
  8
ZUWAKU
100
AcDbLine
 10
847.4838412098865
 20
82.51138895930163
 30
0.0
 11
848.5101420316597
 21
82.51138895930163
 31
0.0
  0
ARC
  5
37B
330
1A
100
AcDbEntity
  8
ZUWAKU
100
AcDbCircle
 10
847.4838412098865
 20
82.33027704957676
 30
0.0
 40
0.1811119097247167
100
AcDbArc
 50
89.99999999999998
 51
180.0
  0
ARC
  5
37C
330
1A
100
AcDbEntity
  8
ZUWAKU
100
AcDbCircle
 10
846.2160578418133
 20
81.7265706838277
 30
0.0
 40
0.1811119097247167
100
AcDbArc
 50
270.0
 51
0.0
  0
ARC
  5
37D
330
1A
100
AcDbEntity
  8
ZUWAKU
100
AcDbCircle
 10
847.4838412098865
 20
81.7265706838277
 30
0.0
 40
0.1811119097247167
100
AcDbArc
 50
180.0
 51
270.0
  0
LINE
  5
37E
330
1A
100
AcDbEntity
  8
ZUWAKU
100
AcDbLine
 10
847.3027293001617
 20
81.72657068382781
 30
0.0
 11
847.3027293001617
 21
82.3302770495769
 31
0.0
  0
ARC
  5
37F
330
1A
100
AcDbEntity
  8
ZUWAKU
100
AcDbCircle
 10
848.5101420316597
 20
82.69250086902625
 30
0.0
 40
0.1811119097247167
100
AcDbArc
 50
270.0
 51
0.0
  0
LINE
  5
380
330
1A
100
AcDbEntity
  8
ZUWAKU
100
AcDbLine
 10
848.6912539413845
 20
82.69250086902621
 30
0.0
 11
848.6912539413845
 21
83.13758839806018
 31
0.0
  0
LINE
  5
381
330
1A
100
AcDbEntity
  8
ZUWAKU
100
AcDbLine
 10
852.1927508627289
 20
82.51138895930163
 30
0.0
 11
851.7097857701298
 21
82.51138895930163
 31
0.0
  0
ARC
  5
382
330
1A
100
AcDbEntity
  8
ZUWAKU
100
AcDbCircle
 10
845.6123514760644
 20
81.7265706838277
 30
0.0
 40
0.1811119097247167
100
AcDbArc
 50
180.0
 51
270.0
  0
LINE
  5
383
330
1A
100
AcDbEntity
  8
ZUWAKU
100
AcDbLine
 10
845.6123514760644
 20
81.54545877410308
 30
0.0
 11
846.2160578418133
 21
81.54545877410308
 31
0.0
  0
LINE
  5
384
330
1A
100
AcDbEntity
  8
ZUWAKU
100
AcDbLine
 10
854.2453525062757
 20
86.91844542926961
 30
0.0
 11
854.2453525062757
 21
81.72657068382781
 31
0.0
  0
LINE
  5
385
330
1A
100
AcDbEntity
  8
ZUWAKU
100
AcDbLine
 10
855.2112826914742
 20
81.72657068382781
 30
0.0
 11
855.2112826914742
 21
86.91844542926961
 31
0.0
  0
LINE
  5
386
330
1A
100
AcDbEntity
  8
ZUWAKU
100
AcDbLine
 10
852.5549746821786
 20
86.91844542926961
 30
0.0
 11
852.5549746821786
 21
82.87361277875097
 31
0.0
  0
LINE
  5
387
330
1A
100
AcDbEntity
  8
ZUWAKU
100
AcDbLine
 10
853.520904867377
 20
82.51138895930163
 30
0.0
 11
853.520904867377
 21
86.91844542926961
 31
0.0
  0
LINE
  5
388
330
1A
100
AcDbEntity
  8
ZUWAKU
100
AcDbLine
 10
858.6901552487027
 20
89.42813903545498
 30
0.0
 11
858.6901552487027
 21
79.35486710409938
 31
0.0
  0
LINE
  5
389
330
1A
100
AcDbEntity
  8
ZUWAKU
100
AcDbLine
 10
858.8281452751596
 20
89.42813903545498
 30
0.0
 11
858.8281452751598
 21
79.35486710409938
 31
0.0
  0
LINE
  5
38A
330
1A
100
AcDbEntity
  8
ZUWAKU
100
AcDbLine
 10
858.7591502619311
 20
89.42813903545498
 30
0.0
 11
858.7591502619313
 21
79.35486710409938
 31
0.0
  0
ARC
  5
38B
330
1A
100
AcDbEntity
  8
ZUWAKU
100
AcDbCircle
 10
855.0301707817496
 20
86.91844542926963
 30
0.0
 40
0.1811119097247167
100
AcDbArc
 50
0.0
 51
89.99999999999998
  0
LINE
  5
38C
330
1A
100
AcDbEntity
  8
ZUWAKU
100
AcDbLine
 10
853.3397929576521
 20
87.09955733899434
 30
0.0
 11
852.7360865919032
 21
87.09955733899434
 31
0.0
  0
ARC
  5
38D
330
1A
100
AcDbEntity
  8
ZUWAKU
100
AcDbCircle
 10
853.3397929576521
 20
86.91844542926963
 30
0.0
 40
0.1811119097247167
100
AcDbArc
 50
0.0
 51
89.99999999999998
  0
ARC
  5
38E
330
1A
100
AcDbEntity
  8
ZUWAKU
100
AcDbCircle
 10
854.4264644160007
 20
86.91844542926963
 30
0.0
 40
0.1811119097247167
100
AcDbArc
 50
89.99999999999998
 51
180.0
  0
LINE
  5
38F
330
1A
100
AcDbEntity
  8
ZUWAKU
100
AcDbLine
 10
855.0301707817496
 20
87.09955733899434
 30
0.0
 11
854.4264644160007
 21
87.09955733899434
 31
0.0
  0
ARC
  5
390
330
1A
100
AcDbEntity
  8
ZUWAKU
100
AcDbCircle
 10
852.5549746821786
 20
82.51138895930152
 30
0.0
 40
0.9659301851984885
100
AcDbArc
 50
270.0
 51
0.0
  0
ARC
  5
391
330
1A
100
AcDbEntity
  8
ZUWAKU
100
AcDbCircle
 10
855.0301707817496
 20
81.7265706838277
 30
0.0
 40
0.1811119097247167
100
AcDbArc
 50
270.0
 51
0.0
  0
ARC
  5
392
330
1A
100
AcDbEntity
  8
ZUWAKU
100
AcDbCircle
 10
854.4264644160007
 20
81.7265706838277
 30
0.0
 40
0.1811119097247167
100
AcDbArc
 50
180.0
 51
270.0
  0
LINE
  5
393
330
1A
100
AcDbEntity
  8
ZUWAKU
100
AcDbLine
 10
854.4264644160007
 20
81.54545877410308
 30
0.0
 11
855.0301707817496
 21
81.54545877410308
 31
0.0
  0
TEXT
  5
394
330
1A
100
AcDbEntity
  8
ZUWAKU
100
AcDbText
 10
903.7430077349792
 20
82.40974431164275
 30
0.0
 40
1.379900264569269
  1
サイズ
 41
0.9
  7
ｽﾀｲﾙ1
100
AcDbText
  0
LINE
  5
395
330
1A
100
AcDbEntity
  8
ZUWAKU
100
AcDbLine
 10
903.3023210539491
 20
89.42813903545498
 30
0.0
 11
903.3023210539493
 21
79.35486710409938
 31
0.0
  0
LINE
  5
396
330
1A
100
AcDbEntity
  8
ZUWAKU
100
AcDbLine
 10
903.3713160671776
 20
89.42813903545498
 30
0.0
 11
903.3713160671778
 21
79.35486710409938
 31
0.0
  0
LINE
  5
397
330
1A
100
AcDbEntity
  8
ZUWAKU
100
AcDbLine
 10
903.2333260407208
 20
89.42813903545498
 30
0.0
 11
903.2333260407208
 21
79.35486710409938
 31
0.0
  0
TEXT
  5
398
330
1A
100
AcDbEntity
  8
ZUWAKU
100
AcDbText
 10
903.7430077349791
 20
87.377385264092
 30
0.0
 40
1.379900264569269
  1
品名
 41
0.9
  7
ｽﾀｲﾙ1
100
AcDbText
  0
LINE
  5
399
330
1A
100
AcDbEntity
  8
ZUWAKU
100
AcDbLine
 10
1005.674561349182
 20
84.46049808300561
 30
0.0
 11
1022.001464097594
 21
84.46049808300561
 31
0.0
  0
LINE
  5
39A
330
1A
100
AcDbEntity
  8
ZUWAKU
100
AcDbLine
 10
1005.674561349182
 20
84.39150306977721
 30
0.0
 11
1022.001464097594
 21
84.39150306977721
 31
0.0
  0
LINE
  5
39B
330
1A
100
AcDbEntity
  8
ZUWAKU
100
AcDbLine
 10
1005.674561349182
 20
84.32250805654879
 30
0.0
 11
1022.001464097594
 21
84.32250805654879
 31
0.0
  0
TEXT
  5
39D
330
1A
100
AcDbEntity
  8
ZUWAKU
100
AcDbText
 10
986.3913622620591
 20
87.377385264092
 30
0.0
 40
1.379900264569269
  1
品番
 41
0.9
  7
ｽﾀｲﾙ1
100
AcDbText
  0
LINE
  5
39E
330
1A
100
AcDbEntity
  8
ZUWAKU
100
AcDbLine
 10
985.7436905413438
 20
89.42813903545498
 30
0.0
 11
985.7436905413438
 21
79.35486710409938
 31
0.0
  0
LINE
  5
39F
330
1A
100
AcDbEntity
  8
ZUWAKU
100
AcDbLine
 10
985.8816805678007
 20
89.42813903545498
 30
0.0
 11
985.8816805678008
 21
79.35486710409938
 31
0.0
  0
LINE
  5
3A0
330
1A
100
AcDbEntity
  8
ZUWAKU
100
AcDbLine
 10
985.8126855545721
 20
89.42813903545498
 30
0.0
 11
985.8126855545721
 21
79.35486710409938
 31
0.0
  0
TEXT
  5
3A1
330
1A
100
AcDbEntity
  8
ZUWAKU
100
AcDbText
 10
1006.184243043441
 20
82.4097443116427
 30
0.0
 40
1.379900264569269
  1
縮尺
 41
0.9
  7
ｽﾀｲﾙ1
100
AcDbText
  0
LINE
  5
3A2
330
1A
100
AcDbEntity
  8
ZUWAKU
100
AcDbLine
 10
1005.536571322726
 20
89.42813903545498
 30
0.0
 11
1005.536571322726
 21
79.35486710409938
 31
0.0
  0
LINE
  5
3A3
330
1A
100
AcDbEntity
  8
ZUWAKU
100
AcDbLine
 10
1005.674561349182
 20
89.42813903545498
 30
0.0
 11
1005.674561349182
 21
79.35486710409938
 31
0.0
  0
LINE
  5
3A4
330
1A
100
AcDbEntity
  8
ZUWAKU
100
AcDbLine
 10
1005.605566335954
 20
89.42813903545498
 30
0.0
 11
1005.605566335954
 21
79.35486710409938
 31
0.0
  0
TEXT
  5
3A5
330
1A
100
AcDbEntity
  8
ZUWAKU
100
AcDbText
 10
1006.184243043441
 20
87.37738526409193
 30
0.0
 40
1.379900264569269
  1
用紙
 41
0.9
  7
ｽﾀｲﾙ1
100
AcDbText
  0
TEXT
  5
3A6
330
1A
100
AcDbEntity
  8
MOJI
100
AcDbText
 10
1013.554388140365
 20
80.18450490494547
 30
0.0
 40
1.931860370396977
  1
１/１
 41
0.9
  7
ｽﾀｲﾙ1
100
AcDbText
  0
TEXT
  5
3A7
330
1A
100
AcDbEntity
  8
MOJI
100
AcDbText
 10
1013.554388140365
 20
85.29013588385168
 30
0.0
 40
1.931860370396977
  1
Ａ4
 41
0.9
  7
ｽﾀｲﾙ1
100
AcDbText
  0
LINE
  5
3A8
330
1A
100
AcDbEntity
  8
ZUWAKU
100
AcDbLine
 10
1022.001464097594
 20
89.42813903545498
 30
0.0
 11
1022.001464097594
 21
79.35486710409938
 31
0.0
  0
LINE
  5
3A9
330
1A
100
AcDbEntity
  8
ZUWAKU
100
AcDbLine
 10
1022.139454124051
 20
89.42813903545498
 30
0.0
 11
1022.139454124051
 21
79.35486710409938
 31
0.0
  0
LINE
  5
3AA
330
1A
100
AcDbEntity
  8
ZUWAKU
100
AcDbLine
 10
1022.070459110823
 20
89.42813903545498
 30
0.0
 11
1022.070459110823
 21
79.35486710409938
 31
0.0
  0
LINE
  5
3AB
330
1A
100
AcDbEntity
  8
ZUWAKU
100
AcDbLine
 10
1055.081208310541
 20
89.42813903545498
 30
0.0
 11
1055.081208310541
 21
79.35486710409938
 31
0.0
  0
LINE
  5
3AC
330
1A
100
AcDbEntity
  8
ZUWAKU
100
AcDbLine
 10
1055.219198336998
 20
89.42813903545498
 30
0.0
 11
1055.219198336998
 21
79.35486710409938
 31
0.0
  0
LINE
  5
3AD
330
1A
100
AcDbEntity
  8
ZUWAKU
100
AcDbLine
 10
1055.150203323769
 20
89.42813903545498
 30
0.0
 11
1055.150203323769
 21
79.35486710409938
 31
0.0
  0
TEXT
  5
3AE
330
1A
100
AcDbEntity
  8
ZUWAKU
100
AcDbText
 10
1055.728880031256
 20
87.37738526409193
 30
0.0
 40
1.379900264569269
  1
DATE
 41
0.9
  7
ｽﾀｲﾙ1
100
AcDbText
  0
TEXT
  5
3AF
330
1A
100
AcDbEntity
  8
ZUWAKU
100
AcDbText
 10
1075.817963694675
 20
85.13452393706552
 30
0.0
 40
2.069850396853905
  1
積水化学工業株式会社
 41
0.9
  7
ｽﾀｲﾙ1
100
AcDbText
  0
TEXT
  5
3B0
330
1A
100
AcDbEntity
  8
ZUWAKU
100
AcDbText
 10
1075.817963694675
 20
81.37257117822688
 30
0.0
 40
2.069850396853905
  1
建材事業部
 41
0.9
  7
ｽﾀｲﾙ1
100
AcDbText
  0
LINE
  5
3B1
330
1A
100
AcDbEntity
  8
ZUWAKU
100
AcDbLine
 10
1072.1339495581
 20
89.42813903545498
 30
0.0
 11
1072.1339495581
 21
79.35486710409938
 31
0.0
  0
LINE
  5
3B2
330
1A
100
AcDbEntity
  8
ZUWAKU
100
AcDbLine
 10
1072.064954544872
 20
89.42813903545498
 30
0.0
 11
1072.064954544872
 21
79.35486710409938
 31
0.0
  0
LINE
  5
3B3
330
1A
100
AcDbEntity
  8
ZUWAKU
100
AcDbLine
 10
1071.995959531643
 20
89.42813903545498
 30
0.0
 11
1071.995959531643
 21
79.35486710409938
 31
0.0
  0
LINE
  5
3B4
330
1A
100
AcDbEntity
  8
ZUWAKU
100
AcDbLine
 10
1071.926964518415
 20
89.42813903545498
 30
0.0
 11
1071.926964518415
 21
79.35486710409938
 31
0.0
  0
DIMENSION
  5
507
330
1A
100
AcDbEntity
  8
SUNPOU
100
AcDbDimension
  2
*D3
 10
942.2793792661659
 20
156.5143692773523
 30
0.0
 11
935.9239702795685
 21
156.5143692773523
 31
0.0
 70
   160
 71
     5
 42
12.99999999999636
  3
STANDARD
100
AcDbAlignedDimension
 13
929.2793792661695
 23
147.1531676286564
 33
0.0
 14
942.2793792661659
 24
147.153168642833
 34
0.0
100
AcDbRotatedDimension
1001
ACAD
1000
DSTYLE
1002
{
1070
    41
1040
3.0
1070
    42
1040
3.0
1070
    43
1040
7.0
1070
    44
1040
1.5
1070
    73
1070
     0
1070
    74
1070
     0
1070
    77
1070
     3
1070
   140
1040
3.0
1070
   141
1040
150.0
1070
   147
1040
1.0
1070
   172
1070
     1
1070
   173
1070
     1
1070
   176
1070
     4
1070
   177
1070
     4
1070
   178
1070
     4
1070
   271
1070
     0
1070
   272
1070
     2
1070
   343
1005
B2
1070
   344
1005
B2
1002
}
  0
LINE
  5
525
330
1A
100
AcDbEntity
  8
SEIHIN
  6
Continuous
 62
     3
100
AcDbLine
 10
939.7793792661659
 20
140.6773550829563
 30
0.0
 11
931.7793792661678
 21
140.6773550829563
 31
0.0
  0
LINE
  5
526
330
1A
100
AcDbEntity
  8
SEIHIN
  6
Continuous
 62
     3
100
AcDbLine
 10
940.2793792661659
 20
138.1773550829563
 30
0.0
 11
929.7793792661677
 21
138.1773550829563
 31
0.0
  0
DIMENSION
  5
527
330
1A
100
AcDbEntity
  8
SUNPOU
100
AcDbDimension
  2
*D4
 10
946.279379266166
 20
166.5838347838878
 30
0.0
 11
935.7793792661665
 21
166.5838347838878
 31
0.0
 70
   160
 71
     5
 42
20.99999999999909
  3
STANDARD
100
AcDbAlignedDimension
 13
925.2793792661668
 23
147.1531676286563
 33
0.0
 14
946.279379266166
 24
147.1531663709608
 34
0.0
100
AcDbRotatedDimension
1001
ACAD
1000
DSTYLE
1002
{
1070
    41
1040
3.0
1070
    42
1040
3.0
1070
    43
1040
7.0
1070
    44
1040
1.5
1070
    73
1070
     0
1070
    74
1070
     0
1070
    77
1070
     3
1070
   140
1040
3.0
1070
   141
1040
150.0
1070
   147
1040
1.0
1070
   172
1070
     1
1070
   173
1070
     1
1070
   176
1070
     4
1070
   177
1070
     4
1070
   178
1070
     4
1070
   271
1070
     0
1070
   272
1070
     2
1070
   343
1005
B2
1070
   344
1005
B2
1002
}
  0
DIMENSION
  5
528
330
1A
100
AcDbEntity
  8
SUNPOU
100
AcDbDimension
  2
*D5
 10
913.0013179202988
 20
131.1773550829563
 30
0.0
 11
910.5013179202988
 21
140.1652613558069
 31
0.0
 70
    32
 71
     5
 42
17.97581254570104
  3
STANDARD
100
AcDbAlignedDimension
 13
927.2793802258938
 23
149.1531676286573
 33
0.0
 14
926.529379266166
 24
131.1773550829563
 34
0.0
 50
90.0
100
AcDbRotatedDimension
1001
ACAD
1000
DSTYLE
1002
{
1070
    41
1040
3.0
1070
    42
1040
3.0
1070
    43
1040
7.0
1070
    44
1040
1.5
1070
    73
1070
     0
1070
    74
1070
     0
1070
    77
1070
     3
1070
   140
1040
3.0
1070
   141
1040
150.0
1070
   147
1040
1.0
1070
   172
1070
     1
1070
   173
1070
     1
1070
   176
1070
     4
1070
   177
1070
     4
1070
   178
1070
     4
1070
   271
1070
     0
1070
   272
1070
     2
1070
   343
1005
B2
1070
   344
1005
B2
1002
}
  0
LINE
  5
529
330
1A
100
AcDbEntity
  8
SEIHIN
  6
Continuous
 62
     3
100
AcDbLine
 10
925.2793792661677
 20
147.1531695481104
 30
0.0
 11
925.2793792661677
 21
132.1773550829563
 31
0.0
  0
ARC
  5
52A
330
1A
100
AcDbEntity
  8
SEIHIN
  6
Continuous
 62
     3
100
AcDbCircle
 10
929.7793792661677
 20
136.1773550829563
 30
0.0
 40
2.000000000000113
100
AcDbArc
 50
90.0
 51
180.0
  0
ARC
  5
52B
330
1A
100
AcDbEntity
  8
SEIHIN
  6
Continuous
 62
     3
100
AcDbCircle
 10
926.779379266166
 20
132.1773550829563
 30
0.0
 40
1.0
100
AcDbArc
 50
270.0
 51
0.0
  0
ARC
  5
52C
330
1A
100
AcDbEntity
  8
SEIHIN
  6
Continuous
 62
     3
100
AcDbCircle
 10
926.2793792661678
 20
132.1773550829563
 30
0.0
 40
1.0
100
AcDbArc
 50
180.0
 51
270.0
  0
LINE
  5
52D
330
1A
100
AcDbEntity
  8
SEIHIN
  6
Continuous
 62
     3
100
AcDbLine
 10
926.779379266166
 20
131.1773550829563
 30
0.0
 11
926.2793792661678
 21
131.1773550829563
 31
0.0
  0
LINE
  5
52E
330
1A
100
AcDbEntity
  8
SEIHIN
  6
Continuous
 62
     3
100
AcDbLine
 10
927.7793792661659
 20
136.1773550829563
 30
0.0
 11
927.7793792661659
 21
132.1773550829563
 31
0.0
  0
DIMENSION
  5
52F
330
1A
100
AcDbEntity
  8
SUNPOU
100
AcDbDimension
  2
*D6
 10
919.0401851671222
 20
140.6773550829563
 30
0.0
 11
916.5401851671221
 21
144.9152613558069
 31
0.0
 70
    32
 71
     5
 42
8.475812545701046
  3
STANDARD
100
AcDbAlignedDimension
 13
927.2793802258938
 23
149.1531676286573
 33
0.0
 14
931.7793792661678
 24
140.6773550829563
 34
0.0
 50
90.0
100
AcDbRotatedDimension
1001
ACAD
1000
DSTYLE
1002
{
1070
    41
1040
3.0
1070
    42
1040
3.0
1070
    43
1040
7.0
1070
    44
1040
1.5
1070
    73
1070
     0
1070
    74
1070
     0
1070
    77
1070
     3
1070
   140
1040
3.0
1070
   141
1040
150.0
1070
   147
1040
1.0
1070
   172
1070
     1
1070
   173
1070
     1
1070
   176
1070
     4
1070
   177
1070
     4
1070
   178
1070
     4
1070
   271
1070
     0
1070
   272
1070
     2
1070
   343
1005
B2
1070
   344
1005
B2
1002
}
  0
ARC
  5
530
330
1A
100
AcDbEntity
  8
SEIHIN
  6
Continuous
 62
     3
100
AcDbCircle
 10
927.2793792661678
 20
147.1531676286564
 30
0.0
 40
2.000000000000921
100
AcDbArc
 50
0.0
 51
179.9999450116932
  0
ARC
  5
531
330
1A
100
AcDbEntity
  8
SEIHIN
  6
Continuous
 62
     3
100
AcDbCircle
 10
931.7793792661678
 20
144.6773550829563
 30
0.0
 40
4.000000000000113
100
AcDbArc
 50
180.0
 51
270.0
  0
ARC
  5
532
330
1A
100
AcDbEntity
  8
SEIHIN
  6
Continuous
 62
     3
100
AcDbCircle
 10
931.7793792661678
 20
144.6773550829563
 30
0.0
 40
4.0
100
AcDbArc
 50
247.9756871629579
 51
270.0
  0
LINE
  5
533
330
1A
100
AcDbEntity
  8
SEIHIN
  6
Continuous
 62
     3
100
AcDbLine
 10
927.7793792661659
 20
146.3462313610558
 30
0.0
 11
927.7793792661659
 21
144.6773550829563
 31
0.0
  0
ARC
  5
534
330
1A
100
AcDbEntity
  8
SEIHIN
  6
Continuous
 62
     3
100
AcDbCircle
 10
928.0793792661688
 20
146.3462313610558
 30
0.0
 40
0.3000000000027967
100
AcDbArc
 50
77.79612594302301
 51
180.0
  0
LINE
  5
535
330
1A
100
AcDbEntity
  8
SEIHIN
  6
Continuous
 62
     3
100
AcDbLine
 10
928.7793792661696
 20
146.1773550829535
 30
0.0
 11
928.1427965313696
 21
146.6394518420535
 31
0.0
  0
LINE
  5
536
330
1A
100
AcDbEntity
  8
SEIHIN
  6
Continuous
 62
     3
100
AcDbLine
 10
928.7793792661696
 20
146.1773550829535
 30
0.0
 11
929.2793792661695
 21
146.1773550829535
 31
0.0
  0
LINE
  5
537
330
1A
100
AcDbEntity
  8
SEIHIN
  6
Continuous
 62
     3
100
AcDbLine
 10
929.2793792661695
 20
146.1773550829535
 30
0.0
 11
929.2793792661695
 21
147.1531676286564
 31
0.0
  0
ARC
  5
538
330
1A
100
AcDbEntity
  8
SEIHIN
  6
Continuous
 62
     3
100
AcDbCircle
 10
944.2793792661658
 20
147.1531676286564
 30
0.0
 40
2.000000000000395
100
AcDbArc
 50
359.9999639696735
 51
179.9999709459796
  0
ARC
  5
539
330
1A
100
AcDbEntity
  8
SEIHIN
  6
Continuous
 62
     3
100
AcDbCircle
 10
943.4793792661666
 20
146.3462313610558
 30
0.0
 40
0.3000000000002941
100
AcDbArc
 50
0.0
 51
102.2038740630683
  0
ARC
  5
53A
330
1A
100
AcDbEntity
  8
SEIHIN
  6
Continuous
 62
     3
100
AcDbCircle
 10
939.7793792661659
 20
144.6773550829563
 30
0.0
 40
4.0
100
AcDbArc
 50
270.0
 51
0.0
  0
ARC
  5
53B
330
1A
100
AcDbEntity
  8
SEIHIN
  6
Continuous
 62
     3
100
AcDbCircle
 10
940.2793792661659
 20
144.1773550829563
 30
0.0
 40
6.0
100
AcDbArc
 50
270.0
 51
0.0
  0
ARC
  5
53C
330
1A
100
AcDbEntity
  8
SEIHIN
  6
Continuous
 62
     3
100
AcDbCircle
 10
939.7793792661678
 20
144.6773550829563
 30
0.0
 40
4.0
100
AcDbArc
 50
270.0
 51
292.024312837042
  0
LINE
  5
53D
330
1A
100
AcDbEntity
  8
SEIHIN
  6
Continuous
 62
     3
100
AcDbLine
 10
942.2793792661659
 20
146.1773550829563
 30
0.0
 11
942.2793792661659
 21
147.153168642833
 31
0.0
  0
LINE
  5
53E
330
1A
100
AcDbEntity
  8
SEIHIN
  6
Continuous
 62
     3
100
AcDbLine
 10
942.779379266166
 20
146.1773550829563
 30
0.0
 11
942.2793792661659
 21
146.1773550829563
 31
0.0
  0
LINE
  5
53F
330
1A
100
AcDbEntity
  8
SEIHIN
  6
Continuous
 62
     3
100
AcDbLine
 10
942.779379266166
 20
146.1773550829563
 30
0.0
 11
943.4159620009387
 21
146.6394518420444
 31
0.0
  0
LINE
  5
540
330
1A
100
AcDbEntity
  8
SEIHIN
  6
Continuous
 62
     3
100
AcDbLine
 10
943.7793792661659
 20
146.3462313610558
 30
0.0
 11
943.7793792661659
 21
144.6773550829563
 31
0.0
  0
LINE
  5
541
330
1A
100
AcDbEntity
  8
SEIHIN
  6
Continuous
 62
     3
100
AcDbLine
 10
946.279379266166
 20
147.1531663709608
 30
0.0
 11
946.279379266166
 21
144.1773550829563
 31
0.0
  0
LINE
  5
556
330
1A
100
AcDbEntity
  8
SEIHIN
  6
Continuous
 62
     3
100
AcDbLine
 10
942.2793792661659
 20
192.9459071307643
 30
0.0
 11
942.2793792661677
 21
212.9459071307644
 31
0.0
  0
LINE
  5
557
330
1A
100
AcDbEntity
  8
SEIHIN
  6
Continuous
 62
     3
100
AcDbLine
 10
946.279379266166
 20
192.9459071307643
 30
0.0
 11
946.2793792661678
 21
212.9459071307644
 31
0.0
  0
LINE
  5
558
330
1A
100
AcDbEntity
  8
SEIHIN
  6
Continuous
 62
     3
100
AcDbLine
 10
925.2793792661677
 20
192.9459071307643
 30
0.0
 11
925.2793792661677
 21
212.9459071307644
 31
0.0
  0
LINE
  5
559
330
1A
100
AcDbEntity
  8
SEIHIN
  6
Continuous
 62
     3
100
AcDbLine
 10
929.2793792661695
 20
192.9459071307643
 30
0.0
 11
929.2793792661695
 21
212.9459071307644
 31
0.0
  0
LINE
  5
55A
330
1A
100
AcDbEntity
  8
SEIHIN
  6
Continuous
 62
     3
100
AcDbLine
 10
930.2793792661695
 20
209.9459071307643
 30
0.0
 11
930.2793792661695
 21
195.9459071307643
 31
0.0
  0
LINE
  5
55B
330
1A
100
AcDbEntity
  8
SEIHIN
  6
Continuous
 62
     3
100
AcDbLine
 10
941.2793792661659
 20
195.9459071307643
 30
0.0
 11
941.2793792661677
 21
209.9459071307643
 31
0.0
  0
LINE
  5
55C
330
1A
100
AcDbEntity
  8
SEIHIN
  6
Continuous
 62
     3
100
AcDbLine
 10
939.7793792661659
 20
192.9459071307643
 30
0.0
 11
931.7793792661678
 21
192.9459071307643
 31
0.0
  0
LINE
  5
55D
330
1A
100
AcDbEntity
  8
SEIHIN
  6
Continuous
 62
     3
100
AcDbLine
 10
931.7793792661678
 20
195.9459071307643
 30
0.0
 11
939.7793792661678
 21
195.9459071307643
 31
0.0
  0
LINE
  5
55E
330
1A
100
AcDbEntity
  8
SEIHIN
  6
Continuous
 62
     3
100
AcDbLine
 10
931.7793792661678
 20
192.9459071307643
 30
0.0
 11
931.7793792661678
 21
195.9459071307643
 31
0.0
  0
LINE
  5
55F
330
1A
100
AcDbEntity
  8
SEIHIN
  6
Continuous
 62
     3
100
AcDbLine
 10
929.2793792661695
 20
192.9459071307643
 30
0.0
 11
925.2793792661677
 21
192.9459071307643
 31
0.0
  0
LINE
  5
560
330
1A
100
AcDbEntity
  8
SEIHIN
  6
Continuous
 62
     3
100
AcDbLine
 10
929.2793792661695
 20
192.9459071307643
 30
0.0
 11
931.7793792661678
 21
192.9459071307643
 31
0.0
  0
LINE
  5
561
330
1A
100
AcDbEntity
  8
SEIHIN
  6
Continuous
 62
     3
100
AcDbLine
 10
930.2793792661695
 20
195.9459071307643
 30
0.0
 11
931.7793792661678
 21
195.9459071307643
 31
0.0
  0
LINE
  5
562
330
1A
100
AcDbEntity
  8
SEIHIN
  6
Continuous
 62
     3
100
AcDbLine
 10
939.7793792661659
 20
192.9459071307643
 30
0.0
 11
939.7793792661678
 21
195.9459071307643
 31
0.0
  0
LINE
  5
563
330
1A
100
AcDbEntity
  8
SEIHIN
  6
Continuous
 62
     3
100
AcDbLine
 10
946.279379266166
 20
192.9459071307643
 30
0.0
 11
942.2793792661659
 21
192.9459071307643
 31
0.0
  0
LINE
  5
564
330
1A
100
AcDbEntity
  8
SEIHIN
  6
Continuous
 62
     3
100
AcDbLine
 10
939.7793792661659
 20
192.9459071307643
 30
0.0
 11
942.2793792661659
 21
192.9459071307643
 31
0.0
  0
LINE
  5
565
330
1A
100
AcDbEntity
  8
SEIHIN
  6
Continuous
 62
     3
100
AcDbLine
 10
939.7793792661678
 20
195.9459071307643
 30
0.0
 11
941.2793792661659
 21
195.9459071307643
 31
0.0
  0
LINE
  5
566
330
1A
100
AcDbEntity
  8
SEIHIN
  6
Continuous
 62
     3
100
AcDbLine
 10
939.7793792661678
 20
212.9459071307644
 30
0.0
 11
931.7793792661678
 21
212.9459071307644
 31
0.0
  0
LINE
  5
567
330
1A
100
AcDbEntity
  8
SEIHIN
  6
Continuous
 62
     3
100
AcDbLine
 10
939.7793792661678
 20
209.9459071307643
 30
0.0
 11
931.7793792661678
 21
209.9459071307643
 31
0.0
  0
LINE
  5
568
330
1A
100
AcDbEntity
  8
SEIHIN
  6
Continuous
 62
     3
100
AcDbLine
 10
929.2793792661695
 20
212.9459071307644
 30
0.0
 11
925.2793792661677
 21
212.9459071307644
 31
0.0
  0
LINE
  5
569
330
1A
100
AcDbEntity
  8
SEIHIN
  6
Continuous
 62
     3
100
AcDbLine
 10
931.7793792661678
 20
209.9459071307643
 30
0.0
 11
931.7793792661678
 21
212.9459071307644
 31
0.0
  0
LINE
  5
56A
330
1A
100
AcDbEntity
  8
SEIHIN
  6
Continuous
 62
     3
100
AcDbLine
 10
931.7793792661678
 20
209.9459071307643
 30
0.0
 11
930.2793792661695
 21
209.9459071307643
 31
0.0
  0
LINE
  5
56B
330
1A
100
AcDbEntity
  8
SEIHIN
  6
Continuous
 62
     3
100
AcDbLine
 10
929.2793792661695
 20
212.9459071307644
 30
0.0
 11
931.7793792661678
 21
212.9459071307644
 31
0.0
  0
LINE
  5
56C
330
1A
100
AcDbEntity
  8
SEIHIN
  6
Continuous
 62
     3
100
AcDbLine
 10
946.2793792661678
 20
212.9459071307644
 30
0.0
 11
942.2793792661677
 21
212.9459071307644
 31
0.0
  0
LINE
  5
56D
330
1A
100
AcDbEntity
  8
SEIHIN
  6
Continuous
 62
     3
100
AcDbLine
 10
939.7793792661678
 20
209.9459071307643
 30
0.0
 11
939.7793792661678
 21
212.9459071307644
 31
0.0
  0
LINE
  5
56E
330
1A
100
AcDbEntity
  8
SEIHIN
  6
Continuous
 62
     3
100
AcDbLine
 10
941.2793792661677
 20
209.9459071307643
 30
0.0
 11
939.7793792661678
 21
209.9459071307643
 31
0.0
  0
LINE
  5
56F
330
1A
100
AcDbEntity
  8
SEIHIN
  6
Continuous
 62
     3
100
AcDbLine
 10
939.7793792661678
 20
212.9459071307644
 30
0.0
 11
942.2793792661677
 21
212.9459071307644
 31
0.0
  0
DIMENSION
  5
570
330
1A
100
AcDbEntity
  8
SUNPOU
100
AcDbDimension
  2
*D7
 10
1038.747875147649
 20
157.0481058962438
 30
0.0
 11
1028.747875147649
 21
157.0481058962438
 31
0.0
 70
   160
 71
     5
 42
20.0
  3
STANDARD
100
AcDbAlignedDimension
 13
1018.747875147649
 23
149.1531676286564
 33
0.0
 14
1038.747875147649
 24
149.1531676286546
 34
0.0
100
AcDbRotatedDimension
1001
ACAD
1000
DSTYLE
1002
{
1070
    41
1040
3.0
1070
    42
1040
3.0
1070
    43
1040
7.0
1070
    44
1040
1.5
1070
    73
1070
     0
1070
    74
1070
     0
1070
    77
1070
     3
1070
   140
1040
3.0
1070
   141
1040
150.0
1070
   147
1040
1.0
1070
   172
1070
     1
1070
   173
1070
     1
1070
   176
1070
     4
1070
   177
1070
     4
1070
   178
1070
     4
1070
   271
1070
     0
1070
   272
1070
     2
1070
   343
1005
B2
1070
   344
1005
B2
1002
}
  0
LINE
  5
571
330
1A
100
AcDbEntity
  8
SEIHIN
  6
Continuous
 62
     3
100
AcDbLine
 10
1018.747875147649
 20
131.1773550829563
 30
0.0
 11
1038.747875147649
 21
131.1773550829563
 31
0.0
  0
LINE
  5
572
330
1A
100
AcDbEntity
  8
SEIHIN
  6
Continuous
 62
     3
100
AcDbLine
 10
1018.747875147649
 20
132.1773550829563
 30
0.0
 11
1038.747875147649
 21
132.1773550829563
 31
0.0
  0
LINE
  5
573
330
1A
100
AcDbEntity
  8
SEIHIN
  6
Continuous
 62
     3
100
AcDbLine
 10
1018.747875147649
 20
136.1773550829563
 30
0.0
 11
1038.747875147649
 21
136.1773550829563
 31
0.0
  0
LINE
  5
574
330
1A
100
AcDbEntity
  8
SEIHIN
  6
Continuous
 62
     3
100
AcDbLine
 10
1018.747875147649
 20
138.1773550829563
 30
0.0
 11
1038.747875147649
 21
138.1773550829563
 31
0.0
  0
LINE
  5
575
330
1A
100
AcDbEntity
  8
SEIHIN
  6
Continuous
 62
     3
100
AcDbLine
 10
1018.747875147649
 20
144.1773550829563
 30
0.0
 11
1038.747875147647
 21
144.1773550829563
 31
0.0
  0
LINE
  5
576
330
1A
100
AcDbEntity
  8
SEIHIN
  6
Continuous
 62
     3
100
AcDbLine
 10
1018.747875147649
 20
147.1531663709608
 30
0.0
 11
1038.747875147647
 21
147.1531663709608
 31
0.0
  0
LINE
  5
577
330
1A
100
AcDbEntity
  8
SEIHIN
  6
Continuous
 62
     3
100
AcDbLine
 10
1038.747875147649
 20
149.1531676286564
 30
0.0
 11
1018.747875147649
 21
149.1531676286564
 31
0.0
  0
LINE
  5
578
330
1A
100
AcDbEntity
  8
SEIHIN
  6
Continuous
 62
     3
100
AcDbLine
 10
1018.747875147649
 20
138.1773550829563
 30
0.0
 11
1018.747875147649
 21
136.1773550829563
 31
0.0
  0
LINE
  5
579
330
1A
100
AcDbEntity
  8
SEIHIN
  6
Continuous
 62
     3
100
AcDbLine
 10
1018.747875147649
 20
131.1773550829563
 30
0.0
 11
1018.747875147649
 21
132.1773550829563
 31
0.0
  0
LINE
  5
57A
330
1A
100
AcDbEntity
  8
SEIHIN
  6
Continuous
 62
     3
100
AcDbLine
 10
1018.747875147649
 20
136.1773550829563
 30
0.0
 11
1018.747875147649
 21
132.1773550829563
 31
0.0
  0
LINE
  5
57B
330
1A
100
AcDbEntity
  8
SEIHIN
  6
Continuous
 62
     3
100
AcDbLine
 10
1018.747875147649
 20
147.1531676286564
 30
0.0
 11
1018.747875147649
 21
149.1531676286573
 31
0.0
  0
LINE
  5
57C
330
1A
100
AcDbEntity
  8
SEIHIN
  6
Continuous
 62
     3
100
AcDbLine
 10
1018.747875147649
 20
147.1531663709608
 30
0.0
 11
1018.747875147649
 21
149.1531676286564
 31
0.0
  0
LINE
  5
57D
330
1A
100
AcDbEntity
  8
SEIHIN
  6
Continuous
 62
     3
100
AcDbLine
 10
1018.747875147649
 20
138.1773550829563
 30
0.0
 11
1018.747875147649
 21
144.1773550829563
 31
0.0
  0
LINE
  5
57E
330
1A
100
AcDbEntity
  8
SEIHIN
  6
Continuous
 62
     3
100
AcDbLine
 10
1018.747875147649
 20
146.3462313610558
 30
0.0
 11
1018.747875147649
 21
144.6773550829563
 31
0.0
  0
LINE
  5
57F
330
1A
100
AcDbEntity
  8
SEIHIN
  6
Continuous
 62
     3
100
AcDbLine
 10
1018.747875147649
 20
146.1773550829535
 30
0.0
 11
1018.747875147649
 21
147.1531676286564
 31
0.0
  0
LINE
  5
580
330
1A
100
AcDbEntity
  8
SEIHIN
  6
Continuous
 62
     3
100
AcDbLine
 10
1018.747875147649
 20
146.1773550829563
 30
0.0
 11
1018.747875147649
 21
146.6394518420444
 31
0.0
  0
LINE
  5
581
330
1A
100
AcDbEntity
  8
SEIHIN
  6
Continuous
 62
     3
100
AcDbLine
 10
1018.747875147649
 20
146.6462313610569
 30
0.0
 11
1018.747875147649
 21
146.6394518420444
 31
0.0
  0
LINE
  5
582
330
1A
100
AcDbEntity
  8
SEIHIN
  6
Continuous
 62
     3
100
AcDbLine
 10
1018.747875147649
 20
147.1531663709608
 30
0.0
 11
1018.747875147649
 21
144.1773550829563
 31
0.0
  0
LINE
  5
583
330
1A
100
AcDbEntity
  8
SEIHIN
  6
Continuous
 62
     3
100
AcDbLine
 10
1038.747875147649
 20
138.1773550829563
 30
0.0
 11
1038.747875147649
 21
136.1773550829563
 31
0.0
  0
LINE
  5
584
330
1A
100
AcDbEntity
  8
SEIHIN
  6
Continuous
 62
     3
100
AcDbLine
 10
1038.747875147649
 20
131.1773550829563
 30
0.0
 11
1038.747875147649
 21
132.1773550829563
 31
0.0
  0
LINE
  5
585
330
1A
100
AcDbEntity
  8
SEIHIN
  6
Continuous
 62
     3
100
AcDbLine
 10
1038.747875147649
 20
136.1773550829563
 30
0.0
 11
1038.747875147649
 21
132.1773550829563
 31
0.0
  0
LINE
  5
586
330
1A
100
AcDbEntity
  8
SEIHIN
  6
Continuous
 62
     3
100
AcDbLine
 10
1038.747875147649
 20
147.1531676286564
 30
0.0
 11
1038.747875147649
 21
149.1531676286573
 31
0.0
  0
LINE
  5
587
330
1A
100
AcDbEntity
  8
SEIHIN
  6
Continuous
 62
     3
100
AcDbLine
 10
1038.747875147647
 20
147.1531663709608
 30
0.0
 11
1038.747875147649
 21
149.1531676286564
 31
0.0
  0
LINE
  5
588
330
1A
100
AcDbEntity
  8
SEIHIN
  6
Continuous
 62
     3
100
AcDbLine
 10
1038.747875147649
 20
138.1773550829563
 30
0.0
 11
1038.747875147647
 21
144.1773550829563
 31
0.0
  0
LINE
  5
589
330
1A
100
AcDbEntity
  8
SEIHIN
  6
Continuous
 62
     3
100
AcDbLine
 10
1038.747875147649
 20
146.3462313610558
 30
0.0
 11
1038.747875147649
 21
144.6773550829563
 31
0.0
  0
LINE
  5
58A
330
1A
100
AcDbEntity
  8
SEIHIN
  6
Continuous
 62
     3
100
AcDbLine
 10
1038.747875147649
 20
146.1773550829535
 30
0.0
 11
1038.747875147649
 21
147.1531676286564
 31
0.0
  0
LINE
  5
58B
330
1A
100
AcDbEntity
  8
SEIHIN
  6
Continuous
 62
     3
100
AcDbLine
 10
1038.747875147649
 20
146.1773550829563
 30
0.0
 11
1038.747875147649
 21
146.6394518420444
 31
0.0
  0
LINE
  5
58C
330
1A
100
AcDbEntity
  8
SEIHIN
  6
Continuous
 62
     3
100
AcDbLine
 10
1038.747875147649
 20
146.6462313610569
 30
0.0
 11
1038.747875147649
 21
146.6394518420444
 31
0.0
  0
LINE
  5
58D
330
1A
100
AcDbEntity
  8
SEIHIN
  6
Continuous
 62
     3
100
AcDbLine
 10
1038.747875147647
 20
147.1531663709608
 30
0.0
 11
1038.747875147647
 21
144.1773550829563
 31
0.0
  0
TEXT
  5
65F
330
1A
100
AcDbEntity
  8
MOJI
100
AcDbText
 10
862.3331697220159
 20
82.48852794008769
 30
0.0
 40
4.0
  1
ユニシェイプ
 41
0.9
  7
ｽﾀｲﾙ1
100
AcDbText
  0
TEXT
  5
660
330
1A
100
AcDbEntity
  8
MOJI
100
AcDbText
 10
911.262164526175
 20
85.11595975882915
 30
0.0
 40
3.0
  1
ﾊﾞﾝﾄﾞﾚｽたてといｽﾄｯﾊﾟｰURT60
 41
0.9
  7
ｽﾀｲﾙ1
100
AcDbText
  0
ARC
  5
6A5
330
1A
100
AcDbEntity
  8
SEIHIN
  6
Continuous
 62
     3
100
AcDbCircle
 10
1027.994460383024
 20
212.8673481165275
 30
0.0
 40
3.058391741056118
100
AcDbArc
 50
242.4576367802044
 51
297.5423632197956
  0
LINE
  5
6A6
330
1A
100
AcDbEntity
  8
SEIHIN
  6
Continuous
 62
     3
100
AcDbLine
 10
1023.415368061009
 20
204.6546842853146
 30
0.0
 11
1034.00486802311
 21
210.7678724905669
 31
0.0
  0
LINE
  5
6A7
330
1A
100
AcDbEntity
  8
SEIHIN
  6
Continuous
 62
     3
100
AcDbLine
 10
1023.415368061009
 20
188.3238680476003
 30
0.0
 11
1034.00486802311
 21
194.4370562528508
 31
0.0
  0
LINE
  5
6A8
330
1A
100
AcDbEntity
  8
SEIHIN
  6
Continuous
 62
     3
100
AcDbLine
 10
1017.034305274634
 20
211.0923360460162
 30
0.0
 11
1017.034305274634
 21
200.1523111357998
 31
0.0
  0
LINE
  5
6A9
330
1A
100
AcDbEntity
  8
SEIHIN
  6
Continuous
 62
     3
100
AcDbLine
 10
1016.474346879719
 20
211.2606254015369
 30
0.0
 11
1016.474346879719
 21
199.8290540351369
 31
0.0
  0
LINE
  5
6AA
330
1A
100
AcDbEntity
  8
SEIHIN
  6
Continuous
 62
     3
100
AcDbLine
 10
1023.415368061009
 20
204.6546842853146
 30
0.0
 11
1023.415368061009
 21
188.3238680476003
 31
0.0
  0
LINE
  5
6AB
330
1A
100
AcDbEntity
  8
SEIHIN
  6
Continuous
 62
     3
100
AcDbLine
 10
1020.001155855896
 20
205.4710931806654
 30
0.0
 11
1020.001155855896
 21
189.1402769429511
 31
0.0
  0
LINE
  5
6AC
330
1A
100
AcDbEntity
  8
SEIHIN
  6
Continuous
 62
     3
100
AcDbLine
 10
1012.084557806329
 20
211.9924846582995
 30
0.0
 11
1012.084557806329
 21
195.6616684205852
 31
0.0
  0
LINE
  5
6AD
330
1A
100
AcDbEntity
  8
SEIHIN
  6
Continuous
 62
     3
100
AcDbLine
 10
1007.980340575725
 20
212.4105621311588
 30
0.0
 11
1007.980340575725
 21
196.0797458934445
 31
0.0
  0
LINE
  5
6AE
330
1A
100
AcDbEntity
  8
SEIHIN
  6
Continuous
 62
     3
100
AcDbLine
 10
1011.394553420965
 20
211.5941536053448
 30
0.0
 11
1011.394553420965
 21
195.2633373676304
 31
0.0
  0
LWPOLYLINE
  5
6AF
330
1A
100
AcDbEntity
  8
SEIHIN
  6
Continuous
 62
     3
100
AcDbPolyline
 90
       23
 70
     0
 43
0.0
 10
1007.980340575725
 20
196.0797458934445
 10
1007.986938099982
 20
195.9860427084983
 10
1008.016172987476
 20
195.8621722238909
 10
1008.068435945866
 20
195.7408525918287
 10
1008.143114239707
 20
195.6235061741823
 10
1008.239332334216
 20
195.5115087505161
 10
1008.355962160118
 20
195.4061733883205
 10
1008.491636339231
 20
195.3087350485053
 10
1008.644764215734
 20
195.2203361066073
 10
1008.813550505145
 20
195.1420129594731
 10
1008.996016342384
 20
195.0746838744631
 10
1009.190022482175
 20
195.0191382236022
 10
1009.393294379739
 20
194.9760272289092
 10
1009.603448857741
 20
194.9458563274216
 10
1009.818022046884
 20
194.9289792453997
 10
1010.034498272513
 20
194.9255938512139
 10
1010.250339548615
 20
194.9357398355201
 10
1010.46301533338
 20
194.9592982459213
 10
1010.670032197484
 20
194.9959928815693
 10
1010.86896305729
 20
195.0453935313813
 10
1011.057475630166
 20
195.1069210178608
 10
1011.233359778389
 20
195.1798539874286
 10
1011.394553420965
 20
195.2633373676304
  0
LINE
  5
6B0
330
1A
100
AcDbEntity
  8
SEIHIN
  6
Continuous
 62
     3
100
AcDbLine
 10
1017.741412055822
 20
196.8862805883196
 30
0.0
 11
1020.001155855896
 21
195.5817582600754
 31
0.0
  0
LINE
  5
6B1
330
1A
100
AcDbEntity
  8
SEIHIN
  6
Continuous
 62
     3
100
AcDbLine
 10
1017.741412055822
 20
199.3359030239768
 30
0.0
 11
1020.001155855896
 21
198.0313806957325
 31
0.0
  0
LINE
  5
6B2
330
1A
100
AcDbEntity
  8
SEIHIN
  6
Continuous
 62
     3
100
AcDbLine
 10
1017.034305274634
 20
200.1523111357998
 30
0.0
 11
1016.474346879719
 21
199.8290540351369
 31
0.0
  0
LINE
  5
6B3
330
1A
100
AcDbEntity
  8
SEIHIN
  6
Continuous
 62
     3
100
AcDbLine
 10
1017.741412055822
 20
199.3359030239768
 30
0.0
 11
1017.741412055822
 21
196.8862805883196
 31
0.0
  0
ARC
  5
6B4
330
1A
100
AcDbEntity
  8
SEIHIN
  6
Continuous
 62
     3
100
AcDbCircle
 10
1015.366016788566
 20
195.1070673625451
 30
0.0
 40
4.850314807008479
100
AcDbArc
 50
60.676477669801
 51
76.79082111694086
  0
LINE
  5
6B5
330
1A
100
AcDbEntity
  8
SEIHIN
  6
Continuous
 62
     3
100
AcDbLine
 10
1017.034305274634
 20
200.1523111357998
 30
0.0
 11
1020.001155855896
 21
198.439584751644
 31
0.0
  0
LWPOLYLINE
  5
6B6
330
1A
100
AcDbEntity
  8
SEIHIN
  6
Continuous
 62
     3
100
AcDbPolyline
 90
       23
 70
     0
 43
0.0
 10
1020.001155855896
 20
189.1402769429511
 10
1020.0077534338
 20
189.0465733776688
 10
1020.036988378155
 20
188.9227029409263
 10
1020.089251376275
 20
188.8013833588717
 10
1020.163929692664
 20
188.6840369918096
 10
1020.260147792878
 20
188.5720396177672
 10
1020.376777608356
 20
188.4667043027526
 10
1020.512451761975
 20
188.3692660062694
 10
1020.665579599308
 20
188.280867102561
 10
1020.834365837565
 20
188.2025439873138
 10
1021.016831613628
 20
188.1352149268838
 10
1021.210837684413
 20
188.0796692924629
 10
1021.414109507508
 20
188.0365583054314
 10
1021.624263908094
 20
188.006387402385
 10
1021.838837019475
 20
187.9895103093637
 10
1022.055313169645
 20
187.9861248947305
 10
1022.271154375214
 20
187.9962708493527
 10
1022.483830096937
 20
188.0198292212586
 10
1022.690846907951
 20
188.0565238102496
 10
1022.889777726907
 20
188.1059244060812
 10
1023.078290273259
 20
188.1674518322885
 10
1023.254174411106
 20
188.2403847364927
 10
1023.415368061009
 20
188.3238680476003
  0
LINE
  5
6B7
330
1A
100
AcDbEntity
  8
SEIHIN
  6
Continuous
 62
     3
100
AcDbLine
 10
1012.084557806329
 20
195.6616684205852
 30
0.0
 11
1011.394553420965
 21
195.2633373676304
 31
0.0
  0
ARC
  5
6B8
330
1A
100
AcDbEntity
  8
SEIHIN
  6
Continuous
 62
     3
100
AcDbCircle
 10
1014.912984931076
 20
191.4274362484972
 30
0.0
 40
6.148087631647211
100
AcDbArc
 50
62.60967223656544
 51
117.3903277634345
  0
LINE
  5
6B9
330
1A
100
AcDbEntity
  8
SEIHIN
  6
Continuous
 62
     3
100
AcDbLine
 10
1008.566127902677
 20
213.2269707563788
 30
0.0
 11
1010.670344243955
 21
214.4417089937684
 31
0.0
  0
LWPOLYLINE
  5
6BA
330
1A
100
AcDbEntity
  8
SEIHIN
  6
Continuous
 62
     3
100
AcDbPolyline
 90
       30
 70
     0
 43
0.0
 10
1008.566127902677
 20
213.2269707563788
 10
1008.42151459434
 20
213.133915742084
 10
1008.295177096801
 20
213.0323800674138
 10
1008.188596601822
 20
212.9235541454087
 10
1008.103022668359
 20
212.8087138606039
 10
1008.039458572615
 20
212.689205610444
 10
1007.998649545554
 20
212.566430520004
 10
1007.981074035744
 20
212.4418280150727
 10
1007.986938099982
 20
212.3168589462126
 10
1008.016172987476
 20
212.1929884616071
 10
1008.068435945866
 20
212.0716688295448
 10
1008.143114239707
 20
211.9543224118985
 10
1008.239332334216
 20
211.8423249882304
 10
1008.355962160118
 20
211.7369896260349
 10
1008.491636339231
 20
211.6395512862215
 10
1008.644764215734
 20
211.5511523443216
 10
1008.813550505145
 20
211.4728291971875
 10
1008.996016342384
 20
211.4055001121775
 10
1009.190022482175
 20
211.3499544613165
 10
1009.393294379739
 20
211.3068434666253
 10
1009.603448857741
 20
211.276672565136
 10
1009.818022046884
 20
211.2597954831141
 10
1010.034498272513
 20
211.25641008893
 10
1010.250339548615
 20
211.2665560732363
 10
1010.46301533338
 20
211.2901144836357
 10
1010.670032197484
 20
211.3268091192855
 10
1010.86896305729
 20
211.3762097690975
 10
1011.057475630166
 20
211.4377372555769
 10
1011.233359778389
 20
211.5106702251429
 10
1011.394553420965
 20
211.5941536053448
  0
ARC
  5
6BB
330
1A
100
AcDbEntity
  8
SEIHIN
  6
Continuous
 62
     3
100
AcDbCircle
 10
1021.839133020448
 20
204.7604622382165
 30
0.0
 40
3.153737352134717
100
AcDbArc
 50
47.72085703706316
 51
60.37136285522226
  0
ARC
  5
6BC
330
1A
100
AcDbEntity
  8
SEIHIN
  6
Continuous
 62
     3
100
AcDbCircle
 10
1022.778558198128
 20
208.318648155098
 30
0.0
 40
1.746461267337223
100
AcDbArc
 50
290.7834207994858
 51
69.21657920051417
  0
LINE
  5
6BD
330
1A
100
AcDbEntity
  8
SEIHIN
  6
Continuous
 62
     3
100
AcDbLine
 10
1023.398266305312
 20
207.5018419430868
 30
0.0
 11
1017.741412055822
 21
210.7674743903768
 31
0.0
  0
LINE
  5
6BE
330
1A
100
AcDbEntity
  8
SEIHIN
  6
Continuous
 62
     3
100
AcDbLine
 10
1023.398266305312
 20
209.9514643787439
 30
0.0
 11
1023.398266305312
 21
207.5018419430868
 31
0.0
  0
LINE
  5
6BF
330
1A
100
AcDbEntity
  8
SEIHIN
  6
Continuous
 62
     3
100
AcDbLine
 10
1022.218192572107
 20
206.0045898659188
 30
0.0
 11
1023.398266305312
 21
206.6858319314521
 31
0.0
  0
ARC
  5
6C0
330
1A
100
AcDbEntity
  8
SEIHIN
  6
Continuous
 62
     3
100
AcDbCircle
 10
1022.009098212149
 20
206.3926110197532
 30
0.0
 40
0.4407730336468989
100
AcDbArc
 50
234.6179985286686
 51
298.319055755752
  0
LINE
  5
6C1
330
1A
100
AcDbEntity
  8
SEIHIN
  6
Continuous
 62
     3
100
AcDbLine
 10
1021.630499352346
 20
206.4817299034981
 30
0.0
 11
1021.753879568985
 21
206.033244477943
 31
0.0
  0
LINE
  5
6C2
330
1A
100
AcDbEntity
  8
SEIHIN
  6
Continuous
 62
     3
100
AcDbLine
 10
1021.630499352346
 20
206.4817299034981
 30
0.0
 11
1021.276945961754
 21
206.6858319314539
 31
0.0
  0
LINE
  5
6C3
330
1A
100
AcDbEntity
  8
SEIHIN
  6
Continuous
 62
     3
100
AcDbLine
 10
1021.276945961754
 20
206.6858319314539
 30
0.0
 11
1020.586942293523
 21
206.2875012924884
 31
0.0
  0
LWPOLYLINE
  5
6C4
330
1A
100
AcDbEntity
  8
SEIHIN
  6
Continuous
 62
     3
100
AcDbPolyline
 90
       30
 70
     0
 43
0.0
 10
1020.586942293523
 20
206.2875012924884
 10
1020.44232913328
 20
206.1944462592561
 10
1020.315991779955
 20
206.0929105777192
 10
1020.2094114226
 20
205.984084660187
 10
1020.123837617701
 20
205.8692443902597
 10
1020.060273639256
 20
205.7497361642833
 10
1020.01946471635
 20
205.6269611060831
 10
1020.001889295994
 20
205.5023586400836
 10
1020.0077534338
 20
205.3773896153831
 10
1020.036988378155
 20
205.2535191786406
 10
1020.089251376275
 20
205.132199596586
 10
1020.163929692664
 20
205.0148532295258
 10
1020.260147792878
 20
204.9028558554834
 10
1020.376777608356
 20
204.797520540467
 10
1020.512451761975
 20
204.7000822439855
 10
1020.665579599308
 20
204.6116833402753
 10
1020.834365837565
 20
204.5333602250281
 10
1021.016831613628
 20
204.4660311645981
 10
1021.210837684413
 20
204.4104855301772
 10
1021.414109507508
 20
204.3673745431457
 10
1021.624263908094
 20
204.3372036401012
 10
1021.838837019475
 20
204.3203265470798
 10
1022.055313169645
 20
204.3169411324467
 10
1022.271154375214
 20
204.3270870870671
 10
1022.483830096937
 20
204.3506454589748
 10
1022.690846907951
 20
204.3873400479657
 10
1022.889777726907
 20
204.4367406437974
 10
1023.078290273259
 20
204.4982680700028
 10
1023.254174411106
 20
204.5712009742089
 10
1023.415368061009
 20
204.6546842853146
  0
LINE
  5
6C5
330
1A
100
AcDbEntity
  8
SEIHIN
  6
Continuous
 62
     3
100
AcDbLine
 10
1019.155625618195
 20
214.4417089937684
 30
0.0
 11
1026.580246820651
 21
210.1555664066997
 31
0.0
  0
ARC
  5
6C6
330
1A
100
AcDbEntity
  8
SEIHIN
  6
Continuous
 62
     3
100
AcDbCircle
 10
1015.366016788566
 20
206.5386387289433
 30
0.0
 40
4.850314807010294
100
AcDbArc
 50
60.676477669801
 51
76.79082111694086
  0
LINE
  5
6C7
330
1A
100
AcDbEntity
  8
SEIHIN
  6
Continuous
 62
     3
100
AcDbLine
 10
1017.741412055822
 20
213.217096826034
 30
0.0
 11
1017.741412055822
 21
210.7674743903768
 31
0.0
  0
LINE
  5
6C8
330
1A
100
AcDbEntity
  8
SEIHIN
  6
Continuous
 62
     3
100
AcDbLine
 10
1017.741412055822
 20
213.217096826034
 30
0.0
 11
1023.398266305312
 21
209.9514643787439
 31
0.0
  0
LINE
  5
6C9
330
1A
100
AcDbEntity
  8
SEIHIN
  6
Continuous
 62
     3
100
AcDbLine
 10
1010.904484073124
 20
212.5358547604989
 30
0.0
 11
1010.904484073124
 21
212.290932326952
 31
0.0
  0
LINE
  5
6CA
330
1A
100
AcDbEntity
  8
SEIHIN
  6
Continuous
 62
     3
100
AcDbLine
 10
1012.084557806329
 20
213.217096826034
 30
0.0
 11
1012.084557806329
 21
211.9924846582995
 31
0.0
  0
LWPOLYLINE
  5
6CB
330
1A
100
AcDbEntity
  8
SEIHIN
  6
Continuous
 62
     3
100
AcDbPolyline
 90
        9
 70
     0
 43
0.0
 10
1010.904484073124
 20
212.5358547604989
 10
1010.862826583076
 20
212.5057431186266
 10
1010.833734688842
 20
212.4710590759238
 10
1010.818648784729
 20
212.4335199044614
 10
1010.818315802169
 20
212.3949842390936
 10
1010.832752227752
 20
212.3573600529577
 10
1010.861243286947
 20
212.3225101901495
 10
1010.902378333923
 20
212.2921601327995
 10
1010.954120695276
 20
212.2678125692288
  0
LINE
  5
6CC
330
1A
100
AcDbEntity
  8
SEIHIN
  6
Continuous
 62
     3
100
AcDbLine
 10
1010.904484073124
 20
212.5358547604989
 30
0.0
 11
1012.084557806329
 21
213.217096826034
 31
0.0
  0
LINE
  5
6CD
330
1A
100
AcDbEntity
  8
SEIHIN
  6
Continuous
 62
     3
100
AcDbLine
 10
1012.084557806329
 20
211.9924846582995
 30
0.0
 11
1011.394553420965
 21
211.5941536053448
 31
0.0
  0
LINE
  5
6CE
330
1A
100
AcDbEntity
  8
SEIHIN
  6
Continuous
 62
     3
100
AcDbLine
 10
1011.731004415736
 20
212.1965866862553
 30
0.0
 11
1012.084557806329
 21
211.9924846582995
 31
0.0
  0
LINE
  5
6CF
330
1A
100
AcDbEntity
  8
SEIHIN
  6
Continuous
 62
     3
100
AcDbLine
 10
1011.731004415736
 20
212.1965866862553
 30
0.0
 11
1010.954120695276
 21
212.2678125692288
 31
0.0
  0
ARC
  5
6D0
330
1A
100
AcDbEntity
  8
SEIHIN
  6
Continuous
 62
     3
100
AcDbCircle
 10
1014.912984931076
 20
206.2681603144516
 30
0.0
 40
9.209066077141892
100
AcDbArc
 50
62.56754569363544
 51
117.4324543063645
  0
ARC
  5
6D1
330
1A
100
AcDbEntity
  8
SEIHIN
  6
Continuous
 62
     3
100
AcDbCircle
 10
1014.912984931076
 20
207.7582524862115
 30
0.0
 40
6.148087631647539
100
AcDbArc
 50
62.60967223656544
 51
117.3903277634345
  0
LINE
  5
6D2
330
1A
100
AcDbEntity
  8
SEIHIN
  6
Continuous
 62
     3
100
AcDbLine
 10
1034.00486802311
 20
210.7678724905669
 30
0.0
 11
1034.00486802311
 21
194.4370562528508
 31
0.0
  0
LINE
  5
6D3
330
1A
100
AcDbEntity
  8
SEIHIN
  6
Continuous
 62
     3
100
AcDbLine
 10
1034.297761241925
 20
194.8452603087622
 30
0.0
 11
1034.297761241925
 21
211.1760765464784
 31
0.0
  0
ARC
  5
6D4
330
1A
100
AcDbEntity
  8
SEIHIN
  6
Continuous
 62
     3
100
AcDbCircle
 10
1033.801554287407
 20
194.8921171623002
 30
0.0
 40
0.4984143922831813
100
AcDbArc
 50
294.0743068481867
 51
354.6055521942154
  0
LINE
  5
6D5
330
1A
100
AcDbEntity
  8
SEIHIN
  6
Continuous
 62
     3
100
AcDbLine
 10
1033.651314632518
 20
211.7883826303438
 30
0.0
 11
1034.00486802311
 21
211.5842806023898
 31
0.0
  0
ARC
  5
6D6
330
1A
100
AcDbEntity
  8
SEIHIN
  6
Continuous
 62
     3
100
AcDbCircle
 10
1032.944207851333
 20
210.4363271143353
 30
0.0
 40
1.525796224393363
100
AcDbArc
 50
62.39104021573703
 51
117.608959784263
  0
LWPOLYLINE
  5
6D7
330
1A
100
AcDbEntity
  8
SEIHIN
  6
Continuous
 62
     3
100
AcDbPolyline
 90
       11
 70
     0
 43
0.0
 10
1034.00486802311
 20
210.7678724905669
 10
1034.1067782363
 20
210.8367553429849
 10
1034.188767766112
 20
210.9139934095743
 10
1034.248817758222
 20
210.9976848328003
 10
1034.285449582521
 20
211.0857688520624
 10
1034.297761241925
 20
211.1760765464784
 10
1034.285449582521
 20
211.2663842408925
 10
1034.248817758222
 20
211.3544682601565
 10
1034.188767766112
 20
211.4381596833806
 10
1034.1067782363
 20
211.5153977499718
 10
1034.00486802311
 20
211.5842806023898
  0
LINE
  5
6D8
330
1A
100
AcDbEntity
  8
SEIHIN
  6
Continuous
 62
     3
100
AcDbLine
 10
1029.408673945398
 20
210.1555664066997
 30
0.0
 11
1032.237101070144
 21
211.7883826303438
 31
0.0
  0
LINE
  5
708
102
{ACAD_REACTORS
330
73B
102
}
330
1A
100
AcDbEntity
  8
SEIHIN
  6
Continuous
 62
     3
100
AcDbLine
 10
1071.911329704904
 20
130.9949038466104
 30
0.0
 11
1073.9113309626
 21
130.9949038466086
 31
0.0
  0
LINE
  5
709
102
{ACAD_REACTORS
330
73B
102
}
330
1A
100
AcDbEntity
  8
SEIHIN
  6
Continuous
 62
     3
100
AcDbLine
 10
1071.9113309626
 20
130.9949038466086
 30
0.0
 11
1073.9113309626
 21
130.9949038466086
 31
0.0
  0
LINE
  5
70A
102
{ACAD_REACTORS
330
73B
102
}
330
1A
100
AcDbEntity
  8
SEIHIN
  6
Continuous
 62
     3
100
AcDbLine
 10
1071.911329704904
 20
150.9949038466086
 30
0.0
 11
1073.9113309626
 21
150.9949038466086
 31
0.0
  0
LINE
  5
70B
102
{ACAD_REACTORS
330
73B
102
}
330
1A
100
AcDbEntity
  8
SEIHIN
  6
Continuous
 62
     3
100
AcDbLine
 10
1071.9113309626
 20
150.9949038466086
 30
0.0
 11
1073.9113309626
 21
150.9949038466086
 31
0.0
  0
LINE
  5
70C
102
{ACAD_REACTORS
330
73B
102
}
330
1A
100
AcDbEntity
  8
SEIHIN
  6
Continuous
 62
     3
100
AcDbLine
 10
1071.911329704904
 20
150.9949038466086
 30
0.0
 11
1071.911329704904
 21
130.9949038466104
 31
0.0
  0
LINE
  5
70D
102
{ACAD_REACTORS
330
73B
102
}
330
1A
100
AcDbEntity
  8
SEIHIN
  6
Continuous
 62
     3
100
AcDbLine
 10
1068.9355184169
 20
150.9949038466086
 30
0.0
 11
1068.9355184169
 21
130.9949038466104
 31
0.0
  0
LINE
  5
70E
102
{ACAD_REACTORS
330
73B
102
}
330
1A
100
AcDbEntity
  8
SEIHIN
  6
Continuous
 62
     3
100
AcDbLine
 10
1062.9355184169
 20
150.9949038466086
 30
0.0
 11
1062.9355184169
 21
130.9949038466086
 31
0.0
  0
LINE
  5
70F
102
{ACAD_REACTORS
330
73B
102
}
330
1A
100
AcDbEntity
  8
SEIHIN
  6
Continuous
 62
     3
100
AcDbLine
 10
1060.9355184169
 20
150.9949038466086
 30
0.0
 11
1060.9355184169
 21
130.9949038466086
 31
0.0
  0
LINE
  5
710
102
{ACAD_REACTORS
330
73B
102
}
330
1A
100
AcDbEntity
  8
SEIHIN
  6
Continuous
 62
     3
100
AcDbLine
 10
1056.935518416899
 20
150.9949038466086
 30
0.0
 11
1056.935518416899
 21
130.9949038466086
 31
0.0
  0
LINE
  5
711
102
{ACAD_REACTORS
330
73B
102
}
330
1A
100
AcDbEntity
  8
SEIHIN
  6
Continuous
 62
     3
100
AcDbLine
 10
1055.935518416899
 20
150.9949038466086
 30
0.0
 11
1055.935518416899
 21
130.9949038466086
 31
0.0
  0
LINE
  5
712
102
{ACAD_REACTORS
330
73B
102
}
330
1A
100
AcDbEntity
  8
SEIHIN
  6
Continuous
 62
     3
100
AcDbLine
 10
1062.9355184169
 20
150.9949038466086
 30
0.0
 11
1060.9355184169
 21
150.9949038466086
 31
0.0
  0
LINE
  5
713
102
{ACAD_REACTORS
330
73B
102
}
330
1A
100
AcDbEntity
  8
SEIHIN
  6
Continuous
 62
     3
100
AcDbLine
 10
1060.9355184169
 20
150.9949038466086
 30
0.0
 11
1056.935518416899
 21
150.9949038466086
 31
0.0
  0
LINE
  5
714
102
{ACAD_REACTORS
330
73B
102
}
330
1A
100
AcDbEntity
  8
SEIHIN
  6
Continuous
 62
     3
100
AcDbLine
 10
1055.935518416899
 20
150.9949038466086
 30
0.0
 11
1056.935518416899
 21
150.9949038466086
 31
0.0
  0
LINE
  5
715
102
{ACAD_REACTORS
330
73B
102
}
330
1A
100
AcDbEntity
  8
SEIHIN
  6
Continuous
 62
     3
100
AcDbLine
 10
1062.9355184169
 20
150.9949038466086
 30
0.0
 11
1068.9355184169
 21
150.9949038466086
 31
0.0
  0
LINE
  5
716
102
{ACAD_REACTORS
330
73B
102
}
330
1A
100
AcDbEntity
  8
SEIHIN
  6
Continuous
 62
     3
100
AcDbLine
 10
1071.911329704904
 20
150.9949038466086
 30
0.0
 11
1068.9355184169
 21
150.9949038466086
 31
0.0
  0
LINE
  5
717
102
{ACAD_REACTORS
330
73B
102
}
330
1A
100
AcDbEntity
  8
SEIHIN
  6
Continuous
 62
     3
100
AcDbLine
 10
1071.404394695
 20
150.9949038466086
 30
0.0
 11
1071.397615175988
 21
150.9949038466086
 31
0.0
  0
LINE
  5
718
102
{ACAD_REACTORS
330
73B
102
}
330
1A
100
AcDbEntity
  8
SEIHIN
  6
Continuous
 62
     3
100
AcDbLine
 10
1070.9355184169
 20
150.9949038466086
 30
0.0
 11
1071.397615175988
 21
150.9949038466086
 31
0.0
  0
LINE
  5
719
102
{ACAD_REACTORS
330
73B
102
}
330
1A
100
AcDbEntity
  8
SEIHIN
  6
Continuous
 62
     3
100
AcDbLine
 10
1070.935518416897
 20
150.9949038466086
 30
0.0
 11
1071.9113309626
 21
150.9949038466086
 31
0.0
  0
LINE
  5
71A
102
{ACAD_REACTORS
330
73B
102
}
330
1A
100
AcDbEntity
  8
SEIHIN
  6
Continuous
 62
     3
100
AcDbLine
 10
1071.104394694999
 20
150.9949038466086
 30
0.0
 11
1069.435518416899
 21
150.9949038466086
 31
0.0
  0
LINE
  5
71B
102
{ACAD_REACTORS
330
73B
102
}
330
1A
100
AcDbEntity
  8
SEIHIN
  6
Continuous
 62
     3
100
AcDbLine
 10
1062.9355184169
 20
130.9949038466086
 30
0.0
 11
1060.9355184169
 21
130.9949038466086
 31
0.0
  0
LINE
  5
71C
102
{ACAD_REACTORS
330
73B
102
}
330
1A
100
AcDbEntity
  8
SEIHIN
  6
Continuous
 62
     3
100
AcDbLine
 10
1060.9355184169
 20
130.9949038466086
 30
0.0
 11
1056.935518416899
 21
130.9949038466086
 31
0.0
  0
LINE
  5
71D
102
{ACAD_REACTORS
330
73B
102
}
330
1A
100
AcDbEntity
  8
SEIHIN
  6
Continuous
 62
     3
100
AcDbLine
 10
1055.935518416899
 20
130.9949038466086
 30
0.0
 11
1056.935518416899
 21
130.9949038466086
 31
0.0
  0
LINE
  5
71E
102
{ACAD_REACTORS
330
73B
102
}
330
1A
100
AcDbEntity
  8
SEIHIN
  6
Continuous
 62
     3
100
AcDbLine
 10
1062.9355184169
 20
130.9949038466086
 30
0.0
 11
1068.9355184169
 21
130.9949038466104
 31
0.0
  0
LINE
  5
71F
102
{ACAD_REACTORS
330
73B
102
}
330
1A
100
AcDbEntity
  8
SEIHIN
  6
Continuous
 62
     3
100
AcDbLine
 10
1071.911329704904
 20
130.9949038466104
 30
0.0
 11
1068.9355184169
 21
130.9949038466104
 31
0.0
  0
LINE
  5
720
102
{ACAD_REACTORS
330
73B
102
}
330
1A
100
AcDbEntity
  8
SEIHIN
  6
Continuous
 62
     3
100
AcDbLine
 10
1071.404394695
 20
130.9949038466086
 30
0.0
 11
1071.397615175988
 21
130.9949038466086
 31
0.0
  0
LINE
  5
721
102
{ACAD_REACTORS
330
73B
102
}
330
1A
100
AcDbEntity
  8
SEIHIN
  6
Continuous
 62
     3
100
AcDbLine
 10
1070.9355184169
 20
130.9949038466086
 30
0.0
 11
1071.397615175988
 21
130.9949038466086
 31
0.0
  0
LINE
  5
722
102
{ACAD_REACTORS
330
73B
102
}
330
1A
100
AcDbEntity
  8
SEIHIN
  6
Continuous
 62
     3
100
AcDbLine
 10
1070.935518416897
 20
130.9949038466086
 30
0.0
 11
1071.9113309626
 21
130.9949038466086
 31
0.0
  0
LINE
  5
723
102
{ACAD_REACTORS
330
73B
102
}
330
1A
100
AcDbEntity
  8
SEIHIN
  6
Continuous
 62
     3
100
AcDbLine
 10
1071.104394694999
 20
130.9949038466086
 30
0.0
 11
1069.435518416899
 21
130.9949038466086
 31
0.0
  0
LINE
  5
724
102
{ACAD_REACTORS
330
73B
102
}
330
1A
100
AcDbEntity
  8
SEIHIN
  6
Continuous
 62
     3
100
AcDbLine
 10
1073.9113309626
 20
130.9949038466086
 30
0.0
 11
1073.9113309626
 21
150.9949038466086
 31
0.0
  0
DIMENSION
  5
725
102
{ACAD_REACTORS
330
73B
102
}
330
1A
100
AcDbEntity
  8
SUNPOU
100
AcDbDimension
  2
*D8
 10
1081.806269230187
 20
130.9949038466086
 30
0.0
 11
1081.806269230187
 21
140.9949038466086
 31
0.0
 70
   160
 71
     5
 42
20.0
  3
STANDARD
100
AcDbAlignedDimension
 13
1073.9113309626
 23
150.9949038466086
 33
0.0
 14
1073.911330962598
 24
130.9949038466086
 34
0.0
 50
270.0
100
AcDbRotatedDimension
1001
ACAD
1000
DSTYLE
1002
{
1070
    41
1040
3.0
1070
    42
1040
3.0
1070
    43
1040
7.0
1070
    44
1040
1.5
1070
    73
1070
     0
1070
    74
1070
     0
1070
    77
1070
     3
1070
   140
1040
3.0
1070
   141
1040
150.0
1070
   147
1040
1.0
1070
   172
1070
     1
1070
   173
1070
     1
1070
   176
1070
     4
1070
   177
1070
     4
1070
   178
1070
     4
1070
   271
1070
     0
1070
   272
1070
     2
1070
   343
1005
B2
1070
   344
1005
B2
1002
}
  0
TEXT
  5
77D
330
1A
100
AcDbEntity
  8
MOJI
100
AcDbText
 10
989.5759845256563
 20
82.44895450002752
 30
0.0
 40
1.931860370396977
  1
ＰＨ１４
 41
0.9
  7
ｽﾀｲﾙ1
100
AcDbText
  0
VIEWPORT
  5
22
102
{ACAD_XDICTIONARY
360
7DA
102
}
330
17
100
AcDbEntity
 67
     1
  8
0
100
AcDbViewport
 10
81.57364951003591
 20
86.21337410090223
 30
0.0
 40
427.050190850385
 41
222.0846062927246
 68
     2
 69
     1
 12
81.57364951003591
 22
86.21337410090223
 13
0.0
 23
0.0
 14
1.0
 24
1.0
 15
10.0
 25
10.0
 16
0.0
 26
0.0
 36
1.0
 17
0.0
 27
0.0
 37
0.0
 42
50.0
 43
0.0
 44
0.0
 45
222.0846062927246
 50
0.0
 51
0.0
 72
   100
 90
    32768
  1

281
     0
 71
     1
 74
     0
110
0.0
120
0.0
130
0.0
111
1.0
121
0.0
131
0.0
112
0.0
122
1.0
132
0.0
 79
     0
146
0.0
  0
VIEWPORT
  5
64
102
{ACAD_XDICTIONARY
360
7DC
102
}
330
17
100
AcDbEntity
 67
     1
  8
VIEWPORT
100
AcDbViewport
 10
213.2776545181679
 20
178.6116675379596
 30
0.0
 40
554.0417880000457
 41
388.3547322431009
 68
     1
 69
     2
 12
1099.984105592026
 22
267.493209689446
 13
0.0
 23
0.0
 14
5.0
 24
5.0
 15
0.0
 25
0.0
 16
0.0
 26
0.0
 36
1.0
 17
0.0
 27
0.0
 37
0.0
 42
50.0
 43
0.0
 44
0.0
 45
388.3547325376005
 50
0.0
 51
0.0
 72
   100
 90
    32768
  1

281
     0
 71
     1
 74
     0
110
0.0
120
0.0
130
0.0
111
1.0
121
0.0
131
0.0
112
0.0
122
1.0
132
0.0
 79
     0
146
0.0
  0
ENDSEC
  0
SECTION
  2
OBJECTS
  0
DICTIONARY
  5
C
330
0
100
AcDbDictionary
281
     1
  3
ACAD_COLOR
350
752
  3
ACAD_GROUP
350
D
  3
ACAD_LAYOUT
350
15A
  3
ACAD_MATERIAL
350
751
  3
ACAD_MLINESTYLE
350
E
  3
ACAD_PLOTSETTINGS
350
15B
  3
ACAD_PLOTSTYLENAME
350
158
  3
ACDBHEADERROUNDTRIPXREC
350
7D7
  3
AcDbVariableDictionary
350
76F
  0
DICTIONARY
  5
66A
330
2
100
AcDbDictionary
280
     1
281
     1
  3
ACAD_LAYERFILTERS
360
66B
  0
DICTIONARY
  5
7DA
330
22
100
AcDbDictionary
280
     1
281
     1
  3
ACAD_XREC_ROUNDTRIP
360
7DB
  0
DICTIONARY
  5
7DC
330
64
100
AcDbDictionary
280
     1
281
     1
  3
ACAD_XREC_ROUNDTRIP
360
7DD
  0
DICTIONARY
  5
752
102
{ACAD_REACTORS
330
C
102
}
330
C
100
AcDbDictionary
281
     1
  0
DICTIONARY
  5
D
102
{ACAD_REACTORS
330
C
102
}
330
C
100
AcDbDictionary
281
     1
  3
*A1
350
2F2
  3
*A2
350
73B
  0
DICTIONARY
  5
15A
102
{ACAD_REACTORS
330
C
102
}
330
C
100
AcDbDictionary
281
     1
  3
Model
350
15C
  3
ﾚｲｱｳﾄ1
350
15D
  0
DICTIONARY
  5
751
102
{ACAD_REACTORS
330
C
102
}
330
C
100
AcDbDictionary
281
     1
  0
DICTIONARY
  5
E
102
{ACAD_REACTORS
330
C
102
}
330
C
100
AcDbDictionary
281
     1
  3
STANDARD
350
13
  0
DICTIONARY
  5
15B
102
{ACAD_REACTORS
330
C
102
}
330
C
100
AcDbDictionary
281
     1
  0
ACDBDICTIONARYWDFLT
  5
158
102
{ACAD_REACTORS
330
C
102
}
330
C
100
AcDbDictionary
281
     1
  3
Normal
350
159
100
AcDbDictionaryWithDefault
340
159
  0
DICTIONARY
  5
7D7
102
{ACAD_REACTORS
330
C
102
}
330
C
100
AcDbDictionary
281
     1
  3
COLORDICT
350
7D9
  3
MATERIALDICT
350
7D8
  0
DICTIONARY
  5
76F
102
{ACAD_REACTORS
330
C
102
}
330
C
100
AcDbDictionary
281
     1
  3
DIMASSOC
350
770
  3
PROJECTNAME
350
771
  0
DICTIONARY
  5
66B
102
{ACAD_REACTORS
330
66A
102
}
330
66A
100
AcDbDictionary
280
     1
281
     1
  3
50
360
66C
  0
XRECORD
  5
7DB
102
{ACAD_REACTORS
330
7DA
102
}
330
7DA
100
AcDbXrecord
280
     1
102
SHADEPLOT
 70
     0
  0
XRECORD
  5
7DD
102
{ACAD_REACTORS
330
7DC
102
}
330
7DC
100
AcDbXrecord
280
     1
102
SHADEPLOT
 70
     0
  0
GROUP
  5
2F2
102
{ACAD_REACTORS
330
D
102
}
330
D
100
AcDbGroup
300

 70
     1
 71
     1
  0
GROUP
  5
73B
102
{ACAD_REACTORS
330
D
102
}
330
D
100
AcDbGroup
300

 70
     1
 71
     1
340
70B
340
70A
340
709
340
708
340
711
340
710
340
70F
340
70E
340
70D
340
70C
340
713
340
714
340
715
340
712
340
71A
340
719
340
718
340
717
340
716
340
71C
340
71D
340
71E
340
71B
340
723
340
722
340
721
340
720
340
71F
340
725
340
724
  0
LAYOUT
  5
15C
102
{ACAD_XDICTIONARY
360
7DE
102
}
102
{ACAD_REACTORS
330
15A
102
}
330
15A
100
AcDbPlotSettings
  1

  2
CubePDF
  4
A4
  6

 40
3.174999952316284
 41
3.174999952316284
 42
3.175003051757812
 43
3.17498779296875
 44
209.8886566162109
 45
297.0530090332031
 46
6.61
 47
7.74
 48
0.0
 49
0.0
140
0.0
141
0.0
142
1.0
143
1.0
 70
 11956
 72
     1
 73
     1
 74
     1
  7
monochrome.ctb
 75
    16
147
1.0
148
-831.3612397371816
149
-79.07190019762129
100
AcDbLayout
  1
Model
 70
     1
 71
     0
 10
0.0
 20
0.0
 11
12.0
 21
9.0
 12
0.0
 22
0.0
 32
0.0
 14
0.0
 24
0.0
 34
0.0
 15
0.0
 25
0.0
 35
0.0
146
0.0
 13
0.0
 23
0.0
 33
0.0
 16
1.0
 26
0.0
 36
0.0
 17
0.0
 27
1.0
 37
0.0
 76
     0
330
1A
  0
LAYOUT
  5
15D
102
{ACAD_XDICTIONARY
360
7E0
102
}
102
{ACAD_REACTORS
330
15A
102
}
330
15A
100
AcDbPlotSettings
  1

  2
CubePDF
  4
A4
  6

 40
3.174999952316284
 41
3.174999952316284
 42
3.175003051757812
 43
3.17498779296875
 44
209.9098358154297
 45
297.0318298339844
 46
0.0
 47
0.0
 48
0.0
 49
0.0
140
0.0
141
0.0
142
1.0
143
1.0
 70
   688
 72
     1
 73
     1
 74
     1
  7
monochrome.ctb
 75
    16
147
1.0
148
63.76727761398751
149
15.56654385449633
100
AcDbLayout
  1
ﾚｲｱｳﾄ1
 70
     1
 71
     1
 10
-66.94226540695627
 20
-18.74154380681261
 11
230.0895644270281
 21
191.168292008617
 12
0.0
 22
0.0
 32
0.0
 14
-63.74323948185497
 24
-15.5656985835908
 34
0.0
 15
490.2985485181907
 25
372.7890336595101
 35
0.0
146
0.0
 13
0.0
 23
0.0
 33
0.0
 16
1.0
 26
0.0
 36
0.0
 17
0.0
 27
1.0
 37
0.0
 76
     0
330
17
331
64
  0
MLINESTYLE
  5
13
102
{ACAD_REACTORS
330
E
102
}
330
E
100
AcDbMlineStyle
  2
STANDARD
 70
     0
  3

 62
     0
 51
90.0
 52
90.0
 71
     2
 49
0.5
 62
   256
  6
BYLAYER
 49
-0.5
 62
   256
  6
BYLAYER
  0
ACDBPLACEHOLDER
  5
159
102
{ACAD_REACTORS
330
158
102
}
330
158
  0
XRECORD
  5
7D9
102
{ACAD_REACTORS
330
7D7
102
}
330
7D7
100
AcDbXrecord
280
     1
340
752
  0
XRECORD
  5
7D8
102
{ACAD_REACTORS
330
7D7
102
}
330
7D7
100
AcDbXrecord
280
     1
340
751
  0
DICTIONARYVAR
  5
770
102
{ACAD_REACTORS
330
76F
102
}
330
76F
100
DictionaryVariables
280
     0
  1
1
  0
DICTIONARYVAR
  5
771
102
{ACAD_REACTORS
330
76F
102
}
330
76F
100
DictionaryVariables
280
     0
  1

  0
XRECORD
  5
66C
102
{ACAD_REACTORS
330
66B
102
}
330
66B
100
AcDbXrecord
280
     1
  1
50
  1
*-50
  1
*
  1
*
 70
     0
  1
*
  1
*
  0
DICTIONARY
  5
7DE
330
15C
100
AcDbDictionary
280
     1
281
     1
  3
ACAD_XREC_ROUNDTRIP
360
7DF
  0
DICTIONARY
  5
7E0
330
15D
100
AcDbDictionary
280
     1
281
     1
  3
ACAD_XREC_ROUNDTRIP
360
7E1
  0
XRECORD
  5
7DF
102
{ACAD_REACTORS
330
7DE
102
}
330
7DE
100
AcDbXrecord
280
     1
102
SHADEPLOT
 70
     0
102
SHADEPLOTRESLEVEL
 70
     2
102
SHADEPLOTCUSTOMDPI
 70
   300
  0
XRECORD
  5
7E1
102
{ACAD_REACTORS
330
7E0
102
}
330
7E0
100
AcDbXrecord
280
     1
102
SHADEPLOT
 70
     1
102
SHADEPLOTRESLEVEL
 70
     2
102
SHADEPLOTCUSTOMDPI
 70
   300
  0
ENDSEC
  0
EOF
