  0
SECTION
  2
HEADER
  9
$ACADVER
  1
AC1018
  9
$ACADMAINTVER
 70
     0
  9
$DWGCODEPAGE
  3
ANSI_932
  9
$INSBASE
 10
0.0
 20
0.0
 30
0.0
  9
$EXTMIN
 10
539.7583426862064
 20
256.0714808281774
 30
0.0
  9
$EXTMAX
 10
938.5583426862064
 20
531.8714808281774
 30
0.0
  9
$LIMMIN
 10
0.0
 20
0.0
  9
$LIMMAX
 10
420.0
 20
297.0
  9
$ORTHOMODE
 70
     1
  9
$REGENMODE
 70
     1
  9
$FILLMODE
 70
     1
  9
$QTEXTMODE
 70
     0
  9
$MIRRTEXT
 70
     1
  9
$LTSCALE
 40
1.0
  9
$ATTMODE
 70
     1
  9
$TEXTSIZE
 40
2.5
  9
$TRACEWID
 40
1.0
  9
$TEXTSTYLE
  7
kanji
  9
$CLAYER
  8
寸法
  9
$CELTYPE
  6
BYLAYER
  9
$CECOLOR
 62
   256
  9
$CELTSCALE
 40
1.0
  9
$DISPSILH
 70
     0
  9
$DIMSCALE
 40
1.0
  9
$DIMASZ
 40
3.0
  9
$DIMEXO
 40
3.0
  9
$DIMDLI
 40
7.0
  9
$DIMRND
 40
0.0
  9
$DIMDLE
 40
0.0
  9
$DIMEXE
 40
1.5
  9
$DIMTP
 40
0.0
  9
$DIMTM
 40
0.0
  9
$DIMTXT
 40
3.0
  9
$DIMCEN
 40
15.0
  9
$DIMTSZ
 40
0.0
  9
$DIMTOL
 70
     0
  9
$DIMLIM
 70
     0
  9
$DIMTIH
 70
     0
  9
$DIMTOH
 70
     0
  9
$DIMSE1
 70
     0
  9
$DIMSE2
 70
     0
  9
$DIMTAD
 70
     3
  9
$DIMZIN
 70
     0
  9
$DIMBLK
  1
Open30
  9
$DIMASO
 70
     1
  9
$DIMSHO
 70
     1
  9
$DIMPOST
  1

  9
$DIMAPOST
  1

  9
$DIMALT
 70
     0
  9
$DIMALTD
 70
     2
  9
$DIMALTF
 40
25.4
  9
$DIMLFAC
 40
1.0
  9
$DIMTOFL
 70
     1
  9
$DIMTVP
 40
0.0
  9
$DIMTIX
 70
     0
  9
$DIMSOXD
 70
     0
  9
$DIMSAH
 70
     0
  9
$DIMBLK1
  1

  9
$DIMBLK2
  1

  9
$DIMSTYLE
  2
STANDARD
  9
$DIMCLRD
 70
     4
  9
$DIMCLRE
 70
     4
  9
$DIMCLRT
 70
     4
  9
$DIMTFAC
 40
1.0
  9
$DIMGAP
 40
1.0
  9
$DIMJUST
 70
     0
  9
$DIMSD1
 70
     0
  9
$DIMSD2
 70
     0
  9
$DIMTOLJ
 70
     1
  9
$DIMTZIN
 70
     0
  9
$DIMALTZ
 70
     0
  9
$DIMALTTZ
 70
     0
  9
$DIMUPT
 70
     0
  9
$DIMDEC
 70
     0
  9
$DIMTDEC
 70
     0
  9
$DIMALTU
 70
     2
  9
$DIMALTTD
 70
     2
  9
$DIMTXSTY
  7
STANDARD
  9
$DIMAUNIT
 70
     0
  9
$DIMADEC
 70
     0
  9
$DIMALTRND
 40
0.0
  9
$DIMAZIN
 70
     0
  9
$DIMDSEP
 70
    46
  9
$DIMATFIT
 70
     3
  9
$DIMFRAC
 70
     0
  9
$DIMLDRBLK
  1
Open30
  9
$DIMLUNIT
 70
     2
  9
$DIMLWD
 70
    -2
  9
$DIMLWE
 70
    -2
  9
$DIMTMOVE
 70
     0
  9
$LUNITS
 70
     2
  9
$LUPREC
 70
     4
  9
$SKETCHINC
 40
1.0
  9
$FILLETRAD
 40
0.0
  9
$AUNITS
 70
     0
  9
$AUPREC
 70
     0
  9
$MENU
  1
.
  9
$ELEVATION
 40
0.0
  9
$PELEVATION
 40
0.0
  9
$THICKNESS
 40
0.0
  9
$LIMCHECK
 70
     0
  9
$CHAMFERA
 40
0.0
  9
$CHAMFERB
 40
0.0
  9
$CHAMFERC
 40
20.0
  9
$CHAMFERD
 40
0.0
  9
$SKPOLY
 70
     0
  9
$TDCREATE
 40
2450994.350997107
  9
$TDUCREATE
 40
2450993.975997107
  9
$TDUPDATE
 40
2456904.590170255
  9
$TDUUPDATE
 40
2456904.215170255
  9
$TDINDWG
 40
0.0400040741
  9
$TDUSRTIMER
 40
0.0400040741
  9
$USRTIMER
 70
     1
  9
$ANGBASE
 50
0.0
  9
$ANGDIR
 70
     0
  9
$PDMODE
 70
     1
  9
$PDSIZE
 40
0.0
  9
$PLINEWID
 40
0.0
  9
$SPLFRAME
 70
     0
  9
$SPLINETYPE
 70
     6
  9
$SPLINESEGS
 70
     8
  9
$HANDSEED
  5
72F
  9
$SURFTAB1
 70
     6
  9
$SURFTAB2
 70
     6
  9
$SURFTYPE
 70
     6
  9
$SURFU
 70
     6
  9
$SURFV
 70
     6
  9
$UCSBASE
  2

  9
$UCSNAME
  2

  9
$UCSORG
 10
0.0
 20
0.0
 30
0.0
  9
$UCSXDIR
 10
1.0
 20
0.0
 30
0.0
  9
$UCSYDIR
 10
0.0
 20
1.0
 30
0.0
  9
$UCSORTHOREF
  2

  9
$UCSORTHOVIEW
 70
     0
  9
$UCSORGTOP
 10
0.0
 20
0.0
 30
0.0
  9
$UCSORGBOTTOM
 10
0.0
 20
0.0
 30
0.0
  9
$UCSORGLEFT
 10
0.0
 20
0.0
 30
0.0
  9
$UCSORGRIGHT
 10
0.0
 20
0.0
 30
0.0
  9
$UCSORGFRONT
 10
0.0
 20
0.0
 30
0.0
  9
$UCSORGBACK
 10
0.0
 20
0.0
 30
0.0
  9
$PUCSBASE
  2

  9
$PUCSNAME
  2

  9
$PUCSORG
 10
0.0
 20
0.0
 30
0.0
  9
$PUCSXDIR
 10
1.0
 20
0.0
 30
0.0
  9
$PUCSYDIR
 10
0.0
 20
1.0
 30
0.0
  9
$PUCSORTHOREF
  2

  9
$PUCSORTHOVIEW
 70
     0
  9
$PUCSORGTOP
 10
0.0
 20
0.0
 30
0.0
  9
$PUCSORGBOTTOM
 10
0.0
 20
0.0
 30
0.0
  9
$PUCSORGLEFT
 10
0.0
 20
0.0
 30
0.0
  9
$PUCSORGRIGHT
 10
0.0
 20
0.0
 30
0.0
  9
$PUCSORGFRONT
 10
0.0
 20
0.0
 30
0.0
  9
$PUCSORGBACK
 10
0.0
 20
0.0
 30
0.0
  9
$USERI1
 70
     0
  9
$USERI2
 70
     0
  9
$USERI3
 70
     0
  9
$USERI4
 70
     0
  9
$USERI5
 70
     0
  9
$USERR1
 40
0.0
  9
$USERR2
 40
0.0
  9
$USERR3
 40
0.0
  9
$USERR4
 40
0.0
  9
$USERR5
 40
0.0
  9
$WORLDVIEW
 70
     1
  9
$SHADEDGE
 70
     3
  9
$SHADEDIF
 70
    70
  9
$TILEMODE
 70
     1
  9
$MAXACTVP
 70
    16
  9
$PINSBASE
 10
0.0
 20
0.0
 30
0.0
  9
$PLIMCHECK
 70
     0
  9
$PEXTMIN
 10
-0.0128164049386896
 20
-0.0090630292066862
 30
-0.0015258207003583
  9
$PEXTMAX
 10
420.0128183607161
 20
297.0090644122207
 30
0.0000000349246037
  9
$PLIMMIN
 10
0.0234348157644355
 20
-0.0028127621778777
  9
$PLIMMAX
 10
419.9700900892019
 20
297.0078378725877
  9
$UNITMODE
 70
     0
  9
$VISRETAIN
 70
     0
  9
$PLINEGEN
 70
     0
  9
$PSLTSCALE
 70
     1
  9
$TREEDEPTH
 70
  3020
  9
$CMLSTYLE
  2
STANDARD
  9
$CMLJUST
 70
     0
  9
$CMLSCALE
 40
1.0
  9
$PROXYGRAPHICS
 70
     1
  9
$MEASUREMENT
 70
     1
  9
$CELWEIGHT
370
    -1
  9
$ENDCAPS
280
     0
  9
$JOINSTYLE
280
     0
  9
$LWDISPLAY
290
     0
  9
$INSUNITS
 70
     0
  9
$HYPERLINKBASE
  1

  9
$STYLESHEET
  1

  9
$XEDIT
290
     1
  9
$CEPSNTYPE
380
     0
  9
$PSTYLEMODE
290
     1
  9
$FINGERPRINTGUID
  2
{D5C42BA0-D3BA-11D7-B8F8-000039219C21}
  9
$VERSIONGUID
  2
{D0FB3F22-F48E-4E06-BEE9-4B272F0A5999}
  9
$EXTNAMES
290
     1
  9
$PSVPSCALE
 40
0.0
  9
$OLESTARTUP
290
     0
  9
$SORTENTS
280
   127
  9
$INDEXCTL
280
     0
  9
$HIDETEXT
280
     0
  9
$XCLIPFRAME
290
     0
  9
$HALOGAP
280
     0
  9
$OBSCOLOR
 70
   257
  9
$OBSLTYPE
280
     0
  9
$INTERSECTIONDISPLAY
280
     0
  9
$INTERSECTIONCOLOR
 70
   257
  9
$DIMASSOC
280
     1
  9
$PROJECTNAME
  1

  0
ENDSEC
  0
SECTION
  2
CLASSES
  0
CLASS
  1
ACDBDICTIONARYWDFLT
  2
AcDbDictionaryWithDefault
  3
ObjectDBX Classes
 90
        0
 91
        1
280
     0
281
     0
  0
ENDSEC
  0
SECTION
  2
TABLES
  0
TABLE
  2
VPORT
  5
8
330
0
100
AcDbSymbolTable
 70
     2
  0
VPORT
  5
72E
330
8
100
AcDbSymbolTableRecord
100
AcDbViewportTableRecord
  2
*Active
 70
     0
 10
0.0
 20
0.0
 11
1.0
 21
1.0
 12
880.6780816712615
 22
402.7033145519899
 13
0.0
 23
0.0
 14
5.0
 24
5.0
 15
0.0
 25
0.0
 16
0.0
 26
0.0
 36
1.0
 17
0.0
 27
0.0
 37
0.0
 40
544.3914723877917
 41
2.011264080100125
 42
50.0
 43
0.0
 44
0.0
 50
0.0
 51
0.0
 71
     0
 72
   100
 73
     1
 74
     0
 75
     0
 76
     0
 77
     0
 78
     0
281
     0
 65
     1
110
0.0
120
0.0
130
0.0
111
1.0
121
0.0
131
0.0
112
0.0
122
1.0
132
0.0
 79
     0
146
0.0
  0
ENDTAB
  0
TABLE
  2
LTYPE
  5
5
330
0
100
AcDbSymbolTable
 70
     7
  0
LTYPE
  5
14
330
5
100
AcDbSymbolTableRecord
100
AcDbLinetypeTableRecord
  2
BYBLOCK
 70
     0
  3

 72
    65
 73
     0
 40
0.0
  0
LTYPE
  5
15
330
5
100
AcDbSymbolTableRecord
100
AcDbLinetypeTableRecord
  2
BYLAYER
 70
     0
  3

 72
    65
 73
     0
 40
0.0
  0
LTYPE
  5
16
330
5
100
AcDbSymbolTableRecord
100
AcDbLinetypeTableRecord
  2
CONTINUOUS
 70
     0
  3
Solid line
 72
    65
 73
     0
 40
0.0
  0
LTYPE
  5
120
330
5
100
AcDbSymbolTableRecord
100
AcDbLinetypeTableRecord
  2
CENTER
 70
     0
  3
____ _ ____ _ ____ _ ____ _ ____ _ ____ _ ____ 
 72
    65
 73
     4
 40
2.0
 49
1.25
 74
     0
 49
-0.25
 74
     0
 49
0.25
 74
     0
 49
-0.25
 74
     0
  0
LTYPE
  5
122
330
5
100
AcDbSymbolTableRecord
100
AcDbLinetypeTableRecord
  2
PHANTOM
 70
     0
  3
______  __  __  ______  __  __  ______  __  __ 
 72
    65
 73
     6
 40
2.5
 49
1.25
 74
     0
 49
-0.25
 74
     0
 49
0.25
 74
     0
 49
-0.25
 74
     0
 49
0.25
 74
     0
 49
-0.25
 74
     0
  0
LTYPE
  5
12B
330
5
100
AcDbSymbolTableRecord
100
AcDbLinetypeTableRecord
  2
DASHED
 70
     0
  3
__ __ __ __ __ __ __ __ __ __ __ __ __ __ __ __
 72
    65
 73
     2
 40
0.75
 49
0.5
 74
     0
 49
-0.25
 74
     0
  0
LTYPE
  5
35D
330
5
100
AcDbSymbolTableRecord
100
AcDbLinetypeTableRecord
  2
SLD-実線
 70
     0
  3
SolidWorks Line Style
 72
    65
 73
     0
 40
0.0
  0
LTYPE
  5
35E
330
5
100
AcDbSymbolTableRecord
100
AcDbLinetypeTableRecord
  2
SLD-破線
 70
     0
  3
SolidWorks Line Style
 72
    65
 73
     2
 40
1.905
 49
1.27
 74
     0
 49
-0.635
 74
     0
  0
LTYPE
  5
35F
330
5
100
AcDbSymbolTableRecord
100
AcDbLinetypeTableRecord
  2
SLD-鎖線
 70
     0
  3
SolidWorks Line Style
 72
    65
 73
     4
 40
10.16
 49
6.349999999999999
 74
     0
 49
-1.27
 74
     0
 49
1.27
 74
     0
 49
-1.27
 74
     0
  0
ENDTAB
  0
TABLE
  2
LAYER
  5
2
330
0
100
AcDbSymbolTable
 70
    10
  0
LAYER
  5
F
330
2
100
AcDbSymbolTableRecord
100
AcDbLayerTableRecord
  2
0
 70
     0
 62
     7
  6
CONTINUOUS
370
    -3
390
159
  0
LAYER
  5
62
330
2
100
AcDbSymbolTableRecord
100
AcDbLayerTableRecord
  2
VIEWPORT
 70
     0
 62
     7
  6
CONTINUOUS
370
    -3
390
159
  0
LAYER
  5
6B
330
2
100
AcDbSymbolTableRecord
100
AcDbLayerTableRecord
  2
図枠
 70
     0
 62
     7
  6
CONTINUOUS
370
    -3
390
159
  0
LAYER
  5
14E
330
2
100
AcDbSymbolTableRecord
100
AcDbLayerTableRecord
  2
軒樋
 70
     0
 62
     8
  6
PHANTOM
370
    -3
390
159
  0
LAYER
  5
14F
330
2
100
AcDbSymbolTableRecord
100
AcDbLayerTableRecord
  2
製品
 70
     0
 62
     3
  6
CONTINUOUS
370
    -3
390
159
  0
LAYER
  5
150
330
2
100
AcDbSymbolTableRecord
100
AcDbLayerTableRecord
  2
寸法
 70
     0
 62
     4
  6
CONTINUOUS
370
    -3
390
159
  0
LAYER
  5
151
330
2
100
AcDbSymbolTableRecord
100
AcDbLayerTableRecord
  2
中心線
 70
     0
 62
     1
  6
CENTER
370
    -3
390
159
  0
LAYER
  5
16E
330
2
100
AcDbSymbolTableRecord
100
AcDbLayerTableRecord
  2
Defpoints
 70
     0
 62
     7
  6
CONTINUOUS
290
     0
370
    -3
390
159
  0
LAYER
  5
180
330
2
100
AcDbSymbolTableRecord
100
AcDbLayerTableRecord
  2
ZUWAKU
 70
     0
 62
     7
  6
CONTINUOUS
370
    -3
390
159
  0
LAYER
  5
181
330
2
100
AcDbSymbolTableRecord
100
AcDbLayerTableRecord
  2
MOJI
 70
     0
 62
     2
  6
CONTINUOUS
370
    -3
390
159
  0
ENDTAB
  0
TABLE
  2
STYLE
  5
3
330
0
100
AcDbSymbolTable
 70
     4
  0
STYLE
  5
10
330
3
100
AcDbSymbolTableRecord
100
AcDbTextStyleTableRecord
  2
STANDARD
 70
     0
 40
0.0
 41
1.0
 50
0.0
 71
     0
 42
2.5
  3
TXT
  4
bigfont.shx
  0
STYLE
  5
16C
330
3
100
AcDbSymbolTableRecord
100
AcDbTextStyleTableRecord
  2
kanji
 70
     0
 40
0.0
 41
1.0
 50
0.0
 71
     0
 42
2.5
  3
TXT.shx
  4
bigfont.shx
  0
STYLE
  5
182
330
3
100
AcDbSymbolTableRecord
100
AcDbTextStyleTableRecord
  2
ｽﾀｲﾙ1
 70
     0
 40
0.0
 41
1.0
 50
0.0
 71
     0
 42
2.5
  3

  4

1001
ACAD
1000
MS PGothic
1071
    32818
  0
STYLE
  5
360
330
3
100
AcDbSymbolTableRecord
100
AcDbTextStyleTableRecord
  2
MS
 70
     0
 40
0.0
 41
1.0
 50
0.0
 71
     0
 42
2.5
  3

  4

1001
ACAD
1000
MS Gothic
1071
    32817
  0
ENDTAB
  0
TABLE
  2
VIEW
  5
6
330
0
100
AcDbSymbolTable
 70
     0
  0
ENDTAB
  0
TABLE
  2
UCS
  5
7
330
0
100
AcDbSymbolTable
 70
     0
  0
ENDTAB
  0
TABLE
  2
APPID
  5
9
330
0
100
AcDbSymbolTable
 70
     1
  0
APPID
  5
11
330
9
100
AcDbSymbolTableRecord
100
AcDbRegAppTableRecord
  2
ACAD
 70
     0
  0
ENDTAB
  0
TABLE
  2
DIMSTYLE
  5
A
330
0
100
AcDbSymbolTable
 70
    12
100
AcDbDimStyleTable
 71
     1
340
1D
  0
DIMSTYLE
105
1D
102
{ACAD_REACTORS
330
3CB
330
3B8
330
3CA
330
3B7
330
3E8
330
3B6
330
3B5
330
5ED
102
}
330
A
100
AcDbSymbolTableRecord
100
AcDbDimStyleTableRecord
  2
STANDARD
 70
     0
340
10
  0
DIMSTYLE
105
24
330
A
100
AcDbSymbolTableRecord
100
AcDbDimStyleTableRecord
  2
ISO-25
 70
     0
 41
2.5
 42
0.625
 43
3.75
 44
1.25
 74
     0
 77
     1
 78
     8
140
2.5
141
2.5
143
0.0394
145
1.0
147
0.625
172
     1
340
10
  0
DIMSTYLE
105
25
330
A
100
AcDbSymbolTableRecord
100
AcDbDimStyleTableRecord
  2
ISO-35
 70
     0
 41
3.5
 42
0.875
 43
5.25
 44
1.75
 74
     0
 77
     1
 78
     8
140
3.5
141
3.5
143
0.0394
145
1.399999999999999
147
0.875
172
     1
340
10
  0
DIMSTYLE
105
26
330
A
100
AcDbSymbolTableRecord
100
AcDbDimStyleTableRecord
  2
ISO-5
 70
     0
 41
5.0
 42
1.25
 43
7.5
 44
2.5
 74
     0
 77
     1
 78
     8
140
5.0
141
5.0
143
0.0394
145
2.0
147
1.25
172
     1
340
10
  0
DIMSTYLE
105
27
330
A
100
AcDbSymbolTableRecord
100
AcDbDimStyleTableRecord
  2
ISO-7
 70
     0
 41
7.0
 42
1.75
 43
10.5
 44
3.5
 74
     0
 77
     1
 78
     8
140
7.0
141
7.0
143
0.0394
145
2.799999999999999
147
1.75
172
     1
340
10
  0
DIMSTYLE
105
28
330
A
100
AcDbSymbolTableRecord
100
AcDbDimStyleTableRecord
  2
ISO1
 70
     0
 41
10.0
 42
2.5
 43
15.0
 44
5.0
 74
     0
 77
     1
 78
     8
140
10.0
141
10.0
143
0.0394
145
4.0
147
2.5
172
     1
340
10
  0
DIMSTYLE
105
29
330
A
100
AcDbSymbolTableRecord
100
AcDbDimStyleTableRecord
  2
ISO1-4
 70
     0
 41
14.0
 42
3.5
 43
21.0
 44
7.0
 74
     0
 77
     1
 78
     8
140
14.0
141
14.0
143
0.0394
145
5.599999999999999
147
3.5
172
     1
340
10
  0
DIMSTYLE
105
2A
330
A
100
AcDbSymbolTableRecord
100
AcDbDimStyleTableRecord
  2
ISO2
 70
     0
 41
20.0
 42
5.0
 43
30.0
 44
10.0
 74
     0
 77
     1
 78
     8
140
20.0
141
20.0
143
0.0394
145
8.0
147
5.0
172
     1
340
10
  0
DIMSTYLE
105
361
330
A
100
AcDbSymbolTableRecord
100
AcDbDimStyleTableRecord
  2
SLDDIMSTYLE0
 70
     0
 41
6.0
 44
0.0
 73
     0
 74
     0
 77
     2
 78
     9
 79
     2
140
3.5
147
2.0
172
     1
173
     1
271
     2
272
     2
340
10
341
166
343
166
344
166
  0
DIMSTYLE
105
362
330
A
100
AcDbSymbolTableRecord
100
AcDbDimStyleTableRecord
  2
SLDDIMSTYLE1
 70
     0
 41
6.0
 44
0.0
 45
0.000000001
 73
     0
 74
     0
 77
     3
 78
    12
140
3.5
147
0.875
173
     1
271
     2
272
     2
274
     3
279
     2
340
10
341
166
343
166
344
166
  0
DIMSTYLE
105
363
330
A
100
AcDbSymbolTableRecord
100
AcDbDimStyleTableRecord
  2
SLDDIMSTYLE2
 70
     0
 41
6.0
 44
0.0
 45
0.000000001
 73
     0
 74
     0
 77
     3
 78
    12
140
3.5
147
0.875
173
     1
271
     2
272
     2
274
     3
279
     2
340
10
341
166
343
166
344
166
  0
DIMSTYLE
105
364
330
A
100
AcDbSymbolTableRecord
100
AcDbDimStyleTableRecord
  2
SLDDIMSTYLE3
 70
     0
 41
6.0
 44
0.0
 45
0.000000001
 73
     0
 74
     0
 77
     3
 78
    12
140
3.5
147
0.875
172
     1
173
     1
271
     2
272
     2
279
     2
340
10
341
166
343
166
344
166
  0
ENDTAB
  0
TABLE
  2
BLOCK_RECORD
  5
1
330
0
100
AcDbSymbolTable
 70
    11
  0
BLOCK_RECORD
  5
1A
330
1
100
AcDbSymbolTableRecord
100
AcDbBlockTableRecord
  2
*MODEL_SPACE
340
15C
  0
BLOCK_RECORD
  5
17
330
1
100
AcDbSymbolTableRecord
100
AcDbBlockTableRecord
  2
*PAPER_SPACE
340
15D
  0
BLOCK_RECORD
  5
70
330
1
100
AcDbSymbolTableRecord
100
AcDbBlockTableRecord
  2
A$C13B5
340
0
  0
BLOCK_RECORD
  5
B2
330
1
100
AcDbSymbolTableRecord
100
AcDbBlockTableRecord
  2
_OPEN
340
0
  0
BLOCK_RECORD
  5
166
330
1
100
AcDbSymbolTableRecord
100
AcDbBlockTableRecord
  2
_Open30
340
0
102
{BLKREFS
331
650
331
651
331
659
331
65A
331
662
331
663
331
66B
331
66C
331
673
331
674
331
67F
331
680
331
68A
331
68B
331
693
331
694
102
}
  0
BLOCK_RECORD
  5
400
330
1
100
AcDbSymbolTableRecord
100
AcDbBlockTableRecord
  2
*D3
340
0
  0
BLOCK_RECORD
  5
40C
330
1
100
AcDbSymbolTableRecord
100
AcDbBlockTableRecord
  2
*D4
340
0
  0
BLOCK_RECORD
  5
418
330
1
100
AcDbSymbolTableRecord
100
AcDbBlockTableRecord
  2
*D5
340
0
  0
BLOCK_RECORD
  5
425
330
1
100
AcDbSymbolTableRecord
100
AcDbBlockTableRecord
  2
*D6
340
0
  0
BLOCK_RECORD
  5
432
330
1
100
AcDbSymbolTableRecord
100
AcDbBlockTableRecord
  2
*D7
340
0
  0
BLOCK_RECORD
  5
43F
330
1
100
AcDbSymbolTableRecord
100
AcDbBlockTableRecord
  2
*D8
340
0
  0
BLOCK_RECORD
  5
44E
330
1
100
AcDbSymbolTableRecord
100
AcDbBlockTableRecord
  2
*D9
340
0
  0
BLOCK_RECORD
  5
5EE
330
1
100
AcDbSymbolTableRecord
100
AcDbBlockTableRecord
  2
*D10
340
0
  0
ENDTAB
  0
ENDSEC
  0
SECTION
  2
BLOCKS
  0
BLOCK
  5
1B
330
1A
100
AcDbEntity
  8
0
100
AcDbBlockBegin
  2
*MODEL_SPACE
 70
     0
 10
0.0
 20
0.0
 30
0.0
  3
*MODEL_SPACE
  1

  0
ENDBLK
  5
1C
330
1A
100
AcDbEntity
  8
0
100
AcDbBlockEnd
  0
BLOCK
  5
18
330
17
100
AcDbEntity
 67
     1
  8
0
100
AcDbBlockBegin
  2
*PAPER_SPACE
 70
     0
 10
0.0
 20
0.0
 30
0.0
  3
*PAPER_SPACE
  1

  0
ENDBLK
  5
19
330
17
100
AcDbEntity
 67
     1
  8
0
100
AcDbBlockEnd
  0
BLOCK
  5
8A
330
70
100
AcDbEntity
  8
0
100
AcDbBlockBegin
  2
A$C13B5
 70
     0
 10
0.0
 20
0.0
 30
0.0
  3
A$C13B5
  1

  0
LINE
  5
71
330
70
100
AcDbEntity
  8
図枠
 62
     4
 48
10.0
100
AcDbLine
 10
1.288909537446727
 20
14.55345049516773
 30
0.0
 11
389.2889095374467
 21
14.55345049516768
 31
0.0
  0
LINE
  5
72
330
70
100
AcDbEntity
  8
図枠
 62
     6
 48
10.0
100
AcDbLine
 10
1.288909537446727
 20
6.553450495167737
 30
0.0
 11
389.2889095374467
 21
6.553450495167737
 31
0.0
  0
LINE
  5
73
330
70
100
AcDbEntity
  8
図枠
 62
     6
 48
10.0
100
AcDbLine
 10
1.288909537446727
 20
282.5534504951678
 30
0.0
 11
389.2889095374467
 21
282.5534504951677
 31
0.0
  0
LINE
  5
74
330
70
100
AcDbEntity
  8
図枠
 62
     6
 48
10.0
100
AcDbLine
 10
1.288909537446727
 20
6.553450495167737
 30
0.0
 11
1.288909537446727
 21
282.5534504951678
 31
0.0
  0
TEXT
  5
75
330
70
100
AcDbEntity
  8
図枠
100
AcDbText
 10
27.01140845066024
 20
7.713688301955187
 30
0.0
 40
6.0
  1
たてとい ｱｰﾊﾞﾝﾄｯﾌﾟ 
100
AcDbText
  0
TEXT
  5
76
330
70
100
AcDbEntity
  8
図枠
100
AcDbText
 10
5.016931864020591
 20
7.42362867277842
 30
0.0
 40
6.0
  1
品 名
100
AcDbText
  0
LINE
  5
77
330
70
100
AcDbEntity
  8
図枠
 62
     4
 48
10.0
100
AcDbLine
 10
23.28890953744673
 20
6.553450495167737
 30
0.0
 11
23.28890953744673
 21
14.55345049516774
 31
0.0
  0
LINE
  5
78
330
70
100
AcDbEntity
  8
図枠
 62
     4
 48
10.0
100
AcDbLine
 10
200.2889095374467
 20
6.553450495167737
 30
0.0
 11
200.2889095374467
 21
14.55345049516774
 31
0.0
  0
LINE
  5
79
330
70
100
AcDbEntity
  8
図枠
 62
     6
 48
10.0
100
AcDbLine
 10
170.2889095374467
 20
6.553450495167737
 30
0.0
 11
170.2889095374467
 21
14.55345049516774
 31
0.0
  0
TEXT
  5
7A
330
70
100
AcDbEntity
  8
図枠
100
AcDbText
 10
176.0849013274096
 20
7.75394793026868
 30
0.0
 40
6.0
  1
ｻ ｲ ｽﾞ
100
AcDbText
  0
LINE
  5
7B
330
70
100
AcDbEntity
  8
図枠
 62
     6
 48
10.0
100
AcDbLine
 10
389.2889095374467
 20
282.5534504951678
 30
0.0
 11
389.2889095374467
 21
6.553450495167737
 31
0.0
  0
TEXT
  5
7C
330
70
100
AcDbEntity
  8
図枠
100
AcDbText
 10
204.0370891170811
 20
7.483365856018338
 30
0.0
 40
6.0
  1
MY60
100
AcDbText
  0
LINE
  5
7D
330
70
100
AcDbEntity
  8
図枠
 62
     4
 48
10.0
100
AcDbLine
 10
302.2889095374467
 20
6.553450495167624
 30
0.0
 11
302.2889095374467
 21
14.55345049516774
 31
0.0
  0
LINE
  5
7E
330
70
100
AcDbEntity
  8
図枠
 62
     6
 48
10.0
100
AcDbLine
 10
280.2889095374467
 20
6.553450495167624
 30
0.0
 11
280.2889095374467
 21
14.55345049516774
 31
0.0
  0
TEXT
  5
7F
330
70
100
AcDbEntity
  8
図枠
100
AcDbText
 10
283.0671879169738
 20
7.488111900969613
 30
0.0
 40
6.0
  1
品 番
100
AcDbText
  0
TEXT
  5
80
330
70
100
AcDbEntity
  8
図枠
100
AcDbText
 10
305.4357802301391
 20
7.613597276414054
 30
0.0
 40
6.0
  1
C
100
AcDbText
  0
TEXT
  5
81
330
70
100
AcDbEntity
  8
図枠
 62
     6
 48
10.0
100
AcDbText
 10
287.5750180087266
 20
1.264336022576742
 30
0.0
 40
4.0
  1
積水化学工業株式会社
100
AcDbText
  0
TEXT
  5
82
330
70
100
AcDbEntity
  8
図枠
100
AcDbText
 10
378.9143972244913
 20
7.28414306680321
 30
0.0
 40
6.0
  1
1
100
AcDbText
  0
LINE
  5
83
330
70
100
AcDbEntity
  8
図枠
 62
     6
 48
10.0
100
AcDbLine
 10
363.2889095374467
 20
6.553450495167624
 30
0.0
 11
363.2889095374467
 21
14.55345049516774
 31
0.0
  0
TEXT
  5
84
330
70
100
AcDbEntity
  8
図枠
100
AcDbText
 10
366.7712800492437
 20
7.439601954164061
 30
0.0
 40
6.0
  1
1
100
AcDbText
  0
TEXT
  5
85
330
70
100
AcDbEntity
  8
図枠
100
AcDbText
 10
343.2307409172757
 20
7.283296132810676
 30
0.0
 40
6.0
  1
尺 度
100
AcDbText
  0
LINE
  5
86
330
70
100
AcDbEntity
  8
図枠
 62
     6
 48
10.0
100
AcDbLine
 10
340.2889095374467
 20
6.553450495167624
 30
0.0
 11
340.2889095374467
 21
14.55345049516774
 31
0.0
  0
LINE
  5
87
330
70
100
AcDbEntity
  8
図枠
 62
     4
100
AcDbLine
 10
375.8063876295765
 20
13.2465143593065
 30
0.0
 11
371.5781694695176
 21
7.361027351289919
 31
0.0
  0
TEXT
  5
88
330
70
100
AcDbEntity
  8
図枠
 62
     6
 48
10.0
100
AcDbText
 10
341.4974857461839
 20
1.41668541775158
 30
0.0
 40
4.0
  1
建材
100
AcDbText
  0
TEXT
  5
89
330
70
100
AcDbEntity
  8
図枠
 62
     6
 48
10.0
100
AcDbText
 10
380.7768613132438
 20
1.181327481845247
 30
0.0
 40
4.0
  1
A3
100
AcDbText
  0
ENDBLK
  5
8B
330
70
100
AcDbEntity
  8
0
100
AcDbBlockEnd
  0
BLOCK
  5
B3
330
B2
100
AcDbEntity
  8
0
100
AcDbBlockBegin
  2
_OPEN
 70
     0
 10
0.0
 20
0.0
 30
0.0
  3
_OPEN
  1

  0
LINE
  5
B4
330
B2
100
AcDbEntity
  8
0
  6
ByBlock
 62
     0
100
AcDbLine
 10
-1.0
 20
0.1666666666666666
 30
0.0
 11
0.0
 21
0.0
 31
0.0
  0
LINE
  5
B5
330
B2
100
AcDbEntity
  8
0
  6
ByBlock
 62
     0
100
AcDbLine
 10
0.0
 20
0.0
 30
0.0
 11
-1.0
 21
-0.1666666666666666
 31
0.0
  0
LINE
  5
B6
330
B2
100
AcDbEntity
  8
0
  6
ByBlock
 62
     0
100
AcDbLine
 10
0.0
 20
0.0
 30
0.0
 11
-1.0
 21
0.0
 31
0.0
  0
ENDBLK
  5
B7
330
B2
100
AcDbEntity
  8
0
100
AcDbBlockEnd
  0
BLOCK
  5
16A
330
166
100
AcDbEntity
  8
0
100
AcDbBlockBegin
  2
_Open30
 70
     0
 10
0.0
 20
0.0
 30
0.0
  3
_Open30
  1

  0
LINE
  5
167
330
166
100
AcDbEntity
  8
図枠
 62
     0
370
    -2
100
AcDbLine
 10
-1.0
 20
0.26794919
 30
0.0
 11
0.0
 21
0.0
 31
0.0
  0
LINE
  5
168
330
166
100
AcDbEntity
  8
図枠
 62
     0
370
    -2
100
AcDbLine
 10
0.0
 20
0.0
 30
0.0
 11
-1.0
 21
-0.26794919
 31
0.0
  0
LINE
  5
169
330
166
100
AcDbEntity
  8
図枠
 62
     0
370
    -2
100
AcDbLine
 10
0.0
 20
0.0
 30
0.0
 11
-1.0
 21
0.0
 31
0.0
  0
ENDBLK
  5
16B
330
166
100
AcDbEntity
  8
0
100
AcDbBlockEnd
  0
BLOCK
  5
40A
330
400
100
AcDbEntity
  8
0
100
AcDbBlockBegin
  2
*D3
 70
     1
 10
0.0
 20
0.0
 30
0.0
  3
*D3
  1

  0
LINE
  5
656
330
400
100
AcDbEntity
  8
製品
  6
DASHED
 62
     4
370
    -2
100
AcDbLine
 10
853.9595045266782
 20
435.0255503735811
 30
0.0
 11
853.9595045266782
 21
313.042856626686
 31
0.0
  0
LINE
  5
657
330
400
100
AcDbEntity
  8
製品
  6
DASHED
 62
     4
370
    -2
100
AcDbLine
 10
726.8774719230957
 20
387.7190861893231
 30
0.0
 11
726.8774719230957
 21
313.042856626686
 31
0.0
  0
LINE
  5
658
330
400
100
AcDbEntity
  8
製品
  6
DASHED
 62
     4
370
    -2
100
AcDbLine
 10
850.9595045266783
 20
314.542856626686
 30
0.0
 11
729.8774719230957
 21
314.542856626686
 31
0.0
  0
INSERT
  5
659
330
400
100
AcDbEntity
  8
製品
  6
DASHED
 62
     4
370
    -2
100
AcDbBlockReference
  2
_Open30
 10
853.9595045266782
 20
314.542856626686
 30
0.0
 41
3.0
 42
3.0
 43
3.0
  0
INSERT
  5
65A
330
400
100
AcDbEntity
  8
製品
  6
DASHED
 62
     4
370
    -2
100
AcDbBlockReference
  2
_Open30
 10
726.8774719230957
 20
314.542856626686
 30
0.0
 41
3.0
 42
3.0
 43
3.0
 50
180.0
  0
MTEXT
  5
65B
330
400
100
AcDbEntity
  8
製品
  6
DASHED
 62
     4
100
AcDbMText
 10
790.418488224887
 20
317.042856626686
 30
0.0
 40
3.0
 41
0.0
 71
     5
 72
     1
  1
\A1;127
 73
     1
 44
1.0
  0
POINT
  5
65C
330
400
100
AcDbEntity
  8
Defpoints
  6
DASHED
 62
     0
100
AcDbPoint
 10
853.9595045266782
 20
438.0255503735812
 30
0.0
  0
POINT
  5
65D
330
400
100
AcDbEntity
  8
Defpoints
  6
DASHED
 62
     0
100
AcDbPoint
 10
726.8774719230957
 20
390.7190861893231
 30
0.0
  0
POINT
  5
65E
330
400
100
AcDbEntity
  8
Defpoints
  6
DASHED
 62
     0
100
AcDbPoint
 10
726.8774719230957
 20
314.542856626686
 30
0.0
  0
ENDBLK
  5
40B
330
400
100
AcDbEntity
  8
0
100
AcDbBlockEnd
  0
BLOCK
  5
416
330
40C
100
AcDbEntity
  8
0
100
AcDbBlockBegin
  2
*D4
 70
     1
 10
0.0
 20
0.0
 30
0.0
  3
*D4
  1

  0
LINE
  5
65F
330
40C
100
AcDbEntity
  8
寸法
 62
     4
370
    -2
100
AcDbLine
 10
853.9595045266782
 20
435.0255503735811
 30
0.0
 11
853.9595045266782
 21
321.6420684404093
 31
0.0
  0
LINE
  5
660
330
40C
100
AcDbEntity
  8
寸法
 62
     4
370
    -2
100
AcDbLine
 10
758.2140423157029
 20
378.9451107767568
 30
0.0
 11
758.2140423157029
 21
321.6420684404093
 31
0.0
  0
LINE
  5
661
330
40C
100
AcDbEntity
  8
寸法
 62
     4
370
    -2
100
AcDbLine
 10
850.9595045266783
 20
323.1420684404093
 30
0.0
 11
761.2140423157029
 21
323.1420684404093
 31
0.0
  0
INSERT
  5
662
330
40C
100
AcDbEntity
  8
寸法
 62
     4
370
    -2
100
AcDbBlockReference
  2
_Open30
 10
853.9595045266782
 20
323.1420684404093
 30
0.0
 41
3.0
 42
3.0
 43
3.0
  0
INSERT
  5
663
330
40C
100
AcDbEntity
  8
寸法
 62
     4
370
    -2
100
AcDbBlockReference
  2
_Open30
 10
758.2140423157029
 20
323.1420684404093
 30
0.0
 41
3.0
 42
3.0
 43
3.0
 50
180.0
  0
MTEXT
  5
664
330
40C
100
AcDbEntity
  8
寸法
 62
     4
100
AcDbMText
 10
806.0867734211907
 20
325.6420684404093
 30
0.0
 40
3.0
 41
0.0
 71
     5
 72
     1
  1
\A1;96
 73
     1
 44
1.0
  0
POINT
  5
665
330
40C
100
AcDbEntity
  8
Defpoints
 62
     0
100
AcDbPoint
 10
853.9595045266782
 20
438.0255503735812
 30
0.0
  0
POINT
  5
666
330
40C
100
AcDbEntity
  8
Defpoints
 62
     0
100
AcDbPoint
 10
758.2140423157029
 20
381.9451107767568
 30
0.0
  0
POINT
  5
667
330
40C
100
AcDbEntity
  8
Defpoints
 62
     0
100
AcDbPoint
 10
758.2140423157029
 20
323.1420684404093
 30
0.0
  0
ENDBLK
  5
417
330
40C
100
AcDbEntity
  8
0
100
AcDbBlockEnd
  0
BLOCK
  5
423
330
418
100
AcDbEntity
  8
0
100
AcDbBlockBegin
  2
*D5
 70
     1
 10
0.0
 20
0.0
 30
0.0
  3
*D5
  1

  0
LINE
  5
668
330
418
100
AcDbEntity
  8
寸法
 62
     4
370
    -2
100
AcDbLine
 10
854.9485772541906
 20
473.0255503735812
 30
0.0
 11
880.391229162199
 21
473.0255503735812
 31
0.0
  0
LINE
  5
669
330
418
100
AcDbEntity
  8
寸法
 62
     4
370
    -2
100
AcDbLine
 10
739.5979748705344
 20
335.5913745459759
 30
0.0
 11
880.391229162199
 21
335.5913745459759
 31
0.0
  0
LINE
  5
66A
330
418
100
AcDbEntity
  8
寸法
 62
     4
370
    -2
100
AcDbLine
 10
878.8912291621992
 20
470.0255503735812
 30
0.0
 11
878.8912291621992
 21
338.5913745459759
 31
0.0
  0
INSERT
  5
66B
330
418
100
AcDbEntity
  8
寸法
 62
     4
370
    -2
100
AcDbBlockReference
  2
_Open30
 10
878.8912291621992
 20
473.0255503735812
 30
0.0
 41
3.0
 42
3.0
 43
3.0
 50
90.0
  0
INSERT
  5
66C
330
418
100
AcDbEntity
  8
寸法
 62
     4
370
    -2
100
AcDbBlockReference
  2
_Open30
 10
878.8912291621992
 20
335.5913745459759
 30
0.0
 41
3.0
 42
3.0
 43
3.0
 50
270.0
  0
MTEXT
  5
66D
330
418
100
AcDbEntity
  8
寸法
 62
     4
100
AcDbMText
 10
876.391229162199
 20
404.3084624597787
 30
0.0
 40
3.0
 41
0.0
 71
     5
 72
     1
  1
\A1;137
 11
0.0000000000000001
 21
1.0
 31
0.0
 73
     1
 44
1.0
  0
POINT
  5
66E
330
418
100
AcDbEntity
  8
Defpoints
 62
     0
100
AcDbPoint
 10
851.9485772541907
 20
473.0255503735812
 30
0.0
  0
POINT
  5
66F
330
418
100
AcDbEntity
  8
Defpoints
 62
     0
100
AcDbPoint
 10
736.5979748705345
 20
335.5913745459759
 30
0.0
  0
POINT
  5
670
330
418
100
AcDbEntity
  8
Defpoints
 62
     0
100
AcDbPoint
 10
878.8912291621992
 20
335.5913745459759
 30
0.0
  0
ENDBLK
  5
424
330
418
100
AcDbEntity
  8
0
100
AcDbBlockEnd
  0
BLOCK
  5
430
330
425
100
AcDbEntity
  8
0
100
AcDbBlockBegin
  2
*D6
 70
     1
 10
0.0
 20
0.0
 30
0.0
  3
*D6
  1

  0
LINE
  5
671
330
425
100
AcDbEntity
  8
寸法
 62
     4
370
    -2
100
AcDbLine
 10
833.5069053274064
 20
381.0998829466416
 30
0.0
 11
850.1005650879175
 21
384.0257928711162
 31
0.0
  0
ARC
  5
672
330
425
100
AcDbEntity
  8
寸法
 62
     4
370
    -2
100
AcDbCircle
 10
823.9595045266783
 20
379.4164185898356
 30
0.0
 40
25.04432855679925
100
AcDbArc
 50
16.86743395957946
 51
83.13256604042072
  0
INSERT
  5
673
330
425
100
AcDbEntity
  8
寸法
 62
     4
370
    -2
100
AcDbBlockReference
  2
_Open30
 10
848.6233534583991
 20
383.7653206046157
 30
0.0
 41
3.0
 42
3.0
 43
3.0
 50
283.4337169797898
  0
INSERT
  5
674
330
425
100
AcDbEntity
  8
寸法
 62
     4
370
    -2
100
AcDbBlockReference
  2
_Open30
 10
823.9595045266781
 20
404.4607471466348
 30
0.0
 41
3.0
 42
3.0
 43
3.0
 50
176.5662830202103
  0
MTEXT
  5
675
330
425
100
AcDbEntity
  8
寸法
 62
     4
100
AcDbMText
 10
841.6646576401237
 20
400.5165984202149
 30
0.0
 40
3.0
 41
0.0
 71
     5
 72
     1
  1
\A1;80°
 11
0.7660444431189788
 21
-0.6427876096865384
 31
0.0
 73
     1
 44
1.0
  0
POINT
  5
676
330
425
100
AcDbEntity
  8
Defpoints
 62
     0
100
AcDbPoint
 10
844.0481413090642
 20
394.3718545609557
 30
0.0
  0
POINT
  5
677
330
425
100
AcDbEntity
  8
Defpoints
 62
     0
100
AcDbPoint
 10
823.9595045266783
 20
475.5481552822744
 30
0.0
  0
POINT
  5
678
330
425
100
AcDbEntity
  8
Defpoints
 62
     0
100
AcDbPoint
 10
728.6411153678293
 20
362.6092148234609
 30
0.0
  0
POINT
  5
679
330
425
100
AcDbEntity
  8
Defpoints
 62
     0
100
AcDbPoint
 10
830.5524820683698
 20
380.5789384136408
 30
0.0
  0
POINT
  5
67A
330
425
100
AcDbEntity
  8
Defpoints
 62
     0
100
AcDbPoint
 10
823.959504526678
 20
388.7456669025784
 30
0.0
  0
ENDBLK
  5
431
330
425
100
AcDbEntity
  8
0
100
AcDbBlockEnd
  0
BLOCK
  5
43D
330
432
100
AcDbEntity
  8
0
100
AcDbBlockBegin
  2
*D7
 70
     1
 10
0.0
 20
0.0
 30
0.0
  3
*D7
  1

  0
LINE
  5
687
330
432
100
AcDbEntity
  8
寸法
 62
     4
370
    -2
100
AcDbLine
 10
854.9485772541906
 20
473.0255503735812
 30
0.0
 11
869.9043852886866
 21
473.0255503735812
 31
0.0
  0
LINE
  5
688
330
432
100
AcDbEntity
  8
寸法
 62
     4
370
    -2
100
AcDbLine
 10
800.7965685651933
 20
342.3625845272663
 30
0.0
 11
869.9043852886866
 21
342.3625845272663
 31
0.0
  0
LINE
  5
689
330
432
100
AcDbEntity
  8
寸法
 62
     4
370
    -2
100
AcDbLine
 10
868.4043852886865
 20
470.0255503735812
 30
0.0
 11
868.4043852886865
 21
345.3625845272664
 31
0.0
  0
INSERT
  5
68A
330
432
100
AcDbEntity
  8
寸法
 62
     4
370
    -2
100
AcDbBlockReference
  2
_Open30
 10
868.4043852886865
 20
473.0255503735812
 30
0.0
 41
3.0
 42
3.0
 43
3.0
 50
90.0
  0
INSERT
  5
68B
330
432
100
AcDbEntity
  8
寸法
 62
     4
370
    -2
100
AcDbBlockReference
  2
_Open30
 10
868.4043852886865
 20
342.3625845272663
 30
0.0
 41
3.0
 42
3.0
 43
3.0
 50
270.0
  0
MTEXT
  5
68C
330
432
100
AcDbEntity
  8
寸法
 62
     4
100
AcDbMText
 10
865.9043852886865
 20
407.6940674504239
 30
0.0
 40
3.0
 41
0.0
 71
     5
 72
     1
  1
\A1;131
 11
0.0000000000000001
 21
1.0
 31
0.0
 73
     1
 44
1.0
  0
POINT
  5
68D
330
432
100
AcDbEntity
  8
Defpoints
 62
     0
100
AcDbPoint
 10
851.9485772541907
 20
473.0255503735812
 30
0.0
  0
POINT
  5
68E
330
432
100
AcDbEntity
  8
Defpoints
 62
     0
100
AcDbPoint
 10
797.7965685651934
 20
342.3625845272663
 30
0.0
  0
POINT
  5
68F
330
432
100
AcDbEntity
  8
Defpoints
 62
     0
100
AcDbPoint
 10
868.4043852886865
 20
342.3625845272663
 30
0.0
  0
ENDBLK
  5
43E
330
432
100
AcDbEntity
  8
0
100
AcDbBlockEnd
  0
BLOCK
  5
44C
330
43F
100
AcDbEntity
  8
0
100
AcDbBlockBegin
  2
*D8
 70
     1
 10
0.0
 20
0.0
 30
0.0
  3
*D8
  1

  0
LINE
  5
67B
330
43F
100
AcDbEntity
  8
寸法
 62
     4
370
    -2
100
AcDbLine
 10
834.3211064455202
 20
418.3274664227515
 30
0.0
 11
840.4037101131329
 21
424.3947131538635
 31
0.0
  0
ARC
  5
67C
330
43F
100
AcDbEntity
  8
寸法
 62
     4
370
    -2
100
AcDbCircle
 10
823.9595045266781
 20
407.9920247588607
 30
0.0
 40
21.72628002830307
100
AcDbArc
 50
29.09199456234027
 51
37.0097874863869
  0
ARC
  5
67D
330
43F
100
AcDbEntity
  8
寸法
 62
     4
370
    -2
100
AcDbCircle
 10
823.9595045266781
 20
407.9920247588607
 30
0.0
 40
21.72628002830307
100
AcDbArc
 50
97.91779292404648
 51
105.835585848093
  0
ARC
  5
67E
330
43F
100
AcDbEntity
  8
寸法
 62
     4
370
    -2
100
AcDbCircle
 10
823.9595045266781
 20
407.9920247588607
 30
0.0
 40
21.72628002830307
100
AcDbArc
 50
44.92758041043351
 51
89.99999999999984
  0
INSERT
  5
67F
330
43F
100
AcDbEntity
  8
寸法
 62
     4
370
    -2
100
AcDbBlockReference
  2
_Open30
 10
839.3417101566342
 20
423.3353944613083
 30
0.0
 41
3.0
 42
3.0
 43
3.0
 50
130.9686839484102
  0
INSERT
  5
680
330
43F
100
AcDbEntity
  8
寸法
 62
     4
370
    -2
100
AcDbBlockReference
  2
_Open30
 10
823.9595045266781
 20
429.7183047871638
 30
0.0
 41
3.0
 42
3.0
 43
3.0
 50
3.958896462023142
  0
MTEXT
  5
681
330
43F
100
AcDbEntity
  8
寸法
 62
     4
100
AcDbMText
 10
833.2446437523095
 20
430.3683254712305
 30
0.0
 40
3.0
 41
0.0
 71
     5
 72
     1
  1
\A1;45°
 11
0.923637499699828
 21
-0.3832672294212616
 31
0.0
 73
     1
 44
1.0
  0
POINT
  5
682
330
43F
100
AcDbEntity
  8
Defpoints
 62
     0
100
AcDbPoint
 10
834.8384953875436
 20
426.7983747959477
 30
0.0
  0
POINT
  5
683
330
43F
100
AcDbEntity
  8
Defpoints
 62
     0
100
AcDbPoint
 10
775.8241772302089
 20
359.9782262032278
 30
0.0
  0
POINT
  5
684
330
43F
100
AcDbEntity
  8
Defpoints
 62
     0
100
AcDbPoint
 10
823.9595045266783
 20
475.5481552822743
 30
0.0
  0
POINT
  5
685
330
43F
100
AcDbEntity
  8
Defpoints
 62
     0
100
AcDbPoint
 10
823.959504526678
 20
398.1529630038066
 30
0.0
  0
POINT
  5
686
330
43F
100
AcDbEntity
  8
Defpoints
 62
     0
100
AcDbPoint
 10
832.1971065325229
 20
416.2088290376409
 30
0.0
  0
ENDBLK
  5
44D
330
43F
100
AcDbEntity
  8
0
100
AcDbBlockEnd
  0
BLOCK
  5
458
330
44E
100
AcDbEntity
  8
0
100
AcDbBlockBegin
  2
*D9
 70
     1
 10
0.0
 20
0.0
 30
0.0
  3
*D9
  1

  0
LINE
  5
690
330
44E
100
AcDbEntity
  8
製品
 62
     4
370
    -2
100
AcDbLine
 10
625.6007786077978
 20
441.0255503735812
 30
0.0
 11
625.6007786077978
 21
488.5990218092275
 31
0.0
  0
LINE
  5
691
330
44E
100
AcDbEntity
  8
製品
 62
     4
370
    -2
100
AcDbLine
 10
685.6007786077977
 20
441.0255503735812
 30
0.0
 11
685.6007786077977
 21
488.5990218092275
 31
0.0
  0
LINE
  5
692
330
44E
100
AcDbEntity
  8
製品
 62
     4
370
    -2
100
AcDbLine
 10
628.6007786077978
 20
487.0990218092275
 30
0.0
 11
682.6007786077978
 21
487.0990218092275
 31
0.0
  0
INSERT
  5
693
330
44E
100
AcDbEntity
  8
製品
 62
     4
370
    -2
100
AcDbBlockReference
  2
_Open30
 10
625.6007786077978
 20
487.0990218092275
 30
0.0
 41
3.0
 42
3.0
 43
3.0
 50
180.0
  0
INSERT
  5
694
330
44E
100
AcDbEntity
  8
製品
 62
     4
370
    -2
100
AcDbBlockReference
  2
_Open30
 10
685.6007786077977
 20
487.0990218092275
 30
0.0
 41
3.0
 42
3.0
 43
3.0
  0
MTEXT
  5
695
330
44E
100
AcDbEntity
  8
製品
 62
     4
100
AcDbMText
 10
655.6007786077977
 20
489.5990218092276
 30
0.0
 40
3.0
 41
0.0
 71
     5
 72
     1
  1
\A1;φ60
 73
     1
 44
1.0
  0
POINT
  5
696
330
44E
100
AcDbEntity
  8
Defpoints
 62
     0
100
AcDbPoint
 10
625.6007786077978
 20
438.0255503735812
 30
0.0
  0
POINT
  5
697
330
44E
100
AcDbEntity
  8
Defpoints
 62
     0
100
AcDbPoint
 10
685.6007786077977
 20
438.0255503735812
 30
0.0
  0
POINT
  5
698
330
44E
100
AcDbEntity
  8
Defpoints
 62
     0
100
AcDbPoint
 10
685.6007786077977
 20
487.0990218092275
 30
0.0
  0
ENDBLK
  5
459
330
44E
100
AcDbEntity
  8
0
100
AcDbBlockEnd
  0
BLOCK
  5
5F8
330
5EE
100
AcDbEntity
  8
0
100
AcDbBlockBegin
  2
*D10
 70
     1
 10
0.0
 20
0.0
 30
0.0
  3
*D10
  1

  0
LINE
  5
64D
330
5EE
100
AcDbEntity
  8
寸法
 62
     4
370
    -2
100
AcDbLine
 10
790.9595045266783
 20
438.0255503735812
 30
0.0
 11
779.582097549948
 21
438.0255503735812
 31
0.0
  0
LINE
  5
64E
330
5EE
100
AcDbEntity
  8
寸法
 62
     4
370
    -2
100
AcDbLine
 10
792.9704317991658
 20
473.0255503735812
 30
0.0
 11
779.582097549948
 21
473.0255503735812
 31
0.0
  0
LINE
  5
64F
330
5EE
100
AcDbEntity
  8
寸法
 62
     4
370
    -2
100
AcDbLine
 10
781.0820975499479
 20
441.0255503735812
 30
0.0
 11
781.0820975499479
 21
470.0255503735812
 31
0.0
  0
INSERT
  5
650
330
5EE
100
AcDbEntity
  8
寸法
 62
     4
370
    -2
100
AcDbBlockReference
  2
_Open30
 10
781.0820975499479
 20
438.0255503735812
 30
0.0
 41
3.0
 42
3.0
 43
3.0
 50
270.0
  0
INSERT
  5
651
330
5EE
100
AcDbEntity
  8
寸法
 62
     4
370
    -2
100
AcDbBlockReference
  2
_Open30
 10
781.0820975499479
 20
473.0255503735812
 30
0.0
 41
3.0
 42
3.0
 43
3.0
 50
90.0
  0
MTEXT
  5
652
330
5EE
100
AcDbEntity
  8
寸法
 62
     4
100
AcDbMText
 10
778.5820975499478
 20
455.5255503735813
 30
0.0
 40
3.0
 41
0.0
 71
     5
 72
     1
  1
\A1;35
 11
0.0000000000000001
 21
1.0
 31
0.0
 73
     1
 44
1.0
  0
POINT
  5
653
330
5EE
100
AcDbEntity
  8
Defpoints
 62
     0
100
AcDbPoint
 10
793.9595045266782
 20
438.0255503735812
 30
0.0
  0
POINT
  5
654
330
5EE
100
AcDbEntity
  8
Defpoints
 62
     0
100
AcDbPoint
 10
795.9704317991659
 20
473.0255503735812
 30
0.0
  0
POINT
  5
655
330
5EE
100
AcDbEntity
  8
Defpoints
 62
     0
100
AcDbPoint
 10
781.0820975499479
 20
473.0255503735812
 30
0.0
  0
ENDBLK
  5
5F9
330
5EE
100
AcDbEntity
  8
0
100
AcDbBlockEnd
  0
ENDSEC
  0
SECTION
  2
ENTITIES
  0
LWPOLYLINE
  5
23D
330
1A
100
AcDbEntity
  8
ZUWAKU
100
AcDbPolyline
 90
        4
 70
     1
 43
0.0
 10
540.1583426862064
 20
531.4714808281774
 10
540.1583426862064
 20
256.4714808281774
 10
938.1583426862063
 20
256.4714808281774
 10
938.1583426862063
 20
531.4714808281774
  0
LWPOLYLINE
  5
23E
330
1A
100
AcDbEntity
  8
ZUWAKU
100
AcDbPolyline
 90
        4
 70
     1
 43
0.0
 10
539.9583426862063
 20
531.6714808281774
 10
539.9583426862063
 20
256.2714808281775
 10
938.3583426862065
 20
256.2714808281775
 10
938.3583426862065
 20
531.6714808281774
  0
LWPOLYLINE
  5
23F
330
1A
100
AcDbEntity
  8
ZUWAKU
100
AcDbPolyline
 90
        4
 70
     1
 43
0.0
 10
539.7583426862064
 20
531.8714808281774
 10
539.7583426862064
 20
256.0714808281774
 10
938.5583426862064
 20
256.0714808281775
 10
938.5583426862064
 20
531.8714808281774
  0
LWPOLYLINE
  5
240
330
1A
100
AcDbEntity
  8
ZUWAKU
100
AcDbPolyline
 90
        4
 70
     1
 43
0.0
 10
540.0583426862064
 20
531.5714808281775
 10
540.0583426862064
 20
256.3714808281774
 10
938.2583426862066
 20
256.3714808281774
 10
938.2583426862064
 20
531.5714808281775
  0
LWPOLYLINE
  5
241
330
1A
100
AcDbEntity
  8
ZUWAKU
100
AcDbPolyline
 90
        4
 70
     1
 43
0.0
 10
539.8583426862065
 20
531.7714808281773
 10
539.8583426862065
 20
256.1714808281774
 10
938.4583426862063
 20
256.1714808281774
 10
938.4583426862064
 20
531.7714808281773
  0
TEXT
  5
242
330
1A
100
AcDbEntity
  8
MOJI
100
AcDbText
 10
771.3815586817075
 20
262.0427896890074
 30
0.0
 40
2.799999999999999
  1
ＰＨ１８
 41
0.9
  7
ｽﾀｲﾙ1
100
AcDbText
  0
LINE
  5
243
330
1A
100
AcDbEntity
  8
ZUWAKU
100
AcDbLine
 10
539.7583426862064
 20
271.0714808281774
 30
0.0
 11
938.4583426862063
 21
271.0714808281774
 31
0.0
  0
LINE
  5
244
330
1A
100
AcDbEntity
  8
ZUWAKU
100
AcDbLine
 10
539.7583426862064
 20
271.1714808281775
 30
0.0
 11
938.4583426862063
 21
271.1714808281775
 31
0.0
  0
LINE
  5
245
330
1A
100
AcDbEntity
  8
ZUWAKU
100
AcDbLine
 10
539.7583426862064
 20
271.2714808281774
 30
0.0
 11
938.4583426862063
 21
271.2714808281774
 31
0.0
  0
LINE
  5
246
330
1A
100
AcDbEntity
  8
ZUWAKU
100
AcDbLine
 10
539.7583426862064
 20
271.3714808281774
 30
0.0
 11
938.4583426862063
 21
271.3714808281774
 31
0.0
  0
LINE
  5
247
330
1A
100
AcDbEntity
  8
ZUWAKU
100
AcDbLine
 10
539.7583426862064
 20
271.4714808281774
 30
0.0
 11
938.4583426862063
 21
271.4714808281774
 31
0.0
  0
TEXT
  5
248
330
1A
100
AcDbEntity
  8
ZUWAKU
100
AcDbText
 10
644.6203658423452
 20
260.8991590973702
 30
0.0
 40
2.0
  1
サイズ
 41
0.9
  7
ｽﾀｲﾙ1
100
AcDbText
  0
LINE
  5
249
330
1A
100
AcDbEntity
  8
ZUWAKU
100
AcDbLine
 10
644.0816433312404
 20
263.7714808281774
 30
0.0
 11
763.4705246717021
 21
263.7714808281774
 31
0.0
  0
LINE
  5
24A
330
1A
100
AcDbEntity
  8
ZUWAKU
100
AcDbLine
 10
644.0816433312404
 20
263.8714808281774
 30
0.0
 11
763.4705246717021
 21
263.8714808281774
 31
0.0
  0
LINE
  5
24B
330
1A
100
AcDbEntity
  8
ZUWAKU
100
AcDbLine
 10
644.0816433312404
 20
263.6714808281774
 30
0.0
 11
763.4705246717021
 21
263.6714808281774
 31
0.0
  0
LINE
  5
24C
330
1A
100
AcDbEntity
  8
ZUWAKU
100
AcDbLine
 10
643.9816433312403
 20
271.0714808281774
 30
0.0
 11
643.9816433312404
 21
256.4714808281774
 31
0.0
  0
LINE
  5
24D
330
1A
100
AcDbEntity
  8
ZUWAKU
100
AcDbLine
 10
644.0816433312403
 20
271.0714808281774
 30
0.0
 11
644.0816433312404
 21
256.4714808281774
 31
0.0
  0
LINE
  5
24E
330
1A
100
AcDbEntity
  8
ZUWAKU
100
AcDbLine
 10
643.8816433312403
 20
271.0714808281774
 30
0.0
 11
643.8816433312403
 21
256.4714808281774
 31
0.0
  0
LINE
  5
24F
330
1A
100
AcDbEntity
  8
ZUWAKU
100
AcDbLine
 10
572.879448763597
 20
267.4339808281774
 30
0.0
 11
572.879448763597
 21
259.9089808281774
 31
0.0
  0
LINE
  5
250
330
1A
100
AcDbEntity
  8
ZUWAKU
100
AcDbLine
 10
574.2794487635969
 20
259.9089808281774
 30
0.0
 11
574.2794487635969
 21
267.4339808281774
 31
0.0
  0
LINE
  5
251
330
1A
100
AcDbEntity
  8
ZUWAKU
100
AcDbLine
 10
570.429448763597
 20
267.4339808281774
 30
0.0
 11
570.429448763597
 21
261.5714808281774
 31
0.0
  0
LINE
  5
252
330
1A
100
AcDbEntity
  8
ZUWAKU
100
AcDbLine
 10
571.829448763597
 20
261.0464808281774
 30
0.0
 11
571.829448763597
 21
267.4339808281774
 31
0.0
  0
LINE
  5
253
330
1A
100
AcDbEntity
  8
ZUWAKU
100
AcDbLine
 10
579.3216574602006
 20
271.0714808281774
 30
0.0
 11
579.3216574602006
 21
256.4714808281774
 31
0.0
  0
LINE
  5
254
330
1A
100
AcDbEntity
  8
ZUWAKU
100
AcDbLine
 10
579.5216574602005
 20
271.0714808281774
 30
0.0
 11
579.5216574602006
 21
256.4714808281774
 31
0.0
  0
LINE
  5
255
330
1A
100
AcDbEntity
  8
ZUWAKU
100
AcDbLine
 10
579.4216574602005
 20
271.0714808281774
 30
0.0
 11
579.4216574602006
 21
256.4714808281774
 31
0.0
  0
LINE
  5
256
330
1A
100
AcDbEntity
  8
ZUWAKU
100
AcDbLine
 10
562.554448763597
 20
266.2964808281774
 30
0.0
 11
562.554448763597
 21
265.3888798154998
 31
0.0
  0
LINE
  5
257
330
1A
100
AcDbEntity
  8
ZUWAKU
100
AcDbLine
 10
563.954448763597
 20
266.0339808281774
 30
0.0
 11
563.954448763597
 21
265.3888798154998
 31
0.0
  0
LINE
  5
258
330
1A
100
AcDbEntity
  8
ZUWAKU
100
AcDbLine
 10
558.4157720046859
 20
265.6740044249592
 30
0.0
 11
557.783396132018
 21
263.6714808281774
 31
0.0
  0
LINE
  5
259
330
1A
100
AcDbEntity
  8
ZUWAKU
100
AcDbLine
 10
557.596516232255
 20
267.5130278122609
 30
0.0
 11
556.662381294939
 21
264.5549338440939
 31
0.0
  0
LINE
  5
25A
330
1A
100
AcDbEntity
  8
ZUWAKU
100
AcDbLine
 10
554.679448763597
 20
267.4339808281774
 30
0.0
 11
554.679448763597
 21
259.9089808281774
 31
0.0
  0
LINE
  5
25B
330
1A
100
AcDbEntity
  8
ZUWAKU
100
AcDbLine
 10
556.079448763597
 20
264.6339808281774
 30
0.0
 11
556.079448763597
 21
267.4339808281774
 31
0.0
  0
LINE
  5
25C
330
1A
100
AcDbEntity
  8
ZUWAKU
100
AcDbLine
 10
568.679448763597
 20
261.5714808281774
 30
0.0
 11
568.679448763597
 21
267.4339808281774
 31
0.0
  0
LINE
  5
25D
330
1A
100
AcDbEntity
  8
ZUWAKU
100
AcDbLine
 10
567.2794487635969
 20
267.4339808281774
 30
0.0
 11
567.2794487635969
 21
261.0464808281774
 31
0.0
  0
LINE
  5
25E
330
1A
100
AcDbEntity
  8
ZUWAKU
100
AcDbLine
 10
561.5044487635969
 20
259.9089808281774
 30
0.0
 11
561.5044487635969
 21
267.4339808281774
 31
0.0
  0
LINE
  5
25F
330
1A
100
AcDbEntity
  8
ZUWAKU
100
AcDbLine
 10
560.104448763597
 20
267.4339808281774
 30
0.0
 11
560.104448763597
 21
259.9089808281774
 31
0.0
  0
LINE
  5
260
330
1A
100
AcDbEntity
  8
ZUWAKU
100
AcDbLine
 10
550.129448763597
 20
261.7464808281774
 30
0.0
 11
550.129448763597
 21
265.5964808281774
 31
0.0
  0
LINE
  5
261
330
1A
100
AcDbEntity
  8
ZUWAKU
100
AcDbLine
 10
551.5294487635969
 20
265.5964808281774
 30
0.0
 11
551.5294487635969
 21
261.7464808281774
 31
0.0
  0
LINE
  5
262
330
1A
100
AcDbEntity
  8
ZUWAKU
100
AcDbLine
 10
545.4044487635969
 20
266.2964808281774
 30
0.0
 11
545.4044487635969
 21
265.3888798154998
 31
0.0
  0
LINE
  5
263
330
1A
100
AcDbEntity
  8
ZUWAKU
100
AcDbLine
 10
546.804448763597
 20
266.0339808281774
 30
0.0
 11
546.804448763597
 21
265.3888798154998
 31
0.0
  0
HATCH
  5
264
330
1A
100
AcDbEntity
  8
ZUWAKU
100
AcDbHatch
 10
0.0
 20
0.0
 30
0.0
210
0.0
220
0.0
230
1.0
  2
ANSI37
 70
     0
 71
     0
 91
        8
 92
        7
 72
     1
 73
     1
 93
       24
 10
547.0094740167663
 20
264.8939050686692
 42
-0.1989123673796348
 10
546.804448763597
 20
265.3888798154997
 42
0.0
 10
546.804448763597
 20
266.0339808281774
 42
-0.4142135623730912
 10
547.0669487635969
 20
266.2964808281774
 42
0.0
 10
548.5544487635969
 20
266.2964808281774
 42
0.4142135623731546
 10
548.8169487635969
 20
266.5589808281774
 42
0.0
 10
548.8169487635969
 20
267.4339808281774
 42
0.4142135623731586
 10
548.5544487635969
 20
267.6964808281774
 42
0.0
 10
546.804448763597
 20
267.6964808281774
 42
0.4142135623730928
 10
545.4044487635969
 20
266.2964808281774
 42
0.0
 10
545.4044487635969
 20
265.3888798154998
 42
0.1989123673796619
 10
546.0195245231052
 20
263.903955575008
 42
0.0
 10
547.4744235104276
 20
262.4490565876857
 42
-0.1989123673796613
 10
547.679448763597
 20
261.954081840855
 42
0.0
 10
547.679448763597
 20
261.3089808281774
 42
-0.4142135623730911
 10
547.416948763597
 20
261.0464808281774
 42
0.0
 10
545.929448763597
 20
261.0464808281774
 42
0.4142135623731526
 10
545.666948763597
 20
260.7839808281775
 42
0.0
 10
545.666948763597
 20
259.9089808281774
 42
0.4142135623731526
 10
545.929448763597
 20
259.6464808281774
 42
0.0
 10
547.679448763597
 20
259.6464808281774
 42
0.4142135623731045
 10
549.079448763597
 20
261.0464808281774
 42
0.0
 10
549.079448763597
 20
261.954081840855
 42
0.1989123673796604
 10
548.4643730040887
 20
263.4390060813468
 42
0.0
 97
        0
 92
        7
 72
     1
 73
     1
 93
       16
 10
551.5294487635969
 20
265.5964808281774
 42
-0.4142135623730935
 10
552.229448763597
 20
266.2964808281774
 42
0.0
 10
553.191948763597
 20
266.2964808281774
 42
0.4142135623731546
 10
553.454448763597
 20
266.5589808281774
 42
0.0
 10
553.454448763597
 20
267.4339808281774
 42
0.4142135623730951
 10
553.191948763597
 20
267.6964808281774
 42
0.0
 10
552.229448763597
 20
267.6964808281774
 42
0.4142135623730893
 10
550.129448763597
 20
265.5964808281774
 42
0.0
 10
550.129448763597
 20
261.7464808281774
 42
0.4142135623730969
 10
552.229448763597
 20
259.6464808281774
 42
0.0
 10
553.191948763597
 20
259.6464808281774
 42
0.4142135623731526
 10
553.454448763597
 20
259.9089808281774
 42
0.0
 10
553.454448763597
 20
260.7839808281775
 42
0.4142135623730891
 10
553.191948763597
 20
261.0464808281774
 42
0.0
 10
552.229448763597
 20
261.0464808281774
 42
-0.4142135623730928
 10
551.5294487635969
 20
261.7464808281774
 42
0.0
 97
        0
 92
        7
 72
     1
 73
     1
 93
        2
 10
551.879448763597
 20
263.6714808281774
 42
1.0
 10
553.6294487635969
 20
263.6714808281774
 42
1.0
 97
        0
 92
        7
 72
     1
 73
     1
 93
       26
 10
558.4157720046859
 20
265.6740044249592
 42
0.0
 10
558.946591821255
 20
267.3549338440939
 42
0.5069206636600134
 10
558.6962763716571
 20
267.6964808281774
 42
0.0
 10
557.8468316818526
 20
267.6964808281774
 42
0.3272098845218764
 10
557.596516232255
 20
267.5130278122609
 42
0.0
 10
556.662381294939
 20
264.554933844094
 42
-0.3272098845219541
 10
556.4120658453413
 20
264.3714808281774
 42
0.0
 10
556.3419487635971
 20
264.3714808281774
 42
-0.4142135623731526
 10
556.079448763597
 20
264.6339808281774
 42
0.0
 10
556.079448763597
 20
267.4339808281774
 42
0.4142135623730951
 10
555.8169487635971
 20
267.6964808281774
 42
0.0
 10
554.941948763597
 20
267.6964808281774
 42
0.4142135623730871
 10
554.679448763597
 20
267.4339808281774
 42
0.0
 10
554.679448763597
 20
259.9089808281774
 42
0.4142135623730891
 10
554.941948763597
 20
259.6464808281774
 42
0.0
 10
555.816948763597
 20
259.6464808281774
 42
0.4142135623731526
 10
556.079448763597
 20
259.9089808281774
 42
0.0
 10
556.079448763597
 20
262.7089808281774
 42
-0.4142135623731526
 10
556.3419487635971
 20
262.9714808281774
 42
0.0
 10
556.4120658453414
 20
262.9714808281774
 42
-0.3272098845218915
 10
556.662381294939
 20
262.7880278122609
 42
0.0
 10
557.596516232255
 20
259.829933844094
 42
0.3272098845218902
 10
557.8468316818526
 20
259.6464808281774
 42
0.0
 10
558.6962763716571
 20
259.6464808281774
 42
0.5069206636600336
 10
558.946591821255
 20
259.9880278122609
 42
0.0
 10
557.783396132018
 20
263.6714808281775
 42
0.0
 97
        0
 92
        7
 72
     1
 73
     1
 93
        8
 10
561.5044487635969
 20
267.4339808281774
 42
0.4142135623731546
 10
561.2419487635969
 20
267.6964808281774
 42
0.0
 10
560.366948763597
 20
267.6964808281774
 42
0.4142135623731507
 10
560.104448763597
 20
267.4339808281774
 42
0.0
 10
560.104448763597
 20
259.9089808281774
 42
0.4142135623731526
 10
560.366948763597
 20
259.6464808281774
 42
0.0
 10
561.2419487635969
 20
259.6464808281774
 42
0.4142135623731526
 10
561.5044487635969
 20
259.9089808281774
 42
0.0
 97
        0
 92
        7
 72
     1
 73
     1
 93
       24
 10
563.954448763597
 20
266.0339808281774
 42
-0.4142135623731546
 10
564.216948763597
 20
266.2964808281774
 42
0.0
 10
565.704448763597
 20
266.2964808281774
 42
0.4142135623730911
 10
565.9669487635969
 20
266.5589808281774
 42
0.0
 10
565.9669487635969
 20
267.4339808281774
 42
0.4142135623730952
 10
565.704448763597
 20
267.6964808281774
 42
0.0
 10
563.954448763597
 20
267.6964808281774
 42
0.4142135623731048
 10
562.554448763597
 20
266.2964808281774
 42
0.0
 10
562.554448763597
 20
265.3888798154998
 42
0.1989123673796613
 10
563.1695245231053
 20
263.903955575008
 42
0.0
 10
564.6244235104275
 20
262.4490565876857
 42
-0.1989123673796402
 10
564.829448763597
 20
261.9540818408552
 42
0.0
 10
564.829448763597
 20
261.3089808281774
 42
-0.4142135623730911
 10
564.5669487635971
 20
261.0464808281774
 42
0.0
 10
563.079448763597
 20
261.0464808281774
 42
0.4142135623731526
 10
562.816948763597
 20
260.7839808281775
 42
0.0
 10
562.816948763597
 20
259.9089808281774
 42
0.4142135623730891
 10
563.0794487635969
 20
259.6464808281774
 42
0.0
 10
564.829448763597
 20
259.6464808281774
 42
0.4142135623730925
 10
566.2294487635969
 20
261.0464808281774
 42
0.0
 10
566.2294487635969
 20
261.954081840855
 42
0.1989123673796675
 10
565.6143730040887
 20
263.4390060813469
 42
0.0
 10
564.1594740167664
 20
264.8939050686692
 42
-0.1989123673796652
 10
563.954448763597
 20
265.3888798154997
 42
0.0
 97
        0
 92
        7
 72
     1
 73
     1
 93
       16
 10
568.679448763597
 20
267.4339808281774
 42
0.414213562373103
 10
568.416948763597
 20
267.6964808281774
 42
0.0
 10
567.541948763597
 20
267.6964808281774
 42
0.4142135623730871
 10
567.2794487635969
 20
267.4339808281774
 42
0.0
 10
567.2794487635969
 20
261.0464808281774
 42
0.4142135623730927
 10
568.679448763597
 20
259.6464808281774
 42
0.0
 10
570.429448763597
 20
259.6464808281774
 42
0.4142135623731045
 10
571.829448763597
 20
261.0464808281774
 42
0.0
 10
571.829448763597
 20
267.4339808281774
 42
0.4142135623730951
 10
571.566948763597
 20
267.6964808281774
 42
0.0
 10
570.6919487635969
 20
267.6964808281774
 42
0.4142135623730871
 10
570.429448763597
 20
267.4339808281774
 42
0.0
 10
570.429448763597
 20
261.5714808281774
 42
-0.4142135623730879
 10
569.9044487635969
 20
261.0464808281774
 42
0.0
 10
569.204448763597
 20
261.0464808281774
 42
-0.4142135623731197
 10
568.679448763597
 20
261.5714808281774
 42
0.0
 97
        0
 92
        7
 72
     1
 73
     1
 93
        8
 10
574.2794487635969
 20
267.4339808281774
 42
0.4142135623730871
 10
574.016948763597
 20
267.6964808281774
 42
0.0
 10
573.141948763597
 20
267.6964808281774
 42
0.4142135623731507
 10
572.879448763597
 20
267.4339808281774
 42
0.0
 10
572.879448763597
 20
259.9089808281774
 42
0.4142135623730891
 10
573.1419487635969
 20
259.6464808281774
 42
0.0
 10
574.016948763597
 20
259.6464808281774
 42
0.4142135623730891
 10
574.2794487635969
 20
259.9089808281774
 42
0.0
 97
        0
 75
     0
 76
     1
 52
0.0
 41
0.1
 77
     0
 78
     2
 53
45.0
 43
89.28719051886691
 44
249.4714808281774
 45
-0.2245064030267288
 46
0.2245064030267288
 79
     0
 53
135.0
 43
89.28719051886691
 44
249.4714808281774
 45
-0.2245064030267288
 46
-0.2245064030267288
 79
     0
 47
0.057451373970553
 98
        8
 10
547.7982701677181
 20
263.6550676511202
 10
550.960600189426
 20
265.4935119194029
 10
552.3405266290362
 20
263.8274216512128
 10
555.2153726770249
 20
264.1721296513982
 10
560.6775786956847
 20
264.401935785169
 10
563.2074431337712
 20
265.780768986381
 10
568.0371856724065
 20
265.4360597857249
 10
573.6718824960178
 20
265.6658659194957
  0
CIRCLE
  5
266
330
1A
100
AcDbEntity
  8
ZUWAKU
100
AcDbCircle
 10
552.754448763597
 20
263.6714808281774
 30
0.0
 40
0.875
  0
LINE
  5
267
330
1A
100
AcDbEntity
  8
ZUWAKU
100
AcDbLine
 10
553.191948763597
 20
259.6464808281774
 30
0.0
 11
552.229448763597
 21
259.6464808281774
 31
0.0
  0
LINE
  5
268
330
1A
100
AcDbEntity
  8
ZUWAKU
100
AcDbLine
 10
552.229448763597
 20
261.0464808281774
 30
0.0
 11
553.191948763597
 21
261.0464808281774
 31
0.0
  0
ARC
  5
269
330
1A
100
AcDbEntity
  8
ZUWAKU
100
AcDbCircle
 10
552.229448763597
 20
261.7464808281774
 30
0.0
 40
2.099999999999999
100
AcDbArc
 50
180.0
 51
270.0
  0
ARC
  5
26A
330
1A
100
AcDbEntity
  8
ZUWAKU
100
AcDbCircle
 10
547.679448763597
 20
261.0464808281774
 30
0.0
 40
1.399999999999999
100
AcDbArc
 50
270.0
 51
0.0
  0
ARC
  5
26B
330
1A
100
AcDbEntity
  8
ZUWAKU
100
AcDbCircle
 10
552.229448763597
 20
261.7464808281774
 30
0.0
 40
0.6999999999999995
100
AcDbArc
 50
180.0
 51
270.0
  0
LINE
  5
26C
330
1A
100
AcDbEntity
  8
ZUWAKU
100
AcDbLine
 10
549.079448763597
 20
261.0464808281774
 30
0.0
 11
549.079448763597
 21
261.9540818408551
 31
0.0
  0
ARC
  5
26D
330
1A
100
AcDbEntity
  8
ZUWAKU
100
AcDbCircle
 10
547.504448763597
 20
265.3888798154998
 30
0.0
 40
2.099999999999999
100
AcDbArc
 50
180.0
 51
224.9999999999996
  0
ARC
  5
26E
330
1A
100
AcDbEntity
  8
ZUWAKU
100
AcDbCircle
 10
547.504448763597
 20
265.3888798154998
 30
0.0
 40
0.6999999999999995
100
AcDbArc
 50
180.0000000000016
 51
224.9999999999994
  0
LINE
  5
26F
330
1A
100
AcDbEntity
  8
ZUWAKU
100
AcDbLine
 10
546.0195245231052
 20
263.903955575008
 30
0.0
 11
547.4744235104276
 21
262.4490565876857
 31
0.0
  0
LINE
  5
270
330
1A
100
AcDbEntity
  8
ZUWAKU
100
AcDbLine
 10
545.929448763597
 20
261.0464808281774
 30
0.0
 11
547.416948763597
 21
261.0464808281774
 31
0.0
  0
LINE
  5
271
330
1A
100
AcDbEntity
  8
ZUWAKU
100
AcDbLine
 10
545.929448763597
 20
259.6464808281774
 30
0.0
 11
547.679448763597
 21
259.6464808281774
 31
0.0
  0
ARC
  5
272
330
1A
100
AcDbEntity
  8
ZUWAKU
100
AcDbCircle
 10
545.929448763597
 20
260.7839808281774
 30
0.0
 40
0.2625
100
AcDbArc
 50
90.0
 51
180.0
  0
ARC
  5
273
330
1A
100
AcDbEntity
  8
ZUWAKU
100
AcDbCircle
 10
545.929448763597
 20
259.9089808281774
 30
0.0
 40
0.2625
100
AcDbArc
 50
180.0
 51
270.0
  0
LINE
  5
274
330
1A
100
AcDbEntity
  8
ZUWAKU
100
AcDbLine
 10
545.666948763597
 20
259.9089808281774
 30
0.0
 11
545.666948763597
 21
260.7839808281774
 31
0.0
  0
ARC
  5
275
330
1A
100
AcDbEntity
  8
ZUWAKU
100
AcDbCircle
 10
546.979448763597
 20
261.9540818408551
 30
0.0
 40
0.6999999999999995
100
AcDbArc
 50
0.0
 51
44.99999999999956
  0
ARC
  5
276
330
1A
100
AcDbEntity
  8
ZUWAKU
100
AcDbCircle
 10
547.416948763597
 20
261.3089808281774
 30
0.0
 40
0.2625
100
AcDbArc
 50
270.0
 51
0.0
  0
LINE
  5
277
330
1A
100
AcDbEntity
  8
ZUWAKU
100
AcDbLine
 10
547.679448763597
 20
261.3089808281774
 30
0.0
 11
547.679448763597
 21
261.9540818408551
 31
0.0
  0
LINE
  5
278
330
1A
100
AcDbEntity
  8
ZUWAKU
100
AcDbLine
 10
548.4643730040887
 20
263.4390060813468
 30
0.0
 11
547.0094740167665
 21
264.8939050686692
 31
0.0
  0
ARC
  5
279
330
1A
100
AcDbEntity
  8
ZUWAKU
100
AcDbCircle
 10
546.979448763597
 20
261.954081840855
 30
0.0
 40
2.099999999999999
100
AcDbArc
 50
0.0
 51
44.99999999999956
  0
ARC
  5
27A
330
1A
100
AcDbEntity
  8
ZUWAKU
100
AcDbCircle
 10
569.204448763597
 20
261.5714808281774
 30
0.0
 40
0.5249999999999995
100
AcDbArc
 50
180.0
 51
270.0
  0
LINE
  5
27B
330
1A
100
AcDbEntity
  8
ZUWAKU
100
AcDbLine
 10
568.679448763597
 20
259.6464808281774
 30
0.0
 11
570.429448763597
 21
259.6464808281774
 31
0.0
  0
ARC
  5
27C
330
1A
100
AcDbEntity
  8
ZUWAKU
100
AcDbCircle
 10
568.679448763597
 20
261.0464808281774
 30
0.0
 40
1.399999999999999
100
AcDbArc
 50
180.0
 51
270.0
  0
ARC
  5
27D
330
1A
100
AcDbEntity
  8
ZUWAKU
100
AcDbCircle
 10
564.829448763597
 20
261.0464808281774
 30
0.0
 40
1.399999999999999
100
AcDbArc
 50
270.0
 51
0.0
  0
LINE
  5
27E
330
1A
100
AcDbEntity
  8
ZUWAKU
100
AcDbLine
 10
560.366948763597
 20
259.6464808281774
 30
0.0
 11
561.241948763597
 21
259.6464808281774
 31
0.0
  0
ARC
  5
27F
330
1A
100
AcDbEntity
  8
ZUWAKU
100
AcDbCircle
 10
557.8468316818526
 20
259.9089808281774
 30
0.0
 40
0.2625
100
AcDbArc
 50
197.5255683737226
 51
270.0
  0
LINE
  5
280
330
1A
100
AcDbEntity
  8
ZUWAKU
100
AcDbLine
 10
558.946591821255
 20
259.9880278122609
 30
0.0
 11
557.783396132018
 21
263.6714808281774
 31
0.0
  0
ARC
  5
281
330
1A
100
AcDbEntity
  8
ZUWAKU
100
AcDbCircle
 10
558.6962763716571
 20
259.9089808281774
 30
0.0
 40
0.2625
100
AcDbArc
 50
270.0
 51
17.52556837372265
  0
LINE
  5
282
330
1A
100
AcDbEntity
  8
ZUWAKU
100
AcDbLine
 10
557.8468316818526
 20
259.6464808281774
 30
0.0
 11
558.6962763716571
 21
259.6464808281774
 31
0.0
  0
ARC
  5
283
330
1A
100
AcDbEntity
  8
ZUWAKU
100
AcDbCircle
 10
560.366948763597
 20
259.9089808281774
 30
0.0
 40
0.2625
100
AcDbArc
 50
180.0
 51
270.0
  0
ARC
  5
284
330
1A
100
AcDbEntity
  8
ZUWAKU
100
AcDbCircle
 10
556.3419487635969
 20
262.7089808281774
 30
0.0
 40
0.2625
100
AcDbArc
 50
90.0
 51
180.0
  0
ARC
  5
285
330
1A
100
AcDbEntity
  8
ZUWAKU
100
AcDbCircle
 10
556.4120658453414
 20
262.7089808281774
 30
0.0
 40
0.2625
100
AcDbArc
 50
17.52556837372265
 51
90.0
  0
ARC
  5
286
330
1A
100
AcDbEntity
  8
ZUWAKU
100
AcDbCircle
 10
554.941948763597
 20
259.9089808281774
 30
0.0
 40
0.2625
100
AcDbArc
 50
180.0
 51
270.0
  0
ARC
  5
287
330
1A
100
AcDbEntity
  8
ZUWAKU
100
AcDbCircle
 10
553.191948763597
 20
260.7839808281774
 30
0.0
 40
0.2625
100
AcDbArc
 50
0.0
 51
90.0
  0
ARC
  5
288
330
1A
100
AcDbEntity
  8
ZUWAKU
100
AcDbCircle
 10
553.191948763597
 20
259.9089808281774
 30
0.0
 40
0.2625
100
AcDbArc
 50
270.0
 51
0.0
  0
LINE
  5
289
330
1A
100
AcDbEntity
  8
ZUWAKU
100
AcDbLine
 10
553.454448763597
 20
260.7839808281774
 30
0.0
 11
553.454448763597
 21
259.9089808281774
 31
0.0
  0
LINE
  5
28A
330
1A
100
AcDbEntity
  8
ZUWAKU
100
AcDbLine
 10
556.079448763597
 20
259.9089808281774
 30
0.0
 11
556.079448763597
 21
262.7089808281774
 31
0.0
  0
ARC
  5
28B
330
1A
100
AcDbEntity
  8
ZUWAKU
100
AcDbCircle
 10
555.816948763597
 20
259.9089808281774
 30
0.0
 40
0.2625
100
AcDbArc
 50
270.0
 51
0.0
  0
LINE
  5
28C
330
1A
100
AcDbEntity
  8
ZUWAKU
100
AcDbLine
 10
554.941948763597
 20
259.6464808281774
 30
0.0
 11
555.816948763597
 21
259.6464808281774
 31
0.0
  0
ARC
  5
28D
330
1A
100
AcDbEntity
  8
ZUWAKU
100
AcDbCircle
 10
556.3419487635969
 20
264.6339808281774
 30
0.0
 40
0.2625
100
AcDbArc
 50
180.0
 51
270.0
  0
LINE
  5
28E
330
1A
100
AcDbEntity
  8
ZUWAKU
100
AcDbLine
 10
556.3419487635969
 20
262.9714808281774
 30
0.0
 11
556.4120658453414
 21
262.9714808281774
 31
0.0
  0
LINE
  5
28F
330
1A
100
AcDbEntity
  8
ZUWAKU
100
AcDbLine
 10
556.4120658453414
 20
264.3714808281774
 30
0.0
 11
556.3419487635969
 21
264.3714808281774
 31
0.0
  0
ARC
  5
290
330
1A
100
AcDbEntity
  8
ZUWAKU
100
AcDbCircle
 10
556.4120658453414
 20
264.6339808281774
 30
0.0
 40
0.2625
100
AcDbArc
 50
270.0
 51
342.4744316262774
  0
LINE
  5
291
330
1A
100
AcDbEntity
  8
ZUWAKU
100
AcDbLine
 10
557.596516232255
 20
259.829933844094
 30
0.0
 11
556.662381294939
 21
262.7880278122609
 31
0.0
  0
ARC
  5
292
330
1A
100
AcDbEntity
  8
ZUWAKU
100
AcDbCircle
 10
564.129448763597
 20
261.954081840855
 30
0.0
 40
2.099999999999999
100
AcDbArc
 50
0.0
 51
44.99999999999956
  0
LINE
  5
293
330
1A
100
AcDbEntity
  8
ZUWAKU
100
AcDbLine
 10
566.2294487635969
 20
261.0464808281774
 30
0.0
 11
566.2294487635969
 21
261.9540818408551
 31
0.0
  0
ARC
  5
294
330
1A
100
AcDbEntity
  8
ZUWAKU
100
AcDbCircle
 10
564.654448763597
 20
265.3888798154998
 30
0.0
 40
2.099999999999999
100
AcDbArc
 50
180.0
 51
224.9999999999996
  0
ARC
  5
295
330
1A
100
AcDbEntity
  8
ZUWAKU
100
AcDbCircle
 10
564.654448763597
 20
265.3888798154998
 30
0.0
 40
0.6999999999999995
100
AcDbArc
 50
180.0000000000016
 51
224.9999999999994
  0
LINE
  5
296
330
1A
100
AcDbEntity
  8
ZUWAKU
100
AcDbLine
 10
563.1695245231053
 20
263.903955575008
 30
0.0
 11
564.6244235104275
 21
262.4490565876857
 31
0.0
  0
LINE
  5
297
330
1A
100
AcDbEntity
  8
ZUWAKU
100
AcDbLine
 10
563.079448763597
 20
259.6464808281774
 30
0.0
 11
564.829448763597
 21
259.6464808281774
 31
0.0
  0
LINE
  5
298
330
1A
100
AcDbEntity
  8
ZUWAKU
100
AcDbLine
 10
563.079448763597
 20
261.0464808281774
 30
0.0
 11
564.5669487635969
 21
261.0464808281774
 31
0.0
  0
ARC
  5
299
330
1A
100
AcDbEntity
  8
ZUWAKU
100
AcDbCircle
 10
563.079448763597
 20
260.7839808281774
 30
0.0
 40
0.2625
100
AcDbArc
 50
90.0
 51
180.0
  0
ARC
  5
29A
330
1A
100
AcDbEntity
  8
ZUWAKU
100
AcDbCircle
 10
561.241948763597
 20
259.9089808281774
 30
0.0
 40
0.2625
100
AcDbArc
 50
270.0
 51
0.0
  0
ARC
  5
29B
330
1A
100
AcDbEntity
  8
ZUWAKU
100
AcDbCircle
 10
563.079448763597
 20
259.9089808281774
 30
0.0
 40
0.2625
100
AcDbArc
 50
180.0
 51
270.0
  0
LINE
  5
29C
330
1A
100
AcDbEntity
  8
ZUWAKU
100
AcDbLine
 10
562.816948763597
 20
259.9089808281774
 30
0.0
 11
562.816948763597
 21
260.7839808281774
 31
0.0
  0
ARC
  5
29D
330
1A
100
AcDbEntity
  8
ZUWAKU
100
AcDbCircle
 10
564.5669487635969
 20
261.3089808281774
 30
0.0
 40
0.2625
100
AcDbArc
 50
270.0
 51
0.0
  0
ARC
  5
29E
330
1A
100
AcDbEntity
  8
ZUWAKU
100
AcDbCircle
 10
564.129448763597
 20
261.9540818408551
 30
0.0
 40
0.6999999999999995
100
AcDbArc
 50
0.0
 51
44.99999999999956
  0
LINE
  5
29F
330
1A
100
AcDbEntity
  8
ZUWAKU
100
AcDbLine
 10
564.829448763597
 20
261.3089808281774
 30
0.0
 11
564.829448763597
 21
261.9540818408551
 31
0.0
  0
LINE
  5
2A0
330
1A
100
AcDbEntity
  8
ZUWAKU
100
AcDbLine
 10
565.6143730040887
 20
263.4390060813468
 30
0.0
 11
564.1594740167663
 21
264.8939050686692
 31
0.0
  0
ARC
  5
2A1
330
1A
100
AcDbEntity
  8
ZUWAKU
100
AcDbCircle
 10
570.429448763597
 20
261.0464808281774
 30
0.0
 40
1.399999999999999
100
AcDbArc
 50
270.0
 51
0.0
  0
ARC
  5
2A2
330
1A
100
AcDbEntity
  8
ZUWAKU
100
AcDbCircle
 10
574.016948763597
 20
259.9089808281774
 30
0.0
 40
0.2625
100
AcDbArc
 50
270.0
 51
0.0
  0
ARC
  5
2A3
330
1A
100
AcDbEntity
  8
ZUWAKU
100
AcDbCircle
 10
569.9044487635969
 20
261.5714808281774
 30
0.0
 40
0.5249999999999995
100
AcDbArc
 50
270.0
 51
0.0
  0
ARC
  5
2A4
330
1A
100
AcDbEntity
  8
ZUWAKU
100
AcDbCircle
 10
573.141948763597
 20
259.9089808281774
 30
0.0
 40
0.2625
100
AcDbArc
 50
180.0
 51
270.0
  0
LINE
  5
2A5
330
1A
100
AcDbEntity
  8
ZUWAKU
100
AcDbLine
 10
573.141948763597
 20
259.6464808281774
 30
0.0
 11
574.016948763597
 21
259.6464808281774
 31
0.0
  0
LINE
  5
2A6
330
1A
100
AcDbEntity
  8
ZUWAKU
100
AcDbLine
 10
569.9044487635969
 20
261.0464808281774
 30
0.0
 11
569.204448763597
 21
261.0464808281774
 31
0.0
  0
TEXT
  5
2A7
330
1A
100
AcDbEntity
  8
MOJI
100
AcDbText
 10
585.4445294564469
 20
263.6377811465375
 30
0.0
 40
3.0
  1
ﾕﾆｼｪｲﾌﾟ
 41
0.9
  7
ｽﾀｲﾙ1
100
AcDbText
  0
LINE
  5
2A8
330
1A
100
AcDbEntity
  8
ZUWAKU
100
AcDbLine
 10
553.191948763597
 20
266.2964808281774
 30
0.0
 11
552.229448763597
 21
266.2964808281774
 31
0.0
  0
LINE
  5
2A9
330
1A
100
AcDbEntity
  8
ZUWAKU
100
AcDbLine
 10
552.229448763597
 20
267.6964808281774
 30
0.0
 11
553.191948763597
 21
267.6964808281774
 31
0.0
  0
LINE
  5
2AA
330
1A
100
AcDbEntity
  8
ZUWAKU
100
AcDbLine
 10
546.804448763597
 20
267.6964808281774
 30
0.0
 11
548.554448763597
 21
267.6964808281774
 31
0.0
  0
ARC
  5
2AB
330
1A
100
AcDbEntity
  8
ZUWAKU
100
AcDbCircle
 10
548.554448763597
 20
267.4339808281774
 30
0.0
 40
0.2625
100
AcDbArc
 50
0.0
 51
90.0
  0
ARC
  5
2AC
330
1A
100
AcDbEntity
  8
ZUWAKU
100
AcDbCircle
 10
552.229448763597
 20
265.5964808281774
 30
0.0
 40
0.6999999999999995
100
AcDbArc
 50
90.0
 51
180.0
  0
LINE
  5
2AD
330
1A
100
AcDbEntity
  8
ZUWAKU
100
AcDbLine
 10
548.554448763597
 20
266.2964808281774
 30
0.0
 11
547.0669487635969
 21
266.2964808281774
 31
0.0
  0
ARC
  5
2AE
330
1A
100
AcDbEntity
  8
ZUWAKU
100
AcDbCircle
 10
547.0669487635969
 20
266.0339808281774
 30
0.0
 40
0.2625
100
AcDbArc
 50
90.0
 51
180.0
  0
ARC
  5
2AF
330
1A
100
AcDbEntity
  8
ZUWAKU
100
AcDbCircle
 10
548.554448763597
 20
266.5589808281774
 30
0.0
 40
0.2625
100
AcDbArc
 50
270.0
 51
0.0
  0
ARC
  5
2B0
330
1A
100
AcDbEntity
  8
ZUWAKU
100
AcDbCircle
 10
546.804448763597
 20
266.2964808281774
 30
0.0
 40
1.399999999999999
100
AcDbArc
 50
90.0
 51
180.0
  0
ARC
  5
2B1
330
1A
100
AcDbEntity
  8
ZUWAKU
100
AcDbCircle
 10
552.229448763597
 20
265.5964808281774
 30
0.0
 40
2.099999999999999
100
AcDbArc
 50
90.0
 51
180.0
  0
LINE
  5
2B2
330
1A
100
AcDbEntity
  8
ZUWAKU
100
AcDbLine
 10
548.8169487635969
 20
267.4339808281774
 30
0.0
 11
548.8169487635969
 21
266.5589808281774
 31
0.0
  0
LINE
  5
2B3
330
1A
100
AcDbEntity
  8
ZUWAKU
100
AcDbLine
 10
561.241948763597
 20
267.6964808281774
 30
0.0
 11
560.366948763597
 21
267.6964808281774
 31
0.0
  0
ARC
  5
2B4
330
1A
100
AcDbEntity
  8
ZUWAKU
100
AcDbCircle
 10
557.8468316818526
 20
267.4339808281774
 30
0.0
 40
0.2625
100
AcDbArc
 50
90.0
 51
162.4744316262773
  0
ARC
  5
2B5
330
1A
100
AcDbEntity
  8
ZUWAKU
100
AcDbCircle
 10
558.6962763716571
 20
267.4339808281774
 30
0.0
 40
0.2625
100
AcDbArc
 50
342.4744316262774
 51
90.0
  0
LINE
  5
2B6
330
1A
100
AcDbEntity
  8
ZUWAKU
100
AcDbLine
 10
557.8468316818526
 20
267.6964808281774
 30
0.0
 11
558.6962763716571
 21
267.6964808281774
 31
0.0
  0
ARC
  5
2B7
330
1A
100
AcDbEntity
  8
ZUWAKU
100
AcDbCircle
 10
560.366948763597
 20
267.4339808281774
 30
0.0
 40
0.2625
100
AcDbArc
 50
90.0
 51
180.0
  0
ARC
  5
2B8
330
1A
100
AcDbEntity
  8
ZUWAKU
100
AcDbCircle
 10
554.941948763597
 20
267.4339808281774
 30
0.0
 40
0.2625
100
AcDbArc
 50
90.0
 51
180.0
  0
ARC
  5
2B9
330
1A
100
AcDbEntity
  8
ZUWAKU
100
AcDbCircle
 10
553.191948763597
 20
267.4339808281774
 30
0.0
 40
0.2625
100
AcDbArc
 50
0.0
 51
90.0
  0
LINE
  5
2BA
330
1A
100
AcDbEntity
  8
ZUWAKU
100
AcDbLine
 10
555.816948763597
 20
267.6964808281774
 30
0.0
 11
554.941948763597
 21
267.6964808281774
 31
0.0
  0
ARC
  5
2BB
330
1A
100
AcDbEntity
  8
ZUWAKU
100
AcDbCircle
 10
555.816948763597
 20
267.4339808281774
 30
0.0
 40
0.2625
100
AcDbArc
 50
0.0
 51
90.0
  0
ARC
  5
2BC
330
1A
100
AcDbEntity
  8
ZUWAKU
100
AcDbCircle
 10
553.191948763597
 20
266.5589808281774
 30
0.0
 40
0.2625
100
AcDbArc
 50
270.0
 51
0.0
  0
LINE
  5
2BD
330
1A
100
AcDbEntity
  8
ZUWAKU
100
AcDbLine
 10
553.454448763597
 20
267.4339808281774
 30
0.0
 11
553.454448763597
 21
266.5589808281774
 31
0.0
  0
LINE
  5
2BE
330
1A
100
AcDbEntity
  8
ZUWAKU
100
AcDbLine
 10
558.946591821255
 20
267.3549338440939
 30
0.0
 11
558.4157720046859
 21
265.6740044249592
 31
0.0
  0
ARC
  5
2BF
330
1A
100
AcDbEntity
  8
ZUWAKU
100
AcDbCircle
 10
565.704448763597
 20
267.4339808281774
 30
0.0
 40
0.2625
100
AcDbArc
 50
0.0
 51
90.0
  0
LINE
  5
2C0
330
1A
100
AcDbEntity
  8
ZUWAKU
100
AcDbLine
 10
568.416948763597
 20
267.6964808281774
 30
0.0
 11
567.541948763597
 21
267.6964808281774
 31
0.0
  0
ARC
  5
2C1
330
1A
100
AcDbEntity
  8
ZUWAKU
100
AcDbCircle
 10
567.541948763597
 20
267.4339808281774
 30
0.0
 40
0.2625
100
AcDbArc
 50
90.0
 51
180.0
  0
ARC
  5
2C2
330
1A
100
AcDbEntity
  8
ZUWAKU
100
AcDbCircle
 10
568.416948763597
 20
267.4339808281774
 30
0.0
 40
0.2625
100
AcDbArc
 50
0.0
 51
90.0
  0
ARC
  5
2C3
330
1A
100
AcDbEntity
  8
ZUWAKU
100
AcDbCircle
 10
561.241948763597
 20
267.4339808281774
 30
0.0
 40
0.2625
100
AcDbArc
 50
0.0
 51
90.0
  0
LINE
  5
2C4
330
1A
100
AcDbEntity
  8
ZUWAKU
100
AcDbLine
 10
563.954448763597
 20
267.6964808281774
 30
0.0
 11
565.704448763597
 21
267.6964808281774
 31
0.0
  0
ARC
  5
2C5
330
1A
100
AcDbEntity
  8
ZUWAKU
100
AcDbCircle
 10
565.704448763597
 20
266.5589808281774
 30
0.0
 40
0.2625
100
AcDbArc
 50
270.0
 51
0.0
  0
ARC
  5
2C6
330
1A
100
AcDbEntity
  8
ZUWAKU
100
AcDbCircle
 10
564.2169487635969
 20
266.0339808281774
 30
0.0
 40
0.2625
100
AcDbArc
 50
90.0
 51
180.0
  0
LINE
  5
2C7
330
1A
100
AcDbEntity
  8
ZUWAKU
100
AcDbLine
 10
565.704448763597
 20
266.2964808281774
 30
0.0
 11
564.2169487635969
 21
266.2964808281774
 31
0.0
  0
ARC
  5
2C8
330
1A
100
AcDbEntity
  8
ZUWAKU
100
AcDbCircle
 10
563.954448763597
 20
266.2964808281774
 30
0.0
 40
1.399999999999999
100
AcDbArc
 50
90.0
 51
180.0
  0
LINE
  5
2C9
330
1A
100
AcDbEntity
  8
ZUWAKU
100
AcDbLine
 10
565.9669487635969
 20
267.4339808281774
 30
0.0
 11
565.9669487635969
 21
266.5589808281774
 31
0.0
  0
ARC
  5
2CA
330
1A
100
AcDbEntity
  8
ZUWAKU
100
AcDbCircle
 10
574.016948763597
 20
267.4339808281774
 30
0.0
 40
0.2625
100
AcDbArc
 50
0.0
 51
90.0
  0
ARC
  5
2CB
330
1A
100
AcDbEntity
  8
ZUWAKU
100
AcDbCircle
 10
570.6919487635969
 20
267.4339808281774
 30
0.0
 40
0.2625
100
AcDbArc
 50
90.0
 51
180.0
  0
LINE
  5
2CC
330
1A
100
AcDbEntity
  8
ZUWAKU
100
AcDbLine
 10
571.5669487635969
 20
267.6964808281774
 30
0.0
 11
570.6919487635969
 21
267.6964808281774
 31
0.0
  0
ARC
  5
2CD
330
1A
100
AcDbEntity
  8
ZUWAKU
100
AcDbCircle
 10
571.5669487635969
 20
267.4339808281774
 30
0.0
 40
0.2625
100
AcDbArc
 50
0.0
 51
90.0
  0
ARC
  5
2CE
330
1A
100
AcDbEntity
  8
ZUWAKU
100
AcDbCircle
 10
573.141948763597
 20
267.4339808281774
 30
0.0
 40
0.2625
100
AcDbArc
 50
90.0
 51
180.0
  0
LINE
  5
2CF
330
1A
100
AcDbEntity
  8
ZUWAKU
100
AcDbLine
 10
574.016948763597
 20
267.6964808281774
 30
0.0
 11
573.141948763597
 21
267.6964808281774
 31
0.0
  0
TEXT
  5
2D0
330
1A
100
AcDbEntity
  8
ZUWAKU
100
AcDbText
 10
644.6203658423451
 20
268.0991590973702
 30
0.0
 40
2.0
  1
品名
 41
0.9
  7
ｽﾀｲﾙ1
100
AcDbText
  0
LINE
  5
2D1
330
1A
100
AcDbEntity
  8
ZUWAKU
100
AcDbLine
 10
763.4705246717021
 20
271.0714808281774
 30
0.0
 11
763.4705246717021
 21
256.4714808281774
 31
0.0
  0
LINE
  5
2D2
330
1A
100
AcDbEntity
  8
ZUWAKU
100
AcDbLine
 10
763.6705246717021
 20
271.0714808281774
 30
0.0
 11
763.6705246717021
 21
256.4714808281774
 31
0.0
  0
LINE
  5
2D3
330
1A
100
AcDbEntity
  8
ZUWAKU
100
AcDbLine
 10
763.570524671702
 20
271.0714808281774
 30
0.0
 11
763.5705246717021
 21
256.4714808281774
 31
0.0
  0
TEXT
  5
2D4
330
1A
100
AcDbEntity
  8
MOJI
100
AcDbText
 10
658.8977401837996
 20
259.1722331828713
 30
0.0
 40
2.799999999999999
  1
URT60
 41
0.9
  7
ｽﾀｲﾙ1
100
AcDbText
  0
TEXT
  5
2D5
330
1A
100
AcDbEntity
  8
MOJI
100
AcDbText
 10
658.6977401837997
 20
266.3722331828713
 30
0.0
 40
2.799999999999999
  1
ｲﾝｻｲﾄﾞのし返しｴﾙﾎﾞ
 41
0.9
  7
ｽﾀｲﾙ1
100
AcDbText
  0
TEXT
  5
2D6
330
1A
100
AcDbEntity
  8
ZUWAKU
100
AcDbText
 10
764.4092471828068
 20
268.0991590973702
 30
0.0
 40
2.0
  1
品番
 41
0.9
  7
ｽﾀｲﾙ1
100
AcDbText
  0
TEXT
  5
2D8
330
1A
100
AcDbEntity
  8
ZUWAKU
100
AcDbText
 10
894.0223847823283
 20
264.8484004960208
 30
0.0
 40
3.0
  1
積水化学工業株式会社
 41
0.9
  7
ｽﾀｲﾙ1
100
AcDbText
  0
LINE
  5
2D9
330
1A
100
AcDbEntity
  8
ZUWAKU
100
AcDbLine
 10
888.6828479604771
 20
271.0714808281774
 30
0.0
 11
888.6828479604771
 21
256.4714808281774
 31
0.0
  0
LINE
  5
2DA
330
1A
100
AcDbEntity
  8
ZUWAKU
100
AcDbLine
 10
888.582847960477
 20
271.0714808281774
 30
0.0
 11
888.5828479604771
 21
256.4714808281774
 31
0.0
  0
LINE
  5
2DB
330
1A
100
AcDbEntity
  8
ZUWAKU
100
AcDbLine
 10
888.482847960477
 20
271.0714808281774
 30
0.0
 11
888.482847960477
 21
256.4714808281774
 31
0.0
  0
LINE
  5
2DC
330
1A
100
AcDbEntity
  8
ZUWAKU
100
AcDbLine
 10
888.3828479604771
 20
271.0714808281774
 30
0.0
 11
888.3828479604771
 21
256.4714808281774
 31
0.0
  0
LINE
  5
2DD
330
1A
100
AcDbEntity
  8
ZUWAKU
100
AcDbLine
 10
863.9669439413086
 20
271.0714808281774
 30
0.0
 11
863.9669439413086
 21
256.4714808281774
 31
0.0
  0
LINE
  5
2DE
330
1A
100
AcDbEntity
  8
ZUWAKU
100
AcDbLine
 10
864.1669439413087
 20
271.0714808281774
 30
0.0
 11
864.1669439413089
 21
256.4714808281774
 31
0.0
  0
LINE
  5
2DF
330
1A
100
AcDbEntity
  8
ZUWAKU
100
AcDbLine
 10
864.0669439413086
 20
271.0714808281774
 30
0.0
 11
864.0669439413088
 21
256.4714808281774
 31
0.0
  0
LINE
  5
2E0
330
1A
100
AcDbEntity
  8
ZUWAKU
100
AcDbLine
 10
816.0218205692626
 20
271.0714808281774
 30
0.0
 11
816.0218205692626
 21
256.4714808281774
 31
0.0
  0
LINE
  5
2E1
330
1A
100
AcDbEntity
  8
ZUWAKU
100
AcDbLine
 10
816.2218205692626
 20
271.0714808281774
 30
0.0
 11
816.2218205692626
 21
256.4714808281774
 31
0.0
  0
LINE
  5
2E2
330
1A
100
AcDbEntity
  8
ZUWAKU
100
AcDbLine
 10
816.1218205692627
 20
271.0714808281774
 30
0.0
 11
816.1218205692627
 21
256.4714808281774
 31
0.0
  0
TEXT
  5
2E3
330
1A
100
AcDbEntity
  8
MOJI
100
AcDbText
 10
803.7787966723628
 20
265.0739413568811
 30
0.0
 40
2.799999999999999
  1
Ａ３
 41
0.9
  7
ｽﾀｲﾙ1
100
AcDbText
  0
LINE
  5
2E4
330
1A
100
AcDbEntity
  8
ZUWAKU
100
AcDbLine
 10
792.1579324352769
 20
271.0714808281774
 30
0.0
 11
792.1579324352769
 21
256.4714808281774
 31
0.0
  0
LINE
  5
2E5
330
1A
100
AcDbEntity
  8
ZUWAKU
100
AcDbLine
 10
792.3579324352768
 20
271.0714808281774
 30
0.0
 11
792.357932435277
 21
256.4714808281774
 31
0.0
  0
LINE
  5
2E6
330
1A
100
AcDbEntity
  8
ZUWAKU
100
AcDbLine
 10
792.2579324352768
 20
271.0714808281774
 30
0.0
 11
792.257932435277
 21
256.4714808281774
 31
0.0
  0
TEXT
  5
2E7
330
1A
100
AcDbEntity
  8
ZUWAKU
100
AcDbText
 10
867.0143806860499
 20
265.0739413568811
 30
0.0
 40
2.799999999999999
  1
　　．　．　　
 41
0.9
  7
ｽﾀｲﾙ1
100
AcDbText
  0
LINE
  5
2E8
330
1A
100
AcDbEntity
  8
ZUWAKU
100
AcDbLine
 10
792.3579324352768
 20
263.8714808281774
 30
0.0
 11
816.0218205692626
 21
263.8714808281774
 31
0.0
  0
LINE
  5
2E9
330
1A
100
AcDbEntity
  8
ZUWAKU
100
AcDbLine
 10
792.3579324352768
 20
263.7714808281774
 30
0.0
 11
816.0218205692626
 21
263.7714808281774
 31
0.0
  0
LINE
  5
2EA
330
1A
100
AcDbEntity
  8
ZUWAKU
100
AcDbLine
 10
792.3579324352768
 20
263.6714808281774
 30
0.0
 11
816.0218205692626
 21
263.6714808281774
 31
0.0
  0
TEXT
  5
2EB
330
1A
100
AcDbEntity
  8
ZUWAKU
100
AcDbText
 10
793.0966549463818
 20
260.8991590973702
 30
0.0
 40
2.0
  1
縮尺
 41
0.9
  7
ｽﾀｲﾙ1
100
AcDbText
  0
TEXT
  5
2EC
330
1A
100
AcDbEntity
  8
MOJI
100
AcDbText
 10
803.7787966723628
 20
257.6739413568811
 30
0.0
 40
2.799999999999999
  1
１/１
 41
0.9
  7
ｽﾀｲﾙ1
100
AcDbText
  0
LINE
  5
2ED
330
1A
100
AcDbEntity
  8
ZUWAKU
100
AcDbLine
 10
864.1669439413085
 20
263.8714808281774
 30
0.0
 11
888.3828479604771
 21
263.8714808281774
 31
0.0
  0
LINE
  5
2EE
330
1A
100
AcDbEntity
  8
ZUWAKU
100
AcDbLine
 10
864.1669439413087
 20
263.7714808281775
 30
0.0
 11
888.3828479604771
 21
263.7714808281774
 31
0.0
  0
LINE
  5
2EF
330
1A
100
AcDbEntity
  8
ZUWAKU
100
AcDbLine
 10
864.1669439413085
 20
263.6714808281774
 30
0.0
 11
888.3828479604771
 21
263.6714808281774
 31
0.0
  0
TEXT
  5
2F0
330
1A
100
AcDbEntity
  8
ZUWAKU
100
AcDbText
 10
793.0966549463817
 20
268.0991590973702
 30
0.0
 40
2.0
  1
用紙
 41
0.9
  7
ｽﾀｲﾙ1
100
AcDbText
  0
TEXT
  5
2F1
330
1A
100
AcDbEntity
  8
ZUWAKU
100
AcDbText
 10
864.9056664524133
 20
268.0991590973702
 30
0.0
 40
2.0
  1
DATE
 41
0.9
  7
ｽﾀｲﾙ1
100
AcDbText
  0
DIMENSION
  5
3B5
330
1A
100
AcDbEntity
  8
製品
  6
DASHED
 48
3.0
100
AcDbDimension
  2
*D3
 10
726.8774719230957
 20
314.542856626686
 30
0.0
 11
790.418488224887
 21
317.042856626686
 31
0.0
 70
    32
 71
     5
 42
127.0820326035825
  3
STANDARD
100
AcDbAlignedDimension
 13
853.9595045266782
 23
438.0255503735812
 33
0.0
 14
726.8774719230957
 24
390.7190861893231
 34
0.0
100
AcDbRotatedDimension
1001
ACAD
1000
DSTYLE
1002
{
1070
    41
1040
3.0
1070
    42
1040
3.0
1070
    43
1040
7.0
1070
    44
1040
1.5
1070
    73
1070
     0
1070
    74
1070
     0
1070
    77
1070
     3
1070
   140
1040
3.0
1070
   141
1040
15.0
1070
   147
1040
1.0
1070
   172
1070
     1
1070
   176
1070
     4
1070
   177
1070
     4
1070
   178
1070
     4
1070
   271
1070
     0
1070
   272
1070
     0
1070
   341
1005
166
1070
   342
1005
166
1002
}
  0
DIMENSION
  5
3B6
330
1A
100
AcDbEntity
  8
寸法
100
AcDbDimension
  2
*D4
 10
758.2140423157029
 20
323.1420684404093
 30
0.0
 11
806.0867734211907
 21
325.6420684404093
 31
0.0
 70
    32
 71
     5
 42
95.74546221097534
  3
STANDARD
100
AcDbAlignedDimension
 13
853.9595045266782
 23
438.0255503735812
 33
0.0
 14
758.2140423157029
 24
381.9451107767568
 34
0.0
100
AcDbRotatedDimension
1001
ACAD
1000
DSTYLE
1002
{
1070
    41
1040
3.0
1070
    42
1040
3.0
1070
    43
1040
7.0
1070
    44
1040
1.5
1070
    73
1070
     0
1070
    74
1070
     0
1070
    77
1070
     3
1070
   140
1040
3.0
1070
   141
1040
15.0
1070
   147
1040
1.0
1070
   172
1070
     1
1070
   176
1070
     4
1070
   177
1070
     4
1070
   178
1070
     4
1070
   271
1070
     0
1070
   272
1070
     0
1070
   341
1005
166
1070
   342
1005
166
1002
}
  0
DIMENSION
  5
3B7
330
1A
100
AcDbEntity
  8
寸法
100
AcDbDimension
  2
*D5
 10
878.8912291621992
 20
335.5913745459759
 30
0.0
 11
876.391229162199
 21
404.3084624597787
 31
0.0
 70
    32
 71
     5
 42
137.4341758276053
  3
STANDARD
100
AcDbAlignedDimension
 13
851.9485772541907
 23
473.0255503735812
 33
0.0
 14
736.5979748705345
 24
335.5913745459759
 34
0.0
 50
90.0
100
AcDbRotatedDimension
1001
ACAD
1000
DSTYLE
1002
{
1070
    41
1040
3.0
1070
    42
1040
3.0
1070
    43
1040
7.0
1070
    44
1040
1.5
1070
    73
1070
     0
1070
    74
1070
     0
1070
    77
1070
     3
1070
   140
1040
3.0
1070
   141
1040
15.0
1070
   147
1040
1.0
1070
   172
1070
     1
1070
   176
1070
     4
1070
   177
1070
     4
1070
   178
1070
     4
1070
   271
1070
     0
1070
   272
1070
     0
1070
   341
1005
166
1070
   342
1005
166
1002
}
  0
DIMENSION
  5
3B8
330
1A
100
AcDbEntity
  8
寸法
100
AcDbDimension
  2
*D6
 10
823.9595045266781
 20
388.7456669025784
 30
0.0
 11
841.6646576401237
 21
400.5165984202148
 31
0.0
 70
    34
 71
     5
 42
1.396263401595457
  3
STANDARD
100
AcDb2LineAngularDimension
 13
728.6411153678293
 23
362.6092148234608
 33
0.0
 14
830.5524820683698
 24
380.5789384136408
 34
0.0
 15
823.9595045266783
 25
475.5481552822744
 35
0.0
 16
844.0481413090642
 26
394.3718545609557
 36
0.0
1001
ACAD
1000
DSTYLE
1002
{
1070
    41
1040
3.0
1070
    42
1040
3.0
1070
    43
1040
7.0
1070
    44
1040
1.5
1070
    73
1070
     0
1070
    74
1070
     0
1070
    77
1070
     3
1070
   140
1040
3.0
1070
   141
1040
15.0
1070
   147
1040
1.0
1070
   172
1070
     1
1070
   176
1070
     4
1070
   177
1070
     4
1070
   178
1070
     4
1070
   271
1070
     0
1070
   272
1070
     0
1070
   341
1005
166
1070
   342
1005
166
1002
}
  0
LINE
  5
3B9
330
1A
100
AcDbEntity
  8
製品
  6
DASHED
 48
3.0
100
AcDbLine
 10
760.9924278518739
 20
398.8005237634108
 30
0.0
 11
771.4170239545015
 21
339.6797014097247
 31
0.0
  0
LINE
  5
3BB
330
1A
100
AcDbEntity
  8
製品
  6
DASHED
 48
3.0
100
AcDbLine
 10
739.6131343456199
 20
335.7652356151929
 30
0.0
 11
771.2244270868161
 21
340.7719725239426
 31
0.0
  0
LINE
  5
3BC
330
1A
100
AcDbEntity
  8
中心線
  6
CENTER
 48
5.0
100
AcDbLine
 10
728.6411153678293
 20
362.6092148234608
 30
0.0
 11
830.5524820683698
 21
380.5789384136408
 31
0.0
  0
LINE
  5
3BD
330
1A
100
AcDbEntity
  8
製品
100
AcDbLine
 10
797.7965685651934
 20
342.3625845272663
 30
0.0
 11
758.2140423157029
 21
381.9451107767568
 31
0.0
  0
LINE
  5
3BE
330
1A
100
AcDbEntity
  8
製品
100
AcDbLine
 10
760.0858853927238
 20
384.3152622121289
 30
0.0
 11
800.1667200005654
 21
344.2344276042875
 31
0.0
  0
LINE
  5
3BF
330
1A
100
AcDbEntity
  8
製品
100
AcDbLine
 10
782.3186568056885
 20
407.3379709698297
 30
0.0
 11
760.0858853927238
 21
384.3152622121289
 31
0.0
  0
LINE
  5
3C0
330
1A
100
AcDbEntity
  8
製品
  6
DASHED
 48
3.0
100
AcDbLine
 10
736.5979748705345
 20
335.5913745459759
 30
0.0
 11
726.8774719230957
 21
390.7190861893231
 31
0.0
  0
LINE
  5
3C1
330
1A
100
AcDbEntity
  8
製品
  6
DASHED
 48
3.0
100
AcDbLine
 10
729.7702590201388
 20
391.5869555013565
 30
0.0
 11
739.6131343456199
 21
335.765235615193
 31
0.0
  0
LINE
  5
3C2
330
1A
100
AcDbEntity
  8
製品
  6
DASHED
 48
3.0
100
AcDbLine
 10
736.5979748705345
 20
335.5913745459759
 30
0.0
 11
739.6131343456199
 21
335.765235615193
 31
0.0
  0
LINE
  5
3C3
330
1A
100
AcDbEntity
  8
製品
  6
DASHED
 48
3.0
100
AcDbLine
 10
729.7702590201388
 20
391.5869555013565
 30
0.0
 11
726.8774719230957
 21
390.7190861893231
 31
0.0
  0
LINE
  5
3C4
330
1A
100
AcDbEntity
  8
製品
  6
DASHED
 48
3.0
100
AcDbLine
 10
761.1875624176684
 20
397.6938606480418
 30
0.0
 11
729.7702590201388
 21
391.5869555013565
 31
0.0
  0
LINE
  5
3C5
330
1A
100
AcDbEntity
  8
製品
100
AcDbLine
 10
760.0858853927238
 20
384.3152622121288
 30
0.0
 11
758.2140423157029
 21
381.9451107767568
 31
0.0
  0
LINE
  5
3C6
330
1A
100
AcDbEntity
  8
製品
100
AcDbLine
 10
685.6007786077977
 20
386.9023277638488
 30
0.0
 11
685.6007786077977
 21
436.0255503735812
 31
0.0
  0
LINE
  5
3C7
330
1A
100
AcDbEntity
  8
製品
100
AcDbLine
 10
625.6007786077978
 20
436.0255503735812
 30
0.0
 11
625.6007786077978
 21
386.9004416412248
 31
0.0
  0
LWPOLYLINE
  5
3C8
330
1A
100
AcDbEntity
  8
製品
100
AcDbPolyline
 90
       37
 70
     0
 43
0.0
 10
684.3559704996789
 20
380.8589207446926
 10
684.9545107295823
 20
382.5214161636347
 10
685.5776237893499
 20
386.068932703083
 10
685.568263426979
 20
387.8904116854465
 10
685.3498468925547
 20
389.6418287526877
 10
684.2774555141302
 20
393.1366320347411
 10
683.4159569010296
 20
394.853969952296
 10
682.3898983820789
 20
396.4562073231081
 10
679.7414393485344
 20
399.5043167885593
 10
678.1240833879831
 20
400.9238082487899
 10
676.4057198786051
 20
402.1956966702175
 10
674.5309477696175
 20
403.3703636571535
 10
672.4791242173953
 20
404.4521775911564
 10
670.287955083684
 20
405.4129768495458
 10
668.0721112673202
 20
406.2101561145624
 10
663.3127380825761
 20
407.4186920796651
 10
660.7964568368181
 20
407.811558263025
 10
658.3352050531732
 20
408.044144188885
 10
653.2845666756855
 20
408.0691619814713
 10
650.729501610894
 20
407.850653731659
 10
648.3000114643475
 20
407.4939369747774
 10
643.5261816750765
 20
406.3360893099018
 10
641.219185732574
 20
405.532789007865
 10
639.0918558895316
 20
404.6273227473531
 10
635.1254690771136
 20
402.4168957616403
 10
633.3226588974023
 20
401.1186082291628
 10
631.7363723467963
 20
399.7650826297335
 10
629.0234217185108
 20
396.7478501771444
 10
627.9279941605966
 20
395.0989072846664
 10
627.0637312663855
 20
393.4494981963685
 10
626.3915124179622
 20
391.7432746645058
 10
625.91478816729
 20
389.9652284236353
 10
625.6527809973469
 20
388.1516350363527
 10
625.609427356079
 20
386.3930257797962
 10
626.1565937773109
 20
382.8364608310542
 10
626.7585748071008
 20
381.0638944288483
 10
626.8450823713485
 20
380.8793486911585
  0
LINE
  5
3C9
330
1A
100
AcDbEntity
  8
中心線
  6
CENTER
 48
5.0
100
AcDbLine
 10
655.6007786077973
 20
476.0904988739563
 30
0.0
 11
655.6007786077973
 21
337.108716835505
 31
0.0
  0
DIMENSION
  5
3CA
330
1A
100
AcDbEntity
  8
寸法
100
AcDbDimension
  2
*D7
 10
868.4043852886865
 20
342.3625845272663
 30
0.0
 11
865.9043852886865
 21
407.6940674504239
 31
0.0
 70
    32
 71
     5
 42
130.6629658463149
  3
STANDARD
100
AcDbAlignedDimension
 13
851.9485772541907
 23
473.0255503735812
 33
0.0
 14
797.7965685651934
 24
342.3625845272663
 34
0.0
 50
90.0
100
AcDbRotatedDimension
1001
ACAD
1000
DSTYLE
1002
{
1070
    41
1040
3.0
1070
    42
1040
3.0
1070
    43
1040
7.0
1070
    44
1040
1.5
1070
    73
1070
     0
1070
    74
1070
     0
1070
    77
1070
     3
1070
   140
1040
3.0
1070
   141
1040
15.0
1070
   147
1040
1.0
1070
   172
1070
     1
1070
   176
1070
     4
1070
   177
1070
     4
1070
   178
1070
     4
1070
   271
1070
     0
1070
   272
1070
     0
1070
   341
1005
166
1070
   342
1005
166
1002
}
  0
DIMENSION
  5
3CB
330
1A
100
AcDbEntity
  8
寸法
100
AcDbDimension
  2
*D8
 10
832.1971065325229
 20
416.208829037641
 30
0.0
 11
833.2446437523097
 21
430.3683254712305
 31
0.0
 70
    34
 71
     5
 42
0.7866621236783235
  3
STANDARD
100
AcDb2LineAngularDimension
 13
823.9595045266783
 23
475.5481552822744
 33
0.0
 14
823.959504526678
 24
398.1529630038067
 34
0.0
 15
775.8241772302089
 25
359.9782262032277
 35
0.0
 16
834.8384953875436
 26
426.7983747959477
 36
0.0
1001
ACAD
1000
DSTYLE
1002
{
1070
    41
1040
3.0
1070
    42
1040
3.0
1070
    43
1040
7.0
1070
    44
1040
1.5
1070
    73
1070
     0
1070
    74
1070
     0
1070
    77
1070
     3
1070
   140
1040
3.0
1070
   141
1040
15.0
1070
   147
1040
1.0
1070
   172
1070
     1
1070
   176
1070
     4
1070
   177
1070
     4
1070
   178
1070
     4
1070
   271
1070
     0
1070
   272
1070
     0
1070
   341
1005
166
1070
   342
1005
166
1002
}
  0
LINE
  5
3CC
330
1A
100
AcDbEntity
  8
中心線
  6
CENTER
 48
5.0
100
AcDbLine
 10
823.9595045266783
 20
475.5481552822744
 30
0.0
 11
823.959504526678
 21
356.9719564051724
 31
0.0
  0
LINE
  5
3CD
330
1A
100
AcDbEntity
  8
中心線
  6
CENTER
 48
5.0
100
AcDbLine
 10
775.8241772302089
 20
359.9782262032277
 30
0.0
 11
832.1971065325229
 21
416.208829037641
 31
0.0
  0
ARC
  5
3CF
330
1A
100
AcDbEntity
  8
製品
  6
DASHED
 48
3.0
100
AcDbCircle
 10
756.4595045266782
 20
436.0255503735813
 30
0.0
 40
97.50000000000023
100
AcDbArc
 50
278.8246195202678
 51
313.8246195202674
  0
LINE
  5
3D0
330
1A
100
AcDbEntity
  8
製品
100
AcDbLine
 10
781.5240560412518
 20
408.1325717342663
 30
0.0
 11
823.9736958493764
 21
365.6829319261416
 31
0.0
  0
LWPOLYLINE
  5
3D1
330
1A
100
AcDbEntity
  8
製品
100
AcDbPolyline
 90
       18
 70
     0
 43
0.0
 10
655.6007786077977
 20
407.3379709698319
 10
652.8945395602552
 20
407.2481775164627
 10
650.2120830387682
 20
406.9795862644516
 10
647.5769825676991
 20
406.5345576033792
 10
645.0123955047359
 20
405.9170024611202
 10
642.5408595331998
 20
405.1323479344699
 10
640.1840946000768
 20
404.1874895956216
 10
637.9628120403388
 20
403.0907308936307
 10
635.8965325649899
 20
401.8517101834055
 10
634.0034147123553
 20
400.4813160234979
 10
632.3000952701934
 20
398.9915914870596
 10
630.8015430710063
 20
397.3956283268814
 10
629.5209274454025
 20
395.7074519245998
 10
628.4695024895466
 20
393.9418980351384
 10
627.6565081637556
 20
392.1144824095605
 10
627.0890890913968
 20
390.2412644420905
 10
626.77223177168
 20
388.3387060395805
 10
626.7051815589627
 20
386.5458840044914
  0
LWPOLYLINE
  5
3D2
330
1A
100
AcDbEntity
  8
製品
100
AcDbPolyline
 90
       37
 70
     0
 43
0.0
 10
627.4555734864755
 20
361.9206911208308
 10
627.2914498881752
 20
363.3212834589804
 10
627.2914498881752
 20
365.2284063574361
 10
627.5478235528683
 20
367.1268936557449
 10
628.0582491226457
 20
368.9995523589453
 10
628.8181041045074
 20
370.8294233798329
 10
629.820507134071
 20
372.5999351230797
 10
631.0563802942736
 20
374.2950535601687
 10
632.514531326398
 20
375.8994274360377
 10
634.1817549888967
 20
377.3985272924235
 10
636.0429526461063
 20
378.7787770488855
 10
638.081269003829
 20
380.027676949892
 10
640.2782447534884
 20
381.1339167645427
 10
642.613983742485
 20
382.0874782137705
 10
645.0673331568375
 20
382.8797256974286
 10
647.616075084338
 20
383.5034844996225
 10
650.237127723409
 20
383.9531057640481
 10
652.9067544154706
 20
384.2245176509091
 10
655.6007786077982
 20
384.3152622121289
 10
658.2948028001258
 20
384.224517650909
 10
660.9644294921874
 20
383.953105764048
 10
663.5854821312584
 20
383.5034844996225
 10
666.1342240587589
 20
382.8797256974285
 10
668.5875734731109
 20
382.0874782137703
 10
670.9233124621079
 20
381.1339167645425
 10
673.1202882117675
 20
380.0276769498918
 10
675.15860456949
 20
378.7787770488853
 10
677.0198022266993
 20
377.3985272924234
 10
678.6870258891979
 20
375.8994274360375
 10
680.145176921322
 20
374.2950535601683
 10
681.3810500815255
 20
372.5999351230794
 10
682.3834531110881
 20
370.8294233798326
 10
683.1433080929498
 20
368.9995523589451
 10
683.6537336627277
 20
367.1268936557446
 10
683.9101073274207
 20
365.2284063574358
 10
683.9101073274207
 20
363.3212834589802
 10
683.7459837291206
 20
361.9206911208311
  0
LWPOLYLINE
  5
3D3
330
1A
100
AcDbEntity
  8
製品
100
AcDbPolyline
 90
       67
 70
     0
 43
0.0
 10
655.6007786077977
 20
342.3625845272663
 10
658.261309117028
 20
342.4522008990717
 10
660.8977454499729
 20
342.7202384347471
 10
663.4862116309398
 20
343.1642697448629
 10
666.0032661093594
 20
343.7802736131147
 10
668.4261140501
 20
344.562671413081
 10
670.7328137670226
 20
345.5043776291282
 10
672.9024754302898
 20
346.5968640239368
 10
674.9154502478984
 20
347.8302368715398
 10
676.7535084081835
 20
349.1933265564367
 10
678.4000041718147
 20
350.6737887273615
 10
679.8400266181909
 20
352.258216089639
 10
681.060534681045
 20
353.9322598237218
 10
682.0504752503587
 20
355.680759530322
 10
682.8008832710404
 20
357.4878805253348
 10
683.3049629318513
 20
359.3372572411895
 10
683.5581492093249
 20
361.2121414359645
 10
683.5581492093249
 20
363.0955538680588
 10
683.3049629318513
 20
364.9704380628338
 10
682.8008832710404
 20
366.8198147786886
 10
682.0504752503587
 20
368.6269357737013
 10
681.0605346810445
 20
370.3754354803014
 10
679.8400266181909
 20
372.0494792143843
 10
678.4000041718147
 20
373.6339065766618
 10
676.753508408183
 20
375.1143687475866
 10
674.9154502478984
 20
376.4774584324835
 10
672.9024754302898
 20
377.7108312800864
 10
670.7328137670226
 20
378.8033176748951
 10
668.4261140501
 20
379.7450238909422
 10
666.0032661093594
 20
380.5274216909086
 10
663.4862116309398
 20
381.1434255591604
 10
660.8977454499729
 20
381.5874568692761
 10
658.261309117028
 20
381.8554944049515
 10
655.6007786077977
 20
381.9451107767568
 10
652.9402480985679
 20
381.8554944049515
 10
650.3038117656226
 20
381.5874568692761
 10
647.7153455846558
 20
381.1434255591603
 10
645.1982911062361
 20
380.5274216909085
 10
642.7754431654955
 20
379.7450238909421
 10
640.4687434485729
 20
378.8033176748949
 10
638.2990817853058
 20
377.7108312800863
 10
636.2861069676975
 20
376.4774584324833
 10
634.4480488074125
 20
375.1143687475864
 10
632.8015530437808
 20
373.6339065766616
 10
631.3615305974046
 20
372.0494792143841
 10
630.1410225345509
 20
370.3754354803012
 10
629.1510819652374
 20
368.626935773701
 10
628.4006739445556
 20
366.8198147786883
 10
627.8965942837442
 20
364.9704380628335
 10
627.6434080062711
 20
363.0955538680585
 10
627.6434080062711
 20
361.2121414359642
 10
627.8965942837446
 20
359.3372572411892
 10
628.4006739445556
 20
357.4878805253344
 10
629.1510819652374
 20
355.6807595303218
 10
630.1410225345509
 20
353.9322598237216
 10
631.3615305974046
 20
352.2582160896387
 10
632.8015530437812
 20
350.6737887273613
 10
634.4480488074125
 20
349.1933265564365
 10
636.2861069676975
 20
347.8302368715396
 10
638.2990817853062
 20
346.5968640239367
 10
640.4687434485733
 20
345.504377629128
 10
642.7754431654959
 20
344.5626714130809
 10
645.1982911062366
 20
343.7802736131146
 10
647.7153455846562
 20
343.1642697448627
 10
650.3038117656231
 20
342.720238434747
 10
652.9402480985684
 20
342.4522008990716
 10
655.6007786077977
 20
342.3625845272663
  0
LINE
  5
3D5
330
1A
100
AcDbEntity
  8
製品
100
AcDbLine
 10
800.1667200005654
 20
344.2344276042875
 30
0.0
 11
823.1894287582663
 21
366.4671990172518
 31
0.0
  0
LINE
  5
3D6
330
1A
100
AcDbEntity
  8
製品
100
AcDbLine
 10
797.7965685651934
 20
342.3625845272663
 30
0.0
 11
800.1667200005654
 21
344.2344276042875
 31
0.0
  0
LINE
  5
3D7
330
1A
100
AcDbEntity
  8
製品
100
AcDbLine
 10
626.7051815589627
 20
386.5458840044914
 30
0.0
 11
627.263666513292
 21
363.9250381229796
 31
0.0
  0
LINE
  5
3D8
330
1A
100
AcDbEntity
  8
製品
100
AcDbLine
 10
627.4555734864755
 20
361.9206911208309
 30
0.0
 11
627.8054911240863
 21
359.8289620802433
 31
0.0
  0
LWPOLYLINE
  5
3D9
330
1A
100
AcDbEntity
  8
製品
100
AcDbPolyline
 90
       18
 70
     0
 43
0.0
 10
684.4963756566328
 20
386.5458840044916
 10
684.4293254439155
 20
388.3387060395808
 10
684.1124681241987
 20
390.2412644420908
 10
683.5450490518399
 20
392.1144824095608
 10
682.732054726049
 20
393.9418980351387
 10
681.680629770193
 20
395.7074519246
 10
680.4000141445892
 20
397.3956283268817
 10
678.9014619454022
 20
398.9915914870599
 10
677.1981425032397
 20
400.4813160234982
 10
675.3050246506052
 20
401.8517101834056
 10
673.2387451752567
 20
403.0907308936309
 10
671.0174626155187
 20
404.1874895956217
 10
668.6606976823957
 20
405.13234793447
 10
666.1891617108596
 20
405.9170024611203
 10
663.6245746478964
 20
406.5345576033792
 10
660.9894741768268
 20
406.9795862644518
 10
658.3070176553404
 20
407.2481775164627
 10
655.6007786077977
 20
407.3379709698319
  0
ARC
  5
3DA
330
1A
100
AcDbEntity
  8
製品
100
AcDbCircle
 10
656.3099649312746
 20
400.5155549120677
 30
0.0
 40
31.89004976719807
100
AcDbArc
 50
268.7257237453997
 51
306.4557387112298
  0
LWPOLYLINE
  5
3DB
330
1A
100
AcDbEntity
  8
製品
100
AcDbPolyline
 90
       65
 70
     0
 43
0.0
 10
655.6007786077977
 20
343.3171786818671
 10
658.2118643375795
 20
343.4078823915437
 10
660.7978038844191
 20
343.6791199942655
 10
663.3336932368613
 20
344.128279323645
 10
665.7951103941853
 20
344.7510347298046
 10
668.158350563617
 20
345.5413887377503
 10
670.400654450447
 20
346.4917298063341
 10
672.5004274424775
 20
347.5929056315564
 10
674.4374475779425
 20
348.8343112882562
 10
676.193060294054
 20
350.2039913613383
 10
677.7503580806408
 20
351.6887550829554
 10
679.094343308712
 20
353.274303366814
 10
680.2120726658247
 20
354.9453665161918
 10
681.0927818072566
 20
356.6858512794641
 10
681.7279890225315
 20
358.4789958369149
 10
682.1115769189266
 20
360.3075312262236
 10
682.2398513353089
 20
362.1538476520117
 10
682.1115769189266
 20
364.0001640777998
 10
681.7279890225315
 20
365.8286994671084
 10
681.0927818072566
 20
367.6218440245592
 10
680.2120726658247
 20
369.3623287878315
 10
679.094343308712
 20
371.0333919372093
 10
677.7503580806408
 20
372.618940221068
 10
676.193060294054
 20
374.1037039426851
 10
674.4374475779425
 20
375.4733840157671
 10
672.5004274424775
 20
376.7147896724669
 10
670.400654450447
 20
377.8159654976891
 10
668.158350563617
 20
378.7663065662729
 10
665.7951103941847
 20
379.5566605742186
 10
663.3336932368613
 20
380.1794159803782
 10
660.7978038844187
 20
380.6285753097576
 10
658.2118643375795
 20
380.8998129124795
 10
655.6007786077977
 20
380.9905166221561
 10
652.9896928780161
 20
380.8998129124795
 10
650.4037533311768
 20
380.6285753097575
 10
647.8678639787342
 20
380.1794159803781
 10
645.4064468214108
 20
379.5566605742185
 10
643.0432066519791
 20
378.7663065662727
 10
640.8009027651485
 20
377.8159654976889
 10
638.701129773118
 20
376.7147896724667
 10
636.764109637653
 20
375.4733840157669
 10
635.0084969215416
 20
374.1037039426848
 10
633.4511991349552
 20
372.6189402210677
 10
632.107213906884
 20
371.033391937209
 10
630.9894845497713
 20
369.3623287878313
 10
630.1087754083389
 20
367.6218440245589
 10
629.473568193064
 20
365.8286994671081
 10
629.0899802966694
 20
364.0001640777995
 10
628.9617058802871
 20
362.1538476520114
 10
629.0899802966694
 20
360.3075312262232
 10
629.4735681930644
 20
358.4789958369147
 10
630.1087754083393
 20
356.6858512794638
 10
630.9894845497713
 20
354.9453665161915
 10
632.107213906884
 20
353.2743033668138
 10
633.4511991349557
 20
351.6887550829551
 10
635.008496921542
 20
350.203991361338
 10
636.7641096376535
 20
348.8343112882561
 10
638.7011297731184
 20
347.5929056315563
 10
640.8009027651489
 20
346.491729806334
 10
643.0432066519791
 20
345.5413887377503
 10
645.4064468214112
 20
344.7510347298046
 10
647.8678639787347
 20
344.128279323645
 10
650.4037533311768
 20
343.6791199942655
 10
652.9896928780165
 20
343.4078823915437
 10
655.6007786077977
 20
343.3171786818671
  0
ARC
  5
3DC
330
1A
100
AcDbEntity
  8
製品
100
AcDbCircle
 10
655.6007786077977
 20
402.9353364702374
 30
0.0
 40
32.73626325969916
100
AcDbArc
 50
235.9330128343955
 51
304.0669871656045
  0
ARC
  5
3DD
330
1A
100
AcDbEntity
  8
製品
100
AcDbCircle
 10
655.6364485426627
 20
403.8140827261465
 30
0.0
 40
34.95854546944503
100
AcDbArc
 50
238.199125972729
 51
299.6950103949061
  0
LWPOLYLINE
  5
3DE
330
1A
100
AcDbEntity
  8
製品
100
AcDbPolyline
 90
        3
 70
     0
 43
0.0
 10
637.3686181260198
 20
374.0748116317539
 10
636.9221757332536
 20
374.3606088659675
 10
636.1861736833845
 20
374.9269651932445
  0
ARC
  5
3DF
330
1A
100
AcDbEntity
  8
製品
100
AcDbCircle
 10
654.824644247006
 20
400.3043894408352
 30
0.0
 40
31.68050631369994
100
AcDbArc
 50
233.4147192991486
 51
271.4038182442211
  0
LINE
  5
3E0
330
1A
100
AcDbEntity
  8
製品
100
AcDbLine
 10
683.9378907023035
 20
363.9250381229798
 30
0.0
 11
684.4963756566328
 21
386.5458840044916
 31
0.0
  0
LWPOLYLINE
  5
3E1
330
1A
100
AcDbEntity
  8
製品
100
AcDbPolyline
 90
        3
 70
     0
 43
0.0
 10
675.0797878011965
 20
374.9757455197015
 10
674.1022727784905
 20
374.2374681996852
 10
672.8204270424805
 20
373.4325103822604
  0
LINE
  5
3E2
330
1A
100
AcDbEntity
  8
製品
100
AcDbLine
 10
683.3960660915092
 20
359.8289620802436
 30
0.0
 11
683.7459837291206
 21
361.9206911208311
 31
0.0
  0
LINE
  5
3E3
330
1A
100
AcDbEntity
  8
製品
100
AcDbLine
 10
625.6007786077978
 20
436.0255503735812
 30
0.0
 11
685.6007786077977
 21
436.0255503735812
 31
0.0
  0
LINE
  5
3E4
330
1A
100
AcDbEntity
  8
製品
100
AcDbLine
 10
625.6007786077978
 20
438.0255503735812
 30
0.0
 11
685.6007786077977
 21
438.0255503735812
 31
0.0
  0
LINE
  5
3E5
330
1A
100
AcDbEntity
  8
製品
100
AcDbLine
 10
625.6007786077978
 20
436.0255503735812
 30
0.0
 11
685.6007786077977
 21
436.0255503735812
 31
0.0
  0
LINE
  5
3E6
330
1A
100
AcDbEntity
  8
製品
100
AcDbLine
 10
627.6117058802849
 20
473.0255503735812
 30
0.0
 11
683.5898513353101
 21
473.0255503735812
 31
0.0
  0
LINE
  5
3E7
330
1A
100
AcDbEntity
  8
製品
100
AcDbLine
 10
683.9422085546223
 20
470.026007288112
 30
0.0
 11
627.2593486609732
 21
470.026007288112
 31
0.0
  0
DIMENSION
  5
3E8
330
1A
100
AcDbEntity
  8
製品
100
AcDbDimension
  2
*D9
 10
685.6007786077977
 20
487.0990218092275
 30
0.0
 11
655.6007786077977
 21
489.5990218092276
 31
0.0
 70
    32
  1
φ<>
 71
     5
 42
60.0
  3
STANDARD
100
AcDbAlignedDimension
 13
625.6007786077978
 23
438.0255503735812
 33
0.0
 14
685.6007786077977
 24
438.0255503735812
 34
0.0
100
AcDbRotatedDimension
1001
ACAD
1000
DSTYLE
1002
{
1070
    41
1040
3.0
1070
    42
1040
3.0
1070
    43
1040
7.0
1070
    44
1040
1.5
1070
    73
1070
     0
1070
    74
1070
     0
1070
    77
1070
     3
1070
   140
1040
3.0
1070
   141
1040
15.0
1070
   147
1040
1.0
1070
   172
1070
     1
1070
   176
1070
     4
1070
   177
1070
     4
1070
   178
1070
     4
1070
   271
1070
     0
1070
   272
1070
     0
1070
   341
1005
166
1070
   342
1005
166
1002
}
  0
LINE
  5
3E9
330
1A
100
AcDbEntity
  8
製品
100
AcDbLine
 10
823.9595045266783
 20
473.0255503735812
 30
0.0
 11
851.9485772541907
 21
473.0255503735812
 31
0.0
  0
LINE
  5
3EA
330
1A
100
AcDbEntity
  8
製品
100
AcDbLine
 10
852.3009344735028
 20
470.026007288112
 30
0.0
 11
823.9595045266783
 21
470.026007288112
 31
0.0
  0
LINE
  5
3EB
330
1A
100
AcDbEntity
  8
製品
100
AcDbLine
 10
823.9595045266783
 20
438.0255503735812
 30
0.0
 11
853.9595045266782
 21
438.0255503735812
 31
0.0
  0
LINE
  5
3EC
330
1A
100
AcDbEntity
  8
製品
100
AcDbLine
 10
823.9595045266783
 20
436.0255503735812
 30
0.0
 11
853.9595045266782
 21
436.0255503735812
 31
0.0
  0
LINE
  5
3ED
330
1A
100
AcDbEntity
  8
製品
100
AcDbLine
 10
823.9595045266787
 20
436.0255503735812
 30
0.0
 11
853.9595045266782
 21
436.0255503735812
 31
0.0
  0
LINE
  5
3EE
330
1A
100
AcDbEntity
  8
製品
100
AcDbLine
 10
795.9704317991659
 20
473.0255503735812
 30
0.0
 11
823.9595045266783
 21
473.0255503735812
 31
0.0
  0
LINE
  5
3EF
330
1A
100
AcDbEntity
  8
製品
100
AcDbLine
 10
823.9595045266783
 20
470.026007288112
 30
0.0
 11
795.6180745798542
 21
470.026007288112
 31
0.0
  0
LINE
  5
3F0
330
1A
100
AcDbEntity
  8
製品
100
AcDbLine
 10
793.9595045266782
 20
438.0255503735812
 30
0.0
 11
823.9595045266783
 21
438.0255503735812
 31
0.0
  0
LINE
  5
3F1
330
1A
100
AcDbEntity
  8
製品
100
AcDbLine
 10
793.9595045266782
 20
436.0255503735812
 30
0.0
 11
823.9595045266783
 21
436.0255503735812
 31
0.0
  0
LINE
  5
3F2
330
1A
100
AcDbEntity
  8
製品
100
AcDbLine
 10
793.9595045266787
 20
436.0255503735812
 30
0.0
 11
823.9595045266787
 21
436.0255503735812
 31
0.0
  0
LINE
  5
3F3
330
1A
100
AcDbEntity
  8
製品
100
AcDbLine
 10
795.6180745798542
 20
470.026007288112
 30
0.0
 11
795.0595045266782
 21
438.0255503735812
 31
0.0
  0
LINE
  5
3F4
330
1A
100
AcDbEntity
  8
製品
100
AcDbLine
 10
793.9595045266782
 20
438.0255503735812
 30
0.0
 11
793.9595045266782
 21
436.0255503735812
 31
0.0
  0
LINE
  5
3F5
330
1A
100
AcDbEntity
  8
製品
100
AcDbLine
 10
795.9704317991659
 20
473.0255503735812
 30
0.0
 11
795.6180745798542
 21
470.026007288112
 31
0.0
  0
LINE
  5
3F6
330
1A
100
AcDbEntity
  8
製品
100
AcDbLine
 10
852.8595045266783
 20
438.0255503735812
 30
0.0
 11
852.3009344735028
 21
470.026007288112
 31
0.0
  0
LINE
  5
3F7
330
1A
100
AcDbEntity
  8
製品
100
AcDbLine
 10
853.9595045266782
 20
436.0255503735812
 30
0.0
 11
853.9595045266782
 21
438.0255503735812
 31
0.0
  0
LINE
  5
3F8
330
1A
100
AcDbEntity
  8
製品
100
AcDbLine
 10
852.3009344735028
 20
470.026007288112
 30
0.0
 11
851.9485772541907
 21
473.0255503735812
 31
0.0
  0
LINE
  5
3F9
330
1A
100
AcDbEntity
  8
製品
100
AcDbLine
 10
627.2593486609732
 20
470.026007288112
 30
0.0
 11
626.7007786077977
 21
438.0255503735812
 31
0.0
  0
LINE
  5
3FA
330
1A
100
AcDbEntity
  8
製品
100
AcDbLine
 10
625.6007786077978
 20
438.0255503735812
 30
0.0
 11
625.6007786077978
 21
436.0255503735812
 31
0.0
  0
LINE
  5
3FB
330
1A
100
AcDbEntity
  8
製品
100
AcDbLine
 10
627.6117058802849
 20
473.0255503735812
 30
0.0
 11
627.2593486609732
 21
470.026007288112
 31
0.0
  0
LINE
  5
3FC
330
1A
100
AcDbEntity
  8
製品
100
AcDbLine
 10
684.5007786077978
 20
438.0255503735812
 30
0.0
 11
683.9422085546223
 21
470.026007288112
 31
0.0
  0
LINE
  5
3FD
330
1A
100
AcDbEntity
  8
製品
100
AcDbLine
 10
685.6007786077977
 20
436.0255503735812
 30
0.0
 11
685.6007786077977
 21
438.0255503735812
 31
0.0
  0
LINE
  5
3FE
330
1A
100
AcDbEntity
  8
製品
100
AcDbLine
 10
683.9422085546223
 20
470.026007288112
 30
0.0
 11
683.5898513353101
 21
473.0255503735812
 31
0.0
  0
ARC
  5
5A0
330
1A
100
AcDbEntity
  8
製品
100
AcDbCircle
 10
756.4595045266781
 20
436.0255503735812
 30
0.0
 40
37.50000000000023
100
AcDbArc
 50
311.9580644569885
 51
0.0
  0
ARC
  5
5A2
330
1A
100
AcDbEntity
  8
製品
  6
DASHED
 48
3.0
100
AcDbCircle
 10
756.4595045266782
 20
436.0255503735813
 30
0.0
 40
37.50000000000023
100
AcDbArc
 50
276.9427745715461
 51
311.9427745715458
  0
ARC
  5
5A4
330
1A
100
AcDbEntity
  8
製品
100
AcDbCircle
 10
756.4595045266781
 20
436.0255503735812
 30
0.0
 40
97.50000000000023
100
AcDbArc
 50
313.8246195202675
 51
0.0
  0
DIMENSION
  5
5ED
330
1A
100
AcDbEntity
  8
寸法
100
AcDbDimension
  2
*D10
 10
781.0820975499479
 20
473.0255503735812
 30
0.0
 11
778.5820975499478
 21
455.5255503735813
 31
0.0
 70
    32
 71
     5
 42
35.00000000000006
  3
STANDARD
100
AcDbAlignedDimension
 13
793.9595045266782
 23
438.0255503735812
 33
0.0
 14
795.9704317991659
 24
473.0255503735812
 34
0.0
 50
90.0
100
AcDbRotatedDimension
1001
ACAD
1000
DSTYLE
1002
{
1070
    41
1040
3.0
1070
    42
1040
3.0
1070
    43
1040
7.0
1070
    44
1040
1.5
1070
    73
1070
     0
1070
    74
1070
     0
1070
    77
1070
     3
1070
   140
1040
3.0
1070
   141
1040
15.0
1070
   147
1040
1.0
1070
   172
1070
     1
1070
   176
1070
     4
1070
   177
1070
     4
1070
   178
1070
     4
1070
   271
1070
     0
1070
   272
1070
     0
1070
   341
1005
166
1070
   342
1005
166
1002
}
  0
VIEWPORT
  5
22
330
17
100
AcDbEntity
 67
     1
  8
0
100
AcDbViewport
 10
245.143442478156
 20
180.4473375916276
 30
0.0
 40
702.1080523887404
 41
459.519223656418
 68
     1
 69
     1
 12
245.143442478156
 22
180.4473375916276
 13
0.0
 23
0.0
 14
1.0
 24
1.0
 15
10.0
 25
10.0
 16
0.0
 26
0.0
 36
1.0
 17
0.0
 27
0.0
 37
0.0
 42
50.0
 43
0.0
 44
0.0
 45
459.519223656418
 50
0.0
 51
0.0
 72
   100
 90
    32768
  1

281
     0
 71
     1
 74
     0
110
0.0
120
0.0
130
0.0
111
1.0
121
0.0
131
0.0
112
0.0
122
1.0
132
0.0
 79
     0
146
0.0
170
     0
  0
VIEWPORT
  5
64
330
17
100
AcDbEntity
 67
     1
  8
VIEWPORT
100
AcDbViewport
 10
210.0
 20
148.5
 30
0.0
 40
420.0
 41
297.0
 68
     2
 69
     2
 12
739.3262239509572
 22
393.1221607969858
 13
0.0
 23
0.0
 14
5.0
 24
5.0
 15
0.0
 25
0.0
 16
0.0
 26
0.0
 36
1.0
 17
0.0
 27
0.0
 37
0.0
 42
50.0
 43
0.0
 44
0.0
 45
292.8854430495992
 50
0.0
 51
0.0
 72
   100
 90
    32768
  1

281
     0
 71
     1
 74
     0
110
0.0
120
0.0
130
0.0
111
1.0
121
0.0
131
0.0
112
0.0
122
1.0
132
0.0
 79
     0
146
0.0
170
     0
  0
ENDSEC
  0
SECTION
  2
OBJECTS
  0
DICTIONARY
  5
C
330
0
100
AcDbDictionary
281
     1
  3
ACAD_COLOR
350
71C
  3
ACAD_GROUP
350
D
  3
ACAD_LAYOUT
350
15A
  3
ACAD_MATERIAL
350
71B
  3
ACAD_MLINESTYLE
350
E
  3
ACAD_PLOTSETTINGS
350
15B
  3
ACAD_PLOTSTYLENAME
350
158
  0
DICTIONARY
  5
71C
102
{ACAD_REACTORS
330
C
102
}
330
C
100
AcDbDictionary
281
     1
  0
DICTIONARY
  5
D
102
{ACAD_REACTORS
330
C
102
}
330
C
100
AcDbDictionary
281
     1
  3
*A1
350
2F2
  0
DICTIONARY
  5
15A
102
{ACAD_REACTORS
330
C
102
}
330
C
100
AcDbDictionary
281
     1
  3
Model
350
15C
  3
ﾚｲｱｳﾄ1
350
15D
  0
DICTIONARY
  5
71B
102
{ACAD_REACTORS
330
C
102
}
330
C
100
AcDbDictionary
281
     1
  0
DICTIONARY
  5
E
102
{ACAD_REACTORS
330
C
102
}
330
C
100
AcDbDictionary
281
     1
  3
STANDARD
350
13
  0
DICTIONARY
  5
15B
102
{ACAD_REACTORS
330
C
102
}
330
C
100
AcDbDictionary
281
     1
  0
ACDBDICTIONARYWDFLT
  5
158
102
{ACAD_REACTORS
330
C
102
}
330
C
100
AcDbDictionary
281
     1
  3
Normal
350
159
100
AcDbDictionaryWithDefault
340
159
  0
GROUP
  5
2F2
102
{ACAD_REACTORS
330
D
102
}
330
D
100
AcDbGroup
300

 70
     1
 71
     1
  0
LAYOUT
  5
15C
102
{ACAD_REACTORS
330
15A
102
}
330
15A
100
AcDbPlotSettings
  1

  2
Canon LBP-730 LIPS4
  4

  6

 40
0.0
 41
0.0
 42
0.0
 43
0.0
 44
0.0
 45
0.0
 46
0.0
 47
0.0
 48
0.0
 49
0.0
140
0.0
141
0.0
142
1.0
143
1.0
 70
 11952
 72
     0
 73
     1
 74
     0
  7
systemprinter.ctb
 75
     0
147
1.0
 76
     0
 77
     2
 78
   300
148
-14452.54986808889
149
-4383.920283410088
100
AcDbLayout
  1
Model
 70
     1
 71
     0
 10
0.0
 20
0.0
 11
12.0
 21
9.0
 12
0.0
 22
0.0
 32
0.0
 14
0.0
 24
0.0
 34
0.0
 15
0.0
 25
0.0
 35
0.0
146
0.0
 13
0.0
 23
0.0
 33
0.0
 16
1.0
 26
0.0
 36
0.0
 17
0.0
 27
1.0
 37
0.0
 76
     0
330
1A
  0
LAYOUT
  5
15D
102
{ACAD_REACTORS
330
15A
102
}
330
15A
100
AcDbPlotSettings
  1

  2
LP-9200C(CC9E34)
  4
A3
  6

 40
5.873749732971191
 41
5.873747825622558
 42
5.873748779296875
 43
5.873748779296875
 44
297.0106506347656
 45
419.9466552734374
 46
-5.879999999999999
 47
-5.91
 48
0.0
 49
0.0
140
0.0
141
0.0
142
1.0
143
1.0
 70
   692
 72
     1
 73
     1
 74
     1
  7
monochrome.ctb
 75
    16
147
1.0
 76
     0
 77
     2
 78
   300
148
0.0128164049386896
149
0.0090630292066862
100
AcDbLayout
  1
ﾚｲｱｳﾄ1
 70
     1
 71
     1
 10
0.0234348157644355
 20
-0.0028127621778777
 11
419.9700900892019
 21
297.0078378725877
 12
0.0
 22
0.0
 32
0.0
 14
-0.0128164049386896
 24
-0.0090630292066862
 34
-0.0015258207003583
 15
420.0128183607161
 25
297.0090644122207
 35
0.0000000349246037
146
0.0
 13
0.0
 23
0.0
 33
0.0
 16
1.0
 26
0.0
 36
0.0
 17
0.0
 27
1.0
 37
0.0
 76
     0
330
17
331
22
  0
MLINESTYLE
  5
13
102
{ACAD_REACTORS
330
E
102
}
330
E
100
AcDbMlineStyle
  2
STANDARD
 70
     0
  3

 62
     0
 51
90.0
 52
90.0
 71
     2
 49
0.5
 62
   256
  6
BYLAYER
 49
-0.5
 62
   256
  6
BYLAYER
  0
ACDBPLACEHOLDER
  5
159
102
{ACAD_REACTORS
330
158
102
}
330
158
  0
ENDSEC
  0
EOF
