  0
SECTION
  2
HEADER
  9
$ACADVER
  1
AC1015
  9
$ACADMAINTVER
 70
    20
  9
$DWGCODEPAGE
  3
ANSI_932
  9
$INSBASE
 10
0.0
 20
0.0
 30
0.0
  9
$EXTMIN
 10
0.0
 20
0.0
 30
0.0
  9
$EXTMAX
 10
398.8000000000002
 20
275.8
 30
0.0
  9
$LIMMIN
 10
0.0
 20
0.0
  9
$LIMMAX
 10
420.0
 20
297.0
  9
$ORTHOMODE
 70
     1
  9
$REGENMODE
 70
     1
  9
$FILLMODE
 70
     1
  9
$QTEXTMODE
 70
     0
  9
$MIRRTEXT
 70
     1
  9
$LTSCALE
 40
1.0
  9
$ATTMODE
 70
     1
  9
$TEXTSIZE
 40
2.5
  9
$TRACEWID
 40
1.0
  9
$TEXTSTYLE
  7
STANDARD
  9
$CLAYER
  8
SUNPOU
  9
$CELTYPE
  6
BYLAYER
  9
$CECOLOR
 62
   256
  9
$CELTSCALE
 40
1.0
  9
$DISPSILH
 70
     0
  9
$DIMSCALE
 40
1.0
  9
$DIMASZ
 40
3.0
  9
$DIMEXO
 40
1.5
  9
$DIMDLI
 40
9.0
  9
$DIMRND
 40
0.0
  9
$DIMDLE
 40
0.0
  9
$DIMEXE
 40
1.5
  9
$DIMTP
 40
0.0
  9
$DIMTM
 40
0.0
  9
$DIMTXT
 40
3.0
  9
$DIMCEN
 40
0.0
  9
$DIMTSZ
 40
0.0
  9
$DIMTOL
 70
     0
  9
$DIMLIM
 70
     0
  9
$DIMTIH
 70
     0
  9
$DIMTOH
 70
     0
  9
$DIMSE1
 70
     0
  9
$DIMSE2
 70
     0
  9
$DIMTAD
 70
     3
  9
$DIMZIN
 70
     0
  9
$DIMBLK
  1
OPEN
  9
$DIMASO
 70
     1
  9
$DIMSHO
 70
     1
  9
$DIMPOST
  1

  9
$DIMAPOST
  1

  9
$DIMALT
 70
     0
  9
$DIMALTD
 70
     2
  9
$DIMALTF
 40
25.4
  9
$DIMLFAC
 40
1.0
  9
$DIMTOFL
 70
     0
  9
$DIMTVP
 40
0.0
  9
$DIMTIX
 70
     0
  9
$DIMSOXD
 70
     0
  9
$DIMSAH
 70
     0
  9
$DIMBLK1
  1

  9
$DIMBLK2
  1

  9
$DIMSTYLE
  2
STANDARD
  9
$DIMCLRD
 70
   256
  9
$DIMCLRE
 70
   256
  9
$DIMCLRT
 70
   256
  9
$DIMTFAC
 40
1.0
  9
$DIMGAP
 40
1.5
  9
$DIMJUST
 70
     0
  9
$DIMSD1
 70
     0
  9
$DIMSD2
 70
     0
  9
$DIMTOLJ
 70
     1
  9
$DIMTZIN
 70
     0
  9
$DIMALTZ
 70
     0
  9
$DIMALTTZ
 70
     0
  9
$DIMUPT
 70
     0
  9
$DIMDEC
 70
     0
  9
$DIMTDEC
 70
     0
  9
$DIMALTU
 70
     2
  9
$DIMALTTD
 70
     2
  9
$DIMTXSTY
  7
STANDARD
  9
$DIMAUNIT
 70
     0
  9
$DIMADEC
 70
     0
  9
$DIMALTRND
 40
0.0
  9
$DIMAZIN
 70
     0
  9
$DIMDSEP
 70
    46
  9
$DIMATFIT
 70
     3
  9
$DIMFRAC
 70
     0
  9
$DIMLDRBLK
  1
OPEN
  9
$DIMLUNIT
 70
     2
  9
$DIMLWD
 70
    -1
  9
$DIMLWE
 70
    -1
  9
$DIMTMOVE
 70
     0
  9
$LUNITS
 70
     2
  9
$LUPREC
 70
     4
  9
$SKETCHINC
 40
1.0
  9
$FILLETRAD
 40
55.0
  9
$AUNITS
 70
     0
  9
$AUPREC
 70
     0
  9
$MENU
  1
.
  9
$ELEVATION
 40
0.0
  9
$PELEVATION
 40
0.0
  9
$THICKNESS
 40
0.0
  9
$LIMCHECK
 70
     0
  9
$CHAMFERA
 40
10.0
  9
$CHAMFERB
 40
10.0
  9
$CHAMFERC
 40
20.0
  9
$CHAMFERD
 40
0.0
  9
$SKPOLY
 70
     0
  9
$TDCREATE
 40
2451074.584006713
  9
$TDUCREATE
 40
2451074.209006713
  9
$TDUPDATE
 40
2456904.616027616
  9
$TDUUPDATE
 40
2456904.241027616
  9
$TDINDWG
 40
0.0894631713
  9
$TDUSRTIMER
 40
0.0894631713
  9
$USRTIMER
 70
     1
  9
$ANGBASE
 50
0.0
  9
$ANGDIR
 70
     0
  9
$PDMODE
 70
     0
  9
$PDSIZE
 40
0.0
  9
$PLINEWID
 40
0.0
  9
$SPLFRAME
 70
     0
  9
$SPLINETYPE
 70
     6
  9
$SPLINESEGS
 70
     8
  9
$HANDSEED
  5
819B
  9
$SURFTAB1
 70
     6
  9
$SURFTAB2
 70
     6
  9
$SURFTYPE
 70
     6
  9
$SURFU
 70
     6
  9
$SURFV
 70
     6
  9
$UCSBASE
  2

  9
$UCSNAME
  2

  9
$UCSORG
 10
0.0
 20
0.0
 30
0.0
  9
$UCSXDIR
 10
1.0
 20
0.0
 30
0.0
  9
$UCSYDIR
 10
0.0
 20
1.0
 30
0.0
  9
$UCSORTHOREF
  2

  9
$UCSORTHOVIEW
 70
     0
  9
$UCSORGTOP
 10
0.0
 20
0.0
 30
0.0
  9
$UCSORGBOTTOM
 10
0.0
 20
0.0
 30
0.0
  9
$UCSORGLEFT
 10
0.0
 20
0.0
 30
0.0
  9
$UCSORGRIGHT
 10
0.0
 20
0.0
 30
0.0
  9
$UCSORGFRONT
 10
0.0
 20
0.0
 30
0.0
  9
$UCSORGBACK
 10
0.0
 20
0.0
 30
0.0
  9
$PUCSBASE
  2

  9
$PUCSNAME
  2

  9
$PUCSORG
 10
0.0
 20
0.0
 30
0.0
  9
$PUCSXDIR
 10
1.0
 20
0.0
 30
0.0
  9
$PUCSYDIR
 10
0.0
 20
1.0
 30
0.0
  9
$PUCSORTHOREF
  2

  9
$PUCSORTHOVIEW
 70
     0
  9
$PUCSORGTOP
 10
0.0
 20
0.0
 30
0.0
  9
$PUCSORGBOTTOM
 10
0.0
 20
0.0
 30
0.0
  9
$PUCSORGLEFT
 10
0.0
 20
0.0
 30
0.0
  9
$PUCSORGRIGHT
 10
0.0
 20
0.0
 30
0.0
  9
$PUCSORGFRONT
 10
0.0
 20
0.0
 30
0.0
  9
$PUCSORGBACK
 10
0.0
 20
0.0
 30
0.0
  9
$USERI1
 70
     0
  9
$USERI2
 70
     0
  9
$USERI3
 70
     0
  9
$USERI4
 70
     0
  9
$USERI5
 70
     0
  9
$USERR1
 40
0.0
  9
$USERR2
 40
0.0
  9
$USERR3
 40
0.0
  9
$USERR4
 40
0.0
  9
$USERR5
 40
0.0
  9
$WORLDVIEW
 70
     1
  9
$SHADEDGE
 70
     3
  9
$SHADEDIF
 70
    70
  9
$TILEMODE
 70
     1
  9
$MAXACTVP
 70
    16
  9
$PINSBASE
 10
0.0
 20
0.0
 30
0.0
  9
$PLIMCHECK
 70
     0
  9
$PEXTMIN
 10
0.0
 20
0.0
 30
0.0
  9
$PEXTMAX
 10
420.0
 20
297.0
 30
0.0
  9
$PLIMMIN
 10
0.0
 20
0.0
  9
$PLIMMAX
 10
420.0
 20
297.0
  9
$UNITMODE
 70
     0
  9
$VISRETAIN
 70
     0
  9
$PLINEGEN
 70
     0
  9
$PSLTSCALE
 70
     1
  9
$TREEDEPTH
 70
  3020
  9
$CMLSTYLE
  2
STANDARD
  9
$CMLJUST
 70
     0
  9
$CMLSCALE
 40
1.0
  9
$PROXYGRAPHICS
 70
     1
  9
$MEASUREMENT
 70
     1
  9
$CELWEIGHT
370
    -1
  9
$ENDCAPS
280
     0
  9
$JOINSTYLE
280
     0
  9
$LWDISPLAY
290
     0
  9
$INSUNITS
 70
     0
  9
$HYPERLINKBASE
  1

  9
$STYLESHEET
  1
print.ctb
  9
$XEDIT
290
     1
  9
$CEPSNTYPE
380
     0
  9
$PSTYLEMODE
290
     1
  9
$FINGERPRINTGUID
  2
{D4F8574C-2E33-4D51-A6AD-99326D707132}
  9
$VERSIONGUID
  2
{6582E587-C7BB-44B3-A3AB-D71390EBF15E}
  9
$EXTNAMES
290
     1
  9
$PSVPSCALE
 40
0.0
  9
$OLESTARTUP
290
     0
  0
ENDSEC
  0
SECTION
  2
CLASSES
  0
CLASS
  1
ACDBDICTIONARYWDFLT
  2
AcDbDictionaryWithDefault
  3
ObjectDBX Classes
 90
        0
280
     0
281
     0
  0
CLASS
  1
ACDBPLACEHOLDER
  2
AcDbPlaceHolder
  3
ObjectDBX Classes
 90
        0
280
     0
281
     0
  0
CLASS
  1
LAYOUT
  2
AcDbLayout
  3
ObjectDBX Classes
 90
        0
280
     0
281
     0
  0
CLASS
  1
DICTIONARYVAR
  2
AcDbDictionaryVar
  3
ObjectDBX Classes
 90
        0
280
     0
281
     0
  0
ENDSEC
  0
SECTION
  2
TABLES
  0
TABLE
  2
VPORT
  5
8
330
0
100
AcDbSymbolTable
 70
     2
  0
VPORT
  5
818F
330
8
100
AcDbSymbolTableRecord
100
AcDbViewportTableRecord
  2
*Active
 70
     0
 10
0.0
 20
0.0
 11
1.0
 21
1.0
 12
228.933031546402
 22
165.1737142259372
 13
0.0
 23
0.0
 14
5.0
 24
5.0
 15
0.0
 25
0.0
 16
0.0
 26
0.0
 36
1.0
 17
0.0
 27
0.0
 37
0.0
 40
412.8592025406868
 41
2.011264080100125
 42
50.0
 43
0.0
 44
0.0
 50
0.0
 51
0.0
 71
     0
 72
   100
 73
     1
 74
     0
 75
     0
 76
     0
 77
     0
 78
     0
281
     0
 65
     1
110
0.0
120
0.0
130
0.0
111
1.0
121
0.0
131
0.0
112
0.0
122
1.0
132
0.0
 79
     0
146
0.0
  0
ENDTAB
  0
TABLE
  2
LTYPE
  5
5
330
0
100
AcDbSymbolTable
 70
     3
  0
LTYPE
  5
14
330
5
100
AcDbSymbolTableRecord
100
AcDbLinetypeTableRecord
  2
BYBLOCK
 70
     0
  3

 72
    65
 73
     0
 40
0.0
  0
LTYPE
  5
15
330
5
100
AcDbSymbolTableRecord
100
AcDbLinetypeTableRecord
  2
BYLAYER
 70
     0
  3

 72
    65
 73
     0
 40
0.0
  0
LTYPE
  5
16
330
5
100
AcDbSymbolTableRecord
100
AcDbLinetypeTableRecord
  2
CONTINUOUS
 70
     0
  3
Solid line
 72
    65
 73
     0
 40
0.0
  0
LTYPE
  5
120
330
5
100
AcDbSymbolTableRecord
100
AcDbLinetypeTableRecord
  2
CENTER
 70
     0
  3
____ _ ____ _ ____ _ ____ _ ____ _ ____ _ ____ 
 72
    65
 73
     4
 40
2.0
 49
1.25
 74
     0
 49
-0.25
 74
     0
 49
0.25
 74
     0
 49
-0.25
 74
     0
  0
LTYPE
  5
780C
330
5
100
AcDbSymbolTableRecord
100
AcDbLinetypeTableRecord
  2
SLD-実線
 70
     0
  3
SolidWorks Line Style
 72
    65
 73
     0
 40
0.0
  0
ENDTAB
  0
TABLE
  2
LAYER
  5
2
102
{ACAD_XDICTIONARY
360
77F4
102
}
330
0
100
AcDbSymbolTable
 70
     8
  0
LAYER
  5
F
330
2
100
AcDbSymbolTableRecord
100
AcDbLayerTableRecord
  2
0
 70
     0
 62
     7
  6
CONTINUOUS
370
    -3
390
33A
  0
LAYER
  5
62
330
2
100
AcDbSymbolTableRecord
100
AcDbLayerTableRecord
  2
VIEWPORT
 70
     0
 62
     7
  6
CONTINUOUS
370
    -3
390
33A
  0
LAYER
  5
6B
330
2
100
AcDbSymbolTableRecord
100
AcDbLayerTableRecord
  2
ZUWAKU
 70
     0
 62
     7
  6
CONTINUOUS
370
    -3
390
33A
  0
LAYER
  5
140
330
2
100
AcDbSymbolTableRecord
100
AcDbLayerTableRecord
  2
SEIHIN
 70
     0
 62
     3
  6
CONTINUOUS
370
    -3
390
33A
  0
LAYER
  5
141
330
2
100
AcDbSymbolTableRecord
100
AcDbLayerTableRecord
  2
SUNPOU
 70
     0
 62
     4
  6
CONTINUOUS
370
    -3
390
33A
  0
LAYER
  5
142
330
2
100
AcDbSymbolTableRecord
100
AcDbLayerTableRecord
  2
CENTER L
 70
     0
 62
     1
  6
CENTER
370
    -3
390
33A
  0
LAYER
  5
143
330
2
100
AcDbSymbolTableRecord
100
AcDbLayerTableRecord
  2
DEFPOINTS
 70
     0
 62
     7
  6
CONTINUOUS
290
     0
370
    -3
390
33A
  0
LAYER
  5
5D7
330
2
100
AcDbSymbolTableRecord
100
AcDbLayerTableRecord
  2
MOJI
 70
     0
 62
     2
  6
CONTINUOUS
370
    -3
390
33A
  0
ENDTAB
  0
TABLE
  2
STYLE
  5
3
330
0
100
AcDbSymbolTable
 70
     2
  0
STYLE
  5
10
330
3
100
AcDbSymbolTableRecord
100
AcDbTextStyleTableRecord
  2
STANDARD
 70
     0
 40
0.0
 41
1.0
 50
0.0
 71
     0
 42
2.5
  3
TXT
  4
bigfont.shx
  0
STYLE
  5
5D8
330
3
100
AcDbSymbolTableRecord
100
AcDbTextStyleTableRecord
  2
ｽﾀｲﾙ1
 70
     0
 40
0.0
 41
1.0
 50
0.0
 71
     0
 42
2.5
  3

  4

1001
ACAD
1000
MS PGothic
1071
    32818
  0
ENDTAB
  0
TABLE
  2
VIEW
  5
6
330
0
100
AcDbSymbolTable
 70
     0
  0
ENDTAB
  0
TABLE
  2
UCS
  5
7
330
0
100
AcDbSymbolTable
 70
     0
  0
ENDTAB
  0
TABLE
  2
APPID
  5
9
330
0
100
AcDbSymbolTable
 70
     1
  0
APPID
  5
11
330
9
100
AcDbSymbolTableRecord
100
AcDbRegAppTableRecord
  2
ACAD
 70
     0
  0
ENDTAB
  0
TABLE
  2
DIMSTYLE
  5
A
330
0
100
AcDbSymbolTable
 70
     1
100
AcDbDimStyleTable
 71
     0
  0
DIMSTYLE
105
1D
102
{ACAD_REACTORS
330
7EC1
330
7EBF
330
7FE8
330
7F1C
330
7EC0
102
}
330
A
100
AcDbSymbolTableRecord
100
AcDbDimStyleTableRecord
  2
STANDARD
 70
     0
 41
3.0
 42
1.5
 43
9.0
 44
1.5
 73
     0
 74
     0
 77
     3
140
3.0
141
0.0
147
1.5
176
   256
177
   256
178
   256
271
     0
272
     0
340
10
341
B2
342
B2
371
    -1
372
    -1
  0
ENDTAB
  0
TABLE
  2
BLOCK_RECORD
  5
1
330
0
100
AcDbSymbolTable
 70
     7
  0
BLOCK_RECORD
  5
1A
102
{ACAD_XDICTIONARY
360
36A
102
}
330
1
100
AcDbSymbolTableRecord
100
AcDbBlockTableRecord
  2
*MODEL_SPACE
340
33D
  0
BLOCK_RECORD
  5
17
102
{ACAD_XDICTIONARY
360
368
102
}
330
1
100
AcDbSymbolTableRecord
100
AcDbBlockTableRecord
  2
*PAPER_SPACE
340
33E
  0
BLOCK_RECORD
  5
B2
330
1
100
AcDbSymbolTableRecord
100
AcDbBlockTableRecord
  2
_OPEN
340
0
102
{BLKREFS
331
810C
331
810D
331
8127
331
8128
331
8103
331
8104
331
811E
331
811F
331
8115
331
8116
102
}
  0
BLOCK_RECORD
  5
7A29
330
1
100
AcDbSymbolTableRecord
100
AcDbBlockTableRecord
  2
*X1
340
0
102
{BLKREFS
331
7E1C
102
}
  0
BLOCK_RECORD
  5
7EC2
330
1
100
AcDbSymbolTableRecord
100
AcDbBlockTableRecord
  2
*D2
340
0
  0
BLOCK_RECORD
  5
7ECE
330
1
100
AcDbSymbolTableRecord
100
AcDbBlockTableRecord
  2
*D3
340
0
  0
BLOCK_RECORD
  5
7EDA
330
1
100
AcDbSymbolTableRecord
100
AcDbBlockTableRecord
  2
*D4
340
0
  0
BLOCK_RECORD
  5
7F1D
330
1
100
AcDbSymbolTableRecord
100
AcDbBlockTableRecord
  2
*D5
340
0
  0
BLOCK_RECORD
  5
7FE9
330
1
100
AcDbSymbolTableRecord
100
AcDbBlockTableRecord
  2
*D6
340
0
  0
ENDTAB
  0
ENDSEC
  0
SECTION
  2
BLOCKS
  0
BLOCK
  5
1B
330
1A
100
AcDbEntity
  8
0
100
AcDbBlockBegin
  2
*MODEL_SPACE
 70
     0
 10
0.0
 20
0.0
 30
0.0
  3
*MODEL_SPACE
  1

  0
ENDBLK
  5
1C
330
1A
100
AcDbEntity
  8
0
100
AcDbBlockEnd
  0
BLOCK
  5
18
330
17
100
AcDbEntity
 67
     1
  8
0
100
AcDbBlockBegin
  2
*PAPER_SPACE
 70
     0
 10
0.0
 20
0.0
 30
0.0
  3
*PAPER_SPACE
  1

  0
ENDBLK
  5
19
330
17
100
AcDbEntity
 67
     1
  8
0
100
AcDbBlockEnd
  0
BLOCK
  5
B3
330
B2
100
AcDbEntity
  8
0
100
AcDbBlockBegin
  2
_OPEN
 70
     0
 10
0.0
 20
0.0
 30
0.0
  3
_OPEN
  1

  0
LINE
  5
B4
330
B2
100
AcDbEntity
  8
0
  6
ByBlock
 62
     0
100
AcDbLine
 10
-1.0
 20
0.1666666666666666
 30
0.0
 11
0.0
 21
0.0
 31
0.0
  0
LINE
  5
B5
330
B2
100
AcDbEntity
  8
0
  6
ByBlock
 62
     0
100
AcDbLine
 10
0.0
 20
0.0
 30
0.0
 11
-1.0
 21
-0.1666666666666666
 31
0.0
  0
LINE
  5
B6
330
B2
100
AcDbEntity
  8
0
  6
ByBlock
 62
     0
100
AcDbLine
 10
0.0
 20
0.0
 30
0.0
 11
-1.0
 21
0.0
 31
0.0
  0
ENDBLK
  5
B7
330
B2
100
AcDbEntity
  8
0
100
AcDbBlockEnd
  0
BLOCK
  5
7BBD
330
7A29
100
AcDbEntity
  8
0
100
AcDbBlockBegin
  2
*X1
 70
     1
 10
0.0
 20
0.0
 30
0.0
  3
*X1
  1

  0
LINE
  5
7A2A
330
7A29
100
AcDbEntity
  8
0
 62
     0
100
AcDbLine
 10
34.52110634279887
 20
11.30208408269516
 30
0.0
 11
34.19819087794136
 21
11.62499954755267
 31
0.0
  0
LINE
  5
7A2B
330
7A29
100
AcDbEntity
  8
0
 62
     0
100
AcDbLine
 10
34.52110634279885
 20
10.85307127664168
 30
0.0
 11
33.74917807188789
 21
11.62499954755267
 31
0.0
  0
LINE
  5
7A2C
330
7A29
100
AcDbEntity
  8
0
 62
     0
100
AcDbLine
 10
34.52110634279885
 20
10.40405847058824
 30
0.0
 11
33.3105393697914
 21
11.61462544359568
 31
0.0
  0
LINE
  5
7A2D
330
7A29
100
AcDbEntity
  8
0
 62
     0
100
AcDbLine
 10
34.52110634279885
 20
9.955045664534793
 30
0.0
 11
33.12110634279884
 21
11.35504566453483
 31
0.0
  0
LINE
  5
7A2E
330
7A29
100
AcDbEntity
  8
0
 62
     0
100
AcDbLine
 10
34.52110634279885
 20
9.506032858481347
 30
0.0
 11
33.12110634279881
 21
10.90603285848135
 31
0.0
  0
LINE
  5
7A2F
330
7A29
100
AcDbEntity
  8
0
 62
     0
100
AcDbLine
 10
34.52110634279885
 20
9.057020052427873
 30
0.0
 11
33.12110634279881
 21
10.4570200524279
 31
0.0
  0
LINE
  5
7A30
330
7A29
100
AcDbEntity
  8
0
 62
     0
100
AcDbLine
 10
32.07110634279886
 20
11.05800724637441
 30
0.0
 11
31.50411404162063
 21
11.62499954755267
 31
0.0
  0
LINE
  5
7A31
330
7A29
100
AcDbEntity
  8
0
 62
     0
100
AcDbLine
 10
34.52110634279885
 20
8.608007246374427
 30
0.0
 11
33.12110634279881
 21
10.00800724637446
 31
0.0
  0
LINE
  5
7A32
330
7A29
100
AcDbEntity
  8
0
 62
     0
100
AcDbLine
 10
32.07110634279886
 20
10.60899444032097
 30
0.0
 11
31.05510123556721
 21
11.62499954755262
 31
0.0
  0
LINE
  5
7A33
330
7A29
100
AcDbEntity
  8
0
 62
     0
100
AcDbLine
 10
34.52110634279885
 20
8.158994440320981
 30
0.0
 11
33.12110634279881
 21
9.558994440321015
 31
0.0
  0
LINE
  5
7A34
330
7A29
100
AcDbEntity
  8
0
 62
     0
100
AcDbLine
 10
32.07110634279889
 20
10.15998163426746
 30
0.0
 11
30.71835086023029
 21
11.51273711683603
 31
0.0
  0
LINE
  5
7A35
330
7A29
100
AcDbEntity
  8
0
 62
     0
100
AcDbLine
 10
34.52110634279882
 20
7.709981634267506
 30
0.0
 11
33.12110634279881
 21
9.109981634267541
 31
0.0
  0
LINE
  5
7A36
330
7A29
100
AcDbEntity
  8
0
 62
     0
100
AcDbLine
 10
32.07110634279889
 20
9.710968828213992
 30
0.0
 11
30.67110634279888
 21
11.11096882821402
 31
0.0
  0
LINE
  5
7A37
330
7A29
100
AcDbEntity
  8
0
 62
     0
100
AcDbLine
 10
34.52110634279885
 20
7.26096882821406
 30
0.0
 11
33.12110634279881
 21
8.660968828214066
 31
0.0
  0
LINE
  5
7A38
330
7A29
100
AcDbEntity
  8
0
 62
     0
100
AcDbLine
 10
32.07110634279889
 20
9.261956022160575
 30
0.0
 11
30.67110634279885
 21
10.66195602216058
 31
0.0
  0
LINE
  5
7A39
330
7A29
100
AcDbEntity
  8
0
 62
     0
100
AcDbLine
 10
34.52110634279885
 20
6.811956022160615
 30
0.0
 11
33.12110634279881
 21
8.211956022160649
 31
0.0
  0
LINE
  5
7A3A
330
7A29
100
AcDbEntity
  8
0
 62
     0
100
AcDbLine
 10
32.07110634279889
 20
8.8129432161071
 30
0.0
 11
30.67110634279885
 21
10.21294321610713
 31
0.0
  0
LINE
  5
7A3B
330
7A29
100
AcDbEntity
  8
0
 62
     0
100
AcDbLine
 10
34.52110634279882
 20
6.36294321610714
 30
0.0
 11
33.12110634279878
 21
7.762943216107174
 31
0.0
  0
LINE
  5
7A3C
330
7A29
100
AcDbEntity
  8
0
 62
     0
100
AcDbLine
 10
32.07110634279886
 20
8.363930410053626
 30
0.0
 11
30.67110634279882
 21
9.76393041005366
 31
0.0
  0
LINE
  5
7A3D
330
7A29
100
AcDbEntity
  8
0
 62
     0
100
AcDbLine
 10
34.52110634279885
 20
5.913930410053637
 30
0.0
 11
33.12110634279878
 21
7.313930410053728
 31
0.0
  0
LINE
  5
7A3E
330
7A29
100
AcDbEntity
  8
0
 62
     0
100
AcDbLine
 10
32.07110634279889
 20
7.914917604000208
 30
0.0
 11
30.67110634279885
 21
9.314917604000243
 31
0.0
  0
LINE
  5
7A3F
330
7A29
100
AcDbEntity
  8
0
 62
     0
100
AcDbLine
 10
28.92110634279888
 20
11.06491760400021
 30
0.0
 11
28.36102439924639
 21
11.62499954755267
 31
0.0
  0
LINE
  5
7A40
330
7A29
100
AcDbEntity
  8
0
 62
     0
100
AcDbLine
 10
34.52110634279887
 20
5.46491760400022
 30
0.0
 11
33.12110634279881
 21
6.864917604000282
 31
0.0
  0
LINE
  5
7A41
330
7A29
100
AcDbEntity
  8
0
 62
     0
100
AcDbLine
 10
32.07110634279886
 20
7.465904797946734
 30
0.0
 11
30.67110634279885
 21
8.865904797946768
 31
0.0
  0
LINE
  5
7A42
330
7A29
100
AcDbEntity
  8
0
 62
     0
100
AcDbLine
 10
28.92110634279888
 20
10.61590479794674
 30
0.0
 11
27.91201159319295
 21
11.62499954755267
 31
0.0
  0
LINE
  5
7A43
330
7A29
100
AcDbEntity
  8
0
 62
     0
100
AcDbLine
 10
34.52110634279885
 20
5.015904797946745
 30
0.0
 11
33.12110634279884
 21
6.41590479794678
 31
0.0
  0
LINE
  5
7A44
330
7A29
100
AcDbEntity
  8
0
 62
     0
100
AcDbLine
 10
32.07110634279886
 20
7.016891991893288
 30
0.0
 11
30.67110634279882
 21
8.416891991893294
 31
0.0
  0
LINE
  5
7A45
330
7A29
100
AcDbEntity
  8
0
 62
     0
100
AcDbLine
 10
28.92110634279885
 20
10.16689199189329
 30
0.0
 11
27.57122498113677
 21
11.51677335355538
 31
0.0
  0
LINE
  5
7A46
330
7A29
100
AcDbEntity
  8
0
 62
     0
100
AcDbLine
 10
34.52110634279885
 20
4.566891991893299
 30
0.0
 11
33.12110634279881
 21
5.966891991893305
 31
0.0
  0
LINE
  5
7A47
330
7A29
100
AcDbEntity
  8
0
 62
     0
100
AcDbLine
 10
32.07110634279889
 20
6.567879185839814
 30
0.0
 11
30.67110634279885
 21
7.967879185839848
 31
0.0
  0
LINE
  5
7A48
330
7A29
100
AcDbEntity
  8
0
 62
     0
100
AcDbLine
 10
28.92110634279888
 20
9.717879185839819
 30
0.0
 11
27.52110634279887
 21
11.1178791858398
 31
0.0
  0
LINE
  5
7A49
330
7A29
100
AcDbEntity
  8
0
 62
     0
100
AcDbLine
 10
34.52110634279887
 20
4.117879185839825
 30
0.0
 11
33.12110634279884
 21
5.517879185839859
 31
0.0
  0
LINE
  5
7A4A
330
7A29
100
AcDbEntity
  8
0
 62
     0
100
AcDbLine
 10
32.07110634279886
 20
6.118866379786368
 30
0.0
 11
30.67110634279882
 21
7.518866379786402
 31
0.0
  0
LINE
  5
7A4B
330
7A29
100
AcDbEntity
  8
0
 62
     0
100
AcDbLine
 10
28.92110634279885
 20
9.268866379786373
 30
0.0
 11
27.52110634279887
 21
10.66886637978638
 31
0.0
  0
LINE
  5
7A4C
330
7A29
100
AcDbEntity
  8
0
 62
     0
100
AcDbLine
 10
34.48512366535388
 20
3.704849057231371
 30
0.0
 11
33.12110634279881
 21
5.068866379786413
 31
0.0
  0
LINE
  5
7A4D
330
7A29
100
AcDbEntity
  8
0
 62
     0
100
AcDbLine
 10
32.07110634279886
 20
5.669853573732922
 30
0.0
 11
30.67110634279882
 21
7.069853573732956
 31
0.0
  0
LINE
  5
7A4E
330
7A29
100
AcDbEntity
  8
0
 62
     0
100
AcDbLine
 10
28.92110634279885
 20
8.819853573732927
 30
0.0
 11
27.52110634279887
 21
10.2198535737329
 31
0.0
  0
LINE
  5
7A4F
330
7A29
100
AcDbEntity
  8
0
 62
     0
100
AcDbLine
 10
34.16596036897917
 20
3.574999547552607
 30
0.0
 11
33.12110634279881
 21
4.619853573732967
 31
0.0
  0
LINE
  5
7A50
330
7A29
100
AcDbEntity
  8
0
 62
     0
100
AcDbLine
 10
28.92110634279885
 20
8.370840767679453
 30
0.0
 11
27.52110634279885
 21
9.770840767679459
 31
0.0
  0
LINE
  5
7A51
330
7A29
100
AcDbEntity
  8
0
 62
     0
100
AcDbLine
 10
32.07110634279883
 20
5.220840767679447
 30
0.0
 11
30.67110634279882
 21
6.620840767679482
 31
0.0
  0
LINE
  5
7A52
330
7A29
100
AcDbEntity
  8
0
 62
     0
100
AcDbLine
 10
26.20860634279882
 20
11.08334076767946
 30
0.0
 11
25.66694756292566
 21
11.62499954755265
 31
0.0
  0
LINE
  5
7A53
330
7A29
100
AcDbEntity
  8
0
 62
     0
100
AcDbLine
 10
33.7169475629257
 20
3.574999547552579
 30
0.0
 11
33.12110634279881
 21
4.170840767679493
 31
0.0
  0
LINE
  5
7A54
330
7A29
100
AcDbEntity
  8
0
 62
     0
100
AcDbLine
 10
28.92110634279885
 20
7.921827961626036
 30
0.0
 11
27.52110634279887
 21
9.321827961626013
 31
0.0
  0
LINE
  5
7A55
330
7A29
100
AcDbEntity
  8
0
 62
     0
100
AcDbLine
 10
26.20860634279885
 20
10.63432796162604
 30
0.0
 11
25.21793475687221
 21
11.62499954755265
 31
0.0
  0
LINE
  5
7A56
330
7A29
100
AcDbEntity
  8
0
 62
     0
100
AcDbLine
 10
32.05812719247609
 20
4.784807111948794
 30
0.0
 11
30.67110634279882
 21
6.171827961626036
 31
0.0
  0
LINE
  5
7A57
330
7A29
100
AcDbEntity
  8
0
 62
     0
100
AcDbLine
 10
28.92110634279885
 20
7.472815155572561
 30
0.0
 11
27.52110634279885
 21
8.872815155572538
 31
0.0
  0
LINE
  5
7A58
330
7A29
100
AcDbEntity
  8
0
 62
     0
100
AcDbLine
 10
26.1108160697419
 20
10.28310542862951
 30
0.0
 11
24.76892195081877
 21
11.62499954755265
 31
0.0
  0
LINE
  5
7A59
330
7A29
100
AcDbEntity
  8
0
 62
     0
100
AcDbLine
 10
31.96163454484747
 20
4.432286953523913
 30
0.0
 11
30.67110634279882
 21
5.72281515557259
 31
0.0
  0
LINE
  5
7A5A
330
7A29
100
AcDbEntity
  8
0
 62
     0
100
AcDbLine
 10
28.92110634279882
 20
7.023802349519087
 30
0.0
 11
27.52110634279885
 21
8.423802349519093
 31
0.0
  0
LINE
  5
7A5B
330
7A29
100
AcDbEntity
  8
0
 62
     0
100
AcDbLine
 10
25.71990914476527
 20
10.22499954755264
 30
0.0
 11
24.31990914476529
 21
11.62499954755265
 31
0.0
  0
LINE
  5
7A5C
330
7A29
100
AcDbEntity
  8
0
 62
     0
100
AcDbLine
 10
31.79911860688566
 20
4.145790085432281
 30
0.0
 11
30.63534847321907
 21
5.309560219098869
 31
0.0
  0
LINE
  5
7A5D
330
7A29
100
AcDbEntity
  8
0
 62
     0
100
AcDbLine
 10
28.92110634279885
 20
6.574789543465669
 30
0.0
 11
27.52110634279887
 21
7.974789543465647
 31
0.0
  0
LINE
  5
7A5E
330
7A29
100
AcDbEntity
  8
0
 62
     0
100
AcDbLine
 10
25.27089633871185
 20
10.22499954755267
 30
0.0
 11
23.90211297412315
 21
11.59378291214136
 31
0.0
  0
LINE
  5
7A5F
330
7A29
100
AcDbEntity
  8
0
 62
     0
100
AcDbLine
 10
31.58309770822314
 20
3.912798178041384
 30
0.0
 11
30.43455565398523
 21
5.061340232279263
 31
0.0
  0
LINE
  5
7A60
330
7A29
100
AcDbEntity
  8
0
 62
     0
100
AcDbLine
 10
28.92110634279885
 20
6.125776737412195
 30
0.0
 11
27.52110634279885
 21
7.525776737412201
 31
0.0
  0
LINE
  5
7A61
330
7A29
100
AcDbEntity
  8
0
 62
     0
100
AcDbLine
 10
24.82188353265843
 20
10.22499954755261
 30
0.0
 11
23.56979276185652
 21
11.47709031835453
 31
0.0
  0
LINE
  5
7A62
330
7A29
100
AcDbEntity
  8
0
 62
     0
100
AcDbLine
 10
31.31501653576012
 20
3.731866544450923
 30
0.0
 11
30.07188353265843
 21
4.974999547552613
 31
0.0
  0
LINE
  5
7A63
330
7A29
100
AcDbEntity
  8
0
 62
     0
100
AcDbLine
 10
28.92110634279882
 20
5.676763931358749
 30
0.0
 11
27.52110634279885
 21
7.076763931358726
 31
0.0
  0
LINE
  5
7A64
330
7A29
100
AcDbEntity
  8
0
 62
     0
100
AcDbLine
 10
24.38376564061403
 20
10.21410463354354
 30
0.0
 11
23.29849229325143
 21
11.29937798090614
 31
0.0
  0
LINE
  5
7A65
330
7A29
100
AcDbEntity
  8
0
 62
     0
100
AcDbLine
 10
30.98681025580442
 20
3.611060018353157
 30
0.0
 11
29.62287072660493
 21
4.974999547552641
 31
0.0
  0
LINE
  5
7A66
330
7A29
100
AcDbEntity
  8
0
 62
     0
100
AcDbLine
 10
24.19610634279886
 20
9.95275112530524
 30
0.0
 11
23.07943626372915
 21
11.06942120437494
 31
0.0
  0
LINE
  5
7A67
330
7A29
100
AcDbEntity
  8
0
 62
     0
100
AcDbLine
 10
30.57385792055149
 20
3.574999547552607
 30
0.0
 11
27.52110634279882
 21
6.627751125305252
 31
0.0
  0
LINE
  5
7A68
330
7A29
100
AcDbEntity
  8
0
 62
     0
100
AcDbLine
 10
24.19610634279886
 20
9.503738319251795
 30
0.0
 11
22.91355080755267
 21
10.78629385449801
 31
0.0
  0
LINE
  5
7A69
330
7A29
100
AcDbEntity
  8
0
 62
     0
100
AcDbLine
 10
30.12484511449804
 20
3.574999547552607
 30
0.0
 11
27.52110634279885
 21
6.178738319251834
 31
0.0
  0
LINE
  5
7A6A
330
7A29
100
AcDbEntity
  8
0
 62
     0
100
AcDbLine
 10
24.29937848335072
 20
8.951453372646483
 30
0.0
 11
22.81246154787061
 21
10.43837030812659
 31
0.0
  0
LINE
  5
7A6B
330
7A29
100
AcDbEntity
  8
0
 62
     0
100
AcDbLine
 10
29.67583230844454
 20
3.574999547552636
 30
0.0
 11
27.52110634279885
 21
5.72972551319836
 31
0.0
  0
LINE
  5
7A6C
330
7A29
100
AcDbEntity
  8
0
 62
     0
100
AcDbLine
 10
26.40790819414448
 20
6.393910855799248
 30
0.0
 11
22.79610634279882
 21
10.00571270714491
 31
0.0
  0
LINE
  5
7A6D
330
7A29
100
AcDbEntity
  8
0
 62
     0
100
AcDbLine
 10
21.74610634279881
 20
11.05571270714489
 30
0.0
 11
21.17681950239108
 21
11.62499954755265
 31
0.0
  0
LINE
  5
7A6E
330
7A29
100
AcDbEntity
  8
0
 62
     0
100
AcDbLine
 10
29.22681950239113
 20
3.574999547552607
 30
0.0
 11
27.52110634279882
 21
5.280712707144914
 31
0.0
  0
LINE
  5
7A6F
330
7A29
100
AcDbEntity
  8
0
 62
     0
100
AcDbLine
 10
26.47110634279883
 20
5.881699901091479
 30
0.0
 11
22.79610634279882
 21
9.556699901091462
 31
0.0
  0
LINE
  5
7A70
330
7A29
100
AcDbEntity
  8
0
 62
     0
100
AcDbLine
 10
21.74610634279884
 20
10.60669990109147
 30
0.0
 11
20.72780669633766
 21
11.62499954755262
 31
0.0
  0
LINE
  5
7A71
330
7A29
100
AcDbEntity
  8
0
 62
     0
100
AcDbLine
 10
28.76958275696527
 20
3.583223486925049
 30
0.0
 11
27.52933028217126
 21
4.823475961719026
 31
0.0
  0
LINE
  5
7A72
330
7A29
100
AcDbEntity
  8
0
 62
     0
100
AcDbLine
 10
21.74610634279881
 20
10.157687095038
 30
0.0
 11
20.39241139891121
 21
11.51138203892563
 31
0.0
  0
LINE
  5
7A73
330
7A29
100
AcDbEntity
  8
0
 62
     0
100
AcDbLine
 10
26.47110634279883
 20
5.432687095038005
 30
0.0
 11
22.80781167674007
 21
9.095981761096737
 31
0.0
  0
LINE
  5
7A74
330
7A29
100
AcDbEntity
  8
0
 62
     0
100
AcDbLine
 10
21.74610634279881
 20
9.708674288984553
 30
0.0
 11
20.34610634279883
 21
11.10867428898453
 31
0.0
  0
LINE
  5
7A75
330
7A29
100
AcDbEntity
  8
0
 62
     0
100
AcDbLine
 10
26.47110634279886
 20
4.983674288984502
 30
0.0
 11
22.96687138566017
 21
8.487909246123194
 31
0.0
  0
LINE
  5
7A76
330
7A29
100
AcDbEntity
  8
0
 62
     0
100
AcDbLine
 10
21.74610634279884
 20
9.259661482931079
 30
0.0
 11
20.34610634279883
 21
10.65966148293105
 31
0.0
  0
LINE
  5
7A77
330
7A29
100
AcDbEntity
  8
0
 62
     0
100
AcDbLine
 10
26.41682543400432
 20
4.588942391725595
 30
0.0
 11
25.06900803948511
 21
5.936759786244806
 31
0.0
  0
LINE
  5
7A78
330
7A29
100
AcDbEntity
  8
0
 62
     0
100
AcDbLine
 10
21.74610634279881
 20
8.810648676877661
 30
0.0
 11
20.34610634279883
 21
10.21064867687764
 31
0.0
  0
LINE
  5
7A79
330
7A29
100
AcDbEntity
  8
0
 62
     0
100
AcDbLine
 10
19.20036289251033
 20
11.35639212716614
 30
0.0
 11
18.93175547212382
 21
11.62499954755265
 31
0.0
  0
LINE
  5
7A7A
330
7A29
100
AcDbEntity
  8
0
 62
     0
100
AcDbLine
 10
26.28288758012349
 20
4.273867439552986
 30
0.0
 11
25.07110634279889
 21
5.485648676877588
 31
0.0
  0
LINE
  5
7A7B
330
7A29
100
AcDbEntity
  8
0
 62
     0
100
AcDbLine
 10
21.74610634279881
 20
8.361635870824187
 30
0.0
 11
20.3461063427988
 21
9.761635870824164
 31
0.0
  0
LINE
  5
7A7C
330
7A29
100
AcDbEntity
  8
0
 62
     0
100
AcDbLine
 10
19.10089906038402
 20
11.00684315323897
 30
0.0
 11
18.48274266607032
 21
11.62499954755267
 31
0.0
  0
LINE
  5
7A7D
330
7A29
100
AcDbEntity
  8
0
 62
     0
100
AcDbLine
 10
26.09139418103584
 20
4.016348032587131
 30
0.0
 11
25.02246375135559
 21
5.085278462267382
 31
0.0
  0
LINE
  5
7A7E
330
7A29
100
AcDbEntity
  8
0
 62
     0
100
AcDbLine
 10
21.74610634279878
 20
7.912623064770713
 30
0.0
 11
20.3461063427988
 21
9.312623064770718
 31
0.0
  0
LINE
  5
7A7F
330
7A29
100
AcDbEntity
  8
0
 62
     0
100
AcDbLine
 10
18.99313598693121
 20
10.66559342063831
 30
0.0
 11
18.03852820519586
 21
11.62020120237363
 31
0.0
  0
LINE
  5
7A80
330
7A29
100
AcDbEntity
  8
0
 62
     0
100
AcDbLine
 10
25.848234698478
 20
3.8104947090915
 30
0.0
 11
24.68372986001691
 21
4.974999547552613
 31
0.0
  0
LINE
  5
7A81
330
7A29
100
AcDbEntity
  8
0
 62
     0
100
AcDbLine
 10
21.74610634279881
 20
7.463610258717295
 30
0.0
 11
20.34610634279886
 21
8.863610258717244
 31
0.0
  0
LINE
  5
7A82
330
7A29
100
AcDbEntity
  8
0
 62
     0
100
AcDbLine
 10
18.88537291347839
 20
10.32434368803768
 30
0.0
 11
17.82137291347837
 21
11.38834368803773
 31
0.0
  0
LINE
  5
7A83
330
7A29
100
AcDbEntity
  8
0
 62
     0
100
AcDbLine
 10
25.55019272424781
 20
3.65952387726827
 30
0.0
 11
24.23471705396349
 21
4.974999547552613
 31
0.0
  0
LINE
  5
7A84
330
7A29
100
AcDbEntity
  8
0
 62
     0
100
AcDbLine
 10
21.74610634279881
 20
7.014597452663821
 30
0.0
 11
20.34610634279886
 21
8.41459745266377
 31
0.0
  0
LINE
  5
7A85
330
7A29
100
AcDbEntity
  8
0
 62
     0
100
AcDbLine
 10
18.77760984002552
 20
9.983093955437112
 30
0.0
 11
17.7136098400255
 21
11.04709395543713
 31
0.0
  0
LINE
  5
7A86
330
7A29
100
AcDbEntity
  8
0
 62
     0
100
AcDbLine
 10
25.18135639842407
 20
3.57934739703856
 30
0.0
 11
23.78570424790999
 21
4.974999547552641
 31
0.0
  0
LINE
  5
7A87
330
7A29
100
AcDbEntity
  8
0
 62
     0
100
AcDbLine
 10
21.74610634279878
 20
6.565584646610375
 30
0.0
 11
20.34610634279883
 21
7.965584646610295
 31
0.0
  0
LINE
  5
7A88
330
7A29
100
AcDbEntity
  8
0
 62
     0
100
AcDbLine
 10
18.6698467665727
 20
9.641844222836425
 30
0.0
 11
17.60584676657268
 21
10.70584422283647
 31
0.0
  0
LINE
  5
7A89
330
7A29
100
AcDbEntity
  8
0
 62
     0
100
AcDbLine
 10
24.73669144185655
 20
3.574999547552607
 30
0.0
 11
23.33669144185649
 21
4.97499954755267
 31
0.0
  0
LINE
  5
7A8A
330
7A29
100
AcDbEntity
  8
0
 62
     0
100
AcDbLine
 10
21.74610634279881
 20
6.116571840556929
 30
0.0
 11
20.34610634279886
 21
7.516571840556878
 31
0.0
  0
LINE
  5
7A8B
330
7A29
100
AcDbEntity
  8
0
 62
     0
100
AcDbLine
 10
18.56208369311986
 20
9.30059449023588
 30
0.0
 11
17.49808369311984
 21
10.3645944902359
 31
0.0
  0
LINE
  5
7A8C
330
7A29
100
AcDbEntity
  8
0
 62
     0
100
AcDbLine
 10
24.2876786358031
 20
3.574999547552636
 30
0.0
 11
23.07087278715494
 21
4.7918053962008
 31
0.0
  0
LINE
  5
7A8D
330
7A29
100
AcDbEntity
  8
0
 62
     0
100
AcDbLine
 10
18.45432061966707
 20
8.959344757635193
 30
0.0
 11
17.39032061966702
 21
10.02334475763521
 31
0.0
  0
LINE
  5
7A8E
330
7A29
100
AcDbEntity
  8
0
 62
     0
100
AcDbLine
 10
21.74610634279878
 20
5.667559034503454
 30
0.0
 11
20.34610634279883
 21
7.067559034503403
 31
0.0
  0
LINE
  5
7A8F
330
7A29
100
AcDbEntity
  8
0
 62
     0
100
AcDbLine
 10
16.32110634279885
 20
11.09255903450341
 30
0.0
 11
15.78866582974959
 21
11.62499954755267
 31
0.0
  0
LINE
  5
7A90
330
7A29
100
AcDbEntity
  8
0
 62
     0
100
AcDbLine
 10
23.83866582974966
 20
3.574999547552607
 30
0.0
 11
23.05860634279887
 21
4.355059034503398
 31
0.0
  0
LINE
  5
7A91
330
7A29
100
AcDbEntity
  8
0
 62
     0
100
AcDbLine
 10
18.34655754621417
 20
8.618095025034591
 30
0.0
 11
17.28255754621415
 21
9.682095025034641
 31
0.0
  0
LINE
  5
7A92
330
7A29
100
AcDbEntity
  8
0
 62
     0
100
AcDbLine
 10
21.74610634279881
 20
5.218546228449952
 30
0.0
 11
20.34610634279883
 21
6.618546228449957
 31
0.0
  0
LINE
  5
7A93
330
7A29
100
AcDbEntity
  8
0
 62
     0
100
AcDbLine
 10
16.32110634279885
 20
10.64354622844993
 30
0.0
 11
15.33965302369617
 21
11.62499954755262
 31
0.0
  0
LINE
  5
7A94
330
7A29
100
AcDbEntity
  8
0
 62
     0
100
AcDbLine
 10
23.38965302369619
 20
3.574999547552607
 30
0.0
 11
23.05860634279884
 21
3.906046228449952
 31
0.0
  0
LINE
  5
7A95
330
7A29
100
AcDbEntity
  8
0
 62
     0
100
AcDbLine
 10
18.23879447276138
 20
8.276845292433932
 30
0.0
 11
17.17479447276136
 21
9.340845292433954
 31
0.0
  0
LINE
  5
7A96
330
7A29
100
AcDbEntity
  8
0
 62
     0
100
AcDbLine
 10
16.32110634279888
 20
10.19453342239643
 30
0.0
 11
14.98338387835
 21
11.53225588684532
 31
0.0
  0
LINE
  5
7A97
330
7A29
100
AcDbEntity
  8
0
 62
     0
100
AcDbLine
 10
21.74610634279881
 20
4.769533422396506
 30
0.0
 11
20.34610634279883
 21
6.169533422396483
 31
0.0
  0
LINE
  5
7A98
330
7A29
100
AcDbEntity
  8
0
 62
     0
100
AcDbLine
 10
18.13103139930854
 20
7.935595559833359
 30
0.0
 11
17.06703139930849
 21
8.999595559833409
 31
0.0
  0
LINE
  5
7A99
330
7A29
100
AcDbEntity
  8
0
 62
     0
100
AcDbLine
 10
16.32110634279888
 20
9.745520616342986
 30
0.0
 11
14.92110634279882
 21
11.14552061634308
 31
0.0
  0
LINE
  5
7A9A
330
7A29
100
AcDbEntity
  8
0
 62
     0
100
AcDbLine
 10
21.74610634279884
 20
4.32052061634306
 30
0.0
 11
20.34610634279883
 21
5.720520616343065
 31
0.0
  0
LINE
  5
7A9B
330
7A29
100
AcDbEntity
  8
0
 62
     0
100
AcDbLine
 10
18.02848714461257
 20
7.589127008475855
 30
0.0
 11
16.9592683258557
 21
8.658345827232722
 31
0.0
  0
LINE
  5
7A9C
330
7A29
100
AcDbEntity
  8
0
 62
     0
100
AcDbLine
 10
16.32110634279888
 20
9.29650781028954
 30
0.0
 11
14.92110634279882
 21
10.6965078102896
 31
0.0
  0
LINE
  5
7A9D
330
7A29
100
AcDbEntity
  8
0
 62
     0
100
AcDbLine
 10
21.74610634279881
 20
3.871507810289614
 30
0.0
 11
20.34610634279886
 21
5.271507810289534
 31
0.0
  0
LINE
  5
7A9E
330
7A29
100
AcDbEntity
  8
0
 62
     0
100
AcDbLine
 10
18.23572382432962
 20
6.932877522705325
 30
0.0
 11
16.81399457801331
 21
8.354606769021643
 31
0.0
  0
LINE
  5
7A9F
330
7A29
100
AcDbEntity
  8
0
 62
     0
100
AcDbLine
 10
16.32110634279885
 20
8.847495004236066
 30
0.0
 11
14.92110634279879
 21
10.24749500423613
 31
0.0
  0
LINE
  5
7AA0
330
7A29
100
AcDbEntity
  8
0
 62
     0
100
AcDbLine
 10
21.57658384413261
 20
3.592017502902336
 30
0.0
 11
20.34610634279886
 21
4.822495004236088
 31
0.0
  0
LINE
  5
7AA1
330
7A29
100
AcDbEntity
  8
0
 62
     0
100
AcDbLine
 10
18.44296050404659
 20
6.276628036934937
 30
0.0
 11
14.92110634279882
 21
9.798482198182711
 31
0.0
  0
LINE
  5
7AA2
330
7A29
100
AcDbEntity
  8
0
 62
     0
100
AcDbLine
 10
13.69610634279888
 20
11.02348219818265
 30
0.0
 11
13.09458899342885
 21
11.62499954755265
 31
0.0
  0
LINE
  5
7AA3
330
7A29
100
AcDbEntity
  8
0
 62
     0
100
AcDbLine
 10
21.1445889934289
 20
3.574999547552636
 30
0.0
 11
20.34610634279886
 21
4.373482198182642
 31
0.0
  0
LINE
  5
7AA4
330
7A29
100
AcDbEntity
  8
0
 62
     0
100
AcDbLine
 10
18.65019718376359
 20
5.620378551164463
 30
0.0
 11
14.92110634279879
 21
9.349469392129236
 31
0.0
  0
LINE
  5
7AA5
330
7A29
100
AcDbEntity
  8
0
 62
     0
100
AcDbLine
 10
13.69610634279888
 20
10.57446939212917
 30
0.0
 11
12.64557618737544
 21
11.62499954755262
 31
0.0
  0
LINE
  5
7AA6
330
7A29
100
AcDbEntity
  8
0
 62
     0
100
AcDbLine
 10
20.69557618737542
 20
3.574999547552636
 30
0.0
 11
20.34610634279886
 21
3.924469392129196
 31
0.0
  0
LINE
  5
7AA7
330
7A29
100
AcDbEntity
  8
0
 62
     0
100
AcDbLine
 10
13.56265299510374
 20
10.25890993377084
 30
0.0
 11
12.21254213599803
 21
11.60902079287652
 31
0.0
  0
LINE
  5
7AA8
330
7A29
100
AcDbEntity
  8
0
 62
     0
100
AcDbLine
 10
18.85743386348056
 20
4.964129065394018
 30
0.0
 11
14.92110634279879
 21
8.90045658607579
 31
0.0
  0
LINE
  5
7AA9
330
7A29
100
AcDbEntity
  8
0
 62
     0
100
AcDbLine
 10
16.48986080396958
 20
6.882689318851561
 30
0.0
 11
14.92110634279885
 21
8.451443780022287
 31
0.0
  0
LINE
  5
7AAA
330
7A29
100
AcDbEntity
  8
0
 62
     0
100
AcDbLine
 10
13.1475505752685
 20
10.22499954755264
 30
0.0
 11
11.8435206012044
 21
11.52902952161673
 31
0.0
  0
LINE
  5
7AAB
330
7A29
100
AcDbEntity
  8
0
 62
     0
100
AcDbLine
 10
19.06467054319759
 20
4.307879579623545
 30
0.0
 11
17.01851669704359
 21
6.354033425777544
 31
0.0
  0
LINE
  5
7AAC
330
7A29
100
AcDbEntity
  8
0
 62
     0
100
AcDbLine
 10
16.32110634279891
 20
6.602430973968779
 30
0.0
 11
14.92110634279885
 21
8.002430973968841
 31
0.0
  0
LINE
  5
7AAD
330
7A29
100
AcDbEntity
  8
0
 62
     0
100
AcDbLine
 10
12.69853776921502
 20
10.22499954755264
 30
0.0
 11
11.52415989328904
 21
11.39937742347862
 31
0.0
  0
LINE
  5
7AAE
330
7A29
100
AcDbEntity
  8
0
 62
     0
100
AcDbLine
 10
19.18218997205284
 20
3.741347344714853
 30
0.0
 11
17.22575337676056
 21
5.697783940007127
 31
0.0
  0
LINE
  5
7AAF
330
7A29
100
AcDbEntity
  8
0
 62
     0
100
AcDbLine
 10
16.32110634279885
 20
6.153418167915361
 30
0.0
 11
14.92110634279882
 21
7.553418167915395
 31
0.0
  0
LINE
  5
7AB0
330
7A29
100
AcDbEntity
  8
0
 62
     0
100
AcDbLine
 10
12.27698101794326
 20
10.19754349277096
 30
0.0
 11
11.24478540562177
 21
11.22973910509245
 31
0.0
  0
LINE
  5
7AB1
330
7A29
100
AcDbEntity
  8
0
 62
     0
100
AcDbLine
 10
18.89952496316155
 20
3.574999547552664
 30
0.0
 11
17.43299005647756
 21
5.041534454236654
 31
0.0
  0
LINE
  5
7AB2
330
7A29
100
AcDbEntity
  8
0
 62
     0
100
AcDbLine
 10
16.32110634279885
 20
5.704405361861887
 30
0.0
 11
14.92110634279882
 21
7.104405361861921
 31
0.0
  0
LINE
  5
7AB3
330
7A29
100
AcDbEntity
  8
0
 62
     0
100
AcDbLine
 10
11.99105292152376
 20
10.03445878313698
 30
0.0
 11
11.00095780131588
 21
11.02455390334486
 31
0.0
  0
LINE
  5
7AB4
330
7A29
100
AcDbEntity
  8
0
 62
     0
100
AcDbLine
 10
18.4505121571081
 20
3.574999547552636
 30
0.0
 11
17.6402267361945
 21
4.385284968466237
 31
0.0
  0
LINE
  5
7AB5
330
7A29
100
AcDbEntity
  8
0
 62
     0
100
AcDbLine
 10
13.86382090919767
 20
7.712677989409655
 30
0.0
 11
13.1087847846558
 21
8.467714113951501
 31
0.0
  0
LINE
  5
7AB6
330
7A29
100
AcDbEntity
  8
0
 62
     0
100
AcDbLine
 10
16.32110634279885
 20
5.255392555808469
 30
0.0
 11
14.92110634279882
 21
6.655392555808475
 31
0.0
  0
LINE
  5
7AB7
330
7A29
100
AcDbEntity
  8
0
 62
     0
100
AcDbLine
 10
11.81299213645928
 20
9.76350676214804
 30
0.0
 11
10.79127478831026
 21
10.78522411029706
 31
0.0
  0
LINE
  5
7AB8
330
7A29
100
AcDbEntity
  8
0
 62
     0
100
AcDbLine
 10
17.97633284895226
 20
3.600166049655058
 30
0.0
 11
17.85115576315692
 21
3.725343135450401
 31
0.0
  0
LINE
  5
7AB9
330
7A29
100
AcDbEntity
  8
0
 62
     0
100
AcDbLine
 10
13.82056407912671
 20
7.30692201342714
 30
0.0
 11
12.70302880867328
 21
8.424457283880542
 31
0.0
  0
LINE
  5
7ABA
330
7A29
100
AcDbEntity
  8
0
 62
     0
100
AcDbLine
 10
11.77110634279887
 20
9.356379749754978
 30
0.0
 11
10.61680527782943
 21
10.51068081472442
 31
0.0
  0
LINE
  5
7ABB
330
7A29
100
AcDbEntity
  8
0
 62
     0
100
AcDbLine
 10
16.32110634279885
 20
4.806379749754995
 30
0.0
 11
14.92110634279882
 21
6.206379749755029
 31
0.0
  0
LINE
  5
7ABC
330
7A29
100
AcDbEntity
  8
0
 62
     0
100
AcDbLine
 10
13.65463629947771
 20
7.023836987022662
 30
0.0
 11
12.41994378226883
 21
8.258529504231546
 31
0.0
  0
LINE
  5
7ABD
330
7A29
100
AcDbEntity
  8
0
 62
     0
100
AcDbLine
 10
11.77110634279884
 20
8.907366943701532
 30
0.0
 11
10.48151542422434
 21
10.19695786227603
 31
0.0
  0
LINE
  5
7ABE
330
7A29
100
AcDbEntity
  8
0
 62
     0
100
AcDbLine
 10
16.32110634279882
 20
4.357366943701521
 30
0.0
 11
14.92110634279882
 21
5.757366943701555
 31
0.0
  0
LINE
  5
7ABF
330
7A29
100
AcDbEntity
  8
0
 62
     0
100
AcDbLine
 10
11.77110634279887
 20
8.458354137648086
 30
0.0
 11
10.39415848776141
 21
9.835301992685543
 31
0.0
  0
LINE
  5
7AC0
330
7A29
100
AcDbEntity
  8
0
 62
     0
100
AcDbLine
 10
13.40371957840946
 20
6.825740902037495
 30
0.0
 11
12.22184769728366
 21
8.007612783163295
 31
0.0
  0
LINE
  5
7AC1
330
7A29
100
AcDbEntity
  8
0
 62
     0
100
AcDbLine
 10
9.05860634279881
 20
11.17085413764812
 30
0.0
 11
8.604460932894284
 21
11.62499954755267
 31
0.0
  0
LINE
  5
7AC2
330
7A29
100
AcDbEntity
  8
0
 62
     0
100
AcDbLine
 10
16.32110634279885
 20
3.908354137648103
 30
0.0
 11
14.92110634279882
 21
5.308354137648137
 31
0.0
  0
LINE
  5
7AC3
330
7A29
100
AcDbEntity
  8
0
 62
     0
100
AcDbLine
 10
11.77110634279884
 20
8.009341331594612
 30
0.0
 11
10.37110634279878
 21
9.409341331594703
 31
0.0
  0
LINE
  5
7AC4
330
7A29
100
AcDbEntity
  8
0
 62
     0
100
AcDbLine
 10
13.05355985719575
 20
6.726887817197734
 30
0.0
 11
12.12299461244387
 21
7.657453061949581
 31
0.0
  0
LINE
  5
7AC5
330
7A29
100
AcDbEntity
  8
0
 62
     0
100
AcDbLine
 10
9.05860634279881
 20
10.72184133159467
 30
0.0
 11
8.155448126840809
 21
11.62499954755265
 31
0.0
  0
LINE
  5
7AC6
330
7A29
100
AcDbEntity
  8
0
 62
     0
100
AcDbLine
 10
16.1771544421635
 20
3.603293232229987
 30
0.0
 11
14.92110634279882
 21
4.859341331594663
 31
0.0
  0
LINE
  5
7AC7
330
7A29
100
AcDbEntity
  8
0
 62
     0
100
AcDbLine
 10
11.77110634279884
 20
7.560328525541166
 30
0.0
 11
10.37110634279878
 21
8.960328525541228
 31
0.0
  0
LINE
  5
7AC8
330
7A29
100
AcDbEntity
  8
0
 62
     0
100
AcDbLine
 10
9.004089357663644
 20
10.32734551067636
 30
0.0
 11
7.706435320787363
 21
11.62499954755265
 31
0.0
  0
LINE
  5
7AC9
330
7A29
100
AcDbEntity
  8
0
 62
     0
100
AcDbLine
 10
15.7564353207874
 20
3.574999547552579
 30
0.0
 11
14.92110634279879
 21
4.410328525541189
 31
0.0
  0
LINE
  5
7ACA
330
7A29
100
AcDbEntity
  8
0
 62
     0
100
AcDbLine
 10
11.77110634279884
 20
7.111315719487691
 30
0.0
 11
10.37110634279875
 21
8.511315719487754
 31
0.0
  0
LINE
  5
7ACB
330
7A29
100
AcDbEntity
  8
0
 62
     0
100
AcDbLine
 10
8.657422514733895
 20
10.22499954755264
 30
0.0
 11
7.257422514733889
 21
11.62499954755262
 31
0.0
  0
LINE
  5
7ACC
330
7A29
100
AcDbEntity
  8
0
 62
     0
100
AcDbLine
 10
15.3074225147339
 20
3.574999547552607
 30
0.0
 11
14.92110634279879
 21
3.961315719487743
 31
0.0
  0
LINE
  5
7ACD
330
7A29
100
AcDbEntity
  8
0
 62
     0
100
AcDbLine
 10
11.77110634279884
 20
6.662302913434274
 30
0.0
 11
10.37110634279878
 21
8.062302913434336
 31
0.0
  0
LINE
  5
7ACE
330
7A29
100
AcDbEntity
  8
0
 62
     0
100
AcDbLine
 10
8.208409708680477
 20
10.22499954755261
 30
0.0
 11
6.825845072628055
 21
11.60756418360506
 31
0.0
  0
LINE
  5
7ACF
330
7A29
100
AcDbEntity
  8
0
 62
     0
100
AcDbLine
 10
13.69480511838031
 20
4.738604137852775
 30
0.0
 11
13.45971093309896
 21
4.973698323134158
 31
0.0
  0
LINE
  5
7AD0
330
7A29
100
AcDbEntity
  8
0
 62
     0
100
AcDbLine
 10
11.77110634279884
 20
6.2132901073808
 30
0.0
 11
10.37110634279881
 21
7.613290107380834
 31
0.0
  0
LINE
  5
7AD1
330
7A29
100
AcDbEntity
  8
0
 62
     0
100
AcDbLine
 10
7.759396902626974
 20
10.22499954755264
 30
0.0
 11
6.479277668388817
 21
11.50511878179083
 31
0.0
  0
LINE
  5
7AD2
330
7A29
100
AcDbEntity
  8
0
 62
     0
100
AcDbLine
 10
13.69610634279885
 20
4.28829010738076
 30
0.0
 11
13.009396902627
 21
4.974999547552641
 31
0.0
  0
LINE
  5
7AD3
330
7A29
100
AcDbEntity
  8
0
 62
     0
100
AcDbLine
 10
11.77110634279881
 20
5.764277301327325
 30
0.0
 11
10.37110634279881
 21
7.164277301327359
 31
0.0
  0
LINE
  5
7AD4
330
7A29
100
AcDbEntity
  8
0
 62
     0
100
AcDbLine
 10
7.310384096573528
 20
10.22499954755264
 30
0.0
 11
6.197154338465225
 21
11.33822930566094
 31
0.0
  0
LINE
  5
7AD5
330
7A29
100
AcDbEntity
  8
0
 62
     0
100
AcDbLine
 10
13.69610634279885
 20
3.839277301327314
 30
0.0
 11
12.56038409657353
 21
4.974999547552641
 31
0.0
  0
LINE
  5
7AD6
330
7A29
100
AcDbEntity
  8
0
 62
     0
100
AcDbLine
 10
7.055237682766289
 20
10.03113315530643
 30
0.0
 11
5.968107932344821
 21
11.1182629057279
 31
0.0
  0
LINE
  5
7AD7
330
7A29
100
AcDbEntity
  8
0
 62
     0
100
AcDbLine
 10
13.50223995055262
 20
3.584130887520132
 30
0.0
 11
10.37110634279881
 21
6.715264495273942
 31
0.0
  0
LINE
  5
7AD8
330
7A29
100
AcDbEntity
  8
0
 62
     0
100
AcDbLine
 10
7.046106342798879
 20
9.591251689220399
 30
0.0
 11
5.791367331110308
 21
10.84599070090897
 31
0.0
  0
LINE
  5
7AD9
330
7A29
100
AcDbEntity
  8
0
 62
     0
100
AcDbLine
 10
13.06235848446667
 20
3.574999547552607
 30
0.0
 11
10.37110634279881
 21
6.266251689220467
 31
0.0
  0
LINE
  5
7ADA
330
7A29
100
AcDbEntity
  8
0
 62
     0
100
AcDbLine
 10
7.077174196866678
 20
9.111171029099125
 30
0.0
 11
5.675927279963417
 21
10.51241794600239
 31
0.0
  0
LINE
  5
7ADB
330
7A29
100
AcDbEntity
  8
0
 62
     0
100
AcDbLine
 10
12.61334567841319
 20
3.574999547552607
 30
0.0
 11
10.37110634279878
 21
5.817238883166993
 31
0.0
  0
LINE
  5
7ADC
330
7A29
100
AcDbEntity
  8
0
 62
     0
100
AcDbLine
 10
9.223294388410153
 20
6.516038031502176
 30
0.0
 11
5.646106342798844
 21
10.09322607711351
 31
0.0
  0
LINE
  5
7ADD
330
7A29
100
AcDbEntity
  8
0
 62
     0
100
AcDbLine
 10
12.13769682883139
 20
3.601635591080963
 30
0.0
 11
10.39774238632711
 21
5.341590033585248
 31
0.0
  0
LINE
  5
7ADE
330
7A29
100
AcDbEntity
  8
0
 62
     0
100
AcDbLine
 10
9.319241645452763
 20
5.971077968406149
 30
0.0
 11
5.646106342798844
 21
9.644213271060067
 31
0.0
  0
LINE
  5
7ADF
330
7A29
100
AcDbEntity
  8
0
 62
     0
100
AcDbLine
 10
11.4507928725306
 20
3.839526741328285
 30
0.0
 11
10.6356335365744
 21
4.654686077284509
 31
0.0
  0
LINE
  5
7AE0
330
7A29
100
AcDbEntity
  8
0
 62
     0
100
AcDbLine
 10
9.321106342798856
 20
5.520200465006553
 30
0.0
 11
5.649888566509957
 21
9.191418241295451
 31
0.0
  0
LINE
  5
7AE1
330
7A29
100
AcDbEntity
  8
0
 62
     0
100
AcDbLine
 10
9.321106342798884
 20
5.07118765895305
 30
0.0
 11
5.761533945671885
 21
8.630760056080049
 31
0.0
  0
LINE
  5
7AE2
330
7A29
100
AcDbEntity
  8
0
 62
     0
100
AcDbLine
 10
9.284846344732812
 20
4.658434850965733
 30
0.0
 11
7.903150522923311
 21
6.040130672775234
 31
0.0
  0
LINE
  5
7AE3
330
7A29
100
AcDbEntity
  8
0
 62
     0
100
AcDbLine
 10
9.16387737521839
 20
4.33039101442668
 30
0.0
 11
7.921106342798879
 21
5.573162046846192
 31
0.0
  0
LINE
  5
7AE4
330
7A29
100
AcDbEntity
  8
0
 62
     0
100
AcDbLine
 10
8.982817751527505
 20
4.062437832064091
 30
0.0
 11
7.903156826648455
 21
5.142098756943113
 31
0.0
  0
LINE
  5
7AE5
330
7A29
100
AcDbEntity
  8
0
 62
     0
100
AcDbLine
 10
8.749704565394068
 20
3.846538212144082
 30
0.0
 11
7.621243229985509
 21
4.97499954755267
 31
0.0
  0
LINE
  5
7AE6
330
7A29
100
AcDbEntity
  8
0
 62
     0
100
AcDbLine
 10
8.463072341527663
 20
3.684157629957041
 30
0.0
 11
7.172230423932035
 21
4.974999547552641
 31
0.0
  0
LINE
  5
7AE7
330
7A29
100
AcDbEntity
  8
0
 62
     0
100
AcDbLine
 10
8.110366046984694
 20
3.587851118446536
 30
0.0
 11
6.723217617878589
 21
4.974999547552641
 31
0.0
  0
LINE
  5
7AE8
330
7A29
100
AcDbEntity
  8
0
 62
     0
100
AcDbLine
 10
7.674204811825148
 20
3.574999547552607
 30
0.0
 11
6.274204811825171
 21
4.974999547552584
 31
0.0
  0
LINE
  5
7AE9
330
7A29
100
AcDbEntity
  8
0
 62
     0
100
AcDbLine
 10
7.225192005771702
 20
3.574999547552607
 30
0.0
 11
5.948530058362763
 21
4.851661494961575
 31
0.0
  0
LINE
  5
7AEA
330
7A29
100
AcDbEntity
  8
0
 62
     0
100
AcDbLine
 10
6.7761791997182
 20
3.574999547552636
 30
0.0
 11
5.908606342798805
 21
4.442572404472031
 31
0.0
  0
LINE
  5
7AEB
330
7A29
100
AcDbEntity
  8
0
 62
     0
100
AcDbLine
 10
6.327166393664754
 20
3.574999547552636
 30
0.0
 11
5.908606342798805
 21
3.993559598418585
 31
0.0
  0
LINE
  5
7AEC
330
7A29
100
AcDbEntity
  8
0
 62
     0
100
AcDbLine
 10
34.31694998513226
 20
3.581565436111389
 30
0.0
 11
34.51454045424015
 21
3.779155905219283
 31
0.0
  0
LINE
  5
7AED
330
7A29
100
AcDbEntity
  8
0
 62
     0
100
AcDbLine
 10
33.86137129052003
 20
3.574999547552579
 30
0.0
 11
34.5211063427989
 21
4.234734599831455
 31
0.0
  0
LINE
  5
7AEE
330
7A29
100
AcDbEntity
  8
0
 62
     0
100
AcDbLine
 10
33.41235848446661
 20
3.574999547552636
 30
0.0
 11
34.5211063427989
 21
4.683747405884929
 31
0.0
  0
LINE
  5
7AEF
330
7A29
100
AcDbEntity
  8
0
 62
     0
100
AcDbLine
 10
33.13670512442471
 20
3.748358993564181
 30
0.0
 11
34.5211063427989
 21
5.132760211938375
 31
0.0
  0
LINE
  5
7AF0
330
7A29
100
AcDbEntity
  8
0
 62
     0
100
AcDbLine
 10
33.12110634279884
 20
4.181773017991787
 30
0.0
 11
34.52110634279887
 21
5.581773017991821
 31
0.0
  0
LINE
  5
7AF1
330
7A29
100
AcDbEntity
  8
0
 62
     0
100
AcDbLine
 10
33.12110634279887
 20
4.630785824045261
 30
0.0
 11
34.5211063427989
 21
6.030785824045267
 31
0.0
  0
LINE
  5
7AF2
330
7A29
100
AcDbEntity
  8
0
 62
     0
100
AcDbLine
 10
33.12110634279887
 20
5.079798630098707
 30
0.0
 11
34.52110634279887
 21
6.479798630098741
 31
0.0
  0
LINE
  5
7AF3
330
7A29
100
AcDbEntity
  8
0
 62
     0
100
AcDbLine
 10
33.12110634279884
 20
5.528811436152182
 30
0.0
 11
34.52110634279887
 21
6.928811436152216
 31
0.0
  0
LINE
  5
7AF4
330
7A29
100
AcDbEntity
  8
0
 62
     0
100
AcDbLine
 10
31.33438877383131
 20
3.742093867184649
 30
0.0
 11
31.90401202316693
 21
4.31171711652027
 31
0.0
  0
LINE
  5
7AF5
330
7A29
100
AcDbEntity
  8
0
 62
     0
100
AcDbLine
 10
33.12110634279887
 20
5.977824242205599
 30
0.0
 11
34.5211063427989
 21
7.377824242205633
 31
0.0
  0
LINE
  5
7AF6
330
7A29
100
AcDbEntity
  8
0
 62
     0
100
AcDbLine
 10
30.71910469057005
 20
3.575822589976809
 30
0.0
 11
32.0702833003748
 21
4.927001199781528
 31
0.0
  0
LINE
  5
7AF7
330
7A29
100
AcDbEntity
  8
0
 62
     0
100
AcDbLine
 10
33.12110634279884
 20
6.426837048259073
 30
0.0
 11
34.52110634279887
 21
7.826837048259108
 31
0.0
  0
LINE
  5
7AF8
330
7A29
100
AcDbEntity
  8
0
 62
     0
100
AcDbLine
 10
30.2692688420924
 20
3.574999547552607
 30
0.0
 11
32.07110634279894
 21
5.376837048259147
 31
0.0
  0
LINE
  5
7AF9
330
7A29
100
AcDbEntity
  8
0
 62
     0
100
AcDbLine
 10
33.12110634279884
 20
6.875849854312548
 30
0.0
 11
34.52110634279887
 21
8.275849854312554
 31
0.0
  0
LINE
  5
7AFA
330
7A29
100
AcDbEntity
  8
0
 62
     0
100
AcDbLine
 10
29.82025603603893
 20
3.574999547552636
 30
0.0
 11
32.07110634279891
 21
5.825849854312622
 31
0.0
  0
LINE
  5
7AFB
330
7A29
100
AcDbEntity
  8
0
 62
     0
100
AcDbLine
 10
33.12110634279887
 20
7.324862660365965
 30
0.0
 11
34.52110634279887
 21
8.724862660366
 31
0.0
  0
LINE
  5
7AFC
330
7A29
100
AcDbEntity
  8
0
 62
     0
100
AcDbLine
 10
29.37124322998548
 20
3.574999547552607
 30
0.0
 11
32.07110634279894
 21
6.274862660366039
 31
0.0
  0
LINE
  5
7AFD
330
7A29
100
AcDbEntity
  8
0
 62
     0
100
AcDbLine
 10
30.61881074175847
 20
5.271579865379067
 30
0.0
 11
32.07110634279891
 21
6.723875466419514
 31
0.0
  0
LINE
  5
7AFE
330
7A29
100
AcDbEntity
  8
0
 62
     0
100
AcDbLine
 10
33.12110634279884
 20
7.77387546641944
 30
0.0
 11
34.52110634279887
 21
9.173875466419474
 31
0.0
  0
LINE
  5
7AFF
330
7A29
100
AcDbEntity
  8
0
 62
     0
100
AcDbLine
 10
28.92223042393204
 20
3.574999547552607
 30
0.0
 11
30.37452602497245
 21
5.027295148593054
 31
0.0
  0
LINE
  5
7B00
330
7A29
100
AcDbEntity
  8
0
 62
     0
100
AcDbLine
 10
30.67110634279885
 20
5.772888272472897
 30
0.0
 11
32.07110634279891
 21
7.172888272472988
 31
0.0
  0
LINE
  5
7B01
330
7A29
100
AcDbEntity
  8
0
 62
     0
100
AcDbLine
 10
33.12110634279884
 20
8.222888272472886
 30
0.0
 11
34.52110634279887
 21
9.62288827247292
 31
0.0
  0
LINE
  5
7B02
330
7A29
100
AcDbEntity
  8
0
 62
     0
100
AcDbLine
 10
28.52919249356714
 20
3.630974423241184
 30
0.0
 11
29.87321761787857
 21
4.974999547552613
 31
0.0
  0
LINE
  5
7B03
330
7A29
100
AcDbEntity
  8
0
 62
     0
100
AcDbLine
 10
30.67110634279882
 20
6.221901078526371
 30
0.0
 11
32.07110634279891
 21
7.621901078526434
 31
0.0
  0
LINE
  5
7B04
330
7A29
100
AcDbEntity
  8
0
 62
     0
100
AcDbLine
 10
33.12110634279881
 20
8.67190107852636
 30
0.0
 11
34.52110634279885
 21
10.07190107852639
 31
0.0
  0
LINE
  5
7B05
330
7A29
100
AcDbEntity
  8
0
 62
     0
100
AcDbLine
 10
28.21519905996206
 20
3.76599379568961
 30
0.0
 11
29.42464370464728
 21
4.97543844037483
 31
0.0
  0
LINE
  5
7B06
330
7A29
100
AcDbEntity
  8
0
 62
     0
100
AcDbLine
 10
30.67110634279888
 20
6.670913884579846
 30
0.0
 11
32.07110634279891
 21
8.07091388457988
 31
0.0
  0
LINE
  5
7B07
330
7A29
100
AcDbEntity
  8
0
 62
     0
100
AcDbLine
 10
33.12110634279884
 20
9.120913884579806
 30
0.0
 11
34.52110634279887
 21
10.52091388457981
 31
0.0
  0
LINE
  5
7B08
330
7A29
100
AcDbEntity
  8
0
 62
     0
100
AcDbLine
 10
27.95856911927953
 20
3.958376661060469
 30
0.0
 11
29.10290441029093
 21
5.102711952071899
 31
0.0
  0
LINE
  5
7B09
330
7A29
100
AcDbEntity
  8
0
 62
     0
100
AcDbLine
 10
30.67110634279888
 20
7.11992669063332
 30
0.0
 11
32.07110634279891
 21
8.519926690633326
 31
0.0
  0
LINE
  5
7B0A
330
7A29
100
AcDbEntity
  8
0
 62
     0
100
AcDbLine
 10
33.12110634279884
 20
9.569926690633252
 30
0.0
 11
34.5211063427989
 21
10.96992669063331
 31
0.0
  0
LINE
  5
7B0B
330
7A29
100
AcDbEntity
  8
0
 62
     0
100
AcDbLine
 10
27.753587031667
 20
4.202407379501437
 30
0.0
 11
28.93428527108631
 21
5.383105618920723
 31
0.0
  0
LINE
  5
7B0C
330
7A29
100
AcDbEntity
  8
0
 62
     0
100
AcDbLine
 10
30.67110634279888
 20
7.568939496686766
 30
0.0
 11
32.07110634279889
 21
8.9689394966868
 31
0.0
  0
LINE
  5
7B0D
330
7A29
100
AcDbEntity
  8
0
 62
     0
100
AcDbLine
 10
33.12110634279887
 20
10.01893949668675
 30
0.0
 11
34.51603176602359
 21
11.4138649199115
 31
0.0
  0
LINE
  5
7B0E
330
7A29
100
AcDbEntity
  8
0
 62
     0
100
AcDbLine
 10
27.60362459245005
 20
4.501457746337933
 30
0.0
 11
28.92110634279885
 21
5.818939496686766
 31
0.0
  0
LINE
  5
7B0F
330
7A29
100
AcDbEntity
  8
0
 62
     0
100
AcDbLine
 10
30.67110634279888
 20
8.017952302740212
 30
0.0
 11
32.07110634279891
 21
9.417952302740246
 31
0.0
  0
LINE
  5
7B10
330
7A29
100
AcDbEntity
  8
0
 62
     0
100
AcDbLine
 10
33.12110634279887
 20
10.4679523027402
 30
0.0
 11
34.27747459348376
 21
11.62432055342509
 31
0.0
  0
LINE
  5
7B11
330
7A29
100
AcDbEntity
  8
0
 62
     0
100
AcDbLine
 10
27.52491782497183
 20
4.871763784913156
 30
0.0
 11
28.92110634279891
 21
6.267952302740241
 31
0.0
  0
LINE
  5
7B12
330
7A29
100
AcDbEntity
  8
0
 62
     0
100
AcDbLine
 10
30.67110634279888
 20
8.466965108793658
 30
0.0
 11
32.07110634279891
 21
9.866965108793692
 31
0.0
  0
LINE
  5
7B13
330
7A29
100
AcDbEntity
  8
0
 62
     0
100
AcDbLine
 10
33.12110634279887
 20
10.91696510879365
 30
0.0
 11
33.82914078155781
 21
11.62499954755262
 31
0.0
  0
LINE
  5
7B14
330
7A29
100
AcDbEntity
  8
0
 62
     0
100
AcDbLine
 10
27.52110634279887
 20
5.316965108793681
 30
0.0
 11
28.92110634279891
 21
6.716965108793687
 31
0.0
  0
LINE
  5
7B15
330
7A29
100
AcDbEntity
  8
0
 62
     0
100
AcDbLine
 10
30.67110634279885
 20
8.915977914847132
 30
0.0
 11
32.07110634279889
 21
10.31597791484716
 31
0.0
  0
LINE
  5
7B16
330
7A29
100
AcDbEntity
  8
0
 62
     0
100
AcDbLine
 10
27.52110634279887
 20
5.765977914847127
 30
0.0
 11
28.92110634279888
 21
7.165977914847161
 31
0.0
  0
LINE
  5
7B17
330
7A29
100
AcDbEntity
  8
0
 62
     0
100
AcDbLine
 10
33.12112970017259
 20
11.36600127222087
 30
0.0
 11
33.38010461813056
 21
11.62497619017881
 31
0.0
  0
LINE
  5
7B18
330
7A29
100
AcDbEntity
  8
0
 62
     0
100
AcDbLine
 10
25.36032852744276
 20
3.605200099491042
 30
0.0
 11
26.44090579086051
 21
4.685777362908794
 31
0.0
  0
LINE
  5
7B19
330
7A29
100
AcDbEntity
  8
0
 62
     0
100
AcDbLine
 10
27.52110634279885
 20
6.214990720900601
 30
0.0
 11
28.92110634279888
 21
7.614990720900635
 31
0.0
  0
LINE
  5
7B1A
330
7A29
100
AcDbEntity
  8
0
 62
     0
100
AcDbLine
 10
30.67110634279885
 20
9.364990720900607
 30
0.0
 11
32.07110634279889
 21
10.76499072090061
 31
0.0
  0
LINE
  5
7B1B
330
7A29
100
AcDbEntity
  8
0
 62
     0
100
AcDbLine
 10
24.88111516945088
 20
3.574999547552636
 30
0.0
 11
26.47110634279886
 21
5.16499072090059
 31
0.0
  0
LINE
  5
7B1C
330
7A29
100
AcDbEntity
  8
0
 62
     0
100
AcDbLine
 10
27.52110634279887
 20
6.664003526954019
 30
0.0
 11
28.92110634279891
 21
8.064003526954053
 31
0.0
  0
LINE
  5
7B1D
330
7A29
100
AcDbEntity
  8
0
 62
     0
100
AcDbLine
 10
30.67110634279888
 20
9.814003526954024
 30
0.0
 11
32.07110634279889
 21
11.21400352695406
 31
0.0
  0
LINE
  5
7B1E
330
7A29
100
AcDbEntity
  8
0
 62
     0
100
AcDbLine
 10
24.43210236339743
 20
3.574999547552607
 30
0.0
 11
26.47110634279892
 21
5.614003526954064
 31
0.0
  0
LINE
  5
7B1F
330
7A29
100
AcDbEntity
  8
0
 62
     0
100
AcDbLine
 10
27.52110634279885
 20
7.113016333007493
 30
0.0
 11
28.92110634279888
 21
8.513016333007527
 31
0.0
  0
LINE
  5
7B20
330
7A29
100
AcDbEntity
  8
0
 62
     0
100
AcDbLine
 10
30.67110634279885
 20
10.2630163330075
 30
0.0
 11
31.97423761538178
 21
11.56614760559043
 31
0.0
  0
LINE
  5
7B21
330
7A29
100
AcDbEntity
  8
0
 62
     0
100
AcDbLine
 10
23.98308955734393
 20
3.574999547552579
 30
0.0
 11
26.4639470425924
 21
6.055857032801014
 31
0.0
  0
LINE
  5
7B22
330
7A29
100
AcDbEntity
  8
0
 62
     0
100
AcDbLine
 10
27.52110634279887
 20
7.562029139060996
 30
0.0
 11
28.92110634279888
 21
8.962029139060973
 31
0.0
  0
LINE
  5
7B23
330
7A29
100
AcDbEntity
  8
0
 62
     0
100
AcDbLine
 10
30.67110634279885
 20
10.71202913906094
 30
0.0
 11
31.58407675129053
 21
11.62499954755265
 31
0.0
  0
LINE
  5
7B24
330
7A29
100
AcDbEntity
  8
0
 62
     0
100
AcDbLine
 10
23.53407675129052
 20
3.574999547552636
 30
0.0
 11
26.396490857278
 21
6.437413653540119
 31
0.0
  0
LINE
  5
7B25
330
7A29
100
AcDbEntity
  8
0
 62
     0
100
AcDbLine
 10
27.5211063427989
 20
8.011041945114442
 30
0.0
 11
28.92110634279894
 21
9.411041945114448
 31
0.0
  0
LINE
  5
7B26
330
7A29
100
AcDbEntity
  8
0
 62
     0
100
AcDbLine
 10
25.07110634279892
 20
5.561041945114453
 30
0.0
 11
26.27619712881872
 21
6.766132731134263
 31
0.0
  0
LINE
  5
7B27
330
7A29
100
AcDbEntity
  8
0
 62
     0
100
AcDbLine
 10
30.67110634279885
 20
11.16104194511439
 30
0.0
 11
31.13506394523711
 21
11.62499954755265
 31
0.0
  0
LINE
  5
7B28
330
7A29
100
AcDbEntity
  8
0
 62
     0
100
AcDbLine
 10
23.14919162180268
 20
3.639127224118198
 30
0.0
 11
24.48506394523707
 21
4.974999547552613
 31
0.0
  0
LINE
  5
7B29
330
7A29
100
AcDbEntity
  8
0
 62
     0
100
AcDbLine
 10
25.06117105523518
 20
6.000119463604164
 30
0.0
 11
26.11444747638842
 21
7.053395884757406
 31
0.0
  0
LINE
  5
7B2A
330
7A29
100
AcDbEntity
  8
0
 62
     0
100
AcDbLine
 10
27.5211063427989
 20
8.460054751167888
 30
0.0
 11
28.92110634279891
 21
9.860054751167922
 31
0.0
  0
LINE
  5
7B2B
330
7A29
100
AcDbEntity
  8
0
 62
     0
100
AcDbLine
 10
23.05860634279884
 20
3.997554751167825
 30
0.0
 11
24.03605113918357
 21
4.974999547552584
 31
0.0
  0
LINE
  5
7B2C
330
7A29
100
AcDbEntity
  8
0
 62
     0
100
AcDbLine
 10
24.92397863666574
 20
6.311939851088226
 30
0.0
 11
25.91651191742452
 21
7.304473131847004
 31
0.0
  0
LINE
  5
7B2D
330
7A29
100
AcDbEntity
  8
0
 62
     0
100
AcDbLine
 10
27.52110634279887
 20
8.909067557221362
 30
0.0
 11
28.92110634279891
 21
10.30906755722139
 31
0.0
  0
LINE
  5
7B2E
330
7A29
100
AcDbEntity
  8
0
 62
     0
100
AcDbLine
 10
23.05860634279881
 20
4.4465675572213
 30
0.0
 11
23.58703833313015
 21
4.974999547552641
 31
0.0
  0
LINE
  5
7B2F
330
7A29
100
AcDbEntity
  8
0
 62
     0
100
AcDbLine
 10
27.5211063427989
 20
9.35808036327478
 30
0.0
 11
28.92110634279891
 21
10.75808036327481
 31
0.0
  0
LINE
  5
7B30
330
7A29
100
AcDbEntity
  8
0
 62
     0
100
AcDbLine
 10
24.70334118810723
 20
6.540315208583137
 30
0.0
 11
25.69329068176839
 21
7.530264702244295
 31
0.0
  0
LINE
  5
7B31
330
7A29
100
AcDbEntity
  8
0
 62
     0
100
AcDbLine
 10
24.4788347850805
 20
6.764821611609875
 30
0.0
 11
25.46878427874165
 21
7.754771105271032
 31
0.0
  0
LINE
  5
7B32
330
7A29
100
AcDbEntity
  8
0
 62
     0
100
AcDbLine
 10
27.52110634279887
 20
9.807093169328254
 30
0.0
 11
28.92110634279891
 21
11.20709316932829
 31
0.0
  0
LINE
  5
7B33
330
7A29
100
AcDbEntity
  8
0
 62
     0
100
AcDbLine
 10
21.28901272102325
 20
3.574999547552636
 30
0.0
 11
21.74610634279887
 21
4.032093169328248
 31
0.0
  0
LINE
  5
7B34
330
7A29
100
AcDbEntity
  8
0
 62
     0
100
AcDbLine
 10
24.25432838205381
 20
6.98932801463664
 30
0.0
 11
25.24427787571492
 21
7.979277508297769
 31
0.0
  0
LINE
  5
7B35
330
7A29
100
AcDbEntity
  8
0
 62
     0
100
AcDbLine
 10
27.52110634279887
 20
10.25610597538173
 30
0.0
 11
28.82801588874944
 21
11.56301552133229
 31
0.0
  0
LINE
  5
7B36
330
7A29
100
AcDbEntity
  8
0
 62
     0
100
AcDbLine
 10
20.83999991496975
 20
3.574999547552607
 30
0.0
 11
21.74610634279887
 21
4.481105975381723
 31
0.0
  0
LINE
  5
7B37
330
7A29
100
AcDbEntity
  8
0
 62
     0
100
AcDbLine
 10
24.02982197902702
 20
7.213834417663349
 30
0.0
 11
25.01977147268818
 21
8.203783911324507
 31
0.0
  0
LINE
  5
7B38
330
7A29
100
AcDbEntity
  8
0
 62
     0
100
AcDbLine
 10
27.52110634279887
 20
10.70511878143517
 30
0.0
 11
28.44098710891632
 21
11.62499954755265
 31
0.0
  0
LINE
  5
7B39
330
7A29
100
AcDbEntity
  8
0
 62
     0
100
AcDbLine
 10
20.44679267784733
 20
3.630805116483657
 30
0.0
 11
21.74610634279887
 21
4.930118781435169
 31
0.0
  0
LINE
  5
7B3A
330
7A29
100
AcDbEntity
  8
0
 62
     0
100
AcDbLine
 10
23.80531557600031
 20
7.438340820690058
 30
0.0
 11
24.79526506966147
 21
8.428290314351215
 31
0.0
  0
LINE
  5
7B3B
330
7A29
100
AcDbEntity
  8
0
 62
     0
100
AcDbLine
 10
27.52110634279887
 20
11.15413158748862
 30
0.0
 11
27.99197430286287
 21
11.62499954755262
 31
0.0
  0
LINE
  5
7B3C
330
7A29
100
AcDbEntity
  8
0
 62
     0
100
AcDbLine
 10
20.34610634279889
 20
3.979131587488637
 30
0.0
 11
21.74610634279887
 21
5.379131587488615
 31
0.0
  0
LINE
  5
7B3D
330
7A29
100
AcDbEntity
  8
0
 62
     0
100
AcDbLine
 10
23.58080917297357
 20
7.662847223716795
 30
0.0
 11
24.57075866663473
 21
8.652796717377952
 31
0.0
  0
LINE
  5
7B3E
330
7A29
100
AcDbEntity
  8
0
 62
     0
100
AcDbLine
 10
20.34610634279886
 20
4.428144393542083
 30
0.0
 11
21.74610634279887
 21
5.828144393542061
 31
0.0
  0
LINE
  5
7B3F
330
7A29
100
AcDbEntity
  8
0
 62
     0
100
AcDbLine
 10
23.35731722245293
 20
7.88836807924963
 30
0.0
 11
24.34930398914392
 21
8.880354845940615
 31
0.0
  0
LINE
  5
7B40
330
7A29
100
AcDbEntity
  8
0
 62
     0
100
AcDbLine
 10
20.34610634279886
 20
4.877157199595558
 30
0.0
 11
21.74610634279884
 21
6.277157199595535
 31
0.0
  0
LINE
  5
7B41
330
7A29
100
AcDbEntity
  8
0
 62
     0
100
AcDbLine
 10
25.69394869075592
 20
10.22499954755261
 30
0.0
 11
26.20860634279888
 21
10.73965719959557
 31
0.0
  0
LINE
  5
7B42
330
7A29
100
AcDbEntity
  8
0
 62
     0
100
AcDbLine
 10
19.09977823044335
 20
3.630829087240044
 30
0.0
 11
19.14460441117165
 21
3.675655267968352
 31
0.0
  0
LINE
  5
7B43
330
7A29
100
AcDbEntity
  8
0
 62
     0
100
AcDbLine
 10
23.15831613304195
 20
8.138379795892063
 30
0.0
 11
24.20813327175128
 21
9.188196934601393
 31
0.0
  0
LINE
  5
7B44
330
7A29
100
AcDbEntity
  8
0
 62
     0
100
AcDbLine
 10
20.34610634279889
 20
5.326170005648975
 30
0.0
 11
21.74610634279887
 21
6.726170005648981
 31
0.0
  0
LINE
  5
7B45
330
7A29
100
AcDbEntity
  8
0
 62
     0
100
AcDbLine
 10
25.2449358847025
 20
10.22499954755258
 30
0.0
 11
26.2086063427989
 21
11.18867000564899
 31
0.0
  0
LINE
  5
7B46
330
7A29
100
AcDbEntity
  8
0
 62
     0
100
AcDbLine
 10
18.59493588470249
 20
3.574999547552607
 30
0.0
 11
19.12782543285581
 21
4.1078890957059
 31
0.0
  0
LINE
  5
7B47
330
7A29
100
AcDbEntity
  8
0
 62
     0
100
AcDbLine
 10
22.99539900084358
 20
8.424475469747164
 30
0.0
 11
24.19610634279889
 21
9.625182811702472
 31
0.0
  0
LINE
  5
7B48
330
7A29
100
AcDbEntity
  8
0
 62
     0
100
AcDbLine
 10
20.34610634279886
 20
5.77518281170245
 30
0.0
 11
21.74610634279887
 21
7.175182811702427
 31
0.0
  0
LINE
  5
7B49
330
7A29
100
AcDbEntity
  8
0
 62
     0
100
AcDbLine
 10
24.79592307864903
 20
10.22499954755261
 30
0.0
 11
26.12527187689989
 21
11.55434834580347
 31
0.0
  0
LINE
  5
7B4A
330
7A29
100
AcDbEntity
  8
0
 62
     0
100
AcDbLine
 10
18.14592307864899
 20
3.574999547552579
 30
0.0
 11
19.02006235940297
 21
4.44913882830653
 31
0.0
  0
LINE
  5
7B4B
330
7A29
100
AcDbEntity
  8
0
 62
     0
100
AcDbLine
 10
20.34610634279886
 20
6.224195617755896
 30
0.0
 11
21.74610634279884
 21
7.624195617755901
 31
0.0
  0
LINE
  5
7B4C
330
7A29
100
AcDbEntity
  8
0
 62
     0
100
AcDbLine
 10
22.87370796950859
 20
8.751797244465649
 30
0.0
 11
25.74691027259559
 21
11.62499954755265
 31
0.0
  0
LINE
  5
7B4D
330
7A29
100
AcDbEntity
  8
0
 62
     0
100
AcDbLine
 10
17.84991592332159
 20
3.728005198278623
 30
0.0
 11
18.91229928595013
 21
4.79038856090716
 31
0.0
  0
LINE
  5
7B4E
330
7A29
100
AcDbEntity
  8
0
 62
     0
100
AcDbLine
 10
20.34610634279883
 20
6.67320842380937
 30
0.0
 11
21.74610634279884
 21
8.073208423809347
 31
0.0
  0
LINE
  5
7B4F
330
7A29
100
AcDbEntity
  8
0
 62
     0
100
AcDbLine
 10
22.80435453996574
 20
9.13145662097628
 30
0.0
 11
25.29789746654214
 21
11.62499954755265
 31
0.0
  0
LINE
  5
7B50
330
7A29
100
AcDbEntity
  8
0
 62
     0
100
AcDbLine
 10
17.74053621249726
 20
4.067638293507769
 30
0.0
 11
18.80453621249728
 21
5.131638293507819
 31
0.0
  0
LINE
  5
7B51
330
7A29
100
AcDbEntity
  8
0
 62
     0
100
AcDbLine
 10
20.34610634279889
 20
7.122221229862844
 30
0.0
 11
21.74610634279884
 21
8.522221229862793
 31
0.0
  0
LINE
  5
7B52
330
7A29
100
AcDbEntity
  8
0
 62
     0
100
AcDbLine
 10
22.79610634279885
 20
9.572221229862805
 30
0.0
 11
24.84888466048869
 21
11.62499954755265
 31
0.0
  0
LINE
  5
7B53
330
7A29
100
AcDbEntity
  8
0
 62
     0
100
AcDbLine
 10
17.63277313904439
 20
4.408888026108343
 30
0.0
 11
18.69677313904449
 21
5.472888026108449
 31
0.0
  0
LINE
  5
7B54
330
7A29
100
AcDbEntity
  8
0
 62
     0
100
AcDbLine
 10
20.34610634279889
 20
7.571234035916319
 30
0.0
 11
21.74610634279884
 21
8.971234035916268
 31
0.0
  0
LINE
  5
7B55
330
7A29
100
AcDbEntity
  8
0
 62
     0
100
AcDbLine
 10
22.79610634279885
 20
10.02123403591625
 30
0.0
 11
24.39987185443525
 21
11.62499954755265
 31
0.0
  0
LINE
  5
7B56
330
7A29
100
AcDbEntity
  8
0
 62
     0
100
AcDbLine
 10
17.5250100655916
 20
4.750137758709001
 30
0.0
 11
18.58901006559162
 21
5.814137758709051
 31
0.0
  0
LINE
  5
7B57
330
7A29
100
AcDbEntity
  8
0
 62
     0
100
AcDbLine
 10
20.34610634279889
 20
8.020246841969765
 30
0.0
 11
21.74610634279884
 21
9.420246841969714
 31
0.0
  0
LINE
  5
7B58
330
7A29
100
AcDbEntity
  8
0
 62
     0
100
AcDbLine
 10
17.41724699213875
 20
5.09138749130966
 30
0.0
 11
18.48124699213883
 21
6.15538749130971
 31
0.0
  0
LINE
  5
7B59
330
7A29
100
AcDbEntity
  8
0
 62
     0
100
AcDbLine
 10
22.82276467785957
 20
10.49690517703044
 30
0.0
 11
23.92420071332105
 21
11.59834121249193
 31
0.0
  0
LINE
  5
7B5A
330
7A29
100
AcDbEntity
  8
0
 62
     0
100
AcDbLine
 10
15.9008590483817
 20
3.574999547552607
 30
0.0
 11
16.32110634279888
 21
3.995246841969787
 31
0.0
  0
LINE
  5
7B5B
330
7A29
100
AcDbEntity
  8
0
 62
     0
100
AcDbLine
 10
17.30948391868594
 20
5.432637223910262
 30
0.0
 11
18.37348391868596
 21
6.496637223910283
 31
0.0
  0
LINE
  5
7B5C
330
7A29
100
AcDbEntity
  8
0
 62
     0
100
AcDbLine
 10
20.34610634279889
 20
8.469259648023211
 30
0.0
 11
21.74610634279884
 21
9.86925964802316
 31
0.0
  0
LINE
  5
7B5D
330
7A29
100
AcDbEntity
  8
0
 62
     0
100
AcDbLine
 10
15.45184624232829
 20
3.574999547552579
 30
0.0
 11
16.32110634279891
 21
4.444259648023205
 31
0.0
  0
LINE
  5
7B5E
330
7A29
100
AcDbEntity
  8
0
 62
     0
100
AcDbLine
 10
17.20172084523307
 20
5.773886956510835
 30
0.0
 11
18.26572084523317
 21
6.837886956510942
 31
0.0
  0
LINE
  5
7B5F
330
7A29
100
AcDbEntity
  8
0
 62
     0
100
AcDbLine
 10
20.34610634279889
 20
8.918272454076657
 30
0.0
 11
21.74610634279884
 21
10.3182724540766
 31
0.0
  0
LINE
  5
7B60
330
7A29
100
AcDbEntity
  8
0
 62
     0
100
AcDbLine
 10
15.04340831010052
 20
3.615574421378283
 30
0.0
 11
16.32110634279888
 21
4.893272454076679
 31
0.0
  0
LINE
  5
7B61
330
7A29
100
AcDbEntity
  8
0
 62
     0
100
AcDbLine
 10
17.09395777178025
 20
6.115136689111523
 30
0.0
 11
18.15795777178027
 21
7.179136689111544
 31
0.0
  0
LINE
  5
7B62
330
7A29
100
AcDbEntity
  8
0
 62
     0
100
AcDbLine
 10
20.34610634279886
 20
9.367285260130131
 30
0.0
 11
21.74610634279881
 21
10.76728526013008
 31
0.0
  0
LINE
  5
7B63
330
7A29
100
AcDbEntity
  8
0
 62
     0
100
AcDbLine
 10
14.92110634279885
 20
3.94228526013012
 30
0.0
 11
16.32110634279888
 21
5.342285260130154
 31
0.0
  0
LINE
  5
7B64
330
7A29
100
AcDbEntity
  8
0
 62
     0
100
AcDbLine
 10
16.98619469832744
 20
6.456386421712124
 30
0.0
 11
18.05019469832751
 21
7.520386421712203
 31
0.0
  0
LINE
  5
7B65
330
7A29
100
AcDbEntity
  8
0
 62
     0
100
AcDbLine
 10
20.34610634279889
 20
9.816298066183577
 30
0.0
 11
21.74610634279884
 21
11.21629806618352
 31
0.0
  0
LINE
  5
7B66
330
7A29
100
AcDbEntity
  8
0
 62
     0
100
AcDbLine
 10
14.92110634279888
 20
4.391298066183537
 30
0.0
 11
16.32110634279894
 21
5.791298066183628
 31
0.0
  0
LINE
  5
7B67
330
7A29
100
AcDbEntity
  8
0
 62
     0
100
AcDbLine
 10
16.86879530484151
 20
6.787999834279673
 30
0.0
 11
18.18394233880707
 21
8.103146868245232
 31
0.0
  0
LINE
  5
7B68
330
7A29
100
AcDbEntity
  8
0
 62
     0
100
AcDbLine
 10
20.34610634279892
 20
10.26531087223708
 30
0.0
 11
21.64796863154962
 21
11.56717316098775
 31
0.0
  0
LINE
  5
7B69
330
7A29
100
AcDbEntity
  8
0
 62
     0
100
AcDbLine
 10
14.92110634279885
 20
4.840310872237012
 30
0.0
 11
16.32110634279894
 21
6.240310872237074
 31
0.0
  0
LINE
  5
7B6A
330
7A29
100
AcDbEntity
  8
0
 62
     0
100
AcDbLine
 10
16.52520261990779
 20
6.893419955399423
 30
0.0
 11
18.39117901852407
 21
8.759396354015706
 31
0.0
  0
LINE
  5
7B6B
330
7A29
100
AcDbEntity
  8
0
 62
     0
100
AcDbLine
 10
14.92110634279885
 20
5.289323678290486
 30
0.0
 11
16.32768593495208
 21
6.695903270443722
 31
0.0
  0
LINE
  5
7B6C
330
7A29
100
AcDbEntity
  8
0
 62
     0
100
AcDbLine
 10
20.34610634279892
 20
10.71432367829052
 30
0.0
 11
21.25678221206101
 21
11.62499954755265
 31
0.0
  0
LINE
  5
7B6D
330
7A29
100
AcDbEntity
  8
0
 62
     0
100
AcDbLine
 10
13.206782212061
 20
3.574999547552607
 30
0.0
 11
13.69610634279891
 21
4.064323678290548
 31
0.0
  0
LINE
  5
7B6E
330
7A29
100
AcDbEntity
  8
0
 62
     0
100
AcDbLine
 10
14.92110634279885
 20
5.738336484343932
 30
0.0
 11
18.59841569824107
 21
9.415645839786179
 31
0.0
  0
LINE
  5
7B6F
330
7A29
100
AcDbEntity
  8
0
 62
     0
100
AcDbLine
 10
20.34610634279889
 20
11.163336484344
 30
0.0
 11
20.80776940600754
 21
11.62499954755265
 31
0.0
  0
LINE
  5
7B70
330
7A29
100
AcDbEntity
  8
0
 62
     0
100
AcDbLine
 10
12.75776940600752
 20
3.574999547552636
 30
0.0
 11
13.69610634279891
 21
4.513336484343994
 31
0.0
  0
LINE
  5
7B71
330
7A29
100
AcDbEntity
  8
0
 62
     0
100
AcDbLine
 10
14.92110634279891
 20
6.187349290397406
 30
0.0
 11
18.8056523779581
 21
10.07189532555662
 31
0.0
  0
LINE
  5
7B72
330
7A29
100
AcDbEntity
  8
0
 62
     0
100
AcDbLine
 10
12.31459691212913
 20
3.58083985972766
 30
0.0
 11
13.62543920099574
 21
4.891682148594242
 31
0.0
  0
LINE
  5
7B73
330
7A29
100
AcDbEntity
  8
0
 62
     0
100
AcDbLine
 10
14.92110634279888
 20
6.636362096450881
 30
0.0
 11
16.58474379390063
 21
8.29999954755263
 31
0.0
  0
LINE
  5
7B74
330
7A29
100
AcDbEntity
  8
0
 62
     0
100
AcDbLine
 10
16.96673521152115
 20
8.681990965173127
 30
0.0
 11
19.01288905767507
 21
10.72814481132707
 31
0.0
  0
LINE
  5
7B75
330
7A29
100
AcDbEntity
  8
0
 62
     0
100
AcDbLine
 10
11.93051665340564
 20
3.64577240705762
 30
0.0
 11
13.25974379390061
 21
4.974999547552613
 31
0.0
  0
LINE
  5
7B76
330
7A29
100
AcDbEntity
  8
0
 62
     0
100
AcDbLine
 10
14.92110634279888
 20
7.085374902504327
 30
0.0
 11
16.33010162815302
 21
8.494370187858493
 31
0.0
  0
LINE
  5
7B77
330
7A29
100
AcDbEntity
  8
0
 62
     0
100
AcDbLine
 10
17.1739718912381
 20
9.338240450943573
 30
0.0
 11
19.20042478357572
 21
11.3646933432812
 31
0.0
  0
LINE
  5
7B78
330
7A29
100
AcDbEntity
  8
0
 62
     0
100
AcDbLine
 10
11.59994952499244
 20
3.764218084697915
 30
0.0
 11
12.81073098784716
 21
4.974999547552613
 31
0.0
  0
LINE
  5
7B79
330
7A29
100
AcDbEntity
  8
0
 62
     0
100
AcDbLine
 10
14.92110634279888
 20
7.534387708557773
 30
0.0
 11
16.32110634279891
 21
8.934387708557807
 31
0.0
  0
LINE
  5
7B7A
330
7A29
100
AcDbEntity
  8
0
 62
     0
100
AcDbLine
 10
17.38120857095509
 20
9.994489936713989
 30
0.0
 11
19.00341884729104
 21
11.61670021304994
 31
0.0
  0
LINE
  5
7B7B
330
7A29
100
AcDbEntity
  8
0
 62
     0
100
AcDbLine
 10
11.31114788291029
 20
3.924429248669156
 30
0.0
 11
12.36917881215672
 21
4.982460177915612
 31
0.0
  0
LINE
  5
7B7C
330
7A29
100
AcDbEntity
  8
0
 62
     0
100
AcDbLine
 10
14.92110634279888
 20
7.983400514611247
 30
0.0
 11
16.32110634279891
 21
9.383400514611253
 31
0.0
  0
LINE
  5
7B7D
330
7A29
100
AcDbEntity
  8
0
 62
     0
100
AcDbLine
 10
17.58844525067206
 20
10.6507394224844
 30
0.0
 11
18.56270537574025
 21
11.62499954755262
 31
0.0
  0
LINE
  5
7B7E
330
7A29
100
AcDbEntity
  8
0
 62
     0
100
AcDbLine
 10
11.05867039971926
 20
4.120964571531601
 30
0.0
 11
12.05202074164757
 21
5.114314913459907
 31
0.0
  0
LINE
  5
7B7F
330
7A29
100
AcDbEntity
  8
0
 62
     0
100
AcDbLine
 10
14.92110634279888
 20
8.432413320664693
 30
0.0
 11
16.32110634279888
 21
9.832413320664727
 31
0.0
  0
LINE
  5
7B80
330
7A29
100
AcDbEntity
  8
0
 62
     0
100
AcDbLine
 10
13.25192340868696
 20
6.763230386552805
 30
0.0
 11
13.83287550379867
 21
7.344182481664518
 31
0.0
  0
LINE
  5
7B81
330
7A29
100
AcDbEntity
  8
0
 62
     0
100
AcDbLine
 10
17.79568193038901
 20
11.30698890825485
 30
0.0
 11
18.11369256968677
 21
11.62499954755262
 31
0.0
  0
LINE
  5
7B82
330
7A29
100
AcDbEntity
  8
0
 62
     0
100
AcDbLine
 10
10.84045186305434
 20
4.351758840920183
 30
0.0
 11
11.84689526601147
 21
5.358202243877315
 31
0.0
  0
LINE
  5
7B83
330
7A29
100
AcDbEntity
  8
0
 62
     0
100
AcDbLine
 10
12.78943698787211
 20
6.749756771791425
 30
0.0
 11
13.84634911856005
 21
7.806668902479373
 31
0.0
  0
LINE
  5
7B84
330
7A29
100
AcDbEntity
  8
0
 62
     0
100
AcDbLine
 10
14.92110634279885
 20
8.881426126718167
 30
0.0
 11
16.32110634279888
 21
10.2814261267182
 31
0.0
  0
LINE
  5
7B85
330
7A29
100
AcDbEntity
  8
0
 62
     0
100
AcDbLine
 10
10.65694225058286
 20
4.617262034502147
 30
0.0
 11
11.7711063427989
 21
5.73142612671819
 31
0.0
  0
LINE
  5
7B86
330
7A29
100
AcDbEntity
  8
0
 62
     0
100
AcDbLine
 10
12.48236370316204
 20
6.891696293134742
 30
0.0
 11
13.70440959721671
 21
8.113742187189444
 31
0.0
  0
LINE
  5
7B87
330
7A29
100
AcDbEntity
  8
0
 62
     0
100
AcDbLine
 10
14.92110634279888
 20
9.330438932771585
 30
0.0
 11
16.32110634279891
 21
10.73043893277162
 31
0.0
  0
LINE
  5
7B88
330
7A29
100
AcDbEntity
  8
0
 62
     0
100
AcDbLine
 10
10.51128349562049
 20
4.920616085593223
 30
0.0
 11
11.7711063427989
 21
6.180438932771636
 31
0.0
  0
LINE
  5
7B89
330
7A29
100
AcDbEntity
  8
0
 62
     0
100
AcDbLine
 10
12.26338373966717
 20
7.121729135693385
 30
0.0
 11
13.47437675465809
 21
8.332722150684276
 31
0.0
  0
LINE
  5
7B8A
330
7A29
100
AcDbEntity
  8
0
 62
     0
100
AcDbLine
 10
14.92110634279885
 20
9.779451738825059
 30
0.0
 11
16.32110634279894
 21
11.17945173882512
 31
0.0
  0
LINE
  5
7B8B
330
7A29
100
AcDbEntity
  8
0
 62
     0
100
AcDbLine
 10
10.41071481353316
 20
5.26906020955937
 30
0.0
 11
11.7711063427989
 21
6.62945173882511
 31
0.0
  0
LINE
  5
7B8C
330
7A29
100
AcDbEntity
  8
0
 62
     0
100
AcDbLine
 10
12.13535837346302
 20
7.442716575542704
 30
0.0
 11
13.15338931480878
 21
8.46074751688846
 31
0.0
  0
LINE
  5
7B8D
330
7A29
100
AcDbEntity
  8
0
 62
     0
100
AcDbLine
 10
10.37110634279881
 20
5.678464544878494
 30
0.0
 11
11.77110634279887
 21
7.078464544878556
 31
0.0
  0
LINE
  5
7B8E
330
7A29
100
AcDbEntity
  8
0
 62
     0
100
AcDbLine
 10
14.92110634279885
 20
10.22846454487853
 30
0.0
 11
16.24248128862126
 21
11.54983949070095
 31
0.0
  0
LINE
  5
7B8F
330
7A29
100
AcDbEntity
  8
0
 62
     0
100
AcDbLine
 10
8.328107963860986
 20
3.63546616594067
 30
0.0
 11
9.26063972441085
 21
4.567997926490534
 31
0.0
  0
LINE
  5
7B90
330
7A29
100
AcDbEntity
  8
0
 62
     0
100
AcDbLine
 10
12.19456491520344
 20
7.950935923336515
 30
0.0
 11
12.64516996701493
 21
8.401540975148037
 31
0.0
  0
LINE
  5
7B91
330
7A29
100
AcDbEntity
  8
0
 62
     0
100
AcDbLine
 10
10.37110634279887
 20
6.127477350931968
 30
0.0
 11
11.7711063427989
 21
7.527477350932002
 31
0.0
  0
LINE
  5
7B92
330
7A29
100
AcDbEntity
  8
0
 62
     0
100
AcDbLine
 10
14.92110634279888
 20
10.67747735093195
 30
0.0
 11
15.86862853941951
 21
11.62499954755262
 31
0.0
  0
LINE
  5
7B93
330
7A29
100
AcDbEntity
  8
0
 62
     0
100
AcDbLine
 10
7.818628539419506
 20
3.574999547552607
 30
0.0
 11
9.321106342798913
 21
5.077477350932014
 31
0.0
  0
LINE
  5
7B94
330
7A29
100
AcDbEntity
  8
0
 62
     0
100
AcDbLine
 10
10.37110634279887
 20
6.576490156985443
 30
0.0
 11
11.7711063427989
 21
7.976490156985448
 31
0.0
  0
LINE
  5
7B95
330
7A29
100
AcDbEntity
  8
0
 62
     0
100
AcDbLine
 10
14.92110634279891
 20
11.12649015698545
 30
0.0
 11
15.41961573336607
 21
11.62499954755265
 31
0.0
  0
LINE
  5
7B96
330
7A29
100
AcDbEntity
  8
0
 62
     0
100
AcDbLine
 10
7.369615733366003
 20
3.574999547552579
 30
0.0
 11
9.321106342798941
 21
5.526490156985516
 31
0.0
  0
LINE
  5
7B97
330
7A29
100
AcDbEntity
  8
0
 62
     0
100
AcDbLine
 10
10.37110634279887
 20
7.025502963038888
 30
0.0
 11
11.77110634279887
 21
8.425502963038923
 31
0.0
  0
LINE
  5
7B98
330
7A29
100
AcDbEntity
  8
0
 62
     0
100
AcDbLine
 10
6.920602927312586
 20
3.574999547552636
 30
0.0
 11
9.319136666518289
 21
5.973533286758339
 31
0.0
  0
LINE
  5
7B99
330
7A29
100
AcDbEntity
  8
0
 62
     0
100
AcDbLine
 10
10.37110634279887
 20
7.474515769092363
 30
0.0
 11
11.7711063427989
 21
8.874515769092397
 31
0.0
  0
LINE
  5
7B9A
330
7A29
100
AcDbEntity
  8
0
 62
     0
100
AcDbLine
 10
13.12159012125917
 20
10.22499954755267
 30
0.0
 11
13.69610634279891
 21
10.79951576909241
 31
0.0
  0
LINE
  5
7B9B
330
7A29
100
AcDbEntity
  8
0
 62
     0
100
AcDbLine
 10
6.471590121259112
 20
3.574999547552607
 30
0.0
 11
9.264305748357571
 21
6.367715174651067
 31
0.0
  0
LINE
  5
7B9C
330
7A29
100
AcDbEntity
  8
0
 62
     0
100
AcDbLine
 10
10.37110634279887
 20
7.92352857514578
 30
0.0
 11
11.77110634279887
 21
9.323528575145815
 31
0.0
  0
LINE
  5
7B9D
330
7A29
100
AcDbEntity
  8
0
 62
     0
100
AcDbLine
 10
7.921106342798879
 20
5.473528575145792
 30
0.0
 11
9.153136376335567
 21
6.70555860868248
 31
0.0
  0
LINE
  5
7B9E
330
7A29
100
AcDbEntity
  8
0
 62
     0
100
AcDbLine
 10
12.67257731520567
 20
10.22499954755261
 30
0.0
 11
13.69610634279891
 21
11.24852857514585
 31
0.0
  0
LINE
  5
7B9F
330
7A29
100
AcDbEntity
  8
0
 62
     0
100
AcDbLine
 10
6.051440252835647
 20
3.603862485182588
 30
0.0
 11
7.422577315205671
 21
4.974999547552613
 31
0.0
  0
LINE
  5
7BA0
330
7A29
100
AcDbEntity
  8
0
 62
     0
100
AcDbLine
 10
10.37110634279884
 20
8.372541381199255
 30
0.0
 11
11.85401369568865
 21
9.855448734089065
 31
0.0
  0
LINE
  5
7BA1
330
7A29
100
AcDbEntity
  8
0
 62
     0
100
AcDbLine
 10
7.920026796994193
 20
5.92146183539458
 30
0.0
 11
8.998920608999497
 21
7.000355647399914
 31
0.0
  0
LINE
  5
7BA2
330
7A29
100
AcDbEntity
  8
0
 62
     0
100
AcDbLine
 10
12.14065715626242
 20
10.14209219466283
 30
0.0
 11
13.57937263533887
 21
11.58080767373928
 31
0.0
  0
LINE
  5
7BA3
330
7A29
100
AcDbEntity
  8
0
 62
     0
100
AcDbLine
 10
5.908606342798861
 20
3.910041381199278
 30
0.0
 11
6.973564509152225
 21
4.974999547552613
 31
0.0
  0
LINE
  5
7BA4
330
7A29
100
AcDbEntity
  8
0
 62
     0
100
AcDbLine
 10
7.810225287243838
 20
6.260673131697728
 30
0.0
 11
8.807799626580049
 21
7.258247471033939
 31
0.0
  0
LINE
  5
7BA5
330
7A29
100
AcDbEntity
  8
0
 62
     0
100
AcDbLine
 10
10.37110634279884
 20
8.821554187252729
 30
0.0
 11
13.17455170309878
 21
11.62499954755267
 31
0.0
  0
LINE
  5
7BA6
330
7A29
100
AcDbEntity
  8
0
 62
     0
100
AcDbLine
 10
5.908606342798861
 20
4.359054187252723
 30
0.0
 11
6.524551703098751
 21
4.974999547552641
 31
0.0
  0
LINE
  5
7BA7
330
7A29
100
AcDbEntity
  8
0
 62
     0
100
AcDbLine
 10
7.597097873091513
 20
6.496558523598821
 30
0.0
 11
8.58704736675267
 21
7.486508017259978
 31
0.0
  0
LINE
  5
7BA8
330
7A29
100
AcDbEntity
  8
0
 62
     0
100
AcDbLine
 10
10.37110634279884
 20
9.270566993306147
 30
0.0
 11
12.72553889704525
 21
11.62499954755256
 31
0.0
  0
LINE
  5
7BA9
330
7A29
100
AcDbEntity
  8
0
 62
     0
100
AcDbLine
 10
5.943082303808694
 20
4.842542954316002
 30
0.0
 11
6.041062936035501
 21
4.940523586542809
 31
0.0
  0
LINE
  5
7BAA
330
7A29
100
AcDbEntity
  8
0
 62
     0
100
AcDbLine
 10
10.38109389987707
 20
9.729567356437826
 30
0.0
 11
12.26653853391357
 21
11.61501199047435
 31
0.0
  0
LINE
  5
7BAB
330
7A29
100
AcDbEntity
  8
0
 62
     0
100
AcDbLine
 10
7.372591470064776
 20
6.721064926625558
 30
0.0
 11
8.362540963725933
 21
7.711014420286716
 31
0.0
  0
LINE
  5
7BAC
330
7A29
100
AcDbEntity
  8
0
 62
     0
100
AcDbLine
 10
10.53082561600996
 20
10.32831187862422
 30
0.0
 11
11.66779401172721
 21
11.46528027434146
 31
0.0
  0
LINE
  5
7BAD
330
7A29
100
AcDbEntity
  8
0
 62
     0
100
AcDbLine
 10
7.148085067038039
 20
6.945571329652295
 30
0.0
 11
8.138034560699196
 21
7.935520823313453
 31
0.0
  0
LINE
  5
7BAE
330
7A29
100
AcDbEntity
  8
0
 62
     0
100
AcDbLine
 10
6.92357866401133
 20
7.170077732679004
 30
0.0
 11
7.913528157672487
 21
8.160027226340162
 31
0.0
  0
LINE
  5
7BAF
330
7A29
100
AcDbEntity
  8
0
 62
     0
100
AcDbLine
 10
6.699072260984593
 20
7.394584135705741
 30
0.0
 11
7.68902175464575
 21
8.384533629366899
 31
0.0
  0
LINE
  5
7BB0
330
7A29
100
AcDbEntity
  8
0
 62
     0
100
AcDbLine
 10
6.474565857957827
 20
7.61909053873245
 30
0.0
 11
7.464515351619013
 21
8.609040032393636
 31
0.0
  0
LINE
  5
7BB1
330
7A29
100
AcDbEntity
  8
0
 62
     0
100
AcDbLine
 10
8.631462060724544
 20
10.22499954755261
 30
0.0
 11
9.058606342798867
 21
10.65214382962696
 31
0.0
  0
LINE
  5
7BB2
330
7A29
100
AcDbEntity
  8
0
 62
     0
100
AcDbLine
 10
6.250101111945156
 20
7.843638598773253
 30
0.0
 11
7.240133933661439
 21
8.833671420489537
 31
0.0
  0
LINE
  5
7BB3
330
7A29
100
AcDbEntity
  8
0
 62
     0
100
AcDbLine
 10
8.182449254671098
 20
10.22499954755261
 30
0.0
 11
9.058606342798896
 21
11.10115663568038
 31
0.0
  0
LINE
  5
7BB4
330
7A29
100
AcDbEntity
  8
0
 62
     0
100
AcDbLine
 10
6.044367149669369
 20
8.086917442550856
 30
0.0
 11
7.075185493017499
 21
9.117735785899014
 31
0.0
  0
LINE
  5
7BB5
330
7A29
100
AcDbEntity
  8
0
 62
     0
100
AcDbLine
 10
7.733436448617624
 20
10.22499954755261
 30
0.0
 11
9.015326892918295
 21
11.50688999185328
 31
0.0
  0
LINE
  5
7BB6
330
7A29
100
AcDbEntity
  8
0
 62
     0
100
AcDbLine
 10
5.874136846538135
 20
8.365699945473096
 30
0.0
 11
7.04610634279885
 21
9.537669441733811
 31
0.0
  0
LINE
  5
7BB7
330
7A29
100
AcDbEntity
  8
0
 62
     0
100
AcDbLine
 10
7.283190317979148
 20
10.22376622296761
 30
0.0
 11
8.684423642564155
 21
11.62499954755262
 31
0.0
  0
LINE
  5
7BB8
330
7A29
100
AcDbEntity
  8
0
 62
     0
100
AcDbLine
 10
5.743790198672087
 20
8.684366103660522
 30
0.0
 11
7.047339667383937
 21
9.987915572372401
 31
0.0
  0
LINE
  5
7BB9
330
7A29
100
AcDbEntity
  8
0
 62
     0
100
AcDbLine
 10
5.662884217548054
 20
9.052472928589935
 30
0.0
 11
8.235410836510766
 21
11.62499954755265
 31
0.0
  0
LINE
  5
7BBA
330
7A29
100
AcDbEntity
  8
0
 62
     0
100
AcDbLine
 10
5.646106342798901
 20
9.484707859894228
 30
0.0
 11
7.786398030457263
 21
11.62499954755262
 31
0.0
  0
LINE
  5
7BBB
330
7A29
100
AcDbEntity
  8
0
 62
     0
100
AcDbLine
 10
5.646106342798873
 20
9.933720665947703
 30
0.0
 11
7.337385224403789
 21
11.62499954755262
 31
0.0
  0
LINE
  5
7BBC
330
7A29
100
AcDbEntity
  8
0
 62
     0
100
AcDbLine
 10
5.656202348018041
 20
10.39282947722032
 30
0.0
 11
6.878276413131175
 21
11.61490354233345
 31
0.0
  0
ENDBLK
  5
7BBE
330
7A29
100
AcDbEntity
  8
0
100
AcDbBlockEnd
  0
BLOCK
  5
7ECC
330
7EC2
100
AcDbEntity
  8
0
100
AcDbBlockBegin
  2
*D2
 70
     1
 10
0.0
 20
0.0
 30
0.0
  3
*D2
  1

  0
LINE
  5
8109
330
7EC2
100
AcDbEntity
  8
SUNPOU
100
AcDbLine
 10
204.3792482117585
 20
133.7972649090202
 30
0.0
 11
204.3792482117585
 21
147.9218534177321
 31
0.0
  0
LINE
  5
810A
330
7EC2
100
AcDbEntity
  8
SUNPOU
100
AcDbLine
 10
280.6792482117587
 20
133.7972649090206
 30
0.0
 11
280.6792482117587
 21
147.9218534177321
 31
0.0
  0
LINE
  5
810B
330
7EC2
100
AcDbEntity
  8
SUNPOU
100
AcDbLine
 10
207.3792482117585
 20
146.4218534177321
 30
0.0
 11
277.6792482117587
 21
146.4218534177321
 31
0.0
  0
INSERT
  5
810C
330
7EC2
100
AcDbEntity
  8
SUNPOU
100
AcDbBlockReference
  2
_OPEN
 10
204.3792482117585
 20
146.4218534177321
 30
0.0
 41
3.0
 42
3.0
 43
3.0
 50
180.0
  0
INSERT
  5
810D
330
7EC2
100
AcDbEntity
  8
SUNPOU
100
AcDbBlockReference
  2
_OPEN
 10
280.6792482117587
 20
146.4218534177321
 30
0.0
 41
3.0
 42
3.0
 43
3.0
  0
MTEXT
  5
810E
330
7EC2
100
AcDbEntity
  8
SUNPOU
100
AcDbMText
 10
242.5292482117586
 20
149.4218534177321
 30
0.0
 40
3.0
 41
0.0
 71
     5
 72
     5
  1
\A1;\U+03c676
 73
     1
 44
1.0
1001
ACAD
1000
MTEXTBEGIN
1070
    73
1070
     1
1070
    44
1040
1.0
1070
    74
1070
     0
1000
MTEXTEND
  0
POINT
  5
810F
330
7EC2
100
AcDbEntity
  8
DEFPOINTS
 62
     0
100
AcDbPoint
 10
204.3792482117585
 20
132.2972649090202
 30
0.0
  0
POINT
  5
8110
330
7EC2
100
AcDbEntity
  8
DEFPOINTS
 62
     0
100
AcDbPoint
 10
280.6792482117587
 20
132.2972649090206
 30
0.0
  0
POINT
  5
8111
330
7EC2
100
AcDbEntity
  8
DEFPOINTS
 62
     0
100
AcDbPoint
 10
280.6792482117587
 20
146.4218534177321
 30
0.0
  0
ENDBLK
  5
7ECD
330
7EC2
100
AcDbEntity
  8
0
100
AcDbBlockEnd
  0
BLOCK
  5
7ED8
330
7ECE
100
AcDbEntity
  8
0
100
AcDbBlockBegin
  2
*D3
 70
     1
 10
0.0
 20
0.0
 30
0.0
  3
*D3
  1

  0
LINE
  5
8124
330
7ECE
100
AcDbEntity
  8
SUNPOU
100
AcDbLine
 10
212.6792482117587
 20
73.79726490902021
 30
0.0
 11
212.6792482117587
 21
53.97740351925222
 31
0.0
  0
LINE
  5
8125
330
7ECE
100
AcDbEntity
  8
SUNPOU
100
AcDbLine
 10
272.3792482117585
 20
73.79726490902044
 30
0.0
 11
272.3792482117585
 21
53.97740351925222
 31
0.0
  0
LINE
  5
8126
330
7ECE
100
AcDbEntity
  8
SUNPOU
100
AcDbLine
 10
215.6792482117587
 20
55.47740351925222
 30
0.0
 11
269.3792482117585
 21
55.47740351925222
 31
0.0
  0
INSERT
  5
8127
330
7ECE
100
AcDbEntity
  8
SUNPOU
100
AcDbBlockReference
  2
_OPEN
 10
212.6792482117587
 20
55.47740351925222
 30
0.0
 41
3.0
 42
3.0
 43
3.0
 50
180.0
  0
INSERT
  5
8128
330
7ECE
100
AcDbEntity
  8
SUNPOU
100
AcDbBlockReference
  2
_OPEN
 10
272.3792482117585
 20
55.47740351925222
 30
0.0
 41
3.0
 42
3.0
 43
3.0
  0
MTEXT
  5
8129
330
7ECE
100
AcDbEntity
  8
SUNPOU
100
AcDbMText
 10
242.5292482117586
 20
58.47740351925222
 30
0.0
 40
3.0
 41
0.0
 71
     5
 72
     5
  1
\A1;\U+03c660
 73
     1
 44
1.0
1001
ACAD
1000
MTEXTBEGIN
1070
    73
1070
     1
1070
    44
1040
1.0
1070
    74
1070
     0
1000
MTEXTEND
  0
POINT
  5
812A
330
7ECE
100
AcDbEntity
  8
DEFPOINTS
 62
     0
100
AcDbPoint
 10
212.6792482117587
 20
75.29726490902021
 30
0.0
  0
POINT
  5
812B
330
7ECE
100
AcDbEntity
  8
DEFPOINTS
 62
     0
100
AcDbPoint
 10
272.3792482117585
 20
75.29726490902044
 30
0.0
  0
POINT
  5
812C
330
7ECE
100
AcDbEntity
  8
DEFPOINTS
 62
     0
100
AcDbPoint
 10
272.3792482117585
 20
55.47740351925222
 30
0.0
  0
ENDBLK
  5
7ED9
330
7ECE
100
AcDbEntity
  8
0
100
AcDbBlockEnd
  0
BLOCK
  5
7EE4
330
7EDA
100
AcDbEntity
  8
0
100
AcDbBlockBegin
  2
*D4
 70
     1
 10
0.0
 20
0.0
 30
0.0
  3
*D4
  1

  0
LINE
  5
8100
330
7EDA
100
AcDbEntity
  8
SUNPOU
100
AcDbLine
 10
77.01575952787198
 20
133.50226421472
 30
0.0
 11
77.01575952787198
 21
147.9218534177321
 31
0.0
  0
LINE
  5
8101
330
7EDA
100
AcDbEntity
  8
SUNPOU
100
AcDbLine
 10
139.9059261713946
 20
133.5022642147203
 30
0.0
 11
139.9059261713946
 21
147.9218534177321
 31
0.0
  0
LINE
  5
8102
330
7EDA
100
AcDbEntity
  8
SUNPOU
100
AcDbLine
 10
80.01575952787197
 20
146.4218534177321
 30
0.0
 11
136.9059261713946
 21
146.4218534177321
 31
0.0
  0
INSERT
  5
8103
330
7EDA
100
AcDbEntity
  8
SUNPOU
100
AcDbBlockReference
  2
_OPEN
 10
77.01575952787198
 20
146.4218534177321
 30
0.0
 41
3.0
 42
3.0
 43
3.0
 50
180.0
  0
INSERT
  5
8104
330
7EDA
100
AcDbEntity
  8
SUNPOU
100
AcDbBlockReference
  2
_OPEN
 10
139.9059261713946
 20
146.4218534177321
 30
0.0
 41
3.0
 42
3.0
 43
3.0
  0
MTEXT
  5
8105
330
7EDA
100
AcDbEntity
  8
SUNPOU
100
AcDbMText
 10
108.4608428496333
 20
149.4218534177321
 30
0.0
 40
3.0
 41
0.0
 71
     5
 72
     5
  1
\A1;63
 73
     1
 44
1.0
1001
ACAD
1000
MTEXTBEGIN
1070
    73
1070
     1
1070
    44
1040
1.0
1070
    74
1070
     0
1000
MTEXTEND
  0
POINT
  5
8106
330
7EDA
100
AcDbEntity
  8
DEFPOINTS
 62
     0
100
AcDbPoint
 10
77.01575952787198
 20
132.00226421472
 30
0.0
  0
POINT
  5
8107
330
7EDA
100
AcDbEntity
  8
DEFPOINTS
 62
     0
100
AcDbPoint
 10
139.9059261713946
 20
132.0022642147203
 30
0.0
  0
POINT
  5
8108
330
7EDA
100
AcDbEntity
  8
DEFPOINTS
 62
     0
100
AcDbPoint
 10
139.9059261713946
 20
146.4218534177321
 30
0.0
  0
ENDBLK
  5
7EE5
330
7EDA
100
AcDbEntity
  8
0
100
AcDbBlockEnd
  0
BLOCK
  5
7F27
330
7F1D
100
AcDbEntity
  8
0
100
AcDbBlockBegin
  2
*D5
 70
     1
 10
0.0
 20
0.0
 30
0.0
  3
*D5
  1

  0
LINE
  5
811B
330
7F1D
100
AcDbEntity
  8
SUNPOU
100
AcDbLine
 10
273.8792482117585
 20
100.2972649090204
 30
0.0
 11
296.8885623940296
 21
100.2972649090204
 31
0.0
  0
LINE
  5
811C
330
7F1D
100
AcDbEntity
  8
SUNPOU
100
AcDbLine
 10
273.8792482117585
 20
75.29726490902044
 30
0.0
 11
296.8885623940296
 21
75.29726490902042
 31
0.0
  0
LINE
  5
811D
330
7F1D
100
AcDbEntity
  8
SUNPOU
100
AcDbLine
 10
295.3885623940296
 20
97.29726490902042
 30
0.0
 11
295.3885623940296
 21
78.29726490902043
 31
0.0
  0
INSERT
  5
811E
330
7F1D
100
AcDbEntity
  8
SUNPOU
100
AcDbBlockReference
  2
_OPEN
 10
295.3885623940296
 20
100.2972649090204
 30
0.0
 41
3.0
 42
3.0
 43
3.0
 50
90.0
  0
INSERT
  5
811F
330
7F1D
100
AcDbEntity
  8
SUNPOU
100
AcDbBlockReference
  2
_OPEN
 10
295.3885623940296
 20
75.29726490902042
 30
0.0
 41
3.0
 42
3.0
 43
3.0
 50
270.0
  0
MTEXT
  5
8120
330
7F1D
100
AcDbEntity
  8
SUNPOU
100
AcDbMText
 10
292.3885623940296
 20
87.79726490902042
 30
0.0
 40
3.0
 41
0.0
 71
     5
 72
     5
  1
\A1;\U+203b25
 11
0.0000000000000001
 21
1.0
 31
0.0
 73
     1
 44
1.0
1001
ACAD
1000
MTEXTBEGIN
1070
    73
1070
     1
1070
    44
1040
1.0
1070
    74
1070
     0
1000
MTEXTEND
  0
POINT
  5
8121
330
7F1D
100
AcDbEntity
  8
DEFPOINTS
 62
     0
100
AcDbPoint
 10
272.3792482117585
 20
100.2972649090204
 30
0.0
  0
POINT
  5
8122
330
7F1D
100
AcDbEntity
  8
DEFPOINTS
 62
     0
100
AcDbPoint
 10
272.3792482117585
 20
75.29726490902044
 30
0.0
  0
POINT
  5
8123
330
7F1D
100
AcDbEntity
  8
DEFPOINTS
 62
     0
100
AcDbPoint
 10
295.3885623940296
 20
75.29726490902042
 30
0.0
  0
ENDBLK
  5
7F28
330
7F1D
100
AcDbEntity
  8
0
100
AcDbBlockEnd
  0
BLOCK
  5
7FF3
330
7FE9
100
AcDbEntity
  8
0
100
AcDbBlockBegin
  2
*D6
 70
     1
 10
0.0
 20
0.0
 30
0.0
  3
*D6
  1

  0
LINE
  5
8112
330
7FE9
100
AcDbEntity
  8
SUNPOU
100
AcDbLine
 10
282.1792482117587
 20
132.2972649090206
 30
0.0
 11
310.2642535514793
 21
132.2972649090206
 31
0.0
  0
LINE
  5
8113
330
7FE9
100
AcDbEntity
  8
SUNPOU
100
AcDbLine
 10
273.8792482117585
 20
75.29726490902044
 30
0.0
 11
310.2642535514792
 21
75.29726490902042
 31
0.0
  0
LINE
  5
8114
330
7FE9
100
AcDbEntity
  8
SUNPOU
100
AcDbLine
 10
308.7642535514793
 20
129.2972649090206
 30
0.0
 11
308.7642535514792
 21
78.29726490902043
 31
0.0
  0
INSERT
  5
8115
330
7FE9
100
AcDbEntity
  8
SUNPOU
100
AcDbBlockReference
  2
_OPEN
 10
308.7642535514793
 20
132.2972649090206
 30
0.0
 41
3.0
 42
3.0
 43
3.0
 50
90.0
  0
INSERT
  5
8116
330
7FE9
100
AcDbEntity
  8
SUNPOU
100
AcDbBlockReference
  2
_OPEN
 10
308.7642535514792
 20
75.29726490902042
 30
0.0
 41
3.0
 42
3.0
 43
3.0
 50
270.0
  0
MTEXT
  5
8117
330
7FE9
100
AcDbEntity
  8
SUNPOU
100
AcDbMText
 10
305.7642535514792
 20
103.7972649090206
 30
0.0
 40
3.0
 41
0.0
 71
     5
 72
     5
  1
\A1;57
 11
0.0000000000000001
 21
1.0
 31
0.0
 73
     1
 44
1.0
1001
ACAD
1000
MTEXTBEGIN
1070
    73
1070
     1
1070
    44
1040
1.0
1070
    74
1070
     0
1000
MTEXTEND
  0
POINT
  5
8118
330
7FE9
100
AcDbEntity
  8
DEFPOINTS
 62
     0
100
AcDbPoint
 10
280.6792482117587
 20
132.2972649090206
 30
0.0
  0
POINT
  5
8119
330
7FE9
100
AcDbEntity
  8
DEFPOINTS
 62
     0
100
AcDbPoint
 10
272.3792482117585
 20
75.29726490902044
 30
0.0
  0
POINT
  5
811A
330
7FE9
100
AcDbEntity
  8
DEFPOINTS
 62
     0
100
AcDbPoint
 10
308.7642535514792
 20
75.29726490902042
 30
0.0
  0
ENDBLK
  5
7FF4
330
7FE9
100
AcDbEntity
  8
0
100
AcDbBlockEnd
  0
ENDSEC
  0
SECTION
  2
ENTITIES
  0
CIRCLE
  5
7D59
330
1A
100
AcDbEntity
  8
SEIHIN
  6
SLD-実線
100
AcDbCircle
 10
244.9309392609606
 20
219.7431785110055
 30
0.0
 40
27.85
  0
CIRCLE
  5
7D5A
330
1A
100
AcDbEntity
  8
SEIHIN
  6
SLD-実線
100
AcDbCircle
 10
244.9309392609606
 20
219.7431785110055
 30
0.0
 40
33.82157287525379
  0
ARC
  5
7D5B
330
1A
100
AcDbEntity
  8
SEIHIN
  6
SLD-実線
100
AcDbCircle
 10
244.9309392609606
 20
219.7431785110055
 30
0.0
 40
30.04999999999999
100
AcDbArc
 50
345.5471016022735
 51
14.45289839772649
  0
ARC
  5
7D5C
330
1A
100
AcDbEntity
  8
SEIHIN
  6
SLD-実線
100
AcDbCircle
 10
244.9309392609606
 20
219.7431785110055
 30
0.0
 40
30.05000000000004
100
AcDbArc
 50
165.5471016022735
 51
194.4528983977264
  0
ARC
  5
7D5D
330
1A
100
AcDbEntity
  8
SEIHIN
  6
SLD-実線
100
AcDbCircle
 10
244.9309392609606
 20
219.7431785110055
 30
0.0
 40
31.05333333333336
100
AcDbArc
 50
166.023732662815
 51
193.9762673371849
  0
ARC
  5
7D5E
330
1A
100
AcDbEntity
  8
SEIHIN
  6
SLD-実線
100
AcDbCircle
 10
244.9309392609606
 20
219.7431785110055
 30
0.0
 40
31.0533333333333
100
AcDbArc
 50
346.023732662815
 51
13.97626733718498
  0
CIRCLE
  5
7D5F
330
1A
100
AcDbEntity
  8
SEIHIN
  6
SLD-実線
100
AcDbCircle
 10
244.9309392609608
 20
219.7431785110055
 30
0.0
 40
36.14999999999998
  0
CIRCLE
  5
7D60
330
1A
100
AcDbEntity
  8
SEIHIN
  6
SLD-実線
100
AcDbCircle
 10
244.9309392609608
 20
219.7431785110055
 30
0.0
 40
38.15000000000001
  0
LINE
  5
7D61
330
1A
100
AcDbEntity
  8
SEIHIN
  6
SLD-実線
100
AcDbLine
 10
242.5292482117582
 20
75.29726490902044
 30
0.0
 11
212.6792482117587
 21
75.29726490902021
 31
0.0
  0
LINE
  5
7D62
330
1A
100
AcDbEntity
  8
SEIHIN
  6
SLD-実線
100
AcDbLine
 10
242.5292482117582
 20
132.2972649090204
 30
0.0
 11
204.3792482117585
 21
132.2972649090202
 31
0.0
  0
LINE
  5
7D63
330
1A
100
AcDbEntity
  8
SEIHIN
  6
SLD-実線
100
AcDbLine
 10
277.1792482117587
 20
100.2972649090204
 30
0.0
 11
207.8792482117585
 21
100.2972649090202
 31
0.0
  0
LINE
  5
7D64
330
1A
100
AcDbEntity
  8
SEIHIN
  6
SLD-実線
100
AcDbLine
 10
204.3792482117585
 20
103.7972649090202
 30
0.0
 11
280.6792482117587
 21
103.7972649090204
 31
0.0
  0
LINE
  5
7D65
330
1A
100
AcDbEntity
  8
SEIHIN
  6
SLD-実線
100
AcDbLine
 10
80.61084284963362
 20
102.29726490902
 30
0.0
 11
136.3108428496334
 21
102.2972649090202
 31
0.0
  0
LINE
  5
7D66
330
1A
100
AcDbEntity
  8
SEIHIN
  6
SLD-実線
100
AcDbLine
 10
80.61084284963362
 20
75.29726490901999
 30
0.0
 11
136.3108428496334
 21
75.29726490902021
 31
0.0
  0
LINE
  5
7D67
330
1A
100
AcDbEntity
  8
SEIHIN
  6
SLD-実線
100
AcDbLine
 10
76.71580118586007
 20
132.29726490902
 30
0.0
 11
140.205884513407
 21
132.2972649090202
 31
0.0
  0
LINE
  5
7D69
330
1A
100
AcDbEntity
  8
SEIHIN
  6
SLD-実線
100
AcDbLine
 10
80.61084284963362
 20
75.29726490901999
 30
0.0
 11
80.61084284963362
 21
102.29726490902
 31
0.0
  0
LINE
  5
7D6A
330
1A
100
AcDbEntity
  8
SEIHIN
  6
SLD-実線
100
AcDbLine
 10
78.61084284963363
 20
100.29726490902
 30
0.0
 11
78.61084284963363
 21
75.29726490901999
 31
0.0
  0
LINE
  5
7D6B
330
1A
100
AcDbEntity
  8
SEIHIN
  6
SLD-実線
100
AcDbLine
 10
80.61084284963362
 20
75.29726490901999
 30
0.0
 11
78.61084284963363
 21
75.29726490901999
 31
0.0
  0
LINE
  5
7D6C
330
1A
100
AcDbEntity
  8
SEIHIN
  6
SLD-実線
100
AcDbLine
 10
80.61084284963362
 20
77.50649654581275
 30
0.0
 11
78.61084284963363
 21
75.50649654581275
 31
0.0
  0
LINE
  5
7D6D
330
1A
100
AcDbEntity
  8
SEIHIN
  6
SLD-実線
100
AcDbLine
 10
80.61084284963362
 20
86.48675266688178
 30
0.0
 11
78.61084284963363
 21
84.48675266688178
 31
0.0
  0
LINE
  5
7D6E
330
1A
100
AcDbEntity
  8
SEIHIN
  6
SLD-実線
100
AcDbLine
 10
80.61084284963362
 20
81.99662460634726
 30
0.0
 11
78.61084284963363
 21
79.99662460634727
 31
0.0
  0
LINE
  5
7D6F
330
1A
100
AcDbEntity
  8
SEIHIN
  6
SLD-実線
100
AcDbLine
 10
80.61084284963362
 20
90.97688072741652
 30
0.0
 11
78.61084284963363
 21
88.9768807274163
 31
0.0
  0
LINE
  5
7D72
330
1A
100
AcDbEntity
  8
SEIHIN
  6
SLD-実線
100
AcDbLine
 10
77.01575952787152
 20
132.00226421472
 30
0.0
 11
77.4075095162998
 21
108.49726490902
 31
0.0
  0
LINE
  5
7D73
330
1A
100
AcDbEntity
  8
SEIHIN
  6
SLD-実線
100
AcDbLine
 10
74.74903681591058
 20
102.2972649090202
 30
0.0
 11
75.00824763589299
 21
131.9998828696693
 31
0.0
  0
LINE
  5
7D74
330
1A
100
AcDbEntity
  8
SEIHIN
  6
SLD-実線
100
AcDbLine
 10
72.31084284963344
 20
132.29726490902
 30
0.0
 11
72.55445497851906
 21
104.3820799048803
 31
0.0
  0
LINE
  5
7D75
330
1A
100
AcDbEntity
  8
SEIHIN
  6
SLD-実線
100
AcDbLine
 10
70.31084284963345
 20
103.79726490902
 30
0.0
 11
70.31084284963345
 21
132.29726490902
 31
0.0
  0
LINE
  5
7D77
330
1A
100
AcDbEntity
  8
SEIHIN
  6
SLD-実線
100
AcDbLine
 10
77.42417618296713
 20
107.49726490902
 30
0.0
 11
77.51084284963326
 21
102.29726490902
 31
0.0
  0
LINE
  5
7D78
330
1A
100
AcDbEntity
  8
SEIHIN
  6
SLD-実線
100
AcDbLine
 10
72.55445497851906
 20
104.3820799048803
 30
0.0
 11
74.63926997438012
 21
102.29726490902
 31
0.0
  0
LINE
  5
7D79
330
1A
100
AcDbEntity
  8
SEIHIN
  6
SLD-実線
100
AcDbLine
 10
73.81084284963344
 20
100.29726490902
 30
0.0
 11
70.31084284963345
 21
103.79726490902
 31
0.0
  0
LINE
  5
7D7A
330
1A
100
AcDbEntity
  8
SEIHIN
  6
SLD-実線
100
AcDbLine
 10
77.45280796339557
 20
105.7793580833165
 30
0.0
 11
74.75588892680298
 21
103.0824390467242
 31
0.0
  0
LINE
  5
7D7B
330
1A
100
AcDbEntity
  8
SEIHIN
  6
SLD-実線
100
AcDbLine
 10
73.81084284963344
 20
100.29726490902
 30
0.0
 11
78.61084284963363
 21
100.29726490902
 31
0.0
  0
LINE
  5
7D7C
330
1A
100
AcDbEntity
  8
SEIHIN
  6
SLD-実線
100
AcDbLine
 10
74.74903681591058
 20
102.2972649090202
 30
0.0
 11
74.63926997438012
 21
102.29726490902
 31
0.0
  0
LINE
  5
7D7D
330
1A
100
AcDbEntity
  8
SEIHIN
  6
SLD-実線
100
AcDbLine
 10
74.30499238173888
 20
102.6315425016605
 30
0.0
 11
72.89077881936646
 21
101.2173289392874
 31
0.0
  0
LINE
  5
7D7E
330
1A
100
AcDbEntity
  8
SEIHIN
  6
SLD-実線
100
AcDbLine
 10
80.61084284963362
 20
95.46700878795082
 30
0.0
 11
78.61084284963363
 21
93.46700878795104
 31
0.0
  0
LINE
  5
7D7F
330
1A
100
AcDbEntity
  8
SEIHIN
  6
SLD-実線
100
AcDbLine
 10
80.61084284963362
 20
102.29726490902
 30
0.0
 11
77.51084284963326
 21
102.29726490902
 31
0.0
  0
LINE
  5
7D80
330
1A
100
AcDbEntity
  8
SEIHIN
  6
SLD-実線
100
AcDbLine
 10
80.61084284963362
 20
99.95713684848533
 30
0.0
 11
78.61084284963363
 21
97.95713684848557
 31
0.0
  0
LINE
  5
7D81
330
1A
100
AcDbEntity
  8
SEIHIN
  6
SLD-実線
100
AcDbLine
 10
78.46084284963308
 20
102.29726490902
 30
0.0
 11
76.46084284963308
 21
100.29726490902
 31
0.0
  0
LINE
  5
7D82
330
1A
100
AcDbEntity
  8
SEIHIN
  6
SLD-実線
100
AcDbLine
 10
77.37919930666521
 20
110.1958774871209
 30
0.0
 11
74.79541865143165
 21
107.6120968318867
 31
0.0
  0
LINE
  5
7D83
330
1A
100
AcDbEntity
  8
SEIHIN
  6
SLD-実線
100
AcDbLine
 10
77.30559064993485
 20
114.6123968909251
 30
0.0
 11
74.83494837606031
 21
112.1417546170503
 31
0.0
  0
LINE
  5
7D84
330
1A
100
AcDbEntity
  8
SEIHIN
  6
SLD-実線
100
AcDbLine
 10
72.50705256220498
 20
109.8138588031961
 30
0.0
 11
70.31084284963345
 21
107.6176490906237
 31
0.0
  0
LINE
  5
7D85
330
1A
100
AcDbEntity
  8
SEIHIN
  6
SLD-実線
100
AcDbLine
 10
72.54589831440899
 20
105.3625764948656
 30
0.0
 11
70.64571478909875
 21
103.4623929695544
 31
0.0
  0
LINE
  5
7D86
330
1A
100
AcDbEntity
  8
SEIHIN
  6
SLD-実線
100
AcDbLine
 10
74.76723072074765
 20
104.3820799048803
 30
0.0
 11
72.55445497851906
 21
104.3820799048803
 31
0.0
  0
LINE
  5
7D87
330
1A
100
AcDbEntity
  8
SEIHIN
  6
SLD-実線
100
AcDbLine
 10
72.46820681000099
 20
114.2651411115262
 30
0.0
 11
70.31084284963345
 21
112.1077771511584
 31
0.0
  0
LINE
  5
7D88
330
1A
100
AcDbEntity
  8
SEIHIN
  6
SLD-実線
100
AcDbLine
 10
79.3618308389141
 20
107.49726490902
 30
0.0
 11
78.41084284963381
 21
107.49726490902
 31
0.0
  0
LINE
  5
7D89
330
1A
100
AcDbEntity
  8
SEIHIN
  6
SLD-実線
100
AcDbLine
 10
79.3618308389141
 20
107.99726490902
 30
0.0
 11
79.3618308389141
 21
107.49726490902
 31
0.0
  0
LINE
  5
7D8A
330
1A
100
AcDbEntity
  8
SEIHIN
  6
SLD-実線
100
AcDbLine
 10
77.91084284963381
 20
108.49726490902
 30
0.0
 11
78.84577067345981
 21
108.49726490902
 31
0.0
  0
ARC
  5
7D8C
330
1A
100
AcDbEntity
  8
SEIHIN
  6
SLD-実線
100
AcDbCircle
 10
78.85506551919752
 20
107.9905402139097
 30
0.0
 40
0.506809935569401
100
AcDbArc
 50
0.7602612496799758
 51
91.05085803083637
  0
LINE
  5
7D8D
330
1A
100
AcDbEntity
  8
SEIHIN
  6
SLD-実線
100
AcDbLine
 10
77.42417618296713
 20
107.49726490902
 30
0.0
 11
78.41084284963381
 21
107.49726490902
 31
0.0
  0
LINE
  5
7D8E
330
1A
100
AcDbEntity
  8
SEIHIN
  6
SLD-実線
100
AcDbLine
 10
78.41084284963381
 20
107.49726490902
 30
0.0
 11
78.41084284963381
 21
107.99726490902
 31
0.0
  0
ARC
  5
7D8F
330
1A
100
AcDbEntity
  8
SEIHIN
  6
SLD-実線
100
AcDbCircle
 10
77.91084284963381
 20
107.99726490902
 30
0.0
 40
0.5
100
AcDbArc
 50
0.0
 51
90.0
  0
LINE
  5
7D90
330
1A
100
AcDbEntity
  8
SEIHIN
  6
SLD-実線
100
AcDbLine
 10
77.4075095162998
 20
108.49726490902
 30
0.0
 11
77.91084284963381
 21
108.49726490902
 31
0.0
  0
LINE
  5
7D91
330
1A
100
AcDbEntity
  8
SEIHIN
  6
SLD-実線
100
AcDbLine
 10
77.08476467974469
 20
127.8619551023387
 30
0.0
 11
74.95353754994539
 21
125.7307279725389
 31
0.0
  0
LINE
  5
7D92
330
1A
100
AcDbEntity
  8
SEIHIN
  6
SLD-実線
100
AcDbLine
 10
72.351669553389
 20
127.6189880365184
 30
0.0
 11
70.31084284963345
 21
125.5781613327619
 31
0.0
  0
LINE
  5
7D93
330
1A
100
AcDbEntity
  8
SEIHIN
  6
SLD-実線
100
AcDbLine
 10
77.23198199320449
 20
119.0289162947299
 30
0.0
 11
74.87447810068807
 21
116.671412402213
 31
0.0
  0
LINE
  5
7D94
330
1A
100
AcDbEntity
  8
SEIHIN
  6
SLD-実線
100
AcDbLine
 10
77.15837333647505
 20
123.4454356985341
 30
0.0
 11
74.91400782531673
 21
121.2010701873764
 31
0.0
  0
LINE
  5
7D95
330
1A
100
AcDbEntity
  8
SEIHIN
  6
SLD-実線
100
AcDbLine
 10
72.42936105779699
 20
118.7164234198571
 30
0.0
 11
70.31084284963345
 21
116.5979052116929
 31
0.0
  0
LINE
  5
7D96
330
1A
100
AcDbEntity
  8
SEIHIN
  6
SLD-実線
100
AcDbLine
 10
72.390515305593
 20
123.1677057281877
 30
0.0
 11
70.31084284963345
 21
121.0880332722274
 31
0.0
  0
LINE
  5
7D97
330
1A
100
AcDbEntity
  8
SEIHIN
100
AcDbLine
 10
75.01084284963326
 20
132.29726490902
 30
0.0
 11
77.01084284963326
 21
132.29726490902
 31
0.0
  0
LINE
  5
7D98
330
1A
100
AcDbEntity
  8
SEIHIN
  6
SLD-実線
100
AcDbLine
 10
75.30823621281161
 20
132.29726490902
 30
0.0
 11
76.71580118586007
 21
132.29726490902
 31
0.0
  0
LINE
  5
7D99
330
1A
100
AcDbEntity
  8
SEIHIN
  6
SLD-実線
100
AcDbLine
 10
76.93488790457195
 20
132.2022063877007
 30
0.0
 11
74.99306727457406
 21
130.2603857577023
 31
0.0
  0
ARC
  5
7D9A
330
1A
100
AcDbEntity
  8
SEIHIN
  6
SLD-実線
100
AcDbCircle
 10
75.30823621281161
 20
131.99726490902
 30
0.0
 40
0.3000000000000114
100
AcDbArc
 50
90.0
 51
179.5000000000215
  0
LINE
  5
7D9B
330
1A
100
AcDbEntity
  8
SEIHIN
  6
SLD-実線
100
AcDbLine
 10
72.31282380118409
 20
132.0702703448478
 30
0.0
 11
70.31084284963345
 21
130.0682893932967
 31
0.0
  0
LINE
  5
7D9C
330
1A
100
AcDbEntity
  8
SEIHIN
  6
SLD-実線
100
AcDbLine
 10
70.31084284963345
 20
132.29726490902
 30
0.0
 11
72.31084284963344
 21
132.29726490902
 31
0.0
  0
LINE
  5
7D9D
330
1A
100
AcDbEntity
  8
SEIHIN
  6
SLD-実線
100
AcDbLine
 10
72.31084284963344
 20
132.29726490902
 30
0.0
 11
75.30823621281161
 21
132.29726490902
 31
0.0
  0
ARC
  5
7D9E
330
1A
100
AcDbEntity
  8
SEIHIN
  6
SLD-実線
100
AcDbCircle
 10
76.71580118586007
 20
131.99726490902
 30
0.0
 40
0.3000000000000114
100
AcDbArc
 50
0.9548412538548753
 51
90.0
  0
LINE
  5
7D9F
330
1A
100
AcDbEntity
  8
SEIHIN
  6
SLD-実線
100
AcDbLine
 10
136.3108428496334
 20
102.2972649090202
 30
0.0
 11
136.3108428496334
 21
75.29726490902021
 31
0.0
  0
LINE
  5
7DA0
330
1A
100
AcDbEntity
  8
SEIHIN
  6
SLD-実線
100
AcDbLine
 10
138.3108428496334
 20
75.29726490902021
 30
0.0
 11
138.3108428496334
 21
100.2972649090202
 31
0.0
  0
LINE
  5
7DA1
330
1A
100
AcDbEntity
  8
SEIHIN
  6
SLD-実線
100
AcDbLine
 10
138.3108428496334
 20
81.32495981939792
 30
0.0
 11
136.3108428496334
 21
79.32495981939791
 31
0.0
  0
LINE
  5
7DA2
330
1A
100
AcDbEntity
  8
SEIHIN
  6
SLD-実線
100
AcDbLine
 10
138.3108428496334
 20
75.29726490902021
 30
0.0
 11
136.3108428496334
 21
75.29726490902021
 31
0.0
  0
LINE
  5
7DA3
330
1A
100
AcDbEntity
  8
SEIHIN
  6
SLD-実線
100
AcDbLine
 10
138.3108428496334
 20
76.83483175886317
 30
0.0
 11
136.7732759997907
 21
75.29726490902021
 31
0.0
  0
LINE
  5
7DA4
330
1A
100
AcDbEntity
  8
SEIHIN
  6
SLD-実線
100
AcDbLine
 10
138.3108428496334
 20
85.81508787993243
 30
0.0
 11
136.3108428496334
 21
83.81508787993244
 31
0.0
  0
LINE
  5
7DA5
330
1A
100
AcDbEntity
  8
SEIHIN
  6
SLD-実線
100
AcDbLine
 10
138.3108428496334
 20
90.30521594046694
 30
0.0
 11
136.3108428496334
 21
88.30521594046695
 31
0.0
  0
LINE
  5
7DA8
330
1A
100
AcDbEntity
  8
SEIHIN
  6
SLD-実線
100
AcDbLine
 10
139.5141761829663
 20
108.4972649090202
 30
0.0
 11
139.9059261713946
 21
132.0022642147203
 31
0.0
  0
LINE
  5
7DA9
330
1A
100
AcDbEntity
  8
SEIHIN
  6
SLD-実線
100
AcDbLine
 10
141.9134380633741
 20
131.9998828696696
 30
0.0
 11
142.1726488833565
 21
102.2972649090204
 31
0.0
  0
LINE
  5
7DAA
330
1A
100
AcDbEntity
  8
SEIHIN
  6
SLD-実線
100
AcDbLine
 10
144.367230720748
 20
104.3820799048805
 30
0.0
 11
144.6108428496336
 21
132.2972649090202
 31
0.0
  0
LINE
  5
7DAB
330
1A
100
AcDbEntity
  8
SEIHIN
  6
SLD-実線
100
AcDbLine
 10
146.6108428496336
 20
132.2972649090202
 30
0.0
 11
146.6108428496336
 21
103.7972649090202
 31
0.0
  0
LINE
  5
7DAC
330
1A
100
AcDbEntity
  8
SEIHIN
  6
SLD-実線
100
AcDbLine
 10
146.6108428496336
 20
116.5657281826054
 30
0.0
 11
144.4547397820624
 21
114.4096251150345
 31
0.0
  0
LINE
  5
7DAD
330
1A
100
AcDbEntity
  8
SEIHIN
  6
SLD-実線
100
AcDbLine
 10
142.0487578494885
 20
116.4937712429955
 30
0.0
 11
139.6067511773299
 21
114.0517645708364
 31
0.0
  0
LINE
  5
7DAE
330
1A
100
AcDbEntity
  8
SEIHIN
  6
SLD-実線
100
AcDbLine
 10
139.4108428496338
 20
102.2972649090202
 30
0.0
 11
139.4975095162999
 21
107.4972649090202
 31
0.0
  0
LINE
  5
7DAF
330
1A
100
AcDbEntity
  8
SEIHIN
  6
SLD-実線
100
AcDbLine
 10
142.2824157248869
 20
102.2972649090202
 30
0.0
 11
144.367230720748
 21
104.3820799048805
 31
0.0
  0
LINE
  5
7DB0
330
1A
100
AcDbEntity
  8
SEIHIN
  6
SLD-実線
100
AcDbLine
 10
146.6108428496336
 20
103.7972649090202
 30
0.0
 11
143.1108428496336
 21
100.2972649090202
 31
0.0
  0
LINE
  5
7DB1
330
1A
100
AcDbEntity
  8
SEIHIN
  6
SLD-実線
100
AcDbLine
 10
142.1652951061014
 20
103.139924318004
 30
0.0
 11
139.3226356971172
 21
100.2972649090202
 31
0.0
  0
LINE
  5
7DB2
330
1A
100
AcDbEntity
  8
SEIHIN
  6
SLD-実線
100
AcDbLine
 10
138.3108428496334
 20
100.2972649090202
 30
0.0
 11
143.1108428496336
 21
100.2972649090202
 31
0.0
  0
LINE
  5
7DB3
330
1A
100
AcDbEntity
  8
SEIHIN
  6
SLD-実線
100
AcDbLine
 10
138.3108428496334
 20
99.28547206153599
 30
0.0
 11
136.3108428496334
 21
97.28547206153621
 31
0.0
  0
LINE
  5
7DB4
330
1A
100
AcDbEntity
  8
SEIHIN
  6
SLD-実線
100
AcDbLine
 10
138.3108428496334
 20
94.79534400100169
 30
0.0
 11
136.3108428496334
 21
92.79534400100169
 31
0.0
  0
LINE
  5
7DB5
330
1A
100
AcDbEntity
  8
SEIHIN
  6
SLD-実線
100
AcDbLine
 10
139.4108428496338
 20
102.2972649090202
 30
0.0
 11
136.3108428496334
 21
102.2972649090202
 31
0.0
  0
LINE
  5
7DB6
330
1A
100
AcDbEntity
  8
SEIHIN
  6
SLD-実線
100
AcDbLine
 10
136.8325076365827
 20
102.2972649090202
 30
0.0
 11
136.3108428496334
 21
101.7756001220707
 31
0.0
  0
LINE
  5
7DB7
330
1A
100
AcDbEntity
  8
SEIHIN
  6
SLD-実線
100
AcDbLine
 10
142.2824157248869
 20
102.2972649090202
 30
0.0
 11
142.1726488833565
 21
102.2972649090204
 31
0.0
  0
LINE
  5
7DB8
330
1A
100
AcDbEntity
  8
SEIHIN
  6
SLD-実線
100
AcDbLine
 10
142.1264493538965
 20
107.5912066263336
 30
0.0
 11
139.4545434464644
 21
104.9193007189021
 31
0.0
  0
LINE
  5
7DB9
330
1A
100
AcDbEntity
  8
SEIHIN
  6
SLD-実線
100
AcDbLine
 10
142.0876036016925
 20
112.0424889346641
 30
0.0
 11
139.5306473118971
 21
109.4855326448691
 31
0.0
  0
LINE
  5
7DBA
330
1A
100
AcDbEntity
  8
SEIHIN
  6
SLD-実線
100
AcDbLine
 10
138.5108428496332
 20
107.4972649090202
 30
0.0
 11
137.559854860353
 21
107.49726490902
 31
0.0
  0
LINE
  5
7DBB
330
1A
100
AcDbEntity
  8
SEIHIN
  6
SLD-実線
100
AcDbLine
 10
137.559854860353
 20
107.49726490902
 30
0.0
 11
137.559854860353
 21
107.9972649090202
 31
0.0
  0
LINE
  5
7DBC
330
1A
100
AcDbEntity
  8
SEIHIN
  6
SLD-実線
100
AcDbLine
 10
138.0759150258072
 20
108.4972649090202
 30
0.0
 11
139.0108428496332
 21
108.4972649090202
 31
0.0
  0
ARC
  5
7DBE
330
1A
100
AcDbEntity
  8
SEIHIN
  6
SLD-実線
100
AcDbCircle
 10
138.0690671589518
 20
107.9880146372566
 30
0.0
 40
0.5092963111704476
100
AcDbArc
 50
89.22959251029372
 51
178.9592882092588
  0
LINE
  5
7DBF
330
1A
100
AcDbEntity
  8
SEIHIN
  6
SLD-実線
100
AcDbLine
 10
139.0108428496332
 20
108.4972649090202
 30
0.0
 11
139.5141761829663
 21
108.4972649090202
 31
0.0
  0
ARC
  5
7DC0
330
1A
100
AcDbEntity
  8
SEIHIN
  6
SLD-実線
100
AcDbCircle
 10
139.0108428496332
 20
107.9972649090202
 30
0.0
 40
0.5
100
AcDbArc
 50
90.0
 51
180.0
  0
LINE
  5
7DC1
330
1A
100
AcDbEntity
  8
SEIHIN
  6
SLD-実線
100
AcDbLine
 10
138.5108428496332
 20
107.9972649090202
 30
0.0
 11
138.5108428496332
 21
107.4972649090202
 31
0.0
  0
LINE
  5
7DC2
330
1A
100
AcDbEntity
  8
SEIHIN
  6
SLD-実線
100
AcDbLine
 10
138.5108428496332
 20
107.4972649090202
 30
0.0
 11
139.4975095162999
 21
107.4972649090202
 31
0.0
  0
LINE
  5
7DC3
330
1A
100
AcDbEntity
  8
SEIHIN
  6
SLD-実線
100
AcDbLine
 10
146.6108428496336
 20
107.5854720615361
 30
0.0
 11
144.375680332806
 21
105.3503095447086
 31
0.0
  0
LINE
  5
7DC4
330
1A
100
AcDbEntity
  8
SEIHIN
  6
SLD-実線
100
AcDbLine
 10
144.367230720748
 20
104.3820799048805
 30
0.0
 11
142.1544549785194
 21
104.3820799048805
 31
0.0
  0
LINE
  5
7DC5
330
1A
100
AcDbEntity
  8
SEIHIN
  6
SLD-実線
100
AcDbLine
 10
146.6108428496336
 20
112.0756001220707
 30
0.0
 11
144.4152100574338
 21
109.8799673298713
 31
0.0
  0
LINE
  5
7DC6
330
1A
100
AcDbEntity
  8
SEIHIN
  6
SLD-実線
100
AcDbLine
 10
142.0099120972836
 20
120.9450535513238
 30
0.0
 11
139.6828550427635
 21
118.6179964968041
 31
0.0
  0
LINE
  5
7DC7
330
1A
100
AcDbEntity
  8
SEIHIN
  6
SLD-実線
100
AcDbLine
 10
141.9710663450805
 20
125.3963358596554
 30
0.0
 11
139.7589589081954
 21
123.1842284227709
 31
0.0
  0
LINE
  5
7DC8
330
1A
100
AcDbEntity
  8
SEIHIN
  6
SLD-実線
100
AcDbLine
 10
146.6108428496336
 20
121.0558562431399
 30
0.0
 11
144.4942695066911
 21
118.9392829001972
 31
0.0
  0
LINE
  5
7DC9
330
1A
100
AcDbEntity
  8
SEIHIN
  6
SLD-実線
100
AcDbLine
 10
146.6108428496336
 20
125.5459843036744
 30
0.0
 11
144.5337992313198
 21
123.4689406853606
 31
0.0
  0
LINE
  5
7DCA
330
1A
100
AcDbEntity
  8
SEIHIN
100
AcDbLine
 10
139.9108428496338
 20
132.2972649090202
 30
0.0
 11
141.9108428496338
 21
132.2972649090202
 31
0.0
  0
LINE
  5
7DCB
330
1A
100
AcDbEntity
  8
SEIHIN
  6
SLD-実線
100
AcDbLine
 10
140.205884513407
 20
132.2972649090202
 30
0.0
 11
141.6134494864545
 21
132.2972649090202
 31
0.0
  0
LINE
  5
7DCC
330
1A
100
AcDbEntity
  8
SEIHIN
  6
SLD-実線
100
AcDbLine
 10
141.9322205928756
 20
129.8476181679862
 30
0.0
 11
139.8350627736281
 21
127.7504603487384
 31
0.0
  0
ARC
  5
7DCD
330
1A
100
AcDbEntity
  8
SEIHIN
  6
SLD-実線
100
AcDbCircle
 10
140.205884513407
 20
131.9972649090202
 30
0.0
 40
0.2999999999999951
100
AcDbArc
 50
90.0
 51
179.0451587461451
  0
ARC
  5
7DCE
330
1A
100
AcDbEntity
  8
SEIHIN
  6
SLD-実線
100
AcDbCircle
 10
141.6134494864545
 20
131.9972649090202
 30
0.0
 40
0.2999999999999952
100
AcDbArc
 50
0.4999999999785196
 51
90.0
  0
LINE
  5
7DCF
330
1A
100
AcDbEntity
  8
SEIHIN
  6
SLD-実線
100
AcDbLine
 10
146.6108428496336
 20
130.0361123642089
 30
0.0
 11
144.5733289559484
 21
127.9985984705245
 31
0.0
  0
LINE
  5
7DD0
330
1A
100
AcDbEntity
  8
SEIHIN
  6
SLD-実線
100
AcDbLine
 10
144.6108428496336
 20
132.2972649090202
 30
0.0
 11
146.6108428496336
 21
132.2972649090202
 31
0.0
  0
LINE
  5
7DD1
330
1A
100
AcDbEntity
  8
SEIHIN
  6
SLD-実線
100
AcDbLine
 10
141.6134494864545
 20
132.2972649090202
 30
0.0
 11
144.6108428496336
 21
132.2972649090202
 31
0.0
  0
LINE
  5
7DD2
330
1A
100
AcDbEntity
  8
SEIHIN
  6
SLD-実線
100
AcDbLine
 10
212.6792482117587
 20
100.2972649090202
 30
0.0
 11
212.6792482117587
 21
75.29726490902021
 31
0.0
  0
LINE
  5
7DD3
330
1A
100
AcDbEntity
  8
SEIHIN
  6
SLD-実線
100
AcDbLine
 10
204.3792482117585
 20
132.2972649090202
 30
0.0
 11
204.3792482117585
 21
103.7972649090202
 31
0.0
  0
LINE
  5
7DD4
330
1A
100
AcDbEntity
  8
SEIHIN
  6
SLD-実線
100
AcDbLine
 10
204.3792482117585
 20
103.7972649090202
 30
0.0
 11
207.8792482117585
 21
100.2972649090202
 31
0.0
  0
ARC
  5
7DD5
330
1A
100
AcDbEntity
  8
SEIHIN
  6
SLD-実線
100
AcDbCircle
 10
244.9309392609606
 20
219.7431785110055
 30
0.0
 40
30.95
100
AcDbArc
 50
194.0238831818129
 51
345.976116818187
  0
LINE
  5
7DD6
330
1A
100
AcDbEntity
  8
SEIHIN
  6
SLD-実線
100
AcDbLine
 10
274.5460114371348
 20
212.2431785110054
 30
0.0
 11
275.0649650642134
 21
212.2431785110054
 31
0.0
  0
LINE
  5
7DD7
330
1A
100
AcDbEntity
  8
SEIHIN
  6
SLD-実線
100
AcDbLine
 10
274.5460114371348
 20
212.2431785110054
 30
0.0
 11
274.0299512716798
 21
212.2431785110054
 31
0.0
  0
LINE
  5
7DD8
330
1A
100
AcDbEntity
  8
SEIHIN
  6
SLD-実線
100
AcDbLine
 10
214.7969134577078
 20
212.2431785110054
 30
0.0
 11
215.3158670847864
 21
212.2431785110054
 31
0.0
  0
LINE
  5
7DD9
330
1A
100
AcDbEntity
  8
SEIHIN
  6
SLD-実線
100
AcDbLine
 10
215.8319272502412
 20
212.2431785110054
 30
0.0
 11
215.3158670847864
 21
212.2431785110054
 31
0.0
  0
LINE
  5
7DDA
330
1A
100
AcDbEntity
  8
CENTER L
  6
CENTER
 62
     1
 48
5.0
100
AcDbLine
 10
242.5292482117582
 20
140.8705214367061
 30
0.0
 11
242.5292482117582
 21
68.43351802777101
 31
0.0
  0
LINE
  5
7DDB
330
1A
100
AcDbEntity
  8
SEIHIN
  6
SLD-実線
100
AcDbLine
 10
272.3792482117585
 20
75.29726490902044
 30
0.0
 11
272.3792482117585
 21
100.2972649090204
 31
0.0
  0
LINE
  5
7DDC
330
1A
100
AcDbEntity
  8
SEIHIN
  6
SLD-実線
100
AcDbLine
 10
272.3792482117585
 20
75.29726490902044
 30
0.0
 11
242.5292482117582
 21
75.29726490902044
 31
0.0
  0
LINE
  5
7DDD
330
1A
100
AcDbEntity
  8
SEIHIN
  6
SLD-実線
100
AcDbLine
 10
280.6792482117587
 20
132.2972649090206
 30
0.0
 11
242.5292482117582
 21
132.2972649090204
 31
0.0
  0
LINE
  5
7DDE
330
1A
100
AcDbEntity
  8
SEIHIN
  6
SLD-実線
100
AcDbLine
 10
280.6792482117587
 20
103.7972649090204
 30
0.0
 11
280.6792482117587
 21
132.2972649090206
 31
0.0
  0
LINE
  5
7DDF
330
1A
100
AcDbEntity
  8
SEIHIN
  6
SLD-実線
100
AcDbLine
 10
277.1792482117587
 20
100.2972649090204
 30
0.0
 11
280.6792482117587
 21
103.7972649090204
 31
0.0
  0
ARC
  5
7DEF
330
1A
100
AcDbEntity
  8
SEIHIN
  6
SLD-実線
100
AcDbCircle
 10
244.9309392609606
 20
219.7431785110055
 30
0.0
 40
30.94999999999998
100
AcDbArc
 50
14.0238831818129
 51
165.9761168181871
  0
LINE
  5
7DF0
330
1A
100
AcDbEntity
  8
SEIHIN
  6
SLD-実線
100
AcDbLine
 10
275.0649650642135
 20
227.2431785110054
 30
0.0
 11
274.5460114371349
 21
227.2431785110054
 31
0.0
  0
LINE
  5
7DF1
330
1A
100
AcDbEntity
  8
SEIHIN
  6
SLD-実線
100
AcDbLine
 10
274.0299512716804
 20
227.2431785110054
 30
0.0
 11
274.5460114371349
 21
227.2431785110054
 31
0.0
  0
LINE
  5
7DF5
330
1A
100
AcDbEntity
  8
SEIHIN
  6
SLD-実線
100
AcDbLine
 10
215.3158670847868
 20
227.2431785110054
 30
0.0
 11
214.7969134577079
 21
227.2431785110054
 31
0.0
  0
LINE
  5
7DF6
330
1A
100
AcDbEntity
  8
SEIHIN
  6
SLD-実線
100
AcDbLine
 10
215.3158670847868
 20
227.2431785110054
 30
0.0
 11
215.8319272502417
 21
227.2431785110054
 31
0.0
  0
LWPOLYLINE
  5
7E09
330
1A
100
AcDbEntity
  8
ZUWAKU
100
AcDbPolyline
 90
        4
 70
     1
 43
0.0
 10
0.4000000000005457
 20
275.3999999999999
 10
0.4000000000005457
 20
0.400000000000091
 10
398.4000000000006
 20
0.400000000000091
 10
398.4000000000006
 20
275.3999999999999
  0
LWPOLYLINE
  5
7E0A
330
1A
100
AcDbEntity
  8
ZUWAKU
100
AcDbPolyline
 90
        4
 70
     1
 43
0.0
 10
0.2000000000007276
 20
275.5999999999999
 10
0.2000000000007276
 20
0.2000000000000455
 10
398.6000000000004
 20
0.2000000000000455
 10
398.6000000000004
 20
275.5999999999999
  0
LWPOLYLINE
  5
7E0B
330
1A
100
AcDbEntity
  8
ZUWAKU
100
AcDbPolyline
 90
        4
 70
     1
 43
0.0
 10
0.0
 20
275.8
 10
0.0
 20
0.0
 10
398.8000000000002
 20
0.0
 10
398.8000000000002
 20
275.8
  0
LWPOLYLINE
  5
7E0C
330
1A
100
AcDbEntity
  8
ZUWAKU
100
AcDbPolyline
 90
        4
 70
     1
 43
0.0
 10
0.3000000000001819
 20
275.5
 10
0.3000000000001819
 20
0.2999999999999545
 10
398.5000000000009
 20
0.2999999999999545
 10
398.5
 20
275.5
  0
LWPOLYLINE
  5
7E0D
330
1A
100
AcDbEntity
  8
ZUWAKU
100
AcDbPolyline
 90
        4
 70
     1
 43
0.0
 10
0.1000000000003638
 20
275.7000000000001
 10
0.1000000000003638
 20
0.1000000000001364
 10
398.6999999999998
 20
0.1000000000001364
 10
398.7000000000007
 20
275.7000000000001
  0
LINE
  5
7E0E
330
1A
100
AcDbEntity
  8
ZUWAKU
100
AcDbLine
 10
0.0
 20
15.0
 30
0.0
 11
398.6999999999998
 21
15.0
 31
0.0
  0
LINE
  5
7E0F
330
1A
100
AcDbEntity
  8
ZUWAKU
100
AcDbLine
 10
0.0
 20
15.09999999999991
 30
0.0
 11
398.6999999999998
 21
15.09999999999991
 31
0.0
  0
LINE
  5
7E10
330
1A
100
AcDbEntity
  8
ZUWAKU
100
AcDbLine
 10
0.0
 20
15.20000000000004
 30
0.0
 11
398.6999999999998
 21
15.20000000000004
 31
0.0
  0
LINE
  5
7E11
330
1A
100
AcDbEntity
  8
ZUWAKU
100
AcDbLine
 10
0.0
 20
15.29999999999995
 30
0.0
 11
398.6999999999998
 21
15.29999999999995
 31
0.0
  0
LINE
  5
7E12
330
1A
100
AcDbEntity
  8
ZUWAKU
100
AcDbLine
 10
0.0
 20
15.40000000000009
 30
0.0
 11
398.6999999999998
 21
15.40000000000009
 31
0.0
  0
LINE
  5
7E13
330
1A
100
AcDbEntity
  8
ZUWAKU
100
AcDbLine
 10
104.3233006450346
 20
7.700000000000045
 30
0.0
 11
223.7121819854956
 21
7.700000000000045
 31
0.0
  0
LINE
  5
7E14
330
1A
100
AcDbEntity
  8
ZUWAKU
100
AcDbLine
 10
104.3233006450346
 20
7.799999999999954
 30
0.0
 11
223.7121819854956
 21
7.799999999999954
 31
0.0
  0
LINE
  5
7E15
330
1A
100
AcDbEntity
  8
ZUWAKU
100
AcDbLine
 10
104.3233006450346
 20
7.599999999999909
 30
0.0
 11
223.7121819854956
 21
7.599999999999909
 31
0.0
  0
TEXT
  5
7E16
330
1A
100
AcDbEntity
  8
MOJI
100
AcDbText
 10
44.44138781598939
 20
6.242677634848405
 30
0.0
 40
2.799999999999999
  1
ユニシェイプ
 41
0.9
  7
ｽﾀｲﾙ1
100
AcDbText
  0
CIRCLE
  5
7E17
330
1A
100
AcDbEntity
  8
ZUWAKU
100
AcDbCircle
 10
12.99610607739123
 20
7.599999999999909
 30
0.0
 40
0.875
  0
LINE
  5
7E18
330
1A
100
AcDbEntity
  8
ZUWAKU
100
AcDbLine
 10
13.43360607739123
 20
3.575000000000045
 30
0.0
 11
12.47110607739069
 21
3.575000000000045
 31
0.0
  0
LINE
  5
7E19
330
1A
100
AcDbEntity
  8
ZUWAKU
100
AcDbLine
 10
12.47110607739069
 20
4.974999999999909
 30
0.0
 11
13.43360607739123
 21
4.974999999999909
 31
0.0
  0
LINE
  5
7E1A
330
1A
100
AcDbEntity
  8
ZUWAKU
100
AcDbLine
 10
13.43360607739123
 20
10.22499999999991
 30
0.0
 11
12.47110607739069
 21
10.22499999999991
 31
0.0
  0
LINE
  5
7E1B
330
1A
100
AcDbEntity
  8
ZUWAKU
100
AcDbLine
 10
12.47110607739069
 20
11.625
 30
0.0
 11
13.43360607739123
 21
11.625
 31
0.0
  0
INSERT
  5
7E1C
330
1A
100
AcDbEntity
  8
ZUWAKU
  6
Continuous
100
AcDbBlockReference
  2
*X1
 10
-0.0000002654078344
 20
0.0000004524474662
 30
0.0
1001
ACAD
1000
HATCH
1002
{
1070
    19
1000
ANSI37
1040
0.1
1040
0.0
1000
R14_HATCH_DATA
1000
6A2
1011
0.9999997345921656
1021
0.0000004524474662
1031
0.0
1011
-0.0000002654078344
1021
1.000000452447466
1031
0.0
1011
-0.0000002654078344
1021
0.0000004524474662
1031
1.0
1040
0.0
1010
0.0
1020
0.0
1030
1.0
1000
ANSI37
1070
     0
1070
     0
1071
        8
1071
        7
1070
     1
1070
     1
1071
       24
1040
7.251131595968215
1040
8.822423788044437
1040
-0.1989123673796348
1040
7.046106342798849
1040
9.317398534874961
1040
0.0
1040
7.046106342798849
1040
9.962499547552651
1040
-0.4142135623730912
1040
7.308606342798834
1040
10.22499954755264
1040
0.0
1040
8.796106342798788
1040
10.22499954755264
1040
0.4142135623731546
1040
9.058606342798841
1040
10.48749954755264
1040
0.0
1040
9.058606342798841
1040
11.36249954755265
1040
0.4142135623731586
1040
8.796106342798788
1040
11.62499954755264
1040
0.0
1040
7.046106342798849
1040
11.62499954755264
1040
0.4142135623730928
1040
5.646106342798869
1040
10.22499954755266
1040
0.0
1040
5.646106342798869
1040
9.317398534875026
1040
0.1989123673796619
1040
6.261182102307084
1040
7.832474294383221
1040
0.0
1040
7.716081089629423
1040
6.377575307060895
1040
-0.1989123673796613
1040
7.921106342798849
1040
5.882600560230301
1040
0.0
1040
7.921106342798849
1040
5.237499547552641
1040
-0.4142135623730911
1040
7.658606342798859
1040
4.974999547552648
1040
0.0
1040
6.171106342798904
1040
4.974999547552648
1040
0.4142135623731526
1040
5.908606342798859
1040
4.712499547552654
1040
0.0
1040
5.908606342798859
1040
3.837499547552643
1040
0.4142135623731526
1040
6.171106342798904
1040
3.574999547552649
1040
0.0
1040
7.921106342798849
1040
3.574999547552649
1040
0.4142135623731045
1040
9.321106342798886
1040
4.974999547552638
1040
0.0
1040
9.321106342798886
1040
5.882600560230271
1040
0.1989123673796604
1040
8.706030583290608
1040
7.367524800722041
1040
0.0
1071
        0
1071
        7
1070
     1
1070
     1
1071
       16
1040
11.77110634279887
1040
9.524999547552651
1040
-0.4142135623730935
1040
12.47110634279886
1040
10.22499954755264
1040
0.0
1040
13.43360634279884
1040
10.22499954755264
1040
0.4142135623731546
1040
13.69610634279889
1040
10.48749954755264
1040
0.0
1040
13.69610634279889
1040
11.36249954755265
1040
0.4142135623730951
1040
13.43360634279889
1040
11.62499954755264
1040
0.0
1040
12.4711063427988
1040
11.62499954755262
1040
0.4142135623730893
1040
10.37110634279883
1040
9.524999547552617
1040
0.0
1040
10.37110634279883
1040
5.674999547552661
1040
0.4142135623730969
1040
12.47110634279886
1040
3.574999547552649
1040
0.0
1040
13.43360634279884
1040
3.574999547552649
1040
0.4142135623731526
1040
13.69610634279889
1040
3.837499547552643
1040
0.0
1040
13.69610634279889
1040
4.712499547552654
1040
0.4142135623730891
1040
13.43360634279889
1040
4.974999547552648
1040
0.0
1040
12.47110634279886
1040
4.974999547552648
1040
-0.4142135623730928
1040
11.77110634279887
1040
5.674999547552641
1040
0.0
1071
        0
1071
        7
1070
     1
1070
     1
1071
        2
1040
12.12110634279884
1040
7.599999547552645
1040
1.0
1040
13.87110634279884
1040
7.599999547552645
1040
1.0
1071
        0
1071
        7
1070
     1
1070
     1
1071
       26
1040
18.65742958388785
1040
9.602523144334361
1040
0.0
1040
19.18824940045676
1040
11.28345256346915
1040
0.5069206636600134
1040
18.93793395085907
1040
11.62499954755264
1040
0.0
1040
18.08848926105446
1040
11.62499954755264
1040
0.3272098845218764
1040
17.83817381145678
1040
11.44154653163613
1040
0.0
1040
16.90403887414088
1040
8.483452563469185
1040
-0.3272098845219541
1040
16.65372342454315
1040
8.299999547552646
1040
0.0
1040
16.58360634279893
1040
8.299999547552646
1040
-0.4142135623731526
1040
16.32110634279888
1040
8.56249954755264
1040
0.0
1040
16.32110634279888
1040
11.36249954755265
1040
0.4142135623730951
1040
16.05860634279889
1040
11.62499954755264
1040
0.0
1040
15.18360634279883
1040
11.62499954755264
1040
0.4142135623730871
1040
14.92110634279885
1040
11.36249954755265
1040
0.0
1040
14.92110634279885
1040
3.837499547552643
1040
0.4142135623730891
1040
15.18360634279883
1040
3.574999547552649
1040
0.0
1040
16.05860634279884
1040
3.574999547552649
1040
0.4142135623731526
1040
16.32110634279888
1040
3.837499547552643
1040
0.0
1040
16.32110634279888
1040
6.63749954755265
1040
-0.4142135623731526
1040
16.58360634279893
1040
6.899999547552646
1040
0.0
1040
16.65372342454321
1040
6.899999547552646
1040
-0.3272098845218915
1040
16.90403887414088
1040
6.716546531636111
1040
0.0
1040
17.83817381145678
1040
3.758452563469185
1040
0.3272098845218902
1040
18.08848926105446
1040
3.574999547552649
1040
0.0
1040
18.93793395085907
1040
3.574999547552649
1040
0.5069206636600336
1040
19.18824940045676
1040
3.916546531636154
1040
0.0
1040
18.02505371121992
1040
7.599999547552716
1040
0.0
1071
        0
1071
        7
1070
     1
1070
     1
1071
        8
1040
21.74610634279883
1040
11.36249954755265
1040
0.4142135623731546
1040
21.48360634279879
1040
11.62499954755264
1040
0.0
1040
20.60860634279891
1040
11.62499954755264
1040
0.4142135623731507
1040
20.34610634279886
1040
11.36249954755265
1040
0.0
1040
20.34610634279886
1040
3.837499547552643
1040
0.4142135623731526
1040
20.60860634279891
1040
3.574999547552649
1040
0.0
1040
21.48360634279879
1040
3.574999547552649
1040
0.4142135623731526
1040
21.74610634279883
1040
3.837499547552643
1040
0.0
1071
        0
1071
        7
1070
     1
1070
     1
1071
       24
1040
24.19610634279888
1040
9.962499547552651
1040
-0.4142135623731546
1040
24.45860634279893
1040
10.22499954755264
1040
0.0
1040
25.94610634279888
1040
10.22499954755264
1040
0.4142135623730911
1040
26.20860634279887
1040
10.48749954755264
1040
0.0
1040
26.20860634279887
1040
11.36249954755265
1040
0.4142135623730952
1040
25.94610634279888
1040
11.62499954755264
1040
0.0
1040
24.19610634279888
1040
11.62499954755264
1040
0.4142135623731048
1040
22.79610634279885
1040
10.22499954755266
1040
0.0
1040
22.79610634279885
1040
9.317398534875026
1040
0.1989123673796613
1040
23.41118210230712
1040
7.832474294383251
1040
0.0
1040
24.86608108962946
1040
6.377575307060917
1040
-0.1989123673796402
1040
25.07110634279889
1040
5.882600560230381
1040
0.0
1040
25.07110634279889
1040
5.237499547552641
1040
-0.4142135623730911
1040
24.8086063427989
1040
4.974999547552648
1040
0.0
1040
23.32110634279889
1040
4.974999547552648
1040
0.4142135623731526
1040
23.05860634279884
1040
4.712499547552654
1040
0.0
1040
23.05860634279884
1040
3.837499547552643
1040
0.4142135623730891
1040
23.32110634279883
1040
3.574999547552649
1040
0.0
1040
25.07110634279889
1040
3.574999547552649
1040
0.4142135623730925
1040
26.47110634279886
1040
4.974999547552638
1040
0.0
1040
26.47110634279886
1040
5.882600560230271
1040
0.1989123673796675
1040
25.85603058329059
1040
7.367524800722101
1040
0.0
1040
24.4011315959683
1040
8.822423788044357
1040
-0.1989123673796652
1040
24.19610634279888
1040
9.317398534874939
1040
0.0
1071
        0
1071
        7
1070
     1
1070
     1
1071
       16
1040
28.92110634279885
1040
11.36249954755264
1040
0.414213562373103
1040
28.65860634279886
1040
11.62499954755264
1040
0.0
1040
27.78360634279886
1040
11.62499954755264
1040
0.4142135623730871
1040
27.52110634279887
1040
11.36249954755265
1040
0.0
1040
27.52110634279887
1040
4.974999547552638
1040
0.4142135623730927
1040
28.92110634279885
1040
3.574999547552649
1040
0.0
1040
30.67110634279885
1040
3.574999547552649
1040
0.4142135623731045
1040
32.07110634279889
1040
4.974999547552638
1040
0.0
1040
32.07110634279889
1040
11.36249954755265
1040
0.4142135623730951
1040
31.8086063427989
1040
11.62499954755264
1040
0.0
1040
30.93360634279884
1040
11.62499954755264
1040
0.4142135623730871
1040
30.67110634279885
1040
11.36249954755265
1040
0.0
1040
30.67110634279885
1040
5.499999547552635
1040
-0.4142135623730879
1040
30.14610634279887
1040
4.974999547552648
1040
0.0
1040
29.44610634279889
1040
4.974999547552648
1040
-0.4142135623731197
1040
28.92110634279885
1040
5.499999547552635
1040
0.0
1071
        0
1071
        7
1070
     1
1070
     1
1071
        8
1040
34.52110634279887
1040
11.36249954755265
1040
0.4142135623730871
1040
34.25860634279889
1040
11.62499954755264
1040
0.0
1040
33.38360634279889
1040
11.62499954755264
1040
0.4142135623731507
1040
33.12110634279884
1040
11.36249954755265
1040
0.0
1040
33.12110634279884
1040
3.837499547552643
1040
0.4142135623730891
1040
33.38360634279883
1040
3.574999547552649
1040
0.0
1040
34.25860634279889
1040
3.574999547552649
1040
0.4142135623730891
1040
34.52110634279887
1040
3.837499547552643
1040
0.0
1071
        0
1070
     0
1070
     1
1040
0.0
1040
0.1
1070
     0
1070
     2
1040
0.7853981633974483
1040
-450.4711519019312
1040
-6.600000452447313
1040
-0.2245064030267288
1040
0.2245064030267288
1070
     0
1040
2.356194490192344
1040
-450.4711519019312
1040
-6.600000452447313
1040
-0.2245064030267288
1040
-0.2245064030267288
1070
     0
1040
0.057451373970553
1071
        8
1040
8.039927746919939
1040
7.583586370495421
1040
0.0
1040
11.20225776862787
1040
9.422030638778151
1040
0.0
1040
12.58218420823811
1040
7.755940370588006
1040
0.0
1040
15.45703025622685
1040
8.100648370773395
1040
0.0
1040
20.91923627488665
1040
8.330454504544206
1040
0.0
1040
23.44910071297306
1040
9.709287705756251
1040
0.0
1040
28.27884325160846
1040
9.364578505100151
1040
0.0
1040
33.91354007521966
1040
9.594384638870961
1040
0.0
1002
}
  0
ARC
  5
7E1D
330
1A
100
AcDbEntity
  8
ZUWAKU
100
AcDbCircle
 10
7.746106077391232
 20
9.317398987322349
 30
0.0
 40
2.099999999999999
100
AcDbArc
 50
180.0
 51
224.9999999999908
  0
LINE
  5
7E1E
330
1A
100
AcDbEntity
  8
ZUWAKU
100
AcDbLine
 10
10.37110607739123
 20
5.674999999999954
 30
0.0
 11
10.37110607739123
 21
9.52500000000009
 31
0.0
  0
LINE
  5
7E1F
330
1A
100
AcDbEntity
  8
ZUWAKU
100
AcDbLine
 10
11.77110607739087
 20
9.52500000000009
 30
0.0
 11
11.77110607739087
 21
5.674999999999954
 31
0.0
  0
ARC
  5
7E20
330
1A
100
AcDbEntity
  8
ZUWAKU
100
AcDbCircle
 10
7.746106077391232
 20
9.317398987322349
 30
0.0
 40
0.6999999999999995
100
AcDbArc
 50
180.0
 51
224.9999999999908
  0
ARC
  5
7E21
330
1A
100
AcDbEntity
  8
ZUWAKU
100
AcDbCircle
 10
12.47110607739069
 20
5.674999999999954
 30
0.0
 40
2.099999999999999
100
AcDbArc
 50
180.0
 51
270.0
  0
ARC
  5
7E22
330
1A
100
AcDbEntity
  8
ZUWAKU
100
AcDbCircle
 10
7.921106077390504
 20
4.974999999999909
 30
0.0
 40
1.399999999999999
100
AcDbArc
 50
270.0
 51
0.0
  0
ARC
  5
7E23
330
1A
100
AcDbEntity
  8
ZUWAKU
100
AcDbCircle
 10
7.221106077390686
 20
5.882601012677696
 30
0.0
 40
2.099999999999999
100
AcDbArc
 50
0.0
 51
44.99999999999078
  0
LINE
  5
7E24
330
1A
100
AcDbEntity
  8
ZUWAKU
100
AcDbLine
 10
6.261181836898686
 20
7.832474746830484
 30
0.0
 11
7.716080824221535
 21
6.377575759508317
 31
0.0
  0
LINE
  5
7E25
330
1A
100
AcDbEntity
  8
ZUWAKU
100
AcDbLine
 10
6.171106077390504
 20
4.974999999999909
 30
0.0
 11
7.658606077390686
 21
4.974999999999909
 31
0.0
  0
LINE
  5
7E26
330
1A
100
AcDbEntity
  8
ZUWAKU
100
AcDbLine
 10
6.171106077390504
 20
3.575000000000045
 30
0.0
 11
7.921106077390504
 21
3.575000000000045
 31
0.0
  0
ARC
  5
7E27
330
1A
100
AcDbEntity
  8
ZUWAKU
100
AcDbCircle
 10
6.171106077390504
 20
4.71250000000009
 30
0.0
 40
0.2625
100
AcDbArc
 50
90.0
 51
180.0
  0
ARC
  5
7E28
330
1A
100
AcDbEntity
  8
ZUWAKU
100
AcDbCircle
 10
6.171106077390504
 20
3.83750000000009
 30
0.0
 40
0.2625
100
AcDbArc
 50
180.0
 51
270.0
  0
LINE
  5
7E29
330
1A
100
AcDbEntity
  8
ZUWAKU
100
AcDbLine
 10
5.908606077390686
 20
3.83750000000009
 30
0.0
 11
5.908606077390686
 21
4.71250000000009
 31
0.0
  0
ARC
  5
7E2A
330
1A
100
AcDbEntity
  8
ZUWAKU
100
AcDbCircle
 10
7.221106077390686
 20
5.882601012677696
 30
0.0
 40
0.6999999999999995
100
AcDbArc
 50
0.0
 51
44.99999999999078
  0
ARC
  5
7E2B
330
1A
100
AcDbEntity
  8
ZUWAKU
100
AcDbCircle
 10
7.658606077390686
 20
5.237499999999954
 30
0.0
 40
0.2625
100
AcDbArc
 50
270.0
 51
0.0
  0
LINE
  5
7E2C
330
1A
100
AcDbEntity
  8
ZUWAKU
100
AcDbLine
 10
7.921106077390504
 20
5.237499999999954
 30
0.0
 11
7.921106077390504
 21
5.882601012677696
 31
0.0
  0
LINE
  5
7E2D
330
1A
100
AcDbEntity
  8
ZUWAKU
100
AcDbLine
 10
8.706030317882323
 20
7.367525253169333
 30
0.0
 11
7.251131330560383
 21
8.822424240491727
 31
0.0
  0
ARC
  5
7E2E
330
1A
100
AcDbEntity
  8
ZUWAKU
100
AcDbCircle
 10
12.47110607739069
 20
5.674999999999954
 30
0.0
 40
0.6999999999999995
100
AcDbArc
 50
180.0
 51
270.0
  0
LINE
  5
7E2F
330
1A
100
AcDbEntity
  8
ZUWAKU
100
AcDbLine
 10
9.32110607739105
 20
4.974999999999909
 30
0.0
 11
9.32110607739105
 21
5.882601012677696
 31
0.0
  0
ARC
  5
7E30
330
1A
100
AcDbEntity
  8
ZUWAKU
100
AcDbCircle
 10
8.796106077390504
 20
10.48749999999995
 30
0.0
 40
0.2625
100
AcDbArc
 50
270.0
 51
0.0
  0
ARC
  5
7E31
330
1A
100
AcDbEntity
  8
ZUWAKU
100
AcDbCircle
 10
8.796106077390504
 20
11.36249999999995
 30
0.0
 40
0.2625
100
AcDbArc
 50
0.0
 51
90.0
  0
ARC
  5
7E32
330
1A
100
AcDbEntity
  8
ZUWAKU
100
AcDbCircle
 10
7.046106077390504
 20
10.22499999999991
 30
0.0
 40
1.399999999999999
100
AcDbArc
 50
90.0
 51
180.0
  0
LINE
  5
7E33
330
1A
100
AcDbEntity
  8
ZUWAKU
100
AcDbLine
 10
5.646106077390868
 20
10.22499999999991
 30
0.0
 11
5.646106077390868
 21
9.317398987322349
 31
0.0
  0
LINE
  5
7E34
330
1A
100
AcDbEntity
  8
ZUWAKU
100
AcDbLine
 10
8.796106077390504
 20
10.22499999999991
 30
0.0
 11
7.308606077391232
 21
10.22499999999991
 31
0.0
  0
LINE
  5
7E35
330
1A
100
AcDbEntity
  8
ZUWAKU
100
AcDbLine
 10
7.046106077390504
 20
9.96250000000009
 30
0.0
 11
7.046106077390504
 21
9.317398987322349
 31
0.0
  0
ARC
  5
7E36
330
1A
100
AcDbEntity
  8
ZUWAKU
100
AcDbCircle
 10
7.308606077391232
 20
9.96250000000009
 30
0.0
 40
0.2625
100
AcDbArc
 50
90.0
 51
180.0
  0
LINE
  5
7E37
330
1A
100
AcDbEntity
  8
ZUWAKU
100
AcDbLine
 10
7.046106077390504
 20
11.625
 30
0.0
 11
8.796106077390504
 21
11.625
 31
0.0
  0
ARC
  5
7E38
330
1A
100
AcDbEntity
  8
ZUWAKU
100
AcDbCircle
 10
12.47110607739069
 20
9.52500000000009
 30
0.0
 40
2.099999999999999
100
AcDbArc
 50
90.0
 51
180.0
  0
ARC
  5
7E39
330
1A
100
AcDbEntity
  8
ZUWAKU
100
AcDbCircle
 10
12.47110607739069
 20
9.52500000000009
 30
0.0
 40
0.6999999999999995
100
AcDbArc
 50
90.0
 51
180.0
  0
LINE
  5
7E3A
330
1A
100
AcDbEntity
  8
ZUWAKU
100
AcDbLine
 10
9.058606077391232
 20
11.36249999999995
 30
0.0
 11
9.058606077391232
 21
10.48749999999995
 31
0.0
  0
LINE
  5
7E3B
330
1A
100
AcDbEntity
  8
ZUWAKU
100
AcDbLine
 10
17.83817354604889
 20
11.44154698408351
 30
0.0
 11
16.90403860873266
 21
8.483453015916438
 31
0.0
  0
LINE
  5
7E3C
330
1A
100
AcDbEntity
  8
ZUWAKU
100
AcDbLine
 10
14.9211060773905
 20
11.36249999999995
 30
0.0
 11
14.9211060773905
 21
3.83750000000009
 31
0.0
  0
LINE
  5
7E3D
330
1A
100
AcDbEntity
  8
ZUWAKU
100
AcDbLine
 10
16.32110607739105
 20
8.5625
 30
0.0
 11
16.32110607739105
 21
11.36249999999995
 31
0.0
  0
LINE
  5
7E3E
330
1A
100
AcDbEntity
  8
ZUWAKU
100
AcDbLine
 10
28.92110607739051
 20
5.5
 30
0.0
 11
28.92110607739051
 21
11.36249999999995
 31
0.0
  0
LINE
  5
7E3F
330
1A
100
AcDbEntity
  8
ZUWAKU
100
AcDbLine
 10
27.52110607739087
 20
11.36249999999995
 30
0.0
 11
27.52110607739087
 21
4.974999999999909
 31
0.0
  0
LINE
  5
7E40
330
1A
100
AcDbEntity
  8
ZUWAKU
100
AcDbLine
 10
21.74610607739123
 20
3.83750000000009
 30
0.0
 11
21.74610607739123
 21
11.36249999999995
 31
0.0
  0
LINE
  5
7E41
330
1A
100
AcDbEntity
  8
ZUWAKU
100
AcDbLine
 10
20.34610607739069
 20
11.36249999999995
 30
0.0
 11
20.34610607739069
 21
3.83750000000009
 31
0.0
  0
LINE
  5
7E42
330
1A
100
AcDbEntity
  8
ZUWAKU
100
AcDbLine
 10
18.65742931847944
 20
9.602523596781793
 30
0.0
 11
18.02505344581186
 21
7.599999999999909
 31
0.0
  0
ARC
  5
7E43
330
1A
100
AcDbEntity
  8
ZUWAKU
100
AcDbCircle
 10
24.89610607739087
 20
9.317398987322349
 30
0.0
 40
2.099999999999999
100
AcDbArc
 50
180.0
 51
224.9999999999908
  0
ARC
  5
7E44
330
1A
100
AcDbEntity
  8
ZUWAKU
100
AcDbCircle
 10
24.89610607739087
 20
9.317398987322349
 30
0.0
 40
0.6999999999999995
100
AcDbArc
 50
180.0
 51
224.9999999999908
  0
LINE
  5
7E45
330
1A
100
AcDbEntity
  8
ZUWAKU
100
AcDbLine
 10
33.12110607739124
 20
11.36249999999995
 30
0.0
 11
33.12110607739124
 21
3.83750000000009
 31
0.0
  0
LINE
  5
7E46
330
1A
100
AcDbEntity
  8
ZUWAKU
100
AcDbLine
 10
34.52110607739087
 20
3.83750000000009
 30
0.0
 11
34.52110607739087
 21
11.36249999999995
 31
0.0
  0
LINE
  5
7E47
330
1A
100
AcDbEntity
  8
ZUWAKU
100
AcDbLine
 10
30.67110607739051
 20
11.36249999999995
 30
0.0
 11
30.67110607739051
 21
5.5
 31
0.0
  0
LINE
  5
7E48
330
1A
100
AcDbEntity
  8
ZUWAKU
100
AcDbLine
 10
32.07110607739105
 20
4.974999999999909
 30
0.0
 11
32.07110607739105
 21
11.36249999999995
 31
0.0
  0
LINE
  5
7E49
330
1A
100
AcDbEntity
  8
ZUWAKU
100
AcDbLine
 10
39.56331477399454
 20
15.0
 30
0.0
 11
39.56331477399454
 21
0.400000000000091
 31
0.0
  0
LINE
  5
7E4A
330
1A
100
AcDbEntity
  8
ZUWAKU
100
AcDbLine
 10
39.76331477399435
 20
15.0
 30
0.0
 11
39.76331477399435
 21
0.400000000000091
 31
0.0
  0
LINE
  5
7E4B
330
1A
100
AcDbEntity
  8
ZUWAKU
100
AcDbLine
 10
39.6633147739949
 20
15.0
 30
0.0
 11
39.6633147739949
 21
0.400000000000091
 31
0.0
  0
LINE
  5
7E4C
330
1A
100
AcDbEntity
  8
ZUWAKU
100
AcDbLine
 10
28.92110607739051
 20
3.575000000000045
 30
0.0
 11
30.67110607739051
 21
3.575000000000045
 31
0.0
  0
LINE
  5
7E4D
330
1A
100
AcDbEntity
  8
ZUWAKU
100
AcDbLine
 10
30.14610607739087
 20
4.974999999999909
 30
0.0
 11
29.44610607739105
 21
4.974999999999909
 31
0.0
  0
LINE
  5
7E4E
330
1A
100
AcDbEntity
  8
ZUWAKU
100
AcDbLine
 10
20.6086060773905
 20
3.575000000000045
 30
0.0
 11
21.4836060773905
 21
3.575000000000045
 31
0.0
  0
LINE
  5
7E4F
330
1A
100
AcDbEntity
  8
ZUWAKU
100
AcDbLine
 10
17.83817354604889
 20
3.758453015916529
 30
0.0
 11
16.90403860873266
 21
6.716546984083379
 31
0.0
  0
ARC
  5
7E50
330
1A
100
AcDbEntity
  8
ZUWAKU
100
AcDbCircle
 10
16.58360607739087
 20
6.637500000000045
 30
0.0
 40
0.2625
100
AcDbArc
 50
90.0
 51
180.0
  0
ARC
  5
7E51
330
1A
100
AcDbEntity
  8
ZUWAKU
100
AcDbCircle
 10
16.65372315913555
 20
6.637500000000045
 30
0.0
 40
0.2625
100
AcDbArc
 50
17.52556837372303
 51
90.0
  0
ARC
  5
7E52
330
1A
100
AcDbEntity
  8
ZUWAKU
100
AcDbCircle
 10
15.18360607739123
 20
3.83750000000009
 30
0.0
 40
0.2625
100
AcDbArc
 50
180.0
 51
270.0
  0
ARC
  5
7E53
330
1A
100
AcDbEntity
  8
ZUWAKU
100
AcDbCircle
 10
13.43360607739123
 20
4.71250000000009
 30
0.0
 40
0.2625
100
AcDbArc
 50
0.0
 51
90.0
  0
ARC
  5
7E54
330
1A
100
AcDbEntity
  8
ZUWAKU
100
AcDbCircle
 10
13.43360607739123
 20
3.83750000000009
 30
0.0
 40
0.2625
100
AcDbArc
 50
270.0
 51
0.0
  0
LINE
  5
7E55
330
1A
100
AcDbEntity
  8
ZUWAKU
100
AcDbLine
 10
13.69610607739105
 20
4.71250000000009
 30
0.0
 11
13.69610607739105
 21
3.83750000000009
 31
0.0
  0
LINE
  5
7E56
330
1A
100
AcDbEntity
  8
ZUWAKU
100
AcDbLine
 10
16.32110607739105
 20
3.83750000000009
 30
0.0
 11
16.32110607739105
 21
6.637500000000045
 31
0.0
  0
ARC
  5
7E57
330
1A
100
AcDbEntity
  8
ZUWAKU
100
AcDbCircle
 10
16.05860607739123
 20
3.83750000000009
 30
0.0
 40
0.2625
100
AcDbArc
 50
270.0
 51
0.0
  0
LINE
  5
7E58
330
1A
100
AcDbEntity
  8
ZUWAKU
100
AcDbLine
 10
15.18360607739123
 20
3.575000000000045
 30
0.0
 11
16.05860607739123
 21
3.575000000000045
 31
0.0
  0
ARC
  5
7E59
330
1A
100
AcDbEntity
  8
ZUWAKU
100
AcDbCircle
 10
16.58360607739087
 20
8.5625
 30
0.0
 40
0.2625
100
AcDbArc
 50
180.0
 51
270.0
  0
LINE
  5
7E5A
330
1A
100
AcDbEntity
  8
ZUWAKU
100
AcDbLine
 10
16.58360607739087
 20
6.90000000000009
 30
0.0
 11
16.65372315913555
 21
6.90000000000009
 31
0.0
  0
LINE
  5
7E5B
330
1A
100
AcDbEntity
  8
ZUWAKU
100
AcDbLine
 10
16.65372315913555
 20
8.299999999999954
 30
0.0
 11
16.58360607739087
 21
8.299999999999954
 31
0.0
  0
ARC
  5
7E5C
330
1A
100
AcDbEntity
  8
ZUWAKU
100
AcDbCircle
 10
16.65372315913555
 20
8.5625
 30
0.0
 40
0.2625
100
AcDbArc
 50
270.0
 51
342.474431626277
  0
ARC
  5
7E5D
330
1A
100
AcDbEntity
  8
ZUWAKU
100
AcDbCircle
 10
18.08848899564691
 20
3.83750000000009
 30
0.0
 40
0.2625
100
AcDbArc
 50
197.525568373723
 51
270.0
  0
LINE
  5
7E5E
330
1A
100
AcDbEntity
  8
ZUWAKU
100
AcDbLine
 10
19.18824913504886
 20
3.916546984083424
 30
0.0
 11
18.02505344581186
 21
7.599999999999909
 31
0.0
  0
ARC
  5
7E5F
330
1A
100
AcDbEntity
  8
ZUWAKU
100
AcDbCircle
 10
18.93793368545084
 20
3.83750000000009
 30
0.0
 40
0.2625
100
AcDbArc
 50
270.0
 51
17.52556837372303
  0
LINE
  5
7E60
330
1A
100
AcDbEntity
  8
ZUWAKU
100
AcDbLine
 10
18.08848899564691
 20
3.575000000000045
 30
0.0
 11
18.93793368545084
 21
3.575000000000045
 31
0.0
  0
ARC
  5
7E61
330
1A
100
AcDbEntity
  8
ZUWAKU
100
AcDbCircle
 10
20.6086060773905
 20
3.83750000000009
 30
0.0
 40
0.2625
100
AcDbArc
 50
180.0
 51
270.0
  0
ARC
  5
7E62
330
1A
100
AcDbEntity
  8
ZUWAKU
100
AcDbCircle
 10
25.07110607739105
 20
4.974999999999909
 30
0.0
 40
1.399999999999999
100
AcDbArc
 50
270.0
 51
0.0
  0
ARC
  5
7E63
330
1A
100
AcDbEntity
  8
ZUWAKU
100
AcDbCircle
 10
28.92110607739051
 20
4.974999999999909
 30
0.0
 40
1.399999999999999
100
AcDbArc
 50
180.0
 51
270.0
  0
LINE
  5
7E64
330
1A
100
AcDbEntity
  8
ZUWAKU
100
AcDbLine
 10
25.85603031788287
 20
7.367525253169333
 30
0.0
 11
24.40113133056002
 21
8.822424240491727
 31
0.0
  0
LINE
  5
7E65
330
1A
100
AcDbEntity
  8
ZUWAKU
100
AcDbLine
 10
23.41118183689923
 20
7.832474746830484
 30
0.0
 11
24.86608082422117
 21
6.377575759508317
 31
0.0
  0
LINE
  5
7E66
330
1A
100
AcDbEntity
  8
ZUWAKU
100
AcDbLine
 10
23.32110607739105
 20
3.575000000000045
 30
0.0
 11
25.07110607739105
 21
3.575000000000045
 31
0.0
  0
LINE
  5
7E67
330
1A
100
AcDbEntity
  8
ZUWAKU
100
AcDbLine
 10
23.32110607739105
 20
4.974999999999909
 30
0.0
 11
24.80860607739123
 21
4.974999999999909
 31
0.0
  0
ARC
  5
7E68
330
1A
100
AcDbEntity
  8
ZUWAKU
100
AcDbCircle
 10
23.32110607739105
 20
4.71250000000009
 30
0.0
 40
0.2625
100
AcDbArc
 50
90.0
 51
180.0
  0
ARC
  5
7E69
330
1A
100
AcDbEntity
  8
ZUWAKU
100
AcDbCircle
 10
21.4836060773905
 20
3.83750000000009
 30
0.0
 40
0.2625
100
AcDbArc
 50
270.0
 51
0.0
  0
ARC
  5
7E6A
330
1A
100
AcDbEntity
  8
ZUWAKU
100
AcDbCircle
 10
23.32110607739105
 20
3.83750000000009
 30
0.0
 40
0.2625
100
AcDbArc
 50
180.0
 51
270.0
  0
LINE
  5
7E6B
330
1A
100
AcDbEntity
  8
ZUWAKU
100
AcDbLine
 10
23.05860607739123
 20
3.83750000000009
 30
0.0
 11
23.05860607739123
 21
4.71250000000009
 31
0.0
  0
ARC
  5
7E6C
330
1A
100
AcDbEntity
  8
ZUWAKU
100
AcDbCircle
 10
24.80860607739123
 20
5.237499999999954
 30
0.0
 40
0.2625
100
AcDbArc
 50
270.0
 51
0.0
  0
ARC
  5
7E6D
330
1A
100
AcDbEntity
  8
ZUWAKU
100
AcDbCircle
 10
24.37110607739124
 20
5.882601012677696
 30
0.0
 40
0.6999999999999995
100
AcDbArc
 50
0.0
 51
44.99999999999078
  0
LINE
  5
7E6E
330
1A
100
AcDbEntity
  8
ZUWAKU
100
AcDbLine
 10
25.07110607739105
 20
5.237499999999954
 30
0.0
 11
25.07110607739105
 21
5.882601012677696
 31
0.0
  0
ARC
  5
7E6F
330
1A
100
AcDbEntity
  8
ZUWAKU
100
AcDbCircle
 10
29.44610607739105
 20
5.5
 30
0.0
 40
0.5249999999999995
100
AcDbArc
 50
180.0
 51
270.0
  0
ARC
  5
7E70
330
1A
100
AcDbEntity
  8
ZUWAKU
100
AcDbCircle
 10
24.37110607739124
 20
5.882601012677696
 30
0.0
 40
2.099999999999999
100
AcDbArc
 50
0.0
 51
44.99999999999078
  0
LINE
  5
7E71
330
1A
100
AcDbEntity
  8
ZUWAKU
100
AcDbLine
 10
26.47110607739069
 20
4.974999999999909
 30
0.0
 11
26.47110607739069
 21
5.882601012677696
 31
0.0
  0
ARC
  5
7E72
330
1A
100
AcDbEntity
  8
ZUWAKU
100
AcDbCircle
 10
30.67110607739051
 20
4.974999999999909
 30
0.0
 40
1.399999999999999
100
AcDbArc
 50
270.0
 51
0.0
  0
LINE
  5
7E73
330
1A
100
AcDbEntity
  8
ZUWAKU
100
AcDbLine
 10
33.38360607739105
 20
3.575000000000045
 30
0.0
 11
34.25860607739105
 21
3.575000000000045
 31
0.0
  0
ARC
  5
7E74
330
1A
100
AcDbEntity
  8
ZUWAKU
100
AcDbCircle
 10
30.14610607739087
 20
5.5
 30
0.0
 40
0.5249999999999995
100
AcDbArc
 50
270.0
 51
0.0
  0
ARC
  5
7E75
330
1A
100
AcDbEntity
  8
ZUWAKU
100
AcDbCircle
 10
33.38360607739105
 20
3.83750000000009
 30
0.0
 40
0.2625
100
AcDbArc
 50
180.0
 51
270.0
  0
ARC
  5
7E76
330
1A
100
AcDbEntity
  8
ZUWAKU
100
AcDbCircle
 10
34.25860607739105
 20
3.83750000000009
 30
0.0
 40
0.2625
100
AcDbArc
 50
270.0
 51
0.0
  0
LINE
  5
7E77
330
1A
100
AcDbEntity
  8
ZUWAKU
100
AcDbLine
 10
21.4836060773905
 20
11.625
 30
0.0
 11
20.6086060773905
 21
11.625
 31
0.0
  0
LINE
  5
7E78
330
1A
100
AcDbEntity
  8
ZUWAKU
100
AcDbLine
 10
13.69610607739105
 20
11.36249999999995
 30
0.0
 11
13.69610607739105
 21
10.48749999999995
 31
0.0
  0
ARC
  5
7E79
330
1A
100
AcDbEntity
  8
ZUWAKU
100
AcDbCircle
 10
13.43360607739123
 20
10.48749999999995
 30
0.0
 40
0.2625
100
AcDbArc
 50
270.0
 51
0.0
  0
ARC
  5
7E7A
330
1A
100
AcDbEntity
  8
ZUWAKU
100
AcDbCircle
 10
15.18360607739123
 20
11.36249999999995
 30
0.0
 40
0.2625
100
AcDbArc
 50
90.0
 51
180.0
  0
ARC
  5
7E7B
330
1A
100
AcDbEntity
  8
ZUWAKU
100
AcDbCircle
 10
13.43360607739123
 20
11.36249999999995
 30
0.0
 40
0.2625
100
AcDbArc
 50
0.0
 51
90.0
  0
LINE
  5
7E7C
330
1A
100
AcDbEntity
  8
ZUWAKU
100
AcDbLine
 10
16.05860607739123
 20
11.625
 30
0.0
 11
15.18360607739123
 21
11.625
 31
0.0
  0
ARC
  5
7E7D
330
1A
100
AcDbEntity
  8
ZUWAKU
100
AcDbCircle
 10
16.05860607739123
 20
11.36249999999995
 30
0.0
 40
0.2625
100
AcDbArc
 50
0.0
 51
90.0
  0
ARC
  5
7E7E
330
1A
100
AcDbEntity
  8
ZUWAKU
100
AcDbCircle
 10
18.08848899564691
 20
11.36249999999995
 30
0.0
 40
0.2625
100
AcDbArc
 50
90.0
 51
162.474431626277
  0
LINE
  5
7E7F
330
1A
100
AcDbEntity
  8
ZUWAKU
100
AcDbLine
 10
19.18824913504886
 20
11.28345301591662
 30
0.0
 11
18.65742931847944
 21
9.602523596781793
 31
0.0
  0
ARC
  5
7E80
330
1A
100
AcDbEntity
  8
ZUWAKU
100
AcDbCircle
 10
18.93793368545084
 20
11.36249999999995
 30
0.0
 40
0.2625
100
AcDbArc
 50
342.474431626277
 51
90.0
  0
LINE
  5
7E81
330
1A
100
AcDbEntity
  8
ZUWAKU
100
AcDbLine
 10
18.08848899564691
 20
11.625
 30
0.0
 11
18.93793368545084
 21
11.625
 31
0.0
  0
ARC
  5
7E82
330
1A
100
AcDbEntity
  8
ZUWAKU
100
AcDbCircle
 10
20.6086060773905
 20
11.36249999999995
 30
0.0
 40
0.2625
100
AcDbArc
 50
90.0
 51
180.0
  0
LINE
  5
7E83
330
1A
100
AcDbEntity
  8
ZUWAKU
100
AcDbLine
 10
25.94610607739105
 20
10.22499999999991
 30
0.0
 11
24.45860607739087
 21
10.22499999999991
 31
0.0
  0
LINE
  5
7E84
330
1A
100
AcDbEntity
  8
ZUWAKU
100
AcDbLine
 10
24.19610607739105
 20
11.625
 30
0.0
 11
25.94610607739105
 21
11.625
 31
0.0
  0
ARC
  5
7E85
330
1A
100
AcDbEntity
  8
ZUWAKU
100
AcDbCircle
 10
24.19610607739105
 20
10.22499999999991
 30
0.0
 40
1.399999999999999
100
AcDbArc
 50
90.0
 51
180.0
  0
LINE
  5
7E86
330
1A
100
AcDbEntity
  8
ZUWAKU
100
AcDbLine
 10
22.7961060773905
 20
10.22499999999991
 30
0.0
 11
22.7961060773905
 21
9.317398987322349
 31
0.0
  0
ARC
  5
7E87
330
1A
100
AcDbEntity
  8
ZUWAKU
100
AcDbCircle
 10
21.4836060773905
 20
11.36249999999995
 30
0.0
 40
0.2625
100
AcDbArc
 50
0.0
 51
90.0
  0
LINE
  5
7E88
330
1A
100
AcDbEntity
  8
ZUWAKU
100
AcDbLine
 10
24.19610607739105
 20
9.96250000000009
 30
0.0
 11
24.19610607739105
 21
9.317398987322349
 31
0.0
  0
ARC
  5
7E89
330
1A
100
AcDbEntity
  8
ZUWAKU
100
AcDbCircle
 10
24.45860607739087
 20
9.96250000000009
 30
0.0
 40
0.2625
100
AcDbArc
 50
90.0
 51
180.0
  0
LINE
  5
7E8A
330
1A
100
AcDbEntity
  8
ZUWAKU
100
AcDbLine
 10
26.20860607739087
 20
11.36249999999995
 30
0.0
 11
26.20860607739087
 21
10.48749999999995
 31
0.0
  0
ARC
  5
7E8B
330
1A
100
AcDbEntity
  8
ZUWAKU
100
AcDbCircle
 10
25.94610607739105
 20
10.48749999999995
 30
0.0
 40
0.2625
100
AcDbArc
 50
270.0
 51
0.0
  0
ARC
  5
7E8C
330
1A
100
AcDbEntity
  8
ZUWAKU
100
AcDbCircle
 10
25.94610607739105
 20
11.36249999999995
 30
0.0
 40
0.2625
100
AcDbArc
 50
0.0
 51
90.0
  0
LINE
  5
7E8D
330
1A
100
AcDbEntity
  8
ZUWAKU
100
AcDbLine
 10
28.65860607739069
 20
11.625
 30
0.0
 11
27.78360607739069
 21
11.625
 31
0.0
  0
ARC
  5
7E8E
330
1A
100
AcDbEntity
  8
ZUWAKU
100
AcDbCircle
 10
27.78360607739069
 20
11.36249999999995
 30
0.0
 40
0.2625
100
AcDbArc
 50
90.0
 51
180.0
  0
ARC
  5
7E8F
330
1A
100
AcDbEntity
  8
ZUWAKU
100
AcDbCircle
 10
28.65860607739069
 20
11.36249999999995
 30
0.0
 40
0.2625
100
AcDbArc
 50
0.0
 51
90.0
  0
LINE
  5
7E90
330
1A
100
AcDbEntity
  8
ZUWAKU
100
AcDbLine
 10
34.25860607739105
 20
11.625
 30
0.0
 11
33.38360607739105
 21
11.625
 31
0.0
  0
ARC
  5
7E91
330
1A
100
AcDbEntity
  8
ZUWAKU
100
AcDbCircle
 10
30.93360607739124
 20
11.36249999999995
 30
0.0
 40
0.2625
100
AcDbArc
 50
90.0
 51
180.0
  0
LINE
  5
7E92
330
1A
100
AcDbEntity
  8
ZUWAKU
100
AcDbLine
 10
31.80860607739123
 20
11.625
 30
0.0
 11
30.93360607739124
 21
11.625
 31
0.0
  0
ARC
  5
7E93
330
1A
100
AcDbEntity
  8
ZUWAKU
100
AcDbCircle
 10
31.80860607739123
 20
11.36249999999995
 30
0.0
 40
0.2625
100
AcDbArc
 50
0.0
 51
90.0
  0
ARC
  5
7E94
330
1A
100
AcDbEntity
  8
ZUWAKU
100
AcDbCircle
 10
33.38360607739105
 20
11.36249999999995
 30
0.0
 40
0.2625
100
AcDbArc
 50
90.0
 51
180.0
  0
ARC
  5
7E95
330
1A
100
AcDbEntity
  8
ZUWAKU
100
AcDbCircle
 10
34.25860607739105
 20
11.36249999999995
 30
0.0
 40
0.2625
100
AcDbArc
 50
0.0
 51
90.0
  0
LINE
  5
7E96
330
1A
100
AcDbEntity
  8
ZUWAKU
100
AcDbLine
 10
104.2233006450342
 20
15.0
 30
0.0
 11
104.2233006450342
 21
0.400000000000091
 31
0.0
  0
LINE
  5
7E97
330
1A
100
AcDbEntity
  8
ZUWAKU
100
AcDbLine
 10
104.3233006450346
 20
15.0
 30
0.0
 11
104.3233006450346
 21
0.400000000000091
 31
0.0
  0
LINE
  5
7E98
330
1A
100
AcDbEntity
  8
ZUWAKU
100
AcDbLine
 10
104.1233006450338
 20
15.0
 30
0.0
 11
104.1233006450338
 21
0.400000000000091
 31
0.0
  0
TEXT
  5
7E99
330
1A
100
AcDbEntity
  8
ZUWAKU
100
AcDbText
 10
104.862023156139
 20
4.827678269192801
 30
0.0
 40
2.0
  1
サイズ
 41
0.9
  7
ｽﾀｲﾙ1
100
AcDbText
  0
TEXT
  5
7E9A
330
1A
100
AcDbEntity
  8
MOJI
100
AcDbText
 10
113.859080481443
 20
2.524376993882015
 30
0.0
 40
2.799999999999999
  1
ＵＲＴ６０
 41
0.9
  7
ｽﾀｲﾙ1
100
AcDbText
  0
TEXT
  5
7E9B
330
1A
100
AcDbEntity
  8
ZUWAKU
100
AcDbText
 10
104.862023156139
 20
12.02767826919284
 30
0.0
 40
2.0
  1
品名
 41
0.9
  7
ｽﾀｲﾙ1
100
AcDbText
  0
TEXT
  5
7E9C
330
1A
100
AcDbEntity
  8
MOJI
100
AcDbText
 10
113.9165147941876
 20
10.04146946645983
 30
0.0
 40
2.799999999999999
  1
落し口リング(高排水用)
 41
0.9
  7
ｽﾀｲﾙ1
100
AcDbText
  0
TEXT
  5
7E9D
330
1A
100
AcDbEntity
  8
ZUWAKU
100
AcDbText
 10
329.1019688436518
 20
9.00246052870375
 30
0.0
 40
2.799999999999999
  1
　　．　　．　　
 41
0.9
  7
ｽﾀｲﾙ1
100
AcDbText
  0
LINE
  5
7E9E
330
1A
100
AcDbEntity
  8
ZUWAKU
100
AcDbLine
 10
324.4086012551024
 20
7.799999999999954
 30
0.0
 11
348.6245052742706
 21
7.799999999999954
 31
0.0
  0
LINE
  5
7E9F
330
1A
100
AcDbEntity
  8
ZUWAKU
100
AcDbLine
 10
324.4086012551024
 20
7.700000000000045
 30
0.0
 11
348.6245052742706
 21
7.700000000000045
 31
0.0
  0
LINE
  5
7EA0
330
1A
100
AcDbEntity
  8
ZUWAKU
100
AcDbLine
 10
324.4086012551024
 20
7.599999999999909
 30
0.0
 11
348.6245052742706
 21
7.599999999999909
 31
0.0
  0
LINE
  5
7EA1
330
1A
100
AcDbEntity
  8
ZUWAKU
100
AcDbLine
 10
252.5995897490711
 20
7.799999999999954
 30
0.0
 11
276.263477883057
 21
7.799999999999954
 31
0.0
  0
LINE
  5
7EA2
330
1A
100
AcDbEntity
  8
ZUWAKU
100
AcDbLine
 10
252.5995897490711
 20
7.700000000000045
 30
0.0
 11
276.263477883057
 21
7.700000000000045
 31
0.0
  0
LINE
  5
7EA3
330
1A
100
AcDbEntity
  8
ZUWAKU
100
AcDbLine
 10
252.5995897490711
 20
7.599999999999909
 30
0.0
 11
276.263477883057
 21
7.599999999999909
 31
0.0
  0
TEXT
  5
7EA4
330
1A
100
AcDbEntity
  8
MOJI
100
AcDbText
 10
227.7071771047149
 20
6.737995661015247
 30
0.0
 40
2.799999999999999
  1
ＰＨ１９□
 41
0.9
  7
ｽﾀｲﾙ1
100
AcDbText
  0
LINE
  5
7EA5
330
1A
100
AcDbEntity
  8
ZUWAKU
100
AcDbLine
 10
252.3995897490704
 20
15.0
 30
0.0
 11
252.3995897490704
 21
0.400000000000091
 31
0.0
  0
LINE
  5
7EA6
330
1A
100
AcDbEntity
  8
ZUWAKU
100
AcDbLine
 10
252.5995897490711
 20
15.0
 30
0.0
 11
252.5995897490711
 21
0.400000000000091
 31
0.0
  0
LINE
  5
7EA7
330
1A
100
AcDbEntity
  8
ZUWAKU
100
AcDbLine
 10
252.4995897490708
 20
15.0
 30
0.0
 11
252.4995897490708
 21
0.400000000000091
 31
0.0
  0
TEXT
  5
7EA8
330
1A
100
AcDbEntity
  8
MOJI
100
AcDbText
 10
264.020453986157
 20
9.00246052870375
 30
0.0
 40
2.799999999999999
  1
Ａ３
 41
0.9
  7
ｽﾀｲﾙ1
100
AcDbText
  0
LINE
  5
7EA9
330
1A
100
AcDbEntity
  8
ZUWAKU
100
AcDbLine
 10
223.7121819854956
 20
15.0
 30
0.0
 11
223.7121819854956
 21
0.400000000000091
 31
0.0
  0
LINE
  5
7EAA
330
1A
100
AcDbEntity
  8
ZUWAKU
100
AcDbLine
 10
223.9121819854963
 20
15.0
 30
0.0
 11
223.9121819854963
 21
0.400000000000091
 31
0.0
  0
LINE
  5
7EAB
330
1A
100
AcDbEntity
  8
ZUWAKU
100
AcDbLine
 10
223.8121819854959
 20
15.0
 30
0.0
 11
223.8121819854959
 21
0.400000000000091
 31
0.0
  0
TEXT
  5
7EAC
330
1A
100
AcDbEntity
  8
ZUWAKU
100
AcDbText
 10
230.9795717693278
 20
1.468216657496896
 30
0.0
 40
1.5
  1
□には色品番が入ります
 41
0.9
  7
ｽﾀｲﾙ1
100
AcDbText
  0
TEXT
  5
7EAD
330
1A
100
AcDbEntity
  8
ZUWAKU
100
AcDbText
 10
253.3383122601754
 20
4.827678269192801
 30
0.0
 40
2.0
  1
縮尺
 41
0.9
  7
ｽﾀｲﾙ1
100
AcDbText
  0
TEXT
  5
7EAE
330
1A
100
AcDbEntity
  8
MOJI
100
AcDbText
 10
264.020453986157
 20
1.602460528703659
 30
0.0
 40
2.799999999999999
  1
１/１
 41
0.9
  7
ｽﾀｲﾙ1
100
AcDbText
  0
TEXT
  5
7EAF
330
1A
100
AcDbEntity
  8
ZUWAKU
100
AcDbText
 10
224.6509044966006
 20
12.02767826919284
 30
0.0
 40
2.0
  1
品番
 41
0.9
  7
ｽﾀｲﾙ1
100
AcDbText
  0
TEXT
  5
7EB0
330
1A
100
AcDbEntity
  8
ZUWAKU
100
AcDbText
 10
253.3383122601754
 20
12.02767826919284
 30
0.0
 40
2.0
  1
用紙
 41
0.9
  7
ｽﾀｲﾙ1
100
AcDbText
  0
LINE
  5
7EB1
330
1A
100
AcDbEntity
  8
ZUWAKU
100
AcDbLine
 10
276.263477883057
 20
15.0
 30
0.0
 11
276.263477883057
 21
0.400000000000091
 31
0.0
  0
LINE
  5
7EB2
330
1A
100
AcDbEntity
  8
ZUWAKU
100
AcDbLine
 10
276.4634778830568
 20
15.0
 30
0.0
 11
276.4634778830568
 21
0.400000000000091
 31
0.0
  0
LINE
  5
7EB3
330
1A
100
AcDbEntity
  8
ZUWAKU
100
AcDbLine
 10
276.3634778830565
 20
15.0
 30
0.0
 11
276.3634778830565
 21
0.400000000000091
 31
0.0
  0
LINE
  5
7EB4
330
1A
100
AcDbEntity
  8
ZUWAKU
100
AcDbLine
 10
324.2086012551026
 20
15.0
 30
0.0
 11
324.2086012551026
 21
0.400000000000091
 31
0.0
  0
LINE
  5
7EB5
330
1A
100
AcDbEntity
  8
ZUWAKU
100
AcDbLine
 10
324.4086012551024
 20
15.0
 30
0.0
 11
324.4086012551024
 21
0.400000000000091
 31
0.0
  0
LINE
  5
7EB6
330
1A
100
AcDbEntity
  8
ZUWAKU
100
AcDbLine
 10
324.3086012551021
 20
15.0
 30
0.0
 11
324.308601255103
 21
0.400000000000091
 31
0.0
  0
TEXT
  5
7EB7
330
1A
100
AcDbEntity
  8
ZUWAKU
100
AcDbText
 10
325.1473237662076
 20
12.02767826919284
 30
0.0
 40
2.0
  1
DATE
 41
0.9
  7
ｽﾀｲﾙ1
100
AcDbText
  0
TEXT
  5
7EB8
330
1A
100
AcDbEntity
  8
ZUWAKU
100
AcDbText
 10
354.2640420961225
 20
8.776919667843458
 30
0.0
 40
3.0
  1
積水化学工業株式会社
 41
0.9
  7
ｽﾀｲﾙ1
100
AcDbText
  0
LINE
  5
7EB9
330
1A
100
AcDbEntity
  8
ZUWAKU
100
AcDbLine
 10
348.9245052742708
 20
15.0
 30
0.0
 11
348.9245052742708
 21
0.400000000000091
 31
0.0
  0
LINE
  5
7EBA
330
1A
100
AcDbEntity
  8
ZUWAKU
100
AcDbLine
 10
348.8245052742704
 20
15.0
 30
0.0
 11
348.8245052742714
 21
0.400000000000091
 31
0.0
  0
LINE
  5
7EBB
330
1A
100
AcDbEntity
  8
ZUWAKU
100
AcDbLine
 10
348.724505274271
 20
15.0
 30
0.0
 11
348.724505274271
 21
0.400000000000091
 31
0.0
  0
LINE
  5
7EBC
330
1A
100
AcDbEntity
  8
ZUWAKU
100
AcDbLine
 10
348.6245052742706
 20
15.0
 30
0.0
 11
348.6245052742706
 21
0.400000000000091
 31
0.0
  0
TEXT
  5
7EBD
330
1A
100
AcDbEntity
  8
ZUWAKU
100
AcDbText
 10
354.2640420961225
 20
3.324420156927089
 30
0.0
 40
3.0
  1
建材事業部
 41
0.9
  7
ｽﾀｲﾙ1
100
AcDbText
  0
LINE
  5
7EBE
330
1A
100
AcDbEntity
  8
CENTER L
  6
CENTER
 62
     1
 48
5.0
100
AcDbLine
 10
108.4608428496335
 20
68.43351802777103
 30
0.0
 11
108.4608428496335
 21
140.8705214367061
 31
0.0
  0
DIMENSION
  5
7EBF
330
1A
100
AcDbEntity
  8
SUNPOU
100
AcDbDimension
  2
*D2
 10
280.6792482117587
 20
146.4218534177321
 30
0.0
 11
242.5292482117586
 21
149.4218534177321
 31
0.0
 70
    32
  1
φ<>
 71
     5
 42
-1.0
  3
STANDARD
100
AcDbAlignedDimension
 13
204.3792482117585
 23
132.2972649090202
 33
0.0
 14
280.6792482117587
 24
132.2972649090206
 34
0.0
100
AcDbRotatedDimension
  0
DIMENSION
  5
7EC0
330
1A
100
AcDbEntity
  8
SUNPOU
100
AcDbDimension
  2
*D3
 10
272.3792482117585
 20
55.47740351925222
 30
0.0
 11
242.5292482117586
 21
58.47740351925222
 31
0.0
 70
    32
  1
φ<>
 71
     5
 42
-1.0
  3
STANDARD
100
AcDbAlignedDimension
 13
212.6792482117587
 23
75.29726490902021
 33
0.0
 14
272.3792482117585
 24
75.29726490902044
 34
0.0
100
AcDbRotatedDimension
  0
DIMENSION
  5
7EC1
330
1A
100
AcDbEntity
  8
SUNPOU
100
AcDbDimension
  2
*D4
 10
139.9059261713946
 20
146.4218534177321
 30
0.0
 11
108.4608428496333
 21
149.4218534177321
 31
0.0
 70
    32
 71
     5
 42
-1.0
  3
STANDARD
100
AcDbAlignedDimension
 13
77.01575952787198
 23
132.00226421472
 33
0.0
 14
139.9059261713946
 24
132.0022642147203
 34
0.0
100
AcDbRotatedDimension
  0
DIMENSION
  5
7F1C
330
1A
100
AcDbEntity
  8
SUNPOU
100
AcDbDimension
  2
*D5
 10
295.3885623940296
 20
75.29726490902042
 30
0.0
 11
295.3885623940296
 21
87.79726490902042
 31
0.0
 70
   160
  1
※<>
 71
     5
 42
-1.0
  3
STANDARD
100
AcDbAlignedDimension
 13
272.3792482117585
 23
100.2972649090204
 33
0.0
 14
272.3792482117585
 24
75.29726490902044
 34
0.0
 50
90.0
100
AcDbRotatedDimension
  0
TEXT
  5
7F7B
330
1A
100
AcDbEntity
  8
SUNPOU
100
AcDbText
 10
274.7238256983228
 20
27.45528847297425
 30
0.0
 40
4.0
  1
※　ソケット及びエルボの差込み寸法を示す。
100
AcDbText
  0
LINE
  5
7F7C
330
1A
100
AcDbEntity
  8
CENTER L
  6
CENTER
 62
     1
 48
5.0
100
AcDbLine
 10
200.5016784232509
 20
219.7431785110055
 30
0.0
 11
289.3602000986705
 21
219.7431785110055
 31
0.0
  0
LINE
  5
7F7D
330
1A
100
AcDbEntity
  8
CENTER L
  6
CENTER
 62
     1
 48
5.0
100
AcDbLine
 10
244.9309392609607
 20
264.1724393487152
 30
0.0
 11
244.9309392609606
 21
175.3139176732957
 31
0.0
  0
DIMENSION
  5
7FE8
330
1A
100
AcDbEntity
  8
SUNPOU
100
AcDbDimension
  2
*D6
 10
308.7642535514792
 20
75.29726490902042
 30
0.0
 11
305.7642535514792
 21
103.7972649090206
 31
0.0
 70
    32
 71
     5
 42
-1.0
  3
STANDARD
100
AcDbAlignedDimension
 13
280.6792482117587
 23
132.2972649090206
 33
0.0
 14
272.3792482117585
 24
75.29726490902044
 34
0.0
 50
90.0
100
AcDbRotatedDimension
  0
VIEWPORT
  5
22
102
{ACAD_XDICTIONARY
360
8193
102
}
330
17
100
AcDbEntity
 67
     1
  8
0
100
AcDbViewport
 10
313.6808219178083
 20
148.5
 30
0.0
 40
627.3616438356165
 41
297.0
 68
     2
 69
     1
 12
313.6808219178083
 22
148.5
 13
0.0
 23
0.0
 14
1.0
 24
1.0
 15
10.0
 25
10.0
 16
0.0
 26
0.0
 36
1.0
 17
0.0
 27
0.0
 37
0.0
 42
50.0
 43
0.0
 44
0.0
 45
297.0
 50
0.0
 51
0.0
 72
   100
 90
    32768
  1

281
     0
 71
     1
 74
     0
110
0.0
120
0.0
130
0.0
111
1.0
121
0.0
131
0.0
112
0.0
122
1.0
132
0.0
 79
     0
146
0.0
  0
VIEWPORT
  5
64
102
{ACAD_XDICTIONARY
360
8195
102
}
330
17
100
AcDbEntity
 67
     1
  8
VIEWPORT
100
AcDbViewport
 10
210.0
 20
148.5
 30
0.0
 40
420.0
 41
297.0
 68
     1
 69
     2
 12
210.0
 22
148.5
 13
0.0
 23
0.0
 14
5.0
 24
5.0
 15
0.0
 25
0.0
 16
0.0
 26
0.0
 36
1.0
 17
0.0
 27
0.0
 37
0.0
 42
50.0
 43
0.0
 44
0.0
 45
302.9399999999999
 50
0.0
 51
0.0
 72
   100
 90
    32768
  1

281
     0
 71
     1
 74
     0
110
0.0
120
0.0
130
0.0
111
1.0
121
0.0
131
0.0
112
0.0
122
1.0
132
0.0
 79
     0
146
0.0
  0
ENDSEC
  0
SECTION
  2
OBJECTS
  0
DICTIONARY
  5
C
330
0
100
AcDbDictionary
281
     1
  3
ACAD_COLOR
350
817D
  3
ACAD_GROUP
350
D
  3
ACAD_LAYOUT
350
33B
  3
ACAD_MATERIAL
350
817C
  3
ACAD_MLINESTYLE
350
E
  3
ACAD_PLOTSETTINGS
350
33C
  3
ACAD_PLOTSTYLENAME
350
339
  3
ACDBHEADERROUNDTRIPXREC
350
8190
  3
AcDbVariableDictionary
350
818C
  0
DICTIONARY
  5
77F4
330
2
100
AcDbDictionary
280
     1
281
     1
  3
ACAD_LAYERFILTERS
360
77F5
  0
DICTIONARY
  5
36A
330
1A
100
AcDbDictionary
280
     1
281
     1
  3
ACAD_LAYOUTSELFREF
360
8154
  0
DICTIONARY
  5
368
330
17
100
AcDbDictionary
280
     1
281
     1
  3
ACAD_LAYOUTSELFREF
360
8153
  0
DICTIONARY
  5
8193
330
22
100
AcDbDictionary
280
     1
281
     1
  3
ACAD_XREC_ROUNDTRIP
360
8194
  0
DICTIONARY
  5
8195
330
64
100
AcDbDictionary
280
     1
281
     1
  3
ACAD_XREC_ROUNDTRIP
360
8196
  0
DICTIONARY
  5
817D
102
{ACAD_REACTORS
330
C
102
}
330
C
100
AcDbDictionary
281
     1
  0
DICTIONARY
  5
D
102
{ACAD_REACTORS
330
C
102
}
330
C
100
AcDbDictionary
281
     1
  0
DICTIONARY
  5
33B
102
{ACAD_REACTORS
330
C
102
}
330
C
100
AcDbDictionary
281
     1
  3
Model
350
33D
  3
ﾚｲｱｳﾄ1
350
33E
  0
DICTIONARY
  5
817C
102
{ACAD_REACTORS
330
C
102
}
330
C
100
AcDbDictionary
281
     1
  0
DICTIONARY
  5
E
102
{ACAD_REACTORS
330
C
102
}
330
C
100
AcDbDictionary
281
     1
  3
STANDARD
350
13
  0
DICTIONARY
  5
33C
102
{ACAD_REACTORS
330
C
102
}
330
C
100
AcDbDictionary
281
     1
  0
ACDBDICTIONARYWDFLT
  5
339
102
{ACAD_REACTORS
330
C
102
}
330
C
100
AcDbDictionary
281
     1
  3
Normal
350
33A
100
AcDbDictionaryWithDefault
340
33A
1001
ACAD
1000
TREAT_AS_HARD
1070
     0
1000
TREAT_AS_HARD
1070
     0
1000
TREAT_AS_HARD
1070
     0
1000
TREAT_AS_HARD
1070
     0
1000
TREAT_AS_HARD
1070
     0
1000
TREAT_AS_HARD
1070
     0
1000
TREAT_AS_HARD
1070
     0
1000
TREAT_AS_HARD
1070
     0
1000
TREAT_AS_HARD
1070
     0
1000
TREAT_AS_HARD
1070
     0
1000
TREAT_AS_HARD
1070
     0
  0
DICTIONARY
  5
8190
102
{ACAD_REACTORS
330
C
102
}
330
C
100
AcDbDictionary
281
     1
  3
COLORDICT
350
8192
  3
MATERIALDICT
350
8191
  0
DICTIONARY
  5
818C
102
{ACAD_REACTORS
330
C
102
}
330
C
100
AcDbDictionary
281
     1
  3
DIMASSOC
350
818D
  3
PROJECTNAME
350
818E
  0
DICTIONARY
  5
77F5
102
{ACAD_REACTORS
330
77F4
102
}
330
77F4
100
AcDbDictionary
280
     1
281
     1
  3
50
360
77F6
  0
XRECORD
  5
8154
102
{ACAD_REACTORS
330
36A
102
}
330
36A
100
AcDbXrecord
280
     1
340
1A
  0
XRECORD
  5
8153
102
{ACAD_REACTORS
330
368
102
}
330
368
100
AcDbXrecord
280
     1
340
17
  0
XRECORD
  5
8194
102
{ACAD_REACTORS
330
8193
102
}
330
8193
100
AcDbXrecord
280
     1
102
SHADEPLOT
 70
     0
  0
XRECORD
  5
8196
102
{ACAD_REACTORS
330
8195
102
}
330
8195
100
AcDbXrecord
280
     1
102
SHADEPLOT
 70
     0
  0
LAYOUT
  5
33D
102
{ACAD_XDICTIONARY
360
8197
102
}
102
{ACAD_REACTORS
330
33B
102
}
330
33B
100
AcDbPlotSettings
  1

  2
Acrobat Distiller
  4
A3
  6

 40
3.174999952316284
 41
3.174999952316284
 42
3.17498779296875
 43
3.17498779296875
 44
297.0318298339844
 45
420.1583251953125
 46
7.0
 47
7.0
 48
0.0
 49
0.0
140
0.0
141
0.0
142
1.0
143
1.0
 70
 28336
 72
     1
 73
     1
 74
     2
  7
print.ctb
 75
    16
147
1.0
148
0.0
149
0.0
100
AcDbLayout
  1
Model
 70
     1
 71
     0
 10
0.0
 20
0.0
 11
12.0
 21
9.0
 12
0.0
 22
0.0
 32
0.0
 14
0.0
 24
0.0
 34
0.0
 15
0.0
 25
0.0
 35
0.0
146
0.0
 13
0.0
 23
0.0
 33
0.0
 16
1.0
 26
0.0
 36
0.0
 17
0.0
 27
1.0
 37
0.0
 76
     0
330
1A
  0
LAYOUT
  5
33E
102
{ACAD_XDICTIONARY
360
8199
102
}
102
{ACAD_REACTORS
330
33B
102
}
330
33B
100
AcDbPlotSettings
  1

  2
C:\PROGRAM FILES\ACAD LT 2000\plotters\DWF ePlot.pc3
  4

  6

 40
0.0
 41
0.0
 42
0.0
 43
0.0
 44
0.0
 45
0.0
 46
0.0
 47
0.0
 48
0.0
 49
0.0
140
0.0
141
0.0
142
1.0
143
1.0
 70
   688
 72
     0
 73
     0
 74
     5
  7
print.ctb
 75
    16
147
1.0
148
0.0
149
0.0
100
AcDbLayout
  1
ﾚｲｱｳﾄ1
 70
     1
 71
     1
 10
0.0
 20
0.0
 11
420.0
 21
297.0
 12
0.0
 22
0.0
 32
0.0
 14
0.0
 24
0.0
 34
0.0
 15
420.0
 25
297.0
 35
0.0
146
0.0
 13
0.0
 23
0.0
 33
0.0
 16
1.0
 26
0.0
 36
0.0
 17
0.0
 27
1.0
 37
0.0
 76
     0
330
17
331
64
  0
MLINESTYLE
  5
13
102
{ACAD_REACTORS
330
E
102
}
330
E
100
AcDbMlineStyle
  2
STANDARD
 70
     0
  3

 62
     0
 51
90.0
 52
90.0
 71
     2
 49
0.5
 62
   256
  6
BYLAYER
 49
-0.5
 62
   256
  6
BYLAYER
  0
ACDBPLACEHOLDER
  5
33A
102
{ACAD_REACTORS
330
339
102
}
330
339
  0
XRECORD
  5
8192
102
{ACAD_REACTORS
330
8190
102
}
330
8190
100
AcDbXrecord
280
     1
340
817D
  0
XRECORD
  5
8191
102
{ACAD_REACTORS
330
8190
102
}
330
8190
100
AcDbXrecord
280
     1
340
817C
  0
DICTIONARYVAR
  5
818D
102
{ACAD_REACTORS
330
818C
102
}
330
818C
100
DictionaryVariables
280
     0
  1
1
  0
DICTIONARYVAR
  5
818E
102
{ACAD_REACTORS
330
818C
102
}
330
818C
100
DictionaryVariables
280
     0
  1

  0
XRECORD
  5
77F6
102
{ACAD_REACTORS
330
77F5
102
}
330
77F5
100
AcDbXrecord
280
     1
  1
50
  1
*-50
  1
*
  1
*
 70
     0
  1
*
  1
*
  0
DICTIONARY
  5
8197
330
33D
100
AcDbDictionary
280
     1
281
     1
  3
ACAD_XREC_ROUNDTRIP
360
8198
  0
DICTIONARY
  5
8199
330
33E
100
AcDbDictionary
280
     1
281
     1
  3
ACAD_XREC_ROUNDTRIP
360
819A
  0
XRECORD
  5
8198
102
{ACAD_REACTORS
330
8197
102
}
330
8197
100
AcDbXrecord
280
     1
102
SHADEPLOT
 70
     0
102
SHADEPLOTRESLEVEL
 70
     2
102
SHADEPLOTCUSTOMDPI
 70
   300
  0
XRECORD
  5
819A
102
{ACAD_REACTORS
330
8199
102
}
330
8199
100
AcDbXrecord
280
     1
102
SHADEPLOT
 70
     0
102
SHADEPLOTRESLEVEL
 70
     2
102
SHADEPLOTCUSTOMDPI
 70
   300
  0
ENDSEC
  0
EOF
