  0
SECTION
  2
HEADER
  9
$ACADVER
  1
AC1015
  9
$ACADMAINTVER
 70
     6
  9
$DWGCODEPAGE
  3
ANSI_932
  9
$INSBASE
 10
0.0
 20
0.0
 30
0.0
  9
$EXTMIN
 10
0.0000004316887043
 20
0.0000000752883125
 30
-0.00000001
  9
$EXTMAX
 10
398.8000004316887
 20
275.8000000752883
 30
0.00000001
  9
$LIMMIN
 10
0.0
 20
0.0
  9
$LIMMAX
 10
420.0
 20
297.0
  9
$ORTHOMODE
 70
     1
  9
$REGENMODE
 70
     1
  9
$FILLMODE
 70
     1
  9
$QTEXTMODE
 70
     0
  9
$MIRRTEXT
 70
     1
  9
$LTSCALE
 40
1.0
  9
$ATTMODE
 70
     1
  9
$TEXTSIZE
 40
2.5
  9
$TRACEWID
 40
1.0
  9
$TEXTSTYLE
  7
MSｺﾞｼｯｸ
  9
$CLAYER
  8
0
  9
$CELTYPE
  6
BYLAYER
  9
$CECOLOR
 62
   256
  9
$CELTSCALE
 40
1.0
  9
$DISPSILH
 70
     0
  9
$DIMSCALE
 40
1.0
  9
$DIMASZ
 40
3.0
  9
$DIMEXO
 40
1.5
  9
$DIMDLI
 40
9.0
  9
$DIMRND
 40
0.0
  9
$DIMDLE
 40
0.0
  9
$DIMEXE
 40
1.5
  9
$DIMTP
 40
0.0
  9
$DIMTM
 40
0.0
  9
$DIMTXT
 40
3.0
  9
$DIMCEN
 40
0.0
  9
$DIMTSZ
 40
0.0
  9
$DIMTOL
 70
     0
  9
$DIMLIM
 70
     0
  9
$DIMTIH
 70
     0
  9
$DIMTOH
 70
     0
  9
$DIMSE1
 70
     0
  9
$DIMSE2
 70
     0
  9
$DIMTAD
 70
     3
  9
$DIMZIN
 70
     0
  9
$DIMBLK
  1
OPEN
  9
$DIMASO
 70
     1
  9
$DIMSHO
 70
     1
  9
$DIMPOST
  1

  9
$DIMAPOST
  1

  9
$DIMALT
 70
     0
  9
$DIMALTD
 70
     2
  9
$DIMALTF
 40
25.4
  9
$DIMLFAC
 40
1.0
  9
$DIMTOFL
 70
     0
  9
$DIMTVP
 40
0.0
  9
$DIMTIX
 70
     0
  9
$DIMSOXD
 70
     0
  9
$DIMSAH
 70
     0
  9
$DIMBLK1
  1

  9
$DIMBLK2
  1

  9
$DIMSTYLE
  2
STANDARD
  9
$DIMCLRD
 70
   256
  9
$DIMCLRE
 70
   256
  9
$DIMCLRT
 70
   256
  9
$DIMTFAC
 40
1.0
  9
$DIMGAP
 40
1.5
  9
$DIMJUST
 70
     0
  9
$DIMSD1
 70
     0
  9
$DIMSD2
 70
     0
  9
$DIMTOLJ
 70
     1
  9
$DIMTZIN
 70
     0
  9
$DIMALTZ
 70
     0
  9
$DIMALTTZ
 70
     0
  9
$DIMUPT
 70
     0
  9
$DIMDEC
 70
     0
  9
$DIMTDEC
 70
     0
  9
$DIMALTU
 70
     2
  9
$DIMALTTD
 70
     2
  9
$DIMTXSTY
  7
STANDARD
  9
$DIMAUNIT
 70
     0
  9
$DIMADEC
 70
     0
  9
$DIMALTRND
 40
0.0
  9
$DIMAZIN
 70
     0
  9
$DIMDSEP
 70
    46
  9
$DIMATFIT
 70
     3
  9
$DIMFRAC
 70
     0
  9
$DIMLDRBLK
  1
OPEN
  9
$DIMLUNIT
 70
     2
  9
$DIMLWD
 70
    -1
  9
$DIMLWE
 70
    -1
  9
$DIMTMOVE
 70
     0
  9
$LUNITS
 70
     2
  9
$LUPREC
 70
     4
  9
$SKETCHINC
 40
1.0
  9
$FILLETRAD
 40
1.0
  9
$AUNITS
 70
     0
  9
$AUPREC
 70
     0
  9
$MENU
  1
.
  9
$ELEVATION
 40
0.0
  9
$PELEVATION
 40
0.0
  9
$THICKNESS
 40
0.0
  9
$LIMCHECK
 70
     0
  9
$CHAMFERA
 40
10.0
  9
$CHAMFERB
 40
10.0
  9
$CHAMFERC
 40
20.0
  9
$CHAMFERD
 40
0.0
  9
$SKPOLY
 70
     0
  9
$TDCREATE
 40
2451094.495386573
  9
$TDUCREATE
 40
2451094.120386574
  9
$TDUPDATE
 40
2456203.597100162
  9
$TDUUPDATE
 40
2456203.222100162
  9
$TDINDWG
 40
0.3052522222
  9
$TDUSRTIMER
 40
0.3052522222
  9
$USRTIMER
 70
     1
  9
$ANGBASE
 50
0.0
  9
$ANGDIR
 70
     0
  9
$PDMODE
 70
     0
  9
$PDSIZE
 40
0.0
  9
$PLINEWID
 40
0.0
  9
$SPLFRAME
 70
     0
  9
$SPLINETYPE
 70
     6
  9
$SPLINESEGS
 70
     8
  9
$HANDSEED
  5
82B4
  9
$SURFTAB1
 70
     6
  9
$SURFTAB2
 70
     6
  9
$SURFTYPE
 70
     6
  9
$SURFU
 70
     6
  9
$SURFV
 70
     6
  9
$UCSBASE
  2

  9
$UCSNAME
  2

  9
$UCSORG
 10
0.0
 20
0.0
 30
0.0
  9
$UCSXDIR
 10
1.0
 20
0.0
 30
0.0
  9
$UCSYDIR
 10
0.0
 20
1.0
 30
0.0
  9
$UCSORTHOREF
  2

  9
$UCSORTHOVIEW
 70
     0
  9
$UCSORGTOP
 10
0.0
 20
0.0
 30
0.0
  9
$UCSORGBOTTOM
 10
0.0
 20
0.0
 30
0.0
  9
$UCSORGLEFT
 10
0.0
 20
0.0
 30
0.0
  9
$UCSORGRIGHT
 10
0.0
 20
0.0
 30
0.0
  9
$UCSORGFRONT
 10
0.0
 20
0.0
 30
0.0
  9
$UCSORGBACK
 10
0.0
 20
0.0
 30
0.0
  9
$PUCSBASE
  2

  9
$PUCSNAME
  2

  9
$PUCSORG
 10
0.0
 20
0.0
 30
0.0
  9
$PUCSXDIR
 10
1.0
 20
0.0
 30
0.0
  9
$PUCSYDIR
 10
0.0
 20
1.0
 30
0.0
  9
$PUCSORTHOREF
  2

  9
$PUCSORTHOVIEW
 70
     0
  9
$PUCSORGTOP
 10
0.0
 20
0.0
 30
0.0
  9
$PUCSORGBOTTOM
 10
0.0
 20
0.0
 30
0.0
  9
$PUCSORGLEFT
 10
0.0
 20
0.0
 30
0.0
  9
$PUCSORGRIGHT
 10
0.0
 20
0.0
 30
0.0
  9
$PUCSORGFRONT
 10
0.0
 20
0.0
 30
0.0
  9
$PUCSORGBACK
 10
0.0
 20
0.0
 30
0.0
  9
$USERI1
 70
     0
  9
$USERI2
 70
     0
  9
$USERI3
 70
     0
  9
$USERI4
 70
     0
  9
$USERI5
 70
     0
  9
$USERR1
 40
0.0
  9
$USERR2
 40
0.0
  9
$USERR3
 40
0.0
  9
$USERR4
 40
0.0
  9
$USERR5
 40
0.0
  9
$WORLDVIEW
 70
     1
  9
$SHADEDGE
 70
     3
  9
$SHADEDIF
 70
    70
  9
$TILEMODE
 70
     1
  9
$MAXACTVP
 70
    16
  9
$PINSBASE
 10
0.0
 20
0.0
 30
0.0
  9
$PLIMCHECK
 70
     0
  9
$PEXTMIN
 10
0.0
 20
0.0
 30
0.0
  9
$PEXTMAX
 10
420.0
 20
297.0
 30
0.0
  9
$PLIMMIN
 10
0.0
 20
0.0
  9
$PLIMMAX
 10
420.0
 20
297.0
  9
$UNITMODE
 70
     0
  9
$VISRETAIN
 70
     0
  9
$PLINEGEN
 70
     0
  9
$PSLTSCALE
 70
     1
  9
$TREEDEPTH
 70
  3020
  9
$CMLSTYLE
  2
STANDARD
  9
$CMLJUST
 70
     0
  9
$CMLSCALE
 40
1.0
  9
$PROXYGRAPHICS
 70
     1
  9
$MEASUREMENT
 70
     1
  9
$CELWEIGHT
370
    -1
  9
$ENDCAPS
280
     0
  9
$JOINSTYLE
280
     0
  9
$LWDISPLAY
290
     0
  9
$INSUNITS
 70
     0
  9
$HYPERLINKBASE
  1

  9
$STYLESHEET
  1
print.ctb
  9
$XEDIT
290
     1
  9
$CEPSNTYPE
380
     0
  9
$PSTYLEMODE
290
     1
  9
$FINGERPRINTGUID
  2
{FE2B4833-B477-44F5-8DA5-88CB8407FFE5}
  9
$VERSIONGUID
  2
{3E60F00A-8947-4419-BB95-6B65EC8B001D}
  9
$EXTNAMES
290
     1
  9
$PSVPSCALE
 40
0.0
  9
$OLESTARTUP
290
     0
  0
ENDSEC
  0
SECTION
  2
CLASSES
  0
CLASS
  1
ACDBDICTIONARYWDFLT
  2
AcDbDictionaryWithDefault
  3
AutoCAD 2000
 90
        0
280
     0
281
     0
  0
CLASS
  1
ACDBPLACEHOLDER
  2
AcDbPlaceHolder
  3
AutoCAD 2000
 90
        0
280
     0
281
     0
  0
CLASS
  1
LAYOUT
  2
AcDbLayout
  3
AutoCAD 2000
 90
        0
280
     0
281
     0
  0
CLASS
  1
LONG_TRANSACTION
  2
AcDbLongTransaction
  3
AutoCAD 2000
 90
    32768
280
     0
281
     0
  0
CLASS
  1
LWPOLYLINE
  2
AcDbPolyline
  3
AutoCAD 2000
 90
    32768
280
     0
281
     1
  0
CLASS
  1
HATCH
  2
AcDbHatch
  3
AutoCAD 2000
 90
    32768
280
     0
281
     1
  0
CLASS
  1
XRECORD
  2
AcDbXrecord
  3
AutoCAD 2000
 90
    32768
280
     0
281
     0
  0
CLASS
  1
LONG_TRANSACTION
  2
AcDbLongTransaction
  3
AutoCAD 2000
 90
    32768
280
     0
281
     0
  0
CLASS
  1
LWPOLYLINE
  2
AcDbPolyline
  3
AutoCAD 2000
 90
    32768
280
     0
281
     1
  0
CLASS
  1
HATCH
  2
AcDbHatch
  3
AutoCAD 2000
 90
    32768
280
     0
281
     1
  0
CLASS
  1
XRECORD
  2
AcDbXrecord
  3
AutoCAD 2000
 90
    32768
280
     0
281
     0
  0
CLASS
  1
LONG_TRANSACTION
  2
AcDbLongTransaction
  3
AutoCAD 2000
 90
    32768
280
     0
281
     0
  0
CLASS
  1
LWPOLYLINE
  2
AcDbPolyline
  3
AutoCAD 2000
 90
    32768
280
     0
281
     1
  0
CLASS
  1
HATCH
  2
AcDbHatch
  3
AutoCAD 2000
 90
    32768
280
     0
281
     1
  0
CLASS
  1
XRECORD
  2
AcDbXrecord
  3
AutoCAD 2000
 90
    32768
280
     0
281
     0
  0
CLASS
  1
LONG_TRANSACTION
  2
AcDbLongTransaction
  3
AutoCAD 2000
 90
    32768
280
     0
281
     0
  0
CLASS
  1
LWPOLYLINE
  2
AcDbPolyline
  3
AutoCAD 2000
 90
    32768
280
     0
281
     1
  0
CLASS
  1
HATCH
  2
AcDbHatch
  3
AutoCAD 2000
 90
    32768
280
     0
281
     1
  0
CLASS
  1
XRECORD
  2
AcDbXrecord
  3
AutoCAD 2000
 90
    32768
280
     0
281
     0
  0
CLASS
  1
LONG_TRANSACTION
  2
AcDbLongTransaction
  3
AutoCAD 2000
 90
    32768
280
     0
281
     0
  0
CLASS
  1
LWPOLYLINE
  2
AcDbPolyline
  3
AutoCAD 2000
 90
    32768
280
     0
281
     1
  0
CLASS
  1
HATCH
  2
AcDbHatch
  3
AutoCAD 2000
 90
    32768
280
     0
281
     1
  0
CLASS
  1
XRECORD
  2
AcDbXrecord
  3
AutoCAD 2000
 90
    32768
280
     0
281
     0
  0
CLASS
  1
DICTIONARYVAR
  2
AcDbDictionaryVar
  3
AutoCAD 2000
 90
        0
280
     0
281
     0
  0
CLASS
  1
LONG_TRANSACTION
  2
AcDbLongTransaction
  3
AutoCAD 2000
 90
    32768
280
     0
281
     0
  0
CLASS
  1
LWPOLYLINE
  2
AcDbPolyline
  3
AutoCAD 2000
 90
    32768
280
     0
281
     1
  0
CLASS
  1
HATCH
  2
AcDbHatch
  3
AutoCAD 2000
 90
    32768
280
     0
281
     1
  0
CLASS
  1
XRECORD
  2
AcDbXrecord
  3
AutoCAD 2000
 90
    32768
280
     0
281
     0
  0
CLASS
  1
LONG_TRANSACTION
  2
AcDbLongTransaction
  3
AutoCAD 2000
 90
    32768
280
     0
281
     0
  0
CLASS
  1
LWPOLYLINE
  2
AcDbPolyline
  3
AutoCAD 2000
 90
    32768
280
     0
281
     1
  0
CLASS
  1
HATCH
  2
AcDbHatch
  3
AutoCAD 2000
 90
    32768
280
     0
281
     1
  0
CLASS
  1
XRECORD
  2
AcDbXrecord
  3
AutoCAD 2000
 90
    32768
280
     0
281
     0
  0
CLASS
  1
LONG_TRANSACTION
  2
AcDbLongTransaction
  3
AutoCAD 2000
 90
    32768
280
     0
281
     0
  0
CLASS
  1
LWPOLYLINE
  2
AcDbPolyline
  3
AutoCAD 2000
 90
    32768
280
     0
281
     1
  0
CLASS
  1
HATCH
  2
AcDbHatch
  3
AutoCAD 2000
 90
    32768
280
     0
281
     1
  0
CLASS
  1
XRECORD
  2
AcDbXrecord
  3
AutoCAD 2000
 90
    32768
280
     0
281
     0
  0
CLASS
  1
LONG_TRANSACTION
  2
AcDbLongTransaction
  3
AutoCAD 2000
 90
    32768
280
     0
281
     0
  0
CLASS
  1
LWPOLYLINE
  2
AcDbPolyline
  3
AutoCAD 2000
 90
    32768
280
     0
281
     1
  0
CLASS
  1
HATCH
  2
AcDbHatch
  3
AutoCAD 2000
 90
    32768
280
     0
281
     1
  0
CLASS
  1
XRECORD
  2
AcDbXrecord
  3
AutoCAD 2000
 90
    32768
280
     0
281
     0
  0
CLASS
  1
LONG_TRANSACTION
  2
AcDbLongTransaction
  3
AutoCAD 2000
 90
    32768
280
     0
281
     0
  0
CLASS
  1
LWPOLYLINE
  2
AcDbPolyline
  3
AutoCAD 2000
 90
    32768
280
     0
281
     1
  0
CLASS
  1
HATCH
  2
AcDbHatch
  3
AutoCAD 2000
 90
    32768
280
     0
281
     1
  0
CLASS
  1
XRECORD
  2
AcDbXrecord
  3
AutoCAD 2000
 90
    32768
280
     0
281
     0
  0
CLASS
  1
LONG_TRANSACTION
  2
AcDbLongTransaction
  3
AutoCAD 2000
 90
    32768
280
     0
281
     0
  0
CLASS
  1
LWPOLYLINE
  2
AcDbPolyline
  3
AutoCAD 2000
 90
    32768
280
     0
281
     1
  0
CLASS
  1
HATCH
  2
AcDbHatch
  3
AutoCAD 2000
 90
    32768
280
     0
281
     1
  0
CLASS
  1
XRECORD
  2
AcDbXrecord
  3
AutoCAD 2000
 90
    32768
280
     0
281
     0
  0
CLASS
  1
LONG_TRANSACTION
  2
AcDbLongTransaction
  3
AutoCAD 2000
 90
    32768
280
     0
281
     0
  0
CLASS
  1
LWPOLYLINE
  2
AcDbPolyline
  3
AutoCAD 2000
 90
    32768
280
     0
281
     1
  0
CLASS
  1
HATCH
  2
AcDbHatch
  3
AutoCAD 2000
 90
    32768
280
     0
281
     1
  0
CLASS
  1
XRECORD
  2
AcDbXrecord
  3
AutoCAD 2000
 90
    32768
280
     0
281
     0
  0
CLASS
  1
LONG_TRANSACTION
  2
AcDbLongTransaction
  3
AutoCAD 2000
 90
    32768
280
     0
281
     0
  0
CLASS
  1
LWPOLYLINE
  2
AcDbPolyline
  3
AutoCAD 2000
 90
    32768
280
     0
281
     1
  0
CLASS
  1
HATCH
  2
AcDbHatch
  3
AutoCAD 2000
 90
    32768
280
     0
281
     1
  0
CLASS
  1
XRECORD
  2
AcDbXrecord
  3
AutoCAD 2000
 90
    32768
280
     0
281
     0
  0
CLASS
  1
MATERIAL
  2
AcDbMaterial
  3
ObjectDBX Classes
 90
     1153
280
     0
281
     0
  0
CLASS
  1
VISUALSTYLE
  2
AcDbVisualStyle
  3
ObjectDBX Classes
 90
     4095
280
     0
281
     0
  0
CLASS
  1
TABLESTYLE
  2
AcDbTableStyle
  3
ObjectDBX Classes
 90
     4095
280
     0
281
     0
  0
CLASS
  1
SCALE
  2
AcDbScale
  3
ObjectDBX Classes
 90
     1153
280
     0
281
     0
  0
CLASS
  1
MLEADERSTYLE
  2
AcDbMLeaderStyle
  3
ACDB_MLEADERSTYLE_CLASS
 90
     4095
280
     0
281
     0
  0
CLASS
  1
SORTENTSTABLE
  2
AcDbSortentsTable
  3
AutoCAD 2000
 90
        0
280
     0
281
     0
  0
CLASS
  1
CELLSTYLEMAP
  2
AcDbCellStyleMap
  3
ObjectDBX Classes
 90
     1152
280
     0
281
     0
  0
CLASS
  1
ACAD_PROXY_OBJECT_WRAPPER
  2
AcDbProxyObjectWrapper
  3
AutoCAD 2000
 90
        0
280
     0
281
     0
  0
CLASS
  1
LONG_TRANSACTION
  2
AcDbLongTransaction
  3
AutoCAD 2000
 90
    32768
280
     0
281
     0
  0
CLASS
  1
LWPOLYLINE
  2
AcDbPolyline
  3
AutoCAD 2000
 90
    32768
280
     0
281
     1
  0
CLASS
  1
HATCH
  2
AcDbHatch
  3
AutoCAD 2000
 90
    32768
280
     0
281
     1
  0
CLASS
  1
XRECORD
  2
AcDbXrecord
  3
AutoCAD 2000
 90
    32768
280
     0
281
     0
  0
CLASS
  1
LONG_TRANSACTION
  2
AcDbLongTransaction
  3
AutoCAD 2000
 90
    32768
280
     0
281
     0
  0
CLASS
  1
LWPOLYLINE
  2
AcDbPolyline
  3
AutoCAD 2000
 90
    32768
280
     0
281
     1
  0
CLASS
  1
HATCH
  2
AcDbHatch
  3
AutoCAD 2000
 90
    32768
280
     0
281
     1
  0
CLASS
  1
XRECORD
  2
AcDbXrecord
  3
AutoCAD 2000
 90
    32768
280
     0
281
     0
  0
CLASS
  1
LONG_TRANSACTION
  2
AcDbLongTransaction
  3
AutoCAD 2000
 90
    32768
280
     0
281
     0
  0
CLASS
  1
LWPOLYLINE
  2
AcDbPolyline
  3
AutoCAD 2000
 90
    32768
280
     0
281
     1
  0
CLASS
  1
HATCH
  2
AcDbHatch
  3
AutoCAD 2000
 90
    32768
280
     0
281
     1
  0
CLASS
  1
XRECORD
  2
AcDbXrecord
  3
AutoCAD 2000
 90
    32768
280
     0
281
     0
  0
CLASS
  1
LONG_TRANSACTION
  2
AcDbLongTransaction
  3
AutoCAD 2000
 90
    32768
280
     0
281
     0
  0
CLASS
  1
LWPOLYLINE
  2
AcDbPolyline
  3
AutoCAD 2000
 90
    32768
280
     0
281
     1
  0
CLASS
  1
HATCH
  2
AcDbHatch
  3
AutoCAD 2000
 90
    32768
280
     0
281
     1
  0
CLASS
  1
XRECORD
  2
AcDbXrecord
  3
AutoCAD 2000
 90
    32768
280
     0
281
     0
  0
CLASS
  1
LONG_TRANSACTION
  2
AcDbLongTransaction
  3
AutoCAD 2000
 90
    32768
280
     0
281
     0
  0
CLASS
  1
LWPOLYLINE
  2
AcDbPolyline
  3
AutoCAD 2000
 90
    32768
280
     0
281
     1
  0
CLASS
  1
HATCH
  2
AcDbHatch
  3
AutoCAD 2000
 90
    32768
280
     0
281
     1
  0
CLASS
  1
XRECORD
  2
AcDbXrecord
  3
AutoCAD 2000
 90
    32768
280
     0
281
     0
  0
CLASS
  1
LONG_TRANSACTION
  2
AcDbLongTransaction
  3
AutoCAD 2000
 90
    32768
280
     0
281
     0
  0
CLASS
  1
LWPOLYLINE
  2
AcDbPolyline
  3
AutoCAD 2000
 90
    32768
280
     0
281
     1
  0
CLASS
  1
HATCH
  2
AcDbHatch
  3
AutoCAD 2000
 90
    32768
280
     0
281
     1
  0
CLASS
  1
XRECORD
  2
AcDbXrecord
  3
AutoCAD 2000
 90
    32768
280
     0
281
     0
  0
ENDSEC
  0
SECTION
  2
TABLES
  0
TABLE
  2
VPORT
  5
8
102
{ACAD_XDICTIONARY
360
7E6B
102
}
330
0
100
AcDbSymbolTable
 70
     2
  0
VPORT
  5
82B3
330
8
100
AcDbSymbolTableRecord
100
AcDbViewportTableRecord
  2
*Active
 70
     0
 10
0.0
 20
0.0
 11
1.0
 21
1.0
 12
205.5387724509436
 22
133.629503173138
 13
0.0
 23
0.0
 14
5.0
 24
5.0
 15
0.0
 25
0.0
 16
0.0
 26
0.0
 36
1.0
 17
0.0
 27
0.0
 37
0.0
 40
329.1177292735325
 41
1.557397959183673
 42
50.0
 43
0.0
 44
0.0
 50
0.0
 51
0.0
 71
     0
 72
   100
 73
     1
 74
     0
 75
     0
 76
     0
 77
     0
 78
     0
281
     0
 65
     1
110
0.0
120
0.0
130
0.0
111
1.0
121
0.0
131
0.0
112
0.0
122
1.0
132
0.0
 79
     0
146
0.0
  0
ENDTAB
  0
TABLE
  2
LTYPE
  5
5
330
0
100
AcDbSymbolTable
 70
     2
  0
LTYPE
  5
14
330
5
100
AcDbSymbolTableRecord
100
AcDbLinetypeTableRecord
  2
BYBLOCK
 70
     0
  3

 72
    65
 73
     0
 40
0.0
  0
LTYPE
  5
15
330
5
100
AcDbSymbolTableRecord
100
AcDbLinetypeTableRecord
  2
BYLAYER
 70
     0
  3

 72
    65
 73
     0
 40
0.0
  0
LTYPE
  5
16
330
5
100
AcDbSymbolTableRecord
100
AcDbLinetypeTableRecord
  2
CONTINUOUS
 70
     0
  3
Solid line
 72
    65
 73
     0
 40
0.0
  0
LTYPE
  5
1215
330
5
100
AcDbSymbolTableRecord
100
AcDbLinetypeTableRecord
  2
CENTER
 70
     0
  3
____ _ ____ _ ____ _ ____ _ ____ _ ____ _ ____ 
 72
    65
 73
     4
 40
2.0
 49
1.25
 74
     0
 49
-0.25
 74
     0
 49
0.25
 74
     0
 49
-0.25
 74
     0
  0
ENDTAB
  0
TABLE
  2
LAYER
  5
2
102
{ACAD_XDICTIONARY
360
54E3
102
}
330
0
100
AcDbSymbolTable
 70
     8
  0
LAYER
  5
F
102
{ACAD_XDICTIONARY
360
5AFC
102
}
330
2
100
AcDbSymbolTableRecord
100
AcDbLayerTableRecord
  2
0
 70
     0
 62
     7
  6
CONTINUOUS
370
    -3
390
351
  0
LAYER
  5
62
102
{ACAD_XDICTIONARY
360
5AFE
102
}
330
2
100
AcDbSymbolTableRecord
100
AcDbLayerTableRecord
  2
VIEWPORT
 70
     0
 62
     7
  6
CONTINUOUS
370
    -3
390
351
  0
LAYER
  5
6B
102
{ACAD_XDICTIONARY
360
5B00
102
}
330
2
100
AcDbSymbolTableRecord
100
AcDbLayerTableRecord
  2
ZUWAKU
 70
     0
 62
     7
  6
CONTINUOUS
370
    -3
390
351
  0
LAYER
  5
20E
330
2
100
AcDbSymbolTableRecord
100
AcDbLayerTableRecord
  2
DEFPOINTS
 70
     0
 62
     7
  6
CONTINUOUS
290
     0
370
    -3
390
351
  0
LAYER
  5
BC1
102
{ACAD_XDICTIONARY
360
5B02
102
}
330
2
100
AcDbSymbolTableRecord
100
AcDbLayerTableRecord
  2
moji
 70
     0
 62
     2
  6
CONTINUOUS
370
    -3
390
351
  0
LAYER
  5
1216
102
{ACAD_XDICTIONARY
360
5B04
102
}
330
2
100
AcDbSymbolTableRecord
100
AcDbLayerTableRecord
  2
SEIHIN
 70
     0
 62
     3
  6
CONTINUOUS
370
    -3
390
351
  0
LAYER
  5
1218
102
{ACAD_XDICTIONARY
360
5B06
102
}
330
2
100
AcDbSymbolTableRecord
100
AcDbLayerTableRecord
  2
SUNPOU
 70
     0
 62
     4
  6
CONTINUOUS
370
    -3
390
351
  0
LAYER
  5
1627
102
{ACAD_XDICTIONARY
360
5B08
102
}
330
2
100
AcDbSymbolTableRecord
100
AcDbLayerTableRecord
  2
CENTER L
 70
     0
 62
     1
  6
CENTER
370
    -3
390
351
  0
ENDTAB
  0
TABLE
  2
STYLE
  5
3
330
0
100
AcDbSymbolTable
 70
     2
  0
STYLE
  5
10
330
3
100
AcDbSymbolTableRecord
100
AcDbTextStyleTableRecord
  2
STANDARD
 70
     0
 40
0.0
 41
1.0
 50
0.0
 71
     0
 42
2.5
  3
TXT
  4
bigfont.shx
  0
STYLE
  5
BC2
330
3
100
AcDbSymbolTableRecord
100
AcDbTextStyleTableRecord
  2
MSｺﾞｼｯｸ
 70
     0
 40
0.0
 41
1.0
 50
0.0
 71
     0
 42
2.5
  3
MS Gothic.ttf
  4

1001
ACAD
1000
MS Gothic
1071
    32817
  0
ENDTAB
  0
TABLE
  2
VIEW
  5
6
330
0
100
AcDbSymbolTable
 70
     0
  0
ENDTAB
  0
TABLE
  2
UCS
  5
7
330
0
100
AcDbSymbolTable
 70
     0
  0
ENDTAB
  0
TABLE
  2
APPID
  5
9
330
0
100
AcDbSymbolTable
 70
     7
  0
APPID
  5
11
330
9
100
AcDbSymbolTableRecord
100
AcDbRegAppTableRecord
  2
ACAD
 70
     0
  0
APPID
  5
54E2
330
9
100
AcDbSymbolTableRecord
100
AcDbRegAppTableRecord
  2
ACAD_PSEXT
 70
     0
  0
APPID
  5
5A15
330
9
100
AcDbSymbolTableRecord
100
AcDbRegAppTableRecord
  2
ACAD_DSTYLE_DIMJAG
 70
     0
  0
APPID
  5
5A16
330
9
100
AcDbSymbolTableRecord
100
AcDbRegAppTableRecord
  2
ACAD_DSTYLE_DIMTALN
 70
     0
  0
APPID
  5
5A4B
330
9
100
AcDbSymbolTableRecord
100
AcDbRegAppTableRecord
  2
ACAD_EXEMPT_FROM_CAD_STANDARDS
 70
     0
  0
APPID
  5
6F2B
330
9
100
AcDbSymbolTableRecord
100
AcDbRegAppTableRecord
  2
ACAD_DSTYLE_DIMRADIAL_EXTENSION
 70
     0
  0
APPID
  5
7EA8
330
9
100
AcDbSymbolTableRecord
100
AcDbRegAppTableRecord
  2
ACAD_MLEADERVER
 70
     0
  0
ENDTAB
  0
TABLE
  2
DIMSTYLE
  5
A
330
0
100
AcDbSymbolTable
 70
     1
100
AcDbDimStyleTable
 71
     0
  0
DIMSTYLE
105
1D
102
{ACAD_REACTORS
330
7D7A
330
7DB2
330
7D6D
330
7DEF
330
7DE2
330
7EEA
330
7DC8
330
7DD5
330
7D5F
330
809C
102
}
330
A
100
AcDbSymbolTableRecord
100
AcDbDimStyleTableRecord
  2
STANDARD
 70
     0
 41
3.0
 42
1.5
 43
9.0
 44
1.5
 73
     0
 74
     0
 77
     3
140
3.0
141
0.0
147
1.5
176
   256
177
   256
178
   256
271
     0
272
     0
340
10
341
B2
342
B2
371
    -1
372
    -1
  0
ENDTAB
  0
TABLE
  2
BLOCK_RECORD
  5
1
330
0
100
AcDbSymbolTable
 70
    12
  0
BLOCK_RECORD
  5
1A
102
{ACAD_XDICTIONARY
360
64B
102
}
330
1
100
AcDbSymbolTableRecord
100
AcDbBlockTableRecord
  2
*MODEL_SPACE
340
354
  0
BLOCK_RECORD
  5
17
102
{ACAD_XDICTIONARY
360
649
102
}
330
1
100
AcDbSymbolTableRecord
100
AcDbBlockTableRecord
  2
*PAPER_SPACE
340
355
  0
BLOCK_RECORD
  5
B2
330
1
100
AcDbSymbolTableRecord
100
AcDbBlockTableRecord
  2
_OPEN
340
0
102
{BLKREFS
331
8037
331
8038
331
8002
331
8003
331
7FF0
331
7FF1
331
7FF9
331
7FFA
331
8026
331
8027
331
802F
331
8030
331
8014
331
8015
331
800B
331
800C
331
801D
331
801E
331
80B5
331
80B6
102
}
  0
BLOCK_RECORD
  5
EC5
330
1
100
AcDbSymbolTableRecord
100
AcDbBlockTableRecord
  2
*X1
340
0
102
{BLKREFS
331
D9A
102
}
  0
BLOCK_RECORD
  5
7D60
330
1
100
AcDbSymbolTableRecord
100
AcDbBlockTableRecord
  2
*D2
340
0
  0
BLOCK_RECORD
  5
7D6E
330
1
100
AcDbSymbolTableRecord
100
AcDbBlockTableRecord
  2
*D3
340
0
  0
BLOCK_RECORD
  5
7D7B
330
1
100
AcDbSymbolTableRecord
100
AcDbBlockTableRecord
  2
*D4
340
0
  0
BLOCK_RECORD
  5
7DB3
330
1
100
AcDbSymbolTableRecord
100
AcDbBlockTableRecord
  2
*D5
340
0
  0
BLOCK_RECORD
  5
7DC9
330
1
100
AcDbSymbolTableRecord
100
AcDbBlockTableRecord
  2
*D6
340
0
  0
BLOCK_RECORD
  5
7DD6
330
1
100
AcDbSymbolTableRecord
100
AcDbBlockTableRecord
  2
*D7
340
0
  0
BLOCK_RECORD
  5
7DE3
330
1
100
AcDbSymbolTableRecord
100
AcDbBlockTableRecord
  2
*D8
340
0
  0
BLOCK_RECORD
  5
7DF0
330
1
100
AcDbSymbolTableRecord
100
AcDbBlockTableRecord
  2
*D9
340
0
  0
BLOCK_RECORD
  5
7EEB
330
1
100
AcDbSymbolTableRecord
100
AcDbBlockTableRecord
  2
*D10
340
0
  0
BLOCK_RECORD
  5
809D
330
1
100
AcDbSymbolTableRecord
100
AcDbBlockTableRecord
  2
*D11
340
0
  0
ENDTAB
  0
ENDSEC
  0
SECTION
  2
BLOCKS
  0
BLOCK
  5
1B
330
1A
100
AcDbEntity
  8
0
100
AcDbBlockBegin
  2
*MODEL_SPACE
 70
     0
 10
0.0
 20
0.0
 30
0.0
  3
*MODEL_SPACE
  1

  0
ENDBLK
  5
1C
330
1A
100
AcDbEntity
  8
0
100
AcDbBlockEnd
  0
BLOCK
  5
18
330
17
100
AcDbEntity
 67
     1
  8
0
100
AcDbBlockBegin
  2
*PAPER_SPACE
 70
     0
 10
0.0
 20
0.0
 30
0.0
  3
*PAPER_SPACE
  1

  0
ENDBLK
  5
19
330
17
100
AcDbEntity
 67
     1
  8
0
100
AcDbBlockEnd
  0
BLOCK
  5
B3
330
B2
100
AcDbEntity
  8
0
100
AcDbBlockBegin
  2
_OPEN
 70
     0
 10
0.0
 20
0.0
 30
0.0
  3
_OPEN
  1

  0
LINE
  5
B4
330
B2
100
AcDbEntity
  8
0
  6
ByBlock
 62
     0
100
AcDbLine
 10
-1.0
 20
0.1666666666666666
 30
0.0
 11
0.0
 21
0.0
 31
0.0
  0
LINE
  5
B5
330
B2
100
AcDbEntity
  8
0
  6
ByBlock
 62
     0
100
AcDbLine
 10
0.0
 20
0.0
 30
0.0
 11
-1.0
 21
-0.1666666666666666
 31
0.0
  0
LINE
  5
B6
330
B2
100
AcDbEntity
  8
0
  6
ByBlock
 62
     0
100
AcDbLine
 10
0.0
 20
0.0
 30
0.0
 11
-1.0
 21
0.0
 31
0.0
  0
ENDBLK
  5
B7
330
B2
100
AcDbEntity
  8
0
100
AcDbBlockEnd
  0
BLOCK
  5
1059
330
EC5
100
AcDbEntity
  8
0
100
AcDbBlockBegin
  2
*X1
 70
     1
 10
0.0
 20
0.0
 30
0.0
  3
*X1
  1

  0
LINE
  5
EC6
330
EC5
100
AcDbEntity
  8
0
 62
     0
100
AcDbLine
 10
34.52110650907929
 20
11.30208461043085
 30
0.0
 11
34.19819104422183
 21
11.62500007528834
 31
0.0
  0
LINE
  5
EC7
330
EC5
100
AcDbEntity
  8
0
 62
     0
100
AcDbLine
 10
34.52110650907929
 20
10.8530718043774
 30
0.0
 11
33.74917823816835
 21
11.62500007528834
 31
0.0
  0
LINE
  5
EC8
330
EC5
100
AcDbEntity
  8
0
 62
     0
100
AcDbLine
 10
34.52110650907926
 20
10.40405899832393
 30
0.0
 11
33.31053953607178
 21
11.6146259713314
 31
0.0
  0
LINE
  5
EC9
330
EC5
100
AcDbEntity
  8
0
 62
     0
100
AcDbLine
 10
34.52110650907929
 20
9.955046192270515
 30
0.0
 11
33.12110650907925
 21
11.35504619227052
 31
0.0
  0
LINE
  5
ECA
330
EC5
100
AcDbEntity
  8
0
 62
     0
100
AcDbLine
 10
34.52110650907929
 20
9.50603338621704
 30
0.0
 11
33.12110650907925
 21
10.90603338621707
 31
0.0
  0
LINE
  5
ECB
330
EC5
100
AcDbEntity
  8
0
 62
     0
100
AcDbLine
 10
34.52110650907926
 20
9.057020580163566
 30
0.0
 11
33.12110650907922
 21
10.4570205801636
 31
0.0
  0
LINE
  5
ECC
330
EC5
100
AcDbEntity
  8
0
 62
     0
100
AcDbLine
 10
32.07110650907924
 20
11.05800777411016
 30
0.0
 11
31.50411420790112
 21
11.62500007528828
 31
0.0
  0
LINE
  5
ECD
330
EC5
100
AcDbEntity
  8
0
 62
     0
100
AcDbLine
 10
34.52110650907929
 20
8.608007774110149
 30
0.0
 11
33.12110650907925
 21
10.00800777411018
 31
0.0
  0
LINE
  5
ECE
330
EC5
100
AcDbEntity
  8
0
 62
     0
100
AcDbLine
 10
32.07110650907924
 20
10.60899496805671
 30
0.0
 11
31.05510140184768
 21
11.62500007528828
 31
0.0
  0
LINE
  5
ECF
330
EC5
100
AcDbEntity
  8
0
 62
     0
100
AcDbLine
 10
34.52110650907926
 20
8.158994968056674
 30
0.0
 11
33.12110650907925
 21
9.558994968056708
 31
0.0
  0
LINE
  5
ED0
330
EC5
100
AcDbEntity
  8
0
 62
     0
100
AcDbLine
 10
32.07110650907924
 20
10.15998216200324
 30
0.0
 11
30.7183510265107
 21
11.51273764457178
 31
0.0
  0
LINE
  5
ED1
330
EC5
100
AcDbEntity
  8
0
 62
     0
100
AcDbLine
 10
34.52110650907926
 20
7.709982162003228
 30
0.0
 11
33.12110650907922
 21
9.109982162003234
 31
0.0
  0
LINE
  5
ED2
330
EC5
100
AcDbEntity
  8
0
 62
     0
100
AcDbLine
 10
32.0711065090793
 20
9.710969355949742
 30
0.0
 11
30.6711065090792
 21
11.1109693559498
 31
0.0
  0
LINE
  5
ED3
330
EC5
100
AcDbEntity
  8
0
 62
     0
100
AcDbLine
 10
34.52110650907929
 20
7.260969355949754
 30
0.0
 11
33.12110650907925
 21
8.660969355949788
 31
0.0
  0
LINE
  5
ED4
330
EC5
100
AcDbEntity
  8
0
 62
     0
100
AcDbLine
 10
32.07110650907927
 20
9.261956549896297
 30
0.0
 11
30.6711065090792
 21
10.66195654989638
 31
0.0
  0
LINE
  5
ED5
330
EC5
100
AcDbEntity
  8
0
 62
     0
100
AcDbLine
 10
34.52110650907926
 20
6.811956549896308
 30
0.0
 11
33.12110650907922
 21
8.211956549896342
 31
0.0
  0
LINE
  5
ED6
330
EC5
100
AcDbEntity
  8
0
 62
     0
100
AcDbLine
 10
32.07110650907927
 20
8.812943743842851
 30
0.0
 11
30.6711065090792
 21
10.21294374384291
 31
0.0
  0
LINE
  5
ED7
330
EC5
100
AcDbEntity
  8
0
 62
     0
100
AcDbLine
 10
34.52110650907926
 20
6.362943743842862
 30
0.0
 11
33.12110650907922
 21
7.762943743842896
 31
0.0
  0
LINE
  5
ED8
330
EC5
100
AcDbEntity
  8
0
 62
     0
100
AcDbLine
 10
32.07110650907924
 20
8.363930937789376
 30
0.0
 11
30.67110650907918
 21
9.763930937789439
 31
0.0
  0
LINE
  5
ED9
330
EC5
100
AcDbEntity
  8
0
 62
     0
100
AcDbLine
 10
34.52110650907923
 20
5.913930937789388
 30
0.0
 11
33.12110650907922
 21
7.313930937789422
 31
0.0
  0
LINE
  5
EDA
330
EC5
100
AcDbEntity
  8
0
 62
     0
100
AcDbLine
 10
32.07110650907927
 20
7.914918131735959
 30
0.0
 11
30.6711065090792
 21
9.314918131736021
 31
0.0
  0
LINE
  5
EDB
330
EC5
100
AcDbEntity
  8
0
 62
     0
100
AcDbLine
 10
28.92110650907923
 20
11.06491813173599
 30
0.0
 11
28.36102456552691
 21
11.62500007528831
 31
0.0
  0
LINE
  5
EDC
330
EC5
100
AcDbEntity
  8
0
 62
     0
100
AcDbLine
 10
34.52110650907926
 20
5.46491813173597
 30
0.0
 11
33.12110650907922
 21
6.864918131735976
 31
0.0
  0
LINE
  5
EDD
330
EC5
100
AcDbEntity
  8
0
 62
     0
100
AcDbLine
 10
32.07110650907927
 20
7.465905325682484
 30
0.0
 11
30.67110650907918
 21
8.865905325682547
 31
0.0
  0
LINE
  5
EDE
330
EC5
100
AcDbEntity
  8
0
 62
     0
100
AcDbLine
 10
28.92110650907921
 20
10.61590532568251
 30
0.0
 11
27.91201175947344
 21
11.62500007528831
 31
0.0
  0
LINE
  5
EDF
330
EC5
100
AcDbEntity
  8
0
 62
     0
100
AcDbLine
 10
34.52110650907926
 20
5.015905325682496
 30
0.0
 11
33.12110650907922
 21
6.41590532568253
 31
0.0
  0
LINE
  5
EE0
330
EC5
100
AcDbEntity
  8
0
 62
     0
100
AcDbLine
 10
32.07110650907924
 20
7.016892519629038
 30
0.0
 11
30.6711065090792
 21
8.416892519629044
 31
0.0
  0
LINE
  5
EE1
330
EC5
100
AcDbEntity
  8
0
 62
     0
100
AcDbLine
 10
28.92110650907921
 20
10.16689251962907
 30
0.0
 11
27.57122514741721
 21
11.51677388129107
 31
0.0
  0
LINE
  5
EE2
330
EC5
100
AcDbEntity
  8
0
 62
     0
100
AcDbLine
 10
34.52110650907923
 20
4.56689251962905
 30
0.0
 11
33.1211065090792
 21
5.966892519629055
 31
0.0
  0
LINE
  5
EE3
330
EC5
100
AcDbEntity
  8
0
 62
     0
100
AcDbLine
 10
32.07110650907927
 20
6.567879713575564
 30
0.0
 11
30.67110650907924
 21
7.967879713575598
 31
0.0
  0
LINE
  5
EE4
330
EC5
100
AcDbEntity
  8
0
 62
     0
100
AcDbLine
 10
28.92110650907923
 20
9.717879713575598
 30
0.0
 11
27.52110650907923
 21
11.1178797135756
 31
0.0
  0
LINE
  5
EE5
330
EC5
100
AcDbEntity
  8
0
 62
     0
100
AcDbLine
 10
34.52110650907926
 20
4.117879713575575
 30
0.0
 11
33.12110650907922
 21
5.517879713575609
 31
0.0
  0
LINE
  5
EE6
330
EC5
100
AcDbEntity
  8
0
 62
     0
100
AcDbLine
 10
32.07110650907924
 20
6.118866907522118
 30
0.0
 11
30.67110650907924
 21
7.518866907522152
 31
0.0
  0
LINE
  5
EE7
330
EC5
100
AcDbEntity
  8
0
 62
     0
100
AcDbLine
 10
28.92110650907926
 20
9.268866907522124
 30
0.0
 11
27.52110650907923
 21
10.66886690752215
 31
0.0
  0
LINE
  5
EE8
330
EC5
100
AcDbEntity
  8
0
 62
     0
100
AcDbLine
 10
34.48512383163435
 20
3.704849584967035
 30
0.0
 11
33.12110650907922
 21
5.068866907522163
 31
0.0
  0
LINE
  5
EE9
330
EC5
100
AcDbEntity
  8
0
 62
     0
100
AcDbLine
 10
32.07110650907927
 20
5.669854101468615
 30
0.0
 11
30.6711065090792
 21
7.069854101468678
 31
0.0
  0
LINE
  5
EEA
330
EC5
100
AcDbEntity
  8
0
 62
     0
100
AcDbLine
 10
28.92110650907923
 20
8.819854101468678
 30
0.0
 11
27.5211065090792
 21
10.21985410146868
 31
0.0
  0
LINE
  5
EEB
330
EC5
100
AcDbEntity
  8
0
 62
     0
100
AcDbLine
 10
34.16596053525961
 20
3.575000075288301
 30
0.0
 11
33.1211065090792
 21
4.619854101468717
 31
0.0
  0
LINE
  5
EEC
330
EC5
100
AcDbEntity
  8
0
 62
     0
100
AcDbLine
 10
28.92110650907923
 20
8.370841295415203
 30
0.0
 11
27.5211065090792
 21
9.770841295415237
 31
0.0
  0
LINE
  5
EED
330
EC5
100
AcDbEntity
  8
0
 62
     0
100
AcDbLine
 10
32.07110650907927
 20
5.220841295415169
 30
0.0
 11
30.6711065090792
 21
6.620841295415232
 31
0.0
  0
LINE
  5
EEE
330
EC5
100
AcDbEntity
  8
0
 62
     0
100
AcDbLine
 10
26.20860650907923
 20
11.0833412954152
 30
0.0
 11
25.66694772920615
 21
11.62500007528825
 31
0.0
  0
LINE
  5
EEF
330
EC5
100
AcDbEntity
  8
0
 62
     0
100
AcDbLine
 10
33.71694772920617
 20
3.575000075288244
 30
0.0
 11
33.1211065090792
 21
4.170841295415243
 31
0.0
  0
LINE
  5
EF0
330
EC5
100
AcDbEntity
  8
0
 62
     0
100
AcDbLine
 10
28.92110650907923
 20
7.921828489361757
 30
0.0
 11
27.52110650907926
 21
9.321828489361763
 31
0.0
  0
LINE
  5
EF1
330
EC5
100
AcDbEntity
  8
0
 62
     0
100
AcDbLine
 10
26.20860650907923
 20
10.63432848936176
 30
0.0
 11
25.21793492315274
 21
11.62500007528828
 31
0.0
  0
LINE
  5
EF2
330
EC5
100
AcDbEntity
  8
0
 62
     0
100
AcDbLine
 10
32.05812735875648
 20
4.784807639684544
 30
0.0
 11
30.6711065090792
 21
6.171828489361786
 31
0.0
  0
LINE
  5
EF3
330
EC5
100
AcDbEntity
  8
0
 62
     0
100
AcDbLine
 10
28.92110650907923
 20
7.472815683308311
 30
0.0
 11
27.52110650907926
 21
8.872815683308289
 31
0.0
  0
LINE
  5
EF4
330
EC5
100
AcDbEntity
  8
0
 62
     0
100
AcDbLine
 10
26.11081623602231
 20
10.28310595636523
 30
0.0
 11
24.76892211709923
 21
11.62500007528831
 31
0.0
  0
LINE
  5
EF5
330
EC5
100
AcDbEntity
  8
0
 62
     0
100
AcDbLine
 10
31.96163471112785
 20
4.432287481259663
 30
0.0
 11
30.6711065090792
 21
5.72281568330834
 31
0.0
  0
LINE
  5
EF6
330
EC5
100
AcDbEntity
  8
0
 62
     0
100
AcDbLine
 10
28.92110650907923
 20
7.023802877254837
 30
0.0
 11
27.52110650907923
 21
8.423802877254843
 31
0.0
  0
LINE
  5
EF7
330
EC5
100
AcDbEntity
  8
0
 62
     0
100
AcDbLine
 10
25.71990931104574
 20
10.2250000752883
 30
0.0
 11
24.31990931104579
 21
11.62500007528825
 31
0.0
  0
LINE
  5
EF8
330
EC5
100
AcDbEntity
  8
0
 62
     0
100
AcDbLine
 10
31.79911877316607
 20
4.145790613167974
 30
0.0
 11
30.63534863949945
 21
5.30956074683462
 31
0.0
  0
LINE
  5
EF9
330
EC5
100
AcDbEntity
  8
0
 62
     0
100
AcDbLine
 10
28.92110650907923
 20
6.57479007120142
 30
0.0
 11
27.52110650907926
 21
7.974790071201397
 31
0.0
  0
LINE
  5
EFA
330
EC5
100
AcDbEntity
  8
0
 62
     0
100
AcDbLine
 10
25.27089650499235
 20
10.22500007528827
 30
0.0
 11
23.90211314040362
 21
11.59378343987703
 31
0.0
  0
LINE
  5
EFB
330
EC5
100
AcDbEntity
  8
0
 62
     0
100
AcDbLine
 10
31.58309787450355
 20
3.912798705777078
 30
0.0
 11
30.4345558202657
 21
5.061340760014928
 31
0.0
  0
LINE
  5
EFC
330
EC5
100
AcDbEntity
  8
0
 62
     0
100
AcDbLine
 10
28.92110650907923
 20
6.125777265147945
 30
0.0
 11
27.52110650907923
 21
7.525777265147922
 31
0.0
  0
LINE
  5
EFD
330
EC5
100
AcDbEntity
  8
0
 62
     0
100
AcDbLine
 10
24.8218836989389
 20
10.22500007528827
 30
0.0
 11
23.56979292813693
 21
11.47709084609022
 31
0.0
  0
LINE
  5
EFE
330
EC5
100
AcDbEntity
  8
0
 62
     0
100
AcDbLine
 10
31.31501670204054
 20
3.731867072186645
 30
0.0
 11
30.0718836989389
 21
4.975000075288278
 31
0.0
  0
LINE
  5
EFF
330
EC5
100
AcDbEntity
  8
0
 62
     0
100
AcDbLine
 10
28.92110650907921
 20
5.676764459094471
 30
0.0
 11
27.52110650907923
 21
7.076764459094476
 31
0.0
  0
LINE
  5
F00
330
EC5
100
AcDbEntity
  8
0
 62
     0
100
AcDbLine
 10
24.38376580689444
 20
10.21410516127923
 30
0.0
 11
23.29849245953184
 21
11.29937850864183
 31
0.0
  0
LINE
  5
F01
330
EC5
100
AcDbEntity
  8
0
 62
     0
100
AcDbLine
 10
30.98681042208488
 20
3.611060546088822
 30
0.0
 11
29.6228708928854
 21
4.975000075288306
 31
0.0
  0
LINE
  5
F02
330
EC5
100
AcDbEntity
  8
0
 62
     0
100
AcDbLine
 10
24.19610650907924
 20
9.952751653040991
 30
0.0
 11
23.07943643000956
 21
11.06942173211064
 31
0.0
  0
LINE
  5
F03
330
EC5
100
AcDbEntity
  8
0
 62
     0
100
AcDbLine
 10
30.57385808683196
 20
3.575000075288272
 30
0.0
 11
27.52110650907923
 21
6.627751653041002
 31
0.0
  0
LINE
  5
F04
330
EC5
100
AcDbEntity
  8
0
 62
     0
100
AcDbLine
 10
24.19610650907927
 20
9.503738846987545
 30
0.0
 11
22.91355097383305
 21
10.78629438223376
 31
0.0
  0
LINE
  5
F05
330
EC5
100
AcDbEntity
  8
0
 62
     0
100
AcDbLine
 10
30.12484528077851
 20
3.575000075288272
 30
0.0
 11
27.52110650907923
 21
6.178738846987585
 31
0.0
  0
LINE
  5
F06
330
EC5
100
AcDbEntity
  8
0
 62
     0
100
AcDbLine
 10
24.29937864963116
 20
8.951453900382176
 30
0.0
 11
22.81246171415099
 21
10.43837083586231
 31
0.0
  0
LINE
  5
F07
330
EC5
100
AcDbEntity
  8
0
 62
     0
100
AcDbLine
 10
29.67583247472507
 20
3.575000075288272
 30
0.0
 11
27.52110650907923
 21
5.72972604093411
 31
0.0
  0
LINE
  5
F08
330
EC5
100
AcDbEntity
  8
0
 62
     0
100
AcDbLine
 10
26.40790836042492
 20
6.393911383534941
 30
0.0
 11
22.7961065090792
 21
10.00571323488065
 31
0.0
  0
LINE
  5
F09
330
EC5
100
AcDbEntity
  8
0
 62
     0
100
AcDbLine
 10
21.74610650907919
 20
11.05571323488064
 30
0.0
 11
21.17681966867158
 21
11.62500007528828
 31
0.0
  0
LINE
  5
F0A
330
EC5
100
AcDbEntity
  8
0
 62
     0
100
AcDbLine
 10
29.22681966867159
 20
3.575000075288272
 30
0.0
 11
27.5211065090792
 21
5.280713234880636
 31
0.0
  0
LINE
  5
F0B
330
EC5
100
AcDbEntity
  8
0
 62
     0
100
AcDbLine
 10
26.47110650907919
 20
5.881700428827258
 30
0.0
 11
22.79610650907923
 21
9.556700428827213
 31
0.0
  0
LINE
  5
F0C
330
EC5
100
AcDbEntity
  8
0
 62
     0
100
AcDbLine
 10
21.74610650907925
 20
10.60670042882716
 30
0.0
 11
20.72780686261813
 21
11.62500007528828
 31
0.0
  0
LINE
  5
F0D
330
EC5
100
AcDbEntity
  8
0
 62
     0
100
AcDbLine
 10
28.7695829232457
 20
3.583224014660743
 30
0.0
 11
27.5293304484517
 21
4.823476489454748
 31
0.0
  0
LINE
  5
F0E
330
EC5
100
AcDbEntity
  8
0
 62
     0
100
AcDbLine
 10
21.74610650907925
 20
10.15768762277372
 30
0.0
 11
20.39241156519159
 21
11.51138256666135
 31
0.0
  0
LINE
  5
F0F
330
EC5
100
AcDbEntity
  8
0
 62
     0
100
AcDbLine
 10
26.47110650907922
 20
5.432687622773755
 30
0.0
 11
22.80781184302043
 21
9.095982288832544
 31
0.0
  0
LINE
  5
F10
330
EC5
100
AcDbEntity
  8
0
 62
     0
100
AcDbLine
 10
21.74610650907925
 20
9.708674816720247
 30
0.0
 11
20.34610650907922
 21
11.10867481672028
 31
0.0
  0
LINE
  5
F11
330
EC5
100
AcDbEntity
  8
0
 62
     0
100
AcDbLine
 10
26.47110650907919
 20
4.983674816720281
 30
0.0
 11
22.96687155194044
 21
8.487909773859058
 31
0.0
  0
LINE
  5
F12
330
EC5
100
AcDbEntity
  8
0
 62
     0
100
AcDbLine
 10
21.74610650907925
 20
9.259662010666801
 30
0.0
 11
20.34610650907922
 21
10.6596620106668
 31
0.0
  0
LINE
  5
F13
330
EC5
100
AcDbEntity
  8
0
 62
     0
100
AcDbLine
 10
26.41682560028471
 20
4.588942919461345
 30
0.0
 11
25.06900820576555
 21
5.936760313980499
 31
0.0
  0
LINE
  5
F14
330
EC5
100
AcDbEntity
  8
0
 62
     0
100
AcDbLine
 10
21.74610650907925
 20
8.810649204613355
 30
0.0
 11
20.34610650907922
 21
10.21064920461338
 31
0.0
  0
LINE
  5
F15
330
EC5
100
AcDbEntity
  8
0
 62
     0
100
AcDbLine
 10
19.20036305879074
 20
11.35639265490183
 30
0.0
 11
18.93175563840429
 21
11.62500007528831
 31
0.0
  0
LINE
  5
F16
330
EC5
100
AcDbEntity
  8
0
 62
     0
100
AcDbLine
 10
26.28288774640393
 20
4.27386796728868
 30
0.0
 11
25.07110650907927
 21
5.485649204613338
 31
0.0
  0
LINE
  5
F17
330
EC5
100
AcDbEntity
  8
0
 62
     0
100
AcDbLine
 10
21.74610650907922
 20
8.36163639855988
 30
0.0
 11
20.34610650907922
 21
9.761636398559915
 31
0.0
  0
LINE
  5
F18
330
EC5
100
AcDbEntity
  8
0
 62
     0
100
AcDbLine
 10
19.10089922666443
 20
11.00684368097466
 30
0.0
 11
18.48274283235082
 21
11.62500007528831
 31
0.0
  0
LINE
  5
F19
330
EC5
100
AcDbEntity
  8
0
 62
     0
100
AcDbLine
 10
26.09139434731628
 20
4.016348560322853
 30
0.0
 11
25.02246391763603
 21
5.085278990003104
 31
0.0
  0
LINE
  5
F1A
330
EC5
100
AcDbEntity
  8
0
 62
     0
100
AcDbLine
 10
21.74610650907922
 20
7.912623592506434
 30
0.0
 11
20.34610650907919
 21
9.31262359250644
 31
0.0
  0
LINE
  5
F1B
330
EC5
100
AcDbEntity
  8
0
 62
     0
100
AcDbLine
 10
18.99313615321159
 20
10.66559394837403
 30
0.0
 11
18.0385283714763
 21
11.62020173010935
 31
0.0
  0
LINE
  5
F1C
330
EC5
100
AcDbEntity
  8
0
 62
     0
100
AcDbLine
 10
25.84823486475846
 20
3.810495236827165
 30
0.0
 11
24.68373002629744
 21
4.975000075288221
 31
0.0
  0
LINE
  5
F1D
330
EC5
100
AcDbEntity
  8
0
 62
     0
100
AcDbLine
 10
21.74610650907925
 20
7.463610786452989
 30
0.0
 11
20.34610650907922
 21
8.863610786453023
 31
0.0
  0
LINE
  5
F1E
330
EC5
100
AcDbEntity
  8
0
 62
     0
100
AcDbLine
 10
18.88537307975883
 20
10.3243442157734
 30
0.0
 11
17.82137307975881
 21
11.38834421577342
 31
0.0
  0
LINE
  5
F1F
330
EC5
100
AcDbEntity
  8
0
 62
     0
100
AcDbLine
 10
25.55019289052828
 20
3.659524405003935
 30
0.0
 11
24.23471722024396
 21
4.975000075288278
 31
0.0
  0
LINE
  5
F20
330
EC5
100
AcDbEntity
  8
0
 62
     0
100
AcDbLine
 10
21.74610650907922
 20
7.014597980399543
 30
0.0
 11
20.34610650907919
 21
8.414597980399548
 31
0.0
  0
LINE
  5
F21
330
EC5
100
AcDbEntity
  8
0
 62
     0
100
AcDbLine
 10
18.7776100063059
 20
9.983094483172862
 30
0.0
 11
17.71361000630591
 21
11.04709448317285
 31
0.0
  0
LINE
  5
F22
330
EC5
100
AcDbEntity
  8
0
 62
     0
100
AcDbLine
 10
25.18135656470454
 20
3.579347924774225
 30
0.0
 11
23.78570441419046
 21
4.975000075288306
 31
0.0
  0
LINE
  5
F23
330
EC5
100
AcDbEntity
  8
0
 62
     0
100
AcDbLine
 10
21.74610650907922
 20
6.565585174346068
 30
0.0
 11
20.34610650907922
 21
7.965585174346045
 31
0.0
  0
LINE
  5
F24
330
EC5
100
AcDbEntity
  8
0
 62
     0
100
AcDbLine
 10
18.66984693285312
 20
9.641844750572175
 30
0.0
 11
17.60584693285307
 21
10.70584475057219
 31
0.0
  0
LINE
  5
F25
330
EC5
100
AcDbEntity
  8
0
 62
     0
100
AcDbLine
 10
24.73669160813702
 20
3.575000075288272
 30
0.0
 11
23.33669160813698
 21
4.975000075288306
 31
0.0
  0
LINE
  5
F26
330
EC5
100
AcDbEntity
  8
0
 62
     0
100
AcDbLine
 10
21.74610650907922
 20
6.116572368292622
 30
0.0
 11
20.34610650907925
 21
7.516572368292628
 31
0.0
  0
LINE
  5
F27
330
EC5
100
AcDbEntity
  8
0
 62
     0
100
AcDbLine
 10
18.5620838594003
 20
9.300595017971573
 30
0.0
 11
17.49808385940025
 21
10.36459501797159
 31
0.0
  0
LINE
  5
F28
330
EC5
100
AcDbEntity
  8
0
 62
     0
100
AcDbLine
 10
24.28767880208357
 20
3.575000075288301
 30
0.0
 11
23.07087295343538
 21
4.791805923936493
 31
0.0
  0
LINE
  5
F29
330
EC5
100
AcDbEntity
  8
0
 62
     0
100
AcDbLine
 10
18.45432078594748
 20
8.959345285370886
 30
0.0
 11
17.39032078594743
 21
10.02334528537096
 31
0.0
  0
LINE
  5
F2A
330
EC5
100
AcDbEntity
  8
0
 62
     0
100
AcDbLine
 10
21.74610650907922
 20
5.667559562239176
 30
0.0
 11
20.34610650907925
 21
7.067559562239154
 31
0.0
  0
LINE
  5
F2B
330
EC5
100
AcDbEntity
  8
0
 62
     0
100
AcDbLine
 10
16.32110650907924
 20
11.09255956223915
 30
0.0
 11
15.78866599603009
 21
11.62500007528828
 31
0.0
  0
LINE
  5
F2C
330
EC5
100
AcDbEntity
  8
0
 62
     0
100
AcDbLine
 10
23.83866599603013
 20
3.575000075288272
 30
0.0
 11
23.05860650907925
 21
4.355059562239148
 31
0.0
  0
LINE
  5
F2D
330
EC5
100
AcDbEntity
  8
0
 62
     0
100
AcDbLine
 10
18.34655771249458
 20
8.618095552770341
 30
0.0
 11
17.28255771249462
 21
9.682095552770306
 31
0.0
  0
LINE
  5
F2E
330
EC5
100
AcDbEntity
  8
0
 62
     0
100
AcDbLine
 10
21.74610650907922
 20
5.218546756185702
 30
0.0
 11
20.34610650907922
 21
6.618546756185708
 31
0.0
  0
LINE
  5
F2F
330
EC5
100
AcDbEntity
  8
0
 62
     0
100
AcDbLine
 10
16.32110650907924
 20
10.64354675618568
 30
0.0
 11
15.33965318997664
 21
11.62500007528828
 31
0.0
  0
LINE
  5
F30
330
EC5
100
AcDbEntity
  8
0
 62
     0
100
AcDbLine
 10
23.38965318997662
 20
3.575000075288301
 30
0.0
 11
23.05860650907922
 21
3.906046756185673
 31
0.0
  0
LINE
  5
F31
330
EC5
100
AcDbEntity
  8
0
 62
     0
100
AcDbLine
 10
18.23879463904177
 20
8.276845820169683
 30
0.0
 11
17.17479463904175
 21
9.340845820169704
 31
0.0
  0
LINE
  5
F32
330
EC5
100
AcDbEntity
  8
0
 62
     0
100
AcDbLine
 10
16.32110650907921
 20
10.19453395013221
 30
0.0
 11
14.98338404463041
 21
11.53225641458104
 31
0.0
  0
LINE
  5
F33
330
EC5
100
AcDbEntity
  8
0
 62
     0
100
AcDbLine
 10
21.74610650907919
 20
4.769533950132256
 30
0.0
 11
20.34610650907922
 21
6.169533950132233
 31
0.0
  0
LINE
  5
F34
330
EC5
100
AcDbEntity
  8
0
 62
     0
100
AcDbLine
 10
18.13103156558895
 20
7.935596087569081
 30
0.0
 11
17.06703156558896
 21
8.999596087569074
 31
0.0
  0
LINE
  5
F35
330
EC5
100
AcDbEntity
  8
0
 62
     0
100
AcDbLine
 10
16.32110650907924
 20
9.745521144078793
 30
0.0
 11
14.9211065090792
 21
11.1455211440788
 31
0.0
  0
LINE
  5
F36
330
EC5
100
AcDbEntity
  8
0
 62
     0
100
AcDbLine
 10
21.74610650907922
 20
4.32052114407881
 30
0.0
 11
20.34610650907922
 21
5.720521144078787
 31
0.0
  0
LINE
  5
F37
330
EC5
100
AcDbEntity
  8
0
 62
     0
100
AcDbLine
 10
18.02848731089292
 20
7.589127536211634
 30
0.0
 11
16.95926849213608
 21
8.658346354968472
 31
0.0
  0
LINE
  5
F38
330
EC5
100
AcDbEntity
  8
0
 62
     0
100
AcDbLine
 10
16.32110650907924
 20
9.296508338025319
 30
0.0
 11
14.9211065090792
 21
10.69650833802535
 31
0.0
  0
LINE
  5
F39
330
EC5
100
AcDbEntity
  8
0
 62
     0
100
AcDbLine
 10
21.74610650907919
 20
3.871508338025336
 30
0.0
 11
20.34610650907922
 21
5.271508338025341
 31
0.0
  0
LINE
  5
F3A
330
EC5
100
AcDbEntity
  8
0
 62
     0
100
AcDbLine
 10
18.23572399060992
 20
6.932878050441161
 30
0.0
 11
16.81399474429378
 21
8.354607296757308
 31
0.0
  0
LINE
  5
F3B
330
EC5
100
AcDbEntity
  8
0
 62
     0
100
AcDbLine
 10
16.32110650907927
 20
8.847495531971816
 30
0.0
 11
14.92110650907918
 21
10.24749553197187
 31
0.0
  0
LINE
  5
F3C
330
EC5
100
AcDbEntity
  8
0
 62
     0
100
AcDbLine
 10
21.57658401041302
 20
3.59201803063803
 30
0.0
 11
20.34610650907922
 21
4.822495531971867
 31
0.0
  0
LINE
  5
F3D
330
EC5
100
AcDbEntity
  8
0
 62
     0
100
AcDbLine
 10
18.44296067032692
 20
6.276628564670744
 30
0.0
 11
14.9211065090792
 21
9.798482725918461
 31
0.0
  0
LINE
  5
F3E
330
EC5
100
AcDbEntity
  8
0
 62
     0
100
AcDbLine
 10
13.69610650907927
 20
11.02348272591839
 30
0.0
 11
13.09458915970938
 21
11.62500007528828
 31
0.0
  0
LINE
  5
F3F
330
EC5
100
AcDbEntity
  8
0
 62
     0
100
AcDbLine
 10
21.14458915970939
 20
3.575000075288272
 30
0.0
 11
20.34610650907927
 21
4.373482725918393
 31
0.0
  0
LINE
  5
F40
330
EC5
100
AcDbEntity
  8
0
 62
     0
100
AcDbLine
 10
18.65019735004395
 20
5.620379078900242
 30
0.0
 11
14.9211065090792
 21
9.349469919864986
 31
0.0
  0
LINE
  5
F41
330
EC5
100
AcDbEntity
  8
0
 62
     0
100
AcDbLine
 10
13.69610650907927
 20
10.57446991986492
 30
0.0
 11
12.64557635365588
 21
11.62500007528831
 31
0.0
  0
LINE
  5
F42
330
EC5
100
AcDbEntity
  8
0
 62
     0
100
AcDbLine
 10
20.69557635365592
 20
3.575000075288244
 30
0.0
 11
20.34610650907925
 21
3.924469919864947
 31
0.0
  0
LINE
  5
F43
330
EC5
100
AcDbEntity
  8
0
 62
     0
100
AcDbLine
 10
13.56265316138421
 20
10.2589104615065
 30
0.0
 11
12.2125423022785
 21
11.60902132061218
 31
0.0
  0
LINE
  5
F44
330
EC5
100
AcDbEntity
  8
0
 62
     0
100
AcDbLine
 10
18.85743402976092
 20
4.964129593129797
 30
0.0
 11
14.92110650907923
 21
8.900457113811484
 31
0.0
  0
LINE
  5
F45
330
EC5
100
AcDbEntity
  8
0
 62
     0
100
AcDbLine
 10
16.48986097025004
 20
6.882689846587226
 30
0.0
 11
14.92110650907923
 21
8.451444307758038
 31
0.0
  0
LINE
  5
F46
330
EC5
100
AcDbEntity
  8
0
 62
     0
100
AcDbLine
 10
13.14755074154899
 20
10.22500007528825
 30
0.0
 11
11.84352076748487
 21
11.5290300493524
 31
0.0
  0
LINE
  5
F47
330
EC5
100
AcDbEntity
  8
0
 62
     0
100
AcDbLine
 10
19.06467070947795
 20
4.307880107359324
 30
0.0
 11
17.01851686332389
 21
6.354033953513379
 31
0.0
  0
LINE
  5
F48
330
EC5
100
AcDbEntity
  8
0
 62
     0
100
AcDbLine
 10
16.32110650907927
 20
6.602431501704558
 30
0.0
 11
14.92110650907923
 21
8.002431501704592
 31
0.0
  0
LINE
  5
F49
330
EC5
100
AcDbEntity
  8
0
 62
     0
100
AcDbLine
 10
12.69853793549549
 20
10.2250000752883
 30
0.0
 11
11.52416005956951
 21
11.39937795121429
 31
0.0
  0
LINE
  5
F4A
330
EC5
100
AcDbEntity
  8
0
 62
     0
100
AcDbLine
 10
19.18219013833325
 20
3.741347872450546
 30
0.0
 11
17.22575354304086
 21
5.697784467742962
 31
0.0
  0
LINE
  5
F4B
330
EC5
100
AcDbEntity
  8
0
 62
     0
100
AcDbLine
 10
16.32110650907924
 20
6.153418695651112
 30
0.0
 11
14.9211065090792
 21
7.553418695651117
 31
0.0
  0
LINE
  5
F4C
330
EC5
100
AcDbEntity
  8
0
 62
     0
100
AcDbLine
 10
12.27698118422372
 20
10.19754402050662
 30
0.0
 11
11.24478557190224
 21
11.22973963282811
 31
0.0
  0
LINE
  5
F4D
330
EC5
100
AcDbEntity
  8
0
 62
     0
100
AcDbLine
 10
18.89952512944208
 20
3.575000075288272
 30
0.0
 11
17.43299022275789
 21
5.041534981972432
 31
0.0
  0
LINE
  5
F4E
330
EC5
100
AcDbEntity
  8
0
 62
     0
100
AcDbLine
 10
16.32110650907924
 20
5.704405889597637
 30
0.0
 11
14.9211065090792
 21
7.104405889597671
 31
0.0
  0
LINE
  5
F4F
330
EC5
100
AcDbEntity
  8
0
 62
     0
100
AcDbLine
 10
11.99105308780423
 20
10.03445931087264
 30
0.0
 11
11.00095796759634
 21
11.02455443108053
 31
0.0
  0
LINE
  5
F50
330
EC5
100
AcDbEntity
  8
0
 62
     0
100
AcDbLine
 10
18.4505123233886
 20
3.575000075288272
 30
0.0
 11
17.64022690247486
 21
4.385285496202016
 31
0.0
  0
LINE
  5
F51
330
EC5
100
AcDbEntity
  8
0
 62
     0
100
AcDbLine
 10
13.86382107547811
 20
7.712678517145349
 30
0.0
 11
13.10878495093624
 21
8.467714641687223
 31
0.0
  0
LINE
  5
F52
330
EC5
100
AcDbEntity
  8
0
 62
     0
100
AcDbLine
 10
16.32110650907924
 20
5.255393083544191
 30
0.0
 11
14.92110650907923
 21
6.655393083544225
 31
0.0
  0
LINE
  5
F53
330
EC5
100
AcDbEntity
  8
0
 62
     0
100
AcDbLine
 10
11.81299230273975
 20
9.763507289883705
 30
0.0
 11
10.79127495459073
 21
10.78522463803273
 31
0.0
  0
LINE
  5
F54
330
EC5
100
AcDbEntity
  8
0
 62
     0
100
AcDbLine
 10
17.97633301523285
 20
3.600166577390609
 30
0.0
 11
17.85115592943719
 21
3.725343663186265
 31
0.0
  0
LINE
  5
F55
330
EC5
100
AcDbEntity
  8
0
 62
     0
100
AcDbLine
 10
13.82056424540715
 20
7.306922541162833
 30
0.0
 11
12.70302897495372
 21
8.424457811616264
 31
0.0
  0
LINE
  5
F56
330
EC5
100
AcDbEntity
  8
0
 62
     0
100
AcDbLine
 10
11.77110650907928
 20
9.3563802774907
 30
0.0
 11
10.6168054441099
 21
10.51068134246008
 31
0.0
  0
LINE
  5
F57
330
EC5
100
AcDbEntity
  8
0
 62
     0
100
AcDbLine
 10
16.32110650907924
 20
4.806380277490745
 30
0.0
 11
14.9211065090792
 21
6.206380277490779
 31
0.0
  0
LINE
  5
F58
330
EC5
100
AcDbEntity
  8
0
 62
     0
100
AcDbLine
 10
13.65463646575813
 20
7.023837514758355
 30
0.0
 11
12.41994394854924
 21
8.258530031967239
 31
0.0
  0
LINE
  5
F59
330
EC5
100
AcDbEntity
  8
0
 62
     0
100
AcDbLine
 10
11.77110650907928
 20
8.907367471437225
 30
0.0
 11
10.48151559050481
 21
10.1969583900117
 31
0.0
  0
LINE
  5
F5A
330
EC5
100
AcDbEntity
  8
0
 62
     0
100
AcDbLine
 10
16.32110650907924
 20
4.357367471437271
 30
0.0
 11
14.92110650907923
 21
5.757367471437277
 31
0.0
  0
LINE
  5
F5B
330
EC5
100
AcDbEntity
  8
0
 62
     0
100
AcDbLine
 10
11.77110650907928
 20
8.45835466538378
 30
0.0
 11
10.39415865404188
 21
9.835302520421208
 31
0.0
  0
LINE
  5
F5C
330
EC5
100
AcDbEntity
  8
0
 62
     0
100
AcDbLine
 10
13.40371974468991
 20
6.825741429773188
 30
0.0
 11
12.22184786356407
 21
8.007613310899017
 31
0.0
  0
LINE
  5
F5D
330
EC5
100
AcDbEntity
  8
0
 62
     0
100
AcDbLine
 10
9.058606509079197
 20
11.17085466538387
 30
0.0
 11
8.604461099174756
 21
11.62500007528834
 31
0.0
  0
LINE
  5
F5E
330
EC5
100
AcDbEntity
  8
0
 62
     0
100
AcDbLine
 10
16.32110650907924
 20
3.908354665383853
 30
0.0
 11
14.92110650907926
 21
5.308354665383831
 31
0.0
  0
LINE
  5
F5F
330
EC5
100
AcDbEntity
  8
0
 62
     0
100
AcDbLine
 10
11.77110650907928
 20
8.009341859330334
 30
0.0
 11
10.37110650907922
 21
9.409341859330396
 31
0.0
  0
LINE
  5
F60
330
EC5
100
AcDbEntity
  8
0
 62
     0
100
AcDbLine
 10
13.05356002347619
 20
6.726888344933428
 30
0.0
 11
12.12299477872432
 21
7.657453589685303
 31
0.0
  0
LINE
  5
F61
330
EC5
100
AcDbEntity
  8
0
 62
     0
100
AcDbLine
 10
9.058606509079197
 20
10.72184185933042
 30
0.0
 11
8.155448293121281
 21
11.62500007528831
 31
0.0
  0
LINE
  5
F62
330
EC5
100
AcDbEntity
  8
0
 62
     0
100
AcDbLine
 10
16.17715460844394
 20
3.60329375996568
 30
0.0
 11
14.92110650907923
 21
4.859341859330356
 31
0.0
  0
LINE
  5
F63
330
EC5
100
AcDbEntity
  8
0
 62
     0
100
AcDbLine
 10
11.77110650907928
 20
7.560329053276859
 30
0.0
 11
10.37110650907919
 21
8.960329053276922
 31
0.0
  0
LINE
  5
F64
330
EC5
100
AcDbEntity
  8
0
 62
     0
100
AcDbLine
 10
9.00408952394406
 20
10.32734603841208
 30
0.0
 11
7.706435487067864
 21
11.62500007528825
 31
0.0
  0
LINE
  5
F65
330
EC5
100
AcDbEntity
  8
0
 62
     0
100
AcDbLine
 10
15.75643548706787
 20
3.575000075288244
 30
0.0
 11
14.92110650907923
 21
4.41032905327691
 31
0.0
  0
LINE
  5
F66
330
EC5
100
AcDbEntity
  8
0
 62
     0
100
AcDbLine
 10
11.77110650907926
 20
7.111316247223413
 30
0.0
 11
10.37110650907919
 21
8.511316247223476
 31
0.0
  0
LINE
  5
F67
330
EC5
100
AcDbEntity
  8
0
 62
     0
100
AcDbLine
 10
8.657422681014395
 20
10.22500007528827
 30
0.0
 11
7.257422681014418
 21
11.62500007528825
 31
0.0
  0
LINE
  5
F68
330
EC5
100
AcDbEntity
  8
0
 62
     0
100
AcDbLine
 10
15.30742268101443
 20
3.575000075288244
 30
0.0
 11
14.92110650907923
 21
3.961316247223436
 31
0.0
  0
LINE
  5
F69
330
EC5
100
AcDbEntity
  8
0
 62
     0
100
AcDbLine
 10
11.77110650907928
 20
6.662303441169967
 30
0.0
 11
10.37110650907922
 21
8.06230344117003
 31
0.0
  0
LINE
  5
F6A
330
EC5
100
AcDbEntity
  8
0
 62
     0
100
AcDbLine
 10
8.208409874960949
 20
10.22500007528827
 30
0.0
 11
6.825845238908499
 21
11.60756471134075
 31
0.0
  0
LINE
  5
F6B
330
EC5
100
AcDbEntity
  8
0
 62
     0
100
AcDbLine
 10
13.69480528466078
 20
4.738604665588439
 30
0.0
 11
13.45971109937943
 21
4.973698850869823
 31
0.0
  0
LINE
  5
F6C
330
EC5
100
AcDbEntity
  8
0
 62
     0
100
AcDbLine
 10
11.77110650907926
 20
6.213290635116493
 30
0.0
 11
10.37110650907919
 21
7.613290635116584
 31
0.0
  0
LINE
  5
F6D
330
EC5
100
AcDbEntity
  8
0
 62
     0
100
AcDbLine
 10
7.759397068907503
 20
10.22500007528827
 30
0.0
 11
6.479277834669261
 21
11.50511930952652
 31
0.0
  0
LINE
  5
F6E
330
EC5
100
AcDbEntity
  8
0
 62
     0
100
AcDbLine
 10
13.69610650907924
 20
4.28829063511651
 30
0.0
 11
13.00939706890747
 21
4.975000075288306
 31
0.0
  0
LINE
  5
F6F
330
EC5
100
AcDbEntity
  8
0
 62
     0
100
AcDbLine
 10
11.77110650907926
 20
5.764277829063047
 30
0.0
 11
10.37110650907919
 21
7.164277829063109
 31
0.0
  0
LINE
  5
F70
330
EC5
100
AcDbEntity
  8
0
 62
     0
100
AcDbLine
 10
7.310384262854029
 20
10.22500007528825
 30
0.0
 11
6.19715450474564
 21
11.33822983339664
 31
0.0
  0
LINE
  5
F71
330
EC5
100
AcDbEntity
  8
0
 62
     0
100
AcDbLine
 10
13.69610650907924
 20
3.839277829063064
 30
0.0
 11
12.56038426285402
 21
4.975000075288249
 31
0.0
  0
LINE
  5
F72
330
EC5
100
AcDbEntity
  8
0
 62
     0
100
AcDbLine
 10
7.055237849046733
 20
10.03113368304215
 30
0.0
 11
5.968108098625265
 21
11.11826343346362
 31
0.0
  0
LINE
  5
F73
330
EC5
100
AcDbEntity
  8
0
 62
     0
100
AcDbLine
 10
13.50224011683309
 20
3.584131415255797
 30
0.0
 11
10.37110650907919
 21
6.715265023009663
 31
0.0
  0
LINE
  5
F74
330
EC5
100
AcDbEntity
  8
0
 62
     0
100
AcDbLine
 10
7.046106509079265
 20
9.591252216956149
 30
0.0
 11
5.791367497390723
 21
10.84599122864469
 31
0.0
  0
LINE
  5
F75
330
EC5
100
AcDbEntity
  8
0
 62
     0
100
AcDbLine
 10
13.06235865074714
 20
3.575000075288272
 30
0.0
 11
10.37110650907919
 21
6.266252216956218
 31
0.0
  0
LINE
  5
F76
330
EC5
100
AcDbEntity
  8
0
 62
     0
100
AcDbLine
 10
7.07717436314698
 20
9.111171556834932
 30
0.0
 11
5.675927446243861
 21
10.51241847373808
 31
0.0
  0
LINE
  5
F77
330
EC5
100
AcDbEntity
  8
0
 62
     0
100
AcDbLine
 10
12.61334584469364
 20
3.575000075288301
 30
0.0
 11
10.37110650907919
 21
5.817239410902743
 31
0.0
  0
LINE
  5
F78
330
EC5
100
AcDbEntity
  8
0
 62
     0
100
AcDbLine
 10
9.223294554690596
 20
6.516038559237898
 30
0.0
 11
5.646106509079288
 21
10.0932266048492
 31
0.0
  0
LINE
  5
F79
330
EC5
100
AcDbEntity
  8
0
 62
     0
100
AcDbLine
 10
12.13769699511186
 20
3.601636118816628
 30
0.0
 11
10.39774255260758
 21
5.341590561320913
 31
0.0
  0
LINE
  5
F7A
330
EC5
100
AcDbEntity
  8
0
 62
     0
100
AcDbLine
 10
9.319241811733206
 20
5.971078496141842
 30
0.0
 11
5.646106509079231
 21
9.644213798795817
 31
0.0
  0
LINE
  5
F7B
330
EC5
100
AcDbEntity
  8
0
 62
     0
100
AcDbLine
 10
11.45079303881107
 20
3.83952726906395
 30
0.0
 11
10.63563370285487
 21
4.654686605020174
 31
0.0
  0
LINE
  5
F7C
330
EC5
100
AcDbEntity
  8
0
 62
     0
100
AcDbLine
 10
9.321106509079271
 20
5.520200992742303
 30
0.0
 11
5.649888732790429
 21
9.191418769031116
 31
0.0
  0
LINE
  5
F7D
330
EC5
100
AcDbEntity
  8
0
 62
     0
100
AcDbLine
 10
9.321106509079243
 20
5.071188186688857
 30
0.0
 11
5.761534111952357
 21
8.630760583815714
 31
0.0
  0
LINE
  5
F7E
330
EC5
100
AcDbEntity
  8
0
 62
     0
100
AcDbLine
 10
9.284846511013284
 20
4.658435378701398
 30
0.0
 11
7.903150689203755
 21
6.040131200510927
 31
0.0
  0
LINE
  5
F7F
330
EC5
100
AcDbEntity
  8
0
 62
     0
100
AcDbLine
 10
9.163877541498862
 20
4.330391542162345
 30
0.0
 11
7.921106509079237
 21
5.573162574581971
 31
0.0
  0
LINE
  5
F80
330
EC5
100
AcDbEntity
  8
0
 62
     0
100
AcDbLine
 10
8.982817917807977
 20
4.062438359799756
 30
0.0
 11
7.903156992928899
 21
5.142099284678835
 31
0.0
  0
LINE
  5
F81
330
EC5
100
AcDbEntity
  8
0
 62
     0
100
AcDbLine
 10
8.74970473167454
 20
3.846538739879747
 30
0.0
 11
7.621243396265981
 21
4.975000075288335
 31
0.0
  0
LINE
  5
F82
330
EC5
100
AcDbEntity
  8
0
 62
     0
100
AcDbLine
 10
8.463072507808135
 20
3.684158157692706
 30
0.0
 11
7.172230590212507
 21
4.975000075288306
 31
0.0
  0
LINE
  5
F83
330
EC5
100
AcDbEntity
  8
0
 62
     0
100
AcDbLine
 10
8.110366213265166
 20
3.587851646182201
 30
0.0
 11
6.723217784159089
 21
4.975000075288278
 31
0.0
  0
LINE
  5
F84
330
EC5
100
AcDbEntity
  8
0
 62
     0
100
AcDbLine
 10
7.674204978105649
 20
3.575000075288215
 30
0.0
 11
6.274204978105643
 21
4.975000075288249
 31
0.0
  0
LINE
  5
F85
330
EC5
100
AcDbEntity
  8
0
 62
     0
100
AcDbLine
 10
7.225192172052175
 20
3.575000075288272
 30
0.0
 11
5.948530224643235
 21
4.85166202269724
 31
0.0
  0
LINE
  5
F86
330
EC5
100
AcDbEntity
  8
0
 62
     0
100
AcDbLine
 10
6.776179365998729
 20
3.575000075288272
 30
0.0
 11
5.908606509079248
 21
4.442572932207752
 31
0.0
  0
LINE
  5
F87
330
EC5
100
AcDbEntity
  8
0
 62
     0
100
AcDbLine
 10
6.327166559945254
 20
3.575000075288272
 30
0.0
 11
5.908606509079248
 21
3.993560126154278
 31
0.0
  0
LINE
  5
F88
330
EC5
100
AcDbEntity
  8
0
 62
     0
100
AcDbLine
 10
34.31695015141272
 20
3.581565963847054
 30
0.0
 11
34.51454062052062
 21
3.779156432954948
 31
0.0
  0
LINE
  5
F89
330
EC5
100
AcDbEntity
  8
0
 62
     0
100
AcDbLine
 10
33.86137145680055
 20
3.575000075288272
 30
0.0
 11
34.52110650907934
 21
4.234735127567091
 31
0.0
  0
LINE
  5
F8A
330
EC5
100
AcDbEntity
  8
0
 62
     0
100
AcDbLine
 10
33.41235865074708
 20
3.575000075288301
 30
0.0
 11
34.52110650907934
 21
4.683747933620537
 31
0.0
  0
LINE
  5
F8B
330
EC5
100
AcDbEntity
  8
0
 62
     0
100
AcDbLine
 10
33.13670529070518
 20
3.748359521299846
 30
0.0
 11
34.52110650907931
 21
5.132760739674012
 31
0.0
  0
LINE
  5
F8C
330
EC5
100
AcDbEntity
  8
0
 62
     0
100
AcDbLine
 10
33.12110650907928
 20
4.181773545727423
 30
0.0
 11
34.52110650907931
 21
5.581773545727429
 31
0.0
  0
LINE
  5
F8D
330
EC5
100
AcDbEntity
  8
0
 62
     0
100
AcDbLine
 10
33.12110650907931
 20
4.630786351780869
 30
0.0
 11
34.52110650907931
 21
6.030786351780903
 31
0.0
  0
LINE
  5
F8E
330
EC5
100
AcDbEntity
  8
0
 62
     0
100
AcDbLine
 10
33.12110650907928
 20
5.079799157834344
 30
0.0
 11
34.52110650907931
 21
6.479799157834378
 31
0.0
  0
LINE
  5
F8F
330
EC5
100
AcDbEntity
  8
0
 62
     0
100
AcDbLine
 10
33.12110650907928
 20
5.52881196388779
 30
0.0
 11
34.52110650907931
 21
6.928811963887824
 31
0.0
  0
LINE
  5
F90
330
EC5
100
AcDbEntity
  8
0
 62
     0
100
AcDbLine
 10
31.33438894011192
 20
3.742094394920428
 30
0.0
 11
31.9040121894472
 21
4.311717644255736
 31
0.0
  0
LINE
  5
F91
330
EC5
100
AcDbEntity
  8
0
 62
     0
100
AcDbLine
 10
33.12110650907928
 20
5.977824769941236
 30
0.0
 11
34.52110650907931
 21
7.37782476994127
 31
0.0
  0
LINE
  5
F92
330
EC5
100
AcDbEntity
  8
0
 62
     0
100
AcDbLine
 10
30.71910485685052
 20
3.575823117712474
 30
0.0
 11
32.07028346665518
 21
4.927001727517108
 31
0.0
  0
LINE
  5
F93
330
EC5
100
AcDbEntity
  8
0
 62
     0
100
AcDbLine
 10
33.12110650907928
 20
6.42683757599471
 30
0.0
 11
34.52110650907931
 21
7.826837575994716
 31
0.0
  0
LINE
  5
F94
330
EC5
100
AcDbEntity
  8
0
 62
     0
100
AcDbLine
 10
30.2692690083729
 20
3.575000075288329
 30
0.0
 11
32.07110650907933
 21
5.376837575994727
 31
0.0
  0
LINE
  5
F95
330
EC5
100
AcDbEntity
  8
0
 62
     0
100
AcDbLine
 10
33.12110650907928
 20
6.875850382048156
 30
0.0
 11
34.52110650907929
 21
8.27585038204819
 31
0.0
  0
LINE
  5
F96
330
EC5
100
AcDbEntity
  8
0
 62
     0
100
AcDbLine
 10
29.82025620231942
 20
3.575000075288329
 30
0.0
 11
32.0711065090793
 21
5.825850382048201
 31
0.0
  0
LINE
  5
F97
330
EC5
100
AcDbEntity
  8
0
 62
     0
100
AcDbLine
 10
33.12110650907928
 20
7.324863188101602
 30
0.0
 11
34.52110650907931
 21
8.724863188101636
 31
0.0
  0
LINE
  5
F98
330
EC5
100
AcDbEntity
  8
0
 62
     0
100
AcDbLine
 10
29.37124339626595
 20
3.575000075288272
 30
0.0
 11
32.07110650907933
 21
6.274863188101647
 31
0.0
  0
LINE
  5
F99
330
EC5
100
AcDbEntity
  8
0
 62
     0
100
AcDbLine
 10
30.61881090803876
 20
5.271580393114561
 30
0.0
 11
32.07110650907933
 21
6.723875994155093
 31
0.0
  0
LINE
  5
F9A
330
EC5
100
AcDbEntity
  8
0
 62
     0
100
AcDbLine
 10
33.12110650907928
 20
7.773875994155048
 30
0.0
 11
34.52110650907931
 21
9.173875994155082
 31
0.0
  0
LINE
  5
F9B
330
EC5
100
AcDbEntity
  8
0
 62
     0
100
AcDbLine
 10
28.92223059021253
 20
3.575000075288329
 30
0.0
 11
30.37452619125301
 21
5.027295676328776
 31
0.0
  0
LINE
  5
F9C
330
EC5
100
AcDbEntity
  8
0
 62
     0
100
AcDbLine
 10
30.67110650907924
 20
5.772888800208505
 30
0.0
 11
32.0711065090793
 21
7.172888800208568
 31
0.0
  0
LINE
  5
F9D
330
EC5
100
AcDbEntity
  8
0
 62
     0
100
AcDbLine
 10
33.12110650907925
 20
8.222888800208522
 30
0.0
 11
34.52110650907929
 21
9.622888800208556
 31
0.0
  0
LINE
  5
F9E
330
EC5
100
AcDbEntity
  8
0
 62
     0
100
AcDbLine
 10
28.52919265984761
 20
3.630974950976849
 30
0.0
 11
29.87321778415903
 21
4.975000075288278
 31
0.0
  0
LINE
  5
F9F
330
EC5
100
AcDbEntity
  8
0
 62
     0
100
AcDbLine
 10
30.67110650907924
 20
6.221901606261951
 30
0.0
 11
32.0711065090793
 21
7.621901606262014
 31
0.0
  0
LINE
  5
FA0
330
EC5
100
AcDbEntity
  8
0
 62
     0
100
AcDbLine
 10
33.12110650907925
 20
8.671901606261997
 30
0.0
 11
34.52110650907929
 21
10.071901606262
 31
0.0
  0
LINE
  5
FA1
330
EC5
100
AcDbEntity
  8
0
 62
     0
100
AcDbLine
 10
28.21519922624253
 20
3.765994323425275
 30
0.0
 11
29.42464387092775
 21
4.975438968110495
 31
0.0
  0
LINE
  5
FA2
330
EC5
100
AcDbEntity
  8
0
 62
     0
100
AcDbLine
 10
30.67110650907929
 20
6.670914412315426
 30
0.0
 11
32.0711065090793
 21
8.07091441231546
 31
0.0
  0
LINE
  5
FA3
330
EC5
100
AcDbEntity
  8
0
 62
     0
100
AcDbLine
 10
33.12110650907928
 20
9.120914412315414
 30
0.0
 11
34.52110650907929
 21
10.52091441231544
 31
0.0
  0
LINE
  5
FA4
330
EC5
100
AcDbEntity
  8
0
 62
     0
100
AcDbLine
 10
27.95856928556
 20
3.958377188796134
 30
0.0
 11
29.1029045765714
 21
5.102712479807564
 31
0.0
  0
LINE
  5
FA5
330
EC5
100
AcDbEntity
  8
0
 62
     0
100
AcDbLine
 10
30.67110650907926
 20
7.1199272183689
 30
0.0
 11
32.0711065090793
 21
8.519927218368934
 31
0.0
  0
LINE
  5
FA6
330
EC5
100
AcDbEntity
  8
0
 62
     0
100
AcDbLine
 10
33.12110650907925
 20
9.569927218368889
 30
0.0
 11
34.52110650907929
 21
10.96992721836892
 31
0.0
  0
LINE
  5
FA7
330
EC5
100
AcDbEntity
  8
0
 62
     0
100
AcDbLine
 10
27.75358719794744
 20
4.202407907237045
 30
0.0
 11
28.9342854373667
 21
5.383106146656331
 31
0.0
  0
LINE
  5
FA8
330
EC5
100
AcDbEntity
  8
0
 62
     0
100
AcDbLine
 10
30.67110650907926
 20
7.568940024422346
 30
0.0
 11
32.07110650907933
 21
8.968940024422437
 31
0.0
  0
LINE
  5
FA9
330
EC5
100
AcDbEntity
  8
0
 62
     0
100
AcDbLine
 10
33.12110650907925
 20
10.01894002442233
 30
0.0
 11
34.51603193230406
 21
11.41386544764716
 31
0.0
  0
LINE
  5
FAA
330
EC5
100
AcDbEntity
  8
0
 62
     0
100
AcDbLine
 10
27.60362475873043
 20
4.501458274073542
 30
0.0
 11
28.92110650907923
 21
5.818940024422346
 31
0.0
  0
LINE
  5
FAB
330
EC5
100
AcDbEntity
  8
0
 62
     0
100
AcDbLine
 10
30.67110650907926
 20
8.017952830475792
 30
0.0
 11
32.07110650907935
 21
9.417952830475854
 31
0.0
  0
LINE
  5
FAC
330
EC5
100
AcDbEntity
  8
0
 62
     0
100
AcDbLine
 10
33.12110650907925
 20
10.46795283047578
 30
0.0
 11
34.27747475976431
 21
11.62432108116084
 31
0.0
  0
LINE
  5
FAD
330
EC5
100
AcDbEntity
  8
0
 62
     0
100
AcDbLine
 10
27.52491799125221
 20
4.871764312648735
 30
0.0
 11
28.92110650907926
 21
6.267952830475792
 31
0.0
  0
LINE
  5
FAE
330
EC5
100
AcDbEntity
  8
0
 62
     0
100
AcDbLine
 10
30.67110650907926
 20
8.466965636529266
 30
0.0
 11
32.07110650907933
 21
9.866965636529329
 31
0.0
  0
LINE
  5
FAF
330
EC5
100
AcDbEntity
  8
0
 62
     0
100
AcDbLine
 10
33.12110650907928
 20
10.91696563652928
 30
0.0
 11
33.82914094783828
 21
11.62500007528828
 31
0.0
  0
LINE
  5
FB0
330
EC5
100
AcDbEntity
  8
0
 62
     0
100
AcDbLine
 10
27.52110650907932
 20
5.316965636529289
 30
0.0
 11
28.92110650907929
 21
6.716965636529295
 31
0.0
  0
LINE
  5
FB1
330
EC5
100
AcDbEntity
  8
0
 62
     0
100
AcDbLine
 10
30.67110650907926
 20
8.915978442582712
 30
0.0
 11
32.07110650907933
 21
10.31597844258277
 31
0.0
  0
LINE
  5
FB2
330
EC5
100
AcDbEntity
  8
0
 62
     0
100
AcDbLine
 10
27.52110650907928
 20
5.765978442582763
 30
0.0
 11
28.92110650907926
 21
7.165978442582741
 31
0.0
  0
LINE
  5
FB3
330
EC5
100
AcDbEntity
  8
0
 62
     0
100
AcDbLine
 10
33.121129866453
 20
11.36600179995647
 30
0.0
 11
33.38010478441114
 21
11.62497671791459
 31
0.0
  0
LINE
  5
FB4
330
EC5
100
AcDbEntity
  8
0
 62
     0
100
AcDbLine
 10
25.36032869372329
 20
3.605200627226736
 30
0.0
 11
26.44090595714087
 21
4.685777890644345
 31
0.0
  0
LINE
  5
FB5
330
EC5
100
AcDbEntity
  8
0
 62
     0
100
AcDbLine
 10
27.52110650907928
 20
6.214991248636209
 30
0.0
 11
28.92110650907926
 21
7.614991248636215
 31
0.0
  0
LINE
  5
FB6
330
EC5
100
AcDbEntity
  8
0
 62
     0
100
AcDbLine
 10
30.67110650907929
 20
9.364991248636215
 30
0.0
 11
32.0711065090793
 21
10.76499124863625
 31
0.0
  0
LINE
  5
FB7
330
EC5
100
AcDbEntity
  8
0
 62
     0
100
AcDbLine
 10
24.88111533573138
 20
3.575000075288329
 30
0.0
 11
26.47110650907924
 21
5.164991248636169
 31
0.0
  0
LINE
  5
FB8
330
EC5
100
AcDbEntity
  8
0
 62
     0
100
AcDbLine
 10
27.52110650907928
 20
6.664004054689655
 30
0.0
 11
28.92110650907929
 21
8.064004054689632
 31
0.0
  0
LINE
  5
FB9
330
EC5
100
AcDbEntity
  8
0
 62
     0
100
AcDbLine
 10
30.67110650907929
 20
9.814004054689661
 30
0.0
 11
32.07110650907933
 21
11.21400405468969
 31
0.0
  0
LINE
  5
FBA
330
EC5
100
AcDbEntity
  8
0
 62
     0
100
AcDbLine
 10
24.4321025296779
 20
3.575000075288272
 30
0.0
 11
26.4711065090793
 21
5.614004054689644
 31
0.0
  0
LINE
  5
FBB
330
EC5
100
AcDbEntity
  8
0
 62
     0
100
AcDbLine
 10
27.52110650907928
 20
7.11301686074313
 30
0.0
 11
28.92110650907926
 21
8.513016860743107
 31
0.0
  0
LINE
  5
FBC
330
EC5
100
AcDbEntity
  8
0
 62
     0
100
AcDbLine
 10
30.67110650907929
 20
10.2630168607431
 30
0.0
 11
31.97423778166225
 21
11.56614813332609
 31
0.0
  0
LINE
  5
FBD
330
EC5
100
AcDbEntity
  8
0
 62
     0
100
AcDbLine
 10
23.98308972362446
 20
3.575000075288301
 30
0.0
 11
26.46394720887281
 21
6.055857560536651
 31
0.0
  0
LINE
  5
FBE
330
EC5
100
AcDbEntity
  8
0
 62
     0
100
AcDbLine
 10
27.52110650907928
 20
7.562029666796576
 30
0.0
 11
28.92110650907926
 21
8.962029666796581
 31
0.0
  0
LINE
  5
FBF
330
EC5
100
AcDbEntity
  8
0
 62
     0
100
AcDbLine
 10
30.67110650907926
 20
10.71202966679658
 30
0.0
 11
31.584076917571
 21
11.62500007528831
 31
0.0
  0
LINE
  5
FC0
330
EC5
100
AcDbEntity
  8
0
 62
     0
100
AcDbLine
 10
23.53407691757098
 20
3.575000075288301
 30
0.0
 11
26.39649102355844
 21
6.437414181275727
 31
0.0
  0
LINE
  5
FC1
330
EC5
100
AcDbEntity
  8
0
 62
     0
100
AcDbLine
 10
27.52110650907928
 20
8.011042472850022
 30
0.0
 11
28.92110650907926
 21
9.411042472849999
 31
0.0
  0
LINE
  5
FC2
330
EC5
100
AcDbEntity
  8
0
 62
     0
100
AcDbLine
 10
25.0711065090793
 20
5.561042472850033
 30
0.0
 11
26.27619729509916
 21
6.766133258869871
 31
0.0
  0
LINE
  5
FC3
330
EC5
100
AcDbEntity
  8
0
 62
     0
100
AcDbLine
 10
30.67110650907929
 20
11.16104247285002
 30
0.0
 11
31.13506411151758
 21
11.62500007528831
 31
0.0
  0
LINE
  5
FC4
330
EC5
100
AcDbEntity
  8
0
 62
     0
100
AcDbLine
 10
23.1491917880831
 20
3.639127751853834
 30
0.0
 11
24.48506411151754
 21
4.975000075288278
 31
0.0
  0
LINE
  5
FC5
330
EC5
100
AcDbEntity
  8
0
 62
     0
100
AcDbLine
 10
25.06117122151565
 20
6.000119991339829
 30
0.0
 11
26.11444764266889
 21
7.053396412493071
 31
0.0
  0
LINE
  5
FC6
330
EC5
100
AcDbEntity
  8
0
 62
     0
100
AcDbLine
 10
27.52110650907928
 20
8.460055278903467
 30
0.0
 11
28.92110650907929
 21
9.860055278903502
 31
0.0
  0
LINE
  5
FC7
330
EC5
100
AcDbEntity
  8
0
 62
     0
100
AcDbLine
 10
23.05860650907925
 20
3.997555278903462
 30
0.0
 11
24.03605130546407
 21
4.975000075288278
 31
0.0
  0
LINE
  5
FC8
330
EC5
100
AcDbEntity
  8
0
 62
     0
100
AcDbLine
 10
24.92397880294621
 20
6.311940378823891
 30
0.0
 11
25.91651208370498
 21
7.304473659582669
 31
0.0
  0
LINE
  5
FC9
330
EC5
100
AcDbEntity
  8
0
 62
     0
100
AcDbLine
 10
27.52110650907926
 20
8.909068084956942
 30
0.0
 11
28.92110650907929
 21
10.30906808495697
 31
0.0
  0
LINE
  5
FCA
330
EC5
100
AcDbEntity
  8
0
 62
     0
100
AcDbLine
 10
23.05860650907925
 20
4.446568084956908
 30
0.0
 11
23.58703849941062
 21
4.975000075288306
 31
0.0
  0
LINE
  5
FCB
330
EC5
100
AcDbEntity
  8
0
 62
     0
100
AcDbLine
 10
27.52110650907928
 20
9.358080891010388
 30
0.0
 11
28.92110650907932
 21
10.75808089101039
 31
0.0
  0
LINE
  5
FCC
330
EC5
100
AcDbEntity
  8
0
 62
     0
100
AcDbLine
 10
24.70334135438767
 20
6.540315736318746
 30
0.0
 11
25.69329084804886
 21
7.53026522997996
 31
0.0
  0
LINE
  5
FCD
330
EC5
100
AcDbEntity
  8
0
 62
     0
100
AcDbLine
 10
24.47883495136093
 20
6.764822139345483
 30
0.0
 11
25.46878444502209
 21
7.75477163300664
 31
0.0
  0
LINE
  5
FCE
330
EC5
100
AcDbEntity
  8
0
 62
     0
100
AcDbLine
 10
27.52110650907926
 20
9.807093697063834
 30
0.0
 11
28.92110650907929
 21
11.20709369706386
 31
0.0
  0
LINE
  5
FCF
330
EC5
100
AcDbEntity
  8
0
 62
     0
100
AcDbLine
 10
21.28901288730372
 20
3.575000075288301
 30
0.0
 11
21.74610650907928
 21
4.032093697063828
 31
0.0
  0
LINE
  5
FD0
330
EC5
100
AcDbEntity
  8
0
 62
     0
100
AcDbLine
 10
24.25432854833422
 20
6.989328542372277
 30
0.0
 11
25.24427804199536
 21
7.979278036033377
 31
0.0
  0
LINE
  5
FD1
330
EC5
100
AcDbEntity
  8
0
 62
     0
100
AcDbLine
 10
27.52110650907926
 20
10.2561065031173
 30
0.0
 11
28.82801605502996
 21
11.56301604906798
 31
0.0
  0
LINE
  5
FD2
330
EC5
100
AcDbEntity
  8
0
 62
     0
100
AcDbLine
 10
20.84000008125022
 20
3.575000075288272
 30
0.0
 11
21.74610650907931
 21
4.481106503117331
 31
0.0
  0
LINE
  5
FD3
330
EC5
100
AcDbEntity
  8
0
 62
     0
100
AcDbLine
 10
24.02982214530746
 20
7.213834945398957
 30
0.0
 11
25.01977163896862
 21
8.203784439060115
 31
0.0
  0
LINE
  5
FD4
330
EC5
100
AcDbEntity
  8
0
 62
     0
100
AcDbLine
 10
27.52110650907926
 20
10.70511930917075
 30
0.0
 11
28.44098727519682
 21
11.62500007528834
 31
0.0
  0
LINE
  5
FD5
330
EC5
100
AcDbEntity
  8
0
 62
     0
100
AcDbLine
 10
20.44679284412777
 20
3.630805644219265
 30
0.0
 11
21.74610650907928
 21
4.930119309170805
 31
0.0
  0
LINE
  5
FD6
330
EC5
100
AcDbEntity
  8
0
 62
     0
100
AcDbLine
 10
23.80531574228075
 20
7.438341348425666
 30
0.0
 11
24.79526523594191
 21
8.428290842086823
 31
0.0
  0
LINE
  5
FD7
330
EC5
100
AcDbEntity
  8
0
 62
     0
100
AcDbLine
 10
27.52110650907926
 20
11.1541321152242
 30
0.0
 11
27.9919744691434
 21
11.62500007528831
 31
0.0
  0
LINE
  5
FD8
330
EC5
100
AcDbEntity
  8
0
 62
     0
100
AcDbLine
 10
20.3461065090793
 20
3.979132115224246
 30
0.0
 11
21.74610650907931
 21
5.379132115224223
 31
0.0
  0
LINE
  5
FD9
330
EC5
100
AcDbEntity
  8
0
 62
     0
100
AcDbLine
 10
23.58080933925401
 20
7.662847751452403
 30
0.0
 11
24.57075883291517
 21
8.652797245113561
 31
0.0
  0
LINE
  5
FDA
330
EC5
100
AcDbEntity
  8
0
 62
     0
100
AcDbLine
 10
20.3461065090793
 20
4.42814492127772
 30
0.0
 11
21.74610650907928
 21
5.828144921277697
 31
0.0
  0
LINE
  5
FDB
330
EC5
100
AcDbEntity
  8
0
 62
     0
100
AcDbLine
 10
23.35731738873334
 20
7.888368606985238
 30
0.0
 11
24.34930415542436
 21
8.880355373676223
 31
0.0
  0
LINE
  5
FDC
330
EC5
100
AcDbEntity
  8
0
 62
     0
100
AcDbLine
 10
20.3461065090793
 20
4.877157727331166
 30
0.0
 11
21.74610650907928
 21
6.277157727331172
 31
0.0
  0
LINE
  5
FDD
330
EC5
100
AcDbEntity
  8
0
 62
     0
100
AcDbLine
 10
25.69394885703644
 20
10.2250000752883
 30
0.0
 11
26.20860650907931
 21
10.73965772733117
 31
0.0
  0
LINE
  5
FDE
330
EC5
100
AcDbEntity
  8
0
 62
     0
100
AcDbLine
 10
19.09977839672419
 20
3.63082961497605
 30
0.0
 11
19.1446045774517
 21
3.67565579570359
 31
0.0
  0
LINE
  5
FDF
330
EC5
100
AcDbEntity
  8
0
 62
     0
100
AcDbLine
 10
23.15831629932236
 20
8.138380323627671
 30
0.0
 11
24.20813343803166
 21
9.188197462336972
 31
0.0
  0
LINE
  5
FE0
330
EC5
100
AcDbEntity
  8
0
 62
     0
100
AcDbLine
 10
20.3461065090793
 20
5.326170533384612
 30
0.0
 11
21.74610650907931
 21
6.726170533384589
 31
0.0
  0
LINE
  5
FE1
330
EC5
100
AcDbEntity
  8
0
 62
     0
100
AcDbLine
 10
25.244936050983
 20
10.2250000752883
 30
0.0
 11
26.20860650907931
 21
11.18867053338462
 31
0.0
  0
LINE
  5
FE2
330
EC5
100
AcDbEntity
  8
0
 62
     0
100
AcDbLine
 10
18.59493605098296
 20
3.575000075288272
 30
0.0
 11
19.1278255991362
 21
4.107889623441479
 31
0.0
  0
LINE
  5
FE3
330
EC5
100
AcDbEntity
  8
0
 62
     0
100
AcDbLine
 10
22.99539916712402
 20
8.424475997482801
 30
0.0
 11
24.19610650907932
 21
9.625183339438081
 31
0.0
  0
LINE
  5
FE4
330
EC5
100
AcDbEntity
  8
0
 62
     0
100
AcDbLine
 10
20.3461065090793
 20
5.775183339438058
 30
0.0
 11
21.74610650907928
 21
7.175183339438063
 31
0.0
  0
LINE
  5
FE5
330
EC5
100
AcDbEntity
  8
0
 62
     0
100
AcDbLine
 10
24.79592324492955
 20
10.2250000752883
 30
0.0
 11
26.12527204318036
 21
11.55434887353914
 31
0.0
  0
LINE
  5
FE6
330
EC5
100
AcDbEntity
  8
0
 62
     0
100
AcDbLine
 10
18.14592324492952
 20
3.575000075288272
 30
0.0
 11
19.02006252568338
 21
4.449139356042167
 31
0.0
  0
LINE
  5
FE7
330
EC5
100
AcDbEntity
  8
0
 62
     0
100
AcDbLine
 10
20.34610650907927
 20
6.224196145491532
 30
0.0
 11
21.74610650907928
 21
7.624196145491509
 31
0.0
  0
LINE
  5
FE8
330
EC5
100
AcDbEntity
  8
0
 62
     0
100
AcDbLine
 10
22.87370813578897
 20
8.751797772201229
 30
0.0
 11
25.74691043887606
 21
11.62500007528831
 31
0.0
  0
LINE
  5
FE9
330
EC5
100
AcDbEntity
  8
0
 62
     0
100
AcDbLine
 10
17.84991608960197
 20
3.728005726014231
 30
0.0
 11
18.91229945223054
 21
4.790389088642797
 31
0.0
  0
LINE
  5
FEA
330
EC5
100
AcDbEntity
  8
0
 62
     0
100
AcDbLine
 10
20.34610650907927
 20
6.673208951545007
 30
0.0
 11
21.74610650907925
 21
8.073208951544984
 31
0.0
  0
LINE
  5
FEB
330
EC5
100
AcDbEntity
  8
0
 62
     0
100
AcDbLine
 10
22.80435470624613
 20
9.131457148711859
 30
0.0
 11
25.29789763282261
 21
11.62500007528831
 31
0.0
  0
LINE
  5
FEC
330
EC5
100
AcDbEntity
  8
0
 62
     0
100
AcDbLine
 10
17.74053637877767
 20
4.067638821243406
 30
0.0
 11
18.80453637877766
 21
5.131638821243399
 31
0.0
  0
LINE
  5
FED
330
EC5
100
AcDbEntity
  8
0
 62
     0
100
AcDbLine
 10
20.3461065090793
 20
7.122221757598424
 30
0.0
 11
21.74610650907928
 21
8.52222175759843
 31
0.0
  0
LINE
  5
FEE
330
EC5
100
AcDbEntity
  8
0
 62
     0
100
AcDbLine
 10
22.79610650907929
 20
9.572221757598413
 30
0.0
 11
24.84888482676916
 21
11.62500007528831
 31
0.0
  0
LINE
  5
FEF
330
EC5
100
AcDbEntity
  8
0
 62
     0
100
AcDbLine
 10
17.63277330532486
 20
4.408888553844008
 30
0.0
 11
18.69677330532491
 21
5.472888553844029
 31
0.0
  0
LINE
  5
FF0
330
EC5
100
AcDbEntity
  8
0
 62
     0
100
AcDbLine
 10
20.34610650907927
 20
7.571234563651898
 30
0.0
 11
21.74610650907928
 21
8.971234563651876
 31
0.0
  0
LINE
  5
FF1
330
EC5
100
AcDbEntity
  8
0
 62
     0
100
AcDbLine
 10
22.79610650907932
 20
10.02123456365191
 30
0.0
 11
24.39987202071572
 21
11.62500007528831
 31
0.0
  0
LINE
  5
FF2
330
EC5
100
AcDbEntity
  8
0
 62
     0
100
AcDbLine
 10
17.52501023187198
 20
4.75013828644461
 30
0.0
 11
18.58901023187206
 21
5.814138286444659
 31
0.0
  0
LINE
  5
FF3
330
EC5
100
AcDbEntity
  8
0
 62
     0
100
AcDbLine
 10
20.34610650907927
 20
8.020247369705344
 30
0.0
 11
21.74610650907931
 21
9.420247369705379
 31
0.0
  0
LINE
  5
FF4
330
EC5
100
AcDbEntity
  8
0
 62
     0
100
AcDbLine
 10
17.41724715841917
 20
5.091388019045268
 30
0.0
 11
18.48124715841922
 21
6.15538801904529
 31
0.0
  0
LINE
  5
FF5
330
EC5
100
AcDbEntity
  8
0
 62
     0
100
AcDbLine
 10
22.82276484413989
 20
10.49690570476599
 30
0.0
 11
23.92420087960155
 21
11.59834174022765
 31
0.0
  0
LINE
  5
FF6
330
EC5
100
AcDbEntity
  8
0
 62
     0
100
AcDbLine
 10
15.90085921466217
 20
3.575000075288272
 30
0.0
 11
16.32110650907927
 21
3.995247369705367
 31
0.0
  0
LINE
  5
FF7
330
EC5
100
AcDbEntity
  8
0
 62
     0
100
AcDbLine
 10
17.30948408496638
 20
5.43263775164587
 30
0.0
 11
18.37348408496635
 21
6.496637751645863
 31
0.0
  0
LINE
  5
FF8
330
EC5
100
AcDbEntity
  8
0
 62
     0
100
AcDbLine
 10
20.34610650907927
 20
8.46926017575879
 30
0.0
 11
21.74610650907931
 21
9.869260175758824
 31
0.0
  0
LINE
  5
FF9
330
EC5
100
AcDbEntity
  8
0
 62
     0
100
AcDbLine
 10
15.45184640860876
 20
3.575000075288244
 30
0.0
 11
16.3211065090793
 21
4.444260175758813
 31
0.0
  0
LINE
  5
FFA
330
EC5
100
AcDbEntity
  8
0
 62
     0
100
AcDbLine
 10
17.20172101151354
 20
5.7738874842465
 30
0.0
 11
18.26572101151356
 21
6.83788748424655
 31
0.0
  0
LINE
  5
FFB
330
EC5
100
AcDbEntity
  8
0
 62
     0
100
AcDbLine
 10
20.34610650907927
 20
8.918272981812265
 30
0.0
 11
21.74610650907931
 21
10.31827298181227
 31
0.0
  0
LINE
  5
FFC
330
EC5
100
AcDbEntity
  8
0
 62
     0
100
AcDbLine
 10
15.04340847638093
 20
3.61557494911392
 30
0.0
 11
16.3211065090793
 21
4.893272981812259
 31
0.0
  0
LINE
  5
FFD
330
EC5
100
AcDbEntity
  8
0
 62
     0
100
AcDbLine
 10
17.09395793806069
 20
6.115137216847131
 30
0.0
 11
18.15795793806072
 21
7.17913721684718
 31
0.0
  0
LINE
  5
FFE
330
EC5
100
AcDbEntity
  8
0
 62
     0
100
AcDbLine
 10
20.34610650907927
 20
9.367285787865711
 30
0.0
 11
21.74610650907928
 21
10.76728578786574
 31
0.0
  0
LINE
  5
FFF
330
EC5
100
AcDbEntity
  8
0
 62
     0
100
AcDbLine
 10
14.92110650907929
 20
3.942285787865728
 30
0.0
 11
16.32110650907927
 21
5.342285787865733
 31
0.0
  0
LINE
  5
1000
330
EC5
100
AcDbEntity
  8
0
 62
     0
100
AcDbLine
 10
16.98619486460788
 20
6.456386949447733
 30
0.0
 11
18.0501948646079
 21
7.520386949447782
 31
0.0
  0
LINE
  5
1001
330
EC5
100
AcDbEntity
  8
0
 62
     0
100
AcDbLine
 10
20.34610650907927
 20
9.816298593919157
 30
0.0
 11
21.74610650907931
 21
11.21629859391919
 31
0.0
  0
LINE
  5
1002
330
EC5
100
AcDbEntity
  8
0
 62
     0
100
AcDbLine
 10
14.92110650907929
 20
4.391298593919174
 30
0.0
 11
16.3211065090793
 21
5.791298593919151
 31
0.0
  0
LINE
  5
1003
330
EC5
100
AcDbEntity
  8
0
 62
     0
100
AcDbLine
 10
16.86879547112201
 20
6.788000362015367
 30
0.0
 11
18.18394250508745
 21
8.103147395980812
 31
0.0
  0
LINE
  5
1004
330
EC5
100
AcDbEntity
  8
0
 62
     0
100
AcDbLine
 10
20.3461065090793
 20
10.26531139997266
 30
0.0
 11
21.64796879783009
 21
11.56717368872341
 31
0.0
  0
LINE
  5
1005
330
EC5
100
AcDbEntity
  8
0
 62
     0
100
AcDbLine
 10
14.92110650907929
 20
4.840311399972648
 30
0.0
 11
16.32110650907927
 21
6.240311399972625
 31
0.0
  0
LINE
  5
1006
330
EC5
100
AcDbEntity
  8
0
 62
     0
100
AcDbLine
 10
16.52520278618831
 20
6.893420483135145
 30
0.0
 11
18.39117918480442
 21
8.759396881751257
 31
0.0
  0
LINE
  5
1007
330
EC5
100
AcDbEntity
  8
0
 62
     0
100
AcDbLine
 10
14.92110650907929
 20
5.289324206026094
 30
0.0
 11
16.32768610123244
 21
6.695903798179244
 31
0.0
  0
LINE
  5
1008
330
EC5
100
AcDbEntity
  8
0
 62
     0
100
AcDbLine
 10
20.3461065090793
 20
10.7143242060261
 30
0.0
 11
21.25678237834148
 21
11.62500007528831
 31
0.0
  0
LINE
  5
1009
330
EC5
100
AcDbEntity
  8
0
 62
     0
100
AcDbLine
 10
13.20678237834147
 20
3.575000075288272
 30
0.0
 11
13.69610650907929
 21
4.064324206026128
 31
0.0
  0
LINE
  5
100A
330
EC5
100
AcDbEntity
  8
0
 62
     0
100
AcDbLine
 10
14.92110650907926
 20
5.738337012079568
 30
0.0
 11
18.59841586452139
 21
9.415646367521674
 31
0.0
  0
LINE
  5
100B
330
EC5
100
AcDbEntity
  8
0
 62
     0
100
AcDbLine
 10
20.34610650907927
 20
11.16333701207958
 30
0.0
 11
20.807769572288
 21
11.62500007528831
 31
0.0
  0
LINE
  5
100C
330
EC5
100
AcDbEntity
  8
0
 62
     0
100
AcDbLine
 10
12.75776957228799
 20
3.575000075288301
 30
0.0
 11
13.69610650907929
 21
4.513337012079603
 31
0.0
  0
LINE
  5
100D
330
EC5
100
AcDbEntity
  8
0
 62
     0
100
AcDbLine
 10
14.92110650907929
 20
6.187349818132986
 30
0.0
 11
18.80565254423842
 21
10.07189585329211
 31
0.0
  0
LINE
  5
100E
330
EC5
100
AcDbEntity
  8
0
 62
     0
100
AcDbLine
 10
12.3145970784096
 20
3.580840387463325
 30
0.0
 11
13.62543936727621
 21
4.891682676329907
 31
0.0
  0
LINE
  5
100F
330
EC5
100
AcDbEntity
  8
0
 62
     0
100
AcDbLine
 10
14.92110650907926
 20
6.63636262418646
 30
0.0
 11
16.5847439601811
 21
8.300000075288295
 31
0.0
  0
LINE
  5
1010
330
EC5
100
AcDbEntity
  8
0
 62
     0
100
AcDbLine
 10
16.96673537780145
 20
8.68199149290865
 30
0.0
 11
19.01288922395542
 21
10.72814533906259
 31
0.0
  0
LINE
  5
1011
330
EC5
100
AcDbEntity
  8
0
 62
     0
100
AcDbLine
 10
11.93051681968611
 20
3.645772934793285
 30
0.0
 11
13.25974396018108
 21
4.975000075288278
 31
0.0
  0
LINE
  5
1012
330
EC5
100
AcDbEntity
  8
0
 62
     0
100
AcDbLine
 10
14.92110650907926
 20
7.085375430239935
 30
0.0
 11
16.33010179443343
 21
8.494370715594072
 31
0.0
  0
LINE
  5
1013
330
EC5
100
AcDbEntity
  8
0
 62
     0
100
AcDbLine
 10
17.17397205751842
 20
9.338240978679067
 30
0.0
 11
19.20042494985611
 21
11.36469387101678
 31
0.0
  0
LINE
  5
1014
330
EC5
100
AcDbEntity
  8
0
 62
     0
100
AcDbLine
 10
11.59994969127291
 20
3.76421861243358
 30
0.0
 11
12.81073115412763
 21
4.975000075288278
 31
0.0
  0
LINE
  5
1015
330
EC5
100
AcDbEntity
  8
0
 62
     0
100
AcDbLine
 10
14.92110650907929
 20
7.534388236293352
 30
0.0
 11
16.3211065090793
 21
8.934388236293386
 31
0.0
  0
LINE
  5
1016
330
EC5
100
AcDbEntity
  8
0
 62
     0
100
AcDbLine
 10
17.38120873723548
 20
9.994490464449569
 30
0.0
 11
19.00341901357151
 21
11.6167007407856
 31
0.0
  0
LINE
  5
1017
330
EC5
100
AcDbEntity
  8
0
 62
     0
100
AcDbLine
 10
11.31114804919076
 20
3.924429776404821
 30
0.0
 11
12.36917897843719
 21
4.982460705651277
 31
0.0
  0
LINE
  5
1018
330
EC5
100
AcDbEntity
  8
0
 62
     0
100
AcDbLine
 10
14.92110650907926
 20
7.983401042346827
 30
0.0
 11
16.3211065090793
 21
9.383401042346861
 31
0.0
  0
LINE
  5
1019
330
EC5
100
AcDbEntity
  8
0
 62
     0
100
AcDbLine
 10
17.58844541695245
 20
10.65073995021998
 30
0.0
 11
18.56270554202075
 21
11.62500007528831
 31
0.0
  0
LINE
  5
101A
330
EC5
100
AcDbEntity
  8
0
 62
     0
100
AcDbLine
 10
11.05867056599973
 20
4.120965099267266
 30
0.0
 11
12.05202090792804
 21
5.114315441195572
 31
0.0
  0
LINE
  5
101B
330
EC5
100
AcDbEntity
  8
0
 62
     0
100
AcDbLine
 10
14.92110650907926
 20
8.432413848400273
 30
0.0
 11
16.3211065090793
 21
9.832413848400307
 31
0.0
  0
LINE
  5
101C
330
EC5
100
AcDbEntity
  8
0
 62
     0
100
AcDbLine
 10
13.25192357496752
 20
6.763230914288556
 30
0.0
 11
13.83287567007906
 21
7.344183009400097
 31
0.0
  0
LINE
  5
101D
330
EC5
100
AcDbEntity
  8
0
 62
     0
100
AcDbLine
 10
17.79568209666939
 20
11.30698943599043
 30
0.0
 11
18.1136927359673
 21
11.62500007528834
 31
0.0
  0
LINE
  5
101E
330
EC5
100
AcDbEntity
  8
0
 62
     0
100
AcDbLine
 10
10.84045202933481
 20
4.351759368655848
 30
0.0
 11
11.84689543229194
 21
5.35820277161298
 31
0.0
  0
LINE
  5
101F
330
EC5
100
AcDbEntity
  8
0
 62
     0
100
AcDbLine
 10
12.7894371541526
 20
6.749757299527118
 30
0.0
 11
13.8463492848405
 21
7.806669430214981
 31
0.0
  0
LINE
  5
1020
330
EC5
100
AcDbEntity
  8
0
 62
     0
100
AcDbLine
 10
14.92110650907923
 20
8.881426654453747
 30
0.0
 11
16.32110650907927
 21
10.28142665445378
 31
0.0
  0
LINE
  5
1021
330
EC5
100
AcDbEntity
  8
0
 62
     0
100
AcDbLine
 10
10.65694241686333
 20
4.617262562237812
 30
0.0
 11
11.77110650907928
 21
5.731426654453798
 31
0.0
  0
LINE
  5
1022
330
EC5
100
AcDbEntity
  8
0
 62
     0
100
AcDbLine
 10
12.4823638694425
 20
6.891696820870407
 30
0.0
 11
13.70440976349718
 21
8.113742714925109
 31
0.0
  0
LINE
  5
1023
330
EC5
100
AcDbEntity
  8
0
 62
     0
100
AcDbLine
 10
14.92110650907926
 20
9.330439460507193
 30
0.0
 11
16.3211065090793
 21
10.73043946050719
 31
0.0
  0
LINE
  5
1024
330
EC5
100
AcDbEntity
  8
0
 62
     0
100
AcDbLine
 10
10.51128366190096
 20
4.920616613328888
 30
0.0
 11
11.77110650907928
 21
6.180439460507216
 31
0.0
  0
LINE
  5
1025
330
EC5
100
AcDbEntity
  8
0
 62
     0
100
AcDbLine
 10
12.26338390594764
 20
7.12172966342905
 30
0.0
 11
13.47437692093856
 21
8.332722678419941
 31
0.0
  0
LINE
  5
1026
330
EC5
100
AcDbEntity
  8
0
 62
     0
100
AcDbLine
 10
14.92110650907926
 20
9.779452266560639
 30
0.0
 11
16.32110650907927
 21
11.17945226656067
 31
0.0
  0
LINE
  5
1027
330
EC5
100
AcDbEntity
  8
0
 62
     0
100
AcDbLine
 10
10.41071497981363
 20
5.269060737295035
 30
0.0
 11
11.77110650907928
 21
6.62945226656069
 31
0.0
  0
LINE
  5
1028
330
EC5
100
AcDbEntity
  8
0
 62
     0
100
AcDbLine
 10
12.13535853974346
 20
7.442717103278312
 30
0.0
 11
13.15338948108927
 21
8.460748044624153
 31
0.0
  0
LINE
  5
1029
330
EC5
100
AcDbEntity
  8
0
 62
     0
100
AcDbLine
 10
10.37110650907925
 20
5.67846507261413
 30
0.0
 11
11.77110650907928
 21
7.078465072614136
 31
0.0
  0
LINE
  5
102A
330
EC5
100
AcDbEntity
  8
0
 62
     0
100
AcDbLine
 10
14.92110650907923
 20
10.22846507261411
 30
0.0
 11
16.24248145490173
 21
11.54984001843661
 31
0.0
  0
LINE
  5
102B
330
EC5
100
AcDbEntity
  8
0
 62
     0
100
AcDbLine
 10
8.328108130141458
 20
3.635466693676335
 30
0.0
 11
9.260639890691322
 21
4.567998454226199
 31
0.0
  0
LINE
  5
102C
330
EC5
100
AcDbEntity
  8
0
 62
     0
100
AcDbLine
 10
12.19456508148385
 20
7.950936451072152
 30
0.0
 11
12.64517013329546
 21
8.401541502883759
 31
0.0
  0
LINE
  5
102D
330
EC5
100
AcDbEntity
  8
0
 62
     0
100
AcDbLine
 10
10.37110650907925
 20
6.127477878667548
 30
0.0
 11
11.77110650907928
 21
7.527477878667582
 31
0.0
  0
LINE
  5
102E
330
EC5
100
AcDbEntity
  8
0
 62
     0
100
AcDbLine
 10
14.92110650907926
 20
10.67747787866753
 30
0.0
 11
15.86862870570004
 21
11.62500007528834
 31
0.0
  0
LINE
  5
102F
330
EC5
100
AcDbEntity
  8
0
 62
     0
100
AcDbLine
 10
7.818628705699978
 20
3.575000075288272
 30
0.0
 11
9.321106509079299
 21
5.077477878667593
 31
0.0
  0
LINE
  5
1030
330
EC5
100
AcDbEntity
  8
0
 62
     0
100
AcDbLine
 10
10.37110650907925
 20
6.576490684721022
 30
0.0
 11
11.77110650907928
 21
7.976490684721056
 31
0.0
  0
LINE
  5
1031
330
EC5
100
AcDbEntity
  8
0
 62
     0
100
AcDbLine
 10
14.92110650907923
 20
11.126490684721
 30
0.0
 11
15.41961589964654
 21
11.62500007528831
 31
0.0
  0
LINE
  5
1032
330
EC5
100
AcDbEntity
  8
0
 62
     0
100
AcDbLine
 10
7.369615899646532
 20
3.575000075288272
 30
0.0
 11
9.321106509079299
 21
5.526490684721068
 31
0.0
  0
LINE
  5
1033
330
EC5
100
AcDbEntity
  8
0
 62
     0
100
AcDbLine
 10
10.37110650907925
 20
7.025503490774468
 30
0.0
 11
11.77110650907926
 21
8.425503490774502
 31
0.0
  0
LINE
  5
1034
330
EC5
100
AcDbEntity
  8
0
 62
     0
100
AcDbLine
 10
6.920603093593058
 20
3.575000075288301
 30
0.0
 11
9.319136832798704
 21
5.973533814493947
 31
0.0
  0
LINE
  5
1035
330
EC5
100
AcDbEntity
  8
0
 62
     0
100
AcDbLine
 10
10.37110650907925
 20
7.474516296827943
 30
0.0
 11
11.77110650907928
 21
8.874516296827977
 31
0.0
  0
LINE
  5
1036
330
EC5
100
AcDbEntity
  8
0
 62
     0
100
AcDbLine
 10
13.12159028753964
 20
10.22500007528833
 30
0.0
 11
13.69610650907932
 21
10.79951629682798
 31
0.0
  0
LINE
  5
1037
330
EC5
100
AcDbEntity
  8
0
 62
     0
100
AcDbLine
 10
6.471590287539612
 20
3.575000075288301
 30
0.0
 11
9.264305914638043
 21
6.367715702386732
 31
0.0
  0
LINE
  5
1038
330
EC5
100
AcDbEntity
  8
0
 62
     0
100
AcDbLine
 10
10.37110650907925
 20
7.923529102881389
 30
0.0
 11
11.77110650907928
 21
9.323529102881394
 31
0.0
  0
LINE
  5
1039
330
EC5
100
AcDbEntity
  8
0
 62
     0
100
AcDbLine
 10
7.921106509079294
 20
5.473529102881428
 30
0.0
 11
9.153136542615982
 21
6.705559136418116
 31
0.0
  0
LINE
  5
103A
330
EC5
100
AcDbEntity
  8
0
 62
     0
100
AcDbLine
 10
12.67257748148614
 20
10.22500007528827
 30
0.0
 11
13.69610650907929
 21
11.24852910288143
 31
0.0
  0
LINE
  5
103B
330
EC5
100
AcDbEntity
  8
0
 62
     0
100
AcDbLine
 10
6.051440419116119
 20
3.603863012918253
 30
0.0
 11
7.422577481486143
 21
4.975000075288278
 31
0.0
  0
LINE
  5
103C
330
EC5
100
AcDbEntity
  8
0
 62
     0
100
AcDbLine
 10
10.37110650907922
 20
8.372541908934834
 30
0.0
 11
11.85401386196912
 21
9.85544926182473
 31
0.0
  0
LINE
  5
103D
330
EC5
100
AcDbEntity
  8
0
 62
     0
100
AcDbLine
 10
7.920026963274665
 20
5.921462363130245
 30
0.0
 11
8.99892077527997
 21
7.000356175135578
 31
0.0
  0
LINE
  5
103E
330
EC5
100
AcDbEntity
  8
0
 62
     0
100
AcDbLine
 10
12.14065732254289
 20
10.1420927223985
 30
0.0
 11
13.5793728016194
 21
11.58080820147498
 31
0.0
  0
LINE
  5
103F
330
EC5
100
AcDbEntity
  8
0
 62
     0
100
AcDbLine
 10
5.908606509079248
 20
3.910041908934857
 30
0.0
 11
6.973564675432726
 21
4.975000075288335
 31
0.0
  0
LINE
  5
1040
330
EC5
100
AcDbEntity
  8
0
 62
     0
100
AcDbLine
 10
7.81022545352431
 20
6.260673659433393
 30
0.0
 11
8.807799792860521
 21
7.258247998769604
 31
0.0
  0
LINE
  5
1041
330
EC5
100
AcDbEntity
  8
0
 62
     0
100
AcDbLine
 10
10.37110650907922
 20
8.821554714988309
 30
0.0
 11
13.17455186937925
 21
11.62500007528834
 31
0.0
  0
LINE
  5
1042
330
EC5
100
AcDbEntity
  8
0
 62
     0
100
AcDbLine
 10
5.908606509079248
 20
4.359054714988332
 30
0.0
 11
6.524551869379223
 21
4.975000075288306
 31
0.0
  0
LINE
  5
1043
330
EC5
100
AcDbEntity
  8
0
 62
     0
100
AcDbLine
 10
7.597098039371957
 20
6.496559051334457
 30
0.0
 11
8.587047533033143
 21
7.486508544995643
 31
0.0
  0
LINE
  5
1044
330
EC5
100
AcDbEntity
  8
0
 62
     0
100
AcDbLine
 10
10.37110650907925
 20
9.270567521041726
 30
0.0
 11
12.72553906332572
 21
11.62500007528822
 31
0.0
  0
LINE
  5
1045
330
EC5
100
AcDbEntity
  8
0
 62
     0
100
AcDbLine
 10
5.943082470089166
 20
4.842543482051667
 30
0.0
 11
6.041063102315973
 21
4.940524114278474
 31
0.0
  0
LINE
  5
1046
330
EC5
100
AcDbEntity
  8
0
 62
     0
100
AcDbLine
 10
10.38109406615754
 20
9.729567884173491
 30
0.0
 11
12.26653870019404
 21
11.61501251821002
 31
0.0
  0
LINE
  5
1047
330
EC5
100
AcDbEntity
  8
0
 62
     0
100
AcDbLine
 10
7.372591636345163
 20
6.721065454361138
 30
0.0
 11
8.362541130006405
 21
7.711014948022381
 31
0.0
  0
LINE
  5
1048
330
EC5
100
AcDbEntity
  8
0
 62
     0
100
AcDbLine
 10
10.53082578229043
 20
10.32831240635988
 30
0.0
 11
11.66779417800768
 21
11.46528080207713
 31
0.0
  0
LINE
  5
1049
330
EC5
100
AcDbEntity
  8
0
 62
     0
100
AcDbLine
 10
7.148085233318425
 20
6.945571857387875
 30
0.0
 11
8.138034726979668
 21
7.935521351049118
 31
0.0
  0
LINE
  5
104A
330
EC5
100
AcDbEntity
  8
0
 62
     0
100
AcDbLine
 10
6.923578830291802
 20
7.170078260414669
 30
0.0
 11
7.913528323952931
 21
8.16002775407577
 31
0.0
  0
LINE
  5
104B
330
EC5
100
AcDbEntity
  8
0
 62
     0
100
AcDbLine
 10
6.699072427265065
 20
7.394584663441406
 30
0.0
 11
7.689021920926194
 21
8.384534157102507
 31
0.0
  0
LINE
  5
104C
330
EC5
100
AcDbEntity
  8
0
 62
     0
100
AcDbLine
 10
6.474566024238242
 20
7.619091066468058
 30
0.0
 11
7.464515517899457
 21
8.609040560129244
 31
0.0
  0
LINE
  5
104D
330
EC5
100
AcDbEntity
  8
0
 62
     0
100
AcDbLine
 10
8.631462227005044
 20
10.22500007528833
 30
0.0
 11
9.058606509079226
 21
10.65214435736251
 31
0.0
  0
LINE
  5
104E
330
EC5
100
AcDbEntity
  8
0
 62
     0
100
AcDbLine
 10
6.250101278225628
 20
7.843639126508918
 30
0.0
 11
7.240134099941855
 21
8.833671948225145
 31
0.0
  0
LINE
  5
104F
330
EC5
100
AcDbEntity
  8
0
 62
     0
100
AcDbLine
 10
8.18244942095157
 20
10.22500007528827
 30
0.0
 11
9.058606509079282
 21
11.10115716341599
 31
0.0
  0
LINE
  5
1050
330
EC5
100
AcDbEntity
  8
0
 62
     0
100
AcDbLine
 10
6.044367315949841
 20
8.086917970286521
 30
0.0
 11
7.075185659297886
 21
9.117736313634594
 31
0.0
  0
LINE
  5
1051
330
EC5
100
AcDbEntity
  8
0
 62
     0
100
AcDbLine
 10
7.733436614898096
 20
10.22500007528827
 30
0.0
 11
9.01532705919871
 21
11.50689051958889
 31
0.0
  0
LINE
  5
1052
330
EC5
100
AcDbEntity
  8
0
 62
     0
100
AcDbLine
 10
5.874137012818607
 20
8.365700473208761
 30
0.0
 11
7.046106509079265
 21
9.537669969469448
 31
0.0
  0
LINE
  5
1053
330
EC5
100
AcDbEntity
  8
0
 62
     0
100
AcDbLine
 10
7.283190484259591
 20
10.22376675070322
 30
0.0
 11
8.684423808844684
 21
11.62500007528831
 31
0.0
  0
LINE
  5
1054
330
EC5
100
AcDbEntity
  8
0
 62
     0
100
AcDbLine
 10
5.743790364952559
 20
8.684366631396187
 30
0.0
 11
7.047339833664352
 21
9.987916100108009
 31
0.0
  0
LINE
  5
1055
330
EC5
100
AcDbEntity
  8
0
 62
     0
100
AcDbLine
 10
5.662884383828526
 20
9.0524734563256
 30
0.0
 11
8.235411002791238
 21
11.62500007528831
 31
0.0
  0
LINE
  5
1056
330
EC5
100
AcDbEntity
  8
0
 62
     0
100
AcDbLine
 10
5.646106509079288
 20
9.484708387629808
 30
0.0
 11
7.786398196737764
 21
11.62500007528831
 31
0.0
  0
LINE
  5
1057
330
EC5
100
AcDbEntity
  8
0
 62
     0
100
AcDbLine
 10
5.64610650907926
 20
9.933721193683282
 30
0.0
 11
7.337385390684318
 21
11.62500007528831
 31
0.0
  0
LINE
  5
1058
330
EC5
100
AcDbEntity
  8
0
 62
     0
100
AcDbLine
 10
5.656202514298428
 20
10.39283000495589
 30
0.0
 11
6.878276579411732
 21
11.6149040700692
 31
0.0
  0
ENDBLK
  5
105A
330
EC5
100
AcDbEntity
  8
0
100
AcDbBlockEnd
  0
BLOCK
  5
7D61
330
7D60
100
AcDbEntity
  8
0
100
AcDbBlockBegin
  2
*D2
 70
     1
 10
0.0
 20
0.0
 30
0.0
  3
*D2
  1

  0
LINE
  5
8035
330
7D60
100
AcDbEntity
  8
SUNPOU
100
AcDbLine
 10
133.8473571874841
 20
127.7440554646237
 30
0.0
 11
130.298368824136
 21
127.5580608677511
 31
0.0
  0
ARC
  5
8036
330
7D60
100
AcDbEntity
  8
SUNPOU
100
AcDbCircle
 10
145.03919854997
 20
128.3305950103643
 30
0.0
 40
13.26105924408996
100
AcDbArc
 50
195.9896111080947
 51
257.0103888604797
  0
INSERT
  5
8037
330
7D60
100
AcDbEntity
  8
SUNPOU
100
AcDbBlockReference
  2
_OPEN
 10
131.7963131263109
 20
127.636564801294
 30
0.0
 41
3.0
 42
3.0
 43
3.0
 50
99.49480553833467
  0
INSERT
  5
8038
330
7D60
100
AcDbEntity
  8
SUNPOU
100
AcDbBlockReference
  2
_OPEN
 10
145.03919854997
 20
115.0695357662744
 30
0.0
 41
3.0
 42
3.0
 43
3.0
 50
353.5051944302398
  0
MTEXT
  5
8039
330
7D60
100
AcDbEntity
  8
SUNPOU
100
AcDbMText
 10
137.9759514657947
 20
120.8874856171997
 30
0.0
 40
3.0
 41
0.0
 71
     5
 72
     5
  1
\A1;87°
 11
0.7253743708235139
 21
-0.6883545758926801
 31
0.0
 73
     1
 44
1.0
1001
ACAD
1000
MTEXTBEGIN
1070
    73
1070
     1
1070
    44
1040
1.0
1070
    74
1070
     0
1000
MTEXTEND
1000
MTEXTBEGIN
1070
    73
1070
     1
1070
    44
1040
1.0
1070
    74
1070
     0
1000
MTEXTEND
1000
MTEXTBEGIN
1070
    73
1070
     1
1070
    44
1040
1.0
1070
    74
1070
     0
1000
MTEXTEND
1000
MTEXTBEGIN
1070
    73
1070
     1
1070
    44
1040
1.0
1070
    74
1070
     0
1000
MTEXTEND
1000
MTEXTBEGIN
1070
    73
1070
     1
1070
    44
1040
1.0
1070
    74
1070
     0
1000
MTEXTEND
1000
MTEXTBEGIN
1070
    73
1070
     1
1070
    44
1040
1.0
1070
    74
1070
     0
1000
MTEXTEND
  0
POINT
  5
803A
330
7D60
100
AcDbEntity
  8
DEFPOINTS
 62
     0
100
AcDbPoint
 10
133.7931825024324
 20
121.3033042568953
 30
0.0
  0
POINT
  5
803B
330
7D60
100
AcDbEntity
  8
DEFPOINTS
 62
     0
100
AcDbPoint
 10
192.1953258748967
 20
130.8019428971169
 30
0.0
  0
POINT
  5
803C
330
7D60
100
AcDbEntity
  8
DEFPOINTS
 62
     0
100
AcDbPoint
 10
145.03919854997
 20
62.61471729839559
 30
0.0
  0
POINT
  5
803D
330
7D60
100
AcDbEntity
  8
DEFPOINTS
 62
     0
100
AcDbPoint
 10
145.03919854997
 20
131.9944712022761
 30
0.0
  0
POINT
  5
803E
330
7D60
100
AcDbEntity
  8
DEFPOINTS
 62
     0
100
AcDbPoint
 10
135.345301489659
 20
127.8225593981665
 30
0.0
  0
ENDBLK
  5
7D62
330
7D60
100
AcDbEntity
  8
0
100
AcDbBlockEnd
  0
BLOCK
  5
7D6F
330
7D6E
100
AcDbEntity
  8
0
100
AcDbBlockBegin
  2
*D3
 70
     1
 10
0.0
 20
0.0
 30
0.0
  3
*D3
  1

  0
LINE
  5
7FFF
330
7D6E
100
AcDbEntity
  8
SUNPOU
100
AcDbLine
 10
182.1097512113027
 20
153.2548748689606
 30
0.0
 11
201.0168733596472
 21
154.24575514299
 31
0.0
  0
LINE
  5
8000
330
7D6E
100
AcDbEntity
  8
SUNPOU
100
AcDbLine
 10
184.5119714937997
 20
107.4177808235757
 30
0.0
 11
203.4190936421441
 21
108.408661097605
 31
0.0
  0
LINE
  5
8001
330
7D6E
100
AcDbEntity
  8
SUNPOU
100
AcDbLine
 10
199.6759369245579
 20
151.1713626050973
 30
0.0
 11
201.7641414728835
 21
111.326045768412
 31
0.0
  0
INSERT
  5
8002
330
7D6E
100
AcDbEntity
  8
SUNPOU
100
AcDbBlockReference
  2
_OPEN
 10
199.5189290574723
 20
154.1672512094471
 30
0.0
 41
3.0
 42
3.0
 43
3.0
 50
92.99999996857463
  0
INSERT
  5
8003
330
7D6E
100
AcDbEntity
  8
SUNPOU
100
AcDbBlockReference
  2
_OPEN
 10
201.9211493399692
 20
108.3301571640622
 30
0.0
 41
3.0
 42
3.0
 43
3.0
 50
272.9999999685746
  0
MTEXT
  5
8004
330
7D6E
100
AcDbEntity
  8
SUNPOU
100
AcDbMText
 10
203.7159278030705
 20
131.4057120538403
 30
0.0
 40
3.0
 41
0.0
 71
     5
 72
     5
  1
\A1;\U+25A146
 11
0.0523359556952195
 21
-0.9986295347832788
 31
0.0
 73
     1
 44
1.0
1001
ACAD
1000
MTEXTBEGIN
1070
    73
1070
     1
1070
    44
1040
1.0
1070
    74
1070
     0
1000
MTEXTEND
1000
MTEXTBEGIN
1070
    73
1070
     1
1070
    44
1040
1.0
1070
    74
1070
     0
1000
MTEXTEND
1000
MTEXTBEGIN
1070
    73
1070
     1
1070
    44
1040
1.0
1070
    74
1070
     0
1000
MTEXTEND
1000
MTEXTBEGIN
1070
    73
1070
     1
1070
    44
1040
1.0
1070
    74
1070
     0
1000
MTEXTEND
1000
MTEXTBEGIN
1070
    73
1070
     1
1070
    44
1040
1.0
1070
    74
1070
     0
1000
MTEXTEND
1000
MTEXTBEGIN
1070
    73
1070
     1
1070
    44
1040
1.0
1070
    74
1070
     0
1000
MTEXTEND
  0
POINT
  5
8005
330
7D6E
100
AcDbEntity
  8
DEFPOINTS
 62
     0
100
AcDbPoint
 10
180.6118069091278
 20
153.1763709354178
 30
0.0
  0
POINT
  5
8006
330
7D6E
100
AcDbEntity
  8
DEFPOINTS
 62
     0
100
AcDbPoint
 10
183.0140271916247
 20
107.3392768900329
 30
0.0
  0
POINT
  5
8007
330
7D6E
100
AcDbEntity
  8
DEFPOINTS
 62
     0
100
AcDbPoint
 10
201.9211493399692
 20
108.3301571640622
 30
0.0
  0
ENDBLK
  5
7D70
330
7D6E
100
AcDbEntity
  8
0
100
AcDbBlockEnd
  0
BLOCK
  5
7D7C
330
7D7B
100
AcDbEntity
  8
0
100
AcDbBlockBegin
  2
*D4
 70
     1
 10
0.0
 20
0.0
 30
0.0
  3
*D4
  1

  0
LINE
  5
7FED
330
7D7B
100
AcDbEntity
  8
SUNPOU
100
AcDbLine
 10
144.9606946164271
 20
129.8285393125393
 30
0.0
 11
142.6485529993039
 21
173.9468300132441
 31
0.0
  0
LINE
  5
7FEE
330
7D7B
100
AcDbEntity
  8
SUNPOU
100
AcDbLine
 10
181.7344131168334
 20
131.7557682149003
 30
0.0
 11
179.4222714997102
 21
175.8740589156051
 31
0.0
  0
LINE
  5
7FEF
330
7D7B
100
AcDbEntity
  8
SUNPOU
100
AcDbLine
 10
145.7229455371965
 20
172.6058935781549
 30
0.0
 11
176.5048868289032
 21
174.2191067463446
 31
0.0
  0
INSERT
  5
7FF0
330
7D7B
100
AcDbEntity
  8
SUNPOU
100
AcDbBlockReference
  2
_OPEN
 10
142.7270569328467
 20
172.4488857110692
 30
0.0
 41
3.0
 42
3.0
 43
3.0
 50
182.9999999685745
  0
INSERT
  5
7FF1
330
7D7B
100
AcDbEntity
  8
SUNPOU
100
AcDbBlockReference
  2
_OPEN
 10
179.500775433253
 20
174.3761146134302
 30
0.0
 41
3.0
 42
3.0
 43
3.0
 50
2.999999968574572
  0
MTEXT
  5
7FF2
330
7D7B
100
AcDbEntity
  8
SUNPOU
100
AcDbMText
 10
160.9569083159642
 20
176.4083887665995
 30
0.0
 40
3.0
 41
0.0
 71
     5
 72
     5
  1
\A1;37
 11
0.998629534783279
 21
0.0523359556952183
 31
0.0
 73
     1
 44
1.0
1001
ACAD
1000
MTEXTBEGIN
1070
    73
1070
     1
1070
    44
1040
1.0
1070
    74
1070
     0
1000
MTEXTEND
1000
MTEXTBEGIN
1070
    73
1070
     1
1070
    44
1040
1.0
1070
    74
1070
     0
1000
MTEXTEND
1000
MTEXTBEGIN
1070
    73
1070
     1
1070
    44
1040
1.0
1070
    74
1070
     0
1000
MTEXTEND
1000
MTEXTBEGIN
1070
    73
1070
     1
1070
    44
1040
1.0
1070
    74
1070
     0
1000
MTEXTEND
1000
MTEXTBEGIN
1070
    73
1070
     1
1070
    44
1040
1.0
1070
    74
1070
     0
1000
MTEXTEND
1000
MTEXTBEGIN
1070
    73
1070
     1
1070
    44
1040
1.0
1070
    74
1070
     0
1000
MTEXTEND
  0
POINT
  5
7FF3
330
7D7B
100
AcDbEntity
  8
DEFPOINTS
 62
     0
100
AcDbPoint
 10
145.03919854997
 20
128.3305950103643
 30
0.0
  0
POINT
  5
7FF4
330
7D7B
100
AcDbEntity
  8
DEFPOINTS
 62
     0
100
AcDbPoint
 10
181.8129170503763
 20
130.2578239127254
 30
0.0
  0
POINT
  5
7FF5
330
7D7B
100
AcDbEntity
  8
DEFPOINTS
 62
     0
100
AcDbPoint
 10
179.500775433253
 20
174.3761146134302
 30
0.0
  0
ENDBLK
  5
7D7D
330
7D7B
100
AcDbEntity
  8
0
100
AcDbBlockEnd
  0
BLOCK
  5
7DB4
330
7DB3
100
AcDbEntity
  8
0
100
AcDbBlockBegin
  2
*D5
 70
     1
 10
0.0
 20
0.0
 30
0.0
  3
*D5
  1

  0
LINE
  5
7FF6
330
7DB3
100
AcDbEntity
  8
SUNPOU
100
AcDbLine
 10
160.7700560395311
 20
149.6330791898951
 30
0.0
 11
159.9310739177898
 21
165.641811901403
 31
0.0
  0
LINE
  5
7FF7
330
7DB3
100
AcDbEntity
  8
SUNPOU
100
AcDbLine
 10
180.7426467351966
 20
150.6797983037995
 30
0.0
 11
179.9036646134553
 21
166.6885310153073
 31
0.0
  0
LINE
  5
7FF8
330
7DB3
100
AcDbEntity
  8
SUNPOU
100
AcDbLine
 10
163.0054664556825
 20
164.3008754663137
 30
0.0
 11
176.9862799426483
 21
165.0335788460468
 31
0.0
  0
INSERT
  5
7FF9
330
7DB3
100
AcDbEntity
  8
SUNPOU
100
AcDbBlockReference
  2
_OPEN
 10
160.0095778513326
 20
164.143867599228
 30
0.0
 41
3.0
 42
3.0
 43
3.0
 50
182.9999999685746
  0
INSERT
  5
7FFA
330
7DB3
100
AcDbEntity
  8
SUNPOU
100
AcDbBlockReference
  2
_OPEN
 10
179.9821685469981
 20
165.1905867131324
 30
0.0
 41
3.0
 42
3.0
 43
3.0
 50
2.999999968574596
  0
MTEXT
  5
7FFB
330
7DB3
100
AcDbEntity
  8
SUNPOU
100
AcDbMText
 10
169.8388653320797
 20
167.66311576053
 30
0.0
 40
3.0
 41
0.0
 71
     5
 72
     5
  1
\A1;※ 20
 11
0.998629534783279
 21
0.0523359556952188
 31
0.0
 73
     1
 44
1.0
1001
ACAD
1000
MTEXTBEGIN
1070
    73
1070
     1
1070
    44
1040
1.0
1070
    74
1070
     0
1000
MTEXTEND
1000
MTEXTBEGIN
1070
    73
1070
     1
1070
    44
1040
1.0
1070
    74
1070
     0
1000
MTEXTEND
1000
MTEXTBEGIN
1070
    73
1070
     1
1070
    44
1040
1.0
1070
    74
1070
     0
1000
MTEXTEND
1000
MTEXTBEGIN
1070
    73
1070
     1
1070
    44
1040
1.0
1070
    74
1070
     0
1000
MTEXTEND
1000
MTEXTBEGIN
1070
    73
1070
     1
1070
    44
1040
1.0
1070
    74
1070
     0
1000
MTEXTEND
1000
MTEXTBEGIN
1070
    73
1070
     1
1070
    44
1040
1.0
1070
    74
1070
     0
1000
MTEXTEND
  0
POINT
  5
7FFC
330
7DB3
100
AcDbEntity
  8
DEFPOINTS
 62
     0
100
AcDbPoint
 10
160.848559973074
 20
148.1351348877202
 30
0.0
  0
POINT
  5
7FFD
330
7DB3
100
AcDbEntity
  8
DEFPOINTS
 62
     0
100
AcDbPoint
 10
180.8211506687395
 20
149.1818540016246
 30
0.0
  0
POINT
  5
7FFE
330
7DB3
100
AcDbEntity
  8
DEFPOINTS
 62
     0
100
AcDbPoint
 10
179.9821685469981
 20
165.1905867131324
 30
0.0
  0
ENDBLK
  5
7DB5
330
7DB3
100
AcDbEntity
  8
0
100
AcDbBlockEnd
  0
BLOCK
  5
7DCA
330
7DC9
100
AcDbEntity
  8
0
100
AcDbBlockBegin
  2
*D6
 70
     1
 10
0.0
 20
0.0
 30
0.0
  3
*D6
  1

  0
LINE
  5
8023
330
7DC9
100
AcDbEntity
  8
SUNPOU
100
AcDbLine
 10
120.5891980482414
 20
68.19762072517836
 30
0.0
 11
95.48569213540828
 21
68.19762072517836
 31
0.0
  0
LINE
  5
8024
330
7DC9
100
AcDbEntity
  8
SUNPOU
100
AcDbLine
 10
120.5891980482415
 20
95.19762257592011
 30
0.0
 11
95.48569213540828
 21
95.19762257592013
 31
0.0
  0
LINE
  5
8025
330
7DC9
100
AcDbEntity
  8
SUNPOU
100
AcDbLine
 10
96.98569213540828
 20
71.19762072517835
 30
0.0
 11
96.98569213540828
 21
92.19762257592012
 31
0.0
  0
INSERT
  5
8026
330
7DC9
100
AcDbEntity
  8
SUNPOU
100
AcDbBlockReference
  2
_OPEN
 10
96.98569213540828
 20
68.19762072517836
 30
0.0
 41
3.0
 42
3.0
 43
3.0
 50
270.0
  0
INSERT
  5
8027
330
7DC9
100
AcDbEntity
  8
SUNPOU
100
AcDbBlockReference
  2
_OPEN
 10
96.98569213540828
 20
95.19762257592011
 30
0.0
 41
3.0
 42
3.0
 43
3.0
 50
90.0
  0
MTEXT
  5
8028
330
7DC9
100
AcDbEntity
  8
SUNPOU
100
AcDbMText
 10
93.98569213540826
 20
81.69762165054926
 30
0.0
 40
3.0
 41
0.0
 71
     5
 72
     5
  1
\A1;27
 11
0.0000000000000001
 21
1.0
 31
0.0
 73
     1
 44
1.0
1001
ACAD
1000
MTEXTBEGIN
1070
    73
1070
     1
1070
    44
1040
1.0
1070
    74
1070
     0
1000
MTEXTEND
1000
MTEXTBEGIN
1070
    73
1070
     1
1070
    44
1040
1.0
1070
    74
1070
     0
1000
MTEXTEND
1000
MTEXTBEGIN
1070
    73
1070
     1
1070
    44
1040
1.0
1070
    74
1070
     0
1000
MTEXTEND
1000
MTEXTBEGIN
1070
    73
1070
     1
1070
    44
1040
1.0
1070
    74
1070
     0
1000
MTEXTEND
1000
MTEXTBEGIN
1070
    73
1070
     1
1070
    44
1040
1.0
1070
    74
1070
     0
1000
MTEXTEND
1000
MTEXTBEGIN
1070
    73
1070
     1
1070
    44
1040
1.0
1070
    74
1070
     0
1000
MTEXTEND
  0
POINT
  5
8029
330
7DC9
100
AcDbEntity
  8
DEFPOINTS
 62
     0
100
AcDbPoint
 10
122.0891980482414
 20
68.19762072517836
 30
0.0
  0
POINT
  5
802A
330
7DC9
100
AcDbEntity
  8
DEFPOINTS
 62
     0
100
AcDbPoint
 10
122.0891980482415
 20
95.19762257592011
 30
0.0
  0
POINT
  5
802B
330
7DC9
100
AcDbEntity
  8
DEFPOINTS
 62
     0
100
AcDbPoint
 10
96.98569213540828
 20
95.19762257592011
 30
0.0
  0
ENDBLK
  5
7DCB
330
7DC9
100
AcDbEntity
  8
0
100
AcDbBlockEnd
  0
BLOCK
  5
7DD7
330
7DD6
100
AcDbEntity
  8
0
100
AcDbBlockBegin
  2
*D7
 70
     1
 10
0.0
 20
0.0
 30
0.0
  3
*D7
  1

  0
LINE
  5
802C
330
7DD6
100
AcDbEntity
  8
SUNPOU
100
AcDbLine
 10
120.4839899295059
 20
68.19762169334488
 30
0.0
 11
88.16986445244355
 21
68.1976216933449
 31
0.0
  0
LINE
  5
802D
330
7DD6
100
AcDbEntity
  8
SUNPOU
100
AcDbLine
 10
143.53919854997
 20
128.3305950103643
 30
0.0
 11
88.16986445244356
 21
128.3305950103643
 31
0.0
  0
LINE
  5
802E
330
7DD6
100
AcDbEntity
  8
SUNPOU
100
AcDbLine
 10
89.66986445244355
 20
71.1976216933449
 30
0.0
 11
89.66986445244357
 21
125.3305950103643
 31
0.0
  0
INSERT
  5
802F
330
7DD6
100
AcDbEntity
  8
SUNPOU
100
AcDbBlockReference
  2
_OPEN
 10
89.66986445244355
 20
68.1976216933449
 30
0.0
 41
3.0
 42
3.0
 43
3.0
 50
270.0
  0
INSERT
  5
8030
330
7DD6
100
AcDbEntity
  8
SUNPOU
100
AcDbBlockReference
  2
_OPEN
 10
89.66986445244357
 20
128.3305950103643
 30
0.0
 41
3.0
 42
3.0
 43
3.0
 50
90.0
  0
MTEXT
  5
8031
330
7DD6
100
AcDbEntity
  8
SUNPOU
100
AcDbMText
 10
86.66986445244353
 20
98.26410835185464
 30
0.0
 40
3.0
 41
0.0
 71
     5
 72
     5
  1
\A1;60
 11
0.0000000000000001
 21
1.0
 31
0.0
 73
     1
 44
1.0
1001
ACAD
1000
MTEXTBEGIN
1070
    73
1070
     1
1070
    44
1040
1.0
1070
    74
1070
     0
1000
MTEXTEND
1000
MTEXTBEGIN
1070
    73
1070
     1
1070
    44
1040
1.0
1070
    74
1070
     0
1000
MTEXTEND
1000
MTEXTBEGIN
1070
    73
1070
     1
1070
    44
1040
1.0
1070
    74
1070
     0
1000
MTEXTEND
1000
MTEXTBEGIN
1070
    73
1070
     1
1070
    44
1040
1.0
1070
    74
1070
     0
1000
MTEXTEND
1000
MTEXTBEGIN
1070
    73
1070
     1
1070
    44
1040
1.0
1070
    74
1070
     0
1000
MTEXTEND
1000
MTEXTBEGIN
1070
    73
1070
     1
1070
    44
1040
1.0
1070
    74
1070
     0
1000
MTEXTEND
  0
POINT
  5
8032
330
7DD6
100
AcDbEntity
  8
DEFPOINTS
 62
     0
100
AcDbPoint
 10
121.9839899295059
 20
68.19762169334488
 30
0.0
  0
POINT
  5
8033
330
7DD6
100
AcDbEntity
  8
DEFPOINTS
 62
     0
100
AcDbPoint
 10
145.03919854997
 20
128.3305950103643
 30
0.0
  0
POINT
  5
8034
330
7DD6
100
AcDbEntity
  8
DEFPOINTS
 62
     0
100
AcDbPoint
 10
89.66986445244357
 20
128.3305950103643
 30
0.0
  0
ENDBLK
  5
7DD8
330
7DD6
100
AcDbEntity
  8
0
100
AcDbBlockEnd
  0
BLOCK
  5
7DE4
330
7DE3
100
AcDbEntity
  8
0
100
AcDbBlockBegin
  2
*D8
 70
     1
 10
0.0
 20
0.0
 30
0.0
  3
*D8
  1

  0
LINE
  5
8011
330
7DE3
100
AcDbEntity
  8
SUNPOU
100
AcDbLine
 10
122.0891980482414
 20
66.69762072517835
 30
0.0
 11
122.0891980482414
 21
48.26794047054568
 31
0.0
  0
LINE
  5
8012
330
7DE3
100
AcDbEntity
  8
SUNPOU
100
AcDbLine
 10
167.6963047800863
 20
66.6976218923105
 30
0.0
 11
167.6963047800863
 21
48.26794047054568
 31
0.0
  0
LINE
  5
8013
330
7DE3
100
AcDbEntity
  8
SUNPOU
100
AcDbLine
 10
125.0891980482414
 20
49.76794047054568
 30
0.0
 11
164.6963047800863
 21
49.76794047054568
 31
0.0
  0
INSERT
  5
8014
330
7DE3
100
AcDbEntity
  8
SUNPOU
100
AcDbBlockReference
  2
_OPEN
 10
122.0891980482414
 20
49.76794047054568
 30
0.0
 41
3.0
 42
3.0
 43
3.0
 50
180.0
  0
INSERT
  5
8015
330
7DE3
100
AcDbEntity
  8
SUNPOU
100
AcDbBlockReference
  2
_OPEN
 10
167.6963047800863
 20
49.76794047054568
 30
0.0
 41
3.0
 42
3.0
 43
3.0
  0
MTEXT
  5
8016
330
7DE3
100
AcDbEntity
  8
SUNPOU
100
AcDbMText
 10
144.8927514141639
 20
52.76794047054568
 30
0.0
 40
3.0
 41
0.0
 71
     5
 72
     5
  1
\A1;\U+25A146
 73
     1
 44
1.0
1001
ACAD
1000
MTEXTBEGIN
1070
    73
1070
     1
1070
    44
1040
1.0
1070
    74
1070
     0
1000
MTEXTEND
1000
MTEXTBEGIN
1070
    73
1070
     1
1070
    44
1040
1.0
1070
    74
1070
     0
1000
MTEXTEND
1000
MTEXTBEGIN
1070
    73
1070
     1
1070
    44
1040
1.0
1070
    74
1070
     0
1000
MTEXTEND
1000
MTEXTBEGIN
1070
    73
1070
     1
1070
    44
1040
1.0
1070
    74
1070
     0
1000
MTEXTEND
1000
MTEXTBEGIN
1070
    73
1070
     1
1070
    44
1040
1.0
1070
    74
1070
     0
1000
MTEXTEND
1000
MTEXTBEGIN
1070
    73
1070
     1
1070
    44
1040
1.0
1070
    74
1070
     0
1000
MTEXTEND
  0
POINT
  5
8017
330
7DE3
100
AcDbEntity
  8
DEFPOINTS
 62
     0
100
AcDbPoint
 10
122.0891980482414
 20
68.19762072517836
 30
0.0
  0
POINT
  5
8018
330
7DE3
100
AcDbEntity
  8
DEFPOINTS
 62
     0
100
AcDbPoint
 10
167.6963047800863
 20
68.19762189231051
 30
0.0
  0
POINT
  5
8019
330
7DE3
100
AcDbEntity
  8
DEFPOINTS
 62
     0
100
AcDbPoint
 10
167.6963047800863
 20
49.76794047054568
 30
0.0
  0
ENDBLK
  5
7DE5
330
7DE3
100
AcDbEntity
  8
0
100
AcDbBlockEnd
  0
BLOCK
  5
7DF1
330
7DF0
100
AcDbEntity
  8
0
100
AcDbBlockBegin
  2
*D9
 70
     1
 10
0.0
 20
0.0
 30
0.0
  3
*D9
  1

  0
LINE
  5
8008
330
7DF0
100
AcDbEntity
  8
SUNPOU
100
AcDbLine
 10
237.763409024767
 20
66.90696764726709
 30
0.0
 11
237.763409024767
 21
48.26794047054568
 31
0.0
  0
LINE
  5
8009
330
7DF0
100
AcDbEntity
  8
SUNPOU
100
AcDbLine
 10
283.6634074214025
 20
66.90696764726829
 30
0.0
 11
283.6634074214025
 21
48.26794047054568
 31
0.0
  0
LINE
  5
800A
330
7DF0
100
AcDbEntity
  8
SUNPOU
100
AcDbLine
 10
240.763409024767
 20
49.76794047054568
 30
0.0
 11
280.6634074214025
 21
49.76794047054568
 31
0.0
  0
INSERT
  5
800B
330
7DF0
100
AcDbEntity
  8
SUNPOU
100
AcDbBlockReference
  2
_OPEN
 10
237.763409024767
 20
49.76794047054568
 30
0.0
 41
3.0
 42
3.0
 43
3.0
 50
180.0
  0
INSERT
  5
800C
330
7DF0
100
AcDbEntity
  8
SUNPOU
100
AcDbBlockReference
  2
_OPEN
 10
283.6634074214025
 20
49.76794047054568
 30
0.0
 41
3.0
 42
3.0
 43
3.0
  0
MTEXT
  5
800D
330
7DF0
100
AcDbEntity
  8
SUNPOU
100
AcDbMText
 10
260.7134082230848
 20
52.76794047054568
 30
0.0
 40
3.0
 41
0.0
 71
     5
 72
     5
  1
\A1;\U+25A146
 73
     1
 44
1.0
1001
ACAD
1000
MTEXTBEGIN
1070
    73
1070
     1
1070
    44
1040
1.0
1070
    74
1070
     0
1000
MTEXTEND
1000
MTEXTBEGIN
1070
    73
1070
     1
1070
    44
1040
1.0
1070
    74
1070
     0
1000
MTEXTEND
1000
MTEXTBEGIN
1070
    73
1070
     1
1070
    44
1040
1.0
1070
    74
1070
     0
1000
MTEXTEND
1000
MTEXTBEGIN
1070
    73
1070
     1
1070
    44
1040
1.0
1070
    74
1070
     0
1000
MTEXTEND
1000
MTEXTBEGIN
1070
    73
1070
     1
1070
    44
1040
1.0
1070
    74
1070
     0
1000
MTEXTEND
1000
MTEXTBEGIN
1070
    73
1070
     1
1070
    44
1040
1.0
1070
    74
1070
     0
1000
MTEXTEND
  0
POINT
  5
800E
330
7DF0
100
AcDbEntity
  8
DEFPOINTS
 62
     0
100
AcDbPoint
 10
237.763409024767
 20
68.40696764726709
 30
0.0
  0
POINT
  5
800F
330
7DF0
100
AcDbEntity
  8
DEFPOINTS
 62
     0
100
AcDbPoint
 10
283.6634074214025
 20
68.40696764726828
 30
0.0
  0
POINT
  5
8010
330
7DF0
100
AcDbEntity
  8
DEFPOINTS
 62
     0
100
AcDbPoint
 10
283.6634074214025
 20
49.76794047054568
 30
0.0
  0
ENDBLK
  5
7DF2
330
7DF0
100
AcDbEntity
  8
0
100
AcDbBlockEnd
  0
BLOCK
  5
7EF5
330
7EEB
100
AcDbEntity
  8
0
100
AcDbBlockBegin
  2
*D10
 70
     1
 10
0.0
 20
0.0
 30
0.0
  3
*D10
  1

  0
LINE
  5
801A
330
7EEB
100
AcDbEntity
  8
SUNPOU
100
AcDbLine
 10
119.6300372357907
 20
93.19762123365592
 30
0.0
 11
101.9792286090653
 21
93.19762123365592
 31
0.0
  0
LINE
  5
801B
330
7EEB
100
AcDbEntity
  8
SUNPOU
100
AcDbLine
 10
119.6300372357907
 20
68.19762123365592
 30
0.0
 11
101.9792286090653
 21
68.19762123365592
 31
0.0
  0
LINE
  5
801C
330
7EEB
100
AcDbEntity
  8
SUNPOU
100
AcDbLine
 10
103.4792286090653
 20
90.19762123365593
 30
0.0
 11
103.4792286090653
 21
71.19762123365592
 31
0.0
  0
INSERT
  5
801D
330
7EEB
100
AcDbEntity
  8
SUNPOU
100
AcDbBlockReference
  2
_OPEN
 10
103.4792286090653
 20
93.19762123365592
 30
0.0
 41
3.0
 42
3.0
 43
3.0
 50
90.0
  0
INSERT
  5
801E
330
7EEB
100
AcDbEntity
  8
SUNPOU
100
AcDbBlockReference
  2
_OPEN
 10
103.4792286090653
 20
68.19762123365592
 30
0.0
 41
3.0
 42
3.0
 43
3.0
 50
270.0
  0
MTEXT
  5
801F
330
7EEB
100
AcDbEntity
  8
SUNPOU
100
AcDbMText
 10
100.4792286090653
 20
80.69762123365595
 30
0.0
 40
3.0
 41
0.0
 71
     5
 72
     5
  1
\A1;※ 25
 11
0.0000000000000001
 21
1.0
 31
0.0
 73
     1
 44
1.0
1001
ACAD
1000
MTEXTBEGIN
1070
    73
1070
     1
1070
    44
1040
1.0
1070
    74
1070
     0
1000
MTEXTEND
1000
MTEXTBEGIN
1070
    73
1070
     1
1070
    44
1040
1.0
1070
    74
1070
     0
1000
MTEXTEND
1000
MTEXTBEGIN
1070
    73
1070
     1
1070
    44
1040
1.0
1070
    74
1070
     0
1000
MTEXTEND
1000
MTEXTBEGIN
1070
    73
1070
     1
1070
    44
1040
1.0
1070
    74
1070
     0
1000
MTEXTEND
1000
MTEXTBEGIN
1070
    73
1070
     1
1070
    44
1040
1.0
1070
    74
1070
     0
1000
MTEXTEND
1000
MTEXTBEGIN
1070
    73
1070
     1
1070
    44
1040
1.0
1070
    74
1070
     0
1000
MTEXTEND
  0
POINT
  5
8020
330
7EEB
100
AcDbEntity
  8
DEFPOINTS
 62
     0
100
AcDbPoint
 10
121.1300372357907
 20
93.19762123365592
 30
0.0
  0
POINT
  5
8021
330
7EEB
100
AcDbEntity
  8
DEFPOINTS
 62
     0
100
AcDbPoint
 10
121.1300372357907
 20
68.19762123365592
 30
0.0
  0
POINT
  5
8022
330
7EEB
100
AcDbEntity
  8
DEFPOINTS
 62
     0
100
AcDbPoint
 10
103.4792286090653
 20
68.19762123365592
 30
0.0
  0
ENDBLK
  5
7EF6
330
7EEB
100
AcDbEntity
  8
0
100
AcDbBlockEnd
  0
BLOCK
  5
80A7
330
809D
100
AcDbEntity
  8
0
100
AcDbBlockBegin
  2
*D11
 70
     1
 10
0.0
 20
0.0
 30
0.0
  3
*D11
  1

  0
LINE
  5
80B2
330
809D
100
AcDbEntity
  8
SUNPOU
100
AcDbLine
 10
239.3634081694408
 20
148.9763713049666
 30
0.0
 11
239.3634081694408
 21
174.6605282555219
 31
0.0
  0
LINE
  5
80B3
330
809D
100
AcDbEntity
  8
SUNPOU
100
AcDbLine
 10
282.0634082767292
 20
148.9763713049666
 30
0.0
 11
282.0634082767292
 21
174.6605282555219
 31
0.0
  0
LINE
  5
80B4
330
809D
100
AcDbEntity
  8
SUNPOU
100
AcDbLine
 10
242.3634081694408
 20
173.1605282555219
 30
0.0
 11
279.0634082767291
 21
173.1605282555219
 31
0.0
  0
INSERT
  5
80B5
330
809D
100
AcDbEntity
  8
SUNPOU
100
AcDbBlockReference
  2
_OPEN
 10
239.3634081694408
 20
173.1605282555219
 30
0.0
 41
3.0
 42
3.0
 43
3.0
 50
180.0
  0
INSERT
  5
80B6
330
809D
100
AcDbEntity
  8
SUNPOU
100
AcDbBlockReference
  2
_OPEN
 10
282.0634082767292
 20
173.1605282555219
 30
0.0
 41
3.0
 42
3.0
 43
3.0
  0
MTEXT
  5
80B7
330
809D
100
AcDbEntity
  8
SUNPOU
100
AcDbMText
 10
260.713408223085
 20
176.1605282555219
 30
0.0
 40
3.0
 41
0.0
 71
     5
 72
     5
  1
\A1;\U+25A143
 73
     1
 44
1.0
1001
ACAD
1000
MTEXTBEGIN
1070
    73
1070
     1
1070
    44
1040
1.0
1070
    74
1070
     0
1000
MTEXTEND
1000
MTEXTBEGIN
1070
    73
1070
     1
1070
    44
1040
1.0
1070
    74
1070
     0
1000
MTEXTEND
1000
MTEXTBEGIN
1070
    73
1070
     1
1070
    44
1040
1.0
1070
    74
1070
     0
1000
MTEXTEND
1000
MTEXTBEGIN
1070
    73
1070
     1
1070
    44
1040
1.0
1070
    74
1070
     0
1000
MTEXTEND
1000
MTEXTBEGIN
1070
    73
1070
     1
1070
    44
1040
1.0
1070
    74
1070
     0
1000
MTEXTEND
  0
POINT
  5
80B8
330
809D
100
AcDbEntity
  8
DEFPOINTS
 62
     0
100
AcDbPoint
 10
239.3634081694408
 20
147.4763713049666
 30
0.0
  0
POINT
  5
80B9
330
809D
100
AcDbEntity
  8
DEFPOINTS
 62
     0
100
AcDbPoint
 10
282.0634082767292
 20
147.4763713049666
 30
0.0
  0
POINT
  5
80BA
330
809D
100
AcDbEntity
  8
DEFPOINTS
 62
     0
100
AcDbPoint
 10
282.0634082767292
 20
173.1605282555219
 30
0.0
  0
ENDBLK
  5
80A8
330
809D
100
AcDbEntity
  8
0
100
AcDbBlockEnd
  0
ENDSEC
  0
SECTION
  2
ENTITIES
  0
LWPOLYLINE
  5
D87
330
1A
100
AcDbEntity
  8
ZUWAKU
100
AcDbPolyline
 90
        4
 70
     1
 43
0.0
 10
0.4000004316886816
 20
275.4000000752883
 10
0.4000004316886816
 20
0.4000000752883466
 10
398.4000004316886
 20
0.4000000752883466
 10
398.4000004316886
 20
275.4000000752883
  0
LWPOLYLINE
  5
D88
330
1A
100
AcDbEntity
  8
ZUWAKU
100
AcDbPolyline
 90
        4
 70
     1
 43
0.0
 10
0.200000431688693
 20
275.6000000752883
 10
0.200000431688693
 20
0.2000000752883579
 10
398.6000004316887
 20
0.2000000752883464
 10
398.6000004316887
 20
275.6000000752883
  0
LWPOLYLINE
  5
D89
330
1A
100
AcDbEntity
  8
ZUWAKU
100
AcDbPolyline
 90
        4
 70
     1
 43
0.0
 10
0.0000004316887043
 20
275.8000000752883
 10
0.0000004316887043
 20
0.0000000752883125
 10
398.8000004316887
 20
0.0000000752883462
 10
398.8000004316887
 20
275.8000000752883
  0
LWPOLYLINE
  5
D8A
330
1A
100
AcDbEntity
  8
ZUWAKU
100
AcDbPolyline
 90
        4
 70
     1
 43
0.0
 10
0.3000004316886589
 20
275.5000000752883
 10
0.3000004316886589
 20
0.3000000752883238
 10
398.5000004316887
 20
0.3000000752883469
 10
398.5000004316887
 20
275.5000000752883
  0
LWPOLYLINE
  5
D8B
330
1A
100
AcDbEntity
  8
ZUWAKU
100
AcDbPolyline
 90
        4
 70
     1
 43
0.0
 10
0.1000004316886702
 20
275.7000000752883
 10
0.1000004316886702
 20
0.1000000752883352
 10
398.7000004316886
 20
0.1000000752883468
 10
398.7000004316887
 20
275.7000000752883
  0
LINE
  5
D8C
330
1A
100
AcDbEntity
  8
ZUWAKU
100
AcDbLine
 10
0.0000004316887043
 20
15.00000007528831
 30
0.0
 11
398.7000004316886
 21
15.00000007528831
 31
0.0
  0
LINE
  5
D8D
330
1A
100
AcDbEntity
  8
ZUWAKU
100
AcDbLine
 10
0.0000004316887043
 20
15.10000007528831
 30
0.0
 11
398.7000004316886
 21
15.10000007528831
 31
0.0
  0
LINE
  5
D8E
330
1A
100
AcDbEntity
  8
ZUWAKU
100
AcDbLine
 10
0.0000004316887043
 20
15.20000007528831
 30
0.0
 11
398.7000004316886
 21
15.20000007528831
 31
0.0
  0
LINE
  5
D8F
330
1A
100
AcDbEntity
  8
ZUWAKU
100
AcDbLine
 10
0.0000004316887043
 20
15.30000007528831
 30
0.0
 11
398.7000004316886
 21
15.30000007528831
 31
0.0
  0
LINE
  5
D90
330
1A
100
AcDbEntity
  8
ZUWAKU
100
AcDbLine
 10
0.0000004316887043
 20
15.40000007528831
 30
0.0
 11
398.7000004316886
 21
15.40000007528831
 31
0.0
  0
LINE
  5
D91
330
1A
100
AcDbEntity
  8
ZUWAKU
100
AcDbLine
 10
104.3233010767227
 20
7.700000075288329
 30
0.0
 11
223.7121824171844
 21
7.700000075288329
 31
0.0
  0
LINE
  5
D92
330
1A
100
AcDbEntity
  8
ZUWAKU
100
AcDbLine
 10
104.3233010767227
 20
7.800000075288329
 30
0.0
 11
223.7121824171844
 21
7.800000075288332
 31
0.0
  0
LINE
  5
D93
330
1A
100
AcDbEntity
  8
ZUWAKU
100
AcDbLine
 10
104.3233010767227
 20
7.600000075288331
 30
0.0
 11
223.7121824171844
 21
7.600000075288328
 31
0.0
  0
TEXT
  5
D94
330
1A
100
AcDbEntity
  8
moji
100
AcDbText
 10
44.02495660037118
 20
6.760517754256795
 30
0.0
 40
3.0
  1
たてとい ユニシェイプ ＵＳＴ４２
 41
0.9
  7
MSｺﾞｼｯｸ
100
AcDbText
  0
CIRCLE
  5
D95
330
1A
100
AcDbEntity
  8
ZUWAKU
100
AcDbCircle
 10
12.99610650907925
 20
7.600000075288313
 30
0.0
 40
0.875
  0
LINE
  5
D96
330
1A
100
AcDbEntity
  8
ZUWAKU
100
AcDbLine
 10
13.43360650907925
 20
3.575000075288315
 30
0.0
 11
12.47110650907927
 21
3.575000075288315
 31
0.0
  0
LINE
  5
D97
330
1A
100
AcDbEntity
  8
ZUWAKU
100
AcDbLine
 10
12.47110650907927
 20
4.975000075288313
 30
0.0
 11
13.43360650907925
 21
4.975000075288313
 31
0.0
  0
LINE
  5
D98
330
1A
100
AcDbEntity
  8
ZUWAKU
100
AcDbLine
 10
13.43360650907925
 20
10.22500007528831
 30
0.0
 11
12.47110650907927
 21
10.22500007528831
 31
0.0
  0
LINE
  5
D99
330
1A
100
AcDbEntity
  8
ZUWAKU
100
AcDbLine
 10
12.47110650907927
 20
11.62500007528829
 30
0.0
 11
13.43360650907925
 21
11.62500007528831
 31
0.0
  0
INSERT
  5
D9A
330
1A
100
AcDbEntity
  8
ZUWAKU
  6
Continuous
100
AcDbBlockReference
  2
*X1
 10
0.0
 20
0.0
 30
0.0
1001
ACAD
1000
HATCH
1002
{
1070
    19
1000
ANSI37
1040
0.1
1040
0.0
1000
R14_HATCH_DATA
1000
D9A
1011
1.0
1021
0.0
1031
0.0
1011
0.0
1021
1.0
1031
0.0
1011
0.0
1021
0.0
1031
1.0
1040
0.0
1010
0.0
1020
0.0
1030
1.0
1000
ANSI37
1070
     0
1070
     0
1071
        8
1071
        7
1070
     1
1070
     1
1071
       24
1040
7.251131762248633
1040
8.822424315780104
1040
-0.1989123673796348
1040
7.046106509079265
1040
9.317399062610629
1040
0.0
1040
7.046106509079265
1040
9.962500075288318
1040
-0.4142135623730912
1040
7.308606509079254
1040
10.22500007528831
1040
0.0
1040
8.796106509079208
1040
10.22500007528831
1040
0.4142135623731546
1040
9.058606509079254
1040
10.4875000752883
1040
0.0
1040
9.058606509079254
1040
11.36250007528831
1040
0.4142135623731586
1040
8.796106509079208
1040
11.62500007528831
1040
0.0
1040
7.046106509079265
1040
11.62500007528831
1040
0.4142135623730928
1040
5.646106509079288
1040
10.22500007528832
1040
0.0
1040
5.646106509079288
1040
9.317399062610693
1040
0.1989123673796619
1040
6.261182268587504
1040
7.832474822118889
1040
0.0
1040
7.716081255909841
1040
6.37757583479656
1040
-0.1989123673796613
1040
7.921106509079265
1040
5.882601087965968
1040
0.0
1040
7.921106509079265
1040
5.237500075288309
1040
-0.4142135623730911
1040
7.658606509079277
1040
4.975000075288313
1040
0.0
1040
6.171106509079322
1040
4.975000075288313
1040
0.4142135623731526
1040
5.908606509079277
1040
4.712500075288319
1040
0.0
1040
5.908606509079277
1040
3.837500075288309
1040
0.4142135623731526
1040
6.171106509079322
1040
3.575000075288315
1040
0.0
1040
7.921106509079265
1040
3.575000075288315
1040
0.4142135623731044
1040
9.321106509079299
1040
4.975000075288303
1040
0.0
1040
9.321106509079299
1040
5.882601087965939
1040
0.1989123673796604
1040
8.706030749571027
1040
7.367525328457709
1040
0.0
1071
        0
1071
        7
1070
     1
1070
     1
1071
       16
1040
11.77110650907928
1040
9.525000075288318
1040
-0.4142135623730935
1040
12.47110650907927
1040
10.22500007528831
1040
0.0
1040
13.43360650907925
1040
10.22500007528831
1040
0.4142135623731546
1040
13.69610650907929
1040
10.4875000752883
1040
0.0
1040
13.69610650907929
1040
11.36250007528831
1040
0.4142135623730951
1040
13.43360650907931
1040
11.62500007528831
1040
0.0
1040
12.47110650907922
1040
11.62500007528829
1040
0.4142135623730892
1040
10.37110650907925
1040
9.525000075288282
1040
0.0
1040
10.37110650907925
1040
5.675000075288327
1040
0.4142135623730969
1040
12.47110650907927
1040
3.575000075288315
1040
0.0
1040
13.43360650907925
1040
3.575000075288315
1040
0.4142135623731526
1040
13.69610650907929
1040
3.837500075288309
1040
0.0
1040
13.69610650907929
1040
4.712500075288319
1040
0.4142135623730891
1040
13.43360650907931
1040
4.975000075288313
1040
0.0
1040
12.47110650907927
1040
4.975000075288313
1040
-0.4142135623730928
1040
11.77110650907928
1040
5.675000075288307
1040
0.0
1071
        0
1071
        7
1070
     1
1070
     1
1071
        2
1040
12.12110650907925
1040
7.600000075288313
1040
1.0
1040
13.87110650907925
1040
7.600000075288313
1040
1.0
1071
        0
1071
        7
1070
     1
1070
     1
1071
       26
1040
18.65742975016826
1040
9.602523672070027
1040
0.0
1040
19.18824956673716
1040
11.28345309120482
1040
0.5069206636600134
1040
18.93793411713949
1040
11.62500007528831
1040
0.0
1040
18.08848942733487
1040
11.62500007528831
1040
0.3272098845218764
1040
17.83817397773719
1040
11.44154705937179
1040
0.0
1040
16.9040390404213
1040
8.483453091204854
1040
-0.3272098845219541
1040
16.65372359082357
1040
8.300000075288313
1040
0.0
1040
16.58360650907934
1040
8.300000075288313
1040
-0.4142135623731526
1040
16.3211065090793
1040
8.562500075288307
1040
0.0
1040
16.3211065090793
1040
11.36250007528831
1040
0.4142135623730951
1040
16.05860650907931
1040
11.62500007528831
1040
0.0
1040
15.18360650907925
1040
11.62500007528831
1040
0.4142135623730871
1040
14.92110650907926
1040
11.36250007528832
1040
0.0
1040
14.92110650907926
1040
3.837500075288309
1040
0.4142135623730891
1040
15.18360650907925
1040
3.575000075288315
1040
0.0
1040
16.05860650907925
1040
3.575000075288315
1040
0.4142135623731526
1040
16.3211065090793
1040
3.837500075288309
1040
0.0
1040
16.3211065090793
1040
6.63750007528832
1040
-0.4142135623731526
1040
16.58360650907934
1040
6.900000075288314
1040
0.0
1040
16.65372359082363
1040
6.900000075288314
1040
-0.3272098845218915
1040
16.9040390404213
1040
6.716547059371777
1040
0.0
1040
17.83817397773719
1040
3.758453091204851
1040
0.3272098845218902
1040
18.08848942733487
1040
3.575000075288315
1040
0.0
1040
18.93793411713949
1040
3.575000075288315
1040
0.5069206636600335
1040
19.18824956673716
1040
3.916547059371819
1040
0.0
1040
18.02505387750034
1040
7.600000075288383
1040
0.0
1071
        0
1071
        7
1070
     1
1070
     1
1071
        8
1040
21.74610650907925
1040
11.36250007528831
1040
0.4142135623731546
1040
21.48360650907921
1040
11.62500007528831
1040
0.0
1040
20.60860650907932
1040
11.62500007528831
1040
0.4142135623731507
1040
20.34610650907927
1040
11.36250007528832
1040
0.0
1040
20.34610650907927
1040
3.837500075288309
1040
0.4142135623731526
1040
20.60860650907932
1040
3.575000075288315
1040
0.0
1040
21.48360650907921
1040
3.575000075288315
1040
0.4142135623731526
1040
21.74610650907925
1040
3.837500075288309
1040
0.0
1071
        0
1071
        7
1070
     1
1070
     1
1071
       24
1040
24.1961065090793
1040
9.962500075288318
1040
-0.4142135623731546
1040
24.45860650907934
1040
10.22500007528831
1040
0.0
1040
25.9461065090793
1040
10.22500007528831
1040
0.4142135623730911
1040
26.20860650907928
1040
10.4875000752883
1040
0.0
1040
26.20860650907928
1040
11.36250007528831
1040
0.4142135623730952
1040
25.9461065090793
1040
11.62500007528831
1040
0.0
1040
24.1961065090793
1040
11.62500007528831
1040
0.4142135623731048
1040
22.79610650907926
1040
10.22500007528832
1040
0.0
1040
22.79610650907926
1040
9.317399062610693
1040
0.1989123673796613
1040
23.41118226858753
1040
7.832474822118918
1040
0.0
1040
24.86608125590987
1040
6.377575834796584
1040
-0.1989123673796402
1040
25.0711065090793
1040
5.882601087966047
1040
0.0
1040
25.0711065090793
1040
5.237500075288309
1040
-0.4142135623730911
1040
24.80860650907931
1040
4.975000075288313
1040
0.0
1040
23.32110650907929
1040
4.975000075288313
1040
0.4142135623731526
1040
23.05860650907925
1040
4.712500075288319
1040
0.0
1040
23.05860650907925
1040
3.837500075288309
1040
0.4142135623730891
1040
23.32110650907924
1040
3.575000075288315
1040
0.0
1040
25.0711065090793
1040
3.575000075288315
1040
0.4142135623730925
1040
26.47110650907928
1040
4.975000075288303
1040
0.0
1040
26.47110650907928
1040
5.882601087965939
1040
0.1989123673796675
1040
25.856030749571
1040
7.367525328457766
1040
0.0
1040
24.40113176224872
1040
8.822424315780024
1040
-0.1989123673796652
1040
24.1961065090793
1040
9.317399062610608
1040
0.0
1071
        0
1071
        7
1070
     1
1070
     1
1071
       16
1040
28.92110650907926
1040
11.36250007528831
1040
0.414213562373103
1040
28.65860650907928
1040
11.62500007528831
1040
0.0
1040
27.78360650907927
1040
11.62500007528831
1040
0.4142135623730871
1040
27.52110650907928
1040
11.36250007528832
1040
0.0
1040
27.52110650907928
1040
4.975000075288303
1040
0.4142135623730926
1040
28.92110650907926
1040
3.575000075288315
1040
0.0
1040
30.67110650907926
1040
3.575000075288315
1040
0.4142135623731044
1040
32.0711065090793
1040
4.975000075288303
1040
0.0
1040
32.0711065090793
1040
11.36250007528831
1040
0.4142135623730951
1040
31.80860650907931
1040
11.62500007528831
1040
0.0
1040
30.93360650907925
1040
11.62500007528831
1040
0.4142135623730871
1040
30.67110650907926
1040
11.36250007528832
1040
0.0
1040
30.67110650907926
1040
5.500000075288301
1040
-0.414213562373088
1040
30.14610650907929
1040
4.975000075288313
1040
0.0
1040
29.4461065090793
1040
4.975000075288313
1040
-0.4142135623731197
1040
28.92110650907926
1040
5.500000075288301
1040
0.0
1071
        0
1071
        7
1070
     1
1070
     1
1071
        8
1040
34.52110650907929
1040
11.36250007528832
1040
0.4142135623730871
1040
34.2586065090793
1040
11.62500007528831
1040
0.0
1040
33.38360650907929
1040
11.62500007528831
1040
0.4142135623731507
1040
33.12110650907925
1040
11.36250007528832
1040
0.0
1040
33.12110650907925
1040
3.837500075288309
1040
0.4142135623730891
1040
33.38360650907924
1040
3.575000075288315
1040
0.0
1040
34.2586065090793
1040
3.575000075288315
1040
0.4142135623730891
1040
34.52110650907929
1040
3.837500075288309
1040
0.0
1071
        0
1070
     0
1070
     1
1040
0.0
1040
0.1
1070
     0
1070
     2
1040
0.7853981633974483
1040
-450.4711517356508
1040
-6.599999924711653
1040
-0.2245064030267288
1040
0.2245064030267288
1070
     0
1040
2.356194490192344
1040
-450.4711517356508
1040
-6.599999924711653
1040
-0.2245064030267288
1040
-0.2245064030267288
1070
     0
1040
0.057451373970553
1071
        8
1040
8.039927913200358
1040
7.583586898231089
1040
0.0
1040
11.20225793490828
1040
9.422031166513818
1040
0.0
1040
12.58218437451853
1040
7.755940898323672
1040
0.0
1040
15.45703042250727
1040
8.100648898509064
1040
0.0
1040
20.91923644116707
1040
8.330455032279871
1040
0.0
1040
23.44910087925347
1040
9.709288233491918
1040
0.0
1040
28.27884341788887
1040
9.36457903283582
1040
0.0
1040
33.91354024150007
1040
9.594385166606627
1040
0.0
1002
}
  0
ARC
  5
D9B
330
1A
100
AcDbEntity
  8
ZUWAKU
100
AcDbCircle
 10
7.746106509079254
 20
9.317399062610665
 30
0.0
 40
2.099999999999999
100
AcDbArc
 50
180.0
 51
225.0
  0
LINE
  5
D9C
330
1A
100
AcDbEntity
  8
ZUWAKU
100
AcDbLine
 10
10.37110650907925
 20
5.675000075288316
 30
0.0
 11
10.37110650907925
 21
9.525000075288293
 31
0.0
  0
LINE
  5
D9D
330
1A
100
AcDbEntity
  8
ZUWAKU
100
AcDbLine
 10
11.77110650907928
 20
9.525000075288314
 30
0.0
 11
11.77110650907928
 21
5.675000075288316
 31
0.0
  0
ARC
  5
D9E
330
1A
100
AcDbEntity
  8
ZUWAKU
100
AcDbCircle
 10
7.746106509079254
 20
9.317399062610665
 30
0.0
 40
0.7
100
AcDbArc
 50
180.0000000000016
 51
224.9999999999988
  0
ARC
  5
D9F
330
1A
100
AcDbEntity
  8
ZUWAKU
100
AcDbCircle
 10
12.47110650907927
 20
5.675000075288316
 30
0.0
 40
2.099999999999999
100
AcDbArc
 50
180.0
 51
270.0
  0
ARC
  5
DA0
330
1A
100
AcDbEntity
  8
ZUWAKU
100
AcDbCircle
 10
7.921106509079265
 20
4.975000075288313
 30
0.0
 40
1.399999999999999
100
AcDbArc
 50
270.0
 51
0.0
  0
ARC
  5
DA1
330
1A
100
AcDbEntity
  8
ZUWAKU
100
AcDbCircle
 10
7.221106509079277
 20
5.882601087965966
 30
0.0
 40
2.099999999999999
100
AcDbArc
 50
0.0
 51
45.0
  0
LINE
  5
DA2
330
1A
100
AcDbEntity
  8
ZUWAKU
100
AcDbLine
 10
6.261182268587504
 20
7.832474822118904
 30
0.0
 11
7.716081255909841
 21
6.377575834796573
 31
0.0
  0
LINE
  5
DA3
330
1A
100
AcDbEntity
  8
ZUWAKU
100
AcDbLine
 10
6.171106509079265
 20
4.975000075288313
 30
0.0
 11
7.658606509079277
 21
4.975000075288313
 31
0.0
  0
LINE
  5
DA4
330
1A
100
AcDbEntity
  8
ZUWAKU
100
AcDbLine
 10
6.171106509079265
 20
3.575000075288315
 30
0.0
 11
7.921106509079265
 21
3.575000075288315
 31
0.0
  0
ARC
  5
DA5
330
1A
100
AcDbEntity
  8
ZUWAKU
100
AcDbCircle
 10
6.171106509079265
 20
4.712500075288314
 30
0.0
 40
0.2625
100
AcDbArc
 50
90.0
 51
180.0
  0
ARC
  5
DA6
330
1A
100
AcDbEntity
  8
ZUWAKU
100
AcDbCircle
 10
6.171106509079265
 20
3.837500075288314
 30
0.0
 40
0.2625
100
AcDbArc
 50
180.0
 51
270.0
  0
LINE
  5
DA7
330
1A
100
AcDbEntity
  8
ZUWAKU
100
AcDbLine
 10
5.908606509079277
 20
3.837500075288314
 30
0.0
 11
5.908606509079277
 21
4.712500075288314
 31
0.0
  0
ARC
  5
DA8
330
1A
100
AcDbEntity
  8
ZUWAKU
100
AcDbCircle
 10
7.221106509079277
 20
5.882601087965987
 30
0.0
 40
0.7
100
AcDbArc
 50
0.0
 51
45.0
  0
ARC
  5
DA9
330
1A
100
AcDbEntity
  8
ZUWAKU
100
AcDbCircle
 10
7.658606509079277
 20
5.237500075288316
 30
0.0
 40
0.2625
100
AcDbArc
 50
270.0
 51
0.0
  0
LINE
  5
DAA
330
1A
100
AcDbEntity
  8
ZUWAKU
100
AcDbLine
 10
7.921106509079265
 20
5.237500075288316
 30
0.0
 11
7.921106509079265
 21
5.882601087965987
 31
0.0
  0
LINE
  5
DAB
330
1A
100
AcDbEntity
  8
ZUWAKU
100
AcDbLine
 10
8.706030749571027
 20
7.367525328457727
 30
0.0
 11
7.251131762248689
 21
8.822424315780065
 31
0.0
  0
ARC
  5
DAC
330
1A
100
AcDbEntity
  8
ZUWAKU
100
AcDbCircle
 10
12.47110650907927
 20
5.675000075288316
 30
0.0
 40
0.7
100
AcDbArc
 50
180.0
 51
270.0
  0
LINE
  5
DAD
330
1A
100
AcDbEntity
  8
ZUWAKU
100
AcDbLine
 10
9.321106509079299
 20
4.975000075288313
 30
0.0
 11
9.321106509079299
 21
5.882601087965987
 31
0.0
  0
ARC
  5
DAE
330
1A
100
AcDbEntity
  8
ZUWAKU
100
AcDbCircle
 10
8.796106509079265
 20
10.48750007528831
 30
0.0
 40
0.2625
100
AcDbArc
 50
270.0
 51
0.0
  0
ARC
  5
DAF
330
1A
100
AcDbEntity
  8
ZUWAKU
100
AcDbCircle
 10
8.796106509079265
 20
11.36250007528831
 30
0.0
 40
0.2625
100
AcDbArc
 50
0.0
 51
90.0
  0
ARC
  5
DB0
330
1A
100
AcDbEntity
  8
ZUWAKU
100
AcDbCircle
 10
7.046106509079265
 20
10.22500007528831
 30
0.0
 40
1.399999999999999
100
AcDbArc
 50
90.0
 51
180.0
  0
LINE
  5
DB1
330
1A
100
AcDbEntity
  8
ZUWAKU
100
AcDbLine
 10
5.646106509079288
 20
10.22500007528831
 30
0.0
 11
5.646106509079288
 21
9.317399062610643
 31
0.0
  0
LINE
  5
DB2
330
1A
100
AcDbEntity
  8
ZUWAKU
100
AcDbLine
 10
8.796106509079265
 20
10.22500007528831
 30
0.0
 11
7.308606509079254
 21
10.22500007528831
 31
0.0
  0
LINE
  5
DB3
330
1A
100
AcDbEntity
  8
ZUWAKU
100
AcDbLine
 10
7.046106509079265
 20
9.962500075288314
 30
0.0
 11
7.046106509079265
 21
9.317399062610643
 31
0.0
  0
ARC
  5
DB4
330
1A
100
AcDbEntity
  8
ZUWAKU
100
AcDbCircle
 10
7.308606509079254
 20
9.962500075288314
 30
0.0
 40
0.2625
100
AcDbArc
 50
90.0
 51
180.0
  0
LINE
  5
DB5
330
1A
100
AcDbEntity
  8
ZUWAKU
100
AcDbLine
 10
7.046106509079265
 20
11.62500007528831
 30
0.0
 11
8.796106509079265
 21
11.62500007528831
 31
0.0
  0
ARC
  5
DB6
330
1A
100
AcDbEntity
  8
ZUWAKU
100
AcDbCircle
 10
12.47110650907927
 20
9.525000075288293
 30
0.0
 40
2.099999999999999
100
AcDbArc
 50
90.0
 51
180.0
  0
ARC
  5
DB7
330
1A
100
AcDbEntity
  8
ZUWAKU
100
AcDbCircle
 10
12.47110650907927
 20
9.525000075288314
 30
0.0
 40
0.7
100
AcDbArc
 50
90.0
 51
180.0
  0
LINE
  5
DB8
330
1A
100
AcDbEntity
  8
ZUWAKU
100
AcDbLine
 10
9.058606509079254
 20
11.36250007528831
 30
0.0
 11
9.058606509079254
 21
10.48750007528831
 31
0.0
  0
LINE
  5
DB9
330
1A
100
AcDbEntity
  8
ZUWAKU
100
AcDbLine
 10
17.83817397773719
 20
11.44154705937179
 30
0.0
 11
16.9040390404213
 21
8.483453091204829
 31
0.0
  0
LINE
  5
DBA
330
1A
100
AcDbEntity
  8
ZUWAKU
100
AcDbLine
 10
14.92110650907926
 20
11.36250007528831
 30
0.0
 11
14.92110650907926
 21
3.837500075288314
 31
0.0
  0
LINE
  5
DBB
330
1A
100
AcDbEntity
  8
ZUWAKU
100
AcDbLine
 10
16.3211065090793
 20
8.562500075288316
 30
0.0
 11
16.3211065090793
 21
11.36250007528831
 31
0.0
  0
LINE
  5
DBC
330
1A
100
AcDbEntity
  8
ZUWAKU
100
AcDbLine
 10
28.92110650907926
 20
5.500000075288312
 30
0.0
 11
28.92110650907926
 21
11.36250007528831
 31
0.0
  0
LINE
  5
DBD
330
1A
100
AcDbEntity
  8
ZUWAKU
100
AcDbLine
 10
27.52110650907928
 20
11.36250007528831
 30
0.0
 11
27.52110650907928
 21
4.975000075288313
 31
0.0
  0
LINE
  5
DBE
330
1A
100
AcDbEntity
  8
ZUWAKU
100
AcDbLine
 10
21.74610650907925
 20
3.837500075288314
 30
0.0
 11
21.74610650907925
 21
11.36250007528831
 31
0.0
  0
LINE
  5
DBF
330
1A
100
AcDbEntity
  8
ZUWAKU
100
AcDbLine
 10
20.34610650907927
 20
11.36250007528831
 30
0.0
 11
20.34610650907927
 21
3.837500075288314
 31
0.0
  0
LINE
  5
DC0
330
1A
100
AcDbEntity
  8
ZUWAKU
100
AcDbLine
 10
18.65742975016826
 20
9.602523672070027
 30
0.0
 11
18.02505387750034
 21
7.600000075288324
 31
0.0
  0
ARC
  5
DC1
330
1A
100
AcDbEntity
  8
ZUWAKU
100
AcDbCircle
 10
24.89610650907929
 20
9.317399062610665
 30
0.0
 40
2.099999999999999
100
AcDbArc
 50
180.0
 51
225.0
  0
ARC
  5
DC2
330
1A
100
AcDbEntity
  8
ZUWAKU
100
AcDbCircle
 10
24.89610650907929
 20
9.317399062610665
 30
0.0
 40
0.7
100
AcDbArc
 50
180.0000000000016
 51
224.9999999999988
  0
LINE
  5
DC3
330
1A
100
AcDbEntity
  8
ZUWAKU
100
AcDbLine
 10
33.12110650907925
 20
11.36250007528831
 30
0.0
 11
33.12110650907925
 21
3.837500075288314
 31
0.0
  0
LINE
  5
DC4
330
1A
100
AcDbEntity
  8
ZUWAKU
100
AcDbLine
 10
34.52110650907929
 20
3.837500075288314
 30
0.0
 11
34.52110650907929
 21
11.36250007528831
 31
0.0
  0
LINE
  5
DC5
330
1A
100
AcDbEntity
  8
ZUWAKU
100
AcDbLine
 10
30.67110650907926
 20
11.36250007528831
 30
0.0
 11
30.67110650907926
 21
5.500000075288312
 31
0.0
  0
LINE
  5
DC6
330
1A
100
AcDbEntity
  8
ZUWAKU
100
AcDbLine
 10
32.0711065090793
 20
4.975000075288313
 30
0.0
 11
32.0711065090793
 21
11.36250007528831
 31
0.0
  0
LINE
  5
DC7
330
1A
100
AcDbEntity
  8
ZUWAKU
100
AcDbLine
 10
39.56331520568289
 20
15.00000007528831
 30
0.0
 11
39.56331520568289
 21
0.4000000752883466
 31
0.0
  0
LINE
  5
DC8
330
1A
100
AcDbEntity
  8
ZUWAKU
100
AcDbLine
 10
39.76331520568283
 20
15.00000007528831
 30
0.0
 11
39.76331520568294
 21
0.4000000752883466
 31
0.0
  0
LINE
  5
DC9
330
1A
100
AcDbEntity
  8
ZUWAKU
100
AcDbLine
 10
39.6633152056828
 20
15.00000007528831
 30
0.0
 11
39.66331520568292
 21
0.4000000752883466
 31
0.0
  0
LINE
  5
DCA
330
1A
100
AcDbEntity
  8
ZUWAKU
100
AcDbLine
 10
28.92110650907926
 20
3.575000075288315
 30
0.0
 11
30.67110650907926
 21
3.575000075288315
 31
0.0
  0
LINE
  5
DCB
330
1A
100
AcDbEntity
  8
ZUWAKU
100
AcDbLine
 10
30.14610650907929
 20
4.975000075288313
 30
0.0
 11
29.4461065090793
 21
4.975000075288313
 31
0.0
  0
LINE
  5
DCC
330
1A
100
AcDbEntity
  8
ZUWAKU
100
AcDbLine
 10
20.60860650907926
 20
3.575000075288315
 30
0.0
 11
21.48360650907926
 21
3.575000075288315
 31
0.0
  0
LINE
  5
DCD
330
1A
100
AcDbEntity
  8
ZUWAKU
100
AcDbLine
 10
17.83817397773719
 20
3.758453091204827
 30
0.0
 11
16.9040390404213
 21
6.716547059371798
 31
0.0
  0
ARC
  5
DCE
330
1A
100
AcDbEntity
  8
ZUWAKU
100
AcDbCircle
 10
16.58360650907928
 20
6.637500075288315
 30
0.0
 40
0.2625
100
AcDbArc
 50
90.0
 51
180.0
  0
ARC
  5
DCF
330
1A
100
AcDbEntity
  8
ZUWAKU
100
AcDbCircle
 10
16.65372359082363
 20
6.637500075288315
 30
0.0
 40
0.2625
100
AcDbArc
 50
17.52556837372303
 51
90.0
  0
ARC
  5
DD0
330
1A
100
AcDbEntity
  8
ZUWAKU
100
AcDbCircle
 10
15.18360650907925
 20
3.837500075288314
 30
0.0
 40
0.2625
100
AcDbArc
 50
180.0
 51
270.0
  0
ARC
  5
DD1
330
1A
100
AcDbEntity
  8
ZUWAKU
100
AcDbCircle
 10
13.43360650907925
 20
4.712500075288314
 30
0.0
 40
0.2625
100
AcDbArc
 50
0.0
 51
90.0
  0
ARC
  5
DD2
330
1A
100
AcDbEntity
  8
ZUWAKU
100
AcDbCircle
 10
13.43360650907925
 20
3.837500075288314
 30
0.0
 40
0.2625
100
AcDbArc
 50
270.0
 51
0.0
  0
LINE
  5
DD3
330
1A
100
AcDbEntity
  8
ZUWAKU
100
AcDbLine
 10
13.69610650907929
 20
4.712500075288314
 30
0.0
 11
13.69610650907929
 21
3.837500075288314
 31
0.0
  0
LINE
  5
DD4
330
1A
100
AcDbEntity
  8
ZUWAKU
100
AcDbLine
 10
16.3211065090793
 20
3.837500075288314
 30
0.0
 11
16.3211065090793
 21
6.637500075288315
 31
0.0
  0
ARC
  5
DD5
330
1A
100
AcDbEntity
  8
ZUWAKU
100
AcDbCircle
 10
16.05860650907925
 20
3.837500075288314
 30
0.0
 40
0.2625
100
AcDbArc
 50
270.0
 51
0.0
  0
LINE
  5
DD6
330
1A
100
AcDbEntity
  8
ZUWAKU
100
AcDbLine
 10
15.18360650907925
 20
3.575000075288315
 30
0.0
 11
16.05860650907925
 21
3.575000075288315
 31
0.0
  0
ARC
  5
DD7
330
1A
100
AcDbEntity
  8
ZUWAKU
100
AcDbCircle
 10
16.58360650907928
 20
8.562500075288316
 30
0.0
 40
0.2625
100
AcDbArc
 50
180.0
 51
270.0
  0
LINE
  5
DD8
330
1A
100
AcDbEntity
  8
ZUWAKU
100
AcDbLine
 10
16.58360650907928
 20
6.900000075288314
 30
0.0
 11
16.65372359082363
 21
6.900000075288314
 31
0.0
  0
LINE
  5
DD9
330
1A
100
AcDbEntity
  8
ZUWAKU
100
AcDbLine
 10
16.65372359082363
 20
8.300000075288313
 30
0.0
 11
16.58360650907928
 21
8.300000075288313
 31
0.0
  0
ARC
  5
DDA
330
1A
100
AcDbEntity
  8
ZUWAKU
100
AcDbCircle
 10
16.65372359082363
 20
8.562500075288316
 30
0.0
 40
0.2625
100
AcDbArc
 50
270.0
 51
342.4744316262769
  0
ARC
  5
DDB
330
1A
100
AcDbEntity
  8
ZUWAKU
100
AcDbCircle
 10
18.08848942733493
 20
3.837500075288314
 30
0.0
 40
0.2625
100
AcDbArc
 50
197.525568373723
 51
270.0
  0
LINE
  5
DDC
330
1A
100
AcDbEntity
  8
ZUWAKU
100
AcDbLine
 10
19.18824956673716
 20
3.916547059371801
 30
0.0
 11
18.02505387750034
 21
7.600000075288324
 31
0.0
  0
ARC
  5
DDD
330
1A
100
AcDbEntity
  8
ZUWAKU
100
AcDbCircle
 10
18.93793411713943
 20
3.837500075288314
 30
0.0
 40
0.2625
100
AcDbArc
 50
270.0
 51
17.52556837372303
  0
LINE
  5
DDE
330
1A
100
AcDbEntity
  8
ZUWAKU
100
AcDbLine
 10
18.08848942733493
 20
3.575000075288315
 30
0.0
 11
18.93793411713943
 21
3.575000075288315
 31
0.0
  0
ARC
  5
DDF
330
1A
100
AcDbEntity
  8
ZUWAKU
100
AcDbCircle
 10
20.60860650907926
 20
3.837500075288314
 30
0.0
 40
0.2625
100
AcDbArc
 50
180.0
 51
270.0
  0
ARC
  5
DE0
330
1A
100
AcDbEntity
  8
ZUWAKU
100
AcDbCircle
 10
25.0711065090793
 20
4.975000075288313
 30
0.0
 40
1.399999999999999
100
AcDbArc
 50
270.0
 51
0.0
  0
ARC
  5
DE1
330
1A
100
AcDbEntity
  8
ZUWAKU
100
AcDbCircle
 10
28.92110650907926
 20
4.975000075288313
 30
0.0
 40
1.399999999999999
100
AcDbArc
 50
180.0
 51
270.0
  0
LINE
  5
DE2
330
1A
100
AcDbEntity
  8
ZUWAKU
100
AcDbLine
 10
25.85603074957106
 20
7.367525328457727
 30
0.0
 11
24.40113176224866
 21
8.822424315780065
 31
0.0
  0
LINE
  5
DE3
330
1A
100
AcDbEntity
  8
ZUWAKU
100
AcDbLine
 10
23.41118226858753
 20
7.832474822118904
 30
0.0
 11
24.86608125590987
 21
6.377575834796573
 31
0.0
  0
LINE
  5
DE4
330
1A
100
AcDbEntity
  8
ZUWAKU
100
AcDbLine
 10
23.32110650907929
 20
3.575000075288315
 30
0.0
 11
25.0711065090793
 21
3.575000075288315
 31
0.0
  0
LINE
  5
DE5
330
1A
100
AcDbEntity
  8
ZUWAKU
100
AcDbLine
 10
23.32110650907929
 20
4.975000075288313
 30
0.0
 11
24.80860650907925
 21
4.975000075288313
 31
0.0
  0
ARC
  5
DE6
330
1A
100
AcDbEntity
  8
ZUWAKU
100
AcDbCircle
 10
23.32110650907929
 20
4.712500075288314
 30
0.0
 40
0.2625
100
AcDbArc
 50
90.0
 51
180.0
  0
ARC
  5
DE7
330
1A
100
AcDbEntity
  8
ZUWAKU
100
AcDbCircle
 10
21.48360650907926
 20
3.837500075288314
 30
0.0
 40
0.2625
100
AcDbArc
 50
270.0
 51
0.0
  0
ARC
  5
DE8
330
1A
100
AcDbEntity
  8
ZUWAKU
100
AcDbCircle
 10
23.32110650907929
 20
3.837500075288314
 30
0.0
 40
0.2625
100
AcDbArc
 50
180.0
 51
270.0
  0
LINE
  5
DE9
330
1A
100
AcDbEntity
  8
ZUWAKU
100
AcDbLine
 10
23.05860650907925
 20
3.837500075288314
 30
0.0
 11
23.05860650907925
 21
4.712500075288314
 31
0.0
  0
ARC
  5
DEA
330
1A
100
AcDbEntity
  8
ZUWAKU
100
AcDbCircle
 10
24.80860650907925
 20
5.237500075288316
 30
0.0
 40
0.2625
100
AcDbArc
 50
270.0
 51
0.0
  0
ARC
  5
DEB
330
1A
100
AcDbEntity
  8
ZUWAKU
100
AcDbCircle
 10
24.37110650907925
 20
5.882601087965987
 30
0.0
 40
0.7
100
AcDbArc
 50
0.0
 51
45.0
  0
LINE
  5
DEC
330
1A
100
AcDbEntity
  8
ZUWAKU
100
AcDbLine
 10
25.0711065090793
 20
5.237500075288316
 30
0.0
 11
25.0711065090793
 21
5.882601087965987
 31
0.0
  0
ARC
  5
DED
330
1A
100
AcDbEntity
  8
ZUWAKU
100
AcDbCircle
 10
29.4461065090793
 20
5.500000075288312
 30
0.0
 40
0.525
100
AcDbArc
 50
180.0
 51
270.0
  0
ARC
  5
DEE
330
1A
100
AcDbEntity
  8
ZUWAKU
100
AcDbCircle
 10
24.37110650907925
 20
5.882601087965966
 30
0.0
 40
2.099999999999999
100
AcDbArc
 50
0.0
 51
45.0
  0
LINE
  5
DEF
330
1A
100
AcDbEntity
  8
ZUWAKU
100
AcDbLine
 10
26.47110650907928
 20
4.975000075288313
 30
0.0
 11
26.47110650907928
 21
5.882601087965987
 31
0.0
  0
ARC
  5
DF0
330
1A
100
AcDbEntity
  8
ZUWAKU
100
AcDbCircle
 10
30.67110650907926
 20
4.975000075288313
 30
0.0
 40
1.399999999999999
100
AcDbArc
 50
270.0
 51
0.0
  0
LINE
  5
DF1
330
1A
100
AcDbEntity
  8
ZUWAKU
100
AcDbLine
 10
33.38360650907929
 20
3.575000075288315
 30
0.0
 11
34.2586065090793
 21
3.575000075288315
 31
0.0
  0
ARC
  5
DF2
330
1A
100
AcDbEntity
  8
ZUWAKU
100
AcDbCircle
 10
30.14610650907929
 20
5.500000075288312
 30
0.0
 40
0.525
100
AcDbArc
 50
270.0
 51
0.0
  0
ARC
  5
DF3
330
1A
100
AcDbEntity
  8
ZUWAKU
100
AcDbCircle
 10
33.38360650907929
 20
3.837500075288314
 30
0.0
 40
0.2625
100
AcDbArc
 50
180.0
 51
270.0
  0
ARC
  5
DF4
330
1A
100
AcDbEntity
  8
ZUWAKU
100
AcDbCircle
 10
34.2586065090793
 20
3.837500075288314
 30
0.0
 40
0.2625
100
AcDbArc
 50
270.0
 51
0.0
  0
LINE
  5
DF5
330
1A
100
AcDbEntity
  8
ZUWAKU
100
AcDbLine
 10
21.48360650907926
 20
11.62500007528831
 30
0.0
 11
20.60860650907926
 21
11.62500007528831
 31
0.0
  0
LINE
  5
DF6
330
1A
100
AcDbEntity
  8
ZUWAKU
100
AcDbLine
 10
13.69610650907929
 20
11.36250007528831
 30
0.0
 11
13.69610650907929
 21
10.48750007528831
 31
0.0
  0
ARC
  5
DF7
330
1A
100
AcDbEntity
  8
ZUWAKU
100
AcDbCircle
 10
13.43360650907925
 20
10.48750007528831
 30
0.0
 40
0.2625
100
AcDbArc
 50
270.0
 51
0.0
  0
ARC
  5
DF8
330
1A
100
AcDbEntity
  8
ZUWAKU
100
AcDbCircle
 10
15.18360650907925
 20
11.36250007528831
 30
0.0
 40
0.2625
100
AcDbArc
 50
90.0
 51
180.0
  0
ARC
  5
DF9
330
1A
100
AcDbEntity
  8
ZUWAKU
100
AcDbCircle
 10
13.43360650907925
 20
11.36250007528831
 30
0.0
 40
0.2625
100
AcDbArc
 50
0.0
 51
90.0
  0
LINE
  5
DFA
330
1A
100
AcDbEntity
  8
ZUWAKU
100
AcDbLine
 10
16.05860650907925
 20
11.62500007528831
 30
0.0
 11
15.18360650907925
 21
11.62500007528831
 31
0.0
  0
ARC
  5
DFB
330
1A
100
AcDbEntity
  8
ZUWAKU
100
AcDbCircle
 10
16.05860650907925
 20
11.36250007528831
 30
0.0
 40
0.2625
100
AcDbArc
 50
0.0
 51
90.0
  0
ARC
  5
DFC
330
1A
100
AcDbEntity
  8
ZUWAKU
100
AcDbCircle
 10
18.08848942733493
 20
11.36250007528831
 30
0.0
 40
0.2625
100
AcDbArc
 50
90.0
 51
162.4744316262769
  0
LINE
  5
DFD
330
1A
100
AcDbEntity
  8
ZUWAKU
100
AcDbLine
 10
19.18824956673716
 20
11.28345309120483
 30
0.0
 11
18.65742975016826
 21
9.602523672070027
 31
0.0
  0
ARC
  5
DFE
330
1A
100
AcDbEntity
  8
ZUWAKU
100
AcDbCircle
 10
18.93793411713943
 20
11.36250007528831
 30
0.0
 40
0.2625
100
AcDbArc
 50
342.4744316262769
 51
90.0
  0
LINE
  5
DFF
330
1A
100
AcDbEntity
  8
ZUWAKU
100
AcDbLine
 10
18.08848942733493
 20
11.62500007528831
 30
0.0
 11
18.93793411713943
 21
11.62500007528831
 31
0.0
  0
ARC
  5
E00
330
1A
100
AcDbEntity
  8
ZUWAKU
100
AcDbCircle
 10
20.60860650907926
 20
11.36250007528831
 30
0.0
 40
0.2625
100
AcDbArc
 50
90.0
 51
180.0
  0
LINE
  5
E01
330
1A
100
AcDbEntity
  8
ZUWAKU
100
AcDbLine
 10
25.9461065090793
 20
10.22500007528831
 30
0.0
 11
24.45860650907929
 21
10.22500007528831
 31
0.0
  0
LINE
  5
E02
330
1A
100
AcDbEntity
  8
ZUWAKU
100
AcDbLine
 10
24.1961065090793
 20
11.62500007528831
 30
0.0
 11
25.9461065090793
 21
11.62500007528831
 31
0.0
  0
ARC
  5
E03
330
1A
100
AcDbEntity
  8
ZUWAKU
100
AcDbCircle
 10
24.1961065090793
 20
10.22500007528831
 30
0.0
 40
1.399999999999999
100
AcDbArc
 50
90.0
 51
180.0
  0
LINE
  5
E04
330
1A
100
AcDbEntity
  8
ZUWAKU
100
AcDbLine
 10
22.79610650907926
 20
10.22500007528831
 30
0.0
 11
22.79610650907926
 21
9.317399062610643
 31
0.0
  0
ARC
  5
E05
330
1A
100
AcDbEntity
  8
ZUWAKU
100
AcDbCircle
 10
21.48360650907926
 20
11.36250007528831
 30
0.0
 40
0.2625
100
AcDbArc
 50
0.0
 51
90.0
  0
LINE
  5
E06
330
1A
100
AcDbEntity
  8
ZUWAKU
100
AcDbLine
 10
24.1961065090793
 20
9.962500075288314
 30
0.0
 11
24.1961065090793
 21
9.317399062610643
 31
0.0
  0
ARC
  5
E07
330
1A
100
AcDbEntity
  8
ZUWAKU
100
AcDbCircle
 10
24.45860650907929
 20
9.962500075288314
 30
0.0
 40
0.2625
100
AcDbArc
 50
90.0
 51
180.0
  0
LINE
  5
E08
330
1A
100
AcDbEntity
  8
ZUWAKU
100
AcDbLine
 10
26.20860650907928
 20
11.36250007528831
 30
0.0
 11
26.20860650907928
 21
10.48750007528831
 31
0.0
  0
ARC
  5
E09
330
1A
100
AcDbEntity
  8
ZUWAKU
100
AcDbCircle
 10
25.9461065090793
 20
10.48750007528831
 30
0.0
 40
0.2625
100
AcDbArc
 50
270.0
 51
0.0
  0
ARC
  5
E0A
330
1A
100
AcDbEntity
  8
ZUWAKU
100
AcDbCircle
 10
25.9461065090793
 20
11.36250007528831
 30
0.0
 40
0.2625
100
AcDbArc
 50
0.0
 51
90.0
  0
LINE
  5
E0B
330
1A
100
AcDbEntity
  8
ZUWAKU
100
AcDbLine
 10
28.65860650907928
 20
11.62500007528831
 30
0.0
 11
27.78360650907927
 21
11.62500007528831
 31
0.0
  0
ARC
  5
E0C
330
1A
100
AcDbEntity
  8
ZUWAKU
100
AcDbCircle
 10
27.78360650907927
 20
11.36250007528831
 30
0.0
 40
0.2625
100
AcDbArc
 50
90.0
 51
180.0
  0
ARC
  5
E0D
330
1A
100
AcDbEntity
  8
ZUWAKU
100
AcDbCircle
 10
28.65860650907928
 20
11.36250007528831
 30
0.0
 40
0.2625
100
AcDbArc
 50
0.0
 51
90.0
  0
LINE
  5
E0E
330
1A
100
AcDbEntity
  8
ZUWAKU
100
AcDbLine
 10
34.2586065090793
 20
11.62500007528831
 30
0.0
 11
33.38360650907929
 21
11.62500007528831
 31
0.0
  0
ARC
  5
E0F
330
1A
100
AcDbEntity
  8
ZUWAKU
100
AcDbCircle
 10
30.93360650907925
 20
11.36250007528831
 30
0.0
 40
0.2625
100
AcDbArc
 50
90.0
 51
180.0
  0
LINE
  5
E10
330
1A
100
AcDbEntity
  8
ZUWAKU
100
AcDbLine
 10
31.80860650907925
 20
11.62500007528831
 30
0.0
 11
30.93360650907925
 21
11.62500007528831
 31
0.0
  0
ARC
  5
E11
330
1A
100
AcDbEntity
  8
ZUWAKU
100
AcDbCircle
 10
31.80860650907925
 20
11.36250007528831
 30
0.0
 40
0.2625
100
AcDbArc
 50
0.0
 51
90.0
  0
ARC
  5
E12
330
1A
100
AcDbEntity
  8
ZUWAKU
100
AcDbCircle
 10
33.38360650907929
 20
11.36250007528831
 30
0.0
 40
0.2625
100
AcDbArc
 50
90.0
 51
180.0
  0
ARC
  5
E13
330
1A
100
AcDbEntity
  8
ZUWAKU
100
AcDbCircle
 10
34.2586065090793
 20
11.36250007528831
 30
0.0
 40
0.2625
100
AcDbArc
 50
0.0
 51
90.0
  0
LINE
  5
E14
330
1A
100
AcDbEntity
  8
ZUWAKU
100
AcDbLine
 10
104.2233010767225
 20
15.00000007528831
 30
0.0
 11
104.2233010767226
 21
0.4000000752883466
 31
0.0
  0
LINE
  5
E15
330
1A
100
AcDbEntity
  8
ZUWAKU
100
AcDbLine
 10
104.3233010767226
 20
15.00000007528831
 30
0.0
 11
104.3233010767227
 21
0.4000000752883466
 31
0.0
  0
LINE
  5
E16
330
1A
100
AcDbEntity
  8
ZUWAKU
100
AcDbLine
 10
104.1233010767226
 20
15.00000007528831
 30
0.0
 11
104.1233010767226
 21
0.4000000752883466
 31
0.0
  0
TEXT
  5
E17
330
1A
100
AcDbEntity
  8
moji
100
AcDbText
 10
115.1420564903907
 20
9.683571051488172
 30
0.0
 40
2.799999999999999
  1
ターンエルボ
 41
0.9
  7
MSｺﾞｼｯｸ
100
AcDbText
  0
TEXT
  5
E18
330
1A
100
AcDbEntity
  8
ZUWAKU
100
AcDbText
 10
104.8620235878274
 20
4.827678344481121
 30
0.0
 40
2.0
  1
サイズ
 41
0.9
  7
MSｺﾞｼｯｸ
100
AcDbText
  0
TEXT
  5
E19
330
1A
100
AcDbEntity
  8
moji
100
AcDbText
 10
115.1420564903907
 20
2.283571051488188
 30
0.0
 40
2.799999999999999
  1
ＵＳＴ４２－８７°
 41
0.9
  7
MSｺﾞｼｯｸ
100
AcDbText
  0
TEXT
  5
E1A
330
1A
100
AcDbEntity
  8
ZUWAKU
100
AcDbText
 10
104.8620235878273
 20
12.0276783444811
 30
0.0
 40
2.0
  1
品名
 41
0.9
  7
MSｺﾞｼｯｸ
100
AcDbText
  0
TEXT
  5
E1B
330
1A
100
AcDbEntity
  8
ZUWAKU
100
AcDbText
 10
329.1019692753399
 20
9.002460603992005
 30
0.0
 40
2.799999999999999
  1
　　．　　．　　
 41
0.9
  7
MSｺﾞｼｯｸ
100
AcDbText
  0
LINE
  5
E1C
330
1A
100
AcDbEntity
  8
ZUWAKU
100
AcDbLine
 10
324.4086016867908
 20
7.800000075288329
 30
0.0
 11
348.6245057059593
 21
7.800000075288329
 31
0.0
  0
LINE
  5
E1D
330
1A
100
AcDbEntity
  8
ZUWAKU
100
AcDbLine
 10
324.4086016867909
 20
7.700000075288331
 30
0.0
 11
348.6245057059593
 21
7.700000075288329
 31
0.0
  0
LINE
  5
E1E
330
1A
100
AcDbEntity
  8
ZUWAKU
100
AcDbLine
 10
324.4086016867908
 20
7.600000075288328
 30
0.0
 11
348.6245057059593
 21
7.600000075288329
 31
0.0
  0
LINE
  5
E1F
330
1A
100
AcDbEntity
  8
ZUWAKU
100
AcDbLine
 10
252.5995901807591
 20
7.800000075288329
 30
0.0
 11
276.2634783147449
 21
7.800000075288329
 31
0.0
  0
LINE
  5
E20
330
1A
100
AcDbEntity
  8
ZUWAKU
100
AcDbLine
 10
252.5995901807591
 20
7.700000075288329
 30
0.0
 11
276.2634783147449
 21
7.700000075288329
 31
0.0
  0
LINE
  5
E21
330
1A
100
AcDbEntity
  8
ZUWAKU
100
AcDbLine
 10
252.5995901807591
 20
7.600000075288331
 30
0.0
 11
276.2634783147449
 21
7.600000075288331
 31
0.0
  0
LINE
  5
E22
330
1A
100
AcDbEntity
  8
ZUWAKU
100
AcDbLine
 10
252.3995901807592
 20
15.00000007528831
 30
0.0
 11
252.3995901807592
 21
0.4000000752883466
 31
0.0
  0
LINE
  5
E23
330
1A
100
AcDbEntity
  8
ZUWAKU
100
AcDbLine
 10
252.5995901807591
 20
15.00000007528831
 30
0.0
 11
252.5995901807592
 21
0.4000000752883466
 31
0.0
  0
LINE
  5
E24
330
1A
100
AcDbEntity
  8
ZUWAKU
100
AcDbLine
 10
252.4995901807591
 20
15.00000007528831
 30
0.0
 11
252.4995901807592
 21
0.4000000752883466
 31
0.0
  0
TEXT
  5
E25
330
1A
100
AcDbEntity
  8
moji
100
AcDbText
 10
264.0204544178451
 20
9.002460603992005
 30
0.0
 40
2.799999999999999
  1
Ａ３
 41
0.9
  7
MSｺﾞｼｯｸ
100
AcDbText
  0
LINE
  5
E26
330
1A
100
AcDbEntity
  8
ZUWAKU
100
AcDbLine
 10
223.7121824171844
 20
15.00000007528831
 30
0.0
 11
223.7121824171844
 21
0.4000000752883466
 31
0.0
  0
LINE
  5
E27
330
1A
100
AcDbEntity
  8
ZUWAKU
100
AcDbLine
 10
223.9121824171843
 20
15.00000007528831
 30
0.0
 11
223.9121824171844
 21
0.4000000752883466
 31
0.0
  0
LINE
  5
E28
330
1A
100
AcDbEntity
  8
ZUWAKU
100
AcDbLine
 10
223.8121824171843
 20
15.00000007528831
 30
0.0
 11
223.8121824171844
 21
0.4000000752883466
 31
0.0
  0
TEXT
  5
E29
330
1A
100
AcDbEntity
  8
moji
100
AcDbText
 10
231.6232164271897
 20
5.971308936118305
 30
0.0
 40
2.799999999999999
  1
ＰＨ３６□
 41
0.9
  7
MSｺﾞｼｯｸ
100
AcDbText
  0
TEXT
  5
E2A
330
1A
100
AcDbEntity
  8
ZUWAKU
100
AcDbText
 10
230.6528771429501
 20
1.307035530858058
 30
0.0
 40
1.5
  1
□には色品番が入ります
 41
0.9
  7
MSｺﾞｼｯｸ
100
AcDbText
  0
TEXT
  5
E2B
330
1A
100
AcDbEntity
  8
ZUWAKU
100
AcDbText
 10
253.338312691864
 20
4.827678344481121
 30
0.0
 40
2.0
  1
縮尺
 41
0.9
  7
MSｺﾞｼｯｸ
100
AcDbText
  0
TEXT
  5
E2C
330
1A
100
AcDbEntity
  8
moji
100
AcDbText
 10
264.0204544178451
 20
1.602460603992023
 30
0.0
 40
2.799999999999999
  1
１/１
 41
0.9
  7
MSｺﾞｼｯｸ
100
AcDbText
  0
TEXT
  5
E2D
330
1A
100
AcDbEntity
  8
ZUWAKU
100
AcDbText
 10
224.6509049282891
 20
12.0276783444811
 30
0.0
 40
2.0
  1
品番
 41
0.9
  7
MSｺﾞｼｯｸ
100
AcDbText
  0
TEXT
  5
E2E
330
1A
100
AcDbEntity
  8
ZUWAKU
100
AcDbText
 10
253.3383126918639
 20
12.0276783444811
 30
0.0
 40
2.0
  1
用紙
 41
0.9
  7
MSｺﾞｼｯｸ
100
AcDbText
  0
LINE
  5
E2F
330
1A
100
AcDbEntity
  8
ZUWAKU
100
AcDbLine
 10
276.2634783147449
 20
15.00000007528831
 30
0.0
 11
276.2634783147449
 21
0.4000000752883466
 31
0.0
  0
LINE
  5
E30
330
1A
100
AcDbEntity
  8
ZUWAKU
100
AcDbLine
 10
276.4634783147448
 20
15.00000007528831
 30
0.0
 11
276.4634783147449
 21
0.4000000752883466
 31
0.0
  0
LINE
  5
E31
330
1A
100
AcDbEntity
  8
ZUWAKU
100
AcDbLine
 10
276.3634783147448
 20
15.00000007528831
 30
0.0
 11
276.3634783147449
 21
0.4000000752883466
 31
0.0
  0
LINE
  5
E32
330
1A
100
AcDbEntity
  8
ZUWAKU
100
AcDbLine
 10
324.2086016867909
 20
15.00000007528831
 30
0.0
 11
324.2086016867909
 21
0.4000000752883466
 31
0.0
  0
LINE
  5
E33
330
1A
100
AcDbEntity
  8
ZUWAKU
100
AcDbLine
 10
324.4086016867909
 20
15.00000007528831
 30
0.0
 11
324.408601686791
 21
0.4000000752883466
 31
0.0
  0
LINE
  5
E34
330
1A
100
AcDbEntity
  8
ZUWAKU
100
AcDbLine
 10
324.3086016867909
 20
15.00000007528831
 30
0.0
 11
324.308601686791
 21
0.4000000752883466
 31
0.0
  0
TEXT
  5
E35
330
1A
100
AcDbEntity
  8
ZUWAKU
100
AcDbText
 10
325.1473241978957
 20
12.0276783444811
 30
0.0
 40
2.0
  1
DATE
 41
0.9
  7
MSｺﾞｼｯｸ
100
AcDbText
  0
TEXT
  5
E36
330
1A
100
AcDbEntity
  8
ZUWAKU
100
AcDbText
 10
354.2640425278106
 20
6.379194163384056
 30
0.0
 40
3.0
  1
積水化学工業株式会社
 41
0.9
  7
MSｺﾞｼｯｸ
100
AcDbText
  0
LINE
  5
E37
330
1A
100
AcDbEntity
  8
ZUWAKU
100
AcDbLine
 10
348.9245057059592
 20
15.00000007528831
 30
0.0
 11
348.9245057059594
 21
0.4000000752883466
 31
0.0
  0
LINE
  5
E38
330
1A
100
AcDbEntity
  8
ZUWAKU
100
AcDbLine
 10
348.8245057059592
 20
15.00000007528831
 30
0.0
 11
348.8245057059593
 21
0.4000000752883466
 31
0.0
  0
LINE
  5
E39
330
1A
100
AcDbEntity
  8
ZUWAKU
100
AcDbLine
 10
348.7245057059593
 20
15.00000007528831
 30
0.0
 11
348.7245057059593
 21
0.4000000752883466
 31
0.0
  0
LINE
  5
E3A
330
1A
100
AcDbEntity
  8
ZUWAKU
100
AcDbLine
 10
348.6245057059593
 20
15.00000007528831
 30
0.0
 11
348.6245057059593
 21
0.4000000752883466
 31
0.0
  0
TEXT
  5
2370
330
1A
100
AcDbEntity
  8
ZUWAKU
 62
     7
100
AcDbText
 10
126.2589487907782
 20
-19.44483520145422
 30
0.0
 40
4.0
  1

100
AcDbText
  0
TEXT
  5
539A
330
1A
100
AcDbEntity
  8
SUNPOU
  6
Continuous
 62
     4
100
AcDbText
 10
315.2767266377018
 20
20.34886731661862
 30
0.0
 40
4.0
  1
※　たてといの差込み寸法を示す。
100
AcDbText
  0
LINE
  5
75F4
330
1A
100
AcDbEntity
  8
SEIHIN
100
AcDbLine
 10
167.9891989506585
 20
105.1976221203376
 30
0.0
 11
167.98919801488
 21
95.19762298690862
 31
0.0
  0
LINE
  5
75F5
330
1A
100
AcDbEntity
  8
SEIHIN
100
AcDbLine
 10
122.0891986765486
 20
95.19762257591436
 30
0.0
 11
122.0891996123272
 21
105.1976217093433
 31
0.0
  0
LINE
  5
75F6
330
1A
100
AcDbEntity
  8
SEIHIN
100
AcDbLine
 10
125.0891989831032
 20
68.19762255878481
 30
0.0
 11
125.0891979462846
 21
95.19762059185259
 31
0.0
  0
LINE
  5
75FB
330
1A
100
AcDbEntity
  8
SEIHIN
100
AcDbLine
 10
164.9891989401107
 20
95.19762125078548
 30
0.0
 11
164.9891981168368
 21
68.19762312023438
 31
0.0
  0
LINE
  5
75FE
330
1A
100
AcDbEntity
  8
SEIHIN
100
AcDbLine
 10
167.9891980148799
 20
95.19762211678225
 30
0.0
 11
145.0391988500928
 21
95.19762094264349
 31
0.0
  0
LINE
  5
75FF
330
1A
100
AcDbEntity
  8
SEIHIN
100
AcDbLine
 10
145.0391988500928
 20
95.19762094264349
 30
0.0
 11
122.0891986765488
 21
95.19762434036191
 31
0.0
  0
LINE
  5
7600
330
1A
100
AcDbEntity
  8
SEIHIN
100
AcDbLine
 10
167.9891954882778
 20
68.19762398044382
 30
0.0
 11
122.0891961499463
 21
68.19762169857511
 31
0.0
  0
LINE
  5
7608
330
1A
100
AcDbEntity
  8
SEIHIN
100
AcDbLine
 10
167.9891992466652
 20
68.19762123365592
 30
0.0
 11
167.98919801488
 21
95.19762298690862
 31
0.0
  0
LINE
  5
7610
330
1A
100
AcDbEntity
  8
SEIHIN
100
AcDbLine
 10
122.0891986765486
 20
95.19762257591436
 30
0.0
 11
122.0891980482414
 21
68.19762072517836
 31
0.0
  0
LINE
  5
761A
330
1A
100
AcDbEntity
  8
SEIHIN
100
AcDbLine
 10
183.0140271916248
 20
107.3392768900329
 30
0.0
 11
180.6118069091278
 21
153.1763709354178
 31
0.0
  0
LINE
  5
761E
330
1A
100
AcDbEntity
  8
SEIHIN
100
AcDbLine
 10
167.9891989506586
 20
105.1976228107173
 30
0.0
 11
122.0891996123273
 21
105.1976227815727
 31
0.0
  0
SPLINE
  5
7631
330
1A
100
AcDbEntity
  8
SEIHIN
100
AcDbSpline
210
0.0
220
0.0
230
1.0
 70
     8
 71
     3
 72
    15
 73
    11
 74
     0
 42
0.0000000001
 43
0.0000000001
 40
0.0
 40
0.0
 40
0.0
 40
0.0
 40
0.1006701105633239
 40
0.2004360438328476
 40
0.2998752254473581
 40
0.3995707587369983
 40
0.5001012864107631
 40
0.6668785056633771
 40
0.8326104750208955
 40
1.0
 40
1.0
 40
1.0
 40
1.0
 10
149.0243225542608
 20
149.0175109824745
 30
0.0
 10
148.9862092975969
 20
149.0146768498624
 30
0.0
 10
148.9103251017762
 20
149.0090340396455
 30
0.0
 10
148.7980041271059
 20
148.9898009820781
 30
0.0
 10
148.6877754716496
 20
148.9627054804453
 30
0.0
 10
148.5796989067578
 20
148.9269750599372
 30
0.0
 10
148.4509991843051
 20
148.8734328106505
 30
0.0
 10
148.3060884778784
 20
148.7951820641261
 30
0.0
 10
148.1505411435507
 20
148.6852651866799
 30
0.0
 10
148.0601735558929
 20
148.5966344291256
 30
0.0
 10
148.0147649352285
 20
148.5520985445957
 30
0.0
  0
SPLINE
  5
7634
330
1A
100
AcDbEntity
  8
SEIHIN
100
AcDbSpline
210
0.0
220
0.0
230
1.0
 70
     8
 71
     3
 72
    15
 73
    11
 74
     0
 42
0.0000000001
 43
0.0000000001
 40
0.0
 40
0.0
 40
0.0
 40
0.0
 40
0.1006701105650482
 40
0.2004360438354098
 40
0.2998752254498975
 40
0.3995707587387027
 40
0.5001012864108727
 40
0.6668785056652136
 40
0.8326104750226951
 40
1.0
 40
1.0
 40
1.0
 40
1.0
 10
125.00113721039
 20
124.3007950642426
 30
0.0
 10
124.9754417189619
 20
124.272503822463
 30
0.0
 10
124.9242815223817
 20
124.2161754391331
 30
0.0
 10
124.8560459292125
 20
124.1249076152376
 30
0.0
 10
124.7947402001243
 20
124.0293768334275
 30
0.0
 10
124.7409394282972
 20
123.9290639041598
 30
0.0
 10
124.6844400003667
 20
123.8016346859192
 30
0.0
 10
124.6331897472646
 20
123.6451236520462
 30
0.0
 10
124.5960214830054
 20
123.4583210468858
 30
0.0
 10
124.5914805384619
 20
123.3318256244151
 30
0.0
 10
124.5891987687085
 20
123.2682632033763
 30
0.0
  0
LINE
  5
7636
330
1A
100
AcDbEntity
  8
SEIHIN
100
AcDbLine
 10
148.0147647979662
 20
148.5520978238679
 30
0.0
 11
125.0011364245676
 21
124.3007950983013
 31
0.0
  0
LINE
  5
7637
330
1A
100
AcDbEntity
  8
SEIHIN
100
AcDbLine
 10
180.7426467710705
 20
150.6797976192855
 30
0.0
 11
149.0243227265185
 21
149.0175107109752
 31
0.0
  0
LINE
  5
7639
330
1A
100
AcDbEntity
  8
SEIHIN
100
AcDbLine
 10
124.5891987255897
 20
123.2682632671746
 30
0.0
 11
124.5891979762443
 21
105.1976218673093
 31
0.0
  0
LINE
  5
763B
330
1A
100
AcDbEntity
  8
SEIHIN
100
AcDbLine
 10
165.489198726649
 20
105.1976218648883
 30
0.0
 11
165.4891984041424
 21
107.9753051999278
 31
0.0
  0
LINE
  5
763D
330
1A
100
AcDbEntity
  8
SEIHIN
100
AcDbLine
 10
166.4368624484472
 20
108.9739348508174
 30
0.0
 11
182.883187329682
 21
109.8358502061652
 31
0.0
  0
ARC
  5
7641
330
1A
100
AcDbEntity
  8
SEIHIN
100
AcDbCircle
 10
123.0891987693744
 20
124.4651418421239
 30
0.0
 40
1.000000000017761
100
AcDbArc
 50
136.4999999684928
 51
179.9999999683601
  0
ARC
  5
7644
330
1A
100
AcDbEntity
  8
SEIHIN
100
AcDbCircle
 10
147.7505802667153
 20
150.4528154974596
 30
0.0
 40
1.0
100
AcDbArc
 50
92.99999996857913
 51
136.499999968777
  0
LINE
  5
764E
330
1A
100
AcDbEntity
  8
SEIHIN
100
AcDbLine
 10
183.0140271916247
 20
107.3392768900329
 30
0.0
 11
168.9368623438417
 21
106.6015239495015
 31
0.0
  0
ARC
  5
7655
330
1A
100
AcDbEntity
  8
SEIHIN
100
AcDbCircle
 10
168.9891987590349
 20
105.6028936360161
 30
0.0
 40
1.000000000000071
100
AcDbArc
 50
92.99999996859222
 51
179.9999999710739
  0
LINE
  5
7656
330
1A
100
AcDbEntity
  8
SEIHIN
100
AcDbLine
 10
180.6118069091278
 20
153.1763709354178
 30
0.0
 11
147.6982441833435
 21
151.4514442227683
 31
0.0
  0
LINE
  5
7658
330
1A
100
AcDbEntity
  8
SEIHIN
100
AcDbLine
 10
147.025205809335
 20
151.1411702210056
 30
0.0
 11
122.3638239776817
 21
125.1534963019646
 31
0.0
  0
LINE
  5
7659
330
1A
100
AcDbEntity
  8
SEIHIN
100
AcDbLine
 10
122.0891994650606
 20
124.4651417803746
 30
0.0
 11
122.0891996123272
 21
105.1976217093433
 31
0.0
  0
LINE
  5
77C2
330
1A
100
AcDbEntity
  8
SEIHIN
100
AcDbLine
 10
122.1521023767197
 20
200.1930103860936
 30
0.0
 11
122.1521023767197
 21
238.0930111967168
 31
0.0
  0
LINE
  5
77E1
330
1A
100
AcDbEntity
  8
SEIHIN
100
AcDbLine
 10
180.637974842523
 20
199.1930102221816
 30
0.0
 11
180.637974842523
 21
239.0930113606287
 31
0.0
  0
LINE
  5
78FB
330
1A
100
AcDbEntity
  8
SEIHIN
100
AcDbLine
 10
237.7634090247675
 20
105.3562594725627
 30
0.0
 11
237.7634090247674
 21
95.16062048812104
 31
0.0
  0
LINE
  5
790B
330
1A
100
AcDbEntity
  8
SEIHIN
100
AcDbLine
 10
237.7634090247675
 20
95.16062048812104
 30
0.0
 11
283.6634074214025
 21
95.16062048812102
 31
0.0
  0
LINE
  5
7912
330
1A
100
AcDbEntity
  8
SEIHIN
100
AcDbLine
 10
240.7634076538606
 20
95.16062048812104
 30
0.0
 11
240.7634076538606
 21
68.24995783705901
 31
0.0
  0
LINE
  5
7913
330
1A
100
AcDbEntity
  8
SEIHIN
100
AcDbLine
 10
237.7634090247675
 20
68.19762123365592
 30
0.0
 11
283.6634074214025
 21
68.19762123365592
 31
0.0
  0
LINE
  5
7919
330
1A
100
AcDbEntity
  8
SEIHIN
100
AcDbLine
 10
237.7634090247675
 20
95.16062048812106
 30
0.0
 11
237.7634090247675
 21
68.40696764726828
 31
0.0
  0
LINE
  5
7921
330
1A
100
AcDbEntity
  8
SEIHIN
100
AcDbLine
 10
242.4634084913059
 20
111.5392753432923
 30
0.0
 11
242.4634084913059
 21
109.939276198619
 31
0.0
  0
LINE
  5
7923
330
1A
100
AcDbEntity
  8
SEIHIN
100
AcDbLine
 10
243.4924100401922
 20
111.2622776578599
 30
0.0
 11
243.4912123593612
 21
112.5670810739928
 31
0.0
  0
LINE
  5
792B
330
1A
100
AcDbEntity
  8
SEIHIN
100
AcDbLine
 10
244.0394875469728
 20
150.257264719018
 30
0.0
 11
277.3873288991972
 21
150.257264719018
 31
0.0
  0
LINE
  5
792D
330
1A
100
AcDbEntity
  8
SEIHIN
100
AcDbLine
 10
243.4634086552187
 20
151.5763717907445
 30
0.0
 11
277.9634077909513
 21
151.5763717907445
 31
0.0
  0
LINE
  5
7932
330
1A
100
AcDbEntity
  8
SEIHIN
100
AcDbLine
 10
242.4634084913059
 20
150.5763716268317
 30
0.0
 11
242.4634084913059
 21
148.9763724821583
 31
0.0
  0
LINE
  5
7934
330
1A
100
AcDbEntity
  8
SEIHIN
100
AcDbLine
 10
243.0852413985058
 20
148.3545377123133
 30
0.0
 11
243.0583764675184
 21
149.2329775250044
 31
0.0
  0
ELLIPSE
  5
7936
330
1A
100
AcDbEntity
  8
SEIHIN
100
AcDbEllipse
 10
240.7634082230847
 20
147.292609071458
 30
0.0
 11
-2.000000000000261
 21
0.0000000000000103
 31
0.0
210
0.0
220
0.0
230
1.0
 40
0.0259005807983165
 41
3.613067130738853
 42
4.555498981887652
  0
LINE
  5
7938
330
1A
100
AcDbEntity
  8
SEIHIN
100
AcDbLine
 10
241.9634074780269
 20
148.4763714688794
 30
0.0
 11
240.3634083333536
 21
148.4763714688794
 31
0.0
  0
ARC
  5
793E
330
1A
100
AcDbEntity
  8
SEIHIN
100
AcDbCircle
 10
238.7634082230847
 20
149.176371737101
 30
0.0
 40
1.0
100
AcDbArc
 50
90.0
 51
180.0
  0
ARC
  5
793F
330
1A
100
AcDbEntity
  8
SEIHIN
100
AcDbCircle
 10
241.7634082230847
 20
152.176371737101
 30
0.0
 40
1.0
100
AcDbArc
 50
90.0
 51
180.0
  0
LINE
  5
7940
330
1A
100
AcDbEntity
  8
SEIHIN
100
AcDbLine
 10
279.6634086283966
 20
153.1763709354178
 30
0.0
 11
241.7634078177734
 21
153.1763709354178
 31
0.0
  0
SPLINE
  5
7949
330
1A
100
AcDbEntity
  8
SEIHIN
100
AcDbSpline
210
0.0
220
0.0
230
1.0
 70
     8
 71
     3
 72
     9
 73
     5
 74
     0
 42
0.0000000001
 43
0.0000000001
 40
0.0
 40
0.0
 40
0.0
 40
0.0
 40
0.5
 40
1.0
 40
1.0
 40
1.0
 40
1.0
 10
243.463408223085
 20
151.5763717370988
 30
0.0
 10
243.2016088352515
 20
151.5763717370988
 30
0.0
 10
242.6801352470015
 20
151.3596447131837
 30
0.0
 10
242.463408223085
 20
150.8381711249327
 30
0.0
 10
242.463408223085
 20
150.5763717370988
 30
0.0
  0
SPLINE
  5
794A
330
1A
100
AcDbEntity
  8
SEIHIN
100
AcDbSpline
210
0.0
220
0.0
230
1.0
 70
     8
 71
     3
 72
     9
 73
     5
 74
     0
 42
0.0000000001
 43
0.0000000001
 40
0.0
 40
0.0
 40
0.0
 40
0.0
 40
0.5
 40
1.0
 40
1.0
 40
1.0
 40
1.0
 10
242.463408223085
 20
148.9763717371003
 30
0.0
 10
242.463408223085
 20
148.8454720431851
 30
0.0
 10
242.3550447111474
 20
148.5847352490178
 30
0.0
 10
242.0943079170015
 20
148.4763717371003
 30
0.0
 10
241.963408223085
 20
148.4763717371003
 30
0.0
  0
SPLINE
  5
794B
330
1A
100
AcDbEntity
  8
SEIHIN
100
AcDbSpline
210
0.0
220
0.0
230
1.0
 70
     8
 71
     3
 72
     9
 73
     5
 74
     0
 42
0.0000000001
 43
0.0000000001
 40
0.0
 40
0.0
 40
0.0
 40
0.0
 40
0.5
 40
1.0
 40
1.0
 40
1.0
 40
1.0
 10
240.3634082230851
 20
148.4763717371003
 30
0.0
 10
240.1016088352516
 20
148.4763717371003
 30
0.0
 10
239.5801352470016
 20
148.2596447131851
 30
0.0
 10
239.3634082230851
 20
147.7381711249342
 30
0.0
 10
239.3634082230851
 20
147.4763717371003
 30
0.0
  0
LINE
  5
794C
330
1A
100
AcDbEntity
  8
SEIHIN
100
AcDbLine
 10
239.3634081694408
 20
113.0392765204841
 30
0.0
 11
239.3634081694408
 21
147.4763713049666
 31
0.0
  0
SPLINE
  5
794D
330
1A
100
AcDbEntity
  8
SEIHIN
100
AcDbSpline
210
0.0
220
0.0
230
1.0
 70
     8
 71
     3
 72
     9
 73
     5
 74
     0
 42
0.0000000001
 43
0.0000000001
 40
0.0
 40
0.0
 40
0.0
 40
0.0
 40
0.5
 40
1.0
 40
1.0
 40
1.0
 40
1.0
 10
239.3634082230851
 20
113.0392760883504
 30
0.0
 10
239.3634082230851
 20
112.7774767005165
 30
0.0
 10
239.5801352470016
 20
112.2560031122692
 30
0.0
 10
240.1016088352516
 20
112.0392760883504
 30
0.0
 10
240.3634082230851
 20
112.0392760883504
 30
0.0
  0
LINE
  5
794E
330
1A
100
AcDbEntity
  8
SEIHIN
100
AcDbLine
 10
240.3634083333536
 20
112.0392763565713
 30
0.0
 11
241.9634074780269
 21
112.0392763565713
 31
0.0
  0
SPLINE
  5
794F
330
1A
100
AcDbEntity
  8
SEIHIN
100
AcDbSpline
210
0.0
220
0.0
230
1.0
 70
     8
 71
     3
 72
     9
 73
     5
 74
     0
 42
0.0000000001
 43
0.0000000001
 40
0.0
 40
0.0
 40
0.0
 40
0.0
 40
0.5
 40
1.0
 40
1.0
 40
1.0
 40
1.0
 10
241.963408223085
 20
112.0392760883504
 30
0.0
 10
242.0943079170015
 20
112.0392760883504
 30
0.0
 10
242.3550447111683
 20
111.930912576411
 30
0.0
 10
242.463408223085
 20
111.6701757822655
 30
0.0
 10
242.463408223085
 20
111.5392760883504
 30
0.0
  0
SPLINE
  5
7950
330
1A
100
AcDbEntity
  8
SEIHIN
100
AcDbSpline
210
0.0
220
0.0
230
1.0
 70
     8
 71
     3
 72
     9
 73
     5
 74
     0
 42
0.0000000001
 43
0.0000000001
 40
0.0
 40
0.0
 40
0.0
 40
0.0
 40
0.5
 40
1.0
 40
1.0
 40
1.0
 40
1.0
 10
242.463408223085
 20
109.9392760883518
 30
0.0
 10
242.463408223085
 20
109.677476700518
 30
0.0
 10
242.6801352470015
 20
109.156003112267
 30
0.0
 10
243.2016088352515
 20
108.9392760883518
 30
0.0
 10
243.463408223085
 20
108.9392760883518
 30
0.0
  0
LINE
  5
7951
330
1A
100
AcDbEntity
  8
SEIHIN
100
AcDbLine
 10
277.9634077909513
 20
108.9392760347062
 30
0.0
 11
243.4634086552187
 21
108.9392760347062
 31
0.0
  0
ARC
  5
7954
330
1A
100
AcDbEntity
  8
SEIHIN
100
AcDbCircle
 10
240.263408223085
 20
150.676371737101
 30
0.0
 40
0.4999999999999432
100
AcDbArc
 50
270.0
 51
0.0
  0
LINE
  5
7955
330
1A
100
AcDbEntity
  8
SEIHIN
100
AcDbLine
 10
238.7634073260351
 20
110.3392755191261
 30
0.0
 11
240.2634085032268
 21
110.3392755191261
 31
0.0
  0
LINE
  5
7956
330
1A
100
AcDbEntity
  8
SEIHIN
100
AcDbLine
 10
241.7634078177734
 20
107.3392768900329
 30
0.0
 11
279.6634086283966
 21
107.3392768900329
 31
0.0
  0
LINE
  5
7957
330
1A
100
AcDbEntity
  8
SEIHIN
100
AcDbLine
 10
240.2634085032268
 20
150.1763723063246
 30
0.0
 11
238.7634073260351
 21
150.1763723063246
 31
0.0
  0
ARC
  5
795B
330
1A
100
AcDbEntity
  8
SEIHIN
100
AcDbCircle
 10
240.263408223085
 20
109.8392760883497
 30
0.0
 40
0.5
100
AcDbArc
 50
0.0
 51
90.0
  0
LINE
  5
795F
330
1A
100
AcDbEntity
  8
SEIHIN
100
AcDbLine
 10
240.7634076538606
 20
152.1763726341502
 30
0.0
 11
240.7634076538606
 21
150.6763714569584
 31
0.0
  0
ARC
  5
7962
330
1A
100
AcDbEntity
  8
SEIHIN
100
AcDbCircle
 10
241.7634082230847
 20
108.3392760883497
 30
0.0
 40
1.0
100
AcDbArc
 50
180.0
 51
270.0
  0
LINE
  5
7963
330
1A
100
AcDbEntity
  8
SEIHIN
100
AcDbLine
 10
240.7634076538606
 20
109.8392763684922
 30
0.0
 11
240.7634076538606
 21
108.3392751913005
 31
0.0
  0
ARC
  5
7965
330
1A
100
AcDbEntity
  8
SEIHIN
100
AcDbCircle
 10
238.7634082230847
 20
111.3392760883497
 30
0.0
 40
1.0
100
AcDbArc
 50
180.0
 51
270.0
  0
LINE
  5
7966
330
1A
100
AcDbEntity
  8
SEIHIN
100
AcDbLine
 10
237.7634090247675
 20
111.3392756830388
 30
0.0
 11
237.7634090247675
 21
149.1763721424119
 31
0.0
  0
LINE
  5
796E
330
1A
100
AcDbEntity
  8
SEIHIN
100
AcDbLine
 10
240.6017039778753
 20
123.0331046087953
 30
0.0
 11
240.4946689370199
 21
129.4492950810928
 31
0.0
  0
LINE
  5
796F
330
1A
100
AcDbEntity
  8
SEIHIN
100
AcDbLine
 10
240.6155732336565
 20
114.0131828885013
 30
0.0
 11
240.6017039778753
 21
123.0331046087953
 31
0.0
  0
LINE
  5
7972
330
1A
100
AcDbEntity
  8
SEIHIN
100
AcDbLine
 10
240.4946689370199
 20
129.4492950810928
 30
0.0
 11
240.0992405477091
 21
146.3256231403437
 31
0.0
  0
ELLIPSE
  5
7975
330
1A
100
AcDbEntity
  8
SEIHIN
100
AcDbEllipse
 10
240.7634082230847
 20
113.0491150341866
 30
0.0
 11
-2.0
 21
0.000000000000009
 31
0.0
210
0.0
220
0.0
230
1.0
 40
0.0175079588728212
 41
2.014011607096581
 42
3.141592654168777
  0
LINE
  5
7976
330
1A
100
AcDbEntity
  8
SEIHIN
100
AcDbLine
 10
242.9907549980207
 20
113.0666238765651
 30
0.0
 11
242.7634079816862
 21
113.0666238765651
 31
0.0
  0
LINE
  5
7977
330
1A
100
AcDbEntity
  8
SEIHIN
100
AcDbLine
 10
276.9334898206516
 20
110.2634565483266
 30
0.0
 11
244.4933266255184
 21
110.2634565483266
 31
0.0
  0
SPLINE
  5
797F
330
1A
100
AcDbEntity
  8
SEIHIN
100
AcDbSpline
210
0.0
220
0.0
230
1.0
 70
     8
 71
     3
 72
    10
 73
     6
 74
     0
 42
0.0000000001
 43
0.0000000001
 40
0.0
 40
0.0
 40
0.0
 40
0.0
 40
0.5
 40
0.5
 40
1.0
 40
1.0
 40
1.0
 40
1.0
 10
243.4912132840108
 20
112.5670811430526
 30
0.0
 10
243.4910922715389
 20
112.6990271708917
 30
0.0
 10
243.4368197908329
 20
112.8279944749909
 30
0.0
 10
243.2523806753008
 20
113.0122712497894
 30
0.0
 10
243.1228666160031
 20
113.0666230013802
 30
0.0
 10
242.990755129942
 20
113.0666230013802
 30
0.0
  0
SPLINE
  5
7980
330
1A
100
AcDbEntity
  8
SEIHIN
100
AcDbSpline
210
0.0
220
0.0
230
1.0
 70
     8
 71
     3
 72
    12
 73
     8
 74
     0
 42
0.0000000001
 43
0.0000000001
 40
0.0
 40
0.0
 40
0.0
 40
0.0
 40
0.25
 40
0.25
 40
0.5
 40
0.5
 40
1.0
 40
1.0
 40
1.0
 40
1.0
 10
242.7634082227827
 20
147.296939056633
 30
0.0
 10
242.8232613318912
 20
147.3190417810737
 30
0.0
 10
242.8731761656836
 20
147.3504414368407
 30
0.0
 10
242.956409937891
 20
148.0014984442219
 30
0.0
 10
242.9887076449736
 20
148.0417269742698
 30
0.0
 10
243.0652033857711
 20
148.1705542646065
 30
0.0
 10
243.0869499695229
 20
148.261927207635
 30
0.0
 10
243.0852421227246
 20
148.3545378408904
 30
0.0
  0
SPLINE
  5
7981
330
1A
100
AcDbEntity
  8
SEIHIN
100
AcDbSpline
210
0.0
220
0.0
230
1.0
 70
     8
 71
     3
 72
    10
 73
     6
 74
     0
 42
0.0000000001
 43
0.0000000001
 40
0.0
 40
0.0
 40
0.0
 40
0.0
 40
0.5
 40
0.5
 40
1.0
 40
1.0
 40
1.0
 40
1.0
 10
242.7634082230847
 20
147.3332554043853
 30
0.0
 10
242.7634082193887
 20
147.3387877502508
 30
0.0
 10
242.7468273236552
 20
147.3360881024936
 30
0.0
 10
242.6744179545635
 20
147.3226679433982
 30
0.0
 10
242.6175237021248
 20
147.3124632916777
 30
0.0
 10
242.5452073608716
 20
147.3161371743016
 30
0.0
  0
SPLINE
  5
7986
330
1A
100
AcDbEntity
  8
SEIHIN
100
AcDbSpline
210
0.0
220
0.0
230
1.0
 70
     8
 71
     3
 72
    12
 73
     8
 74
     0
 42
0.0000000001
 43
0.0000000001
 40
0.0
 40
0.0
 40
0.0
 40
0.0
 40
0.2499999999999988
 40
0.2499999999999988
 40
0.4999999999999977
 40
0.4999999999999977
 40
1.0
 40
1.0
 40
1.0
 40
1.0
 10
244.4933260134894
 20
110.2634560965515
 30
0.0
 10
244.3612156848785
 20
110.2634560976647
 30
0.0
 10
244.231687416689
 20
110.2896791625015
 30
0.0
 10
243.9894902129572
 20
110.3897850188794
 30
0.0
 10
243.8784817227588
 20
110.4637656410367
 30
0.0
 10
243.6016126790014
 20
110.7398825836052
 30
0.0
 10
243.4926519268919
 20
110.9984559074536
 30
0.0
 10
243.4924099658299
 20
111.262278310084
 30
0.0
  0
SPLINE
  5
7987
330
1A
100
AcDbEntity
  8
SEIHIN
100
AcDbSpline
210
0.0
220
0.0
230
1.0
 70
     8
 71
     3
 72
     8
 73
     4
 74
     0
 42
0.0000000001
 43
0.0000000001
 40
0.0
 40
0.0
 40
0.0
 40
0.0
 40
1.0
 40
1.0
 40
1.0
 40
1.0
 10
240.6155740224003
 20
114.0131828207585
 30
0.0
 10
240.6157913623046
 20
113.8288656336943
 30
0.0
 10
240.6670841931981
 20
113.6488409964794
 30
0.0
 10
240.7634080984553
 20
113.4916620798166
 30
0.0
  0
SPLINE
  5
7988
330
1A
100
AcDbEntity
  8
SEIHIN
100
AcDbSpline
210
0.0
220
0.0
230
1.0
 70
     8
 71
     3
 72
    12
 73
     8
 74
     0
 42
0.0000000001
 43
0.0000000001
 40
0.0
 40
0.0
 40
0.0
 40
0.0
 40
0.2499999999999979
 40
0.2499999999999979
 40
0.4999999999999958
 40
0.4999999999999958
 40
1.0
 40
1.0
 40
1.0
 40
1.0
 10
241.6210993174363
 20
113.0174824381709
 30
0.0
 10
241.5409862399228
 20
113.0168168206427
 30
0.0
 10
241.4601038714918
 20
113.0256966076111
 30
0.0
 10
241.2975842809678
 20
113.0647505378937
 30
0.0
 10
241.2165855075602
 20
113.0951861734928
 30
0.0
 10
240.9894916068628
 20
113.2166181955934
 30
0.0
 10
240.8560654352888
 20
113.340466176486
 30
0.0
 10
240.7634080984523
 20
113.4916620796456
 30
0.0
  0
SPLINE
  5
7989
330
1A
100
AcDbEntity
  8
SEIHIN
100
AcDbSpline
210
0.0
220
0.0
230
1.0
 70
     8
 71
     3
 72
    14
 73
    10
 74
     0
 42
0.0000000001
 43
0.0000000001
 40
0.0
 40
0.0
 40
0.0
 40
0.0
 40
0.25
 40
0.25
 40
0.5
 40
0.5
 40
0.75
 40
0.75
 40
1.0
 40
1.0
 40
1.0
 40
1.0
 10
243.0583756544292
 20
149.2329780781482
 30
0.0
 10
243.0562874918773
 20
149.3462119311742
 30
0.0
 10
243.0722860659384
 20
149.4574788324361
 30
0.0
 10
243.1417962915875
 20
149.6759330480462
 30
0.0
 10
243.1963527304153
 20
149.7843282198745
 30
0.0
 10
243.3512935918774
 20
149.9821837255812
 30
0.0
 10
243.4531175074873
 20
150.0738437275694
 30
0.0
 10
243.7138874452061
 20
150.2126587944666
 30
0.0
 10
243.8732913522828
 20
150.2572639461622
 30
0.0
 10
244.0394866398849
 20
150.2572639453764
 30
0.0
  0
SPLINE
  5
798A
330
1A
100
AcDbEntity
  8
SEIHIN
100
AcDbSpline
210
0.0
220
0.0
230
1.0
 70
     8
 71
     3
 72
     8
 73
     4
 74
     0
 42
0.0000000001
 43
0.0000000001
 40
0.0
 40
0.0
 40
0.0
 40
0.0
 40
1.0
 40
1.0
 40
1.0
 40
1.0
 10
241.075902623651
 20
147.3437740077105
 30
0.0
 10
240.9702051045442
 20
147.3442070732097
 30
0.0
 10
240.8607323551354
 20
147.3259546247326
 30
0.0
 10
240.7634082232348
 20
147.2929995247876
 30
0.0
  0
SPLINE
  5
798B
330
1A
100
AcDbEntity
  8
SEIHIN
100
AcDbSpline
210
0.0
220
0.0
230
1.0
 70
     8
 71
     3
 72
    14
 73
    10
 74
     0
 42
0.0000000001
 43
0.0000000001
 40
0.0
 40
0.0
 40
0.0
 40
0.0
 40
0.25
 40
0.25
 40
0.5
 40
0.5
 40
0.75
 40
0.75
 40
1.0
 40
1.0
 40
1.0
 40
1.0
 10
240.0992399664619
 20
146.3256226143393
 30
0.0
 10
240.0970077028209
 20
146.4197710257221
 30
0.0
 10
240.1075519840819
 20
146.5125639560036
 30
0.0
 10
240.1543021717977
 20
146.6954273390846
 30
0.0
 10
240.1910639179893
 20
146.7865601458878
 30
0.0
 10
240.2951710535644
 20
146.9597948913878
 30
0.0
 10
240.3625167471541
 20
147.0422855301157
 30
0.0
 10
240.5348590405496
 20
147.1881571448037
 30
0.0
 10
240.639711558402
 20
147.2511143738637
 30
0.0
 10
240.7634082231504
 20
147.2929995247658
 30
0.0
  0
LINE
  5
798D
330
1A
100
AcDbEntity
  8
SEIHIN
100
AcDbLine
 10
241.7634078177734
 20
105.5516304596204
 30
0.0
 11
241.7634078177734
 21
107.3392768900329
 31
0.0
  0
SPLINE
  5
798F
330
1A
100
AcDbEntity
  8
SEIHIN
100
AcDbSpline
210
0.0
220
0.0
230
1.0
 70
    24
 71
     3
 72
    10
 73
     6
 74
     0
 42
0.0000000001
 43
0.0000000001
 40
0.0
 40
0.0
 40
0.0
 40
0.0
 40
0.5
 40
0.5
 40
1.0
 40
1.0
 40
1.0
 40
1.0
 10
240.7634082230847
 20
108.3392760883497
 30
0.0
 10
240.7634082230847
 20
108.3392760883497
 30
0.0
 10
240.7634082230847
 20
108.1426662742586
 30
0.0
 10
240.7634082230847
 20
107.4373832611153
 30
0.0
 10
240.7634082230847
 20
106.9555420188834
 30
0.0
 10
240.7634082230847
 20
105.6039668116901
 30
0.0
  0
LINE
  5
7994
330
1A
100
AcDbEntity
  8
SEIHIN
100
AcDbLine
 10
241.7634078177734
 20
105.5516304596204
 30
0.0
 11
241.7634078177734
 21
105.1469149215955
 31
0.0
  0
LINE
  5
7996
330
1A
100
AcDbEntity
  8
SEIHIN
100
AcDbLine
 10
241.7634078177734
 20
105.1469149215955
 30
0.0
 11
279.6634086283966
 21
105.1469149215955
 31
0.0
  0
ARC
  5
7997
330
1A
100
AcDbEntity
  8
SEIHIN
100
AcDbCircle
 10
241.5140960783719
 20
109.9630078142219
 30
0.0
 40
4.822541559573368
100
AcDbArc
 50
261.0447843330245
 51
272.9633504924694
  0
LINE
  5
7998
330
1A
100
AcDbEntity
  8
SEIHIN
100
AcDbLine
 10
240.7634076538606
 20
105.6039670630235
 30
0.0
 11
240.7634076538606
 21
105.1992515249986
 31
0.0
  0
SPLINE
  5
79A4
330
1A
100
AcDbEntity
  8
SEIHIN
100
AcDbSpline
210
0.0
220
0.0
230
1.0
 70
    24
 71
     3
 72
    19
 73
    15
 74
     0
 42
0.0000000001
 43
0.0000000001
 40
0.0
 40
0.0
 40
0.0
 40
0.0
 40
0.0484552315851395
 40
0.0965092811355426
 40
0.1444200801242903
 40
0.1924478680455865
 40
0.2408509974569255
 40
0.3703622983525199
 40
0.5000458461532084
 40
0.6295570677298902
 40
0.7592405542779638
 40
0.8395805962181912
 40
0.9194319278661053
 40
1.0
 40
1.0
 40
1.0
 40
1.0
 10
237.7634082230847
 20
109.4439480008503
 30
0.0
 10
237.7634082230847
 20
109.492841275979
 30
0.0
 10
237.7634082230849
 20
109.5902230174459
 30
0.0
 10
237.7634082230847
 20
109.7344824822783
 30
0.0
 10
237.7634082230847
 20
109.8762345705971
 30
0.0
 10
237.7634082230847
 20
110.0154335028045
 30
0.0
 10
237.7634082230847
 20
110.2275944007805
 30
0.0
 10
237.7634082230847
 20
110.5005735426301
 30
0.0
 10
237.7634082230849
 20
110.7990394993784
 30
0.0
 10
237.7634082230847
 20
111.0428159801621
 30
0.0
 10
237.7634082230847
 20
111.1968274809941
 30
0.0
 10
237.7634082230847
 20
111.2849046231812
 30
0.0
 10
237.7634082230847
 20
111.3308523688746
 30
0.0
 10
237.7634082230847
 20
111.3364598306351
 30
0.0
 10
237.7634082230847
 20
111.3392760883497
 30
0.0
  0
ARC
  5
79AA
330
1A
100
AcDbEntity
  8
SEIHIN
100
AcDbCircle
 10
240.3880701689131
 20
102.896000525434
 30
0.0
 40
2.411147142815257
100
AcDbArc
 50
81.04448319084658
 51
92.96364049426637
  0
LINE
  5
79AC
330
1A
100
AcDbEntity
  8
SEIHIN
100
AcDbLine
 10
238.7634073260351
 20
105.3039228691596
 30
0.0
 11
240.2634085032268
 21
105.3039228691596
 31
0.0
  0
ARC
  5
79B1
330
1A
100
AcDbEntity
  8
SEIHIN
100
AcDbCircle
 10
238.5140943506994
 20
110.1199654299636
 30
0.0
 40
4.822491358951017
100
AcDbArc
 50
261.044727613777
 51
272.9633960713068
  0
LINE
  5
79B2
330
1A
100
AcDbEntity
  8
SEIHIN
100
AcDbLine
 10
237.7634090247675
 20
105.3562594725627
 30
0.0
 11
237.7634090247675
 21
109.4439485620195
 31
0.0
  0
LINE
  5
79B4
330
1A
100
AcDbEntity
  8
SEIHIN
100
AcDbLine
 10
240.6017039778753
 20
123.0331046087953
 30
0.0
 11
240.7634076538606
 21
123.0331046087953
 31
0.0
  0
LINE
  5
79B7
330
1A
100
AcDbEntity
  8
SEIHIN
100
AcDbLine
 10
242.7634079816862
 20
123.9346022764506
 30
0.0
 11
242.7634079816862
 21
147.3332545614329
 31
0.0
  0
ELLIPSE
  5
79B8
330
1A
100
AcDbEntity
  8
SEIHIN
100
AcDbEllipse
 10
240.7634082230847
 20
123.934602269895
 30
0.0
 11
1.999999999999999
 21
0.000000000000013
 31
0.0
210
0.0
220
0.0
230
1.0
 40
0.4507487417898234
 41
4.712388974672207
 42
6.283185307263213
  0
LINE
  5
79BB
330
1A
100
AcDbEntity
  8
SEIHIN
100
AcDbLine
 10
278.6634084644838
 20
124.385350993863
 30
0.0
 11
242.7634079816862
 21
124.385350993863
 31
0.0
  0
LINE
  5
79BE
330
1A
100
AcDbEntity
  8
SEIHIN
100
AcDbLine
 10
242.7634079816862
 20
113.0491150121623
 30
0.0
 11
242.7634079816862
 21
123.9346022764506
 31
0.0
  0
LINE
  5
7CED
330
1A
100
AcDbEntity
  8
SEIHIN
100
AcDbLine
 10
124.5638031618798
 20
199.1930102221808
 30
0.0
 11
125.0871636079752
 21
199.1930102221808
 31
0.0
  0
LINE
  5
7CEF
330
1A
100
AcDbEntity
  8
SEIHIN
100
AcDbLine
 10
127.5596927957737
 20
196.1930115930877
 30
0.0
 11
128.0830513792241
 21
196.1930115930877
 31
0.0
  0
LINE
  5
7CF0
330
1A
100
AcDbEntity
  8
SEIHIN
100
AcDbLine
 10
123.1507334964478
 20
199.1930102221808
 30
0.0
 11
124.5638031618798
 21
199.1930102221808
 31
0.0
  0
ARC
  5
7CF1
330
1A
100
AcDbEntity
  8
SEIHIN
100
AcDbCircle
 10
123.1514202073885
 20
200.1923280498517
 30
0.0
 40
0.9993180636190873
100
AcDbArc
 50
179.9608783317495
 51
269.960627508715
  0
ARC
  5
7CF3
330
1A
100
AcDbEntity
  8
SEIHIN
100
AcDbCircle
 10
124.648334400797
 20
198.6933526127136
 30
0.0
 40
0.4996577265468974
100
AcDbArc
 50
359.9608354523338
 51
89.96077710969236
  0
LINE
  5
7CF4
330
1A
100
AcDbEntity
  8
SEIHIN
100
AcDbLine
 10
126.1466212676966
 20
196.1930115930877
 30
0.0
 11
127.5596927957737
 21
196.1930115930877
 31
0.0
  0
ARC
  5
7CF5
330
1A
100
AcDbEntity
  8
SEIHIN
100
AcDbCircle
 10
126.1473042985703
 20
197.1923238830854
 30
0.0
 40
0.9993125234243779
100
AcDbArc
 50
179.9606674062538
 51
269.9608382878463
  0
LINE
  5
7CF6
330
1A
100
AcDbEntity
  8
SEIHIN
100
AcDbLine
 10
125.1479920106137
 20
197.1930098943553
 30
0.0
 11
125.1479920106137
 21
198.693011071547
 31
0.0
  0
LINE
  5
7D00
330
1A
100
AcDbEntity
  8
SEIHIN
100
AcDbLine
 10
180.7688147044657
 20
198.6930110715479
 30
0.0
 11
180.7688147044657
 21
197.1930098943561
 31
0.0
  0
LINE
  5
7D05
330
1A
100
AcDbEntity
  8
SEIHIN
100
AcDbLine
 10
182.7523474677393
 20
196.1930115930885
 30
0.0
 11
129.02879641523
 21
196.1930115930877
 31
0.0
  0
LINE
  5
7D09
330
1A
100
AcDbEntity
  8
SEIHIN
100
AcDbLine
 10
125.0871636079752
 20
199.1930102221808
 30
0.0
 11
180.637974842523
 21
199.1930102221816
 31
0.0
  0
LINE
  5
7D0F
330
1A
100
AcDbEntity
  8
SEIHIN
100
AcDbLine
 10
129.02879641523
 20
196.1930115930877
 30
0.0
 11
128.0830513792241
 21
196.1930115930877
 31
0.0
  0
LINE
  5
7D10
330
1A
100
AcDbEntity
  8
SEIHIN
100
AcDbLine
 10
283.6634074214025
 20
105.3562594725627
 30
0.0
 11
283.6634074214025
 21
95.16062048812102
 31
0.0
  0
LINE
  5
7D18
330
1A
100
AcDbEntity
  8
SEIHIN
100
AcDbLine
 10
279.6634086283966
 20
95.16062048812102
 30
0.0
 11
260.713408223085
 21
95.16062048812102
 31
0.0
  0
LINE
  5
7D1B
330
1A
100
AcDbEntity
  8
SEIHIN
100
AcDbLine
 10
280.6634087923093
 20
95.16062048812104
 30
0.0
 11
280.6634087923093
 21
68.24995783705901
 31
0.0
  0
LINE
  5
7D1F
330
1A
100
AcDbEntity
  8
SEIHIN
100
AcDbLine
 10
283.6634074214025
 20
95.16062048812104
 30
0.0
 11
283.6634074214025
 21
68.40696764726828
 31
0.0
  0
LINE
  5
7D22
330
1A
100
AcDbEntity
  8
SEIHIN
100
AcDbLine
 10
278.9634079548641
 20
111.5392753432923
 30
0.0
 11
278.9634079548641
 21
109.939276198619
 31
0.0
  0
LINE
  5
7D23
330
1A
100
AcDbEntity
  8
SEIHIN
100
AcDbLine
 10
277.9344064059778
 20
111.2622776578599
 30
0.0
 11
277.9356040868087
 21
112.5670810739928
 31
0.0
  0
LINE
  5
7D24
330
1A
100
AcDbEntity
  8
SEIHIN
100
AcDbLine
 10
278.9634079548641
 20
150.5763716268317
 30
0.0
 11
278.9634079548641
 21
148.9763724821583
 31
0.0
  0
LINE
  5
7D25
330
1A
100
AcDbEntity
  8
SEIHIN
100
AcDbLine
 10
278.3415750476642
 20
148.3545377123133
 30
0.0
 11
278.3684399786516
 21
149.2329775250044
 31
0.0
  0
ELLIPSE
  5
7D26
330
1A
100
AcDbEntity
  8
SEIHIN
100
AcDbEllipse
 10
280.6634082230853
 20
147.292609071458
 30
0.0
 11
2.000000000000206
 21
0.000000000000009
 31
0.0
210
0.0
220
0.0
230
-1.0
 40
0.0259005807983172
 41
3.613067130738829
 42
4.555498981887647
  0
LINE
  5
7D27
330
1A
100
AcDbEntity
  8
SEIHIN
100
AcDbLine
 10
279.4634089681431
 20
148.4763714688794
 30
0.0
 11
281.0634081128164
 21
148.4763714688794
 31
0.0
  0
ARC
  5
7D28
330
1A
100
AcDbEntity
  8
SEIHIN
100
AcDbCircle
 10
282.6634082230853
 20
149.176371737101
 30
0.0
 40
1.0
100
AcDbArc
 50
0.0000000000000127
 51
90.0
  0
ARC
  5
7D29
330
1A
100
AcDbEntity
  8
SEIHIN
100
AcDbCircle
 10
279.6634082230852
 20
152.176371737101
 30
0.0
 40
1.0
100
AcDbArc
 50
0.0000000000000127
 51
90.0
  0
SPLINE
  5
7D2A
330
1A
100
AcDbEntity
  8
SEIHIN
100
AcDbSpline
210
0.0
220
0.0
230
1.0
 70
     8
 71
     3
 72
     9
 73
     5
 74
     0
 42
0.0000000001
 43
0.0000000001
 40
0.0
 40
0.0
 40
0.0
 40
0.0
 40
0.5
 40
1.0
 40
1.0
 40
1.0
 40
1.0
 10
277.963408223085
 20
151.5763717370988
 30
0.0
 10
278.2252076109184
 20
151.5763717370988
 30
0.0
 10
278.7466811991685
 20
151.3596447131837
 30
0.0
 10
278.963408223085
 20
150.8381711249327
 30
0.0
 10
278.963408223085
 20
150.5763717370988
 30
0.0
  0
SPLINE
  5
7D2B
330
1A
100
AcDbEntity
  8
SEIHIN
100
AcDbSpline
210
0.0
220
0.0
230
1.0
 70
     8
 71
     3
 72
     9
 73
     5
 74
     0
 42
0.0000000001
 43
0.0000000001
 40
0.0
 40
0.0
 40
0.0
 40
0.0
 40
0.5
 40
1.0
 40
1.0
 40
1.0
 40
1.0
 10
278.963408223085
 20
148.9763717371003
 30
0.0
 10
278.963408223085
 20
148.8454720431851
 30
0.0
 10
279.0717717350225
 20
148.5847352490178
 30
0.0
 10
279.3325085291685
 20
148.4763717371003
 30
0.0
 10
279.463408223085
 20
148.4763717371003
 30
0.0
  0
SPLINE
  5
7D2C
330
1A
100
AcDbEntity
  8
SEIHIN
100
AcDbSpline
210
0.0
220
0.0
230
1.0
 70
     8
 71
     3
 72
     9
 73
     5
 74
     0
 42
0.0000000001
 43
0.0000000001
 40
0.0
 40
0.0
 40
0.0
 40
0.0
 40
0.5
 40
1.0
 40
1.0
 40
1.0
 40
1.0
 10
281.0634082230849
 20
148.4763717371003
 30
0.0
 10
281.3252076109183
 20
148.4763717371003
 30
0.0
 10
281.8466811991683
 20
148.2596447131851
 30
0.0
 10
282.0634082230849
 20
147.7381711249342
 30
0.0
 10
282.0634082230849
 20
147.4763717371003
 30
0.0
  0
LINE
  5
7D2D
330
1A
100
AcDbEntity
  8
SEIHIN
100
AcDbLine
 10
282.0634082767292
 20
113.0392765204841
 30
0.0
 11
282.0634082767292
 21
147.4763713049666
 31
0.0
  0
SPLINE
  5
7D2E
330
1A
100
AcDbEntity
  8
SEIHIN
100
AcDbSpline
210
0.0
220
0.0
230
1.0
 70
     8
 71
     3
 72
     9
 73
     5
 74
     0
 42
0.0000000001
 43
0.0000000001
 40
0.0
 40
0.0
 40
0.0
 40
0.0
 40
0.5
 40
1.0
 40
1.0
 40
1.0
 40
1.0
 10
282.0634082230849
 20
113.0392760883504
 30
0.0
 10
282.0634082230849
 20
112.7774767005165
 30
0.0
 10
281.8466811991683
 20
112.2560031122692
 30
0.0
 10
281.3252076109183
 20
112.0392760883504
 30
0.0
 10
281.0634082230849
 20
112.0392760883504
 30
0.0
  0
LINE
  5
7D2F
330
1A
100
AcDbEntity
  8
SEIHIN
100
AcDbLine
 10
281.0634081128164
 20
112.0392763565713
 30
0.0
 11
279.4634089681431
 21
112.0392763565713
 31
0.0
  0
SPLINE
  5
7D30
330
1A
100
AcDbEntity
  8
SEIHIN
100
AcDbSpline
210
0.0
220
0.0
230
1.0
 70
     8
 71
     3
 72
     9
 73
     5
 74
     0
 42
0.0000000001
 43
0.0000000001
 40
0.0
 40
0.0
 40
0.0
 40
0.0
 40
0.5
 40
1.0
 40
1.0
 40
1.0
 40
1.0
 10
279.463408223085
 20
112.0392760883504
 30
0.0
 10
279.3325085291685
 20
112.0392760883504
 30
0.0
 10
279.0717717350016
 20
111.930912576411
 30
0.0
 10
278.963408223085
 20
111.6701757822655
 30
0.0
 10
278.963408223085
 20
111.5392760883504
 30
0.0
  0
SPLINE
  5
7D31
330
1A
100
AcDbEntity
  8
SEIHIN
100
AcDbSpline
210
0.0
220
0.0
230
1.0
 70
     8
 71
     3
 72
     9
 73
     5
 74
     0
 42
0.0000000001
 43
0.0000000001
 40
0.0
 40
0.0
 40
0.0
 40
0.0
 40
0.5
 40
1.0
 40
1.0
 40
1.0
 40
1.0
 10
278.963408223085
 20
109.9392760883518
 30
0.0
 10
278.963408223085
 20
109.677476700518
 30
0.0
 10
278.7466811991685
 20
109.156003112267
 30
0.0
 10
278.2252076109184
 20
108.9392760883518
 30
0.0
 10
277.963408223085
 20
108.9392760883518
 30
0.0
  0
ARC
  5
7D32
330
1A
100
AcDbEntity
  8
SEIHIN
100
AcDbCircle
 10
281.163408223085
 20
150.676371737101
 30
0.0
 40
0.4999999999999432
100
AcDbArc
 50
180.0
 51
270.0
  0
LINE
  5
7D33
330
1A
100
AcDbEntity
  8
SEIHIN
100
AcDbLine
 10
282.6634091201349
 20
110.3392755191261
 30
0.0
 11
281.1634079429432
 21
110.3392755191261
 31
0.0
  0
LINE
  5
7D34
330
1A
100
AcDbEntity
  8
SEIHIN
100
AcDbLine
 10
281.1634079429432
 20
150.1763723063246
 30
0.0
 11
282.6634091201349
 21
150.1763723063246
 31
0.0
  0
ARC
  5
7D35
330
1A
100
AcDbEntity
  8
SEIHIN
100
AcDbCircle
 10
281.163408223085
 20
109.8392760883497
 30
0.0
 40
0.5
100
AcDbArc
 50
90.0
 51
180.0
  0
LINE
  5
7D36
330
1A
100
AcDbEntity
  8
SEIHIN
100
AcDbLine
 10
280.6634087923093
 20
152.1763726341502
 30
0.0
 11
280.6634087923093
 21
150.6763714569584
 31
0.0
  0
ARC
  5
7D37
330
1A
100
AcDbEntity
  8
SEIHIN
100
AcDbCircle
 10
279.6634082230852
 20
108.3392760883497
 30
0.0
 40
1.0
100
AcDbArc
 50
270.0
 51
0.0000000000000127
  0
LINE
  5
7D38
330
1A
100
AcDbEntity
  8
SEIHIN
100
AcDbLine
 10
280.6634087923093
 20
109.8392763684922
 30
0.0
 11
280.6634087923093
 21
108.3392751913005
 31
0.0
  0
ARC
  5
7D39
330
1A
100
AcDbEntity
  8
SEIHIN
100
AcDbCircle
 10
282.6634082230853
 20
111.3392760883497
 30
0.0
 40
1.0
100
AcDbArc
 50
270.0
 51
0.0000000000000127
  0
LINE
  5
7D3A
330
1A
100
AcDbEntity
  8
SEIHIN
100
AcDbLine
 10
283.6634074214025
 20
111.3392756830388
 30
0.0
 11
283.6634074214025
 21
149.1763721424119
 31
0.0
  0
LINE
  5
7D3B
330
1A
100
AcDbEntity
  8
SEIHIN
100
AcDbLine
 10
280.8251124682947
 20
123.0331046087953
 30
0.0
 11
280.9321475091501
 21
129.4492950810928
 31
0.0
  0
LINE
  5
7D3C
330
1A
100
AcDbEntity
  8
SEIHIN
100
AcDbLine
 10
280.8112432125135
 20
114.0131828885013
 30
0.0
 11
280.8251124682947
 21
123.0331046087953
 31
0.0
  0
LINE
  5
7D3D
330
1A
100
AcDbEntity
  8
SEIHIN
100
AcDbLine
 10
280.9321475091501
 20
129.4492950810928
 30
0.0
 11
281.3275758984609
 21
146.3256231403437
 31
0.0
  0
ELLIPSE
  5
7D3E
330
1A
100
AcDbEntity
  8
SEIHIN
100
AcDbEllipse
 10
280.6634082230853
 20
113.0491150341866
 30
0.0
 11
2.0
 21
0.0000000000000103
 31
0.0
210
0.0
220
0.0
230
-1.0
 40
0.0175079588728208
 41
2.014011607096584
 42
3.141592654168816
  0
LINE
  5
7D3F
330
1A
100
AcDbEntity
  8
SEIHIN
100
AcDbLine
 10
278.4360614481493
 20
113.0666238765651
 30
0.0
 11
278.6634084644838
 21
113.0666238765651
 31
0.0
  0
SPLINE
  5
7D40
330
1A
100
AcDbEntity
  8
SEIHIN
100
AcDbSpline
210
0.0
220
0.0
230
1.0
 70
     8
 71
     3
 72
    10
 73
     6
 74
     0
 42
0.0000000001
 43
0.0000000001
 40
0.0
 40
0.0
 40
0.0
 40
0.0
 40
0.5
 40
0.5
 40
1.0
 40
1.0
 40
1.0
 40
1.0
 10
277.9356031621591
 20
112.5670811430526
 30
0.0
 10
277.9357241746311
 20
112.6990271708917
 30
0.0
 10
277.9899966553371
 20
112.8279944749909
 30
0.0
 10
278.1744357708692
 20
113.0122712497894
 30
0.0
 10
278.3039498301668
 20
113.0666230013802
 30
0.0
 10
278.436061316228
 20
113.0666230013802
 30
0.0
  0
SPLINE
  5
7D41
330
1A
100
AcDbEntity
  8
SEIHIN
100
AcDbSpline
210
0.0
220
0.0
230
1.0
 70
     8
 71
     3
 72
    12
 73
     8
 74
     0
 42
0.0000000001
 43
0.0000000001
 40
0.0
 40
0.0
 40
0.0
 40
0.0
 40
0.25
 40
0.25
 40
0.5
 40
0.5
 40
1.0
 40
1.0
 40
1.0
 40
1.0
 10
278.6634082233872
 20
147.296939056633
 30
0.0
 10
278.6035551142788
 20
147.3190417810737
 30
0.0
 10
278.5536402804864
 20
147.3504414368407
 30
0.0
 10
278.4704065082789
 20
148.0014984442219
 30
0.0
 10
278.4381088011964
 20
148.0417269742698
 30
0.0
 10
278.3616130603988
 20
148.1705542646065
 30
0.0
 10
278.3398664766471
 20
148.261927207635
 30
0.0
 10
278.3415743234454
 20
148.3545378408904
 30
0.0
  0
SPLINE
  5
7D42
330
1A
100
AcDbEntity
  8
SEIHIN
100
AcDbSpline
210
0.0
220
0.0
230
1.0
 70
     8
 71
     3
 72
    10
 73
     6
 74
     0
 42
0.0000000001
 43
0.0000000001
 40
0.0
 40
0.0
 40
0.0
 40
0.0
 40
0.5
 40
0.5
 40
1.0
 40
1.0
 40
1.0
 40
1.0
 10
278.6634082230853
 20
147.3332554043853
 30
0.0
 10
278.6634082267812
 20
147.3387877502508
 30
0.0
 10
278.6799891225148
 20
147.3360881024936
 30
0.0
 10
278.7523984916065
 20
147.3226679433982
 30
0.0
 10
278.8092927440452
 20
147.3124632916777
 30
0.0
 10
278.8816090852983
 20
147.3161371743016
 30
0.0
  0
SPLINE
  5
7D43
330
1A
100
AcDbEntity
  8
SEIHIN
100
AcDbSpline
210
0.0
220
0.0
230
1.0
 70
     8
 71
     3
 72
    12
 73
     8
 74
     0
 42
0.0000000001
 43
0.0000000001
 40
0.0
 40
0.0
 40
0.0
 40
0.0
 40
0.2499999999999988
 40
0.2499999999999988
 40
0.4999999999999977
 40
0.4999999999999977
 40
1.0
 40
1.0
 40
1.0
 40
1.0
 10
276.9334904326806
 20
110.2634560965515
 30
0.0
 10
277.0656007612915
 20
110.2634560976647
 30
0.0
 10
277.195129029481
 20
110.2896791625015
 30
0.0
 10
277.4373262332128
 20
110.3897850188794
 30
0.0
 10
277.5483347234112
 20
110.4637656410367
 30
0.0
 10
277.8252037671686
 20
110.7398825836052
 30
0.0
 10
277.934164519278
 20
110.9984559074536
 30
0.0
 10
277.9344064803401
 20
111.262278310084
 30
0.0
  0
SPLINE
  5
7D44
330
1A
100
AcDbEntity
  8
SEIHIN
100
AcDbSpline
210
0.0
220
0.0
230
1.0
 70
     8
 71
     3
 72
     8
 73
     4
 74
     0
 42
0.0000000001
 43
0.0000000001
 40
0.0
 40
0.0
 40
0.0
 40
0.0
 40
1.0
 40
1.0
 40
1.0
 40
1.0
 10
280.8112424237697
 20
114.0131828207585
 30
0.0
 10
280.8110250838653
 20
113.8288656336943
 30
0.0
 10
280.7597322529718
 20
113.6488409964794
 30
0.0
 10
280.6634083477147
 20
113.4916620798166
 30
0.0
  0
SPLINE
  5
7D45
330
1A
100
AcDbEntity
  8
SEIHIN
100
AcDbSpline
210
0.0
220
0.0
230
1.0
 70
     8
 71
     3
 72
    12
 73
     8
 74
     0
 42
0.0000000001
 43
0.0000000001
 40
0.0
 40
0.0
 40
0.0
 40
0.0
 40
0.2499999999999979
 40
0.2499999999999979
 40
0.4999999999999958
 40
0.4999999999999958
 40
1.0
 40
1.0
 40
1.0
 40
1.0
 10
279.8057171287337
 20
113.0174824381709
 30
0.0
 10
279.8858302062471
 20
113.0168168206427
 30
0.0
 10
279.9667125746782
 20
113.0256966076111
 30
0.0
 10
280.1292321652022
 20
113.0647505378937
 30
0.0
 10
280.2102309386098
 20
113.0951861734928
 30
0.0
 10
280.4373248393071
 20
113.2166181955934
 30
0.0
 10
280.5707510108811
 20
113.340466176486
 30
0.0
 10
280.6634083477177
 20
113.4916620796456
 30
0.0
  0
SPLINE
  5
7D46
330
1A
100
AcDbEntity
  8
SEIHIN
100
AcDbSpline
210
0.0
220
0.0
230
1.0
 70
     8
 71
     3
 72
    14
 73
    10
 74
     0
 42
0.0000000001
 43
0.0000000001
 40
0.0
 40
0.0
 40
0.0
 40
0.0
 40
0.25
 40
0.25
 40
0.5
 40
0.5
 40
0.75
 40
0.75
 40
1.0
 40
1.0
 40
1.0
 40
1.0
 10
278.3684407917407
 20
149.2329780781482
 30
0.0
 10
278.3705289542926
 20
149.3462119311742
 30
0.0
 10
278.3545303802316
 20
149.4574788324361
 30
0.0
 10
278.2850201545825
 20
149.6759330480462
 30
0.0
 10
278.2304637157547
 20
149.7843282198745
 30
0.0
 10
278.0755228542925
 20
149.9821837255812
 30
0.0
 10
277.9736989386826
 20
150.0738437275694
 30
0.0
 10
277.7129290009638
 20
150.2126587944666
 30
0.0
 10
277.5535250938871
 20
150.2572639461622
 30
0.0
 10
277.3873298062851
 20
150.2572639453764
 30
0.0
  0
SPLINE
  5
7D47
330
1A
100
AcDbEntity
  8
SEIHIN
100
AcDbSpline
210
0.0
220
0.0
230
1.0
 70
     8
 71
     3
 72
     8
 73
     4
 74
     0
 42
0.0000000001
 43
0.0000000001
 40
0.0
 40
0.0
 40
0.0
 40
0.0
 40
1.0
 40
1.0
 40
1.0
 40
1.0
 10
280.350913822519
 20
147.3437740077105
 30
0.0
 10
280.4566113416258
 20
147.3442070732097
 30
0.0
 10
280.5660840910345
 20
147.3259546247326
 30
0.0
 10
280.6634082229352
 20
147.2929995247876
 30
0.0
  0
SPLINE
  5
7D48
330
1A
100
AcDbEntity
  8
SEIHIN
100
AcDbSpline
210
0.0
220
0.0
230
1.0
 70
     8
 71
     3
 72
    14
 73
    10
 74
     0
 42
0.0000000001
 43
0.0000000001
 40
0.0
 40
0.0
 40
0.0
 40
0.0
 40
0.25
 40
0.25
 40
0.5
 40
0.5
 40
0.75
 40
0.75
 40
1.0
 40
1.0
 40
1.0
 40
1.0
 10
281.3275764797081
 20
146.3256226143393
 30
0.0
 10
281.329808743349
 20
146.4197710257221
 30
0.0
 10
281.3192644620881
 20
146.5125639560036
 30
0.0
 10
281.2725142743722
 20
146.6954273390846
 30
0.0
 10
281.2357525281806
 20
146.7865601458878
 30
0.0
 10
281.1316453926055
 20
146.9597948913878
 30
0.0
 10
281.0642996990159
 20
147.0422855301157
 30
0.0
 10
280.8919574056203
 20
147.1881571448037
 30
0.0
 10
280.787104887768
 20
147.2511143738637
 30
0.0
 10
280.6634082230195
 20
147.2929995247658
 30
0.0
  0
LINE
  5
7D49
330
1A
100
AcDbEntity
  8
SEIHIN
100
AcDbLine
 10
279.6634086283966
 20
105.5516304596204
 30
0.0
 11
279.6634086283966
 21
107.3392768900329
 31
0.0
  0
SPLINE
  5
7D4A
330
1A
100
AcDbEntity
  8
SEIHIN
100
AcDbSpline
210
0.0
220
0.0
230
1.0
 70
    24
 71
     3
 72
    10
 73
     6
 74
     0
 42
0.0000000001
 43
0.0000000001
 40
0.0
 40
0.0
 40
0.0
 40
0.0
 40
0.5
 40
0.5
 40
1.0
 40
1.0
 40
1.0
 40
1.0
 10
280.6634082230853
 20
108.3392760883497
 30
0.0
 10
280.6634082230853
 20
108.3392760883497
 30
0.0
 10
280.6634082230853
 20
108.1426662742586
 30
0.0
 10
280.6634082230853
 20
107.4373832611153
 30
0.0
 10
280.6634082230853
 20
106.9555420188834
 30
0.0
 10
280.6634082230853
 20
105.6039668116901
 30
0.0
  0
LINE
  5
7D4B
330
1A
100
AcDbEntity
  8
SEIHIN
100
AcDbLine
 10
279.6634086283966
 20
105.5516304596204
 30
0.0
 11
279.6634086283966
 21
105.1469149215955
 31
0.0
  0
ARC
  5
7D4C
330
1A
100
AcDbEntity
  8
SEIHIN
100
AcDbCircle
 10
279.9127203677981
 20
109.9630078142219
 30
0.0
 40
4.822541559573368
100
AcDbArc
 50
267.0366495075305
 51
278.9552156669754
  0
LINE
  5
7D4D
330
1A
100
AcDbEntity
  8
SEIHIN
100
AcDbLine
 10
280.6634087923093
 20
105.6039670630235
 30
0.0
 11
280.6634087923093
 21
105.1992515249986
 31
0.0
  0
SPLINE
  5
7D4E
330
1A
100
AcDbEntity
  8
SEIHIN
100
AcDbSpline
210
0.0
220
0.0
230
1.0
 70
    24
 71
     3
 72
    19
 73
    15
 74
     0
 42
0.0000000001
 43
0.0000000001
 40
0.0
 40
0.0
 40
0.0
 40
0.0
 40
0.0484552315851395
 40
0.0965092811355426
 40
0.1444200801242903
 40
0.1924478680455865
 40
0.2408509974569255
 40
0.3703622983525199
 40
0.5000458461532084
 40
0.6295570677298902
 40
0.7592405542779638
 40
0.8395805962181912
 40
0.9194319278661053
 40
1.0
 40
1.0
 40
1.0
 40
1.0
 10
283.6634082230852
 20
109.4439480008503
 30
0.0
 10
283.6634082230852
 20
109.492841275979
 30
0.0
 10
283.663408223085
 20
109.5902230174459
 30
0.0
 10
283.6634082230852
 20
109.7344824822783
 30
0.0
 10
283.6634082230852
 20
109.8762345705971
 30
0.0
 10
283.6634082230852
 20
110.0154335028045
 30
0.0
 10
283.6634082230852
 20
110.2275944007805
 30
0.0
 10
283.6634082230852
 20
110.5005735426301
 30
0.0
 10
283.663408223085
 20
110.7990394993784
 30
0.0
 10
283.6634082230852
 20
111.0428159801621
 30
0.0
 10
283.6634082230852
 20
111.1968274809941
 30
0.0
 10
283.6634082230852
 20
111.2849046231812
 30
0.0
 10
283.6634082230852
 20
111.3308523688746
 30
0.0
 10
283.6634082230852
 20
111.3364598306351
 30
0.0
 10
283.6634082230852
 20
111.3392760883497
 30
0.0
  0
ARC
  5
7D4F
330
1A
100
AcDbEntity
  8
SEIHIN
100
AcDbCircle
 10
281.0387462772569
 20
102.896000525434
 30
0.0
 40
2.411147142815257
100
AcDbArc
 50
87.03635950573362
 51
98.95551680915342
  0
LINE
  5
7D50
330
1A
100
AcDbEntity
  8
SEIHIN
100
AcDbLine
 10
282.6634091201349
 20
105.3039228691596
 30
0.0
 11
281.1634079429432
 21
105.3039228691596
 31
0.0
  0
ARC
  5
7D51
330
1A
100
AcDbEntity
  8
SEIHIN
100
AcDbCircle
 10
282.9127220954706
 20
110.1199654299636
 30
0.0
 40
4.822491358951017
100
AcDbArc
 50
267.03660392868
 51
278.9552723862229
  0
LINE
  5
7D52
330
1A
100
AcDbEntity
  8
SEIHIN
100
AcDbLine
 10
283.6634074214025
 20
105.3562594725627
 30
0.0
 11
283.6634074214025
 21
109.4439485620195
 31
0.0
  0
LINE
  5
7D53
330
1A
100
AcDbEntity
  8
SEIHIN
100
AcDbLine
 10
280.8251124682947
 20
123.0331046087953
 30
0.0
 11
280.6634087923093
 21
123.0331046087953
 31
0.0
  0
LINE
  5
7D54
330
1A
100
AcDbEntity
  8
SEIHIN
100
AcDbLine
 10
278.6634084644838
 20
123.9346022764506
 30
0.0
 11
278.6634084644838
 21
147.3332545614329
 31
0.0
  0
ELLIPSE
  5
7D55
330
1A
100
AcDbEntity
  8
SEIHIN
100
AcDbEllipse
 10
280.6634082230853
 20
123.934602269895
 30
0.0
 11
1.999999999999999
 21
0.0000000000000094
 31
0.0
210
0.0
220
0.0
230
-1.0
 40
0.4507487417898234
 41
1.570796321082418
 42
3.141592653673445
  0
LINE
  5
7D56
330
1A
100
AcDbEntity
  8
SEIHIN
100
AcDbLine
 10
278.6634084644838
 20
113.0491150121623
 30
0.0
 11
278.6634084644838
 21
123.9346022764506
 31
0.0
  0
LINE
  5
7D57
330
1A
100
AcDbEntity
  8
CENTER L
  6
CENTER
 62
     1
 48
5.0
100
AcDbLine
 10
192.1953258748967
 20
130.8019428971169
 30
0.0
 11
127.9767026918367
 21
127.4363875027976
 31
0.0
  0
LINE
  5
7D58
330
1A
100
AcDbEntity
  8
CENTER L
  6
CENTER
 62
     1
 48
5.0
100
AcDbLine
 10
145.03919854997
 20
62.61471729839559
 30
0.0
 11
145.03919854997
 21
131.9944712022761
 31
0.0
  0
LINE
  5
7D5B
330
1A
100
AcDbEntity
  8
CENTER L
  6
CENTER
 62
     1
 48
5.0
100
AcDbLine
 10
229.6538628529861
 20
130.2578239127254
 30
0.0
 11
293.0760999676608
 21
130.2578239127254
 31
0.0
  0
LINE
  5
7D5C
330
1A
100
AcDbEntity
  8
CENTER L
  6
CENTER
 62
     1
 48
5.0
100
AcDbLine
 10
260.713408223085
 20
160.2723039635479
 30
0.0
 11
260.713408223085
 21
60.95512464302124
 31
0.0
  0
LINE
  5
7D5D
330
1A
100
AcDbEntity
  8
CENTER L
  6
CENTER
 62
     1
 48
5.0
100
AcDbLine
 10
189.6708379556628
 20
219.1430107914052
 30
0.0
 11
115.8764941147098
 21
219.1430107914052
 31
0.0
  0
LINE
  5
7D5E
330
1A
100
AcDbEntity
  8
CENTER L
  6
CENTER
 62
     1
 48
5.0
100
AcDbLine
 10
145.03919854997
 20
189.980306356145
 30
0.0
 11
145.03919854997
 21
248.3057152266653
 31
0.0
  0
DIMENSION
  5
7D5F
330
1A
100
AcDbEntity
  8
SUNPOU
100
AcDbDimension
  2
*D2
 10
135.345301489659
 20
127.8225593981665
 30
0.0
 11
137.9759514657947
 21
120.8874856171997
 31
0.0
 70
    34
 71
     5
 42
-1.0
  3
STANDARD
100
AcDb2LineAngularDimension
 13
145.03919854997
 23
62.61471729839559
 33
0.0
 14
145.03919854997
 24
131.9944712022761
 34
0.0
 15
192.1953258748967
 25
130.8019428971169
 35
0.0
 16
133.7931825024324
 26
121.3033042568953
 36
0.0
  0
DIMENSION
  5
7D6D
330
1A
100
AcDbEntity
  8
SUNPOU
100
AcDbDimension
  2
*D3
 10
201.9211493399692
 20
108.3301571640622
 30
0.0
 11
203.7159278030705
 21
131.4057120538403
 31
0.0
 70
    33
  1
\U+25A1<>
 71
     5
 42
-1.0
  3
STANDARD
100
AcDbAlignedDimension
 13
180.6118069091278
 23
153.1763709354178
 33
0.0
 14
183.0140271916247
 24
107.3392768900329
 34
0.0
  0
DIMENSION
  5
7D7A
330
1A
100
AcDbEntity
  8
SUNPOU
100
AcDbDimension
  2
*D4
 10
179.500775433253
 20
174.3761146134302
 30
0.0
 11
160.9569083159642
 21
176.4083887665995
 31
0.0
 70
    33
 71
     5
 42
-1.0
  3
STANDARD
100
AcDbAlignedDimension
 13
145.03919854997
 23
128.3305950103643
 33
0.0
 14
181.8129170503763
 24
130.2578239127254
 34
0.0
  0
DIMENSION
  5
7DB2
330
1A
100
AcDbEntity
  8
SUNPOU
100
AcDbDimension
  2
*D5
 10
179.9821685469981
 20
165.1905867131324
 30
0.0
 11
169.8388653320797
 21
167.66311576053
 31
0.0
 70
    33
  1
※ <>
 71
     5
 42
-1.0
  3
STANDARD
100
AcDbAlignedDimension
 13
160.8485599730739
 23
148.1351348877202
 33
0.0
 14
180.8211506687395
 24
149.1818540016246
 34
0.0
  0
DIMENSION
  5
7DC8
330
1A
100
AcDbEntity
  8
SUNPOU
100
AcDbDimension
  2
*D6
 10
96.98569213540828
 20
95.19762257592011
 30
0.0
 11
93.98569213540826
 21
81.69762165054926
 31
0.0
 70
    32
 71
     5
 42
-1.0
  3
STANDARD
100
AcDbAlignedDimension
 13
122.0891980482414
 23
68.19762072517836
 33
0.0
 14
122.0891980482415
 24
95.19762257592011
 34
0.0
 50
90.0
100
AcDbRotatedDimension
  0
DIMENSION
  5
7DD5
330
1A
100
AcDbEntity
  8
SUNPOU
100
AcDbDimension
  2
*D7
 10
89.66986445244357
 20
128.3305950103643
 30
0.0
 11
86.66986445244353
 21
98.26410835185464
 31
0.0
 70
    32
 71
     5
 42
-1.0
  3
STANDARD
100
AcDbAlignedDimension
 13
121.9839899295059
 23
68.19762169334488
 33
0.0
 14
145.03919854997
 24
128.3305950103643
 34
0.0
 50
90.0
100
AcDbRotatedDimension
  0
DIMENSION
  5
7DE2
330
1A
100
AcDbEntity
  8
SUNPOU
100
AcDbDimension
  2
*D8
 10
167.6963047800863
 20
49.76794047054568
 30
0.0
 11
144.8927514141639
 21
52.76794047054568
 31
0.0
 70
    32
  1
\U+25A1<>
 71
     5
 42
-1.0
  3
STANDARD
100
AcDbAlignedDimension
 13
122.0891980482414
 23
68.19762072517836
 33
0.0
 14
167.6963047800863
 24
68.19762189231051
 34
0.0
100
AcDbRotatedDimension
  0
DIMENSION
  5
7DEF
330
1A
100
AcDbEntity
  8
SUNPOU
100
AcDbDimension
  2
*D9
 10
283.6634074214025
 20
49.76794047054568
 30
0.0
 11
260.7134082230848
 21
52.76794047054568
 31
0.0
 70
    32
  1
\U+25A1<>
 71
     5
 42
-1.0
  3
STANDARD
100
AcDbAlignedDimension
 13
237.763409024767
 23
68.40696764726709
 33
0.0
 14
283.6634074214025
 24
68.40696764726828
 34
0.0
100
AcDbRotatedDimension
  0
ARC
  5
7EB5
330
1A
100
AcDbEntity
  8
SEIHIN
100
AcDbCircle
 10
147.9046582952415
 20
200.0614693581987
 30
0.0
 40
0.8892354676836063
100
AcDbArc
 50
180.0
 51
257.5902536959968
  0
ARC
  5
7EB7
330
1A
100
AcDbEntity
  8
SEIHIN
100
AcDbCircle
 10
147.7823612450816
 20
198.7587829671242
 30
0.0
 40
0.4446147910906263
100
AcDbArc
 50
351.4930101203817
 51
77.59059013156361
  0
LINE
  5
7EB8
330
1A
100
AcDbEntity
  8
SEIHIN
100
AcDbLine
 10
148.2220843058925
 20
198.693011071547
 30
0.0
 11
148.2220843058925
 21
197.1930098943553
 31
0.0
  0
ARC
  5
7EB9
330
1A
100
AcDbEntity
  8
SEIHIN
100
AcDbCircle
 10
149.1015320133548
 20
197.0614672838087
 30
0.0
 40
0.889230975928122
100
AcDbArc
 50
171.4931004690274
 51
257.5905359884699
  0
LINE
  5
7EBC
330
1A
100
AcDbEntity
  8
SEIHIN
100
AcDbLine
 10
180.637974842523
 20
199.1930102221816
 30
0.0
 11
180.7688147044658
 21
198.6930110715487
 31
0.0
  0
LINE
  5
7EBE
330
1A
100
AcDbEntity
  8
SEIHIN
100
AcDbLine
 10
180.7688147044656
 20
197.1930098943548
 30
0.0
 11
180.8996545664085
 21
196.1930115930885
 31
0.0
  0
LINE
  5
7EBF
330
1A
100
AcDbEntity
  8
SEIHIN
100
AcDbLine
 10
183.0140271916247
 20
199.1930102221816
 30
0.0
 11
183.0140271916247
 21
239.0930113606288
 31
0.0
  0
LINE
  5
7EC0
330
1A
100
AcDbEntity
  8
SEIHIN
100
AcDbLine
 10
182.883187329682
 20
198.6930110715479
 30
0.0
 11
182.883187329682
 21
197.1930098943561
 31
0.0
  0
LINE
  5
7EC1
330
1A
100
AcDbEntity
  8
SEIHIN
100
AcDbLine
 10
183.0140271916247
 20
199.1930102221816
 30
0.0
 11
182.883187329682
 21
198.6930110715487
 31
0.0
  0
LINE
  5
7EC2
330
1A
100
AcDbEntity
  8
SEIHIN
100
AcDbLine
 10
182.8831873296822
 20
197.1930098943548
 30
0.0
 11
182.7523474677393
 21
196.1930115930885
 31
0.0
  0
LINE
  5
7EC4
330
1A
100
AcDbEntity
  8
SEIHIN
100
AcDbLine
 10
182.846552116243
 20
197.3930115930885
 30
0.0
 11
180.8054499179048
 21
197.3930115930885
 31
0.0
  0
LINE
  5
7EC7
330
1A
100
AcDbEntity
  8
SEIHIN
100
AcDbLine
 10
180.8054499179048
 20
198.6930110715479
 30
0.0
 11
180.8054499179048
 21
197.3930115930885
 31
0.0
  0
LINE
  5
7EC8
330
1A
100
AcDbEntity
  8
SEIHIN
100
AcDbLine
 10
180.6746100559621
 20
199.1930102221816
 30
0.0
 11
180.8054499179048
 21
198.6930110715487
 31
0.0
  0
LINE
  5
7ECA
330
1A
100
AcDbEntity
  8
SEIHIN
100
AcDbLine
 10
182.846552116243
 20
198.6930110715479
 30
0.0
 11
182.846552116243
 21
197.3930115930885
 31
0.0
  0
LINE
  5
7ECB
330
1A
100
AcDbEntity
  8
SEIHIN
100
AcDbLine
 10
182.9773919781857
 20
199.1930102221816
 30
0.0
 11
182.8465521162429
 21
198.6930110715487
 31
0.0
  0
LINE
  5
7ECC
330
1A
100
AcDbEntity
  8
SEIHIN
100
AcDbLine
 10
124.5638031618798
 20
239.0930113606295
 30
0.0
 11
125.0871636079752
 21
239.0930113606295
 31
0.0
  0
LINE
  5
7ECD
330
1A
100
AcDbEntity
  8
SEIHIN
100
AcDbLine
 10
127.5596927957737
 20
242.0930099897227
 30
0.0
 11
128.0830513792241
 21
242.0930099897227
 31
0.0
  0
LINE
  5
7ECE
330
1A
100
AcDbEntity
  8
SEIHIN
100
AcDbLine
 10
123.1507334964478
 20
239.0930113606295
 30
0.0
 11
124.5638031618798
 21
239.0930113606295
 31
0.0
  0
ARC
  5
7ECF
330
1A
100
AcDbEntity
  8
SEIHIN
100
AcDbCircle
 10
123.1514202073885
 20
238.0936935329586
 30
0.0
 40
0.9993180636190873
100
AcDbArc
 50
90.03937249128494
 51
180.0391216682504
  0
ARC
  5
7ED0
330
1A
100
AcDbEntity
  8
SEIHIN
100
AcDbCircle
 10
124.648334400797
 20
239.5926689700968
 30
0.0
 40
0.4996577265468974
100
AcDbArc
 50
270.0392228903075
 51
0.0391645476661364
  0
LINE
  5
7ED1
330
1A
100
AcDbEntity
  8
SEIHIN
100
AcDbLine
 10
126.1466212676966
 20
242.0930099897227
 30
0.0
 11
127.5596927957737
 21
242.0930099897227
 31
0.0
  0
ARC
  5
7ED2
330
1A
100
AcDbEntity
  8
SEIHIN
100
AcDbCircle
 10
126.1473042985703
 20
241.093697699725
 30
0.0
 40
0.9993125234243779
100
AcDbArc
 50
90.03916171215363
 51
180.0393325937461
  0
LINE
  5
7ED3
330
1A
100
AcDbEntity
  8
SEIHIN
100
AcDbLine
 10
125.1479920106137
 20
241.0930116884551
 30
0.0
 11
125.1479920106137
 21
239.5930105112634
 31
0.0
  0
LINE
  5
7ED4
330
1A
100
AcDbEntity
  8
SEIHIN
100
AcDbLine
 10
180.7688147044657
 20
239.5930105112625
 30
0.0
 11
180.7688147044657
 21
241.0930116884542
 31
0.0
  0
LINE
  5
7ED5
330
1A
100
AcDbEntity
  8
SEIHIN
100
AcDbLine
 10
182.7523474677393
 20
242.0930099897218
 30
0.0
 11
129.02879641523
 21
242.0930099897227
 31
0.0
  0
LINE
  5
7ED6
330
1A
100
AcDbEntity
  8
SEIHIN
100
AcDbLine
 10
125.0871636079752
 20
239.0930113606295
 30
0.0
 11
180.637974842523
 21
239.0930113606287
 31
0.0
  0
LINE
  5
7ED7
330
1A
100
AcDbEntity
  8
SEIHIN
100
AcDbLine
 10
129.02879641523
 20
242.0930099897227
 30
0.0
 11
128.0830513792241
 21
242.0930099897227
 31
0.0
  0
ARC
  5
7ED8
330
1A
100
AcDbEntity
  8
SEIHIN
100
AcDbCircle
 10
147.9046582952415
 20
238.2245522246116
 30
0.0
 40
0.8892354676836063
100
AcDbArc
 50
102.4097463040031
 51
180.0
  0
ARC
  5
7ED9
330
1A
100
AcDbEntity
  8
SEIHIN
100
AcDbCircle
 10
147.7823612450816
 20
239.5272386156861
 30
0.0
 40
0.4446147910906263
100
AcDbArc
 50
282.4094098684363
 51
8.506989879618243
  0
LINE
  5
7EDA
330
1A
100
AcDbEntity
  8
SEIHIN
100
AcDbLine
 10
148.2220843058925
 20
239.5930105112634
 30
0.0
 11
148.2220843058925
 21
241.0930116884551
 31
0.0
  0
ARC
  5
7EDB
330
1A
100
AcDbEntity
  8
SEIHIN
100
AcDbCircle
 10
149.1015320133548
 20
241.2245542990017
 30
0.0
 40
0.889230975928122
100
AcDbArc
 50
102.40946401153
 51
188.5068995309725
  0
LINE
  5
7EDC
330
1A
100
AcDbEntity
  8
SEIHIN
100
AcDbLine
 10
180.637974842523
 20
239.0930113606287
 30
0.0
 11
180.7688147044658
 21
239.5930105112617
 31
0.0
  0
LINE
  5
7EDD
330
1A
100
AcDbEntity
  8
SEIHIN
100
AcDbLine
 10
180.7688147044656
 20
241.0930116884556
 30
0.0
 11
180.8996545664085
 21
242.0930099897219
 31
0.0
  0
LINE
  5
7EDE
330
1A
100
AcDbEntity
  8
SEIHIN
100
AcDbLine
 10
182.883187329682
 20
239.5930105112625
 30
0.0
 11
182.883187329682
 21
241.0930116884542
 31
0.0
  0
LINE
  5
7EDF
330
1A
100
AcDbEntity
  8
SEIHIN
100
AcDbLine
 10
183.0140271916247
 20
239.0930113606287
 30
0.0
 11
182.883187329682
 21
239.5930105112617
 31
0.0
  0
LINE
  5
7EE0
330
1A
100
AcDbEntity
  8
SEIHIN
100
AcDbLine
 10
182.8831873296822
 20
241.0930116884556
 30
0.0
 11
182.7523474677393
 21
242.0930099897219
 31
0.0
  0
LINE
  5
7EE1
330
1A
100
AcDbEntity
  8
SEIHIN
100
AcDbLine
 10
182.846552116243
 20
240.8930099897219
 30
0.0
 11
180.8054499179048
 21
240.8930099897219
 31
0.0
  0
LINE
  5
7EE2
330
1A
100
AcDbEntity
  8
SEIHIN
100
AcDbLine
 10
180.8054499179048
 20
239.5930105112625
 30
0.0
 11
180.8054499179048
 21
240.8930099897219
 31
0.0
  0
LINE
  5
7EE3
330
1A
100
AcDbEntity
  8
SEIHIN
100
AcDbLine
 10
180.6746100559621
 20
239.0930113606287
 30
0.0
 11
180.8054499179048
 21
239.5930105112617
 31
0.0
  0
LINE
  5
7EE4
330
1A
100
AcDbEntity
  8
SEIHIN
100
AcDbLine
 10
182.846552116243
 20
239.5930105112625
 30
0.0
 11
182.846552116243
 21
240.8930099897219
 31
0.0
  0
LINE
  5
7EE5
330
1A
100
AcDbEntity
  8
SEIHIN
100
AcDbLine
 10
182.9773919781857
 20
239.0930113606287
 30
0.0
 11
182.8465521162429
 21
239.5930105112617
 31
0.0
  0
LINE
  5
7EE6
330
1A
100
AcDbEntity
  8
SEIHIN
100
AcDbLine
 10
147.0154228275579
 20
200.0614693581987
 30
0.0
 11
147.0154228275579
 21
238.2245522246116
 31
0.0
  0
LINE
  5
7EE8
330
1A
100
AcDbEntity
  8
SEIHIN
100
AcDbLine
 10
180.6746100559621
 20
199.1930102221816
 30
0.0
 11
180.6746100559621
 21
239.0930113606287
 31
0.0
  0
LINE
  5
7EE9
330
1A
100
AcDbEntity
  8
SEIHIN
100
AcDbLine
 10
182.9773919781857
 20
199.1930102221816
 30
0.0
 11
182.9773919781857
 21
239.0930113606287
 31
0.0
  0
DIMENSION
  5
7EEA
330
1A
100
AcDbEntity
  8
SUNPOU
100
AcDbDimension
  2
*D10
 10
103.4792286090653
 20
68.19762123365592
 30
0.0
 11
100.4792286090653
 21
80.69762123365595
 31
0.0
 70
    32
  1
※ <>
 71
     5
 42
-1.0
  3
STANDARD
100
AcDbAlignedDimension
 13
121.1300372357907
 23
93.19762123365592
 33
0.0
 14
121.1300372357907
 24
68.19762123365592
 34
0.0
 50
90.0
100
AcDbRotatedDimension
  0
LINE
  5
7F66
330
1A
100
AcDbEntity
  8
SEIHIN
100
AcDbLine
 10
167.9891989506587
 20
105.1976218664757
 30
0.0
 11
167.9891989035416
 21
105.6034312358024
 31
0.0
  0
ARC
  5
803F
330
1A
100
AcDbEntity
  8
SEIHIN
100
AcDbCircle
 10
166.4891984041424
 20
107.9753053160342
 30
0.0
 40
1.0
100
AcDbArc
 50
92.99999996857462
 51
180.0000066524029
  0
DIMENSION
  5
809C
330
1A
100
AcDbEntity
  8
SUNPOU
100
AcDbDimension
  2
*D11
 10
282.0634082767292
 20
173.1605282555219
 30
0.0
 11
260.713408223085
 21
176.1605282555219
 31
0.0
 70
    32
  1
\U+25A1<>
 71
     5
 42
-1.0
  3
STANDARD
100
AcDbAlignedDimension
 13
239.3634081694408
 23
147.4763713049666
 33
0.0
 14
282.0634082767292
 24
147.4763713049666
 34
0.0
100
AcDbRotatedDimension
  0
VIEWPORT
  5
22
102
{ACAD_XDICTIONARY
360
7E6D
102
}
330
17
100
AcDbEntity
 67
     1
  8
0
100
AcDbViewport
 10
313.6808219178082
 20
148.5
 30
0.0
 40
627.3616438356165
 41
297.0
 68
     2
 69
     1
 12
313.6808219178082
 22
148.5
 13
0.0
 23
0.0
 14
1.0
 24
1.0
 15
10.0
 25
10.0
 16
0.0
 26
0.0
 36
1.0
 17
0.0
 27
0.0
 37
0.0
 42
50.0
 43
0.0
 44
0.0
 45
297.0
 50
0.0
 51
0.0
 72
   100
 90
    32768
  1

281
     0
 71
     1
 74
     0
110
0.0
120
0.0
130
0.0
111
1.0
121
0.0
131
0.0
112
0.0
122
1.0
132
0.0
 79
     0
146
0.0
  0
VIEWPORT
  5
64
102
{ACAD_XDICTIONARY
360
7E6F
102
}
330
17
100
AcDbEntity
 67
     1
  8
VIEWPORT
100
AcDbViewport
 10
210.0
 20
148.5
 30
0.0
 40
420.0
 41
297.0
 68
     1
 69
     2
 12
210.0
 22
148.5
 13
0.0
 23
0.0
 14
5.0
 24
5.0
 15
0.0
 25
0.0
 16
0.0
 26
0.0
 36
1.0
 17
0.0
 27
0.0
 37
0.0
 42
50.0
 43
0.0
 44
0.0
 45
302.9399999999998
 50
0.0
 51
0.0
 72
   100
 90
    32768
  1

281
     0
 71
     1
 74
     0
110
0.0
120
0.0
130
0.0
111
1.0
121
0.0
131
0.0
112
0.0
122
1.0
132
0.0
 79
     0
146
0.0
  0
ENDSEC
  0
SECTION
  2
OBJECTS
  0
DICTIONARY
  5
C
330
0
100
AcDbDictionary
281
     1
  3
ACAD_COLOR
350
5494
  3
ACAD_GROUP
350
D
  3
ACAD_LAYOUT
350
352
  3
ACAD_MATERIAL
350
5462
  3
ACAD_MLEADERSTYLE
350
54A9
  3
ACAD_MLINESTYLE
350
E
  3
ACAD_PLOTSETTINGS
350
353
  3
ACAD_PLOTSTYLENAME
350
350
  3
ACAD_SCALELIST
350
5497
  3
ACAD_TABLESTYLE
350
5495
  3
ACAD_VISUALSTYLE
350
547B
  3
ACDB_RECOMPOSE_DATA
350
7E69
  3
AcDbVariableDictionary
350
E42
  3
DWGPROPS
350
7E6A
  0
DICTIONARY
  5
7E6B
330
8
100
AcDbDictionary
280
     1
281
     1
  3
ACAD_XREC_ROUNDTRIP
360
7E6C
  0
DICTIONARY
  5
54E3
330
2
100
AcDbDictionary
280
     1
281
     1
  3
ACAD_LAYERSTATES
360
54E4
  0
DICTIONARY
  5
5AFC
330
F
100
AcDbDictionary
280
     1
281
     1
  3
ADSK_XREC_LAYER_RECONCILED
360
5AFD
  0
DICTIONARY
  5
5AFE
330
62
100
AcDbDictionary
280
     1
281
     1
  3
ADSK_XREC_LAYER_RECONCILED
360
5AFF
  0
DICTIONARY
  5
5B00
330
6B
100
AcDbDictionary
280
     1
281
     1
  3
ADSK_XREC_LAYER_RECONCILED
360
5B01
  0
DICTIONARY
  5
5B02
330
BC1
100
AcDbDictionary
280
     1
281
     1
  3
ADSK_XREC_LAYER_RECONCILED
360
5B03
  0
DICTIONARY
  5
5B04
330
1216
100
AcDbDictionary
280
     1
281
     1
  3
ADSK_XREC_LAYER_RECONCILED
360
5B05
  0
DICTIONARY
  5
5B06
330
1218
100
AcDbDictionary
280
     1
281
     1
  3
ADSK_XREC_LAYER_RECONCILED
360
5B07
  0
DICTIONARY
  5
5B08
330
1627
100
AcDbDictionary
280
     1
281
     1
  3
ADSK_XREC_LAYER_RECONCILED
360
5B09
  0
DICTIONARY
  5
64B
330
1A
100
AcDbDictionary
280
     1
281
     1
  3
ACAD_LAYOUTSELFREF
360
8284
  3
ACAD_SORTENTS
360
6B1F
  0
DICTIONARY
  5
649
330
17
100
AcDbDictionary
280
     1
281
     1
  3
ACAD_LAYOUTSELFREF
360
8283
  0
DICTIONARY
  5
7E6D
330
22
100
AcDbDictionary
280
     1
281
     1
  3
ACAD_XREC_ROUNDTRIP
360
7E6E
  0
DICTIONARY
  5
7E6F
330
64
100
AcDbDictionary
280
     1
281
     1
  3
ACAD_XREC_ROUNDTRIP
360
7E70
  0
DICTIONARY
  5
5494
102
{ACAD_REACTORS
330
C
102
}
330
C
100
AcDbDictionary
281
     1
  0
DICTIONARY
  5
D
102
{ACAD_REACTORS
330
C
102
}
330
C
100
AcDbDictionary
281
     1
  0
DICTIONARY
  5
352
102
{ACAD_REACTORS
330
C
102
}
330
C
100
AcDbDictionary
281
     1
  3
Model
350
354
  3
ﾚｲｱｳﾄ1
350
355
  0
DICTIONARY
  5
5462
102
{ACAD_REACTORS
330
C
102
}
330
C
100
AcDbDictionary
281
     1
  3
ByBlock
350
546B
  3
ByLayer
350
5463
  3
Global
350
5473
  0
DICTIONARY
  5
54A9
102
{ACAD_REACTORS
330
C
102
}
330
C
100
AcDbDictionary
281
     1
  3
Standard
350
54AA
  0
DICTIONARY
  5
E
102
{ACAD_REACTORS
330
C
102
}
330
C
100
AcDbDictionary
281
     1
  3
STANDARD
350
13
  0
DICTIONARY
  5
353
102
{ACAD_REACTORS
330
C
102
}
330
C
100
AcDbDictionary
281
     1
  0
ACDBDICTIONARYWDFLT
  5
350
102
{ACAD_REACTORS
330
C
102
}
330
C
100
AcDbDictionary
281
     1
  3
Normal
350
351
100
AcDbDictionaryWithDefault
340
351
1001
ACAD
1000
TREAT_AS_HARD
1070
     0
1000
TREAT_AS_HARD
1070
     0
1000
TREAT_AS_HARD
1070
     0
1000
TREAT_AS_HARD
1070
     0
1000
TREAT_AS_HARD
1070
     0
1000
TREAT_AS_HARD
1070
     0
  0
DICTIONARY
  5
5497
102
{ACAD_REACTORS
330
C
102
}
330
C
100
AcDbDictionary
281
     1
  3
A0
350
5498
  3
A1
350
5499
  3
A2
350
549A
  3
A3
350
549B
  3
A4
350
549C
  3
A5
350
549D
  3
A6
350
549E
  3
A7
350
549F
  3
A8
350
54A0
  3
A9
350
54A1
  3
B0
350
54A2
  3
B1
350
54A3
  3
B2
350
54A4
  3
B3
350
54A5
  3
B4
350
54A6
  3
B5
350
54A7
  3
B6
350
54A8
  0
DICTIONARY
  5
5495
102
{ACAD_REACTORS
330
C
102
}
330
C
100
AcDbDictionary
281
     1
  3
Standard
350
5496
  0
DICTIONARY
  5
547B
102
{ACAD_REACTORS
330
C
102
}
330
C
100
AcDbDictionary
281
     1
  3
2dWireframe
350
5481
  3
Basic
350
5480
  3
Brighten
350
5487
  3
ColorChange
350
548B
  3
Conceptual
350
5484
  3
Dim
350
5486
  3
EdgeColorOff
350
5493
  3
Facepattern
350
548A
  3
Flat
350
547C
  3
FlatWithEdges
350
547D
  3
Gouraud
350
547E
  3
GouraudWithEdges
350
547F
  3
Hidden
350
5483
  3
JitterOff
350
5491
  3
Linepattern
350
5489
  3
OverhangOff
350
5492
  3
Realistic
350
5485
  3
Shaded
350
5490
  3
Shaded with edges
350
548F
  3
Shades of Gray
350
548C
  3
Sketchy
350
548D
  3
Thicken
350
5488
  3
Wireframe
350
5482
  3
X-Ray
350
548E
  0
XRECORD
  5
7E69
102
{ACAD_REACTORS
330
C
102
}
330
C
100
AcDbXrecord
280
     1
 90
        1
330
5496
  0
DICTIONARY
  5
E42
102
{ACAD_REACTORS
330
C
102
}
330
C
100
AcDbDictionary
281
     1
  3
CANNOSCALE
350
5B0D
  3
CMLEADERSTYLE
350
5B0B
  3
CTABLESTYLE
350
5B0A
  3
DIMASSOC
350
7EAA
  3
INDEXCTL
350
7EA9
  3
LAYEREVAL
350
5B0F
  3
LAYERNOTIFY
350
5B10
  3
LIGHTINGUNITS
350
5B0E
  3
MSLTSCALE
350
5B0C
  3
SORTENTS
350
E43
  3
XCLIPFRAME
350
7EAB
  0
XRECORD
  5
7E6A
102
{ACAD_REACTORS
330
C
102
}
330
C
100
AcDbXrecord
280
     1
  1
DWGPROPS COOKIE
  2

  3

  4

  6

  7

  8
tomomi-takahashi
  9

300
=
301
=
302
=
303
=
304
=
305
=
306
=
307
=
308
=
309
=
 40
0.2709823263888889
 41
2451094.495386573
 42
2455985.408267372
  1

 90
        0
  0
XRECORD
  5
7E6C
102
{ACAD_REACTORS
330
7E6B
102
}
330
7E6B
100
AcDbXrecord
280
     1
102
VTR_0.000_0.000_1.000_1.000_VISUALSTYLE
340
5481
102
VTR_0.000_0.000_1.000_1.000_GRIDDISPLAY
 70
     3
102
VTR_0.000_0.000_1.000_1.000_GRIDMAJOR
 70
     5
102
VTR_0.000_0.000_1.000_1.000_DEFAULTLIGHTING
280
     1
102
VTR_0.000_0.000_1.000_1.000_DEFAULTLIGHTINGTYPE
 70
     1
102
VTR_0.000_0.000_1.000_1.000_BRIGHTNESS
141
0.0
102
VTR_0.000_0.000_1.000_1.000_CONTRAST
142
0.0
  0
DICTIONARY
  5
54E4
102
{ACAD_REACTORS
330
54E3
102
}
330
54E3
100
AcDbDictionary
281
     1
  0
XRECORD
  5
5AFD
102
{ACAD_REACTORS
330
5AFC
102
}
330
5AFC
100
AcDbXrecord
280
     1
290
     1
  0
XRECORD
  5
5AFF
102
{ACAD_REACTORS
330
5AFE
102
}
330
5AFE
100
AcDbXrecord
280
     1
290
     1
  0
XRECORD
  5
5B01
102
{ACAD_REACTORS
330
5B00
102
}
330
5B00
100
AcDbXrecord
280
     1
290
     1
  0
XRECORD
  5
5B03
102
{ACAD_REACTORS
330
5B02
102
}
330
5B02
100
AcDbXrecord
280
     1
290
     1
  0
XRECORD
  5
5B05
102
{ACAD_REACTORS
330
5B04
102
}
330
5B04
100
AcDbXrecord
280
     1
290
     1
  0
XRECORD
  5
5B07
102
{ACAD_REACTORS
330
5B06
102
}
330
5B06
100
AcDbXrecord
280
     1
290
     1
  0
XRECORD
  5
5B09
102
{ACAD_REACTORS
330
5B08
102
}
330
5B08
100
AcDbXrecord
280
     1
290
     1
  0
XRECORD
  5
8284
102
{ACAD_REACTORS
330
64B
102
}
330
64B
100
AcDbXrecord
280
     1
340
1A
  0
SORTENTSTABLE
  5
6B1F
102
{ACAD_REACTORS
330
64B
102
}
330
64B
100
AcDbSortentsTable
330
1A
331
763D
  5
7641
331
7D25
  5
7D27
331
796E
  5
7972
331
7D4C
  5
7D4E
331
7D18
  5
7D1A
331
7D3F
  5
7D41
331
DBA
  5
DBA
331
E34
  5
E34
331
DE1
  5
DE1
331
D8E
  5
D8E
331
E08
  5
E08
331
DAD
  5
DAD
331
E27
  5
E27
331
DD4
  5
DD4
331
7923
  5
792D
331
7D47
  5
7D49
331
7D3A
  5
7D3C
331
D89
  5
D89
331
DDC
  5
DDC
331
DA8
  5
DA8
331
E03
  5
E03
331
DCF
  5
DCF
331
E22
  5
E22
331
DF6
  5
DF6
331
539A
  5
539A
331
7998
  5
79AA
331
7D42
  5
7D44
331
761E
  5
7625
331
79B7
  5
79BB
331
798B
  5
798F
331
7957
  5
795F
331
7D35
  5
7D37
331
DFE
  5
DFE
331
DA3
  5
DA3
331
E1D
  5
E1D
331
DCA
  5
DCA
331
DF1
  5
DF1
331
7938
  5
793F
331
7655
  5
7657
331
79B2
  5
79B7
331
795F
  5
7963
331
7D09
  5
7D0B
331
7986
  5
7988
331
7D5C
  5
7D5E
331
7D30
  5
7D32
331
7D57
  5
7D5B
331
7CF4
  5
7CF6
331
DF9
  5
DF9
331
D9E
  5
D9E
331
E18
  5
E18
331
DC5
  5
DC5
331
DEC
  5
DEC
331
2370
  5
2370
331
7981
  5
7987
331
7D2B
  5
7D2D
331
794D
  5
794F
331
7D52
  5
7D54
331
7CEF
  5
7CF1
331
D99
  5
D99
331
E13
  5
E13
331
DC0
  5
DC0
331
E3A
  5
E3A
331
DE7
  5
DE7
331
D94
  5
D94
331
E0E
  5
E0E
331
DB3
  5
DB3
331
E2D
  5
E2D
331
7D26
  5
7D28
331
796F
  5
7975
331
7D4D
  5
7D4F
331
7996
  5
7998
331
DBB
  5
DBB
331
E35
  5
E35
331
DE2
  5
DE2
331
D8F
  5
D8F
331
E09
  5
E09
331
DAE
  5
DAE
331
E28
  5
E28
331
DD5
  5
DD5
331
7639
  5
763B
331
7D48
  5
7D4A
331
7D3B
  5
7D3D
331
DDD
  5
DDD
331
D8A
  5
D8A
331
E30
  5
E30
331
E04
  5
E04
331
DA9
  5
DA9
331
E23
  5
E23
331
DD0
  5
DD0
331
DF7
  5
DF7
331
7634
  5
7637
331
793E
  5
7940
331
7D43
  5
7D45
331
7965
  5
796E
331
7912
  5
7914
331
79B8
  5
79BE
331
764E
  5
7653
331
7D0F
  5
7D11
331
7D36
  5
7D38
331
DD8
  5
DD8
331
DFF
  5
DFF
331
DA4
  5
DA4
331
E1E
  5
E1E
331
DCB
  5
DCB
331
DF2
  5
DF2
331
7656
  5
7658
331
761A
  5
761A
331
7987
  5
7989
331
7934
  5
7938
331
7D5D
  5
7D5F
331
7D31
  5
7D33
331
7CF5
  5
7CF7
331
DFA
  5
DFA
331
D9F
  5
D9F
331
E19
  5
E19
331
DC6
  5
DC6
331
DED
  5
DED
331
795B
  5
7962
331
7D58
  5
7D5C
331
7644
  5
7649
331
7D05
  5
7D07
331
794E
  5
7950
331
7D2C
  5
7D2E
331
7D53
  5
7D55
331
7975
  5
7977
331
7CF0
  5
7CF2
331
D9A
  5
D9A
331
7D1F
  5
7D21
331
E14
  5
E14
331
DC1
  5
DC1
331
DE8
  5
DE8
331
D95
  5
D95
331
E0F
  5
E0F
331
DB4
  5
DB4
331
E2E
  5
E2E
331
78FB
  5
78FE
331
7610
  5
7610
331
7D00
  5
7D02
331
7D7A
  5
7DB0
331
79A4
  5
79AC
331
7949
  5
794B
331
7D27
  5
7D29
331
7D4E
  5
7D50
331
7997
  5
79A4
331
7D6D
  5
7D87
331
DBC
  5
DBC
331
E36
  5
E36
331
DE3
  5
DE3
331
D90
  5
D90
331
E0A
  5
E0A
331
DAF
  5
DAF
331
E29
  5
E29
331
DD6
  5
DD6
331
75FE
  5
75FE
331
7D22
  5
7D24
331
7D49
  5
7D4B
331
79BE
  5
7CEB
331
7D3C
  5
7D3E
331
DDE
  5
DDE
331
D8B
  5
D8B
331
E31
  5
E31
331
E05
  5
E05
331
DAA
  5
DAA
331
E24
  5
E24
331
DD1
  5
DD1
331
793F
  5
7949
331
7966
  5
796F
331
7913
  5
7915
331
7D44
  5
7D46
331
798D
  5
7994
331
7D10
  5
7D12
331
7D37
  5
7D39
331
DD9
  5
DD9
331
E00
  5
E00
331
DA5
  5
DA5
331
E1F
  5
E1F
331
DCC
  5
DCC
331
DF3
  5
DF3
331
75F4
  5
75F4
331
79B4
  5
79B8
331
7D5E
  5
7D6D
331
7988
  5
798A
331
7D32
  5
7D34
331
7954
  5
7956
331
7CF6
  5
7CF8
331
DA0
  5
DA0
331
DFB
  5
DFB
331
DC7
  5
DC7
331
E1A
  5
E1A
331
DEE
  5
DEE
331
7D2D
  5
7D2F
331
794F
  5
7951
331
79AA
  5
79B1
331
7D54
  5
7D56
331
7976
  5
797F
331
7CF1
  5
7CF3
331
D9B
  5
D9B
331
E15
  5
E15
331
DC2
  5
DC2
331
DE9
  5
DE9
331
D96
  5
D96
331
DB5
  5
DB5
331
E2F
  5
E2F
331
792B
  5
7932
331
7D28
  5
7D2A
331
794A
  5
794C
331
7D4F
  5
7D51
331
7D1B
  5
7D1D
331
E10
  5
E10
331
DBD
  5
DBD
331
E37
  5
E37
331
D91
  5
D91
331
DE4
  5
DE4
331
DB0
  5
DB0
331
E0B
  5
E0B
331
DD7
  5
DD7
331
E2A
  5
E2A
331
763B
  5
763D
331
77C2
  5
77CD
331
75FF
  5
75FF
331
7D23
  5
7D25
331
7919
  5
791B
331
7D4A
  5
7D4C
331
DB8
  5
DB8
331
7D3D
  5
7D3F
331
E32
  5
E32
331
DDF
  5
DDF
331
D8C
  5
D8C
331
E06
  5
E06
331
DAB
  5
DAB
331
E25
  5
E25
331
DD2
  5
DD2
331
7921
  5
792B
331
7636
  5
7638
331
7940
  5
794A
331
7D45
  5
7D47
331
7D38
  5
7D3A
331
DDA
  5
DDA
331
D87
  5
D87
331
E01
  5
E01
331
DA6
  5
DA6
331
E20
  5
E20
331
DCD
  5
DCD
331
DF4
  5
DF4
331
7631
  5
7636
331
75F5
  5
75F5
331
7658
  5
765A
331
7D40
  5
7D42
331
7962
  5
7965
331
7D5F
  5
7D7A
331
7989
  5
798B
331
7936
  5
793E
331
7D33
  5
7D35
331
7955
  5
7957
331
DFC
  5
DFC
331
DA1
  5
DA1
331
E1B
  5
E1B
331
DC8
  5
DC8
331
DEF
  5
DEF
331
7950
  5
7954
331
7D2E
  5
7D30
331
7977
  5
7980
331
7D55
  5
7D57
331
D9C
  5
D9C
331
E16
  5
E16
331
DC3
  5
DC3
331
DEA
  5
DEA
331
D97
  5
D97
331
DB6
  5
DB6
331
797F
  5
7981
331
7641
  5
7648
331
7D29
  5
7D2B
331
794B
  5
794D
331
7D50
  5
7D52
331
7CED
  5
7CEF
331
7972
  5
7976
331
E11
  5
E11
331
DBE
  5
DBE
331
E38
  5
E38
331
D92
  5
D92
331
DE5
  5
DE5
331
DB1
  5
DB1
331
E0C
  5
E0C
331
E2B
  5
E2B
331
7600
  5
7600
331
7D24
  5
7D26
331
7D4B
  5
7D4D
331
7994
  5
7997
331
DB9
  5
DB9
331
7D3E
  5
7D40
331
E33
  5
E33
331
DE0
  5
DE0
331
D8D
  5
D8D
331
E07
  5
E07
331
DAC
  5
DAC
331
E26
  5
E26
331
DD3
  5
DD3
331
7608
  5
7608
331
7637
  5
7639
331
75FB
  5
75FB
331
79BB
  5
7CEA
331
7D46
  5
7D48
331
798F
  5
7996
331
7D39
  5
7D3B
331
DDB
  5
DDB
331
D88
  5
D88
331
E02
  5
E02
331
DA7
  5
DA7
331
E21
  5
E21
331
DCE
  5
DCE
331
DF5
  5
DF5
331
7659
  5
77B8
331
75F6
  5
75F6
331
7D41
  5
7D43
331
7963
  5
7966
331
798A
  5
798D
331
7956
  5
795B
331
7D34
  5
7D36
331
DFD
  5
DFD
331
DA2
  5
DA2
331
E1C
  5
E1C
331
DC9
  5
DC9
331
DF0
  5
DF0
331
790B
  5
7911
331
79B1
  5
79B4
331
7932
  5
7936
331
7D5B
  5
7D5D
331
79AC
  5
79B2
331
7951
  5
7955
331
7D2F
  5
7D31
331
7CF3
  5
7CF5
331
7D56
  5
7D58
331
DF8
  5
DF8
331
D9D
  5
D9D
331
E17
  5
E17
331
DC4
  5
DC4
331
DEB
  5
DEB
331
DB7
  5
DB7
331
7980
  5
7986
331
792D
  5
7934
331
7D2A
  5
7D2C
331
794C
  5
794E
331
77E1
  5
77E9
331
7D51
  5
7D53
331
D98
  5
D98
331
DBF
  5
DBF
331
E12
  5
E12
331
DE6
  5
DE6
331
D93
  5
D93
331
E39
  5
E39
331
E0D
  5
E0D
331
DB2
  5
DB2
331
E2C
  5
E2C
  0
XRECORD
  5
8283
102
{ACAD_REACTORS
330
649
102
}
330
649
100
AcDbXrecord
280
     1
340
17
  0
XRECORD
  5
7E6E
102
{ACAD_REACTORS
330
7E6D
102
}
330
7E6D
100
AcDbXrecord
280
     1
102
SHADEPLOT
 70
     0
102
VISUALSTYLE
340
5481
102
GRIDDISPLAY
 70
     0
102
GRIDMAJOR
 70
     5
102
DEFAULTLIGHTING
280
     1
102
DEFAULTLIGHTINGTYPE
 70
     1
102
BRIGHTNESS
141
0.0
102
CONTRAST
142
0.0
  0
XRECORD
  5
7E70
102
{ACAD_REACTORS
330
7E6F
102
}
330
7E6F
100
AcDbXrecord
280
     1
102
SHADEPLOT
 70
     0
102
VISUALSTYLE
340
5481
102
GRIDDISPLAY
 70
     0
102
GRIDMAJOR
 70
     5
102
DEFAULTLIGHTING
280
     1
102
DEFAULTLIGHTINGTYPE
 70
     1
102
BRIGHTNESS
141
0.0
102
CONTRAST
142
0.0
  0
LAYOUT
  5
354
102
{ACAD_XDICTIONARY
360
6C6B
102
}
102
{ACAD_REACTORS
330
352
102
}
330
352
100
AcDbPlotSettings
  1

  2
Acrobat Distiller
  4
A3
  6

 40
3.174999952316284
 41
3.174999952316284
 42
3.17498779296875
 43
3.17498779296875
 44
297.0318298339843
 45
420.1583251953125
 46
5.0
 47
5.0
 48
0.0
 49
0.0
140
0.0
141
0.0
142
1.0
143
1.0
 70
 11952
 72
     1
 73
     1
 74
     2
  7
print.ctb
 75
    16
147
1.0
148
0.0
149
0.0
100
AcDbLayout
  1
Model
 70
     1
 71
     0
 10
0.0
 20
0.0
 11
12.0
 21
9.0
 12
0.0
 22
0.0
 32
0.0
 14
0.0
 24
0.0
 34
0.0
 15
0.0
 25
0.0
 35
0.0
146
0.0
 13
0.0
 23
0.0
 33
0.0
 16
1.0
 26
0.0
 36
0.0
 17
0.0
 27
1.0
 37
0.0
 76
     0
330
1A
  0
LAYOUT
  5
355
102
{ACAD_XDICTIONARY
360
7E72
102
}
102
{ACAD_REACTORS
330
352
102
}
330
352
100
AcDbPlotSettings
  1

  2
C:\PROGRAM FILES\ACAD LT 2000\plotters\DWF ePlot.pc3
  4

  6

 40
0.0
 41
0.0
 42
0.0
 43
0.0
 44
0.0
 45
0.0
 46
0.0
 47
0.0
 48
0.0
 49
0.0
140
0.0
141
0.0
142
1.0
143
1.0
 70
   688
 72
     0
 73
     0
 74
     5
  7
print.ctb
 75
    16
147
1.0
148
0.0
149
0.0
100
AcDbLayout
  1
ﾚｲｱｳﾄ1
 70
     1
 71
     1
 10
0.0
 20
0.0
 11
420.0
 21
297.0
 12
0.0
 22
0.0
 32
0.0
 14
0.0
 24
0.0
 34
0.0
 15
420.0
 25
297.0
 35
0.0
146
0.0
 13
0.0
 23
0.0
 33
0.0
 16
1.0
 26
0.0
 36
0.0
 17
0.0
 27
1.0
 37
0.0
 76
     0
330
17
331
64
  0
ACAD_PROXY_OBJECT
  5
546B
102
{ACAD_XDICTIONARY
360
546C
102
}
102
{ACAD_REACTORS
330
5462
102
}
330
5462
100
AcDbProxyObject
 90
      499
 91
      556
 95
   393239
 70
     0
 93
     1340
310
42109E509B1BD8DAC02004014080404555555555555953FAA155555555555654FEA9AA400014080404555555555555953FAA155555555555654FEA9AA400000000000000E03F4080404555555555555953FAA155555555555654FEA9AA4014080404555555555555953FAA155555555555654FEA9AA4010201011555555555
310
55654FEA8555555555555953FAA6A9005020101155555555555654FEA8555555555555953FAA6A9000
 94
        0
  0
ACAD_PROXY_OBJECT
  5
5463
102
{ACAD_XDICTIONARY
360
5464
102
}
102
{ACAD_REACTORS
330
5462
102
}
330
5462
100
AcDbProxyObject
 90
      499
 91
      556
 95
   393239
 70
     0
 93
     1340
310
42109E53185E595C802004014080404555555555555953FAA155555555555654FEA9AA400014080404555555555555953FAA155555555555654FEA9AA400000000000000E03F4080404555555555555953FAA155555555555654FEA9AA4014080404555555555555953FAA155555555555654FEA9AA4010201011555555555
310
55654FEA8555555555555953FAA6A9005020101155555555555654FEA8555555555555953FAA6A9000
 94
        0
  0
ACAD_PROXY_OBJECT
  5
5473
102
{ACAD_XDICTIONARY
360
5474
102
}
102
{ACAD_REACTORS
330
5462
102
}
330
5462
100
AcDbProxyObject
 90
      499
 91
      556
 95
   393239
 70
     0
 93
     1332
310
41D1DB1BD8985B002004014080404555555555555953FAA155555555555654FEA9AA400014080404555555555555953FAA155555555555654FEA9AA400000000000000E03F4080404555555555555953FAA155555555555654FEA9AA4014080404555555555555953FAA155555555555654FEA9AA401020101155555555555
310
654FEA8555555555555953FAA6A9005020101155555555555654FEA8555555555555953FAA6A9000
 94
        0
  0
ACAD_PROXY_OBJECT
  5
54AA
102
{ACAD_REACTORS
330
54A9
102
}
330
54A9
100
AcDbProxyObject
 90
      499
 91
      560
 95
   393239
 70
     0
 93
      618
310
40901902A4063FBFFFFFE000000000000002040AD7A3703D0AD73F4254DD185B99185C99000000000000000104090141901A00000000000004100000000000000041025764000000000000300FC6
340
14
340
0
340
10
340
0
 94
        0
  0
MLINESTYLE
  5
13
102
{ACAD_REACTORS
330
E
102
}
330
E
100
AcDbMlineStyle
  2
STANDARD
 70
     0
  3

 62
     0
 51
90.0
 52
90.0
 71
     2
 49
0.5
 62
   256
  6
BYLAYER
 49
-0.5
 62
   256
  6
BYLAYER
  0
ACDBPLACEHOLDER
  5
351
102
{ACAD_REACTORS
330
350
102
}
330
350
  0
ACAD_PROXY_OBJECT
  5
5498
102
{ACAD_REACTORS
330
5497
102
}
330
5497
100
AcDbProxyObject
 90
      499
 91
      559
 95
   393239
 70
     0
 93
       49
310
904313A3100598
 94
        0
  0
ACAD_PROXY_OBJECT
  5
5499
102
{ACAD_REACTORS
330
5497
102
}
330
5497
100
AcDbProxyObject
 90
      499
 91
      559
 95
   393239
 70
     0
 93
      113
310
904313A32004000000000000004000
 94
        0
  0
ACAD_PROXY_OBJECT
  5
549A
102
{ACAD_REACTORS
330
5497
102
}
330
5497
100
AcDbProxyObject
 90
      499
 91
      559
 95
   393239
 70
     0
 93
      113
310
904313A34004000000000000104000
 94
        0
  0
ACAD_PROXY_OBJECT
  5
549B
102
{ACAD_REACTORS
330
5497
102
}
330
5497
100
AcDbProxyObject
 90
      499
 91
      559
 95
   393239
 70
     0
 93
      113
310
904313A35004000000000000144000
 94
        0
  0
ACAD_PROXY_OBJECT
  5
549C
102
{ACAD_REACTORS
330
5497
102
}
330
5497
100
AcDbProxyObject
 90
      499
 91
      559
 95
   393239
 70
     0
 93
      113
310
904313A38004000000000000204000
 94
        0
  0
ACAD_PROXY_OBJECT
  5
549D
102
{ACAD_REACTORS
330
5497
102
}
330
5497
100
AcDbProxyObject
 90
      499
 91
      559
 95
   393239
 70
     0
 93
      121
310
905313A3130004000000000000244000
 94
        0
  0
ACAD_PROXY_OBJECT
  5
549E
102
{ACAD_REACTORS
330
5497
102
}
330
5497
100
AcDbProxyObject
 90
      499
 91
      559
 95
   393239
 70
     0
 93
      121
310
905313A3136004000000000000304000
 94
        0
  0
ACAD_PROXY_OBJECT
  5
549F
102
{ACAD_REACTORS
330
5497
102
}
330
5497
100
AcDbProxyObject
 90
      499
 91
      559
 95
   393239
 70
     0
 93
      121
310
905313A3230004000000000000344000
 94
        0
  0
ACAD_PROXY_OBJECT
  5
54A0
102
{ACAD_REACTORS
330
5497
102
}
330
5497
100
AcDbProxyObject
 90
      499
 91
      559
 95
   393239
 70
     0
 93
      121
310
905313A33300040000000000003E4000
 94
        0
  0
ACAD_PROXY_OBJECT
  5
54A1
102
{ACAD_REACTORS
330
5497
102
}
330
5497
100
AcDbProxyObject
 90
      499
 91
      559
 95
   393239
 70
     0
 93
      121
310
905313A3430004000000000000444000
 94
        0
  0
ACAD_PROXY_OBJECT
  5
54A2
102
{ACAD_REACTORS
330
5497
102
}
330
5497
100
AcDbProxyObject
 90
      499
 91
      559
 95
   393239
 70
     0
 93
      121
310
905313A3530004000000000000494000
 94
        0
  0
ACAD_PROXY_OBJECT
  5
54A3
102
{ACAD_REACTORS
330
5497
102
}
330
5497
100
AcDbProxyObject
 90
      499
 91
      559
 95
   393239
 70
     0
 93
      129
310
906313A313030004000000000000594000
 94
        0
  0
ACAD_PROXY_OBJECT
  5
54A4
102
{ACAD_REACTORS
330
5497
102
}
330
5497
100
AcDbProxyObject
 90
      499
 91
      559
 95
   393239
 70
     0
 93
      113
310
904323A31000000000000000010159
 94
        0
  0
ACAD_PROXY_OBJECT
  5
54A5
102
{ACAD_REACTORS
330
5497
102
}
330
5497
100
AcDbProxyObject
 90
      499
 91
      559
 95
   393239
 70
     0
 93
      113
310
904343A31000000000000000410159
 94
        0
  0
ACAD_PROXY_OBJECT
  5
54A6
102
{ACAD_REACTORS
330
5497
102
}
330
5497
100
AcDbProxyObject
 90
      499
 91
      559
 95
   393239
 70
     0
 93
      113
310
904383A31000000000000000810159
 94
        0
  0
ACAD_PROXY_OBJECT
  5
54A7
102
{ACAD_REACTORS
330
5497
102
}
330
5497
100
AcDbProxyObject
 90
      499
 91
      559
 95
   393239
 70
     0
 93
      121
310
90531303A31000000000000000910140
 94
        0
  0
ACAD_PROXY_OBJECT
  5
54A8
102
{ACAD_REACTORS
330
5497
102
}
330
5497
100
AcDbProxyObject
 90
      499
 91
      559
 95
   393239
 70
     0
 93
      129
310
9063130303A31000000000000001650100
 94
        0
  0
ACAD_PROXY_OBJECT
  5
5496
102
{ACAD_XDICTIONARY
360
7E67
102
}
102
{ACAD_REACTORS
330
5495
102
}
330
5495
100
AcDbProxyObject
 90
      499
 91
      558
 95
   393239
 70
     0
 93
     1849
310
4254DD185B99185C990028000000000000F83F0000000000003E0FC00000000000004901028000000C1008070000C3001FDFF8000000C1003FBFF000000182007F7FE00000030400FEFFC00000060801FDFF8000000C1003FBFF000000182000000000000000C2020B0000001820100E000186003FBFF000000182007F7FE0
310
0000030400FEFFC00000060801FDFF8000000C1003FBFF000000182007F7FE0000003040000000000000012404160000003040201C00030C007F7FE00000030400FEFFC00000060801FDFF8000000C1003FBFF000000182007F7FE00000030400FEFFC000000608000
340
10
340
10
340
10
 94
        0
  0
ACAD_PROXY_OBJECT
  5
5481
102
{ACAD_XDICTIONARY
360
7E81
102
}
102
{ACAD_REACTORS
330
547B
102
}
330
547B
100
AcDbProxyObject
 90
      499
 91
      557
 95
   393239
 70
     0
 93
      444
310
430C9915DA5C99599C985B59401049028333333333333E3BF0000000000000FB0107901411070040501600405405064090741402480A0340
 94
        0
1001
ACAD
1000
AcDbSavedByObjectVersion
1070
     0
  0
ACAD_PROXY_OBJECT
  5
5480
102
{ACAD_XDICTIONARY
360
7E7F
102
}
102
{ACAD_REACTORS
330
547B
102
}
330
547B
100
AcDbProxyObject
 90
      499
 91
      557
 95
   393239
 70
     0
 93
      396
310
4190985CDA58C0107406404333333333333E3BF0000000000000FB0107A41107004050150841D405064090741402480A0350
 94
        0
1001
ACAD
1000
AcDbSavedByObjectVersion
1070
     0
  0
ACAD_PROXY_OBJECT
  5
5487
102
{ACAD_XDICTIONARY
360
7E8D
102
}
102
{ACAD_REACTORS
330
547B
102
}
330
547B
100
AcDbProxyObject
 90
      499
 91
      557
 95
   393239
 70
     0
 93
      436
310
42509C9A59DA1D195B8010C409028333333333333E3BF0000000000000FB010790141107004050150841D405064090741402480A029956
 94
        0
1001
ACAD
1000
AcDbSavedByObjectVersion
1070
     0
  0
ACAD_PROXY_OBJECT
  5
548B
102
{ACAD_XDICTIONARY
360
7E95
102
}
102
{ACAD_REACTORS
330
547B
102
}
330
547B
100
AcDbProxyObject
 90
      499
 91
      557
 95
   393239
 70
     0
 93
      460
310
4310DBDB1BDC90DA185B99D9401104090240C333333333333E3BF0000000000000FB0108901411070040501508421405064090741402480A0354
 94
        0
1001
ACAD
1000
AcDbSavedByObjectVersion
1070
     0
  0
ACAD_PROXY_OBJECT
  5
5484
102
{ACAD_XDICTIONARY
360
7E87
102
}
102
{ACAD_REACTORS
330
547B
102
}
330
547B
100
AcDbProxyObject
 90
      499
 91
      557
 95
   393239
 70
     0
 93
      508
310
42D0DBDB98D95C1D1D585B0010940D028333333333333E3BF0000000000000FB0107902409070040501000000000018199010841D405064090740C02480A0340
 94
        0
1001
ACAD
1000
AcDbSavedByObjectVersion
1070
     0
  0
ACAD_PROXY_OBJECT
  5
5486
102
{ACAD_XDICTIONARY
360
7E8B
102
}
102
{ACAD_REACTORS
330
547B
102
}
330
547B
100
AcDbProxyObject
 90
      499
 91
      557
 95
   393239
 70
     0
 93
      420
310
41111A5B4010B409028333333333333E3BF0000000000000FB010790141107004050150841D405064090741402480A02677FFFFFDA
 94
        0
1001
ACAD
1000
AcDbSavedByObjectVersion
1070
     0
  0
ACAD_PROXY_OBJECT
  5
5493
102
{ACAD_XDICTIONARY
360
7EA5
102
}
102
{ACAD_REACTORS
330
547B
102
}
330
547B
100
AcDbProxyObject
 90
      499
 91
      557
 95
   393239
 70
     0
 93
      460
310
43515919D950DBDB1BDC93D99980116409028333333333333E3BF0000000000000FB010790141107004050150841D405064090741402480A0350
 94
        0
1001
ACAD
1000
AcDbSavedByObjectVersion
1070
     0
  0
ACAD_PROXY_OBJECT
  5
548A
102
{ACAD_XDICTIONARY
360
7E93
102
}
102
{ACAD_REACTORS
330
547B
102
}
330
547B
100
AcDbProxyObject
 90
      499
 91
      557
 95
   393239
 70
     0
 93
      452
310
43119858D95C185D1D195C9B8010F409028333333333333E3BF0000000000000FB010790141107004050150841D405064090741402480A0350
 94
        0
1001
ACAD
1000
AcDbSavedByObjectVersion
1070
     0
  0
ACAD_PROXY_OBJECT
  5
547C
102
{ACAD_XDICTIONARY
360
7E77
102
}
102
{ACAD_REACTORS
330
547B
102
}
330
547B
100
AcDbProxyObject
 90
      499
 91
      557
 95
   393239
 70
     0
 93
      388
310
41519B185D00240901404333333333333E3BF0000000000000F9010740A907004050150841D405064090741402480A1B5A
 94
        0
1001
ACAD
1000
AcDbSavedByObjectVersion
1070
     0
  0
ACAD_PROXY_OBJECT
  5
547D
102
{ACAD_XDICTIONARY
360
7E79
102
}
102
{ACAD_REACTORS
330
547B
102
}
330
547B
100
AcDbProxyObject
 90
      499
 91
      557
 95
   393239
 70
     0
 93
      476
310
43919B185D15DA5D1A115919D95CC010140901404333333333333E3BF0000000000000F90107409019070040501600405405064090741402480A1B54
 94
        0
1001
ACAD
1000
AcDbSavedByObjectVersion
1070
     0
  0
ACAD_PROXY_OBJECT
  5
547E
102
{ACAD_XDICTIONARY
360
7E7B
102
}
102
{ACAD_REACTORS
330
547B
102
}
330
547B
100
AcDbProxyObject
 90
      499
 91
      557
 95
   393239
 70
     0
 93
      412
310
4211DBDD5C985D590010240902404333333333333E3BF0000000000000F9010740A9070040501641D405064090741402480A1B50
 94
        0
1001
ACAD
1000
AcDbSavedByObjectVersion
1070
     0
  0
ACAD_PROXY_OBJECT
  5
547F
102
{ACAD_XDICTIONARY
360
7E7D
102
}
102
{ACAD_REACTORS
330
547B
102
}
330
547B
100
AcDbProxyObject
 90
      499
 91
      557
 95
   393239
 70
     0
 93
      500
310
4451DBDD5C985D5915DA5D1A115919D95CC010340902404333333333333E3BF0000000000000F90107409019070040501600405405064090741402480A1B50
 94
        0
1001
ACAD
1000
AcDbSavedByObjectVersion
1070
     0
  0
ACAD_PROXY_OBJECT
  5
5483
102
{ACAD_XDICTIONARY
360
7E85
102
}
102
{ACAD_REACTORS
330
547B
102
}
330
547B
100
AcDbProxyObject
 90
      499
 91
      557
 95
   393239
 70
     0
 93
      484
310
41D21A5919195B8010640502408333333333333E3BF0000000000000FB01079024090700405020000000000001110200405405064090740C02480A034A
 94
        0
1001
ACAD
1000
AcDbSavedByObjectVersion
1070
     0
  0
ACAD_PROXY_OBJECT
  5
5491
102
{ACAD_XDICTIONARY
360
7EA1
102
}
102
{ACAD_REACTORS
330
547B
102
}
330
547B
100
AcDbProxyObject
 90
      499
 91
      557
 95
   393239
 70
     0
 93
      436
310
42929A5D1D195C93D99980114409028333333333333E3BF0000000000000FB010790141107004050150A41D405064090741402480A0354
 94
        0
1001
ACAD
1000
AcDbSavedByObjectVersion
1070
     0
  0
ACAD_PROXY_OBJECT
  5
5489
102
{ACAD_XDICTIONARY
360
7E91
102
}
102
{ACAD_REACTORS
330
547B
102
}
330
547B
100
AcDbProxyObject
 90
      499
 91
      557
 95
   393239
 70
     0
 93
      452
310
43131A5B995C185D1D195C9B8010E409028333333333333E3BF0000000000000FB010790141107004050750841D405064090741402483A0350
 94
        0
1001
ACAD
1000
AcDbSavedByObjectVersion
1070
     0
  0
ACAD_PROXY_OBJECT
  5
5492
102
{ACAD_XDICTIONARY
360
7EA3
102
}
102
{ACAD_REACTORS
330
547B
102
}
330
547B
100
AcDbProxyObject
 90
      499
 91
      557
 95
   393239
 70
     0
 93
      452
310
4313DD995C9A185B99D3D99980115409028333333333333E3BF0000000000000FB010790141107004050150941D405064090741402480A0356
 94
        0
1001
ACAD
1000
AcDbSavedByObjectVersion
1070
     0
  0
ACAD_PROXY_OBJECT
  5
5485
102
{ACAD_XDICTIONARY
360
7E89
102
}
102
{ACAD_REACTORS
330
547B
102
}
330
547B
100
AcDbProxyObject
 90
      499
 91
      557
 95
   393239
 70
     0
 93
      436
310
429499585B1A5CDD1A58C0108409028333333333333E3BF0000000000000F9010740A907004050150800405405064090740C02480A1B46
 94
        0
1001
ACAD
1000
AcDbSavedByObjectVersion
1070
     0
  0
ACAD_PROXY_OBJECT
  5
5490
102
{ACAD_XDICTIONARY
360
7E9F
102
}
102
{ACAD_REACTORS
330
547B
102
}
330
547B
100
AcDbProxyObject
 90
      499
 91
      557
 95
   393239
 70
     0
 93
      428
310
41D4DA185919590011B40902404333333333333E3BF0000000000000F9010740A41107004050150800405405064090840C02480A0B40
 94
        0
1001
ACAD
1000
AcDbSavedByObjectVersion
1070
     0
  0
ACAD_PROXY_OBJECT
  5
548F
102
{ACAD_XDICTIONARY
360
7E9D
102
}
102
{ACAD_REACTORS
330
547B
102
}
330
547B
100
AcDbProxyObject
 90
      499
 91
      557
 95
   393239
 70
     0
 93
      524
310
4494DA18591959081DDA5D1A08195919D95CC011A40902404333333333333E3BF0000000000000F901074090142907004050250800405405064090740C02480A0B4A
 94
        0
1001
ACAD
1000
AcDbSavedByObjectVersion
1070
     0
  0
ACAD_PROXY_OBJECT
  5
548C
102
{ACAD_XDICTIONARY
360
7E97
102
}
102
{ACAD_REACTORS
330
547B
102
}
330
547B
100
AcDbProxyObject
 90
      499
 91
      557
 95
   393239
 70
     0
 93
      540
310
43D4DA1859195CC81BD98811DC985E401174090240C333333333333E3BF0000000000000FB01079024090741D01000000000000111010841D405064090740C02480A0340
 94
        0
1001
ACAD
1000
AcDbSavedByObjectVersion
1070
     0
  0
ACAD_PROXY_OBJECT
  5
548D
102
{ACAD_XDICTIONARY
360
7E99
102
}
102
{ACAD_REACTORS
330
547B
102
}
330
547B
100
AcDbProxyObject
 90
      499
 91
      557
 95
   393239
 70
     0
 93
      484
310
4214DAD95D18DA1E4011840502408333333333333E3BF0000000000000FB01079024090741D01000000000000111010B41D405064090741802480A0340
 94
        0
1001
ACAD
1000
AcDbSavedByObjectVersion
1070
     0
  0
ACAD_PROXY_OBJECT
  5
5488
102
{ACAD_XDICTIONARY
360
7E8F
102
}
102
{ACAD_REACTORS
330
547B
102
}
330
547B
100
AcDbProxyObject
 90
      499
 91
      557
 95
   393239
 70
     0
 93
      420
310
42151A1A58DAD95B8010D409028333333333333E3BF0000000000000FB010790141107004050150C41D405064090741402480A0352
 94
        0
1001
ACAD
1000
AcDbSavedByObjectVersion
1070
     0
  0
ACAD_PROXY_OBJECT
  5
5482
102
{ACAD_XDICTIONARY
360
7E83
102
}
102
{ACAD_REACTORS
330
547B
102
}
330
547B
100
AcDbProxyObject
 90
      499
 91
      557
 95
   393239
 70
     0
 93
      428
310
4295DA5C99599C985B59401059028333333333333E3BF0000000000000FB0107901411070040501600405405064090740C02480A0346
 94
        0
1001
ACAD
1000
AcDbSavedByObjectVersion
1070
     0
  0
ACAD_PROXY_OBJECT
  5
548E
102
{ACAD_XDICTIONARY
360
7E9B
102
}
102
{ACAD_REACTORS
330
547B
102
}
330
547B
100
AcDbProxyObject
 90
      499
 91
      557
 95
   393239
 70
     0
 93
      412
310
41960B54985E4011940902404000000000000E03F0000000000000FB010740501907004050150841D405064090740C02480A1B46
 94
        0
1001
ACAD
1000
AcDbSavedByObjectVersion
1070
     0
  0
DICTIONARYVAR
  5
5B0D
102
{ACAD_REACTORS
330
E42
102
}
330
E42
100
DictionaryVariables
280
     0
  1
1:1
  0
DICTIONARYVAR
  5
5B0B
102
{ACAD_REACTORS
330
E42
102
}
330
E42
100
DictionaryVariables
280
     0
  1
STANDARD
  0
DICTIONARYVAR
  5
5B0A
102
{ACAD_REACTORS
330
E42
102
}
330
E42
100
DictionaryVariables
280
     0
  1
STANDARD
  0
DICTIONARYVAR
  5
7EAA
102
{ACAD_REACTORS
330
E42
102
}
330
E42
100
DictionaryVariables
280
     0
  1
1
  0
DICTIONARYVAR
  5
7EA9
102
{ACAD_REACTORS
330
E42
102
}
330
E42
100
DictionaryVariables
280
     0
  1
0
  0
DICTIONARYVAR
  5
5B0F
102
{ACAD_REACTORS
330
E42
102
}
330
E42
100
DictionaryVariables
280
     0
  1
1
  0
DICTIONARYVAR
  5
5B10
102
{ACAD_REACTORS
330
E42
102
}
330
E42
100
DictionaryVariables
280
     0
  1
15
  0
DICTIONARYVAR
  5
5B0E
102
{ACAD_REACTORS
330
E42
102
}
330
E42
100
DictionaryVariables
280
     0
  1
0
  0
DICTIONARYVAR
  5
5B0C
102
{ACAD_REACTORS
330
E42
102
}
330
E42
100
DictionaryVariables
280
     0
  1
0
  0
DICTIONARYVAR
  5
E43
102
{ACAD_REACTORS
330
E42
102
}
330
E42
100
DictionaryVariables
280
     0
  1
96
  0
DICTIONARYVAR
  5
7EAB
102
{ACAD_REACTORS
330
E42
102
}
330
E42
100
DictionaryVariables
280
     0
  1
2
  0
DICTIONARY
  5
6C6B
330
354
100
AcDbDictionary
280
     1
281
     1
  3
ACAD_XREC_ROUNDTRIP
360
7E71
  3
ADSK_XREC_LAYOUTTHUMBNAIL
360
6C6C
  0
DICTIONARY
  5
7E72
330
355
100
AcDbDictionary
280
     1
281
     1
  3
ACAD_XREC_ROUNDTRIP
360
7E73
  0
DICTIONARY
  5
546C
330
546B
100
AcDbDictionary
280
     1
281
     1
  3
ACAD_XREC_ROUNDTRIP
360
7E75
  3
BUMPTILE
360
546E
  3
DIFFUSETILE
360
546D
  3
OPACITYTILE
360
5471
  3
REFLECTIONTILE
360
5470
  3
REFRACTIONTILE
360
5472
  3
SPECULARTILE
360
546F
  0
DICTIONARY
  5
5464
330
5463
100
AcDbDictionary
280
     1
281
     1
  3
ACAD_XREC_ROUNDTRIP
360
7E74
  3
BUMPTILE
360
5466
  3
DIFFUSETILE
360
5465
  3
OPACITYTILE
360
5469
  3
REFLECTIONTILE
360
5468
  3
REFRACTIONTILE
360
546A
  3
SPECULARTILE
360
5467
  0
DICTIONARY
  5
5474
330
5473
100
AcDbDictionary
280
     1
281
     1
  3
ACAD_XREC_ROUNDTRIP
360
7E76
  3
BUMPTILE
360
5476
  3
DIFFUSETILE
360
5475
  3
OPACITYTILE
360
5479
  3
REFLECTIONTILE
360
5478
  3
REFRACTIONTILE
360
547A
  3
SPECULARTILE
360
5477
  0
DICTIONARY
  5
7E67
330
5496
100
AcDbDictionary
280
     1
281
     1
  3
ACAD_ROUNDTRIP_2008_TABLESTYLE_CELLSTYLEMAP
360
7E68
  3
ACAD_XREC_ROUNDTRIP
360
7EA7
  0
DICTIONARY
  5
7E81
330
5481
100
AcDbDictionary
280
     1
281
     1
  3
ACAD_XREC_ROUNDTRIP
360
7E82
  0
DICTIONARY
  5
7E7F
330
5480
100
AcDbDictionary
280
     1
281
     1
  3
ACAD_XREC_ROUNDTRIP
360
7E80
  0
DICTIONARY
  5
7E8D
330
5487
100
AcDbDictionary
280
     1
281
     1
  3
ACAD_XREC_ROUNDTRIP
360
7E8E
  0
DICTIONARY
  5
7E95
330
548B
100
AcDbDictionary
280
     1
281
     1
  3
ACAD_XREC_ROUNDTRIP
360
7E96
  0
DICTIONARY
  5
7E87
330
5484
100
AcDbDictionary
280
     1
281
     1
  3
ACAD_XREC_ROUNDTRIP
360
7E88
  0
DICTIONARY
  5
7E8B
330
5486
100
AcDbDictionary
280
     1
281
     1
  3
ACAD_XREC_ROUNDTRIP
360
7E8C
  0
DICTIONARY
  5
7EA5
330
5493
100
AcDbDictionary
280
     1
281
     1
  3
ACAD_XREC_ROUNDTRIP
360
7EA6
  0
DICTIONARY
  5
7E93
330
548A
100
AcDbDictionary
280
     1
281
     1
  3
ACAD_XREC_ROUNDTRIP
360
7E94
  0
DICTIONARY
  5
7E77
330
547C
100
AcDbDictionary
280
     1
281
     1
  3
ACAD_XREC_ROUNDTRIP
360
7E78
  0
DICTIONARY
  5
7E79
330
547D
100
AcDbDictionary
280
     1
281
     1
  3
ACAD_XREC_ROUNDTRIP
360
7E7A
  0
DICTIONARY
  5
7E7B
330
547E
100
AcDbDictionary
280
     1
281
     1
  3
ACAD_XREC_ROUNDTRIP
360
7E7C
  0
DICTIONARY
  5
7E7D
330
547F
100
AcDbDictionary
280
     1
281
     1
  3
ACAD_XREC_ROUNDTRIP
360
7E7E
  0
DICTIONARY
  5
7E85
330
5483
100
AcDbDictionary
280
     1
281
     1
  3
ACAD_XREC_ROUNDTRIP
360
7E86
  0
DICTIONARY
  5
7EA1
330
5491
100
AcDbDictionary
280
     1
281
     1
  3
ACAD_XREC_ROUNDTRIP
360
7EA2
  0
DICTIONARY
  5
7E91
330
5489
100
AcDbDictionary
280
     1
281
     1
  3
ACAD_XREC_ROUNDTRIP
360
7E92
  0
DICTIONARY
  5
7EA3
330
5492
100
AcDbDictionary
280
     1
281
     1
  3
ACAD_XREC_ROUNDTRIP
360
7EA4
  0
DICTIONARY
  5
7E89
330
5485
100
AcDbDictionary
280
     1
281
     1
  3
ACAD_XREC_ROUNDTRIP
360
7E8A
  0
DICTIONARY
  5
7E9F
330
5490
100
AcDbDictionary
280
     1
281
     1
  3
ACAD_XREC_ROUNDTRIP
360
7EA0
  0
DICTIONARY
  5
7E9D
330
548F
100
AcDbDictionary
280
     1
281
     1
  3
ACAD_XREC_ROUNDTRIP
360
7E9E
  0
DICTIONARY
  5
7E97
330
548C
100
AcDbDictionary
280
     1
281
     1
  3
ACAD_XREC_ROUNDTRIP
360
7E98
  0
DICTIONARY
  5
7E99
330
548D
100
AcDbDictionary
280
     1
281
     1
  3
ACAD_XREC_ROUNDTRIP
360
7E9A
  0
DICTIONARY
  5
7E8F
330
5488
100
AcDbDictionary
280
     1
281
     1
  3
ACAD_XREC_ROUNDTRIP
360
7E90
  0
DICTIONARY
  5
7E83
330
5482
100
AcDbDictionary
280
     1
281
     1
  3
ACAD_XREC_ROUNDTRIP
360
7E84
  0
DICTIONARY
  5
7E9B
330
548E
100
AcDbDictionary
280
     1
281
     1
  3
ACAD_XREC_ROUNDTRIP
360
7E9C
  0
XRECORD
  5
7E71
102
{ACAD_REACTORS
330
6C6B
102
}
330
6C6B
100
AcDbXrecord
280
     1
102
SHADEPLOT
 70
     0
102
SHADEPLOTRESLEVEL
 70
     2
102
SHADEPLOTCUSTOMDPI
 70
   300
  0
XRECORD
  5
6C6C
102
{ACAD_REACTORS
330
6C6B
102
}
330
6C6B
100
AcDbXrecord
280
     1
310
28000000000100007D0000000100080000000000007D0000000000000000000000010000000000000000000000000000FFFFFF000000000000000000000000000000000000000000000000000000000000000000330000006600000099000000CC000000FF00000000330000333300006633000099330000CC330000FF3300
310
0000660000336600006666000099660000CC660000FF66000000990000339900006699000099990000CC990000FF99000000CC000033CC000066CC000099CC0000CCCC0000FFCC000000FF000033FF000066FF000099FF0000CCFF0000FFFF000000003300330033006600330099003300CC003300FF003300003333003333
310
33006633330099333300CC333300FF33330000663300336633006666330099663300CC663300FF66330000993300339933006699330099993300CC993300FF99330000CC330033CC330066CC330099CC3300CCCC3300FFCC330000FF330033FF330066FF330099FF3300CCFF3300FFFF330000006600330066006600660099
310
006600CC006600FF00660000336600333366006633660099336600CC336600FF33660000666600336666006666660099666600CC666600FF66660000996600339966006699660099996600CC996600FF99660000CC660033CC660066CC660099CC6600CCCC6600FFCC660000FF660033FF660066FF660099FF6600CCFF6600
310
FFFF660000009900330099006600990099009900CC009900FF00990000339900333399006633990099339900CC339900FF33990000669900336699006666990099669900CC669900FF66990000999900339999006699990099999900CC999900FF99990000CC990033CC990066CC990099CC9900CCCC9900FFCC990000FF99
310
0033FF990066FF990099FF9900CCFF9900FFFF99000000CC003300CC006600CC009900CC00CC00CC00FF00CC000033CC003333CC006633CC009933CC00CC33CC00FF33CC000066CC003366CC006666CC009966CC00CC66CC00FF66CC000099CC003399CC006699CC009999CC00CC99CC00FF99CC0000CCCC0033CCCC0066CC
310
CC0099CCCC00CCCCCC00FFCCCC0000FFCC0033FFCC0066FFCC0099FFCC00CCFFCC00FFFFCC000000FF003300FF006600FF009900FF00CC00FF00FF00FF000033FF003333FF006633FF009933FF00CC33FF00FF33FF000066FF003366FF006666FF009966FF00CC66FF00FF66FF000099FF003399FF006699FF009999FF00CC
310
99FF00FF99FF0000CCFF0033CCFF0066CCFF0099CCFF00CCCCFF00FFCCFF0000FFFF0033FFFF0066FFFF0099FFFF00CCFFFF00FFFFFF00000000000D0D0D001A1A1A00282828003535350043434300505050005D5D5D006B6B6B00787878008686860093939300A1A1A100AEAEAE00BBBBBB00C9C9C900D6D6D600E4E4E400
310
F1F1F100FFFFFF000000000000000000000000000000000000000000000000000000000000000000000000000000000000000000000000000000000000000000000000000000000000000000000000000000000000000000000000000000000000000000000000000000000000000000000000000000000000000000000000
310
00000000000000000000000000000000000000000000000000000000000000000000000000000000000000000000000000000000000000000000000000000000000000000000000000000000000000000000000000000000000000000000000000000000000000000000000000000000000000000000000000000000000000
310
00000000000000000000000000000000000000000000000000000000000000000000000000000000000000000000000000000000000000000000000000000000000000000000000000000000000000000000000000000000000000000000000000000000000000000000000000000000000000000000000000000000000000
310
00000000000000000000000000000000000000000000000000000000000000000000000000000000000000000000000000000000000000000000000000000000000000000000000000000000000000000000000000000000000000000000000000000000000000000000000000000000000000000000000000000000000000
310
00000000000000000000000000000000000000000000000000000000000000000000000000000000000000000000000000000000000000000000000000000000000000000000000000000000000000000000000000000000000000000000000000000000000000000000000000000000000000000000000000000000000000
310
00000000000000000000000000000000000000000000000000000000000000000000000000000000000000000000000000000000000000000000000000000000000000000000000000000000000000000000000000000000000000000000000000000000000000000000000000000000000000000000000000000000000000
310
00000000000000000000000000000000000000000000000000000000000000000000000000000000000000000000000000000000000000000000000000000000000000000000000000000000000000000000000000000000000000000000000000000000000000000000000000000000000000000000000000000000000000
310
00000000000000000000000000000000000000000000000000000000000000000000000000000000000000000000000000000000000000000000000000000000000000000000000000000000000000000000000000000000000000000000000000000000000000000000000000000000000000000000000000000000000000
310
00000000000000000000000000000000000000000000000000000000000000000000000000000000000000000000000000000000000000000000000000000000000000000000000000000000000000000000000000000000000000000000000000000000000000000000000000000000000000000000000000000000000000
310
00000000000000000000000000000000000000000000000000000000000000000000000000000000000000000000000000000000000000000000000000000000000000000000000000000000000000000000000000000000000000000000000000000000000000000000000000000000000000000000000000000000000000
310
00000000000000000000000000000000000000000000000000000000000000000000000000000000000000000000000000000000000000000000000000000000000000000000000000000000000000000000000000000000000000000000000000000000000000000000000000000000000000000000000000000000000000
310
00000000000000000000000000000000000000000000000000000000000000000000000000000000000000000000000000000000000000000000000000000000000000000000000000000000000000000000000000000000000000000000000000000000000000000000000000000000000000000000000000000000000000
310
00000000000000000000000000000000000000000000000000000000000000000000000000000000000000000000000000000000000000000000000000000000000000000000000000000000000000000000000000000000000000000000000000000000000000000000000000000000000000000000000000000000000000
310
00000000000000000000000000000000000000000000000000000000000000000000000000000000000000000000000000000000000000000000000000000000000000000000000000000000000000000000000000000000000000000000000000000000000000000000000000000000000000000000000000000000000000
310
00000000000000000000000000000000000000000000000000000000000000000000000000000000000000000000000000000000000000000000000000000000000000000000000000000000000000000000000000000000000000000000000000000000000000000000000000000000000000000000000000000000000000
310
00000000000000000000000000000000000000000000000000000000000000000000000000000000000000000000000000000000000000000000000000000000000000000000000000000000000000000000000000000000000000000000000000000000000000000000000000000000000000000000000000000000000000
310
00000000000000000000000000000000000000000000000000000000000000000000000000000000000000000000000000000000000000000000000000000000000000000000000000000000000000000000000000000000000000000000000000000000000000000000000000000000000000000000000000000000000000
310
00000000000000000000000000000000000000000000000000000000000000000000000000000000000000000000000000000000000000000000000000000000000000000000000000000000000000000000000000000000000000000000000000000000000000000000000000000000000000000000000000000000000000
310
00000000000000000000000000000000000000000000000000000000000000000000000000000000000000000000000000000000000000000000000000000000000000000000000000000000000000000000000000000000000000000000000000000000000000000000000000000000000000000000000000000000000000
310
00000000000000000000000000000000000000000000000000000000000000000000000000000000000000000000000000000000000000000000000000000000000000000000000000000000000000000000000000000000000000000000000000000000000000000000000000000000000000000000000000000000000000
310
00000000000000000000000000000000000000000000000000000000000000000000000000000000000000000000000000000000000000000000000000000000000000000000000000000000000000000000000000000000000000000000000000000000000000000000000000000000000000000000000000000000000000
310
00000000000000000000000000000000000000000000000000000000000000000000000000000000000000000000000000000000000000000000000000000000000000000000000000000000000000000000000000000000000000000000000000000000000000000000000000000000000000000000000000000000000000
310
00000000000000000000000000000000000000000000000000000000000000000000000000000000000000000000000000000000000000000000000000000000000000000000000000000000000000000000000000000000000000000000000000000000000000000000000000000000000000000000000000000000000000
310
00000000000000000000000000000000000000000000000000000000000000000000000000000000000000000000000000000000000000000000000000000000000000000000000000000000000000000000000000000000000000000000000000000000000000000000000000000000000000000000000000000000000000
310
00000000000000000000000000000000000000000000000000000000000000000000000000000000000000000000000000000000000000000000000000000000000000000000000000000000000000000000000000000000000000000000000000000000000000000000000000000000000000000000000000000000000000
310
00000000000000000000000000000000000000000000000000000000000000000000000000000000000000000000000000000000000000000000000000000000000000000000000000000000000000000000000000000000000000000000000000000000000000000000000000000000000000000000000000000000000000
310
00000000000000000000000000000000000000000000000000000000000000000000000000000000000000000000000000000000000000000000000000000000000000000000000000000000000000000000000000000000000000000000000000000000000000000000000000000000000000000000000000000000000000
310
00000000000000000000000000000000000000000000000000000000000000000000000000000000000000000000000000000000000000000000000000000000000000000000000000000000000000000000000000000000000000000000000000000000000000000000000000000000000000000000000000000000000000
310
00000000000000000000000000000000000000000000000000000000000000000000000000000000000000000000000000000000000000000000000000000000000000000000000000000000000000000000000000000000000000000000000000000000000000000000000000000000000000000000000000000000000000
310
00000000000000000000000000000000000000000000000000000000000000000000000000000000000000000000000000000000000000000000000000000000000000000000000000000000000000000000000000000000000000000000000000000000000000000000000000000000000000000000000000000000000000
310
00000000000000000000000000000000000000000000000000000000000000000000000000000000000000000000000000000000000000000000000000000000000000000000000000000000000000000000000000000000000000000000000000000000000000000000000000000000000000000000000000000000000000
310
00000000000000000000000000000000000000000000000000000000000000000000000000000000000000000000000000000000000000000000000000000000000000000000000000000000000000000000000000000000000000000000000000000000000000000000000000000000000000000000000000000000000000
310
00000000000000000000000000000000000000000000000000000000000000000000000000000000000000000000000000000000000000000000000000000000000000000000000000000000000000000000000000000000000000000000000000000000000000000000000000000000000000000000000000000000000000
310
00000000000000000000000000000000000000000000000000000000000000000000000000000000000000000000000000000000000000000000000000000000000000000000000000000000000000000000000000000000000000000000000000000000000000000000000000000000000000000000000000000000000000
310
00000000000000000000000000000000000000000000000000000000000000000000000000000000000000000000000000000000000000000000000000000000000000000000000000000000000000000000000000000000000000000000000000000000000000000000000000000000000000000000000000000000000000
310
00000000000000000000000000000000000000000000000000000000000000000000000000000000000000000000000000000000000000000000000000000000000000000000000000000000000000000000000000000000000000000000000000000000000000000000000000000000000000000000000000000000000000
310
00000000000000000000000000000000000000000000000000000000000000000000000000000000000000000000000000000000000000000000000000000000000000000000000000000000000000000000000000000000000000000000000000000000000000000000000000000000000000F5F5F5F5F5F5F5F5F5F5F5F5
310
F5F5F5F5F5F5F5F5F5F5F5F5F5F5F5F5F5F5F5F5F5F5F5F5F5F5F5F5F5F5F5F5F5DCDCDCDCDCDCDCDCDCF5F5F5F5F5F5F5F5F5F5F5F5F5F5F5F5F5F5F5F5F5F5F5F5F5F5F5F5F5F5F5F5F5F5F5F5F5F5F5F5F5F5F5F5F5DCDCDCF5F5F5F5F5F5F5F5F5F5F5F5F5F5F5F5F5F5F5F5F5F5F5F5F5F5F5F5F5F5F5F5F5F5F5F5F5
310
F5F5F5F5F5F5F5F5F5F5F5F5000000000000000000000000000000000000000000000000000000000000000000000000000000000000000000000000000000000000000000000000000000000000000000000000000000000000000000000000000000000000000000000000000000000000000000F500F5F5F5F5F5F5F5F5
310
F5F5F5F500F50000000000000000000000000000000000000000000000F5F5F5000000DCDCDCDCDCDCDCDCDC000000000000000000000000000000000000000000000000000000000000F500000000000000000000F5F50000DCDCDC0000F50000000000000000000000000000000000F50000000000000000F500F5F5F5F5
310
F5F5F5F5000000000000000000F5000000000000000000000000000000000000000000000000000000000000000000000000000000000000000000000000000000000000000000000000000000000000000000000000000000000000000000000000000000000000000000000000000000000000000000F500F5F5F5F5F5F5
310
F5F5F5F5F5F500F500DCDCDCDCDCDCDCDCDCDCDCDCDCDCDCDCDCDCDC000000F50000000000000000000000000000000000000000000000000000000000000000000000000000000000000000F50000DCDCDCDCDC000000F50000000000000000F50000000000000000000000000000000000F50000000000000000F5000000
310
000000000000000000000000000000F5000000000000000000000000000000000000000000000000000000000000000000000000000000000000000000000000000000000000000000000000000000000000000000000000000000000000000000000000000000000000000000000000000000000000000000F500F5F5F5F5
310
F5F5F5F5F5F5F5F500F500DCDCDCDCDCDCDCDCDCDCDCDCDCDCDCDCDCDCDC000000F5F5F5F5F5F5DCDCDCDCDCDCDCF5F5F5F5F5F5F5F5F5F5F5F5F5F5F5F5F5F5F5F5F5F5F5F5F5F5F5F5F5F5F5F5F500000000000000000000F5F5F5F5DCDCF5F5F5F50000000000000000000000000000000000F5F5F5F5F5F5F5F5F5F500
310
F5F5F5F5F5F5F5F5F5F5F5F5F5F5F50000F5000000000000000000000000000000000000000000000000000000000000000000000000000000000000000000000000000000000000000000000000000000000000000000000000000000000000000000000000000000000000000000000000000000000000000000F500F5F5
310
F5F5F5F5F5F5F5F5F5F500F50000000000000000000000000000000000000000000000F5F500000000000000000000000000000000000000000000000000000000000000000000000000000000000000F5F5000000000000000000F5F500000000000000F50000000000000000000000000000000000F5F5F5000000000000
310
F5000000000000000000000000000000000000F5000000000000000000000000000000000000000000000000000000000000000000000000000000000000000000000000000000000000000000000000000000000000000000000000000000000000000000000000000000000000000000000000000000000000000000F5F5
310
F5F5F5F5F5F5F5F5F5F5F5F5F5F5F5F5F5F5F5F5F5F5F5F5F5F5F5F5F5F5F5F5F5F5F5F5F5F5F5F5F5F5F5F5F5F5F5F5F5F5F5F5F5F5F5F5F5F5F5F5F5F5F5F5F5F5F5F5F5F5F5F5F5F5F5F5F5F5F5F5F5F5F5F5F5F5F5F5F5F5F5F5F5F5F5F5F5F5F5F5F5F5F5F5F5F5F5F5F5F5F5F5F5F5F5F5F5F5F5F5F5F5F5F5F5F5F5
310
F5F5F5F5F5F5F5F5F5F5F5F5F5F5F5F5F5F5F5F5F5F5000000000000000000000000000000000000000000000000000000000000000000000000000000000000000000000000000000000000000000000000000000000000000000000000000000000000000000000000000000000000000000000000000000000000000000
310
F5000000000000000000000000000000000000000000000000000000000000000000000000000000000000000000000000000000000000000000000000000000000000000000000000000000000000000000000000000000000000000000000000000000000000000000000000000000000000000000000000000000000000
310
0000000000000000000000000000000000000000000000F500000000000000000000000000000000000000000000000000000000000000000000000000000000000000000000000000000000000000000000000000000000000000000000000000000000000000000000000000000000000000000000000000000000000000
310
0000F5000000000000000000000000000000000000000000000000000000000000000000000000000000000000000000000000000000000000000000000000000000000000000000000000000000000000000000000000000000000000000000000000000000000000000000000000000000000000000000002D2D002D2D00
310
2D2D2D2D002D2D2D2D2D2D2D2D2D2D2D2D2D2D2D002D000000F50000000000000000000000000000000000000000000000000000000000000000000000000000000000000000000000000000000000000000000000000000000000000000000000000000000000000000000000000000000000000000000000000000000000
310
00000000F5000000000000000000000000000000000000000000000000000000000000000000000000000000000000000000000000000000000000000000000000000000000000000000000000000000000000000000000000000000000000000000000000000000000000000000000000000000000000000000002D2D002D
310
2D2D2D2D2D2D2D2D2D2D2D2D2D2D2D2D2D2D2D2D2D2D2D2D000000F5000000000000000000000000000000000000000000000000000000000000000000000000000000000000000000000000000000000000000000000000000000000000000000000000000000000000000000000000000000000000000000000000000000
310
000000000000F5000000000000000000000000000000000000000000000000000000000000000000000000000000000000000000000000000000000000000000000000000000000000000000000000000000000000000000000000000000000000000000000000000000000000000000000000000000000000000000002D2D
310
002D00002D2D002D002D2D2D2D2D2D2D002D2D002D2D2D2D2D00000000F500000000000000000000000000000000000000000000000000000000000000000000000000000000000000000000000000000000000000000000000000000000000000000000000000000000000000000000000000000000000000000000000000
310
0000000000000000F500000000000000000000000000000000000000000000000000000000000000000000000000000000000000000000000000000000000000000000000000000000000000000000000000000000000000000000000000000000000000000000000000000000000000000000000000000000000000000000
310
00000000000000000000000000000000000000000000000000000000000000F50000000000000000000000000000000000000000000000000000000000000000000000000000000000000000000000000000000000000000000000000000000000000000000000000000000000000000000000000000000000000000000000
310
00000000000000000000F50000000000000000000000000000000000000000000000000000000000000000000000000000000000000000000000000000000000000000000000000000000000000000000000000000000000000000000000000000000000000000000000000000000000000000000000000000000000000000
310
000000000000000000000000000000000000000000000000000000000000000000F5000000000000000000000000000000000000000000000000000000000000000000000000000000000000000000000000000000000000000000000000000000000000000000000000000000000000000000000000000000000000000000
310
000000000000000000000000F5000000000000000000000000000000000000000000000000000000000000000000000000000000000000000000000000000000000000000000000000000000000000000000000000000000000000000000000000000000000000000000000000000000000000000000000000000000000000
310
0000000000000000000000000000000000000000000000000000000000000000000000F500000000000000000000000000000000000000000000000000000000000000000000000000000000000000000000000000000000000000000000000000000000000000000000000000000000000000000000000000000000000000
310
0000000000000000000000000000F500000000000000000000000000000000000000000000000000000000000000000000000000000000000000000000000000000000000000000000000000000000000000000000000000000000000000000000000000000000000000000000000000000000000000000000000000000000
310
00000000000000000000000000000000000000000000000000000000000000000000000000F50000000000000000000000000000000000000000000000000000000000000000000000000000000000000000000000000000000000000000000000000000000000000000000000000000000000000000000000000000000000
310
00000000000000000000000000000000F50000000000000000000000000000000000000000000000000000000000000000000000000000000000000000002D2D2D2D2D2D2D2D2D2D2D2D2D2D2D2D2D2D000000000000000000000000000000000000000000000000002D2D2D2D2D2D2D2D2D2D2D2D2D2D2D2D2D2D2D000000
310
000000000000000000000000000000000000000000000000000000000000000000000000000000F5000000000000000000000000000000000000000000000000000000000000000000000000000000000000000000000000000000000000000000000000000000000000000000000000000000000000000000000000000000
310
000000000000000000000000000000000000F50000000000000000000000000000000000000000000000000000000000000000000000000000000000000000002D0000000000002D2D2D000000000000002D000000000000000000000000000000000000000000000000002D000000000000002D2D2D000000000000002D00
310
0000000000000000000000000000000000000000000000000000000000000000000000000000000000F500000000000000000000000000000000000000000000000000000000000000000000000000000000000000000000000000000000000000000000000000000000000000000000000000000000000000000000000000
310
0000000000000000000000000000000000000000F50000000000000000000000000000000000000000000000000000000000000000000000000000000000000000002D000000000000002D2D000000000000002D000000000000000000000000000000000000000000000000002D00000000000000002D2D00000000000000
310
2D000000000000000000000000000000000000000000000000000000000000000000000000000000000000F50000000000000000000000000000000000000000000000000000000000000000000000000000000000000000000000000000000000000000000000000000000000000000000000000000000000000000000000
310
00000000000000000000000000000000000000000000F50000000000000000000000000000000000000000000000000000000000000000000000000000000000000000002D000000000000000000000000000000002D000000000000000000000000000000000000000000000000002D000000000000000000000000000000
310
00002D000000000000000000000000000000000000000000000000000000000000000000000000000000000000F5000000000000000000000000000000000000000000000000000000000000000000000000000000000000000000000000000000000000000000000000000000000000000000000000000000000000000000
310
000000000000000000000000000000000000000000000000F50000000000000000000000000000000000000000000000000000000000000000000000000000000000000000002D000000000000000000000000000000002D000000000000000000000000000000000000000000000000002D0000000000000000BE00000000
310
000000002D000000000000000000000000000000000000000000000000000000000000000000000000000000000000F500000000000000000000000000000000000000000000000000000000000000000000000000000000000000000000000000000000000000000000000000000000000000000000000000000000000000
310
0000000000000000000000000000000000000000000000000000F50000000000000000000000000000000000000000000000000000000000000000000000000000000000000000002D000000000000002D00000000000000002D000000000000000000000000000000000000000000000000002D0000000000000000BE0000
310
0000000000002D000000000000000000000000000000000000000000000000000000000000000000000000000000000000F50000000000000000000000000000000000000000000000000000000000000000000000000000000000000000000000000000000000000000000000000000000000000000000000000000000000
310
00000000000000000000000000000000000000000000000000000000F50000000000000000000000000000000000000000000000000000000000000000000000000000000000000000002D00000000000000BE00000000000000002D000000000000000000000000000000000000000000000000002D0000000000000000BE
310
00000000000000002D000000000000000000000000000000000000000000000000000000000000000000000000000000000000F5000000000000000000000000000000000000000000000000000000000000000000000000000000000000000000000000000000000000000000000000000000000000000000000000000000
310
000000000000000000000000000000000000000000000000000000000000F5000000000000000000000000000000000000000000000000000000000000000000002D2D2D2D2D2D2D2D2D2D002D28282828282828BE28282828282828282D2D2D2D2D2D2D2D2D00000000000000000000000000000000002D28282828282828
310
28BE28282828282828282D000000000000000000000000000000000000000000000000000000000000000000000000000000000000F500000000000000000000000000000000000000000000000000000000000000000000000000000000000000000000000000000000000000000000000000000000000000000000000000
310
0000000000000000000000000000000000000000000000000000000000000000F500000000000000000000000000000000000000000000000000000000000000000000002D0000002D00000000002828000000000000BE0000000000000028280000000000002D000000000000000000000000000000000000282800000000
310
000000BE000000000000280028000000000000000000000000000000000000000000000000000000000000000000000000000000000000F50000000000000000000000000000000000000000000000000000000000000000000000000000000000000000000000000000000000000000000000000000000000000000000000
310
00000000000000000000000000000000000000000000000000000000000000000000F500000000000000000000000000000000000000000000000000000000000000000000002D0000002D00000000002828000000000000BE0000000000000028280000000000002D00000000000000000000000000000000000028280000
310
0000000000BE000000000000280028000000000000000000000000000000000000000000000000000000000000000000000000000000000000F5000000000000000000000000000000000000000000000000000000000000000000000000000000000000000000000000000000000000000000000000000000000000000000
310
000000000000000000000000000000000000000000000000000000000000000000000000F500000000000000000000000000000000000000000000000000000000000000000000002D0000002D00000000002828000000000000BE00000000000000282800000000002D2D0000000000000000000000000000000000002828
310
00000000000000BE000000000000280028000000000000000000000000000000000000000000000000000000000000000000000000000000000000F500000000000000000000000000000000000000000000000000000000000000000000000000000000000000000000000000000000000000000000000000000000000000
310
0000000000000000000000000000000000000000000000000000000000000000000000000000F500000000000000000000000000000000000000000000000000000000000000000000002D002D2D2D00000000002828000000000000BE00000000000000282800000000002D2D000000000000000000000000000000000000
310
282800000000000000BE000000000000280028000000000000000000000000000000000000000000000000000000000000000000000000000000000000F50000000000000000000000000000000000000000000000000000000000000000000000000000000000000000000000000000000000000000000000000000000000
310
00000000000000000000000000000000000000000000000000000000000000000000000000000000F500000000000000000000000000000000000000000000000000000000000000000000002D002D2D2D00000000002828000000000000BE000000000000002828000000002D2D2D00000000000000000000000000000000
310
0000282800000000000000BE000000000000280028000000000000000000000000000000000000000000000000000000000000000000000000000000000000F5000000000000000000000000000000000000000000000000000000000000000000000000000000000000000000000000000000000000000000000000000000
310
000000000000000000000000000000000000000000000000000000000000000000000000000000000000F500000000000000000000000000000000000000000000000000000000000000000000002D002D2D2D00000000002828000000000000BE000000000000002828000000002D2D2D0000000000000000000000000000
310
00000000282800000000000000BE000000000000280028000000000000000000000000000000000000000000000000000000000000000000000000000000000000F500000000000000000000000000000000000000000000000000000000000000000000000000000000000000000000000000000000000000000000000000
310
0000000000000000000000000000000000000000000000000000000000000000000000000000000000000000F500000000000000000000000000000000000000000000000000000000000000000000002D0000002D00000000002828000000000000BE000000000000002828000000002D2D2D000000000000000000000000
310
000000000000282800000000000000BE000000000000280028000000000000000000000000000000000000000000000000000000000000000000000000000000000000F50000000000000000000000000000000000000000000000000000000000000000000000000000000000000000000000000000000000000000000000
310
00000000000000000000000000000000000000000000000000000000000000000000000000000000000000000000F500000000000000000000000000000000000000000000000000000000000000000000002D0000002D00000000002828000000000000BE0000000000000028280000000000002D00000000000000000000
310
0000000000000000282800000000000000BE000000000000280028000000000000000000000000000000000000000000000000000000000000000000000000000000000000F5000000000000000000000000000000000000000000000000000000000000000000000000000000000000000000000000000000000000000000
310
000000000000000000000000000000000000000000000000000000000000000000000000000000000000000000000000F500000000000000000000000000000000000000000000000000000000000000000000002D0000002D00000000002828000000000000BE00000000000000282D2D2D2D2D2D2D2D2D00000000000000
310
00000000000000000000282800000000000000BE000000000000280028000000000000000000000000000000000000000000000000000000000000000000000000000000000000F500000000000000000000000000000000000000000000000000000000000000000000000000000000000000000000000000000000000000
310
0000000000000000000000000000000000000000000000000000000000000000000000000000000000000000000000000000F500000000000000000000000000000000000000000000000000000000000000000000002D0000002D2D2D2D2D002D28282828282828BE28282828282828282800000000000000000000000000
310
000000000000000000000000282828282828282828BE282828282828282828000000000000000000000000000000000000000000000000000000000000000000000000000000000000F50000000000000000000000000000000000000000000000000000000000000000000000000000000000000000000000000000000000
310
00000000000000000000000000000000000000000000000000000000000000000000000000000000000000000000000000000000F50000000000000000000000000000000000000000000000000000000000000000002D2D2D0000000000000000002800000000000000BE0000000000000000280000000000000000000000
310
0000000000000000000000000000282800000000000000BE000000000000002828000000000000000000000000000000000000000000000000000000000000000000000000000000000000F5000000000000000000000000000000000000000000000000000000000000000000000000000000000000000000000000000000
310
000000000000000000000000000000000000000000000000000000000000000000000000000000000000000000000000000000000000F50000000000000000000000000000000000000000000000000000000000000000002D2D2D0000000000000000002800000000000000BE000000000000000028000000000000000000
310
00000000000000000000000000000000280000000000000000BE000000000000000028000000000000000000000000000000000000000000000000000000000000000000000000000000000000F500000000000000000000000000000000000000000000000000000000000000000000000000000000000000000000000000
310
0000000000000000000000000000000000000000000000000000000000000000000000000000000000000000000000000000000000000000F500000000000000000000000000000000000000000000000000000000000000000000002D0000000000000000002800000000000000BE00000000000000002800000000000000
310
000000000000000000000000000000000000280000000000000000BE000000000000000028000000000000000000000000000000000000000000000000000000000000000000000000000000000000F50000000000000000000000000000000000000000000000000000000000000000000000000000000000000000000000
310
00000000000000000000000000000000000000000000000000000000000000000000000000000000000000000000000000000000000000000000F500000000000000000000000000000000000000000000000000000000000000000000002D0000000000000000002828282828282828BE2828282828282828282828000000
310
0000000000000000000000000000000000000000282828282828282828BE282828282828282828000000000000000000000000000000000000000000000000000000000000000000000000000000000000F5000000000000000000000000000000000000000000000000000000000000000000000000000000000000000000
310
000000000000000000000000000000000000000000000000000000000000000000000000000000000000000000000000000000000000000000000000F500000000000000000000000000000000000000000000000000000000000000000000002D0000000000000000002828000000000000BE000000000000002828282828
310
28282D2D2D2D2D2D2D2D000000000000000000000000282828282828282828BE282828282828280028000000000000000000000000000000000000000000000000000000000000000000000000000000000000F500000000000000000000000000000000000000000000000000000000000000000000000000000000000000
310
0000000000000000000000000000000000000000000000000000000000000000000000000000000000000000000000000000000000000000000000000000F500000000000000000000000000000000000000000000000000000000000000000000002D0000000000000000002828000000000000BE00000000000000000000
310
002828282800000000002D2D000000000000000000000000282828282828282828BE282828282828282828000000000000000000000000000000000000000000000000000000000000000000000000000000000000F50000000000000000000000000000000000000000000000000000000000000000000000000000000000
310
00000000000000000000000000000000000000000000000000000000000000000000000000000000000000000000000000000000000000000000000000000000F500000000000000000000000000000000000000000000000000000000000000000000002D0000000000000000002828000000000000BE0000000000000000
310
000000000000280000000000002D000000000000000000000000282828000000000000BE000000000028282828000000000000000000000000000000000000000000000000000000000000000000000000000000000000F5000000000000000000000000000000000000000000000000000000000000000000000000000000
310
000000000000000000000000000000000000000000000000000000000000000000000000000000000000000000000000000000000000000000000000000000000000F500000000000000000000000000000000000000000000000000000000000000000000002D000000000000000000282800000000002D2D000000000000
310
0000000000000000280000000000002D000000000000000000000000282828000000000000BE000000000000282828000000000000000000000000000000000000000000000000000000000000000000000000000000000000F500000000000000000000000000000000000000000000000000000000000000000000000000
310
0000000000000000000000000000000000000000000000000000000000000000000000000000000000000000000000000000000000000000000000000000000000000000F500000000000000000000000000000000000000000000000000000000000000000000002D00000000000000000028280000002D2D2DBE00000000
310
00000000000000000000280000000000002D000000000000000000000000282828000000000000BE000000000000282828000000000000000000000000000000000000000000000000000000000000000000000000000000000000F50000000000000000000000000000000000000000000000000000000000000000000000
310
00000000000000000000000000000000000000000000000000000000000000000000000000000000000000000000000000000000000000000000000000000000000000000000F500000000000000000000000000000000000000000000000000000000000000000000002D000000000000000000282800002D2D2D2DBE0000
310
000000000000000000000000280000000000002D000000000000000000000000282828000000000000BE000000000000282828000000000000000000000000000000000000000000000000000000000000000000000000000000000000F5000000000000000000000000000000000000000000000000000000000000000000
310
000000000000000000000000000000000000000000000000000000000000000000000000000000000000000000000000000000000000000000000000000000000000000000000000F500000000000000000000000000000000000000000000000000000000000000000000002D0000000000000000002828002D2D2D2D00BE
310
0000000000000000000000000000280000000000002D000000000000000000000000282828000000000000BE000000000000282828000000000000000000000000000000000000000000000000000000000000000000000000000000000000F500000000000000000000000000000000000000000000000000000000000000
310
0000000000000000000000000000000000000000000000000000000000000000000000000000000000000000000000000000000000000000000000000000000000000000000000000000F500000000000000000000000000000000000000000000000000000000000000000000002D0000000000000000000028BE2DBE2DBE
310
00BE0000000000000000000000000000280000000000002D000000000000000000000000282828282828282828BE282828282828282828000000000000000000000000000000000000000000000000000000000000000000000000000000000000F50000000000000000000000000000000000000000000000000000000000
310
00000000000000000000000000000000000000000000000000000000000000000000000000000000000000000000000000000000000000000000000000000000000000000000000000000000F5000000000000000000000000000000000000000000000000000000000000000000002D2D2D2D2D2D2D2D2D2D2D2D2D2D2D2D
310
2D2D2D2DBEBEBEBEBEBEBEBEBEBEBEBEBE2DBEBE00000000002D2D0000000000000000BEBEBEBEBEBEBEBEBEBEBEBEBEBEBEBEBEBEBEBEBEBEBEBEBE000000000000000000000000000000000000000000000000000000000000000000000000000000F5000000000000000000000000000000000000000000000000000000
310
000000000000000000000000000000000000000000000000000000000000000000000000000000000000000000000000000000000000000000000000000000000000000000000000000000000000F5000000000000000000000000000000000000000000000000000000000000000000000000000000000000000000000000
310
28280000002D000000000000000000000000002D0000BE2D00002D2D2D0000000000000000000000282828000000000000BE000000000000282828000000000000000000000000000000000000000000000000000000000000000000000000000000000000F500000000000000000000000000000000000000000000000000
310
0000000000000000000000000000000000000000000000000000000000000000000000000000000000000000000000000000000000000000000000000000000000000000000000000000000000000000F500000000000000000000000000000000000000000000000000000000000000000000000000000000000000000000
310
000000282800002D000000000000000000000000002D0000000000002D2D000000000000000000000000282828000000000000BE000000000000282828000000000000000000000000000000000000000000000000000000000000000000000000000000000000F50000000000000000000000000000000000000000000000
310
00000000000000000000000000000000000000000000000000000000000000000000000000000000000000000000000000000000000000000000000000000000000000000000000000000000000000000000F50000000000000000000000000000000000000000000000000000000000000000000000000000000000000000
310
0000000000282800002D000000000000000000000000002D0000000000002D00000000000000000000000000282828000000000000BE000000000000282828000000000000000000000000000000000000000000000000000000000000000000000000000000000000F5000000000000000000000000000000000000000000
310
000000000000000000000000000000000000000000000000000000000000000000000000000000000000000000000000000000000000000000000000000000000000000000000000000000000000000000000000F5000000000000000000000000000000000000000000000000000000000000000000000000000000000000
310
00000000000000002828002D000000000000000000000000002D0000000000002D00000000000000000000000000282828000000000000BE000000000000282828000000000000000000000000000000000000000000000000000000000000000000000000000000000000F500000000000000000000000000000000000000
310
0000000000000000000000000000000000000000000000000000000000000000000000000000000000000000000000000000000000000000000000000000000000000000000000000000000000000000000000000000F500000000000000000000000000000000000000000000000000000000000000000000000000000000
310
000000000000000000000028282D000000000000000000000000002D0000000000002D00000000000000000000000000282828000000000000BE000000000000282828000000000000000000000000000000000000000000000000000000000000000000000000000000000000F50000000000000000000000000000000000
310
00000000000000000000000000000000000000000000000000000000000000000000000000000000000000000000000000000000000000000000000000000000000000000000000000000000000000000000000000000000F50000000000000000000000000000000000000000000000000000000000000000000000000000
310
0000000000000000000000000000282D000000000000000000000000002D0000000000002D00000000000000000000000000282828000000000000BE000000000000282828000000000000000000000000000000000000000000000000000000000000000000000000000000000000F5000000000000000000000000000000
310
000000000000000000000000000000000000000000000000000000000000000000000000000000000000000000000000000000000000000000000000000000000000000000000000000000000000000000000000000000000000F5000000000000000000000000000000000000000000000000000000000000000000000000
310
00000000000000000000000000000000002D28282828282D280000000000002D0000000000002D00000000000000000000000000282828000000000000BE000000000000282828000000000000000000000000000000000000000000000000000000000000000000000000000000000000F500000000000000000000000000
310
0000000000000000000000000000000000000000000000000000000000000000000000000000000000000000000000000000000000000000000000000000000000000000000000000000000000000000000000000000000000000000F500000000000000000000000000000000000000000000000000000000000000000000
310
000000000000000000000000000000000000002D28282828282D282828282828282D0000000000002D00000000000000000000000000002828282828282828BE282828282828280000000000000000000000000000000000000000000000000000000000000000000000000000000000000000F50000000000000000000000
310
00000000000000000000000000000000000000000000000000000000000000000000000000000000000000000000000000000000000000000000000000000000000000000000000000000000000000000000000000000000000000000000F50000000000000000000000000000000000000000000000000000000000000000
310
0000000000000000000000000000000000000000002D00000000002D002828282828282D2D2D2D2D2D2D2D00000000000000000000000000000028282828282828BE282828282828280000000000000000000000000000000000000000000000000000000000000000000000000000000000000000F5000000000000000000
310
000000000000000000000000000000000000000000000000000000000000000000000000000000000000000000000000000000000000000000000000000000000000000000000000000000000000000000000000000000000000000000000000F5000000000000000000000000000000000000000000000000000000000000
310
000000000000000000000000000000000000000000002D0000000000002D0000000000002D2D0000000000000000000000000000000000000000000000000000000000BE000000000000000000000000000000000000000000000000000000000000000000000000000000000000000000000000000000F500000000000000
310
0000000000000000000000000000000000000000000000000000000000000000000000000000000000000000000000000000000000000000000000000000000000000000000000000000000000000000000000000000000000000000000000000000F500000000000000000000000000000000000000000000000000000000
310
0000000000000000000000000000000000000000000000002D0000000000002D0000000000002D2D0000000000000000000000000000000000000000000000000000000000BE000000000000000000000000000000000000000000000000000000000000000000000000000000000000000000000000000000F50000000000
310
00000000000000000000000000000000000000000000000000000000000000000000000000000000000000000000000000000000000000000000000000000000000000000000000000000000000000000000000000000000000000000000000000000000F50000000000000000000000000000000000000000000000000000
310
00000000000000000000000000000000000000000000000000002D0000000000002D0000000000002D000000000000000000000000000000000000000000000000000000000000BE000000000000000000000000000000000000000000000000000000000000000000000000000000000000000000000000000000F5000000
310
000000000000000000000000000000000000000000000000000000000000000000000000000000000000000000000000000000000000000000000000000000000000000000000000000000000000000000000000000000000000000000000000000000000000F5000000000000000000000000000000000000000000000000
310
000000000000000000000000000000000000000000000000000000002D0000000000002D2D2D2D2D2D2D2D00000000000000000000000000000000000000000000000000000000000000000000000000000000000000000000000000000000000000000000000000000000000000000000000000000000000000000000F500
310
0000000000000000000000000000000000000000000000000000000000000000000000000000000000000000000000000000000000000000000000000000000000000000000000000000000000000000000000000000000000000000000000000000000000000000F500000000000000000000000000000000000000000000
310
0000000000000000000000000000000000000000000000000000000000002D0000000000002D002D2D2D2D2D2D00000000000000000000000000000000000000000000000000000000000000000000000000000000000000000000000000000000000000000000000000000000000000000000000000000000000000000000
310
F5000000000000000000000000000000000000000000000000000000000000000000000000000000000000000000000000000000000000000000000000000000000000000000000000000000000000000000000000000000000000000000000000000000000000000000F50000000000000000000000000000000000000000
310
00000000000000000000000000000000000000000000000000000000000000002D00000000000000002D2D2D2D002D0000000000000000000000000000000000000000000000000000000000000000000000000000000000000000000000000000000000000000000000000000000000000000000000000000000000000000
310
0000F5000000000000000000000000000000000000000000000000000000000000000000000000000000000000000000000000000000000000000000000000000000000000000000000000000000000000000000000000000000000000000000000000000000000000000000F5000000000000000000000000000000000000
310
000000000000000000000000000000000000000000000000000000000000000000002D2D2D2D2D2D2D2D0000000000002D000000000000000000000000000000000000000000000000000000000000000000000000000000000000000000000000000000000000000000000000000000000000000000000000000000000000
310
00000000F5000000000000000000000000000000000000000000000000000000000000000000000000000000000000000000000000000000000000000000000000000000000000000000000000000000000000000000000000000000000000000000000000000000000000000000F500000000000000000000000000000000
310
0000000000000000000000000000000000000000000000000000000000000000000000002D00000000002D2D2D2D2D2D2D2D2D00000000000000000000000000000000000000000000000000000000000000000000000000000000000000000000000000000000000000000000000000000000000000000000000000000000
310
000000000000F5000000000000000000000000000000000000000000000000000000000000000000000000000000000000000000000000000000000000000000000000000000000000000000000000000000000000000000000000000000000000000000000000000000000000000000F50000000000000000000000000000
310
00000000000000000000000000000000000000000000000000000000000000000000000000000000000000002D2D2D0000000000000000000000000000000000000000000000000000000000000000000000000000000000000000000000000000000000000000000000000000000000000000000000000000000000000000
310
0000000000000000F5000000000000000000000000000000000000000000000000000000000000000000000000000000000000000000000000000000000000000000000000000000000000000000000000000000000000000000000000000000000000000000000000000000000000000000F5000000000000000000000000
310
00000000000000000000000000000000000000000000000000000000000000000000000000000000000000000000000000000000000000000000000000000000000000000000000000000000000000000000000000000000000000000000000000000000000000000000000000000000000000000000000000000000000000
310
00000000000000000000F5000000000000000000000000000000000000000000000000000000000000000000000000000000000000000000000000000000000000000000000000000000000000000000000000000000000000000000000000000000000000000000000000000000000000000000F500000000000000000000
310
00000000000000000000000000000000000000000000000000000000000000000000000000000000000000000000000000000000000000000000000000000000000000000000000000000000000000000000000000000000000000000000000000000000000000000000000000000000000000000000000000000000000000
310
000000000000000000000000F5000000000000000000000000000000000000000000000000000000000000000000000000000000000000000000000000000000000000000000000000000000000000000000000000000000000000000000000000000000000000000000000000000000000000000000F50000000000000000
310
00000000000000000000000000000000000000000000000000000000000000000000000000000000000000000000000000000000000000000000000000000000000000000000000000000000000000000000000000000000000000000000000000000000000000000000000000000000000000000000000000000000000000
310
0000000000000000000000000000F5000000000000000000000000000000000000000000000000000000000000000000000000000000000000000000000000000000000000000000000000000000000000000000000000000000000000000000000000000000000000000000000000000000000000000000F5000000000000
310
00000000000000000000000000000000000000000000000000000000000000000000000000000000000000000000000000000000000000000000000000000000000000000000000000000000000000000000000000000000000000000000000000000000000000000000000000000000000000000000000000000000000000
310
00000000000000000000000000000000F5000000000000000000000000000000000000000000000000000000000000000000000000000000000000000000000000000000000000000000000000000000000000000000000000000000000000000000000000000000000000000000000000000000000000000000F500000000
310
00000000000000000000000000000000000000000000000000000000000000000000000000000000000000000000000000000000000000000000000000000000000000000000000000000000000000000000000000000000000000000000000000000000000000000000000000000000000000000000000000000000000000
310
000000000000000000000000000000000000F5000000000000000000000000000000000000000000000000000000000000000000000000000000000000000000000000000000000000000000000000000000000000000000000000000000000000000000000000000000000000000000000000000000000000000000F50000
310
000000000000000000000000000000000000000000000000000000000000000000000000000000000000000000000000000000BE000000000000000000000000000000000000000000000000000000000000000000000000000000000000000000000000000000000000000000000000000000000000000000000000000000
310
0000000000000000000000000000000000000000F5000000000000000000000000000000000000000000000000000000000000000000000000000000000000000000000000000000000000000000000000000000000000000000000000000000000000000000000000000000000000000000000000000000000000000000F5
310
0000000000000000000000000000000000000000000000000000000000000000000000000000000000000000000000000000000000BE00000000000000000000000000000000000000000000000000000000000000000000000000000000000000000000000000000000000000000000000000000000000000000000000000
310
00000000000000000000000000000000000000000000F50000000000000000000000000000000000000000000000000000000000000000000000000000000000000000000000000000000000000000000000000000000000000000000000000000000000000000000000000000000000000000000000000000000000000000
310
00F50000000000000000000000000000000000000000000000000000000000000000000000000000000000000000000000000000000000BE0000000000000000000000000000000000000000000000000000000000000000000000000000000000000000000000000000000000000000000000000000000000000000000000
310
000000000000000000000000000000000000000000000000F5000000000000000000000000000000000000000000000000000000000000000000000000000000000000000000000000000000000000000000000000000000000000000000000000000000000000000000000000000000000000000000000000000000000000
310
000000F50000000000000000000000000000000000000000000000000000000000000000000000000000000000000000000000000000000000BE000000000000000000000000000000000000000000000000000000000000000000000000000000000000000000000000000000000000000000000000000000000000000000
310
0000000000000000000000000000000000000000000000000000F500000000000000000000000000000000000000000000000000000000000000000000000000000000000000000000000000000000000000000000000000000000000000000000000000000000000000000000000000000000000000000000000000000000
310
0000000000F50000000000000000000000000000000000000000000000000000000000000000000000000000000000000000000000000000000000BE00000000000000000000000000000000000000000000000000000000000000000000000000000000000000000000000000000000000000000000000000000000000000
310
00000000000000000000000000000000000000000000000000000000F50000000000000000000000000000000000000000000000000000000000000000000000000000000000000000000000000000000000000000000000000000000000000000000000000000000000000000000000000000000000000000000000000000
310
00000000000000F50000000000000000000000000000000000000000000000000000000000000000000000000000000000000000000028282828282828BE2828282828282828282828282828280000000000000000000000000000000000000000000000000000000000000000000000000000000000000000000000000000
310
000000000000000000000000000000000000000000000000000000000000F5000000000000000000000000000000000000000000000000000000000000000000000000000000000000000000000000000000000000000000000000000000000000000000000000000000000000000000000000000000000000000000000000
310
000000000000000000F50000000000000000000000000000000000000000000000000000000000000000000000000000000000000000002828282828282828BE282828282828282828282828282828000000000000000000000000000000000000000000000000000000000000000000000000000000000000000000000000
310
0000000000000000000000000000000000000000000000000000000000000000F500000000000000000000000000000000000000000000000000000000000000000000000000000000000000000000000000000000000000000000000000000000000000000000000000000000000000000000000000000000000000000000
310
0000000000000000000000F50000000000000000000000000000000000000000000000000000000000000000000000000000000000000000002828000000000000BE00002800000000000000000000002800000000000000000000000000000000000000000000000000000000000000000000000000000000000000000000
310
00000000000000000000000000000000000000000000000000000000000000000000F50000000000000000000000000000000000000000000000000000000000000000000000000000000000000000000000000000000000000000000000000000000000000000000000000000000000000000000000000000000000000000
310
00000000000000000000000000F50000000000000000000000000000000000000000000000000000000000000000000000000000000000000000002828000000000000BE0000280000000000000000000000280000000000000000000000000000000000000000000000000000000000000000000000000000000000000000
310
000000000000000000000000000000000000000000000000000000000000000000000000F5000000000000000000000000000000000000000000000000000000000000000000000000000000000000000000000000000000000000000000000000000000000000000000000000000000000000000000000000000000000000
310
000000000000000000000000000000F50000000000000000000000000000000000000000000000000000000000000000000000000000000000000000002828000000000000BE000028000000000000000000000028000000000000000000000000000000000000000000000000000000000000000000000000000000000000
310
0000000000000000000000000000000000000000000000000000000000000000000000000000F500000000000000000000000000000000000000000000000000000000000000000000000000000000000000000000000000000000000000000000000000000000000000000000000000000000000000000000000000000000
310
0000000000000000000000000000000000F50000000000000000000000000000000000000000000000000000000000000000000000000000000000000000002828000000000000BE00002800000000000000000000002800000000000000000000000000000000000000000000000000000000000000000000000000000000
310
00000000000000000000000000000000000000000000000000000000000000000000000000000000F50000000000000000000000000000000000000000000000000000000000000000000000000000000000000000000000000000000000000000000000000000000000000000000000000000000000000000000000000000
310
00000000000000000000000000000000000000F50000000000000000000000000000000000000000000000000000000000000000000000000000000000000000002828000000000000BE0000280000000000000000000000280000000000000000000000000000000000000000000000000000000000000000000000000000
310
000000000000000000000000000000000000000000000000000000000000000000000000000000000000F5000000000000000000000000000000000000000000000000000000000000000000000000000000000000000000000000000000000000000000000000000000000000000000000000000000000000000000000000
310
000000000000000000000000000000000000000000F50000000000000000000000000000000000000000000000000000000000000000000000000000000000000000002828000000000000BE000028000000000000000000000028000000000000000000000000000000000000000000000000000000000000000000000000
310
0000000000000000000000000000000000000000000000000000000000000000000000000000000000000000F500000000000000000000000000000000000000000000000000000000000000000000000000000000000000000000000000000000000000000000000000000000000000000000000000000000000000000000
310
0000000000000000000000000000000000000000000000F50000000000000000000000000000000000000000000000000000000000000000000000000000000000000000002828000000000000BE00002800000000000000000000002800000000000000000000000000000000000000000000000000000000000000000000
310
00000000000000000000000000000000000000000000000000000000000000000000000000000000000000000000F50000000000000000000000000000000000000000000000000000000000000000000000000000000000000000000000000000000000000000000000000000000000000000000000000000000000000000
310
00000000000000000000000000000000000000000000000000F50000000000000000000000000000000000000000000000000000000000000000000000000000000000BEBEBEBEBEBEBEBEBEBEBEBEBEBEBEBEBEBEBEBEBEBEBEBEBEBEBEBEBEBEBEBE00000000000000000000000000000000000000000000000000000000
310
000000000000000000000000000000000000000000000000000000000000000000000000000000000000000000000000F5000000000000000000000000000000000000000000000000000000000000000000000000000000000000000000000000000000000000000000000000000000000000000000000000000000000000
310
000000000000000000000000000000000000000000000000000000F50000000000000000000000000000000000000000000000000000000000000000000000000000000000000000002828000000000000BE000028000000000000000000000028000000000000000000000000000000000000000000000000000000000000
310
0000000000000000000000000000000000000000000000000000000000000000000000000000000000000000000000000000F500000000000000000000000000000000000000000000000000000000000000000000000000000000000000000000000000000000000000000000000000000000000000000000000000000000
310
0000000000000000000000000000000000000000000000000000000000F50000000000000000000000000000000000000000000000000000000000000000000000000000000000000000002828000000000000BE00002800000000000000000000002800000000000000000000000000000000000000000000000000000000
310
00000000000000000000000000000000000000000000000000000000000000000000000000000000000000000000000000000000F50000000000000000000000000000000000000000000000000000000000000000000000000000000000000000000000000000000000000000000000000000000000000000000000000000
310
00000000000000000000000000000000000000000000000000000000000000F50000000000000000000000000000000000000000000000000000000000000000000000000000000000000000002828000000000000BE0000280000000000000000000000280000000000000000000000000000000000000000000000000000
310
000000000000000000000000000000000000000000000000000000000000000000000000000000000000000000000000000000000000F5000000000000000000000000000000000000000000000000000000000000000000000000000000000000000000000000000000000000000000000000000000000000000000000000
310
000000000000000000000000000000000000000000000000000000000000000000F50000000000000000000000000000000000000000000000000000000000000000000000000000000000000000002828000000000000BE000028000000000000000000000028000000000000000000000000000000000000000000000000
310
0000000000000000000000000000000000000000000000000000000000000000000000000000000000000000000000000000000000000000F500000000000000000000000000000000000000000000000000000000000000000000000000000000000000000000000000000000000000000000000000000000000000000000
310
0000000000000000000000000000000000000000000000000000000000000000000000F50000000000000000000000000000000000000000000000000000000000000000000000000000000000000000002828000000000000BE00002800000000000000000000002800000000000000000000000000000000000000000000
310
00000000000000000000000000000000000000000000000000000000000000000000000000000000000000000000000000000000000000000000F50000000000000000000000000000000000000000000000000000000000000000000000000000000000000000000000000000000000000000000000000000000000000000
310
00000000000000000000000000000000000000000000000000000000000000000000000000F50000000000000000000000000000000000000000000000000000000000000000000000000000000000000000002828000000000000BE0000280000000000000000000000280000000000000000000000000000000000000000
310
000000000000000000000000000000000000000000000000000000000000000000000000000000000000000000000000000000000000000000000000F5000000000000000000000000000000000000000000000000000000000000000000000000000000000000000000000000000000000000000000000000000000000000
310
000000000000000000000000000000000000000000000000000000000000000000000000000000F50000000000000000000000000000000000000000000000000000000000000000000000000000000000000000002828282828282828BE282828282828282828282828282828000000000000000000000000000000000000
310
0000000000000000000000000000000000000000000000000000000000000000000000000000000000000000000000000000000000000000000000000000F500000000000000000000000000000000000000000000000000000000000000000000000000000000000000000000000000000000000000000000000000000000
310
0000000000000000000000000000000000000000000000000000000000000000000000000000000000F50000000000000000000000000000000000000000000000000000000000000000000000000000000000000000000028282828282828BE28282828282828282828282828282800000000000000000000000000000000
310
00000000000000000000000000000000000000000000000000000000000000000000000000000000000000000000000000000000000000000000000000000000F50000000000000000000000000000000000000000000000000000000000000000000000000000000000000000000000000000000000000000000000000000
310
00000000000000000000000000000000000000000000000000000000000000000000000000000000000000F50000000000000000000000000000000000000000000000000000000000000000000000000000000000000000000000000000000000BE0000000000000000000000000000000000000000000000000000000000
310
000000000000000000000000000000000000000000000000000000000000000000000000000000000000000000000000000000000000000000000000000000000000F5000000000000000000000000000000000000000000000000000000000000000000000000000000000000000000000000000000000000000000000000
310
000000000000000000000000000000000000000000000000000000000000000000000000000000000000000000F50000000000000000000000000000000000000000000000000000000000000000000000000000000000000000000000000000000000BE000000000000000000000000000000000000000000000000000000
310
0000000000000000000000000000000000000000000000000000000000000000000000000000000000000000000000000000000000000000000000000000000000000000F500000000000000000000000000000000000000000000000000000000000000000000000000000000000000000000000000000000000000000000
310
0000000000000000000000000000000000000000000000000000000000000000000000000000000000000000000000F50000000000000000000000000000000000000000000000000000000000000000000000000000000000000000000000000000000000BE00000000000000000000000000000000000000000000000000
310
00000000000000000000000000000000000000000000000000000000000000000000000000000000000000000000000000000000000000000000000000000000000000000000F50000000000000000000000000000000000000000000000000000000000000000000000000000000000000000000000000000000000000000
310
00000000000000000000000000000000000000000000000000000000000000000000000000000000000000000000000000F50000000000000000000000000000000000000000000000000000000000000000000000000000000000000000000000000000000000BE0000000000000000000000000000000000000000000000
310
000000000000000000000000000000000000000000000000000000000000000000000000000000000000000000000000000000000000000000000000000000000000000000000000F5000000000000000000000000000000000000000000000000000000000000000000000000000000000000000000000000000000000000
310
000000000000000000000000000000000000000000000000000000000000000000000000000000000000000000000000000000F5000000000000000000000000000000000000000000000000000000000000000000000000000000000000000000000000000000000000000000000000000000000000000000000000000000
310
0000000000000000000000000000000000000000000000000000000000000000000000000000000000000000000000000000000000000000000000000000000000000000000000000000F500000000000000000000000000000000000000000000000000000000000000000000000000000000000000000000000000000000
310
0000000000000000000000000000000000000000000000000000000000000000000000000000000000000000000000000000000000F500000000000000000000000000000000000000000000000000000000000000000000000000000000000000000000000000000000000000000000000000000000000000000000000000
310
00000000000000000000000000000000000000000000000000000000000000000000000000000000000000000000000000000000000000000000000000000000000000000000000000000000F50000000000000000000000000000000000000000000000000000000000000000000000000000000000000000000000000000
310
00000000000000000000000000000000000000000000000000000000000000000000000000000000000000000000000000000000000000F50000000000000000000000000000000000000000000000000000000000000000000000000000000000000000000000000000000000000000000000000000000000000000000000
310
000000000000000000000000000000000000000000000000000000000000000000000000000000000000000000000000000000000000000000000000000000000000000000000000000000000000F5000000000000000000000000000000000000000000000000000000000000000000000000000000000000000000000000
310
000000000000000000000000000000000000000000000000000000000000000000000000000000000000000000000000000000000000000000F5000000000000000000000000000000000000000000000000000000000000000000000000000000000000000000000000000000000000000000000000000000000000000000
310
0000000000000000000000000000000000000000000000000000000000000000000000000000000000000000000000000000000000000000000000000000000000000000000000000000000000000000F500000000000000000000000000000000000000000000000000000000000000000000000000000000000000000000
310
0000000000000000000000000000000000000000000000000000000000000000000000000000000000000000000000000000000000000000000000F500000000000000000000000000000000000000000000000000000000000000000000000000000000000000000000000000000000000000000000000000000000000000
310
00000000000000000000000000000000000000000000000000000000000000000000000000000000000000000000000000000000000000000000000000000000000000000000000000000000000000000000F50000000000000000000000000000000000000000000000000000000000000000000000000000000000000000
310
00000000000000000000000000000000000000000000000000000000000000000000000000000000000000000000000000000000000000000000000000F50000000000000000000000000000000000000000000000000000000000000000000000000000000000000000000000000000000000000000000000000000000000
310
000000000000000000000000000000000000000000000000000000000000000000000000000000000000000000000000000000000000000000000000000000000000000000000000000000000000000000000000F5000000000000000000000000000000000000000000000000000000000000000000000000000000000000
310
000000000000000000000000000000000000000000000000000000000000000000000000000000000000000000000000000000000000000000000000000000F5000000000000000000000000000000000000000000000000000000000000000000000000000000000000000000000000000000000000000000000000000000
310
0000000000000000000000000000000000000000000000000000000000000000000000000000000000000000000000000000000000000000000000000000000000000000000000000000000000000000000000000000F500000000000000000000000000000000000000000000000000000000000000000000000000000000
310
0000000000000000000000000000000000000000000000000000000000000000000000000000000000000000000000000000000000000000000000000000000000F500000000000000000000000000000000000000000000000000000000000000000000000000000000000000000000000000000000000000000000000000
310
00000000000000000000000000000000000000000000000000000000000000000000000000000000000000000000000000000000000000000000000000000000000000000000000000000000000000000000000000000000F50000000000000000000000000000000000000000000000000000000000000000000000000000
310
00000000000000000000000000000000000000000000000000000000000000000000000000000000000000000000000000000000000000000000000000000000000000F5F5F5F5F5F5F5F5F5F5F5F5F5F5F5F5F5F5F5F5F5F5F5F5F5F5F5F5F5F5F5F5F5F5F5F5F5F5F5F5F5F5F5F5F5F5F5F5F5F5F5F5F5F5F5F5F5F5F5F5
310
F5F5F5F5F5F5F5F5F5F5F5F5F5F5F5F5F5F5F5F5F5F5F5F5F5F5F5F5F5F5F5F5F5F5F5F5F5F5F5F5F5F5F5F5F5F5F5F5F5F5F5F5F5F5F5F5F5F5F5F5F5F5F5F5F5F5F5F5F5F5F5F5F5F5F5F5F5F5F5F5F5F5F5F5F5F5F5F5F5F5F5000000000000000000000000000000000000000000000000000000000000000000000000
310
00000000000000000000000000000000000000000000000000000000000000000000000000000000000000000000000000000000000000000000000000000000000000000000000000000000000000000000000000000000000000000000000000000000000000000000000000000000000000000000000000000000000000
310
00000000000000000000000000000000000000000000000000000000000000000000000000000000000000000000000000000000000000000000000000000000000000000000000000000000000000000000000000000000000000000000000000000000000000000000000000000000000000000000000000000000000000
310
00000000000000000000000000000000000000000000000000000000000000000000000000000000000000000000000000000000000000000000000000000000000000000000000000000000000000000000000000000000000000000000000000000000000000000000000000000000000000000000000000000000000000
310
00000000000000000000000000000000000000000000000000000000000000000000000000000000000000000000000000000000000000000000000000000000000000000000000000000000000000000000000000000000000000000000000000000000000000000000000000000000000000000000000000000000000000
310
00000000000000000000000000000000000000000000000000000000000000000000000000000000000000000000000000000000000000000000000000000000000000000000000000000000000000000000000000000000000000000000000000000000000000000000000000000000000000000000000000000000000000
310
00000000000000000000000000000000000000000000000000000000000000000000000000000000000000000000000000000000000000000000000000000000000000000000000000000000000000000000000000000000000000000000000000000000000000000000000000000000000000000000000000000000000000
310
0000000000000000000000000000000000000000000000000000000000000000000000000000000000000000
  0
XRECORD
  5
7E73
102
{ACAD_REACTORS
330
7E72
102
}
330
7E72
100
AcDbXrecord
280
     1
102
SHADEPLOT
 70
     0
102
SHADEPLOTRESLEVEL
 70
     2
102
SHADEPLOTCUSTOMDPI
 70
   300
  0
XRECORD
  5
7E75
102
{ACAD_REACTORS
330
546C
102
}
330
546C
100
AcDbXrecord
280
     1
102
MATERIAL
148
0.0
149
0.0
149
0.0
 93
        0
 94
      127
282
     0
 72
     0
 77
     0
171
     0
175
     0
179
     0
273
     0
  0
XRECORD
  5
546E
102
{ACAD_REACTORS
330
546C
102
}
330
546C
100
AcDbXrecord
280
     1
270
     1
271
     1
  0
XRECORD
  5
546D
102
{ACAD_REACTORS
330
546C
102
}
330
546C
100
AcDbXrecord
280
     1
270
     1
271
     1
  0
XRECORD
  5
5471
102
{ACAD_REACTORS
330
546C
102
}
330
546C
100
AcDbXrecord
280
     1
270
     1
271
     1
  0
XRECORD
  5
5470
102
{ACAD_REACTORS
330
546C
102
}
330
546C
100
AcDbXrecord
280
     1
270
     1
271
     1
  0
XRECORD
  5
5472
102
{ACAD_REACTORS
330
546C
102
}
330
546C
100
AcDbXrecord
280
     1
270
     1
271
     1
  0
XRECORD
  5
546F
102
{ACAD_REACTORS
330
546C
102
}
330
546C
100
AcDbXrecord
280
     1
270
     1
271
     1
  0
XRECORD
  5
7E74
102
{ACAD_REACTORS
330
5464
102
}
330
5464
100
AcDbXrecord
280
     1
102
MATERIAL
148
0.0
149
0.0
149
0.0
 93
        0
 94
      127
282
     0
 72
     0
 77
     0
171
     0
175
     0
179
     0
273
     0
  0
XRECORD
  5
5466
102
{ACAD_REACTORS
330
5464
102
}
330
5464
100
AcDbXrecord
280
     1
270
     1
271
     1
  0
XRECORD
  5
5465
102
{ACAD_REACTORS
330
5464
102
}
330
5464
100
AcDbXrecord
280
     1
270
     1
271
     1
  0
XRECORD
  5
5469
102
{ACAD_REACTORS
330
5464
102
}
330
5464
100
AcDbXrecord
280
     1
270
     1
271
     1
  0
XRECORD
  5
5468
102
{ACAD_REACTORS
330
5464
102
}
330
5464
100
AcDbXrecord
280
     1
270
     1
271
     1
  0
XRECORD
  5
546A
102
{ACAD_REACTORS
330
5464
102
}
330
5464
100
AcDbXrecord
280
     1
270
     1
271
     1
  0
XRECORD
  5
5467
102
{ACAD_REACTORS
330
5464
102
}
330
5464
100
AcDbXrecord
280
     1
270
     1
271
     1
  0
XRECORD
  5
7E76
102
{ACAD_REACTORS
330
5474
102
}
330
5474
100
AcDbXrecord
280
     1
102
MATERIAL
148
0.0
149
0.0
149
0.0
 93
        0
 94
      127
282
     0
 72
     0
 77
     0
171
     0
175
     0
179
     0
273
     0
  0
XRECORD
  5
5476
102
{ACAD_REACTORS
330
5474
102
}
330
5474
100
AcDbXrecord
280
     1
270
     1
271
     1
  0
XRECORD
  5
5475
102
{ACAD_REACTORS
330
5474
102
}
330
5474
100
AcDbXrecord
280
     1
270
     1
271
     1
  0
XRECORD
  5
5479
102
{ACAD_REACTORS
330
5474
102
}
330
5474
100
AcDbXrecord
280
     1
270
     1
271
     1
  0
XRECORD
  5
5478
102
{ACAD_REACTORS
330
5474
102
}
330
5474
100
AcDbXrecord
280
     1
270
     1
271
     1
  0
XRECORD
  5
547A
102
{ACAD_REACTORS
330
5474
102
}
330
5474
100
AcDbXrecord
280
     1
270
     1
271
     1
  0
XRECORD
  5
5477
102
{ACAD_REACTORS
330
5474
102
}
330
5474
100
AcDbXrecord
280
     1
270
     1
271
     1
  0
ACAD_PROXY_OBJECT
  5
7E68
102
{ACAD_REACTORS
330
7E67
102
}
330
7E67
100
AcDbProxyObject
 90
      499
 91
      562
 95
   393239
 70
     0
 93
     5304
310
40D054060020000020000003200101A000080002A5058000000C10000000000000006101010000000000003E0FC000000000000F83F0000000000003E0FC000000000000F83F000000000000049000000000000001240419019018000000C1003FBFFFFFE0000000000003C8FD029018000000C1003FBFFFFFE00000000000
310
03C8FD049018000000C1003FBFFFFFE0000000000003C8FD089018000000C1003FBFFFFFE0000000000003C8FD109018000000C1003FBFFFFFE0000000000003C8FD209018000000C1003FBFFFFFE0000000000003C8FD01405075F5449544C450041501A8000000C800406800020000A94160000003040000000000000012
310
40404000000000000F83F0000000000003E0FC000000000000F83F0000000000003E0FC0000000000001240000000000000049010640640600000030400FEFFFFFF8000000000000F23F40A40600000030400FEFFFFFF8000000000000F23F41240600000030400FEFFFFFF8000000000000F23F42240600000030400FEFFF
310
FFF8000000000000F23F44240600000030400FEFFFFFF8000000000000F23F48240600000030400FEFFFFFF8000000000000F23F409014217D2115051115480105406A0000003200101A000080002A5028000000C10000000000000004901010000000000003E0FC000000000000F83F0000000000003E0FC000000000000F
310
83F000000000000049000000000000001240419019018000000C1003FBFFFFFE0000000000003C8FD029018000000C1003FBFFFFFE0000000000003C8FD049018000000C1003FBFFFFFE0000000000003C8FD089018000000C1003FBFFFFFE0000000000003C8FD109018000000C1003FBFFFFFE0000000000003C8FD20901
310
8000000C1003FBFFFFFE0000000000003C8FD03409065F444154410000
340
10
340
0
340
0
340
0
340
0
340
0
340
0
340
10
340
0
340
0
340
0
340
0
340
0
340
0
340
10
340
0
340
0
340
0
340
0
340
0
340
0
 94
        0
  0
XRECORD
  5
7EA7
102
{ACAD_REACTORS
330
7E67
102
}
330
7E67
100
AcDbXrecord
280
     1
102
ACAD_ROUNDTRIP_PRE2007_TABLESTYLE
 90
      512
 91
        0
  1

 92
      512
 93
        0
  2

 94
      512
 95
        0
  3

  0
XRECORD
  5
7E82
102
{ACAD_REACTORS
330
7E81
102
}
330
7E81
100
AcDbXrecord
280
     1
102
RTVSPropertyOp0
 70
     1
102
RTVSPropertyOp1
 70
     1
102
RTVSPropertyOp2
 70
     1
102
RTVSPropertyOp3
 70
     1
102
RTVSPropertyOp4
 70
     1
102
RTVSPropertyOp5
 70
     1
102
RTVSPropertyOp6
 70
     1
102
RTVSPropertyOp7
 70
     1
102
RTVSPropertyOp8
 70
     1
102
RTVSPropertyOp9
 70
     1
102
RTVSPropertyOp10
 70
     1
102
RTVSPropertyOp11
 70
     1
102
RTVSPropertyOp12
 70
     1
102
RTVSPropertyOp13
 70
     1
102
RTVSPropertyOp14
 70
     1
102
RTVSPropertyOp15
 70
     1
102
RTVSPropertyOp16
 70
     1
102
RTVSPropertyOp17
 70
     1
102
RTVSPropertyOp18
 70
     1
102
RTVSPropertyOp19
 70
     1
102
RTVSPropertyOp20
 70
     1
102
RTVSPropertyOp21
 70
     1
102
RTVSPropertyOp22
 70
     1
102
RTVSPropertyOp23
 70
     1
102
RTVSPropertyOp24
 70
     1
102
RTVSPropertyOp25
 70
     1
102
RTVSPropertyOp26
 70
     1
102
RTVSPropertyOp27
 70
     1
102
RTVSPropertyOp28
 70
     1
102
RTVSPropertyOp29
 70
     1
102
RTVSPropertyOp30
 70
     1
102
RTVSPropertyOp31
 70
     1
102
RTVSPropertyOp32
 70
     1
  0
XRECORD
  5
7E80
102
{ACAD_REACTORS
330
7E7F
102
}
330
7E7F
100
AcDbXrecord
280
     1
102
RTVSPropertyOp0
 70
     1
102
RTVSPropertyOp1
 70
     1
102
RTVSPropertyOp2
 70
     1
102
RTVSPropertyOp3
 70
     1
102
RTVSPropertyOp4
 70
     1
102
RTVSPropertyOp5
 70
     1
102
RTVSPropertyOp6
 70
     1
102
RTVSPropertyOp7
 70
     1
102
RTVSPropertyOp8
 70
     1
102
RTVSPropertyOp9
 70
     1
102
RTVSPropertyOp10
 70
     1
102
RTVSPropertyOp11
 70
     1
102
RTVSPropertyOp12
 70
     1
102
RTVSPropertyOp13
 70
     1
102
RTVSPropertyOp14
 70
     1
102
RTVSPropertyOp15
 70
     1
102
RTVSPropertyOp16
 70
     1
102
RTVSPropertyOp17
 70
     1
102
RTVSPropertyOp18
 70
     1
102
RTVSPropertyOp19
 70
     1
102
RTVSPropertyOp20
 70
     1
102
RTVSPropertyOp21
 70
     1
102
RTVSPropertyOp22
 70
     1
102
RTVSPropertyOp23
 70
     1
102
RTVSPropertyOp24
 70
     1
102
RTVSPropertyOp25
 70
     1
102
RTVSPropertyOp26
 70
     1
102
RTVSPropertyOp27
 70
     1
102
RTVSPropertyOp28
 70
     1
102
RTVSPropertyOp29
 70
     1
102
RTVSPropertyOp30
 70
     1
102
RTVSPropertyOp31
 70
     1
102
RTVSPropertyOp32
 70
     1
  0
XRECORD
  5
7E8E
102
{ACAD_REACTORS
330
7E8D
102
}
330
7E8D
100
AcDbXrecord
280
     1
102
RTVSPropertyOp0
 70
     1
102
RTVSPropertyOp1
 70
     1
102
RTVSPropertyOp2
 70
     1
102
RTVSPropertyOp3
 70
     1
102
RTVSPropertyOp4
 70
     1
102
RTVSPropertyOp5
 70
     1
102
RTVSPropertyOp6
 70
     1
102
RTVSPropertyOp7
 70
     1
102
RTVSPropertyOp8
 70
     1
102
RTVSPropertyOp9
 70
     1
102
RTVSPropertyOp10
 70
     1
102
RTVSPropertyOp11
 70
     1
102
RTVSPropertyOp12
 70
     1
102
RTVSPropertyOp13
 70
     1
102
RTVSPropertyOp14
 70
     1
102
RTVSPropertyOp15
 70
     1
102
RTVSPropertyOp16
 70
     1
102
RTVSPropertyOp17
 70
     1
102
RTVSPropertyOp18
 70
     1
102
RTVSPropertyOp19
 70
     1
102
RTVSPropertyOp20
 70
     1
102
RTVSPropertyOp21
 70
     1
102
RTVSPropertyOp22
 70
     1
102
RTVSPropertyOp23
 70
     1
102
RTVSPropertyOp24
 70
     1
102
RTVSPropertyOp25
 70
     1
102
RTVSPropertyOp26
 70
     1
102
RTVSPropertyOp27
 70
     1
102
RTVSPropertyOp28
 70
     1
102
RTVSPropertyOp29
 70
     1
102
RTVSPropertyOp30
 70
     1
102
RTVSPropertyOp31
 70
     1
102
RTVSPropertyOp32
 70
     1
  0
XRECORD
  5
7E96
102
{ACAD_REACTORS
330
7E95
102
}
330
7E95
100
AcDbXrecord
280
     1
102
RTVSPropertyOp0
 70
     1
102
RTVSPropertyOp1
 70
     1
102
RTVSPropertyOp2
 70
     1
102
RTVSPropertyOp3
 70
     1
102
RTVSPropertyOp4
 70
     1
102
RTVSPropertyOp5
 70
     1
102
RTVSPropertyOp6
 70
     1
102
RTVSPropertyOp7
 70
     1
102
RTVSPropertyOp8
 70
     1
102
RTVSPropertyOp9
 70
     1
102
RTVSPropertyOp10
 70
     1
102
RTVSPropertyOp11
 70
     1
102
RTVSPropertyOp12
 70
     1
102
RTVSPropertyOp13
 70
     1
102
RTVSPropertyOp14
 70
     1
102
RTVSPropertyOp15
 70
     1
102
RTVSPropertyOp16
 70
     1
102
RTVSPropertyOp17
 70
     1
102
RTVSPropertyOp18
 70
     1
102
RTVSPropertyOp19
 70
     1
102
RTVSPropertyOp20
 70
     1
102
RTVSPropertyOp21
 70
     1
102
RTVSPropertyOp22
 70
     1
102
RTVSPropertyOp23
 70
     1
102
RTVSPropertyOp24
 70
     1
102
RTVSPropertyOp25
 70
     1
102
RTVSPropertyOp26
 70
     1
102
RTVSPropertyOp27
 70
     1
102
RTVSPropertyOp28
 70
     1
102
RTVSPropertyOp29
 70
     1
102
RTVSPropertyOp30
 70
     1
102
RTVSPropertyOp31
 70
     1
102
RTVSPropertyOp32
 70
     1
  0
XRECORD
  5
7E88
102
{ACAD_REACTORS
330
7E87
102
}
330
7E87
100
AcDbXrecord
280
     1
102
RTVSPropertyOp0
 70
     1
102
RTVSPropertyOp1
 70
     1
102
RTVSPropertyOp2
 70
     1
102
RTVSPropertyOp3
 70
     1
102
RTVSPropertyOp4
 70
     1
102
RTVSPropertyOp5
 70
     1
102
RTVSPropertyOp6
 70
     1
102
RTVSPropertyOp7
 70
     1
102
RTVSPropertyOp8
 70
     1
102
RTVSPropertyOp9
 70
     1
102
RTVSPropertyOp10
 70
     1
102
RTVSPropertyOp11
 70
     1
102
RTVSPropertyOp12
 70
     1
102
RTVSPropertyOp13
 70
     1
102
RTVSPropertyOp14
 70
     1
102
RTVSPropertyOp15
 70
     1
102
RTVSPropertyOp16
 70
     1
102
RTVSPropertyOp17
 70
     1
102
RTVSPropertyOp18
 70
     1
102
RTVSPropertyOp19
 70
     1
102
RTVSPropertyOp20
 70
     1
102
RTVSPropertyOp21
 70
     1
102
RTVSPropertyOp22
 70
     1
102
RTVSPropertyOp23
 70
     1
102
RTVSPropertyOp24
 70
     1
102
RTVSPropertyOp25
 70
     1
102
RTVSPropertyOp26
 70
     1
102
RTVSPropertyOp27
 70
     1
102
RTVSPropertyOp28
 70
     1
102
RTVSPropertyOp29
 70
     1
102
RTVSPropertyOp30
 70
     1
102
RTVSPropertyOp31
 70
     1
102
RTVSPropertyOp32
 70
     1
  0
XRECORD
  5
7E8C
102
{ACAD_REACTORS
330
7E8B
102
}
330
7E8B
100
AcDbXrecord
280
     1
102
RTVSPropertyOp0
 70
     1
102
RTVSPropertyOp1
 70
     1
102
RTVSPropertyOp2
 70
     1
102
RTVSPropertyOp3
 70
     1
102
RTVSPropertyOp4
 70
     1
102
RTVSPropertyOp5
 70
     1
102
RTVSPropertyOp6
 70
     1
102
RTVSPropertyOp7
 70
     1
102
RTVSPropertyOp8
 70
     1
102
RTVSPropertyOp9
 70
     1
102
RTVSPropertyOp10
 70
     1
102
RTVSPropertyOp11
 70
     1
102
RTVSPropertyOp12
 70
     1
102
RTVSPropertyOp13
 70
     1
102
RTVSPropertyOp14
 70
     1
102
RTVSPropertyOp15
 70
     1
102
RTVSPropertyOp16
 70
     1
102
RTVSPropertyOp17
 70
     1
102
RTVSPropertyOp18
 70
     1
102
RTVSPropertyOp19
 70
     1
102
RTVSPropertyOp20
 70
     1
102
RTVSPropertyOp21
 70
     1
102
RTVSPropertyOp22
 70
     1
102
RTVSPropertyOp23
 70
     1
102
RTVSPropertyOp24
 70
     1
102
RTVSPropertyOp25
 70
     1
102
RTVSPropertyOp26
 70
     1
102
RTVSPropertyOp27
 70
     1
102
RTVSPropertyOp28
 70
     1
102
RTVSPropertyOp29
 70
     1
102
RTVSPropertyOp30
 70
     1
102
RTVSPropertyOp31
 70
     1
102
RTVSPropertyOp32
 70
     1
  0
XRECORD
  5
7EA6
102
{ACAD_REACTORS
330
7EA5
102
}
330
7EA5
100
AcDbXrecord
280
     1
102
RTVSPropertyOp0
 70
     0
102
RTVSPropertyOp1
 70
     0
102
RTVSPropertyOp2
 70
     0
102
RTVSPropertyOp3
 70
     0
102
RTVSPropertyOp4
 70
     0
102
RTVSPropertyOp5
 70
     0
102
RTVSPropertyOp6
 70
     0
102
RTVSPropertyOp7
 70
     0
102
RTVSPropertyOp8
 70
     0
102
RTVSPropertyOp9
 70
     0
102
RTVSPropertyOp10
 70
     0
102
RTVSPropertyOp11
 70
     0
102
RTVSPropertyOp12
 70
     0
102
RTVSPropertyOp13
 70
     0
102
RTVSPropertyOp14
 70
     2
102
RTVSPropertyOp15
 70
     0
102
RTVSPropertyOp16
 70
     0
102
RTVSPropertyOp17
 70
     0
102
RTVSPropertyOp18
 70
     0
102
RTVSPropertyOp19
 70
     0
102
RTVSPropertyOp20
 70
     0
102
RTVSPropertyOp21
 70
     0
102
RTVSPropertyOp22
 70
     0
102
RTVSPropertyOp23
 70
     0
102
RTVSPropertyOp24
 70
     0
102
RTVSPropertyOp25
 70
     0
102
RTVSPropertyOp26
 70
     0
102
RTVSPropertyOp27
 70
     0
102
RTVSPropertyOp28
 70
     1
102
RTVSPropertyOp29
 70
     1
102
RTVSPropertyOp30
 70
     1
102
RTVSPropertyOp31
 70
     1
102
RTVSPropertyOp32
 70
     1
  0
XRECORD
  5
7E94
102
{ACAD_REACTORS
330
7E93
102
}
330
7E93
100
AcDbXrecord
280
     1
102
RTVSPropertyOp0
 70
     1
102
RTVSPropertyOp1
 70
     1
102
RTVSPropertyOp2
 70
     1
102
RTVSPropertyOp3
 70
     1
102
RTVSPropertyOp4
 70
     1
102
RTVSPropertyOp5
 70
     1
102
RTVSPropertyOp6
 70
     1
102
RTVSPropertyOp7
 70
     1
102
RTVSPropertyOp8
 70
     1
102
RTVSPropertyOp9
 70
     1
102
RTVSPropertyOp10
 70
     1
102
RTVSPropertyOp11
 70
     1
102
RTVSPropertyOp12
 70
     1
102
RTVSPropertyOp13
 70
     1
102
RTVSPropertyOp14
 70
     1
102
RTVSPropertyOp15
 70
     1
102
RTVSPropertyOp16
 70
     1
102
RTVSPropertyOp17
 70
     1
102
RTVSPropertyOp18
 70
     1
102
RTVSPropertyOp19
 70
     1
102
RTVSPropertyOp20
 70
     1
102
RTVSPropertyOp21
 70
     1
102
RTVSPropertyOp22
 70
     1
102
RTVSPropertyOp23
 70
     1
102
RTVSPropertyOp24
 70
     1
102
RTVSPropertyOp25
 70
     1
102
RTVSPropertyOp26
 70
     1
102
RTVSPropertyOp27
 70
     1
102
RTVSPropertyOp28
 70
     1
102
RTVSPropertyOp29
 70
     1
102
RTVSPropertyOp30
 70
     1
102
RTVSPropertyOp31
 70
     1
102
RTVSPropertyOp32
 70
     1
  0
XRECORD
  5
7E78
102
{ACAD_REACTORS
330
7E77
102
}
330
7E77
100
AcDbXrecord
280
     1
102
RTVSPropertyOp0
 70
     1
102
RTVSPropertyOp1
 70
     1
102
RTVSPropertyOp2
 70
     1
102
RTVSPropertyOp3
 70
     1
102
RTVSPropertyOp4
 70
     1
102
RTVSPropertyOp5
 70
     1
102
RTVSPropertyOp6
 70
     1
102
RTVSPropertyOp7
 70
     1
102
RTVSPropertyOp8
 70
     1
102
RTVSPropertyOp9
 70
     1
102
RTVSPropertyOp10
 70
     1
102
RTVSPropertyOp11
 70
     1
102
RTVSPropertyOp12
 70
     1
102
RTVSPropertyOp13
 70
     1
102
RTVSPropertyOp14
 70
     1
102
RTVSPropertyOp15
 70
     1
102
RTVSPropertyOp16
 70
     1
102
RTVSPropertyOp17
 70
     1
102
RTVSPropertyOp18
 70
     1
102
RTVSPropertyOp19
 70
     1
102
RTVSPropertyOp20
 70
     1
102
RTVSPropertyOp21
 70
     1
102
RTVSPropertyOp22
 70
     1
102
RTVSPropertyOp23
 70
     1
102
RTVSPropertyOp24
 70
     1
102
RTVSPropertyOp25
 70
     1
102
RTVSPropertyOp26
 70
     1
102
RTVSPropertyOp27
 70
     1
102
RTVSPropertyOp28
 70
     1
102
RTVSPropertyOp29
 70
     1
102
RTVSPropertyOp30
 70
     1
102
RTVSPropertyOp31
 70
     1
102
RTVSPropertyOp32
 70
     1
  0
XRECORD
  5
7E7A
102
{ACAD_REACTORS
330
7E79
102
}
330
7E79
100
AcDbXrecord
280
     1
102
RTVSPropertyOp0
 70
     1
102
RTVSPropertyOp1
 70
     1
102
RTVSPropertyOp2
 70
     1
102
RTVSPropertyOp3
 70
     1
102
RTVSPropertyOp4
 70
     1
102
RTVSPropertyOp5
 70
     1
102
RTVSPropertyOp6
 70
     1
102
RTVSPropertyOp7
 70
     1
102
RTVSPropertyOp8
 70
     1
102
RTVSPropertyOp9
 70
     1
102
RTVSPropertyOp10
 70
     1
102
RTVSPropertyOp11
 70
     1
102
RTVSPropertyOp12
 70
     1
102
RTVSPropertyOp13
 70
     1
102
RTVSPropertyOp14
 70
     1
102
RTVSPropertyOp15
 70
     1
102
RTVSPropertyOp16
 70
     1
102
RTVSPropertyOp17
 70
     1
102
RTVSPropertyOp18
 70
     1
102
RTVSPropertyOp19
 70
     1
102
RTVSPropertyOp20
 70
     1
102
RTVSPropertyOp21
 70
     1
102
RTVSPropertyOp22
 70
     1
102
RTVSPropertyOp23
 70
     1
102
RTVSPropertyOp24
 70
     1
102
RTVSPropertyOp25
 70
     1
102
RTVSPropertyOp26
 70
     1
102
RTVSPropertyOp27
 70
     1
102
RTVSPropertyOp28
 70
     1
102
RTVSPropertyOp29
 70
     1
102
RTVSPropertyOp30
 70
     1
102
RTVSPropertyOp31
 70
     1
102
RTVSPropertyOp32
 70
     1
  0
XRECORD
  5
7E7C
102
{ACAD_REACTORS
330
7E7B
102
}
330
7E7B
100
AcDbXrecord
280
     1
102
RTVSPropertyOp0
 70
     1
102
RTVSPropertyOp1
 70
     1
102
RTVSPropertyOp2
 70
     1
102
RTVSPropertyOp3
 70
     1
102
RTVSPropertyOp4
 70
     1
102
RTVSPropertyOp5
 70
     1
102
RTVSPropertyOp6
 70
     1
102
RTVSPropertyOp7
 70
     1
102
RTVSPropertyOp8
 70
     1
102
RTVSPropertyOp9
 70
     1
102
RTVSPropertyOp10
 70
     1
102
RTVSPropertyOp11
 70
     1
102
RTVSPropertyOp12
 70
     1
102
RTVSPropertyOp13
 70
     1
102
RTVSPropertyOp14
 70
     1
102
RTVSPropertyOp15
 70
     1
102
RTVSPropertyOp16
 70
     1
102
RTVSPropertyOp17
 70
     1
102
RTVSPropertyOp18
 70
     1
102
RTVSPropertyOp19
 70
     1
102
RTVSPropertyOp20
 70
     1
102
RTVSPropertyOp21
 70
     1
102
RTVSPropertyOp22
 70
     1
102
RTVSPropertyOp23
 70
     1
102
RTVSPropertyOp24
 70
     1
102
RTVSPropertyOp25
 70
     1
102
RTVSPropertyOp26
 70
     1
102
RTVSPropertyOp27
 70
     1
102
RTVSPropertyOp28
 70
     1
102
RTVSPropertyOp29
 70
     1
102
RTVSPropertyOp30
 70
     1
102
RTVSPropertyOp31
 70
     1
102
RTVSPropertyOp32
 70
     1
  0
XRECORD
  5
7E7E
102
{ACAD_REACTORS
330
7E7D
102
}
330
7E7D
100
AcDbXrecord
280
     1
102
RTVSPropertyOp0
 70
     1
102
RTVSPropertyOp1
 70
     1
102
RTVSPropertyOp2
 70
     1
102
RTVSPropertyOp3
 70
     1
102
RTVSPropertyOp4
 70
     1
102
RTVSPropertyOp5
 70
     1
102
RTVSPropertyOp6
 70
     1
102
RTVSPropertyOp7
 70
     1
102
RTVSPropertyOp8
 70
     1
102
RTVSPropertyOp9
 70
     1
102
RTVSPropertyOp10
 70
     1
102
RTVSPropertyOp11
 70
     1
102
RTVSPropertyOp12
 70
     1
102
RTVSPropertyOp13
 70
     1
102
RTVSPropertyOp14
 70
     1
102
RTVSPropertyOp15
 70
     1
102
RTVSPropertyOp16
 70
     1
102
RTVSPropertyOp17
 70
     1
102
RTVSPropertyOp18
 70
     1
102
RTVSPropertyOp19
 70
     1
102
RTVSPropertyOp20
 70
     1
102
RTVSPropertyOp21
 70
     1
102
RTVSPropertyOp22
 70
     1
102
RTVSPropertyOp23
 70
     1
102
RTVSPropertyOp24
 70
     1
102
RTVSPropertyOp25
 70
     1
102
RTVSPropertyOp26
 70
     1
102
RTVSPropertyOp27
 70
     1
102
RTVSPropertyOp28
 70
     1
102
RTVSPropertyOp29
 70
     1
102
RTVSPropertyOp30
 70
     1
102
RTVSPropertyOp31
 70
     1
102
RTVSPropertyOp32
 70
     1
  0
XRECORD
  5
7E86
102
{ACAD_REACTORS
330
7E85
102
}
330
7E85
100
AcDbXrecord
280
     1
102
RTVSPropertyOp0
 70
     1
102
RTVSPropertyOp1
 70
     1
102
RTVSPropertyOp2
 70
     1
102
RTVSPropertyOp3
 70
     1
102
RTVSPropertyOp4
 70
     1
102
RTVSPropertyOp5
 70
     1
102
RTVSPropertyOp6
 70
     1
102
RTVSPropertyOp7
 70
     1
102
RTVSPropertyOp8
 70
     1
102
RTVSPropertyOp9
 70
     1
102
RTVSPropertyOp10
 70
     1
102
RTVSPropertyOp11
 70
     1
102
RTVSPropertyOp12
 70
     1
102
RTVSPropertyOp13
 70
     1
102
RTVSPropertyOp14
 70
     1
102
RTVSPropertyOp15
 70
     1
102
RTVSPropertyOp16
 70
     1
102
RTVSPropertyOp17
 70
     1
102
RTVSPropertyOp18
 70
     1
102
RTVSPropertyOp19
 70
     1
102
RTVSPropertyOp20
 70
     1
102
RTVSPropertyOp21
 70
     1
102
RTVSPropertyOp22
 70
     1
102
RTVSPropertyOp23
 70
     1
102
RTVSPropertyOp24
 70
     1
102
RTVSPropertyOp25
 70
     1
102
RTVSPropertyOp26
 70
     1
102
RTVSPropertyOp27
 70
     1
102
RTVSPropertyOp28
 70
     1
102
RTVSPropertyOp29
 70
     1
102
RTVSPropertyOp30
 70
     1
102
RTVSPropertyOp31
 70
     1
102
RTVSPropertyOp32
 70
     1
  0
XRECORD
  5
7EA2
102
{ACAD_REACTORS
330
7EA1
102
}
330
7EA1
100
AcDbXrecord
280
     1
102
RTVSPropertyOp0
 70
     0
102
RTVSPropertyOp1
 70
     0
102
RTVSPropertyOp2
 70
     0
102
RTVSPropertyOp3
 70
     0
102
RTVSPropertyOp4
 70
     0
102
RTVSPropertyOp5
 70
     0
102
RTVSPropertyOp6
 70
     0
102
RTVSPropertyOp7
 70
     0
102
RTVSPropertyOp8
 70
     0
102
RTVSPropertyOp9
 70
     0
102
RTVSPropertyOp10
 70
     0
102
RTVSPropertyOp11
 70
     0
102
RTVSPropertyOp12
 70
     0
102
RTVSPropertyOp13
 70
     0
102
RTVSPropertyOp14
 70
     2
102
RTVSPropertyOp15
 70
     0
102
RTVSPropertyOp16
 70
     0
102
RTVSPropertyOp17
 70
     0
102
RTVSPropertyOp18
 70
     0
102
RTVSPropertyOp19
 70
     0
102
RTVSPropertyOp20
 70
     0
102
RTVSPropertyOp21
 70
     0
102
RTVSPropertyOp22
 70
     0
102
RTVSPropertyOp23
 70
     0
102
RTVSPropertyOp24
 70
     0
102
RTVSPropertyOp25
 70
     0
102
RTVSPropertyOp26
 70
     0
102
RTVSPropertyOp27
 70
     0
102
RTVSPropertyOp28
 70
     1
102
RTVSPropertyOp29
 70
     1
102
RTVSPropertyOp30
 70
     1
102
RTVSPropertyOp31
 70
     1
102
RTVSPropertyOp32
 70
     1
  0
XRECORD
  5
7E92
102
{ACAD_REACTORS
330
7E91
102
}
330
7E91
100
AcDbXrecord
280
     1
102
RTVSPropertyOp0
 70
     1
102
RTVSPropertyOp1
 70
     1
102
RTVSPropertyOp2
 70
     1
102
RTVSPropertyOp3
 70
     1
102
RTVSPropertyOp4
 70
     1
102
RTVSPropertyOp5
 70
     1
102
RTVSPropertyOp6
 70
     1
102
RTVSPropertyOp7
 70
     1
102
RTVSPropertyOp8
 70
     1
102
RTVSPropertyOp9
 70
     1
102
RTVSPropertyOp10
 70
     1
102
RTVSPropertyOp11
 70
     1
102
RTVSPropertyOp12
 70
     1
102
RTVSPropertyOp13
 70
     1
102
RTVSPropertyOp14
 70
     1
102
RTVSPropertyOp15
 70
     1
102
RTVSPropertyOp16
 70
     1
102
RTVSPropertyOp17
 70
     1
102
RTVSPropertyOp18
 70
     1
102
RTVSPropertyOp19
 70
     1
102
RTVSPropertyOp20
 70
     1
102
RTVSPropertyOp21
 70
     1
102
RTVSPropertyOp22
 70
     1
102
RTVSPropertyOp23
 70
     1
102
RTVSPropertyOp24
 70
     1
102
RTVSPropertyOp25
 70
     1
102
RTVSPropertyOp26
 70
     1
102
RTVSPropertyOp27
 70
     1
102
RTVSPropertyOp28
 70
     1
102
RTVSPropertyOp29
 70
     1
102
RTVSPropertyOp30
 70
     1
102
RTVSPropertyOp31
 70
     1
102
RTVSPropertyOp32
 70
     1
  0
XRECORD
  5
7EA4
102
{ACAD_REACTORS
330
7EA3
102
}
330
7EA3
100
AcDbXrecord
280
     1
102
RTVSPropertyOp0
 70
     0
102
RTVSPropertyOp1
 70
     0
102
RTVSPropertyOp2
 70
     0
102
RTVSPropertyOp3
 70
     0
102
RTVSPropertyOp4
 70
     0
102
RTVSPropertyOp5
 70
     0
102
RTVSPropertyOp6
 70
     0
102
RTVSPropertyOp7
 70
     0
102
RTVSPropertyOp8
 70
     0
102
RTVSPropertyOp9
 70
     0
102
RTVSPropertyOp10
 70
     0
102
RTVSPropertyOp11
 70
     0
102
RTVSPropertyOp12
 70
     0
102
RTVSPropertyOp13
 70
     0
102
RTVSPropertyOp14
 70
     2
102
RTVSPropertyOp15
 70
     0
102
RTVSPropertyOp16
 70
     0
102
RTVSPropertyOp17
 70
     0
102
RTVSPropertyOp18
 70
     0
102
RTVSPropertyOp19
 70
     0
102
RTVSPropertyOp20
 70
     0
102
RTVSPropertyOp21
 70
     0
102
RTVSPropertyOp22
 70
     0
102
RTVSPropertyOp23
 70
     0
102
RTVSPropertyOp24
 70
     0
102
RTVSPropertyOp25
 70
     0
102
RTVSPropertyOp26
 70
     0
102
RTVSPropertyOp27
 70
     0
102
RTVSPropertyOp28
 70
     1
102
RTVSPropertyOp29
 70
     1
102
RTVSPropertyOp30
 70
     1
102
RTVSPropertyOp31
 70
     1
102
RTVSPropertyOp32
 70
     1
  0
XRECORD
  5
7E8A
102
{ACAD_REACTORS
330
7E89
102
}
330
7E89
100
AcDbXrecord
280
     1
102
RTVSPropertyOp0
 70
     1
102
RTVSPropertyOp1
 70
     1
102
RTVSPropertyOp2
 70
     1
102
RTVSPropertyOp3
 70
     1
102
RTVSPropertyOp4
 70
     1
102
RTVSPropertyOp5
 70
     1
102
RTVSPropertyOp6
 70
     1
102
RTVSPropertyOp7
 70
     1
102
RTVSPropertyOp8
 70
     1
102
RTVSPropertyOp9
 70
     1
102
RTVSPropertyOp10
 70
     1
102
RTVSPropertyOp11
 70
     1
102
RTVSPropertyOp12
 70
     1
102
RTVSPropertyOp13
 70
     1
102
RTVSPropertyOp14
 70
     1
102
RTVSPropertyOp15
 70
     1
102
RTVSPropertyOp16
 70
     1
102
RTVSPropertyOp17
 70
     1
102
RTVSPropertyOp18
 70
     1
102
RTVSPropertyOp19
 70
     1
102
RTVSPropertyOp20
 70
     1
102
RTVSPropertyOp21
 70
     1
102
RTVSPropertyOp22
 70
     1
102
RTVSPropertyOp23
 70
     1
102
RTVSPropertyOp24
 70
     1
102
RTVSPropertyOp25
 70
     1
102
RTVSPropertyOp26
 70
     1
102
RTVSPropertyOp27
 70
     1
102
RTVSPropertyOp28
 70
     1
102
RTVSPropertyOp29
 70
     1
102
RTVSPropertyOp30
 70
     1
102
RTVSPropertyOp31
 70
     1
102
RTVSPropertyOp32
 70
     1
  0
XRECORD
  5
7EA0
102
{ACAD_REACTORS
330
7E9F
102
}
330
7E9F
100
AcDbXrecord
280
     1
102
RTVSPropertyOp0
 70
     1
102
RTVSPropertyOp1
 70
     1
102
RTVSPropertyOp2
 70
     1
102
RTVSPropertyOp3
 70
     1
102
RTVSPropertyOp4
 70
     1
102
RTVSPropertyOp5
 70
     1
102
RTVSPropertyOp6
 70
     1
102
RTVSPropertyOp7
 70
     1
102
RTVSPropertyOp8
 70
     1
102
RTVSPropertyOp9
 70
     1
102
RTVSPropertyOp10
 70
     1
102
RTVSPropertyOp11
 70
     1
102
RTVSPropertyOp12
 70
     1
102
RTVSPropertyOp13
 70
     1
102
RTVSPropertyOp14
 70
     1
102
RTVSPropertyOp15
 70
     1
102
RTVSPropertyOp16
 70
     1
102
RTVSPropertyOp17
 70
     1
102
RTVSPropertyOp18
 70
     1
102
RTVSPropertyOp19
 70
     1
102
RTVSPropertyOp20
 70
     1
102
RTVSPropertyOp21
 70
     1
102
RTVSPropertyOp22
 70
     1
102
RTVSPropertyOp23
 70
     1
102
RTVSPropertyOp24
 70
     1
102
RTVSPropertyOp25
 70
     1
102
RTVSPropertyOp26
 70
     1
102
RTVSPropertyOp27
 70
     1
102
RTVSPropertyOp28
 70
     1
102
RTVSPropertyOp29
 70
     1
102
RTVSPropertyOp30
 70
     1
102
RTVSPropertyOp31
 70
     1
102
RTVSPropertyOp32
 70
     1
  0
XRECORD
  5
7E9E
102
{ACAD_REACTORS
330
7E9D
102
}
330
7E9D
100
AcDbXrecord
280
     1
102
RTVSPropertyOp0
 70
     1
102
RTVSPropertyOp1
 70
     1
102
RTVSPropertyOp2
 70
     1
102
RTVSPropertyOp3
 70
     1
102
RTVSPropertyOp4
 70
     1
102
RTVSPropertyOp5
 70
     1
102
RTVSPropertyOp6
 70
     1
102
RTVSPropertyOp7
 70
     1
102
RTVSPropertyOp8
 70
     1
102
RTVSPropertyOp9
 70
     1
102
RTVSPropertyOp10
 70
     1
102
RTVSPropertyOp11
 70
     1
102
RTVSPropertyOp12
 70
     1
102
RTVSPropertyOp13
 70
     1
102
RTVSPropertyOp14
 70
     1
102
RTVSPropertyOp15
 70
     1
102
RTVSPropertyOp16
 70
     1
102
RTVSPropertyOp17
 70
     1
102
RTVSPropertyOp18
 70
     1
102
RTVSPropertyOp19
 70
     1
102
RTVSPropertyOp20
 70
     1
102
RTVSPropertyOp21
 70
     1
102
RTVSPropertyOp22
 70
     1
102
RTVSPropertyOp23
 70
     1
102
RTVSPropertyOp24
 70
     1
102
RTVSPropertyOp25
 70
     1
102
RTVSPropertyOp26
 70
     1
102
RTVSPropertyOp27
 70
     1
102
RTVSPropertyOp28
 70
     1
102
RTVSPropertyOp29
 70
     1
102
RTVSPropertyOp30
 70
     1
102
RTVSPropertyOp31
 70
     1
102
RTVSPropertyOp32
 70
     1
  0
XRECORD
  5
7E98
102
{ACAD_REACTORS
330
7E97
102
}
330
7E97
100
AcDbXrecord
280
     1
102
RTVSPropertyOp0
 70
     1
102
RTVSPropertyOp1
 70
     1
102
RTVSPropertyOp2
 70
     1
102
RTVSPropertyOp3
 70
     1
102
RTVSPropertyOp4
 70
     1
102
RTVSPropertyOp5
 70
     1
102
RTVSPropertyOp6
 70
     1
102
RTVSPropertyOp7
 70
     1
102
RTVSPropertyOp8
 70
     1
102
RTVSPropertyOp9
 70
     1
102
RTVSPropertyOp10
 70
     1
102
RTVSPropertyOp11
 70
     1
102
RTVSPropertyOp12
 70
     1
102
RTVSPropertyOp13
 70
     1
102
RTVSPropertyOp14
 70
     1
102
RTVSPropertyOp15
 70
     1
102
RTVSPropertyOp16
 70
     1
102
RTVSPropertyOp17
 70
     1
102
RTVSPropertyOp18
 70
     1
102
RTVSPropertyOp19
 70
     1
102
RTVSPropertyOp20
 70
     1
102
RTVSPropertyOp21
 70
     1
102
RTVSPropertyOp22
 70
     1
102
RTVSPropertyOp23
 70
     1
102
RTVSPropertyOp24
 70
     1
102
RTVSPropertyOp25
 70
     1
102
RTVSPropertyOp26
 70
     1
102
RTVSPropertyOp27
 70
     1
102
RTVSPropertyOp28
 70
     1
102
RTVSPropertyOp29
 70
     1
102
RTVSPropertyOp30
 70
     1
102
RTVSPropertyOp31
 70
     1
102
RTVSPropertyOp32
 70
     1
  0
XRECORD
  5
7E9A
102
{ACAD_REACTORS
330
7E99
102
}
330
7E99
100
AcDbXrecord
280
     1
102
RTVSPropertyOp0
 70
     1
102
RTVSPropertyOp1
 70
     1
102
RTVSPropertyOp2
 70
     1
102
RTVSPropertyOp3
 70
     1
102
RTVSPropertyOp4
 70
     1
102
RTVSPropertyOp5
 70
     1
102
RTVSPropertyOp6
 70
     1
102
RTVSPropertyOp7
 70
     1
102
RTVSPropertyOp8
 70
     1
102
RTVSPropertyOp9
 70
     1
102
RTVSPropertyOp10
 70
     1
102
RTVSPropertyOp11
 70
     1
102
RTVSPropertyOp12
 70
     1
102
RTVSPropertyOp13
 70
     1
102
RTVSPropertyOp14
 70
     1
102
RTVSPropertyOp15
 70
     1
102
RTVSPropertyOp16
 70
     1
102
RTVSPropertyOp17
 70
     1
102
RTVSPropertyOp18
 70
     1
102
RTVSPropertyOp19
 70
     1
102
RTVSPropertyOp20
 70
     1
102
RTVSPropertyOp21
 70
     1
102
RTVSPropertyOp22
 70
     1
102
RTVSPropertyOp23
 70
     1
102
RTVSPropertyOp24
 70
     1
102
RTVSPropertyOp25
 70
     1
102
RTVSPropertyOp26
 70
     1
102
RTVSPropertyOp27
 70
     1
102
RTVSPropertyOp28
 70
     1
102
RTVSPropertyOp29
 70
     1
102
RTVSPropertyOp30
 70
     1
102
RTVSPropertyOp31
 70
     1
102
RTVSPropertyOp32
 70
     1
  0
XRECORD
  5
7E90
102
{ACAD_REACTORS
330
7E8F
102
}
330
7E8F
100
AcDbXrecord
280
     1
102
RTVSPropertyOp0
 70
     1
102
RTVSPropertyOp1
 70
     1
102
RTVSPropertyOp2
 70
     1
102
RTVSPropertyOp3
 70
     1
102
RTVSPropertyOp4
 70
     1
102
RTVSPropertyOp5
 70
     1
102
RTVSPropertyOp6
 70
     1
102
RTVSPropertyOp7
 70
     1
102
RTVSPropertyOp8
 70
     1
102
RTVSPropertyOp9
 70
     1
102
RTVSPropertyOp10
 70
     1
102
RTVSPropertyOp11
 70
     1
102
RTVSPropertyOp12
 70
     1
102
RTVSPropertyOp13
 70
     1
102
RTVSPropertyOp14
 70
     1
102
RTVSPropertyOp15
 70
     1
102
RTVSPropertyOp16
 70
     1
102
RTVSPropertyOp17
 70
     1
102
RTVSPropertyOp18
 70
     1
102
RTVSPropertyOp19
 70
     1
102
RTVSPropertyOp20
 70
     1
102
RTVSPropertyOp21
 70
     1
102
RTVSPropertyOp22
 70
     1
102
RTVSPropertyOp23
 70
     1
102
RTVSPropertyOp24
 70
     1
102
RTVSPropertyOp25
 70
     1
102
RTVSPropertyOp26
 70
     1
102
RTVSPropertyOp27
 70
     1
102
RTVSPropertyOp28
 70
     1
102
RTVSPropertyOp29
 70
     1
102
RTVSPropertyOp30
 70
     1
102
RTVSPropertyOp31
 70
     1
102
RTVSPropertyOp32
 70
     1
  0
XRECORD
  5
7E84
102
{ACAD_REACTORS
330
7E83
102
}
330
7E83
100
AcDbXrecord
280
     1
102
RTVSPropertyOp0
 70
     1
102
RTVSPropertyOp1
 70
     1
102
RTVSPropertyOp2
 70
     1
102
RTVSPropertyOp3
 70
     1
102
RTVSPropertyOp4
 70
     1
102
RTVSPropertyOp5
 70
     1
102
RTVSPropertyOp6
 70
     1
102
RTVSPropertyOp7
 70
     1
102
RTVSPropertyOp8
 70
     1
102
RTVSPropertyOp9
 70
     1
102
RTVSPropertyOp10
 70
     1
102
RTVSPropertyOp11
 70
     1
102
RTVSPropertyOp12
 70
     1
102
RTVSPropertyOp13
 70
     1
102
RTVSPropertyOp14
 70
     1
102
RTVSPropertyOp15
 70
     1
102
RTVSPropertyOp16
 70
     1
102
RTVSPropertyOp17
 70
     1
102
RTVSPropertyOp18
 70
     1
102
RTVSPropertyOp19
 70
     1
102
RTVSPropertyOp20
 70
     1
102
RTVSPropertyOp21
 70
     1
102
RTVSPropertyOp22
 70
     1
102
RTVSPropertyOp23
 70
     1
102
RTVSPropertyOp24
 70
     1
102
RTVSPropertyOp25
 70
     1
102
RTVSPropertyOp26
 70
     1
102
RTVSPropertyOp27
 70
     1
102
RTVSPropertyOp28
 70
     1
102
RTVSPropertyOp29
 70
     1
102
RTVSPropertyOp30
 70
     1
102
RTVSPropertyOp31
 70
     1
102
RTVSPropertyOp32
 70
     1
  0
XRECORD
  5
7E9C
102
{ACAD_REACTORS
330
7E9B
102
}
330
7E9B
100
AcDbXrecord
280
     1
102
RTVSPropertyOp0
 70
     1
102
RTVSPropertyOp1
 70
     1
102
RTVSPropertyOp2
 70
     1
102
RTVSPropertyOp3
 70
     1
102
RTVSPropertyOp4
 70
     1
102
RTVSPropertyOp5
 70
     1
102
RTVSPropertyOp6
 70
     1
102
RTVSPropertyOp7
 70
     1
102
RTVSPropertyOp8
 70
     1
102
RTVSPropertyOp9
 70
     1
102
RTVSPropertyOp10
 70
     1
102
RTVSPropertyOp11
 70
     1
102
RTVSPropertyOp12
 70
     1
102
RTVSPropertyOp13
 70
     1
102
RTVSPropertyOp14
 70
     1
102
RTVSPropertyOp15
 70
     1
102
RTVSPropertyOp16
 70
     1
102
RTVSPropertyOp17
 70
     1
102
RTVSPropertyOp18
 70
     1
102
RTVSPropertyOp19
 70
     1
102
RTVSPropertyOp20
 70
     1
102
RTVSPropertyOp21
 70
     1
102
RTVSPropertyOp22
 70
     1
102
RTVSPropertyOp23
 70
     1
102
RTVSPropertyOp24
 70
     1
102
RTVSPropertyOp25
 70
     1
102
RTVSPropertyOp26
 70
     1
102
RTVSPropertyOp27
 70
     1
102
RTVSPropertyOp28
 70
     1
102
RTVSPropertyOp29
 70
     1
102
RTVSPropertyOp30
 70
     1
102
RTVSPropertyOp31
 70
     1
102
RTVSPropertyOp32
 70
     1
  0
ENDSEC
  0
EOF
