  0
SECTION
  2
HEADER
  9
$ACADVER
  1
AC1015
  9
$ACADMAINTVER
 70
     6
  9
$DWGCODEPAGE
  3
ANSI_932
  9
$INSBASE
 10
0.0
 20
0.0
 30
0.0
  9
$EXTMIN
 10
0.0000004316887043
 20
0.0000000752883125
 30
0.0
  9
$EXTMAX
 10
398.8000004316887
 20
275.8000000752883
 30
0.0
  9
$LIMMIN
 10
0.0
 20
0.0
  9
$LIMMAX
 10
420.0
 20
297.0
  9
$ORTHOMODE
 70
     1
  9
$REGENMODE
 70
     1
  9
$FILLMODE
 70
     1
  9
$QTEXTMODE
 70
     0
  9
$MIRRTEXT
 70
     1
  9
$LTSCALE
 40
1.0
  9
$ATTMODE
 70
     1
  9
$TEXTSIZE
 40
2.5
  9
$TRACEWID
 40
1.0
  9
$TEXTSTYLE
  7
MSｺﾞｼｯｸ
  9
$CLAYER
  8
0
  9
$CELTYPE
  6
BYLAYER
  9
$CECOLOR
 62
   256
  9
$CELTSCALE
 40
1.0
  9
$DISPSILH
 70
     0
  9
$DIMSCALE
 40
1.0
  9
$DIMASZ
 40
3.0
  9
$DIMEXO
 40
1.5
  9
$DIMDLI
 40
9.0
  9
$DIMRND
 40
0.0
  9
$DIMDLE
 40
0.0
  9
$DIMEXE
 40
1.5
  9
$DIMTP
 40
0.0
  9
$DIMTM
 40
0.0
  9
$DIMTXT
 40
3.0
  9
$DIMCEN
 40
0.0
  9
$DIMTSZ
 40
0.0
  9
$DIMTOL
 70
     0
  9
$DIMLIM
 70
     0
  9
$DIMTIH
 70
     0
  9
$DIMTOH
 70
     0
  9
$DIMSE1
 70
     0
  9
$DIMSE2
 70
     0
  9
$DIMTAD
 70
     3
  9
$DIMZIN
 70
     0
  9
$DIMBLK
  1
OPEN
  9
$DIMASO
 70
     1
  9
$DIMSHO
 70
     1
  9
$DIMPOST
  1

  9
$DIMAPOST
  1

  9
$DIMALT
 70
     0
  9
$DIMALTD
 70
     2
  9
$DIMALTF
 40
25.4
  9
$DIMLFAC
 40
1.0
  9
$DIMTOFL
 70
     0
  9
$DIMTVP
 40
0.0
  9
$DIMTIX
 70
     0
  9
$DIMSOXD
 70
     0
  9
$DIMSAH
 70
     0
  9
$DIMBLK1
  1

  9
$DIMBLK2
  1

  9
$DIMSTYLE
  2
STANDARD
  9
$DIMCLRD
 70
   256
  9
$DIMCLRE
 70
   256
  9
$DIMCLRT
 70
   256
  9
$DIMTFAC
 40
1.0
  9
$DIMGAP
 40
1.0
  9
$DIMJUST
 70
     0
  9
$DIMSD1
 70
     0
  9
$DIMSD2
 70
     0
  9
$DIMTOLJ
 70
     1
  9
$DIMTZIN
 70
     0
  9
$DIMALTZ
 70
     0
  9
$DIMALTTZ
 70
     0
  9
$DIMUPT
 70
     0
  9
$DIMDEC
 70
     0
  9
$DIMTDEC
 70
     0
  9
$DIMALTU
 70
     2
  9
$DIMALTTD
 70
     2
  9
$DIMTXSTY
  7
STANDARD
  9
$DIMAUNIT
 70
     0
  9
$DIMADEC
 70
     0
  9
$DIMALTRND
 40
0.0
  9
$DIMAZIN
 70
     0
  9
$DIMDSEP
 70
    46
  9
$DIMATFIT
 70
     3
  9
$DIMFRAC
 70
     0
  9
$DIMLDRBLK
  1
OPEN
  9
$DIMLUNIT
 70
     2
  9
$DIMLWD
 70
    -1
  9
$DIMLWE
 70
    -1
  9
$DIMTMOVE
 70
     0
  9
$LUNITS
 70
     2
  9
$LUPREC
 70
     4
  9
$SKETCHINC
 40
1.0
  9
$FILLETRAD
 40
1.0
  9
$AUNITS
 70
     0
  9
$AUPREC
 70
     0
  9
$MENU
  1
.
  9
$ELEVATION
 40
0.0
  9
$PELEVATION
 40
0.0
  9
$THICKNESS
 40
0.0
  9
$LIMCHECK
 70
     0
  9
$CHAMFERA
 40
10.0
  9
$CHAMFERB
 40
10.0
  9
$CHAMFERC
 40
20.0
  9
$CHAMFERD
 40
0.0
  9
$SKPOLY
 70
     0
  9
$TDCREATE
 40
2451094.495386573
  9
$TDUCREATE
 40
2451094.120386574
  9
$TDUPDATE
 40
2456203.596644259
  9
$TDUUPDATE
 40
2456203.221644259
  9
$TDINDWG
 40
0.3320585417
  9
$TDUSRTIMER
 40
0.3320585417
  9
$USRTIMER
 70
     1
  9
$ANGBASE
 50
0.0
  9
$ANGDIR
 70
     0
  9
$PDMODE
 70
     0
  9
$PDSIZE
 40
0.0
  9
$PLINEWID
 40
0.0
  9
$SPLFRAME
 70
     0
  9
$SPLINETYPE
 70
     6
  9
$SPLINESEGS
 70
     8
  9
$HANDSEED
  5
861B
  9
$SURFTAB1
 70
     6
  9
$SURFTAB2
 70
     6
  9
$SURFTYPE
 70
     6
  9
$SURFU
 70
     6
  9
$SURFV
 70
     6
  9
$UCSBASE
  2

  9
$UCSNAME
  2

  9
$UCSORG
 10
0.0
 20
0.0
 30
0.0
  9
$UCSXDIR
 10
1.0
 20
0.0
 30
0.0
  9
$UCSYDIR
 10
0.0
 20
1.0
 30
0.0
  9
$UCSORTHOREF
  2

  9
$UCSORTHOVIEW
 70
     0
  9
$UCSORGTOP
 10
0.0
 20
0.0
 30
0.0
  9
$UCSORGBOTTOM
 10
0.0
 20
0.0
 30
0.0
  9
$UCSORGLEFT
 10
0.0
 20
0.0
 30
0.0
  9
$UCSORGRIGHT
 10
0.0
 20
0.0
 30
0.0
  9
$UCSORGFRONT
 10
0.0
 20
0.0
 30
0.0
  9
$UCSORGBACK
 10
0.0
 20
0.0
 30
0.0
  9
$PUCSBASE
  2

  9
$PUCSNAME
  2

  9
$PUCSORG
 10
0.0
 20
0.0
 30
0.0
  9
$PUCSXDIR
 10
1.0
 20
0.0
 30
0.0
  9
$PUCSYDIR
 10
0.0
 20
1.0
 30
0.0
  9
$PUCSORTHOREF
  2

  9
$PUCSORTHOVIEW
 70
     0
  9
$PUCSORGTOP
 10
0.0
 20
0.0
 30
0.0
  9
$PUCSORGBOTTOM
 10
0.0
 20
0.0
 30
0.0
  9
$PUCSORGLEFT
 10
0.0
 20
0.0
 30
0.0
  9
$PUCSORGRIGHT
 10
0.0
 20
0.0
 30
0.0
  9
$PUCSORGFRONT
 10
0.0
 20
0.0
 30
0.0
  9
$PUCSORGBACK
 10
0.0
 20
0.0
 30
0.0
  9
$USERI1
 70
     0
  9
$USERI2
 70
     0
  9
$USERI3
 70
     0
  9
$USERI4
 70
     0
  9
$USERI5
 70
     0
  9
$USERR1
 40
0.0
  9
$USERR2
 40
0.0
  9
$USERR3
 40
0.0
  9
$USERR4
 40
0.0
  9
$USERR5
 40
0.0
  9
$WORLDVIEW
 70
     1
  9
$SHADEDGE
 70
     3
  9
$SHADEDIF
 70
    70
  9
$TILEMODE
 70
     1
  9
$MAXACTVP
 70
    16
  9
$PINSBASE
 10
0.0
 20
0.0
 30
0.0
  9
$PLIMCHECK
 70
     0
  9
$PEXTMIN
 10
0.0
 20
0.0
 30
0.0
  9
$PEXTMAX
 10
420.0
 20
297.0
 30
0.0
  9
$PLIMMIN
 10
0.0
 20
0.0
  9
$PLIMMAX
 10
420.0
 20
297.0
  9
$UNITMODE
 70
     0
  9
$VISRETAIN
 70
     0
  9
$PLINEGEN
 70
     0
  9
$PSLTSCALE
 70
     1
  9
$TREEDEPTH
 70
  3020
  9
$CMLSTYLE
  2
STANDARD
  9
$CMLJUST
 70
     0
  9
$CMLSCALE
 40
1.0
  9
$PROXYGRAPHICS
 70
     1
  9
$MEASUREMENT
 70
     1
  9
$CELWEIGHT
370
    -1
  9
$ENDCAPS
280
     0
  9
$JOINSTYLE
280
     0
  9
$LWDISPLAY
290
     0
  9
$INSUNITS
 70
     0
  9
$HYPERLINKBASE
  1

  9
$STYLESHEET
  1
print.ctb
  9
$XEDIT
290
     1
  9
$CEPSNTYPE
380
     0
  9
$PSTYLEMODE
290
     1
  9
$FINGERPRINTGUID
  2
{FE2B4833-B477-44F5-8DA5-88CB8407FFE5}
  9
$VERSIONGUID
  2
{AFC01227-F380-48CD-922A-A68E0D2330B3}
  9
$EXTNAMES
290
     1
  9
$PSVPSCALE
 40
0.0
  9
$OLESTARTUP
290
     0
  0
ENDSEC
  0
SECTION
  2
CLASSES
  0
CLASS
  1
ACDBDICTIONARYWDFLT
  2
AcDbDictionaryWithDefault
  3
AutoCAD 2000
 90
        0
280
     0
281
     0
  0
CLASS
  1
ACDBPLACEHOLDER
  2
AcDbPlaceHolder
  3
AutoCAD 2000
 90
        0
280
     0
281
     0
  0
CLASS
  1
LAYOUT
  2
AcDbLayout
  3
AutoCAD 2000
 90
        0
280
     0
281
     0
  0
CLASS
  1
LONG_TRANSACTION
  2
AcDbLongTransaction
  3
AutoCAD 2000
 90
    32768
280
     0
281
     0
  0
CLASS
  1
LWPOLYLINE
  2
AcDbPolyline
  3
AutoCAD 2000
 90
    32768
280
     0
281
     1
  0
CLASS
  1
HATCH
  2
AcDbHatch
  3
AutoCAD 2000
 90
    32768
280
     0
281
     1
  0
CLASS
  1
XRECORD
  2
AcDbXrecord
  3
AutoCAD 2000
 90
    32768
280
     0
281
     0
  0
CLASS
  1
LONG_TRANSACTION
  2
AcDbLongTransaction
  3
AutoCAD 2000
 90
    32768
280
     0
281
     0
  0
CLASS
  1
LWPOLYLINE
  2
AcDbPolyline
  3
AutoCAD 2000
 90
    32768
280
     0
281
     1
  0
CLASS
  1
HATCH
  2
AcDbHatch
  3
AutoCAD 2000
 90
    32768
280
     0
281
     1
  0
CLASS
  1
XRECORD
  2
AcDbXrecord
  3
AutoCAD 2000
 90
    32768
280
     0
281
     0
  0
CLASS
  1
LONG_TRANSACTION
  2
AcDbLongTransaction
  3
AutoCAD 2000
 90
    32768
280
     0
281
     0
  0
CLASS
  1
LWPOLYLINE
  2
AcDbPolyline
  3
AutoCAD 2000
 90
    32768
280
     0
281
     1
  0
CLASS
  1
HATCH
  2
AcDbHatch
  3
AutoCAD 2000
 90
    32768
280
     0
281
     1
  0
CLASS
  1
XRECORD
  2
AcDbXrecord
  3
AutoCAD 2000
 90
    32768
280
     0
281
     0
  0
CLASS
  1
LONG_TRANSACTION
  2
AcDbLongTransaction
  3
AutoCAD 2000
 90
    32768
280
     0
281
     0
  0
CLASS
  1
LWPOLYLINE
  2
AcDbPolyline
  3
AutoCAD 2000
 90
    32768
280
     0
281
     1
  0
CLASS
  1
HATCH
  2
AcDbHatch
  3
AutoCAD 2000
 90
    32768
280
     0
281
     1
  0
CLASS
  1
XRECORD
  2
AcDbXrecord
  3
AutoCAD 2000
 90
    32768
280
     0
281
     0
  0
CLASS
  1
LONG_TRANSACTION
  2
AcDbLongTransaction
  3
AutoCAD 2000
 90
    32768
280
     0
281
     0
  0
CLASS
  1
LWPOLYLINE
  2
AcDbPolyline
  3
AutoCAD 2000
 90
    32768
280
     0
281
     1
  0
CLASS
  1
HATCH
  2
AcDbHatch
  3
AutoCAD 2000
 90
    32768
280
     0
281
     1
  0
CLASS
  1
XRECORD
  2
AcDbXrecord
  3
AutoCAD 2000
 90
    32768
280
     0
281
     0
  0
CLASS
  1
DICTIONARYVAR
  2
AcDbDictionaryVar
  3
AutoCAD 2000
 90
        0
280
     0
281
     0
  0
CLASS
  1
LONG_TRANSACTION
  2
AcDbLongTransaction
  3
AutoCAD 2000
 90
    32768
280
     0
281
     0
  0
CLASS
  1
LWPOLYLINE
  2
AcDbPolyline
  3
AutoCAD 2000
 90
    32768
280
     0
281
     1
  0
CLASS
  1
HATCH
  2
AcDbHatch
  3
AutoCAD 2000
 90
    32768
280
     0
281
     1
  0
CLASS
  1
XRECORD
  2
AcDbXrecord
  3
AutoCAD 2000
 90
    32768
280
     0
281
     0
  0
CLASS
  1
LONG_TRANSACTION
  2
AcDbLongTransaction
  3
AutoCAD 2000
 90
    32768
280
     0
281
     0
  0
CLASS
  1
LWPOLYLINE
  2
AcDbPolyline
  3
AutoCAD 2000
 90
    32768
280
     0
281
     1
  0
CLASS
  1
HATCH
  2
AcDbHatch
  3
AutoCAD 2000
 90
    32768
280
     0
281
     1
  0
CLASS
  1
XRECORD
  2
AcDbXrecord
  3
AutoCAD 2000
 90
    32768
280
     0
281
     0
  0
CLASS
  1
LONG_TRANSACTION
  2
AcDbLongTransaction
  3
AutoCAD 2000
 90
    32768
280
     0
281
     0
  0
CLASS
  1
LWPOLYLINE
  2
AcDbPolyline
  3
AutoCAD 2000
 90
    32768
280
     0
281
     1
  0
CLASS
  1
HATCH
  2
AcDbHatch
  3
AutoCAD 2000
 90
    32768
280
     0
281
     1
  0
CLASS
  1
XRECORD
  2
AcDbXrecord
  3
AutoCAD 2000
 90
    32768
280
     0
281
     0
  0
CLASS
  1
LONG_TRANSACTION
  2
AcDbLongTransaction
  3
AutoCAD 2000
 90
    32768
280
     0
281
     0
  0
CLASS
  1
LWPOLYLINE
  2
AcDbPolyline
  3
AutoCAD 2000
 90
    32768
280
     0
281
     1
  0
CLASS
  1
HATCH
  2
AcDbHatch
  3
AutoCAD 2000
 90
    32768
280
     0
281
     1
  0
CLASS
  1
XRECORD
  2
AcDbXrecord
  3
AutoCAD 2000
 90
    32768
280
     0
281
     0
  0
CLASS
  1
LONG_TRANSACTION
  2
AcDbLongTransaction
  3
AutoCAD 2000
 90
    32768
280
     0
281
     0
  0
CLASS
  1
LWPOLYLINE
  2
AcDbPolyline
  3
AutoCAD 2000
 90
    32768
280
     0
281
     1
  0
CLASS
  1
HATCH
  2
AcDbHatch
  3
AutoCAD 2000
 90
    32768
280
     0
281
     1
  0
CLASS
  1
XRECORD
  2
AcDbXrecord
  3
AutoCAD 2000
 90
    32768
280
     0
281
     0
  0
CLASS
  1
LONG_TRANSACTION
  2
AcDbLongTransaction
  3
AutoCAD 2000
 90
    32768
280
     0
281
     0
  0
CLASS
  1
LWPOLYLINE
  2
AcDbPolyline
  3
AutoCAD 2000
 90
    32768
280
     0
281
     1
  0
CLASS
  1
HATCH
  2
AcDbHatch
  3
AutoCAD 2000
 90
    32768
280
     0
281
     1
  0
CLASS
  1
XRECORD
  2
AcDbXrecord
  3
AutoCAD 2000
 90
    32768
280
     0
281
     0
  0
CLASS
  1
LONG_TRANSACTION
  2
AcDbLongTransaction
  3
AutoCAD 2000
 90
    32768
280
     0
281
     0
  0
CLASS
  1
LWPOLYLINE
  2
AcDbPolyline
  3
AutoCAD 2000
 90
    32768
280
     0
281
     1
  0
CLASS
  1
HATCH
  2
AcDbHatch
  3
AutoCAD 2000
 90
    32768
280
     0
281
     1
  0
CLASS
  1
XRECORD
  2
AcDbXrecord
  3
AutoCAD 2000
 90
    32768
280
     0
281
     0
  0
CLASS
  1
LONG_TRANSACTION
  2
AcDbLongTransaction
  3
AutoCAD 2000
 90
    32768
280
     0
281
     0
  0
CLASS
  1
LWPOLYLINE
  2
AcDbPolyline
  3
AutoCAD 2000
 90
    32768
280
     0
281
     1
  0
CLASS
  1
HATCH
  2
AcDbHatch
  3
AutoCAD 2000
 90
    32768
280
     0
281
     1
  0
CLASS
  1
XRECORD
  2
AcDbXrecord
  3
AutoCAD 2000
 90
    32768
280
     0
281
     0
  0
CLASS
  1
MATERIAL
  2
AcDbMaterial
  3
ObjectDBX Classes
 90
     1153
280
     0
281
     0
  0
CLASS
  1
VISUALSTYLE
  2
AcDbVisualStyle
  3
ObjectDBX Classes
 90
     4095
280
     0
281
     0
  0
CLASS
  1
TABLESTYLE
  2
AcDbTableStyle
  3
ObjectDBX Classes
 90
     4095
280
     0
281
     0
  0
CLASS
  1
SCALE
  2
AcDbScale
  3
ObjectDBX Classes
 90
     1153
280
     0
281
     0
  0
CLASS
  1
MLEADERSTYLE
  2
AcDbMLeaderStyle
  3
ACDB_MLEADERSTYLE_CLASS
 90
     4095
280
     0
281
     0
  0
CLASS
  1
SORTENTSTABLE
  2
AcDbSortentsTable
  3
AutoCAD 2000
 90
        0
280
     0
281
     0
  0
CLASS
  1
CELLSTYLEMAP
  2
AcDbCellStyleMap
  3
ObjectDBX Classes
 90
     1152
280
     0
281
     0
  0
CLASS
  1
ACAD_PROXY_OBJECT_WRAPPER
  2
AcDbProxyObjectWrapper
  3
AutoCAD 2000
 90
        0
280
     0
281
     0
  0
CLASS
  1
LONG_TRANSACTION
  2
AcDbLongTransaction
  3
AutoCAD 2000
 90
    32768
280
     0
281
     0
  0
CLASS
  1
LWPOLYLINE
  2
AcDbPolyline
  3
AutoCAD 2000
 90
    32768
280
     0
281
     1
  0
CLASS
  1
HATCH
  2
AcDbHatch
  3
AutoCAD 2000
 90
    32768
280
     0
281
     1
  0
CLASS
  1
XRECORD
  2
AcDbXrecord
  3
AutoCAD 2000
 90
    32768
280
     0
281
     0
  0
CLASS
  1
LONG_TRANSACTION
  2
AcDbLongTransaction
  3
AutoCAD 2000
 90
    32768
280
     0
281
     0
  0
CLASS
  1
LWPOLYLINE
  2
AcDbPolyline
  3
AutoCAD 2000
 90
    32768
280
     0
281
     1
  0
CLASS
  1
HATCH
  2
AcDbHatch
  3
AutoCAD 2000
 90
    32768
280
     0
281
     1
  0
CLASS
  1
XRECORD
  2
AcDbXrecord
  3
AutoCAD 2000
 90
    32768
280
     0
281
     0
  0
CLASS
  1
LONG_TRANSACTION
  2
AcDbLongTransaction
  3
AutoCAD 2000
 90
    32768
280
     0
281
     0
  0
CLASS
  1
LWPOLYLINE
  2
AcDbPolyline
  3
AutoCAD 2000
 90
    32768
280
     0
281
     1
  0
CLASS
  1
HATCH
  2
AcDbHatch
  3
AutoCAD 2000
 90
    32768
280
     0
281
     1
  0
CLASS
  1
XRECORD
  2
AcDbXrecord
  3
AutoCAD 2000
 90
    32768
280
     0
281
     0
  0
CLASS
  1
LONG_TRANSACTION
  2
AcDbLongTransaction
  3
AutoCAD 2000
 90
    32768
280
     0
281
     0
  0
CLASS
  1
LWPOLYLINE
  2
AcDbPolyline
  3
AutoCAD 2000
 90
    32768
280
     0
281
     1
  0
CLASS
  1
HATCH
  2
AcDbHatch
  3
AutoCAD 2000
 90
    32768
280
     0
281
     1
  0
CLASS
  1
XRECORD
  2
AcDbXrecord
  3
AutoCAD 2000
 90
    32768
280
     0
281
     0
  0
CLASS
  1
LONG_TRANSACTION
  2
AcDbLongTransaction
  3
AutoCAD 2000
 90
    32768
280
     0
281
     0
  0
CLASS
  1
LWPOLYLINE
  2
AcDbPolyline
  3
AutoCAD 2000
 90
    32768
280
     0
281
     1
  0
CLASS
  1
HATCH
  2
AcDbHatch
  3
AutoCAD 2000
 90
    32768
280
     0
281
     1
  0
CLASS
  1
XRECORD
  2
AcDbXrecord
  3
AutoCAD 2000
 90
    32768
280
     0
281
     0
  0
ENDSEC
  0
SECTION
  2
TABLES
  0
TABLE
  2
VPORT
  5
8
102
{ACAD_XDICTIONARY
360
8293
102
}
330
0
100
AcDbSymbolTable
 70
     2
  0
VPORT
  5
861A
330
8
100
AcDbSymbolTableRecord
100
AcDbViewportTableRecord
  2
*Active
 70
     0
 10
0.0
 20
0.0
 11
1.0
 21
1.0
 12
213.2351748752167
 22
148.4932037999931
 13
0.0
 23
0.0
 14
5.0
 24
5.0
 15
0.0
 25
0.0
 16
0.0
 26
0.0
 36
1.0
 17
0.0
 27
0.0
 37
0.0
 40
299.2837599852368
 41
1.557397959183673
 42
50.0
 43
0.0
 44
0.0
 50
0.0
 51
0.0
 71
     0
 72
   100
 73
     1
 74
     0
 75
     0
 76
     0
 77
     0
 78
     0
281
     0
 65
     1
110
0.0
120
0.0
130
0.0
111
1.0
121
0.0
131
0.0
112
0.0
122
1.0
132
0.0
 79
     0
146
0.0
  0
ENDTAB
  0
TABLE
  2
LTYPE
  5
5
330
0
100
AcDbSymbolTable
 70
     2
  0
LTYPE
  5
14
330
5
100
AcDbSymbolTableRecord
100
AcDbLinetypeTableRecord
  2
BYBLOCK
 70
     0
  3

 72
    65
 73
     0
 40
0.0
  0
LTYPE
  5
15
330
5
100
AcDbSymbolTableRecord
100
AcDbLinetypeTableRecord
  2
BYLAYER
 70
     0
  3

 72
    65
 73
     0
 40
0.0
  0
LTYPE
  5
16
330
5
100
AcDbSymbolTableRecord
100
AcDbLinetypeTableRecord
  2
CONTINUOUS
 70
     0
  3
Solid line
 72
    65
 73
     0
 40
0.0
  0
LTYPE
  5
1215
330
5
100
AcDbSymbolTableRecord
100
AcDbLinetypeTableRecord
  2
CENTER
 70
     0
  3
____ _ ____ _ ____ _ ____ _ ____ _ ____ _ ____ 
 72
    65
 73
     4
 40
2.0
 49
1.25
 74
     0
 49
-0.25
 74
     0
 49
0.25
 74
     0
 49
-0.25
 74
     0
  0
ENDTAB
  0
TABLE
  2
LAYER
  5
2
102
{ACAD_XDICTIONARY
360
54E3
102
}
330
0
100
AcDbSymbolTable
 70
     8
  0
LAYER
  5
F
102
{ACAD_XDICTIONARY
360
5AFC
102
}
330
2
100
AcDbSymbolTableRecord
100
AcDbLayerTableRecord
  2
0
 70
     0
 62
     7
  6
CONTINUOUS
370
    -3
390
351
  0
LAYER
  5
62
102
{ACAD_XDICTIONARY
360
5AFE
102
}
330
2
100
AcDbSymbolTableRecord
100
AcDbLayerTableRecord
  2
VIEWPORT
 70
     0
 62
     7
  6
CONTINUOUS
370
    -3
390
351
  0
LAYER
  5
6B
102
{ACAD_XDICTIONARY
360
5B00
102
}
330
2
100
AcDbSymbolTableRecord
100
AcDbLayerTableRecord
  2
ZUWAKU
 70
     0
 62
     7
  6
CONTINUOUS
370
    -3
390
351
  0
LAYER
  5
20E
330
2
100
AcDbSymbolTableRecord
100
AcDbLayerTableRecord
  2
DEFPOINTS
 70
     0
 62
     7
  6
CONTINUOUS
290
     0
370
    -3
390
351
  0
LAYER
  5
BC1
102
{ACAD_XDICTIONARY
360
5B02
102
}
330
2
100
AcDbSymbolTableRecord
100
AcDbLayerTableRecord
  2
moji
 70
     0
 62
     2
  6
CONTINUOUS
370
    -3
390
351
  0
LAYER
  5
1216
102
{ACAD_XDICTIONARY
360
5B04
102
}
330
2
100
AcDbSymbolTableRecord
100
AcDbLayerTableRecord
  2
SEIHIN
 70
     0
 62
     3
  6
CONTINUOUS
370
    -3
390
351
  0
LAYER
  5
1218
102
{ACAD_XDICTIONARY
360
5B06
102
}
330
2
100
AcDbSymbolTableRecord
100
AcDbLayerTableRecord
  2
SUNPOU
 70
     0
 62
     4
  6
CONTINUOUS
370
    -3
390
351
  0
LAYER
  5
1627
102
{ACAD_XDICTIONARY
360
5B08
102
}
330
2
100
AcDbSymbolTableRecord
100
AcDbLayerTableRecord
  2
CENTER L
 70
     0
 62
     1
  6
CENTER
370
    -3
390
351
  0
ENDTAB
  0
TABLE
  2
STYLE
  5
3
330
0
100
AcDbSymbolTable
 70
     2
  0
STYLE
  5
10
330
3
100
AcDbSymbolTableRecord
100
AcDbTextStyleTableRecord
  2
STANDARD
 70
     0
 40
0.0
 41
1.0
 50
0.0
 71
     0
 42
2.5
  3
TXT
  4
bigfont.shx
  0
STYLE
  5
BC2
330
3
100
AcDbSymbolTableRecord
100
AcDbTextStyleTableRecord
  2
MSｺﾞｼｯｸ
 70
     0
 40
0.0
 41
1.0
 50
0.0
 71
     0
 42
2.5
  3
MS Gothic.ttf
  4

1001
ACAD
1000
MS Gothic
1071
    32817
  0
ENDTAB
  0
TABLE
  2
VIEW
  5
6
330
0
100
AcDbSymbolTable
 70
     0
  0
ENDTAB
  0
TABLE
  2
UCS
  5
7
330
0
100
AcDbSymbolTable
 70
     0
  0
ENDTAB
  0
TABLE
  2
APPID
  5
9
330
0
100
AcDbSymbolTable
 70
     7
  0
APPID
  5
11
330
9
100
AcDbSymbolTableRecord
100
AcDbRegAppTableRecord
  2
ACAD
 70
     0
  0
APPID
  5
54E2
330
9
100
AcDbSymbolTableRecord
100
AcDbRegAppTableRecord
  2
ACAD_PSEXT
 70
     0
  0
APPID
  5
5A15
330
9
100
AcDbSymbolTableRecord
100
AcDbRegAppTableRecord
  2
ACAD_DSTYLE_DIMJAG
 70
     0
  0
APPID
  5
5A16
330
9
100
AcDbSymbolTableRecord
100
AcDbRegAppTableRecord
  2
ACAD_DSTYLE_DIMTALN
 70
     0
  0
APPID
  5
5A4B
330
9
100
AcDbSymbolTableRecord
100
AcDbRegAppTableRecord
  2
ACAD_EXEMPT_FROM_CAD_STANDARDS
 70
     0
  0
APPID
  5
70CA
330
9
100
AcDbSymbolTableRecord
100
AcDbRegAppTableRecord
  2
ACAD_DSTYLE_DIMRADIAL_EXTENSION
 70
     0
  0
APPID
  5
82D0
330
9
100
AcDbSymbolTableRecord
100
AcDbRegAppTableRecord
  2
ACAD_MLEADERVER
 70
     0
  0
ENDTAB
  0
TABLE
  2
DIMSTYLE
  5
A
330
0
100
AcDbSymbolTable
 70
     1
100
AcDbDimStyleTable
 71
     0
  0
DIMSTYLE
105
1D
102
{ACAD_REACTORS
330
81A2
330
8195
330
8188
330
81F3
330
83F9
330
83FA
330
8452
102
}
330
A
100
AcDbSymbolTableRecord
100
AcDbDimStyleTableRecord
  2
STANDARD
 70
     0
 41
3.0
 42
1.5
 43
9.0
 44
1.5
 73
     0
 74
     0
 77
     3
140
3.0
141
0.0
147
1.0
176
   256
177
   256
178
   256
271
     0
272
     0
340
10
341
B2
342
B2
371
    -1
372
    -1
  0
ENDTAB
  0
TABLE
  2
BLOCK_RECORD
  5
1
330
0
100
AcDbSymbolTable
 70
     9
  0
BLOCK_RECORD
  5
1A
102
{ACAD_XDICTIONARY
360
64B
102
}
330
1
100
AcDbSymbolTableRecord
100
AcDbBlockTableRecord
  2
*MODEL_SPACE
340
354
  0
BLOCK_RECORD
  5
17
102
{ACAD_XDICTIONARY
360
649
102
}
330
1
100
AcDbSymbolTableRecord
100
AcDbBlockTableRecord
  2
*PAPER_SPACE
340
355
  0
BLOCK_RECORD
  5
B2
330
1
100
AcDbSymbolTableRecord
100
AcDbBlockTableRecord
  2
_OPEN
340
0
102
{BLKREFS
331
83E1
331
83E2
331
843A
331
843B
331
8431
331
8432
331
8443
331
8444
331
8465
331
8466
331
841F
331
8420
331
8611
331
8612
102
}
  0
BLOCK_RECORD
  5
EC5
330
1
100
AcDbSymbolTableRecord
100
AcDbBlockTableRecord
  2
*X1
340
0
102
{BLKREFS
331
D9A
102
}
  0
BLOCK_RECORD
  5
8189
330
1
100
AcDbSymbolTableRecord
100
AcDbBlockTableRecord
  2
*D2
340
0
  0
BLOCK_RECORD
  5
8196
330
1
100
AcDbSymbolTableRecord
100
AcDbBlockTableRecord
  2
*D3
340
0
  0
BLOCK_RECORD
  5
81A3
330
1
100
AcDbSymbolTableRecord
100
AcDbBlockTableRecord
  2
*D4
340
0
  0
BLOCK_RECORD
  5
81F4
330
1
100
AcDbSymbolTableRecord
100
AcDbBlockTableRecord
  2
*D5
340
0
  0
BLOCK_RECORD
  5
83FB
330
1
100
AcDbSymbolTableRecord
100
AcDbBlockTableRecord
  2
*D6
340
0
  0
BLOCK_RECORD
  5
8407
330
1
100
AcDbSymbolTableRecord
100
AcDbBlockTableRecord
  2
*D7
340
0
  0
BLOCK_RECORD
  5
8453
330
1
100
AcDbSymbolTableRecord
100
AcDbBlockTableRecord
  2
*D8
340
0
  0
ENDTAB
  0
ENDSEC
  0
SECTION
  2
BLOCKS
  0
BLOCK
  5
1B
330
1A
100
AcDbEntity
  8
0
100
AcDbBlockBegin
  2
*MODEL_SPACE
 70
     0
 10
0.0
 20
0.0
 30
0.0
  3
*MODEL_SPACE
  1

  0
ENDBLK
  5
1C
330
1A
100
AcDbEntity
  8
0
100
AcDbBlockEnd
  0
BLOCK
  5
18
330
17
100
AcDbEntity
 67
     1
  8
0
100
AcDbBlockBegin
  2
*PAPER_SPACE
 70
     0
 10
0.0
 20
0.0
 30
0.0
  3
*PAPER_SPACE
  1

  0
ENDBLK
  5
19
330
17
100
AcDbEntity
 67
     1
  8
0
100
AcDbBlockEnd
  0
BLOCK
  5
B3
330
B2
100
AcDbEntity
  8
0
100
AcDbBlockBegin
  2
_OPEN
 70
     0
 10
0.0
 20
0.0
 30
0.0
  3
_OPEN
  1

  0
LINE
  5
B4
330
B2
100
AcDbEntity
  8
0
  6
ByBlock
 62
     0
100
AcDbLine
 10
-1.0
 20
0.1666666666666666
 30
0.0
 11
0.0
 21
0.0
 31
0.0
  0
LINE
  5
B5
330
B2
100
AcDbEntity
  8
0
  6
ByBlock
 62
     0
100
AcDbLine
 10
0.0
 20
0.0
 30
0.0
 11
-1.0
 21
-0.1666666666666666
 31
0.0
  0
LINE
  5
B6
330
B2
100
AcDbEntity
  8
0
  6
ByBlock
 62
     0
100
AcDbLine
 10
0.0
 20
0.0
 30
0.0
 11
-1.0
 21
0.0
 31
0.0
  0
ENDBLK
  5
B7
330
B2
100
AcDbEntity
  8
0
100
AcDbBlockEnd
  0
BLOCK
  5
1059
330
EC5
100
AcDbEntity
  8
0
100
AcDbBlockBegin
  2
*X1
 70
     1
 10
0.0
 20
0.0
 30
0.0
  3
*X1
  1

  0
LINE
  5
EC6
330
EC5
100
AcDbEntity
  8
0
 62
     0
100
AcDbLine
 10
34.52110650907929
 20
11.30208461043085
 30
0.0
 11
34.19819104422183
 21
11.62500007528834
 31
0.0
  0
LINE
  5
EC7
330
EC5
100
AcDbEntity
  8
0
 62
     0
100
AcDbLine
 10
34.52110650907929
 20
10.8530718043774
 30
0.0
 11
33.74917823816835
 21
11.62500007528834
 31
0.0
  0
LINE
  5
EC8
330
EC5
100
AcDbEntity
  8
0
 62
     0
100
AcDbLine
 10
34.52110650907926
 20
10.40405899832393
 30
0.0
 11
33.31053953607178
 21
11.6146259713314
 31
0.0
  0
LINE
  5
EC9
330
EC5
100
AcDbEntity
  8
0
 62
     0
100
AcDbLine
 10
34.52110650907929
 20
9.955046192270515
 30
0.0
 11
33.12110650907925
 21
11.35504619227052
 31
0.0
  0
LINE
  5
ECA
330
EC5
100
AcDbEntity
  8
0
 62
     0
100
AcDbLine
 10
34.52110650907929
 20
9.50603338621704
 30
0.0
 11
33.12110650907925
 21
10.90603338621707
 31
0.0
  0
LINE
  5
ECB
330
EC5
100
AcDbEntity
  8
0
 62
     0
100
AcDbLine
 10
34.52110650907926
 20
9.057020580163566
 30
0.0
 11
33.12110650907922
 21
10.4570205801636
 31
0.0
  0
LINE
  5
ECC
330
EC5
100
AcDbEntity
  8
0
 62
     0
100
AcDbLine
 10
32.07110650907924
 20
11.05800777411016
 30
0.0
 11
31.50411420790112
 21
11.62500007528828
 31
0.0
  0
LINE
  5
ECD
330
EC5
100
AcDbEntity
  8
0
 62
     0
100
AcDbLine
 10
34.52110650907929
 20
8.608007774110149
 30
0.0
 11
33.12110650907925
 21
10.00800777411018
 31
0.0
  0
LINE
  5
ECE
330
EC5
100
AcDbEntity
  8
0
 62
     0
100
AcDbLine
 10
32.07110650907924
 20
10.60899496805671
 30
0.0
 11
31.05510140184768
 21
11.62500007528828
 31
0.0
  0
LINE
  5
ECF
330
EC5
100
AcDbEntity
  8
0
 62
     0
100
AcDbLine
 10
34.52110650907926
 20
8.158994968056674
 30
0.0
 11
33.12110650907925
 21
9.558994968056708
 31
0.0
  0
LINE
  5
ED0
330
EC5
100
AcDbEntity
  8
0
 62
     0
100
AcDbLine
 10
32.07110650907924
 20
10.15998216200324
 30
0.0
 11
30.7183510265107
 21
11.51273764457178
 31
0.0
  0
LINE
  5
ED1
330
EC5
100
AcDbEntity
  8
0
 62
     0
100
AcDbLine
 10
34.52110650907926
 20
7.709982162003228
 30
0.0
 11
33.12110650907922
 21
9.109982162003234
 31
0.0
  0
LINE
  5
ED2
330
EC5
100
AcDbEntity
  8
0
 62
     0
100
AcDbLine
 10
32.0711065090793
 20
9.710969355949742
 30
0.0
 11
30.6711065090792
 21
11.1109693559498
 31
0.0
  0
LINE
  5
ED3
330
EC5
100
AcDbEntity
  8
0
 62
     0
100
AcDbLine
 10
34.52110650907929
 20
7.260969355949754
 30
0.0
 11
33.12110650907925
 21
8.660969355949788
 31
0.0
  0
LINE
  5
ED4
330
EC5
100
AcDbEntity
  8
0
 62
     0
100
AcDbLine
 10
32.07110650907927
 20
9.261956549896297
 30
0.0
 11
30.6711065090792
 21
10.66195654989638
 31
0.0
  0
LINE
  5
ED5
330
EC5
100
AcDbEntity
  8
0
 62
     0
100
AcDbLine
 10
34.52110650907926
 20
6.811956549896308
 30
0.0
 11
33.12110650907922
 21
8.211956549896342
 31
0.0
  0
LINE
  5
ED6
330
EC5
100
AcDbEntity
  8
0
 62
     0
100
AcDbLine
 10
32.07110650907927
 20
8.812943743842851
 30
0.0
 11
30.6711065090792
 21
10.21294374384291
 31
0.0
  0
LINE
  5
ED7
330
EC5
100
AcDbEntity
  8
0
 62
     0
100
AcDbLine
 10
34.52110650907926
 20
6.362943743842862
 30
0.0
 11
33.12110650907922
 21
7.762943743842896
 31
0.0
  0
LINE
  5
ED8
330
EC5
100
AcDbEntity
  8
0
 62
     0
100
AcDbLine
 10
32.07110650907924
 20
8.363930937789376
 30
0.0
 11
30.67110650907918
 21
9.763930937789439
 31
0.0
  0
LINE
  5
ED9
330
EC5
100
AcDbEntity
  8
0
 62
     0
100
AcDbLine
 10
34.52110650907923
 20
5.913930937789388
 30
0.0
 11
33.12110650907922
 21
7.313930937789422
 31
0.0
  0
LINE
  5
EDA
330
EC5
100
AcDbEntity
  8
0
 62
     0
100
AcDbLine
 10
32.07110650907927
 20
7.914918131735959
 30
0.0
 11
30.6711065090792
 21
9.314918131736021
 31
0.0
  0
LINE
  5
EDB
330
EC5
100
AcDbEntity
  8
0
 62
     0
100
AcDbLine
 10
28.92110650907923
 20
11.06491813173599
 30
0.0
 11
28.36102456552691
 21
11.62500007528831
 31
0.0
  0
LINE
  5
EDC
330
EC5
100
AcDbEntity
  8
0
 62
     0
100
AcDbLine
 10
34.52110650907926
 20
5.46491813173597
 30
0.0
 11
33.12110650907922
 21
6.864918131735976
 31
0.0
  0
LINE
  5
EDD
330
EC5
100
AcDbEntity
  8
0
 62
     0
100
AcDbLine
 10
32.07110650907927
 20
7.465905325682484
 30
0.0
 11
30.67110650907918
 21
8.865905325682547
 31
0.0
  0
LINE
  5
EDE
330
EC5
100
AcDbEntity
  8
0
 62
     0
100
AcDbLine
 10
28.92110650907921
 20
10.61590532568251
 30
0.0
 11
27.91201175947344
 21
11.62500007528831
 31
0.0
  0
LINE
  5
EDF
330
EC5
100
AcDbEntity
  8
0
 62
     0
100
AcDbLine
 10
34.52110650907926
 20
5.015905325682496
 30
0.0
 11
33.12110650907922
 21
6.41590532568253
 31
0.0
  0
LINE
  5
EE0
330
EC5
100
AcDbEntity
  8
0
 62
     0
100
AcDbLine
 10
32.07110650907924
 20
7.016892519629038
 30
0.0
 11
30.6711065090792
 21
8.416892519629044
 31
0.0
  0
LINE
  5
EE1
330
EC5
100
AcDbEntity
  8
0
 62
     0
100
AcDbLine
 10
28.92110650907921
 20
10.16689251962907
 30
0.0
 11
27.57122514741721
 21
11.51677388129107
 31
0.0
  0
LINE
  5
EE2
330
EC5
100
AcDbEntity
  8
0
 62
     0
100
AcDbLine
 10
34.52110650907923
 20
4.56689251962905
 30
0.0
 11
33.1211065090792
 21
5.966892519629055
 31
0.0
  0
LINE
  5
EE3
330
EC5
100
AcDbEntity
  8
0
 62
     0
100
AcDbLine
 10
32.07110650907927
 20
6.567879713575564
 30
0.0
 11
30.67110650907924
 21
7.967879713575598
 31
0.0
  0
LINE
  5
EE4
330
EC5
100
AcDbEntity
  8
0
 62
     0
100
AcDbLine
 10
28.92110650907923
 20
9.717879713575598
 30
0.0
 11
27.52110650907923
 21
11.1178797135756
 31
0.0
  0
LINE
  5
EE5
330
EC5
100
AcDbEntity
  8
0
 62
     0
100
AcDbLine
 10
34.52110650907926
 20
4.117879713575575
 30
0.0
 11
33.12110650907922
 21
5.517879713575609
 31
0.0
  0
LINE
  5
EE6
330
EC5
100
AcDbEntity
  8
0
 62
     0
100
AcDbLine
 10
32.07110650907924
 20
6.118866907522118
 30
0.0
 11
30.67110650907924
 21
7.518866907522152
 31
0.0
  0
LINE
  5
EE7
330
EC5
100
AcDbEntity
  8
0
 62
     0
100
AcDbLine
 10
28.92110650907926
 20
9.268866907522124
 30
0.0
 11
27.52110650907923
 21
10.66886690752215
 31
0.0
  0
LINE
  5
EE8
330
EC5
100
AcDbEntity
  8
0
 62
     0
100
AcDbLine
 10
34.48512383163435
 20
3.704849584967035
 30
0.0
 11
33.12110650907922
 21
5.068866907522163
 31
0.0
  0
LINE
  5
EE9
330
EC5
100
AcDbEntity
  8
0
 62
     0
100
AcDbLine
 10
32.07110650907927
 20
5.669854101468615
 30
0.0
 11
30.6711065090792
 21
7.069854101468678
 31
0.0
  0
LINE
  5
EEA
330
EC5
100
AcDbEntity
  8
0
 62
     0
100
AcDbLine
 10
28.92110650907923
 20
8.819854101468678
 30
0.0
 11
27.5211065090792
 21
10.21985410146868
 31
0.0
  0
LINE
  5
EEB
330
EC5
100
AcDbEntity
  8
0
 62
     0
100
AcDbLine
 10
34.16596053525961
 20
3.575000075288301
 30
0.0
 11
33.1211065090792
 21
4.619854101468717
 31
0.0
  0
LINE
  5
EEC
330
EC5
100
AcDbEntity
  8
0
 62
     0
100
AcDbLine
 10
28.92110650907923
 20
8.370841295415203
 30
0.0
 11
27.5211065090792
 21
9.770841295415237
 31
0.0
  0
LINE
  5
EED
330
EC5
100
AcDbEntity
  8
0
 62
     0
100
AcDbLine
 10
32.07110650907927
 20
5.220841295415169
 30
0.0
 11
30.6711065090792
 21
6.620841295415232
 31
0.0
  0
LINE
  5
EEE
330
EC5
100
AcDbEntity
  8
0
 62
     0
100
AcDbLine
 10
26.20860650907923
 20
11.0833412954152
 30
0.0
 11
25.66694772920615
 21
11.62500007528825
 31
0.0
  0
LINE
  5
EEF
330
EC5
100
AcDbEntity
  8
0
 62
     0
100
AcDbLine
 10
33.71694772920617
 20
3.575000075288244
 30
0.0
 11
33.1211065090792
 21
4.170841295415243
 31
0.0
  0
LINE
  5
EF0
330
EC5
100
AcDbEntity
  8
0
 62
     0
100
AcDbLine
 10
28.92110650907923
 20
7.921828489361757
 30
0.0
 11
27.52110650907926
 21
9.321828489361763
 31
0.0
  0
LINE
  5
EF1
330
EC5
100
AcDbEntity
  8
0
 62
     0
100
AcDbLine
 10
26.20860650907923
 20
10.63432848936176
 30
0.0
 11
25.21793492315274
 21
11.62500007528828
 31
0.0
  0
LINE
  5
EF2
330
EC5
100
AcDbEntity
  8
0
 62
     0
100
AcDbLine
 10
32.05812735875648
 20
4.784807639684544
 30
0.0
 11
30.6711065090792
 21
6.171828489361786
 31
0.0
  0
LINE
  5
EF3
330
EC5
100
AcDbEntity
  8
0
 62
     0
100
AcDbLine
 10
28.92110650907923
 20
7.472815683308311
 30
0.0
 11
27.52110650907926
 21
8.872815683308289
 31
0.0
  0
LINE
  5
EF4
330
EC5
100
AcDbEntity
  8
0
 62
     0
100
AcDbLine
 10
26.11081623602231
 20
10.28310595636523
 30
0.0
 11
24.76892211709923
 21
11.62500007528831
 31
0.0
  0
LINE
  5
EF5
330
EC5
100
AcDbEntity
  8
0
 62
     0
100
AcDbLine
 10
31.96163471112785
 20
4.432287481259663
 30
0.0
 11
30.6711065090792
 21
5.72281568330834
 31
0.0
  0
LINE
  5
EF6
330
EC5
100
AcDbEntity
  8
0
 62
     0
100
AcDbLine
 10
28.92110650907923
 20
7.023802877254837
 30
0.0
 11
27.52110650907923
 21
8.423802877254843
 31
0.0
  0
LINE
  5
EF7
330
EC5
100
AcDbEntity
  8
0
 62
     0
100
AcDbLine
 10
25.71990931104574
 20
10.2250000752883
 30
0.0
 11
24.31990931104579
 21
11.62500007528825
 31
0.0
  0
LINE
  5
EF8
330
EC5
100
AcDbEntity
  8
0
 62
     0
100
AcDbLine
 10
31.79911877316607
 20
4.145790613167974
 30
0.0
 11
30.63534863949945
 21
5.30956074683462
 31
0.0
  0
LINE
  5
EF9
330
EC5
100
AcDbEntity
  8
0
 62
     0
100
AcDbLine
 10
28.92110650907923
 20
6.57479007120142
 30
0.0
 11
27.52110650907926
 21
7.974790071201397
 31
0.0
  0
LINE
  5
EFA
330
EC5
100
AcDbEntity
  8
0
 62
     0
100
AcDbLine
 10
25.27089650499235
 20
10.22500007528827
 30
0.0
 11
23.90211314040362
 21
11.59378343987703
 31
0.0
  0
LINE
  5
EFB
330
EC5
100
AcDbEntity
  8
0
 62
     0
100
AcDbLine
 10
31.58309787450355
 20
3.912798705777078
 30
0.0
 11
30.4345558202657
 21
5.061340760014928
 31
0.0
  0
LINE
  5
EFC
330
EC5
100
AcDbEntity
  8
0
 62
     0
100
AcDbLine
 10
28.92110650907923
 20
6.125777265147945
 30
0.0
 11
27.52110650907923
 21
7.525777265147922
 31
0.0
  0
LINE
  5
EFD
330
EC5
100
AcDbEntity
  8
0
 62
     0
100
AcDbLine
 10
24.8218836989389
 20
10.22500007528827
 30
0.0
 11
23.56979292813693
 21
11.47709084609022
 31
0.0
  0
LINE
  5
EFE
330
EC5
100
AcDbEntity
  8
0
 62
     0
100
AcDbLine
 10
31.31501670204054
 20
3.731867072186645
 30
0.0
 11
30.0718836989389
 21
4.975000075288278
 31
0.0
  0
LINE
  5
EFF
330
EC5
100
AcDbEntity
  8
0
 62
     0
100
AcDbLine
 10
28.92110650907921
 20
5.676764459094471
 30
0.0
 11
27.52110650907923
 21
7.076764459094476
 31
0.0
  0
LINE
  5
F00
330
EC5
100
AcDbEntity
  8
0
 62
     0
100
AcDbLine
 10
24.38376580689444
 20
10.21410516127923
 30
0.0
 11
23.29849245953184
 21
11.29937850864183
 31
0.0
  0
LINE
  5
F01
330
EC5
100
AcDbEntity
  8
0
 62
     0
100
AcDbLine
 10
30.98681042208488
 20
3.611060546088822
 30
0.0
 11
29.6228708928854
 21
4.975000075288306
 31
0.0
  0
LINE
  5
F02
330
EC5
100
AcDbEntity
  8
0
 62
     0
100
AcDbLine
 10
24.19610650907924
 20
9.952751653040991
 30
0.0
 11
23.07943643000956
 21
11.06942173211064
 31
0.0
  0
LINE
  5
F03
330
EC5
100
AcDbEntity
  8
0
 62
     0
100
AcDbLine
 10
30.57385808683196
 20
3.575000075288272
 30
0.0
 11
27.52110650907923
 21
6.627751653041002
 31
0.0
  0
LINE
  5
F04
330
EC5
100
AcDbEntity
  8
0
 62
     0
100
AcDbLine
 10
24.19610650907927
 20
9.503738846987545
 30
0.0
 11
22.91355097383305
 21
10.78629438223376
 31
0.0
  0
LINE
  5
F05
330
EC5
100
AcDbEntity
  8
0
 62
     0
100
AcDbLine
 10
30.12484528077851
 20
3.575000075288272
 30
0.0
 11
27.52110650907923
 21
6.178738846987585
 31
0.0
  0
LINE
  5
F06
330
EC5
100
AcDbEntity
  8
0
 62
     0
100
AcDbLine
 10
24.29937864963116
 20
8.951453900382176
 30
0.0
 11
22.81246171415099
 21
10.43837083586231
 31
0.0
  0
LINE
  5
F07
330
EC5
100
AcDbEntity
  8
0
 62
     0
100
AcDbLine
 10
29.67583247472507
 20
3.575000075288272
 30
0.0
 11
27.52110650907923
 21
5.72972604093411
 31
0.0
  0
LINE
  5
F08
330
EC5
100
AcDbEntity
  8
0
 62
     0
100
AcDbLine
 10
26.40790836042492
 20
6.393911383534941
 30
0.0
 11
22.7961065090792
 21
10.00571323488065
 31
0.0
  0
LINE
  5
F09
330
EC5
100
AcDbEntity
  8
0
 62
     0
100
AcDbLine
 10
21.74610650907919
 20
11.05571323488064
 30
0.0
 11
21.17681966867158
 21
11.62500007528828
 31
0.0
  0
LINE
  5
F0A
330
EC5
100
AcDbEntity
  8
0
 62
     0
100
AcDbLine
 10
29.22681966867159
 20
3.575000075288272
 30
0.0
 11
27.5211065090792
 21
5.280713234880636
 31
0.0
  0
LINE
  5
F0B
330
EC5
100
AcDbEntity
  8
0
 62
     0
100
AcDbLine
 10
26.47110650907919
 20
5.881700428827258
 30
0.0
 11
22.79610650907923
 21
9.556700428827213
 31
0.0
  0
LINE
  5
F0C
330
EC5
100
AcDbEntity
  8
0
 62
     0
100
AcDbLine
 10
21.74610650907925
 20
10.60670042882716
 30
0.0
 11
20.72780686261813
 21
11.62500007528828
 31
0.0
  0
LINE
  5
F0D
330
EC5
100
AcDbEntity
  8
0
 62
     0
100
AcDbLine
 10
28.7695829232457
 20
3.583224014660743
 30
0.0
 11
27.5293304484517
 21
4.823476489454748
 31
0.0
  0
LINE
  5
F0E
330
EC5
100
AcDbEntity
  8
0
 62
     0
100
AcDbLine
 10
21.74610650907925
 20
10.15768762277372
 30
0.0
 11
20.39241156519159
 21
11.51138256666135
 31
0.0
  0
LINE
  5
F0F
330
EC5
100
AcDbEntity
  8
0
 62
     0
100
AcDbLine
 10
26.47110650907922
 20
5.432687622773755
 30
0.0
 11
22.80781184302043
 21
9.095982288832544
 31
0.0
  0
LINE
  5
F10
330
EC5
100
AcDbEntity
  8
0
 62
     0
100
AcDbLine
 10
21.74610650907925
 20
9.708674816720247
 30
0.0
 11
20.34610650907922
 21
11.10867481672028
 31
0.0
  0
LINE
  5
F11
330
EC5
100
AcDbEntity
  8
0
 62
     0
100
AcDbLine
 10
26.47110650907919
 20
4.983674816720281
 30
0.0
 11
22.96687155194044
 21
8.487909773859058
 31
0.0
  0
LINE
  5
F12
330
EC5
100
AcDbEntity
  8
0
 62
     0
100
AcDbLine
 10
21.74610650907925
 20
9.259662010666801
 30
0.0
 11
20.34610650907922
 21
10.6596620106668
 31
0.0
  0
LINE
  5
F13
330
EC5
100
AcDbEntity
  8
0
 62
     0
100
AcDbLine
 10
26.41682560028471
 20
4.588942919461345
 30
0.0
 11
25.06900820576555
 21
5.936760313980499
 31
0.0
  0
LINE
  5
F14
330
EC5
100
AcDbEntity
  8
0
 62
     0
100
AcDbLine
 10
21.74610650907925
 20
8.810649204613355
 30
0.0
 11
20.34610650907922
 21
10.21064920461338
 31
0.0
  0
LINE
  5
F15
330
EC5
100
AcDbEntity
  8
0
 62
     0
100
AcDbLine
 10
19.20036305879074
 20
11.35639265490183
 30
0.0
 11
18.93175563840429
 21
11.62500007528831
 31
0.0
  0
LINE
  5
F16
330
EC5
100
AcDbEntity
  8
0
 62
     0
100
AcDbLine
 10
26.28288774640393
 20
4.27386796728868
 30
0.0
 11
25.07110650907927
 21
5.485649204613338
 31
0.0
  0
LINE
  5
F17
330
EC5
100
AcDbEntity
  8
0
 62
     0
100
AcDbLine
 10
21.74610650907922
 20
8.36163639855988
 30
0.0
 11
20.34610650907922
 21
9.761636398559915
 31
0.0
  0
LINE
  5
F18
330
EC5
100
AcDbEntity
  8
0
 62
     0
100
AcDbLine
 10
19.10089922666443
 20
11.00684368097466
 30
0.0
 11
18.48274283235082
 21
11.62500007528831
 31
0.0
  0
LINE
  5
F19
330
EC5
100
AcDbEntity
  8
0
 62
     0
100
AcDbLine
 10
26.09139434731628
 20
4.016348560322853
 30
0.0
 11
25.02246391763603
 21
5.085278990003104
 31
0.0
  0
LINE
  5
F1A
330
EC5
100
AcDbEntity
  8
0
 62
     0
100
AcDbLine
 10
21.74610650907922
 20
7.912623592506434
 30
0.0
 11
20.34610650907919
 21
9.31262359250644
 31
0.0
  0
LINE
  5
F1B
330
EC5
100
AcDbEntity
  8
0
 62
     0
100
AcDbLine
 10
18.99313615321159
 20
10.66559394837403
 30
0.0
 11
18.0385283714763
 21
11.62020173010935
 31
0.0
  0
LINE
  5
F1C
330
EC5
100
AcDbEntity
  8
0
 62
     0
100
AcDbLine
 10
25.84823486475846
 20
3.810495236827165
 30
0.0
 11
24.68373002629744
 21
4.975000075288221
 31
0.0
  0
LINE
  5
F1D
330
EC5
100
AcDbEntity
  8
0
 62
     0
100
AcDbLine
 10
21.74610650907925
 20
7.463610786452989
 30
0.0
 11
20.34610650907922
 21
8.863610786453023
 31
0.0
  0
LINE
  5
F1E
330
EC5
100
AcDbEntity
  8
0
 62
     0
100
AcDbLine
 10
18.88537307975883
 20
10.3243442157734
 30
0.0
 11
17.82137307975881
 21
11.38834421577342
 31
0.0
  0
LINE
  5
F1F
330
EC5
100
AcDbEntity
  8
0
 62
     0
100
AcDbLine
 10
25.55019289052828
 20
3.659524405003935
 30
0.0
 11
24.23471722024396
 21
4.975000075288278
 31
0.0
  0
LINE
  5
F20
330
EC5
100
AcDbEntity
  8
0
 62
     0
100
AcDbLine
 10
21.74610650907922
 20
7.014597980399543
 30
0.0
 11
20.34610650907919
 21
8.414597980399548
 31
0.0
  0
LINE
  5
F21
330
EC5
100
AcDbEntity
  8
0
 62
     0
100
AcDbLine
 10
18.7776100063059
 20
9.983094483172862
 30
0.0
 11
17.71361000630591
 21
11.04709448317285
 31
0.0
  0
LINE
  5
F22
330
EC5
100
AcDbEntity
  8
0
 62
     0
100
AcDbLine
 10
25.18135656470454
 20
3.579347924774225
 30
0.0
 11
23.78570441419046
 21
4.975000075288306
 31
0.0
  0
LINE
  5
F23
330
EC5
100
AcDbEntity
  8
0
 62
     0
100
AcDbLine
 10
21.74610650907922
 20
6.565585174346068
 30
0.0
 11
20.34610650907922
 21
7.965585174346045
 31
0.0
  0
LINE
  5
F24
330
EC5
100
AcDbEntity
  8
0
 62
     0
100
AcDbLine
 10
18.66984693285312
 20
9.641844750572175
 30
0.0
 11
17.60584693285307
 21
10.70584475057219
 31
0.0
  0
LINE
  5
F25
330
EC5
100
AcDbEntity
  8
0
 62
     0
100
AcDbLine
 10
24.73669160813702
 20
3.575000075288272
 30
0.0
 11
23.33669160813698
 21
4.975000075288306
 31
0.0
  0
LINE
  5
F26
330
EC5
100
AcDbEntity
  8
0
 62
     0
100
AcDbLine
 10
21.74610650907922
 20
6.116572368292622
 30
0.0
 11
20.34610650907925
 21
7.516572368292628
 31
0.0
  0
LINE
  5
F27
330
EC5
100
AcDbEntity
  8
0
 62
     0
100
AcDbLine
 10
18.5620838594003
 20
9.300595017971573
 30
0.0
 11
17.49808385940025
 21
10.36459501797159
 31
0.0
  0
LINE
  5
F28
330
EC5
100
AcDbEntity
  8
0
 62
     0
100
AcDbLine
 10
24.28767880208357
 20
3.575000075288301
 30
0.0
 11
23.07087295343538
 21
4.791805923936493
 31
0.0
  0
LINE
  5
F29
330
EC5
100
AcDbEntity
  8
0
 62
     0
100
AcDbLine
 10
18.45432078594748
 20
8.959345285370886
 30
0.0
 11
17.39032078594743
 21
10.02334528537096
 31
0.0
  0
LINE
  5
F2A
330
EC5
100
AcDbEntity
  8
0
 62
     0
100
AcDbLine
 10
21.74610650907922
 20
5.667559562239176
 30
0.0
 11
20.34610650907925
 21
7.067559562239154
 31
0.0
  0
LINE
  5
F2B
330
EC5
100
AcDbEntity
  8
0
 62
     0
100
AcDbLine
 10
16.32110650907924
 20
11.09255956223915
 30
0.0
 11
15.78866599603009
 21
11.62500007528828
 31
0.0
  0
LINE
  5
F2C
330
EC5
100
AcDbEntity
  8
0
 62
     0
100
AcDbLine
 10
23.83866599603013
 20
3.575000075288272
 30
0.0
 11
23.05860650907925
 21
4.355059562239148
 31
0.0
  0
LINE
  5
F2D
330
EC5
100
AcDbEntity
  8
0
 62
     0
100
AcDbLine
 10
18.34655771249458
 20
8.618095552770341
 30
0.0
 11
17.28255771249462
 21
9.682095552770306
 31
0.0
  0
LINE
  5
F2E
330
EC5
100
AcDbEntity
  8
0
 62
     0
100
AcDbLine
 10
21.74610650907922
 20
5.218546756185702
 30
0.0
 11
20.34610650907922
 21
6.618546756185708
 31
0.0
  0
LINE
  5
F2F
330
EC5
100
AcDbEntity
  8
0
 62
     0
100
AcDbLine
 10
16.32110650907924
 20
10.64354675618568
 30
0.0
 11
15.33965318997664
 21
11.62500007528828
 31
0.0
  0
LINE
  5
F30
330
EC5
100
AcDbEntity
  8
0
 62
     0
100
AcDbLine
 10
23.38965318997662
 20
3.575000075288301
 30
0.0
 11
23.05860650907922
 21
3.906046756185673
 31
0.0
  0
LINE
  5
F31
330
EC5
100
AcDbEntity
  8
0
 62
     0
100
AcDbLine
 10
18.23879463904177
 20
8.276845820169683
 30
0.0
 11
17.17479463904175
 21
9.340845820169704
 31
0.0
  0
LINE
  5
F32
330
EC5
100
AcDbEntity
  8
0
 62
     0
100
AcDbLine
 10
16.32110650907921
 20
10.19453395013221
 30
0.0
 11
14.98338404463041
 21
11.53225641458104
 31
0.0
  0
LINE
  5
F33
330
EC5
100
AcDbEntity
  8
0
 62
     0
100
AcDbLine
 10
21.74610650907919
 20
4.769533950132256
 30
0.0
 11
20.34610650907922
 21
6.169533950132233
 31
0.0
  0
LINE
  5
F34
330
EC5
100
AcDbEntity
  8
0
 62
     0
100
AcDbLine
 10
18.13103156558895
 20
7.935596087569081
 30
0.0
 11
17.06703156558896
 21
8.999596087569074
 31
0.0
  0
LINE
  5
F35
330
EC5
100
AcDbEntity
  8
0
 62
     0
100
AcDbLine
 10
16.32110650907924
 20
9.745521144078793
 30
0.0
 11
14.9211065090792
 21
11.1455211440788
 31
0.0
  0
LINE
  5
F36
330
EC5
100
AcDbEntity
  8
0
 62
     0
100
AcDbLine
 10
21.74610650907922
 20
4.32052114407881
 30
0.0
 11
20.34610650907922
 21
5.720521144078787
 31
0.0
  0
LINE
  5
F37
330
EC5
100
AcDbEntity
  8
0
 62
     0
100
AcDbLine
 10
18.02848731089292
 20
7.589127536211634
 30
0.0
 11
16.95926849213608
 21
8.658346354968472
 31
0.0
  0
LINE
  5
F38
330
EC5
100
AcDbEntity
  8
0
 62
     0
100
AcDbLine
 10
16.32110650907924
 20
9.296508338025319
 30
0.0
 11
14.9211065090792
 21
10.69650833802535
 31
0.0
  0
LINE
  5
F39
330
EC5
100
AcDbEntity
  8
0
 62
     0
100
AcDbLine
 10
21.74610650907919
 20
3.871508338025336
 30
0.0
 11
20.34610650907922
 21
5.271508338025341
 31
0.0
  0
LINE
  5
F3A
330
EC5
100
AcDbEntity
  8
0
 62
     0
100
AcDbLine
 10
18.23572399060992
 20
6.932878050441161
 30
0.0
 11
16.81399474429378
 21
8.354607296757308
 31
0.0
  0
LINE
  5
F3B
330
EC5
100
AcDbEntity
  8
0
 62
     0
100
AcDbLine
 10
16.32110650907927
 20
8.847495531971816
 30
0.0
 11
14.92110650907918
 21
10.24749553197187
 31
0.0
  0
LINE
  5
F3C
330
EC5
100
AcDbEntity
  8
0
 62
     0
100
AcDbLine
 10
21.57658401041302
 20
3.59201803063803
 30
0.0
 11
20.34610650907922
 21
4.822495531971867
 31
0.0
  0
LINE
  5
F3D
330
EC5
100
AcDbEntity
  8
0
 62
     0
100
AcDbLine
 10
18.44296067032692
 20
6.276628564670744
 30
0.0
 11
14.9211065090792
 21
9.798482725918461
 31
0.0
  0
LINE
  5
F3E
330
EC5
100
AcDbEntity
  8
0
 62
     0
100
AcDbLine
 10
13.69610650907927
 20
11.02348272591839
 30
0.0
 11
13.09458915970938
 21
11.62500007528828
 31
0.0
  0
LINE
  5
F3F
330
EC5
100
AcDbEntity
  8
0
 62
     0
100
AcDbLine
 10
21.14458915970939
 20
3.575000075288272
 30
0.0
 11
20.34610650907927
 21
4.373482725918393
 31
0.0
  0
LINE
  5
F40
330
EC5
100
AcDbEntity
  8
0
 62
     0
100
AcDbLine
 10
18.65019735004395
 20
5.620379078900242
 30
0.0
 11
14.9211065090792
 21
9.349469919864986
 31
0.0
  0
LINE
  5
F41
330
EC5
100
AcDbEntity
  8
0
 62
     0
100
AcDbLine
 10
13.69610650907927
 20
10.57446991986492
 30
0.0
 11
12.64557635365588
 21
11.62500007528831
 31
0.0
  0
LINE
  5
F42
330
EC5
100
AcDbEntity
  8
0
 62
     0
100
AcDbLine
 10
20.69557635365592
 20
3.575000075288244
 30
0.0
 11
20.34610650907925
 21
3.924469919864947
 31
0.0
  0
LINE
  5
F43
330
EC5
100
AcDbEntity
  8
0
 62
     0
100
AcDbLine
 10
13.56265316138421
 20
10.2589104615065
 30
0.0
 11
12.2125423022785
 21
11.60902132061218
 31
0.0
  0
LINE
  5
F44
330
EC5
100
AcDbEntity
  8
0
 62
     0
100
AcDbLine
 10
18.85743402976092
 20
4.964129593129797
 30
0.0
 11
14.92110650907923
 21
8.900457113811484
 31
0.0
  0
LINE
  5
F45
330
EC5
100
AcDbEntity
  8
0
 62
     0
100
AcDbLine
 10
16.48986097025004
 20
6.882689846587226
 30
0.0
 11
14.92110650907923
 21
8.451444307758038
 31
0.0
  0
LINE
  5
F46
330
EC5
100
AcDbEntity
  8
0
 62
     0
100
AcDbLine
 10
13.14755074154899
 20
10.22500007528825
 30
0.0
 11
11.84352076748487
 21
11.5290300493524
 31
0.0
  0
LINE
  5
F47
330
EC5
100
AcDbEntity
  8
0
 62
     0
100
AcDbLine
 10
19.06467070947795
 20
4.307880107359324
 30
0.0
 11
17.01851686332389
 21
6.354033953513379
 31
0.0
  0
LINE
  5
F48
330
EC5
100
AcDbEntity
  8
0
 62
     0
100
AcDbLine
 10
16.32110650907927
 20
6.602431501704558
 30
0.0
 11
14.92110650907923
 21
8.002431501704592
 31
0.0
  0
LINE
  5
F49
330
EC5
100
AcDbEntity
  8
0
 62
     0
100
AcDbLine
 10
12.69853793549549
 20
10.2250000752883
 30
0.0
 11
11.52416005956951
 21
11.39937795121429
 31
0.0
  0
LINE
  5
F4A
330
EC5
100
AcDbEntity
  8
0
 62
     0
100
AcDbLine
 10
19.18219013833325
 20
3.741347872450546
 30
0.0
 11
17.22575354304086
 21
5.697784467742962
 31
0.0
  0
LINE
  5
F4B
330
EC5
100
AcDbEntity
  8
0
 62
     0
100
AcDbLine
 10
16.32110650907924
 20
6.153418695651112
 30
0.0
 11
14.9211065090792
 21
7.553418695651117
 31
0.0
  0
LINE
  5
F4C
330
EC5
100
AcDbEntity
  8
0
 62
     0
100
AcDbLine
 10
12.27698118422372
 20
10.19754402050662
 30
0.0
 11
11.24478557190224
 21
11.22973963282811
 31
0.0
  0
LINE
  5
F4D
330
EC5
100
AcDbEntity
  8
0
 62
     0
100
AcDbLine
 10
18.89952512944208
 20
3.575000075288272
 30
0.0
 11
17.43299022275789
 21
5.041534981972432
 31
0.0
  0
LINE
  5
F4E
330
EC5
100
AcDbEntity
  8
0
 62
     0
100
AcDbLine
 10
16.32110650907924
 20
5.704405889597637
 30
0.0
 11
14.9211065090792
 21
7.104405889597671
 31
0.0
  0
LINE
  5
F4F
330
EC5
100
AcDbEntity
  8
0
 62
     0
100
AcDbLine
 10
11.99105308780423
 20
10.03445931087264
 30
0.0
 11
11.00095796759634
 21
11.02455443108053
 31
0.0
  0
LINE
  5
F50
330
EC5
100
AcDbEntity
  8
0
 62
     0
100
AcDbLine
 10
18.4505123233886
 20
3.575000075288272
 30
0.0
 11
17.64022690247486
 21
4.385285496202016
 31
0.0
  0
LINE
  5
F51
330
EC5
100
AcDbEntity
  8
0
 62
     0
100
AcDbLine
 10
13.86382107547811
 20
7.712678517145349
 30
0.0
 11
13.10878495093624
 21
8.467714641687223
 31
0.0
  0
LINE
  5
F52
330
EC5
100
AcDbEntity
  8
0
 62
     0
100
AcDbLine
 10
16.32110650907924
 20
5.255393083544191
 30
0.0
 11
14.92110650907923
 21
6.655393083544225
 31
0.0
  0
LINE
  5
F53
330
EC5
100
AcDbEntity
  8
0
 62
     0
100
AcDbLine
 10
11.81299230273975
 20
9.763507289883705
 30
0.0
 11
10.79127495459073
 21
10.78522463803273
 31
0.0
  0
LINE
  5
F54
330
EC5
100
AcDbEntity
  8
0
 62
     0
100
AcDbLine
 10
17.97633301523285
 20
3.600166577390609
 30
0.0
 11
17.85115592943719
 21
3.725343663186265
 31
0.0
  0
LINE
  5
F55
330
EC5
100
AcDbEntity
  8
0
 62
     0
100
AcDbLine
 10
13.82056424540715
 20
7.306922541162833
 30
0.0
 11
12.70302897495372
 21
8.424457811616264
 31
0.0
  0
LINE
  5
F56
330
EC5
100
AcDbEntity
  8
0
 62
     0
100
AcDbLine
 10
11.77110650907928
 20
9.3563802774907
 30
0.0
 11
10.6168054441099
 21
10.51068134246008
 31
0.0
  0
LINE
  5
F57
330
EC5
100
AcDbEntity
  8
0
 62
     0
100
AcDbLine
 10
16.32110650907924
 20
4.806380277490745
 30
0.0
 11
14.9211065090792
 21
6.206380277490779
 31
0.0
  0
LINE
  5
F58
330
EC5
100
AcDbEntity
  8
0
 62
     0
100
AcDbLine
 10
13.65463646575813
 20
7.023837514758355
 30
0.0
 11
12.41994394854924
 21
8.258530031967239
 31
0.0
  0
LINE
  5
F59
330
EC5
100
AcDbEntity
  8
0
 62
     0
100
AcDbLine
 10
11.77110650907928
 20
8.907367471437225
 30
0.0
 11
10.48151559050481
 21
10.1969583900117
 31
0.0
  0
LINE
  5
F5A
330
EC5
100
AcDbEntity
  8
0
 62
     0
100
AcDbLine
 10
16.32110650907924
 20
4.357367471437271
 30
0.0
 11
14.92110650907923
 21
5.757367471437277
 31
0.0
  0
LINE
  5
F5B
330
EC5
100
AcDbEntity
  8
0
 62
     0
100
AcDbLine
 10
11.77110650907928
 20
8.45835466538378
 30
0.0
 11
10.39415865404188
 21
9.835302520421208
 31
0.0
  0
LINE
  5
F5C
330
EC5
100
AcDbEntity
  8
0
 62
     0
100
AcDbLine
 10
13.40371974468991
 20
6.825741429773188
 30
0.0
 11
12.22184786356407
 21
8.007613310899017
 31
0.0
  0
LINE
  5
F5D
330
EC5
100
AcDbEntity
  8
0
 62
     0
100
AcDbLine
 10
9.058606509079197
 20
11.17085466538387
 30
0.0
 11
8.604461099174756
 21
11.62500007528834
 31
0.0
  0
LINE
  5
F5E
330
EC5
100
AcDbEntity
  8
0
 62
     0
100
AcDbLine
 10
16.32110650907924
 20
3.908354665383853
 30
0.0
 11
14.92110650907926
 21
5.308354665383831
 31
0.0
  0
LINE
  5
F5F
330
EC5
100
AcDbEntity
  8
0
 62
     0
100
AcDbLine
 10
11.77110650907928
 20
8.009341859330334
 30
0.0
 11
10.37110650907922
 21
9.409341859330396
 31
0.0
  0
LINE
  5
F60
330
EC5
100
AcDbEntity
  8
0
 62
     0
100
AcDbLine
 10
13.05356002347619
 20
6.726888344933428
 30
0.0
 11
12.12299477872432
 21
7.657453589685303
 31
0.0
  0
LINE
  5
F61
330
EC5
100
AcDbEntity
  8
0
 62
     0
100
AcDbLine
 10
9.058606509079197
 20
10.72184185933042
 30
0.0
 11
8.155448293121281
 21
11.62500007528831
 31
0.0
  0
LINE
  5
F62
330
EC5
100
AcDbEntity
  8
0
 62
     0
100
AcDbLine
 10
16.17715460844394
 20
3.60329375996568
 30
0.0
 11
14.92110650907923
 21
4.859341859330356
 31
0.0
  0
LINE
  5
F63
330
EC5
100
AcDbEntity
  8
0
 62
     0
100
AcDbLine
 10
11.77110650907928
 20
7.560329053276859
 30
0.0
 11
10.37110650907919
 21
8.960329053276922
 31
0.0
  0
LINE
  5
F64
330
EC5
100
AcDbEntity
  8
0
 62
     0
100
AcDbLine
 10
9.00408952394406
 20
10.32734603841208
 30
0.0
 11
7.706435487067864
 21
11.62500007528825
 31
0.0
  0
LINE
  5
F65
330
EC5
100
AcDbEntity
  8
0
 62
     0
100
AcDbLine
 10
15.75643548706787
 20
3.575000075288244
 30
0.0
 11
14.92110650907923
 21
4.41032905327691
 31
0.0
  0
LINE
  5
F66
330
EC5
100
AcDbEntity
  8
0
 62
     0
100
AcDbLine
 10
11.77110650907926
 20
7.111316247223413
 30
0.0
 11
10.37110650907919
 21
8.511316247223476
 31
0.0
  0
LINE
  5
F67
330
EC5
100
AcDbEntity
  8
0
 62
     0
100
AcDbLine
 10
8.657422681014395
 20
10.22500007528827
 30
0.0
 11
7.257422681014418
 21
11.62500007528825
 31
0.0
  0
LINE
  5
F68
330
EC5
100
AcDbEntity
  8
0
 62
     0
100
AcDbLine
 10
15.30742268101443
 20
3.575000075288244
 30
0.0
 11
14.92110650907923
 21
3.961316247223436
 31
0.0
  0
LINE
  5
F69
330
EC5
100
AcDbEntity
  8
0
 62
     0
100
AcDbLine
 10
11.77110650907928
 20
6.662303441169967
 30
0.0
 11
10.37110650907922
 21
8.06230344117003
 31
0.0
  0
LINE
  5
F6A
330
EC5
100
AcDbEntity
  8
0
 62
     0
100
AcDbLine
 10
8.208409874960949
 20
10.22500007528827
 30
0.0
 11
6.825845238908499
 21
11.60756471134075
 31
0.0
  0
LINE
  5
F6B
330
EC5
100
AcDbEntity
  8
0
 62
     0
100
AcDbLine
 10
13.69480528466078
 20
4.738604665588439
 30
0.0
 11
13.45971109937943
 21
4.973698850869823
 31
0.0
  0
LINE
  5
F6C
330
EC5
100
AcDbEntity
  8
0
 62
     0
100
AcDbLine
 10
11.77110650907926
 20
6.213290635116493
 30
0.0
 11
10.37110650907919
 21
7.613290635116584
 31
0.0
  0
LINE
  5
F6D
330
EC5
100
AcDbEntity
  8
0
 62
     0
100
AcDbLine
 10
7.759397068907503
 20
10.22500007528827
 30
0.0
 11
6.479277834669261
 21
11.50511930952652
 31
0.0
  0
LINE
  5
F6E
330
EC5
100
AcDbEntity
  8
0
 62
     0
100
AcDbLine
 10
13.69610650907924
 20
4.28829063511651
 30
0.0
 11
13.00939706890747
 21
4.975000075288306
 31
0.0
  0
LINE
  5
F6F
330
EC5
100
AcDbEntity
  8
0
 62
     0
100
AcDbLine
 10
11.77110650907926
 20
5.764277829063047
 30
0.0
 11
10.37110650907919
 21
7.164277829063109
 31
0.0
  0
LINE
  5
F70
330
EC5
100
AcDbEntity
  8
0
 62
     0
100
AcDbLine
 10
7.310384262854029
 20
10.22500007528825
 30
0.0
 11
6.19715450474564
 21
11.33822983339664
 31
0.0
  0
LINE
  5
F71
330
EC5
100
AcDbEntity
  8
0
 62
     0
100
AcDbLine
 10
13.69610650907924
 20
3.839277829063064
 30
0.0
 11
12.56038426285402
 21
4.975000075288249
 31
0.0
  0
LINE
  5
F72
330
EC5
100
AcDbEntity
  8
0
 62
     0
100
AcDbLine
 10
7.055237849046733
 20
10.03113368304215
 30
0.0
 11
5.968108098625265
 21
11.11826343346362
 31
0.0
  0
LINE
  5
F73
330
EC5
100
AcDbEntity
  8
0
 62
     0
100
AcDbLine
 10
13.50224011683309
 20
3.584131415255797
 30
0.0
 11
10.37110650907919
 21
6.715265023009663
 31
0.0
  0
LINE
  5
F74
330
EC5
100
AcDbEntity
  8
0
 62
     0
100
AcDbLine
 10
7.046106509079265
 20
9.591252216956149
 30
0.0
 11
5.791367497390723
 21
10.84599122864469
 31
0.0
  0
LINE
  5
F75
330
EC5
100
AcDbEntity
  8
0
 62
     0
100
AcDbLine
 10
13.06235865074714
 20
3.575000075288272
 30
0.0
 11
10.37110650907919
 21
6.266252216956218
 31
0.0
  0
LINE
  5
F76
330
EC5
100
AcDbEntity
  8
0
 62
     0
100
AcDbLine
 10
7.07717436314698
 20
9.111171556834932
 30
0.0
 11
5.675927446243861
 21
10.51241847373808
 31
0.0
  0
LINE
  5
F77
330
EC5
100
AcDbEntity
  8
0
 62
     0
100
AcDbLine
 10
12.61334584469364
 20
3.575000075288301
 30
0.0
 11
10.37110650907919
 21
5.817239410902743
 31
0.0
  0
LINE
  5
F78
330
EC5
100
AcDbEntity
  8
0
 62
     0
100
AcDbLine
 10
9.223294554690596
 20
6.516038559237898
 30
0.0
 11
5.646106509079288
 21
10.0932266048492
 31
0.0
  0
LINE
  5
F79
330
EC5
100
AcDbEntity
  8
0
 62
     0
100
AcDbLine
 10
12.13769699511186
 20
3.601636118816628
 30
0.0
 11
10.39774255260758
 21
5.341590561320913
 31
0.0
  0
LINE
  5
F7A
330
EC5
100
AcDbEntity
  8
0
 62
     0
100
AcDbLine
 10
9.319241811733206
 20
5.971078496141842
 30
0.0
 11
5.646106509079231
 21
9.644213798795817
 31
0.0
  0
LINE
  5
F7B
330
EC5
100
AcDbEntity
  8
0
 62
     0
100
AcDbLine
 10
11.45079303881107
 20
3.83952726906395
 30
0.0
 11
10.63563370285487
 21
4.654686605020174
 31
0.0
  0
LINE
  5
F7C
330
EC5
100
AcDbEntity
  8
0
 62
     0
100
AcDbLine
 10
9.321106509079271
 20
5.520200992742303
 30
0.0
 11
5.649888732790429
 21
9.191418769031116
 31
0.0
  0
LINE
  5
F7D
330
EC5
100
AcDbEntity
  8
0
 62
     0
100
AcDbLine
 10
9.321106509079243
 20
5.071188186688857
 30
0.0
 11
5.761534111952357
 21
8.630760583815714
 31
0.0
  0
LINE
  5
F7E
330
EC5
100
AcDbEntity
  8
0
 62
     0
100
AcDbLine
 10
9.284846511013284
 20
4.658435378701398
 30
0.0
 11
7.903150689203755
 21
6.040131200510927
 31
0.0
  0
LINE
  5
F7F
330
EC5
100
AcDbEntity
  8
0
 62
     0
100
AcDbLine
 10
9.163877541498862
 20
4.330391542162345
 30
0.0
 11
7.921106509079237
 21
5.573162574581971
 31
0.0
  0
LINE
  5
F80
330
EC5
100
AcDbEntity
  8
0
 62
     0
100
AcDbLine
 10
8.982817917807977
 20
4.062438359799756
 30
0.0
 11
7.903156992928899
 21
5.142099284678835
 31
0.0
  0
LINE
  5
F81
330
EC5
100
AcDbEntity
  8
0
 62
     0
100
AcDbLine
 10
8.74970473167454
 20
3.846538739879747
 30
0.0
 11
7.621243396265981
 21
4.975000075288335
 31
0.0
  0
LINE
  5
F82
330
EC5
100
AcDbEntity
  8
0
 62
     0
100
AcDbLine
 10
8.463072507808135
 20
3.684158157692706
 30
0.0
 11
7.172230590212507
 21
4.975000075288306
 31
0.0
  0
LINE
  5
F83
330
EC5
100
AcDbEntity
  8
0
 62
     0
100
AcDbLine
 10
8.110366213265166
 20
3.587851646182201
 30
0.0
 11
6.723217784159089
 21
4.975000075288278
 31
0.0
  0
LINE
  5
F84
330
EC5
100
AcDbEntity
  8
0
 62
     0
100
AcDbLine
 10
7.674204978105649
 20
3.575000075288215
 30
0.0
 11
6.274204978105643
 21
4.975000075288249
 31
0.0
  0
LINE
  5
F85
330
EC5
100
AcDbEntity
  8
0
 62
     0
100
AcDbLine
 10
7.225192172052175
 20
3.575000075288272
 30
0.0
 11
5.948530224643235
 21
4.85166202269724
 31
0.0
  0
LINE
  5
F86
330
EC5
100
AcDbEntity
  8
0
 62
     0
100
AcDbLine
 10
6.776179365998729
 20
3.575000075288272
 30
0.0
 11
5.908606509079248
 21
4.442572932207752
 31
0.0
  0
LINE
  5
F87
330
EC5
100
AcDbEntity
  8
0
 62
     0
100
AcDbLine
 10
6.327166559945254
 20
3.575000075288272
 30
0.0
 11
5.908606509079248
 21
3.993560126154278
 31
0.0
  0
LINE
  5
F88
330
EC5
100
AcDbEntity
  8
0
 62
     0
100
AcDbLine
 10
34.31695015141272
 20
3.581565963847054
 30
0.0
 11
34.51454062052062
 21
3.779156432954948
 31
0.0
  0
LINE
  5
F89
330
EC5
100
AcDbEntity
  8
0
 62
     0
100
AcDbLine
 10
33.86137145680055
 20
3.575000075288272
 30
0.0
 11
34.52110650907934
 21
4.234735127567091
 31
0.0
  0
LINE
  5
F8A
330
EC5
100
AcDbEntity
  8
0
 62
     0
100
AcDbLine
 10
33.41235865074708
 20
3.575000075288301
 30
0.0
 11
34.52110650907934
 21
4.683747933620537
 31
0.0
  0
LINE
  5
F8B
330
EC5
100
AcDbEntity
  8
0
 62
     0
100
AcDbLine
 10
33.13670529070518
 20
3.748359521299846
 30
0.0
 11
34.52110650907931
 21
5.132760739674012
 31
0.0
  0
LINE
  5
F8C
330
EC5
100
AcDbEntity
  8
0
 62
     0
100
AcDbLine
 10
33.12110650907928
 20
4.181773545727423
 30
0.0
 11
34.52110650907931
 21
5.581773545727429
 31
0.0
  0
LINE
  5
F8D
330
EC5
100
AcDbEntity
  8
0
 62
     0
100
AcDbLine
 10
33.12110650907931
 20
4.630786351780869
 30
0.0
 11
34.52110650907931
 21
6.030786351780903
 31
0.0
  0
LINE
  5
F8E
330
EC5
100
AcDbEntity
  8
0
 62
     0
100
AcDbLine
 10
33.12110650907928
 20
5.079799157834344
 30
0.0
 11
34.52110650907931
 21
6.479799157834378
 31
0.0
  0
LINE
  5
F8F
330
EC5
100
AcDbEntity
  8
0
 62
     0
100
AcDbLine
 10
33.12110650907928
 20
5.52881196388779
 30
0.0
 11
34.52110650907931
 21
6.928811963887824
 31
0.0
  0
LINE
  5
F90
330
EC5
100
AcDbEntity
  8
0
 62
     0
100
AcDbLine
 10
31.33438894011192
 20
3.742094394920428
 30
0.0
 11
31.9040121894472
 21
4.311717644255736
 31
0.0
  0
LINE
  5
F91
330
EC5
100
AcDbEntity
  8
0
 62
     0
100
AcDbLine
 10
33.12110650907928
 20
5.977824769941236
 30
0.0
 11
34.52110650907931
 21
7.37782476994127
 31
0.0
  0
LINE
  5
F92
330
EC5
100
AcDbEntity
  8
0
 62
     0
100
AcDbLine
 10
30.71910485685052
 20
3.575823117712474
 30
0.0
 11
32.07028346665518
 21
4.927001727517108
 31
0.0
  0
LINE
  5
F93
330
EC5
100
AcDbEntity
  8
0
 62
     0
100
AcDbLine
 10
33.12110650907928
 20
6.42683757599471
 30
0.0
 11
34.52110650907931
 21
7.826837575994716
 31
0.0
  0
LINE
  5
F94
330
EC5
100
AcDbEntity
  8
0
 62
     0
100
AcDbLine
 10
30.2692690083729
 20
3.575000075288329
 30
0.0
 11
32.07110650907933
 21
5.376837575994727
 31
0.0
  0
LINE
  5
F95
330
EC5
100
AcDbEntity
  8
0
 62
     0
100
AcDbLine
 10
33.12110650907928
 20
6.875850382048156
 30
0.0
 11
34.52110650907929
 21
8.27585038204819
 31
0.0
  0
LINE
  5
F96
330
EC5
100
AcDbEntity
  8
0
 62
     0
100
AcDbLine
 10
29.82025620231942
 20
3.575000075288329
 30
0.0
 11
32.0711065090793
 21
5.825850382048201
 31
0.0
  0
LINE
  5
F97
330
EC5
100
AcDbEntity
  8
0
 62
     0
100
AcDbLine
 10
33.12110650907928
 20
7.324863188101602
 30
0.0
 11
34.52110650907931
 21
8.724863188101636
 31
0.0
  0
LINE
  5
F98
330
EC5
100
AcDbEntity
  8
0
 62
     0
100
AcDbLine
 10
29.37124339626595
 20
3.575000075288272
 30
0.0
 11
32.07110650907933
 21
6.274863188101647
 31
0.0
  0
LINE
  5
F99
330
EC5
100
AcDbEntity
  8
0
 62
     0
100
AcDbLine
 10
30.61881090803876
 20
5.271580393114561
 30
0.0
 11
32.07110650907933
 21
6.723875994155093
 31
0.0
  0
LINE
  5
F9A
330
EC5
100
AcDbEntity
  8
0
 62
     0
100
AcDbLine
 10
33.12110650907928
 20
7.773875994155048
 30
0.0
 11
34.52110650907931
 21
9.173875994155082
 31
0.0
  0
LINE
  5
F9B
330
EC5
100
AcDbEntity
  8
0
 62
     0
100
AcDbLine
 10
28.92223059021253
 20
3.575000075288329
 30
0.0
 11
30.37452619125301
 21
5.027295676328776
 31
0.0
  0
LINE
  5
F9C
330
EC5
100
AcDbEntity
  8
0
 62
     0
100
AcDbLine
 10
30.67110650907924
 20
5.772888800208505
 30
0.0
 11
32.0711065090793
 21
7.172888800208568
 31
0.0
  0
LINE
  5
F9D
330
EC5
100
AcDbEntity
  8
0
 62
     0
100
AcDbLine
 10
33.12110650907925
 20
8.222888800208522
 30
0.0
 11
34.52110650907929
 21
9.622888800208556
 31
0.0
  0
LINE
  5
F9E
330
EC5
100
AcDbEntity
  8
0
 62
     0
100
AcDbLine
 10
28.52919265984761
 20
3.630974950976849
 30
0.0
 11
29.87321778415903
 21
4.975000075288278
 31
0.0
  0
LINE
  5
F9F
330
EC5
100
AcDbEntity
  8
0
 62
     0
100
AcDbLine
 10
30.67110650907924
 20
6.221901606261951
 30
0.0
 11
32.0711065090793
 21
7.621901606262014
 31
0.0
  0
LINE
  5
FA0
330
EC5
100
AcDbEntity
  8
0
 62
     0
100
AcDbLine
 10
33.12110650907925
 20
8.671901606261997
 30
0.0
 11
34.52110650907929
 21
10.071901606262
 31
0.0
  0
LINE
  5
FA1
330
EC5
100
AcDbEntity
  8
0
 62
     0
100
AcDbLine
 10
28.21519922624253
 20
3.765994323425275
 30
0.0
 11
29.42464387092775
 21
4.975438968110495
 31
0.0
  0
LINE
  5
FA2
330
EC5
100
AcDbEntity
  8
0
 62
     0
100
AcDbLine
 10
30.67110650907929
 20
6.670914412315426
 30
0.0
 11
32.0711065090793
 21
8.07091441231546
 31
0.0
  0
LINE
  5
FA3
330
EC5
100
AcDbEntity
  8
0
 62
     0
100
AcDbLine
 10
33.12110650907928
 20
9.120914412315414
 30
0.0
 11
34.52110650907929
 21
10.52091441231544
 31
0.0
  0
LINE
  5
FA4
330
EC5
100
AcDbEntity
  8
0
 62
     0
100
AcDbLine
 10
27.95856928556
 20
3.958377188796134
 30
0.0
 11
29.1029045765714
 21
5.102712479807564
 31
0.0
  0
LINE
  5
FA5
330
EC5
100
AcDbEntity
  8
0
 62
     0
100
AcDbLine
 10
30.67110650907926
 20
7.1199272183689
 30
0.0
 11
32.0711065090793
 21
8.519927218368934
 31
0.0
  0
LINE
  5
FA6
330
EC5
100
AcDbEntity
  8
0
 62
     0
100
AcDbLine
 10
33.12110650907925
 20
9.569927218368889
 30
0.0
 11
34.52110650907929
 21
10.96992721836892
 31
0.0
  0
LINE
  5
FA7
330
EC5
100
AcDbEntity
  8
0
 62
     0
100
AcDbLine
 10
27.75358719794744
 20
4.202407907237045
 30
0.0
 11
28.9342854373667
 21
5.383106146656331
 31
0.0
  0
LINE
  5
FA8
330
EC5
100
AcDbEntity
  8
0
 62
     0
100
AcDbLine
 10
30.67110650907926
 20
7.568940024422346
 30
0.0
 11
32.07110650907933
 21
8.968940024422437
 31
0.0
  0
LINE
  5
FA9
330
EC5
100
AcDbEntity
  8
0
 62
     0
100
AcDbLine
 10
33.12110650907925
 20
10.01894002442233
 30
0.0
 11
34.51603193230406
 21
11.41386544764716
 31
0.0
  0
LINE
  5
FAA
330
EC5
100
AcDbEntity
  8
0
 62
     0
100
AcDbLine
 10
27.60362475873043
 20
4.501458274073542
 30
0.0
 11
28.92110650907923
 21
5.818940024422346
 31
0.0
  0
LINE
  5
FAB
330
EC5
100
AcDbEntity
  8
0
 62
     0
100
AcDbLine
 10
30.67110650907926
 20
8.017952830475792
 30
0.0
 11
32.07110650907935
 21
9.417952830475854
 31
0.0
  0
LINE
  5
FAC
330
EC5
100
AcDbEntity
  8
0
 62
     0
100
AcDbLine
 10
33.12110650907925
 20
10.46795283047578
 30
0.0
 11
34.27747475976431
 21
11.62432108116084
 31
0.0
  0
LINE
  5
FAD
330
EC5
100
AcDbEntity
  8
0
 62
     0
100
AcDbLine
 10
27.52491799125221
 20
4.871764312648735
 30
0.0
 11
28.92110650907926
 21
6.267952830475792
 31
0.0
  0
LINE
  5
FAE
330
EC5
100
AcDbEntity
  8
0
 62
     0
100
AcDbLine
 10
30.67110650907926
 20
8.466965636529266
 30
0.0
 11
32.07110650907933
 21
9.866965636529329
 31
0.0
  0
LINE
  5
FAF
330
EC5
100
AcDbEntity
  8
0
 62
     0
100
AcDbLine
 10
33.12110650907928
 20
10.91696563652928
 30
0.0
 11
33.82914094783828
 21
11.62500007528828
 31
0.0
  0
LINE
  5
FB0
330
EC5
100
AcDbEntity
  8
0
 62
     0
100
AcDbLine
 10
27.52110650907932
 20
5.316965636529289
 30
0.0
 11
28.92110650907929
 21
6.716965636529295
 31
0.0
  0
LINE
  5
FB1
330
EC5
100
AcDbEntity
  8
0
 62
     0
100
AcDbLine
 10
30.67110650907926
 20
8.915978442582712
 30
0.0
 11
32.07110650907933
 21
10.31597844258277
 31
0.0
  0
LINE
  5
FB2
330
EC5
100
AcDbEntity
  8
0
 62
     0
100
AcDbLine
 10
27.52110650907928
 20
5.765978442582763
 30
0.0
 11
28.92110650907926
 21
7.165978442582741
 31
0.0
  0
LINE
  5
FB3
330
EC5
100
AcDbEntity
  8
0
 62
     0
100
AcDbLine
 10
33.121129866453
 20
11.36600179995647
 30
0.0
 11
33.38010478441114
 21
11.62497671791459
 31
0.0
  0
LINE
  5
FB4
330
EC5
100
AcDbEntity
  8
0
 62
     0
100
AcDbLine
 10
25.36032869372329
 20
3.605200627226736
 30
0.0
 11
26.44090595714087
 21
4.685777890644345
 31
0.0
  0
LINE
  5
FB5
330
EC5
100
AcDbEntity
  8
0
 62
     0
100
AcDbLine
 10
27.52110650907928
 20
6.214991248636209
 30
0.0
 11
28.92110650907926
 21
7.614991248636215
 31
0.0
  0
LINE
  5
FB6
330
EC5
100
AcDbEntity
  8
0
 62
     0
100
AcDbLine
 10
30.67110650907929
 20
9.364991248636215
 30
0.0
 11
32.0711065090793
 21
10.76499124863625
 31
0.0
  0
LINE
  5
FB7
330
EC5
100
AcDbEntity
  8
0
 62
     0
100
AcDbLine
 10
24.88111533573138
 20
3.575000075288329
 30
0.0
 11
26.47110650907924
 21
5.164991248636169
 31
0.0
  0
LINE
  5
FB8
330
EC5
100
AcDbEntity
  8
0
 62
     0
100
AcDbLine
 10
27.52110650907928
 20
6.664004054689655
 30
0.0
 11
28.92110650907929
 21
8.064004054689632
 31
0.0
  0
LINE
  5
FB9
330
EC5
100
AcDbEntity
  8
0
 62
     0
100
AcDbLine
 10
30.67110650907929
 20
9.814004054689661
 30
0.0
 11
32.07110650907933
 21
11.21400405468969
 31
0.0
  0
LINE
  5
FBA
330
EC5
100
AcDbEntity
  8
0
 62
     0
100
AcDbLine
 10
24.4321025296779
 20
3.575000075288272
 30
0.0
 11
26.4711065090793
 21
5.614004054689644
 31
0.0
  0
LINE
  5
FBB
330
EC5
100
AcDbEntity
  8
0
 62
     0
100
AcDbLine
 10
27.52110650907928
 20
7.11301686074313
 30
0.0
 11
28.92110650907926
 21
8.513016860743107
 31
0.0
  0
LINE
  5
FBC
330
EC5
100
AcDbEntity
  8
0
 62
     0
100
AcDbLine
 10
30.67110650907929
 20
10.2630168607431
 30
0.0
 11
31.97423778166225
 21
11.56614813332609
 31
0.0
  0
LINE
  5
FBD
330
EC5
100
AcDbEntity
  8
0
 62
     0
100
AcDbLine
 10
23.98308972362446
 20
3.575000075288301
 30
0.0
 11
26.46394720887281
 21
6.055857560536651
 31
0.0
  0
LINE
  5
FBE
330
EC5
100
AcDbEntity
  8
0
 62
     0
100
AcDbLine
 10
27.52110650907928
 20
7.562029666796576
 30
0.0
 11
28.92110650907926
 21
8.962029666796581
 31
0.0
  0
LINE
  5
FBF
330
EC5
100
AcDbEntity
  8
0
 62
     0
100
AcDbLine
 10
30.67110650907926
 20
10.71202966679658
 30
0.0
 11
31.584076917571
 21
11.62500007528831
 31
0.0
  0
LINE
  5
FC0
330
EC5
100
AcDbEntity
  8
0
 62
     0
100
AcDbLine
 10
23.53407691757098
 20
3.575000075288301
 30
0.0
 11
26.39649102355844
 21
6.437414181275727
 31
0.0
  0
LINE
  5
FC1
330
EC5
100
AcDbEntity
  8
0
 62
     0
100
AcDbLine
 10
27.52110650907928
 20
8.011042472850022
 30
0.0
 11
28.92110650907926
 21
9.411042472849999
 31
0.0
  0
LINE
  5
FC2
330
EC5
100
AcDbEntity
  8
0
 62
     0
100
AcDbLine
 10
25.0711065090793
 20
5.561042472850033
 30
0.0
 11
26.27619729509916
 21
6.766133258869871
 31
0.0
  0
LINE
  5
FC3
330
EC5
100
AcDbEntity
  8
0
 62
     0
100
AcDbLine
 10
30.67110650907929
 20
11.16104247285002
 30
0.0
 11
31.13506411151758
 21
11.62500007528831
 31
0.0
  0
LINE
  5
FC4
330
EC5
100
AcDbEntity
  8
0
 62
     0
100
AcDbLine
 10
23.1491917880831
 20
3.639127751853834
 30
0.0
 11
24.48506411151754
 21
4.975000075288278
 31
0.0
  0
LINE
  5
FC5
330
EC5
100
AcDbEntity
  8
0
 62
     0
100
AcDbLine
 10
25.06117122151565
 20
6.000119991339829
 30
0.0
 11
26.11444764266889
 21
7.053396412493071
 31
0.0
  0
LINE
  5
FC6
330
EC5
100
AcDbEntity
  8
0
 62
     0
100
AcDbLine
 10
27.52110650907928
 20
8.460055278903467
 30
0.0
 11
28.92110650907929
 21
9.860055278903502
 31
0.0
  0
LINE
  5
FC7
330
EC5
100
AcDbEntity
  8
0
 62
     0
100
AcDbLine
 10
23.05860650907925
 20
3.997555278903462
 30
0.0
 11
24.03605130546407
 21
4.975000075288278
 31
0.0
  0
LINE
  5
FC8
330
EC5
100
AcDbEntity
  8
0
 62
     0
100
AcDbLine
 10
24.92397880294621
 20
6.311940378823891
 30
0.0
 11
25.91651208370498
 21
7.304473659582669
 31
0.0
  0
LINE
  5
FC9
330
EC5
100
AcDbEntity
  8
0
 62
     0
100
AcDbLine
 10
27.52110650907926
 20
8.909068084956942
 30
0.0
 11
28.92110650907929
 21
10.30906808495697
 31
0.0
  0
LINE
  5
FCA
330
EC5
100
AcDbEntity
  8
0
 62
     0
100
AcDbLine
 10
23.05860650907925
 20
4.446568084956908
 30
0.0
 11
23.58703849941062
 21
4.975000075288306
 31
0.0
  0
LINE
  5
FCB
330
EC5
100
AcDbEntity
  8
0
 62
     0
100
AcDbLine
 10
27.52110650907928
 20
9.358080891010388
 30
0.0
 11
28.92110650907932
 21
10.75808089101039
 31
0.0
  0
LINE
  5
FCC
330
EC5
100
AcDbEntity
  8
0
 62
     0
100
AcDbLine
 10
24.70334135438767
 20
6.540315736318746
 30
0.0
 11
25.69329084804886
 21
7.53026522997996
 31
0.0
  0
LINE
  5
FCD
330
EC5
100
AcDbEntity
  8
0
 62
     0
100
AcDbLine
 10
24.47883495136093
 20
6.764822139345483
 30
0.0
 11
25.46878444502209
 21
7.75477163300664
 31
0.0
  0
LINE
  5
FCE
330
EC5
100
AcDbEntity
  8
0
 62
     0
100
AcDbLine
 10
27.52110650907926
 20
9.807093697063834
 30
0.0
 11
28.92110650907929
 21
11.20709369706386
 31
0.0
  0
LINE
  5
FCF
330
EC5
100
AcDbEntity
  8
0
 62
     0
100
AcDbLine
 10
21.28901288730372
 20
3.575000075288301
 30
0.0
 11
21.74610650907928
 21
4.032093697063828
 31
0.0
  0
LINE
  5
FD0
330
EC5
100
AcDbEntity
  8
0
 62
     0
100
AcDbLine
 10
24.25432854833422
 20
6.989328542372277
 30
0.0
 11
25.24427804199536
 21
7.979278036033377
 31
0.0
  0
LINE
  5
FD1
330
EC5
100
AcDbEntity
  8
0
 62
     0
100
AcDbLine
 10
27.52110650907926
 20
10.2561065031173
 30
0.0
 11
28.82801605502996
 21
11.56301604906798
 31
0.0
  0
LINE
  5
FD2
330
EC5
100
AcDbEntity
  8
0
 62
     0
100
AcDbLine
 10
20.84000008125022
 20
3.575000075288272
 30
0.0
 11
21.74610650907931
 21
4.481106503117331
 31
0.0
  0
LINE
  5
FD3
330
EC5
100
AcDbEntity
  8
0
 62
     0
100
AcDbLine
 10
24.02982214530746
 20
7.213834945398957
 30
0.0
 11
25.01977163896862
 21
8.203784439060115
 31
0.0
  0
LINE
  5
FD4
330
EC5
100
AcDbEntity
  8
0
 62
     0
100
AcDbLine
 10
27.52110650907926
 20
10.70511930917075
 30
0.0
 11
28.44098727519682
 21
11.62500007528834
 31
0.0
  0
LINE
  5
FD5
330
EC5
100
AcDbEntity
  8
0
 62
     0
100
AcDbLine
 10
20.44679284412777
 20
3.630805644219265
 30
0.0
 11
21.74610650907928
 21
4.930119309170805
 31
0.0
  0
LINE
  5
FD6
330
EC5
100
AcDbEntity
  8
0
 62
     0
100
AcDbLine
 10
23.80531574228075
 20
7.438341348425666
 30
0.0
 11
24.79526523594191
 21
8.428290842086823
 31
0.0
  0
LINE
  5
FD7
330
EC5
100
AcDbEntity
  8
0
 62
     0
100
AcDbLine
 10
27.52110650907926
 20
11.1541321152242
 30
0.0
 11
27.9919744691434
 21
11.62500007528831
 31
0.0
  0
LINE
  5
FD8
330
EC5
100
AcDbEntity
  8
0
 62
     0
100
AcDbLine
 10
20.3461065090793
 20
3.979132115224246
 30
0.0
 11
21.74610650907931
 21
5.379132115224223
 31
0.0
  0
LINE
  5
FD9
330
EC5
100
AcDbEntity
  8
0
 62
     0
100
AcDbLine
 10
23.58080933925401
 20
7.662847751452403
 30
0.0
 11
24.57075883291517
 21
8.652797245113561
 31
0.0
  0
LINE
  5
FDA
330
EC5
100
AcDbEntity
  8
0
 62
     0
100
AcDbLine
 10
20.3461065090793
 20
4.42814492127772
 30
0.0
 11
21.74610650907928
 21
5.828144921277697
 31
0.0
  0
LINE
  5
FDB
330
EC5
100
AcDbEntity
  8
0
 62
     0
100
AcDbLine
 10
23.35731738873334
 20
7.888368606985238
 30
0.0
 11
24.34930415542436
 21
8.880355373676223
 31
0.0
  0
LINE
  5
FDC
330
EC5
100
AcDbEntity
  8
0
 62
     0
100
AcDbLine
 10
20.3461065090793
 20
4.877157727331166
 30
0.0
 11
21.74610650907928
 21
6.277157727331172
 31
0.0
  0
LINE
  5
FDD
330
EC5
100
AcDbEntity
  8
0
 62
     0
100
AcDbLine
 10
25.69394885703644
 20
10.2250000752883
 30
0.0
 11
26.20860650907931
 21
10.73965772733117
 31
0.0
  0
LINE
  5
FDE
330
EC5
100
AcDbEntity
  8
0
 62
     0
100
AcDbLine
 10
19.09977839672419
 20
3.63082961497605
 30
0.0
 11
19.1446045774517
 21
3.67565579570359
 31
0.0
  0
LINE
  5
FDF
330
EC5
100
AcDbEntity
  8
0
 62
     0
100
AcDbLine
 10
23.15831629932236
 20
8.138380323627671
 30
0.0
 11
24.20813343803166
 21
9.188197462336972
 31
0.0
  0
LINE
  5
FE0
330
EC5
100
AcDbEntity
  8
0
 62
     0
100
AcDbLine
 10
20.3461065090793
 20
5.326170533384612
 30
0.0
 11
21.74610650907931
 21
6.726170533384589
 31
0.0
  0
LINE
  5
FE1
330
EC5
100
AcDbEntity
  8
0
 62
     0
100
AcDbLine
 10
25.244936050983
 20
10.2250000752883
 30
0.0
 11
26.20860650907931
 21
11.18867053338462
 31
0.0
  0
LINE
  5
FE2
330
EC5
100
AcDbEntity
  8
0
 62
     0
100
AcDbLine
 10
18.59493605098296
 20
3.575000075288272
 30
0.0
 11
19.1278255991362
 21
4.107889623441479
 31
0.0
  0
LINE
  5
FE3
330
EC5
100
AcDbEntity
  8
0
 62
     0
100
AcDbLine
 10
22.99539916712402
 20
8.424475997482801
 30
0.0
 11
24.19610650907932
 21
9.625183339438081
 31
0.0
  0
LINE
  5
FE4
330
EC5
100
AcDbEntity
  8
0
 62
     0
100
AcDbLine
 10
20.3461065090793
 20
5.775183339438058
 30
0.0
 11
21.74610650907928
 21
7.175183339438063
 31
0.0
  0
LINE
  5
FE5
330
EC5
100
AcDbEntity
  8
0
 62
     0
100
AcDbLine
 10
24.79592324492955
 20
10.2250000752883
 30
0.0
 11
26.12527204318036
 21
11.55434887353914
 31
0.0
  0
LINE
  5
FE6
330
EC5
100
AcDbEntity
  8
0
 62
     0
100
AcDbLine
 10
18.14592324492952
 20
3.575000075288272
 30
0.0
 11
19.02006252568338
 21
4.449139356042167
 31
0.0
  0
LINE
  5
FE7
330
EC5
100
AcDbEntity
  8
0
 62
     0
100
AcDbLine
 10
20.34610650907927
 20
6.224196145491532
 30
0.0
 11
21.74610650907928
 21
7.624196145491509
 31
0.0
  0
LINE
  5
FE8
330
EC5
100
AcDbEntity
  8
0
 62
     0
100
AcDbLine
 10
22.87370813578897
 20
8.751797772201229
 30
0.0
 11
25.74691043887606
 21
11.62500007528831
 31
0.0
  0
LINE
  5
FE9
330
EC5
100
AcDbEntity
  8
0
 62
     0
100
AcDbLine
 10
17.84991608960197
 20
3.728005726014231
 30
0.0
 11
18.91229945223054
 21
4.790389088642797
 31
0.0
  0
LINE
  5
FEA
330
EC5
100
AcDbEntity
  8
0
 62
     0
100
AcDbLine
 10
20.34610650907927
 20
6.673208951545007
 30
0.0
 11
21.74610650907925
 21
8.073208951544984
 31
0.0
  0
LINE
  5
FEB
330
EC5
100
AcDbEntity
  8
0
 62
     0
100
AcDbLine
 10
22.80435470624613
 20
9.131457148711859
 30
0.0
 11
25.29789763282261
 21
11.62500007528831
 31
0.0
  0
LINE
  5
FEC
330
EC5
100
AcDbEntity
  8
0
 62
     0
100
AcDbLine
 10
17.74053637877767
 20
4.067638821243406
 30
0.0
 11
18.80453637877766
 21
5.131638821243399
 31
0.0
  0
LINE
  5
FED
330
EC5
100
AcDbEntity
  8
0
 62
     0
100
AcDbLine
 10
20.3461065090793
 20
7.122221757598424
 30
0.0
 11
21.74610650907928
 21
8.52222175759843
 31
0.0
  0
LINE
  5
FEE
330
EC5
100
AcDbEntity
  8
0
 62
     0
100
AcDbLine
 10
22.79610650907929
 20
9.572221757598413
 30
0.0
 11
24.84888482676916
 21
11.62500007528831
 31
0.0
  0
LINE
  5
FEF
330
EC5
100
AcDbEntity
  8
0
 62
     0
100
AcDbLine
 10
17.63277330532486
 20
4.408888553844008
 30
0.0
 11
18.69677330532491
 21
5.472888553844029
 31
0.0
  0
LINE
  5
FF0
330
EC5
100
AcDbEntity
  8
0
 62
     0
100
AcDbLine
 10
20.34610650907927
 20
7.571234563651898
 30
0.0
 11
21.74610650907928
 21
8.971234563651876
 31
0.0
  0
LINE
  5
FF1
330
EC5
100
AcDbEntity
  8
0
 62
     0
100
AcDbLine
 10
22.79610650907932
 20
10.02123456365191
 30
0.0
 11
24.39987202071572
 21
11.62500007528831
 31
0.0
  0
LINE
  5
FF2
330
EC5
100
AcDbEntity
  8
0
 62
     0
100
AcDbLine
 10
17.52501023187198
 20
4.75013828644461
 30
0.0
 11
18.58901023187206
 21
5.814138286444659
 31
0.0
  0
LINE
  5
FF3
330
EC5
100
AcDbEntity
  8
0
 62
     0
100
AcDbLine
 10
20.34610650907927
 20
8.020247369705344
 30
0.0
 11
21.74610650907931
 21
9.420247369705379
 31
0.0
  0
LINE
  5
FF4
330
EC5
100
AcDbEntity
  8
0
 62
     0
100
AcDbLine
 10
17.41724715841917
 20
5.091388019045268
 30
0.0
 11
18.48124715841922
 21
6.15538801904529
 31
0.0
  0
LINE
  5
FF5
330
EC5
100
AcDbEntity
  8
0
 62
     0
100
AcDbLine
 10
22.82276484413989
 20
10.49690570476599
 30
0.0
 11
23.92420087960155
 21
11.59834174022765
 31
0.0
  0
LINE
  5
FF6
330
EC5
100
AcDbEntity
  8
0
 62
     0
100
AcDbLine
 10
15.90085921466217
 20
3.575000075288272
 30
0.0
 11
16.32110650907927
 21
3.995247369705367
 31
0.0
  0
LINE
  5
FF7
330
EC5
100
AcDbEntity
  8
0
 62
     0
100
AcDbLine
 10
17.30948408496638
 20
5.43263775164587
 30
0.0
 11
18.37348408496635
 21
6.496637751645863
 31
0.0
  0
LINE
  5
FF8
330
EC5
100
AcDbEntity
  8
0
 62
     0
100
AcDbLine
 10
20.34610650907927
 20
8.46926017575879
 30
0.0
 11
21.74610650907931
 21
9.869260175758824
 31
0.0
  0
LINE
  5
FF9
330
EC5
100
AcDbEntity
  8
0
 62
     0
100
AcDbLine
 10
15.45184640860876
 20
3.575000075288244
 30
0.0
 11
16.3211065090793
 21
4.444260175758813
 31
0.0
  0
LINE
  5
FFA
330
EC5
100
AcDbEntity
  8
0
 62
     0
100
AcDbLine
 10
17.20172101151354
 20
5.7738874842465
 30
0.0
 11
18.26572101151356
 21
6.83788748424655
 31
0.0
  0
LINE
  5
FFB
330
EC5
100
AcDbEntity
  8
0
 62
     0
100
AcDbLine
 10
20.34610650907927
 20
8.918272981812265
 30
0.0
 11
21.74610650907931
 21
10.31827298181227
 31
0.0
  0
LINE
  5
FFC
330
EC5
100
AcDbEntity
  8
0
 62
     0
100
AcDbLine
 10
15.04340847638093
 20
3.61557494911392
 30
0.0
 11
16.3211065090793
 21
4.893272981812259
 31
0.0
  0
LINE
  5
FFD
330
EC5
100
AcDbEntity
  8
0
 62
     0
100
AcDbLine
 10
17.09395793806069
 20
6.115137216847131
 30
0.0
 11
18.15795793806072
 21
7.17913721684718
 31
0.0
  0
LINE
  5
FFE
330
EC5
100
AcDbEntity
  8
0
 62
     0
100
AcDbLine
 10
20.34610650907927
 20
9.367285787865711
 30
0.0
 11
21.74610650907928
 21
10.76728578786574
 31
0.0
  0
LINE
  5
FFF
330
EC5
100
AcDbEntity
  8
0
 62
     0
100
AcDbLine
 10
14.92110650907929
 20
3.942285787865728
 30
0.0
 11
16.32110650907927
 21
5.342285787865733
 31
0.0
  0
LINE
  5
1000
330
EC5
100
AcDbEntity
  8
0
 62
     0
100
AcDbLine
 10
16.98619486460788
 20
6.456386949447733
 30
0.0
 11
18.0501948646079
 21
7.520386949447782
 31
0.0
  0
LINE
  5
1001
330
EC5
100
AcDbEntity
  8
0
 62
     0
100
AcDbLine
 10
20.34610650907927
 20
9.816298593919157
 30
0.0
 11
21.74610650907931
 21
11.21629859391919
 31
0.0
  0
LINE
  5
1002
330
EC5
100
AcDbEntity
  8
0
 62
     0
100
AcDbLine
 10
14.92110650907929
 20
4.391298593919174
 30
0.0
 11
16.3211065090793
 21
5.791298593919151
 31
0.0
  0
LINE
  5
1003
330
EC5
100
AcDbEntity
  8
0
 62
     0
100
AcDbLine
 10
16.86879547112201
 20
6.788000362015367
 30
0.0
 11
18.18394250508745
 21
8.103147395980812
 31
0.0
  0
LINE
  5
1004
330
EC5
100
AcDbEntity
  8
0
 62
     0
100
AcDbLine
 10
20.3461065090793
 20
10.26531139997266
 30
0.0
 11
21.64796879783009
 21
11.56717368872341
 31
0.0
  0
LINE
  5
1005
330
EC5
100
AcDbEntity
  8
0
 62
     0
100
AcDbLine
 10
14.92110650907929
 20
4.840311399972648
 30
0.0
 11
16.32110650907927
 21
6.240311399972625
 31
0.0
  0
LINE
  5
1006
330
EC5
100
AcDbEntity
  8
0
 62
     0
100
AcDbLine
 10
16.52520278618831
 20
6.893420483135145
 30
0.0
 11
18.39117918480442
 21
8.759396881751257
 31
0.0
  0
LINE
  5
1007
330
EC5
100
AcDbEntity
  8
0
 62
     0
100
AcDbLine
 10
14.92110650907929
 20
5.289324206026094
 30
0.0
 11
16.32768610123244
 21
6.695903798179244
 31
0.0
  0
LINE
  5
1008
330
EC5
100
AcDbEntity
  8
0
 62
     0
100
AcDbLine
 10
20.3461065090793
 20
10.7143242060261
 30
0.0
 11
21.25678237834148
 21
11.62500007528831
 31
0.0
  0
LINE
  5
1009
330
EC5
100
AcDbEntity
  8
0
 62
     0
100
AcDbLine
 10
13.20678237834147
 20
3.575000075288272
 30
0.0
 11
13.69610650907929
 21
4.064324206026128
 31
0.0
  0
LINE
  5
100A
330
EC5
100
AcDbEntity
  8
0
 62
     0
100
AcDbLine
 10
14.92110650907926
 20
5.738337012079568
 30
0.0
 11
18.59841586452139
 21
9.415646367521674
 31
0.0
  0
LINE
  5
100B
330
EC5
100
AcDbEntity
  8
0
 62
     0
100
AcDbLine
 10
20.34610650907927
 20
11.16333701207958
 30
0.0
 11
20.807769572288
 21
11.62500007528831
 31
0.0
  0
LINE
  5
100C
330
EC5
100
AcDbEntity
  8
0
 62
     0
100
AcDbLine
 10
12.75776957228799
 20
3.575000075288301
 30
0.0
 11
13.69610650907929
 21
4.513337012079603
 31
0.0
  0
LINE
  5
100D
330
EC5
100
AcDbEntity
  8
0
 62
     0
100
AcDbLine
 10
14.92110650907929
 20
6.187349818132986
 30
0.0
 11
18.80565254423842
 21
10.07189585329211
 31
0.0
  0
LINE
  5
100E
330
EC5
100
AcDbEntity
  8
0
 62
     0
100
AcDbLine
 10
12.3145970784096
 20
3.580840387463325
 30
0.0
 11
13.62543936727621
 21
4.891682676329907
 31
0.0
  0
LINE
  5
100F
330
EC5
100
AcDbEntity
  8
0
 62
     0
100
AcDbLine
 10
14.92110650907926
 20
6.63636262418646
 30
0.0
 11
16.5847439601811
 21
8.300000075288295
 31
0.0
  0
LINE
  5
1010
330
EC5
100
AcDbEntity
  8
0
 62
     0
100
AcDbLine
 10
16.96673537780145
 20
8.68199149290865
 30
0.0
 11
19.01288922395542
 21
10.72814533906259
 31
0.0
  0
LINE
  5
1011
330
EC5
100
AcDbEntity
  8
0
 62
     0
100
AcDbLine
 10
11.93051681968611
 20
3.645772934793285
 30
0.0
 11
13.25974396018108
 21
4.975000075288278
 31
0.0
  0
LINE
  5
1012
330
EC5
100
AcDbEntity
  8
0
 62
     0
100
AcDbLine
 10
14.92110650907926
 20
7.085375430239935
 30
0.0
 11
16.33010179443343
 21
8.494370715594072
 31
0.0
  0
LINE
  5
1013
330
EC5
100
AcDbEntity
  8
0
 62
     0
100
AcDbLine
 10
17.17397205751842
 20
9.338240978679067
 30
0.0
 11
19.20042494985611
 21
11.36469387101678
 31
0.0
  0
LINE
  5
1014
330
EC5
100
AcDbEntity
  8
0
 62
     0
100
AcDbLine
 10
11.59994969127291
 20
3.76421861243358
 30
0.0
 11
12.81073115412763
 21
4.975000075288278
 31
0.0
  0
LINE
  5
1015
330
EC5
100
AcDbEntity
  8
0
 62
     0
100
AcDbLine
 10
14.92110650907929
 20
7.534388236293352
 30
0.0
 11
16.3211065090793
 21
8.934388236293386
 31
0.0
  0
LINE
  5
1016
330
EC5
100
AcDbEntity
  8
0
 62
     0
100
AcDbLine
 10
17.38120873723548
 20
9.994490464449569
 30
0.0
 11
19.00341901357151
 21
11.6167007407856
 31
0.0
  0
LINE
  5
1017
330
EC5
100
AcDbEntity
  8
0
 62
     0
100
AcDbLine
 10
11.31114804919076
 20
3.924429776404821
 30
0.0
 11
12.36917897843719
 21
4.982460705651277
 31
0.0
  0
LINE
  5
1018
330
EC5
100
AcDbEntity
  8
0
 62
     0
100
AcDbLine
 10
14.92110650907926
 20
7.983401042346827
 30
0.0
 11
16.3211065090793
 21
9.383401042346861
 31
0.0
  0
LINE
  5
1019
330
EC5
100
AcDbEntity
  8
0
 62
     0
100
AcDbLine
 10
17.58844541695245
 20
10.65073995021998
 30
0.0
 11
18.56270554202075
 21
11.62500007528831
 31
0.0
  0
LINE
  5
101A
330
EC5
100
AcDbEntity
  8
0
 62
     0
100
AcDbLine
 10
11.05867056599973
 20
4.120965099267266
 30
0.0
 11
12.05202090792804
 21
5.114315441195572
 31
0.0
  0
LINE
  5
101B
330
EC5
100
AcDbEntity
  8
0
 62
     0
100
AcDbLine
 10
14.92110650907926
 20
8.432413848400273
 30
0.0
 11
16.3211065090793
 21
9.832413848400307
 31
0.0
  0
LINE
  5
101C
330
EC5
100
AcDbEntity
  8
0
 62
     0
100
AcDbLine
 10
13.25192357496752
 20
6.763230914288556
 30
0.0
 11
13.83287567007906
 21
7.344183009400097
 31
0.0
  0
LINE
  5
101D
330
EC5
100
AcDbEntity
  8
0
 62
     0
100
AcDbLine
 10
17.79568209666939
 20
11.30698943599043
 30
0.0
 11
18.1136927359673
 21
11.62500007528834
 31
0.0
  0
LINE
  5
101E
330
EC5
100
AcDbEntity
  8
0
 62
     0
100
AcDbLine
 10
10.84045202933481
 20
4.351759368655848
 30
0.0
 11
11.84689543229194
 21
5.35820277161298
 31
0.0
  0
LINE
  5
101F
330
EC5
100
AcDbEntity
  8
0
 62
     0
100
AcDbLine
 10
12.7894371541526
 20
6.749757299527118
 30
0.0
 11
13.8463492848405
 21
7.806669430214981
 31
0.0
  0
LINE
  5
1020
330
EC5
100
AcDbEntity
  8
0
 62
     0
100
AcDbLine
 10
14.92110650907923
 20
8.881426654453747
 30
0.0
 11
16.32110650907927
 21
10.28142665445378
 31
0.0
  0
LINE
  5
1021
330
EC5
100
AcDbEntity
  8
0
 62
     0
100
AcDbLine
 10
10.65694241686333
 20
4.617262562237812
 30
0.0
 11
11.77110650907928
 21
5.731426654453798
 31
0.0
  0
LINE
  5
1022
330
EC5
100
AcDbEntity
  8
0
 62
     0
100
AcDbLine
 10
12.4823638694425
 20
6.891696820870407
 30
0.0
 11
13.70440976349718
 21
8.113742714925109
 31
0.0
  0
LINE
  5
1023
330
EC5
100
AcDbEntity
  8
0
 62
     0
100
AcDbLine
 10
14.92110650907926
 20
9.330439460507193
 30
0.0
 11
16.3211065090793
 21
10.73043946050719
 31
0.0
  0
LINE
  5
1024
330
EC5
100
AcDbEntity
  8
0
 62
     0
100
AcDbLine
 10
10.51128366190096
 20
4.920616613328888
 30
0.0
 11
11.77110650907928
 21
6.180439460507216
 31
0.0
  0
LINE
  5
1025
330
EC5
100
AcDbEntity
  8
0
 62
     0
100
AcDbLine
 10
12.26338390594764
 20
7.12172966342905
 30
0.0
 11
13.47437692093856
 21
8.332722678419941
 31
0.0
  0
LINE
  5
1026
330
EC5
100
AcDbEntity
  8
0
 62
     0
100
AcDbLine
 10
14.92110650907926
 20
9.779452266560639
 30
0.0
 11
16.32110650907927
 21
11.17945226656067
 31
0.0
  0
LINE
  5
1027
330
EC5
100
AcDbEntity
  8
0
 62
     0
100
AcDbLine
 10
10.41071497981363
 20
5.269060737295035
 30
0.0
 11
11.77110650907928
 21
6.62945226656069
 31
0.0
  0
LINE
  5
1028
330
EC5
100
AcDbEntity
  8
0
 62
     0
100
AcDbLine
 10
12.13535853974346
 20
7.442717103278312
 30
0.0
 11
13.15338948108927
 21
8.460748044624153
 31
0.0
  0
LINE
  5
1029
330
EC5
100
AcDbEntity
  8
0
 62
     0
100
AcDbLine
 10
10.37110650907925
 20
5.67846507261413
 30
0.0
 11
11.77110650907928
 21
7.078465072614136
 31
0.0
  0
LINE
  5
102A
330
EC5
100
AcDbEntity
  8
0
 62
     0
100
AcDbLine
 10
14.92110650907923
 20
10.22846507261411
 30
0.0
 11
16.24248145490173
 21
11.54984001843661
 31
0.0
  0
LINE
  5
102B
330
EC5
100
AcDbEntity
  8
0
 62
     0
100
AcDbLine
 10
8.328108130141458
 20
3.635466693676335
 30
0.0
 11
9.260639890691322
 21
4.567998454226199
 31
0.0
  0
LINE
  5
102C
330
EC5
100
AcDbEntity
  8
0
 62
     0
100
AcDbLine
 10
12.19456508148385
 20
7.950936451072152
 30
0.0
 11
12.64517013329546
 21
8.401541502883759
 31
0.0
  0
LINE
  5
102D
330
EC5
100
AcDbEntity
  8
0
 62
     0
100
AcDbLine
 10
10.37110650907925
 20
6.127477878667548
 30
0.0
 11
11.77110650907928
 21
7.527477878667582
 31
0.0
  0
LINE
  5
102E
330
EC5
100
AcDbEntity
  8
0
 62
     0
100
AcDbLine
 10
14.92110650907926
 20
10.67747787866753
 30
0.0
 11
15.86862870570004
 21
11.62500007528834
 31
0.0
  0
LINE
  5
102F
330
EC5
100
AcDbEntity
  8
0
 62
     0
100
AcDbLine
 10
7.818628705699978
 20
3.575000075288272
 30
0.0
 11
9.321106509079299
 21
5.077477878667593
 31
0.0
  0
LINE
  5
1030
330
EC5
100
AcDbEntity
  8
0
 62
     0
100
AcDbLine
 10
10.37110650907925
 20
6.576490684721022
 30
0.0
 11
11.77110650907928
 21
7.976490684721056
 31
0.0
  0
LINE
  5
1031
330
EC5
100
AcDbEntity
  8
0
 62
     0
100
AcDbLine
 10
14.92110650907923
 20
11.126490684721
 30
0.0
 11
15.41961589964654
 21
11.62500007528831
 31
0.0
  0
LINE
  5
1032
330
EC5
100
AcDbEntity
  8
0
 62
     0
100
AcDbLine
 10
7.369615899646532
 20
3.575000075288272
 30
0.0
 11
9.321106509079299
 21
5.526490684721068
 31
0.0
  0
LINE
  5
1033
330
EC5
100
AcDbEntity
  8
0
 62
     0
100
AcDbLine
 10
10.37110650907925
 20
7.025503490774468
 30
0.0
 11
11.77110650907926
 21
8.425503490774502
 31
0.0
  0
LINE
  5
1034
330
EC5
100
AcDbEntity
  8
0
 62
     0
100
AcDbLine
 10
6.920603093593058
 20
3.575000075288301
 30
0.0
 11
9.319136832798704
 21
5.973533814493947
 31
0.0
  0
LINE
  5
1035
330
EC5
100
AcDbEntity
  8
0
 62
     0
100
AcDbLine
 10
10.37110650907925
 20
7.474516296827943
 30
0.0
 11
11.77110650907928
 21
8.874516296827977
 31
0.0
  0
LINE
  5
1036
330
EC5
100
AcDbEntity
  8
0
 62
     0
100
AcDbLine
 10
13.12159028753964
 20
10.22500007528833
 30
0.0
 11
13.69610650907932
 21
10.79951629682798
 31
0.0
  0
LINE
  5
1037
330
EC5
100
AcDbEntity
  8
0
 62
     0
100
AcDbLine
 10
6.471590287539612
 20
3.575000075288301
 30
0.0
 11
9.264305914638043
 21
6.367715702386732
 31
0.0
  0
LINE
  5
1038
330
EC5
100
AcDbEntity
  8
0
 62
     0
100
AcDbLine
 10
10.37110650907925
 20
7.923529102881389
 30
0.0
 11
11.77110650907928
 21
9.323529102881394
 31
0.0
  0
LINE
  5
1039
330
EC5
100
AcDbEntity
  8
0
 62
     0
100
AcDbLine
 10
7.921106509079294
 20
5.473529102881428
 30
0.0
 11
9.153136542615982
 21
6.705559136418116
 31
0.0
  0
LINE
  5
103A
330
EC5
100
AcDbEntity
  8
0
 62
     0
100
AcDbLine
 10
12.67257748148614
 20
10.22500007528827
 30
0.0
 11
13.69610650907929
 21
11.24852910288143
 31
0.0
  0
LINE
  5
103B
330
EC5
100
AcDbEntity
  8
0
 62
     0
100
AcDbLine
 10
6.051440419116119
 20
3.603863012918253
 30
0.0
 11
7.422577481486143
 21
4.975000075288278
 31
0.0
  0
LINE
  5
103C
330
EC5
100
AcDbEntity
  8
0
 62
     0
100
AcDbLine
 10
10.37110650907922
 20
8.372541908934834
 30
0.0
 11
11.85401386196912
 21
9.85544926182473
 31
0.0
  0
LINE
  5
103D
330
EC5
100
AcDbEntity
  8
0
 62
     0
100
AcDbLine
 10
7.920026963274665
 20
5.921462363130245
 30
0.0
 11
8.99892077527997
 21
7.000356175135578
 31
0.0
  0
LINE
  5
103E
330
EC5
100
AcDbEntity
  8
0
 62
     0
100
AcDbLine
 10
12.14065732254289
 20
10.1420927223985
 30
0.0
 11
13.5793728016194
 21
11.58080820147498
 31
0.0
  0
LINE
  5
103F
330
EC5
100
AcDbEntity
  8
0
 62
     0
100
AcDbLine
 10
5.908606509079248
 20
3.910041908934857
 30
0.0
 11
6.973564675432726
 21
4.975000075288335
 31
0.0
  0
LINE
  5
1040
330
EC5
100
AcDbEntity
  8
0
 62
     0
100
AcDbLine
 10
7.81022545352431
 20
6.260673659433393
 30
0.0
 11
8.807799792860521
 21
7.258247998769604
 31
0.0
  0
LINE
  5
1041
330
EC5
100
AcDbEntity
  8
0
 62
     0
100
AcDbLine
 10
10.37110650907922
 20
8.821554714988309
 30
0.0
 11
13.17455186937925
 21
11.62500007528834
 31
0.0
  0
LINE
  5
1042
330
EC5
100
AcDbEntity
  8
0
 62
     0
100
AcDbLine
 10
5.908606509079248
 20
4.359054714988332
 30
0.0
 11
6.524551869379223
 21
4.975000075288306
 31
0.0
  0
LINE
  5
1043
330
EC5
100
AcDbEntity
  8
0
 62
     0
100
AcDbLine
 10
7.597098039371957
 20
6.496559051334457
 30
0.0
 11
8.587047533033143
 21
7.486508544995643
 31
0.0
  0
LINE
  5
1044
330
EC5
100
AcDbEntity
  8
0
 62
     0
100
AcDbLine
 10
10.37110650907925
 20
9.270567521041726
 30
0.0
 11
12.72553906332572
 21
11.62500007528822
 31
0.0
  0
LINE
  5
1045
330
EC5
100
AcDbEntity
  8
0
 62
     0
100
AcDbLine
 10
5.943082470089166
 20
4.842543482051667
 30
0.0
 11
6.041063102315973
 21
4.940524114278474
 31
0.0
  0
LINE
  5
1046
330
EC5
100
AcDbEntity
  8
0
 62
     0
100
AcDbLine
 10
10.38109406615754
 20
9.729567884173491
 30
0.0
 11
12.26653870019404
 21
11.61501251821002
 31
0.0
  0
LINE
  5
1047
330
EC5
100
AcDbEntity
  8
0
 62
     0
100
AcDbLine
 10
7.372591636345163
 20
6.721065454361138
 30
0.0
 11
8.362541130006405
 21
7.711014948022381
 31
0.0
  0
LINE
  5
1048
330
EC5
100
AcDbEntity
  8
0
 62
     0
100
AcDbLine
 10
10.53082578229043
 20
10.32831240635988
 30
0.0
 11
11.66779417800768
 21
11.46528080207713
 31
0.0
  0
LINE
  5
1049
330
EC5
100
AcDbEntity
  8
0
 62
     0
100
AcDbLine
 10
7.148085233318425
 20
6.945571857387875
 30
0.0
 11
8.138034726979668
 21
7.935521351049118
 31
0.0
  0
LINE
  5
104A
330
EC5
100
AcDbEntity
  8
0
 62
     0
100
AcDbLine
 10
6.923578830291802
 20
7.170078260414669
 30
0.0
 11
7.913528323952931
 21
8.16002775407577
 31
0.0
  0
LINE
  5
104B
330
EC5
100
AcDbEntity
  8
0
 62
     0
100
AcDbLine
 10
6.699072427265065
 20
7.394584663441406
 30
0.0
 11
7.689021920926194
 21
8.384534157102507
 31
0.0
  0
LINE
  5
104C
330
EC5
100
AcDbEntity
  8
0
 62
     0
100
AcDbLine
 10
6.474566024238242
 20
7.619091066468058
 30
0.0
 11
7.464515517899457
 21
8.609040560129244
 31
0.0
  0
LINE
  5
104D
330
EC5
100
AcDbEntity
  8
0
 62
     0
100
AcDbLine
 10
8.631462227005044
 20
10.22500007528833
 30
0.0
 11
9.058606509079226
 21
10.65214435736251
 31
0.0
  0
LINE
  5
104E
330
EC5
100
AcDbEntity
  8
0
 62
     0
100
AcDbLine
 10
6.250101278225628
 20
7.843639126508918
 30
0.0
 11
7.240134099941855
 21
8.833671948225145
 31
0.0
  0
LINE
  5
104F
330
EC5
100
AcDbEntity
  8
0
 62
     0
100
AcDbLine
 10
8.18244942095157
 20
10.22500007528827
 30
0.0
 11
9.058606509079282
 21
11.10115716341599
 31
0.0
  0
LINE
  5
1050
330
EC5
100
AcDbEntity
  8
0
 62
     0
100
AcDbLine
 10
6.044367315949841
 20
8.086917970286521
 30
0.0
 11
7.075185659297886
 21
9.117736313634594
 31
0.0
  0
LINE
  5
1051
330
EC5
100
AcDbEntity
  8
0
 62
     0
100
AcDbLine
 10
7.733436614898096
 20
10.22500007528827
 30
0.0
 11
9.01532705919871
 21
11.50689051958889
 31
0.0
  0
LINE
  5
1052
330
EC5
100
AcDbEntity
  8
0
 62
     0
100
AcDbLine
 10
5.874137012818607
 20
8.365700473208761
 30
0.0
 11
7.046106509079265
 21
9.537669969469448
 31
0.0
  0
LINE
  5
1053
330
EC5
100
AcDbEntity
  8
0
 62
     0
100
AcDbLine
 10
7.283190484259591
 20
10.22376675070322
 30
0.0
 11
8.684423808844684
 21
11.62500007528831
 31
0.0
  0
LINE
  5
1054
330
EC5
100
AcDbEntity
  8
0
 62
     0
100
AcDbLine
 10
5.743790364952559
 20
8.684366631396187
 30
0.0
 11
7.047339833664352
 21
9.987916100108009
 31
0.0
  0
LINE
  5
1055
330
EC5
100
AcDbEntity
  8
0
 62
     0
100
AcDbLine
 10
5.662884383828526
 20
9.0524734563256
 30
0.0
 11
8.235411002791238
 21
11.62500007528831
 31
0.0
  0
LINE
  5
1056
330
EC5
100
AcDbEntity
  8
0
 62
     0
100
AcDbLine
 10
5.646106509079288
 20
9.484708387629808
 30
0.0
 11
7.786398196737764
 21
11.62500007528831
 31
0.0
  0
LINE
  5
1057
330
EC5
100
AcDbEntity
  8
0
 62
     0
100
AcDbLine
 10
5.64610650907926
 20
9.933721193683282
 30
0.0
 11
7.337385390684318
 21
11.62500007528831
 31
0.0
  0
LINE
  5
1058
330
EC5
100
AcDbEntity
  8
0
 62
     0
100
AcDbLine
 10
5.656202514298428
 20
10.39283000495589
 30
0.0
 11
6.878276579411732
 21
11.6149040700692
 31
0.0
  0
ENDBLK
  5
105A
330
EC5
100
AcDbEntity
  8
0
100
AcDbBlockEnd
  0
BLOCK
  5
818A
330
8189
100
AcDbEntity
  8
0
100
AcDbBlockBegin
  2
*D2
 70
     1
 10
0.0
 20
0.0
 30
0.0
  3
*D2
  1

  0
LINE
  5
83DE
330
8189
100
AcDbEntity
  8
SUNPOU
100
AcDbLine
 10
166.4050882206684
 20
121.4216672954528
 30
0.0
 11
166.4050882206684
 21
140.8788492249145
 31
0.0
  0
LINE
  5
83DF
330
8189
100
AcDbEntity
  8
SUNPOU
100
AcDbLine
 10
229.805088220668
 20
121.4216672954528
 30
0.0
 11
229.805088220668
 21
140.8788492249145
 31
0.0
  0
LINE
  5
83E0
330
8189
100
AcDbEntity
  8
SUNPOU
100
AcDbLine
 10
169.4050882206683
 20
139.3788492249145
 30
0.0
 11
226.805088220668
 21
139.3788492249145
 31
0.0
  0
INSERT
  5
83E1
330
8189
100
AcDbEntity
  8
SUNPOU
100
AcDbBlockReference
  2
_OPEN
 10
166.4050882206684
 20
139.3788492249145
 30
0.0
 41
3.0
 42
3.0
 43
3.0
 50
180.0
  0
INSERT
  5
83E2
330
8189
100
AcDbEntity
  8
SUNPOU
100
AcDbBlockReference
  2
_OPEN
 10
229.805088220668
 20
139.3788492249145
 30
0.0
 41
3.0
 42
3.0
 43
3.0
  0
MTEXT
  5
83E3
330
8189
100
AcDbEntity
  8
SUNPOU
100
AcDbMText
 10
198.1050882206682
 20
141.8788492249145
 30
0.0
 40
3.0
 41
0.0
 71
     5
 72
     5
  1
\A1;φ63
 73
     1
 44
1.0
1001
ACAD
1000
MTEXTBEGIN
1070
    73
1070
     1
1070
    44
1040
1.0
1070
    74
1070
     0
1000
MTEXTEND
1000
MTEXTBEGIN
1070
    73
1070
     1
1070
    44
1040
1.0
1070
    74
1070
     0
1000
MTEXTEND
1000
MTEXTBEGIN
1070
    73
1070
     1
1070
    44
1040
1.0
1070
    74
1070
     0
1000
MTEXTEND
1000
MTEXTBEGIN
1070
    73
1070
     1
1070
    44
1040
1.0
1070
    74
1070
     0
1000
MTEXTEND
  0
POINT
  5
83E4
330
8189
100
AcDbEntity
  8
DEFPOINTS
 62
     0
100
AcDbPoint
 10
166.4050882206684
 20
119.9216672954528
 30
0.0
  0
POINT
  5
83E5
330
8189
100
AcDbEntity
  8
DEFPOINTS
 62
     0
100
AcDbPoint
 10
229.805088220668
 20
119.9216672954528
 30
0.0
  0
POINT
  5
83E6
330
8189
100
AcDbEntity
  8
DEFPOINTS
 62
     0
100
AcDbPoint
 10
229.805088220668
 20
139.3788492249145
 30
0.0
  0
ENDBLK
  5
818B
330
8189
100
AcDbEntity
  8
0
100
AcDbBlockEnd
  0
BLOCK
  5
8197
330
8196
100
AcDbEntity
  8
0
100
AcDbBlockBegin
  2
*D3
 70
     1
 10
0.0
 20
0.0
 30
0.0
  3
*D3
  1

  0
LINE
  5
8437
330
8196
100
AcDbEntity
  8
SUNPOU
100
AcDbLine
 10
231.305088220668
 20
119.9216672954528
 30
0.0
 11
254.6651449269832
 21
119.9216672954528
 31
0.0
  0
LINE
  5
8438
330
8196
100
AcDbEntity
  8
SUNPOU
100
AcDbLine
 10
231.305088220668
 20
92.92166729545284
 30
0.0
 11
254.6651449269832
 21
92.92166729545284
 31
0.0
  0
LINE
  5
8439
330
8196
100
AcDbEntity
  8
SUNPOU
100
AcDbLine
 10
253.1651449269832
 20
116.9216672954528
 30
0.0
 11
253.1651449269832
 21
95.92166729545283
 31
0.0
  0
INSERT
  5
843A
330
8196
100
AcDbEntity
  8
SUNPOU
100
AcDbBlockReference
  2
_OPEN
 10
253.1651449269832
 20
119.9216672954528
 30
0.0
 41
3.0
 42
3.0
 43
3.0
 50
90.0
  0
INSERT
  5
843B
330
8196
100
AcDbEntity
  8
SUNPOU
100
AcDbBlockReference
  2
_OPEN
 10
253.1651449269832
 20
92.92166729545284
 30
0.0
 41
3.0
 42
3.0
 43
3.0
 50
270.0
  0
MTEXT
  5
843C
330
8196
100
AcDbEntity
  8
SUNPOU
100
AcDbMText
 10
250.6651449269831
 20
106.4216672954528
 30
0.0
 40
3.0
 41
0.0
 71
     5
 72
     5
  1
\A1;27
 11
0.0000000000000001
 21
1.0
 31
0.0
 73
     1
 44
1.0
1001
ACAD
1000
MTEXTBEGIN
1070
    73
1070
     1
1070
    44
1040
1.0
1070
    74
1070
     0
1000
MTEXTEND
1000
MTEXTBEGIN
1070
    73
1070
     1
1070
    44
1040
1.0
1070
    74
1070
     0
1000
MTEXTEND
1000
MTEXTBEGIN
1070
    73
1070
     1
1070
    44
1040
1.0
1070
    74
1070
     0
1000
MTEXTEND
1000
MTEXTBEGIN
1070
    73
1070
     1
1070
    44
1040
1.0
1070
    74
1070
     0
1000
MTEXTEND
  0
POINT
  5
843D
330
8196
100
AcDbEntity
  8
DEFPOINTS
 62
     0
100
AcDbPoint
 10
229.805088220668
 20
119.9216672954528
 30
0.0
  0
POINT
  5
843E
330
8196
100
AcDbEntity
  8
DEFPOINTS
 62
     0
100
AcDbPoint
 10
229.805088220668
 20
92.92166729545284
 30
0.0
  0
POINT
  5
843F
330
8196
100
AcDbEntity
  8
DEFPOINTS
 62
     0
100
AcDbPoint
 10
253.1651449269832
 20
92.92166729545284
 30
0.0
  0
ENDBLK
  5
8198
330
8196
100
AcDbEntity
  8
0
100
AcDbBlockEnd
  0
BLOCK
  5
81A4
330
81A3
100
AcDbEntity
  8
0
100
AcDbBlockBegin
  2
*D4
 70
     1
 10
0.0
 20
0.0
 30
0.0
  3
*D4
  1

  0
LINE
  5
842E
330
81A3
100
AcDbEntity
  8
SUNPOU
100
AcDbLine
 10
231.305088220668
 20
119.9216672954528
 30
0.0
 11
262.4093871436932
 21
119.9216672954528
 31
0.0
  0
LINE
  5
842F
330
81A3
100
AcDbEntity
  8
SUNPOU
100
AcDbLine
 10
220.6050882206682
 20
72.92166729545283
 30
0.0
 11
262.4093871436932
 21
72.92166729545282
 31
0.0
  0
LINE
  5
8430
330
81A3
100
AcDbEntity
  8
SUNPOU
100
AcDbLine
 10
260.9093871436932
 20
116.9216672954528
 30
0.0
 11
260.9093871436932
 21
75.92166729545282
 31
0.0
  0
INSERT
  5
8431
330
81A3
100
AcDbEntity
  8
SUNPOU
100
AcDbBlockReference
  2
_OPEN
 10
260.9093871436932
 20
119.9216672954528
 30
0.0
 41
3.0
 42
3.0
 43
3.0
 50
90.0
  0
INSERT
  5
8432
330
81A3
100
AcDbEntity
  8
SUNPOU
100
AcDbBlockReference
  2
_OPEN
 10
260.9093871436932
 20
72.92166729545282
 30
0.0
 41
3.0
 42
3.0
 43
3.0
 50
270.0
  0
MTEXT
  5
8433
330
81A3
100
AcDbEntity
  8
SUNPOU
100
AcDbMText
 10
258.4093871436932
 20
96.42166729545287
 30
0.0
 40
3.0
 41
0.0
 71
     5
 72
     5
  1
\A1;47
 11
0.0000000000000001
 21
1.0
 31
0.0
 73
     1
 44
1.0
1001
ACAD
1000
MTEXTBEGIN
1070
    73
1070
     1
1070
    44
1040
1.0
1070
    74
1070
     0
1000
MTEXTEND
1000
MTEXTBEGIN
1070
    73
1070
     1
1070
    44
1040
1.0
1070
    74
1070
     0
1000
MTEXTEND
1000
MTEXTBEGIN
1070
    73
1070
     1
1070
    44
1040
1.0
1070
    74
1070
     0
1000
MTEXTEND
1000
MTEXTBEGIN
1070
    73
1070
     1
1070
    44
1040
1.0
1070
    74
1070
     0
1000
MTEXTEND
  0
POINT
  5
8434
330
81A3
100
AcDbEntity
  8
DEFPOINTS
 62
     0
100
AcDbPoint
 10
229.805088220668
 20
119.9216672954528
 30
0.0
  0
POINT
  5
8435
330
81A3
100
AcDbEntity
  8
DEFPOINTS
 62
     0
100
AcDbPoint
 10
219.1050882206682
 20
72.92166729545283
 30
0.0
  0
POINT
  5
8436
330
81A3
100
AcDbEntity
  8
DEFPOINTS
 62
     0
100
AcDbPoint
 10
260.9093871436932
 20
72.92166729545282
 30
0.0
  0
ENDBLK
  5
81A5
330
81A3
100
AcDbEntity
  8
0
100
AcDbBlockEnd
  0
BLOCK
  5
81F5
330
81F4
100
AcDbEntity
  8
0
100
AcDbBlockBegin
  2
*D5
 70
     1
 10
0.0
 20
0.0
 30
0.0
  3
*D5
  1

  0
LINE
  5
8440
330
81F4
100
AcDbEntity
  8
SUNPOU
100
AcDbLine
 10
177.1050882206682
 20
71.42166729545284
 30
0.0
 11
177.1050882206682
 21
49.91373579310106
 31
0.0
  0
LINE
  5
8441
330
81F4
100
AcDbEntity
  8
SUNPOU
100
AcDbLine
 10
219.1050882206682
 20
71.42166729545284
 30
0.0
 11
219.1050882206682
 21
49.91373579310106
 31
0.0
  0
LINE
  5
8442
330
81F4
100
AcDbEntity
  8
SUNPOU
100
AcDbLine
 10
180.1050882206682
 20
51.41373579310107
 30
0.0
 11
216.1050882206682
 21
51.41373579310107
 31
0.0
  0
INSERT
  5
8443
330
81F4
100
AcDbEntity
  8
SUNPOU
100
AcDbBlockReference
  2
_OPEN
 10
177.1050882206682
 20
51.41373579310107
 30
0.0
 41
3.0
 42
3.0
 43
3.0
 50
180.0
  0
INSERT
  5
8444
330
81F4
100
AcDbEntity
  8
SUNPOU
100
AcDbBlockReference
  2
_OPEN
 10
219.1050882206682
 20
51.41373579310107
 30
0.0
 41
3.0
 42
3.0
 43
3.0
  0
MTEXT
  5
8445
330
81F4
100
AcDbEntity
  8
SUNPOU
100
AcDbMText
 10
198.1050882206682
 20
53.91373579310107
 30
0.0
 40
3.0
 41
0.0
 71
     5
 72
     5
  1
\A1;\U+25A142
 73
     1
 44
1.0
1001
ACAD
1000
MTEXTBEGIN
1070
    73
1070
     1
1070
    44
1040
1.0
1070
    74
1070
     0
1000
MTEXTEND
1000
MTEXTBEGIN
1070
    73
1070
     1
1070
    44
1040
1.0
1070
    74
1070
     0
1000
MTEXTEND
1000
MTEXTBEGIN
1070
    73
1070
     1
1070
    44
1040
1.0
1070
    74
1070
     0
1000
MTEXTEND
1000
MTEXTBEGIN
1070
    73
1070
     1
1070
    44
1040
1.0
1070
    74
1070
     0
1000
MTEXTEND
  0
POINT
  5
8446
330
81F4
100
AcDbEntity
  8
DEFPOINTS
 62
     0
100
AcDbPoint
 10
177.1050882206682
 20
72.92166729545283
 30
0.0
  0
POINT
  5
8447
330
81F4
100
AcDbEntity
  8
DEFPOINTS
 62
     0
100
AcDbPoint
 10
219.1050882206682
 20
72.92166729545283
 30
0.0
  0
POINT
  5
8448
330
81F4
100
AcDbEntity
  8
DEFPOINTS
 62
     0
100
AcDbPoint
 10
219.1050882206682
 20
51.41373579310107
 30
0.0
  0
ENDBLK
  5
81F6
330
81F4
100
AcDbEntity
  8
0
100
AcDbBlockEnd
  0
BLOCK
  5
8405
330
83FB
100
AcDbEntity
  8
0
100
AcDbBlockBegin
  2
*D6
 70
     1
 10
0.0
 20
0.0
 30
0.0
  3
*D6
  1

  0
LINE
  5
8462
330
83FB
100
AcDbEntity
  8
SUNPOU
100
AcDbLine
 10
231.3050882206662
 20
119.921667295454
 30
0.0
 11
245.9492063187571
 21
119.921667295454
 31
0.0
  0
LINE
  5
8463
330
83FB
100
AcDbEntity
  8
SUNPOU
100
AcDbLine
 10
231.305088220668
 20
94.92166729545283
 30
0.0
 11
245.9492063187571
 21
94.92166729545283
 31
0.0
  0
LINE
  5
8464
330
83FB
100
AcDbEntity
  8
SUNPOU
100
AcDbLine
 10
244.4492063187571
 20
116.921667295454
 30
0.0
 11
244.4492063187571
 21
97.92166729545284
 31
0.0
  0
INSERT
  5
8465
330
83FB
100
AcDbEntity
  8
SUNPOU
100
AcDbBlockReference
  2
_OPEN
 10
244.4492063187571
 20
119.921667295454
 30
0.0
 41
3.0
 42
3.0
 43
3.0
 50
90.0
  0
INSERT
  5
8466
330
83FB
100
AcDbEntity
  8
SUNPOU
100
AcDbBlockReference
  2
_OPEN
 10
244.4492063187571
 20
94.92166729545283
 30
0.0
 41
3.0
 42
3.0
 43
3.0
 50
270.0
  0
MTEXT
  5
8467
330
83FB
100
AcDbEntity
  8
SUNPOU
100
AcDbMText
 10
241.949206318757
 20
107.4216672954535
 30
0.0
 40
3.0
 41
0.0
 71
     5
 72
     5
  1
\A1;※ 25
 11
0.0000000000000001
 21
1.0
 31
0.0
 73
     1
 44
1.0
1001
ACAD
1000
MTEXTBEGIN
1070
    73
1070
     1
1070
    44
1040
1.0
1070
    74
1070
     0
1000
MTEXTEND
1000
MTEXTBEGIN
1070
    73
1070
     1
1070
    44
1040
1.0
1070
    74
1070
     0
1000
MTEXTEND
1000
MTEXTBEGIN
1070
    73
1070
     1
1070
    44
1040
1.0
1070
    74
1070
     0
1000
MTEXTEND
1000
MTEXTBEGIN
1070
    73
1070
     1
1070
    44
1040
1.0
1070
    74
1070
     0
1000
MTEXTEND
  0
POINT
  5
8468
330
83FB
100
AcDbEntity
  8
DEFPOINTS
 62
     0
100
AcDbPoint
 10
229.8050882206662
 20
119.921667295454
 30
0.0
  0
POINT
  5
8469
330
83FB
100
AcDbEntity
  8
DEFPOINTS
 62
     0
100
AcDbPoint
 10
229.805088220668
 20
94.92166729545283
 30
0.0
  0
POINT
  5
846A
330
83FB
100
AcDbEntity
  8
DEFPOINTS
 62
     0
100
AcDbPoint
 10
244.4492063187571
 20
94.92166729545283
 30
0.0
  0
ENDBLK
  5
8406
330
83FB
100
AcDbEntity
  8
0
100
AcDbBlockEnd
  0
BLOCK
  5
8411
330
8407
100
AcDbEntity
  8
0
100
AcDbBlockBegin
  2
*D7
 70
     1
 10
0.0
 20
0.0
 30
0.0
  3
*D7
  1

  0
LINE
  5
841C
330
8407
100
AcDbEntity
  8
SUNPOU
100
AcDbLine
 10
231.3050882206672
 20
92.92166729545407
 30
0.0
 11
245.9492063187581
 21
92.92166729545407
 31
0.0
  0
LINE
  5
841D
330
8407
100
AcDbEntity
  8
SUNPOU
100
AcDbLine
 10
231.305088220668
 20
72.92166729545407
 30
0.0
 11
245.9492063187581
 21
72.92166729545407
 31
0.0
  0
LINE
  5
841E
330
8407
100
AcDbEntity
  8
SUNPOU
100
AcDbLine
 10
244.4492063187581
 20
89.92166729545408
 30
0.0
 11
244.4492063187581
 21
75.92166729545407
 31
0.0
  0
INSERT
  5
841F
330
8407
100
AcDbEntity
  8
SUNPOU
100
AcDbBlockReference
  2
_OPEN
 10
244.4492063187581
 20
92.92166729545407
 30
0.0
 41
3.0
 42
3.0
 43
3.0
 50
90.0
  0
INSERT
  5
8420
330
8407
100
AcDbEntity
  8
SUNPOU
100
AcDbBlockReference
  2
_OPEN
 10
244.4492063187581
 20
72.92166729545407
 30
0.0
 41
3.0
 42
3.0
 43
3.0
 50
270.0
  0
MTEXT
  5
8421
330
8407
100
AcDbEntity
  8
SUNPOU
100
AcDbMText
 10
241.9492063187581
 20
82.92166729545412
 30
0.0
 40
3.0
 41
0.0
 71
     5
 72
     5
  1
\A1;※ 20
 11
0.0000000000000001
 21
1.0
 31
0.0
 73
     1
 44
1.0
1001
ACAD
1000
MTEXTBEGIN
1070
    73
1070
     1
1070
    44
1040
1.0
1070
    74
1070
     0
1000
MTEXTEND
1000
MTEXTBEGIN
1070
    73
1070
     1
1070
    44
1040
1.0
1070
    74
1070
     0
1000
MTEXTEND
1000
MTEXTBEGIN
1070
    73
1070
     1
1070
    44
1040
1.0
1070
    74
1070
     0
1000
MTEXTEND
1000
MTEXTBEGIN
1070
    73
1070
     1
1070
    44
1040
1.0
1070
    74
1070
     0
1000
MTEXTEND
  0
POINT
  5
8422
330
8407
100
AcDbEntity
  8
DEFPOINTS
 62
     0
100
AcDbPoint
 10
229.8050882206672
 20
92.92166729545407
 30
0.0
  0
POINT
  5
8423
330
8407
100
AcDbEntity
  8
DEFPOINTS
 62
     0
100
AcDbPoint
 10
229.805088220668
 20
72.92166729545407
 30
0.0
  0
POINT
  5
8424
330
8407
100
AcDbEntity
  8
DEFPOINTS
 62
     0
100
AcDbPoint
 10
244.4492063187581
 20
72.92166729545407
 30
0.0
  0
ENDBLK
  5
8412
330
8407
100
AcDbEntity
  8
0
100
AcDbBlockEnd
  0
BLOCK
  5
8459
330
8453
100
AcDbEntity
  8
0
100
AcDbBlockBegin
  2
*D8
 70
     1
 10
0.0
 20
0.0
 30
0.0
  3
*D8
  1

  0
LINE
  5
860F
330
8453
100
AcDbEntity
  8
SUNPOU
100
AcDbLine
 10
174.410721232354
 20
184.8277961197573
 30
0.0
 11
221.7994552089824
 21
211.1326985543295
 31
0.0
  0
MTEXT
  5
8610
330
8453
100
AcDbEntity
  8
SUNPOU
100
AcDbMText
 10
209.70840782164
 20
207.7012314984505
 30
0.0
 40
3.0
 41
0.0
 71
     5
 72
     5
  1
\A1;\U+220560
 11
0.8743308851776435
 21
0.4853303032208871
 31
0.0
 73
     1
 44
1.0
  0
INSERT
  5
8611
330
8453
100
AcDbEntity
  8
SUNPOU
100
AcDbBlockReference
  2
_OPEN
 10
171.7877285768211
 20
183.3718052100946
 30
0.0
 41
3.0
 42
3.0
 43
3.0
 50
209.0341152416263
  0
INSERT
  5
8612
330
8453
100
AcDbEntity
  8
SUNPOU
100
AcDbBlockReference
  2
_OPEN
 10
224.4224478645154
 20
212.5886894639921
 30
0.0
 41
3.0
 42
3.0
 43
3.0
 50
29.03411524162626
  0
POINT
  5
8613
330
8453
100
AcDbEntity
  8
DEFPOINTS
 62
     0
100
AcDbPoint
 10
224.4224478645154
 20
212.5886894639921
 30
0.0
  0
POINT
  5
8614
330
8453
100
AcDbEntity
  8
DEFPOINTS
 62
     0
100
AcDbPoint
 10
171.7877285768211
 20
183.3718052100946
 30
0.0
  0
ENDBLK
  5
845A
330
8453
100
AcDbEntity
  8
0
100
AcDbBlockEnd
  0
ENDSEC
  0
SECTION
  2
ENTITIES
  0
LWPOLYLINE
  5
D87
330
1A
100
AcDbEntity
  8
ZUWAKU
100
AcDbPolyline
 90
        4
 70
     1
 43
0.0
 10
0.4000004316886816
 20
275.4000000752883
 10
0.4000004316886816
 20
0.4000000752883466
 10
398.4000004316886
 20
0.4000000752883466
 10
398.4000004316886
 20
275.4000000752883
  0
LWPOLYLINE
  5
D88
330
1A
100
AcDbEntity
  8
ZUWAKU
100
AcDbPolyline
 90
        4
 70
     1
 43
0.0
 10
0.200000431688693
 20
275.6000000752883
 10
0.200000431688693
 20
0.2000000752883579
 10
398.6000004316887
 20
0.2000000752883464
 10
398.6000004316887
 20
275.6000000752883
  0
LWPOLYLINE
  5
D89
330
1A
100
AcDbEntity
  8
ZUWAKU
100
AcDbPolyline
 90
        4
 70
     1
 43
0.0
 10
0.0000004316887043
 20
275.8000000752883
 10
0.0000004316887043
 20
0.0000000752883125
 10
398.8000004316887
 20
0.0000000752883462
 10
398.8000004316887
 20
275.8000000752883
  0
LWPOLYLINE
  5
D8A
330
1A
100
AcDbEntity
  8
ZUWAKU
100
AcDbPolyline
 90
        4
 70
     1
 43
0.0
 10
0.3000004316886589
 20
275.5000000752883
 10
0.3000004316886589
 20
0.3000000752883238
 10
398.5000004316887
 20
0.3000000752883469
 10
398.5000004316887
 20
275.5000000752883
  0
LWPOLYLINE
  5
D8B
330
1A
100
AcDbEntity
  8
ZUWAKU
100
AcDbPolyline
 90
        4
 70
     1
 43
0.0
 10
0.1000004316886702
 20
275.7000000752883
 10
0.1000004316886702
 20
0.1000000752883352
 10
398.7000004316886
 20
0.1000000752883468
 10
398.7000004316887
 20
275.7000000752883
  0
LINE
  5
D8C
330
1A
100
AcDbEntity
  8
ZUWAKU
100
AcDbLine
 10
0.0000004316887043
 20
15.00000007528831
 30
0.0
 11
398.7000004316886
 21
15.00000007528831
 31
0.0
  0
LINE
  5
D8D
330
1A
100
AcDbEntity
  8
ZUWAKU
100
AcDbLine
 10
0.0000004316887043
 20
15.10000007528831
 30
0.0
 11
398.7000004316886
 21
15.10000007528831
 31
0.0
  0
LINE
  5
D8E
330
1A
100
AcDbEntity
  8
ZUWAKU
100
AcDbLine
 10
0.0000004316887043
 20
15.20000007528831
 30
0.0
 11
398.7000004316886
 21
15.20000007528831
 31
0.0
  0
LINE
  5
D8F
330
1A
100
AcDbEntity
  8
ZUWAKU
100
AcDbLine
 10
0.0000004316887043
 20
15.30000007528831
 30
0.0
 11
398.7000004316886
 21
15.30000007528831
 31
0.0
  0
LINE
  5
D90
330
1A
100
AcDbEntity
  8
ZUWAKU
100
AcDbLine
 10
0.0000004316887043
 20
15.40000007528831
 30
0.0
 11
398.7000004316886
 21
15.40000007528831
 31
0.0
  0
LINE
  5
D91
330
1A
100
AcDbEntity
  8
ZUWAKU
100
AcDbLine
 10
104.3233010767227
 20
7.700000075288329
 30
0.0
 11
223.7121824171844
 21
7.700000075288329
 31
0.0
  0
LINE
  5
D92
330
1A
100
AcDbEntity
  8
ZUWAKU
100
AcDbLine
 10
104.3233010767227
 20
7.800000075288329
 30
0.0
 11
223.7121824171844
 21
7.800000075288332
 31
0.0
  0
LINE
  5
D93
330
1A
100
AcDbEntity
  8
ZUWAKU
100
AcDbLine
 10
104.3233010767227
 20
7.600000075288331
 30
0.0
 11
223.7121824171844
 21
7.600000075288328
 31
0.0
  0
TEXT
  5
D94
330
1A
100
AcDbEntity
  8
moji
100
AcDbText
 10
46.47889522577327
 20
6.760517754256795
 30
0.0
 40
3.0
  1
たてとい ユニシェイプ ＵＳＴ４２
 41
0.9
  7
MSｺﾞｼｯｸ
100
AcDbText
  0
CIRCLE
  5
D95
330
1A
100
AcDbEntity
  8
ZUWAKU
100
AcDbCircle
 10
12.99610650907925
 20
7.600000075288313
 30
0.0
 40
0.875
  0
LINE
  5
D96
330
1A
100
AcDbEntity
  8
ZUWAKU
100
AcDbLine
 10
13.43360650907925
 20
3.575000075288315
 30
0.0
 11
12.47110650907927
 21
3.575000075288315
 31
0.0
  0
LINE
  5
D97
330
1A
100
AcDbEntity
  8
ZUWAKU
100
AcDbLine
 10
12.47110650907927
 20
4.975000075288313
 30
0.0
 11
13.43360650907925
 21
4.975000075288313
 31
0.0
  0
LINE
  5
D98
330
1A
100
AcDbEntity
  8
ZUWAKU
100
AcDbLine
 10
13.43360650907925
 20
10.22500007528831
 30
0.0
 11
12.47110650907927
 21
10.22500007528831
 31
0.0
  0
LINE
  5
D99
330
1A
100
AcDbEntity
  8
ZUWAKU
100
AcDbLine
 10
12.47110650907927
 20
11.62500007528829
 30
0.0
 11
13.43360650907925
 21
11.62500007528831
 31
0.0
  0
INSERT
  5
D9A
330
1A
100
AcDbEntity
  8
ZUWAKU
  6
Continuous
100
AcDbBlockReference
  2
*X1
 10
0.0
 20
0.0
 30
0.0
1001
ACAD
1000
HATCH
1002
{
1070
    19
1000
ANSI37
1040
0.1
1040
0.0
1000
R14_HATCH_DATA
1000
D9A
1011
1.0
1021
0.0
1031
0.0
1011
0.0
1021
1.0
1031
0.0
1011
0.0
1021
0.0
1031
1.0
1040
0.0
1010
0.0
1020
0.0
1030
1.0
1000
ANSI37
1070
     0
1070
     0
1071
        8
1071
        7
1070
     1
1070
     1
1071
       24
1040
7.251131762248633
1040
8.822424315780104
1040
-0.1989123673796348
1040
7.046106509079265
1040
9.317399062610629
1040
0.0
1040
7.046106509079265
1040
9.962500075288318
1040
-0.4142135623730912
1040
7.308606509079254
1040
10.22500007528831
1040
0.0
1040
8.796106509079208
1040
10.22500007528831
1040
0.4142135623731546
1040
9.058606509079254
1040
10.4875000752883
1040
0.0
1040
9.058606509079254
1040
11.36250007528831
1040
0.4142135623731586
1040
8.796106509079208
1040
11.62500007528831
1040
0.0
1040
7.046106509079265
1040
11.62500007528831
1040
0.4142135623730928
1040
5.646106509079288
1040
10.22500007528832
1040
0.0
1040
5.646106509079288
1040
9.317399062610693
1040
0.1989123673796619
1040
6.261182268587504
1040
7.832474822118889
1040
0.0
1040
7.716081255909841
1040
6.37757583479656
1040
-0.1989123673796613
1040
7.921106509079265
1040
5.882601087965968
1040
0.0
1040
7.921106509079265
1040
5.237500075288309
1040
-0.4142135623730911
1040
7.658606509079277
1040
4.975000075288313
1040
0.0
1040
6.171106509079322
1040
4.975000075288313
1040
0.4142135623731526
1040
5.908606509079277
1040
4.712500075288319
1040
0.0
1040
5.908606509079277
1040
3.837500075288309
1040
0.4142135623731526
1040
6.171106509079322
1040
3.575000075288315
1040
0.0
1040
7.921106509079265
1040
3.575000075288315
1040
0.4142135623731044
1040
9.321106509079299
1040
4.975000075288303
1040
0.0
1040
9.321106509079299
1040
5.882601087965939
1040
0.1989123673796604
1040
8.706030749571027
1040
7.367525328457709
1040
0.0
1071
        0
1071
        7
1070
     1
1070
     1
1071
       16
1040
11.77110650907928
1040
9.525000075288318
1040
-0.4142135623730935
1040
12.47110650907927
1040
10.22500007528831
1040
0.0
1040
13.43360650907925
1040
10.22500007528831
1040
0.4142135623731546
1040
13.69610650907929
1040
10.4875000752883
1040
0.0
1040
13.69610650907929
1040
11.36250007528831
1040
0.4142135623730951
1040
13.43360650907931
1040
11.62500007528831
1040
0.0
1040
12.47110650907922
1040
11.62500007528829
1040
0.4142135623730892
1040
10.37110650907925
1040
9.525000075288282
1040
0.0
1040
10.37110650907925
1040
5.675000075288327
1040
0.4142135623730969
1040
12.47110650907927
1040
3.575000075288315
1040
0.0
1040
13.43360650907925
1040
3.575000075288315
1040
0.4142135623731526
1040
13.69610650907929
1040
3.837500075288309
1040
0.0
1040
13.69610650907929
1040
4.712500075288319
1040
0.4142135623730891
1040
13.43360650907931
1040
4.975000075288313
1040
0.0
1040
12.47110650907927
1040
4.975000075288313
1040
-0.4142135623730928
1040
11.77110650907928
1040
5.675000075288307
1040
0.0
1071
        0
1071
        7
1070
     1
1070
     1
1071
        2
1040
12.12110650907925
1040
7.600000075288313
1040
1.0
1040
13.87110650907925
1040
7.600000075288313
1040
1.0
1071
        0
1071
        7
1070
     1
1070
     1
1071
       26
1040
18.65742975016826
1040
9.602523672070027
1040
0.0
1040
19.18824956673716
1040
11.28345309120482
1040
0.5069206636600134
1040
18.93793411713949
1040
11.62500007528831
1040
0.0
1040
18.08848942733487
1040
11.62500007528831
1040
0.3272098845218764
1040
17.83817397773719
1040
11.44154705937179
1040
0.0
1040
16.9040390404213
1040
8.483453091204854
1040
-0.3272098845219541
1040
16.65372359082357
1040
8.300000075288313
1040
0.0
1040
16.58360650907934
1040
8.300000075288313
1040
-0.4142135623731526
1040
16.3211065090793
1040
8.562500075288307
1040
0.0
1040
16.3211065090793
1040
11.36250007528831
1040
0.4142135623730951
1040
16.05860650907931
1040
11.62500007528831
1040
0.0
1040
15.18360650907925
1040
11.62500007528831
1040
0.4142135623730871
1040
14.92110650907926
1040
11.36250007528832
1040
0.0
1040
14.92110650907926
1040
3.837500075288309
1040
0.4142135623730891
1040
15.18360650907925
1040
3.575000075288315
1040
0.0
1040
16.05860650907925
1040
3.575000075288315
1040
0.4142135623731526
1040
16.3211065090793
1040
3.837500075288309
1040
0.0
1040
16.3211065090793
1040
6.63750007528832
1040
-0.4142135623731526
1040
16.58360650907934
1040
6.900000075288314
1040
0.0
1040
16.65372359082363
1040
6.900000075288314
1040
-0.3272098845218915
1040
16.9040390404213
1040
6.716547059371777
1040
0.0
1040
17.83817397773719
1040
3.758453091204851
1040
0.3272098845218902
1040
18.08848942733487
1040
3.575000075288315
1040
0.0
1040
18.93793411713949
1040
3.575000075288315
1040
0.5069206636600335
1040
19.18824956673716
1040
3.916547059371819
1040
0.0
1040
18.02505387750034
1040
7.600000075288383
1040
0.0
1071
        0
1071
        7
1070
     1
1070
     1
1071
        8
1040
21.74610650907925
1040
11.36250007528831
1040
0.4142135623731546
1040
21.48360650907921
1040
11.62500007528831
1040
0.0
1040
20.60860650907932
1040
11.62500007528831
1040
0.4142135623731507
1040
20.34610650907927
1040
11.36250007528832
1040
0.0
1040
20.34610650907927
1040
3.837500075288309
1040
0.4142135623731526
1040
20.60860650907932
1040
3.575000075288315
1040
0.0
1040
21.48360650907921
1040
3.575000075288315
1040
0.4142135623731526
1040
21.74610650907925
1040
3.837500075288309
1040
0.0
1071
        0
1071
        7
1070
     1
1070
     1
1071
       24
1040
24.1961065090793
1040
9.962500075288318
1040
-0.4142135623731546
1040
24.45860650907934
1040
10.22500007528831
1040
0.0
1040
25.9461065090793
1040
10.22500007528831
1040
0.4142135623730911
1040
26.20860650907928
1040
10.4875000752883
1040
0.0
1040
26.20860650907928
1040
11.36250007528831
1040
0.4142135623730952
1040
25.9461065090793
1040
11.62500007528831
1040
0.0
1040
24.1961065090793
1040
11.62500007528831
1040
0.4142135623731048
1040
22.79610650907926
1040
10.22500007528832
1040
0.0
1040
22.79610650907926
1040
9.317399062610693
1040
0.1989123673796613
1040
23.41118226858753
1040
7.832474822118918
1040
0.0
1040
24.86608125590987
1040
6.377575834796584
1040
-0.1989123673796402
1040
25.0711065090793
1040
5.882601087966047
1040
0.0
1040
25.0711065090793
1040
5.237500075288309
1040
-0.4142135623730911
1040
24.80860650907931
1040
4.975000075288313
1040
0.0
1040
23.32110650907929
1040
4.975000075288313
1040
0.4142135623731526
1040
23.05860650907925
1040
4.712500075288319
1040
0.0
1040
23.05860650907925
1040
3.837500075288309
1040
0.4142135623730891
1040
23.32110650907924
1040
3.575000075288315
1040
0.0
1040
25.0711065090793
1040
3.575000075288315
1040
0.4142135623730925
1040
26.47110650907928
1040
4.975000075288303
1040
0.0
1040
26.47110650907928
1040
5.882601087965939
1040
0.1989123673796675
1040
25.856030749571
1040
7.367525328457766
1040
0.0
1040
24.40113176224872
1040
8.822424315780024
1040
-0.1989123673796652
1040
24.1961065090793
1040
9.317399062610608
1040
0.0
1071
        0
1071
        7
1070
     1
1070
     1
1071
       16
1040
28.92110650907926
1040
11.36250007528831
1040
0.414213562373103
1040
28.65860650907928
1040
11.62500007528831
1040
0.0
1040
27.78360650907927
1040
11.62500007528831
1040
0.4142135623730871
1040
27.52110650907928
1040
11.36250007528832
1040
0.0
1040
27.52110650907928
1040
4.975000075288303
1040
0.4142135623730926
1040
28.92110650907926
1040
3.575000075288315
1040
0.0
1040
30.67110650907926
1040
3.575000075288315
1040
0.4142135623731044
1040
32.0711065090793
1040
4.975000075288303
1040
0.0
1040
32.0711065090793
1040
11.36250007528831
1040
0.4142135623730951
1040
31.80860650907931
1040
11.62500007528831
1040
0.0
1040
30.93360650907925
1040
11.62500007528831
1040
0.4142135623730871
1040
30.67110650907926
1040
11.36250007528832
1040
0.0
1040
30.67110650907926
1040
5.500000075288301
1040
-0.414213562373088
1040
30.14610650907929
1040
4.975000075288313
1040
0.0
1040
29.4461065090793
1040
4.975000075288313
1040
-0.4142135623731197
1040
28.92110650907926
1040
5.500000075288301
1040
0.0
1071
        0
1071
        7
1070
     1
1070
     1
1071
        8
1040
34.52110650907929
1040
11.36250007528832
1040
0.4142135623730871
1040
34.2586065090793
1040
11.62500007528831
1040
0.0
1040
33.38360650907929
1040
11.62500007528831
1040
0.4142135623731507
1040
33.12110650907925
1040
11.36250007528832
1040
0.0
1040
33.12110650907925
1040
3.837500075288309
1040
0.4142135623730891
1040
33.38360650907924
1040
3.575000075288315
1040
0.0
1040
34.2586065090793
1040
3.575000075288315
1040
0.4142135623730891
1040
34.52110650907929
1040
3.837500075288309
1040
0.0
1071
        0
1070
     0
1070
     1
1040
0.0
1040
0.1
1070
     0
1070
     2
1040
0.7853981633974483
1040
-450.4711517356508
1040
-6.599999924711653
1040
-0.2245064030267288
1040
0.2245064030267288
1070
     0
1040
2.356194490192344
1040
-450.4711517356508
1040
-6.599999924711653
1040
-0.2245064030267288
1040
-0.2245064030267288
1070
     0
1040
0.057451373970553
1071
        8
1040
8.039927913200358
1040
7.583586898231089
1040
0.0
1040
11.20225793490828
1040
9.422031166513818
1040
0.0
1040
12.58218437451853
1040
7.755940898323672
1040
0.0
1040
15.45703042250727
1040
8.100648898509064
1040
0.0
1040
20.91923644116707
1040
8.330455032279871
1040
0.0
1040
23.44910087925347
1040
9.709288233491918
1040
0.0
1040
28.27884341788887
1040
9.36457903283582
1040
0.0
1040
33.91354024150007
1040
9.594385166606627
1040
0.0
1002
}
  0
ARC
  5
D9B
330
1A
100
AcDbEntity
  8
ZUWAKU
100
AcDbCircle
 10
7.746106509079254
 20
9.317399062610665
 30
0.0
 40
2.099999999999999
100
AcDbArc
 50
180.0
 51
225.0
  0
LINE
  5
D9C
330
1A
100
AcDbEntity
  8
ZUWAKU
100
AcDbLine
 10
10.37110650907925
 20
5.675000075288316
 30
0.0
 11
10.37110650907925
 21
9.525000075288293
 31
0.0
  0
LINE
  5
D9D
330
1A
100
AcDbEntity
  8
ZUWAKU
100
AcDbLine
 10
11.77110650907928
 20
9.525000075288314
 30
0.0
 11
11.77110650907928
 21
5.675000075288316
 31
0.0
  0
ARC
  5
D9E
330
1A
100
AcDbEntity
  8
ZUWAKU
100
AcDbCircle
 10
7.746106509079254
 20
9.317399062610665
 30
0.0
 40
0.7
100
AcDbArc
 50
180.0000000000016
 51
224.9999999999988
  0
ARC
  5
D9F
330
1A
100
AcDbEntity
  8
ZUWAKU
100
AcDbCircle
 10
12.47110650907927
 20
5.675000075288316
 30
0.0
 40
2.099999999999999
100
AcDbArc
 50
180.0
 51
270.0
  0
ARC
  5
DA0
330
1A
100
AcDbEntity
  8
ZUWAKU
100
AcDbCircle
 10
7.921106509079265
 20
4.975000075288313
 30
0.0
 40
1.399999999999999
100
AcDbArc
 50
270.0
 51
0.0
  0
ARC
  5
DA1
330
1A
100
AcDbEntity
  8
ZUWAKU
100
AcDbCircle
 10
7.221106509079277
 20
5.882601087965966
 30
0.0
 40
2.099999999999999
100
AcDbArc
 50
0.0
 51
45.0
  0
LINE
  5
DA2
330
1A
100
AcDbEntity
  8
ZUWAKU
100
AcDbLine
 10
6.261182268587504
 20
7.832474822118904
 30
0.0
 11
7.716081255909841
 21
6.377575834796573
 31
0.0
  0
LINE
  5
DA3
330
1A
100
AcDbEntity
  8
ZUWAKU
100
AcDbLine
 10
6.171106509079265
 20
4.975000075288313
 30
0.0
 11
7.658606509079277
 21
4.975000075288313
 31
0.0
  0
LINE
  5
DA4
330
1A
100
AcDbEntity
  8
ZUWAKU
100
AcDbLine
 10
6.171106509079265
 20
3.575000075288315
 30
0.0
 11
7.921106509079265
 21
3.575000075288315
 31
0.0
  0
ARC
  5
DA5
330
1A
100
AcDbEntity
  8
ZUWAKU
100
AcDbCircle
 10
6.171106509079265
 20
4.712500075288314
 30
0.0
 40
0.2625
100
AcDbArc
 50
90.0
 51
180.0
  0
ARC
  5
DA6
330
1A
100
AcDbEntity
  8
ZUWAKU
100
AcDbCircle
 10
6.171106509079265
 20
3.837500075288314
 30
0.0
 40
0.2625
100
AcDbArc
 50
180.0
 51
270.0
  0
LINE
  5
DA7
330
1A
100
AcDbEntity
  8
ZUWAKU
100
AcDbLine
 10
5.908606509079277
 20
3.837500075288314
 30
0.0
 11
5.908606509079277
 21
4.712500075288314
 31
0.0
  0
ARC
  5
DA8
330
1A
100
AcDbEntity
  8
ZUWAKU
100
AcDbCircle
 10
7.221106509079277
 20
5.882601087965987
 30
0.0
 40
0.7
100
AcDbArc
 50
0.0
 51
45.0
  0
ARC
  5
DA9
330
1A
100
AcDbEntity
  8
ZUWAKU
100
AcDbCircle
 10
7.658606509079277
 20
5.237500075288316
 30
0.0
 40
0.2625
100
AcDbArc
 50
270.0
 51
0.0
  0
LINE
  5
DAA
330
1A
100
AcDbEntity
  8
ZUWAKU
100
AcDbLine
 10
7.921106509079265
 20
5.237500075288316
 30
0.0
 11
7.921106509079265
 21
5.882601087965987
 31
0.0
  0
LINE
  5
DAB
330
1A
100
AcDbEntity
  8
ZUWAKU
100
AcDbLine
 10
8.706030749571027
 20
7.367525328457727
 30
0.0
 11
7.251131762248689
 21
8.822424315780065
 31
0.0
  0
ARC
  5
DAC
330
1A
100
AcDbEntity
  8
ZUWAKU
100
AcDbCircle
 10
12.47110650907927
 20
5.675000075288316
 30
0.0
 40
0.7
100
AcDbArc
 50
180.0
 51
270.0
  0
LINE
  5
DAD
330
1A
100
AcDbEntity
  8
ZUWAKU
100
AcDbLine
 10
9.321106509079299
 20
4.975000075288313
 30
0.0
 11
9.321106509079299
 21
5.882601087965987
 31
0.0
  0
ARC
  5
DAE
330
1A
100
AcDbEntity
  8
ZUWAKU
100
AcDbCircle
 10
8.796106509079265
 20
10.48750007528831
 30
0.0
 40
0.2625
100
AcDbArc
 50
270.0
 51
0.0
  0
ARC
  5
DAF
330
1A
100
AcDbEntity
  8
ZUWAKU
100
AcDbCircle
 10
8.796106509079265
 20
11.36250007528831
 30
0.0
 40
0.2625
100
AcDbArc
 50
0.0
 51
90.0
  0
ARC
  5
DB0
330
1A
100
AcDbEntity
  8
ZUWAKU
100
AcDbCircle
 10
7.046106509079265
 20
10.22500007528831
 30
0.0
 40
1.399999999999999
100
AcDbArc
 50
90.0
 51
180.0
  0
LINE
  5
DB1
330
1A
100
AcDbEntity
  8
ZUWAKU
100
AcDbLine
 10
5.646106509079288
 20
10.22500007528831
 30
0.0
 11
5.646106509079288
 21
9.317399062610643
 31
0.0
  0
LINE
  5
DB2
330
1A
100
AcDbEntity
  8
ZUWAKU
100
AcDbLine
 10
8.796106509079265
 20
10.22500007528831
 30
0.0
 11
7.308606509079254
 21
10.22500007528831
 31
0.0
  0
LINE
  5
DB3
330
1A
100
AcDbEntity
  8
ZUWAKU
100
AcDbLine
 10
7.046106509079265
 20
9.962500075288314
 30
0.0
 11
7.046106509079265
 21
9.317399062610643
 31
0.0
  0
ARC
  5
DB4
330
1A
100
AcDbEntity
  8
ZUWAKU
100
AcDbCircle
 10
7.308606509079254
 20
9.962500075288314
 30
0.0
 40
0.2625
100
AcDbArc
 50
90.0
 51
180.0
  0
LINE
  5
DB5
330
1A
100
AcDbEntity
  8
ZUWAKU
100
AcDbLine
 10
7.046106509079265
 20
11.62500007528831
 30
0.0
 11
8.796106509079265
 21
11.62500007528831
 31
0.0
  0
ARC
  5
DB6
330
1A
100
AcDbEntity
  8
ZUWAKU
100
AcDbCircle
 10
12.47110650907927
 20
9.525000075288293
 30
0.0
 40
2.099999999999999
100
AcDbArc
 50
90.0
 51
180.0
  0
ARC
  5
DB7
330
1A
100
AcDbEntity
  8
ZUWAKU
100
AcDbCircle
 10
12.47110650907927
 20
9.525000075288314
 30
0.0
 40
0.7
100
AcDbArc
 50
90.0
 51
180.0
  0
LINE
  5
DB8
330
1A
100
AcDbEntity
  8
ZUWAKU
100
AcDbLine
 10
9.058606509079254
 20
11.36250007528831
 30
0.0
 11
9.058606509079254
 21
10.48750007528831
 31
0.0
  0
LINE
  5
DB9
330
1A
100
AcDbEntity
  8
ZUWAKU
100
AcDbLine
 10
17.83817397773719
 20
11.44154705937179
 30
0.0
 11
16.9040390404213
 21
8.483453091204829
 31
0.0
  0
LINE
  5
DBA
330
1A
100
AcDbEntity
  8
ZUWAKU
100
AcDbLine
 10
14.92110650907926
 20
11.36250007528831
 30
0.0
 11
14.92110650907926
 21
3.837500075288314
 31
0.0
  0
LINE
  5
DBB
330
1A
100
AcDbEntity
  8
ZUWAKU
100
AcDbLine
 10
16.3211065090793
 20
8.562500075288316
 30
0.0
 11
16.3211065090793
 21
11.36250007528831
 31
0.0
  0
LINE
  5
DBC
330
1A
100
AcDbEntity
  8
ZUWAKU
100
AcDbLine
 10
28.92110650907926
 20
5.500000075288312
 30
0.0
 11
28.92110650907926
 21
11.36250007528831
 31
0.0
  0
LINE
  5
DBD
330
1A
100
AcDbEntity
  8
ZUWAKU
100
AcDbLine
 10
27.52110650907928
 20
11.36250007528831
 30
0.0
 11
27.52110650907928
 21
4.975000075288313
 31
0.0
  0
LINE
  5
DBE
330
1A
100
AcDbEntity
  8
ZUWAKU
100
AcDbLine
 10
21.74610650907925
 20
3.837500075288314
 30
0.0
 11
21.74610650907925
 21
11.36250007528831
 31
0.0
  0
LINE
  5
DBF
330
1A
100
AcDbEntity
  8
ZUWAKU
100
AcDbLine
 10
20.34610650907927
 20
11.36250007528831
 30
0.0
 11
20.34610650907927
 21
3.837500075288314
 31
0.0
  0
LINE
  5
DC0
330
1A
100
AcDbEntity
  8
ZUWAKU
100
AcDbLine
 10
18.65742975016826
 20
9.602523672070027
 30
0.0
 11
18.02505387750034
 21
7.600000075288324
 31
0.0
  0
ARC
  5
DC1
330
1A
100
AcDbEntity
  8
ZUWAKU
100
AcDbCircle
 10
24.89610650907929
 20
9.317399062610665
 30
0.0
 40
2.099999999999999
100
AcDbArc
 50
180.0
 51
225.0
  0
ARC
  5
DC2
330
1A
100
AcDbEntity
  8
ZUWAKU
100
AcDbCircle
 10
24.89610650907929
 20
9.317399062610665
 30
0.0
 40
0.7
100
AcDbArc
 50
180.0000000000016
 51
224.9999999999988
  0
LINE
  5
DC3
330
1A
100
AcDbEntity
  8
ZUWAKU
100
AcDbLine
 10
33.12110650907925
 20
11.36250007528831
 30
0.0
 11
33.12110650907925
 21
3.837500075288314
 31
0.0
  0
LINE
  5
DC4
330
1A
100
AcDbEntity
  8
ZUWAKU
100
AcDbLine
 10
34.52110650907929
 20
3.837500075288314
 30
0.0
 11
34.52110650907929
 21
11.36250007528831
 31
0.0
  0
LINE
  5
DC5
330
1A
100
AcDbEntity
  8
ZUWAKU
100
AcDbLine
 10
30.67110650907926
 20
11.36250007528831
 30
0.0
 11
30.67110650907926
 21
5.500000075288312
 31
0.0
  0
LINE
  5
DC6
330
1A
100
AcDbEntity
  8
ZUWAKU
100
AcDbLine
 10
32.0711065090793
 20
4.975000075288313
 30
0.0
 11
32.0711065090793
 21
11.36250007528831
 31
0.0
  0
LINE
  5
DC7
330
1A
100
AcDbEntity
  8
ZUWAKU
100
AcDbLine
 10
39.56331520568289
 20
15.00000007528831
 30
0.0
 11
39.56331520568289
 21
0.4000000752883466
 31
0.0
  0
LINE
  5
DC8
330
1A
100
AcDbEntity
  8
ZUWAKU
100
AcDbLine
 10
39.76331520568283
 20
15.00000007528831
 30
0.0
 11
39.76331520568294
 21
0.4000000752883466
 31
0.0
  0
LINE
  5
DC9
330
1A
100
AcDbEntity
  8
ZUWAKU
100
AcDbLine
 10
39.6633152056828
 20
15.00000007528831
 30
0.0
 11
39.66331520568292
 21
0.4000000752883466
 31
0.0
  0
LINE
  5
DCA
330
1A
100
AcDbEntity
  8
ZUWAKU
100
AcDbLine
 10
28.92110650907926
 20
3.575000075288315
 30
0.0
 11
30.67110650907926
 21
3.575000075288315
 31
0.0
  0
LINE
  5
DCB
330
1A
100
AcDbEntity
  8
ZUWAKU
100
AcDbLine
 10
30.14610650907929
 20
4.975000075288313
 30
0.0
 11
29.4461065090793
 21
4.975000075288313
 31
0.0
  0
LINE
  5
DCC
330
1A
100
AcDbEntity
  8
ZUWAKU
100
AcDbLine
 10
20.60860650907926
 20
3.575000075288315
 30
0.0
 11
21.48360650907926
 21
3.575000075288315
 31
0.0
  0
LINE
  5
DCD
330
1A
100
AcDbEntity
  8
ZUWAKU
100
AcDbLine
 10
17.83817397773719
 20
3.758453091204827
 30
0.0
 11
16.9040390404213
 21
6.716547059371798
 31
0.0
  0
ARC
  5
DCE
330
1A
100
AcDbEntity
  8
ZUWAKU
100
AcDbCircle
 10
16.58360650907928
 20
6.637500075288315
 30
0.0
 40
0.2625
100
AcDbArc
 50
90.0
 51
180.0
  0
ARC
  5
DCF
330
1A
100
AcDbEntity
  8
ZUWAKU
100
AcDbCircle
 10
16.65372359082363
 20
6.637500075288315
 30
0.0
 40
0.2625
100
AcDbArc
 50
17.52556837372303
 51
90.0
  0
ARC
  5
DD0
330
1A
100
AcDbEntity
  8
ZUWAKU
100
AcDbCircle
 10
15.18360650907925
 20
3.837500075288314
 30
0.0
 40
0.2625
100
AcDbArc
 50
180.0
 51
270.0
  0
ARC
  5
DD1
330
1A
100
AcDbEntity
  8
ZUWAKU
100
AcDbCircle
 10
13.43360650907925
 20
4.712500075288314
 30
0.0
 40
0.2625
100
AcDbArc
 50
0.0
 51
90.0
  0
ARC
  5
DD2
330
1A
100
AcDbEntity
  8
ZUWAKU
100
AcDbCircle
 10
13.43360650907925
 20
3.837500075288314
 30
0.0
 40
0.2625
100
AcDbArc
 50
270.0
 51
0.0
  0
LINE
  5
DD3
330
1A
100
AcDbEntity
  8
ZUWAKU
100
AcDbLine
 10
13.69610650907929
 20
4.712500075288314
 30
0.0
 11
13.69610650907929
 21
3.837500075288314
 31
0.0
  0
LINE
  5
DD4
330
1A
100
AcDbEntity
  8
ZUWAKU
100
AcDbLine
 10
16.3211065090793
 20
3.837500075288314
 30
0.0
 11
16.3211065090793
 21
6.637500075288315
 31
0.0
  0
ARC
  5
DD5
330
1A
100
AcDbEntity
  8
ZUWAKU
100
AcDbCircle
 10
16.05860650907925
 20
3.837500075288314
 30
0.0
 40
0.2625
100
AcDbArc
 50
270.0
 51
0.0
  0
LINE
  5
DD6
330
1A
100
AcDbEntity
  8
ZUWAKU
100
AcDbLine
 10
15.18360650907925
 20
3.575000075288315
 30
0.0
 11
16.05860650907925
 21
3.575000075288315
 31
0.0
  0
ARC
  5
DD7
330
1A
100
AcDbEntity
  8
ZUWAKU
100
AcDbCircle
 10
16.58360650907928
 20
8.562500075288316
 30
0.0
 40
0.2625
100
AcDbArc
 50
180.0
 51
270.0
  0
LINE
  5
DD8
330
1A
100
AcDbEntity
  8
ZUWAKU
100
AcDbLine
 10
16.58360650907928
 20
6.900000075288314
 30
0.0
 11
16.65372359082363
 21
6.900000075288314
 31
0.0
  0
LINE
  5
DD9
330
1A
100
AcDbEntity
  8
ZUWAKU
100
AcDbLine
 10
16.65372359082363
 20
8.300000075288313
 30
0.0
 11
16.58360650907928
 21
8.300000075288313
 31
0.0
  0
ARC
  5
DDA
330
1A
100
AcDbEntity
  8
ZUWAKU
100
AcDbCircle
 10
16.65372359082363
 20
8.562500075288316
 30
0.0
 40
0.2625
100
AcDbArc
 50
270.0
 51
342.4744316262769
  0
ARC
  5
DDB
330
1A
100
AcDbEntity
  8
ZUWAKU
100
AcDbCircle
 10
18.08848942733493
 20
3.837500075288314
 30
0.0
 40
0.2625
100
AcDbArc
 50
197.525568373723
 51
270.0
  0
LINE
  5
DDC
330
1A
100
AcDbEntity
  8
ZUWAKU
100
AcDbLine
 10
19.18824956673716
 20
3.916547059371801
 30
0.0
 11
18.02505387750034
 21
7.600000075288324
 31
0.0
  0
ARC
  5
DDD
330
1A
100
AcDbEntity
  8
ZUWAKU
100
AcDbCircle
 10
18.93793411713943
 20
3.837500075288314
 30
0.0
 40
0.2625
100
AcDbArc
 50
270.0
 51
17.52556837372303
  0
LINE
  5
DDE
330
1A
100
AcDbEntity
  8
ZUWAKU
100
AcDbLine
 10
18.08848942733493
 20
3.575000075288315
 30
0.0
 11
18.93793411713943
 21
3.575000075288315
 31
0.0
  0
ARC
  5
DDF
330
1A
100
AcDbEntity
  8
ZUWAKU
100
AcDbCircle
 10
20.60860650907926
 20
3.837500075288314
 30
0.0
 40
0.2625
100
AcDbArc
 50
180.0
 51
270.0
  0
ARC
  5
DE0
330
1A
100
AcDbEntity
  8
ZUWAKU
100
AcDbCircle
 10
25.0711065090793
 20
4.975000075288313
 30
0.0
 40
1.399999999999999
100
AcDbArc
 50
270.0
 51
0.0
  0
ARC
  5
DE1
330
1A
100
AcDbEntity
  8
ZUWAKU
100
AcDbCircle
 10
28.92110650907926
 20
4.975000075288313
 30
0.0
 40
1.399999999999999
100
AcDbArc
 50
180.0
 51
270.0
  0
LINE
  5
DE2
330
1A
100
AcDbEntity
  8
ZUWAKU
100
AcDbLine
 10
25.85603074957106
 20
7.367525328457727
 30
0.0
 11
24.40113176224866
 21
8.822424315780065
 31
0.0
  0
LINE
  5
DE3
330
1A
100
AcDbEntity
  8
ZUWAKU
100
AcDbLine
 10
23.41118226858753
 20
7.832474822118904
 30
0.0
 11
24.86608125590987
 21
6.377575834796573
 31
0.0
  0
LINE
  5
DE4
330
1A
100
AcDbEntity
  8
ZUWAKU
100
AcDbLine
 10
23.32110650907929
 20
3.575000075288315
 30
0.0
 11
25.0711065090793
 21
3.575000075288315
 31
0.0
  0
LINE
  5
DE5
330
1A
100
AcDbEntity
  8
ZUWAKU
100
AcDbLine
 10
23.32110650907929
 20
4.975000075288313
 30
0.0
 11
24.80860650907925
 21
4.975000075288313
 31
0.0
  0
ARC
  5
DE6
330
1A
100
AcDbEntity
  8
ZUWAKU
100
AcDbCircle
 10
23.32110650907929
 20
4.712500075288314
 30
0.0
 40
0.2625
100
AcDbArc
 50
90.0
 51
180.0
  0
ARC
  5
DE7
330
1A
100
AcDbEntity
  8
ZUWAKU
100
AcDbCircle
 10
21.48360650907926
 20
3.837500075288314
 30
0.0
 40
0.2625
100
AcDbArc
 50
270.0
 51
0.0
  0
ARC
  5
DE8
330
1A
100
AcDbEntity
  8
ZUWAKU
100
AcDbCircle
 10
23.32110650907929
 20
3.837500075288314
 30
0.0
 40
0.2625
100
AcDbArc
 50
180.0
 51
270.0
  0
LINE
  5
DE9
330
1A
100
AcDbEntity
  8
ZUWAKU
100
AcDbLine
 10
23.05860650907925
 20
3.837500075288314
 30
0.0
 11
23.05860650907925
 21
4.712500075288314
 31
0.0
  0
ARC
  5
DEA
330
1A
100
AcDbEntity
  8
ZUWAKU
100
AcDbCircle
 10
24.80860650907925
 20
5.237500075288316
 30
0.0
 40
0.2625
100
AcDbArc
 50
270.0
 51
0.0
  0
ARC
  5
DEB
330
1A
100
AcDbEntity
  8
ZUWAKU
100
AcDbCircle
 10
24.37110650907925
 20
5.882601087965987
 30
0.0
 40
0.7
100
AcDbArc
 50
0.0
 51
45.0
  0
LINE
  5
DEC
330
1A
100
AcDbEntity
  8
ZUWAKU
100
AcDbLine
 10
25.0711065090793
 20
5.237500075288316
 30
0.0
 11
25.0711065090793
 21
5.882601087965987
 31
0.0
  0
ARC
  5
DED
330
1A
100
AcDbEntity
  8
ZUWAKU
100
AcDbCircle
 10
29.4461065090793
 20
5.500000075288312
 30
0.0
 40
0.525
100
AcDbArc
 50
180.0
 51
270.0
  0
ARC
  5
DEE
330
1A
100
AcDbEntity
  8
ZUWAKU
100
AcDbCircle
 10
24.37110650907925
 20
5.882601087965966
 30
0.0
 40
2.099999999999999
100
AcDbArc
 50
0.0
 51
45.0
  0
LINE
  5
DEF
330
1A
100
AcDbEntity
  8
ZUWAKU
100
AcDbLine
 10
26.47110650907928
 20
4.975000075288313
 30
0.0
 11
26.47110650907928
 21
5.882601087965987
 31
0.0
  0
ARC
  5
DF0
330
1A
100
AcDbEntity
  8
ZUWAKU
100
AcDbCircle
 10
30.67110650907926
 20
4.975000075288313
 30
0.0
 40
1.399999999999999
100
AcDbArc
 50
270.0
 51
0.0
  0
LINE
  5
DF1
330
1A
100
AcDbEntity
  8
ZUWAKU
100
AcDbLine
 10
33.38360650907929
 20
3.575000075288315
 30
0.0
 11
34.2586065090793
 21
3.575000075288315
 31
0.0
  0
ARC
  5
DF2
330
1A
100
AcDbEntity
  8
ZUWAKU
100
AcDbCircle
 10
30.14610650907929
 20
5.500000075288312
 30
0.0
 40
0.525
100
AcDbArc
 50
270.0
 51
0.0
  0
ARC
  5
DF3
330
1A
100
AcDbEntity
  8
ZUWAKU
100
AcDbCircle
 10
33.38360650907929
 20
3.837500075288314
 30
0.0
 40
0.2625
100
AcDbArc
 50
180.0
 51
270.0
  0
ARC
  5
DF4
330
1A
100
AcDbEntity
  8
ZUWAKU
100
AcDbCircle
 10
34.2586065090793
 20
3.837500075288314
 30
0.0
 40
0.2625
100
AcDbArc
 50
270.0
 51
0.0
  0
LINE
  5
DF5
330
1A
100
AcDbEntity
  8
ZUWAKU
100
AcDbLine
 10
21.48360650907926
 20
11.62500007528831
 30
0.0
 11
20.60860650907926
 21
11.62500007528831
 31
0.0
  0
LINE
  5
DF6
330
1A
100
AcDbEntity
  8
ZUWAKU
100
AcDbLine
 10
13.69610650907929
 20
11.36250007528831
 30
0.0
 11
13.69610650907929
 21
10.48750007528831
 31
0.0
  0
ARC
  5
DF7
330
1A
100
AcDbEntity
  8
ZUWAKU
100
AcDbCircle
 10
13.43360650907925
 20
10.48750007528831
 30
0.0
 40
0.2625
100
AcDbArc
 50
270.0
 51
0.0
  0
ARC
  5
DF8
330
1A
100
AcDbEntity
  8
ZUWAKU
100
AcDbCircle
 10
15.18360650907925
 20
11.36250007528831
 30
0.0
 40
0.2625
100
AcDbArc
 50
90.0
 51
180.0
  0
ARC
  5
DF9
330
1A
100
AcDbEntity
  8
ZUWAKU
100
AcDbCircle
 10
13.43360650907925
 20
11.36250007528831
 30
0.0
 40
0.2625
100
AcDbArc
 50
0.0
 51
90.0
  0
LINE
  5
DFA
330
1A
100
AcDbEntity
  8
ZUWAKU
100
AcDbLine
 10
16.05860650907925
 20
11.62500007528831
 30
0.0
 11
15.18360650907925
 21
11.62500007528831
 31
0.0
  0
ARC
  5
DFB
330
1A
100
AcDbEntity
  8
ZUWAKU
100
AcDbCircle
 10
16.05860650907925
 20
11.36250007528831
 30
0.0
 40
0.2625
100
AcDbArc
 50
0.0
 51
90.0
  0
ARC
  5
DFC
330
1A
100
AcDbEntity
  8
ZUWAKU
100
AcDbCircle
 10
18.08848942733493
 20
11.36250007528831
 30
0.0
 40
0.2625
100
AcDbArc
 50
90.0
 51
162.4744316262769
  0
LINE
  5
DFD
330
1A
100
AcDbEntity
  8
ZUWAKU
100
AcDbLine
 10
19.18824956673716
 20
11.28345309120483
 30
0.0
 11
18.65742975016826
 21
9.602523672070027
 31
0.0
  0
ARC
  5
DFE
330
1A
100
AcDbEntity
  8
ZUWAKU
100
AcDbCircle
 10
18.93793411713943
 20
11.36250007528831
 30
0.0
 40
0.2625
100
AcDbArc
 50
342.4744316262769
 51
90.0
  0
LINE
  5
DFF
330
1A
100
AcDbEntity
  8
ZUWAKU
100
AcDbLine
 10
18.08848942733493
 20
11.62500007528831
 30
0.0
 11
18.93793411713943
 21
11.62500007528831
 31
0.0
  0
ARC
  5
E00
330
1A
100
AcDbEntity
  8
ZUWAKU
100
AcDbCircle
 10
20.60860650907926
 20
11.36250007528831
 30
0.0
 40
0.2625
100
AcDbArc
 50
90.0
 51
180.0
  0
LINE
  5
E01
330
1A
100
AcDbEntity
  8
ZUWAKU
100
AcDbLine
 10
25.9461065090793
 20
10.22500007528831
 30
0.0
 11
24.45860650907929
 21
10.22500007528831
 31
0.0
  0
LINE
  5
E02
330
1A
100
AcDbEntity
  8
ZUWAKU
100
AcDbLine
 10
24.1961065090793
 20
11.62500007528831
 30
0.0
 11
25.9461065090793
 21
11.62500007528831
 31
0.0
  0
ARC
  5
E03
330
1A
100
AcDbEntity
  8
ZUWAKU
100
AcDbCircle
 10
24.1961065090793
 20
10.22500007528831
 30
0.0
 40
1.399999999999999
100
AcDbArc
 50
90.0
 51
180.0
  0
LINE
  5
E04
330
1A
100
AcDbEntity
  8
ZUWAKU
100
AcDbLine
 10
22.79610650907926
 20
10.22500007528831
 30
0.0
 11
22.79610650907926
 21
9.317399062610643
 31
0.0
  0
ARC
  5
E05
330
1A
100
AcDbEntity
  8
ZUWAKU
100
AcDbCircle
 10
21.48360650907926
 20
11.36250007528831
 30
0.0
 40
0.2625
100
AcDbArc
 50
0.0
 51
90.0
  0
LINE
  5
E06
330
1A
100
AcDbEntity
  8
ZUWAKU
100
AcDbLine
 10
24.1961065090793
 20
9.962500075288314
 30
0.0
 11
24.1961065090793
 21
9.317399062610643
 31
0.0
  0
ARC
  5
E07
330
1A
100
AcDbEntity
  8
ZUWAKU
100
AcDbCircle
 10
24.45860650907929
 20
9.962500075288314
 30
0.0
 40
0.2625
100
AcDbArc
 50
90.0
 51
180.0
  0
LINE
  5
E08
330
1A
100
AcDbEntity
  8
ZUWAKU
100
AcDbLine
 10
26.20860650907928
 20
11.36250007528831
 30
0.0
 11
26.20860650907928
 21
10.48750007528831
 31
0.0
  0
ARC
  5
E09
330
1A
100
AcDbEntity
  8
ZUWAKU
100
AcDbCircle
 10
25.9461065090793
 20
10.48750007528831
 30
0.0
 40
0.2625
100
AcDbArc
 50
270.0
 51
0.0
  0
ARC
  5
E0A
330
1A
100
AcDbEntity
  8
ZUWAKU
100
AcDbCircle
 10
25.9461065090793
 20
11.36250007528831
 30
0.0
 40
0.2625
100
AcDbArc
 50
0.0
 51
90.0
  0
LINE
  5
E0B
330
1A
100
AcDbEntity
  8
ZUWAKU
100
AcDbLine
 10
28.65860650907928
 20
11.62500007528831
 30
0.0
 11
27.78360650907927
 21
11.62500007528831
 31
0.0
  0
ARC
  5
E0C
330
1A
100
AcDbEntity
  8
ZUWAKU
100
AcDbCircle
 10
27.78360650907927
 20
11.36250007528831
 30
0.0
 40
0.2625
100
AcDbArc
 50
90.0
 51
180.0
  0
ARC
  5
E0D
330
1A
100
AcDbEntity
  8
ZUWAKU
100
AcDbCircle
 10
28.65860650907928
 20
11.36250007528831
 30
0.0
 40
0.2625
100
AcDbArc
 50
0.0
 51
90.0
  0
LINE
  5
E0E
330
1A
100
AcDbEntity
  8
ZUWAKU
100
AcDbLine
 10
34.2586065090793
 20
11.62500007528831
 30
0.0
 11
33.38360650907929
 21
11.62500007528831
 31
0.0
  0
ARC
  5
E0F
330
1A
100
AcDbEntity
  8
ZUWAKU
100
AcDbCircle
 10
30.93360650907925
 20
11.36250007528831
 30
0.0
 40
0.2625
100
AcDbArc
 50
90.0
 51
180.0
  0
LINE
  5
E10
330
1A
100
AcDbEntity
  8
ZUWAKU
100
AcDbLine
 10
31.80860650907925
 20
11.62500007528831
 30
0.0
 11
30.93360650907925
 21
11.62500007528831
 31
0.0
  0
ARC
  5
E11
330
1A
100
AcDbEntity
  8
ZUWAKU
100
AcDbCircle
 10
31.80860650907925
 20
11.36250007528831
 30
0.0
 40
0.2625
100
AcDbArc
 50
0.0
 51
90.0
  0
ARC
  5
E12
330
1A
100
AcDbEntity
  8
ZUWAKU
100
AcDbCircle
 10
33.38360650907929
 20
11.36250007528831
 30
0.0
 40
0.2625
100
AcDbArc
 50
90.0
 51
180.0
  0
ARC
  5
E13
330
1A
100
AcDbEntity
  8
ZUWAKU
100
AcDbCircle
 10
34.2586065090793
 20
11.36250007528831
 30
0.0
 40
0.2625
100
AcDbArc
 50
0.0
 51
90.0
  0
LINE
  5
E14
330
1A
100
AcDbEntity
  8
ZUWAKU
100
AcDbLine
 10
104.2233010767225
 20
15.00000007528831
 30
0.0
 11
104.2233010767226
 21
0.4000000752883466
 31
0.0
  0
LINE
  5
E15
330
1A
100
AcDbEntity
  8
ZUWAKU
100
AcDbLine
 10
104.3233010767226
 20
15.00000007528831
 30
0.0
 11
104.3233010767227
 21
0.4000000752883466
 31
0.0
  0
LINE
  5
E16
330
1A
100
AcDbEntity
  8
ZUWAKU
100
AcDbLine
 10
104.1233010767226
 20
15.00000007528831
 30
0.0
 11
104.1233010767226
 21
0.4000000752883466
 31
0.0
  0
TEXT
  5
E17
330
1A
100
AcDbEntity
  8
moji
100
AcDbText
 10
119.9136017721142
 20
9.002460603992005
 30
0.0
 40
2.799999999999999
  1
異径ソケット
 41
0.9
  7
MSｺﾞｼｯｸ
100
AcDbText
  0
TEXT
  5
E18
330
1A
100
AcDbEntity
  8
ZUWAKU
100
AcDbText
 10
104.8620235878274
 20
4.827678344481121
 30
0.0
 40
2.0
  1
サイズ
 41
0.9
  7
MSｺﾞｼｯｸ
100
AcDbText
  0
TEXT
  5
E19
330
1A
100
AcDbEntity
  8
moji
100
AcDbText
 10
119.9136017721142
 20
1.602460603992023
 30
0.0
 40
2.799999999999999
  1
ＵＲＴ６０－ＵＳＴ４２
 41
0.9
  7
MSｺﾞｼｯｸ
100
AcDbText
  0
TEXT
  5
E1A
330
1A
100
AcDbEntity
  8
ZUWAKU
100
AcDbText
 10
104.8620235878273
 20
12.0276783444811
 30
0.0
 40
2.0
  1
品名
 41
0.9
  7
MSｺﾞｼｯｸ
100
AcDbText
  0
TEXT
  5
E1B
330
1A
100
AcDbEntity
  8
ZUWAKU
100
AcDbText
 10
329.1019692753399
 20
9.002460603992005
 30
0.0
 40
2.799999999999999
  1
　　．　　．　　
 41
0.9
  7
MSｺﾞｼｯｸ
100
AcDbText
  0
LINE
  5
E1C
330
1A
100
AcDbEntity
  8
ZUWAKU
100
AcDbLine
 10
324.4086016867908
 20
7.800000075288329
 30
0.0
 11
348.6245057059593
 21
7.800000075288329
 31
0.0
  0
LINE
  5
E1D
330
1A
100
AcDbEntity
  8
ZUWAKU
100
AcDbLine
 10
324.4086016867909
 20
7.700000075288331
 30
0.0
 11
348.6245057059593
 21
7.700000075288329
 31
0.0
  0
LINE
  5
E1E
330
1A
100
AcDbEntity
  8
ZUWAKU
100
AcDbLine
 10
324.4086016867908
 20
7.600000075288328
 30
0.0
 11
348.6245057059593
 21
7.600000075288329
 31
0.0
  0
LINE
  5
E1F
330
1A
100
AcDbEntity
  8
ZUWAKU
100
AcDbLine
 10
252.5995901807591
 20
7.800000075288329
 30
0.0
 11
276.2634783147449
 21
7.800000075288329
 31
0.0
  0
LINE
  5
E20
330
1A
100
AcDbEntity
  8
ZUWAKU
100
AcDbLine
 10
252.5995901807591
 20
7.700000075288329
 30
0.0
 11
276.2634783147449
 21
7.700000075288329
 31
0.0
  0
LINE
  5
E21
330
1A
100
AcDbEntity
  8
ZUWAKU
100
AcDbLine
 10
252.5995901807591
 20
7.600000075288331
 30
0.0
 11
276.2634783147449
 21
7.600000075288331
 31
0.0
  0
LINE
  5
E22
330
1A
100
AcDbEntity
  8
ZUWAKU
100
AcDbLine
 10
252.3995901807592
 20
15.00000007528831
 30
0.0
 11
252.3995901807592
 21
0.4000000752883466
 31
0.0
  0
LINE
  5
E23
330
1A
100
AcDbEntity
  8
ZUWAKU
100
AcDbLine
 10
252.5995901807591
 20
15.00000007528831
 30
0.0
 11
252.5995901807592
 21
0.4000000752883466
 31
0.0
  0
LINE
  5
E24
330
1A
100
AcDbEntity
  8
ZUWAKU
100
AcDbLine
 10
252.4995901807591
 20
15.00000007528831
 30
0.0
 11
252.4995901807592
 21
0.4000000752883466
 31
0.0
  0
TEXT
  5
E25
330
1A
100
AcDbEntity
  8
moji
100
AcDbText
 10
264.0204544178451
 20
9.002460603992005
 30
0.0
 40
2.799999999999999
  1
Ａ３
 41
0.9
  7
MSｺﾞｼｯｸ
100
AcDbText
  0
LINE
  5
E26
330
1A
100
AcDbEntity
  8
ZUWAKU
100
AcDbLine
 10
223.7121824171844
 20
15.00000007528831
 30
0.0
 11
223.7121824171844
 21
0.4000000752883466
 31
0.0
  0
LINE
  5
E27
330
1A
100
AcDbEntity
  8
ZUWAKU
100
AcDbLine
 10
223.9121824171843
 20
15.00000007528831
 30
0.0
 11
223.9121824171844
 21
0.4000000752883466
 31
0.0
  0
LINE
  5
E28
330
1A
100
AcDbEntity
  8
ZUWAKU
100
AcDbLine
 10
223.8121824171843
 20
15.00000007528831
 30
0.0
 11
223.8121824171844
 21
0.4000000752883466
 31
0.0
  0
TEXT
  5
E29
330
1A
100
AcDbEntity
  8
moji
100
AcDbText
 10
231.6232164271897
 20
5.971308936118305
 30
0.0
 40
2.799999999999999
  1
ＰＨ４２□
 41
0.9
  7
MSｺﾞｼｯｸ
100
AcDbText
  0
TEXT
  5
E2A
330
1A
100
AcDbEntity
  8
ZUWAKU
100
AcDbText
 10
230.6528771429501
 20
1.307035530858058
 30
0.0
 40
1.5
  1
□には色品番が入ります
 41
0.9
  7
MSｺﾞｼｯｸ
100
AcDbText
  0
TEXT
  5
E2B
330
1A
100
AcDbEntity
  8
ZUWAKU
100
AcDbText
 10
253.338312691864
 20
4.827678344481121
 30
0.0
 40
2.0
  1
縮尺
 41
0.9
  7
MSｺﾞｼｯｸ
100
AcDbText
  0
TEXT
  5
E2C
330
1A
100
AcDbEntity
  8
moji
100
AcDbText
 10
264.0204544178451
 20
1.602460603992023
 30
0.0
 40
2.799999999999999
  1
１/１
 41
0.9
  7
MSｺﾞｼｯｸ
100
AcDbText
  0
TEXT
  5
E2D
330
1A
100
AcDbEntity
  8
ZUWAKU
100
AcDbText
 10
224.6509049282891
 20
12.0276783444811
 30
0.0
 40
2.0
  1
品番
 41
0.9
  7
MSｺﾞｼｯｸ
100
AcDbText
  0
TEXT
  5
E2E
330
1A
100
AcDbEntity
  8
ZUWAKU
100
AcDbText
 10
253.3383126918639
 20
12.0276783444811
 30
0.0
 40
2.0
  1
用紙
 41
0.9
  7
MSｺﾞｼｯｸ
100
AcDbText
  0
LINE
  5
E2F
330
1A
100
AcDbEntity
  8
ZUWAKU
100
AcDbLine
 10
276.2634783147449
 20
15.00000007528831
 30
0.0
 11
276.2634783147449
 21
0.4000000752883466
 31
0.0
  0
LINE
  5
E30
330
1A
100
AcDbEntity
  8
ZUWAKU
100
AcDbLine
 10
276.4634783147448
 20
15.00000007528831
 30
0.0
 11
276.4634783147449
 21
0.4000000752883466
 31
0.0
  0
LINE
  5
E31
330
1A
100
AcDbEntity
  8
ZUWAKU
100
AcDbLine
 10
276.3634783147448
 20
15.00000007528831
 30
0.0
 11
276.3634783147449
 21
0.4000000752883466
 31
0.0
  0
LINE
  5
E32
330
1A
100
AcDbEntity
  8
ZUWAKU
100
AcDbLine
 10
324.2086016867909
 20
15.00000007528831
 30
0.0
 11
324.2086016867909
 21
0.4000000752883466
 31
0.0
  0
LINE
  5
E33
330
1A
100
AcDbEntity
  8
ZUWAKU
100
AcDbLine
 10
324.4086016867909
 20
15.00000007528831
 30
0.0
 11
324.408601686791
 21
0.4000000752883466
 31
0.0
  0
LINE
  5
E34
330
1A
100
AcDbEntity
  8
ZUWAKU
100
AcDbLine
 10
324.3086016867909
 20
15.00000007528831
 30
0.0
 11
324.308601686791
 21
0.4000000752883466
 31
0.0
  0
TEXT
  5
E35
330
1A
100
AcDbEntity
  8
ZUWAKU
100
AcDbText
 10
325.1473241978957
 20
12.0276783444811
 30
0.0
 40
2.0
  1
DATE
 41
0.9
  7
MSｺﾞｼｯｸ
100
AcDbText
  0
TEXT
  5
E36
330
1A
100
AcDbEntity
  8
ZUWAKU
100
AcDbText
 10
354.2640425278106
 20
6.329291984884605
 30
0.0
 40
3.0
  1
積水化学工業株式会社
 41
0.9
  7
MSｺﾞｼｯｸ
100
AcDbText
  0
LINE
  5
E37
330
1A
100
AcDbEntity
  8
ZUWAKU
100
AcDbLine
 10
348.9245057059592
 20
15.00000007528831
 30
0.0
 11
348.9245057059594
 21
0.4000000752883466
 31
0.0
  0
LINE
  5
E38
330
1A
100
AcDbEntity
  8
ZUWAKU
100
AcDbLine
 10
348.8245057059592
 20
15.00000007528831
 30
0.0
 11
348.8245057059593
 21
0.4000000752883466
 31
0.0
  0
LINE
  5
E39
330
1A
100
AcDbEntity
  8
ZUWAKU
100
AcDbLine
 10
348.7245057059593
 20
15.00000007528831
 30
0.0
 11
348.7245057059593
 21
0.4000000752883466
 31
0.0
  0
LINE
  5
E3A
330
1A
100
AcDbEntity
  8
ZUWAKU
100
AcDbLine
 10
348.6245057059593
 20
15.00000007528831
 30
0.0
 11
348.6245057059593
 21
0.4000000752883466
 31
0.0
  0
TEXT
  5
2370
330
1A
100
AcDbEntity
  8
ZUWAKU
 62
     7
100
AcDbText
 10
126.2589487907782
 20
-19.44483520145422
 30
0.0
 40
4.0
  1

100
AcDbText
  0
TEXT
  5
539A
330
1A
100
AcDbEntity
  8
SUNPOU
  6
Continuous
 62
     4
100
AcDbText
 10
315.2767266377018
 20
20.34886731661862
 30
0.0
 40
4.0
  1
※　たてといの差込み寸法を示す。
100
AcDbText
  0
CIRCLE
  5
8150
330
1A
100
AcDbEntity
  8
SEIHIN
  6
Continuous
 62
     3
100
AcDbCircle
 10
198.1050882206682
 20
197.9802473370433
 30
0.0
 40
30.10000000000002
  0
CIRCLE
  5
8152
330
1A
100
AcDbEntity
  8
SEIHIN
  6
Continuous
 62
     3
100
AcDbCircle
 10
198.1050882206682
 20
197.9802473370433
 30
0.0
 40
31.70000000000001
  0
LINE
  5
8153
330
1A
100
AcDbEntity
  8
SEIHIN
  6
Continuous
 62
     3
100
AcDbLine
 10
229.805088220668
 20
92.92166729545284
 30
0.0
 11
229.805088220668
 21
119.9216672954528
 31
0.0
  0
LINE
  5
8154
330
1A
100
AcDbEntity
  8
SEIHIN
  6
Continuous
 62
     3
100
AcDbLine
 10
166.4050882206684
 20
119.9216672954528
 30
0.0
 11
166.4050882206684
 21
92.92166729545284
 31
0.0
  0
LINE
  5
8155
330
1A
100
AcDbEntity
  8
SEIHIN
  6
Continuous
 62
     3
100
AcDbLine
 10
229.805088220668
 20
119.9216672954528
 30
0.0
 11
166.4050882206684
 21
119.9216672954528
 31
0.0
  0
LINE
  5
8156
330
1A
100
AcDbEntity
  8
SEIHIN
  6
Continuous
 62
     3
100
AcDbLine
 10
166.4050882206684
 20
92.92166729545284
 30
0.0
 11
229.805088220668
 21
92.92166729545284
 31
0.0
  0
LINE
  5
8159
330
1A
100
AcDbEntity
  8
SEIHIN
  6
Continuous
 62
     3
100
AcDbLine
 10
177.1050882206682
 20
72.92166729545283
 30
0.0
 11
219.1050882206682
 21
72.92166729545283
 31
0.0
  0
LINE
  5
815A
330
1A
100
AcDbEntity
  8
SEIHIN
  6
Continuous
 62
     3
100
AcDbLine
 10
180.1050882206682
 20
92.92166729545284
 30
0.0
 11
180.1050882206682
 21
72.92166729545283
 31
0.0
  0
LINE
  5
815C
330
1A
100
AcDbEntity
  8
SEIHIN
  6
Continuous
 62
     3
100
AcDbLine
 10
216.1050882206682
 20
72.92166729545283
 30
0.0
 11
216.1050882206682
 21
92.92166729545284
 31
0.0
  0
LINE
  5
8166
330
1A
100
AcDbEntity
  8
SEIHIN
  6
Continuous
 62
     3
100
AcDbLine
 10
177.1050882206682
 20
92.92166729545284
 30
0.0
 11
177.1050882206682
 21
72.92166729545283
 31
0.0
  0
LINE
  5
8168
330
1A
100
AcDbEntity
  8
SEIHIN
  6
Continuous
 62
     3
100
AcDbLine
 10
219.1050882206682
 20
92.92166729545284
 30
0.0
 11
219.1050882206682
 21
72.92166729545283
 31
0.0
  0
LINE
  5
816A
330
1A
100
AcDbEntity
  8
CENTER L
  6
CENTER
 62
     1
 48
5.0
100
AcDbLine
 10
198.1050882206673
 20
124.5484005692051
 30
0.0
 11
198.1050882206673
 21
69.4122489093711
 31
0.0
  0
LINE
  5
816B
330
1A
100
AcDbEntity
  8
CENTER L
  6
CENTER
 62
     1
 48
5.0
100
AcDbLine
 10
198.1050882206673
 20
158.2802473370433
 30
0.0
 11
198.1050882206673
 21
237.6802473370434
 31
0.0
  0
LINE
  5
816C
330
1A
100
AcDbEntity
  8
CENTER L
  6
CENTER
 62
     1
 48
5.0
100
AcDbLine
 10
158.4050882206684
 20
197.9802473370433
 30
0.0
 11
237.805088220668
 21
197.9802473370433
 31
0.0
  0
LINE
  5
816D
330
1A
100
AcDbEntity
  8
SEIHIN
  6
Continuous
 62
     3
100
AcDbLine
 10
217.1050882206682
 20
213.4802473370433
 30
0.0
 11
217.1050882206682
 21
182.4802473370433
 31
0.0
  0
ARC
  5
816E
330
1A
100
AcDbEntity
  8
SEIHIN
  6
Continuous
 62
     3
100
AcDbCircle
 10
216.6050882206682
 20
179.4802473370433
 30
0.0
 40
2.5
100
AcDbArc
 50
90.0
 51
180.0
  0
ARC
  5
816F
330
1A
100
AcDbEntity
  8
SEIHIN
  6
Continuous
 62
     3
100
AcDbCircle
 10
213.6050882206682
 20
179.4802473370433
 30
0.0
 40
0.5
100
AcDbArc
 50
270.0
 51
0.0
  0
ARC
  5
8170
330
1A
100
AcDbEntity
  8
SEIHIN
  6
Continuous
 62
     3
100
AcDbCircle
 10
216.6050882206682
 20
182.4802473370433
 30
0.0
 40
0.5
100
AcDbArc
 50
270.0
 51
0.0
  0
LINE
  5
8171
330
1A
100
AcDbEntity
  8
SEIHIN
  6
Continuous
 62
     3
100
AcDbLine
 10
213.6050882206682
 20
178.9802473370433
 30
0.0
 11
198.1050882206664
 21
178.9802473370433
 31
0.0
  0
LINE
  5
8172
330
1A
100
AcDbEntity
  8
SEIHIN
  6
Continuous
 62
     3
100
AcDbLine
 10
198.1050882206664
 20
216.9802473370432
 30
0.0
 11
213.6050882206682
 21
216.9802473370432
 31
0.0
  0
ARC
  5
8173
330
1A
100
AcDbEntity
  8
SEIHIN
  6
Continuous
 62
     3
100
AcDbCircle
 10
216.6050882206682
 20
216.4802473370433
 30
0.0
 40
2.500000000000056
100
AcDbArc
 50
180.0
 51
270.0
  0
ARC
  5
8174
330
1A
100
AcDbEntity
  8
SEIHIN
  6
Continuous
 62
     3
100
AcDbCircle
 10
213.6050882206682
 20
216.4802473370432
 30
0.0
 40
0.5
100
AcDbArc
 50
0.0
 51
90.0
  0
ARC
  5
8175
330
1A
100
AcDbEntity
  8
SEIHIN
  6
Continuous
 62
     3
100
AcDbCircle
 10
216.6050882206682
 20
213.4802473370433
 30
0.0
 40
0.5
100
AcDbArc
 50
0.0
 51
90.0
  0
LINE
  5
8176
330
1A
100
AcDbEntity
  8
SEIHIN
  6
Continuous
 62
     3
100
AcDbLine
 10
179.1050882206663
 20
213.4802473370433
 30
0.0
 11
179.1050882206663
 21
182.4802473370433
 31
0.0
  0
ARC
  5
8177
330
1A
100
AcDbEntity
  8
SEIHIN
  6
Continuous
 62
     3
100
AcDbCircle
 10
179.6050882206664
 20
179.4802473370433
 30
0.0
 40
2.5
100
AcDbArc
 50
0.0
 51
90.0
  0
ARC
  5
8178
330
1A
100
AcDbEntity
  8
SEIHIN
  6
Continuous
 62
     3
100
AcDbCircle
 10
182.6050882206664
 20
179.4802473370433
 30
0.0
 40
0.5
100
AcDbArc
 50
180.0
 51
270.0
  0
ARC
  5
8179
330
1A
100
AcDbEntity
  8
SEIHIN
  6
Continuous
 62
     3
100
AcDbCircle
 10
179.6050882206664
 20
182.4802473370433
 30
0.0
 40
0.5
100
AcDbArc
 50
180.0
 51
270.0
  0
LINE
  5
817A
330
1A
100
AcDbEntity
  8
SEIHIN
  6
Continuous
 62
     3
100
AcDbLine
 10
182.6050882206664
 20
178.9802473370433
 30
0.0
 11
198.1050882206682
 21
178.9802473370433
 31
0.0
  0
LINE
  5
817B
330
1A
100
AcDbEntity
  8
SEIHIN
  6
Continuous
 62
     3
100
AcDbLine
 10
198.1050882206682
 20
216.9802473370432
 30
0.0
 11
182.6050882206664
 21
216.9802473370432
 31
0.0
  0
ARC
  5
817C
330
1A
100
AcDbEntity
  8
SEIHIN
  6
Continuous
 62
     3
100
AcDbCircle
 10
179.6050882206664
 20
216.4802473370433
 30
0.0
 40
2.500000000000056
100
AcDbArc
 50
270.0
 51
359.9999999999934
  0
ARC
  5
817D
330
1A
100
AcDbEntity
  8
SEIHIN
  6
Continuous
 62
     3
100
AcDbCircle
 10
182.6050882206664
 20
216.4802473370432
 30
0.0
 40
0.5
100
AcDbArc
 50
90.0
 51
180.0
  0
ARC
  5
817E
330
1A
100
AcDbEntity
  8
SEIHIN
  6
Continuous
 62
     3
100
AcDbCircle
 10
179.6050882206664
 20
213.4802473370433
 30
0.0
 40
0.5
100
AcDbArc
 50
90.0
 51
180.0
  0
DIMENSION
  5
8188
330
1A
100
AcDbEntity
  8
SUNPOU
100
AcDbDimension
  2
*D2
 10
229.805088220668
 20
139.3788492249145
 30
0.0
 11
198.1050882206682
 21
141.8788492249145
 31
0.0
 70
    32
  1
φ<>
 71
     5
 42
-1.0
  3
STANDARD
100
AcDbAlignedDimension
 13
166.4050882206684
 23
119.9216672954528
 33
0.0
 14
229.805088220668
 24
119.9216672954528
 34
0.0
100
AcDbRotatedDimension
  0
DIMENSION
  5
8195
330
1A
100
AcDbEntity
  8
SUNPOU
100
AcDbDimension
  2
*D3
 10
253.1651449269832
 20
92.92166729545284
 30
0.0
 11
250.6651449269831
 21
106.4216672954528
 31
0.0
 70
    32
 71
     5
 42
-1.0
  3
STANDARD
100
AcDbAlignedDimension
 13
229.805088220668
 23
119.9216672954528
 33
0.0
 14
229.805088220668
 24
92.92166729545284
 34
0.0
 50
90.0
100
AcDbRotatedDimension
  0
DIMENSION
  5
81A2
330
1A
100
AcDbEntity
  8
SUNPOU
100
AcDbDimension
  2
*D4
 10
260.9093871436932
 20
72.92166729545282
 30
0.0
 11
258.4093871436932
 21
96.42166729545287
 31
0.0
 70
    32
 71
     5
 42
-1.0
  3
STANDARD
100
AcDbAlignedDimension
 13
229.805088220668
 23
119.9216672954528
 33
0.0
 14
219.1050882206682
 24
72.92166729545283
 34
0.0
 50
90.0
100
AcDbRotatedDimension
  0
DIMENSION
  5
81F3
330
1A
100
AcDbEntity
  8
SUNPOU
100
AcDbDimension
  2
*D5
 10
219.1050882206682
 20
51.41373579310107
 30
0.0
 11
198.1050882206682
 21
53.91373579310107
 31
0.0
 70
    32
  1
\U+25A1<>
 71
     5
 42
-1.0
  3
STANDARD
100
AcDbAlignedDimension
 13
177.1050882206682
 23
72.92166729545283
 33
0.0
 14
219.1050882206682
 24
72.92166729545283
 34
0.0
100
AcDbRotatedDimension
  0
DIMENSION
  5
83F9
330
1A
100
AcDbEntity
  8
SUNPOU
100
AcDbDimension
  2
*D6
 10
244.4492063187571
 20
94.92166729545283
 30
0.0
 11
241.949206318757
 21
107.4216672954535
 31
0.0
 70
    32
  1
※ <>
 71
     5
 42
-1.0
  3
STANDARD
100
AcDbAlignedDimension
 13
229.8050882206662
 23
119.921667295454
 33
0.0
 14
229.805088220668
 24
94.92166729545283
 34
0.0
 50
90.00000000000325
100
AcDbRotatedDimension
  0
DIMENSION
  5
83FA
330
1A
100
AcDbEntity
  8
SUNPOU
100
AcDbDimension
  2
*D7
 10
244.4492063187581
 20
72.92166729545407
 30
0.0
 11
241.9492063187581
 21
82.92166729545412
 31
0.0
 70
    32
  1
※ <>
 71
     5
 42
-1.0
  3
STANDARD
100
AcDbAlignedDimension
 13
229.8050882206672
 23
92.92166729545407
 33
0.0
 14
229.805088220668
 24
72.92166729545407
 34
0.0
 50
90.00000000000325
100
AcDbRotatedDimension
  0
DIMENSION
  5
8452
330
1A
100
AcDbEntity
  8
SUNPOU
100
AcDbDimension
  2
*D8
 10
171.7877285768211
 20
183.3718052100946
 30
0.0
 11
209.70840782164
 21
207.7012314984505
 31
0.0
 70
   163
 71
     5
 42
-1.0
  3
STANDARD
100
AcDbDiametricDimension
 15
224.4224478645154
 25
212.5886894639921
 35
0.0
 40
0.0
1001
ACAD
1000
DSTYLE
1002
{
1070
   287
1070
     5
1070
   287
1070
     5
1070
   287
1070
     5
1070
   287
1070
     5
1070
   279
1070
     2
1070
   288
1070
     1
1002
}
  0
VIEWPORT
  5
22
102
{ACAD_XDICTIONARY
360
8295
102
}
330
17
100
AcDbEntity
 67
     1
  8
0
100
AcDbViewport
 10
313.6808219178082
 20
148.5
 30
0.0
 40
627.3616438356165
 41
297.0
 68
     2
 69
     1
 12
313.6808219178082
 22
148.5
 13
0.0
 23
0.0
 14
1.0
 24
1.0
 15
10.0
 25
10.0
 16
0.0
 26
0.0
 36
1.0
 17
0.0
 27
0.0
 37
0.0
 42
50.0
 43
0.0
 44
0.0
 45
297.0
 50
0.0
 51
0.0
 72
   100
 90
    32768
  1

281
     0
 71
     1
 74
     0
110
0.0
120
0.0
130
0.0
111
1.0
121
0.0
131
0.0
112
0.0
122
1.0
132
0.0
 79
     0
146
0.0
  0
VIEWPORT
  5
64
102
{ACAD_XDICTIONARY
360
8297
102
}
330
17
100
AcDbEntity
 67
     1
  8
VIEWPORT
100
AcDbViewport
 10
210.0
 20
148.5
 30
0.0
 40
420.0
 41
297.0
 68
     1
 69
     2
 12
210.0
 22
148.5
 13
0.0
 23
0.0
 14
5.0
 24
5.0
 15
0.0
 25
0.0
 16
0.0
 26
0.0
 36
1.0
 17
0.0
 27
0.0
 37
0.0
 42
50.0
 43
0.0
 44
0.0
 45
302.9399999999998
 50
0.0
 51
0.0
 72
   100
 90
    32768
  1

281
     0
 71
     1
 74
     0
110
0.0
120
0.0
130
0.0
111
1.0
121
0.0
131
0.0
112
0.0
122
1.0
132
0.0
 79
     0
146
0.0
  0
ENDSEC
  0
SECTION
  2
OBJECTS
  0
DICTIONARY
  5
C
330
0
100
AcDbDictionary
281
     1
  3
ACAD_COLOR
350
5494
  3
ACAD_GROUP
350
D
  3
ACAD_LAYOUT
350
352
  3
ACAD_MATERIAL
350
5462
  3
ACAD_MLEADERSTYLE
350
54A9
  3
ACAD_MLINESTYLE
350
E
  3
ACAD_PLOTSETTINGS
350
353
  3
ACAD_PLOTSTYLENAME
350
350
  3
ACAD_SCALELIST
350
5497
  3
ACAD_TABLESTYLE
350
5495
  3
ACAD_VISUALSTYLE
350
547B
  3
ACDB_RECOMPOSE_DATA
350
8291
  3
AcDbVariableDictionary
350
E42
  3
DWGPROPS
350
8292
  0
DICTIONARY
  5
8293
330
8
100
AcDbDictionary
280
     1
281
     1
  3
ACAD_XREC_ROUNDTRIP
360
8294
  0
DICTIONARY
  5
54E3
330
2
100
AcDbDictionary
280
     1
281
     1
  3
ACAD_LAYERSTATES
360
54E4
  0
DICTIONARY
  5
5AFC
330
F
100
AcDbDictionary
280
     1
281
     1
  3
ADSK_XREC_LAYER_RECONCILED
360
5AFD
  0
DICTIONARY
  5
5AFE
330
62
100
AcDbDictionary
280
     1
281
     1
  3
ADSK_XREC_LAYER_RECONCILED
360
5AFF
  0
DICTIONARY
  5
5B00
330
6B
100
AcDbDictionary
280
     1
281
     1
  3
ADSK_XREC_LAYER_RECONCILED
360
5B01
  0
DICTIONARY
  5
5B02
330
BC1
100
AcDbDictionary
280
     1
281
     1
  3
ADSK_XREC_LAYER_RECONCILED
360
5B03
  0
DICTIONARY
  5
5B04
330
1216
100
AcDbDictionary
280
     1
281
     1
  3
ADSK_XREC_LAYER_RECONCILED
360
5B05
  0
DICTIONARY
  5
5B06
330
1218
100
AcDbDictionary
280
     1
281
     1
  3
ADSK_XREC_LAYER_RECONCILED
360
5B07
  0
DICTIONARY
  5
5B08
330
1627
100
AcDbDictionary
280
     1
281
     1
  3
ADSK_XREC_LAYER_RECONCILED
360
5B09
  0
DICTIONARY
  5
64B
330
1A
100
AcDbDictionary
280
     1
281
     1
  3
ACAD_LAYOUTSELFREF
360
85E5
  3
ACAD_SORTENTS
360
6B1F
  0
DICTIONARY
  5
649
330
17
100
AcDbDictionary
280
     1
281
     1
  3
ACAD_LAYOUTSELFREF
360
85E4
  0
DICTIONARY
  5
8295
330
22
100
AcDbDictionary
280
     1
281
     1
  3
ACAD_XREC_ROUNDTRIP
360
8296
  0
DICTIONARY
  5
8297
330
64
100
AcDbDictionary
280
     1
281
     1
  3
ACAD_XREC_ROUNDTRIP
360
8298
  0
DICTIONARY
  5
5494
102
{ACAD_REACTORS
330
C
102
}
330
C
100
AcDbDictionary
281
     1
  0
DICTIONARY
  5
D
102
{ACAD_REACTORS
330
C
102
}
330
C
100
AcDbDictionary
281
     1
  0
DICTIONARY
  5
352
102
{ACAD_REACTORS
330
C
102
}
330
C
100
AcDbDictionary
281
     1
  3
Model
350
354
  3
ﾚｲｱｳﾄ1
350
355
  0
DICTIONARY
  5
5462
102
{ACAD_REACTORS
330
C
102
}
330
C
100
AcDbDictionary
281
     1
  3
ByBlock
350
546B
  3
ByLayer
350
5463
  3
Global
350
5473
  0
DICTIONARY
  5
54A9
102
{ACAD_REACTORS
330
C
102
}
330
C
100
AcDbDictionary
281
     1
  3
Standard
350
54AA
  0
DICTIONARY
  5
E
102
{ACAD_REACTORS
330
C
102
}
330
C
100
AcDbDictionary
281
     1
  3
STANDARD
350
13
  0
DICTIONARY
  5
353
102
{ACAD_REACTORS
330
C
102
}
330
C
100
AcDbDictionary
281
     1
  0
ACDBDICTIONARYWDFLT
  5
350
102
{ACAD_REACTORS
330
C
102
}
330
C
100
AcDbDictionary
281
     1
  3
Normal
350
351
100
AcDbDictionaryWithDefault
340
351
1001
ACAD
1000
TREAT_AS_HARD
1070
     0
1000
TREAT_AS_HARD
1070
     0
1000
TREAT_AS_HARD
1070
     0
1000
TREAT_AS_HARD
1070
     0
1000
TREAT_AS_HARD
1070
     0
  0
DICTIONARY
  5
5497
102
{ACAD_REACTORS
330
C
102
}
330
C
100
AcDbDictionary
281
     1
  3
A0
350
5498
  3
A1
350
5499
  3
A2
350
549A
  3
A3
350
549B
  3
A4
350
549C
  3
A5
350
549D
  3
A6
350
549E
  3
A7
350
549F
  3
A8
350
54A0
  3
A9
350
54A1
  3
B0
350
54A2
  3
B1
350
54A3
  3
B2
350
54A4
  3
B3
350
54A5
  3
B4
350
54A6
  3
B5
350
54A7
  3
B6
350
54A8
  0
DICTIONARY
  5
5495
102
{ACAD_REACTORS
330
C
102
}
330
C
100
AcDbDictionary
281
     1
  3
Standard
350
5496
  0
DICTIONARY
  5
547B
102
{ACAD_REACTORS
330
C
102
}
330
C
100
AcDbDictionary
281
     1
  3
2dWireframe
350
5481
  3
Basic
350
5480
  3
Brighten
350
5487
  3
ColorChange
350
548B
  3
Conceptual
350
5484
  3
Dim
350
5486
  3
EdgeColorOff
350
5493
  3
Facepattern
350
548A
  3
Flat
350
547C
  3
FlatWithEdges
350
547D
  3
Gouraud
350
547E
  3
GouraudWithEdges
350
547F
  3
Hidden
350
5483
  3
JitterOff
350
5491
  3
Linepattern
350
5489
  3
OverhangOff
350
5492
  3
Realistic
350
5485
  3
Shaded
350
5490
  3
Shaded with edges
350
548F
  3
Shades of Gray
350
548C
  3
Sketchy
350
548D
  3
Thicken
350
5488
  3
Wireframe
350
5482
  3
X-Ray
350
548E
  0
XRECORD
  5
8291
102
{ACAD_REACTORS
330
C
102
}
330
C
100
AcDbXrecord
280
     1
 90
        1
330
5496
  0
DICTIONARY
  5
E42
102
{ACAD_REACTORS
330
C
102
}
330
C
100
AcDbDictionary
281
     1
  3
CANNOSCALE
350
5B0D
  3
CMLEADERSTYLE
350
5B0B
  3
CTABLESTYLE
350
5B0A
  3
DIMASSOC
350
82D4
  3
INDEXCTL
350
82D3
  3
LAYEREVAL
350
5B0F
  3
LAYERNOTIFY
350
5B10
  3
LIGHTINGUNITS
350
5B0E
  3
MSLTSCALE
350
5B0C
  3
SORTENTS
350
E43
  3
XCLIPFRAME
350
82D5
  0
XRECORD
  5
8292
102
{ACAD_REACTORS
330
C
102
}
330
C
100
AcDbXrecord
280
     1
  1
DWGPROPS COOKIE
  2

  3

  4

  6

  7

  8
tomomi-takahashi
  9

300
=
301
=
302
=
303
=
304
=
305
=
306
=
307
=
308
=
309
=
 40
0.3082973611111111
 41
2451094.495386573
 42
2455985.410441701
  1

 90
        0
  0
XRECORD
  5
8294
102
{ACAD_REACTORS
330
8293
102
}
330
8293
100
AcDbXrecord
280
     1
102
VTR_0.000_0.000_1.000_1.000_VISUALSTYLE
340
5481
102
VTR_0.000_0.000_1.000_1.000_GRIDDISPLAY
 70
     3
102
VTR_0.000_0.000_1.000_1.000_GRIDMAJOR
 70
     5
102
VTR_0.000_0.000_1.000_1.000_DEFAULTLIGHTING
280
     1
102
VTR_0.000_0.000_1.000_1.000_DEFAULTLIGHTINGTYPE
 70
     1
102
VTR_0.000_0.000_1.000_1.000_BRIGHTNESS
141
0.0
102
VTR_0.000_0.000_1.000_1.000_CONTRAST
142
0.0
  0
DICTIONARY
  5
54E4
102
{ACAD_REACTORS
330
54E3
102
}
330
54E3
100
AcDbDictionary
281
     1
  0
XRECORD
  5
5AFD
102
{ACAD_REACTORS
330
5AFC
102
}
330
5AFC
100
AcDbXrecord
280
     1
290
     1
  0
XRECORD
  5
5AFF
102
{ACAD_REACTORS
330
5AFE
102
}
330
5AFE
100
AcDbXrecord
280
     1
290
     1
  0
XRECORD
  5
5B01
102
{ACAD_REACTORS
330
5B00
102
}
330
5B00
100
AcDbXrecord
280
     1
290
     1
  0
XRECORD
  5
5B03
102
{ACAD_REACTORS
330
5B02
102
}
330
5B02
100
AcDbXrecord
280
     1
290
     1
  0
XRECORD
  5
5B05
102
{ACAD_REACTORS
330
5B04
102
}
330
5B04
100
AcDbXrecord
280
     1
290
     1
  0
XRECORD
  5
5B07
102
{ACAD_REACTORS
330
5B06
102
}
330
5B06
100
AcDbXrecord
280
     1
290
     1
  0
XRECORD
  5
5B09
102
{ACAD_REACTORS
330
5B08
102
}
330
5B08
100
AcDbXrecord
280
     1
290
     1
  0
XRECORD
  5
85E5
102
{ACAD_REACTORS
330
64B
102
}
330
64B
100
AcDbXrecord
280
     1
340
1A
  0
SORTENTSTABLE
  5
6B1F
102
{ACAD_REACTORS
330
64B
102
}
330
64B
100
AcDbSortentsTable
330
1A
331
8153
  5
8153
331
D89
  5
D89
331
816B
  5
816C
331
D99
  5
D99
331
D91
  5
D91
331
8173
  5
8174
331
DA1
  5
DA1
331
DA9
  5
DA9
331
DB9
  5
DB9
331
817B
  5
817C
331
DC1
  5
DC1
331
DB1
  5
DB1
331
DD9
  5
DD9
331
DC9
  5
DC9
331
DD1
  5
DD1
331
DE1
  5
DE1
331
DF9
  5
DF9
331
DE9
  5
DE9
331
E01
  5
E01
331
DF1
  5
DF1
331
E09
  5
E09
331
E11
  5
E11
331
E19
  5
E19
331
E31
  5
E31
331
E21
  5
E21
331
E39
  5
E39
331
E29
  5
E29
331
539A
  5
539A
331
8152
  5
8152
331
D88
  5
D88
331
D98
  5
D98
331
815A
  5
815B
331
D90
  5
D90
331
816A
  5
816B
331
8172
  5
8173
331
DA0
  5
DA0
331
DB8
  5
DB8
331
817A
  5
817B
331
DA8
  5
DA8
331
DC0
  5
DC0
331
DB0
  5
DB0
331
DC8
  5
DC8
331
DD8
  5
DD8
331
DE0
  5
DE0
331
81A2
  5
81AF
331
DD0
  5
DD0
331
DF8
  5
DF8
331
DE8
  5
DE8
331
E00
  5
E00
331
DF0
  5
DF0
331
E10
  5
E10
331
E08
  5
E08
331
E18
  5
E18
331
E20
  5
E20
331
E30
  5
E30
331
E38
  5
E38
331
E28
  5
E28
331
D87
  5
D87
331
8159
  5
815A
331
D8F
  5
D8F
331
8171
  5
8172
331
D9F
  5
D9F
331
D97
  5
D97
331
8179
  5
817A
331
DA7
  5
DA7
331
DAF
  5
DAF
331
DBF
  5
DBF
331
DC7
  5
DC7
331
DB7
  5
DB7
331
DDF
  5
DDF
331
DCF
  5
DCF
331
DE7
  5
DE7
331
DD7
  5
DD7
331
DFF
  5
DFF
331
DEF
  5
DEF
331
E07
  5
E07
331
DF7
  5
DF7
331
E17
  5
E17
331
E0F
  5
E0F
331
E1F
  5
E1F
331
E37
  5
E37
331
E27
  5
E27
331
E2F
  5
E2F
331
2370
  5
2370
331
8150
  5
8150
331
8168
  5
8169
331
D8E
  5
D8E
331
8170
  5
8171
331
D9E
  5
D9E
331
D96
  5
D96
331
8188
  5
8195
331
8178
  5
8179
331
DA6
  5
DA6
331
DBE
  5
DBE
331
DAE
  5
DAE
331
DC6
  5
DC6
331
DB6
  5
DB6
331
DCE
  5
DCE
331
DDE
  5
DDE
331
DE6
  5
DE6
331
DD6
  5
DD6
331
DFE
  5
DFE
331
DEE
  5
DEE
331
E06
  5
E06
331
DF6
  5
DF6
331
E16
  5
E16
331
E0E
  5
E0E
331
E1E
  5
E1E
331
E36
  5
E36
331
E26
  5
E26
331
E2E
  5
E2E
331
D8D
  5
D8D
331
D95
  5
D95
331
816F
  5
8170
331
D9D
  5
D9D
331
8177
  5
8178
331
DA5
  5
DA5
331
DBD
  5
DBD
331
DAD
  5
DAD
331
DC5
  5
DC5
331
DB5
  5
DB5
331
DDD
  5
DDD
331
DCD
  5
DCD
331
DE5
  5
DE5
331
DD5
  5
DD5
331
DED
  5
DED
331
DFD
  5
DFD
331
E05
  5
E05
331
DF5
  5
DF5
331
E15
  5
E15
331
E0D
  5
E0D
331
E1D
  5
E1D
331
E35
  5
E35
331
E25
  5
E25
331
E2D
  5
E2D
331
8156
  5
8159
331
D8C
  5
D8C
331
816E
  5
816F
331
D9C
  5
D9C
331
D94
  5
D94
331
8176
  5
8177
331
DA4
  5
DA4
331
8166
  5
8167
331
DAC
  5
DAC
331
DBC
  5
DBC
331
817E
  5
817F
331
DC4
  5
DC4
331
DB4
  5
DB4
331
DDC
  5
DDC
331
DCC
  5
DCC
331
DE4
  5
DE4
331
DD4
  5
DD4
331
DFC
  5
DFC
331
DEC
  5
DEC
331
E04
  5
E04
331
DF4
  5
DF4
331
E14
  5
E14
331
E0C
  5
E0C
331
E1C
  5
E1C
331
E34
  5
E34
331
E24
  5
E24
331
E2C
  5
E2C
331
8155
  5
8155
331
D8B
  5
D8B
331
816D
  5
816E
331
D9B
  5
D9B
331
D93
  5
D93
331
8175
  5
8176
331
DA3
  5
DA3
331
DBB
  5
DBB
331
817D
  5
817E
331
DAB
  5
DAB
331
8195
  5
81A2
331
DC3
  5
DC3
331
DB3
  5
DB3
331
DCB
  5
DCB
331
DDB
  5
DDB
331
DE3
  5
DE3
331
DD3
  5
DD3
331
DFB
  5
DFB
331
DEB
  5
DEB
331
E03
  5
E03
331
DF3
  5
DF3
331
E13
  5
E13
331
E0B
  5
E0B
331
E1B
  5
E1B
331
E33
  5
E33
331
E23
  5
E23
331
E2B
  5
E2B
331
8154
  5
8154
331
D8A
  5
D8A
331
D92
  5
D92
331
816C
  5
816D
331
D9A
  5
D9A
331
815C
  5
815D
331
8174
  5
8175
331
DA2
  5
DA2
331
DBA
  5
DBA
331
817C
  5
817D
331
DAA
  5
DAA
331
DB2
  5
DB2
331
DC2
  5
DC2
331
DDA
  5
DDA
331
DCA
  5
DCA
331
DE2
  5
DE2
331
DD2
  5
DD2
331
DEA
  5
DEA
331
DFA
  5
DFA
331
E02
  5
E02
331
DF2
  5
DF2
331
E12
  5
E12
331
E0A
  5
E0A
331
E1A
  5
E1A
331
E32
  5
E32
331
E22
  5
E22
331
E3A
  5
E3A
331
E2A
  5
E2A
  0
XRECORD
  5
85E4
102
{ACAD_REACTORS
330
649
102
}
330
649
100
AcDbXrecord
280
     1
340
17
  0
XRECORD
  5
8296
102
{ACAD_REACTORS
330
8295
102
}
330
8295
100
AcDbXrecord
280
     1
102
SHADEPLOT
 70
     0
102
VISUALSTYLE
340
5481
102
GRIDDISPLAY
 70
     0
102
GRIDMAJOR
 70
     5
102
DEFAULTLIGHTING
280
     1
102
DEFAULTLIGHTINGTYPE
 70
     1
102
BRIGHTNESS
141
0.0
102
CONTRAST
142
0.0
  0
XRECORD
  5
8298
102
{ACAD_REACTORS
330
8297
102
}
330
8297
100
AcDbXrecord
280
     1
102
SHADEPLOT
 70
     0
102
VISUALSTYLE
340
5481
102
GRIDDISPLAY
 70
     0
102
GRIDMAJOR
 70
     5
102
DEFAULTLIGHTING
280
     1
102
DEFAULTLIGHTINGTYPE
 70
     1
102
BRIGHTNESS
141
0.0
102
CONTRAST
142
0.0
  0
LAYOUT
  5
354
102
{ACAD_XDICTIONARY
360
6C6B
102
}
102
{ACAD_REACTORS
330
352
102
}
330
352
100
AcDbPlotSettings
  1

  2
Acrobat Distiller
  4
A3
  6

 40
3.174999952316284
 41
3.174999952316284
 42
3.17498779296875
 43
3.17498779296875
 44
297.0318298339843
 45
420.1583251953125
 46
5.0
 47
5.0
 48
0.0
 49
0.0
140
0.0
141
0.0
142
1.0
143
1.0
 70
 11952
 72
     1
 73
     1
 74
     2
  7
print.ctb
 75
    16
147
1.0
148
0.0
149
0.0
100
AcDbLayout
  1
Model
 70
     1
 71
     0
 10
0.0
 20
0.0
 11
12.0
 21
9.0
 12
0.0
 22
0.0
 32
0.0
 14
0.0
 24
0.0
 34
0.0
 15
0.0
 25
0.0
 35
0.0
146
0.0
 13
0.0
 23
0.0
 33
0.0
 16
1.0
 26
0.0
 36
0.0
 17
0.0
 27
1.0
 37
0.0
 76
     0
330
1A
  0
LAYOUT
  5
355
102
{ACAD_XDICTIONARY
360
829A
102
}
102
{ACAD_REACTORS
330
352
102
}
330
352
100
AcDbPlotSettings
  1

  2
C:\PROGRAM FILES\ACAD LT 2000\plotters\DWF ePlot.pc3
  4

  6

 40
0.0
 41
0.0
 42
0.0
 43
0.0
 44
0.0
 45
0.0
 46
0.0
 47
0.0
 48
0.0
 49
0.0
140
0.0
141
0.0
142
1.0
143
1.0
 70
   688
 72
     0
 73
     0
 74
     5
  7
print.ctb
 75
    16
147
1.0
148
0.0
149
0.0
100
AcDbLayout
  1
ﾚｲｱｳﾄ1
 70
     1
 71
     1
 10
0.0
 20
0.0
 11
420.0
 21
297.0
 12
0.0
 22
0.0
 32
0.0
 14
0.0
 24
0.0
 34
0.0
 15
420.0
 25
297.0
 35
0.0
146
0.0
 13
0.0
 23
0.0
 33
0.0
 16
1.0
 26
0.0
 36
0.0
 17
0.0
 27
1.0
 37
0.0
 76
     0
330
17
331
64
  0
ACAD_PROXY_OBJECT
  5
546B
102
{ACAD_XDICTIONARY
360
546C
102
}
102
{ACAD_REACTORS
330
5462
102
}
330
5462
100
AcDbProxyObject
 90
      499
 91
      556
 95
   393239
 70
     0
 93
     1340
310
42109E509B1BD8DAC02004014080404555555555555953FAA155555555555654FEA9AA400014080404555555555555953FAA155555555555654FEA9AA400000000000000E03F4080404555555555555953FAA155555555555654FEA9AA4014080404555555555555953FAA155555555555654FEA9AA4010201011555555555
310
55654FEA8555555555555953FAA6A9005020101155555555555654FEA8555555555555953FAA6A9000
 94
        0
  0
ACAD_PROXY_OBJECT
  5
5463
102
{ACAD_XDICTIONARY
360
5464
102
}
102
{ACAD_REACTORS
330
5462
102
}
330
5462
100
AcDbProxyObject
 90
      499
 91
      556
 95
   393239
 70
     0
 93
     1340
310
42109E53185E595C802004014080404555555555555953FAA155555555555654FEA9AA400014080404555555555555953FAA155555555555654FEA9AA400000000000000E03F4080404555555555555953FAA155555555555654FEA9AA4014080404555555555555953FAA155555555555654FEA9AA4010201011555555555
310
55654FEA8555555555555953FAA6A9005020101155555555555654FEA8555555555555953FAA6A900D
 94
        0
  0
ACAD_PROXY_OBJECT
  5
5473
102
{ACAD_XDICTIONARY
360
5474
102
}
102
{ACAD_REACTORS
330
5462
102
}
330
5462
100
AcDbProxyObject
 90
      499
 91
      556
 95
   393239
 70
     0
 93
     1332
310
41D1DB1BD8985B002004014080404555555555555953FAA155555555555654FEA9AA400014080404555555555555953FAA155555555555654FEA9AA400000000000000E03F4080404555555555555953FAA155555555555654FEA9AA4014080404555555555555953FAA155555555555654FEA9AA401020101155555555555
310
654FEA8555555555555953FAA6A9005020101155555555555654FEA8555555555555953FAA6A9001
 94
        0
  0
ACAD_PROXY_OBJECT
  5
54AA
102
{ACAD_REACTORS
330
54A9
102
}
330
54A9
100
AcDbProxyObject
 90
      499
 91
      560
 95
   393239
 70
     0
 93
      618
310
40901902A4063FBFFFFFE000000000000002040AD7A3703D0AD73F4254DD185B99185C99000000000000000104090141901A00000000000004100000000000000041025764000000000000300FC0
340
14
340
0
340
10
340
0
 94
        0
  0
MLINESTYLE
  5
13
102
{ACAD_REACTORS
330
E
102
}
330
E
100
AcDbMlineStyle
  2
STANDARD
 70
     0
  3

 62
     0
 51
90.0
 52
90.0
 71
     2
 49
0.5
 62
   256
  6
BYLAYER
 49
-0.5
 62
   256
  6
BYLAYER
  0
ACDBPLACEHOLDER
  5
351
102
{ACAD_REACTORS
330
350
102
}
330
350
  0
ACAD_PROXY_OBJECT
  5
5498
102
{ACAD_REACTORS
330
5497
102
}
330
5497
100
AcDbProxyObject
 90
      499
 91
      559
 95
   393239
 70
     0
 93
       49
310
904313A3100580
 94
        0
  0
ACAD_PROXY_OBJECT
  5
5499
102
{ACAD_REACTORS
330
5497
102
}
330
5497
100
AcDbProxyObject
 90
      499
 91
      559
 95
   393239
 70
     0
 93
      113
310
904313A32004000000000000004004
 94
        0
  0
ACAD_PROXY_OBJECT
  5
549A
102
{ACAD_REACTORS
330
5497
102
}
330
5497
100
AcDbProxyObject
 90
      499
 91
      559
 95
   393239
 70
     0
 93
      113
310
904313A34004000000000000104004
 94
        0
  0
ACAD_PROXY_OBJECT
  5
549B
102
{ACAD_REACTORS
330
5497
102
}
330
5497
100
AcDbProxyObject
 90
      499
 91
      559
 95
   393239
 70
     0
 93
      113
310
904313A35004000000000000144004
 94
        0
  0
ACAD_PROXY_OBJECT
  5
549C
102
{ACAD_REACTORS
330
5497
102
}
330
5497
100
AcDbProxyObject
 90
      499
 91
      559
 95
   393239
 70
     0
 93
      113
310
904313A38004000000000000204004
 94
        0
  0
ACAD_PROXY_OBJECT
  5
549D
102
{ACAD_REACTORS
330
5497
102
}
330
5497
100
AcDbProxyObject
 90
      499
 91
      559
 95
   393239
 70
     0
 93
      121
310
905313A3130004000000000000244000
 94
        0
  0
ACAD_PROXY_OBJECT
  5
549E
102
{ACAD_REACTORS
330
5497
102
}
330
5497
100
AcDbProxyObject
 90
      499
 91
      559
 95
   393239
 70
     0
 93
      121
310
905313A3136004000000000000304000
 94
        0
  0
ACAD_PROXY_OBJECT
  5
549F
102
{ACAD_REACTORS
330
5497
102
}
330
5497
100
AcDbProxyObject
 90
      499
 91
      559
 95
   393239
 70
     0
 93
      121
310
905313A3230004000000000000344000
 94
        0
  0
ACAD_PROXY_OBJECT
  5
54A0
102
{ACAD_REACTORS
330
5497
102
}
330
5497
100
AcDbProxyObject
 90
      499
 91
      559
 95
   393239
 70
     0
 93
      121
310
905313A33300040000000000003E4000
 94
        0
  0
ACAD_PROXY_OBJECT
  5
54A1
102
{ACAD_REACTORS
330
5497
102
}
330
5497
100
AcDbProxyObject
 90
      499
 91
      559
 95
   393239
 70
     0
 93
      121
310
905313A3430004000000000000444000
 94
        0
  0
ACAD_PROXY_OBJECT
  5
54A2
102
{ACAD_REACTORS
330
5497
102
}
330
5497
100
AcDbProxyObject
 90
      499
 91
      559
 95
   393239
 70
     0
 93
      121
310
905313A3530004000000000000494000
 94
        0
  0
ACAD_PROXY_OBJECT
  5
54A3
102
{ACAD_REACTORS
330
5497
102
}
330
5497
100
AcDbProxyObject
 90
      499
 91
      559
 95
   393239
 70
     0
 93
      129
310
906313A313030004000000000000594000
 94
        0
  0
ACAD_PROXY_OBJECT
  5
54A4
102
{ACAD_REACTORS
330
5497
102
}
330
5497
100
AcDbProxyObject
 90
      499
 91
      559
 95
   393239
 70
     0
 93
      113
310
904323A31000000000000000010140
 94
        0
  0
ACAD_PROXY_OBJECT
  5
54A5
102
{ACAD_REACTORS
330
5497
102
}
330
5497
100
AcDbProxyObject
 90
      499
 91
      559
 95
   393239
 70
     0
 93
      113
310
904343A31000000000000000410159
 94
        0
  0
ACAD_PROXY_OBJECT
  5
54A6
102
{ACAD_REACTORS
330
5497
102
}
330
5497
100
AcDbProxyObject
 90
      499
 91
      559
 95
   393239
 70
     0
 93
      113
310
904383A31000000000000000810140
 94
        0
  0
ACAD_PROXY_OBJECT
  5
54A7
102
{ACAD_REACTORS
330
5497
102
}
330
5497
100
AcDbProxyObject
 90
      499
 91
      559
 95
   393239
 70
     0
 93
      121
310
90531303A31000000000000000910100
 94
        0
  0
ACAD_PROXY_OBJECT
  5
54A8
102
{ACAD_REACTORS
330
5497
102
}
330
5497
100
AcDbProxyObject
 90
      499
 91
      559
 95
   393239
 70
     0
 93
      129
310
9063130303A31000000000000001650100
 94
        0
  0
ACAD_PROXY_OBJECT
  5
5496
102
{ACAD_XDICTIONARY
360
828F
102
}
102
{ACAD_REACTORS
330
5495
102
}
330
5495
100
AcDbProxyObject
 90
      499
 91
      558
 95
   393239
 70
     0
 93
     1849
310
4254DD185B99185C990028000000000000F83F0000000000003E0FC00000000000004901028000000C1008070000C3001FDFF8000000C1003FBFF000000182007F7FE00000030400FEFFC00000060801FDFF8000000C1003FBFF000000182000000000000000C2020B0000001820100E000186003FBFF000000182007F7FE0
310
0000030400FEFFC00000060801FDFF8000000C1003FBFF000000182007F7FE0000003040000000000000012404160000003040201C00030C007F7FE00000030400FEFFC00000060801FDFF8000000C1003FBFF000000182007F7FE00000030400FEFFC000000608000
340
10
340
10
340
10
 94
        0
  0
ACAD_PROXY_OBJECT
  5
5481
102
{ACAD_XDICTIONARY
360
82A9
102
}
102
{ACAD_REACTORS
330
547B
102
}
330
547B
100
AcDbProxyObject
 90
      499
 91
      557
 95
   393239
 70
     0
 93
      444
310
430C9915DA5C99599C985B59401049028333333333333E3BF0000000000000FB0107901411070040501600405405064090741402480A0340
 94
        0
1001
ACAD
1000
AcDbSavedByObjectVersion
1070
     0
  0
ACAD_PROXY_OBJECT
  5
5480
102
{ACAD_XDICTIONARY
360
82A7
102
}
102
{ACAD_REACTORS
330
547B
102
}
330
547B
100
AcDbProxyObject
 90
      499
 91
      557
 95
   393239
 70
     0
 93
      396
310
4190985CDA58C0107406404333333333333E3BF0000000000000FB0107A41107004050150841D405064090741402480A0350
 94
        0
1001
ACAD
1000
AcDbSavedByObjectVersion
1070
     0
  0
ACAD_PROXY_OBJECT
  5
5487
102
{ACAD_XDICTIONARY
360
82B5
102
}
102
{ACAD_REACTORS
330
547B
102
}
330
547B
100
AcDbProxyObject
 90
      499
 91
      557
 95
   393239
 70
     0
 93
      436
310
42509C9A59DA1D195B8010C409028333333333333E3BF0000000000000FB010790141107004050150841D405064090741402480A029950
 94
        0
1001
ACAD
1000
AcDbSavedByObjectVersion
1070
     0
  0
ACAD_PROXY_OBJECT
  5
548B
102
{ACAD_XDICTIONARY
360
82BD
102
}
102
{ACAD_REACTORS
330
547B
102
}
330
547B
100
AcDbProxyObject
 90
      499
 91
      557
 95
   393239
 70
     0
 93
      460
310
4310DBDB1BDC90DA185B99D9401104090240C333333333333E3BF0000000000000FB0108901411070040501508421405064090741402480A0350
 94
        0
1001
ACAD
1000
AcDbSavedByObjectVersion
1070
     0
  0
ACAD_PROXY_OBJECT
  5
5484
102
{ACAD_XDICTIONARY
360
82AF
102
}
102
{ACAD_REACTORS
330
547B
102
}
330
547B
100
AcDbProxyObject
 90
      499
 91
      557
 95
   393239
 70
     0
 93
      508
310
42D0DBDB98D95C1D1D585B0010940D028333333333333E3BF0000000000000FB0107902409070040501000000000018199010841D405064090740C02480A0345
 94
        0
1001
ACAD
1000
AcDbSavedByObjectVersion
1070
     0
  0
ACAD_PROXY_OBJECT
  5
5486
102
{ACAD_XDICTIONARY
360
82B3
102
}
102
{ACAD_REACTORS
330
547B
102
}
330
547B
100
AcDbProxyObject
 90
      499
 91
      557
 95
   393239
 70
     0
 93
      420
310
41111A5B4010B409028333333333333E3BF0000000000000FB010790141107004050150841D405064090741402480A02677FFFFFDA
 94
        0
1001
ACAD
1000
AcDbSavedByObjectVersion
1070
     0
  0
ACAD_PROXY_OBJECT
  5
5493
102
{ACAD_XDICTIONARY
360
82CD
102
}
102
{ACAD_REACTORS
330
547B
102
}
330
547B
100
AcDbProxyObject
 90
      499
 91
      557
 95
   393239
 70
     0
 93
      460
310
43515919D950DBDB1BDC93D99980116409028333333333333E3BF0000000000000FB010790141107004050150841D405064090741402480A0350
 94
        0
1001
ACAD
1000
AcDbSavedByObjectVersion
1070
     0
  0
ACAD_PROXY_OBJECT
  5
548A
102
{ACAD_XDICTIONARY
360
82BB
102
}
102
{ACAD_REACTORS
330
547B
102
}
330
547B
100
AcDbProxyObject
 90
      499
 91
      557
 95
   393239
 70
     0
 93
      452
310
43119858D95C185D1D195C9B8010F409028333333333333E3BF0000000000000FB010790141107004050150841D405064090741402480A0350
 94
        0
1001
ACAD
1000
AcDbSavedByObjectVersion
1070
     0
  0
ACAD_PROXY_OBJECT
  5
547C
102
{ACAD_XDICTIONARY
360
829F
102
}
102
{ACAD_REACTORS
330
547B
102
}
330
547B
100
AcDbProxyObject
 90
      499
 91
      557
 95
   393239
 70
     0
 93
      388
310
41519B185D00240901404333333333333E3BF0000000000000F9010740A907004050150841D405064090741402480A1B5F
 94
        0
1001
ACAD
1000
AcDbSavedByObjectVersion
1070
     0
  0
ACAD_PROXY_OBJECT
  5
547D
102
{ACAD_XDICTIONARY
360
82A1
102
}
102
{ACAD_REACTORS
330
547B
102
}
330
547B
100
AcDbProxyObject
 90
      499
 91
      557
 95
   393239
 70
     0
 93
      476
310
43919B185D15DA5D1A115919D95CC010140901404333333333333E3BF0000000000000F90107409019070040501600405405064090741402480A1B53
 94
        0
1001
ACAD
1000
AcDbSavedByObjectVersion
1070
     0
  0
ACAD_PROXY_OBJECT
  5
547E
102
{ACAD_XDICTIONARY
360
82A3
102
}
102
{ACAD_REACTORS
330
547B
102
}
330
547B
100
AcDbProxyObject
 90
      499
 91
      557
 95
   393239
 70
     0
 93
      412
310
4211DBDD5C985D590010240902404333333333333E3BF0000000000000F9010740A9070040501641D405064090741402480A1B50
 94
        0
1001
ACAD
1000
AcDbSavedByObjectVersion
1070
     0
  0
ACAD_PROXY_OBJECT
  5
547F
102
{ACAD_XDICTIONARY
360
82A5
102
}
102
{ACAD_REACTORS
330
547B
102
}
330
547B
100
AcDbProxyObject
 90
      499
 91
      557
 95
   393239
 70
     0
 93
      500
310
4451DBDD5C985D5915DA5D1A115919D95CC010340902404333333333333E3BF0000000000000F90107409019070040501600405405064090741402480A1B5B
 94
        0
1001
ACAD
1000
AcDbSavedByObjectVersion
1070
     0
  0
ACAD_PROXY_OBJECT
  5
5483
102
{ACAD_XDICTIONARY
360
82AD
102
}
102
{ACAD_REACTORS
330
547B
102
}
330
547B
100
AcDbProxyObject
 90
      499
 91
      557
 95
   393239
 70
     0
 93
      484
310
41D21A5919195B8010640502408333333333333E3BF0000000000000FB01079024090700405020000000000001110200405405064090740C02480A0340
 94
        0
1001
ACAD
1000
AcDbSavedByObjectVersion
1070
     0
  0
ACAD_PROXY_OBJECT
  5
5491
102
{ACAD_XDICTIONARY
360
82C9
102
}
102
{ACAD_REACTORS
330
547B
102
}
330
547B
100
AcDbProxyObject
 90
      499
 91
      557
 95
   393239
 70
     0
 93
      436
310
42929A5D1D195C93D99980114409028333333333333E3BF0000000000000FB010790141107004050150A41D405064090741402480A0354
 94
        0
1001
ACAD
1000
AcDbSavedByObjectVersion
1070
     0
  0
ACAD_PROXY_OBJECT
  5
5489
102
{ACAD_XDICTIONARY
360
82B9
102
}
102
{ACAD_REACTORS
330
547B
102
}
330
547B
100
AcDbProxyObject
 90
      499
 91
      557
 95
   393239
 70
     0
 93
      452
310
43131A5B995C185D1D195C9B8010E409028333333333333E3BF0000000000000FB010790141107004050750841D405064090741402483A035C
 94
        0
1001
ACAD
1000
AcDbSavedByObjectVersion
1070
     0
  0
ACAD_PROXY_OBJECT
  5
5492
102
{ACAD_XDICTIONARY
360
82CB
102
}
102
{ACAD_REACTORS
330
547B
102
}
330
547B
100
AcDbProxyObject
 90
      499
 91
      557
 95
   393239
 70
     0
 93
      452
310
4313DD995C9A185B99D3D99980115409028333333333333E3BF0000000000000FB010790141107004050150941D405064090741402480A0356
 94
        0
1001
ACAD
1000
AcDbSavedByObjectVersion
1070
     0
  0
ACAD_PROXY_OBJECT
  5
5485
102
{ACAD_XDICTIONARY
360
82B1
102
}
102
{ACAD_REACTORS
330
547B
102
}
330
547B
100
AcDbProxyObject
 90
      499
 91
      557
 95
   393239
 70
     0
 93
      436
310
429499585B1A5CDD1A58C0108409028333333333333E3BF0000000000000F9010740A907004050150800405405064090740C02480A1B44
 94
        0
1001
ACAD
1000
AcDbSavedByObjectVersion
1070
     0
  0
ACAD_PROXY_OBJECT
  5
5490
102
{ACAD_XDICTIONARY
360
82C7
102
}
102
{ACAD_REACTORS
330
547B
102
}
330
547B
100
AcDbProxyObject
 90
      499
 91
      557
 95
   393239
 70
     0
 93
      428
310
41D4DA185919590011B40902404333333333333E3BF0000000000000F9010740A41107004050150800405405064090840C02480A0B40
 94
        0
1001
ACAD
1000
AcDbSavedByObjectVersion
1070
     0
  0
ACAD_PROXY_OBJECT
  5
548F
102
{ACAD_XDICTIONARY
360
82C5
102
}
102
{ACAD_REACTORS
330
547B
102
}
330
547B
100
AcDbProxyObject
 90
      499
 91
      557
 95
   393239
 70
     0
 93
      524
310
4494DA18591959081DDA5D1A08195919D95CC011A40902404333333333333E3BF0000000000000F901074090142907004050250800405405064090740C02480A0B40
 94
        0
1001
ACAD
1000
AcDbSavedByObjectVersion
1070
     0
  0
ACAD_PROXY_OBJECT
  5
548C
102
{ACAD_XDICTIONARY
360
82BF
102
}
102
{ACAD_REACTORS
330
547B
102
}
330
547B
100
AcDbProxyObject
 90
      499
 91
      557
 95
   393239
 70
     0
 93
      540
310
43D4DA1859195CC81BD98811DC985E401174090240C333333333333E3BF0000000000000FB01079024090741D01000000000000111010841D405064090740C02480A0340
 94
        0
1001
ACAD
1000
AcDbSavedByObjectVersion
1070
     0
  0
ACAD_PROXY_OBJECT
  5
548D
102
{ACAD_XDICTIONARY
360
82C1
102
}
102
{ACAD_REACTORS
330
547B
102
}
330
547B
100
AcDbProxyObject
 90
      499
 91
      557
 95
   393239
 70
     0
 93
      484
310
4214DAD95D18DA1E4011840502408333333333333E3BF0000000000000FB01079024090741D01000000000000111010B41D405064090741802480A0340
 94
        0
1001
ACAD
1000
AcDbSavedByObjectVersion
1070
     0
  0
ACAD_PROXY_OBJECT
  5
5488
102
{ACAD_XDICTIONARY
360
82B7
102
}
102
{ACAD_REACTORS
330
547B
102
}
330
547B
100
AcDbProxyObject
 90
      499
 91
      557
 95
   393239
 70
     0
 93
      420
310
42151A1A58DAD95B8010D409028333333333333E3BF0000000000000FB010790141107004050150C41D405064090741402480A0352
 94
        0
1001
ACAD
1000
AcDbSavedByObjectVersion
1070
     0
  0
ACAD_PROXY_OBJECT
  5
5482
102
{ACAD_XDICTIONARY
360
82AB
102
}
102
{ACAD_REACTORS
330
547B
102
}
330
547B
100
AcDbProxyObject
 90
      499
 91
      557
 95
   393239
 70
     0
 93
      428
310
4295DA5C99599C985B59401059028333333333333E3BF0000000000000FB0107901411070040501600405405064090740C02480A0341
 94
        0
1001
ACAD
1000
AcDbSavedByObjectVersion
1070
     0
  0
ACAD_PROXY_OBJECT
  5
548E
102
{ACAD_XDICTIONARY
360
82C3
102
}
102
{ACAD_REACTORS
330
547B
102
}
330
547B
100
AcDbProxyObject
 90
      499
 91
      557
 95
   393239
 70
     0
 93
      412
310
41960B54985E4011940902404000000000000E03F0000000000000FB010740501907004050150841D405064090740C02480A1B40
 94
        0
1001
ACAD
1000
AcDbSavedByObjectVersion
1070
     0
  0
DICTIONARYVAR
  5
5B0D
102
{ACAD_REACTORS
330
E42
102
}
330
E42
100
DictionaryVariables
280
     0
  1
1:1
  0
DICTIONARYVAR
  5
5B0B
102
{ACAD_REACTORS
330
E42
102
}
330
E42
100
DictionaryVariables
280
     0
  1
STANDARD
  0
DICTIONARYVAR
  5
5B0A
102
{ACAD_REACTORS
330
E42
102
}
330
E42
100
DictionaryVariables
280
     0
  1
STANDARD
  0
DICTIONARYVAR
  5
82D4
102
{ACAD_REACTORS
330
E42
102
}
330
E42
100
DictionaryVariables
280
     0
  1
1
  0
DICTIONARYVAR
  5
82D3
102
{ACAD_REACTORS
330
E42
102
}
330
E42
100
DictionaryVariables
280
     0
  1
0
  0
DICTIONARYVAR
  5
5B0F
102
{ACAD_REACTORS
330
E42
102
}
330
E42
100
DictionaryVariables
280
     0
  1
1
  0
DICTIONARYVAR
  5
5B10
102
{ACAD_REACTORS
330
E42
102
}
330
E42
100
DictionaryVariables
280
     0
  1
15
  0
DICTIONARYVAR
  5
5B0E
102
{ACAD_REACTORS
330
E42
102
}
330
E42
100
DictionaryVariables
280
     0
  1
0
  0
DICTIONARYVAR
  5
5B0C
102
{ACAD_REACTORS
330
E42
102
}
330
E42
100
DictionaryVariables
280
     0
  1
0
  0
DICTIONARYVAR
  5
E43
102
{ACAD_REACTORS
330
E42
102
}
330
E42
100
DictionaryVariables
280
     0
  1
96
  0
DICTIONARYVAR
  5
82D5
102
{ACAD_REACTORS
330
E42
102
}
330
E42
100
DictionaryVariables
280
     0
  1
2
  0
DICTIONARY
  5
6C6B
330
354
100
AcDbDictionary
280
     1
281
     1
  3
ACAD_XREC_ROUNDTRIP
360
8299
  3
ADSK_XREC_LAYOUTTHUMBNAIL
360
6C6C
  0
DICTIONARY
  5
829A
330
355
100
AcDbDictionary
280
     1
281
     1
  3
ACAD_XREC_ROUNDTRIP
360
829B
  0
DICTIONARY
  5
546C
330
546B
100
AcDbDictionary
280
     1
281
     1
  3
ACAD_XREC_ROUNDTRIP
360
829D
  3
BUMPTILE
360
546E
  3
DIFFUSETILE
360
546D
  3
OPACITYTILE
360
5471
  3
REFLECTIONTILE
360
5470
  3
REFRACTIONTILE
360
5472
  3
SPECULARTILE
360
546F
  0
DICTIONARY
  5
5464
330
5463
100
AcDbDictionary
280
     1
281
     1
  3
ACAD_XREC_ROUNDTRIP
360
829C
  3
BUMPTILE
360
5466
  3
DIFFUSETILE
360
5465
  3
OPACITYTILE
360
5469
  3
REFLECTIONTILE
360
5468
  3
REFRACTIONTILE
360
546A
  3
SPECULARTILE
360
5467
  0
DICTIONARY
  5
5474
330
5473
100
AcDbDictionary
280
     1
281
     1
  3
ACAD_XREC_ROUNDTRIP
360
829E
  3
BUMPTILE
360
5476
  3
DIFFUSETILE
360
5475
  3
OPACITYTILE
360
5479
  3
REFLECTIONTILE
360
5478
  3
REFRACTIONTILE
360
547A
  3
SPECULARTILE
360
5477
  0
DICTIONARY
  5
828F
330
5496
100
AcDbDictionary
280
     1
281
     1
  3
ACAD_ROUNDTRIP_2008_TABLESTYLE_CELLSTYLEMAP
360
8290
  3
ACAD_XREC_ROUNDTRIP
360
82CF
  0
DICTIONARY
  5
82A9
330
5481
100
AcDbDictionary
280
     1
281
     1
  3
ACAD_XREC_ROUNDTRIP
360
82AA
  0
DICTIONARY
  5
82A7
330
5480
100
AcDbDictionary
280
     1
281
     1
  3
ACAD_XREC_ROUNDTRIP
360
82A8
  0
DICTIONARY
  5
82B5
330
5487
100
AcDbDictionary
280
     1
281
     1
  3
ACAD_XREC_ROUNDTRIP
360
82B6
  0
DICTIONARY
  5
82BD
330
548B
100
AcDbDictionary
280
     1
281
     1
  3
ACAD_XREC_ROUNDTRIP
360
82BE
  0
DICTIONARY
  5
82AF
330
5484
100
AcDbDictionary
280
     1
281
     1
  3
ACAD_XREC_ROUNDTRIP
360
82B0
  0
DICTIONARY
  5
82B3
330
5486
100
AcDbDictionary
280
     1
281
     1
  3
ACAD_XREC_ROUNDTRIP
360
82B4
  0
DICTIONARY
  5
82CD
330
5493
100
AcDbDictionary
280
     1
281
     1
  3
ACAD_XREC_ROUNDTRIP
360
82CE
  0
DICTIONARY
  5
82BB
330
548A
100
AcDbDictionary
280
     1
281
     1
  3
ACAD_XREC_ROUNDTRIP
360
82BC
  0
DICTIONARY
  5
829F
330
547C
100
AcDbDictionary
280
     1
281
     1
  3
ACAD_XREC_ROUNDTRIP
360
82A0
  0
DICTIONARY
  5
82A1
330
547D
100
AcDbDictionary
280
     1
281
     1
  3
ACAD_XREC_ROUNDTRIP
360
82A2
  0
DICTIONARY
  5
82A3
330
547E
100
AcDbDictionary
280
     1
281
     1
  3
ACAD_XREC_ROUNDTRIP
360
82A4
  0
DICTIONARY
  5
82A5
330
547F
100
AcDbDictionary
280
     1
281
     1
  3
ACAD_XREC_ROUNDTRIP
360
82A6
  0
DICTIONARY
  5
82AD
330
5483
100
AcDbDictionary
280
     1
281
     1
  3
ACAD_XREC_ROUNDTRIP
360
82AE
  0
DICTIONARY
  5
82C9
330
5491
100
AcDbDictionary
280
     1
281
     1
  3
ACAD_XREC_ROUNDTRIP
360
82CA
  0
DICTIONARY
  5
82B9
330
5489
100
AcDbDictionary
280
     1
281
     1
  3
ACAD_XREC_ROUNDTRIP
360
82BA
  0
DICTIONARY
  5
82CB
330
5492
100
AcDbDictionary
280
     1
281
     1
  3
ACAD_XREC_ROUNDTRIP
360
82CC
  0
DICTIONARY
  5
82B1
330
5485
100
AcDbDictionary
280
     1
281
     1
  3
ACAD_XREC_ROUNDTRIP
360
82B2
  0
DICTIONARY
  5
82C7
330
5490
100
AcDbDictionary
280
     1
281
     1
  3
ACAD_XREC_ROUNDTRIP
360
82C8
  0
DICTIONARY
  5
82C5
330
548F
100
AcDbDictionary
280
     1
281
     1
  3
ACAD_XREC_ROUNDTRIP
360
82C6
  0
DICTIONARY
  5
82BF
330
548C
100
AcDbDictionary
280
     1
281
     1
  3
ACAD_XREC_ROUNDTRIP
360
82C0
  0
DICTIONARY
  5
82C1
330
548D
100
AcDbDictionary
280
     1
281
     1
  3
ACAD_XREC_ROUNDTRIP
360
82C2
  0
DICTIONARY
  5
82B7
330
5488
100
AcDbDictionary
280
     1
281
     1
  3
ACAD_XREC_ROUNDTRIP
360
82B8
  0
DICTIONARY
  5
82AB
330
5482
100
AcDbDictionary
280
     1
281
     1
  3
ACAD_XREC_ROUNDTRIP
360
82AC
  0
DICTIONARY
  5
82C3
330
548E
100
AcDbDictionary
280
     1
281
     1
  3
ACAD_XREC_ROUNDTRIP
360
82C4
  0
XRECORD
  5
8299
102
{ACAD_REACTORS
330
6C6B
102
}
330
6C6B
100
AcDbXrecord
280
     1
102
SHADEPLOT
 70
     0
102
SHADEPLOTRESLEVEL
 70
     2
102
SHADEPLOTCUSTOMDPI
 70
   300
  0
XRECORD
  5
6C6C
102
{ACAD_REACTORS
330
6C6B
102
}
330
6C6B
100
AcDbXrecord
280
     1
310
28000000000100007D0000000100080000000000007D0000000000000000000000010000000000000000000000000000FFFFFF000000000000000000000000000000000000000000000000000000000000000000330000006600000099000000CC000000FF00000000330000333300006633000099330000CC330000FF3300
310
0000660000336600006666000099660000CC660000FF66000000990000339900006699000099990000CC990000FF99000000CC000033CC000066CC000099CC0000CCCC0000FFCC000000FF000033FF000066FF000099FF0000CCFF0000FFFF000000003300330033006600330099003300CC003300FF003300003333003333
310
33006633330099333300CC333300FF33330000663300336633006666330099663300CC663300FF66330000993300339933006699330099993300CC993300FF99330000CC330033CC330066CC330099CC3300CCCC3300FFCC330000FF330033FF330066FF330099FF3300CCFF3300FFFF330000006600330066006600660099
310
006600CC006600FF00660000336600333366006633660099336600CC336600FF33660000666600336666006666660099666600CC666600FF66660000996600339966006699660099996600CC996600FF99660000CC660033CC660066CC660099CC6600CCCC6600FFCC660000FF660033FF660066FF660099FF6600CCFF6600
310
FFFF660000009900330099006600990099009900CC009900FF00990000339900333399006633990099339900CC339900FF33990000669900336699006666990099669900CC669900FF66990000999900339999006699990099999900CC999900FF99990000CC990033CC990066CC990099CC9900CCCC9900FFCC990000FF99
310
0033FF990066FF990099FF9900CCFF9900FFFF99000000CC003300CC006600CC009900CC00CC00CC00FF00CC000033CC003333CC006633CC009933CC00CC33CC00FF33CC000066CC003366CC006666CC009966CC00CC66CC00FF66CC000099CC003399CC006699CC009999CC00CC99CC00FF99CC0000CCCC0033CCCC0066CC
310
CC0099CCCC00CCCCCC00FFCCCC0000FFCC0033FFCC0066FFCC0099FFCC00CCFFCC00FFFFCC000000FF003300FF006600FF009900FF00CC00FF00FF00FF000033FF003333FF006633FF009933FF00CC33FF00FF33FF000066FF003366FF006666FF009966FF00CC66FF00FF66FF000099FF003399FF006699FF009999FF00CC
310
99FF00FF99FF0000CCFF0033CCFF0066CCFF0099CCFF00CCCCFF00FFCCFF0000FFFF0033FFFF0066FFFF0099FFFF00CCFFFF00FFFFFF00000000000D0D0D001A1A1A00282828003535350043434300505050005D5D5D006B6B6B00787878008686860093939300A1A1A100AEAEAE00BBBBBB00C9C9C900D6D6D600E4E4E400
310
F1F1F100FFFFFF000000000000000000000000000000000000000000000000000000000000000000000000000000000000000000000000000000000000000000000000000000000000000000000000000000000000000000000000000000000000000000000000000000000000000000000000000000000000000000000000
310
00000000000000000000000000000000000000000000000000000000000000000000000000000000000000000000000000000000000000000000000000000000000000000000000000000000000000000000000000000000000000000000000000000000000000000000000000000000000000000000000000000000000000
310
00000000000000000000000000000000000000000000000000000000000000000000000000000000000000000000000000000000000000000000000000000000000000000000000000000000000000000000000000000000000000000000000000000000000000000000000000000000000000000000000000000000000000
310
00000000000000000000000000000000000000000000000000000000000000000000000000000000000000000000000000000000000000000000000000000000000000000000000000000000000000000000000000000000000000000000000000000000000000000000000000000000000000000000000000000000000000
310
00000000000000000000000000000000000000000000000000000000000000000000000000000000000000000000000000000000000000000000000000000000000000000000000000000000000000000000000000000000000000000000000000000000000000000000000000000000000000000000000000000000000000
310
00000000000000000000000000000000000000000000000000000000000000000000000000000000000000000000000000000000000000000000000000000000000000000000000000000000000000000000000000000000000000000000000000000000000000000000000000000000000000000000000000000000000000
310
00000000000000000000000000000000000000000000000000000000000000000000000000000000000000000000000000000000000000000000000000000000000000000000000000000000000000000000000000000000000000000000000000000000000000000000000000000000000000000000000000000000000000
310
00000000000000000000000000000000000000000000000000000000000000000000000000000000000000000000000000000000000000000000000000000000000000000000000000000000000000000000000000000000000000000000000000000000000000000000000000000000000000000000000000000000000000
310
00000000000000000000000000000000000000000000000000000000000000000000000000000000000000000000000000000000000000000000000000000000000000000000000000000000000000000000000000000000000000000000000000000000000000000000000000000000000000000000000000000000000000
310
00000000000000000000000000000000000000000000000000000000000000000000000000000000000000000000000000000000000000000000000000000000000000000000000000000000000000000000000000000000000000000000000000000000000000000000000000000000000000000000000000000000000000
310
00000000000000000000000000000000000000000000000000000000000000000000000000000000000000000000000000000000000000000000000000000000000000000000000000000000000000000000000000000000000000000000000000000000000000000000000000000000000000000000000000000000000000
310
00000000000000000000000000000000000000000000000000000000000000000000000000000000000000000000000000000000000000000000000000000000000000000000000000000000000000000000000000000000000000000000000000000000000000000000000000000000000000000000000000000000000000
310
00000000000000000000000000000000000000000000000000000000000000000000000000000000000000000000000000000000000000000000000000000000000000000000000000000000000000000000000000000000000000000000000000000000000000000000000000000000000000000000000000000000000000
310
00000000000000000000000000000000000000000000000000000000000000000000000000000000000000000000000000000000000000000000000000000000000000000000000000000000000000000000000000000000000000000000000000000000000000000000000000000000000000000000000000000000000000
310
00000000000000000000000000000000000000000000000000000000000000000000000000000000000000000000000000000000000000000000000000000000000000000000000000000000000000000000000000000000000000000000000000000000000000000000000000000000000000000000000000000000000000
310
00000000000000000000000000000000000000000000000000000000000000000000000000000000000000000000000000000000000000000000000000000000000000000000000000000000000000000000000000000000000000000000000000000000000000000000000000000000000000000000000000000000000000
310
00000000000000000000000000000000000000000000000000000000000000000000000000000000000000000000000000000000000000000000000000000000000000000000000000000000000000000000000000000000000000000000000000000000000000000000000000000000000000000000000000000000000000
310
00000000000000000000000000000000000000000000000000000000000000000000000000000000000000000000000000000000000000000000000000000000000000000000000000000000000000000000000000000000000000000000000000000000000000000000000000000000000000000000000000000000000000
310
00000000000000000000000000000000000000000000000000000000000000000000000000000000000000000000000000000000000000000000000000000000000000000000000000000000000000000000000000000000000000000000000000000000000000000000000000000000000000000000000000000000000000
310
00000000000000000000000000000000000000000000000000000000000000000000000000000000000000000000000000000000000000000000000000000000000000000000000000000000000000000000000000000000000000000000000000000000000000000000000000000000000000000000000000000000000000
310
00000000000000000000000000000000000000000000000000000000000000000000000000000000000000000000000000000000000000000000000000000000000000000000000000000000000000000000000000000000000000000000000000000000000000000000000000000000000000000000000000000000000000
310
00000000000000000000000000000000000000000000000000000000000000000000000000000000000000000000000000000000000000000000000000000000000000000000000000000000000000000000000000000000000000000000000000000000000000000000000000000000000000000000000000000000000000
310
00000000000000000000000000000000000000000000000000000000000000000000000000000000000000000000000000000000000000000000000000000000000000000000000000000000000000000000000000000000000000000000000000000000000000000000000000000000000000000000000000000000000000
310
00000000000000000000000000000000000000000000000000000000000000000000000000000000000000000000000000000000000000000000000000000000000000000000000000000000000000000000000000000000000000000000000000000000000000000000000000000000000000000000000000000000000000
310
000000000000000000000000000000000000000000000000000000000000000000000000000000000000000000000000000000000000000000000000000000000000000000000000000000000000000000000000000000000000000000000000000000000000000000000000000000000000F5F5F5F5F5F5F5F5F5F5F5F5F5
310
F5F5F5F5F5F5F5F5F5F5F5F5F5F5F5F5F5F5F5F5F5F5F5F5F5F5F5F5F5F5F5F5F5F5F5F5F5F5F5F5F5F5F5F5F5F5F5F5F5F5F5F5F5F5F5F5F5F5F5F5F5F5F5F5F5F5F5F5F5F5F5F5F5F5F5F5F5F5F5F5F5F5F5F5F5F5F5F5F5F5F5F5F5F5F5F5F5F5F5F5F5F5F5F5F5F5F5F5F5F5F5F5F5F5F5F5F5F5F5F5F5F5F5F5F5F5F5
310
F5F5F50000000000000000000000000000000000000000000000000000000000000000000000000000000000000000000000000000000000000000000000000000000000000000000000000000000000000000000000000000000000000000000000000000000000000000000000000000000000F5F5F5F5F5F5F5F5F5F5F5
310
F5F5F5F5F5F5F5F5F5F5F5F5F5F5F5F5F5F5F5F5F5F5F5F5F5F5F5F5F5F5F5F5DCDCDCDCDCDCDCDCDCDCF5F5F5F5F5F5F5F5F5F5F5F5F5F5F5F5F5F5F5F5F5F5F5F5F5F5F5F5F5F5F5F5F5F5F5F5F5F5F5F5F5DCDCDCF5F5F5F5F5F5F5F5F5F5F5F5F5F5F5F5F5F5F5F5F5F5F5F5F5F5F5F5F5F5F5F5F5F5F5F5F5F5F5F5F5
310
F5F5F5F5F50000000000000000000000000000000000000000000000000000000000000000000000000000000000000000000000000000000000000000000000000000000000000000000000000000000000000000000000000000000000000000000000000000000000000000000000000000000000F500F5F5F5F5F5F5F5
310
F5F5F5F500F500000000000000000000000000000000000000000000F5F5F500000000000000000000000000000000000000000000000000000000000000000000000000000000F50000DCDCDCDCDC0000F5F500000000000000F500000000000000000000000000000000F500000000000000F5F5F5F5F5F5F5F5F5000000
310
000000000000F50000000000000000000000000000000000000000000000000000000000000000000000000000000000000000000000000000000000000000000000000000000000000000000000000000000000000000000000000000000000000000000000000000000000000000000000000000000000F500F5F5F5F5F5
310
F5F5F5F5F5F500F500DCDCDCDCDCDCDCDCDCDCDCDCDCDCDCDCDCDC000000F5F5F5F5F5F5DCDCDCDCDCDCF5F5F5F5F5F5F5F5F5F5F5F5F5F5F5F5F5F5F5F5F5F5F5F5F5F5F5F5F5F5F5F50000DCDCDCDCDC0000F5F5F5F5DCDCF5F5F5F500000000000000000000000000000000F5F5F5F5F5F5F5F5F5F5F5F5F5F5F5F5F5F5
310
F5F5F5F5F5F50000F50000000000000000000000000000000000000000000000000000000000000000000000000000000000000000000000000000000000000000000000000000000000000000000000000000000000000000000000000000000000000000000000000000000000000000000000000000000000F500F5F5F5
310
F5F5F5F5F5F5F5F500F500000000000000000000000000000000000000000000F50000000000DCDCDCDCDCDC00000000000000000000000000000000000000000000000000000000000000F5000000000000000000F5000000DCDC000000F500000000000000000000000000000000F5F5F5F5F5F5F5F5F5F5F5F5F5F5F5F5
310
F5F5F5F5F5F5F5F50000F50000000000000000000000000000000000000000000000000000000000000000000000000000000000000000000000000000000000000000000000000000000000000000000000000000000000000000000000000000000000000000000000000000000000000000000000000000000000F500F5
310
F5F5F5F5F5F5F5F5F5F500F500000000000000000000000000000000000000000000F5F50000000000000000000000000000000000000000000000000000000000000000000000000000000000F5F50000000000000000F5F500000000000000F500000000000000000000000000000000F5F5000000000000F5F500000000
310
000000000000000000000000F50000000000000000000000000000000000000000000000000000000000000000000000000000000000000000000000000000000000000000000000000000000000000000000000000000000000000000000000000000000000000000000000000000000000000000000000000000000000F5
310
F5F5F5F5F5F5F5F5F5F5F5F5F5F5F5F5F5F5F5F5F5F5F5F5F5F5F5F5F5F5F5F5F5F5F5F5F5F5F5F5F5F5F5F5F5F5F5F5F5F5F5F5F5F5F5F5F5F5F5F5F5F5F5F5F5F5F5F5F5F5F5F5F5F5F5F5F5F5F5F5F5F5F5F5F5F5F5F5F5F5F5F5F5F5F5F5F5F5F5F5F5F5F5F5F5F5F5F5F5F5F5F5F5F5F5F5F5F5F5F5F5F5F5F5F5F5F5
310
F5F5F5F5F5F5F5F5F5F5F5F5F5F5F500000000000000000000000000000000000000000000000000000000000000000000000000000000000000000000000000000000000000000000000000000000000000000000000000000000000000000000000000000000000000000000000000000000000000000000000000000000
310
00F50000000000000000000000000000000000000000000000000000000000000000000000000000000000000000000000000000000000000000000000000000000000000000000000000000000000000000000000000000000000000000000000000000000000000000000000000000000000000000000000000000000000
310
00000000000000000000000000000000F50000000000000000000000000000000000000000000000000000000000000000000000000000000000000000000000000000000000000000000000000000000000000000000000000000000000000000000000000000000000000000000000000000000000000000000000000000
310
000000F5000000000000000000000000000000000000000000000000000000000000000000000000000000000000000000000000000000000000000000000000000000000000000000000000000000000000000000000000000000000000000000000000000000000000000000000000000000002D2D002D2D2D2D2D2D2D2D
310
2D2D2D2D2D2D2D2D2D2D2D2D2D2D2D2D0000F5000000000000000000000000000000000000000000000000000000000000000000000000000000000000000000000000000000000000000000000000000000000000000000000000000000000000000000000000000000000000000000000000000000000000000000000000
310
0000000000F5000000000000000000000000000000000000000000000000000000000000000000000000000000000000000000000000000000000000000000000000000000000000000000000000000000000000000000000000000000000000000000000000000000000000000000000000000000002D2D002D2D2D2D2D2D
310
2D2D2D2D2D2D2D2D2D2D2D2D2D2D2D2D2D000000F500000000000000000000000000000000000000000000000000000000000000000000000000000000000000000000000000000000000000000000000000000000000000000000000000000000000000000000000000000000000000000000000000000000000000000000
310
00000000000000F50000000000000000000000000000000000000000000000000000000000000000000000000000000000000000000000000000000000000000000000000000000000000000000000000000000000000000000000000000000000000000000000000000000000000000000000000000000000000000000000
310
00000000000000000000000000000000000000000000F50000000000000000000000000000000000000000000000000000000000000000000000000000000000000000000000000000000000000000000000000000000000000000000000000000000000000000000000000000000000000000000000000000000000000000
310
000000000000000000F5000000000000000000000000000000000000000000000000000000000000000000000000000000000000000000000000000000000000000000000000000000000000000000000000000000000000000000000000000000000000000000000000000000000000000000000000000000000000000000
310
000000000000000000000000000000000000000000000000F5000000000000000000000000000000000000000000000000000000000000000000000000000000000000000000000000000000000000000000000000000000000000000000000000000000000000000000000000000000000000000000000000000000000000
310
0000000000000000000000F500000000000000000000000000000000000000000000000000000000000000000000000000000000000000000000000000000000000000000000000000000000000000000000000000000000000000000000000000000000000000000000000000000000000000000000000000000000000000
310
0000000000000000000000000000000000000000000000000000F500000000000000000000000000000000000000000000000000000000000000000000000000000000000000000000000000000000000000000000000000000000000000000000000000000000000000000000000000000000000000000000000000000000
310
00000000000000000000000000F50000000000000000000000000000000000000000000000000000000000000000000000000000000000000000000000000000000000000000000000000000000000000000000000000000000000000000000000000000000000000000000000000000000000000000000000000000000000
310
00000000000000000000000000000000000000000000000000000000F50000000000000000000000000000000000000000000000000000000000000000000000000000000000000000000000000000000000000000000000000000000000000000000000000000000000000000000000000000000000000000000000000000
310
000000000000000000000000000000F5000000000000000000000000000000000000000000000000000000000000000000000000000000000000000000000000000000000000000000000000000000000000000000000000000000000000000000000000000000000000000000000000000000000000000000000000000000
310
000000000000000000000000000000000000000000000000000000000000F5000000000000000000000000000000000000000000000000000000000000000000000000000000000000000000000000000000000000000000000000000000000000000000000000000000000000000000000000000000000000000000000000
310
0000000000000000000000000000000000F500000000000000000000000000000000000000000000000000000000000000000000000000000000000000000000000000000000000000000000000000000000000000000000000000000000000000000000000000000000000000000000000000000000000000000000000000
310
0000000000000000000000000000000000000000000000000000000000000000F500000000000000000000000000000000000000000000000000000000000000000000000000000000000000000000000000000000000000000000000000000000000000000000000000000000000000000000000000000000000000000000
310
00000000000000000000000000000000000000F50000000000000000000000000000000000000000000000000000000000000000000000000000000000000000000000000000000000000000000000000000000000000000000000000000000000000000000000000000000000000000000000000000000000000000000000
310
00000000000000000000000000000000000000000000000000000000000000000000F50000000000000000000000000000000000000000000000000000000000000000000000000000000000000000000000000000000000000000000000000000000000000000000000000000000000000000000000000000000000000000
310
000000000000000000000000000000000000000000F5000000000000000000000000000000000000000000000000000000000000000000000000000000000000000000000000000000000000000000000000000000000000000000000000000000000000000000000000000000000000000000000000000000000000000000
310
000000000000000000000000000000000000000000000000000000000000000000000000F5000000000000000000000000000000000000000000000000000000000000000000000000000000000000000000000000000000000000000000000000000000000000000000000000000000000000000000000000000000000000
310
0000000000000000000000000000000000000000000000F500000000000000000000000000000000000000000000000000000000000000000000000000000000000000000000000000000000000000000000000000002D00000000000000000000000000002D00000000000000000000000000000000000000000000000000
310
0000000000000000000000000000000000000000000000000000000000000000000000000000F500000000000000000000000000000000000000000000000000000000000000000000000000000000000000000000000000000000000000000000000000000000000000000000000000000000000000000000000000000000
310
00000000000000000000000000000000000000000000000000F500000000000000000000000000000000000000000000000000000000000000000000000000000000000000000000000000000000000000000000000000002D2D2D2D2D2D2D2D2D2D2D2D2D2D2D2D0000000000000000000000000000000000000000000000
310
00000000000000000000000000000000000000000000000000000000000000000000000000000000F50000000000000000000000000000000000000000000000000000000000000000000000000000000000000000000000000000000000000000000000000000000000000000000000000000000000000000000000000000
310
000000000000000000000000000000000000000000000000000000F500000000000000000000000000000000000000000000000000000000000000000000000000000000000000000000000000000000000000000000000000002D0000000000002D2D2D00000000002D000000000000000000000000000000000000000000
310
000000000000000000000000000000000000000000000000000000000000000000000000000000000000F5000000000000000000000000000000000000000000000000000000000000000000000000000000000000000000000000000000000000000000000000000000000000000000000000000000000000000000000000
310
0000000000000000000000000000000000000000000000000000000000F500000000000000000000000000000000000000000000000000000000000000000000000000000000000000000000000000000000000000000000000000002D00000000000000000000000000002D00000000000000000000000000000000000000
310
0000000000000000000000000000000000000000000000000000000000000000000000000000000000000000F500000000000000000000000000000000000000000000000000000000000000000000000000000000000000000000000000000000000000000000000000000000000000000000000000000000000000000000
310
00000000000000000000000000000000000000000000000000000000000000F500000000000000000000000000000000000000000000000000000000000000000000000000000000000000000000000000000000000000000000000000002D00000000000000BE0000000000002D0000000000000000000000000000000000
310
00000000000000000000000000000000000000000000000000000000000000000000000000000000000000000000F50000000000000000000000000000000000000000000000000000000000000000000000000000000000000000000000000000000000000000000000000000000000000000000000000000000000000000
310
000000000000000000000000000000000000000000000000000000000000000000F500000000000000000000000000000000000000000000000000000000000000000000000000000000000000000000000000000000000000000000000000002D00000000000000BE0000000000002D000000000000000000000000000000
310
000000000000000000000000000000000000000000000000000000000000000000000000000000000000000000000000F5000000000000000000000000000000000000000000000000000000000000000000000000000000000000000000000000000000000000000000000000000000000000000000000000000000000000
310
0000000000000000000000000000000000000000000000000000000000000000000000F500000000000000000000000000000000000000000000000000000000000000000000000000000000000000000000000000000000000000000000000000002D00000000000000BE0000000000002D00000000000000000000000000
310
0000000000000000000000000000000000000000000000000000000000000000000000000000000000000000000000000000F500000000000000000000000000000000000000000000000000000000000000000000000000000000000000000000000000000000000000000000000000000000000000000000000000000000
310
00000000000000000000000000000000000000000000000000000000000000000000000000F500000000000000000000000000000000000000000000000000000000000000000000000000000000000000000000000000000000000000000000000000002D00000000000000BE0000000000002D0000000000000000000000
310
00000000000000000000000000000000000000000000000000000000000000000000000000000000000000000000000000000000F50000000000000000000000000000000000000000000000000000000000000000000000000000000000000000000000000000000000000000000000000000000000000000000000000000
310
000000000000000000000000000000000000000000000000000000000000000000000000000000F500000000000000000000000000000000000000000000000000000000000000000000000000000000000000000000000000000000002D2D2D2D2D2D0000002D28282828282828BE2828282828282D2D2D2D2D2D2D2D2D2D
310
2D2D2D2D2D2D000000000000000000000000000000000000000000000000000000000000000000000000000000000000000000000000F5000000000000000000000000000000000000000000000000000000000000000000000000000000000000000000000000000000000000000000000000000000000000000000000000
310
0000000000000000000000000000000000000000000000000000000000000000000000000000000000F500000000000000000000000000000000000000000000000000000000000000000000000000000000000000000000000000000000002D00000000000000002828000000000000BE0000000000282800000000000000
310
0000000000002D00000000000000000000000000000000000000000000000000000000000000000000000000000000000000000000000000F500000000000000000000000000000000000000000000000000000000000000000000000000000000000000000000000000000000000000000000000000000000000000000000
310
00000000000000000000000000000000000000000000000000000000000000000000000000000000000000F50000000000000000000000000000000000000000000000000000000000000000000000000000000000000000000000000000002D2D2D00000000000000002828000000000000BE000000000028280000000000
310
00000000000000002D00000000000000000000000000000000000000000000000000000000000000000000000000000000000000000000000000F50000000000000000000000000000000000000000000000000000000000000000000000000000000000000000000000000000000000000000000000000000000000000000
310
000000000000000000000000000000000000000000000000000000000000000000000000000000000000000000F50000000000000000000000000000000000000000000000000000000000000000000000000000000000000000000000000000002D2D2D00000000000000002828000000000000BE00000000002828000000
310
000000000000000000002D00000000000000000000000000000000000000000000000000000000000000000000000000000000000000000000000000F5000000000000000000000000000000000000000000000000000000000000000000000000000000000000000000000000000000000000000000000000000000000000
310
0000000000000000000000000000000000000000000000000000000000000000000000000000000000000000000000F50000000000000000000000000000000000000000000000000000000000000000000000000000000000000000000000000000002D2D2D00000000000000002828000000000000BE0000000000282800
310
0000000000000000000000002D00000000000000000000000000000000000000000000000000000000000000000000000000000000000000000000000000F500000000000000000000000000000000000000000000000000000000000000000000000000000000000000000000000000000000000000000000000000000000
310
00000000000000000000000000000000000000000000000000000000000000000000000000000000000000000000000000F50000000000000000000000000000000000000000000000000000000000000000000000000000000000000000000000000000002D2D2D00000000000000002828000000000000BE000000000028
310
28000000000000000000000000002D00000000000000000000000000000000000000000000000000000000000000000000000000000000000000000000000000F50000000000000000000000000000000000000000000000000000000000000000000000000000000000000000000000000000000000000000000000000000
310
000000000000000000000000000000000000000000000000000000000000000000000000000000000000000000000000000000F50000000000000000000000000000000000000000000000000000000000000000000000000000000000000000000000000000002D2D2D00000000000000002828000000000000BE00000000
310
002828000000000000000000000000002D00000000000000000000000000000000000000000000000000000000000000000000000000000000000000000000000000F5000000000000000000000000000000000000000000000000000000000000000000000000000000000000000000000000000000000000000000000000
310
0000000000000000000000000000000000000000000000000000000000000000000000000000000000000000000000000000000000F500000000000000000000000000000000000000000000000000000000000000000000000000000000000000000000000000000000002D2D2D2D2D2D2828282828282828282828BE2828
310
28282828282828282D2D2D2D2D2D2D2D00002D00000000000000000000000000000000000000000000000000000000000000000000000000000000000000000000000000F500000000000000000000000000000000000000000000000000000000000000000000000000000000000000000000000000000000000000000000
310
00000000000000000000000000000000000000000000000000000000000000000000000000000000000000000000000000000000000000F500000000000000000000000000000000000000000000000000000000000000000000000000000000000000000000000000000000000000000000280000000000000000000000BE
310
000000000000000000002800000000002D002D2D2D00000000000000000000000000000000000000000000000000000000000000000000000000000000000000000000000000F50000000000000000000000000000000000000000000000000000000000000000000000000000000000000000000000000000000000000000
310
000000000000000000000000000000000000000000000000000000000000000000000000000000000000000000000000000000000000000000F5000000000000000000000000000000000000000000000000000000000000000000000000000000000000000000000000000000000000000000002800000000000000000000
310
00BE000000000000000000002800000000002D002D002D00000000000000000000000000000000000000000000000000000000000000000000000000000000000000000000000000F5000000000000000000000000000000000000000000000000000000000000000000000000000000000000000000000000000000000000
310
0000000000000000000000000000000000000000000000000000000000000000000000000000000000000000000000000000000000000000000000F500000000000000000000000000000000000000000000000000000000000000000000000000000000000000000000000000000000002D2D2D2D2D2D0000000000000000
310
000000BE000000000000000000002800000000002D002D2D2D00000000000000000000000000000000000000000000000000000000000000000000000000000000000000000000000000F500000000000000000000000000000000000000000000000000000000000000000000000000000000000000000000000000000000
310
00000000000000000000000000000000000000000000000000000000000000000000000000000000000000000000000000000000000000000000000000F500000000000000000000000000000000000000000000000000000000000000000000000000000000000000000000000000000000002D0000000028000000000000
310
0000000000BE00000000000000000000280000002D2D2D0000002D00000000000000000000000000000000000000000000000000000000000000000000000000000000000000000000000000F50000000000000000000000000000000000000000000000000000000000000000000000000000000000000000000000000000
310
000000000000000000000000000000000000000000000000000000000000000000000000000000000000000000000000000000000000000000000000000000F50000000000000000000000000000000000000000000000000000000000000000000000000000000000000000000000000000002D2D2D000000002800000000
310
00000000000000BE00000000000000000000280000002D2D2D0000002D00000000000000000000000000000000000000000000000000000000000000000000000000000000000000000000000000F5000000000000000000000000000000000000000000000000000000000000000000000000000000000000000000000000
310
0000000000000000000000000000000000000000000000000000000000000000000000000000000000000000000000000000000000000000000000000000000000F50000000000000000000000000000000000000000000000000000000000000000000000000000000000000000000000000000002D2D2D00000000280000
310
000000000000000000BE00000000000000000000280000002D2D2D0000002D00000000000000000000000000000000000000000000000000000000000000000000000000000000000000000000000000F500000000000000000000000000000000000000000000000000000000000000000000000000000000000000000000
310
00000000000000000000000000000000000000000000000000000000000000000000000000000000000000000000000000000000000000000000000000000000000000F50000000000000000000000000000000000000000000000000000000000000000000000000000000000000000000000000000002D2D2D0000000028
310
0000000000000000000000BE000000000000000000002800000000002D0000002D00000000000000000000000000000000000000000000000000000000000000000000000000000000000000000000000000F50000000000000000000000000000000000000000000000000000000000000000000000000000000000000000
310
000000000000000000000000000000000000000000000000000000000000000000000000000000000000000000000000000000000000000000000000000000000000000000F50000000000000000000000000000000000000000000000000000000000000000000000000000000000000000000000000000002D2D2D000000
310
00280000000000000000000000BE000000000000000000002800000000002D0000002D00000000000000000000000000000000000000000000000000000000000000000000000000000000000000000000000000F5000000000000000000000000000000000000000000000000000000000000000000000000000000000000
310
0000000000000000000000000000000000000000000000000000000000000000000000000000000000000000000000000000000000000000000000000000000000000000000000F500000000000000000000000000000000000000000000000000000000000000000000000000000000000000000000000000000000002D00
310
000000280000000000000000000000BE000000000000000000002800000000002D0000002D00000000000000000000000000000000000000000000000000000000000000000000000000000000000000000000000000F500000000000000000000000000000000000000000000000000000000000000000000000000000000
310
00000000000000000000000000000000000000000000000000000000000000000000000000000000000000000000000000000000000000000000000000000000000000000000000000F50000000000000000000000000000000000000000000000000000000000000000000000000000000000000000000000000000000000
310
2D2D2D2D2D2D2828282828282828282828BE282828282828282828282D2D2D2D2D2D2D2D2D2D2D2D000000000000000000000000000000000000000000000000000000000000000000000000000000000000000000000000F50000000000000000000000000000000000000000000000000000000000000000000000000000
310
000000000000000000000000000000000000000000000000000000000000000000000000000000000000000000000000000000000000000000000000000000000000000000000000000000F5000000000000000000000000000000000000000000000000000000000000000000000000000000000000000000000000000000
310
000000000000002D0000000000000000000000BE000000000000000000002D0000000000000000000000000000000000000000000000000000000000000000000000000000000000000000000000000000000000000000000000F5000000000000000000000000000000000000000000000000000000000000000000000000
310
0000000000000000000000000000000000000000000000000000000000000000000000000000000000000000000000000000000000000000000000000000000000000000000000000000000000F500000000000000000000000000000000000000000000000000000000000000000000000000000000000000000000000000
310
0000000000000000002D0000000000000000000000BE000000000000000000002D0000000000000000000000000000000000000000000000000000000000000000000000000000000000000000000000000000000000000000000000F500000000000000000000000000000000000000000000000000000000000000000000
310
00000000000000000000000000000000000000000000000000000000000000000000000000000000000000000000000000000000000000000000000000000000000000000000000000000000000000F50000000000000000000000000000000000000000000000000000000000000000000000000000000000000000000000
310
00000000000000000000002D0000000000000000000000BE000000000000000000002D0000000000000000000000000000000000000000000000000000000000000000000000000000000000000000000000000000000000000000000000F50000000000000000000000000000000000000000000000000000000000000000
310
000000000000000000000000000000000000000000000000000000000000000000000000000000000000000000000000000000000000000000000000000000000000000000000000000000000000000000F5000000000000000000000000000000000000000000000000000000000000000000000000000000000000000000
310
000000000000000000000000002D0000000000000000000000BE000000000000000000002D0000000000000000000000000000000000000000000000000000000000000000000000000000000000000000000000000000000000000000000000F5000000000000000000000000000000000000000000000000000000000000
310
0000000000000000000000000000000000000000000000000000000000000000000000000000000000000000000000000000000000000000000000000000000000000000000000000000000000000000000000F500000000000000000000000000000000000000000000000000000000000000000000000000000000000000
310
0000000000000000000000000000002D0000000000000000000000BE000000000000000000002D0000000000000000000000000000000000000000000000000000000000000000000000000000000000000000000000000000000000000000000000F500000000000000000000000000000000000000000000000000000000
310
00000000000000000000000000000000000000000000000000000000000000000000000000000000000000000000000000000000000000000000000000000000000000000000000000000000000000000000000000F50000000000000000000000000000000000000000000000000000000000000000000000000000000000
310
00000000000000000000000000000000002D000000000000000000000000000000000000000000002D0000000000000000000000000000000000000000000000000000000000000000000000000000000000000000000000000000000000000000000000F50000000000000000000000000000000000000000000000000000
310
000000000000000000000000000000000000000000000000000000000000000000000000000000000000000000000000000000000000000000000000000000000000000000000000000000000000000000000000000000F5000000000000000000000000000000000000000000000000000000000000000000000000000000
310
000000000000000000000000000000000000002D2D2D2D2D2D2D2D2D2D2D2D2D2D2D2D2D2D2D2D2D2D2D2D0000000000000000000000000000000000000000000000000000000000000000000000000000000000000000000000000000000000000000000000F5000000000000000000000000000000000000000000000000
310
0000000000000000000000000000000000000000000000000000000000000000000000000000000000000000000000000000000000000000000000000000000000000000000000000000000000000000000000000000000000F500000000000000000000000000000000000000000000000000000000000000000000000000
310
00000000000000000000000000000000000000000000000000000000000000002D2D2D000000000000000000000000000000000000000000000000000000000000000000000000000000000000000000000000000000000000000000000000000000000000000000F500000000000000000000000000000000000000000000
310
00000000000000000000000000000000000000000000000000000000000000000000000000000000000000000000000000000000000000000000000000000000000000000000000000000000000000000000000000000000000000F50000000000000000000000000000000000000000000000000000000000000000000000
310
000000000000000000000000000000000000000000000000000000000000000000002D2D00000000000000000000000000000000000000000000000000000000000000000000000000000000000000000000000000000000000000000000000000000000000000000000F50000000000000000000000000000000000000000
310
000000000000000000000000000000000000000000000000000000000000000000000000000000000000000000000000000000000000000000000000000000000000000000000000000000000000000000000000000000000000000000F5000000000000000000000000000000000000000000000000000000000000000000
310
000000000000000000000000000000000000000000000000000000000000000000000000000000000000000000000000000000000000000000000000000000000000000000000000000000000000000000000000000000000000000000000000000000000000000000000000F5000000000000000000000000000000000000
310
0000000000000000000000000000000000000000000000000000000000000000000000000000000000000000000000000000000000000000000000000000000000000000000000000000000000000000000000000000000000000000000000F500000000000000000000000000000000000000000000000000000000000000
310
0000000000000000000000000000000000000000000000000000000000000000000000000000000000000000000000000000000000000000000000000000000000000000000000000000000000000000000000000000000000000000000000000000000000000000000000000000F500000000000000000000000000000000
310
00000000000000000000000000000000000000000000000000000000000000000000000000000000000000000000000000000000000000000000000000000000000000000000000000000000000000000000000000000000000000000000000000F50000000000000000000000000000000000000000000000000000000000
310
00000000000000000000000000000000000000000000000000000000000000000000000000000000000000000000000000000000000000000000000000000000000000000000000000000000000000000000000000000000000000000000000000000000000000000000000000000000F50000000000000000000000000000
310
000000000000000000000000000000000000000000000000000000000000000000000000000000000000000000000000000000000000000000000000000000000000000000000000000000000000000000000000000000000000000000000000000000F5000000000000000000000000000000000000000000000000000000
310
000000000000000000000000000000000000000000000000000000000000000000000000000000000000000000000000000000000000000000000000000000000000000000000000000000000000000000000000000000000000000000000000000000000000000000000000000000000000F5000000000000000000000000
310
0000000000000000000000000000000000000000000000000000000000000000000000000000000000000000000000000000000000000000000000000000000000000000000000000000000000000000000000000000000000000000000000000000000000F500000000000000000000000000000000000000000000000000
310
000000000000000000000000000000000000000000000000000000000000000000000000000000000000000000BE00000000000000000000000000000000000000000000000000000000000000000000000000000000000000000000000000000000000000000000000000000000000000000000F500000000000000000000
310
00000000000000000000000000000000000000000000000000000000000000000000000000000000000000000000000000000000000000000000000000000000000000000000000000000000000000000000000000000000000000000000000000000000000000F50000000000000000000000000000000000000000000000
310
0000000000000000000000000000000000000000000000000000000000000000000000000000000000000000000000BE00000000000000000000000000000000000000000000000000000000000000000000000000000000000000000000000000000000000000000000000000000000000000000000F50000000000000000
310
000000000000000000000000000000000000000000000000000000000000000000000000000000000000000000000000000000000000000000000000000000000000000000000000000000000000000000000000000000000000000000000000000000000000000000F5000000000000000000000000000000000000000000
310
00000000000000000000000000000000000000000000000000000000000000000000000000000000000000000000000028BE28000000000000000000000000000000000000000000000000000000000000000000000000000000000000000000000000000000000000000000000000000000000000000000F5000000000000
310
0000000000000000000000000000000000000000000000000000000000000000000000000000000000000000000000000000000000000000000000000000000000000000000000000000000000000000000000000000000000000000000000000000000000000000000000F500000000000000000000000000000000000000
310
000000000000000000000000000000000000000000000000000000000000000000000000000000000000000000000028282828BE28282800000000000000000000000000000000000000000000000000000000000000000000000000000000000000000000000000000000000000000000000000000000000000F500000000
310
00000000000000000000000000000000000000000000000000000000000000000000000000000000000000000000000000000000000000000000000000000000000000000000000000000000000000000000000000000000000000000000000000000000000000000000000000F50000000000000000000000000000000000
310
0000000000000000000000000000000000000000000000000000000000000000000000000000000000000000000000282800000000BE00000028280000000000000000000000000000000000000000000000000000000000000000000000000000000000000000000000000000000000000000000000000000000000F50000
310
000000000000000000000000000000000000000000000000000000000000000000000000000000000000000000000000000000000000000000000000000000000000000000000000000000000000000000000000000000000000000000000000000000000000000000000000000000F5000000000000000000000000000000
310
0000000000000000000000000000000000000000000000000000000000000000000000000000000000000000000000002D000000000000BE00000000002828000000000000000000000000000000000000000000000000000000000000000000000000000000000000000000000000000000000000000000000000000000F5
310
0000000000000000000000000000000000000000000000000000000000000000000000000000000000000000000000000000000000000000000000000000000000000000000000000000000000000000000000000000000000000000000000000000000000000000000000000000000000F500000000000000000000000000
310
000000000000000000000000000000000000000000000000000000000000000000000000000000000000000000000000002800000000000000BE000000000000282800000000000000000000000000000000000000000000000000000000000000000000000000000000000000000000000000000000000000000000000000
310
00F50000000000000000000000000000000000000000000000000000000000000000000000000000000000000000000000000000000000000000000000000000000000000000000000000000000000000000000000000000000000000000000000000000000000000000000000000000000000F50000000000000000000000
310
00000000000000000000000000000000000000000000000000000000000000000000000000000000000000000000000000002800002828282828282828282828280000282800000000000000000000000000000000000000000000000000000000000000000000000000000000000000000000000000000000000000000000
310
000000F50000000000000000000000000000000000000000000000000000000000000000000000000000000000000000000000000000000000000000000000000000000000000000000000000000000000000000000000000000000000000000000000000000000000000000000000000000000000F5000000000000000000
310
00000000000000000000000000000000000000000000000000000000000000000000000000000000000000000000000000000028000028280000000000BE0000000000280000280000000000000000000000000000000000000000000000000000000000000000000000000000000000000000000000000000000000000000
310
0000000000F50000000000000000000000000000000000000000000000000000000000000000000000000000000000000000000000000000000000000000000000000000000000000000000000000000000000000000000000000000000000000000000000000000000000000000000000000000000000F500000000000000
310
000000000000000000000000000000000000000000000000000000000000000000000000000000000000000000000000000000000028000028000000000000BE000000000028000028280000000000000000000000000000000000000000000000000000000000000000000000000000000000000000000000000000000000
310
00000000000000F50000000000000000000000000000000000000000000000000000000000000000000000000000000000000000000000000000000000000000000000000000000000000000000000000000000000000000000000000000000000000000000000000000000000000000000000000000000000F50000000000
310
0000000000000000000000000000000000000000000000000000000000000000000000000000000000000000000000000000000000002800000028000000000000BE00000000002800000028000000000000000000000000000000000000000000000000000000000000000000000000000000000000000000000000000000
310
000000000000000000F50000000000000000000000000000000000000000000000000000000000000000000000000000000000000000000000000000000000000000000000000000000000000000000000000000000000000000000000000000000000000000000000000000000000000000000000000000000000F5000000
310
00000000000000000000000000000000000000000000000000000000000000000000000000000000000000000000000000000000000000002800000028000000000000BE0000000000280000002828000000000000000000000000000000000000000000000000000000000000000000000000000000000000000000000000
310
0000000000000000000000F50000000000000000000000000000000000000000000000000000000000000000000000000000000000000000000000000000000000000000000000000000000000000000000000000000000000000000000000000000000000000000000000000000000000000000000000000000000000F500
310
000000000000000000000000000000000000000000000000000000000000000000000000000000000000000000000000000000000000000000002800000028000000000000BE000000000028000000282800000000000000000000000000000000000000000000000000000000000000000000000000000000000000000000
310
00000000000000000000000000F50000000000000000000000000000000000000000000000000000000000000000000000000000000000000000000000000000000000000000000000000000000000000000000000000000000000000000000000000000000000000000000000000000000000000000000000000000000000
310
F500000000000000000000000000000000000000000000000000000000000000000000000000000000000000000000000000000000000000000000282800000028000000000000BE00000000002800000028280000000000000000000000000000000000000000000000000000000000000000000000000000000000000000
310
000000000000000000000000000000F5000000000000000000000000000000000000000000000000000000000000000000000000000000000000000000000000000000000000000000000000000000000000000000000000000000000000000000000000000000000000000000000000000000000000000000000000000000
310
0000F500000000000000000000000000000000000000000000000000000000000000000000000000000000000000000000000000000000000000BEBEBEBEBEBEBEBE28BEBEBEBEBEBEBEBEBEBEBEBE28BEBEBEBEBEBEBEBE000000000000000000000000000000000000000000000000000000000000000000000000000000
310
0000000000000000000000000000000000F500000000000000000000000000000000000000000000000000000000000000000000000000000000000000000000000000000000000000000000000000000000000000000000000000000000000000000000000000000000000000000000000000000000000000000000000000
310
00000000F500000000000000000000000000000000000000000000000000000000000000000000000000000000000000000000000000000000000000000000282800000028000000000000BE000000000028000000282800000000000000000000000000000000000000000000000000000000000000000000000000000000
310
00000000000000000000000000000000000000F50000000000000000000000000000000000000000000000000000000000000000000000000000000000000000000000000000000000000000000000000000000000000000000000000000000000000000000000000000000000000000000000000000000000000000000000
310
000000000000F500000000000000000000000000000000000000000000000000000000000000000000000000000000000000000000000000000000000000000000002800000028000000000000BE002D0000002800000028280000000000000000000000000000000000000000000000000000000000000000000000000000
310
000000000000000000000000000000000000000000F5000000000000000000000000000000000000000000000000000000000000000000000000000000000000000000000000000000000000000000000000000000000000000000000000000000000000000000000000000000000000000000000000000000000000000000
310
0000000000000000F500000000000000000000000000000000000000000000000000000000000000000000000000000000000000000000000000000000000000000000002800000028000000000000BE2D002D0000280000002828000000000000000000000000000000000000000000000000000000000000000000000000
310
0000000000000000000000000000000000000000000000F500000000000000000000000000000000000000000000000000000000000000000000000000000000000000000000000000000000000000000000000000000000000000000000000000000000000000000000000000000000000000000000000000000000000000
310
00000000000000000000F500000000000000000000000000000000000000000000000000000000000000000000000000000000000000000000000000000000000000000000000028000028000000000000BE2D2D2D000028000028280000000000000000000000000000000000000000000000000000000000000000000000
310
00000000000000000000000000000000000000000000000000F50000000000000000000000000000000000000000000000000000000000000000000000000000000000000000000000000000000000000000000000000000000000000000000000000000000000000000000000000000000000000000000000000000000000
310
000000000000000000000000F500000000000000000000000000000000000000000000000000000000000000000000000000000000000000000000000000000000000000000000000028000028000000000000BE2D2D2D2D002800002800000000000000000000000000000000000000000000000000000000000000000000
310
000000000000000000000000000000000000000000000000000000F5000000000000000000000000000000000000000000000000000000000000000000000000000000000000000000000000000000000000000000000000000000000000000000000000000000000000000000000000000000000000000000000000000000
310
0000000000000000000000000000F50000000000000000000000000000000000000000000000000000000000000000000000000000000000000000000000000000000000000000000000000028000028282828282828282D282D28280028280000000000000000000000000000000000000000000000000000000000000000
310
0000000000000000000000000000000000000000000000000000000000F500000000000000000000000000000000000000000000000000000000000000000000000000000000000000000000000000000000000000000000000000000000000000000000000000000000000000000000000000000000000000000000000000
310
00000000000000000000000000000000F500000000000000000000000000000000000000000000000000000000000000000000000000000000000000000000000000000000000000000000000000282800000000000000BE000000002D00282800000000000000000000000000000000000000000000000000000000000000
310
00000000000000000000000000000000000000000000000000000000000000F50000000000000000000000000000000000000000000000000000000000000000000000000000000000000000000000000000000000000000000000000000000000000000000000000000000000000000000000000000000000000000000000
310
000000000000000000000000000000000000F500000000000000000000000000000000000000000000000000000000000000000000000000000000000000000000000000000000000000000000000000002828000000000000BE00000000002D28280000000000000000000000000000000000000000000000000000000000
310
000000000000000000000000000000000000000000000000000000000000000000F5000000000000000000000000000000000000000000000000000000000000000000000000000000000000000000000000000000000000000000000000000000000000000000000000000000000000000000000000000000000000000000
310
0000000000000000000000000000000000000000F500000000000000000000000000000000000000000000000000000000000000000000000000000000000000000000000000000000000000000000000000000028282800000000BE0000002828280000000000000000000000000000000000000000000000000000000000
310
0000000000000000000000000000000000000000000000000000000000000000000000F500000000000000000000000000000000000000000000000000000000000000000000000000000000000000000000000000000000000000000000000000000000000000000000000000000000000000000000000000000000000000
310
00000000000000000000000000000000000000000000F500000000000000000000000000000000000000000000000000000000000000000000000000000000000000000000000000000000000000000000000000000000000028282828BE282828280000000000000000000000000000000000000000000000000000000000
310
00000000000000000000000000000000000000000000000000000000000000000000000000F50000000000000000000000000000000000000000000000000000000000000000000000000000000000000000000000000000000000000000000000000000000000000000000000000000000000000000000000000000000000
310
000000000000000000000000000000000000000000000000F500000000000000000000000000000000000000000000000000000000000000000000000000000000000000000000000000000000000000000000000000000000000000000028BE28000000000000000000000000000000000000000000000000000000000000
310
000000000000000000000000000000000000000000000000000000000000000000000000000000F5000000000000000000000000000000000000000000000000000000000000000000000000000000000000000000000000000000000000000000000000000000000000000000000000000000000000000000000000000000
310
0000000000000000000000000000000000000000000000000000F500000000000000000000000000000000000000000000000000000000000000000000000000000000000000000000000000000000000000000000000000000000000000000000BE0000000000000000000000000000000000000000000000000000000000
310
0000000000000000000000000000000000000000000000000000000000000000000000000000000000F500000000000000000000000000000000000000000000000000000000000000000000000000000000000000000000000000000000000000000000000000000000000000000000000000000000000000000000000000
310
00000000000000000000000000000000000000000000000000000000F500000000000000000000000000000000000000000000000000000000000000000000000000000000000000000000000000000000000000000000000000000000000000000000BE000000000000000000000000000000000000000000000000000000
310
00000000000000000000000000000000000000000000000000000000000000000000000000000000000000F50000000000000000000000000000000000000000000000000000000000000000000000000000000000000000000000000000000000000000000000000000000000000000000000000000000000000000000000
310
000000000000000000000000000000000000000000000000000000000000F500000000000000000000000000000000000000000000000000000000000000000000000000000000000000000000000000000000000000000000000000000000000000000000BE00000000000000000000000000000000000000000000000000
310
000000000000000000000000000000000000000000000000000000000000000000000000000000000000000000F5000000000000000000000000000000000000000000000000000000000000000000000000000000000000000000000000000000000000000000000000000000000000000000000000000000000000000000
310
0000000000000000000000000000000000000000000000000000000000000000F500000000000000000000000000000000000000000000000000000000000000000000000000000000000000000000000000000000000000000000000000000000000000000000000000000000000000000000000000000000000000000000
310
0000000000000000000000000000000000000000000000000000000000000000000000000000000000000000000000F500000000000000000000000000000000000000000000000000000000000000000000000000000000000000000000000000000000000000000000000000000000000000000000000000000000000000
310
00000000000000000000000000000000000000000000000000000000000000000000F50000000000000000000000000000000000000000000000000000000000000000000000000000000000000000000000000000000000000000000000000000000000000000000000000000000000000000000000000000000000000000
310
00000000000000000000000000000000000000000000000000000000000000000000000000000000000000000000000000F50000000000000000000000000000000000000000000000000000000000000000000000000000000000000000000000000000000000000000000000000000000000000000000000000000000000
310
000000000000000000000000000000000000000000000000000000000000000000000000F5000000000000000000000000000000000000000000000000000000000000000000000000000000000000000000000000000000000000000000000000000000000000000000000000000000000000000000000000000000000000
310
000000000000000000000000000000000000000000000000000000000000000000000000000000000000000000000000000000F5000000000000000000000000000000000000000000000000000000000000000000000000000000000000000000000000000000000000000000000000000000000000000000000000000000
310
0000000000000000000000000000000000000000000000000000000000000000000000000000F500000000000000000000000000000000000000000000000000000000000000000000000000000000000000000000000000000000000000000000000000000000000000000000000000000000000000000000000000000000
310
0000000000000000000000000000000000000000000000000000000000000000000000000000000000000000000000000000000000F500000000000000000000000000000000000000000000000000000000000000000000000000000000000000000000000000000000000000000000000000000000000000000000000000
310
00000000000000000000000000000000000000000000000000000000000000000000000000000000F50000000000000000000000000000000000000000000000000000000000000000000000000000000000000000000000000000000000000000000000000000000000000000000000000000000000000000000000000000
310
00000000000000000000000000000000000000000000000000000000000000000000000000000000000000000000000000000000000000F50000000000000000000000000000000000000000000000000000000000000000000000000000000000000000000000000000000000000000000000000000000000000000000000
310
000000000000000000000000000000000000000000000000000000000000000000000000000000000000F5000000000000000000000000000000000000000000000000000000000000000000000000000000000000000000000000000000000000000000000000000000000000000000000000000000000000000000000000
310
000000000000000000000000000000000000000000000000000000000000000000000000000000000000000000000000000000000000000000F5000000000000000000000000000000000000000000000000000000000000000000000000000000000000000000000000000000000000000000000000000000000000000000
310
0000000000000000000000000000000000000000000000000000000000000000000000000000000000000000F500000000000000000000000000000000000000000000000000000000000000000000000000000000000000000000000000000000000000000000000000000000000000000000000000000000000000000000
310
0000000000000000000000000000000000000000000000000000000000000000000000000000000000000000000000000000000000000000000000F500000000000000000000000000000000000000000000000000000000000000000000000000000000000000000000000000000000000000000000000000000000000000
310
00000000000000000000000000000000000000000000000000000000000000000000000000000000000000000000F50000000000000000000000000000000000000000000000000000000000000000000000000000000000000000000000000000000000000000000000000000000000000000000000000000000000000000
310
00000000000000000000000000000000000000000000000000000000000000000000000000000000000000000000000000000000000000000000000000F50000000000000000000000000000000000000000000000000000000000000000000000000000000000000000000000000000000000000000000000000000000000
310
000000000000000000000000000000000000000000000000000000000000000000000000000000000000000000000000F5000000000000000000000000000000000000000000000000000000000000000000000000000000000000000000000000000000000000000000000000000000000000000000000000000000000000
310
000000000000000000000000000000000000000000000000000000000000000000000000000000000000000000000000000000000000000000000000000000F5000000000000000000000000000000000000000000000000000000000000000000000000000000000000000000000000000000000000000000000000000000
310
0000000000000000000000000000000000000000000000000000000000000000000000000000000000000000000000000000F500000000000000000000000000000000000000000000000000000000000000000000000000000000000000000000000000000000000000000000000000000000000000000000000000000000
310
0000000000000000000000000000000000000000000000000000000000000000000000000000000000000000000000000000000000000000000000000000000000F500000000000000000000000000000000000000000000000000000000000000000000000000000000000000000000000000000000000000000000000000
310
00000000000000000000000000000000000000000000000000000000000000000000000000000000000000000000000000000000F50000000000000000000000000000000000000000000000000000000000000000000000000000000000000000000000000000000000000000000000000000000000000000000000000000
310
00000000000000000000000000000000000000000000000000000000000000000000000000000000000000000000000000000000000000000000000000000000000000F50000000000000000000000000000000000000000000000000000000000000000000000000000000000000000000000000000000000000000000000
310
000000000000000000000000000000000000000000000000000000000000000000000000000000000000000000000000000000000000F5000000000000000000000000000000000000000000000000000000000000000000000000000000000000000000000000000000000000000000000000000000000000000000000000
310
000000000000000000000000000000000000000000000000000000000000000000000000000000000000000000000000000000000000000000000000000000000000000000F5000000000000000000000000000000000000000000000000000000000000000000000000000000000000000000000000000000000000000000
310
0000000000000000000000000000000000000000000000000000000000000000000000000000000000000000000000000000000000000000F5F5F5F5F5F5F5F5F5F5F5F5F5F5F5F5F5F5F5F5F5F5F5F5F5F5F5F5F5F5F5F5F5F5F5F5F5F5F5F5F5F5F5F5F5F5F5F5F5F5F5F5F5F5F5F5F5F5F5F5F5F5F5F5F5F5F5F5F5F5F5
310
F5F5F5F5F5F5F5F5F5F5F5F5F5F5F5F5F5F5F5F5F5F5F5F5F5F5F5F5F5F5F5F5F5F5F5F5F5F5F5F5F5F5F5F5F5F5F5F5F5F5F5F5F5F5F5F5F5F5F5F5F5F5F5F5F5F5F5F5F5F5F5F500000000000000000000000000000000000000000000000000000000000000000000000000000000000000000000000000000000000000
310
00000000000000000000000000000000000000000000000000000000000000000000000000000000000000000000000000000000000000000000000000000000000000000000000000000000000000000000000000000000000000000000000000000000000000000000000000000000000000000000000000000000000000
310
00000000000000000000000000000000000000000000000000000000000000000000000000000000000000000000000000000000000000000000000000000000000000000000000000000000000000000000000000000000000000000000000000000000000000000000000000000000000000000000000000000000000000
310
00000000000000000000000000000000000000000000000000000000000000000000000000000000000000000000000000000000000000000000000000000000000000000000000000000000000000000000000000000000000000000000000000000000000000000000000000000000000000000000000000000000000000
310
00000000000000000000000000000000000000000000000000000000000000000000000000000000000000000000000000000000000000000000000000000000000000000000000000000000000000000000000000000000000000000000000000000000000000000000000000000000000000000000000000000000000000
310
00000000000000000000000000000000000000000000000000000000000000000000000000000000000000000000000000000000000000000000000000000000000000000000000000000000000000000000000000000000000000000000000000000000000000000000000000000000000000000000000000000000000000
310
00000000000000000000000000000000000000000000000000000000000000000000000000000000000000000000000000000000000000000000000000000000000000000000000000000000000000000000000000000000000000000000000000000000000000000000000000000000000000000000000000000000000000
310
00000000000000000000000000000000000000000000000000000000000000000000000000000000000000000000000000000000000000000000000000000000000000000000000000000000000000000000000000000000000000000000000000000000000000000000000000000000000000000000000000000000000000
310
00000000000000000000000000000000000000000000000000000000000000000000000000000000000000000000000000000000000000000000000000000000000000000000000000000000000000000000000000000000000000000000000000000000000000000000000000000000000000000000000000000000000000
310
00000000000000000000000000000000000000000000000000000000000000000000000000000000000000000000000000000000000000000000000000000000000000000000000000000000000000000000000000000000000000000000000000000000000000000000000000000000000000000000000000000000000000
310
00000000000000000000000000000000000000000000000000000000000000000000000000000000000000000000000000000000000000000000000000000000000000000000000000000000000000000000000000000000000000000000000000000000000000000000000000000000000000000000000000000000000000
310
00000000000000000000000000000000000000000000000000000000000000000000000000000000000000000000000000000000000000000000000000000000000000000000000000000000000000000000000000000000000000000000000000000000000000000000000000000000000000000000000000000000000000
310
00000000000000000000000000000000000000000000000000000000000000000000000000000000000000000000000000000000000000000000000000000000000000000000000000000000000000000000000000000000000000000000000000000000000000000000000000000000000000000000000000000000000000
310
00000000000000000000000000000000000000000000000000000000000000000000000000000000000000000000000000000000000000000000000000000000000000000000000000000000000000000000000000000000000000000000000000000000000000000000000000000000000000000000000000000000000000
310
00000000000000000000000000000000000000000000000000000000000000000000000000000000000000000000000000000000000000000000000000000000000000000000000000000000000000000000000000000000000000000000000000000000000000000000000000000000000000000000000000000000000000
310
00000000000000000000000000000000000000000000000000000000000000000000000000000000000000000000000000000000000000000000000000000000000000000000000000000000000000000000000000000000000000000000000000000000000000000000000000000000000000000000000000000000000000
310
00000000000000000000000000000000000000000000000000000000000000000000000000000000000000000000000000000000000000000000000000000000000000000000000000000000000000000000000000000000000000000000000000000000000000000000000000000000000000000000000000000000000000
310
00000000000000000000000000000000000000000000000000000000000000000000000000000000000000000000000000000000000000000000000000000000000000000000000000000000000000000000000000000000000000000000000000000000000000000000000000000000000000000000000000000000000000
310
00000000000000000000000000000000000000000000000000000000000000000000000000000000000000000000000000000000000000000000000000000000000000000000000000000000000000000000000000000000000000000000000000000000000000000000000000000000000000000000000000000000000000
310
00000000000000000000000000000000000000000000000000000000000000000000000000000000000000000000000000000000000000000000000000000000000000000000000000000000000000000000000000000000000000000000000000000000000000000000000000000000000000000000000000000000000000
310
00000000000000000000000000000000000000000000000000000000000000000000000000000000000000000000000000000000000000000000000000000000000000000000000000000000000000000000000000000000000000000000000000000000000000000000000000000000000000000000000000000000000000
310
00000000000000000000000000000000000000000000000000000000000000000000000000000000000000000000000000000000000000000000000000000000000000000000000000000000000000000000000000000000000000000000000000000000000000000000000000000000000000000000000000000000000000
310
00000000000000000000000000000000000000000000000000000000000000000000000000000000000000000000000000000000000000000000000000000000000000000000000000000000000000000000000000000000000000000000000000000000000000000000000000000000000000000000000000000000000000
310
00000000000000000000000000000000000000000000000000000000000000000000000000000000000000000000000000000000000000000000000000000000000000000000000000000000000000000000000000000000000000000000000000000000000000000000000000000000000000000000000000000000000000
310
00000000000000000000000000000000000000000000000000000000000000000000000000000000000000000000000000000000000000000000000000000000000000000000000000000000000000000000000000000000000000000000000000000000000000000000000000000000000000000000000000000000000000
310
00000000000000000000000000000000000000000000000000000000000000000000000000000000000000000000000000000000000000000000000000000000000000000000000000000000000000000000000000000000000000000000000000000000000000000000000000000000000000000000000000000000000000
310
00000000000000000000000000000000000000000000000000000000000000000000000000000000000000000000000000000000000000000000000000000000000000000000000000000000000000000000000000000000000000000000000000000000000000000000000000000000000000000000000000000000000000
310
00000000000000000000000000000000000000000000000000000000000000000000000000000000000000000000000000000000000000000000000000000000000000000000000000000000000000000000000000000000000000000000000000000000000000000000000000000000000000000000000000000000000000
310
00000000000000000000000000000000000000000000000000000000000000000000000000000000000000000000000000000000000000000000000000000000000000000000000000000000000000000000000000000000000000000000000000000000000000000000000000000000000000000000000000000000000000
310
0000000000000000000000000000000000000000000000000000000000000000000000000000000000000000
  0
XRECORD
  5
829B
102
{ACAD_REACTORS
330
829A
102
}
330
829A
100
AcDbXrecord
280
     1
102
SHADEPLOT
 70
     0
102
SHADEPLOTRESLEVEL
 70
     2
102
SHADEPLOTCUSTOMDPI
 70
   300
  0
XRECORD
  5
829D
102
{ACAD_REACTORS
330
546C
102
}
330
546C
100
AcDbXrecord
280
     1
102
MATERIAL
148
0.0
149
0.0
149
0.0
 93
        0
 94
      127
282
     0
 72
     0
 77
     0
171
     0
175
     0
179
     0
273
     0
  0
XRECORD
  5
546E
102
{ACAD_REACTORS
330
546C
102
}
330
546C
100
AcDbXrecord
280
     1
270
     1
271
     1
  0
XRECORD
  5
546D
102
{ACAD_REACTORS
330
546C
102
}
330
546C
100
AcDbXrecord
280
     1
270
     1
271
     1
  0
XRECORD
  5
5471
102
{ACAD_REACTORS
330
546C
102
}
330
546C
100
AcDbXrecord
280
     1
270
     1
271
     1
  0
XRECORD
  5
5470
102
{ACAD_REACTORS
330
546C
102
}
330
546C
100
AcDbXrecord
280
     1
270
     1
271
     1
  0
XRECORD
  5
5472
102
{ACAD_REACTORS
330
546C
102
}
330
546C
100
AcDbXrecord
280
     1
270
     1
271
     1
  0
XRECORD
  5
546F
102
{ACAD_REACTORS
330
546C
102
}
330
546C
100
AcDbXrecord
280
     1
270
     1
271
     1
  0
XRECORD
  5
829C
102
{ACAD_REACTORS
330
5464
102
}
330
5464
100
AcDbXrecord
280
     1
102
MATERIAL
148
0.0
149
0.0
149
0.0
 93
        0
 94
      127
282
     0
 72
     0
 77
     0
171
     0
175
     0
179
     0
273
     0
  0
XRECORD
  5
5466
102
{ACAD_REACTORS
330
5464
102
}
330
5464
100
AcDbXrecord
280
     1
270
     1
271
     1
  0
XRECORD
  5
5465
102
{ACAD_REACTORS
330
5464
102
}
330
5464
100
AcDbXrecord
280
     1
270
     1
271
     1
  0
XRECORD
  5
5469
102
{ACAD_REACTORS
330
5464
102
}
330
5464
100
AcDbXrecord
280
     1
270
     1
271
     1
  0
XRECORD
  5
5468
102
{ACAD_REACTORS
330
5464
102
}
330
5464
100
AcDbXrecord
280
     1
270
     1
271
     1
  0
XRECORD
  5
546A
102
{ACAD_REACTORS
330
5464
102
}
330
5464
100
AcDbXrecord
280
     1
270
     1
271
     1
  0
XRECORD
  5
5467
102
{ACAD_REACTORS
330
5464
102
}
330
5464
100
AcDbXrecord
280
     1
270
     1
271
     1
  0
XRECORD
  5
829E
102
{ACAD_REACTORS
330
5474
102
}
330
5474
100
AcDbXrecord
280
     1
102
MATERIAL
148
0.0
149
0.0
149
0.0
 93
        0
 94
      127
282
     0
 72
     0
 77
     0
171
     0
175
     0
179
     0
273
     0
  0
XRECORD
  5
5476
102
{ACAD_REACTORS
330
5474
102
}
330
5474
100
AcDbXrecord
280
     1
270
     1
271
     1
  0
XRECORD
  5
5475
102
{ACAD_REACTORS
330
5474
102
}
330
5474
100
AcDbXrecord
280
     1
270
     1
271
     1
  0
XRECORD
  5
5479
102
{ACAD_REACTORS
330
5474
102
}
330
5474
100
AcDbXrecord
280
     1
270
     1
271
     1
  0
XRECORD
  5
5478
102
{ACAD_REACTORS
330
5474
102
}
330
5474
100
AcDbXrecord
280
     1
270
     1
271
     1
  0
XRECORD
  5
547A
102
{ACAD_REACTORS
330
5474
102
}
330
5474
100
AcDbXrecord
280
     1
270
     1
271
     1
  0
XRECORD
  5
5477
102
{ACAD_REACTORS
330
5474
102
}
330
5474
100
AcDbXrecord
280
     1
270
     1
271
     1
  0
ACAD_PROXY_OBJECT
  5
8290
102
{ACAD_REACTORS
330
828F
102
}
330
828F
100
AcDbProxyObject
 90
      499
 91
      562
 95
   393239
 70
     0
 93
     5304
310
40D054060020000020000003200101A000080002A5058000000C10000000000000006101010000000000003E0FC000000000000F83F0000000000003E0FC000000000000F83F000000000000049000000000000001240419019018000000C1003FBFFFFFE0000000000003C8FD029018000000C1003FBFFFFFE00000000000
310
03C8FD049018000000C1003FBFFFFFE0000000000003C8FD089018000000C1003FBFFFFFE0000000000003C8FD109018000000C1003FBFFFFFE0000000000003C8FD209018000000C1003FBFFFFFE0000000000003C8FD01405075F5449544C450041501A8000000C800406800020000A94160000003040000000000000012
310
40404000000000000F83F0000000000003E0FC000000000000F83F0000000000003E0FC0000000000001240000000000000049010640640600000030400FEFFFFFF8000000000000F23F40A40600000030400FEFFFFFF8000000000000F23F41240600000030400FEFFFFFF8000000000000F23F42240600000030400FEFFF
310
FFF8000000000000F23F44240600000030400FEFFFFFF8000000000000F23F48240600000030400FEFFFFFF8000000000000F23F409014217D2115051115480105406A0000003200101A000080002A5028000000C10000000000000004901010000000000003E0FC000000000000F83F0000000000003E0FC000000000000F
310
83F000000000000049000000000000001240419019018000000C1003FBFFFFFE0000000000003C8FD029018000000C1003FBFFFFFE0000000000003C8FD049018000000C1003FBFFFFFE0000000000003C8FD089018000000C1003FBFFFFFE0000000000003C8FD109018000000C1003FBFFFFFE0000000000003C8FD20901
310
8000000C1003FBFFFFFE0000000000003C8FD03409065F444154410000
340
10
340
0
340
0
340
0
340
0
340
0
340
0
340
10
340
0
340
0
340
0
340
0
340
0
340
0
340
10
340
0
340
0
340
0
340
0
340
0
340
0
 94
        0
  0
XRECORD
  5
82CF
102
{ACAD_REACTORS
330
828F
102
}
330
828F
100
AcDbXrecord
280
     1
102
ACAD_ROUNDTRIP_PRE2007_TABLESTYLE
 90
      512
 91
        0
  1

 92
      512
 93
        0
  2

 94
      512
 95
        0
  3

  0
XRECORD
  5
82AA
102
{ACAD_REACTORS
330
82A9
102
}
330
82A9
100
AcDbXrecord
280
     1
102
RTVSPropertyOp0
 70
     1
102
RTVSPropertyOp1
 70
     1
102
RTVSPropertyOp2
 70
     1
102
RTVSPropertyOp3
 70
     1
102
RTVSPropertyOp4
 70
     1
102
RTVSPropertyOp5
 70
     1
102
RTVSPropertyOp6
 70
     1
102
RTVSPropertyOp7
 70
     1
102
RTVSPropertyOp8
 70
     1
102
RTVSPropertyOp9
 70
     1
102
RTVSPropertyOp10
 70
     1
102
RTVSPropertyOp11
 70
     1
102
RTVSPropertyOp12
 70
     1
102
RTVSPropertyOp13
 70
     1
102
RTVSPropertyOp14
 70
     1
102
RTVSPropertyOp15
 70
     1
102
RTVSPropertyOp16
 70
     1
102
RTVSPropertyOp17
 70
     1
102
RTVSPropertyOp18
 70
     1
102
RTVSPropertyOp19
 70
     1
102
RTVSPropertyOp20
 70
     1
102
RTVSPropertyOp21
 70
     1
102
RTVSPropertyOp22
 70
     1
102
RTVSPropertyOp23
 70
     1
102
RTVSPropertyOp24
 70
     1
102
RTVSPropertyOp25
 70
     1
102
RTVSPropertyOp26
 70
     1
102
RTVSPropertyOp27
 70
     1
102
RTVSPropertyOp28
 70
     1
102
RTVSPropertyOp29
 70
     1
102
RTVSPropertyOp30
 70
     1
102
RTVSPropertyOp31
 70
     1
102
RTVSPropertyOp32
 70
     1
  0
XRECORD
  5
82A8
102
{ACAD_REACTORS
330
82A7
102
}
330
82A7
100
AcDbXrecord
280
     1
102
RTVSPropertyOp0
 70
     1
102
RTVSPropertyOp1
 70
     1
102
RTVSPropertyOp2
 70
     1
102
RTVSPropertyOp3
 70
     1
102
RTVSPropertyOp4
 70
     1
102
RTVSPropertyOp5
 70
     1
102
RTVSPropertyOp6
 70
     1
102
RTVSPropertyOp7
 70
     1
102
RTVSPropertyOp8
 70
     1
102
RTVSPropertyOp9
 70
     1
102
RTVSPropertyOp10
 70
     1
102
RTVSPropertyOp11
 70
     1
102
RTVSPropertyOp12
 70
     1
102
RTVSPropertyOp13
 70
     1
102
RTVSPropertyOp14
 70
     1
102
RTVSPropertyOp15
 70
     1
102
RTVSPropertyOp16
 70
     1
102
RTVSPropertyOp17
 70
     1
102
RTVSPropertyOp18
 70
     1
102
RTVSPropertyOp19
 70
     1
102
RTVSPropertyOp20
 70
     1
102
RTVSPropertyOp21
 70
     1
102
RTVSPropertyOp22
 70
     1
102
RTVSPropertyOp23
 70
     1
102
RTVSPropertyOp24
 70
     1
102
RTVSPropertyOp25
 70
     1
102
RTVSPropertyOp26
 70
     1
102
RTVSPropertyOp27
 70
     1
102
RTVSPropertyOp28
 70
     1
102
RTVSPropertyOp29
 70
     1
102
RTVSPropertyOp30
 70
     1
102
RTVSPropertyOp31
 70
     1
102
RTVSPropertyOp32
 70
     1
  0
XRECORD
  5
82B6
102
{ACAD_REACTORS
330
82B5
102
}
330
82B5
100
AcDbXrecord
280
     1
102
RTVSPropertyOp0
 70
     1
102
RTVSPropertyOp1
 70
     1
102
RTVSPropertyOp2
 70
     1
102
RTVSPropertyOp3
 70
     1
102
RTVSPropertyOp4
 70
     1
102
RTVSPropertyOp5
 70
     1
102
RTVSPropertyOp6
 70
     1
102
RTVSPropertyOp7
 70
     1
102
RTVSPropertyOp8
 70
     1
102
RTVSPropertyOp9
 70
     1
102
RTVSPropertyOp10
 70
     1
102
RTVSPropertyOp11
 70
     1
102
RTVSPropertyOp12
 70
     1
102
RTVSPropertyOp13
 70
     1
102
RTVSPropertyOp14
 70
     1
102
RTVSPropertyOp15
 70
     1
102
RTVSPropertyOp16
 70
     1
102
RTVSPropertyOp17
 70
     1
102
RTVSPropertyOp18
 70
     1
102
RTVSPropertyOp19
 70
     1
102
RTVSPropertyOp20
 70
     1
102
RTVSPropertyOp21
 70
     1
102
RTVSPropertyOp22
 70
     1
102
RTVSPropertyOp23
 70
     1
102
RTVSPropertyOp24
 70
     1
102
RTVSPropertyOp25
 70
     1
102
RTVSPropertyOp26
 70
     1
102
RTVSPropertyOp27
 70
     1
102
RTVSPropertyOp28
 70
     1
102
RTVSPropertyOp29
 70
     1
102
RTVSPropertyOp30
 70
     1
102
RTVSPropertyOp31
 70
     1
102
RTVSPropertyOp32
 70
     1
  0
XRECORD
  5
82BE
102
{ACAD_REACTORS
330
82BD
102
}
330
82BD
100
AcDbXrecord
280
     1
102
RTVSPropertyOp0
 70
     1
102
RTVSPropertyOp1
 70
     1
102
RTVSPropertyOp2
 70
     1
102
RTVSPropertyOp3
 70
     1
102
RTVSPropertyOp4
 70
     1
102
RTVSPropertyOp5
 70
     1
102
RTVSPropertyOp6
 70
     1
102
RTVSPropertyOp7
 70
     1
102
RTVSPropertyOp8
 70
     1
102
RTVSPropertyOp9
 70
     1
102
RTVSPropertyOp10
 70
     1
102
RTVSPropertyOp11
 70
     1
102
RTVSPropertyOp12
 70
     1
102
RTVSPropertyOp13
 70
     1
102
RTVSPropertyOp14
 70
     1
102
RTVSPropertyOp15
 70
     1
102
RTVSPropertyOp16
 70
     1
102
RTVSPropertyOp17
 70
     1
102
RTVSPropertyOp18
 70
     1
102
RTVSPropertyOp19
 70
     1
102
RTVSPropertyOp20
 70
     1
102
RTVSPropertyOp21
 70
     1
102
RTVSPropertyOp22
 70
     1
102
RTVSPropertyOp23
 70
     1
102
RTVSPropertyOp24
 70
     1
102
RTVSPropertyOp25
 70
     1
102
RTVSPropertyOp26
 70
     1
102
RTVSPropertyOp27
 70
     1
102
RTVSPropertyOp28
 70
     1
102
RTVSPropertyOp29
 70
     1
102
RTVSPropertyOp30
 70
     1
102
RTVSPropertyOp31
 70
     1
102
RTVSPropertyOp32
 70
     1
  0
XRECORD
  5
82B0
102
{ACAD_REACTORS
330
82AF
102
}
330
82AF
100
AcDbXrecord
280
     1
102
RTVSPropertyOp0
 70
     1
102
RTVSPropertyOp1
 70
     1
102
RTVSPropertyOp2
 70
     1
102
RTVSPropertyOp3
 70
     1
102
RTVSPropertyOp4
 70
     1
102
RTVSPropertyOp5
 70
     1
102
RTVSPropertyOp6
 70
     1
102
RTVSPropertyOp7
 70
     1
102
RTVSPropertyOp8
 70
     1
102
RTVSPropertyOp9
 70
     1
102
RTVSPropertyOp10
 70
     1
102
RTVSPropertyOp11
 70
     1
102
RTVSPropertyOp12
 70
     1
102
RTVSPropertyOp13
 70
     1
102
RTVSPropertyOp14
 70
     1
102
RTVSPropertyOp15
 70
     1
102
RTVSPropertyOp16
 70
     1
102
RTVSPropertyOp17
 70
     1
102
RTVSPropertyOp18
 70
     1
102
RTVSPropertyOp19
 70
     1
102
RTVSPropertyOp20
 70
     1
102
RTVSPropertyOp21
 70
     1
102
RTVSPropertyOp22
 70
     1
102
RTVSPropertyOp23
 70
     1
102
RTVSPropertyOp24
 70
     1
102
RTVSPropertyOp25
 70
     1
102
RTVSPropertyOp26
 70
     1
102
RTVSPropertyOp27
 70
     1
102
RTVSPropertyOp28
 70
     1
102
RTVSPropertyOp29
 70
     1
102
RTVSPropertyOp30
 70
     1
102
RTVSPropertyOp31
 70
     1
102
RTVSPropertyOp32
 70
     1
  0
XRECORD
  5
82B4
102
{ACAD_REACTORS
330
82B3
102
}
330
82B3
100
AcDbXrecord
280
     1
102
RTVSPropertyOp0
 70
     1
102
RTVSPropertyOp1
 70
     1
102
RTVSPropertyOp2
 70
     1
102
RTVSPropertyOp3
 70
     1
102
RTVSPropertyOp4
 70
     1
102
RTVSPropertyOp5
 70
     1
102
RTVSPropertyOp6
 70
     1
102
RTVSPropertyOp7
 70
     1
102
RTVSPropertyOp8
 70
     1
102
RTVSPropertyOp9
 70
     1
102
RTVSPropertyOp10
 70
     1
102
RTVSPropertyOp11
 70
     1
102
RTVSPropertyOp12
 70
     1
102
RTVSPropertyOp13
 70
     1
102
RTVSPropertyOp14
 70
     1
102
RTVSPropertyOp15
 70
     1
102
RTVSPropertyOp16
 70
     1
102
RTVSPropertyOp17
 70
     1
102
RTVSPropertyOp18
 70
     1
102
RTVSPropertyOp19
 70
     1
102
RTVSPropertyOp20
 70
     1
102
RTVSPropertyOp21
 70
     1
102
RTVSPropertyOp22
 70
     1
102
RTVSPropertyOp23
 70
     1
102
RTVSPropertyOp24
 70
     1
102
RTVSPropertyOp25
 70
     1
102
RTVSPropertyOp26
 70
     1
102
RTVSPropertyOp27
 70
     1
102
RTVSPropertyOp28
 70
     1
102
RTVSPropertyOp29
 70
     1
102
RTVSPropertyOp30
 70
     1
102
RTVSPropertyOp31
 70
     1
102
RTVSPropertyOp32
 70
     1
  0
XRECORD
  5
82CE
102
{ACAD_REACTORS
330
82CD
102
}
330
82CD
100
AcDbXrecord
280
     1
102
RTVSPropertyOp0
 70
     0
102
RTVSPropertyOp1
 70
     0
102
RTVSPropertyOp2
 70
     0
102
RTVSPropertyOp3
 70
     0
102
RTVSPropertyOp4
 70
     0
102
RTVSPropertyOp5
 70
     0
102
RTVSPropertyOp6
 70
     0
102
RTVSPropertyOp7
 70
     0
102
RTVSPropertyOp8
 70
     0
102
RTVSPropertyOp9
 70
     0
102
RTVSPropertyOp10
 70
     0
102
RTVSPropertyOp11
 70
     0
102
RTVSPropertyOp12
 70
     0
102
RTVSPropertyOp13
 70
     0
102
RTVSPropertyOp14
 70
     2
102
RTVSPropertyOp15
 70
     0
102
RTVSPropertyOp16
 70
     0
102
RTVSPropertyOp17
 70
     0
102
RTVSPropertyOp18
 70
     0
102
RTVSPropertyOp19
 70
     0
102
RTVSPropertyOp20
 70
     0
102
RTVSPropertyOp21
 70
     0
102
RTVSPropertyOp22
 70
     0
102
RTVSPropertyOp23
 70
     0
102
RTVSPropertyOp24
 70
     0
102
RTVSPropertyOp25
 70
     0
102
RTVSPropertyOp26
 70
     0
102
RTVSPropertyOp27
 70
     0
102
RTVSPropertyOp28
 70
     1
102
RTVSPropertyOp29
 70
     1
102
RTVSPropertyOp30
 70
     1
102
RTVSPropertyOp31
 70
     1
102
RTVSPropertyOp32
 70
     1
  0
XRECORD
  5
82BC
102
{ACAD_REACTORS
330
82BB
102
}
330
82BB
100
AcDbXrecord
280
     1
102
RTVSPropertyOp0
 70
     1
102
RTVSPropertyOp1
 70
     1
102
RTVSPropertyOp2
 70
     1
102
RTVSPropertyOp3
 70
     1
102
RTVSPropertyOp4
 70
     1
102
RTVSPropertyOp5
 70
     1
102
RTVSPropertyOp6
 70
     1
102
RTVSPropertyOp7
 70
     1
102
RTVSPropertyOp8
 70
     1
102
RTVSPropertyOp9
 70
     1
102
RTVSPropertyOp10
 70
     1
102
RTVSPropertyOp11
 70
     1
102
RTVSPropertyOp12
 70
     1
102
RTVSPropertyOp13
 70
     1
102
RTVSPropertyOp14
 70
     1
102
RTVSPropertyOp15
 70
     1
102
RTVSPropertyOp16
 70
     1
102
RTVSPropertyOp17
 70
     1
102
RTVSPropertyOp18
 70
     1
102
RTVSPropertyOp19
 70
     1
102
RTVSPropertyOp20
 70
     1
102
RTVSPropertyOp21
 70
     1
102
RTVSPropertyOp22
 70
     1
102
RTVSPropertyOp23
 70
     1
102
RTVSPropertyOp24
 70
     1
102
RTVSPropertyOp25
 70
     1
102
RTVSPropertyOp26
 70
     1
102
RTVSPropertyOp27
 70
     1
102
RTVSPropertyOp28
 70
     1
102
RTVSPropertyOp29
 70
     1
102
RTVSPropertyOp30
 70
     1
102
RTVSPropertyOp31
 70
     1
102
RTVSPropertyOp32
 70
     1
  0
XRECORD
  5
82A0
102
{ACAD_REACTORS
330
829F
102
}
330
829F
100
AcDbXrecord
280
     1
102
RTVSPropertyOp0
 70
     1
102
RTVSPropertyOp1
 70
     1
102
RTVSPropertyOp2
 70
     1
102
RTVSPropertyOp3
 70
     1
102
RTVSPropertyOp4
 70
     1
102
RTVSPropertyOp5
 70
     1
102
RTVSPropertyOp6
 70
     1
102
RTVSPropertyOp7
 70
     1
102
RTVSPropertyOp8
 70
     1
102
RTVSPropertyOp9
 70
     1
102
RTVSPropertyOp10
 70
     1
102
RTVSPropertyOp11
 70
     1
102
RTVSPropertyOp12
 70
     1
102
RTVSPropertyOp13
 70
     1
102
RTVSPropertyOp14
 70
     1
102
RTVSPropertyOp15
 70
     1
102
RTVSPropertyOp16
 70
     1
102
RTVSPropertyOp17
 70
     1
102
RTVSPropertyOp18
 70
     1
102
RTVSPropertyOp19
 70
     1
102
RTVSPropertyOp20
 70
     1
102
RTVSPropertyOp21
 70
     1
102
RTVSPropertyOp22
 70
     1
102
RTVSPropertyOp23
 70
     1
102
RTVSPropertyOp24
 70
     1
102
RTVSPropertyOp25
 70
     1
102
RTVSPropertyOp26
 70
     1
102
RTVSPropertyOp27
 70
     1
102
RTVSPropertyOp28
 70
     1
102
RTVSPropertyOp29
 70
     1
102
RTVSPropertyOp30
 70
     1
102
RTVSPropertyOp31
 70
     1
102
RTVSPropertyOp32
 70
     1
  0
XRECORD
  5
82A2
102
{ACAD_REACTORS
330
82A1
102
}
330
82A1
100
AcDbXrecord
280
     1
102
RTVSPropertyOp0
 70
     1
102
RTVSPropertyOp1
 70
     1
102
RTVSPropertyOp2
 70
     1
102
RTVSPropertyOp3
 70
     1
102
RTVSPropertyOp4
 70
     1
102
RTVSPropertyOp5
 70
     1
102
RTVSPropertyOp6
 70
     1
102
RTVSPropertyOp7
 70
     1
102
RTVSPropertyOp8
 70
     1
102
RTVSPropertyOp9
 70
     1
102
RTVSPropertyOp10
 70
     1
102
RTVSPropertyOp11
 70
     1
102
RTVSPropertyOp12
 70
     1
102
RTVSPropertyOp13
 70
     1
102
RTVSPropertyOp14
 70
     1
102
RTVSPropertyOp15
 70
     1
102
RTVSPropertyOp16
 70
     1
102
RTVSPropertyOp17
 70
     1
102
RTVSPropertyOp18
 70
     1
102
RTVSPropertyOp19
 70
     1
102
RTVSPropertyOp20
 70
     1
102
RTVSPropertyOp21
 70
     1
102
RTVSPropertyOp22
 70
     1
102
RTVSPropertyOp23
 70
     1
102
RTVSPropertyOp24
 70
     1
102
RTVSPropertyOp25
 70
     1
102
RTVSPropertyOp26
 70
     1
102
RTVSPropertyOp27
 70
     1
102
RTVSPropertyOp28
 70
     1
102
RTVSPropertyOp29
 70
     1
102
RTVSPropertyOp30
 70
     1
102
RTVSPropertyOp31
 70
     1
102
RTVSPropertyOp32
 70
     1
  0
XRECORD
  5
82A4
102
{ACAD_REACTORS
330
82A3
102
}
330
82A3
100
AcDbXrecord
280
     1
102
RTVSPropertyOp0
 70
     1
102
RTVSPropertyOp1
 70
     1
102
RTVSPropertyOp2
 70
     1
102
RTVSPropertyOp3
 70
     1
102
RTVSPropertyOp4
 70
     1
102
RTVSPropertyOp5
 70
     1
102
RTVSPropertyOp6
 70
     1
102
RTVSPropertyOp7
 70
     1
102
RTVSPropertyOp8
 70
     1
102
RTVSPropertyOp9
 70
     1
102
RTVSPropertyOp10
 70
     1
102
RTVSPropertyOp11
 70
     1
102
RTVSPropertyOp12
 70
     1
102
RTVSPropertyOp13
 70
     1
102
RTVSPropertyOp14
 70
     1
102
RTVSPropertyOp15
 70
     1
102
RTVSPropertyOp16
 70
     1
102
RTVSPropertyOp17
 70
     1
102
RTVSPropertyOp18
 70
     1
102
RTVSPropertyOp19
 70
     1
102
RTVSPropertyOp20
 70
     1
102
RTVSPropertyOp21
 70
     1
102
RTVSPropertyOp22
 70
     1
102
RTVSPropertyOp23
 70
     1
102
RTVSPropertyOp24
 70
     1
102
RTVSPropertyOp25
 70
     1
102
RTVSPropertyOp26
 70
     1
102
RTVSPropertyOp27
 70
     1
102
RTVSPropertyOp28
 70
     1
102
RTVSPropertyOp29
 70
     1
102
RTVSPropertyOp30
 70
     1
102
RTVSPropertyOp31
 70
     1
102
RTVSPropertyOp32
 70
     1
  0
XRECORD
  5
82A6
102
{ACAD_REACTORS
330
82A5
102
}
330
82A5
100
AcDbXrecord
280
     1
102
RTVSPropertyOp0
 70
     1
102
RTVSPropertyOp1
 70
     1
102
RTVSPropertyOp2
 70
     1
102
RTVSPropertyOp3
 70
     1
102
RTVSPropertyOp4
 70
     1
102
RTVSPropertyOp5
 70
     1
102
RTVSPropertyOp6
 70
     1
102
RTVSPropertyOp7
 70
     1
102
RTVSPropertyOp8
 70
     1
102
RTVSPropertyOp9
 70
     1
102
RTVSPropertyOp10
 70
     1
102
RTVSPropertyOp11
 70
     1
102
RTVSPropertyOp12
 70
     1
102
RTVSPropertyOp13
 70
     1
102
RTVSPropertyOp14
 70
     1
102
RTVSPropertyOp15
 70
     1
102
RTVSPropertyOp16
 70
     1
102
RTVSPropertyOp17
 70
     1
102
RTVSPropertyOp18
 70
     1
102
RTVSPropertyOp19
 70
     1
102
RTVSPropertyOp20
 70
     1
102
RTVSPropertyOp21
 70
     1
102
RTVSPropertyOp22
 70
     1
102
RTVSPropertyOp23
 70
     1
102
RTVSPropertyOp24
 70
     1
102
RTVSPropertyOp25
 70
     1
102
RTVSPropertyOp26
 70
     1
102
RTVSPropertyOp27
 70
     1
102
RTVSPropertyOp28
 70
     1
102
RTVSPropertyOp29
 70
     1
102
RTVSPropertyOp30
 70
     1
102
RTVSPropertyOp31
 70
     1
102
RTVSPropertyOp32
 70
     1
  0
XRECORD
  5
82AE
102
{ACAD_REACTORS
330
82AD
102
}
330
82AD
100
AcDbXrecord
280
     1
102
RTVSPropertyOp0
 70
     1
102
RTVSPropertyOp1
 70
     1
102
RTVSPropertyOp2
 70
     1
102
RTVSPropertyOp3
 70
     1
102
RTVSPropertyOp4
 70
     1
102
RTVSPropertyOp5
 70
     1
102
RTVSPropertyOp6
 70
     1
102
RTVSPropertyOp7
 70
     1
102
RTVSPropertyOp8
 70
     1
102
RTVSPropertyOp9
 70
     1
102
RTVSPropertyOp10
 70
     1
102
RTVSPropertyOp11
 70
     1
102
RTVSPropertyOp12
 70
     1
102
RTVSPropertyOp13
 70
     1
102
RTVSPropertyOp14
 70
     1
102
RTVSPropertyOp15
 70
     1
102
RTVSPropertyOp16
 70
     1
102
RTVSPropertyOp17
 70
     1
102
RTVSPropertyOp18
 70
     1
102
RTVSPropertyOp19
 70
     1
102
RTVSPropertyOp20
 70
     1
102
RTVSPropertyOp21
 70
     1
102
RTVSPropertyOp22
 70
     1
102
RTVSPropertyOp23
 70
     1
102
RTVSPropertyOp24
 70
     1
102
RTVSPropertyOp25
 70
     1
102
RTVSPropertyOp26
 70
     1
102
RTVSPropertyOp27
 70
     1
102
RTVSPropertyOp28
 70
     1
102
RTVSPropertyOp29
 70
     1
102
RTVSPropertyOp30
 70
     1
102
RTVSPropertyOp31
 70
     1
102
RTVSPropertyOp32
 70
     1
  0
XRECORD
  5
82CA
102
{ACAD_REACTORS
330
82C9
102
}
330
82C9
100
AcDbXrecord
280
     1
102
RTVSPropertyOp0
 70
     0
102
RTVSPropertyOp1
 70
     0
102
RTVSPropertyOp2
 70
     0
102
RTVSPropertyOp3
 70
     0
102
RTVSPropertyOp4
 70
     0
102
RTVSPropertyOp5
 70
     0
102
RTVSPropertyOp6
 70
     0
102
RTVSPropertyOp7
 70
     0
102
RTVSPropertyOp8
 70
     0
102
RTVSPropertyOp9
 70
     0
102
RTVSPropertyOp10
 70
     0
102
RTVSPropertyOp11
 70
     0
102
RTVSPropertyOp12
 70
     0
102
RTVSPropertyOp13
 70
     0
102
RTVSPropertyOp14
 70
     2
102
RTVSPropertyOp15
 70
     0
102
RTVSPropertyOp16
 70
     0
102
RTVSPropertyOp17
 70
     0
102
RTVSPropertyOp18
 70
     0
102
RTVSPropertyOp19
 70
     0
102
RTVSPropertyOp20
 70
     0
102
RTVSPropertyOp21
 70
     0
102
RTVSPropertyOp22
 70
     0
102
RTVSPropertyOp23
 70
     0
102
RTVSPropertyOp24
 70
     0
102
RTVSPropertyOp25
 70
     0
102
RTVSPropertyOp26
 70
     0
102
RTVSPropertyOp27
 70
     0
102
RTVSPropertyOp28
 70
     1
102
RTVSPropertyOp29
 70
     1
102
RTVSPropertyOp30
 70
     1
102
RTVSPropertyOp31
 70
     1
102
RTVSPropertyOp32
 70
     1
  0
XRECORD
  5
82BA
102
{ACAD_REACTORS
330
82B9
102
}
330
82B9
100
AcDbXrecord
280
     1
102
RTVSPropertyOp0
 70
     1
102
RTVSPropertyOp1
 70
     1
102
RTVSPropertyOp2
 70
     1
102
RTVSPropertyOp3
 70
     1
102
RTVSPropertyOp4
 70
     1
102
RTVSPropertyOp5
 70
     1
102
RTVSPropertyOp6
 70
     1
102
RTVSPropertyOp7
 70
     1
102
RTVSPropertyOp8
 70
     1
102
RTVSPropertyOp9
 70
     1
102
RTVSPropertyOp10
 70
     1
102
RTVSPropertyOp11
 70
     1
102
RTVSPropertyOp12
 70
     1
102
RTVSPropertyOp13
 70
     1
102
RTVSPropertyOp14
 70
     1
102
RTVSPropertyOp15
 70
     1
102
RTVSPropertyOp16
 70
     1
102
RTVSPropertyOp17
 70
     1
102
RTVSPropertyOp18
 70
     1
102
RTVSPropertyOp19
 70
     1
102
RTVSPropertyOp20
 70
     1
102
RTVSPropertyOp21
 70
     1
102
RTVSPropertyOp22
 70
     1
102
RTVSPropertyOp23
 70
     1
102
RTVSPropertyOp24
 70
     1
102
RTVSPropertyOp25
 70
     1
102
RTVSPropertyOp26
 70
     1
102
RTVSPropertyOp27
 70
     1
102
RTVSPropertyOp28
 70
     1
102
RTVSPropertyOp29
 70
     1
102
RTVSPropertyOp30
 70
     1
102
RTVSPropertyOp31
 70
     1
102
RTVSPropertyOp32
 70
     1
  0
XRECORD
  5
82CC
102
{ACAD_REACTORS
330
82CB
102
}
330
82CB
100
AcDbXrecord
280
     1
102
RTVSPropertyOp0
 70
     0
102
RTVSPropertyOp1
 70
     0
102
RTVSPropertyOp2
 70
     0
102
RTVSPropertyOp3
 70
     0
102
RTVSPropertyOp4
 70
     0
102
RTVSPropertyOp5
 70
     0
102
RTVSPropertyOp6
 70
     0
102
RTVSPropertyOp7
 70
     0
102
RTVSPropertyOp8
 70
     0
102
RTVSPropertyOp9
 70
     0
102
RTVSPropertyOp10
 70
     0
102
RTVSPropertyOp11
 70
     0
102
RTVSPropertyOp12
 70
     0
102
RTVSPropertyOp13
 70
     0
102
RTVSPropertyOp14
 70
     2
102
RTVSPropertyOp15
 70
     0
102
RTVSPropertyOp16
 70
     0
102
RTVSPropertyOp17
 70
     0
102
RTVSPropertyOp18
 70
     0
102
RTVSPropertyOp19
 70
     0
102
RTVSPropertyOp20
 70
     0
102
RTVSPropertyOp21
 70
     0
102
RTVSPropertyOp22
 70
     0
102
RTVSPropertyOp23
 70
     0
102
RTVSPropertyOp24
 70
     0
102
RTVSPropertyOp25
 70
     0
102
RTVSPropertyOp26
 70
     0
102
RTVSPropertyOp27
 70
     0
102
RTVSPropertyOp28
 70
     1
102
RTVSPropertyOp29
 70
     1
102
RTVSPropertyOp30
 70
     1
102
RTVSPropertyOp31
 70
     1
102
RTVSPropertyOp32
 70
     1
  0
XRECORD
  5
82B2
102
{ACAD_REACTORS
330
82B1
102
}
330
82B1
100
AcDbXrecord
280
     1
102
RTVSPropertyOp0
 70
     1
102
RTVSPropertyOp1
 70
     1
102
RTVSPropertyOp2
 70
     1
102
RTVSPropertyOp3
 70
     1
102
RTVSPropertyOp4
 70
     1
102
RTVSPropertyOp5
 70
     1
102
RTVSPropertyOp6
 70
     1
102
RTVSPropertyOp7
 70
     1
102
RTVSPropertyOp8
 70
     1
102
RTVSPropertyOp9
 70
     1
102
RTVSPropertyOp10
 70
     1
102
RTVSPropertyOp11
 70
     1
102
RTVSPropertyOp12
 70
     1
102
RTVSPropertyOp13
 70
     1
102
RTVSPropertyOp14
 70
     1
102
RTVSPropertyOp15
 70
     1
102
RTVSPropertyOp16
 70
     1
102
RTVSPropertyOp17
 70
     1
102
RTVSPropertyOp18
 70
     1
102
RTVSPropertyOp19
 70
     1
102
RTVSPropertyOp20
 70
     1
102
RTVSPropertyOp21
 70
     1
102
RTVSPropertyOp22
 70
     1
102
RTVSPropertyOp23
 70
     1
102
RTVSPropertyOp24
 70
     1
102
RTVSPropertyOp25
 70
     1
102
RTVSPropertyOp26
 70
     1
102
RTVSPropertyOp27
 70
     1
102
RTVSPropertyOp28
 70
     1
102
RTVSPropertyOp29
 70
     1
102
RTVSPropertyOp30
 70
     1
102
RTVSPropertyOp31
 70
     1
102
RTVSPropertyOp32
 70
     1
  0
XRECORD
  5
82C8
102
{ACAD_REACTORS
330
82C7
102
}
330
82C7
100
AcDbXrecord
280
     1
102
RTVSPropertyOp0
 70
     1
102
RTVSPropertyOp1
 70
     1
102
RTVSPropertyOp2
 70
     1
102
RTVSPropertyOp3
 70
     1
102
RTVSPropertyOp4
 70
     1
102
RTVSPropertyOp5
 70
     1
102
RTVSPropertyOp6
 70
     1
102
RTVSPropertyOp7
 70
     1
102
RTVSPropertyOp8
 70
     1
102
RTVSPropertyOp9
 70
     1
102
RTVSPropertyOp10
 70
     1
102
RTVSPropertyOp11
 70
     1
102
RTVSPropertyOp12
 70
     1
102
RTVSPropertyOp13
 70
     1
102
RTVSPropertyOp14
 70
     1
102
RTVSPropertyOp15
 70
     1
102
RTVSPropertyOp16
 70
     1
102
RTVSPropertyOp17
 70
     1
102
RTVSPropertyOp18
 70
     1
102
RTVSPropertyOp19
 70
     1
102
RTVSPropertyOp20
 70
     1
102
RTVSPropertyOp21
 70
     1
102
RTVSPropertyOp22
 70
     1
102
RTVSPropertyOp23
 70
     1
102
RTVSPropertyOp24
 70
     1
102
RTVSPropertyOp25
 70
     1
102
RTVSPropertyOp26
 70
     1
102
RTVSPropertyOp27
 70
     1
102
RTVSPropertyOp28
 70
     1
102
RTVSPropertyOp29
 70
     1
102
RTVSPropertyOp30
 70
     1
102
RTVSPropertyOp31
 70
     1
102
RTVSPropertyOp32
 70
     1
  0
XRECORD
  5
82C6
102
{ACAD_REACTORS
330
82C5
102
}
330
82C5
100
AcDbXrecord
280
     1
102
RTVSPropertyOp0
 70
     1
102
RTVSPropertyOp1
 70
     1
102
RTVSPropertyOp2
 70
     1
102
RTVSPropertyOp3
 70
     1
102
RTVSPropertyOp4
 70
     1
102
RTVSPropertyOp5
 70
     1
102
RTVSPropertyOp6
 70
     1
102
RTVSPropertyOp7
 70
     1
102
RTVSPropertyOp8
 70
     1
102
RTVSPropertyOp9
 70
     1
102
RTVSPropertyOp10
 70
     1
102
RTVSPropertyOp11
 70
     1
102
RTVSPropertyOp12
 70
     1
102
RTVSPropertyOp13
 70
     1
102
RTVSPropertyOp14
 70
     1
102
RTVSPropertyOp15
 70
     1
102
RTVSPropertyOp16
 70
     1
102
RTVSPropertyOp17
 70
     1
102
RTVSPropertyOp18
 70
     1
102
RTVSPropertyOp19
 70
     1
102
RTVSPropertyOp20
 70
     1
102
RTVSPropertyOp21
 70
     1
102
RTVSPropertyOp22
 70
     1
102
RTVSPropertyOp23
 70
     1
102
RTVSPropertyOp24
 70
     1
102
RTVSPropertyOp25
 70
     1
102
RTVSPropertyOp26
 70
     1
102
RTVSPropertyOp27
 70
     1
102
RTVSPropertyOp28
 70
     1
102
RTVSPropertyOp29
 70
     1
102
RTVSPropertyOp30
 70
     1
102
RTVSPropertyOp31
 70
     1
102
RTVSPropertyOp32
 70
     1
  0
XRECORD
  5
82C0
102
{ACAD_REACTORS
330
82BF
102
}
330
82BF
100
AcDbXrecord
280
     1
102
RTVSPropertyOp0
 70
     1
102
RTVSPropertyOp1
 70
     1
102
RTVSPropertyOp2
 70
     1
102
RTVSPropertyOp3
 70
     1
102
RTVSPropertyOp4
 70
     1
102
RTVSPropertyOp5
 70
     1
102
RTVSPropertyOp6
 70
     1
102
RTVSPropertyOp7
 70
     1
102
RTVSPropertyOp8
 70
     1
102
RTVSPropertyOp9
 70
     1
102
RTVSPropertyOp10
 70
     1
102
RTVSPropertyOp11
 70
     1
102
RTVSPropertyOp12
 70
     1
102
RTVSPropertyOp13
 70
     1
102
RTVSPropertyOp14
 70
     1
102
RTVSPropertyOp15
 70
     1
102
RTVSPropertyOp16
 70
     1
102
RTVSPropertyOp17
 70
     1
102
RTVSPropertyOp18
 70
     1
102
RTVSPropertyOp19
 70
     1
102
RTVSPropertyOp20
 70
     1
102
RTVSPropertyOp21
 70
     1
102
RTVSPropertyOp22
 70
     1
102
RTVSPropertyOp23
 70
     1
102
RTVSPropertyOp24
 70
     1
102
RTVSPropertyOp25
 70
     1
102
RTVSPropertyOp26
 70
     1
102
RTVSPropertyOp27
 70
     1
102
RTVSPropertyOp28
 70
     1
102
RTVSPropertyOp29
 70
     1
102
RTVSPropertyOp30
 70
     1
102
RTVSPropertyOp31
 70
     1
102
RTVSPropertyOp32
 70
     1
  0
XRECORD
  5
82C2
102
{ACAD_REACTORS
330
82C1
102
}
330
82C1
100
AcDbXrecord
280
     1
102
RTVSPropertyOp0
 70
     1
102
RTVSPropertyOp1
 70
     1
102
RTVSPropertyOp2
 70
     1
102
RTVSPropertyOp3
 70
     1
102
RTVSPropertyOp4
 70
     1
102
RTVSPropertyOp5
 70
     1
102
RTVSPropertyOp6
 70
     1
102
RTVSPropertyOp7
 70
     1
102
RTVSPropertyOp8
 70
     1
102
RTVSPropertyOp9
 70
     1
102
RTVSPropertyOp10
 70
     1
102
RTVSPropertyOp11
 70
     1
102
RTVSPropertyOp12
 70
     1
102
RTVSPropertyOp13
 70
     1
102
RTVSPropertyOp14
 70
     1
102
RTVSPropertyOp15
 70
     1
102
RTVSPropertyOp16
 70
     1
102
RTVSPropertyOp17
 70
     1
102
RTVSPropertyOp18
 70
     1
102
RTVSPropertyOp19
 70
     1
102
RTVSPropertyOp20
 70
     1
102
RTVSPropertyOp21
 70
     1
102
RTVSPropertyOp22
 70
     1
102
RTVSPropertyOp23
 70
     1
102
RTVSPropertyOp24
 70
     1
102
RTVSPropertyOp25
 70
     1
102
RTVSPropertyOp26
 70
     1
102
RTVSPropertyOp27
 70
     1
102
RTVSPropertyOp28
 70
     1
102
RTVSPropertyOp29
 70
     1
102
RTVSPropertyOp30
 70
     1
102
RTVSPropertyOp31
 70
     1
102
RTVSPropertyOp32
 70
     1
  0
XRECORD
  5
82B8
102
{ACAD_REACTORS
330
82B7
102
}
330
82B7
100
AcDbXrecord
280
     1
102
RTVSPropertyOp0
 70
     1
102
RTVSPropertyOp1
 70
     1
102
RTVSPropertyOp2
 70
     1
102
RTVSPropertyOp3
 70
     1
102
RTVSPropertyOp4
 70
     1
102
RTVSPropertyOp5
 70
     1
102
RTVSPropertyOp6
 70
     1
102
RTVSPropertyOp7
 70
     1
102
RTVSPropertyOp8
 70
     1
102
RTVSPropertyOp9
 70
     1
102
RTVSPropertyOp10
 70
     1
102
RTVSPropertyOp11
 70
     1
102
RTVSPropertyOp12
 70
     1
102
RTVSPropertyOp13
 70
     1
102
RTVSPropertyOp14
 70
     1
102
RTVSPropertyOp15
 70
     1
102
RTVSPropertyOp16
 70
     1
102
RTVSPropertyOp17
 70
     1
102
RTVSPropertyOp18
 70
     1
102
RTVSPropertyOp19
 70
     1
102
RTVSPropertyOp20
 70
     1
102
RTVSPropertyOp21
 70
     1
102
RTVSPropertyOp22
 70
     1
102
RTVSPropertyOp23
 70
     1
102
RTVSPropertyOp24
 70
     1
102
RTVSPropertyOp25
 70
     1
102
RTVSPropertyOp26
 70
     1
102
RTVSPropertyOp27
 70
     1
102
RTVSPropertyOp28
 70
     1
102
RTVSPropertyOp29
 70
     1
102
RTVSPropertyOp30
 70
     1
102
RTVSPropertyOp31
 70
     1
102
RTVSPropertyOp32
 70
     1
  0
XRECORD
  5
82AC
102
{ACAD_REACTORS
330
82AB
102
}
330
82AB
100
AcDbXrecord
280
     1
102
RTVSPropertyOp0
 70
     1
102
RTVSPropertyOp1
 70
     1
102
RTVSPropertyOp2
 70
     1
102
RTVSPropertyOp3
 70
     1
102
RTVSPropertyOp4
 70
     1
102
RTVSPropertyOp5
 70
     1
102
RTVSPropertyOp6
 70
     1
102
RTVSPropertyOp7
 70
     1
102
RTVSPropertyOp8
 70
     1
102
RTVSPropertyOp9
 70
     1
102
RTVSPropertyOp10
 70
     1
102
RTVSPropertyOp11
 70
     1
102
RTVSPropertyOp12
 70
     1
102
RTVSPropertyOp13
 70
     1
102
RTVSPropertyOp14
 70
     1
102
RTVSPropertyOp15
 70
     1
102
RTVSPropertyOp16
 70
     1
102
RTVSPropertyOp17
 70
     1
102
RTVSPropertyOp18
 70
     1
102
RTVSPropertyOp19
 70
     1
102
RTVSPropertyOp20
 70
     1
102
RTVSPropertyOp21
 70
     1
102
RTVSPropertyOp22
 70
     1
102
RTVSPropertyOp23
 70
     1
102
RTVSPropertyOp24
 70
     1
102
RTVSPropertyOp25
 70
     1
102
RTVSPropertyOp26
 70
     1
102
RTVSPropertyOp27
 70
     1
102
RTVSPropertyOp28
 70
     1
102
RTVSPropertyOp29
 70
     1
102
RTVSPropertyOp30
 70
     1
102
RTVSPropertyOp31
 70
     1
102
RTVSPropertyOp32
 70
     1
  0
XRECORD
  5
82C4
102
{ACAD_REACTORS
330
82C3
102
}
330
82C3
100
AcDbXrecord
280
     1
102
RTVSPropertyOp0
 70
     1
102
RTVSPropertyOp1
 70
     1
102
RTVSPropertyOp2
 70
     1
102
RTVSPropertyOp3
 70
     1
102
RTVSPropertyOp4
 70
     1
102
RTVSPropertyOp5
 70
     1
102
RTVSPropertyOp6
 70
     1
102
RTVSPropertyOp7
 70
     1
102
RTVSPropertyOp8
 70
     1
102
RTVSPropertyOp9
 70
     1
102
RTVSPropertyOp10
 70
     1
102
RTVSPropertyOp11
 70
     1
102
RTVSPropertyOp12
 70
     1
102
RTVSPropertyOp13
 70
     1
102
RTVSPropertyOp14
 70
     1
102
RTVSPropertyOp15
 70
     1
102
RTVSPropertyOp16
 70
     1
102
RTVSPropertyOp17
 70
     1
102
RTVSPropertyOp18
 70
     1
102
RTVSPropertyOp19
 70
     1
102
RTVSPropertyOp20
 70
     1
102
RTVSPropertyOp21
 70
     1
102
RTVSPropertyOp22
 70
     1
102
RTVSPropertyOp23
 70
     1
102
RTVSPropertyOp24
 70
     1
102
RTVSPropertyOp25
 70
     1
102
RTVSPropertyOp26
 70
     1
102
RTVSPropertyOp27
 70
     1
102
RTVSPropertyOp28
 70
     1
102
RTVSPropertyOp29
 70
     1
102
RTVSPropertyOp30
 70
     1
102
RTVSPropertyOp31
 70
     1
102
RTVSPropertyOp32
 70
     1
  0
ENDSEC
  0
EOF
