  0
SECTION
  2
HEADER
  9
$ACADVER
  1
AC1015
  9
$ACADMAINTVER
 70
     6
  9
$DWGCODEPAGE
  3
ANSI_932
  9
$INSBASE
 10
0.0
 20
0.0
 30
0.0
  9
$EXTMIN
 10
-0.0000002565129762
 20
0.0000003394496844
 30
-0.00000001
  9
$EXTMAX
 10
398.799999743487
 20
276.5653526396996
 30
0.00000001
  9
$LIMMIN
 10
0.0
 20
0.0
  9
$LIMMAX
 10
420.0
 20
297.0
  9
$ORTHOMODE
 70
     1
  9
$REGENMODE
 70
     1
  9
$FILLMODE
 70
     1
  9
$QTEXTMODE
 70
     0
  9
$MIRRTEXT
 70
     1
  9
$LTSCALE
 40
1.0
  9
$ATTMODE
 70
     1
  9
$TEXTSIZE
 40
2.5
  9
$TRACEWID
 40
1.0
  9
$TEXTSTYLE
  7
MSｺﾞｼｯｸ
  9
$CLAYER
  8
0
  9
$CELTYPE
  6
BYLAYER
  9
$CECOLOR
 62
   256
  9
$CELTSCALE
 40
1.0
  9
$DISPSILH
 70
     0
  9
$DIMSCALE
 40
1.0
  9
$DIMASZ
 40
3.0
  9
$DIMEXO
 40
1.5
  9
$DIMDLI
 40
9.0
  9
$DIMRND
 40
0.0
  9
$DIMDLE
 40
0.0
  9
$DIMEXE
 40
1.5
  9
$DIMTP
 40
0.0
  9
$DIMTM
 40
0.0
  9
$DIMTXT
 40
3.0
  9
$DIMCEN
 40
0.0
  9
$DIMTSZ
 40
0.0
  9
$DIMTOL
 70
     0
  9
$DIMLIM
 70
     0
  9
$DIMTIH
 70
     0
  9
$DIMTOH
 70
     0
  9
$DIMSE1
 70
     0
  9
$DIMSE2
 70
     0
  9
$DIMTAD
 70
     3
  9
$DIMZIN
 70
     0
  9
$DIMBLK
  1
OPEN
  9
$DIMASO
 70
     1
  9
$DIMSHO
 70
     1
  9
$DIMPOST
  1

  9
$DIMAPOST
  1

  9
$DIMALT
 70
     0
  9
$DIMALTD
 70
     2
  9
$DIMALTF
 40
25.4
  9
$DIMLFAC
 40
1.0
  9
$DIMTOFL
 70
     0
  9
$DIMTVP
 40
0.0
  9
$DIMTIX
 70
     0
  9
$DIMSOXD
 70
     0
  9
$DIMSAH
 70
     0
  9
$DIMBLK1
  1

  9
$DIMBLK2
  1

  9
$DIMSTYLE
  2
STANDARD
  9
$DIMCLRD
 70
   256
  9
$DIMCLRE
 70
   256
  9
$DIMCLRT
 70
   256
  9
$DIMTFAC
 40
1.0
  9
$DIMGAP
 40
1.0
  9
$DIMJUST
 70
     0
  9
$DIMSD1
 70
     0
  9
$DIMSD2
 70
     0
  9
$DIMTOLJ
 70
     1
  9
$DIMTZIN
 70
     0
  9
$DIMALTZ
 70
     0
  9
$DIMALTTZ
 70
     0
  9
$DIMUPT
 70
     0
  9
$DIMDEC
 70
     0
  9
$DIMTDEC
 70
     0
  9
$DIMALTU
 70
     2
  9
$DIMALTTD
 70
     2
  9
$DIMTXSTY
  7
STANDARD
  9
$DIMAUNIT
 70
     0
  9
$DIMADEC
 70
     0
  9
$DIMALTRND
 40
0.0
  9
$DIMAZIN
 70
     0
  9
$DIMDSEP
 70
    46
  9
$DIMATFIT
 70
     3
  9
$DIMFRAC
 70
     0
  9
$DIMLDRBLK
  1
OPEN
  9
$DIMLUNIT
 70
     2
  9
$DIMLWD
 70
    -1
  9
$DIMLWE
 70
    -1
  9
$DIMTMOVE
 70
     0
  9
$LUNITS
 70
     2
  9
$LUPREC
 70
     4
  9
$SKETCHINC
 40
1.0
  9
$FILLETRAD
 40
10.0
  9
$AUNITS
 70
     0
  9
$AUPREC
 70
     0
  9
$MENU
  1
.
  9
$ELEVATION
 40
0.0
  9
$PELEVATION
 40
0.0
  9
$THICKNESS
 40
0.0
  9
$LIMCHECK
 70
     0
  9
$CHAMFERA
 40
0.0
  9
$CHAMFERB
 40
0.0
  9
$CHAMFERC
 40
20.0
  9
$CHAMFERD
 40
0.0
  9
$SKPOLY
 70
     0
  9
$TDCREATE
 40
2451204.541313194
  9
$TDUCREATE
 40
2451204.166313194
  9
$TDUPDATE
 40
2456203.596780787
  9
$TDUUPDATE
 40
2456203.221780787
  9
$TDINDWG
 40
0.0974942708
  9
$TDUSRTIMER
 40
0.0974942708
  9
$USRTIMER
 70
     1
  9
$ANGBASE
 50
0.0
  9
$ANGDIR
 70
     0
  9
$PDMODE
 70
     0
  9
$PDSIZE
 40
0.0
  9
$PLINEWID
 40
0.0
  9
$SPLFRAME
 70
     0
  9
$SPLINETYPE
 70
     6
  9
$SPLINESEGS
 70
     8
  9
$HANDSEED
  5
29DF
  9
$SURFTAB1
 70
     6
  9
$SURFTAB2
 70
     6
  9
$SURFTYPE
 70
     6
  9
$SURFU
 70
     6
  9
$SURFV
 70
     6
  9
$UCSBASE
  2

  9
$UCSNAME
  2

  9
$UCSORG
 10
0.0
 20
0.0
 30
0.0
  9
$UCSXDIR
 10
1.0
 20
0.0
 30
0.0
  9
$UCSYDIR
 10
0.0
 20
1.0
 30
0.0
  9
$UCSORTHOREF
  2

  9
$UCSORTHOVIEW
 70
     0
  9
$UCSORGTOP
 10
0.0
 20
0.0
 30
0.0
  9
$UCSORGBOTTOM
 10
0.0
 20
0.0
 30
0.0
  9
$UCSORGLEFT
 10
0.0
 20
0.0
 30
0.0
  9
$UCSORGRIGHT
 10
0.0
 20
0.0
 30
0.0
  9
$UCSORGFRONT
 10
0.0
 20
0.0
 30
0.0
  9
$UCSORGBACK
 10
0.0
 20
0.0
 30
0.0
  9
$PUCSBASE
  2

  9
$PUCSNAME
  2

  9
$PUCSORG
 10
0.0
 20
0.0
 30
0.0
  9
$PUCSXDIR
 10
1.0
 20
0.0
 30
0.0
  9
$PUCSYDIR
 10
0.0
 20
1.0
 30
0.0
  9
$PUCSORTHOREF
  2

  9
$PUCSORTHOVIEW
 70
     0
  9
$PUCSORGTOP
 10
0.0
 20
0.0
 30
0.0
  9
$PUCSORGBOTTOM
 10
0.0
 20
0.0
 30
0.0
  9
$PUCSORGLEFT
 10
0.0
 20
0.0
 30
0.0
  9
$PUCSORGRIGHT
 10
0.0
 20
0.0
 30
0.0
  9
$PUCSORGFRONT
 10
0.0
 20
0.0
 30
0.0
  9
$PUCSORGBACK
 10
0.0
 20
0.0
 30
0.0
  9
$USERI1
 70
     0
  9
$USERI2
 70
     0
  9
$USERI3
 70
     0
  9
$USERI4
 70
     0
  9
$USERI5
 70
     0
  9
$USERR1
 40
0.0
  9
$USERR2
 40
0.0
  9
$USERR3
 40
0.0
  9
$USERR4
 40
0.0
  9
$USERR5
 40
0.0
  9
$WORLDVIEW
 70
     1
  9
$SHADEDGE
 70
     3
  9
$SHADEDIF
 70
    70
  9
$TILEMODE
 70
     1
  9
$MAXACTVP
 70
    16
  9
$PINSBASE
 10
0.0
 20
0.0
 30
0.0
  9
$PLIMCHECK
 70
     0
  9
$PEXTMIN
 10
0.0
 20
0.0
 30
0.0
  9
$PEXTMAX
 10
420.0
 20
297.0
 30
0.0
  9
$PLIMMIN
 10
0.0
 20
0.0
  9
$PLIMMAX
 10
420.0
 20
297.0
  9
$UNITMODE
 70
     0
  9
$VISRETAIN
 70
     0
  9
$PLINEGEN
 70
     0
  9
$PSLTSCALE
 70
     1
  9
$TREEDEPTH
 70
  3020
  9
$CMLSTYLE
  2
STANDARD
  9
$CMLJUST
 70
     0
  9
$CMLSCALE
 40
1.0
  9
$PROXYGRAPHICS
 70
     1
  9
$MEASUREMENT
 70
     1
  9
$CELWEIGHT
370
    -1
  9
$ENDCAPS
280
     0
  9
$JOINSTYLE
280
     0
  9
$LWDISPLAY
290
     0
  9
$INSUNITS
 70
     0
  9
$HYPERLINKBASE
  1

  9
$STYLESHEET
  1
print.ctb
  9
$XEDIT
290
     1
  9
$CEPSNTYPE
380
     0
  9
$PSTYLEMODE
290
     1
  9
$FINGERPRINTGUID
  2
{9394C761-BB80-44D4-BF2A-30FF33226E18}
  9
$VERSIONGUID
  2
{51AFDB7E-EEC0-4741-854D-BDB49CFE693C}
  9
$EXTNAMES
290
     1
  9
$PSVPSCALE
 40
0.0
  9
$OLESTARTUP
290
     0
  0
ENDSEC
  0
SECTION
  2
CLASSES
  0
CLASS
  1
ACDBDICTIONARYWDFLT
  2
AcDbDictionaryWithDefault
  3
AutoCAD 2000
 90
        0
280
     0
281
     0
  0
CLASS
  1
ACDBPLACEHOLDER
  2
AcDbPlaceHolder
  3
AutoCAD 2000
 90
        0
280
     0
281
     0
  0
CLASS
  1
LAYOUT
  2
AcDbLayout
  3
AutoCAD 2000
 90
        0
280
     0
281
     0
  0
CLASS
  1
LONG_TRANSACTION
  2
AcDbLongTransaction
  3
AutoCAD 2000
 90
    32768
280
     0
281
     0
  0
CLASS
  1
LWPOLYLINE
  2
AcDbPolyline
  3
AutoCAD 2000
 90
    32768
280
     0
281
     1
  0
CLASS
  1
HATCH
  2
AcDbHatch
  3
AutoCAD 2000
 90
    32768
280
     0
281
     1
  0
CLASS
  1
XRECORD
  2
AcDbXrecord
  3
AutoCAD 2000
 90
    32768
280
     0
281
     0
  0
CLASS
  1
LONG_TRANSACTION
  2
AcDbLongTransaction
  3
AutoCAD 2000
 90
    32768
280
     0
281
     0
  0
CLASS
  1
LWPOLYLINE
  2
AcDbPolyline
  3
AutoCAD 2000
 90
    32768
280
     0
281
     1
  0
CLASS
  1
HATCH
  2
AcDbHatch
  3
AutoCAD 2000
 90
    32768
280
     0
281
     1
  0
CLASS
  1
XRECORD
  2
AcDbXrecord
  3
AutoCAD 2000
 90
    32768
280
     0
281
     0
  0
CLASS
  1
LONG_TRANSACTION
  2
AcDbLongTransaction
  3
AutoCAD 2000
 90
    32768
280
     0
281
     0
  0
CLASS
  1
LWPOLYLINE
  2
AcDbPolyline
  3
AutoCAD 2000
 90
    32768
280
     0
281
     1
  0
CLASS
  1
HATCH
  2
AcDbHatch
  3
AutoCAD 2000
 90
    32768
280
     0
281
     1
  0
CLASS
  1
XRECORD
  2
AcDbXrecord
  3
AutoCAD 2000
 90
    32768
280
     0
281
     0
  0
CLASS
  1
LONG_TRANSACTION
  2
AcDbLongTransaction
  3
AutoCAD 2000
 90
    32768
280
     0
281
     0
  0
CLASS
  1
LWPOLYLINE
  2
AcDbPolyline
  3
AutoCAD 2000
 90
    32768
280
     0
281
     1
  0
CLASS
  1
HATCH
  2
AcDbHatch
  3
AutoCAD 2000
 90
    32768
280
     0
281
     1
  0
CLASS
  1
XRECORD
  2
AcDbXrecord
  3
AutoCAD 2000
 90
    32768
280
     0
281
     0
  0
CLASS
  1
LONG_TRANSACTION
  2
AcDbLongTransaction
  3
AutoCAD 2000
 90
    32768
280
     0
281
     0
  0
CLASS
  1
LWPOLYLINE
  2
AcDbPolyline
  3
AutoCAD 2000
 90
    32768
280
     0
281
     1
  0
CLASS
  1
HATCH
  2
AcDbHatch
  3
AutoCAD 2000
 90
    32768
280
     0
281
     1
  0
CLASS
  1
XRECORD
  2
AcDbXrecord
  3
AutoCAD 2000
 90
    32768
280
     0
281
     0
  0
CLASS
  1
MATERIAL
  2
AcDbMaterial
  3
ObjectDBX Classes
 90
     1153
280
     0
281
     0
  0
CLASS
  1
VISUALSTYLE
  2
AcDbVisualStyle
  3
ObjectDBX Classes
 90
     4095
280
     0
281
     0
  0
CLASS
  1
TABLESTYLE
  2
AcDbTableStyle
  3
ObjectDBX Classes
 90
     4095
280
     0
281
     0
  0
CLASS
  1
SCALE
  2
AcDbScale
  3
ObjectDBX Classes
 90
     1153
280
     0
281
     0
  0
CLASS
  1
MLEADERSTYLE
  2
AcDbMLeaderStyle
  3
ACDB_MLEADERSTYLE_CLASS
 90
     4095
280
     0
281
     0
  0
CLASS
  1
SORTENTSTABLE
  2
AcDbSortentsTable
  3
AutoCAD 2000
 90
        0
280
     0
281
     0
  0
CLASS
  1
DICTIONARYVAR
  2
AcDbDictionaryVar
  3
AutoCAD 2000
 90
        0
280
     0
281
     0
  0
CLASS
  1
CELLSTYLEMAP
  2
AcDbCellStyleMap
  3
ObjectDBX Classes
 90
     1152
280
     0
281
     0
  0
CLASS
  1
ACAD_PROXY_OBJECT_WRAPPER
  2
AcDbProxyObjectWrapper
  3
AutoCAD 2000
 90
        0
280
     0
281
     0
  0
CLASS
  1
LONG_TRANSACTION
  2
AcDbLongTransaction
  3
AutoCAD 2000
 90
    32768
280
     0
281
     0
  0
CLASS
  1
LWPOLYLINE
  2
AcDbPolyline
  3
AutoCAD 2000
 90
    32768
280
     0
281
     1
  0
CLASS
  1
HATCH
  2
AcDbHatch
  3
AutoCAD 2000
 90
    32768
280
     0
281
     1
  0
CLASS
  1
XRECORD
  2
AcDbXrecord
  3
AutoCAD 2000
 90
    32768
280
     0
281
     0
  0
CLASS
  1
LONG_TRANSACTION
  2
AcDbLongTransaction
  3
AutoCAD 2000
 90
    32768
280
     0
281
     0
  0
CLASS
  1
LWPOLYLINE
  2
AcDbPolyline
  3
AutoCAD 2000
 90
    32768
280
     0
281
     1
  0
CLASS
  1
HATCH
  2
AcDbHatch
  3
AutoCAD 2000
 90
    32768
280
     0
281
     1
  0
CLASS
  1
XRECORD
  2
AcDbXrecord
  3
AutoCAD 2000
 90
    32768
280
     0
281
     0
  0
CLASS
  1
LONG_TRANSACTION
  2
AcDbLongTransaction
  3
AutoCAD 2000
 90
    32768
280
     0
281
     0
  0
CLASS
  1
LWPOLYLINE
  2
AcDbPolyline
  3
AutoCAD 2000
 90
    32768
280
     0
281
     1
  0
CLASS
  1
HATCH
  2
AcDbHatch
  3
AutoCAD 2000
 90
    32768
280
     0
281
     1
  0
CLASS
  1
XRECORD
  2
AcDbXrecord
  3
AutoCAD 2000
 90
    32768
280
     0
281
     0
  0
CLASS
  1
LONG_TRANSACTION
  2
AcDbLongTransaction
  3
AutoCAD 2000
 90
    32768
280
     0
281
     0
  0
CLASS
  1
LWPOLYLINE
  2
AcDbPolyline
  3
AutoCAD 2000
 90
    32768
280
     0
281
     1
  0
CLASS
  1
HATCH
  2
AcDbHatch
  3
AutoCAD 2000
 90
    32768
280
     0
281
     1
  0
CLASS
  1
XRECORD
  2
AcDbXrecord
  3
AutoCAD 2000
 90
    32768
280
     0
281
     0
  0
CLASS
  1
LONG_TRANSACTION
  2
AcDbLongTransaction
  3
AutoCAD 2000
 90
    32768
280
     0
281
     0
  0
CLASS
  1
LWPOLYLINE
  2
AcDbPolyline
  3
AutoCAD 2000
 90
    32768
280
     0
281
     1
  0
CLASS
  1
HATCH
  2
AcDbHatch
  3
AutoCAD 2000
 90
    32768
280
     0
281
     1
  0
CLASS
  1
XRECORD
  2
AcDbXrecord
  3
AutoCAD 2000
 90
    32768
280
     0
281
     0
  0
ENDSEC
  0
SECTION
  2
TABLES
  0
TABLE
  2
VPORT
  5
8
102
{ACAD_XDICTIONARY
360
25C2
102
}
330
0
100
AcDbSymbolTable
 70
     2
  0
VPORT
  5
29DE
330
8
100
AcDbSymbolTableRecord
100
AcDbViewportTableRecord
  2
*Active
 70
     0
 10
0.0
 20
0.0
 11
1.0
 21
1.0
 12
213.2288652666509
 22
148.488672078002
 13
0.0
 23
0.0
 14
5.0
 24
5.0
 15
0.0
 25
0.0
 16
0.0
 26
0.0
 36
1.0
 17
0.0
 27
0.0
 37
0.0
 40
299.29289270395
 41
1.557397959183673
 42
50.0
 43
0.0
 44
0.0
 50
0.0
 51
0.0
 71
     0
 72
   100
 73
     1
 74
     0
 75
     0
 76
     0
 77
     0
 78
     0
281
     0
 65
     1
110
0.0
120
0.0
130
0.0
111
1.0
121
0.0
131
0.0
112
0.0
122
1.0
132
0.0
 79
     0
146
0.0
  0
ENDTAB
  0
TABLE
  2
LTYPE
  5
5
330
0
100
AcDbSymbolTable
 70
     2
  0
LTYPE
  5
14
330
5
100
AcDbSymbolTableRecord
100
AcDbLinetypeTableRecord
  2
BYBLOCK
 70
     0
  3

 72
    65
 73
     0
 40
0.0
  0
LTYPE
  5
15
330
5
100
AcDbSymbolTableRecord
100
AcDbLinetypeTableRecord
  2
BYLAYER
 70
     0
  3

 72
    65
 73
     0
 40
0.0
  0
LTYPE
  5
16
330
5
100
AcDbSymbolTableRecord
100
AcDbLinetypeTableRecord
  2
CONTINUOUS
 70
     0
  3
Solid line
 72
    65
 73
     0
 40
0.0
  0
LTYPE
  5
120
330
5
100
AcDbSymbolTableRecord
100
AcDbLinetypeTableRecord
  2
CENTER
 70
     0
  3
____ _ ____ _ ____ _ ____ _ ____ _ ____ _ ____ 
 72
    65
 73
     4
 40
2.0
 49
1.25
 74
     0
 49
-0.25
 74
     0
 49
0.25
 74
     0
 49
-0.25
 74
     0
  0
ENDTAB
  0
TABLE
  2
LAYER
  5
2
102
{ACAD_XDICTIONARY
360
1195
102
}
330
0
100
AcDbSymbolTable
 70
     8
  0
LAYER
  5
F
102
{ACAD_XDICTIONARY
360
167C
102
}
330
2
100
AcDbSymbolTableRecord
100
AcDbLayerTableRecord
  2
0
 70
     0
 62
     7
  6
CONTINUOUS
370
    -3
390
414
  0
LAYER
  5
62
102
{ACAD_XDICTIONARY
360
167E
102
}
330
2
100
AcDbSymbolTableRecord
100
AcDbLayerTableRecord
  2
VIEWPORT
 70
     0
 62
     7
  6
CONTINUOUS
370
    -3
390
414
  0
LAYER
  5
6B
102
{ACAD_XDICTIONARY
360
1680
102
}
330
2
100
AcDbSymbolTableRecord
100
AcDbLayerTableRecord
  2
ZUWAKU
 70
     0
 62
     7
  6
CONTINUOUS
370
    -3
390
414
  0
LAYER
  5
13D
102
{ACAD_XDICTIONARY
360
1682
102
}
330
2
100
AcDbSymbolTableRecord
100
AcDbLayerTableRecord
  2
SEIHIN
 70
     0
 62
     3
  6
CONTINUOUS
370
    -3
390
414
  0
LAYER
  5
13E
102
{ACAD_XDICTIONARY
360
1684
102
}
330
2
100
AcDbSymbolTableRecord
100
AcDbLayerTableRecord
  2
SUNPOU
 70
     0
 62
     4
  6
CONTINUOUS
370
    -3
390
414
  0
LAYER
  5
13F
102
{ACAD_XDICTIONARY
360
1686
102
}
330
2
100
AcDbSymbolTableRecord
100
AcDbLayerTableRecord
  2
CENTER L
 70
     0
 62
     1
  6
CENTER
370
    -3
390
414
  0
LAYER
  5
140
330
2
100
AcDbSymbolTableRecord
100
AcDbLayerTableRecord
  2
DEFPOINTS
 70
     0
 62
     7
  6
CONTINUOUS
290
     0
370
    -3
390
414
  0
LAYER
  5
4BA
102
{ACAD_XDICTIONARY
360
1688
102
}
330
2
100
AcDbSymbolTableRecord
100
AcDbLayerTableRecord
  2
moji
 70
     0
 62
     2
  6
CONTINUOUS
370
    -3
390
414
  0
ENDTAB
  0
TABLE
  2
STYLE
  5
3
330
0
100
AcDbSymbolTable
 70
     2
  0
STYLE
  5
10
330
3
100
AcDbSymbolTableRecord
100
AcDbTextStyleTableRecord
  2
STANDARD
 70
     0
 40
0.0
 41
1.0
 50
0.0
 71
     0
 42
2.5
  3
TXT
  4
bigfont.shx
  0
STYLE
  5
4BB
330
3
100
AcDbSymbolTableRecord
100
AcDbTextStyleTableRecord
  2
MSｺﾞｼｯｸ
 70
     0
 40
0.0
 41
1.0
 50
0.0
 71
     0
 42
2.5
  3
MS Gothic.ttf
  4

1001
ACAD
1000
MS Gothic
1071
    32817
  0
ENDTAB
  0
TABLE
  2
VIEW
  5
6
330
0
100
AcDbSymbolTable
 70
     0
  0
ENDTAB
  0
TABLE
  2
UCS
  5
7
330
0
100
AcDbSymbolTable
 70
     0
  0
ENDTAB
  0
TABLE
  2
APPID
  5
9
330
0
100
AcDbSymbolTable
 70
     5
  0
APPID
  5
11
330
9
100
AcDbSymbolTableRecord
100
AcDbRegAppTableRecord
  2
ACAD
 70
     0
  0
APPID
  5
1194
330
9
100
AcDbSymbolTableRecord
100
AcDbRegAppTableRecord
  2
ACAD_PSEXT
 70
     0
  0
APPID
  5
1511
330
9
100
AcDbSymbolTableRecord
100
AcDbRegAppTableRecord
  2
ACAD_DSTYLE_DIMRADIAL_EXTENSION
 70
     0
  0
APPID
  5
1596
330
9
100
AcDbSymbolTableRecord
100
AcDbRegAppTableRecord
  2
ACAD_EXEMPT_FROM_CAD_STANDARDS
 70
     0
  0
APPID
  5
25FF
330
9
100
AcDbSymbolTableRecord
100
AcDbRegAppTableRecord
  2
ACAD_MLEADERVER
 70
     0
  0
ENDTAB
  0
TABLE
  2
DIMSTYLE
  5
A
330
0
100
AcDbSymbolTable
 70
     1
100
AcDbDimStyleTable
 71
     0
  0
DIMSTYLE
105
1D
102
{ACAD_REACTORS
330
2570
330
2536
330
258F
330
2707
330
24DF
330
2731
330
275D
330
2750
102
}
330
A
100
AcDbSymbolTableRecord
100
AcDbDimStyleTableRecord
  2
STANDARD
 70
     0
 41
3.0
 42
1.5
 43
9.0
 44
1.5
 73
     0
 74
     0
 77
     3
140
3.0
141
0.0
147
1.0
176
   256
177
   256
178
   256
271
     0
272
     0
340
10
341
B2
342
B2
371
    -1
372
    -1
  0
ENDTAB
  0
TABLE
  2
BLOCK_RECORD
  5
1
330
0
100
AcDbSymbolTable
 70
    10
  0
BLOCK_RECORD
  5
1A
102
{ACAD_XDICTIONARY
360
444
102
}
330
1
100
AcDbSymbolTableRecord
100
AcDbBlockTableRecord
  2
*MODEL_SPACE
340
417
  0
BLOCK_RECORD
  5
17
102
{ACAD_XDICTIONARY
360
442
102
}
330
1
100
AcDbSymbolTableRecord
100
AcDbBlockTableRecord
  2
*PAPER_SPACE
340
418
  0
BLOCK_RECORD
  5
B2
330
1
100
AcDbSymbolTableRecord
100
AcDbBlockTableRecord
  2
_OPEN
340
0
102
{BLKREFS
331
29CC
331
29CD
331
26C4
331
26C5
331
26DF
331
26E0
331
26B2
331
26B3
331
29D5
331
29D6
331
274A
331
274B
331
2788
331
2789
331
2791
331
2792
102
}
  0
BLOCK_RECORD
  5
9E0
330
1
100
AcDbSymbolTableRecord
100
AcDbBlockTableRecord
  2
*X1
340
0
102
{BLKREFS
331
585
102
}
  0
BLOCK_RECORD
  5
24E2
330
1
100
AcDbSymbolTableRecord
100
AcDbBlockTableRecord
  2
*D2
340
0
  0
BLOCK_RECORD
  5
2537
330
1
100
AcDbSymbolTableRecord
100
AcDbBlockTableRecord
  2
*D3
340
0
  0
BLOCK_RECORD
  5
2571
330
1
100
AcDbSymbolTableRecord
100
AcDbBlockTableRecord
  2
*D4
340
0
  0
BLOCK_RECORD
  5
2590
330
1
100
AcDbSymbolTableRecord
100
AcDbBlockTableRecord
  2
*D5
340
0
  0
BLOCK_RECORD
  5
2708
330
1
100
AcDbSymbolTableRecord
100
AcDbBlockTableRecord
  2
*D6
340
0
  0
BLOCK_RECORD
  5
2732
330
1
100
AcDbSymbolTableRecord
100
AcDbBlockTableRecord
  2
*D7
340
0
  0
BLOCK_RECORD
  5
2751
330
1
100
AcDbSymbolTableRecord
100
AcDbBlockTableRecord
  2
*D8
340
0
  0
BLOCK_RECORD
  5
275E
330
1
100
AcDbSymbolTableRecord
100
AcDbBlockTableRecord
  2
*D9
340
0
  0
ENDTAB
  0
ENDSEC
  0
SECTION
  2
BLOCKS
  0
BLOCK
  5
1B
330
1A
100
AcDbEntity
  8
0
100
AcDbBlockBegin
  2
*MODEL_SPACE
 70
     0
 10
0.0
 20
0.0
 30
0.0
  3
*MODEL_SPACE
  1

  0
ENDBLK
  5
1C
330
1A
100
AcDbEntity
  8
0
100
AcDbBlockEnd
  0
BLOCK
  5
18
330
17
100
AcDbEntity
 67
     1
  8
0
100
AcDbBlockBegin
  2
*PAPER_SPACE
 70
     0
 10
0.0
 20
0.0
 30
0.0
  3
*PAPER_SPACE
  1

  0
ENDBLK
  5
19
330
17
100
AcDbEntity
 67
     1
  8
0
100
AcDbBlockEnd
  0
BLOCK
  5
B3
330
B2
100
AcDbEntity
  8
0
100
AcDbBlockBegin
  2
_OPEN
 70
     0
 10
0.0
 20
0.0
 30
0.0
  3
_OPEN
  1

  0
LINE
  5
B4
330
B2
100
AcDbEntity
  8
0
  6
ByBlock
 62
     0
100
AcDbLine
 10
-1.0
 20
0.1666666666666666
 30
0.0
 11
0.0
 21
0.0
 31
0.0
  0
LINE
  5
B5
330
B2
100
AcDbEntity
  8
0
  6
ByBlock
 62
     0
100
AcDbLine
 10
0.0
 20
0.0
 30
0.0
 11
-1.0
 21
-0.1666666666666666
 31
0.0
  0
LINE
  5
B6
330
B2
100
AcDbEntity
  8
0
  6
ByBlock
 62
     0
100
AcDbLine
 10
0.0
 20
0.0
 30
0.0
 11
-1.0
 21
0.0
 31
0.0
  0
ENDBLK
  5
B7
330
B2
100
AcDbEntity
  8
0
100
AcDbBlockEnd
  0
BLOCK
  5
B74
330
9E0
100
AcDbEntity
  8
0
100
AcDbBlockBegin
  2
*X1
 70
     1
 10
0.0
 20
0.0
 30
0.0
  3
*X1
  1

  0
LINE
  5
9E1
330
9E0
100
AcDbEntity
  8
0
 62
     0
100
AcDbLine
 10
34.5211058208776
 20
11.30208487459222
 30
0.0
 11
34.19819035602015
 21
11.62500033944971
 31
0.0
  0
LINE
  5
9E2
330
9E0
100
AcDbEntity
  8
0
 62
     0
100
AcDbLine
 10
34.5211058208776
 20
10.85307206853878
 30
0.0
 11
33.74917754996667
 21
11.62500033944971
 31
0.0
  0
LINE
  5
9E3
330
9E0
100
AcDbEntity
  8
0
 62
     0
100
AcDbLine
 10
34.52110582087758
 20
10.4040592624853
 30
0.0
 11
33.3105388478701
 21
11.61462623549277
 31
0.0
  0
LINE
  5
9E4
330
9E0
100
AcDbEntity
  8
0
 62
     0
100
AcDbLine
 10
34.5211058208776
 20
9.955046456431887
 30
0.0
 11
33.12110582087757
 21
11.35504645643189
 31
0.0
  0
LINE
  5
9E5
330
9E0
100
AcDbEntity
  8
0
 62
     0
100
AcDbLine
 10
34.5211058208776
 20
9.506033650378412
 30
0.0
 11
33.12110582087757
 21
10.90603365037844
 31
0.0
  0
LINE
  5
9E6
330
9E0
100
AcDbEntity
  8
0
 62
     0
100
AcDbLine
 10
34.52110582087758
 20
9.057020844324938
 30
0.0
 11
33.12110582087754
 21
10.45702084432497
 31
0.0
  0
LINE
  5
9E7
330
9E0
100
AcDbEntity
  8
0
 62
     0
100
AcDbLine
 10
32.07110582087756
 20
11.05800803827153
 30
0.0
 11
31.50411351969941
 21
11.62500033944971
 31
0.0
  0
LINE
  5
9E8
330
9E0
100
AcDbEntity
  8
0
 62
     0
100
AcDbLine
 10
34.5211058208776
 20
8.60800803827152
 30
0.0
 11
33.12110582087757
 21
10.00800803827155
 31
0.0
  0
LINE
  5
9E9
330
9E0
100
AcDbEntity
  8
0
 62
     0
100
AcDbLine
 10
32.07110582087756
 20
10.60899523221809
 30
0.0
 11
31.05510071364594
 21
11.62500033944968
 31
0.0
  0
LINE
  5
9EA
330
9E0
100
AcDbEntity
  8
0
 62
     0
100
AcDbLine
 10
34.52110582087758
 20
8.158995232218046
 30
0.0
 11
33.12110582087757
 21
9.55899523221808
 31
0.0
  0
LINE
  5
9EB
330
9E0
100
AcDbEntity
  8
0
 62
     0
100
AcDbLine
 10
32.07110582087756
 20
10.15998242616461
 30
0.0
 11
30.71835033830902
 21
11.51273790873315
 31
0.0
  0
LINE
  5
9EC
330
9E0
100
AcDbEntity
  8
0
 62
     0
100
AcDbLine
 10
34.52110582087758
 20
7.7099824261646
 30
0.0
 11
33.12110582087754
 21
9.109982426164606
 31
0.0
  0
LINE
  5
9ED
330
9E0
100
AcDbEntity
  8
0
 62
     0
100
AcDbLine
 10
32.07110582087762
 20
9.710969620111114
 30
0.0
 11
30.67110582087753
 21
11.11096962011117
 31
0.0
  0
LINE
  5
9EE
330
9E0
100
AcDbEntity
  8
0
 62
     0
100
AcDbLine
 10
34.5211058208776
 20
7.260969620111126
 30
0.0
 11
33.12110582087757
 21
8.66096962011116
 31
0.0
  0
LINE
  5
9EF
330
9E0
100
AcDbEntity
  8
0
 62
     0
100
AcDbLine
 10
32.07110582087759
 20
9.261956814057668
 30
0.0
 11
30.67110582087753
 21
10.66195681405776
 31
0.0
  0
LINE
  5
9F0
330
9E0
100
AcDbEntity
  8
0
 62
     0
100
AcDbLine
 10
34.52110582087758
 20
6.81195681405768
 30
0.0
 11
33.12110582087754
 21
8.211956814057714
 31
0.0
  0
LINE
  5
9F1
330
9E0
100
AcDbEntity
  8
0
 62
     0
100
AcDbLine
 10
32.07110582087759
 20
8.812944008004222
 30
0.0
 11
30.67110582087753
 21
10.21294400800428
 31
0.0
  0
LINE
  5
9F2
330
9E0
100
AcDbEntity
  8
0
 62
     0
100
AcDbLine
 10
34.52110582087758
 20
6.362944008004234
 30
0.0
 11
33.12110582087754
 21
7.762944008004268
 31
0.0
  0
LINE
  5
9F3
330
9E0
100
AcDbEntity
  8
0
 62
     0
100
AcDbLine
 10
32.07110582087756
 20
8.363931201950748
 30
0.0
 11
30.6711058208775
 21
9.763931201950811
 31
0.0
  0
LINE
  5
9F4
330
9E0
100
AcDbEntity
  8
0
 62
     0
100
AcDbLine
 10
34.52110582087755
 20
5.913931201950759
 30
0.0
 11
33.12110582087754
 21
7.313931201950794
 31
0.0
  0
LINE
  5
9F5
330
9E0
100
AcDbEntity
  8
0
 62
     0
100
AcDbLine
 10
32.07110582087759
 20
7.914918395897331
 30
0.0
 11
30.67110582087753
 21
9.314918395897393
 31
0.0
  0
LINE
  5
9F6
330
9E0
100
AcDbEntity
  8
0
 62
     0
100
AcDbLine
 10
28.92110582087756
 20
11.06491839589736
 30
0.0
 11
28.36102387732523
 21
11.62500033944968
 31
0.0
  0
LINE
  5
9F7
330
9E0
100
AcDbEntity
  8
0
 62
     0
100
AcDbLine
 10
34.52110582087758
 20
5.464918395897342
 30
0.0
 11
33.12110582087754
 21
6.864918395897348
 31
0.0
  0
LINE
  5
9F8
330
9E0
100
AcDbEntity
  8
0
 62
     0
100
AcDbLine
 10
32.07110582087759
 20
7.465905589843856
 30
0.0
 11
30.6711058208775
 21
8.865905589843919
 31
0.0
  0
LINE
  5
9F9
330
9E0
100
AcDbEntity
  8
0
 62
     0
100
AcDbLine
 10
28.92110582087752
 20
10.61590558984389
 30
0.0
 11
27.91201107127176
 21
11.62500033944968
 31
0.0
  0
LINE
  5
9FA
330
9E0
100
AcDbEntity
  8
0
 62
     0
100
AcDbLine
 10
34.52110582087758
 20
5.015905589843868
 30
0.0
 11
33.12110582087754
 21
6.415905589843902
 31
0.0
  0
LINE
  5
9FB
330
9E0
100
AcDbEntity
  8
0
 62
     0
100
AcDbLine
 10
32.07110582087756
 20
7.01689278379041
 30
0.0
 11
30.67110582087753
 21
8.416892783790416
 31
0.0
  0
LINE
  5
9FC
330
9E0
100
AcDbEntity
  8
0
 62
     0
100
AcDbLine
 10
28.92110582087752
 20
10.16689278379044
 30
0.0
 11
27.57122445921552
 21
11.51677414545244
 31
0.0
  0
LINE
  5
9FD
330
9E0
100
AcDbEntity
  8
0
 62
     0
100
AcDbLine
 10
34.52110582087755
 20
4.566892783790422
 30
0.0
 11
33.12110582087751
 21
5.966892783790427
 31
0.0
  0
LINE
  5
9FE
330
9E0
100
AcDbEntity
  8
0
 62
     0
100
AcDbLine
 10
32.07110582087759
 20
6.567879977736936
 30
0.0
 11
30.67110582087755
 21
7.96787997773697
 31
0.0
  0
LINE
  5
9FF
330
9E0
100
AcDbEntity
  8
0
 62
     0
100
AcDbLine
 10
28.92110582087756
 20
9.71787997773697
 30
0.0
 11
27.52110582087755
 21
11.11787997773697
 31
0.0
  0
LINE
  5
A00
330
9E0
100
AcDbEntity
  8
0
 62
     0
100
AcDbLine
 10
34.52110582087758
 20
4.117879977736947
 30
0.0
 11
33.12110582087754
 21
5.517879977736981
 31
0.0
  0
LINE
  5
A01
330
9E0
100
AcDbEntity
  8
0
 62
     0
100
AcDbLine
 10
32.07110582087756
 20
6.11886717168349
 30
0.0
 11
30.67110582087755
 21
7.518867171683524
 31
0.0
  0
LINE
  5
A02
330
9E0
100
AcDbEntity
  8
0
 62
     0
100
AcDbLine
 10
28.92110582087758
 20
9.268867171683496
 30
0.0
 11
27.52110582087755
 21
10.66886717168353
 31
0.0
  0
LINE
  5
A03
330
9E0
100
AcDbEntity
  8
0
 62
     0
100
AcDbLine
 10
34.48512314343267
 20
3.704849849128407
 30
0.0
 11
33.12110582087754
 21
5.068867171683535
 31
0.0
  0
LINE
  5
A04
330
9E0
100
AcDbEntity
  8
0
 62
     0
100
AcDbLine
 10
32.07110582087759
 20
5.669854365629987
 30
0.0
 11
30.67110582087753
 21
7.06985436563005
 31
0.0
  0
LINE
  5
A05
330
9E0
100
AcDbEntity
  8
0
 62
     0
100
AcDbLine
 10
28.92110582087756
 20
8.81985436563005
 30
0.0
 11
27.52110582087752
 21
10.21985436563005
 31
0.0
  0
LINE
  5
A06
330
9E0
100
AcDbEntity
  8
0
 62
     0
100
AcDbLine
 10
34.16595984705793
 20
3.575000339449672
 30
0.0
 11
33.12110582087751
 21
4.619854365630089
 31
0.0
  0
LINE
  5
A07
330
9E0
100
AcDbEntity
  8
0
 62
     0
100
AcDbLine
 10
28.92110582087756
 20
8.370841559576575
 30
0.0
 11
27.52110582087752
 21
9.770841559576609
 31
0.0
  0
LINE
  5
A08
330
9E0
100
AcDbEntity
  8
0
 62
     0
100
AcDbLine
 10
32.07110582087759
 20
5.220841559576541
 30
0.0
 11
30.67110582087753
 21
6.620841559576604
 31
0.0
  0
LINE
  5
A09
330
9E0
100
AcDbEntity
  8
0
 62
     0
100
AcDbLine
 10
26.20860582087755
 20
11.08334155957658
 30
0.0
 11
25.66694704100447
 21
11.62500033944962
 31
0.0
  0
LINE
  5
A0A
330
9E0
100
AcDbEntity
  8
0
 62
     0
100
AcDbLine
 10
33.71694704100448
 20
3.575000339449616
 30
0.0
 11
33.12110582087751
 21
4.170841559576615
 31
0.0
  0
LINE
  5
A0B
330
9E0
100
AcDbEntity
  8
0
 62
     0
100
AcDbLine
 10
28.92110582087756
 20
7.921828753523129
 30
0.0
 11
27.52110582087758
 21
9.321828753523135
 31
0.0
  0
LINE
  5
A0C
330
9E0
100
AcDbEntity
  8
0
 62
     0
100
AcDbLine
 10
26.20860582087755
 20
10.63432875352313
 30
0.0
 11
25.21793423495106
 21
11.62500033944965
 31
0.0
  0
LINE
  5
A0D
330
9E0
100
AcDbEntity
  8
0
 62
     0
100
AcDbLine
 10
32.0581266705548
 20
4.784807903845916
 30
0.0
 11
30.67110582087753
 21
6.171828753523158
 31
0.0
  0
LINE
  5
A0E
330
9E0
100
AcDbEntity
  8
0
 62
     0
100
AcDbLine
 10
28.92110582087756
 20
7.472815947469683
 30
0.0
 11
27.52110582087758
 21
8.872815947469661
 31
0.0
  0
LINE
  5
A0F
330
9E0
100
AcDbEntity
  8
0
 62
     0
100
AcDbLine
 10
26.11081554782063
 20
10.2831062205266
 30
0.0
 11
24.76892142889755
 21
11.62500033944968
 31
0.0
  0
LINE
  5
A10
330
9E0
100
AcDbEntity
  8
0
 62
     0
100
AcDbLine
 10
31.96163402292617
 20
4.432287745421035
 30
0.0
 11
30.67110582087753
 21
5.722815947469712
 31
0.0
  0
LINE
  5
A11
330
9E0
100
AcDbEntity
  8
0
 62
     0
100
AcDbLine
 10
28.92110582087756
 20
7.023803141416209
 30
0.0
 11
27.52110582087755
 21
8.423803141416215
 31
0.0
  0
LINE
  5
A12
330
9E0
100
AcDbEntity
  8
0
 62
     0
100
AcDbLine
 10
25.71990862284406
 20
10.22500033944967
 30
0.0
 11
24.31990862284411
 21
11.62500033944962
 31
0.0
  0
LINE
  5
A13
330
9E0
100
AcDbEntity
  8
0
 62
     0
100
AcDbLine
 10
31.79911808496439
 20
4.145790877329346
 30
0.0
 11
30.63534795129777
 21
5.309561010995992
 31
0.0
  0
LINE
  5
A14
330
9E0
100
AcDbEntity
  8
0
 62
     0
100
AcDbLine
 10
28.92110582087756
 20
6.574790335362791
 30
0.0
 11
27.52110582087758
 21
7.974790335362769
 31
0.0
  0
LINE
  5
A15
330
9E0
100
AcDbEntity
  8
0
 62
     0
100
AcDbLine
 10
25.27089581679064
 20
10.2250003394497
 30
0.0
 11
23.90211245220194
 21
11.5937837040384
 31
0.0
  0
LINE
  5
A16
330
9E0
100
AcDbEntity
  8
0
 62
     0
100
AcDbLine
 10
31.58309718630187
 20
3.912798969938449
 30
0.0
 11
30.43455513206402
 21
5.0613410241763
 31
0.0
  0
LINE
  5
A17
330
9E0
100
AcDbEntity
  8
0
 62
     0
100
AcDbLine
 10
28.92110582087756
 20
6.125777529309317
 30
0.0
 11
27.52110582087755
 21
7.525777529309294
 31
0.0
  0
LINE
  5
A18
330
9E0
100
AcDbEntity
  8
0
 62
     0
100
AcDbLine
 10
24.82188301073716
 20
10.2250003394497
 30
0.0
 11
23.56979223993525
 21
11.47709111025159
 31
0.0
  0
LINE
  5
A19
330
9E0
100
AcDbEntity
  8
0
 62
     0
100
AcDbLine
 10
31.31501601383885
 20
3.731867336348017
 30
0.0
 11
30.07188301073716
 21
4.975000339449678
 31
0.0
  0
LINE
  5
A1A
330
9E0
100
AcDbEntity
  8
0
 62
     0
100
AcDbLine
 10
28.92110582087752
 20
5.676764723255843
 30
0.0
 11
27.52110582087755
 21
7.076764723255848
 31
0.0
  0
LINE
  5
A1B
330
9E0
100
AcDbEntity
  8
0
 62
     0
100
AcDbLine
 10
24.38376511869276
 20
10.2141054254406
 30
0.0
 11
23.29849177133016
 21
11.29937877280321
 31
0.0
  0
LINE
  5
A1C
330
9E0
100
AcDbEntity
  8
0
 62
     0
100
AcDbLine
 10
30.9868097338832
 20
3.611060810250194
 30
0.0
 11
29.62287020468372
 21
4.975000339449678
 31
0.0
  0
LINE
  5
A1D
330
9E0
100
AcDbEntity
  8
0
 62
     0
100
AcDbLine
 10
24.19610582087759
 20
9.952751917202306
 30
0.0
 11
23.07943574180788
 21
11.06942199627201
 31
0.0
  0
LINE
  5
A1E
330
9E0
100
AcDbEntity
  8
0
 62
     0
100
AcDbLine
 10
30.57385739863028
 20
3.575000339449644
 30
0.0
 11
27.52110582087755
 21
6.627751917202374
 31
0.0
  0
LINE
  5
A1F
330
9E0
100
AcDbEntity
  8
0
 62
     0
100
AcDbLine
 10
24.19610582087762
 20
9.503739111148888
 30
0.0
 11
22.91355028563137
 21
10.78629464639513
 31
0.0
  0
LINE
  5
A20
330
9E0
100
AcDbEntity
  8
0
 62
     0
100
AcDbLine
 10
30.12484459257683
 20
3.575000339449644
 30
0.0
 11
27.52110582087755
 21
6.178739111148956
 31
0.0
  0
LINE
  5
A21
330
9E0
100
AcDbEntity
  8
0
 62
     0
100
AcDbLine
 10
24.29937796142948
 20
8.951454164543548
 30
0.0
 11
22.81246102594931
 21
10.43837110002368
 31
0.0
  0
LINE
  5
A22
330
9E0
100
AcDbEntity
  8
0
 62
     0
100
AcDbLine
 10
29.67583178652338
 20
3.575000339449644
 30
0.0
 11
27.52110582087755
 21
5.729726305095482
 31
0.0
  0
LINE
  5
A23
330
9E0
100
AcDbEntity
  8
0
 62
     0
100
AcDbLine
 10
26.40790767222324
 20
6.393911647696313
 30
0.0
 11
22.79610582087755
 21
10.00571349904197
 31
0.0
  0
LINE
  5
A24
330
9E0
100
AcDbEntity
  8
0
 62
     0
100
AcDbLine
 10
21.74610582087751
 20
11.05571349904201
 30
0.0
 11
21.17681898046987
 21
11.62500033944968
 31
0.0
  0
LINE
  5
A25
330
9E0
100
AcDbEntity
  8
0
 62
     0
100
AcDbLine
 10
29.22681898046991
 20
3.575000339449644
 30
0.0
 11
27.52110582087752
 21
5.280713499042008
 31
0.0
  0
LINE
  5
A26
330
9E0
100
AcDbEntity
  8
0
 62
     0
100
AcDbLine
 10
26.47110582087759
 20
5.881700692988545
 30
0.0
 11
22.79610582087758
 21
9.556700692988556
 31
0.0
  0
LINE
  5
A27
330
9E0
100
AcDbEntity
  8
0
 62
     0
100
AcDbLine
 10
21.74610582087757
 20
10.60670069298853
 30
0.0
 11
20.7278061744164
 21
11.62500033944974
 31
0.0
  0
LINE
  5
A28
330
9E0
100
AcDbEntity
  8
0
 62
     0
100
AcDbLine
 10
28.76958223504402
 20
3.583224278822115
 30
0.0
 11
27.52932976025002
 21
4.82347675361612
 31
0.0
  0
LINE
  5
A29
330
9E0
100
AcDbEntity
  8
0
 62
     0
100
AcDbLine
 10
21.74610582087757
 20
10.15768788693509
 30
0.0
 11
20.39241087698991
 21
11.51138283082272
 31
0.0
  0
LINE
  5
A2A
330
9E0
100
AcDbEntity
  8
0
 62
     0
100
AcDbLine
 10
26.47110582087757
 20
5.43268788693507
 30
0.0
 11
22.80781115481875
 21
9.095982552993916
 31
0.0
  0
LINE
  5
A2B
330
9E0
100
AcDbEntity
  8
0
 62
     0
100
AcDbLine
 10
21.74610582087757
 20
9.708675080881619
 30
0.0
 11
20.34610582087756
 21
11.10867508088159
 31
0.0
  0
LINE
  5
A2C
330
9E0
100
AcDbEntity
  8
0
 62
     0
100
AcDbLine
 10
26.47110582087751
 20
4.983675080881653
 30
0.0
 11
22.96687086373876
 21
8.48791003802043
 31
0.0
  0
LINE
  5
A2D
330
9E0
100
AcDbEntity
  8
0
 62
     0
100
AcDbLine
 10
21.74610582087757
 20
9.259662274828173
 30
0.0
 11
20.34610582087759
 21
10.65966227482814
 31
0.0
  0
LINE
  5
A2E
330
9E0
100
AcDbEntity
  8
0
 62
     0
100
AcDbLine
 10
26.41682491208303
 20
4.588943183622717
 30
0.0
 11
25.06900751756387
 21
5.936760578141871
 31
0.0
  0
LINE
  5
A2F
330
9E0
100
AcDbEntity
  8
0
 62
     0
100
AcDbLine
 10
21.74610582087757
 20
8.810649468774727
 30
0.0
 11
20.34610582087756
 21
10.2106494687747
 31
0.0
  0
LINE
  5
A30
330
9E0
100
AcDbEntity
  8
0
 62
     0
100
AcDbLine
 10
19.20036237058906
 20
11.35639291906321
 30
0.0
 11
18.93175495020261
 21
11.62500033944968
 31
0.0
  0
LINE
  5
A31
330
9E0
100
AcDbEntity
  8
0
 62
     0
100
AcDbLine
 10
26.28288705820224
 20
4.273868231450052
 30
0.0
 11
25.07110582087759
 21
5.48564946877471
 31
0.0
  0
LINE
  5
A32
330
9E0
100
AcDbEntity
  8
0
 62
     0
100
AcDbLine
 10
21.74610582087754
 20
8.361636662721252
 30
0.0
 11
20.34610582087756
 21
9.761636662721258
 31
0.0
  0
LINE
  5
A33
330
9E0
100
AcDbEntity
  8
0
 62
     0
100
AcDbLine
 10
19.10089853846275
 20
11.00684394513604
 30
0.0
 11
18.48274214414914
 21
11.62500033944968
 31
0.0
  0
LINE
  5
A34
330
9E0
100
AcDbEntity
  8
0
 62
     0
100
AcDbLine
 10
26.0913936591146
 20
4.016348824484225
 30
0.0
 11
25.02246322943435
 21
5.085279254164476
 31
0.0
  0
LINE
  5
A35
330
9E0
100
AcDbEntity
  8
0
 62
     0
100
AcDbLine
 10
21.74610582087754
 20
7.912623856667806
 30
0.0
 11
20.34610582087756
 21
9.312623856667784
 31
0.0
  0
LINE
  5
A36
330
9E0
100
AcDbEntity
  8
0
 62
     0
100
AcDbLine
 10
18.99313546500991
 20
10.6655942125354
 30
0.0
 11
18.03852768327462
 21
11.62020199427072
 31
0.0
  0
LINE
  5
A37
330
9E0
100
AcDbEntity
  8
0
 62
     0
100
AcDbLine
 10
25.84823417655679
 20
3.810495500988537
 30
0.0
 11
24.68372933809567
 21
4.975000339449678
 31
0.0
  0
LINE
  5
A38
330
9E0
100
AcDbEntity
  8
0
 62
     0
100
AcDbLine
 10
21.74610582087757
 20
7.46361105061436
 30
0.0
 11
20.34610582087756
 21
8.863611050614338
 31
0.0
  0
LINE
  5
A39
330
9E0
100
AcDbEntity
  8
0
 62
     0
100
AcDbLine
 10
18.88537239155715
 20
10.32434447993477
 30
0.0
 11
17.82137239155713
 21
11.3883444799348
 31
0.0
  0
LINE
  5
A3A
330
9E0
100
AcDbEntity
  8
0
 62
     0
100
AcDbLine
 10
25.5501922023266
 20
3.659524669165307
 30
0.0
 11
24.23471653204222
 21
4.975000339449707
 31
0.0
  0
LINE
  5
A3B
330
9E0
100
AcDbEntity
  8
0
 62
     0
100
AcDbLine
 10
21.74610582087754
 20
7.014598244560914
 30
0.0
 11
20.34610582087756
 21
8.414598244560892
 31
0.0
  0
LINE
  5
A3C
330
9E0
100
AcDbEntity
  8
0
 62
     0
100
AcDbLine
 10
18.77760931810422
 20
9.983094747334234
 30
0.0
 11
17.71360931810423
 21
11.04709474733422
 31
0.0
  0
LINE
  5
A3D
330
9E0
100
AcDbEntity
  8
0
 62
     0
100
AcDbLine
 10
25.18135587650286
 20
3.579348188935597
 30
0.0
 11
23.78570372598878
 21
4.975000339449678
 31
0.0
  0
LINE
  5
A3E
330
9E0
100
AcDbEntity
  8
0
 62
     0
100
AcDbLine
 10
21.74610582087754
 20
6.56558543850744
 30
0.0
 11
20.34610582087754
 21
7.965585438507417
 31
0.0
  0
LINE
  5
A3F
330
9E0
100
AcDbEntity
  8
0
 62
     0
100
AcDbLine
 10
18.66984624465144
 20
9.641845014733547
 30
0.0
 11
17.60584624465138
 21
10.70584501473357
 31
0.0
  0
LINE
  5
A40
330
9E0
100
AcDbEntity
  8
0
 62
     0
100
AcDbLine
 10
24.73669091993534
 20
3.575000339449644
 30
0.0
 11
23.33669091993531
 21
4.975000339449678
 31
0.0
  0
LINE
  5
A41
330
9E0
100
AcDbEntity
  8
0
 62
     0
100
AcDbLine
 10
21.74610582087754
 20
6.116572632453994
 30
0.0
 11
20.34610582087756
 21
7.516572632454
 31
0.0
  0
LINE
  5
A42
330
9E0
100
AcDbEntity
  8
0
 62
     0
100
AcDbLine
 10
18.56208317119862
 20
9.300595282132945
 30
0.0
 11
17.49808317119857
 21
10.36459528213296
 31
0.0
  0
LINE
  5
A43
330
9E0
100
AcDbEntity
  8
0
 62
     0
100
AcDbLine
 10
24.28767811388189
 20
3.575000339449672
 30
0.0
 11
23.0708722652337
 21
4.791806188097865
 31
0.0
  0
LINE
  5
A44
330
9E0
100
AcDbEntity
  8
0
 62
     0
100
AcDbLine
 10
18.4543200977458
 20
8.959345549532258
 30
0.0
 11
17.39032009774575
 21
10.02334554953233
 31
0.0
  0
LINE
  5
A45
330
9E0
100
AcDbEntity
  8
0
 62
     0
100
AcDbLine
 10
21.74610582087754
 20
5.667559826400548
 30
0.0
 11
20.34610582087756
 21
7.067559826400525
 31
0.0
  0
LINE
  5
A46
330
9E0
100
AcDbEntity
  8
0
 62
     0
100
AcDbLine
 10
16.32110582087756
 20
11.09255982640053
 30
0.0
 11
15.78866530782841
 21
11.62500033944965
 31
0.0
  0
LINE
  5
A47
330
9E0
100
AcDbEntity
  8
0
 62
     0
100
AcDbLine
 10
23.83866530782845
 20
3.575000339449644
 30
0.0
 11
23.05860582087757
 21
4.35505982640052
 31
0.0
  0
LINE
  5
A48
330
9E0
100
AcDbEntity
  8
0
 62
     0
100
AcDbLine
 10
18.3465570242929
 20
8.618095816931713
 30
0.0
 11
17.28255702429294
 21
9.682095816931678
 31
0.0
  0
LINE
  5
A49
330
9E0
100
AcDbEntity
  8
0
 62
     0
100
AcDbLine
 10
21.74610582087754
 20
5.218547020347074
 30
0.0
 11
20.34610582087754
 21
6.618547020347079
 31
0.0
  0
LINE
  5
A4A
330
9E0
100
AcDbEntity
  8
0
 62
     0
100
AcDbLine
 10
16.32110582087756
 20
10.64354702034705
 30
0.0
 11
15.33965250177496
 21
11.62500033944965
 31
0.0
  0
LINE
  5
A4B
330
9E0
100
AcDbEntity
  8
0
 62
     0
100
AcDbLine
 10
23.38965250177494
 20
3.575000339449672
 30
0.0
 11
23.05860582087754
 21
3.906047020347045
 31
0.0
  0
LINE
  5
A4C
330
9E0
100
AcDbEntity
  8
0
 62
     0
100
AcDbLine
 10
18.23879395084009
 20
8.276846084331054
 30
0.0
 11
17.17479395084007
 21
9.340846084331076
 31
0.0
  0
LINE
  5
A4D
330
9E0
100
AcDbEntity
  8
0
 62
     0
100
AcDbLine
 10
16.32110582087753
 20
10.19453421429358
 30
0.0
 11
14.98338335642873
 21
11.53225667874241
 31
0.0
  0
LINE
  5
A4E
330
9E0
100
AcDbEntity
  8
0
 62
     0
100
AcDbLine
 10
21.74610582087751
 20
4.769534214293628
 30
0.0
 11
20.34610582087754
 21
6.169534214293605
 31
0.0
  0
LINE
  5
A4F
330
9E0
100
AcDbEntity
  8
0
 62
     0
100
AcDbLine
 10
18.13103087738727
 20
7.935596351730453
 30
0.0
 11
17.06703087738728
 21
8.999596351730446
 31
0.0
  0
LINE
  5
A50
330
9E0
100
AcDbEntity
  8
0
 62
     0
100
AcDbLine
 10
16.32110582087756
 20
9.745521408240165
 30
0.0
 11
14.92110582087752
 21
11.14552140824017
 31
0.0
  0
LINE
  5
A51
330
9E0
100
AcDbEntity
  8
0
 62
     0
100
AcDbLine
 10
21.74610582087754
 20
4.320521408240182
 30
0.0
 11
20.34610582087754
 21
5.720521408240159
 31
0.0
  0
LINE
  5
A52
330
9E0
100
AcDbEntity
  8
0
 62
     0
100
AcDbLine
 10
18.02848662269124
 20
7.589127800373006
 30
0.0
 11
16.95926780393441
 21
8.658346619129844
 31
0.0
  0
LINE
  5
A53
330
9E0
100
AcDbEntity
  8
0
 62
     0
100
AcDbLine
 10
16.32110582087756
 20
9.29650860218669
 30
0.0
 11
14.92110582087752
 21
10.69650860218672
 31
0.0
  0
LINE
  5
A54
330
9E0
100
AcDbEntity
  8
0
 62
     0
100
AcDbLine
 10
21.74610582087751
 20
3.871508602186708
 30
0.0
 11
20.34610582087754
 21
5.271508602186713
 31
0.0
  0
LINE
  5
A55
330
9E0
100
AcDbEntity
  8
0
 62
     0
100
AcDbLine
 10
18.23572330240824
 20
6.932878314602533
 30
0.0
 11
16.8139940560921
 21
8.35460756091868
 31
0.0
  0
LINE
  5
A56
330
9E0
100
AcDbEntity
  8
0
 62
     0
100
AcDbLine
 10
16.32110582087759
 20
8.847495796133188
 30
0.0
 11
14.9211058208775
 21
10.24749579613325
 31
0.0
  0
LINE
  5
A57
330
9E0
100
AcDbEntity
  8
0
 62
     0
100
AcDbLine
 10
21.57658332221135
 20
3.592018294799402
 30
0.0
 11
20.34610582087756
 21
4.82249579613321
 31
0.0
  0
LINE
  5
A58
330
9E0
100
AcDbEntity
  8
0
 62
     0
100
AcDbLine
 10
18.44295998212524
 20
6.276628828832116
 30
0.0
 11
14.92110582087752
 21
9.798482990079833
 31
0.0
  0
LINE
  5
A59
330
9E0
100
AcDbEntity
  8
0
 62
     0
100
AcDbLine
 10
13.69610582087759
 20
11.02348299007977
 30
0.0
 11
13.0945884715077
 21
11.62500033944965
 31
0.0
  0
LINE
  5
A5A
330
9E0
100
AcDbEntity
  8
0
 62
     0
100
AcDbLine
 10
21.14458847150771
 20
3.575000339449644
 30
0.0
 11
20.34610582087759
 21
4.373482990079764
 31
0.0
  0
LINE
  5
A5B
330
9E0
100
AcDbEntity
  8
0
 62
     0
100
AcDbLine
 10
18.65019666184227
 20
5.620379343061614
 30
0.0
 11
14.92110582087752
 21
9.349470184026358
 31
0.0
  0
LINE
  5
A5C
330
9E0
100
AcDbEntity
  8
0
 62
     0
100
AcDbLine
 10
13.69610582087759
 20
10.57447018402629
 30
0.0
 11
12.6455756654542
 21
11.62500033944968
 31
0.0
  0
LINE
  5
A5D
330
9E0
100
AcDbEntity
  8
0
 62
     0
100
AcDbLine
 10
20.69557566545424
 20
3.575000339449616
 30
0.0
 11
20.34610582087756
 21
3.924470184026318
 31
0.0
  0
LINE
  5
A5E
330
9E0
100
AcDbEntity
  8
0
 62
     0
100
AcDbLine
 10
13.56265247318253
 20
10.25891072566787
 30
0.0
 11
12.21254161407682
 21
11.60902158477355
 31
0.0
  0
LINE
  5
A5F
330
9E0
100
AcDbEntity
  8
0
 62
     0
100
AcDbLine
 10
18.85743334155924
 20
4.964129857291169
 30
0.0
 11
14.92110582087755
 21
8.900457377972855
 31
0.0
  0
LINE
  5
A60
330
9E0
100
AcDbEntity
  8
0
 62
     0
100
AcDbLine
 10
16.48986028204836
 20
6.882690110748598
 30
0.0
 11
14.92110582087755
 21
8.45144457191941
 31
0.0
  0
LINE
  5
A61
330
9E0
100
AcDbEntity
  8
0
 62
     0
100
AcDbLine
 10
13.14755005334731
 20
10.22500033944962
 30
0.0
 11
11.84352007928319
 21
11.52903031351377
 31
0.0
  0
LINE
  5
A62
330
9E0
100
AcDbEntity
  8
0
 62
     0
100
AcDbLine
 10
19.06467002127627
 20
4.307880371520695
 30
0.0
 11
17.01851617512221
 21
6.354034217674751
 31
0.0
  0
LINE
  5
A63
330
9E0
100
AcDbEntity
  8
0
 62
     0
100
AcDbLine
 10
16.32110582087759
 20
6.602431765865929
 30
0.0
 11
14.92110582087755
 21
8.002431765865964
 31
0.0
  0
LINE
  5
A64
330
9E0
100
AcDbEntity
  8
0
 62
     0
100
AcDbLine
 10
12.69853724729381
 20
10.22500033944967
 30
0.0
 11
11.52415937136783
 21
11.39937821537566
 31
0.0
  0
LINE
  5
A65
330
9E0
100
AcDbEntity
  8
0
 62
     0
100
AcDbLine
 10
19.18218945013157
 20
3.741348136611918
 30
0.0
 11
17.22575285483927
 21
5.697784731904249
 31
0.0
  0
LINE
  5
A66
330
9E0
100
AcDbEntity
  8
0
 62
     0
100
AcDbLine
 10
16.32110582087756
 20
6.153418959812483
 30
0.0
 11
14.92110582087752
 21
7.553418959812489
 31
0.0
  0
LINE
  5
A67
330
9E0
100
AcDbEntity
  8
0
 62
     0
100
AcDbLine
 10
12.27698049602204
 20
10.19754428466799
 30
0.0
 11
11.24478488370056
 21
11.22973989698948
 31
0.0
  0
LINE
  5
A68
330
9E0
100
AcDbEntity
  8
0
 62
     0
100
AcDbLine
 10
18.8995244412404
 20
3.575000339449644
 30
0.0
 11
17.43298953455627
 21
5.041535246133776
 31
0.0
  0
LINE
  5
A69
330
9E0
100
AcDbEntity
  8
0
 62
     0
100
AcDbLine
 10
16.32110582087756
 20
5.704406153759009
 30
0.0
 11
14.92110582087752
 21
7.104406153759043
 31
0.0
  0
LINE
  5
A6A
330
9E0
100
AcDbEntity
  8
0
 62
     0
100
AcDbLine
 10
11.99105239960255
 20
10.03445957503402
 30
0.0
 11
11.00095727939466
 21
11.0245546952419
 31
0.0
  0
LINE
  5
A6B
330
9E0
100
AcDbEntity
  8
0
 62
     0
100
AcDbLine
 10
18.45051163518692
 20
3.575000339449644
 30
0.0
 11
17.64022621427327
 21
4.385285760363302
 31
0.0
  0
LINE
  5
A6C
330
9E0
100
AcDbEntity
  8
0
 62
     0
100
AcDbLine
 10
13.86382038727643
 20
7.712678781306721
 30
0.0
 11
13.10878426273456
 21
8.467714905848595
 31
0.0
  0
LINE
  5
A6D
330
9E0
100
AcDbEntity
  8
0
 62
     0
100
AcDbLine
 10
16.32110582087761
 20
5.255393347705535
 30
0.0
 11
14.92110582087755
 21
6.655393347705597
 31
0.0
  0
LINE
  5
A6E
330
9E0
100
AcDbEntity
  8
0
 62
     0
100
AcDbLine
 10
11.81299161453807
 20
9.763507554045077
 30
0.0
 11
10.79127426638905
 21
10.7852249021941
 31
0.0
  0
LINE
  5
A6F
330
9E0
100
AcDbEntity
  8
0
 62
     0
100
AcDbLine
 10
17.97633232703117
 20
3.600166841551981
 30
0.0
 11
17.85115524123551
 21
3.725343927347637
 31
0.0
  0
LINE
  5
A70
330
9E0
100
AcDbEntity
  8
0
 62
     0
100
AcDbLine
 10
13.82056355720547
 20
7.306922805324205
 30
0.0
 11
12.70302828675204
 21
8.424458075777636
 31
0.0
  0
LINE
  5
A71
330
9E0
100
AcDbEntity
  8
0
 62
     0
100
AcDbLine
 10
11.7711058208776
 20
9.356380541652072
 30
0.0
 11
10.61680475590822
 21
10.51068160662146
 31
0.0
  0
LINE
  5
A72
330
9E0
100
AcDbEntity
  8
0
 62
     0
100
AcDbLine
 10
16.32110582087759
 20
4.80638054165206
 30
0.0
 11
14.92110582087752
 21
6.206380541652151
 31
0.0
  0
LINE
  5
A73
330
9E0
100
AcDbEntity
  8
0
 62
     0
100
AcDbLine
 10
13.65463577755645
 20
7.023837778919727
 30
0.0
 11
12.41994326034756
 21
8.258530296128611
 31
0.0
  0
LINE
  5
A74
330
9E0
100
AcDbEntity
  8
0
 62
     0
100
AcDbLine
 10
11.7711058208776
 20
8.907367735598597
 30
0.0
 11
10.48151490230313
 21
10.19695865417307
 31
0.0
  0
LINE
  5
A75
330
9E0
100
AcDbEntity
  8
0
 62
     0
100
AcDbLine
 10
16.32110582087759
 20
4.357367735598614
 30
0.0
 11
14.92110582087755
 21
5.757367735598649
 31
0.0
  0
LINE
  5
A76
330
9E0
100
AcDbEntity
  8
0
 62
     0
100
AcDbLine
 10
11.7711058208776
 20
8.458354929545151
 30
0.0
 11
10.3941579658402
 21
9.83530278458258
 31
0.0
  0
LINE
  5
A77
330
9E0
100
AcDbEntity
  8
0
 62
     0
100
AcDbLine
 10
13.40371905648822
 20
6.82574169393456
 30
0.0
 11
12.22184717536239
 21
8.007613575060389
 31
0.0
  0
LINE
  5
A78
330
9E0
100
AcDbEntity
  8
0
 62
     0
100
AcDbLine
 10
9.058605820877573
 20
11.17085492954521
 30
0.0
 11
8.604460410973075
 21
11.62500033944971
 31
0.0
  0
LINE
  5
A79
330
9E0
100
AcDbEntity
  8
0
 62
     0
100
AcDbLine
 10
16.32110582087761
 20
3.908354929545168
 30
0.0
 11
14.92110582087758
 21
5.308354929545203
 31
0.0
  0
LINE
  5
A7A
330
9E0
100
AcDbEntity
  8
0
 62
     0
100
AcDbLine
 10
11.7711058208776
 20
8.009342123491705
 30
0.0
 11
10.37110582087757
 21
9.40934212349174
 31
0.0
  0
LINE
  5
A7B
330
9E0
100
AcDbEntity
  8
0
 62
     0
100
AcDbLine
 10
13.05355933527451
 20
6.7268886090948
 30
0.0
 11
12.12299409052263
 21
7.657453853846675
 31
0.0
  0
LINE
  5
A7C
330
9E0
100
AcDbEntity
  8
0
 62
     0
100
AcDbLine
 10
9.058605820877545
 20
10.72184212349174
 30
0.0
 11
8.155447604919601
 21
11.62500033944968
 31
0.0
  0
LINE
  5
A7D
330
9E0
100
AcDbEntity
  8
0
 62
     0
100
AcDbLine
 10
16.17715392024226
 20
3.603294024127052
 30
0.0
 11
14.92110582087755
 21
4.859342123491728
 31
0.0
  0
LINE
  5
A7E
330
9E0
100
AcDbEntity
  8
0
 62
     0
100
AcDbLine
 10
11.7711058208776
 20
7.560329317438231
 30
0.0
 11
10.37110582087757
 21
8.960329317438265
 31
0.0
  0
LINE
  5
A7F
330
9E0
100
AcDbEntity
  8
0
 62
     0
100
AcDbLine
 10
9.004088835742379
 20
10.32734630257346
 30
0.0
 11
7.706434798866098
 21
11.62500033944971
 31
0.0
  0
LINE
  5
A80
330
9E0
100
AcDbEntity
  8
0
 62
     0
100
AcDbLine
 10
15.75643479886616
 20
3.575000339449672
 30
0.0
 11
14.92110582087755
 21
4.410329317438282
 31
0.0
  0
LINE
  5
A81
330
9E0
100
AcDbEntity
  8
0
 62
     0
100
AcDbLine
 10
11.77110582087758
 20
7.111316511384785
 30
0.0
 11
10.37110582087754
 21
8.511316511384791
 31
0.0
  0
LINE
  5
A82
330
9E0
100
AcDbEntity
  8
0
 62
     0
100
AcDbLine
 10
8.657421992812714
 20
10.22500033944965
 30
0.0
 11
7.257421992812652
 21
11.62500033944971
 31
0.0
  0
LINE
  5
A83
330
9E0
100
AcDbEntity
  8
0
 62
     0
100
AcDbLine
 10
15.30742199281269
 20
3.575000339449644
 30
0.0
 11
14.92110582087755
 21
3.961316511384808
 31
0.0
  0
LINE
  5
A84
330
9E0
100
AcDbEntity
  8
0
 62
     0
100
AcDbLine
 10
11.7711058208776
 20
6.662303705331339
 30
0.0
 11
10.37110582087757
 21
8.062303705331373
 31
0.0
  0
LINE
  5
A85
330
9E0
100
AcDbEntity
  8
0
 62
     0
100
AcDbLine
 10
8.208409186759269
 20
10.22500033944965
 30
0.0
 11
6.825844550706818
 21
11.60756497550212
 31
0.0
  0
LINE
  5
A86
330
9E0
100
AcDbEntity
  8
0
 62
     0
100
AcDbLine
 10
13.6948045964591
 20
4.738604929749811
 30
0.0
 11
13.45971041117775
 21
4.973699115031195
 31
0.0
  0
LINE
  5
A87
330
9E0
100
AcDbEntity
  8
0
 62
     0
100
AcDbLine
 10
11.77110582087758
 20
6.213290899277865
 30
0.0
 11
10.37110582087757
 21
7.613290899277899
 31
0.0
  0
LINE
  5
A88
330
9E0
100
AcDbEntity
  8
0
 62
     0
100
AcDbLine
 10
7.759396380705823
 20
10.22500033944965
 30
0.0
 11
6.47927714646758
 21
11.50511957368789
 31
0.0
  0
LINE
  5
A89
330
9E0
100
AcDbEntity
  8
0
 62
     0
100
AcDbLine
 10
13.69610582087761
 20
4.288290899277853
 30
0.0
 11
13.00939638070579
 21
4.975000339449678
 31
0.0
  0
LINE
  5
A8A
330
9E0
100
AcDbEntity
  8
0
 62
     0
100
AcDbLine
 10
11.77110582087758
 20
5.764278093224419
 30
0.0
 11
10.3711058208776
 21
7.164278093224396
 31
0.0
  0
LINE
  5
A8B
330
9E0
100
AcDbEntity
  8
0
 62
     0
100
AcDbLine
 10
7.310383574652348
 20
10.22500033944962
 30
0.0
 11
6.197153816543959
 21
11.33823009755801
 31
0.0
  0
LINE
  5
A8C
330
9E0
100
AcDbEntity
  8
0
 62
     0
100
AcDbLine
 10
13.69610582087759
 20
3.839278093224379
 30
0.0
 11
12.56038357465234
 21
4.975000339449621
 31
0.0
  0
LINE
  5
A8D
330
9E0
100
AcDbEntity
  8
0
 62
     0
100
AcDbLine
 10
7.055237160845052
 20
10.03113394720352
 30
0.0
 11
5.968107410423584
 21
11.11826369762499
 31
0.0
  0
LINE
  5
A8E
330
9E0
100
AcDbEntity
  8
0
 62
     0
100
AcDbLine
 10
13.50223942863141
 20
3.584131679417168
 30
0.0
 11
10.3711058208776
 21
6.715265287170979
 31
0.0
  0
LINE
  5
A8F
330
9E0
100
AcDbEntity
  8
0
 62
     0
100
AcDbLine
 10
7.046105820877585
 20
9.591252481117521
 30
0.0
 11
5.791366809189042
 21
10.84599149280606
 31
0.0
  0
LINE
  5
A90
330
9E0
100
AcDbEntity
  8
0
 62
     0
100
AcDbLine
 10
13.06235796254546
 20
3.575000339449644
 30
0.0
 11
10.3711058208776
 21
6.266252481117504
 31
0.0
  0
LINE
  5
A91
330
9E0
100
AcDbEntity
  8
0
 62
     0
100
AcDbLine
 10
7.077173674945299
 20
9.111171820996304
 30
0.0
 11
5.67592675804218
 21
10.51241873789945
 31
0.0
  0
LINE
  5
A92
330
9E0
100
AcDbEntity
  8
0
 62
     0
100
AcDbLine
 10
12.61334515649195
 20
3.575000339449672
 30
0.0
 11
10.37110582087757
 21
5.81723967506403
 31
0.0
  0
LINE
  5
A93
330
9E0
100
AcDbEntity
  8
0
 62
     0
100
AcDbLine
 10
9.223293866488916
 20
6.51603882339927
 30
0.0
 11
5.646105820877608
 21
10.09322686901057
 31
0.0
  0
LINE
  5
A94
330
9E0
100
AcDbEntity
  8
0
 62
     0
100
AcDbLine
 10
12.13769630691018
 20
3.601636382978
 30
0.0
 11
10.3977418644059
 21
5.341590825482285
 31
0.0
  0
LINE
  5
A95
330
9E0
100
AcDbEntity
  8
0
 62
     0
100
AcDbLine
 10
9.319241123531526
 20
5.971078760303214
 30
0.0
 11
5.646105820877551
 21
9.644214062957189
 31
0.0
  0
LINE
  5
A96
330
9E0
100
AcDbEntity
  8
0
 62
     0
100
AcDbLine
 10
11.45079235060939
 20
3.839527533225322
 30
0.0
 11
10.63563301465319
 21
4.654686869181546
 31
0.0
  0
LINE
  5
A97
330
9E0
100
AcDbEntity
  8
0
 62
     0
100
AcDbLine
 10
9.321105820877619
 20
5.520201256903646
 30
0.0
 11
5.649888044588749
 21
9.191419033192488
 31
0.0
  0
LINE
  5
A98
330
9E0
100
AcDbEntity
  8
0
 62
     0
100
AcDbLine
 10
9.321105820877562
 20
5.071188450850229
 30
0.0
 11
5.761533423750677
 21
8.630760847977086
 31
0.0
  0
LINE
  5
A99
330
9E0
100
AcDbEntity
  8
0
 62
     0
100
AcDbLine
 10
9.284845822811604
 20
4.65843564286277
 30
0.0
 11
7.903150001002074
 21
6.040131464672299
 31
0.0
  0
LINE
  5
A9A
330
9E0
100
AcDbEntity
  8
0
 62
     0
100
AcDbLine
 10
9.163876853297182
 20
4.330391806323717
 30
0.0
 11
7.921105820877556
 21
5.573162838743343
 31
0.0
  0
LINE
  5
A9B
330
9E0
100
AcDbEntity
  8
0
 62
     0
100
AcDbLine
 10
8.982817229606297
 20
4.062438623961128
 30
0.0
 11
7.903156304727218
 21
5.142099548840207
 31
0.0
  0
LINE
  5
A9C
330
9E0
100
AcDbEntity
  8
0
 62
     0
100
AcDbLine
 10
8.74970404347286
 20
3.846539004041119
 30
0.0
 11
7.621242708064301
 21
4.975000339449707
 31
0.0
  0
LINE
  5
A9D
330
9E0
100
AcDbEntity
  8
0
 62
     0
100
AcDbLine
 10
8.463071819606454
 20
3.684158421854078
 30
0.0
 11
7.172229902010826
 21
4.975000339449678
 31
0.0
  0
LINE
  5
A9E
330
9E0
100
AcDbEntity
  8
0
 62
     0
100
AcDbLine
 10
8.110365525063485
 20
3.587851910343573
 30
0.0
 11
6.72321709595738
 21
4.975000339449678
 31
0.0
  0
LINE
  5
A9F
330
9E0
100
AcDbEntity
  8
0
 62
     0
100
AcDbLine
 10
7.674204289903912
 20
3.575000339449672
 30
0.0
 11
6.274204289903906
 21
4.975000339449678
 31
0.0
  0
LINE
  5
AA0
330
9E0
100
AcDbEntity
  8
0
 62
     0
100
AcDbLine
 10
7.225191483850494
 20
3.575000339449644
 30
0.0
 11
5.948529536441554
 21
4.851662286858612
 31
0.0
  0
LINE
  5
AA1
330
9E0
100
AcDbEntity
  8
0
 62
     0
100
AcDbLine
 10
6.776178677796991
 20
3.575000339449672
 30
0.0
 11
5.908605820877596
 21
4.442573196369068
 31
0.0
  0
LINE
  5
AA2
330
9E0
100
AcDbEntity
  8
0
 62
     0
100
AcDbLine
 10
6.327165871743574
 20
3.575000339449644
 30
0.0
 11
5.908605820877596
 21
3.993560390315622
 31
0.0
  0
LINE
  5
AA3
330
9E0
100
AcDbEntity
  8
0
 62
     0
100
AcDbLine
 10
34.31694946321104
 20
3.581566228008426
 30
0.0
 11
34.51453993231893
 21
3.77915669711632
 31
0.0
  0
LINE
  5
AA4
330
9E0
100
AcDbEntity
  8
0
 62
     0
100
AcDbLine
 10
33.86137076859887
 20
3.575000339449644
 30
0.0
 11
34.52110582087766
 21
4.234735391728463
 31
0.0
  0
LINE
  5
AA5
330
9E0
100
AcDbEntity
  8
0
 62
     0
100
AcDbLine
 10
33.4123579625454
 20
3.575000339449672
 30
0.0
 11
34.52110582087766
 21
4.683748197781909
 31
0.0
  0
LINE
  5
AA6
330
9E0
100
AcDbEntity
  8
0
 62
     0
100
AcDbLine
 10
33.13670460250349
 20
3.748359785461218
 30
0.0
 11
34.52110582087764
 21
5.132761003835383
 31
0.0
  0
LINE
  5
AA7
330
9E0
100
AcDbEntity
  8
0
 62
     0
100
AcDbLine
 10
33.1211058208776
 20
4.181773809888795
 30
0.0
 11
34.52110582087764
 21
5.581773809888801
 31
0.0
  0
LINE
  5
AA8
330
9E0
100
AcDbEntity
  8
0
 62
     0
100
AcDbLine
 10
33.12110582087763
 20
4.630786615942241
 30
0.0
 11
34.52110582087764
 21
6.030786615942275
 31
0.0
  0
LINE
  5
AA9
330
9E0
100
AcDbEntity
  8
0
 62
     0
100
AcDbLine
 10
33.1211058208776
 20
5.079799421995716
 30
0.0
 11
34.52110582087764
 21
6.47979942199575
 31
0.0
  0
LINE
  5
AAA
330
9E0
100
AcDbEntity
  8
0
 62
     0
100
AcDbLine
 10
33.1211058208776
 20
5.528812228049162
 30
0.0
 11
34.52110582087764
 21
6.928812228049196
 31
0.0
  0
LINE
  5
AAB
330
9E0
100
AcDbEntity
  8
0
 62
     0
100
AcDbLine
 10
31.33438825191024
 20
3.7420946590818
 30
0.0
 11
31.90401150124552
 21
4.311717908417108
 31
0.0
  0
LINE
  5
AAC
330
9E0
100
AcDbEntity
  8
0
 62
     0
100
AcDbLine
 10
33.1211058208776
 20
5.977825034102608
 30
0.0
 11
34.52110582087764
 21
7.377825034102642
 31
0.0
  0
LINE
  5
AAD
330
9E0
100
AcDbEntity
  8
0
 62
     0
100
AcDbLine
 10
30.71910416864884
 20
3.575823381873846
 30
0.0
 11
32.0702827784535
 21
4.92700199167848
 31
0.0
  0
LINE
  5
AAE
330
9E0
100
AcDbEntity
  8
0
 62
     0
100
AcDbLine
 10
33.1211058208776
 20
6.426837840156082
 30
0.0
 11
34.52110582087764
 21
7.826837840156088
 31
0.0
  0
LINE
  5
AAF
330
9E0
100
AcDbEntity
  8
0
 62
     0
100
AcDbLine
 10
30.26926832017122
 20
3.575000339449701
 30
0.0
 11
32.07110582087764
 21
5.376837840156099
 31
0.0
  0
LINE
  5
AB0
330
9E0
100
AcDbEntity
  8
0
 62
     0
100
AcDbLine
 10
33.1211058208776
 20
6.875850646209528
 30
0.0
 11
34.5211058208776
 21
8.275850646209562
 31
0.0
  0
LINE
  5
AB1
330
9E0
100
AcDbEntity
  8
0
 62
     0
100
AcDbLine
 10
29.82025551411775
 20
3.575000339449701
 30
0.0
 11
32.07110582087762
 21
5.825850646209573
 31
0.0
  0
LINE
  5
AB2
330
9E0
100
AcDbEntity
  8
0
 62
     0
100
AcDbLine
 10
33.1211058208776
 20
7.324863452262974
 30
0.0
 11
34.52110582087764
 21
8.724863452263008
 31
0.0
  0
LINE
  5
AB3
330
9E0
100
AcDbEntity
  8
0
 62
     0
100
AcDbLine
 10
29.37124270806427
 20
3.575000339449644
 30
0.0
 11
32.07110582087764
 21
6.274863452263019
 31
0.0
  0
LINE
  5
AB4
330
9E0
100
AcDbEntity
  8
0
 62
     0
100
AcDbLine
 10
30.61881021983708
 20
5.271580657275933
 30
0.0
 11
32.07110582087764
 21
6.723876258316465
 31
0.0
  0
LINE
  5
AB5
330
9E0
100
AcDbEntity
  8
0
 62
     0
100
AcDbLine
 10
33.1211058208776
 20
7.77387625831642
 30
0.0
 11
34.52110582087764
 21
9.173876258316454
 31
0.0
  0
LINE
  5
AB6
330
9E0
100
AcDbEntity
  8
0
 62
     0
100
AcDbLine
 10
28.92222990201085
 20
3.575000339449701
 30
0.0
 11
30.37452550305133
 21
5.027295940490148
 31
0.0
  0
LINE
  5
AB7
330
9E0
100
AcDbEntity
  8
0
 62
     0
100
AcDbLine
 10
30.67110582087755
 20
5.772889064369877
 30
0.0
 11
32.07110582087762
 21
7.17288906436994
 31
0.0
  0
LINE
  5
AB8
330
9E0
100
AcDbEntity
  8
0
 62
     0
100
AcDbLine
 10
33.12110582087757
 20
8.222889064369894
 30
0.0
 11
34.5211058208776
 21
9.622889064369928
 31
0.0
  0
LINE
  5
AB9
330
9E0
100
AcDbEntity
  8
0
 62
     0
100
AcDbLine
 10
28.52919197164593
 20
3.630975215138221
 30
0.0
 11
29.87321709595738
 21
4.975000339449707
 31
0.0
  0
LINE
  5
ABA
330
9E0
100
AcDbEntity
  8
0
 62
     0
100
AcDbLine
 10
30.67110582087755
 20
6.221901870423323
 30
0.0
 11
32.07110582087762
 21
7.621901870423386
 31
0.0
  0
LINE
  5
ABB
330
9E0
100
AcDbEntity
  8
0
 62
     0
100
AcDbLine
 10
33.12110582087757
 20
8.671901870423369
 30
0.0
 11
34.5211058208776
 21
10.07190187042337
 31
0.0
  0
LINE
  5
ABC
330
9E0
100
AcDbEntity
  8
0
 62
     0
100
AcDbLine
 10
28.21519853804085
 20
3.765994587586646
 30
0.0
 11
29.42464318272607
 21
4.975439232271867
 31
0.0
  0
LINE
  5
ABD
330
9E0
100
AcDbEntity
  8
0
 62
     0
100
AcDbLine
 10
30.67110582087755
 20
6.670914676476769
 30
0.0
 11
32.07110582087762
 21
8.070914676476832
 31
0.0
  0
LINE
  5
ABE
330
9E0
100
AcDbEntity
  8
0
 62
     0
100
AcDbLine
 10
33.1211058208776
 20
9.120914676476786
 30
0.0
 11
34.5211058208776
 21
10.52091467647682
 31
0.0
  0
LINE
  5
ABF
330
9E0
100
AcDbEntity
  8
0
 62
     0
100
AcDbLine
 10
27.95856859735832
 20
3.958377452957506
 30
0.0
 11
29.10290388836972
 21
5.102712743968936
 31
0.0
  0
LINE
  5
AC0
330
9E0
100
AcDbEntity
  8
0
 62
     0
100
AcDbLine
 10
30.67110582087755
 20
7.119927482530215
 30
0.0
 11
32.07110582087762
 21
8.519927482530306
 31
0.0
  0
LINE
  5
AC1
330
9E0
100
AcDbEntity
  8
0
 62
     0
100
AcDbLine
 10
33.12110582087757
 20
9.56992748253026
 30
0.0
 11
34.5211058208776
 21
10.96992748253029
 31
0.0
  0
LINE
  5
AC2
330
9E0
100
AcDbEntity
  8
0
 62
     0
100
AcDbLine
 10
27.75358650974576
 20
4.202408171398417
 30
0.0
 11
28.93428474916501
 21
5.383106410817703
 31
0.0
  0
LINE
  5
AC3
330
9E0
100
AcDbEntity
  8
0
 62
     0
100
AcDbLine
 10
30.67110582087753
 20
7.568940288583689
 30
0.0
 11
32.07110582087762
 21
8.968940288583752
 31
0.0
  0
LINE
  5
AC4
330
9E0
100
AcDbEntity
  8
0
 62
     0
100
AcDbLine
 10
33.12110582087757
 20
10.0189402885837
 30
0.0
 11
34.51603124410238
 21
11.41386571180854
 31
0.0
  0
LINE
  5
AC5
330
9E0
100
AcDbEntity
  8
0
 62
     0
100
AcDbLine
 10
27.60362407052875
 20
4.501458538234913
 30
0.0
 11
28.92110582087756
 21
5.818940288583718
 31
0.0
  0
LINE
  5
AC6
330
9E0
100
AcDbEntity
  8
0
 62
     0
100
AcDbLine
 10
30.67110582087758
 20
8.017953094637164
 30
0.0
 11
32.07110582087762
 21
9.417953094637198
 31
0.0
  0
LINE
  5
AC7
330
9E0
100
AcDbEntity
  8
0
 62
     0
100
AcDbLine
 10
33.12110582087757
 20
10.46795309463715
 30
0.0
 11
34.27747407156263
 21
11.62432134532221
 31
0.0
  0
LINE
  5
AC8
330
9E0
100
AcDbEntity
  8
0
 62
     0
100
AcDbLine
 10
27.52491730305052
 20
4.871764576810107
 30
0.0
 11
28.92110582087758
 21
6.267953094637164
 31
0.0
  0
LINE
  5
AC9
330
9E0
100
AcDbEntity
  8
0
 62
     0
100
AcDbLine
 10
30.67110582087758
 20
8.466965900690638
 30
0.0
 11
32.07110582087762
 21
9.866965900690644
 31
0.0
  0
LINE
  5
ACA
330
9E0
100
AcDbEntity
  8
0
 62
     0
100
AcDbLine
 10
33.1211058208776
 20
10.91696590069065
 30
0.0
 11
33.8291402596366
 21
11.62500033944965
 31
0.0
  0
LINE
  5
ACB
330
9E0
100
AcDbEntity
  8
0
 62
     0
100
AcDbLine
 10
27.52110582087758
 20
5.316965900690632
 30
0.0
 11
28.92110582087761
 21
6.716965900690667
 31
0.0
  0
LINE
  5
ACC
330
9E0
100
AcDbEntity
  8
0
 62
     0
100
AcDbLine
 10
30.67110582087758
 20
8.915978706744084
 30
0.0
 11
32.07110582087759
 21
10.31597870674411
 31
0.0
  0
LINE
  5
ACD
330
9E0
100
AcDbEntity
  8
0
 62
     0
100
AcDbLine
 10
27.52110582087758
 20
5.765978706744078
 30
0.0
 11
28.92110582087758
 21
7.165978706744112
 31
0.0
  0
LINE
  5
ACE
330
9E0
100
AcDbEntity
  8
0
 62
     0
100
AcDbLine
 10
33.12112917825132
 20
11.36600206411785
 30
0.0
 11
33.38010409620946
 21
11.62497698207596
 31
0.0
  0
LINE
  5
ACF
330
9E0
100
AcDbEntity
  8
0
 62
     0
100
AcDbLine
 10
25.36032800552161
 20
3.605200891388108
 30
0.0
 11
26.44090526893918
 21
4.685778154805717
 31
0.0
  0
LINE
  5
AD0
330
9E0
100
AcDbEntity
  8
0
 62
     0
100
AcDbLine
 10
27.52110582087755
 20
6.214991512797553
 30
0.0
 11
28.92110582087758
 21
7.614991512797587
 31
0.0
  0
LINE
  5
AD1
330
9E0
100
AcDbEntity
  8
0
 62
     0
100
AcDbLine
 10
30.67110582087755
 20
9.364991512797558
 30
0.0
 11
32.07110582087759
 21
10.76499151279759
 31
0.0
  0
LINE
  5
AD2
330
9E0
100
AcDbEntity
  8
0
 62
     0
100
AcDbLine
 10
24.8811146475297
 20
3.575000339449701
 30
0.0
 11
26.47110582087757
 21
5.164991512797541
 31
0.0
  0
LINE
  5
AD3
330
9E0
100
AcDbEntity
  8
0
 62
     0
100
AcDbLine
 10
27.52110582087758
 20
6.664004318850999
 30
0.0
 11
28.92110582087761
 21
8.064004318851004
 31
0.0
  0
LINE
  5
AD4
330
9E0
100
AcDbEntity
  8
0
 62
     0
100
AcDbLine
 10
30.67110582087758
 20
9.814004318850976
 30
0.0
 11
32.07110582087762
 21
11.21400431885101
 31
0.0
  0
LINE
  5
AD5
330
9E0
100
AcDbEntity
  8
0
 62
     0
100
AcDbLine
 10
24.43210184147622
 20
3.575000339449644
 30
0.0
 11
26.47110582087762
 21
5.614004318851016
 31
0.0
  0
LINE
  5
AD6
330
9E0
100
AcDbEntity
  8
0
 62
     0
100
AcDbLine
 10
27.52110582087758
 20
7.113017124904445
 30
0.0
 11
28.92110582087758
 21
8.513017124904479
 31
0.0
  0
LINE
  5
AD7
330
9E0
100
AcDbEntity
  8
0
 62
     0
100
AcDbLine
 10
30.67110582087755
 20
10.26301712490445
 30
0.0
 11
31.97423709346057
 21
11.56614839748746
 31
0.0
  0
LINE
  5
AD8
330
9E0
100
AcDbEntity
  8
0
 62
     0
100
AcDbLine
 10
23.98308903542277
 20
3.575000339449672
 30
0.0
 11
26.46394652067113
 21
6.055857824698023
 31
0.0
  0
LINE
  5
AD9
330
9E0
100
AcDbEntity
  8
0
 62
     0
100
AcDbLine
 10
27.52110582087755
 20
7.562029930957919
 30
0.0
 11
28.92110582087758
 21
8.962029930957953
 31
0.0
  0
LINE
  5
ADA
330
9E0
100
AcDbEntity
  8
0
 62
     0
100
AcDbLine
 10
30.67110582087755
 20
10.71202993095792
 30
0.0
 11
31.58407622936931
 21
11.62500033944968
 31
0.0
  0
LINE
  5
ADB
330
9E0
100
AcDbEntity
  8
0
 62
     0
100
AcDbLine
 10
23.5340762293693
 20
3.575000339449672
 30
0.0
 11
26.39649033535675
 21
6.437414445437099
 31
0.0
  0
LINE
  5
ADC
330
9E0
100
AcDbEntity
  8
0
 62
     0
100
AcDbLine
 10
27.52110582087758
 20
8.011042737011337
 30
0.0
 11
28.92110582087758
 21
9.411042737011371
 31
0.0
  0
LINE
  5
ADD
330
9E0
100
AcDbEntity
  8
0
 62
     0
100
AcDbLine
 10
25.07110582087761
 20
5.561042737011405
 30
0.0
 11
26.27619660689748
 21
6.766133523031243
 31
0.0
  0
LINE
  5
ADE
330
9E0
100
AcDbEntity
  8
0
 62
     0
100
AcDbLine
 10
30.67110582087758
 20
11.16104273701134
 30
0.0
 11
31.13506342331592
 21
11.62500033944971
 31
0.0
  0
LINE
  5
ADF
330
9E0
100
AcDbEntity
  8
0
 62
     0
100
AcDbLine
 10
23.14919109988142
 20
3.639128016015206
 30
0.0
 11
24.48506342331586
 21
4.97500033944965
 31
0.0
  0
LINE
  5
AE0
330
9E0
100
AcDbEntity
  8
0
 62
     0
100
AcDbLine
 10
25.06117053331397
 20
6.000120255501201
 30
0.0
 11
26.11444695446721
 21
7.053396676654443
 31
0.0
  0
LINE
  5
AE1
330
9E0
100
AcDbEntity
  8
0
 62
     0
100
AcDbLine
 10
27.52110582087761
 20
8.460055543064839
 30
0.0
 11
28.92110582087761
 21
9.860055543064873
 31
0.0
  0
LINE
  5
AE2
330
9E0
100
AcDbEntity
  8
0
 62
     0
100
AcDbLine
 10
23.05860582087757
 20
3.997555543064834
 30
0.0
 11
24.03605061726239
 21
4.97500033944965
 31
0.0
  0
LINE
  5
AE3
330
9E0
100
AcDbEntity
  8
0
 62
     0
100
AcDbLine
 10
24.92397811474452
 20
6.311940642985263
 30
0.0
 11
25.9165113955033
 21
7.304473923744041
 31
0.0
  0
LINE
  5
AE4
330
9E0
100
AcDbEntity
  8
0
 62
     0
100
AcDbLine
 10
27.52110582087758
 20
8.909068349118314
 30
0.0
 11
28.92110582087761
 21
10.30906834911834
 31
0.0
  0
LINE
  5
AE5
330
9E0
100
AcDbEntity
  8
0
 62
     0
100
AcDbLine
 10
23.05860582087757
 20
4.44656834911828
 30
0.0
 11
23.58703781120894
 21
4.975000339449678
 31
0.0
  0
LINE
  5
AE6
330
9E0
100
AcDbEntity
  8
0
 62
     0
100
AcDbLine
 10
27.52110582087761
 20
9.35808115517176
 30
0.0
 11
28.92110582087764
 21
10.75808115517176
 31
0.0
  0
LINE
  5
AE7
330
9E0
100
AcDbEntity
  8
0
 62
     0
100
AcDbLine
 10
24.70334066618599
 20
6.540316000480117
 30
0.0
 11
25.69329015984718
 21
7.530265494141332
 31
0.0
  0
LINE
  5
AE8
330
9E0
100
AcDbEntity
  8
0
 62
     0
100
AcDbLine
 10
24.47883426315925
 20
6.764822403506855
 30
0.0
 11
25.46878375682041
 21
7.754771897168012
 31
0.0
  0
LINE
  5
AE9
330
9E0
100
AcDbEntity
  8
0
 62
     0
100
AcDbLine
 10
27.52110582087758
 20
9.807093961225206
 30
0.0
 11
28.92110582087761
 21
11.20709396122524
 31
0.0
  0
LINE
  5
AEA
330
9E0
100
AcDbEntity
  8
0
 62
     0
100
AcDbLine
 10
21.28901219910204
 20
3.575000339449672
 30
0.0
 11
21.7461058208776
 21
4.0320939612252
 31
0.0
  0
LINE
  5
AEB
330
9E0
100
AcDbEntity
  8
0
 62
     0
100
AcDbLine
 10
24.25432786013255
 20
6.989328806533649
 30
0.0
 11
25.24427735379367
 21
7.979278300194749
 31
0.0
  0
LINE
  5
AEC
330
9E0
100
AcDbEntity
  8
0
 62
     0
100
AcDbLine
 10
27.52110582087758
 20
10.25610676727868
 30
0.0
 11
28.82801536682828
 21
11.56301631322935
 31
0.0
  0
LINE
  5
AED
330
9E0
100
AcDbEntity
  8
0
 62
     0
100
AcDbLine
 10
20.8399993930486
 20
3.575000339449672
 30
0.0
 11
21.74610582087757
 21
4.481106767278674
 31
0.0
  0
LINE
  5
AEE
330
9E0
100
AcDbEntity
  8
0
 62
     0
100
AcDbLine
 10
24.02982145710578
 20
7.213835209560329
 30
0.0
 11
25.01977095076694
 21
8.203784703221487
 31
0.0
  0
LINE
  5
AEF
330
9E0
100
AcDbEntity
  8
0
 62
     0
100
AcDbLine
 10
27.52110582087758
 20
10.70511957333212
 30
0.0
 11
28.44098658699513
 21
11.62500033944971
 31
0.0
  0
LINE
  5
AF0
330
9E0
100
AcDbEntity
  8
0
 62
     0
100
AcDbLine
 10
20.44679215592609
 20
3.630805908380636
 30
0.0
 11
21.7461058208776
 21
4.930119573332177
 31
0.0
  0
LINE
  5
AF1
330
9E0
100
AcDbEntity
  8
0
 62
     0
100
AcDbLine
 10
23.80531505407907
 20
7.438341612587038
 30
0.0
 11
24.79526454774023
 21
8.428291106248195
 31
0.0
  0
LINE
  5
AF2
330
9E0
100
AcDbEntity
  8
0
 62
     0
100
AcDbLine
 10
27.52110582087758
 20
11.15413237938557
 30
0.0
 11
27.99197378094172
 21
11.62500033944968
 31
0.0
  0
LINE
  5
AF3
330
9E0
100
AcDbEntity
  8
0
 62
     0
100
AcDbLine
 10
20.34610582087756
 20
3.979132379385532
 30
0.0
 11
21.74610582087763
 21
5.379132379385595
 31
0.0
  0
LINE
  5
AF4
330
9E0
100
AcDbEntity
  8
0
 62
     0
100
AcDbLine
 10
23.58080865105233
 20
7.662848015613775
 30
0.0
 11
24.57075814471349
 21
8.652797509274932
 31
0.0
  0
LINE
  5
AF5
330
9E0
100
AcDbEntity
  8
0
 62
     0
100
AcDbLine
 10
20.34610582087759
 20
4.428145185439035
 30
0.0
 11
21.7461058208776
 21
5.828145185439069
 31
0.0
  0
LINE
  5
AF6
330
9E0
100
AcDbEntity
  8
0
 62
     0
100
AcDbLine
 10
23.35731670053167
 20
7.88836887114661
 30
0.0
 11
24.34930346722268
 21
8.880355637837595
 31
0.0
  0
LINE
  5
AF7
330
9E0
100
AcDbEntity
  8
0
 62
     0
100
AcDbLine
 10
20.34610582087756
 20
4.877157991492509
 30
0.0
 11
21.7461058208776
 21
6.277157991492543
 31
0.0
  0
LINE
  5
AF8
330
9E0
100
AcDbEntity
  8
0
 62
     0
100
AcDbLine
 10
25.69394816883476
 20
10.22500033944967
 30
0.0
 11
26.20860582087757
 21
10.73965799149252
 31
0.0
  0
LINE
  5
AF9
330
9E0
100
AcDbEntity
  8
0
 62
     0
100
AcDbLine
 10
19.0997777085225
 20
3.630829879137422
 30
0.0
 11
19.14460388925002
 21
3.675656059864962
 31
0.0
  0
LINE
  5
AFA
330
9E0
100
AcDbEntity
  8
0
 62
     0
100
AcDbLine
 10
23.15831561112068
 20
8.138380587789043
 30
0.0
 11
24.20813274982998
 21
9.188197726498344
 31
0.0
  0
LINE
  5
AFB
330
9E0
100
AcDbEntity
  8
0
 62
     0
100
AcDbLine
 10
20.34610582087759
 20
5.326170797545927
 30
0.0
 11
21.74610582087763
 21
6.726170797545961
 31
0.0
  0
LINE
  5
AFC
330
9E0
100
AcDbEntity
  8
0
 62
     0
100
AcDbLine
 10
25.24493536278132
 20
10.22500033944967
 30
0.0
 11
26.20860582087761
 21
11.18867079754593
 31
0.0
  0
LINE
  5
AFD
330
9E0
100
AcDbEntity
  8
0
 62
     0
100
AcDbLine
 10
18.59493536278128
 20
3.575000339449644
 30
0.0
 11
19.12782491093452
 21
4.107889887602851
 31
0.0
  0
LINE
  5
AFE
330
9E0
100
AcDbEntity
  8
0
 62
     0
100
AcDbLine
 10
22.99539847892233
 20
8.424476261644173
 30
0.0
 11
24.19610582087765
 21
9.625183603599452
 31
0.0
  0
LINE
  5
AFF
330
9E0
100
AcDbEntity
  8
0
 62
     0
100
AcDbLine
 10
20.34610582087756
 20
5.775183603599401
 30
0.0
 11
21.7461058208776
 21
7.175183603599435
 31
0.0
  0
LINE
  5
B00
330
9E0
100
AcDbEntity
  8
0
 62
     0
100
AcDbLine
 10
24.79592255672787
 20
10.22500033944967
 30
0.0
 11
26.12527135497868
 21
11.55434913770051
 31
0.0
  0
LINE
  5
B01
330
9E0
100
AcDbEntity
  8
0
 62
     0
100
AcDbLine
 10
18.14592255672783
 20
3.575000339449644
 30
0.0
 11
19.0200618374817
 21
4.449139620203538
 31
0.0
  0
LINE
  5
B02
330
9E0
100
AcDbEntity
  8
0
 62
     0
100
AcDbLine
 10
20.34610582087756
 20
6.224196409652876
 30
0.0
 11
21.7461058208776
 21
7.624196409652881
 31
0.0
  0
LINE
  5
B03
330
9E0
100
AcDbEntity
  8
0
 62
     0
100
AcDbLine
 10
22.87370744758729
 20
8.7517980363626
 30
0.0
 11
25.74690975067443
 21
11.62500033944971
 31
0.0
  0
LINE
  5
B04
330
9E0
100
AcDbEntity
  8
0
 62
     0
100
AcDbLine
 10
17.84991540140029
 20
3.728005990175603
 30
0.0
 11
18.91229876402886
 21
4.790389352804169
 31
0.0
  0
LINE
  5
B05
330
9E0
100
AcDbEntity
  8
0
 62
     0
100
AcDbLine
 10
20.34610582087756
 20
6.673209215706322
 30
0.0
 11
21.74610582087757
 21
8.073209215706356
 31
0.0
  0
LINE
  5
B06
330
9E0
100
AcDbEntity
  8
0
 62
     0
100
AcDbLine
 10
22.80435401804445
 20
9.131457412873231
 30
0.0
 11
25.29789694462095
 21
11.62500033944974
 31
0.0
  0
LINE
  5
B07
330
9E0
100
AcDbEntity
  8
0
 62
     0
100
AcDbLine
 10
17.74053569057599
 20
4.067639085404778
 30
0.0
 11
18.80453569057598
 21
5.131639085404771
 31
0.0
  0
LINE
  5
B08
330
9E0
100
AcDbEntity
  8
0
 62
     0
100
AcDbLine
 10
20.34610582087756
 20
7.122222021759768
 30
0.0
 11
21.7461058208776
 21
8.522222021759802
 31
0.0
  0
LINE
  5
B09
330
9E0
100
AcDbEntity
  8
0
 62
     0
100
AcDbLine
 10
22.79610582087761
 20
9.572222021759785
 30
0.0
 11
24.84888413856748
 21
11.62500033944968
 31
0.0
  0
LINE
  5
B0A
330
9E0
100
AcDbEntity
  8
0
 62
     0
100
AcDbLine
 10
17.63277261712318
 20
4.40888881800538
 30
0.0
 11
18.69677261712323
 21
5.472888818005401
 31
0.0
  0
LINE
  5
B0B
330
9E0
100
AcDbEntity
  8
0
 62
     0
100
AcDbLine
 10
20.34610582087759
 20
7.57123482781327
 30
0.0
 11
21.7461058208776
 21
8.971234827813248
 31
0.0
  0
LINE
  5
B0C
330
9E0
100
AcDbEntity
  8
0
 62
     0
100
AcDbLine
 10
22.79610582087758
 20
10.02123482781325
 30
0.0
 11
24.39987133251404
 21
11.62500033944968
 31
0.0
  0
LINE
  5
B0D
330
9E0
100
AcDbEntity
  8
0
 62
     0
100
AcDbLine
 10
17.5250095436703
 20
4.750138550605981
 30
0.0
 11
18.58900954367038
 21
5.814138550606031
 31
0.0
  0
LINE
  5
B0E
330
9E0
100
AcDbEntity
  8
0
 62
     0
100
AcDbLine
 10
20.34610582087759
 20
8.020247633866716
 30
0.0
 11
21.74610582087757
 21
9.420247633866722
 31
0.0
  0
LINE
  5
B0F
330
9E0
100
AcDbEntity
  8
0
 62
     0
100
AcDbLine
 10
17.41724647021749
 20
5.09138828320664
 30
0.0
 11
18.48124647021754
 21
6.155388283206661
 31
0.0
  0
LINE
  5
B10
330
9E0
100
AcDbEntity
  8
0
 62
     0
100
AcDbLine
 10
22.82276415593821
 20
10.49690596892736
 30
0.0
 11
23.92420019139987
 21
11.59834200438902
 31
0.0
  0
LINE
  5
B11
330
9E0
100
AcDbEntity
  8
0
 62
     0
100
AcDbLine
 10
15.90085852646055
 20
3.575000339449672
 30
0.0
 11
16.32110582087759
 21
3.995247633866739
 31
0.0
  0
LINE
  5
B12
330
9E0
100
AcDbEntity
  8
0
 62
     0
100
AcDbLine
 10
17.3094833967647
 20
5.432638015807242
 30
0.0
 11
18.37348339676466
 21
6.496638015807235
 31
0.0
  0
LINE
  5
B13
330
9E0
100
AcDbEntity
  8
0
 62
     0
100
AcDbLine
 10
20.34610582087759
 20
8.469260439920162
 30
0.0
 11
21.7461058208776
 21
9.86926043992014
 31
0.0
  0
LINE
  5
B14
330
9E0
100
AcDbEntity
  8
0
 62
     0
100
AcDbLine
 10
15.4518457204071
 20
3.575000339449672
 30
0.0
 11
16.32110582087761
 21
4.444260439920185
 31
0.0
  0
LINE
  5
B15
330
9E0
100
AcDbEntity
  8
0
 62
     0
100
AcDbLine
 10
17.20172032331186
 20
5.773887748407872
 30
0.0
 11
18.26572032331188
 21
6.837887748407922
 31
0.0
  0
LINE
  5
B16
330
9E0
100
AcDbEntity
  8
0
 62
     0
100
AcDbLine
 10
20.34610582087759
 20
8.918273245973637
 30
0.0
 11
21.74610582087757
 21
10.31827324597361
 31
0.0
  0
LINE
  5
B17
330
9E0
100
AcDbEntity
  8
0
 62
     0
100
AcDbLine
 10
15.04340778817925
 20
3.615575213275292
 30
0.0
 11
16.32110582087761
 21
4.893273245973631
 31
0.0
  0
LINE
  5
B18
330
9E0
100
AcDbEntity
  8
0
 62
     0
100
AcDbLine
 10
17.09395724985895
 20
6.115137481008474
 30
0.0
 11
18.15795724985903
 21
7.179137481008552
 31
0.0
  0
LINE
  5
B19
330
9E0
100
AcDbEntity
  8
0
 62
     0
100
AcDbLine
 10
20.34610582087759
 20
9.367286052027083
 30
0.0
 11
21.74610582087757
 21
10.76728605202708
 31
0.0
  0
LINE
  5
B1A
330
9E0
100
AcDbEntity
  8
0
 62
     0
100
AcDbLine
 10
14.92110582087755
 20
3.942286052027071
 30
0.0
 11
16.32110582087759
 21
5.342286052027105
 31
0.0
  0
LINE
  5
B1B
330
9E0
100
AcDbEntity
  8
0
 62
     0
100
AcDbLine
 10
16.9861941764062
 20
6.456387213609104
 30
0.0
 11
18.05019417640622
 21
7.520387213609154
 31
0.0
  0
LINE
  5
B1C
330
9E0
100
AcDbEntity
  8
0
 62
     0
100
AcDbLine
 10
20.34610582087759
 20
9.816298858080529
 30
0.0
 11
21.74610582087757
 21
11.2162988580805
 31
0.0
  0
LINE
  5
B1D
330
9E0
100
AcDbEntity
  8
0
 62
     0
100
AcDbLine
 10
14.92110582087758
 20
4.391298858080517
 30
0.0
 11
16.32110582087761
 21
5.791298858080523
 31
0.0
  0
LINE
  5
B1E
330
9E0
100
AcDbEntity
  8
0
 62
     0
100
AcDbLine
 10
16.86879478292033
 20
6.788000626176739
 30
0.0
 11
18.18394181688577
 21
8.103147660142184
 31
0.0
  0
LINE
  5
B1F
330
9E0
100
AcDbEntity
  8
0
 62
     0
100
AcDbLine
 10
20.34610582087759
 20
10.26531166413397
 30
0.0
 11
21.6479681096284
 21
11.56717395288478
 31
0.0
  0
LINE
  5
B20
330
9E0
100
AcDbEntity
  8
0
 62
     0
100
AcDbLine
 10
14.92110582087758
 20
4.840311664133963
 30
0.0
 11
16.32110582087759
 21
6.240311664133997
 31
0.0
  0
LINE
  5
B21
330
9E0
100
AcDbEntity
  8
0
 62
     0
100
AcDbLine
 10
16.52520209798663
 20
6.893420747296516
 30
0.0
 11
18.39117849660274
 21
8.759397145912629
 31
0.0
  0
LINE
  5
B22
330
9E0
100
AcDbEntity
  8
0
 62
     0
100
AcDbLine
 10
14.92110582087755
 20
5.289324470187438
 30
0.0
 11
16.32768541303076
 21
6.695904062340616
 31
0.0
  0
LINE
  5
B23
330
9E0
100
AcDbEntity
  8
0
 62
     0
100
AcDbLine
 10
20.34610582087756
 20
10.71432447018745
 30
0.0
 11
21.2567816901398
 21
11.62500033944968
 31
0.0
  0
LINE
  5
B24
330
9E0
100
AcDbEntity
  8
0
 62
     0
100
AcDbLine
 10
13.20678169013979
 20
3.575000339449644
 30
0.0
 11
13.69610582087761
 21
4.0643244701875
 31
0.0
  0
LINE
  5
B25
330
9E0
100
AcDbEntity
  8
0
 62
     0
100
AcDbLine
 10
14.92110582087755
 20
5.738337276240883
 30
0.0
 11
18.59841517631972
 21
9.415646631683046
 31
0.0
  0
LINE
  5
B26
330
9E0
100
AcDbEntity
  8
0
 62
     0
100
AcDbLine
 10
20.34610582087759
 20
11.16333727624095
 30
0.0
 11
20.80776888408633
 21
11.62500033944968
 31
0.0
  0
LINE
  5
B27
330
9E0
100
AcDbEntity
  8
0
 62
     0
100
AcDbLine
 10
12.75776888408631
 20
3.575000339449672
 30
0.0
 11
13.69610582087761
 21
4.513337276240974
 31
0.0
  0
LINE
  5
B28
330
9E0
100
AcDbEntity
  8
0
 62
     0
100
AcDbLine
 10
14.92110582087755
 20
6.187350082294329
 30
0.0
 11
18.80565185603674
 21
10.07189611745349
 31
0.0
  0
LINE
  5
B29
330
9E0
100
AcDbEntity
  8
0
 62
     0
100
AcDbLine
 10
12.31459639020792
 20
3.580840651624697
 30
0.0
 11
13.62543867907453
 21
4.891682940491278
 31
0.0
  0
LINE
  5
B2A
330
9E0
100
AcDbEntity
  8
0
 62
     0
100
AcDbLine
 10
14.92110582087755
 20
6.636362888347804
 30
0.0
 11
16.58474327197942
 21
8.300000339449667
 31
0.0
  0
LINE
  5
B2B
330
9E0
100
AcDbEntity
  8
0
 62
     0
100
AcDbLine
 10
16.96673468959977
 20
8.681991757070022
 30
0.0
 11
19.01288853575374
 21
10.72814560322396
 31
0.0
  0
LINE
  5
B2C
330
9E0
100
AcDbEntity
  8
0
 62
     0
100
AcDbLine
 10
11.93051613148443
 20
3.645773198954657
 30
0.0
 11
13.25974327197946
 21
4.975000339449678
 31
0.0
  0
LINE
  5
B2D
330
9E0
100
AcDbEntity
  8
0
 62
     0
100
AcDbLine
 10
14.92110582087758
 20
7.085375694401307
 30
0.0
 11
16.33010110623175
 21
8.494370979755444
 31
0.0
  0
LINE
  5
B2E
330
9E0
100
AcDbEntity
  8
0
 62
     0
100
AcDbLine
 10
17.17397136931674
 20
9.338241242840439
 30
0.0
 11
19.20042426165443
 21
11.36469413517815
 31
0.0
  0
LINE
  5
B2F
330
9E0
100
AcDbEntity
  8
0
 62
     0
100
AcDbLine
 10
11.59994900307123
 20
3.764218876594952
 30
0.0
 11
12.81073046592598
 21
4.975000339449707
 31
0.0
  0
LINE
  5
B30
330
9E0
100
AcDbEntity
  8
0
 62
     0
100
AcDbLine
 10
14.92110582087761
 20
7.534388500454724
 30
0.0
 11
16.32110582087761
 21
8.934388500454758
 31
0.0
  0
LINE
  5
B31
330
9E0
100
AcDbEntity
  8
0
 62
     0
100
AcDbLine
 10
17.38120804903371
 20
9.994490728610855
 30
0.0
 11
19.00341832536983
 21
11.61670100494697
 31
0.0
  0
LINE
  5
B32
330
9E0
100
AcDbEntity
  8
0
 62
     0
100
AcDbLine
 10
11.31114736098908
 20
3.924430040566193
 30
0.0
 11
12.36917829023551
 21
4.982460969812649
 31
0.0
  0
LINE
  5
B33
330
9E0
100
AcDbEntity
  8
0
 62
     0
100
AcDbLine
 10
14.92110582087758
 20
7.983401306508199
 30
0.0
 11
16.32110582087761
 21
9.383401306508233
 31
0.0
  0
LINE
  5
B34
330
9E0
100
AcDbEntity
  8
0
 62
     0
100
AcDbLine
 10
17.58844472875071
 20
10.65074021438132
 30
0.0
 11
18.56270485381907
 21
11.62500033944968
 31
0.0
  0
LINE
  5
B35
330
9E0
100
AcDbEntity
  8
0
 62
     0
100
AcDbLine
 10
11.05866987779805
 20
4.120965363428638
 30
0.0
 11
12.05202021972636
 21
5.114315705356943
 31
0.0
  0
LINE
  5
B36
330
9E0
100
AcDbEntity
  8
0
 62
     0
100
AcDbLine
 10
14.92110582087758
 20
8.432414112561644
 30
0.0
 11
16.32110582087761
 21
9.832414112561679
 31
0.0
  0
LINE
  5
B37
330
9E0
100
AcDbEntity
  8
0
 62
     0
100
AcDbLine
 10
13.25192288676584
 20
6.763231178449927
 30
0.0
 11
13.83287498187738
 21
7.344183273561469
 31
0.0
  0
LINE
  5
B38
330
9E0
100
AcDbEntity
  8
0
 62
     0
100
AcDbLine
 10
17.79568140846768
 20
11.30698970015177
 30
0.0
 11
18.11369204776562
 21
11.62500033944971
 31
0.0
  0
LINE
  5
B39
330
9E0
100
AcDbEntity
  8
0
 62
     0
100
AcDbLine
 10
10.84045134113313
 20
4.35175963281722
 30
0.0
 11
11.84689474409026
 21
5.358203035774351
 31
0.0
  0
LINE
  5
B3A
330
9E0
100
AcDbEntity
  8
0
 62
     0
100
AcDbLine
 10
12.78943646595092
 20
6.74975756368849
 30
0.0
 11
13.84634859663882
 21
7.806669694376353
 31
0.0
  0
LINE
  5
B3B
330
9E0
100
AcDbEntity
  8
0
 62
     0
100
AcDbLine
 10
14.92110582087755
 20
8.881426918615119
 30
0.0
 11
16.32110582087759
 21
10.28142691861515
 31
0.0
  0
LINE
  5
B3C
330
9E0
100
AcDbEntity
  8
0
 62
     0
100
AcDbLine
 10
10.65694172866165
 20
4.617262826399183
 30
0.0
 11
11.7711058208776
 21
5.73142691861517
 31
0.0
  0
LINE
  5
B3D
330
9E0
100
AcDbEntity
  8
0
 62
     0
100
AcDbLine
 10
12.48236318124082
 20
6.891697085031779
 30
0.0
 11
13.7044090752955
 21
8.113742979086481
 31
0.0
  0
LINE
  5
B3E
330
9E0
100
AcDbEntity
  8
0
 62
     0
100
AcDbLine
 10
14.92110582087758
 20
9.330439724668565
 30
0.0
 11
16.32110582087761
 21
10.73043972466857
 31
0.0
  0
LINE
  5
B3F
330
9E0
100
AcDbEntity
  8
0
 62
     0
100
AcDbLine
 10
10.51128297369928
 20
4.92061687749026
 30
0.0
 11
11.7711058208776
 21
6.180439724668588
 31
0.0
  0
LINE
  5
B40
330
9E0
100
AcDbEntity
  8
0
 62
     0
100
AcDbLine
 10
12.26338321774596
 20
7.121729927590422
 30
0.0
 11
13.47437623273688
 21
8.332722942581312
 31
0.0
  0
LINE
  5
B41
330
9E0
100
AcDbEntity
  8
0
 62
     0
100
AcDbLine
 10
14.92110582087758
 20
9.779452530722011
 30
0.0
 11
16.32110582087759
 21
11.17945253072204
 31
0.0
  0
LINE
  5
B42
330
9E0
100
AcDbEntity
  8
0
 62
     0
100
AcDbLine
 10
10.41071429161195
 20
5.269061001456407
 30
0.0
 11
11.7711058208776
 21
6.629452530722062
 31
0.0
  0
LINE
  5
B43
330
9E0
100
AcDbEntity
  8
0
 62
     0
100
AcDbLine
 10
12.13535785154178
 20
7.442717367439684
 30
0.0
 11
13.15338879288759
 21
8.460748308785525
 31
0.0
  0
LINE
  5
B44
330
9E0
100
AcDbEntity
  8
0
 62
     0
100
AcDbLine
 10
10.37110582087751
 20
5.678465336775445
 30
0.0
 11
11.7711058208776
 21
7.078465336775508
 31
0.0
  0
LINE
  5
B45
330
9E0
100
AcDbEntity
  8
0
 62
     0
100
AcDbLine
 10
14.92110582087755
 20
10.22846533677548
 30
0.0
 11
16.24248076670005
 21
11.54984028259798
 31
0.0
  0
LINE
  5
B46
330
9E0
100
AcDbEntity
  8
0
 62
     0
100
AcDbLine
 10
8.328107441939778
 20
3.635466957837707
 30
0.0
 11
9.260639202489642
 21
4.56799871838757
 31
0.0
  0
LINE
  5
B47
330
9E0
100
AcDbEntity
  8
0
 62
     0
100
AcDbLine
 10
12.19456439328217
 20
7.950936715233524
 30
0.0
 11
12.64516944509378
 21
8.401541767045131
 31
0.0
  0
LINE
  5
B48
330
9E0
100
AcDbEntity
  8
0
 62
     0
100
AcDbLine
 10
10.37110582087754
 20
6.127478142828891
 30
0.0
 11
11.7711058208776
 21
7.527478142828954
 31
0.0
  0
LINE
  5
B49
330
9E0
100
AcDbEntity
  8
0
 62
     0
100
AcDbLine
 10
14.92110582087758
 20
10.6774781428289
 30
0.0
 11
15.86862801749836
 21
11.62500033944971
 31
0.0
  0
LINE
  5
B4A
330
9E0
100
AcDbEntity
  8
0
 62
     0
100
AcDbLine
 10
7.818628017498298
 20
3.575000339449644
 30
0.0
 11
9.321105820877619
 21
5.077478142828965
 31
0.0
  0
LINE
  5
B4B
330
9E0
100
AcDbEntity
  8
0
 62
     0
100
AcDbLine
 10
10.37110582087754
 20
6.576490948882337
 30
0.0
 11
11.7711058208776
 21
7.976490948882428
 31
0.0
  0
LINE
  5
B4C
330
9E0
100
AcDbEntity
  8
0
 62
     0
100
AcDbLine
 10
14.92110582087755
 20
11.12649094888237
 30
0.0
 11
15.41961521144486
 21
11.62500033944968
 31
0.0
  0
LINE
  5
B4D
330
9E0
100
AcDbEntity
  8
0
 62
     0
100
AcDbLine
 10
7.369615211444852
 20
3.575000339449644
 30
0.0
 11
9.321105820877619
 21
5.52649094888244
 31
0.0
  0
LINE
  5
B4E
330
9E0
100
AcDbEntity
  8
0
 62
     0
100
AcDbLine
 10
10.37110582087751
 20
7.025503754935812
 30
0.0
 11
11.77110582087758
 21
8.425503754935874
 31
0.0
  0
LINE
  5
B4F
330
9E0
100
AcDbEntity
  8
0
 62
     0
100
AcDbLine
 10
6.920602405391377
 20
3.575000339449672
 30
0.0
 11
9.319136144597024
 21
5.973534078655319
 31
0.0
  0
LINE
  5
B50
330
9E0
100
AcDbEntity
  8
0
 62
     0
100
AcDbLine
 10
10.37110582087757
 20
7.474516560989314
 30
0.0
 11
11.7711058208776
 21
8.874516560989349
 31
0.0
  0
LINE
  5
B51
330
9E0
100
AcDbEntity
  8
0
 62
     0
100
AcDbLine
 10
13.12158959933796
 20
10.2250003394497
 30
0.0
 11
13.69610582087764
 21
10.79951656098936
 31
0.0
  0
LINE
  5
B52
330
9E0
100
AcDbEntity
  8
0
 62
     0
100
AcDbLine
 10
6.471589599337931
 20
3.575000339449672
 30
0.0
 11
9.264305226436363
 21
6.367715966548104
 31
0.0
  0
LINE
  5
B53
330
9E0
100
AcDbEntity
  8
0
 62
     0
100
AcDbLine
 10
10.37110582087757
 20
7.92352936704276
 30
0.0
 11
11.7711058208776
 21
9.323529367042766
 31
0.0
  0
LINE
  5
B54
330
9E0
100
AcDbEntity
  8
0
 62
     0
100
AcDbLine
 10
7.921105820877585
 20
5.473529367042772
 30
0.0
 11
9.153135854414301
 21
6.705559400579488
 31
0.0
  0
LINE
  5
B55
330
9E0
100
AcDbEntity
  8
0
 62
     0
100
AcDbLine
 10
12.67257679328452
 20
10.22500033944967
 30
0.0
 11
13.69610582087761
 21
11.2485293670428
 31
0.0
  0
LINE
  5
B56
330
9E0
100
AcDbEntity
  8
0
 62
     0
100
AcDbLine
 10
6.051439730914438
 20
3.603863277079625
 30
0.0
 11
7.42257679328452
 21
4.975000339449678
 31
0.0
  0
LINE
  5
B57
330
9E0
100
AcDbEntity
  8
0
 62
     0
100
AcDbLine
 10
10.37110582087754
 20
8.372542173096206
 30
0.0
 11
11.85401317376744
 21
9.855449525986102
 31
0.0
  0
LINE
  5
B58
330
9E0
100
AcDbEntity
  8
0
 62
     0
100
AcDbLine
 10
7.920026275072984
 20
5.921462627291617
 30
0.0
 11
8.998920087078289
 21
7.00035643929695
 31
0.0
  0
LINE
  5
B59
330
9E0
100
AcDbEntity
  8
0
 62
     0
100
AcDbLine
 10
12.14065663434121
 20
10.14209298655987
 30
0.0
 11
13.57937211341772
 21
11.58080846563635
 31
0.0
  0
LINE
  5
B5A
330
9E0
100
AcDbEntity
  8
0
 62
     0
100
AcDbLine
 10
5.908605820877568
 20
3.910042173096229
 30
0.0
 11
6.973563987231045
 21
4.975000339449707
 31
0.0
  0
LINE
  5
B5B
330
9E0
100
AcDbEntity
  8
0
 62
     0
100
AcDbLine
 10
7.810224765322629
 20
6.260673923594765
 30
0.0
 11
8.80779910465884
 21
7.258248262930976
 31
0.0
  0
LINE
  5
B5C
330
9E0
100
AcDbEntity
  8
0
 62
     0
100
AcDbLine
 10
10.37110582087754
 20
8.821554979149681
 30
0.0
 11
13.17455118117757
 21
11.62500033944971
 31
0.0
  0
LINE
  5
B5D
330
9E0
100
AcDbEntity
  8
0
 62
     0
100
AcDbLine
 10
5.908605820877568
 20
4.359054979149703
 30
0.0
 11
6.524551181177542
 21
4.975000339449678
 31
0.0
  0
LINE
  5
B5E
330
9E0
100
AcDbEntity
  8
0
 62
     0
100
AcDbLine
 10
7.597097351170219
 20
6.496559315495773
 30
0.0
 11
8.587046844831462
 21
7.486508809157015
 31
0.0
  0
LINE
  5
B5F
330
9E0
100
AcDbEntity
  8
0
 62
     0
100
AcDbLine
 10
10.37110582087757
 20
9.270567785203098
 30
0.0
 11
12.72553837512413
 21
11.62500033944968
 31
0.0
  0
LINE
  5
B60
330
9E0
100
AcDbEntity
  8
0
 62
     0
100
AcDbLine
 10
5.943081781887485
 20
4.842543746213038
 30
0.0
 11
6.041062414114293
 21
4.940524378439846
 31
0.0
  0
LINE
  5
B61
330
9E0
100
AcDbEntity
  8
0
 62
     0
100
AcDbLine
 10
10.38109337795586
 20
9.729568148334863
 30
0.0
 11
12.26653801199236
 21
11.61501278237139
 31
0.0
  0
LINE
  5
B62
330
9E0
100
AcDbEntity
  8
0
 62
     0
100
AcDbLine
 10
7.372590948143539
 20
6.721065718522567
 30
0.0
 11
8.362540441804725
 21
7.711015212183752
 31
0.0
  0
LINE
  5
B63
330
9E0
100
AcDbEntity
  8
0
 62
     0
100
AcDbLine
 10
10.53082509408875
 20
10.32831267052125
 30
0.0
 11
11.667793489806
 21
11.4652810662385
 31
0.0
  0
LINE
  5
B64
330
9E0
100
AcDbEntity
  8
0
 62
     0
100
AcDbLine
 10
7.148084545116802
 20
6.945572121549304
 30
0.0
 11
8.138034038777988
 21
7.93552161521049
 31
0.0
  0
LINE
  5
B65
330
9E0
100
AcDbEntity
  8
0
 62
     0
100
AcDbLine
 10
6.923578142090093
 20
7.170078524576013
 30
0.0
 11
7.913527635751279
 21
8.160028018237198
 31
0.0
  0
LINE
  5
B66
330
9E0
100
AcDbEntity
  8
0
 62
     0
100
AcDbLine
 10
6.699071739063356
 20
7.39458492760275
 30
0.0
 11
7.689021232724542
 21
8.384534421263936
 31
0.0
  0
LINE
  5
B67
330
9E0
100
AcDbEntity
  8
0
 62
     0
100
AcDbLine
 10
6.474565336036562
 20
7.61909133062943
 30
0.0
 11
7.464514829697804
 21
8.609040824290673
 31
0.0
  0
LINE
  5
B68
330
9E0
100
AcDbEntity
  8
0
 62
     0
100
AcDbLine
 10
8.631461538803364
 20
10.2250003394497
 30
0.0
 11
9.058605820877545
 21
10.65214462152388
 31
0.0
  0
LINE
  5
B69
330
9E0
100
AcDbEntity
  8
0
 62
     0
100
AcDbLine
 10
6.250100590023947
 20
7.84363939067029
 30
0.0
 11
7.240133411740174
 21
8.833672212386517
 31
0.0
  0
LINE
  5
B6A
330
9E0
100
AcDbEntity
  8
0
 62
     0
100
AcDbLine
 10
8.18244873274989
 20
10.22500033944965
 30
0.0
 11
9.058605820877602
 21
11.10115742757736
 31
0.0
  0
LINE
  5
B6B
330
9E0
100
AcDbEntity
  8
0
 62
     0
100
AcDbLine
 10
6.044366627748161
 20
8.086918234447892
 30
0.0
 11
7.075184971096206
 21
9.117736577795966
 31
0.0
  0
LINE
  5
B6C
330
9E0
100
AcDbEntity
  8
0
 62
     0
100
AcDbLine
 10
7.733435926696472
 20
10.22500033944967
 30
0.0
 11
9.01532637099703
 21
11.50689078375026
 31
0.0
  0
LINE
  5
B6D
330
9E0
100
AcDbEntity
  8
0
 62
     0
100
AcDbLine
 10
5.874136324616927
 20
8.365700737370133
 30
0.0
 11
7.046105820877585
 21
9.537670233630819
 31
0.0
  0
LINE
  5
B6E
330
9E0
100
AcDbEntity
  8
0
 62
     0
100
AcDbLine
 10
7.283189796057911
 20
10.22376701486459
 30
0.0
 11
8.684423120643003
 21
11.62500033944968
 31
0.0
  0
LINE
  5
B6F
330
9E0
100
AcDbEntity
  8
0
 62
     0
100
AcDbLine
 10
5.743789676750878
 20
8.684366895557559
 30
0.0
 11
7.047339145462672
 21
9.987916364269381
 31
0.0
  0
LINE
  5
B70
330
9E0
100
AcDbEntity
  8
0
 62
     0
100
AcDbLine
 10
5.662883695626845
 20
9.052473720486972
 30
0.0
 11
8.235410314589557
 21
11.62500033944968
 31
0.0
  0
LINE
  5
B71
330
9E0
100
AcDbEntity
  8
0
 62
     0
100
AcDbLine
 10
5.646105820877608
 20
9.48470865179118
 30
0.0
 11
7.786397508536083
 21
11.62500033944968
 31
0.0
  0
LINE
  5
B72
330
9E0
100
AcDbEntity
  8
0
 62
     0
100
AcDbLine
 10
5.646105820877579
 20
9.933721457844654
 30
0.0
 11
7.337384702482637
 21
11.62500033944968
 31
0.0
  0
LINE
  5
B73
330
9E0
100
AcDbEntity
  8
0
 62
     0
100
AcDbLine
 10
5.656201826096747
 20
10.39283026911727
 30
0.0
 11
6.878275891210051
 21
11.61490433423057
 31
0.0
  0
ENDBLK
  5
B75
330
9E0
100
AcDbEntity
  8
0
100
AcDbBlockEnd
  0
BLOCK
  5
24E3
330
24E2
100
AcDbEntity
  8
0
100
AcDbBlockBegin
  2
*D2
 70
     1
 10
0.0
 20
0.0
 30
0.0
  3
*D2
  1

  0
LINE
  5
29C8
330
24E2
100
AcDbEntity
  8
SUNPOU
 62
     4
100
AcDbLine
 10
247.0335355906811
 20
55.10943854223272
 30
0.0
 11
247.0335355906811
 21
47.13714600946524
 31
0.0
  0
LINE
  5
29C9
330
24E2
100
AcDbEntity
  8
SUNPOU
 62
     4
100
AcDbLine
 10
153.0359096907566
 20
55.10943854223272
 30
0.0
 11
153.0359096907566
 21
47.13714600946524
 31
0.0
  0
LINE
  5
29CA
330
24E2
100
AcDbEntity
  8
SUNPOU
 62
     4
100
AcDbLine
 10
244.0335355906811
 20
48.63714600946524
 30
0.0
 11
156.0359096907566
 21
48.63714600946524
 31
0.0
  0
MTEXT
  5
29CB
330
24E2
100
AcDbEntity
  8
SUNPOU
 62
     4
100
AcDbMText
 10
207.7863457210942
 20
52.17085065963283
 30
0.0
 40
3.0
 41
0.0
 71
     5
 72
     5
  1
\A1;φ94
 73
     1
 44
1.0
  0
INSERT
  5
29CC
330
24E2
100
AcDbEntity
  8
SUNPOU
 62
     4
100
AcDbBlockReference
  2
_OPEN
 10
247.0335355906811
 20
48.63714600946524
 30
0.0
 41
3.0
 42
3.0
 43
3.0
  0
INSERT
  5
29CD
330
24E2
100
AcDbEntity
  8
SUNPOU
 62
     4
100
AcDbBlockReference
  2
_OPEN
 10
153.0359096907566
 20
48.63714600946524
 30
0.0
 41
3.0
 42
3.0
 43
3.0
 50
180.0
  0
POINT
  5
29CE
330
24E2
100
AcDbEntity
  8
DEFPOINTS
 62
     0
100
AcDbPoint
 10
247.0335355906811
 20
58.10943854223272
 30
0.0
  0
POINT
  5
29CF
330
24E2
100
AcDbEntity
  8
DEFPOINTS
 62
     0
100
AcDbPoint
 10
153.0359096907566
 20
58.10943854223272
 30
0.0
  0
POINT
  5
29D0
330
24E2
100
AcDbEntity
  8
DEFPOINTS
 62
     0
100
AcDbPoint
 10
153.0359096907566
 20
48.63714600946524
 30
0.0
  0
ENDBLK
  5
24E4
330
24E2
100
AcDbEntity
  8
0
100
AcDbBlockEnd
  0
BLOCK
  5
2538
330
2537
100
AcDbEntity
  8
0
100
AcDbBlockBegin
  2
*D3
 70
     1
 10
0.0
 20
0.0
 30
0.0
  3
*D3
  1

  0
LINE
  5
26C1
330
2537
100
AcDbEntity
  8
SUNPOU
100
AcDbLine
 10
225.8853965564572
 20
160.6698684504973
 30
0.0
 11
275.9275013835122
 21
160.6698684504973
 31
0.0
  0
LINE
  5
26C2
330
2537
100
AcDbEntity
  8
SUNPOU
100
AcDbLine
 10
250.5353965560566
 20
20.66986845049731
 30
0.0
 11
275.9275013835122
 21
20.66986845049731
 31
0.0
  0
LINE
  5
26C3
330
2537
100
AcDbEntity
  8
SUNPOU
100
AcDbLine
 10
274.4275013835122
 20
157.6698684504973
 30
0.0
 11
274.4275013835121
 21
23.66986845049731
 31
0.0
  0
INSERT
  5
26C4
330
2537
100
AcDbEntity
  8
SUNPOU
100
AcDbBlockReference
  2
_OPEN
 10
274.4275013835122
 20
160.6698684504973
 30
0.0
 41
3.0
 42
3.0
 43
3.0
 50
90.0
  0
INSERT
  5
26C5
330
2537
100
AcDbEntity
  8
SUNPOU
100
AcDbBlockReference
  2
_OPEN
 10
274.4275013835121
 20
20.66986845049731
 30
0.0
 41
3.0
 42
3.0
 43
3.0
 50
270.0
  0
MTEXT
  5
26C6
330
2537
100
AcDbEntity
  8
SUNPOU
100
AcDbMText
 10
271.9275013835122
 20
90.66986845049738
 30
0.0
 40
3.0
 41
0.0
 71
     5
 72
     5
  1
\A1;140
 11
0.0000000000000001
 21
1.0
 31
0.0
 73
     1
 44
1.0
1001
ACAD
1000
MTEXTBEGIN
1070
    73
1070
     1
1070
    44
1040
1.0
1070
    74
1070
     0
1000
MTEXTEND
1000
MTEXTBEGIN
1070
    73
1070
     1
1070
    44
1040
1.0
1070
    74
1070
     0
1000
MTEXTEND
1000
MTEXTBEGIN
1070
    73
1070
     1
1070
    44
1040
1.0
1070
    74
1070
     0
1000
MTEXTEND
1000
MTEXTBEGIN
1070
    73
1070
     1
1070
    44
1040
1.0
1070
    74
1070
     0
1000
MTEXTEND
1000
MTEXTBEGIN
1070
    73
1070
     1
1070
    44
1040
1.0
1070
    74
1070
     0
1000
MTEXTEND
  0
POINT
  5
26C7
330
2537
100
AcDbEntity
  8
DEFPOINTS
 62
     0
100
AcDbPoint
 10
224.3853965564571
 20
160.6698684504973
 30
0.0
  0
POINT
  5
26C8
330
2537
100
AcDbEntity
  8
DEFPOINTS
 62
     0
100
AcDbPoint
 10
249.0353965560566
 20
20.66986845049731
 30
0.0
  0
POINT
  5
26C9
330
2537
100
AcDbEntity
  8
DEFPOINTS
 62
     0
100
AcDbPoint
 10
274.4275013835121
 20
20.66986845049731
 30
0.0
  0
ENDBLK
  5
2539
330
2537
100
AcDbEntity
  8
0
100
AcDbBlockEnd
  0
BLOCK
  5
2572
330
2571
100
AcDbEntity
  8
0
100
AcDbBlockBegin
  2
*D4
 70
     1
 10
0.0
 20
0.0
 30
0.0
  3
*D4
  1

  0
LINE
  5
26DC
330
2571
100
AcDbEntity
  8
SUNPOU
100
AcDbLine
 10
175.685396555656
 20
162.1698684504973
 30
0.0
 11
175.685396555656
 21
168.4349304914046
 31
0.0
  0
LINE
  5
26DD
330
2571
100
AcDbEntity
  8
SUNPOU
100
AcDbLine
 10
224.3853965564571
 20
162.1698684504973
 30
0.0
 11
224.3853965564571
 21
168.4349304914046
 31
0.0
  0
LINE
  5
26DE
330
2571
100
AcDbEntity
  8
SUNPOU
100
AcDbLine
 10
178.685396555656
 20
166.9349304914046
 30
0.0
 11
221.3853965564571
 21
166.9349304914046
 31
0.0
  0
INSERT
  5
26DF
330
2571
100
AcDbEntity
  8
SUNPOU
100
AcDbBlockReference
  2
_OPEN
 10
175.685396555656
 20
166.9349304914046
 30
0.0
 41
3.0
 42
3.0
 43
3.0
 50
180.0
  0
INSERT
  5
26E0
330
2571
100
AcDbEntity
  8
SUNPOU
100
AcDbBlockReference
  2
_OPEN
 10
224.3853965564571
 20
166.9349304914046
 30
0.0
 41
3.0
 42
3.0
 43
3.0
  0
MTEXT
  5
26E1
330
2571
100
AcDbEntity
  8
SUNPOU
100
AcDbMText
 10
200.0353965560566
 20
169.4349304914046
 30
0.0
 40
3.0
 41
0.0
 71
     5
 72
     5
  1
\A1;49
 73
     1
 44
1.0
1001
ACAD
1000
MTEXTBEGIN
1070
    73
1070
     1
1070
    44
1040
1.0
1070
    74
1070
     0
1000
MTEXTEND
1000
MTEXTBEGIN
1070
    73
1070
     1
1070
    44
1040
1.0
1070
    74
1070
     0
1000
MTEXTEND
1000
MTEXTBEGIN
1070
    73
1070
     1
1070
    44
1040
1.0
1070
    74
1070
     0
1000
MTEXTEND
1000
MTEXTBEGIN
1070
    73
1070
     1
1070
    44
1040
1.0
1070
    74
1070
     0
1000
MTEXTEND
1000
MTEXTBEGIN
1070
    73
1070
     1
1070
    44
1040
1.0
1070
    74
1070
     0
1000
MTEXTEND
  0
POINT
  5
26E2
330
2571
100
AcDbEntity
  8
DEFPOINTS
 62
     0
100
AcDbPoint
 10
175.685396555656
 20
160.6698684504973
 30
0.0
  0
POINT
  5
26E3
330
2571
100
AcDbEntity
  8
DEFPOINTS
 62
     0
100
AcDbPoint
 10
224.3853965564571
 20
160.6698684504973
 30
0.0
  0
POINT
  5
26E4
330
2571
100
AcDbEntity
  8
DEFPOINTS
 62
     0
100
AcDbPoint
 10
224.3853965564571
 20
166.9349304914046
 30
0.0
  0
ENDBLK
  5
2573
330
2571
100
AcDbEntity
  8
0
100
AcDbBlockEnd
  0
BLOCK
  5
2591
330
2590
100
AcDbEntity
  8
0
100
AcDbBlockBegin
  2
*D5
 70
     1
 10
0.0
 20
0.0
 30
0.0
  3
*D5
  1

  0
LINE
  5
26AF
330
2590
100
AcDbEntity
  8
SUNPOU
100
AcDbLine
 10
151.0355476323306
 20
61.253544264027
 30
0.0
 11
151.0355476323306
 21
82.18378339370961
 31
0.0
  0
LINE
  5
26B0
330
2590
100
AcDbEntity
  8
SUNPOU
100
AcDbLine
 10
249.0355476323307
 20
61.25354426402697
 30
0.0
 11
249.0355476323307
 21
82.18378339370961
 31
0.0
  0
LINE
  5
26B1
330
2590
100
AcDbEntity
  8
SUNPOU
100
AcDbLine
 10
154.0355476323306
 20
80.6837833937096
 30
0.0
 11
246.0355476323306
 21
80.6837833937096
 31
0.0
  0
INSERT
  5
26B2
330
2590
100
AcDbEntity
  8
SUNPOU
100
AcDbBlockReference
  2
_OPEN
 10
151.0355476323306
 20
80.6837833937096
 30
0.0
 41
3.0
 42
3.0
 43
3.0
 50
180.0
  0
INSERT
  5
26B3
330
2590
100
AcDbEntity
  8
SUNPOU
100
AcDbBlockReference
  2
_OPEN
 10
249.0355476323307
 20
80.6837833937096
 30
0.0
 41
3.0
 42
3.0
 43
3.0
  0
MTEXT
  5
26B4
330
2590
100
AcDbEntity
  8
SUNPOU
100
AcDbMText
 10
200.0355476323306
 20
83.1837833937096
 30
0.0
 40
3.0
 41
0.0
 71
     5
 72
     5
  1
\A1;φ98
 73
     1
 44
1.0
1001
ACAD
1000
MTEXTBEGIN
1070
    73
1070
     1
1070
    44
1040
1.0
1070
    74
1070
     0
1000
MTEXTEND
1000
MTEXTBEGIN
1070
    73
1070
     1
1070
    44
1040
1.0
1070
    74
1070
     0
1000
MTEXTEND
1000
MTEXTBEGIN
1070
    73
1070
     1
1070
    44
1040
1.0
1070
    74
1070
     0
1000
MTEXTEND
1000
MTEXTBEGIN
1070
    73
1070
     1
1070
    44
1040
1.0
1070
    74
1070
     0
1000
MTEXTEND
1000
MTEXTBEGIN
1070
    73
1070
     1
1070
    44
1040
1.0
1070
    74
1070
     0
1000
MTEXTEND
  0
POINT
  5
26B5
330
2590
100
AcDbEntity
  8
DEFPOINTS
 62
     0
100
AcDbPoint
 10
151.0355476323306
 20
59.753544264027
 30
0.0
  0
POINT
  5
26B6
330
2590
100
AcDbEntity
  8
DEFPOINTS
 62
     0
100
AcDbPoint
 10
249.0355476323307
 20
59.75354426402697
 30
0.0
  0
POINT
  5
26B7
330
2590
100
AcDbEntity
  8
DEFPOINTS
 62
     0
100
AcDbPoint
 10
249.0355476323307
 20
80.6837833937096
 30
0.0
  0
ENDBLK
  5
2592
330
2590
100
AcDbEntity
  8
0
100
AcDbBlockEnd
  0
BLOCK
  5
270E
330
2708
100
AcDbEntity
  8
0
100
AcDbBlockBegin
  2
*D6
 70
     1
 10
0.0
 20
0.0
 30
0.0
  3
*D6
  1

  0
LINE
  5
29D3
330
2708
100
AcDbEntity
  8
SUNPOU
100
AcDbLine
 10
159.3577633824666
 20
201.2131015179209
 30
0.0
 11
240.713029729647
 21
244.1702969289273
 31
0.0
  0
MTEXT
  5
29D4
330
2708
100
AcDbEntity
  8
SUNPOU
100
AcDbMText
 10
229.7315496676738
 20
241.9894135623788
 30
0.0
 40
3.0
 41
0.0
 71
     5
 72
     5
  1
\A1;\U+220598
 11
0.8842963733389145
 21
0.4669260370761554
 31
0.0
 73
     1
 44
1.0
  0
INSERT
  5
29D5
330
2708
100
AcDbEntity
  8
SUNPOU
100
AcDbBlockReference
  2
_OPEN
 10
156.7048742624499
 20
199.8123234066924
 30
0.0
 41
3.0
 42
3.0
 43
3.0
 50
207.8349432429992
  0
INSERT
  5
29D6
330
2708
100
AcDbEntity
  8
SUNPOU
100
AcDbBlockReference
  2
_OPEN
 10
243.3659188496636
 20
245.5710750401558
 30
0.0
 41
3.0
 42
3.0
 43
3.0
 50
27.83494324299919
  0
POINT
  5
29D7
330
2708
100
AcDbEntity
  8
DEFPOINTS
 62
     0
100
AcDbPoint
 10
243.3659188496636
 20
245.5710750401558
 30
0.0
  0
POINT
  5
29D8
330
2708
100
AcDbEntity
  8
DEFPOINTS
 62
     0
100
AcDbPoint
 10
156.7048742624499
 20
199.8123234066924
 30
0.0
  0
ENDBLK
  5
270F
330
2708
100
AcDbEntity
  8
0
100
AcDbBlockEnd
  0
BLOCK
  5
273C
330
2732
100
AcDbEntity
  8
0
100
AcDbBlockBegin
  2
*D7
 70
     1
 10
0.0
 20
0.0
 30
0.0
  3
*D7
  1

  0
LINE
  5
2747
330
2732
100
AcDbEntity
  8
SUNPOU
100
AcDbLine
 10
250.5353965557384
 20
20.67004772306889
 30
0.0
 11
268.1061998069956
 21
20.670110098575
 31
0.0
  0
LINE
  5
2748
330
2732
100
AcDbEntity
  8
SUNPOU
100
AcDbLine
 10
250.5352616575657
 20
58.67004772282945
 30
0.0
 11
268.106064908824
 21
58.67011009833556
 31
0.0
  0
LINE
  5
2749
330
2732
100
AcDbEntity
  8
SUNPOU
100
AcDbLine
 10
266.6061891571494
 20
23.67010477362828
 30
0.0
 11
266.6060755586891
 21
55.67010477342664
 31
0.0
  0
INSERT
  5
274A
330
2732
100
AcDbEntity
  8
SUNPOU
100
AcDbBlockReference
  2
_OPEN
 10
266.6061998070051
 20
20.67010477364718
 30
0.0
 41
3.0
 42
3.0
 43
3.0
 50
270.0002033972604
  0
INSERT
  5
274B
330
2732
100
AcDbEntity
  8
SUNPOU
100
AcDbBlockReference
  2
_OPEN
 10
266.6060649088334
 20
58.67010477340773
 30
0.0
 41
3.0
 42
3.0
 43
3.0
 50
90.00020339726045
  0
MTEXT
  5
274C
330
2732
100
AcDbEntity
  8
SUNPOU
100
AcDbMText
 10
269.1061323579035
 20
39.67011364840719
 30
0.0
 40
3.0
 41
0.0
 71
     5
 72
     5
  1
\A1;※38
 11
0.0000035499518845
 21
-0.9999999999936989
 31
0.0
 73
     1
 44
1.0
1001
ACAD
1000
MTEXTBEGIN
1070
    73
1070
     1
1070
    44
1040
1.0
1070
    74
1070
     0
1000
MTEXTEND
1000
MTEXTBEGIN
1070
    73
1070
     1
1070
    44
1040
1.0
1070
    74
1070
     0
1000
MTEXTEND
1000
MTEXTBEGIN
1070
    73
1070
     1
1070
    44
1040
1.0
1070
    74
1070
     0
1000
MTEXTEND
1000
MTEXTBEGIN
1070
    73
1070
     1
1070
    44
1040
1.0
1070
    74
1070
     0
1000
MTEXTEND
1000
MTEXTBEGIN
1070
    73
1070
     1
1070
    44
1040
1.0
1070
    74
1070
     0
1000
MTEXTEND
  0
POINT
  5
274D
330
2732
100
AcDbEntity
  8
DEFPOINTS
 62
     0
100
AcDbPoint
 10
249.0353965557479
 20
20.67004239814106
 30
0.0
  0
POINT
  5
274E
330
2732
100
AcDbEntity
  8
DEFPOINTS
 62
     0
100
AcDbPoint
 10
249.0352616575751
 20
58.67004239790162
 30
0.0
  0
POINT
  5
274F
330
2732
100
AcDbEntity
  8
DEFPOINTS
 62
     0
100
AcDbPoint
 10
266.6060649088334
 20
58.67010477340773
 30
0.0
  0
ENDBLK
  5
273D
330
2732
100
AcDbEntity
  8
0
100
AcDbBlockEnd
  0
BLOCK
  5
275B
330
2751
100
AcDbEntity
  8
0
100
AcDbBlockBegin
  2
*D8
 70
     1
 10
0.0
 20
0.0
 30
0.0
  3
*D8
  1

  0
LINE
  5
2785
330
2751
100
AcDbEntity
  8
SUNPOU
100
AcDbLine
 10
175.6853965557579
 20
200.8416739593268
 30
0.0
 11
175.6853965557579
 21
182.3793121605947
 31
0.0
  0
LINE
  5
2786
330
2751
100
AcDbEntity
  8
SUNPOU
100
AcDbLine
 10
224.3853965564571
 20
200.8416739593268
 30
0.0
 11
224.3853965564571
 21
182.3793121605947
 31
0.0
  0
LINE
  5
2787
330
2751
100
AcDbEntity
  8
SUNPOU
100
AcDbLine
 10
178.6853965557579
 20
183.8793121605947
 30
0.0
 11
221.3853965564571
 21
183.8793121605947
 31
0.0
  0
INSERT
  5
2788
330
2751
100
AcDbEntity
  8
SUNPOU
100
AcDbBlockReference
  2
_OPEN
 10
175.6853965557579
 20
183.8793121605947
 30
0.0
 41
3.0
 42
3.0
 43
3.0
 50
180.0
  0
INSERT
  5
2789
330
2751
100
AcDbEntity
  8
SUNPOU
100
AcDbBlockReference
  2
_OPEN
 10
224.3853965564571
 20
183.8793121605947
 30
0.0
 41
3.0
 42
3.0
 43
3.0
  0
MTEXT
  5
278A
330
2751
100
AcDbEntity
  8
SUNPOU
100
AcDbMText
 10
200.0353965561075
 20
186.3793121605947
 30
0.0
 40
3.0
 41
0.0
 71
     5
 72
     5
  1
\A1;\U+25A149
 73
     1
 44
1.0
1001
ACAD
1000
MTEXTBEGIN
1070
    73
1070
     1
1070
    44
1040
1.0
1070
    74
1070
     0
1000
MTEXTEND
1000
MTEXTBEGIN
1070
    73
1070
     1
1070
    44
1040
1.0
1070
    74
1070
     0
1000
MTEXTEND
1000
MTEXTBEGIN
1070
    73
1070
     1
1070
    44
1040
1.0
1070
    74
1070
     0
1000
MTEXTEND
1000
MTEXTBEGIN
1070
    73
1070
     1
1070
    44
1040
1.0
1070
    74
1070
     0
1000
MTEXTEND
1000
MTEXTBEGIN
1070
    73
1070
     1
1070
    44
1040
1.0
1070
    74
1070
     0
1000
MTEXTEND
  0
POINT
  5
278B
330
2751
100
AcDbEntity
  8
DEFPOINTS
 62
     0
100
AcDbPoint
 10
175.6853965557579
 20
202.3416739593268
 30
0.0
  0
POINT
  5
278C
330
2751
100
AcDbEntity
  8
DEFPOINTS
 62
     0
100
AcDbPoint
 10
224.3853965564571
 20
202.3416739593268
 30
0.0
  0
POINT
  5
278D
330
2751
100
AcDbEntity
  8
DEFPOINTS
 62
     0
100
AcDbPoint
 10
224.3853965564571
 20
183.8793121605947
 30
0.0
  0
ENDBLK
  5
275C
330
2751
100
AcDbEntity
  8
0
100
AcDbBlockEnd
  0
BLOCK
  5
2768
330
275E
100
AcDbEntity
  8
0
100
AcDbBlockBegin
  2
*D9
 70
     1
 10
0.0
 20
0.0
 30
0.0
  3
*D9
  1

  0
LINE
  5
278E
330
275E
100
AcDbEntity
  8
SUNPOU
100
AcDbLine
 10
221.3853965564571
 20
197.8416739593268
 30
0.0
 11
221.3853965564571
 21
189.3702120221293
 31
0.0
  0
LINE
  5
278F
330
275E
100
AcDbEntity
  8
SUNPOU
100
AcDbLine
 10
178.6853965557579
 20
197.8416739593268
 30
0.0
 11
178.6853965557579
 21
189.3702120221293
 31
0.0
  0
LINE
  5
2790
330
275E
100
AcDbEntity
  8
SUNPOU
100
AcDbLine
 10
218.3853965564571
 20
190.8702120221294
 30
0.0
 11
181.6853965557579
 21
190.8702120221294
 31
0.0
  0
INSERT
  5
2791
330
275E
100
AcDbEntity
  8
SUNPOU
100
AcDbBlockReference
  2
_OPEN
 10
221.3853965564571
 20
190.8702120221294
 30
0.0
 41
3.0
 42
3.0
 43
3.0
  0
INSERT
  5
2792
330
275E
100
AcDbEntity
  8
SUNPOU
100
AcDbBlockReference
  2
_OPEN
 10
178.6853965557579
 20
190.8702120221294
 30
0.0
 41
3.0
 42
3.0
 43
3.0
 50
180.0
  0
MTEXT
  5
2793
330
275E
100
AcDbEntity
  8
SUNPOU
100
AcDbMText
 10
200.0353965561075
 20
193.3702120221294
 30
0.0
 40
3.0
 41
0.0
 71
     5
 72
     5
  1
\A1;\U+25A143
 73
     1
 44
1.0
1001
ACAD
1000
MTEXTBEGIN
1070
    73
1070
     1
1070
    44
1040
1.0
1070
    74
1070
     0
1000
MTEXTEND
1000
MTEXTBEGIN
1070
    73
1070
     1
1070
    44
1040
1.0
1070
    74
1070
     0
1000
MTEXTEND
1000
MTEXTBEGIN
1070
    73
1070
     1
1070
    44
1040
1.0
1070
    74
1070
     0
1000
MTEXTEND
1000
MTEXTBEGIN
1070
    73
1070
     1
1070
    44
1040
1.0
1070
    74
1070
     0
1000
MTEXTEND
1000
MTEXTBEGIN
1070
    73
1070
     1
1070
    44
1040
1.0
1070
    74
1070
     0
1000
MTEXTEND
  0
POINT
  5
2794
330
275E
100
AcDbEntity
  8
DEFPOINTS
 62
     0
100
AcDbPoint
 10
221.3853965564571
 20
199.3416739593268
 30
0.0
  0
POINT
  5
2795
330
275E
100
AcDbEntity
  8
DEFPOINTS
 62
     0
100
AcDbPoint
 10
178.6853965557579
 20
199.3416739593268
 30
0.0
  0
POINT
  5
2796
330
275E
100
AcDbEntity
  8
DEFPOINTS
 62
     0
100
AcDbPoint
 10
178.6853965557579
 20
190.8702120221294
 30
0.0
  0
ENDBLK
  5
2769
330
275E
100
AcDbEntity
  8
0
100
AcDbBlockEnd
  0
ENDSEC
  0
SECTION
  2
ENTITIES
  0
LINE
  5
577
330
1A
100
AcDbEntity
  8
ZUWAKU
100
AcDbLine
 10
104.323300388521
 20
7.600000339449703
 30
0.0
 11
223.7121817289827
 21
7.600000339449699
 31
0.0
  0
LINE
  5
578
330
1A
100
AcDbEntity
  8
ZUWAKU
100
AcDbLine
 10
104.323300388521
 20
7.800000339449701
 30
0.0
 11
223.7121817289827
 21
7.800000339449704
 31
0.0
  0
LINE
  5
579
330
1A
100
AcDbEntity
  8
ZUWAKU
100
AcDbLine
 10
104.323300388521
 20
7.700000339449701
 30
0.0
 11
223.7121817289827
 21
7.700000339449701
 31
0.0
  0
LINE
  5
57A
330
1A
100
AcDbEntity
  8
ZUWAKU
100
AcDbLine
 10
-0.0000002565129762
 20
15.40000033944969
 30
0.0
 11
398.6999997434869
 21
15.40000033944969
 31
0.0
  0
LINE
  5
57B
330
1A
100
AcDbEntity
  8
ZUWAKU
100
AcDbLine
 10
-0.0000002565129762
 20
15.30000033944968
 30
0.0
 11
398.6999997434869
 21
15.30000033944968
 31
0.0
  0
LINE
  5
57C
330
1A
100
AcDbEntity
  8
ZUWAKU
100
AcDbLine
 10
-0.0000002565129762
 20
15.20000033944968
 30
0.0
 11
398.6999997434869
 21
15.20000033944968
 31
0.0
  0
LINE
  5
57D
330
1A
100
AcDbEntity
  8
ZUWAKU
100
AcDbLine
 10
-0.0000002565129762
 20
15.10000033944968
 30
0.0
 11
398.6999997434869
 21
15.10000033944968
 31
0.0
  0
LINE
  5
57E
330
1A
100
AcDbEntity
  8
ZUWAKU
100
AcDbLine
 10
-0.0000002565129762
 20
15.00000033944968
 30
0.0
 11
398.6999997434869
 21
15.00000033944968
 31
0.0
  0
LWPOLYLINE
  5
57F
330
1A
100
AcDbEntity
  8
ZUWAKU
100
AcDbPolyline
 90
        4
 70
     1
 43
0.0
 10
0.0999997434869897
 20
275.7000003394497
 10
0.0999997434869897
 20
0.1000003394497071
 10
398.6999997434869
 20
0.1000003394497186
 10
398.699999743487
 20
275.7000003394497
  0
LWPOLYLINE
  5
580
330
1A
100
AcDbEntity
  8
ZUWAKU
100
AcDbPolyline
 90
        4
 70
     1
 43
0.0
 10
0.2999997434869783
 20
275.5000003394497
 10
0.2999997434869783
 20
0.3000003394496957
 10
398.4999997434871
 20
0.3000003394497188
 10
398.499999743487
 20
275.5000003394497
  0
LWPOLYLINE
  5
581
330
1A
100
AcDbEntity
  8
ZUWAKU
100
AcDbPolyline
 90
        4
 70
     1
 43
0.0
 10
-0.0000002565129762
 20
275.8000003394497
 10
-0.0000002565129762
 20
0.0000003394496844
 10
398.799999743487
 20
0.0000003394497181
 10
398.799999743487
 20
275.8000003394497
  0
LWPOLYLINE
  5
582
330
1A
100
AcDbEntity
  8
ZUWAKU
100
AcDbPolyline
 90
        4
 70
     1
 43
0.0
 10
0.1999997434870124
 20
275.6000003394496
 10
0.1999997434870124
 20
0.2000003394497298
 10
398.599999743487
 20
0.2000003394497183
 10
398.599999743487
 20
275.6000003394496
  0
LWPOLYLINE
  5
583
330
1A
100
AcDbEntity
  8
ZUWAKU
100
AcDbPolyline
 90
        4
 70
     1
 43
0.0
 10
0.3999997434870011
 20
275.4000003394497
 10
0.3999997434870011
 20
0.4000003394497185
 10
398.399999743487
 20
0.4000003394497185
 10
398.399999743487
 20
275.4000003394497
  0
TEXT
  5
584
330
1A
100
AcDbEntity
  8
moji
100
AcDbText
 10
42.57146401157899
 20
6.520756676719145
 30
0.0
 40
3.0
  1
たてとい ユニシェイプ ＵＳＴ４２
 41
0.9
  7
MSｺﾞｼｯｸ
100
AcDbText
  0
INSERT
  5
585
330
1A
100
AcDbEntity
  8
ZUWAKU
  6
Continuous
100
AcDbBlockReference
  2
*X1
 10
0.0
 20
0.0
 30
0.0
1001
ACAD
1000
HATCH
1002
{
1070
    19
1000
ANSI37
1040
0.1
1040
0.0
1000
R14_HATCH_DATA
1000
585
1011
1.0
1021
0.0
1031
0.0
1011
0.0
1021
1.0
1031
0.0
1011
0.0
1021
0.0
1031
1.0
1040
0.0
1010
0.0
1020
0.0
1030
1.0
1000
ANSI37
1070
     0
1070
     0
1071
        8
1071
        7
1070
     1
1070
     1
1071
       24
1040
7.251131074046952
1040
8.822424579941475
1040
-0.1989123673796348
1040
7.046105820877585
1040
9.317399326772001
1040
0.0
1040
7.046105820877585
1040
9.96250033944969
1040
-0.4142135623730912
1040
7.308605820877573
1040
10.22500033944968
1040
0.0
1040
8.796105820877528
1040
10.22500033944968
1040
0.4142135623731546
1040
9.058605820877573
1040
10.48750033944968
1040
0.0
1040
9.058605820877573
1040
11.36250033944968
1040
0.4142135623731586
1040
8.796105820877528
1040
11.62500033944968
1040
0.0
1040
7.046105820877585
1040
11.62500033944968
1040
0.4142135623730928
1040
5.646105820877608
1040
10.2250003394497
1040
0.0
1040
5.646105820877608
1040
9.317399326772065
1040
0.1989123673796619
1040
6.261181580385823
1040
7.832475086280261
1040
0.0
1040
7.716080567708161
1040
6.377576098957932
1040
-0.1989123673796613
1040
7.921105820877585
1040
5.882601352127339
1040
0.0
1040
7.921105820877585
1040
5.237500339449681
1040
-0.4142135623730911
1040
7.658605820877596
1040
4.975000339449685
1040
0.0
1040
6.171105820877642
1040
4.975000339449685
1040
0.4142135623731526
1040
5.908605820877596
1040
4.712500339449691
1040
0.0
1040
5.908605820877596
1040
3.837500339449681
1040
0.4142135623731526
1040
6.171105820877642
1040
3.575000339449687
1040
0.0
1040
7.921105820877585
1040
3.575000339449687
1040
0.4142135623731044
1040
9.321105820877619
1040
4.975000339449675
1040
0.0
1040
9.321105820877619
1040
5.882601352127311
1040
0.1989123673796604
1040
8.706030061369347
1040
7.367525592619081
1040
0.0
1071
        0
1071
        7
1070
     1
1070
     1
1071
       16
1040
11.7711058208776
1040
9.52500033944969
1040
-0.4142135623730935
1040
12.47110582087759
1040
10.22500033944968
1040
0.0
1040
13.43360582087757
1040
10.22500033944968
1040
0.4142135623731546
1040
13.69610582087761
1040
10.48750033944968
1040
0.0
1040
13.69610582087761
1040
11.36250033944968
1040
0.4142135623730951
1040
13.43360582087763
1040
11.62500033944968
1040
0.0
1040
12.47110582087754
1040
11.62500033944966
1040
0.4142135623730892
1040
10.37110582087757
1040
9.525000339449654
1040
0.0
1040
10.37110582087757
1040
5.675000339449699
1040
0.4142135623730969
1040
12.47110582087759
1040
3.575000339449687
1040
0.0
1040
13.43360582087757
1040
3.575000339449687
1040
0.4142135623731526
1040
13.69610582087761
1040
3.837500339449681
1040
0.0
1040
13.69610582087761
1040
4.712500339449691
1040
0.4142135623730891
1040
13.43360582087763
1040
4.975000339449685
1040
0.0
1040
12.47110582087759
1040
4.975000339449685
1040
-0.4142135623730928
1040
11.7711058208776
1040
5.675000339449679
1040
0.0
1071
        0
1071
        7
1070
     1
1070
     1
1071
        2
1040
12.12110582087757
1040
7.600000339449685
1040
1.0
1040
13.87110582087757
1040
7.600000339449685
1040
1.0
1071
        0
1071
        7
1070
     1
1070
     1
1071
       26
1040
18.65742906196658
1040
9.602523936231399
1040
0.0
1040
19.18824887853548
1040
11.28345335536619
1040
0.5069206636600134
1040
18.93793342893781
1040
11.62500033944968
1040
0.0
1040
18.08848873913319
1040
11.62500033944968
1040
0.3272098845218764
1040
17.83817328953551
1040
11.44154732353317
1040
0.0
1040
16.90403835221963
1040
8.483453355366226
1040
-0.3272098845219541
1040
16.65372290262189
1040
8.300000339449685
1040
0.0
1040
16.58360582087766
1040
8.300000339449685
1040
-0.4142135623731526
1040
16.32110582087761
1040
8.562500339449679
1040
0.0
1040
16.32110582087761
1040
11.36250033944968
1040
0.4142135623730951
1040
16.05860582087763
1040
11.62500033944968
1040
0.0
1040
15.18360582087757
1040
11.62500033944968
1040
0.4142135623730871
1040
14.92110582087758
1040
11.36250033944969
1040
0.0
1040
14.92110582087758
1040
3.837500339449681
1040
0.4142135623730891
1040
15.18360582087757
1040
3.575000339449687
1040
0.0
1040
16.05860582087757
1040
3.575000339449687
1040
0.4142135623731526
1040
16.32110582087761
1040
3.837500339449681
1040
0.0
1040
16.32110582087761
1040
6.637500339449692
1040
-0.4142135623731526
1040
16.58360582087766
1040
6.900000339449686
1040
0.0
1040
16.65372290262195
1040
6.900000339449686
1040
-0.3272098845218915
1040
16.90403835221963
1040
6.716547323533148
1040
0.0
1040
17.83817328953551
1040
3.758453355366222
1040
0.3272098845218902
1040
18.08848873913319
1040
3.575000339449687
1040
0.0
1040
18.93793342893781
1040
3.575000339449687
1040
0.5069206636600335
1040
19.18824887853548
1040
3.91654732353319
1040
0.0
1040
18.02505318929866
1040
7.600000339449755
1040
0.0
1071
        0
1071
        7
1070
     1
1070
     1
1071
        8
1040
21.74610582087757
1040
11.36250033944969
1040
0.4142135623731546
1040
21.48360582087752
1040
11.62500033944968
1040
0.0
1040
20.60860582087764
1040
11.62500033944968
1040
0.4142135623731507
1040
20.34610582087759
1040
11.36250033944969
1040
0.0
1040
20.34610582087759
1040
3.837500339449681
1040
0.4142135623731526
1040
20.60860582087764
1040
3.575000339449687
1040
0.0
1040
21.48360582087752
1040
3.575000339449687
1040
0.4142135623731526
1040
21.74610582087757
1040
3.837500339449681
1040
0.0
1071
        0
1071
        7
1070
     1
1070
     1
1071
       24
1040
24.19610582087762
1040
9.96250033944969
1040
-0.4142135623731546
1040
24.45860582087766
1040
10.22500033944968
1040
0.0
1040
25.94610582087762
1040
10.22500033944968
1040
0.4142135623730911
1040
26.20860582087761
1040
10.48750033944968
1040
0.0
1040
26.20860582087761
1040
11.36250033944968
1040
0.4142135623730952
1040
25.94610582087762
1040
11.62500033944968
1040
0.0
1040
24.19610582087762
1040
11.62500033944968
1040
0.4142135623731048
1040
22.79610582087758
1040
10.2250003394497
1040
0.0
1040
22.79610582087758
1040
9.317399326772065
1040
0.1989123673796613
1040
23.41118158038586
1040
7.83247508628029
1040
0.0
1040
24.86608056770819
1040
6.377576098957955
1040
-0.1989123673796402
1040
25.07110582087761
1040
5.882601352127419
1040
0.0
1040
25.07110582087761
1040
5.237500339449681
1040
-0.4142135623730911
1040
24.80860582087763
1040
4.975000339449685
1040
0.0
1040
23.32110582087762
1040
4.975000339449685
1040
0.4142135623731526
1040
23.05860582087757
1040
4.712500339449691
1040
0.0
1040
23.05860582087757
1040
3.837500339449681
1040
0.4142135623730891
1040
23.32110582087756
1040
3.575000339449687
1040
0.0
1040
25.07110582087761
1040
3.575000339449687
1040
0.4142135623730925
1040
26.47110582087759
1040
4.975000339449675
1040
0.0
1040
26.47110582087759
1040
5.882601352127311
1040
0.1989123673796675
1040
25.85603006136932
1040
7.367525592619138
1040
0.0
1040
24.40113107404704
1040
8.822424579941396
1040
-0.1989123673796652
1040
24.19610582087762
1040
9.31739932677198
1040
0.0
1071
        0
1071
        7
1070
     1
1070
     1
1071
       16
1040
28.92110582087758
1040
11.36250033944968
1040
0.414213562373103
1040
28.65860582087759
1040
11.62500033944968
1040
0.0
1040
27.78360582087759
1040
11.62500033944968
1040
0.4142135623730871
1040
27.52110582087761
1040
11.36250033944969
1040
0.0
1040
27.52110582087761
1040
4.975000339449675
1040
0.4142135623730926
1040
28.92110582087758
1040
3.575000339449687
1040
0.0
1040
30.67110582087758
1040
3.575000339449687
1040
0.4142135623731044
1040
32.07110582087762
1040
4.975000339449675
1040
0.0
1040
32.07110582087762
1040
11.36250033944968
1040
0.4142135623730951
1040
31.80860582087763
1040
11.62500033944968
1040
0.0
1040
30.93360582087757
1040
11.62500033944968
1040
0.4142135623730871
1040
30.67110582087758
1040
11.36250033944969
1040
0.0
1040
30.67110582087758
1040
5.500000339449673
1040
-0.414213562373088
1040
30.1461058208776
1040
4.975000339449685
1040
0.0
1040
29.44610582087761
1040
4.975000339449685
1040
-0.4142135623731197
1040
28.92110582087758
1040
5.500000339449673
1040
0.0
1071
        0
1071
        7
1070
     1
1070
     1
1071
        8
1040
34.5211058208776
1040
11.36250033944969
1040
0.4142135623730871
1040
34.25860582087762
1040
11.62500033944968
1040
0.0
1040
33.38360582087762
1040
11.62500033944968
1040
0.4142135623731507
1040
33.12110582087757
1040
11.36250033944969
1040
0.0
1040
33.12110582087757
1040
3.837500339449681
1040
0.4142135623730891
1040
33.38360582087756
1040
3.575000339449687
1040
0.0
1040
34.25860582087762
1040
3.575000339449687
1040
0.4142135623730891
1040
34.5211058208776
1040
3.837500339449681
1040
0.0
1071
        0
1070
     0
1070
     1
1040
0.0
1040
0.1
1070
     0
1070
     2
1040
0.7853981633974483
1040
-450.4711524238524
1040
-6.599999660550281
1040
-0.2245064030267288
1040
0.2245064030267288
1070
     0
1040
2.356194490192344
1040
-450.4711524238524
1040
-6.599999660550281
1040
-0.2245064030267288
1040
-0.2245064030267288
1070
     0
1040
0.057451373970553
1071
        8
1040
8.039927224998677
1040
7.583587162392461
1040
0.0
1040
11.2022572467066
1040
9.42203143067519
1040
0.0
1040
12.58218368631685
1040
7.755941162485044
1040
0.0
1040
15.45702973430559
1040
8.100649162670435
1040
0.0
1040
20.91923575296539
1040
8.330455296441243
1040
0.0
1040
23.44910019105179
1040
9.70928849765329
1040
0.0
1040
28.2788427296872
1040
9.364579296997192
1040
0.0
1040
33.91353955329839
1040
9.594385430767999
1040
0.0
1002
}
  0
LINE
  5
586
330
1A
100
AcDbEntity
  8
ZUWAKU
100
AcDbLine
 10
12.47110582087759
 20
11.62500033944966
 30
0.0
 11
13.43360582087757
 21
11.62500033944968
 31
0.0
  0
LINE
  5
587
330
1A
100
AcDbEntity
  8
ZUWAKU
100
AcDbLine
 10
13.43360582087757
 20
10.22500033944968
 30
0.0
 11
12.47110582087759
 21
10.22500033944968
 31
0.0
  0
LINE
  5
588
330
1A
100
AcDbEntity
  8
ZUWAKU
100
AcDbLine
 10
12.47110582087759
 20
4.975000339449685
 30
0.0
 11
13.43360582087757
 21
4.975000339449685
 31
0.0
  0
LINE
  5
589
330
1A
100
AcDbEntity
  8
ZUWAKU
100
AcDbLine
 10
13.43360582087757
 20
3.575000339449687
 30
0.0
 11
12.47110582087759
 21
3.575000339449687
 31
0.0
  0
CIRCLE
  5
58A
330
1A
100
AcDbEntity
  8
ZUWAKU
100
AcDbCircle
 10
12.99610582087757
 20
7.600000339449685
 30
0.0
 40
0.875
  0
ARC
  5
58B
330
1A
100
AcDbEntity
  8
ZUWAKU
100
AcDbCircle
 10
7.746105820877573
 20
9.317399326772036
 30
0.0
 40
0.7
100
AcDbArc
 50
180.0000000000016
 51
224.9999999999988
  0
LINE
  5
58C
330
1A
100
AcDbEntity
  8
ZUWAKU
100
AcDbLine
 10
11.7711058208776
 20
9.525000339449686
 30
0.0
 11
11.7711058208776
 21
5.675000339449688
 31
0.0
  0
LINE
  5
58D
330
1A
100
AcDbEntity
  8
ZUWAKU
100
AcDbLine
 10
10.37110582087757
 20
5.675000339449688
 30
0.0
 11
10.37110582087757
 21
9.525000339449665
 31
0.0
  0
ARC
  5
58E
330
1A
100
AcDbEntity
  8
ZUWAKU
100
AcDbCircle
 10
7.746105820877573
 20
9.317399326772036
 30
0.0
 40
2.099999999999999
100
AcDbArc
 50
180.0
 51
225.0
  0
ARC
  5
58F
330
1A
100
AcDbEntity
  8
ZUWAKU
100
AcDbCircle
 10
7.921105820877585
 20
4.975000339449685
 30
0.0
 40
1.399999999999999
100
AcDbArc
 50
270.0
 51
0.0
  0
ARC
  5
590
330
1A
100
AcDbEntity
  8
ZUWAKU
100
AcDbCircle
 10
12.47110582087759
 20
5.675000339449688
 30
0.0
 40
2.099999999999999
100
AcDbArc
 50
180.0
 51
270.0
  0
ARC
  5
591
330
1A
100
AcDbEntity
  8
ZUWAKU
100
AcDbCircle
 10
7.221105820877596
 20
5.882601352127338
 30
0.0
 40
2.099999999999999
100
AcDbArc
 50
0.0
 51
45.0
  0
LINE
  5
592
330
1A
100
AcDbEntity
  8
ZUWAKU
100
AcDbLine
 10
8.706030061369347
 20
7.367525592619099
 30
0.0
 11
7.251131074047009
 21
8.822424579941436
 31
0.0
  0
LINE
  5
593
330
1A
100
AcDbEntity
  8
ZUWAKU
100
AcDbLine
 10
7.921105820877585
 20
5.237500339449688
 30
0.0
 11
7.921105820877585
 21
5.882601352127359
 31
0.0
  0
ARC
  5
594
330
1A
100
AcDbEntity
  8
ZUWAKU
100
AcDbCircle
 10
7.658605820877596
 20
5.237500339449688
 30
0.0
 40
0.2625
100
AcDbArc
 50
270.0
 51
0.0
  0
ARC
  5
595
330
1A
100
AcDbEntity
  8
ZUWAKU
100
AcDbCircle
 10
7.221105820877596
 20
5.882601352127359
 30
0.0
 40
0.7
100
AcDbArc
 50
0.0
 51
45.0
  0
LINE
  5
596
330
1A
100
AcDbEntity
  8
ZUWAKU
100
AcDbLine
 10
5.908605820877596
 20
3.837500339449686
 30
0.0
 11
5.908605820877596
 21
4.712500339449686
 31
0.0
  0
ARC
  5
597
330
1A
100
AcDbEntity
  8
ZUWAKU
100
AcDbCircle
 10
6.171105820877585
 20
3.837500339449686
 30
0.0
 40
0.2625
100
AcDbArc
 50
180.0
 51
270.0
  0
ARC
  5
598
330
1A
100
AcDbEntity
  8
ZUWAKU
100
AcDbCircle
 10
6.171105820877585
 20
4.712500339449686
 30
0.0
 40
0.2625
100
AcDbArc
 50
90.0
 51
180.0
  0
LINE
  5
599
330
1A
100
AcDbEntity
  8
ZUWAKU
100
AcDbLine
 10
6.171105820877585
 20
3.575000339449687
 30
0.0
 11
7.921105820877585
 21
3.575000339449687
 31
0.0
  0
LINE
  5
59A
330
1A
100
AcDbEntity
  8
ZUWAKU
100
AcDbLine
 10
6.171105820877585
 20
4.975000339449685
 30
0.0
 11
7.658605820877596
 21
4.975000339449685
 31
0.0
  0
LINE
  5
59B
330
1A
100
AcDbEntity
  8
ZUWAKU
100
AcDbLine
 10
6.261181580385823
 20
7.832475086280275
 30
0.0
 11
7.716080567708161
 21
6.377576098957945
 31
0.0
  0
LINE
  5
59C
330
1A
100
AcDbEntity
  8
ZUWAKU
100
AcDbLine
 10
9.321105820877619
 20
4.975000339449685
 30
0.0
 11
9.321105820877619
 21
5.882601352127359
 31
0.0
  0
ARC
  5
59D
330
1A
100
AcDbEntity
  8
ZUWAKU
100
AcDbCircle
 10
12.47110582087759
 20
5.675000339449688
 30
0.0
 40
0.7
100
AcDbArc
 50
180.0
 51
270.0
  0
ARC
  5
59E
330
1A
100
AcDbEntity
  8
ZUWAKU
100
AcDbCircle
 10
8.796105820877585
 20
11.36250033944968
 30
0.0
 40
0.2625
100
AcDbArc
 50
0.0
 51
90.0
  0
ARC
  5
59F
330
1A
100
AcDbEntity
  8
ZUWAKU
100
AcDbCircle
 10
8.796105820877585
 20
10.48750033944968
 30
0.0
 40
0.2625
100
AcDbArc
 50
270.0
 51
0.0
  0
LINE
  5
5A0
330
1A
100
AcDbEntity
  8
ZUWAKU
100
AcDbLine
 10
7.046105820877585
 20
11.62500033944968
 30
0.0
 11
8.796105820877585
 21
11.62500033944968
 31
0.0
  0
ARC
  5
5A1
330
1A
100
AcDbEntity
  8
ZUWAKU
100
AcDbCircle
 10
7.308605820877573
 20
9.962500339449686
 30
0.0
 40
0.2625
100
AcDbArc
 50
90.0
 51
180.0
  0
LINE
  5
5A2
330
1A
100
AcDbEntity
  8
ZUWAKU
100
AcDbLine
 10
7.046105820877585
 20
9.962500339449686
 30
0.0
 11
7.046105820877585
 21
9.317399326772015
 31
0.0
  0
LINE
  5
5A3
330
1A
100
AcDbEntity
  8
ZUWAKU
100
AcDbLine
 10
8.796105820877585
 20
10.22500033944968
 30
0.0
 11
7.308605820877573
 21
10.22500033944968
 31
0.0
  0
LINE
  5
5A4
330
1A
100
AcDbEntity
  8
ZUWAKU
100
AcDbLine
 10
5.646105820877608
 20
10.22500033944968
 30
0.0
 11
5.646105820877608
 21
9.317399326772015
 31
0.0
  0
ARC
  5
5A5
330
1A
100
AcDbEntity
  8
ZUWAKU
100
AcDbCircle
 10
7.046105820877585
 20
10.22500033944968
 30
0.0
 40
1.399999999999999
100
AcDbArc
 50
90.0
 51
180.0
  0
LINE
  5
5A6
330
1A
100
AcDbEntity
  8
ZUWAKU
100
AcDbLine
 10
9.058605820877573
 20
11.36250033944968
 30
0.0
 11
9.058605820877573
 21
10.48750033944968
 31
0.0
  0
ARC
  5
5A7
330
1A
100
AcDbEntity
  8
ZUWAKU
100
AcDbCircle
 10
12.47110582087759
 20
9.525000339449686
 30
0.0
 40
0.7
100
AcDbArc
 50
90.0
 51
180.0
  0
ARC
  5
5A8
330
1A
100
AcDbEntity
  8
ZUWAKU
100
AcDbCircle
 10
12.47110582087759
 20
9.525000339449665
 30
0.0
 40
2.099999999999999
100
AcDbArc
 50
90.0
 51
180.0
  0
LINE
  5
5A9
330
1A
100
AcDbEntity
  8
ZUWAKU
100
AcDbLine
 10
39.66331451748112
 20
15.00000033944968
 30
0.0
 11
39.66331451748123
 21
0.4000003394497185
 31
0.0
  0
LINE
  5
5AA
330
1A
100
AcDbEntity
  8
ZUWAKU
100
AcDbLine
 10
39.76331451748114
 20
15.00000033944968
 30
0.0
 11
39.76331451748126
 21
0.4000003394497185
 31
0.0
  0
LINE
  5
5AB
330
1A
100
AcDbEntity
  8
ZUWAKU
100
AcDbLine
 10
39.56331451748122
 20
15.00000033944968
 30
0.0
 11
39.56331451748122
 21
0.4000003394497185
 31
0.0
  0
LINE
  5
5AC
330
1A
100
AcDbEntity
  8
ZUWAKU
100
AcDbLine
 10
32.07110582087762
 20
4.975000339449685
 30
0.0
 11
32.07110582087762
 21
11.36250033944968
 31
0.0
  0
LINE
  5
5AD
330
1A
100
AcDbEntity
  8
ZUWAKU
100
AcDbLine
 10
30.67110582087758
 20
11.36250033944968
 30
0.0
 11
30.67110582087758
 21
5.500000339449684
 31
0.0
  0
LINE
  5
5AE
330
1A
100
AcDbEntity
  8
ZUWAKU
100
AcDbLine
 10
34.5211058208776
 20
3.837500339449686
 30
0.0
 11
34.5211058208776
 21
11.36250033944968
 31
0.0
  0
LINE
  5
5AF
330
1A
100
AcDbEntity
  8
ZUWAKU
100
AcDbLine
 10
33.12110582087757
 20
11.36250033944968
 30
0.0
 11
33.12110582087757
 21
3.837500339449686
 31
0.0
  0
ARC
  5
5B0
330
1A
100
AcDbEntity
  8
ZUWAKU
100
AcDbCircle
 10
24.8961058208776
 20
9.317399326772036
 30
0.0
 40
0.7
100
AcDbArc
 50
180.0000000000016
 51
224.9999999999988
  0
ARC
  5
5B1
330
1A
100
AcDbEntity
  8
ZUWAKU
100
AcDbCircle
 10
24.8961058208776
 20
9.317399326772036
 30
0.0
 40
2.099999999999999
100
AcDbArc
 50
180.0
 51
225.0
  0
LINE
  5
5B2
330
1A
100
AcDbEntity
  8
ZUWAKU
100
AcDbLine
 10
18.65742906196658
 20
9.602523936231399
 30
0.0
 11
18.02505318929866
 21
7.600000339449696
 31
0.0
  0
LINE
  5
5B3
330
1A
100
AcDbEntity
  8
ZUWAKU
100
AcDbLine
 10
20.34610582087759
 20
11.36250033944968
 30
0.0
 11
20.34610582087759
 21
3.837500339449686
 31
0.0
  0
LINE
  5
5B4
330
1A
100
AcDbEntity
  8
ZUWAKU
100
AcDbLine
 10
21.74610582087757
 20
3.837500339449686
 30
0.0
 11
21.74610582087757
 21
11.36250033944968
 31
0.0
  0
LINE
  5
5B5
330
1A
100
AcDbEntity
  8
ZUWAKU
100
AcDbLine
 10
27.52110582087761
 20
11.36250033944968
 30
0.0
 11
27.52110582087761
 21
4.975000339449685
 31
0.0
  0
LINE
  5
5B6
330
1A
100
AcDbEntity
  8
ZUWAKU
100
AcDbLine
 10
28.92110582087758
 20
5.500000339449684
 30
0.0
 11
28.92110582087758
 21
11.36250033944968
 31
0.0
  0
LINE
  5
5B7
330
1A
100
AcDbEntity
  8
ZUWAKU
100
AcDbLine
 10
16.32110582087761
 20
8.562500339449687
 30
0.0
 11
16.32110582087761
 21
11.36250033944968
 31
0.0
  0
LINE
  5
5B8
330
1A
100
AcDbEntity
  8
ZUWAKU
100
AcDbLine
 10
14.92110582087758
 20
11.36250033944968
 30
0.0
 11
14.92110582087758
 21
3.837500339449686
 31
0.0
  0
LINE
  5
5B9
330
1A
100
AcDbEntity
  8
ZUWAKU
100
AcDbLine
 10
17.83817328953551
 20
11.44154732353317
 30
0.0
 11
16.90403835221963
 21
8.483453355366201
 31
0.0
  0
LINE
  5
5BA
330
1A
100
AcDbEntity
  8
ZUWAKU
100
AcDbLine
 10
30.1461058208776
 20
4.975000339449685
 30
0.0
 11
29.44610582087761
 21
4.975000339449685
 31
0.0
  0
LINE
  5
5BB
330
1A
100
AcDbEntity
  8
ZUWAKU
100
AcDbLine
 10
28.92110582087758
 20
3.575000339449687
 30
0.0
 11
30.67110582087758
 21
3.575000339449687
 31
0.0
  0
LINE
  5
5BC
330
1A
100
AcDbEntity
  8
ZUWAKU
100
AcDbLine
 10
20.60860582087758
 20
3.575000339449687
 30
0.0
 11
21.48360582087758
 21
3.575000339449687
 31
0.0
  0
LINE
  5
5BD
330
1A
100
AcDbEntity
  8
ZUWAKU
100
AcDbLine
 10
17.83817328953551
 20
3.758453355366199
 30
0.0
 11
16.90403835221963
 21
6.71654732353317
 31
0.0
  0
ARC
  5
5BE
330
1A
100
AcDbEntity
  8
ZUWAKU
100
AcDbCircle
 10
16.65372290262195
 20
8.562500339449687
 30
0.0
 40
0.2625
100
AcDbArc
 50
270.0
 51
342.4744316262769
  0
LINE
  5
5BF
330
1A
100
AcDbEntity
  8
ZUWAKU
100
AcDbLine
 10
16.65372290262195
 20
8.300000339449685
 30
0.0
 11
16.5836058208776
 21
8.300000339449685
 31
0.0
  0
LINE
  5
5C0
330
1A
100
AcDbEntity
  8
ZUWAKU
100
AcDbLine
 10
16.5836058208776
 20
6.900000339449686
 30
0.0
 11
16.65372290262195
 21
6.900000339449686
 31
0.0
  0
ARC
  5
5C1
330
1A
100
AcDbEntity
  8
ZUWAKU
100
AcDbCircle
 10
16.5836058208776
 20
8.562500339449687
 30
0.0
 40
0.2625
100
AcDbArc
 50
180.0
 51
270.0
  0
LINE
  5
5C2
330
1A
100
AcDbEntity
  8
ZUWAKU
100
AcDbLine
 10
15.18360582087757
 20
3.575000339449687
 30
0.0
 11
16.05860582087757
 21
3.575000339449687
 31
0.0
  0
ARC
  5
5C3
330
1A
100
AcDbEntity
  8
ZUWAKU
100
AcDbCircle
 10
16.05860582087757
 20
3.837500339449686
 30
0.0
 40
0.2625
100
AcDbArc
 50
270.0
 51
0.0
  0
LINE
  5
5C4
330
1A
100
AcDbEntity
  8
ZUWAKU
100
AcDbLine
 10
16.32110582087761
 20
3.837500339449686
 30
0.0
 11
16.32110582087761
 21
6.637500339449687
 31
0.0
  0
LINE
  5
5C5
330
1A
100
AcDbEntity
  8
ZUWAKU
100
AcDbLine
 10
13.69610582087761
 20
4.712500339449686
 30
0.0
 11
13.69610582087761
 21
3.837500339449686
 31
0.0
  0
ARC
  5
5C6
330
1A
100
AcDbEntity
  8
ZUWAKU
100
AcDbCircle
 10
13.43360582087757
 20
3.837500339449686
 30
0.0
 40
0.2625
100
AcDbArc
 50
270.0
 51
0.0
  0
ARC
  5
5C7
330
1A
100
AcDbEntity
  8
ZUWAKU
100
AcDbCircle
 10
13.43360582087757
 20
4.712500339449686
 30
0.0
 40
0.2625
100
AcDbArc
 50
0.0
 51
90.0
  0
ARC
  5
5C8
330
1A
100
AcDbEntity
  8
ZUWAKU
100
AcDbCircle
 10
15.18360582087757
 20
3.837500339449686
 30
0.0
 40
0.2625
100
AcDbArc
 50
180.0
 51
270.0
  0
ARC
  5
5C9
330
1A
100
AcDbEntity
  8
ZUWAKU
100
AcDbCircle
 10
16.65372290262195
 20
6.637500339449687
 30
0.0
 40
0.2625
100
AcDbArc
 50
17.52556837372303
 51
90.0
  0
ARC
  5
5CA
330
1A
100
AcDbEntity
  8
ZUWAKU
100
AcDbCircle
 10
16.5836058208776
 20
6.637500339449687
 30
0.0
 40
0.2625
100
AcDbArc
 50
90.0
 51
180.0
  0
ARC
  5
5CB
330
1A
100
AcDbEntity
  8
ZUWAKU
100
AcDbCircle
 10
20.60860582087758
 20
3.837500339449686
 30
0.0
 40
0.2625
100
AcDbArc
 50
180.0
 51
270.0
  0
LINE
  5
5CC
330
1A
100
AcDbEntity
  8
ZUWAKU
100
AcDbLine
 10
18.08848873913325
 20
3.575000339449687
 30
0.0
 11
18.93793342893775
 21
3.575000339449687
 31
0.0
  0
ARC
  5
5CD
330
1A
100
AcDbEntity
  8
ZUWAKU
100
AcDbCircle
 10
18.93793342893775
 20
3.837500339449686
 30
0.0
 40
0.2625
100
AcDbArc
 50
270.0
 51
17.52556837372303
  0
LINE
  5
5CE
330
1A
100
AcDbEntity
  8
ZUWAKU
100
AcDbLine
 10
19.18824887853548
 20
3.916547323533173
 30
0.0
 11
18.02505318929866
 21
7.600000339449696
 31
0.0
  0
ARC
  5
5CF
330
1A
100
AcDbEntity
  8
ZUWAKU
100
AcDbCircle
 10
18.08848873913325
 20
3.837500339449686
 30
0.0
 40
0.2625
100
AcDbArc
 50
197.525568373723
 51
270.0
  0
ARC
  5
5D0
330
1A
100
AcDbEntity
  8
ZUWAKU
100
AcDbCircle
 10
28.92110582087758
 20
4.975000339449685
 30
0.0
 40
1.399999999999999
100
AcDbArc
 50
180.0
 51
270.0
  0
ARC
  5
5D1
330
1A
100
AcDbEntity
  8
ZUWAKU
100
AcDbCircle
 10
25.07110582087761
 20
4.975000339449685
 30
0.0
 40
1.399999999999999
100
AcDbArc
 50
270.0
 51
0.0
  0
LINE
  5
5D2
330
1A
100
AcDbEntity
  8
ZUWAKU
100
AcDbLine
 10
25.85603006136938
 20
7.367525592619099
 30
0.0
 11
24.40113107404698
 21
8.822424579941436
 31
0.0
  0
LINE
  5
5D3
330
1A
100
AcDbEntity
  8
ZUWAKU
100
AcDbLine
 10
25.07110582087761
 20
5.237500339449688
 30
0.0
 11
25.07110582087761
 21
5.882601352127359
 31
0.0
  0
ARC
  5
5D4
330
1A
100
AcDbEntity
  8
ZUWAKU
100
AcDbCircle
 10
24.37110582087757
 20
5.882601352127359
 30
0.0
 40
0.7
100
AcDbArc
 50
0.0
 51
45.0
  0
ARC
  5
5D5
330
1A
100
AcDbEntity
  8
ZUWAKU
100
AcDbCircle
 10
24.80860582087757
 20
5.237500339449688
 30
0.0
 40
0.2625
100
AcDbArc
 50
270.0
 51
0.0
  0
LINE
  5
5D6
330
1A
100
AcDbEntity
  8
ZUWAKU
100
AcDbLine
 10
23.05860582087757
 20
3.837500339449686
 30
0.0
 11
23.05860582087757
 21
4.712500339449686
 31
0.0
  0
ARC
  5
5D7
330
1A
100
AcDbEntity
  8
ZUWAKU
100
AcDbCircle
 10
23.32110582087762
 20
3.837500339449686
 30
0.0
 40
0.2625
100
AcDbArc
 50
180.0
 51
270.0
  0
ARC
  5
5D8
330
1A
100
AcDbEntity
  8
ZUWAKU
100
AcDbCircle
 10
21.48360582087758
 20
3.837500339449686
 30
0.0
 40
0.2625
100
AcDbArc
 50
270.0
 51
0.0
  0
ARC
  5
5D9
330
1A
100
AcDbEntity
  8
ZUWAKU
100
AcDbCircle
 10
23.32110582087762
 20
4.712500339449686
 30
0.0
 40
0.2625
100
AcDbArc
 50
90.0
 51
180.0
  0
LINE
  5
5DA
330
1A
100
AcDbEntity
  8
ZUWAKU
100
AcDbLine
 10
23.32110582087762
 20
4.975000339449685
 30
0.0
 11
24.80860582087757
 21
4.975000339449685
 31
0.0
  0
LINE
  5
5DB
330
1A
100
AcDbEntity
  8
ZUWAKU
100
AcDbLine
 10
23.32110582087762
 20
3.575000339449687
 30
0.0
 11
25.07110582087761
 21
3.575000339449687
 31
0.0
  0
LINE
  5
5DC
330
1A
100
AcDbEntity
  8
ZUWAKU
100
AcDbLine
 10
23.41118158038586
 20
7.832475086280275
 30
0.0
 11
24.86608056770819
 21
6.377576098957945
 31
0.0
  0
LINE
  5
5DD
330
1A
100
AcDbEntity
  8
ZUWAKU
100
AcDbLine
 10
26.47110582087759
 20
4.975000339449685
 30
0.0
 11
26.47110582087759
 21
5.882601352127359
 31
0.0
  0
ARC
  5
5DE
330
1A
100
AcDbEntity
  8
ZUWAKU
100
AcDbCircle
 10
24.37110582087757
 20
5.882601352127338
 30
0.0
 40
2.099999999999999
100
AcDbArc
 50
0.0
 51
45.0
  0
ARC
  5
5DF
330
1A
100
AcDbEntity
  8
ZUWAKU
100
AcDbCircle
 10
29.44610582087761
 20
5.500000339449684
 30
0.0
 40
0.525
100
AcDbArc
 50
180.0
 51
270.0
  0
ARC
  5
5E0
330
1A
100
AcDbEntity
  8
ZUWAKU
100
AcDbCircle
 10
30.67110582087758
 20
4.975000339449685
 30
0.0
 40
1.399999999999999
100
AcDbArc
 50
270.0
 51
0.0
  0
LINE
  5
5E1
330
1A
100
AcDbEntity
  8
ZUWAKU
100
AcDbLine
 10
33.38360582087762
 20
3.575000339449687
 30
0.0
 11
34.25860582087762
 21
3.575000339449687
 31
0.0
  0
ARC
  5
5E2
330
1A
100
AcDbEntity
  8
ZUWAKU
100
AcDbCircle
 10
33.38360582087762
 20
3.837500339449686
 30
0.0
 40
0.2625
100
AcDbArc
 50
180.0
 51
270.0
  0
ARC
  5
5E3
330
1A
100
AcDbEntity
  8
ZUWAKU
100
AcDbCircle
 10
30.1461058208776
 20
5.500000339449684
 30
0.0
 40
0.525
100
AcDbArc
 50
270.0
 51
0.0
  0
ARC
  5
5E4
330
1A
100
AcDbEntity
  8
ZUWAKU
100
AcDbCircle
 10
34.25860582087762
 20
3.837500339449686
 30
0.0
 40
0.2625
100
AcDbArc
 50
270.0
 51
0.0
  0
LINE
  5
5E5
330
1A
100
AcDbEntity
  8
ZUWAKU
100
AcDbLine
 10
21.48360582087758
 20
11.62500033944968
 30
0.0
 11
20.60860582087758
 21
11.62500033944968
 31
0.0
  0
ARC
  5
5E6
330
1A
100
AcDbEntity
  8
ZUWAKU
100
AcDbCircle
 10
16.05860582087757
 20
11.36250033944968
 30
0.0
 40
0.2625
100
AcDbArc
 50
0.0
 51
90.0
  0
LINE
  5
5E7
330
1A
100
AcDbEntity
  8
ZUWAKU
100
AcDbLine
 10
16.05860582087757
 20
11.62500033944968
 30
0.0
 11
15.18360582087757
 21
11.62500033944968
 31
0.0
  0
ARC
  5
5E8
330
1A
100
AcDbEntity
  8
ZUWAKU
100
AcDbCircle
 10
13.43360582087757
 20
11.36250033944968
 30
0.0
 40
0.2625
100
AcDbArc
 50
0.0
 51
90.0
  0
ARC
  5
5E9
330
1A
100
AcDbEntity
  8
ZUWAKU
100
AcDbCircle
 10
15.18360582087757
 20
11.36250033944968
 30
0.0
 40
0.2625
100
AcDbArc
 50
90.0
 51
180.0
  0
ARC
  5
5EA
330
1A
100
AcDbEntity
  8
ZUWAKU
100
AcDbCircle
 10
13.43360582087757
 20
10.48750033944968
 30
0.0
 40
0.2625
100
AcDbArc
 50
270.0
 51
0.0
  0
LINE
  5
5EB
330
1A
100
AcDbEntity
  8
ZUWAKU
100
AcDbLine
 10
13.69610582087761
 20
11.36250033944968
 30
0.0
 11
13.69610582087761
 21
10.48750033944968
 31
0.0
  0
ARC
  5
5EC
330
1A
100
AcDbEntity
  8
ZUWAKU
100
AcDbCircle
 10
20.60860582087758
 20
11.36250033944968
 30
0.0
 40
0.2625
100
AcDbArc
 50
90.0
 51
180.0
  0
LINE
  5
5ED
330
1A
100
AcDbEntity
  8
ZUWAKU
100
AcDbLine
 10
18.08848873913325
 20
11.62500033944968
 30
0.0
 11
18.93793342893775
 21
11.62500033944968
 31
0.0
  0
ARC
  5
5EE
330
1A
100
AcDbEntity
  8
ZUWAKU
100
AcDbCircle
 10
18.93793342893775
 20
11.36250033944968
 30
0.0
 40
0.2625
100
AcDbArc
 50
342.4744316262769
 51
90.0
  0
LINE
  5
5EF
330
1A
100
AcDbEntity
  8
ZUWAKU
100
AcDbLine
 10
19.18824887853548
 20
11.2834533553662
 30
0.0
 11
18.65742906196658
 21
9.602523936231399
 31
0.0
  0
ARC
  5
5F0
330
1A
100
AcDbEntity
  8
ZUWAKU
100
AcDbCircle
 10
18.08848873913325
 20
11.36250033944968
 30
0.0
 40
0.2625
100
AcDbArc
 50
90.0
 51
162.4744316262769
  0
LINE
  5
5F1
330
1A
100
AcDbEntity
  8
ZUWAKU
100
AcDbLine
 10
24.19610582087762
 20
11.62500033944968
 30
0.0
 11
25.94610582087762
 21
11.62500033944968
 31
0.0
  0
LINE
  5
5F2
330
1A
100
AcDbEntity
  8
ZUWAKU
100
AcDbLine
 10
25.94610582087762
 20
10.22500033944968
 30
0.0
 11
24.4586058208776
 21
10.22500033944968
 31
0.0
  0
ARC
  5
5F3
330
1A
100
AcDbEntity
  8
ZUWAKU
100
AcDbCircle
 10
24.4586058208776
 20
9.962500339449686
 30
0.0
 40
0.2625
100
AcDbArc
 50
90.0
 51
180.0
  0
LINE
  5
5F4
330
1A
100
AcDbEntity
  8
ZUWAKU
100
AcDbLine
 10
24.19610582087762
 20
9.962500339449686
 30
0.0
 11
24.19610582087762
 21
9.317399326772015
 31
0.0
  0
ARC
  5
5F5
330
1A
100
AcDbEntity
  8
ZUWAKU
100
AcDbCircle
 10
21.48360582087758
 20
11.36250033944968
 30
0.0
 40
0.2625
100
AcDbArc
 50
0.0
 51
90.0
  0
LINE
  5
5F6
330
1A
100
AcDbEntity
  8
ZUWAKU
100
AcDbLine
 10
22.79610582087758
 20
10.22500033944968
 30
0.0
 11
22.79610582087758
 21
9.317399326772015
 31
0.0
  0
ARC
  5
5F7
330
1A
100
AcDbEntity
  8
ZUWAKU
100
AcDbCircle
 10
24.19610582087762
 20
10.22500033944968
 30
0.0
 40
1.399999999999999
100
AcDbArc
 50
90.0
 51
180.0
  0
ARC
  5
5F8
330
1A
100
AcDbEntity
  8
ZUWAKU
100
AcDbCircle
 10
28.65860582087759
 20
11.36250033944968
 30
0.0
 40
0.2625
100
AcDbArc
 50
0.0
 51
90.0
  0
ARC
  5
5F9
330
1A
100
AcDbEntity
  8
ZUWAKU
100
AcDbCircle
 10
27.78360582087759
 20
11.36250033944968
 30
0.0
 40
0.2625
100
AcDbArc
 50
90.0
 51
180.0
  0
LINE
  5
5FA
330
1A
100
AcDbEntity
  8
ZUWAKU
100
AcDbLine
 10
28.65860582087759
 20
11.62500033944968
 30
0.0
 11
27.78360582087759
 21
11.62500033944968
 31
0.0
  0
ARC
  5
5FB
330
1A
100
AcDbEntity
  8
ZUWAKU
100
AcDbCircle
 10
25.94610582087762
 20
11.36250033944968
 30
0.0
 40
0.2625
100
AcDbArc
 50
0.0
 51
90.0
  0
ARC
  5
5FC
330
1A
100
AcDbEntity
  8
ZUWAKU
100
AcDbCircle
 10
25.94610582087762
 20
10.48750033944968
 30
0.0
 40
0.2625
100
AcDbArc
 50
270.0
 51
0.0
  0
LINE
  5
5FD
330
1A
100
AcDbEntity
  8
ZUWAKU
100
AcDbLine
 10
26.20860582087761
 20
11.36250033944968
 30
0.0
 11
26.20860582087761
 21
10.48750033944968
 31
0.0
  0
LINE
  5
5FE
330
1A
100
AcDbEntity
  8
ZUWAKU
100
AcDbLine
 10
34.25860582087762
 20
11.62500033944968
 30
0.0
 11
33.38360582087762
 21
11.62500033944968
 31
0.0
  0
ARC
  5
5FF
330
1A
100
AcDbEntity
  8
ZUWAKU
100
AcDbCircle
 10
33.38360582087762
 20
11.36250033944968
 30
0.0
 40
0.2625
100
AcDbArc
 50
90.0
 51
180.0
  0
ARC
  5
600
330
1A
100
AcDbEntity
  8
ZUWAKU
100
AcDbCircle
 10
31.80860582087757
 20
11.36250033944968
 30
0.0
 40
0.2625
100
AcDbArc
 50
0.0
 51
90.0
  0
LINE
  5
601
330
1A
100
AcDbEntity
  8
ZUWAKU
100
AcDbLine
 10
31.80860582087757
 20
11.62500033944968
 30
0.0
 11
30.93360582087757
 21
11.62500033944968
 31
0.0
  0
ARC
  5
602
330
1A
100
AcDbEntity
  8
ZUWAKU
100
AcDbCircle
 10
30.93360582087757
 20
11.36250033944968
 30
0.0
 40
0.2625
100
AcDbArc
 50
90.0
 51
180.0
  0
ARC
  5
603
330
1A
100
AcDbEntity
  8
ZUWAKU
100
AcDbCircle
 10
34.25860582087762
 20
11.36250033944968
 30
0.0
 40
0.2625
100
AcDbArc
 50
0.0
 51
90.0
  0
LINE
  5
606
330
1A
100
AcDbEntity
  8
ZUWAKU
100
AcDbLine
 10
104.123300388521
 20
15.00000033944968
 30
0.0
 11
104.123300388521
 21
0.4000003394497185
 31
0.0
  0
LINE
  5
607
330
1A
100
AcDbEntity
  8
ZUWAKU
100
AcDbLine
 10
104.3233003885209
 20
15.00000033944968
 30
0.0
 11
104.323300388521
 21
0.4000003394497185
 31
0.0
  0
LINE
  5
608
330
1A
100
AcDbEntity
  8
ZUWAKU
100
AcDbLine
 10
104.2233003885209
 20
15.00000033944968
 30
0.0
 11
104.223300388521
 21
0.4000003394497185
 31
0.0
  0
TEXT
  5
609
330
1A
100
AcDbEntity
  8
ZUWAKU
100
AcDbText
 10
104.8620228996258
 20
4.827678608642493
 30
0.0
 40
2.0
  1
サイズ
 41
0.9
  7
MSｺﾞｼｯｸ
100
AcDbText
  0
TEXT
  5
60A
330
1A
100
AcDbEntity
  8
ZUWAKU
100
AcDbText
 10
104.8620228996256
 20
12.02767860864247
 30
0.0
 40
2.0
  1
品名
 41
0.9
  7
MSｺﾞｼｯｸ
100
AcDbText
  0
LINE
  5
60C
330
1A
100
AcDbEntity
  8
ZUWAKU
100
AcDbLine
 10
324.4086009985891
 20
7.600000339449699
 30
0.0
 11
348.6245050177576
 21
7.600000339449701
 31
0.0
  0
LINE
  5
60D
330
1A
100
AcDbEntity
  8
ZUWAKU
100
AcDbLine
 10
324.4086009985892
 20
7.700000339449703
 30
0.0
 11
348.6245050177576
 21
7.700000339449701
 31
0.0
  0
LINE
  5
60E
330
1A
100
AcDbEntity
  8
ZUWAKU
100
AcDbLine
 10
324.4086009985891
 20
7.800000339449701
 30
0.0
 11
348.6245050177576
 21
7.800000339449701
 31
0.0
  0
LINE
  5
610
330
1A
100
AcDbEntity
  8
ZUWAKU
100
AcDbLine
 10
252.5995894925574
 20
7.600000339449703
 30
0.0
 11
276.2634776265432
 21
7.600000339449703
 31
0.0
  0
LINE
  5
611
330
1A
100
AcDbEntity
  8
ZUWAKU
100
AcDbLine
 10
252.5995894925574
 20
7.700000339449701
 30
0.0
 11
276.2634776265432
 21
7.700000339449701
 31
0.0
  0
LINE
  5
612
330
1A
100
AcDbEntity
  8
ZUWAKU
100
AcDbLine
 10
252.5995894925574
 20
7.800000339449701
 30
0.0
 11
276.2634776265432
 21
7.800000339449701
 31
0.0
  0
TEXT
  5
613
330
1A
100
AcDbEntity
  8
moji
100
AcDbText
 10
231.7841524247672
 20
5.971309200279677
 30
0.0
 40
2.799999999999999
  1
ＰＨ４３□
 41
0.9
  7
MSｺﾞｼｯｸ
100
AcDbText
  0
LINE
  5
614
330
1A
100
AcDbEntity
  8
ZUWAKU
100
AcDbLine
 10
223.8121817289826
 20
15.00000033944968
 30
0.0
 11
223.8121817289827
 21
0.4000003394497185
 31
0.0
  0
LINE
  5
615
330
1A
100
AcDbEntity
  8
ZUWAKU
100
AcDbLine
 10
223.9121817289826
 20
15.00000033944968
 30
0.0
 11
223.9121817289827
 21
0.4000003394497185
 31
0.0
  0
LINE
  5
616
330
1A
100
AcDbEntity
  8
ZUWAKU
100
AcDbLine
 10
223.7121817289827
 20
15.00000033944968
 30
0.0
 11
223.7121817289827
 21
0.4000003394497185
 31
0.0
  0
TEXT
  5
617
330
1A
100
AcDbEntity
  8
moji
100
AcDbText
 10
264.0204537296434
 20
9.002460868153377
 30
0.0
 40
2.799999999999999
  1
Ａ３
 41
0.9
  7
MSｺﾞｼｯｸ
100
AcDbText
  0
LINE
  5
618
330
1A
100
AcDbEntity
  8
ZUWAKU
100
AcDbLine
 10
252.4995894925574
 20
15.00000033944968
 30
0.0
 11
252.4995894925575
 21
0.4000003394497185
 31
0.0
  0
LINE
  5
619
330
1A
100
AcDbEntity
  8
ZUWAKU
100
AcDbLine
 10
252.5995894925574
 20
15.00000033944968
 30
0.0
 11
252.5995894925575
 21
0.4000003394497185
 31
0.0
  0
LINE
  5
61A
330
1A
100
AcDbEntity
  8
ZUWAKU
100
AcDbLine
 10
252.3995894925575
 20
15.00000033944968
 30
0.0
 11
252.3995894925575
 21
0.4000003394497185
 31
0.0
  0
TEXT
  5
61B
330
1A
100
AcDbEntity
  8
ZUWAKU
100
AcDbText
 10
231.3468805712405
 20
1.30703579501943
 30
0.0
 40
1.5
  1
□には色品番が入ります
 41
0.9
  7
MSｺﾞｼｯｸ
100
AcDbText
  0
TEXT
  5
61C
330
1A
100
AcDbEntity
  8
ZUWAKU
100
AcDbText
 10
253.3383120036623
 20
4.827678608642493
 30
0.0
 40
2.0
  1
縮尺
 41
0.9
  7
MSｺﾞｼｯｸ
100
AcDbText
  0
TEXT
  5
61D
330
1A
100
AcDbEntity
  8
moji
100
AcDbText
 10
264.0204537296434
 20
1.602460868153395
 30
0.0
 40
2.799999999999999
  1
１/１
 41
0.9
  7
MSｺﾞｼｯｸ
100
AcDbText
  0
TEXT
  5
61E
330
1A
100
AcDbEntity
  8
ZUWAKU
100
AcDbText
 10
224.6509042400874
 20
12.02767860864247
 30
0.0
 40
2.0
  1
品番
 41
0.9
  7
MSｺﾞｼｯｸ
100
AcDbText
  0
TEXT
  5
61F
330
1A
100
AcDbEntity
  8
ZUWAKU
100
AcDbText
 10
253.3383120036623
 20
12.02767860864247
 30
0.0
 40
2.0
  1
用紙
 41
0.9
  7
MSｺﾞｼｯｸ
100
AcDbText
  0
LINE
  5
620
330
1A
100
AcDbEntity
  8
ZUWAKU
100
AcDbLine
 10
324.3086009985892
 20
15.00000033944968
 30
0.0
 11
324.3086009985893
 21
0.4000003394497185
 31
0.0
  0
LINE
  5
621
330
1A
100
AcDbEntity
  8
ZUWAKU
100
AcDbLine
 10
324.4086009985892
 20
15.00000033944968
 30
0.0
 11
324.4086009985893
 21
0.4000003394497185
 31
0.0
  0
LINE
  5
622
330
1A
100
AcDbEntity
  8
ZUWAKU
100
AcDbLine
 10
324.2086009985893
 20
15.00000033944968
 30
0.0
 11
324.2086009985893
 21
0.4000003394497185
 31
0.0
  0
LINE
  5
623
330
1A
100
AcDbEntity
  8
ZUWAKU
100
AcDbLine
 10
276.3634776265431
 20
15.00000033944968
 30
0.0
 11
276.3634776265432
 21
0.4000003394497185
 31
0.0
  0
LINE
  5
624
330
1A
100
AcDbEntity
  8
ZUWAKU
100
AcDbLine
 10
276.4634776265431
 20
15.00000033944968
 30
0.0
 11
276.4634776265432
 21
0.4000003394497185
 31
0.0
  0
LINE
  5
625
330
1A
100
AcDbEntity
  8
ZUWAKU
100
AcDbLine
 10
276.2634776265432
 20
15.00000033944968
 30
0.0
 11
276.2634776265432
 21
0.4000003394497185
 31
0.0
  0
TEXT
  5
626
330
1A
100
AcDbEntity
  8
ZUWAKU
100
AcDbText
 10
325.147323509694
 20
12.02767860864247
 30
0.0
 40
2.0
  1
DATE
 41
0.9
  7
MSｺﾞｼｯｸ
100
AcDbText
  0
LINE
  5
627
330
1A
100
AcDbEntity
  8
ZUWAKU
100
AcDbLine
 10
348.6245050177576
 20
15.00000033944968
 30
0.0
 11
348.6245050177576
 21
0.4000003394497185
 31
0.0
  0
LINE
  5
628
330
1A
100
AcDbEntity
  8
ZUWAKU
100
AcDbLine
 10
348.7245050177576
 20
15.00000033944968
 30
0.0
 11
348.7245050177576
 21
0.4000003394497185
 31
0.0
  0
LINE
  5
629
330
1A
100
AcDbEntity
  8
ZUWAKU
100
AcDbLine
 10
348.8245050177575
 20
15.00000033944968
 30
0.0
 11
348.8245050177577
 21
0.4000003394497185
 31
0.0
  0
LINE
  5
62A
330
1A
100
AcDbEntity
  8
ZUWAKU
100
AcDbLine
 10
348.9245050177576
 20
15.00000033944968
 30
0.0
 11
348.9245050177577
 21
0.4000003394497185
 31
0.0
  0
TEXT
  5
62B
330
1A
100
AcDbEntity
  8
ZUWAKU
100
AcDbText
 10
354.2640418396089
 20
5.998226324498034
 30
0.0
 40
3.0
  1
積水化学工業株式会社
 41
0.9
  7
MSｺﾞｼｯｸ
100
AcDbText
  0
TEXT
  5
8E6
330
1A
100
AcDbEntity
  8
moji
100
AcDbText
 10
115.8447135552985
 20
9.77816019626141
 30
0.0
 40
2.799999999999999
  1
排水管カバー
 41
0.9
  7
MSｺﾞｼｯｸ
100
AcDbText
  0
TEXT
  5
CC3
330
1A
100
AcDbEntity
  8
moji
100
AcDbText
 10
115.9040619657698
 20
2.744347268343119
 30
0.0
 40
2.799999999999999
  1
ＵＳＴ４２
 41
0.9
  7
MSｺﾞｼｯｸ
100
AcDbText
  0
LINE
  5
1D66
330
1A
100
AcDbEntity
  8
SEIHIN
  6
Continuous
 62
     3
 48
5.0
100
AcDbLine
 10
247.976497119454
 20
60.75111233772358
 30
0.0
 11
225.300251260161
 21
62.74041797729009
 31
0.0
  0
LINE
  5
1D68
330
1A
100
AcDbEntity
  8
SEIHIN
  6
Continuous
 62
     3
 48
5.0
100
AcDbLine
 10
249.0353965560566
 20
20.66986845049731
 30
0.0
 11
249.0353965560566
 21
59.75488035515841
 31
0.0
  0
LINE
  5
1D78
330
1A
100
AcDbEntity
  8
SEIHIN
  6
Continuous
 62
     3
 48
5.0
100
AcDbLine
 10
247.9763770607437
 20
60.7497396077434
 30
0.0
 11
248.122509462471
 21
60.74973982657056
 31
0.0
  0
SPLINE
  5
1D7C
330
1A
100
AcDbEntity
  8
SEIHIN
  6
Continuous
 62
     3
 48
5.0
100
AcDbSpline
210
0.0
220
0.0
230
1.0
 70
    24
 71
     3
 72
    36
 73
    32
 74
     0
 42
0.0000000001
 43
0.0000000001
 40
0.080405133089947
 40
0.080405133089947
 40
0.080405133089947
 40
0.080405133089947
 40
0.1249999999999999
 40
0.1249999999999999
 40
0.1874999999999999
 40
0.1874999999999999
 40
0.2499999999999999
 40
0.2499999999999999
 40
0.3124999999999999
 40
0.3124999999999999
 40
0.3749999999999999
 40
0.3749999999999999
 40
0.4375
 40
0.4375
 40
0.5
 40
0.5
 40
0.5624999999999999
 40
0.5624999999999999
 40
0.6249999999999999
 40
0.6249999999999999
 40
0.6874999999999999
 40
0.6874999999999999
 40
0.7499999999999999
 40
0.7499999999999999
 40
0.8124999999999996
 40
0.8124999999999996
 40
0.8749999999999996
 40
0.8749999999999996
 40
0.9374999999999998
 40
0.9374999999999998
 40
0.9842439380250345
 40
0.9842439380250345
 40
0.9842439380250345
 40
0.9842439380250345
 10
247.9342216678186
 20
59.75354080079714
 30
0.0
 10
247.52855416954
 20
59.75354080079714
 30
0.0
 10
247.0121599845804
 20
59.75354080079714
 30
0.0
 10
245.5139787634684
 20
59.75354080079714
 30
0.0
 10
244.4286016935234
 20
59.75354080079714
 30
0.0
 10
241.8652193317534
 20
59.75354080079714
 30
0.0
 10
240.3872457415777
 20
59.75354080079714
 30
0.0
 10
237.0788560936157
 20
59.75354080079714
 30
0.0
 10
235.2484809510692
 20
59.75354080079714
 30
0.0
 10
231.2850589775294
 20
59.75354080079714
 30
0.0
 10
229.152061162636
 20
59.75354080079714
 30
0.0
 10
224.6413960824097
 20
59.75354080079714
 30
0.0
 10
222.2637846009997
 20
59.75354080079714
 30
0.0
 10
217.3285484558141
 20
59.75354080079714
 30
0.0
 10
214.7709848266781
 20
59.75354080079714
 30
0.0
 10
209.5453962923889
 20
59.75354080079714
 30
0.0
 10
206.8774360126967
 20
59.75354080079714
 30
0.0
 10
201.5036101883611
 20
59.75354080079717
 30
0.0
 10
198.797811102449
 20
59.75354080079717
 30
0.0
 10
193.4218945482784
 20
59.75354080079717
 30
0.0
 10
190.7518435646084
 20
59.75354080079717
 30
0.0
 10
185.5200397002949
 20
59.75354080079717
 30
0.0
 10
182.9583515219833
 20
59.75354080079717
 30
0.0
 10
178.0129444786975
 20
59.75354080079717
 30
0.0
 10
175.6292867741481
 20
59.75354080079717
 30
0.0
 10
171.1047718354761
 20
59.75354080079717
 30
0.0
 10
168.9639705565564
 20
59.75354080079717
 30
0.0
 10
164.9833964249551
 20
59.75354080079717
 30
0.0
 10
163.1436728004951
 20
59.75354080079717
 30
0.0
 10
160.2348321593444
 20
59.75354080079717
 30
0.0
 10
159.0883903186753
 20
59.75354080079717
 30
0.0
 10
152.1365714442945
 20
59.75354080079717
 30
0.0
  0
SPLINE
  5
1D7E
330
1A
100
AcDbEntity
  8
SEIHIN
  6
Continuous
 62
     3
 48
5.0
100
AcDbSpline
210
0.0
220
0.0
230
1.0
 70
     8
 71
     3
 72
    10
 73
     6
 74
     0
 42
0.0000000001
 43
0.0000000001
 40
0.0
 40
0.0
 40
0.0
 40
0.0
 40
0.5
 40
0.5
 40
1.0
 40
1.0
 40
1.0
 40
1.0
 10
248.12250870066
 20
60.74973111901826
 30
0.0
 10
248.3688048426042
 20
60.72816058483394
 30
0.0
 10
248.6053825545091
 20
60.61123561932991
 30
0.0
 10
248.9394146953159
 20
60.24666352984613
 30
0.0
 10
249.0352492222987
 20
60.00078425294768
 30
0.0
 10
249.0352454797825
 20
59.753544264027
 30
0.0
  0
LINE
  5
1D7F
330
1A
100
AcDbEntity
  8
SEIHIN
  6
Continuous
 62
     3
 48
5.0
100
AcDbLine
 10
151.0353965560566
 20
20.66986845049734
 30
0.0
 11
249.0353965560566
 21
20.66986845049731
 31
0.0
  0
LINE
  5
1D88
330
1A
100
AcDbEntity
  8
SEIHIN
  6
Continuous
 62
     3
 48
5.0
100
AcDbLine
 10
224.3853965564571
 20
160.6698684504973
 30
0.0
 11
175.6853965556561
 21
160.6698684504973
 31
0.0
  0
LINE
  5
1DA1
330
1A
100
AcDbEntity
  8
SEIHIN
  6
Continuous
 62
     3
 48
5.0
100
AcDbLine
 10
221.8853965564572
 20
160.6698684504973
 30
0.0
 11
221.8853967251575
 21
63.80842489057428
 31
0.0
  0
LINE
  5
1DA3
330
1A
100
AcDbEntity
  8
SEIHIN
  6
Continuous
 62
     3
 48
5.0
100
AcDbLine
 10
224.3853965564571
 20
160.6698684504973
 30
0.0
 11
224.3853965564571
 21
63.74279733339708
 31
0.0
  0
LINE
  5
1DB8
330
1A
100
AcDbEntity
  8
SEIHIN
  6
Continuous
 62
     3
 48
5.0
100
AcDbLine
 10
247.9763982819818
 20
60.74973146199372
 30
0.0
 11
248.12250870066
 21
60.74973111901826
 31
0.0
  0
ELLIPSE
  5
1E78
330
1A
100
AcDbEntity
  8
SEIHIN
  6
Continuous
 62
     3
 48
5.0
100
AcDbEllipse
 10
181.2054308280089
 20
200.8617082316788
 30
0.0
 11
-0.7071552494590209
 21
-0.7071552494589354
 31
0.0
210
0.0
220
0.0
230
1.0
 40
0.9999314602098772
 41
5.497821414851776
 42
7.068549199475572
  0
LINE
  5
1E79
330
1A
100
AcDbEntity
  8
SEIHIN
  6
Continuous
 62
     3
 48
5.0
100
AcDbLine
 10
218.8654308275649
 20
199.8616739588468
 30
0.0
 11
181.2053622834896
 21
199.861673958837
 31
0.0
  0
ELLIPSE
  5
1E7A
330
1A
100
AcDbEntity
  8
SEIHIN
  6
Continuous
 62
     3
 48
5.0
100
AcDbEllipse
 10
218.8653622830857
 20
200.8617082316985
 30
0.0
 11
0.7071552494589639
 21
-0.7071552494589356
 31
0.0
210
0.0
220
0.0
230
1.0
 40
0.9999314602098168
 41
5.497821414843422
 42
7.06854919947299
  0
LINE
  5
1E7B
330
1A
100
AcDbEntity
  8
SEIHIN
  6
Continuous
 62
     3
 48
5.0
100
AcDbLine
 10
219.8653965558855
 20
202.3616910940134
 30
0.0
 11
219.8653965559019
 21
200.8616396871758
 31
0.0
  0
ELLIPSE
  5
1E7C
330
1A
100
AcDbEntity
  8
SEIHIN
  6
Continuous
 62
     3
 48
5.0
100
AcDbEllipse
 10
220.3654136923282
 20
202.3616568217561
 30
0.0
 11
-0.3535776247299224
 21
0.3535776247290415
 31
0.0
210
0.0
220
0.0
230
1.0
 40
0.9999314602097967
 41
5.497821414878108
 42
7.068549199479679
  0
LINE
  5
1E7D
330
1A
100
AcDbEntity
  8
SEIHIN
  6
Continuous
 62
     3
 48
5.0
100
AcDbLine
 10
221.8654308280251
 20
202.8616739582422
 30
0.0
 11
220.3653794200722
 21
202.8616739581992
 31
0.0
  0
ELLIPSE
  5
1E7E
330
1A
100
AcDbEntity
  8
SEIHIN
  6
Continuous
 62
     3
 48
5.0
100
AcDbEllipse
 10
221.8653622835058
 20
203.8617082310787
 30
0.0
 11
0.7071552494589922
 21
-0.7071552494589924
 31
0.0
210
0.0
220
0.0
230
1.0
 40
0.9999314602097966
 41
5.49782141488362
 42
7.06854919947558
  0
LINE
  5
1E7F
330
1A
100
AcDbEntity
  8
SEIHIN
  6
Continuous
 62
     3
 48
5.0
100
AcDbLine
 10
222.8653965563748
 20
241.5217082306222
 30
0.0
 11
222.8653965563476
 21
203.8616396865587
 31
0.0
  0
ELLIPSE
  5
1E80
330
1A
100
AcDbEntity
  8
SEIHIN
  6
Continuous
 62
     3
 48
5.0
100
AcDbEllipse
 10
221.8653622835604
 20
241.5216396861295
 30
0.0
 11
0.7071552494589924
 21
0.7071552494589922
 31
0.0
210
0.0
220
0.0
230
1.0
 40
0.9999314602097364
 41
5.497821414856308
 42
7.068549199510225
  0
LINE
  5
1E81
330
1A
100
AcDbEntity
  8
SEIHIN
  6
Continuous
 62
     3
 48
5.0
100
AcDbLine
 10
220.3653794211709
 20
242.5216739589549
 30
0.0
 11
221.8654308280452
 21
242.5216739589524
 31
0.0
  0
ELLIPSE
  5
1E82
330
1A
100
AcDbEntity
  8
SEIHIN
  6
Continuous
 62
     3
 48
5.0
100
AcDbEllipse
 10
220.3654136934287
 20
243.0216910953985
 30
0.0
 11
-0.3535776247290699
 21
-0.3535776247299509
 31
0.0
210
0.0
220
0.0
230
1.0
 40
0.9999314602097163
 41
5.497821414878124
 42
7.068549199479662
  0
LINE
  5
1E83
330
1A
100
AcDbEntity
  8
SEIHIN
  6
Continuous
 62
     3
 48
5.0
100
AcDbLine
 10
219.8653965569424
 20
244.521708231095
 30
0.0
 11
219.865396556986
 21
243.0216568231406
 31
0.0
  0
ELLIPSE
  5
1E84
330
1A
100
AcDbEntity
  8
SEIHIN
  6
Continuous
 62
     3
 48
5.0
100
AcDbEllipse
 10
218.8653622841061
 20
244.5216396865747
 30
0.0
 11
0.7071552494589924
 21
0.7071552494589353
 31
0.0
210
0.0
220
0.0
230
1.0
 40
0.9999314602098168
 41
5.497821414883671
 42
7.06854919947561
  0
LINE
  5
1E85
330
1A
100
AcDbEntity
  8
SEIHIN
  6
Continuous
 62
     3
 48
5.0
100
AcDbLine
 10
181.2053622845483
 20
245.5216739594067
 30
0.0
 11
218.8654308286254
 21
245.5216739594165
 31
0.0
  0
ELLIPSE
  5
1E86
330
1A
100
AcDbEntity
  8
SEIHIN
  6
Continuous
 62
     3
 48
5.0
100
AcDbEllipse
 10
181.2054308290294
 20
244.5216396865552
 30
0.0
 11
-0.7071552494589922
 21
0.7071552494590492
 31
0.0
210
0.0
220
0.0
230
1.0
 40
0.9999314602097765
 41
5.497821414843491
 42
7.068549199507516
  0
LINE
  5
1E87
330
1A
100
AcDbEntity
  8
SEIHIN
  6
Continuous
 62
     3
 48
5.0
100
AcDbLine
 10
180.2053965562295
 20
243.0216568242407
 30
0.0
 11
180.2053965562131
 21
244.5217082310433
 31
0.0
  0
ELLIPSE
  5
1E88
330
1A
100
AcDbEntity
  8
SEIHIN
  6
Continuous
 62
     3
 48
5.0
100
AcDbEllipse
 10
179.705379419785
 20
243.0216910964985
 30
0.0
 11
-0.3535776247294676
 21
0.353577624729553
 31
0.0
210
0.0
220
0.0
230
1.0
 40
0.9999314602097564
 41
2.356228761289647
 42
3.92695654589025
  0
LINE
  5
1E89
330
1A
100
AcDbEntity
  8
SEIHIN
  6
Continuous
 62
     3
 48
5.0
100
AcDbLine
 10
178.205362284068
 20
242.5216739600445
 30
0.0
 11
179.7054136920428
 21
242.5216739600549
 31
0.0
  0
ELLIPSE
  5
1E8A
330
1A
100
AcDbEntity
  8
SEIHIN
  6
Continuous
 62
     3
 48
5.0
100
AcDbEllipse
 10
178.2054308285655
 20
241.5216396872188
 30
0.0
 11
-0.7071552494589639
 21
0.7071552494589356
 31
0.0
210
0.0
220
0.0
230
1.0
 40
0.999931460209857
 41
5.497821414861578
 42
7.068549199497582
  0
LINE
  5
1E8B
330
1A
100
AcDbEntity
  8
SEIHIN
  6
Continuous
 62
     3
 48
5.0
100
AcDbLine
 10
177.205396555762
 20
203.8616396876526
 30
0.0
 11
177.2053965557456
 21
241.521708231717
 31
0.0
  0
ELLIPSE
  5
1E8C
330
1A
100
AcDbEntity
  8
SEIHIN
  6
Continuous
 62
     3
 48
5.0
100
AcDbEllipse
 10
178.2054308285983
 20
203.8617082321667
 30
0.0
 11
-0.7071552494589924
 21
-0.7071552494589922
 31
0.0
210
0.0
220
0.0
230
1.0
 40
0.9999314602097966
 41
5.497821414877538
 42
7.068549199488908
  0
LINE
  5
1E8D
330
1A
100
AcDbEntity
  8
SEIHIN
  6
Continuous
 62
     3
 48
5.0
100
AcDbLine
 10
179.7054136909441
 20
202.8616739592988
 30
0.0
 11
178.2053622840899
 21
202.8616739593331
 31
0.0
  0
ELLIPSE
  5
1E8E
330
1A
100
AcDbEntity
  8
SEIHIN
  6
Continuous
 62
     3
 48
5.0
100
AcDbEllipse
 10
179.7053794186863
 20
202.361656822855
 30
0.0
 11
0.3535776247290699
 21
0.353577624729894
 31
0.0
210
0.0
220
0.0
230
1.0
 40
0.999931460209877
 41
5.497821414878172
 42
7.068549199479607
  0
LINE
  5
1E8F
330
1A
100
AcDbEntity
  8
SEIHIN
  6
Continuous
 62
     3
 48
5.0
100
AcDbLine
 10
180.2053965551726
 20
200.8616396871906
 30
0.0
 11
180.2053965551308
 21
202.3616910951131
 31
0.0
  0
LINE
  5
1E90
330
1A
100
AcDbEntity
  8
SEIHIN
  6
Continuous
 62
     3
 48
5.0
100
AcDbLine
 10
221.3853965564571
 20
246.0416739600267
 30
0.0
 11
221.3853965564571
 21
244.5416739600267
 31
0.0
  0
ARC
  5
1E91
330
1A
100
AcDbEntity
  8
SEIHIN
  6
Continuous
 62
     3
 48
5.0
100
AcDbCircle
 10
178.1853965557579
 20
244.5416739600267
 30
0.0
 40
0.5
100
AcDbArc
 50
270.0
 51
0.0
  0
LINE
  5
1E92
330
1A
100
AcDbEntity
  8
SEIHIN
  6
Continuous
 62
     3
 48
5.0
100
AcDbLine
 10
221.8853965564572
 20
244.0416739600267
 30
0.0
 11
223.3853965564571
 21
244.0416739600267
 31
0.0
  0
LINE
  5
1E93
330
1A
100
AcDbEntity
  8
SEIHIN
  6
Continuous
 62
     3
 48
5.0
100
AcDbLine
 10
178.1853965557579
 20
201.3416739593268
 30
0.0
 11
176.6853965557579
 21
201.3416739593268
 31
0.0
  0
LINE
  5
1E94
330
1A
100
AcDbEntity
  8
SEIHIN
  6
Continuous
 62
     3
 48
5.0
100
AcDbLine
 10
178.6853965557579
 20
199.3416739593268
 30
0.0
 11
178.6853965557579
 21
200.8416739593268
 31
0.0
  0
LINE
  5
1E95
330
1A
100
AcDbEntity
  8
SEIHIN
  6
Continuous
 62
     3
 48
5.0
100
AcDbLine
 10
178.6853965557579
 20
244.5416739600267
 30
0.0
 11
178.6853965557579
 21
246.0416739600267
 31
0.0
  0
ARC
  5
1E96
330
1A
100
AcDbEntity
  8
SEIHIN
  6
Continuous
 62
     3
 48
5.0
100
AcDbCircle
 10
179.6853965557579
 20
246.0416739600267
 30
0.0
 40
1.0
100
AcDbArc
 50
90.0
 51
180.0
  0
LINE
  5
1E97
330
1A
100
AcDbEntity
  8
SEIHIN
  6
Continuous
 62
     3
 48
5.0
100
AcDbLine
 10
175.6853965557579
 20
202.3416739593268
 30
0.0
 11
175.6853965557579
 21
243.0416739600267
 31
0.0
  0
LINE
  5
1E98
330
1A
100
AcDbEntity
  8
SEIHIN
  6
Continuous
 62
     3
 48
5.0
100
AcDbLine
 10
220.3853965564571
 20
198.3416739593268
 30
0.0
 11
179.6853965557579
 21
198.3416739593268
 31
0.0
  0
LINE
  5
1E99
330
1A
100
AcDbEntity
  8
SEIHIN
  6
Continuous
 62
     3
 48
5.0
100
AcDbLine
 10
224.3853965564571
 20
243.0416739600267
 30
0.0
 11
224.3853965564571
 21
202.3416739593268
 31
0.0
  0
LINE
  5
1E9A
330
1A
100
AcDbEntity
  8
SEIHIN
  6
Continuous
 62
     3
 48
5.0
100
AcDbLine
 10
221.3853965564571
 20
200.8416739593268
 30
0.0
 11
221.3853965564571
 21
199.3416739593268
 31
0.0
  0
LINE
  5
1E9B
330
1A
100
AcDbEntity
  8
SEIHIN
  6
Continuous
 62
     3
 48
5.0
100
AcDbLine
 10
223.3853965564571
 20
201.3416739593268
 30
0.0
 11
221.8853965564572
 21
201.3416739593268
 31
0.0
  0
ARC
  5
1E9C
330
1A
100
AcDbEntity
  8
SEIHIN
  6
Continuous
 62
     3
 48
5.0
100
AcDbCircle
 10
176.6853965557579
 20
243.0416739600267
 30
0.0
 40
1.0
100
AcDbArc
 50
90.0
 51
180.0
  0
LINE
  5
1E9D
330
1A
100
AcDbEntity
  8
SEIHIN
  6
Continuous
 62
     3
 48
5.0
100
AcDbLine
 10
178.1853965557579
 20
244.0416739600267
 30
0.0
 11
176.6853965557579
 21
244.0416739600267
 31
0.0
  0
ARC
  5
1E9E
330
1A
100
AcDbEntity
  8
SEIHIN
  6
Continuous
 62
     3
 48
5.0
100
AcDbCircle
 10
176.6853965557579
 20
202.3416739593268
 30
0.0
 40
1.0
100
AcDbArc
 50
180.0
 51
270.0
  0
ARC
  5
1E9F
330
1A
100
AcDbEntity
  8
SEIHIN
  6
Continuous
 62
     3
 48
5.0
100
AcDbCircle
 10
179.6853965557579
 20
199.3416739593268
 30
0.0
 40
1.0
100
AcDbArc
 50
180.0
 51
270.0
  0
ARC
  5
1EA0
330
1A
100
AcDbEntity
  8
SEIHIN
  6
Continuous
 62
     3
 48
5.0
100
AcDbCircle
 10
220.3853965564571
 20
199.3416739593268
 30
0.0
 40
1.0
100
AcDbArc
 50
270.0
 51
0.0
  0
ARC
  5
1EA1
330
1A
100
AcDbEntity
  8
SEIHIN
  6
Continuous
 62
     3
 48
5.0
100
AcDbCircle
 10
223.3853965564571
 20
202.3416739593268
 30
0.0
 40
1.0
100
AcDbArc
 50
270.0
 51
0.0
  0
ARC
  5
1EA2
330
1A
100
AcDbEntity
  8
SEIHIN
  6
Continuous
 62
     3
 48
5.0
100
AcDbCircle
 10
223.3853965564571
 20
243.0416739600267
 30
0.0
 40
1.0
100
AcDbArc
 50
0.0
 51
90.0
  0
ARC
  5
1EA3
330
1A
100
AcDbEntity
  8
SEIHIN
  6
Continuous
 62
     3
 48
5.0
100
AcDbCircle
 10
178.1853965557579
 20
200.8416739593268
 30
0.0
 40
0.5
100
AcDbArc
 50
0.0
 51
90.0
  0
ARC
  5
1EA4
330
1A
100
AcDbEntity
  8
SEIHIN
  6
Continuous
 62
     3
 48
5.0
100
AcDbCircle
 10
221.8853965564572
 20
200.8416739593268
 30
0.0
 40
0.5
100
AcDbArc
 50
90.0
 51
180.0
  0
ARC
  5
1EA5
330
1A
100
AcDbEntity
  8
SEIHIN
  6
Continuous
 62
     3
 48
5.0
100
AcDbCircle
 10
221.8853965564572
 20
244.5416739600267
 30
0.0
 40
0.5
100
AcDbArc
 50
180.0
 51
270.0
  0
LINE
  5
1EA6
330
1A
100
AcDbEntity
  8
SEIHIN
  6
Continuous
 62
     3
 48
5.0
100
AcDbLine
 10
179.6853965557579
 20
247.0416739600267
 30
0.0
 11
220.3853965564571
 21
247.0416739600267
 31
0.0
  0
ARC
  5
1EA7
330
1A
100
AcDbEntity
  8
SEIHIN
  6
Continuous
 62
     3
 48
5.0
100
AcDbCircle
 10
220.3853965564571
 20
246.0416739600267
 30
0.0
 40
1.0
100
AcDbArc
 50
0.0
 51
90.0
  0
SPLINE
  5
1EDD
330
1A
100
AcDbEntity
  8
SEIHIN
  6
Continuous
 62
     3
 48
5.0
100
AcDbSpline
210
0.0
220
0.0
230
1.0
 70
     8
 71
     3
 72
    10
 73
     6
 74
     0
 42
0.0000000001
 43
0.0000000001
 40
0.0
 40
0.0
 40
0.0
 40
0.0
 40
0.5
 40
0.5
 40
1.0
 40
1.0
 40
1.0
 40
1.0
 10
175.6853965557579
 20
222.6916862930105
 30
0.0
 10
175.6853965562563
 20
222.6916841539085
 30
0.0
 10
175.5895459312482
 20
222.6916820212544
 30
0.0
 10
175.2554704808167
 20
222.6916778581286
 30
0.0
 10
175.018866112799
 20
222.691675828746
 30
0.0
 10
174.7725519244572
 20
222.6916738685282
 30
0.0
  0
SPLINE
  5
1EE3
330
1A
100
AcDbEntity
  8
SEIHIN
  6
Continuous
 62
     3
 48
5.0
100
AcDbSpline
210
0.0
220
0.0
230
1.0
 70
     8
 71
     3
 72
    10
 73
     6
 74
     0
 42
0.0000000001
 43
0.0000000001
 40
0.0
 40
0.0
 40
0.0
 40
0.0
 40
0.5
 40
0.5
 40
1.0
 40
1.0
 40
1.0
 40
1.0
 10
224.3853965564571
 20
222.6916739031179
 30
0.0
 10
224.3853965564571
 20
222.691674061907
 30
0.0
 10
224.4812471867258
 20
222.6916742198221
 30
0.0
 10
224.8153225160381
 20
222.6916744539579
 30
0.0
 10
225.0519267898903
 20
222.6916745290426
 30
0.0
 10
225.2982409045575
 20
222.6916745428821
 30
0.0
  0
SPLINE
  5
1F12
330
1A
100
AcDbEntity
  8
SEIHIN
  6
Continuous
 62
     3
 48
5.0
100
AcDbSpline
210
0.0
220
0.0
230
1.0
 70
     8
 71
     3
 72
    10
 73
     6
 74
     0
 42
0.0000000001
 43
0.0000000001
 40
0.0
 40
0.0
 40
0.0
 40
0.0
 40
0.5
 40
0.5
 40
1.0
 40
1.0
 40
1.0
 40
1.0
 10
248.12250870066
 20
222.691699223424
 30
0.0
 10
248.3688048426042
 20
222.6916986745099
 30
0.0
 10
248.6053825545091
 20
222.6916957079883
 30
0.0
 10
248.9394146953159
 20
222.6916864623534
 30
0.0
 10
249.0352492222987
 20
222.691680228094
 30
0.0
 10
249.0352454797825
 20
222.6916739604147
 30
0.0
  0
SPLINE
  5
1F16
330
1A
100
AcDbEntity
  8
SEIHIN
  6
Continuous
 62
     3
 48
5.0
100
AcDbSpline
210
0.0
220
0.0
230
1.0
 70
     8
 71
     3
 72
    10
 73
     6
 74
     0
 42
0.0000000001
 43
0.0000000001
 40
0.0
 40
0.0
 40
0.0
 40
0.0
 40
0.5
 40
0.5
 40
1.0
 40
1.0
 40
1.0
 40
1.0
 10
151.0353965561312
 20
222.6916739591241
 30
0.0
 10
151.0353965561275
 20
222.6916738018295
 30
0.0
 10
151.1312440677861
 20
222.6916736453876
 30
0.0
 10
151.4653099427428
 20
222.6916734134391
 30
0.0
 10
151.7019080077075
 20
222.6916733390577
 30
0.0
 10
151.9482177652548
 20
222.6916733253454
 30
0.0
  0
LINE
  5
1F95
330
1A
100
AcDbEntity
  8
CENTER L
  6
CENTER
 48
5.0
100
AcDbLine
 10
200.0353965560566
 20
16.79994463914624
 30
0.0
 11
200.0353965560566
 21
164.9417733715915
 31
0.0
  0
LINE
  5
1FC0
330
1A
100
AcDbEntity
  8
CENTER L
  6
CENTER
 48
5.0
100
AcDbLine
 10
253.9090499723322
 20
222.691699223424
 30
0.0
 11
146.161743139781
 21
222.691699223424
 31
0.0
  0
TEXT
  5
2388
330
1A
100
AcDbEntity
  8
SUNPOU
100
AcDbText
 10
315.9047724545278
 20
22.32045881657814
 30
0.0
 40
4.0
  1
※　排水管の差込み寸法を示す。
100
AcDbText
  0
LINE
  5
24A5
330
1A
100
AcDbEntity
  8
SEIHIN
  6
Continuous
 62
     3
 48
5.0
100
AcDbLine
 10
152.0942959926592
 20
60.75111233772358
 30
0.0
 11
174.7705418519521
 21
62.74041797729009
 31
0.0
  0
LINE
  5
24A6
330
1A
100
AcDbEntity
  8
SEIHIN
  6
Continuous
 62
     3
 48
5.0
100
AcDbLine
 10
151.0353965560566
 20
20.66986845049731
 30
0.0
 11
151.0353965560566
 21
59.75488035515841
 31
0.0
  0
LINE
  5
24A9
330
1A
100
AcDbEntity
  8
SEIHIN
  6
Continuous
 62
     3
 48
5.0
100
AcDbLine
 10
176.7483582993549
 20
62.71892800737439
 30
0.0
 11
177.7470258000844
 21
62.78146803446495
 31
0.0
  0
LINE
  5
24AD
330
1A
100
AcDbEntity
  8
SEIHIN
  6
Continuous
 62
     3
 48
5.0
100
AcDbLine
 10
152.0944160513695
 20
60.7497396077434
 30
0.0
 11
151.9482836496422
 21
60.74973982657056
 31
0.0
  0
SPLINE
  5
24AE
330
1A
100
AcDbEntity
  8
SEIHIN
  6
Continuous
 62
     3
 48
5.0
100
AcDbSpline
210
0.0
220
0.0
230
1.0
 70
     8
 71
     3
 72
    10
 73
     6
 74
     0
 42
0.0000000001
 43
0.0000000001
 40
0.0
 40
0.0
 40
0.0
 40
0.0
 40
0.5
 40
0.5
 40
1.0
 40
1.0
 40
1.0
 40
1.0
 10
151.9482844114531
 20
60.74973111901826
 30
0.0
 10
151.7019882695089
 20
60.72816058483394
 30
0.0
 10
151.4654105576041
 20
60.61123561932991
 30
0.0
 10
151.1313784167973
 20
60.24666352984613
 30
0.0
 10
151.0355438898145
 20
60.00078425294768
 30
0.0
 10
151.0355476323306
 20
59.753544264027
 30
0.0
  0
SPLINE
  5
24B2
330
1A
100
AcDbEntity
  8
SEIHIN
  6
Continuous
 62
     3
 48
5.0
100
AcDbSpline
210
0.0
220
0.0
230
1.0
 70
     8
 71
     3
 72
    21
 73
    17
 74
     0
 42
0.0000000001
 43
0.0000000001
 40
0.0
 40
0.0
 40
0.0
 40
0.0
 40
0.0561413011445022
 40
0.0841045005183217
 40
0.1120495282024215
 40
0.2247267198375578
 40
0.3668987417706853
 40
0.458179382168553
 40
0.4670830498488633
 40
0.4908933576506924
 40
0.5300284501023188
 40
0.5852483898238983
 40
0.6578261462068158
 40
0.749702462948327
 40
0.8632971897442207
 40
0.9999999999999998
 40
0.9999999999999998
 40
0.9999999999999998
 40
0.9999999999999998
 10
177.7470257432555
 20
62.78146925377448
 30
0.0
 10
177.7601458102649
 20
62.78452919946968
 30
0.0
 10
177.779800799733
 20
62.78911326145382
 30
0.0
 10
177.8059873848628
 20
62.79955241628269
 30
0.0
 10
177.8452429189032
 20
62.81816114292403
 30
0.0
 10
177.9090780974724
 20
62.86296415953845
 30
0.0
 10
177.9812155796566
 20
62.94658866921597
 30
0.0
 10
178.0264460430876
 20
63.02291724778157
 30
0.0
 10
178.0480512996632
 20
63.06561949689942
 30
0.0
 10
178.0602840483293
 20
63.09105045892053
 30
0.0
 10
178.0794653667485
 20
63.13501466009845
 30
0.0
 10
178.1044520485734
 20
63.20152186353514
 30
0.0
 10
178.1332407301138
 20
63.29641722839184
 30
0.0
 10
178.1618194931356
 20
63.42715803661346
 30
0.0
 10
178.1851869981287
 20
63.60115174391236
 30
0.0
 10
178.1853224230921
 20
63.73520836289841
 30
0.0
 10
178.1853963869557
 20
63.80842489057428
 30
0.0
  0
LINE
  5
24B4
330
1A
100
AcDbEntity
  8
SEIHIN
  6
Continuous
 62
     3
 48
5.0
100
AcDbLine
 10
178.1853965556561
 20
160.6698684504973
 30
0.0
 11
178.1853965556561
 21
63.80841919977453
 31
0.0
  0
LINE
  5
24B6
330
1A
100
AcDbEntity
  8
SEIHIN
  6
Continuous
 62
     3
 48
5.0
100
AcDbLine
 10
175.685396555656
 20
160.6698684504973
 30
0.0
 11
175.685396555656
 21
63.74279733339708
 31
0.0
  0
SPLINE
  5
24B9
330
1A
100
AcDbEntity
  8
SEIHIN
  6
Continuous
 62
     3
 48
5.0
100
AcDbSpline
210
0.0
220
0.0
230
1.0
 70
     8
 71
     3
 72
    10
 73
     6
 74
     0
 42
0.0000000001
 43
0.0000000001
 40
0.0
 40
0.0
 40
0.0
 40
0.0
 40
0.5
 40
0.5
 40
1.0
 40
1.0
 40
1.0
 40
1.0
 10
175.685396555656
 20
63.74279733339753
 30
0.0
 10
175.685396555656
 20
63.49554234098068
 30
0.0
 10
175.5895459253874
 20
63.24964844452242
 30
0.0
 10
175.2554705960751
 20
62.88506923120994
 30
0.0
 10
175.0188663222229
 20
62.76815229798066
 30
0.0
 10
174.7725522075556
 20
62.7466026278972
 30
0.0
  0
LINE
  5
24BA
330
1A
100
AcDbEntity
  8
SEIHIN
  6
Continuous
 62
     3
 48
5.0
100
AcDbLine
 10
152.0943948301314
 20
60.74973146199372
 30
0.0
 11
151.9482844114531
 21
60.74973111901826
 31
0.0
  0
DIMENSION
  5
24DF
330
1A
100
AcDbEntity
  8
SUNPOU
 48
5.0
100
AcDbDimension
  2
*D2
 10
153.0359096907566
 20
48.63714600946524
 30
0.0
 11
207.7863457210942
 21
52.17085065963283
 31
0.0
 70
   160
  1
φ<>
 71
     5
 42
-1.0
  3
STANDARD
100
AcDbAlignedDimension
 13
247.0335355906811
 23
58.10943854223272
 33
0.0
 14
153.0359096907566
 24
58.10943854223272
 34
0.0
100
AcDbRotatedDimension
1001
ACAD
1000
DSTYLE
1002
{
1070
   287
1070
     5
1070
   287
1070
     5
1070
   287
1070
     5
1070
   287
1070
     5
1070
   287
1070
     5
1070
    42
1040
3.0
1070
    43
1040
7.0
1070
   141
1040
150.0
1070
   172
1070
     1
1070
   173
1070
     1
1070
   176
1070
     4
1070
   177
1070
     4
1070
   178
1070
     4
1070
   272
1070
     2
1070
   279
1070
     2
1070
     6
1000
OPEN
1070
     7
1000
OPEN
1002
}
  0
TEXT
  5
24E1
330
1A
100
AcDbEntity
  8
SUNPOU
100
AcDbText
 10
213.4366400405672
 20
50.76902383810078
 30
0.0
 40
3.0
  1
（ＶＵ・ＶＰ７５）
100
AcDbText
  0
DIMENSION
  5
2536
330
1A
100
AcDbEntity
  8
SUNPOU
100
AcDbDimension
  2
*D3
 10
274.4275013835121
 20
20.66986845049731
 30
0.0
 11
271.9275013835122
 21
90.66986845049738
 31
0.0
 70
    32
 71
     5
 42
-1.0
  3
STANDARD
100
AcDbAlignedDimension
 13
224.3853965564571
 23
160.6698684504973
 33
0.0
 14
249.0353965560566
 24
20.66986845049731
 34
0.0
 50
90.0
100
AcDbRotatedDimension
  0
DIMENSION
  5
2570
330
1A
100
AcDbEntity
  8
SUNPOU
100
AcDbDimension
  2
*D4
 10
224.3853965564571
 20
166.9349304914046
 30
0.0
 11
200.0353965560566
 21
169.4349304914046
 31
0.0
 70
    32
 71
     5
 42
-1.0
  3
STANDARD
100
AcDbAlignedDimension
 13
175.685396555656
 23
160.6698684504973
 33
0.0
 14
224.3853965564571
 24
160.6698684504973
 34
0.0
100
AcDbRotatedDimension
  0
DIMENSION
  5
258F
330
1A
100
AcDbEntity
  8
SUNPOU
100
AcDbDimension
  2
*D5
 10
249.0355476323307
 20
80.6837833937096
 30
0.0
 11
200.0355476323306
 21
83.1837833937096
 31
0.0
 70
    32
  1
φ<>
 71
     5
 42
-1.0
  3
STANDARD
100
AcDbAlignedDimension
 13
151.0355476323306
 23
59.753544264027
 33
0.0
 14
249.0355476323307
 24
59.75354426402697
 34
0.0
100
AcDbRotatedDimension
  0
LINE
  5
26E7
330
1A
100
AcDbEntity
  8
CENTER L
  6
CENTER
 48
5.0
100
AcDbLine
 10
200.0353965560566
 20
168.8180458071484
 30
0.0
 11
200.0353965560566
 21
276.5653526396996
 31
0.0
  0
LINE
  5
26F1
330
1A
100
AcDbEntity
  8
SEIHIN
  6
Continuous
 62
     3
 48
5.0
100
AcDbLine
 10
225.2981656516027
 20
62.74660921466436
 30
0.0
 11
174.7803610586029
 21
62.74660921466436
 31
0.0
  0
LINE
  5
26F2
330
1A
100
AcDbEntity
  8
SEIHIN
  6
Continuous
 62
     3
 48
5.0
100
AcDbLine
 10
223.3224348127582
 20
62.71892800737439
 30
0.0
 11
222.3237673120288
 21
62.78146803446495
 31
0.0
  0
SPLINE
  5
26F3
330
1A
100
AcDbEntity
  8
SEIHIN
  6
Continuous
 62
     3
 48
5.0
100
AcDbSpline
210
0.0
220
0.0
230
1.0
 70
     8
 71
     3
 72
    21
 73
    17
 74
     0
 42
0.0000000001
 43
0.0000000001
 40
0.0
 40
0.0
 40
0.0
 40
0.0
 40
0.0561413011445022
 40
0.0841045005183217
 40
0.1120495282024215
 40
0.2247267198375578
 40
0.3668987417706853
 40
0.458179382168553
 40
0.4670830498488633
 40
0.4908933576506924
 40
0.5300284501023188
 40
0.5852483898238983
 40
0.6578261462068158
 40
0.749702462948327
 40
0.8632971897442207
 40
0.9999999999999998
 40
0.9999999999999998
 40
0.9999999999999998
 40
0.9999999999999998
 10
222.3237673688577
 20
62.78146925377448
 30
0.0
 10
222.3106473018483
 20
62.78452919946968
 30
0.0
 10
222.2909923123802
 20
62.78911326145382
 30
0.0
 10
222.2648057272504
 20
62.79955241628269
 30
0.0
 10
222.2255501932099
 20
62.81816114292403
 30
0.0
 10
222.1617150146407
 20
62.86296415953845
 30
0.0
 10
222.0895775324565
 20
62.94658866921597
 30
0.0
 10
222.0443470690256
 20
63.02291724778157
 30
0.0
 10
222.02274181245
 20
63.06561949689942
 30
0.0
 10
222.0105090637839
 20
63.09105045892053
 30
0.0
 10
221.9913277453647
 20
63.13501466009845
 30
0.0
 10
221.9663410635398
 20
63.20152186353514
 30
0.0
 10
221.9375523819994
 20
63.29641722839184
 30
0.0
 10
221.9089736189776
 20
63.42715803661346
 30
0.0
 10
221.8856061139845
 20
63.60115174391236
 30
0.0
 10
221.885470689021
 20
63.73520836289841
 30
0.0
 10
221.8853967251575
 20
63.80842489057428
 30
0.0
  0
SPLINE
  5
26F4
330
1A
100
AcDbEntity
  8
SEIHIN
  6
Continuous
 62
     3
 48
5.0
100
AcDbSpline
210
0.0
220
0.0
230
1.0
 70
     8
 71
     3
 72
    10
 73
     6
 74
     0
 42
0.0000000001
 43
0.0000000001
 40
0.0
 40
0.0
 40
0.0
 40
0.0
 40
0.5
 40
0.5
 40
1.0
 40
1.0
 40
1.0
 40
1.0
 10
224.3853965564571
 20
63.74279733339753
 30
0.0
 10
224.3853965564571
 20
63.49554234098068
 30
0.0
 10
224.4812471867258
 20
63.24964844452242
 30
0.0
 10
224.8153225160381
 20
62.88506923120994
 30
0.0
 10
225.0519267898903
 20
62.76815229798066
 30
0.0
 10
225.2982409045575
 20
62.7466026278972
 30
0.0
  0
CIRCLE
  5
26FD
330
1A
100
AcDbEntity
  8
SEIHIN
  6
Continuous
 62
     3
 48
5.0
100
AcDbCircle
 10
200.0353965560566
 20
222.691699223424
 30
0.0
 40
49.0
  0
DIMENSION
  5
2707
330
1A
100
AcDbEntity
  8
SUNPOU
100
AcDbDimension
  2
*D6
 10
156.7048742624499
 20
199.8123234066924
 30
0.0
 11
229.7315496676738
 21
241.9894135623788
 31
0.0
 70
   163
 71
     5
 42
-1.0
  3
STANDARD
100
AcDbDiametricDimension
 15
243.3659188496636
 25
245.5710750401558
 35
0.0
 40
0.0
1001
ACAD
1000
DSTYLE
1002
{
1070
   287
1070
     5
1070
   287
1070
     5
1070
   287
1070
     5
1070
   287
1070
     5
1070
   287
1070
     5
1070
   279
1070
     2
1070
   288
1070
     1
1002
}
  0
DIMENSION
  5
2731
330
1A
100
AcDbEntity
  8
SUNPOU
100
AcDbDimension
  2
*D7
 10
266.6060649088334
 20
58.67010477340773
 30
0.0
 11
269.1061323579035
 21
39.67011364840719
 31
0.0
 70
    32
  1
※<>
 71
     5
 42
-1.0
  3
STANDARD
100
AcDbAlignedDimension
 13
249.0353965557479
 23
20.67004239814106
 33
0.0
 14
249.0352616575751
 24
58.67004239790162
 34
0.0
 50
90.00020339726045
100
AcDbRotatedDimension
  0
DIMENSION
  5
2750
330
1A
100
AcDbEntity
  8
SUNPOU
100
AcDbDimension
  2
*D8
 10
224.3853965564571
 20
183.8793121605947
 30
0.0
 11
200.0353965561075
 21
186.3793121605947
 31
0.0
 70
    32
  1
\U+25A1<>
 71
     5
 42
-1.0
  3
STANDARD
100
AcDbAlignedDimension
 13
175.6853965557579
 23
202.3416739593268
 33
0.0
 14
224.3853965564571
 24
202.3416739593268
 34
0.0
100
AcDbRotatedDimension
  0
DIMENSION
  5
275D
330
1A
100
AcDbEntity
  8
SUNPOU
100
AcDbDimension
  2
*D9
 10
178.6853965557579
 20
190.8702120221294
 30
0.0
 11
200.0353965561075
 21
193.3702120221294
 31
0.0
 70
    32
  1
\U+25A1<>
 71
     5
 42
-1.0
  3
STANDARD
100
AcDbAlignedDimension
 13
221.3853965564571
 23
199.3416739593268
 33
0.0
 14
178.6853965557579
 24
199.3416739593268
 34
0.0
100
AcDbRotatedDimension
  0
VIEWPORT
  5
22
102
{ACAD_XDICTIONARY
360
25C4
102
}
330
17
100
AcDbEntity
 67
     1
  8
0
100
AcDbViewport
 10
313.6808219178082
 20
148.5
 30
0.0
 40
627.3616438356165
 41
297.0
 68
     2
 69
     1
 12
313.6808219178082
 22
148.5
 13
0.0
 23
0.0
 14
1.0
 24
1.0
 15
10.0
 25
10.0
 16
0.0
 26
0.0
 36
1.0
 17
0.0
 27
0.0
 37
0.0
 42
50.0
 43
0.0
 44
0.0
 45
297.0
 50
0.0
 51
0.0
 72
   100
 90
    32768
  1

281
     0
 71
     1
 74
     0
110
0.0
120
0.0
130
0.0
111
1.0
121
0.0
131
0.0
112
0.0
122
1.0
132
0.0
 79
     0
146
0.0
  0
VIEWPORT
  5
64
102
{ACAD_XDICTIONARY
360
25C6
102
}
330
17
100
AcDbEntity
 67
     1
  8
VIEWPORT
100
AcDbViewport
 10
210.0
 20
148.5
 30
0.0
 40
420.0
 41
297.0
 68
     1
 69
     2
 12
210.0
 22
148.5
 13
0.0
 23
0.0
 14
5.0
 24
5.0
 15
0.0
 25
0.0
 16
0.0
 26
0.0
 36
1.0
 17
0.0
 27
0.0
 37
0.0
 42
50.0
 43
0.0
 44
0.0
 45
302.9399999999998
 50
0.0
 51
0.0
 72
   100
 90
    32768
  1

281
     0
 71
     1
 74
     0
110
0.0
120
0.0
130
0.0
111
1.0
121
0.0
131
0.0
112
0.0
122
1.0
132
0.0
 79
     0
146
0.0
  0
ENDSEC
  0
SECTION
  2
OBJECTS
  0
DICTIONARY
  5
C
330
0
100
AcDbDictionary
281
     1
  3
ACAD_COLOR
350
1172
  3
ACAD_GROUP
350
D
  3
ACAD_LAYOUT
350
415
  3
ACAD_MATERIAL
350
1140
  3
ACAD_MLEADERSTYLE
350
1187
  3
ACAD_MLINESTYLE
350
E
  3
ACAD_PLOTSETTINGS
350
416
  3
ACAD_PLOTSTYLENAME
350
413
  3
ACAD_SCALELIST
350
1175
  3
ACAD_TABLESTYLE
350
1173
  3
ACAD_VISUALSTYLE
350
1159
  3
ACDB_RECOMPOSE_DATA
350
25C0
  3
AcDbVariableDictionary
350
16A3
  3
DWGPROPS
350
25C1
  0
DICTIONARY
  5
25C2
330
8
100
AcDbDictionary
280
     1
281
     1
  3
ACAD_XREC_ROUNDTRIP
360
25C3
  0
DICTIONARY
  5
1195
330
2
100
AcDbDictionary
280
     1
281
     1
  3
ACAD_LAYERSTATES
360
1196
  0
DICTIONARY
  5
167C
330
F
100
AcDbDictionary
280
     1
281
     1
  3
ADSK_XREC_LAYER_RECONCILED
360
167D
  0
DICTIONARY
  5
167E
330
62
100
AcDbDictionary
280
     1
281
     1
  3
ADSK_XREC_LAYER_RECONCILED
360
167F
  0
DICTIONARY
  5
1680
330
6B
100
AcDbDictionary
280
     1
281
     1
  3
ADSK_XREC_LAYER_RECONCILED
360
1681
  0
DICTIONARY
  5
1682
330
13D
100
AcDbDictionary
280
     1
281
     1
  3
ADSK_XREC_LAYER_RECONCILED
360
1683
  0
DICTIONARY
  5
1684
330
13E
100
AcDbDictionary
280
     1
281
     1
  3
ADSK_XREC_LAYER_RECONCILED
360
1685
  0
DICTIONARY
  5
1686
330
13F
100
AcDbDictionary
280
     1
281
     1
  3
ADSK_XREC_LAYER_RECONCILED
360
1687
  0
DICTIONARY
  5
1688
330
4BA
100
AcDbDictionary
280
     1
281
     1
  3
ADSK_XREC_LAYER_RECONCILED
360
1689
  0
DICTIONARY
  5
444
330
1A
100
AcDbDictionary
280
     1
281
     1
  3
ACAD_LAYOUTSELFREF
360
29A0
  3
ACAD_SORTENTS
360
152C
  0
DICTIONARY
  5
442
330
17
100
AcDbDictionary
280
     1
281
     1
  3
ACAD_LAYOUTSELFREF
360
299F
  0
DICTIONARY
  5
25C4
330
22
100
AcDbDictionary
280
     1
281
     1
  3
ACAD_XREC_ROUNDTRIP
360
25C5
  0
DICTIONARY
  5
25C6
330
64
100
AcDbDictionary
280
     1
281
     1
  3
ACAD_XREC_ROUNDTRIP
360
25C7
  0
DICTIONARY
  5
1172
102
{ACAD_REACTORS
330
C
102
}
330
C
100
AcDbDictionary
281
     1
  0
DICTIONARY
  5
D
102
{ACAD_REACTORS
330
C
102
}
330
C
100
AcDbDictionary
281
     1
  0
DICTIONARY
  5
415
102
{ACAD_REACTORS
330
C
102
}
330
C
100
AcDbDictionary
281
     1
  3
Model
350
417
  3
ﾚｲｱｳﾄ1
350
418
  0
DICTIONARY
  5
1140
102
{ACAD_REACTORS
330
C
102
}
330
C
100
AcDbDictionary
281
     1
  3
ByBlock
350
1149
  3
ByLayer
350
1141
  3
Global
350
1151
  0
DICTIONARY
  5
1187
102
{ACAD_REACTORS
330
C
102
}
330
C
100
AcDbDictionary
281
     1
  3
Standard
350
1188
  0
DICTIONARY
  5
E
102
{ACAD_REACTORS
330
C
102
}
330
C
100
AcDbDictionary
281
     1
  3
STANDARD
350
13
  0
DICTIONARY
  5
416
102
{ACAD_REACTORS
330
C
102
}
330
C
100
AcDbDictionary
281
     1
  0
ACDBDICTIONARYWDFLT
  5
413
102
{ACAD_REACTORS
330
C
102
}
330
C
100
AcDbDictionary
281
     1
  3
Normal
350
414
100
AcDbDictionaryWithDefault
340
414
1001
ACAD
1000
TREAT_AS_HARD
1070
     0
1000
TREAT_AS_HARD
1070
     0
1000
TREAT_AS_HARD
1070
     0
1000
TREAT_AS_HARD
1070
     0
1000
TREAT_AS_HARD
1070
     0
  0
DICTIONARY
  5
1175
102
{ACAD_REACTORS
330
C
102
}
330
C
100
AcDbDictionary
281
     1
  3
A0
350
1176
  3
A1
350
1177
  3
A2
350
1178
  3
A3
350
1179
  3
A4
350
117A
  3
A5
350
117B
  3
A6
350
117C
  3
A7
350
117D
  3
A8
350
117E
  3
A9
350
117F
  3
B0
350
1180
  3
B1
350
1181
  3
B2
350
1182
  3
B3
350
1183
  3
B4
350
1184
  3
B5
350
1185
  3
B6
350
1186
  0
DICTIONARY
  5
1173
102
{ACAD_REACTORS
330
C
102
}
330
C
100
AcDbDictionary
281
     1
  3
Standard
350
1174
  0
DICTIONARY
  5
1159
102
{ACAD_REACTORS
330
C
102
}
330
C
100
AcDbDictionary
281
     1
  3
2dWireframe
350
115F
  3
Basic
350
115E
  3
Brighten
350
1165
  3
ColorChange
350
1169
  3
Conceptual
350
1162
  3
Dim
350
1164
  3
EdgeColorOff
350
1171
  3
Facepattern
350
1168
  3
Flat
350
115A
  3
FlatWithEdges
350
115B
  3
Gouraud
350
115C
  3
GouraudWithEdges
350
115D
  3
Hidden
350
1161
  3
JitterOff
350
116F
  3
Linepattern
350
1167
  3
OverhangOff
350
1170
  3
Realistic
350
1163
  3
Shaded
350
116E
  3
Shaded with edges
350
116D
  3
Shades of Gray
350
116A
  3
Sketchy
350
116B
  3
Thicken
350
1166
  3
Wireframe
350
1160
  3
X-Ray
350
116C
  0
XRECORD
  5
25C0
102
{ACAD_REACTORS
330
C
102
}
330
C
100
AcDbXrecord
280
     1
 90
        1
330
1174
  0
DICTIONARY
  5
16A3
102
{ACAD_REACTORS
330
C
102
}
330
C
100
AcDbDictionary
281
     1
  3
CANNOSCALE
350
16A7
  3
CMLEADERSTYLE
350
16A5
  3
CTABLESTYLE
350
16A4
  3
DIMASSOC
350
2602
  3
INDEXCTL
350
2601
  3
LAYEREVAL
350
16A9
  3
LAYERNOTIFY
350
16AA
  3
LIGHTINGUNITS
350
16A8
  3
MSLTSCALE
350
16A6
  3
SORTENTS
350
2600
  3
XCLIPFRAME
350
2603
  0
XRECORD
  5
25C1
102
{ACAD_REACTORS
330
C
102
}
330
C
100
AcDbXrecord
280
     1
  1
DWGPROPS COOKIE
  2

  3

  4

  6

  7

  8
tomomi-takahashi
  9

300
=
301
=
302
=
303
=
304
=
305
=
306
=
307
=
308
=
309
=
 40
0.0634337037037037
 41
2451204.541313194
 42
2455985.410954548
  1

 90
        0
  0
XRECORD
  5
25C3
102
{ACAD_REACTORS
330
25C2
102
}
330
25C2
100
AcDbXrecord
280
     1
102
VTR_0.000_0.000_1.000_1.000_VISUALSTYLE
340
115F
102
VTR_0.000_0.000_1.000_1.000_GRIDDISPLAY
 70
     3
102
VTR_0.000_0.000_1.000_1.000_GRIDMAJOR
 70
     5
102
VTR_0.000_0.000_1.000_1.000_DEFAULTLIGHTING
280
     1
102
VTR_0.000_0.000_1.000_1.000_DEFAULTLIGHTINGTYPE
 70
     1
102
VTR_0.000_0.000_1.000_1.000_BRIGHTNESS
141
0.0
102
VTR_0.000_0.000_1.000_1.000_CONTRAST
142
0.0
  0
DICTIONARY
  5
1196
102
{ACAD_REACTORS
330
1195
102
}
330
1195
100
AcDbDictionary
281
     1
  0
XRECORD
  5
167D
102
{ACAD_REACTORS
330
167C
102
}
330
167C
100
AcDbXrecord
280
     1
290
     1
  0
XRECORD
  5
167F
102
{ACAD_REACTORS
330
167E
102
}
330
167E
100
AcDbXrecord
280
     1
290
     1
  0
XRECORD
  5
1681
102
{ACAD_REACTORS
330
1680
102
}
330
1680
100
AcDbXrecord
280
     1
290
     1
  0
XRECORD
  5
1683
102
{ACAD_REACTORS
330
1682
102
}
330
1682
100
AcDbXrecord
280
     1
290
     1
  0
XRECORD
  5
1685
102
{ACAD_REACTORS
330
1684
102
}
330
1684
100
AcDbXrecord
280
     1
290
     1
  0
XRECORD
  5
1687
102
{ACAD_REACTORS
330
1686
102
}
330
1686
100
AcDbXrecord
280
     1
290
     1
  0
XRECORD
  5
1689
102
{ACAD_REACTORS
330
1688
102
}
330
1688
100
AcDbXrecord
280
     1
290
     1
  0
XRECORD
  5
29A0
102
{ACAD_REACTORS
330
444
102
}
330
444
100
AcDbXrecord
280
     1
340
1A
  0
SORTENTSTABLE
  5
152C
102
{ACAD_REACTORS
330
444
102
}
330
444
100
AcDbSortentsTable
330
1A
331
2388
  5
238A
331
1E90
  5
1E91
331
1E78
  5
1E79
331
1D78
  5
1D78
331
628
  5
628
331
608
  5
608
331
5E8
  5
5E8
331
5D0
  5
5D0
331
5B0
  5
5B0
331
590
  5
590
331
24B9
  5
24BB
331
1E91
  5
1E92
331
1E79
  5
1E7A
331
629
  5
629
331
609
  5
609
331
5E9
  5
5E9
331
5D1
  5
5D1
331
5B1
  5
5B1
331
591
  5
591
331
24BA
  5
24BC
331
1E92
  5
1E93
331
1E7A
  5
1E7B
331
62A
  5
62A
331
60A
  5
60A
331
5EA
  5
5EA
331
5D2
  5
5D2
331
5B2
  5
5B2
331
592
  5
592
331
1EE3
  5
1F11
331
1E93
  5
1E94
331
1E7B
  5
1E7C
331
62B
  5
62B
331
5EB
  5
5EB
331
5D3
  5
5D3
331
5B3
  5
5B3
331
593
  5
593
331
1E94
  5
1E95
331
1E7C
  5
1E7D
331
1D7C
  5
1D7C
331
60C
  5
60C
331
5EC
  5
5EC
331
5D4
  5
5D4
331
5B4
  5
5B4
331
594
  5
594
331
1E95
  5
1E96
331
1E7D
  5
1E7E
331
60D
  5
60D
331
5ED
  5
5ED
331
5D5
  5
5D5
331
5B5
  5
5B5
331
595
  5
595
331
1E96
  5
1E97
331
1E7E
  5
1E7F
331
1D7E
  5
1D7E
331
60E
  5
60E
331
5EE
  5
5EE
331
5D6
  5
5D6
331
5B6
  5
5B6
331
596
  5
596
331
1E97
  5
1E98
331
1E7F
  5
1E80
331
1D7F
  5
1D7F
331
5EF
  5
5EF
331
5D7
  5
5D7
331
5B7
  5
5B7
331
597
  5
597
331
577
  5
577
331
1E98
  5
1E99
331
1E80
  5
1E81
331
1D88
  5
1D8B
331
610
  5
610
331
5F0
  5
5F0
331
5D8
  5
5D8
331
5B8
  5
5B8
331
598
  5
598
331
578
  5
578
331
1E99
  5
1E9A
331
1E81
  5
1E82
331
611
  5
611
331
5F1
  5
5F1
331
5D9
  5
5D9
331
5B9
  5
5B9
331
599
  5
599
331
579
  5
579
331
1F12
  5
1F13
331
1E9A
  5
1E9B
331
1E82
  5
1E83
331
612
  5
612
331
5F2
  5
5F2
331
5DA
  5
5DA
331
5BA
  5
5BA
331
59A
  5
59A
331
57A
  5
57A
331
1E9B
  5
1E9C
331
1E83
  5
1E84
331
CC3
  5
CC3
331
613
  5
613
331
5F3
  5
5F3
331
5DB
  5
5DB
331
5BB
  5
5BB
331
59B
  5
59B
331
57B
  5
57B
331
1E9C
  5
1E9D
331
1E84
  5
1E85
331
614
  5
614
331
5F4
  5
5F4
331
5DC
  5
5DC
331
5BC
  5
5BC
331
59C
  5
59C
331
57C
  5
57C
331
24A5
  5
24A7
331
1E9D
  5
1E9E
331
1E85
  5
1E86
331
615
  5
615
331
5F5
  5
5F5
331
5DD
  5
5DD
331
5BD
  5
5BD
331
59D
  5
59D
331
57D
  5
57D
331
24A6
  5
24A8
331
1F16
  5
1F17
331
1E9E
  5
1E9F
331
1E86
  5
1E87
331
8E6
  5
8E6
331
616
  5
616
331
5F6
  5
5F6
331
5DE
  5
5DE
331
5BE
  5
5BE
331
59E
  5
59E
331
57E
  5
57E
331
5F8
  5
5F8
331
5E0
  5
5E0
331
5C0
  5
5C0
331
5A0
  5
5A0
331
580
  5
580
331
24DF
  5
24E0
331
1E9F
  5
1EA0
331
1E87
  5
1E88
331
617
  5
617
331
5F7
  5
5F7
331
5DF
  5
5DF
331
5BF
  5
5BF
331
59F
  5
59F
331
57F
  5
57F
331
619
  5
619
331
5F9
  5
5F9
331
5E1
  5
5E1
331
5C1
  5
5C1
331
5A1
  5
5A1
331
581
  5
581
331
1EA0
  5
1EA1
331
1E88
  5
1E89
331
61A
  5
61A
331
5FA
  5
5FA
331
5E2
  5
5E2
331
5C2
  5
5C2
331
5A2
  5
5A2
331
582
  5
582
331
24E1
  5
251E
331
24A9
  5
24AB
331
1EA1
  5
1EA2
331
1E89
  5
1E8A
331
1DA1
  5
1DA2
331
1EA3
  5
1EA4
331
1E8B
  5
1E8C
331
1DA3
  5
1DA5
331
61B
  5
61B
331
5FB
  5
5FB
331
5E3
  5
5E3
331
5C3
  5
5C3
331
5A3
  5
5A3
331
583
  5
583
331
1EA4
  5
1EA5
331
1E8C
  5
1E8D
331
61C
  5
61C
331
5FC
  5
5FC
331
5E4
  5
5E4
331
5C4
  5
5C4
331
5A4
  5
5A4
331
584
  5
584
331
24AD
  5
24AF
331
1F95
  5
1FC0
331
1EA5
  5
1EA6
331
1E8D
  5
1E8E
331
61D
  5
61D
331
5FD
  5
5FD
331
5E5
  5
5E5
331
5C5
  5
5C5
331
5A5
  5
5A5
331
585
  5
585
331
24AE
  5
24B0
331
1EA6
  5
1EA7
331
1E8E
  5
1E8F
331
1D66
  5
1D66
331
61E
  5
61E
331
5FE
  5
5FE
331
5E6
  5
5E6
331
5C6
  5
5C6
331
5A6
  5
5A6
331
586
  5
586
331
1EA7
  5
1EDD
331
1E8F
  5
1E90
331
61F
  5
61F
331
5FF
  5
5FF
331
5E7
  5
5E7
331
5C7
  5
5C7
331
5A7
  5
5A7
331
587
  5
587
331
1FC0
  5
2389
331
1DB8
  5
1E78
331
1D68
  5
1D68
331
620
  5
620
331
600
  5
600
331
5C8
  5
5C8
331
5A8
  5
5A8
331
588
  5
588
331
621
  5
621
331
601
  5
601
331
5C9
  5
5C9
331
5A9
  5
5A9
331
589
  5
589
331
24B2
  5
24B4
331
622
  5
622
331
602
  5
602
331
5CA
  5
5CA
331
5AA
  5
5AA
331
58A
  5
58A
331
623
  5
623
331
603
  5
603
331
5CB
  5
5CB
331
5AB
  5
5AB
331
58B
  5
58B
331
24B4
  5
24B6
331
624
  5
624
331
5CC
  5
5CC
331
5AC
  5
5AC
331
58C
  5
58C
331
1EDD
  5
1EE3
331
625
  5
625
331
5CD
  5
5CD
331
5AD
  5
5AD
331
58D
  5
58D
331
24B6
  5
24B8
331
626
  5
626
331
606
  5
606
331
5CE
  5
5CE
331
5AE
  5
5AE
331
58E
  5
58E
331
627
  5
627
331
607
  5
607
331
5CF
  5
5CF
331
5AF
  5
5AF
331
58F
  5
58F
331
1EA2
  5
1EA3
331
1E8A
  5
1E8B
331
618
  5
618
  0
XRECORD
  5
299F
102
{ACAD_REACTORS
330
442
102
}
330
442
100
AcDbXrecord
280
     1
340
17
  0
XRECORD
  5
25C5
102
{ACAD_REACTORS
330
25C4
102
}
330
25C4
100
AcDbXrecord
280
     1
102
SHADEPLOT
 70
     0
102
VISUALSTYLE
340
115F
102
GRIDDISPLAY
 70
     0
102
GRIDMAJOR
 70
     5
102
DEFAULTLIGHTING
280
     1
102
DEFAULTLIGHTINGTYPE
 70
     1
102
BRIGHTNESS
141
0.0
102
CONTRAST
142
0.0
  0
XRECORD
  5
25C7
102
{ACAD_REACTORS
330
25C6
102
}
330
25C6
100
AcDbXrecord
280
     1
102
SHADEPLOT
 70
     0
102
VISUALSTYLE
340
115F
102
GRIDDISPLAY
 70
     0
102
GRIDMAJOR
 70
     5
102
DEFAULTLIGHTING
280
     1
102
DEFAULTLIGHTINGTYPE
 70
     1
102
BRIGHTNESS
141
0.0
102
CONTRAST
142
0.0
  0
LAYOUT
  5
417
102
{ACAD_XDICTIONARY
360
16A1
102
}
102
{ACAD_REACTORS
330
415
102
}
330
415
100
AcDbPlotSettings
  1

  2
Acrobat Distiller
  4
A3
  6

 40
3.174999952316284
 41
3.174999952316284
 42
3.17498779296875
 43
3.17498779296875
 44
297.0318298339843
 45
420.1583251953125
 46
7.0
 47
7.0
 48
0.0
 49
0.0
140
0.0
141
0.0
142
1.0
143
1.0
 70
 28336
 72
     1
 73
     1
 74
     2
  7
print.ctb
 75
    16
147
1.0
148
0.0
149
0.0
100
AcDbLayout
  1
Model
 70
     1
 71
     0
 10
0.0
 20
0.0
 11
12.0
 21
9.0
 12
0.0
 22
0.0
 32
0.0
 14
0.0
 24
0.0
 34
0.0
 15
0.0
 25
0.0
 35
0.0
146
0.0
 13
0.0
 23
0.0
 33
0.0
 16
1.0
 26
0.0
 36
0.0
 17
0.0
 27
1.0
 37
0.0
 76
     0
330
1A
  0
LAYOUT
  5
418
102
{ACAD_XDICTIONARY
360
25C9
102
}
102
{ACAD_REACTORS
330
415
102
}
330
415
100
AcDbPlotSettings
  1

  2
C:\PROGRAM FILES\ACAD LT 2000\plotters\DWF ePlot.pc3
  4

  6

 40
0.0
 41
0.0
 42
0.0
 43
0.0
 44
0.0
 45
0.0
 46
0.0
 47
0.0
 48
0.0
 49
0.0
140
0.0
141
0.0
142
1.0
143
1.0
 70
   688
 72
     0
 73
     0
 74
     5
  7
print.ctb
 75
    16
147
1.0
148
0.0
149
0.0
100
AcDbLayout
  1
ﾚｲｱｳﾄ1
 70
     1
 71
     1
 10
0.0
 20
0.0
 11
420.0
 21
297.0
 12
0.0
 22
0.0
 32
0.0
 14
0.0
 24
0.0
 34
0.0
 15
420.0
 25
297.0
 35
0.0
146
0.0
 13
0.0
 23
0.0
 33
0.0
 16
1.0
 26
0.0
 36
0.0
 17
0.0
 27
1.0
 37
0.0
 76
     0
330
17
331
64
  0
ACAD_PROXY_OBJECT
  5
1149
102
{ACAD_XDICTIONARY
360
114A
102
}
102
{ACAD_REACTORS
330
1140
102
}
330
1140
100
AcDbProxyObject
 90
      499
 91
      523
 95
   393239
 70
     0
 93
     1340
310
42109E509B1BD8DAC02004014080404555555555555953FAA155555555555654FEA9AA400014080404555555555555953FAA155555555555654FEA9AA400000000000000E03F4080404555555555555953FAA155555555555654FEA9AA4014080404555555555555953FAA155555555555654FEA9AA4010201011555555555
310
55654FEA8555555555555953FAA6A9005020101155555555555654FEA8555555555555953FAA6A9000
 94
        0
  0
ACAD_PROXY_OBJECT
  5
1141
102
{ACAD_XDICTIONARY
360
1142
102
}
102
{ACAD_REACTORS
330
1140
102
}
330
1140
100
AcDbProxyObject
 90
      499
 91
      523
 95
   393239
 70
     0
 93
     1340
310
42109E53185E595C802004014080404555555555555953FAA155555555555654FEA9AA400014080404555555555555953FAA155555555555654FEA9AA400000000000000E03F4080404555555555555953FAA155555555555654FEA9AA4014080404555555555555953FAA155555555555654FEA9AA4010201011555555555
310
55654FEA8555555555555953FAA6A9005020101155555555555654FEA8555555555555953FAA6A9000
 94
        0
  0
ACAD_PROXY_OBJECT
  5
1151
102
{ACAD_XDICTIONARY
360
1152
102
}
102
{ACAD_REACTORS
330
1140
102
}
330
1140
100
AcDbProxyObject
 90
      499
 91
      523
 95
   393239
 70
     0
 93
     1332
310
41D1DB1BD8985B002004014080404555555555555953FAA155555555555654FEA9AA400014080404555555555555953FAA155555555555654FEA9AA400000000000000E03F4080404555555555555953FAA155555555555654FEA9AA4014080404555555555555953FAA155555555555654FEA9AA401020101155555555555
310
654FEA8555555555555953FAA6A9005020101155555555555654FEA8555555555555953FAA6A9001
 94
        0
  0
ACAD_PROXY_OBJECT
  5
1188
102
{ACAD_REACTORS
330
1187
102
}
330
1187
100
AcDbProxyObject
 90
      499
 91
      527
 95
   393239
 70
     0
 93
      618
310
40901902A4063FBFFFFFE000000000000002040AD7A3703D0AD73F4254DD185B99185C99000000000000000104090141901A00000000000004100000000000000041025764000000000000300FC6
340
14
340
0
340
10
340
0
 94
        0
  0
MLINESTYLE
  5
13
102
{ACAD_REACTORS
330
E
102
}
330
E
100
AcDbMlineStyle
  2
STANDARD
 70
     0
  3

 62
     0
 51
90.0
 52
90.0
 71
     2
 49
0.5
 62
   256
  6
BYLAYER
 49
-0.5
 62
   256
  6
BYLAYER
  0
ACDBPLACEHOLDER
  5
414
102
{ACAD_REACTORS
330
413
102
}
330
413
  0
ACAD_PROXY_OBJECT
  5
1176
102
{ACAD_REACTORS
330
1175
102
}
330
1175
100
AcDbProxyObject
 90
      499
 91
      526
 95
   393239
 70
     0
 93
       49
310
904313A3100598
 94
        0
  0
ACAD_PROXY_OBJECT
  5
1177
102
{ACAD_REACTORS
330
1175
102
}
330
1175
100
AcDbProxyObject
 90
      499
 91
      526
 95
   393239
 70
     0
 93
      113
310
904313A32004000000000000004000
 94
        0
  0
ACAD_PROXY_OBJECT
  5
1178
102
{ACAD_REACTORS
330
1175
102
}
330
1175
100
AcDbProxyObject
 90
      499
 91
      526
 95
   393239
 70
     0
 93
      113
310
904313A34004000000000000104000
 94
        0
  0
ACAD_PROXY_OBJECT
  5
1179
102
{ACAD_REACTORS
330
1175
102
}
330
1175
100
AcDbProxyObject
 90
      499
 91
      526
 95
   393239
 70
     0
 93
      113
310
904313A35004000000000000144000
 94
        0
  0
ACAD_PROXY_OBJECT
  5
117A
102
{ACAD_REACTORS
330
1175
102
}
330
1175
100
AcDbProxyObject
 90
      499
 91
      526
 95
   393239
 70
     0
 93
      113
310
904313A38004000000000000204000
 94
        0
  0
ACAD_PROXY_OBJECT
  5
117B
102
{ACAD_REACTORS
330
1175
102
}
330
1175
100
AcDbProxyObject
 90
      499
 91
      526
 95
   393239
 70
     0
 93
      121
310
905313A3130004000000000000244000
 94
        0
  0
ACAD_PROXY_OBJECT
  5
117C
102
{ACAD_REACTORS
330
1175
102
}
330
1175
100
AcDbProxyObject
 90
      499
 91
      526
 95
   393239
 70
     0
 93
      121
310
905313A3136004000000000000304000
 94
        0
  0
ACAD_PROXY_OBJECT
  5
117D
102
{ACAD_REACTORS
330
1175
102
}
330
1175
100
AcDbProxyObject
 90
      499
 91
      526
 95
   393239
 70
     0
 93
      121
310
905313A3230004000000000000344000
 94
        0
  0
ACAD_PROXY_OBJECT
  5
117E
102
{ACAD_REACTORS
330
1175
102
}
330
1175
100
AcDbProxyObject
 90
      499
 91
      526
 95
   393239
 70
     0
 93
      121
310
905313A33300040000000000003E4000
 94
        0
  0
ACAD_PROXY_OBJECT
  5
117F
102
{ACAD_REACTORS
330
1175
102
}
330
1175
100
AcDbProxyObject
 90
      499
 91
      526
 95
   393239
 70
     0
 93
      121
310
905313A3430004000000000000444000
 94
        0
  0
ACAD_PROXY_OBJECT
  5
1180
102
{ACAD_REACTORS
330
1175
102
}
330
1175
100
AcDbProxyObject
 90
      499
 91
      526
 95
   393239
 70
     0
 93
      121
310
905313A3530004000000000000494000
 94
        0
  0
ACAD_PROXY_OBJECT
  5
1181
102
{ACAD_REACTORS
330
1175
102
}
330
1175
100
AcDbProxyObject
 90
      499
 91
      526
 95
   393239
 70
     0
 93
      129
310
906313A313030004000000000000594000
 94
        0
  0
ACAD_PROXY_OBJECT
  5
1182
102
{ACAD_REACTORS
330
1175
102
}
330
1175
100
AcDbProxyObject
 90
      499
 91
      526
 95
   393239
 70
     0
 93
      113
310
904323A31000000000000000010159
 94
        0
  0
ACAD_PROXY_OBJECT
  5
1183
102
{ACAD_REACTORS
330
1175
102
}
330
1175
100
AcDbProxyObject
 90
      499
 91
      526
 95
   393239
 70
     0
 93
      113
310
904343A31000000000000000410159
 94
        0
  0
ACAD_PROXY_OBJECT
  5
1184
102
{ACAD_REACTORS
330
1175
102
}
330
1175
100
AcDbProxyObject
 90
      499
 91
      526
 95
   393239
 70
     0
 93
      113
310
904383A31000000000000000810159
 94
        0
  0
ACAD_PROXY_OBJECT
  5
1185
102
{ACAD_REACTORS
330
1175
102
}
330
1175
100
AcDbProxyObject
 90
      499
 91
      526
 95
   393239
 70
     0
 93
      121
310
90531303A31000000000000000910140
 94
        0
  0
ACAD_PROXY_OBJECT
  5
1186
102
{ACAD_REACTORS
330
1175
102
}
330
1175
100
AcDbProxyObject
 90
      499
 91
      526
 95
   393239
 70
     0
 93
      129
310
9063130303A31000000000000001650100
 94
        0
  0
ACAD_PROXY_OBJECT
  5
1174
102
{ACAD_XDICTIONARY
360
25BE
102
}
102
{ACAD_REACTORS
330
1173
102
}
330
1173
100
AcDbProxyObject
 90
      499
 91
      525
 95
   393239
 70
     0
 93
     1849
310
4254DD185B99185C990028000000000000F83F0000000000003E0FC00000000000004901028000000C1008070000C3001FDFF8000000C1003FBFF000000182007F7FE00000030400FEFFC00000060801FDFF8000000C1003FBFF000000182000000000000000C2020B0000001820100E000186003FBFF000000182007F7FE0
310
0000030400FEFFC00000060801FDFF8000000C1003FBFF000000182007F7FE0000003040000000000000012404160000003040201C00030C007F7FE00000030400FEFFC00000060801FDFF8000000C1003FBFF000000182007F7FE00000030400FEFFC000000608000
340
10
340
10
340
10
 94
        0
  0
ACAD_PROXY_OBJECT
  5
115F
102
{ACAD_XDICTIONARY
360
25D8
102
}
102
{ACAD_REACTORS
330
1159
102
}
330
1159
100
AcDbProxyObject
 90
      499
 91
      524
 95
   393239
 70
     0
 93
      444
310
430C9915DA5C99599C985B59401049028333333333333E3BF0000000000000FB0107901411070040501600405405064090741402480A034E
 94
        0
1001
ACAD
1000
AcDbSavedByObjectVersion
1070
     0
  0
ACAD_PROXY_OBJECT
  5
115E
102
{ACAD_XDICTIONARY
360
25D6
102
}
102
{ACAD_REACTORS
330
1159
102
}
330
1159
100
AcDbProxyObject
 90
      499
 91
      524
 95
   393239
 70
     0
 93
      396
310
4190985CDA58C0107406404333333333333E3BF0000000000000FB0107A41107004050150841D405064090741402480A0350
 94
        0
1001
ACAD
1000
AcDbSavedByObjectVersion
1070
     0
  0
ACAD_PROXY_OBJECT
  5
1165
102
{ACAD_XDICTIONARY
360
25E4
102
}
102
{ACAD_REACTORS
330
1159
102
}
330
1159
100
AcDbProxyObject
 90
      499
 91
      524
 95
   393239
 70
     0
 93
      436
310
42509C9A59DA1D195B8010C409028333333333333E3BF0000000000000FB010790141107004050150841D405064090741402480A029956
 94
        0
1001
ACAD
1000
AcDbSavedByObjectVersion
1070
     0
  0
ACAD_PROXY_OBJECT
  5
1169
102
{ACAD_XDICTIONARY
360
25EC
102
}
102
{ACAD_REACTORS
330
1159
102
}
330
1159
100
AcDbProxyObject
 90
      499
 91
      524
 95
   393239
 70
     0
 93
      460
310
4310DBDB1BDC90DA185B99D9401104090240C333333333333E3BF0000000000000FB0108901411070040501508421405064090741402480A0354
 94
        0
1001
ACAD
1000
AcDbSavedByObjectVersion
1070
     0
  0
ACAD_PROXY_OBJECT
  5
1162
102
{ACAD_XDICTIONARY
360
25DE
102
}
102
{ACAD_REACTORS
330
1159
102
}
330
1159
100
AcDbProxyObject
 90
      499
 91
      524
 95
   393239
 70
     0
 93
      508
310
42D0DBDB98D95C1D1D585B0010940D028333333333333E3BF0000000000000FB0107902409070040501000000000018199010841D405064090740C02480A0340
 94
        0
1001
ACAD
1000
AcDbSavedByObjectVersion
1070
     0
  0
ACAD_PROXY_OBJECT
  5
1164
102
{ACAD_XDICTIONARY
360
25E2
102
}
102
{ACAD_REACTORS
330
1159
102
}
330
1159
100
AcDbProxyObject
 90
      499
 91
      524
 95
   393239
 70
     0
 93
      420
310
41111A5B4010B409028333333333333E3BF0000000000000FB010790141107004050150841D405064090741402480A02677FFFFFDA
 94
        0
1001
ACAD
1000
AcDbSavedByObjectVersion
1070
     0
  0
ACAD_PROXY_OBJECT
  5
1171
102
{ACAD_XDICTIONARY
360
25FC
102
}
102
{ACAD_REACTORS
330
1159
102
}
330
1159
100
AcDbProxyObject
 90
      499
 91
      524
 95
   393239
 70
     0
 93
      460
310
43515919D950DBDB1BDC93D99980116409028333333333333E3BF0000000000000FB010790141107004050150841D405064090741402480A0350
 94
        0
1001
ACAD
1000
AcDbSavedByObjectVersion
1070
     0
  0
ACAD_PROXY_OBJECT
  5
1168
102
{ACAD_XDICTIONARY
360
25EA
102
}
102
{ACAD_REACTORS
330
1159
102
}
330
1159
100
AcDbProxyObject
 90
      499
 91
      524
 95
   393239
 70
     0
 93
      452
310
43119858D95C185D1D195C9B8010F409028333333333333E3BF0000000000000FB010790141107004050150841D405064090741402480A0350
 94
        0
1001
ACAD
1000
AcDbSavedByObjectVersion
1070
     0
  0
ACAD_PROXY_OBJECT
  5
115A
102
{ACAD_XDICTIONARY
360
25CE
102
}
102
{ACAD_REACTORS
330
1159
102
}
330
1159
100
AcDbProxyObject
 90
      499
 91
      524
 95
   393239
 70
     0
 93
      388
310
41519B185D00240901404333333333333E3BF0000000000000F9010740A907004050150841D405064090741402480A1B5A
 94
        0
1001
ACAD
1000
AcDbSavedByObjectVersion
1070
     0
  0
ACAD_PROXY_OBJECT
  5
115B
102
{ACAD_XDICTIONARY
360
25D0
102
}
102
{ACAD_REACTORS
330
1159
102
}
330
1159
100
AcDbProxyObject
 90
      499
 91
      524
 95
   393239
 70
     0
 93
      476
310
43919B185D15DA5D1A115919D95CC010140901404333333333333E3BF0000000000000F90107409019070040501600405405064090741402480A1B54
 94
        0
1001
ACAD
1000
AcDbSavedByObjectVersion
1070
     0
  0
ACAD_PROXY_OBJECT
  5
115C
102
{ACAD_XDICTIONARY
360
25D2
102
}
102
{ACAD_REACTORS
330
1159
102
}
330
1159
100
AcDbProxyObject
 90
      499
 91
      524
 95
   393239
 70
     0
 93
      412
310
4211DBDD5C985D590010240902404333333333333E3BF0000000000000F9010740A9070040501641D405064090741402480A1B50
 94
        0
1001
ACAD
1000
AcDbSavedByObjectVersion
1070
     0
  0
ACAD_PROXY_OBJECT
  5
115D
102
{ACAD_XDICTIONARY
360
25D4
102
}
102
{ACAD_REACTORS
330
1159
102
}
330
1159
100
AcDbProxyObject
 90
      499
 91
      524
 95
   393239
 70
     0
 93
      500
310
4451DBDD5C985D5915DA5D1A115919D95CC010340902404333333333333E3BF0000000000000F90107409019070040501600405405064090741402480A1B50
 94
        0
1001
ACAD
1000
AcDbSavedByObjectVersion
1070
     0
  0
ACAD_PROXY_OBJECT
  5
1161
102
{ACAD_XDICTIONARY
360
25DC
102
}
102
{ACAD_REACTORS
330
1159
102
}
330
1159
100
AcDbProxyObject
 90
      499
 91
      524
 95
   393239
 70
     0
 93
      484
310
41D21A5919195B8010640502408333333333333E3BF0000000000000FB01079024090700405020000000000001110200405405064090740C02480A034A
 94
        0
1001
ACAD
1000
AcDbSavedByObjectVersion
1070
     0
  0
ACAD_PROXY_OBJECT
  5
116F
102
{ACAD_XDICTIONARY
360
25F8
102
}
102
{ACAD_REACTORS
330
1159
102
}
330
1159
100
AcDbProxyObject
 90
      499
 91
      524
 95
   393239
 70
     0
 93
      436
310
42929A5D1D195C93D99980114409028333333333333E3BF0000000000000FB010790141107004050150A41D405064090741402480A0354
 94
        0
1001
ACAD
1000
AcDbSavedByObjectVersion
1070
     0
  0
ACAD_PROXY_OBJECT
  5
1167
102
{ACAD_XDICTIONARY
360
25E8
102
}
102
{ACAD_REACTORS
330
1159
102
}
330
1159
100
AcDbProxyObject
 90
      499
 91
      524
 95
   393239
 70
     0
 93
      452
310
43131A5B995C185D1D195C9B8010E409028333333333333E3BF0000000000000FB010790141107004050750841D405064090741402483A0350
 94
        0
1001
ACAD
1000
AcDbSavedByObjectVersion
1070
     0
  0
ACAD_PROXY_OBJECT
  5
1170
102
{ACAD_XDICTIONARY
360
25FA
102
}
102
{ACAD_REACTORS
330
1159
102
}
330
1159
100
AcDbProxyObject
 90
      499
 91
      524
 95
   393239
 70
     0
 93
      452
310
4313DD995C9A185B99D3D99980115409028333333333333E3BF0000000000000FB010790141107004050150941D405064090741402480A0356
 94
        0
1001
ACAD
1000
AcDbSavedByObjectVersion
1070
     0
  0
ACAD_PROXY_OBJECT
  5
1163
102
{ACAD_XDICTIONARY
360
25E0
102
}
102
{ACAD_REACTORS
330
1159
102
}
330
1159
100
AcDbProxyObject
 90
      499
 91
      524
 95
   393239
 70
     0
 93
      436
310
429499585B1A5CDD1A58C0108409028333333333333E3BF0000000000000F9010740A907004050150800405405064090740C02480A1B46
 94
        0
1001
ACAD
1000
AcDbSavedByObjectVersion
1070
     0
  0
ACAD_PROXY_OBJECT
  5
116E
102
{ACAD_XDICTIONARY
360
25F6
102
}
102
{ACAD_REACTORS
330
1159
102
}
330
1159
100
AcDbProxyObject
 90
      499
 91
      524
 95
   393239
 70
     0
 93
      428
310
41D4DA185919590011B40902404333333333333E3BF0000000000000F9010740A41107004050150800405405064090840C02480A0B40
 94
        0
1001
ACAD
1000
AcDbSavedByObjectVersion
1070
     0
  0
ACAD_PROXY_OBJECT
  5
116D
102
{ACAD_XDICTIONARY
360
25F4
102
}
102
{ACAD_REACTORS
330
1159
102
}
330
1159
100
AcDbProxyObject
 90
      499
 91
      524
 95
   393239
 70
     0
 93
      524
310
4494DA18591959081DDA5D1A08195919D95CC011A40902404333333333333E3BF0000000000000F901074090142907004050250800405405064090740C02480A0B4A
 94
        0
1001
ACAD
1000
AcDbSavedByObjectVersion
1070
     0
  0
ACAD_PROXY_OBJECT
  5
116A
102
{ACAD_XDICTIONARY
360
25EE
102
}
102
{ACAD_REACTORS
330
1159
102
}
330
1159
100
AcDbProxyObject
 90
      499
 91
      524
 95
   393239
 70
     0
 93
      540
310
43D4DA1859195CC81BD98811DC985E401174090240C333333333333E3BF0000000000000FB01079024090741D01000000000000111010841D405064090740C02480A0340
 94
        0
1001
ACAD
1000
AcDbSavedByObjectVersion
1070
     0
  0
ACAD_PROXY_OBJECT
  5
116B
102
{ACAD_XDICTIONARY
360
25F0
102
}
102
{ACAD_REACTORS
330
1159
102
}
330
1159
100
AcDbProxyObject
 90
      499
 91
      524
 95
   393239
 70
     0
 93
      484
310
4214DAD95D18DA1E4011840502408333333333333E3BF0000000000000FB01079024090741D01000000000000111010B41D405064090741802480A0340
 94
        0
1001
ACAD
1000
AcDbSavedByObjectVersion
1070
     0
  0
ACAD_PROXY_OBJECT
  5
1166
102
{ACAD_XDICTIONARY
360
25E6
102
}
102
{ACAD_REACTORS
330
1159
102
}
330
1159
100
AcDbProxyObject
 90
      499
 91
      524
 95
   393239
 70
     0
 93
      420
310
42151A1A58DAD95B8010D409028333333333333E3BF0000000000000FB010790141107004050150C41D405064090741402480A0352
 94
        0
1001
ACAD
1000
AcDbSavedByObjectVersion
1070
     0
  0
ACAD_PROXY_OBJECT
  5
1160
102
{ACAD_XDICTIONARY
360
25DA
102
}
102
{ACAD_REACTORS
330
1159
102
}
330
1159
100
AcDbProxyObject
 90
      499
 91
      524
 95
   393239
 70
     0
 93
      428
310
4295DA5C99599C985B59401059028333333333333E3BF0000000000000FB0107901411070040501600405405064090740C02480A0346
 94
        0
1001
ACAD
1000
AcDbSavedByObjectVersion
1070
     0
  0
ACAD_PROXY_OBJECT
  5
116C
102
{ACAD_XDICTIONARY
360
25F2
102
}
102
{ACAD_REACTORS
330
1159
102
}
330
1159
100
AcDbProxyObject
 90
      499
 91
      524
 95
   393239
 70
     0
 93
      412
310
41960B54985E4011940902404000000000000E03F0000000000000FB010740501907004050150841D405064090740C02480A1B46
 94
        0
1001
ACAD
1000
AcDbSavedByObjectVersion
1070
     0
  0
DICTIONARYVAR
  5
16A7
102
{ACAD_REACTORS
330
16A3
102
}
330
16A3
100
DictionaryVariables
280
     0
  1
1:1
  0
DICTIONARYVAR
  5
16A5
102
{ACAD_REACTORS
330
16A3
102
}
330
16A3
100
DictionaryVariables
280
     0
  1
STANDARD
  0
DICTIONARYVAR
  5
16A4
102
{ACAD_REACTORS
330
16A3
102
}
330
16A3
100
DictionaryVariables
280
     0
  1
STANDARD
  0
DICTIONARYVAR
  5
2602
102
{ACAD_REACTORS
330
16A3
102
}
330
16A3
100
DictionaryVariables
280
     0
  1
1
  0
DICTIONARYVAR
  5
2601
102
{ACAD_REACTORS
330
16A3
102
}
330
16A3
100
DictionaryVariables
280
     0
  1
0
  0
DICTIONARYVAR
  5
16A9
102
{ACAD_REACTORS
330
16A3
102
}
330
16A3
100
DictionaryVariables
280
     0
  1
1
  0
DICTIONARYVAR
  5
16AA
102
{ACAD_REACTORS
330
16A3
102
}
330
16A3
100
DictionaryVariables
280
     0
  1
15
  0
DICTIONARYVAR
  5
16A8
102
{ACAD_REACTORS
330
16A3
102
}
330
16A3
100
DictionaryVariables
280
     0
  1
0
  0
DICTIONARYVAR
  5
16A6
102
{ACAD_REACTORS
330
16A3
102
}
330
16A3
100
DictionaryVariables
280
     0
  1
0
  0
DICTIONARYVAR
  5
2600
102
{ACAD_REACTORS
330
16A3
102
}
330
16A3
100
DictionaryVariables
280
     0
  1
127
  0
DICTIONARYVAR
  5
2603
102
{ACAD_REACTORS
330
16A3
102
}
330
16A3
100
DictionaryVariables
280
     0
  1
2
  0
DICTIONARY
  5
16A1
330
417
100
AcDbDictionary
280
     1
281
     1
  3
ACAD_XREC_ROUNDTRIP
360
25C8
  3
ADSK_XREC_LAYOUTTHUMBNAIL
360
16A2
  0
DICTIONARY
  5
25C9
330
418
100
AcDbDictionary
280
     1
281
     1
  3
ACAD_XREC_ROUNDTRIP
360
25CA
  0
DICTIONARY
  5
114A
330
1149
100
AcDbDictionary
280
     1
281
     1
  3
ACAD_XREC_ROUNDTRIP
360
25CC
  3
BUMPTILE
360
114C
  3
DIFFUSETILE
360
114B
  3
OPACITYTILE
360
114F
  3
REFLECTIONTILE
360
114E
  3
REFRACTIONTILE
360
1150
  3
SPECULARTILE
360
114D
  0
DICTIONARY
  5
1142
330
1141
100
AcDbDictionary
280
     1
281
     1
  3
ACAD_XREC_ROUNDTRIP
360
25CB
  3
BUMPTILE
360
1144
  3
DIFFUSETILE
360
1143
  3
OPACITYTILE
360
1147
  3
REFLECTIONTILE
360
1146
  3
REFRACTIONTILE
360
1148
  3
SPECULARTILE
360
1145
  0
DICTIONARY
  5
1152
330
1151
100
AcDbDictionary
280
     1
281
     1
  3
ACAD_XREC_ROUNDTRIP
360
25CD
  3
BUMPTILE
360
1154
  3
DIFFUSETILE
360
1153
  3
OPACITYTILE
360
1157
  3
REFLECTIONTILE
360
1156
  3
REFRACTIONTILE
360
1158
  3
SPECULARTILE
360
1155
  0
DICTIONARY
  5
25BE
330
1174
100
AcDbDictionary
280
     1
281
     1
  3
ACAD_ROUNDTRIP_2008_TABLESTYLE_CELLSTYLEMAP
360
25BF
  3
ACAD_XREC_ROUNDTRIP
360
25FE
  0
DICTIONARY
  5
25D8
330
115F
100
AcDbDictionary
280
     1
281
     1
  3
ACAD_XREC_ROUNDTRIP
360
25D9
  0
DICTIONARY
  5
25D6
330
115E
100
AcDbDictionary
280
     1
281
     1
  3
ACAD_XREC_ROUNDTRIP
360
25D7
  0
DICTIONARY
  5
25E4
330
1165
100
AcDbDictionary
280
     1
281
     1
  3
ACAD_XREC_ROUNDTRIP
360
25E5
  0
DICTIONARY
  5
25EC
330
1169
100
AcDbDictionary
280
     1
281
     1
  3
ACAD_XREC_ROUNDTRIP
360
25ED
  0
DICTIONARY
  5
25DE
330
1162
100
AcDbDictionary
280
     1
281
     1
  3
ACAD_XREC_ROUNDTRIP
360
25DF
  0
DICTIONARY
  5
25E2
330
1164
100
AcDbDictionary
280
     1
281
     1
  3
ACAD_XREC_ROUNDTRIP
360
25E3
  0
DICTIONARY
  5
25FC
330
1171
100
AcDbDictionary
280
     1
281
     1
  3
ACAD_XREC_ROUNDTRIP
360
25FD
  0
DICTIONARY
  5
25EA
330
1168
100
AcDbDictionary
280
     1
281
     1
  3
ACAD_XREC_ROUNDTRIP
360
25EB
  0
DICTIONARY
  5
25CE
330
115A
100
AcDbDictionary
280
     1
281
     1
  3
ACAD_XREC_ROUNDTRIP
360
25CF
  0
DICTIONARY
  5
25D0
330
115B
100
AcDbDictionary
280
     1
281
     1
  3
ACAD_XREC_ROUNDTRIP
360
25D1
  0
DICTIONARY
  5
25D2
330
115C
100
AcDbDictionary
280
     1
281
     1
  3
ACAD_XREC_ROUNDTRIP
360
25D3
  0
DICTIONARY
  5
25D4
330
115D
100
AcDbDictionary
280
     1
281
     1
  3
ACAD_XREC_ROUNDTRIP
360
25D5
  0
DICTIONARY
  5
25DC
330
1161
100
AcDbDictionary
280
     1
281
     1
  3
ACAD_XREC_ROUNDTRIP
360
25DD
  0
DICTIONARY
  5
25F8
330
116F
100
AcDbDictionary
280
     1
281
     1
  3
ACAD_XREC_ROUNDTRIP
360
25F9
  0
DICTIONARY
  5
25E8
330
1167
100
AcDbDictionary
280
     1
281
     1
  3
ACAD_XREC_ROUNDTRIP
360
25E9
  0
DICTIONARY
  5
25FA
330
1170
100
AcDbDictionary
280
     1
281
     1
  3
ACAD_XREC_ROUNDTRIP
360
25FB
  0
DICTIONARY
  5
25E0
330
1163
100
AcDbDictionary
280
     1
281
     1
  3
ACAD_XREC_ROUNDTRIP
360
25E1
  0
DICTIONARY
  5
25F6
330
116E
100
AcDbDictionary
280
     1
281
     1
  3
ACAD_XREC_ROUNDTRIP
360
25F7
  0
DICTIONARY
  5
25F4
330
116D
100
AcDbDictionary
280
     1
281
     1
  3
ACAD_XREC_ROUNDTRIP
360
25F5
  0
DICTIONARY
  5
25EE
330
116A
100
AcDbDictionary
280
     1
281
     1
  3
ACAD_XREC_ROUNDTRIP
360
25EF
  0
DICTIONARY
  5
25F0
330
116B
100
AcDbDictionary
280
     1
281
     1
  3
ACAD_XREC_ROUNDTRIP
360
25F1
  0
DICTIONARY
  5
25E6
330
1166
100
AcDbDictionary
280
     1
281
     1
  3
ACAD_XREC_ROUNDTRIP
360
25E7
  0
DICTIONARY
  5
25DA
330
1160
100
AcDbDictionary
280
     1
281
     1
  3
ACAD_XREC_ROUNDTRIP
360
25DB
  0
DICTIONARY
  5
25F2
330
116C
100
AcDbDictionary
280
     1
281
     1
  3
ACAD_XREC_ROUNDTRIP
360
25F3
  0
XRECORD
  5
25C8
102
{ACAD_REACTORS
330
16A1
102
}
330
16A1
100
AcDbXrecord
280
     1
102
SHADEPLOT
 70
     0
102
SHADEPLOTRESLEVEL
 70
     2
102
SHADEPLOTCUSTOMDPI
 70
   300
  0
XRECORD
  5
16A2
102
{ACAD_REACTORS
330
16A1
102
}
330
16A1
100
AcDbXrecord
280
     1
310
28000000000100007D0000000100080000000000007D0000000000000000000000010000000000000000000000000000FFFFFF000000000000000000000000000000000000000000000000000000000000000000330000006600000099000000CC000000FF00000000330000333300006633000099330000CC330000FF3300
310
0000660000336600006666000099660000CC660000FF66000000990000339900006699000099990000CC990000FF99000000CC000033CC000066CC000099CC0000CCCC0000FFCC000000FF000033FF000066FF000099FF0000CCFF0000FFFF000000003300330033006600330099003300CC003300FF003300003333003333
310
33006633330099333300CC333300FF33330000663300336633006666330099663300CC663300FF66330000993300339933006699330099993300CC993300FF99330000CC330033CC330066CC330099CC3300CCCC3300FFCC330000FF330033FF330066FF330099FF3300CCFF3300FFFF330000006600330066006600660099
310
006600CC006600FF00660000336600333366006633660099336600CC336600FF33660000666600336666006666660099666600CC666600FF66660000996600339966006699660099996600CC996600FF99660000CC660033CC660066CC660099CC6600CCCC6600FFCC660000FF660033FF660066FF660099FF6600CCFF6600
310
FFFF660000009900330099006600990099009900CC009900FF00990000339900333399006633990099339900CC339900FF33990000669900336699006666990099669900CC669900FF66990000999900339999006699990099999900CC999900FF99990000CC990033CC990066CC990099CC9900CCCC9900FFCC990000FF99
310
0033FF990066FF990099FF9900CCFF9900FFFF99000000CC003300CC006600CC009900CC00CC00CC00FF00CC000033CC003333CC006633CC009933CC00CC33CC00FF33CC000066CC003366CC006666CC009966CC00CC66CC00FF66CC000099CC003399CC006699CC009999CC00CC99CC00FF99CC0000CCCC0033CCCC0066CC
310
CC0099CCCC00CCCCCC00FFCCCC0000FFCC0033FFCC0066FFCC0099FFCC00CCFFCC00FFFFCC000000FF003300FF006600FF009900FF00CC00FF00FF00FF000033FF003333FF006633FF009933FF00CC33FF00FF33FF000066FF003366FF006666FF009966FF00CC66FF00FF66FF000099FF003399FF006699FF009999FF00CC
310
99FF00FF99FF0000CCFF0033CCFF0066CCFF0099CCFF00CCCCFF00FFCCFF0000FFFF0033FFFF0066FFFF0099FFFF00CCFFFF00FFFFFF00000000000D0D0D001A1A1A00282828003535350043434300505050005D5D5D006B6B6B00787878008686860093939300A1A1A100AEAEAE00BBBBBB00C9C9C900D6D6D600E4E4E400
310
F1F1F100FFFFFF000000000000000000000000000000000000000000000000000000000000000000000000000000000000000000000000000000000000000000000000000000000000000000000000000000000000000000000000000000000000000000000000000000000000000000000000000000000000000000000000
310
00000000000000000000000000000000000000000000000000000000000000000000000000000000000000000000000000000000000000000000000000000000000000000000000000000000000000000000000000000000000000000000000000000000000000000000000000000000000000000000000000000000000000
310
00000000000000000000000000000000000000000000000000000000000000000000000000000000000000000000000000000000000000000000000000000000000000000000000000000000000000000000000000000000000000000000000000000000000000000000000000000000000000000000000000000000000000
310
00000000000000000000000000000000000000000000000000000000000000000000000000000000000000000000000000000000000000000000000000000000000000000000000000000000000000000000000000000000000000000000000000000000000000000000000000000000000000000000000000000000000000
310
00000000000000000000000000000000000000000000000000000000000000000000000000000000000000000000000000000000000000000000000000000000000000000000000000000000000000000000000000000000000000000000000000000000000000000000000000000000000000000000000000000000000000
310
00000000000000000000000000000000000000000000000000000000000000000000000000000000000000000000000000000000000000000000000000000000000000000000000000000000000000000000000000000000000000000000000000000000000000000000000000000000000000000000000000000000000000
310
00000000000000000000000000000000000000000000000000000000000000000000000000000000000000000000000000000000000000000000000000000000000000000000000000000000000000000000000000000000000000000000000000000000000000000000000000000000000000000000000000000000000000
310
00000000000000000000000000000000000000000000000000000000000000000000000000000000000000000000000000000000000000000000000000000000000000000000000000000000000000000000000000000000000000000000000000000000000000000000000000000000000000000000000000000000000000
310
00000000000000000000000000000000000000000000000000000000000000000000000000000000000000000000000000000000000000000000000000000000000000000000000000000000000000000000000000000000000000000000000000000000000000000000000000000000F5F5F5F5F5F5F5F5F5F5F5F5F5F5F5
310
F5F5F5F5F5F5F5F5F5F5F5F5F5F5F5F5F5F5F5F5F5F5F5F5F5F5F5F5F5F5F5F5F5F5F5F5F5F5F5F5F5F5F5F5F5F5F5F5F5F5F5F5F5F5F5F5F5F5F5F5F5F5F5F5F5F5F5F5F5F5F5F5F5F5F5F5F5F5F5F5F5F5F5F5DCDCF5F5F5F5F5F5F5F5F5F5F5F5F5F5F5F5F5F5F5F5F5F5F5F5F5F5F5F5F5F5F5F5F5F5F5F5F5F5F5F5F5
310
F5F5F5F5F5F5F5F500000000000000000000000000000000000000000000000000000000000000000000000000000000000000000000000000000000000000000000000000000000000000000000000000000000000000000000000000000000000000000000000000000000000000000000F500F5F5F5F5F5F5F5F5F5F5F5
310
F500F50000000000000000000000000000000000000000000000F50000000000DCDCDCDCDC00000000000000000000000000000000000000000000000000000000000000000000F500000000000000000000F5000000DCDC0000F5F500000000000000000000000000000000F5F50000000000000000F500F5F5F5F5F5F5F5
310
000000000000000000F500000000000000000000000000000000000000000000000000000000000000000000000000000000000000000000000000000000000000000000000000000000000000000000000000000000000000000000000000000000000000000000000000000000000000000000F500F5F5F5F5F5F5F5F5F5
310
F5F5F500F500DCDCDCDCDCDCDCDCDCDCDCDCDCDCDCDCDCDCDC000000F5F5F5000000000000000000000000000000000000000000000000000000000000000000000000000000000000F50000DCDCDCDCDC000000F5F5000000000000F5F500000000000000000000000000000000F5F50000000000000000F500F5F5F5F5F5
310
F5F5000000000000000000F500000000000000000000000000000000000000000000000000000000000000000000000000000000000000000000000000000000000000000000000000000000000000000000000000000000000000000000000000000000000000000000000000000000000000000000F500F5F5F5F5F5F5F5
310
F5F5F5F5F500F500DCDCDCDCDCDCDCDCDCDCDCDCDCDCDCDCDCDCDC000000F5F5F5F5F5F5DCDCDCDCDCDCDCDCF5F5F5F5F5F5F5F5F5F5F5F5F5F5F5F5F5F5F5F5F5F5F5F5F5F5F5F5F5F5F5F500000000000000000000F5F5F5F5DCDCF5F5F5F500000000000000000000000000000000F5F5F5F5F5F5F5F5F5F5F500F5F5F5
310
F5F5F5F5F5F5F5F5F5F5F50000F500000000000000000000000000000000000000000000000000000000000000000000000000000000000000000000000000000000000000000000000000000000000000000000000000000000000000000000000000000000000000000000000000000000000000000000F500F5F5F5F5F5
310
F5F5F5F5F5F5F500F50000000000000000000000000000000000000000000000F5F500000000DCDCDCDCDCDCDCDC00000000000000000000000000000000000000000000000000000000000000F5F5000000000000000000F5F50000DCDC0000F5F500000000000000000000000000000000F5F5F500000000000000F500F5
310
F5F5F5F5F5F5F5F5F5F5F5F5F50000F500000000000000000000000000000000000000000000000000000000000000000000000000000000000000000000000000000000000000000000000000000000000000000000000000000000000000000000000000000000000000000000000000000000000000000000F5F5F5F5F5
310
F5F5F5F5F5F5F5F5F5F5F5F5F5F5F5F5F5F5F5F5F5F5F5F5F5F5F5F5F5F5F5F5F5F5F5F5F5F5F5F5F5F5F5F5F5F5F5F5F5F5F5F5F5F5F5F5F5F5F5F5F5F5F5F5F5F5F5F5F5F5F5F5F5F5F5F5F5F5F5F5F5F5F5F5F5F5F5F5F5F5F5F5F5F5F5F5F5F5F5F5F5F5F5F5F5F5F5F5F5F5F5F5F5F5F5F5F5F5F5F5F5F5F5F5F5F5F5
310
F5F5F5F5F5F5F5F5F5F5F5F5F5F5F5F5F5F500000000000000000000000000000000000000000000000000000000000000000000000000000000000000000000000000000000000000000000000000000000000000000000000000000000000000000000000000000000000000000000000000000000000000000000F5F5F5
310
F5F5F5F5F5F5F5F5F5F5F5F5F5F5F5F5F5F5F5F5F5F5F5F5F5F5F5F5F5F5F5F5F5F5F5F5F5F5F5F5F5F5F5F5F5F5F5F5F5F5F5F5F5F5F5F5F5F5F5F5F5F5F5F5F5F5F5F5F5F5F5F5F5F5F5F5F5F5F5F5F5F5F5F5F5F5F5F5F5F5F5F5F5F5F5F5F5F5F5F5F5F5F5F5F5F5F5F5F5F5F5F5F5F5F5F5F5F5F5F5F5F5F5F5F5F5F5
310
F5F5F5F5F5F5F5F5F5F5F5F5F5F5F5F5F5F5F5F500000000000000000000000000000000000000000000000000000000000000000000000000000000000000000000000000000000000000000000000000000000000000000000000000000000000000000000000000000000000000000000000000000000000000000000F5
310
00000000000000000000000000000000000000000000000000000000000000000000000000000000000000000000000000000000000000002D2D2D2D2D2D2D2D2D2D2D2D2D2D2D2D2D2D2D2D2D2D2D2D2D2D2D2D2D2D2D2D2D2D2D2D2D00000000000000000000000000000000000000000000000000000000000000000000
310
000000000000000000000000000000000000000000F5000000000000000000000000000000000000000000000000000000000000000000000000000000000000000000000000000000000000000000000000000000000000000000000000000000000000000000000000000000000000000000000000000000000000000000
310
00F500000000000000000000000000000000000000000000000000000000000000000000000000000000000000000000000000000000000000002D000000000000000000000000000000002D2D2D000000000000000000000000000000002D0000000000000000000000000000000000000000000000002D2D2D002D2D2D2D
310
2D2D2D2D2D2D2D2D2D2D2D2D2D2D2D2D2D002D00000000F500000000000000000000000000000000000000000000000000000000000000000000000000000000000000000000000000000000000000000000000000000000000000000000000000000000000000000000000000000000000000000000000000000000000000
310
000000F500000000000000000000000000000000000000000000000000000000000000000000000000000000000000000000000000000000000000002D000000000000000000000000000000002D2D2D000000000000000000000000000000002D0000000000000000000000000000000000000000000000002D2D2D002D2D
310
2D2D2D2D2D2D2D2D2D2D2D2D2D2D2D2D2D2D2D2D2D00000000F50000000000000000000000000000000000000000000000000000000000000000000000000000000000000000000000000000000000000000000000000000000000000000000000000000000000000000000000000000000000000000000000000000000000
310
0000000000F5000000000000000000000000000000000000000000000000000000000000000000000000000000000000000000002D2D2D2D2D2D2D2D2D002D28282828282828282828282828282828282828282828282828282828282828282828282D2D2D2D2D2D2D2D2D2D2D00000000000000000000000000002D2D2D00
310
2D2D2D002D0000002D2D2D2D00002D2D002D2D2D2D000000000000F5000000000000000000000000000000000000000000000000000000000000000000000000000000000000000000000000000000000000000000000000000000000000000000000000000000000000000000000000000000000000000000000000000000
310
00000000000000F500000000000000000000000000000000000000000000000000000000000000000000000000000000000000000000002D0000000000000000280000000000000000000000000000000000000000000000000000000000000000000000280000000000000000002D00000000000000000000000000000000
310
0000000000000000000000000000000000000000000000000000000000F500000000000000000000000000000000000000000000000000000000000000000000000000000000000000000000000000000000000000000000000000000000000000000000000000000000000000000000000000000000000000000000000000
310
000000000000000000F500000000000000000000000000000000000000000000000000000000000000000000000000000000000000000000002D0000000000000000280000000000000000000000000000000000000000000000000000000000000000000000280000000000000000002D0000000000000000000000000000
310
00000000000000000000000000000000000000000000000000000000000000F50000000000000000000000000000000000000000000000000000000000000000000000000000000000000000000000000000000000000000000000000000000000000000000000000000000000000000000000000000000000000000000000
310
0000000000000000000000F500000000000000000000000000000000000000000000000000000000000000000000000000000000000000000000002D00000000000000002D2D2D2D2D2D2D2D2D2D2D2D2D2D2D2D2D2D2D2D2D2D2D2D2D2D2D2D2D2D2D2D2D2D2D2D280000000000000000002D000000000000000000000000
310
000000000000000000000000000000000000000000000000000000000000000000F5000000000000000000000000000000000000000000000000000000000000000000000000000000000000000000000000000000000000000000000000000000000000000000000000000000000000000000000000000000000000000000
310
00000000000000000000000000F500000000000000000000000000000000000000000000000000000000000000000000000000000000000000000000002D00000000000000002D0000000000000000000000000000002D2D2D2D2D2D2D2D2D2D2D2D2D2D2D2D00000000280000000000000000002D00000000000000000000
310
0000000000000000000000000000000000000000000000000000000000000000000000F500000000000000000000000000000000000000000000000000000000000000000000000000000000000000000000000000000000000000000000000000000000000000000000000000000000000000000000000000000000000000
310
000000000000000000000000000000F500000000000000000000000000000000000000000000000000000000000000000000000000000000000000000000002D00000000000000002D000000000000000000000000000000002D2D2D002D2D2D2D2D2D2D2D2D2D2D00000000280000000000000000002D0000000000000000
310
00000000000000000000000000000000000000000000000000000000000000000000000000F50000000000000000000000000000000000000000000000000000000000000000000000000000000000000000000000000000000000000000000000000000000000000000000000000000000000000000000000000000000000
310
0000000000000000000000000000000000F50000000000000000000000000000000000000000000000000000000000000000000000000000000000000000002D2D2D00000000000000002D0000000000000000000000000000000000000000000000000000000000000000000000280000000000000000002D000000000000
310
000000000000000000000000000000000000000000000000000000000000000000000000000000F5000000000000000000000000000000000000000000000000000000000000000000000000000000000000000000000000000000000000000000000000000000000000000000000000000000000000000000000000000000
310
00000000000000000000000000000000000000F50000000000000000000000000000000000000000000000000000000000000000000000000000000000000000002D2D2D00000000000000002D0000000000000000000000000000000000000000000000000000000000000000000000280000000000000000002D00000000
310
0000000000000000000000000000000000000000000000000000000000000000000000000000000000F500000000000000000000000000000000000000000000000000000000000000000000000000000000000000000000000000000000000000000000000000000000000000000000000000000000000000000000000000
310
000000000000000000000000000000000000000000F50000000000000000000000000000000000000000000000000000000000000000000000000000000000000000002D2D2D00000000000000002D0000000000000000000000000000000000000000000000000000000000000000000000280000000000000000002D0000
310
00000000000000000000000000000000000000000000000000000000000000000000000000000000000000F50000000000000000000000000000000000000000000000000000000000000000000000000000000000000000000000000000000000000000000000000000000000000000000000000000000000000000000000
310
0000000000000000000000000000000000000000000000F50000000000000000000000000000000000000000000000000000000000000000000000000000000000000000002D2D2D00000000000000002D0000000000000000000000000000000000BE0000000000000000000000000000000000280000000000000000002D
310
000000000000000000000000000000000000000000000000000000000000000000000000000000000000000000F5000000000000000000000000000000000000000000000000000000000000000000000000000000000000000000000000000000000000000000000000000000000000000000000000000000000000000000
310
00000000000000000000000000000000000000000000000000F500000000000000000000000000000000000000000000000000000000000000000000000000000000000000000000002D00000000000000002D0000000000000000000000000000000000BE0000000000000000000000000000000000280000000000000000
310
002D000000000000000000000000000000000000000000000000000000000000000000000000000000000000000000F500000000000000000000000000000000000000000000000000000000000000000000000000000000000000000000000000000000000000000000000000000000000000000000000000000000000000
310
000000000000000000000000000000000000000000000000000000F500000000000000000000000000000000000000000000000000000000000000000000000000000000000000000000002D00000000000000002D0000000000000000000000000000000000BE000000000000000000000000000000000028000000000000
310
0000002D000000000000000000000000000000000000000000000000000000000000000000000000000000000000000000F50000000000000000000000000000000000000000000000000000000000000000000000000000000000000000000000000000000000000000000000000000000000000000000000000000000000
310
0000000000000000000000000000000000000000000000000000000000F500000000000000000000000000000000000000000000000000000000000000000000000000000000000000000000002D00000000000000002D0000000000000000000000000000000000BE00000000000000000000000000000000002800000000
310
00000000002D000000000000000000000000000000000000000000000000000000000000000000000000000000000000000000F5000000000000000000000000000000000000000000000000000000000000000000000000000000000000000000000000000000000000000000000000000000000000000000000000000000
310
00000000000000000000000000000000000000000000000000000000000000F500000000000000000000000000000000000000000000000000000000000000000000000000000000000000000000002D00000000000000002D0000000000000000000000000000000000BE0000000000000000000000000000000000280000
310
000000000000002D000000000000000000000000000000000000000000000000000000000000000000000000000000000000000000F500000000000000000000000000000000000000000000000000000000000000000000000000000000000000000000000000000000000000000000000000000000000000000000000000
310
000000000000000000000000000000000000000000000000000000000000000000F5000000000000000000000000000000000000000000000000000000000000000000000000000000000000000000002D2D2D2D2D2D2D2D2D002D0000000000000000000000000000000000BE000000000000000000000000000000000028
310
0000000000000000002D000000000000000000000000000000000000000000000000000000000000000000000000000000000000000000F50000000000000000000000000000000000000000000000000000000000000000000000000000000000000000000000000000000000000000000000000000000000000000000000
310
0000000000000000000000000000000000000000000000000000000000000000000000F50000000000000000000000000000000000000000000000000000000000000000000000000000000000000000000000000000000000000000282828282828282828282828282828282828BE28282828282828282828282828282828
310
28280000000000000000002D000000000000000000000000000000000000000000000000000000000000000000000000000000000000000000F5000000000000000000000000000000000000000000000000000000000000000000000000000000000000000000000000000000000000000000000000000000000000000000
310
00000000000000000000000000000000000000000000000000000000000000000000000000F50000000000000000000000000000000000000000000000000000000000000000000000000000000000000000000000000000000000000000000000002828282828282828282828282828BE2828282828282828282828282800
310
000000000000000000000000002D000000000000000000000000000000000000000000000000000000000000000000000000000000000000000000F500000000000000000000000000000000000000000000000000000000000000000000000000000000000000000000000000000000000000000000000000000000000000
310
000000000000000000000000000000000000000000000000000000000000000000000000000000F50000000000000000000000000000000000000000000000000000000000000000000000000000000000000000000000000000000000000000000000000000000000282800000000000000BE000000000000002828000000
310
0000000000000000000000000000002D000000000000000000000000000000000000000000000000000000000000000000000000000000000000000000F50000000000000000000000000000000000000000000000000000000000000000000000000000000000000000000000000000000000000000000000000000000000
310
0000000000000000000000000000000000000000000000000000000000000000000000000000000000F50000000000000000000000000000000000000000000000000000000000000000000000000000000000000000000000000000000000000000000000000000000000282800000000000000BE00000000000000282800
310
00000000000000000000000000000000002D000000000000000000000000000000000000000000000000000000000000000000000000000000000000000000F5000000000000000000000000000000000000000000000000000000000000000000000000000000000000000000000000000000000000000000000000000000
310
00000000000000000000000000000000000000000000000000000000000000000000000000000000000000F50000000000000000000000000000000000000000000000000000000000000000000000000000000000000000000000000000000000000000000000000000000000282800000000000000BE0000000000000028
310
280000000000000000000000000000000000002D000000000000000000000000000000000000000000000000000000000000000000000000000000000000000000F500000000000000000000000000000000000000000000000000000000000000000000000000000000000000000000000000000000000000000000000000
310
000000000000000000000000000000000000000000000000000000000000000000000000000000000000000000F50000000000000000000000000000000000000000000000000000000000000000000000000000000000000000000000000000000000000000000000000000000000282800000000000000BE000000000000
310
0028280000000000000000000000000000000000002D000000000000000000000000000000000000000000000000000000000000000000000000000000000000000000F50000000000000000000000000000000000000000000000000000000000000000000000000000000000000000000000000000000000000000000000
310
0000000000000000000000000000000000000000000000000000000000000000000000000000000000000000000000F50000000000000000000000000000000000000000000000000000000000000000000000000000000000000000000000000000000000000000000000000000000000282800000000000000BE00000000
310
00000028280000000000000000000000000000000000002D000000000000000000000000000000000000000000000000000000000000000000000000000000000000000000F5000000000000000000000000000000000000000000000000000000000000000000000000000000000000000000000000000000000000000000
310
00000000000000000000000000000000000000000000000000000000000000000000000000000000000000000000000000F50000000000000000000000000000000000000000000000000000000000000000000000000000000000000000000000000000000000000000000000000000000000282800000000000000BE0000
310
000000000028280000000000000000000000000000000000002D000000000000000000000000000000000000000000000000000000000000000000000000000000000000000000F500000000000000000000000000000000000000000000000000000000000000000000000000000000000000000000000000000000000000
310
000000000000000000000000000000000000000000000000000000000000000000000000000000000000000000000000000000F50000000000000000000000000000000000000000000000000000000000000000000000000000000000000000000000000000000000000000000000000000000000282800000000000000BE
310
0000000000000028280000000000000000000000000000000000002D000000000000000000000000000000000000000000000000000000000000000000000000000000000000000000F50000000000000000000000000000000000000000000000000000000000000000000000000000000000000000000000000000000000
310
0000000000000000000000000000000000000000000000000000000000000000000000000000000000000000000000000000000000F500000000000000000000000000000000000000000000000000000000000000000000000000000000000000000000000000000000000000000000000000000000002828000000000000
310
00BE0000000000000028280000000000000000000000000000000000002D000000000000000000000000000000000000000000000000000000000000000000000000000000000000000000F5000000000000000000000000000000000000000000000000000000000000000000000000000000000000000000000000000000
310
00000000000000000000000000000000000000000000000000000000000000000000000000000000000000000000000000000000000000F50000000000000000000000000000000000000000000000000000000000000000000000000000000000000000000000000000000000000000000000000000000000282800000000
310
000000BE000000000000002828000000000000000000000000000000002D2D2D000000000000000000000000000000000000000000000000000000000000000000000000000000000000000000F500000000000000000000000000000000000000000000000000000000000000000000000000000000000000000000000000
310
000000000000000000000000000000000000000000000000000000000000000000000000000000000000000000000000000000000000000000F5000000000000000000000000000000000000000000000000000000000000000000000000000000000000000000000000000000000000000000000000000000000028280000
310
0000000000BE000000000000002828000000000000000000000000000000002D2D2D000000000000000000000000000000000000000000000000000000000000000000000000000000000000000000F50000000000000000000000000000000000000000000000000000000000000000000000000000000000000000000000
310
0000000000000000000000000000000000000000000000000000000000000000000000000000000000000000000000000000000000000000000000F500000000000000000000000000000000000000000000000000000000000000000000000000000000000000000000000000000000000000000000000000000000002828
310
00000000000000BE000000000000002828000000000000000000000000000000002D2D2D000000000000000000000000000000000000000000000000000000000000000000000000000000000000000000F5000000000000000000000000000000000000000000000000000000000000000000000000000000000000000000
310
00000000000000000000000000000000000000000000000000000000000000000000000000000000000000000000000000000000000000000000000000F50000000000000000000000000000000000000000000000000000000000000000000000000000000000000000000000000000000000000000000000000000000000
310
282800000000000000BE000000000000002828000000000000000000000000000000002D2D2D000000000000000000000000000000000000000000000000000000000000000000000000000000000000000000F500000000000000000000000000000000000000000000000000000000000000000000000000000000000000
310
000000000000000000000000000000000000000000000000000000000000000000000000000000000000000000000000000000000000000000000000000000F5000000000000000000000000000000000000000000000000000000000000000000000000000000000000000000000000000000000000000000000000000000
310
0000282800000000000000BE0000000000000028280000000000000000000000000000000000002D000000000000000000000000000000000000000000000000000000000000000000000000000000000000000000F50000000000000000000000000000000000000000000000000000000000000000000000000000000000
310
0000000000000000000000000000000000000000000000000000000000000000000000000000000000000000000000000000000000000000000000000000000000F500000000000000000000000000000000000000000000000000000000000000000000000000000000000000000000000000000000000000000000000000
310
00000000282800000000000000BE0000000000000028280000000000000000000000000000000000002D000000000000000000000000000000000000000000000000000000000000000000000000000000000000000000F5000000000000000000000000000000000000000000000000000000000000000000000000000000
310
00000000000000000000000000000000000000000000000000000000000000000000000000000000000000000000000000000000000000000000000000000000000000F50000000000000000000000000000000000000000000000000000000000000000000000000000000000000000000000000000000000000000000000
310
000000000000282800000000000000BE0000000000000028280000000000000000000000000000000000002D000000000000000000000000000000000000000000000000000000000000000000000000000000000000000000F500000000000000000000000000000000000000000000000000000000000000000000000000
310
000000000000000000000000000000000000000000000000000000000000000000000000000000000000000000000000000000000000000000000000000000000000000000F5000000000000000000000000000000000000000000000000000000000000000000000000000000000000000000000000000000000000000000
310
0000000000000000282800000000000000BE0000000000000028280000000000000000000000000000000000002D000000000000000000000000000000000000000000000000000000000000000000000000000000000000000000F50000000000000000000000000000000000000000000000000000000000000000000000
310
0000000000000000000000000000000000000000000000000000000000000000000000000000000000000000000000000000000000000000000000000000000000000000000000F500000000000000000000000000000000000000000000000000000000000000000000000000000000000000000000000000000000000000
310
00000000000000000000282800000000000000BE0000000000000028280000000000000000000000000000000000002D000000000000000000000000000000000000000000000000000000000000000000000000000000000000000000F5000000000000000000000000000000000000000000000000000000000000000000
310
00000000000000000000000000000000000000000000000000000000000000000000000000000000000000000000000000000000000000000000000000000000000000000000000000F50000000000000000000000000000000000000000000000000000000000000000000000000000000000000000000000000000000000
310
000000000000000000000000282800000000000000BE0000000000000028280000000000000000000000000000000000002D000000000000000000000000000000000000000000000000000000000000000000000000000000000000000000F500000000000000000000000000000000000000000000000000000000000000
310
000000000000000000000000000000000000000000000000000000000000000000000000000000000000000000000000000000000000000000000000000000000000000000000000000000F5000000000000000000000000000000000000000000000000000000000000000000000000000000000000000000000000000000
310
0000000000000000000000000000282800000000000000BE0000000000000028280000000000000000000000000000000000002D000000000000000000000000000000000000000000000000000000000000000000000000000000000000000000F50000000000000000000000000000000000000000000000000000000000
310
0000000000000000000000000000000000000000000000000000000000000000000000000000000000000000000000000000000000000000000000000000000000000000000000000000000000F500000000000000000000000000000000000000000000000000000000000000000000000000000000000000000000000000
310
00000000000000000000000000000000282800000000000000BE0000000000000028280000000000000000000000000000000000002D000000000000000000000000000000000000000000000000000000000000000000000000000000000000000000F5000000000000000000000000000000000000000000000000000000
310
00000000000000000000000000000000000000000000000000000000000000000000000000000000000000000000000000000000000000000000000000000000000000000000000000000000000000F50000000000000000000000000000000000000000000000000000000000000000000000000000000000000000000000
310
000000000000000000000000000000000000282800000000000000BE0000000000000028280000000000000000000000000000000000002D000000000000000000000000000000000000000000000000000000000000000000000000000000000000000000F500000000000000000000000000000000000000000000000000
310
000000000000000000000000000000000000000000000000000000000000000000000000000000000000000000000000000000000000000000000000000000000000000000000000000000000000000000F5000000000000000000000000000000000000000000000000000000000000000000000000000000000000000000
310
0000000000000000000000000000000000000000282800000000000000BE0000000000000028280000000000000000000000000000000000002D000000000000000000000000000000000000000000000000000000000000000000000000000000000000000000F50000000000000000000000000000000000000000000000
310
0000000000000000000000000000000000000000000000000000000000000000000000000000000000000000000000000000000000000000000000000000000000000000000000000000000000000000000000F500000000000000000000000000000000000000000000000000000000000000000000000000000000000000
310
00000000000000000000000000000000000000000000282800000000000000BE0000000000000028280000000000000000000000000000000000002D000000000000000000000000000000000000000000000000000000000000000000000000000000000000000000F5000000000000000000000000000000000000000000
310
00000000000000000000000000000000000000000000000000000000000000000000000000000000000000000000000000000000000000000000000000000000000000000000000000000000000000000000000000F50000000000000000000000000000000000000000000000000000000000000000000000000000000000
310
000000000000000000000000000000000000000000000000282800000000000000BE0000000000000028280000000000000000000000000000000000002D000000000000000000000000000000000000000000000000000000000000000000000000000000000000000000F500000000000000000000000000000000000000
310
000000000000000000000000000000000000000000000000000000000000000000000000000000000000000000000000000000000000000000000000000000000000000000000000000000000000000000000000000000F5000000000000000000000000000000000000000000000000000000000000000000000000000000
310
0000000000000000000000000000000000000000000000000000282800000000000000BE0000000000000028280000000000000000000000000000000000002D000000000000000000000000000000000000000000000000000000000000000000000000000000000000000000F50000000000000000000000000000000000
310
0000000000000000000000000000000000000000000000000000000000000000000000000000000000000000000000000000000000000000000000000000000000000000000000000000000000000000000000000000000000F500000000000000000000000000000000000000000000000000000000000000000000000000
310
00000000000000000000000000000000000000000000000000000000282800000000000000BE0000000000000028280000000000000000000000000000000000002D000000000000000000000000000000000000000000000000000000000000000000000000000000000000000000F5000000000000000000000000000000
310
00000000000000000000000000000000000000000000000000000000000000000000000000000000000000000000000000000000000000000000000000000000000000000000000000000000000000000000000000000000000000F50000000000000000000000000000000000000000000000000000000000000000000000
310
000000000000000000000000000000000000000000000000000000000000282800000000000000BE0000000000000028280000000000000000000000000000000000002D000000000000000000000000000000000000000000000000000000000000000000000000000000000000000000F500000000000000000000000000
310
000000000000000000000000000000000000000000000000000000000000000000000000000000000000000000000000000000000000000000000000000000000000000000000000000000000000000000000000000000000000000000F5000000000000000000000000000000000000000000000000000000000000000000
310
0000000000000000000000000000000000000000000000000000000000000000282800000000000000BE0000000000000028280000000000000000000000000000000000002D000000000000000000000000000000000000000000000000000000000000000000000000000000000000000000F50000000000000000000000
310
0000000000000000000000000000000000000000000000000000000000000000000000000000000000000000000000000000000000000000000000000000000000000000000000000000000000000000000000000000000000000000000000F500000000000000000000000000000000000000000000000000000000000000
310
00000000000000000000000000000000000000000000000000000000000000000000282800000000000000BE0000000000000028280000000000000000000000000000000000002D000000000000000000000000000000000000000000000000000000000000000000000000000000000000000000F5000000000000000000
310
00000000000000000000000000000000000000000000000000000000000000000000000000000000000000000000000000000000000000000000000000000000000000000000000000000000000000000000000000000000000000000000000000F50000000000000000000000000000000000000000000000000000000000
310
000000000000000000000000000000000000000000000000000000000000000000000000282800000000000000BE0000000000000028280000000000000000000000000000000000002D000000000000000000000000000000000000000000000000000000000000000000000000000000000000000000F500000000000000
310
000000000000000000000000000000000000000000000000000000000000000000000000000000000000000000000000000000000000000000000000000000000000000000000000000000000000000000000000000000000000000000000000000000F5000000000000000000000000000000000000000000000000000000
310
0000000000000000000000000000000000000000000000000000000000000000000000000000282800000000000000BE0000000000000028280000000000000000000000000000000000002D000000000000000000000000000000000000000000000000000000000000000000000000000000000000000000F50000000000
310
0000000000000000000000000000000000000000000000000000000000000000000000000000000000000000000000000000000000000000000000000000000000000000000000000000000000000000000000000000000000000000000000000000000000F500000000000000000000000000000000000000000000000000
310
00000000000000000000000000000000000000000000000000000000000000000000000000000000282800000000000000BE0000000000000028280000000000000000000000000000000000002D000000000000000000000000000000000000000000000000000000000000000000000000000000000000000000F5000000
310
00000000000000000000000000000000000000000000000000000000000000000000000000000000000000000000000000000000000000000000000000000000000000000000000000000000000000000000000000000000000000000000000000000000000000F50000000000000000000000000000000000000000000000
310
000000000000000000000000000000000000000000000000000000000000000000000000000000000000282800000000000000BE0000000000000028280000000000000000000000000000000000002D000000000000000000000000000000000000000000000000000000000000000000000000000000000000000000F500
310
000000000000000000000000000000000000000000000000000000000000000000000000000000000000000000000000000000000000000000000000000000000000000000000000000000000000000000000000000000000000000000000000000000000000000000F5000000000000000000000000000000000000000000
310
0000000000000000000000000000000000000000000000000000000000000000000000000000000000000000282800000000000000BE0000000000000028280000000000000000000000000000000000002D000000000000000000000000000000000000000000000000000000000000000000000000000000000000000000
310
F500000000000000000000000000000000000000000000000000000000000000000000000000000000000000000000000000000000000000000000000000000000000000000000000000000000000000000000000000000000000000000000000000000000000000000000F500000000000000000000000000000000000000
310
00000000000000000000000000000000000000000000000000000000000000000000000000000000000000000000282800000000000000BE0000000000000028280000000000000000000000000000000000002D00000000000000000000000000000000000000000000000000000000000000000000000000000000000000
310
0000F500000000000000000000000000000000000000000000000000000000000000000000000000000000000000000000000000000000000000000000000000000000000000000000000000000000000000000000000000000000000000000000000000000000000000000000F50000000000000000000000000000000000
310
0000000000000000000000000000000000000000000000000000000000000000000000000000000000000000000000002D2828282828282828BE28282828282828282D2D2D2D2D2D2D2D2D2D2D2D2D2D2D2D2D2D2D2D0000000000000000000000000000000000000000000000000000000000000000000000000000000000
310
00000000F500000000000000000000000000000000000000000000000000000000000000000000000000000000000000000000000000000000000000000000000000000000000000000000000000000000000000000000000000000000000000000000000000000000000000000000F5000000000000000000000000000000
310
0000000000000000000000000000000000000000000000000000000000000000000000000000000000000000000000000000000000000000000000BE00000000000000000000000000000000000000000000000000000000000000000000000000000000000000000000000000000000000000000000000000000000000000
310
000000000000F500000000000000000000000000000000000000000000000000000000000000000000000000000000000000000000000000000000000000000000000000000000000000000000000000000000000000000000000000000000000000000000000000000000000000000000F500000000000000000000000000
310
000000000000000000000000000000000000000000000000000000000000000000000000000000000000000000000000000000002D0000000000002828BE28000000000000002D0000000000000000000000000000000000000000000000000000000000000000000000000000000000000000000000000000000000000000
310
0000000000000000F500000000000000000000000000000000000000000000000000000000000000000000000000000000000000000000000000000000000000000000000000000000000000000000000000000000000000000000000000000000000000000000000000000000000000000000F50000000000000000000000
310
0000000000000000000000000000000000000000000000000000000000000000000000000000000000000000000000000000000000002D0000282828282800BE28282828282800002D000000000000000000000000000000000000000000000000000000000000000000000000000000000000000000000000000000000000
310
00000000000000000000F500000000000000000000000000000000000000000000000000000000000000000000000000000000000000000000000000000000000000000000000000000000000000000000000000000000000000000000000000000000000000000000000000000000000000000000F5000000000000000000
310
00000000000000000000000000000000000000000000000000000000000000000000000000000000000000000000000000000000000000002D2828280000000000BE00000000002828282D00000000000000000000000000000000000000000000000000000000000000000000000000000000000000000000000000000000
310
000000000000000000000000F500000000000000000000000000000000000000000000000000000000000000000000000000000000000000000000000000000000000000000000000000000000000000000000000000000000000000000000000000000000000000000000000000000000000000000000F500000000000000
310
000000000000000000000000000000000000000000000000000000000000000000000000000000000000000000000000000000000000000000282D0000000000000000BE00000000000000002D2800000000000000000000000000000000000000000000000000000000000000000000000000000000000000000000000000
310
0000000000000000000000000000F500000000000000000000000000000000000000000000000000000000000000000000000000000000000000000000000000000000000000000000000000000000000000000000000000000000000000000000000000000000000000000000000000000000000000000000F50000000000
310
0000000000000000000000000000000000000000000000000000000000000000000000000000000000000000000000000000000000000000002828282D2D2D2D2D2D2D2D2D2D2D2D2D2D2D2D2D2D2D282800000000000000000000000000000000000000000000000000000000000000000000000000000000000000000000
310
00000000000000000000000000000000F500000000000000000000000000000000000000000000000000000000000000000000000000000000000000000000000000000000000000000000000000000000000000000000000000000000000000000000000000000000000000000000000000000000000000000000F5000000
310
00000000000000000000000000000000000000000000000000000000000000000000000000000000000000000000000000000000000000000000282800002D2D0000000000002D2D2D0000000000002D2D00002828000000000000000000000000000000000000000000000000000000000000000000000000000000000000
310
000000000000000000000000000000000000F500000000000000000000000000000000000000000000000000000000000000000000000000000000000000000000000000000000000000000000000000000000000000000000000000000000000000000000000000000000000000000000000000000000000000000000F500
310
000000000000000000000000000000000000000000000000000000000000000000000000000000000000000000000000000000000000000000000028280000000000000000000000002D2D00000000000000000000002828000000000000000000000000000000000000000000000000000000000000000000000000000000
310
0000000000000000000000000000000000000000F500000000000000000000000000000000000000000000000000000000000000000000000000000000000000000000000000000000000000000000000000000000000000000000000000000000000000000000000000000000000000000000000000000000000000000000
310
F50000000000000000000000000000000000000000000000000000000000000000000000000000000000000000000000000000000000000000000000282800000000000000000000000000BE000000000000000000000000002800000000000000000000000000000000000000000000000000000000000000000000000000
310
00000000000000000000000000000000000000000000F50000000000000000000000000000000000000000000000000000000000000000000000000000000000000000000000000000000000000000000000000000000000000000000000000000000000000000000000000000000000000000000000000000000000000000
310
0000F50000000000000000000000000000000000000000000000000000000000000000000000000000000000000000000000000000000000000000000000280000000000000000000000000000BE00000000000000000000000000002800000000000000000000000000000000000000000000000000000000000000000000
310
000000000000000000000000000000000000000000000000F5000000000000000000000000000000000000000000000000000000000000000000000000000000000000000000000000000000000000000000000000000000000000000000000000000000000000000000000000000000000000000000000000000000000000
310
00000000F50000000000000000000000000000000000000000000000000000000000000000000000000000000000000000000000000000000000000000000028280000000000000000000000000000BE0000000000000000000000000000282800000000000000000000000000000000000000000000000000000000000000
310
0000000000000000000000000000000000000000000000000000F500000000000000000000000000000000000000000000000000000000000000000000000000000000000000000000000000000000000000000000000000000000000000000000000000000000000000000000000000000000000000000000000000000000
310
000000000000F50000000000000000000000000000000000000000000000000000000000000000000000000000000000000000000000000000000000000000000028000000000000002828282828282828BE282828282828282800000000000000280000000000000000000000000000000000000000000000000000000000
310
00000000000000000000000000000000000000000000000000000000F50000000000000000000000000000000000000000000000000000000000000000000000000000000000000000000000000000000000000000000000000000000000000000000000000000000000000000000000000000000000000000000000000000
310
0000000000000000F50000000000000000000000000000000000000000000000000000000000000000000000000000000000000000000000000000000000000000002800000000000000282800000000000000BE00000000000028282800000000000028280000000000000000000000000000000000000000000000000000
310
000000000000000000000000000000000000000000000000000000000000F5000000000000000000000000000000000000000000000000000000000000000000000000000000000000000000000000000000000000000000000000000000000000000000000000000000000000000000000000000000000000000000000000
310
00000000000000000000F50000000000000000000000000000000000000000000000000000000000000000000000000000000000000000000000000000000000000000002800000000000000280000000000000000BE0000000000000028280000000000000028000000000000000000000000000000000000000000000000
310
0000000000000000000000000000000000000000000000000000000000000000F500000000000000000000000000000000000000000000000000000000000000000000000000000000000000000000000000000000000000000000000000000000000000000000000000000000000000000000000000000000000000000000
310
000000000000000000000000F50000000000000000000000000000000000000000000000000000000000000000000000000000000000000000000000000000000000000000282800000000000000280000000000000000BE000000000000002828000000000000002828000000000000000000000000000000000000000000
310
00000000000000000000000000000000000000000000000000000000000000000000F50000000000000000000000000000000000000000000000000000000000000000000000000000000000000000000000000000000000000000000000000000000000000000000000000000000000000000000000000000000000000000
310
0000000000000000000000000000F50000000000000000000000000000000000000000000000000000000000000000000000000000000000000000000000000000000000000000280000000000000000280000000000000000BE00000000000000282800000000000000002800000000000000000000000000000000000000
310
000000000000000000000000000000000000000000000000000000000000000000000000F5000000000000000000000000000000000000000000000000000000000000000000000000000000000000000000000000000000000000000000000000000000000000000000000000000000000000000000000000000000000000
310
00000000000000000000000000000000F50000000000000000000000000000000000000000000000000000000000000000000000000000000000000000000000000000000000000000280000000000000000280000000000000000BE0000000000000028280000000000000000280000000000000000000000000000000000
310
0000000000000000000000000000000000000000000000000000000000000000000000000000F500000000000000000000000000000000000000000000000000000000000000000000000000000000000000000000000000000000000000000000000000000000000000000000000000000000000000000000000000000000
310
000000000000000000000000000000000000F50000000000000000000000000000000000000000000000000000000000000000000000000000000000000000000000000000000000000000280000000000000000280000000000000000BE000000000000002828000000000000000028000000000000000000000000000000
310
00000000000000000000000000000000000000000000000000000000000000000000000000000000F50000000000000000000000000000000000000000000000000000000000000000000000000000000000000000000000000000000000000000000000000000000000000000000000000000000000000000000000000000
310
0000000000000000000000000000000000000000F50000000000000000000000000000000000000000000000000000000000000000000000000000000000000000000000000000000000000000280000000000000000280000000000000000BE00000000000000282800000000000000002800000000000000000000000000
310
000000000000000000000000000000000000000000000000000000000000000000000000000000000000F5000000000000000000000000000000000000000000000000000000000000000000000000000000000000000000000000000000000000000000000000000000000000000000000000000000000000000000000000
310
00000000000000000000000000000000000000000000F50000000000000000000000000000000000000000000000000000000000000000000000000000000000000000000000000000000000000000280000000000000000280000000000000000BE0000000000000028280000000000000000280000000000000000000000
310
0000000000000000000000000000000000000000000000000000000000000000000000000000000000000000F500000000000000000000000000000000000000000000000000000000000000000000000000000000000000000000000000000000000000000000000000000000000000000000000000000000000000000000
310
000000000000000000000000000000000000000000000000F500000000000000000000000000000000000000000000000000000000000000000000000000000000000000000000000000000000BEBEBEBEBEBEBEBEBEBEBEBEBEBEBEBEBEBEBEBEBEBEBEBEBEBEBEBEBEBEBEBEBEBEBEBEBEBEBEBEBEBEBEBEBEBE00000000
310
00000000000000000000000000000000000000000000000000000000000000000000000000000000000000000000F50000000000000000000000000000000000000000000000000000000000000000000000000000000000000000000000000000000000000000000000000000000000000000000000000000000000000000
310
0000000000000000000000000000000000000000000000000000F50000000000000000000000000000000000000000000000000000000000000000000000000000000000000000000000000000000000000000280000000000000000280000000000000000BE00000000000000282800000000000000002800000000000000
310
000000000000000000000000000000000000000000000000000000000000000000000000000000000000000000000000F5000000000000000000000000000000000000000000000000000000000000000000000000000000000000000000000000000000000000000000000000000000000000000000000000000000000000
310
00000000000000000000000000000000000000000000000000000000F50000000000000000000000000000000000000000000000000000000000000000000000000000000000000000000000000000000000000000280000000000000000280000000000000000BE0000000000000028280000000000000000280000000000
310
0000000000000000000000000000000000000000000000000000000000000000000000000000000000000000000000000000F500000000000000000000000000000000000000000000000000000000000000000000000000000000000000000000000000000000000000000000000000000000000000000000000000000000
310
000000000000000000000000000000000000000000000000000000000000F50000000000000000000000000000000000000000000000000000000000000000000000000000000000000000000000000000000000000000280000000000000000280000000000000000BE000000000000002828000000000000000028000000
310
00000000000000000000000000000000000000000000000000000000000000000000000000000000000000000000000000000000F50000000000000000000000000000000000000000000000000000000000000000000000000000000000000000000000000000000000000000000000000000000000000000000000000000
310
0000000000000000000000000000000000000000000000000000000000000000F50000000000000000000000000000000000000000000000000000000000000000000000000000000000000000000000000000000000000000280000000000000000280000000000000000BE00000000000000282800000000000000002800
310
000000000000000000000000000000000000000000000000000000000000000000000000000000000000000000000000000000000000F5000000000000000000000000000000000000000000000000000000000000000000000000000000000000000000000000000000000000000000000000000000000000000000000000
310
00000000000000000000000000000000000000000000000000000000000000000000F50000000000000000000000000000000000000000000000000000000000000000000000000000000000000000000000000000000000000000280000000000000000280000000000000000BE0000000000000028280000000000000028
310
2800000000000000000000000000000000000000000000000000000000000000000000000000000000000000000000000000000000000000F500000000000000000000000000000000000000000000000000000000000000000000000000000000000000000000000000000000000000000000000000000000000000000000
310
000000000000000000000000000000000000000000000000000000000000000000000000F50000000000000000000000000000000000000000000000000000000000000000000000000000000000000000000000000000000000000000002800000000000000280000000000000000BE000000000000002828000000000000
310
00280000000000000000000000000000000000000000000000000000000000000000000000000000000000000000000000000000000000000000F50000000000000000000000000000000000000000000000000000000000000000000000000000000000000000000000000000000000000000000000000000000000000000
310
0000000000000000000000000000000000000000000000000000000000000000000000000000F50000000000000000000000000000000000000000000000000000000000000000000000000000000000000000000000000000000000000000002800000000000000282800000000000000BE00000000000028282800000000
310
000000280000000000000000000000000000000000000000000000000000000000000000000000000000000000000000000000000000000000000000F5000000000000000000000000000000000000000000000000000000000000000000000000000000000000000000000000000000000000000000000000000000000000
310
00000000000000000000000000000000000000000000000000000000000000000000000000000000F50000000000000000000000000000000000000000000000000000000000000000000000000000000000000000000000000000000000000000002828000000000000282828282828282828BE2828282828282828280000
310
0000000028000000000000000000000000000000000000000000000000000000000000000000000000000000000000000000000000000000000000000000F500000000000000000000000000000000000000000000000000000000000000000000000000000000000000000000000000000000000000000000000000000000
310
000000000000000000000000000000000000000000000000000000000000000000000000000000000000F50000000000000000000000000000000000000000000000000000000000000000000000000000000000000000000000000000000000000000000028000000000000002828282828282828BE282828282828282800
310
00000000002828000000000000000000000000000000000000000000000000000000000000000000000000000000000000000000000000000000000000000000F50000000000000000000000000000000000000000000000000000000000000000000000000000000000000000000000000000000000000000000000000000
310
0000000000000000000000000000000000000000000000000000000000000000000000000000000000000000F50000000000000000000000000000000000000000000000000000000000000000000000000000000000000000000000000000000000000000000028280000000000000000000000000000BE00000000000000
310
000000000000002800000000000000000000000000000000000000000000000000000000000000000000000000000000000000000000000000000000000000000000F5000000000000000000000000000000000000000000000000000000000000000000000000000000000000000000000000000000000000000000000000
310
00000000000000000000000000000000000000000000000000000000000000000000000000000000000000000000F50000000000000000000000000000000000000000000000000000000000000000000000000000000000000000000000000000000000000000000000282800000000000000000000000000BE0000000000
310
0000000000000000282800000000000000000000000000000000000000000000000000000000000000000000000000000000000000000000000000000000000000000000F500000000000000000000000000000000000000000000000000000000000000000000000000000000000000000000000000000000000000000000
310
000000000000000000000000000000000000000000000000000000000000000000000000000000000000000000000000F50000000000000000000000000000000000000000000000000000000000000000000000000000000000000000000000000000000000000000000000002828000000000000000000000000BE000000
310
00000000000000000028280000000000000000000000000000000000000000000000000000000000000000000000000000000000000000000000000000000000000000000000F50000000000000000000000000000000000000000000000000000000000000000000000000000000000000000000000000000000000000000
310
0000000000000000000000000000000000000000000000000000000000000000000000000000000000000000000000000000F50000000000000000000000000000000000000000000000000000000000000000000000000000000000000000000000000000000000000000000000000028280000000000000000000000BE00
310
000000000000000000002828000000000000000000000000000000000000000000000000000000000000000000000000000000000000000000000000000000000000000000000000F5000000000000000000000000000000000000000000000000000000000000000000000000000000000000000000000000000000000000
310
00000000000000000000000000000000000000000000000000000000000000000000000000000000000000000000000000000000F50000000000000000000000000000000000000000000000000000000000000000000000000000000000000000000000000000000000000000000000000000282800000000000000000000
310
BE00000000000000000000282800000000000000000000000000000000000000000000000000000000000000000000000000000000000000000000000000000000000000000000000000F500000000000000000000000000000000000000000000000000000000000000000000000000000000000000000000000000000000
310
000000000000000000000000000000000000000000000000000000000000000000000000000000000000000000000000000000000000F5000000000000000000000000000000000000000000000000000000000000000000000000000000000000000000000000000000000000000000000000000000282828000000000000
310
0000BE00000000000000002828000000000000000000000000000000000000000000000000000000000000000000000000000000000000000000000000000000000000000000000000000000F50000000000000000000000000000000000000000000000000000000000000000000000000000000000000000000000000000
310
0000000000000000000000000000000000000000000000000000000000000000000000000000000000000000000000000000000000000000F500000000000000000000000000000000000000000000000000000000000000000000000000000000000000000000000000000000000000000000000000000000002828280000
310
00000000BE00000000000028282800000000000000000000000000000000000000000000000000000000000000000000000000000000000000000000000000000000000000000000000000000000F5000000000000000000000000000000000000000000000000000000000000000000000000000000000000000000000000
310
00000000000000000000000000000000000000000000000000000000000000000000000000000000000000000000000000000000000000000000F50000000000000000000000000000000000000000000000000000000000000000000000000000000000000000000000000000000000000000000000000000000000000028
310
282828000000BE00000028282828000000000000000000000000000000000000000000000000000000000000000000000000000000000000000000000000000000000000000000000000000000000000F500000000000000000000000000000000000000000000000000000000000000000000000000000000000000000000
310
000000000000000000000000000000000000000000000000000000000000000000000000000000000000000000000000000000000000000000000000F5000000000000000000000000000000000000000000000000000000000000000000000000000000000000000000000000000000000000000000000000000000000000
310
0000000028282828BE28282800000000000000000000000000000000000000000000000000000000000000000000000000000000000000000000000000000000000000000000000000000000000000000000F50000000000000000000000000000000000000000000000000000000000000000000000000000000000000000
310
0000000000000000000000000000000000000000000000000000000000000000000000000000000000000000000000000000000000000000000000000000F5F5F5F5F5F5F5F5F5F5F5F5F5F5F5F5F5F5F5F5F5F5F5F5F5F5F5F5F5F5F5F5F5F5F5F5F5F5F5F5F5F5F5F5F5F5F5F5F5F5F5F5F5F5F5F5F5F5F5F5F5F5F5F5F5
310
F5F5F5F5F5F5F5F5F5F5F5F5F5F5F5F5F5F5F5F5F5F5F5F5F5F5F5F5F5F5F5F5F5F5F5F5F5F5F5F5F5F5F5F5F5F5F5F5F5F5F5F5F5F5F5F5F5F5F5F5F5F5F5F5F5F5F5F5F5F5F5F5F5F5F5F5F5F5F5F5F5F5F5F5F5000000000000000000000000000000000000000000000000000000000000000000000000000000000000
310
00000000000000000000000000000000000000000000000000000000000000000000000000000000000000000000000000000000000000000000000000000000000000000000000000000000000000000000000000000000000000000000000000000000000000000000000000000000000000000000000000000000000000
310
00000000000000000000000000000000000000000000000000000000000000000000000000000000000000000000000000000000000000000000000000000000000000000000000000000000000000000000000000000000000000000000000000000000000000000000000000000000000000000000000000000000000000
310
00000000000000000000000000000000000000000000000000000000000000000000000000000000000000000000000000000000000000000000000000000000000000000000000000000000000000000000000000000000000000000000000000000000000000000000000000000000000000000000000000000000000000
310
00000000000000000000000000000000000000000000000000000000000000000000000000000000000000000000000000000000000000000000000000000000000000000000000000000000000000000000000000000000000000000000000000000000000000000000000000000000000000000000000000000000000000
310
00000000000000000000000000000000000000000000000000000000000000000000000000000000000000000000000000000000000000000000000000000000000000000000000000000000000000000000000000000000000000000000000000000000000000000000000000000000000000000000000000000000000000
310
00000000000000000000000000000000000000000000000000000000000000000000000000000000000000000000000000000000000000000000000000000000000000000000000000000000000000000000000000000000000000000000000000000000000000000000000000000000000000000000000000000000000000
310
00000000000000000000000000000000000000000000000000000000000000000000000000000000000000000000000000000000000000000000000000000000000000000000000000000000000000000000000000000000000000000000000000000000000000000000000000000000000000000000000000000000000000
310
00000000000000000000000000000000000000000000000000000000000000000000000000000000000000000000000000000000000000000000000000000000000000000000000000000000000000000000000000000000000000000000000000000000000000000000000000000000000000000000000000000000000000
310
00000000000000000000000000000000000000000000000000000000000000000000000000000000000000000000000000000000000000000000000000000000000000000000000000000000000000000000000000000000000000000000000000000000000000000000000000000000000000000000000000000000000000
310
00000000000000000000000000000000000000000000000000000000000000000000000000000000000000000000000000000000000000000000000000000000000000000000000000000000000000000000000000000000000000000000000000000000000000000000000000000000000000000000000000000000000000
310
00000000000000000000000000000000000000000000000000000000000000000000000000000000000000000000000000000000000000000000000000000000000000000000000000000000000000000000000000000000000000000000000000000000000000000000000000000000000000000000000000000000000000
310
00000000000000000000000000000000000000000000000000000000000000000000000000000000000000000000000000000000000000000000000000000000000000000000000000000000000000000000000000000000000000000000000000000000000000000000000000000000000000000000000000000000000000
310
00000000000000000000000000000000000000000000000000000000000000000000000000000000000000000000000000000000000000000000000000000000000000000000000000000000000000000000000000000000000000000000000000000000000000000000000000000000000000000000000000000000000000
310
00000000000000000000000000000000000000000000000000000000000000000000000000000000000000000000000000000000000000000000000000000000000000000000000000000000000000000000000000000000000000000000000000000000000000000000000000000000000000000000000000000000000000
310
00000000000000000000000000000000000000000000000000000000000000000000000000000000000000000000000000000000000000000000000000000000000000000000000000000000000000000000000000000000000000000000000000000000000000000000000000000000000000000000000000000000000000
310
00000000000000000000000000000000000000000000000000000000000000000000000000000000000000000000000000000000000000000000000000000000000000000000000000000000000000000000000000000000000000000000000000000000000000000000000000000000000000000000000000000000000000
310
00000000000000000000000000000000000000000000000000000000000000000000000000000000000000000000000000000000000000000000000000000000000000000000000000000000000000000000000000000000000000000000000000000000000000000000000000000000000000000000000000000000000000
310
00000000000000000000000000000000000000000000000000000000000000000000000000000000000000000000000000000000000000000000000000000000000000000000000000000000000000000000000000000000000000000000000000000000000000000000000000000000000000000000000000000000000000
310
00000000000000000000000000000000000000000000000000000000000000000000000000000000000000000000000000000000000000000000000000000000000000000000000000000000000000000000000000000000000000000000000000000000000000000000000000000000000000000000000000000000000000
310
00000000000000000000000000000000000000000000000000000000000000000000000000000000000000000000000000000000000000000000000000000000000000000000000000000000000000000000000000000000000000000000000000000000000000000000000000000000000000000000000000000000000000
310
00000000000000000000000000000000000000000000000000000000000000000000000000000000000000000000000000000000000000000000000000000000000000000000000000000000000000000000000000000000000000000000000000000000000000000000000000000000000000000000000000000000000000
310
00000000000000000000000000000000000000000000000000000000000000000000000000000000000000000000000000000000000000000000000000000000000000000000000000000000000000000000000000000000000000000000000000000000000000000000000000000000000000000000000000000000000000
310
00000000000000000000000000000000000000000000000000000000000000000000000000000000000000000000000000000000000000000000000000000000000000000000000000000000000000000000000000000000000000000000000000000000000000000000000000000000000000000000000000000000000000
310
00000000000000000000000000000000000000000000000000000000000000000000000000000000000000000000000000000000000000000000000000000000000000000000000000000000000000000000000000000000000000000000000000000000000000000000000000000000000000000000000000000000000000
310
00000000000000000000000000000000000000000000000000000000000000000000000000000000000000000000000000000000000000000000000000000000000000000000000000000000000000000000000000000000000000000000000000000000000000000000000000000000000000000000000000000000000000
310
00000000000000000000000000000000000000000000000000000000000000000000000000000000000000000000000000000000000000000000000000000000000000000000000000000000000000000000000000000000000000000000000000000000000000000000000000000000000000000000000000000000000000
310
00000000000000000000000000000000000000000000000000000000000000000000000000000000000000000000000000000000000000000000000000000000000000000000000000000000000000000000000000000000000000000000000000000000000000000000000000000000000000000000000000000000000000
310
00000000000000000000000000000000000000000000000000000000000000000000000000000000000000000000000000000000000000000000000000000000000000000000000000000000000000000000000000000000000000000000000000000000000000000000000000000000000000000000000000000000000000
310
00000000000000000000000000000000000000000000000000000000000000000000000000000000000000000000000000000000000000000000000000000000000000000000000000000000000000000000000000000000000000000000000000000000000000000000000000000000000000000000000000000000000000
310
00000000000000000000000000000000000000000000000000000000000000000000000000000000000000000000000000000000000000000000000000000000000000000000000000000000000000000000000000000000000000000000000000000000000000000000000000000000000000000000000000000000000000
310
00000000000000000000000000000000000000000000000000000000000000000000000000000000000000000000000000000000000000000000000000000000000000000000000000000000000000000000000000000000000000000000000000000000000000000000000000000000000000000000000000000000000000
310
00000000000000000000000000000000000000000000000000000000000000000000000000000000000000000000000000000000000000000000000000000000000000000000000000000000000000000000000000000000000000000000000000000000000000000000000000000000000000000000000000000000000000
310
00000000000000000000000000000000000000000000000000000000000000000000000000000000000000000000000000000000000000000000000000000000000000000000000000000000000000000000000000000000000000000000000000000000000000000000000000000000000000000000000000000000000000
310
00000000000000000000000000000000000000000000000000000000000000000000000000000000000000000000000000000000000000000000000000000000000000000000000000000000000000000000000000000000000000000000000000000000000000000000000000000000000000000000000000000000000000
310
00000000000000000000000000000000000000000000000000000000000000000000000000000000000000000000000000000000000000000000000000000000000000000000000000000000000000000000000000000000000000000000000000000000000000000000000000000000000000000000000000000000000000
310
00000000000000000000000000000000000000000000000000000000000000000000000000000000000000000000000000000000000000000000000000000000000000000000000000000000000000000000000000000000000000000000000000000000000000000000000000000000000000000000000000000000000000
310
0000000000000000000000000000000000000000000000000000000000000000000000000000000000000000
  0
XRECORD
  5
25CA
102
{ACAD_REACTORS
330
25C9
102
}
330
25C9
100
AcDbXrecord
280
     1
102
SHADEPLOT
 70
     0
102
SHADEPLOTRESLEVEL
 70
     2
102
SHADEPLOTCUSTOMDPI
 70
   300
  0
XRECORD
  5
25CC
102
{ACAD_REACTORS
330
114A
102
}
330
114A
100
AcDbXrecord
280
     1
102
MATERIAL
148
0.0
149
0.0
149
0.0
 93
        0
 94
      127
282
     0
 72
     0
 77
     0
171
     0
175
     0
179
     0
273
     0
  0
XRECORD
  5
114C
102
{ACAD_REACTORS
330
114A
102
}
330
114A
100
AcDbXrecord
280
     1
270
     1
271
     1
  0
XRECORD
  5
114B
102
{ACAD_REACTORS
330
114A
102
}
330
114A
100
AcDbXrecord
280
     1
270
     1
271
     1
  0
XRECORD
  5
114F
102
{ACAD_REACTORS
330
114A
102
}
330
114A
100
AcDbXrecord
280
     1
270
     1
271
     1
  0
XRECORD
  5
114E
102
{ACAD_REACTORS
330
114A
102
}
330
114A
100
AcDbXrecord
280
     1
270
     1
271
     1
  0
XRECORD
  5
1150
102
{ACAD_REACTORS
330
114A
102
}
330
114A
100
AcDbXrecord
280
     1
270
     1
271
     1
  0
XRECORD
  5
114D
102
{ACAD_REACTORS
330
114A
102
}
330
114A
100
AcDbXrecord
280
     1
270
     1
271
     1
  0
XRECORD
  5
25CB
102
{ACAD_REACTORS
330
1142
102
}
330
1142
100
AcDbXrecord
280
     1
102
MATERIAL
148
0.0
149
0.0
149
0.0
 93
        0
 94
      127
282
     0
 72
     0
 77
     0
171
     0
175
     0
179
     0
273
     0
  0
XRECORD
  5
1144
102
{ACAD_REACTORS
330
1142
102
}
330
1142
100
AcDbXrecord
280
     1
270
     1
271
     1
  0
XRECORD
  5
1143
102
{ACAD_REACTORS
330
1142
102
}
330
1142
100
AcDbXrecord
280
     1
270
     1
271
     1
  0
XRECORD
  5
1147
102
{ACAD_REACTORS
330
1142
102
}
330
1142
100
AcDbXrecord
280
     1
270
     1
271
     1
  0
XRECORD
  5
1146
102
{ACAD_REACTORS
330
1142
102
}
330
1142
100
AcDbXrecord
280
     1
270
     1
271
     1
  0
XRECORD
  5
1148
102
{ACAD_REACTORS
330
1142
102
}
330
1142
100
AcDbXrecord
280
     1
270
     1
271
     1
  0
XRECORD
  5
1145
102
{ACAD_REACTORS
330
1142
102
}
330
1142
100
AcDbXrecord
280
     1
270
     1
271
     1
  0
XRECORD
  5
25CD
102
{ACAD_REACTORS
330
1152
102
}
330
1152
100
AcDbXrecord
280
     1
102
MATERIAL
148
0.0
149
0.0
149
0.0
 93
        0
 94
      127
282
     0
 72
     0
 77
     0
171
     0
175
     0
179
     0
273
     0
  0
XRECORD
  5
1154
102
{ACAD_REACTORS
330
1152
102
}
330
1152
100
AcDbXrecord
280
     1
270
     1
271
     1
  0
XRECORD
  5
1153
102
{ACAD_REACTORS
330
1152
102
}
330
1152
100
AcDbXrecord
280
     1
270
     1
271
     1
  0
XRECORD
  5
1157
102
{ACAD_REACTORS
330
1152
102
}
330
1152
100
AcDbXrecord
280
     1
270
     1
271
     1
  0
XRECORD
  5
1156
102
{ACAD_REACTORS
330
1152
102
}
330
1152
100
AcDbXrecord
280
     1
270
     1
271
     1
  0
XRECORD
  5
1158
102
{ACAD_REACTORS
330
1152
102
}
330
1152
100
AcDbXrecord
280
     1
270
     1
271
     1
  0
XRECORD
  5
1155
102
{ACAD_REACTORS
330
1152
102
}
330
1152
100
AcDbXrecord
280
     1
270
     1
271
     1
  0
ACAD_PROXY_OBJECT
  5
25BF
102
{ACAD_REACTORS
330
25BE
102
}
330
25BE
100
AcDbProxyObject
 90
      499
 91
      530
 95
   393239
 70
     0
 93
     5304
310
40D054060020000020000003200101A000080002A5058000000C10000000000000006101010000000000003E0FC000000000000F83F0000000000003E0FC000000000000F83F000000000000049000000000000001240419019018000000C1003FBFFFFFE0000000000003C8FD029018000000C1003FBFFFFFE00000000000
310
03C8FD049018000000C1003FBFFFFFE0000000000003C8FD089018000000C1003FBFFFFFE0000000000003C8FD109018000000C1003FBFFFFFE0000000000003C8FD209018000000C1003FBFFFFFE0000000000003C8FD01405075F5449544C450041501A8000000C800406800020000A94160000003040000000000000012
310
40404000000000000F83F0000000000003E0FC000000000000F83F0000000000003E0FC0000000000001240000000000000049010640640600000030400FEFFFFFF8000000000000F23F40A40600000030400FEFFFFFF8000000000000F23F41240600000030400FEFFFFFF8000000000000F23F42240600000030400FEFFF
310
FFF8000000000000F23F44240600000030400FEFFFFFF8000000000000F23F48240600000030400FEFFFFFF8000000000000F23F409014217D2115051115480105406A0000003200101A000080002A5028000000C10000000000000004901010000000000003E0FC000000000000F83F0000000000003E0FC000000000000F
310
83F000000000000049000000000000001240419019018000000C1003FBFFFFFE0000000000003C8FD029018000000C1003FBFFFFFE0000000000003C8FD049018000000C1003FBFFFFFE0000000000003C8FD089018000000C1003FBFFFFFE0000000000003C8FD109018000000C1003FBFFFFFE0000000000003C8FD20901
310
8000000C1003FBFFFFFE0000000000003C8FD03409065F444154410000
340
10
340
0
340
0
340
0
340
0
340
0
340
0
340
10
340
0
340
0
340
0
340
0
340
0
340
0
340
10
340
0
340
0
340
0
340
0
340
0
340
0
 94
        0
  0
XRECORD
  5
25FE
102
{ACAD_REACTORS
330
25BE
102
}
330
25BE
100
AcDbXrecord
280
     1
102
ACAD_ROUNDTRIP_PRE2007_TABLESTYLE
 90
      512
 91
        0
  1

 92
      512
 93
        0
  2

 94
      512
 95
        0
  3

  0
XRECORD
  5
25D9
102
{ACAD_REACTORS
330
25D8
102
}
330
25D8
100
AcDbXrecord
280
     1
102
RTVSPropertyOp0
 70
     1
102
RTVSPropertyOp1
 70
     1
102
RTVSPropertyOp2
 70
     1
102
RTVSPropertyOp3
 70
     1
102
RTVSPropertyOp4
 70
     1
102
RTVSPropertyOp5
 70
     1
102
RTVSPropertyOp6
 70
     1
102
RTVSPropertyOp7
 70
     1
102
RTVSPropertyOp8
 70
     1
102
RTVSPropertyOp9
 70
     1
102
RTVSPropertyOp10
 70
     1
102
RTVSPropertyOp11
 70
     1
102
RTVSPropertyOp12
 70
     1
102
RTVSPropertyOp13
 70
     1
102
RTVSPropertyOp14
 70
     1
102
RTVSPropertyOp15
 70
     1
102
RTVSPropertyOp16
 70
     1
102
RTVSPropertyOp17
 70
     1
102
RTVSPropertyOp18
 70
     1
102
RTVSPropertyOp19
 70
     1
102
RTVSPropertyOp20
 70
     1
102
RTVSPropertyOp21
 70
     1
102
RTVSPropertyOp22
 70
     1
102
RTVSPropertyOp23
 70
     1
102
RTVSPropertyOp24
 70
     1
102
RTVSPropertyOp25
 70
     1
102
RTVSPropertyOp26
 70
     1
102
RTVSPropertyOp27
 70
     1
102
RTVSPropertyOp28
 70
     1
102
RTVSPropertyOp29
 70
     1
102
RTVSPropertyOp30
 70
     1
102
RTVSPropertyOp31
 70
     1
102
RTVSPropertyOp32
 70
     1
  0
XRECORD
  5
25D7
102
{ACAD_REACTORS
330
25D6
102
}
330
25D6
100
AcDbXrecord
280
     1
102
RTVSPropertyOp0
 70
     1
102
RTVSPropertyOp1
 70
     1
102
RTVSPropertyOp2
 70
     1
102
RTVSPropertyOp3
 70
     1
102
RTVSPropertyOp4
 70
     1
102
RTVSPropertyOp5
 70
     1
102
RTVSPropertyOp6
 70
     1
102
RTVSPropertyOp7
 70
     1
102
RTVSPropertyOp8
 70
     1
102
RTVSPropertyOp9
 70
     1
102
RTVSPropertyOp10
 70
     1
102
RTVSPropertyOp11
 70
     1
102
RTVSPropertyOp12
 70
     1
102
RTVSPropertyOp13
 70
     1
102
RTVSPropertyOp14
 70
     1
102
RTVSPropertyOp15
 70
     1
102
RTVSPropertyOp16
 70
     1
102
RTVSPropertyOp17
 70
     1
102
RTVSPropertyOp18
 70
     1
102
RTVSPropertyOp19
 70
     1
102
RTVSPropertyOp20
 70
     1
102
RTVSPropertyOp21
 70
     1
102
RTVSPropertyOp22
 70
     1
102
RTVSPropertyOp23
 70
     1
102
RTVSPropertyOp24
 70
     1
102
RTVSPropertyOp25
 70
     1
102
RTVSPropertyOp26
 70
     1
102
RTVSPropertyOp27
 70
     1
102
RTVSPropertyOp28
 70
     1
102
RTVSPropertyOp29
 70
     1
102
RTVSPropertyOp30
 70
     1
102
RTVSPropertyOp31
 70
     1
102
RTVSPropertyOp32
 70
     1
  0
XRECORD
  5
25E5
102
{ACAD_REACTORS
330
25E4
102
}
330
25E4
100
AcDbXrecord
280
     1
102
RTVSPropertyOp0
 70
     1
102
RTVSPropertyOp1
 70
     1
102
RTVSPropertyOp2
 70
     1
102
RTVSPropertyOp3
 70
     1
102
RTVSPropertyOp4
 70
     1
102
RTVSPropertyOp5
 70
     1
102
RTVSPropertyOp6
 70
     1
102
RTVSPropertyOp7
 70
     1
102
RTVSPropertyOp8
 70
     1
102
RTVSPropertyOp9
 70
     1
102
RTVSPropertyOp10
 70
     1
102
RTVSPropertyOp11
 70
     1
102
RTVSPropertyOp12
 70
     1
102
RTVSPropertyOp13
 70
     1
102
RTVSPropertyOp14
 70
     1
102
RTVSPropertyOp15
 70
     1
102
RTVSPropertyOp16
 70
     1
102
RTVSPropertyOp17
 70
     1
102
RTVSPropertyOp18
 70
     1
102
RTVSPropertyOp19
 70
     1
102
RTVSPropertyOp20
 70
     1
102
RTVSPropertyOp21
 70
     1
102
RTVSPropertyOp22
 70
     1
102
RTVSPropertyOp23
 70
     1
102
RTVSPropertyOp24
 70
     1
102
RTVSPropertyOp25
 70
     1
102
RTVSPropertyOp26
 70
     1
102
RTVSPropertyOp27
 70
     1
102
RTVSPropertyOp28
 70
     1
102
RTVSPropertyOp29
 70
     1
102
RTVSPropertyOp30
 70
     1
102
RTVSPropertyOp31
 70
     1
102
RTVSPropertyOp32
 70
     1
  0
XRECORD
  5
25ED
102
{ACAD_REACTORS
330
25EC
102
}
330
25EC
100
AcDbXrecord
280
     1
102
RTVSPropertyOp0
 70
     1
102
RTVSPropertyOp1
 70
     1
102
RTVSPropertyOp2
 70
     1
102
RTVSPropertyOp3
 70
     1
102
RTVSPropertyOp4
 70
     1
102
RTVSPropertyOp5
 70
     1
102
RTVSPropertyOp6
 70
     1
102
RTVSPropertyOp7
 70
     1
102
RTVSPropertyOp8
 70
     1
102
RTVSPropertyOp9
 70
     1
102
RTVSPropertyOp10
 70
     1
102
RTVSPropertyOp11
 70
     1
102
RTVSPropertyOp12
 70
     1
102
RTVSPropertyOp13
 70
     1
102
RTVSPropertyOp14
 70
     1
102
RTVSPropertyOp15
 70
     1
102
RTVSPropertyOp16
 70
     1
102
RTVSPropertyOp17
 70
     1
102
RTVSPropertyOp18
 70
     1
102
RTVSPropertyOp19
 70
     1
102
RTVSPropertyOp20
 70
     1
102
RTVSPropertyOp21
 70
     1
102
RTVSPropertyOp22
 70
     1
102
RTVSPropertyOp23
 70
     1
102
RTVSPropertyOp24
 70
     1
102
RTVSPropertyOp25
 70
     1
102
RTVSPropertyOp26
 70
     1
102
RTVSPropertyOp27
 70
     1
102
RTVSPropertyOp28
 70
     1
102
RTVSPropertyOp29
 70
     1
102
RTVSPropertyOp30
 70
     1
102
RTVSPropertyOp31
 70
     1
102
RTVSPropertyOp32
 70
     1
  0
XRECORD
  5
25DF
102
{ACAD_REACTORS
330
25DE
102
}
330
25DE
100
AcDbXrecord
280
     1
102
RTVSPropertyOp0
 70
     1
102
RTVSPropertyOp1
 70
     1
102
RTVSPropertyOp2
 70
     1
102
RTVSPropertyOp3
 70
     1
102
RTVSPropertyOp4
 70
     1
102
RTVSPropertyOp5
 70
     1
102
RTVSPropertyOp6
 70
     1
102
RTVSPropertyOp7
 70
     1
102
RTVSPropertyOp8
 70
     1
102
RTVSPropertyOp9
 70
     1
102
RTVSPropertyOp10
 70
     1
102
RTVSPropertyOp11
 70
     1
102
RTVSPropertyOp12
 70
     1
102
RTVSPropertyOp13
 70
     1
102
RTVSPropertyOp14
 70
     1
102
RTVSPropertyOp15
 70
     1
102
RTVSPropertyOp16
 70
     1
102
RTVSPropertyOp17
 70
     1
102
RTVSPropertyOp18
 70
     1
102
RTVSPropertyOp19
 70
     1
102
RTVSPropertyOp20
 70
     1
102
RTVSPropertyOp21
 70
     1
102
RTVSPropertyOp22
 70
     1
102
RTVSPropertyOp23
 70
     1
102
RTVSPropertyOp24
 70
     1
102
RTVSPropertyOp25
 70
     1
102
RTVSPropertyOp26
 70
     1
102
RTVSPropertyOp27
 70
     1
102
RTVSPropertyOp28
 70
     1
102
RTVSPropertyOp29
 70
     1
102
RTVSPropertyOp30
 70
     1
102
RTVSPropertyOp31
 70
     1
102
RTVSPropertyOp32
 70
     1
  0
XRECORD
  5
25E3
102
{ACAD_REACTORS
330
25E2
102
}
330
25E2
100
AcDbXrecord
280
     1
102
RTVSPropertyOp0
 70
     1
102
RTVSPropertyOp1
 70
     1
102
RTVSPropertyOp2
 70
     1
102
RTVSPropertyOp3
 70
     1
102
RTVSPropertyOp4
 70
     1
102
RTVSPropertyOp5
 70
     1
102
RTVSPropertyOp6
 70
     1
102
RTVSPropertyOp7
 70
     1
102
RTVSPropertyOp8
 70
     1
102
RTVSPropertyOp9
 70
     1
102
RTVSPropertyOp10
 70
     1
102
RTVSPropertyOp11
 70
     1
102
RTVSPropertyOp12
 70
     1
102
RTVSPropertyOp13
 70
     1
102
RTVSPropertyOp14
 70
     1
102
RTVSPropertyOp15
 70
     1
102
RTVSPropertyOp16
 70
     1
102
RTVSPropertyOp17
 70
     1
102
RTVSPropertyOp18
 70
     1
102
RTVSPropertyOp19
 70
     1
102
RTVSPropertyOp20
 70
     1
102
RTVSPropertyOp21
 70
     1
102
RTVSPropertyOp22
 70
     1
102
RTVSPropertyOp23
 70
     1
102
RTVSPropertyOp24
 70
     1
102
RTVSPropertyOp25
 70
     1
102
RTVSPropertyOp26
 70
     1
102
RTVSPropertyOp27
 70
     1
102
RTVSPropertyOp28
 70
     1
102
RTVSPropertyOp29
 70
     1
102
RTVSPropertyOp30
 70
     1
102
RTVSPropertyOp31
 70
     1
102
RTVSPropertyOp32
 70
     1
  0
XRECORD
  5
25FD
102
{ACAD_REACTORS
330
25FC
102
}
330
25FC
100
AcDbXrecord
280
     1
102
RTVSPropertyOp0
 70
     0
102
RTVSPropertyOp1
 70
     0
102
RTVSPropertyOp2
 70
     0
102
RTVSPropertyOp3
 70
     0
102
RTVSPropertyOp4
 70
     0
102
RTVSPropertyOp5
 70
     0
102
RTVSPropertyOp6
 70
     0
102
RTVSPropertyOp7
 70
     0
102
RTVSPropertyOp8
 70
     0
102
RTVSPropertyOp9
 70
     0
102
RTVSPropertyOp10
 70
     0
102
RTVSPropertyOp11
 70
     0
102
RTVSPropertyOp12
 70
     0
102
RTVSPropertyOp13
 70
     0
102
RTVSPropertyOp14
 70
     2
102
RTVSPropertyOp15
 70
     0
102
RTVSPropertyOp16
 70
     0
102
RTVSPropertyOp17
 70
     0
102
RTVSPropertyOp18
 70
     0
102
RTVSPropertyOp19
 70
     0
102
RTVSPropertyOp20
 70
     0
102
RTVSPropertyOp21
 70
     0
102
RTVSPropertyOp22
 70
     0
102
RTVSPropertyOp23
 70
     0
102
RTVSPropertyOp24
 70
     0
102
RTVSPropertyOp25
 70
     0
102
RTVSPropertyOp26
 70
     0
102
RTVSPropertyOp27
 70
     0
102
RTVSPropertyOp28
 70
     1
102
RTVSPropertyOp29
 70
     1
102
RTVSPropertyOp30
 70
     1
102
RTVSPropertyOp31
 70
     1
102
RTVSPropertyOp32
 70
     1
  0
XRECORD
  5
25EB
102
{ACAD_REACTORS
330
25EA
102
}
330
25EA
100
AcDbXrecord
280
     1
102
RTVSPropertyOp0
 70
     1
102
RTVSPropertyOp1
 70
     1
102
RTVSPropertyOp2
 70
     1
102
RTVSPropertyOp3
 70
     1
102
RTVSPropertyOp4
 70
     1
102
RTVSPropertyOp5
 70
     1
102
RTVSPropertyOp6
 70
     1
102
RTVSPropertyOp7
 70
     1
102
RTVSPropertyOp8
 70
     1
102
RTVSPropertyOp9
 70
     1
102
RTVSPropertyOp10
 70
     1
102
RTVSPropertyOp11
 70
     1
102
RTVSPropertyOp12
 70
     1
102
RTVSPropertyOp13
 70
     1
102
RTVSPropertyOp14
 70
     1
102
RTVSPropertyOp15
 70
     1
102
RTVSPropertyOp16
 70
     1
102
RTVSPropertyOp17
 70
     1
102
RTVSPropertyOp18
 70
     1
102
RTVSPropertyOp19
 70
     1
102
RTVSPropertyOp20
 70
     1
102
RTVSPropertyOp21
 70
     1
102
RTVSPropertyOp22
 70
     1
102
RTVSPropertyOp23
 70
     1
102
RTVSPropertyOp24
 70
     1
102
RTVSPropertyOp25
 70
     1
102
RTVSPropertyOp26
 70
     1
102
RTVSPropertyOp27
 70
     1
102
RTVSPropertyOp28
 70
     1
102
RTVSPropertyOp29
 70
     1
102
RTVSPropertyOp30
 70
     1
102
RTVSPropertyOp31
 70
     1
102
RTVSPropertyOp32
 70
     1
  0
XRECORD
  5
25CF
102
{ACAD_REACTORS
330
25CE
102
}
330
25CE
100
AcDbXrecord
280
     1
102
RTVSPropertyOp0
 70
     1
102
RTVSPropertyOp1
 70
     1
102
RTVSPropertyOp2
 70
     1
102
RTVSPropertyOp3
 70
     1
102
RTVSPropertyOp4
 70
     1
102
RTVSPropertyOp5
 70
     1
102
RTVSPropertyOp6
 70
     1
102
RTVSPropertyOp7
 70
     1
102
RTVSPropertyOp8
 70
     1
102
RTVSPropertyOp9
 70
     1
102
RTVSPropertyOp10
 70
     1
102
RTVSPropertyOp11
 70
     1
102
RTVSPropertyOp12
 70
     1
102
RTVSPropertyOp13
 70
     1
102
RTVSPropertyOp14
 70
     1
102
RTVSPropertyOp15
 70
     1
102
RTVSPropertyOp16
 70
     1
102
RTVSPropertyOp17
 70
     1
102
RTVSPropertyOp18
 70
     1
102
RTVSPropertyOp19
 70
     1
102
RTVSPropertyOp20
 70
     1
102
RTVSPropertyOp21
 70
     1
102
RTVSPropertyOp22
 70
     1
102
RTVSPropertyOp23
 70
     1
102
RTVSPropertyOp24
 70
     1
102
RTVSPropertyOp25
 70
     1
102
RTVSPropertyOp26
 70
     1
102
RTVSPropertyOp27
 70
     1
102
RTVSPropertyOp28
 70
     1
102
RTVSPropertyOp29
 70
     1
102
RTVSPropertyOp30
 70
     1
102
RTVSPropertyOp31
 70
     1
102
RTVSPropertyOp32
 70
     1
  0
XRECORD
  5
25D1
102
{ACAD_REACTORS
330
25D0
102
}
330
25D0
100
AcDbXrecord
280
     1
102
RTVSPropertyOp0
 70
     1
102
RTVSPropertyOp1
 70
     1
102
RTVSPropertyOp2
 70
     1
102
RTVSPropertyOp3
 70
     1
102
RTVSPropertyOp4
 70
     1
102
RTVSPropertyOp5
 70
     1
102
RTVSPropertyOp6
 70
     1
102
RTVSPropertyOp7
 70
     1
102
RTVSPropertyOp8
 70
     1
102
RTVSPropertyOp9
 70
     1
102
RTVSPropertyOp10
 70
     1
102
RTVSPropertyOp11
 70
     1
102
RTVSPropertyOp12
 70
     1
102
RTVSPropertyOp13
 70
     1
102
RTVSPropertyOp14
 70
     1
102
RTVSPropertyOp15
 70
     1
102
RTVSPropertyOp16
 70
     1
102
RTVSPropertyOp17
 70
     1
102
RTVSPropertyOp18
 70
     1
102
RTVSPropertyOp19
 70
     1
102
RTVSPropertyOp20
 70
     1
102
RTVSPropertyOp21
 70
     1
102
RTVSPropertyOp22
 70
     1
102
RTVSPropertyOp23
 70
     1
102
RTVSPropertyOp24
 70
     1
102
RTVSPropertyOp25
 70
     1
102
RTVSPropertyOp26
 70
     1
102
RTVSPropertyOp27
 70
     1
102
RTVSPropertyOp28
 70
     1
102
RTVSPropertyOp29
 70
     1
102
RTVSPropertyOp30
 70
     1
102
RTVSPropertyOp31
 70
     1
102
RTVSPropertyOp32
 70
     1
  0
XRECORD
  5
25D3
102
{ACAD_REACTORS
330
25D2
102
}
330
25D2
100
AcDbXrecord
280
     1
102
RTVSPropertyOp0
 70
     1
102
RTVSPropertyOp1
 70
     1
102
RTVSPropertyOp2
 70
     1
102
RTVSPropertyOp3
 70
     1
102
RTVSPropertyOp4
 70
     1
102
RTVSPropertyOp5
 70
     1
102
RTVSPropertyOp6
 70
     1
102
RTVSPropertyOp7
 70
     1
102
RTVSPropertyOp8
 70
     1
102
RTVSPropertyOp9
 70
     1
102
RTVSPropertyOp10
 70
     1
102
RTVSPropertyOp11
 70
     1
102
RTVSPropertyOp12
 70
     1
102
RTVSPropertyOp13
 70
     1
102
RTVSPropertyOp14
 70
     1
102
RTVSPropertyOp15
 70
     1
102
RTVSPropertyOp16
 70
     1
102
RTVSPropertyOp17
 70
     1
102
RTVSPropertyOp18
 70
     1
102
RTVSPropertyOp19
 70
     1
102
RTVSPropertyOp20
 70
     1
102
RTVSPropertyOp21
 70
     1
102
RTVSPropertyOp22
 70
     1
102
RTVSPropertyOp23
 70
     1
102
RTVSPropertyOp24
 70
     1
102
RTVSPropertyOp25
 70
     1
102
RTVSPropertyOp26
 70
     1
102
RTVSPropertyOp27
 70
     1
102
RTVSPropertyOp28
 70
     1
102
RTVSPropertyOp29
 70
     1
102
RTVSPropertyOp30
 70
     1
102
RTVSPropertyOp31
 70
     1
102
RTVSPropertyOp32
 70
     1
  0
XRECORD
  5
25D5
102
{ACAD_REACTORS
330
25D4
102
}
330
25D4
100
AcDbXrecord
280
     1
102
RTVSPropertyOp0
 70
     1
102
RTVSPropertyOp1
 70
     1
102
RTVSPropertyOp2
 70
     1
102
RTVSPropertyOp3
 70
     1
102
RTVSPropertyOp4
 70
     1
102
RTVSPropertyOp5
 70
     1
102
RTVSPropertyOp6
 70
     1
102
RTVSPropertyOp7
 70
     1
102
RTVSPropertyOp8
 70
     1
102
RTVSPropertyOp9
 70
     1
102
RTVSPropertyOp10
 70
     1
102
RTVSPropertyOp11
 70
     1
102
RTVSPropertyOp12
 70
     1
102
RTVSPropertyOp13
 70
     1
102
RTVSPropertyOp14
 70
     1
102
RTVSPropertyOp15
 70
     1
102
RTVSPropertyOp16
 70
     1
102
RTVSPropertyOp17
 70
     1
102
RTVSPropertyOp18
 70
     1
102
RTVSPropertyOp19
 70
     1
102
RTVSPropertyOp20
 70
     1
102
RTVSPropertyOp21
 70
     1
102
RTVSPropertyOp22
 70
     1
102
RTVSPropertyOp23
 70
     1
102
RTVSPropertyOp24
 70
     1
102
RTVSPropertyOp25
 70
     1
102
RTVSPropertyOp26
 70
     1
102
RTVSPropertyOp27
 70
     1
102
RTVSPropertyOp28
 70
     1
102
RTVSPropertyOp29
 70
     1
102
RTVSPropertyOp30
 70
     1
102
RTVSPropertyOp31
 70
     1
102
RTVSPropertyOp32
 70
     1
  0
XRECORD
  5
25DD
102
{ACAD_REACTORS
330
25DC
102
}
330
25DC
100
AcDbXrecord
280
     1
102
RTVSPropertyOp0
 70
     1
102
RTVSPropertyOp1
 70
     1
102
RTVSPropertyOp2
 70
     1
102
RTVSPropertyOp3
 70
     1
102
RTVSPropertyOp4
 70
     1
102
RTVSPropertyOp5
 70
     1
102
RTVSPropertyOp6
 70
     1
102
RTVSPropertyOp7
 70
     1
102
RTVSPropertyOp8
 70
     1
102
RTVSPropertyOp9
 70
     1
102
RTVSPropertyOp10
 70
     1
102
RTVSPropertyOp11
 70
     1
102
RTVSPropertyOp12
 70
     1
102
RTVSPropertyOp13
 70
     1
102
RTVSPropertyOp14
 70
     1
102
RTVSPropertyOp15
 70
     1
102
RTVSPropertyOp16
 70
     1
102
RTVSPropertyOp17
 70
     1
102
RTVSPropertyOp18
 70
     1
102
RTVSPropertyOp19
 70
     1
102
RTVSPropertyOp20
 70
     1
102
RTVSPropertyOp21
 70
     1
102
RTVSPropertyOp22
 70
     1
102
RTVSPropertyOp23
 70
     1
102
RTVSPropertyOp24
 70
     1
102
RTVSPropertyOp25
 70
     1
102
RTVSPropertyOp26
 70
     1
102
RTVSPropertyOp27
 70
     1
102
RTVSPropertyOp28
 70
     1
102
RTVSPropertyOp29
 70
     1
102
RTVSPropertyOp30
 70
     1
102
RTVSPropertyOp31
 70
     1
102
RTVSPropertyOp32
 70
     1
  0
XRECORD
  5
25F9
102
{ACAD_REACTORS
330
25F8
102
}
330
25F8
100
AcDbXrecord
280
     1
102
RTVSPropertyOp0
 70
     0
102
RTVSPropertyOp1
 70
     0
102
RTVSPropertyOp2
 70
     0
102
RTVSPropertyOp3
 70
     0
102
RTVSPropertyOp4
 70
     0
102
RTVSPropertyOp5
 70
     0
102
RTVSPropertyOp6
 70
     0
102
RTVSPropertyOp7
 70
     0
102
RTVSPropertyOp8
 70
     0
102
RTVSPropertyOp9
 70
     0
102
RTVSPropertyOp10
 70
     0
102
RTVSPropertyOp11
 70
     0
102
RTVSPropertyOp12
 70
     0
102
RTVSPropertyOp13
 70
     0
102
RTVSPropertyOp14
 70
     2
102
RTVSPropertyOp15
 70
     0
102
RTVSPropertyOp16
 70
     0
102
RTVSPropertyOp17
 70
     0
102
RTVSPropertyOp18
 70
     0
102
RTVSPropertyOp19
 70
     0
102
RTVSPropertyOp20
 70
     0
102
RTVSPropertyOp21
 70
     0
102
RTVSPropertyOp22
 70
     0
102
RTVSPropertyOp23
 70
     0
102
RTVSPropertyOp24
 70
     0
102
RTVSPropertyOp25
 70
     0
102
RTVSPropertyOp26
 70
     0
102
RTVSPropertyOp27
 70
     0
102
RTVSPropertyOp28
 70
     1
102
RTVSPropertyOp29
 70
     1
102
RTVSPropertyOp30
 70
     1
102
RTVSPropertyOp31
 70
     1
102
RTVSPropertyOp32
 70
     1
  0
XRECORD
  5
25E9
102
{ACAD_REACTORS
330
25E8
102
}
330
25E8
100
AcDbXrecord
280
     1
102
RTVSPropertyOp0
 70
     1
102
RTVSPropertyOp1
 70
     1
102
RTVSPropertyOp2
 70
     1
102
RTVSPropertyOp3
 70
     1
102
RTVSPropertyOp4
 70
     1
102
RTVSPropertyOp5
 70
     1
102
RTVSPropertyOp6
 70
     1
102
RTVSPropertyOp7
 70
     1
102
RTVSPropertyOp8
 70
     1
102
RTVSPropertyOp9
 70
     1
102
RTVSPropertyOp10
 70
     1
102
RTVSPropertyOp11
 70
     1
102
RTVSPropertyOp12
 70
     1
102
RTVSPropertyOp13
 70
     1
102
RTVSPropertyOp14
 70
     1
102
RTVSPropertyOp15
 70
     1
102
RTVSPropertyOp16
 70
     1
102
RTVSPropertyOp17
 70
     1
102
RTVSPropertyOp18
 70
     1
102
RTVSPropertyOp19
 70
     1
102
RTVSPropertyOp20
 70
     1
102
RTVSPropertyOp21
 70
     1
102
RTVSPropertyOp22
 70
     1
102
RTVSPropertyOp23
 70
     1
102
RTVSPropertyOp24
 70
     1
102
RTVSPropertyOp25
 70
     1
102
RTVSPropertyOp26
 70
     1
102
RTVSPropertyOp27
 70
     1
102
RTVSPropertyOp28
 70
     1
102
RTVSPropertyOp29
 70
     1
102
RTVSPropertyOp30
 70
     1
102
RTVSPropertyOp31
 70
     1
102
RTVSPropertyOp32
 70
     1
  0
XRECORD
  5
25FB
102
{ACAD_REACTORS
330
25FA
102
}
330
25FA
100
AcDbXrecord
280
     1
102
RTVSPropertyOp0
 70
     0
102
RTVSPropertyOp1
 70
     0
102
RTVSPropertyOp2
 70
     0
102
RTVSPropertyOp3
 70
     0
102
RTVSPropertyOp4
 70
     0
102
RTVSPropertyOp5
 70
     0
102
RTVSPropertyOp6
 70
     0
102
RTVSPropertyOp7
 70
     0
102
RTVSPropertyOp8
 70
     0
102
RTVSPropertyOp9
 70
     0
102
RTVSPropertyOp10
 70
     0
102
RTVSPropertyOp11
 70
     0
102
RTVSPropertyOp12
 70
     0
102
RTVSPropertyOp13
 70
     0
102
RTVSPropertyOp14
 70
     2
102
RTVSPropertyOp15
 70
     0
102
RTVSPropertyOp16
 70
     0
102
RTVSPropertyOp17
 70
     0
102
RTVSPropertyOp18
 70
     0
102
RTVSPropertyOp19
 70
     0
102
RTVSPropertyOp20
 70
     0
102
RTVSPropertyOp21
 70
     0
102
RTVSPropertyOp22
 70
     0
102
RTVSPropertyOp23
 70
     0
102
RTVSPropertyOp24
 70
     0
102
RTVSPropertyOp25
 70
     0
102
RTVSPropertyOp26
 70
     0
102
RTVSPropertyOp27
 70
     0
102
RTVSPropertyOp28
 70
     1
102
RTVSPropertyOp29
 70
     1
102
RTVSPropertyOp30
 70
     1
102
RTVSPropertyOp31
 70
     1
102
RTVSPropertyOp32
 70
     1
  0
XRECORD
  5
25E1
102
{ACAD_REACTORS
330
25E0
102
}
330
25E0
100
AcDbXrecord
280
     1
102
RTVSPropertyOp0
 70
     1
102
RTVSPropertyOp1
 70
     1
102
RTVSPropertyOp2
 70
     1
102
RTVSPropertyOp3
 70
     1
102
RTVSPropertyOp4
 70
     1
102
RTVSPropertyOp5
 70
     1
102
RTVSPropertyOp6
 70
     1
102
RTVSPropertyOp7
 70
     1
102
RTVSPropertyOp8
 70
     1
102
RTVSPropertyOp9
 70
     1
102
RTVSPropertyOp10
 70
     1
102
RTVSPropertyOp11
 70
     1
102
RTVSPropertyOp12
 70
     1
102
RTVSPropertyOp13
 70
     1
102
RTVSPropertyOp14
 70
     1
102
RTVSPropertyOp15
 70
     1
102
RTVSPropertyOp16
 70
     1
102
RTVSPropertyOp17
 70
     1
102
RTVSPropertyOp18
 70
     1
102
RTVSPropertyOp19
 70
     1
102
RTVSPropertyOp20
 70
     1
102
RTVSPropertyOp21
 70
     1
102
RTVSPropertyOp22
 70
     1
102
RTVSPropertyOp23
 70
     1
102
RTVSPropertyOp24
 70
     1
102
RTVSPropertyOp25
 70
     1
102
RTVSPropertyOp26
 70
     1
102
RTVSPropertyOp27
 70
     1
102
RTVSPropertyOp28
 70
     1
102
RTVSPropertyOp29
 70
     1
102
RTVSPropertyOp30
 70
     1
102
RTVSPropertyOp31
 70
     1
102
RTVSPropertyOp32
 70
     1
  0
XRECORD
  5
25F7
102
{ACAD_REACTORS
330
25F6
102
}
330
25F6
100
AcDbXrecord
280
     1
102
RTVSPropertyOp0
 70
     1
102
RTVSPropertyOp1
 70
     1
102
RTVSPropertyOp2
 70
     1
102
RTVSPropertyOp3
 70
     1
102
RTVSPropertyOp4
 70
     1
102
RTVSPropertyOp5
 70
     1
102
RTVSPropertyOp6
 70
     1
102
RTVSPropertyOp7
 70
     1
102
RTVSPropertyOp8
 70
     1
102
RTVSPropertyOp9
 70
     1
102
RTVSPropertyOp10
 70
     1
102
RTVSPropertyOp11
 70
     1
102
RTVSPropertyOp12
 70
     1
102
RTVSPropertyOp13
 70
     1
102
RTVSPropertyOp14
 70
     1
102
RTVSPropertyOp15
 70
     1
102
RTVSPropertyOp16
 70
     1
102
RTVSPropertyOp17
 70
     1
102
RTVSPropertyOp18
 70
     1
102
RTVSPropertyOp19
 70
     1
102
RTVSPropertyOp20
 70
     1
102
RTVSPropertyOp21
 70
     1
102
RTVSPropertyOp22
 70
     1
102
RTVSPropertyOp23
 70
     1
102
RTVSPropertyOp24
 70
     1
102
RTVSPropertyOp25
 70
     1
102
RTVSPropertyOp26
 70
     1
102
RTVSPropertyOp27
 70
     1
102
RTVSPropertyOp28
 70
     1
102
RTVSPropertyOp29
 70
     1
102
RTVSPropertyOp30
 70
     1
102
RTVSPropertyOp31
 70
     1
102
RTVSPropertyOp32
 70
     1
  0
XRECORD
  5
25F5
102
{ACAD_REACTORS
330
25F4
102
}
330
25F4
100
AcDbXrecord
280
     1
102
RTVSPropertyOp0
 70
     1
102
RTVSPropertyOp1
 70
     1
102
RTVSPropertyOp2
 70
     1
102
RTVSPropertyOp3
 70
     1
102
RTVSPropertyOp4
 70
     1
102
RTVSPropertyOp5
 70
     1
102
RTVSPropertyOp6
 70
     1
102
RTVSPropertyOp7
 70
     1
102
RTVSPropertyOp8
 70
     1
102
RTVSPropertyOp9
 70
     1
102
RTVSPropertyOp10
 70
     1
102
RTVSPropertyOp11
 70
     1
102
RTVSPropertyOp12
 70
     1
102
RTVSPropertyOp13
 70
     1
102
RTVSPropertyOp14
 70
     1
102
RTVSPropertyOp15
 70
     1
102
RTVSPropertyOp16
 70
     1
102
RTVSPropertyOp17
 70
     1
102
RTVSPropertyOp18
 70
     1
102
RTVSPropertyOp19
 70
     1
102
RTVSPropertyOp20
 70
     1
102
RTVSPropertyOp21
 70
     1
102
RTVSPropertyOp22
 70
     1
102
RTVSPropertyOp23
 70
     1
102
RTVSPropertyOp24
 70
     1
102
RTVSPropertyOp25
 70
     1
102
RTVSPropertyOp26
 70
     1
102
RTVSPropertyOp27
 70
     1
102
RTVSPropertyOp28
 70
     1
102
RTVSPropertyOp29
 70
     1
102
RTVSPropertyOp30
 70
     1
102
RTVSPropertyOp31
 70
     1
102
RTVSPropertyOp32
 70
     1
  0
XRECORD
  5
25EF
102
{ACAD_REACTORS
330
25EE
102
}
330
25EE
100
AcDbXrecord
280
     1
102
RTVSPropertyOp0
 70
     1
102
RTVSPropertyOp1
 70
     1
102
RTVSPropertyOp2
 70
     1
102
RTVSPropertyOp3
 70
     1
102
RTVSPropertyOp4
 70
     1
102
RTVSPropertyOp5
 70
     1
102
RTVSPropertyOp6
 70
     1
102
RTVSPropertyOp7
 70
     1
102
RTVSPropertyOp8
 70
     1
102
RTVSPropertyOp9
 70
     1
102
RTVSPropertyOp10
 70
     1
102
RTVSPropertyOp11
 70
     1
102
RTVSPropertyOp12
 70
     1
102
RTVSPropertyOp13
 70
     1
102
RTVSPropertyOp14
 70
     1
102
RTVSPropertyOp15
 70
     1
102
RTVSPropertyOp16
 70
     1
102
RTVSPropertyOp17
 70
     1
102
RTVSPropertyOp18
 70
     1
102
RTVSPropertyOp19
 70
     1
102
RTVSPropertyOp20
 70
     1
102
RTVSPropertyOp21
 70
     1
102
RTVSPropertyOp22
 70
     1
102
RTVSPropertyOp23
 70
     1
102
RTVSPropertyOp24
 70
     1
102
RTVSPropertyOp25
 70
     1
102
RTVSPropertyOp26
 70
     1
102
RTVSPropertyOp27
 70
     1
102
RTVSPropertyOp28
 70
     1
102
RTVSPropertyOp29
 70
     1
102
RTVSPropertyOp30
 70
     1
102
RTVSPropertyOp31
 70
     1
102
RTVSPropertyOp32
 70
     1
  0
XRECORD
  5
25F1
102
{ACAD_REACTORS
330
25F0
102
}
330
25F0
100
AcDbXrecord
280
     1
102
RTVSPropertyOp0
 70
     1
102
RTVSPropertyOp1
 70
     1
102
RTVSPropertyOp2
 70
     1
102
RTVSPropertyOp3
 70
     1
102
RTVSPropertyOp4
 70
     1
102
RTVSPropertyOp5
 70
     1
102
RTVSPropertyOp6
 70
     1
102
RTVSPropertyOp7
 70
     1
102
RTVSPropertyOp8
 70
     1
102
RTVSPropertyOp9
 70
     1
102
RTVSPropertyOp10
 70
     1
102
RTVSPropertyOp11
 70
     1
102
RTVSPropertyOp12
 70
     1
102
RTVSPropertyOp13
 70
     1
102
RTVSPropertyOp14
 70
     1
102
RTVSPropertyOp15
 70
     1
102
RTVSPropertyOp16
 70
     1
102
RTVSPropertyOp17
 70
     1
102
RTVSPropertyOp18
 70
     1
102
RTVSPropertyOp19
 70
     1
102
RTVSPropertyOp20
 70
     1
102
RTVSPropertyOp21
 70
     1
102
RTVSPropertyOp22
 70
     1
102
RTVSPropertyOp23
 70
     1
102
RTVSPropertyOp24
 70
     1
102
RTVSPropertyOp25
 70
     1
102
RTVSPropertyOp26
 70
     1
102
RTVSPropertyOp27
 70
     1
102
RTVSPropertyOp28
 70
     1
102
RTVSPropertyOp29
 70
     1
102
RTVSPropertyOp30
 70
     1
102
RTVSPropertyOp31
 70
     1
102
RTVSPropertyOp32
 70
     1
  0
XRECORD
  5
25E7
102
{ACAD_REACTORS
330
25E6
102
}
330
25E6
100
AcDbXrecord
280
     1
102
RTVSPropertyOp0
 70
     1
102
RTVSPropertyOp1
 70
     1
102
RTVSPropertyOp2
 70
     1
102
RTVSPropertyOp3
 70
     1
102
RTVSPropertyOp4
 70
     1
102
RTVSPropertyOp5
 70
     1
102
RTVSPropertyOp6
 70
     1
102
RTVSPropertyOp7
 70
     1
102
RTVSPropertyOp8
 70
     1
102
RTVSPropertyOp9
 70
     1
102
RTVSPropertyOp10
 70
     1
102
RTVSPropertyOp11
 70
     1
102
RTVSPropertyOp12
 70
     1
102
RTVSPropertyOp13
 70
     1
102
RTVSPropertyOp14
 70
     1
102
RTVSPropertyOp15
 70
     1
102
RTVSPropertyOp16
 70
     1
102
RTVSPropertyOp17
 70
     1
102
RTVSPropertyOp18
 70
     1
102
RTVSPropertyOp19
 70
     1
102
RTVSPropertyOp20
 70
     1
102
RTVSPropertyOp21
 70
     1
102
RTVSPropertyOp22
 70
     1
102
RTVSPropertyOp23
 70
     1
102
RTVSPropertyOp24
 70
     1
102
RTVSPropertyOp25
 70
     1
102
RTVSPropertyOp26
 70
     1
102
RTVSPropertyOp27
 70
     1
102
RTVSPropertyOp28
 70
     1
102
RTVSPropertyOp29
 70
     1
102
RTVSPropertyOp30
 70
     1
102
RTVSPropertyOp31
 70
     1
102
RTVSPropertyOp32
 70
     1
  0
XRECORD
  5
25DB
102
{ACAD_REACTORS
330
25DA
102
}
330
25DA
100
AcDbXrecord
280
     1
102
RTVSPropertyOp0
 70
     1
102
RTVSPropertyOp1
 70
     1
102
RTVSPropertyOp2
 70
     1
102
RTVSPropertyOp3
 70
     1
102
RTVSPropertyOp4
 70
     1
102
RTVSPropertyOp5
 70
     1
102
RTVSPropertyOp6
 70
     1
102
RTVSPropertyOp7
 70
     1
102
RTVSPropertyOp8
 70
     1
102
RTVSPropertyOp9
 70
     1
102
RTVSPropertyOp10
 70
     1
102
RTVSPropertyOp11
 70
     1
102
RTVSPropertyOp12
 70
     1
102
RTVSPropertyOp13
 70
     1
102
RTVSPropertyOp14
 70
     1
102
RTVSPropertyOp15
 70
     1
102
RTVSPropertyOp16
 70
     1
102
RTVSPropertyOp17
 70
     1
102
RTVSPropertyOp18
 70
     1
102
RTVSPropertyOp19
 70
     1
102
RTVSPropertyOp20
 70
     1
102
RTVSPropertyOp21
 70
     1
102
RTVSPropertyOp22
 70
     1
102
RTVSPropertyOp23
 70
     1
102
RTVSPropertyOp24
 70
     1
102
RTVSPropertyOp25
 70
     1
102
RTVSPropertyOp26
 70
     1
102
RTVSPropertyOp27
 70
     1
102
RTVSPropertyOp28
 70
     1
102
RTVSPropertyOp29
 70
     1
102
RTVSPropertyOp30
 70
     1
102
RTVSPropertyOp31
 70
     1
102
RTVSPropertyOp32
 70
     1
  0
XRECORD
  5
25F3
102
{ACAD_REACTORS
330
25F2
102
}
330
25F2
100
AcDbXrecord
280
     1
102
RTVSPropertyOp0
 70
     1
102
RTVSPropertyOp1
 70
     1
102
RTVSPropertyOp2
 70
     1
102
RTVSPropertyOp3
 70
     1
102
RTVSPropertyOp4
 70
     1
102
RTVSPropertyOp5
 70
     1
102
RTVSPropertyOp6
 70
     1
102
RTVSPropertyOp7
 70
     1
102
RTVSPropertyOp8
 70
     1
102
RTVSPropertyOp9
 70
     1
102
RTVSPropertyOp10
 70
     1
102
RTVSPropertyOp11
 70
     1
102
RTVSPropertyOp12
 70
     1
102
RTVSPropertyOp13
 70
     1
102
RTVSPropertyOp14
 70
     1
102
RTVSPropertyOp15
 70
     1
102
RTVSPropertyOp16
 70
     1
102
RTVSPropertyOp17
 70
     1
102
RTVSPropertyOp18
 70
     1
102
RTVSPropertyOp19
 70
     1
102
RTVSPropertyOp20
 70
     1
102
RTVSPropertyOp21
 70
     1
102
RTVSPropertyOp22
 70
     1
102
RTVSPropertyOp23
 70
     1
102
RTVSPropertyOp24
 70
     1
102
RTVSPropertyOp25
 70
     1
102
RTVSPropertyOp26
 70
     1
102
RTVSPropertyOp27
 70
     1
102
RTVSPropertyOp28
 70
     1
102
RTVSPropertyOp29
 70
     1
102
RTVSPropertyOp30
 70
     1
102
RTVSPropertyOp31
 70
     1
102
RTVSPropertyOp32
 70
     1
  0
ENDSEC
  0
EOF
