  0
SECTION
  2
HEADER
  9
$ACADVER
  1
AC1015
  9
$ACADMAINTVER
 70
    20
  9
$DWGCODEPAGE
  3
ANSI_932
  9
$INSBASE
 10
0.0
 20
0.0
 30
0.0
  9
$EXTMIN
 10
6.986055456318581
 20
6.960938891117621
 30
-0.0000000000028965
  9
$EXTMAX
 10
804.6037769517907
 20
558.6242994375343
 30
0.0000000000000135
  9
$LIMMIN
 10
0.0
 20
0.0
  9
$LIMMAX
 10
851.0
 20
594.0
  9
$ORTHOMODE
 70
     0
  9
$REGENMODE
 70
     1
  9
$FILLMODE
 70
     1
  9
$QTEXTMODE
 70
     0
  9
$MIRRTEXT
 70
     1
  9
$LTSCALE
 40
1.0
  9
$ATTMODE
 70
     1
  9
$TEXTSIZE
 40
2.5
  9
$TRACEWID
 40
1.0
  9
$TEXTSTYLE
  7
MSPｺﾞｼｯｸ
  9
$CLAYER
  8
SUNPOU
  9
$CELTYPE
  6
BYLAYER
  9
$CECOLOR
 62
   256
  9
$CELTSCALE
 40
1.0
  9
$DISPSILH
 70
     0
  9
$DIMSCALE
 40
1.0
  9
$DIMASZ
 40
4.0
  9
$DIMEXO
 40
1.5
  9
$DIMDLI
 40
7.0
  9
$DIMRND
 40
0.0
  9
$DIMDLE
 40
0.0
  9
$DIMEXE
 40
1.5
  9
$DIMTP
 40
0.0
  9
$DIMTM
 40
0.0
  9
$DIMTXT
 40
5.0
  9
$DIMCEN
 40
0.0
  9
$DIMTSZ
 40
0.0
  9
$DIMTOL
 70
     0
  9
$DIMLIM
 70
     0
  9
$DIMTIH
 70
     0
  9
$DIMTOH
 70
     0
  9
$DIMSE1
 70
     0
  9
$DIMSE2
 70
     0
  9
$DIMTAD
 70
     3
  9
$DIMZIN
 70
     0
  9
$DIMBLK
  1
OPEN
  9
$DIMASO
 70
     1
  9
$DIMSHO
 70
     1
  9
$DIMPOST
  1

  9
$DIMAPOST
  1

  9
$DIMALT
 70
     0
  9
$DIMALTD
 70
     2
  9
$DIMALTF
 40
25.4
  9
$DIMLFAC
 40
1.0
  9
$DIMTOFL
 70
     0
  9
$DIMTVP
 40
0.0
  9
$DIMTIX
 70
     0
  9
$DIMSOXD
 70
     0
  9
$DIMSAH
 70
     0
  9
$DIMBLK1
  1

  9
$DIMBLK2
  1

  9
$DIMSTYLE
  2
STANDARD
  9
$DIMCLRD
 70
   256
  9
$DIMCLRE
 70
   256
  9
$DIMCLRT
 70
   256
  9
$DIMTFAC
 40
1.0
  9
$DIMGAP
 40
2.0
  9
$DIMJUST
 70
     0
  9
$DIMSD1
 70
     0
  9
$DIMSD2
 70
     0
  9
$DIMTOLJ
 70
     1
  9
$DIMTZIN
 70
     0
  9
$DIMALTZ
 70
     0
  9
$DIMALTTZ
 70
     0
  9
$DIMUPT
 70
     0
  9
$DIMDEC
 70
     0
  9
$DIMTDEC
 70
     0
  9
$DIMALTU
 70
     2
  9
$DIMALTTD
 70
     2
  9
$DIMTXSTY
  7
STANDARD
  9
$DIMAUNIT
 70
     0
  9
$DIMADEC
 70
     0
  9
$DIMALTRND
 40
0.0
  9
$DIMAZIN
 70
     0
  9
$DIMDSEP
 70
    46
  9
$DIMATFIT
 70
     3
  9
$DIMFRAC
 70
     0
  9
$DIMLDRBLK
  1
OPEN
  9
$DIMLUNIT
 70
     2
  9
$DIMLWD
 70
    -1
  9
$DIMLWE
 70
    -1
  9
$DIMTMOVE
 70
     0
  9
$LUNITS
 70
     2
  9
$LUPREC
 70
     4
  9
$SKETCHINC
 40
1.0
  9
$FILLETRAD
 40
10.0
  9
$AUNITS
 70
     0
  9
$AUPREC
 70
     0
  9
$MENU
  1
.
  9
$ELEVATION
 40
0.0
  9
$PELEVATION
 40
0.0
  9
$THICKNESS
 40
0.0
  9
$LIMCHECK
 70
     0
  9
$CHAMFERA
 40
10.0
  9
$CHAMFERB
 40
10.0
  9
$CHAMFERC
 40
20.0
  9
$CHAMFERD
 40
0.0
  9
$SKPOLY
 70
     0
  9
$TDCREATE
 40
2450994.350997107
  9
$TDUCREATE
 40
2450993.975997107
  9
$TDUPDATE
 40
2458964.350428415
  9
$TDUUPDATE
 40
2458963.975428415
  9
$TDINDWG
 40
0.2474154630
  9
$TDUSRTIMER
 40
0.2474154630
  9
$USRTIMER
 70
     1
  9
$ANGBASE
 50
0.0
  9
$ANGDIR
 70
     0
  9
$PDMODE
 70
     1
  9
$PDSIZE
 40
0.0
  9
$PLINEWID
 40
0.0
  9
$SPLFRAME
 70
     0
  9
$SPLINETYPE
 70
     6
  9
$SPLINESEGS
 70
     8
  9
$HANDSEED
  5
306E
  9
$SURFTAB1
 70
     6
  9
$SURFTAB2
 70
     6
  9
$SURFTYPE
 70
     6
  9
$SURFU
 70
     6
  9
$SURFV
 70
     6
  9
$UCSBASE
  2

  9
$UCSNAME
  2

  9
$UCSORG
 10
0.0
 20
0.0
 30
0.0
  9
$UCSXDIR
 10
1.0
 20
0.0
 30
0.0
  9
$UCSYDIR
 10
0.0
 20
1.0
 30
0.0
  9
$UCSORTHOREF
  2

  9
$UCSORTHOVIEW
 70
     0
  9
$UCSORGTOP
 10
0.0
 20
0.0
 30
0.0
  9
$UCSORGBOTTOM
 10
0.0
 20
0.0
 30
0.0
  9
$UCSORGLEFT
 10
0.0
 20
0.0
 30
0.0
  9
$UCSORGRIGHT
 10
0.0
 20
0.0
 30
0.0
  9
$UCSORGFRONT
 10
0.0
 20
0.0
 30
0.0
  9
$UCSORGBACK
 10
0.0
 20
0.0
 30
0.0
  9
$PUCSBASE
  2

  9
$PUCSNAME
  2

  9
$PUCSORG
 10
0.0
 20
0.0
 30
0.0
  9
$PUCSXDIR
 10
1.0
 20
0.0
 30
0.0
  9
$PUCSYDIR
 10
0.0
 20
1.0
 30
0.0
  9
$PUCSORTHOREF
  2

  9
$PUCSORTHOVIEW
 70
     0
  9
$PUCSORGTOP
 10
0.0
 20
0.0
 30
0.0
  9
$PUCSORGBOTTOM
 10
0.0
 20
0.0
 30
0.0
  9
$PUCSORGLEFT
 10
0.0
 20
0.0
 30
0.0
  9
$PUCSORGRIGHT
 10
0.0
 20
0.0
 30
0.0
  9
$PUCSORGFRONT
 10
0.0
 20
0.0
 30
0.0
  9
$PUCSORGBACK
 10
0.0
 20
0.0
 30
0.0
  9
$USERI1
 70
     0
  9
$USERI2
 70
     0
  9
$USERI3
 70
     0
  9
$USERI4
 70
     0
  9
$USERI5
 70
     0
  9
$USERR1
 40
0.0
  9
$USERR2
 40
0.0
  9
$USERR3
 40
0.0
  9
$USERR4
 40
0.0
  9
$USERR5
 40
0.0
  9
$WORLDVIEW
 70
     1
  9
$SHADEDGE
 70
     3
  9
$SHADEDIF
 70
    70
  9
$TILEMODE
 70
     1
  9
$MAXACTVP
 70
    16
  9
$PINSBASE
 10
0.0
 20
0.0
 30
0.0
  9
$PLIMCHECK
 70
     0
  9
$PEXTMIN
 10
-6.990199382751143
 20
-9.753495685594202
 30
0.0
  9
$PEXTMAX
 10
433.6784626967614
 20
304.074625045762
 30
0.0
  9
$PLIMMIN
 10
-14.60611000424963
 20
-17.36939434585625
  9
$PLIMMAX
 10
451.0421931554001
 20
311.8232575468051
  9
$UNITMODE
 70
     0
  9
$VISRETAIN
 70
     0
  9
$PLINEGEN
 70
     0
  9
$PSLTSCALE
 70
     1
  9
$TREEDEPTH
 70
  3020
  9
$CMLSTYLE
  2
STANDARD
  9
$CMLJUST
 70
     0
  9
$CMLSCALE
 40
1.0
  9
$PROXYGRAPHICS
 70
     1
  9
$MEASUREMENT
 70
     1
  9
$CELWEIGHT
370
    -1
  9
$ENDCAPS
280
     0
  9
$JOINSTYLE
280
     0
  9
$LWDISPLAY
290
     0
  9
$INSUNITS
 70
     0
  9
$HYPERLINKBASE
  1

  9
$STYLESHEET
  1
monochrome.ctb
  9
$XEDIT
290
     1
  9
$CEPSNTYPE
380
     0
  9
$PSTYLEMODE
290
     1
  9
$FINGERPRINTGUID
  2
{D5C42BA0-D3BA-11D7-B8F8-000039219C21}
  9
$VERSIONGUID
  2
{B9D5107F-4506-4EE3-90C8-7E36A64A6047}
  9
$EXTNAMES
290
     1
  9
$PSVPSCALE
 40
0.0
  9
$OLESTARTUP
290
     0
  0
ENDSEC
  0
SECTION
  2
CLASSES
  0
CLASS
  1
ACDBDICTIONARYWDFLT
  2
AcDbDictionaryWithDefault
  3
ObjectDBX Classes
 90
        0
280
     0
281
     0
  0
CLASS
  1
ACDBPLACEHOLDER
  2
AcDbPlaceHolder
  3
ObjectDBX Classes
 90
        0
280
     0
281
     0
  0
CLASS
  1
LAYOUT
  2
AcDbLayout
  3
ObjectDBX Classes
 90
        0
280
     0
281
     0
  0
CLASS
  1
DICTIONARYVAR
  2
AcDbDictionaryVar
  3
ObjectDBX Classes
 90
        0
280
     0
281
     0
  0
CLASS
  1
MATERIAL
  2
AcDbMaterial
  3
ObjectDBX Classes
 90
     1153
280
     0
281
     0
  0
CLASS
  1
VISUALSTYLE
  2
AcDbVisualStyle
  3
ObjectDBX Classes
 90
     4095
280
     0
281
     0
  0
CLASS
  1
TABLESTYLE
  2
AcDbTableStyle
  3
ObjectDBX Classes
 90
     4095
280
     0
281
     0
  0
CLASS
  1
SCALE
  2
AcDbScale
  3
ObjectDBX Classes
 90
     1153
280
     0
281
     0
  0
CLASS
  1
MLEADERSTYLE
  2
AcDbMLeaderStyle
  3
ACDB_MLEADERSTYLE_CLASS
 90
     4095
280
     0
281
     0
  0
CLASS
  1
CELLSTYLEMAP
  2
AcDbCellStyleMap
  3
ObjectDBX Classes
 90
     1152
280
     0
281
     0
  0
ENDSEC
  0
SECTION
  2
TABLES
  0
TABLE
  2
VPORT
  5
8
330
0
100
AcDbSymbolTable
 70
     1
  0
VPORT
  5
2FB1
330
8
100
AcDbSymbolTableRecord
100
AcDbViewportTableRecord
  2
*Active
 70
     0
 10
0.0
 20
0.0
 11
1.0
 21
1.0
 12
581.0728622813205
 22
393.1772518237749
 13
0.0
 23
0.0
 14
5.0
 24
5.0
 15
0.0
 25
0.0
 16
0.0
 26
0.0
 36
1.0
 17
0.0
 27
0.0
 37
0.0
 40
1213.682217146632
 41
1.578708946772366
 42
50.0
 43
0.0
 44
0.0
 50
0.0
 51
0.0
 71
     0
 72
   100
 73
     1
 74
     0
 75
     0
 76
     0
 77
     0
 78
     0
281
     0
 65
     1
110
0.0
120
0.0
130
0.0
111
1.0
121
0.0
131
0.0
112
0.0
122
1.0
132
0.0
 79
     0
146
0.0
  0
ENDTAB
  0
TABLE
  2
LTYPE
  5
5
330
0
100
AcDbSymbolTable
 70
     3
  0
LTYPE
  5
14
330
5
100
AcDbSymbolTableRecord
100
AcDbLinetypeTableRecord
  2
BYBLOCK
 70
     0
  3

 72
    65
 73
     0
 40
0.0
  0
LTYPE
  5
15
330
5
100
AcDbSymbolTableRecord
100
AcDbLinetypeTableRecord
  2
BYLAYER
 70
     0
  3

 72
    65
 73
     0
 40
0.0
  0
LTYPE
  5
16
330
5
100
AcDbSymbolTableRecord
100
AcDbLinetypeTableRecord
  2
CONTINUOUS
 70
     0
  3
Solid line
 72
    65
 73
     0
 40
0.0
  0
LTYPE
  5
120
330
5
100
AcDbSymbolTableRecord
100
AcDbLinetypeTableRecord
  2
CENTER
 70
     0
  3
____ _ ____ _ ____ _ ____ _ ____ _ ____ _ ____ 
 72
    65
 73
     4
 40
2.0
 49
1.25
 74
     0
 49
-0.25
 74
     0
 49
0.25
 74
     0
 49
-0.25
 74
     0
  0
LTYPE
  5
2670
330
5
100
AcDbSymbolTableRecord
100
AcDbLinetypeTableRecord
  2
CENTERX2
 70
     0
  3
Center (2x) ________  __  ________  __  _____
 72
    65
 73
     4
 40
101.6
 49
63.5
 74
     0
 49
-12.7
 74
     0
 49
12.7
 74
     0
 49
-12.7
 74
     0
  0
ENDTAB
  0
TABLE
  2
LAYER
  5
2
102
{ACAD_XDICTIONARY
360
288D
102
}
330
0
100
AcDbSymbolTable
 70
    11
  0
LAYER
  5
F
102
{ACAD_XDICTIONARY
360
300B
102
}
330
2
100
AcDbSymbolTableRecord
100
AcDbLayerTableRecord
  2
0
 70
     0
 62
     7
  6
CONTINUOUS
370
    -3
390
159
  0
LAYER
  5
62
102
{ACAD_XDICTIONARY
360
300D
102
}
330
2
100
AcDbSymbolTableRecord
100
AcDbLayerTableRecord
  2
VIEWPORT
 70
     5
 62
     7
  6
CONTINUOUS
370
    -3
390
159
  0
LAYER
  5
16E
330
2
100
AcDbSymbolTableRecord
100
AcDbLayerTableRecord
  2
Defpoints
 70
     0
 62
     7
  6
CONTINUOUS
290
     0
370
    -3
390
159
  0
LAYER
  5
180
102
{ACAD_XDICTIONARY
360
300F
102
}
330
2
100
AcDbSymbolTableRecord
100
AcDbLayerTableRecord
  2
ZUWAKU
 70
     0
 62
     7
  6
CONTINUOUS
370
    -3
390
159
  0
LAYER
  5
181
102
{ACAD_XDICTIONARY
360
3011
102
}
330
2
100
AcDbSymbolTableRecord
100
AcDbLayerTableRecord
  2
MOJI
 70
     0
 62
     2
  6
CONTINUOUS
370
    -3
390
159
  0
LAYER
  5
4FD
102
{ACAD_XDICTIONARY
360
3013
102
}
330
2
100
AcDbSymbolTableRecord
100
AcDbLayerTableRecord
  2
SEIHIN
 70
     0
 62
     3
  6
CONTINUOUS
370
    -3
390
159
  0
LAYER
  5
4FE
102
{ACAD_XDICTIONARY
360
3015
102
}
330
2
100
AcDbSymbolTableRecord
100
AcDbLayerTableRecord
  2
SUNPOU
 70
     0
 62
     4
  6
CONTINUOUS
370
    -3
390
159
  0
LAYER
  5
4FF
102
{ACAD_XDICTIONARY
360
3017
102
}
330
2
100
AcDbSymbolTableRecord
100
AcDbLayerTableRecord
  2
CENTER L
 70
     0
 62
     1
  6
CENTER
370
    -3
390
159
  0
LAYER
  5
95E
102
{ACAD_XDICTIONARY
360
3019
102
}
330
2
100
AcDbSymbolTableRecord
100
AcDbLayerTableRecord
  2
ﾊｯﾁﾝｸﾞ
 70
     0
 62
     7
  6
CONTINUOUS
370
    -3
390
159
  0
LAYER
  5
1D20
102
{ACAD_XDICTIONARY
360
301B
102
}
330
2
100
AcDbSymbolTableRecord
100
AcDbLayerTableRecord
  2
図枠
 70
     0
 62
     7
  6
CONTINUOUS
370
    -3
390
159
  0
LAYER
  5
1D21
102
{ACAD_XDICTIONARY
360
301D
102
}
330
2
100
AcDbSymbolTableRecord
100
AcDbLayerTableRecord
  2
寸法
 70
     0
 62
     4
  6
CONTINUOUS
370
    -3
390
159
  0
ENDTAB
  0
TABLE
  2
STYLE
  5
3
330
0
100
AcDbSymbolTable
 70
     9
  0
STYLE
  5
10
330
3
100
AcDbSymbolTableRecord
100
AcDbTextStyleTableRecord
  2
STANDARD
 70
     0
 40
0.0
 41
1.0
 50
0.0
 71
     0
 42
2.5
  3
TXT
  4
bigfont.shx
  0
STYLE
  5
182
330
3
100
AcDbSymbolTableRecord
100
AcDbTextStyleTableRecord
  2
MSPｺﾞｼｯｸ
 70
     0
 40
0.0
 41
1.0
 50
0.0
 71
     0
 42
2.5
  3

  4

1001
ACAD
1000
MS PGothic
1071
    32818
  0
STYLE
  5
1D22
330
3
100
AcDbSymbolTableRecord
100
AcDbTextStyleTableRecord
  2
kanji
 70
     0
 40
0.0
 41
1.0
 50
0.0
 71
     0
 42
2.5
  3
TXT.shx
  4
bigfont.shx
  0
STYLE
  5
1D23
330
3
100
AcDbSymbolTableRecord
100
AcDbTextStyleTableRecord
  2
SLDTEXTSTYLE0
 70
     0
 40
0.0
 41
0.75
 50
0.0
 71
     0
 42
0.2
  3
TXT
  4
bigfont
  0
STYLE
  5
1D24
330
3
100
AcDbSymbolTableRecord
100
AcDbTextStyleTableRecord
  2
SLDTEXTSTYLE1
 70
     0
 40
0.0
 41
0.7
 50
0.0
 71
     0
 42
0.2
  3
TXT
  4
bigfont
  0
STYLE
  5
1D25
330
3
100
AcDbSymbolTableRecord
100
AcDbTextStyleTableRecord
  2
SLDTEXTSTYLE2
 70
     0
 40
0.0
 41
0.62
 50
0.0
 71
     0
 42
0.2
  3
TXT
  4
bigfont
  0
STYLE
  5
266F
330
3
100
AcDbSymbolTableRecord
100
AcDbTextStyleTableRecord
  2

 70
     1
 40
0.0
 41
1.0
 50
0.0
 71
     0
 42
2.5
  3
ltypeshp.shx
  4

  0
STYLE
  5
288B
330
3
100
AcDbSymbolTableRecord
100
AcDbTextStyleTableRecord
  2
ｽﾀｲﾙ1
 70
     0
 40
0.0
 41
1.0
 50
0.0
 71
     0
 42
2.5
  3

  4

1001
ACAD
1000
MS PGothic
1071
    32818
  0
ENDTAB
  0
TABLE
  2
VIEW
  5
6
330
0
100
AcDbSymbolTable
 70
     0
  0
ENDTAB
  0
TABLE
  2
UCS
  5
7
330
0
100
AcDbSymbolTable
 70
     0
  0
ENDTAB
  0
TABLE
  2
APPID
  5
9
330
0
100
AcDbSymbolTable
 70
     2
  0
APPID
  5
11
330
9
100
AcDbSymbolTableRecord
100
AcDbRegAppTableRecord
  2
ACAD
 70
     0
  0
APPID
  5
306D
330
9
100
AcDbSymbolTableRecord
100
AcDbRegAppTableRecord
  2
ACAD_MLEADERVER
 70
     0
  0
ENDTAB
  0
TABLE
  2
DIMSTYLE
  5
A
330
0
100
AcDbSymbolTable
 70
     3
100
AcDbDimStyleTable
 71
     1
340
1D
  0
DIMSTYLE
105
1D
102
{ACAD_REACTORS
330
23DC
330
24EC
330
2533
330
256D
330
257A
330
25BB
330
25E3
330
2631
102
}
330
A
100
AcDbSymbolTableRecord
100
AcDbDimStyleTableRecord
  2
STANDARD
 70
     0
 41
4.0
 42
1.5
 43
7.0
 44
1.5
 73
     0
 74
     0
 77
     3
140
5.0
141
0.0
147
2.0
176
   256
177
   256
178
   256
271
     0
272
     0
340
10
341
B2
342
B2
371
    -1
372
    -1
  0
DIMSTYLE
105
288C
330
A
100
AcDbSymbolTableRecord
100
AcDbDimStyleTableRecord
  2
ISO-25
 70
     0
 41
2.5
 42
0.625
 43
3.75
 44
1.25
 73
     0
 74
     0
 77
     1
 78
     8
140
2.5
141
2.5
143
0.03937007874016
147
0.625
171
     3
172
     1
271
     2
272
     2
274
     3
278
    44
283
     0
284
     8
340
10
  0
ENDTAB
  0
TABLE
  2
BLOCK_RECORD
  5
1
330
0
100
AcDbSymbolTable
 70
    13
  0
BLOCK_RECORD
  5
1A
102
{ACAD_XDICTIONARY
360
A89
102
}
330
1
100
AcDbSymbolTableRecord
100
AcDbBlockTableRecord
  2
*MODEL_SPACE
340
15C
  0
BLOCK_RECORD
  5
17
102
{ACAD_XDICTIONARY
360
A87
102
}
330
1
100
AcDbSymbolTableRecord
100
AcDbBlockTableRecord
  2
*PAPER_SPACE
340
15D
  0
BLOCK_RECORD
  5
B2
330
1
100
AcDbSymbolTableRecord
100
AcDbBlockTableRecord
  2
_OPEN
340
0
102
{BLKREFS
331
2F17
331
2F18
331
2F20
331
2F21
331
2F29
331
2F2A
331
2F32
331
2F33
331
2F3B
331
2F3C
331
2F44
331
2F45
331
2F4D
331
2F4E
331
2F56
331
2F57
102
}
  0
BLOCK_RECORD
  5
311
330
1
100
AcDbSymbolTableRecord
100
AcDbBlockTableRecord
  2
*X1
340
0
102
{BLKREFS
331
6B3
102
}
  0
BLOCK_RECORD
  5
1D13
330
1
100
AcDbSymbolTableRecord
100
AcDbBlockTableRecord
  2
_Open30
340
0
  0
BLOCK_RECORD
  5
1D19
330
1
100
AcDbSymbolTableRecord
100
AcDbBlockTableRecord
  2
SW_NOTE_1
340
0
  0
BLOCK_RECORD
  5
23DD
330
1
100
AcDbSymbolTableRecord
100
AcDbBlockTableRecord
  2
*D4
340
0
  0
BLOCK_RECORD
  5
24ED
330
1
100
AcDbSymbolTableRecord
100
AcDbBlockTableRecord
  2
*D5
340
0
  0
BLOCK_RECORD
  5
2534
330
1
100
AcDbSymbolTableRecord
100
AcDbBlockTableRecord
  2
*D6
340
0
  0
BLOCK_RECORD
  5
256E
330
1
100
AcDbSymbolTableRecord
100
AcDbBlockTableRecord
  2
*D7
340
0
  0
BLOCK_RECORD
  5
257B
330
1
100
AcDbSymbolTableRecord
100
AcDbBlockTableRecord
  2
*D8
340
0
  0
BLOCK_RECORD
  5
25BC
330
1
100
AcDbSymbolTableRecord
100
AcDbBlockTableRecord
  2
*D9
340
0
  0
BLOCK_RECORD
  5
25E4
330
1
100
AcDbSymbolTableRecord
100
AcDbBlockTableRecord
  2
*D10
340
0
  0
BLOCK_RECORD
  5
2632
330
1
100
AcDbSymbolTableRecord
100
AcDbBlockTableRecord
  2
*D11
340
0
  0
ENDTAB
  0
ENDSEC
  0
SECTION
  2
BLOCKS
  0
BLOCK
  5
1B
330
1A
100
AcDbEntity
  8
0
100
AcDbBlockBegin
  2
*MODEL_SPACE
 70
     0
 10
0.0
 20
0.0
 30
0.0
  3
*MODEL_SPACE
  1

  0
ENDBLK
  5
1C
330
1A
100
AcDbEntity
  8
0
100
AcDbBlockEnd
  0
BLOCK
  5
18
330
17
100
AcDbEntity
 67
     1
  8
0
100
AcDbBlockBegin
  2
*PAPER_SPACE
 70
     0
 10
0.0
 20
0.0
 30
0.0
  3
*PAPER_SPACE
  1

  0
ENDBLK
  5
19
330
17
100
AcDbEntity
 67
     1
  8
0
100
AcDbBlockEnd
  0
BLOCK
  5
B3
330
B2
100
AcDbEntity
  8
0
100
AcDbBlockBegin
  2
_OPEN
 70
     0
 10
0.0
 20
0.0
 30
0.0
  3
_OPEN
  1

  0
LINE
  5
B4
330
B2
100
AcDbEntity
  8
0
  6
ByBlock
 62
     0
100
AcDbLine
 10
-1.0
 20
0.1666666666666666
 30
0.0
 11
0.0
 21
0.0
 31
0.0
  0
LINE
  5
B5
330
B2
100
AcDbEntity
  8
0
  6
ByBlock
 62
     0
100
AcDbLine
 10
0.0
 20
0.0
 30
0.0
 11
-1.0
 21
-0.1666666666666666
 31
0.0
  0
LINE
  5
B6
330
B2
100
AcDbEntity
  8
0
  6
ByBlock
 62
     0
100
AcDbLine
 10
0.0
 20
0.0
 30
0.0
 11
-1.0
 21
0.0
 31
0.0
  0
ENDBLK
  5
B7
330
B2
100
AcDbEntity
  8
0
100
AcDbBlockEnd
  0
BLOCK
  5
4A5
330
311
100
AcDbEntity
  8
0
100
AcDbBlockBegin
  2
*X1
 70
     1
 10
0.0
 20
0.0
 30
0.0
  3
*X1
  1

  0
LINE
  5
312
330
311
100
AcDbEntity
  8
0
 62
     0
100
AcDbLine
 10
79.04221142834842
 20
32.60416930422588
 30
0.0
 11
78.3963804986335
 21
33.25000023394085
 31
0.0
  0
LINE
  5
313
330
311
100
AcDbEntity
  8
0
 62
     0
100
AcDbLine
 10
79.04221142834842
 20
31.70614369211899
 30
0.0
 11
77.49835488652656
 21
33.25000023394085
 31
0.0
  0
LINE
  5
314
330
311
100
AcDbEntity
  8
0
 62
     0
100
AcDbLine
 10
79.04221142834837
 20
30.80811808001204
 30
0.0
 11
76.62107748233342
 21
33.22925202602699
 31
0.0
  0
LINE
  5
315
330
311
100
AcDbEntity
  8
0
 62
     0
100
AcDbLine
 10
79.04221142834842
 20
29.9100924679052
 30
0.0
 11
76.24221142834835
 21
32.71009246790522
 31
0.0
  0
LINE
  5
316
330
311
100
AcDbEntity
  8
0
 62
     0
100
AcDbLine
 10
79.04221142834842
 20
29.01206685579825
 30
0.0
 11
76.24221142834835
 21
31.81206685579832
 31
0.0
  0
LINE
  5
317
330
311
100
AcDbEntity
  8
0
 62
     0
100
AcDbLine
 10
79.04221142834837
 20
28.11404124369131
 30
0.0
 11
76.2422114283483
 21
30.91404124369137
 31
0.0
  0
LINE
  5
318
330
311
100
AcDbEntity
  8
0
 62
     0
100
AcDbLine
 10
74.14221142834833
 20
32.1160156315845
 30
0.0
 11
73.00822682599203
 21
33.25000023394085
 31
0.0
  0
LINE
  5
319
330
311
100
AcDbEntity
  8
0
 62
     0
100
AcDbLine
 10
79.04221142834842
 20
27.21601563158447
 30
0.0
 11
76.24221142834835
 21
30.01601563158454
 31
0.0
  0
LINE
  5
31A
330
311
100
AcDbEntity
  8
0
 62
     0
100
AcDbLine
 10
74.14221142834833
 20
31.21799001947761
 30
0.0
 11
72.11020121388509
 21
33.2500002339408
 31
0.0
  0
LINE
  5
31B
330
311
100
AcDbEntity
  8
0
 62
     0
100
AcDbLine
 10
79.04221142834837
 20
26.31799001947752
 30
0.0
 11
76.24221142834835
 21
29.11799001947759
 31
0.0
  0
LINE
  5
31C
330
311
100
AcDbEntity
  8
0
 62
     0
100
AcDbLine
 10
74.14221142834833
 20
30.31996440737066
 30
0.0
 11
71.43670046321125
 21
33.02547537250774
 31
0.0
  0
LINE
  5
31D
330
311
100
AcDbEntity
  8
0
 62
     0
100
AcDbLine
 10
79.04221142834837
 20
25.41996440737063
 30
0.0
 11
76.2422114283483
 21
28.21996440737064
 31
0.0
  0
LINE
  5
31E
330
311
100
AcDbEntity
  8
0
 62
     0
100
AcDbLine
 10
74.14221142834844
 20
29.42193879526366
 30
0.0
 11
71.34221142834826
 21
32.22193879526378
 31
0.0
  0
LINE
  5
31F
330
311
100
AcDbEntity
  8
0
 62
     0
100
AcDbLine
 10
79.04221142834842
 20
24.52193879526368
 30
0.0
 11
76.24221142834835
 21
27.32193879526375
 31
0.0
  0
LINE
  5
320
330
311
100
AcDbEntity
  8
0
 62
     0
100
AcDbLine
 10
74.14221142834839
 20
28.52391318315677
 30
0.0
 11
71.34221142834826
 21
31.32391318315695
 31
0.0
  0
LINE
  5
321
330
311
100
AcDbEntity
  8
0
 62
     0
100
AcDbLine
 10
79.04221142834837
 20
23.62391318315679
 30
0.0
 11
76.2422114283483
 21
26.42391318315686
 31
0.0
  0
LINE
  5
322
330
311
100
AcDbEntity
  8
0
 62
     0
100
AcDbLine
 10
74.14221142834839
 20
27.62588757104988
 30
0.0
 11
71.34221142834826
 21
30.42588757105
 31
0.0
  0
LINE
  5
323
330
311
100
AcDbEntity
  8
0
 62
     0
100
AcDbLine
 10
79.04221142834837
 20
22.7258875710499
 30
0.0
 11
76.2422114283483
 21
25.52588757104996
 31
0.0
  0
LINE
  5
324
330
311
100
AcDbEntity
  8
0
 62
     0
100
AcDbLine
 10
74.14221142834833
 20
26.72786195894293
 30
0.0
 11
71.34221142834821
 21
29.52786195894305
 31
0.0
  0
LINE
  5
325
330
311
100
AcDbEntity
  8
0
 62
     0
100
AcDbLine
 10
79.04221142834831
 20
21.82786195894295
 30
0.0
 11
76.2422114283483
 21
24.62786195894302
 31
0.0
  0
LINE
  5
326
330
311
100
AcDbEntity
  8
0
 62
     0
100
AcDbLine
 10
74.14221142834839
 20
25.82983634683609
 30
0.0
 11
71.34221142834826
 21
28.62983634683621
 31
0.0
  0
LINE
  5
327
330
311
100
AcDbEntity
  8
0
 62
     0
100
AcDbLine
 10
67.84221142834832
 20
32.12983634683616
 30
0.0
 11
66.72204754124368
 21
33.2500002339408
 31
0.0
  0
LINE
  5
328
330
311
100
AcDbEntity
  8
0
 62
     0
100
AcDbLine
 10
79.04221142834837
 20
20.92983634683611
 30
0.0
 11
76.2422114283483
 21
23.72983634683612
 31
0.0
  0
LINE
  5
329
330
311
100
AcDbEntity
  8
0
 62
     0
100
AcDbLine
 10
74.14221142834839
 20
24.93181073472914
 30
0.0
 11
71.34221142834821
 21
27.73181073472926
 31
0.0
  0
LINE
  5
32A
330
311
100
AcDbEntity
  8
0
 62
     0
100
AcDbLine
 10
67.84221142834827
 20
31.23181073472921
 30
0.0
 11
65.82402192913673
 21
33.2500002339408
 31
0.0
  0
LINE
  5
32B
330
311
100
AcDbEntity
  8
0
 62
     0
100
AcDbLine
 10
79.04221142834837
 20
20.03181073472916
 30
0.0
 11
76.2422114283483
 21
22.83181073472923
 31
0.0
  0
LINE
  5
32C
330
311
100
AcDbEntity
  8
0
 62
     0
100
AcDbLine
 10
74.14221142834833
 20
24.03378512262225
 30
0.0
 11
71.34221142834826
 21
26.83378512262226
 31
0.0
  0
LINE
  5
32D
330
311
100
AcDbEntity
  8
0
 62
     0
100
AcDbLine
 10
67.84221142834827
 20
30.33378512262232
 30
0.0
 11
65.14244870502427
 21
33.03354784594632
 31
0.0
  0
LINE
  5
32E
330
311
100
AcDbEntity
  8
0
 62
     0
100
AcDbLine
 10
79.04221142834831
 20
19.13378512262227
 30
0.0
 11
76.24221142834824
 21
21.93378512262228
 31
0.0
  0
LINE
  5
32F
330
311
100
AcDbEntity
  8
0
 62
     0
100
AcDbLine
 10
74.14221142834839
 20
23.1357595105153
 30
0.0
 11
71.34221142834832
 21
25.93575951051537
 31
0.0
  0
LINE
  5
330
330
311
100
AcDbEntity
  8
0
 62
     0
100
AcDbLine
 10
67.84221142834832
 20
29.43575951051537
 30
0.0
 11
65.04221142834831
 21
32.23575951051538
 31
0.0
  0
LINE
  5
331
330
311
100
AcDbEntity
  8
0
 62
     0
100
AcDbLine
 10
79.04221142834837
 20
18.23575951051532
 30
0.0
 11
76.2422114283483
 21
21.03575951051539
 31
0.0
  0
LINE
  5
332
330
311
100
AcDbEntity
  8
0
 62
     0
100
AcDbLine
 10
74.14221142834833
 20
22.23773389840841
 30
0.0
 11
71.34221142834832
 21
25.03773389840848
 31
0.0
  0
LINE
  5
333
330
311
100
AcDbEntity
  8
0
 62
     0
100
AcDbLine
 10
67.84221142834837
 20
28.53773389840842
 30
0.0
 11
65.04221142834831
 21
31.33773389840849
 31
0.0
  0
LINE
  5
334
330
311
100
AcDbEntity
  8
0
 62
     0
100
AcDbLine
 10
78.97024607345855
 20
17.40969925329824
 30
0.0
 11
76.2422114283483
 21
20.1377338984085
 31
0.0
  0
LINE
  5
335
330
311
100
AcDbEntity
  8
0
 62
     0
100
AcDbLine
 10
74.14221142834839
 20
21.3397082863014
 30
0.0
 11
71.34221142834826
 21
24.13970828630153
 31
0.0
  0
LINE
  5
336
330
311
100
AcDbEntity
  8
0
 62
     0
100
AcDbLine
 10
67.84221142834832
 20
27.63970828630153
 30
0.0
 11
65.04221142834825
 21
30.43970828630154
 31
0.0
  0
LINE
  5
337
330
311
100
AcDbEntity
  8
0
 62
     0
100
AcDbLine
 10
78.33191948070908
 20
17.15000023394077
 30
0.0
 11
76.24221142834824
 21
19.2397082863016
 31
0.0
  0
LINE
  5
338
330
311
100
AcDbEntity
  8
0
 62
     0
100
AcDbLine
 10
67.84221142834832
 20
26.74168267419458
 30
0.0
 11
65.04221142834825
 21
29.54168267419465
 31
0.0
  0
LINE
  5
339
330
311
100
AcDbEntity
  8
0
 62
     0
100
AcDbLine
 10
74.14221142834839
 20
20.44168267419451
 30
0.0
 11
71.34221142834826
 21
23.24168267419464
 31
0.0
  0
LINE
  5
33A
330
311
100
AcDbEntity
  8
0
 62
     0
100
AcDbLine
 10
62.41721142834831
 20
32.16668267419459
 30
0.0
 11
61.33389386860216
 21
33.25000023394068
 31
0.0
  0
LINE
  5
33B
330
311
100
AcDbEntity
  8
0
 62
     0
100
AcDbLine
 10
77.43389386860219
 20
17.15000023394066
 30
0.0
 11
76.24221142834824
 21
18.34168267419466
 31
0.0
  0
LINE
  5
33C
330
311
100
AcDbEntity
  8
0
 62
     0
100
AcDbLine
 10
67.84221142834832
 20
25.84365706208769
 30
0.0
 11
65.04221142834836
 21
28.6436570620877
 31
0.0
  0
LINE
  5
33D
330
311
100
AcDbEntity
  8
0
 62
     0
100
AcDbLine
 10
62.41721142834831
 20
31.2686570620877
 30
0.0
 11
60.43586825649533
 21
33.25000023394074
 31
0.0
  0
LINE
  5
33E
330
311
100
AcDbEntity
  8
0
 62
     0
100
AcDbLine
 10
74.1162531277028
 20
19.56961536273326
 30
0.0
 11
71.34221142834826
 21
22.34365706208774
 31
0.0
  0
LINE
  5
33F
330
311
100
AcDbEntity
  8
0
 62
     0
100
AcDbLine
 10
67.84221142834832
 20
24.9456314499808
 30
0.0
 11
65.04221142834836
 21
27.74563144998075
 31
0.0
  0
LINE
  5
340
330
311
100
AcDbEntity
  8
0
 62
     0
100
AcDbLine
 10
62.22163088223448
 20
30.56621199609464
 30
0.0
 11
59.53784264438832
 21
33.2500002339408
 31
0.0
  0
LINE
  5
341
330
311
100
AcDbEntity
  8
0
 62
     0
100
AcDbLine
 10
73.92326783244556
 20
18.86457504588349
 30
0.0
 11
71.34221142834826
 21
21.44563144998085
 31
0.0
  0
LINE
  5
342
330
311
100
AcDbEntity
  8
0
 62
     0
100
AcDbLine
 10
67.84221142834832
 20
24.04760583787385
 30
0.0
 11
65.04221142834831
 21
26.84760583787386
 31
0.0
  0
LINE
  5
343
330
311
100
AcDbEntity
  8
0
 62
     0
100
AcDbLine
 10
61.43981703228132
 20
30.45000023394079
 30
0.0
 11
58.63981703228143
 21
33.25000023394068
 31
0.0
  0
LINE
  5
344
330
311
100
AcDbEntity
  8
0
 62
     0
100
AcDbLine
 10
73.59823595652199
 20
18.29158130970012
 30
0.0
 11
71.27069568918876
 21
20.61912157703341
 31
0.0
  0
LINE
  5
345
330
311
100
AcDbEntity
  8
0
 62
     0
100
AcDbLine
 10
67.84221142834832
 20
23.14958022576701
 30
0.0
 11
65.04221142834836
 21
25.94958022576697
 31
0.0
  0
LINE
  5
346
330
311
100
AcDbEntity
  8
0
 62
     0
100
AcDbLine
 10
60.54179142017449
 20
30.45000023394084
 30
0.0
 11
57.8042246909971
 21
33.18756696311823
 31
0.0
  0
LINE
  5
347
330
311
100
AcDbEntity
  8
0
 62
     0
100
AcDbLine
 10
73.16619415919695
 20
17.82559749491833
 30
0.0
 11
70.86911005072124
 21
20.12268160339403
 31
0.0
  0
LINE
  5
348
330
311
100
AcDbEntity
  8
0
 62
     0
100
AcDbLine
 10
67.84221142834832
 20
22.25155461366006
 30
0.0
 11
65.04221142834831
 21
25.05155461366002
 31
0.0
  0
LINE
  5
349
330
311
100
AcDbEntity
  8
0
 62
     0
100
AcDbLine
 10
59.64376580806754
 20
30.45000023394084
 30
0.0
 11
57.13958426646371
 21
32.95418177554461
 31
0.0
  0
LINE
  5
34A
330
311
100
AcDbEntity
  8
0
 62
     0
100
AcDbLine
 10
72.63003181427092
 20
17.46373422773746
 30
0.0
 11
70.14376580806754
 21
19.95000023394078
 31
0.0
  0
LINE
  5
34B
330
311
100
AcDbEntity
  8
0
 62
     0
100
AcDbLine
 10
67.84221142834827
 20
21.35352900155311
 30
0.0
 11
65.04221142834831
 21
24.15352900155312
 31
0.0
  0
LINE
  5
34C
330
311
100
AcDbEntity
  8
0
 62
     0
100
AcDbLine
 10
58.76753002397873
 20
30.42821040592264
 30
0.0
 11
56.59698332925353
 21
32.59875710064785
 31
0.0
  0
LINE
  5
34D
330
311
100
AcDbEntity
  8
0
 62
     0
100
AcDbLine
 10
71.97361925435962
 20
17.22212117554181
 30
0.0
 11
69.24574019596064
 21
19.95000023394078
 31
0.0
  0
LINE
  5
34E
330
311
100
AcDbEntity
  8
0
 62
     0
100
AcDbLine
 10
58.39221142834839
 20
29.90550338944604
 30
0.0
 11
56.15887127020897
 21
32.13884354758545
 31
0.0
  0
LINE
  5
34F
330
311
100
AcDbEntity
  8
0
 62
     0
100
AcDbLine
 10
71.14771458385383
 20
17.1500002339406
 30
0.0
 11
65.04221142834831
 21
23.25550338944617
 31
0.0
  0
LINE
  5
350
330
311
100
AcDbEntity
  8
0
 62
     0
100
AcDbLine
 10
58.39221142834844
 20
29.00747777733921
 30
0.0
 11
55.82710035785595
 21
31.5725888478317
 31
0.0
  0
LINE
  5
351
330
311
100
AcDbEntity
  8
0
 62
     0
100
AcDbLine
 10
70.24968897174687
 20
17.15000023394071
 30
0.0
 11
65.04221142834831
 21
22.35747777733934
 31
0.0
  0
LINE
  5
352
330
311
100
AcDbEntity
  8
0
 62
     0
100
AcDbLine
 10
58.59875570945217
 20
27.90290788412852
 30
0.0
 11
55.62492183849184
 21
30.8767417550888
 31
0.0
  0
LINE
  5
353
330
311
100
AcDbEntity
  8
0
 62
     0
100
AcDbLine
 10
69.35166335963998
 20
17.15000023394071
 30
0.0
 11
65.04221142834831
 21
21.45945216523239
 31
0.0
  0
LINE
  5
354
330
311
100
AcDbEntity
  8
0
 62
     0
100
AcDbLine
 10
62.8158151310397
 20
22.78782285043405
 30
0.0
 11
55.59221142834832
 21
30.01142655312538
 31
0.0
  0
LINE
  5
355
330
311
100
AcDbEntity
  8
0
 62
     0
100
AcDbLine
 10
53.49221142834824
 20
32.11142655312546
 30
0.0
 11
52.35363774753295
 21
33.2500002339408
 31
0.0
  0
LINE
  5
356
330
311
100
AcDbEntity
  8
0
 62
     0
100
AcDbLine
 10
68.45363774753304
 20
17.15000023394071
 30
0.0
 11
65.04221142834825
 21
20.56142655312545
 31
0.0
  0
LINE
  5
357
330
311
100
AcDbEntity
  8
0
 62
     0
100
AcDbLine
 10
62.9422114283484
 20
21.76340094101852
 30
0.0
 11
55.59221142834838
 21
29.11340094101854
 31
0.0
  0
LINE
  5
358
330
311
100
AcDbEntity
  8
0
 62
     0
100
AcDbLine
 10
53.49221142834835
 20
31.21340094101851
 30
0.0
 11
51.45561213542601
 21
33.25000023394091
 31
0.0
  0
LINE
  5
359
330
311
100
AcDbEntity
  8
0
 62
     0
100
AcDbLine
 10
67.53916425668126
 20
17.16644811268565
 30
0.0
 11
65.05865930709325
 21
19.64695306227367
 31
0.0
  0
LINE
  5
35A
330
311
100
AcDbEntity
  8
0
 62
     0
100
AcDbLine
 10
53.49221142834835
 20
30.31537532891162
 30
0.0
 11
50.78482154057303
 21
33.02276521668688
 31
0.0
  0
LINE
  5
35B
330
311
100
AcDbEntity
  8
0
 62
     0
100
AcDbLine
 10
62.94221142834834
 20
20.86537532891157
 30
0.0
 11
55.61562209623071
 21
28.19196466102926
 31
0.0
  0
LINE
  5
35C
330
311
100
AcDbEntity
  8
0
 62
     0
100
AcDbLine
 10
53.49221142834835
 20
29.41734971680467
 30
0.0
 11
50.69221142834834
 21
32.21734971680462
 31
0.0
  0
LINE
  5
35D
330
311
100
AcDbEntity
  8
0
 62
     0
100
AcDbLine
 10
62.94221142834823
 20
19.96734971680473
 30
0.0
 11
55.93374151407073
 21
26.97581963108229
 31
0.0
  0
LINE
  5
35E
330
311
100
AcDbEntity
  8
0
 62
     0
100
AcDbLine
 10
53.49221142834835
 20
28.51932410469777
 30
0.0
 11
50.6922114283484
 21
31.31932410469773
 31
0.0
  0
LINE
  5
35F
330
311
100
AcDbEntity
  8
0
 62
     0
100
AcDbLine
 10
62.83364961075927
 20
19.17788592228686
 30
0.0
 11
60.13801482172095
 21
21.87352071132517
 31
0.0
  0
LINE
  5
360
330
311
100
AcDbEntity
  8
0
 62
     0
100
AcDbLine
 10
53.49221142834835
 20
27.62129849259088
 30
0.0
 11
50.69221142834834
 21
30.42129849259084
 31
0.0
  0
LINE
  5
361
330
311
100
AcDbEntity
  8
0
 62
     0
100
AcDbLine
 10
48.40072452777133
 20
32.71278539316785
 30
0.0
 11
47.86350968699832
 21
33.25000023394091
 31
0.0
  0
LINE
  5
362
330
311
100
AcDbEntity
  8
0
 62
     0
100
AcDbLine
 10
62.56577390299771
 20
18.54773601794153
 30
0.0
 11
60.14221142834839
 21
20.97129849259085
 31
0.0
  0
LINE
  5
363
330
311
100
AcDbEntity
  8
0
 62
     0
100
AcDbLine
 10
53.4922114283483
 20
26.72327288048393
 30
0.0
 11
50.69221142834834
 21
29.52327288048394
 31
0.0
  0
LINE
  5
364
330
311
100
AcDbEntity
  8
0
 62
     0
100
AcDbLine
 10
48.20179686351872
 20
32.01368744531351
 30
0.0
 11
46.96548407489143
 21
33.25000023394085
 31
0.0
  0
LINE
  5
365
330
311
100
AcDbEntity
  8
0
 62
     0
100
AcDbLine
 10
62.18278710482241
 20
18.03269720400988
 30
0.0
 11
60.04492624546191
 21
20.17055806337038
 31
0.0
  0
LINE
  5
366
330
311
100
AcDbEntity
  8
0
 62
     0
100
AcDbLine
 10
53.4922114283483
 20
25.82524726837704
 30
0.0
 11
50.69221142834834
 21
28.625247268377
 31
0.0
  0
LINE
  5
367
330
311
100
AcDbEntity
  8
0
 62
     0
100
AcDbLine
 10
47.98627071661303
 20
31.33118798011225
 30
0.0
 11
46.07705515314245
 21
33.24040354358289
 31
0.0
  0
LINE
  5
368
330
311
100
AcDbEntity
  8
0
 62
     0
100
AcDbLine
 10
61.69646813970678
 20
17.6209905570185
 30
0.0
 11
59.36745846278455
 21
19.95000023394078
 31
0.0
  0
LINE
  5
369
330
311
100
AcDbEntity
  8
0
 62
     0
100
AcDbLine
 10
53.49221142834835
 20
24.92722165627015
 30
0.0
 11
50.69221142834834
 21
27.72722165627011
 31
0.0
  0
LINE
  5
36A
330
311
100
AcDbEntity
  8
0
 62
     0
100
AcDbLine
 10
47.77074456970751
 20
30.64868851491099
 30
0.0
 11
45.64274456970747
 21
32.77668851491103
 31
0.0
  0
LINE
  5
36B
330
311
100
AcDbEntity
  8
0
 62
     0
100
AcDbLine
 10
61.10038419124641
 20
17.31904889337204
 30
0.0
 11
58.46943285067766
 21
19.95000023394084
 31
0.0
  0
LINE
  5
36C
330
311
100
AcDbEntity
  8
0
 62
     0
100
AcDbLine
 10
53.4922114283483
 20
24.02919604416326
 30
0.0
 11
50.69221142834834
 21
26.82919604416321
 31
0.0
  0
LINE
  5
36D
330
311
100
AcDbEntity
  8
0
 62
     0
100
AcDbLine
 10
47.55521842280166
 20
29.9661890497099
 30
0.0
 11
45.42721842280167
 21
32.09418904970988
 31
0.0
  0
LINE
  5
36E
330
311
100
AcDbEntity
  8
0
 62
     0
100
AcDbLine
 10
60.36271153959893
 20
17.15869593291262
 30
0.0
 11
57.57140723857077
 21
19.95000023394078
 31
0.0
  0
LINE
  5
36F
330
311
100
AcDbEntity
  8
0
 62
     0
100
AcDbLine
 10
53.4922114283483
 20
23.13117043205631
 30
0.0
 11
50.69221142834829
 21
25.93117043205626
 31
0.0
  0
LINE
  5
370
330
311
100
AcDbEntity
  8
0
 62
     0
100
AcDbLine
 10
47.33969227589608
 20
29.28368958450852
 30
0.0
 11
45.21169227589598
 21
31.41168958450857
 31
0.0
  0
LINE
  5
371
330
311
100
AcDbEntity
  8
0
 62
     0
100
AcDbLine
 10
59.47338162646389
 20
17.15000023394071
 30
0.0
 11
56.67338162646382
 21
19.95000023394078
 31
0.0
  0
LINE
  5
372
330
311
100
AcDbEntity
  8
0
 62
     0
100
AcDbLine
 10
53.4922114283483
 20
22.23314481994941
 30
0.0
 11
50.69221142834834
 21
25.03314481994943
 31
0.0
  0
LINE
  5
373
330
311
100
AcDbEntity
  8
0
 62
     0
100
AcDbLine
 10
47.12416612899045
 20
28.60119011930732
 30
0.0
 11
44.99616612899035
 21
30.72919011930736
 31
0.0
  0
LINE
  5
374
330
311
100
AcDbEntity
  8
0
 62
     0
100
AcDbLine
 10
58.57535601435699
 20
17.15000023394077
 30
0.0
 11
56.14174431706061
 21
19.58361193123716
 31
0.0
  0
LINE
  5
375
330
311
100
AcDbEntity
  8
0
 62
     0
100
AcDbLine
 10
46.90863998208482
 20
27.91869065410594
 30
0.0
 11
44.78063998208472
 21
30.0466906541061
 31
0.0
  0
LINE
  5
376
330
311
100
AcDbEntity
  8
0
 62
     0
100
AcDbLine
 10
53.4922114283483
 20
21.33511920784252
 30
0.0
 11
50.69221142834834
 21
24.13511920784248
 31
0.0
  0
LINE
  5
377
330
311
100
AcDbEntity
  8
0
 62
     0
100
AcDbLine
 10
42.64221142834833
 20
32.18511920784249
 30
0.0
 11
41.57733040225003
 21
33.25000023394074
 31
0.0
  0
LINE
  5
378
330
311
100
AcDbEntity
  8
0
 62
     0
100
AcDbLine
 10
57.6773304022501
 20
17.15000023394071
 30
0.0
 11
56.11721142834835
 21
18.71011920784247
 31
0.0
  0
LINE
  5
379
330
311
100
AcDbEntity
  8
0
 62
     0
100
AcDbLine
 10
46.69311383517902
 20
27.23619118890486
 30
0.0
 11
44.56511383517908
 21
29.36419118890479
 31
0.0
  0
LINE
  5
37A
330
311
100
AcDbEntity
  8
0
 62
     0
100
AcDbLine
 10
53.4922114283483
 20
20.43709359573558
 30
0.0
 11
50.69221142834829
 21
23.23709359573559
 31
0.0
  0
LINE
  5
37B
330
311
100
AcDbEntity
  8
0
 62
     0
100
AcDbLine
 10
42.64221142834833
 20
31.28709359573554
 30
0.0
 11
40.67930479014302
 21
33.2500002339408
 31
0.0
  0
LINE
  5
37C
330
311
100
AcDbEntity
  8
0
 62
     0
100
AcDbLine
 10
56.7793047901431
 20
17.15000023394077
 30
0.0
 11
56.1172114283483
 21
17.81209359573552
 31
0.0
  0
LINE
  5
37D
330
311
100
AcDbEntity
  8
0
 62
     0
100
AcDbLine
 10
46.47758768827339
 20
26.55369172370354
 30
0.0
 11
44.34958768827335
 21
28.68169172370358
 31
0.0
  0
LINE
  5
37E
330
311
100
AcDbEntity
  8
0
 62
     0
100
AcDbLine
 10
42.64221142834827
 20
30.38906798362859
 30
0.0
 11
39.96676649945067
 21
33.06451291252626
 31
0.0
  0
LINE
  5
37F
330
311
100
AcDbEntity
  8
0
 62
     0
100
AcDbLine
 10
53.49221142834824
 20
19.53906798362868
 30
0.0
 11
50.69221142834829
 21
22.33906798362864
 31
0.0
  0
LINE
  5
380
330
311
100
AcDbEntity
  8
0
 62
     0
100
AcDbLine
 10
46.26206154136776
 20
25.87119225850234
 30
0.0
 11
44.13406154136777
 21
27.99919225850232
 31
0.0
  0
LINE
  5
381
330
311
100
AcDbEntity
  8
0
 62
     0
100
AcDbLine
 10
42.64221142834833
 20
29.49104237152176
 30
0.0
 11
39.84221142834826
 21
32.29104237152177
 31
0.0
  0
LINE
  5
382
330
311
100
AcDbEntity
  8
0
 62
     0
100
AcDbLine
 10
53.4922114283483
 20
18.64104237152179
 30
0.0
 11
50.69221142834829
 21
21.44104237152175
 31
0.0
  0
LINE
  5
383
330
311
100
AcDbEntity
  8
0
 62
     0
100
AcDbLine
 10
46.0569730319757
 20
25.17825515578744
 30
0.0
 11
43.91853539446202
 21
27.31669279330112
 31
0.0
  0
LINE
  5
384
330
311
100
AcDbEntity
  8
0
 62
     0
100
AcDbLine
 10
42.64221142834833
 20
28.59301675941481
 30
0.0
 11
39.84221142834826
 21
31.39301675941488
 31
0.0
  0
LINE
  5
385
330
311
100
AcDbEntity
  8
0
 62
     0
100
AcDbLine
 10
53.49221142834824
 20
17.74301675941484
 30
0.0
 11
50.69221142834829
 21
20.54301675941486
 31
0.0
  0
LINE
  5
386
330
311
100
AcDbEntity
  8
0
 62
     0
100
AcDbLine
 10
46.4714463914097
 20
23.86575618424649
 30
0.0
 11
43.6279878987774
 21
26.70921467687879
 31
0.0
  0
LINE
  5
387
330
311
100
AcDbEntity
  8
0
 62
     0
100
AcDbLine
 10
42.64221142834839
 20
27.69499114730781
 30
0.0
 11
39.84221142834821
 21
30.49499114730793
 31
0.0
  0
LINE
  5
388
330
311
100
AcDbEntity
  8
0
 62
     0
100
AcDbLine
 10
53.1531664310159
 20
17.18403614464023
 30
0.0
 11
50.69221142834834
 21
19.64499114730785
 31
0.0
  0
LINE
  5
389
330
311
100
AcDbEntity
  8
0
 62
     0
100
AcDbLine
 10
46.8859197508437
 20
22.55325721270566
 30
0.0
 11
39.84221142834826
 21
29.59696553520109
 31
0.0
  0
LINE
  5
38A
330
311
100
AcDbEntity
  8
0
 62
     0
100
AcDbLine
 10
37.39221142834839
 20
32.04696553520097
 30
0.0
 11
36.18917672960862
 21
33.25000023394074
 31
0.0
  0
LINE
  5
38B
330
311
100
AcDbEntity
  8
0
 62
     0
100
AcDbLine
 10
52.28917672960864
 20
17.15000023394071
 30
0.0
 11
50.6922114283484
 21
18.74696553520095
 31
0.0
  0
LINE
  5
38C
330
311
100
AcDbEntity
  8
0
 62
     0
100
AcDbLine
 10
47.30039311027775
 20
21.24075824116466
 30
0.0
 11
39.84221142834826
 21
28.69893992309414
 31
0.0
  0
LINE
  5
38D
330
311
100
AcDbEntity
  8
0
 62
     0
100
AcDbLine
 10
37.39221142834839
 20
31.14893992309402
 30
0.0
 11
35.29115111750162
 21
33.2500002339408
 31
0.0
  0
LINE
  5
38E
330
311
100
AcDbEntity
  8
0
 62
     0
100
AcDbLine
 10
51.39115111750169
 20
17.15000023394066
 30
0.0
 11
50.69221142834834
 21
17.84893992309406
 31
0.0
  0
LINE
  5
38F
330
311
100
AcDbEntity
  8
0
 62
     0
100
AcDbLine
 10
37.12530473295828
 20
30.51782100637718
 30
0.0
 11
34.42508301474686
 21
33.21804272458854
 31
0.0
  0
LINE
  5
390
330
311
100
AcDbEntity
  8
0
 62
     0
100
AcDbLine
 10
47.71486646971169
 20
19.92825926962376
 30
0.0
 11
39.84221142834832
 21
27.80091431098714
 31
0.0
  0
LINE
  5
391
330
311
100
AcDbEntity
  8
0
 62
     0
100
AcDbLine
 10
42.97972035068994
 20
23.76537977653862
 30
0.0
 11
39.84221142834832
 21
26.90288869888025
 31
0.0
  0
LINE
  5
392
330
311
100
AcDbEntity
  8
0
 62
     0
100
AcDbLine
 10
36.29509989328784
 20
30.45000023394067
 30
0.0
 11
33.6870399451596
 21
33.05806018206897
 31
0.0
  0
LINE
  5
393
330
311
100
AcDbEntity
  8
0
 62
     0
100
AcDbLine
 10
48.12933982914575
 20
18.61576029808282
 30
0.0
 11
44.03703213683786
 21
22.70806799039065
 31
0.0
  0
LINE
  5
394
330
311
100
AcDbEntity
  8
0
 62
     0
100
AcDbLine
 10
42.64221142834839
 20
23.20486308677329
 30
0.0
 11
39.84221142834832
 21
26.00486308677336
 31
0.0
  0
LINE
  5
395
330
311
100
AcDbEntity
  8
0
 62
     0
100
AcDbLine
 10
35.39707428118084
 20
30.45000023394079
 30
0.0
 11
33.04831852932887
 21
32.79875598579276
 31
0.0
  0
LINE
  5
396
330
311
100
AcDbEntity
  8
0
 62
     0
100
AcDbLine
 10
48.36437868685635
 20
17.48269582826526
 30
0.0
 11
44.45150549627181
 21
21.39556901884987
 31
0.0
  0
LINE
  5
397
330
311
100
AcDbEntity
  8
0
 62
     0
100
AcDbLine
 10
42.64221142834833
 20
22.3068374746664
 30
0.0
 11
39.84221142834826
 21
25.10683747466641
 31
0.0
  0
LINE
  5
398
330
311
100
AcDbEntity
  8
0
 62
     0
100
AcDbLine
 10
34.5539607786373
 20
30.39508812437742
 30
0.0
 11
32.48956955399433
 21
32.4594793490204
 31
0.0
  0
LINE
  5
399
330
311
100
AcDbEntity
  8
0
 62
     0
100
AcDbLine
 10
47.79904866907401
 20
17.15000023394071
 30
0.0
 11
44.86597885570563
 21
20.08307004730903
 31
0.0
  0
LINE
  5
39A
330
311
100
AcDbEntity
  8
0
 62
     0
100
AcDbLine
 10
42.64221142834833
 20
21.40881186255945
 30
0.0
 11
39.84221142834826
 21
24.20881186255952
 31
0.0
  0
LINE
  5
39B
330
311
100
AcDbEntity
  8
0
 62
     0
100
AcDbLine
 10
33.98210458579831
 20
30.06891870510947
 30
0.0
 11
32.00191434538254
 21
32.04910894552523
 31
0.0
  0
LINE
  5
39C
330
311
100
AcDbEntity
  8
0
 62
     0
100
AcDbLine
 10
46.90102305696706
 20
17.15000023394071
 30
0.0
 11
45.28045221513957
 21
18.7705710757682
 31
0.0
  0
LINE
  5
39D
330
311
100
AcDbEntity
  8
0
 62
     0
100
AcDbLine
 10
37.72764056114608
 20
25.42535711765487
 30
0.0
 11
36.21756831206233
 21
26.93542936673862
 31
0.0
  0
LINE
  5
39E
330
311
100
AcDbEntity
  8
0
 62
     0
100
AcDbLine
 10
42.64221142834844
 20
20.5107862504525
 30
0.0
 11
39.84221142834832
 21
23.31078625045262
 31
0.0
  0
LINE
  5
39F
330
311
100
AcDbEntity
  8
0
 62
     0
100
AcDbLine
 10
33.62598301566936
 20
29.52701466313158
 30
0.0
 11
31.58254831937131
 21
31.57044935942963
 31
0.0
  0
LINE
  5
3A0
330
311
100
AcDbEntity
  8
0
 62
     0
100
AcDbLine
 10
45.95266444065555
 20
17.20033323814539
 30
0.0
 11
45.70231026906424
 21
17.4506874097367
 31
0.0
  0
LINE
  5
3A1
330
311
100
AcDbEntity
  8
0
 62
     0
100
AcDbLine
 10
37.64112690100416
 20
24.61384516568984
 30
0.0
 11
35.40605636009729
 21
26.8489157065967
 31
0.0
  0
LINE
  5
3A2
330
311
100
AcDbEntity
  8
0
 62
     0
100
AcDbLine
 10
33.54221142834842
 20
28.71276063834557
 30
0.0
 11
31.23360929840965
 21
31.02136276828435
 31
0.0
  0
LINE
  5
3A3
330
311
100
AcDbEntity
  8
0
 62
     0
100
AcDbLine
 10
42.64221142834839
 20
19.61276063834555
 30
0.0
 11
39.84221142834826
 21
22.41276063834573
 31
0.0
  0
LINE
  5
3A4
330
311
100
AcDbEntity
  8
0
 62
     0
100
AcDbLine
 10
37.30927134170611
 20
24.04767511288088
 30
0.0
 11
34.83988630728834
 21
26.51706014729865
 31
0.0
  0
LINE
  5
3A5
330
311
100
AcDbEntity
  8
0
 62
     0
100
AcDbLine
 10
33.54221142834842
 20
27.81473502623863
 30
0.0
 11
30.96302959119948
 21
30.39391686338758
 31
0.0
  0
LINE
  5
3A6
330
311
100
AcDbEntity
  8
0
 62
     0
100
AcDbLine
 10
42.64221142834839
 20
18.71473502623866
 30
0.0
 11
39.84221142834832
 21
21.51473502623872
 31
0.0
  0
LINE
  5
3A7
330
311
100
AcDbEntity
  8
0
 62
     0
100
AcDbLine
 10
33.54221142834842
 20
26.91670941413173
 30
0.0
 11
30.78831571827362
 21
29.67060512420659
 31
0.0
  0
LINE
  5
3A8
330
311
100
AcDbEntity
  8
0
 62
     0
100
AcDbLine
 10
36.80743789956967
 20
23.65148294291055
 30
0.0
 11
34.44369413731801
 21
26.01522670516221
 31
0.0
  0
LINE
  5
3A9
330
311
100
AcDbEntity
  8
0
 62
     0
100
AcDbLine
 10
28.11721142834824
 20
32.34170941413192
 30
0.0
 11
27.20892060853936
 21
33.25000023394085
 31
0.0
  0
LINE
  5
3AA
330
311
100
AcDbEntity
  8
0
 62
     0
100
AcDbLine
 10
42.64221142834844
 20
17.81670941413176
 30
0.0
 11
39.84221142834838
 21
20.61670941413183
 31
0.0
  0
LINE
  5
3AB
330
311
100
AcDbEntity
  8
0
 62
     0
100
AcDbLine
 10
33.54221142834842
 20
26.01868380202484
 30
0.0
 11
30.74221142834836
 21
28.81868380202491
 31
0.0
  0
LINE
  5
3AC
330
311
100
AcDbEntity
  8
0
 62
     0
100
AcDbLine
 10
36.10711845714224
 20
23.45377677323103
 30
0.0
 11
34.24598796763849
 21
25.31490726273478
 31
0.0
  0
LINE
  5
3AD
330
311
100
AcDbEntity
  8
0
 62
     0
100
AcDbLine
 10
28.1172114283483
 20
31.44368380202491
 30
0.0
 11
26.31089499643241
 21
33.2500002339408
 31
0.0
  0
LINE
  5
3AE
330
311
100
AcDbEntity
  8
0
 62
     0
100
AcDbLine
 10
42.35430762707773
 20
17.20658760329553
 30
0.0
 11
39.84221142834832
 21
19.71868380202488
 31
0.0
  0
LINE
  5
3AF
330
311
100
AcDbEntity
  8
0
 62
     0
100
AcDbLine
 10
33.54221142834842
 20
25.12065818991789
 30
0.0
 11
30.74221142834836
 21
27.92065818991796
 31
0.0
  0
LINE
  5
3B0
330
311
100
AcDbEntity
  8
0
 62
     0
100
AcDbLine
 10
28.00817745807797
 20
30.65469216018835
 30
0.0
 11
25.4128693843254
 21
33.25000023394085
 31
0.0
  0
LINE
  5
3B1
330
311
100
AcDbEntity
  8
0
 62
     0
100
AcDbLine
 10
41.51286938432554
 20
17.15000023394077
 30
0.0
 11
39.84221142834832
 21
18.82065818991799
 31
0.0
  0
LINE
  5
3B2
330
311
100
AcDbEntity
  8
0
 62
     0
100
AcDbLine
 10
33.54221142834837
 20
24.222632577811
 30
0.0
 11
30.7422114283483
 21
27.02263257781101
 31
0.0
  0
LINE
  5
3B3
330
311
100
AcDbEntity
  8
0
 62
     0
100
AcDbLine
 10
27.31484377221864
 20
30.45000023394073
 30
0.0
 11
24.51484377221857
 21
33.25000023394074
 31
0.0
  0
LINE
  5
3B4
330
311
100
AcDbEntity
  8
0
 62
     0
100
AcDbLine
 10
40.61484377221859
 20
17.15000023394071
 30
0.0
 11
39.84221142834832
 21
17.92263257781104
 31
0.0
  0
LINE
  5
3B5
330
311
100
AcDbEntity
  8
0
 62
     0
100
AcDbLine
 10
33.54221142834842
 20
23.32460696570411
 30
0.0
 11
30.74221142834836
 21
26.12460696570418
 31
0.0
  0
LINE
  5
3B6
330
311
100
AcDbEntity
  8
0
 62
     0
100
AcDbLine
 10
26.41681816011175
 20
30.45000023394073
 30
0.0
 11
23.65168888800685
 21
33.21512950604569
 31
0.0
  0
LINE
  5
3B7
330
311
100
AcDbEntity
  8
0
 62
     0
100
AcDbLine
 10
37.38960897951142
 20
19.47720941454105
 30
0.0
 11
36.91942060894871
 21
19.94739778510382
 31
0.0
  0
LINE
  5
3B8
330
311
100
AcDbEntity
  8
0
 62
     0
100
AcDbLine
 10
33.54221142834837
 20
22.42658135359716
 30
0.0
 11
30.74221142834836
 21
25.22658135359723
 31
0.0
  0
LINE
  5
3B9
330
311
100
AcDbEntity
  8
0
 62
     0
100
AcDbLine
 10
25.51879254800486
 20
30.45000023394073
 30
0.0
 11
22.95855407952837
 21
33.01023870241721
 31
0.0
  0
LINE
  5
3BA
330
311
100
AcDbEntity
  8
0
 62
     0
100
AcDbLine
 10
37.39221142834845
 20
18.57658135359713
 30
0.0
 11
36.0187925480048
 21
19.95000023394078
 31
0.0
  0
LINE
  5
3BB
330
311
100
AcDbEntity
  8
0
 62
     0
100
AcDbLine
 10
33.54221142834837
 20
21.52855574149027
 30
0.0
 11
30.74221142834841
 21
24.32855574149022
 31
0.0
  0
LINE
  5
3BC
330
311
100
AcDbEntity
  8
0
 62
     0
100
AcDbLine
 10
24.62076693589791
 20
30.45000023394067
 30
0.0
 11
22.39430741968113
 21
32.67645975015745
 31
0.0
  0
LINE
  5
3BD
330
311
100
AcDbEntity
  8
0
 62
     0
100
AcDbLine
 10
37.39221142834839
 20
17.67855574149018
 30
0.0
 11
35.1207669358979
 21
19.95000023394067
 31
0.0
  0
LINE
  5
3BE
330
311
100
AcDbEntity
  8
0
 62
     0
100
AcDbLine
 10
24.11047410828331
 20
30.06226744944849
 30
0.0
 11
21.93621460744038
 21
32.23652695029142
 31
0.0
  0
LINE
  5
3BF
330
311
100
AcDbEntity
  8
0
 62
     0
100
AcDbLine
 10
37.00447864385604
 20
17.16826291387576
 30
0.0
 11
30.74221142834841
 21
23.43053012938339
 31
0.0
  0
LINE
  5
3C0
330
311
100
AcDbEntity
  8
0
 62
     0
100
AcDbLine
 10
24.09221142834838
 20
29.18250451727647
 30
0.0
 11
21.58273340497129
 21
31.69198254065356
 31
0.0
  0
LINE
  5
3C1
330
311
100
AcDbEntity
  8
0
 62
     0
100
AcDbLine
 10
36.12471571168413
 20
17.15000023394071
 30
0.0
 11
30.74221142834841
 21
22.53250451727644
 31
0.0
  0
LINE
  5
3C2
330
311
100
AcDbEntity
  8
0
 62
     0
100
AcDbLine
 10
24.15434713648381
 20
28.22234319703404
 30
0.0
 11
21.35185330267757
 21
31.02483703084033
 31
0.0
  0
LINE
  5
3C3
330
311
100
AcDbEntity
  8
0
 62
     0
100
AcDbLine
 10
35.22669009957713
 20
17.15000023394077
 30
0.0
 11
30.74221142834836
 21
21.63447890516949
 31
0.0
  0
LINE
  5
3C4
330
311
100
AcDbEntity
  8
0
 62
     0
100
AcDbLine
 10
28.44658751957104
 20
23.03207720183997
 30
0.0
 11
21.29221142834842
 21
30.18645329306258
 31
0.0
  0
LINE
  5
3C5
330
311
100
AcDbEntity
  8
0
 62
     0
100
AcDbLine
 10
34.27539240041358
 20
17.20327232099743
 30
0.0
 11
30.79548351540501
 21
20.683181206006
 31
0.0
  0
LINE
  5
3C6
330
311
100
AcDbEntity
  8
0
 62
     0
100
AcDbLine
 10
28.63848203365626
 20
21.94215707564786
 30
0.0
 11
21.29221142834831
 21
29.28842768095581
 31
0.0
  0
LINE
  5
3C7
330
311
100
AcDbEntity
  8
0
 62
     0
100
AcDbLine
 10
32.90158448781199
 20
17.67905462149207
 30
0.0
 11
31.2712658158996
 21
19.30937329340452
 31
0.0
  0
LINE
  5
3C8
330
311
100
AcDbEntity
  8
0
 62
     0
100
AcDbLine
 10
28.64221142834845
 20
21.04040206884872
 30
0.0
 11
21.29977587577071
 21
28.38283762142641
 31
0.0
  0
LINE
  5
3C9
330
311
100
AcDbEntity
  8
0
 62
     0
100
AcDbLine
 10
28.64221142834833
 20
20.14237645674189
 30
0.0
 11
21.52306663409456
 21
27.2615212509956
 31
0.0
  0
LINE
  5
3CA
330
311
100
AcDbEntity
  8
0
 62
     0
100
AcDbLine
 10
28.56969143221642
 20
19.31687084076697
 30
0.0
 11
25.80629978859736
 21
22.08026248438603
 31
0.0
  0
LINE
  5
3CB
330
311
100
AcDbEntity
  8
0
 62
     0
100
AcDbLine
 10
28.32775349318757
 20
18.66078316768886
 30
0.0
 11
25.84221142834832
 21
21.14632523252812
 31
0.0
  0
LINE
  5
3CC
330
311
100
AcDbEntity
  8
0
 62
     0
100
AcDbLine
 10
27.9656342458058
 20
18.12487680296368
 30
0.0
 11
25.80631239604765
 21
20.28419865272184
 31
0.0
  0
LINE
  5
3CD
330
311
100
AcDbEntity
  8
0
 62
     0
100
AcDbLine
 10
27.49940787353893
 20
17.69307756312366
 30
0.0
 11
25.24248520272181
 21
19.95000023394084
 31
0.0
  0
LINE
  5
3CE
330
311
100
AcDbEntity
  8
0
 62
     0
100
AcDbLine
 10
26.92614342580612
 20
17.36831639874958
 30
0.0
 11
24.34445959061486
 21
19.95000023394078
 31
0.0
  0
LINE
  5
3CF
330
311
100
AcDbEntity
  8
0
 62
     0
100
AcDbLine
 10
26.22073083672018
 20
17.17570337572857
 30
0.0
 11
23.44643397850797
 21
19.95000023394078
 31
0.0
  0
LINE
  5
3D0
330
311
100
AcDbEntity
  8
0
 62
     0
100
AcDbLine
 10
25.34840836640114
 20
17.1500002339406
 30
0.0
 11
22.54840836640102
 21
19.95000023394078
 31
0.0
  0
LINE
  5
3D1
330
311
100
AcDbEntity
  8
0
 62
     0
100
AcDbLine
 10
24.4503827542942
 20
17.15000023394071
 30
0.0
 11
21.89705885947632
 21
19.70332412875865
 31
0.0
  0
LINE
  5
3D2
330
311
100
AcDbEntity
  8
0
 62
     0
100
AcDbLine
 10
23.5523571421873
 20
17.15000023394071
 30
0.0
 11
21.8172114283484
 21
18.88514594777956
 31
0.0
  0
LINE
  5
3D3
330
311
100
AcDbEntity
  8
0
 62
     0
100
AcDbLine
 10
22.65433153008036
 20
17.15000023394071
 30
0.0
 11
21.8172114283484
 21
17.98712033567267
 31
0.0
  0
LINE
  5
3D4
330
311
100
AcDbEntity
  8
0
 62
     0
100
AcDbLine
 10
78.6338987130153
 20
17.16313201105828
 30
0.0
 11
79.02907965123109
 21
17.55831294927407
 31
0.0
  0
LINE
  5
3D5
330
311
100
AcDbEntity
  8
0
 62
     0
100
AcDbLine
 10
77.72274132379095
 20
17.15000023394071
 30
0.0
 11
79.04221142834853
 21
18.46947033849835
 31
0.0
  0
LINE
  5
3D6
330
311
100
AcDbEntity
  8
0
 62
     0
100
AcDbLine
 10
76.82471571168401
 20
17.15000023394077
 30
0.0
 11
79.04221142834853
 21
19.36749595060524
 31
0.0
  0
LINE
  5
3D7
330
311
100
AcDbEntity
  8
0
 62
     0
100
AcDbLine
 10
76.27340899160021
 20
17.49671912596386
 30
0.0
 11
79.04221142834848
 21
20.2655215627122
 31
0.0
  0
LINE
  5
3D8
330
311
100
AcDbEntity
  8
0
 62
     0
100
AcDbLine
 10
76.24221142834841
 20
18.36354717481902
 30
0.0
 11
79.04221142834848
 21
21.16354717481903
 31
0.0
  0
LINE
  5
3D9
330
311
100
AcDbEntity
  8
0
 62
     0
100
AcDbLine
 10
76.24221142834847
 20
19.26157278692591
 30
0.0
 11
79.04221142834848
 21
22.06157278692598
 31
0.0
  0
LINE
  5
3DA
330
311
100
AcDbEntity
  8
0
 62
     0
100
AcDbLine
 10
76.24221142834841
 20
20.15959839903286
 30
0.0
 11
79.04221142834848
 21
22.95959839903293
 31
0.0
  0
LINE
  5
3DB
330
311
100
AcDbEntity
  8
0
 62
     0
100
AcDbLine
 10
76.24221142834841
 20
21.05762401113975
 30
0.0
 11
79.04221142834848
 21
23.85762401113982
 31
0.0
  0
LINE
  5
3DC
330
311
100
AcDbEntity
  8
0
 62
     0
100
AcDbLine
 10
72.66877629041369
 20
17.48418887320503
 30
0.0
 11
73.80802278908425
 21
18.62343537187564
 31
0.0
  0
LINE
  5
3DD
330
311
100
AcDbEntity
  8
0
 62
     0
100
AcDbLine
 10
76.24221142834841
 20
21.95564962324664
 30
0.0
 11
79.04221142834848
 21
24.75564962324671
 31
0.0
  0
LINE
  5
3DE
330
311
100
AcDbEntity
  8
0
 62
     0
100
AcDbLine
 10
71.43820812389089
 20
17.15164631878912
 30
0.0
 11
74.14056534350021
 21
19.85400353839839
 31
0.0
  0
LINE
  5
3DF
330
311
100
AcDbEntity
  8
0
 62
     0
100
AcDbLine
 10
76.24221142834841
 20
22.85367523535359
 30
0.0
 11
79.04221142834848
 21
25.65367523535361
 31
0.0
  0
LINE
  5
3E0
330
311
100
AcDbEntity
  8
0
 62
     0
100
AcDbLine
 10
70.53853642693565
 20
17.15000023394083
 30
0.0
 11
74.14221142834851
 21
20.75367523535363
 31
0.0
  0
LINE
  5
3E1
330
311
100
AcDbEntity
  8
0
 62
     0
100
AcDbLine
 10
76.24221142834841
 20
23.75170084746049
 30
0.0
 11
79.04221142834842
 21
26.55170084746055
 31
0.0
  0
LINE
  5
3E2
330
311
100
AcDbEntity
  8
0
 62
     0
100
AcDbLine
 10
69.6405108148287
 20
17.15000023394083
 30
0.0
 11
74.14221142834844
 21
21.65170084746057
 31
0.0
  0
LINE
  5
3E3
330
311
100
AcDbEntity
  8
0
 62
     0
100
AcDbLine
 10
76.24221142834841
 20
24.64972645956738
 30
0.0
 11
79.04221142834848
 21
27.44972645956745
 31
0.0
  0
LINE
  5
3E4
330
311
100
AcDbEntity
  8
0
 62
     0
100
AcDbLine
 10
68.74248520272175
 20
17.15000023394071
 30
0.0
 11
74.14221142834851
 21
22.54972645956747
 31
0.0
  0
LINE
  5
3E5
330
311
100
AcDbEntity
  8
0
 62
     0
100
AcDbLine
 10
71.23762022626738
 20
20.54316086959329
 30
0.0
 11
74.14221142834851
 21
23.44775207167436
 31
0.0
  0
LINE
  5
3E6
330
311
100
AcDbEntity
  8
0
 62
     0
100
AcDbLine
 10
76.24221142834841
 20
25.54775207167427
 30
0.0
 11
79.04221142834848
 21
28.34775207167434
 31
0.0
  0
LINE
  5
3E7
330
311
100
AcDbEntity
  8
0
 62
     0
100
AcDbLine
 10
67.84445959061492
 20
17.15000023394083
 30
0.0
 11
70.74905079269587
 21
20.05459143602172
 31
0.0
  0
LINE
  5
3E8
330
311
100
AcDbEntity
  8
0
 62
     0
100
AcDbLine
 10
71.34221142834832
 20
21.54577768378118
 30
0.0
 11
74.14221142834844
 21
24.34577768378131
 31
0.0
  0
LINE
  5
3E9
330
311
100
AcDbEntity
  8
0
 62
     0
100
AcDbLine
 10
76.24221142834835
 20
26.44577768378122
 30
0.0
 11
79.04221142834842
 21
29.24577768378128
 31
0.0
  0
LINE
  5
3EA
330
311
100
AcDbEntity
  8
0
 62
     0
100
AcDbLine
 10
67.05838372988506
 20
17.26194998531787
 30
0.0
 11
69.74643397850798
 21
19.95000023394084
 31
0.0
  0
LINE
  5
3EB
330
311
100
AcDbEntity
  8
0
 62
     0
100
AcDbLine
 10
71.34221142834832
 20
22.44380329588807
 30
0.0
 11
74.14221142834844
 21
25.2438032958882
 31
0.0
  0
LINE
  5
3EC
330
311
100
AcDbEntity
  8
0
 62
     0
100
AcDbLine
 10
76.24221142834835
 20
27.34380329588816
 30
0.0
 11
79.04221142834842
 21
30.14380329588818
 31
0.0
  0
LINE
  5
3ED
330
311
100
AcDbEntity
  8
0
 62
     0
100
AcDbLine
 10
66.43039686267491
 20
17.53198873021472
 30
0.0
 11
68.84928615204535
 21
19.95087801958516
 31
0.0
  0
LINE
  5
3EE
330
311
100
AcDbEntity
  8
0
 62
     0
100
AcDbLine
 10
71.34221142834832
 20
23.34182890799497
 30
0.0
 11
74.14221142834844
 21
26.14182890799509
 31
0.0
  0
LINE
  5
3EF
330
311
100
AcDbEntity
  8
0
 62
     0
100
AcDbLine
 10
76.24221142834841
 20
28.241828907995
 30
0.0
 11
79.04221142834842
 21
31.04182890799507
 31
0.0
  0
LINE
  5
3F0
330
311
100
AcDbEntity
  8
0
 62
     0
100
AcDbLine
 10
65.91713698130973
 20
17.91675446095638
 30
0.0
 11
68.20580756333265
 21
20.2054250429793
 31
0.0
  0
LINE
  5
3F1
330
311
100
AcDbEntity
  8
0
 62
     0
100
AcDbLine
 10
71.34221142834832
 20
24.23985452010186
 30
0.0
 11
74.14221142834844
 21
27.03985452010204
 31
0.0
  0
LINE
  5
3F2
330
311
100
AcDbEntity
  8
0
 62
     0
100
AcDbLine
 10
76.24221142834835
 20
29.13985452010195
 30
0.0
 11
79.04221142834842
 21
31.93985452010202
 31
0.0
  0
LINE
  5
3F3
330
311
100
AcDbEntity
  8
0
 62
     0
100
AcDbLine
 10
65.50717280608473
 20
18.40481589783826
 30
0.0
 11
67.86856928492324
 21
20.76621237667684
 31
0.0
  0
LINE
  5
3F4
330
311
100
AcDbEntity
  8
0
 62
     0
100
AcDbLine
 10
71.34221142834826
 20
25.13788013220881
 30
0.0
 11
74.14221142834851
 21
27.93788013220904
 31
0.0
  0
LINE
  5
3F5
330
311
100
AcDbEntity
  8
0
 62
     0
100
AcDbLine
 10
76.24221142834835
 20
30.03788013220884
 30
0.0
 11
79.03206227479796
 21
32.82773097865851
 31
0.0
  0
LINE
  5
3F6
330
311
100
AcDbEntity
  8
0
 62
     0
100
AcDbLine
 10
65.20724792765071
 20
19.00291663151125
 30
0.0
 11
67.84221142834832
 21
21.63788013220886
 31
0.0
  0
LINE
  5
3F7
330
311
100
AcDbEntity
  8
0
 62
     0
100
AcDbLine
 10
71.34221142834838
 20
26.03590574431576
 30
0.0
 11
74.14221142834856
 21
28.83590574431588
 31
0.0
  0
LINE
  5
3F8
330
311
100
AcDbEntity
  8
0
 62
     0
100
AcDbLine
 10
76.24221142834835
 20
30.93590574431573
 30
0.0
 11
78.55494792971848
 21
33.24864224568586
 31
0.0
  0
LINE
  5
3F9
330
311
100
AcDbEntity
  8
0
 62
     0
100
AcDbLine
 10
65.04983439269427
 20
19.74352870866164
 30
0.0
 11
67.84221142834837
 21
22.53590574431576
 31
0.0
  0
LINE
  5
3FA
330
311
100
AcDbEntity
  8
0
 62
     0
100
AcDbLine
 10
71.34221142834838
 20
26.93393135642271
 30
0.0
 11
74.14221142834851
 21
29.73393135642283
 31
0.0
  0
LINE
  5
3FB
330
311
100
AcDbEntity
  8
0
 62
     0
100
AcDbLine
 10
76.24221142834841
 20
31.83393135642274
 30
0.0
 11
77.65828030586641
 21
33.25000023394074
 31
0.0
  0
LINE
  5
3FC
330
311
100
AcDbEntity
  8
0
 62
     0
100
AcDbLine
 10
65.04221142834848
 20
20.63393135642275
 30
0.0
 11
67.84221142834844
 21
23.43393135642276
 31
0.0
  0
LINE
  5
3FD
330
311
100
AcDbEntity
  8
0
 62
     0
100
AcDbLine
 10
71.34221142834838
 20
27.8319569685296
 30
0.0
 11
74.14221142834851
 21
30.63195696852972
 31
0.0
  0
LINE
  5
3FE
330
311
100
AcDbEntity
  8
0
 62
     0
100
AcDbLine
 10
65.04221142834842
 20
21.5319569685297
 30
0.0
 11
67.84221142834837
 21
24.33195696852965
 31
0.0
  0
LINE
  5
3FF
330
311
100
AcDbEntity
  8
0
 62
     0
100
AcDbLine
 10
76.24225814309586
 20
32.73200368327713
 30
0.0
 11
76.76020797901213
 21
33.24995351919336
 31
0.0
  0
LINE
  5
400
330
311
100
AcDbEntity
  8
0
 62
     0
100
AcDbLine
 10
60.72065579763642
 20
17.21040133781764
 30
0.0
 11
62.88181032447159
 21
19.37155586465286
 31
0.0
  0
LINE
  5
401
330
311
100
AcDbEntity
  8
0
 62
     0
100
AcDbLine
 10
65.04221142834842
 20
22.42998258063659
 30
0.0
 11
67.84221142834837
 21
25.2299825806366
 31
0.0
  0
LINE
  5
402
330
311
100
AcDbEntity
  8
0
 62
     0
100
AcDbLine
 10
71.34221142834832
 20
28.72998258063655
 30
0.0
 11
74.14221142834844
 21
31.52998258063667
 31
0.0
  0
LINE
  5
403
330
311
100
AcDbEntity
  8
0
 62
     0
100
AcDbLine
 10
59.76222908165261
 20
17.15000023394083
 30
0.0
 11
62.94221142834834
 21
20.32998258063651
 31
0.0
  0
LINE
  5
404
330
311
100
AcDbEntity
  8
0
 62
     0
100
AcDbLine
 10
65.04221142834842
 20
23.32800819274348
 30
0.0
 11
67.84221142834844
 21
26.12800819274344
 31
0.0
  0
LINE
  5
405
330
311
100
AcDbEntity
  8
0
 62
     0
100
AcDbLine
 10
71.34221142834838
 20
29.62800819274338
 30
0.0
 11
74.14221142834851
 21
32.42800819274356
 31
0.0
  0
LINE
  5
406
330
311
100
AcDbEntity
  8
0
 62
     0
100
AcDbLine
 10
58.86420346954565
 20
17.15000023394071
 30
0.0
 11
62.94221142834846
 21
21.22800819274346
 31
0.0
  0
LINE
  5
407
330
311
100
AcDbEntity
  8
0
 62
     0
100
AcDbLine
 10
65.04221142834842
 20
24.22603380485043
 30
0.0
 11
67.84221142834837
 21
27.02603380485039
 31
0.0
  0
LINE
  5
408
330
311
100
AcDbEntity
  8
0
 62
     0
100
AcDbLine
 10
71.34221142834832
 20
30.52603380485033
 30
0.0
 11
73.94847397351435
 21
33.13229635001636
 31
0.0
  0
LINE
  5
409
330
311
100
AcDbEntity
  8
0
 62
     0
100
AcDbLine
 10
57.96617785743876
 20
17.15000023394077
 30
0.0
 11
62.92789282793546
 21
22.11171520443747
 31
0.0
  0
LINE
  5
40A
330
311
100
AcDbEntity
  8
0
 62
     0
100
AcDbLine
 10
65.04221142834842
 20
25.12405941695732
 30
0.0
 11
67.84221142834837
 21
27.92405941695733
 31
0.0
  0
LINE
  5
40B
330
311
100
AcDbEntity
  8
0
 62
     0
100
AcDbLine
 10
71.34221142834832
 20
31.42405941695728
 30
0.0
 11
73.16815224533184
 21
33.2500002339408
 31
0.0
  0
LINE
  5
40C
330
311
100
AcDbEntity
  8
0
 62
     0
100
AcDbLine
 10
57.06815224533182
 20
17.15000023394077
 30
0.0
 11
62.79298045730673
 21
22.87482844591563
 31
0.0
  0
LINE
  5
40D
330
311
100
AcDbEntity
  8
0
 62
     0
100
AcDbLine
 10
65.04221142834842
 20
26.02208502906421
 30
0.0
 11
67.84221142834837
 21
28.82208502906417
 31
0.0
  0
LINE
  5
40E
330
311
100
AcDbEntity
  8
0
 62
     0
100
AcDbLine
 10
60.14221142834845
 20
21.12208502906424
 30
0.0
 11
62.55239300038818
 21
23.53226660110391
 31
0.0
  0
LINE
  5
40F
330
311
100
AcDbEntity
  8
0
 62
     0
100
AcDbLine
 10
71.34221142834838
 20
32.32208502906412
 30
0.0
 11
72.27012663322506
 21
33.25000023394085
 31
0.0
  0
LINE
  5
410
330
311
100
AcDbEntity
  8
0
 62
     0
100
AcDbLine
 10
56.29838198635605
 20
17.27825558707184
 30
0.0
 11
58.97012663322493
 21
19.95000023394073
 31
0.0
  0
LINE
  5
411
330
311
100
AcDbEntity
  8
0
 62
     0
100
AcDbLine
 10
60.12234085322115
 20
22.00024006604383
 30
0.0
 11
62.22889369552763
 21
24.10679290835032
 31
0.0
  0
LINE
  5
412
330
311
100
AcDbEntity
  8
0
 62
     0
100
AcDbLine
 10
65.04221142834842
 20
26.92011064117111
 30
0.0
 11
67.84221142834844
 21
29.72011064117118
 31
0.0
  0
LINE
  5
413
330
311
100
AcDbEntity
  8
0
 62
     0
100
AcDbLine
 10
56.11721142834835
 20
17.99511064117109
 30
0.0
 11
58.07210102111799
 21
19.95000023394073
 31
0.0
  0
LINE
  5
414
330
311
100
AcDbEntity
  8
0
 62
     0
100
AcDbLine
 10
59.84795601608226
 20
22.62388084101195
 30
0.0
 11
61.83302257759982
 21
24.60894740252951
 31
0.0
  0
LINE
  5
415
330
311
100
AcDbEntity
  8
0
 62
     0
100
AcDbLine
 10
65.04221142834836
 20
27.81813625327806
 30
0.0
 11
67.84221142834844
 21
30.61813625327812
 31
0.0
  0
LINE
  5
416
330
311
100
AcDbEntity
  8
0
 62
     0
100
AcDbLine
 10
56.11721142834835
 20
18.89313625327799
 30
0.0
 11
57.1740754090111
 21
19.95000023394078
 31
0.0
  0
LINE
  5
417
330
311
100
AcDbEntity
  8
0
 62
     0
100
AcDbLine
 10
65.04221142834842
 20
28.71616186538495
 30
0.0
 11
67.84221142834849
 21
31.51616186538496
 31
0.0
  0
LINE
  5
418
330
311
100
AcDbEntity
  8
0
 62
     0
100
AcDbLine
 10
59.4066811189652
 20
23.08063155600166
 30
0.0
 11
61.38658010628756
 21
25.06053054332409
 31
0.0
  0
LINE
  5
419
330
311
100
AcDbEntity
  8
0
 62
     0
100
AcDbLine
 10
58.95766831291172
 20
23.52964436205514
 30
0.0
 11
60.93756730023404
 21
25.50954334937745
 31
0.0
  0
LINE
  5
41A
330
311
100
AcDbEntity
  8
0
 62
     0
100
AcDbLine
 10
65.04221142834836
 20
29.61418747749184
 30
0.0
 11
67.84221142834844
 21
32.41418747749191
 31
0.0
  0
LINE
  5
41B
330
311
100
AcDbEntity
  8
0
 62
     0
100
AcDbLine
 10
52.5780241847973
 20
17.15000023394077
 30
0.0
 11
53.49221142834841
 21
18.06418747749183
 31
0.0
  0
LINE
  5
41C
330
311
100
AcDbEntity
  8
0
 62
     0
100
AcDbLine
 10
58.5086555068583
 20
23.97865716810873
 30
0.0
 11
60.48855449418056
 21
25.95855615543093
 31
0.0
  0
LINE
  5
41D
330
311
100
AcDbEntity
  8
0
 62
     0
100
AcDbLine
 10
65.04221142834836
 20
30.51221308959879
 30
0.0
 11
67.65603052024977
 21
33.12603218150014
 31
0.0
  0
LINE
  5
41E
330
311
100
AcDbEntity
  8
0
 62
     0
100
AcDbLine
 10
51.67999857269029
 20
17.15000023394071
 30
0.0
 11
53.49221142834835
 21
18.96221308959878
 31
0.0
  0
LINE
  5
41F
330
311
100
AcDbEntity
  8
0
 62
     0
100
AcDbLine
 10
58.05964270080477
 20
24.42766997416209
 30
0.0
 11
60.03954168812708
 21
26.4075689614844
 31
0.0
  0
LINE
  5
420
330
311
100
AcDbEntity
  8
0
 62
     0
100
AcDbLine
 10
65.04221142834836
 20
31.41023870170568
 30
0.0
 11
66.88197296058342
 21
33.2500002339408
 31
0.0
  0
LINE
  5
421
330
311
100
AcDbEntity
  8
0
 62
     0
100
AcDbLine
 10
50.89358409844539
 20
17.2616113718027
 30
0.0
 11
53.49221142834841
 21
19.86023870170578
 31
0.0
  0
LINE
  5
422
330
311
100
AcDbEntity
  8
0
 62
     0
100
AcDbLine
 10
57.61062989475135
 20
24.8766827802155
 30
0.0
 11
59.59052888207367
 21
26.85658176753782
 31
0.0
  0
LINE
  5
423
330
311
100
AcDbEntity
  8
0
 62
     0
100
AcDbLine
 10
65.04221142834836
 20
32.30826431381257
 30
0.0
 11
65.98394734847665
 21
33.2500002339408
 31
0.0
  0
LINE
  5
424
330
311
100
AcDbEntity
  8
0
 62
     0
100
AcDbLine
 10
50.69221142834845
 20
17.95826431381266
 30
0.0
 11
53.49221142834847
 21
20.75826431381262
 31
0.0
  0
LINE
  5
425
330
311
100
AcDbEntity
  8
0
 62
     0
100
AcDbLine
 10
57.16161708869788
 20
25.32569558626898
 30
0.0
 11
59.14151607602019
 21
27.3055945735913
 31
0.0
  0
LINE
  5
426
330
311
100
AcDbEntity
  8
0
 62
     0
100
AcDbLine
 10
50.69221142834845
 20
18.85628992591961
 30
0.0
 11
53.49221142834841
 21
21.65628992591956
 31
0.0
  0
LINE
  5
427
330
311
100
AcDbEntity
  8
0
 62
     0
100
AcDbLine
 10
56.71463318765654
 20
25.77673729733465
 30
0.0
 11
58.69860672103857
 21
27.76071083071662
 31
0.0
  0
LINE
  5
428
330
311
100
AcDbEntity
  8
0
 62
     0
100
AcDbLine
 10
50.69221142834845
 20
19.7543155380265
 30
0.0
 11
53.49221142834841
 21
22.55431553802651
 31
0.0
  0
LINE
  5
429
330
311
100
AcDbEntity
  8
0
 62
     0
100
AcDbLine
 10
61.38789612426274
 20
30.45000023394079
 30
0.0
 11
62.41721142834848
 21
31.47931553802653
 31
0.0
  0
LINE
  5
42A
330
311
100
AcDbEntity
  8
0
 62
     0
100
AcDbLine
 10
48.19955520363823
 20
17.26165931331627
 30
0.0
 11
48.28920756509325
 21
17.35131167477135
 31
0.0
  0
LINE
  5
42B
330
311
100
AcDbEntity
  8
0
 62
     0
100
AcDbLine
 10
56.31663100883457
 20
26.27676073061952
 30
0.0
 11
58.41626528625318
 21
28.37639500803812
 31
0.0
  0
LINE
  5
42C
330
311
100
AcDbEntity
  8
0
 62
     0
100
AcDbLine
 10
50.69221142834845
 20
20.65234115013339
 30
0.0
 11
53.49221142834847
 21
23.45234115013335
 31
0.0
  0
LINE
  5
42D
330
311
100
AcDbEntity
  8
0
 62
     0
100
AcDbLine
 10
60.48987051215584
 20
30.45000023394079
 30
0.0
 11
62.41721142834842
 21
32.3773411501333
 31
0.0
  0
LINE
  5
42E
330
311
100
AcDbEntity
  8
0
 62
     0
100
AcDbLine
 10
47.18987051215577
 20
17.15000023394071
 30
0.0
 11
48.25564960846225
 21
18.21577933024713
 31
0.0
  0
LINE
  5
42F
330
311
100
AcDbEntity
  8
0
 62
     0
100
AcDbLine
 10
55.99079674443789
 20
26.84895207832977
 30
0.0
 11
58.3922114283485
 21
29.25036676224033
 31
0.0
  0
LINE
  5
430
330
311
100
AcDbEntity
  8
0
 62
     0
100
AcDbLine
 10
50.69221142834845
 20
21.55036676224029
 30
0.0
 11
53.49221142834841
 21
24.3503667622403
 31
0.0
  0
LINE
  5
431
330
311
100
AcDbEntity
  8
0
 62
     0
100
AcDbLine
 10
59.59184490004895
 20
30.45000023394079
 30
0.0
 11
62.25054249655056
 21
33.10869783044245
 31
0.0
  0
LINE
  5
432
330
311
100
AcDbEntity
  8
0
 62
     0
100
AcDbLine
 10
46.29184490004888
 20
17.15000023394071
 30
0.0
 11
48.04012346155662
 21
18.8982787954485
 31
0.0
  0
LINE
  5
433
330
311
100
AcDbEntity
  8
0
 62
     0
100
AcDbLine
 10
50.6922114283484
 20
22.44839237434724
 30
0.0
 11
53.49221142834841
 21
25.24839237434719
 31
0.0
  0
LINE
  5
434
330
311
100
AcDbEntity
  8
0
 62
     0
100
AcDbLine
 10
55.74741468176779
 20
27.50359562776663
 30
0.0
 11
61.49381928794207
 21
33.25000023394085
 31
0.0
  0
LINE
  5
435
330
311
100
AcDbEntity
  8
0
 62
     0
100
AcDbLine
 10
45.6998305893938
 20
17.45601153539263
 30
0.0
 11
47.82459731465093
 21
19.58077826064976
 31
0.0
  0
LINE
  5
436
330
311
100
AcDbEntity
  8
0
 62
     0
100
AcDbLine
 10
50.6922114283484
 20
23.34641798645419
 30
0.0
 11
53.49221142834835
 21
26.14641798645414
 31
0.0
  0
LINE
  5
437
330
311
100
AcDbEntity
  8
0
 62
     0
100
AcDbLine
 10
55.6087078226821
 20
28.26291438078789
 30
0.0
 11
60.59579367583513
 21
33.25000023394091
 31
0.0
  0
LINE
  5
438
330
311
100
AcDbEntity
  8
0
 62
     0
100
AcDbLine
 10
45.48107116774519
 20
18.13527772585098
 30
0.0
 11
47.60907116774518
 21
20.26327772585097
 31
0.0
  0
LINE
  5
439
330
311
100
AcDbEntity
  8
0
 62
     0
100
AcDbLine
 10
50.69221142834845
 20
24.24444359856102
 30
0.0
 11
53.49221142834841
 21
27.04444359856103
 31
0.0
  0
LINE
  5
43A
330
311
100
AcDbEntity
  8
0
 62
     0
100
AcDbLine
 10
55.59221142834843
 20
29.144443598561
 30
0.0
 11
59.69776806372817
 21
33.2500002339408
 31
0.0
  0
LINE
  5
43B
330
311
100
AcDbEntity
  8
0
 62
     0
100
AcDbLine
 10
45.26554502083956
 20
18.81777719105219
 30
0.0
 11
47.39354502083966
 21
20.94577719105223
 31
0.0
  0
LINE
  5
43C
330
311
100
AcDbEntity
  8
0
 62
     0
100
AcDbLine
 10
50.6922114283484
 20
25.14246921066797
 30
0.0
 11
53.49221142834841
 21
27.94246921066792
 31
0.0
  0
LINE
  5
43D
330
311
100
AcDbEntity
  8
0
 62
     0
100
AcDbLine
 10
55.59221142834849
 20
30.042469210668
 30
0.0
 11
58.79974245162128
 21
33.2500002339408
 31
0.0
  0
LINE
  5
43E
330
311
100
AcDbEntity
  8
0
 62
     0
100
AcDbLine
 10
45.05001887393382
 20
19.50027665625339
 30
0.0
 11
47.17801887393398
 21
21.62827665625349
 31
0.0
  0
LINE
  5
43F
330
311
100
AcDbEntity
  8
0
 62
     0
100
AcDbLine
 10
50.6922114283484
 20
26.04049482277486
 30
0.0
 11
53.49221142834835
 21
28.84049482277487
 31
0.0
  0
LINE
  5
440
330
311
100
AcDbEntity
  8
0
 62
     0
100
AcDbLine
 10
44.83449272702819
 20
20.18277612145471
 30
0.0
 11
46.96249272702829
 21
22.31077612145475
 31
0.0
  0
LINE
  5
441
330
311
100
AcDbEntity
  8
0
 62
     0
100
AcDbLine
 10
55.64552809846964
 20
30.99381149289616
 30
0.0
 11
57.84840016939296
 21
33.19668356381948
 31
0.0
  0
LINE
  5
442
330
311
100
AcDbEntity
  8
0
 62
     0
100
AcDbLine
 10
41.80171683951431
 20
17.15000023394077
 30
0.0
 11
42.64221142834839
 21
17.9904948227749
 31
0.0
  0
LINE
  5
443
330
311
100
AcDbEntity
  8
0
 62
     0
100
AcDbLine
 10
44.61896658012261
 20
20.86527558665591
 30
0.0
 11
46.74696658012254
 21
22.9932755866559
 31
0.0
  0
LINE
  5
444
330
311
100
AcDbEntity
  8
0
 62
     0
100
AcDbLine
 10
50.6922114283484
 20
26.93852043488175
 30
0.0
 11
53.49221142834841
 21
29.73852043488171
 31
0.0
  0
LINE
  5
445
330
311
100
AcDbEntity
  8
0
 62
     0
100
AcDbLine
 10
40.90369122740741
 20
17.15000023394077
 30
0.0
 11
42.64221142834844
 21
18.8885204348818
 31
0.0
  0
LINE
  5
446
330
311
100
AcDbEntity
  8
0
 62
     0
100
AcDbLine
 10
44.40344043321693
 20
21.54777505185717
 30
0.0
 11
46.53144043321697
 21
23.67577505185727
 31
0.0
  0
LINE
  5
447
330
311
100
AcDbEntity
  8
0
 62
     0
100
AcDbLine
 10
50.6922114283484
 20
27.8365460469887
 30
0.0
 11
53.49221142834835
 21
30.63654604698866
 31
0.0
  0
LINE
  5
448
330
311
100
AcDbEntity
  8
0
 62
     0
100
AcDbLine
 10
40.08681536295171
 20
17.23114998159201
 30
0.0
 11
42.64221142834844
 21
19.78654604698869
 31
0.0
  0
LINE
  5
449
330
311
100
AcDbEntity
  8
0
 62
     0
100
AcDbLine
 10
44.18791428631124
 20
22.23027451705843
 30
0.0
 11
46.31591428631128
 21
24.35827451705853
 31
0.0
  0
LINE
  5
44A
330
311
100
AcDbEntity
  8
0
 62
     0
100
AcDbLine
 10
50.6922114283484
 20
28.7345716590956
 30
0.0
 11
53.49221142834835
 21
31.53457165909561
 31
0.0
  0
LINE
  5
44B
330
311
100
AcDbEntity
  8
0
 62
     0
100
AcDbLine
 10
39.84221142834844
 20
17.88457165909562
 30
0.0
 11
42.64221142834839
 21
20.68457165909564
 31
0.0
  0
LINE
  5
44C
330
311
100
AcDbEntity
  8
0
 62
     0
100
AcDbLine
 10
43.9723881394056
 20
22.91277398225964
 30
0.0
 11
46.10038813940565
 21
25.04077398225974
 31
0.0
  0
LINE
  5
44D
330
311
100
AcDbEntity
  8
0
 62
     0
100
AcDbLine
 10
50.6922114283484
 20
29.63259727120249
 30
0.0
 11
53.49221142834835
 21
32.43259727120244
 31
0.0
  0
LINE
  5
44E
330
311
100
AcDbEntity
  8
0
 62
     0
100
AcDbLine
 10
39.84221142834844
 20
18.78259727120252
 30
0.0
 11
42.64221142834844
 21
21.58259727120247
 31
0.0
  0
LINE
  5
44F
330
311
100
AcDbEntity
  8
0
 62
     0
100
AcDbLine
 10
43.73758935243387
 20
23.57600080739491
 30
0.0
 11
46.36788342036476
 21
26.2062948753258
 31
0.0
  0
LINE
  5
450
330
311
100
AcDbEntity
  8
0
 62
     0
100
AcDbLine
 10
50.69221142834845
 20
30.53062288330949
 30
0.0
 11
53.29593600585003
 21
33.134347460811
 31
0.0
  0
LINE
  5
451
330
311
100
AcDbEntity
  8
0
 62
     0
100
AcDbLine
 10
39.84221142834844
 20
19.68062288330947
 30
0.0
 11
42.64221142834839
 21
22.48062288330942
 31
0.0
  0
LINE
  5
452
330
311
100
AcDbEntity
  8
0
 62
     0
100
AcDbLine
 10
43.05040398256648
 20
23.78684104963446
 30
0.0
 11
46.7823567797987
 21
27.51879384686669
 31
0.0
  0
LINE
  5
453
330
311
100
AcDbEntity
  8
0
 62
     0
100
AcDbLine
 10
39.84221142834844
 20
20.57864849541636
 30
0.0
 11
42.65537061265473
 21
23.39180767972266
 31
0.0
  0
LINE
  5
454
330
311
100
AcDbEntity
  8
0
 62
     0
100
AcDbLine
 10
50.69221142834845
 20
31.42864849541638
 30
0.0
 11
52.51356316687282
 21
33.2500002339408
 31
0.0
  0
LINE
  5
455
330
311
100
AcDbEntity
  8
0
 62
     0
100
AcDbLine
 10
36.41356316687279
 20
17.15000023394071
 30
0.0
 11
37.39221142834845
 21
18.12864849541643
 31
0.0
  0
LINE
  5
456
330
311
100
AcDbEntity
  8
0
 62
     0
100
AcDbLine
 10
39.84221142834838
 20
21.47667410752331
 30
0.0
 11
47.19683013923265
 21
28.83129281840752
 31
0.0
  0
LINE
  5
457
330
311
100
AcDbEntity
  8
0
 62
     0
100
AcDbLine
 10
50.6922114283484
 20
32.32667410752333
 30
0.0
 11
51.61553755476586
 21
33.2500002339408
 31
0.0
  0
LINE
  5
458
330
311
100
AcDbEntity
  8
0
 62
     0
100
AcDbLine
 10
35.51553755476585
 20
17.15000023394077
 30
0.0
 11
37.39221142834845
 21
19.02667410752338
 31
0.0
  0
LINE
  5
459
330
311
100
AcDbEntity
  8
0
 62
     0
100
AcDbLine
 10
39.84221142834844
 20
22.37469971963014
 30
0.0
 11
47.6113034986667
 21
30.14379178994841
 31
0.0
  0
LINE
  5
45A
330
311
100
AcDbEntity
  8
0
 62
     0
100
AcDbLine
 10
34.62919256700906
 20
17.16168085829082
 30
0.0
 11
37.25087714474228
 21
19.78336543602398
 31
0.0
  0
LINE
  5
45B
330
311
100
AcDbEntity
  8
0
 62
     0
100
AcDbLine
 10
39.84221142834838
 20
23.27272533173709
 30
0.0
 11
43.16948633055204
 21
26.60000023394076
 31
0.0
  0
LINE
  5
45C
330
311
100
AcDbEntity
  8
0
 62
     0
100
AcDbLine
 10
43.93346916579275
 20
27.36398306918147
 30
0.0
 11
48.0257768581007
 21
31.45629076148936
 31
0.0
  0
LINE
  5
45D
330
311
100
AcDbEntity
  8
0
 62
     0
100
AcDbLine
 10
33.86103204956209
 20
17.29154595295074
 30
0.0
 11
36.51948633055213
 21
19.95000023394078
 31
0.0
  0
LINE
  5
45E
330
311
100
AcDbEntity
  8
0
 62
     0
100
AcDbLine
 10
39.84221142834838
 20
24.17075094384404
 30
0.0
 11
42.6602019990567
 21
26.98874151455232
 31
0.0
  0
LINE
  5
45F
330
311
100
AcDbEntity
  8
0
 62
     0
100
AcDbLine
 10
44.3479425252267
 20
28.67648204072231
 30
0.0
 11
48.40084830990207
 21
32.72938782539774
 31
0.0
  0
LINE
  5
460
330
311
100
AcDbEntity
  8
0
 62
     0
100
AcDbLine
 10
33.19989779273567
 20
17.52843730823133
 30
0.0
 11
35.62146071844518
 21
19.95000023394084
 31
0.0
  0
LINE
  5
461
330
311
100
AcDbEntity
  8
0
 62
     0
100
AcDbLine
 10
39.84221142834844
 20
25.06877655595088
 30
0.0
 11
42.64221142834844
 21
27.86877655595095
 31
0.0
  0
LINE
  5
462
330
311
100
AcDbEntity
  8
0
 62
     0
100
AcDbLine
 10
44.76241588466064
 20
29.98898101226314
 30
0.0
 11
48.00683643733288
 21
33.23340156493538
 31
0.0
  0
LINE
  5
463
330
311
100
AcDbEntity
  8
0
 62
     0
100
AcDbLine
 10
32.62229450857137
 20
17.84885963617381
 30
0.0
 11
34.73835636706423
 21
19.96492149466672
 31
0.0
  0
LINE
  5
464
330
311
100
AcDbEntity
  8
0
 62
     0
100
AcDbLine
 10
39.84221142834838
 20
25.96680216805783
 30
0.0
 11
42.64221142834844
 21
28.7668021680579
 31
0.0
  0
LINE
  5
465
330
311
100
AcDbEntity
  8
0
 62
     0
100
AcDbLine
 10
45.17688924409464
 20
31.30147998380409
 30
0.0
 11
47.12540949423135
 21
33.2500002339408
 31
0.0
  0
LINE
  5
466
330
311
100
AcDbEntity
  8
0
 62
     0
100
AcDbLine
 10
32.11733954218932
 20
18.2419302818987
 30
0.0
 11
34.10404022604593
 21
20.22863096575532
 31
0.0
  0
LINE
  5
467
330
311
100
AcDbEntity
  8
0
 62
     0
100
AcDbLine
 10
39.84221142834838
 20
26.86482778016472
 30
0.0
 11
42.64221142834844
 21
29.66482778016479
 31
0.0
  0
LINE
  5
468
330
311
100
AcDbEntity
  8
0
 62
     0
100
AcDbLine
 10
36.50384556012489
 20
23.52646191194128
 30
0.0
 11
37.66574975034797
 21
24.68836610216437
 31
0.0
  0
LINE
  5
469
330
311
100
AcDbEntity
  8
0
 62
     0
100
AcDbLine
 10
45.59136260352858
 20
32.61397895534498
 30
0.0
 11
46.22738388212446
 21
33.25000023394085
 31
0.0
  0
LINE
  5
46A
330
311
100
AcDbEntity
  8
0
 62
     0
100
AcDbLine
 10
31.68090246885947
 20
18.70351882067587
 30
0.0
 11
33.69378927477374
 21
20.71640562659013
 31
0.0
  0
LINE
  5
46B
330
311
100
AcDbEntity
  8
0
 62
     0
100
AcDbLine
 10
35.57887271849506
 20
23.49951468241841
 30
0.0
 11
37.69269697987084
 21
25.61333894379413
 31
0.0
  0
LINE
  5
46C
330
311
100
AcDbEntity
  8
0
 62
     0
100
AcDbLine
 10
39.84221142834832
 20
27.76285339227167
 30
0.0
 11
42.64221142834839
 21
30.56285339227173
 31
0.0
  0
LINE
  5
46D
330
311
100
AcDbEntity
  8
0
 62
     0
100
AcDbLine
 10
31.31388324391651
 20
19.23452520783979
 30
0.0
 11
33.54221142834842
 21
21.46285339227177
 31
0.0
  0
LINE
  5
46E
330
311
100
AcDbEntity
  8
0
 62
     0
100
AcDbLine
 10
34.96472614907486
 20
23.78339372510499
 30
0.0
 11
37.40881793718421
 21
26.22748551321439
 31
0.0
  0
LINE
  5
46F
330
311
100
AcDbEntity
  8
0
 62
     0
100
AcDbLine
 10
39.84221142834838
 20
28.66087900437856
 30
0.0
 11
42.64221142834844
 21
31.46087900437857
 31
0.0
  0
LINE
  5
470
330
311
100
AcDbEntity
  8
0
 62
     0
100
AcDbLine
 10
31.02256573399177
 20
19.84123331002195
 30
0.0
 11
33.54221142834842
 21
22.3608790043786
 31
0.0
  0
LINE
  5
471
330
311
100
AcDbEntity
  8
0
 62
     0
100
AcDbLine
 10
34.52676622208514
 20
24.24345941022227
 30
0.0
 11
36.94875225206698
 21
26.66544544020406
 31
0.0
  0
LINE
  5
472
330
311
100
AcDbEntity
  8
0
 62
     0
100
AcDbLine
 10
39.84221142834838
 20
29.55890461648545
 30
0.0
 11
42.64221142834839
 21
32.35890461648552
 31
0.0
  0
LINE
  5
473
330
311
100
AcDbEntity
  8
0
 62
     0
100
AcDbLine
 10
30.82142836981712
 20
20.53812155795424
 30
0.0
 11
33.54221142834842
 21
23.25890461648555
 31
0.0
  0
LINE
  5
474
330
311
100
AcDbEntity
  8
0
 62
     0
100
AcDbLine
 10
34.27071548967678
 20
24.8854342899208
 30
0.0
 11
36.3067773723684
 21
26.92149617261248
 31
0.0
  0
LINE
  5
475
330
311
100
AcDbEntity
  8
0
 62
     0
100
AcDbLine
 10
30.74221142834836
 20
21.35693022859243
 30
0.0
 11
33.54221142834842
 21
24.15693022859244
 31
0.0
  0
LINE
  5
476
330
311
100
AcDbEntity
  8
0
 62
     0
100
AcDbLine
 10
39.84221142834832
 20
30.4569302285924
 30
0.0
 11
42.48496131999331
 21
33.0996801202374
 31
0.0
  0
LINE
  5
477
330
311
100
AcDbEntity
  8
0
 62
     0
100
AcDbLine
 10
26.65621467047277
 20
17.27093347071684
 30
0.0
 11
28.52127819157249
 21
19.13599699181657
 31
0.0
  0
LINE
  5
478
330
311
100
AcDbEntity
  8
0
 62
     0
100
AcDbLine
 10
34.38912857315756
 20
25.90187298550848
 30
0.0
 11
35.29033867678078
 21
26.80308308913169
 31
0.0
  0
LINE
  5
479
330
311
100
AcDbEntity
  8
0
 62
     0
100
AcDbLine
 10
30.74221142834836
 20
22.25495584069927
 30
0.0
 11
33.54221142834842
 21
25.05495584069934
 31
0.0
  0
LINE
  5
47A
330
311
100
AcDbEntity
  8
0
 62
     0
100
AcDbLine
 10
39.84221142834838
 20
31.35495584069924
 30
0.0
 11
41.73725582158994
 21
33.25000023394085
 31
0.0
  0
LINE
  5
47B
330
311
100
AcDbEntity
  8
0
 62
     0
100
AcDbLine
 10
25.6372558215898
 20
17.15000023394071
 30
0.0
 11
28.64221142834845
 21
20.15495584069936
 31
0.0
  0
LINE
  5
47C
330
311
100
AcDbEntity
  8
0
 62
     0
100
AcDbLine
 10
30.74221142834836
 20
23.15298145280622
 30
0.0
 11
33.54221142834842
 21
25.95298145280628
 31
0.0
  0
LINE
  5
47D
330
311
100
AcDbEntity
  8
0
 62
     0
100
AcDbLine
 10
39.84221142834832
 20
32.25298145280618
 30
0.0
 11
40.83923020948293
 21
33.2500002339408
 31
0.0
  0
LINE
  5
47E
330
311
100
AcDbEntity
  8
0
 62
     0
100
AcDbLine
 10
24.73923020948291
 20
17.15000023394071
 30
0.0
 11
28.64221142834845
 21
21.05298145280631
 31
0.0
  0
LINE
  5
47F
330
311
100
AcDbEntity
  8
0
 62
     0
100
AcDbLine
 10
30.74221142834836
 20
24.05100706491311
 30
0.0
 11
33.54221142834837
 21
26.85100706491318
 31
0.0
  0
LINE
  5
480
330
311
100
AcDbEntity
  8
0
 62
     0
100
AcDbLine
 10
23.84120459737596
 20
17.15000023394077
 30
0.0
 11
28.63827207578726
 21
21.94706771235207
 31
0.0
  0
LINE
  5
481
330
311
100
AcDbEntity
  8
0
 62
     0
100
AcDbLine
 10
30.74221142834836
 20
24.94903267702006
 30
0.0
 11
33.54221142834842
 21
27.74903267702013
 31
0.0
  0
LINE
  5
482
330
311
100
AcDbEntity
  8
0
 62
     0
100
AcDbLine
 10
36.24317898526914
 20
30.45000023394084
 30
0.0
 11
37.3922114283485
 21
31.59903267702015
 31
0.0
  0
LINE
  5
483
330
311
100
AcDbEntity
  8
0
 62
     0
100
AcDbLine
 10
22.94317898526907
 20
17.15000023394077
 30
0.0
 11
28.52861023946593
 21
22.73543148813764
 31
0.0
  0
LINE
  5
484
330
311
100
AcDbEntity
  8
0
 62
     0
100
AcDbLine
 10
30.74221142834836
 20
25.84705828912695
 30
0.0
 11
33.54221142834842
 21
28.64705828912696
 31
0.0
  0
LINE
  5
485
330
311
100
AcDbEntity
  8
0
 62
     0
100
AcDbLine
 10
25.84221142834844
 20
20.94705828912703
 30
0.0
 11
28.30627149542181
 21
23.4111183562004
 31
0.0
  0
LINE
  5
486
330
311
100
AcDbEntity
  8
0
 62
     0
100
AcDbLine
 10
35.34515337316213
 20
30.45000023394073
 30
0.0
 11
37.39221142834845
 21
32.49705828912704
 31
0.0
  0
LINE
  5
487
330
311
100
AcDbEntity
  8
0
 62
     0
100
AcDbLine
 10
22.10287924842209
 20
17.20772610920068
 30
0.0
 11
24.84515337316214
 21
19.95000023394073
 31
0.0
  0
LINE
  5
488
330
311
100
AcDbEntity
  8
0
 62
     0
100
AcDbLine
 10
30.7422114283483
 20
26.74508390123384
 30
0.0
 11
33.70802613412809
 21
29.71089860701363
 31
0.0
  0
LINE
  5
489
330
311
100
AcDbEntity
  8
0
 62
     0
100
AcDbLine
 10
25.84005233673918
 20
21.84292480962466
 30
0.0
 11
27.99783996074979
 21
24.00071243363533
 31
0.0
  0
LINE
  5
48A
330
311
100
AcDbEntity
  8
0
 62
     0
100
AcDbLine
 10
34.28131305527563
 20
30.28418552816118
 30
0.0
 11
37.15874401342865
 21
33.16161648631413
 31
0.0
  0
LINE
  5
48B
330
311
100
AcDbEntity
  8
0
 62
     0
100
AcDbLine
 10
21.81721142834835
 20
17.82008390123388
 30
0.0
 11
23.9471277610553
 21
19.95000023394084
 31
0.0
  0
LINE
  5
48C
330
311
100
AcDbEntity
  8
0
 62
     0
100
AcDbLine
 10
25.62044931723847
 20
22.52134740223096
 30
0.0
 11
27.61559799591089
 21
24.51649608090338
 31
0.0
  0
LINE
  5
48D
330
311
100
AcDbEntity
  8
0
 62
     0
100
AcDbLine
 10
30.7422114283483
 20
27.64310951334079
 30
0.0
 11
36.34910214894836
 21
33.25000023394085
 31
0.0
  0
LINE
  5
48E
330
311
100
AcDbEntity
  8
0
 62
     0
100
AcDbLine
 10
21.81721142834835
 20
18.71810951334083
 30
0.0
 11
23.04910214894829
 21
19.95000023394078
 31
0.0
  0
LINE
  5
48F
330
311
100
AcDbEntity
  8
0
 62
     0
100
AcDbLine
 10
25.19419448893376
 20
22.99311818603309
 30
0.0
 11
27.17409347625614
 21
24.97301717335546
 31
0.0
  0
LINE
  5
490
330
311
100
AcDbEntity
  8
0
 62
     0
100
AcDbLine
 10
30.74221142834836
 20
28.54113512544762
 30
0.0
 11
35.45107653684141
 21
33.25000023394074
 31
0.0
  0
LINE
  5
491
330
311
100
AcDbEntity
  8
0
 62
     0
100
AcDbLine
 10
21.88616335036818
 20
19.6850870474675
 30
0.0
 11
22.0821246148218
 21
19.88104831192112
 31
0.0
  0
LINE
  5
492
330
311
100
AcDbEntity
  8
0
 62
     0
100
AcDbLine
 10
30.76218654250494
 20
29.45913585171116
 30
0.0
 11
34.53307581057794
 21
33.23002511978422
 31
0.0
  0
LINE
  5
493
330
311
100
AcDbEntity
  8
0
 62
     0
100
AcDbLine
 10
24.74518168288017
 20
23.44213099208645
 30
0.0
 11
26.72508067020266
 21
25.42202997940893
 31
0.0
  0
LINE
  5
494
330
311
100
AcDbEntity
  8
0
 62
     0
100
AcDbLine
 10
31.06164997477072
 20
30.65662489608394
 30
0.0
 11
33.33558676620521
 21
32.93056168751844
 31
0.0
  0
LINE
  5
495
330
311
100
AcDbEntity
  8
0
 62
     0
100
AcDbLine
 10
24.2961688768267
 20
23.89114379813992
 30
0.0
 11
26.27606786414919
 21
25.87104278546241
 31
0.0
  0
LINE
  5
496
330
311
100
AcDbEntity
  8
0
 62
     0
100
AcDbLine
 10
23.84715607077345
 20
24.34015660419351
 30
0.0
 11
25.82705505809571
 21
26.32005559151571
 31
0.0
  0
LINE
  5
497
330
311
100
AcDbEntity
  8
0
 62
     0
100
AcDbLine
 10
23.39814326471998
 20
24.78916941024698
 30
0.0
 11
25.37804225204224
 21
26.76906839756919
 31
0.0
  0
LINE
  5
498
330
311
100
AcDbEntity
  8
0
 62
     0
100
AcDbLine
 10
22.94913045866633
 20
25.23818221630029
 30
0.0
 11
24.92902944598882
 21
27.21808120362278
 31
0.0
  0
LINE
  5
499
330
311
100
AcDbEntity
  8
0
 62
     0
100
AcDbLine
 10
27.26292286419994
 20
30.45000023394084
 30
0.0
 11
28.1172114283483
 21
31.30428879808921
 31
0.0
  0
LINE
  5
49A
330
311
100
AcDbEntity
  8
0
 62
     0
100
AcDbLine
 10
22.5002009666411
 20
25.68727833638201
 30
0.0
 11
24.48026661007356
 21
27.66734397981446
 31
0.0
  0
LINE
  5
49B
330
311
100
AcDbEntity
  8
0
 62
     0
100
AcDbLine
 10
26.36489725209299
 20
30.45000023394073
 30
0.0
 11
28.11721142834841
 21
32.20231441019616
 31
0.0
  0
LINE
  5
49C
330
311
100
AcDbEntity
  8
0
 62
     0
100
AcDbLine
 10
22.08873304208953
 20
26.17383602393721
 30
0.0
 11
24.15036972878562
 21
28.23547271063336
 31
0.0
  0
LINE
  5
49D
330
311
100
AcDbEntity
  8
0
 62
     0
100
AcDbLine
 10
25.46687163998615
 20
30.45000023394079
 30
0.0
 11
28.03065252858727
 21
33.01378112254196
 31
0.0
  0
LINE
  5
49E
330
311
100
AcDbEntity
  8
0
 62
     0
100
AcDbLine
 10
21.74827243582706
 20
26.7314010297817
 30
0.0
 11
24.09221142834838
 21
29.07534002230307
 31
0.0
  0
LINE
  5
49F
330
311
100
AcDbEntity
  8
0
 62
     0
100
AcDbLine
 10
24.56637937870903
 20
30.44753358477061
 30
0.0
 11
27.36884602787922
 21
33.2500002339408
 31
0.0
  0
LINE
  5
4A0
330
311
100
AcDbEntity
  8
0
 62
     0
100
AcDbLine
 10
21.48757914009497
 20
27.36873334615655
 30
0.0
 11
24.09467807751855
 21
29.97583228358019
 31
0.0
  0
LINE
  5
4A1
330
311
100
AcDbEntity
  8
0
 62
     0
100
AcDbLine
 10
21.3257671778469
 20
28.10494699601537
 30
0.0
 11
26.47082041577232
 21
33.2500002339408
 31
0.0
  0
LINE
  5
4A2
330
311
100
AcDbEntity
  8
0
 62
     0
100
AcDbLine
 10
21.29221142834842
 20
28.96941685862379
 30
0.0
 11
25.57279480366537
 21
33.2500002339408
 31
0.0
  0
LINE
  5
4A3
330
311
100
AcDbEntity
  8
0
 62
     0
100
AcDbLine
 10
21.29221142834837
 20
29.86744247073074
 30
0.0
 11
24.67476919155848
 21
33.2500002339408
 31
0.0
  0
LINE
  5
4A4
330
311
100
AcDbEntity
  8
0
 62
     0
100
AcDbLine
 10
21.3124034387867
 20
30.78566009327597
 30
0.0
 11
23.75655156901331
 21
33.22980822350257
 31
0.0
  0
ENDBLK
  5
4A6
330
311
100
AcDbEntity
  8
0
100
AcDbBlockEnd
  0
BLOCK
  5
1D14
330
1D13
100
AcDbEntity
  8
0
100
AcDbBlockBegin
  2
_Open30
 70
     0
 10
0.0
 20
0.0
 30
0.0
  3
_Open30
  1

  0
LINE
  5
1D15
330
1D13
100
AcDbEntity
  8
図枠
 62
     0
370
    -2
100
AcDbLine
 10
-1.0
 20
0.26794919
 30
0.0
 11
0.0
 21
0.0
 31
0.0
  0
LINE
  5
1D16
330
1D13
100
AcDbEntity
  8
図枠
 62
     0
370
    -2
100
AcDbLine
 10
0.0
 20
0.0
 30
0.0
 11
-1.0
 21
-0.26794919
 31
0.0
  0
LINE
  5
1D17
330
1D13
100
AcDbEntity
  8
図枠
 62
     0
370
    -2
100
AcDbLine
 10
0.0
 20
0.0
 30
0.0
 11
-1.0
 21
0.0
 31
0.0
  0
ENDBLK
  5
1D18
330
1D13
100
AcDbEntity
  8
0
100
AcDbBlockEnd
  0
BLOCK
  5
1D1A
330
1D19
100
AcDbEntity
  8
0
100
AcDbBlockBegin
  2
SW_NOTE_1
 70
     0
 10
0.0
 20
0.0
 30
0.0
  3
SW_NOTE_1
  1

  0
MTEXT
  5
1D1B
330
1D19
100
AcDbEntity
  8
0
  6
Continuous
 62
     0
370
     0
100
AcDbMText
 10
7.054687499999934
 20
4.511737089201877
 30
0.0
 40
3.5
 41
0.0
 71
     2
 72
     1
  1
断面図
  7
SLDTEXTSTYLE0
 73
     1
 44
1.0
1001
ACAD
1000
MTEXTBEGIN
1070
    73
1070
     1
1070
    44
1040
1.0
1070
    74
1070
     0
1000
MTEXTEND
  0
MTEXT
  5
1D1C
330
1D19
100
AcDbEntity
  8
0
  6
Continuous
 62
     0
370
     0
100
AcDbMText
 10
19.65104140341278
 20
4.963820391863653
 30
0.0
 40
3.5
 41
0.0
 71
     2
 72
     1
  1
B-B
  7
SLDTEXTSTYLE1
 73
     1
 44
1.0
1001
ACAD
1000
MTEXTBEGIN
1070
    73
1070
     1
1070
    44
1040
1.0
1070
    74
1070
     0
1000
MTEXTEND
  0
MTEXT
  5
1D1D
330
1D19
100
AcDbEntity
  8
0
  6
Continuous
 62
     0
370
     0
100
AcDbMText
 10
6.210070505738185
 20
0.0117370500863356
 30
0.0
 40
3.5
 41
0.0
 71
     2
 72
     1
  1
ｽｹｰﾙ
  7
SLDTEXTSTYLE1
 73
     1
 44
1.0
1001
ACAD
1000
MTEXTBEGIN
1070
    73
1070
     1
1070
    44
1040
1.0
1070
    74
1070
     0
1000
MTEXTEND
  0
MTEXT
  5
1D1E
330
1D19
100
AcDbEntity
  8
0
  6
Continuous
 62
     0
370
     0
100
AcDbMText
 10
17.31041749566797
 20
0.0117370500863356
 30
0.0
 40
3.5
 41
0.0
 71
     2
 72
     1
  1
1 : 1
  7
SLDTEXTSTYLE2
 73
     1
 44
1.0
1001
ACAD
1000
MTEXTBEGIN
1070
    73
1070
     1
1070
    44
1040
1.0
1070
    74
1070
     0
1000
MTEXTEND
  0
ENDBLK
  5
1D1F
330
1D19
100
AcDbEntity
  8
0
100
AcDbBlockEnd
  0
BLOCK
  5
23E7
330
23DD
100
AcDbEntity
  8
0
100
AcDbBlockBegin
  2
*D4
 70
     1
 10
0.0
 20
0.0
 30
0.0
  3
*D4
  1

  0
LINE
  5
2F53
330
23DD
100
AcDbEntity
  8
SUNPOU
100
AcDbLine
 10
261.7616837090022
 20
363.946696033568
 30
0.0
 11
261.7616837090022
 21
392.8911841778159
 31
0.0
  0
LINE
  5
2F54
330
23DD
100
AcDbEntity
  8
SUNPOU
100
AcDbLine
 10
318.4445385998256
 20
363.946696033568
 30
0.0
 11
318.4445385998256
 21
392.8911841778159
 31
0.0
  0
LINE
  5
2F55
330
23DD
100
AcDbEntity
  8
SUNPOU
100
AcDbLine
 10
265.7616837090022
 20
391.3911841778158
 30
0.0
 11
314.4445385998256
 21
391.3911841778158
 31
0.0
  0
INSERT
  5
2F56
330
23DD
100
AcDbEntity
  8
SUNPOU
100
AcDbBlockReference
  2
_OPEN
 10
261.7616837090022
 20
391.3911841778158
 30
0.0
 41
4.0
 42
4.0
 43
4.0
 50
180.0
  0
INSERT
  5
2F57
330
23DD
100
AcDbEntity
  8
SUNPOU
100
AcDbBlockReference
  2
_OPEN
 10
318.4445385998256
 20
391.3911841778158
 30
0.0
 41
4.0
 42
4.0
 43
4.0
  0
MTEXT
  5
2F58
330
23DD
100
AcDbEntity
  8
SUNPOU
100
AcDbMText
 10
290.1031111544139
 20
395.8911841778158
 30
0.0
 40
5.0
 41
0.0
 71
     5
 72
     1
  1
\A1;\U+03C657
 73
     1
 44
1.0
1001
ACAD
1000
MTEXTBEGIN
1070
    73
1070
     1
1070
    44
1040
1.0
1070
    74
1070
     0
1000
MTEXTEND
  0
POINT
  5
2F59
330
23DD
100
AcDbEntity
  8
Defpoints
 62
     0
100
AcDbPoint
 10
261.7616837090022
 20
362.446696033568
 30
0.0
  0
POINT
  5
2F5A
330
23DD
100
AcDbEntity
  8
Defpoints
 62
     0
100
AcDbPoint
 10
318.4445385998256
 20
362.446696033568
 30
0.0
  0
POINT
  5
2F5B
330
23DD
100
AcDbEntity
  8
Defpoints
 62
     0
100
AcDbPoint
 10
318.4445385998256
 20
391.3911841778158
 30
0.0
  0
ENDBLK
  5
23E8
330
23DD
100
AcDbEntity
  8
0
100
AcDbBlockEnd
  0
BLOCK
  5
24F7
330
24ED
100
AcDbEntity
  8
0
100
AcDbBlockBegin
  2
*D5
 70
     1
 10
0.0
 20
0.0
 30
0.0
  3
*D5
  1

  0
LINE
  5
2F4A
330
24ED
100
AcDbEntity
  8
SUNPOU
100
AcDbLine
 10
261.7616837090022
 20
173.4457796121546
 30
0.0
 11
261.7616837090022
 21
137.8714950212327
 31
0.0
  0
LINE
  5
2F4B
330
24ED
100
AcDbEntity
  8
SUNPOU
100
AcDbLine
 10
318.4445385998256
 20
173.4457796121546
 30
0.0
 11
318.4445385998256
 21
137.8714950212327
 31
0.0
  0
LINE
  5
2F4C
330
24ED
100
AcDbEntity
  8
SUNPOU
100
AcDbLine
 10
265.7616837090022
 20
139.3714950212327
 30
0.0
 11
314.4445385998256
 21
139.3714950212327
 31
0.0
  0
INSERT
  5
2F4D
330
24ED
100
AcDbEntity
  8
SUNPOU
100
AcDbBlockReference
  2
_OPEN
 10
261.7616837090022
 20
139.3714950212327
 30
0.0
 41
4.0
 42
4.0
 43
4.0
 50
180.0
  0
INSERT
  5
2F4E
330
24ED
100
AcDbEntity
  8
SUNPOU
100
AcDbBlockReference
  2
_OPEN
 10
318.4445385998256
 20
139.3714950212327
 30
0.0
 41
4.0
 42
4.0
 43
4.0
  0
MTEXT
  5
2F4F
330
24ED
100
AcDbEntity
  8
SUNPOU
100
AcDbMText
 10
290.1031111544139
 20
143.8714950212327
 30
0.0
 40
5.0
 41
0.0
 71
     5
 72
     1
  1
\A1;\U+03C657
 73
     1
 44
1.0
1001
ACAD
1000
MTEXTBEGIN
1070
    73
1070
     1
1070
    44
1040
1.0
1070
    74
1070
     0
1000
MTEXTEND
  0
POINT
  5
2F50
330
24ED
100
AcDbEntity
  8
Defpoints
 62
     0
100
AcDbPoint
 10
261.7616837090022
 20
174.9457796121546
 30
0.0
  0
POINT
  5
2F51
330
24ED
100
AcDbEntity
  8
Defpoints
 62
     0
100
AcDbPoint
 10
318.4445385998256
 20
174.9457796121546
 30
0.0
  0
POINT
  5
2F52
330
24ED
100
AcDbEntity
  8
Defpoints
 62
     0
100
AcDbPoint
 10
318.4445385998256
 20
139.3714950212327
 30
0.0
  0
ENDBLK
  5
24F8
330
24ED
100
AcDbEntity
  8
0
100
AcDbBlockEnd
  0
BLOCK
  5
253E
330
2534
100
AcDbEntity
  8
0
100
AcDbBlockBegin
  2
*D6
 70
     1
 10
0.0
 20
0.0
 30
0.0
  3
*D6
  1

  0
LINE
  5
2F41
330
2534
100
AcDbEntity
  8
SUNPOU
100
AcDbLine
 10
248.6031137473651
 20
323.4062364754889
 30
0.0
 11
248.6031137473651
 21
427.9084039637223
 31
0.0
  0
LINE
  5
2F42
330
2534
100
AcDbEntity
  8
SUNPOU
100
AcDbLine
 10
331.6031133001811
 20
323.4062364754889
 30
0.0
 11
331.6031133001811
 21
427.9084039637223
 31
0.0
  0
LINE
  5
2F43
330
2534
100
AcDbEntity
  8
SUNPOU
100
AcDbLine
 10
252.6031137473651
 20
426.4084039637223
 30
0.0
 11
327.6031133001811
 21
426.4084039637223
 31
0.0
  0
INSERT
  5
2F44
330
2534
100
AcDbEntity
  8
SUNPOU
100
AcDbBlockReference
  2
_OPEN
 10
248.6031137473651
 20
426.4084039637223
 30
0.0
 41
4.0
 42
4.0
 43
4.0
 50
180.0
  0
INSERT
  5
2F45
330
2534
100
AcDbEntity
  8
SUNPOU
100
AcDbBlockReference
  2
_OPEN
 10
331.6031133001811
 20
426.4084039637223
 30
0.0
 41
4.0
 42
4.0
 43
4.0
  0
MTEXT
  5
2F46
330
2534
100
AcDbEntity
  8
SUNPOU
100
AcDbMText
 10
290.5699700673017
 20
430.9084039637223
 30
0.0
 40
5.0
 41
0.0
 71
     5
 72
     1
  1
\A1;83
 73
     1
 44
1.0
1001
ACAD
1000
MTEXTBEGIN
1070
    73
1070
     1
1070
    44
1040
1.0
1070
    74
1070
     0
1000
MTEXTEND
  0
POINT
  5
2F47
330
2534
100
AcDbEntity
  8
Defpoints
 62
     0
100
AcDbPoint
 10
248.6031137473651
 20
321.9062364754889
 30
0.0
  0
POINT
  5
2F48
330
2534
100
AcDbEntity
  8
Defpoints
 62
     0
100
AcDbPoint
 10
331.6031133001811
 20
321.9062364754889
 30
0.0
  0
POINT
  5
2F49
330
2534
100
AcDbEntity
  8
Defpoints
 62
     0
100
AcDbPoint
 10
331.6031133001811
 20
426.4084039637223
 30
0.0
  0
ENDBLK
  5
253F
330
2534
100
AcDbEntity
  8
0
100
AcDbBlockEnd
  0
BLOCK
  5
2578
330
256E
100
AcDbEntity
  8
0
100
AcDbBlockBegin
  2
*D7
 70
     1
 10
0.0
 20
0.0
 30
0.0
  3
*D7
  1

  0
LINE
  5
2F38
330
256E
100
AcDbEntity
  8
SUNPOU
100
AcDbLine
 10
319.5921857422359
 20
365.4462401772448
 30
0.0
 11
377.3353758499275
 21
365.4462401772448
 31
0.0
  0
LINE
  5
2F39
330
256E
100
AcDbEntity
  8
SUNPOU
100
AcDbLine
 10
319.5921857422359
 20
171.9462354684779
 30
0.0
 11
377.3353758499275
 21
171.9462354684778
 31
0.0
  0
LINE
  5
2F3A
330
256E
100
AcDbEntity
  8
SUNPOU
100
AcDbLine
 10
375.8353758499275
 20
361.4462401772448
 30
0.0
 11
375.8353758499275
 21
175.9462354684778
 31
0.0
  0
INSERT
  5
2F3B
330
256E
100
AcDbEntity
  8
SUNPOU
100
AcDbBlockReference
  2
_OPEN
 10
375.8353758499275
 20
365.4462401772448
 30
0.0
 41
4.0
 42
4.0
 43
4.0
 50
90.0
  0
INSERT
  5
2F3C
330
256E
100
AcDbEntity
  8
SUNPOU
100
AcDbBlockReference
  2
_OPEN
 10
375.8353758499275
 20
171.9462354684778
 30
0.0
 41
4.0
 42
4.0
 43
4.0
 50
270.0
  0
MTEXT
  5
2F3D
330
256E
100
AcDbEntity
  8
SUNPOU
100
AcDbMText
 10
371.3353758499275
 20
268.8548574214428
 30
0.0
 40
5.0
 41
0.0
 71
     5
 72
     1
  1
\A1;194
 11
0.0000000000000001
 21
1.0
 31
0.0
 73
     1
 44
1.0
1001
ACAD
1000
MTEXTBEGIN
1070
    73
1070
     1
1070
    44
1040
1.0
1070
    74
1070
     0
1000
MTEXTEND
  0
POINT
  5
2F3E
330
256E
100
AcDbEntity
  8
Defpoints
 62
     0
100
AcDbPoint
 10
318.0921857422359
 20
365.4462401772448
 30
0.0
  0
POINT
  5
2F3F
330
256E
100
AcDbEntity
  8
Defpoints
 62
     0
100
AcDbPoint
 10
318.0921857422359
 20
171.9462354684779
 30
0.0
  0
POINT
  5
2F40
330
256E
100
AcDbEntity
  8
Defpoints
 62
     0
100
AcDbPoint
 10
375.8353758499275
 20
171.9462354684778
 30
0.0
  0
ENDBLK
  5
2579
330
256E
100
AcDbEntity
  8
0
100
AcDbBlockEnd
  0
BLOCK
  5
2585
330
257B
100
AcDbEntity
  8
0
100
AcDbBlockBegin
  2
*D8
 70
     1
 10
0.0
 20
0.0
 30
0.0
  3
*D8
  1

  0
LINE
  5
2F2F
330
257B
100
AcDbEntity
  8
SUNPOU
100
AcDbLine
 10
319.5921857422359
 20
171.9462354684779
 30
0.0
 11
348.3854473911938
 21
171.9462354684778
 31
0.0
  0
LINE
  5
2F30
330
257B
100
AcDbEntity
  8
SUNPOU
100
AcDbLine
 10
320.5031142151124
 20
206.9462393427798
 30
0.0
 11
348.3854473911938
 21
206.9462393427798
 31
0.0
  0
LINE
  5
2F31
330
257B
100
AcDbEntity
  8
SUNPOU
100
AcDbLine
 10
346.8854473911938
 20
175.9462354684778
 30
0.0
 11
346.8854473911938
 21
202.9462393427797
 31
0.0
  0
INSERT
  5
2F32
330
257B
100
AcDbEntity
  8
SUNPOU
100
AcDbBlockReference
  2
_OPEN
 10
346.8854473911938
 20
171.9462354684778
 30
0.0
 41
4.0
 42
4.0
 43
4.0
 50
270.0
  0
INSERT
  5
2F33
330
257B
100
AcDbEntity
  8
SUNPOU
100
AcDbBlockReference
  2
_OPEN
 10
346.8854473911938
 20
206.9462393427798
 30
0.0
 41
4.0
 42
4.0
 43
4.0
 50
90.0
  0
MTEXT
  5
2F34
330
257B
100
AcDbEntity
  8
SUNPOU
100
AcDbMText
 10
342.3854473911938
 20
189.4462374056288
 30
0.0
 40
5.0
 41
0.0
 71
     5
 72
     1
  1
\A1;※35
 11
0.0000000000000001
 21
1.0
 31
0.0
 73
     1
 44
1.0
1001
ACAD
1000
MTEXTBEGIN
1070
    73
1070
     1
1070
    44
1040
1.0
1070
    74
1070
     0
1000
MTEXTEND
  0
POINT
  5
2F35
330
257B
100
AcDbEntity
  8
Defpoints
 62
     0
100
AcDbPoint
 10
318.0921857422359
 20
171.9462354684779
 30
0.0
  0
POINT
  5
2F36
330
257B
100
AcDbEntity
  8
Defpoints
 62
     0
100
AcDbPoint
 10
319.0031142151124
 20
206.9462393427798
 30
0.0
  0
POINT
  5
2F37
330
257B
100
AcDbEntity
  8
Defpoints
 62
     0
100
AcDbPoint
 10
346.8854473911938
 20
206.9462393427798
 30
0.0
  0
ENDBLK
  5
2586
330
257B
100
AcDbEntity
  8
0
100
AcDbBlockEnd
  0
BLOCK
  5
25C6
330
25BC
100
AcDbEntity
  8
0
100
AcDbBlockBegin
  2
*D9
 70
     1
 10
0.0
 20
0.0
 30
0.0
  3
*D9
  1

  0
LINE
  5
2F26
330
25BC
100
AcDbEntity
  8
SUNPOU
100
AcDbLine
 10
320.5031142151124
 20
330.4462363029429
 30
0.0
 11
349.2963758640704
 21
330.4462363029429
 31
0.0
  0
LINE
  5
2F27
330
25BC
100
AcDbEntity
  8
SUNPOU
100
AcDbLine
 10
319.5921857422359
 20
365.4462401772448
 30
0.0
 11
349.2963758640704
 21
365.4462401772448
 31
0.0
  0
LINE
  5
2F28
330
25BC
100
AcDbEntity
  8
SUNPOU
100
AcDbLine
 10
347.7963758640703
 20
334.4462363029429
 30
0.0
 11
347.7963758640703
 21
361.4462401772448
 31
0.0
  0
INSERT
  5
2F29
330
25BC
100
AcDbEntity
  8
SUNPOU
100
AcDbBlockReference
  2
_OPEN
 10
347.7963758640703
 20
330.4462363029429
 30
0.0
 41
4.0
 42
4.0
 43
4.0
 50
270.0
  0
INSERT
  5
2F2A
330
25BC
100
AcDbEntity
  8
SUNPOU
100
AcDbBlockReference
  2
_OPEN
 10
347.7963758640703
 20
365.4462401772448
 30
0.0
 41
4.0
 42
4.0
 43
4.0
 50
90.0
  0
MTEXT
  5
2F2B
330
25BC
100
AcDbEntity
  8
SUNPOU
100
AcDbMText
 10
343.2963758640703
 20
347.9462382400939
 30
0.0
 40
5.0
 41
0.0
 71
     5
 72
     1
  1
\A1;※35
 11
0.0000000000000001
 21
1.0
 31
0.0
 73
     1
 44
1.0
1001
ACAD
1000
MTEXTBEGIN
1070
    73
1070
     1
1070
    44
1040
1.0
1070
    74
1070
     0
1000
MTEXTEND
  0
POINT
  5
2F2C
330
25BC
100
AcDbEntity
  8
Defpoints
 62
     0
100
AcDbPoint
 10
319.0031142151124
 20
330.4462363029429
 30
0.0
  0
POINT
  5
2F2D
330
25BC
100
AcDbEntity
  8
Defpoints
 62
     0
100
AcDbPoint
 10
318.0921857422359
 20
365.4462401772448
 30
0.0
  0
POINT
  5
2F2E
330
25BC
100
AcDbEntity
  8
Defpoints
 62
     0
100
AcDbPoint
 10
347.7963758640703
 20
365.4462401772448
 30
0.0
  0
ENDBLK
  5
25C7
330
25BC
100
AcDbEntity
  8
0
100
AcDbBlockEnd
  0
BLOCK
  5
25EE
330
25E4
100
AcDbEntity
  8
0
100
AcDbBlockBegin
  2
*D10
 70
     1
 10
0.0
 20
0.0
 30
0.0
  3
*D10
  1

  0
LINE
  5
2F1D
330
25E4
100
AcDbEntity
  8
SUNPOU
100
AcDbLine
 10
432.9823545124352
 20
323.4062355364272
 30
0.0
 11
432.9823545124352
 21
394.4225055236636
 31
0.0
  0
LINE
  5
2F1E
330
25E4
100
AcDbEntity
  8
SUNPOU
100
AcDbLine
 10
516.382350673896
 20
323.4062355364272
 30
0.0
 11
516.382350673896
 21
394.4225055236636
 31
0.0
  0
LINE
  5
2F1F
330
25E4
100
AcDbEntity
  8
SUNPOU
100
AcDbLine
 10
436.9823545124352
 20
392.9225055236636
 30
0.0
 11
512.382350673896
 21
392.9225055236636
 31
0.0
  0
INSERT
  5
2F20
330
25E4
100
AcDbEntity
  8
SUNPOU
100
AcDbBlockReference
  2
_OPEN
 10
432.9823545124352
 20
392.9225055236636
 30
0.0
 41
4.0
 42
4.0
 43
4.0
 50
180.0
  0
INSERT
  5
2F21
330
25E4
100
AcDbEntity
  8
SUNPOU
100
AcDbBlockReference
  2
_OPEN
 10
516.382350673896
 20
392.9225055236636
 30
0.0
 41
4.0
 42
4.0
 43
4.0
  0
MTEXT
  5
2F22
330
25E4
100
AcDbEntity
  8
SUNPOU
100
AcDbMText
 10
474.6823525931656
 20
397.4225055236636
 30
0.0
 40
5.0
 41
0.0
 71
     5
 72
     1
  1
\A1;83.4
 73
     1
 44
1.0
1001
ACAD
1000
MTEXTBEGIN
1070
    73
1070
     1
1070
    44
1040
1.0
1070
    74
1070
     0
1000
MTEXTEND
  0
POINT
  5
2F23
330
25E4
100
AcDbEntity
  8
Defpoints
 62
     0
100
AcDbPoint
 10
432.9823545124352
 20
321.9062355364272
 30
0.0
  0
POINT
  5
2F24
330
25E4
100
AcDbEntity
  8
Defpoints
 62
     0
100
AcDbPoint
 10
516.382350673896
 20
321.9062355364272
 30
0.0
  0
POINT
  5
2F25
330
25E4
100
AcDbEntity
  8
Defpoints
 62
     0
100
AcDbPoint
 10
516.382350673896
 20
392.9225055236636
 30
0.0
  0
ENDBLK
  5
25EF
330
25E4
100
AcDbEntity
  8
0
100
AcDbBlockEnd
  0
BLOCK
  5
263D
330
2632
100
AcDbEntity
  8
0
100
AcDbBlockBegin
  2
*D11
 70
     1
 10
0.0
 20
0.0
 30
0.0
  3
*D11
  1

  0
LINE
  5
2F13
330
2632
100
AcDbEntity
  8
SUNPOU
100
AcDbLine
 10
516.3823558237386
 20
323.4062364754889
 30
0.0
 11
516.3823558237386
 21
342.5841606441149
 31
0.0
  0
LINE
  5
2F14
330
2632
100
AcDbEntity
  8
SUNPOU
100
AcDbLine
 10
515.9823558237386
 20
323.4062364754889
 30
0.0
 11
515.9823558237386
 21
342.5841606441149
 31
0.0
  0
LINE
  5
2F15
330
2632
100
AcDbEntity
  8
SUNPOU
100
AcDbLine
 10
511.9823558237386
 20
341.0841606441149
 30
0.0
 11
507.9823558237386
 21
341.0841606441149
 31
0.0
  0
LINE
  5
2F16
330
2632
100
AcDbEntity
  8
SUNPOU
100
AcDbLine
 10
520.3823558237386
 20
341.0841606441149
 30
0.0
 11
537.5490224904052
 21
341.0841606441149
 31
0.0
  0
INSERT
  5
2F17
330
2632
100
AcDbEntity
  8
SUNPOU
100
AcDbBlockReference
  2
_OPEN
 10
515.9823558237386
 20
341.0841606441149
 30
0.0
 41
4.0
 42
4.0
 43
4.0
  0
INSERT
  5
2F18
330
2632
100
AcDbEntity
  8
SUNPOU
100
AcDbBlockReference
  2
_OPEN
 10
516.3823558237386
 20
341.0841606441149
 30
0.0
 41
4.0
 42
4.0
 43
4.0
 50
180.0
  0
MTEXT
  5
2F19
330
2632
100
AcDbEntity
  8
SUNPOU
100
AcDbMText
 10
530.9656891570719
 20
345.584160644115
 30
0.0
 40
5.0
 41
0.0
 71
     5
 72
     1
  1
\A1;0.4
 73
     1
 44
1.0
1001
ACAD
1000
MTEXTBEGIN
1070
    73
1070
     1
1070
    44
1040
1.0
1070
    74
1070
     0
1000
MTEXTEND
  0
POINT
  5
2F1A
330
2632
100
AcDbEntity
  8
Defpoints
 62
     0
100
AcDbPoint
 10
516.3823558237386
 20
321.9062364754889
 30
0.0
  0
POINT
  5
2F1B
330
2632
100
AcDbEntity
  8
Defpoints
 62
     0
100
AcDbPoint
 10
515.9823558237386
 20
321.9062364754889
 30
0.0
  0
POINT
  5
2F1C
330
2632
100
AcDbEntity
  8
Defpoints
 62
     0
100
AcDbPoint
 10
515.9823558237386
 20
341.0841606441149
 30
0.0
  0
ENDBLK
  5
263E
330
2632
100
AcDbEntity
  8
0
100
AcDbBlockEnd
  0
ENDSEC
  0
SECTION
  2
ENTITIES
  0
LINE
  5
67B
330
1A
100
AcDbEntity
  8
ZUWAKU
100
AcDbLine
 10
7.0
 20
37.0
 30
0.0
 11
804.3999999999996
 21
37.0
 31
0.0
  0
LINE
  5
67C
330
1A
100
AcDbEntity
  8
ZUWAKU
100
AcDbLine
 10
7.0
 20
37.19999999999982
 30
0.0
 11
804.3999999999996
 21
37.19999999999982
 31
0.0
  0
LINE
  5
67D
330
1A
100
AcDbEntity
  8
ZUWAKU
100
AcDbLine
 10
7.0
 20
37.39999999999964
 30
0.0
 11
804.3999999999996
 21
37.39999999999964
 31
0.0
  0
LINE
  5
67E
330
1A
100
AcDbEntity
  8
ZUWAKU
100
AcDbLine
 10
7.0
 20
37.59999999999946
 30
0.0
 11
804.3999999999996
 21
37.59999999999946
 31
0.0
  0
LINE
  5
67F
330
1A
100
AcDbEntity
  8
ZUWAKU
100
AcDbLine
 10
7.0
 20
37.80000000000018
 30
0.0
 11
804.3999999999996
 21
37.80000000000018
 31
0.0
  0
LWPOLYLINE
  5
680
330
1A
100
AcDbEntity
  8
ZUWAKU
100
AcDbPolyline
 90
        4
 70
     1
 43
0.0
 10
7.800000000000181
 20
557.8000000000002
 10
7.800000000000181
 20
7.800000000000181
 10
803.800000000001
 20
7.800000000000181
 10
803.800000000001
 20
557.8000000000002
  0
LWPOLYLINE
  5
681
330
1A
100
AcDbEntity
  8
ZUWAKU
100
AcDbPolyline
 90
        4
 70
     1
 43
0.0
 10
7.400000000000545
 20
558.1999999999998
 10
7.400000000000545
 20
7.399999999999636
 10
804.1999999999989
 20
7.399999999999636
 10
804.1999999999989
 20
558.1999999999998
  0
LWPOLYLINE
  5
682
330
1A
100
AcDbEntity
  8
ZUWAKU
100
AcDbPolyline
 90
        4
 70
     1
 43
0.0
 10
7.0
 20
558.6000000000003
 10
7.0
 20
7.0
 10
804.6000000000002
 20
7.0
 10
804.6000000000002
 20
558.6000000000003
  0
LWPOLYLINE
  5
683
330
1A
100
AcDbEntity
  8
ZUWAKU
100
AcDbPolyline
 90
        4
 70
     1
 43
0.0
 10
7.599999999999454
 20
558.0
 10
7.599999999999454
 20
7.600000000000363
 10
804.0
 20
7.600000000000363
 10
804.0
 20
558.0
  0
LWPOLYLINE
  5
684
330
1A
100
AcDbEntity
  8
ZUWAKU
100
AcDbPolyline
 90
        4
 70
     1
 43
0.0
 10
7.199999999999818
 20
558.3999999999996
 10
7.199999999999818
 20
7.199999999999818
 10
804.3999999999996
 20
7.199999999999818
 10
804.3999999999996
 20
558.3999999999996
  0
LINE
  5
693
330
1A
100
AcDbEntity
  8
ZUWAKU
100
AcDbLine
 10
215.6466012900683
 20
22.39999999999964
 30
0.0
 11
454.4243639709911
 21
22.39999999999964
 31
0.0
  0
LINE
  5
694
330
1A
100
AcDbEntity
  8
ZUWAKU
100
AcDbLine
 10
215.6466012900683
 20
22.60000000000037
 30
0.0
 11
454.4243639709911
 21
22.60000000000037
 31
0.0
  0
LINE
  5
695
330
1A
100
AcDbEntity
  8
ZUWAKU
100
AcDbLine
 10
215.6466012900683
 20
22.19999999999982
 30
0.0
 11
454.4243639709911
 21
22.19999999999982
 31
0.0
  0
LINE
  5
699
330
1A
100
AcDbEntity
  8
ZUWAKU
100
AcDbLine
 10
215.4466012900675
 20
37.0
 30
0.0
 11
215.4466012900675
 21
7.800000000000181
 31
0.0
  0
LINE
  5
69A
330
1A
100
AcDbEntity
  8
ZUWAKU
100
AcDbLine
 10
215.6466012900683
 20
37.0
 30
0.0
 11
215.6466012900683
 21
7.800000000000181
 31
0.0
  0
LINE
  5
69B
330
1A
100
AcDbEntity
  8
ZUWAKU
100
AcDbLine
 10
215.2466012900677
 20
37.0
 30
0.0
 11
215.2466012900677
 21
7.800000000000181
 31
0.0
  0
TEXT
  5
69C
330
1A
100
AcDbEntity
  8
ZUWAKU
100
AcDbText
 10
216.7240463122771
 20
16.6553565383856
 30
0.0
 40
4.0
  1
サイズ
 41
0.9
  7
MSPｺﾞｼｯｸ
100
AcDbText
  0
LINE
  5
69D
330
1A
100
AcDbEntity
  8
ZUWAKU
100
AcDbLine
 10
64.842212154781
 20
18.0
 30
0.0
 11
64.842212154781
 21
29.72499999999945
 31
0.0
  0
LINE
  5
69E
330
1A
100
AcDbEntity
  8
ZUWAKU
100
AcDbLine
 10
62.04221215478082
 20
29.72499999999945
 30
0.0
 11
62.04221215478082
 21
16.94999999999982
 31
0.0
  0
LINE
  5
69F
330
1A
100
AcDbEntity
  8
ZUWAKU
100
AcDbLine
 10
50.49221215478155
 20
14.67500000000018
 30
0.0
 11
50.49221215478155
 21
29.72499999999945
 31
0.0
  0
LINE
  5
6A0
330
1A
100
AcDbEntity
  8
ZUWAKU
100
AcDbLine
 10
47.69221215478137
 20
29.72499999999945
 30
0.0
 11
47.69221215478137
 21
14.67500000000018
 31
0.0
  0
LINE
  5
6A1
330
1A
100
AcDbEntity
  8
ZUWAKU
100
AcDbLine
 10
73.24221215478155
 20
29.72499999999945
 30
0.0
 11
73.24221215478155
 21
14.67500000000018
 31
0.0
  0
LINE
  5
6A2
330
1A
100
AcDbEntity
  8
ZUWAKU
100
AcDbLine
 10
76.04221215478083
 20
14.67500000000018
 30
0.0
 11
76.04221215478083
 21
29.72499999999945
 31
0.0
  0
LINE
  5
6A3
330
1A
100
AcDbEntity
  8
ZUWAKU
100
AcDbLine
 10
68.34221215478101
 20
29.72499999999945
 30
0.0
 11
68.34221215478101
 21
18.0
 31
0.0
  0
LINE
  5
6A4
330
1A
100
AcDbEntity
  8
ZUWAKU
100
AcDbLine
 10
71.14221215478119
 20
16.94999999999982
 30
0.0
 11
71.14221215478119
 21
29.72499999999945
 31
0.0
  0
LINE
  5
6A5
330
1A
100
AcDbEntity
  8
ZUWAKU
100
AcDbLine
 10
86.12662954798816
 20
37.0
 30
0.0
 11
86.12662954798816
 21
7.800000000000181
 31
0.0
  0
LINE
  5
6A6
330
1A
100
AcDbEntity
  8
ZUWAKU
100
AcDbLine
 10
86.52662954798779
 20
37.0
 30
0.0
 11
86.5266295479887
 21
7.800000000000181
 31
0.0
  0
LINE
  5
6A7
330
1A
100
AcDbEntity
  8
ZUWAKU
100
AcDbLine
 10
86.32662954798798
 20
37.0
 30
0.0
 11
86.32662954798888
 21
7.800000000000181
 31
0.0
  0
ARC
  5
6A8
330
1A
100
AcDbEntity
  8
ZUWAKU
100
AcDbCircle
 10
40.16721215478082
 20
20.27499999999964
 30
0.0
 40
0.525
100
AcDbArc
 50
90.0
 51
180.0
  0
ARC
  5
6A9
330
1A
100
AcDbEntity
  8
ZUWAKU
100
AcDbCircle
 10
40.30744631827019
 20
20.27499999999964
 30
0.0
 40
0.525
100
AcDbArc
 50
17.52556837371993
 51
90.0
  0
LINE
  5
6AA
330
1A
100
AcDbEntity
  8
ZUWAKU
100
AcDbLine
 10
45.37649827009682
 20
14.8330939681673
 30
0.0
 11
43.05010689162282
 21
22.19999999999982
 31
0.0
  0
LINE
  5
6AB
330
1A
100
AcDbEntity
  8
ZUWAKU
100
AcDbLine
 10
53.82236367379755
 20
22.66494949366097
 30
0.0
 11
56.73216164844234
 21
19.75515151901618
 31
0.0
  0
ARC
  5
6AC
330
1A
100
AcDbEntity
  8
ZUWAKU
100
AcDbCircle
 10
55.74221215478155
 20
18.76520202535539
 30
0.0
 40
4.199999999999999
100
AcDbArc
 50
0.0
 51
45.0
  0
CIRCLE
  5
6AD
330
1A
100
AcDbEntity
  8
ZUWAKU
100
AcDbCircle
 10
32.99221215478155
 20
22.19999999999982
 30
0.0
 40
1.75
  0
LINE
  5
6AE
330
1A
100
AcDbEntity
  8
ZUWAKU
100
AcDbLine
 10
27.74221215478156
 20
18.34999999999945
 30
0.0
 11
27.74221215478156
 21
26.05000000000018
 31
0.0
  0
LINE
  5
6AF
330
1A
100
AcDbEntity
  8
ZUWAKU
100
AcDbLine
 10
30.54221215478083
 20
26.05000000000018
 30
0.0
 11
30.54221215478083
 21
18.34999999999945
 31
0.0
  0
ARC
  5
6B0
330
1A
100
AcDbEntity
  8
ZUWAKU
100
AcDbCircle
 10
21.44221215478137
 20
18.76520202535539
 30
0.0
 40
4.199999999999999
100
AcDbArc
 50
0.0
 51
45.0
  0
LINE
  5
6B1
330
1A
100
AcDbEntity
  8
ZUWAKU
100
AcDbLine
 10
19.52236367379737
 20
22.66494949366097
 30
0.0
 11
22.43216164844216
 21
19.75515151901618
 31
0.0
  0
LINE
  5
6B2
330
1A
100
AcDbEntity
  8
ZUWAKU
100
AcDbLine
 10
36.84221215478101
 20
29.72499999999945
 30
0.0
 11
36.84221215478101
 21
14.67500000000018
 31
0.0
  0
INSERT
  5
6B3
330
1A
100
AcDbEntity
  8
ZUWAKU
  6
Continuous
100
AcDbBlockReference
  2
*X1
 10
-2.999999273567482
 20
-3.000000233941136
 30
0.0
1001
ACAD
1000
HATCH
1002
{
1070
    19
1000
ANSI37
1040
0.2
1040
0.0
1000
R14_HATCH_DATA
1000
B3A
1011
-1.999999273567482
1021
-3.000000233941136
1031
0.0
1011
-2.999999273567482
1021
-2.000000233941136
1031
0.0
1011
-2.999999273567482
1021
-3.000000233941136
1031
1.0
1040
0.0
1010
0.0
1020
0.0
1030
1.0
1000
ANSI37
1070
     0
1070
     0
1071
        8
1071
        7
1070
     1
1070
     1
1071
       24
1040
24.50226193468711
1040
27.64484871492438
1040
-0.1989123673796348
1040
24.09221142834838
1040
28.63479820858543
1040
0.0
1040
24.09221142834838
1040
29.92500023394081
1040
-0.4142135623730912
1040
24.61721142834836
1040
30.4500002339408
1040
0.0
1040
27.59221142834827
1040
30.4500002339408
1040
0.4142135623731546
1040
28.11721142834836
1040
30.97500023394079
1040
0.0
1040
28.11721142834836
1040
32.7250002339408
1040
0.4142135623731586
1040
27.59221142834827
1040
33.25000023394081
1040
0.0
1040
24.09221142834838
1040
33.25000023394081
1040
0.4142135623730928
1040
21.29221142834842
1040
30.45000023394083
1040
0.0
1040
21.29221142834842
1040
28.63479820858556
1040
0.1989123673796619
1040
22.52236294736485
1040
25.66494972760195
1040
0.0
1040
25.43216092200953
1040
22.75515175295729
1040
-0.1989123673796613
1040
25.84221142834838
1040
21.76520225929611
1040
0.0
1040
25.84221142834838
1040
20.47500023394079
1040
-0.4142135623730911
1040
25.3172114283484
1040
19.9500002339408
1040
0.0
1040
22.34221142834849
1040
19.9500002339408
1040
0.4142135623731526
1040
21.8172114283484
1040
19.42500023394081
1040
0.0
1040
21.8172114283484
1040
17.67500023394079
1040
0.4142135623731526
1040
22.34221142834849
1040
17.1500002339408
1040
0.0
1040
25.84221142834838
1040
17.1500002339408
1040
0.4142135623731044
1040
28.64221142834845
1040
19.95000023394078
1040
0.0
1040
28.64221142834845
1040
21.76520225929605
1040
0.1989123673796604
1040
27.4120599093319
1040
24.73505074027959
1040
0.0
1071
        0
1071
        7
1070
     1
1070
     1
1071
       16
1040
33.54221142834842
1040
29.05000023394081
1040
-0.4142135623730935
1040
34.9422114283484
1040
30.4500002339408
1040
0.0
1040
36.86721142834836
1040
30.4500002339408
1040
0.4142135623731546
1040
37.39221142834845
1040
30.97500023394079
1040
0.0
1040
37.39221142834845
1040
32.7250002339408
1040
0.4142135623730951
1040
36.86721142834847
1040
33.25000023394081
1040
0.0
1040
34.94221142834829
1040
33.25000023394076
1040
0.4142135623730892
1040
30.74221142834836
1040
29.05000023394073
1040
0.0
1040
30.74221142834836
1040
21.35000023394082
1040
0.4142135623730969
1040
34.9422114283484
1040
17.1500002339408
1040
0.0
1040
36.86721142834836
1040
17.1500002339408
1040
0.4142135623731526
1040
37.39221142834845
1040
17.67500023394079
1040
0.0
1040
37.39221142834845
1040
19.42500023394081
1040
0.4142135623730891
1040
36.86721142834847
1040
19.9500002339408
1040
0.0
1040
34.9422114283484
1040
19.9500002339408
1040
-0.4142135623730928
1040
33.54221142834842
1040
21.35000023394079
1040
0.0
1071
        0
1071
        7
1070
     1
1070
     1
1071
        2
1040
34.24221142834836
1040
25.2000002339408
1040
1.0
1040
37.74221142834836
1040
25.2000002339408
1040
1.0
1071
        0
1071
        7
1070
     1
1070
     1
1071
       26
1040
47.31485791052636
1040
29.20504742750423
1040
0.0
1040
48.37649754366418
1040
32.56690626577382
1040
0.5069206636600134
1040
47.87586664446883
1040
33.25000023394081
1040
0.0
1040
46.17697726485959
1040
33.25000023394081
1040
0.3272098845218764
1040
45.67634636566424
1040
32.88309420210777
1040
0.0
1040
43.80807649103246
1040
26.96690626577388
1040
-0.3272098845219541
1040
43.30744559183699
1040
26.6000002339408
1040
0.0
1040
43.16721142834853
1040
26.6000002339408
1040
-0.4142135623731526
1040
42.64221142834844
1040
27.12500023394079
1040
0.0
1040
42.64221142834844
1040
32.7250002339408
1040
0.4142135623730951
1040
42.11721142834846
1040
33.25000023394081
1040
0.0
1040
40.36721142834835
1040
33.25000023394081
1040
0.4142135623730871
1040
39.84221142834838
1040
32.72500023394082
1040
0.0
1040
39.84221142834838
1040
17.67500023394079
1040
0.4142135623730891
1040
40.36721142834835
1040
17.1500002339408
1040
0.0
1040
42.11721142834835
1040
17.1500002339408
1040
0.4142135623731526
1040
42.64221142834844
1040
17.67500023394079
1040
0.0
1040
42.64221142834844
1040
23.27500023394081
1040
-0.4142135623731526
1040
43.16721142834853
1040
23.8000002339408
1040
0.0
1040
43.30744559183711
1040
23.8000002339408
1040
-0.3272098845218915
1040
43.80807649103246
1040
23.43309420210772
1040
0.0
1040
45.67634636566424
1040
17.51690626577387
1040
0.3272098845218902
1040
46.17697726485959
1040
17.1500002339408
1040
0.0
1040
47.87586664446883
1040
17.1500002339408
1040
0.5069206636600335
1040
48.37649754366418
1040
17.83309420210781
1040
0.0
1040
46.05010616519052
1040
25.20000023394094
1040
0.0
1071
        0
1071
        7
1070
     1
1070
     1
1071
        8
1040
53.49221142834835
1040
32.72500023394081
1040
0.4142135623731546
1040
52.96721142834826
1040
33.25000023394081
1040
0.0
1040
51.21721142834849
1040
33.25000023394081
1040
0.4142135623731507
1040
50.6922114283484
1040
32.72500023394082
1040
0.0
1040
50.6922114283484
1040
17.67500023394079
1040
0.4142135623731526
1040
51.21721142834849
1040
17.1500002339408
1040
0.0
1040
52.96721142834826
1040
17.1500002339408
1040
0.4142135623731526
1040
53.49221142834835
1040
17.67500023394079
1040
0.0
1071
        0
1071
        7
1070
     1
1070
     1
1071
       24
1040
58.39221142834844
1040
29.92500023394081
1040
-0.4142135623731546
1040
58.91721142834853
1040
30.4500002339408
1040
0.0
1040
61.89221142834845
1040
30.4500002339408
1040
0.4142135623730911
1040
62.41721142834842
1040
30.97500023394079
1040
0.0
1040
62.41721142834842
1040
32.7250002339408
1040
0.4142135623730952
1040
61.89221142834845
1040
33.25000023394081
1040
0.0
1040
58.39221142834844
1040
33.25000023394081
1040
0.4142135623731048
1040
55.59221142834838
1040
30.45000023394083
1040
0.0
1040
55.59221142834838
1040
28.63479820858556
1040
0.1989123673796613
1040
56.82236294736492
1040
25.66494972760201
1040
0.0
1040
59.7321609220096
1040
22.75515175295734
1040
-0.1989123673796402
1040
60.14221142834845
1040
21.76520225929627
1040
0.0
1040
60.14221142834845
1040
20.47500023394079
1040
-0.4142135623730911
1040
59.61721142834846
1040
19.9500002339408
1040
0.0
1040
56.64221142834844
1040
19.9500002339408
1040
0.4142135623731526
1040
56.11721142834835
1040
19.42500023394081
1040
0.0
1040
56.11721142834835
1040
17.67500023394079
1040
0.4142135623730891
1040
56.64221142834833
1040
17.1500002339408
1040
0.0
1040
60.14221142834845
1040
17.1500002339408
1040
0.4142135623730925
1040
62.9422114283484
1040
19.95000023394078
1040
0.0
1040
62.9422114283484
1040
21.76520225929605
1040
0.1989123673796675
1040
61.71205990933185
1040
24.73505074027971
1040
0.0
1040
58.80226193468729
1040
27.64484871492422
1040
-0.1989123673796652
1040
58.39221142834844
1040
28.63479820858539
1040
0.0
1071
        0
1071
        7
1070
     1
1070
     1
1071
       16
1040
67.84221142834837
1040
32.72500023394079
1040
0.414213562373103
1040
67.3172114283484
1040
33.25000023394081
1040
0.0
1040
65.5672114283484
1040
33.25000023394081
1040
0.4142135623730871
1040
65.04221142834842
1040
32.72500023394082
1040
0.0
1040
65.04221142834842
1040
19.95000023394078
1040
0.4142135623730926
1040
67.84221142834837
1040
17.1500002339408
1040
0.0
1040
71.34221142834838
1040
17.1500002339408
1040
0.4142135623731044
1040
74.14221142834844
1040
19.95000023394078
1040
0.0
1040
74.14221142834844
1040
32.7250002339408
1040
0.4142135623730951
1040
73.61721142834847
1040
33.25000023394081
1040
0.0
1040
71.86721142834835
1040
33.25000023394081
1040
0.4142135623730871
1040
71.34221142834838
1040
32.72500023394082
1040
0.0
1040
71.34221142834838
1040
21.00000023394077
1040
-0.414213562373088
1040
70.29221142834842
1040
19.9500002339408
1040
0.0
1040
68.89221142834845
1040
19.9500002339408
1040
-0.4142135623731197
1040
67.84221142834837
1040
21.00000023394077
1040
0.0
1071
        0
1071
        7
1070
     1
1070
     1
1071
        8
1040
79.04221142834842
1040
32.72500023394082
1040
0.4142135623730871
1040
78.51721142834844
1040
33.25000023394081
1040
0.0
1040
76.76721142834844
1040
33.25000023394081
1040
0.4142135623731507
1040
76.24221142834835
1040
32.72500023394082
1040
0.0
1040
76.24221142834835
1040
17.67500023394079
1040
0.4142135623730891
1040
76.76721142834833
1040
17.1500002339408
1040
0.0
1040
78.51721142834844
1040
17.1500002339408
1040
0.4142135623730891
1040
79.04221142834842
1040
17.67500023394079
1040
0.0
1071
        0
1070
     0
1070
     1
1040
0.0
1040
0.2
1070
     0
1070
     2
1040
0.7853981633974483
1040
-890.9423050611117
1040
-3.199999766059136
1040
-0.4490128060534576
1040
0.4490128060534577
1070
     0
1040
2.356194490192344
1040
-890.9423050611117
1040
-3.199999766059136
1040
-0.4490128060534577
1040
-0.4490128060534576
1070
     0
1040
0.057451373970553
1071
        8
1040
26.07985423659056
1040
25.16717387982635
1040
0.0
1040
32.40451428000643
1040
28.84406241639181
1040
0.0
1040
35.16436715922691
1040
25.51188188001152
1040
0.0
1040
40.91405925520439
1040
26.2012978803823
1040
0.0
1040
51.83847129252399
1040
26.66091014792391
1040
0.0
1040
56.8982001686968
1040
29.41857655034801
1040
0.0
1040
66.5576852459676
1040
28.72915814903581
1040
0.0
1040
77.82707889318999
1040
29.18877041657743
1040
0.0
1002
}
  0
LINE
  5
6B5
330
1A
100
AcDbEntity
  8
ZUWAKU
100
AcDbLine
 10
19.34221215478101
 20
16.94999999999982
 30
0.0
 11
22.31721215478137
 21
16.94999999999982
 31
0.0
  0
LINE
  5
6B6
330
1A
100
AcDbEntity
  8
ZUWAKU
100
AcDbLine
 10
19.34221215478101
 20
14.14999999999963
 30
0.0
 11
22.84221215478101
 21
14.14999999999963
 31
0.0
  0
ARC
  5
6B7
330
1A
100
AcDbEntity
  8
ZUWAKU
100
AcDbCircle
 10
19.34221215478101
 20
16.42500000000018
 30
0.0
 40
0.525
100
AcDbArc
 50
90.0
 51
180.0
  0
ARC
  5
6B8
330
1A
100
AcDbEntity
  8
ZUWAKU
100
AcDbCircle
 10
19.34221215478101
 20
14.67500000000018
 30
0.0
 40
0.525
100
AcDbArc
 50
180.0
 51
270.0
  0
LINE
  5
6B9
330
1A
100
AcDbEntity
  8
ZUWAKU
100
AcDbLine
 10
18.81721215478137
 20
14.67500000000018
 30
0.0
 11
18.81721215478137
 21
16.42500000000018
 31
0.0
  0
LINE
  5
6BA
330
1A
100
AcDbEntity
  8
ZUWAKU
100
AcDbLine
 10
64.842212154781
 20
14.14999999999963
 30
0.0
 11
68.34221215478101
 21
14.14999999999963
 31
0.0
  0
LINE
  5
6BB
330
1A
100
AcDbEntity
  8
ZUWAKU
100
AcDbLine
 10
67.29221215478083
 20
16.94999999999982
 30
0.0
 11
65.89221215478119
 21
16.94999999999982
 31
0.0
  0
LINE
  5
6BC
330
1A
100
AcDbEntity
  8
ZUWAKU
100
AcDbLine
 10
48.21721215478101
 20
14.14999999999963
 30
0.0
 11
49.96721215478101
 21
14.14999999999963
 31
0.0
  0
LINE
  5
6BD
330
1A
100
AcDbEntity
  8
ZUWAKU
100
AcDbLine
 10
42.67634709209687
 20
14.51690603183306
 30
0.0
 11
40.80807721746532
 21
20.43309396816676
 31
0.0
  0
LINE
  5
6BE
330
1A
100
AcDbEntity
  8
ZUWAKU
100
AcDbLine
 10
39.64221215478119
 20
14.67500000000018
 30
0.0
 11
39.64221215478119
 21
20.27499999999964
 31
0.0
  0
ARC
  5
6BF
330
1A
100
AcDbEntity
  8
ZUWAKU
100
AcDbCircle
 10
39.11721215478156
 20
14.67500000000018
 30
0.0
 40
0.525
100
AcDbArc
 50
270.0
 51
0.0
  0
ARC
  5
6C0
330
1A
100
AcDbEntity
  8
ZUWAKU
100
AcDbCircle
 10
43.17697799129291
 20
14.67500000000018
 30
0.0
 40
0.525
100
AcDbArc
 50
197.5255683737199
 51
270.0
  0
ARC
  5
6C1
330
1A
100
AcDbEntity
  8
ZUWAKU
100
AcDbCircle
 10
44.87586737090168
 20
14.67500000000018
 30
0.0
 40
0.525
100
AcDbArc
 50
270.0
 51
17.52556837371993
  0
LINE
  5
6C2
330
1A
100
AcDbEntity
  8
ZUWAKU
100
AcDbLine
 10
43.17697799129291
 20
14.14999999999963
 30
0.0
 11
44.87586737090168
 21
14.14999999999963
 31
0.0
  0
ARC
  5
6C3
330
1A
100
AcDbEntity
  8
ZUWAKU
100
AcDbCircle
 10
48.21721215478101
 20
14.67500000000018
 30
0.0
 40
0.525
100
AcDbArc
 50
180.0
 51
270.0
  0
ARC
  5
6C4
330
1A
100
AcDbEntity
  8
ZUWAKU
100
AcDbCircle
 10
57.14221215478119
 20
16.94999999999982
 30
0.0
 40
2.799999999999999
100
AcDbArc
 50
270.0
 51
0.0
  0
ARC
  5
6C5
330
1A
100
AcDbEntity
  8
ZUWAKU
100
AcDbCircle
 10
64.842212154781
 20
16.94999999999982
 30
0.0
 40
2.799999999999999
100
AcDbArc
 50
180.0
 51
270.0
  0
LINE
  5
6C6
330
1A
100
AcDbEntity
  8
ZUWAKU
100
AcDbLine
 10
53.64221215478119
 20
14.14999999999963
 30
0.0
 11
57.14221215478119
 21
14.14999999999963
 31
0.0
  0
LINE
  5
6C7
330
1A
100
AcDbEntity
  8
ZUWAKU
100
AcDbLine
 10
53.64221215478119
 20
16.94999999999982
 30
0.0
 11
56.61721215478156
 21
16.94999999999982
 31
0.0
  0
ARC
  5
6C8
330
1A
100
AcDbEntity
  8
ZUWAKU
100
AcDbCircle
 10
53.64221215478119
 20
16.42500000000018
 30
0.0
 40
0.525
100
AcDbArc
 50
90.0
 51
180.0
  0
ARC
  5
6C9
330
1A
100
AcDbEntity
  8
ZUWAKU
100
AcDbCircle
 10
49.96721215478101
 20
14.67500000000018
 30
0.0
 40
0.525
100
AcDbArc
 50
270.0
 51
0.0
  0
ARC
  5
6CA
330
1A
100
AcDbEntity
  8
ZUWAKU
100
AcDbCircle
 10
53.64221215478119
 20
14.67500000000018
 30
0.0
 40
0.525
100
AcDbArc
 50
180.0
 51
270.0
  0
LINE
  5
6CB
330
1A
100
AcDbEntity
  8
ZUWAKU
100
AcDbLine
 10
53.11721215478155
 20
14.67500000000018
 30
0.0
 11
53.11721215478155
 21
16.42500000000018
 31
0.0
  0
ARC
  5
6CC
330
1A
100
AcDbEntity
  8
ZUWAKU
100
AcDbCircle
 10
56.61721215478156
 20
17.47499999999945
 30
0.0
 40
0.525
100
AcDbArc
 50
270.0
 51
0.0
  0
ARC
  5
6CD
330
1A
100
AcDbEntity
  8
ZUWAKU
100
AcDbCircle
 10
55.74221215478155
 20
18.76520202535539
 30
0.0
 40
1.399999999999999
100
AcDbArc
 50
0.0
 51
45.0
  0
LINE
  5
6CE
330
1A
100
AcDbEntity
  8
ZUWAKU
100
AcDbLine
 10
57.14221215478119
 20
17.47499999999945
 30
0.0
 11
57.14221215478119
 21
18.76520202535539
 31
0.0
  0
ARC
  5
6CF
330
1A
100
AcDbEntity
  8
ZUWAKU
100
AcDbCircle
 10
65.89221215478119
 20
18.0
 30
0.0
 40
1.049999999999999
100
AcDbArc
 50
180.0
 51
270.0
  0
LINE
  5
6D0
330
1A
100
AcDbEntity
  8
ZUWAKU
100
AcDbLine
 10
59.94221215478138
 20
16.94999999999982
 30
0.0
 11
59.94221215478138
 21
18.76520202535539
 31
0.0
  0
ARC
  5
6D1
330
1A
100
AcDbEntity
  8
ZUWAKU
100
AcDbCircle
 10
68.34221215478101
 20
16.94999999999982
 30
0.0
 40
2.799999999999999
100
AcDbArc
 50
270.0
 51
0.0
  0
LINE
  5
6D2
330
1A
100
AcDbEntity
  8
ZUWAKU
100
AcDbLine
 10
73.76721215478119
 20
14.14999999999963
 30
0.0
 11
75.51721215478119
 21
14.14999999999963
 31
0.0
  0
ARC
  5
6D3
330
1A
100
AcDbEntity
  8
ZUWAKU
100
AcDbCircle
 10
67.29221215478083
 20
18.0
 30
0.0
 40
1.049999999999999
100
AcDbArc
 50
270.0
 51
0.0
  0
ARC
  5
6D4
330
1A
100
AcDbEntity
  8
ZUWAKU
100
AcDbCircle
 10
73.76721215478119
 20
14.67500000000018
 30
0.0
 40
0.525
100
AcDbArc
 50
180.0
 51
270.0
  0
ARC
  5
6D5
330
1A
100
AcDbEntity
  8
ZUWAKU
100
AcDbCircle
 10
75.51721215478119
 20
14.67500000000018
 30
0.0
 40
0.525
100
AcDbArc
 50
270.0
 51
0.0
  0
LINE
  5
6D6
330
1A
100
AcDbEntity
  8
ZUWAKU
100
AcDbLine
 10
33.86721215478156
 20
14.14999999999963
 30
0.0
 11
31.94221215478137
 21
14.14999999999963
 31
0.0
  0
LINE
  5
6D7
330
1A
100
AcDbEntity
  8
ZUWAKU
100
AcDbLine
 10
31.94221215478137
 20
16.94999999999982
 30
0.0
 11
33.86721215478156
 21
16.94999999999982
 31
0.0
  0
ARC
  5
6D8
330
1A
100
AcDbEntity
  8
ZUWAKU
100
AcDbCircle
 10
31.94221215478137
 20
18.34999999999945
 30
0.0
 40
4.199999999999999
100
AcDbArc
 50
180.0
 51
270.0
  0
ARC
  5
6D9
330
1A
100
AcDbEntity
  8
ZUWAKU
100
AcDbCircle
 10
22.84221215478101
 20
16.94999999999982
 30
0.0
 40
2.799999999999999
100
AcDbArc
 50
270.0
 51
0.0
  0
ARC
  5
6DA
330
1A
100
AcDbEntity
  8
ZUWAKU
100
AcDbCircle
 10
21.44221215478137
 20
18.76520202535539
 30
0.0
 40
1.399999999999999
100
AcDbArc
 50
0.0
 51
45.0
  0
ARC
  5
6DB
330
1A
100
AcDbEntity
  8
ZUWAKU
100
AcDbCircle
 10
22.31721215478137
 20
17.47499999999945
 30
0.0
 40
0.525
100
AcDbArc
 50
270.0
 51
0.0
  0
LINE
  5
6DC
330
1A
100
AcDbEntity
  8
ZUWAKU
100
AcDbLine
 10
22.84221215478101
 20
17.47499999999945
 30
0.0
 11
22.84221215478101
 21
18.76520202535539
 31
0.0
  0
ARC
  5
6DD
330
1A
100
AcDbEntity
  8
ZUWAKU
100
AcDbCircle
 10
31.94221215478137
 20
18.34999999999945
 30
0.0
 40
1.399999999999999
100
AcDbArc
 50
180.0
 51
270.0
  0
LINE
  5
6DE
330
1A
100
AcDbEntity
  8
ZUWAKU
100
AcDbLine
 10
25.64221215478119
 20
16.94999999999982
 30
0.0
 11
25.64221215478119
 21
18.76520202535539
 31
0.0
  0
ARC
  5
6DF
330
1A
100
AcDbEntity
  8
ZUWAKU
100
AcDbCircle
 10
37.36721215478155
 20
14.67500000000018
 30
0.0
 40
0.525
100
AcDbArc
 50
180.0
 51
270.0
  0
ARC
  5
6E0
330
1A
100
AcDbEntity
  8
ZUWAKU
100
AcDbCircle
 10
33.86721215478156
 20
16.42500000000018
 30
0.0
 40
0.525
100
AcDbArc
 50
0.0
 51
90.0
  0
ARC
  5
6E1
330
1A
100
AcDbEntity
  8
ZUWAKU
100
AcDbCircle
 10
33.86721215478156
 20
14.67500000000018
 30
0.0
 40
0.525
100
AcDbArc
 50
270.0
 51
0.0
  0
LINE
  5
6E2
330
1A
100
AcDbEntity
  8
ZUWAKU
100
AcDbLine
 10
34.39221215478119
 20
16.42500000000018
 30
0.0
 11
34.39221215478119
 21
14.67500000000018
 31
0.0
  0
LINE
  5
6E3
330
1A
100
AcDbEntity
  8
ZUWAKU
100
AcDbLine
 10
37.36721215478155
 20
14.14999999999963
 30
0.0
 11
39.11721215478156
 21
14.14999999999963
 31
0.0
  0
ARC
  5
6E4
330
1A
100
AcDbEntity
  8
ZUWAKU
100
AcDbCircle
 10
21.09221215478101
 20
27.44999999999982
 30
0.0
 40
2.799999999999999
100
AcDbArc
 50
90.0
 51
180.0
  0
ARC
  5
6E5
330
1A
100
AcDbEntity
  8
ZUWAKU
100
AcDbCircle
 10
22.49221215478156
 20
25.63479797464424
 30
0.0
 40
4.199999999999999
100
AcDbArc
 50
180.0
 51
225.0
  0
LINE
  5
6E6
330
1A
100
AcDbEntity
  8
ZUWAKU
100
AcDbLine
 10
18.29221215478083
 20
27.44999999999982
 30
0.0
 11
18.29221215478083
 21
25.63479797464424
 31
0.0
  0
LINE
  5
6E7
330
1A
100
AcDbEntity
  8
ZUWAKU
100
AcDbLine
 10
42.67634709209687
 20
29.88309396816658
 30
0.0
 11
40.80807721746532
 21
23.96690603183288
 31
0.0
  0
LINE
  5
6E8
330
1A
100
AcDbEntity
  8
ZUWAKU
100
AcDbLine
 10
39.64221215478119
 20
24.125
 30
0.0
 11
39.64221215478119
 21
29.72499999999945
 31
0.0
  0
LINE
  5
6E9
330
1A
100
AcDbEntity
  8
ZUWAKU
100
AcDbLine
 10
44.31485863695889
 20
26.20504719356359
 30
0.0
 11
43.05010689162282
 21
22.19999999999982
 31
0.0
  0
ARC
  5
6EA
330
1A
100
AcDbEntity
  8
ZUWAKU
100
AcDbCircle
 10
56.79221215478083
 20
25.63479797464424
 30
0.0
 40
4.199999999999999
100
AcDbArc
 50
180.0
 51
225.0
  0
ARC
  5
6EB
330
1A
100
AcDbEntity
  8
ZUWAKU
100
AcDbCircle
 10
56.79221215478083
 20
25.63479797464424
 30
0.0
 40
1.399999999999999
100
AcDbArc
 50
180.0
 51
225.0
  0
ARC
  5
6EC
330
1A
100
AcDbEntity
  8
ZUWAKU
100
AcDbCircle
 10
40.16721215478082
 20
24.125
 30
0.0
 40
0.525
100
AcDbArc
 50
180.0
 51
270.0
  0
LINE
  5
6ED
330
1A
100
AcDbEntity
  8
ZUWAKU
100
AcDbLine
 10
40.16721215478082
 20
20.80000000000018
 30
0.0
 11
40.30744631827019
 21
20.80000000000018
 31
0.0
  0
LINE
  5
6EE
330
1A
100
AcDbEntity
  8
ZUWAKU
100
AcDbLine
 10
40.30744631827019
 20
23.59999999999946
 30
0.0
 11
40.16721215478082
 21
23.59999999999946
 31
0.0
  0
ARC
  5
6EF
330
1A
100
AcDbEntity
  8
ZUWAKU
100
AcDbCircle
 10
40.30744631827019
 20
24.125
 30
0.0
 40
0.525
100
AcDbArc
 50
270.0
 51
342.4744316262801
  0
LINE
  5
6F0
330
1A
100
AcDbEntity
  8
ZUWAKU
100
AcDbLine
 10
58.71206063576483
 20
21.73505050633867
 30
0.0
 11
55.80226266112004
 21
24.64484848098346
 31
0.0
  0
LINE
  5
6F1
330
1A
100
AcDbEntity
  8
ZUWAKU
100
AcDbLine
 10
49.96721215478101
 20
30.25
 30
0.0
 11
48.21721215478101
 21
30.25
 31
0.0
  0
ARC
  5
6F2
330
1A
100
AcDbEntity
  8
ZUWAKU
100
AcDbCircle
 10
39.11721215478156
 20
29.72499999999945
 30
0.0
 40
0.525
100
AcDbArc
 50
0.0
 51
90.0
  0
ARC
  5
6F3
330
1A
100
AcDbEntity
  8
ZUWAKU
100
AcDbCircle
 10
43.17697799129291
 20
29.72499999999945
 30
0.0
 40
0.525
100
AcDbArc
 50
90.0
 51
162.4744316262801
  0
LINE
  5
6F4
330
1A
100
AcDbEntity
  8
ZUWAKU
100
AcDbLine
 10
45.37649827009682
 20
29.56690603183324
 30
0.0
 11
44.31485863695889
 21
26.20504719356359
 31
0.0
  0
ARC
  5
6F5
330
1A
100
AcDbEntity
  8
ZUWAKU
100
AcDbCircle
 10
44.87586737090168
 20
29.72499999999945
 30
0.0
 40
0.525
100
AcDbArc
 50
342.4744316262801
 51
90.0
  0
LINE
  5
6F6
330
1A
100
AcDbEntity
  8
ZUWAKU
100
AcDbLine
 10
43.17697799129291
 20
30.25
 30
0.0
 11
44.87586737090168
 21
30.25
 31
0.0
  0
ARC
  5
6F7
330
1A
100
AcDbEntity
  8
ZUWAKU
100
AcDbCircle
 10
48.21721215478101
 20
29.72499999999945
 30
0.0
 40
0.525
100
AcDbArc
 50
90.0
 51
180.0
  0
LINE
  5
6F8
330
1A
100
AcDbEntity
  8
ZUWAKU
100
AcDbLine
 10
58.89221215478119
 20
27.44999999999982
 30
0.0
 11
55.91721215478083
 21
27.44999999999982
 31
0.0
  0
LINE
  5
6F9
330
1A
100
AcDbEntity
  8
ZUWAKU
100
AcDbLine
 10
55.39221215478119
 20
30.25
 30
0.0
 11
58.89221215478119
 21
30.25
 31
0.0
  0
ARC
  5
6FA
330
1A
100
AcDbEntity
  8
ZUWAKU
100
AcDbCircle
 10
55.39221215478119
 20
27.44999999999982
 30
0.0
 40
2.799999999999999
100
AcDbArc
 50
90.0
 51
180.0
  0
LINE
  5
6FB
330
1A
100
AcDbEntity
  8
ZUWAKU
100
AcDbLine
 10
52.59221215478101
 20
27.44999999999982
 30
0.0
 11
52.59221215478101
 21
25.63479797464424
 31
0.0
  0
ARC
  5
6FC
330
1A
100
AcDbEntity
  8
ZUWAKU
100
AcDbCircle
 10
49.96721215478101
 20
29.72499999999945
 30
0.0
 40
0.525
100
AcDbArc
 50
0.0
 51
90.0
  0
LINE
  5
6FD
330
1A
100
AcDbEntity
  8
ZUWAKU
100
AcDbLine
 10
55.39221215478119
 20
26.92500000000018
 30
0.0
 11
55.39221215478119
 21
25.63479797464424
 31
0.0
  0
ARC
  5
6FE
330
1A
100
AcDbEntity
  8
ZUWAKU
100
AcDbCircle
 10
55.91721215478083
 20
26.92500000000018
 30
0.0
 40
0.525
100
AcDbArc
 50
90.0
 51
180.0
  0
LINE
  5
6FF
330
1A
100
AcDbEntity
  8
ZUWAKU
100
AcDbLine
 10
59.41721215478082
 20
29.72499999999945
 30
0.0
 11
59.41721215478082
 21
27.97499999999946
 31
0.0
  0
ARC
  5
700
330
1A
100
AcDbEntity
  8
ZUWAKU
100
AcDbCircle
 10
58.89221215478119
 20
27.97499999999946
 30
0.0
 40
0.525
100
AcDbArc
 50
270.0
 51
0.0
  0
ARC
  5
701
330
1A
100
AcDbEntity
  8
ZUWAKU
100
AcDbCircle
 10
58.89221215478119
 20
29.72499999999945
 30
0.0
 40
0.525
100
AcDbArc
 50
0.0
 51
90.0
  0
LINE
  5
702
330
1A
100
AcDbEntity
  8
ZUWAKU
100
AcDbLine
 10
64.31721215478138
 20
30.25
 30
0.0
 11
62.56721215478137
 21
30.25
 31
0.0
  0
ARC
  5
703
330
1A
100
AcDbEntity
  8
ZUWAKU
100
AcDbCircle
 10
62.56721215478137
 20
29.72499999999945
 30
0.0
 40
0.525
100
AcDbArc
 50
90.0
 51
180.0
  0
ARC
  5
704
330
1A
100
AcDbEntity
  8
ZUWAKU
100
AcDbCircle
 10
64.31721215478138
 20
29.72499999999945
 30
0.0
 40
0.525
100
AcDbArc
 50
0.0
 51
90.0
  0
LINE
  5
705
330
1A
100
AcDbEntity
  8
ZUWAKU
100
AcDbLine
 10
75.51721215478119
 20
30.25
 30
0.0
 11
73.76721215478119
 21
30.25
 31
0.0
  0
ARC
  5
706
330
1A
100
AcDbEntity
  8
ZUWAKU
100
AcDbCircle
 10
68.86721215478155
 20
29.72499999999945
 30
0.0
 40
0.525
100
AcDbArc
 50
90.0
 51
180.0
  0
LINE
  5
707
330
1A
100
AcDbEntity
  8
ZUWAKU
100
AcDbLine
 10
70.61721215478155
 20
30.25
 30
0.0
 11
68.86721215478155
 21
30.25
 31
0.0
  0
ARC
  5
708
330
1A
100
AcDbEntity
  8
ZUWAKU
100
AcDbCircle
 10
70.61721215478155
 20
29.72499999999945
 30
0.0
 40
0.525
100
AcDbArc
 50
0.0
 51
90.0
  0
ARC
  5
709
330
1A
100
AcDbEntity
  8
ZUWAKU
100
AcDbCircle
 10
73.76721215478119
 20
29.72499999999945
 30
0.0
 40
0.525
100
AcDbArc
 50
90.0
 51
180.0
  0
ARC
  5
70A
330
1A
100
AcDbEntity
  8
ZUWAKU
100
AcDbCircle
 10
75.51721215478119
 20
29.72499999999945
 30
0.0
 40
0.525
100
AcDbArc
 50
0.0
 51
90.0
  0
LINE
  5
70B
330
1A
100
AcDbEntity
  8
ZUWAKU
100
AcDbLine
 10
33.86721215478156
 20
27.44999999999982
 30
0.0
 11
31.94221215478137
 21
27.44999999999982
 31
0.0
  0
LINE
  5
70C
330
1A
100
AcDbEntity
  8
ZUWAKU
100
AcDbLine
 10
31.94221215478137
 20
30.25
 30
0.0
 11
33.86721215478156
 21
30.25
 31
0.0
  0
ARC
  5
70D
330
1A
100
AcDbEntity
  8
ZUWAKU
100
AcDbCircle
 10
22.49221215478156
 20
25.63479797464424
 30
0.0
 40
1.399999999999999
100
AcDbArc
 50
180.0
 51
225.0
  0
LINE
  5
70E
330
1A
100
AcDbEntity
  8
ZUWAKU
100
AcDbLine
 10
24.41206063576465
 20
21.73505050633867
 30
0.0
 11
21.50226266111986
 21
24.64484848098346
 31
0.0
  0
ARC
  5
70F
330
1A
100
AcDbEntity
  8
ZUWAKU
100
AcDbCircle
 10
24.59221215478101
 20
27.97499999999946
 30
0.0
 40
0.525
100
AcDbArc
 50
270.0
 51
0.0
  0
ARC
  5
710
330
1A
100
AcDbEntity
  8
ZUWAKU
100
AcDbCircle
 10
24.59221215478101
 20
29.72499999999945
 30
0.0
 40
0.525
100
AcDbArc
 50
0.0
 51
90.0
  0
LINE
  5
711
330
1A
100
AcDbEntity
  8
ZUWAKU
100
AcDbLine
 10
24.59221215478101
 20
27.44999999999982
 30
0.0
 11
21.61721215478156
 21
27.44999999999982
 31
0.0
  0
LINE
  5
712
330
1A
100
AcDbEntity
  8
ZUWAKU
100
AcDbLine
 10
21.09221215478101
 20
26.92500000000018
 30
0.0
 11
21.09221215478101
 21
25.63479797464424
 31
0.0
  0
ARC
  5
713
330
1A
100
AcDbEntity
  8
ZUWAKU
100
AcDbCircle
 10
21.61721215478156
 20
26.92500000000018
 30
0.0
 40
0.525
100
AcDbArc
 50
90.0
 51
180.0
  0
LINE
  5
714
330
1A
100
AcDbEntity
  8
ZUWAKU
100
AcDbLine
 10
21.09221215478101
 20
30.25
 30
0.0
 11
24.59221215478101
 21
30.25
 31
0.0
  0
ARC
  5
715
330
1A
100
AcDbEntity
  8
ZUWAKU
100
AcDbCircle
 10
31.94221215478137
 20
26.05000000000018
 30
0.0
 40
4.199999999999999
100
AcDbArc
 50
90.0
 51
180.0
  0
ARC
  5
716
330
1A
100
AcDbEntity
  8
ZUWAKU
100
AcDbCircle
 10
31.94221215478137
 20
26.05000000000018
 30
0.0
 40
1.399999999999999
100
AcDbArc
 50
90.0
 51
180.0
  0
LINE
  5
717
330
1A
100
AcDbEntity
  8
ZUWAKU
100
AcDbLine
 10
25.11721215478156
 20
29.72499999999945
 30
0.0
 11
25.11721215478156
 21
27.97499999999946
 31
0.0
  0
LINE
  5
718
330
1A
100
AcDbEntity
  8
ZUWAKU
100
AcDbLine
 10
34.39221215478119
 20
29.72499999999945
 30
0.0
 11
34.39221215478119
 21
27.97499999999946
 31
0.0
  0
ARC
  5
719
330
1A
100
AcDbEntity
  8
ZUWAKU
100
AcDbCircle
 10
33.86721215478156
 20
27.97499999999946
 30
0.0
 40
0.525
100
AcDbArc
 50
270.0
 51
0.0
  0
ARC
  5
71A
330
1A
100
AcDbEntity
  8
ZUWAKU
100
AcDbCircle
 10
37.36721215478155
 20
29.72499999999945
 30
0.0
 40
0.525
100
AcDbArc
 50
90.0
 51
180.0
  0
ARC
  5
71B
330
1A
100
AcDbEntity
  8
ZUWAKU
100
AcDbCircle
 10
33.86721215478156
 20
29.72499999999945
 30
0.0
 40
0.525
100
AcDbArc
 50
0.0
 51
90.0
  0
LINE
  5
71C
330
1A
100
AcDbEntity
  8
ZUWAKU
100
AcDbLine
 10
39.11721215478156
 20
30.25
 30
0.0
 11
37.36721215478155
 21
30.25
 31
0.0
  0
TEXT
  5
71D
330
1A
100
AcDbEntity
  8
ZUWAKU
100
AcDbText
 10
216.7240463122771
 20
31.05535653838524
 30
0.0
 40
4.0
  1
品名
 41
0.9
  7
MSPｺﾞｼｯｸ
100
AcDbText
  0
LINE
  5
72C
330
1A
100
AcDbEntity
  8
ZUWAKU
100
AcDbLine
 10
704.8490105485407
 20
37.0
 30
0.0
 11
704.8490105485416
 21
7.800000000000181
 31
0.0
  0
LINE
  5
72D
330
1A
100
AcDbEntity
  8
ZUWAKU
100
AcDbLine
 10
704.6490105485409
 20
37.0
 30
0.0
 11
704.6490105485418
 21
7.800000000000181
 31
0.0
  0
LINE
  5
72E
330
1A
100
AcDbEntity
  8
ZUWAKU
100
AcDbLine
 10
704.4490105485411
 20
37.0
 30
0.0
 11
704.4490105485411
 21
7.800000000000181
 31
0.0
  0
LINE
  5
72F
330
1A
100
AcDbEntity
  8
ZUWAKU
100
AcDbLine
 10
704.2490105485413
 20
37.0
 30
0.0
 11
704.2490105485413
 21
7.800000000000181
 31
0.0
  0
LINE
  5
730
330
1A
100
AcDbEntity
  8
ZUWAKU
100
AcDbLine
 10
655.4172025102043
 20
37.0
 30
0.0
 11
655.4172025102043
 21
7.800000000000181
 31
0.0
  0
LINE
  5
731
330
1A
100
AcDbEntity
  8
ZUWAKU
100
AcDbLine
 10
655.8172025102039
 20
37.0
 30
0.0
 11
655.8172025102049
 21
7.800000000000181
 31
0.0
  0
LINE
  5
732
330
1A
100
AcDbEntity
  8
ZUWAKU
100
AcDbLine
 10
655.6172025102041
 20
37.0
 30
0.0
 11
655.617202510205
 21
7.800000000000181
 31
0.0
  0
LINE
  5
733
330
1A
100
AcDbEntity
  8
ZUWAKU
100
AcDbLine
 10
511.7991794981407
 20
37.0
 30
0.0
 11
511.7991794981407
 21
7.800000000000181
 31
0.0
  0
LINE
  5
734
330
1A
100
AcDbEntity
  8
ZUWAKU
100
AcDbLine
 10
512.1991794981413
 20
37.0
 30
0.0
 11
512.1991794981413
 21
7.800000000000181
 31
0.0
  0
LINE
  5
735
330
1A
100
AcDbEntity
  8
ZUWAKU
100
AcDbLine
 10
511.9991794981406
 20
37.0
 30
0.0
 11
511.9991794981406
 21
7.800000000000181
 31
0.0
  0
TEXT
  5
736
330
1A
100
AcDbEntity
  8
ZUWAKU
100
AcDbText
 10
513.6766245203507
 20
16.6553565383856
 30
0.0
 40
4.0
  1
縮尺
 41
0.9
  7
MSPｺﾞｼｯｸ
100
AcDbText
  0
LINE
  5
737
330
1A
100
AcDbEntity
  8
ZUWAKU
100
AcDbLine
 10
559.5269557661122
 20
37.0
 30
0.0
 11
559.5269557661122
 21
7.800000000000181
 31
0.0
  0
LINE
  5
738
330
1A
100
AcDbEntity
  8
ZUWAKU
100
AcDbLine
 10
559.9269557661127
 20
37.0
 30
0.0
 11
559.9269557661127
 21
7.800000000000181
 31
0.0
  0
LINE
  5
739
330
1A
100
AcDbEntity
  8
ZUWAKU
100
AcDbLine
 10
559.726955766112
 20
37.0
 30
0.0
 11
559.726955766112
 21
7.800000000000181
 31
0.0
  0
LINE
  5
73A
330
1A
100
AcDbEntity
  8
ZUWAKU
100
AcDbLine
 10
454.4243639709911
 20
37.0
 30
0.0
 11
454.4243639709911
 21
7.800000000000181
 31
0.0
  0
LINE
  5
73B
330
1A
100
AcDbEntity
  8
ZUWAKU
100
AcDbLine
 10
454.8243639709917
 20
37.0
 30
0.0
 11
454.8243639709917
 21
7.800000000000181
 31
0.0
  0
LINE
  5
73C
330
1A
100
AcDbEntity
  8
ZUWAKU
100
AcDbLine
 10
454.624363970991
 20
37.0
 30
0.0
 11
454.624363970991
 21
7.800000000000181
 31
0.0
  0
TEXT
  5
73D
330
1A
100
AcDbEntity
  8
ZUWAKU
100
AcDbText
 10
469.6937616555069
 20
9.614070911139606
 30
0.0
 40
3.0
  1
□には色品番が入ります
 41
0.9
  7
MSPｺﾞｼｯｸ
100
AcDbText
  0
TEXT
  5
73E
330
1A
100
AcDbEntity
  8
MOJI
100
AcDbText
 10
535.0409079723131
 20
10.20492105740686
 30
0.0
 40
5.599999999999999
  1
１/２
 41
0.9
  7
MSPｺﾞｼｯｸ
100
AcDbText
  0
TEXT
  5
73F
330
1A
100
AcDbEntity
  8
ZUWAKU
100
AcDbText
 10
456.3018089932011
 20
31.05535653838524
 30
0.0
 40
4.0
  1
品番
 41
0.9
  7
MSPｺﾞｼｯｸ
100
AcDbText
  0
LINE
  5
751
330
1A
100
AcDbEntity
  8
ZUWAKU
100
AcDbLine
 10
512.1991794981413
 20
22.60000000000037
 30
0.0
 11
559.5269557661122
 21
22.60000000000037
 31
0.0
  0
LINE
  5
752
330
1A
100
AcDbEntity
  8
ZUWAKU
100
AcDbLine
 10
512.1991794981413
 20
22.39999999999964
 30
0.0
 11
559.5269557661122
 21
22.39999999999964
 31
0.0
  0
LINE
  5
753
330
1A
100
AcDbEntity
  8
ZUWAKU
100
AcDbLine
 10
512.1991794981413
 20
22.19999999999982
 30
0.0
 11
559.5269557661122
 21
22.19999999999982
 31
0.0
  0
TEXT
  5
754
330
1A
100
AcDbEntity
  8
MOJI
100
AcDbText
 10
535.0409079723131
 20
25.00492105740705
 30
0.0
 40
5.599999999999999
  1
Ａ３
 41
0.9
  7
MSPｺﾞｼｯｸ
100
AcDbText
  0
TEXT
  5
755
330
1A
100
AcDbEntity
  8
ZUWAKU
100
AcDbText
 10
513.6766245203507
 20
31.05535653838524
 30
0.0
 40
4.0
  1
用紙
 41
0.9
  7
MSPｺﾞｼｯｸ
100
AcDbText
  0
TEXT
  5
756
330
1A
100
AcDbEntity
  8
ZUWAKU
100
AcDbText
 10
657.2946475324142
 20
31.05535653838524
 30
0.0
 40
4.0
  1
DATE
 41
0.9
  7
MSPｺﾞｼｯｸ
100
AcDbText
  0
TEXT
  5
757
330
1A
100
AcDbEntity
  8
ZUWAKU
100
AcDbText
 10
665.2039376873026
 20
25.00492105740705
 30
0.0
 40
5.599999999999999
  1
　　．　　．　　
 41
0.9
  7
MSPｺﾞｼｯｸ
100
AcDbText
  0
LINE
  5
758
330
1A
100
AcDbEntity
  8
ZUWAKU
100
AcDbLine
 10
655.8172025102039
 20
22.60000000000037
 30
0.0
 11
704.2490105485413
 21
22.60000000000037
 31
0.0
  0
LINE
  5
759
330
1A
100
AcDbEntity
  8
ZUWAKU
100
AcDbLine
 10
655.8172025102039
 20
22.39999999999964
 30
0.0
 11
704.2490105485413
 21
22.39999999999964
 31
0.0
  0
LINE
  5
75A
330
1A
100
AcDbEntity
  8
ZUWAKU
100
AcDbLine
 10
655.8172025102039
 20
22.19999999999982
 30
0.0
 11
704.2490105485413
 21
22.19999999999982
 31
0.0
  0
TEXT
  5
7ED
330
1A
100
AcDbEntity
  8
ZUWAKU
100
AcDbText
 10
715.528084192244
 20
19.19854557791018
 30
0.0
 40
6.0
  1
積水化学工業株式会社
 41
0.9
  7
MSPｺﾞｼｯｸ
100
AcDbText
  0
TEXT
  5
92A
330
1A
100
AcDbEntity
  8
MOJI
100
AcDbText
 10
234.8524182955643
 20
26.88284560191801
 30
0.0
 40
6.0
  1
ｵｰﾊﾞｰﾌﾛｰｿｹｯﾄ ＵＲＴ６０ＢＬ 
 41
0.9
  7
MSPｺﾞｼｯｸ
100
AcDbText
  0
TEXT
  5
92B
330
1A
100
AcDbEntity
  8
MOJI
100
AcDbText
 10
234.8524182955643
 20
12.02817668341424
 30
0.0
 40
6.0
  1
ＵＲＴ６０ＢＬ
 41
0.9
  7
MSPｺﾞｼｯｸ
100
AcDbText
  0
TEXT
  5
1915
330
1A
100
AcDbEntity
  8
MOJI
100
AcDbText
 10
90.8047025899823
 20
20.4362395715745
 30
0.0
 40
6.0
  1
ユニシェイプ
 41
0.9
  7
MSPｺﾞｼｯｸ
100
AcDbText
  0
LINE
  5
205D
330
1A
100
AcDbEntity
  8
SEIHIN
  6
Continuous
370
    15
100
AcDbLine
 10
261.2031136816508
 20
206.9462393427798
 30
0.0
 11
261.7616837090022
 21
174.9457796121546
 31
0.0
  0
LINE
  5
205E
330
1A
100
AcDbEntity
  8
SEIHIN
  6
Continuous
370
    15
100
AcDbLine
 10
318.444544187761
 20
174.9457796121546
 30
0.0
 11
319.0031142151124
 21
206.9462393427798
 31
0.0
  0
LINE
  5
205F
330
1A
100
AcDbEntity
  8
SEIHIN
  6
Continuous
370
    15
100
AcDbLine
 10
261.7616837090022
 20
174.9457796121546
 30
0.0
 11
262.1140402918822
 21
171.9462354684779
 31
0.0
  0
LINE
  5
2060
330
1A
100
AcDbEntity
  8
SEIHIN
  6
Continuous
370
    15
100
AcDbLine
 10
318.0921857422359
 20
171.9462354684779
 30
0.0
 11
318.444544187761
 21
174.9457796121546
 31
0.0
  0
LINE
  5
2061
330
1A
100
AcDbEntity
  8
SEIHIN
  6
Continuous
370
    15
100
AcDbLine
 10
248.603112733937
 20
321.9062355364272
 30
0.0
 11
248.603112733937
 21
206.9462393427798
 31
0.0
  0
LINE
  5
2062
330
1A
100
AcDbEntity
  8
SEIHIN
  6
Continuous
370
    15
100
AcDbLine
 10
331.6031133001811
 20
206.9462393427798
 30
0.0
 11
331.6031133001811
 21
321.9062355364272
 31
0.0
  0
ARC
  5
2063
330
1A
100
AcDbEntity
  8
SEIHIN
  6
Continuous
370
    15
100
AcDbCircle
 10
331.1031137473651
 20
321.9062364754889
 30
0.0
 40
0.5
100
AcDbArc
 50
0.0
 51
90.0
  0
ARC
  5
2064
330
1A
100
AcDbEntity
  8
SEIHIN
  6
Continuous
370
    15
100
AcDbCircle
 10
249.1031137473651
 20
321.9062364754889
 30
0.0
 40
0.5
100
AcDbArc
 50
90.0
 51
180.0
  0
ARC
  5
2065
330
1A
100
AcDbEntity
  8
SEIHIN
  6
Continuous
370
    15
100
AcDbCircle
 10
328.5573273097382
 20
323.4062364754889
 30
0.0
 40
1.000000000000014
100
AcDbArc
 50
225.0000000000083
 51
270.0
  0
ARC
  5
2066
330
1A
100
AcDbEntity
  8
SEIHIN
  6
Continuous
370
    15
100
AcDbCircle
 10
251.6489001849921
 20
323.4062364754889
 30
0.0
 40
1.000000000000014
100
AcDbArc
 50
270.0
 51
314.9999999999916
  0
LINE
  5
2067
330
1A
100
AcDbEntity
  8
SEIHIN
  6
Continuous
370
    15
100
AcDbLine
 10
327.8502223258979
 20
322.6991300488421
 30
0.0
 11
320.1031123465068
 21
330.4462363029429
 31
0.0
  0
LINE
  5
2068
330
1A
100
AcDbEntity
  8
SEIHIN
  6
Continuous
370
    15
100
AcDbLine
 10
260.1031136876113
 20
330.4462363029429
 30
0.0
 11
252.3560074335105
 21
322.6991300488421
 31
0.0
  0
LINE
  5
2069
330
1A
100
AcDbEntity
  8
SEIHIN
  6
Continuous
370
    15
100
AcDbLine
 10
319.0031142151124
 20
330.4462363029429
 30
0.0
 11
318.444544187761
 21
362.4466960335681
 31
0.0
  0
LINE
  5
206A
330
1A
100
AcDbEntity
  8
SEIHIN
  6
Continuous
370
    15
100
AcDbLine
 10
261.7616837090022
 20
362.4466960335681
 30
0.0
 11
261.2031136816508
 21
330.4462363029429
 31
0.0
  0
LINE
  5
206B
330
1A
100
AcDbEntity
  8
SEIHIN
  6
Continuous
370
    15
100
AcDbLine
 10
318.444544187761
 20
362.4466960335681
 30
0.0
 11
318.0921857422359
 21
365.4462401772448
 31
0.0
  0
LINE
  5
206C
330
1A
100
AcDbEntity
  8
SEIHIN
  6
Continuous
370
    15
100
AcDbLine
 10
262.1140402918822
 20
365.4462401772448
 30
0.0
 11
261.7616837090022
 21
362.4466960335681
 31
0.0
  0
LINE
  5
206E
330
1A
100
AcDbEntity
  8
SEIHIN
  6
Continuous
370
    15
100
AcDbLine
 10
318.0921857422359
 20
171.9462354684779
 30
0.0
 11
262.1140402918822
 21
171.9462354684779
 31
0.0
  0
LINE
  5
2071
330
1A
100
AcDbEntity
  8
SEIHIN
  6
Continuous
370
    15
100
AcDbLine
 10
283.7746867155797
 20
321.9062355364272
 30
0.0
 11
283.7746867155797
 21
206.9462393427798
 31
0.0
  0
LINE
  5
2072
330
1A
100
AcDbEntity
  8
SEIHIN
  6
Continuous
370
    15
100
AcDbLine
 10
283.7746867155797
 20
206.9462393427798
 30
0.0
 11
283.0675800508029
 21
206.9462393427798
 31
0.0
  0
LINE
  5
2073
330
1A
100
AcDbEntity
  8
SEIHIN
  6
Continuous
370
    15
100
AcDbLine
 10
283.4211333831913
 20
322.4062365497061
 30
0.0
 11
283.7746867155797
 21
322.4062365497061
 31
0.0
  0
LINE
  5
2074
330
1A
100
AcDbEntity
  8
SEIHIN
  6
Continuous
370
    15
100
AcDbLine
 10
283.7746867155797
 20
322.4062365497061
 30
0.0
 11
283.7746867155797
 21
321.9062355364272
 31
0.0
  0
LINE
  5
2076
330
1A
100
AcDbEntity
  8
SEIHIN
  6
Continuous
370
    15
100
AcDbLine
 10
283.7746867155797
 20
322.4062365497061
 30
0.0
 11
296.4315407155222
 21
322.4062365497061
 31
0.0
  0
LINE
  5
2077
330
1A
100
AcDbEntity
  8
SEIHIN
  6
Continuous
370
    15
100
AcDbLine
 10
296.4315407155222
 20
322.4062365497061
 30
0.0
 11
296.4315407155222
 21
321.9062355364272
 31
0.0
  0
LINE
  5
2079
330
1A
100
AcDbEntity
  8
SEIHIN
  6
Continuous
370
    15
100
AcDbLine
 10
296.4315407155222
 20
206.9462393427798
 30
0.0
 11
296.4315407155222
 21
321.9062355364272
 31
0.0
  0
LINE
  5
207A
330
1A
100
AcDbEntity
  8
SEIHIN
  6
Continuous
370
    15
100
AcDbLine
 10
296.4315407155222
 20
206.9462393427798
 30
0.0
 11
283.7746867155797
 21
206.9462393427798
 31
0.0
  0
LINE
  5
207B
330
1A
100
AcDbEntity
  8
SEIHIN
  6
Continuous
370
    15
100
AcDbLine
 10
296.4315407155222
 20
322.4062365497061
 30
0.0
 11
296.7850945135719
 21
322.4062365497061
 31
0.0
  0
LINE
  5
207F
330
1A
100
AcDbEntity
  8
SEIHIN
  6
Continuous
370
    15
100
AcDbLine
 10
297.1386478459603
 20
206.9462393427798
 30
0.0
 11
296.4315407155222
 21
206.9462393427798
 31
0.0
  0
LINE
  5
2082
330
1A
100
AcDbEntity
  8
SEIHIN
  6
Continuous
370
    15
100
AcDbLine
 10
282.7697337782151
 20
322.4062365497061
 30
0.0
 11
283.4211333831913
 21
322.4062365497061
 31
0.0
  0
LINE
  5
2084
330
1A
100
AcDbEntity
  8
SEIHIN
  6
Continuous
370
    15
100
AcDbLine
 10
283.0675800508029
 20
206.9462393427798
 30
0.0
 11
282.4161804458267
 21
206.9462393427798
 31
0.0
  0
LINE
  5
2087
330
1A
100
AcDbEntity
  8
SEIHIN
  6
Continuous
370
    15
100
AcDbLine
 10
297.7900465196139
 20
206.9462393427798
 30
0.0
 11
297.1386478459603
 21
206.9462393427798
 31
0.0
  0
LINE
  5
2088
330
1A
100
AcDbEntity
  8
SEIHIN
  6
Continuous
370
    15
100
AcDbLine
 10
296.7850945135719
 20
322.4062365497061
 30
0.0
 11
297.4364931872255
 21
322.4062365497061
 31
0.0
  0
LINE
  5
208A
330
1A
100
AcDbEntity
  8
SEIHIN
  6
Continuous
370
    15
100
AcDbLine
 10
281.9065807564325
 20
206.9462393427798
 30
0.0
 11
281.9065807564325
 21
321.9062355364272
 31
0.0
  0
LINE
  5
208C
330
1A
100
AcDbEntity
  8
SEIHIN
  6
Continuous
370
    15
100
AcDbLine
 10
282.4161804458267
 20
206.9462393427798
 30
0.0
 11
281.9065807564325
 21
206.9462393427798
 31
0.0
  0
ARC
  5
208D
330
1A
100
AcDbEntity
  8
SEIHIN
  6
Continuous
370
    15
100
AcDbCircle
 10
282.6135379539501
 20
322.0263598630098
 30
0.0
 40
0.7170901846761324
100
AcDbArc
 50
148.0116083166062
 51
189.6434453696692
  0
LINE
  5
208E
330
1A
100
AcDbEntity
  8
SEIHIN
  6
Continuous
370
    15
100
AcDbLine
 10
282.0053340112931
 20
322.4062365497061
 30
0.0
 11
282.7697337782151
 21
322.4062365497061
 31
0.0
  0
ARC
  5
208F
330
1A
100
AcDbEntity
  8
SEIHIN
  6
Continuous
370
    15
100
AcDbCircle
 10
297.592691582498
 20
322.0263608452597
 30
0.0
 40
0.7170882736241829
100
AcDbArc
 50
350.3564490776596
 51
31.98839452131625
  0
LINE
  5
2091
330
1A
100
AcDbEntity
  8
SEIHIN
  6
Continuous
370
    15
100
AcDbLine
 10
297.4364931872255
 20
322.4062365497061
 30
0.0
 11
298.2008938854701
 21
322.4062365497061
 31
0.0
  0
LINE
  5
2092
330
1A
100
AcDbEntity
  8
SEIHIN
  6
Continuous
370
    15
100
AcDbLine
 10
298.2996466746694
 20
321.9062355364272
 30
0.0
 11
298.2996466746694
 21
206.9462393427798
 31
0.0
  0
LINE
  5
2093
330
1A
100
AcDbEntity
  8
SEIHIN
  6
Continuous
370
    15
100
AcDbLine
 10
298.2996466746694
 20
206.9462393427798
 30
0.0
 11
297.7900465196139
 21
206.9462393427798
 31
0.0
  0
LINE
  5
2094
330
1A
100
AcDbEntity
  8
SEIHIN
  6
Continuous
370
    15
100
AcDbLine
 10
298.2996466746694
 20
206.9462393427798
 30
0.0
 11
331.6031133001811
 21
206.9462393427798
 31
0.0
  0
LINE
  5
2095
330
1A
100
AcDbEntity
  8
SEIHIN
  6
Continuous
370
    15
100
AcDbLine
 10
248.603112733937
 20
206.9462393427798
 30
0.0
 11
281.9065807564325
 21
206.9462393427798
 31
0.0
  0
LINE
  5
2096
330
1A
100
AcDbEntity
  8
SEIHIN
  6
Continuous
370
    15
100
AcDbLine
 10
298.2008938854701
 20
322.4062365497061
 30
0.0
 11
331.1031122869021
 21
322.4062365497061
 31
0.0
  0
LINE
  5
2097
330
1A
100
AcDbEntity
  8
SEIHIN
  6
Continuous
370
    15
100
AcDbLine
 10
249.1031137472159
 20
322.4062365497061
 30
0.0
 11
282.0053340112931
 21
322.4062365497061
 31
0.0
  0
LINE
  5
2099
330
1A
100
AcDbEntity
  8
SEIHIN
  6
Continuous
370
    15
100
AcDbLine
 10
290.6400088397927
 20
325.2534014190146
 30
0.0
 11
289.5662185913093
 21
325.2534014190146
 31
0.0
  0
LINE
  5
209D
330
1A
100
AcDbEntity
  8
SEIHIN
  6
Continuous
370
    15
100
AcDbLine
 10
291.116520500756
 20
330.4462363029429
 30
0.0
 11
320.1031123465068
 21
330.4462363029429
 31
0.0
  0
LINE
  5
209E
330
1A
100
AcDbEntity
  8
SEIHIN
  6
Continuous
370
    15
100
AcDbLine
 10
260.1031136876113
 20
330.4462363029429
 30
0.0
 11
289.0897070758651
 21
330.4462363029429
 31
0.0
  0
LWPOLYLINE
  5
20A1
330
1A
100
AcDbEntity
  8
SEIHIN
  6
Continuous
370
    15
100
AcDbPolyline
 90
        9
 70
   128
 43
0.0
 10
290.6400088397927
 20
325.2534014190146
 10
290.6405662363536
 20
325.2893355692336
 10
290.6411692677206
 20
325.3282611275622
 10
290.6418121131278
 20
325.369809290261
 10
290.6424887189782
 20
325.4135963524291
 10
290.6431927988446
 20
325.4592013562628
 10
290.643917833469
 20
325.5061996186682
 10
290.6446566051013
 20
325.5541478300997
 10
290.6454025944836
 20
325.6025915051409
  0
LWPOLYLINE
  5
20A6
330
1A
100
AcDbEntity
  8
SEIHIN
  6
Continuous
370
    15
100
AcDbPolyline
 90
        9
 70
   128
 43
0.0
 10
289.5662185913093
 20
325.2534014190146
 10
289.5656611947483
 20
325.2893355692336
 10
289.5650582797966
 20
325.3282611275622
 10
289.5644154343895
 20
325.369809290261
 10
289.5637387703314
 20
325.4135963524291
 10
289.5630346322573
 20
325.4592013562628
 10
289.5623097140483
 20
325.5061996186682
 10
289.5615708260006
 20
325.5541478300997
 10
289.560824894826
 20
325.6025915051409
  0
LINE
  5
20AA
330
1A
100
AcDbEntity
  8
SEIHIN
  6
Continuous
370
    15
100
AcDbLine
 10
290.6454025944836
 20
325.6025915051409
 30
0.0
 11
290.6117834793544
 21
329.4549626315543
 31
0.0
  0
LINE
  5
20AC
330
1A
100
AcDbEntity
  8
SEIHIN
  6
Continuous
370
    15
100
AcDbLine
 10
289.5944440099551
 20
329.4549626315543
 30
0.0
 11
289.560824894826
 21
325.6025915051409
 31
0.0
  0
LWPOLYLINE
  5
20AF
330
1A
100
AcDbEntity
  8
SEIHIN
  6
Continuous
370
    15
100
AcDbPolyline
 90
        9
 70
   128
 43
0.0
 10
289.59876936303
 20
330.4462363029429
 10
289.5986864171132
 20
330.4272335971305
 10
289.5984408389918
 20
330.370948186011
 10
289.5980418836839
 20
330.2795183862158
 10
289.597504743389
 20
330.1564236188838
 10
289.596849848996
 20
330.0063316727587
 10
289.5961020551763
 20
329.8349571431586
 10
289.5952898254759
 20
329.6488118375251
 10
289.5944440099551
 20
329.4549626315543
  0
LWPOLYLINE
  5
20B3
330
1A
100
AcDbEntity
  8
SEIHIN
  6
Continuous
370
    15
100
AcDbPolyline
 90
        9
 70
   128
 43
0.0
 10
290.6117834793544
 20
329.4549626315543
 10
290.610937605626
 20
329.6488118375251
 10
290.6101253759257
 20
329.8349571431586
 10
290.6093776403136
 20
330.0063316727587
 10
290.608722687713
 20
330.1564236188838
 10
290.6081855474181
 20
330.2795183862158
 10
290.6077867085255
 20
330.370948186011
 10
290.6075410721964
 20
330.4272335971305
 10
290.6074581844873
 20
330.4462363029429
  0
LINE
  5
20B5
330
1A
100
AcDbEntity
  8
SEIHIN
  6
Continuous
370
    15
100
AcDbLine
 10
289.59876936303
 20
330.4462363029429
 30
0.0
 11
290.6074581844873
 21
330.4462363029429
 31
0.0
  0
SPLINE
  5
20B8
330
1A
100
AcDbEntity
  8
SEIHIN
  6
Continuous
370
    15
100
AcDbSpline
210
0.0
220
0.0
230
1.0
 70
    24
 71
     3
 72
    11
 73
     7
 74
     0
 42
0.0000000001
 43
0.0000000001
 40
0.0
 40
0.0
 40
0.0
 40
0.0
 40
0.007895974765666
 40
0.1439667918861449
 40
0.6093545498381677
 40
1.0
 40
1.0
 40
1.0
 40
1.0
 10
290.6074581844873
 20
330.4462363029429
 30
0.0
 10
290.608497113715
 20
330.4462363029429
 30
0.0
 10
290.6274398424214
 20
330.4462363029429
 30
0.0
 10
290.7122031287381
 20
330.446236302943
 30
0.0
 10
290.8812094953846
 20
330.4462363029429
 30
0.0
 10
291.0427860439968
 20
330.4462363029429
 30
0.0
 10
291.116520500756
 20
330.4462363029429
 30
0.0
  0
SPLINE
  5
20B9
330
1A
100
AcDbEntity
  8
SEIHIN
  6
Continuous
370
    15
100
AcDbSpline
210
0.0
220
0.0
230
1.0
 70
    24
 71
     3
 72
    11
 73
     7
 74
     0
 42
0.0000000001
 43
0.0000000001
 40
0.0
 40
0.0
 40
0.0
 40
0.0
 40
0.4474607280048354
 40
0.910174933543794
 40
0.9920991326565008
 40
1.0
 40
1.0
 40
1.0
 40
1.0
 10
289.0897070758651
 20
330.4462363029429
 30
0.0
 10
289.1742239833675
 20
330.4462363029429
 30
0.0
 10
289.3461388931119
 20
330.4462363029429
 30
0.0
 10
289.5106913083319
 20
330.446236302943
 30
0.0
 10
289.5859187239278
 20
330.4462363029429
 30
0.0
 10
289.597730424942
 20
330.4462363029429
 30
0.0
 10
289.59876936303
 20
330.4462363029429
 30
0.0
  0
LINE
  5
20BC
330
1A
100
AcDbEntity
  8
SEIHIN
  6
Continuous
370
    15
100
AcDbLine
 10
290.103113715551
 20
365.4462401772448
 30
0.0
 11
318.0921857422359
 21
365.4462401772448
 31
0.0
  0
LINE
  5
20BD
330
1A
100
AcDbEntity
  8
SEIHIN
  6
Continuous
370
    15
100
AcDbLine
 10
262.1140402918822
 20
365.4462401772448
 30
0.0
 11
290.103113715551
 21
365.4462401772448
 31
0.0
  0
LINE
  5
20C1
330
1A
100
AcDbEntity
  8
SEIHIN
  6
Continuous
370
    15
100
AcDbLine
 10
445.5823591854393
 20
206.9462393427798
 30
0.0
 11
446.1409292127907
 21
174.9457796121546
 31
0.0
  0
LINE
  5
20C2
330
1A
100
AcDbEntity
  8
SEIHIN
  6
Continuous
370
    15
100
AcDbLine
 10
502.8237841036141
 20
174.9457796121546
 30
0.0
 11
503.3823541309654
 21
206.9462393427798
 31
0.0
  0
LINE
  5
20C3
330
1A
100
AcDbEntity
  8
SEIHIN
  6
Continuous
370
    15
100
AcDbLine
 10
446.1409292127907
 20
174.9457796121546
 30
0.0
 11
446.4932820703804
 21
171.9462354684779
 31
0.0
  0
LINE
  5
20C4
330
1A
100
AcDbEntity
  8
SEIHIN
  6
Continuous
370
    15
100
AcDbLine
 10
502.4714312460243
 20
171.9462354684779
 30
0.0
 11
502.8237841036141
 21
174.9457796121546
 31
0.0
  0
ARC
  5
20C5
330
1A
100
AcDbEntity
  8
SEIHIN
  6
Continuous
370
    15
100
AcDbCircle
 10
433.4823558237494
 20
321.9062364754889
 30
0.0
 40
0.5
100
AcDbArc
 50
90.0
 51
180.0
  0
LINE
  5
20C6
330
1A
100
AcDbEntity
  8
SEIHIN
  6
Continuous
370
    15
100
AcDbLine
 10
432.9823545124352
 20
321.9062355364272
 30
0.0
 11
432.9823545124352
 21
206.9462393427798
 31
0.0
  0
ARC
  5
20C7
330
1A
100
AcDbEntity
  8
SEIHIN
  6
Continuous
370
    15
100
AcDbCircle
 10
512.9365693861227
 20
323.4062364754889
 30
0.0
 40
1.000000000000014
100
AcDbArc
 50
225.0000000000083
 51
270.0
  0
ARC
  5
20C8
330
1A
100
AcDbEntity
  8
SEIHIN
  6
Continuous
370
    15
100
AcDbCircle
 10
436.0281422613764
 20
323.4062364754889
 30
0.0
 40
1.000000000000014
100
AcDbArc
 50
270.0
 51
314.9999999999916
  0
LINE
  5
20C9
330
1A
100
AcDbEntity
  8
SEIHIN
  6
Continuous
370
    15
100
AcDbLine
 10
512.2294566538155
 20
322.6991300488421
 30
0.0
 11
509.6731475498497
 21
325.2554503286788
 31
0.0
  0
LINE
  5
20CA
330
1A
100
AcDbEntity
  8
SEIHIN
  6
Continuous
370
    15
100
AcDbLine
 10
444.4823554661095
 20
330.4462363029429
 30
0.0
 11
436.7352492120087
 21
322.6991300488421
 31
0.0
  0
LINE
  5
20CB
330
1A
100
AcDbEntity
  8
SEIHIN
  6
Continuous
370
    15
100
AcDbLine
 10
503.3823541309654
 20
330.4462363029429
 30
0.0
 11
502.8237841036141
 21
362.4466960335681
 31
0.0
  0
LINE
  5
20CC
330
1A
100
AcDbEntity
  8
SEIHIN
  6
Continuous
370
    15
100
AcDbLine
 10
446.1409292127907
 20
362.4466960335681
 30
0.0
 11
445.5823591854393
 21
330.4462363029429
 31
0.0
  0
LINE
  5
20CD
330
1A
100
AcDbEntity
  8
SEIHIN
  6
Continuous
370
    15
100
AcDbLine
 10
502.8237841036141
 20
362.4466960335681
 30
0.0
 11
502.4714312460243
 21
365.4462401772448
 31
0.0
  0
LINE
  5
20CE
330
1A
100
AcDbEntity
  8
SEIHIN
  6
Continuous
370
    15
100
AcDbLine
 10
446.4932820703804
 20
365.4462401772448
 30
0.0
 11
446.1409292127907
 21
362.4466960335681
 31
0.0
  0
ARC
  5
20CF
330
1A
100
AcDbEntity
  8
SEIHIN
  6
Continuous
370
    15
100
AcDbCircle
 10
510.0245702077463
 20
325.6111288726788
 30
0.0
 40
0.5000000000001755
100
AcDbArc
 50
180.5000849440053
 51
225.4154062886559
  0
LINE
  5
20D0
330
1A
100
AcDbEntity
  8
SEIHIN
  6
Continuous
370
    15
100
AcDbLine
 10
446.1409292127907
 20
174.9457796121546
 30
0.0
 11
502.8237841036141
 21
174.9457796121546
 31
0.0
  0
LINE
  5
20D1
330
1A
100
AcDbEntity
  8
SEIHIN
  6
Continuous
370
    15
100
AcDbLine
 10
502.4714312460243
 20
171.9462354684779
 30
0.0
 11
446.4932820703804
 21
171.9462354684779
 31
0.0
  0
LINE
  5
20D2
330
1A
100
AcDbEntity
  8
SEIHIN
  6
Continuous
370
    15
100
AcDbLine
 10
433.4823555257141
 20
322.4062365497061
 30
0.0
 11
514.6747223045647
 21
322.4062365497061
 31
0.0
  0
LINE
  5
20D5
330
1A
100
AcDbEntity
  8
SEIHIN
  6
Continuous
370
    15
100
AcDbLine
 10
432.9823545124352
 20
206.9462393427798
 30
0.0
 11
515.1648661997139
 21
206.9462393427798
 31
0.0
  0
LINE
  5
20D7
330
1A
100
AcDbEntity
  8
SEIHIN
  6
Continuous
370
    15
100
AcDbLine
 10
444.4823554661095
 20
330.4462363029429
 30
0.0
 11
504.4652364160835
 21
330.4462363029429
 31
0.0
  0
LINE
  5
20DA
330
1A
100
AcDbEntity
  8
SEIHIN
  6
Continuous
370
    15
100
AcDbLine
 10
502.8237841036141
 20
362.4466960335681
 30
0.0
 11
446.1409292127907
 21
362.4466960335681
 31
0.0
  0
LINE
  5
20DB
330
1A
100
AcDbEntity
  8
SEIHIN
  6
Continuous
370
    15
100
AcDbLine
 10
446.4932820703804
 20
365.4462401772448
 30
0.0
 11
502.4714312460243
 21
365.4462401772448
 31
0.0
  0
ARC
  5
20DC
330
1A
100
AcDbEntity
  8
SEIHIN
  6
Continuous
370
    15
100
AcDbCircle
 10
515.540420364986
 20
321.9687406603291
 30
0.0
 40
0.4463336451864243
100
AcDbArc
 50
351.9498882338518
 51
78.57976882873902
  0
LINE
  5
20DD
330
1A
100
AcDbEntity
  8
SEIHIN
  6
Continuous
370
    15
100
AcDbLine
 10
514.6747223045647
 20
322.4062365497061
 30
0.0
 11
515.0845042373955
 21
322.4062365497061
 31
0.0
  0
LINE
  5
20DE
330
1A
100
AcDbEntity
  8
SEIHIN
  6
Continuous
370
    15
100
AcDbLine
 10
515.9823558237386
 20
321.9062364754889
 30
0.0
 11
515.9823558237386
 21
206.9462402818415
 31
0.0
  0
LINE
  5
20DF
330
1A
100
AcDbEntity
  8
SEIHIN
  6
Continuous
370
    15
100
AcDbLine
 10
515.4380640890419
 20
206.9462393427798
 30
0.0
 11
515.1648661997139
 21
206.9462393427798
 31
0.0
  0
LINE
  5
20E0
330
1A
100
AcDbEntity
  8
SEIHIN
  6
Continuous
370
    15
100
AcDbLine
 10
515.0845042373955
 20
322.4062365497061
 30
0.0
 11
515.7359084989845
 21
322.4062365497061
 31
0.0
  0
LINE
  5
20E1
330
1A
100
AcDbEntity
  8
SEIHIN
  6
Continuous
370
    15
100
AcDbLine
 10
516.089468350631
 20
206.9462393427798
 30
0.0
 11
515.4380640890419
 21
206.9462393427798
 31
0.0
  0
ARC
  5
20E2
330
1A
100
AcDbEntity
  8
SEIHIN
  6
Continuous
370
    15
100
AcDbCircle
 10
515.8823558237384
 20
321.9062364754889
 30
0.0
 40
0.5000000000002274
100
AcDbArc
 50
0.0
 51
90.0
  0
LINE
  5
20E3
330
1A
100
AcDbEntity
  8
SEIHIN
  6
Continuous
370
    15
100
AcDbLine
 10
515.7359084989845
 20
322.4062365497061
 30
0.0
 11
515.8823571111977
 21
322.4062365497061
 31
0.0
  0
LINE
  5
20E4
330
1A
100
AcDbEntity
  8
SEIHIN
  6
Continuous
370
    15
100
AcDbLine
 10
516.382350673896
 20
321.9062355364272
 30
0.0
 11
516.382350673896
 21
206.9462393427798
 31
0.0
  0
LINE
  5
20E5
330
1A
100
AcDbEntity
  8
SEIHIN
  6
Continuous
370
    15
100
AcDbLine
 10
516.382350673896
 20
206.9462393427798
 30
0.0
 11
516.089468350631
 21
206.9462393427798
 31
0.0
  0
SPLINE
  5
20E6
330
1A
100
AcDbEntity
  8
SEIHIN
  6
Continuous
370
    15
100
AcDbSpline
210
0.0
220
0.0
230
1.0
 70
     8
 71
     3
 72
    13
 73
     9
 74
     0
 42
0.0000000001
 43
0.0000000001
 40
0.0
 40
0.0
 40
0.0
 40
0.0
 40
0.30738874140873
 40
0.5949333116190814
 40
0.7802092482339837
 40
0.8962983910187251
 40
0.9600843197477983
 40
0.9999999999999998
 40
0.9999999999999998
 40
0.9999999999999998
 40
0.9999999999999998
 10
509.0161106493294
 20
326.5811917389342
 30
0.0
 10
509.0763507468422
 20
326.4618866123214
 30
0.0
 10
509.1929420069559
 20
326.2309783697369
 30
0.0
 10
509.3448225069266
 20
325.9367827909458
 30
0.0
 10
509.4514592407024
 20
325.7338382849952
 30
0.0
 10
509.5042279797562
 20
325.6361619038496
 30
0.0
 10
509.5226473132345
 20
325.603981306157
 30
0.0
 10
509.5240772721913
 20
325.6029777737668
 30
0.0
 10
509.5246276762306
 20
325.6025915051409
 30
0.0
  0
ARC
  5
20E7
330
1A
100
AcDbEntity
  8
SEIHIN
  6
Continuous
370
    15
100
AcDbCircle
 10
510.0245408806144
 20
325.6069627798634
 30
0.0
 40
0.4999323153787719
100
AcDbArc
 50
180.5009853862926
 51
225.0090496611389
  0
SPLINE
  5
20E8
330
1A
100
AcDbEntity
  8
SEIHIN
  6
Continuous
370
    15
100
AcDbSpline
210
0.0
220
0.0
230
1.0
 70
     8
 71
     3
 72
    14
 73
    10
 74
     0
 42
0.0000000001
 43
0.0000000001
 40
0.0
 40
0.0
 40
0.0
 40
0.0
 40
0.0637588168716913
 40
0.0770696880926062
 40
0.177868921015144
 40
0.193523017053979
 40
0.360747148922497
 40
0.6101670108094594
 40
1.0
 40
1.0
 40
1.0
 40
1.0
 10
504.6852520611107
 20
330.4462363029429
 30
0.0
 10
504.6867351067057
 20
330.4449982152263
 30
0.0
 10
504.6885277664038
 20
330.4435016530435
 30
0.0
 10
504.7115295157318
 20
330.4303628403396
 30
0.0
 10
504.7405279796119
 20
330.4146170500284
 30
0.0
 10
504.8158198985233
 20
330.3743099726959
 30
0.0
 10
504.9567515492628
 20
330.3002513535575
 30
0.0
 10
505.2501504793749
 20
330.1487794100614
 30
0.0
 10
505.4950864144371
 20
330.0256741278673
 30
0.0
 10
505.6444547083201
 20
329.9506013298938
 30
0.0
  0
SPLINE
  5
20E9
330
1A
100
AcDbEntity
  8
SEIHIN
  6
Continuous
370
    15
100
AcDbSpline
210
0.0
220
0.0
230
1.0
 70
    24
 71
     3
 72
    11
 73
     7
 74
     0
 42
0.0000000001
 43
0.0000000001
 40
0.0
 40
0.0
 40
0.0
 40
0.0
 40
0.4474607280048354
 40
0.910174933543794
 40
0.9920991326565008
 40
1.0
 40
1.0
 40
1.0
 40
1.0
 10
504.4652364160838
 20
330.4462363029429
 30
0.0
 10
504.4756400107039
 20
330.4462363029429
 30
0.0
 10
504.4968018478209
 20
330.4462363029429
 30
0.0
 10
504.6000069482415
 20
330.446236302943
 30
0.0
 10
504.6720287666091
 20
330.4462363029429
 30
0.0
 10
504.68418299488
 20
330.4462363029429
 30
0.0
 10
504.6852520611107
 20
330.4462363029429
 30
0.0
  0
LINE
  5
20EA
330
1A
100
AcDbEntity
  8
SEIHIN
  6
Continuous
370
    15
100
AcDbLine
 10
505.6444547083199
 20
329.9506013298938
 30
0.0
 11
509.0161106493294
 21
326.5811917389342
 31
0.0
  0
LINE
  5
20EB
330
1A
100
AcDbEntity
  8
SEIHIN
  6
Continuous
370
    15
100
AcDbLine
 10
509.4910106565773
 20
329.4549626315543
 30
0.0
 11
509.5246276762306
 21
325.6025915051409
 31
0.0
  0
ARC
  5
20EF
330
1A
100
AcDbEntity
  8
SEIHIN
  6
Continuous
370
    15
100
AcDbCircle
 10
508.4910446131545
 20
329.4462364754889
 30
0.0
 40
1.000000000000176
100
AcDbArc
 50
0.5000000000013455
 51
90.0
  0
LINE
  5
20F0
330
1A
100
AcDbEntity
  8
SEIHIN
  6
Continuous
370
    15
100
AcDbLine
 10
504.6852520611107
 20
330.4462363029429
 30
0.0
 11
508.4910384323418
 21
330.4462363029429
 31
0.0
  0
LINE
  5
20F1
330
1A
100
AcDbEntity
  8
SEIHIN
  6
Continuous
370
    15
100
AcDbLine
 10
631.5372757671531
 20
206.9462393427798
 30
0.0
 11
632.0958457945045
 21
174.9457796121546
 31
0.0
  0
LINE
  5
20F2
330
1A
100
AcDbEntity
  8
SEIHIN
  6
Continuous
370
    15
100
AcDbLine
 10
688.7787062732633
 20
174.9457796121546
 30
0.0
 11
689.3372763006147
 21
206.9462393427798
 31
0.0
  0
LINE
  5
20F3
330
1A
100
AcDbEntity
  8
SEIHIN
  6
Continuous
370
    15
100
AcDbLine
 10
632.0958457945045
 20
174.9457796121546
 30
0.0
 11
632.4482042400297
 21
171.9462354684779
 31
0.0
  0
LINE
  5
20F4
330
1A
100
AcDbEntity
  8
SEIHIN
  6
Continuous
370
    15
100
AcDbLine
 10
688.4263496903833
 20
171.9462354684779
 30
0.0
 11
688.7787062732633
 21
174.9457796121546
 31
0.0
  0
ARC
  5
20F5
330
1A
100
AcDbEntity
  8
SEIHIN
  6
Continuous
370
    15
100
AcDbCircle
 10
701.4372762349004
 20
321.9062364754889
 30
0.0
 40
0.5
100
AcDbArc
 50
0.0
 51
90.0
  0
ARC
  5
20F6
330
1A
100
AcDbEntity
  8
SEIHIN
  6
Continuous
370
    15
100
AcDbCircle
 10
619.4372762349004
 20
321.9062364754889
 30
0.0
 40
0.5
100
AcDbArc
 50
90.0
 51
180.0
  0
LINE
  5
20F7
330
1A
100
AcDbEntity
  8
SEIHIN
  6
Continuous
370
    15
100
AcDbLine
 10
618.9372766820844
 20
321.9062355364272
 30
0.0
 11
618.9372766820844
 21
206.9462393427798
 31
0.0
  0
LINE
  5
20F8
330
1A
100
AcDbEntity
  8
SEIHIN
  6
Continuous
370
    15
100
AcDbLine
 10
701.9372772483285
 20
206.9462393427798
 30
0.0
 11
701.9372772483285
 21
321.9062355364272
 31
0.0
  0
ARC
  5
20F9
330
1A
100
AcDbEntity
  8
SEIHIN
  6
Continuous
370
    15
100
AcDbCircle
 10
698.8914897972737
 20
323.4062364754889
 30
0.0
 40
1.000000000000108
100
AcDbArc
 50
224.9999999999922
 51
270.0
  0
ARC
  5
20FA
330
1A
100
AcDbEntity
  8
SEIHIN
  6
Continuous
370
    15
100
AcDbCircle
 10
621.9830626725276
 20
323.4062364754889
 30
0.0
 40
1.000000000000014
100
AcDbArc
 50
270.0
 51
314.9999999999894
  0
LINE
  5
20FB
330
1A
100
AcDbEntity
  8
SEIHIN
  6
Continuous
370
    15
100
AcDbLine
 10
698.184382548755
 20
322.6991300488421
 30
0.0
 11
690.4372762946542
 21
330.4462363029429
 31
0.0
  0
LINE
  5
20FC
330
1A
100
AcDbEntity
  8
SEIHIN
  6
Continuous
370
    15
100
AcDbLine
 10
630.4372776357587
 20
330.4462363029429
 30
0.0
 11
622.6901676563676
 21
322.6991300488421
 31
0.0
  0
LINE
  5
20FD
330
1A
100
AcDbEntity
  8
SEIHIN
  6
Continuous
370
    15
100
AcDbLine
 10
689.3372763006147
 20
330.4462363029429
 30
0.0
 11
688.7787062732633
 21
362.4466960335681
 31
0.0
  0
LINE
  5
20FE
330
1A
100
AcDbEntity
  8
SEIHIN
  6
Continuous
370
    15
100
AcDbLine
 10
632.0958457945045
 20
362.4466960335681
 30
0.0
 11
631.5372757671531
 21
330.4462363029429
 31
0.0
  0
LINE
  5
20FF
330
1A
100
AcDbEntity
  8
SEIHIN
  6
Continuous
370
    15
100
AcDbLine
 10
688.7787062732633
 20
362.4466960335681
 30
0.0
 11
688.4263496903833
 21
365.4462401772448
 31
0.0
  0
LINE
  5
2100
330
1A
100
AcDbEntity
  8
SEIHIN
  6
Continuous
370
    15
100
AcDbLine
 10
632.4482042400297
 20
365.4462401772448
 30
0.0
 11
632.0958457945045
 21
362.4466960335681
 31
0.0
  0
LINE
  5
2101
330
1A
100
AcDbEntity
  8
SEIHIN
  6
Continuous
370
    15
100
AcDbLine
 10
660.4372762667146
 20
174.9457796121546
 30
0.0
 11
688.7787062732633
 21
174.9457796121546
 31
0.0
  0
LINE
  5
2102
330
1A
100
AcDbEntity
  8
SEIHIN
  6
Continuous
370
    15
100
AcDbLine
 10
632.0958457945045
 20
174.9457796121546
 30
0.0
 11
660.4372762667146
 21
174.9457796121546
 31
0.0
  0
LINE
  5
2103
330
1A
100
AcDbEntity
  8
SEIHIN
  6
Continuous
370
    15
100
AcDbLine
 10
660.4372762667146
 20
171.9462354684779
 30
0.0
 11
632.4482042400297
 21
171.9462354684779
 31
0.0
  0
LINE
  5
2104
330
1A
100
AcDbEntity
  8
SEIHIN
  6
Continuous
370
    15
100
AcDbLine
 10
688.4263496903833
 20
171.9462354684779
 30
0.0
 11
660.4372762667146
 21
171.9462354684779
 31
0.0
  0
LINE
  5
2105
330
1A
100
AcDbEntity
  8
SEIHIN
  6
Continuous
370
    15
100
AcDbLine
 10
619.4372776953634
 20
322.4062365497061
 30
0.0
 11
701.4372762350496
 21
322.4062365497061
 31
0.0
  0
LINE
  5
2106
330
1A
100
AcDbEntity
  8
SEIHIN
  6
Continuous
370
    15
100
AcDbLine
 10
618.9372766820844
 20
206.9462393427798
 30
0.0
 11
701.9372772483285
 21
206.9462393427798
 31
0.0
  0
LINE
  5
2107
330
1A
100
AcDbEntity
  8
SEIHIN
  6
Continuous
370
    15
100
AcDbLine
 10
630.4372776357587
 20
330.4462363029429
 30
0.0
 11
690.4372762946542
 21
330.4462363029429
 31
0.0
  0
LINE
  5
2108
330
1A
100
AcDbEntity
  8
SEIHIN
  6
Continuous
370
    15
100
AcDbLine
 10
688.7787062732633
 20
362.4466960335681
 30
0.0
 11
632.0958457945045
 21
362.4466960335681
 31
0.0
  0
LINE
  5
2109
330
1A
100
AcDbEntity
  8
SEIHIN
  6
Continuous
370
    15
100
AcDbLine
 10
632.4482042400297
 20
365.4462401772448
 30
0.0
 11
688.4263496903833
 21
365.4462401772448
 31
0.0
  0
LINE
  5
210D
330
1A
100
AcDbEntity
  8
CENTER L
  6
CENTERX2
100
AcDbLine
 10
660.4372762348996
 20
375.4462401772447
 30
0.0
 11
660.4372762348995
 21
161.9462354684779
 31
0.0
  0
CIRCLE
  5
2115
330
1A
100
AcDbEntity
  8
SEIHIN
  6
Continuous
370
    15
100
AcDbCircle
 10
660.4372762349004
 20
101.6647956053269
 30
0.0
 40
26.63907272751217
  0
CIRCLE
  5
2117
330
1A
100
AcDbEntity
  8
SEIHIN
  6
Continuous
370
    15
100
AcDbCircle
 10
660.4372762349004
 20
101.6647956053269
 30
0.0
 40
27.98907272751217
  0
CIRCLE
  5
2119
330
1A
100
AcDbEntity
  8
SEIHIN
  6
Continuous
370
    15
100
AcDbCircle
 10
660.4372762349004
 20
101.6647956053269
 30
0.0
 40
28.9
  0
SPLINE
  5
211A
330
1A
100
AcDbEntity
  8
SEIHIN
  6
Continuous
370
    15
100
AcDbSpline
210
0.0
220
0.0
230
1.0
 70
     8
 71
     3
 72
    12
 73
     8
 74
     0
 42
0.0000000001
 43
0.0000000001
 40
0.0
 40
0.0
 40
0.0
 40
0.0
 40
0.3229460588989866
 40
0.5770541464930473
 40
0.774511714502856
 40
0.9399409760454936
 40
1.0
 40
1.0
 40
1.0
 40
1.0
 10
692.8463209478315
 20
80.93523809114834
 30
0.0
 10
692.9677946998164
 20
80.91018216272727
 30
0.0
 10
693.1848493141757
 20
80.86541113366157
 30
0.0
 10
693.5144327358044
 20
80.94493755499282
 30
0.0
 10
693.769383289544
 20
81.09494346887492
 30
0.0
 10
693.9237037497715
 20
81.25278044746458
 30
0.0
 10
693.987414023221
 20
81.35171854191087
 30
0.0
 10
694.0043833164629
 20
81.37807079950711
 30
0.0
  0
LINE
  5
211B
330
1A
100
AcDbEntity
  8
SEIHIN
  6
Continuous
370
    15
100
AcDbLine
 10
692.8463209478315
 20
80.93523809114833
 30
0.0
 11
687.2452110109981
 21
82.70342477957148
 31
0.0
  0
SPLINE
  5
211C
330
1A
100
AcDbEntity
  8
SEIHIN
  6
Continuous
370
    15
100
AcDbSpline
210
0.0
220
0.0
230
1.0
 70
     8
 71
     3
 72
    11
 73
     7
 74
     0
 42
0.0000000001
 43
0.0000000001
 40
0.0
 40
0.0
 40
0.0
 40
0.0
 40
0.1846711661876577
 40
0.3684182309624708
 40
0.6306424256866348
 40
1.0
 40
1.0
 40
1.0
 40
1.0
 10
686.1390736011919
 20
82.34624394575497
 30
0.0
 10
686.1983981685813
 20
82.41339799418792
 30
0.0
 10
686.31675044101
 20
82.54737004968729
 30
0.0
 10
686.566865434279
 20
82.68899602620324
 30
0.0
 10
686.8932515766902
 20
82.77517142197138
 30
0.0
 10
687.1153341270725
 20
82.72990007597984
 30
0.0
 10
687.2452110109981
 20
82.7034247795715
 30
0.0
  0
ARC
  5
211D
330
1A
100
AcDbEntity
  8
SEIHIN
  6
Continuous
370
    15
100
AcDbCircle
 10
660.4372762349004
 20
101.6647956053269
 30
0.0
 40
32.15258965781973
100
AcDbArc
 50
288.9300683539901
 51
323.0699316460136
  0
SPLINE
  5
211E
330
1A
100
AcDbEntity
  8
SEIHIN
  6
Continuous
370
    15
100
AcDbSpline
210
0.0
220
0.0
230
1.0
 70
     8
 71
     3
 72
    11
 73
     7
 74
     0
 42
0.0000000001
 43
0.0000000001
 40
0.0
 40
0.0
 40
0.0
 40
0.0
 40
0.3502353277750934
 40
0.605396961777045
 40
0.8057617972507669
 40
1.0
 40
1.0
 40
1.0
 40
1.0
 10
670.1864985806998
 20
70.30954786936185
 30
0.0
 10
670.2000638059836
 20
70.43425600228262
 30
0.0
 10
670.2235118865202
 20
70.64981942148053
 30
0.0
 10
670.3944077087104
 20
70.93138967765934
 30
0.0
 10
670.6062441564401
 20
71.13615117707225
 30
0.0
 10
670.7816711127503
 20
71.21322738669896
 30
0.0
 10
670.8680227456745
 20
71.25116714636227
 30
0.0
  0
LINE
  5
211F
330
1A
100
AcDbEntity
  8
SEIHIN
  6
Continuous
370
    15
100
AcDbLine
 10
670.1864985806998
 20
70.30954786936184
 30
0.0
 11
670.1527856348213
 21
66.27511808077236
 31
0.0
  0
SPLINE
  5
2120
330
1A
100
AcDbEntity
  8
SEIHIN
  6
Continuous
370
    15
100
AcDbSpline
210
0.0
220
0.0
230
1.0
 70
     8
 71
     3
 72
     9
 73
     5
 74
     0
 42
0.0000000001
 43
0.0000000001
 40
0.0
 40
0.0
 40
0.0
 40
0.0
 40
0.4219214142246912
 40
1.0
 40
1.0
 40
1.0
 40
1.0
 10
669.854633888429
 20
65.5702335516586
 30
0.0
 10
669.9315370319519
 20
65.66457850613331
 30
0.0
 10
670.1138059117253
 20
65.88818638972007
 30
0.0
 10
670.138506660755
 20
66.13337803894471
 30
0.0
 10
670.1527856348213
 20
66.27511808077237
 30
0.0
  0
LINE
  5
2121
330
1A
100
AcDbEntity
  8
SEIHIN
  6
Continuous
370
    15
100
AcDbLine
 10
669.854633888429
 20
65.57023355165859
 30
0.0
 11
667.311439668959
 21
63.05071541468044
 31
0.0
  0
LINE
  5
2122
330
1A
100
AcDbEntity
  8
SEIHIN
  6
Continuous
370
    15
100
AcDbLine
 10
667.311439668959
 20
63.05071541468044
 30
0.0
 11
666.546634776717
 21
62.29357251325985
 31
0.0
  0
SPLINE
  5
2123
330
1A
100
AcDbEntity
  8
SEIHIN
  6
Continuous
370
    15
100
AcDbSpline
210
0.0
220
0.0
230
1.0
 70
     8
 71
     3
 72
    11
 73
     7
 74
     0
 42
0.0000000001
 43
0.0000000001
 40
0.0
 40
0.0
 40
0.0
 40
0.0
 40
0.3110114582619384
 40
0.6215478203447646
 40
0.941409319359945
 40
1.0
 40
1.0
 40
1.0
 40
1.0
 10
665.8388817740735
 20
62.00231441656491
 30
0.0
 10
665.9243428182341
 20
62.00874042400498
 30
0.0
 10
666.0951343576172
 20
62.02158262261774
 30
0.0
 10
666.3315467875587
 20
62.12092292626251
 30
0.0
 10
666.4721863749151
 20
62.22177212562896
 30
0.0
 10
666.53665410221
 20
62.28394683586365
 30
0.0
 10
666.546634776717
 20
62.29357251325986
 30
0.0
  0
SPLINE
  5
2124
330
1A
100
AcDbEntity
  8
SEIHIN
  6
Continuous
370
    15
100
AcDbSpline
210
0.0
220
0.0
230
1.0
 70
     8
 71
     3
 72
    11
 73
     7
 74
     0
 42
0.0000000001
 43
0.0000000001
 40
0.0
 40
0.0
 40
0.0
 40
0.0
 40
0.2477649402601719
 40
0.4955202777404625
 40
0.7477550932855161
 40
1.0
 40
1.0
 40
1.0
 40
1.0
 10
665.8388817740735
 20
62.00231441656491
 30
0.0
 10
664.9496735200615
 20
62.00142107362648
 30
0.0
 10
663.1712914756345
 20
61.99963442237329
 30
0.0
 10
660.469698372444
 20
61.99890387011574
 30
0.0
 10
657.7516327163112
 20
61.99959183852833
 30
0.0
 10
655.9410034844196
 20
62.00140687845054
 30
0.0
 10
655.0356707593556
 20
62.00231441656491
 30
0.0
  0
SPLINE
  5
2125
330
1A
100
AcDbEntity
  8
SEIHIN
  6
Continuous
370
    15
100
AcDbSpline
210
0.0
220
0.0
230
1.0
 70
     8
 71
     3
 72
    10
 73
     6
 74
     0
 42
0.0000000001
 43
0.0000000001
 40
0.0
 40
0.0
 40
0.0
 40
0.0
 40
0.364974987873694
 40
0.7325031211156429
 40
1.0
 40
1.0
 40
1.0
 40
1.0
 10
654.3279177567121
 20
62.29357251325986
 30
0.0
 10
654.3952981246571
 20
62.23607190154517
 30
0.0
 10
654.5305302130506
 20
62.12066843844095
 30
0.0
 10
654.7891378662371
 20
62.01871094628227
 30
0.0
 10
654.962601307957
 20
62.00717415522347
 30
0.0
 10
655.0356707593556
 20
62.00231441656491
 30
0.0
  0
LINE
  5
2126
330
1A
100
AcDbEntity
  8
SEIHIN
  6
Continuous
370
    15
100
AcDbLine
 10
654.3279177567121
 20
62.29357251325985
 30
0.0
 11
653.5631133301314
 21
63.05071541468044
 31
0.0
  0
LINE
  5
2127
330
1A
100
AcDbEntity
  8
SEIHIN
  6
Continuous
370
    15
100
AcDbLine
 10
653.5631133301314
 20
63.05071541468044
 30
0.0
 11
651.0199181793388
 21
65.57023355165859
 31
0.0
  0
SPLINE
  5
2128
330
1A
100
AcDbEntity
  8
SEIHIN
  6
Continuous
370
    15
100
AcDbSpline
210
0.0
220
0.0
230
1.0
 70
     8
 71
     3
 72
     9
 73
     5
 74
     0
 42
0.0000000001
 43
0.0000000001
 40
0.0
 40
0.0
 40
0.0
 40
0.0
 40
0.5107377382641718
 40
1.0
 40
1.0
 40
1.0
 40
1.0
 10
650.7217664329465
 20
66.27511808077237
 30
0.0
 10
650.7328520767974
 20
66.15045719344526
 30
0.0
 10
650.7545572358663
 20
65.90637715395023
 30
0.0
 10
650.9327400518083
 20
65.68066566516257
 30
0.0
 10
651.0199181793388
 20
65.5702335516586
 30
0.0
  0
LINE
  5
2129
330
1A
100
AcDbEntity
  8
SEIHIN
  6
Continuous
370
    15
100
AcDbLine
 10
650.7217664329465
 20
66.27511808077236
 30
0.0
 11
650.6880544183906
 21
70.30954786936184
 31
0.0
  0
SPLINE
  5
212A
330
1A
100
AcDbEntity
  8
SEIHIN
  6
Continuous
370
    15
100
AcDbSpline
210
0.0
220
0.0
230
1.0
 70
     8
 71
     3
 72
    11
 73
     7
 74
     0
 42
0.0000000001
 43
0.0000000001
 40
0.0
 40
0.0
 40
0.0
 40
0.0
 40
0.1846704127038722
 40
0.3684223569972269
 40
0.6306387737820755
 40
1.0
 40
1.0
 40
1.0
 40
1.0
 10
650.0065302534159
 20
71.25116714636227
 30
0.0
 10
650.0887301060835
 20
71.21549984367558
 30
0.0
 10
650.2527209859496
 20
71.14434263158513
 30
0.0
 10
650.4647106511221
 20
70.95023584168892
 30
0.0
 10
650.6475113864795
 20
70.66645330111644
 30
0.0
 10
650.6730934408107
 20
70.44125124503292
 30
0.0
 10
650.6880544183906
 20
70.30954786936185
 30
0.0
  0
ARC
  5
212B
330
1A
100
AcDbEntity
  8
SEIHIN
  6
Continuous
370
    15
100
AcDbCircle
 10
660.4372762349004
 20
101.6647956053269
 30
0.0
 40
32.15258965781973
100
AcDbArc
 50
216.9300683539884
 51
251.0699316460098
  0
SPLINE
  5
212C
330
1A
100
AcDbEntity
  8
SEIHIN
  6
Continuous
370
    15
100
AcDbSpline
210
0.0
220
0.0
230
1.0
 70
     8
 71
     3
 72
    11
 73
     7
 74
     0
 42
0.0000000001
 43
0.0000000001
 40
0.0
 40
0.0
 40
0.0
 40
0.0
 40
0.3502327710897337
 40
0.6053971256574532
 40
0.8057671926900036
 40
1.0
 40
1.0
 40
1.0
 40
1.0
 10
633.6293429194149
 20
82.70342477957148
 30
0.0
 10
633.7521361556392
 20
82.72906326451046
 30
0.0
 10
633.9643911997037
 20
82.77338083376584
 30
0.0
 10
634.284998053448
 20
82.69786497389073
 30
0.0
 10
634.5451929924185
 20
82.55965752839621
 30
0.0
 10
634.6727110715497
 20
82.41664035780351
 30
0.0
 10
634.735478466576
 20
82.34624394575495
 30
0.0
  0
LINE
  5
212D
330
1A
100
AcDbEntity
  8
SEIHIN
  6
Continuous
370
    15
100
AcDbLine
 10
633.6293429194149
 20
82.70342477957148
 30
0.0
 11
628.0282329825815
 21
80.93523809114833
 31
0.0
  0
SPLINE
  5
212E
330
1A
100
AcDbEntity
  8
SEIHIN
  6
Continuous
370
    15
100
AcDbSpline
210
0.0
220
0.0
230
1.0
 70
     8
 71
     3
 72
    12
 73
     8
 74
     0
 42
0.0000000001
 43
0.0000000001
 40
0.0
 40
0.0
 40
0.0
 40
0.0
 40
0.1732880701511491
 40
0.3458191858660045
 40
0.585270105411521
 40
0.9109053858501075
 40
1.0
 40
1.0
 40
1.0
 40
1.0
 10
626.8701706139501
 20
81.37807079950711
 30
0.0
 10
626.9233562804839
 20
81.30413307929503
 30
0.0
 10
627.0294952886944
 20
81.1565806125486
 30
0.0
 10
627.268138815222
 20
80.98897956178452
 30
0.0
 10
627.5798505237349
 20
80.87943501071775
 30
0.0
 10
627.8455521999027
 20
80.88391992723224
 30
0.0
 10
627.9959283337144
 20
80.9261631614185
 30
0.0
 10
628.0282329825815
 20
80.93523809114834
 30
0.0
  0
ARC
  5
212F
330
1A
100
AcDbEntity
  8
SEIHIN
  6
Continuous
370
    15
100
AcDbCircle
 10
660.4372762349004
 20
101.6647956053269
 30
0.0
 40
39.22119077761916
100
AcDbArc
 50
184.8527791027753
 51
211.1472208972257
  0
SPLINE
  5
2130
330
1A
100
AcDbEntity
  8
SEIHIN
  6
Continuous
370
    15
100
AcDbSpline
210
0.0
220
0.0
230
1.0
 70
     8
 71
     3
 72
    12
 73
     8
 74
     0
 42
0.0000000001
 43
0.0000000001
 40
0.0
 40
0.0
 40
0.0
 40
0.0
 40
0.3229450380303874
 40
0.5770536244530847
 40
0.7745016950944203
 40
0.9399343000469244
 40
0.9999999999999998
 40
0.9999999999999998
 40
0.9999999999999998
 40
0.9999999999999998
 10
622.033276042169
 20
99.38581117788693
 30
0.0
 10
621.920272351355
 20
99.33468129963465
 30
0.0
 10
621.7183519572273
 20
99.24331999015835
 30
0.0
 10
621.4984674328171
 20
98.98524696198812
 30
0.0
 10
621.3803735715979
 20
98.7140417042743
 30
0.0
 10
621.3483026525469
 20
98.49563675282501
 30
0.0
 10
621.3549160420454
 20
98.3781400609029
 30
0.0
 10
621.3566776422914
 20
98.3468426148071
 30
0.0
  0
LINE
  5
2131
330
1A
100
AcDbEntity
  8
SEIHIN
  6
Continuous
370
    15
100
AcDbLine
 10
622.033276042169
 20
99.38581117788693
 30
0.0
 11
627.6039931981023
 21
101.247547356285
 31
0.0
  0
SPLINE
  5
2132
330
1A
100
AcDbEntity
  8
SEIHIN
  6
Continuous
370
    15
100
AcDbSpline
210
0.0
220
0.0
230
1.0
 70
     8
 71
     3
 72
    11
 73
     7
 74
     0
 42
0.0000000001
 43
0.0000000001
 40
0.0
 40
0.0
 40
0.0
 40
0.0
 40
0.1846674801028063
 40
0.3684157305061072
 40
0.6306410021744906
 40
1.0
 40
1.0
 40
1.0
 40
1.0
 10
628.2889213470872
 20
102.1866930405273
 30
0.0
 10
628.2804000039651
 20
102.0974963422147
 30
0.0
 10
628.2633997348904
 20
101.9195469450101
 30
0.0
 10
628.1443075409598
 20
101.6579509660226
 30
0.0
 10
627.9308923578233
 20
101.3964011868656
 30
0.0
 10
627.7246225583937
 20
101.3024760455333
 30
0.0
 10
627.6039931981023
 20
101.247547356285
 30
0.0
  0
ARC
  5
2133
330
1A
100
AcDbEntity
  8
SEIHIN
  6
Continuous
370
    15
100
AcDbCircle
 10
660.4372762349004
 20
101.6647956053269
 30
0.0
 40
32.1525896578197
100
AcDbArc
 50
144.9300683539851
 51
179.0699316460131
  0
SPLINE
  5
2134
330
1A
100
AcDbEntity
  8
SEIHIN
  6
Continuous
370
    15
100
AcDbSpline
210
0.0
220
0.0
230
1.0
 70
     8
 71
     3
 72
    11
 73
     7
 74
     0
 42
0.0000000001
 43
0.0000000001
 40
0.0
 40
0.0
 40
0.0
 40
0.0
 40
0.3502339863393307
 40
0.6054010107073202
 40
0.8057607488296641
 40
1.0
 40
1.0
 40
1.0
 40
1.0
 10
634.1198388544973
 20
121.3012767712249
 30
0.0
 10
634.1821640833479
 20
121.1924128113734
 30
0.0
 10
634.2898970790316
 20
121.0042347535768
 30
0.0
 10
634.317146317953
 20
120.6759841141433
 30
0.0
 10
634.2661247772813
 20
120.3858155786444
 30
0.0
 10
634.1695057217386
 20
120.220347548051
 30
0.0
 10
634.1219455061611
 20
120.1388967911376
 30
0.0
  0
LINE
  5
2135
330
1A
100
AcDbEntity
  8
SEIHIN
  6
Continuous
370
    15
100
AcDbLine
 10
634.1198388544973
 20
121.3012767712249
 30
0.0
 11
630.7073444185909
 21
126.0818375031127
 31
0.0
  0
SPLINE
  5
2136
330
1A
100
AcDbEntity
  8
SEIHIN
  6
Continuous
370
    15
100
AcDbSpline
210
0.0
220
0.0
230
1.0
 70
     8
 71
     3
 72
    12
 73
     8
 74
     0
 42
0.0000000001
 43
0.0000000001
 40
0.0
 40
0.0
 40
0.0
 40
0.0
 40
0.1732914060174576
 40
0.3458202628454766
 40
0.5852696921563468
 40
0.9109069679450389
 40
1.0
 40
1.0
 40
1.0
 40
1.0
 10
630.7706482766326
 20
127.3200643936767
 30
0.0
 10
630.716763650959
 20
127.2466321934881
 30
0.0
 10
630.6092315127995
 20
127.1000909231844
 30
0.0
 10
630.5235858490187
 20
126.8213361789688
 30
0.0
 10
630.5157094953284
 20
126.4910312927513
 30
0.0
 10
630.6021091965568
 20
126.2397277383185
 30
0.0
 10
630.688735266796
 20
126.1097578447729
 30
0.0
 10
630.7073444185909
 20
126.0818375031127
 30
0.0
  0
ARC
  5
2137
330
1A
100
AcDbEntity
  8
SEIHIN
  6
Continuous
370
    15
100
AcDbCircle
 10
660.4372762349004
 20
101.6647956053269
 30
0.0
 40
39.22119077761938
100
AcDbArc
 50
112.8527791027686
 51
139.1472208972274
  0
SPLINE
  5
2138
330
1A
100
AcDbEntity
  8
SEIHIN
  6
Continuous
370
    15
100
AcDbSpline
210
0.0
220
0.0
230
1.0
 70
     8
 71
     3
 72
    12
 73
     8
 74
     0
 42
0.0000000001
 43
0.0000000001
 40
0.0
 40
0.0
 40
0.0
 40
0.0
 40
0.3229470530083099
 40
0.5770533996561938
 40
0.774510701280332
 40
0.9399401986396028
 40
1.0
 40
1.0
 40
1.0
 40
1.0
 10
646.4023398293313
 20
137.4849213043823
 30
0.0
 10
646.3187929462657
 20
137.5765945504955
 30
0.0
 10
646.1695083732848
 20
137.7403996009964
 30
0.0
 10
645.8561257669149
 20
137.8697871988175
 30
0.0
 10
645.5616932525232
 20
137.8982758100587
 30
0.0
 10
645.3440717659392
 20
137.8612876147703
 30
0.0
 10
645.2343723291589
 20
137.8186968245264
 30
0.0
 10
645.2051535306629
 20
137.8073526302947
 30
0.0
  0
LINE
  5
2139
330
1A
100
AcDbEntity
  8
SEIHIN
  6
Continuous
370
    15
100
AcDbLine
 10
646.4023398293313
 20
137.4849213043823
 30
0.0
 11
649.8944120539483
 21
132.7621770779266
 31
0.0
  0
SPLINE
  5
213A
330
1A
100
AcDbEntity
  8
SEIHIN
  6
Continuous
370
    15
100
AcDbSpline
210
0.0
220
0.0
230
1.0
 70
     8
 71
     3
 72
    11
 73
     7
 74
     0
 42
0.0000000001
 43
0.0000000001
 40
0.0
 40
0.0
 40
0.0
 40
0.0
 40
0.1846717046299015
 40
0.3684210043535634
 40
0.6306414083062491
 40
1.0
 40
1.0
 40
1.0
 40
1.0
 10
650.9992474747952
 20
132.4009729305877
 30
0.0
 10
650.9117807784811
 20
132.3815112698026
 30
0.0
 10
650.7372842676706
 20
132.3426851560392
 30
0.0
 10
650.4516870049238
 20
132.3751193721384
 30
0.0
 10
650.1369919702798
 20
132.4972640580291
 30
0.0
 10
649.983927102042
 20
132.6644208329936
 30
0.0
 10
649.8944120539483
 20
132.7621770779266
 30
0.0
  0
ARC
  5
213B
330
1A
100
AcDbEntity
  8
SEIHIN
  6
Continuous
370
    15
100
AcDbCircle
 10
660.4372762349004
 20
101.6647956053269
 30
0.0
 40
32.15258965781962
100
AcDbArc
 50
72.93006835399032
 51
107.0699316460097
  0
SPLINE
  5
213C
330
1A
100
AcDbEntity
  8
SEIHIN
  6
Continuous
370
    15
100
AcDbSpline
210
0.0
220
0.0
230
1.0
 70
     8
 71
     3
 72
    11
 73
     7
 74
     0
 42
0.0000000001
 43
0.0000000001
 40
0.0
 40
0.0
 40
0.0
 40
0.0
 40
0.3502315503890488
 40
0.6053969411220327
 40
0.8057633898024166
 40
1.0
 40
1.0
 40
1.0
 40
1.0
 10
670.9801400138196
 20
132.7621770779266
 30
0.0
 10
670.8958650340979
 20
132.6692630677314
 30
0.0
 10
670.7501905085451
 20
132.5086554425844
 30
0.0
 10
670.4464307914123
 20
132.3812958209478
 30
0.0
 10
670.1546930916753
 20
132.340154633427
 30
0.0
 10
669.9674652357908
 20
132.3809112049621
 30
0.0
 10
669.8753055242952
 20
132.4009729305877
 30
0.0
  0
LINE
  5
213D
330
1A
100
AcDbEntity
  8
SEIHIN
  6
Continuous
370
    15
100
AcDbLine
 10
670.9801400138196
 20
132.7621770779266
 30
0.0
 11
674.4722122384366
 21
137.4849213043823
 31
0.0
  0
SPLINE
  5
213E
330
1A
100
AcDbEntity
  8
SEIHIN
  6
Continuous
370
    15
100
AcDbSpline
210
0.0
220
0.0
230
1.0
 70
     8
 71
     3
 72
    12
 73
     8
 74
     0
 42
0.0000000001
 43
0.0000000001
 40
0.0
 40
0.0
 40
0.0
 40
0.0
 40
0.1732895963629667
 40
0.3458193660190028
 40
0.5852705568057775
 40
0.9109069909315794
 40
1.0
 40
1.0
 40
1.0
 40
1.0
 10
675.6693985371049
 20
137.8073526302947
 30
0.0
 10
675.5829099085559
 20
137.8359079839424
 30
0.0
 10
675.4103118800509
 20
137.89289348395
 30
0.0
 10
675.1187336733311
 20
137.8882044058391
 30
0.0
 10
674.8021573653264
 20
137.7936284438247
 30
0.0
 10
674.5898535585162
 20
137.6337981833281
 30
0.0
 10
674.4930152398698
 20
137.511247818944
 30
0.0
 10
674.4722122384366
 20
137.4849213043823
 30
0.0
  0
ARC
  5
213F
330
1A
100
AcDbEntity
  8
SEIHIN
  6
Continuous
370
    15
100
AcDbCircle
 10
660.4372762349004
 20
101.6647956053269
 30
0.0
 40
39.22119077761938
100
AcDbArc
 50
40.8527791027726
 51
67.1472208972314
  0
SPLINE
  5
2140
330
1A
100
AcDbEntity
  8
SEIHIN
  6
Continuous
370
    15
100
AcDbSpline
210
0.0
220
0.0
230
1.0
 70
     8
 71
     3
 72
    12
 73
     8
 74
     0
 42
0.0000000001
 43
0.0000000001
 40
0.0
 40
0.0
 40
0.0
 40
0.0
 40
0.3229484268460474
 40
0.5770511318265107
 40
0.7745079175808293
 40
0.9399390673232996
 40
1.0
 40
1.0
 40
1.0
 40
1.0
 10
690.1672076491769
 20
126.0818375031127
 30
0.0
 10
690.2285752412573
 20
126.1896260679904
 30
0.0
 10
690.3382281626638
 20
126.382224972924
 30
0.0
 10
690.3644419373728
 20
126.7202460170931
 30
0.0
 10
690.3005588065154
 20
127.0090711970653
 30
0.0
 10
690.1981358712925
 20
127.204616565271
 30
0.0
 10
690.1237238116679
 20
127.2957820226878
 30
0.0
 10
690.1039037911352
 20
127.3200643936767
 30
0.0
  0
LINE
  5
2141
330
1A
100
AcDbEntity
  8
SEIHIN
  6
Continuous
370
    15
100
AcDbLine
 10
690.1672076491769
 20
126.0818375031127
 30
0.0
 11
686.7547132132705
 21
121.3012767712249
 31
0.0
  0
SPLINE
  5
2142
330
1A
100
AcDbEntity
  8
SEIHIN
  6
Continuous
370
    15
100
AcDbSpline
210
0.0
220
0.0
230
1.0
 70
     8
 71
     3
 72
    11
 73
     7
 74
     0
 42
0.0000000001
 43
0.0000000001
 40
0.0
 40
0.0
 40
0.0
 40
0.0
 40
0.184669483679115
 40
0.3684213948782236
 40
0.6306421599538082
 40
1.0
 40
1.0
 40
1.0
 40
1.0
 10
686.7526065616067
 20
120.1388967911376
 30
0.0
 10
686.7070717835141
 20
120.2160684721139
 30
0.0
 10
686.6162284772664
 20
120.3700283889553
 30
0.0
 10
686.5588092589911
 20
120.6516680537033
 30
0.0
 10
686.5777374613454
 20
120.9887062126561
 30
0.0
 10
686.6894069874989
 20
121.1859343966592
 30
0.0
 10
686.7547132132705
 20
121.3012767712249
 30
0.0
  0
ARC
  5
2143
330
1A
100
AcDbEntity
  8
SEIHIN
  6
Continuous
370
    15
100
AcDbCircle
 10
660.4372762349004
 20
101.6647956053269
 30
0.0
 40
32.1525896578197
100
AcDbArc
 50
0.9300683539869199
 51
35.06993164601491
  0
SPLINE
  5
2144
330
1A
100
AcDbEntity
  8
SEIHIN
  6
Continuous
370
    15
100
AcDbSpline
210
0.0
220
0.0
230
1.0
 70
     8
 71
     3
 72
    11
 73
     7
 74
     0
 42
0.0000000001
 43
0.0000000001
 40
0.0
 40
0.0
 40
0.0
 40
0.0
 40
0.3502328495279262
 40
0.6053976088460394
 40
0.8057670519730926
 40
1.0
 40
1.0
 40
1.0
 40
1.0
 10
693.2705607323106
 20
101.247547356285
 30
0.0
 10
693.1561507779857
 20
101.2989859995004
 30
0.0
 10
692.9583865966134
 20
101.3879006505585
 30
0.0
 10
692.7434061136993
 20
101.6374456055731
 30
0.0
 10
692.6141194223874
 20
101.9021877947456
 30
0.0
 10
692.595027990426
 20
102.0928462739691
 30
0.0
 10
692.5856307206806
 20
102.1866930405273
 30
0.0
  0
LINE
  5
2145
330
1A
100
AcDbEntity
  8
SEIHIN
  6
Continuous
370
    15
100
AcDbLine
 10
693.2705607323106
 20
101.247547356285
 30
0.0
 11
698.8412741629537
 21
99.38581117788693
 31
0.0
  0
SPLINE
  5
2146
330
1A
100
AcDbEntity
  8
SEIHIN
  6
Continuous
370
    15
100
AcDbSpline
210
0.0
220
0.0
230
1.0
 70
     8
 71
     3
 72
    12
 73
     8
 74
     0
 42
0.0000000001
 43
0.0000000001
 40
0.0
 40
0.0
 40
0.0
 40
0.0
 40
0.1732924814505637
 40
0.3458224982083302
 40
0.585270658948965
 40
0.9109066097618331
 40
0.9999999999999998
 40
0.9999999999999998
 40
0.9999999999999998
 40
0.9999999999999998
 10
699.5178725628313
 20
98.3468426148071
 30
0.0
 10
699.5183049911449
 20
98.43792424868857
 30
0.0
 10
699.5191679451424
 20
98.61968676894399
 30
0.0
 10
699.4246097798215
 20
98.89555003897779
 30
0.0
 10
699.236825310612
 20
99.16739768662008
 30
0.0
 10
699.0192200008261
 20
99.31993003933344
 30
0.0
 10
698.8727411790092
 20
99.37416110014739
 30
0.0
 10
698.8412741629537
 20
99.38581117788693
 30
0.0
  0
ARC
  5
2147
330
1A
100
AcDbEntity
  8
SEIHIN
  6
Continuous
370
    15
100
AcDbCircle
 10
660.4372762349004
 20
101.6647956053269
 30
0.0
 40
39.22119077761961
100
AcDbArc
 50
328.8527791027743
 51
355.1472208972279
  0
ARC
  5
214F
330
1A
100
AcDbEntity
  8
SEIHIN
  6
Continuous
370
    15
100
AcDbCircle
 10
660.4372762349004
 20
101.6647956053269
 30
0.0
 40
29.99999999999998
100
AcDbArc
 50
271.9358324461354
 51
268.0641675538646
  0
ELLIPSE
  5
2150
330
1A
100
AcDbEntity
  8
SEIHIN
  6
Continuous
370
    15
100
AcDbEllipse
 10
660.9459840634983
 20
67.65610681592185
 30
0.0
 11
0.0
 21
1.0
 31
0.0
210
0.0
220
0.0
230
1.0
 40
0.004363433895378
 41
1.570796326794896
 42
3.132866007390057
  0
LINE
  5
2151
330
1A
100
AcDbEntity
  8
SEIHIN
  6
Continuous
370
    15
100
AcDbLine
 10
660.9459459723104
 20
66.65614077249904
 30
0.0
 11
659.9286065029111
 21
66.65614077249904
 31
0.0
  0
ELLIPSE
  5
2152
330
1A
100
AcDbEntity
  8
SEIHIN
  6
Continuous
370
    15
100
AcDbEllipse
 10
659.9285684063025
 20
67.65610681592185
 30
0.0
 11
0.0
 21
1.0
 31
0.0
210
0.0
220
0.0
230
1.0
 40
0.004363433895378
 41
3.150319299896938
 42
4.712388980384689
  0
SPLINE
  5
215C
330
1A
100
AcDbEntity
  8
SEIHIN
  6
Continuous
370
    15
100
AcDbSpline
210
0.0
220
0.0
230
1.0
 70
     8
 71
     3
 72
    11
 73
     7
 74
     0
 42
0.0000000001
 43
0.0000000001
 40
0.0
 40
0.0
 40
0.0
 40
0.0
 40
0.4474606423945545
 40
0.9101751633555595
 40
0.9920991332773596
 40
1.0
 40
1.0
 40
1.0
 40
1.0
 10
659.4238694815095
 20
71.6819150129928
 30
0.0
 10
659.5083863428969
 20
71.67151137307285
 30
0.0
 10
659.6803012351385
 20
71.65034943442062
 30
0.0
 10
659.8448540622317
 20
71.54714479107987
 30
0.0
 10
659.9200811863503
 20
71.47512263062539
 30
0.0
 10
659.9318928595595
 20
71.46296843405899
 30
0.0
 10
659.9329317977782
 20
71.46189936796567
 30
0.0
  0
SPLINE
  5
215F
330
1A
100
AcDbEntity
  8
SEIHIN
  6
Continuous
370
    15
100
AcDbSpline
210
0.0
220
0.0
230
1.0
 70
     8
 71
     3
 72
    11
 73
     7
 74
     0
 42
0.0000000001
 43
0.0000000001
 40
0.0
 40
0.0
 40
0.0
 40
0.0
 40
0.0078959752793933
 40
0.1439668769715657
 40
0.6093545750372215
 40
1.0
 40
1.0
 40
1.0
 40
1.0
 10
660.9416206192356
 20
71.46189936796567
 30
0.0
 10
660.9426595484466
 20
71.46296841413861
 30
0.0
 10
660.9616022868173
 20
71.48246027339654
 30
0.0
 10
661.046365641435
 20
71.56019314188551
 30
0.0
 10
661.2153719209573
 20
71.65545627658797
 30
0.0
 10
661.3769484541195
 20
71.67362419548941
 30
0.0
 10
661.4506829064004
 20
71.68191501299283
 30
0.0
  0
LINE
  5
2160
330
1A
100
AcDbEntity
  8
SEIHIN
  6
Continuous
370
    15
100
AcDbLine
 10
659.9329317977782
 20
71.46189936796566
 30
0.0
 11
659.9329317977782
 21
67.65611299673458
 31
0.0
  0
LINE
  5
2161
330
1A
100
AcDbEntity
  8
SEIHIN
  6
Continuous
370
    15
100
AcDbLine
 10
660.9416206192356
 20
67.65611299673458
 30
0.0
 11
660.9416206192356
 21
71.46189936796566
 31
0.0
  0
ARC
  5
2176
330
1A
100
AcDbEntity
  8
SEIHIN
  6
Continuous
370
    15
100
AcDbCircle
 10
660.4372762349004
 20
101.6647956053269
 30
0.0
 40
41.50000000000001
100
AcDbArc
 50
281.3912025639676
 51
258.6087974360058
  0
LINE
  5
2177
330
1A
100
AcDbEntity
  8
SEIHIN
  6
Continuous
370
    15
100
AcDbLine
 10
667.4728099314626
 20
60.05768307844539
 30
0.0
 11
668.1242095364388
 21
60.70908734003444
 31
0.0
  0
LINE
  5
2178
330
1A
100
AcDbEntity
  8
SEIHIN
  6
Continuous
370
    15
100
AcDbLine
 10
652.7503434626516
 20
60.70908734003444
 30
0.0
 11
653.4017421363052
 21
60.05768307844539
 31
0.0
  0
LINE
  5
217C
330
1A
100
AcDbEntity
  8
SEIHIN
  6
Continuous
370
    15
100
AcDbLine
 10
654.1088492667433
 20
59.76480075518032
 30
0.0
 11
666.7657032666858
 21
59.76480075518032
 31
0.0
  0
ARC
  5
217D
330
1A
100
AcDbEntity
  8
SEIHIN
  6
Continuous
370
    15
100
AcDbCircle
 10
666.7657033596356
 20
60.76479560533795
 30
0.0
 40
1.000000000000088
100
AcDbArc
 50
270.0
 51
315.0000000000078
  0
ARC
  5
217E
330
1A
100
AcDbEntity
  8
SEIHIN
  6
Continuous
370
    15
100
AcDbCircle
 10
652.0432362542993
 20
60.00198133643635
 30
0.0
 40
0.999999999999947
100
AcDbArc
 50
45.00000000001064
 51
78.6087974360191
  0
ARC
  5
217F
330
1A
100
AcDbEntity
  8
SEIHIN
  6
Continuous
370
    15
100
AcDbCircle
 10
668.831316215475
 20
60.00198133643102
 30
0.0
 40
0.9999999999999966
100
AcDbArc
 50
101.3912025639544
 51
134.9999999999893
  0
ARC
  5
2180
330
1A
100
AcDbEntity
  8
SEIHIN
  6
Continuous
370
    15
100
AcDbCircle
 10
654.1088491101433
 20
60.76479560533801
 30
0.0
 40
1.0
100
AcDbArc
 50
225.0000000000107
 51
270.0
  0
CIRCLE
  5
2181
330
1A
100
AcDbEntity
  8
SEIHIN
  6
Continuous
370
    15
100
AcDbCircle
 10
660.4372762349008
 20
101.6647956053269
 30
0.0
 40
25.01745373558154
  0
CIRCLE
  5
2182
330
1A
100
AcDbEntity
  8
SEIHIN
  6
Continuous
370
    15
100
AcDbCircle
 10
660.4372762349004
 20
101.6647956053269
 30
0.0
 40
25.00872686779079
  0
ARC
  5
2184
330
1A
100
AcDbEntity
  8
SEIHIN
  6
Continuous
370
    15
100
AcDbCircle
 10
660.4372762349004
 20
101.6647956053269
 30
0.0
 40
38.2842680885918
100
AcDbArc
 50
212.70336837842
 51
257.754438960473
  0
ARC
  5
2185
330
1A
100
AcDbEntity
  8
SEIHIN
  6
Continuous
370
    15
100
AcDbCircle
 10
660.4372762349004
 20
101.6647956053269
 30
0.0
 40
38.28426808859177
100
AcDbArc
 50
140.6956381398789
 51
183.2914999635624
  0
ARC
  5
2186
330
1A
100
AcDbEntity
  8
SEIHIN
  6
Continuous
370
    15
100
AcDbCircle
 10
660.4372762349004
 20
101.6647956053269
 30
0.0
 40
38.28426808859181
100
AcDbArc
 50
68.6857663156814
 51
111.2977811991093
  0
ARC
  5
2187
330
1A
100
AcDbEntity
  8
SEIHIN
  6
Continuous
370
    15
100
AcDbCircle
 10
660.4372762349004
 20
101.6647956053269
 30
0.0
 40
38.28426808859201
100
AcDbArc
 50
356.686379023244
 51
39.30825634270855
  0
ARC
  5
2188
330
1A
100
AcDbEntity
  8
SEIHIN
  6
Continuous
370
    15
100
AcDbCircle
 10
660.4372762349004
 20
101.6647956053269
 30
0.0
 40
38.28426808859172
100
AcDbArc
 50
282.191186055264
 51
327.318631485007
  0
CIRCLE
  5
2196
330
1A
100
AcDbEntity
  8
SEIHIN
  6
Continuous
370
    15
100
AcDbCircle
 10
660.4372762370769
 20
441.0400477941644
 30
0.0
 40
26.6390727275122
  0
CIRCLE
  5
2199
330
1A
100
AcDbEntity
  8
SEIHIN
  6
Continuous
370
    15
100
AcDbCircle
 10
660.4372762370769
 20
441.0400477941644
 30
0.0
 40
28.90000000000004
  0
ARC
  5
219F
330
1A
100
AcDbEntity
  8
SEIHIN
  6
Continuous
370
    15
100
AcDbCircle
 10
660.4372762370769
 20
441.0400477941644
 30
0.0
 40
29.99999999999998
100
AcDbArc
 50
91.9358324461354
 51
88.06416755386457
  0
LINE
  5
21A6
330
1A
100
AcDbEntity
  8
SEIHIN
  6
Continuous
370
    15
100
AcDbLine
 10
660.941620621412
 20
471.2429440315255
 30
0.0
 11
660.941620621412
 21
475.0487304027566
 31
0.0
  0
SPLINE
  5
21A7
330
1A
100
AcDbEntity
  8
SEIHIN
  6
Continuous
370
    15
100
AcDbSpline
210
0.0
220
0.0
230
1.0
 70
     8
 71
     3
 72
    11
 73
     7
 74
     0
 42
0.0000000001
 43
0.0000000001
 40
0.0
 40
0.0
 40
0.0
 40
0.0
 40
0.4474607280048354
 40
0.910174933543794
 40
0.9920991326565008
 40
1.0
 40
1.0
 40
1.0
 40
1.0
 10
661.4506829085769
 20
471.0229283864983
 30
0.0
 10
661.366166001075
 20
471.0333319811188
 30
0.0
 10
661.1942510913307
 20
471.0544938182358
 30
0.0
 10
661.0296986761106
 20
471.1576989186563
 30
0.0
 10
660.954471260514
 20
471.2297207370239
 30
0.0
 10
660.9426595595002
 20
471.2418749652949
 30
0.0
 10
660.941620621412
 20
471.2429440315255
 30
0.0
  0
SPLINE
  5
21A8
330
1A
100
AcDbEntity
  8
SEIHIN
  6
Continuous
370
    15
100
AcDbSpline
210
0.0
220
0.0
230
1.0
 70
     8
 71
     3
 72
    11
 73
     7
 74
     0
 42
0.0000000001
 43
0.0000000001
 40
0.0
 40
0.0
 40
0.0
 40
0.0
 40
0.007895974765666
 40
0.1439667918861449
 40
0.6093545498381677
 40
1.0
 40
1.0
 40
1.0
 40
1.0
 10
659.9329317999547
 20
471.2429440315255
 30
0.0
 10
659.9318928707273
 20
471.2418749853708
 30
0.0
 10
659.9129501420208
 20
471.2223831366949
 30
0.0
 10
659.8281868557039
 20
471.1446501887147
 30
0.0
 10
659.6591804890574
 20
471.0493871427522
 30
0.0
 10
659.4976039404452
 20
471.0312192100229
 30
0.0
 10
659.423869483686
 20
471.0229283864983
 30
0.0
  0
LINE
  5
21A9
330
1A
100
AcDbEntity
  8
SEIHIN
  6
Continuous
370
    15
100
AcDbLine
 10
659.9329317999547
 20
475.0487304027566
 30
0.0
 11
659.9329317999547
 21
471.2429440315255
 31
0.0
  0
ELLIPSE
  5
21B0
330
1A
100
AcDbEntity
  8
SEIHIN
  6
Continuous
370
    15
100
AcDbEllipse
 10
659.9285684084791
 20
475.0487365835693
 30
0.0
 11
0.0
 21
1.0
 31
0.0
210
0.0
220
0.0
230
1.0
 40
0.004363433895378
 41
4.712388980384689
 42
6.274458660878869
  0
ELLIPSE
  5
21B1
330
1A
100
AcDbEntity
  8
SEIHIN
  6
Continuous
370
    15
100
AcDbEllipse
 10
660.9459840656747
 20
475.0487365835693
 30
0.0
 11
0.0
 21
1.0
 31
0.0
210
0.0
220
0.0
230
1.0
 40
0.004363433895378
 41
0.0087266461996891
 42
1.570796326794896
  0
LINE
  5
21B4
330
1A
100
AcDbEntity
  8
SEIHIN
  6
Continuous
370
    15
100
AcDbLine
 10
659.9286065050876
 20
476.0487026269921
 30
0.0
 11
660.9459459744869
 21
476.0487026269921
 31
0.0
  0
CIRCLE
  5
21B7
330
1A
100
AcDbEntity
  8
SEIHIN
  6
Continuous
370
    15
100
AcDbCircle
 10
660.4372762370769
 20
441.0400477941644
 30
0.0
 40
25.00872686779076
  0
CIRCLE
  5
21C5
330
1A
100
AcDbEntity
  8
SEIHIN
  6
Continuous
370
    15
100
AcDbCircle
 10
660.4372762370769
 20
441.0400477941644
 30
0.0
 40
38.45421356237321
  0
ARC
  5
21C8
330
1A
100
AcDbEntity
  8
SEIHIN
  6
Continuous
370
    15
100
AcDbCircle
 10
652.0432362564759
 20
482.7028620630549
 30
0.0
 40
0.9999999999999191
100
AcDbArc
 50
281.3912025639809
 51
314.9999999999894
  0
ARC
  5
21CA
330
1A
100
AcDbEntity
  8
SEIHIN
  6
Continuous
370
    15
100
AcDbCircle
 10
668.8313162176516
 20
482.7028620630602
 30
0.0
 40
0.9999999999999408
100
AcDbArc
 50
225.0000000000107
 51
258.6087974360456
  0
LINE
  5
21CE
330
1A
100
AcDbEntity
  8
SEIHIN
  6
Continuous
370
    15
100
AcDbLine
 10
667.4728099336391
 20
482.6471603210458
 30
0.0
 11
668.1242095386153
 21
481.9957560594567
 31
0.0
  0
ARC
  5
21D3
330
1A
100
AcDbEntity
  8
SEIHIN
  6
Continuous
370
    15
100
AcDbCircle
 10
666.7657033618122
 20
481.9400477941533
 30
0.0
 40
1.000000000000128
100
AcDbArc
 50
44.99999999999222
 51
90.0
  0
LINE
  5
21D6
330
1A
100
AcDbEntity
  8
SEIHIN
  6
Continuous
370
    15
100
AcDbLine
 10
654.1088492689198
 20
482.9400426443108
 30
0.0
 11
666.7657032688623
 21
482.9400426443108
 31
0.0
  0
LINE
  5
21DA
330
1A
100
AcDbEntity
  8
SEIHIN
  6
Continuous
370
    15
100
AcDbLine
 10
652.7503434648281
 20
481.9957560594567
 30
0.0
 11
653.4017421384817
 21
482.6471603210458
 31
0.0
  0
ARC
  5
21DC
330
1A
100
AcDbEntity
  8
SEIHIN
  6
Continuous
370
    15
100
AcDbCircle
 10
654.1088491123198
 20
481.9400477941532
 30
0.0
 40
1.0
100
AcDbArc
 50
90.0
 51
134.9999999999893
  0
ARC
  5
21DD
330
1A
100
AcDbEntity
  8
SEIHIN
  6
Continuous
370
    15
100
AcDbCircle
 10
660.4372762370769
 20
441.0400477941644
 30
0.0
 40
41.50000000000001
100
AcDbArc
 50
101.3912025639942
 51
78.60879743603234
  0
LINE
  5
23D9
330
1A
100
AcDbEntity
  8
CENTER L
  6
CENTERX2
100
AcDbLine
 10
290.103113715551
 20
375.4462401772448
 30
0.0
 11
290.103113017059
 21
161.9462354684779
 31
0.0
  0
LINE
  5
23DB
330
1A
100
AcDbEntity
  8
SEIHIN
  6
Continuous
370
    15
100
AcDbLine
 10
318.4445385998256
 20
362.4466960335681
 30
0.0
 11
261.7616837090022
 21
362.4466960335681
 31
0.0
  0
DIMENSION
  5
23DC
330
1A
100
AcDbEntity
  8
SUNPOU
100
AcDbDimension
  2
*D4
 10
318.4445385998256
 20
391.3911841778158
 30
0.0
 11
290.1031111544139
 21
395.8911841778158
 31
0.0
 70
    32
  1
\U+03C6<>
 71
     5
 42
56.68285489082336
  3
STANDARD
100
AcDbAlignedDimension
 13
261.7616837090022
 23
362.446696033568
 33
0.0
 14
318.4445385998256
 24
362.446696033568
 34
0.0
100
AcDbRotatedDimension
  0
LINE
  5
24EB
330
1A
100
AcDbEntity
  8
SEIHIN
  6
Continuous
370
    15
100
AcDbLine
 10
261.7616837090022
 20
174.9457796121546
 30
0.0
 11
318.4445385998256
 21
174.9457796121546
 31
0.0
  0
DIMENSION
  5
24EC
330
1A
100
AcDbEntity
  8
SUNPOU
100
AcDbDimension
  2
*D5
 10
318.4445385998256
 20
139.3714950212327
 30
0.0
 11
290.1031111544139
 21
139.3714950212327
 31
0.0
 70
   160
  1
\U+03C6<>
 71
     5
 42
56.68285489082336
  3
STANDARD
100
AcDbAlignedDimension
 13
261.7616837090022
 23
174.9457796121546
 33
0.0
 14
318.4445385998256
 24
174.9457796121546
 34
0.0
100
AcDbRotatedDimension
  0
DIMENSION
  5
2533
330
1A
100
AcDbEntity
  8
SUNPOU
100
AcDbDimension
  2
*D6
 10
331.6031133001811
 20
426.4084039637223
 30
0.0
 11
290.5699700673017
 21
426.4084039637223
 31
0.0
 70
   160
 71
     5
 42
82.99999955281601
  3
STANDARD
100
AcDbAlignedDimension
 13
248.6031137473651
 23
321.9062364754889
 33
0.0
 14
331.6031133001811
 24
321.9062364754889
 34
0.0
100
AcDbRotatedDimension
  0
DIMENSION
  5
256D
330
1A
100
AcDbEntity
  8
SUNPOU
100
AcDbDimension
  2
*D7
 10
375.8353758499275
 20
171.9462354684778
 30
0.0
 11
375.8353758499274
 21
268.8548574214428
 31
0.0
 70
   160
 71
     5
 42
193.5000047087669
  3
STANDARD
100
AcDbAlignedDimension
 13
318.0921857422359
 23
365.4462401772448
 33
0.0
 14
318.0921857422359
 24
171.9462354684779
 34
0.0
 50
90.0
100
AcDbRotatedDimension
  0
DIMENSION
  5
257A
330
1A
100
AcDbEntity
  8
SUNPOU
100
AcDbDimension
  2
*D8
 10
346.8854473911938
 20
206.9462393427798
 30
0.0
 11
342.3854473911938
 21
189.4462374056288
 31
0.0
 70
    32
  1
※<>
 71
     5
 42
35.00000387430191
  3
STANDARD
100
AcDbAlignedDimension
 13
318.0921857422359
 23
171.9462354684779
 33
0.0
 14
319.0031142151124
 24
206.9462393427798
 34
0.0
 50
90.0
100
AcDbRotatedDimension
  0
TEXT
  5
258D
330
1A
100
AcDbEntity
  8
SUNPOU
100
AcDbText
 10
711.9959024101063
 20
51.87765809560812
 30
-0.0000000000028831
 40
4.0
  1
※　たてといの差込み寸法を示す。
100
AcDbText
  0
DIMENSION
  5
25BB
330
1A
100
AcDbEntity
  8
SUNPOU
100
AcDbDimension
  2
*D9
 10
347.7963758640703
 20
365.4462401772448
 30
0.0
 11
343.2963758640703
 21
347.9462382400939
 31
0.0
 70
    32
  1
※<>
 71
     5
 42
35.00000387430186
  3
STANDARD
100
AcDbAlignedDimension
 13
319.0031142151124
 23
330.4462363029429
 33
0.0
 14
318.0921857422359
 24
365.4462401772448
 34
0.0
 50
90.0
100
AcDbRotatedDimension
  0
DIMENSION
  5
25E3
330
1A
100
AcDbEntity
  8
SUNPOU
100
AcDbDimension
  2
*D10
 10
516.382350673896
 20
392.9225055236636
 30
0.0
 11
474.6823525931656
 21
397.4225055236636
 31
0.0
 70
    32
 71
     5
 42
83.39999616146087
  3
STANDARD
100
AcDbAlignedDimension
 13
432.9823545124352
 23
321.9062355364272
 33
0.0
 14
516.382350673896
 24
321.9062355364272
 34
0.0
100
AcDbRotatedDimension
1001
ACAD
1000
DSTYLE
1002
{
1070
   271
1070
     1
1002
}
  0
LINE
  5
262E
330
1A
100
AcDbEntity
  8
CENTER L
  6
CENTERX2
100
AcDbLine
 10
603.9372762370769
 20
441.0400477941644
 30
0.0
 11
716.937276237077
 21
441.0400477941644
 31
0.0
  0
LINE
  5
262F
330
1A
100
AcDbEntity
  8
CENTER L
  6
CENTERX2
100
AcDbLine
 10
660.4372762370769
 20
384.5400477941645
 30
0.0
 11
660.437276268891
 21
497.9400426443109
 31
0.0
  0
DIMENSION
  5
2631
330
1A
100
AcDbEntity
  8
SUNPOU
100
AcDbDimension
  2
*D11
 10
515.9823558237386
 20
341.0841606441149
 30
0.0
 11
530.9656891570719
 21
341.0841606441149
 31
0.0
 70
   160
 71
     5
 42
0.3999999999999772
  3
STANDARD
100
AcDbAlignedDimension
 13
516.3823558237386
 23
321.9062364754889
 33
0.0
 14
515.9823558237386
 24
321.9062364754889
 34
0.0
100
AcDbRotatedDimension
1001
ACAD
1000
DSTYLE
1002
{
1070
   271
1070
     1
1002
}
  0
LINE
  5
266B
330
1A
100
AcDbEntity
  8
CENTER L
  6
CENTERX2
100
AcDbLine
 10
603.9372762528117
 20
101.6647956053269
 30
0.0
 11
716.9372762528117
 21
101.6647956053269
 31
0.0
  0
LINE
  5
266C
330
1A
100
AcDbEntity
  8
CENTER L
  6
CENTERX2
100
AcDbLine
 10
660.4372762370769
 20
44.9647981802537
 30
0.0
 11
660.437276268891
 21
158.3647930304001
 31
0.0
  0
LINE
  5
2673
330
1A
100
AcDbEntity
  8
CENTER L
  6
CENTERX2
100
AcDbLine
 10
474.4823566909186
 20
375.4462395515886
 30
0.0
 11
474.4823559924267
 21
161.9462348428217
 31
0.0
  0
TEXT
  5
26CD
330
1A
100
AcDbEntity
  8
MOJI
100
AcDbText
 10
464.4289486220604
 20
19.97670812734759
 30
0.0
 40
6.0
  1
ＰＨ６１□□
 41
0.9
  7
MSPｺﾞｼｯｸ
100
AcDbText
  0
LINE
  5
2E9A
330
1A
100
AcDbEntity
  8
SEIHIN
  6
Continuous
370
    15
100
AcDbLine
 10
112.1105340505146
 20
331.0179366909667
 30
0.0
 11
168.7933889413379
 21
331.0179366909667
 31
0.0
  0
LINE
  5
2E9B
330
1A
100
AcDbEntity
  8
SEIHIN
  6
Continuous
370
    15
100
AcDbLine
 10
168.7933889413379
 20
518.5188531123801
 30
0.0
 11
112.1105340505146
 21
518.5188531123801
 31
0.0
  0
LINE
  5
2E9D
330
1A
100
AcDbEntity
  8
SEIHIN
  6
Continuous
370
    15
100
AcDbLine
 10
112.4628906333946
 20
521.5183972560569
 30
0.0
 11
140.4519640570633
 21
521.5183972560569
 31
0.0
  0
LINE
  5
2E9E
330
1A
100
AcDbEntity
  8
SEIHIN
  6
Continuous
370
    15
100
AcDbLine
 10
140.4519640570633
 20
521.5183972560569
 30
0.0
 11
168.4410360837482
 21
521.5183972560569
 31
0.0
  0
SPLINE
  5
2E9F
330
1A
100
AcDbEntity
  8
SEIHIN
  6
Continuous
370
    15
100
AcDbSpline
210
0.0
220
0.0
230
1.0
 70
    24
 71
     3
 72
    11
 73
     7
 74
     0
 42
0.0000000001
 43
0.0000000001
 40
0.0
 40
0.0
 40
0.0
 40
0.0
 40
0.4474607280048354
 40
0.910174933543794
 40
0.9920991326565008
 40
1.0
 40
1.0
 40
1.0
 40
1.0
 10
139.4385574173775
 20
486.518393381755
 30
0.0
 10
139.5230743248798
 20
486.518393381755
 30
0.0
 10
139.6949892346242
 20
486.518393381755
 30
0.0
 10
139.8595416498442
 20
486.518393381755
 30
0.0
 10
139.9347690654401
 20
486.5183933817549
 30
0.0
 10
139.9465807664544
 20
486.518393381755
 30
0.0
 10
139.9476197045423
 20
486.518393381755
 30
0.0
  0
SPLINE
  5
2EA0
330
1A
100
AcDbEntity
  8
SEIHIN
  6
Continuous
370
    15
100
AcDbSpline
210
0.0
220
0.0
230
1.0
 70
    24
 71
     3
 72
    11
 73
     7
 74
     0
 42
0.0000000001
 43
0.0000000001
 40
0.0
 40
0.0
 40
0.0
 40
0.0
 40
0.007895974765666
 40
0.1439667918861449
 40
0.6093545498381677
 40
1.0
 40
1.0
 40
1.0
 40
1.0
 10
140.9563085259997
 20
486.518393381755
 30
0.0
 10
140.9573474552273
 20
486.518393381755
 30
0.0
 10
140.9762901839338
 20
486.5183933817549
 30
0.0
 10
141.0610534702505
 20
486.5183933817551
 30
0.0
 10
141.230059836897
 20
486.5183933817549
 30
0.0
 10
141.3916363855092
 20
486.518393381755
 30
0.0
 10
141.4653708422684
 20
486.518393381755
 30
0.0
  0
LINE
  5
2EA1
330
1A
100
AcDbEntity
  8
SEIHIN
  6
Continuous
370
    15
100
AcDbLine
 10
139.9476197045423
 20
486.518393381755
 30
0.0
 11
140.9563085259997
 21
486.518393381755
 31
0.0
  0
LWPOLYLINE
  5
2EA2
330
1A
100
AcDbEntity
  8
SEIHIN
  6
Continuous
370
    15
100
AcDbPolyline
 90
        9
 70
   128
 43
0.0
 10
140.9606338208668
 20
485.5271197103664
 10
140.9597879471384
 20
485.7209689163371
 10
140.958975717438
 20
485.9071142219707
 10
140.958227981826
 20
486.0784887515708
 10
140.9575730292254
 20
486.2285806976959
 10
140.9570358889304
 20
486.3516754650279
 10
140.9566370500379
 20
486.4431052648231
 10
140.9563914137088
 20
486.4993906759425
 10
140.9563085259997
 20
486.518393381755
  0
LWPOLYLINE
  5
2EA3
330
1A
100
AcDbEntity
  8
SEIHIN
  6
Continuous
370
    15
100
AcDbPolyline
 90
        9
 70
   128
 43
0.0
 10
139.9476197045423
 20
486.518393381755
 10
139.9475367586255
 20
486.4993906759425
 10
139.9472911805041
 20
486.4431052648231
 10
139.9468922251962
 20
486.3516754650279
 10
139.9463550849013
 20
486.2285806976959
 10
139.9457001905084
 20
486.0784887515708
 10
139.9449523966886
 20
485.9071142219707
 10
139.9441401669883
 20
485.7209689163371
 10
139.9432943514675
 20
485.5271197103664
  0
LINE
  5
2EA4
330
1A
100
AcDbEntity
  8
SEIHIN
  6
Continuous
370
    15
100
AcDbLine
 10
139.9432943514675
 20
485.5271197103664
 30
0.0
 11
139.9096752363384
 21
481.674748583953
 31
0.0
  0
LINE
  5
2EA5
330
1A
100
AcDbEntity
  8
SEIHIN
  6
Continuous
370
    15
100
AcDbLine
 10
140.9942529359959
 20
481.674748583953
 30
0.0
 11
140.9606338208668
 21
485.5271197103664
 31
0.0
  0
LWPOLYLINE
  5
2EA6
330
1A
100
AcDbEntity
  8
SEIHIN
  6
Continuous
370
    15
100
AcDbPolyline
 90
        9
 70
   128
 43
0.0
 10
139.9150689328216
 20
481.3255584978267
 10
139.9145115362607
 20
481.3614926480457
 10
139.913908621309
 20
481.4004182063743
 10
139.9132657759019
 20
481.441966369073
 10
139.9125891118437
 20
481.4857534312412
 10
139.9118849737697
 20
481.5313584350749
 10
139.9111600555607
 20
481.5783566974803
 10
139.910421167513
 20
481.6263049089118
 10
139.9096752363384
 20
481.674748583953
  0
LWPOLYLINE
  5
2EA7
330
1A
100
AcDbEntity
  8
SEIHIN
  6
Continuous
370
    15
100
AcDbPolyline
 90
        9
 70
   128
 43
0.0
 10
140.9888591813051
 20
481.3255584978267
 10
140.989416577866
 20
481.3614926480457
 10
140.990019609233
 20
481.4004182063743
 10
140.9906624546402
 20
481.441966369073
 10
140.9913390604906
 20
481.4857534312412
 10
140.992043140357
 20
481.5313584350749
 10
140.9927681749814
 20
481.5783566974803
 10
140.9935069466137
 20
481.6263049089118
 10
140.9942529359959
 20
481.674748583953
  0
LINE
  5
2EA8
330
1A
100
AcDbEntity
  8
SEIHIN
  6
Continuous
370
    15
100
AcDbLine
 10
110.4519640291237
 20
486.518393381755
 30
0.0
 11
139.4385574173775
 21
486.518393381755
 31
0.0
  0
LINE
  5
2EA9
330
1A
100
AcDbEntity
  8
SEIHIN
  6
Continuous
370
    15
100
AcDbLine
 10
141.4653708422684
 20
486.518393381755
 30
0.0
 11
170.4519626880192
 21
486.518393381755
 31
0.0
  0
LINE
  5
2EAA
330
1A
100
AcDbEntity
  8
SEIHIN
  6
Continuous
370
    15
100
AcDbLine
 10
140.9888591813051
 20
481.3255584978267
 30
0.0
 11
139.9150689328216
 21
481.3255584978267
 31
0.0
  0
LINE
  5
2EAB
330
1A
100
AcDbEntity
  8
SEIHIN
  6
Continuous
370
    15
100
AcDbLine
 10
99.45196408872835
 20
478.4783936285182
 30
0.0
 11
132.3541843528055
 21
478.4783936285182
 31
0.0
  0
LINE
  5
2EAC
330
1A
100
AcDbEntity
  8
SEIHIN
  6
Continuous
370
    15
100
AcDbLine
 10
148.5497442269825
 20
478.4783936285182
 30
0.0
 11
181.4519626284145
 21
478.4783936285182
 31
0.0
  0
LINE
  5
2EAD
330
1A
100
AcDbEntity
  8
SEIHIN
  6
Continuous
370
    15
100
AcDbLine
 10
98.95196307544939
 20
363.0183964215919
 30
0.0
 11
132.2554310979449
 21
363.0183964215919
 31
0.0
  0
LINE
  5
2EAE
330
1A
100
AcDbEntity
  8
SEIHIN
  6
Continuous
370
    15
100
AcDbLine
 10
148.6484970161818
 20
363.0183964215919
 30
0.0
 11
181.9519636416935
 21
363.0183964215919
 31
0.0
  0
LINE
  5
2EAF
330
1A
100
AcDbEntity
  8
SEIHIN
  6
Continuous
370
    15
100
AcDbLine
 10
148.6484970161818
 20
363.0183964215919
 30
0.0
 11
148.1388968611263
 21
363.0183964215919
 31
0.0
  0
LINE
  5
2EB0
330
1A
100
AcDbEntity
  8
SEIHIN
  6
Continuous
370
    15
100
AcDbLine
 10
148.6484970161818
 20
477.9783926152393
 30
0.0
 11
148.6484970161818
 21
363.0183964215919
 31
0.0
  0
LINE
  5
2EB1
330
1A
100
AcDbEntity
  8
SEIHIN
  6
Continuous
370
    15
100
AcDbLine
 10
147.7853435287379
 20
478.4783936285182
 30
0.0
 11
148.5497442269825
 21
478.4783936285182
 31
0.0
  0
ARC
  5
2EB2
330
1A
100
AcDbEntity
  8
SEIHIN
  6
Continuous
370
    15
100
AcDbCircle
 10
147.9415419240104
 20
478.0985179240717
 30
0.0
 40
0.7170882736241829
100
AcDbArc
 50
350.3564490776596
 51
31.98839452131625
  0
LINE
  5
2EB3
330
1A
100
AcDbEntity
  8
SEIHIN
  6
Continuous
370
    15
100
AcDbLine
 10
132.3541843528055
 20
478.4783936285182
 30
0.0
 11
133.1185841197275
 21
478.4783936285182
 31
0.0
  0
ARC
  5
2EB4
330
1A
100
AcDbEntity
  8
SEIHIN
  6
Continuous
370
    15
100
AcDbCircle
 10
132.9623882954624
 20
478.0985169418218
 30
0.0
 40
0.7170901846761324
100
AcDbArc
 50
148.0116083166062
 51
189.6434453696692
  0
LINE
  5
2EB5
330
1A
100
AcDbEntity
  8
SEIHIN
  6
Continuous
370
    15
100
AcDbLine
 10
132.7650307873391
 20
363.0183964215919
 30
0.0
 11
132.2554310979449
 21
363.0183964215919
 31
0.0
  0
LINE
  5
2EB6
330
1A
100
AcDbEntity
  8
SEIHIN
  6
Continuous
370
    15
100
AcDbLine
 10
132.2554310979449
 20
363.0183964215919
 30
0.0
 11
132.2554310979449
 21
477.9783926152393
 31
0.0
  0
LINE
  5
2EB7
330
1A
100
AcDbEntity
  8
SEIHIN
  6
Continuous
370
    15
100
AcDbLine
 10
147.1339448550843
 20
478.4783936285182
 30
0.0
 11
147.7853435287379
 21
478.4783936285182
 31
0.0
  0
LINE
  5
2EB8
330
1A
100
AcDbEntity
  8
SEIHIN
  6
Continuous
370
    15
100
AcDbLine
 10
148.1388968611263
 20
363.0183964215919
 30
0.0
 11
147.4874981874727
 21
363.0183964215919
 31
0.0
  0
LINE
  5
2EB9
330
1A
100
AcDbEntity
  8
SEIHIN
  6
Continuous
370
    15
100
AcDbLine
 10
133.4164303923153
 20
363.0183964215919
 30
0.0
 11
132.7650307873391
 21
363.0183964215919
 31
0.0
  0
LINE
  5
2EBA
330
1A
100
AcDbEntity
  8
SEIHIN
  6
Continuous
370
    15
100
AcDbLine
 10
133.1185841197275
 20
478.4783936285182
 30
0.0
 11
133.7699837247037
 21
478.4783936285182
 31
0.0
  0
LINE
  5
2EBB
330
1A
100
AcDbEntity
  8
SEIHIN
  6
Continuous
370
    15
100
AcDbLine
 10
147.4874981874727
 20
363.0183964215919
 30
0.0
 11
146.7803910570346
 21
363.0183964215919
 31
0.0
  0
LINE
  5
2EBC
330
1A
100
AcDbEntity
  8
SEIHIN
  6
Continuous
370
    15
100
AcDbLine
 10
146.7803910570346
 20
478.4783936285182
 30
0.0
 11
147.1339448550843
 21
478.4783936285182
 31
0.0
  0
LINE
  5
2EBD
330
1A
100
AcDbEntity
  8
SEIHIN
  6
Continuous
370
    15
100
AcDbLine
 10
146.7803910570346
 20
363.0183964215919
 30
0.0
 11
134.1235370570921
 21
363.0183964215919
 31
0.0
  0
LINE
  5
2EBE
330
1A
100
AcDbEntity
  8
SEIHIN
  6
Continuous
370
    15
100
AcDbLine
 10
146.7803910570346
 20
363.0183964215919
 30
0.0
 11
146.7803910570346
 21
477.9783926152393
 31
0.0
  0
LINE
  5
2EBF
330
1A
100
AcDbEntity
  8
SEIHIN
  6
Continuous
370
    15
100
AcDbLine
 10
146.7803910570346
 20
478.4783936285182
 30
0.0
 11
146.7803910570346
 21
477.9783926152393
 31
0.0
  0
LINE
  5
2EC0
330
1A
100
AcDbEntity
  8
SEIHIN
  6
Continuous
370
    15
100
AcDbLine
 10
134.1235370570921
 20
478.4783936285182
 30
0.0
 11
146.7803910570346
 21
478.4783936285182
 31
0.0
  0
LINE
  5
2EC1
330
1A
100
AcDbEntity
  8
SEIHIN
  6
Continuous
370
    15
100
AcDbLine
 10
134.1235370570921
 20
478.4783936285182
 30
0.0
 11
134.1235370570921
 21
477.9783926152393
 31
0.0
  0
LINE
  5
2EC2
330
1A
100
AcDbEntity
  8
SEIHIN
  6
Continuous
370
    15
100
AcDbLine
 10
133.7699837247037
 20
478.4783936285182
 30
0.0
 11
134.1235370570921
 21
478.4783936285182
 31
0.0
  0
LINE
  5
2EC3
330
1A
100
AcDbEntity
  8
SEIHIN
  6
Continuous
370
    15
100
AcDbLine
 10
134.1235370570921
 20
363.0183964215919
 30
0.0
 11
133.4164303923153
 21
363.0183964215919
 31
0.0
  0
LINE
  5
2EC4
330
1A
100
AcDbEntity
  8
SEIHIN
  6
Continuous
370
    15
100
AcDbLine
 10
134.1235370570921
 20
477.9783926152393
 30
0.0
 11
134.1235370570921
 21
363.0183964215919
 31
0.0
  0
LINE
  5
2EC5
330
1A
100
AcDbEntity
  8
SEIHIN
  6
Continuous
370
    15
100
AcDbLine
 10
168.4410360837482
 20
328.01839254729
 30
0.0
 11
112.4628906333946
 21
328.01839254729
 31
0.0
  0
LINE
  5
2EC6
330
1A
100
AcDbEntity
  8
SEIHIN
  6
Continuous
370
    15
100
AcDbLine
 10
112.4628906333946
 20
521.5183972560569
 30
0.0
 11
112.1105340505146
 21
518.5188531123801
 31
0.0
  0
LINE
  5
2EC7
330
1A
100
AcDbEntity
  8
SEIHIN
  6
Continuous
370
    15
100
AcDbLine
 10
168.7933945292734
 20
518.5188531123801
 30
0.0
 11
168.4410360837482
 21
521.5183972560569
 31
0.0
  0
LINE
  5
2EC8
330
1A
100
AcDbEntity
  8
SEIHIN
  6
Continuous
370
    15
100
AcDbLine
 10
112.1105340505146
 20
518.5188531123801
 30
0.0
 11
111.5519640231632
 21
486.518393381755
 31
0.0
  0
LINE
  5
2EC9
330
1A
100
AcDbEntity
  8
SEIHIN
  6
Continuous
370
    15
100
AcDbLine
 10
169.3519645566248
 20
486.518393381755
 30
0.0
 11
168.7933945292734
 21
518.5188531123801
 31
0.0
  0
LINE
  5
2ECA
330
1A
100
AcDbEntity
  8
SEIHIN
  6
Continuous
370
    15
100
AcDbLine
 10
110.4519640291237
 20
486.518393381755
 30
0.0
 11
102.7048577750229
 21
478.7712871276542
 31
0.0
  0
LINE
  5
2ECB
330
1A
100
AcDbEntity
  8
SEIHIN
  6
Continuous
370
    15
100
AcDbLine
 10
178.1990726674103
 20
478.7712871276542
 30
0.0
 11
170.4519626880192
 21
486.518393381755
 31
0.0
  0
ARC
  5
2ECC
330
1A
100
AcDbEntity
  8
SEIHIN
  6
Continuous
370
    15
100
AcDbCircle
 10
101.9977505265044
 20
479.4783935543009
 30
0.0
 40
1.000000000000014
100
AcDbArc
 50
270.0
 51
314.9999999999916
  0
ARC
  5
2ECD
330
1A
100
AcDbEntity
  8
SEIHIN
  6
Continuous
370
    15
100
AcDbCircle
 10
178.9061776512506
 20
479.4783935543009
 30
0.0
 40
1.000000000000014
100
AcDbArc
 50
225.0000000000083
 51
270.0
  0
ARC
  5
2ECE
330
1A
100
AcDbEntity
  8
SEIHIN
  6
Continuous
370
    15
100
AcDbCircle
 10
99.45196408887751
 20
477.9783935543009
 30
0.0
 40
0.5
100
AcDbArc
 50
90.0
 51
180.0
  0
ARC
  5
2ECF
330
1A
100
AcDbEntity
  8
SEIHIN
  6
Continuous
370
    15
100
AcDbCircle
 10
181.4519640888775
 20
477.9783935543009
 30
0.0
 40
0.5
100
AcDbArc
 50
0.0
 51
90.0
  0
LINE
  5
2ED0
330
1A
100
AcDbEntity
  8
SEIHIN
  6
Continuous
370
    15
100
AcDbLine
 10
181.9519636416935
 20
363.0183964215919
 30
0.0
 11
181.9519636416935
 21
477.9783926152393
 31
0.0
  0
LINE
  5
2ED1
330
1A
100
AcDbEntity
  8
SEIHIN
  6
Continuous
370
    15
100
AcDbLine
 10
98.95196307544939
 20
477.9783926152393
 30
0.0
 11
98.95196307544939
 21
363.0183964215919
 31
0.0
  0
LINE
  5
2ED2
330
1A
100
AcDbEntity
  8
SEIHIN
  6
Continuous
370
    15
100
AcDbLine
 10
168.4410360837482
 20
328.01839254729
 30
0.0
 11
168.7933945292734
 21
331.0179366909667
 31
0.0
  0
LINE
  5
2ED3
330
1A
100
AcDbEntity
  8
SEIHIN
  6
Continuous
370
    15
100
AcDbLine
 10
112.1105340505146
 20
331.0179366909667
 30
0.0
 11
112.4628906333946
 21
328.01839254729
 31
0.0
  0
LINE
  5
2ED4
330
1A
100
AcDbEntity
  8
SEIHIN
  6
Continuous
370
    15
100
AcDbLine
 10
168.7933945292734
 20
331.0179366909667
 30
0.0
 11
169.3519645566248
 21
363.0183964215919
 31
0.0
  0
LINE
  5
2ED5
330
1A
100
AcDbEntity
  8
SEIHIN
  6
Continuous
370
    15
100
AcDbLine
 10
111.5519640231632
 20
363.0183964215919
 30
0.0
 11
112.1105340505146
 21
331.0179366909667
 31
0.0
  0
LINE
  5
2ED6
330
1A
100
AcDbEntity
  8
SEIHIN
  6
Continuous
370
    15
100
AcDbLine
 10
142.951964001184
 20
419.6786462508842
 30
0.0
 11
142.951964001184
 21
429.6786478900119
 31
0.0
  0
LINE
  5
2ED7
330
1A
100
AcDbEntity
  8
SEIHIN
  6
Continuous
370
    15
100
AcDbLine
 10
142.951964001184
 20
429.6786478900119
 30
0.0
 11
137.9519641129427
 21
429.6786478900119
 31
0.0
  0
LINE
  5
2ED8
330
1A
100
AcDbEntity
  8
SEIHIN
  6
Continuous
370
    15
100
AcDbLine
 10
137.9519641129427
 20
429.6786478900119
 30
0.0
 11
137.9519641129427
 21
419.6786462508842
 31
0.0
  0
LINE
  5
2ED9
330
1A
100
AcDbEntity
  8
SEIHIN
  6
Continuous
370
    15
100
AcDbLine
 10
137.9519641129427
 20
419.6786462508842
 30
0.0
 11
135.4519641688221
 21
419.6786462508842
 31
0.0
  0
LINE
  5
2EDA
330
1A
100
AcDbEntity
  8
SEIHIN
  6
Continuous
370
    15
100
AcDbLine
 10
135.4519641688221
 20
419.6786462508842
 30
0.0
 11
140.4519640570636
 21
411.0183968388244
 31
0.0
  0
LINE
  5
2EDB
330
1A
100
AcDbEntity
  8
SEIHIN
  6
Continuous
370
    15
100
AcDbLine
 10
140.4519640570636
 20
411.0183968388244
 30
0.0
 11
145.4519639453046
 21
419.6786462508842
 31
0.0
  0
LINE
  5
2EDC
330
1A
100
AcDbEntity
  8
SEIHIN
  6
Continuous
370
    15
100
AcDbLine
 10
145.4519639453046
 20
419.6786462508842
 30
0.0
 11
142.951964001184
 21
419.6786462508842
 31
0.0
  0
LINE
  5
2F5C
330
1A
100
AcDbEntity
  8
SEIHIN
  6
Continuous
370
    15
100
AcDbLine
 10
172.0831656097532
 20
101.68469522302
 30
0.0
 11
171.8815805260481
 21
120.7062479760123
 31
0.0
  0
LINE
  5
2F5D
330
1A
100
AcDbEntity
  8
SEIHIN
  6
Continuous
370
    15
100
AcDbLine
 10
172.055140918944
 20
120.9116176279814
 30
0.0
 11
172.2570753605102
 21
102.0100299650285
 31
0.0
  0
SPLINE
  5
2F5E
330
1A
100
AcDbEntity
  8
SEIHIN
  6
Continuous
370
    15
100
AcDbSpline
210
0.0
220
0.0
230
1.0
 70
     8
 71
     3
 72
    11
 73
     7
 74
     0
 42
0.0000000001
 43
0.0000000001
 40
0.0
 40
0.0
 40
0.0
 40
0.0
 40
0.1950919445856288
 40
0.602642597825574
 40
0.7995924343484423
 40
0.9999999999999998
 40
0.9999999999999998
 40
0.9999999999999998
 40
0.9999999999999998
 10
133.2013787938042
 20
101.3156719690974
 30
0.0
 10
133.2205855282143
 20
101.3030089334962
 30
0.0
 10
133.2799154833553
 20
101.2638925840882
 30
0.0
 10
133.3894980007164
 20
101.2257813392668
 30
0.0
 10
133.5014051005553
 20
101.1961467869639
 30
0.0
 10
133.5581028782514
 20
101.1882080626967
 30
0.0
 10
133.5866984537808
 20
101.1842041599228
 30
0.0
  0
ARC
  5
2F5F
330
1A
100
AcDbEntity
  8
SEIHIN
  6
Continuous
370
    15
100
AcDbCircle
 10
139.3353208625679
 20
150.0246341900641
 30
0.0
 40
49.17757888639846
100
AcDbArc
 50
263.2870512154769
 51
277.7243263452058
  0
LINE
  5
2F60
330
1A
100
AcDbEntity
  8
SEIHIN
  6
Continuous
370
    15
100
AcDbLine
 10
171.1702431390388
 20
119.4742963617204
 30
0.0
 11
171.1718183775021
 21
119.3377142582662
 31
0.0
  0
LINE
  5
2F61
330
1A
100
AcDbEntity
  8
SEIHIN
  6
Continuous
370
    15
100
AcDbLine
 10
110.9640640483728
 20
131.0408257825123
 30
0.0
 11
110.9301707381803
 21
125.4260380986039
 31
0.0
  0
LWPOLYLINE
  5
2F62
330
1A
100
AcDbEntity
  8
SEIHIN
  6
Continuous
370
    15
100
AcDbPolyline
 90
        3
 70
   128
 43
0.0
 10
124.2775593870531
 20
133.131321554028
 10
124.2964161504944
 20
134.7586803572003
 10
124.3133367930829
 20
136.2192132808934
  0
LINE
  5
2F63
330
1A
100
AcDbEntity
  8
SEIHIN
  6
Continuous
370
    15
100
AcDbLine
 10
144.8573505331171
 20
137.7233078535688
 30
0.0
 11
144.8822105882934
 21
135.015275076278
 31
0.0
  0
LWPOLYLINE
  5
2F64
330
1A
100
AcDbEntity
  8
SEIHIN
  6
Continuous
370
    15
100
AcDbPolyline
 90
        3
 70
   128
 43
0.0
 10
161.7009065352988
 20
130.0681768126946
 10
161.6974491766316
 20
131.6890772938134
 10
161.6925324833353
 20
133.9881137766209
  0
ARC
  5
2F65
330
1A
100
AcDbEntity
  8
SEIHIN
  6
Continuous
370
    15
100
AcDbCircle
 10
139.3376224909314
 20
142.7746355417251
 30
0.0
 40
43.82593884866939
100
AcDbArc
 50
255.3349002219559
 51
284.6651076307419
  0
LWPOLYLINE
  5
2F66
330
1A
100
AcDbEntity
  8
SEIHIN
  6
Continuous
370
    15
100
AcDbPolyline
 90
       35
 70
   128
 43
0.0
 10
111.4452453981987
 20
245.7380036169504
 10
111.6931399902494
 20
246.9237238696424
 10
112.1969160021438
 20
248.3440833110677
 10
112.9192082770444
 20
249.7326579083714
 10
113.8542012083992
 20
251.0782680125878
 10
114.9943748764733
 20
252.3700761274383
 10
116.3305445610133
 20
253.5976827120836
 10
117.8519638034652
 20
254.7511978431034
 10
119.5463604622871
 20
255.8213471867871
 10
121.4001141906926
 20
256.7995014622814
 10
123.398277510076
 20
257.6777980958794
 10
125.524785062528
 20
258.4491525310678
 10
127.7625044834014
 20
259.1073605892056
 10
130.0934227694063
 20
259.6471208995335
 10
132.4987651458921
 20
260.0640913543675
 10
134.9591657945118
 20
260.3549146755081
 10
137.4548308429896
 20
260.5172395136556
 10
139.9656476835068
 20
260.5497713911439
 10
142.4714082192924
 20
260.4522434288771
 10
144.9519359637099
 20
260.2254410573568
 10
147.3872585789211
 20
259.8711921322714
 10
149.7577764632804
 20
259.3923426036382
 10
152.044399728589
 20
258.792750433089
 10
154.228712836227
 20
258.0772468165652
 10
156.2931300136522
 20
257.2515920846391
 10
158.2210309145723
 20
256.3224323631723
 10
159.9968883765789
 20
255.2972516719405
 10
161.6064146180267
 20
254.1842981717205
 10
163.0366455317305
 20
252.9925355025744
 10
164.2760684426023
 20
251.7315583861878
 10
165.3147050842574
 20
250.411518872956
 10
166.1441866730881
 20
249.0430480270366
 10
166.7578302994277
 20
247.6371662063111
 10
167.1507060990891
 20
246.2051880199717
 10
167.2300080287398
 20
245.738000575593
  0
LWPOLYLINE
  5
2F67
330
1A
100
AcDbEntity
  8
SEIHIN
  6
Continuous
370
    15
100
AcDbPolyline
 90
       37
 70
   128
 43
0.0
 10
167.6768910635012
 20
242.1487523562813
 10
167.671916418288
 20
242.313958120054
 10
167.5008463114489
 20
243.7787145338165
 10
167.1030301108892
 20
245.2287165633724
 10
166.4816551720257
 20
246.6523006037886
 10
165.6417277502093
 20
248.0380014986904
 10
164.5900203171602
 20
249.3746559464071
 10
163.334997803983
 20
250.6515059061174
 10
161.8867570150748
 20
251.8582731111012
 10
160.2569713103837
 20
252.9852366233486
 10
158.4587549452424
 20
254.0233248346159
 10
156.5065748254012
 20
254.9641861779811
 10
154.416176750047
 20
255.8002317068444
 10
152.2043680921122
 20
256.5247407820923
 10
149.8889637976265
 20
257.1318785599008
 10
147.4885993590767
 20
257.6167583395592
 10
145.0226122773954
 20
257.9754704563628
 10
142.5108629378549
 20
258.2051248606147
 10
139.9735554859592
 20
258.3038815311979
 10
137.4311219236135
 20
258.2709443928602
 10
134.9040475948275
 20
258.106570060117
 10
132.4126709881854
 20
257.8120860853942
 10
129.9770421497776
 20
257.3898700496975
 10
127.6167896572094
 20
256.8433092646289
 10
125.350895397378
 20
256.1768167395127
 10
123.1976186692211
 20
255.3957508705557
 10
121.1742981264526
 20
254.5063984282561
 10
119.2972093673149
 20
253.5159288420022
 10
117.5814798177018
 20
252.4323085668582
 10
116.0409091131403
 20
251.2642703848653
 10
114.687916579872
 20
250.0212100939379
 10
113.5333932269693
 20
248.713137561022
 10
112.5866195929109
 20
247.350592799643
 10
111.8552407208892
 20
245.9445342000291
 10
111.3451242424719
 20
244.5062930988373
 10
111.0603880364663
 20
243.0474437611326
 10
110.9983531438144
 20
242.1487500752635
  0
ARC
  5
2F68
330
1A
100
AcDbEntity
  8
SEIHIN
  6
Continuous
370
    15
100
AcDbCircle
 10
113.2918674456698
 20
208.5997531964043
 30
0.0
 40
15.45617025024878
100
AcDbArc
 50
147.3278688786321
 51
179.0949030127894
  0
ARC
  5
2F69
330
1A
100
AcDbEntity
  8
SEIHIN
  6
Continuous
370
    15
100
AcDbCircle
 10
165.5711381373683
 20
208.6616881665618
 30
0.0
 40
15.26757439582662
100
AcDbArc
 50
0.6838274704839939
 51
33.44980268406285
  0
LWPOLYLINE
  5
2F6A
330
1A
100
AcDbEntity
  8
SEIHIN
  6
Continuous
370
    15
100
AcDbPolyline
 90
       62
 70
   128
 43
0.0
 10
110.7784216686611
 20
98.93040372875844
 10
109.6402539271587
 20
99.63449465231953
 10
107.7141008033625
 20
100.9761833065723
 10
105.9694056674736
 20
102.3981850808954
 10
104.4161494200555
 20
103.8923567413365
 10
103.0632777297044
 20
105.4501034123957
 10
101.9185324456559
 20
107.0625002313151
 10
100.9884832079221
 20
108.7202984307932
 10
100.2784721295513
 20
110.4139785627359
 10
99.79257164978186
 20
112.1338234908298
 10
99.53357663150406
 20
113.8699624902222
 10
99.50295958023913
 20
115.6124427194152
 10
99.7008930346476
 20
117.3512664768922
 10
100.1262627374215
 20
119.0764474662261
 10
100.7766162688142
 20
120.7780906317063
 10
101.6482223156424
 20
122.4464324563217
 10
102.7360759396463
 20
124.071904830263
 10
104.0339407243348
 20
125.645177629923
 10
105.5343619458774
 20
127.157227148434
 10
107.2287459277174
 20
128.5993697406826
 10
109.1073564185769
 20
129.9633388076641
 10
111.1594168314907
 20
131.2413073215339
 10
113.3731629273682
 20
132.4259364873238
 10
115.7358828215717
 20
133.5104353345343
 10
118.2340177412268
 20
134.4885823868052
 10
120.8532484591881
 20
135.3547573110389
 10
123.5785315139862
 20
136.1039983230185
 10
126.3942373395428
 20
136.7320028527035
 10
129.2842045950863
 20
137.2351710736563
 10
132.2318563982624
 20
137.6106121758406
 10
135.220280009016
 20
137.8561721180063
 10
138.2323374650725
 20
137.9704366690468
 10
141.2507288022063
 20
137.9527618215712
 10
144.2581369340371
 20
137.8032479403675
 10
147.2373185311655
 20
137.5227435640999
 10
150.171176461077
 20
137.1128628931119
 10
153.0428756919693
 20
136.575955375855
 10
155.8359341718962
 20
135.9151095105846
 10
158.5343229275333
 20
135.1341133077165
 10
161.1225819680114
 20
134.2374360416833
 10
163.5858281874505
 20
133.2302449783992
 10
165.9099555624887
 20
132.118301969115
 10
168.0816167130394
 20
130.9079893019537
 10
170.0883572453665
 20
129.6062534368026
 10
171.9186552647586
 20
128.2205669883476
 10
173.5620056692253
 20
126.7588800643579
 10
175.0090018090134
 20
125.2295700832923
 10
176.2513091448306
 20
123.6414265675122
 10
177.2818259327021
 20
122.0035492578157
 10
178.0946279062343
 20
120.3253405100438
 10
178.6850512532225
 20
118.6164315421686
 10
179.0497150061621
 20
116.8866223674873
 10
179.186517090983
 20
115.1458430173188
 10
179.0946777909887
 20
113.4040813087687
 10
178.7747265759633
 20
111.6713265796212
 10
178.2284928825504
 20
109.9575278696778
 10
177.4591140167847
 20
108.2725133247902
 10
176.4710074952274
 20
106.6259498988775
 10
175.2698394348242
 20
105.0272886094963
 10
173.8625113820187
 20
103.4856961073035
 10
172.2570753605102
 20
102.0100299650285
 10
172.2570753605102
 20
102.0100299650285
  0
SPLINE
  5
2F6B
330
1A
100
AcDbEntity
  8
SEIHIN
  6
Continuous
370
    15
100
AcDbSpline
210
0.0
220
0.0
230
1.0
 70
     8
 71
     3
 72
     9
 73
     5
 74
     0
 42
0.0000000001
 43
0.0000000001
 40
0.0
 40
0.0
 40
0.0
 40
0.0
 40
0.4898321412609984
 40
0.9999999999999998
 40
0.9999999999999998
 40
0.9999999999999998
 40
0.9999999999999998
 10
172.2570753605102
 20
102.0100299650285
 30
0.0
 10
172.2077430812426
 20
101.9606806126754
 30
0.0
 10
172.1070304592801
 20
101.8599331357416
 30
0.0
 10
172.091227679881
 20
101.7438944373231
 30
0.0
 10
172.0831656097532
 20
101.68469522302
 30
0.0
  0
LINE
  5
2F6C
330
1A
100
AcDbEntity
  8
SEIHIN
  6
Continuous
370
    15
100
AcDbLine
 10
172.0831682439313
 20
101.2566561287586
 30
0.0
 11
172.0831656097532
 21
101.68469522302
 31
0.0
  0
ELLIPSE
  5
2F6D
330
1A
100
AcDbEntity
  8
SEIHIN
  6
Continuous
370
    15
100
AcDbEllipse
 10
171.0831272962102
 20
101.2566735379186
 30
0.0
 11
1.000038078261695
 21
-0.0000273116159519
 31
0.0
210
0.0
220
0.0
230
1.0
 40
0.5772695016263901
 41
5.497834453207985
 42
6.28320107274219
  0
LINE
  5
2F6E
330
1A
100
AcDbEntity
  8
SEIHIN
  6
Continuous
370
    15
100
AcDbLine
 10
167.8896986511206
 20
98.59670615730165
 30
0.0
 11
171.7902861716345
 21
100.8484674028083
 31
0.0
  0
LINE
  5
2F6F
330
1A
100
AcDbEntity
  8
SEIHIN
  6
Continuous
370
    15
100
AcDbLine
 10
167.8605337728138
 20
97.2328038576154
 30
0.0
 11
173.4402684485683
 21
100.453916122626
 31
0.0
  0
ARC
  5
2F70
330
1A
100
AcDbEntity
  8
SEIHIN
  6
Continuous
370
    15
100
AcDbCircle
 10
173.2326999095487
 20
100.9120398188734
 30
0.0
 40
0.5029532974880712
100
AcDbArc
 50
294.3745219314958
 51
354.3033269374705
  0
LINE
  5
2F71
330
1A
100
AcDbEntity
  8
SEIHIN
  6
Continuous
370
    15
100
AcDbLine
 10
173.7331692893838
 20
100.8621156834114
 30
0.0
 11
173.7331659966614
 21
101.3939255058003
 31
0.0
  0
ARC
  5
2F72
330
1A
100
AcDbEntity
  8
SEIHIN
  6
Continuous
370
    15
100
AcDbCircle
 10
174.163749702164
 20
101.3721686399174
 30
0.0
 40
0.4311330289567324
100
AcDbArc
 50
127.6618629308213
 51
177.1073747217951
  0
LWPOLYLINE
  5
2F73
330
1A
100
AcDbEntity
  8
SEIHIN
  6
Continuous
370
    15
100
AcDbPolyline
 90
       64
 70
   128
 43
0.0
 10
110.8073660168763
 20
97.57631241976845
 10
109.2443712132737
 20
98.47721108962105
 10
107.2252684834427
 20
99.79876900044416
 10
105.3799029657077
 20
101.2024237873464
 10
103.7182450239195
 20
102.680585743389
 10
102.2492877418792
 20
104.2252591404441
 10
100.9809889714213
 20
105.8280817668396
 10
99.92019230707251
 20
107.4803887958596
 10
99.07264815947678
 20
109.173237116603
 10
98.44293736423175
 20
110.8974707231632
 10
98.03446064517608
 20
112.6437632936297
 10
97.84944651692535
 20
114.4026592484099
 10
97.88887621079652
 20
116.1646520651779
 10
98.15254426090247
 20
117.9202070890536
 10
98.63903216237373
 20
119.6598193183895
 10
99.34569651755488
 20
121.3740856370052
 10
100.2687151341217
 20
123.0537314260629
 10
101.4031001959704
 20
124.6896668291754
 10
102.7427153853757
 20
126.2730392158188
 10
104.2803074931273
 20
127.7952879257623
 10
106.007559760633
 20
129.2481750628096
 10
107.9151261242357
 20
130.6238417599081
 10
109.992691965944
 20
131.9148432497987
 10
112.2290142846439
 20
133.1141963862229
 10
114.6119972640861
 20
134.215411102961
 10
117.1287446271706
 20
135.2125328027489
 10
119.7656417893747
 20
136.1001654525838
 10
122.5084210546613
 20
136.8735092205204
 10
125.3422506836216
 20
137.5283753973294
 10
128.251797784477
 20
138.0612227026995
 10
131.2213158994957
 20
138.4691713515143
 10
134.2347404939503
 20
138.7500155994512
 10
137.2757791767142
 20
138.9022271645077
 10
140.3279709692654
 20
138.9249894422707
 10
143.3747982582542
 20
138.8181830594693
 10
146.3997947968034
 20
138.5823752292249
 10
149.3865786317326
 20
138.2188509249622
 10
152.3189956662606
 20
137.7295741031051
 10
155.1811855144576
 20
137.1171892237553
 10
157.9576539411393
 20
136.3850144076381
 10
160.6333966682361
 20
135.5370034191376
 10
163.1939283507497
 20
134.5777502283325
 10
165.6253905780556
 20
133.5124418699591
 10
167.9146467043072
 20
132.3468401952679
 10
170.0492950193309
 20
131.0872529791301
 10
172.0177899208126
 20
129.7404943823939
 10
173.809478792791
 20
128.3138575796696
 10
175.4146889335332
 20
126.8150432874345
 10
176.824703847931
 20
125.2521825742122
 10
178.0319239323623
 20
123.6337106442488
 10
179.0298058885967
 20
121.9683926890478
 10
179.8129470174897
 20
120.2652387293693
 10
180.3771273658346
 20
118.533454953514
 10
180.7192728478678
 20
116.7824224278223
 10
180.8375487585906
 20
115.0216050956193
 10
180.7312978705838
 20
113.2605383721243
 10
180.401114190993
 20
111.5087379037351
 10
179.848778424169
 20
109.7756866422588
 10
179.0772658741978
 20
108.0707664143756
 10
178.0907721281403
 20
106.4031875902523
 10
176.8946169085318
 20
104.7819822404886
 10
175.4952816104198
 20
103.2159163169278
 10
173.9003273125729
 20
101.7134666523923
 10
173.9003273125729
 20
101.7134666523923
  0
LINE
  5
2F74
330
1A
100
AcDbEntity
  8
SEIHIN
  6
Continuous
370
    15
100
AcDbLine
 10
171.4895977127401
 20
116.8465704947955
 30
0.0
 11
171.5194113397049
 21
110.047725059781
 31
0.0
  0
LWPOLYLINE
  5
2F75
330
1A
100
AcDbEntity
  8
SEIHIN
  6
Continuous
370
    15
100
AcDbPolyline
 90
       44
 70
   128
 43
0.0
 10
110.5391566438431
 20
110.1221253620072
 10
110.0696091412953
 20
111.172020121997
 10
109.6058067810352
 20
112.6638438546653
 10
109.3697277945464
 20
114.1733584019346
 10
109.3631713254251
 20
115.6890111684103
 10
109.5861992768548
 20
117.1991834091782
 10
110.0370888964023
 20
118.6923210081648
 10
110.7123920450242
 20
120.1569808588356
 10
111.6069319043433
 20
121.5819506176345
 10
112.7138668554655
 20
122.9563099112987
 10
114.0247089182282
 20
124.2695383050394
 10
115.5294248377797
 20
125.5115736585841
 10
117.2164892620501
 20
126.6729036520194
 10
119.0729814448943
 20
127.7446337767584
 10
121.084682237353
 20
128.7185554928301
 10
123.2361835295171
 20
129.5872094083242
 10
125.5110083114207
 20
130.343942423642
 10
127.8917260623918
 20
130.9829621789182
 10
130.3601135388041
 20
131.4993690476738
 10
132.8972543789393
 20
131.8892136374754
 10
135.4837241539897
 20
132.1495062941775
 10
138.0997026498978
 20
132.2782575899894
 10
140.7251747234329
 20
132.2744726209309
 10
143.3400139373427
 20
132.1381871229494
 10
145.9242084411173
 20
131.8704397195349
 10
148.4579399963347
 20
131.473293211221
 10
150.9218342235692
 20
130.9497722277617
 10
153.2969895783537
 20
130.3039042864534
 10
155.5652434031569
 20
129.5406179066689
 10
157.7092035375233
 20
128.6657730234291
 10
159.7124577352253
 20
127.6860629036326
 10
161.5596526896036
 20
126.6089989392702
 10
163.2366547184281
 20
125.442820927386
 10
164.7306169354362
 20
124.1964628548096
 10
166.0300819832789
 20
122.879478384904
 10
167.1251137424194
 20
121.5019465754911
 10
168.0073263070937
 20
120.0744156137446
 10
168.6699472055809
 20
118.6078298236152
 10
169.1079227673269
 20
117.1134080115429
 10
169.3178786102728
 20
115.6026084908488
 10
169.2982210567095
 20
114.086992980999
 10
169.0490910351616
 20
112.578175664872
 10
168.5723910807126
 20
111.0877171214251
 10
168.1360908561948
 20
110.1221249818373
  0
LINE
  5
2F76
330
1A
100
AcDbEntity
  8
SEIHIN
  6
Continuous
370
    15
100
AcDbLine
 10
162.8493014730104
 20
130.5223839439986
 30
0.0
 11
164.6748474352332
 21
132.646738241239
 31
0.0
  0
SPLINE
  5
2F77
330
1A
100
AcDbEntity
  8
SEIHIN
  6
Continuous
370
    15
100
AcDbSpline
210
0.0
220
0.0
230
1.0
 70
     8
 71
     3
 72
    11
 73
     7
 74
     0
 42
0.0000000001
 43
0.0000000001
 40
0.0
 40
0.0
 40
0.0
 40
0.0
 40
0.3502328495279262
 40
0.6053976088460394
 40
0.8057670519730926
 40
1.0
 40
1.0
 40
1.0
 40
1.0
 10
162.8493014730104
 20
130.5223839439986
 30
0.0
 10
162.7320288050393
 20
130.4027403310263
 30
0.0
 10
162.5293162586051
 20
130.1959294698957
 30
0.0
 10
162.2008471714123
 20
130.0335236432562
 30
0.0
 10
161.9222266780382
 20
129.9837904781586
 30
0.0
 10
161.773911093486
 20
130.0403411760752
 30
0.0
 10
161.7009065352988
 20
130.0681768126946
 30
0.0
  0
ARC
  5
2F78
330
1A
100
AcDbEntity
  8
SEIHIN
  6
Continuous
370
    15
100
AcDbCircle
 10
141.1502727802624
 20
91.26488382706208
 30
0.0
 40
43.90927116523892
100
AcDbArc
 50
62.09383305308399
 51
85.12443380831149
  0
SPLINE
  5
2F79
330
1A
100
AcDbEntity
  8
SEIHIN
  6
Continuous
370
    15
100
AcDbSpline
210
0.0
220
0.0
230
1.0
 70
     8
 71
     3
 72
    11
 73
     7
 74
     0
 42
0.0000000001
 43
0.0000000001
 40
0.0
 40
0.0
 40
0.0
 40
0.0
 40
0.184669483679115
 40
0.3684213948782236
 40
0.6306421599538082
 40
1.0
 40
1.0
 40
1.0
 40
1.0
 10
144.8822105882934
 20
135.015275076278
 30
0.0
 10
144.7954440189903
 20
135.0341527177805
 30
0.0
 10
144.622341999888
 20
135.0718142029151
 30
0.0
 10
144.382591164481
 20
135.2598617334548
 30
0.0
 10
144.1576534570069
 20
135.5803361192203
 30
0.0
 10
144.097154349852
 20
135.8758062924787
 30
0.0
 10
144.0617734497357
 20
136.0486022423538
 30
0.0
  0
LINE
  5
2F7A
330
1A
100
AcDbEntity
  8
SEIHIN
  6
Continuous
370
    15
100
AcDbLine
 10
143.8517109225793
 20
137.7741311521671
 30
0.0
 11
144.0617734497357
 21
136.0486022423538
 31
0.0
  0
LINE
  5
2F7B
330
1A
100
AcDbEntity
  8
SEIHIN
  6
Continuous
370
    15
100
AcDbLine
 10
124.8033854447083
 20
134.2877434716588
 30
0.0
 11
124.5855692145148
 21
136.2789057408986
 31
0.0
  0
SPLINE
  5
2F7C
330
1A
100
AcDbEntity
  8
SEIHIN
  6
Continuous
370
    15
100
AcDbSpline
210
0.0
220
0.0
230
1.0
 70
     8
 71
     3
 72
    11
 73
     7
 74
     0
 42
0.0000000001
 43
0.0000000001
 40
0.0
 40
0.0
 40
0.0
 40
0.0
 40
0.3502315503890488
 40
0.6053969411220327
 40
0.8057633898024166
 40
1.0
 40
1.0
 40
1.0
 40
1.0
 10
124.8033854447083
 20
134.2877434716588
 30
0.0
 10
124.8094941617389
 20
134.1214755028401
 30
0.0
 10
124.8200534577265
 20
133.8340710139597
 30
0.0
 10
124.6953197539994
 20
133.4815736912834
 30
0.0
 10
124.5181212608697
 20
133.2406617865191
 30
0.0
 10
124.3569119262363
 20
133.1673888865
 30
0.0
 10
124.2775593870531
 20
133.131321554028
 30
0.0
  0
ARC
  5
2F7D
330
1A
100
AcDbEntity
  8
SEIHIN
  6
Continuous
370
    15
100
AcDbCircle
 10
132.0922451656208
 20
104.1813500205883
 30
0.0
 40
29.9861662371954
100
AcDbArc
 50
105.1062426346291
 51
134.8883808326656
  0
SPLINE
  5
2F7E
330
1A
100
AcDbEntity
  8
SEIHIN
  6
Continuous
370
    15
100
AcDbSpline
210
0.0
220
0.0
230
1.0
 70
     8
 71
     3
 72
    11
 73
     7
 74
     0
 42
0.0000000001
 43
0.0000000001
 40
0.0
 40
0.0
 40
0.0
 40
0.0
 40
0.1846717046299015
 40
0.3684210043535634
 40
0.6306414083062491
 40
1.0
 40
1.0
 40
1.0
 40
1.0
 10
110.9301707381803
 20
125.4260380986039
 30
0.0
 10
110.8820839164034
 20
125.3883525993966
 30
0.0
 10
110.7861504586447
 20
125.3131698338756
 30
0.0
 10
110.5612682433223
 20
125.3063492923091
 30
0.0
 10
110.2523759146404
 20
125.4029162729512
 30
0.0
 10
110.0259450192495
 20
125.5780452604573
 30
0.0
 10
109.8935242180284
 20
125.6804637965958
 30
0.0
  0
LINE
  5
2F7F
330
1A
100
AcDbEntity
  8
SEIHIN
  6
Continuous
370
    15
100
AcDbLine
 10
106.9490656971718
 20
128.2677266689426
 30
0.0
 11
109.8935242180284
 21
125.6804637965959
 31
0.0
  0
SPLINE
  5
2F80
330
1A
100
AcDbEntity
  8
SEIHIN
  6
Continuous
370
    15
100
AcDbSpline
210
0.0
220
0.0
230
1.0
 70
     8
 71
     3
 72
    10
 73
     6
 74
     0
 42
0.0000000001
 43
0.0000000001
 40
0.0
 40
0.0
 40
0.0
 40
0.0
 40
0.1199163509673855
 40
0.8109390144115801
 40
1.0
 40
1.0
 40
1.0
 40
1.0
 10
100.5528665526042
 20
120.2533096059675
 30
0.0
 10
100.5697104952266
 20
120.2300197579883
 30
0.0
 10
100.6836183161324
 20
120.0725212499562
 30
0.0
 10
100.8646148964351
 20
119.8929050407013
 30
0.0
 10
101.0171616556843
 20
119.7530469323302
 30
0.0
 10
101.0499319959619
 20
119.7230023884505
 30
0.0
  0
LINE
  5
2F81
330
1A
100
AcDbEntity
  8
SEIHIN
  6
Continuous
370
    15
100
AcDbLine
 10
106.8432968637446
 20
114.5628330467182
 30
0.0
 11
101.0499319959619
 21
119.7230023884505
 31
0.0
  0
SPLINE
  5
2F82
330
1A
100
AcDbEntity
  8
SEIHIN
  6
Continuous
370
    15
100
AcDbSpline
210
0.0
220
0.0
230
1.0
 70
     8
 71
     3
 72
    11
 73
     7
 74
     0
 42
0.0000000001
 43
0.0000000001
 40
0.0
 40
0.0
 40
0.0
 40
0.0
 40
0.3502339863393307
 40
0.6054010107073202
 40
0.8057607488296641
 40
1.0
 40
1.0
 40
1.0
 40
1.0
 10
106.8432968637446
 20
114.5628330467182
 30
0.0
 10
106.9643458999419
 20
114.4498968499206
 30
0.0
 10
107.1735866124861
 20
114.2546796798187
 30
0.0
 10
107.4249629871817
 20
113.9553006883389
 30
0.0
 10
107.5940654489243
 20
113.7109910509858
 30
0.0
 10
107.6427490260605
 20
113.5905246919033
 30
0.0
 10
107.6667132576569
 20
113.5312257681494
 30
0.0
  0
ARC
  5
2F83
330
1A
100
AcDbEntity
  8
SEIHIN
  6
Continuous
370
    15
100
AcDbCircle
 10
121.1176544731072
 20
117.831857093249
 30
0.0
 40
14.12172968782245
100
AcDbArc
 50
197.7304903561508
 51
221.7083280671525
  0
LINE
  5
2F84
330
1A
100
AcDbEntity
  8
SEIHIN
  6
Continuous
370
    15
100
AcDbLine
 10
171.2027456032299
 20
109.1777138174085
 30
0.0
 11
168.0719745513072
 21
107.1229586363305
 31
0.0
  0
SPLINE
  5
2F85
330
1A
100
AcDbEntity
  8
SEIHIN
  6
Continuous
370
    15
100
AcDbSpline
210
0.0
220
0.0
230
1.0
 70
     8
 71
     3
 72
    11
 73
     7
 74
     0
 42
0.0000000001
 43
0.0000000001
 40
0.0
 40
0.0
 40
0.0
 40
0.0
 40
0.3110114582619384
 40
0.6215478203447646
 40
0.941409319359945
 40
1.0
 40
1.0
 40
1.0
 40
1.0
 10
171.2027456032299
 20
109.1777138174085
 30
0.0
 10
171.2586318136466
 20
109.2195716206145
 30
0.0
 10
171.3703188635893
 20
109.303223285709
 30
0.0
 10
171.4672434936058
 20
109.3879860670338
 30
0.0
 10
171.4953795467793
 20
109.4224206977036
 30
0.0
 10
171.4970009546921
 20
109.4319889648347
 30
0.0
 10
171.4972519755563
 20
109.4334702914432
 30
0.0
  0
LINE
  5
2F86
330
1A
100
AcDbEntity
  8
SEIHIN
  6
Continuous
370
    15
100
AcDbLine
 10
171.5026698212234
 20
109.5474885541591
 30
0.0
 11
171.4972519755563
 21
109.4334702914432
 31
0.0
  0
LINE
  5
2F87
330
1A
100
AcDbEntity
  8
SEIHIN
  6
Continuous
370
    15
100
AcDbLine
 10
171.5194113397049
 20
110.047725059781
 30
0.0
 11
171.5026698212234
 21
109.5474885541591
 31
0.0
  0
ARC
  5
2F88
330
1A
100
AcDbEntity
  8
SEIHIN
  6
Continuous
370
    15
100
AcDbCircle
 10
159.4522034000881
 20
116.7666436420644
 30
0.0
 40
11.99832402180948
100
AcDbArc
 50
316.9421722334001
 51
12.37363089951847
  0
SPLINE
  5
2F89
330
1A
100
AcDbEntity
  8
SEIHIN
  6
Continuous
370
    15
100
AcDbSpline
210
0.0
220
0.0
230
1.0
 70
     8
 71
     3
 72
    11
 73
     7
 74
     0
 42
0.0000000001
 43
0.0000000001
 40
0.0
 40
0.0
 40
0.0
 40
0.0
 40
0.1846711661876577
 40
0.3684182309624708
 40
0.6306424256866348
 40
1.0
 40
1.0
 40
1.0
 40
1.0
 10
171.1718183775021
 20
119.3377142582662
 30
0.0
 10
171.1662820983631
 20
119.395306283531
 30
0.0
 10
171.1552372438329
 20
119.5102021414149
 30
0.0
 10
171.2319505632633
 20
119.7666366497975
 30
0.0
 10
171.4018052111285
 20
120.110207903459
 30
0.0
 10
171.5908529642313
 20
120.3517617428409
 30
0.0
 10
171.7014106511985
 20
120.4930257003426
 30
0.0
  0
LINE
  5
2F8A
330
1A
100
AcDbEntity
  8
SEIHIN
  6
Continuous
370
    15
100
AcDbLine
 10
175.2932572775282
 20
124.7434592537516
 30
0.0
 11
171.7014106511985
 21
120.4930257003426
 31
0.0
  0
LWPOLYLINE
  5
2F8B
330
1A
100
AcDbEntity
  8
SEIHIN
  6
Continuous
370
    15
100
AcDbPolyline
 90
       28
 70
   128
 43
0.0
 10
168.2354250512346
 20
114.7684881411048
 10
168.1934362534055
 20
115.8966674359003
 10
167.9393157815764
 20
117.3653046214735
 10
167.4613494460384
 20
118.8152290964204
 10
166.7632751454196
 20
120.2350950776369
 10
165.8505693358481
 20
121.6137818424534
 10
164.7303561518108
 20
122.9405115812267
 10
163.4114060890658
 20
124.204897298716
 10
161.9040490767654
 20
125.3970386168357
 10
160.2200875495807
 20
126.5076054119786
 10
158.3726792267819
 20
127.5279161299642
 10
156.3762989166541
 20
128.4499765633435
 10
154.2465751974616
 20
129.2665680507583
 10
152.0001613427209
 20
129.9713067834069
 10
149.6546549787751
 20
130.5586704169197
 10
147.2283913018157
 20
131.0240733449503
 10
144.7403838088764
 20
131.3638568147649
 10
142.2100911730797
 20
131.5753733249048
 10
139.6573052910687
 20
131.6569706580608
 10
137.102031427906
 20
131.6079956827703
 10
134.5642419214307
 20
131.4288468168291
 10
132.0638175717933
 20
131.1209158613341
 10
129.6203217606937
 20
130.6866157530687
 10
127.2528766450089
 20
130.1293455888943
 10
124.9800044475712
 20
129.4534719974374
 10
122.8195100716068
 20
128.664273539278
 10
120.7882853483813
 20
127.7679371903805
 10
118.9022407132072
 20
126.7714702377764
  0
LWPOLYLINE
  5
2F8C
330
1A
100
AcDbEntity
  8
SEIHIN
  6
Continuous
370
    15
100
AcDbPolyline
 90
       11
 70
   128
 43
0.0
 10
118.9022407132072
 20
126.7714702377764
 10
117.1761222947082
 20
125.6826798454457
 10
115.6234537982634
 20
124.5100786772008
 10
114.2563743394246
 20
123.2628521070537
 10
113.0855994251535
 20
121.9507505361624
 10
112.12027525085
 20
120.5840539420104
 10
111.3679638830979
 20
119.1734538357299
 10
110.8345533683439
 20
117.7299892035153
 10
110.5242261227583
 20
116.2649552659066
 10
110.439389785062
 20
114.7898270636897
 10
110.4398283757038
 20
114.7684866204263
  0
LWPOLYLINE
  5
2F8D
330
1A
100
AcDbEntity
  8
SEIHIN
  6
Continuous
370
    15
100
AcDbPolyline
 90
       69
 70
   128
 43
0.0
 10
120.5009549709223
 20
97.26962056213455
 10
118.8432794124103
 20
96.21989127098595
 10
117.3604531830317
 20
95.08634398069972
 10
116.0651340021388
 20
93.87864593032224
 10
114.9683676367638
 20
92.6071031389584
 10
114.0794985042037
 20
91.28257230145408
 10
113.4061420131472
 20
89.91633533241174
 10
112.9540064273903
 20
88.52006952287196
 10
112.7269705740857
 20
87.10567342261304
 10
112.7269745253522
 20
85.68521589741749
 10
112.9540064273903
 20
84.27081903681926
 10
113.4061393789691
 20
82.87454562388649
 10
114.0795090409153
 20
81.50831321687991
 10
114.9683663196749
 20
80.18377857767916
 10
116.065136636317
 20
78.91223806733319
 10
117.3604607562931
 20
77.70454172771912
 10
118.8432790831377
 20
76.57099595811144
 10
120.5009554648306
 20
75.52126467107218
 10
122.3193404140736
 20
74.56430846530645
 10
124.2829120368139
 20
73.70829566596393
 10
126.3749301316572
 20
72.96052096833341
 10
128.577541556994
 20
72.3273689415559
 10
130.8719514525653
 20
71.81424255673028
 10
133.2385918268612
 20
71.42551452519734
 10
135.6572703881777
 20
71.16450372802205
 10
138.1073430832791
 20
71.03344100072405
 10
140.5679037582147
 20
71.03344480242061
 10
143.0179856729389
 20
71.16450372802205
 10
145.4366510633651
 20
71.42551604587595
 10
147.8032888034829
 20
71.81424255673022
 10
150.0977026503212
 20
72.32736970189512
 10
152.3003180269249
 20
72.96051944765469
 10
154.3923390852194
 20
73.70829129401278
 10
156.355913342137
 20
74.56430865539118
 10
158.1742948340218
 20
75.52126438594484
 10
159.8319703925342
 20
76.57099367709349
 10
161.3147966219123
 20
77.70454096737967
 10
162.6101161320773
 20
78.91223920784199
 10
163.7068818389077
 20
80.18378161903621
 10
164.5957404347561
 20
81.5083185392549
 10
165.2691081210689
 20
82.87454980575251
 10
165.7212437068258
 20
84.27081561529229
 10
165.9482683648741
 20
85.68521741809599
 10
165.9482749503192
 20
87.10566886057705
 10
165.7212430482811
 20
88.52006572117529
 10
165.2691100967029
 20
89.91633913410812
 10
164.5957404347561
 20
91.28257154111464
 10
163.7068831559966
 20
92.60710618031543
 10
162.610112839355
 20
93.87864669066141
 10
161.3147900364672
 20
95.08634379061476
 10
159.8319703925342
 20
96.21988879988311
 10
158.1742940108408
 20
97.26962008692243
 10
156.3559090615979
 20
98.22657629268816
 10
154.3923387559468
 20
99.08258985236995
 10
152.3003193440142
 20
99.83036378966119
 10
150.0977079186775
 20
100.4635158164387
 10
147.8032980231066
 20
100.9766422012643
 10
145.4366576488103
 20
101.3653702327972
 10
143.0179790874938
 20
101.6263810299725
 10
140.5679063923928
 20
101.7574437572705
 10
138.1073351807451
 20
101.7574460382885
 10
135.6572644612777
 20
101.6263814101422
 10
133.238599070851
 20
101.3653690922883
 10
130.8719501354765
 20
100.9766482839788
 10
128.5775468253502
 20
100.4635150560994
 10
126.3749321072912
 20
99.83036569050955
 10
124.2829107197247
 20
99.08259365406657
 10
122.3193364628066
 20
98.22657629268826
 10
120.5009549709223
 20
97.26962056213455
  0
LWPOLYLINE
  5
2F8E
330
1A
100
AcDbEntity
  8
SEIHIN
  6
Continuous
370
    15
100
AcDbPolyline
 90
       11
 70
   128
 43
0.0
 10
111.094101564008
 20
87.48589135854974
 10
111.0033343744728
 20
88.47757834307282
 10
111.0603880364663
 20
89.94529323706956
 10
111.3451242424719
 20
91.40414257477425
 10
111.8552407208892
 20
92.842383675966
 10
112.5866195929109
 20
94.24844227557986
 10
113.5333932269693
 20
95.61098703695893
 10
114.687916579872
 20
96.91905956987495
 10
116.0409091131403
 20
98.16211986080219
 10
117.5814798177018
 20
99.33015804279518
 10
119.2972093673149
 20
100.4137783179391
  0
LWPOLYLINE
  5
2F8F
330
1A
100
AcDbEntity
  8
SEIHIN
  6
Continuous
370
    15
100
AcDbPolyline
 90
       29
 70
   128
 43
0.0
 10
119.2972093673149
 20
100.4137783179391
 10
121.1742981264526
 20
101.4042479041931
 10
123.1976186692211
 20
102.2936003464926
 10
125.350895397378
 20
103.0746662154496
 10
127.6167896572094
 20
103.7411587405658
 10
129.9770421497776
 20
104.2877195256344
 10
132.4126709881854
 20
104.7099355613312
 10
134.9040475948275
 20
105.0044195360539
 10
137.4311219236135
 20
105.1687938687971
 10
139.9735554859592
 20
105.2017310071348
 10
142.5108629378549
 20
105.1029743365517
 10
145.0226122773954
 20
104.8733199322997
 10
147.4885993590767
 20
104.5146078154961
 10
149.8889637976265
 20
104.0297280358377
 10
152.2043680921122
 20
103.4225902580292
 10
154.416176750047
 20
102.6980811827814
 10
156.5065748254012
 20
101.862035653918
 10
158.4587549452424
 20
100.9211743105529
 10
160.2569713103837
 20
99.88308609928555
 10
161.8867570150748
 20
98.75612258703814
 10
163.334997803983
 20
97.54935538205439
 10
164.5900203171602
 20
96.27250542234406
 10
165.6417277502093
 20
94.93585097462732
 10
166.4816551720257
 20
93.55015007972554
 10
167.1030301108892
 20
92.12656603930929
 10
167.5008463114489
 20
90.67656400975346
 10
167.671916418288
 20
89.21180759599105
 10
167.6148614392052
 20
87.74409194165491
 10
167.5811413262188
 20
87.48589135854956
  0
LWPOLYLINE
  5
2F90
330
1A
100
AcDbEntity
  8
SEIHIN
  6
Continuous
370
    15
100
AcDbPolyline
 90
       71
 70
   128
 43
0.0
 10
119.5463604622871
 20
97.82069624199415
 10
117.8519638034652
 20
96.75054689831041
 10
116.3305445610133
 20
95.59703176729057
 10
114.9943748764733
 20
94.36942518264528
 10
113.8542012083992
 20
93.07761706779478
 10
112.9192082770444
 20
91.73200696357838
 10
112.1969160021438
 20
90.34343236627467
 10
111.6931399902494
 20
88.92307292484941
 10
111.4119546562308
 20
87.48235615888177
 10
111.3556016855939
 20
86.03289244955357
 10
111.5245433765828
 20
84.58634768281587
 10
111.9174191762442
 20
83.15436949647647
 10
112.5310628025834
 20
81.74848767575088
 10
113.3605443914146
 20
80.38001682983155
 10
114.3991810330692
 20
79.05997731659977
 10
115.6386039439414
 20
77.79900020021313
 10
117.0688348576457
 20
76.60723753106714
 10
118.6783610990926
 20
75.4942840308471
 10
120.4542185610992
 20
74.46910333961529
 10
122.3821194620193
 20
73.53994361814852
 10
124.4465366394449
 20
72.71428888622233
 10
126.6308497470825
 20
71.99878526969865
 10
128.9174730123916
 20
71.39919309914933
 10
131.2879908967504
 20
70.92034357051614
 10
133.723313511962
 20
70.56609464543078
 10
136.2038412563795
 20
70.33929227391053
 10
138.7096017921646
 20
70.24176431164363
 10
141.2204186326819
 20
70.27429618913197
 10
143.7160836811597
 20
70.4366210272795
 10
146.1764849883245
 20
70.72744472858971
 10
148.5818273648099
 20
71.14441518342374
 10
150.9127449922701
 20
71.684175113582
 10
153.1504647424165
 20
72.34238336180453
 10
155.2769721302322
 20
73.11373770195058
 10
157.2751354496151
 20
73.99203433554856
 10
159.128889342657
 20
74.97018870608531
 10
160.823285836843
 20
76.04033795472656
 10
162.3447050792945
 20
77.19385308574647
 10
163.6808749284703
 20
78.42145976543412
 10
164.8210482672723
 20
79.71326769019976
 10
165.7560418571722
 20
81.05887817458585
 10
166.4783341320719
 20
82.44745277188957
 10
166.9821094854221
 20
83.86781183314514
 10
167.2632948194407
 20
85.30852859911277
 10
167.3196477900776
 20
86.75799230844104
 10
167.1507060990891
 20
88.20453707517868
 10
166.7578302994277
 20
89.63651526151812
 10
166.1441866730881
 20
91.04239708224367
 10
165.3147050842574
 20
92.41086792816304
 10
164.2760684426023
 20
93.73090744139478
 10
163.0366455317305
 20
94.99188455778147
 10
161.6064146180267
 20
96.18364722692746
 10
159.9968883765789
 20
97.2966007271475
 10
158.2210309145723
 20
98.32178141837932
 10
156.2931300136522
 20
99.25094113984608
 10
154.228712836227
 20
100.0765958717722
 10
152.044399728589
 20
100.7920994882959
 10
149.7577764632804
 20
101.3916916588452
 10
147.3872585789211
 20
101.8705411874784
 10
144.9519359637099
 20
102.2247901125638
 10
142.4714082192924
 20
102.4515924840841
 10
139.9656476835068
 20
102.5491204463509
 10
137.4548308429896
 20
102.5165885688625
 10
134.9591657945118
 20
102.3542637307151
 10
132.4987651458921
 20
102.0634404095745
 10
130.0934227694063
 20
101.6464699547405
 10
127.7625044834014
 20
101.1067096444126
 10
125.524785062528
 20
100.4485015862748
 10
123.398277510076
 20
99.67714715108645
 10
121.4001141906926
 20
98.79885051748841
 10
119.5463604622871
 20
97.82069624199415
  0
LINE
  5
2F91
330
1A
100
AcDbEntity
  8
SEIHIN
  6
Continuous
370
    15
100
AcDbLine
 10
111.4452453981987
 20
245.7380036169504
 30
0.0
 11
111.0941081494531
 21
243.305644344238
 31
0.0
  0
LINE
  5
2F92
330
1A
100
AcDbEntity
  8
SEIHIN
  6
Continuous
370
    15
100
AcDbLine
 10
167.5811479116635
 20
243.3056443442378
 30
0.0
 11
167.2300080287398
 21
245.738000575593
 31
0.0
  0
LINE
  5
2F93
330
1A
100
AcDbEntity
  8
SEIHIN
  6
Continuous
370
    15
100
AcDbLine
 10
110.9983531438144
 20
242.1487500752635
 30
0.0
 11
110.6598731205124
 21
226.3159160910638
 31
0.0
  0
LINE
  5
2F94
330
1A
100
AcDbEntity
  8
SEIHIN
  6
Continuous
370
    15
100
AcDbLine
 10
168.0154566975891
 20
226.3123160594895
 30
0.0
 11
167.6768910635012
 21
242.1487523562813
 31
0.0
  0
SPLINE
  5
2F95
330
1A
100
AcDbEntity
  8
SEIHIN
  6
Continuous
370
    15
100
AcDbSpline
210
0.0
220
0.0
230
1.0
 70
     8
 71
     3
 72
    43
 73
    39
 74
     0
 42
0.0000000001
 43
0.0000000001
 40
0.0
 40
0.0
 40
0.0
 40
0.0
 40
0.0010888785424097
 40
0.0296297161871351
 40
0.0582272163513999
 40
0.0868692551476762
 40
0.1155426018157446
 40
0.1442356844784965
 40
0.1729391315338755
 40
0.2016460387484648
 40
0.2303509367888162
 40
0.2590518007064544
 40
0.2877472496830436
 40
0.3164370897311673
 40
0.345121579109956
 40
0.3738011834780575
 40
0.402476598711812
 40
0.4311486919908855
 40
0.4598183585155821
 40
0.4884865430132876
 40
0.5171541307431836
 40
0.5458222524536682
 40
0.5744914602407581
 40
0.6031628160876867
 40
0.6318372847234578
 40
0.6605158680810655
 40
0.6891994930148118
 40
0.7178890699595833
 40
0.7465853190755758
 40
0.7752887636721086
 40
0.8039995573710514
 40
0.8327172481857454
 40
0.8614404910916368
 40
0.890166388308758
 40
0.9188887375726187
 40
0.9475998187783554
 40
0.9762891002772619
 40
1.0
 40
1.0
 40
1.0
 40
1.0
 10
178.2593377902151
 20
217.244777233258
 30
0.0
 10
178.2476901148736
 20
217.2652349549288
 30
0.0
 10
177.9307426306788
 20
217.821914569169
 30
0.0
 10
177.1325231047146
 20
218.8761732676434
 30
0.0
 10
175.8557358453065
 20
220.3955682562924
 30
0.0
 10
174.3774431977729
 20
221.8534595311788
 30
0.0
 10
172.7331226522367
 20
223.2486317702517
 30
0.0
 10
170.9235548706895
 20
224.572414276995
 30
0.0
 10
168.9599225429435
 20
225.818717864685
 30
0.0
 10
166.8515950912454
 20
226.9813445073419
 30
0.0
 10
164.6092691131205
 20
228.0547686914373
 30
0.0
 10
162.2440223707351
 20
229.0338891810035
 30
0.0
 10
159.7674885916651
 20
229.9141363089525
 30
0.0
 10
157.1917669168449
 20
230.6913809829714
 30
0.0
 10
154.5294209749029
 20
231.3620195283791
 30
0.0
 10
151.7933906143923
 20
231.9229186401586
 30
0.0
 10
148.9969717212514
 20
232.3714556402839
 30
0.0
 10
146.1537298046289
 20
232.705541266705
 30
0.0
 10
143.2774593400438
 20
232.9236180413622
 30
0.0
 10
140.3821077686846
 20
233.0246733217594
 30
0.0
 10
137.4817102254217
 20
233.0082136386648
 30
0.0
 10
134.5903359968704
 20
232.8743511709869
 30
0.0
 10
131.7220096709345
 20
232.6236875244908
 30
0.0
 10
128.8906403238673
 20
232.2574225525181
 30
0.0
 10
126.1099499202898
 20
231.7772489092245
 30
0.0
 10
123.3934117688507
 20
231.1854282265274
 30
0.0
 10
120.7541972628658
 20
230.4846934593874
 30
0.0
 10
118.2050964383732
 20
229.6783242509538
 30
0.0
 10
115.7584999228727
 20
228.7700269940145
 30
0.0
 10
113.4263076145619
 20
227.7640020894398
 30
0.0
 10
111.2198956942413
 20
226.6648889457314
 30
0.0
 10
109.1501251635484
 20
225.4777319645348
 30
0.0
 10
107.2271059205252
 20
224.2080430074186
 30
0.0
 10
105.4609746409548
 20
222.8616205756089
 30
0.0
 10
103.858879225663
 20
221.4452734155919
 30
0.0
 10
102.4360341031236
 20
219.9642040416764
 30
0.0
 10
101.2466133323862
 20
218.5198128117414
 30
0.0
 10
100.624195625671
 20
217.5488573220456
 30
0.0
 10
100.3425537785344
 20
217.1095033405385
 30
0.0
  0
LINE
  5
2F96
330
1A
100
AcDbEntity
  8
SEIHIN
  6
Continuous
370
    15
100
AcDbLine
 10
180.8376251497532
 20
114.9743743386937
 30
0.0
 11
180.8376251497532
 21
208.8439029650373
 31
0.0
  0
LINE
  5
2F97
330
1A
100
AcDbEntity
  8
SEIHIN
  6
Continuous
370
    15
100
AcDbLine
 10
97.83762564300765
 20
208.8439029650375
 30
0.0
 11
97.83762564300765
 21
114.9743743386939
 31
0.0
  0
LINE
  5
2F98
330
1A
100
AcDbEntity
  8
SEIHIN
  6
Continuous
370
    15
100
AcDbLine
 10
171.4895977127401
 20
116.8465704947955
 30
0.0
 11
171.4542878733107
 21
120.150714096766
 31
0.0
  0
LINE
  5
2F99
330
1A
100
AcDbEntity
  8
SEIHIN
  6
Continuous
370
    15
100
AcDbLine
 10
167.6768976489459
 20
88.64278638786339
 30
0.0
 11
168.2354250512346
 21
114.7684881411048
 31
0.0
  0
LINE
  5
2F9A
330
1A
100
AcDbEntity
  8
SEIHIN
  6
Continuous
370
    15
100
AcDbLine
 10
110.4398283757038
 20
114.7684866204263
 30
0.0
 11
110.9983478754582
 21
88.64278942922073
 31
0.0
  0
LINE
  5
2F9B
330
1A
100
AcDbEntity
  8
SEIHIN
  6
Continuous
370
    15
100
AcDbLine
 10
167.2300053945621
 20
85.05353284617644
 30
0.0
 11
167.5811413262188
 21
87.48589135854956
 31
0.0
  0
LINE
  5
2F9C
330
1A
100
AcDbEntity
  8
SEIHIN
  6
Continuous
370
    15
100
AcDbLine
 10
111.094101564008
 20
87.48589135854974
 30
0.0
 11
111.4452414469317
 21
85.05353512719455
 31
0.0
  0
VIEWPORT
  5
22
102
{ACAD_XDICTIONARY
360
3031
102
}
330
17
100
AcDbEntity
 67
     1
  8
0
100
AcDbViewport
 10
218.2180415755752
 20
147.2269316004744
 30
0.0
 40
684.9764389585512
 41
348.2858257024358
 68
     1
 69
     1
 12
218.2180415755752
 22
147.2269316004744
 13
0.0
 23
0.0
 14
1.0
 24
1.0
 15
10.0
 25
10.0
 16
0.0
 26
0.0
 36
1.0
 17
0.0
 27
0.0
 37
0.0
 42
50.0
 43
0.0
 44
0.0
 45
348.2858257024358
 50
0.0
 51
0.0
 72
   100
 90
    32768
  1

281
     0
 71
     1
 74
     0
110
0.0
120
0.0
130
0.0
111
1.0
121
0.0
131
0.0
112
0.0
122
1.0
132
0.0
 79
     0
146
0.0
  0
VIEWPORT
  5
64
102
{ACAD_XDICTIONARY
360
3033
102
}
330
17
100
AcDbEntity
 67
     1
  8
VIEWPORT
100
AcDbViewport
 10
213.3441316570052
 20
147.1605646800839
 30
0.0
 40
440.6686620795126
 41
313.8281207313562
 68
     2
 69
     2
 12
404.8933544395624
 22
280.9635883578372
 13
0.0
 23
0.0
 14
5.0
 24
5.0
 15
0.0
 25
0.0
 16
0.0
 26
0.0
 36
1.0
 17
0.0
 27
0.0
 37
0.0
 42
50.0
 43
0.0
 44
0.0
 45
584.6269909797119
 50
0.0
 51
0.0
 72
   100
 90
    32768
  1

281
     0
 71
     1
 74
     0
110
0.0
120
0.0
130
0.0
111
1.0
121
0.0
131
0.0
112
0.0
122
1.0
132
0.0
 79
     0
146
0.0
  0
ENDSEC
  0
SECTION
  2
OBJECTS
  0
DICTIONARY
  5
C
330
0
100
AcDbDictionary
281
     1
  3
ACAD_COLOR
350
1D01
  3
ACAD_GROUP
350
D
  3
ACAD_LAYOUT
350
15A
  3
ACAD_MATERIAL
350
1D00
  3
ACAD_MLEADERSTYLE
350
3003
  3
ACAD_MLINESTYLE
350
E
  3
ACAD_PLOTSETTINGS
350
15B
  3
ACAD_PLOTSTYLENAME
350
158
  3
ACAD_SCALELIST
350
2FF1
  3
ACAD_TABLESTYLE
350
2FEF
  3
ACAD_VISUALSTYLE
350
2FD6
  3
ACDB_RECOMPOSE_DATA
350
302F
  3
AcDbVariableDictionary
350
269B
  3
DWGPROPS
350
3030
  0
DICTIONARY
  5
288D
330
2
100
AcDbDictionary
280
     1
281
     1
  3
ACAD_LAYERSTATES
360
288E
  0
DICTIONARY
  5
300B
330
F
100
AcDbDictionary
280
     1
281
     1
  3
ADSK_XREC_LAYER_RECONCILED
360
300C
  0
DICTIONARY
  5
300D
330
62
100
AcDbDictionary
280
     1
281
     1
  3
ADSK_XREC_LAYER_RECONCILED
360
300E
  0
DICTIONARY
  5
300F
330
180
100
AcDbDictionary
280
     1
281
     1
  3
ADSK_XREC_LAYER_RECONCILED
360
3010
  0
DICTIONARY
  5
3011
330
181
100
AcDbDictionary
280
     1
281
     1
  3
ADSK_XREC_LAYER_RECONCILED
360
3012
  0
DICTIONARY
  5
3013
330
4FD
100
AcDbDictionary
280
     1
281
     1
  3
ADSK_XREC_LAYER_RECONCILED
360
3014
  0
DICTIONARY
  5
3015
330
4FE
100
AcDbDictionary
280
     1
281
     1
  3
ADSK_XREC_LAYER_RECONCILED
360
3016
  0
DICTIONARY
  5
3017
330
4FF
100
AcDbDictionary
280
     1
281
     1
  3
ADSK_XREC_LAYER_RECONCILED
360
3018
  0
DICTIONARY
  5
3019
330
95E
100
AcDbDictionary
280
     1
281
     1
  3
ADSK_XREC_LAYER_RECONCILED
360
301A
  0
DICTIONARY
  5
301B
330
1D20
100
AcDbDictionary
280
     1
281
     1
  3
ADSK_XREC_LAYER_RECONCILED
360
301C
  0
DICTIONARY
  5
301D
330
1D21
100
AcDbDictionary
280
     1
281
     1
  3
ADSK_XREC_LAYER_RECONCILED
360
301E
  0
DICTIONARY
  5
A89
330
1A
100
AcDbDictionary
280
     1
281
     1
  3
ACAD_LAYOUTSELFREF
360
1CDD
  0
DICTIONARY
  5
A87
330
17
100
AcDbDictionary
280
     1
281
     1
  3
ACAD_LAYOUTSELFREF
360
1CDC
  0
DICTIONARY
  5
3031
330
22
100
AcDbDictionary
280
     1
281
     1
  3
ACAD_XREC_ROUNDTRIP
360
3032
  0
DICTIONARY
  5
3033
330
64
100
AcDbDictionary
280
     1
281
     1
  3
ACAD_XREC_ROUNDTRIP
360
3034
  0
DICTIONARY
  5
1D01
102
{ACAD_REACTORS
330
C
102
}
330
C
100
AcDbDictionary
281
     1
  0
DICTIONARY
  5
D
102
{ACAD_REACTORS
330
C
102
}
330
C
100
AcDbDictionary
281
     1
  3
*A1
350
2F2
  0
DICTIONARY
  5
15A
102
{ACAD_REACTORS
330
C
102
}
330
C
100
AcDbDictionary
281
     1
  3
Model
350
15C
  3
ｵｰﾊﾞｰﾌﾛｰｿｹｯﾄURT60BL
350
15D
  0
DICTIONARY
  5
1D00
102
{ACAD_REACTORS
330
C
102
}
330
C
100
AcDbDictionary
281
     1
  3
ByBlock
350
2FC6
  3
ByLayer
350
2FBE
  3
Global
350
2FCE
  0
DICTIONARY
  5
3003
102
{ACAD_REACTORS
330
C
102
}
330
C
100
AcDbDictionary
281
     1
  3
Standard
350
3004
  0
DICTIONARY
  5
E
102
{ACAD_REACTORS
330
C
102
}
330
C
100
AcDbDictionary
281
     1
  3
STANDARD
350
13
  0
DICTIONARY
  5
15B
102
{ACAD_REACTORS
330
C
102
}
330
C
100
AcDbDictionary
281
     1
  0
ACDBDICTIONARYWDFLT
  5
158
102
{ACAD_REACTORS
330
C
102
}
330
C
100
AcDbDictionary
281
     1
  3
Normal
350
159
100
AcDbDictionaryWithDefault
340
159
  0
DICTIONARY
  5
2FF1
102
{ACAD_REACTORS
330
C
102
}
330
C
100
AcDbDictionary
281
     1
  3
A0
350
2FF2
  3
A1
350
2FF3
  3
A2
350
2FF4
  3
A3
350
2FF5
  3
A4
350
2FF6
  3
A5
350
2FF7
  3
A6
350
2FF8
  3
A7
350
2FF9
  3
A8
350
2FFA
  3
A9
350
2FFB
  3
B0
350
2FFC
  3
B1
350
2FFD
  3
B2
350
2FFE
  3
B3
350
2FFF
  3
B4
350
3000
  3
B5
350
3001
  3
B6
350
3002
  0
DICTIONARY
  5
2FEF
102
{ACAD_REACTORS
330
C
102
}
330
C
100
AcDbDictionary
281
     1
  3
Standard
350
2FF0
  0
DICTIONARY
  5
2FD6
102
{ACAD_REACTORS
330
C
102
}
330
C
100
AcDbDictionary
281
     1
  3
2dWireframe
350
2FDC
  3
Basic
350
2FDB
  3
Brighten
350
2FE2
  3
ColorChange
350
2FE6
  3
Conceptual
350
2FDF
  3
Dim
350
2FE1
  3
EdgeColorOff
350
2FEE
  3
Facepattern
350
2FE5
  3
Flat
350
2FD7
  3
FlatWithEdges
350
2FD8
  3
Gouraud
350
2FD9
  3
GouraudWithEdges
350
2FDA
  3
Hidden
350
2FDE
  3
JitterOff
350
2FEC
  3
Linepattern
350
2FE4
  3
OverhangOff
350
2FED
  3
Realistic
350
2FE0
  3
Shaded
350
2FEB
  3
Shaded with edges
350
2FEA
  3
Shades of Gray
350
2FE7
  3
Sketchy
350
2FE8
  3
Thicken
350
2FE3
  3
Wireframe
350
2FDD
  3
X-Ray
350
2FE9
  0
XRECORD
  5
302F
102
{ACAD_REACTORS
330
C
102
}
330
C
100
AcDbXrecord
280
     1
 90
        1
330
2FF0
  0
DICTIONARY
  5
269B
102
{ACAD_REACTORS
330
C
102
}
330
C
100
AcDbDictionary
281
     1
  3
CANNOSCALE
350
3029
  3
CMLEADERSTYLE
350
3028
  3
CTABLESTYLE
350
3027
  3
DIMASSOC
350
269C
  3
INDEXCTL
350
302B
  3
PROJECTNAME
350
269D
  3
SORTENTS
350
302A
  3
XCLIPFRAME
350
302C
  0
XRECORD
  5
3030
102
{ACAD_REACTORS
330
C
102
}
330
C
100
AcDbXrecord
280
     1
  1
DWGPROPS COOKIE
  2

  3

  4

  6

  7

  8
kogure009
  9

300
=
301
=
302
=
303
=
304
=
305
=
306
=
307
=
308
=
309
=
 40
0.2474153472222222
 41
2450994.350997107
 42
2458964.350428415
  1

 90
        0
  0
DICTIONARY
  5
288E
102
{ACAD_REACTORS
330
288D
102
}
330
288D
100
AcDbDictionary
281
     1
  0
XRECORD
  5
300C
102
{ACAD_REACTORS
330
300B
102
}
330
300B
100
AcDbXrecord
280
     1
290
     1
  0
XRECORD
  5
300E
102
{ACAD_REACTORS
330
300D
102
}
330
300D
100
AcDbXrecord
280
     1
290
     1
  0
XRECORD
  5
3010
102
{ACAD_REACTORS
330
300F
102
}
330
300F
100
AcDbXrecord
280
     1
290
     1
  0
XRECORD
  5
3012
102
{ACAD_REACTORS
330
3011
102
}
330
3011
100
AcDbXrecord
280
     1
290
     1
  0
XRECORD
  5
3014
102
{ACAD_REACTORS
330
3013
102
}
330
3013
100
AcDbXrecord
280
     1
290
     1
  0
XRECORD
  5
3016
102
{ACAD_REACTORS
330
3015
102
}
330
3015
100
AcDbXrecord
280
     1
290
     1
  0
XRECORD
  5
3018
102
{ACAD_REACTORS
330
3017
102
}
330
3017
100
AcDbXrecord
280
     1
290
     1
  0
XRECORD
  5
301A
102
{ACAD_REACTORS
330
3019
102
}
330
3019
100
AcDbXrecord
280
     1
290
     1
  0
XRECORD
  5
301C
102
{ACAD_REACTORS
330
301B
102
}
330
301B
100
AcDbXrecord
280
     1
290
     1
  0
XRECORD
  5
301E
102
{ACAD_REACTORS
330
301D
102
}
330
301D
100
AcDbXrecord
280
     1
290
     1
  0
XRECORD
  5
1CDD
102
{ACAD_REACTORS
330
A89
102
}
330
A89
100
AcDbXrecord
280
     1
340
1A
  0
XRECORD
  5
1CDC
102
{ACAD_REACTORS
330
A87
102
}
330
A87
100
AcDbXrecord
280
     1
340
17
  0
XRECORD
  5
3032
102
{ACAD_REACTORS
330
3031
102
}
330
3031
100
AcDbXrecord
280
     1
102
SHADEPLOT
 70
     0
  0
XRECORD
  5
3034
102
{ACAD_REACTORS
330
3033
102
}
330
3033
100
AcDbXrecord
280
     1
102
SHADEPLOT
 70
     0
  0
GROUP
  5
2F2
102
{ACAD_REACTORS
330
D
102
}
330
D
100
AcDbGroup
300

 70
     1
 71
     1
  0
LAYOUT
  5
15C
102
{ACAD_XDICTIONARY
360
3035
102
}
102
{ACAD_REACTORS
330
15A
102
}
330
15A
100
AcDbPlotSettings
  1

  2
DocuPrint C3360
  4
A4
  6

 40
4.85775
 41
4.942389999999999
 42
4.942413
 43
4.857757999999999
 44
209.973328
 45
297.010651
 46
0.0
 47
0.93
 48
-31.48541528013448
 49
-18.01768628930449
140
831.3262498034964
141
587.2608191772861
142
1.0
143
3.023774467804365
 70
 11956
 72
     1
 73
     1
 74
     4
  7
monochrome.ctb
 75
     0
147
0.3307124954746125
148
31.48541528013448
149
18.01768628930449
100
AcDbLayout
  1
Model
 70
     1
 71
     0
 10
0.0
 20
0.0
 11
12.0
 21
9.0
 12
0.0
 22
0.0
 32
0.0
 14
0.0
 24
0.0
 34
0.0
 15
0.0
 25
0.0
 35
0.0
146
0.0
 13
0.0
 23
0.0
 33
0.0
 16
1.0
 26
0.0
 36
0.0
 17
0.0
 27
1.0
 37
0.0
 76
     0
330
1A
331
2FB1
  0
LAYOUT
  5
15D
102
{ACAD_XDICTIONARY
360
3037
102
}
102
{ACAD_REACTORS
330
15A
102
}
330
15A
100
AcDbPlotSettings
  1

  2
DocuPrint C3360
  4
A4
  6

 40
4.857749938964843
 41
4.942390441894531
 42
4.942413330078125
 43
4.857757568359375
 44
209.9733276367187
 45
297.0106506347656
 46
0.0
 47
0.0
 48
0.0
 49
0.0
140
0.0
141
0.0
142
1.0
143
1.567783182739322
 70
   688
 72
     1
 73
     1
 74
     1
  7
monochrome.ctb
 75
     0
147
0.637843300661474
148
6.990199382751143
149
9.753495685594202
100
AcDbLayout
  1
ｵｰﾊﾞｰﾌﾛｰｿｹｯﾄURT60BL
 70
     1
 71
     1
 10
-14.60611000424963
 20
-17.36939434585625
 11
451.0421931554001
 21
311.8232575468051
 12
0.0
 22
0.0
 32
0.0
 14
-6.990199382751143
 24
-9.753495685594202
 34
0.0
 15
433.6784626967614
 25
304.074625045762
 35
0.0
146
0.0
 13
0.0
 23
0.0
 33
0.0
 16
1.0
 26
0.0
 36
0.0
 17
0.0
 27
1.0
 37
0.0
 76
     0
330
17
331
22
  0
MATERIAL
  5
2FC6
102
{ACAD_XDICTIONARY
360
2FC7
102
}
102
{ACAD_REACTORS
330
1D00
102
}
330
1D00
100
AcDbMaterial
  1
ByBlock
 72
     0
 43
0.0208333333333333
 43
0.0
 43
0.0
 43
0.0
 43
0.0
 43
0.0208333333333333
 43
0.0
 43
0.0
 43
0.0
 43
0.0
 43
1.0
 43
0.0
 43
0.0
 43
0.0
 43
0.0
 43
1.0
 77
     0
 47
0.0208333333333333
 47
0.0
 47
0.0
 47
0.0
 47
0.0
 47
0.0208333333333333
 47
0.0
 47
0.0
 47
0.0
 47
0.0
 47
1.0
 47
0.0
 47
0.0
 47
0.0
 47
0.0
 47
1.0
171
     0
 49
0.0208333333333333
 49
0.0
 49
0.0
 49
0.0
 49
0.0
 49
0.0208333333333333
 49
0.0
 49
0.0
 49
0.0
 49
0.0
 49
1.0
 49
0.0
 49
0.0
 49
0.0
 49
0.0
 49
1.0
175
     0
142
0.0208333333333333
142
0.0
142
0.0
142
0.0
142
0.0
142
0.0208333333333333
142
0.0
142
0.0
142
0.0
142
0.0
142
1.0
142
0.0
142
0.0
142
0.0
142
0.0
142
1.0
179
     0
144
0.0208333333333333
144
0.0
144
0.0
144
0.0
144
0.0
144
0.0208333333333333
144
0.0
144
0.0
144
0.0
144
0.0
144
1.0
144
0.0
144
0.0
144
0.0
144
0.0
144
1.0
147
0.0208333333333333
147
0.0
147
0.0
147
0.0
147
0.0
147
0.0208333333333333
147
0.0
147
0.0
147
0.0
147
0.0
147
1.0
147
0.0
147
0.0
147
0.0
147
0.0
147
1.0
  0
MATERIAL
  5
2FBE
102
{ACAD_XDICTIONARY
360
2FBF
102
}
102
{ACAD_REACTORS
330
1D00
102
}
330
1D00
100
AcDbMaterial
  1
ByLayer
 72
     0
 43
0.0208333333333333
 43
0.0
 43
0.0
 43
0.0
 43
0.0
 43
0.0208333333333333
 43
0.0
 43
0.0
 43
0.0
 43
0.0
 43
1.0
 43
0.0
 43
0.0
 43
0.0
 43
0.0
 43
1.0
 77
     0
 47
0.0208333333333333
 47
0.0
 47
0.0
 47
0.0
 47
0.0
 47
0.0208333333333333
 47
0.0
 47
0.0
 47
0.0
 47
0.0
 47
1.0
 47
0.0
 47
0.0
 47
0.0
 47
0.0
 47
1.0
171
     0
 49
0.0208333333333333
 49
0.0
 49
0.0
 49
0.0
 49
0.0
 49
0.0208333333333333
 49
0.0
 49
0.0
 49
0.0
 49
0.0
 49
1.0
 49
0.0
 49
0.0
 49
0.0
 49
0.0
 49
1.0
175
     0
142
0.0208333333333333
142
0.0
142
0.0
142
0.0
142
0.0
142
0.0208333333333333
142
0.0
142
0.0
142
0.0
142
0.0
142
1.0
142
0.0
142
0.0
142
0.0
142
0.0
142
1.0
179
     0
144
0.0208333333333333
144
0.0
144
0.0
144
0.0
144
0.0
144
0.0208333333333333
144
0.0
144
0.0
144
0.0
144
0.0
144
1.0
144
0.0
144
0.0
144
0.0
144
0.0
144
1.0
147
0.0208333333333333
147
0.0
147
0.0
147
0.0
147
0.0
147
0.0208333333333333
147
0.0
147
0.0
147
0.0
147
0.0
147
1.0
147
0.0
147
0.0
147
0.0
147
0.0
147
1.0
  0
MATERIAL
  5
2FCE
102
{ACAD_XDICTIONARY
360
2FCF
102
}
102
{ACAD_REACTORS
330
1D00
102
}
330
1D00
100
AcDbMaterial
  1
Global
 72
     0
 43
0.0208333333333333
 43
0.0
 43
0.0
 43
0.0
 43
0.0
 43
0.0208333333333333
 43
0.0
 43
0.0
 43
0.0
 43
0.0
 43
1.0
 43
0.0
 43
0.0
 43
0.0
 43
0.0
 43
1.0
 77
     0
 47
0.0208333333333333
 47
0.0
 47
0.0
 47
0.0
 47
0.0
 47
0.0208333333333333
 47
0.0
 47
0.0
 47
0.0
 47
0.0
 47
1.0
 47
0.0
 47
0.0
 47
0.0
 47
0.0
 47
1.0
171
     0
 49
0.0208333333333333
 49
0.0
 49
0.0
 49
0.0
 49
0.0
 49
0.0208333333333333
 49
0.0
 49
0.0
 49
0.0
 49
0.0
 49
1.0
 49
0.0
 49
0.0
 49
0.0
 49
0.0
 49
1.0
175
     0
142
0.0208333333333333
142
0.0
142
0.0
142
0.0
142
0.0
142
0.0208333333333333
142
0.0
142
0.0
142
0.0
142
0.0
142
1.0
142
0.0
142
0.0
142
0.0
142
0.0
142
1.0
179
     0
144
0.0208333333333333
144
0.0
144
0.0
144
0.0
144
0.0
144
0.0208333333333333
144
0.0
144
0.0
144
0.0
144
0.0
144
1.0
144
0.0
144
0.0
144
0.0
144
0.0
144
1.0
147
0.0208333333333333
147
0.0
147
0.0
147
0.0
147
0.0
147
0.0208333333333333
147
0.0
147
0.0
147
0.0
147
0.0
147
1.0
147
0.0
147
0.0
147
0.0
147
0.0
147
1.0
  0
MLEADERSTYLE
  5
3004
102
{ACAD_REACTORS
330
3003
102
}
330
3003
100
AcDbMLeaderStyle
170
     2
171
     1
172
     0
 90
        2
 40
0.0
 41
0.0
173
     1
 91
-1056964608
340
14
 92
       -2
290
     1
 42
2.0
291
     1
 43
0.36
  3
Standard
 44
4.0
300

342
10
174
     1
178
     6
175
     1
176
     0
 93
-1056964608
 45
4.0
292
     0
297
     0
 46
4.0
 94
-1056964608
 47
1.0
 49
1.0
140
1.0
293
     1
141
0.0
294
     1
177
     0
142
1.0
295
     0
296
     0
143
0.125
1001
ACAD_MLEADERVER
1070
     2
  0
MLINESTYLE
  5
13
102
{ACAD_REACTORS
330
E
102
}
330
E
100
AcDbMlineStyle
  2
STANDARD
 70
     0
  3

 62
     0
 51
90.0
 52
90.0
 71
     2
 49
0.5
 62
   256
  6
BYLAYER
 49
-0.5
 62
   256
  6
BYLAYER
  0
ACDBPLACEHOLDER
  5
159
102
{ACAD_REACTORS
330
158
102
}
330
158
  0
SCALE
  5
2FF2
102
{ACAD_REACTORS
330
2FF1
102
}
330
2FF1
100
AcDbScale
 70
     0
300
1:1
140
1.0
141
1.0
290
     1
  0
SCALE
  5
2FF3
102
{ACAD_REACTORS
330
2FF1
102
}
330
2FF1
100
AcDbScale
 70
     0
300
1:2
140
1.0
141
2.0
290
     0
  0
SCALE
  5
2FF4
102
{ACAD_REACTORS
330
2FF1
102
}
330
2FF1
100
AcDbScale
 70
     0
300
1:4
140
1.0
141
4.0
290
     0
  0
SCALE
  5
2FF5
102
{ACAD_REACTORS
330
2FF1
102
}
330
2FF1
100
AcDbScale
 70
     0
300
1:5
140
1.0
141
5.0
290
     0
  0
SCALE
  5
2FF6
102
{ACAD_REACTORS
330
2FF1
102
}
330
2FF1
100
AcDbScale
 70
     0
300
1:8
140
1.0
141
8.0
290
     0
  0
SCALE
  5
2FF7
102
{ACAD_REACTORS
330
2FF1
102
}
330
2FF1
100
AcDbScale
 70
     0
300
1:10
140
1.0
141
10.0
290
     0
  0
SCALE
  5
2FF8
102
{ACAD_REACTORS
330
2FF1
102
}
330
2FF1
100
AcDbScale
 70
     0
300
1:16
140
1.0
141
16.0
290
     0
  0
SCALE
  5
2FF9
102
{ACAD_REACTORS
330
2FF1
102
}
330
2FF1
100
AcDbScale
 70
     0
300
1:20
140
1.0
141
20.0
290
     0
  0
SCALE
  5
2FFA
102
{ACAD_REACTORS
330
2FF1
102
}
330
2FF1
100
AcDbScale
 70
     0
300
1:30
140
1.0
141
30.0
290
     0
  0
SCALE
  5
2FFB
102
{ACAD_REACTORS
330
2FF1
102
}
330
2FF1
100
AcDbScale
 70
     0
300
1:40
140
1.0
141
40.0
290
     0
  0
SCALE
  5
2FFC
102
{ACAD_REACTORS
330
2FF1
102
}
330
2FF1
100
AcDbScale
 70
     0
300
1:50
140
1.0
141
50.0
290
     0
  0
SCALE
  5
2FFD
102
{ACAD_REACTORS
330
2FF1
102
}
330
2FF1
100
AcDbScale
 70
     0
300
1:100
140
1.0
141
100.0
290
     0
  0
SCALE
  5
2FFE
102
{ACAD_REACTORS
330
2FF1
102
}
330
2FF1
100
AcDbScale
 70
     0
300
2:1
140
2.0
141
1.0
290
     0
  0
SCALE
  5
2FFF
102
{ACAD_REACTORS
330
2FF1
102
}
330
2FF1
100
AcDbScale
 70
     0
300
4:1
140
4.0
141
1.0
290
     0
  0
SCALE
  5
3000
102
{ACAD_REACTORS
330
2FF1
102
}
330
2FF1
100
AcDbScale
 70
     0
300
8:1
140
8.0
141
1.0
290
     0
  0
SCALE
  5
3001
102
{ACAD_REACTORS
330
2FF1
102
}
330
2FF1
100
AcDbScale
 70
     0
300
10:1
140
10.0
141
1.0
290
     0
  0
SCALE
  5
3002
102
{ACAD_REACTORS
330
2FF1
102
}
330
2FF1
100
AcDbScale
 70
     0
300
100:1
140
100.0
141
1.0
290
     0
  0
TABLESTYLE
  5
2FF0
102
{ACAD_XDICTIONARY
360
302D
102
}
102
{ACAD_REACTORS
330
2FEF
102
}
330
2FEF
100
AcDbTableStyle
  3
Standard
 70
     0
 71
     0
 40
1.5
 41
1.5
280
     0
281
     0
  7
STANDARD
140
4.5
170
     2
 62
     0
 63
     7
283
     0
274
    -2
284
     1
 64
     0
275
    -2
285
     1
 65
     0
276
    -2
286
     1
 66
     0
277
    -2
287
     1
 67
     0
278
    -2
288
     1
 68
     0
279
    -2
289
     1
 69
     0
  7
STANDARD
140
6.0
170
     5
 62
     0
 63
     7
283
     0
274
    -2
284
     1
 64
     0
275
    -2
285
     1
 65
     0
276
    -2
286
     1
 66
     0
277
    -2
287
     1
 67
     0
278
    -2
288
     1
 68
     0
279
    -2
289
     1
 69
     0
  7
STANDARD
140
4.5
170
     5
 62
     0
 63
     7
283
     0
274
    -2
284
     1
 64
     0
275
    -2
285
     1
 65
     0
276
    -2
286
     1
 66
     0
277
    -2
287
     1
 67
     0
278
    -2
288
     1
 68
     0
279
    -2
289
     1
 69
     0
  0
VISUALSTYLE
  5
2FDC
102
{ACAD_XDICTIONARY
360
3046
102
}
102
{ACAD_REACTORS
330
2FD6
102
}
330
2FD6
100
AcDbVisualStyle
  2
2dWireframe
 70
     4
 71
     0
 72
     2
 73
     0
 90
        0
 40
-0.6
 41
-30.0
 62
     5
 63
     7
 74
     1
 91
        4
 64
     7
 65
   257
 75
     1
175
     1
 42
1.0
 92
        0
 66
   257
 43
1.0
 76
     1
 77
     6
 78
     2
 67
     7
 79
     5
170
     0
171
     0
290
     0
174
     0
 93
        1
 44
0.0
173
     0
291
     0
 45
0.0
1001
ACAD
1000
AcDbSavedByObjectVersion
1070
     0
  0
VISUALSTYLE
  5
2FDB
102
{ACAD_XDICTIONARY
360
3044
102
}
102
{ACAD_REACTORS
330
2FD6
102
}
330
2FD6
100
AcDbVisualStyle
  2
Basic
 70
     7
 71
     1
 72
     0
 73
     1
 90
        0
 40
-0.6
 41
-30.0
 62
     5
 63
     7
 74
     0
 91
        4
 64
     7
 65
   257
 75
     1
175
     1
 42
1.0
 92
        8
 66
     7
 43
1.0
 76
     1
 77
     6
 78
     2
 67
     7
 79
     5
170
     0
171
     0
290
     0
174
     0
 93
        1
 44
0.0
173
     0
291
     1
 45
0.0
1001
ACAD
1000
AcDbSavedByObjectVersion
1070
     0
  0
VISUALSTYLE
  5
2FE2
102
{ACAD_XDICTIONARY
360
3052
102
}
102
{ACAD_REACTORS
330
2FD6
102
}
330
2FD6
100
AcDbVisualStyle
  2
Brighten
 70
    12
 71
     2
 72
     2
 73
     0
 90
        0
 40
-0.6
 41
-30.0
 62
     5
 63
     7
 74
     1
 91
        4
 64
     7
 65
   257
 75
     1
175
     1
 42
1.0
 92
        8
 66
     7
 43
1.0
 76
     1
 77
     6
 78
     2
 67
     7
 79
     5
170
     0
171
     0
290
     0
174
     0
 93
        1
 44
50.0
173
     0
291
     1
 45
0.0
1001
ACAD
1000
AcDbSavedByObjectVersion
1070
     0
  0
VISUALSTYLE
  5
2FE6
102
{ACAD_XDICTIONARY
360
305A
102
}
102
{ACAD_REACTORS
330
2FD6
102
}
330
2FD6
100
AcDbVisualStyle
  2
ColorChange
 70
    16
 71
     2
 72
     2
 73
     3
 90
        0
 40
-0.6
 41
-30.0
 62
     5
 63
     8
 74
     1
 91
        4
 64
     7
 65
   257
 75
     1
175
     1
 42
1.0
 92
        8
 66
     8
 43
1.0
 76
     1
 77
     6
 78
     2
 67
     7
 79
     5
170
     0
171
     0
290
     0
174
     0
 93
        1
 44
0.0
173
     0
291
     1
 45
0.0
1001
ACAD
1000
AcDbSavedByObjectVersion
1070
     0
  0
VISUALSTYLE
  5
2FDF
102
{ACAD_XDICTIONARY
360
304C
102
}
102
{ACAD_REACTORS
330
2FD6
102
}
330
2FD6
100
AcDbVisualStyle
  2
Conceptual
 70
     9
 71
     3
 72
     2
 73
     0
 90
        0
 40
-0.6
 41
-30.0
 62
     5
 63
     7
 74
     2
 91
        2
 64
     7
 65
   257
 75
     1
175
     1
 42
179.0
 92
        8
 66
     7
 43
1.0
 76
     1
 77
     6
 78
     2
 67
     7
 79
     3
170
     0
171
     0
290
     0
174
     0
 93
        1
 44
0.0
173
     0
291
     0
 45
0.0
1001
ACAD
1000
AcDbSavedByObjectVersion
1070
     0
  0
VISUALSTYLE
  5
2FE1
102
{ACAD_XDICTIONARY
360
3050
102
}
102
{ACAD_REACTORS
330
2FD6
102
}
330
2FD6
100
AcDbVisualStyle
  2
Dim
 70
    11
 71
     2
 72
     2
 73
     0
 90
        0
 40
-0.6
 41
-30.0
 62
     5
 63
     7
 74
     1
 91
        4
 64
     7
 65
   257
 75
     1
175
     1
 42
1.0
 92
        8
 66
     7
 43
1.0
 76
     1
 77
     6
 78
     2
 67
     7
 79
     5
170
     0
171
     0
290
     0
174
     0
 93
        1
 44
-50.0
173
     0
291
     1
 45
0.0
1001
ACAD
1000
AcDbSavedByObjectVersion
1070
     0
  0
VISUALSTYLE
  5
2FEE
102
{ACAD_XDICTIONARY
360
306A
102
}
102
{ACAD_REACTORS
330
2FD6
102
}
330
2FD6
100
AcDbVisualStyle
  2
EdgeColorOff
 70
    22
 71
     2
 72
     2
 73
     0
 90
        0
 40
-0.6
 41
-30.0
 62
     5
 63
     7
 74
     1
 91
        4
 64
     7
 65
   257
 75
     1
175
     1
 42
1.0
 92
        8
 66
     7
 43
1.0
 76
     1
 77
     6
 78
     2
 67
     7
 79
     5
170
     0
171
     0
290
     0
174
     0
 93
        1
 44
0.0
173
     0
291
     1
 45
0.0
1001
ACAD
1000
AcDbSavedByObjectVersion
1070
     0
  0
VISUALSTYLE
  5
2FE5
102
{ACAD_XDICTIONARY
360
3058
102
}
102
{ACAD_REACTORS
330
2FD6
102
}
330
2FD6
100
AcDbVisualStyle
  2
Facepattern
 70
    15
 71
     2
 72
     2
 73
     0
 90
        0
 40
-0.6
 41
-30.0
 62
     5
 63
     7
 74
     1
 91
        4
 64
     7
 65
   257
 75
     1
175
     1
 42
1.0
 92
        8
 66
     7
 43
1.0
 76
     1
 77
     6
 78
     2
 67
     7
 79
     5
170
     0
171
     0
290
     0
174
     0
 93
        1
 44
0.0
173
     0
291
     1
 45
0.0
1001
ACAD
1000
AcDbSavedByObjectVersion
1070
     0
  0
VISUALSTYLE
  5
2FD7
102
{ACAD_XDICTIONARY
360
303C
102
}
102
{ACAD_REACTORS
330
2FD6
102
}
330
2FD6
100
AcDbVisualStyle
  2
Flat
 70
     0
 71
     2
 72
     1
 73
     1
 90
        2
 40
-0.6
 41
30.0
 62
     5
 63
     7
 74
     0
 91
        0
 64
     7
 65
   257
 75
     1
175
     1
 42
1.0
 92
        8
 66
     7
 43
1.0
 76
     1
 77
     6
 78
     2
 67
     7
 79
     5
170
     0
171
     0
290
     0
174
     0
 93
       13
 44
0.0
173
     0
291
     1
 45
0.0
1001
ACAD
1000
AcDbSavedByObjectVersion
1070
     0
  0
VISUALSTYLE
  5
2FD8
102
{ACAD_XDICTIONARY
360
303E
102
}
102
{ACAD_REACTORS
330
2FD6
102
}
330
2FD6
100
AcDbVisualStyle
  2
FlatWithEdges
 70
     1
 71
     2
 72
     1
 73
     1
 90
        2
 40
-0.6
 41
30.0
 62
     5
 63
     7
 74
     1
 91
        0
 64
     7
 65
   257
 75
     1
175
     1
 42
1.0
 92
        0
 66
   257
 43
1.0
 76
     1
 77
     6
 78
     2
 67
     7
 79
     5
170
     0
171
     0
290
     0
174
     0
 93
       13
 44
0.0
173
     0
291
     1
 45
0.0
1001
ACAD
1000
AcDbSavedByObjectVersion
1070
     0
  0
VISUALSTYLE
  5
2FD9
102
{ACAD_XDICTIONARY
360
3040
102
}
102
{ACAD_REACTORS
330
2FD6
102
}
330
2FD6
100
AcDbVisualStyle
  2
Gouraud
 70
     2
 71
     2
 72
     2
 73
     1
 90
        2
 40
-0.6
 41
30.0
 62
     5
 63
     7
 74
     0
 91
        0
 64
     7
 65
   257
 75
     1
175
     1
 42
1.0
 92
        0
 66
     7
 43
1.0
 76
     1
 77
     6
 78
     2
 67
     7
 79
     5
170
     0
171
     0
290
     0
174
     0
 93
       13
 44
0.0
173
     0
291
     1
 45
0.0
1001
ACAD
1000
AcDbSavedByObjectVersion
1070
     0
  0
VISUALSTYLE
  5
2FDA
102
{ACAD_XDICTIONARY
360
3042
102
}
102
{ACAD_REACTORS
330
2FD6
102
}
330
2FD6
100
AcDbVisualStyle
  2
GouraudWithEdges
 70
     3
 71
     2
 72
     2
 73
     1
 90
        2
 40
-0.6
 41
30.0
 62
     5
 63
     7
 74
     1
 91
        0
 64
     7
 65
   257
 75
     1
175
     1
 42
1.0
 92
        0
 66
   257
 43
1.0
 76
     1
 77
     6
 78
     2
 67
     7
 79
     5
170
     0
171
     0
290
     0
174
     0
 93
       13
 44
0.0
173
     0
291
     1
 45
0.0
1001
ACAD
1000
AcDbSavedByObjectVersion
1070
     0
  0
VISUALSTYLE
  5
2FDE
102
{ACAD_XDICTIONARY
360
304A
102
}
102
{ACAD_REACTORS
330
2FD6
102
}
330
2FD6
100
AcDbVisualStyle
  2
Hidden
 70
     6
 71
     1
 72
     2
 73
     2
 90
        0
 40
-0.6
 41
-30.0
 62
     5
 63
     7
 74
     2
 91
        2
 64
     7
 65
   257
 75
     2
175
     1
 42
40.0
 92
        0
 66
   257
 43
1.0
 76
     1
 77
     6
 78
     2
 67
     7
 79
     3
170
     0
171
     0
290
     0
174
     0
 93
        1
 44
0.0
173
     0
291
     0
 45
0.0
1001
ACAD
1000
AcDbSavedByObjectVersion
1070
     0
  0
VISUALSTYLE
  5
2FEC
102
{ACAD_XDICTIONARY
360
3066
102
}
102
{ACAD_REACTORS
330
2FD6
102
}
330
2FD6
100
AcDbVisualStyle
  2
JitterOff
 70
    20
 71
     2
 72
     2
 73
     0
 90
        0
 40
-0.6
 41
-30.0
 62
     5
 63
     7
 74
     1
 91
        4
 64
     7
 65
   257
 75
     1
175
     1
 42
1.0
 92
       10
 66
     7
 43
1.0
 76
     1
 77
     6
 78
     2
 67
     7
 79
     5
170
     0
171
     0
290
     0
174
     0
 93
        1
 44
0.0
173
     0
291
     1
 45
0.0
1001
ACAD
1000
AcDbSavedByObjectVersion
1070
     0
  0
VISUALSTYLE
  5
2FE4
102
{ACAD_XDICTIONARY
360
3056
102
}
102
{ACAD_REACTORS
330
2FD6
102
}
330
2FD6
100
AcDbVisualStyle
  2
Linepattern
 70
    14
 71
     2
 72
     2
 73
     0
 90
        0
 40
-0.6
 41
-30.0
 62
     5
 63
     7
 74
     1
 91
        4
 64
     7
 65
   257
 75
     7
175
     7
 42
1.0
 92
        8
 66
     7
 43
1.0
 76
     1
 77
     6
 78
     2
 67
     7
 79
     5
170
     0
171
     0
290
     0
174
     0
 93
        1
 44
0.0
173
     0
291
     1
 45
0.0
1001
ACAD
1000
AcDbSavedByObjectVersion
1070
     0
  0
VISUALSTYLE
  5
2FED
102
{ACAD_XDICTIONARY
360
3068
102
}
102
{ACAD_REACTORS
330
2FD6
102
}
330
2FD6
100
AcDbVisualStyle
  2
OverhangOff
 70
    21
 71
     2
 72
     2
 73
     0
 90
        0
 40
-0.6
 41
-30.0
 62
     5
 63
     7
 74
     1
 91
        4
 64
     7
 65
   257
 75
     1
175
     1
 42
1.0
 92
        9
 66
     7
 43
1.0
 76
     1
 77
     6
 78
     2
 67
     7
 79
     5
170
     0
171
     0
290
     0
174
     0
 93
        1
 44
0.0
173
     0
291
     1
 45
0.0
1001
ACAD
1000
AcDbSavedByObjectVersion
1070
     0
  0
VISUALSTYLE
  5
2FE0
102
{ACAD_XDICTIONARY
360
304E
102
}
102
{ACAD_REACTORS
330
2FD6
102
}
330
2FD6
100
AcDbVisualStyle
  2
Realistic
 70
     8
 71
     2
 72
     3
 73
     0
 90
        2
 40
-0.6
 41
30.0
 62
     5
 63
     7
 74
     0
 91
        0
 64
     7
 65
   257
 75
     1
175
     1
 42
1.0
 92
        8
 66
   257
 43
1.0
 76
     1
 77
     6
 78
     2
 67
     7
 79
     3
170
     0
171
     0
290
     0
174
     0
 93
       13
 44
0.0
173
     0
291
     0
 45
0.0
1001
ACAD
1000
AcDbSavedByObjectVersion
1070
     0
  0
VISUALSTYLE
  5
2FEB
102
{ACAD_XDICTIONARY
360
3064
102
}
102
{ACAD_REACTORS
330
2FD6
102
}
330
2FD6
100
AcDbVisualStyle
  2
Shaded
 70
    27
 71
     2
 72
     2
 73
     1
 90
        2
 40
-0.6
 41
30.0
 62
     5
 63
     7
 74
     0
 91
        4
 64
     7
 65
   257
 75
     1
175
     1
 42
1.0
 92
        8
 66
   257
 43
1.0
 76
     1
 77
     6
 78
     2
 67
     8
 79
     3
170
     0
171
     0
290
     0
174
     0
 93
        5
 44
0.0
173
     0
291
     0
 45
0.0
1001
ACAD
1000
AcDbSavedByObjectVersion
1070
     0
  0
VISUALSTYLE
  5
2FEA
102
{ACAD_XDICTIONARY
360
3062
102
}
102
{ACAD_REACTORS
330
2FD6
102
}
330
2FD6
100
AcDbVisualStyle
  2
Shaded with edges
 70
    26
 71
     2
 72
     2
 73
     1
 90
        2
 40
-0.6
 41
30.0
 62
     5
 63
     7
 74
     1
 91
       10
 64
     7
 65
   257
 75
     2
175
     1
 42
1.0
 92
        8
 66
   257
 43
1.0
 76
     1
 77
     6
 78
     2
 67
     7
 79
     3
170
     0
171
     0
290
     0
174
     0
 93
        5
 44
0.0
173
     0
291
     0
 45
0.0
1001
ACAD
1000
AcDbSavedByObjectVersion
1070
     0
  0
VISUALSTYLE
  5
2FE7
102
{ACAD_XDICTIONARY
360
305C
102
}
102
{ACAD_REACTORS
330
2FD6
102
}
330
2FD6
100
AcDbVisualStyle
  2
Shades of Gray
 70
    23
 71
     2
 72
     2
 73
     3
 90
        0
 40
-0.6
 41
-30.0
 62
     5
 63
     7
 74
     2
 91
        2
 64
     7
 65
     7
 75
     1
175
     1
 42
40.0
 92
        8
 66
     7
 43
1.0
 76
     1
 77
     6
 78
     2
 67
     7
 79
     3
170
     0
171
     0
290
     0
174
     0
 93
        1
 44
0.0
173
     0
291
     0
 45
0.0
1001
ACAD
1000
AcDbSavedByObjectVersion
1070
     0
  0
VISUALSTYLE
  5
2FE8
102
{ACAD_XDICTIONARY
360
305E
102
}
102
{ACAD_REACTORS
330
2FD6
102
}
330
2FD6
100
AcDbVisualStyle
  2
Sketchy
 70
    24
 71
     1
 72
     2
 73
     2
 90
        0
 40
-0.6
 41
-30.0
 62
     5
 63
     7
 74
     2
 91
        2
 64
     7
 65
     7
 75
     1
175
     1
 42
40.0
 92
       11
 66
     7
 43
1.0
 76
     1
 77
     6
 78
     2
 67
     7
 79
     6
170
     0
171
     0
290
     0
174
     0
 93
        1
 44
0.0
173
     0
291
     0
 45
0.0
1001
ACAD
1000
AcDbSavedByObjectVersion
1070
     0
  0
VISUALSTYLE
  5
2FE3
102
{ACAD_XDICTIONARY
360
3054
102
}
102
{ACAD_REACTORS
330
2FD6
102
}
330
2FD6
100
AcDbVisualStyle
  2
Thicken
 70
    13
 71
     2
 72
     2
 73
     0
 90
        0
 40
-0.6
 41
-30.0
 62
     5
 63
     7
 74
     1
 91
        4
 64
     7
 65
   257
 75
     1
175
     1
 42
1.0
 92
       12
 66
     7
 43
1.0
 76
     1
 77
     6
 78
     2
 67
     7
 79
     5
170
     0
171
     0
290
     0
174
     0
 93
        1
 44
0.0
173
     0
291
     1
 45
0.0
1001
ACAD
1000
AcDbSavedByObjectVersion
1070
     0
  0
VISUALSTYLE
  5
2FDD
102
{ACAD_XDICTIONARY
360
3048
102
}
102
{ACAD_REACTORS
330
2FD6
102
}
330
2FD6
100
AcDbVisualStyle
  2
Wireframe
 70
     5
 71
     0
 72
     2
 73
     0
 90
        0
 40
-0.6
 41
-30.0
 62
     5
 63
     7
 74
     1
 91
        4
 64
     7
 65
   257
 75
     1
175
     1
 42
1.0
 92
        0
 66
   257
 43
1.0
 76
     1
 77
     6
 78
     2
 67
     7
 79
     3
170
     0
171
     0
290
     0
174
     0
 93
        1
 44
0.0
173
     0
291
     0
 45
0.0
1001
ACAD
1000
AcDbSavedByObjectVersion
1070
     0
  0
VISUALSTYLE
  5
2FE9
102
{ACAD_XDICTIONARY
360
3060
102
}
102
{ACAD_REACTORS
330
2FD6
102
}
330
2FD6
100
AcDbVisualStyle
  2
X-Ray
 70
    25
 71
     2
 72
     2
 73
     1
 90
        1
 40
0.5
 41
-30.0
 62
     5
 63
     7
 74
     1
 91
        0
 64
     7
 65
   257
 75
     1
175
     1
 42
1.0
 92
        8
 66
     7
 43
1.0
 76
     1
 77
     6
 78
     2
 67
     7
 79
     3
170
     0
171
     0
290
     0
174
     0
 93
       13
 44
0.0
173
     0
291
     0
 45
0.0
1001
ACAD
1000
AcDbSavedByObjectVersion
1070
     0
  0
DICTIONARYVAR
  5
3029
102
{ACAD_REACTORS
330
269B
102
}
330
269B
100
DictionaryVariables
280
     0
  1
1:1
  0
DICTIONARYVAR
  5
3028
102
{ACAD_REACTORS
330
269B
102
}
330
269B
100
DictionaryVariables
280
     0
  1
STANDARD
  0
DICTIONARYVAR
  5
3027
102
{ACAD_REACTORS
330
269B
102
}
330
269B
100
DictionaryVariables
280
     0
  1
STANDARD
  0
DICTIONARYVAR
  5
269C
102
{ACAD_REACTORS
330
269B
102
}
330
269B
100
DictionaryVariables
280
     0
  1
1
  0
DICTIONARYVAR
  5
302B
102
{ACAD_REACTORS
330
269B
102
}
330
269B
100
DictionaryVariables
280
     0
  1
0
  0
DICTIONARYVAR
  5
269D
102
{ACAD_REACTORS
330
269B
102
}
330
269B
100
DictionaryVariables
280
     0
  1

  0
DICTIONARYVAR
  5
302A
102
{ACAD_REACTORS
330
269B
102
}
330
269B
100
DictionaryVariables
280
     0
  1
127
  0
DICTIONARYVAR
  5
302C
102
{ACAD_REACTORS
330
269B
102
}
330
269B
100
DictionaryVariables
280
     0
  1
2
  0
DICTIONARY
  5
3035
330
15C
100
AcDbDictionary
280
     1
281
     1
  3
ACAD_XREC_ROUNDTRIP
360
3036
  0
DICTIONARY
  5
3037
330
15D
100
AcDbDictionary
280
     1
281
     1
  3
ACAD_XREC_ROUNDTRIP
360
3038
  0
DICTIONARY
  5
2FC7
330
2FC6
100
AcDbDictionary
280
     1
281
     1
  3
ACAD_XREC_ROUNDTRIP
360
303A
  3
BUMPTILE
360
2FC9
  3
DIFFUSETILE
360
2FC8
  3
OPACITYTILE
360
2FCC
  3
REFLECTIONTILE
360
2FCB
  3
REFRACTIONTILE
360
2FCD
  3
SPECULARTILE
360
2FCA
  0
DICTIONARY
  5
2FBF
330
2FBE
100
AcDbDictionary
280
     1
281
     1
  3
ACAD_XREC_ROUNDTRIP
360
3039
  3
BUMPTILE
360
2FC1
  3
DIFFUSETILE
360
2FC0
  3
OPACITYTILE
360
2FC4
  3
REFLECTIONTILE
360
2FC3
  3
REFRACTIONTILE
360
2FC5
  3
SPECULARTILE
360
2FC2
  0
DICTIONARY
  5
2FCF
330
2FCE
100
AcDbDictionary
280
     1
281
     1
  3
ACAD_XREC_ROUNDTRIP
360
303B
  3
BUMPTILE
360
2FD1
  3
DIFFUSETILE
360
2FD0
  3
OPACITYTILE
360
2FD4
  3
REFLECTIONTILE
360
2FD3
  3
REFRACTIONTILE
360
2FD5
  3
SPECULARTILE
360
2FD2
  0
DICTIONARY
  5
302D
330
2FF0
100
AcDbDictionary
280
     1
281
     1
  3
ACAD_ROUNDTRIP_2008_TABLESTYLE_CELLSTYLEMAP
360
302E
  3
ACAD_XREC_ROUNDTRIP
360
306C
  0
DICTIONARY
  5
3046
330
2FDC
100
AcDbDictionary
280
     1
281
     1
  3
ACAD_XREC_ROUNDTRIP
360
3047
  0
DICTIONARY
  5
3044
330
2FDB
100
AcDbDictionary
280
     1
281
     1
  3
ACAD_XREC_ROUNDTRIP
360
3045
  0
DICTIONARY
  5
3052
330
2FE2
100
AcDbDictionary
280
     1
281
     1
  3
ACAD_XREC_ROUNDTRIP
360
3053
  0
DICTIONARY
  5
305A
330
2FE6
100
AcDbDictionary
280
     1
281
     1
  3
ACAD_XREC_ROUNDTRIP
360
305B
  0
DICTIONARY
  5
304C
330
2FDF
100
AcDbDictionary
280
     1
281
     1
  3
ACAD_XREC_ROUNDTRIP
360
304D
  0
DICTIONARY
  5
3050
330
2FE1
100
AcDbDictionary
280
     1
281
     1
  3
ACAD_XREC_ROUNDTRIP
360
3051
  0
DICTIONARY
  5
306A
330
2FEE
100
AcDbDictionary
280
     1
281
     1
  3
ACAD_XREC_ROUNDTRIP
360
306B
  0
DICTIONARY
  5
3058
330
2FE5
100
AcDbDictionary
280
     1
281
     1
  3
ACAD_XREC_ROUNDTRIP
360
3059
  0
DICTIONARY
  5
303C
330
2FD7
100
AcDbDictionary
280
     1
281
     1
  3
ACAD_XREC_ROUNDTRIP
360
303D
  0
DICTIONARY
  5
303E
330
2FD8
100
AcDbDictionary
280
     1
281
     1
  3
ACAD_XREC_ROUNDTRIP
360
303F
  0
DICTIONARY
  5
3040
330
2FD9
100
AcDbDictionary
280
     1
281
     1
  3
ACAD_XREC_ROUNDTRIP
360
3041
  0
DICTIONARY
  5
3042
330
2FDA
100
AcDbDictionary
280
     1
281
     1
  3
ACAD_XREC_ROUNDTRIP
360
3043
  0
DICTIONARY
  5
304A
330
2FDE
100
AcDbDictionary
280
     1
281
     1
  3
ACAD_XREC_ROUNDTRIP
360
304B
  0
DICTIONARY
  5
3066
330
2FEC
100
AcDbDictionary
280
     1
281
     1
  3
ACAD_XREC_ROUNDTRIP
360
3067
  0
DICTIONARY
  5
3056
330
2FE4
100
AcDbDictionary
280
     1
281
     1
  3
ACAD_XREC_ROUNDTRIP
360
3057
  0
DICTIONARY
  5
3068
330
2FED
100
AcDbDictionary
280
     1
281
     1
  3
ACAD_XREC_ROUNDTRIP
360
3069
  0
DICTIONARY
  5
304E
330
2FE0
100
AcDbDictionary
280
     1
281
     1
  3
ACAD_XREC_ROUNDTRIP
360
304F
  0
DICTIONARY
  5
3064
330
2FEB
100
AcDbDictionary
280
     1
281
     1
  3
ACAD_XREC_ROUNDTRIP
360
3065
  0
DICTIONARY
  5
3062
330
2FEA
100
AcDbDictionary
280
     1
281
     1
  3
ACAD_XREC_ROUNDTRIP
360
3063
  0
DICTIONARY
  5
305C
330
2FE7
100
AcDbDictionary
280
     1
281
     1
  3
ACAD_XREC_ROUNDTRIP
360
305D
  0
DICTIONARY
  5
305E
330
2FE8
100
AcDbDictionary
280
     1
281
     1
  3
ACAD_XREC_ROUNDTRIP
360
305F
  0
DICTIONARY
  5
3054
330
2FE3
100
AcDbDictionary
280
     1
281
     1
  3
ACAD_XREC_ROUNDTRIP
360
3055
  0
DICTIONARY
  5
3048
330
2FDD
100
AcDbDictionary
280
     1
281
     1
  3
ACAD_XREC_ROUNDTRIP
360
3049
  0
DICTIONARY
  5
3060
330
2FE9
100
AcDbDictionary
280
     1
281
     1
  3
ACAD_XREC_ROUNDTRIP
360
3061
  0
XRECORD
  5
3036
102
{ACAD_REACTORS
330
3035
102
}
330
3035
100
AcDbXrecord
280
     1
102
SHADEPLOT
 70
     1
102
SHADEPLOTRESLEVEL
 70
     2
102
SHADEPLOTCUSTOMDPI
 70
   300
  0
XRECORD
  5
3038
102
{ACAD_REACTORS
330
3037
102
}
330
3037
100
AcDbXrecord
280
     1
102
SHADEPLOT
 70
     1
102
SHADEPLOTRESLEVEL
 70
     2
102
SHADEPLOTCUSTOMDPI
 70
   150
  0
XRECORD
  5
303A
102
{ACAD_REACTORS
330
2FC7
102
}
330
2FC7
100
AcDbXrecord
280
     1
102
MATERIAL
148
0.0
149
0.0
149
0.0
 93
        0
 94
      127
282
     0
 72
     0
 77
     0
171
     0
175
     0
179
     0
273
     0
  0
XRECORD
  5
2FC9
102
{ACAD_REACTORS
330
2FC7
102
}
330
2FC7
100
AcDbXrecord
280
     1
270
     1
271
     1
  0
XRECORD
  5
2FC8
102
{ACAD_REACTORS
330
2FC7
102
}
330
2FC7
100
AcDbXrecord
280
     1
270
     1
271
     1
  0
XRECORD
  5
2FCC
102
{ACAD_REACTORS
330
2FC7
102
}
330
2FC7
100
AcDbXrecord
280
     1
270
     1
271
     1
  0
XRECORD
  5
2FCB
102
{ACAD_REACTORS
330
2FC7
102
}
330
2FC7
100
AcDbXrecord
280
     1
270
     1
271
     1
  0
XRECORD
  5
2FCD
102
{ACAD_REACTORS
330
2FC7
102
}
330
2FC7
100
AcDbXrecord
280
     1
270
     1
271
     1
  0
XRECORD
  5
2FCA
102
{ACAD_REACTORS
330
2FC7
102
}
330
2FC7
100
AcDbXrecord
280
     1
270
     1
271
     1
  0
XRECORD
  5
3039
102
{ACAD_REACTORS
330
2FBF
102
}
330
2FBF
100
AcDbXrecord
280
     1
102
MATERIAL
148
0.0
149
0.0
149
0.0
 93
        0
 94
      127
282
     0
 72
     0
 77
     0
171
     0
175
     0
179
     0
273
     0
  0
XRECORD
  5
2FC1
102
{ACAD_REACTORS
330
2FBF
102
}
330
2FBF
100
AcDbXrecord
280
     1
270
     1
271
     1
  0
XRECORD
  5
2FC0
102
{ACAD_REACTORS
330
2FBF
102
}
330
2FBF
100
AcDbXrecord
280
     1
270
     1
271
     1
  0
XRECORD
  5
2FC4
102
{ACAD_REACTORS
330
2FBF
102
}
330
2FBF
100
AcDbXrecord
280
     1
270
     1
271
     1
  0
XRECORD
  5
2FC3
102
{ACAD_REACTORS
330
2FBF
102
}
330
2FBF
100
AcDbXrecord
280
     1
270
     1
271
     1
  0
XRECORD
  5
2FC5
102
{ACAD_REACTORS
330
2FBF
102
}
330
2FBF
100
AcDbXrecord
280
     1
270
     1
271
     1
  0
XRECORD
  5
2FC2
102
{ACAD_REACTORS
330
2FBF
102
}
330
2FBF
100
AcDbXrecord
280
     1
270
     1
271
     1
  0
XRECORD
  5
303B
102
{ACAD_REACTORS
330
2FCF
102
}
330
2FCF
100
AcDbXrecord
280
     1
102
MATERIAL
148
0.0
149
0.0
149
0.0
 93
        0
 94
      127
282
     0
 72
     0
 77
     0
171
     0
175
     0
179
     0
273
     0
  0
XRECORD
  5
2FD1
102
{ACAD_REACTORS
330
2FCF
102
}
330
2FCF
100
AcDbXrecord
280
     1
270
     1
271
     1
  0
XRECORD
  5
2FD0
102
{ACAD_REACTORS
330
2FCF
102
}
330
2FCF
100
AcDbXrecord
280
     1
270
     1
271
     1
  0
XRECORD
  5
2FD4
102
{ACAD_REACTORS
330
2FCF
102
}
330
2FCF
100
AcDbXrecord
280
     1
270
     1
271
     1
  0
XRECORD
  5
2FD3
102
{ACAD_REACTORS
330
2FCF
102
}
330
2FCF
100
AcDbXrecord
280
     1
270
     1
271
     1
  0
XRECORD
  5
2FD5
102
{ACAD_REACTORS
330
2FCF
102
}
330
2FCF
100
AcDbXrecord
280
     1
270
     1
271
     1
  0
XRECORD
  5
2FD2
102
{ACAD_REACTORS
330
2FCF
102
}
330
2FCF
100
AcDbXrecord
280
     1
270
     1
271
     1
  0
CELLSTYLEMAP
  5
302E
102
{ACAD_REACTORS
330
302D
102
}
330
302D
100
AcDbCellStyleMap
 90
        3
300
CELLSTYLE
  1
TABLEFORMAT_BEGIN
 90
        5
170
     1
 91
        0
 92
    32768
 62
   257
 93
        1
300
CONTENTFORMAT
  1
CONTENTFORMAT_BEGIN
 90
        0
 91
        0
 92
      512
 93
        0
300

 40
0.0
140
1.0
 94
        5
 62
     0
340
10
144
6.0
309
CONTENTFORMAT_END
171
     1
301
MARGIN
  1
CELLMARGIN_BEGIN
 40
1.5
 40
1.5
 40
1.5
 40
1.5
 40
4.5
 40
4.5
309
CELLMARGIN_END
 94
        6
 95
        1
302
GRIDFORMAT
  1
GRIDFORMAT_BEGIN
 90
        0
 91
        1
 62
     0
 92
       -2
340
0
 93
        0
 40
1.125
309
GRIDFORMAT_END
 95
        2
302
GRIDFORMAT
  1
GRIDFORMAT_BEGIN
 90
        0
 91
        1
 62
     0
 92
       -2
340
0
 93
        0
 40
1.125
309
GRIDFORMAT_END
 95
        4
302
GRIDFORMAT
  1
GRIDFORMAT_BEGIN
 90
        0
 91
        1
 62
     0
 92
       -2
340
0
 93
        0
 40
1.125
309
GRIDFORMAT_END
 95
        8
302
GRIDFORMAT
  1
GRIDFORMAT_BEGIN
 90
        0
 91
        1
 62
     0
 92
       -2
340
0
 93
        0
 40
1.125
309
GRIDFORMAT_END
 95
       16
302
GRIDFORMAT
  1
GRIDFORMAT_BEGIN
 90
        0
 91
        1
 62
     0
 92
       -2
340
0
 93
        0
 40
1.125
309
GRIDFORMAT_END
 95
       32
302
GRIDFORMAT
  1
GRIDFORMAT_BEGIN
 90
        0
 91
        1
 62
     0
 92
       -2
340
0
 93
        0
 40
1.125
309
GRIDFORMAT_END
309
TABLEFORMAT_END
  1
CELLSTYLE_BEGIN
 90
        1
 91
        1
300
_TITLE
309
CELLSTYLE_END
300
CELLSTYLE
  1
TABLEFORMAT_BEGIN
 90
        5
170
     1
 91
        0
 92
        0
 62
   257
 93
        1
300
CONTENTFORMAT
  1
CONTENTFORMAT_BEGIN
 90
        0
 91
        0
 92
      512
 93
        0
300

 40
0.0
140
1.0
 94
        5
 62
     0
340
10
144
4.5
309
CONTENTFORMAT_END
171
     1
301
MARGIN
  1
CELLMARGIN_BEGIN
 40
1.5
 40
1.5
 40
1.5
 40
1.5
 40
4.5
 40
4.5
309
CELLMARGIN_END
 94
        6
 95
        1
302
GRIDFORMAT
  1
GRIDFORMAT_BEGIN
 90
        0
 91
        1
 62
     0
 92
       -2
340
0
 93
        0
 40
1.125
309
GRIDFORMAT_END
 95
        2
302
GRIDFORMAT
  1
GRIDFORMAT_BEGIN
 90
        0
 91
        1
 62
     0
 92
       -2
340
0
 93
        0
 40
1.125
309
GRIDFORMAT_END
 95
        4
302
GRIDFORMAT
  1
GRIDFORMAT_BEGIN
 90
        0
 91
        1
 62
     0
 92
       -2
340
0
 93
        0
 40
1.125
309
GRIDFORMAT_END
 95
        8
302
GRIDFORMAT
  1
GRIDFORMAT_BEGIN
 90
        0
 91
        1
 62
     0
 92
       -2
340
0
 93
        0
 40
1.125
309
GRIDFORMAT_END
 95
       16
302
GRIDFORMAT
  1
GRIDFORMAT_BEGIN
 90
        0
 91
        1
 62
     0
 92
       -2
340
0
 93
        0
 40
1.125
309
GRIDFORMAT_END
 95
       32
302
GRIDFORMAT
  1
GRIDFORMAT_BEGIN
 90
        0
 91
        1
 62
     0
 92
       -2
340
0
 93
        0
 40
1.125
309
GRIDFORMAT_END
309
TABLEFORMAT_END
  1
CELLSTYLE_BEGIN
 90
        2
 91
        1
300
_HEADER
309
CELLSTYLE_END
300
CELLSTYLE
  1
TABLEFORMAT_BEGIN
 90
        5
170
     1
 91
        0
 92
        0
 62
   257
 93
        1
300
CONTENTFORMAT
  1
CONTENTFORMAT_BEGIN
 90
        0
 91
        0
 92
      512
 93
        0
300

 40
0.0
140
1.0
 94
        2
 62
     0
340
10
144
4.5
309
CONTENTFORMAT_END
171
     1
301
MARGIN
  1
CELLMARGIN_BEGIN
 40
1.5
 40
1.5
 40
1.5
 40
1.5
 40
4.5
 40
4.5
309
CELLMARGIN_END
 94
        6
 95
        1
302
GRIDFORMAT
  1
GRIDFORMAT_BEGIN
 90
        0
 91
        1
 62
     0
 92
       -2
340
0
 93
        0
 40
1.125
309
GRIDFORMAT_END
 95
        2
302
GRIDFORMAT
  1
GRIDFORMAT_BEGIN
 90
        0
 91
        1
 62
     0
 92
       -2
340
0
 93
        0
 40
1.125
309
GRIDFORMAT_END
 95
        4
302
GRIDFORMAT
  1
GRIDFORMAT_BEGIN
 90
        0
 91
        1
 62
     0
 92
       -2
340
0
 93
        0
 40
1.125
309
GRIDFORMAT_END
 95
        8
302
GRIDFORMAT
  1
GRIDFORMAT_BEGIN
 90
        0
 91
        1
 62
     0
 92
       -2
340
0
 93
        0
 40
1.125
309
GRIDFORMAT_END
 95
       16
302
GRIDFORMAT
  1
GRIDFORMAT_BEGIN
 90
        0
 91
        1
 62
     0
 92
       -2
340
0
 93
        0
 40
1.125
309
GRIDFORMAT_END
 95
       32
302
GRIDFORMAT
  1
GRIDFORMAT_BEGIN
 90
        0
 91
        1
 62
     0
 92
       -2
340
0
 93
        0
 40
1.125
309
GRIDFORMAT_END
309
TABLEFORMAT_END
  1
CELLSTYLE_BEGIN
 90
        3
 91
        2
300
_DATA
309
CELLSTYLE_END
  0
XRECORD
  5
306C
102
{ACAD_REACTORS
330
302D
102
}
330
302D
100
AcDbXrecord
280
     1
102
ACAD_ROUNDTRIP_PRE2007_TABLESTYLE
 90
      512
 91
        0
  1

 92
      512
 93
        0
  2

 94
      512
 95
        0
  3

  0
XRECORD
  5
3047
102
{ACAD_REACTORS
330
3046
102
}
330
3046
100
AcDbXrecord
280
     1
102
RTVSPropertyOp0
 70
     1
102
RTVSPropertyOp1
 70
     1
102
RTVSPropertyOp2
 70
     1
102
RTVSPropertyOp3
 70
     1
102
RTVSPropertyOp4
 70
     1
102
RTVSPropertyOp5
 70
     1
102
RTVSPropertyOp6
 70
     1
102
RTVSPropertyOp7
 70
     1
102
RTVSPropertyOp8
 70
     1
102
RTVSPropertyOp9
 70
     1
102
RTVSPropertyOp10
 70
     1
102
RTVSPropertyOp11
 70
     1
102
RTVSPropertyOp12
 70
     1
102
RTVSPropertyOp13
 70
     1
102
RTVSPropertyOp14
 70
     1
102
RTVSPropertyOp15
 70
     1
102
RTVSPropertyOp16
 70
     1
102
RTVSPropertyOp17
 70
     1
102
RTVSPropertyOp18
 70
     1
102
RTVSPropertyOp19
 70
     1
102
RTVSPropertyOp20
 70
     1
102
RTVSPropertyOp21
 70
     1
102
RTVSPropertyOp22
 70
     1
102
RTVSPropertyOp23
 70
     1
102
RTVSPropertyOp24
 70
     1
102
RTVSPropertyOp25
 70
     1
102
RTVSPropertyOp26
 70
     1
102
RTVSPropertyOp27
 70
     1
102
RTVSPropertyOp28
 70
     1
102
RTVSPropertyOp29
 70
     1
102
RTVSPropertyOp30
 70
     1
102
RTVSPropertyOp31
 70
     1
102
RTVSPropertyOp32
 70
     1
  0
XRECORD
  5
3045
102
{ACAD_REACTORS
330
3044
102
}
330
3044
100
AcDbXrecord
280
     1
102
RTVSPropertyOp0
 70
     1
102
RTVSPropertyOp1
 70
     1
102
RTVSPropertyOp2
 70
     1
102
RTVSPropertyOp3
 70
     1
102
RTVSPropertyOp4
 70
     1
102
RTVSPropertyOp5
 70
     1
102
RTVSPropertyOp6
 70
     1
102
RTVSPropertyOp7
 70
     1
102
RTVSPropertyOp8
 70
     1
102
RTVSPropertyOp9
 70
     1
102
RTVSPropertyOp10
 70
     1
102
RTVSPropertyOp11
 70
     1
102
RTVSPropertyOp12
 70
     1
102
RTVSPropertyOp13
 70
     1
102
RTVSPropertyOp14
 70
     1
102
RTVSPropertyOp15
 70
     1
102
RTVSPropertyOp16
 70
     1
102
RTVSPropertyOp17
 70
     1
102
RTVSPropertyOp18
 70
     1
102
RTVSPropertyOp19
 70
     1
102
RTVSPropertyOp20
 70
     1
102
RTVSPropertyOp21
 70
     1
102
RTVSPropertyOp22
 70
     1
102
RTVSPropertyOp23
 70
     1
102
RTVSPropertyOp24
 70
     1
102
RTVSPropertyOp25
 70
     1
102
RTVSPropertyOp26
 70
     1
102
RTVSPropertyOp27
 70
     1
102
RTVSPropertyOp28
 70
     1
102
RTVSPropertyOp29
 70
     1
102
RTVSPropertyOp30
 70
     1
102
RTVSPropertyOp31
 70
     1
102
RTVSPropertyOp32
 70
     1
  0
XRECORD
  5
3053
102
{ACAD_REACTORS
330
3052
102
}
330
3052
100
AcDbXrecord
280
     1
102
RTVSPropertyOp0
 70
     1
102
RTVSPropertyOp1
 70
     1
102
RTVSPropertyOp2
 70
     1
102
RTVSPropertyOp3
 70
     1
102
RTVSPropertyOp4
 70
     1
102
RTVSPropertyOp5
 70
     1
102
RTVSPropertyOp6
 70
     1
102
RTVSPropertyOp7
 70
     1
102
RTVSPropertyOp8
 70
     1
102
RTVSPropertyOp9
 70
     1
102
RTVSPropertyOp10
 70
     1
102
RTVSPropertyOp11
 70
     1
102
RTVSPropertyOp12
 70
     1
102
RTVSPropertyOp13
 70
     1
102
RTVSPropertyOp14
 70
     1
102
RTVSPropertyOp15
 70
     1
102
RTVSPropertyOp16
 70
     1
102
RTVSPropertyOp17
 70
     1
102
RTVSPropertyOp18
 70
     1
102
RTVSPropertyOp19
 70
     1
102
RTVSPropertyOp20
 70
     1
102
RTVSPropertyOp21
 70
     1
102
RTVSPropertyOp22
 70
     1
102
RTVSPropertyOp23
 70
     1
102
RTVSPropertyOp24
 70
     1
102
RTVSPropertyOp25
 70
     1
102
RTVSPropertyOp26
 70
     1
102
RTVSPropertyOp27
 70
     1
102
RTVSPropertyOp28
 70
     1
102
RTVSPropertyOp29
 70
     1
102
RTVSPropertyOp30
 70
     1
102
RTVSPropertyOp31
 70
     1
102
RTVSPropertyOp32
 70
     1
  0
XRECORD
  5
305B
102
{ACAD_REACTORS
330
305A
102
}
330
305A
100
AcDbXrecord
280
     1
102
RTVSPropertyOp0
 70
     1
102
RTVSPropertyOp1
 70
     1
102
RTVSPropertyOp2
 70
     1
102
RTVSPropertyOp3
 70
     1
102
RTVSPropertyOp4
 70
     1
102
RTVSPropertyOp5
 70
     1
102
RTVSPropertyOp6
 70
     1
102
RTVSPropertyOp7
 70
     1
102
RTVSPropertyOp8
 70
     1
102
RTVSPropertyOp9
 70
     1
102
RTVSPropertyOp10
 70
     1
102
RTVSPropertyOp11
 70
     1
102
RTVSPropertyOp12
 70
     1
102
RTVSPropertyOp13
 70
     1
102
RTVSPropertyOp14
 70
     1
102
RTVSPropertyOp15
 70
     1
102
RTVSPropertyOp16
 70
     1
102
RTVSPropertyOp17
 70
     1
102
RTVSPropertyOp18
 70
     1
102
RTVSPropertyOp19
 70
     1
102
RTVSPropertyOp20
 70
     1
102
RTVSPropertyOp21
 70
     1
102
RTVSPropertyOp22
 70
     1
102
RTVSPropertyOp23
 70
     1
102
RTVSPropertyOp24
 70
     1
102
RTVSPropertyOp25
 70
     1
102
RTVSPropertyOp26
 70
     1
102
RTVSPropertyOp27
 70
     1
102
RTVSPropertyOp28
 70
     1
102
RTVSPropertyOp29
 70
     1
102
RTVSPropertyOp30
 70
     1
102
RTVSPropertyOp31
 70
     1
102
RTVSPropertyOp32
 70
     1
  0
XRECORD
  5
304D
102
{ACAD_REACTORS
330
304C
102
}
330
304C
100
AcDbXrecord
280
     1
102
RTVSPropertyOp0
 70
     1
102
RTVSPropertyOp1
 70
     1
102
RTVSPropertyOp2
 70
     1
102
RTVSPropertyOp3
 70
     1
102
RTVSPropertyOp4
 70
     1
102
RTVSPropertyOp5
 70
     1
102
RTVSPropertyOp6
 70
     1
102
RTVSPropertyOp7
 70
     1
102
RTVSPropertyOp8
 70
     1
102
RTVSPropertyOp9
 70
     1
102
RTVSPropertyOp10
 70
     1
102
RTVSPropertyOp11
 70
     1
102
RTVSPropertyOp12
 70
     1
102
RTVSPropertyOp13
 70
     1
102
RTVSPropertyOp14
 70
     1
102
RTVSPropertyOp15
 70
     1
102
RTVSPropertyOp16
 70
     1
102
RTVSPropertyOp17
 70
     1
102
RTVSPropertyOp18
 70
     1
102
RTVSPropertyOp19
 70
     1
102
RTVSPropertyOp20
 70
     1
102
RTVSPropertyOp21
 70
     1
102
RTVSPropertyOp22
 70
     1
102
RTVSPropertyOp23
 70
     1
102
RTVSPropertyOp24
 70
     1
102
RTVSPropertyOp25
 70
     1
102
RTVSPropertyOp26
 70
     1
102
RTVSPropertyOp27
 70
     1
102
RTVSPropertyOp28
 70
     1
102
RTVSPropertyOp29
 70
     1
102
RTVSPropertyOp30
 70
     1
102
RTVSPropertyOp31
 70
     1
102
RTVSPropertyOp32
 70
     1
  0
XRECORD
  5
3051
102
{ACAD_REACTORS
330
3050
102
}
330
3050
100
AcDbXrecord
280
     1
102
RTVSPropertyOp0
 70
     1
102
RTVSPropertyOp1
 70
     1
102
RTVSPropertyOp2
 70
     1
102
RTVSPropertyOp3
 70
     1
102
RTVSPropertyOp4
 70
     1
102
RTVSPropertyOp5
 70
     1
102
RTVSPropertyOp6
 70
     1
102
RTVSPropertyOp7
 70
     1
102
RTVSPropertyOp8
 70
     1
102
RTVSPropertyOp9
 70
     1
102
RTVSPropertyOp10
 70
     1
102
RTVSPropertyOp11
 70
     1
102
RTVSPropertyOp12
 70
     1
102
RTVSPropertyOp13
 70
     1
102
RTVSPropertyOp14
 70
     1
102
RTVSPropertyOp15
 70
     1
102
RTVSPropertyOp16
 70
     1
102
RTVSPropertyOp17
 70
     1
102
RTVSPropertyOp18
 70
     1
102
RTVSPropertyOp19
 70
     1
102
RTVSPropertyOp20
 70
     1
102
RTVSPropertyOp21
 70
     1
102
RTVSPropertyOp22
 70
     1
102
RTVSPropertyOp23
 70
     1
102
RTVSPropertyOp24
 70
     1
102
RTVSPropertyOp25
 70
     1
102
RTVSPropertyOp26
 70
     1
102
RTVSPropertyOp27
 70
     1
102
RTVSPropertyOp28
 70
     1
102
RTVSPropertyOp29
 70
     1
102
RTVSPropertyOp30
 70
     1
102
RTVSPropertyOp31
 70
     1
102
RTVSPropertyOp32
 70
     1
  0
XRECORD
  5
306B
102
{ACAD_REACTORS
330
306A
102
}
330
306A
100
AcDbXrecord
280
     1
102
RTVSPropertyOp0
 70
     0
102
RTVSPropertyOp1
 70
     0
102
RTVSPropertyOp2
 70
     0
102
RTVSPropertyOp3
 70
     0
102
RTVSPropertyOp4
 70
     0
102
RTVSPropertyOp5
 70
     0
102
RTVSPropertyOp6
 70
     0
102
RTVSPropertyOp7
 70
     0
102
RTVSPropertyOp8
 70
     0
102
RTVSPropertyOp9
 70
     0
102
RTVSPropertyOp10
 70
     0
102
RTVSPropertyOp11
 70
     0
102
RTVSPropertyOp12
 70
     0
102
RTVSPropertyOp13
 70
     0
102
RTVSPropertyOp14
 70
     2
102
RTVSPropertyOp15
 70
     0
102
RTVSPropertyOp16
 70
     0
102
RTVSPropertyOp17
 70
     0
102
RTVSPropertyOp18
 70
     0
102
RTVSPropertyOp19
 70
     0
102
RTVSPropertyOp20
 70
     0
102
RTVSPropertyOp21
 70
     0
102
RTVSPropertyOp22
 70
     0
102
RTVSPropertyOp23
 70
     0
102
RTVSPropertyOp24
 70
     0
102
RTVSPropertyOp25
 70
     0
102
RTVSPropertyOp26
 70
     0
102
RTVSPropertyOp27
 70
     0
102
RTVSPropertyOp28
 70
     0
102
RTVSPropertyOp29
 70
     0
102
RTVSPropertyOp30
 70
     0
102
RTVSPropertyOp31
 70
     0
102
RTVSPropertyOp32
 70
     0
  0
XRECORD
  5
3059
102
{ACAD_REACTORS
330
3058
102
}
330
3058
100
AcDbXrecord
280
     1
102
RTVSPropertyOp0
 70
     1
102
RTVSPropertyOp1
 70
     1
102
RTVSPropertyOp2
 70
     1
102
RTVSPropertyOp3
 70
     1
102
RTVSPropertyOp4
 70
     1
102
RTVSPropertyOp5
 70
     1
102
RTVSPropertyOp6
 70
     1
102
RTVSPropertyOp7
 70
     1
102
RTVSPropertyOp8
 70
     1
102
RTVSPropertyOp9
 70
     1
102
RTVSPropertyOp10
 70
     1
102
RTVSPropertyOp11
 70
     1
102
RTVSPropertyOp12
 70
     1
102
RTVSPropertyOp13
 70
     1
102
RTVSPropertyOp14
 70
     1
102
RTVSPropertyOp15
 70
     1
102
RTVSPropertyOp16
 70
     1
102
RTVSPropertyOp17
 70
     1
102
RTVSPropertyOp18
 70
     1
102
RTVSPropertyOp19
 70
     1
102
RTVSPropertyOp20
 70
     1
102
RTVSPropertyOp21
 70
     1
102
RTVSPropertyOp22
 70
     1
102
RTVSPropertyOp23
 70
     1
102
RTVSPropertyOp24
 70
     1
102
RTVSPropertyOp25
 70
     1
102
RTVSPropertyOp26
 70
     1
102
RTVSPropertyOp27
 70
     1
102
RTVSPropertyOp28
 70
     1
102
RTVSPropertyOp29
 70
     1
102
RTVSPropertyOp30
 70
     1
102
RTVSPropertyOp31
 70
     1
102
RTVSPropertyOp32
 70
     1
  0
XRECORD
  5
303D
102
{ACAD_REACTORS
330
303C
102
}
330
303C
100
AcDbXrecord
280
     1
102
RTVSPropertyOp0
 70
     1
102
RTVSPropertyOp1
 70
     1
102
RTVSPropertyOp2
 70
     1
102
RTVSPropertyOp3
 70
     1
102
RTVSPropertyOp4
 70
     1
102
RTVSPropertyOp5
 70
     1
102
RTVSPropertyOp6
 70
     1
102
RTVSPropertyOp7
 70
     1
102
RTVSPropertyOp8
 70
     1
102
RTVSPropertyOp9
 70
     1
102
RTVSPropertyOp10
 70
     1
102
RTVSPropertyOp11
 70
     1
102
RTVSPropertyOp12
 70
     1
102
RTVSPropertyOp13
 70
     1
102
RTVSPropertyOp14
 70
     1
102
RTVSPropertyOp15
 70
     1
102
RTVSPropertyOp16
 70
     1
102
RTVSPropertyOp17
 70
     1
102
RTVSPropertyOp18
 70
     1
102
RTVSPropertyOp19
 70
     1
102
RTVSPropertyOp20
 70
     1
102
RTVSPropertyOp21
 70
     1
102
RTVSPropertyOp22
 70
     1
102
RTVSPropertyOp23
 70
     1
102
RTVSPropertyOp24
 70
     1
102
RTVSPropertyOp25
 70
     1
102
RTVSPropertyOp26
 70
     1
102
RTVSPropertyOp27
 70
     1
102
RTVSPropertyOp28
 70
     1
102
RTVSPropertyOp29
 70
     1
102
RTVSPropertyOp30
 70
     1
102
RTVSPropertyOp31
 70
     1
102
RTVSPropertyOp32
 70
     1
  0
XRECORD
  5
303F
102
{ACAD_REACTORS
330
303E
102
}
330
303E
100
AcDbXrecord
280
     1
102
RTVSPropertyOp0
 70
     1
102
RTVSPropertyOp1
 70
     1
102
RTVSPropertyOp2
 70
     1
102
RTVSPropertyOp3
 70
     1
102
RTVSPropertyOp4
 70
     1
102
RTVSPropertyOp5
 70
     1
102
RTVSPropertyOp6
 70
     1
102
RTVSPropertyOp7
 70
     1
102
RTVSPropertyOp8
 70
     1
102
RTVSPropertyOp9
 70
     1
102
RTVSPropertyOp10
 70
     1
102
RTVSPropertyOp11
 70
     1
102
RTVSPropertyOp12
 70
     1
102
RTVSPropertyOp13
 70
     1
102
RTVSPropertyOp14
 70
     1
102
RTVSPropertyOp15
 70
     1
102
RTVSPropertyOp16
 70
     1
102
RTVSPropertyOp17
 70
     1
102
RTVSPropertyOp18
 70
     1
102
RTVSPropertyOp19
 70
     1
102
RTVSPropertyOp20
 70
     1
102
RTVSPropertyOp21
 70
     1
102
RTVSPropertyOp22
 70
     1
102
RTVSPropertyOp23
 70
     1
102
RTVSPropertyOp24
 70
     1
102
RTVSPropertyOp25
 70
     1
102
RTVSPropertyOp26
 70
     1
102
RTVSPropertyOp27
 70
     1
102
RTVSPropertyOp28
 70
     1
102
RTVSPropertyOp29
 70
     1
102
RTVSPropertyOp30
 70
     1
102
RTVSPropertyOp31
 70
     1
102
RTVSPropertyOp32
 70
     1
  0
XRECORD
  5
3041
102
{ACAD_REACTORS
330
3040
102
}
330
3040
100
AcDbXrecord
280
     1
102
RTVSPropertyOp0
 70
     1
102
RTVSPropertyOp1
 70
     1
102
RTVSPropertyOp2
 70
     1
102
RTVSPropertyOp3
 70
     1
102
RTVSPropertyOp4
 70
     1
102
RTVSPropertyOp5
 70
     1
102
RTVSPropertyOp6
 70
     1
102
RTVSPropertyOp7
 70
     1
102
RTVSPropertyOp8
 70
     1
102
RTVSPropertyOp9
 70
     1
102
RTVSPropertyOp10
 70
     1
102
RTVSPropertyOp11
 70
     1
102
RTVSPropertyOp12
 70
     1
102
RTVSPropertyOp13
 70
     1
102
RTVSPropertyOp14
 70
     1
102
RTVSPropertyOp15
 70
     1
102
RTVSPropertyOp16
 70
     1
102
RTVSPropertyOp17
 70
     1
102
RTVSPropertyOp18
 70
     1
102
RTVSPropertyOp19
 70
     1
102
RTVSPropertyOp20
 70
     1
102
RTVSPropertyOp21
 70
     1
102
RTVSPropertyOp22
 70
     1
102
RTVSPropertyOp23
 70
     1
102
RTVSPropertyOp24
 70
     1
102
RTVSPropertyOp25
 70
     1
102
RTVSPropertyOp26
 70
     1
102
RTVSPropertyOp27
 70
     1
102
RTVSPropertyOp28
 70
     1
102
RTVSPropertyOp29
 70
     1
102
RTVSPropertyOp30
 70
     1
102
RTVSPropertyOp31
 70
     1
102
RTVSPropertyOp32
 70
     1
  0
XRECORD
  5
3043
102
{ACAD_REACTORS
330
3042
102
}
330
3042
100
AcDbXrecord
280
     1
102
RTVSPropertyOp0
 70
     1
102
RTVSPropertyOp1
 70
     1
102
RTVSPropertyOp2
 70
     1
102
RTVSPropertyOp3
 70
     1
102
RTVSPropertyOp4
 70
     1
102
RTVSPropertyOp5
 70
     1
102
RTVSPropertyOp6
 70
     1
102
RTVSPropertyOp7
 70
     1
102
RTVSPropertyOp8
 70
     1
102
RTVSPropertyOp9
 70
     1
102
RTVSPropertyOp10
 70
     1
102
RTVSPropertyOp11
 70
     1
102
RTVSPropertyOp12
 70
     1
102
RTVSPropertyOp13
 70
     1
102
RTVSPropertyOp14
 70
     1
102
RTVSPropertyOp15
 70
     1
102
RTVSPropertyOp16
 70
     1
102
RTVSPropertyOp17
 70
     1
102
RTVSPropertyOp18
 70
     1
102
RTVSPropertyOp19
 70
     1
102
RTVSPropertyOp20
 70
     1
102
RTVSPropertyOp21
 70
     1
102
RTVSPropertyOp22
 70
     1
102
RTVSPropertyOp23
 70
     1
102
RTVSPropertyOp24
 70
     1
102
RTVSPropertyOp25
 70
     1
102
RTVSPropertyOp26
 70
     1
102
RTVSPropertyOp27
 70
     1
102
RTVSPropertyOp28
 70
     1
102
RTVSPropertyOp29
 70
     1
102
RTVSPropertyOp30
 70
     1
102
RTVSPropertyOp31
 70
     1
102
RTVSPropertyOp32
 70
     1
  0
XRECORD
  5
304B
102
{ACAD_REACTORS
330
304A
102
}
330
304A
100
AcDbXrecord
280
     1
102
RTVSPropertyOp0
 70
     1
102
RTVSPropertyOp1
 70
     1
102
RTVSPropertyOp2
 70
     1
102
RTVSPropertyOp3
 70
     1
102
RTVSPropertyOp4
 70
     1
102
RTVSPropertyOp5
 70
     1
102
RTVSPropertyOp6
 70
     1
102
RTVSPropertyOp7
 70
     1
102
RTVSPropertyOp8
 70
     1
102
RTVSPropertyOp9
 70
     1
102
RTVSPropertyOp10
 70
     1
102
RTVSPropertyOp11
 70
     1
102
RTVSPropertyOp12
 70
     1
102
RTVSPropertyOp13
 70
     1
102
RTVSPropertyOp14
 70
     1
102
RTVSPropertyOp15
 70
     1
102
RTVSPropertyOp16
 70
     1
102
RTVSPropertyOp17
 70
     1
102
RTVSPropertyOp18
 70
     1
102
RTVSPropertyOp19
 70
     1
102
RTVSPropertyOp20
 70
     1
102
RTVSPropertyOp21
 70
     1
102
RTVSPropertyOp22
 70
     1
102
RTVSPropertyOp23
 70
     1
102
RTVSPropertyOp24
 70
     1
102
RTVSPropertyOp25
 70
     1
102
RTVSPropertyOp26
 70
     1
102
RTVSPropertyOp27
 70
     1
102
RTVSPropertyOp28
 70
     1
102
RTVSPropertyOp29
 70
     1
102
RTVSPropertyOp30
 70
     1
102
RTVSPropertyOp31
 70
     1
102
RTVSPropertyOp32
 70
     1
  0
XRECORD
  5
3067
102
{ACAD_REACTORS
330
3066
102
}
330
3066
100
AcDbXrecord
280
     1
102
RTVSPropertyOp0
 70
     0
102
RTVSPropertyOp1
 70
     0
102
RTVSPropertyOp2
 70
     0
102
RTVSPropertyOp3
 70
     0
102
RTVSPropertyOp4
 70
     0
102
RTVSPropertyOp5
 70
     0
102
RTVSPropertyOp6
 70
     0
102
RTVSPropertyOp7
 70
     0
102
RTVSPropertyOp8
 70
     0
102
RTVSPropertyOp9
 70
     0
102
RTVSPropertyOp10
 70
     0
102
RTVSPropertyOp11
 70
     0
102
RTVSPropertyOp12
 70
     0
102
RTVSPropertyOp13
 70
     0
102
RTVSPropertyOp14
 70
     2
102
RTVSPropertyOp15
 70
     0
102
RTVSPropertyOp16
 70
     0
102
RTVSPropertyOp17
 70
     0
102
RTVSPropertyOp18
 70
     0
102
RTVSPropertyOp19
 70
     0
102
RTVSPropertyOp20
 70
     0
102
RTVSPropertyOp21
 70
     0
102
RTVSPropertyOp22
 70
     0
102
RTVSPropertyOp23
 70
     0
102
RTVSPropertyOp24
 70
     0
102
RTVSPropertyOp25
 70
     0
102
RTVSPropertyOp26
 70
     0
102
RTVSPropertyOp27
 70
     0
102
RTVSPropertyOp28
 70
     0
102
RTVSPropertyOp29
 70
     0
102
RTVSPropertyOp30
 70
     0
102
RTVSPropertyOp31
 70
     0
102
RTVSPropertyOp32
 70
     0
  0
XRECORD
  5
3057
102
{ACAD_REACTORS
330
3056
102
}
330
3056
100
AcDbXrecord
280
     1
102
RTVSPropertyOp0
 70
     1
102
RTVSPropertyOp1
 70
     1
102
RTVSPropertyOp2
 70
     1
102
RTVSPropertyOp3
 70
     1
102
RTVSPropertyOp4
 70
     1
102
RTVSPropertyOp5
 70
     1
102
RTVSPropertyOp6
 70
     1
102
RTVSPropertyOp7
 70
     1
102
RTVSPropertyOp8
 70
     1
102
RTVSPropertyOp9
 70
     1
102
RTVSPropertyOp10
 70
     1
102
RTVSPropertyOp11
 70
     1
102
RTVSPropertyOp12
 70
     1
102
RTVSPropertyOp13
 70
     1
102
RTVSPropertyOp14
 70
     1
102
RTVSPropertyOp15
 70
     1
102
RTVSPropertyOp16
 70
     1
102
RTVSPropertyOp17
 70
     1
102
RTVSPropertyOp18
 70
     1
102
RTVSPropertyOp19
 70
     1
102
RTVSPropertyOp20
 70
     1
102
RTVSPropertyOp21
 70
     1
102
RTVSPropertyOp22
 70
     1
102
RTVSPropertyOp23
 70
     1
102
RTVSPropertyOp24
 70
     1
102
RTVSPropertyOp25
 70
     1
102
RTVSPropertyOp26
 70
     1
102
RTVSPropertyOp27
 70
     1
102
RTVSPropertyOp28
 70
     1
102
RTVSPropertyOp29
 70
     1
102
RTVSPropertyOp30
 70
     1
102
RTVSPropertyOp31
 70
     1
102
RTVSPropertyOp32
 70
     1
  0
XRECORD
  5
3069
102
{ACAD_REACTORS
330
3068
102
}
330
3068
100
AcDbXrecord
280
     1
102
RTVSPropertyOp0
 70
     0
102
RTVSPropertyOp1
 70
     0
102
RTVSPropertyOp2
 70
     0
102
RTVSPropertyOp3
 70
     0
102
RTVSPropertyOp4
 70
     0
102
RTVSPropertyOp5
 70
     0
102
RTVSPropertyOp6
 70
     0
102
RTVSPropertyOp7
 70
     0
102
RTVSPropertyOp8
 70
     0
102
RTVSPropertyOp9
 70
     0
102
RTVSPropertyOp10
 70
     0
102
RTVSPropertyOp11
 70
     0
102
RTVSPropertyOp12
 70
     0
102
RTVSPropertyOp13
 70
     0
102
RTVSPropertyOp14
 70
     2
102
RTVSPropertyOp15
 70
     0
102
RTVSPropertyOp16
 70
     0
102
RTVSPropertyOp17
 70
     0
102
RTVSPropertyOp18
 70
     0
102
RTVSPropertyOp19
 70
     0
102
RTVSPropertyOp20
 70
     0
102
RTVSPropertyOp21
 70
     0
102
RTVSPropertyOp22
 70
     0
102
RTVSPropertyOp23
 70
     0
102
RTVSPropertyOp24
 70
     0
102
RTVSPropertyOp25
 70
     0
102
RTVSPropertyOp26
 70
     0
102
RTVSPropertyOp27
 70
     0
102
RTVSPropertyOp28
 70
     0
102
RTVSPropertyOp29
 70
     0
102
RTVSPropertyOp30
 70
     0
102
RTVSPropertyOp31
 70
     0
102
RTVSPropertyOp32
 70
     0
  0
XRECORD
  5
304F
102
{ACAD_REACTORS
330
304E
102
}
330
304E
100
AcDbXrecord
280
     1
102
RTVSPropertyOp0
 70
     1
102
RTVSPropertyOp1
 70
     1
102
RTVSPropertyOp2
 70
     1
102
RTVSPropertyOp3
 70
     1
102
RTVSPropertyOp4
 70
     1
102
RTVSPropertyOp5
 70
     1
102
RTVSPropertyOp6
 70
     1
102
RTVSPropertyOp7
 70
     1
102
RTVSPropertyOp8
 70
     1
102
RTVSPropertyOp9
 70
     1
102
RTVSPropertyOp10
 70
     1
102
RTVSPropertyOp11
 70
     1
102
RTVSPropertyOp12
 70
     1
102
RTVSPropertyOp13
 70
     1
102
RTVSPropertyOp14
 70
     1
102
RTVSPropertyOp15
 70
     1
102
RTVSPropertyOp16
 70
     1
102
RTVSPropertyOp17
 70
     1
102
RTVSPropertyOp18
 70
     1
102
RTVSPropertyOp19
 70
     1
102
RTVSPropertyOp20
 70
     1
102
RTVSPropertyOp21
 70
     1
102
RTVSPropertyOp22
 70
     1
102
RTVSPropertyOp23
 70
     1
102
RTVSPropertyOp24
 70
     1
102
RTVSPropertyOp25
 70
     1
102
RTVSPropertyOp26
 70
     1
102
RTVSPropertyOp27
 70
     1
102
RTVSPropertyOp28
 70
     1
102
RTVSPropertyOp29
 70
     1
102
RTVSPropertyOp30
 70
     1
102
RTVSPropertyOp31
 70
     1
102
RTVSPropertyOp32
 70
     1
  0
XRECORD
  5
3065
102
{ACAD_REACTORS
330
3064
102
}
330
3064
100
AcDbXrecord
280
     1
102
RTVSPropertyOp0
 70
     1
102
RTVSPropertyOp1
 70
     1
102
RTVSPropertyOp2
 70
     1
102
RTVSPropertyOp3
 70
     1
102
RTVSPropertyOp4
 70
     1
102
RTVSPropertyOp5
 70
     1
102
RTVSPropertyOp6
 70
     1
102
RTVSPropertyOp7
 70
     1
102
RTVSPropertyOp8
 70
     1
102
RTVSPropertyOp9
 70
     1
102
RTVSPropertyOp10
 70
     1
102
RTVSPropertyOp11
 70
     1
102
RTVSPropertyOp12
 70
     1
102
RTVSPropertyOp13
 70
     1
102
RTVSPropertyOp14
 70
     1
102
RTVSPropertyOp15
 70
     1
102
RTVSPropertyOp16
 70
     1
102
RTVSPropertyOp17
 70
     1
102
RTVSPropertyOp18
 70
     1
102
RTVSPropertyOp19
 70
     1
102
RTVSPropertyOp20
 70
     1
102
RTVSPropertyOp21
 70
     1
102
RTVSPropertyOp22
 70
     1
102
RTVSPropertyOp23
 70
     1
102
RTVSPropertyOp24
 70
     1
102
RTVSPropertyOp25
 70
     1
102
RTVSPropertyOp26
 70
     1
102
RTVSPropertyOp27
 70
     1
102
RTVSPropertyOp28
 70
     1
102
RTVSPropertyOp29
 70
     1
102
RTVSPropertyOp30
 70
     1
102
RTVSPropertyOp31
 70
     1
102
RTVSPropertyOp32
 70
     1
  0
XRECORD
  5
3063
102
{ACAD_REACTORS
330
3062
102
}
330
3062
100
AcDbXrecord
280
     1
102
RTVSPropertyOp0
 70
     1
102
RTVSPropertyOp1
 70
     1
102
RTVSPropertyOp2
 70
     1
102
RTVSPropertyOp3
 70
     1
102
RTVSPropertyOp4
 70
     1
102
RTVSPropertyOp5
 70
     1
102
RTVSPropertyOp6
 70
     1
102
RTVSPropertyOp7
 70
     1
102
RTVSPropertyOp8
 70
     1
102
RTVSPropertyOp9
 70
     1
102
RTVSPropertyOp10
 70
     1
102
RTVSPropertyOp11
 70
     1
102
RTVSPropertyOp12
 70
     1
102
RTVSPropertyOp13
 70
     1
102
RTVSPropertyOp14
 70
     1
102
RTVSPropertyOp15
 70
     1
102
RTVSPropertyOp16
 70
     1
102
RTVSPropertyOp17
 70
     1
102
RTVSPropertyOp18
 70
     1
102
RTVSPropertyOp19
 70
     1
102
RTVSPropertyOp20
 70
     1
102
RTVSPropertyOp21
 70
     1
102
RTVSPropertyOp22
 70
     1
102
RTVSPropertyOp23
 70
     1
102
RTVSPropertyOp24
 70
     1
102
RTVSPropertyOp25
 70
     1
102
RTVSPropertyOp26
 70
     1
102
RTVSPropertyOp27
 70
     1
102
RTVSPropertyOp28
 70
     1
102
RTVSPropertyOp29
 70
     1
102
RTVSPropertyOp30
 70
     1
102
RTVSPropertyOp31
 70
     1
102
RTVSPropertyOp32
 70
     1
  0
XRECORD
  5
305D
102
{ACAD_REACTORS
330
305C
102
}
330
305C
100
AcDbXrecord
280
     1
102
RTVSPropertyOp0
 70
     1
102
RTVSPropertyOp1
 70
     1
102
RTVSPropertyOp2
 70
     1
102
RTVSPropertyOp3
 70
     1
102
RTVSPropertyOp4
 70
     1
102
RTVSPropertyOp5
 70
     1
102
RTVSPropertyOp6
 70
     1
102
RTVSPropertyOp7
 70
     1
102
RTVSPropertyOp8
 70
     1
102
RTVSPropertyOp9
 70
     1
102
RTVSPropertyOp10
 70
     1
102
RTVSPropertyOp11
 70
     1
102
RTVSPropertyOp12
 70
     1
102
RTVSPropertyOp13
 70
     1
102
RTVSPropertyOp14
 70
     1
102
RTVSPropertyOp15
 70
     1
102
RTVSPropertyOp16
 70
     1
102
RTVSPropertyOp17
 70
     1
102
RTVSPropertyOp18
 70
     1
102
RTVSPropertyOp19
 70
     1
102
RTVSPropertyOp20
 70
     1
102
RTVSPropertyOp21
 70
     1
102
RTVSPropertyOp22
 70
     1
102
RTVSPropertyOp23
 70
     1
102
RTVSPropertyOp24
 70
     1
102
RTVSPropertyOp25
 70
     1
102
RTVSPropertyOp26
 70
     1
102
RTVSPropertyOp27
 70
     1
102
RTVSPropertyOp28
 70
     1
102
RTVSPropertyOp29
 70
     1
102
RTVSPropertyOp30
 70
     1
102
RTVSPropertyOp31
 70
     1
102
RTVSPropertyOp32
 70
     1
  0
XRECORD
  5
305F
102
{ACAD_REACTORS
330
305E
102
}
330
305E
100
AcDbXrecord
280
     1
102
RTVSPropertyOp0
 70
     1
102
RTVSPropertyOp1
 70
     1
102
RTVSPropertyOp2
 70
     1
102
RTVSPropertyOp3
 70
     1
102
RTVSPropertyOp4
 70
     1
102
RTVSPropertyOp5
 70
     1
102
RTVSPropertyOp6
 70
     1
102
RTVSPropertyOp7
 70
     1
102
RTVSPropertyOp8
 70
     1
102
RTVSPropertyOp9
 70
     1
102
RTVSPropertyOp10
 70
     1
102
RTVSPropertyOp11
 70
     1
102
RTVSPropertyOp12
 70
     1
102
RTVSPropertyOp13
 70
     1
102
RTVSPropertyOp14
 70
     1
102
RTVSPropertyOp15
 70
     1
102
RTVSPropertyOp16
 70
     1
102
RTVSPropertyOp17
 70
     1
102
RTVSPropertyOp18
 70
     1
102
RTVSPropertyOp19
 70
     1
102
RTVSPropertyOp20
 70
     1
102
RTVSPropertyOp21
 70
     1
102
RTVSPropertyOp22
 70
     1
102
RTVSPropertyOp23
 70
     1
102
RTVSPropertyOp24
 70
     1
102
RTVSPropertyOp25
 70
     1
102
RTVSPropertyOp26
 70
     1
102
RTVSPropertyOp27
 70
     1
102
RTVSPropertyOp28
 70
     1
102
RTVSPropertyOp29
 70
     1
102
RTVSPropertyOp30
 70
     1
102
RTVSPropertyOp31
 70
     1
102
RTVSPropertyOp32
 70
     1
  0
XRECORD
  5
3055
102
{ACAD_REACTORS
330
3054
102
}
330
3054
100
AcDbXrecord
280
     1
102
RTVSPropertyOp0
 70
     1
102
RTVSPropertyOp1
 70
     1
102
RTVSPropertyOp2
 70
     1
102
RTVSPropertyOp3
 70
     1
102
RTVSPropertyOp4
 70
     1
102
RTVSPropertyOp5
 70
     1
102
RTVSPropertyOp6
 70
     1
102
RTVSPropertyOp7
 70
     1
102
RTVSPropertyOp8
 70
     1
102
RTVSPropertyOp9
 70
     1
102
RTVSPropertyOp10
 70
     1
102
RTVSPropertyOp11
 70
     1
102
RTVSPropertyOp12
 70
     1
102
RTVSPropertyOp13
 70
     1
102
RTVSPropertyOp14
 70
     1
102
RTVSPropertyOp15
 70
     1
102
RTVSPropertyOp16
 70
     1
102
RTVSPropertyOp17
 70
     1
102
RTVSPropertyOp18
 70
     1
102
RTVSPropertyOp19
 70
     1
102
RTVSPropertyOp20
 70
     1
102
RTVSPropertyOp21
 70
     1
102
RTVSPropertyOp22
 70
     1
102
RTVSPropertyOp23
 70
     1
102
RTVSPropertyOp24
 70
     1
102
RTVSPropertyOp25
 70
     1
102
RTVSPropertyOp26
 70
     1
102
RTVSPropertyOp27
 70
     1
102
RTVSPropertyOp28
 70
     1
102
RTVSPropertyOp29
 70
     1
102
RTVSPropertyOp30
 70
     1
102
RTVSPropertyOp31
 70
     1
102
RTVSPropertyOp32
 70
     1
  0
XRECORD
  5
3049
102
{ACAD_REACTORS
330
3048
102
}
330
3048
100
AcDbXrecord
280
     1
102
RTVSPropertyOp0
 70
     1
102
RTVSPropertyOp1
 70
     1
102
RTVSPropertyOp2
 70
     1
102
RTVSPropertyOp3
 70
     1
102
RTVSPropertyOp4
 70
     1
102
RTVSPropertyOp5
 70
     1
102
RTVSPropertyOp6
 70
     1
102
RTVSPropertyOp7
 70
     1
102
RTVSPropertyOp8
 70
     1
102
RTVSPropertyOp9
 70
     1
102
RTVSPropertyOp10
 70
     1
102
RTVSPropertyOp11
 70
     1
102
RTVSPropertyOp12
 70
     1
102
RTVSPropertyOp13
 70
     1
102
RTVSPropertyOp14
 70
     1
102
RTVSPropertyOp15
 70
     1
102
RTVSPropertyOp16
 70
     1
102
RTVSPropertyOp17
 70
     1
102
RTVSPropertyOp18
 70
     1
102
RTVSPropertyOp19
 70
     1
102
RTVSPropertyOp20
 70
     1
102
RTVSPropertyOp21
 70
     1
102
RTVSPropertyOp22
 70
     1
102
RTVSPropertyOp23
 70
     1
102
RTVSPropertyOp24
 70
     1
102
RTVSPropertyOp25
 70
     1
102
RTVSPropertyOp26
 70
     1
102
RTVSPropertyOp27
 70
     1
102
RTVSPropertyOp28
 70
     1
102
RTVSPropertyOp29
 70
     1
102
RTVSPropertyOp30
 70
     1
102
RTVSPropertyOp31
 70
     1
102
RTVSPropertyOp32
 70
     1
  0
XRECORD
  5
3061
102
{ACAD_REACTORS
330
3060
102
}
330
3060
100
AcDbXrecord
280
     1
102
RTVSPropertyOp0
 70
     1
102
RTVSPropertyOp1
 70
     1
102
RTVSPropertyOp2
 70
     1
102
RTVSPropertyOp3
 70
     1
102
RTVSPropertyOp4
 70
     1
102
RTVSPropertyOp5
 70
     1
102
RTVSPropertyOp6
 70
     1
102
RTVSPropertyOp7
 70
     1
102
RTVSPropertyOp8
 70
     1
102
RTVSPropertyOp9
 70
     1
102
RTVSPropertyOp10
 70
     1
102
RTVSPropertyOp11
 70
     1
102
RTVSPropertyOp12
 70
     1
102
RTVSPropertyOp13
 70
     1
102
RTVSPropertyOp14
 70
     1
102
RTVSPropertyOp15
 70
     1
102
RTVSPropertyOp16
 70
     1
102
RTVSPropertyOp17
 70
     1
102
RTVSPropertyOp18
 70
     1
102
RTVSPropertyOp19
 70
     1
102
RTVSPropertyOp20
 70
     1
102
RTVSPropertyOp21
 70
     1
102
RTVSPropertyOp22
 70
     1
102
RTVSPropertyOp23
 70
     1
102
RTVSPropertyOp24
 70
     1
102
RTVSPropertyOp25
 70
     1
102
RTVSPropertyOp26
 70
     1
102
RTVSPropertyOp27
 70
     1
102
RTVSPropertyOp28
 70
     1
102
RTVSPropertyOp29
 70
     1
102
RTVSPropertyOp30
 70
     1
102
RTVSPropertyOp31
 70
     1
102
RTVSPropertyOp32
 70
     1
  0
ENDSEC
  0
EOF
