  0
SECTION
  2
HEADER
  9
$ACADVER
  1
AC1015
  9
$ACADMAINTVER
 70
    20
  9
$DWGCODEPAGE
  3
ANSI_932
  9
$INSBASE
 10
0.0
 20
0.0
 30
0.0
  9
$EXTMIN
 10
9.392833438133266
 20
4.286610282096035
 30
-0.0015258207003583
  9
$EXTMAX
 10
408.2144935652498
 20
280.0955356489177
 30
0.0000000349246037
  9
$LIMMIN
 10
0.0
 20
0.0
  9
$LIMMAX
 10
12.0
 20
9.0
  9
$ORTHOMODE
 70
     0
  9
$REGENMODE
 70
     1
  9
$FILLMODE
 70
     1
  9
$QTEXTMODE
 70
     0
  9
$MIRRTEXT
 70
     0
  9
$LTSCALE
 40
1.0
  9
$ATTMODE
 70
     1
  9
$TEXTSIZE
 40
0.2
  9
$TRACEWID
 40
0.05
  9
$TEXTSTYLE
  7
Standard
  9
$CLAYER
  8
0
  9
$CELTYPE
  6
ByLayer
  9
$CECOLOR
 62
   256
  9
$CELTSCALE
 40
1.0
  9
$DISPSILH
 70
     0
  9
$DIMSCALE
 40
1.0
  9
$DIMASZ
 40
0.18
  9
$DIMEXO
 40
0.0625
  9
$DIMDLI
 40
0.38
  9
$DIMRND
 40
0.0
  9
$DIMDLE
 40
0.0
  9
$DIMEXE
 40
0.18
  9
$DIMTP
 40
0.0
  9
$DIMTM
 40
0.0
  9
$DIMTXT
 40
0.18
  9
$DIMCEN
 40
0.09
  9
$DIMTSZ
 40
0.0
  9
$DIMTOL
 70
     0
  9
$DIMLIM
 70
     0
  9
$DIMTIH
 70
     1
  9
$DIMTOH
 70
     1
  9
$DIMSE1
 70
     0
  9
$DIMSE2
 70
     0
  9
$DIMTAD
 70
     0
  9
$DIMZIN
 70
     0
  9
$DIMBLK
  1

  9
$DIMASO
 70
     1
  9
$DIMSHO
 70
     1
  9
$DIMPOST
  1

  9
$DIMAPOST
  1

  9
$DIMALT
 70
     0
  9
$DIMALTD
 70
     2
  9
$DIMALTF
 40
25.4
  9
$DIMLFAC
 40
1.0
  9
$DIMTOFL
 70
     0
  9
$DIMTVP
 40
0.0
  9
$DIMTIX
 70
     0
  9
$DIMSOXD
 70
     0
  9
$DIMSAH
 70
     0
  9
$DIMBLK1
  1

  9
$DIMBLK2
  1

  9
$DIMSTYLE
  2
Standard
  9
$DIMCLRD
 70
     0
  9
$DIMCLRE
 70
     0
  9
$DIMCLRT
 70
     0
  9
$DIMTFAC
 40
1.0
  9
$DIMGAP
 40
0.09
  9
$DIMJUST
 70
     0
  9
$DIMSD1
 70
     0
  9
$DIMSD2
 70
     0
  9
$DIMTOLJ
 70
     1
  9
$DIMTZIN
 70
     0
  9
$DIMALTZ
 70
     0
  9
$DIMALTTZ
 70
     0
  9
$DIMUPT
 70
     0
  9
$DIMDEC
 70
     4
  9
$DIMTDEC
 70
     4
  9
$DIMALTU
 70
     2
  9
$DIMALTTD
 70
     2
  9
$DIMTXSTY
  7
Standard
  9
$DIMAUNIT
 70
     0
  9
$DIMADEC
 70
     0
  9
$DIMALTRND
 40
0.0
  9
$DIMAZIN
 70
     0
  9
$DIMDSEP
 70
    46
  9
$DIMATFIT
 70
     3
  9
$DIMFRAC
 70
     0
  9
$DIMLDRBLK
  1

  9
$DIMLUNIT
 70
     2
  9
$DIMLWD
 70
    -2
  9
$DIMLWE
 70
    -2
  9
$DIMTMOVE
 70
     0
  9
$LUNITS
 70
     2
  9
$LUPREC
 70
     4
  9
$SKETCHINC
 40
0.1
  9
$FILLETRAD
 40
0.0
  9
$AUNITS
 70
     0
  9
$AUPREC
 70
     0
  9
$MENU
  1
.
  9
$ELEVATION
 40
0.0
  9
$PELEVATION
 40
0.0
  9
$THICKNESS
 40
0.0
  9
$LIMCHECK
 70
     0
  9
$CHAMFERA
 40
0.0
  9
$CHAMFERB
 40
0.0
  9
$CHAMFERC
 40
0.0
  9
$CHAMFERD
 40
0.0
  9
$SKPOLY
 70
     0
  9
$TDCREATE
 40
2457927.472306516
  9
$TDUCREATE
 40
2457927.097306516
  9
$TDUPDATE
 40
2458964.428307211
  9
$TDUUPDATE
 40
2458964.053307211
  9
$TDINDWG
 40
0.0057321644
  9
$TDUSRTIMER
 40
0.0057321644
  9
$USRTIMER
 70
     1
  9
$ANGBASE
 50
0.0
  9
$ANGDIR
 70
     0
  9
$PDMODE
 70
     0
  9
$PDSIZE
 40
0.0
  9
$PLINEWID
 40
0.0
  9
$SPLFRAME
 70
     0
  9
$SPLINETYPE
 70
     6
  9
$SPLINESEGS
 70
     8
  9
$HANDSEED
  5
754
  9
$SURFTAB1
 70
     6
  9
$SURFTAB2
 70
     6
  9
$SURFTYPE
 70
     6
  9
$SURFU
 70
     6
  9
$SURFV
 70
     6
  9
$UCSBASE
  2

  9
$UCSNAME
  2

  9
$UCSORG
 10
0.0
 20
0.0
 30
0.0
  9
$UCSXDIR
 10
1.0
 20
0.0
 30
0.0
  9
$UCSYDIR
 10
0.0
 20
1.0
 30
0.0
  9
$UCSORTHOREF
  2

  9
$UCSORTHOVIEW
 70
     0
  9
$UCSORGTOP
 10
0.0
 20
0.0
 30
0.0
  9
$UCSORGBOTTOM
 10
0.0
 20
0.0
 30
0.0
  9
$UCSORGLEFT
 10
0.0
 20
0.0
 30
0.0
  9
$UCSORGRIGHT
 10
0.0
 20
0.0
 30
0.0
  9
$UCSORGFRONT
 10
0.0
 20
0.0
 30
0.0
  9
$UCSORGBACK
 10
0.0
 20
0.0
 30
0.0
  9
$PUCSBASE
  2

  9
$PUCSNAME
  2

  9
$PUCSORG
 10
0.0
 20
0.0
 30
0.0
  9
$PUCSXDIR
 10
1.0
 20
0.0
 30
0.0
  9
$PUCSYDIR
 10
0.0
 20
1.0
 30
0.0
  9
$PUCSORTHOREF
  2

  9
$PUCSORTHOVIEW
 70
     0
  9
$PUCSORGTOP
 10
0.0
 20
0.0
 30
0.0
  9
$PUCSORGBOTTOM
 10
0.0
 20
0.0
 30
0.0
  9
$PUCSORGLEFT
 10
0.0
 20
0.0
 30
0.0
  9
$PUCSORGRIGHT
 10
0.0
 20
0.0
 30
0.0
  9
$PUCSORGFRONT
 10
0.0
 20
0.0
 30
0.0
  9
$PUCSORGBACK
 10
0.0
 20
0.0
 30
0.0
  9
$USERI1
 70
     0
  9
$USERI2
 70
     0
  9
$USERI3
 70
     0
  9
$USERI4
 70
     0
  9
$USERI5
 70
     0
  9
$USERR1
 40
0.0
  9
$USERR2
 40
0.0
  9
$USERR3
 40
0.0
  9
$USERR4
 40
0.0
  9
$USERR5
 40
0.0
  9
$WORLDVIEW
 70
     1
  9
$SHADEDGE
 70
     3
  9
$SHADEDIF
 70
    70
  9
$TILEMODE
 70
     1
  9
$MAXACTVP
 70
    64
  9
$PINSBASE
 10
0.0
 20
0.0
 30
0.0
  9
$PLIMCHECK
 70
     0
  9
$PEXTMIN
 10
1.049636599258096
 20
0.7996597240971113
 30
-0.0000000000112498
  9
$PEXTMAX
 10
9.450362731076971
 20
7.200340082697458
 30
0.0000000000002956
  9
$PLIMMIN
 10
-0.2500002402958907
 20
-0.2499999962453767
  9
$PLIMMAX
 10
10.74999951940821
 20
8.249999763458731
  9
$UNITMODE
 70
     0
  9
$VISRETAIN
 70
     1
  9
$PLINEGEN
 70
     0
  9
$PSLTSCALE
 70
     1
  9
$TREEDEPTH
 70
  3020
  9
$CMLSTYLE
  2
Standard
  9
$CMLJUST
 70
     0
  9
$CMLSCALE
 40
1.0
  9
$PROXYGRAPHICS
 70
     1
  9
$MEASUREMENT
 70
     0
  9
$CELWEIGHT
370
    -1
  9
$ENDCAPS
280
     0
  9
$JOINSTYLE
280
     0
  9
$LWDISPLAY
290
     0
  9
$INSUNITS
 70
     1
  9
$HYPERLINKBASE
  1

  9
$STYLESHEET
  1
monochrome.stb
  9
$XEDIT
290
     1
  9
$CEPSNTYPE
380
     0
  9
$PSTYLEMODE
290
     0
  9
$FINGERPRINTGUID
  2
{35BD88C0-9548-11D2-9A29-0060089B3A3F}
  9
$VERSIONGUID
  2
{548FEA3C-3470-43A3-94B9-5FBE31B104EB}
  9
$EXTNAMES
290
     1
  9
$PSVPSCALE
 40
0.0
  9
$OLESTARTUP
290
     0
  0
ENDSEC
  0
SECTION
  2
CLASSES
  0
CLASS
  1
ACDBDICTIONARYWDFLT
  2
AcDbDictionaryWithDefault
  3
ObjectDBX Classes
 90
        0
280
     0
281
     0
  0
CLASS
  1
ACDBPLACEHOLDER
  2
AcDbPlaceHolder
  3
ObjectDBX Classes
 90
        0
280
     0
281
     0
  0
CLASS
  1
LAYOUT
  2
AcDbLayout
  3
ObjectDBX Classes
 90
        0
280
     0
281
     0
  0
CLASS
  1
DICTIONARYVAR
  2
AcDbDictionaryVar
  3
ObjectDBX Classes
 90
        0
280
     0
281
     0
  0
CLASS
  1
MATERIAL
  2
AcDbMaterial
  3
ObjectDBX Classes
 90
     1153
280
     0
281
     0
  0
CLASS
  1
VISUALSTYLE
  2
AcDbVisualStyle
  3
ObjectDBX Classes
 90
     4095
280
     0
281
     0
  0
CLASS
  1
TABLESTYLE
  2
AcDbTableStyle
  3
ObjectDBX Classes
 90
     4095
280
     0
281
     0
  0
CLASS
  1
SCALE
  2
AcDbScale
  3
ObjectDBX Classes
 90
     1153
280
     0
281
     0
  0
CLASS
  1
MLEADERSTYLE
  2
AcDbMLeaderStyle
  3
ACDB_MLEADERSTYLE_CLASS
 90
     4095
280
     0
281
     0
  0
CLASS
  1
CELLSTYLEMAP
  2
AcDbCellStyleMap
  3
ObjectDBX Classes
 90
     1152
280
     0
281
     0
  0
ENDSEC
  0
SECTION
  2
TABLES
  0
TABLE
  2
VPORT
  5
8
330
0
100
AcDbSymbolTable
 70
     1
  0
VPORT
  5
68B
330
8
100
AcDbSymbolTableRecord
100
AcDbViewportTableRecord
  2
*Active
 70
     0
 10
0.0
 20
0.0
 11
1.0
 21
1.0
 12
289.8275862815927
 22
243.0226716243832
 13
0.0
 23
0.0
 14
0.5
 24
0.5
 15
0.5
 25
0.5
 16
0.0
 26
0.0
 36
1.0
 17
0.0
 27
0.0
 37
0.0
 40
580.8727218942395
 41
1.578708946772366
 42
50.0
 43
0.0
 44
0.0
 50
0.0
 51
0.0
 71
     0
 72
  1000
 73
     1
 74
     3
 75
     0
 76
     0
 77
     0
 78
     0
281
     0
 65
     1
110
0.0
120
0.0
130
0.0
111
1.0
121
0.0
131
0.0
112
0.0
122
1.0
132
0.0
 79
     0
146
0.0
  0
ENDTAB
  0
TABLE
  2
LTYPE
  5
5
330
0
100
AcDbSymbolTable
 70
     2
  0
LTYPE
  5
14
330
5
100
AcDbSymbolTableRecord
100
AcDbLinetypeTableRecord
  2
ByBlock
 70
     0
  3

 72
    65
 73
     0
 40
0.0
  0
LTYPE
  5
15
330
5
100
AcDbSymbolTableRecord
100
AcDbLinetypeTableRecord
  2
ByLayer
 70
     0
  3

 72
    65
 73
     0
 40
0.0
  0
LTYPE
  5
16
330
5
100
AcDbSymbolTableRecord
100
AcDbLinetypeTableRecord
  2
Continuous
 70
     0
  3
Solid line
 72
    65
 73
     0
 40
0.0
  0
LTYPE
  5
2F1
330
5
100
AcDbSymbolTableRecord
100
AcDbLinetypeTableRecord
  2
CENTER
 70
     0
  3
Center ____ _ ____ _ ____ _ ____ _ ____ _ ____
 72
    65
 73
     4
 40
10.16
 49
6.349999999999999
 74
     0
 49
-1.27
 74
     0
 49
1.27
 74
     0
 49
-1.27
 74
     0
  0
ENDTAB
  0
TABLE
  2
LAYER
  5
2
102
{ACAD_XDICTIONARY
360
2FA
102
}
330
0
100
AcDbSymbolTable
 70
     7
  0
LAYER
  5
10
102
{ACAD_XDICTIONARY
360
6EB
102
}
330
2
100
AcDbSymbolTableRecord
100
AcDbLayerTableRecord
  2
0
 70
     0
 62
     7
  6
Continuous
370
    -3
390
F
  0
LAYER
  5
2F2
330
2
100
AcDbSymbolTableRecord
100
AcDbLayerTableRecord
  2
Defpoints
 70
     0
 62
     7
  6
Continuous
290
     0
370
    -3
390
F
  0
LAYER
  5
2F3
102
{ACAD_XDICTIONARY
360
6ED
102
}
330
2
100
AcDbSymbolTableRecord
100
AcDbLayerTableRecord
  2
ZUWAKU
 70
     0
 62
     7
  6
Continuous
370
    -3
390
F
  0
LAYER
  5
2F4
102
{ACAD_XDICTIONARY
360
6EF
102
}
330
2
100
AcDbSymbolTableRecord
100
AcDbLayerTableRecord
  2
SEIHIN
 70
     0
 62
     3
  6
Continuous
370
    -3
390
F
  0
LAYER
  5
2F5
102
{ACAD_XDICTIONARY
360
6F1
102
}
330
2
100
AcDbSymbolTableRecord
100
AcDbLayerTableRecord
  2
SUNPOU
 70
     0
 62
     4
  6
Continuous
370
    -3
390
F
  0
LAYER
  5
2F6
102
{ACAD_XDICTIONARY
360
6F3
102
}
330
2
100
AcDbSymbolTableRecord
100
AcDbLayerTableRecord
  2
CENTER L
 70
     0
 62
     1
  6
CENTER
370
    -3
390
F
  0
LAYER
  5
2F7
102
{ACAD_XDICTIONARY
360
6F5
102
}
330
2
100
AcDbSymbolTableRecord
100
AcDbLayerTableRecord
  2
MOJI
 70
     0
 62
     2
  6
Continuous
370
    -3
390
F
  0
ENDTAB
  0
TABLE
  2
STYLE
  5
3
330
0
100
AcDbSymbolTable
 70
     4
  0
STYLE
  5
11
330
3
100
AcDbSymbolTableRecord
100
AcDbTextStyleTableRecord
  2
Standard
 70
     0
 40
0.0
 41
1.0
 50
0.0
 71
     0
 42
0.2
  3
txt.shx
  4
bigfont.shx
  0
STYLE
  5
2F8
330
3
100
AcDbSymbolTableRecord
100
AcDbTextStyleTableRecord
  2
ｽﾀｲﾙ1
 70
     0
 40
0.0
 41
1.0
 50
0.0
 71
     0
 42
2.5
  3

  4

1001
ACAD
1000
MS PGothic
1071
    32818
  0
ENDTAB
  0
TABLE
  2
VIEW
  5
6
330
0
100
AcDbSymbolTable
 70
     0
  0
ENDTAB
  0
TABLE
  2
UCS
  5
7
330
0
100
AcDbSymbolTable
 70
     0
  0
ENDTAB
  0
TABLE
  2
APPID
  5
9
330
0
100
AcDbSymbolTable
 70
     2
  0
APPID
  5
12
330
9
100
AcDbSymbolTableRecord
100
AcDbRegAppTableRecord
  2
ACAD
 70
     0
  0
APPID
  5
753
330
9
100
AcDbSymbolTableRecord
100
AcDbRegAppTableRecord
  2
ACAD_MLEADERVER
 70
     0
  0
ENDTAB
  0
TABLE
  2
DIMSTYLE
  5
A
330
0
100
AcDbSymbolTable
 70
     4
100
AcDbDimStyleTable
 71
     1
340
27
  0
DIMSTYLE
105
27
330
A
100
AcDbSymbolTableRecord
100
AcDbDimStyleTableRecord
  2
Standard
 70
     0
340
11
  0
DIMSTYLE
105
2F9
102
{ACAD_REACTORS
330
46B
330
46C
330
46E
330
46F
330
470
330
471
330
472
330
47F
102
}
330
A
100
AcDbSymbolTableRecord
100
AcDbDimStyleTableRecord
  2
ISO-25
 70
     0
 41
2.5
 42
0.625
 43
3.75
 44
1.25
 73
     0
 74
     0
 77
     1
 78
     8
140
2.5
141
2.5
143
0.03937007874016
147
0.625
171
     3
172
     1
271
     2
272
     2
274
     3
278
    44
283
     0
284
     8
340
11
  0
ENDTAB
  0
TABLE
  2
BLOCK_RECORD
  5
1
330
0
100
AcDbSymbolTable
 70
    13
  0
BLOCK_RECORD
  5
1F
330
1
100
AcDbSymbolTableRecord
100
AcDbBlockTableRecord
  2
*Model_Space
340
22
  0
BLOCK_RECORD
  5
81
330
1
100
AcDbSymbolTableRecord
100
AcDbBlockTableRecord
  2
*Paper_Space
340
82
  0
BLOCK_RECORD
  5
7C
330
1
100
AcDbSymbolTableRecord
100
AcDbBlockTableRecord
  2
*Paper_Space0
340
7D
  0
BLOCK_RECORD
  5
F0
330
1
100
AcDbSymbolTableRecord
100
AcDbBlockTableRecord
  2
SW_CENTERMARKSYMBOL_0
340
0
102
{BLKREFS
331
4F0
102
}
  0
BLOCK_RECORD
  5
FB
330
1
100
AcDbSymbolTableRecord
100
AcDbBlockTableRecord
  2
*X2
340
0
102
{BLKREFS
331
5C7
102
}
  0
BLOCK_RECORD
  5
5D5
330
1
100
AcDbSymbolTableRecord
100
AcDbBlockTableRecord
  2
*D3
340
0
  0
BLOCK_RECORD
  5
5E1
330
1
100
AcDbSymbolTableRecord
100
AcDbBlockTableRecord
  2
*D4
340
0
  0
BLOCK_RECORD
  5
5ED
330
1
100
AcDbSymbolTableRecord
100
AcDbBlockTableRecord
  2
*D5
340
0
  0
BLOCK_RECORD
  5
5F9
330
1
100
AcDbSymbolTableRecord
100
AcDbBlockTableRecord
  2
*D6
340
0
  0
BLOCK_RECORD
  5
605
330
1
100
AcDbSymbolTableRecord
100
AcDbBlockTableRecord
  2
*D7
340
0
  0
BLOCK_RECORD
  5
611
330
1
100
AcDbSymbolTableRecord
100
AcDbBlockTableRecord
  2
*D8
340
0
  0
BLOCK_RECORD
  5
61D
330
1
100
AcDbSymbolTableRecord
100
AcDbBlockTableRecord
  2
*D9
340
0
  0
BLOCK_RECORD
  5
629
330
1
100
AcDbSymbolTableRecord
100
AcDbBlockTableRecord
  2
*D10
340
0
  0
ENDTAB
  0
ENDSEC
  0
SECTION
  2
BLOCKS
  0
BLOCK
  5
20
330
1F
100
AcDbEntity
  8
0
100
AcDbBlockBegin
  2
*Model_Space
 70
     0
 10
0.0
 20
0.0
 30
0.0
  3
*Model_Space
  1

  0
ENDBLK
  5
21
330
1F
100
AcDbEntity
  8
0
100
AcDbBlockEnd
  0
BLOCK
  5
83
330
81
100
AcDbEntity
 67
     1
  8
0
100
AcDbBlockBegin
  2
*Paper_Space
 70
     0
 10
0.0
 20
0.0
 30
0.0
  3
*Paper_Space
  1

  0
ENDBLK
  5
84
330
81
100
AcDbEntity
 67
     1
  8
0
100
AcDbBlockEnd
  0
BLOCK
  5
7E
330
7C
100
AcDbEntity
 67
     1
  8
0
100
AcDbBlockBegin
  2
*Paper_Space0
 70
     0
 10
0.0
 20
0.0
 30
0.0
  3
*Paper_Space0
  1

  0
VIEWPORT
  5
9F
102
{ACAD_XDICTIONARY
360
717
102
}
330
7C
100
AcDbEntity
 67
     1
  8
0
100
AcDbViewport
 10
5.249999665167533
 20
3.999999903397285
 30
0.0
 40
11.99452846121629
 41
6.47627894551295
 68
     0
 69
     0
 12
5.249999665167533
 22
3.999999903397285
 13
0.0
 23
0.0
 14
10.0
 24
10.0
 15
10.0
 25
10.0
 16
0.0
 26
0.0
 36
1.0
 17
0.0
 27
0.0
 37
0.0
 42
50.0
 43
0.0
 44
0.0
 45
6.47627894551295
 50
0.0
 51
0.0
 72
  1000
 90
    32864
  1

281
     0
 71
     1
 74
     0
110
0.0
120
0.0
130
0.0
111
1.0
121
0.0
131
0.0
112
0.0
122
1.0
132
0.0
 79
     0
146
0.0
  0
VIEWPORT
  5
A1
102
{ACAD_XDICTIONARY
360
719
102
}
330
7C
100
AcDbEntity
 67
     1
  8
0
100
AcDbViewport
 10
5.24999976158142
 20
3.99999976158142
 30
0.0
 40
8.399999618530271
 41
6.399999618530272
 68
     0
 69
     0
 12
6.0
 22
4.5
 13
0.0
 23
0.0
 14
0.5
 24
0.5
 15
0.5
 25
0.5
 16
0.0
 26
0.0
 36
1.0
 17
0.0
 27
0.0
 37
0.0
 42
50.0
 43
0.0
 44
0.0
 45
9.259079771746701
 50
0.0
 51
0.0
 72
   100
 90
    32864
  1

281
     0
 71
     1
 74
     0
110
0.0
120
0.0
130
0.0
111
1.0
121
0.0
131
0.0
112
0.0
122
1.0
132
0.0
 79
     0
146
0.0
  0
ENDBLK
  5
7F
330
7C
100
AcDbEntity
 67
     1
  8
0
100
AcDbBlockEnd
  0
BLOCK
  5
F1
330
F0
100
AcDbEntity
  8
0
100
AcDbBlockBegin
  2
SW_CENTERMARKSYMBOL_0
 70
     0
 10
0.0
 20
0.0
 30
0.0
  3
SW_CENTERMARKSYMBOL_0
  1

  0
LINE
  5
F2
330
F0
100
AcDbEntity
  8
0
  6
Continuous
 62
     0
370
     0
100
AcDbLine
 10
0.0
 20
0.0
 30
0.0
 11
0.0
 21
2.500000000000002
 31
0.0
  0
LINE
  5
F3
330
F0
100
AcDbEntity
  8
0
  6
Continuous
 62
     0
370
     0
100
AcDbLine
 10
0.0
 20
0.0
 30
0.0
 11
-2.499999999999946
 21
0.0
 31
0.0
  0
LINE
  5
F4
330
F0
100
AcDbEntity
  8
0
  6
Continuous
 62
     0
370
     0
100
AcDbLine
 10
0.0
 20
0.0
 30
0.0
 11
0.0
 21
-2.500000000000002
 31
0.0
  0
LINE
  5
F5
330
F0
100
AcDbEntity
  8
0
  6
Continuous
 62
     0
370
     0
100
AcDbLine
 10
0.0
 20
0.0
 30
0.0
 11
2.500000000000057
 21
0.0
 31
0.0
  0
LINE
  5
F6
330
F0
100
AcDbEntity
  8
0
  6
Continuous
 62
     0
370
     0
100
AcDbLine
 10
0.0
 20
5.000000000000004
 30
0.0
 11
0.0
 21
28.90000000000004
 31
0.0
  0
LINE
  5
F7
330
F0
100
AcDbEntity
  8
0
  6
Continuous
 62
     0
370
     0
100
AcDbLine
 10
-5.000000000000004
 20
0.0
 30
0.0
 11
-28.89999999999993
 21
0.0
 31
0.0
  0
LINE
  5
F8
330
F0
100
AcDbEntity
  8
0
  6
Continuous
 62
     0
370
     0
100
AcDbLine
 10
0.0
 20
-4.999999999999948
 30
0.0
 11
0.0
 21
-28.89999999999998
 31
0.0
  0
LINE
  5
F9
330
F0
100
AcDbEntity
  8
0
  6
Continuous
 62
     0
370
     0
100
AcDbLine
 10
5.000000000000004
 20
0.0
 30
0.0
 11
28.90000000000004
 21
0.0
 31
0.0
  0
ENDBLK
  5
FA
330
F0
100
AcDbEntity
  8
0
100
AcDbBlockEnd
  0
BLOCK
  5
FC
330
FB
100
AcDbEntity
  8
0
100
AcDbBlockBegin
  2
*X2
 70
     1
 10
0.0
 20
0.0
 30
0.0
  3
*X2
  1

  0
LINE
  5
FD
330
FB
100
AcDbEntity
  8
0
 62
     0
100
AcDbLine
 10
34.52110634279887
 20
11.30208408269516
 30
0.0
 11
34.19819087794136
 21
11.62499954755267
 31
0.0
  0
LINE
  5
FE
330
FB
100
AcDbEntity
  8
0
 62
     0
100
AcDbLine
 10
34.52110634279885
 20
10.85307127664168
 30
0.0
 11
33.74917807188789
 21
11.62499954755267
 31
0.0
  0
LINE
  5
FF
330
FB
100
AcDbEntity
  8
0
 62
     0
100
AcDbLine
 10
34.52110634279885
 20
10.40405847058824
 30
0.0
 11
33.3105393697914
 21
11.61462544359568
 31
0.0
  0
LINE
  5
100
330
FB
100
AcDbEntity
  8
0
 62
     0
100
AcDbLine
 10
34.52110634279885
 20
9.955045664534793
 30
0.0
 11
33.12110634279884
 21
11.35504566453483
 31
0.0
  0
LINE
  5
101
330
FB
100
AcDbEntity
  8
0
 62
     0
100
AcDbLine
 10
34.52110634279885
 20
9.506032858481347
 30
0.0
 11
33.12110634279881
 21
10.90603285848135
 31
0.0
  0
LINE
  5
102
330
FB
100
AcDbEntity
  8
0
 62
     0
100
AcDbLine
 10
34.52110634279885
 20
9.057020052427873
 30
0.0
 11
33.12110634279881
 21
10.4570200524279
 31
0.0
  0
LINE
  5
103
330
FB
100
AcDbEntity
  8
0
 62
     0
100
AcDbLine
 10
32.07110634279886
 20
11.05800724637441
 30
0.0
 11
31.50411404162063
 21
11.62499954755267
 31
0.0
  0
LINE
  5
104
330
FB
100
AcDbEntity
  8
0
 62
     0
100
AcDbLine
 10
34.52110634279885
 20
8.608007246374427
 30
0.0
 11
33.12110634279881
 21
10.00800724637446
 31
0.0
  0
LINE
  5
105
330
FB
100
AcDbEntity
  8
0
 62
     0
100
AcDbLine
 10
32.07110634279886
 20
10.60899444032097
 30
0.0
 11
31.05510123556721
 21
11.62499954755262
 31
0.0
  0
LINE
  5
106
330
FB
100
AcDbEntity
  8
0
 62
     0
100
AcDbLine
 10
34.52110634279885
 20
8.158994440320981
 30
0.0
 11
33.12110634279881
 21
9.558994440321015
 31
0.0
  0
LINE
  5
107
330
FB
100
AcDbEntity
  8
0
 62
     0
100
AcDbLine
 10
32.07110634279889
 20
10.15998163426746
 30
0.0
 11
30.71835086023029
 21
11.51273711683603
 31
0.0
  0
LINE
  5
108
330
FB
100
AcDbEntity
  8
0
 62
     0
100
AcDbLine
 10
34.52110634279882
 20
7.709981634267506
 30
0.0
 11
33.12110634279881
 21
9.109981634267541
 31
0.0
  0
LINE
  5
109
330
FB
100
AcDbEntity
  8
0
 62
     0
100
AcDbLine
 10
32.07110634279889
 20
9.710968828213992
 30
0.0
 11
30.67110634279888
 21
11.11096882821402
 31
0.0
  0
LINE
  5
10A
330
FB
100
AcDbEntity
  8
0
 62
     0
100
AcDbLine
 10
34.52110634279885
 20
7.26096882821406
 30
0.0
 11
33.12110634279881
 21
8.660968828214066
 31
0.0
  0
LINE
  5
10B
330
FB
100
AcDbEntity
  8
0
 62
     0
100
AcDbLine
 10
32.07110634279889
 20
9.261956022160575
 30
0.0
 11
30.67110634279885
 21
10.66195602216058
 31
0.0
  0
LINE
  5
10C
330
FB
100
AcDbEntity
  8
0
 62
     0
100
AcDbLine
 10
34.52110634279885
 20
6.811956022160615
 30
0.0
 11
33.12110634279881
 21
8.211956022160649
 31
0.0
  0
LINE
  5
10D
330
FB
100
AcDbEntity
  8
0
 62
     0
100
AcDbLine
 10
32.07110634279889
 20
8.8129432161071
 30
0.0
 11
30.67110634279885
 21
10.21294321610713
 31
0.0
  0
LINE
  5
10E
330
FB
100
AcDbEntity
  8
0
 62
     0
100
AcDbLine
 10
34.52110634279882
 20
6.36294321610714
 30
0.0
 11
33.12110634279878
 21
7.762943216107174
 31
0.0
  0
LINE
  5
10F
330
FB
100
AcDbEntity
  8
0
 62
     0
100
AcDbLine
 10
32.07110634279886
 20
8.363930410053626
 30
0.0
 11
30.67110634279882
 21
9.76393041005366
 31
0.0
  0
LINE
  5
110
330
FB
100
AcDbEntity
  8
0
 62
     0
100
AcDbLine
 10
34.52110634279885
 20
5.913930410053637
 30
0.0
 11
33.12110634279878
 21
7.313930410053728
 31
0.0
  0
LINE
  5
111
330
FB
100
AcDbEntity
  8
0
 62
     0
100
AcDbLine
 10
32.07110634279889
 20
7.914917604000208
 30
0.0
 11
30.67110634279885
 21
9.314917604000243
 31
0.0
  0
LINE
  5
112
330
FB
100
AcDbEntity
  8
0
 62
     0
100
AcDbLine
 10
28.92110634279888
 20
11.06491760400021
 30
0.0
 11
28.36102439924639
 21
11.62499954755267
 31
0.0
  0
LINE
  5
113
330
FB
100
AcDbEntity
  8
0
 62
     0
100
AcDbLine
 10
34.52110634279887
 20
5.46491760400022
 30
0.0
 11
33.12110634279881
 21
6.864917604000282
 31
0.0
  0
LINE
  5
114
330
FB
100
AcDbEntity
  8
0
 62
     0
100
AcDbLine
 10
32.07110634279886
 20
7.465904797946734
 30
0.0
 11
30.67110634279885
 21
8.865904797946768
 31
0.0
  0
LINE
  5
115
330
FB
100
AcDbEntity
  8
0
 62
     0
100
AcDbLine
 10
28.92110634279888
 20
10.61590479794674
 30
0.0
 11
27.91201159319295
 21
11.62499954755267
 31
0.0
  0
LINE
  5
116
330
FB
100
AcDbEntity
  8
0
 62
     0
100
AcDbLine
 10
34.52110634279885
 20
5.015904797946745
 30
0.0
 11
33.12110634279884
 21
6.41590479794678
 31
0.0
  0
LINE
  5
117
330
FB
100
AcDbEntity
  8
0
 62
     0
100
AcDbLine
 10
32.07110634279886
 20
7.016891991893288
 30
0.0
 11
30.67110634279882
 21
8.416891991893294
 31
0.0
  0
LINE
  5
118
330
FB
100
AcDbEntity
  8
0
 62
     0
100
AcDbLine
 10
28.92110634279885
 20
10.16689199189329
 30
0.0
 11
27.57122498113677
 21
11.51677335355538
 31
0.0
  0
LINE
  5
119
330
FB
100
AcDbEntity
  8
0
 62
     0
100
AcDbLine
 10
34.52110634279885
 20
4.566891991893299
 30
0.0
 11
33.12110634279881
 21
5.966891991893305
 31
0.0
  0
LINE
  5
11A
330
FB
100
AcDbEntity
  8
0
 62
     0
100
AcDbLine
 10
32.07110634279889
 20
6.567879185839814
 30
0.0
 11
30.67110634279885
 21
7.967879185839848
 31
0.0
  0
LINE
  5
11B
330
FB
100
AcDbEntity
  8
0
 62
     0
100
AcDbLine
 10
28.92110634279888
 20
9.717879185839819
 30
0.0
 11
27.52110634279887
 21
11.1178791858398
 31
0.0
  0
LINE
  5
11C
330
FB
100
AcDbEntity
  8
0
 62
     0
100
AcDbLine
 10
34.52110634279887
 20
4.117879185839825
 30
0.0
 11
33.12110634279884
 21
5.517879185839859
 31
0.0
  0
LINE
  5
11D
330
FB
100
AcDbEntity
  8
0
 62
     0
100
AcDbLine
 10
32.07110634279886
 20
6.118866379786368
 30
0.0
 11
30.67110634279882
 21
7.518866379786402
 31
0.0
  0
LINE
  5
11E
330
FB
100
AcDbEntity
  8
0
 62
     0
100
AcDbLine
 10
28.92110634279885
 20
9.268866379786373
 30
0.0
 11
27.52110634279887
 21
10.66886637978638
 31
0.0
  0
LINE
  5
11F
330
FB
100
AcDbEntity
  8
0
 62
     0
100
AcDbLine
 10
34.48512366535388
 20
3.704849057231371
 30
0.0
 11
33.12110634279881
 21
5.068866379786413
 31
0.0
  0
LINE
  5
120
330
FB
100
AcDbEntity
  8
0
 62
     0
100
AcDbLine
 10
32.07110634279886
 20
5.669853573732922
 30
0.0
 11
30.67110634279882
 21
7.069853573732956
 31
0.0
  0
LINE
  5
121
330
FB
100
AcDbEntity
  8
0
 62
     0
100
AcDbLine
 10
28.92110634279885
 20
8.819853573732927
 30
0.0
 11
27.52110634279887
 21
10.2198535737329
 31
0.0
  0
LINE
  5
122
330
FB
100
AcDbEntity
  8
0
 62
     0
100
AcDbLine
 10
34.16596036897917
 20
3.574999547552607
 30
0.0
 11
33.12110634279881
 21
4.619853573732967
 31
0.0
  0
LINE
  5
123
330
FB
100
AcDbEntity
  8
0
 62
     0
100
AcDbLine
 10
28.92110634279885
 20
8.370840767679453
 30
0.0
 11
27.52110634279885
 21
9.770840767679459
 31
0.0
  0
LINE
  5
124
330
FB
100
AcDbEntity
  8
0
 62
     0
100
AcDbLine
 10
32.07110634279883
 20
5.220840767679447
 30
0.0
 11
30.67110634279882
 21
6.620840767679482
 31
0.0
  0
LINE
  5
125
330
FB
100
AcDbEntity
  8
0
 62
     0
100
AcDbLine
 10
26.20860634279882
 20
11.08334076767946
 30
0.0
 11
25.66694756292566
 21
11.62499954755265
 31
0.0
  0
LINE
  5
126
330
FB
100
AcDbEntity
  8
0
 62
     0
100
AcDbLine
 10
33.7169475629257
 20
3.574999547552579
 30
0.0
 11
33.12110634279881
 21
4.170840767679493
 31
0.0
  0
LINE
  5
127
330
FB
100
AcDbEntity
  8
0
 62
     0
100
AcDbLine
 10
28.92110634279885
 20
7.921827961626036
 30
0.0
 11
27.52110634279887
 21
9.321827961626013
 31
0.0
  0
LINE
  5
128
330
FB
100
AcDbEntity
  8
0
 62
     0
100
AcDbLine
 10
26.20860634279885
 20
10.63432796162604
 30
0.0
 11
25.21793475687221
 21
11.62499954755265
 31
0.0
  0
LINE
  5
129
330
FB
100
AcDbEntity
  8
0
 62
     0
100
AcDbLine
 10
32.05812719247609
 20
4.784807111948794
 30
0.0
 11
30.67110634279882
 21
6.171827961626036
 31
0.0
  0
LINE
  5
12A
330
FB
100
AcDbEntity
  8
0
 62
     0
100
AcDbLine
 10
28.92110634279885
 20
7.472815155572561
 30
0.0
 11
27.52110634279885
 21
8.872815155572538
 31
0.0
  0
LINE
  5
12B
330
FB
100
AcDbEntity
  8
0
 62
     0
100
AcDbLine
 10
26.1108160697419
 20
10.28310542862951
 30
0.0
 11
24.76892195081877
 21
11.62499954755265
 31
0.0
  0
LINE
  5
12C
330
FB
100
AcDbEntity
  8
0
 62
     0
100
AcDbLine
 10
31.96163454484747
 20
4.432286953523913
 30
0.0
 11
30.67110634279882
 21
5.72281515557259
 31
0.0
  0
LINE
  5
12D
330
FB
100
AcDbEntity
  8
0
 62
     0
100
AcDbLine
 10
28.92110634279882
 20
7.023802349519087
 30
0.0
 11
27.52110634279885
 21
8.423802349519093
 31
0.0
  0
LINE
  5
12E
330
FB
100
AcDbEntity
  8
0
 62
     0
100
AcDbLine
 10
25.71990914476527
 20
10.22499954755264
 30
0.0
 11
24.31990914476529
 21
11.62499954755265
 31
0.0
  0
LINE
  5
12F
330
FB
100
AcDbEntity
  8
0
 62
     0
100
AcDbLine
 10
31.79911860688566
 20
4.145790085432281
 30
0.0
 11
30.63534847321907
 21
5.309560219098869
 31
0.0
  0
LINE
  5
130
330
FB
100
AcDbEntity
  8
0
 62
     0
100
AcDbLine
 10
28.92110634279885
 20
6.574789543465669
 30
0.0
 11
27.52110634279887
 21
7.974789543465647
 31
0.0
  0
LINE
  5
131
330
FB
100
AcDbEntity
  8
0
 62
     0
100
AcDbLine
 10
25.27089633871185
 20
10.22499954755267
 30
0.0
 11
23.90211297412315
 21
11.59378291214136
 31
0.0
  0
LINE
  5
132
330
FB
100
AcDbEntity
  8
0
 62
     0
100
AcDbLine
 10
31.58309770822314
 20
3.912798178041384
 30
0.0
 11
30.43455565398523
 21
5.061340232279263
 31
0.0
  0
LINE
  5
133
330
FB
100
AcDbEntity
  8
0
 62
     0
100
AcDbLine
 10
28.92110634279885
 20
6.125776737412195
 30
0.0
 11
27.52110634279885
 21
7.525776737412201
 31
0.0
  0
LINE
  5
134
330
FB
100
AcDbEntity
  8
0
 62
     0
100
AcDbLine
 10
24.82188353265843
 20
10.22499954755261
 30
0.0
 11
23.56979276185652
 21
11.47709031835453
 31
0.0
  0
LINE
  5
135
330
FB
100
AcDbEntity
  8
0
 62
     0
100
AcDbLine
 10
31.31501653576012
 20
3.731866544450923
 30
0.0
 11
30.07188353265843
 21
4.974999547552613
 31
0.0
  0
LINE
  5
136
330
FB
100
AcDbEntity
  8
0
 62
     0
100
AcDbLine
 10
28.92110634279882
 20
5.676763931358749
 30
0.0
 11
27.52110634279885
 21
7.076763931358726
 31
0.0
  0
LINE
  5
137
330
FB
100
AcDbEntity
  8
0
 62
     0
100
AcDbLine
 10
24.38376564061403
 20
10.21410463354354
 30
0.0
 11
23.29849229325143
 21
11.29937798090614
 31
0.0
  0
LINE
  5
138
330
FB
100
AcDbEntity
  8
0
 62
     0
100
AcDbLine
 10
30.98681025580442
 20
3.611060018353157
 30
0.0
 11
29.62287072660493
 21
4.974999547552641
 31
0.0
  0
LINE
  5
139
330
FB
100
AcDbEntity
  8
0
 62
     0
100
AcDbLine
 10
24.19610634279886
 20
9.95275112530524
 30
0.0
 11
23.07943626372915
 21
11.06942120437494
 31
0.0
  0
LINE
  5
13A
330
FB
100
AcDbEntity
  8
0
 62
     0
100
AcDbLine
 10
30.57385792055149
 20
3.574999547552607
 30
0.0
 11
27.52110634279882
 21
6.627751125305252
 31
0.0
  0
LINE
  5
13B
330
FB
100
AcDbEntity
  8
0
 62
     0
100
AcDbLine
 10
24.19610634279886
 20
9.503738319251795
 30
0.0
 11
22.91355080755267
 21
10.78629385449801
 31
0.0
  0
LINE
  5
13C
330
FB
100
AcDbEntity
  8
0
 62
     0
100
AcDbLine
 10
30.12484511449804
 20
3.574999547552607
 30
0.0
 11
27.52110634279885
 21
6.178738319251834
 31
0.0
  0
LINE
  5
13D
330
FB
100
AcDbEntity
  8
0
 62
     0
100
AcDbLine
 10
24.29937848335072
 20
8.951453372646483
 30
0.0
 11
22.81246154787061
 21
10.43837030812659
 31
0.0
  0
LINE
  5
13E
330
FB
100
AcDbEntity
  8
0
 62
     0
100
AcDbLine
 10
29.67583230844454
 20
3.574999547552636
 30
0.0
 11
27.52110634279885
 21
5.72972551319836
 31
0.0
  0
LINE
  5
13F
330
FB
100
AcDbEntity
  8
0
 62
     0
100
AcDbLine
 10
26.40790819414448
 20
6.393910855799248
 30
0.0
 11
22.79610634279882
 21
10.00571270714491
 31
0.0
  0
LINE
  5
140
330
FB
100
AcDbEntity
  8
0
 62
     0
100
AcDbLine
 10
21.74610634279881
 20
11.05571270714489
 30
0.0
 11
21.17681950239108
 21
11.62499954755265
 31
0.0
  0
LINE
  5
141
330
FB
100
AcDbEntity
  8
0
 62
     0
100
AcDbLine
 10
29.22681950239113
 20
3.574999547552607
 30
0.0
 11
27.52110634279882
 21
5.280712707144914
 31
0.0
  0
LINE
  5
142
330
FB
100
AcDbEntity
  8
0
 62
     0
100
AcDbLine
 10
26.47110634279883
 20
5.881699901091479
 30
0.0
 11
22.79610634279882
 21
9.556699901091462
 31
0.0
  0
LINE
  5
143
330
FB
100
AcDbEntity
  8
0
 62
     0
100
AcDbLine
 10
21.74610634279884
 20
10.60669990109147
 30
0.0
 11
20.72780669633766
 21
11.62499954755262
 31
0.0
  0
LINE
  5
144
330
FB
100
AcDbEntity
  8
0
 62
     0
100
AcDbLine
 10
28.76958275696527
 20
3.583223486925049
 30
0.0
 11
27.52933028217126
 21
4.823475961719026
 31
0.0
  0
LINE
  5
145
330
FB
100
AcDbEntity
  8
0
 62
     0
100
AcDbLine
 10
21.74610634279881
 20
10.157687095038
 30
0.0
 11
20.39241139891121
 21
11.51138203892563
 31
0.0
  0
LINE
  5
146
330
FB
100
AcDbEntity
  8
0
 62
     0
100
AcDbLine
 10
26.47110634279883
 20
5.432687095038005
 30
0.0
 11
22.80781167674007
 21
9.095981761096737
 31
0.0
  0
LINE
  5
147
330
FB
100
AcDbEntity
  8
0
 62
     0
100
AcDbLine
 10
21.74610634279881
 20
9.708674288984553
 30
0.0
 11
20.34610634279883
 21
11.10867428898453
 31
0.0
  0
LINE
  5
148
330
FB
100
AcDbEntity
  8
0
 62
     0
100
AcDbLine
 10
26.47110634279886
 20
4.983674288984502
 30
0.0
 11
22.96687138566017
 21
8.487909246123194
 31
0.0
  0
LINE
  5
149
330
FB
100
AcDbEntity
  8
0
 62
     0
100
AcDbLine
 10
21.74610634279884
 20
9.259661482931079
 30
0.0
 11
20.34610634279883
 21
10.65966148293105
 31
0.0
  0
LINE
  5
14A
330
FB
100
AcDbEntity
  8
0
 62
     0
100
AcDbLine
 10
26.41682543400432
 20
4.588942391725595
 30
0.0
 11
25.06900803948511
 21
5.936759786244806
 31
0.0
  0
LINE
  5
14B
330
FB
100
AcDbEntity
  8
0
 62
     0
100
AcDbLine
 10
21.74610634279881
 20
8.810648676877661
 30
0.0
 11
20.34610634279883
 21
10.21064867687764
 31
0.0
  0
LINE
  5
14C
330
FB
100
AcDbEntity
  8
0
 62
     0
100
AcDbLine
 10
19.20036289251033
 20
11.35639212716614
 30
0.0
 11
18.93175547212382
 21
11.62499954755265
 31
0.0
  0
LINE
  5
14D
330
FB
100
AcDbEntity
  8
0
 62
     0
100
AcDbLine
 10
26.28288758012349
 20
4.273867439552986
 30
0.0
 11
25.07110634279889
 21
5.485648676877588
 31
0.0
  0
LINE
  5
14E
330
FB
100
AcDbEntity
  8
0
 62
     0
100
AcDbLine
 10
21.74610634279881
 20
8.361635870824187
 30
0.0
 11
20.3461063427988
 21
9.761635870824164
 31
0.0
  0
LINE
  5
14F
330
FB
100
AcDbEntity
  8
0
 62
     0
100
AcDbLine
 10
19.10089906038402
 20
11.00684315323897
 30
0.0
 11
18.48274266607032
 21
11.62499954755267
 31
0.0
  0
LINE
  5
150
330
FB
100
AcDbEntity
  8
0
 62
     0
100
AcDbLine
 10
26.09139418103584
 20
4.016348032587131
 30
0.0
 11
25.02246375135559
 21
5.085278462267382
 31
0.0
  0
LINE
  5
151
330
FB
100
AcDbEntity
  8
0
 62
     0
100
AcDbLine
 10
21.74610634279878
 20
7.912623064770713
 30
0.0
 11
20.3461063427988
 21
9.312623064770718
 31
0.0
  0
LINE
  5
152
330
FB
100
AcDbEntity
  8
0
 62
     0
100
AcDbLine
 10
18.99313598693121
 20
10.66559342063831
 30
0.0
 11
18.03852820519586
 21
11.62020120237363
 31
0.0
  0
LINE
  5
153
330
FB
100
AcDbEntity
  8
0
 62
     0
100
AcDbLine
 10
25.848234698478
 20
3.8104947090915
 30
0.0
 11
24.68372986001691
 21
4.974999547552613
 31
0.0
  0
LINE
  5
154
330
FB
100
AcDbEntity
  8
0
 62
     0
100
AcDbLine
 10
21.74610634279881
 20
7.463610258717295
 30
0.0
 11
20.34610634279886
 21
8.863610258717244
 31
0.0
  0
LINE
  5
155
330
FB
100
AcDbEntity
  8
0
 62
     0
100
AcDbLine
 10
18.88537291347839
 20
10.32434368803768
 30
0.0
 11
17.82137291347837
 21
11.38834368803773
 31
0.0
  0
LINE
  5
156
330
FB
100
AcDbEntity
  8
0
 62
     0
100
AcDbLine
 10
25.55019272424781
 20
3.65952387726827
 30
0.0
 11
24.23471705396349
 21
4.974999547552613
 31
0.0
  0
LINE
  5
157
330
FB
100
AcDbEntity
  8
0
 62
     0
100
AcDbLine
 10
21.74610634279881
 20
7.014597452663821
 30
0.0
 11
20.34610634279886
 21
8.41459745266377
 31
0.0
  0
LINE
  5
158
330
FB
100
AcDbEntity
  8
0
 62
     0
100
AcDbLine
 10
18.77760984002552
 20
9.983093955437112
 30
0.0
 11
17.7136098400255
 21
11.04709395543713
 31
0.0
  0
LINE
  5
159
330
FB
100
AcDbEntity
  8
0
 62
     0
100
AcDbLine
 10
25.18135639842407
 20
3.57934739703856
 30
0.0
 11
23.78570424790999
 21
4.974999547552641
 31
0.0
  0
LINE
  5
15A
330
FB
100
AcDbEntity
  8
0
 62
     0
100
AcDbLine
 10
21.74610634279878
 20
6.565584646610375
 30
0.0
 11
20.34610634279883
 21
7.965584646610295
 31
0.0
  0
LINE
  5
15B
330
FB
100
AcDbEntity
  8
0
 62
     0
100
AcDbLine
 10
18.6698467665727
 20
9.641844222836425
 30
0.0
 11
17.60584676657268
 21
10.70584422283647
 31
0.0
  0
LINE
  5
15C
330
FB
100
AcDbEntity
  8
0
 62
     0
100
AcDbLine
 10
24.73669144185655
 20
3.574999547552607
 30
0.0
 11
23.33669144185649
 21
4.97499954755267
 31
0.0
  0
LINE
  5
15D
330
FB
100
AcDbEntity
  8
0
 62
     0
100
AcDbLine
 10
21.74610634279881
 20
6.116571840556929
 30
0.0
 11
20.34610634279886
 21
7.516571840556878
 31
0.0
  0
LINE
  5
15E
330
FB
100
AcDbEntity
  8
0
 62
     0
100
AcDbLine
 10
18.56208369311986
 20
9.30059449023588
 30
0.0
 11
17.49808369311984
 21
10.3645944902359
 31
0.0
  0
LINE
  5
15F
330
FB
100
AcDbEntity
  8
0
 62
     0
100
AcDbLine
 10
24.2876786358031
 20
3.574999547552636
 30
0.0
 11
23.07087278715494
 21
4.7918053962008
 31
0.0
  0
LINE
  5
160
330
FB
100
AcDbEntity
  8
0
 62
     0
100
AcDbLine
 10
18.45432061966707
 20
8.959344757635193
 30
0.0
 11
17.39032061966702
 21
10.02334475763521
 31
0.0
  0
LINE
  5
161
330
FB
100
AcDbEntity
  8
0
 62
     0
100
AcDbLine
 10
21.74610634279878
 20
5.667559034503454
 30
0.0
 11
20.34610634279883
 21
7.067559034503403
 31
0.0
  0
LINE
  5
162
330
FB
100
AcDbEntity
  8
0
 62
     0
100
AcDbLine
 10
16.32110634279885
 20
11.09255903450341
 30
0.0
 11
15.78866582974959
 21
11.62499954755267
 31
0.0
  0
LINE
  5
163
330
FB
100
AcDbEntity
  8
0
 62
     0
100
AcDbLine
 10
23.83866582974966
 20
3.574999547552607
 30
0.0
 11
23.05860634279887
 21
4.355059034503398
 31
0.0
  0
LINE
  5
164
330
FB
100
AcDbEntity
  8
0
 62
     0
100
AcDbLine
 10
18.34655754621417
 20
8.618095025034591
 30
0.0
 11
17.28255754621415
 21
9.682095025034641
 31
0.0
  0
LINE
  5
165
330
FB
100
AcDbEntity
  8
0
 62
     0
100
AcDbLine
 10
21.74610634279881
 20
5.218546228449952
 30
0.0
 11
20.34610634279883
 21
6.618546228449957
 31
0.0
  0
LINE
  5
166
330
FB
100
AcDbEntity
  8
0
 62
     0
100
AcDbLine
 10
16.32110634279885
 20
10.64354622844993
 30
0.0
 11
15.33965302369617
 21
11.62499954755262
 31
0.0
  0
LINE
  5
167
330
FB
100
AcDbEntity
  8
0
 62
     0
100
AcDbLine
 10
23.38965302369619
 20
3.574999547552607
 30
0.0
 11
23.05860634279884
 21
3.906046228449952
 31
0.0
  0
LINE
  5
168
330
FB
100
AcDbEntity
  8
0
 62
     0
100
AcDbLine
 10
18.23879447276138
 20
8.276845292433932
 30
0.0
 11
17.17479447276136
 21
9.340845292433954
 31
0.0
  0
LINE
  5
169
330
FB
100
AcDbEntity
  8
0
 62
     0
100
AcDbLine
 10
16.32110634279888
 20
10.19453342239643
 30
0.0
 11
14.98338387835
 21
11.53225588684532
 31
0.0
  0
LINE
  5
16A
330
FB
100
AcDbEntity
  8
0
 62
     0
100
AcDbLine
 10
21.74610634279881
 20
4.769533422396506
 30
0.0
 11
20.34610634279883
 21
6.169533422396483
 31
0.0
  0
LINE
  5
16B
330
FB
100
AcDbEntity
  8
0
 62
     0
100
AcDbLine
 10
18.13103139930854
 20
7.935595559833359
 30
0.0
 11
17.06703139930849
 21
8.999595559833409
 31
0.0
  0
LINE
  5
16C
330
FB
100
AcDbEntity
  8
0
 62
     0
100
AcDbLine
 10
16.32110634279888
 20
9.745520616342986
 30
0.0
 11
14.92110634279882
 21
11.14552061634308
 31
0.0
  0
LINE
  5
16D
330
FB
100
AcDbEntity
  8
0
 62
     0
100
AcDbLine
 10
21.74610634279884
 20
4.32052061634306
 30
0.0
 11
20.34610634279883
 21
5.720520616343065
 31
0.0
  0
LINE
  5
16E
330
FB
100
AcDbEntity
  8
0
 62
     0
100
AcDbLine
 10
18.02848714461257
 20
7.589127008475855
 30
0.0
 11
16.9592683258557
 21
8.658345827232722
 31
0.0
  0
LINE
  5
16F
330
FB
100
AcDbEntity
  8
0
 62
     0
100
AcDbLine
 10
16.32110634279888
 20
9.29650781028954
 30
0.0
 11
14.92110634279882
 21
10.6965078102896
 31
0.0
  0
LINE
  5
170
330
FB
100
AcDbEntity
  8
0
 62
     0
100
AcDbLine
 10
21.74610634279881
 20
3.871507810289614
 30
0.0
 11
20.34610634279886
 21
5.271507810289534
 31
0.0
  0
LINE
  5
171
330
FB
100
AcDbEntity
  8
0
 62
     0
100
AcDbLine
 10
18.23572382432962
 20
6.932877522705325
 30
0.0
 11
16.81399457801331
 21
8.354606769021643
 31
0.0
  0
LINE
  5
172
330
FB
100
AcDbEntity
  8
0
 62
     0
100
AcDbLine
 10
16.32110634279885
 20
8.847495004236066
 30
0.0
 11
14.92110634279879
 21
10.24749500423613
 31
0.0
  0
LINE
  5
173
330
FB
100
AcDbEntity
  8
0
 62
     0
100
AcDbLine
 10
21.57658384413261
 20
3.592017502902336
 30
0.0
 11
20.34610634279886
 21
4.822495004236088
 31
0.0
  0
LINE
  5
174
330
FB
100
AcDbEntity
  8
0
 62
     0
100
AcDbLine
 10
18.44296050404659
 20
6.276628036934937
 30
0.0
 11
14.92110634279882
 21
9.798482198182711
 31
0.0
  0
LINE
  5
175
330
FB
100
AcDbEntity
  8
0
 62
     0
100
AcDbLine
 10
13.69610634279888
 20
11.02348219818265
 30
0.0
 11
13.09458899342885
 21
11.62499954755265
 31
0.0
  0
LINE
  5
176
330
FB
100
AcDbEntity
  8
0
 62
     0
100
AcDbLine
 10
21.1445889934289
 20
3.574999547552636
 30
0.0
 11
20.34610634279886
 21
4.373482198182642
 31
0.0
  0
LINE
  5
177
330
FB
100
AcDbEntity
  8
0
 62
     0
100
AcDbLine
 10
18.65019718376359
 20
5.620378551164463
 30
0.0
 11
14.92110634279879
 21
9.349469392129236
 31
0.0
  0
LINE
  5
178
330
FB
100
AcDbEntity
  8
0
 62
     0
100
AcDbLine
 10
13.69610634279888
 20
10.57446939212917
 30
0.0
 11
12.64557618737544
 21
11.62499954755262
 31
0.0
  0
LINE
  5
179
330
FB
100
AcDbEntity
  8
0
 62
     0
100
AcDbLine
 10
20.69557618737542
 20
3.574999547552636
 30
0.0
 11
20.34610634279886
 21
3.924469392129196
 31
0.0
  0
LINE
  5
17A
330
FB
100
AcDbEntity
  8
0
 62
     0
100
AcDbLine
 10
13.56265299510374
 20
10.25890993377084
 30
0.0
 11
12.21254213599803
 21
11.60902079287652
 31
0.0
  0
LINE
  5
17B
330
FB
100
AcDbEntity
  8
0
 62
     0
100
AcDbLine
 10
18.85743386348056
 20
4.964129065394018
 30
0.0
 11
14.92110634279879
 21
8.90045658607579
 31
0.0
  0
LINE
  5
17C
330
FB
100
AcDbEntity
  8
0
 62
     0
100
AcDbLine
 10
16.48986080396958
 20
6.882689318851561
 30
0.0
 11
14.92110634279885
 21
8.451443780022287
 31
0.0
  0
LINE
  5
17D
330
FB
100
AcDbEntity
  8
0
 62
     0
100
AcDbLine
 10
13.1475505752685
 20
10.22499954755264
 30
0.0
 11
11.8435206012044
 21
11.52902952161673
 31
0.0
  0
LINE
  5
17E
330
FB
100
AcDbEntity
  8
0
 62
     0
100
AcDbLine
 10
19.06467054319759
 20
4.307879579623545
 30
0.0
 11
17.01851669704359
 21
6.354033425777544
 31
0.0
  0
LINE
  5
17F
330
FB
100
AcDbEntity
  8
0
 62
     0
100
AcDbLine
 10
16.32110634279891
 20
6.602430973968779
 30
0.0
 11
14.92110634279885
 21
8.002430973968841
 31
0.0
  0
LINE
  5
180
330
FB
100
AcDbEntity
  8
0
 62
     0
100
AcDbLine
 10
12.69853776921502
 20
10.22499954755264
 30
0.0
 11
11.52415989328904
 21
11.39937742347862
 31
0.0
  0
LINE
  5
181
330
FB
100
AcDbEntity
  8
0
 62
     0
100
AcDbLine
 10
19.18218997205284
 20
3.741347344714853
 30
0.0
 11
17.22575337676056
 21
5.697783940007127
 31
0.0
  0
LINE
  5
182
330
FB
100
AcDbEntity
  8
0
 62
     0
100
AcDbLine
 10
16.32110634279885
 20
6.153418167915361
 30
0.0
 11
14.92110634279882
 21
7.553418167915395
 31
0.0
  0
LINE
  5
183
330
FB
100
AcDbEntity
  8
0
 62
     0
100
AcDbLine
 10
12.27698101794326
 20
10.19754349277096
 30
0.0
 11
11.24478540562177
 21
11.22973910509245
 31
0.0
  0
LINE
  5
184
330
FB
100
AcDbEntity
  8
0
 62
     0
100
AcDbLine
 10
18.89952496316155
 20
3.574999547552664
 30
0.0
 11
17.43299005647756
 21
5.041534454236654
 31
0.0
  0
LINE
  5
185
330
FB
100
AcDbEntity
  8
0
 62
     0
100
AcDbLine
 10
16.32110634279885
 20
5.704405361861887
 30
0.0
 11
14.92110634279882
 21
7.104405361861921
 31
0.0
  0
LINE
  5
186
330
FB
100
AcDbEntity
  8
0
 62
     0
100
AcDbLine
 10
11.99105292152376
 20
10.03445878313698
 30
0.0
 11
11.00095780131588
 21
11.02455390334486
 31
0.0
  0
LINE
  5
187
330
FB
100
AcDbEntity
  8
0
 62
     0
100
AcDbLine
 10
18.4505121571081
 20
3.574999547552636
 30
0.0
 11
17.6402267361945
 21
4.385284968466237
 31
0.0
  0
LINE
  5
188
330
FB
100
AcDbEntity
  8
0
 62
     0
100
AcDbLine
 10
13.86382090919767
 20
7.712677989409655
 30
0.0
 11
13.1087847846558
 21
8.467714113951501
 31
0.0
  0
LINE
  5
189
330
FB
100
AcDbEntity
  8
0
 62
     0
100
AcDbLine
 10
16.32110634279885
 20
5.255392555808469
 30
0.0
 11
14.92110634279882
 21
6.655392555808475
 31
0.0
  0
LINE
  5
18A
330
FB
100
AcDbEntity
  8
0
 62
     0
100
AcDbLine
 10
11.81299213645928
 20
9.76350676214804
 30
0.0
 11
10.79127478831026
 21
10.78522411029706
 31
0.0
  0
LINE
  5
18B
330
FB
100
AcDbEntity
  8
0
 62
     0
100
AcDbLine
 10
17.97633284895226
 20
3.600166049655058
 30
0.0
 11
17.85115576315692
 21
3.725343135450401
 31
0.0
  0
LINE
  5
18C
330
FB
100
AcDbEntity
  8
0
 62
     0
100
AcDbLine
 10
13.82056407912671
 20
7.30692201342714
 30
0.0
 11
12.70302880867328
 21
8.424457283880542
 31
0.0
  0
LINE
  5
18D
330
FB
100
AcDbEntity
  8
0
 62
     0
100
AcDbLine
 10
11.77110634279887
 20
9.356379749754978
 30
0.0
 11
10.61680527782943
 21
10.51068081472442
 31
0.0
  0
LINE
  5
18E
330
FB
100
AcDbEntity
  8
0
 62
     0
100
AcDbLine
 10
16.32110634279885
 20
4.806379749754995
 30
0.0
 11
14.92110634279882
 21
6.206379749755029
 31
0.0
  0
LINE
  5
18F
330
FB
100
AcDbEntity
  8
0
 62
     0
100
AcDbLine
 10
13.65463629947771
 20
7.023836987022662
 30
0.0
 11
12.41994378226883
 21
8.258529504231546
 31
0.0
  0
LINE
  5
190
330
FB
100
AcDbEntity
  8
0
 62
     0
100
AcDbLine
 10
11.77110634279884
 20
8.907366943701532
 30
0.0
 11
10.48151542422434
 21
10.19695786227603
 31
0.0
  0
LINE
  5
191
330
FB
100
AcDbEntity
  8
0
 62
     0
100
AcDbLine
 10
16.32110634279882
 20
4.357366943701521
 30
0.0
 11
14.92110634279882
 21
5.757366943701555
 31
0.0
  0
LINE
  5
192
330
FB
100
AcDbEntity
  8
0
 62
     0
100
AcDbLine
 10
11.77110634279887
 20
8.458354137648086
 30
0.0
 11
10.39415848776141
 21
9.835301992685543
 31
0.0
  0
LINE
  5
193
330
FB
100
AcDbEntity
  8
0
 62
     0
100
AcDbLine
 10
13.40371957840946
 20
6.825740902037495
 30
0.0
 11
12.22184769728366
 21
8.007612783163295
 31
0.0
  0
LINE
  5
194
330
FB
100
AcDbEntity
  8
0
 62
     0
100
AcDbLine
 10
9.05860634279881
 20
11.17085413764812
 30
0.0
 11
8.604460932894284
 21
11.62499954755267
 31
0.0
  0
LINE
  5
195
330
FB
100
AcDbEntity
  8
0
 62
     0
100
AcDbLine
 10
16.32110634279885
 20
3.908354137648103
 30
0.0
 11
14.92110634279882
 21
5.308354137648137
 31
0.0
  0
LINE
  5
196
330
FB
100
AcDbEntity
  8
0
 62
     0
100
AcDbLine
 10
11.77110634279884
 20
8.009341331594612
 30
0.0
 11
10.37110634279878
 21
9.409341331594703
 31
0.0
  0
LINE
  5
197
330
FB
100
AcDbEntity
  8
0
 62
     0
100
AcDbLine
 10
13.05355985719575
 20
6.726887817197734
 30
0.0
 11
12.12299461244387
 21
7.657453061949581
 31
0.0
  0
LINE
  5
198
330
FB
100
AcDbEntity
  8
0
 62
     0
100
AcDbLine
 10
9.05860634279881
 20
10.72184133159467
 30
0.0
 11
8.155448126840809
 21
11.62499954755265
 31
0.0
  0
LINE
  5
199
330
FB
100
AcDbEntity
  8
0
 62
     0
100
AcDbLine
 10
16.1771544421635
 20
3.603293232229987
 30
0.0
 11
14.92110634279882
 21
4.859341331594663
 31
0.0
  0
LINE
  5
19A
330
FB
100
AcDbEntity
  8
0
 62
     0
100
AcDbLine
 10
11.77110634279884
 20
7.560328525541166
 30
0.0
 11
10.37110634279878
 21
8.960328525541228
 31
0.0
  0
LINE
  5
19B
330
FB
100
AcDbEntity
  8
0
 62
     0
100
AcDbLine
 10
9.004089357663644
 20
10.32734551067636
 30
0.0
 11
7.706435320787363
 21
11.62499954755265
 31
0.0
  0
LINE
  5
19C
330
FB
100
AcDbEntity
  8
0
 62
     0
100
AcDbLine
 10
15.7564353207874
 20
3.574999547552579
 30
0.0
 11
14.92110634279879
 21
4.410328525541189
 31
0.0
  0
LINE
  5
19D
330
FB
100
AcDbEntity
  8
0
 62
     0
100
AcDbLine
 10
11.77110634279884
 20
7.111315719487691
 30
0.0
 11
10.37110634279875
 21
8.511315719487754
 31
0.0
  0
LINE
  5
19E
330
FB
100
AcDbEntity
  8
0
 62
     0
100
AcDbLine
 10
8.657422514733895
 20
10.22499954755264
 30
0.0
 11
7.257422514733889
 21
11.62499954755262
 31
0.0
  0
LINE
  5
19F
330
FB
100
AcDbEntity
  8
0
 62
     0
100
AcDbLine
 10
15.3074225147339
 20
3.574999547552607
 30
0.0
 11
14.92110634279879
 21
3.961315719487743
 31
0.0
  0
LINE
  5
1A0
330
FB
100
AcDbEntity
  8
0
 62
     0
100
AcDbLine
 10
11.77110634279884
 20
6.662302913434274
 30
0.0
 11
10.37110634279878
 21
8.062302913434336
 31
0.0
  0
LINE
  5
1A1
330
FB
100
AcDbEntity
  8
0
 62
     0
100
AcDbLine
 10
8.208409708680477
 20
10.22499954755261
 30
0.0
 11
6.825845072628055
 21
11.60756418360506
 31
0.0
  0
LINE
  5
1A2
330
FB
100
AcDbEntity
  8
0
 62
     0
100
AcDbLine
 10
13.69480511838031
 20
4.738604137852775
 30
0.0
 11
13.45971093309896
 21
4.973698323134158
 31
0.0
  0
LINE
  5
1A3
330
FB
100
AcDbEntity
  8
0
 62
     0
100
AcDbLine
 10
11.77110634279884
 20
6.2132901073808
 30
0.0
 11
10.37110634279881
 21
7.613290107380834
 31
0.0
  0
LINE
  5
1A4
330
FB
100
AcDbEntity
  8
0
 62
     0
100
AcDbLine
 10
7.759396902626974
 20
10.22499954755264
 30
0.0
 11
6.479277668388817
 21
11.50511878179083
 31
0.0
  0
LINE
  5
1A5
330
FB
100
AcDbEntity
  8
0
 62
     0
100
AcDbLine
 10
13.69610634279885
 20
4.28829010738076
 30
0.0
 11
13.009396902627
 21
4.974999547552641
 31
0.0
  0
LINE
  5
1A6
330
FB
100
AcDbEntity
  8
0
 62
     0
100
AcDbLine
 10
11.77110634279881
 20
5.764277301327325
 30
0.0
 11
10.37110634279881
 21
7.164277301327359
 31
0.0
  0
LINE
  5
1A7
330
FB
100
AcDbEntity
  8
0
 62
     0
100
AcDbLine
 10
7.310384096573528
 20
10.22499954755264
 30
0.0
 11
6.197154338465225
 21
11.33822930566094
 31
0.0
  0
LINE
  5
1A8
330
FB
100
AcDbEntity
  8
0
 62
     0
100
AcDbLine
 10
13.69610634279885
 20
3.839277301327314
 30
0.0
 11
12.56038409657353
 21
4.974999547552641
 31
0.0
  0
LINE
  5
1A9
330
FB
100
AcDbEntity
  8
0
 62
     0
100
AcDbLine
 10
7.055237682766289
 20
10.03113315530643
 30
0.0
 11
5.968107932344821
 21
11.1182629057279
 31
0.0
  0
LINE
  5
1AA
330
FB
100
AcDbEntity
  8
0
 62
     0
100
AcDbLine
 10
13.50223995055262
 20
3.584130887520132
 30
0.0
 11
10.37110634279881
 21
6.715264495273942
 31
0.0
  0
LINE
  5
1AB
330
FB
100
AcDbEntity
  8
0
 62
     0
100
AcDbLine
 10
7.046106342798879
 20
9.591251689220399
 30
0.0
 11
5.791367331110308
 21
10.84599070090897
 31
0.0
  0
LINE
  5
1AC
330
FB
100
AcDbEntity
  8
0
 62
     0
100
AcDbLine
 10
13.06235848446667
 20
3.574999547552607
 30
0.0
 11
10.37110634279881
 21
6.266251689220467
 31
0.0
  0
LINE
  5
1AD
330
FB
100
AcDbEntity
  8
0
 62
     0
100
AcDbLine
 10
7.077174196866678
 20
9.111171029099125
 30
0.0
 11
5.675927279963417
 21
10.51241794600239
 31
0.0
  0
LINE
  5
1AE
330
FB
100
AcDbEntity
  8
0
 62
     0
100
AcDbLine
 10
12.61334567841319
 20
3.574999547552607
 30
0.0
 11
10.37110634279878
 21
5.817238883166993
 31
0.0
  0
LINE
  5
1AF
330
FB
100
AcDbEntity
  8
0
 62
     0
100
AcDbLine
 10
9.223294388410153
 20
6.516038031502176
 30
0.0
 11
5.646106342798844
 21
10.09322607711351
 31
0.0
  0
LINE
  5
1B0
330
FB
100
AcDbEntity
  8
0
 62
     0
100
AcDbLine
 10
12.13769682883139
 20
3.601635591080963
 30
0.0
 11
10.39774238632711
 21
5.341590033585248
 31
0.0
  0
LINE
  5
1B1
330
FB
100
AcDbEntity
  8
0
 62
     0
100
AcDbLine
 10
9.319241645452763
 20
5.971077968406149
 30
0.0
 11
5.646106342798844
 21
9.644213271060067
 31
0.0
  0
LINE
  5
1B2
330
FB
100
AcDbEntity
  8
0
 62
     0
100
AcDbLine
 10
11.4507928725306
 20
3.839526741328285
 30
0.0
 11
10.6356335365744
 21
4.654686077284509
 31
0.0
  0
LINE
  5
1B3
330
FB
100
AcDbEntity
  8
0
 62
     0
100
AcDbLine
 10
9.321106342798856
 20
5.520200465006553
 30
0.0
 11
5.649888566509957
 21
9.191418241295451
 31
0.0
  0
LINE
  5
1B4
330
FB
100
AcDbEntity
  8
0
 62
     0
100
AcDbLine
 10
9.321106342798884
 20
5.07118765895305
 30
0.0
 11
5.761533945671885
 21
8.630760056080049
 31
0.0
  0
LINE
  5
1B5
330
FB
100
AcDbEntity
  8
0
 62
     0
100
AcDbLine
 10
9.284846344732812
 20
4.658434850965733
 30
0.0
 11
7.903150522923311
 21
6.040130672775234
 31
0.0
  0
LINE
  5
1B6
330
FB
100
AcDbEntity
  8
0
 62
     0
100
AcDbLine
 10
9.16387737521839
 20
4.33039101442668
 30
0.0
 11
7.921106342798879
 21
5.573162046846192
 31
0.0
  0
LINE
  5
1B7
330
FB
100
AcDbEntity
  8
0
 62
     0
100
AcDbLine
 10
8.982817751527505
 20
4.062437832064091
 30
0.0
 11
7.903156826648455
 21
5.142098756943113
 31
0.0
  0
LINE
  5
1B8
330
FB
100
AcDbEntity
  8
0
 62
     0
100
AcDbLine
 10
8.749704565394068
 20
3.846538212144082
 30
0.0
 11
7.621243229985509
 21
4.97499954755267
 31
0.0
  0
LINE
  5
1B9
330
FB
100
AcDbEntity
  8
0
 62
     0
100
AcDbLine
 10
8.463072341527663
 20
3.684157629957041
 30
0.0
 11
7.172230423932035
 21
4.974999547552641
 31
0.0
  0
LINE
  5
1BA
330
FB
100
AcDbEntity
  8
0
 62
     0
100
AcDbLine
 10
8.110366046984694
 20
3.587851118446536
 30
0.0
 11
6.723217617878589
 21
4.974999547552641
 31
0.0
  0
LINE
  5
1BB
330
FB
100
AcDbEntity
  8
0
 62
     0
100
AcDbLine
 10
7.674204811825148
 20
3.574999547552607
 30
0.0
 11
6.274204811825171
 21
4.974999547552584
 31
0.0
  0
LINE
  5
1BC
330
FB
100
AcDbEntity
  8
0
 62
     0
100
AcDbLine
 10
7.225192005771702
 20
3.574999547552607
 30
0.0
 11
5.948530058362763
 21
4.851661494961575
 31
0.0
  0
LINE
  5
1BD
330
FB
100
AcDbEntity
  8
0
 62
     0
100
AcDbLine
 10
6.7761791997182
 20
3.574999547552636
 30
0.0
 11
5.908606342798805
 21
4.442572404472031
 31
0.0
  0
LINE
  5
1BE
330
FB
100
AcDbEntity
  8
0
 62
     0
100
AcDbLine
 10
6.327166393664754
 20
3.574999547552636
 30
0.0
 11
5.908606342798805
 21
3.993559598418585
 31
0.0
  0
LINE
  5
1BF
330
FB
100
AcDbEntity
  8
0
 62
     0
100
AcDbLine
 10
34.31694998513226
 20
3.581565436111389
 30
0.0
 11
34.51454045424015
 21
3.779155905219283
 31
0.0
  0
LINE
  5
1C0
330
FB
100
AcDbEntity
  8
0
 62
     0
100
AcDbLine
 10
33.86137129052003
 20
3.574999547552579
 30
0.0
 11
34.5211063427989
 21
4.234734599831455
 31
0.0
  0
LINE
  5
1C1
330
FB
100
AcDbEntity
  8
0
 62
     0
100
AcDbLine
 10
33.41235848446661
 20
3.574999547552636
 30
0.0
 11
34.5211063427989
 21
4.683747405884929
 31
0.0
  0
LINE
  5
1C2
330
FB
100
AcDbEntity
  8
0
 62
     0
100
AcDbLine
 10
33.13670512442471
 20
3.748358993564181
 30
0.0
 11
34.5211063427989
 21
5.132760211938375
 31
0.0
  0
LINE
  5
1C3
330
FB
100
AcDbEntity
  8
0
 62
     0
100
AcDbLine
 10
33.12110634279884
 20
4.181773017991787
 30
0.0
 11
34.52110634279887
 21
5.581773017991821
 31
0.0
  0
LINE
  5
1C4
330
FB
100
AcDbEntity
  8
0
 62
     0
100
AcDbLine
 10
33.12110634279887
 20
4.630785824045261
 30
0.0
 11
34.5211063427989
 21
6.030785824045267
 31
0.0
  0
LINE
  5
1C5
330
FB
100
AcDbEntity
  8
0
 62
     0
100
AcDbLine
 10
33.12110634279887
 20
5.079798630098707
 30
0.0
 11
34.52110634279887
 21
6.479798630098741
 31
0.0
  0
LINE
  5
1C6
330
FB
100
AcDbEntity
  8
0
 62
     0
100
AcDbLine
 10
33.12110634279884
 20
5.528811436152182
 30
0.0
 11
34.52110634279887
 21
6.928811436152216
 31
0.0
  0
LINE
  5
1C7
330
FB
100
AcDbEntity
  8
0
 62
     0
100
AcDbLine
 10
31.33438877383131
 20
3.742093867184649
 30
0.0
 11
31.90401202316693
 21
4.31171711652027
 31
0.0
  0
LINE
  5
1C8
330
FB
100
AcDbEntity
  8
0
 62
     0
100
AcDbLine
 10
33.12110634279887
 20
5.977824242205599
 30
0.0
 11
34.5211063427989
 21
7.377824242205633
 31
0.0
  0
LINE
  5
1C9
330
FB
100
AcDbEntity
  8
0
 62
     0
100
AcDbLine
 10
30.71910469057005
 20
3.575822589976809
 30
0.0
 11
32.0702833003748
 21
4.927001199781528
 31
0.0
  0
LINE
  5
1CA
330
FB
100
AcDbEntity
  8
0
 62
     0
100
AcDbLine
 10
33.12110634279884
 20
6.426837048259073
 30
0.0
 11
34.52110634279887
 21
7.826837048259108
 31
0.0
  0
LINE
  5
1CB
330
FB
100
AcDbEntity
  8
0
 62
     0
100
AcDbLine
 10
30.2692688420924
 20
3.574999547552607
 30
0.0
 11
32.07110634279894
 21
5.376837048259147
 31
0.0
  0
LINE
  5
1CC
330
FB
100
AcDbEntity
  8
0
 62
     0
100
AcDbLine
 10
33.12110634279884
 20
6.875849854312548
 30
0.0
 11
34.52110634279887
 21
8.275849854312554
 31
0.0
  0
LINE
  5
1CD
330
FB
100
AcDbEntity
  8
0
 62
     0
100
AcDbLine
 10
29.82025603603893
 20
3.574999547552636
 30
0.0
 11
32.07110634279891
 21
5.825849854312622
 31
0.0
  0
LINE
  5
1CE
330
FB
100
AcDbEntity
  8
0
 62
     0
100
AcDbLine
 10
33.12110634279887
 20
7.324862660365965
 30
0.0
 11
34.52110634279887
 21
8.724862660366
 31
0.0
  0
LINE
  5
1CF
330
FB
100
AcDbEntity
  8
0
 62
     0
100
AcDbLine
 10
29.37124322998548
 20
3.574999547552607
 30
0.0
 11
32.07110634279894
 21
6.274862660366039
 31
0.0
  0
LINE
  5
1D0
330
FB
100
AcDbEntity
  8
0
 62
     0
100
AcDbLine
 10
30.61881074175847
 20
5.271579865379067
 30
0.0
 11
32.07110634279891
 21
6.723875466419514
 31
0.0
  0
LINE
  5
1D1
330
FB
100
AcDbEntity
  8
0
 62
     0
100
AcDbLine
 10
33.12110634279884
 20
7.77387546641944
 30
0.0
 11
34.52110634279887
 21
9.173875466419474
 31
0.0
  0
LINE
  5
1D2
330
FB
100
AcDbEntity
  8
0
 62
     0
100
AcDbLine
 10
28.92223042393204
 20
3.574999547552607
 30
0.0
 11
30.37452602497245
 21
5.027295148593054
 31
0.0
  0
LINE
  5
1D3
330
FB
100
AcDbEntity
  8
0
 62
     0
100
AcDbLine
 10
30.67110634279885
 20
5.772888272472897
 30
0.0
 11
32.07110634279891
 21
7.172888272472988
 31
0.0
  0
LINE
  5
1D4
330
FB
100
AcDbEntity
  8
0
 62
     0
100
AcDbLine
 10
33.12110634279884
 20
8.222888272472886
 30
0.0
 11
34.52110634279887
 21
9.62288827247292
 31
0.0
  0
LINE
  5
1D5
330
FB
100
AcDbEntity
  8
0
 62
     0
100
AcDbLine
 10
28.52919249356714
 20
3.630974423241184
 30
0.0
 11
29.87321761787857
 21
4.974999547552613
 31
0.0
  0
LINE
  5
1D6
330
FB
100
AcDbEntity
  8
0
 62
     0
100
AcDbLine
 10
30.67110634279882
 20
6.221901078526371
 30
0.0
 11
32.07110634279891
 21
7.621901078526434
 31
0.0
  0
LINE
  5
1D7
330
FB
100
AcDbEntity
  8
0
 62
     0
100
AcDbLine
 10
33.12110634279881
 20
8.67190107852636
 30
0.0
 11
34.52110634279885
 21
10.07190107852639
 31
0.0
  0
LINE
  5
1D8
330
FB
100
AcDbEntity
  8
0
 62
     0
100
AcDbLine
 10
28.21519905996206
 20
3.76599379568961
 30
0.0
 11
29.42464370464728
 21
4.97543844037483
 31
0.0
  0
LINE
  5
1D9
330
FB
100
AcDbEntity
  8
0
 62
     0
100
AcDbLine
 10
30.67110634279888
 20
6.670913884579846
 30
0.0
 11
32.07110634279891
 21
8.07091388457988
 31
0.0
  0
LINE
  5
1DA
330
FB
100
AcDbEntity
  8
0
 62
     0
100
AcDbLine
 10
33.12110634279884
 20
9.120913884579806
 30
0.0
 11
34.52110634279887
 21
10.52091388457981
 31
0.0
  0
LINE
  5
1DB
330
FB
100
AcDbEntity
  8
0
 62
     0
100
AcDbLine
 10
27.95856911927953
 20
3.958376661060469
 30
0.0
 11
29.10290441029093
 21
5.102711952071899
 31
0.0
  0
LINE
  5
1DC
330
FB
100
AcDbEntity
  8
0
 62
     0
100
AcDbLine
 10
30.67110634279888
 20
7.11992669063332
 30
0.0
 11
32.07110634279891
 21
8.519926690633326
 31
0.0
  0
LINE
  5
1DD
330
FB
100
AcDbEntity
  8
0
 62
     0
100
AcDbLine
 10
33.12110634279884
 20
9.569926690633252
 30
0.0
 11
34.5211063427989
 21
10.96992669063331
 31
0.0
  0
LINE
  5
1DE
330
FB
100
AcDbEntity
  8
0
 62
     0
100
AcDbLine
 10
27.753587031667
 20
4.202407379501437
 30
0.0
 11
28.93428527108631
 21
5.383105618920723
 31
0.0
  0
LINE
  5
1DF
330
FB
100
AcDbEntity
  8
0
 62
     0
100
AcDbLine
 10
30.67110634279888
 20
7.568939496686766
 30
0.0
 11
32.07110634279889
 21
8.9689394966868
 31
0.0
  0
LINE
  5
1E0
330
FB
100
AcDbEntity
  8
0
 62
     0
100
AcDbLine
 10
33.12110634279887
 20
10.01893949668675
 30
0.0
 11
34.51603176602359
 21
11.4138649199115
 31
0.0
  0
LINE
  5
1E1
330
FB
100
AcDbEntity
  8
0
 62
     0
100
AcDbLine
 10
27.60362459245005
 20
4.501457746337933
 30
0.0
 11
28.92110634279885
 21
5.818939496686766
 31
0.0
  0
LINE
  5
1E2
330
FB
100
AcDbEntity
  8
0
 62
     0
100
AcDbLine
 10
30.67110634279888
 20
8.017952302740212
 30
0.0
 11
32.07110634279891
 21
9.417952302740246
 31
0.0
  0
LINE
  5
1E3
330
FB
100
AcDbEntity
  8
0
 62
     0
100
AcDbLine
 10
33.12110634279887
 20
10.4679523027402
 30
0.0
 11
34.27747459348376
 21
11.62432055342509
 31
0.0
  0
LINE
  5
1E4
330
FB
100
AcDbEntity
  8
0
 62
     0
100
AcDbLine
 10
27.52491782497183
 20
4.871763784913156
 30
0.0
 11
28.92110634279891
 21
6.267952302740241
 31
0.0
  0
LINE
  5
1E5
330
FB
100
AcDbEntity
  8
0
 62
     0
100
AcDbLine
 10
30.67110634279888
 20
8.466965108793658
 30
0.0
 11
32.07110634279891
 21
9.866965108793692
 31
0.0
  0
LINE
  5
1E6
330
FB
100
AcDbEntity
  8
0
 62
     0
100
AcDbLine
 10
33.12110634279887
 20
10.91696510879365
 30
0.0
 11
33.82914078155781
 21
11.62499954755262
 31
0.0
  0
LINE
  5
1E7
330
FB
100
AcDbEntity
  8
0
 62
     0
100
AcDbLine
 10
27.52110634279887
 20
5.316965108793681
 30
0.0
 11
28.92110634279891
 21
6.716965108793687
 31
0.0
  0
LINE
  5
1E8
330
FB
100
AcDbEntity
  8
0
 62
     0
100
AcDbLine
 10
30.67110634279885
 20
8.915977914847132
 30
0.0
 11
32.07110634279889
 21
10.31597791484716
 31
0.0
  0
LINE
  5
1E9
330
FB
100
AcDbEntity
  8
0
 62
     0
100
AcDbLine
 10
27.52110634279887
 20
5.765977914847127
 30
0.0
 11
28.92110634279888
 21
7.165977914847161
 31
0.0
  0
LINE
  5
1EA
330
FB
100
AcDbEntity
  8
0
 62
     0
100
AcDbLine
 10
33.12112970017259
 20
11.36600127222087
 30
0.0
 11
33.38010461813056
 21
11.62497619017881
 31
0.0
  0
LINE
  5
1EB
330
FB
100
AcDbEntity
  8
0
 62
     0
100
AcDbLine
 10
25.36032852744276
 20
3.605200099491042
 30
0.0
 11
26.44090579086051
 21
4.685777362908794
 31
0.0
  0
LINE
  5
1EC
330
FB
100
AcDbEntity
  8
0
 62
     0
100
AcDbLine
 10
27.52110634279885
 20
6.214990720900601
 30
0.0
 11
28.92110634279888
 21
7.614990720900635
 31
0.0
  0
LINE
  5
1ED
330
FB
100
AcDbEntity
  8
0
 62
     0
100
AcDbLine
 10
30.67110634279885
 20
9.364990720900607
 30
0.0
 11
32.07110634279889
 21
10.76499072090061
 31
0.0
  0
LINE
  5
1EE
330
FB
100
AcDbEntity
  8
0
 62
     0
100
AcDbLine
 10
24.88111516945088
 20
3.574999547552636
 30
0.0
 11
26.47110634279886
 21
5.16499072090059
 31
0.0
  0
LINE
  5
1EF
330
FB
100
AcDbEntity
  8
0
 62
     0
100
AcDbLine
 10
27.52110634279887
 20
6.664003526954019
 30
0.0
 11
28.92110634279891
 21
8.064003526954053
 31
0.0
  0
LINE
  5
1F0
330
FB
100
AcDbEntity
  8
0
 62
     0
100
AcDbLine
 10
30.67110634279888
 20
9.814003526954024
 30
0.0
 11
32.07110634279889
 21
11.21400352695406
 31
0.0
  0
LINE
  5
1F1
330
FB
100
AcDbEntity
  8
0
 62
     0
100
AcDbLine
 10
24.43210236339743
 20
3.574999547552607
 30
0.0
 11
26.47110634279892
 21
5.614003526954064
 31
0.0
  0
LINE
  5
1F2
330
FB
100
AcDbEntity
  8
0
 62
     0
100
AcDbLine
 10
27.52110634279885
 20
7.113016333007493
 30
0.0
 11
28.92110634279888
 21
8.513016333007527
 31
0.0
  0
LINE
  5
1F3
330
FB
100
AcDbEntity
  8
0
 62
     0
100
AcDbLine
 10
30.67110634279885
 20
10.2630163330075
 30
0.0
 11
31.97423761538178
 21
11.56614760559043
 31
0.0
  0
LINE
  5
1F4
330
FB
100
AcDbEntity
  8
0
 62
     0
100
AcDbLine
 10
23.98308955734393
 20
3.574999547552579
 30
0.0
 11
26.4639470425924
 21
6.055857032801014
 31
0.0
  0
LINE
  5
1F5
330
FB
100
AcDbEntity
  8
0
 62
     0
100
AcDbLine
 10
27.52110634279887
 20
7.562029139060996
 30
0.0
 11
28.92110634279888
 21
8.962029139060973
 31
0.0
  0
LINE
  5
1F6
330
FB
100
AcDbEntity
  8
0
 62
     0
100
AcDbLine
 10
30.67110634279885
 20
10.71202913906094
 30
0.0
 11
31.58407675129053
 21
11.62499954755265
 31
0.0
  0
LINE
  5
1F7
330
FB
100
AcDbEntity
  8
0
 62
     0
100
AcDbLine
 10
23.53407675129052
 20
3.574999547552636
 30
0.0
 11
26.396490857278
 21
6.437413653540119
 31
0.0
  0
LINE
  5
1F8
330
FB
100
AcDbEntity
  8
0
 62
     0
100
AcDbLine
 10
27.5211063427989
 20
8.011041945114442
 30
0.0
 11
28.92110634279894
 21
9.411041945114448
 31
0.0
  0
LINE
  5
1F9
330
FB
100
AcDbEntity
  8
0
 62
     0
100
AcDbLine
 10
25.07110634279892
 20
5.561041945114453
 30
0.0
 11
26.27619712881872
 21
6.766132731134263
 31
0.0
  0
LINE
  5
1FA
330
FB
100
AcDbEntity
  8
0
 62
     0
100
AcDbLine
 10
30.67110634279885
 20
11.16104194511439
 30
0.0
 11
31.13506394523711
 21
11.62499954755265
 31
0.0
  0
LINE
  5
1FB
330
FB
100
AcDbEntity
  8
0
 62
     0
100
AcDbLine
 10
23.14919162180268
 20
3.639127224118198
 30
0.0
 11
24.48506394523707
 21
4.974999547552613
 31
0.0
  0
LINE
  5
1FC
330
FB
100
AcDbEntity
  8
0
 62
     0
100
AcDbLine
 10
25.06117105523518
 20
6.000119463604164
 30
0.0
 11
26.11444747638842
 21
7.053395884757406
 31
0.0
  0
LINE
  5
1FD
330
FB
100
AcDbEntity
  8
0
 62
     0
100
AcDbLine
 10
27.5211063427989
 20
8.460054751167888
 30
0.0
 11
28.92110634279891
 21
9.860054751167922
 31
0.0
  0
LINE
  5
1FE
330
FB
100
AcDbEntity
  8
0
 62
     0
100
AcDbLine
 10
23.05860634279884
 20
3.997554751167825
 30
0.0
 11
24.03605113918357
 21
4.974999547552584
 31
0.0
  0
LINE
  5
1FF
330
FB
100
AcDbEntity
  8
0
 62
     0
100
AcDbLine
 10
24.92397863666574
 20
6.311939851088226
 30
0.0
 11
25.91651191742452
 21
7.304473131847004
 31
0.0
  0
LINE
  5
200
330
FB
100
AcDbEntity
  8
0
 62
     0
100
AcDbLine
 10
27.52110634279887
 20
8.909067557221362
 30
0.0
 11
28.92110634279891
 21
10.30906755722139
 31
0.0
  0
LINE
  5
201
330
FB
100
AcDbEntity
  8
0
 62
     0
100
AcDbLine
 10
23.05860634279881
 20
4.4465675572213
 30
0.0
 11
23.58703833313015
 21
4.974999547552641
 31
0.0
  0
LINE
  5
202
330
FB
100
AcDbEntity
  8
0
 62
     0
100
AcDbLine
 10
27.5211063427989
 20
9.35808036327478
 30
0.0
 11
28.92110634279891
 21
10.75808036327481
 31
0.0
  0
LINE
  5
203
330
FB
100
AcDbEntity
  8
0
 62
     0
100
AcDbLine
 10
24.70334118810723
 20
6.540315208583137
 30
0.0
 11
25.69329068176839
 21
7.530264702244295
 31
0.0
  0
LINE
  5
204
330
FB
100
AcDbEntity
  8
0
 62
     0
100
AcDbLine
 10
24.4788347850805
 20
6.764821611609875
 30
0.0
 11
25.46878427874165
 21
7.754771105271032
 31
0.0
  0
LINE
  5
205
330
FB
100
AcDbEntity
  8
0
 62
     0
100
AcDbLine
 10
27.52110634279887
 20
9.807093169328254
 30
0.0
 11
28.92110634279891
 21
11.20709316932829
 31
0.0
  0
LINE
  5
206
330
FB
100
AcDbEntity
  8
0
 62
     0
100
AcDbLine
 10
21.28901272102325
 20
3.574999547552636
 30
0.0
 11
21.74610634279887
 21
4.032093169328248
 31
0.0
  0
LINE
  5
207
330
FB
100
AcDbEntity
  8
0
 62
     0
100
AcDbLine
 10
24.25432838205381
 20
6.98932801463664
 30
0.0
 11
25.24427787571492
 21
7.979277508297769
 31
0.0
  0
LINE
  5
208
330
FB
100
AcDbEntity
  8
0
 62
     0
100
AcDbLine
 10
27.52110634279887
 20
10.25610597538173
 30
0.0
 11
28.82801588874944
 21
11.56301552133229
 31
0.0
  0
LINE
  5
209
330
FB
100
AcDbEntity
  8
0
 62
     0
100
AcDbLine
 10
20.83999991496975
 20
3.574999547552607
 30
0.0
 11
21.74610634279887
 21
4.481105975381723
 31
0.0
  0
LINE
  5
20A
330
FB
100
AcDbEntity
  8
0
 62
     0
100
AcDbLine
 10
24.02982197902702
 20
7.213834417663349
 30
0.0
 11
25.01977147268818
 21
8.203783911324507
 31
0.0
  0
LINE
  5
20B
330
FB
100
AcDbEntity
  8
0
 62
     0
100
AcDbLine
 10
27.52110634279887
 20
10.70511878143517
 30
0.0
 11
28.44098710891632
 21
11.62499954755265
 31
0.0
  0
LINE
  5
20C
330
FB
100
AcDbEntity
  8
0
 62
     0
100
AcDbLine
 10
20.44679267784733
 20
3.630805116483657
 30
0.0
 11
21.74610634279887
 21
4.930118781435169
 31
0.0
  0
LINE
  5
20D
330
FB
100
AcDbEntity
  8
0
 62
     0
100
AcDbLine
 10
23.80531557600031
 20
7.438340820690058
 30
0.0
 11
24.79526506966147
 21
8.428290314351215
 31
0.0
  0
LINE
  5
20E
330
FB
100
AcDbEntity
  8
0
 62
     0
100
AcDbLine
 10
27.52110634279887
 20
11.15413158748862
 30
0.0
 11
27.99197430286287
 21
11.62499954755262
 31
0.0
  0
LINE
  5
20F
330
FB
100
AcDbEntity
  8
0
 62
     0
100
AcDbLine
 10
20.34610634279889
 20
3.979131587488637
 30
0.0
 11
21.74610634279887
 21
5.379131587488615
 31
0.0
  0
LINE
  5
210
330
FB
100
AcDbEntity
  8
0
 62
     0
100
AcDbLine
 10
23.58080917297357
 20
7.662847223716795
 30
0.0
 11
24.57075866663473
 21
8.652796717377952
 31
0.0
  0
LINE
  5
211
330
FB
100
AcDbEntity
  8
0
 62
     0
100
AcDbLine
 10
20.34610634279886
 20
4.428144393542083
 30
0.0
 11
21.74610634279887
 21
5.828144393542061
 31
0.0
  0
LINE
  5
212
330
FB
100
AcDbEntity
  8
0
 62
     0
100
AcDbLine
 10
23.35731722245293
 20
7.88836807924963
 30
0.0
 11
24.34930398914392
 21
8.880354845940615
 31
0.0
  0
LINE
  5
213
330
FB
100
AcDbEntity
  8
0
 62
     0
100
AcDbLine
 10
20.34610634279886
 20
4.877157199595558
 30
0.0
 11
21.74610634279884
 21
6.277157199595535
 31
0.0
  0
LINE
  5
214
330
FB
100
AcDbEntity
  8
0
 62
     0
100
AcDbLine
 10
25.69394869075592
 20
10.22499954755261
 30
0.0
 11
26.20860634279888
 21
10.73965719959557
 31
0.0
  0
LINE
  5
215
330
FB
100
AcDbEntity
  8
0
 62
     0
100
AcDbLine
 10
19.09977823044335
 20
3.630829087240044
 30
0.0
 11
19.14460441117165
 21
3.675655267968352
 31
0.0
  0
LINE
  5
216
330
FB
100
AcDbEntity
  8
0
 62
     0
100
AcDbLine
 10
23.15831613304195
 20
8.138379795892063
 30
0.0
 11
24.20813327175128
 21
9.188196934601393
 31
0.0
  0
LINE
  5
217
330
FB
100
AcDbEntity
  8
0
 62
     0
100
AcDbLine
 10
20.34610634279889
 20
5.326170005648975
 30
0.0
 11
21.74610634279887
 21
6.726170005648981
 31
0.0
  0
LINE
  5
218
330
FB
100
AcDbEntity
  8
0
 62
     0
100
AcDbLine
 10
25.2449358847025
 20
10.22499954755258
 30
0.0
 11
26.2086063427989
 21
11.18867000564899
 31
0.0
  0
LINE
  5
219
330
FB
100
AcDbEntity
  8
0
 62
     0
100
AcDbLine
 10
18.59493588470249
 20
3.574999547552607
 30
0.0
 11
19.12782543285581
 21
4.1078890957059
 31
0.0
  0
LINE
  5
21A
330
FB
100
AcDbEntity
  8
0
 62
     0
100
AcDbLine
 10
22.99539900084358
 20
8.424475469747164
 30
0.0
 11
24.19610634279889
 21
9.625182811702472
 31
0.0
  0
LINE
  5
21B
330
FB
100
AcDbEntity
  8
0
 62
     0
100
AcDbLine
 10
20.34610634279886
 20
5.77518281170245
 30
0.0
 11
21.74610634279887
 21
7.175182811702427
 31
0.0
  0
LINE
  5
21C
330
FB
100
AcDbEntity
  8
0
 62
     0
100
AcDbLine
 10
24.79592307864903
 20
10.22499954755261
 30
0.0
 11
26.12527187689989
 21
11.55434834580347
 31
0.0
  0
LINE
  5
21D
330
FB
100
AcDbEntity
  8
0
 62
     0
100
AcDbLine
 10
18.14592307864899
 20
3.574999547552579
 30
0.0
 11
19.02006235940297
 21
4.44913882830653
 31
0.0
  0
LINE
  5
21E
330
FB
100
AcDbEntity
  8
0
 62
     0
100
AcDbLine
 10
20.34610634279886
 20
6.224195617755896
 30
0.0
 11
21.74610634279884
 21
7.624195617755901
 31
0.0
  0
LINE
  5
21F
330
FB
100
AcDbEntity
  8
0
 62
     0
100
AcDbLine
 10
22.87370796950859
 20
8.751797244465649
 30
0.0
 11
25.74691027259559
 21
11.62499954755265
 31
0.0
  0
LINE
  5
220
330
FB
100
AcDbEntity
  8
0
 62
     0
100
AcDbLine
 10
17.84991592332159
 20
3.728005198278623
 30
0.0
 11
18.91229928595013
 21
4.79038856090716
 31
0.0
  0
LINE
  5
221
330
FB
100
AcDbEntity
  8
0
 62
     0
100
AcDbLine
 10
20.34610634279883
 20
6.67320842380937
 30
0.0
 11
21.74610634279884
 21
8.073208423809347
 31
0.0
  0
LINE
  5
222
330
FB
100
AcDbEntity
  8
0
 62
     0
100
AcDbLine
 10
22.80435453996574
 20
9.13145662097628
 30
0.0
 11
25.29789746654214
 21
11.62499954755265
 31
0.0
  0
LINE
  5
223
330
FB
100
AcDbEntity
  8
0
 62
     0
100
AcDbLine
 10
17.74053621249726
 20
4.067638293507769
 30
0.0
 11
18.80453621249728
 21
5.131638293507819
 31
0.0
  0
LINE
  5
224
330
FB
100
AcDbEntity
  8
0
 62
     0
100
AcDbLine
 10
20.34610634279889
 20
7.122221229862844
 30
0.0
 11
21.74610634279884
 21
8.522221229862793
 31
0.0
  0
LINE
  5
225
330
FB
100
AcDbEntity
  8
0
 62
     0
100
AcDbLine
 10
22.79610634279885
 20
9.572221229862805
 30
0.0
 11
24.84888466048869
 21
11.62499954755265
 31
0.0
  0
LINE
  5
226
330
FB
100
AcDbEntity
  8
0
 62
     0
100
AcDbLine
 10
17.63277313904439
 20
4.408888026108343
 30
0.0
 11
18.69677313904449
 21
5.472888026108449
 31
0.0
  0
LINE
  5
227
330
FB
100
AcDbEntity
  8
0
 62
     0
100
AcDbLine
 10
20.34610634279889
 20
7.571234035916319
 30
0.0
 11
21.74610634279884
 21
8.971234035916268
 31
0.0
  0
LINE
  5
228
330
FB
100
AcDbEntity
  8
0
 62
     0
100
AcDbLine
 10
22.79610634279885
 20
10.02123403591625
 30
0.0
 11
24.39987185443525
 21
11.62499954755265
 31
0.0
  0
LINE
  5
229
330
FB
100
AcDbEntity
  8
0
 62
     0
100
AcDbLine
 10
17.5250100655916
 20
4.750137758709001
 30
0.0
 11
18.58901006559162
 21
5.814137758709051
 31
0.0
  0
LINE
  5
22A
330
FB
100
AcDbEntity
  8
0
 62
     0
100
AcDbLine
 10
20.34610634279889
 20
8.020246841969765
 30
0.0
 11
21.74610634279884
 21
9.420246841969714
 31
0.0
  0
LINE
  5
22B
330
FB
100
AcDbEntity
  8
0
 62
     0
100
AcDbLine
 10
17.41724699213875
 20
5.09138749130966
 30
0.0
 11
18.48124699213883
 21
6.15538749130971
 31
0.0
  0
LINE
  5
22C
330
FB
100
AcDbEntity
  8
0
 62
     0
100
AcDbLine
 10
22.82276467785957
 20
10.49690517703044
 30
0.0
 11
23.92420071332105
 21
11.59834121249193
 31
0.0
  0
LINE
  5
22D
330
FB
100
AcDbEntity
  8
0
 62
     0
100
AcDbLine
 10
15.9008590483817
 20
3.574999547552607
 30
0.0
 11
16.32110634279888
 21
3.995246841969787
 31
0.0
  0
LINE
  5
22E
330
FB
100
AcDbEntity
  8
0
 62
     0
100
AcDbLine
 10
17.30948391868594
 20
5.432637223910262
 30
0.0
 11
18.37348391868596
 21
6.496637223910283
 31
0.0
  0
LINE
  5
22F
330
FB
100
AcDbEntity
  8
0
 62
     0
100
AcDbLine
 10
20.34610634279889
 20
8.469259648023211
 30
0.0
 11
21.74610634279884
 21
9.86925964802316
 31
0.0
  0
LINE
  5
230
330
FB
100
AcDbEntity
  8
0
 62
     0
100
AcDbLine
 10
15.45184624232829
 20
3.574999547552579
 30
0.0
 11
16.32110634279891
 21
4.444259648023205
 31
0.0
  0
LINE
  5
231
330
FB
100
AcDbEntity
  8
0
 62
     0
100
AcDbLine
 10
17.20172084523307
 20
5.773886956510835
 30
0.0
 11
18.26572084523317
 21
6.837886956510942
 31
0.0
  0
LINE
  5
232
330
FB
100
AcDbEntity
  8
0
 62
     0
100
AcDbLine
 10
20.34610634279889
 20
8.918272454076657
 30
0.0
 11
21.74610634279884
 21
10.3182724540766
 31
0.0
  0
LINE
  5
233
330
FB
100
AcDbEntity
  8
0
 62
     0
100
AcDbLine
 10
15.04340831010052
 20
3.615574421378283
 30
0.0
 11
16.32110634279888
 21
4.893272454076679
 31
0.0
  0
LINE
  5
234
330
FB
100
AcDbEntity
  8
0
 62
     0
100
AcDbLine
 10
17.09395777178025
 20
6.115136689111523
 30
0.0
 11
18.15795777178027
 21
7.179136689111544
 31
0.0
  0
LINE
  5
235
330
FB
100
AcDbEntity
  8
0
 62
     0
100
AcDbLine
 10
20.34610634279886
 20
9.367285260130131
 30
0.0
 11
21.74610634279881
 21
10.76728526013008
 31
0.0
  0
LINE
  5
236
330
FB
100
AcDbEntity
  8
0
 62
     0
100
AcDbLine
 10
14.92110634279885
 20
3.94228526013012
 30
0.0
 11
16.32110634279888
 21
5.342285260130154
 31
0.0
  0
LINE
  5
237
330
FB
100
AcDbEntity
  8
0
 62
     0
100
AcDbLine
 10
16.98619469832744
 20
6.456386421712124
 30
0.0
 11
18.05019469832751
 21
7.520386421712203
 31
0.0
  0
LINE
  5
238
330
FB
100
AcDbEntity
  8
0
 62
     0
100
AcDbLine
 10
20.34610634279889
 20
9.816298066183577
 30
0.0
 11
21.74610634279884
 21
11.21629806618352
 31
0.0
  0
LINE
  5
239
330
FB
100
AcDbEntity
  8
0
 62
     0
100
AcDbLine
 10
14.92110634279888
 20
4.391298066183537
 30
0.0
 11
16.32110634279894
 21
5.791298066183628
 31
0.0
  0
LINE
  5
23A
330
FB
100
AcDbEntity
  8
0
 62
     0
100
AcDbLine
 10
16.86879530484151
 20
6.787999834279673
 30
0.0
 11
18.18394233880707
 21
8.103146868245232
 31
0.0
  0
LINE
  5
23B
330
FB
100
AcDbEntity
  8
0
 62
     0
100
AcDbLine
 10
20.34610634279892
 20
10.26531087223708
 30
0.0
 11
21.64796863154962
 21
11.56717316098775
 31
0.0
  0
LINE
  5
23C
330
FB
100
AcDbEntity
  8
0
 62
     0
100
AcDbLine
 10
14.92110634279885
 20
4.840310872237012
 30
0.0
 11
16.32110634279894
 21
6.240310872237074
 31
0.0
  0
LINE
  5
23D
330
FB
100
AcDbEntity
  8
0
 62
     0
100
AcDbLine
 10
16.52520261990779
 20
6.893419955399423
 30
0.0
 11
18.39117901852407
 21
8.759396354015706
 31
0.0
  0
LINE
  5
23E
330
FB
100
AcDbEntity
  8
0
 62
     0
100
AcDbLine
 10
14.92110634279885
 20
5.289323678290486
 30
0.0
 11
16.32768593495208
 21
6.695903270443722
 31
0.0
  0
LINE
  5
23F
330
FB
100
AcDbEntity
  8
0
 62
     0
100
AcDbLine
 10
20.34610634279892
 20
10.71432367829052
 30
0.0
 11
21.25678221206101
 21
11.62499954755265
 31
0.0
  0
LINE
  5
240
330
FB
100
AcDbEntity
  8
0
 62
     0
100
AcDbLine
 10
13.206782212061
 20
3.574999547552607
 30
0.0
 11
13.69610634279891
 21
4.064323678290548
 31
0.0
  0
LINE
  5
241
330
FB
100
AcDbEntity
  8
0
 62
     0
100
AcDbLine
 10
14.92110634279885
 20
5.738336484343932
 30
0.0
 11
18.59841569824107
 21
9.415645839786179
 31
0.0
  0
LINE
  5
242
330
FB
100
AcDbEntity
  8
0
 62
     0
100
AcDbLine
 10
20.34610634279889
 20
11.163336484344
 30
0.0
 11
20.80776940600754
 21
11.62499954755265
 31
0.0
  0
LINE
  5
243
330
FB
100
AcDbEntity
  8
0
 62
     0
100
AcDbLine
 10
12.75776940600752
 20
3.574999547552636
 30
0.0
 11
13.69610634279891
 21
4.513336484343994
 31
0.0
  0
LINE
  5
244
330
FB
100
AcDbEntity
  8
0
 62
     0
100
AcDbLine
 10
14.92110634279891
 20
6.187349290397406
 30
0.0
 11
18.8056523779581
 21
10.07189532555662
 31
0.0
  0
LINE
  5
245
330
FB
100
AcDbEntity
  8
0
 62
     0
100
AcDbLine
 10
12.31459691212913
 20
3.58083985972766
 30
0.0
 11
13.62543920099574
 21
4.891682148594242
 31
0.0
  0
LINE
  5
246
330
FB
100
AcDbEntity
  8
0
 62
     0
100
AcDbLine
 10
14.92110634279888
 20
6.636362096450881
 30
0.0
 11
16.58474379390063
 21
8.29999954755263
 31
0.0
  0
LINE
  5
247
330
FB
100
AcDbEntity
  8
0
 62
     0
100
AcDbLine
 10
16.96673521152115
 20
8.681990965173127
 30
0.0
 11
19.01288905767507
 21
10.72814481132707
 31
0.0
  0
LINE
  5
248
330
FB
100
AcDbEntity
  8
0
 62
     0
100
AcDbLine
 10
11.93051665340564
 20
3.64577240705762
 30
0.0
 11
13.25974379390061
 21
4.974999547552613
 31
0.0
  0
LINE
  5
249
330
FB
100
AcDbEntity
  8
0
 62
     0
100
AcDbLine
 10
14.92110634279888
 20
7.085374902504327
 30
0.0
 11
16.33010162815302
 21
8.494370187858493
 31
0.0
  0
LINE
  5
24A
330
FB
100
AcDbEntity
  8
0
 62
     0
100
AcDbLine
 10
17.1739718912381
 20
9.338240450943573
 30
0.0
 11
19.20042478357572
 21
11.3646933432812
 31
0.0
  0
LINE
  5
24B
330
FB
100
AcDbEntity
  8
0
 62
     0
100
AcDbLine
 10
11.59994952499244
 20
3.764218084697915
 30
0.0
 11
12.81073098784716
 21
4.974999547552613
 31
0.0
  0
LINE
  5
24C
330
FB
100
AcDbEntity
  8
0
 62
     0
100
AcDbLine
 10
14.92110634279888
 20
7.534387708557773
 30
0.0
 11
16.32110634279891
 21
8.934387708557807
 31
0.0
  0
LINE
  5
24D
330
FB
100
AcDbEntity
  8
0
 62
     0
100
AcDbLine
 10
17.38120857095509
 20
9.994489936713989
 30
0.0
 11
19.00341884729104
 21
11.61670021304994
 31
0.0
  0
LINE
  5
24E
330
FB
100
AcDbEntity
  8
0
 62
     0
100
AcDbLine
 10
11.31114788291029
 20
3.924429248669156
 30
0.0
 11
12.36917881215672
 21
4.982460177915612
 31
0.0
  0
LINE
  5
24F
330
FB
100
AcDbEntity
  8
0
 62
     0
100
AcDbLine
 10
14.92110634279888
 20
7.983400514611247
 30
0.0
 11
16.32110634279891
 21
9.383400514611253
 31
0.0
  0
LINE
  5
250
330
FB
100
AcDbEntity
  8
0
 62
     0
100
AcDbLine
 10
17.58844525067206
 20
10.6507394224844
 30
0.0
 11
18.56270537574025
 21
11.62499954755262
 31
0.0
  0
LINE
  5
251
330
FB
100
AcDbEntity
  8
0
 62
     0
100
AcDbLine
 10
11.05867039971926
 20
4.120964571531601
 30
0.0
 11
12.05202074164757
 21
5.114314913459907
 31
0.0
  0
LINE
  5
252
330
FB
100
AcDbEntity
  8
0
 62
     0
100
AcDbLine
 10
14.92110634279888
 20
8.432413320664693
 30
0.0
 11
16.32110634279888
 21
9.832413320664727
 31
0.0
  0
LINE
  5
253
330
FB
100
AcDbEntity
  8
0
 62
     0
100
AcDbLine
 10
13.25192340868696
 20
6.763230386552805
 30
0.0
 11
13.83287550379867
 21
7.344182481664518
 31
0.0
  0
LINE
  5
254
330
FB
100
AcDbEntity
  8
0
 62
     0
100
AcDbLine
 10
17.79568193038901
 20
11.30698890825485
 30
0.0
 11
18.11369256968677
 21
11.62499954755262
 31
0.0
  0
LINE
  5
255
330
FB
100
AcDbEntity
  8
0
 62
     0
100
AcDbLine
 10
10.84045186305434
 20
4.351758840920183
 30
0.0
 11
11.84689526601147
 21
5.358202243877315
 31
0.0
  0
LINE
  5
256
330
FB
100
AcDbEntity
  8
0
 62
     0
100
AcDbLine
 10
12.78943698787211
 20
6.749756771791425
 30
0.0
 11
13.84634911856005
 21
7.806668902479373
 31
0.0
  0
LINE
  5
257
330
FB
100
AcDbEntity
  8
0
 62
     0
100
AcDbLine
 10
14.92110634279885
 20
8.881426126718167
 30
0.0
 11
16.32110634279888
 21
10.2814261267182
 31
0.0
  0
LINE
  5
258
330
FB
100
AcDbEntity
  8
0
 62
     0
100
AcDbLine
 10
10.65694225058286
 20
4.617262034502147
 30
0.0
 11
11.7711063427989
 21
5.73142612671819
 31
0.0
  0
LINE
  5
259
330
FB
100
AcDbEntity
  8
0
 62
     0
100
AcDbLine
 10
12.48236370316204
 20
6.891696293134742
 30
0.0
 11
13.70440959721671
 21
8.113742187189444
 31
0.0
  0
LINE
  5
25A
330
FB
100
AcDbEntity
  8
0
 62
     0
100
AcDbLine
 10
14.92110634279888
 20
9.330438932771585
 30
0.0
 11
16.32110634279891
 21
10.73043893277162
 31
0.0
  0
LINE
  5
25B
330
FB
100
AcDbEntity
  8
0
 62
     0
100
AcDbLine
 10
10.51128349562049
 20
4.920616085593223
 30
0.0
 11
11.7711063427989
 21
6.180438932771636
 31
0.0
  0
LINE
  5
25C
330
FB
100
AcDbEntity
  8
0
 62
     0
100
AcDbLine
 10
12.26338373966717
 20
7.121729135693385
 30
0.0
 11
13.47437675465809
 21
8.332722150684276
 31
0.0
  0
LINE
  5
25D
330
FB
100
AcDbEntity
  8
0
 62
     0
100
AcDbLine
 10
14.92110634279885
 20
9.779451738825059
 30
0.0
 11
16.32110634279894
 21
11.17945173882512
 31
0.0
  0
LINE
  5
25E
330
FB
100
AcDbEntity
  8
0
 62
     0
100
AcDbLine
 10
10.41071481353316
 20
5.26906020955937
 30
0.0
 11
11.7711063427989
 21
6.62945173882511
 31
0.0
  0
LINE
  5
25F
330
FB
100
AcDbEntity
  8
0
 62
     0
100
AcDbLine
 10
12.13535837346302
 20
7.442716575542704
 30
0.0
 11
13.15338931480878
 21
8.46074751688846
 31
0.0
  0
LINE
  5
260
330
FB
100
AcDbEntity
  8
0
 62
     0
100
AcDbLine
 10
10.37110634279881
 20
5.678464544878494
 30
0.0
 11
11.77110634279887
 21
7.078464544878556
 31
0.0
  0
LINE
  5
261
330
FB
100
AcDbEntity
  8
0
 62
     0
100
AcDbLine
 10
14.92110634279885
 20
10.22846454487853
 30
0.0
 11
16.24248128862126
 21
11.54983949070095
 31
0.0
  0
LINE
  5
262
330
FB
100
AcDbEntity
  8
0
 62
     0
100
AcDbLine
 10
8.328107963860986
 20
3.63546616594067
 30
0.0
 11
9.26063972441085
 21
4.567997926490534
 31
0.0
  0
LINE
  5
263
330
FB
100
AcDbEntity
  8
0
 62
     0
100
AcDbLine
 10
12.19456491520344
 20
7.950935923336515
 30
0.0
 11
12.64516996701493
 21
8.401540975148037
 31
0.0
  0
LINE
  5
264
330
FB
100
AcDbEntity
  8
0
 62
     0
100
AcDbLine
 10
10.37110634279887
 20
6.127477350931968
 30
0.0
 11
11.7711063427989
 21
7.527477350932002
 31
0.0
  0
LINE
  5
265
330
FB
100
AcDbEntity
  8
0
 62
     0
100
AcDbLine
 10
14.92110634279888
 20
10.67747735093195
 30
0.0
 11
15.86862853941951
 21
11.62499954755262
 31
0.0
  0
LINE
  5
266
330
FB
100
AcDbEntity
  8
0
 62
     0
100
AcDbLine
 10
7.818628539419506
 20
3.574999547552607
 30
0.0
 11
9.321106342798913
 21
5.077477350932014
 31
0.0
  0
LINE
  5
267
330
FB
100
AcDbEntity
  8
0
 62
     0
100
AcDbLine
 10
10.37110634279887
 20
6.576490156985443
 30
0.0
 11
11.7711063427989
 21
7.976490156985448
 31
0.0
  0
LINE
  5
268
330
FB
100
AcDbEntity
  8
0
 62
     0
100
AcDbLine
 10
14.92110634279891
 20
11.12649015698545
 30
0.0
 11
15.41961573336607
 21
11.62499954755265
 31
0.0
  0
LINE
  5
269
330
FB
100
AcDbEntity
  8
0
 62
     0
100
AcDbLine
 10
7.369615733366003
 20
3.574999547552579
 30
0.0
 11
9.321106342798941
 21
5.526490156985516
 31
0.0
  0
LINE
  5
26A
330
FB
100
AcDbEntity
  8
0
 62
     0
100
AcDbLine
 10
10.37110634279887
 20
7.025502963038888
 30
0.0
 11
11.77110634279887
 21
8.425502963038923
 31
0.0
  0
LINE
  5
26B
330
FB
100
AcDbEntity
  8
0
 62
     0
100
AcDbLine
 10
6.920602927312586
 20
3.574999547552636
 30
0.0
 11
9.319136666518289
 21
5.973533286758339
 31
0.0
  0
LINE
  5
26C
330
FB
100
AcDbEntity
  8
0
 62
     0
100
AcDbLine
 10
10.37110634279887
 20
7.474515769092363
 30
0.0
 11
11.7711063427989
 21
8.874515769092397
 31
0.0
  0
LINE
  5
26D
330
FB
100
AcDbEntity
  8
0
 62
     0
100
AcDbLine
 10
13.12159012125917
 20
10.22499954755267
 30
0.0
 11
13.69610634279891
 21
10.79951576909241
 31
0.0
  0
LINE
  5
26E
330
FB
100
AcDbEntity
  8
0
 62
     0
100
AcDbLine
 10
6.471590121259112
 20
3.574999547552607
 30
0.0
 11
9.264305748357571
 21
6.367715174651067
 31
0.0
  0
LINE
  5
26F
330
FB
100
AcDbEntity
  8
0
 62
     0
100
AcDbLine
 10
10.37110634279887
 20
7.92352857514578
 30
0.0
 11
11.77110634279887
 21
9.323528575145815
 31
0.0
  0
LINE
  5
270
330
FB
100
AcDbEntity
  8
0
 62
     0
100
AcDbLine
 10
7.921106342798879
 20
5.473528575145792
 30
0.0
 11
9.153136376335567
 21
6.70555860868248
 31
0.0
  0
LINE
  5
271
330
FB
100
AcDbEntity
  8
0
 62
     0
100
AcDbLine
 10
12.67257731520567
 20
10.22499954755261
 30
0.0
 11
13.69610634279891
 21
11.24852857514585
 31
0.0
  0
LINE
  5
272
330
FB
100
AcDbEntity
  8
0
 62
     0
100
AcDbLine
 10
6.051440252835647
 20
3.603862485182588
 30
0.0
 11
7.422577315205671
 21
4.974999547552613
 31
0.0
  0
LINE
  5
273
330
FB
100
AcDbEntity
  8
0
 62
     0
100
AcDbLine
 10
10.37110634279884
 20
8.372541381199255
 30
0.0
 11
11.85401369568865
 21
9.855448734089065
 31
0.0
  0
LINE
  5
274
330
FB
100
AcDbEntity
  8
0
 62
     0
100
AcDbLine
 10
7.920026796994193
 20
5.92146183539458
 30
0.0
 11
8.998920608999497
 21
7.000355647399914
 31
0.0
  0
LINE
  5
275
330
FB
100
AcDbEntity
  8
0
 62
     0
100
AcDbLine
 10
12.14065715626242
 20
10.14209219466283
 30
0.0
 11
13.57937263533887
 21
11.58080767373928
 31
0.0
  0
LINE
  5
276
330
FB
100
AcDbEntity
  8
0
 62
     0
100
AcDbLine
 10
5.908606342798861
 20
3.910041381199278
 30
0.0
 11
6.973564509152225
 21
4.974999547552613
 31
0.0
  0
LINE
  5
277
330
FB
100
AcDbEntity
  8
0
 62
     0
100
AcDbLine
 10
7.810225287243838
 20
6.260673131697728
 30
0.0
 11
8.807799626580049
 21
7.258247471033939
 31
0.0
  0
LINE
  5
278
330
FB
100
AcDbEntity
  8
0
 62
     0
100
AcDbLine
 10
10.37110634279884
 20
8.821554187252729
 30
0.0
 11
13.17455170309878
 21
11.62499954755267
 31
0.0
  0
LINE
  5
279
330
FB
100
AcDbEntity
  8
0
 62
     0
100
AcDbLine
 10
5.908606342798861
 20
4.359054187252723
 30
0.0
 11
6.524551703098751
 21
4.974999547552641
 31
0.0
  0
LINE
  5
27A
330
FB
100
AcDbEntity
  8
0
 62
     0
100
AcDbLine
 10
7.597097873091513
 20
6.496558523598821
 30
0.0
 11
8.58704736675267
 21
7.486508017259978
 31
0.0
  0
LINE
  5
27B
330
FB
100
AcDbEntity
  8
0
 62
     0
100
AcDbLine
 10
10.37110634279884
 20
9.270566993306147
 30
0.0
 11
12.72553889704525
 21
11.62499954755256
 31
0.0
  0
LINE
  5
27C
330
FB
100
AcDbEntity
  8
0
 62
     0
100
AcDbLine
 10
5.943082303808694
 20
4.842542954316002
 30
0.0
 11
6.041062936035501
 21
4.940523586542809
 31
0.0
  0
LINE
  5
27D
330
FB
100
AcDbEntity
  8
0
 62
     0
100
AcDbLine
 10
10.38109389987707
 20
9.729567356437826
 30
0.0
 11
12.26653853391357
 21
11.61501199047435
 31
0.0
  0
LINE
  5
27E
330
FB
100
AcDbEntity
  8
0
 62
     0
100
AcDbLine
 10
7.372591470064776
 20
6.721064926625558
 30
0.0
 11
8.362540963725933
 21
7.711014420286716
 31
0.0
  0
LINE
  5
27F
330
FB
100
AcDbEntity
  8
0
 62
     0
100
AcDbLine
 10
10.53082561600996
 20
10.32831187862422
 30
0.0
 11
11.66779401172721
 21
11.46528027434146
 31
0.0
  0
LINE
  5
280
330
FB
100
AcDbEntity
  8
0
 62
     0
100
AcDbLine
 10
7.148085067038039
 20
6.945571329652295
 30
0.0
 11
8.138034560699196
 21
7.935520823313453
 31
0.0
  0
LINE
  5
281
330
FB
100
AcDbEntity
  8
0
 62
     0
100
AcDbLine
 10
6.92357866401133
 20
7.170077732679004
 30
0.0
 11
7.913528157672487
 21
8.160027226340162
 31
0.0
  0
LINE
  5
282
330
FB
100
AcDbEntity
  8
0
 62
     0
100
AcDbLine
 10
6.699072260984593
 20
7.394584135705741
 30
0.0
 11
7.68902175464575
 21
8.384533629366899
 31
0.0
  0
LINE
  5
283
330
FB
100
AcDbEntity
  8
0
 62
     0
100
AcDbLine
 10
6.474565857957827
 20
7.61909053873245
 30
0.0
 11
7.464515351619013
 21
8.609040032393636
 31
0.0
  0
LINE
  5
284
330
FB
100
AcDbEntity
  8
0
 62
     0
100
AcDbLine
 10
8.631462060724544
 20
10.22499954755261
 30
0.0
 11
9.058606342798867
 21
10.65214382962696
 31
0.0
  0
LINE
  5
285
330
FB
100
AcDbEntity
  8
0
 62
     0
100
AcDbLine
 10
6.250101111945156
 20
7.843638598773253
 30
0.0
 11
7.240133933661439
 21
8.833671420489537
 31
0.0
  0
LINE
  5
286
330
FB
100
AcDbEntity
  8
0
 62
     0
100
AcDbLine
 10
8.182449254671098
 20
10.22499954755261
 30
0.0
 11
9.058606342798896
 21
11.10115663568038
 31
0.0
  0
LINE
  5
287
330
FB
100
AcDbEntity
  8
0
 62
     0
100
AcDbLine
 10
6.044367149669369
 20
8.086917442550856
 30
0.0
 11
7.075185493017499
 21
9.117735785899014
 31
0.0
  0
LINE
  5
288
330
FB
100
AcDbEntity
  8
0
 62
     0
100
AcDbLine
 10
7.733436448617624
 20
10.22499954755261
 30
0.0
 11
9.015326892918295
 21
11.50688999185328
 31
0.0
  0
LINE
  5
289
330
FB
100
AcDbEntity
  8
0
 62
     0
100
AcDbLine
 10
5.874136846538135
 20
8.365699945473096
 30
0.0
 11
7.04610634279885
 21
9.537669441733811
 31
0.0
  0
LINE
  5
28A
330
FB
100
AcDbEntity
  8
0
 62
     0
100
AcDbLine
 10
7.283190317979148
 20
10.22376622296761
 30
0.0
 11
8.684423642564155
 21
11.62499954755262
 31
0.0
  0
LINE
  5
28B
330
FB
100
AcDbEntity
  8
0
 62
     0
100
AcDbLine
 10
5.743790198672087
 20
8.684366103660522
 30
0.0
 11
7.047339667383937
 21
9.987915572372401
 31
0.0
  0
LINE
  5
28C
330
FB
100
AcDbEntity
  8
0
 62
     0
100
AcDbLine
 10
5.662884217548054
 20
9.052472928589935
 30
0.0
 11
8.235410836510766
 21
11.62499954755265
 31
0.0
  0
LINE
  5
28D
330
FB
100
AcDbEntity
  8
0
 62
     0
100
AcDbLine
 10
5.646106342798901
 20
9.484707859894228
 30
0.0
 11
7.786398030457263
 21
11.62499954755262
 31
0.0
  0
LINE
  5
28E
330
FB
100
AcDbEntity
  8
0
 62
     0
100
AcDbLine
 10
5.646106342798873
 20
9.933720665947703
 30
0.0
 11
7.337385224403789
 21
11.62499954755262
 31
0.0
  0
LINE
  5
28F
330
FB
100
AcDbEntity
  8
0
 62
     0
100
AcDbLine
 10
5.656202348018041
 20
10.39282947722032
 30
0.0
 11
6.878276413131175
 21
11.61490354233345
 31
0.0
  0
ENDBLK
  5
290
330
FB
100
AcDbEntity
  8
0
100
AcDbBlockEnd
  0
BLOCK
  5
5DF
330
5D5
100
AcDbEntity
  8
0
100
AcDbBlockBegin
  2
*D3
 70
     1
 10
0.0
 20
0.0
 30
0.0
  3
*D3
  1

  0
LINE
  5
635
330
5D5
100
AcDbEntity
  8
SUNPOU
 62
     0
370
    -2
100
AcDbLine
 10
259.4099411418817
 20
274.6169730476808
 30
0.0
 11
316.3094848025233
 21
274.6169730476808
 31
0.0
  0
LINE
  5
636
330
5D5
100
AcDbEntity
  8
SUNPOU
 62
     0
370
    -2
100
AcDbLine
 10
259.4099411418818
 20
208.9169730476807
 30
0.0
 11
316.3094848025233
 21
208.9169730476807
 31
0.0
  0
LINE
  5
637
330
5D5
100
AcDbEntity
  8
SUNPOU
 62
     0
370
    -2
100
AcDbLine
 10
315.3094848025233
 20
271.3149730476808
 30
0.0
 11
315.3094848025233
 21
212.2189730476808
 31
0.0
  0
SOLID
  5
638
330
5D5
100
AcDbEntity
  8
SUNPOU
 62
     0
100
AcDbTrace
 10
314.75915146919
 20
271.3149730476808
 30
0.0
 11
315.8598181358566
 21
271.3149730476808
 31
0.0
 12
315.3094848025233
 22
274.6169730476808
 32
0.0
 13
315.3094848025233
 23
274.6169730476808
 33
0.0
  0
SOLID
  5
639
330
5D5
100
AcDbEntity
  8
SUNPOU
 62
     0
100
AcDbTrace
 10
314.75915146919
 20
212.2189730476808
 30
0.0
 11
315.8598181358566
 21
212.2189730476808
 31
0.0
 12
315.3094848025233
 22
208.9169730476807
 32
0.0
 13
315.3094848025233
 23
208.9169730476807
 33
0.0
  0
MTEXT
  5
63A
330
5D5
100
AcDbEntity
  8
SUNPOU
 62
     0
370
    15
100
AcDbMText
 10
311.7438181358565
 20
241.7669730476808
 30
0.0
 40
3.5
 41
0.0
 71
     5
 72
     1
  1
65,70
 11
0.0000000000000001
 21
1.0
 31
0.0
 73
     1
 44
1.0
1001
ACAD
1000
MTEXTBEGIN
1070
    73
1070
     1
1070
    44
1040
1.0
1070
    74
1070
     0
1000
MTEXTEND
  0
POINT
  5
63B
330
5D5
100
AcDbEntity
  8
Defpoints
 62
     0
100
AcDbPoint
 10
258.4099411418817
 20
274.6169730476808
 30
0.0
  0
POINT
  5
63C
330
5D5
100
AcDbEntity
  8
Defpoints
 62
     0
100
AcDbPoint
 10
258.4099411418817
 20
208.9169730476807
 30
0.0
  0
POINT
  5
63D
330
5D5
100
AcDbEntity
  8
Defpoints
 62
     0
100
AcDbPoint
 10
315.3094848025233
 20
208.9169730476807
 30
0.0
  0
ENDBLK
  5
5E0
330
5D5
100
AcDbEntity
  8
0
100
AcDbBlockEnd
  0
BLOCK
  5
5EB
330
5E1
100
AcDbEntity
  8
0
100
AcDbBlockBegin
  2
*D4
 70
     1
 10
0.0
 20
0.0
 30
0.0
  3
*D4
  1

  0
LINE
  5
63E
330
5E1
100
AcDbEntity
  8
SUNPOU
 62
     0
370
    -2
100
AcDbLine
 10
300.3099411418804
 20
191.1336515707255
 30
0.0
 11
300.3099411418804
 21
200.4490897260575
 31
0.0
  0
LINE
  5
63F
330
5E1
100
AcDbEntity
  8
SUNPOU
 62
     0
370
    -2
100
AcDbLine
 10
225.5599411418817
 20
191.1336515707255
 30
0.0
 11
225.5599411418817
 21
200.4490897260575
 31
0.0
  0
LINE
  5
640
330
5E1
100
AcDbEntity
  8
SUNPOU
 62
     0
370
    -2
100
AcDbLine
 10
297.0079411418804
 20
199.4490897260575
 30
0.0
 11
228.8619411418816
 21
199.4490897260575
 31
0.0
  0
SOLID
  5
641
330
5E1
100
AcDbEntity
  8
SUNPOU
 62
     0
100
AcDbTrace
 10
297.0079411418804
 20
199.9994230593908
 30
0.0
 11
297.0079411418804
 21
198.8987563927241
 31
0.0
 12
300.3099411418804
 22
199.4490897260575
 32
0.0
 13
300.3099411418804
 23
199.4490897260575
 33
0.0
  0
SOLID
  5
642
330
5E1
100
AcDbEntity
  8
SUNPOU
 62
     0
100
AcDbTrace
 10
228.8619411418816
 20
199.9994230593908
 30
0.0
 11
228.8619411418816
 21
198.8987563927241
 31
0.0
 12
225.5599411418817
 22
199.4490897260575
 32
0.0
 13
225.5599411418817
 23
199.4490897260575
 33
0.0
  0
MTEXT
  5
643
330
5E1
100
AcDbEntity
  8
SUNPOU
 62
     0
370
    15
100
AcDbMText
 10
262.934941141881
 20
202.7230897260575
 30
0.0
 40
3.5
 41
0.0
 71
     5
 72
     1
  1
75
 73
     1
 44
1.0
1001
ACAD
1000
MTEXTBEGIN
1070
    73
1070
     1
1070
    44
1040
1.0
1070
    74
1070
     0
1000
MTEXTEND
  0
POINT
  5
644
330
5E1
100
AcDbEntity
  8
Defpoints
 62
     0
100
AcDbPoint
 10
300.3099411418804
 20
190.1336515707255
 30
0.0
  0
POINT
  5
645
330
5E1
100
AcDbEntity
  8
Defpoints
 62
     0
100
AcDbPoint
 10
225.5599411418817
 20
190.1336515707255
 30
0.0
  0
POINT
  5
646
330
5E1
100
AcDbEntity
  8
Defpoints
 62
     0
100
AcDbPoint
 10
225.5599411418817
 20
199.4490897260575
 30
0.0
  0
ENDBLK
  5
5EC
330
5E1
100
AcDbEntity
  8
0
100
AcDbBlockEnd
  0
BLOCK
  5
5F7
330
5ED
100
AcDbEntity
  8
0
100
AcDbBlockBegin
  2
*D5
 70
     1
 10
0.0
 20
0.0
 30
0.0
  3
*D5
  1

  0
LINE
  5
647
330
5ED
100
AcDbEntity
  8
SUNPOU
 62
     0
370
    -2
100
AcDbLine
 10
301.3099411418804
 20
190.1336515707255
 30
0.0
 11
331.2647447200169
 21
190.1336515707254
 31
0.0
  0
LINE
  5
648
330
5ED
100
AcDbEntity
  8
SUNPOU
 62
     0
370
    -2
100
AcDbLine
 10
300.8099411418799
 20
66.63365157072536
 30
0.0
 11
331.2647447200168
 21
66.63365157072536
 31
0.0
  0
LINE
  5
649
330
5ED
100
AcDbEntity
  8
SUNPOU
 62
     0
370
    -2
100
AcDbLine
 10
330.2647447200168
 20
186.8316515707254
 30
0.0
 11
330.2647447200168
 21
69.93565157072537
 31
0.0
  0
SOLID
  5
64A
330
5ED
100
AcDbEntity
  8
SUNPOU
 62
     0
100
AcDbTrace
 10
329.7144113866835
 20
186.8316515707254
 30
0.0
 11
330.8150780533502
 21
186.8316515707254
 31
0.0
 12
330.2647447200168
 22
190.1336515707254
 32
0.0
 13
330.2647447200168
 23
190.1336515707254
 33
0.0
  0
SOLID
  5
64B
330
5ED
100
AcDbEntity
  8
SUNPOU
 62
     0
100
AcDbTrace
 10
329.7144113866834
 20
69.93565157072537
 30
0.0
 11
330.8150780533501
 21
69.93565157072537
 31
0.0
 12
330.2647447200168
 22
66.63365157072536
 32
0.0
 13
330.2647447200168
 23
66.63365157072536
 33
0.0
  0
MTEXT
  5
64C
330
5ED
100
AcDbEntity
  8
SUNPOU
 62
     0
370
    15
100
AcDbMText
 10
326.9907447200168
 20
128.3836515707254
 30
0.0
 40
3.5
 41
0.0
 71
     5
 72
     1
  1
124
 11
0.0000000000000001
 21
1.0
 31
0.0
 73
     1
 44
1.0
1001
ACAD
1000
MTEXTBEGIN
1070
    73
1070
     1
1070
    44
1040
1.0
1070
    74
1070
     0
1000
MTEXTEND
  0
POINT
  5
64D
330
5ED
100
AcDbEntity
  8
Defpoints
 62
     0
100
AcDbPoint
 10
300.3099411418804
 20
190.1336515707255
 30
0.0
  0
POINT
  5
64E
330
5ED
100
AcDbEntity
  8
Defpoints
 62
     0
100
AcDbPoint
 10
299.8099411418799
 20
66.63365157072536
 30
0.0
  0
POINT
  5
64F
330
5ED
100
AcDbEntity
  8
Defpoints
 62
     0
100
AcDbPoint
 10
330.2647447200168
 20
66.63365157072536
 30
0.0
  0
ENDBLK
  5
5F8
330
5ED
100
AcDbEntity
  8
0
100
AcDbBlockEnd
  0
BLOCK
  5
603
330
5F9
100
AcDbEntity
  8
0
100
AcDbBlockBegin
  2
*D6
 70
     1
 10
0.0
 20
0.0
 30
0.0
  3
*D6
  1

  0
LINE
  5
650
330
5F9
100
AcDbEntity
  8
SUNPOU
 62
     0
370
    -2
100
AcDbLine
 10
301.3099411418804
 20
190.1336515707255
 30
0.0
 11
347.2116186077191
 21
190.1336515707254
 31
0.0
  0
LINE
  5
651
330
5F9
100
AcDbEntity
  8
SUNPOU
 62
     0
370
    -2
100
AcDbLine
 10
287.4862891940351
 20
36.63365157072548
 30
0.0
 11
347.211618607719
 21
36.63365157072546
 31
0.0
  0
LINE
  5
652
330
5F9
100
AcDbEntity
  8
SUNPOU
 62
     0
370
    -2
100
AcDbLine
 10
346.211618607719
 20
186.8316515707254
 30
0.0
 11
346.211618607719
 21
39.93565157072546
 31
0.0
  0
SOLID
  5
653
330
5F9
100
AcDbEntity
  8
SUNPOU
 62
     0
100
AcDbTrace
 10
345.6612852743857
 20
186.8316515707254
 30
0.0
 11
346.7619519410524
 21
186.8316515707254
 31
0.0
 12
346.211618607719
 22
190.1336515707254
 32
0.0
 13
346.211618607719
 23
190.1336515707254
 33
0.0
  0
SOLID
  5
654
330
5F9
100
AcDbEntity
  8
SUNPOU
 62
     0
100
AcDbTrace
 10
345.6612852743857
 20
39.93565157072546
 30
0.0
 11
346.7619519410523
 21
39.93565157072546
 31
0.0
 12
346.211618607719
 22
36.63365157072546
 32
0.0
 13
346.211618607719
 23
36.63365157072546
 33
0.0
  0
MTEXT
  5
655
330
5F9
100
AcDbEntity
  8
SUNPOU
 62
     0
370
    15
100
AcDbMText
 10
342.937618607719
 20
113.3836515707255
 30
0.0
 40
3.5
 41
0.0
 71
     5
 72
     1
  1
154
 11
0.0000000000000001
 21
1.0
 31
0.0
 73
     1
 44
1.0
1001
ACAD
1000
MTEXTBEGIN
1070
    73
1070
     1
1070
    44
1040
1.0
1070
    74
1070
     0
1000
MTEXTEND
  0
POINT
  5
656
330
5F9
100
AcDbEntity
  8
Defpoints
 62
     0
100
AcDbPoint
 10
300.3099411418804
 20
190.1336515707255
 30
0.0
  0
POINT
  5
657
330
5F9
100
AcDbEntity
  8
Defpoints
 62
     0
100
AcDbPoint
 10
286.4862891940351
 20
36.63365157072548
 30
0.0
  0
POINT
  5
658
330
5F9
100
AcDbEntity
  8
Defpoints
 62
     0
100
AcDbPoint
 10
346.211618607719
 20
36.63365157072546
 30
0.0
  0
ENDBLK
  5
604
330
5F9
100
AcDbEntity
  8
0
100
AcDbBlockEnd
  0
BLOCK
  5
60F
330
605
100
AcDbEntity
  8
0
100
AcDbBlockBegin
  2
*D7
 70
     1
 10
0.0
 20
0.0
 30
0.0
  3
*D7
  1

  0
LINE
  5
659
330
605
100
AcDbEntity
  8
SUNPOU
 62
     0
370
    -2
100
AcDbLine
 10
225.5599411418817
 20
191.1336515707255
 30
0.0
 11
225.5599411418817
 21
194.3534302629627
 31
0.0
  0
LINE
  5
65A
330
605
100
AcDbEntity
  8
SUNPOU
 62
     0
370
    -2
100
AcDbLine
 10
292.5170479230585
 20
191.1336515707255
 30
0.0
 11
292.5170479230585
 21
194.3534302629627
 31
0.0
  0
LINE
  5
65B
330
605
100
AcDbEntity
  8
SUNPOU
 62
     0
370
    -2
100
AcDbLine
 10
228.8619411418816
 20
193.3534302629627
 30
0.0
 11
289.2150479230584
 21
193.3534302629627
 31
0.0
  0
SOLID
  5
65C
330
605
100
AcDbEntity
  8
SUNPOU
 62
     0
100
AcDbTrace
 10
228.8619411418816
 20
193.903763596296
 30
0.0
 11
228.8619411418816
 21
192.8030969296294
 31
0.0
 12
225.5599411418817
 22
193.3534302629627
 32
0.0
 13
225.5599411418817
 23
193.3534302629627
 33
0.0
  0
SOLID
  5
65D
330
605
100
AcDbEntity
  8
SUNPOU
 62
     0
100
AcDbTrace
 10
289.2150479230584
 20
193.903763596296
 30
0.0
 11
289.2150479230584
 21
192.8030969296294
 31
0.0
 12
292.5170479230585
 22
193.3534302629627
 32
0.0
 13
292.5170479230585
 23
193.3534302629627
 33
0.0
  0
MTEXT
  5
65E
330
605
100
AcDbEntity
  8
SUNPOU
 62
     0
370
    15
100
AcDbMText
 10
259.03849453247
 20
196.6274302629627
 30
0.0
 40
3.5
 41
0.0
 71
     5
 72
     1
  1
\U+03C667
 73
     1
 44
1.0
1001
ACAD
1000
MTEXTBEGIN
1070
    73
1070
     1
1070
    44
1040
1.0
1070
    74
1070
     0
1000
MTEXTEND
  0
POINT
  5
65F
330
605
100
AcDbEntity
  8
Defpoints
 62
     0
100
AcDbPoint
 10
225.5599411418817
 20
190.1336515707255
 30
0.0
  0
POINT
  5
660
330
605
100
AcDbEntity
  8
Defpoints
 62
     0
100
AcDbPoint
 10
292.5170479230585
 20
190.1336515707255
 30
0.0
  0
POINT
  5
661
330
605
100
AcDbEntity
  8
Defpoints
 62
     0
100
AcDbPoint
 10
292.5170479230585
 20
193.3534302629627
 30
0.0
  0
ENDBLK
  5
610
330
605
100
AcDbEntity
  8
0
100
AcDbBlockEnd
  0
BLOCK
  5
61B
330
611
100
AcDbEntity
  8
0
100
AcDbBlockBegin
  2
*D8
 70
     1
 10
0.0
 20
0.0
 30
0.0
  3
*D8
  1

  0
LINE
  5
662
330
611
100
AcDbEntity
  8
SUNPOU
 62
     0
370
    -2
100
AcDbLine
 10
129.8375921702401
 20
120.1336515707255
 30
0.0
 11
148.7506684926682
 21
120.1336515707255
 31
0.0
  0
LINE
  5
663
330
611
100
AcDbEntity
  8
SUNPOU
 62
     0
370
    -2
100
AcDbLine
 10
129.8375921702401
 20
190.1336515707253
 30
0.0
 11
148.7506684926682
 21
190.1336515707253
 31
0.0
  0
LINE
  5
664
330
611
100
AcDbEntity
  8
SUNPOU
 62
     0
370
    -2
100
AcDbLine
 10
147.7506684926682
 20
123.4356515707254
 30
0.0
 11
147.7506684926682
 21
186.8316515707253
 31
0.0
  0
SOLID
  5
665
330
611
100
AcDbEntity
  8
SUNPOU
 62
     0
100
AcDbTrace
 10
147.2003351593349
 20
123.4356515707254
 30
0.0
 11
148.3010018260015
 21
123.4356515707254
 31
0.0
 12
147.7506684926682
 22
120.1336515707255
 32
0.0
 13
147.7506684926682
 23
120.1336515707255
 33
0.0
  0
SOLID
  5
666
330
611
100
AcDbEntity
  8
SUNPOU
 62
     0
100
AcDbTrace
 10
147.2003351593349
 20
186.8316515707253
 30
0.0
 11
148.3010018260015
 21
186.8316515707253
 31
0.0
 12
147.7506684926682
 22
190.1336515707253
 32
0.0
 13
147.7506684926682
 23
190.1336515707253
 33
0.0
  0
MTEXT
  5
667
330
611
100
AcDbEntity
  8
SUNPOU
 62
     0
370
    15
100
AcDbMText
 10
144.4766684926682
 20
155.1336515707254
 30
0.0
 40
3.5
 41
0.0
 71
     5
 72
     1
  1
70
 11
0.0000000000000001
 21
1.0
 31
0.0
 73
     1
 44
1.0
1001
ACAD
1000
MTEXTBEGIN
1070
    73
1070
     1
1070
    44
1040
1.0
1070
    74
1070
     0
1000
MTEXTEND
  0
POINT
  5
668
330
611
100
AcDbEntity
  8
Defpoints
 62
     0
100
AcDbPoint
 10
128.8375921702401
 20
120.1336515707255
 30
0.0
  0
POINT
  5
669
330
611
100
AcDbEntity
  8
Defpoints
 62
     0
100
AcDbPoint
 10
128.8375921702401
 20
190.1336515707253
 30
0.0
  0
POINT
  5
66A
330
611
100
AcDbEntity
  8
Defpoints
 62
     0
100
AcDbPoint
 10
147.7506684926682
 20
190.1336515707253
 30
0.0
  0
ENDBLK
  5
61C
330
611
100
AcDbEntity
  8
0
100
AcDbBlockEnd
  0
BLOCK
  5
627
330
61D
100
AcDbEntity
  8
0
100
AcDbBlockBegin
  2
*D9
 70
     1
 10
0.0
 20
0.0
 30
0.0
  3
*D9
  1

  0
LINE
  5
66B
330
61D
100
AcDbEntity
  8
SUNPOU
 62
     0
370
    -2
100
AcDbLine
 10
266.2411727457102
 20
120.1336515707255
 30
0.0
 11
314.5650751552191
 21
120.1336515707254
 31
0.0
  0
LINE
  5
66C
330
61D
100
AcDbEntity
  8
SUNPOU
 62
     0
370
    -2
100
AcDbLine
 10
259.4099411418817
 20
190.1336515707255
 30
0.0
 11
314.5650751552192
 21
190.1336515707255
 31
0.0
  0
LINE
  5
66D
330
61D
100
AcDbEntity
  8
SUNPOU
 62
     0
370
    -2
100
AcDbLine
 10
313.5650751552191
 20
123.4356515707254
 30
0.0
 11
313.5650751552192
 21
186.8316515707254
 31
0.0
  0
SOLID
  5
66E
330
61D
100
AcDbEntity
  8
SUNPOU
 62
     0
100
AcDbTrace
 10
313.0147418218858
 20
123.4356515707254
 30
0.0
 11
314.1154084885525
 21
123.4356515707254
 31
0.0
 12
313.5650751552191
 22
120.1336515707254
 32
0.0
 13
313.5650751552191
 23
120.1336515707254
 33
0.0
  0
SOLID
  5
66F
330
61D
100
AcDbEntity
  8
SUNPOU
 62
     0
100
AcDbTrace
 10
313.0147418218858
 20
186.8316515707254
 30
0.0
 11
314.1154084885525
 21
186.8316515707254
 31
0.0
 12
313.5650751552192
 22
190.1336515707255
 32
0.0
 13
313.5650751552192
 23
190.1336515707255
 33
0.0
  0
MTEXT
  5
670
330
61D
100
AcDbEntity
  8
SUNPOU
 62
     0
370
    15
100
AcDbMText
 10
310.2910751552191
 20
155.1336515707255
 30
0.0
 40
3.5
 41
0.0
 71
     5
 72
     1
  1
70
 11
0.0000000000000001
 21
1.0
 31
0.0
 73
     1
 44
1.0
1001
ACAD
1000
MTEXTBEGIN
1070
    73
1070
     1
1070
    44
1040
1.0
1070
    74
1070
     0
1000
MTEXTEND
  0
POINT
  5
671
330
61D
100
AcDbEntity
  8
Defpoints
 62
     0
100
AcDbPoint
 10
265.2411727457102
 20
120.1336515707255
 30
0.0
  0
POINT
  5
672
330
61D
100
AcDbEntity
  8
Defpoints
 62
     0
100
AcDbPoint
 10
258.4099411418817
 20
190.1336515707255
 30
0.0
  0
POINT
  5
673
330
61D
100
AcDbEntity
  8
Defpoints
 62
     0
100
AcDbPoint
 10
313.5650751552192
 20
190.1336515707255
 30
0.0
  0
ENDBLK
  5
628
330
61D
100
AcDbEntity
  8
0
100
AcDbBlockEnd
  0
BLOCK
  5
633
330
629
100
AcDbEntity
  8
0
100
AcDbBlockBegin
  2
*D10
 70
     1
 10
0.0
 20
0.0
 30
0.0
  3
*D10
  1

  0
LINE
  5
674
330
629
100
AcDbEntity
  8
SUNPOU
 62
     0
370
    -2
100
AcDbLine
 10
229.9812358704163
 20
38.63319465619458
 30
0.0
 11
229.9812358704163
 21
27.34813802630965
 31
0.0
  0
LINE
  5
675
330
629
100
AcDbEntity
  8
SUNPOU
 62
     0
370
    -2
100
AcDbLine
 10
286.8386464133469
 20
38.63319465619458
 30
0.0
 11
286.8386464133469
 21
27.34813802630965
 31
0.0
  0
LINE
  5
676
330
629
100
AcDbEntity
  8
SUNPOU
 62
     0
370
    -2
100
AcDbLine
 10
233.2832358704163
 20
28.34813802630965
 30
0.0
 11
283.5366464133469
 21
28.34813802630965
 31
0.0
  0
SOLID
  5
677
330
629
100
AcDbEntity
  8
SUNPOU
 62
     0
100
AcDbTrace
 10
233.2832358704163
 20
28.89847135964298
 30
0.0
 11
233.2832358704163
 21
27.79780469297632
 31
0.0
 12
229.9812358704163
 22
28.34813802630965
 32
0.0
 13
229.9812358704163
 23
28.34813802630965
 33
0.0
  0
SOLID
  5
678
330
629
100
AcDbEntity
  8
SUNPOU
 62
     0
100
AcDbTrace
 10
283.5366464133469
 20
28.89847135964298
 30
0.0
 11
283.5366464133469
 21
27.79780469297632
 31
0.0
 12
286.8386464133469
 22
28.34813802630965
 32
0.0
 13
286.8386464133469
 23
28.34813802630965
 33
0.0
  0
MTEXT
  5
679
330
629
100
AcDbEntity
  8
SUNPOU
 62
     0
370
    15
100
AcDbMText
 10
258.4099411418816
 20
31.62213802630965
 30
0.0
 40
3.5
 41
0.0
 71
     5
 72
     1
  1
\U+03C657
 73
     1
 44
1.0
1001
ACAD
1000
MTEXTBEGIN
1070
    73
1070
     1
1070
    44
1040
1.0
1070
    74
1070
     0
1000
MTEXTEND
  0
POINT
  5
67A
330
629
100
AcDbEntity
  8
Defpoints
 62
     0
100
AcDbPoint
 10
229.9812358704163
 20
39.63319465619458
 30
0.0
  0
POINT
  5
67B
330
629
100
AcDbEntity
  8
Defpoints
 62
     0
100
AcDbPoint
 10
286.8386464133469
 20
39.63319465619458
 30
0.0
  0
POINT
  5
67C
330
629
100
AcDbEntity
  8
Defpoints
 62
     0
100
AcDbPoint
 10
286.8386464133469
 20
28.34813802630965
 30
0.0
  0
ENDBLK
  5
634
330
629
100
AcDbEntity
  8
0
100
AcDbBlockEnd
  0
ENDSEC
  0
SECTION
  2
ENTITIES
  0
DIMENSION
  5
46B
330
1F
100
AcDbEntity
  8
SUNPOU
370
    15
100
AcDbDimension
  2
*D3
 10
315.3094848025233
 20
208.9169730476807
 30
0.0
 11
311.7438181358565
 21
241.7669730476808
 31
0.0
 70
    32
 71
     5
 42
65.70000000000004
  3
ISO-25
100
AcDbAlignedDimension
 13
258.4099411418817
 23
274.6169730476808
 33
0.0
 14
258.4099411418817
 24
208.9169730476807
 34
0.0
 50
90.0
100
AcDbRotatedDimension
1001
ACAD
1000
DSTYLE
1002
{
1070
    41
1040
3.301999999999999
1070
    42
1040
1.0
1070
    44
1040
1.0
1070
    74
1070
     1
1070
    78
1070
     0
1070
   140
1040
3.5
1070
   143
1040
0.0393700787401575
1070
   147
1040
1.524
1070
   179
1070
     2
1070
   284
1070
     0
1002
}
  0
DIMENSION
  5
46C
330
1F
100
AcDbEntity
  8
SUNPOU
370
    15
100
AcDbDimension
  2
*D4
 10
225.5599411418817
 20
199.4490897260575
 30
0.0
 11
262.934941141881
 21
199.4490897260575
 31
0.0
 70
   160
 71
     5
 42
74.74999999999875
  3
ISO-25
100
AcDbAlignedDimension
 13
300.3099411418804
 23
190.1336515707255
 33
0.0
 14
225.5599411418817
 24
190.1336515707255
 34
0.0
100
AcDbRotatedDimension
1001
ACAD
1000
DSTYLE
1002
{
1070
   271
1070
     0
1070
    41
1040
3.301999999999999
1070
    42
1040
1.0
1070
    44
1040
1.0
1070
    74
1070
     1
1070
    78
1070
     0
1070
   140
1040
3.5
1070
   143
1040
0.0393700787401575
1070
   147
1040
1.524
1070
   179
1070
     2
1070
   284
1070
     0
1002
}
  0
TEXT
  5
46D
330
1F
100
AcDbEntity
  8
SUNPOU
370
    15
100
AcDbText
 10
326.318590614471
 20
22.29309705134751
 30
0.0
 40
4.0
  1
※　たてといの差込み寸法を示す。
100
AcDbText
  0
DIMENSION
  5
46E
330
1F
100
AcDbEntity
  8
SUNPOU
370
    15
100
AcDbDimension
  2
*D5
 10
330.2647447200168
 20
66.63365157072536
 30
0.0
 11
326.9907447200168
 21
128.3836515707254
 31
0.0
 70
    32
 71
     5
 42
123.5000000000001
  3
ISO-25
100
AcDbAlignedDimension
 13
300.3099411418804
 23
190.1336515707255
 33
0.0
 14
299.8099411418799
 24
66.63365157072536
 34
0.0
 50
90.0
100
AcDbRotatedDimension
1001
ACAD
1000
DSTYLE
1002
{
1070
   271
1070
     0
1070
    41
1040
3.301999999999999
1070
    42
1040
1.0
1070
    44
1040
1.0
1070
    74
1070
     1
1070
    78
1070
     0
1070
   140
1040
3.5
1070
   143
1040
0.0393700787401575
1070
   147
1040
1.524
1070
   179
1070
     2
1070
   284
1070
     0
1002
}
  0
DIMENSION
  5
46F
330
1F
100
AcDbEntity
  8
SUNPOU
370
    15
100
AcDbDimension
  2
*D6
 10
346.211618607719
 20
36.63365157072546
 30
0.0
 11
342.937618607719
 21
113.3836515707255
 31
0.0
 70
    32
 71
     5
 42
153.5
  3
ISO-25
100
AcDbAlignedDimension
 13
300.3099411418804
 23
190.1336515707255
 33
0.0
 14
286.4862891940351
 24
36.63365157072548
 34
0.0
 50
90.0
100
AcDbRotatedDimension
1001
ACAD
1000
DSTYLE
1002
{
1070
   271
1070
     0
1070
    41
1040
3.301999999999999
1070
    42
1040
1.0
1070
    44
1040
1.0
1070
    74
1070
     1
1070
    78
1070
     0
1070
   140
1040
3.5
1070
   143
1040
0.0393700787401575
1070
   147
1040
1.524
1070
   179
1070
     2
1070
   284
1070
     0
1002
}
  0
DIMENSION
  5
470
330
1F
100
AcDbEntity
  8
SUNPOU
370
    15
100
AcDbDimension
  2
*D7
 10
292.5170479230585
 20
193.3534302629627
 30
0.0
 11
259.03849453247
 21
196.6274302629627
 31
0.0
 70
    32
  1
\U+03C667
 71
     5
 42
66.95710678117677
  3
ISO-25
100
AcDbAlignedDimension
 13
225.5599411418817
 23
190.1336515707255
 33
0.0
 14
292.5170479230585
 24
190.1336515707255
 34
0.0
100
AcDbRotatedDimension
1001
ACAD
1000
DSTYLE
1002
{
1070
   271
1070
     0
1070
    41
1040
3.301999999999999
1070
    42
1040
1.0
1070
    44
1040
1.0
1070
    74
1070
     1
1070
    78
1070
     0
1070
   140
1040
3.5
1070
   143
1040
0.0393700787401575
1070
   147
1040
1.524
1070
   179
1070
     2
1070
   284
1070
     0
1002
}
  0
DIMENSION
  5
471
330
1F
100
AcDbEntity
  8
SUNPOU
370
    15
100
AcDbDimension
  2
*D8
 10
147.7506684926682
 20
190.1336515707253
 30
0.0
 11
144.4766684926682
 21
155.1336515707254
 31
0.0
 70
    32
 71
     5
 42
69.99999999999989
  3
ISO-25
100
AcDbAlignedDimension
 13
128.8375921702401
 23
120.1336515707255
 33
0.0
 14
128.8375921702401
 24
190.1336515707253
 34
0.0
 50
90.0
100
AcDbRotatedDimension
1001
ACAD
1000
DSTYLE
1002
{
1070
   271
1070
     0
1070
    41
1040
3.301999999999999
1070
    42
1040
1.0
1070
    44
1040
1.0
1070
    74
1070
     1
1070
    78
1070
     0
1070
   140
1040
3.5
1070
   143
1040
0.0393700787401575
1070
   147
1040
1.524
1070
   179
1070
     2
1070
   284
1070
     0
1002
}
  0
DIMENSION
  5
472
330
1F
100
AcDbEntity
  8
SUNPOU
370
    15
100
AcDbDimension
  2
*D9
 10
313.5650751552192
 20
190.1336515707255
 30
0.0
 11
310.2910751552191
 21
155.1336515707255
 31
0.0
 70
    32
 71
     5
 42
70.0
  3
ISO-25
100
AcDbAlignedDimension
 13
265.2411727457102
 23
120.1336515707255
 33
0.0
 14
258.4099411418817
 24
190.1336515707255
 34
0.0
 50
90.0
100
AcDbRotatedDimension
1001
ACAD
1000
DSTYLE
1002
{
1070
   271
1070
     0
1070
    41
1040
3.301999999999999
1070
    42
1040
1.0
1070
    44
1040
1.0
1070
    74
1070
     1
1070
    78
1070
     0
1070
   140
1040
3.5
1070
   143
1040
0.0393700787401575
1070
   147
1040
1.524
1070
   179
1070
     2
1070
   284
1070
     0
1002
}
  0
LINE
  5
473
330
1F
100
AcDbEntity
  8
SEIHIN
370
    15
100
AcDbLine
 10
260.8098565041024
 20
133.3523986889979
 30
0.0
 11
255.8486837183441
 21
133.3523986889979
 31
0.0
  0
LINE
  5
474
330
1F
100
AcDbEntity
  8
SEIHIN
370
    15
100
AcDbLine
 10
262.7817071065631
 20
125.3374702318901
 30
0.0
 11
258.3284959010482
 21
120.8842590263752
 31
0.0
  0
LINE
  5
475
330
1F
100
AcDbEntity
  8
SEIHIN
370
    15
100
AcDbLine
 10
262.7817071065631
 20
125.3374702318901
 30
0.0
 11
260.8088611410892
 21
125.3374702318901
 31
0.0
  0
LINE
  5
476
330
1F
100
AcDbEntity
  8
SEIHIN
370
    15
100
AcDbLine
 10
265.2410563943059
 20
119.1967590263752
 30
0.0
 11
265.241265962624
 21
120.8842590263752
 31
0.0
  0
LINE
  5
477
330
1F
100
AcDbEntity
  8
SEIHIN
370
    15
100
AcDbLine
 10
251.4157258394722
 20
119.1967590263752
 30
0.0
 11
251.4157258394722
 21
120.8842590263752
 31
0.0
  0
LINE
  5
478
330
1F
100
AcDbEntity
  8
SEIHIN
370
    15
100
AcDbLine
 10
255.8486837183441
 20
125.3374702318901
 30
0.0
 11
253.8752939819982
 21
125.3374702318901
 31
0.0
  0
LINE
  5
479
330
1F
100
AcDbEntity
  8
SEIHIN
370
    15
100
AcDbLine
 10
265.2410563943059
 20
119.1967590263752
 30
0.0
 11
251.4157258394722
 21
119.1967590263752
 31
0.0
  0
LINE
  5
47A
330
1F
100
AcDbEntity
  8
SEIHIN
370
    15
100
AcDbLine
 10
265.241265962624
 20
120.8842590263752
 30
0.0
 11
251.4159354077904
 21
120.8842590263752
 31
0.0
  0
LINE
  5
47B
330
1F
100
AcDbEntity
  8
SEIHIN
370
    15
100
AcDbLine
 10
253.8752939819982
 20
125.3374702318901
 30
0.0
 11
258.3285284093339
 21
120.8842590263752
 31
0.0
  0
LINE
  5
47C
330
1F
100
AcDbEntity
  8
SEIHIN
370
    15
100
AcDbLine
 10
260.8088611410894
 20
125.3374702318901
 30
0.0
 11
260.8098565041024
 21
133.3523986889979
 31
0.0
  0
LINE
  5
47D
330
1F
100
AcDbEntity
  8
SEIHIN
370
    15
100
AcDbLine
 10
255.8486837183441
 20
125.3374702318901
 30
0.0
 11
255.8486837183441
 21
133.3523986889979
 31
0.0
  0
LINE
  5
47E
330
1F
100
AcDbEntity
  8
CENTER L
370
    15
100
AcDbLine
 10
258.4099411418817
 20
214.3823453445761
 30
0.0
 11
258.4099411418817
 21
33.90992817673709
 31
0.0
  0
DIMENSION
  5
47F
330
1F
100
AcDbEntity
  8
SUNPOU
370
    15
100
AcDbDimension
  2
*D10
 10
286.8386464133469
 20
28.34813802630965
 30
0.0
 11
258.4099411418816
 21
28.34813802630965
 31
0.0
 70
   160
  1
\U+03C657
 71
     5
 42
56.85741054293055
  3
ISO-25
100
AcDbAlignedDimension
 13
229.9812358704163
 23
39.63319465619458
 33
0.0
 14
286.8386464133469
 24
39.63319465619458
 34
0.0
100
AcDbRotatedDimension
1001
ACAD
1000
DSTYLE
1002
{
1070
    41
1040
3.301999999999999
1070
    42
1040
1.0
1070
    44
1040
1.0
1070
    73
1070
     1
1070
    74
1070
     1
1070
    78
1070
     0
1070
   140
1040
3.5
1070
   143
1040
0.0393700787401575
1070
   147
1040
1.524
1070
   179
1070
     2
1070
   284
1070
     0
1002
}
  0
LINE
  5
480
330
1F
100
AcDbEntity
  8
SEIHIN
  6
Continuous
370
    15
100
AcDbLine
 10
54.08759217024135
 20
67.13365157072548
 30
0.0
 11
54.08759217024135
 21
190.1336515707253
 31
0.0
  0
LWPOLYLINE
  5
481
330
1F
100
AcDbEntity
  8
SEIHIN
  6
Continuous
370
    15
100
AcDbPolyline
 90
        7
 70
   128
 43
0.0
 10
115.8929581336696
 20
69.47988558607647
 10
115.8989583803696
 20
70.13360944895288
 10
115.9356685727339
 20
74.13344098672218
 10
116.082466304333
 20
90.13276753294979
 10
116.6689860026865
 20
154.1300798778105
 10
116.8587499294515
 20
174.8602910700849
 10
116.9984940961404
 20
190.1336515707253
  0
LINE
  5
482
330
1F
100
AcDbEntity
  8
SEIHIN
  6
Continuous
370
    15
100
AcDbLine
 10
56.43457063176476
 20
69.47988558607647
 30
0.0
 11
115.8929581336696
 21
69.47988558607647
 31
0.0
  0
LINE
  5
483
330
1F
100
AcDbEntity
  8
SEIHIN
  6
Continuous
370
    15
100
AcDbLine
 10
55.38164116755956
 20
190.1336515707253
 30
0.0
 11
56.43457063176476
 21
69.47988558607647
 31
0.0
  0
LINE
  5
484
330
1F
100
AcDbEntity
  8
SEIHIN
  6
Continuous
370
    15
100
AcDbLine
 10
55.38164116755956
 20
190.1336515707253
 30
0.0
 11
116.9984940961404
 21
190.1336515707253
 31
0.0
  0
LINE
  5
485
330
1F
100
AcDbEntity
  8
SEIHIN
  6
Continuous
370
    15
100
AcDbLine
 10
114.3222198733461
 20
67.99388121820271
 30
0.0
 11
117.4375921702413
 21
69.13365157072547
 31
0.0
  0
LINE
  5
486
330
1F
100
AcDbEntity
  8
SEIHIN
  6
Continuous
370
    15
100
AcDbLine
 10
126.5875921702401
 20
69.13365157072547
 30
0.0
 11
117.4375921702413
 21
69.13365157072547
 31
0.0
  0
ARC
  5
487
330
1F
100
AcDbEntity
  8
SEIHIN
  6
Continuous
370
    15
100
AcDbCircle
 10
126.5875921702401
 20
69.63365157072548
 30
0.0
 40
0.5
100
AcDbArc
 50
270.0000000000008
 51
0.0
  0
LINE
  5
488
330
1F
100
AcDbEntity
  8
SEIHIN
  6
Continuous
370
    15
100
AcDbLine
 10
127.08759217024
 20
190.1336515707253
 30
0.0
 11
127.08759217024
 21
69.63365157072548
 31
0.0
  0
LINE
  5
489
330
1F
100
AcDbEntity
  8
SEIHIN
  6
Continuous
370
    15
100
AcDbLine
 10
128.8375921702401
 20
190.1336515707253
 30
0.0
 11
127.08759217024
 21
190.1336515707253
 31
0.0
  0
LINE
  5
48A
330
1F
100
AcDbEntity
  8
SEIHIN
  6
Continuous
370
    15
100
AcDbLine
 10
128.8375921702401
 20
67.13365157072548
 30
0.0
 11
128.8375921702401
 21
190.1336515707253
 31
0.0
  0
ARC
  5
48B
330
1F
100
AcDbEntity
  8
SEIHIN
  6
Continuous
370
    15
100
AcDbCircle
 10
128.33759217024
 20
67.13365157072548
 30
0.0
 40
0.5000000000001137
100
AcDbArc
 50
270.0000000000008
 51
0.0
  0
LINE
  5
48C
330
1F
100
AcDbEntity
  8
SEIHIN
  6
Continuous
370
    15
100
AcDbLine
 10
128.33759217024
 20
66.63365157072547
 30
0.0
 11
115.8375921702413
 21
66.63365157072547
 31
0.0
  0
LINE
  5
48D
330
1F
100
AcDbEntity
  8
SEIHIN
  6
Continuous
370
    15
100
AcDbLine
 10
115.8375921702413
 20
66.63365157072547
 30
0.0
 11
115.3662974417066
 21
39.6331946561947
 31
0.0
  0
LINE
  5
48E
330
1F
100
AcDbEntity
  8
SEIHIN
  6
Continuous
370
    15
100
AcDbLine
 10
115.3662974417066
 20
39.6331946561947
 30
0.0
 11
115.0139402223948
 21
36.63365157072548
 31
0.0
  0
LINE
  5
48F
330
1F
100
AcDbEntity
  8
SEIHIN
  6
Continuous
370
    15
100
AcDbLine
 10
115.0139402223948
 20
36.63365157072548
 30
0.0
 11
113.3375921702414
 21
36.63365157072548
 31
0.0
  0
LINE
  5
490
330
1F
100
AcDbEntity
  8
SEIHIN
  6
Continuous
370
    15
100
AcDbLine
 10
113.3375921702414
 20
66.58519694002229
 30
0.0
 11
113.3375921702414
 21
36.63365157072548
 31
0.0
  0
ARC
  5
491
330
1F
100
AcDbEntity
  8
SEIHIN
  6
Continuous
370
    15
100
AcDbCircle
 10
114.8375921702413
 20
66.58519694002229
 30
0.0
 40
1.499999999999978
100
AcDbArc
 50
110.0952311918999
 51
180.0
  0
LINE
  5
492
330
1F
100
AcDbEntity
  8
SEIHIN
  6
Continuous
370
    15
100
AcDbLine
 10
113.3375921702414
 20
66.58519694002229
 30
0.0
 11
60.53759217024145
 21
66.58519694002229
 31
0.0
  0
LINE
  5
493
330
1F
100
AcDbEntity
  8
SEIHIN
  6
Continuous
370
    15
100
AcDbLine
 10
60.53759217024145
 20
36.63365157072548
 30
0.0
 11
60.53759217024145
 21
66.58519694002229
 31
0.0
  0
LINE
  5
494
330
1F
100
AcDbEntity
  8
SEIHIN
  6
Continuous
370
    15
100
AcDbLine
 10
60.53759217024145
 20
36.63365157072548
 30
0.0
 11
113.3375921702414
 21
36.63365157072548
 31
0.0
  0
LINE
  5
495
330
1F
100
AcDbEntity
  8
SEIHIN
  6
Continuous
370
    15
100
AcDbLine
 10
58.86124411808788
 20
36.63365157072548
 30
0.0
 11
58.50888689877598
 21
39.6331946561947
 31
0.0
  0
LINE
  5
496
330
1F
100
AcDbEntity
  8
SEIHIN
  6
Continuous
370
    15
100
AcDbLine
 10
58.50888689877598
 20
39.6331946561947
 30
0.0
 11
58.03759217024134
 21
66.63365157072547
 31
0.0
  0
LINE
  5
497
330
1F
100
AcDbEntity
  8
SEIHIN
  6
Continuous
370
    15
100
AcDbLine
 10
58.03759217024134
 20
66.63365157072547
 30
0.0
 11
54.58759217024141
 21
66.63365157072547
 31
0.0
  0
ARC
  5
498
330
1F
100
AcDbEntity
  8
SEIHIN
  6
Continuous
370
    15
100
AcDbCircle
 10
54.58759217024141
 20
67.13365157072548
 30
0.0
 40
0.5000000000000569
100
AcDbArc
 50
180.0
 51
270.0000000000008
  0
LINE
  5
499
330
1F
100
AcDbEntity
  8
SEIHIN
  6
Continuous
370
    15
100
AcDbLine
 10
55.38164116755956
 20
190.1336515707253
 30
0.0
 11
54.08759217024135
 21
190.1336515707253
 31
0.0
  0
ARC
  5
49A
330
1F
100
AcDbEntity
  8
SEIHIN
  6
Continuous
370
    15
100
AcDbCircle
 10
56.93455159329682
 20
69.4842488538257
 30
0.0
 40
0.5000000000000185
100
AcDbArc
 50
180.5000000000046
 51
249.9047688080871
  0
LINE
  5
49B
330
1F
100
AcDbEntity
  8
SEIHIN
  6
Continuous
370
    15
100
AcDbLine
 10
56.76276082766498
 20
69.01468742776552
 30
0.0
 11
59.55296446713674
 21
67.99388121820271
 31
0.0
  0
ARC
  5
49C
330
1F
100
AcDbEntity
  8
SEIHIN
  6
Continuous
370
    15
100
AcDbCircle
 10
59.03759217024134
 20
66.58519694002229
 30
0.0
 40
1.500000000000113
100
AcDbArc
 50
0.0
 51
69.90476880809058
  0
LINE
  5
49D
330
1F
100
AcDbEntity
  8
SEIHIN
  6
Continuous
370
    15
100
AcDbLine
 10
60.53759217024145
 20
36.63365157072548
 30
0.0
 11
58.86124411808788
 21
36.63365157072548
 31
0.0
  0
ARC
  5
49E
330
1F
100
AcDbEntity
  8
SEIHIN
  6
Continuous
370
    15
100
AcDbCircle
 10
115.3939261915786
 20
69.47716608070249
 30
0.0
 40
0.499039352092251
100
AcDbArc
 50
292.0681168475907
 51
0.3122337965095355
  0
LINE
  5
49F
330
1F
100
AcDbEntity
  8
SEIHIN
  6
Continuous
370
    15
100
AcDbLine
 10
115.5814195795
 20
69.01468742776552
 30
0.0
 11
56.76276082766498
 21
69.01468742776552
 31
0.0
  0
SPLINE
  5
4A0
330
1F
100
AcDbEntity
  8
SEIHIN
  6
Continuous
370
    15
100
AcDbSpline
210
0.0
220
0.0
230
1.0
 70
     8
 71
     3
 72
    12
 73
     8
 74
     0
 42
0.0000000001
 43
0.0000000001
 40
0.0
 40
0.0
 40
0.0
 40
0.0
 40
0.500000000000004
 40
0.500000000000004
 40
0.750000000000002
 40
0.750000000000002
 40
1.0
 40
1.0
 40
1.0
 40
1.0
 10
116.1456853072887
 20
69.14374225210264
 30
0.0
 10
116.0161560368095
 20
69.10422330267505
 30
0.0
 10
115.8972181355045
 20
69.07155088717098
 30
0.0
 10
115.7515739449487
 20
69.0380115904083
 30
0.0
 10
115.707689271721
 20
69.02924085549824
 30
0.0
 10
115.6343876194449
 20
69.01765716159315
 30
0.0
 10
115.6044040432027
 20
69.01468742776552
 30
0.0
 10
115.5814195795
 20
69.01468742776552
 30
0.0
  0
SPLINE
  5
4A1
330
1F
100
AcDbEntity
  8
SEIHIN
  6
Continuous
370
    15
100
AcDbSpline
210
0.0
220
0.0
230
1.0
 70
     8
 71
     3
 72
    11
 73
     7
 74
     0
 42
0.0000000001
 43
0.0000000001
 40
0.0
 40
0.0
 40
0.0
 40
0.0
 40
0.0000576217091357
 40
0.0000576217091357
 40
0.0000576217091357
 40
0.0001051499887755
 40
0.0001051499887755
 40
0.0001051499887755
 40
0.0001051499887755
 10
116.1481137436305
 20
69.13365157072547
 30
0.0
 10
116.1425879136981
 20
69.13365157072525
 30
0.0
 10
116.1392083124061
 20
69.13450992004453
 30
0.0
 10
116.1390842098901
 20
69.1364898049415
 30
0.0
 10
116.1389817553992
 20
69.13812432538162
 30
0.0
 10
116.141156896676
 20
69.14057574277336
 30
0.0
 10
116.1456853072925
 20
69.14374225210389
 30
0.0
  0
LINE
  5
4A2
330
1F
100
AcDbEntity
  8
SEIHIN
  6
Continuous
370
    15
100
AcDbLine
 10
116.1481137436305
 20
69.13365157072547
 30
0.0
 11
117.4375921702413
 21
69.13365157072547
 31
0.0
  0
LINE
  5
4A3
330
1F
100
AcDbEntity
  8
SEIHIN
  6
Continuous
370
    15
100
AcDbLine
 10
59.55296446713674
 20
67.99388121820271
 30
0.0
 11
114.3222198733461
 21
67.99388121820271
 31
0.0
  0
ARC
  5
4A4
330
1F
100
AcDbEntity
  8
SEIHIN
  6
Continuous
370
    15
100
AcDbCircle
 10
126.4992038225917
 20
69.57115157072547
 30
0.0
 40
0.4463392767840093
100
AcDbArc
 50
281.4217536589783
 51
8.049466975518134
  0
LINE
  5
4A5
330
1F
100
AcDbEntity
  8
SEIHIN
  6
Continuous
370
    15
100
AcDbLine
 10
126.9411455608334
 20
69.63365157072548
 30
0.0
 11
127.08759217024
 21
69.63365157072548
 31
0.0
  0
LINE
  5
4A6
330
1F
100
AcDbEntity
  8
SEIHIN
  6
Continuous
370
    15
100
AcDbLine
 10
124.0018057326131
 20
69.63365157072548
 30
0.0
 11
126.9411455608334
 21
69.63365157072548
 31
0.0
  0
ARC
  5
4A7
330
1F
100
AcDbEntity
  8
SEIHIN
  6
Continuous
370
    15
100
AcDbCircle
 10
123.5598639943713
 20
69.57115157072547
 30
0.0
 40
0.4463392767841241
100
AcDbArc
 50
281.4217536590041
 51
8.049466975511494
  0
LINE
  5
4A8
330
1F
100
AcDbEntity
  8
SEIHIN
  6
Continuous
370
    15
100
AcDbLine
 10
126.9411455608334
 20
69.63365157072548
 30
0.0
 11
126.9411455608334
 21
190.1336515707253
 31
0.0
  0
LINE
  5
4A9
330
1F
100
AcDbEntity
  8
SEIHIN
  6
Continuous
370
    15
100
AcDbLine
 10
126.9411455608334
 20
190.1336515707253
 30
0.0
 11
127.08759217024
 21
190.1336515707253
 31
0.0
  0
LINE
  5
4AA
330
1F
100
AcDbEntity
  8
SEIHIN
  6
Continuous
370
    15
100
AcDbLine
 10
124.0018057326131
 20
190.1336515707253
 30
0.0
 11
124.0018057326131
 21
69.63365157072548
 31
0.0
  0
LINE
  5
4AB
330
1F
100
AcDbEntity
  8
SEIHIN
  6
Continuous
370
    15
100
AcDbLine
 10
124.0018057326131
 20
190.1336515707253
 30
0.0
 11
126.9411455608334
 21
190.1336515707253
 31
0.0
  0
SPLINE
  5
4AC
330
1F
100
AcDbEntity
  8
SEIHIN
  6
Continuous
370
    15
100
AcDbSpline
210
0.0
220
0.0
230
1.0
 70
     8
 71
     3
 72
    10
 73
     6
 74
     0
 42
0.0000000001
 43
0.0000000001
 40
0.0
 40
0.0
 40
0.0
 40
0.0
 40
0.5
 40
0.5
 40
1.0
 40
1.0
 40
1.0
 40
1.0
 10
116.1456853072887
 20
69.14374225210264
 30
0.0
 10
116.1786435977118
 20
69.16678846919302
 30
0.0
 10
116.2028750617618
 20
69.22874678541865
 30
0.0
 10
116.2254126546282
 20
69.40675325326907
 30
0.0
 10
116.2230745511968
 20
69.51953642199788
 30
0.0
 10
116.2079859418593
 20
69.63217134595715
 30
0.0
  0
SPLINE
  5
4AD
330
1F
100
AcDbEntity
  8
SEIHIN
  6
Continuous
370
    15
100
AcDbSpline
210
0.0
220
0.0
230
1.0
 70
    24
 71
     3
 72
     8
 73
     4
 74
     0
 42
0.0000000001
 43
0.0000000001
 40
0.0
 40
0.0
 40
0.0
 40
0.0
 40
1.0
 40
1.0
 40
1.0
 40
1.0
 10
116.2079859418556
 20
69.63217134595715
 30
0.0
 10
116.2601561198279
 20
69.63265087958956
 30
0.0
 10
116.3138334265729
 20
69.63314426628421
 30
0.0
 10
116.3690249001908
 20
69.63365157072548
 30
0.0
  0
LINE
  5
4AE
330
1F
100
AcDbEntity
  8
SEIHIN
  6
Continuous
370
    15
100
AcDbLine
 10
116.3690249001908
 20
69.13365157072547
 30
0.0
 11
116.3690249001908
 21
69.63365157072548
 31
0.0
  0
LINE
  5
4AF
330
1F
100
AcDbEntity
  8
SEIHIN
  6
Continuous
370
    15
100
AcDbLine
 10
123.6482523420199
 20
69.63365157072548
 30
0.0
 11
123.6482523420199
 21
69.13365157072547
 31
0.0
  0
LINE
  5
4B0
330
1F
100
AcDbEntity
  8
SEIHIN
  6
Continuous
370
    15
100
AcDbLine
 10
123.6482523420199
 20
69.63365157072548
 30
0.0
 11
124.0018057326131
 21
69.63365157072548
 31
0.0
  0
LINE
  5
4B1
330
1F
100
AcDbEntity
  8
SEIHIN
  6
Continuous
370
    15
100
AcDbLine
 10
116.3690249001908
 20
69.63365157072548
 30
0.0
 11
123.6482523420199
 21
69.63365157072548
 31
0.0
  0
SPLINE
  5
4B2
330
1F
100
AcDbEntity
  8
SEIHIN
  6
Continuous
370
    15
100
AcDbSpline
210
0.0
220
0.0
230
1.0
 70
     8
 71
     3
 72
    10
 73
     6
 74
     0
 42
0.0000000001
 43
0.0000000001
 40
0.0
 40
0.0
 40
0.0
 40
0.0
 40
0.5
 40
0.5
 40
1.0
 40
1.0
 40
1.0
 40
1.0
 10
115.8929581336696
 20
69.47988558607647
 30
0.0
 10
115.919131672111
 20
69.48012616709099
 30
0.0
 10
115.9647793945501
 20
69.49672676918869
 30
0.0
 10
116.0756982056868
 20
69.55153914193528
 30
0.0
 10
116.1407682995517
 20
69.58943315329424
 30
0.0
 10
116.2079859418555
 20
69.63217134596693
 30
0.0
  0
LINE
  5
4B3
330
1F
100
AcDbEntity
  8
SEIHIN
  6
Continuous
370
    15
100
AcDbLine
 10
123.6482523420199
 20
69.63365157072548
 30
0.0
 11
123.6482523420199
 21
190.1336515707253
 31
0.0
  0
LINE
  5
4B4
330
1F
100
AcDbEntity
  8
SEIHIN
  6
Continuous
370
    15
100
AcDbLine
 10
123.6482523420199
 20
190.1336515707253
 30
0.0
 11
124.0018057326131
 21
190.1336515707253
 31
0.0
  0
LWPOLYLINE
  5
4B5
330
1F
100
AcDbEntity
  8
SEIHIN
  6
Continuous
370
    15
100
AcDbPolyline
 90
        4
 70
   128
 43
0.0
 10
117.4748270700415
 20
190.1336515707253
 10
116.8869742972156
 20
126.02196521829
 10
116.7641536794444
 20
112.6420572913664
 10
116.3690249001908
 20
69.63365157072548
  0
SPLINE
  5
4B6
330
1F
100
AcDbEntity
  8
SEIHIN
  6
Continuous
370
    15
100
AcDbSpline
210
0.0
220
0.0
230
1.0
 70
    24
 71
     3
 72
    10
 73
     6
 74
     0
 42
0.0000000001
 43
0.0000000001
 40
0.0
 40
0.0
 40
0.0
 40
0.0
 40
0.5
 40
0.5
 40
1.0
 40
1.0
 40
1.0
 40
1.0
 10
116.9984940961404
 20
190.1336515707253
 30
0.0
 10
117.0307550087788
 20
190.1336515707253
 30
0.0
 10
117.0945237717888
 20
190.1336515707253
 30
0.0
 10
117.2646025893489
 20
190.1336515707253
 30
0.0
 10
117.3687601455576
 20
190.1336515707253
 30
0.0
 10
117.4748270700415
 20
190.1336515707253
 30
0.0
  0
LINE
  5
4B7
330
1F
100
AcDbEntity
  8
SEIHIN
  6
Continuous
370
    15
100
AcDbLine
 10
117.4748270700415
 20
190.1336515707253
 30
0.0
 11
123.6482523420199
 21
190.1336515707253
 31
0.0
  0
HATCH
  5
4B8
330
1F
100
AcDbEntity
  8
SEIHIN
  6
Continuous
370
    15
100
AcDbHatch
 10
0.0
 20
0.0
 30
0.0
210
0.0
220
0.0
230
1.0
  2
ANSI31
 70
     0
 71
     0
 91
        1
 92
        0
 93
       12
 72
     1
 10
58.861244118088
 20
36.63365157072548
 11
60.53759217024145
 21
36.63365157072548
 72
     1
 10
60.53759217024145
 20
36.63365157072548
 11
60.53759217024145
 21
66.58519694002229
 72
     2
 10
59.03759217024134
 20
66.58519694002229
 40
1.5
 50
0.0
 51
69.90476880809154
 73
     1
 72
     1
 10
59.55296446713674
 20
67.99388121820271
 11
56.76276082766498
 21
69.01468742776552
 72
     2
 10
56.93455159329682
 20
69.48424885382559
 40
0.5
 50
110.0952311919131
 51
179.499999999997
 73
     0
 72
     1
 10
56.43457063176476
 20
69.47988558607647
 11
55.38164116755956
 21
190.1336515707255
 72
     1
 10
55.38164116755956
 20
190.1336515707253
 11
54.08759217024135
 21
190.1336515707253
 72
     1
 10
54.08759217024135
 20
190.1336515707253
 11
54.08759217024135
 21
67.13365157072536
 72
     2
 10
54.58759217024141
 20
67.13365157072548
 40
0.5
 50
180.0
 51
270.0000000000008
 73
     1
 72
     1
 10
54.58759217024141
 20
66.63365157072547
 11
58.03759217024134
 21
66.63365157072547
 72
     1
 10
58.03759217024134
 20
66.63365157072547
 11
58.50888689877598
 21
39.63319465619469
 72
     1
 10
58.50888689877598
 20
39.6331946561947
 11
58.861244118088
 21
36.63365157072548
 97
        0
 75
     0
 76
     1
 52
0.0
 41
1.0
 77
     0
 78
     1
 53
45.0
 43
-456.1014275146909
 44
-42.62951978957477
 45
-2.245064030267287
 46
2.245064030267288
 79
     0
 98
        1
 10
-456.1014275146909
 20
-42.62951978957477
  0
HATCH
  5
4B9
330
1F
100
AcDbEntity
  8
SEIHIN
  6
Continuous
370
    15
100
AcDbHatch
 10
0.0
 20
0.0
 30
0.0
210
0.0
220
0.0
230
1.0
  2
ANSI31
 70
     0
 71
     0
 91
        1
 92
        0
 93
       13
 72
     2
 10
114.8375921702414
 20
66.58519694002229
 40
1.5
 50
110.0952311919044
 51
180.0
 73
     1
 72
     1
 10
113.3375921702414
 20
66.58519694002229
 11
113.3375921702414
 21
36.63365157072548
 72
     1
 10
113.3375921702414
 20
36.63365157072548
 11
115.0139402223948
 21
36.63365157072548
 72
     1
 10
115.0139402223948
 20
36.63365157072548
 11
115.3662974417067
 21
39.6331946561947
 72
     1
 10
115.3662974417067
 20
39.6331946561947
 11
115.8375921702414
 21
66.63365157072547
 72
     1
 10
115.8375921702414
 20
66.63365157072547
 11
128.3375921702401
 21
66.63365157072547
 72
     2
 10
128.3375921702401
 20
67.13365157072548
 40
0.5
 50
270.0000000000008
 51
360.0000000000008
 73
     1
 72
     1
 10
128.8375921702401
 20
67.13365157072548
 11
128.8375921702401
 21
190.1336515707255
 72
     1
 10
128.8375921702401
 20
190.1336515707253
 11
127.08759217024
 21
190.1336515707253
 72
     1
 10
127.08759217024
 20
190.1336515707253
 11
127.08759217024
 21
69.63365157072536
 72
     2
 10
126.5875921702401
 20
69.63365157072536
 40
0.5
 50
0.0
 51
90.0
 73
     0
 72
     1
 10
126.5875921702401
 20
69.13365157072536
 11
117.4375921702413
 21
69.13365157072536
 72
     1
 10
117.4375921702413
 20
69.13365157072536
 11
114.3222198733461
 21
67.99388121820271
 97
        0
 75
     0
 76
     1
 52
0.0
 41
1.0
 77
     0
 78
     1
 53
45.0
 43
-456.1014275146909
 44
-42.62951978957477
 45
-2.245064030267287
 46
2.245064030267288
 79
     0
 98
        1
 10
-456.1014275146909
 20
-42.62951978957477
  0
ARC
  5
4BA
330
1F
100
AcDbEntity
  8
SEIHIN
  6
Continuous
370
    15
100
AcDbCircle
 10
295.1206013136596
 20
233.0169730476807
 30
0.0
 40
0.5000000000001137
100
AcDbArc
 50
270.0
 51
314.9999999999905
  0
LINE
  5
4BB
330
1F
100
AcDbEntity
  8
SEIHIN
  6
Continuous
370
    15
100
AcDbLine
 10
295.4741547042528
 20
232.6634196570873
 30
0.0
 11
298.4134945324731
 21
235.6027594853077
 31
0.0
  0
ARC
  5
4BC
330
1F
100
AcDbEntity
  8
SEIHIN
  6
Continuous
370
    15
100
AcDbCircle
 10
298.0599411418797
 20
235.9563128759009
 30
0.0
 40
0.5
100
AcDbArc
 50
315.0000000000066
 51
0.0
  0
LINE
  5
4BD
330
1F
100
AcDbEntity
  8
SEIHIN
  6
Continuous
370
    15
100
AcDbLine
 10
298.5599411418797
 20
235.9563128759009
 30
0.0
 11
298.5599411418797
 21
247.5776332194603
 31
0.0
  0
ARC
  5
4BE
330
1F
100
AcDbEntity
  8
SEIHIN
  6
Continuous
370
    15
100
AcDbCircle
 10
298.0599411418798
 20
247.5776332194603
 30
0.0
 40
0.5000000000000443
100
AcDbArc
 50
0.0
 51
45.00000000000258
  0
LINE
  5
4BF
330
1F
100
AcDbEntity
  8
SEIHIN
  6
Continuous
370
    15
100
AcDbLine
 10
295.4741547042528
 20
250.8705264382739
 30
0.0
 11
298.4134945324731
 21
247.9311866100537
 31
0.0
  0
ARC
  5
4C0
330
1F
100
AcDbEntity
  8
SEIHIN
  6
Continuous
370
    15
100
AcDbCircle
 10
295.1206013136596
 20
250.5169730476807
 30
0.0
 40
0.5
100
AcDbArc
 50
45.00000000000029
 51
90.0
  0
LINE
  5
4C1
330
1F
100
AcDbEntity
  8
SEIHIN
  6
Continuous
370
    15
100
AcDbLine
 10
288.9471760416812
 20
251.0169730476808
 30
0.0
 11
295.1206013136596
 21
251.0169730476808
 31
0.0
  0
SPLINE
  5
4C2
330
1F
100
AcDbEntity
  8
SEIHIN
  6
Continuous
370
    15
100
AcDbSpline
210
0.0
220
0.0
230
1.0
 70
     8
 71
     3
 72
    10
 73
     6
 74
     0
 42
0.0000000001
 43
0.0000000001
 40
0.0
 40
0.0
 40
0.0
 40
0.0
 40
0.5
 40
0.5
 40
1.0
 40
1.0
 40
1.0
 40
1.0
 10
288.4708430677802
 20
251.3649009013966
 30
0.0
 10
288.5031039804188
 20
251.2638590780317
 30
0.0
 10
288.5668727434286
 20
251.1756755419644
 30
0.0
 10
288.7369515609888
 20
251.0512351109682
 30
0.0
 10
288.8411091171974
 20
251.0169730476808
 30
0.0
 10
288.9471760416812
 20
251.0169730476808
 30
0.0
  0
ARC
  5
4C3
330
1F
100
AcDbEntity
  8
SEIHIN
  6
Continuous
370
    15
100
AcDbCircle
 10
258.4099411418812
 20
241.7669730476808
 30
0.0
 40
31.55595100268178
100
AcDbArc
 50
17.70738647418073
 51
342.2926135258193
  0
SPLINE
  5
4C4
330
1F
100
AcDbEntity
  8
SEIHIN
  6
Continuous
370
    15
100
AcDbSpline
210
0.0
220
0.0
230
1.0
 70
     8
 71
     3
 72
    10
 73
     6
 74
     0
 42
0.0000000001
 43
0.0000000001
 40
0.0
 40
0.0
 40
0.0
 40
0.0
 40
0.5
 40
0.5
 40
1.0
 40
1.0
 40
1.0
 40
1.0
 10
288.9471760416812
 20
232.5169730476807
 30
0.0
 10
288.8411090676023
 20
232.5169730476807
 30
0.0
 10
288.7377067312813
 20
232.4830509295864
 30
0.0
 10
288.5674274167346
 20
232.3588873427396
 30
0.0
 10
288.5031039932185
 20
232.2700870574195
 30
0.0
 10
288.4708430677802
 20
232.169045193965
 30
0.0
  0
LINE
  5
4C5
330
1F
100
AcDbEntity
  8
SEIHIN
  6
Continuous
370
    15
100
AcDbLine
 10
288.9471760416812
 20
232.5169730476807
 30
0.0
 11
295.1206013136596
 21
232.5169730476807
 31
0.0
  0
ARC
  5
4C6
330
1F
100
AcDbEntity
  8
SEIHIN
  6
Continuous
370
    15
100
AcDbCircle
 10
295.8454750478125
 20
252.2669730476807
 30
0.0
 40
0.4999999999999639
100
AcDbArc
 50
44.99999999999338
 51
90.0
  0
LINE
  5
4C7
330
1F
100
AcDbEntity
  8
SEIHIN
  6
Continuous
370
    15
100
AcDbLine
 10
300.1634945324731
 20
248.6560603442066
 30
0.0
 11
296.1990284384057
 21
252.6205264382739
 31
0.0
  0
ARC
  5
4C8
330
1F
100
AcDbEntity
  8
SEIHIN
  6
Continuous
370
    15
100
AcDbCircle
 10
299.8099411418798
 20
248.3025069536134
 30
0.0
 40
0.5
100
AcDbArc
 50
0.0
 51
44.99999999999338
  0
LINE
  5
4C9
330
1F
100
AcDbEntity
  8
SEIHIN
  6
Continuous
370
    15
100
AcDbLine
 10
300.3099411418797
 20
248.3025069536134
 30
0.0
 11
300.3099411418797
 21
235.2314391417479
 31
0.0
  0
ARC
  5
4CA
330
1F
100
AcDbEntity
  8
SEIHIN
  6
Continuous
370
    15
100
AcDbCircle
 10
299.8099411418797
 20
235.2314391417479
 30
0.0
 40
0.5
100
AcDbArc
 50
315.0000000000066
 51
0.0
  0
LINE
  5
4CB
330
1F
100
AcDbEntity
  8
SEIHIN
  6
Continuous
370
    15
100
AcDbLine
 10
300.1634945324731
 20
234.8778857511547
 30
0.0
 11
296.1990284384057
 21
230.9134196570873
 31
0.0
  0
ARC
  5
4CC
330
1F
100
AcDbEntity
  8
SEIHIN
  6
Continuous
370
    15
100
AcDbCircle
 10
295.8454750478125
 20
231.2669730476807
 30
0.0
 40
0.5000000000000443
100
AcDbArc
 50
270.0
 51
314.9999999999974
  0
LINE
  5
4CD
330
1F
100
AcDbEntity
  8
SEIHIN
  6
Continuous
370
    15
100
AcDbLine
 10
295.8454750478125
 20
230.7669730476808
 30
0.0
 11
292.5170479230581
 21
230.7669730476808
 31
0.0
  0
ARC
  5
4CE
330
1F
100
AcDbEntity
  8
SEIHIN
  6
Continuous
370
    15
100
AcDbCircle
 10
292.5170479230581
 20
231.2669730476808
 30
0.0
 40
0.5000000000000844
100
AcDbArc
 50
225.0000000000006
 51
270.0
  0
LINE
  5
4CF
330
1F
100
AcDbEntity
  8
SEIHIN
  6
Continuous
370
    15
100
AcDbLine
 10
291.9563877512782
 20
231.1205264382741
 30
0.0
 11
292.1634945324647
 21
230.9134196570874
 31
0.0
  0
ARC
  5
4D0
330
1F
100
AcDbEntity
  8
SEIHIN
  6
Continuous
370
    15
100
AcDbCircle
 10
291.602834360685
 20
230.7669730476808
 30
0.0
 40
0.5000000000000443
100
AcDbArc
 50
45.00000000000258
 51
90.0
  0
LINE
  5
4D1
330
1F
100
AcDbEntity
  8
SEIHIN
  6
Continuous
370
    15
100
AcDbLine
 10
289.8936273936529
 20
231.2669730476808
 30
0.0
 11
291.602834360685
 21
231.2669730476808
 31
0.0
  0
ARC
  5
4D2
330
1F
100
AcDbEntity
  8
SEIHIN
  6
Continuous
370
    15
100
AcDbCircle
 10
289.8936273936529
 20
230.7669730476808
 30
0.0
 40
0.500000000000001
100
AcDbArc
 50
90.0
 51
160.7412340227699
  0
ARC
  5
4D3
330
1F
100
AcDbEntity
  8
SEIHIN
  6
Continuous
370
    15
100
AcDbCircle
 10
258.4099411418812
 20
241.7669730476808
 30
0.0
 40
32.84999999999997
100
AcDbArc
 50
19.25876597722331
 51
340.7412340227767
  0
ARC
  5
4D4
330
1F
100
AcDbEntity
  8
SEIHIN
  6
Continuous
370
    15
100
AcDbCircle
 10
289.8936273936529
 20
252.7669730476806
 30
0.0
 40
0.4999999999999635
100
AcDbArc
 50
199.2587659772167
 51
270.0
  0
LINE
  5
4D5
330
1F
100
AcDbEntity
  8
SEIHIN
  6
Continuous
370
    15
100
AcDbLine
 10
289.8936273936529
 20
252.2669730476808
 30
0.0
 11
291.602834360685
 21
252.2669730476808
 31
0.0
  0
ARC
  5
4D6
330
1F
100
AcDbEntity
  8
SEIHIN
  6
Continuous
370
    15
100
AcDbCircle
 10
291.602834360685
 20
252.7669730476806
 30
0.0
 40
0.4999999999998864
100
AcDbArc
 50
270.0
 51
315.0000000000158
  0
LINE
  5
4D7
330
1F
100
AcDbEntity
  8
SEIHIN
  6
Continuous
370
    15
100
AcDbLine
 10
291.9563877512782
 20
252.4134196570876
 30
0.0
 11
292.1634945324647
 21
252.620526438274
 31
0.0
  0
ARC
  5
4D8
330
1F
100
AcDbEntity
  8
SEIHIN
  6
Continuous
370
    15
100
AcDbCircle
 10
292.5170479230581
 20
252.2669730476808
 30
0.0
 40
0.500000000000004
100
AcDbArc
 50
90.0
 51
135.0000000000093
  0
LINE
  5
4D9
330
1F
100
AcDbEntity
  8
SEIHIN
  6
Continuous
370
    15
100
AcDbLine
 10
295.8454750478125
 20
252.7669730476806
 30
0.0
 11
292.5170479230581
 21
252.7669730476806
 31
0.0
  0
ARC
  5
4DA
330
1F
100
AcDbEntity
  8
SEIHIN
  6
Continuous
370
    15
100
AcDbCircle
 10
258.4099411418812
 20
241.7669730476808
 30
0.0
 40
30.50302153847659
100
AcDbArc
 50
18.3297669357746
 51
341.6702330642253
  0
SPLINE
  5
4DB
330
1F
100
AcDbEntity
  8
SEIHIN
  6
Continuous
370
    15
100
AcDbSpline
210
0.0
220
0.0
230
1.0
 70
     8
 71
     3
 72
    10
 73
     6
 74
     0
 42
0.0000000001
 43
0.0000000001
 40
0.0
 40
0.0
 40
0.0
 40
0.0
 40
0.5
 40
0.5
 40
1.0
 40
1.0
 40
1.0
 40
1.0
 10
287.6803349134994
 20
232.4903365737752
 30
0.0
 10
287.6131172711946
 20
232.4676065429134
 30
0.0
 10
287.5480471773281
 20
232.429662329773
 30
0.0
 10
287.4371283661905
 20
232.3227816570149
 30
0.0
 10
287.3914806437511
 20
232.2532069818434
 30
0.0
 10
287.3653071053096
 20
232.1742098951422
 30
0.0
  0
SPLINE
  5
4DC
330
1F
100
AcDbEntity
  8
SEIHIN
  6
Continuous
370
    15
100
AcDbSpline
210
0.0
220
0.0
230
1.0
 70
     8
 71
     3
 72
     8
 73
     4
 74
     0
 42
0.0000000001
 43
0.0000000001
 40
0.0
 40
0.0
 40
0.0
 40
0.0
 40
1.0
 40
1.0
 40
1.0
 40
1.0
 10
287.8413738718306
 20
232.5169730476807
 30
0.0
 10
287.7861823982142
 20
232.5169730476807
 30
0.0
 10
287.7325050914705
 20
232.5080804449454
 30
0.0
 10
287.6803349134995
 20
232.4903365737746
 30
0.0
  0
LINE
  5
4DD
330
1F
100
AcDbEntity
  8
SEIHIN
  6
Continuous
370
    15
100
AcDbLine
 10
287.8413738718306
 20
232.5169730476807
 30
0.0
 11
288.9471760416812
 21
232.5169730476807
 31
0.0
  0
SPLINE
  5
4DE
330
1F
100
AcDbEntity
  8
SEIHIN
  6
Continuous
370
    15
100
AcDbSpline
210
0.0
220
0.0
230
1.0
 70
     8
 71
     3
 72
     8
 73
     4
 74
     0
 42
0.0000000001
 43
0.0000000001
 40
0.0
 40
0.0
 40
0.0
 40
0.0
 40
1.0
 40
1.0
 40
1.0
 40
1.0
 10
287.6803349134955
 20
251.0436095215882
 30
0.0
 10
287.7325050914677
 20
251.0258656504165
 30
0.0
 10
287.7861823982128
 20
251.0169730476808
 30
0.0
 10
287.8413738718306
 20
251.0169730476808
 30
0.0
  0
SPLINE
  5
4DF
330
1F
100
AcDbEntity
  8
SEIHIN
  6
Continuous
370
    15
100
AcDbSpline
210
0.0
220
0.0
230
1.0
 70
     8
 71
     3
 72
    10
 73
     6
 74
     0
 42
0.0000000001
 43
0.0000000001
 40
0.0
 40
0.0
 40
0.0
 40
0.0
 40
0.5
 40
0.5
 40
1.0
 40
1.0
 40
1.0
 40
1.0
 10
287.3653071053096
 20
251.3597362002194
 30
0.0
 10
287.3914806437509
 20
251.2807391135186
 30
0.0
 10
287.4371283661899
 20
251.2111644383476
 30
0.0
 10
287.5480471773265
 20
251.1042837655897
 30
0.0
 10
287.6131172711914
 20
251.0663395524495
 30
0.0
 10
287.6803349134953
 20
251.0436095215883
 30
0.0
  0
LINE
  5
4E0
330
1F
100
AcDbEntity
  8
SEIHIN
  6
Continuous
370
    15
100
AcDbLine
 10
288.9471760416812
 20
251.0169730476808
 30
0.0
 11
287.8413738718306
 21
251.0169730476808
 31
0.0
  0
SPLINE
  5
4E1
330
1F
100
AcDbEntity
  8
SEIHIN
  6
Continuous
370
    15
100
AcDbSpline
210
0.0
220
0.0
230
1.0
 70
     8
 71
     3
 72
    12
 73
     8
 74
     0
 42
0.0000000001
 43
0.0000000001
 40
0.0
 40
0.0
 40
0.0
 40
0.0
 40
0.2499999999999989
 40
0.2499999999999989
 40
0.4999999999999978
 40
0.4999999999999978
 40
1.0
 40
1.0
 40
1.0
 40
1.0
 10
287.0537685511398
 20
232.2774210086472
 30
0.0
 10
287.0767530148425
 20
232.3467986788139
 30
0.0
 10
287.1067365910847
 20
232.4123357104558
 30
0.0
 10
287.1800382433608
 20
232.5360936259718
 30
0.0
 10
287.2239229165885
 20
232.5947012473054
 30
0.0
 10
287.3695671071444
 20
232.7513630993625
 30
0.0
 10
287.48850500845
 20
232.8341669986593
 30
0.0
 10
287.618034278929
 20
232.8888815319562
 30
0.0
  0
SPLINE
  5
4E2
330
1F
100
AcDbEntity
  8
SEIHIN
  6
Continuous
370
    15
100
AcDbSpline
210
0.0
220
0.0
230
1.0
 70
     8
 71
     3
 72
    12
 73
     8
 74
     0
 42
0.0000000001
 43
0.0000000001
 40
0.0
 40
0.0
 40
0.0
 40
0.0
 40
0.500000000000004
 40
0.500000000000004
 40
0.750000000000002
 40
0.750000000000002
 40
1.0
 40
1.0
 40
1.0
 40
1.0
 10
287.6180342789285
 20
250.645064563404
 30
0.0
 10
287.4885050084493
 20
250.699779096701
 30
0.0
 10
287.3695671071443
 20
250.7825829959991
 30
0.0
 10
287.2239229165885
 20
250.939244848056
 30
0.0
 10
287.1800382433608
 20
250.9978524693898
 30
0.0
 10
287.1067365910847
 20
251.1216103849057
 30
0.0
 10
287.0767530148425
 20
251.1871474165477
 30
0.0
 10
287.0537685511398
 20
251.2565250867142
 30
0.0
  0
SPLINE
  5
4E3
330
1F
100
AcDbEntity
  8
SEIHIN
  6
Continuous
370
    15
100
AcDbSpline
210
0.0
220
0.0
230
1.0
 70
     8
 71
     3
 72
     8
 73
     4
 74
     0
 42
0.0000000001
 43
0.0000000001
 40
0.0
 40
0.0
 40
0.0
 40
0.0
 40
1.0
 40
1.0
 40
1.0
 40
1.0
 10
287.8413738718306
 20
250.5169730476808
 30
0.0
 10
287.7668159590344
 20
250.5169730476808
 30
0.0
 10
287.6931789049251
 20
250.5252076804973
 30
0.0
 10
287.6204627152702
 20
250.541676997705
 30
0.0
  0
SPLINE
  5
4E4
330
1F
100
AcDbEntity
  8
SEIHIN
  6
Continuous
370
    15
100
AcDbSpline
210
0.0
220
0.0
230
1.0
 70
     8
 71
     3
 72
    11
 73
     7
 74
     0
 42
0.0000000001
 43
0.0000000001
 40
0.0
 40
0.0
 40
0.0
 40
0.0
 40
0.0000576217091357
 40
0.0000576217091357
 40
0.0000576217091357
 40
0.0001051499887755
 40
0.0001051499887755
 40
0.0001051499887755
 40
0.0001051499887755
 10
287.6204627152702
 20
250.541676997705
 30
0.0
 10
287.6149368853381
 20
250.5600721909049
 30
0.0
 10
287.6115572840459
 20
250.579411492567
 30
0.0
 10
287.6114331815298
 20
250.5985160099298
 30
0.0
 10
287.6113307270389
 20
250.6142879995927
 30
0.0
 10
287.6135058683158
 20
250.6302017060786
 30
0.0
 10
287.6180342789321
 20
250.6450645634039
 30
0.0
  0
SPLINE
  5
4E5
330
1F
100
AcDbEntity
  8
SEIHIN
  6
Continuous
370
    15
100
AcDbSpline
210
0.0
220
0.0
230
1.0
 70
     8
 71
     3
 72
     8
 73
     4
 74
     0
 42
0.0000000001
 43
0.0000000001
 40
0.0
 40
0.0
 40
0.0
 40
0.0
 40
1.0
 40
1.0
 40
1.0
 40
1.0
 10
287.6180342789285
 20
232.8888815319576
 30
0.0
 10
287.6078771895705
 20
232.9222184757023
 30
0.0
 10
287.6102634654736
 20
232.958316338921
 30
0.0
 10
287.6204627152702
 20
232.9922690976565
 30
0.0
  0
SPLINE
  5
4E6
330
1F
100
AcDbEntity
  8
SEIHIN
  6
Continuous
370
    15
100
AcDbSpline
210
0.0
220
0.0
230
1.0
 70
     8
 71
     3
 72
     8
 73
     4
 74
     0
 42
0.0000000001
 43
0.0000000001
 40
0.0
 40
0.0
 40
0.0
 40
0.0
 40
1.0
 40
1.0
 40
1.0
 40
1.0
 10
287.6204627152702
 20
232.9922690976565
 30
0.0
 10
287.6931789049251
 20
233.0087384148641
 30
0.0
 10
287.7668159590344
 20
233.0169730476808
 30
0.0
 10
287.8413738718306
 20
233.0169730476808
 30
0.0
  0
LINE
  5
4E7
330
1F
100
AcDbEntity
  8
SEIHIN
  6
Continuous
370
    15
100
AcDbLine
 10
295.1206013136595
 20
233.0169730476807
 30
0.0
 11
298.0599411418797
 21
235.9563128759009
 31
0.0
  0
LINE
  5
4E8
330
1F
100
AcDbEntity
  8
SEIHIN
  6
Continuous
370
    15
100
AcDbLine
 10
287.8413738718306
 20
233.0169730476808
 30
0.0
 11
295.1206013136596
 21
233.0169730476808
 31
0.0
  0
LINE
  5
4E9
330
1F
100
AcDbEntity
  8
SEIHIN
  6
Continuous
370
    15
100
AcDbLine
 10
298.0599411418797
 20
235.9563128759009
 30
0.0
 11
298.0599411418797
 21
247.5776332194603
 31
0.0
  0
LINE
  5
4EA
330
1F
100
AcDbEntity
  8
SEIHIN
  6
Continuous
370
    15
100
AcDbLine
 10
298.0599411418797
 20
247.5776332194603
 30
0.0
 11
295.1206013136595
 21
250.5169730476807
 31
0.0
  0
LINE
  5
4EB
330
1F
100
AcDbEntity
  8
SEIHIN
  6
Continuous
370
    15
100
AcDbLine
 10
295.1206013136596
 20
250.5169730476808
 30
0.0
 11
287.8413738718306
 21
250.5169730476808
 31
0.0
  0
ARC
  5
4EC
330
1F
100
AcDbEntity
  8
SEIHIN
  6
Continuous
370
    15
100
AcDbCircle
 10
258.4099411418812
 20
241.7669730476808
 30
0.0
 40
30.1748313425763
100
AcDbArc
 50
18.3297669357746
 51
341.6702330642253
  0
ARC
  5
4ED
330
1F
100
AcDbEntity
  8
SEIHIN
  6
Continuous
370
    15
100
AcDbCircle
 10
258.4099411418812
 20
241.7669730476808
 30
0.0
 40
30.49999999999998
100
AcDbArc
 50
343.2799781030326
 51
16.72002189696106
  0
CIRCLE
  5
4EE
330
1F
100
AcDbEntity
  8
SEIHIN
  6
Continuous
370
    15
100
AcDbCircle
 10
258.4099411418812
 20
241.7669730476808
 30
0.0
 40
27.38462770310468
  0
CIRCLE
  5
4EF
330
1F
100
AcDbEntity
  8
SEIHIN
  6
Continuous
370
    15
100
AcDbCircle
 10
258.4099411418812
 20
241.7669730476808
 30
0.0
 40
26.40000000000004
  0
INSERT
  5
4F0
330
1F
100
AcDbEntity
  8
CENTER L
  6
Continuous
370
    15
100
AcDbBlockReference
  2
SW_CENTERMARKSYMBOL_0
 10
258.4099411418817
 20
241.7669730476803
 30
0.0
 50
270.0
  0
ARC
  5
4F1
330
1F
100
AcDbEntity
  8
SEIHIN
  6
Continuous
370
    15
100
AcDbCircle
 10
226.0599411418817
 20
67.13365157072548
 30
0.0
 40
0.5
100
AcDbArc
 50
180.0
 51
270.0000000000008
  0
LINE
  5
4F2
330
1F
100
AcDbEntity
  8
SEIHIN
  6
Continuous
370
    15
100
AcDbLine
 10
225.5599411418817
 20
190.1336515707255
 30
0.0
 11
225.5599411418817
 21
67.13365157072548
 31
0.0
  0
LINE
  5
4F3
330
1F
100
AcDbEntity
  8
SEIHIN
  6
Continuous
370
    15
100
AcDbLine
 10
229.5099411418817
 20
66.63365157072547
 30
0.0
 11
229.9812358704163
 21
39.63319465619458
 31
0.0
  0
LINE
  5
4F4
330
1F
100
AcDbEntity
  8
SEIHIN
  6
Continuous
370
    15
100
AcDbLine
 10
286.8386464133469
 20
39.63319465619458
 30
0.0
 11
287.3099411418814
 21
66.63365157072547
 31
0.0
  0
LINE
  5
4F5
330
1F
100
AcDbEntity
  8
SEIHIN
  6
Continuous
370
    15
100
AcDbLine
 10
229.9812358704163
 20
39.63319465619458
 30
0.0
 11
230.3335930897282
 21
36.63365157072548
 31
0.0
  0
LINE
  5
4F6
330
1F
100
AcDbEntity
  8
SEIHIN
  6
Continuous
370
    15
100
AcDbLine
 10
286.4862891940351
 20
36.63365157072548
 30
0.0
 11
286.8386464133469
 21
39.63319465619458
 31
0.0
  0
LINE
  5
4F7
330
1F
100
AcDbEntity
  8
SEIHIN
  6
Continuous
370
    15
100
AcDbLine
 10
288.9495888253844
 20
66.63365157072547
 30
0.0
 11
226.0599411418817
 21
66.63365157072547
 31
0.0
  0
ARC
  5
4F8
330
1F
100
AcDbEntity
  8
SEIHIN
  6
Continuous
370
    15
100
AcDbCircle
 10
288.9351838019459
 20
67.12005267302294
 30
0.0
 40
0.4866143617039792
100
AcDbArc
 50
271.6963486956917
 51
1.60139313348272
  0
LINE
  5
4F9
330
1F
100
AcDbEntity
  8
SEIHIN
  6
Continuous
370
    15
100
AcDbLine
 10
289.4216081095189
 20
190.1336515707255
 30
0.0
 11
225.5599411418817
 21
190.1336515707255
 31
0.0
  0
LINE
  5
4FA
330
1F
100
AcDbEntity
  8
SEIHIN
  6
Continuous
370
    15
100
AcDbLine
 10
289.4216081095189
 20
67.13365157072548
 30
0.0
 11
289.4216081095189
 21
190.1336515707255
 31
0.0
  0
LINE
  5
4FB
330
1F
100
AcDbEntity
  8
SEIHIN
  6
Continuous
370
    15
100
AcDbLine
 10
229.9812358704163
 20
39.63319465619458
 30
0.0
 11
286.8386464133469
 21
39.63319465619458
 31
0.0
  0
LINE
  5
4FC
330
1F
100
AcDbEntity
  8
SEIHIN
  6
Continuous
370
    15
100
AcDbLine
 10
286.4862891940351
 20
36.63365157072548
 30
0.0
 11
230.3335930897282
 21
36.63365157072548
 31
0.0
  0
ARC
  5
4FD
330
1F
100
AcDbEntity
  8
SEIHIN
  6
Continuous
370
    15
100
AcDbCircle
 10
295.7570867001647
 20
67.07115157072536
 30
0.0
 40
0.4463392767838994
100
AcDbArc
 50
281.4217536589664
 51
8.049466975537868
  0
LINE
  5
4FE
330
1F
100
AcDbEntity
  8
SEIHIN
  6
Continuous
370
    15
100
AcDbLine
 10
295.8454750478131
 20
67.13365157072548
 30
0.0
 11
295.8454750478131
 21
66.63365157072547
 31
0.0
  0
LINE
  5
4FF
330
1F
100
AcDbEntity
  8
SEIHIN
  6
Continuous
370
    15
100
AcDbLine
 10
295.8454750478131
 20
67.13365157072548
 30
0.0
 11
296.1990284384063
 21
67.13365157072548
 31
0.0
  0
LINE
  5
500
330
1F
100
AcDbEntity
  8
SEIHIN
  6
Continuous
370
    15
100
AcDbLine
 10
292.5170479230585
 20
67.13365157072548
 30
0.0
 11
295.8454750478131
 21
67.13365157072548
 31
0.0
  0
LINE
  5
501
330
1F
100
AcDbEntity
  8
SEIHIN
  6
Continuous
370
    15
100
AcDbLine
 10
292.5170479230585
 20
67.13365157072548
 30
0.0
 11
292.5170479230585
 21
66.63365157072547
 31
0.0
  0
LINE
  5
502
330
1F
100
AcDbEntity
  8
SEIHIN
  6
Continuous
370
    15
100
AcDbLine
 10
295.8454750478131
 20
66.63365157072547
 30
0.0
 11
292.5170479230585
 21
66.63365157072547
 31
0.0
  0
LINE
  5
503
330
1F
100
AcDbEntity
  8
SEIHIN
  6
Continuous
370
    15
100
AcDbLine
 10
295.8454750478131
 20
67.13365157072548
 30
0.0
 11
295.8454750478131
 21
190.1336515707255
 31
0.0
  0
LINE
  5
504
330
1F
100
AcDbEntity
  8
SEIHIN
  6
Continuous
370
    15
100
AcDbLine
 10
295.8454750478131
 20
190.1336515707255
 30
0.0
 11
296.1990284384063
 21
190.1336515707255
 31
0.0
  0
LINE
  5
505
330
1F
100
AcDbEntity
  8
SEIHIN
  6
Continuous
370
    15
100
AcDbLine
 10
292.5170479230585
 20
190.1336515707255
 30
0.0
 11
292.5170479230585
 21
67.13365157072548
 31
0.0
  0
LINE
  5
506
330
1F
100
AcDbEntity
  8
SEIHIN
  6
Continuous
370
    15
100
AcDbLine
 10
295.8454750478131
 20
190.1336515707255
 30
0.0
 11
292.5170479230585
 21
190.1336515707255
 31
0.0
  0
ARC
  5
507
330
1F
100
AcDbEntity
  8
SEIHIN
  6
Continuous
370
    15
100
AcDbCircle
 10
292.605436270707
 20
67.07115157072559
 30
0.0
 40
0.4463392767841087
100
AcDbArc
 50
171.9505330244818
 51
258.5782463410091
  0
LINE
  5
508
330
1F
100
AcDbEntity
  8
SEIHIN
  6
Continuous
370
    15
100
AcDbLine
 10
292.1634945324652
 20
67.13365157072548
 30
0.0
 11
292.5170479230585
 21
67.13365157072548
 31
0.0
  0
LINE
  5
509
330
1F
100
AcDbEntity
  8
SEIHIN
  6
Continuous
370
    15
100
AcDbLine
 10
292.1634945324652
 20
190.1336515707255
 30
0.0
 11
292.5170479230585
 21
190.1336515707255
 31
0.0
  0
LINE
  5
50A
330
1F
100
AcDbEntity
  8
SEIHIN
  6
Continuous
370
    15
100
AcDbLine
 10
296.1990284384063
 20
67.13365157072548
 30
0.0
 11
300.1634945324736
 21
67.13365157072548
 31
0.0
  0
ARC
  5
50B
330
1F
100
AcDbEntity
  8
SEIHIN
  6
Continuous
370
    15
100
AcDbCircle
 10
299.7215527942322
 20
67.07115157072536
 30
0.0
 40
0.4463392767838025
100
AcDbArc
 50
281.421753658938
 51
8.049466975544396
  0
LINE
  5
50C
330
1F
100
AcDbEntity
  8
SEIHIN
  6
Continuous
370
    15
100
AcDbLine
 10
299.8099411418803
 20
66.63365157072547
 30
0.0
 11
295.8454750478131
 21
66.63365157072547
 31
0.0
  0
LINE
  5
50D
330
1F
100
AcDbEntity
  8
SEIHIN
  6
Continuous
370
    15
100
AcDbLine
 10
300.1634945324736
 20
190.1336515707255
 30
0.0
 11
296.1990284384063
 21
190.1336515707255
 31
0.0
  0
LINE
  5
50E
330
1F
100
AcDbEntity
  8
SEIHIN
  6
Continuous
370
    15
100
AcDbLine
 10
291.9563877512787
 20
67.13365157072548
 30
0.0
 11
292.1634945324652
 21
67.13365157072548
 31
0.0
  0
ARC
  5
50F
330
1F
100
AcDbEntity
  8
SEIHIN
  6
Continuous
370
    15
100
AcDbCircle
 10
292.3983294895204
 20
67.07115157072547
 30
0.0
 40
0.446339276784002
100
AcDbArc
 50
171.9505330244752
 51
258.5782463410218
  0
LINE
  5
510
330
1F
100
AcDbEntity
  8
SEIHIN
  6
Continuous
370
    15
100
AcDbLine
 10
292.5170479230585
 20
66.63365157072547
 30
0.0
 11
292.3099411418719
 21
66.63365157072547
 31
0.0
  0
LINE
  5
511
330
1F
100
AcDbEntity
  8
SEIHIN
  6
Continuous
370
    15
100
AcDbLine
 10
291.9563877512787
 20
190.1336515707255
 30
0.0
 11
292.1634945324652
 21
190.1336515707255
 31
0.0
  0
LINE
  5
512
330
1F
100
AcDbEntity
  8
SEIHIN
  6
Continuous
370
    15
100
AcDbLine
 10
289.4216081095189
 20
67.13365157072548
 30
0.0
 11
289.8936273936533
 21
67.13365157072548
 31
0.0
  0
LINE
  5
513
330
1F
100
AcDbEntity
  8
SEIHIN
  6
Continuous
370
    15
100
AcDbLine
 10
289.8936273936533
 20
67.13365157072548
 30
0.0
 11
289.8936273936533
 21
66.63365157072547
 31
0.0
  0
LINE
  5
514
330
1F
100
AcDbEntity
  8
SEIHIN
  6
Continuous
370
    15
100
AcDbLine
 10
289.8936273936533
 20
66.63365157072547
 30
0.0
 11
288.9495888253844
 21
66.63365157072547
 31
0.0
  0
LINE
  5
515
330
1F
100
AcDbEntity
  8
SEIHIN
  6
Continuous
370
    15
100
AcDbLine
 10
289.4216081095189
 20
190.1336515707255
 30
0.0
 11
289.8936273936533
 21
190.1336515707255
 31
0.0
  0
LINE
  5
516
330
1F
100
AcDbEntity
  8
SEIHIN
  6
Continuous
370
    15
100
AcDbLine
 10
291.6028343606853
 20
67.13365157072548
 30
0.0
 11
291.9563877512787
 21
67.13365157072548
 31
0.0
  0
LINE
  5
517
330
1F
100
AcDbEntity
  8
SEIHIN
  6
Continuous
370
    15
100
AcDbLine
 10
291.6028343606853
 20
67.13365157072548
 30
0.0
 11
291.6028343606853
 21
66.63365157072547
 31
0.0
  0
LINE
  5
518
330
1F
100
AcDbEntity
  8
SEIHIN
  6
Continuous
370
    15
100
AcDbLine
 10
292.3099411418719
 20
66.63365157072547
 30
0.0
 11
291.6028343606853
 21
66.63365157072547
 31
0.0
  0
LINE
  5
519
330
1F
100
AcDbEntity
  8
SEIHIN
  6
Continuous
370
    15
100
AcDbLine
 10
291.6028343606853
 20
190.1336515707255
 30
0.0
 11
291.9563877512787
 21
190.1336515707255
 31
0.0
  0
LINE
  5
51A
330
1F
100
AcDbEntity
  8
SEIHIN
  6
Continuous
370
    15
100
AcDbLine
 10
289.8936273936533
 20
67.13365157072548
 30
0.0
 11
291.6028343606853
 21
67.13365157072548
 31
0.0
  0
LINE
  5
51B
330
1F
100
AcDbEntity
  8
SEIHIN
  6
Continuous
370
    15
100
AcDbLine
 10
291.6028343606853
 20
66.63365157072547
 30
0.0
 11
289.8936273936533
 21
66.63365157072547
 31
0.0
  0
LINE
  5
51C
330
1F
100
AcDbEntity
  8
SEIHIN
  6
Continuous
370
    15
100
AcDbLine
 10
289.8936273936533
 20
190.1336515707255
 30
0.0
 11
291.6028343606853
 21
190.1336515707255
 31
0.0
  0
ARC
  5
51D
330
1F
100
AcDbEntity
  8
SEIHIN
  6
Continuous
370
    15
100
AcDbCircle
 10
299.8099411418803
 20
67.13365157072548
 30
0.0
 40
0.5000000000001137
100
AcDbArc
 50
270.0000000000008
 51
0.0
  0
LINE
  5
51E
330
1F
100
AcDbEntity
  8
SEIHIN
  6
Continuous
370
    15
100
AcDbLine
 10
300.1634945324736
 20
67.13365157072548
 30
0.0
 11
300.3099411418804
 21
67.13365157072548
 31
0.0
  0
LINE
  5
51F
330
1F
100
AcDbEntity
  8
SEIHIN
  6
Continuous
370
    15
100
AcDbLine
 10
300.3099411418804
 20
190.1336515707255
 30
0.0
 11
300.3099411418804
 21
67.13365157072548
 31
0.0
  0
LINE
  5
520
330
1F
100
AcDbEntity
  8
SEIHIN
  6
Continuous
370
    15
100
AcDbLine
 10
300.1634945324736
 20
190.1336515707255
 30
0.0
 11
300.3099411418804
 21
190.1336515707255
 31
0.0
  0
LINE
  5
521
330
1F
100
AcDbEntity
  8
SEIHIN
  6
Continuous
370
    15
100
AcDbLine
 10
225.5599411418817
 20
67.13365157072548
 30
0.0
 11
289.4216081095189
 21
67.13365157072548
 31
0.0
  0
TEXT
  5
522
330
1F
100
AcDbEntity
  8
MOJI
100
AcDbText
 10
53.84342309330241
 20
10.52966505510716
 30
0.0
 40
2.799999999999999
  1
ユニシェイプ
 41
0.9
  7
ｽﾀｲﾙ1
100
AcDbText
  0
TEXT
  5
523
330
1F
100
AcDbEntity
  8
MOJI
100
AcDbText
 10
123.3628002834901
 20
14.32898509872002
 30
0.0
 40
2.799999999999999
  1
伸縮ソケット
 41
0.9
  7
ｽﾀｲﾙ1
100
AcDbText
  0
TEXT
  5
524
330
1F
100
AcDbEntity
  8
MOJI
100
AcDbText
 10
123.3213259479138
 20
6.863079448428102
 30
0.0
 40
2.799999999999999
  1
URT６０ BL
 41
0.9
  7
ｽﾀｲﾙ1
100
AcDbText
  0
TEXT
  5
525
330
1F
100
AcDbEntity
  8
ZUWAKU
100
AcDbText
 10
240.3816070466402
 20
5.75520407775577
 30
0.0
 40
1.5
  1
□には色品番が入ります
 41
0.9
  7
ｽﾀｲﾙ1
100
AcDbText
  0
TEXT
  5
526
330
1F
100
AcDbEntity
  8
ZUWAKU
100
AcDbText
 10
363.2642391092703
 20
10.25228776763328
 30
0.0
 40
3.0
  1
積水化学工業株式会社
 41
0.9
  7
ｽﾀｲﾙ1
100
AcDbText
  0
LINE
  5
527
330
1F
100
AcDbEntity
  8
ZUWAKU
100
AcDbLine
 10
358.3265405515839
 20
19.28698742025887
 30
0.0
 11
358.3265405515839
 21
4.686987420258851
 31
0.0
  0
LINE
  5
528
330
1F
100
AcDbEntity
  8
ZUWAKU
100
AcDbLine
 10
358.2265405515838
 20
19.28698742025887
 30
0.0
 11
358.2265405515839
 21
4.686987420258851
 31
0.0
  0
LINE
  5
529
330
1F
100
AcDbEntity
  8
ZUWAKU
100
AcDbLine
 10
358.1265405515839
 20
19.28698742025887
 30
0.0
 11
358.1265405515839
 21
4.686987420258851
 31
0.0
  0
LINE
  5
52A
330
1F
100
AcDbEntity
  8
ZUWAKU
100
AcDbLine
 10
358.0265405515839
 20
19.28698742025887
 30
0.0
 11
358.0265405515839
 21
4.686987420258851
 31
0.0
  0
TEXT
  5
52B
330
1F
100
AcDbEntity
  8
ZUWAKU
100
AcDbText
 10
334.5493590435202
 20
16.31466568945161
 30
0.0
 40
2.0
  1
DATE
 41
0.9
  7
ｽﾀｲﾙ1
100
AcDbText
  0
LINE
  5
52C
330
1F
100
AcDbEntity
  8
ZUWAKU
100
AcDbLine
 10
285.6655131603694
 20
19.28698742025887
 30
0.0
 11
285.6655131603694
 21
4.686987420258851
 31
0.0
  0
LINE
  5
52D
330
1F
100
AcDbEntity
  8
ZUWAKU
100
AcDbLine
 10
285.8655131603694
 20
19.28698742025887
 30
0.0
 11
285.8655131603695
 21
4.686987420258851
 31
0.0
  0
LINE
  5
52E
330
1F
100
AcDbEntity
  8
ZUWAKU
100
AcDbLine
 10
285.7655131603694
 20
19.28698742025887
 30
0.0
 11
285.7655131603694
 21
4.686987420258851
 31
0.0
  0
LINE
  5
52F
330
1F
100
AcDbEntity
  8
ZUWAKU
100
AcDbLine
 10
333.6106365324155
 20
19.28698742025887
 30
0.0
 11
333.6106365324155
 21
4.686987420258851
 31
0.0
  0
LINE
  5
530
330
1F
100
AcDbEntity
  8
ZUWAKU
100
AcDbLine
 10
333.8106365324154
 20
19.28698742025887
 30
0.0
 11
333.8106365324156
 21
4.686987420258851
 31
0.0
  0
LINE
  5
531
330
1F
100
AcDbEntity
  8
ZUWAKU
100
AcDbLine
 10
333.7106365324153
 20
19.28698742025887
 30
0.0
 11
333.7106365324156
 21
4.686987420258851
 31
0.0
  0
TEXT
  5
532
330
1F
100
AcDbEntity
  8
ZUWAKU
100
AcDbText
 10
262.7403475374885
 20
16.31466568945161
 30
0.0
 40
2.0
  1
用紙
 41
0.9
  7
ｽﾀｲﾙ1
100
AcDbText
  0
TEXT
  5
533
330
1F
100
AcDbEntity
  8
ZUWAKU
100
AcDbText
 10
234.0529397739137
 20
16.31466568945161
 30
0.0
 40
2.0
  1
品番
 41
0.9
  7
ｽﾀｲﾙ1
100
AcDbText
  0
TEXT
  5
534
330
1F
100
AcDbEntity
  8
MOJI
100
AcDbText
 10
273.4224892634697
 20
5.889447948962647
 30
0.0
 40
2.799999999999999
  1
１/１
 41
0.9
  7
ｽﾀｲﾙ1
100
AcDbText
  0
TEXT
  5
535
330
1F
100
AcDbEntity
  8
ZUWAKU
100
AcDbText
 10
262.7403475374886
 20
9.114665689451676
 30
0.0
 40
2.0
  1
縮尺
 41
0.9
  7
ｽﾀｲﾙ1
100
AcDbText
  0
LINE
  5
536
330
1F
100
AcDbEntity
  8
ZUWAKU
100
AcDbLine
 10
261.8016250263837
 20
19.28698742025887
 30
0.0
 11
261.8016250263837
 21
4.686987420258851
 31
0.0
  0
LINE
  5
537
330
1F
100
AcDbEntity
  8
ZUWAKU
100
AcDbLine
 10
262.0016250263836
 20
19.28698742025887
 30
0.0
 11
262.0016250263838
 21
4.686987420258851
 31
0.0
  0
LINE
  5
538
330
1F
100
AcDbEntity
  8
ZUWAKU
100
AcDbLine
 10
261.9016250263836
 20
19.28698742025887
 30
0.0
 11
261.9016250263837
 21
4.686987420258851
 31
0.0
  0
TEXT
  5
539
330
1F
100
AcDbEntity
  8
MOJI
100
AcDbText
 10
273.4224892634697
 20
13.28944794896251
 30
0.0
 40
2.799999999999999
  1
Ａ３
 41
0.9
  7
ｽﾀｲﾙ1
100
AcDbText
  0
LINE
  5
53A
330
1F
100
AcDbEntity
  8
ZUWAKU
100
AcDbLine
 10
233.1142172628089
 20
19.28698742025887
 30
0.0
 11
233.1142172628089
 21
4.686987420258851
 31
0.0
  0
LINE
  5
53B
330
1F
100
AcDbEntity
  8
ZUWAKU
100
AcDbLine
 10
233.3142172628088
 20
19.28698742025887
 30
0.0
 11
233.314217262809
 21
4.686987420258851
 31
0.0
  0
LINE
  5
53C
330
1F
100
AcDbEntity
  8
ZUWAKU
100
AcDbLine
 10
233.2142172628088
 20
19.28698742025887
 30
0.0
 11
233.2142172628089
 21
4.686987420258851
 31
0.0
  0
LINE
  5
53D
330
1F
100
AcDbEntity
  8
ZUWAKU
100
AcDbLine
 10
262.0016250263836
 20
12.08698742025894
 30
0.0
 11
285.6655131603694
 21
12.08698742025894
 31
0.0
  0
LINE
  5
53E
330
1F
100
AcDbEntity
  8
ZUWAKU
100
AcDbLine
 10
262.0016250263836
 20
11.98698742025892
 30
0.0
 11
285.6655131603694
 21
11.98698742025892
 31
0.0
  0
LINE
  5
53F
330
1F
100
AcDbEntity
  8
ZUWAKU
100
AcDbLine
 10
262.0016250263836
 20
11.8869874202589
 30
0.0
 11
285.6655131603694
 21
11.8869874202589
 31
0.0
  0
TEXT
  5
540
330
1F
100
AcDbEntity
  8
ZUWAKU
100
AcDbText
 10
338.5040041209645
 20
13.28944794896251
 30
0.0
 40
2.799999999999999
  1
　　．　　．　　
 41
0.9
  7
ｽﾀｲﾙ1
100
AcDbText
  0
LINE
  5
541
330
1F
100
AcDbEntity
  8
ZUWAKU
100
AcDbLine
 10
333.8106365324153
 20
12.08698742025894
 30
0.0
 11
358.0265405515839
 21
12.08698742025894
 31
0.0
  0
LINE
  5
542
330
1F
100
AcDbEntity
  8
ZUWAKU
100
AcDbLine
 10
333.8106365324154
 20
11.98698742025892
 30
0.0
 11
358.0265405515839
 21
11.98698742025892
 31
0.0
  0
LINE
  5
543
330
1F
100
AcDbEntity
  8
ZUWAKU
100
AcDbLine
 10
333.8106365324153
 20
11.8869874202589
 30
0.0
 11
358.0265405515839
 21
11.8869874202589
 31
0.0
  0
TEXT
  5
544
330
1F
100
AcDbEntity
  8
ZUWAKU
100
AcDbText
 10
114.2640584334519
 20
16.31466568945161
 30
0.0
 40
2.0
  1
品名
 41
0.9
  7
ｽﾀｲﾙ1
100
AcDbText
  0
TEXT
  5
545
330
1F
100
AcDbEntity
  8
ZUWAKU
100
AcDbText
 10
114.264058433452
 20
9.114665689451676
 30
0.0
 40
2.0
  1
サイズ
 41
0.9
  7
ｽﾀｲﾙ1
100
AcDbText
  0
LINE
  5
546
330
1F
100
AcDbEntity
  8
ZUWAKU
100
AcDbLine
 10
113.6253359223471
 20
19.28698742025887
 30
0.0
 11
113.6253359223472
 21
4.686987420258851
 31
0.0
  0
LINE
  5
547
330
1F
100
AcDbEntity
  8
ZUWAKU
100
AcDbLine
 10
113.7253359223471
 20
19.28698742025887
 30
0.0
 11
113.7253359223472
 21
4.686987420258851
 31
0.0
  0
LINE
  5
548
330
1F
100
AcDbEntity
  8
ZUWAKU
100
AcDbLine
 10
113.5253359223472
 20
19.28698742025887
 30
0.0
 11
113.5253359223472
 21
4.686987420258851
 31
0.0
  0
ARC
  5
549
330
1F
100
AcDbEntity
  8
ZUWAKU
100
AcDbCircle
 10
43.66064135470383
 20
15.64948742025894
 30
0.0
 40
0.2625
100
AcDbArc
 50
0.0
 51
90.0
  0
ARC
  5
54A
330
1F
100
AcDbEntity
  8
ZUWAKU
100
AcDbCircle
 10
40.33564135470379
 20
15.64948742025894
 30
0.0
 40
0.2625
100
AcDbArc
 50
90.0
 51
180.0
  0
LINE
  5
54B
330
1F
100
AcDbEntity
  8
ZUWAKU
100
AcDbLine
 10
41.21064135470379
 20
15.91198742025887
 30
0.0
 11
40.33564135470379
 21
15.91198742025887
 31
0.0
  0
ARC
  5
54C
330
1F
100
AcDbEntity
  8
ZUWAKU
100
AcDbCircle
 10
41.21064135470379
 20
15.64948742025894
 30
0.0
 40
0.2625
100
AcDbArc
 50
0.0
 51
90.0
  0
ARC
  5
54D
330
1F
100
AcDbEntity
  8
ZUWAKU
100
AcDbCircle
 10
42.78564135470384
 20
15.64948742025894
 30
0.0
 40
0.2625
100
AcDbArc
 50
90.0
 51
180.0
  0
LINE
  5
54E
330
1F
100
AcDbEntity
  8
ZUWAKU
100
AcDbLine
 10
43.66064135470383
 20
15.91198742025887
 30
0.0
 11
42.78564135470384
 21
15.91198742025887
 31
0.0
  0
LINE
  5
54F
330
1F
100
AcDbEntity
  8
ZUWAKU
100
AcDbLine
 10
35.61064135470383
 20
15.64948742025894
 30
0.0
 11
35.61064135470383
 21
14.77448742025894
 31
0.0
  0
ARC
  5
550
330
1F
100
AcDbEntity
  8
ZUWAKU
100
AcDbCircle
 10
35.34814135470384
 20
14.77448742025894
 30
0.0
 40
0.2625
100
AcDbArc
 50
270.0
 51
0.0
  0
ARC
  5
551
330
1F
100
AcDbEntity
  8
ZUWAKU
100
AcDbCircle
 10
35.34814135470384
 20
15.64948742025894
 30
0.0
 40
0.2625
100
AcDbArc
 50
0.0
 51
90.0
  0
LINE
  5
552
330
1F
100
AcDbEntity
  8
ZUWAKU
100
AcDbLine
 10
38.06064135470382
 20
15.91198742025887
 30
0.0
 11
37.18564135470382
 21
15.91198742025887
 31
0.0
  0
ARC
  5
553
330
1F
100
AcDbEntity
  8
ZUWAKU
100
AcDbCircle
 10
37.18564135470382
 20
15.64948742025894
 30
0.0
 40
0.2625
100
AcDbArc
 50
90.0
 51
180.0
  0
ARC
  5
554
330
1F
100
AcDbEntity
  8
ZUWAKU
100
AcDbCircle
 10
38.06064135470382
 20
15.64948742025894
 30
0.0
 40
0.2625
100
AcDbArc
 50
0.0
 51
90.0
  0
ARC
  5
555
330
1F
100
AcDbEntity
  8
ZUWAKU
100
AcDbCircle
 10
33.59814135470384
 20
14.5119874202589
 30
0.0
 40
1.399999999999999
100
AcDbArc
 50
90.0
 51
180.0
  0
LINE
  5
556
330
1F
100
AcDbEntity
  8
ZUWAKU
100
AcDbLine
 10
32.19814135470381
 20
14.5119874202589
 30
0.0
 11
32.19814135470381
 21
13.60438640758122
 31
0.0
  0
ARC
  5
557
330
1F
100
AcDbEntity
  8
ZUWAKU
100
AcDbCircle
 10
30.88564135470381
 20
15.64948742025894
 30
0.0
 40
0.2625
100
AcDbArc
 50
0.0
 51
90.0
  0
LINE
  5
558
330
1F
100
AcDbEntity
  8
ZUWAKU
100
AcDbLine
 10
33.59814135470384
 20
14.24948742025885
 30
0.0
 11
33.59814135470384
 21
13.60438640758122
 31
0.0
  0
ARC
  5
559
330
1F
100
AcDbEntity
  8
ZUWAKU
100
AcDbCircle
 10
33.86064135470383
 20
14.24948742025885
 30
0.0
 40
0.2625
100
AcDbArc
 50
90.0
 51
180.0
  0
LINE
  5
55A
330
1F
100
AcDbEntity
  8
ZUWAKU
100
AcDbLine
 10
35.34814135470384
 20
14.5119874202589
 30
0.0
 11
33.86064135470383
 21
14.5119874202589
 31
0.0
  0
LINE
  5
55B
330
1F
100
AcDbEntity
  8
ZUWAKU
100
AcDbLine
 10
33.59814135470384
 20
15.91198742025887
 30
0.0
 11
35.34814135470384
 21
15.91198742025887
 31
0.0
  0
ARC
  5
55C
330
1F
100
AcDbEntity
  8
ZUWAKU
100
AcDbCircle
 10
27.49052427295948
 20
15.64948742025894
 30
0.0
 40
0.2625
100
AcDbArc
 50
90.0
 51
162.4744316262736
  0
LINE
  5
55D
330
1F
100
AcDbEntity
  8
ZUWAKU
100
AcDbLine
 10
28.59028441236171
 20
15.57044043617538
 30
0.0
 11
28.0594645957928
 21
13.88951101704055
 31
0.0
  0
ARC
  5
55E
330
1F
100
AcDbEntity
  8
ZUWAKU
100
AcDbCircle
 10
28.33996896276398
 20
15.64948742025894
 30
0.0
 40
0.2625
100
AcDbArc
 50
342.4744316262736
 51
90.0
  0
LINE
  5
55F
330
1F
100
AcDbEntity
  8
ZUWAKU
100
AcDbLine
 10
27.49052427295948
 20
15.91198742025887
 30
0.0
 11
28.33996896276398
 21
15.91198742025887
 31
0.0
  0
ARC
  5
560
330
1F
100
AcDbEntity
  8
ZUWAKU
100
AcDbCircle
 10
30.01064135470381
 20
15.64948742025894
 30
0.0
 40
0.2625
100
AcDbArc
 50
90.0
 51
180.0
  0
LINE
  5
561
330
1F
100
AcDbEntity
  8
ZUWAKU
100
AcDbLine
 10
23.09814135470384
 20
15.64948742025894
 30
0.0
 11
23.09814135470384
 21
14.77448742025894
 31
0.0
  0
ARC
  5
562
330
1F
100
AcDbEntity
  8
ZUWAKU
100
AcDbCircle
 10
22.83564135470379
 20
14.77448742025894
 30
0.0
 40
0.2625
100
AcDbArc
 50
270.0
 51
0.0
  0
ARC
  5
563
330
1F
100
AcDbEntity
  8
ZUWAKU
100
AcDbCircle
 10
24.5856413547038
 20
15.64948742025894
 30
0.0
 40
0.2625
100
AcDbArc
 50
90.0
 51
180.0
  0
ARC
  5
564
330
1F
100
AcDbEntity
  8
ZUWAKU
100
AcDbCircle
 10
22.83564135470379
 20
15.64948742025894
 30
0.0
 40
0.2625
100
AcDbArc
 50
0.0
 51
90.0
  0
LINE
  5
565
330
1F
100
AcDbEntity
  8
ZUWAKU
100
AcDbLine
 10
25.4606413547038
 20
15.91198742025887
 30
0.0
 11
24.5856413547038
 21
15.91198742025887
 31
0.0
  0
ARC
  5
566
330
1F
100
AcDbEntity
  8
ZUWAKU
100
AcDbCircle
 10
25.4606413547038
 20
15.64948742025894
 30
0.0
 40
0.2625
100
AcDbArc
 50
0.0
 51
90.0
  0
LINE
  5
567
330
1F
100
AcDbEntity
  8
ZUWAKU
100
AcDbLine
 10
30.88564135470381
 20
15.91198742025887
 30
0.0
 11
30.01064135470381
 21
15.91198742025887
 31
0.0
  0
ARC
  5
568
330
1F
100
AcDbEntity
  8
ZUWAKU
100
AcDbCircle
 10
43.66064135470383
 20
8.124487420258851
 30
0.0
 40
0.2625
100
AcDbArc
 50
270.0
 51
0.0
  0
ARC
  5
569
330
1F
100
AcDbEntity
  8
ZUWAKU
100
AcDbCircle
 10
39.54814135470383
 20
9.786987420258874
 30
0.0
 40
0.5249999999999995
100
AcDbArc
 50
270.0
 51
0.0
  0
ARC
  5
56A
330
1F
100
AcDbEntity
  8
ZUWAKU
100
AcDbCircle
 10
42.78564135470384
 20
8.124487420258851
 30
0.0
 40
0.2625
100
AcDbArc
 50
180.0
 51
270.0
  0
LINE
  5
56B
330
1F
100
AcDbEntity
  8
ZUWAKU
100
AcDbLine
 10
42.78564135470384
 20
7.861987420258806
 30
0.0
 11
43.66064135470383
 21
7.861987420258806
 31
0.0
  0
ARC
  5
56C
330
1F
100
AcDbEntity
  8
ZUWAKU
100
AcDbCircle
 10
40.0731413547038
 20
9.261987420258897
 30
0.0
 40
1.399999999999999
100
AcDbArc
 50
270.0
 51
0.0
  0
ARC
  5
56D
330
1F
100
AcDbEntity
  8
ZUWAKU
100
AcDbCircle
 10
38.84814135470384
 20
9.786987420258874
 30
0.0
 40
0.5249999999999995
100
AcDbArc
 50
180.0
 51
270.0
  0
ARC
  5
56E
330
1F
100
AcDbEntity
  8
ZUWAKU
100
AcDbCircle
 10
33.7731413547038
 20
10.16958843293646
 30
0.0
 40
2.099999999999999
100
AcDbArc
 50
0.0
 51
45.00000000000043
  0
LINE
  5
56F
330
1F
100
AcDbEntity
  8
ZUWAKU
100
AcDbLine
 10
35.87314135470382
 20
9.261987420258897
 30
0.0
 11
35.87314135470382
 21
10.16958843293657
 31
0.0
  0
LINE
  5
570
330
1F
100
AcDbEntity
  8
ZUWAKU
100
AcDbLine
 10
32.81321711421208
 20
12.11946216708947
 30
0.0
 11
34.26811610153442
 21
10.66456317976708
 31
0.0
  0
LINE
  5
571
330
1F
100
AcDbEntity
  8
ZUWAKU
100
AcDbLine
 10
32.72314135470384
 20
7.861987420258806
 30
0.0
 11
34.47314135470384
 21
7.861987420258806
 31
0.0
  0
LINE
  5
572
330
1F
100
AcDbEntity
  8
ZUWAKU
100
AcDbLine
 10
32.72314135470384
 20
9.261987420258897
 30
0.0
 11
34.2106413547038
 21
9.261987420258897
 31
0.0
  0
ARC
  5
573
330
1F
100
AcDbEntity
  8
ZUWAKU
100
AcDbCircle
 10
32.72314135470384
 20
8.999487420258851
 30
0.0
 40
0.2625
100
AcDbArc
 50
90.0
 51
180.0
  0
ARC
  5
574
330
1F
100
AcDbEntity
  8
ZUWAKU
100
AcDbCircle
 10
30.88564135470381
 20
8.124487420258851
 30
0.0
 40
0.2625
100
AcDbArc
 50
270.0
 51
0.0
  0
ARC
  5
575
330
1F
100
AcDbEntity
  8
ZUWAKU
100
AcDbCircle
 10
32.72314135470384
 20
8.124487420258851
 30
0.0
 40
0.2625
100
AcDbArc
 50
180.0
 51
270.0
  0
LINE
  5
576
330
1F
100
AcDbEntity
  8
ZUWAKU
100
AcDbLine
 10
32.4606413547038
 20
8.124487420258851
 30
0.0
 11
32.4606413547038
 21
8.999487420258851
 31
0.0
  0
ARC
  5
577
330
1F
100
AcDbEntity
  8
ZUWAKU
100
AcDbCircle
 10
34.2106413547038
 20
9.524487420258942
 30
0.0
 40
0.2625
100
AcDbArc
 50
270.0
 51
0.0
  0
ARC
  5
578
330
1F
100
AcDbEntity
  8
ZUWAKU
100
AcDbCircle
 10
33.7731413547038
 20
10.16958843293657
 30
0.0
 40
0.6999999999999995
100
AcDbArc
 50
0.0
 51
45.00000000000043
  0
LINE
  5
579
330
1F
100
AcDbEntity
  8
ZUWAKU
100
AcDbLine
 10
34.47314135470384
 20
9.524487420258942
 30
0.0
 11
34.47314135470384
 21
10.16958843293657
 31
0.0
  0
LINE
  5
57A
330
1F
100
AcDbEntity
  8
ZUWAKU
100
AcDbLine
 10
35.25806559519561
 20
11.65451267342832
 30
0.0
 11
33.80316660787321
 21
13.1094116607506
 31
0.0
  0
ARC
  5
57B
330
1F
100
AcDbEntity
  8
ZUWAKU
100
AcDbCircle
 10
34.47314135470384
 20
9.261987420258897
 30
0.0
 40
1.399999999999999
100
AcDbArc
 50
270.0
 51
0.0
  0
ARC
  5
57C
330
1F
100
AcDbEntity
  8
ZUWAKU
100
AcDbCircle
 10
38.32314135470381
 20
9.261987420258897
 30
0.0
 40
1.399999999999999
100
AcDbArc
 50
180.0
 51
270.0
  0
ARC
  5
57D
330
1F
100
AcDbEntity
  8
ZUWAKU
100
AcDbCircle
 10
27.49052427295948
 20
8.124487420258851
 30
0.0
 40
0.2625
100
AcDbArc
 50
197.5255683737201
 51
270.0
  0
LINE
  5
57E
330
1F
100
AcDbEntity
  8
ZUWAKU
100
AcDbLine
 10
28.59028441236171
 20
8.203534404342413
 30
0.0
 11
27.42708872312488
 21
11.8869874202589
 31
0.0
  0
ARC
  5
57F
330
1F
100
AcDbEntity
  8
ZUWAKU
100
AcDbCircle
 10
28.33996896276398
 20
8.124487420258851
 30
0.0
 40
0.2625
100
AcDbArc
 50
270.0
 51
17.5255683737201
  0
LINE
  5
580
330
1F
100
AcDbEntity
  8
ZUWAKU
100
AcDbLine
 10
27.49052427295948
 20
7.861987420258806
 30
0.0
 11
28.33996896276398
 21
7.861987420258806
 31
0.0
  0
ARC
  5
581
330
1F
100
AcDbEntity
  8
ZUWAKU
100
AcDbCircle
 10
30.01064135470381
 20
8.124487420258851
 30
0.0
 40
0.2625
100
AcDbArc
 50
180.0
 51
270.0
  0
ARC
  5
582
330
1F
100
AcDbEntity
  8
ZUWAKU
100
AcDbCircle
 10
25.98564135470383
 20
10.9244874202588
 30
0.0
 40
0.2625
100
AcDbArc
 50
90.0
 51
180.0
  0
ARC
  5
583
330
1F
100
AcDbEntity
  8
ZUWAKU
100
AcDbCircle
 10
26.05575843644817
 20
10.9244874202588
 30
0.0
 40
0.2625
100
AcDbArc
 50
17.5255683737201
 51
90.0
  0
ARC
  5
584
330
1F
100
AcDbEntity
  8
ZUWAKU
100
AcDbCircle
 10
24.5856413547038
 20
8.124487420258851
 30
0.0
 40
0.2625
100
AcDbArc
 50
180.0
 51
270.0
  0
ARC
  5
585
330
1F
100
AcDbEntity
  8
ZUWAKU
100
AcDbCircle
 10
22.83564135470379
 20
8.999487420258851
 30
0.0
 40
0.2625
100
AcDbArc
 50
0.0
 51
90.0
  0
ARC
  5
586
330
1F
100
AcDbEntity
  8
ZUWAKU
100
AcDbCircle
 10
22.83564135470379
 20
8.124487420258851
 30
0.0
 40
0.2625
100
AcDbArc
 50
270.0
 51
0.0
  0
LINE
  5
587
330
1F
100
AcDbEntity
  8
ZUWAKU
100
AcDbLine
 10
23.09814135470384
 20
8.999487420258851
 30
0.0
 11
23.09814135470384
 21
8.124487420258851
 31
0.0
  0
LINE
  5
588
330
1F
100
AcDbEntity
  8
ZUWAKU
100
AcDbLine
 10
25.72314135470384
 20
8.124487420258851
 30
0.0
 11
25.72314135470384
 21
10.9244874202588
 31
0.0
  0
ARC
  5
589
330
1F
100
AcDbEntity
  8
ZUWAKU
100
AcDbCircle
 10
25.4606413547038
 20
8.124487420258851
 30
0.0
 40
0.2625
100
AcDbArc
 50
270.0
 51
0.0
  0
LINE
  5
58A
330
1F
100
AcDbEntity
  8
ZUWAKU
100
AcDbLine
 10
24.5856413547038
 20
7.861987420258806
 30
0.0
 11
25.4606413547038
 21
7.861987420258806
 31
0.0
  0
ARC
  5
58B
330
1F
100
AcDbEntity
  8
ZUWAKU
100
AcDbCircle
 10
25.98564135470383
 20
12.84948742025887
 30
0.0
 40
0.2625
100
AcDbArc
 50
180.0
 51
270.0
  0
LINE
  5
58C
330
1F
100
AcDbEntity
  8
ZUWAKU
100
AcDbLine
 10
25.98564135470383
 20
11.18698742025885
 30
0.0
 11
26.05575843644817
 21
11.18698742025885
 31
0.0
  0
LINE
  5
58D
330
1F
100
AcDbEntity
  8
ZUWAKU
100
AcDbLine
 10
26.05575843644817
 20
12.58698742025894
 30
0.0
 11
25.98564135470383
 21
12.58698742025894
 31
0.0
  0
ARC
  5
58E
330
1F
100
AcDbEntity
  8
ZUWAKU
100
AcDbCircle
 10
26.05575843644817
 20
12.84948742025887
 30
0.0
 40
0.2625
100
AcDbArc
 50
270.0
 51
342.4744316262736
  0
LINE
  5
58F
330
1F
100
AcDbEntity
  8
ZUWAKU
100
AcDbLine
 10
27.24020882336174
 20
8.045440436175404
 30
0.0
 11
26.30607388604584
 21
11.00353440434236
 31
0.0
  0
LINE
  5
590
330
1F
100
AcDbEntity
  8
ZUWAKU
100
AcDbLine
 10
30.01064135470381
 20
7.861987420258806
 30
0.0
 11
30.88564135470381
 21
7.861987420258806
 31
0.0
  0
LINE
  5
591
330
1F
100
AcDbEntity
  8
ZUWAKU
100
AcDbLine
 10
38.32314135470381
 20
7.861987420258806
 30
0.0
 11
40.0731413547038
 21
7.861987420258806
 31
0.0
  0
LINE
  5
592
330
1F
100
AcDbEntity
  8
ZUWAKU
100
AcDbLine
 10
39.54814135470383
 20
9.261987420258897
 30
0.0
 11
38.84814135470384
 21
9.261987420258897
 31
0.0
  0
LINE
  5
593
330
1F
100
AcDbEntity
  8
ZUWAKU
100
AcDbLine
 10
27.24020882336174
 20
15.72853440434228
 30
0.0
 11
26.30607388604584
 21
12.77044043617542
 31
0.0
  0
LINE
  5
594
330
1F
100
AcDbEntity
  8
ZUWAKU
100
AcDbLine
 10
24.32314135470381
 20
15.64948742025894
 30
0.0
 11
24.32314135470381
 21
8.124487420258851
 31
0.0
  0
LINE
  5
595
330
1F
100
AcDbEntity
  8
ZUWAKU
100
AcDbLine
 10
25.72314135470384
 20
12.84948742025887
 30
0.0
 11
25.72314135470384
 21
15.64948742025894
 31
0.0
  0
LINE
  5
596
330
1F
100
AcDbEntity
  8
ZUWAKU
100
AcDbLine
 10
38.32314135470381
 20
9.786987420258874
 30
0.0
 11
38.32314135470381
 21
15.64948742025894
 31
0.0
  0
LINE
  5
597
330
1F
100
AcDbEntity
  8
ZUWAKU
100
AcDbLine
 10
36.92314135470383
 20
15.64948742025894
 30
0.0
 11
36.92314135470383
 21
9.261987420258897
 31
0.0
  0
LINE
  5
598
330
1F
100
AcDbEntity
  8
ZUWAKU
100
AcDbLine
 10
31.14814135470379
 20
8.124487420258851
 30
0.0
 11
31.14814135470379
 21
15.64948742025894
 31
0.0
  0
LINE
  5
599
330
1F
100
AcDbEntity
  8
ZUWAKU
100
AcDbLine
 10
29.74814135470382
 20
15.64948742025894
 30
0.0
 11
29.74814135470382
 21
8.124487420258851
 31
0.0
  0
LINE
  5
59A
330
1F
100
AcDbEntity
  8
ZUWAKU
100
AcDbLine
 10
28.0594645957928
 20
13.88951101704055
 30
0.0
 11
27.42708872312488
 21
11.8869874202589
 31
0.0
  0
ARC
  5
59B
330
1F
100
AcDbEntity
  8
ZUWAKU
100
AcDbCircle
 10
34.29814135470383
 20
13.60438640758122
 30
0.0
 40
2.099999999999999
100
AcDbArc
 50
180.0
 51
225.0000000000004
  0
ARC
  5
59C
330
1F
100
AcDbEntity
  8
ZUWAKU
100
AcDbCircle
 10
34.29814135470383
 20
13.60438640758122
 30
0.0
 40
0.6999999999999995
100
AcDbArc
 50
180.0
 51
224.9999999999994
  0
LINE
  5
59D
330
1F
100
AcDbEntity
  8
ZUWAKU
100
AcDbLine
 10
42.52314135470379
 20
15.64948742025894
 30
0.0
 11
42.52314135470379
 21
8.124487420258851
 31
0.0
  0
LINE
  5
59E
330
1F
100
AcDbEntity
  8
ZUWAKU
100
AcDbLine
 10
43.92314135470383
 20
8.124487420258851
 30
0.0
 11
43.92314135470383
 21
15.64948742025894
 31
0.0
  0
LINE
  5
59F
330
1F
100
AcDbEntity
  8
ZUWAKU
100
AcDbLine
 10
40.0731413547038
 20
15.64948742025894
 30
0.0
 11
40.0731413547038
 21
9.786987420258874
 31
0.0
  0
LINE
  5
5A0
330
1F
100
AcDbEntity
  8
ZUWAKU
100
AcDbLine
 10
41.47314135470383
 20
9.261987420258897
 30
0.0
 11
41.47314135470383
 21
15.64948742025894
 31
0.0
  0
LINE
  5
5A1
330
1F
100
AcDbEntity
  8
ZUWAKU
100
AcDbLine
 10
48.96535005130743
 20
19.28698742025887
 30
0.0
 11
48.96535005130743
 21
4.686987420258851
 31
0.0
  0
LINE
  5
5A2
330
1F
100
AcDbEntity
  8
ZUWAKU
100
AcDbLine
 10
49.16535005130737
 20
19.28698742025887
 30
0.0
 11
49.16535005130747
 21
4.686987420258851
 31
0.0
  0
LINE
  5
5A3
330
1F
100
AcDbEntity
  8
ZUWAKU
100
AcDbLine
 10
49.06535005130734
 20
19.28698742025887
 30
0.0
 11
49.06535005130746
 21
4.686987420258851
 31
0.0
  0
ARC
  5
5A4
330
1F
100
AcDbEntity
  8
ZUWAKU
100
AcDbCircle
 10
21.87314135470382
 20
13.81198742025885
 30
0.0
 40
2.099999999999999
100
AcDbArc
 50
90.0
 51
180.0
  0
ARC
  5
5A5
330
1F
100
AcDbEntity
  8
ZUWAKU
100
AcDbCircle
 10
21.87314135470382
 20
13.81198742025885
 30
0.0
 40
0.6999999999999995
100
AcDbArc
 50
90.0
 51
180.0
  0
LINE
  5
5A6
330
1F
100
AcDbEntity
  8
ZUWAKU
100
AcDbLine
 10
18.46064135470379
 20
15.64948742025894
 30
0.0
 11
18.46064135470379
 21
14.77448742025894
 31
0.0
  0
ARC
  5
5A7
330
1F
100
AcDbEntity
  8
ZUWAKU
100
AcDbCircle
 10
16.44814135470381
 20
14.5119874202589
 30
0.0
 40
1.399999999999999
100
AcDbArc
 50
90.0
 51
180.0
  0
LINE
  5
5A8
330
1F
100
AcDbEntity
  8
ZUWAKU
100
AcDbLine
 10
15.04814135470383
 20
14.5119874202589
 30
0.0
 11
15.04814135470383
 21
13.60438640758122
 31
0.0
  0
LINE
  5
5A9
330
1F
100
AcDbEntity
  8
ZUWAKU
100
AcDbLine
 10
18.1981413547038
 20
14.5119874202589
 30
0.0
 11
16.71064135470379
 21
14.5119874202589
 31
0.0
  0
LINE
  5
5AA
330
1F
100
AcDbEntity
  8
ZUWAKU
100
AcDbLine
 10
16.44814135470381
 20
14.24948742025885
 30
0.0
 11
16.44814135470381
 21
13.60438640758122
 31
0.0
  0
ARC
  5
5AB
330
1F
100
AcDbEntity
  8
ZUWAKU
100
AcDbCircle
 10
16.71064135470379
 20
14.24948742025885
 30
0.0
 40
0.2625
100
AcDbArc
 50
90.0
 51
180.0
  0
LINE
  5
5AC
330
1F
100
AcDbEntity
  8
ZUWAKU
100
AcDbLine
 10
16.44814135470381
 20
15.91198742025887
 30
0.0
 11
18.1981413547038
 21
15.91198742025887
 31
0.0
  0
ARC
  5
5AD
330
1F
100
AcDbEntity
  8
ZUWAKU
100
AcDbCircle
 10
18.1981413547038
 20
14.77448742025894
 30
0.0
 40
0.2625
100
AcDbArc
 50
270.0
 51
0.0
  0
ARC
  5
5AE
330
1F
100
AcDbEntity
  8
ZUWAKU
100
AcDbCircle
 10
18.1981413547038
 20
15.64948742025894
 30
0.0
 40
0.2625
100
AcDbArc
 50
0.0
 51
90.0
  0
ARC
  5
5AF
330
1F
100
AcDbEntity
  8
ZUWAKU
100
AcDbCircle
 10
21.87314135470382
 20
9.961987420258942
 30
0.0
 40
0.6999999999999995
100
AcDbArc
 50
180.0
 51
270.0
  0
LINE
  5
5B0
330
1F
100
AcDbEntity
  8
ZUWAKU
100
AcDbLine
 10
18.72314135470384
 20
9.261987420258897
 30
0.0
 11
18.72314135470384
 21
10.16958843293657
 31
0.0
  0
LINE
  5
5B1
330
1F
100
AcDbEntity
  8
ZUWAKU
100
AcDbLine
 10
15.66321711421204
 20
12.11946216708947
 30
0.0
 11
17.11811610153438
 21
10.66456317976708
 31
0.0
  0
LINE
  5
5B2
330
1F
100
AcDbEntity
  8
ZUWAKU
100
AcDbLine
 10
15.57314135470381
 20
9.261987420258897
 30
0.0
 11
17.06064135470382
 21
9.261987420258897
 31
0.0
  0
LINE
  5
5B3
330
1F
100
AcDbEntity
  8
ZUWAKU
100
AcDbLine
 10
15.57314135470381
 20
7.861987420258806
 30
0.0
 11
17.32314135470381
 21
7.861987420258806
 31
0.0
  0
ARC
  5
5B4
330
1F
100
AcDbEntity
  8
ZUWAKU
100
AcDbCircle
 10
15.57314135470381
 20
8.999487420258851
 30
0.0
 40
0.2625
100
AcDbArc
 50
90.0
 51
180.0
  0
ARC
  5
5B5
330
1F
100
AcDbEntity
  8
ZUWAKU
100
AcDbCircle
 10
15.57314135470381
 20
8.124487420258851
 30
0.0
 40
0.2625
100
AcDbArc
 50
180.0
 51
270.0
  0
LINE
  5
5B6
330
1F
100
AcDbEntity
  8
ZUWAKU
100
AcDbLine
 10
15.31064135470382
 20
8.124487420258851
 30
0.0
 11
15.31064135470382
 21
8.999487420258851
 31
0.0
  0
ARC
  5
5B7
330
1F
100
AcDbEntity
  8
ZUWAKU
100
AcDbCircle
 10
16.62314135470382
 20
10.16958843293657
 30
0.0
 40
0.6999999999999995
100
AcDbArc
 50
0.0
 51
45.00000000000043
  0
ARC
  5
5B8
330
1F
100
AcDbEntity
  8
ZUWAKU
100
AcDbCircle
 10
17.06064135470382
 20
9.524487420258942
 30
0.0
 40
0.2625
100
AcDbArc
 50
270.0
 51
0.0
  0
LINE
  5
5B9
330
1F
100
AcDbEntity
  8
ZUWAKU
100
AcDbLine
 10
17.32314135470381
 20
9.524487420258942
 30
0.0
 11
17.32314135470381
 21
10.16958843293657
 31
0.0
  0
LINE
  5
5BA
330
1F
100
AcDbEntity
  8
ZUWAKU
100
AcDbLine
 10
18.10806559519557
 20
11.65451267342832
 30
0.0
 11
16.65316660787322
 21
13.1094116607506
 31
0.0
  0
ARC
  5
5BB
330
1F
100
AcDbEntity
  8
ZUWAKU
100
AcDbCircle
 10
16.62314135470382
 20
10.16958843293646
 30
0.0
 40
2.099999999999999
100
AcDbArc
 50
0.0
 51
45.00000000000043
  0
ARC
  5
5BC
330
1F
100
AcDbEntity
  8
ZUWAKU
100
AcDbCircle
 10
21.87314135470382
 20
9.961987420258942
 30
0.0
 40
2.099999999999999
100
AcDbArc
 50
180.0
 51
270.0
  0
ARC
  5
5BD
330
1F
100
AcDbEntity
  8
ZUWAKU
100
AcDbCircle
 10
17.32314135470381
 20
9.261987420258897
 30
0.0
 40
1.399999999999999
100
AcDbArc
 50
270.0
 51
0.0
  0
ARC
  5
5BE
330
1F
100
AcDbEntity
  8
ZUWAKU
100
AcDbCircle
 10
17.14814135470379
 20
13.60438640758122
 30
0.0
 40
2.099999999999999
100
AcDbArc
 50
180.0
 51
225.0000000000004
  0
LINE
  5
5BF
330
1F
100
AcDbEntity
  8
ZUWAKU
100
AcDbLine
 10
19.77314135470379
 20
9.961987420258942
 30
0.0
 11
19.77314135470379
 21
13.81198742025885
 31
0.0
  0
LINE
  5
5C0
330
1F
100
AcDbEntity
  8
ZUWAKU
100
AcDbLine
 10
21.17314135470383
 20
13.81198742025885
 30
0.0
 11
21.17314135470383
 21
9.961987420258942
 31
0.0
  0
ARC
  5
5C1
330
1F
100
AcDbEntity
  8
ZUWAKU
100
AcDbCircle
 10
17.14814135470379
 20
13.60438640758122
 30
0.0
 40
0.6999999999999995
100
AcDbArc
 50
180.0
 51
224.9999999999994
  0
CIRCLE
  5
5C2
330
1F
100
AcDbEntity
  8
ZUWAKU
100
AcDbCircle
 10
22.3981413547038
 20
11.8869874202589
 30
0.0
 40
0.875
  0
LINE
  5
5C3
330
1F
100
AcDbEntity
  8
ZUWAKU
100
AcDbLine
 10
22.83564135470379
 20
7.861987420258806
 30
0.0
 11
21.87314135470382
 21
7.861987420258806
 31
0.0
  0
LINE
  5
5C4
330
1F
100
AcDbEntity
  8
ZUWAKU
100
AcDbLine
 10
21.87314135470382
 20
9.261987420258897
 30
0.0
 11
22.83564135470379
 21
9.261987420258897
 31
0.0
  0
LINE
  5
5C5
330
1F
100
AcDbEntity
  8
ZUWAKU
100
AcDbLine
 10
22.83564135470379
 20
14.5119874202589
 30
0.0
 11
21.87314135470382
 21
14.5119874202589
 31
0.0
  0
LINE
  5
5C6
330
1F
100
AcDbEntity
  8
ZUWAKU
100
AcDbLine
 10
21.87314135470382
 20
15.91198742025887
 30
0.0
 11
22.83564135470379
 21
15.91198742025887
 31
0.0
  0
INSERT
  5
5C7
330
1F
100
AcDbEntity
  8
ZUWAKU
  6
Continuous
100
AcDbBlockReference
  2
*X2
 10
9.402035011904956
 20
4.286987872706227
 30
0.0
1001
ACAD
1000
HATCH
1002
{
1070
    19
1000
ANSI37
1040
0.1
1040
0.0
1000
R14_HATCH_DATA
1000
6A2
1011
10.40203501190495
1021
4.286987872706227
1031
0.0
1011
9.402035011904956
1021
5.286987872706227
1031
0.0
1011
9.402035011904956
1021
4.286987872706227
1031
1.0
1040
0.0
1010
0.0
1020
0.0
1030
1.0
1000
ANSI37
1070
     0
1070
     0
1071
        8
1071
        7
1070
     1
1070
     1
1071
       24
1040
7.251131595968215
1040
8.822423788044437
1040
-0.1989123673796348
1040
7.046106342798849
1040
9.317398534874961
1040
0.0
1040
7.046106342798849
1040
9.962499547552651
1040
-0.4142135623730912
1040
7.308606342798834
1040
10.22499954755264
1040
0.0
1040
8.796106342798788
1040
10.22499954755264
1040
0.4142135623731546
1040
9.058606342798841
1040
10.48749954755264
1040
0.0
1040
9.058606342798841
1040
11.36249954755265
1040
0.4142135623731586
1040
8.796106342798788
1040
11.62499954755264
1040
0.0
1040
7.046106342798849
1040
11.62499954755264
1040
0.4142135623730928
1040
5.646106342798869
1040
10.22499954755266
1040
0.0
1040
5.646106342798869
1040
9.317398534875026
1040
0.1989123673796619
1040
6.261182102307084
1040
7.832474294383221
1040
0.0
1040
7.716081089629423
1040
6.377575307060895
1040
-0.1989123673796613
1040
7.921106342798849
1040
5.882600560230301
1040
0.0
1040
7.921106342798849
1040
5.237499547552641
1040
-0.4142135623730911
1040
7.658606342798859
1040
4.974999547552648
1040
0.0
1040
6.171106342798904
1040
4.974999547552648
1040
0.4142135623731526
1040
5.908606342798859
1040
4.712499547552654
1040
0.0
1040
5.908606342798859
1040
3.837499547552643
1040
0.4142135623731526
1040
6.171106342798904
1040
3.574999547552649
1040
0.0
1040
7.921106342798849
1040
3.574999547552649
1040
0.4142135623731045
1040
9.321106342798886
1040
4.974999547552638
1040
0.0
1040
9.321106342798886
1040
5.882600560230271
1040
0.1989123673796604
1040
8.706030583290608
1040
7.367524800722041
1040
0.0
1071
        0
1071
        7
1070
     1
1070
     1
1071
       16
1040
11.77110634279887
1040
9.524999547552651
1040
-0.4142135623730935
1040
12.47110634279886
1040
10.22499954755264
1040
0.0
1040
13.43360634279884
1040
10.22499954755264
1040
0.4142135623731546
1040
13.69610634279889
1040
10.48749954755264
1040
0.0
1040
13.69610634279889
1040
11.36249954755265
1040
0.4142135623730951
1040
13.43360634279889
1040
11.62499954755264
1040
0.0
1040
12.4711063427988
1040
11.62499954755262
1040
0.4142135623730893
1040
10.37110634279883
1040
9.524999547552617
1040
0.0
1040
10.37110634279883
1040
5.674999547552661
1040
0.4142135623730969
1040
12.47110634279886
1040
3.574999547552649
1040
0.0
1040
13.43360634279884
1040
3.574999547552649
1040
0.4142135623731526
1040
13.69610634279889
1040
3.837499547552643
1040
0.0
1040
13.69610634279889
1040
4.712499547552654
1040
0.4142135623730891
1040
13.43360634279889
1040
4.974999547552648
1040
0.0
1040
12.47110634279886
1040
4.974999547552648
1040
-0.4142135623730928
1040
11.77110634279887
1040
5.674999547552641
1040
0.0
1071
        0
1071
        7
1070
     1
1070
     1
1071
        2
1040
12.12110634279884
1040
7.599999547552645
1040
1.0
1040
13.87110634279884
1040
7.599999547552645
1040
1.0
1071
        0
1071
        7
1070
     1
1070
     1
1071
       26
1040
18.65742958388785
1040
9.602523144334361
1040
0.0
1040
19.18824940045676
1040
11.28345256346915
1040
0.5069206636600134
1040
18.93793395085907
1040
11.62499954755264
1040
0.0
1040
18.08848926105446
1040
11.62499954755264
1040
0.3272098845218764
1040
17.83817381145678
1040
11.44154653163613
1040
0.0
1040
16.90403887414088
1040
8.483452563469185
1040
-0.3272098845219541
1040
16.65372342454315
1040
8.299999547552646
1040
0.0
1040
16.58360634279893
1040
8.299999547552646
1040
-0.4142135623731526
1040
16.32110634279888
1040
8.56249954755264
1040
0.0
1040
16.32110634279888
1040
11.36249954755265
1040
0.4142135623730951
1040
16.05860634279889
1040
11.62499954755264
1040
0.0
1040
15.18360634279883
1040
11.62499954755264
1040
0.4142135623730871
1040
14.92110634279885
1040
11.36249954755265
1040
0.0
1040
14.92110634279885
1040
3.837499547552643
1040
0.4142135623730891
1040
15.18360634279883
1040
3.574999547552649
1040
0.0
1040
16.05860634279884
1040
3.574999547552649
1040
0.4142135623731526
1040
16.32110634279888
1040
3.837499547552643
1040
0.0
1040
16.32110634279888
1040
6.63749954755265
1040
-0.4142135623731526
1040
16.58360634279893
1040
6.899999547552646
1040
0.0
1040
16.65372342454321
1040
6.899999547552646
1040
-0.3272098845218915
1040
16.90403887414088
1040
6.716546531636111
1040
0.0
1040
17.83817381145678
1040
3.758452563469185
1040
0.3272098845218902
1040
18.08848926105446
1040
3.574999547552649
1040
0.0
1040
18.93793395085907
1040
3.574999547552649
1040
0.5069206636600336
1040
19.18824940045676
1040
3.916546531636154
1040
0.0
1040
18.02505371121992
1040
7.599999547552716
1040
0.0
1071
        0
1071
        7
1070
     1
1070
     1
1071
        8
1040
21.74610634279883
1040
11.36249954755265
1040
0.4142135623731546
1040
21.48360634279879
1040
11.62499954755264
1040
0.0
1040
20.60860634279891
1040
11.62499954755264
1040
0.4142135623731507
1040
20.34610634279886
1040
11.36249954755265
1040
0.0
1040
20.34610634279886
1040
3.837499547552643
1040
0.4142135623731526
1040
20.60860634279891
1040
3.574999547552649
1040
0.0
1040
21.48360634279879
1040
3.574999547552649
1040
0.4142135623731526
1040
21.74610634279883
1040
3.837499547552643
1040
0.0
1071
        0
1071
        7
1070
     1
1070
     1
1071
       24
1040
24.19610634279888
1040
9.962499547552651
1040
-0.4142135623731546
1040
24.45860634279893
1040
10.22499954755264
1040
0.0
1040
25.94610634279888
1040
10.22499954755264
1040
0.4142135623730911
1040
26.20860634279887
1040
10.48749954755264
1040
0.0
1040
26.20860634279887
1040
11.36249954755265
1040
0.4142135623730952
1040
25.94610634279888
1040
11.62499954755264
1040
0.0
1040
24.19610634279888
1040
11.62499954755264
1040
0.4142135623731048
1040
22.79610634279885
1040
10.22499954755266
1040
0.0
1040
22.79610634279885
1040
9.317398534875026
1040
0.1989123673796613
1040
23.41118210230712
1040
7.832474294383251
1040
0.0
1040
24.86608108962946
1040
6.377575307060917
1040
-0.1989123673796402
1040
25.07110634279889
1040
5.882600560230381
1040
0.0
1040
25.07110634279889
1040
5.237499547552641
1040
-0.4142135623730911
1040
24.8086063427989
1040
4.974999547552648
1040
0.0
1040
23.32110634279889
1040
4.974999547552648
1040
0.4142135623731526
1040
23.05860634279884
1040
4.712499547552654
1040
0.0
1040
23.05860634279884
1040
3.837499547552643
1040
0.4142135623730891
1040
23.32110634279883
1040
3.574999547552649
1040
0.0
1040
25.07110634279889
1040
3.574999547552649
1040
0.4142135623730925
1040
26.47110634279886
1040
4.974999547552638
1040
0.0
1040
26.47110634279886
1040
5.882600560230271
1040
0.1989123673796675
1040
25.85603058329059
1040
7.367524800722101
1040
0.0
1040
24.4011315959683
1040
8.822423788044357
1040
-0.1989123673796652
1040
24.19610634279888
1040
9.317398534874939
1040
0.0
1071
        0
1071
        7
1070
     1
1070
     1
1071
       16
1040
28.92110634279885
1040
11.36249954755264
1040
0.414213562373103
1040
28.65860634279886
1040
11.62499954755264
1040
0.0
1040
27.78360634279886
1040
11.62499954755264
1040
0.4142135623730871
1040
27.52110634279887
1040
11.36249954755265
1040
0.0
1040
27.52110634279887
1040
4.974999547552638
1040
0.4142135623730927
1040
28.92110634279885
1040
3.574999547552649
1040
0.0
1040
30.67110634279885
1040
3.574999547552649
1040
0.4142135623731045
1040
32.07110634279889
1040
4.974999547552638
1040
0.0
1040
32.07110634279889
1040
11.36249954755265
1040
0.4142135623730951
1040
31.8086063427989
1040
11.62499954755264
1040
0.0
1040
30.93360634279884
1040
11.62499954755264
1040
0.4142135623730871
1040
30.67110634279885
1040
11.36249954755265
1040
0.0
1040
30.67110634279885
1040
5.499999547552635
1040
-0.4142135623730879
1040
30.14610634279887
1040
4.974999547552648
1040
0.0
1040
29.44610634279889
1040
4.974999547552648
1040
-0.4142135623731197
1040
28.92110634279885
1040
5.499999547552635
1040
0.0
1071
        0
1071
        7
1070
     1
1070
     1
1071
        8
1040
34.52110634279887
1040
11.36249954755265
1040
0.4142135623730871
1040
34.25860634279889
1040
11.62499954755264
1040
0.0
1040
33.38360634279889
1040
11.62499954755264
1040
0.4142135623731507
1040
33.12110634279884
1040
11.36249954755265
1040
0.0
1040
33.12110634279884
1040
3.837499547552643
1040
0.4142135623730891
1040
33.38360634279883
1040
3.574999547552649
1040
0.0
1040
34.25860634279889
1040
3.574999547552649
1040
0.4142135623730891
1040
34.52110634279887
1040
3.837499547552643
1040
0.0
1071
        0
1070
     0
1070
     1
1040
0.0
1040
0.1
1070
     0
1070
     2
1040
0.7853981633974483
1040
-450.4711519019312
1040
-6.600000452447313
1040
-0.2245064030267288
1040
0.2245064030267288
1070
     0
1040
2.356194490192344
1040
-450.4711519019312
1040
-6.600000452447313
1040
-0.2245064030267288
1040
-0.2245064030267288
1070
     0
1040
0.057451373970553
1071
        8
1040
8.039927746919939
1040
7.583586370495421
1040
0.0
1040
11.20225776862787
1040
9.422030638778151
1040
0.0
1040
12.58218420823811
1040
7.755940370588006
1040
0.0
1040
15.45703025622685
1040
8.100648370773395
1040
0.0
1040
20.91923627488665
1040
8.330454504544206
1040
0.0
1040
23.44910071297306
1040
9.709287705756251
1040
0.0
1040
28.27884325160846
1040
9.364578505100151
1040
0.0
1040
33.91354007521966
1040
9.594384638870961
1040
0.0
1002
}
  0
LINE
  5
5C8
330
1F
100
AcDbEntity
  8
ZUWAKU
100
AcDbLine
 10
9.402035277313245
 20
19.28698742025887
 30
0.0
 11
408.1020352773132
 21
19.28698742025887
 31
0.0
  0
LINE
  5
5C9
330
1F
100
AcDbEntity
  8
ZUWAKU
100
AcDbLine
 10
9.402035277313245
 20
19.3869874202589
 30
0.0
 11
408.1020352773132
 21
19.3869874202589
 31
0.0
  0
LINE
  5
5CA
330
1F
100
AcDbEntity
  8
ZUWAKU
100
AcDbLine
 10
9.402035277313245
 20
19.48698742025881
 30
0.0
 11
408.1020352773132
 21
19.48698742025881
 31
0.0
  0
LINE
  5
5CB
330
1F
100
AcDbEntity
  8
ZUWAKU
100
AcDbLine
 10
9.402035277313245
 20
19.58698742025894
 30
0.0
 11
408.1020352773132
 21
19.58698742025894
 31
0.0
  0
LINE
  5
5CC
330
1F
100
AcDbEntity
  8
ZUWAKU
100
AcDbLine
 10
9.402035277313245
 20
19.68698742025885
 30
0.0
 11
408.1020352773132
 21
19.68698742025885
 31
0.0
  0
LINE
  5
5CD
330
1F
100
AcDbEntity
  8
ZUWAKU
100
AcDbLine
 10
113.7253359223472
 20
11.98698742025892
 30
0.0
 11
233.1142172628089
 21
11.98698742025892
 31
0.0
  0
LINE
  5
5CE
330
1F
100
AcDbEntity
  8
ZUWAKU
100
AcDbLine
 10
113.7253359223472
 20
12.08698742025894
 30
0.0
 11
233.1142172628089
 21
12.08698742025894
 31
0.0
  0
LINE
  5
5CF
330
1F
100
AcDbEntity
  8
ZUWAKU
100
AcDbLine
 10
113.7253359223472
 20
11.8869874202589
 30
0.0
 11
233.1142172628089
 21
11.8869874202589
 31
0.0
  0
LWPOLYLINE
  5
5D0
330
1F
100
AcDbEntity
  8
ZUWAKU
100
AcDbPolyline
 90
        4
 70
     1
 43
0.0
 10
9.802035277313223
 20
279.6869874202589
 10
9.802035277313223
 20
4.686987420258851
 10
407.8020352773132
 20
4.686987420258851
 10
407.8020352773132
 20
279.6869874202589
  0
LWPOLYLINE
  5
5D1
330
1F
100
AcDbEntity
  8
ZUWAKU
100
AcDbPolyline
 90
        4
 70
     1
 43
0.0
 10
9.602035277313234
 20
279.8869874202589
 10
9.602035277313234
 20
4.48698742025892
 10
408.0020352773132
 20
4.48698742025892
 10
408.0020352773132
 20
279.8869874202589
  0
LWPOLYLINE
  5
5D2
330
1F
100
AcDbEntity
  8
ZUWAKU
100
AcDbPolyline
 90
        4
 70
     1
 43
0.0
 10
9.402035277313245
 20
280.0869874202589
 10
9.402035277313245
 20
4.286987420258874
 10
408.2020352773132
 20
4.286987420258874
 10
408.2020352773132
 20
280.0869874202589
  0
LWPOLYLINE
  5
5D3
330
1F
100
AcDbEntity
  8
ZUWAKU
100
AcDbPolyline
 90
        4
 70
     1
 43
0.0
 10
9.7020352773132
 20
279.786987420259
 10
9.7020352773132
 20
4.586987420258942
 10
407.9020352773133
 20
4.586987420258942
 10
407.9020352773132
 20
279.786987420259
  0
LWPOLYLINE
  5
5D4
330
1F
100
AcDbEntity
  8
ZUWAKU
100
AcDbPolyline
 90
        4
 70
     1
 43
0.0
 10
9.502035277313211
 20
279.9869874202588
 10
9.502035277313211
 20
4.386987420258897
 10
408.1020352773132
 20
4.386987420258897
 10
408.1020352773133
 20
279.9869874202588
  0
TEXT
  5
67E
330
1F
100
AcDbEntity
  8
MOJI
100
AcDbText
 10
239.3944809300962
 20
11.21184056123292
 30
0.0
 40
2.799999999999999
  1
PH63□
 41
0.9
  7
ｽﾀｲﾙ1
100
AcDbText
  0
VIEWPORT
  5
A5
102
{ACAD_XDICTIONARY
360
71B
102
}
330
81
100
AcDbEntity
 67
     1
  8
0
100
AcDbViewport
 10
5.249999665167533
 20
3.999999903397285
 30
0.0
 40
11.99452846121629
 41
6.47627894551295
 68
     1
 69
     1
 12
5.249999665167533
 22
3.999999903397285
 13
0.0
 23
0.0
 14
10.0
 24
10.0
 15
10.0
 25
10.0
 16
0.0
 26
0.0
 36
1.0
 17
0.0
 27
0.0
 37
0.0
 42
50.0
 43
0.0
 44
0.0
 45
6.47627894551295
 50
0.0
 51
0.0
 72
  1000
 90
    32864
  1

281
     0
 71
     1
 74
     0
110
0.0
120
0.0
130
0.0
111
1.0
121
0.0
131
0.0
112
0.0
122
1.0
132
0.0
 79
     0
146
0.0
  0
VIEWPORT
  5
A7
102
{ACAD_XDICTIONARY
360
71D
102
}
330
81
100
AcDbEntity
 67
     1
  8
0
100
AcDbViewport
 10
5.24999976158142
 20
3.99999976158142
 30
0.0
 40
8.399999618530271
 41
6.399999618530272
 68
     2
 69
     2
 12
6.0
 22
4.5
 13
0.0
 23
0.0
 14
0.5
 24
0.5
 15
0.5
 25
0.5
 16
0.0
 26
0.0
 36
1.0
 17
0.0
 27
0.0
 37
0.0
 42
50.0
 43
0.0
 44
0.0
 45
9.259079771746701
 50
0.0
 51
0.0
 72
   100
 90
    32864
  1

281
     0
 71
     1
 74
     0
110
0.0
120
0.0
130
0.0
111
1.0
121
0.0
131
0.0
112
0.0
122
1.0
132
0.0
 79
     0
146
0.0
  0
ENDSEC
  0
SECTION
  2
OBJECTS
  0
DICTIONARY
  5
C
330
0
100
AcDbDictionary
281
     1
  3
ACAD_COLOR
350
B9
  3
ACAD_GROUP
350
D
  3
ACAD_LAYOUT
350
1A
  3
ACAD_MATERIAL
350
B8
  3
ACAD_MLEADERSTYLE
350
6E4
  3
ACAD_MLINESTYLE
350
17
  3
ACAD_PLOTSETTINGS
350
19
  3
ACAD_PLOTSTYLENAME
350
E
  3
ACAD_SCALELIST
350
6D2
  3
ACAD_TABLESTYLE
350
6D0
  3
ACAD_VISUALSTYLE
350
6B7
  3
ACDB_RECOMPOSE_DATA
350
70F
  3
AcDbVariableDictionary
350
8A
  3
DWGPROPS
350
710
  0
DICTIONARY
  5
2FA
330
2
100
AcDbDictionary
280
     1
281
     1
  3
ACAD_LAYERSTATES
360
2FB
  0
DICTIONARY
  5
6EB
330
10
100
AcDbDictionary
280
     1
281
     1
  3
ADSK_XREC_LAYER_RECONCILED
360
6EC
  0
DICTIONARY
  5
6ED
330
2F3
100
AcDbDictionary
280
     1
281
     1
  3
ADSK_XREC_LAYER_RECONCILED
360
6EE
  0
DICTIONARY
  5
6EF
330
2F4
100
AcDbDictionary
280
     1
281
     1
  3
ADSK_XREC_LAYER_RECONCILED
360
6F0
  0
DICTIONARY
  5
6F1
330
2F5
100
AcDbDictionary
280
     1
281
     1
  3
ADSK_XREC_LAYER_RECONCILED
360
6F2
  0
DICTIONARY
  5
6F3
330
2F6
100
AcDbDictionary
280
     1
281
     1
  3
ADSK_XREC_LAYER_RECONCILED
360
6F4
  0
DICTIONARY
  5
6F5
330
2F7
100
AcDbDictionary
280
     1
281
     1
  3
ADSK_XREC_LAYER_RECONCILED
360
6F6
  0
DICTIONARY
  5
717
330
9F
100
AcDbDictionary
280
     1
281
     1
  3
ACAD_XREC_ROUNDTRIP
360
718
  0
DICTIONARY
  5
719
330
A1
100
AcDbDictionary
280
     1
281
     1
  3
ACAD_XREC_ROUNDTRIP
360
71A
  0
DICTIONARY
  5
71B
330
A5
100
AcDbDictionary
280
     1
281
     1
  3
ACAD_XREC_ROUNDTRIP
360
71C
  0
DICTIONARY
  5
71D
330
A7
100
AcDbDictionary
280
     1
281
     1
  3
ACAD_XREC_ROUNDTRIP
360
71E
  0
DICTIONARY
  5
B9
102
{ACAD_REACTORS
330
C
102
}
330
C
100
AcDbDictionary
281
     1
  0
DICTIONARY
  5
D
102
{ACAD_REACTORS
330
C
102
}
330
C
100
AcDbDictionary
281
     1
  0
DICTIONARY
  5
1A
102
{ACAD_REACTORS
330
C
102
}
330
C
100
AcDbDictionary
281
     1
  3
Model
350
22
  3
レイアウト1
350
7D
  3
レイアウト2
350
82
  0
DICTIONARY
  5
B8
102
{ACAD_REACTORS
330
C
102
}
330
C
100
AcDbDictionary
281
     1
  3
ByBlock
350
6A7
  3
ByLayer
350
69F
  3
Global
350
6AF
  0
DICTIONARY
  5
6E4
102
{ACAD_REACTORS
330
C
102
}
330
C
100
AcDbDictionary
281
     1
  3
Standard
350
6E5
  0
DICTIONARY
  5
17
102
{ACAD_REACTORS
330
C
102
}
330
C
100
AcDbDictionary
281
     1
  3
Standard
350
18
  0
DICTIONARY
  5
19
102
{ACAD_REACTORS
330
C
102
}
330
C
100
AcDbDictionary
281
     1
  0
ACDBDICTIONARYWDFLT
  5
E
102
{ACAD_REACTORS
330
C
102
}
330
C
100
AcDbDictionary
281
     1
  3
Normal
350
F
100
AcDbDictionaryWithDefault
340
F
  0
DICTIONARY
  5
6D2
102
{ACAD_REACTORS
330
C
102
}
330
C
100
AcDbDictionary
281
     1
  3
A0
350
6D3
  3
A1
350
6D4
  3
A2
350
6D5
  3
A3
350
6D6
  3
A4
350
6D7
  3
A5
350
6D8
  3
A6
350
6D9
  3
A7
350
6DA
  3
A8
350
6DB
  3
A9
350
6DC
  3
B0
350
6DD
  3
B1
350
6DE
  3
B2
350
6DF
  3
B3
350
6E0
  3
B4
350
6E1
  3
B5
350
6E2
  3
B6
350
6E3
  0
DICTIONARY
  5
6D0
102
{ACAD_REACTORS
330
C
102
}
330
C
100
AcDbDictionary
281
     1
  3
Standard
350
6D1
  0
DICTIONARY
  5
6B7
102
{ACAD_REACTORS
330
C
102
}
330
C
100
AcDbDictionary
281
     1
  3
2dWireframe
350
6BD
  3
Basic
350
6BC
  3
Brighten
350
6C3
  3
ColorChange
350
6C7
  3
Conceptual
350
6C0
  3
Dim
350
6C2
  3
EdgeColorOff
350
6CF
  3
Facepattern
350
6C6
  3
Flat
350
6B8
  3
FlatWithEdges
350
6B9
  3
Gouraud
350
6BA
  3
GouraudWithEdges
350
6BB
  3
Hidden
350
6BF
  3
JitterOff
350
6CD
  3
Linepattern
350
6C5
  3
OverhangOff
350
6CE
  3
Realistic
350
6C1
  3
Shaded
350
6CC
  3
Shaded with edges
350
6CB
  3
Shades of Gray
350
6C8
  3
Sketchy
350
6C9
  3
Thicken
350
6C4
  3
Wireframe
350
6BE
  3
X-Ray
350
6CA
  0
XRECORD
  5
70F
102
{ACAD_REACTORS
330
C
102
}
330
C
100
AcDbXrecord
280
     1
 90
        1
330
6D1
  0
DICTIONARY
  5
8A
102
{ACAD_REACTORS
330
C
102
}
330
C
100
AcDbDictionary
281
     1
  3
CANNOSCALE
350
709
  3
CMLEADERSTYLE
350
708
  3
CTABLESTYLE
350
707
  3
DIMASSOC
350
8B
  3
HIDETEXT
350
97
  3
INDEXCTL
350
70B
  3
PROJECTNAME
350
69D
  3
SORTENTS
350
70A
  3
XCLIPFRAME
350
70C
  0
XRECORD
  5
710
102
{ACAD_REACTORS
330
C
102
}
330
C
100
AcDbXrecord
280
     1
  1
DWGPROPS COOKIE
  2

  3

  4

  6

  7

  8
kogure009
  9

300
=
301
=
302
=
303
=
304
=
305
=
306
=
307
=
308
=
309
=
 40
0.0057320717592593
 41
2457927.472306516
 42
2458964.428307211
  1

 90
        0
  0
DICTIONARY
  5
2FB
102
{ACAD_REACTORS
330
2FA
102
}
330
2FA
100
AcDbDictionary
281
     1
  0
XRECORD
  5
6EC
102
{ACAD_REACTORS
330
6EB
102
}
330
6EB
100
AcDbXrecord
280
     1
290
     1
  0
XRECORD
  5
6EE
102
{ACAD_REACTORS
330
6ED
102
}
330
6ED
100
AcDbXrecord
280
     1
290
     1
  0
XRECORD
  5
6F0
102
{ACAD_REACTORS
330
6EF
102
}
330
6EF
100
AcDbXrecord
280
     1
290
     1
  0
XRECORD
  5
6F2
102
{ACAD_REACTORS
330
6F1
102
}
330
6F1
100
AcDbXrecord
280
     1
290
     1
  0
XRECORD
  5
6F4
102
{ACAD_REACTORS
330
6F3
102
}
330
6F3
100
AcDbXrecord
280
     1
290
     1
  0
XRECORD
  5
6F6
102
{ACAD_REACTORS
330
6F5
102
}
330
6F5
100
AcDbXrecord
280
     1
290
     1
  0
XRECORD
  5
718
102
{ACAD_REACTORS
330
717
102
}
330
717
100
AcDbXrecord
280
     1
102
SHADEPLOT
 70
     0
  0
XRECORD
  5
71A
102
{ACAD_REACTORS
330
719
102
}
330
719
100
AcDbXrecord
280
     1
102
SHADEPLOT
 70
     0
  0
XRECORD
  5
71C
102
{ACAD_REACTORS
330
71B
102
}
330
71B
100
AcDbXrecord
280
     1
102
SHADEPLOT
 70
     0
  0
XRECORD
  5
71E
102
{ACAD_REACTORS
330
71D
102
}
330
71D
100
AcDbXrecord
280
     1
102
SHADEPLOT
 70
     0
  0
LAYOUT
  5
22
102
{ACAD_XDICTIONARY
360
711
102
}
102
{ACAD_REACTORS
330
1A
102
}
330
1A
100
AcDbPlotSettings
  1

  2
none_device
  4
ANSI_A_(8.50_x_11.00_Inches)
  6

 40
6.349999904632568
 41
19.04999923706055
 42
6.350006103515625
 43
19.04998779296875
 44
215.8999938964844
 45
279.3999938964844
 46
0.0
 47
0.0
 48
0.0
 49
0.0
140
0.0
141
0.0
142
1.0
143
2.307900562900651
 70
 11952
 72
     0
 73
     1
 74
     0
  7
monochrome.stb
 75
     0
147
0.4332942311618332
148
0.0
149
0.0
100
AcDbLayout
  1
Model
 70
     1
 71
     0
 10
0.0
 20
0.0
 11
12.0
 21
9.0
 12
0.0
 22
0.0
 32
0.0
 14
0.0
 24
0.0
 34
0.0
 15
0.0
 25
0.0
 35
0.0
146
0.0
 13
0.0
 23
0.0
 33
0.0
 16
1.0
 26
0.0
 36
0.0
 17
0.0
 27
1.0
 37
0.0
 76
     0
330
1F
331
68B
  0
LAYOUT
  5
7D
102
{ACAD_XDICTIONARY
360
713
102
}
102
{ACAD_REACTORS
330
1A
102
}
330
1A
100
AcDbPlotSettings
  1

  2
none_device
  4
Letter_(8.50_x_11.00_Inches)
  6

 40
6.349999904632568
 41
6.349999904632568
 42
6.350006103515625
 43
6.350006103515625
 44
215.8999938964844
 45
279.3999938964844
 46
0.0
 47
0.0
 48
0.0
 49
0.0
140
0.0
141
0.0
142
1.0
143
1.0
 70
   688
 72
     0
 73
     1
 74
     5
  7
monochrome.stb
 75
    16
147
1.0
148
0.0
149
0.0
100
AcDbLayout
  1
レイアウト1
 70
     1
 71
     1
 10
-0.2500002402958907
 20
-0.2499999962453767
 11
10.74999951940821
 21
8.249999763458731
 12
0.0
 22
0.0
 32
0.0
 14
1.049636599258096
 24
0.7996597240971113
 34
-0.0000000000112498
 15
9.450362731076971
 25
7.200340082697458
 35
0.0000000000002956
146
0.0
 13
0.0
 23
0.0
 33
0.0
 16
1.0
 26
0.0
 36
0.0
 17
0.0
 27
1.0
 37
0.0
 76
     0
330
7C
331
9F
  0
LAYOUT
  5
82
102
{ACAD_XDICTIONARY
360
715
102
}
102
{ACAD_REACTORS
330
1A
102
}
330
1A
100
AcDbPlotSettings
  1

  2
none_device
  4
Letter_(8.50_x_11.00_Inches)
  6

 40
6.349999904632568
 41
6.349999904632568
 42
6.350006103515625
 43
6.350006103515625
 44
215.8999938964844
 45
279.3999938964844
 46
0.0
 47
0.0
 48
0.0
 49
0.0
140
0.0
141
0.0
142
1.0
143
1.0
 70
   688
 72
     0
 73
     1
 74
     5
  7
monochrome.stb
 75
    16
147
1.0
148
0.0
149
0.0
100
AcDbLayout
  1
レイアウト2
 70
     1
 71
     2
 10
-0.2500002402958907
 20
-0.2499999962453767
 11
10.74999951940821
 21
8.249999763458731
 12
0.0
 22
0.0
 32
0.0
 14
1.049636599258096
 24
0.7996597240971113
 34
-0.0000000000112498
 15
9.450362731076971
 25
7.200340082697458
 35
0.0000000000002956
146
0.0
 13
0.0
 23
0.0
 33
0.0
 16
1.0
 26
0.0
 36
0.0
 17
0.0
 27
1.0
 37
0.0
 76
     0
330
81
331
A5
  0
MATERIAL
  5
6A7
102
{ACAD_XDICTIONARY
360
6A8
102
}
102
{ACAD_REACTORS
330
B8
102
}
330
B8
100
AcDbMaterial
  1
ByBlock
 72
     0
 43
0.0208333333333333
 43
0.0
 43
0.0
 43
0.0
 43
0.0
 43
0.0208333333333333
 43
0.0
 43
0.0
 43
0.0
 43
0.0
 43
1.0
 43
0.0
 43
0.0
 43
0.0
 43
0.0
 43
1.0
 77
     0
 47
0.0208333333333333
 47
0.0
 47
0.0
 47
0.0
 47
0.0
 47
0.0208333333333333
 47
0.0
 47
0.0
 47
0.0
 47
0.0
 47
1.0
 47
0.0
 47
0.0
 47
0.0
 47
0.0
 47
1.0
171
     0
 49
0.0208333333333333
 49
0.0
 49
0.0
 49
0.0
 49
0.0
 49
0.0208333333333333
 49
0.0
 49
0.0
 49
0.0
 49
0.0
 49
1.0
 49
0.0
 49
0.0
 49
0.0
 49
0.0
 49
1.0
175
     0
142
0.0208333333333333
142
0.0
142
0.0
142
0.0
142
0.0
142
0.0208333333333333
142
0.0
142
0.0
142
0.0
142
0.0
142
1.0
142
0.0
142
0.0
142
0.0
142
0.0
142
1.0
179
     0
144
0.0208333333333333
144
0.0
144
0.0
144
0.0
144
0.0
144
0.0208333333333333
144
0.0
144
0.0
144
0.0
144
0.0
144
1.0
144
0.0
144
0.0
144
0.0
144
0.0
144
1.0
147
0.0208333333333333
147
0.0
147
0.0
147
0.0
147
0.0
147
0.0208333333333333
147
0.0
147
0.0
147
0.0
147
0.0
147
1.0
147
0.0
147
0.0
147
0.0
147
0.0
147
1.0
  0
MATERIAL
  5
69F
102
{ACAD_XDICTIONARY
360
6A0
102
}
102
{ACAD_REACTORS
330
B8
102
}
330
B8
100
AcDbMaterial
  1
ByLayer
 72
     0
 43
0.0208333333333333
 43
0.0
 43
0.0
 43
0.0
 43
0.0
 43
0.0208333333333333
 43
0.0
 43
0.0
 43
0.0
 43
0.0
 43
1.0
 43
0.0
 43
0.0
 43
0.0
 43
0.0
 43
1.0
 77
     0
 47
0.0208333333333333
 47
0.0
 47
0.0
 47
0.0
 47
0.0
 47
0.0208333333333333
 47
0.0
 47
0.0
 47
0.0
 47
0.0
 47
1.0
 47
0.0
 47
0.0
 47
0.0
 47
0.0
 47
1.0
171
     0
 49
0.0208333333333333
 49
0.0
 49
0.0
 49
0.0
 49
0.0
 49
0.0208333333333333
 49
0.0
 49
0.0
 49
0.0
 49
0.0
 49
1.0
 49
0.0
 49
0.0
 49
0.0
 49
0.0
 49
1.0
175
     0
142
0.0208333333333333
142
0.0
142
0.0
142
0.0
142
0.0
142
0.0208333333333333
142
0.0
142
0.0
142
0.0
142
0.0
142
1.0
142
0.0
142
0.0
142
0.0
142
0.0
142
1.0
179
     0
144
0.0208333333333333
144
0.0
144
0.0
144
0.0
144
0.0
144
0.0208333333333333
144
0.0
144
0.0
144
0.0
144
0.0
144
1.0
144
0.0
144
0.0
144
0.0
144
0.0
144
1.0
147
0.0208333333333333
147
0.0
147
0.0
147
0.0
147
0.0
147
0.0208333333333333
147
0.0
147
0.0
147
0.0
147
0.0
147
1.0
147
0.0
147
0.0
147
0.0
147
0.0
147
1.0
  0
MATERIAL
  5
6AF
102
{ACAD_XDICTIONARY
360
6B0
102
}
102
{ACAD_REACTORS
330
B8
102
}
330
B8
100
AcDbMaterial
  1
Global
 72
     0
 43
0.0208333333333333
 43
0.0
 43
0.0
 43
0.0
 43
0.0
 43
0.0208333333333333
 43
0.0
 43
0.0
 43
0.0
 43
0.0
 43
1.0
 43
0.0
 43
0.0
 43
0.0
 43
0.0
 43
1.0
 77
     0
 47
0.0208333333333333
 47
0.0
 47
0.0
 47
0.0
 47
0.0
 47
0.0208333333333333
 47
0.0
 47
0.0
 47
0.0
 47
0.0
 47
1.0
 47
0.0
 47
0.0
 47
0.0
 47
0.0
 47
1.0
171
     0
 49
0.0208333333333333
 49
0.0
 49
0.0
 49
0.0
 49
0.0
 49
0.0208333333333333
 49
0.0
 49
0.0
 49
0.0
 49
0.0
 49
1.0
 49
0.0
 49
0.0
 49
0.0
 49
0.0
 49
1.0
175
     0
142
0.0208333333333333
142
0.0
142
0.0
142
0.0
142
0.0
142
0.0208333333333333
142
0.0
142
0.0
142
0.0
142
0.0
142
1.0
142
0.0
142
0.0
142
0.0
142
0.0
142
1.0
179
     0
144
0.0208333333333333
144
0.0
144
0.0
144
0.0
144
0.0
144
0.0208333333333333
144
0.0
144
0.0
144
0.0
144
0.0
144
1.0
144
0.0
144
0.0
144
0.0
144
0.0
144
1.0
147
0.0208333333333333
147
0.0
147
0.0
147
0.0
147
0.0
147
0.0208333333333333
147
0.0
147
0.0
147
0.0
147
0.0
147
1.0
147
0.0
147
0.0
147
0.0
147
0.0
147
1.0
  0
MLEADERSTYLE
  5
6E5
102
{ACAD_REACTORS
330
6E4
102
}
330
6E4
100
AcDbMLeaderStyle
170
     2
171
     1
172
     0
 90
        2
 40
0.0
 41
0.0
173
     1
 91
-1056964608
340
14
 92
       -2
290
     1
 42
0.09
291
     1
 43
0.36
  3
Standard
 44
0.18
300

342
11
174
     1
178
     6
175
     1
176
     0
 93
-1056964608
 45
0.18
292
     0
297
     0
 46
0.18
 94
-1056964608
 47
1.0
 49
1.0
140
1.0
293
     1
141
0.0
294
     1
177
     0
142
1.0
295
     0
296
     0
143
0.125
1001
ACAD_MLEADERVER
1070
     2
  0
MLINESTYLE
  5
18
102
{ACAD_REACTORS
330
17
102
}
330
17
100
AcDbMlineStyle
  2
STANDARD
 70
     0
  3

 62
   256
 51
90.0
 52
90.0
 71
     2
 49
0.5
 62
   256
  6
BYLAYER
 49
-0.5
 62
   256
  6
BYLAYER
  0
ACDBPLACEHOLDER
  5
F
102
{ACAD_REACTORS
330
E
102
}
330
E
  0
SCALE
  5
6D3
102
{ACAD_REACTORS
330
6D2
102
}
330
6D2
100
AcDbScale
 70
     0
300
1:1
140
1.0
141
1.0
290
     1
  0
SCALE
  5
6D4
102
{ACAD_REACTORS
330
6D2
102
}
330
6D2
100
AcDbScale
 70
     0
300
1/128" = 1'-0"
140
0.0078125
141
12.0
290
     0
  0
SCALE
  5
6D5
102
{ACAD_REACTORS
330
6D2
102
}
330
6D2
100
AcDbScale
 70
     0
300
1/64" = 1'-0"
140
0.015625
141
12.0
290
     0
  0
SCALE
  5
6D6
102
{ACAD_REACTORS
330
6D2
102
}
330
6D2
100
AcDbScale
 70
     0
300
1/32" = 1'-0"
140
0.03125
141
12.0
290
     0
  0
SCALE
  5
6D7
102
{ACAD_REACTORS
330
6D2
102
}
330
6D2
100
AcDbScale
 70
     0
300
1/16" = 1'-0"
140
0.0625
141
12.0
290
     0
  0
SCALE
  5
6D8
102
{ACAD_REACTORS
330
6D2
102
}
330
6D2
100
AcDbScale
 70
     0
300
3/32" = 1'-0"
140
0.09375
141
12.0
290
     0
  0
SCALE
  5
6D9
102
{ACAD_REACTORS
330
6D2
102
}
330
6D2
100
AcDbScale
 70
     0
300
1/8" = 1'-0"
140
0.125
141
12.0
290
     0
  0
SCALE
  5
6DA
102
{ACAD_REACTORS
330
6D2
102
}
330
6D2
100
AcDbScale
 70
     0
300
3/16" = 1'-0"
140
0.1875
141
12.0
290
     0
  0
SCALE
  5
6DB
102
{ACAD_REACTORS
330
6D2
102
}
330
6D2
100
AcDbScale
 70
     0
300
1/4" = 1'-0"
140
0.25
141
12.0
290
     0
  0
SCALE
  5
6DC
102
{ACAD_REACTORS
330
6D2
102
}
330
6D2
100
AcDbScale
 70
     0
300
3/8" = 1'-0"
140
0.375
141
12.0
290
     0
  0
SCALE
  5
6DD
102
{ACAD_REACTORS
330
6D2
102
}
330
6D2
100
AcDbScale
 70
     0
300
1/2" = 1'-0"
140
0.5
141
12.0
290
     0
  0
SCALE
  5
6DE
102
{ACAD_REACTORS
330
6D2
102
}
330
6D2
100
AcDbScale
 70
     0
300
3/4" = 1'-0"
140
0.75
141
12.0
290
     0
  0
SCALE
  5
6DF
102
{ACAD_REACTORS
330
6D2
102
}
330
6D2
100
AcDbScale
 70
     0
300
1" = 1'-0"
140
1.0
141
12.0
290
     0
  0
SCALE
  5
6E0
102
{ACAD_REACTORS
330
6D2
102
}
330
6D2
100
AcDbScale
 70
     0
300
1-1/2" = 1'-0"
140
1.5
141
12.0
290
     0
  0
SCALE
  5
6E1
102
{ACAD_REACTORS
330
6D2
102
}
330
6D2
100
AcDbScale
 70
     0
300
3" = 1'-0"
140
3.0
141
12.0
290
     0
  0
SCALE
  5
6E2
102
{ACAD_REACTORS
330
6D2
102
}
330
6D2
100
AcDbScale
 70
     0
300
6" = 1'-0"
140
6.0
141
12.0
290
     0
  0
SCALE
  5
6E3
102
{ACAD_REACTORS
330
6D2
102
}
330
6D2
100
AcDbScale
 70
     0
300
1'-0" = 1'-0"
140
12.0
141
12.0
290
     0
  0
TABLESTYLE
  5
6D1
102
{ACAD_XDICTIONARY
360
70D
102
}
102
{ACAD_REACTORS
330
6D0
102
}
330
6D0
100
AcDbTableStyle
  3
Standard
 70
     0
 71
     0
 40
0.06
 41
0.06
280
     0
281
     0
  7
Standard
140
0.18
170
     2
 62
     0
 63
     7
283
     0
274
    -2
284
     1
 64
     0
275
    -2
285
     1
 65
     0
276
    -2
286
     1
 66
     0
277
    -2
287
     1
 67
     0
278
    -2
288
     1
 68
     0
279
    -2
289
     1
 69
     0
  7
Standard
140
0.25
170
     5
 62
     0
 63
     7
283
     0
274
    -2
284
     1
 64
     0
275
    -2
285
     1
 65
     0
276
    -2
286
     1
 66
     0
277
    -2
287
     1
 67
     0
278
    -2
288
     1
 68
     0
279
    -2
289
     1
 69
     0
  7
Standard
140
0.18
170
     5
 62
     0
 63
     7
283
     0
274
    -2
284
     1
 64
     0
275
    -2
285
     1
 65
     0
276
    -2
286
     1
 66
     0
277
    -2
287
     1
 67
     0
278
    -2
288
     1
 68
     0
279
    -2
289
     1
 69
     0
  0
VISUALSTYLE
  5
6BD
102
{ACAD_XDICTIONARY
360
72C
102
}
102
{ACAD_REACTORS
330
6B7
102
}
330
6B7
100
AcDbVisualStyle
  2
2dWireframe
 70
     4
 71
     0
 72
     2
 73
     0
 90
        0
 40
-0.6
 41
-30.0
 62
     5
 63
     7
 74
     1
 91
        4
 64
     7
 65
   257
 75
     1
175
     1
 42
1.0
 92
        0
 66
   257
 43
1.0
 76
     1
 77
     6
 78
     2
 67
     7
 79
     5
170
     0
171
     0
290
     0
174
     0
 93
        1
 44
0.0
173
     0
291
     0
 45
0.0
1001
ACAD
1000
AcDbSavedByObjectVersion
1070
     0
  0
VISUALSTYLE
  5
6BC
102
{ACAD_XDICTIONARY
360
72A
102
}
102
{ACAD_REACTORS
330
6B7
102
}
330
6B7
100
AcDbVisualStyle
  2
Basic
 70
     7
 71
     1
 72
     0
 73
     1
 90
        0
 40
-0.6
 41
-30.0
 62
     5
 63
     7
 74
     0
 91
        4
 64
     7
 65
   257
 75
     1
175
     1
 42
1.0
 92
        8
 66
     7
 43
1.0
 76
     1
 77
     6
 78
     2
 67
     7
 79
     5
170
     0
171
     0
290
     0
174
     0
 93
        1
 44
0.0
173
     0
291
     1
 45
0.0
1001
ACAD
1000
AcDbSavedByObjectVersion
1070
     0
  0
VISUALSTYLE
  5
6C3
102
{ACAD_XDICTIONARY
360
738
102
}
102
{ACAD_REACTORS
330
6B7
102
}
330
6B7
100
AcDbVisualStyle
  2
Brighten
 70
    12
 71
     2
 72
     2
 73
     0
 90
        0
 40
-0.6
 41
-30.0
 62
     5
 63
     7
 74
     1
 91
        4
 64
     7
 65
   257
 75
     1
175
     1
 42
1.0
 92
        8
 66
     7
 43
1.0
 76
     1
 77
     6
 78
     2
 67
     7
 79
     5
170
     0
171
     0
290
     0
174
     0
 93
        1
 44
50.0
173
     0
291
     1
 45
0.0
1001
ACAD
1000
AcDbSavedByObjectVersion
1070
     0
  0
VISUALSTYLE
  5
6C7
102
{ACAD_XDICTIONARY
360
740
102
}
102
{ACAD_REACTORS
330
6B7
102
}
330
6B7
100
AcDbVisualStyle
  2
ColorChange
 70
    16
 71
     2
 72
     2
 73
     3
 90
        0
 40
-0.6
 41
-30.0
 62
     5
 63
     8
 74
     1
 91
        4
 64
     7
 65
   257
 75
     1
175
     1
 42
1.0
 92
        8
 66
     8
 43
1.0
 76
     1
 77
     6
 78
     2
 67
     7
 79
     5
170
     0
171
     0
290
     0
174
     0
 93
        1
 44
0.0
173
     0
291
     1
 45
0.0
1001
ACAD
1000
AcDbSavedByObjectVersion
1070
     0
  0
VISUALSTYLE
  5
6C0
102
{ACAD_XDICTIONARY
360
732
102
}
102
{ACAD_REACTORS
330
6B7
102
}
330
6B7
100
AcDbVisualStyle
  2
Conceptual
 70
     9
 71
     3
 72
     2
 73
     0
 90
        0
 40
-0.6
 41
-30.0
 62
     5
 63
     7
 74
     2
 91
        2
 64
     7
 65
   257
 75
     1
175
     1
 42
179.0
 92
        8
 66
     7
 43
1.0
 76
     1
 77
     6
 78
     2
 67
     7
 79
     3
170
     0
171
     0
290
     0
174
     0
 93
        1
 44
0.0
173
     0
291
     0
 45
0.0
1001
ACAD
1000
AcDbSavedByObjectVersion
1070
     0
  0
VISUALSTYLE
  5
6C2
102
{ACAD_XDICTIONARY
360
736
102
}
102
{ACAD_REACTORS
330
6B7
102
}
330
6B7
100
AcDbVisualStyle
  2
Dim
 70
    11
 71
     2
 72
     2
 73
     0
 90
        0
 40
-0.6
 41
-30.0
 62
     5
 63
     7
 74
     1
 91
        4
 64
     7
 65
   257
 75
     1
175
     1
 42
1.0
 92
        8
 66
     7
 43
1.0
 76
     1
 77
     6
 78
     2
 67
     7
 79
     5
170
     0
171
     0
290
     0
174
     0
 93
        1
 44
-50.0
173
     0
291
     1
 45
0.0
1001
ACAD
1000
AcDbSavedByObjectVersion
1070
     0
  0
VISUALSTYLE
  5
6CF
102
{ACAD_XDICTIONARY
360
750
102
}
102
{ACAD_REACTORS
330
6B7
102
}
330
6B7
100
AcDbVisualStyle
  2
EdgeColorOff
 70
    22
 71
     2
 72
     2
 73
     0
 90
        0
 40
-0.6
 41
-30.0
 62
     5
 63
     7
 74
     1
 91
        4
 64
     7
 65
   257
 75
     1
175
     1
 42
1.0
 92
        8
 66
     7
 43
1.0
 76
     1
 77
     6
 78
     2
 67
     7
 79
     5
170
     0
171
     0
290
     0
174
     0
 93
        1
 44
0.0
173
     0
291
     1
 45
0.0
1001
ACAD
1000
AcDbSavedByObjectVersion
1070
     0
  0
VISUALSTYLE
  5
6C6
102
{ACAD_XDICTIONARY
360
73E
102
}
102
{ACAD_REACTORS
330
6B7
102
}
330
6B7
100
AcDbVisualStyle
  2
Facepattern
 70
    15
 71
     2
 72
     2
 73
     0
 90
        0
 40
-0.6
 41
-30.0
 62
     5
 63
     7
 74
     1
 91
        4
 64
     7
 65
   257
 75
     1
175
     1
 42
1.0
 92
        8
 66
     7
 43
1.0
 76
     1
 77
     6
 78
     2
 67
     7
 79
     5
170
     0
171
     0
290
     0
174
     0
 93
        1
 44
0.0
173
     0
291
     1
 45
0.0
1001
ACAD
1000
AcDbSavedByObjectVersion
1070
     0
  0
VISUALSTYLE
  5
6B8
102
{ACAD_XDICTIONARY
360
722
102
}
102
{ACAD_REACTORS
330
6B7
102
}
330
6B7
100
AcDbVisualStyle
  2
Flat
 70
     0
 71
     2
 72
     1
 73
     1
 90
        2
 40
-0.6
 41
30.0
 62
     5
 63
     7
 74
     0
 91
        0
 64
     7
 65
   257
 75
     1
175
     1
 42
1.0
 92
        8
 66
     7
 43
1.0
 76
     1
 77
     6
 78
     2
 67
     7
 79
     5
170
     0
171
     0
290
     0
174
     0
 93
       13
 44
0.0
173
     0
291
     1
 45
0.0
1001
ACAD
1000
AcDbSavedByObjectVersion
1070
     0
  0
VISUALSTYLE
  5
6B9
102
{ACAD_XDICTIONARY
360
724
102
}
102
{ACAD_REACTORS
330
6B7
102
}
330
6B7
100
AcDbVisualStyle
  2
FlatWithEdges
 70
     1
 71
     2
 72
     1
 73
     1
 90
        2
 40
-0.6
 41
30.0
 62
     5
 63
     7
 74
     1
 91
        0
 64
     7
 65
   257
 75
     1
175
     1
 42
1.0
 92
        0
 66
   257
 43
1.0
 76
     1
 77
     6
 78
     2
 67
     7
 79
     5
170
     0
171
     0
290
     0
174
     0
 93
       13
 44
0.0
173
     0
291
     1
 45
0.0
1001
ACAD
1000
AcDbSavedByObjectVersion
1070
     0
  0
VISUALSTYLE
  5
6BA
102
{ACAD_XDICTIONARY
360
726
102
}
102
{ACAD_REACTORS
330
6B7
102
}
330
6B7
100
AcDbVisualStyle
  2
Gouraud
 70
     2
 71
     2
 72
     2
 73
     1
 90
        2
 40
-0.6
 41
30.0
 62
     5
 63
     7
 74
     0
 91
        0
 64
     7
 65
   257
 75
     1
175
     1
 42
1.0
 92
        0
 66
     7
 43
1.0
 76
     1
 77
     6
 78
     2
 67
     7
 79
     5
170
     0
171
     0
290
     0
174
     0
 93
       13
 44
0.0
173
     0
291
     1
 45
0.0
1001
ACAD
1000
AcDbSavedByObjectVersion
1070
     0
  0
VISUALSTYLE
  5
6BB
102
{ACAD_XDICTIONARY
360
728
102
}
102
{ACAD_REACTORS
330
6B7
102
}
330
6B7
100
AcDbVisualStyle
  2
GouraudWithEdges
 70
     3
 71
     2
 72
     2
 73
     1
 90
        2
 40
-0.6
 41
30.0
 62
     5
 63
     7
 74
     1
 91
        0
 64
     7
 65
   257
 75
     1
175
     1
 42
1.0
 92
        0
 66
   257
 43
1.0
 76
     1
 77
     6
 78
     2
 67
     7
 79
     5
170
     0
171
     0
290
     0
174
     0
 93
       13
 44
0.0
173
     0
291
     1
 45
0.0
1001
ACAD
1000
AcDbSavedByObjectVersion
1070
     0
  0
VISUALSTYLE
  5
6BF
102
{ACAD_XDICTIONARY
360
730
102
}
102
{ACAD_REACTORS
330
6B7
102
}
330
6B7
100
AcDbVisualStyle
  2
Hidden
 70
     6
 71
     1
 72
     2
 73
     2
 90
        0
 40
-0.6
 41
-30.0
 62
     5
 63
     7
 74
     2
 91
        2
 64
     7
 65
   257
 75
     2
175
     1
 42
40.0
 92
        0
 66
   257
 43
1.0
 76
     1
 77
     6
 78
     2
 67
     7
 79
     3
170
     0
171
     0
290
     0
174
     0
 93
        1
 44
0.0
173
     0
291
     0
 45
0.0
1001
ACAD
1000
AcDbSavedByObjectVersion
1070
     0
  0
VISUALSTYLE
  5
6CD
102
{ACAD_XDICTIONARY
360
74C
102
}
102
{ACAD_REACTORS
330
6B7
102
}
330
6B7
100
AcDbVisualStyle
  2
JitterOff
 70
    20
 71
     2
 72
     2
 73
     0
 90
        0
 40
-0.6
 41
-30.0
 62
     5
 63
     7
 74
     1
 91
        4
 64
     7
 65
   257
 75
     1
175
     1
 42
1.0
 92
       10
 66
     7
 43
1.0
 76
     1
 77
     6
 78
     2
 67
     7
 79
     5
170
     0
171
     0
290
     0
174
     0
 93
        1
 44
0.0
173
     0
291
     1
 45
0.0
1001
ACAD
1000
AcDbSavedByObjectVersion
1070
     0
  0
VISUALSTYLE
  5
6C5
102
{ACAD_XDICTIONARY
360
73C
102
}
102
{ACAD_REACTORS
330
6B7
102
}
330
6B7
100
AcDbVisualStyle
  2
Linepattern
 70
    14
 71
     2
 72
     2
 73
     0
 90
        0
 40
-0.6
 41
-30.0
 62
     5
 63
     7
 74
     1
 91
        4
 64
     7
 65
   257
 75
     7
175
     7
 42
1.0
 92
        8
 66
     7
 43
1.0
 76
     1
 77
     6
 78
     2
 67
     7
 79
     5
170
     0
171
     0
290
     0
174
     0
 93
        1
 44
0.0
173
     0
291
     1
 45
0.0
1001
ACAD
1000
AcDbSavedByObjectVersion
1070
     0
  0
VISUALSTYLE
  5
6CE
102
{ACAD_XDICTIONARY
360
74E
102
}
102
{ACAD_REACTORS
330
6B7
102
}
330
6B7
100
AcDbVisualStyle
  2
OverhangOff
 70
    21
 71
     2
 72
     2
 73
     0
 90
        0
 40
-0.6
 41
-30.0
 62
     5
 63
     7
 74
     1
 91
        4
 64
     7
 65
   257
 75
     1
175
     1
 42
1.0
 92
        9
 66
     7
 43
1.0
 76
     1
 77
     6
 78
     2
 67
     7
 79
     5
170
     0
171
     0
290
     0
174
     0
 93
        1
 44
0.0
173
     0
291
     1
 45
0.0
1001
ACAD
1000
AcDbSavedByObjectVersion
1070
     0
  0
VISUALSTYLE
  5
6C1
102
{ACAD_XDICTIONARY
360
734
102
}
102
{ACAD_REACTORS
330
6B7
102
}
330
6B7
100
AcDbVisualStyle
  2
Realistic
 70
     8
 71
     2
 72
     3
 73
     0
 90
        2
 40
-0.6
 41
30.0
 62
     5
 63
     7
 74
     0
 91
        0
 64
     7
 65
   257
 75
     1
175
     1
 42
1.0
 92
        8
 66
   257
 43
1.0
 76
     1
 77
     6
 78
     2
 67
     7
 79
     3
170
     0
171
     0
290
     0
174
     0
 93
       13
 44
0.0
173
     0
291
     0
 45
0.0
1001
ACAD
1000
AcDbSavedByObjectVersion
1070
     0
  0
VISUALSTYLE
  5
6CC
102
{ACAD_XDICTIONARY
360
74A
102
}
102
{ACAD_REACTORS
330
6B7
102
}
330
6B7
100
AcDbVisualStyle
  2
Shaded
 70
    27
 71
     2
 72
     2
 73
     1
 90
        2
 40
-0.6
 41
30.0
 62
     5
 63
     7
 74
     0
 91
        4
 64
     7
 65
   257
 75
     1
175
     1
 42
1.0
 92
        8
 66
   257
 43
1.0
 76
     1
 77
     6
 78
     2
 67
     8
 79
     3
170
     0
171
     0
290
     0
174
     0
 93
        5
 44
0.0
173
     0
291
     0
 45
0.0
1001
ACAD
1000
AcDbSavedByObjectVersion
1070
     0
  0
VISUALSTYLE
  5
6CB
102
{ACAD_XDICTIONARY
360
748
102
}
102
{ACAD_REACTORS
330
6B7
102
}
330
6B7
100
AcDbVisualStyle
  2
Shaded with edges
 70
    26
 71
     2
 72
     2
 73
     1
 90
        2
 40
-0.6
 41
30.0
 62
     5
 63
     7
 74
     1
 91
       10
 64
     7
 65
   257
 75
     2
175
     1
 42
1.0
 92
        8
 66
   257
 43
1.0
 76
     1
 77
     6
 78
     2
 67
     7
 79
     3
170
     0
171
     0
290
     0
174
     0
 93
        5
 44
0.0
173
     0
291
     0
 45
0.0
1001
ACAD
1000
AcDbSavedByObjectVersion
1070
     0
  0
VISUALSTYLE
  5
6C8
102
{ACAD_XDICTIONARY
360
742
102
}
102
{ACAD_REACTORS
330
6B7
102
}
330
6B7
100
AcDbVisualStyle
  2
Shades of Gray
 70
    23
 71
     2
 72
     2
 73
     3
 90
        0
 40
-0.6
 41
-30.0
 62
     5
 63
     7
 74
     2
 91
        2
 64
     7
 65
     7
 75
     1
175
     1
 42
40.0
 92
        8
 66
     7
 43
1.0
 76
     1
 77
     6
 78
     2
 67
     7
 79
     3
170
     0
171
     0
290
     0
174
     0
 93
        1
 44
0.0
173
     0
291
     0
 45
0.0
1001
ACAD
1000
AcDbSavedByObjectVersion
1070
     0
  0
VISUALSTYLE
  5
6C9
102
{ACAD_XDICTIONARY
360
744
102
}
102
{ACAD_REACTORS
330
6B7
102
}
330
6B7
100
AcDbVisualStyle
  2
Sketchy
 70
    24
 71
     1
 72
     2
 73
     2
 90
        0
 40
-0.6
 41
-30.0
 62
     5
 63
     7
 74
     2
 91
        2
 64
     7
 65
     7
 75
     1
175
     1
 42
40.0
 92
       11
 66
     7
 43
1.0
 76
     1
 77
     6
 78
     2
 67
     7
 79
     6
170
     0
171
     0
290
     0
174
     0
 93
        1
 44
0.0
173
     0
291
     0
 45
0.0
1001
ACAD
1000
AcDbSavedByObjectVersion
1070
     0
  0
VISUALSTYLE
  5
6C4
102
{ACAD_XDICTIONARY
360
73A
102
}
102
{ACAD_REACTORS
330
6B7
102
}
330
6B7
100
AcDbVisualStyle
  2
Thicken
 70
    13
 71
     2
 72
     2
 73
     0
 90
        0
 40
-0.6
 41
-30.0
 62
     5
 63
     7
 74
     1
 91
        4
 64
     7
 65
   257
 75
     1
175
     1
 42
1.0
 92
       12
 66
     7
 43
1.0
 76
     1
 77
     6
 78
     2
 67
     7
 79
     5
170
     0
171
     0
290
     0
174
     0
 93
        1
 44
0.0
173
     0
291
     1
 45
0.0
1001
ACAD
1000
AcDbSavedByObjectVersion
1070
     0
  0
VISUALSTYLE
  5
6BE
102
{ACAD_XDICTIONARY
360
72E
102
}
102
{ACAD_REACTORS
330
6B7
102
}
330
6B7
100
AcDbVisualStyle
  2
Wireframe
 70
     5
 71
     0
 72
     2
 73
     0
 90
        0
 40
-0.6
 41
-30.0
 62
     5
 63
     7
 74
     1
 91
        4
 64
     7
 65
   257
 75
     1
175
     1
 42
1.0
 92
        0
 66
   257
 43
1.0
 76
     1
 77
     6
 78
     2
 67
     7
 79
     3
170
     0
171
     0
290
     0
174
     0
 93
        1
 44
0.0
173
     0
291
     0
 45
0.0
1001
ACAD
1000
AcDbSavedByObjectVersion
1070
     0
  0
VISUALSTYLE
  5
6CA
102
{ACAD_XDICTIONARY
360
746
102
}
102
{ACAD_REACTORS
330
6B7
102
}
330
6B7
100
AcDbVisualStyle
  2
X-Ray
 70
    25
 71
     2
 72
     2
 73
     1
 90
        1
 40
0.5
 41
-30.0
 62
     5
 63
     7
 74
     1
 91
        0
 64
     7
 65
   257
 75
     1
175
     1
 42
1.0
 92
        8
 66
     7
 43
1.0
 76
     1
 77
     6
 78
     2
 67
     7
 79
     3
170
     0
171
     0
290
     0
174
     0
 93
       13
 44
0.0
173
     0
291
     0
 45
0.0
1001
ACAD
1000
AcDbSavedByObjectVersion
1070
     0
  0
DICTIONARYVAR
  5
709
102
{ACAD_REACTORS
330
8A
102
}
330
8A
100
DictionaryVariables
280
     0
  1
1:1
  0
DICTIONARYVAR
  5
708
102
{ACAD_REACTORS
330
8A
102
}
330
8A
100
DictionaryVariables
280
     0
  1
STANDARD
  0
DICTIONARYVAR
  5
707
102
{ACAD_REACTORS
330
8A
102
}
330
8A
100
DictionaryVariables
280
     0
  1
STANDARD
  0
DICTIONARYVAR
  5
8B
102
{ACAD_REACTORS
330
8A
102
}
330
8A
100
DictionaryVariables
280
     0
  1
2
  0
DICTIONARYVAR
  5
97
102
{ACAD_REACTORS
330
8A
102
}
330
8A
100
DictionaryVariables
280
     0
  1
1
  0
DICTIONARYVAR
  5
70B
102
{ACAD_REACTORS
330
8A
102
}
330
8A
100
DictionaryVariables
280
     0
  1
0
  0
DICTIONARYVAR
  5
69D
102
{ACAD_REACTORS
330
8A
102
}
330
8A
100
DictionaryVariables
280
     0
  1

  0
DICTIONARYVAR
  5
70A
102
{ACAD_REACTORS
330
8A
102
}
330
8A
100
DictionaryVariables
280
     0
  1
127
  0
DICTIONARYVAR
  5
70C
102
{ACAD_REACTORS
330
8A
102
}
330
8A
100
DictionaryVariables
280
     0
  1
2
  0
DICTIONARY
  5
711
330
22
100
AcDbDictionary
280
     1
281
     1
  3
ACAD_XREC_ROUNDTRIP
360
712
  0
DICTIONARY
  5
713
330
7D
100
AcDbDictionary
280
     1
281
     1
  3
ACAD_XREC_ROUNDTRIP
360
714
  0
DICTIONARY
  5
715
330
82
100
AcDbDictionary
280
     1
281
     1
  3
ACAD_XREC_ROUNDTRIP
360
716
  0
DICTIONARY
  5
6A8
330
6A7
100
AcDbDictionary
280
     1
281
     1
  3
ACAD_XREC_ROUNDTRIP
360
720
  3
BUMPTILE
360
6AA
  3
DIFFUSETILE
360
6A9
  3
OPACITYTILE
360
6AD
  3
REFLECTIONTILE
360
6AC
  3
REFRACTIONTILE
360
6AE
  3
SPECULARTILE
360
6AB
  0
DICTIONARY
  5
6A0
330
69F
100
AcDbDictionary
280
     1
281
     1
  3
ACAD_XREC_ROUNDTRIP
360
71F
  3
BUMPTILE
360
6A2
  3
DIFFUSETILE
360
6A1
  3
OPACITYTILE
360
6A5
  3
REFLECTIONTILE
360
6A4
  3
REFRACTIONTILE
360
6A6
  3
SPECULARTILE
360
6A3
  0
DICTIONARY
  5
6B0
330
6AF
100
AcDbDictionary
280
     1
281
     1
  3
ACAD_XREC_ROUNDTRIP
360
721
  3
BUMPTILE
360
6B2
  3
DIFFUSETILE
360
6B1
  3
OPACITYTILE
360
6B5
  3
REFLECTIONTILE
360
6B4
  3
REFRACTIONTILE
360
6B6
  3
SPECULARTILE
360
6B3
  0
DICTIONARY
  5
70D
330
6D1
100
AcDbDictionary
280
     1
281
     1
  3
ACAD_ROUNDTRIP_2008_TABLESTYLE_CELLSTYLEMAP
360
70E
  3
ACAD_XREC_ROUNDTRIP
360
752
  0
DICTIONARY
  5
72C
330
6BD
100
AcDbDictionary
280
     1
281
     1
  3
ACAD_XREC_ROUNDTRIP
360
72D
  0
DICTIONARY
  5
72A
330
6BC
100
AcDbDictionary
280
     1
281
     1
  3
ACAD_XREC_ROUNDTRIP
360
72B
  0
DICTIONARY
  5
738
330
6C3
100
AcDbDictionary
280
     1
281
     1
  3
ACAD_XREC_ROUNDTRIP
360
739
  0
DICTIONARY
  5
740
330
6C7
100
AcDbDictionary
280
     1
281
     1
  3
ACAD_XREC_ROUNDTRIP
360
741
  0
DICTIONARY
  5
732
330
6C0
100
AcDbDictionary
280
     1
281
     1
  3
ACAD_XREC_ROUNDTRIP
360
733
  0
DICTIONARY
  5
736
330
6C2
100
AcDbDictionary
280
     1
281
     1
  3
ACAD_XREC_ROUNDTRIP
360
737
  0
DICTIONARY
  5
750
330
6CF
100
AcDbDictionary
280
     1
281
     1
  3
ACAD_XREC_ROUNDTRIP
360
751
  0
DICTIONARY
  5
73E
330
6C6
100
AcDbDictionary
280
     1
281
     1
  3
ACAD_XREC_ROUNDTRIP
360
73F
  0
DICTIONARY
  5
722
330
6B8
100
AcDbDictionary
280
     1
281
     1
  3
ACAD_XREC_ROUNDTRIP
360
723
  0
DICTIONARY
  5
724
330
6B9
100
AcDbDictionary
280
     1
281
     1
  3
ACAD_XREC_ROUNDTRIP
360
725
  0
DICTIONARY
  5
726
330
6BA
100
AcDbDictionary
280
     1
281
     1
  3
ACAD_XREC_ROUNDTRIP
360
727
  0
DICTIONARY
  5
728
330
6BB
100
AcDbDictionary
280
     1
281
     1
  3
ACAD_XREC_ROUNDTRIP
360
729
  0
DICTIONARY
  5
730
330
6BF
100
AcDbDictionary
280
     1
281
     1
  3
ACAD_XREC_ROUNDTRIP
360
731
  0
DICTIONARY
  5
74C
330
6CD
100
AcDbDictionary
280
     1
281
     1
  3
ACAD_XREC_ROUNDTRIP
360
74D
  0
DICTIONARY
  5
73C
330
6C5
100
AcDbDictionary
280
     1
281
     1
  3
ACAD_XREC_ROUNDTRIP
360
73D
  0
DICTIONARY
  5
74E
330
6CE
100
AcDbDictionary
280
     1
281
     1
  3
ACAD_XREC_ROUNDTRIP
360
74F
  0
DICTIONARY
  5
734
330
6C1
100
AcDbDictionary
280
     1
281
     1
  3
ACAD_XREC_ROUNDTRIP
360
735
  0
DICTIONARY
  5
74A
330
6CC
100
AcDbDictionary
280
     1
281
     1
  3
ACAD_XREC_ROUNDTRIP
360
74B
  0
DICTIONARY
  5
748
330
6CB
100
AcDbDictionary
280
     1
281
     1
  3
ACAD_XREC_ROUNDTRIP
360
749
  0
DICTIONARY
  5
742
330
6C8
100
AcDbDictionary
280
     1
281
     1
  3
ACAD_XREC_ROUNDTRIP
360
743
  0
DICTIONARY
  5
744
330
6C9
100
AcDbDictionary
280
     1
281
     1
  3
ACAD_XREC_ROUNDTRIP
360
745
  0
DICTIONARY
  5
73A
330
6C4
100
AcDbDictionary
280
     1
281
     1
  3
ACAD_XREC_ROUNDTRIP
360
73B
  0
DICTIONARY
  5
72E
330
6BE
100
AcDbDictionary
280
     1
281
     1
  3
ACAD_XREC_ROUNDTRIP
360
72F
  0
DICTIONARY
  5
746
330
6CA
100
AcDbDictionary
280
     1
281
     1
  3
ACAD_XREC_ROUNDTRIP
360
747
  0
XRECORD
  5
712
102
{ACAD_REACTORS
330
711
102
}
330
711
100
AcDbXrecord
280
     1
102
SHADEPLOT
 70
     0
102
SHADEPLOTRESLEVEL
 70
     2
102
SHADEPLOTCUSTOMDPI
 70
   300
  0
XRECORD
  5
714
102
{ACAD_REACTORS
330
713
102
}
330
713
100
AcDbXrecord
280
     1
102
SHADEPLOT
 70
     0
102
SHADEPLOTRESLEVEL
 70
     2
102
SHADEPLOTCUSTOMDPI
 70
   300
  0
XRECORD
  5
716
102
{ACAD_REACTORS
330
715
102
}
330
715
100
AcDbXrecord
280
     1
102
SHADEPLOT
 70
     0
102
SHADEPLOTRESLEVEL
 70
     2
102
SHADEPLOTCUSTOMDPI
 70
   300
  0
XRECORD
  5
720
102
{ACAD_REACTORS
330
6A8
102
}
330
6A8
100
AcDbXrecord
280
     1
102
MATERIAL
148
0.0
149
0.0
149
0.0
 93
        0
 94
      127
282
     0
 72
     0
 77
     0
171
     0
175
     0
179
     0
273
     0
  0
XRECORD
  5
6AA
102
{ACAD_REACTORS
330
6A8
102
}
330
6A8
100
AcDbXrecord
280
     1
270
     1
271
     1
  0
XRECORD
  5
6A9
102
{ACAD_REACTORS
330
6A8
102
}
330
6A8
100
AcDbXrecord
280
     1
270
     1
271
     1
  0
XRECORD
  5
6AD
102
{ACAD_REACTORS
330
6A8
102
}
330
6A8
100
AcDbXrecord
280
     1
270
     1
271
     1
  0
XRECORD
  5
6AC
102
{ACAD_REACTORS
330
6A8
102
}
330
6A8
100
AcDbXrecord
280
     1
270
     1
271
     1
  0
XRECORD
  5
6AE
102
{ACAD_REACTORS
330
6A8
102
}
330
6A8
100
AcDbXrecord
280
     1
270
     1
271
     1
  0
XRECORD
  5
6AB
102
{ACAD_REACTORS
330
6A8
102
}
330
6A8
100
AcDbXrecord
280
     1
270
     1
271
     1
  0
XRECORD
  5
71F
102
{ACAD_REACTORS
330
6A0
102
}
330
6A0
100
AcDbXrecord
280
     1
102
MATERIAL
148
0.0
149
0.0
149
0.0
 93
        0
 94
      127
282
     0
 72
     0
 77
     0
171
     0
175
     0
179
     0
273
     0
  0
XRECORD
  5
6A2
102
{ACAD_REACTORS
330
6A0
102
}
330
6A0
100
AcDbXrecord
280
     1
270
     1
271
     1
  0
XRECORD
  5
6A1
102
{ACAD_REACTORS
330
6A0
102
}
330
6A0
100
AcDbXrecord
280
     1
270
     1
271
     1
  0
XRECORD
  5
6A5
102
{ACAD_REACTORS
330
6A0
102
}
330
6A0
100
AcDbXrecord
280
     1
270
     1
271
     1
  0
XRECORD
  5
6A4
102
{ACAD_REACTORS
330
6A0
102
}
330
6A0
100
AcDbXrecord
280
     1
270
     1
271
     1
  0
XRECORD
  5
6A6
102
{ACAD_REACTORS
330
6A0
102
}
330
6A0
100
AcDbXrecord
280
     1
270
     1
271
     1
  0
XRECORD
  5
6A3
102
{ACAD_REACTORS
330
6A0
102
}
330
6A0
100
AcDbXrecord
280
     1
270
     1
271
     1
  0
XRECORD
  5
721
102
{ACAD_REACTORS
330
6B0
102
}
330
6B0
100
AcDbXrecord
280
     1
102
MATERIAL
148
0.0
149
0.0
149
0.0
 93
        0
 94
      127
282
     0
 72
     0
 77
     0
171
     0
175
     0
179
     0
273
     0
  0
XRECORD
  5
6B2
102
{ACAD_REACTORS
330
6B0
102
}
330
6B0
100
AcDbXrecord
280
     1
270
     1
271
     1
  0
XRECORD
  5
6B1
102
{ACAD_REACTORS
330
6B0
102
}
330
6B0
100
AcDbXrecord
280
     1
270
     1
271
     1
  0
XRECORD
  5
6B5
102
{ACAD_REACTORS
330
6B0
102
}
330
6B0
100
AcDbXrecord
280
     1
270
     1
271
     1
  0
XRECORD
  5
6B4
102
{ACAD_REACTORS
330
6B0
102
}
330
6B0
100
AcDbXrecord
280
     1
270
     1
271
     1
  0
XRECORD
  5
6B6
102
{ACAD_REACTORS
330
6B0
102
}
330
6B0
100
AcDbXrecord
280
     1
270
     1
271
     1
  0
XRECORD
  5
6B3
102
{ACAD_REACTORS
330
6B0
102
}
330
6B0
100
AcDbXrecord
280
     1
270
     1
271
     1
  0
CELLSTYLEMAP
  5
70E
102
{ACAD_REACTORS
330
70D
102
}
330
70D
100
AcDbCellStyleMap
 90
        3
300
CELLSTYLE
  1
TABLEFORMAT_BEGIN
 90
        5
170
     1
 91
        0
 92
    32768
 62
   257
 93
        1
300
CONTENTFORMAT
  1
CONTENTFORMAT_BEGIN
 90
        0
 91
        0
 92
      512
 93
        0
300

 40
0.0
140
1.0
 94
        5
 62
     0
340
11
144
0.25
309
CONTENTFORMAT_END
171
     0
 94
        0
309
TABLEFORMAT_END
  1
CELLSTYLE_BEGIN
 90
        1
 91
        1
300
_TITLE
309
CELLSTYLE_END
300
CELLSTYLE
  1
TABLEFORMAT_BEGIN
 90
        5
170
     1
 91
        0
 92
        0
 62
   257
 93
        1
300
CONTENTFORMAT
  1
CONTENTFORMAT_BEGIN
 90
        0
 91
        0
 92
      512
 93
        0
300

 40
0.0
140
1.0
 94
        5
 62
     0
340
11
144
0.18
309
CONTENTFORMAT_END
171
     0
 94
        0
309
TABLEFORMAT_END
  1
CELLSTYLE_BEGIN
 90
        2
 91
        1
300
_HEADER
309
CELLSTYLE_END
300
CELLSTYLE
  1
TABLEFORMAT_BEGIN
 90
        5
170
     1
 91
        0
 92
        0
 62
   257
 93
        1
300
CONTENTFORMAT
  1
CONTENTFORMAT_BEGIN
 90
        0
 91
        0
 92
      512
 93
        0
300

 40
0.0
140
1.0
 94
        2
 62
     0
340
11
144
0.18
309
CONTENTFORMAT_END
171
     0
 94
        0
309
TABLEFORMAT_END
  1
CELLSTYLE_BEGIN
 90
        3
 91
        2
300
_DATA
309
CELLSTYLE_END
  0
XRECORD
  5
752
102
{ACAD_REACTORS
330
70D
102
}
330
70D
100
AcDbXrecord
280
     1
102
ACAD_ROUNDTRIP_PRE2007_TABLESTYLE
 90
      512
 91
        0
  1

 92
      512
 93
        0
  2

 94
      512
 95
        0
  3

  0
XRECORD
  5
72D
102
{ACAD_REACTORS
330
72C
102
}
330
72C
100
AcDbXrecord
280
     1
102
RTVSPropertyOp0
 70
     1
102
RTVSPropertyOp1
 70
     1
102
RTVSPropertyOp2
 70
     1
102
RTVSPropertyOp3
 70
     1
102
RTVSPropertyOp4
 70
     1
102
RTVSPropertyOp5
 70
     1
102
RTVSPropertyOp6
 70
     1
102
RTVSPropertyOp7
 70
     1
102
RTVSPropertyOp8
 70
     1
102
RTVSPropertyOp9
 70
     1
102
RTVSPropertyOp10
 70
     1
102
RTVSPropertyOp11
 70
     1
102
RTVSPropertyOp12
 70
     1
102
RTVSPropertyOp13
 70
     1
102
RTVSPropertyOp14
 70
     1
102
RTVSPropertyOp15
 70
     1
102
RTVSPropertyOp16
 70
     1
102
RTVSPropertyOp17
 70
     1
102
RTVSPropertyOp18
 70
     1
102
RTVSPropertyOp19
 70
     1
102
RTVSPropertyOp20
 70
     1
102
RTVSPropertyOp21
 70
     1
102
RTVSPropertyOp22
 70
     1
102
RTVSPropertyOp23
 70
     1
102
RTVSPropertyOp24
 70
     1
102
RTVSPropertyOp25
 70
     1
102
RTVSPropertyOp26
 70
     1
102
RTVSPropertyOp27
 70
     1
102
RTVSPropertyOp28
 70
     1
102
RTVSPropertyOp29
 70
     1
102
RTVSPropertyOp30
 70
     1
102
RTVSPropertyOp31
 70
     1
102
RTVSPropertyOp32
 70
     1
  0
XRECORD
  5
72B
102
{ACAD_REACTORS
330
72A
102
}
330
72A
100
AcDbXrecord
280
     1
102
RTVSPropertyOp0
 70
     1
102
RTVSPropertyOp1
 70
     1
102
RTVSPropertyOp2
 70
     1
102
RTVSPropertyOp3
 70
     1
102
RTVSPropertyOp4
 70
     1
102
RTVSPropertyOp5
 70
     1
102
RTVSPropertyOp6
 70
     1
102
RTVSPropertyOp7
 70
     1
102
RTVSPropertyOp8
 70
     1
102
RTVSPropertyOp9
 70
     1
102
RTVSPropertyOp10
 70
     1
102
RTVSPropertyOp11
 70
     1
102
RTVSPropertyOp12
 70
     1
102
RTVSPropertyOp13
 70
     1
102
RTVSPropertyOp14
 70
     1
102
RTVSPropertyOp15
 70
     1
102
RTVSPropertyOp16
 70
     1
102
RTVSPropertyOp17
 70
     1
102
RTVSPropertyOp18
 70
     1
102
RTVSPropertyOp19
 70
     1
102
RTVSPropertyOp20
 70
     1
102
RTVSPropertyOp21
 70
     1
102
RTVSPropertyOp22
 70
     1
102
RTVSPropertyOp23
 70
     1
102
RTVSPropertyOp24
 70
     1
102
RTVSPropertyOp25
 70
     1
102
RTVSPropertyOp26
 70
     1
102
RTVSPropertyOp27
 70
     1
102
RTVSPropertyOp28
 70
     1
102
RTVSPropertyOp29
 70
     1
102
RTVSPropertyOp30
 70
     1
102
RTVSPropertyOp31
 70
     1
102
RTVSPropertyOp32
 70
     1
  0
XRECORD
  5
739
102
{ACAD_REACTORS
330
738
102
}
330
738
100
AcDbXrecord
280
     1
102
RTVSPropertyOp0
 70
     1
102
RTVSPropertyOp1
 70
     1
102
RTVSPropertyOp2
 70
     1
102
RTVSPropertyOp3
 70
     1
102
RTVSPropertyOp4
 70
     1
102
RTVSPropertyOp5
 70
     1
102
RTVSPropertyOp6
 70
     1
102
RTVSPropertyOp7
 70
     1
102
RTVSPropertyOp8
 70
     1
102
RTVSPropertyOp9
 70
     1
102
RTVSPropertyOp10
 70
     1
102
RTVSPropertyOp11
 70
     1
102
RTVSPropertyOp12
 70
     1
102
RTVSPropertyOp13
 70
     1
102
RTVSPropertyOp14
 70
     1
102
RTVSPropertyOp15
 70
     1
102
RTVSPropertyOp16
 70
     1
102
RTVSPropertyOp17
 70
     1
102
RTVSPropertyOp18
 70
     1
102
RTVSPropertyOp19
 70
     1
102
RTVSPropertyOp20
 70
     1
102
RTVSPropertyOp21
 70
     1
102
RTVSPropertyOp22
 70
     1
102
RTVSPropertyOp23
 70
     1
102
RTVSPropertyOp24
 70
     1
102
RTVSPropertyOp25
 70
     1
102
RTVSPropertyOp26
 70
     1
102
RTVSPropertyOp27
 70
     1
102
RTVSPropertyOp28
 70
     1
102
RTVSPropertyOp29
 70
     1
102
RTVSPropertyOp30
 70
     1
102
RTVSPropertyOp31
 70
     1
102
RTVSPropertyOp32
 70
     1
  0
XRECORD
  5
741
102
{ACAD_REACTORS
330
740
102
}
330
740
100
AcDbXrecord
280
     1
102
RTVSPropertyOp0
 70
     1
102
RTVSPropertyOp1
 70
     1
102
RTVSPropertyOp2
 70
     1
102
RTVSPropertyOp3
 70
     1
102
RTVSPropertyOp4
 70
     1
102
RTVSPropertyOp5
 70
     1
102
RTVSPropertyOp6
 70
     1
102
RTVSPropertyOp7
 70
     1
102
RTVSPropertyOp8
 70
     1
102
RTVSPropertyOp9
 70
     1
102
RTVSPropertyOp10
 70
     1
102
RTVSPropertyOp11
 70
     1
102
RTVSPropertyOp12
 70
     1
102
RTVSPropertyOp13
 70
     1
102
RTVSPropertyOp14
 70
     1
102
RTVSPropertyOp15
 70
     1
102
RTVSPropertyOp16
 70
     1
102
RTVSPropertyOp17
 70
     1
102
RTVSPropertyOp18
 70
     1
102
RTVSPropertyOp19
 70
     1
102
RTVSPropertyOp20
 70
     1
102
RTVSPropertyOp21
 70
     1
102
RTVSPropertyOp22
 70
     1
102
RTVSPropertyOp23
 70
     1
102
RTVSPropertyOp24
 70
     1
102
RTVSPropertyOp25
 70
     1
102
RTVSPropertyOp26
 70
     1
102
RTVSPropertyOp27
 70
     1
102
RTVSPropertyOp28
 70
     1
102
RTVSPropertyOp29
 70
     1
102
RTVSPropertyOp30
 70
     1
102
RTVSPropertyOp31
 70
     1
102
RTVSPropertyOp32
 70
     1
  0
XRECORD
  5
733
102
{ACAD_REACTORS
330
732
102
}
330
732
100
AcDbXrecord
280
     1
102
RTVSPropertyOp0
 70
     1
102
RTVSPropertyOp1
 70
     1
102
RTVSPropertyOp2
 70
     1
102
RTVSPropertyOp3
 70
     1
102
RTVSPropertyOp4
 70
     1
102
RTVSPropertyOp5
 70
     1
102
RTVSPropertyOp6
 70
     1
102
RTVSPropertyOp7
 70
     1
102
RTVSPropertyOp8
 70
     1
102
RTVSPropertyOp9
 70
     1
102
RTVSPropertyOp10
 70
     1
102
RTVSPropertyOp11
 70
     1
102
RTVSPropertyOp12
 70
     1
102
RTVSPropertyOp13
 70
     1
102
RTVSPropertyOp14
 70
     1
102
RTVSPropertyOp15
 70
     1
102
RTVSPropertyOp16
 70
     1
102
RTVSPropertyOp17
 70
     1
102
RTVSPropertyOp18
 70
     1
102
RTVSPropertyOp19
 70
     1
102
RTVSPropertyOp20
 70
     1
102
RTVSPropertyOp21
 70
     1
102
RTVSPropertyOp22
 70
     1
102
RTVSPropertyOp23
 70
     1
102
RTVSPropertyOp24
 70
     1
102
RTVSPropertyOp25
 70
     1
102
RTVSPropertyOp26
 70
     1
102
RTVSPropertyOp27
 70
     1
102
RTVSPropertyOp28
 70
     1
102
RTVSPropertyOp29
 70
     1
102
RTVSPropertyOp30
 70
     1
102
RTVSPropertyOp31
 70
     1
102
RTVSPropertyOp32
 70
     1
  0
XRECORD
  5
737
102
{ACAD_REACTORS
330
736
102
}
330
736
100
AcDbXrecord
280
     1
102
RTVSPropertyOp0
 70
     1
102
RTVSPropertyOp1
 70
     1
102
RTVSPropertyOp2
 70
     1
102
RTVSPropertyOp3
 70
     1
102
RTVSPropertyOp4
 70
     1
102
RTVSPropertyOp5
 70
     1
102
RTVSPropertyOp6
 70
     1
102
RTVSPropertyOp7
 70
     1
102
RTVSPropertyOp8
 70
     1
102
RTVSPropertyOp9
 70
     1
102
RTVSPropertyOp10
 70
     1
102
RTVSPropertyOp11
 70
     1
102
RTVSPropertyOp12
 70
     1
102
RTVSPropertyOp13
 70
     1
102
RTVSPropertyOp14
 70
     1
102
RTVSPropertyOp15
 70
     1
102
RTVSPropertyOp16
 70
     1
102
RTVSPropertyOp17
 70
     1
102
RTVSPropertyOp18
 70
     1
102
RTVSPropertyOp19
 70
     1
102
RTVSPropertyOp20
 70
     1
102
RTVSPropertyOp21
 70
     1
102
RTVSPropertyOp22
 70
     1
102
RTVSPropertyOp23
 70
     1
102
RTVSPropertyOp24
 70
     1
102
RTVSPropertyOp25
 70
     1
102
RTVSPropertyOp26
 70
     1
102
RTVSPropertyOp27
 70
     1
102
RTVSPropertyOp28
 70
     1
102
RTVSPropertyOp29
 70
     1
102
RTVSPropertyOp30
 70
     1
102
RTVSPropertyOp31
 70
     1
102
RTVSPropertyOp32
 70
     1
  0
XRECORD
  5
751
102
{ACAD_REACTORS
330
750
102
}
330
750
100
AcDbXrecord
280
     1
102
RTVSPropertyOp0
 70
     0
102
RTVSPropertyOp1
 70
     0
102
RTVSPropertyOp2
 70
     0
102
RTVSPropertyOp3
 70
     0
102
RTVSPropertyOp4
 70
     0
102
RTVSPropertyOp5
 70
     0
102
RTVSPropertyOp6
 70
     0
102
RTVSPropertyOp7
 70
     0
102
RTVSPropertyOp8
 70
     0
102
RTVSPropertyOp9
 70
     0
102
RTVSPropertyOp10
 70
     0
102
RTVSPropertyOp11
 70
     0
102
RTVSPropertyOp12
 70
     0
102
RTVSPropertyOp13
 70
     0
102
RTVSPropertyOp14
 70
     2
102
RTVSPropertyOp15
 70
     0
102
RTVSPropertyOp16
 70
     0
102
RTVSPropertyOp17
 70
     0
102
RTVSPropertyOp18
 70
     0
102
RTVSPropertyOp19
 70
     0
102
RTVSPropertyOp20
 70
     0
102
RTVSPropertyOp21
 70
     0
102
RTVSPropertyOp22
 70
     0
102
RTVSPropertyOp23
 70
     0
102
RTVSPropertyOp24
 70
     0
102
RTVSPropertyOp25
 70
     0
102
RTVSPropertyOp26
 70
     0
102
RTVSPropertyOp27
 70
     0
102
RTVSPropertyOp28
 70
     0
102
RTVSPropertyOp29
 70
     0
102
RTVSPropertyOp30
 70
     0
102
RTVSPropertyOp31
 70
     0
102
RTVSPropertyOp32
 70
     0
  0
XRECORD
  5
73F
102
{ACAD_REACTORS
330
73E
102
}
330
73E
100
AcDbXrecord
280
     1
102
RTVSPropertyOp0
 70
     1
102
RTVSPropertyOp1
 70
     1
102
RTVSPropertyOp2
 70
     1
102
RTVSPropertyOp3
 70
     1
102
RTVSPropertyOp4
 70
     1
102
RTVSPropertyOp5
 70
     1
102
RTVSPropertyOp6
 70
     1
102
RTVSPropertyOp7
 70
     1
102
RTVSPropertyOp8
 70
     1
102
RTVSPropertyOp9
 70
     1
102
RTVSPropertyOp10
 70
     1
102
RTVSPropertyOp11
 70
     1
102
RTVSPropertyOp12
 70
     1
102
RTVSPropertyOp13
 70
     1
102
RTVSPropertyOp14
 70
     1
102
RTVSPropertyOp15
 70
     1
102
RTVSPropertyOp16
 70
     1
102
RTVSPropertyOp17
 70
     1
102
RTVSPropertyOp18
 70
     1
102
RTVSPropertyOp19
 70
     1
102
RTVSPropertyOp20
 70
     1
102
RTVSPropertyOp21
 70
     1
102
RTVSPropertyOp22
 70
     1
102
RTVSPropertyOp23
 70
     1
102
RTVSPropertyOp24
 70
     1
102
RTVSPropertyOp25
 70
     1
102
RTVSPropertyOp26
 70
     1
102
RTVSPropertyOp27
 70
     1
102
RTVSPropertyOp28
 70
     1
102
RTVSPropertyOp29
 70
     1
102
RTVSPropertyOp30
 70
     1
102
RTVSPropertyOp31
 70
     1
102
RTVSPropertyOp32
 70
     1
  0
XRECORD
  5
723
102
{ACAD_REACTORS
330
722
102
}
330
722
100
AcDbXrecord
280
     1
102
RTVSPropertyOp0
 70
     1
102
RTVSPropertyOp1
 70
     1
102
RTVSPropertyOp2
 70
     1
102
RTVSPropertyOp3
 70
     1
102
RTVSPropertyOp4
 70
     1
102
RTVSPropertyOp5
 70
     1
102
RTVSPropertyOp6
 70
     1
102
RTVSPropertyOp7
 70
     1
102
RTVSPropertyOp8
 70
     1
102
RTVSPropertyOp9
 70
     1
102
RTVSPropertyOp10
 70
     1
102
RTVSPropertyOp11
 70
     1
102
RTVSPropertyOp12
 70
     1
102
RTVSPropertyOp13
 70
     1
102
RTVSPropertyOp14
 70
     1
102
RTVSPropertyOp15
 70
     1
102
RTVSPropertyOp16
 70
     1
102
RTVSPropertyOp17
 70
     1
102
RTVSPropertyOp18
 70
     1
102
RTVSPropertyOp19
 70
     1
102
RTVSPropertyOp20
 70
     1
102
RTVSPropertyOp21
 70
     1
102
RTVSPropertyOp22
 70
     1
102
RTVSPropertyOp23
 70
     1
102
RTVSPropertyOp24
 70
     1
102
RTVSPropertyOp25
 70
     1
102
RTVSPropertyOp26
 70
     1
102
RTVSPropertyOp27
 70
     1
102
RTVSPropertyOp28
 70
     1
102
RTVSPropertyOp29
 70
     1
102
RTVSPropertyOp30
 70
     1
102
RTVSPropertyOp31
 70
     1
102
RTVSPropertyOp32
 70
     1
  0
XRECORD
  5
725
102
{ACAD_REACTORS
330
724
102
}
330
724
100
AcDbXrecord
280
     1
102
RTVSPropertyOp0
 70
     1
102
RTVSPropertyOp1
 70
     1
102
RTVSPropertyOp2
 70
     1
102
RTVSPropertyOp3
 70
     1
102
RTVSPropertyOp4
 70
     1
102
RTVSPropertyOp5
 70
     1
102
RTVSPropertyOp6
 70
     1
102
RTVSPropertyOp7
 70
     1
102
RTVSPropertyOp8
 70
     1
102
RTVSPropertyOp9
 70
     1
102
RTVSPropertyOp10
 70
     1
102
RTVSPropertyOp11
 70
     1
102
RTVSPropertyOp12
 70
     1
102
RTVSPropertyOp13
 70
     1
102
RTVSPropertyOp14
 70
     1
102
RTVSPropertyOp15
 70
     1
102
RTVSPropertyOp16
 70
     1
102
RTVSPropertyOp17
 70
     1
102
RTVSPropertyOp18
 70
     1
102
RTVSPropertyOp19
 70
     1
102
RTVSPropertyOp20
 70
     1
102
RTVSPropertyOp21
 70
     1
102
RTVSPropertyOp22
 70
     1
102
RTVSPropertyOp23
 70
     1
102
RTVSPropertyOp24
 70
     1
102
RTVSPropertyOp25
 70
     1
102
RTVSPropertyOp26
 70
     1
102
RTVSPropertyOp27
 70
     1
102
RTVSPropertyOp28
 70
     1
102
RTVSPropertyOp29
 70
     1
102
RTVSPropertyOp30
 70
     1
102
RTVSPropertyOp31
 70
     1
102
RTVSPropertyOp32
 70
     1
  0
XRECORD
  5
727
102
{ACAD_REACTORS
330
726
102
}
330
726
100
AcDbXrecord
280
     1
102
RTVSPropertyOp0
 70
     1
102
RTVSPropertyOp1
 70
     1
102
RTVSPropertyOp2
 70
     1
102
RTVSPropertyOp3
 70
     1
102
RTVSPropertyOp4
 70
     1
102
RTVSPropertyOp5
 70
     1
102
RTVSPropertyOp6
 70
     1
102
RTVSPropertyOp7
 70
     1
102
RTVSPropertyOp8
 70
     1
102
RTVSPropertyOp9
 70
     1
102
RTVSPropertyOp10
 70
     1
102
RTVSPropertyOp11
 70
     1
102
RTVSPropertyOp12
 70
     1
102
RTVSPropertyOp13
 70
     1
102
RTVSPropertyOp14
 70
     1
102
RTVSPropertyOp15
 70
     1
102
RTVSPropertyOp16
 70
     1
102
RTVSPropertyOp17
 70
     1
102
RTVSPropertyOp18
 70
     1
102
RTVSPropertyOp19
 70
     1
102
RTVSPropertyOp20
 70
     1
102
RTVSPropertyOp21
 70
     1
102
RTVSPropertyOp22
 70
     1
102
RTVSPropertyOp23
 70
     1
102
RTVSPropertyOp24
 70
     1
102
RTVSPropertyOp25
 70
     1
102
RTVSPropertyOp26
 70
     1
102
RTVSPropertyOp27
 70
     1
102
RTVSPropertyOp28
 70
     1
102
RTVSPropertyOp29
 70
     1
102
RTVSPropertyOp30
 70
     1
102
RTVSPropertyOp31
 70
     1
102
RTVSPropertyOp32
 70
     1
  0
XRECORD
  5
729
102
{ACAD_REACTORS
330
728
102
}
330
728
100
AcDbXrecord
280
     1
102
RTVSPropertyOp0
 70
     1
102
RTVSPropertyOp1
 70
     1
102
RTVSPropertyOp2
 70
     1
102
RTVSPropertyOp3
 70
     1
102
RTVSPropertyOp4
 70
     1
102
RTVSPropertyOp5
 70
     1
102
RTVSPropertyOp6
 70
     1
102
RTVSPropertyOp7
 70
     1
102
RTVSPropertyOp8
 70
     1
102
RTVSPropertyOp9
 70
     1
102
RTVSPropertyOp10
 70
     1
102
RTVSPropertyOp11
 70
     1
102
RTVSPropertyOp12
 70
     1
102
RTVSPropertyOp13
 70
     1
102
RTVSPropertyOp14
 70
     1
102
RTVSPropertyOp15
 70
     1
102
RTVSPropertyOp16
 70
     1
102
RTVSPropertyOp17
 70
     1
102
RTVSPropertyOp18
 70
     1
102
RTVSPropertyOp19
 70
     1
102
RTVSPropertyOp20
 70
     1
102
RTVSPropertyOp21
 70
     1
102
RTVSPropertyOp22
 70
     1
102
RTVSPropertyOp23
 70
     1
102
RTVSPropertyOp24
 70
     1
102
RTVSPropertyOp25
 70
     1
102
RTVSPropertyOp26
 70
     1
102
RTVSPropertyOp27
 70
     1
102
RTVSPropertyOp28
 70
     1
102
RTVSPropertyOp29
 70
     1
102
RTVSPropertyOp30
 70
     1
102
RTVSPropertyOp31
 70
     1
102
RTVSPropertyOp32
 70
     1
  0
XRECORD
  5
731
102
{ACAD_REACTORS
330
730
102
}
330
730
100
AcDbXrecord
280
     1
102
RTVSPropertyOp0
 70
     1
102
RTVSPropertyOp1
 70
     1
102
RTVSPropertyOp2
 70
     1
102
RTVSPropertyOp3
 70
     1
102
RTVSPropertyOp4
 70
     1
102
RTVSPropertyOp5
 70
     1
102
RTVSPropertyOp6
 70
     1
102
RTVSPropertyOp7
 70
     1
102
RTVSPropertyOp8
 70
     1
102
RTVSPropertyOp9
 70
     1
102
RTVSPropertyOp10
 70
     1
102
RTVSPropertyOp11
 70
     1
102
RTVSPropertyOp12
 70
     1
102
RTVSPropertyOp13
 70
     1
102
RTVSPropertyOp14
 70
     1
102
RTVSPropertyOp15
 70
     1
102
RTVSPropertyOp16
 70
     1
102
RTVSPropertyOp17
 70
     1
102
RTVSPropertyOp18
 70
     1
102
RTVSPropertyOp19
 70
     1
102
RTVSPropertyOp20
 70
     1
102
RTVSPropertyOp21
 70
     1
102
RTVSPropertyOp22
 70
     1
102
RTVSPropertyOp23
 70
     1
102
RTVSPropertyOp24
 70
     1
102
RTVSPropertyOp25
 70
     1
102
RTVSPropertyOp26
 70
     1
102
RTVSPropertyOp27
 70
     1
102
RTVSPropertyOp28
 70
     1
102
RTVSPropertyOp29
 70
     1
102
RTVSPropertyOp30
 70
     1
102
RTVSPropertyOp31
 70
     1
102
RTVSPropertyOp32
 70
     1
  0
XRECORD
  5
74D
102
{ACAD_REACTORS
330
74C
102
}
330
74C
100
AcDbXrecord
280
     1
102
RTVSPropertyOp0
 70
     0
102
RTVSPropertyOp1
 70
     0
102
RTVSPropertyOp2
 70
     0
102
RTVSPropertyOp3
 70
     0
102
RTVSPropertyOp4
 70
     0
102
RTVSPropertyOp5
 70
     0
102
RTVSPropertyOp6
 70
     0
102
RTVSPropertyOp7
 70
     0
102
RTVSPropertyOp8
 70
     0
102
RTVSPropertyOp9
 70
     0
102
RTVSPropertyOp10
 70
     0
102
RTVSPropertyOp11
 70
     0
102
RTVSPropertyOp12
 70
     0
102
RTVSPropertyOp13
 70
     0
102
RTVSPropertyOp14
 70
     2
102
RTVSPropertyOp15
 70
     0
102
RTVSPropertyOp16
 70
     0
102
RTVSPropertyOp17
 70
     0
102
RTVSPropertyOp18
 70
     0
102
RTVSPropertyOp19
 70
     0
102
RTVSPropertyOp20
 70
     0
102
RTVSPropertyOp21
 70
     0
102
RTVSPropertyOp22
 70
     0
102
RTVSPropertyOp23
 70
     0
102
RTVSPropertyOp24
 70
     0
102
RTVSPropertyOp25
 70
     0
102
RTVSPropertyOp26
 70
     0
102
RTVSPropertyOp27
 70
     0
102
RTVSPropertyOp28
 70
     0
102
RTVSPropertyOp29
 70
     0
102
RTVSPropertyOp30
 70
     0
102
RTVSPropertyOp31
 70
     0
102
RTVSPropertyOp32
 70
     0
  0
XRECORD
  5
73D
102
{ACAD_REACTORS
330
73C
102
}
330
73C
100
AcDbXrecord
280
     1
102
RTVSPropertyOp0
 70
     1
102
RTVSPropertyOp1
 70
     1
102
RTVSPropertyOp2
 70
     1
102
RTVSPropertyOp3
 70
     1
102
RTVSPropertyOp4
 70
     1
102
RTVSPropertyOp5
 70
     1
102
RTVSPropertyOp6
 70
     1
102
RTVSPropertyOp7
 70
     1
102
RTVSPropertyOp8
 70
     1
102
RTVSPropertyOp9
 70
     1
102
RTVSPropertyOp10
 70
     1
102
RTVSPropertyOp11
 70
     1
102
RTVSPropertyOp12
 70
     1
102
RTVSPropertyOp13
 70
     1
102
RTVSPropertyOp14
 70
     1
102
RTVSPropertyOp15
 70
     1
102
RTVSPropertyOp16
 70
     1
102
RTVSPropertyOp17
 70
     1
102
RTVSPropertyOp18
 70
     1
102
RTVSPropertyOp19
 70
     1
102
RTVSPropertyOp20
 70
     1
102
RTVSPropertyOp21
 70
     1
102
RTVSPropertyOp22
 70
     1
102
RTVSPropertyOp23
 70
     1
102
RTVSPropertyOp24
 70
     1
102
RTVSPropertyOp25
 70
     1
102
RTVSPropertyOp26
 70
     1
102
RTVSPropertyOp27
 70
     1
102
RTVSPropertyOp28
 70
     1
102
RTVSPropertyOp29
 70
     1
102
RTVSPropertyOp30
 70
     1
102
RTVSPropertyOp31
 70
     1
102
RTVSPropertyOp32
 70
     1
  0
XRECORD
  5
74F
102
{ACAD_REACTORS
330
74E
102
}
330
74E
100
AcDbXrecord
280
     1
102
RTVSPropertyOp0
 70
     0
102
RTVSPropertyOp1
 70
     0
102
RTVSPropertyOp2
 70
     0
102
RTVSPropertyOp3
 70
     0
102
RTVSPropertyOp4
 70
     0
102
RTVSPropertyOp5
 70
     0
102
RTVSPropertyOp6
 70
     0
102
RTVSPropertyOp7
 70
     0
102
RTVSPropertyOp8
 70
     0
102
RTVSPropertyOp9
 70
     0
102
RTVSPropertyOp10
 70
     0
102
RTVSPropertyOp11
 70
     0
102
RTVSPropertyOp12
 70
     0
102
RTVSPropertyOp13
 70
     0
102
RTVSPropertyOp14
 70
     2
102
RTVSPropertyOp15
 70
     0
102
RTVSPropertyOp16
 70
     0
102
RTVSPropertyOp17
 70
     0
102
RTVSPropertyOp18
 70
     0
102
RTVSPropertyOp19
 70
     0
102
RTVSPropertyOp20
 70
     0
102
RTVSPropertyOp21
 70
     0
102
RTVSPropertyOp22
 70
     0
102
RTVSPropertyOp23
 70
     0
102
RTVSPropertyOp24
 70
     0
102
RTVSPropertyOp25
 70
     0
102
RTVSPropertyOp26
 70
     0
102
RTVSPropertyOp27
 70
     0
102
RTVSPropertyOp28
 70
     0
102
RTVSPropertyOp29
 70
     0
102
RTVSPropertyOp30
 70
     0
102
RTVSPropertyOp31
 70
     0
102
RTVSPropertyOp32
 70
     0
  0
XRECORD
  5
735
102
{ACAD_REACTORS
330
734
102
}
330
734
100
AcDbXrecord
280
     1
102
RTVSPropertyOp0
 70
     1
102
RTVSPropertyOp1
 70
     1
102
RTVSPropertyOp2
 70
     1
102
RTVSPropertyOp3
 70
     1
102
RTVSPropertyOp4
 70
     1
102
RTVSPropertyOp5
 70
     1
102
RTVSPropertyOp6
 70
     1
102
RTVSPropertyOp7
 70
     1
102
RTVSPropertyOp8
 70
     1
102
RTVSPropertyOp9
 70
     1
102
RTVSPropertyOp10
 70
     1
102
RTVSPropertyOp11
 70
     1
102
RTVSPropertyOp12
 70
     1
102
RTVSPropertyOp13
 70
     1
102
RTVSPropertyOp14
 70
     1
102
RTVSPropertyOp15
 70
     1
102
RTVSPropertyOp16
 70
     1
102
RTVSPropertyOp17
 70
     1
102
RTVSPropertyOp18
 70
     1
102
RTVSPropertyOp19
 70
     1
102
RTVSPropertyOp20
 70
     1
102
RTVSPropertyOp21
 70
     1
102
RTVSPropertyOp22
 70
     1
102
RTVSPropertyOp23
 70
     1
102
RTVSPropertyOp24
 70
     1
102
RTVSPropertyOp25
 70
     1
102
RTVSPropertyOp26
 70
     1
102
RTVSPropertyOp27
 70
     1
102
RTVSPropertyOp28
 70
     1
102
RTVSPropertyOp29
 70
     1
102
RTVSPropertyOp30
 70
     1
102
RTVSPropertyOp31
 70
     1
102
RTVSPropertyOp32
 70
     1
  0
XRECORD
  5
74B
102
{ACAD_REACTORS
330
74A
102
}
330
74A
100
AcDbXrecord
280
     1
102
RTVSPropertyOp0
 70
     1
102
RTVSPropertyOp1
 70
     1
102
RTVSPropertyOp2
 70
     1
102
RTVSPropertyOp3
 70
     1
102
RTVSPropertyOp4
 70
     1
102
RTVSPropertyOp5
 70
     1
102
RTVSPropertyOp6
 70
     1
102
RTVSPropertyOp7
 70
     1
102
RTVSPropertyOp8
 70
     1
102
RTVSPropertyOp9
 70
     1
102
RTVSPropertyOp10
 70
     1
102
RTVSPropertyOp11
 70
     1
102
RTVSPropertyOp12
 70
     1
102
RTVSPropertyOp13
 70
     1
102
RTVSPropertyOp14
 70
     1
102
RTVSPropertyOp15
 70
     1
102
RTVSPropertyOp16
 70
     1
102
RTVSPropertyOp17
 70
     1
102
RTVSPropertyOp18
 70
     1
102
RTVSPropertyOp19
 70
     1
102
RTVSPropertyOp20
 70
     1
102
RTVSPropertyOp21
 70
     1
102
RTVSPropertyOp22
 70
     1
102
RTVSPropertyOp23
 70
     1
102
RTVSPropertyOp24
 70
     1
102
RTVSPropertyOp25
 70
     1
102
RTVSPropertyOp26
 70
     1
102
RTVSPropertyOp27
 70
     1
102
RTVSPropertyOp28
 70
     1
102
RTVSPropertyOp29
 70
     1
102
RTVSPropertyOp30
 70
     1
102
RTVSPropertyOp31
 70
     1
102
RTVSPropertyOp32
 70
     1
  0
XRECORD
  5
749
102
{ACAD_REACTORS
330
748
102
}
330
748
100
AcDbXrecord
280
     1
102
RTVSPropertyOp0
 70
     1
102
RTVSPropertyOp1
 70
     1
102
RTVSPropertyOp2
 70
     1
102
RTVSPropertyOp3
 70
     1
102
RTVSPropertyOp4
 70
     1
102
RTVSPropertyOp5
 70
     1
102
RTVSPropertyOp6
 70
     1
102
RTVSPropertyOp7
 70
     1
102
RTVSPropertyOp8
 70
     1
102
RTVSPropertyOp9
 70
     1
102
RTVSPropertyOp10
 70
     1
102
RTVSPropertyOp11
 70
     1
102
RTVSPropertyOp12
 70
     1
102
RTVSPropertyOp13
 70
     1
102
RTVSPropertyOp14
 70
     1
102
RTVSPropertyOp15
 70
     1
102
RTVSPropertyOp16
 70
     1
102
RTVSPropertyOp17
 70
     1
102
RTVSPropertyOp18
 70
     1
102
RTVSPropertyOp19
 70
     1
102
RTVSPropertyOp20
 70
     1
102
RTVSPropertyOp21
 70
     1
102
RTVSPropertyOp22
 70
     1
102
RTVSPropertyOp23
 70
     1
102
RTVSPropertyOp24
 70
     1
102
RTVSPropertyOp25
 70
     1
102
RTVSPropertyOp26
 70
     1
102
RTVSPropertyOp27
 70
     1
102
RTVSPropertyOp28
 70
     1
102
RTVSPropertyOp29
 70
     1
102
RTVSPropertyOp30
 70
     1
102
RTVSPropertyOp31
 70
     1
102
RTVSPropertyOp32
 70
     1
  0
XRECORD
  5
743
102
{ACAD_REACTORS
330
742
102
}
330
742
100
AcDbXrecord
280
     1
102
RTVSPropertyOp0
 70
     1
102
RTVSPropertyOp1
 70
     1
102
RTVSPropertyOp2
 70
     1
102
RTVSPropertyOp3
 70
     1
102
RTVSPropertyOp4
 70
     1
102
RTVSPropertyOp5
 70
     1
102
RTVSPropertyOp6
 70
     1
102
RTVSPropertyOp7
 70
     1
102
RTVSPropertyOp8
 70
     1
102
RTVSPropertyOp9
 70
     1
102
RTVSPropertyOp10
 70
     1
102
RTVSPropertyOp11
 70
     1
102
RTVSPropertyOp12
 70
     1
102
RTVSPropertyOp13
 70
     1
102
RTVSPropertyOp14
 70
     1
102
RTVSPropertyOp15
 70
     1
102
RTVSPropertyOp16
 70
     1
102
RTVSPropertyOp17
 70
     1
102
RTVSPropertyOp18
 70
     1
102
RTVSPropertyOp19
 70
     1
102
RTVSPropertyOp20
 70
     1
102
RTVSPropertyOp21
 70
     1
102
RTVSPropertyOp22
 70
     1
102
RTVSPropertyOp23
 70
     1
102
RTVSPropertyOp24
 70
     1
102
RTVSPropertyOp25
 70
     1
102
RTVSPropertyOp26
 70
     1
102
RTVSPropertyOp27
 70
     1
102
RTVSPropertyOp28
 70
     1
102
RTVSPropertyOp29
 70
     1
102
RTVSPropertyOp30
 70
     1
102
RTVSPropertyOp31
 70
     1
102
RTVSPropertyOp32
 70
     1
  0
XRECORD
  5
745
102
{ACAD_REACTORS
330
744
102
}
330
744
100
AcDbXrecord
280
     1
102
RTVSPropertyOp0
 70
     1
102
RTVSPropertyOp1
 70
     1
102
RTVSPropertyOp2
 70
     1
102
RTVSPropertyOp3
 70
     1
102
RTVSPropertyOp4
 70
     1
102
RTVSPropertyOp5
 70
     1
102
RTVSPropertyOp6
 70
     1
102
RTVSPropertyOp7
 70
     1
102
RTVSPropertyOp8
 70
     1
102
RTVSPropertyOp9
 70
     1
102
RTVSPropertyOp10
 70
     1
102
RTVSPropertyOp11
 70
     1
102
RTVSPropertyOp12
 70
     1
102
RTVSPropertyOp13
 70
     1
102
RTVSPropertyOp14
 70
     1
102
RTVSPropertyOp15
 70
     1
102
RTVSPropertyOp16
 70
     1
102
RTVSPropertyOp17
 70
     1
102
RTVSPropertyOp18
 70
     1
102
RTVSPropertyOp19
 70
     1
102
RTVSPropertyOp20
 70
     1
102
RTVSPropertyOp21
 70
     1
102
RTVSPropertyOp22
 70
     1
102
RTVSPropertyOp23
 70
     1
102
RTVSPropertyOp24
 70
     1
102
RTVSPropertyOp25
 70
     1
102
RTVSPropertyOp26
 70
     1
102
RTVSPropertyOp27
 70
     1
102
RTVSPropertyOp28
 70
     1
102
RTVSPropertyOp29
 70
     1
102
RTVSPropertyOp30
 70
     1
102
RTVSPropertyOp31
 70
     1
102
RTVSPropertyOp32
 70
     1
  0
XRECORD
  5
73B
102
{ACAD_REACTORS
330
73A
102
}
330
73A
100
AcDbXrecord
280
     1
102
RTVSPropertyOp0
 70
     1
102
RTVSPropertyOp1
 70
     1
102
RTVSPropertyOp2
 70
     1
102
RTVSPropertyOp3
 70
     1
102
RTVSPropertyOp4
 70
     1
102
RTVSPropertyOp5
 70
     1
102
RTVSPropertyOp6
 70
     1
102
RTVSPropertyOp7
 70
     1
102
RTVSPropertyOp8
 70
     1
102
RTVSPropertyOp9
 70
     1
102
RTVSPropertyOp10
 70
     1
102
RTVSPropertyOp11
 70
     1
102
RTVSPropertyOp12
 70
     1
102
RTVSPropertyOp13
 70
     1
102
RTVSPropertyOp14
 70
     1
102
RTVSPropertyOp15
 70
     1
102
RTVSPropertyOp16
 70
     1
102
RTVSPropertyOp17
 70
     1
102
RTVSPropertyOp18
 70
     1
102
RTVSPropertyOp19
 70
     1
102
RTVSPropertyOp20
 70
     1
102
RTVSPropertyOp21
 70
     1
102
RTVSPropertyOp22
 70
     1
102
RTVSPropertyOp23
 70
     1
102
RTVSPropertyOp24
 70
     1
102
RTVSPropertyOp25
 70
     1
102
RTVSPropertyOp26
 70
     1
102
RTVSPropertyOp27
 70
     1
102
RTVSPropertyOp28
 70
     1
102
RTVSPropertyOp29
 70
     1
102
RTVSPropertyOp30
 70
     1
102
RTVSPropertyOp31
 70
     1
102
RTVSPropertyOp32
 70
     1
  0
XRECORD
  5
72F
102
{ACAD_REACTORS
330
72E
102
}
330
72E
100
AcDbXrecord
280
     1
102
RTVSPropertyOp0
 70
     1
102
RTVSPropertyOp1
 70
     1
102
RTVSPropertyOp2
 70
     1
102
RTVSPropertyOp3
 70
     1
102
RTVSPropertyOp4
 70
     1
102
RTVSPropertyOp5
 70
     1
102
RTVSPropertyOp6
 70
     1
102
RTVSPropertyOp7
 70
     1
102
RTVSPropertyOp8
 70
     1
102
RTVSPropertyOp9
 70
     1
102
RTVSPropertyOp10
 70
     1
102
RTVSPropertyOp11
 70
     1
102
RTVSPropertyOp12
 70
     1
102
RTVSPropertyOp13
 70
     1
102
RTVSPropertyOp14
 70
     1
102
RTVSPropertyOp15
 70
     1
102
RTVSPropertyOp16
 70
     1
102
RTVSPropertyOp17
 70
     1
102
RTVSPropertyOp18
 70
     1
102
RTVSPropertyOp19
 70
     1
102
RTVSPropertyOp20
 70
     1
102
RTVSPropertyOp21
 70
     1
102
RTVSPropertyOp22
 70
     1
102
RTVSPropertyOp23
 70
     1
102
RTVSPropertyOp24
 70
     1
102
RTVSPropertyOp25
 70
     1
102
RTVSPropertyOp26
 70
     1
102
RTVSPropertyOp27
 70
     1
102
RTVSPropertyOp28
 70
     1
102
RTVSPropertyOp29
 70
     1
102
RTVSPropertyOp30
 70
     1
102
RTVSPropertyOp31
 70
     1
102
RTVSPropertyOp32
 70
     1
  0
XRECORD
  5
747
102
{ACAD_REACTORS
330
746
102
}
330
746
100
AcDbXrecord
280
     1
102
RTVSPropertyOp0
 70
     1
102
RTVSPropertyOp1
 70
     1
102
RTVSPropertyOp2
 70
     1
102
RTVSPropertyOp3
 70
     1
102
RTVSPropertyOp4
 70
     1
102
RTVSPropertyOp5
 70
     1
102
RTVSPropertyOp6
 70
     1
102
RTVSPropertyOp7
 70
     1
102
RTVSPropertyOp8
 70
     1
102
RTVSPropertyOp9
 70
     1
102
RTVSPropertyOp10
 70
     1
102
RTVSPropertyOp11
 70
     1
102
RTVSPropertyOp12
 70
     1
102
RTVSPropertyOp13
 70
     1
102
RTVSPropertyOp14
 70
     1
102
RTVSPropertyOp15
 70
     1
102
RTVSPropertyOp16
 70
     1
102
RTVSPropertyOp17
 70
     1
102
RTVSPropertyOp18
 70
     1
102
RTVSPropertyOp19
 70
     1
102
RTVSPropertyOp20
 70
     1
102
RTVSPropertyOp21
 70
     1
102
RTVSPropertyOp22
 70
     1
102
RTVSPropertyOp23
 70
     1
102
RTVSPropertyOp24
 70
     1
102
RTVSPropertyOp25
 70
     1
102
RTVSPropertyOp26
 70
     1
102
RTVSPropertyOp27
 70
     1
102
RTVSPropertyOp28
 70
     1
102
RTVSPropertyOp29
 70
     1
102
RTVSPropertyOp30
 70
     1
102
RTVSPropertyOp31
 70
     1
102
RTVSPropertyOp32
 70
     1
  0
ENDSEC
  0
EOF
