  0
SECTION
  2
HEADER
  9
$ACADVER
  1
AC1018
  9
$ACADMAINTVER
 70
     0
  9
$DWGCODEPAGE
  3
ANSI_932
  9
$INSBASE
 10
0.0
 20
0.0
 30
0.0
  9
$EXTMIN
 10
547.7082956229204
 20
395.3738856713903
 30
0.0
  9
$EXTMAX
 10
946.5082956229204
 20
671.1738856713902
 30
0.0
  9
$LIMMIN
 10
0.0
 20
0.0
  9
$LIMMAX
 10
420.0
 20
297.0
  9
$ORTHOMODE
 70
     1
  9
$REGENMODE
 70
     1
  9
$FILLMODE
 70
     1
  9
$QTEXTMODE
 70
     0
  9
$MIRRTEXT
 70
     0
  9
$LTSCALE
 40
1.0
  9
$ATTMODE
 70
     1
  9
$TEXTSIZE
 40
2.5
  9
$TRACEWID
 40
1.0
  9
$TEXTSTYLE
  7
Standard
  9
$CLAYER
  8
0
  9
$CELTYPE
  6
CENTER
  9
$CECOLOR
 62
   256
  9
$CELTSCALE
 40
1.0
  9
$DISPSILH
 70
     0
  9
$DIMSCALE
 40
1.0
  9
$DIMASZ
 40
2.5
  9
$DIMEXO
 40
3.0
  9
$DIMDLI
 40
3.75
  9
$DIMRND
 40
0.0
  9
$DIMDLE
 40
0.0
  9
$DIMEXE
 40
1.25
  9
$DIMTP
 40
0.0
  9
$DIMTM
 40
0.0
  9
$DIMTXT
 40
2.5
  9
$DIMCEN
 40
2.5
  9
$DIMTSZ
 40
0.0
  9
$DIMTOL
 70
     0
  9
$DIMLIM
 70
     0
  9
$DIMTIH
 70
     0
  9
$DIMTOH
 70
     0
  9
$DIMSE1
 70
     0
  9
$DIMSE2
 70
     0
  9
$DIMTAD
 70
     1
  9
$DIMZIN
 70
     8
  9
$DIMBLK
  1

  9
$DIMASO
 70
     1
  9
$DIMSHO
 70
     1
  9
$DIMPOST
  1

  9
$DIMAPOST
  1

  9
$DIMALT
 70
     0
  9
$DIMALTD
 70
     3
  9
$DIMALTF
 40
0.03937007874016
  9
$DIMLFAC
 40
1.0
  9
$DIMTOFL
 70
     1
  9
$DIMTVP
 40
0.0
  9
$DIMTIX
 70
     0
  9
$DIMSOXD
 70
     0
  9
$DIMSAH
 70
     0
  9
$DIMBLK1
  1

  9
$DIMBLK2
  1

  9
$DIMSTYLE
  2
ISO-25
  9
$DIMCLRD
 70
     0
  9
$DIMCLRE
 70
     0
  9
$DIMCLRT
 70
     0
  9
$DIMTFAC
 40
1.0
  9
$DIMGAP
 40
3.0
  9
$DIMJUST
 70
     0
  9
$DIMSD1
 70
     0
  9
$DIMSD2
 70
     0
  9
$DIMTOLJ
 70
     0
  9
$DIMTZIN
 70
     8
  9
$DIMALTZ
 70
     0
  9
$DIMALTTZ
 70
     0
  9
$DIMUPT
 70
     0
  9
$DIMDEC
 70
     2
  9
$DIMTDEC
 70
     2
  9
$DIMALTU
 70
     2
  9
$DIMALTTD
 70
     3
  9
$DIMTXSTY
  7
Standard
  9
$DIMAUNIT
 70
     0
  9
$DIMADEC
 70
     0
  9
$DIMALTRND
 40
0.0
  9
$DIMAZIN
 70
     0
  9
$DIMDSEP
 70
    44
  9
$DIMATFIT
 70
     3
  9
$DIMFRAC
 70
     0
  9
$DIMLDRBLK
  1

  9
$DIMLUNIT
 70
     2
  9
$DIMLWD
 70
    -2
  9
$DIMLWE
 70
    -2
  9
$DIMTMOVE
 70
     0
  9
$LUNITS
 70
     2
  9
$LUPREC
 70
     4
  9
$SKETCHINC
 40
1.0
  9
$FILLETRAD
 40
0.0
  9
$AUNITS
 70
     0
  9
$AUPREC
 70
     0
  9
$MENU
  1
.
  9
$ELEVATION
 40
0.0
  9
$PELEVATION
 40
0.0
  9
$THICKNESS
 40
0.0
  9
$LIMCHECK
 70
     0
  9
$CHAMFERA
 40
0.0
  9
$CHAMFERB
 40
0.0
  9
$CHAMFERC
 40
0.0
  9
$CHAMFERD
 40
0.0
  9
$SKPOLY
 70
     0
  9
$TDCREATE
 40
2458729.652803171
  9
$TDUCREATE
 40
2458729.277803171
  9
$TDUPDATE
 40
2458732.752846655
  9
$TDUUPDATE
 40
2458732.377846655
  9
$TDINDWG
 40
0.3669522569
  9
$TDUSRTIMER
 40
0.3669522569
  9
$USRTIMER
 70
     1
  9
$ANGBASE
 50
0.0
  9
$ANGDIR
 70
     0
  9
$PDMODE
 70
     0
  9
$PDSIZE
 40
0.0
  9
$PLINEWID
 40
0.0
  9
$SPLFRAME
 70
     0
  9
$SPLINETYPE
 70
     6
  9
$SPLINESEGS
 70
     8
  9
$HANDSEED
  5
85E
  9
$SURFTAB1
 70
     6
  9
$SURFTAB2
 70
     6
  9
$SURFTYPE
 70
     6
  9
$SURFU
 70
     6
  9
$SURFV
 70
     6
  9
$UCSBASE
  2

  9
$UCSNAME
  2

  9
$UCSORG
 10
0.0
 20
0.0
 30
0.0
  9
$UCSXDIR
 10
1.0
 20
0.0
 30
0.0
  9
$UCSYDIR
 10
0.0
 20
1.0
 30
0.0
  9
$UCSORTHOREF
  2

  9
$UCSORTHOVIEW
 70
     0
  9
$UCSORGTOP
 10
0.0
 20
0.0
 30
0.0
  9
$UCSORGBOTTOM
 10
0.0
 20
0.0
 30
0.0
  9
$UCSORGLEFT
 10
0.0
 20
0.0
 30
0.0
  9
$UCSORGRIGHT
 10
0.0
 20
0.0
 30
0.0
  9
$UCSORGFRONT
 10
0.0
 20
0.0
 30
0.0
  9
$UCSORGBACK
 10
0.0
 20
0.0
 30
0.0
  9
$PUCSBASE
  2

  9
$PUCSNAME
  2

  9
$PUCSORG
 10
0.0
 20
0.0
 30
0.0
  9
$PUCSXDIR
 10
1.0
 20
0.0
 30
0.0
  9
$PUCSYDIR
 10
0.0
 20
1.0
 30
0.0
  9
$PUCSORTHOREF
  2

  9
$PUCSORTHOVIEW
 70
     0
  9
$PUCSORGTOP
 10
0.0
 20
0.0
 30
0.0
  9
$PUCSORGBOTTOM
 10
0.0
 20
0.0
 30
0.0
  9
$PUCSORGLEFT
 10
0.0
 20
0.0
 30
0.0
  9
$PUCSORGRIGHT
 10
0.0
 20
0.0
 30
0.0
  9
$PUCSORGFRONT
 10
0.0
 20
0.0
 30
0.0
  9
$PUCSORGBACK
 10
0.0
 20
0.0
 30
0.0
  9
$USERI1
 70
     0
  9
$USERI2
 70
     0
  9
$USERI3
 70
     0
  9
$USERI4
 70
     0
  9
$USERI5
 70
     0
  9
$USERR1
 40
0.0
  9
$USERR2
 40
0.0
  9
$USERR3
 40
0.0
  9
$USERR4
 40
0.0
  9
$USERR5
 40
0.0
  9
$WORLDVIEW
 70
     1
  9
$SHADEDGE
 70
     3
  9
$SHADEDIF
 70
    70
  9
$TILEMODE
 70
     0
  9
$MAXACTVP
 70
    64
  9
$PINSBASE
 10
0.0
 20
0.0
 30
0.0
  9
$PLIMCHECK
 70
     0
  9
$PEXTMIN
 10
-1.076510884144681
 20
-1.403757103030898
 30
-0.0015258207003583
  9
$PEXTMAX
 10
415.4234282593595
 20
291.8121231166844
 30
0.0000000349246037
  9
$PLIMMIN
 10
-3.17498779296875
 20
-3.174999952316284
  9
$PLIMMAX
 10
416.9833374023437
 20
293.8568298816681
  9
$UNITMODE
 70
     0
  9
$VISRETAIN
 70
     1
  9
$PLINEGEN
 70
     0
  9
$PSLTSCALE
 70
     1
  9
$TREEDEPTH
 70
  3020
  9
$CMLSTYLE
  2
Standard
  9
$CMLJUST
 70
     0
  9
$CMLSCALE
 40
20.0
  9
$PROXYGRAPHICS
 70
     1
  9
$MEASUREMENT
 70
     1
  9
$CELWEIGHT
370
    -1
  9
$ENDCAPS
280
     0
  9
$JOINSTYLE
280
     0
  9
$LWDISPLAY
290
     0
  9
$INSUNITS
 70
     4
  9
$HYPERLINKBASE
  1

  9
$STYLESHEET
  1

  9
$XEDIT
290
     1
  9
$CEPSNTYPE
380
     0
  9
$PSTYLEMODE
290
     1
  9
$FINGERPRINTGUID
  2
{FDEAD578-A652-11D2-9A35-0060089B3A3F}
  9
$VERSIONGUID
  2
{84D74F44-C2E4-4D65-B459-E55C4CA7B2BC}
  9
$EXTNAMES
290
     1
  9
$PSVPSCALE
 40
0.0
  9
$OLESTARTUP
290
     0
  9
$SORTENTS
280
   127
  9
$INDEXCTL
280
     0
  9
$HIDETEXT
280
     1
  9
$XCLIPFRAME
290
     0
  9
$HALOGAP
280
     0
  9
$OBSCOLOR
 70
   257
  9
$OBSLTYPE
280
     0
  9
$INTERSECTIONDISPLAY
280
     0
  9
$INTERSECTIONCOLOR
 70
   257
  9
$DIMASSOC
280
     2
  9
$PROJECTNAME
  1

  0
ENDSEC
  0
SECTION
  2
CLASSES
  0
CLASS
  1
ACDBDICTIONARYWDFLT
  2
AcDbDictionaryWithDefault
  3
ObjectDBX Classes
 90
        0
 91
        1
280
     0
281
     0
  0
CLASS
  1
DICTIONARYVAR
  2
AcDbDictionaryVar
  3
ObjectDBX Classes
 90
        0
 91
        2
280
     0
281
     0
  0
CLASS
  1
DIMASSOC
  2
AcDbDimAssoc
  3
"AcDbDimAssoc|Product Desc:     AcDim ARX App For Dimension|Company:          Autodesk, Inc.|WEB Address:      www.autodesk.com"
 90
        0
 91
        2
280
     0
281
     0
  0
ENDSEC
  0
SECTION
  2
TABLES
  0
TABLE
  2
VPORT
  5
8
330
0
100
AcDbSymbolTable
 70
     1
  0
VPORT
  5
853
330
8
100
AcDbSymbolTableRecord
100
AcDbViewportTableRecord
  2
*Active
 70
     0
 10
0.0
 20
0.0
 11
1.0
 21
1.0
 12
820.6412953572696
 22
528.3455524856604
 13
0.0
 23
0.0
 14
10.0
 24
10.0
 15
10.0
 25
10.0
 16
0.0
 26
0.0
 36
1.0
 17
0.0
 27
0.0
 37
0.0
 40
271.6572348860469
 41
0.9389312977099237
 42
50.0
 43
0.0
 44
0.0
 50
0.0
 51
0.0
 71
     0
 72
  1000
 73
     1
 74
     3
 75
     0
 76
     0
 77
     0
 78
     0
281
     0
 65
     1
110
0.0
120
0.0
130
0.0
111
1.0
121
0.0
131
0.0
112
0.0
122
1.0
132
0.0
 79
     0
146
0.0
  0
ENDTAB
  0
TABLE
  2
LTYPE
  5
5
330
0
100
AcDbSymbolTable
 70
     3
  0
LTYPE
  5
14
330
5
100
AcDbSymbolTableRecord
100
AcDbLinetypeTableRecord
  2
ByBlock
 70
     0
  3

 72
    65
 73
     0
 40
0.0
  0
LTYPE
  5
15
330
5
100
AcDbSymbolTableRecord
100
AcDbLinetypeTableRecord
  2
ByLayer
 70
     0
  3

 72
    65
 73
     0
 40
0.0
  0
LTYPE
  5
16
330
5
100
AcDbSymbolTableRecord
100
AcDbLinetypeTableRecord
  2
Continuous
 70
     0
  3
Solid line
 72
    65
 73
     0
 40
0.0
  0
LTYPE
  5
282
330
5
100
AcDbSymbolTableRecord
100
AcDbLinetypeTableRecord
  2
PHANTOM
 70
     0
  3
Phantom ______  __  __  ______  __  __  ______
 72
    65
 73
     6
 40
12.7
 49
6.349999999999999
 74
     0
 49
-1.27
 74
     0
 49
1.27
 74
     0
 49
-1.27
 74
     0
 49
1.27
 74
     0
 49
-1.27
 74
     0
  0
LTYPE
  5
283
330
5
100
AcDbSymbolTableRecord
100
AcDbLinetypeTableRecord
  2
CENTER
 70
     0
  3
Center ____ _ ____ _ ____ _ ____ _ ____ _ ____
 72
    65
 73
     4
 40
10.16
 49
6.349999999999999
 74
     0
 49
-1.27
 74
     0
 49
1.27
 74
     0
 49
-1.27
 74
     0
  0
ENDTAB
  0
TABLE
  2
LAYER
  5
2
102
{ACAD_XDICTIONARY
360
291
102
}
330
0
100
AcDbSymbolTable
 70
     5
  0
LAYER
  5
10
330
2
100
AcDbSymbolTableRecord
100
AcDbLayerTableRecord
  2
0
 70
     0
 62
     7
  6
Continuous
370
    -3
390
F
  0
LAYER
  5
284
330
2
100
AcDbSymbolTableRecord
100
AcDbLayerTableRecord
  2
Defpoints
 70
     0
 62
     7
  6
Continuous
290
     0
370
    -3
390
F
  0
LAYER
  5
285
102
{ACAD_XDICTIONARY
360
286
102
}
330
2
100
AcDbSymbolTableRecord
100
AcDbLayerTableRecord
  2
ZUWAKU
 70
     0
 62
     7
  6
Continuous
370
    -3
390
F
  0
LAYER
  5
288
102
{ACAD_XDICTIONARY
360
289
102
}
330
2
100
AcDbSymbolTableRecord
100
AcDbLayerTableRecord
  2
CENTER L
 70
     0
 62
     1
  6
CENTER
370
    -3
390
F
  0
LAYER
  5
28B
102
{ACAD_XDICTIONARY
360
28C
102
}
330
2
100
AcDbSymbolTableRecord
100
AcDbLayerTableRecord
  2
moji
 70
     0
 62
     2
  6
Continuous
370
    -3
390
F
  0
ENDTAB
  0
TABLE
  2
STYLE
  5
3
330
0
100
AcDbSymbolTable
 70
     3
  0
STYLE
  5
11
330
3
100
AcDbSymbolTableRecord
100
AcDbTextStyleTableRecord
  2
Standard
 70
     0
 40
0.0
 41
1.0
 50
0.0
 71
     0
 42
2.5
  3
txt
  4

  0
STYLE
  5
28E
330
3
100
AcDbSymbolTableRecord
100
AcDbTextStyleTableRecord
  2
MSｺﾞｼｯｸ
 70
     0
 40
0.0
 41
1.0
 50
0.0
 71
     0
 42
2.5
  3

  4

1001
ACAD
1000
MS Gothic
1071
    32817
  0
STYLE
  5
28F
330
3
100
AcDbSymbolTableRecord
100
AcDbTextStyleTableRecord
  2
スタイル1
 70
     0
 40
0.0
 41
1.0
 50
0.0
 71
     0
 42
3.5
  3
txt.shx
  4
bigfont.shx
  0
ENDTAB
  0
TABLE
  2
VIEW
  5
6
330
0
100
AcDbSymbolTable
 70
     0
  0
ENDTAB
  0
TABLE
  2
UCS
  5
7
330
0
100
AcDbSymbolTable
 70
     0
  0
ENDTAB
  0
TABLE
  2
APPID
  5
9
330
0
100
AcDbSymbolTable
 70
     1
  0
APPID
  5
12
330
9
100
AcDbSymbolTableRecord
100
AcDbRegAppTableRecord
  2
ACAD
 70
     0
  0
ENDTAB
  0
TABLE
  2
DIMSTYLE
  5
A
330
0
100
AcDbSymbolTable
 70
     2
100
AcDbDimStyleTable
 71
     1
340
27
  0
DIMSTYLE
105
27
102
{ACAD_REACTORS
330
400
330
401
330
704
330
3FC
330
3FB
330
3FD
330
78E
102
}
330
A
100
AcDbSymbolTableRecord
100
AcDbDimStyleTableRecord
  2
ISO-25
 70
     0
 41
2.5
 42
3.0
 43
3.75
 44
1.25
 73
     0
 74
     0
 77
     1
 78
     8
140
2.5
141
2.5
143
0.03937007874016
147
3.0
171
     3
172
     1
271
     2
272
     2
274
     3
278
    44
283
     0
284
     8
340
11
  0
DIMSTYLE
105
290
330
A
100
AcDbSymbolTableRecord
100
AcDbDimStyleTableRecord
  2
STANDARD
 70
     0
 41
3.0
 42
1.5
 43
9.0
 44
1.5
 73
     0
 74
     0
 77
     3
140
3.0
141
0.0
147
1.0
176
   256
177
   256
178
   256
271
     0
272
     0
340
11
341
87
342
87
371
    -1
372
    -1
  0
ENDTAB
  0
TABLE
  2
BLOCK_RECORD
  5
1
330
0
100
AcDbSymbolTable
 70
    11
  0
BLOCK_RECORD
  5
1F
330
1
100
AcDbSymbolTableRecord
100
AcDbBlockTableRecord
  2
*Model_Space
340
22
  0
BLOCK_RECORD
  5
50
330
1
100
AcDbSymbolTableRecord
100
AcDbBlockTableRecord
  2
*Paper_Space
340
51
  0
BLOCK_RECORD
  5
55
330
1
100
AcDbSymbolTableRecord
100
AcDbBlockTableRecord
  2
*Paper_Space0
340
56
  0
BLOCK_RECORD
  5
87
330
1
100
AcDbSymbolTableRecord
100
AcDbBlockTableRecord
  2
_OPEN
340
0
  0
BLOCK_RECORD
  5
8D
330
1
100
AcDbSymbolTableRecord
100
AcDbBlockTableRecord
  2
*X2
340
0
102
{BLKREFS
331
54E
102
}
  0
BLOCK_RECORD
  5
223
330
1
100
AcDbSymbolTableRecord
100
AcDbBlockTableRecord
  2
SW_CENTERMARKSYMBOL_1
340
0
102
{BLKREFS
331
459
102
}
  0
BLOCK_RECORD
  5
55D
330
1
100
AcDbSymbolTableRecord
100
AcDbBlockTableRecord
  2
*D4
340
0
  0
BLOCK_RECORD
  5
569
330
1
100
AcDbSymbolTableRecord
100
AcDbBlockTableRecord
  2
*D5
340
0
  0
BLOCK_RECORD
  5
575
330
1
100
AcDbSymbolTableRecord
100
AcDbBlockTableRecord
  2
*D6
340
0
  0
BLOCK_RECORD
  5
599
330
1
100
AcDbSymbolTableRecord
100
AcDbBlockTableRecord
  2
*D7
340
0
  0
BLOCK_RECORD
  5
5A5
330
1
100
AcDbSymbolTableRecord
100
AcDbBlockTableRecord
  2
*D8
340
0
  0
BLOCK_RECORD
  5
705
330
1
100
AcDbSymbolTableRecord
100
AcDbBlockTableRecord
  2
*D9
340
0
  0
BLOCK_RECORD
  5
78F
330
1
100
AcDbSymbolTableRecord
100
AcDbBlockTableRecord
  2
*D10
340
0
  0
ENDTAB
  0
ENDSEC
  0
SECTION
  2
BLOCKS
  0
BLOCK
  5
20
330
1F
100
AcDbEntity
  8
0
100
AcDbBlockBegin
  2
*Model_Space
 70
     0
 10
0.0
 20
0.0
 30
0.0
  3
*Model_Space
  1

  0
ENDBLK
  5
21
330
1F
100
AcDbEntity
  8
0
100
AcDbBlockEnd
  0
BLOCK
  5
52
330
50
100
AcDbEntity
 67
     1
  8
0
100
AcDbBlockBegin
  2
*Paper_Space
 70
     0
 10
0.0
 20
0.0
 30
0.0
  3
*Paper_Space
  1

  0
ENDBLK
  5
53
330
50
100
AcDbEntity
 67
     1
  8
0
100
AcDbBlockEnd
  0
BLOCK
  5
57
330
55
100
AcDbEntity
  8
0
100
AcDbBlockBegin
  2
*Paper_Space0
 70
     0
 10
0.0
 20
0.0
 30
0.0
  3
*Paper_Space0
  1

  0
ENDBLK
  5
58
330
55
100
AcDbEntity
  8
0
100
AcDbBlockEnd
  0
BLOCK
  5
88
330
87
100
AcDbEntity
  8
0
100
AcDbBlockBegin
  2
_OPEN
 70
     0
 10
0.0
 20
0.0
 30
0.0
  3
_OPEN
  1

  0
LINE
  5
89
330
87
100
AcDbEntity
  8
0
  6
ByBlock
 62
     0
100
AcDbLine
 10
-1.0
 20
0.1666666666666666
 30
0.0
 11
0.0
 21
0.0
 31
0.0
  0
LINE
  5
8A
330
87
100
AcDbEntity
  8
0
  6
ByBlock
 62
     0
100
AcDbLine
 10
0.0
 20
0.0
 30
0.0
 11
-1.0
 21
-0.1666666666666666
 31
0.0
  0
LINE
  5
8B
330
87
100
AcDbEntity
  8
0
  6
ByBlock
 62
     0
100
AcDbLine
 10
0.0
 20
0.0
 30
0.0
 11
-1.0
 21
0.0
 31
0.0
  0
ENDBLK
  5
8C
330
87
100
AcDbEntity
  8
0
100
AcDbBlockEnd
  0
BLOCK
  5
8E
330
8D
100
AcDbEntity
  8
0
100
AcDbBlockBegin
  2
*X2
 70
     1
 10
0.0
 20
0.0
 30
0.0
  3
*X2
  1

  0
LINE
  5
8F
330
8D
100
AcDbEntity
  8
0
 62
     0
100
AcDbLine
 10
34.5211058208776
 20
11.30208487459222
 30
0.0
 11
34.19819035602015
 21
11.62500033944971
 31
0.0
  0
LINE
  5
90
330
8D
100
AcDbEntity
  8
0
 62
     0
100
AcDbLine
 10
34.5211058208776
 20
10.85307206853878
 30
0.0
 11
33.74917754996668
 21
11.62500033944971
 31
0.0
  0
LINE
  5
91
330
8D
100
AcDbEntity
  8
0
 62
     0
100
AcDbLine
 10
34.52110582087757
 20
10.4040592624853
 30
0.0
 11
33.3105388478701
 21
11.61462623549277
 31
0.0
  0
LINE
  5
92
330
8D
100
AcDbEntity
  8
0
 62
     0
100
AcDbLine
 10
34.5211058208776
 20
9.955046456431887
 30
0.0
 11
33.12110582087758
 21
11.35504645643189
 31
0.0
  0
LINE
  5
93
330
8D
100
AcDbEntity
  8
0
 62
     0
100
AcDbLine
 10
34.5211058208776
 20
9.506033650378412
 30
0.0
 11
33.12110582087758
 21
10.90603365037844
 31
0.0
  0
LINE
  5
94
330
8D
100
AcDbEntity
  8
0
 62
     0
100
AcDbLine
 10
34.52110582087757
 20
9.057020844324938
 30
0.0
 11
33.12110582087754
 21
10.45702084432497
 31
0.0
  0
LINE
  5
95
330
8D
100
AcDbEntity
  8
0
 62
     0
100
AcDbLine
 10
32.07110582087756
 20
11.05800803827153
 30
0.0
 11
31.50411351969941
 21
11.62500033944971
 31
0.0
  0
LINE
  5
96
330
8D
100
AcDbEntity
  8
0
 62
     0
100
AcDbLine
 10
34.5211058208776
 20
8.608008038271519
 30
0.0
 11
33.12110582087758
 21
10.00800803827155
 31
0.0
  0
LINE
  5
97
330
8D
100
AcDbEntity
  8
0
 62
     0
100
AcDbLine
 10
32.07110582087756
 20
10.60899523221809
 30
0.0
 11
31.05510071364594
 21
11.62500033944968
 31
0.0
  0
LINE
  5
98
330
8D
100
AcDbEntity
  8
0
 62
     0
100
AcDbLine
 10
34.52110582087757
 20
8.158995232218046
 30
0.0
 11
33.12110582087758
 21
9.558995232218078
 31
0.0
  0
LINE
  5
99
330
8D
100
AcDbEntity
  8
0
 62
     0
100
AcDbLine
 10
32.07110582087756
 20
10.15998242616461
 30
0.0
 11
30.71835033830903
 21
11.51273790873315
 31
0.0
  0
LINE
  5
9A
330
8D
100
AcDbEntity
  8
0
 62
     0
100
AcDbLine
 10
34.52110582087757
 20
7.709982426164599
 30
0.0
 11
33.12110582087754
 21
9.109982426164606
 31
0.0
  0
LINE
  5
9B
330
8D
100
AcDbEntity
  8
0
 62
     0
100
AcDbLine
 10
32.07110582087762
 20
9.710969620111113
 30
0.0
 11
30.67110582087754
 21
11.11096962011117
 31
0.0
  0
LINE
  5
9C
330
8D
100
AcDbEntity
  8
0
 62
     0
100
AcDbLine
 10
34.5211058208776
 20
7.260969620111125
 30
0.0
 11
33.12110582087758
 21
8.66096962011116
 31
0.0
  0
LINE
  5
9D
330
8D
100
AcDbEntity
  8
0
 62
     0
100
AcDbLine
 10
32.07110582087759
 20
9.261956814057668
 30
0.0
 11
30.67110582087754
 21
10.66195681405776
 31
0.0
  0
LINE
  5
9E
330
8D
100
AcDbEntity
  8
0
 62
     0
100
AcDbLine
 10
34.52110582087757
 20
6.811956814057679
 30
0.0
 11
33.12110582087754
 21
8.211956814057714
 31
0.0
  0
LINE
  5
9F
330
8D
100
AcDbEntity
  8
0
 62
     0
100
AcDbLine
 10
32.07110582087759
 20
8.812944008004222
 30
0.0
 11
30.67110582087754
 21
10.21294400800428
 31
0.0
  0
LINE
  5
A0
330
8D
100
AcDbEntity
  8
0
 62
     0
100
AcDbLine
 10
34.52110582087757
 20
6.362944008004233
 30
0.0
 11
33.12110582087754
 21
7.762944008004267
 31
0.0
  0
LINE
  5
A1
330
8D
100
AcDbEntity
  8
0
 62
     0
100
AcDbLine
 10
32.07110582087756
 20
8.363931201950746
 30
0.0
 11
30.6711058208775
 21
9.763931201950812
 31
0.0
  0
LINE
  5
A2
330
8D
100
AcDbEntity
  8
0
 62
     0
100
AcDbLine
 10
34.52110582087755
 20
5.913931201950759
 30
0.0
 11
33.12110582087754
 21
7.313931201950794
 31
0.0
  0
LINE
  5
A3
330
8D
100
AcDbEntity
  8
0
 62
     0
100
AcDbLine
 10
32.07110582087759
 20
7.914918395897331
 30
0.0
 11
30.67110582087754
 21
9.314918395897391
 31
0.0
  0
LINE
  5
A4
330
8D
100
AcDbEntity
  8
0
 62
     0
100
AcDbLine
 10
28.92110582087756
 20
11.06491839589736
 30
0.0
 11
28.36102387732523
 21
11.62500033944968
 31
0.0
  0
LINE
  5
A5
330
8D
100
AcDbEntity
  8
0
 62
     0
100
AcDbLine
 10
34.52110582087757
 20
5.464918395897342
 30
0.0
 11
33.12110582087754
 21
6.864918395897348
 31
0.0
  0
LINE
  5
A6
330
8D
100
AcDbEntity
  8
0
 62
     0
100
AcDbLine
 10
32.07110582087759
 20
7.465905589843855
 30
0.0
 11
30.6711058208775
 21
8.865905589843917
 31
0.0
  0
LINE
  5
A7
330
8D
100
AcDbEntity
  8
0
 62
     0
100
AcDbLine
 10
28.92110582087752
 20
10.61590558984389
 30
0.0
 11
27.91201107127176
 21
11.62500033944968
 31
0.0
  0
LINE
  5
A8
330
8D
100
AcDbEntity
  8
0
 62
     0
100
AcDbLine
 10
34.52110582087757
 20
5.015905589843868
 30
0.0
 11
33.12110582087754
 21
6.415905589843903
 31
0.0
  0
LINE
  5
A9
330
8D
100
AcDbEntity
  8
0
 62
     0
100
AcDbLine
 10
32.07110582087756
 20
7.016892783790409
 30
0.0
 11
30.67110582087754
 21
8.416892783790416
 31
0.0
  0
LINE
  5
AA
330
8D
100
AcDbEntity
  8
0
 62
     0
100
AcDbLine
 10
28.92110582087752
 20
10.16689278379044
 30
0.0
 11
27.57122445921552
 21
11.51677414545244
 31
0.0
  0
LINE
  5
AB
330
8D
100
AcDbEntity
  8
0
 62
     0
100
AcDbLine
 10
34.52110582087755
 20
4.566892783790422
 30
0.0
 11
33.12110582087752
 21
5.966892783790427
 31
0.0
  0
LINE
  5
AC
330
8D
100
AcDbEntity
  8
0
 62
     0
100
AcDbLine
 10
32.07110582087759
 20
6.567879977736937
 30
0.0
 11
30.67110582087755
 21
7.96787997773697
 31
0.0
  0
LINE
  5
AD
330
8D
100
AcDbEntity
  8
0
 62
     0
100
AcDbLine
 10
28.92110582087756
 20
9.71787997773697
 30
0.0
 11
27.52110582087755
 21
11.11787997773697
 31
0.0
  0
LINE
  5
AE
330
8D
100
AcDbEntity
  8
0
 62
     0
100
AcDbLine
 10
34.52110582087757
 20
4.117879977736946
 30
0.0
 11
33.12110582087754
 21
5.51787997773698
 31
0.0
  0
LINE
  5
AF
330
8D
100
AcDbEntity
  8
0
 62
     0
100
AcDbLine
 10
32.07110582087756
 20
6.11886717168349
 30
0.0
 11
30.67110582087755
 21
7.518867171683523
 31
0.0
  0
LINE
  5
B0
330
8D
100
AcDbEntity
  8
0
 62
     0
100
AcDbLine
 10
28.92110582087758
 20
9.268867171683496
 30
0.0
 11
27.52110582087755
 21
10.66886717168353
 31
0.0
  0
LINE
  5
B1
330
8D
100
AcDbEntity
  8
0
 62
     0
100
AcDbLine
 10
34.48512314343267
 20
3.704849849128406
 30
0.0
 11
33.12110582087754
 21
5.068867171683534
 31
0.0
  0
LINE
  5
B2
330
8D
100
AcDbEntity
  8
0
 62
     0
100
AcDbLine
 10
32.07110582087759
 20
5.669854365629987
 30
0.0
 11
30.67110582087754
 21
7.06985436563005
 31
0.0
  0
LINE
  5
B3
330
8D
100
AcDbEntity
  8
0
 62
     0
100
AcDbLine
 10
28.92110582087756
 20
8.81985436563005
 30
0.0
 11
27.52110582087752
 21
10.21985436563005
 31
0.0
  0
LINE
  5
B4
330
8D
100
AcDbEntity
  8
0
 62
     0
100
AcDbLine
 10
34.16595984705793
 20
3.575000339449672
 30
0.0
 11
33.12110582087752
 21
4.619854365630088
 31
0.0
  0
LINE
  5
B5
330
8D
100
AcDbEntity
  8
0
 62
     0
100
AcDbLine
 10
28.92110582087756
 20
8.370841559576575
 30
0.0
 11
27.52110582087752
 21
9.770841559576608
 31
0.0
  0
LINE
  5
B6
330
8D
100
AcDbEntity
  8
0
 62
     0
100
AcDbLine
 10
32.07110582087759
 20
5.220841559576541
 30
0.0
 11
30.67110582087754
 21
6.620841559576603
 31
0.0
  0
LINE
  5
B7
330
8D
100
AcDbEntity
  8
0
 62
     0
100
AcDbLine
 10
26.20860582087755
 20
11.08334155957658
 30
0.0
 11
25.66694704100447
 21
11.62500033944962
 31
0.0
  0
LINE
  5
B8
330
8D
100
AcDbEntity
  8
0
 62
     0
100
AcDbLine
 10
33.71694704100448
 20
3.575000339449616
 30
0.0
 11
33.12110582087752
 21
4.170841559576615
 31
0.0
  0
LINE
  5
B9
330
8D
100
AcDbEntity
  8
0
 62
     0
100
AcDbLine
 10
28.92110582087756
 20
7.921828753523128
 30
0.0
 11
27.52110582087758
 21
9.321828753523137
 31
0.0
  0
LINE
  5
BA
330
8D
100
AcDbEntity
  8
0
 62
     0
100
AcDbLine
 10
26.20860582087755
 20
10.63432875352313
 30
0.0
 11
25.21793423495106
 21
11.62500033944965
 31
0.0
  0
LINE
  5
BB
330
8D
100
AcDbEntity
  8
0
 62
     0
100
AcDbLine
 10
32.0581266705548
 20
4.784807903845916
 30
0.0
 11
30.67110582087754
 21
6.171828753523156
 31
0.0
  0
LINE
  5
BC
330
8D
100
AcDbEntity
  8
0
 62
     0
100
AcDbLine
 10
28.92110582087756
 20
7.472815947469682
 30
0.0
 11
27.52110582087758
 21
8.872815947469662
 31
0.0
  0
LINE
  5
BD
330
8D
100
AcDbEntity
  8
0
 62
     0
100
AcDbLine
 10
26.11081554782063
 20
10.2831062205266
 30
0.0
 11
24.76892142889755
 21
11.62500033944968
 31
0.0
  0
LINE
  5
BE
330
8D
100
AcDbEntity
  8
0
 62
     0
100
AcDbLine
 10
31.96163402292617
 20
4.432287745421035
 30
0.0
 11
30.67110582087754
 21
5.722815947469712
 31
0.0
  0
LINE
  5
BF
330
8D
100
AcDbEntity
  8
0
 62
     0
100
AcDbLine
 10
28.92110582087756
 20
7.023803141416208
 30
0.0
 11
27.52110582087755
 21
8.423803141416215
 31
0.0
  0
LINE
  5
C0
330
8D
100
AcDbEntity
  8
0
 62
     0
100
AcDbLine
 10
25.71990862284406
 20
10.22500033944967
 30
0.0
 11
24.31990862284411
 21
11.62500033944962
 31
0.0
  0
LINE
  5
C1
330
8D
100
AcDbEntity
  8
0
 62
     0
100
AcDbLine
 10
31.79911808496439
 20
4.145790877329345
 30
0.0
 11
30.63534795129777
 21
5.309561010995992
 31
0.0
  0
LINE
  5
C2
330
8D
100
AcDbEntity
  8
0
 62
     0
100
AcDbLine
 10
28.92110582087756
 20
6.574790335362791
 30
0.0
 11
27.52110582087758
 21
7.974790335362768
 31
0.0
  0
LINE
  5
C3
330
8D
100
AcDbEntity
  8
0
 62
     0
100
AcDbLine
 10
25.27089581679064
 20
10.2250003394497
 30
0.0
 11
23.90211245220195
 21
11.5937837040384
 31
0.0
  0
LINE
  5
C4
330
8D
100
AcDbEntity
  8
0
 62
     0
100
AcDbLine
 10
31.58309718630187
 20
3.912798969938448
 30
0.0
 11
30.43455513206402
 21
5.061341024176299
 31
0.0
  0
LINE
  5
C5
330
8D
100
AcDbEntity
  8
0
 62
     0
100
AcDbLine
 10
28.92110582087756
 20
6.125777529309316
 30
0.0
 11
27.52110582087755
 21
7.525777529309293
 31
0.0
  0
LINE
  5
C6
330
8D
100
AcDbEntity
  8
0
 62
     0
100
AcDbLine
 10
24.82188301073716
 20
10.2250003394497
 30
0.0
 11
23.56979223993525
 21
11.47709111025159
 31
0.0
  0
LINE
  5
C7
330
8D
100
AcDbEntity
  8
0
 62
     0
100
AcDbLine
 10
31.31501601383885
 20
3.731867336348016
 30
0.0
 11
30.07188301073716
 21
4.975000339449677
 31
0.0
  0
LINE
  5
C8
330
8D
100
AcDbEntity
  8
0
 62
     0
100
AcDbLine
 10
28.92110582087752
 20
5.676764723255843
 30
0.0
 11
27.52110582087755
 21
7.076764723255847
 31
0.0
  0
LINE
  5
C9
330
8D
100
AcDbEntity
  8
0
 62
     0
100
AcDbLine
 10
24.38376511869276
 20
10.2141054254406
 30
0.0
 11
23.29849177133016
 21
11.29937877280321
 31
0.0
  0
LINE
  5
CA
330
8D
100
AcDbEntity
  8
0
 62
     0
100
AcDbLine
 10
30.9868097338832
 20
3.611060810250194
 30
0.0
 11
29.62287020468372
 21
4.975000339449677
 31
0.0
  0
LINE
  5
CB
330
8D
100
AcDbEntity
  8
0
 62
     0
100
AcDbLine
 10
24.19610582087759
 20
9.952751917202306
 30
0.0
 11
23.07943574180788
 21
11.06942199627201
 31
0.0
  0
LINE
  5
CC
330
8D
100
AcDbEntity
  8
0
 62
     0
100
AcDbLine
 10
30.57385739863028
 20
3.575000339449643
 30
0.0
 11
27.52110582087755
 21
6.627751917202373
 31
0.0
  0
LINE
  5
CD
330
8D
100
AcDbEntity
  8
0
 62
     0
100
AcDbLine
 10
24.19610582087762
 20
9.503739111148886
 30
0.0
 11
22.91355028563137
 21
10.78629464639513
 31
0.0
  0
LINE
  5
CE
330
8D
100
AcDbEntity
  8
0
 62
     0
100
AcDbLine
 10
30.12484459257683
 20
3.575000339449643
 30
0.0
 11
27.52110582087755
 21
6.178739111148956
 31
0.0
  0
LINE
  5
CF
330
8D
100
AcDbEntity
  8
0
 62
     0
100
AcDbLine
 10
24.29937796142948
 20
8.951454164543546
 30
0.0
 11
22.81246102594931
 21
10.43837110002368
 31
0.0
  0
LINE
  5
D0
330
8D
100
AcDbEntity
  8
0
 62
     0
100
AcDbLine
 10
29.67583178652338
 20
3.575000339449643
 30
0.0
 11
27.52110582087755
 21
5.729726305095481
 31
0.0
  0
LINE
  5
D1
330
8D
100
AcDbEntity
  8
0
 62
     0
100
AcDbLine
 10
26.40790767222324
 20
6.393911647696312
 30
0.0
 11
22.79610582087755
 21
10.00571349904197
 31
0.0
  0
LINE
  5
D2
330
8D
100
AcDbEntity
  8
0
 62
     0
100
AcDbLine
 10
21.74610582087751
 20
11.05571349904201
 30
0.0
 11
21.17681898046987
 21
11.62500033944968
 31
0.0
  0
LINE
  5
D3
330
8D
100
AcDbEntity
  8
0
 62
     0
100
AcDbLine
 10
29.22681898046991
 20
3.575000339449643
 30
0.0
 11
27.52110582087752
 21
5.280713499042008
 31
0.0
  0
LINE
  5
D4
330
8D
100
AcDbEntity
  8
0
 62
     0
100
AcDbLine
 10
26.47110582087759
 20
5.881700692988545
 30
0.0
 11
22.79610582087757
 21
9.556700692988556
 31
0.0
  0
LINE
  5
D5
330
8D
100
AcDbEntity
  8
0
 62
     0
100
AcDbLine
 10
21.74610582087757
 20
10.60670069298853
 30
0.0
 11
20.7278061744164
 21
11.62500033944974
 31
0.0
  0
LINE
  5
D6
330
8D
100
AcDbEntity
  8
0
 62
     0
100
AcDbLine
 10
28.76958223504403
 20
3.583224278822115
 30
0.0
 11
27.52932976025002
 21
4.82347675361612
 31
0.0
  0
LINE
  5
D7
330
8D
100
AcDbEntity
  8
0
 62
     0
100
AcDbLine
 10
21.74610582087757
 20
10.15768788693509
 30
0.0
 11
20.39241087698991
 21
11.51138283082272
 31
0.0
  0
LINE
  5
D8
330
8D
100
AcDbEntity
  8
0
 62
     0
100
AcDbLine
 10
26.47110582087757
 20
5.43268788693507
 30
0.0
 11
22.80781115481875
 21
9.095982552993916
 31
0.0
  0
LINE
  5
D9
330
8D
100
AcDbEntity
  8
0
 62
     0
100
AcDbLine
 10
21.74610582087757
 20
9.708675080881619
 30
0.0
 11
20.34610582087756
 21
11.10867508088159
 31
0.0
  0
LINE
  5
DA
330
8D
100
AcDbEntity
  8
0
 62
     0
100
AcDbLine
 10
26.47110582087752
 20
4.983675080881653
 30
0.0
 11
22.96687086373876
 21
8.487910038020428
 31
0.0
  0
LINE
  5
DB
330
8D
100
AcDbEntity
  8
0
 62
     0
100
AcDbLine
 10
21.74610582087757
 20
9.259662274828171
 30
0.0
 11
20.34610582087759
 21
10.65966227482814
 31
0.0
  0
LINE
  5
DC
330
8D
100
AcDbEntity
  8
0
 62
     0
100
AcDbLine
 10
26.41682491208303
 20
4.588943183622716
 30
0.0
 11
25.06900751756387
 21
5.93676057814187
 31
0.0
  0
LINE
  5
DD
330
8D
100
AcDbEntity
  8
0
 62
     0
100
AcDbLine
 10
21.74610582087757
 20
8.810649468774727
 30
0.0
 11
20.34610582087756
 21
10.2106494687747
 31
0.0
  0
LINE
  5
DE
330
8D
100
AcDbEntity
  8
0
 62
     0
100
AcDbLine
 10
19.20036237058906
 20
11.35639291906321
 30
0.0
 11
18.93175495020261
 21
11.62500033944968
 31
0.0
  0
LINE
  5
DF
330
8D
100
AcDbEntity
  8
0
 62
     0
100
AcDbLine
 10
26.28288705820224
 20
4.273868231450051
 30
0.0
 11
25.07110582087759
 21
5.485649468774709
 31
0.0
  0
LINE
  5
E0
330
8D
100
AcDbEntity
  8
0
 62
     0
100
AcDbLine
 10
21.74610582087754
 20
8.361636662721252
 30
0.0
 11
20.34610582087756
 21
9.761636662721258
 31
0.0
  0
LINE
  5
E1
330
8D
100
AcDbEntity
  8
0
 62
     0
100
AcDbLine
 10
19.10089853846275
 20
11.00684394513604
 30
0.0
 11
18.48274214414914
 21
11.62500033944968
 31
0.0
  0
LINE
  5
E2
330
8D
100
AcDbEntity
  8
0
 62
     0
100
AcDbLine
 10
26.0913936591146
 20
4.016348824484224
 30
0.0
 11
25.02246322943435
 21
5.085279254164476
 31
0.0
  0
LINE
  5
E3
330
8D
100
AcDbEntity
  8
0
 62
     0
100
AcDbLine
 10
21.74610582087754
 20
7.912623856667806
 30
0.0
 11
20.34610582087756
 21
9.312623856667784
 31
0.0
  0
LINE
  5
E4
330
8D
100
AcDbEntity
  8
0
 62
     0
100
AcDbLine
 10
18.99313546500991
 20
10.6655942125354
 30
0.0
 11
18.03852768327462
 21
11.62020199427072
 31
0.0
  0
LINE
  5
E5
330
8D
100
AcDbEntity
  8
0
 62
     0
100
AcDbLine
 10
25.84823417655679
 20
3.810495500988537
 30
0.0
 11
24.68372933809567
 21
4.975000339449677
 31
0.0
  0
LINE
  5
E6
330
8D
100
AcDbEntity
  8
0
 62
     0
100
AcDbLine
 10
21.74610582087757
 20
7.46361105061436
 30
0.0
 11
20.34610582087756
 21
8.863611050614338
 31
0.0
  0
LINE
  5
E7
330
8D
100
AcDbEntity
  8
0
 62
     0
100
AcDbLine
 10
18.88537239155715
 20
10.32434447993477
 30
0.0
 11
17.82137239155713
 21
11.3883444799348
 31
0.0
  0
LINE
  5
E8
330
8D
100
AcDbEntity
  8
0
 62
     0
100
AcDbLine
 10
25.5501922023266
 20
3.659524669165306
 30
0.0
 11
24.23471653204222
 21
4.975000339449707
 31
0.0
  0
LINE
  5
E9
330
8D
100
AcDbEntity
  8
0
 62
     0
100
AcDbLine
 10
21.74610582087754
 20
7.014598244560914
 30
0.0
 11
20.34610582087756
 21
8.414598244560892
 31
0.0
  0
LINE
  5
EA
330
8D
100
AcDbEntity
  8
0
 62
     0
100
AcDbLine
 10
18.77760931810422
 20
9.983094747334234
 30
0.0
 11
17.71360931810423
 21
11.04709474733422
 31
0.0
  0
LINE
  5
EB
330
8D
100
AcDbEntity
  8
0
 62
     0
100
AcDbLine
 10
25.18135587650286
 20
3.579348188935596
 30
0.0
 11
23.78570372598878
 21
4.975000339449677
 31
0.0
  0
LINE
  5
EC
330
8D
100
AcDbEntity
  8
0
 62
     0
100
AcDbLine
 10
21.74610582087754
 20
6.565585438507439
 30
0.0
 11
20.34610582087754
 21
7.965585438507417
 31
0.0
  0
LINE
  5
ED
330
8D
100
AcDbEntity
  8
0
 62
     0
100
AcDbLine
 10
18.66984624465144
 20
9.641845014733547
 30
0.0
 11
17.60584624465138
 21
10.70584501473357
 31
0.0
  0
LINE
  5
EE
330
8D
100
AcDbEntity
  8
0
 62
     0
100
AcDbLine
 10
24.73669091993534
 20
3.575000339449643
 30
0.0
 11
23.33669091993531
 21
4.975000339449677
 31
0.0
  0
LINE
  5
EF
330
8D
100
AcDbEntity
  8
0
 62
     0
100
AcDbLine
 10
21.74610582087754
 20
6.116572632453993
 30
0.0
 11
20.34610582087756
 21
7.516572632453999
 31
0.0
  0
LINE
  5
F0
330
8D
100
AcDbEntity
  8
0
 62
     0
100
AcDbLine
 10
18.56208317119862
 20
9.300595282132944
 30
0.0
 11
17.49808317119857
 21
10.36459528213296
 31
0.0
  0
LINE
  5
F1
330
8D
100
AcDbEntity
  8
0
 62
     0
100
AcDbLine
 10
24.28767811388189
 20
3.575000339449672
 30
0.0
 11
23.0708722652337
 21
4.791806188097864
 31
0.0
  0
LINE
  5
F2
330
8D
100
AcDbEntity
  8
0
 62
     0
100
AcDbLine
 10
18.4543200977458
 20
8.959345549532256
 30
0.0
 11
17.39032009774575
 21
10.02334554953233
 31
0.0
  0
LINE
  5
F3
330
8D
100
AcDbEntity
  8
0
 62
     0
100
AcDbLine
 10
21.74610582087754
 20
5.667559826400547
 30
0.0
 11
20.34610582087756
 21
7.067559826400525
 31
0.0
  0
LINE
  5
F4
330
8D
100
AcDbEntity
  8
0
 62
     0
100
AcDbLine
 10
16.32110582087756
 20
11.09255982640053
 30
0.0
 11
15.78866530782841
 21
11.62500033944965
 31
0.0
  0
LINE
  5
F5
330
8D
100
AcDbEntity
  8
0
 62
     0
100
AcDbLine
 10
23.83866530782845
 20
3.575000339449643
 30
0.0
 11
23.05860582087757
 21
4.35505982640052
 31
0.0
  0
LINE
  5
F6
330
8D
100
AcDbEntity
  8
0
 62
     0
100
AcDbLine
 10
18.3465570242929
 20
8.618095816931711
 30
0.0
 11
17.28255702429294
 21
9.682095816931678
 31
0.0
  0
LINE
  5
F7
330
8D
100
AcDbEntity
  8
0
 62
     0
100
AcDbLine
 10
21.74610582087754
 20
5.218547020347074
 30
0.0
 11
20.34610582087754
 21
6.618547020347079
 31
0.0
  0
LINE
  5
F8
330
8D
100
AcDbEntity
  8
0
 62
     0
100
AcDbLine
 10
16.32110582087756
 20
10.64354702034705
 30
0.0
 11
15.33965250177496
 21
11.62500033944965
 31
0.0
  0
LINE
  5
F9
330
8D
100
AcDbEntity
  8
0
 62
     0
100
AcDbLine
 10
23.38965250177494
 20
3.575000339449672
 30
0.0
 11
23.05860582087754
 21
3.906047020347044
 31
0.0
  0
LINE
  5
FA
330
8D
100
AcDbEntity
  8
0
 62
     0
100
AcDbLine
 10
18.23879395084009
 20
8.276846084331053
 30
0.0
 11
17.17479395084007
 21
9.340846084331076
 31
0.0
  0
LINE
  5
FB
330
8D
100
AcDbEntity
  8
0
 62
     0
100
AcDbLine
 10
16.32110582087753
 20
10.19453421429358
 30
0.0
 11
14.98338335642873
 21
11.53225667874241
 31
0.0
  0
LINE
  5
FC
330
8D
100
AcDbEntity
  8
0
 62
     0
100
AcDbLine
 10
21.74610582087751
 20
4.769534214293627
 30
0.0
 11
20.34610582087754
 21
6.169534214293604
 31
0.0
  0
LINE
  5
FD
330
8D
100
AcDbEntity
  8
0
 62
     0
100
AcDbLine
 10
18.13103087738727
 20
7.935596351730451
 30
0.0
 11
17.06703087738728
 21
8.999596351730446
 31
0.0
  0
LINE
  5
FE
330
8D
100
AcDbEntity
  8
0
 62
     0
100
AcDbLine
 10
16.32110582087756
 20
9.745521408240165
 30
0.0
 11
14.92110582087752
 21
11.14552140824017
 31
0.0
  0
LINE
  5
FF
330
8D
100
AcDbEntity
  8
0
 62
     0
100
AcDbLine
 10
21.74610582087754
 20
4.320521408240181
 30
0.0
 11
20.34610582087754
 21
5.720521408240159
 31
0.0
  0
LINE
  5
100
330
8D
100
AcDbEntity
  8
0
 62
     0
100
AcDbLine
 10
18.02848662269123
 20
7.589127800373005
 30
0.0
 11
16.95926780393441
 21
8.658346619129844
 31
0.0
  0
LINE
  5
101
330
8D
100
AcDbEntity
  8
0
 62
     0
100
AcDbLine
 10
16.32110582087756
 20
9.296508602186689
 30
0.0
 11
14.92110582087752
 21
10.69650860218672
 31
0.0
  0
LINE
  5
102
330
8D
100
AcDbEntity
  8
0
 62
     0
100
AcDbLine
 10
21.74610582087751
 20
3.871508602186708
 30
0.0
 11
20.34610582087754
 21
5.271508602186712
 31
0.0
  0
LINE
  5
103
330
8D
100
AcDbEntity
  8
0
 62
     0
100
AcDbLine
 10
18.23572330240824
 20
6.932878314602532
 30
0.0
 11
16.8139940560921
 21
8.35460756091868
 31
0.0
  0
LINE
  5
104
330
8D
100
AcDbEntity
  8
0
 62
     0
100
AcDbLine
 10
16.32110582087759
 20
8.847495796133188
 30
0.0
 11
14.9211058208775
 21
10.24749579613325
 31
0.0
  0
LINE
  5
105
330
8D
100
AcDbEntity
  8
0
 62
     0
100
AcDbLine
 10
21.57658332221135
 20
3.592018294799401
 30
0.0
 11
20.34610582087756
 21
4.822495796133209
 31
0.0
  0
LINE
  5
106
330
8D
100
AcDbEntity
  8
0
 62
     0
100
AcDbLine
 10
18.44295998212524
 20
6.276628828832116
 30
0.0
 11
14.92110582087752
 21
9.798482990079831
 31
0.0
  0
LINE
  5
107
330
8D
100
AcDbEntity
  8
0
 62
     0
100
AcDbLine
 10
13.69610582087759
 20
11.02348299007977
 30
0.0
 11
13.0945884715077
 21
11.62500033944965
 31
0.0
  0
LINE
  5
108
330
8D
100
AcDbEntity
  8
0
 62
     0
100
AcDbLine
 10
21.14458847150771
 20
3.575000339449643
 30
0.0
 11
20.34610582087759
 21
4.373482990079763
 31
0.0
  0
LINE
  5
109
330
8D
100
AcDbEntity
  8
0
 62
     0
100
AcDbLine
 10
18.65019666184227
 20
5.620379343061612
 30
0.0
 11
14.92110582087752
 21
9.349470184026356
 31
0.0
  0
LINE
  5
10A
330
8D
100
AcDbEntity
  8
0
 62
     0
100
AcDbLine
 10
13.69610582087759
 20
10.57447018402629
 30
0.0
 11
12.6455756654542
 21
11.62500033944968
 31
0.0
  0
LINE
  5
10B
330
8D
100
AcDbEntity
  8
0
 62
     0
100
AcDbLine
 10
20.69557566545424
 20
3.575000339449616
 30
0.0
 11
20.34610582087756
 21
3.924470184026318
 31
0.0
  0
LINE
  5
10C
330
8D
100
AcDbEntity
  8
0
 62
     0
100
AcDbLine
 10
13.56265247318253
 20
10.25891072566787
 30
0.0
 11
12.21254161407682
 21
11.60902158477355
 31
0.0
  0
LINE
  5
10D
330
8D
100
AcDbEntity
  8
0
 62
     0
100
AcDbLine
 10
18.85743334155924
 20
4.964129857291169
 30
0.0
 11
14.92110582087755
 21
8.900457377972855
 31
0.0
  0
LINE
  5
10E
330
8D
100
AcDbEntity
  8
0
 62
     0
100
AcDbLine
 10
16.48986028204836
 20
6.882690110748597
 30
0.0
 11
14.92110582087755
 21
8.45144457191941
 31
0.0
  0
LINE
  5
10F
330
8D
100
AcDbEntity
  8
0
 62
     0
100
AcDbLine
 10
13.14755005334731
 20
10.22500033944962
 30
0.0
 11
11.84352007928319
 21
11.52903031351377
 31
0.0
  0
LINE
  5
110
330
8D
100
AcDbEntity
  8
0
 62
     0
100
AcDbLine
 10
19.06467002127627
 20
4.307880371520695
 30
0.0
 11
17.01851617512221
 21
6.354034217674751
 31
0.0
  0
LINE
  5
111
330
8D
100
AcDbEntity
  8
0
 62
     0
100
AcDbLine
 10
16.32110582087759
 20
6.602431765865929
 30
0.0
 11
14.92110582087755
 21
8.002431765865964
 31
0.0
  0
LINE
  5
112
330
8D
100
AcDbEntity
  8
0
 62
     0
100
AcDbLine
 10
12.69853724729381
 20
10.22500033944967
 30
0.0
 11
11.52415937136783
 21
11.39937821537566
 31
0.0
  0
LINE
  5
113
330
8D
100
AcDbEntity
  8
0
 62
     0
100
AcDbLine
 10
19.18218945013157
 20
3.741348136611918
 30
0.0
 11
17.22575285483927
 21
5.697784731904249
 31
0.0
  0
LINE
  5
114
330
8D
100
AcDbEntity
  8
0
 62
     0
100
AcDbLine
 10
16.32110582087756
 20
6.153418959812482
 30
0.0
 11
14.92110582087752
 21
7.553418959812488
 31
0.0
  0
LINE
  5
115
330
8D
100
AcDbEntity
  8
0
 62
     0
100
AcDbLine
 10
12.27698049602204
 20
10.19754428466799
 30
0.0
 11
11.24478488370056
 21
11.22973989698948
 31
0.0
  0
LINE
  5
116
330
8D
100
AcDbEntity
  8
0
 62
     0
100
AcDbLine
 10
18.8995244412404
 20
3.575000339449643
 30
0.0
 11
17.43298953455627
 21
5.041535246133776
 31
0.0
  0
LINE
  5
117
330
8D
100
AcDbEntity
  8
0
 62
     0
100
AcDbLine
 10
16.32110582087756
 20
5.704406153759008
 30
0.0
 11
14.92110582087752
 21
7.104406153759042
 31
0.0
  0
LINE
  5
118
330
8D
100
AcDbEntity
  8
0
 62
     0
100
AcDbLine
 10
11.99105239960255
 20
10.03445957503402
 30
0.0
 11
11.00095727939466
 21
11.0245546952419
 31
0.0
  0
LINE
  5
119
330
8D
100
AcDbEntity
  8
0
 62
     0
100
AcDbLine
 10
18.45051163518692
 20
3.575000339449643
 30
0.0
 11
17.64022621427327
 21
4.385285760363301
 31
0.0
  0
LINE
  5
11A
330
8D
100
AcDbEntity
  8
0
 62
     0
100
AcDbLine
 10
13.86382038727643
 20
7.712678781306721
 30
0.0
 11
13.10878426273456
 21
8.467714905848595
 31
0.0
  0
LINE
  5
11B
330
8D
100
AcDbEntity
  8
0
 62
     0
100
AcDbLine
 10
16.32110582087761
 20
5.255393347705535
 30
0.0
 11
14.92110582087755
 21
6.655393347705597
 31
0.0
  0
LINE
  5
11C
330
8D
100
AcDbEntity
  8
0
 62
     0
100
AcDbLine
 10
11.81299161453807
 20
9.763507554045077
 30
0.0
 11
10.79127426638905
 21
10.7852249021941
 31
0.0
  0
LINE
  5
11D
330
8D
100
AcDbEntity
  8
0
 62
     0
100
AcDbLine
 10
17.97633232703117
 20
3.600166841551981
 30
0.0
 11
17.85115524123551
 21
3.725343927347636
 31
0.0
  0
LINE
  5
11E
330
8D
100
AcDbEntity
  8
0
 62
     0
100
AcDbLine
 10
13.82056355720547
 20
7.306922805324204
 30
0.0
 11
12.70302828675204
 21
8.424458075777636
 31
0.0
  0
LINE
  5
11F
330
8D
100
AcDbEntity
  8
0
 62
     0
100
AcDbLine
 10
11.7711058208776
 20
9.356380541652072
 30
0.0
 11
10.61680475590822
 21
10.51068160662146
 31
0.0
  0
LINE
  5
120
330
8D
100
AcDbEntity
  8
0
 62
     0
100
AcDbLine
 10
16.32110582087759
 20
4.806380541652059
 30
0.0
 11
14.92110582087752
 21
6.20638054165215
 31
0.0
  0
LINE
  5
121
330
8D
100
AcDbEntity
  8
0
 62
     0
100
AcDbLine
 10
13.65463577755645
 20
7.023837778919728
 30
0.0
 11
12.41994326034756
 21
8.258530296128611
 31
0.0
  0
LINE
  5
122
330
8D
100
AcDbEntity
  8
0
 62
     0
100
AcDbLine
 10
11.7711058208776
 20
8.907367735598597
 30
0.0
 11
10.48151490230313
 21
10.19695865417307
 31
0.0
  0
LINE
  5
123
330
8D
100
AcDbEntity
  8
0
 62
     0
100
AcDbLine
 10
16.32110582087759
 20
4.357367735598614
 30
0.0
 11
14.92110582087755
 21
5.757367735598649
 31
0.0
  0
LINE
  5
124
330
8D
100
AcDbEntity
  8
0
 62
     0
100
AcDbLine
 10
11.7711058208776
 20
8.45835492954515
 30
0.0
 11
10.3941579658402
 21
9.83530278458258
 31
0.0
  0
LINE
  5
125
330
8D
100
AcDbEntity
  8
0
 62
     0
100
AcDbLine
 10
13.40371905648822
 20
6.825741693934559
 30
0.0
 11
12.22184717536239
 21
8.007613575060389
 31
0.0
  0
LINE
  5
126
330
8D
100
AcDbEntity
  8
0
 62
     0
100
AcDbLine
 10
9.058605820877572
 20
11.17085492954521
 30
0.0
 11
8.604460410973075
 21
11.62500033944971
 31
0.0
  0
LINE
  5
127
330
8D
100
AcDbEntity
  8
0
 62
     0
100
AcDbLine
 10
16.32110582087761
 20
3.908354929545167
 30
0.0
 11
14.92110582087758
 21
5.308354929545203
 31
0.0
  0
LINE
  5
128
330
8D
100
AcDbEntity
  8
0
 62
     0
100
AcDbLine
 10
11.7711058208776
 20
8.009342123491705
 30
0.0
 11
10.37110582087757
 21
9.40934212349174
 31
0.0
  0
LINE
  5
129
330
8D
100
AcDbEntity
  8
0
 62
     0
100
AcDbLine
 10
13.05355933527451
 20
6.7268886090948
 30
0.0
 11
12.12299409052263
 21
7.657453853846675
 31
0.0
  0
LINE
  5
12A
330
8D
100
AcDbEntity
  8
0
 62
     0
100
AcDbLine
 10
9.058605820877541
 20
10.72184212349174
 30
0.0
 11
8.155447604919601
 21
11.62500033944968
 31
0.0
  0
LINE
  5
12B
330
8D
100
AcDbEntity
  8
0
 62
     0
100
AcDbLine
 10
16.17715392024226
 20
3.603294024127051
 30
0.0
 11
14.92110582087755
 21
4.859342123491728
 31
0.0
  0
LINE
  5
12C
330
8D
100
AcDbEntity
  8
0
 62
     0
100
AcDbLine
 10
11.7711058208776
 20
7.560329317438231
 30
0.0
 11
10.37110582087757
 21
8.960329317438265
 31
0.0
  0
LINE
  5
12D
330
8D
100
AcDbEntity
  8
0
 62
     0
100
AcDbLine
 10
9.004088835742379
 20
10.32734630257346
 30
0.0
 11
7.706434798866097
 21
11.62500033944971
 31
0.0
  0
LINE
  5
12E
330
8D
100
AcDbEntity
  8
0
 62
     0
100
AcDbLine
 10
15.75643479886616
 20
3.575000339449672
 30
0.0
 11
14.92110582087755
 21
4.410329317438282
 31
0.0
  0
LINE
  5
12F
330
8D
100
AcDbEntity
  8
0
 62
     0
100
AcDbLine
 10
11.77110582087758
 20
7.111316511384785
 30
0.0
 11
10.37110582087754
 21
8.511316511384791
 31
0.0
  0
LINE
  5
130
330
8D
100
AcDbEntity
  8
0
 62
     0
100
AcDbLine
 10
8.657421992812713
 20
10.22500033944965
 30
0.0
 11
7.257421992812652
 21
11.62500033944971
 31
0.0
  0
LINE
  5
131
330
8D
100
AcDbEntity
  8
0
 62
     0
100
AcDbLine
 10
15.30742199281269
 20
3.575000339449643
 30
0.0
 11
14.92110582087755
 21
3.961316511384807
 31
0.0
  0
LINE
  5
132
330
8D
100
AcDbEntity
  8
0
 62
     0
100
AcDbLine
 10
11.7711058208776
 20
6.662303705331338
 30
0.0
 11
10.37110582087757
 21
8.062303705331371
 31
0.0
  0
LINE
  5
133
330
8D
100
AcDbEntity
  8
0
 62
     0
100
AcDbLine
 10
8.208409186759267
 20
10.22500033944965
 30
0.0
 11
6.825844550706817
 21
11.60756497550212
 31
0.0
  0
LINE
  5
134
330
8D
100
AcDbEntity
  8
0
 62
     0
100
AcDbLine
 10
13.6948045964591
 20
4.73860492974981
 30
0.0
 11
13.45971041117775
 21
4.973699115031195
 31
0.0
  0
LINE
  5
135
330
8D
100
AcDbEntity
  8
0
 62
     0
100
AcDbLine
 10
11.77110582087758
 20
6.213290899277864
 30
0.0
 11
10.37110582087757
 21
7.613290899277898
 31
0.0
  0
LINE
  5
136
330
8D
100
AcDbEntity
  8
0
 62
     0
100
AcDbLine
 10
7.759396380705823
 20
10.22500033944965
 30
0.0
 11
6.47927714646758
 21
11.50511957368789
 31
0.0
  0
LINE
  5
137
330
8D
100
AcDbEntity
  8
0
 62
     0
100
AcDbLine
 10
13.69610582087761
 20
4.288290899277853
 30
0.0
 11
13.00939638070579
 21
4.975000339449677
 31
0.0
  0
LINE
  5
138
330
8D
100
AcDbEntity
  8
0
 62
     0
100
AcDbLine
 10
11.77110582087758
 20
5.764278093224419
 30
0.0
 11
10.3711058208776
 21
7.164278093224396
 31
0.0
  0
LINE
  5
139
330
8D
100
AcDbEntity
  8
0
 62
     0
100
AcDbLine
 10
7.310383574652347
 20
10.22500033944962
 30
0.0
 11
6.197153816543959
 21
11.33823009755801
 31
0.0
  0
LINE
  5
13A
330
8D
100
AcDbEntity
  8
0
 62
     0
100
AcDbLine
 10
13.69610582087759
 20
3.839278093224378
 30
0.0
 11
12.56038357465234
 21
4.97500033944962
 31
0.0
  0
LINE
  5
13B
330
8D
100
AcDbEntity
  8
0
 62
     0
100
AcDbLine
 10
7.055237160845052
 20
10.03113394720352
 30
0.0
 11
5.968107410423583
 21
11.11826369762499
 31
0.0
  0
LINE
  5
13C
330
8D
100
AcDbEntity
  8
0
 62
     0
100
AcDbLine
 10
13.50223942863141
 20
3.584131679417168
 30
0.0
 11
10.3711058208776
 21
6.715265287170979
 31
0.0
  0
LINE
  5
13D
330
8D
100
AcDbEntity
  8
0
 62
     0
100
AcDbLine
 10
7.046105820877585
 20
9.591252481117519
 30
0.0
 11
5.791366809189042
 21
10.84599149280606
 31
0.0
  0
LINE
  5
13E
330
8D
100
AcDbEntity
  8
0
 62
     0
100
AcDbLine
 10
13.06235796254546
 20
3.575000339449643
 30
0.0
 11
10.3711058208776
 21
6.266252481117503
 31
0.0
  0
LINE
  5
13F
330
8D
100
AcDbEntity
  8
0
 62
     0
100
AcDbLine
 10
7.077173674945298
 20
9.111171820996304
 30
0.0
 11
5.675926758042179
 21
10.51241873789945
 31
0.0
  0
LINE
  5
140
330
8D
100
AcDbEntity
  8
0
 62
     0
100
AcDbLine
 10
12.61334515649195
 20
3.575000339449672
 30
0.0
 11
10.37110582087757
 21
5.817239675064029
 31
0.0
  0
LINE
  5
141
330
8D
100
AcDbEntity
  8
0
 62
     0
100
AcDbLine
 10
9.223293866488916
 20
6.516038823399269
 30
0.0
 11
5.646105820877607
 21
10.09322686901057
 31
0.0
  0
LINE
  5
142
330
8D
100
AcDbEntity
  8
0
 62
     0
100
AcDbLine
 10
12.13769630691018
 20
3.601636382978
 30
0.0
 11
10.3977418644059
 21
5.341590825482285
 31
0.0
  0
LINE
  5
143
330
8D
100
AcDbEntity
  8
0
 62
     0
100
AcDbLine
 10
9.319241123531524
 20
5.971078760303213
 30
0.0
 11
5.646105820877551
 21
9.644214062957187
 31
0.0
  0
LINE
  5
144
330
8D
100
AcDbEntity
  8
0
 62
     0
100
AcDbLine
 10
11.45079235060939
 20
3.839527533225321
 30
0.0
 11
10.63563301465319
 21
4.654686869181546
 31
0.0
  0
LINE
  5
145
330
8D
100
AcDbEntity
  8
0
 62
     0
100
AcDbLine
 10
9.321105820877619
 20
5.520201256903646
 30
0.0
 11
5.649888044588749
 21
9.191419033192488
 31
0.0
  0
LINE
  5
146
330
8D
100
AcDbEntity
  8
0
 62
     0
100
AcDbLine
 10
9.321105820877562
 20
5.071188450850228
 30
0.0
 11
5.761533423750678
 21
8.630760847977086
 31
0.0
  0
LINE
  5
147
330
8D
100
AcDbEntity
  8
0
 62
     0
100
AcDbLine
 10
9.284845822811604
 20
4.658435642862769
 30
0.0
 11
7.903150001002074
 21
6.040131464672298
 31
0.0
  0
LINE
  5
148
330
8D
100
AcDbEntity
  8
0
 62
     0
100
AcDbLine
 10
9.16387685329718
 20
4.330391806323716
 30
0.0
 11
7.921105820877556
 21
5.573162838743343
 31
0.0
  0
LINE
  5
149
330
8D
100
AcDbEntity
  8
0
 62
     0
100
AcDbLine
 10
8.982817229606297
 20
4.062438623961128
 30
0.0
 11
7.903156304727217
 21
5.142099548840207
 31
0.0
  0
LINE
  5
14A
330
8D
100
AcDbEntity
  8
0
 62
     0
100
AcDbLine
 10
8.74970404347286
 20
3.846539004041118
 30
0.0
 11
7.621242708064301
 21
4.975000339449707
 31
0.0
  0
LINE
  5
14B
330
8D
100
AcDbEntity
  8
0
 62
     0
100
AcDbLine
 10
8.463071819606454
 20
3.684158421854078
 30
0.0
 11
7.172229902010825
 21
4.975000339449677
 31
0.0
  0
LINE
  5
14C
330
8D
100
AcDbEntity
  8
0
 62
     0
100
AcDbLine
 10
8.110365525063484
 20
3.587851910343573
 30
0.0
 11
6.723217095957378
 21
4.975000339449677
 31
0.0
  0
LINE
  5
14D
330
8D
100
AcDbEntity
  8
0
 62
     0
100
AcDbLine
 10
7.674204289903912
 20
3.575000339449672
 30
0.0
 11
6.274204289903906
 21
4.975000339449677
 31
0.0
  0
LINE
  5
14E
330
8D
100
AcDbEntity
  8
0
 62
     0
100
AcDbLine
 10
7.225191483850494
 20
3.575000339449643
 30
0.0
 11
5.948529536441554
 21
4.851662286858612
 31
0.0
  0
LINE
  5
14F
330
8D
100
AcDbEntity
  8
0
 62
     0
100
AcDbLine
 10
6.77617867779699
 20
3.575000339449672
 30
0.0
 11
5.908605820877595
 21
4.442573196369068
 31
0.0
  0
LINE
  5
150
330
8D
100
AcDbEntity
  8
0
 62
     0
100
AcDbLine
 10
6.327165871743574
 20
3.575000339449643
 30
0.0
 11
5.908605820877595
 21
3.993560390315622
 31
0.0
  0
LINE
  5
151
330
8D
100
AcDbEntity
  8
0
 62
     0
100
AcDbLine
 10
34.31694946321104
 20
3.581566228008426
 30
0.0
 11
34.51453993231893
 21
3.779156697116319
 31
0.0
  0
LINE
  5
152
330
8D
100
AcDbEntity
  8
0
 62
     0
100
AcDbLine
 10
33.86137076859887
 20
3.575000339449643
 30
0.0
 11
34.52110582087767
 21
4.234735391728463
 31
0.0
  0
LINE
  5
153
330
8D
100
AcDbEntity
  8
0
 62
     0
100
AcDbLine
 10
33.4123579625454
 20
3.575000339449672
 30
0.0
 11
34.52110582087767
 21
4.683748197781909
 31
0.0
  0
LINE
  5
154
330
8D
100
AcDbEntity
  8
0
 62
     0
100
AcDbLine
 10
33.13670460250349
 20
3.748359785461218
 30
0.0
 11
34.52110582087764
 21
5.132761003835383
 31
0.0
  0
LINE
  5
155
330
8D
100
AcDbEntity
  8
0
 62
     0
100
AcDbLine
 10
33.1211058208776
 20
4.181773809888794
 30
0.0
 11
34.52110582087764
 21
5.5817738098888
 31
0.0
  0
LINE
  5
156
330
8D
100
AcDbEntity
  8
0
 62
     0
100
AcDbLine
 10
33.12110582087763
 20
4.63078661594224
 30
0.0
 11
34.52110582087764
 21
6.030786615942275
 31
0.0
  0
LINE
  5
157
330
8D
100
AcDbEntity
  8
0
 62
     0
100
AcDbLine
 10
33.1211058208776
 20
5.079799421995716
 30
0.0
 11
34.52110582087764
 21
6.479799421995749
 31
0.0
  0
LINE
  5
158
330
8D
100
AcDbEntity
  8
0
 62
     0
100
AcDbLine
 10
33.1211058208776
 20
5.528812228049162
 30
0.0
 11
34.52110582087764
 21
6.928812228049196
 31
0.0
  0
LINE
  5
159
330
8D
100
AcDbEntity
  8
0
 62
     0
100
AcDbLine
 10
31.33438825191024
 20
3.7420946590818
 30
0.0
 11
31.90401150124552
 21
4.311717908417108
 31
0.0
  0
LINE
  5
15A
330
8D
100
AcDbEntity
  8
0
 62
     0
100
AcDbLine
 10
33.1211058208776
 20
5.977825034102608
 30
0.0
 11
34.52110582087764
 21
7.377825034102642
 31
0.0
  0
LINE
  5
15B
330
8D
100
AcDbEntity
  8
0
 62
     0
100
AcDbLine
 10
30.71910416864884
 20
3.575823381873846
 30
0.0
 11
32.0702827784535
 21
4.92700199167848
 31
0.0
  0
LINE
  5
15C
330
8D
100
AcDbEntity
  8
0
 62
     0
100
AcDbLine
 10
33.1211058208776
 20
6.426837840156081
 30
0.0
 11
34.52110582087764
 21
7.826837840156088
 31
0.0
  0
LINE
  5
15D
330
8D
100
AcDbEntity
  8
0
 62
     0
100
AcDbLine
 10
30.26926832017122
 20
3.575000339449701
 30
0.0
 11
32.07110582087764
 21
5.376837840156098
 31
0.0
  0
LINE
  5
15E
330
8D
100
AcDbEntity
  8
0
 62
     0
100
AcDbLine
 10
33.1211058208776
 20
6.875850646209527
 30
0.0
 11
34.5211058208776
 21
8.275850646209562
 31
0.0
  0
LINE
  5
15F
330
8D
100
AcDbEntity
  8
0
 62
     0
100
AcDbLine
 10
29.82025551411775
 20
3.575000339449701
 30
0.0
 11
32.07110582087762
 21
5.825850646209572
 31
0.0
  0
LINE
  5
160
330
8D
100
AcDbEntity
  8
0
 62
     0
100
AcDbLine
 10
33.1211058208776
 20
7.324863452262973
 30
0.0
 11
34.52110582087764
 21
8.724863452263008
 31
0.0
  0
LINE
  5
161
330
8D
100
AcDbEntity
  8
0
 62
     0
100
AcDbLine
 10
29.37124270806427
 20
3.575000339449643
 30
0.0
 11
32.07110582087764
 21
6.274863452263018
 31
0.0
  0
LINE
  5
162
330
8D
100
AcDbEntity
  8
0
 62
     0
100
AcDbLine
 10
30.61881021983708
 20
5.271580657275933
 30
0.0
 11
32.07110582087764
 21
6.723876258316464
 31
0.0
  0
LINE
  5
163
330
8D
100
AcDbEntity
  8
0
 62
     0
100
AcDbLine
 10
33.1211058208776
 20
7.77387625831642
 30
0.0
 11
34.52110582087764
 21
9.173876258316454
 31
0.0
  0
LINE
  5
164
330
8D
100
AcDbEntity
  8
0
 62
     0
100
AcDbLine
 10
28.92222990201085
 20
3.575000339449701
 30
0.0
 11
30.37452550305133
 21
5.027295940490148
 31
0.0
  0
LINE
  5
165
330
8D
100
AcDbEntity
  8
0
 62
     0
100
AcDbLine
 10
30.67110582087755
 20
5.772889064369877
 30
0.0
 11
32.07110582087762
 21
7.172889064369941
 31
0.0
  0
LINE
  5
166
330
8D
100
AcDbEntity
  8
0
 62
     0
100
AcDbLine
 10
33.12110582087758
 20
8.222889064369892
 30
0.0
 11
34.5211058208776
 21
9.622889064369926
 31
0.0
  0
LINE
  5
167
330
8D
100
AcDbEntity
  8
0
 62
     0
100
AcDbLine
 10
28.52919197164593
 20
3.630975215138221
 30
0.0
 11
29.87321709595738
 21
4.975000339449707
 31
0.0
  0
LINE
  5
168
330
8D
100
AcDbEntity
  8
0
 62
     0
100
AcDbLine
 10
30.67110582087755
 20
6.221901870423321
 30
0.0
 11
32.07110582087762
 21
7.621901870423386
 31
0.0
  0
LINE
  5
169
330
8D
100
AcDbEntity
  8
0
 62
     0
100
AcDbLine
 10
33.12110582087758
 20
8.671901870423369
 30
0.0
 11
34.5211058208776
 21
10.07190187042337
 31
0.0
  0
LINE
  5
16A
330
8D
100
AcDbEntity
  8
0
 62
     0
100
AcDbLine
 10
28.21519853804085
 20
3.765994587586646
 30
0.0
 11
29.42464318272607
 21
4.975439232271867
 31
0.0
  0
LINE
  5
16B
330
8D
100
AcDbEntity
  8
0
 62
     0
100
AcDbLine
 10
30.67110582087755
 20
6.670914676476768
 30
0.0
 11
32.07110582087762
 21
8.070914676476832
 31
0.0
  0
LINE
  5
16C
330
8D
100
AcDbEntity
  8
0
 62
     0
100
AcDbLine
 10
33.1211058208776
 20
9.120914676476786
 30
0.0
 11
34.5211058208776
 21
10.52091467647682
 31
0.0
  0
LINE
  5
16D
330
8D
100
AcDbEntity
  8
0
 62
     0
100
AcDbLine
 10
27.95856859735832
 20
3.958377452957506
 30
0.0
 11
29.10290388836972
 21
5.102712743968936
 31
0.0
  0
LINE
  5
16E
330
8D
100
AcDbEntity
  8
0
 62
     0
100
AcDbLine
 10
30.67110582087755
 20
7.119927482530214
 30
0.0
 11
32.07110582087762
 21
8.519927482530306
 31
0.0
  0
LINE
  5
16F
330
8D
100
AcDbEntity
  8
0
 62
     0
100
AcDbLine
 10
33.12110582087758
 20
9.56992748253026
 30
0.0
 11
34.5211058208776
 21
10.96992748253029
 31
0.0
  0
LINE
  5
170
330
8D
100
AcDbEntity
  8
0
 62
     0
100
AcDbLine
 10
27.75358650974576
 20
4.202408171398416
 30
0.0
 11
28.93428474916501
 21
5.383106410817703
 31
0.0
  0
LINE
  5
171
330
8D
100
AcDbEntity
  8
0
 62
     0
100
AcDbLine
 10
30.67110582087754
 20
7.568940288583688
 30
0.0
 11
32.07110582087762
 21
8.968940288583752
 31
0.0
  0
LINE
  5
172
330
8D
100
AcDbEntity
  8
0
 62
     0
100
AcDbLine
 10
33.12110582087758
 20
10.0189402885837
 30
0.0
 11
34.51603124410238
 21
11.41386571180854
 31
0.0
  0
LINE
  5
173
330
8D
100
AcDbEntity
  8
0
 62
     0
100
AcDbLine
 10
27.60362407052875
 20
4.501458538234913
 30
0.0
 11
28.92110582087756
 21
5.818940288583717
 31
0.0
  0
LINE
  5
174
330
8D
100
AcDbEntity
  8
0
 62
     0
100
AcDbLine
 10
30.67110582087757
 20
8.017953094637164
 30
0.0
 11
32.07110582087762
 21
9.417953094637196
 31
0.0
  0
LINE
  5
175
330
8D
100
AcDbEntity
  8
0
 62
     0
100
AcDbLine
 10
33.12110582087758
 20
10.46795309463715
 30
0.0
 11
34.27747407156263
 21
11.62432134532221
 31
0.0
  0
LINE
  5
176
330
8D
100
AcDbEntity
  8
0
 62
     0
100
AcDbLine
 10
27.52491730305052
 20
4.871764576810106
 30
0.0
 11
28.92110582087758
 21
6.267953094637164
 31
0.0
  0
LINE
  5
177
330
8D
100
AcDbEntity
  8
0
 62
     0
100
AcDbLine
 10
30.67110582087757
 20
8.466965900690638
 30
0.0
 11
32.07110582087762
 21
9.866965900690644
 31
0.0
  0
LINE
  5
178
330
8D
100
AcDbEntity
  8
0
 62
     0
100
AcDbLine
 10
33.1211058208776
 20
10.91696590069065
 30
0.0
 11
33.8291402596366
 21
11.62500033944965
 31
0.0
  0
LINE
  5
179
330
8D
100
AcDbEntity
  8
0
 62
     0
100
AcDbLine
 10
27.52110582087758
 20
5.316965900690632
 30
0.0
 11
28.92110582087761
 21
6.716965900690667
 31
0.0
  0
LINE
  5
17A
330
8D
100
AcDbEntity
  8
0
 62
     0
100
AcDbLine
 10
30.67110582087757
 20
8.915978706744084
 30
0.0
 11
32.07110582087759
 21
10.31597870674411
 31
0.0
  0
LINE
  5
17B
330
8D
100
AcDbEntity
  8
0
 62
     0
100
AcDbLine
 10
27.52110582087758
 20
5.765978706744077
 30
0.0
 11
28.92110582087758
 21
7.165978706744112
 31
0.0
  0
LINE
  5
17C
330
8D
100
AcDbEntity
  8
0
 62
     0
100
AcDbLine
 10
33.12112917825132
 20
11.36600206411785
 30
0.0
 11
33.38010409620946
 21
11.62497698207596
 31
0.0
  0
LINE
  5
17D
330
8D
100
AcDbEntity
  8
0
 62
     0
100
AcDbLine
 10
25.36032800552161
 20
3.605200891388108
 30
0.0
 11
26.44090526893918
 21
4.685778154805716
 31
0.0
  0
LINE
  5
17E
330
8D
100
AcDbEntity
  8
0
 62
     0
100
AcDbLine
 10
27.52110582087755
 20
6.214991512797552
 30
0.0
 11
28.92110582087758
 21
7.614991512797588
 31
0.0
  0
LINE
  5
17F
330
8D
100
AcDbEntity
  8
0
 62
     0
100
AcDbLine
 10
30.67110582087755
 20
9.364991512797557
 30
0.0
 11
32.07110582087759
 21
10.76499151279759
 31
0.0
  0
LINE
  5
180
330
8D
100
AcDbEntity
  8
0
 62
     0
100
AcDbLine
 10
24.8811146475297
 20
3.575000339449701
 30
0.0
 11
26.47110582087757
 21
5.16499151279754
 31
0.0
  0
LINE
  5
181
330
8D
100
AcDbEntity
  8
0
 62
     0
100
AcDbLine
 10
27.52110582087758
 20
6.664004318850999
 30
0.0
 11
28.92110582087761
 21
8.064004318851003
 31
0.0
  0
LINE
  5
182
330
8D
100
AcDbEntity
  8
0
 62
     0
100
AcDbLine
 10
30.67110582087757
 20
9.814004318850976
 30
0.0
 11
32.07110582087762
 21
11.21400431885101
 31
0.0
  0
LINE
  5
183
330
8D
100
AcDbEntity
  8
0
 62
     0
100
AcDbLine
 10
24.43210184147622
 20
3.575000339449643
 30
0.0
 11
26.47110582087762
 21
5.614004318851017
 31
0.0
  0
LINE
  5
184
330
8D
100
AcDbEntity
  8
0
 62
     0
100
AcDbLine
 10
27.52110582087758
 20
7.113017124904445
 30
0.0
 11
28.92110582087758
 21
8.513017124904479
 31
0.0
  0
LINE
  5
185
330
8D
100
AcDbEntity
  8
0
 62
     0
100
AcDbLine
 10
30.67110582087755
 20
10.26301712490445
 30
0.0
 11
31.97423709346057
 21
11.56614839748746
 31
0.0
  0
LINE
  5
186
330
8D
100
AcDbEntity
  8
0
 62
     0
100
AcDbLine
 10
23.98308903542277
 20
3.575000339449672
 30
0.0
 11
26.46394652067113
 21
6.055857824698022
 31
0.0
  0
LINE
  5
187
330
8D
100
AcDbEntity
  8
0
 62
     0
100
AcDbLine
 10
27.52110582087755
 20
7.562029930957919
 30
0.0
 11
28.92110582087758
 21
8.962029930957951
 31
0.0
  0
LINE
  5
188
330
8D
100
AcDbEntity
  8
0
 62
     0
100
AcDbLine
 10
30.67110582087755
 20
10.71202993095792
 30
0.0
 11
31.58407622936931
 21
11.62500033944968
 31
0.0
  0
LINE
  5
189
330
8D
100
AcDbEntity
  8
0
 62
     0
100
AcDbLine
 10
23.5340762293693
 20
3.575000339449672
 30
0.0
 11
26.39649033535675
 21
6.437414445437099
 31
0.0
  0
LINE
  5
18A
330
8D
100
AcDbEntity
  8
0
 62
     0
100
AcDbLine
 10
27.52110582087758
 20
8.011042737011338
 30
0.0
 11
28.92110582087758
 21
9.411042737011372
 31
0.0
  0
LINE
  5
18B
330
8D
100
AcDbEntity
  8
0
 62
     0
100
AcDbLine
 10
25.07110582087761
 20
5.561042737011405
 30
0.0
 11
26.27619660689748
 21
6.766133523031242
 31
0.0
  0
LINE
  5
18C
330
8D
100
AcDbEntity
  8
0
 62
     0
100
AcDbLine
 10
30.67110582087757
 20
11.16104273701134
 30
0.0
 11
31.13506342331592
 21
11.62500033944971
 31
0.0
  0
LINE
  5
18D
330
8D
100
AcDbEntity
  8
0
 62
     0
100
AcDbLine
 10
23.14919109988142
 20
3.639128016015205
 30
0.0
 11
24.48506342331586
 21
4.97500033944965
 31
0.0
  0
LINE
  5
18E
330
8D
100
AcDbEntity
  8
0
 62
     0
100
AcDbLine
 10
25.06117053331397
 20
6.000120255501201
 30
0.0
 11
26.11444695446721
 21
7.053396676654442
 31
0.0
  0
LINE
  5
18F
330
8D
100
AcDbEntity
  8
0
 62
     0
100
AcDbLine
 10
27.52110582087761
 20
8.460055543064838
 30
0.0
 11
28.92110582087761
 21
9.860055543064873
 31
0.0
  0
LINE
  5
190
330
8D
100
AcDbEntity
  8
0
 62
     0
100
AcDbLine
 10
23.05860582087757
 20
3.997555543064833
 30
0.0
 11
24.03605061726239
 21
4.97500033944965
 31
0.0
  0
LINE
  5
191
330
8D
100
AcDbEntity
  8
0
 62
     0
100
AcDbLine
 10
24.92397811474452
 20
6.311940642985263
 30
0.0
 11
25.9165113955033
 21
7.304473923744041
 31
0.0
  0
LINE
  5
192
330
8D
100
AcDbEntity
  8
0
 62
     0
100
AcDbLine
 10
27.52110582087758
 20
8.909068349118314
 30
0.0
 11
28.92110582087761
 21
10.30906834911834
 31
0.0
  0
LINE
  5
193
330
8D
100
AcDbEntity
  8
0
 62
     0
100
AcDbLine
 10
23.05860582087757
 20
4.44656834911828
 30
0.0
 11
23.58703781120894
 21
4.975000339449677
 31
0.0
  0
LINE
  5
194
330
8D
100
AcDbEntity
  8
0
 62
     0
100
AcDbLine
 10
27.52110582087761
 20
9.35808115517176
 30
0.0
 11
28.92110582087764
 21
10.75808115517176
 31
0.0
  0
LINE
  5
195
330
8D
100
AcDbEntity
  8
0
 62
     0
100
AcDbLine
 10
24.70334066618599
 20
6.540316000480116
 30
0.0
 11
25.69329015984718
 21
7.530265494141332
 31
0.0
  0
LINE
  5
196
330
8D
100
AcDbEntity
  8
0
 62
     0
100
AcDbLine
 10
24.47883426315925
 20
6.764822403506856
 30
0.0
 11
25.46878375682041
 21
7.754771897168012
 31
0.0
  0
LINE
  5
197
330
8D
100
AcDbEntity
  8
0
 62
     0
100
AcDbLine
 10
27.52110582087758
 20
9.807093961225206
 30
0.0
 11
28.92110582087761
 21
11.20709396122524
 31
0.0
  0
LINE
  5
198
330
8D
100
AcDbEntity
  8
0
 62
     0
100
AcDbLine
 10
21.28901219910204
 20
3.575000339449672
 30
0.0
 11
21.7461058208776
 21
4.0320939612252
 31
0.0
  0
LINE
  5
199
330
8D
100
AcDbEntity
  8
0
 62
     0
100
AcDbLine
 10
24.25432786013255
 20
6.989328806533649
 30
0.0
 11
25.24427735379367
 21
7.979278300194748
 31
0.0
  0
LINE
  5
19A
330
8D
100
AcDbEntity
  8
0
 62
     0
100
AcDbLine
 10
27.52110582087758
 20
10.25610676727868
 30
0.0
 11
28.82801536682828
 21
11.56301631322935
 31
0.0
  0
LINE
  5
19B
330
8D
100
AcDbEntity
  8
0
 62
     0
100
AcDbLine
 10
20.8399993930486
 20
3.575000339449672
 30
0.0
 11
21.74610582087757
 21
4.481106767278673
 31
0.0
  0
LINE
  5
19C
330
8D
100
AcDbEntity
  8
0
 62
     0
100
AcDbLine
 10
24.02982145710578
 20
7.213835209560328
 30
0.0
 11
25.01977095076694
 21
8.203784703221487
 31
0.0
  0
LINE
  5
19D
330
8D
100
AcDbEntity
  8
0
 62
     0
100
AcDbLine
 10
27.52110582087758
 20
10.70511957333212
 30
0.0
 11
28.44098658699513
 21
11.62500033944971
 31
0.0
  0
LINE
  5
19E
330
8D
100
AcDbEntity
  8
0
 62
     0
100
AcDbLine
 10
20.44679215592609
 20
3.630805908380636
 30
0.0
 11
21.7461058208776
 21
4.930119573332176
 31
0.0
  0
LINE
  5
19F
330
8D
100
AcDbEntity
  8
0
 62
     0
100
AcDbLine
 10
23.80531505407907
 20
7.438341612587037
 30
0.0
 11
24.79526454774023
 21
8.428291106248195
 31
0.0
  0
LINE
  5
1A0
330
8D
100
AcDbEntity
  8
0
 62
     0
100
AcDbLine
 10
27.52110582087758
 20
11.15413237938557
 30
0.0
 11
27.99197378094172
 21
11.62500033944968
 31
0.0
  0
LINE
  5
1A1
330
8D
100
AcDbEntity
  8
0
 62
     0
100
AcDbLine
 10
20.34610582087756
 20
3.979132379385531
 30
0.0
 11
21.74610582087763
 21
5.379132379385595
 31
0.0
  0
LINE
  5
1A2
330
8D
100
AcDbEntity
  8
0
 62
     0
100
AcDbLine
 10
23.58080865105232
 20
7.662848015613775
 30
0.0
 11
24.57075814471349
 21
8.652797509274932
 31
0.0
  0
LINE
  5
1A3
330
8D
100
AcDbEntity
  8
0
 62
     0
100
AcDbLine
 10
20.34610582087759
 20
4.428145185439035
 30
0.0
 11
21.7461058208776
 21
5.828145185439067
 31
0.0
  0
LINE
  5
1A4
330
8D
100
AcDbEntity
  8
0
 62
     0
100
AcDbLine
 10
23.35731670053167
 20
7.888368871146609
 30
0.0
 11
24.34930346722268
 21
8.880355637837595
 31
0.0
  0
LINE
  5
1A5
330
8D
100
AcDbEntity
  8
0
 62
     0
100
AcDbLine
 10
20.34610582087756
 20
4.877157991492508
 30
0.0
 11
21.7461058208776
 21
6.277157991492543
 31
0.0
  0
LINE
  5
1A6
330
8D
100
AcDbEntity
  8
0
 62
     0
100
AcDbLine
 10
25.69394816883476
 20
10.22500033944967
 30
0.0
 11
26.20860582087757
 21
10.73965799149252
 31
0.0
  0
LINE
  5
1A7
330
8D
100
AcDbEntity
  8
0
 62
     0
100
AcDbLine
 10
19.0997777085225
 20
3.630829879137421
 30
0.0
 11
19.14460388925002
 21
3.675656059864961
 31
0.0
  0
LINE
  5
1A8
330
8D
100
AcDbEntity
  8
0
 62
     0
100
AcDbLine
 10
23.15831561112068
 20
8.138380587789043
 30
0.0
 11
24.20813274982998
 21
9.188197726498344
 31
0.0
  0
LINE
  5
1A9
330
8D
100
AcDbEntity
  8
0
 62
     0
100
AcDbLine
 10
20.34610582087759
 20
5.326170797545926
 30
0.0
 11
21.74610582087763
 21
6.726170797545961
 31
0.0
  0
LINE
  5
1AA
330
8D
100
AcDbEntity
  8
0
 62
     0
100
AcDbLine
 10
25.24493536278132
 20
10.22500033944967
 30
0.0
 11
26.20860582087761
 21
11.18867079754592
 31
0.0
  0
LINE
  5
1AB
330
8D
100
AcDbEntity
  8
0
 62
     0
100
AcDbLine
 10
18.59493536278128
 20
3.575000339449643
 30
0.0
 11
19.12782491093452
 21
4.10788988760285
 31
0.0
  0
LINE
  5
1AC
330
8D
100
AcDbEntity
  8
0
 62
     0
100
AcDbLine
 10
22.99539847892233
 20
8.424476261644173
 30
0.0
 11
24.19610582087765
 21
9.625183603599452
 31
0.0
  0
LINE
  5
1AD
330
8D
100
AcDbEntity
  8
0
 62
     0
100
AcDbLine
 10
20.34610582087756
 20
5.775183603599401
 30
0.0
 11
21.7461058208776
 21
7.175183603599434
 31
0.0
  0
LINE
  5
1AE
330
8D
100
AcDbEntity
  8
0
 62
     0
100
AcDbLine
 10
24.79592255672788
 20
10.22500033944967
 30
0.0
 11
26.12527135497868
 21
11.55434913770051
 31
0.0
  0
LINE
  5
1AF
330
8D
100
AcDbEntity
  8
0
 62
     0
100
AcDbLine
 10
18.14592255672783
 20
3.575000339449643
 30
0.0
 11
19.0200618374817
 21
4.449139620203538
 31
0.0
  0
LINE
  5
1B0
330
8D
100
AcDbEntity
  8
0
 62
     0
100
AcDbLine
 10
20.34610582087756
 20
6.224196409652875
 30
0.0
 11
21.7461058208776
 21
7.62419640965288
 31
0.0
  0
LINE
  5
1B1
330
8D
100
AcDbEntity
  8
0
 62
     0
100
AcDbLine
 10
22.87370744758729
 20
8.751798036362599
 30
0.0
 11
25.74690975067443
 21
11.62500033944971
 31
0.0
  0
LINE
  5
1B2
330
8D
100
AcDbEntity
  8
0
 62
     0
100
AcDbLine
 10
17.84991540140029
 20
3.728005990175602
 30
0.0
 11
18.91229876402886
 21
4.790389352804169
 31
0.0
  0
LINE
  5
1B3
330
8D
100
AcDbEntity
  8
0
 62
     0
100
AcDbLine
 10
20.34610582087756
 20
6.673209215706322
 30
0.0
 11
21.74610582087757
 21
8.073209215706356
 31
0.0
  0
LINE
  5
1B4
330
8D
100
AcDbEntity
  8
0
 62
     0
100
AcDbLine
 10
22.80435401804445
 20
9.131457412873231
 30
0.0
 11
25.29789694462095
 21
11.62500033944974
 31
0.0
  0
LINE
  5
1B5
330
8D
100
AcDbEntity
  8
0
 62
     0
100
AcDbLine
 10
17.74053569057599
 20
4.067639085404778
 30
0.0
 11
18.80453569057598
 21
5.131639085404771
 31
0.0
  0
LINE
  5
1B6
330
8D
100
AcDbEntity
  8
0
 62
     0
100
AcDbLine
 10
20.34610582087756
 20
7.122222021759767
 30
0.0
 11
21.7461058208776
 21
8.522222021759803
 31
0.0
  0
LINE
  5
1B7
330
8D
100
AcDbEntity
  8
0
 62
     0
100
AcDbLine
 10
22.79610582087761
 20
9.572222021759783
 30
0.0
 11
24.84888413856748
 21
11.62500033944968
 31
0.0
  0
LINE
  5
1B8
330
8D
100
AcDbEntity
  8
0
 62
     0
100
AcDbLine
 10
17.63277261712318
 20
4.40888881800538
 30
0.0
 11
18.69677261712323
 21
5.4728888180054
 31
0.0
  0
LINE
  5
1B9
330
8D
100
AcDbEntity
  8
0
 62
     0
100
AcDbLine
 10
20.34610582087759
 20
7.571234827813269
 30
0.0
 11
21.7461058208776
 21
8.971234827813248
 31
0.0
  0
LINE
  5
1BA
330
8D
100
AcDbEntity
  8
0
 62
     0
100
AcDbLine
 10
22.79610582087757
 20
10.02123482781325
 30
0.0
 11
24.39987133251404
 21
11.62500033944968
 31
0.0
  0
LINE
  5
1BB
330
8D
100
AcDbEntity
  8
0
 62
     0
100
AcDbLine
 10
17.5250095436703
 20
4.750138550605981
 30
0.0
 11
18.58900954367038
 21
5.814138550606031
 31
0.0
  0
LINE
  5
1BC
330
8D
100
AcDbEntity
  8
0
 62
     0
100
AcDbLine
 10
20.34610582087759
 20
8.020247633866715
 30
0.0
 11
21.74610582087757
 21
9.420247633866722
 31
0.0
  0
LINE
  5
1BD
330
8D
100
AcDbEntity
  8
0
 62
     0
100
AcDbLine
 10
17.41724647021749
 20
5.091388283206639
 30
0.0
 11
18.48124647021754
 21
6.155388283206661
 31
0.0
  0
LINE
  5
1BE
330
8D
100
AcDbEntity
  8
0
 62
     0
100
AcDbLine
 10
22.82276415593821
 20
10.49690596892736
 30
0.0
 11
23.92420019139987
 21
11.59834200438902
 31
0.0
  0
LINE
  5
1BF
330
8D
100
AcDbEntity
  8
0
 62
     0
100
AcDbLine
 10
15.90085852646055
 20
3.575000339449672
 30
0.0
 11
16.32110582087759
 21
3.995247633866738
 31
0.0
  0
LINE
  5
1C0
330
8D
100
AcDbEntity
  8
0
 62
     0
100
AcDbLine
 10
17.30948339676469
 20
5.432638015807242
 30
0.0
 11
18.37348339676466
 21
6.496638015807235
 31
0.0
  0
LINE
  5
1C1
330
8D
100
AcDbEntity
  8
0
 62
     0
100
AcDbLine
 10
20.34610582087759
 20
8.469260439920162
 30
0.0
 11
21.7461058208776
 21
9.86926043992014
 31
0.0
  0
LINE
  5
1C2
330
8D
100
AcDbEntity
  8
0
 62
     0
100
AcDbLine
 10
15.4518457204071
 20
3.575000339449672
 30
0.0
 11
16.32110582087761
 21
4.444260439920184
 31
0.0
  0
LINE
  5
1C3
330
8D
100
AcDbEntity
  8
0
 62
     0
100
AcDbLine
 10
17.20172032331186
 20
5.773887748407871
 30
0.0
 11
18.26572032331188
 21
6.837887748407922
 31
0.0
  0
LINE
  5
1C4
330
8D
100
AcDbEntity
  8
0
 62
     0
100
AcDbLine
 10
20.34610582087759
 20
8.918273245973637
 30
0.0
 11
21.74610582087757
 21
10.31827324597361
 31
0.0
  0
LINE
  5
1C5
330
8D
100
AcDbEntity
  8
0
 62
     0
100
AcDbLine
 10
15.04340778817925
 20
3.615575213275291
 30
0.0
 11
16.32110582087761
 21
4.893273245973631
 31
0.0
  0
LINE
  5
1C6
330
8D
100
AcDbEntity
  8
0
 62
     0
100
AcDbLine
 10
17.09395724985895
 20
6.115137481008473
 30
0.0
 11
18.15795724985903
 21
7.179137481008551
 31
0.0
  0
LINE
  5
1C7
330
8D
100
AcDbEntity
  8
0
 62
     0
100
AcDbLine
 10
20.34610582087759
 20
9.367286052027083
 30
0.0
 11
21.74610582087757
 21
10.76728605202708
 31
0.0
  0
LINE
  5
1C8
330
8D
100
AcDbEntity
  8
0
 62
     0
100
AcDbLine
 10
14.92110582087755
 20
3.942286052027071
 30
0.0
 11
16.32110582087759
 21
5.342286052027105
 31
0.0
  0
LINE
  5
1C9
330
8D
100
AcDbEntity
  8
0
 62
     0
100
AcDbLine
 10
16.9861941764062
 20
6.456387213609103
 30
0.0
 11
18.05019417640622
 21
7.520387213609152
 31
0.0
  0
LINE
  5
1CA
330
8D
100
AcDbEntity
  8
0
 62
     0
100
AcDbLine
 10
20.34610582087759
 20
9.816298858080527
 30
0.0
 11
21.74610582087757
 21
11.2162988580805
 31
0.0
  0
LINE
  5
1CB
330
8D
100
AcDbEntity
  8
0
 62
     0
100
AcDbLine
 10
14.92110582087758
 20
4.391298858080516
 30
0.0
 11
16.32110582087761
 21
5.791298858080523
 31
0.0
  0
LINE
  5
1CC
330
8D
100
AcDbEntity
  8
0
 62
     0
100
AcDbLine
 10
16.86879478292033
 20
6.788000626176739
 30
0.0
 11
18.18394181688577
 21
8.103147660142182
 31
0.0
  0
LINE
  5
1CD
330
8D
100
AcDbEntity
  8
0
 62
     0
100
AcDbLine
 10
20.34610582087759
 20
10.26531166413397
 30
0.0
 11
21.6479681096284
 21
11.56717395288478
 31
0.0
  0
LINE
  5
1CE
330
8D
100
AcDbEntity
  8
0
 62
     0
100
AcDbLine
 10
14.92110582087758
 20
4.840311664133962
 30
0.0
 11
16.32110582087759
 21
6.240311664133996
 31
0.0
  0
LINE
  5
1CF
330
8D
100
AcDbEntity
  8
0
 62
     0
100
AcDbLine
 10
16.52520209798663
 20
6.893420747296516
 30
0.0
 11
18.39117849660274
 21
8.759397145912629
 31
0.0
  0
LINE
  5
1D0
330
8D
100
AcDbEntity
  8
0
 62
     0
100
AcDbLine
 10
14.92110582087755
 20
5.289324470187438
 30
0.0
 11
16.32768541303076
 21
6.695904062340615
 31
0.0
  0
LINE
  5
1D1
330
8D
100
AcDbEntity
  8
0
 62
     0
100
AcDbLine
 10
20.34610582087756
 20
10.71432447018745
 30
0.0
 11
21.2567816901398
 21
11.62500033944968
 31
0.0
  0
LINE
  5
1D2
330
8D
100
AcDbEntity
  8
0
 62
     0
100
AcDbLine
 10
13.20678169013979
 20
3.575000339449643
 30
0.0
 11
13.69610582087761
 21
4.0643244701875
 31
0.0
  0
LINE
  5
1D3
330
8D
100
AcDbEntity
  8
0
 62
     0
100
AcDbLine
 10
14.92110582087755
 20
5.738337276240883
 30
0.0
 11
18.59841517631972
 21
9.415646631683046
 31
0.0
  0
LINE
  5
1D4
330
8D
100
AcDbEntity
  8
0
 62
     0
100
AcDbLine
 10
20.34610582087759
 20
11.16333727624095
 30
0.0
 11
20.80776888408633
 21
11.62500033944968
 31
0.0
  0
LINE
  5
1D5
330
8D
100
AcDbEntity
  8
0
 62
     0
100
AcDbLine
 10
12.75776888408631
 20
3.575000339449672
 30
0.0
 11
13.69610582087761
 21
4.513337276240973
 31
0.0
  0
LINE
  5
1D6
330
8D
100
AcDbEntity
  8
0
 62
     0
100
AcDbLine
 10
14.92110582087755
 20
6.187350082294329
 30
0.0
 11
18.80565185603674
 21
10.07189611745349
 31
0.0
  0
LINE
  5
1D7
330
8D
100
AcDbEntity
  8
0
 62
     0
100
AcDbLine
 10
12.31459639020792
 20
3.580840651624696
 30
0.0
 11
13.62543867907453
 21
4.891682940491278
 31
0.0
  0
LINE
  5
1D8
330
8D
100
AcDbEntity
  8
0
 62
     0
100
AcDbLine
 10
14.92110582087755
 20
6.636362888347803
 30
0.0
 11
16.58474327197942
 21
8.300000339449667
 31
0.0
  0
LINE
  5
1D9
330
8D
100
AcDbEntity
  8
0
 62
     0
100
AcDbLine
 10
16.96673468959977
 20
8.681991757070022
 30
0.0
 11
19.01288853575374
 21
10.72814560322396
 31
0.0
  0
LINE
  5
1DA
330
8D
100
AcDbEntity
  8
0
 62
     0
100
AcDbLine
 10
11.93051613148443
 20
3.645773198954656
 30
0.0
 11
13.25974327197946
 21
4.975000339449677
 31
0.0
  0
LINE
  5
1DB
330
8D
100
AcDbEntity
  8
0
 62
     0
100
AcDbLine
 10
14.92110582087758
 20
7.085375694401307
 30
0.0
 11
16.33010110623175
 21
8.494370979755442
 31
0.0
  0
LINE
  5
1DC
330
8D
100
AcDbEntity
  8
0
 62
     0
100
AcDbLine
 10
17.17397136931674
 20
9.338241242840439
 30
0.0
 11
19.20042426165443
 21
11.36469413517815
 31
0.0
  0
LINE
  5
1DD
330
8D
100
AcDbEntity
  8
0
 62
     0
100
AcDbLine
 10
11.59994900307123
 20
3.764218876594951
 30
0.0
 11
12.81073046592598
 21
4.975000339449707
 31
0.0
  0
LINE
  5
1DE
330
8D
100
AcDbEntity
  8
0
 62
     0
100
AcDbLine
 10
14.92110582087761
 20
7.534388500454723
 30
0.0
 11
16.32110582087761
 21
8.934388500454758
 31
0.0
  0
LINE
  5
1DF
330
8D
100
AcDbEntity
  8
0
 62
     0
100
AcDbLine
 10
17.38120804903371
 20
9.994490728610855
 30
0.0
 11
19.00341832536983
 21
11.61670100494697
 31
0.0
  0
LINE
  5
1E0
330
8D
100
AcDbEntity
  8
0
 62
     0
100
AcDbLine
 10
11.31114736098908
 20
3.924430040566193
 30
0.0
 11
12.36917829023551
 21
4.982460969812648
 31
0.0
  0
LINE
  5
1E1
330
8D
100
AcDbEntity
  8
0
 62
     0
100
AcDbLine
 10
14.92110582087758
 20
7.983401306508199
 30
0.0
 11
16.32110582087761
 21
9.383401306508233
 31
0.0
  0
LINE
  5
1E2
330
8D
100
AcDbEntity
  8
0
 62
     0
100
AcDbLine
 10
17.58844472875071
 20
10.65074021438132
 30
0.0
 11
18.56270485381907
 21
11.62500033944968
 31
0.0
  0
LINE
  5
1E3
330
8D
100
AcDbEntity
  8
0
 62
     0
100
AcDbLine
 10
11.05866987779805
 20
4.120965363428638
 30
0.0
 11
12.05202021972636
 21
5.114315705356943
 31
0.0
  0
LINE
  5
1E4
330
8D
100
AcDbEntity
  8
0
 62
     0
100
AcDbLine
 10
14.92110582087758
 20
8.432414112561643
 30
0.0
 11
16.32110582087761
 21
9.83241411256168
 31
0.0
  0
LINE
  5
1E5
330
8D
100
AcDbEntity
  8
0
 62
     0
100
AcDbLine
 10
13.25192288676584
 20
6.763231178449927
 30
0.0
 11
13.83287498187738
 21
7.344183273561469
 31
0.0
  0
LINE
  5
1E6
330
8D
100
AcDbEntity
  8
0
 62
     0
100
AcDbLine
 10
17.79568140846768
 20
11.30698970015177
 30
0.0
 11
18.11369204776562
 21
11.62500033944971
 31
0.0
  0
LINE
  5
1E7
330
8D
100
AcDbEntity
  8
0
 62
     0
100
AcDbLine
 10
10.84045134113313
 20
4.35175963281722
 30
0.0
 11
11.84689474409026
 21
5.358203035774351
 31
0.0
  0
LINE
  5
1E8
330
8D
100
AcDbEntity
  8
0
 62
     0
100
AcDbLine
 10
12.78943646595092
 20
6.74975756368849
 30
0.0
 11
13.84634859663882
 21
7.806669694376353
 31
0.0
  0
LINE
  5
1E9
330
8D
100
AcDbEntity
  8
0
 62
     0
100
AcDbLine
 10
14.92110582087755
 20
8.881426918615119
 30
0.0
 11
16.32110582087759
 21
10.28142691861515
 31
0.0
  0
LINE
  5
1EA
330
8D
100
AcDbEntity
  8
0
 62
     0
100
AcDbLine
 10
10.65694172866165
 20
4.617262826399183
 30
0.0
 11
11.7711058208776
 21
5.731426918615169
 31
0.0
  0
LINE
  5
1EB
330
8D
100
AcDbEntity
  8
0
 62
     0
100
AcDbLine
 10
12.48236318124082
 20
6.891697085031778
 30
0.0
 11
13.7044090752955
 21
8.113742979086481
 31
0.0
  0
LINE
  5
1EC
330
8D
100
AcDbEntity
  8
0
 62
     0
100
AcDbLine
 10
14.92110582087758
 20
9.330439724668565
 30
0.0
 11
16.32110582087761
 21
10.73043972466857
 31
0.0
  0
LINE
  5
1ED
330
8D
100
AcDbEntity
  8
0
 62
     0
100
AcDbLine
 10
10.51128297369928
 20
4.920616877490259
 30
0.0
 11
11.7711058208776
 21
6.180439724668587
 31
0.0
  0
LINE
  5
1EE
330
8D
100
AcDbEntity
  8
0
 62
     0
100
AcDbLine
 10
12.26338321774596
 20
7.121729927590422
 30
0.0
 11
13.47437623273688
 21
8.332722942581312
 31
0.0
  0
LINE
  5
1EF
330
8D
100
AcDbEntity
  8
0
 62
     0
100
AcDbLine
 10
14.92110582087758
 20
9.779452530722011
 30
0.0
 11
16.32110582087759
 21
11.17945253072204
 31
0.0
  0
LINE
  5
1F0
330
8D
100
AcDbEntity
  8
0
 62
     0
100
AcDbLine
 10
10.41071429161195
 20
5.269061001456407
 30
0.0
 11
11.7711058208776
 21
6.629452530722062
 31
0.0
  0
LINE
  5
1F1
330
8D
100
AcDbEntity
  8
0
 62
     0
100
AcDbLine
 10
12.13535785154178
 20
7.442717367439684
 30
0.0
 11
13.15338879288759
 21
8.460748308785525
 31
0.0
  0
LINE
  5
1F2
330
8D
100
AcDbEntity
  8
0
 62
     0
100
AcDbLine
 10
10.37110582087751
 20
5.678465336775444
 30
0.0
 11
11.7711058208776
 21
7.078465336775507
 31
0.0
  0
LINE
  5
1F3
330
8D
100
AcDbEntity
  8
0
 62
     0
100
AcDbLine
 10
14.92110582087755
 20
10.22846533677548
 30
0.0
 11
16.24248076670005
 21
11.54984028259798
 31
0.0
  0
LINE
  5
1F4
330
8D
100
AcDbEntity
  8
0
 62
     0
100
AcDbLine
 10
8.328107441939776
 20
3.635466957837707
 30
0.0
 11
9.260639202489642
 21
4.56799871838757
 31
0.0
  0
LINE
  5
1F5
330
8D
100
AcDbEntity
  8
0
 62
     0
100
AcDbLine
 10
12.19456439328217
 20
7.950936715233523
 30
0.0
 11
12.64516944509378
 21
8.401541767045131
 31
0.0
  0
LINE
  5
1F6
330
8D
100
AcDbEntity
  8
0
 62
     0
100
AcDbLine
 10
10.37110582087754
 20
6.12747814282889
 30
0.0
 11
11.7711058208776
 21
7.527478142828954
 31
0.0
  0
LINE
  5
1F7
330
8D
100
AcDbEntity
  8
0
 62
     0
100
AcDbLine
 10
14.92110582087758
 20
10.6774781428289
 30
0.0
 11
15.86862801749836
 21
11.62500033944971
 31
0.0
  0
LINE
  5
1F8
330
8D
100
AcDbEntity
  8
0
 62
     0
100
AcDbLine
 10
7.818628017498297
 20
3.575000339449643
 30
0.0
 11
9.321105820877619
 21
5.077478142828964
 31
0.0
  0
LINE
  5
1F9
330
8D
100
AcDbEntity
  8
0
 62
     0
100
AcDbLine
 10
10.37110582087754
 20
6.576490948882337
 30
0.0
 11
11.7711058208776
 21
7.976490948882426
 31
0.0
  0
LINE
  5
1FA
330
8D
100
AcDbEntity
  8
0
 62
     0
100
AcDbLine
 10
14.92110582087755
 20
11.12649094888237
 30
0.0
 11
15.41961521144486
 21
11.62500033944968
 31
0.0
  0
LINE
  5
1FB
330
8D
100
AcDbEntity
  8
0
 62
     0
100
AcDbLine
 10
7.369615211444852
 20
3.575000339449643
 30
0.0
 11
9.321105820877619
 21
5.52649094888244
 31
0.0
  0
LINE
  5
1FC
330
8D
100
AcDbEntity
  8
0
 62
     0
100
AcDbLine
 10
10.37110582087751
 20
7.025503754935813
 30
0.0
 11
11.77110582087758
 21
8.425503754935872
 31
0.0
  0
LINE
  5
1FD
330
8D
100
AcDbEntity
  8
0
 62
     0
100
AcDbLine
 10
6.920602405391378
 20
3.575000339449672
 30
0.0
 11
9.319136144597024
 21
5.973534078655317
 31
0.0
  0
LINE
  5
1FE
330
8D
100
AcDbEntity
  8
0
 62
     0
100
AcDbLine
 10
10.37110582087757
 20
7.474516560989313
 30
0.0
 11
11.7711058208776
 21
8.87451656098935
 31
0.0
  0
LINE
  5
1FF
330
8D
100
AcDbEntity
  8
0
 62
     0
100
AcDbLine
 10
13.12158959933796
 20
10.2250003394497
 30
0.0
 11
13.69610582087764
 21
10.79951656098936
 31
0.0
  0
LINE
  5
200
330
8D
100
AcDbEntity
  8
0
 62
     0
100
AcDbLine
 10
6.471589599337931
 20
3.575000339449672
 30
0.0
 11
9.264305226436363
 21
6.367715966548103
 31
0.0
  0
LINE
  5
201
330
8D
100
AcDbEntity
  8
0
 62
     0
100
AcDbLine
 10
10.37110582087757
 20
7.92352936704276
 30
0.0
 11
11.7711058208776
 21
9.323529367042764
 31
0.0
  0
LINE
  5
202
330
8D
100
AcDbEntity
  8
0
 62
     0
100
AcDbLine
 10
7.921105820877585
 20
5.473529367042771
 30
0.0
 11
9.153135854414301
 21
6.705559400579486
 31
0.0
  0
LINE
  5
203
330
8D
100
AcDbEntity
  8
0
 62
     0
100
AcDbLine
 10
12.67257679328452
 20
10.22500033944967
 30
0.0
 11
13.69610582087761
 21
11.2485293670428
 31
0.0
  0
LINE
  5
204
330
8D
100
AcDbEntity
  8
0
 62
     0
100
AcDbLine
 10
6.051439730914437
 20
3.603863277079625
 30
0.0
 11
7.42257679328452
 21
4.975000339449677
 31
0.0
  0
LINE
  5
205
330
8D
100
AcDbEntity
  8
0
 62
     0
100
AcDbLine
 10
10.37110582087754
 20
8.372542173096206
 30
0.0
 11
11.85401317376744
 21
9.855449525986101
 31
0.0
  0
LINE
  5
206
330
8D
100
AcDbEntity
  8
0
 62
     0
100
AcDbLine
 10
7.920026275072983
 20
5.921462627291617
 30
0.0
 11
8.998920087078289
 21
7.000356439296949
 31
0.0
  0
LINE
  5
207
330
8D
100
AcDbEntity
  8
0
 62
     0
100
AcDbLine
 10
12.14065663434121
 20
10.14209298655987
 30
0.0
 11
13.57937211341772
 21
11.58080846563635
 31
0.0
  0
LINE
  5
208
330
8D
100
AcDbEntity
  8
0
 62
     0
100
AcDbLine
 10
5.908605820877567
 20
3.910042173096228
 30
0.0
 11
6.973563987231044
 21
4.975000339449707
 31
0.0
  0
LINE
  5
209
330
8D
100
AcDbEntity
  8
0
 62
     0
100
AcDbLine
 10
7.810224765322629
 20
6.260673923594764
 30
0.0
 11
8.807799104658839
 21
7.258248262930976
 31
0.0
  0
LINE
  5
20A
330
8D
100
AcDbEntity
  8
0
 62
     0
100
AcDbLine
 10
10.37110582087754
 20
8.821554979149681
 30
0.0
 11
13.17455118117757
 21
11.62500033944971
 31
0.0
  0
LINE
  5
20B
330
8D
100
AcDbEntity
  8
0
 62
     0
100
AcDbLine
 10
5.908605820877567
 20
4.359054979149703
 30
0.0
 11
6.524551181177542
 21
4.975000339449677
 31
0.0
  0
LINE
  5
20C
330
8D
100
AcDbEntity
  8
0
 62
     0
100
AcDbLine
 10
7.597097351170218
 20
6.496559315495772
 30
0.0
 11
8.587046844831462
 21
7.486508809157014
 31
0.0
  0
LINE
  5
20D
330
8D
100
AcDbEntity
  8
0
 62
     0
100
AcDbLine
 10
10.37110582087757
 20
9.270567785203098
 30
0.0
 11
12.72553837512413
 21
11.62500033944968
 31
0.0
  0
LINE
  5
20E
330
8D
100
AcDbEntity
  8
0
 62
     0
100
AcDbLine
 10
5.943081781887484
 20
4.842543746213038
 30
0.0
 11
6.041062414114293
 21
4.940524378439846
 31
0.0
  0
LINE
  5
20F
330
8D
100
AcDbEntity
  8
0
 62
     0
100
AcDbLine
 10
10.38109337795586
 20
9.729568148334863
 30
0.0
 11
12.26653801199236
 21
11.61501278237139
 31
0.0
  0
LINE
  5
210
330
8D
100
AcDbEntity
  8
0
 62
     0
100
AcDbLine
 10
7.372590948143539
 20
6.721065718522567
 30
0.0
 11
8.362540441804725
 21
7.711015212183752
 31
0.0
  0
LINE
  5
211
330
8D
100
AcDbEntity
  8
0
 62
     0
100
AcDbLine
 10
10.53082509408875
 20
10.32831267052125
 30
0.0
 11
11.667793489806
 21
11.4652810662385
 31
0.0
  0
LINE
  5
212
330
8D
100
AcDbEntity
  8
0
 62
     0
100
AcDbLine
 10
7.148084545116802
 20
6.945572121549303
 30
0.0
 11
8.138034038777986
 21
7.93552161521049
 31
0.0
  0
LINE
  5
213
330
8D
100
AcDbEntity
  8
0
 62
     0
100
AcDbLine
 10
6.923578142090092
 20
7.170078524576013
 30
0.0
 11
7.913527635751278
 21
8.160028018237197
 31
0.0
  0
LINE
  5
214
330
8D
100
AcDbEntity
  8
0
 62
     0
100
AcDbLine
 10
6.699071739063356
 20
7.39458492760275
 30
0.0
 11
7.689021232724542
 21
8.384534421263936
 31
0.0
  0
LINE
  5
215
330
8D
100
AcDbEntity
  8
0
 62
     0
100
AcDbLine
 10
6.474565336036563
 20
7.619091330629429
 30
0.0
 11
7.464514829697803
 21
8.609040824290673
 31
0.0
  0
LINE
  5
216
330
8D
100
AcDbEntity
  8
0
 62
     0
100
AcDbLine
 10
8.631461538803362
 20
10.2250003394497
 30
0.0
 11
9.058605820877541
 21
10.65214462152388
 31
0.0
  0
LINE
  5
217
330
8D
100
AcDbEntity
  8
0
 62
     0
100
AcDbLine
 10
6.250100590023946
 20
7.84363939067029
 30
0.0
 11
7.240133411740174
 21
8.833672212386517
 31
0.0
  0
LINE
  5
218
330
8D
100
AcDbEntity
  8
0
 62
     0
100
AcDbLine
 10
8.18244873274989
 20
10.22500033944965
 30
0.0
 11
9.058605820877602
 21
11.10115742757736
 31
0.0
  0
LINE
  5
219
330
8D
100
AcDbEntity
  8
0
 62
     0
100
AcDbLine
 10
6.044366627748161
 20
8.086918234447892
 30
0.0
 11
7.075184971096205
 21
9.117736577795966
 31
0.0
  0
LINE
  5
21A
330
8D
100
AcDbEntity
  8
0
 62
     0
100
AcDbLine
 10
7.733435926696472
 20
10.22500033944967
 30
0.0
 11
9.01532637099703
 21
11.50689078375026
 31
0.0
  0
LINE
  5
21B
330
8D
100
AcDbEntity
  8
0
 62
     0
100
AcDbLine
 10
5.874136324616928
 20
8.365700737370133
 30
0.0
 11
7.046105820877585
 21
9.537670233630819
 31
0.0
  0
LINE
  5
21C
330
8D
100
AcDbEntity
  8
0
 62
     0
100
AcDbLine
 10
7.283189796057911
 20
10.22376701486459
 30
0.0
 11
8.684423120643003
 21
11.62500033944968
 31
0.0
  0
LINE
  5
21D
330
8D
100
AcDbEntity
  8
0
 62
     0
100
AcDbLine
 10
5.743789676750878
 20
8.684366895557557
 30
0.0
 11
7.047339145462673
 21
9.987916364269381
 31
0.0
  0
LINE
  5
21E
330
8D
100
AcDbEntity
  8
0
 62
     0
100
AcDbLine
 10
5.662883695626844
 20
9.052473720486972
 30
0.0
 11
8.235410314589557
 21
11.62500033944968
 31
0.0
  0
LINE
  5
21F
330
8D
100
AcDbEntity
  8
0
 62
     0
100
AcDbLine
 10
5.646105820877607
 20
9.484708651791178
 30
0.0
 11
7.786397508536082
 21
11.62500033944968
 31
0.0
  0
LINE
  5
220
330
8D
100
AcDbEntity
  8
0
 62
     0
100
AcDbLine
 10
5.646105820877579
 20
9.933721457844654
 30
0.0
 11
7.337384702482637
 21
11.62500033944968
 31
0.0
  0
LINE
  5
221
330
8D
100
AcDbEntity
  8
0
 62
     0
100
AcDbLine
 10
5.656201826096746
 20
10.39283026911727
 30
0.0
 11
6.878275891210051
 21
11.61490433423057
 31
0.0
  0
ENDBLK
  5
222
330
8D
100
AcDbEntity
  8
0
100
AcDbBlockEnd
  0
BLOCK
  5
224
330
223
100
AcDbEntity
  8
0
100
AcDbBlockBegin
  2
SW_CENTERMARKSYMBOL_1
 70
     0
 10
0.0
 20
0.0
 30
0.0
  3
SW_CENTERMARKSYMBOL_1
  1

  0
LINE
  5
225
330
223
100
AcDbEntity
  8
0
  6
Continuous
 62
     0
370
     0
100
AcDbLine
 10
0.0
 20
0.0
 30
0.0
 11
0.0
 21
1.250000000000001
 31
0.0
  0
LINE
  5
226
330
223
100
AcDbEntity
  8
0
  6
Continuous
 62
     0
370
     0
100
AcDbLine
 10
0.0
 20
0.0
 30
0.0
 11
-1.250000000000001
 21
0.0
 31
0.0
  0
LINE
  5
227
330
223
100
AcDbEntity
  8
0
  6
Continuous
 62
     0
370
     0
100
AcDbLine
 10
0.0
 20
0.0
 30
0.0
 11
0.0
 21
-1.250000000000001
 31
0.0
  0
LINE
  5
228
330
223
100
AcDbEntity
  8
0
  6
Continuous
 62
     0
370
     0
100
AcDbLine
 10
0.0
 20
0.0
 30
0.0
 11
1.250000000000001
 21
0.0
 31
0.0
  0
LINE
  5
229
330
223
100
AcDbEntity
  8
0
  6
Continuous
 62
     0
370
     0
100
AcDbLine
 10
0.0
 20
2.500000000000002
 30
0.0
 11
0.0
 21
18.49999999999999
 31
0.0
  0
LINE
  5
22A
330
223
100
AcDbEntity
  8
0
  6
Continuous
 62
     0
370
     0
100
AcDbLine
 10
-2.500000000000002
 20
0.0
 30
0.0
 11
-18.5
 21
0.0
 31
0.0
  0
LINE
  5
22B
330
223
100
AcDbEntity
  8
0
  6
Continuous
 62
     0
370
     0
100
AcDbLine
 10
0.0
 20
-2.500000000000002
 30
0.0
 11
0.0
 21
-18.50000000000002
 31
0.0
  0
LINE
  5
22C
330
223
100
AcDbEntity
  8
0
  6
Continuous
 62
     0
370
     0
100
AcDbLine
 10
2.500000000000002
 20
0.0
 30
0.0
 11
18.5
 21
0.0
 31
0.0
  0
ENDBLK
  5
22D
330
223
100
AcDbEntity
  8
0
100
AcDbBlockEnd
  0
BLOCK
  5
567
330
55D
100
AcDbEntity
  8
0
100
AcDbBlockBegin
  2
*D4
 70
     1
 10
0.0
 20
0.0
 30
0.0
  3
*D4
  1

  0
LINE
  5
810
330
55D
100
AcDbEntity
  8
0
 62
     0
370
    -2
100
AcDbLine
 10
779.732110877286
 20
425.8390104504814
 30
0.0
 11
779.732110877286
 21
426.0471976597702
 31
0.0
  0
LINE
  5
811
330
55D
100
AcDbEntity
  8
0
 62
     0
370
    -2
100
AcDbLine
 10
715.7321108772861
 20
425.8390104504814
 30
0.0
 11
715.7321108772861
 21
426.0471976597702
 31
0.0
  0
LINE
  5
812
330
55D
100
AcDbEntity
  8
0
 62
     0
370
    -2
100
AcDbLine
 10
777.2321108772859
 20
427.2971976597702
 30
0.0
 11
718.232110877286
 21
427.2971976597702
 31
0.0
  0
SOLID
  5
813
330
55D
100
AcDbEntity
  8
0
 62
     0
100
AcDbTrace
 10
777.2321108772859
 20
427.7138643264369
 30
0.0
 11
777.2321108772859
 21
426.8805309931035
 31
0.0
 12
779.732110877286
 22
427.2971976597702
 32
0.0
 13
779.732110877286
 23
427.2971976597702
 33
0.0
  0
SOLID
  5
814
330
55D
100
AcDbEntity
  8
0
 62
     0
100
AcDbTrace
 10
718.232110877286
 20
427.7138643264369
 30
0.0
 11
718.232110877286
 21
426.8805309931035
 31
0.0
 12
715.7321108772861
 22
427.2971976597702
 32
0.0
 13
715.7321108772861
 23
427.2971976597702
 33
0.0
  0
MTEXT
  5
815
330
55D
100
AcDbEntity
  8
0
 62
     0
100
AcDbMText
 10
759.8002336999552
 20
431.7502433450494
 30
0.0
 40
2.5
 41
0.0
 71
     5
 72
     1
  1
φ64
  7
MSｺﾞｼｯｸ
 73
     1
 44
1.0
  0
POINT
  5
816
330
55D
100
AcDbEntity
  8
Defpoints
 62
     0
100
AcDbPoint
 10
779.732110877286
 20
428.8390104504815
 30
0.0
  0
POINT
  5
817
330
55D
100
AcDbEntity
  8
Defpoints
 62
     0
100
AcDbPoint
 10
715.7321108772861
 20
428.8390104504815
 30
0.0
  0
POINT
  5
818
330
55D
100
AcDbEntity
  8
Defpoints
 62
     0
100
AcDbPoint
 10
715.7321108772861
 20
427.2971976597702
 30
0.0
  0
ENDBLK
  5
568
330
55D
100
AcDbEntity
  8
0
100
AcDbBlockEnd
  0
BLOCK
  5
573
330
569
100
AcDbEntity
  8
0
100
AcDbBlockBegin
  2
*D5
 70
     1
 10
0.0
 20
0.0
 30
0.0
  3
*D5
  1

  0
LINE
  5
7FE
330
569
100
AcDbEntity
  8
0
 62
     0
370
    -2
100
AcDbLine
 10
723.7436924354899
 20
446.1408062262311
 30
0.0
 11
723.7436924354899
 21
446.7498730720619
 31
0.0
  0
LINE
  5
7FF
330
569
100
AcDbEntity
  8
0
 62
     0
370
    -2
100
AcDbLine
 10
771.7282481830423
 20
446.1408062262311
 30
0.0
 11
771.7282481830423
 21
446.7498730720619
 31
0.0
  0
LINE
  5
800
330
569
100
AcDbEntity
  8
0
 62
     0
370
    -2
100
AcDbLine
 10
726.2436924354899
 20
445.4998730720618
 30
0.0
 11
769.2282481830423
 21
445.4998730720618
 31
0.0
  0
SOLID
  5
801
330
569
100
AcDbEntity
  8
0
 62
     0
100
AcDbTrace
 10
726.2436924354899
 20
445.9165397387286
 30
0.0
 11
726.2436924354899
 21
445.0832064053952
 31
0.0
 12
723.7436924354899
 22
445.4998730720618
 32
0.0
 13
723.7436924354899
 23
445.4998730720618
 33
0.0
  0
SOLID
  5
802
330
569
100
AcDbEntity
  8
0
 62
     0
100
AcDbTrace
 10
769.2282481830423
 20
445.9165397387286
 30
0.0
 11
769.2282481830423
 21
445.0832064053952
 31
0.0
 12
771.7282481830423
 22
445.4998730720618
 32
0.0
 13
771.7282481830423
 23
445.4998730720618
 33
0.0
  0
MTEXT
  5
803
330
569
100
AcDbEntity
  8
0
 62
     0
100
AcDbMText
 10
759.9813308678242
 20
449.952918757341
 30
0.0
 40
2.5
 41
0.0
 71
     5
 72
     1
  1
φ48
  7
MSｺﾞｼｯｸ
 73
     1
 44
1.0
  0
POINT
  5
804
330
569
100
AcDbEntity
  8
Defpoints
 62
     0
100
AcDbPoint
 10
723.7436924354899
 20
443.1408062262311
 30
0.0
  0
POINT
  5
805
330
569
100
AcDbEntity
  8
Defpoints
 62
     0
100
AcDbPoint
 10
771.7282481830423
 20
443.1408062262311
 30
0.0
  0
POINT
  5
806
330
569
100
AcDbEntity
  8
Defpoints
 62
     0
100
AcDbPoint
 10
771.7282481830423
 20
445.4998730720618
 30
0.0
  0
ENDBLK
  5
574
330
569
100
AcDbEntity
  8
0
100
AcDbBlockEnd
  0
BLOCK
  5
57F
330
575
100
AcDbEntity
  8
0
100
AcDbBlockBegin
  2
*D6
 70
     1
 10
0.0
 20
0.0
 30
0.0
  3
*D6
  1

  0
LINE
  5
841
330
575
100
AcDbEntity
  8
0
 62
     0
370
    -2
100
AcDbLine
 10
778.8321752617441
 20
453.9817393800198
 30
0.0
 11
795.7730025033797
 21
453.9817393800198
 31
0.0
  0
LINE
  5
842
330
575
100
AcDbEntity
  8
0
 62
     0
370
    -2
100
AcDbLine
 10
782.732110877286
 20
416.0817393800198
 30
0.0
 11
795.7730025033797
 21
416.0817393800198
 31
0.0
  0
LINE
  5
843
330
575
100
AcDbEntity
  8
0
 62
     0
370
    -2
100
AcDbLine
 10
794.5230025033796
 20
451.4817393800199
 30
0.0
 11
794.5230025033796
 21
418.5817393800197
 31
0.0
  0
SOLID
  5
844
330
575
100
AcDbEntity
  8
0
 62
     0
100
AcDbTrace
 10
794.106335836713
 20
451.4817393800199
 30
0.0
 11
794.9396691700463
 21
451.4817393800199
 31
0.0
 12
794.5230025033796
 22
453.9817393800198
 32
0.0
 13
794.5230025033796
 23
453.9817393800198
 33
0.0
  0
SOLID
  5
845
330
575
100
AcDbEntity
  8
0
 62
     0
100
AcDbTrace
 10
794.106335836713
 20
418.5817393800197
 30
0.0
 11
794.9396691700463
 21
418.5817393800197
 31
0.0
 12
794.5230025033796
 22
416.0817393800198
 32
0.0
 13
794.5230025033796
 23
416.0817393800198
 33
0.0
  0
MTEXT
  5
846
330
575
100
AcDbEntity
  8
0
 62
     0
100
AcDbMText
 10
790.2730025033795
 20
435.0317393800205
 30
0.0
 40
2.5
 41
0.0
 71
     5
 72
     1
  1
38
  7
MSｺﾞｼｯｸ
 11
0.0000000000000001
 21
1.0
 31
0.0
 73
     1
 44
1.0
  0
POINT
  5
847
330
575
100
AcDbEntity
  8
Defpoints
 62
     0
100
AcDbPoint
 10
775.8321752617441
 20
453.9817393800198
 30
0.0
  0
POINT
  5
848
330
575
100
AcDbEntity
  8
Defpoints
 62
     0
100
AcDbPoint
 10
779.732110877286
 20
416.0817393800198
 30
0.0
  0
POINT
  5
849
330
575
100
AcDbEntity
  8
Defpoints
 62
     0
100
AcDbPoint
 10
794.5230025033796
 20
416.0817393800198
 30
0.0
  0
ENDBLK
  5
580
330
575
100
AcDbEntity
  8
0
100
AcDbBlockEnd
  0
BLOCK
  5
5A3
330
599
100
AcDbEntity
  8
0
100
AcDbBlockBegin
  2
*D7
 70
     1
 10
0.0
 20
0.0
 30
0.0
  3
*D7
  1

  0
LINE
  5
6B6
330
599
100
AcDbEntity
  8
0
 62
     0
370
    -2
100
AcDbLine
 10
723.3936923505819
 20
610.8025563300532
 30
0.0
 11
723.3936923505819
 21
582.7522651076351
 31
0.0
  0
LINE
  5
6B7
330
599
100
AcDbEntity
  8
0
 62
     0
370
    -2
100
AcDbLine
 10
772.0937286071252
 20
610.8022628927162
 30
0.0
 11
772.0937286071252
 21
582.7522651076351
 31
0.0
  0
LINE
  5
6B8
330
599
100
AcDbEntity
  8
0
 62
     0
370
    -2
100
AcDbLine
 10
726.6956923505818
 20
583.7522651076351
 30
0.0
 11
768.7917286071251
 21
583.7522651076351
 31
0.0
  0
SOLID
  5
6B9
330
599
100
AcDbEntity
  8
0
 62
     0
100
AcDbTrace
 10
726.6956923505818
 20
584.3025984409685
 30
0.0
 11
726.6956923505818
 21
583.2019317743017
 31
0.0
 12
723.3936923505819
 22
583.7522651076351
 32
0.0
 13
723.3936923505819
 23
583.7522651076351
 33
0.0
  0
SOLID
  5
6BA
330
599
100
AcDbEntity
  8
0
 62
     0
100
AcDbTrace
 10
768.7917286071251
 20
584.3025984409685
 30
0.0
 11
768.7917286071251
 21
583.2019317743017
 31
0.0
 12
772.0937286071252
 22
583.7522651076351
 32
0.0
 13
772.0937286071252
 23
583.7522651076351
 33
0.0
  0
MTEXT
  5
6BB
330
599
100
AcDbEntity
  8
0
 62
     0
100
AcDbMText
 10
747.7436924354899
 20
587.0262651076351
 30
0.0
 40
3.5
 41
0.0
 71
     5
 72
     1
  1
49
  7
MSｺﾞｼｯｸ
 73
     1
 44
1.0
  0
POINT
  5
6BC
330
599
100
AcDbEntity
  8
Defpoints
 62
     0
100
AcDbPoint
 10
723.3936923505819
 20
611.8025563300532
 30
0.0
  0
POINT
  5
6BD
330
599
100
AcDbEntity
  8
Defpoints
 62
     0
100
AcDbPoint
 10
772.0937286071252
 20
611.8022628927162
 30
0.0
  0
POINT
  5
6BE
330
599
100
AcDbEntity
  8
Defpoints
 62
     0
100
AcDbPoint
 10
772.0937286071252
 20
583.7522651076351
 30
0.0
  0
ENDBLK
  5
5A4
330
599
100
AcDbEntity
  8
0
100
AcDbBlockEnd
  0
BLOCK
  5
5AF
330
5A5
100
AcDbEntity
  8
0
100
AcDbBlockBegin
  2
*D8
 70
     1
 10
0.0
 20
0.0
 30
0.0
  3
*D8
  1

  0
LINE
  5
7B0
330
5A5
100
AcDbEntity
  8
0
 62
     0
370
    -2
100
AcDbLine
 10
810.30942189516
 20
641.6988165128157
 30
0.0
 11
796.3740428765472
 21
641.6988165128157
 31
0.0
  0
LINE
  5
7B1
330
5A5
100
AcDbEntity
  8
0
 62
     0
370
    -2
100
AcDbLine
 10
796.3740428765472
 20
641.6988165128157
 30
0.0
 11
783.7498121252228
 21
637.6621825620325
 31
0.0
  0
LINE
  5
7B2
330
5A5
100
AcDbEntity
  8
0
 62
     0
370
    -2
100
AcDbLine
 10
711.7375727457575
 20
614.6360627075152
 30
0.0
 11
708.5924426675738
 21
613.6303983543114
 31
0.0
  0
MTEXT
  5
7B3
330
5A5
100
AcDbEntity
  8
0
 62
     0
100
AcDbMText
 10
806.3563762098809
 20
645.2570804722065
 30
0.0
 40
3.5
 41
0.0
 71
     5
 72
     1
  1
φ69
  7
MSｺﾞｼｯｸ
 73
     1
 44
1.0
  0
LINE
  5
7B4
330
5A5
100
AcDbEntity
  8
0
 62
     0
370
    -2
100
AcDbLine
 10
714.8827028239411
 20
615.6417270607189
 30
0.0
 11
780.6046820470392
 21
636.6565182088286
 31
0.0
  0
SOLID
  5
7B5
330
5A5
100
AcDbEntity
  8
0
 62
     0
100
AcDbTrace
 10
711.5699620202235
 20
615.1602510538792
 30
0.0
 11
711.9051834712914
 21
614.1118743611512
 31
0.0
 12
714.8827028239411
 22
615.6417270607189
 32
0.0
 13
714.8827028239411
 23
615.6417270607189
 33
0.0
  0
SOLID
  5
7B6
330
5A5
100
AcDbEntity
  8
0
 62
     0
100
AcDbTrace
 10
783.5822013996889
 20
638.1863709083964
 30
0.0
 11
783.9174228507568
 21
637.1379942156685
 31
0.0
 12
780.6046820470392
 22
636.6565182088286
 32
0.0
 13
780.6046820470392
 23
636.6565182088286
 33
0.0
  0
POINT
  5
7B7
330
5A5
100
AcDbEntity
  8
Defpoints
 62
     0
100
AcDbPoint
 10
780.6046820470392
 20
636.6565182088286
 30
0.0
  0
POINT
  5
7B8
330
5A5
100
AcDbEntity
  8
Defpoints
 62
     0
100
AcDbPoint
 10
714.8827028239411
 20
615.6417270607189
 30
0.0
  0
ENDBLK
  5
5B0
330
5A5
100
AcDbEntity
  8
0
100
AcDbBlockEnd
  0
BLOCK
  5
70F
330
705
100
AcDbEntity
  8
0
100
AcDbBlockBegin
  2
*D9
 70
     1
 10
0.0
 20
0.0
 30
0.0
  3
*D9
  1

  0
LINE
  5
838
330
705
100
AcDbEntity
  8
0
 62
     0
370
    -2
100
AcDbLine
 10
720.1517612387299
 20
506.0817393800201
 30
0.0
 11
707.480026881665
 21
506.0817393800201
 31
0.0
  0
LINE
  5
839
330
705
100
AcDbEntity
  8
0
 62
     0
370
    -2
100
AcDbLine
 10
720.1517612387299
 20
576.08173938002
 30
0.0
 11
707.480026881665
 21
576.08173938002
 31
0.0
  0
LINE
  5
83A
330
705
100
AcDbEntity
  8
0
 62
     0
370
    -2
100
AcDbLine
 10
708.730026881665
 20
508.58173938002
 30
0.0
 11
708.730026881665
 21
573.58173938002
 31
0.0
  0
SOLID
  5
83B
330
705
100
AcDbEntity
  8
0
 62
     0
100
AcDbTrace
 10
708.3133602149984
 20
508.58173938002
 30
0.0
 11
709.1466935483317
 21
508.58173938002
 31
0.0
 12
708.730026881665
 22
506.0817393800201
 32
0.0
 13
708.730026881665
 23
506.0817393800201
 33
0.0
  0
SOLID
  5
83C
330
705
100
AcDbEntity
  8
0
 62
     0
100
AcDbTrace
 10
708.3133602149984
 20
573.58173938002
 30
0.0
 11
709.1466935483317
 21
573.58173938002
 31
0.0
 12
708.730026881665
 22
576.08173938002
 32
0.0
 13
708.730026881665
 23
576.08173938002
 33
0.0
  0
MTEXT
  5
83D
330
705
100
AcDbEntity
  8
0
 62
     0
100
AcDbMText
 10
704.3975395720202
 20
541.0817393800202
 30
0.0
 40
2.5
 41
0.0
 71
     5
 72
     1
  1
※a70
  7
MSｺﾞｼｯｸ
 11
0.0000000000000001
 21
1.0
 31
0.0
 73
     1
 44
1.0
  0
POINT
  5
83E
330
705
100
AcDbEntity
  8
Defpoints
 62
     0
100
AcDbPoint
 10
723.1517612387299
 20
506.0817393800201
 30
0.0
  0
POINT
  5
83F
330
705
100
AcDbEntity
  8
Defpoints
 62
     0
100
AcDbPoint
 10
723.1517612387299
 20
576.08173938002
 30
0.0
  0
POINT
  5
840
330
705
100
AcDbEntity
  8
Defpoints
 62
     0
100
AcDbPoint
 10
708.730026881665
 20
576.08173938002
 30
0.0
  0
ENDBLK
  5
710
330
705
100
AcDbEntity
  8
0
100
AcDbBlockEnd
  0
BLOCK
  5
799
330
78F
100
AcDbEntity
  8
0
100
AcDbBlockBegin
  2
*D10
 70
     1
 10
0.0
 20
0.0
 30
0.0
  3
*D10
  1

  0
LINE
  5
84A
330
78F
100
AcDbEntity
  8
0
 62
     0
370
    -2
100
AcDbLine
 10
774.4746350037171
 20
576.0817393800198
 30
0.0
 11
822.6944204887256
 21
576.0817393800198
 31
0.0
  0
LINE
  5
84B
330
78F
100
AcDbEntity
  8
0
 62
     0
370
    -2
100
AcDbLine
 10
774.4746350037172
 20
416.0817393800198
 30
0.0
 11
822.6944204887256
 21
416.0817393800198
 31
0.0
  0
LINE
  5
84C
330
78F
100
AcDbEntity
  8
0
 62
     0
370
    -2
100
AcDbLine
 10
821.4444204887257
 20
573.5817393800198
 30
0.0
 11
821.4444204887257
 21
418.5817393800197
 31
0.0
  0
SOLID
  5
84D
330
78F
100
AcDbEntity
  8
0
 62
     0
100
AcDbTrace
 10
821.0277538220591
 20
573.5817393800198
 30
0.0
 11
821.8610871553924
 21
573.5817393800198
 31
0.0
 12
821.4444204887257
 22
576.0817393800198
 32
0.0
 13
821.4444204887257
 23
576.0817393800198
 33
0.0
  0
SOLID
  5
84E
330
78F
100
AcDbEntity
  8
0
 62
     0
100
AcDbTrace
 10
821.0277538220591
 20
418.5817393800197
 30
0.0
 11
821.8610871553924
 21
418.5817393800197
 31
0.0
 12
821.4444204887257
 22
416.0817393800198
 32
0.0
 13
821.4444204887257
 23
416.0817393800198
 33
0.0
  0
MTEXT
  5
84F
330
78F
100
AcDbEntity
  8
0
 62
     0
100
AcDbMText
 10
817.1944204887257
 20
496.08173938002
 30
0.0
 40
2.5
 41
0.0
 71
     5
 72
     1
  1
160
  7
MSｺﾞｼｯｸ
 11
0.0000000000000001
 21
1.0
 31
0.0
 73
     1
 44
1.0
  0
POINT
  5
850
330
78F
100
AcDbEntity
  8
Defpoints
 62
     0
100
AcDbPoint
 10
771.4746350037171
 20
576.0817393800198
 30
0.0
  0
POINT
  5
851
330
78F
100
AcDbEntity
  8
Defpoints
 62
     0
100
AcDbPoint
 10
771.4746350037172
 20
416.0817393800198
 30
0.0
  0
POINT
  5
852
330
78F
100
AcDbEntity
  8
Defpoints
 62
     0
100
AcDbPoint
 10
821.4444204887257
 20
416.0817393800198
 30
0.0
  0
ENDBLK
  5
79A
330
78F
100
AcDbEntity
  8
0
100
AcDbBlockEnd
  0
ENDSEC
  0
SECTION
  2
ENTITIES
  0
DIMENSION
  5
3FB
330
1F
100
AcDbEntity
  8
0
100
AcDbDimension
  2
*D4
 10
715.7321108772861
 20
427.2971976597702
 30
0.0
 11
759.8002336999552
 21
427.2971976597702
 31
0.0
 70
   160
  1
φ64
 71
     5
 42
63.99999999999988
  3
ISO-25
100
AcDbAlignedDimension
 13
779.732110877286
 23
428.8390104504815
 33
0.0
 14
715.7321108772861
 24
428.8390104504815
 34
0.0
100
AcDbRotatedDimension
1001
ACAD
1000
DSTYLE
1002
{
1070
   340
1005
28E
1002
}
  0
DIMENSION
  5
3FC
330
1F
100
AcDbEntity
  8
0
100
AcDbDimension
  2
*D5
 10
771.7282481830423
 20
445.4998730720618
 30
0.0
 11
759.9813308678242
 21
445.4998730720618
 31
0.0
 70
   160
  1
φ48
 71
     5
 42
47.98455574755235
  3
ISO-25
100
AcDbAlignedDimension
 13
723.7436924354899
 23
443.1408062262311
 33
0.0
 14
771.7282481830423
 24
443.1408062262311
 34
0.0
100
AcDbRotatedDimension
1001
ACAD
1000
DSTYLE
1002
{
1070
   340
1005
28E
1002
}
  0
DIMENSION
  5
3FD
330
1F
100
AcDbEntity
  8
0
100
AcDbDimension
  2
*D6
 10
794.5230025033796
 20
416.0817393800198
 30
0.0
 11
794.5230025033795
 21
435.0317393800205
 31
0.0
 70
   160
  1
38
 71
     5
 42
37.90000000000009
  3
ISO-25
100
AcDbAlignedDimension
 13
775.8321752617441
 23
453.9817393800198
 33
0.0
 14
779.732110877286
 24
416.0817393800198
 34
0.0
 50
90.0
100
AcDbRotatedDimension
1001
ACAD
1000
DSTYLE
1002
{
1070
   340
1005
28E
1002
}
  0
DIMENSION
  5
400
330
1F
100
AcDbEntity
  8
0
100
AcDbDimension
  2
*D7
 10
772.0937286071252
 20
583.7522651076351
 30
0.0
 11
747.7436924354899
 21
583.7522651076351
 31
0.0
 70
   160
  1
49
 71
     5
 42
48.70003625654328
  3
ISO-25
100
AcDbAlignedDimension
 13
723.3936923505819
 23
611.8025563300532
 33
0.0
 14
772.0937286071252
 24
611.8022628927162
 34
0.0
100
AcDbRotatedDimension
1001
ACAD
1000
DSTYLE
1002
{
1070
    41
1040
3.301999999999999
1070
    42
1040
1.0
1070
    44
1040
1.0
1070
    73
1070
     1
1070
    74
1070
     1
1070
    78
1070
     0
1070
   140
1040
3.5
1070
   143
1040
0.0393700787401575
1070
   147
1040
1.524
1070
   179
1070
     2
1070
   284
1070
     0
1070
   340
1005
28E
1002
}
  0
DIMENSION
  5
401
330
1F
100
AcDbEntity
  8
0
100
AcDbDimension
  2
*D8
 10
714.8827028239411
 20
615.6417270607189
 30
0.0
 11
806.3563762098809
 21
641.6988165128157
 31
0.0
 70
   163
  1
φ69
 71
     5
 42
69.0
  3
ISO-25
100
AcDbDiametricDimension
 15
780.6046820470392
 25
636.6565182088286
 35
0.0
 40
0.0
1001
ACAD
1000
DSTYLE
1002
{
1070
    41
1040
3.301999999999999
1070
    42
1040
1.0
1070
    44
1040
1.0
1070
    73
1070
     1
1070
    74
1070
     1
1070
    78
1070
     0
1070
   140
1040
3.5
1070
   143
1040
0.0393700787401575
1070
   147
1040
1.524
1070
   179
1070
     2
1070
   284
1070
     0
1070
   340
1005
28E
1002
}
  0
ARC
  5
402
330
1F
100
AcDbEntity
  8
0
  6
Continuous
 62
     3
370
    15
100
AcDbCircle
 10
713.882829152177
 20
453.8771752966879
 30
0.0
 40
1.0
100
AcDbArc
 50
102.9999999999971
 51
180.0
  0
LINE
  5
403
330
1F
100
AcDbEntity
  8
0
  6
Continuous
 62
     3
370
    15
100
AcDbLine
 10
712.882829152177
 20
453.8771752966879
 30
0.0
 11
712.882829152177
 21
416.08173938002
 31
0.0
  0
LINE
  5
404
330
1F
100
AcDbEntity
  8
0
  6
Continuous
 62
     3
370
    15
100
AcDbLine
 10
722.3766742796153
 20
456.8644380647535
 30
0.0
 11
713.6578780978331
 21
454.8515453614729
 31
0.0
  0
ARC
  5
405
330
1F
100
AcDbEntity
  8
0
  6
Continuous
 62
     3
370
    15
100
AcDbCircle
 10
722.1517612687316
 20
457.8388128032267
 30
0.0
 40
0.9999999700122268
100
AcDbArc
 50
282.9849074462152
 51
359.9418934051872
  0
LINE
  5
406
330
1F
100
AcDbEntity
  8
0
  6
Continuous
 62
     3
370
    15
100
AcDbLine
 10
747.7436924354897
 20
416.08173938002
 30
0.0
 11
712.882829152177
 21
416.08173938002
 31
0.0
  0
SPLINE
  5
407
330
1F
100
AcDbEntity
  8
0
  6
Continuous
 62
     3
370
    15
100
AcDbSpline
210
0.0
220
0.0
230
1.0
 70
     8
 71
     3
 72
    12
 73
     8
 74
     0
 42
0.0000000001
 43
0.0000000001
 40
0.0
 40
0.0
 40
0.0
 40
0.0
 40
0.2500000000000001
 40
0.2500000000000001
 40
0.5000000000000001
 40
0.5000000000000001
 40
0.5215194547239186
 40
0.5215194547239186
 40
0.5215194547239186
 40
0.5215194547239186
 10
727.1517612387299
 20
456.2443299610838
 30
0.0
 10
730.4246885867457
 20
456.7155765471243
 30
0.0
 10
733.7032431122604
 20
457.1171916205742
 30
0.0
 10
740.279698938041
 20
457.681021963586
 30
0.0
 10
743.5779719129566
 20
457.8390354026228
 30
0.0
 10
747.1739687263977
 20
457.8388294058047
 30
0.0
 10
747.4588770774034
 20
457.8376409702898
 30
0.0
 10
747.7436924354899
 20
457.8353023421009
 30
0.0
  0
SPLINE
  5
408
330
1F
100
AcDbEntity
  8
0
  6
Continuous
 62
     3
370
    15
100
AcDbSpline
210
0.0
220
0.0
230
1.0
 70
     8
 71
     3
 72
    14
 73
    10
 74
     0
 42
0.0000000001
 43
0.0000000001
 40
0.0
 40
0.0
 40
0.0
 40
0.0
 40
0.25
 40
0.25
 40
0.5
 40
0.5
 40
0.75
 40
0.75
 40
1.0
 40
1.0
 40
1.0
 40
1.0
 10
727.1517612387299
 20
456.2443299610838
 30
0.0
 10
727.0226309870377
 20
456.2071447847604
 30
0.0
 10
726.8933591932671
 20
456.1784826501377
 30
0.0
 10
726.6492460982426
 20
456.1419239214374
 30
0.0
 10
726.5359928349957
 20
456.1345214374325
 30
0.0
 10
726.3492356154413
 20
456.1429354545177
 30
0.0
 10
726.2745933073536
 20
456.1589042612347
 30
0.0
 10
726.1765635354258
 20
456.2101350782606
 30
0.0
 10
726.1517612387299
 20
456.245703521573
 30
0.0
 10
726.1517612387299
 20
456.2882438428316
 30
0.0
  0
LINE
  5
409
330
1F
100
AcDbEntity
  8
0
  6
Continuous
 62
     3
370
    15
100
AcDbLine
 10
727.1517612387299
 20
576.08173938002
 30
0.0
 11
747.7436924354899
 21
576.0817393800198
 31
0.0
  0
LINE
  5
40A
330
1F
100
AcDbEntity
  8
0
  6
Continuous
 62
     3
370
    15
100
AcDbLine
 10
726.1517612387299
 20
456.2882438428316
 30
0.0
 11
726.1517612387299
 21
576.08173938002
 31
0.0
  0
LINE
  5
40B
330
1F
100
AcDbEntity
  8
0
  6
Continuous
 62
     3
370
    15
100
AcDbLine
 10
726.1517612387299
 20
576.08173938002
 30
0.0
 11
727.1517612387299
 21
576.08173938002
 31
0.0
  0
SPLINE
  5
40C
330
1F
100
AcDbEntity
  8
0
  6
Continuous
 62
     3
370
    15
100
AcDbSpline
210
0.0
220
0.0
230
1.0
 70
     8
 71
     3
 72
    14
 73
    10
 74
     0
 42
0.0000000001
 43
0.0000000001
 40
0.0
 40
0.0
 40
0.0
 40
0.0
 40
0.25
 40
0.25
 40
0.5
 40
0.5
 40
0.75
 40
0.75
 40
1.0
 40
1.0
 40
1.0
 40
1.0
 10
724.1517612387299
 20
456.286317688315
 30
0.0
 10
724.0243341252785
 20
456.2437993100458
 30
0.0
 10
723.8967820140719
 20
456.2086349617093
 30
0.0
 10
723.6543619924739
 20
456.157007354434
 30
0.0
 10
723.5413333469842
 20
456.1411560498554
 30
0.0
 10
723.3532489409717
 20
456.1326765695282
 30
0.0
 10
723.2773541520987
 20
456.1401500642184
 30
0.0
 10
723.1773040778034
 20
456.1764151100844
 30
0.0
 10
723.1517612387299
 20
456.2053775095319
 30
0.0
 10
723.1517612387299
 20
456.2425877713094
 30
0.0
  0
SPLINE
  5
40D
330
1F
100
AcDbEntity
  8
0
  6
Continuous
 62
     3
370
    15
100
AcDbSpline
210
0.0
220
0.0
230
1.0
 70
     8
 71
     3
 72
    11
 73
     7
 74
     0
 42
0.0000000001
 43
0.0000000001
 40
0.0
 40
0.0
 40
0.0
 40
0.0
 40
0.0001081360147832
 40
0.0001081360147832
 40
0.0001081360147832
 40
0.0015200697574099
 40
0.0015200697574099
 40
0.0015200697574099
 40
0.0015200697574099
 10
724.1517612387299
 20
456.286317688315
 30
0.0
 10
724.187315175503
 20
456.2922492977338
 30
0.0
 10
724.2228701921496
 20
456.2981744380938
 30
0.0
 10
724.2584262932659
 20
456.3040930598735
 30
0.0
 10
724.7226814832295
 20
456.3813723675716
 30
0.0
 10
725.1871231125871
 20
456.4575415973638
 30
0.0
 10
725.6517612387299
 20
456.5324841389599
 30
0.0
  0
LINE
  5
40E
330
1F
100
AcDbEntity
  8
0
  6
Continuous
 62
     3
370
    15
100
AcDbLine
 10
725.6517612387299
 20
456.5324841389599
 30
0.0
 11
726.1517612347201
 21
456.5324399341807
 31
0.0
  0
LINE
  5
40F
330
1F
100
AcDbEntity
  8
0
  6
Continuous
 62
     3
370
    15
100
AcDbLine
 10
725.6517612387299
 20
456.5325294943891
 30
0.0
 11
726.1517612387299
 21
456.5325294943891
 31
0.0
  0
LINE
  5
410
330
1F
100
AcDbEntity
  8
0
  6
Continuous
 62
     3
370
    15
100
AcDbLine
 10
725.6517612387299
 20
576.08173938002
 30
0.0
 11
726.1517612387299
 21
576.08173938002
 31
0.0
  0
LINE
  5
411
330
1F
100
AcDbEntity
  8
0
  6
Continuous
 62
     3
370
    15
100
AcDbLine
 10
725.6517612387299
 20
456.5324841389599
 30
0.0
 11
725.6517612387299
 21
456.5325294943891
 31
0.0
  0
LINE
  5
412
330
1F
100
AcDbEntity
  8
0
  6
Continuous
 62
     3
370
    15
100
AcDbLine
 10
723.1517612387299
 20
456.2425877713094
 30
0.0
 11
723.1517612387299
 21
576.08173938002
 31
0.0
  0
LINE
  5
413
102
{ACAD_REACTORS
330
71B
102
}
330
1F
100
AcDbEntity
  8
0
  6
Continuous
 62
     3
370
    15
100
AcDbLine
 10
723.1517612387299
 20
576.08173938002
 30
0.0
 11
724.1517612387299
 21
576.08173938002
 31
0.0
  0
LINE
  5
414
330
1F
100
AcDbEntity
  8
0
  6
Continuous
 62
     3
370
    15
100
AcDbLine
 10
724.1517612387299
 20
576.08173938002
 30
0.0
 11
725.6517612387299
 21
576.08173938002
 31
0.0
  0
LINE
  5
415
330
1F
100
AcDbEntity
  8
0
  6
Continuous
 62
     3
370
    15
100
AcDbLine
 10
747.7436924354899
 20
453.8771752966879
 30
0.0
 11
712.882829152177
 21
453.8771752966879
 31
0.0
  0
HATCH
  5
417
330
1F
100
AcDbEntity
  8
0
  6
Continuous
 62
     3
370
     0
100
AcDbHatch
 10
0.0
 20
0.0
 30
0.0
210
0.0
220
0.0
230
1.0
  2
ANSI31
 70
     0
 71
     0
 91
        1
 92
        0
 93
       19
 72
     1
 10
772.7288663273691
 20
453.9817393800229
 11
775.8321752617441
 21
453.9817393800198
 72
     4
 94
        3
 73
     1
 74
     0
 95
        8
 96
        4
 40
0.0990851300336645
 40
0.0990851300336645
 40
0.0990851300336645
 40
0.0990851300336645
 40
0.102274110224297
 40
0.102274110224297
 40
0.102274110224297
 40
0.102274110224297
 10
775.8321752617441
 20
453.9817393800198
 42
1.0
 10
776.8737107656506
 20
453.7413948155148
 42
1.0
 10
777.9152435485337
 20
453.501038459274
 42
1.0
 10
778.9567743524298
 20
453.2606735281374
 42
1.0
 72
     4
 94
        3
 73
     1
 74
     0
 95
       20
 96
       16
 40
0.0050984225048059
 40
0.0050984225048059
 40
0.0050984225048059
 40
0.0050984225048059
 40
0.005373217179306
 40
0.005373217179306
 40
0.005373217179306
 40
0.0057092045259329
 40
0.0057092045259329
 40
0.0057092045259329
 40
0.006045084807813
 40
0.006045084807813
 40
0.006045084807813
 40
0.0062534433367505
 40
0.0062534433367505
 40
0.0062534433367505
 40
0.006435328995161
 40
0.006435328995161
 40
0.006435328995161
 40
0.006435328995161
 10
778.9567743524298
 20
453.2606735281374
 42
1.0
 10
779.0460681223471
 20
453.240066273146
 42
1.0
 10
779.1333082782846
 20
453.2067689217826
 42
1.0
 10
779.2136232391799
 20
453.1626379421802
 42
1.0
 10
779.3117760477919
 20
453.1087055297566
 42
1.0
 10
779.40197073483
 20
453.0370795065088
 42
1.0
 10
779.4767293223601
 20
452.9536898636343
 42
1.0
 10
779.551464250745
 20
452.8703266114091
 42
1.0
 10
779.6128348059067
 20
452.7729064582604
 42
1.0
 10
779.6557502301184
 20
452.6694994579799
 42
1.0
 10
779.6826062048414
 20
452.604788556556
 42
1.0
 10
779.7027318131445
 20
452.5368687619593
 42
1.0
 10
779.7154644845956
 20
452.4679730202974
 42
1.0
 10
779.7265157194667
 20
452.408175433779
 42
1.0
 10
779.732110877286
 20
452.3471136692848
 42
1.0
 10
779.732110877286
 20
452.2863034633521
 42
1.0
 72
     1
 10
779.732110877286
 20
452.2863034633521
 11
779.732110877286
 21
416.08173938002
 72
     1
 10
779.732110877286
 20
416.08173938002
 11
781.7327923707257
 21
416.08173938002
 72
     1
 10
781.7327923707257
 20
416.08173938002
 11
781.7327923707255
 21
453.8771752966876
 72
     4
 94
        3
 73
     1
 74
     0
 95
       20
 96
       16
 40
0.0061262486948184
 40
0.0061262486948184
 40
0.0061262486948184
 40
0.0061262486948184
 40
0.006308187291879
 40
0.006308187291879
 40
0.006308187291879
 40
0.0065183701309225
 40
0.0065183701309225
 40
0.0065183701309225
 40
0.0068571855993585
 40
0.0068571855993585
 40
0.0068571855993585
 40
0.0071960965059061
 40
0.0071960965059061
 40
0.0071960965059061
 40
0.0074748555479898
 40
0.0074748555479898
 40
0.0074748555479898
 40
0.0074748555479898
 10
781.7327923707255
 20
453.8771752966876
 42
1.0
 10
781.7327923707255
 20
453.9374775308097
 42
1.0
 10
781.7272912935668
 20
453.998025079421
 42
1.0
 10
781.7164235889734
 20
454.057339937905
 42
1.0
 10
781.7037971634434
 20
454.1262537215875
 42
1.0
 10
781.6837769102798
 20
454.1942029973609
 42
1.0
 10
781.6570217697929
 20
454.2589540487861
 42
1.0
 10
781.6142681543599
 20
454.3624235690754
 42
1.0
 10
781.5530519869428
 20
454.4599354565975
 42
1.0
 10
781.4784502397647
 20
454.5434123550753
 42
1.0
 10
781.4038276221558
 20
454.6269126068782
 42
1.0
 10
781.313752579241
 20
454.6986749975458
 42
1.0
 10
781.2156921481562
 20
454.7527580722126
 42
1.0
 10
781.1349993062274
 20
454.7972624349495
 42
1.0
 10
781.047280651301
 20
454.8308223014092
 42
1.0
 10
780.9574890713909
 20
454.8515453614732
 42
1.0
 72
     4
 94
        3
 73
     1
 74
     0
 95
       11
 96
        7
 40
0.1455665335326866
 40
0.1455665335326866
 40
0.1455665335326866
 40
0.1455665335326866
 40
0.1498755830679159
 40
0.1498755830679159
 40
0.1498755830679159
 40
0.154503042495039
 40
0.154503042495039
 40
0.154503042495039
 40
0.154503042495039
 10
780.9574890713909
 20
454.8515453614732
 42
1.0
 10
779.5579290036958
 20
455.1745507855336
 42
1.0
 10
778.1583659953833
 20
455.4975434686816
 42
1.0
 10
776.758798555931
 20
455.8205169497671
 42
1.0
 10
775.2558126351909
 20
456.1673559667092
 42
1.0
 10
773.7528216963099
 20
456.5141732400361
 42
1.0
 10
772.2498223515351
 20
456.8609540803707
 42
1.0
 72
     4
 94
        3
 73
     1
 74
     0
 95
       17
 96
       13
 40
0.0
 40
0.0
 40
0.0
 40
0.0
 40
0.0003357680329708
 40
0.0003357680329708
 40
0.0003357680329708
 40
0.0006715355909159
 40
0.0006715355909159
 40
0.0006715355909159
 40
0.0010073103051195
 40
0.0010073103051195
 40
0.0010073103051195
 40
0.0013376048733992
 40
0.0013376048733992
 40
0.0013376048733992
 40
0.0013376048733992
 10
772.2498223515351
 20
456.8609540803707
 42
1.0
 10
772.1407648439724
 20
456.8861164693289
 42
1.0
 10
772.0345477874318
 20
456.9304551617014
 42
1.0
 10
771.9399670280879
 20
456.9902980036776
 42
1.0
 10
771.845386346311
 20
457.0501407965757
 42
1.0
 10
771.7598333047199
 20
457.1271381615661
 42
1.0
 10
771.6903918839805
 20
457.2149137522101
 42
1.0
 10
771.6209489839554
 20
457.3026912127065
 42
1.0
 10
771.5657031072603
 20
457.4036682431124
 42
1.0
 10
771.5292284727275
 20
457.5094831757582
 42
1.0
 10
771.493332744123
 20
457.6136186702792
 42
1.0
 10
771.4746347380944
 20
457.7252393061607
 42
1.0
 10
771.4746347380944
 20
457.8353878628974
 42
1.0
 72
     1
 10
771.4746347380944
 20
457.8353878628974
 11
771.4746350037164
 21
576.0817393800198
 72
     1
 10
771.4746350037164
 20
576.0817393800198
 11
770.8694124104288
 21
576.0817393800198
 72
     2
 10
770.8694124104288
 20
575.08173938002
 40
1.0
 50
90.0
 51
179.7000000036418
 73
     1
 72
     1
 10
769.869426118181
 20
575.0869753437878
 11
769.2443811574196
 21
455.7132720631138
 72
     4
 94
        3
 73
     1
 74
     0
 95
        8
 96
        4
 40
0.0000000000000001
 40
0.0000000000000001
 40
0.0000000000000001
 40
0.0000000000000001
 40
0.0001327491552256
 40
0.0001327491552256
 40
0.0001327491552256
 40
0.0001327491552256
 10
769.2443811574196
 20
455.7132720631138
 42
1.0
 10
769.2441494674945
 20
455.6690229512696
 42
1.0
 10
769.2380755169827
 20
455.624434901691
 42
1.0
 10
769.2264509736162
 20
455.5817393800198
 42
1.0
 72
     1
 10
769.2264509736162
 20
455.5817393800198
 11
769.2264509736165
 21
416.0817393800198
 72
     1
 10
769.2264509736165
 20
416.08173938002
 11
770.2272178350678
 21
416.08173938002
 72
     4
 94
        3
 73
     1
 74
     0
 95
       11
 96
        7
 40
0.0331631779207857
 40
0.0331631779207857
 40
0.0331631779207857
 40
0.0331631779207857
 40
0.0334597454285585
 40
0.0334597454285585
 40
0.0334597454285585
 40
0.0374355415434146
 40
0.0374355415434146
 40
0.0374355415434146
 40
0.0374355415434146
 10
770.2272178350678
 20
416.08173938002
 42
1.0
 10
770.2619507327279
 20
416.1742926228919
 42
1.0
 10
770.2966835271158
 20
416.2668459045192
 42
1.0
 10
770.3314162196545
 20
416.3593992243677
 42
1.0
 10
770.7970441132372
 20
417.6001728072776
 42
1.0
 10
771.2626537639605
 20
418.8409532363318
 42
1.0
 10
771.7282481830423
 20
420.081739380778
 42
1.0
 72
     1
 10
771.7282481830423
 20
420.081739380778
 11
771.7282481830423
 21
452.9817393800228
 72
     4
 94
        3
 73
     1
 74
     0
 95
       23
 96
       19
 40
0.0036889260430312
 40
0.0036889260430312
 40
0.0036889260430312
 40
0.0036889260430312
 40
0.0036942620208835
 40
0.0036942620208835
 40
0.0036942620208835
 40
0.0040298416064671
 40
0.0040298416064671
 40
0.0040298416064671
 40
0.0043654165975912
 40
0.0043654165975912
 40
0.0043654165975912
 40
0.0047011253451644
 40
0.0047011253451644
 40
0.0047011253451644
 40
0.0050370404681735
 40
0.0050370404681735
 40
0.0050370404681735
 40
0.0052529243912092
 40
0.0052529243912092
 40
0.0052529243912092
 40
0.0052529243912092
 10
771.7282481830423
 20
452.9817393800228
 42
1.0
 10
771.7282481830423
 20
452.9835428255774
 42
1.0
 10
771.7282530648433
 20
452.9853462777391
 42
1.0
 10
771.7282628283376
 20
452.9871496968646
 42
1.0
 10
771.7288684155833
 20
453.0990079677035
 42
1.0
 10
771.7487968666216
 20
453.2123038902978
 42
1.0
 10
771.786393850037
 20
453.3176561865661
 42
1.0
 10
771.8239906261644
 20
453.4230079019837
 42
1.0
 10
771.8802911741138
 20
453.5233204437172
 42
1.0
 10
771.950628240017
 20
453.6102985942879
 42
1.0
 10
772.0209933687977
 20
453.6973114471475
 42
1.0
 10
772.1073445437357
 20
453.7733777900307
 42
1.0
 10
772.2025323507466
 20
453.832214592353
 42
1.0
 10
772.2977779734145
 20
453.8910871312728
 42
1.0
 10
772.4044957837186
 20
453.9343322812328
 42
1.0
 10
772.5138550433869
 20
453.9583792519583
 42
1.0
 10
772.5842651064979
 20
453.9738616969891
 42
1.0
 10
772.6567741426927
 20
453.9817393800229
 42
1.0
 10
772.7288663273691
 20
453.9817393800229
 42
1.0
 97
        0
 75
     0
 76
     1
 52
0.0
 41
1.0
 77
     0
 78
     1
 53
45.0
 43
82.7069596259874
 44
-114.2082606199801
 45
-2.245064030267287
 46
2.245064030267288
 79
     0
 98
        1
 10
82.7069596259874
 20
-114.2082606199801
  0
LINE
  5
418
330
1F
100
AcDbEntity
  8
0
  6
Continuous
 62
     3
370
    15
100
AcDbLine
 10
771.7436924354899
 20
452.9817393800226
 30
0.0
 11
771.7282481830423
 21
452.9817393800226
 31
0.0
  0
LINE
  5
419
330
1F
100
AcDbEntity
  8
0
  6
Continuous
 62
     3
370
    15
100
AcDbLine
 10
781.74369243549
 20
453.8771752966876
 30
0.0
 11
781.7327923707255
 21
453.8771752966876
 31
0.0
  0
LINE
  5
41A
330
1F
100
AcDbEntity
  8
0
  6
Continuous
 62
     3
370
    15
100
AcDbLine
 10
780.9574890713909
 20
454.8515453614729
 30
0.0
 11
780.9686434898337
 21
454.8515453614729
 31
0.0
  0
LINE
  5
41B
330
1F
100
AcDbEntity
  8
0
  6
Continuous
 62
     3
370
    15
100
AcDbLine
 10
772.2496847067179
 20
456.8644495551297
 30
0.0
 11
772.2498223515351
 21
456.8609540803704
 31
0.0
  0
LINE
  5
41C
330
1F
100
AcDbEntity
  8
0
  6
Continuous
 62
     3
370
    15
100
AcDbLine
 10
747.7436924310857
 20
576.0817393800198
 30
0.0
 11
765.8815057527097
 21
576.0817393800198
 31
0.0
  0
LINE
  5
41D
330
1F
100
AcDbEntity
  8
0
  6
Continuous
 62
     3
370
    15
100
AcDbLine
 10
765.8815057527097
 20
575.0869753438514
 30
0.0
 11
747.7436924310857
 21
575.0869753438514
 31
0.0
  0
LINE
  5
41E
330
1F
100
AcDbEntity
  8
0
  6
Continuous
 62
     3
370
    15
100
AcDbLine
 10
765.8815057527097
 20
576.0817393800198
 30
0.0
 11
767.8814783372047
 21
576.0817393800198
 31
0.0
  0
SPLINE
  5
41F
330
1F
100
AcDbEntity
  8
0
  6
Continuous
 62
     3
370
    15
100
AcDbSpline
210
0.0
220
0.0
230
1.0
 70
     8
 71
     3
 72
    20
 73
    16
 74
     0
 42
0.0000000001
 43
0.0000000001
 40
0.5012955849288231
 40
0.5012955849288231
 40
0.5012955849288231
 40
0.5012955849288231
 40
0.5156250000000017
 40
0.5156250000000017
 40
0.5312500000000018
 40
0.5312500000000018
 40
0.5625000000000019
 40
0.5625000000000019
 40
0.6250000000000018
 40
0.6250000000000018
 40
0.7500000000000013
 40
0.7500000000000013
 40
0.8750000000000007
 40
0.8750000000000007
 40
1.0
 40
1.0
 40
1.0
 40
1.0
 10
747.7436924354897
 20
455.5929536561148
 30
0.0
 10
747.7879841502827
 20
455.5929863029323
 30
0.0
 10
747.8321101120143
 20
455.5990888980484
 30
0.0
 10
747.9239544959096
 20
455.6114990473633
 30
0.0
 10
747.9717699813325
 20
455.6185961771238
 30
0.0
 10
748.1152107298689
 20
455.6399258731302
 30
0.0
 10
748.2107916619536
 20
455.6544559614763
 30
0.0
 10
748.4975736423264
 20
455.6977832472489
 30
0.0
 10
748.6887888040541
 20
455.7264930034302
 30
0.0
 10
749.2627338226821
 20
455.8104704088577
 30
0.0
 10
749.6458104671281
 20
455.8637396246336
 30
0.0
 10
750.4134000896581
 20
455.9579598782181
 30
0.0
 10
750.7976525407006
 20
455.9989866298599
 30
0.0
 10
751.5677876282523
 20
456.0593701860807
 30
0.0
 10
751.9536405943015
 20
456.0791213981042
 30
0.0
 10
752.3409794033334
 20
456.0791213981042
 30
0.0
  0
LINE
  5
420
330
1F
100
AcDbEntity
  8
0
  6
Continuous
 62
     3
370
    15
100
AcDbLine
 10
752.3409794033334
 20
456.0791213981042
 30
0.0
 11
765.2583764008634
 21
456.0791213981042
 31
0.0
  0
LINE
  5
421
330
1F
100
AcDbEntity
  8
0
  6
Continuous
 62
     3
370
    15
100
AcDbLine
 10
752.3409794033334
 20
455.5817393800198
 30
0.0
 11
752.3409794033334
 21
456.0791213981042
 31
0.0
  0
ELLIPSE
  5
422
330
1F
100
AcDbEntity
  8
0
  6
Continuous
 62
     3
370
    15
100
AcDbEllipse
 10
765.8814509213246
 20
575.0817393800198
 30
0.0
 11
1.000041123632399
 21
0.0052362508096166
 31
0.0
210
0.0
220
0.0
230
1.0
 40
0.0052353179169821
 41
6.28313049514771
 42
7.853899392533528
  0
ELLIPSE
  5
423
330
1F
100
AcDbEntity
  8
0
  6
Continuous
 62
     3
370
    15
100
AcDbEllipse
 10
765.258362693017
 20
456.0817393800198
 30
0.0
 11
1.000000000164391
 21
-0.0026179639361317
 31
0.0
210
0.0
220
0.0
230
0.9999999999999998
 40
0.0026179280866032
 41
4.712409541872283
 42
6.283178439297429
  0
LINE
  5
424
330
1F
100
AcDbEntity
  8
0
  6
Continuous
 62
     3
370
    15
100
AcDbLine
 10
765.2583764008634
 20
455.5817393800198
 30
0.0
 11
765.2583764008634
 21
456.0791213981042
 31
0.0
  0
LINE
  5
425
330
1F
100
AcDbEntity
  8
0
  6
Continuous
 62
     3
370
    15
100
AcDbLine
 10
767.8814783512814
 20
576.0817393800198
 30
0.0
 11
768.8694395305176
 21
576.0817393800198
 31
0.0
  0
ARC
  5
426
330
1F
100
AcDbEntity
  8
0
  6
Continuous
 62
     3
370
    15
100
AcDbCircle
 10
765.7583695469868
 20
456.0817393800198
 30
0.0
 40
0.5000000000000432
100
AcDbArc
 50
270.0
 51
359.7000000000005
  0
LINE
  5
427
330
1F
100
AcDbEntity
  8
0
  6
Continuous
 62
     3
370
    15
100
AcDbLine
 10
768.8694395445939
 20
575.0869753438514
 30
0.0
 11
767.3814852192338
 21
575.0869753438514
 31
0.0
  0
ARC
  5
428
330
1F
100
AcDbEntity
  8
0
  6
Continuous
 62
     3
370
    15
100
AcDbCircle
 10
767.1314886426528
 20
551.2131935156149
 30
0.0
 40
23.8750907238178
100
AcDbArc
 50
89.40004372517398
 51
90.59995627482605
  0
LINE
  5
429
330
1F
100
AcDbEntity
  8
0
  6
Continuous
 62
     3
370
    15
100
AcDbLine
 10
768.8694395305176
 20
576.0817393800198
 30
0.0
 11
770.8694121431649
 21
576.0817393800198
 31
0.0
  0
ELLIPSE
  5
42A
330
1F
100
AcDbEntity
  8
0
  6
Continuous
 62
     3
370
    15
100
AcDbEllipse
 10
766.758383276042
 20
456.0817393800198
 30
0.0
 11
0.5000205618162
 21
0.0026181254047515
 31
0.0
210
0.0
220
0.0
230
1.0
 40
0.0052353179906485
 41
3.141537841555912
 42
4.712306753019019
  0
ARC
  5
42B
330
1F
100
AcDbEntity
  8
0
  6
Continuous
 62
     3
370
    15
100
AcDbCircle
 10
765.7583695681019
 20
456.0817393800198
 30
0.0
 40
0.5
100
AcDbArc
 50
270.0
 51
359.7000000000005
  0
LINE
  5
42C
330
1F
100
AcDbEntity
  8
0
  6
Continuous
 62
     3
370
    15
100
AcDbLine
 10
766.7583558673875
 20
456.0791213981042
 30
0.0
 11
768.2463101927472
 21
456.0791213981042
 31
0.0
  0
LINE
  5
42D
330
1F
100
AcDbEntity
  8
0
  6
Continuous
 62
     3
370
    15
100
AcDbLine
 10
766.7583558744254
 20
455.5817393800198
 30
0.0
 11
766.7583558673875
 21
456.0791213981042
 31
0.0
  0
ELLIPSE
  5
42E
330
1F
100
AcDbEntity
  8
0
  6
Continuous
 62
     3
370
    15
100
AcDbEllipse
 10
768.8693847272845
 20
575.0817393800198
 30
0.0
 11
1.000041123632399
 21
0.0052362508096166
 31
0.0
210
0.0
220
0.0
230
1.0
 40
0.0052353179907622
 41
6.283130495148482
 42
7.853899406608811
  0
ELLIPSE
  5
42F
330
1F
100
AcDbEntity
  8
0
  6
Continuous
 62
     3
370
    15
100
AcDbEllipse
 10
768.2462964989769
 20
456.0817393800198
 30
0.0
 11
1.000000000164505
 21
-0.0026179639361317
 31
0.0
210
0.0
220
0.0
230
0.9999999999999998
 40
0.0026179281235515
 41
4.712409527796244
 42
6.283178439297526
  0
LINE
  5
430
330
1F
100
AcDbEntity
  8
0
  6
Continuous
 62
     3
370
    15
100
AcDbLine
 10
768.2463101997853
 20
455.5817393800198
 30
0.0
 11
768.2463101927472
 21
456.0791213981042
 31
0.0
  0
LINE
  5
431
330
1F
100
AcDbEntity
  8
0
  6
Continuous
 62
     3
370
    15
100
AcDbLine
 10
747.7436924354899
 20
416.0817393800198
 30
0.0
 11
769.2264509736162
 21
416.0817393800198
 31
0.0
  0
LINE
  5
432
330
1F
100
AcDbEntity
  8
0
  6
Continuous
 62
     3
370
    15
100
AcDbLine
 10
768.7463035346011
 20
455.5817393800198
 30
0.0
 11
769.2264509736162
 21
455.5817393800198
 31
0.0
  0
LINE
  5
433
330
1F
100
AcDbEntity
  8
0
  6
Continuous
 62
     3
370
    15
100
AcDbLine
 10
752.3409794033334
 20
455.5817393800198
 30
0.0
 11
768.7463035346011
 21
455.5817393800198
 31
0.0
  0
LINE
  5
434
330
1F
100
AcDbEntity
  8
0
  6
Continuous
 62
     3
370
    15
100
AcDbLine
 10
747.7436924354901
 20
455.5817393800198
 30
0.0
 11
752.3409794033334
 21
455.5817393800198
 31
0.0
  0
ARC
  5
435
330
1F
100
AcDbEntity
  8
0
  6
Continuous
 62
     3
370
    15
100
AcDbCircle
 10
770.8694121431649
 20
575.0817393800198
 30
0.0
 40
1.000000000000086
100
AcDbArc
 50
90.0
 51
179.6999999999875
  0
LINE
  5
436
330
1F
100
AcDbEntity
  8
0
  6
Continuous
 62
     3
370
    15
100
AcDbLine
 10
770.2436924351793
 20
416.0817393800198
 30
0.0
 11
770.2272178350678
 21
416.0817393800198
 31
0.0
  0
LINE
  5
437
330
1F
100
AcDbEntity
  8
0
  6
Continuous
 62
     3
370
    15
100
AcDbLine
 10
771.7282481830423
 20
420.0817393807779
 30
0.0
 11
771.7436924354899
 21
420.0817393807779
 31
0.0
  0
LINE
  5
438
102
{ACAD_REACTORS
330
7A5
102
}
330
1F
100
AcDbEntity
  8
0
  6
Continuous
 62
     3
370
    15
100
AcDbLine
 10
770.2436924351793
 20
416.0817393800198
 30
0.0
 11
779.732110877286
 21
416.0817393800198
 31
0.0
  0
LINE
  5
439
330
1F
100
AcDbEntity
  8
0
  6
Continuous
 62
     3
370
    15
100
AcDbLine
 10
781.74369243549
 20
416.0817393800198
 30
0.0
 11
781.7327923707255
 21
416.0817393800198
 31
0.0
  0
LINE
  5
43A
330
1F
100
AcDbEntity
  8
0
  6
Continuous
 62
     3
370
    15
100
AcDbLine
 10
775.8321752617441
 20
453.9817393800198
 30
0.0
 11
772.7288663273691
 21
453.9817393800226
 31
0.0
  0
LINE
  5
43B
330
1F
100
AcDbEntity
  8
0
  6
Continuous
 62
     3
370
    15
100
AcDbLine
 10
775.8321752617441
 20
453.9817393800198
 30
0.0
 11
778.9567743524301
 21
453.2606735281372
 31
0.0
  0
SPLINE
  5
43C
330
1F
100
AcDbEntity
  8
0
  6
Continuous
 62
     3
370
    15
100
AcDbSpline
210
0.0
220
0.0
230
1.0
 70
     8
 71
     3
 72
    12
 73
     8
 74
     0
 42
0.0000000001
 43
0.0000000001
 40
0.0
 40
0.0
 40
0.0
 40
0.0
 40
0.5000000000000109
 40
0.5000000000000109
 40
0.7500000000000055
 40
0.7500000000000055
 40
1.0
 40
1.0
 40
1.0
 40
1.0
 10
778.9567743524301
 20
453.2606735281372
 30
0.0
 10
779.1751294864025
 20
453.2102814355134
 30
0.0
 10
779.3746482702451
 20
453.084564784132
 30
0.0
 10
779.5841632531292
 20
452.8215379864065
 30
0.0
 10
779.6388108384166
 20
452.7227590345337
 30
0.0
 10
779.7131548813957
 20
452.5103545610229
 30
0.0
 10
779.732110877286
 20
452.3977233522154
 30
0.0
 10
779.732110877286
 20
452.2863034633519
 30
0.0
  0
LINE
  5
43D
330
1F
100
AcDbEntity
  8
0
  6
Continuous
 62
     3
370
    15
100
AcDbLine
 10
779.732110877286
 20
452.2863034633519
 30
0.0
 11
779.732110877286
 21
416.0817393800198
 31
0.0
  0
LINE
  5
43E
330
1F
100
AcDbEntity
  8
0
  6
Continuous
 62
     3
370
    15
100
AcDbLine
 10
779.732110877286
 20
416.0817393800198
 30
0.0
 11
781.7327923707255
 21
416.0817393800198
 31
0.0
  0
LINE
  5
43F
330
1F
100
AcDbEntity
  8
0
  6
Continuous
 62
     3
370
    15
100
AcDbLine
 10
781.7327923707255
 20
416.0817393800198
 30
0.0
 11
781.7327923707255
 21
453.8771752966876
 31
0.0
  0
SPLINE
  5
440
330
1F
100
AcDbEntity
  8
0
  6
Continuous
 62
     3
370
    15
100
AcDbSpline
210
0.0
220
0.0
230
1.0
 70
     8
 71
     3
 72
    12
 73
     8
 74
     0
 42
0.0000000001
 43
0.0000000001
 40
0.0
 40
0.0
 40
0.0
 40
0.0
 40
0.4999999999999988
 40
0.4999999999999988
 40
0.7499999999999993
 40
0.7499999999999993
 40
1.0
 40
1.0
 40
1.0
 40
1.0
 10
780.9574890713909
 20
454.8515453614729
 30
0.0
 10
781.1758755265397
 20
454.8011438023094
 30
0.0
 10
781.3753247151471
 20
454.6754630374596
 30
0.0
 10
781.5848642044912
 20
454.412392477448
 30
0.0
 10
781.6394910125118
 20
454.3136432606265
 30
0.0
 10
781.7138376191994
 20
454.101227510966
 30
0.0
 10
781.7327923707255
 20
453.9885900561378
 30
0.0
 10
781.7327923707255
 20
453.8771752966876
 30
0.0
  0
SPLINE
  5
441
330
1F
100
AcDbEntity
  8
0
  6
Continuous
 62
     3
370
    15
100
AcDbSpline
210
0.0
220
0.0
230
1.0
 70
     8
 71
     3
 72
    10
 73
     6
 74
     0
 42
0.0000000001
 43
0.0000000001
 40
0.0
 40
0.0
 40
0.0
 40
0.0
 40
0.5
 40
0.5
 40
1.0
 40
1.0
 40
1.0
 40
1.0
 10
772.2498223515351
 20
456.8609540803704
 30
0.0
 10
772.0294675349946
 20
456.9117956384307
 30
0.0
 10
771.8328488796803
 20
457.0358607548132
 30
0.0
 10
771.5513804567429
 20
457.3896238530064
 30
0.0
 10
771.4746347380944
 20
457.6092440630596
 30
0.0
 10
771.4746347380944
 20
457.8353878628973
 30
0.0
  0
LINE
  5
442
330
1F
100
AcDbEntity
  8
0
  6
Continuous
 62
     3
370
    15
100
AcDbLine
 10
771.4746350037171
 20
576.0817393800198
 30
0.0
 11
771.4746347380944
 21
457.8353878628973
 31
0.0
  0
LINE
  5
443
102
{ACAD_REACTORS
330
7A5
102
}
330
1F
100
AcDbEntity
  8
0
  6
Continuous
 62
     3
370
    15
100
AcDbLine
 10
771.4746350037171
 20
576.0817393800198
 30
0.0
 11
770.8694124104292
 21
576.0817393800198
 31
0.0
  0
ARC
  5
444
330
1F
100
AcDbEntity
  8
0
  6
Continuous
 62
     3
370
    15
100
AcDbCircle
 10
770.8694124104292
 20
575.0817393800198
 30
0.0
 40
1.0
100
AcDbArc
 50
90.0
 51
179.7000000036352
  0
LINE
  5
445
330
1F
100
AcDbEntity
  8
0
  6
Continuous
 62
     3
370
    15
100
AcDbLine
 10
769.2264509736162
 20
455.5817393800198
 30
0.0
 11
769.2264509736162
 21
416.0817393800198
 31
0.0
  0
LINE
  5
446
330
1F
100
AcDbEntity
  8
0
  6
Continuous
 62
     3
370
    15
100
AcDbLine
 10
770.2272178350678
 20
416.0817393800198
 30
0.0
 11
769.2264509736162
 21
416.0817393800198
 31
0.0
  0
LWPOLYLINE
  5
447
330
1F
100
AcDbEntity
  8
0
  6
Continuous
 62
     3
370
    15
100
AcDbPolyline
 90
        3
 70
   128
 43
0.0
 10
771.7282481830423
 20
420.0817393807779
 10
770.3314162196543
 20
416.3593992243677
 10
770.2272178350678
 20
416.0817393800198
  0
LINE
  5
448
330
1F
100
AcDbEntity
  8
0
  6
Continuous
 62
     3
370
    15
100
AcDbLine
 10
771.7282481830423
 20
452.9817393800226
 30
0.0
 11
771.7282481830423
 21
420.0817393807779
 31
0.0
  0
SPLINE
  5
449
330
1F
100
AcDbEntity
  8
0
  6
Continuous
 62
     3
370
    15
100
AcDbSpline
210
0.0
220
0.0
230
1.0
 70
     8
 71
     3
 72
    14
 73
    10
 74
     0
 42
0.0000000001
 43
0.0000000001
 40
0.0
 40
0.0
 40
0.0
 40
0.0
 40
0.25
 40
0.25
 40
0.5
 40
0.5
 40
0.75
 40
0.75
 40
1.0
 40
1.0
 40
1.0
 40
1.0
 10
771.7282481830423
 20
452.9817393800226
 30
0.0
 10
771.7282481830423
 20
453.1138293754379
 30
0.0
 10
771.7542907141037
 20
453.2436490045074
 30
0.0
 10
771.8549150418846
 20
453.4860904660274
 30
0.0
 10
771.9292901403216
 20
453.5969655208243
 30
0.0
 10
772.1141269922311
 20
453.7814875922403
 30
0.0
 10
772.2257973431644
 20
453.8559232292377
 30
0.0
 10
772.4666806966618
 20
453.9555518905213
 30
0.0
 10
772.5983853717175
 20
453.9817393800226
 30
0.0
 10
772.7288663273691
 20
453.9817393800226
 30
0.0
  0
LWPOLYLINE
  5
44A
330
1F
100
AcDbEntity
  8
0
  6
Continuous
 62
     3
370
    15
100
AcDbPolyline
 90
        3
 70
   128
 43
0.0
 10
780.9574890713909
 20
454.8515453614729
 10
776.7587985559312
 20
455.8205169497669
 10
772.2498223515351
 20
456.8609540803704
  0
SPLINE
  5
44B
330
1F
100
AcDbEntity
  8
0
  6
Continuous
 62
     3
370
    15
100
AcDbSpline
210
0.0
220
0.0
230
1.0
 70
     8
 71
     3
 72
     8
 73
     4
 74
     0
 42
0.0000000001
 43
0.0000000001
 40
0.0
 40
0.0
 40
0.0
 40
0.0
 40
1.0
 40
1.0
 40
1.0
 40
1.0
 10
769.2443811574196
 20
455.7132720631138
 30
0.0
 10
769.2441474883032
 20
455.6686449569877
 30
0.0
 10
769.2381749634425
 20
455.6248001563376
 30
0.0
 10
769.2264509736162
 20
455.5817393800198
 30
0.0
  0
LINE
  5
44C
330
1F
100
AcDbEntity
  8
0
  6
Continuous
 62
     3
370
    15
100
AcDbLine
 10
769.8694261181815
 20
575.0869753437878
 30
0.0
 11
769.2443811574196
 21
455.7132720631138
 31
0.0
  0
LINE
  5
44D
330
1F
100
AcDbEntity
  8
0
  6
Continuous
 62
     3
370
    15
100
AcDbLine
 10
769.8694261181815
 20
575.0869753437878
 30
0.0
 11
769.8694258509174
 21
575.0869753438514
 31
0.0
  0
LINE
  5
44E
330
1F
100
AcDbEntity
  8
0
  6
Continuous
 62
     3
370
    15
100
AcDbLine
 10
769.8694258509174
 20
575.0869753438514
 30
0.0
 11
769.2462964990709
 21
456.0791213981042
 31
0.0
  0
LINE
  5
44F
330
1F
100
AcDbEntity
  8
0
  6
Continuous
 62
     3
370
    15
100
AcDbLine
 10
769.2462964990709
 20
456.0791213981042
 30
0.0
 11
769.246296680725
 21
456.0791213981042
 31
0.0
  0
SPLINE
  5
450
330
1F
100
AcDbEntity
  8
0
  6
Continuous
 62
     3
370
    15
100
AcDbSpline
210
0.0
220
0.0
230
1.0
 70
     8
 71
     3
 72
    10
 73
     6
 74
     0
 42
0.0000000001
 43
0.0000000001
 40
0.0
 40
0.0
 40
0.0
 40
0.0
 40
0.2683252021719867
 40
0.7502515003585668
 40
0.9999999999999998
 40
0.9999999999999998
 40
0.9999999999999998
 40
0.9999999999999998
 10
769.246296680725
 20
456.0791213981042
 30
0.0
 10
769.2462493882187
 20
456.0700883806034
 30
0.0
 10
769.2461171558631
 20
456.0448315844555
 30
0.0
 10
769.2453359254138
 20
455.8956255993791
 30
0.0
 10
769.2446241036889
 20
455.7596764889012
 30
0.0
 10
769.2443811317998
 20
455.7132718751708
 30
0.0
  0
ARC
  5
451
330
1F
100
AcDbEntity
  8
0
  6
Continuous
 62
     3
370
    15
100
AcDbCircle
 10
768.7463049978039
 20
456.0816610009497
 30
0.0
 40
0.4999981275910737
100
AcDbArc
 50
270.6598819041522
 51
359.6812757078154
  0
LINE
  5
452
330
1F
100
AcDbEntity
  8
0
  6
Continuous
 62
     3
370
    15
100
AcDbLine
 10
770.2436924351793
 20
416.0817393800198
 30
0.0
 11
771.7436924354899
 21
420.0817393807779
 31
0.0
  0
LINE
  5
453
330
1F
100
AcDbEntity
  8
0
  6
Continuous
 62
     3
370
    15
100
AcDbLine
 10
771.7436924354899
 20
420.0817393807779
 30
0.0
 11
771.7436924354899
 21
452.9817393800226
 31
0.0
  0
ARC
  5
454
330
1F
100
AcDbEntity
  8
0
  6
Continuous
 62
     3
370
    15
100
AcDbCircle
 10
772.4746346959578
 20
457.8388418628096
 30
0.0
 40
0.9999999704096628
100
AcDbArc
 50
180.0583137162556
 51
256.985290814399
  0
ARC
  5
455
330
1F
100
AcDbEntity
  8
0
  6
Continuous
 62
     3
370
    15
100
AcDbCircle
 10
780.7436924354899
 20
453.8771752966876
 30
0.0
 40
1.000000000000041
100
AcDbArc
 50
0.0
 51
76.99999999998948
  0
LINE
  5
456
330
1F
100
AcDbEntity
  8
0
  6
Continuous
 62
     3
370
    15
100
AcDbLine
 10
781.74369243549
 20
416.0817393800198
 30
0.0
 11
781.74369243549
 21
453.8771752966876
 31
0.0
  0
LINE
  5
457
330
1F
100
AcDbEntity
  8
0
  6
Continuous
 62
     3
370
    15
100
AcDbLine
 10
780.9686434898337
 20
454.8515453614729
 30
0.0
 11
772.2496904163049
 21
456.8644742860672
 31
0.0
  0
INSERT
  5
459
330
1F
100
AcDbEntity
  8
0
  6
Continuous
 62
     1
370
     0
100
AcDbBlockReference
  2
SW_CENTERMARKSYMBOL_1
 10
747.7436924354899
 20
626.1491226347734
 30
0.0
 41
2.0
 42
2.0
 43
2.0
  0
CIRCLE
  5
45A
330
1F
100
AcDbEntity
  8
0
  6
Continuous
 62
     3
370
    15
100
AcDbCircle
 10
747.7436924354899
 20
626.1491226347734
 30
0.0
 40
34.5
  0
ARC
  5
45B
330
1F
100
AcDbEntity
  8
0
  6
Continuous
 62
     3
370
    30
100
AcDbCircle
 10
747.7436924354899
 20
626.1491226347734
 30
0.0
 40
22.00000000000006
100
AcDbArc
 50
92.03881357995445
 51
177.9611867891999
  0
ARC
  5
45C
330
1F
100
AcDbEntity
  8
0
  6
Continuous
 62
     3
370
    30
100
AcDbCircle
 10
747.7436924354899
 20
626.1491226347734
 30
0.0
 40
22.00000000000001
100
AcDbArc
 50
272.0388129737571
 51
357.9611954783196
  0
ARC
  5
45D
330
1F
100
AcDbEntity
  8
0
  6
Continuous
 62
     3
370
    30
100
AcDbCircle
 10
747.7436924354899
 20
626.1491226347734
 30
0.0
 40
22.0
100
AcDbArc
 50
182.038813210761
 51
267.9611875965334
  0
ARC
  5
45E
330
1F
100
AcDbEntity
  8
0
  6
Continuous
 62
     3
370
    30
100
AcDbCircle
 10
747.7436924354899
 20
626.1491226347734
 30
0.0
 40
22.00000000000002
100
AcDbArc
 50
2.038804521680407
 51
87.96118699053788
  0
ARC
  5
45F
330
1F
100
AcDbEntity
  8
0
  6
Continuous
 62
     3
370
    30
100
AcDbCircle
 10
729.7432651601138
 20
605.1487718576322
 30
0.0
 40
1.00000000000017
100
AcDbArc
 50
180.0063473150482
 51
269.9996858317188
  0
ARC
  5
460
330
1F
100
AcDbEntity
  8
0
  6
Continuous
 62
     3
370
    30
100
AcDbCircle
 10
765.7441197113119
 20
605.1487718571406
 30
0.0
 40
1.000000000000196
100
AcDbArc
 50
269.9975695141918
 51
359.9996857655585
  0
ARC
  5
461
330
1F
100
AcDbEntity
  8
0
  6
Continuous
 62
     3
370
    30
100
AcDbCircle
 10
768.7440432099983
 20
608.1486953508149
 30
0.0
 40
1.000000000000201
100
AcDbArc
 50
270.0063473376185
 51
359.9996858317123
  0
SPLINE
  5
462
330
1F
100
AcDbEntity
  8
0
  6
Continuous
 62
     3
370
    30
100
AcDbSpline
210
0.0
220
0.0
230
1.0
 70
     8
 71
     3
 72
    17
 73
    13
 74
     0
 42
0.0000000001
 43
0.0000000001
 40
0.0
 40
0.0
 40
0.0
 40
0.0
 40
0.0627993512742833
 40
0.1250298202297169
 40
0.1873015829940884
 40
0.250223614386754
 40
0.3750211180803624
 40
0.5001477442066122
 40
0.6249451445376577
 40
0.7500718738716233
 40
0.8749536075035154
 40
1.0
 40
1.0
 40
1.0
 40
1.0
 10
725.7433416676069
 20
608.1487377795288
 30
0.0
 10
725.7442438795074
 20
608.115883225791
 30
0.0
 10
725.7460401304149
 20
608.0504717388221
 30
0.0
 10
725.7608790822957
 20
607.9534125747609
 30
0.0
 10
725.784676314884
 20
607.8581929965225
 30
0.0
 10
725.8289144048672
 20
607.7349900561044
 30
0.0
 10
725.9061195834585
 20
607.589430709971
 30
0.0
 10
726.0316263769409
 20
607.4373736913657
 30
0.0
 10
726.1838358812715
 20
607.3115274842676
 30
0.0
 10
726.3580556516849
 20
607.2195699972535
 30
0.0
 10
726.5467673807852
 20
607.159532995953
 30
0.0
 10
726.6777142949792
 20
607.1523094946262
 30
0.0
 10
726.743230887618
 20
607.1486953644516
 30
0.0
  0
SPLINE
  5
463
330
1F
100
AcDbEntity
  8
0
  6
Continuous
 62
     3
370
    30
100
AcDbSpline
210
0.0
220
0.0
230
1.0
 70
     8
 71
     3
 72
    17
 73
    13
 74
     0
 42
0.0000000001
 43
0.0000000001
 40
0.0
 40
0.0
 40
0.0
 40
0.0
 40
0.0627993512743739
 40
0.1250298202297931
 40
0.187301582994123
 40
0.2502236143867837
 40
0.3750211180804665
 40
0.5001477442066316
 40
0.6249451445371561
 40
0.7500718738716105
 40
0.8749536075029864
 40
1.0
 40
1.0
 40
1.0
 40
1.0
 10
769.7440432118765
 20
644.1495074816629
 30
0.0
 10
769.7431409999774
 20
644.1823620354025
 30
0.0
 10
769.7413447490726
 20
644.2477735223754
 30
0.0
 10
769.7265057971945
 20
644.3448326864427
 30
0.0
 10
769.7027085646075
 20
644.4400522646869
 30
0.0
 10
769.6584704746251
 20
644.5632552051133
 30
0.0
 10
769.5812652960317
 20
644.7088145512564
 30
0.0
 10
769.4557585025432
 20
644.8608715698711
 30
0.0
 10
769.3035489982032
 20
644.9867177769752
 30
0.0
 10
769.1293292277787
 20
645.078675263992
 30
0.0
 10
768.9406174986658
 20
645.1387122652911
 30
0.0
 10
768.8096705844639
 20
645.1459357666126
 30
0.0
 10
768.7441539918211
 20
645.1495498967847
 30
0.0
  0
ARC
  5
464
330
1F
100
AcDbEntity
  8
0
  6
Continuous
 62
     3
370
    30
100
AcDbCircle
 10
726.743341669478
 20
644.1495499104401
 30
0.0
 40
1.000000000000199
100
AcDbArc
 50
90.00634733640044
 51
179.9996858317123
  0
SPLINE
  5
465
330
1F
100
AcDbEntity
  8
0
  6
Continuous
 62
     3
370
    30
100
AcDbSpline
210
0.0
220
0.0
230
1.0
 70
     8
 71
     3
 72
    17
 73
    13
 74
     0
 42
0.0000000001
 43
0.0000000001
 40
0.0
 40
0.0
 40
0.0
 40
0.0
 40
0.0627993790418455
 40
0.1250298298074244
 40
0.1873015736834778
 40
0.250223630680006
 40
0.3750211343562882
 40
0.500147754848713
 40
0.6249451552333884
 40
0.7500718790200387
 40
0.8749536114701317
 40
1.0
 40
1.0
 40
1.0
 40
1.0
 10
766.7441197193254
 20
647.1494788869295
 30
0.0
 10
766.7432158693195
 20
647.182334610783
 30
0.0
 10
766.7414163576977
 20
647.2477484034716
 30
0.0
 10
766.7265716833599
 20
647.344810326522
 30
0.0
 10
766.7027681611762
 20
647.440032025574
 30
0.0
 10
766.658520986336
 20
647.563236790424
 30
0.0
 10
766.5813034120819
 20
647.7087964709367
 30
0.0
 10
766.4557808388954
 20
647.8608498957146
 30
0.0
 10
766.3035556621184
 20
647.9866885926687
 30
0.0
 10
766.1293214104311
 20
648.0786341804807
 30
0.0
 10
765.9405970382315
 20
648.1386556878328
 30
0.0
 10
765.809644572236
 20
648.1458659149843
 30
0.0
 10
765.7441252025964
 20
648.1494734036587
 30
0.0
  0
ARC
  5
466
330
1F
100
AcDbEntity
  8
0
  6
Continuous
 62
     3
370
    30
100
AcDbCircle
 10
729.7432651681837
 20
647.1494734041011
 30
0.0
 40
1.000000000000195
100
AcDbArc
 50
89.99756951419179
 51
179.9996857655715
  0
LINE
  5
467
330
1F
100
AcDbEntity
  8
0
  6
Continuous
 62
     3
370
    30
100
AcDbLine
 10
757.3290519740994
 20
604.1455034979342
 30
0.0
 11
765.7440772913321
 21
604.1487718571406
 31
0.0
  0
LINE
  5
468
330
1F
100
AcDbEntity
  8
0
  6
Continuous
 62
     3
370
    30
100
AcDbLine
 10
757.3290519740994
 20
604.1455034979342
 30
0.0
 11
748.5267106111382
 21
604.1442184999645
 31
0.0
  0
SPLINE
  5
469
330
1F
100
AcDbEntity
  8
0
  6
Continuous
 62
     3
370
    30
100
AcDbSpline
210
0.0
220
0.0
230
1.0
 70
     8
 71
     3
 72
     8
 73
     4
 74
     0
 42
0.0000000001
 43
0.0000000001
 40
0.0
 40
0.0
 40
0.0
 40
0.0
 40
1.0
 40
1.0
 40
1.0
 40
1.0
 10
747.7381168555268
 20
604.1491233412982
 30
0.0
 10
748.0009247014073
 20
604.1490567364708
 30
0.0
 10
748.2637337336641
 20
604.1536998150938
 30
0.0
 10
748.5263752191287
 20
604.1630495961385
 30
0.0
  0
SPLINE
  5
46A
330
1F
100
AcDbEntity
  8
0
  6
Continuous
 62
     3
370
    30
100
AcDbSpline
210
0.0
220
0.0
230
1.0
 70
     8
 71
     3
 72
     8
 73
     4
 74
     0
 42
0.0000000001
 43
0.0000000001
 40
0.0
 40
0.0
 40
0.0
 40
0.0
 40
1.0
 40
1.0
 40
1.0
 40
1.0
 10
746.9610098706907
 20
604.163049588348
 30
0.0
 10
747.2199365830093
 20
604.1538320521892
 30
0.0
 10
747.4790261358682
 20
604.1491890040743
 30
0.0
 10
747.7381168555268
 20
604.1491233412982
 30
0.0
  0
LINE
  5
46B
330
1F
100
AcDbEntity
  8
0
  6
Continuous
 62
     3
370
    30
100
AcDbLine
 10
746.9603395027018
 20
604.1442185063219
 30
0.0
 11
738.1521454978081
 21
604.1455051596078
 31
0.0
  0
LINE
  5
46C
330
1F
100
AcDbEntity
  8
0
  6
Continuous
 62
     3
370
    30
100
AcDbLine
 10
729.743307395644
 20
604.1487718576322
 30
0.0
 11
738.1569185181354
 21
604.145503870779
 31
0.0
  0
ARC
  5
46D
330
1F
100
AcDbEntity
  8
0
  6
Continuous
 62
     3
370
    30
100
AcDbCircle
 10
767.2449110958787
 20
606.6479039206831
 30
0.0
 40
0.5
100
AcDbArc
 50
90.0
 51
134.999999999993
  0
ARC
  5
46E
330
1F
100
AcDbEntity
  8
0
  6
Continuous
 62
     3
370
    30
100
AcDbCircle
 10
728.2424737300013
 20
606.6479039743403
 30
0.0
 40
0.5
100
AcDbArc
 50
0.0
 51
44.99999999999309
  0
ARC
  5
46F
330
1F
100
AcDbEntity
  8
0
  6
Continuous
 62
     3
370
    30
100
AcDbCircle
 10
728.2424737836172
 20
645.6503413405584
 30
0.0
 40
0.5
100
AcDbArc
 50
270.0
 51
315.0000000000092
  0
LINE
  5
470
330
1F
100
AcDbEntity
  8
0
  6
Continuous
 62
     3
370
    30
100
AcDbLine
 10
725.7400732967646
 20
616.5637630767746
 30
0.0
 11
725.7433416664598
 21
608.1487377795288
 31
0.0
  0
LINE
  5
471
330
1F
100
AcDbEntity
  8
0
  6
Continuous
 62
     3
370
    30
100
AcDbLine
 10
725.7400774194084
 20
616.5485015001288
 30
0.0
 11
725.7387883075355
 21
625.3657693915611
 31
0.0
  0
SPLINE
  5
472
330
1F
100
AcDbEntity
  8
0
  6
Continuous
 62
     3
370
    30
100
AcDbSpline
210
0.0
220
0.0
230
1.0
 70
     8
 71
     3
 72
     8
 73
     4
 74
     0
 42
0.0000000001
 43
0.0000000001
 40
0.0
 40
0.0
 40
0.0
 40
0.0
 40
1.0
 40
1.0
 40
1.0
 40
1.0
 10
725.7436931420295
 20
626.1546982726327
 30
0.0
 10
725.7436265364977
 20
625.8918903771197
 30
0.0
 10
725.7482696161957
 20
625.6290812952177
 30
0.0
 10
725.7576194000924
 20
625.3664397601908
 30
0.0
  0
SPLINE
  5
473
330
1F
100
AcDbEntity
  8
0
  6
Continuous
 62
     3
370
    30
100
AcDbSpline
210
0.0
220
0.0
230
1.0
 70
     8
 71
     3
 72
     8
 73
     4
 74
     0
 42
0.0000000001
 43
0.0000000001
 40
0.0
 40
0.0
 40
0.0
 40
0.0
 40
1.0
 40
1.0
 40
1.0
 40
1.0
 10
725.7576194000931
 20
626.9318055093697
 30
0.0
 10
725.7484018572963
 20
626.6728787132019
 30
0.0
 10
725.7437588055085
 20
626.4137890763236
 30
0.0
 10
725.7436931420295
 20
626.1546982726327
 30
0.0
  0
LINE
  5
474
330
1F
100
AcDbEntity
  8
0
  6
Continuous
 62
     3
370
    30
100
AcDbLine
 10
725.7387883075271
 20
626.9324758779996
 30
0.0
 11
725.7400749677506
 21
635.7406695724641
 31
0.0
  0
LINE
  5
475
330
1F
100
AcDbEntity
  8
0
  6
Continuous
 62
     3
370
    30
100
AcDbLine
 10
725.743341669478
 20
644.149507675183
 30
0.0
 11
725.7400736789214
 21
635.7358965645853
 31
0.0
  0
ARC
  5
476
330
1F
100
AcDbEntity
  8
0
  6
Continuous
 62
     3
370
    30
100
AcDbCircle
 10
767.2449111494358
 20
645.6503412868958
 30
0.0
 40
0.5
100
AcDbArc
 50
180.0
 51
224.9999999999977
  0
LINE
  5
477
330
1F
100
AcDbEntity
  8
0
  6
Continuous
 62
     3
370
    30
100
AcDbLine
 10
726.7432308876172
 20
607.1486953589085
 30
0.0
 11
728.2425764178729
 21
607.1479039299759
 31
0.0
  0
ARC
  5
478
330
1F
100
AcDbEntity
  8
0
  6
Continuous
 62
     3
370
    30
100
AcDbCircle
 10
728.2424737300013
 20
606.6479039743403
 30
0.0
 40
0.4999999999999846
100
AcDbArc
 50
44.99999999999309
 51
89.99803713555825
  0
ARC
  5
479
330
1F
100
AcDbEntity
  8
0
  6
Continuous
 62
     3
370
    30
100
AcDbCircle
 10
767.2449110958787
 20
606.6479039206831
 30
0.0
 40
0.4999999999999846
100
AcDbArc
 50
134.999999999993
 51
179.998037135656
  0
LINE
  5
47A
330
1F
100
AcDbEntity
  8
0
  6
Continuous
 62
     3
370
    30
100
AcDbLine
 10
766.7441197113118
 20
605.1486610783272
 30
0.0
 11
766.7449111402434
 21
606.6480066085537
 31
0.0
  0
ARC
  5
47B
330
1F
100
AcDbEntity
  8
0
  6
Continuous
 62
     3
370
    30
100
AcDbCircle
 10
728.2424737836172
 20
645.6503413405584
 30
0.0
 40
0.5000000000000129
100
AcDbArc
 50
315.0000000000092
 51
359.9980371357081
  0
LINE
  5
47C
330
1F
100
AcDbEntity
  8
0
  6
Continuous
 62
     3
370
    30
100
AcDbLine
 10
728.7432651681838
 20
647.1495841829444
 30
0.0
 11
728.7424737392525
 21
645.6502386526883
 31
0.0
  0
LINE
  5
47D
330
1F
100
AcDbEntity
  8
0
  6
Continuous
 62
     3
370
    30
100
AcDbLine
 10
768.7441539918218
 20
645.1495499023279
 30
0.0
 11
767.2448084615662
 21
645.1503413312602
 31
0.0
  0
ARC
  5
47E
330
1F
100
AcDbEntity
  8
0
  6
Continuous
 62
     3
370
    30
100
AcDbCircle
 10
767.2449111494358
 20
645.6503412868958
 30
0.0
 40
0.4999999999999846
100
AcDbArc
 50
224.9999999999977
 51
269.9980371357602
  0
LINE
  5
47F
330
1F
100
AcDbEntity
  8
0
  6
Continuous
 62
     3
370
    30
100
AcDbLine
 10
767.2448940232284
 20
607.1479039206831
 30
0.0
 11
768.7441539919388
 21
607.1486953508149
 31
0.0
  0
LINE
  5
480
330
1F
100
AcDbEntity
  8
0
  6
Continuous
 62
     3
370
    30
100
AcDbLine
 10
728.2424908562354
 20
645.1503413405585
 30
0.0
 11
726.7432308875586
 21
645.14954991044
 31
0.0
  0
LINE
  5
481
330
1F
100
AcDbEntity
  8
0
  6
Continuous
 62
     3
370
    30
100
AcDbLine
 10
728.7424737300014
 20
606.6479210469926
 30
0.0
 11
728.7432651601139
 21
605.1486610782803
 31
0.0
  0
SPLINE
  5
482
330
1F
100
AcDbEntity
  8
0
  6
Continuous
 62
     3
370
    30
100
AcDbSpline
210
0.0
220
0.0
230
1.0
 70
     8
 71
     3
 72
     8
 73
     4
 74
     0
 42
0.0000000001
 43
0.0000000001
 40
0.0
 40
0.0
 40
0.0
 40
0.0
 40
1.0
 40
1.0
 40
1.0
 40
1.0
 10
769.7297655895836
 20
625.3664430944446
 30
0.0
 10
769.7389830535473
 20
625.6253687805838
 30
0.0
 10
769.7436260657529
 20
625.8844573053417
 30
0.0
 10
769.7436917289506
 20
626.1435469969021
 30
0.0
  0
LINE
  5
483
330
1F
100
AcDbEntity
  8
0
  6
Continuous
 62
     3
370
    30
100
AcDbLine
 10
769.7440432099983
 20
608.148737586016
 30
0.0
 11
769.7485965832368
 21
625.3662808424863
 31
0.0
  0
LINE
  5
484
330
1F
100
AcDbEntity
  8
0
  6
Continuous
 62
     3
370
    30
100
AcDbLine
 10
769.7473115821249
 20
635.7344843855705
 30
0.0
 11
769.7440432130235
 21
644.1495074816629
 31
0.0
  0
LINE
  5
485
330
1F
100
AcDbEntity
  8
0
  6
Continuous
 62
     3
370
    30
100
AcDbLine
 10
769.748683762125
 20
626.9324756408177
 30
0.0
 11
769.7472529489803
 21
635.7192202906185
 31
0.0
  0
LINE
  5
486
330
1F
100
AcDbEntity
  8
0
  6
Continuous
 62
     3
370
    30
100
AcDbLine
 10
769.7297655895836
 20
626.9318021751002
 30
0.0
 11
769.7436917289506
 21
626.1435469969021
 31
0.0
  0
LINE
  5
487
330
1F
100
AcDbEntity
  8
0
  6
Continuous
 62
     3
370
    30
100
AcDbLine
 10
766.7449111494359
 20
645.6503242142444
 30
0.0
 11
766.7441197193252
 21
647.1495841829151
 31
0.0
  0
SPLINE
  5
488
330
1F
100
AcDbEntity
  8
0
  6
Continuous
 62
     3
370
    30
100
AcDbSpline
210
0.0
220
0.0
230
1.0
 70
     8
 71
     3
 72
     8
 73
     4
 74
     0
 42
0.0000000001
 43
0.0000000001
 40
0.0
 40
0.0
 40
0.0
 40
0.0
 40
1.0
 40
1.0
 40
1.0
 40
1.0
 10
747.7436924354899
 20
648.1491226347734
 30
0.0
 10
747.4827430302569
 20
648.1491226347734
 30
0.0
 10
747.2217936319962
 20
648.1444793318358
 30
0.0
 10
746.9610094192378
 20
648.1351956651279
 30
0.0
  0
SPLINE
  5
489
330
1F
100
AcDbEntity
  8
0
  6
Continuous
 62
     3
370
    30
100
AcDbSpline
210
0.0
220
0.0
230
1.0
 70
     8
 71
     3
 72
     8
 73
     4
 74
     0
 42
0.0000000001
 43
0.0000000001
 40
0.0
 40
0.0
 40
0.0
 40
0.0
 40
1.0
 40
1.0
 40
1.0
 40
1.0
 10
748.5263752328291
 20
648.1351956729208
 30
0.0
 10
748.2655910929493
 20
648.1444793344346
 30
0.0
 10
748.004641767706
 20
648.1491226347734
 30
0.0
 10
747.7436924354899
 20
648.1491226347734
 30
0.0
  0
LINE
  5
48A
330
1F
100
AcDbEntity
  8
0
  6
Continuous
 62
     3
370
    30
100
AcDbLine
 10
748.5270456010176
 20
648.1540267549408
 30
0.0
 11
757.3352393921575
 21
648.1527401016688
 31
0.0
  0
LINE
  5
48B
330
1F
100
AcDbEntity
  8
0
  6
Continuous
 62
     3
370
    30
100
AcDbLine
 10
765.7440774838537
 20
648.1494734036587
 30
0.0
 11
757.3304663718365
 21
648.1527413904977
 31
0.0
  0
LINE
  5
48C
330
1F
100
AcDbEntity
  8
0
  6
Continuous
 62
     3
370
    30
100
AcDbLine
 10
738.1583328778683
 20
648.1527417633117
 30
0.0
 11
729.7433075881638
 21
648.1494734041011
 31
0.0
  0
LINE
  5
48D
330
1F
100
AcDbEntity
  8
0
  6
Continuous
 62
     3
370
    30
100
AcDbLine
 10
738.1430713017827
 20
648.1527376406748
 30
0.0
 11
746.960339050621
 21
648.1540267539078
 31
0.0
  0
LINE
  5
48E
330
1F
100
AcDbEntity
  8
0
  6
Continuous
 62
     3
370
    30
100
AcDbLine
 10
768.0936924129828
 20
650.499123105367
 30
0.0
 11
727.3936924302693
 21
650.4991221772868
 31
0.0
  0
ARC
  5
48F
330
1F
100
AcDbEntity
  8
0
  6
Continuous
 62
     3
370
    30
100
AcDbCircle
 10
724.3936918621796
 20
646.4991226356371
 30
0.0
 40
1.0
100
AcDbArc
 50
90.0
 51
180.0000008065227
  0
ARC
  5
490
330
1F
100
AcDbEntity
  8
0
  6
Continuous
 62
     3
370
    30
100
AcDbCircle
 10
771.0939376696644
 20
646.4991226356369
 30
0.0
 40
1.000000000000019
100
AcDbArc
 50
359.9996547698466
 51
90.0
  0
LINE
  5
491
330
1F
100
AcDbEntity
  8
0
  6
Continuous
 62
     3
370
    30
100
AcDbLine
 10
723.3936918621796
 20
646.4991226215606
 30
0.0
 11
723.3936924350885
 21
605.7991226208607
 31
0.0
  0
ARC
  5
492
330
1F
100
AcDbEntity
  8
0
  6
Continuous
 62
     3
370
    30
100
AcDbCircle
 10
768.0936924357856
 20
649.4991231053671
 30
0.0
 40
1.0
100
AcDbArc
 50
0.0
 51
90.00000130650715
  0
ARC
  5
493
330
1F
100
AcDbEntity
  8
0
  6
Continuous
 62
     3
370
    30
100
AcDbCircle
 10
727.3936924530723
 20
649.4991221772868
 30
0.0
 40
1.0
100
AcDbArc
 50
90.00000130651363
 51
180.0
  0
LINE
  5
494
330
1F
100
AcDbEntity
  8
0
  6
Continuous
 62
     3
370
    30
100
AcDbLine
 10
726.3936924530724
 20
649.4991221772868
 30
0.0
 11
726.3936924530724
 21
647.9991226356369
 31
0.0
  0
ARC
  5
495
330
1F
100
AcDbEntity
  8
0
  6
Continuous
 62
     3
370
    30
100
AcDbCircle
 10
725.8936924530724
 20
647.9991226356369
 30
0.0
 40
0.5
100
AcDbArc
 50
270.0
 51
0.0
  0
LINE
  5
496
330
1F
100
AcDbEntity
  8
0
  6
Continuous
 62
     3
370
    30
100
AcDbLine
 10
725.8936924530724
 20
647.4991226356369
 30
0.0
 11
724.3936918621796
 21
647.4991226356372
 31
0.0
  0
ARC
  5
497
330
1F
100
AcDbEntity
  8
0
  6
Continuous
 62
     3
370
    30
100
AcDbCircle
 10
724.3936924350885
 20
605.799122634937
 30
0.0
 40
1.0
100
AcDbArc
 50
180.0000008065097
 51
270.0
  0
LINE
  5
498
330
1F
100
AcDbEntity
  8
0
  6
Continuous
 62
     3
370
    30
100
AcDbLine
 10
724.3936924350885
 20
604.799122634937
 30
0.0
 11
725.8936924350885
 21
604.799122634937
 31
0.0
  0
ARC
  5
499
330
1F
100
AcDbEntity
  8
0
  6
Continuous
 62
     3
370
    30
100
AcDbCircle
 10
725.8936924350885
 20
604.299122634937
 30
0.0
 40
0.5
100
AcDbArc
 50
0.0
 51
90.0
  0
LINE
  5
49A
330
1F
100
AcDbEntity
  8
0
  6
Continuous
 62
     3
370
    30
100
AcDbLine
 10
726.3936924350884
 20
604.299122634937
 30
0.0
 11
726.3936924350884
 21
602.799122634937
 31
0.0
  0
ARC
  5
49B
330
1F
100
AcDbEntity
  8
0
  6
Continuous
 62
     3
370
    30
100
AcDbCircle
 10
727.3936924350884
 20
602.799122634937
 30
0.0
 40
1.0
100
AcDbArc
 50
180.0
 51
270.0
  0
LINE
  5
49C
330
1F
100
AcDbEntity
  8
0
  6
Continuous
 62
     3
370
    30
100
AcDbLine
 10
727.3936924350884
 20
601.799122634937
 30
0.0
 11
768.0936924357861
 21
601.799122634937
 31
0.0
  0
ARC
  5
49D
330
1F
100
AcDbEntity
  8
0
  6
Continuous
 62
     3
370
    30
100
AcDbCircle
 10
768.0936924357861
 20
602.799122634937
 30
0.0
 40
1.0
100
AcDbArc
 50
270.0
 51
0.0000617152656419
  0
LINE
  5
49E
330
1F
100
AcDbEntity
  8
0
  6
Continuous
 62
     3
370
    30
100
AcDbLine
 10
769.0936924357854
 20
602.7991237120718
 30
0.0
 11
769.0936908200852
 21
604.2991220963699
 31
0.0
  0
ARC
  5
49F
330
1F
100
AcDbEntity
  8
0
  6
Continuous
 62
     3
370
    30
100
AcDbCircle
 10
769.5936908200849
 20
604.2991226349372
 30
0.0
 40
0.5000000000000058
100
AcDbArc
 50
90.0
 51
180.0000617152656
  0
LINE
  5
4A0
330
1F
100
AcDbEntity
  8
0
  6
Continuous
 62
     3
370
    30
100
AcDbLine
 10
769.5936908200849
 20
604.7991226349372
 30
0.0
 11
771.0936924357686
 21
604.7991226349372
 31
0.0
  0
ARC
  5
4A1
330
1F
100
AcDbEntity
  8
0
  6
Continuous
 62
     3
370
    30
100
AcDbCircle
 10
771.0936924357686
 20
605.7991226349372
 30
0.0
 40
1.0
100
AcDbArc
 50
270.0
 51
359.9996547698466
  0
LINE
  5
4A2
330
1F
100
AcDbEntity
  8
0
  6
Continuous
 62
     3
370
    30
100
AcDbLine
 10
772.0936924357504
 20
605.7991166095344
 30
0.0
 11
772.0939376696462
 21
646.4991166102341
 31
0.0
  0
LINE
  5
4A3
330
1F
100
AcDbEntity
  8
0
  6
Continuous
 62
     3
370
    30
100
AcDbLine
 10
771.0939376696644
 20
647.4991226356369
 30
0.0
 11
769.5936924357856
 21
647.4991226356369
 31
0.0
  0
ARC
  5
4A4
330
1F
100
AcDbEntity
  8
0
  6
Continuous
 62
     3
370
    30
100
AcDbCircle
 10
769.5936924357856
 20
647.9991226356369
 30
0.0
 40
0.5
100
AcDbArc
 50
180.0
 51
270.0
  0
LINE
  5
4A5
330
1F
100
AcDbEntity
  8
0
  6
Continuous
 62
     3
370
    30
100
AcDbLine
 10
769.0936924357856
 20
647.9991226356369
 30
0.0
 11
769.0936924357856
 21
649.4991231053671
 31
0.0
  0
CIRCLE
  5
4A6
330
1F
100
AcDbEntity
  8
0
  6
Continuous
 62
     3
370
    30
100
AcDbCircle
 10
747.7436924354899
 20
626.1491226347734
 30
0.0
 40
22.00000000000001
  0
CIRCLE
  5
4A7
330
1F
100
AcDbEntity
  8
0
  6
Continuous
 62
     3
370
    30
100
AcDbCircle
 10
747.7436924354899
 20
626.1491226347734
 30
0.0
 40
24.00000000000001
  0
TEXT
  5
4AA
330
1F
100
AcDbEntity
  8
moji
100
AcDbText
 10
663.6123578452031
 20
398.1182326002838
 30
0.0
 40
2.799999999999998
  1
ＵＳＴ４２－VU .VP５０
 41
0.9
  7
MSｺﾞｼｯｸ
100
AcDbText
  0
TEXT
  5
4AB
330
1F
100
AcDbEntity
  8
moji
100
AcDbText
 10
663.5530094347318
 20
405.152045528202
 30
0.0
 40
2.799999999999998
  1
排水管カバー
 41
0.9
  7
MSｺﾞｼｯｸ
100
AcDbText
  0
TEXT
  5
4AC
330
1F
100
AcDbEntity
  8
ZUWAKU
100
AcDbText
 10
901.9723377190423
 20
401.3721116564386
 30
0.0
 40
3.0
  1
積水化学工業株式会社
 41
0.9
  7
MSｺﾞｼｯｸ
100
AcDbText
  0
LINE
  5
4AD
330
1F
100
AcDbEntity
  8
ZUWAKU
100
AcDbLine
 10
896.6328008971911
 20
410.3738856713903
 30
0.0
 11
896.6328008971911
 21
395.7738856713904
 31
0.0
  0
LINE
  5
4AE
330
1F
100
AcDbEntity
  8
ZUWAKU
100
AcDbLine
 10
896.5328008971908
 20
410.3738856713903
 30
0.0
 11
896.532800897191
 21
395.7738856713904
 31
0.0
  0
LINE
  5
4AF
330
1F
100
AcDbEntity
  8
ZUWAKU
100
AcDbLine
 10
896.4328008971911
 20
410.3738856713903
 30
0.0
 11
896.4328008971911
 21
395.7738856713904
 31
0.0
  0
LINE
  5
4B0
330
1F
100
AcDbEntity
  8
ZUWAKU
100
AcDbLine
 10
896.3328008971911
 20
410.3738856713903
 30
0.0
 11
896.3328008971911
 21
395.7738856713904
 31
0.0
  0
TEXT
  5
4B1
330
1F
100
AcDbEntity
  8
ZUWAKU
100
AcDbText
 10
872.8556193891275
 20
407.4015639405831
 30
0.0
 40
2.0
  1
DATE
 41
0.9
  7
MSｺﾞｼｯｸ
100
AcDbText
  0
LINE
  5
4B2
330
1F
100
AcDbEntity
  8
ZUWAKU
100
AcDbLine
 10
823.9717735059766
 20
410.3738856713903
 30
0.0
 11
823.9717735059766
 21
395.7738856713904
 31
0.0
  0
LINE
  5
4B3
330
1F
100
AcDbEntity
  8
ZUWAKU
100
AcDbLine
 10
824.1717735059765
 20
410.3738856713903
 30
0.0
 11
824.1717735059765
 21
395.7738856713904
 31
0.0
  0
LINE
  5
4B4
330
1F
100
AcDbEntity
  8
ZUWAKU
100
AcDbLine
 10
824.0717735059766
 20
410.3738856713903
 30
0.0
 11
824.0717735059766
 21
395.7738856713904
 31
0.0
  0
LINE
  5
4B5
330
1F
100
AcDbEntity
  8
ZUWAKU
100
AcDbLine
 10
871.9168968780227
 20
410.3738856713903
 30
0.0
 11
871.9168968780227
 21
395.7738856713904
 31
0.0
  0
LINE
  5
4B6
330
1F
100
AcDbEntity
  8
ZUWAKU
100
AcDbLine
 10
872.1168968780226
 20
410.3738856713903
 30
0.0
 11
872.1168968780228
 21
395.7738856713904
 31
0.0
  0
LINE
  5
4B7
330
1F
100
AcDbEntity
  8
ZUWAKU
100
AcDbLine
 10
872.0168968780226
 20
410.3738856713903
 30
0.0
 11
872.0168968780226
 21
395.7738856713904
 31
0.0
  0
TEXT
  5
4B8
330
1F
100
AcDbEntity
  8
ZUWAKU
100
AcDbText
 10
801.0466078830956
 20
407.4015639405831
 30
0.0
 40
2.0
  1
用紙
 41
0.9
  7
MSｺﾞｼｯｸ
100
AcDbText
  0
TEXT
  5
4B9
330
1F
100
AcDbEntity
  8
ZUWAKU
100
AcDbText
 10
772.3592001195208
 20
407.4015639405831
 30
0.0
 40
2.0
  1
品番
 41
0.9
  7
MSｺﾞｼｯｸ
100
AcDbText
  0
TEXT
  5
4BA
330
1F
100
AcDbEntity
  8
moji
100
AcDbText
 10
811.7287496090769
 20
396.976346200094
 30
0.0
 40
2.799999999999998
  1
１/１
 41
0.9
  7
MSｺﾞｼｯｸ
100
AcDbText
  0
TEXT
  5
4BB
330
1F
100
AcDbEntity
  8
ZUWAKU
100
AcDbText
 10
801.0466078830956
 20
400.2015639405831
 30
0.0
 40
2.0
  1
縮尺
 41
0.9
  7
MSｺﾞｼｯｸ
100
AcDbText
  0
TEXT
  5
4BC
330
1F
100
AcDbEntity
  8
ZUWAKU
100
AcDbText
 10
779.0551764506739
 20
396.6809211269601
 30
0.0
 40
1.5
  1
□には色品番が入ります
 41
0.9
  7
MSｺﾞｼｯｸ
100
AcDbText
  0
LINE
  5
4BD
330
1F
100
AcDbEntity
  8
ZUWAKU
100
AcDbLine
 10
800.107885371991
 20
410.3738856713903
 30
0.0
 11
800.107885371991
 21
395.7738856713904
 31
0.0
  0
LINE
  5
4BE
330
1F
100
AcDbEntity
  8
ZUWAKU
100
AcDbLine
 10
800.3078853719907
 20
410.3738856713903
 30
0.0
 11
800.3078853719909
 21
395.7738856713904
 31
0.0
  0
LINE
  5
4BF
330
1F
100
AcDbEntity
  8
ZUWAKU
100
AcDbLine
 10
800.2078853719908
 20
410.3738856713903
 30
0.0
 11
800.2078853719908
 21
395.7738856713904
 31
0.0
  0
TEXT
  5
4C0
330
1F
100
AcDbEntity
  8
moji
100
AcDbText
 10
811.7287496090769
 20
404.376346200094
 30
0.0
 40
2.799999999999998
  1
Ａ３
 41
0.9
  7
MSｺﾞｼｯｸ
100
AcDbText
  0
LINE
  5
4C1
330
1F
100
AcDbEntity
  8
ZUWAKU
100
AcDbLine
 10
771.4204776084161
 20
410.3738856713903
 30
0.0
 11
771.4204776084161
 21
395.7738856713904
 31
0.0
  0
LINE
  5
4C2
330
1F
100
AcDbEntity
  8
ZUWAKU
100
AcDbLine
 10
771.6204776084159
 20
410.3738856713903
 30
0.0
 11
771.620477608416
 21
395.7738856713904
 31
0.0
  0
LINE
  5
4C3
330
1F
100
AcDbEntity
  8
ZUWAKU
100
AcDbLine
 10
771.520477608416
 20
410.3738856713903
 30
0.0
 11
771.520477608416
 21
395.7738856713904
 31
0.0
  0
TEXT
  5
4C4
330
1F
100
AcDbEntity
  8
moji
100
AcDbText
 10
779.4924483042006
 20
401.3451945322203
 30
0.0
 40
2.799999999999998
  1
ＰＨ９５□
 41
0.9
  7
MSｺﾞｼｯｸ
100
AcDbText
  0
LINE
  5
4C5
330
1F
100
AcDbEntity
  8
ZUWAKU
100
AcDbLine
 10
800.3078853719907
 20
403.1738856713903
 30
0.0
 11
823.9717735059766
 21
403.1738856713903
 31
0.0
  0
LINE
  5
4C6
330
1F
100
AcDbEntity
  8
ZUWAKU
100
AcDbLine
 10
800.3078853719907
 20
403.0738856713903
 30
0.0
 11
823.9717735059766
 21
403.0738856713903
 31
0.0
  0
LINE
  5
4C7
330
1F
100
AcDbEntity
  8
ZUWAKU
100
AcDbLine
 10
800.3078853719907
 20
402.9738856713902
 30
0.0
 11
823.9717735059766
 21
402.9738856713902
 31
0.0
  0
LINE
  5
4C8
330
1F
100
AcDbEntity
  8
ZUWAKU
100
AcDbLine
 10
872.1168968780226
 20
403.1738856713903
 30
0.0
 11
896.3328008971911
 21
403.1738856713903
 31
0.0
  0
LINE
  5
4C9
330
1F
100
AcDbEntity
  8
ZUWAKU
100
AcDbLine
 10
872.1168968780226
 20
403.0738856713903
 30
0.0
 11
896.3328008971911
 21
403.0738856713903
 31
0.0
  0
LINE
  5
4CA
330
1F
100
AcDbEntity
  8
ZUWAKU
100
AcDbLine
 10
872.1168968780226
 20
402.9738856713902
 30
0.0
 11
896.3328008971911
 21
402.9738856713902
 31
0.0
  0
TEXT
  5
4CB
330
1F
100
AcDbEntity
  8
ZUWAKU
100
AcDbText
 10
652.570318779059
 20
407.4015639405831
 30
0.0
 40
2.0
  1
品名
 41
0.9
  7
MSｺﾞｼｯｸ
100
AcDbText
  0
TEXT
  5
4CC
330
1F
100
AcDbEntity
  8
ZUWAKU
100
AcDbText
 10
652.5703187790591
 20
400.2015639405831
 30
0.0
 40
2.0
  1
サイズ
 41
0.9
  7
MSｺﾞｼｯｸ
100
AcDbText
  0
LINE
  5
4CD
330
1F
100
AcDbEntity
  8
ZUWAKU
100
AcDbLine
 10
651.9315962679542
 20
410.3738856713903
 30
0.0
 11
651.9315962679544
 21
395.7738856713904
 31
0.0
  0
LINE
  5
4CE
330
1F
100
AcDbEntity
  8
ZUWAKU
100
AcDbLine
 10
652.0315962679543
 20
410.3738856713903
 30
0.0
 11
652.0315962679545
 21
395.7738856713904
 31
0.0
  0
LINE
  5
4CF
330
1F
100
AcDbEntity
  8
ZUWAKU
100
AcDbLine
 10
651.8315962679544
 20
410.3738856713903
 30
0.0
 11
651.8315962679544
 21
395.7738856713904
 31
0.0
  0
ARC
  5
4D0
330
1F
100
AcDbEntity
  8
ZUWAKU
100
AcDbCircle
 10
581.966901700311
 20
406.7363856713902
 30
0.0
 40
0.2625
100
AcDbArc
 50
0.0
 51
90.0
  0
ARC
  5
4D1
330
1F
100
AcDbEntity
  8
ZUWAKU
100
AcDbCircle
 10
578.641901700311
 20
406.7363856713902
 30
0.0
 40
0.2625
100
AcDbArc
 50
90.0
 51
180.0
  0
LINE
  5
4D2
330
1F
100
AcDbEntity
  8
ZUWAKU
100
AcDbLine
 10
579.516901700311
 20
406.9988856713903
 30
0.0
 11
578.641901700311
 21
406.9988856713903
 31
0.0
  0
ARC
  5
4D3
330
1F
100
AcDbEntity
  8
ZUWAKU
100
AcDbCircle
 10
579.516901700311
 20
406.7363856713902
 30
0.0
 40
0.2625
100
AcDbArc
 50
0.0
 51
90.0
  0
ARC
  5
4D4
330
1F
100
AcDbEntity
  8
ZUWAKU
100
AcDbCircle
 10
581.091901700311
 20
406.7363856713902
 30
0.0
 40
0.2625
100
AcDbArc
 50
90.0
 51
180.0
  0
LINE
  5
4D5
330
1F
100
AcDbEntity
  8
ZUWAKU
100
AcDbLine
 10
581.966901700311
 20
406.9988856713903
 30
0.0
 11
581.091901700311
 21
406.9988856713903
 31
0.0
  0
LINE
  5
4D6
330
1F
100
AcDbEntity
  8
ZUWAKU
100
AcDbLine
 10
573.9169017003109
 20
406.7363856713902
 30
0.0
 11
573.9169017003109
 21
405.8613856713902
 31
0.0
  0
ARC
  5
4D7
330
1F
100
AcDbEntity
  8
ZUWAKU
100
AcDbCircle
 10
573.654401700311
 20
405.8613856713902
 30
0.0
 40
0.2625
100
AcDbArc
 50
270.0
 51
0.0
  0
ARC
  5
4D8
330
1F
100
AcDbEntity
  8
ZUWAKU
100
AcDbCircle
 10
573.654401700311
 20
406.7363856713902
 30
0.0
 40
0.2625
100
AcDbArc
 50
0.0
 51
90.0
  0
LINE
  5
4D9
330
1F
100
AcDbEntity
  8
ZUWAKU
100
AcDbLine
 10
576.366901700311
 20
406.9988856713903
 30
0.0
 11
575.491901700311
 21
406.9988856713903
 31
0.0
  0
ARC
  5
4DA
330
1F
100
AcDbEntity
  8
ZUWAKU
100
AcDbCircle
 10
575.491901700311
 20
406.7363856713902
 30
0.0
 40
0.2625
100
AcDbArc
 50
90.0
 51
180.0
  0
ARC
  5
4DB
330
1F
100
AcDbEntity
  8
ZUWAKU
100
AcDbCircle
 10
576.366901700311
 20
406.7363856713902
 30
0.0
 40
0.2625
100
AcDbArc
 50
0.0
 51
90.0
  0
ARC
  5
4DC
330
1F
100
AcDbEntity
  8
ZUWAKU
100
AcDbCircle
 10
571.904401700311
 20
405.5988856713902
 30
0.0
 40
1.399999999999999
100
AcDbArc
 50
90.0
 51
180.0
  0
LINE
  5
4DD
330
1F
100
AcDbEntity
  8
ZUWAKU
100
AcDbLine
 10
570.504401700311
 20
405.5988856713902
 30
0.0
 11
570.504401700311
 21
404.6912846587126
 31
0.0
  0
ARC
  5
4DE
330
1F
100
AcDbEntity
  8
ZUWAKU
100
AcDbCircle
 10
569.191901700311
 20
406.7363856713902
 30
0.0
 40
0.2625
100
AcDbArc
 50
0.0
 51
90.0
  0
LINE
  5
4DF
330
1F
100
AcDbEntity
  8
ZUWAKU
100
AcDbLine
 10
571.904401700311
 20
405.3363856713904
 30
0.0
 11
571.904401700311
 21
404.6912846587126
 31
0.0
  0
ARC
  5
4E0
330
1F
100
AcDbEntity
  8
ZUWAKU
100
AcDbCircle
 10
572.1669017003109
 20
405.3363856713904
 30
0.0
 40
0.2625
100
AcDbArc
 50
90.0
 51
180.0
  0
LINE
  5
4E1
330
1F
100
AcDbEntity
  8
ZUWAKU
100
AcDbLine
 10
573.654401700311
 20
405.5988856713902
 30
0.0
 11
572.1669017003109
 21
405.5988856713902
 31
0.0
  0
LINE
  5
4E2
330
1F
100
AcDbEntity
  8
ZUWAKU
100
AcDbLine
 10
571.904401700311
 20
406.9988856713903
 30
0.0
 11
573.654401700311
 21
406.9988856713903
 31
0.0
  0
ARC
  5
4E3
330
1F
100
AcDbEntity
  8
ZUWAKU
100
AcDbCircle
 10
565.7967846185666
 20
406.7363856713902
 30
0.0
 40
0.2625
100
AcDbArc
 50
90.0
 51
162.4744316262738
  0
LINE
  5
4E4
330
1F
100
AcDbEntity
  8
ZUWAKU
100
AcDbLine
 10
566.8965447579689
 20
406.6573386873069
 30
0.0
 11
566.3657249414
 21
404.9764092681721
 31
0.0
  0
ARC
  5
4E5
330
1F
100
AcDbEntity
  8
ZUWAKU
100
AcDbCircle
 10
566.6462293083712
 20
406.7363856713902
 30
0.0
 40
0.2625
100
AcDbArc
 50
342.4744316262739
 51
90.0
  0
LINE
  5
4E6
330
1F
100
AcDbEntity
  8
ZUWAKU
100
AcDbLine
 10
565.7967846185666
 20
406.9988856713903
 30
0.0
 11
566.6462293083712
 21
406.9988856713903
 31
0.0
  0
ARC
  5
4E7
330
1F
100
AcDbEntity
  8
ZUWAKU
100
AcDbCircle
 10
568.316901700311
 20
406.7363856713902
 30
0.0
 40
0.2625
100
AcDbArc
 50
90.0
 51
180.0
  0
LINE
  5
4E8
330
1F
100
AcDbEntity
  8
ZUWAKU
100
AcDbLine
 10
561.404401700311
 20
406.7363856713902
 30
0.0
 11
561.404401700311
 21
405.8613856713902
 31
0.0
  0
ARC
  5
4E9
330
1F
100
AcDbEntity
  8
ZUWAKU
100
AcDbCircle
 10
561.1419017003109
 20
405.8613856713902
 30
0.0
 40
0.2625
100
AcDbArc
 50
270.0
 51
0.0
  0
ARC
  5
4EA
330
1F
100
AcDbEntity
  8
ZUWAKU
100
AcDbCircle
 10
562.8919017003109
 20
406.7363856713902
 30
0.0
 40
0.2625
100
AcDbArc
 50
90.0
 51
180.0
  0
ARC
  5
4EB
330
1F
100
AcDbEntity
  8
ZUWAKU
100
AcDbCircle
 10
561.1419017003109
 20
406.7363856713902
 30
0.0
 40
0.2625
100
AcDbArc
 50
0.0
 51
90.0
  0
LINE
  5
4EC
330
1F
100
AcDbEntity
  8
ZUWAKU
100
AcDbLine
 10
563.7669017003109
 20
406.9988856713903
 30
0.0
 11
562.8919017003109
 21
406.9988856713903
 31
0.0
  0
ARC
  5
4ED
330
1F
100
AcDbEntity
  8
ZUWAKU
100
AcDbCircle
 10
563.7669017003109
 20
406.7363856713902
 30
0.0
 40
0.2625
100
AcDbArc
 50
0.0
 51
90.0
  0
LINE
  5
4EE
330
1F
100
AcDbEntity
  8
ZUWAKU
100
AcDbLine
 10
569.191901700311
 20
406.9988856713903
 30
0.0
 11
568.316901700311
 21
406.9988856713903
 31
0.0
  0
ARC
  5
4EF
330
1F
100
AcDbEntity
  8
ZUWAKU
100
AcDbCircle
 10
581.966901700311
 20
399.2113856713904
 30
0.0
 40
0.2625
100
AcDbArc
 50
270.0
 51
0.0
  0
ARC
  5
4F0
330
1F
100
AcDbEntity
  8
ZUWAKU
100
AcDbCircle
 10
577.854401700311
 20
400.8738856713903
 30
0.0
 40
0.525
100
AcDbArc
 50
270.0
 51
0.0
  0
ARC
  5
4F1
330
1F
100
AcDbEntity
  8
ZUWAKU
100
AcDbCircle
 10
581.091901700311
 20
399.2113856713904
 30
0.0
 40
0.2625
100
AcDbArc
 50
180.0
 51
270.0
  0
LINE
  5
4F2
330
1F
100
AcDbEntity
  8
ZUWAKU
100
AcDbLine
 10
581.091901700311
 20
398.9488856713904
 30
0.0
 11
581.966901700311
 21
398.9488856713904
 31
0.0
  0
ARC
  5
4F3
330
1F
100
AcDbEntity
  8
ZUWAKU
100
AcDbCircle
 10
578.379401700311
 20
400.3488856713902
 30
0.0
 40
1.399999999999999
100
AcDbArc
 50
270.0
 51
0.0
  0
ARC
  5
4F4
330
1F
100
AcDbEntity
  8
ZUWAKU
100
AcDbCircle
 10
577.154401700311
 20
400.8738856713903
 30
0.0
 40
0.525
100
AcDbArc
 50
180.0
 51
270.0
  0
ARC
  5
4F5
330
1F
100
AcDbEntity
  8
ZUWAKU
100
AcDbCircle
 10
572.0794017003109
 20
401.256486684068
 30
0.0
 40
2.099999999999999
100
AcDbArc
 50
0.0
 51
44.99999999999078
  0
LINE
  5
4F6
330
1F
100
AcDbEntity
  8
ZUWAKU
100
AcDbLine
 10
574.179401700311
 20
400.3488856713902
 30
0.0
 11
574.179401700311
 21
401.256486684068
 31
0.0
  0
LINE
  5
4F7
330
1F
100
AcDbEntity
  8
ZUWAKU
100
AcDbLine
 10
571.1194774598193
 20
403.2063604182208
 30
0.0
 11
572.5743764471416
 21
401.7514614308986
 31
0.0
  0
LINE
  5
4F8
330
1F
100
AcDbEntity
  8
ZUWAKU
100
AcDbLine
 10
571.029401700311
 20
398.9488856713904
 30
0.0
 11
572.779401700311
 21
398.9488856713904
 31
0.0
  0
LINE
  5
4F9
330
1F
100
AcDbEntity
  8
ZUWAKU
100
AcDbLine
 10
571.029401700311
 20
400.3488856713902
 30
0.0
 11
572.516901700311
 21
400.3488856713902
 31
0.0
  0
ARC
  5
4FA
330
1F
100
AcDbEntity
  8
ZUWAKU
100
AcDbCircle
 10
571.029401700311
 20
400.0863856713904
 30
0.0
 40
0.2625
100
AcDbArc
 50
90.0
 51
180.0
  0
ARC
  5
4FB
330
1F
100
AcDbEntity
  8
ZUWAKU
100
AcDbCircle
 10
569.191901700311
 20
399.2113856713904
 30
0.0
 40
0.2625
100
AcDbArc
 50
270.0
 51
0.0
  0
ARC
  5
4FC
330
1F
100
AcDbEntity
  8
ZUWAKU
100
AcDbCircle
 10
571.029401700311
 20
399.2113856713904
 30
0.0
 40
0.2625
100
AcDbArc
 50
180.0
 51
270.0
  0
LINE
  5
4FD
330
1F
100
AcDbEntity
  8
ZUWAKU
100
AcDbLine
 10
570.766901700311
 20
399.2113856713904
 30
0.0
 11
570.766901700311
 21
400.0863856713904
 31
0.0
  0
ARC
  5
4FE
330
1F
100
AcDbEntity
  8
ZUWAKU
100
AcDbCircle
 10
572.516901700311
 20
400.6113856713902
 30
0.0
 40
0.2625
100
AcDbArc
 50
270.0
 51
0.0
  0
ARC
  5
4FF
330
1F
100
AcDbEntity
  8
ZUWAKU
100
AcDbCircle
 10
572.0794017003109
 20
401.256486684068
 30
0.0
 40
0.7
100
AcDbArc
 50
0.0
 51
44.99999999999078
  0
LINE
  5
500
330
1F
100
AcDbEntity
  8
ZUWAKU
100
AcDbLine
 10
572.779401700311
 20
400.6113856713902
 30
0.0
 11
572.779401700311
 21
401.256486684068
 31
0.0
  0
LINE
  5
501
330
1F
100
AcDbEntity
  8
ZUWAKU
100
AcDbLine
 10
573.5643259408027
 20
402.7414109245596
 30
0.0
 11
572.1094269534803
 21
404.196309911882
 31
0.0
  0
ARC
  5
502
330
1F
100
AcDbEntity
  8
ZUWAKU
100
AcDbCircle
 10
572.779401700311
 20
400.3488856713902
 30
0.0
 40
1.399999999999999
100
AcDbArc
 50
270.0
 51
0.0
  0
ARC
  5
503
330
1F
100
AcDbEntity
  8
ZUWAKU
100
AcDbCircle
 10
576.6294017003111
 20
400.3488856713902
 30
0.0
 40
1.399999999999999
100
AcDbArc
 50
180.0
 51
270.0
  0
ARC
  5
504
330
1F
100
AcDbEntity
  8
ZUWAKU
100
AcDbCircle
 10
565.7967846185666
 20
399.2113856713904
 30
0.0
 40
0.2625
100
AcDbArc
 50
197.5255683737261
 51
270.0
  0
LINE
  5
505
330
1F
100
AcDbEntity
  8
ZUWAKU
100
AcDbLine
 10
566.8965447579689
 20
399.2904326554738
 30
0.0
 11
565.733349068732
 21
402.9738856713902
 31
0.0
  0
ARC
  5
506
330
1F
100
AcDbEntity
  8
ZUWAKU
100
AcDbCircle
 10
566.6462293083712
 20
399.2113856713904
 30
0.0
 40
0.2625
100
AcDbArc
 50
270.0
 51
17.52556837372614
  0
LINE
  5
507
330
1F
100
AcDbEntity
  8
ZUWAKU
100
AcDbLine
 10
565.7967846185666
 20
398.9488856713904
 30
0.0
 11
566.6462293083712
 21
398.9488856713904
 31
0.0
  0
ARC
  5
508
330
1F
100
AcDbEntity
  8
ZUWAKU
100
AcDbCircle
 10
568.316901700311
 20
399.2113856713904
 30
0.0
 40
0.2625
100
AcDbArc
 50
180.0
 51
270.0
  0
ARC
  5
509
330
1F
100
AcDbEntity
  8
ZUWAKU
100
AcDbCircle
 10
564.291901700311
 20
402.0113856713903
 30
0.0
 40
0.2625
100
AcDbArc
 50
90.0
 51
180.0
  0
ARC
  5
50A
330
1F
100
AcDbEntity
  8
ZUWAKU
100
AcDbCircle
 10
564.3620187820554
 20
402.0113856713903
 30
0.0
 40
0.2625
100
AcDbArc
 50
17.52556837372614
 51
90.0
  0
ARC
  5
50B
330
1F
100
AcDbEntity
  8
ZUWAKU
100
AcDbCircle
 10
562.8919017003109
 20
399.2113856713904
 30
0.0
 40
0.2625
100
AcDbArc
 50
180.0
 51
270.0
  0
ARC
  5
50C
330
1F
100
AcDbEntity
  8
ZUWAKU
100
AcDbCircle
 10
561.1419017003109
 20
400.0863856713904
 30
0.0
 40
0.2625
100
AcDbArc
 50
0.0
 51
90.0
  0
ARC
  5
50D
330
1F
100
AcDbEntity
  8
ZUWAKU
100
AcDbCircle
 10
561.1419017003109
 20
399.2113856713904
 30
0.0
 40
0.2625
100
AcDbArc
 50
270.0
 51
0.0
  0
LINE
  5
50E
330
1F
100
AcDbEntity
  8
ZUWAKU
100
AcDbLine
 10
561.404401700311
 20
400.0863856713904
 30
0.0
 11
561.404401700311
 21
399.2113856713904
 31
0.0
  0
LINE
  5
50F
330
1F
100
AcDbEntity
  8
ZUWAKU
100
AcDbLine
 10
564.029401700311
 20
399.2113856713904
 30
0.0
 11
564.029401700311
 21
402.0113856713903
 31
0.0
  0
ARC
  5
510
330
1F
100
AcDbEntity
  8
ZUWAKU
100
AcDbCircle
 10
563.7669017003109
 20
399.2113856713904
 30
0.0
 40
0.2625
100
AcDbArc
 50
270.0
 51
0.0
  0
LINE
  5
511
330
1F
100
AcDbEntity
  8
ZUWAKU
100
AcDbLine
 10
562.8919017003109
 20
398.9488856713904
 30
0.0
 11
563.7669017003109
 21
398.9488856713904
 31
0.0
  0
ARC
  5
512
330
1F
100
AcDbEntity
  8
ZUWAKU
100
AcDbCircle
 10
564.291901700311
 20
403.9363856713903
 30
0.0
 40
0.2625
100
AcDbArc
 50
180.0
 51
270.0
  0
LINE
  5
513
330
1F
100
AcDbEntity
  8
ZUWAKU
100
AcDbLine
 10
564.291901700311
 20
402.2738856713904
 30
0.0
 11
564.3620187820554
 21
402.2738856713904
 31
0.0
  0
LINE
  5
514
330
1F
100
AcDbEntity
  8
ZUWAKU
100
AcDbLine
 10
564.3620187820554
 20
403.6738856713903
 30
0.0
 11
564.291901700311
 21
403.6738856713903
 31
0.0
  0
ARC
  5
515
330
1F
100
AcDbEntity
  8
ZUWAKU
100
AcDbCircle
 10
564.3620187820554
 20
403.9363856713903
 30
0.0
 40
0.2625
100
AcDbArc
 50
270.0
 51
342.4744316262739
  0
LINE
  5
516
330
1F
100
AcDbEntity
  8
ZUWAKU
100
AcDbLine
 10
565.5464691689689
 20
399.1323386873069
 30
0.0
 11
564.612334231653
 21
402.0904326554736
 31
0.0
  0
LINE
  5
517
330
1F
100
AcDbEntity
  8
ZUWAKU
100
AcDbLine
 10
568.316901700311
 20
398.9488856713904
 30
0.0
 11
569.191901700311
 21
398.9488856713904
 31
0.0
  0
LINE
  5
518
330
1F
100
AcDbEntity
  8
ZUWAKU
100
AcDbLine
 10
576.6294017003111
 20
398.9488856713904
 30
0.0
 11
578.379401700311
 21
398.9488856713904
 31
0.0
  0
LINE
  5
519
330
1F
100
AcDbEntity
  8
ZUWAKU
100
AcDbLine
 10
577.854401700311
 20
400.3488856713902
 30
0.0
 11
577.154401700311
 21
400.3488856713902
 31
0.0
  0
LINE
  5
51A
330
1F
100
AcDbEntity
  8
ZUWAKU
100
AcDbLine
 10
565.5464691689689
 20
406.8154326554738
 30
0.0
 11
564.612334231653
 21
403.8573386873067
 31
0.0
  0
LINE
  5
51B
330
1F
100
AcDbEntity
  8
ZUWAKU
100
AcDbLine
 10
562.629401700311
 20
406.7363856713902
 30
0.0
 11
562.629401700311
 21
399.2113856713904
 31
0.0
  0
LINE
  5
51C
330
1F
100
AcDbEntity
  8
ZUWAKU
100
AcDbLine
 10
564.029401700311
 20
403.9363856713903
 30
0.0
 11
564.029401700311
 21
406.7363856713902
 31
0.0
  0
LINE
  5
51D
330
1F
100
AcDbEntity
  8
ZUWAKU
100
AcDbLine
 10
576.6294017003111
 20
400.8738856713903
 30
0.0
 11
576.6294017003111
 21
406.7363856713902
 31
0.0
  0
LINE
  5
51E
330
1F
100
AcDbEntity
  8
ZUWAKU
100
AcDbLine
 10
575.229401700311
 20
406.7363856713902
 30
0.0
 11
575.229401700311
 21
400.3488856713902
 31
0.0
  0
LINE
  5
51F
330
1F
100
AcDbEntity
  8
ZUWAKU
100
AcDbLine
 10
569.4544017003109
 20
399.2113856713904
 30
0.0
 11
569.4544017003109
 21
406.7363856713902
 31
0.0
  0
LINE
  5
520
330
1F
100
AcDbEntity
  8
ZUWAKU
100
AcDbLine
 10
568.054401700311
 20
406.7363856713902
 30
0.0
 11
568.054401700311
 21
399.2113856713904
 31
0.0
  0
LINE
  5
521
330
1F
100
AcDbEntity
  8
ZUWAKU
100
AcDbLine
 10
566.3657249414
 20
404.9764092681721
 30
0.0
 11
565.733349068732
 21
402.9738856713902
 31
0.0
  0
ARC
  5
522
330
1F
100
AcDbEntity
  8
ZUWAKU
100
AcDbCircle
 10
572.6044017003109
 20
404.6912846587126
 30
0.0
 40
2.099999999999999
100
AcDbArc
 50
180.0
 51
224.9999999999908
  0
ARC
  5
523
330
1F
100
AcDbEntity
  8
ZUWAKU
100
AcDbCircle
 10
572.6044017003109
 20
404.6912846587126
 30
0.0
 40
0.7
100
AcDbArc
 50
180.0
 51
224.9999999999908
  0
LINE
  5
524
330
1F
100
AcDbEntity
  8
ZUWAKU
100
AcDbLine
 10
580.829401700311
 20
406.7363856713902
 30
0.0
 11
580.829401700311
 21
399.2113856713904
 31
0.0
  0
LINE
  5
525
330
1F
100
AcDbEntity
  8
ZUWAKU
100
AcDbLine
 10
582.2294017003109
 20
399.2113856713904
 30
0.0
 11
582.2294017003109
 21
406.7363856713902
 31
0.0
  0
LINE
  5
526
330
1F
100
AcDbEntity
  8
ZUWAKU
100
AcDbLine
 10
578.379401700311
 20
406.7363856713902
 30
0.0
 11
578.379401700311
 21
400.8738856713903
 31
0.0
  0
LINE
  5
527
330
1F
100
AcDbEntity
  8
ZUWAKU
100
AcDbLine
 10
579.779401700311
 20
400.3488856713902
 30
0.0
 11
579.779401700311
 21
406.7363856713902
 31
0.0
  0
LINE
  5
528
330
1F
100
AcDbEntity
  8
ZUWAKU
100
AcDbLine
 10
587.2716103969146
 20
410.3738856713903
 30
0.0
 11
587.2716103969146
 21
395.7738856713904
 31
0.0
  0
LINE
  5
529
330
1F
100
AcDbEntity
  8
ZUWAKU
100
AcDbLine
 10
587.4716103969145
 20
410.3738856713903
 30
0.0
 11
587.4716103969147
 21
395.7738856713904
 31
0.0
  0
LINE
  5
52A
330
1F
100
AcDbEntity
  8
ZUWAKU
100
AcDbLine
 10
587.3716103969145
 20
410.3738856713903
 30
0.0
 11
587.3716103969147
 21
395.7738856713904
 31
0.0
  0
ARC
  5
52B
330
1F
100
AcDbEntity
  8
ZUWAKU
100
AcDbCircle
 10
560.1794017003109
 20
404.8988856713903
 30
0.0
 40
2.099999999999999
100
AcDbArc
 50
90.0
 51
180.0
  0
ARC
  5
52C
330
1F
100
AcDbEntity
  8
ZUWAKU
100
AcDbCircle
 10
560.1794017003109
 20
404.8988856713903
 30
0.0
 40
0.7
100
AcDbArc
 50
90.0
 51
180.0
  0
LINE
  5
52D
330
1F
100
AcDbEntity
  8
ZUWAKU
100
AcDbLine
 10
556.766901700311
 20
406.7363856713902
 30
0.0
 11
556.766901700311
 21
405.8613856713902
 31
0.0
  0
ARC
  5
52E
330
1F
100
AcDbEntity
  8
ZUWAKU
100
AcDbCircle
 10
554.7544017003111
 20
405.5988856713902
 30
0.0
 40
1.399999999999999
100
AcDbArc
 50
90.0
 51
180.0
  0
LINE
  5
52F
330
1F
100
AcDbEntity
  8
ZUWAKU
100
AcDbLine
 10
553.354401700311
 20
405.5988856713902
 30
0.0
 11
553.354401700311
 21
404.6912846587126
 31
0.0
  0
LINE
  5
530
330
1F
100
AcDbEntity
  8
ZUWAKU
100
AcDbLine
 10
556.504401700311
 20
405.5988856713902
 30
0.0
 11
555.016901700311
 21
405.5988856713902
 31
0.0
  0
LINE
  5
531
330
1F
100
AcDbEntity
  8
ZUWAKU
100
AcDbLine
 10
554.7544017003111
 20
405.3363856713904
 30
0.0
 11
554.7544017003111
 21
404.6912846587126
 31
0.0
  0
ARC
  5
532
330
1F
100
AcDbEntity
  8
ZUWAKU
100
AcDbCircle
 10
555.016901700311
 20
405.3363856713904
 30
0.0
 40
0.2625
100
AcDbArc
 50
90.0
 51
180.0
  0
LINE
  5
533
330
1F
100
AcDbEntity
  8
ZUWAKU
100
AcDbLine
 10
554.7544017003111
 20
406.9988856713903
 30
0.0
 11
556.504401700311
 21
406.9988856713903
 31
0.0
  0
ARC
  5
534
330
1F
100
AcDbEntity
  8
ZUWAKU
100
AcDbCircle
 10
556.504401700311
 20
405.8613856713902
 30
0.0
 40
0.2625
100
AcDbArc
 50
270.0
 51
0.0
  0
ARC
  5
535
330
1F
100
AcDbEntity
  8
ZUWAKU
100
AcDbCircle
 10
556.504401700311
 20
406.7363856713902
 30
0.0
 40
0.2625
100
AcDbArc
 50
0.0
 51
90.0
  0
ARC
  5
536
330
1F
100
AcDbEntity
  8
ZUWAKU
100
AcDbCircle
 10
560.1794017003109
 20
401.0488856713902
 30
0.0
 40
0.7
100
AcDbArc
 50
180.0
 51
270.0
  0
LINE
  5
537
330
1F
100
AcDbEntity
  8
ZUWAKU
100
AcDbLine
 10
557.029401700311
 20
400.3488856713902
 30
0.0
 11
557.029401700311
 21
401.256486684068
 31
0.0
  0
LINE
  5
538
330
1F
100
AcDbEntity
  8
ZUWAKU
100
AcDbLine
 10
553.9694774598192
 20
403.2063604182208
 30
0.0
 11
555.4243764471416
 21
401.7514614308986
 31
0.0
  0
LINE
  5
539
330
1F
100
AcDbEntity
  8
ZUWAKU
100
AcDbLine
 10
553.8794017003111
 20
400.3488856713902
 30
0.0
 11
555.366901700311
 21
400.3488856713902
 31
0.0
  0
LINE
  5
53A
330
1F
100
AcDbEntity
  8
ZUWAKU
100
AcDbLine
 10
553.8794017003111
 20
398.9488856713904
 30
0.0
 11
555.629401700311
 21
398.9488856713904
 31
0.0
  0
ARC
  5
53B
330
1F
100
AcDbEntity
  8
ZUWAKU
100
AcDbCircle
 10
553.8794017003111
 20
400.0863856713904
 30
0.0
 40
0.2625
100
AcDbArc
 50
90.0
 51
180.0
  0
ARC
  5
53C
330
1F
100
AcDbEntity
  8
ZUWAKU
100
AcDbCircle
 10
553.8794017003111
 20
399.2113856713904
 30
0.0
 40
0.2625
100
AcDbArc
 50
180.0
 51
270.0
  0
LINE
  5
53D
330
1F
100
AcDbEntity
  8
ZUWAKU
100
AcDbLine
 10
553.616901700311
 20
399.2113856713904
 30
0.0
 11
553.616901700311
 21
400.0863856713904
 31
0.0
  0
ARC
  5
53E
330
1F
100
AcDbEntity
  8
ZUWAKU
100
AcDbCircle
 10
554.929401700311
 20
401.256486684068
 30
0.0
 40
0.7
100
AcDbArc
 50
0.0
 51
44.99999999999078
  0
ARC
  5
53F
330
1F
100
AcDbEntity
  8
ZUWAKU
100
AcDbCircle
 10
555.366901700311
 20
400.6113856713902
 30
0.0
 40
0.2625
100
AcDbArc
 50
270.0
 51
0.0
  0
LINE
  5
540
330
1F
100
AcDbEntity
  8
ZUWAKU
100
AcDbLine
 10
555.629401700311
 20
400.6113856713902
 30
0.0
 11
555.629401700311
 21
401.256486684068
 31
0.0
  0
LINE
  5
541
330
1F
100
AcDbEntity
  8
ZUWAKU
100
AcDbLine
 10
556.4143259408028
 20
402.7414109245596
 30
0.0
 11
554.9594269534805
 21
404.196309911882
 31
0.0
  0
ARC
  5
542
330
1F
100
AcDbEntity
  8
ZUWAKU
100
AcDbCircle
 10
554.929401700311
 20
401.256486684068
 30
0.0
 40
2.099999999999999
100
AcDbArc
 50
0.0
 51
44.99999999999078
  0
ARC
  5
543
330
1F
100
AcDbEntity
  8
ZUWAKU
100
AcDbCircle
 10
560.1794017003109
 20
401.0488856713902
 30
0.0
 40
2.099999999999999
100
AcDbArc
 50
180.0
 51
270.0
  0
ARC
  5
544
330
1F
100
AcDbEntity
  8
ZUWAKU
100
AcDbCircle
 10
555.629401700311
 20
400.3488856713902
 30
0.0
 40
1.399999999999999
100
AcDbArc
 50
270.0
 51
0.0
  0
ARC
  5
545
330
1F
100
AcDbEntity
  8
ZUWAKU
100
AcDbCircle
 10
555.4544017003109
 20
404.6912846587126
 30
0.0
 40
2.099999999999999
100
AcDbArc
 50
180.0
 51
224.9999999999908
  0
LINE
  5
546
330
1F
100
AcDbEntity
  8
ZUWAKU
100
AcDbLine
 10
558.079401700311
 20
401.0488856713902
 30
0.0
 11
558.079401700311
 21
404.8988856713903
 31
0.0
  0
LINE
  5
547
330
1F
100
AcDbEntity
  8
ZUWAKU
100
AcDbLine
 10
559.4794017003109
 20
404.8988856713903
 30
0.0
 11
559.4794017003109
 21
401.0488856713902
 31
0.0
  0
ARC
  5
548
330
1F
100
AcDbEntity
  8
ZUWAKU
100
AcDbCircle
 10
555.4544017003109
 20
404.6912846587126
 30
0.0
 40
0.7
100
AcDbArc
 50
180.0
 51
224.9999999999908
  0
CIRCLE
  5
549
330
1F
100
AcDbEntity
  8
ZUWAKU
100
AcDbCircle
 10
560.704401700311
 20
402.9738856713902
 30
0.0
 40
0.875
  0
LINE
  5
54A
330
1F
100
AcDbEntity
  8
ZUWAKU
100
AcDbLine
 10
561.1419017003109
 20
398.9488856713904
 30
0.0
 11
560.1794017003109
 21
398.9488856713904
 31
0.0
  0
LINE
  5
54B
330
1F
100
AcDbEntity
  8
ZUWAKU
100
AcDbLine
 10
560.1794017003109
 20
400.3488856713902
 30
0.0
 11
561.1419017003109
 21
400.3488856713902
 31
0.0
  0
LINE
  5
54C
330
1F
100
AcDbEntity
  8
ZUWAKU
100
AcDbLine
 10
561.1419017003109
 20
405.5988856713902
 30
0.0
 11
560.1794017003109
 21
405.5988856713902
 31
0.0
  0
LINE
  5
54D
330
1F
100
AcDbEntity
  8
ZUWAKU
100
AcDbLine
 10
560.1794017003109
 20
406.9988856713903
 30
0.0
 11
561.1419017003109
 21
406.9988856713903
 31
0.0
  0
INSERT
  5
54E
330
1F
100
AcDbEntity
  8
ZUWAKU
  6
Continuous
100
AcDbBlockReference
  2
*X2
 10
547.7082958794333
 20
395.3738853319405
 30
0.0
1001
ACAD
1000
HATCH
1002
{
1070
    19
1000
ANSI37
1040
0.1
1040
0.0
1000
R14_HATCH_DATA
1000
585
1011
548.7082958794334
1021
395.3738853319405
1031
0.0
1011
547.7082958794333
1021
396.3738853319405
1031
0.0
1011
547.7082958794333
1021
395.3738853319405
1031
1.0
1040
0.0
1010
0.0
1020
0.0
1030
1.0
1000
ANSI37
1070
     0
1070
     0
1071
        8
1071
        7
1070
     1
1070
     1
1071
       24
1040
7.251131074046952
1040
8.822424579941474
1040
-0.1989123673796348
1040
7.046105820877585
1040
9.317399326771999
1040
0.0
1040
7.046105820877585
1040
9.96250033944969
1040
-0.4142135623730912
1040
7.308605820877572
1040
10.22500033944968
1040
0.0
1040
8.796105820877526
1040
10.22500033944968
1040
0.4142135623731546
1040
9.058605820877572
1040
10.48750033944968
1040
0.0
1040
9.058605820877572
1040
11.36250033944968
1040
0.4142135623731586
1040
8.796105820877526
1040
11.62500033944968
1040
0.0
1040
7.046105820877585
1040
11.62500033944968
1040
0.4142135623730928
1040
5.646105820877607
1040
10.2250003394497
1040
0.0
1040
5.646105820877607
1040
9.317399326772063
1040
0.1989123673796619
1040
6.261181580385821
1040
7.832475086280261
1040
0.0
1040
7.716080567708161
1040
6.377576098957932
1040
-0.1989123673796613
1040
7.921105820877585
1040
5.882601352127339
1040
0.0
1040
7.921105820877585
1040
5.237500339449681
1040
-0.4142135623730911
1040
7.658605820877595
1040
4.975000339449684
1040
0.0
1040
6.171105820877643
1040
4.975000339449684
1040
0.4142135623731526
1040
5.908605820877595
1040
4.71250033944969
1040
0.0
1040
5.908605820877595
1040
3.837500339449681
1040
0.4142135623731526
1040
6.171105820877643
1040
3.575000339449687
1040
0.0
1040
7.921105820877585
1040
3.575000339449687
1040
0.4142135623731045
1040
9.321105820877619
1040
4.975000339449675
1040
0.0
1040
9.321105820877619
1040
5.882601352127311
1040
0.1989123673796604
1040
8.706030061369347
1040
7.36752559261908
1040
0.0
1071
        0
1071
        7
1070
     1
1070
     1
1071
       16
1040
11.7711058208776
1040
9.52500033944969
1040
-0.4142135623730935
1040
12.47110582087759
1040
10.22500033944968
1040
0.0
1040
13.43360582087757
1040
10.22500033944968
1040
0.4142135623731546
1040
13.69610582087761
1040
10.48750033944968
1040
0.0
1040
13.69610582087761
1040
11.36250033944968
1040
0.4142135623730951
1040
13.43360582087763
1040
11.62500033944968
1040
0.0
1040
12.47110582087754
1040
11.62500033944966
1040
0.4142135623730893
1040
10.37110582087757
1040
9.525000339449654
1040
0.0
1040
10.37110582087757
1040
5.675000339449699
1040
0.4142135623730969
1040
12.47110582087759
1040
3.575000339449687
1040
0.0
1040
13.43360582087757
1040
3.575000339449687
1040
0.4142135623731526
1040
13.69610582087761
1040
3.837500339449681
1040
0.0
1040
13.69610582087761
1040
4.71250033944969
1040
0.4142135623730891
1040
13.43360582087763
1040
4.975000339449684
1040
0.0
1040
12.47110582087759
1040
4.975000339449684
1040
-0.4142135623730928
1040
11.7711058208776
1040
5.675000339449678
1040
0.0
1071
        0
1071
        7
1070
     1
1070
     1
1071
        2
1040
12.12110582087757
1040
7.600000339449684
1040
1.0
1040
13.87110582087757
1040
7.600000339449684
1040
1.0
1071
        0
1071
        7
1070
     1
1070
     1
1071
       26
1040
18.65742906196658
1040
9.602523936231401
1040
0.0
1040
19.18824887853548
1040
11.28345335536619
1040
0.5069206636600134
1040
18.93793342893781
1040
11.62500033944968
1040
0.0
1040
18.08848873913319
1040
11.62500033944968
1040
0.3272098845218764
1040
17.83817328953551
1040
11.44154732353317
1040
0.0
1040
16.90403835221963
1040
8.483453355366226
1040
-0.3272098845219541
1040
16.65372290262189
1040
8.300000339449685
1040
0.0
1040
16.58360582087766
1040
8.300000339449685
1040
-0.4142135623731526
1040
16.32110582087761
1040
8.562500339449679
1040
0.0
1040
16.32110582087761
1040
11.36250033944968
1040
0.4142135623730951
1040
16.05860582087763
1040
11.62500033944968
1040
0.0
1040
15.18360582087757
1040
11.62500033944968
1040
0.4142135623730871
1040
14.92110582087758
1040
11.36250033944969
1040
0.0
1040
14.92110582087758
1040
3.837500339449681
1040
0.4142135623730891
1040
15.18360582087757
1040
3.575000339449687
1040
0.0
1040
16.05860582087757
1040
3.575000339449687
1040
0.4142135623731526
1040
16.32110582087761
1040
3.837500339449681
1040
0.0
1040
16.32110582087761
1040
6.637500339449692
1040
-0.4142135623731526
1040
16.58360582087766
1040
6.900000339449687
1040
0.0
1040
16.65372290262195
1040
6.900000339449687
1040
-0.3272098845218915
1040
16.90403835221963
1040
6.716547323533147
1040
0.0
1040
17.83817328953551
1040
3.758453355366221
1040
0.3272098845218902
1040
18.08848873913319
1040
3.575000339449687
1040
0.0
1040
18.93793342893781
1040
3.575000339449687
1040
0.5069206636600336
1040
19.18824887853548
1040
3.91654732353319
1040
0.0
1040
18.02505318929866
1040
7.600000339449755
1040
0.0
1071
        0
1071
        7
1070
     1
1070
     1
1071
        8
1040
21.74610582087757
1040
11.36250033944969
1040
0.4142135623731546
1040
21.48360582087752
1040
11.62500033944968
1040
0.0
1040
20.60860582087764
1040
11.62500033944968
1040
0.4142135623731507
1040
20.34610582087759
1040
11.36250033944969
1040
0.0
1040
20.34610582087759
1040
3.837500339449681
1040
0.4142135623731526
1040
20.60860582087764
1040
3.575000339449687
1040
0.0
1040
21.48360582087752
1040
3.575000339449687
1040
0.4142135623731526
1040
21.74610582087757
1040
3.837500339449681
1040
0.0
1071
        0
1071
        7
1070
     1
1070
     1
1071
       24
1040
24.19610582087762
1040
9.96250033944969
1040
-0.4142135623731546
1040
24.45860582087766
1040
10.22500033944968
1040
0.0
1040
25.94610582087762
1040
10.22500033944968
1040
0.4142135623730911
1040
26.20860582087761
1040
10.48750033944968
1040
0.0
1040
26.20860582087761
1040
11.36250033944968
1040
0.4142135623730952
1040
25.94610582087762
1040
11.62500033944968
1040
0.0
1040
24.19610582087762
1040
11.62500033944968
1040
0.4142135623731048
1040
22.79610582087757
1040
10.2250003394497
1040
0.0
1040
22.79610582087757
1040
9.317399326772063
1040
0.1989123673796613
1040
23.41118158038586
1040
7.83247508628029
1040
0.0
1040
24.86608056770819
1040
6.377576098957955
1040
-0.1989123673796402
1040
25.07110582087761
1040
5.882601352127418
1040
0.0
1040
25.07110582087761
1040
5.237500339449681
1040
-0.4142135623730911
1040
24.80860582087763
1040
4.975000339449684
1040
0.0
1040
23.32110582087762
1040
4.975000339449684
1040
0.4142135623731526
1040
23.05860582087757
1040
4.71250033944969
1040
0.0
1040
23.05860582087757
1040
3.837500339449681
1040
0.4142135623730891
1040
23.32110582087755
1040
3.575000339449687
1040
0.0
1040
25.07110582087761
1040
3.575000339449687
1040
0.4142135623730925
1040
26.47110582087759
1040
4.975000339449675
1040
0.0
1040
26.47110582087759
1040
5.882601352127311
1040
0.1989123673796675
1040
25.85603006136932
1040
7.367525592619137
1040
0.0
1040
24.40113107404704
1040
8.822424579941396
1040
-0.1989123673796652
1040
24.19610582087762
1040
9.31739932677198
1040
0.0
1071
        0
1071
        7
1070
     1
1070
     1
1071
       16
1040
28.92110582087758
1040
11.36250033944968
1040
0.414213562373103
1040
28.65860582087759
1040
11.62500033944968
1040
0.0
1040
27.78360582087759
1040
11.62500033944968
1040
0.4142135623730871
1040
27.52110582087761
1040
11.36250033944969
1040
0.0
1040
27.52110582087761
1040
4.975000339449675
1040
0.4142135623730927
1040
28.92110582087758
1040
3.575000339449687
1040
0.0
1040
30.67110582087757
1040
3.575000339449687
1040
0.4142135623731045
1040
32.07110582087762
1040
4.975000339449675
1040
0.0
1040
32.07110582087762
1040
11.36250033944968
1040
0.4142135623730951
1040
31.80860582087763
1040
11.62500033944968
1040
0.0
1040
30.93360582087757
1040
11.62500033944968
1040
0.4142135623730871
1040
30.67110582087757
1040
11.36250033944969
1040
0.0
1040
30.67110582087757
1040
5.500000339449672
1040
-0.4142135623730879
1040
30.1461058208776
1040
4.975000339449684
1040
0.0
1040
29.44610582087761
1040
4.975000339449684
1040
-0.4142135623731197
1040
28.92110582087758
1040
5.500000339449672
1040
0.0
1071
        0
1071
        7
1070
     1
1070
     1
1071
        8
1040
34.5211058208776
1040
11.36250033944969
1040
0.4142135623730871
1040
34.25860582087762
1040
11.62500033944968
1040
0.0
1040
33.38360582087762
1040
11.62500033944968
1040
0.4142135623731507
1040
33.12110582087758
1040
11.36250033944969
1040
0.0
1040
33.12110582087758
1040
3.837500339449681
1040
0.4142135623730891
1040
33.38360582087755
1040
3.575000339449687
1040
0.0
1040
34.25860582087762
1040
3.575000339449687
1040
0.4142135623730891
1040
34.5211058208776
1040
3.837500339449681
1040
0.0
1071
        0
1070
     0
1070
     1
1040
0.0
1040
0.1
1070
     0
1070
     2
1040
0.7853981633974483
1040
-450.4711524238524
1040
-6.59999966055028
1040
-0.2245064030267288
1040
0.2245064030267288
1070
     0
1040
2.356194490192344
1040
-450.4711524238524
1040
-6.59999966055028
1040
-0.2245064030267288
1040
-0.2245064030267288
1070
     0
1040
0.057451373970553
1071
        8
1040
8.039927224998677
1040
7.58358716239246
1040
0.0
1040
11.2022572467066
1040
9.42203143067519
1040
0.0
1040
12.58218368631685
1040
7.755941162485044
1040
0.0
1040
15.45702973430559
1040
8.100649162670434
1040
0.0
1040
20.91923575296539
1040
8.330455296441241
1040
0.0
1040
23.44910019105179
1040
9.709288497653288
1040
0.0
1040
28.2788427296872
1040
9.364579296997193
1040
0.0
1040
33.91353955329839
1040
9.594385430767999
1040
0.0
1002
}
  0
TEXT
  5
54F
330
1F
100
AcDbEntity
  8
moji
100
AcDbText
 10
590.2797598910124
 20
401.8946420086597
 30
0.0
 40
3.0
  1
たてとい ユニシェイプ ＵＳＴ４２
 41
0.9
  7
MSｺﾞｼｯｸ
100
AcDbText
  0
LWPOLYLINE
  5
550
330
1F
100
AcDbEntity
  8
ZUWAKU
100
AcDbPolyline
 90
        4
 70
     1
 43
0.0
 10
548.1082956229204
 20
670.7738856713904
 10
548.1082956229204
 20
395.7738856713904
 10
946.1082956229203
 20
395.7738856713904
 10
946.1082956229203
 20
670.7738856713904
  0
LWPOLYLINE
  5
551
330
1F
100
AcDbEntity
  8
ZUWAKU
100
AcDbPolyline
 90
        4
 70
     1
 43
0.0
 10
547.9082956229204
 20
670.9738856713902
 10
547.9082956229204
 20
395.5738856713904
 10
946.3082956229204
 20
395.5738856713904
 10
946.3082956229204
 20
670.9738856713902
  0
LWPOLYLINE
  5
552
330
1F
100
AcDbEntity
  8
ZUWAKU
100
AcDbPolyline
 90
        4
 70
     1
 43
0.0
 10
547.7082956229204
 20
671.1738856713902
 10
547.7082956229204
 20
395.3738856713903
 10
946.5082956229204
 20
395.3738856713903
 10
946.5082956229204
 20
671.1738856713902
  0
LWPOLYLINE
  5
553
330
1F
100
AcDbEntity
  8
ZUWAKU
100
AcDbPolyline
 90
        4
 70
     1
 43
0.0
 10
548.0082956229203
 20
670.8738856713903
 10
548.0082956229203
 20
395.6738856713903
 10
946.2082956229206
 20
395.6738856713903
 10
946.2082956229204
 20
670.8738856713903
  0
LWPOLYLINE
  5
554
330
1F
100
AcDbEntity
  8
ZUWAKU
100
AcDbPolyline
 90
        4
 70
     1
 43
0.0
 10
547.8082956229204
 20
671.0738856713903
 10
547.8082956229204
 20
395.4738856713902
 10
946.4082956229203
 20
395.4738856713905
 10
946.4082956229203
 20
671.0738856713903
  0
LINE
  5
555
330
1F
100
AcDbEntity
  8
ZUWAKU
100
AcDbLine
 10
547.7082956229204
 20
410.3738856713903
 30
0.0
 11
946.4082956229203
 21
410.3738856713903
 31
0.0
  0
LINE
  5
556
330
1F
100
AcDbEntity
  8
ZUWAKU
100
AcDbLine
 10
547.7082956229204
 20
410.4738856713902
 30
0.0
 11
946.4082956229203
 21
410.4738856713902
 31
0.0
  0
LINE
  5
557
330
1F
100
AcDbEntity
  8
ZUWAKU
100
AcDbLine
 10
547.7082956229204
 20
410.5738856713903
 30
0.0
 11
946.4082956229203
 21
410.5738856713903
 31
0.0
  0
LINE
  5
558
330
1F
100
AcDbEntity
  8
ZUWAKU
100
AcDbLine
 10
547.7082956229204
 20
410.6738856713902
 30
0.0
 11
946.4082956229203
 21
410.6738856713902
 31
0.0
  0
LINE
  5
559
330
1F
100
AcDbEntity
  8
ZUWAKU
100
AcDbLine
 10
547.7082956229204
 20
410.7738856713904
 30
0.0
 11
946.4082956229203
 21
410.7738856713904
 31
0.0
  0
LINE
  5
55A
330
1F
100
AcDbEntity
  8
ZUWAKU
100
AcDbLine
 10
652.0315962679545
 20
403.0738856713903
 30
0.0
 11
771.4204776084161
 21
403.0738856713903
 31
0.0
  0
LINE
  5
55B
330
1F
100
AcDbEntity
  8
ZUWAKU
100
AcDbLine
 10
652.0315962679545
 20
403.1738856713903
 30
0.0
 11
771.4204776084161
 21
403.1738856713903
 31
0.0
  0
LINE
  5
55C
330
1F
100
AcDbEntity
  8
ZUWAKU
100
AcDbLine
 10
652.0315962679545
 20
402.9738856713902
 30
0.0
 11
771.4204776084161
 21
402.9738856713902
 31
0.0
  0
DIMENSION
  5
704
102
{ACAD_XDICTIONARY
360
711
102
}
102
{ACAD_REACTORS
330
71B
102
}
330
1F
100
AcDbEntity
  8
0
100
AcDbDimension
  2
*D9
 10
708.730026881665
 20
576.08173938002
 30
0.0
 11
708.7300268816648
 21
541.0817393800202
 31
0.0
 70
   160
  1
※a70
 71
     5
 42
69.99999999999989
  3
ISO-25
100
AcDbAlignedDimension
 13
723.1517612387299
 23
506.0817393800201
 33
0.0
 14
723.1517612387299
 24
576.08173938002
 34
0.0
 50
90.0
100
AcDbRotatedDimension
1001
ACAD
1000
DSTYLE
1002
{
1070
   340
1005
28E
1002
}
  0
DIMENSION
  5
78E
102
{ACAD_XDICTIONARY
360
79B
102
}
102
{ACAD_REACTORS
330
7A5
102
}
330
1F
100
AcDbEntity
  8
0
100
AcDbDimension
  2
*D10
 10
821.4444204887257
 20
416.0817393800198
 30
0.0
 11
817.1944204887257
 21
496.08173938002
 31
0.0
 70
    32
 71
     5
 42
160.0
  3
ISO-25
100
AcDbAlignedDimension
 13
771.4746350037171
 23
576.0817393800198
 33
0.0
 14
771.4746350037172
 24
416.0817393800198
 34
0.0
 50
90.0
100
AcDbRotatedDimension
1001
ACAD
1000
DSTYLE
1002
{
1070
   340
1005
28E
1002
}
  0
LINE
  5
7E1
330
1F
100
AcDbEntity
  8
0
  6
CENTER
 62
     1
100
AcDbLine
 10
747.7436924310857
 20
581.6639973889921
 30
0.0
 11
747.7436924310857
 21
412.911967575139
 31
0.0
  0
MTEXT
  5
828
330
1F
100
AcDbEntity
  8
0
  6
CENTER
100
AcDbMText
 10
851.9000576249389
 20
427.9898895461378
 30
0.0
 40
2.5
 41
58.31111111111112
 71
     1
 72
     5
  1
a {\fMS PGothic|b0|i0|c128|p17;たてといの差込み寸法を示す。}
 73
     1
 44
1.0
  0
VIEWPORT
  5
5F3
330
50
100
AcDbEntity
 67
     1
  8
0
100
AcDbViewport
 10
145.8692245369842
 20
115.5640065713639
 30
0.0
 40
709.8393022670625
 41
440.0532020034347
 68
     1
 69
     1
 12
145.8692245369842
 22
115.5640065713639
 13
0.0
 23
0.0
 14
10.0
 24
10.0
 15
10.0
 25
10.0
 16
0.0
 26
0.0
 36
1.0
 17
0.0
 27
0.0
 37
0.0
 42
50.0
 43
0.0
 44
0.0
 45
440.0532020034347
 50
0.0
 51
0.0
 72
  1000
 90
    32800
  1

281
     0
 71
     1
 74
     0
110
0.0
120
0.0
130
0.0
111
1.0
121
0.0
131
0.0
112
0.0
122
1.0
132
0.0
 79
     0
146
0.0
170
     0
  0
VIEWPORT
  5
5F5
330
50
100
AcDbEntity
 67
     1
  8
0
100
AcDbViewport
 10
207.1678272915786
 20
145.2089986417536
 30
0.0
 40
416.477614556092
 41
293.2025024592417
 68
     2
 69
     2
 12
748.3018115748989
 22
535.5042735635527
 13
0.0
 23
0.0
 14
10.0
 24
10.0
 15
10.0
 25
10.0
 16
0.0
 26
0.0
 36
1.0
 17
0.0
 27
0.0
 37
0.0
 42
50.0
 43
0.0
 44
0.0
 45
314.3690141474167
 50
0.0
 51
0.0
 72
  1000
 90
    32864
  1

281
     0
 71
     1
 74
     0
110
0.0
120
0.0
130
0.0
111
1.0
121
0.0
131
0.0
112
0.0
122
1.0
132
0.0
 79
     0
146
0.0
170
     0
  0
ENDSEC
  0
SECTION
  2
OBJECTS
  0
DICTIONARY
  5
C
330
0
100
AcDbDictionary
281
     1
  3
ACAD_COLOR
350
6B
  3
ACAD_GROUP
350
D
  3
ACAD_LAYOUT
350
1A
  3
ACAD_MATERIAL
350
6A
  3
ACAD_MLINESTYLE
350
17
  3
ACAD_PLOTSETTINGS
350
19
  3
ACAD_PLOTSTYLENAME
350
E
  3
AcDbVariableDictionary
350
5E
  0
DICTIONARY
  5
291
330
2
100
AcDbDictionary
280
     1
281
     1
  3
ACAD_LAYERSTATES
360
292
  0
DICTIONARY
  5
286
330
285
100
AcDbDictionary
280
     1
281
     1
  3
ADSK_XREC_LAYER_RECONCILED
360
287
  0
DICTIONARY
  5
289
330
288
100
AcDbDictionary
280
     1
281
     1
  3
ADSK_XREC_LAYER_RECONCILED
360
28A
  0
DICTIONARY
  5
28C
330
28B
100
AcDbDictionary
280
     1
281
     1
  3
ADSK_XREC_LAYER_RECONCILED
360
28D
  0
DICTIONARY
  5
711
330
704
100
AcDbDictionary
280
     1
281
     1
  3
ACAD_DIMASSOC
360
71B
  0
DICTIONARY
  5
79B
330
78E
100
AcDbDictionary
280
     1
281
     1
  3
ACAD_DIMASSOC
360
7A5
  0
DICTIONARY
  5
6B
102
{ACAD_REACTORS
330
C
102
}
330
C
100
AcDbDictionary
281
     1
  0
DICTIONARY
  5
D
102
{ACAD_REACTORS
330
C
102
}
330
C
100
AcDbDictionary
281
     1
  0
DICTIONARY
  5
1A
102
{ACAD_REACTORS
330
C
102
}
330
C
100
AcDbDictionary
281
     1
  3
Model
350
22
  3
レイアウト1
350
51
  3
レイアウト2
350
56
  0
DICTIONARY
  5
6A
102
{ACAD_REACTORS
330
C
102
}
330
C
100
AcDbDictionary
281
     1
  0
DICTIONARY
  5
17
102
{ACAD_REACTORS
330
C
102
}
330
C
100
AcDbDictionary
281
     1
  3
Standard
350
18
  0
DICTIONARY
  5
19
102
{ACAD_REACTORS
330
C
102
}
330
C
100
AcDbDictionary
281
     1
  0
ACDBDICTIONARYWDFLT
  5
E
102
{ACAD_REACTORS
330
C
102
}
330
C
100
AcDbDictionary
281
     1
  3
Normal
350
F
100
AcDbDictionaryWithDefault
340
F
  0
DICTIONARY
  5
5E
102
{ACAD_REACTORS
330
C
102
}
330
C
100
AcDbDictionary
281
     1
  3
DIMASSOC
350
5F
  3
HIDETEXT
350
63
  0
DICTIONARY
  5
292
102
{ACAD_REACTORS
330
291
102
}
330
291
100
AcDbDictionary
281
     1
  0
XRECORD
  5
287
102
{ACAD_REACTORS
330
286
102
}
330
286
100
AcDbXrecord
280
     1
290
     1
  0
XRECORD
  5
28A
102
{ACAD_REACTORS
330
289
102
}
330
289
100
AcDbXrecord
280
     1
290
     1
  0
XRECORD
  5
28D
102
{ACAD_REACTORS
330
28C
102
}
330
28C
100
AcDbXrecord
280
     1
290
     1
  0
DIMASSOC
  5
71B
102
{ACAD_REACTORS
330
711
102
}
330
711
100
AcDbDimAssoc
330
704
 90
        2
 70
     0
 71
     0
  1
AcDbOsnapPointRef
 72
    13
331
413
 73
     2
 91
        0
 40
0.0
 10
0.0
 20
0.0
 30
2.000000000000000E+50
 75
     0
  0
DIMASSOC
  5
7A5
102
{ACAD_REACTORS
330
79B
102
}
330
79B
100
AcDbDimAssoc
330
78E
 90
        3
 70
     0
 71
     0
  1
AcDbOsnapPointRef
 72
    13
331
443
 73
     2
 91
        0
 40
0.0
 10
0.0
 20
0.0
 30
2.000000000000000E+50
 75
     0
  1
AcDbOsnapPointRef
 72
     8
331
438
 73
     2
 91
        0
 40
0.1297310585582269
 10
0.0
 20
0.0
 30
0.0
 75
     1
  1
AcDbOsnapPointRef
 72
    13
331
443
 73
     2
 91
        0
 40
0.0
 10
0.0
 20
0.0
 30
2.000000000000000E+50
 75
     0
  0
LAYOUT
  5
22
102
{ACAD_REACTORS
330
1A
102
}
330
1A
100
AcDbPlotSettings
  1

  2
none_device
  4
ANSI_A_(8.50_x_11.00_Inches)
  6

 40
6.349999904632568
 41
19.04999923706055
 42
6.350006103515625
 43
19.04998779296875
 44
215.8999938964844
 45
279.3999938964844
 46
0.0
 47
0.0
 48
0.0
 49
0.0
140
0.0
141
0.0
142
1.0
143
78.436453180766
 70
 11952
 72
     0
 73
     1
 74
     0
  7

 75
     0
147
0.0127491741332998
 76
     0
 77
     2
 78
   300
148
0.0
149
0.0
100
AcDbLayout
  1
Model
 70
     1
 71
     0
 10
0.0
 20
0.0
 11
12.0
 21
9.0
 12
0.0
 22
0.0
 32
0.0
 14
0.0
 24
0.0
 34
0.0
 15
0.0
 25
0.0
 35
0.0
146
0.0
 13
0.0
 23
0.0
 33
0.0
 16
1.0
 26
0.0
 36
0.0
 17
0.0
 27
1.0
 37
0.0
 76
     0
330
1F
  0
LAYOUT
  5
51
102
{ACAD_REACTORS
330
1A
102
}
330
1A
100
AcDbPlotSettings
  1

  2
CubePDF
  4
A3
  6

 40
3.174999952316284
 41
3.174999952316284
 42
3.17498779296875
 43
3.17498779296875
 44
297.0318298339844
 45
420.1583251953125
 46
0.0
 47
0.0
 48
0.0
 49
0.0
140
0.0
141
0.0
142
1.0
143
1.0
 70
   688
 72
     1
 73
     1
 74
     5
  7
monochrome.ctb
 75
    16
147
1.0
 76
     1
 77
     2
 78
   300
148
0.0
149
0.0
100
AcDbLayout
  1
レイアウト1
 70
     1
 71
     1
 10
-3.17498779296875
 20
-3.174999952316284
 11
416.9833374023437
 21
293.8568298816681
 12
0.0
 22
0.0
 32
0.0
 14
-1.076510884144681
 24
-1.403757103030898
 34
-0.0015258207003583
 15
415.4234282593595
 25
291.8121231166844
 35
0.0000000349246037
146
0.0
 13
0.0
 23
0.0
 33
0.0
 16
1.0
 26
0.0
 36
0.0
 17
0.0
 27
1.0
 37
0.0
 76
     0
330
50
331
5F3
  0
LAYOUT
  5
56
102
{ACAD_REACTORS
330
1A
102
}
330
1A
100
AcDbPlotSettings
  1

  2
None
  4

  6

 40
0.0
 41
0.0
 42
0.0
 43
0.0
 44
0.0
 45
0.0
 46
0.0
 47
0.0
 48
0.0
 49
0.0
140
0.0
141
0.0
142
1.0
143
1.0
 70
   688
 72
     0
 73
     0
 74
     5
  7

 75
    16
147
1.0
 76
     0
 77
     2
 78
   300
148
0.0
149
0.0
100
AcDbLayout
  1
レイアウト2
 70
     1
 71
     2
 10
0.0
 20
0.0
 11
12.0
 21
9.0
 12
0.0
 22
0.0
 32
0.0
 14
0.0
 24
0.0
 34
0.0
 15
0.0
 25
0.0
 35
0.0
146
0.0
 13
0.0
 23
0.0
 33
0.0
 16
1.0
 26
0.0
 36
0.0
 17
0.0
 27
1.0
 37
0.0
 76
     0
330
55
  0
MLINESTYLE
  5
18
102
{ACAD_REACTORS
330
17
102
}
330
17
100
AcDbMlineStyle
  2
STANDARD
 70
     0
  3

 62
   256
 51
90.0
 52
90.0
 71
     2
 49
0.5
 62
   256
  6
BYLAYER
 49
-0.5
 62
   256
  6
BYLAYER
  0
ACDBPLACEHOLDER
  5
F
102
{ACAD_REACTORS
330
E
102
}
330
E
  0
DICTIONARYVAR
  5
5F
102
{ACAD_REACTORS
330
5E
102
}
330
5E
100
DictionaryVariables
280
     0
  1
2
  0
DICTIONARYVAR
  5
63
102
{ACAD_REACTORS
330
5E
102
}
330
5E
100
DictionaryVariables
280
     0
  1
1
  0
ENDSEC
  0
EOF
