  0
SECTION
  2
HEADER
  9
$ACADVER
  1
AC1012
  9
$DWGCODEPAGE
  3
dos932
  9
$INSBASE
 10
0.0
 20
0.0
 30
0.0
  9
$EXTMIN
 10
6.973889460957252
 20
6.972698629960859
 30
-0.0000000100018307
  9
$EXTMAX
 10
804.6122813430994
 20
558.6085264208988
 30
0.0000000100018311
  9
$LIMMIN
 10
0.0
 20
0.0
  9
$LIMMAX
 10
841.0
 20
594.0
  9
$ORTHOMODE
 70
     1
  9
$REGENMODE
 70
     1
  9
$FILLMODE
 70
     1
  9
$QTEXTMODE
 70
     0
  9
$MIRRTEXT
 70
     1
  9
$DRAGMODE
 70
     2
  9
$LTSCALE
 40
1.0
  9
$OSMODE
 70
    63
  9
$ATTMODE
 70
     1
  9
$TEXTSIZE
 40
2.5
  9
$TRACEWID
 40
1.0
  9
$TEXTSTYLE
  7
MSPｺ_ｼｯｸ
  9
$CLAYER
  8
SUNPOU
  9
$CELTYPE
  6
BYLAYER
  9
$CECOLOR
 62
   256
  9
$CELTSCALE
 40
1.0
  9
$DELOBJ
 70
     1
  9
$DISPSILH
 70
     0
  9
$DIMSCALE
 40
1.0
  9
$DIMASZ
 40
5.0
  9
$DIMEXO
 40
1.5
  9
$DIMDLI
 40
7.0
  9
$DIMRND
 40
0.0
  9
$DIMDLE
 40
0.0
  9
$DIMEXE
 40
1.5
  9
$DIMTP
 40
0.0
  9
$DIMTM
 40
0.0
  9
$DIMTXT
 40
6.0
  9
$DIMCEN
 40
0.0
  9
$DIMTSZ
 40
0.0
  9
$DIMTOL
 70
     0
  9
$DIMLIM
 70
     0
  9
$DIMTIH
 70
     0
  9
$DIMTOH
 70
     0
  9
$DIMSE1
 70
     0
  9
$DIMSE2
 70
     0
  9
$DIMTAD
 70
     3
  9
$DIMZIN
 70
     0
  9
$DIMBLK
  1
OPEN
  9
$DIMASO
 70
     1
  9
$DIMSHO
 70
     1
  9
$DIMPOST
  1

  9
$DIMAPOST
  1

  9
$DIMALT
 70
     0
  9
$DIMALTD
 70
     2
  9
$DIMALTF
 40
25.4
  9
$DIMLFAC
 40
1.0
  9
$DIMTOFL
 70
     0
  9
$DIMTVP
 40
0.0
  9
$DIMTIX
 70
     0
  9
$DIMSOXD
 70
     0
  9
$DIMSAH
 70
     0
  9
$DIMBLK1
  1

  9
$DIMBLK2
  1

  9
$DIMSTYLE
  2
STANDARD
  9
$DIMCLRD
 70
   256
  9
$DIMCLRE
 70
   256
  9
$DIMCLRT
 70
   256
  9
$DIMTFAC
 40
1.0
  9
$DIMGAP
 40
1.5
  9
$DIMJUST
 70
     0
  9
$DIMSD1
 70
     0
  9
$DIMSD2
 70
     0
  9
$DIMTOLJ
 70
     1
  9
$DIMTZIN
 70
     0
  9
$DIMALTZ
 70
     0
  9
$DIMALTTZ
 70
     0
  9
$DIMFIT
 70
     3
  9
$DIMUPT
 70
     0
  9
$DIMUNIT
 70
     2
  9
$DIMDEC
 70
     0
  9
$DIMTDEC
 70
     0
  9
$DIMALTU
 70
     2
  9
$DIMALTTD
 70
     2
  9
$DIMTXSTY
  7
STANDARD
  9
$DIMAUNIT
 70
     0
  9
$LUNITS
 70
     2
  9
$LUPREC
 70
     4
  9
$SKETCHINC
 40
1.0
  9
$FILLETRAD
 40
10.0
  9
$AUNITS
 70
     0
  9
$AUPREC
 70
     0
  9
$MENU
  1
.
  9
$ELEVATION
 40
0.0
  9
$PELEVATION
 40
0.0
  9
$THICKNESS
 40
0.0
  9
$LIMCHECK
 70
     0
  9
$BLIPMODE
 70
     0
  9
$CHAMFERA
 40
0.0
  9
$CHAMFERB
 40
0.0
  9
$CHAMFERC
 40
20.0
  9
$CHAMFERD
 40
0.0
  9
$SKPOLY
 70
     0
  9
$TDCREATE
 40
2450994.350997107
  9
$TDUPDATE
 40
2455894.666984317
  9
$TDINDWG
 40
0.1892225347
  9
$TDUSRTIMER
 40
0.1892225347
  9
$USRTIMER
 70
     1
  9
$ANGBASE
 50
0.0
  9
$ANGDIR
 70
     0
  9
$PDMODE
 70
     1
  9
$PDSIZE
 40
0.0
  9
$PLINEWID
 40
0.0
  9
$COORDS
 70
     0
  9
$SPLFRAME
 70
     0
  9
$SPLINETYPE
 70
     6
  9
$SPLINESEGS
 70
     8
  9
$ATTDIA
 70
     0
  9
$ATTREQ
 70
     1
  9
$HANDLING
 70
 10241
  9
$HANDSEED
  5
8BBB
  9
$SURFTAB1
 70
     6
  9
$SURFTAB2
 70
     6
  9
$SURFTYPE
 70
     6
  9
$SURFU
 70
     6
  9
$SURFV
 70
     6
  9
$UCSNAME
  2

  9
$UCSORG
 10
0.0
 20
0.0
 30
0.0
  9
$UCSXDIR
 10
1.0
 20
0.0
 30
0.0
  9
$UCSYDIR
 10
0.0
 20
1.0
 30
0.0
  9
$PUCSNAME
  2

  9
$PUCSORG
 10
0.0
 20
0.0
 30
0.0
  9
$PUCSXDIR
 10
1.0
 20
0.0
 30
0.0
  9
$PUCSYDIR
 10
0.0
 20
1.0
 30
0.0
  9
$USERI1
 70
     0
  9
$USERI2
 70
     0
  9
$USERI3
 70
     0
  9
$USERI4
 70
     0
  9
$USERI5
 70
     0
  9
$USERR1
 40
0.0
  9
$USERR2
 40
0.0
  9
$USERR3
 40
0.0
  9
$USERR4
 40
0.0
  9
$USERR5
 40
0.0
  9
$WORLDVIEW
 70
     1
  9
$SHADEDGE
 70
     3
  9
$SHADEDIF
 70
    70
  9
$TILEMODE
 70
     1
  9
$MAXACTVP
 70
    16
  9
$PINSBASE
 10
0.0
 20
0.0
 30
0.0
  9
$PLIMCHECK
 70
     0
  9
$PEXTMIN
 10
0.0
 20
0.0
 30
0.0
  9
$PEXTMAX
 10
420.0
 20
297.0
 30
0.0
  9
$PLIMMIN
 10
0.0234348157644355
 20
-0.0028127621778777
  9
$PLIMMAX
 10
419.9700900892019
 20
297.0078378725877
  9
$UNITMODE
 70
     0
  9
$VISRETAIN
 70
     0
  9
$PLINEGEN
 70
     0
  9
$PSLTSCALE
 70
     1
  9
$TREEDEPTH
 70
  3020
  9
$PICKSTYLE
 70
     1
  9
$CMLSTYLE
  2
STANDARD
  9
$CMLJUST
 70
     0
  9
$CMLSCALE
 40
1.0
  9
$SAVEIMAGES
 70
     1
  0
ENDSEC
  0
SECTION
  2
CLASSES
  0
CLASS
  1
ACDBDICTIONARYWDFLT
  2
AcDbDictionaryWithDefault
  3
AutoCAD 2000
 90
    32768
280
     0
281
     0
  0
CLASS
  1
ACDBPLACEHOLDER
  2
AcDbPlaceHolder
  3
AutoCAD 2000
 90
    32768
280
     0
281
     0
  0
CLASS
  1
LAYOUT
  2
AcDbLayout
  3
AutoCAD 2000
 90
    32768
280
     0
281
     0
  0
CLASS
  1
LONG_TRANSACTION
  2
AcDbLongTransaction
  3
AutoCAD 2000
 90
    32768
280
     0
281
     0
  0
CLASS
  1
LWPOLYLINE
  2
AcDbPolyline
  3
AutoCAD 2000
 90
    32768
280
     0
281
     1
  0
CLASS
  1
HATCH
  2
AcDbHatch
  3
AutoCAD 2000
 90
    32768
280
     0
281
     1
  0
CLASS
  1
XRECORD
  2
AcDbXrecord
  3
AutoCAD 2000
 90
    32768
280
     0
281
     0
  0
CLASS
  1
LONG_TRANSACTION
  2
AcDbLongTransaction
  3
AutoCAD 2000
 90
    32768
280
     0
281
     0
  0
CLASS
  1
LWPOLYLINE
  2
AcDbPolyline
  3
AutoCAD 2000
 90
    32768
280
     0
281
     1
  0
CLASS
  1
HATCH
  2
AcDbHatch
  3
AutoCAD 2000
 90
    32768
280
     0
281
     1
  0
CLASS
  1
XRECORD
  2
AcDbXrecord
  3
AutoCAD 2000
 90
    32768
280
     0
281
     0
  0
CLASS
  1
LONG_TRANSACTION
  2
AcDbLongTransaction
  3
AutoCAD 2000
 90
    32768
280
     0
281
     0
  0
CLASS
  1
LWPOLYLINE
  2
AcDbPolyline
  3
AutoCAD 2000
 90
    32768
280
     0
281
     1
  0
CLASS
  1
HATCH
  2
AcDbHatch
  3
AutoCAD 2000
 90
    32768
280
     0
281
     1
  0
CLASS
  1
XRECORD
  2
AcDbXrecord
  3
AutoCAD 2000
 90
    32768
280
     0
281
     0
  0
CLASS
  1
LONG_TRANSACTION
  2
AcDbLongTransaction
  3
AutoCAD 2000
 90
    32768
280
     0
281
     0
  0
CLASS
  1
LWPOLYLINE
  2
AcDbPolyline
  3
AutoCAD 2000
 90
    32768
280
     0
281
     1
  0
CLASS
  1
HATCH
  2
AcDbHatch
  3
AutoCAD 2000
 90
    32768
280
     0
281
     1
  0
CLASS
  1
XRECORD
  2
AcDbXrecord
  3
AutoCAD 2000
 90
    32768
280
     0
281
     0
  0
CLASS
  1
LONG_TRANSACTION
  2
AcDbLongTransaction
  3
AutoCAD 2000
 90
    32768
280
     0
281
     0
  0
CLASS
  1
LWPOLYLINE
  2
AcDbPolyline
  3
AutoCAD 2000
 90
    32768
280
     0
281
     1
  0
CLASS
  1
HATCH
  2
AcDbHatch
  3
AutoCAD 2000
 90
    32768
280
     0
281
     1
  0
CLASS
  1
XRECORD
  2
AcDbXrecord
  3
AutoCAD 2000
 90
    32768
280
     0
281
     0
  0
CLASS
  1
LONG_TRANSACTION
  2
AcDbLongTransaction
  3
AutoCAD 2000
 90
    32768
280
     0
281
     0
  0
CLASS
  1
LWPOLYLINE
  2
AcDbPolyline
  3
AutoCAD 2000
 90
    32768
280
     0
281
     1
  0
CLASS
  1
HATCH
  2
AcDbHatch
  3
AutoCAD 2000
 90
    32768
280
     0
281
     1
  0
CLASS
  1
XRECORD
  2
AcDbXrecord
  3
AutoCAD 2000
 90
    32768
280
     0
281
     0
  0
CLASS
  1
LONG_TRANSACTION
  2
AcDbLongTransaction
  3
AutoCAD 2000
 90
    32768
280
     0
281
     0
  0
CLASS
  1
LWPOLYLINE
  2
AcDbPolyline
  3
AutoCAD 2000
 90
    32768
280
     0
281
     1
  0
CLASS
  1
HATCH
  2
AcDbHatch
  3
AutoCAD 2000
 90
    32768
280
     0
281
     1
  0
CLASS
  1
XRECORD
  2
AcDbXrecord
  3
AutoCAD 2000
 90
    32768
280
     0
281
     0
  0
CLASS
  1
LONG_TRANSACTION
  2
AcDbLongTransaction
  3
AutoCAD 2000
 90
    32768
280
     0
281
     0
  0
CLASS
  1
LWPOLYLINE
  2
AcDbPolyline
  3
AutoCAD 2000
 90
    32768
280
     0
281
     1
  0
CLASS
  1
HATCH
  2
AcDbHatch
  3
AutoCAD 2000
 90
    32768
280
     0
281
     1
  0
CLASS
  1
XRECORD
  2
AcDbXrecord
  3
AutoCAD 2000
 90
    32768
280
     0
281
     0
  0
CLASS
  1
LONG_TRANSACTION
  2
AcDbLongTransaction
  3
AutoCAD 2000
 90
    32768
280
     0
281
     0
  0
CLASS
  1
LWPOLYLINE
  2
AcDbPolyline
  3
AutoCAD 2000
 90
    32768
280
     0
281
     1
  0
CLASS
  1
HATCH
  2
AcDbHatch
  3
AutoCAD 2000
 90
    32768
280
     0
281
     1
  0
CLASS
  1
XRECORD
  2
AcDbXrecord
  3
AutoCAD 2000
 90
    32768
280
     0
281
     0
  0
CLASS
  1
LONG_TRANSACTION
  2
AcDbLongTransaction
  3
AutoCAD 2000
 90
    32768
280
     0
281
     0
  0
CLASS
  1
LWPOLYLINE
  2
AcDbPolyline
  3
AutoCAD 2000
 90
    32768
280
     0
281
     1
  0
CLASS
  1
HATCH
  2
AcDbHatch
  3
AutoCAD 2000
 90
    32768
280
     0
281
     1
  0
CLASS
  1
XRECORD
  2
AcDbXrecord
  3
AutoCAD 2000
 90
    32768
280
     0
281
     0
  0
CLASS
  1
LONG_TRANSACTION
  2
AcDbLongTransaction
  3
AutoCAD 2000
 90
    32768
280
     0
281
     0
  0
CLASS
  1
LWPOLYLINE
  2
AcDbPolyline
  3
AutoCAD 2000
 90
    32768
280
     0
281
     1
  0
CLASS
  1
HATCH
  2
AcDbHatch
  3
AutoCAD 2000
 90
    32768
280
     0
281
     1
  0
CLASS
  1
XRECORD
  2
AcDbXrecord
  3
AutoCAD 2000
 90
    32768
280
     0
281
     0
  0
CLASS
  1
LONG_TRANSACTION
  2
AcDbLongTransaction
  3
AutoCAD 2000
 90
    32768
280
     0
281
     0
  0
CLASS
  1
LWPOLYLINE
  2
AcDbPolyline
  3
AutoCAD 2000
 90
    32768
280
     0
281
     1
  0
CLASS
  1
HATCH
  2
AcDbHatch
  3
AutoCAD 2000
 90
    32768
280
     0
281
     1
  0
CLASS
  1
XRECORD
  2
AcDbXrecord
  3
AutoCAD 2000
 90
    32768
280
     0
281
     0
  0
CLASS
  1
LONG_TRANSACTION
  2
AcDbLongTransaction
  3
AutoCAD 2000
 90
    32768
280
     0
281
     0
  0
CLASS
  1
LWPOLYLINE
  2
AcDbPolyline
  3
AutoCAD 2000
 90
    32768
280
     0
281
     1
  0
CLASS
  1
HATCH
  2
AcDbHatch
  3
AutoCAD 2000
 90
    32768
280
     0
281
     1
  0
CLASS
  1
XRECORD
  2
AcDbXrecord
  3
AutoCAD 2000
 90
    32768
280
     0
281
     0
  0
ENDSEC
  0
SECTION
  2
TABLES
  0
TABLE
  2
VPORT
  5
8
330
0
100
AcDbSymbolTable
 70
     2
  0
VPORT
  5
8BB5
330
8
100
AcDbSymbolTableRecord
100
AcDbViewportTableRecord
  2
*ACTIVE
 70
     0
 10
0.0
 20
0.0
 11
1.0
 21
1.0
 12
420.5
 22
297.0
 13
0.0
 23
0.0
 14
5.0
 24
5.0
 15
0.0
 25
0.0
 16
0.0
 26
0.0
 36
1.0
 17
0.0
 27
0.0
 37
0.0
 40
598.540127388535
 41
1.535714285714285
 42
50.0
 43
0.0
 44
0.0
 50
0.0
 51
0.0
 71
     0
 72
   100
 73
     1
 74
     0
 75
     0
 76
     0
 77
     0
 78
     0
  0
ENDTAB
  0
TABLE
  2
LTYPE
  5
5
330
0
100
AcDbSymbolTable
 70
     4
  0
LTYPE
  5
14
330
5
100
AcDbSymbolTableRecord
100
AcDbLinetypeTableRecord
  2
BYBLOCK
 70
     0
  3

 72
    65
 73
     0
 40
0.0
  0
LTYPE
  5
15
330
5
100
AcDbSymbolTableRecord
100
AcDbLinetypeTableRecord
  2
BYLAYER
 70
     0
  3

 72
    65
 73
     0
 40
0.0
  0
LTYPE
  5
16
330
5
100
AcDbSymbolTableRecord
100
AcDbLinetypeTableRecord
  2
CONTINUOUS
 70
     0
  3
Solid line
 72
    65
 73
     0
 40
0.0
  0
LTYPE
  5
120
330
5
100
AcDbSymbolTableRecord
100
AcDbLinetypeTableRecord
  2
CENTER
 70
     0
  3
____ _ ____ _ ____ _ ____ _ ____ _ ____ _ ____ 
 72
    65
 73
     4
 40
2.0
 49
1.25
 74
     0
 49
-0.25
 74
     0
 49
0.25
 74
     0
 49
-0.25
 74
     0
  0
LTYPE
  5
504D
330
5
100
AcDbSymbolTableRecord
100
AcDbLinetypeTableRecord
  2
PHANTOM
 70
     0
  3
______  __  __  ______  __  __  ______  __  __ 
 72
    65
 73
     6
 40
2.5
 49
1.25
 74
     0
 49
-0.25
 74
     0
 49
0.25
 74
     0
 49
-0.25
 74
     0
 49
0.25
 74
     0
 49
-0.25
 74
     0
  0
LTYPE
  5
504E
330
5
100
AcDbSymbolTableRecord
100
AcDbLinetypeTableRecord
  2
HIDDEN
 70
     0
  3
__ __ __ __ __ __ __ __ __ __ __ __ __ __ __ __
 72
    65
 73
     2
 40
0.375
 49
0.25
 74
     0
 49
-0.125
 74
     0
  0
ENDTAB
  0
TABLE
  2
LAYER
  5
2
102
{ACAD_XDICTIONARY
360
5E60
102
}
330
0
100
AcDbSymbolTable
 70
    10
  0
LAYER
  5
F
330
2
100
AcDbSymbolTableRecord
100
AcDbLayerTableRecord
  2
0
 70
     0
 62
     7
  6
CONTINUOUS
  0
LAYER
  5
62
330
2
100
AcDbSymbolTableRecord
100
AcDbLayerTableRecord
  2
VIEWPORT
 70
     0
 62
     7
  6
CONTINUOUS
  0
LAYER
  5
151
330
2
100
AcDbSymbolTableRecord
100
AcDbLayerTableRecord
  2
CENTER_L
 70
     0
 62
     1
  6
CENTER
  0
LAYER
  5
16E
330
2
100
AcDbSymbolTableRecord
100
AcDbLayerTableRecord
  2
DEFPOINTS
 70
     0
 62
     7
  6
CONTINUOUS
  0
LAYER
  5
1B8
330
2
100
AcDbSymbolTableRecord
100
AcDbLayerTableRecord
  2
ZUWAKU
 70
     0
 62
     7
  6
CONTINUOUS
  0
LAYER
  5
1B9
330
2
100
AcDbSymbolTableRecord
100
AcDbLayerTableRecord
  2
MOJI
 70
     0
 62
     2
  6
CONTINUOUS
  0
LAYER
  5
49D
330
2
100
AcDbSymbolTableRecord
100
AcDbLayerTableRecord
  2
SEIHIN
 70
     0
 62
     3
  6
CONTINUOUS
  0
LAYER
  5
2262
330
2
100
AcDbSymbolTableRecord
100
AcDbLayerTableRecord
  2
SUNPOU
 70
     0
 62
     4
  6
CONTINUOUS
  0
LAYER
  5
504F
330
2
100
AcDbSymbolTableRecord
100
AcDbLayerTableRecord
  2
彫刻
 70
     0
 62
     7
  6
CONTINUOUS
  0
LAYER
  5
606F
330
2
100
AcDbSymbolTableRecord
100
AcDbLayerTableRecord
  2
NOKITOI
 70
     0
 62
     7
  6
CONTINUOUS
  0
ENDTAB
  0
TABLE
  2
STYLE
  5
3
330
0
100
AcDbSymbolTable
 70
     3
  0
STYLE
  5
10
330
3
100
AcDbSymbolTableRecord
100
AcDbTextStyleTableRecord
  2
STANDARD
 70
     0
 40
0.0
 41
1.0
 50
0.0
 71
     0
 42
2.5
  3
TXT
  4
bigfont.shx
  0
STYLE
  5
1BA
330
3
100
AcDbSymbolTableRecord
100
AcDbTextStyleTableRecord
  2
MSPｺ_ｼｯｸ
 70
     0
 40
0.0
 41
1.0
 50
0.0
 71
     0
 42
2.5
  3
MS PGothic.ttf
  4

1001
ACAD
1000
MS PGothic
1071
    32818
  0
STYLE
  5
7DC7
330
3
100
AcDbSymbolTableRecord
100
AcDbTextStyleTableRecord
  2
ｽﾀｲﾙ1
 70
     0
 40
0.0
 41
1.0
 50
0.0
 71
     0
 42
2.5
  3
MS PGothic.ttf
  4

1001
ACAD
1000
MS PGothic
1071
    32818
  0
ENDTAB
  0
TABLE
  2
VIEW
  5
6
330
0
100
AcDbSymbolTable
 70
     0
  0
ENDTAB
  0
TABLE
  2
UCS
  5
7
330
0
100
AcDbSymbolTable
 70
     0
  0
ENDTAB
  0
TABLE
  2
APPID
  5
9
330
0
100
AcDbSymbolTable
 70
     1
  0
APPID
  5
11
330
9
100
AcDbSymbolTableRecord
100
AcDbRegAppTableRecord
  2
ACAD
 70
     0
  0
ENDTAB
  0
TABLE
  2
DIMSTYLE
  5
A
330
0
100
AcDbSymbolTable
 70
     1
  0
DIMSTYLE
105
1D
102
{ACAD_REACTORS
330
3BD2
330
4E42
330
52EA
330
52E9
330
539B
330
539A
330
5399
330
5398
330
53C0
330
5395
330
53BA
330
5AB4
330
5AD3
330
5B1B
330
5C26
330
6297
330
84B6
330
84C3
102
}
330
A
100
AcDbSymbolTableRecord
100
AcDbDimStyleTableRecord
  2
STANDARD
 70
     0
  3

  4

  5
OPEN
  6

  7

 40
1.0
 41
5.0
 42
1.5
 43
7.0
 44
1.5
 45
0.0
 46
0.0
 47
0.0
 48
0.0
140
6.0
141
0.0
142
0.0
143
25.4
144
1.0
145
0.0
146
1.0
147
1.5
 71
     0
 72
     0
 73
     0
 74
     0
 75
     0
 76
     0
 77
     3
 78
     0
170
     0
171
     2
172
     0
173
     0
174
     0
175
     0
176
   256
177
   256
178
   256
270
     2
271
     0
272
     0
273
     2
274
     2
340
10
275
     0
280
     0
281
     0
282
     0
283
     1
284
     0
285
     0
286
     0
287
     3
288
     0
  0
ENDTAB
  0
TABLE
  2
BLOCK_RECORD
  5
1
330
0
100
AcDbSymbolTable
 70
    23
  0
BLOCK_RECORD
  5
1A
102
{ACAD_XDICTIONARY
360
4EEB
102
}
330
1
100
AcDbSymbolTableRecord
100
AcDbBlockTableRecord
  2
*MODEL_SPACE
  0
BLOCK_RECORD
  5
17
102
{ACAD_XDICTIONARY
360
4EE9
102
}
330
1
100
AcDbSymbolTableRecord
100
AcDbBlockTableRecord
  2
*PAPER_SPACE
  0
BLOCK_RECORD
  5
3DB9
330
1
100
AcDbSymbolTableRecord
100
AcDbBlockTableRecord
  2
*D0
  0
BLOCK_RECORD
  5
4825
330
1
100
AcDbSymbolTableRecord
100
AcDbBlockTableRecord
  2
_OPEN
  0
BLOCK_RECORD
  5
4846
330
1
100
AcDbSymbolTableRecord
100
AcDbBlockTableRecord
  2
_DOTSMALL
  0
BLOCK_RECORD
  5
4E43
330
1
100
AcDbSymbolTableRecord
100
AcDbBlockTableRecord
  2
*D6
  0
BLOCK_RECORD
  5
52EB
330
1
100
AcDbSymbolTableRecord
100
AcDbBlockTableRecord
  2
*D7
  0
BLOCK_RECORD
  5
52F7
330
1
100
AcDbSymbolTableRecord
100
AcDbBlockTableRecord
  2
*D8
  0
BLOCK_RECORD
  5
53C9
330
1
100
AcDbSymbolTableRecord
100
AcDbBlockTableRecord
  2
*D9
  0
BLOCK_RECORD
  5
53D5
330
1
100
AcDbSymbolTableRecord
100
AcDbBlockTableRecord
  2
*D10
  0
BLOCK_RECORD
  5
53E1
330
1
100
AcDbSymbolTableRecord
100
AcDbBlockTableRecord
  2
*D11
  0
BLOCK_RECORD
  5
53ED
330
1
100
AcDbSymbolTableRecord
100
AcDbBlockTableRecord
  2
*D12
  0
BLOCK_RECORD
  5
53F9
330
1
100
AcDbSymbolTableRecord
100
AcDbBlockTableRecord
  2
*D13
  0
BLOCK_RECORD
  5
5407
330
1
100
AcDbSymbolTableRecord
100
AcDbBlockTableRecord
  2
*D14
  0
BLOCK_RECORD
  5
5415
330
1
100
AcDbSymbolTableRecord
100
AcDbBlockTableRecord
  2
*D15
  0
BLOCK_RECORD
  5
5AB5
330
1
100
AcDbSymbolTableRecord
100
AcDbBlockTableRecord
  2
*D16
  0
BLOCK_RECORD
  5
5AD4
330
1
100
AcDbSymbolTableRecord
100
AcDbBlockTableRecord
  2
*D17
  0
BLOCK_RECORD
  5
5B1C
330
1
100
AcDbSymbolTableRecord
100
AcDbBlockTableRecord
  2
*D18
  0
BLOCK_RECORD
  5
5C27
330
1
100
AcDbSymbolTableRecord
100
AcDbBlockTableRecord
  2
*D19
  0
BLOCK_RECORD
  5
6298
330
1
100
AcDbSymbolTableRecord
100
AcDbBlockTableRecord
  2
*D20
  0
BLOCK_RECORD
  5
84B7
330
1
100
AcDbSymbolTableRecord
100
AcDbBlockTableRecord
  2
*D21
  0
BLOCK_RECORD
  5
84C4
330
1
100
AcDbSymbolTableRecord
100
AcDbBlockTableRecord
  2
*D22
  0
ENDTAB
  0
ENDSEC
  0
SECTION
  2
BLOCKS
  0
BLOCK
  5
1B
330
1A
100
AcDbEntity
  8
0
100
AcDbBlockBegin
  2
*MODEL_SPACE
 70
     0
 10
0.0
 20
0.0
 30
0.0
  3
*MODEL_SPACE
  1

  0
ENDBLK
  5
1C
330
1A
100
AcDbEntity
  8
0
100
AcDbBlockEnd
  0
BLOCK
  5
18
330
17
100
AcDbEntity
 67
     1
  8
0
100
AcDbBlockBegin
  2
*PAPER_SPACE
 70
     0
 10
0.0
 20
0.0
 30
0.0
  3
*PAPER_SPACE
  1

  0
ENDBLK
  5
19
330
17
100
AcDbEntity
 67
     1
  8
0
100
AcDbBlockEnd
  0
BLOCK
  5
3DC3
330
3DB9
100
AcDbEntity
  8
0
100
AcDbBlockBegin
  2
*D0
 70
     1
 10
0.0
 20
0.0
 30
0.0
  3
*D0
  1

  0
LINE
  5
7649
330
3DB9
100
AcDbEntity
  8
SUNPOU
100
AcDbLine
 10
550.312935745866
 20
166.1979729096102
 30
0.0
 11
632.6129357458662
 21
166.1979729096102
 31
0.0
  0
LINE
  5
764A
330
3DB9
100
AcDbEntity
  8
SUNPOU
100
AcDbLine
 10
610.1129357458662
 20
251.1979729095981
 30
0.0
 11
632.6129357458662
 21
251.1979729095981
 31
0.0
  0
LINE
  5
764B
330
3DB9
100
AcDbEntity
  8
SUNPOU
100
AcDbLine
 10
631.1129357458662
 20
171.1979729096102
 30
0.0
 11
631.1129357458662
 21
246.1979729095982
 31
0.0
  0
INSERT
  5
764C
330
3DB9
100
AcDbEntity
  8
SUNPOU
100
AcDbBlockReference
  2
_OPEN
 10
631.1129357458662
 20
166.1979729096102
 30
0.0
 41
5.0
 42
5.0
 43
5.0
 50
270.0
  0
INSERT
  5
764D
330
3DB9
100
AcDbEntity
  8
SUNPOU
100
AcDbBlockReference
  2
_OPEN
 10
631.1129357458662
 20
251.1979729095981
 30
0.0
 41
5.0
 42
5.0
 43
5.0
 50
90.0
  0
MTEXT
  5
764E
330
3DB9
100
AcDbEntity
  8
SUNPOU
100
AcDbMText
 10
626.6129357458662
 20
207.341520979976
 30
0.0
 40
6.0
 41
0.0
 71
     5
 72
     1
  1
\A1;85
 11
0.0000000000000001
 21
1.0
 31
0.0
1001
ACAD
1000
MTEXTBEGIN
1070
    73
1070
     1
1070
    44
1040
1.0
1070
    74
1070
     0
1000
MTEXTEND
1000
MTEXTBEGIN
1070
    73
1070
     1
1070
    44
1040
1.0
1070
    74
1070
     0
1000
MTEXTEND
  0
POINT
  5
764F
330
3DB9
100
AcDbEntity
  8
DEFPOINTS
 62
     0
100
AcDbPoint
 10
548.812935745866
 20
166.1979729096102
 30
0.0
  0
POINT
  5
7650
330
3DB9
100
AcDbEntity
  8
DEFPOINTS
 62
     0
100
AcDbPoint
 10
608.6129357458662
 20
251.1979729095981
 30
0.0
  0
POINT
  5
7651
330
3DB9
100
AcDbEntity
  8
DEFPOINTS
 62
     0
100
AcDbPoint
 10
631.1129357458662
 20
251.1979729095981
 30
0.0
  0
ENDBLK
  5
3DC4
330
3DB9
100
AcDbEntity
  8
0
100
AcDbBlockEnd
  0
BLOCK
  5
4829
330
4825
100
AcDbEntity
  8
0
100
AcDbBlockBegin
  2
_OPEN
 70
     0
 10
0.0
 20
0.0
 30
0.0
  3
_OPEN
  1

  0
LINE
  5
4826
330
4825
100
AcDbEntity
  8
SUNPOU
 62
     0
100
AcDbLine
 10
-1.0
 20
0.1666666666666666
 30
0.0
 11
0.0
 21
0.0
 31
0.0
  0
LINE
  5
4827
330
4825
100
AcDbEntity
  8
SUNPOU
 62
     0
100
AcDbLine
 10
-1.0
 20
-0.1666666666666666
 30
0.0
 11
0.0
 21
0.0
 31
0.0
  0
LINE
  5
4828
330
4825
100
AcDbEntity
  8
SUNPOU
 62
     0
100
AcDbLine
 10
0.0
 20
0.0
 30
0.0
 11
-1.0
 21
0.0
 31
0.0
  0
ENDBLK
  5
482A
330
4825
100
AcDbEntity
  8
0
100
AcDbBlockEnd
  0
BLOCK
  5
4848
330
4846
100
AcDbEntity
  8
0
100
AcDbBlockBegin
  2
_DOTSMALL
 70
     0
 10
0.0
 20
0.0
 30
0.0
  3
_DOTSMALL
  1

  0
POLYLINE
  5
4847
330
4846
100
AcDbEntity
  8
SUNPOU
 62
     0
100
AcDb2dPolyline
 66
     1
 10
0.0
 20
0.0
 30
0.0
 70
     1
 40
0.5
 41
0.5
  0
VERTEX
  5
8BB8
330
4847
100
AcDbEntity
  8
SUNPOU
 62
     0
100
AcDbVertex
100
AcDb2dVertex
 10
-0.0625
 20
0.0
 30
0.0
 42
1.0
  0
VERTEX
  5
8BB9
330
4847
100
AcDbEntity
  8
SUNPOU
 62
     0
100
AcDbVertex
100
AcDb2dVertex
 10
0.0625
 20
0.0
 30
0.0
 42
1.0
  0
SEQEND
  5
8BBA
330
4847
100
AcDbEntity
  8
SUNPOU
 62
     0
  0
ENDBLK
  5
4849
330
4846
100
AcDbEntity
  8
0
100
AcDbBlockEnd
  0
BLOCK
  5
4E4D
330
4E43
100
AcDbEntity
  8
0
100
AcDbBlockBegin
  2
*D6
 70
     1
 10
0.0
 20
0.0
 30
0.0
  3
*D6
  1

  0
LINE
  5
84D0
330
4E43
100
AcDbEntity
  8
SUNPOU
100
AcDbLine
 10
127.6892719955574
 20
289.2404222528026
 30
0.0
 11
127.6892719955574
 21
321.2447035257737
 31
0.0
  0
LINE
  5
84D1
330
4E43
100
AcDbEntity
  8
SUNPOU
100
AcDbLine
 10
357.6897530050389
 20
289.2404222528042
 30
0.0
 11
357.6897530050389
 21
321.2447035257737
 31
0.0
  0
LINE
  5
84D2
330
4E43
100
AcDbEntity
  8
SUNPOU
100
AcDbLine
 10
132.6892719955574
 20
319.7447035257737
 30
0.0
 11
352.6897530050389
 21
319.7447035257737
 31
0.0
  0
INSERT
  5
84D3
330
4E43
100
AcDbEntity
  8
SUNPOU
100
AcDbBlockReference
  2
_OPEN
 10
127.6892719955574
 20
319.7447035257737
 30
0.0
 41
5.0
 42
5.0
 43
5.0
 50
180.0
  0
INSERT
  5
84D4
330
4E43
100
AcDbEntity
  8
SUNPOU
100
AcDbBlockReference
  2
_OPEN
 10
357.6897530050389
 20
319.7447035257737
 30
0.0
 41
5.0
 42
5.0
 43
5.0
  0
MTEXT
  5
84D5
330
4E43
100
AcDbEntity
  8
SUNPOU
100
AcDbMText
 10
242.6895125002981
 20
324.2447035257737
 30
0.0
 40
6.0
 41
0.0
 71
     5
 72
     1
  1
\A1;230
1001
ACAD
1000
MTEXTBEGIN
1070
    73
1070
     1
1070
    44
1040
1.0
1070
    74
1070
     0
1000
MTEXTEND
1000
MTEXTBEGIN
1070
    73
1070
     1
1070
    44
1040
1.0
1070
    74
1070
     0
1000
MTEXTEND
  0
POINT
  5
84D6
330
4E43
100
AcDbEntity
  8
DEFPOINTS
 62
     0
100
AcDbPoint
 10
127.6892719955574
 20
287.7404222528026
 30
0.0
  0
POINT
  5
84D7
330
4E43
100
AcDbEntity
  8
DEFPOINTS
 62
     0
100
AcDbPoint
 10
357.6897530050389
 20
287.7404222528042
 30
0.0
  0
POINT
  5
84D8
330
4E43
100
AcDbEntity
  8
DEFPOINTS
 62
     0
100
AcDbPoint
 10
357.6897530050389
 20
319.7447035257737
 30
0.0
  0
ENDBLK
  5
4E4E
330
4E43
100
AcDbEntity
  8
0
100
AcDbBlockEnd
  0
BLOCK
  5
52F5
330
52EB
100
AcDbEntity
  8
0
100
AcDbBlockBegin
  2
*D7
 70
     1
 10
0.0
 20
0.0
 30
0.0
  3
*D7
  1

  0
LINE
  5
766E
330
52EB
100
AcDbEntity
  8
SUNPOU
100
AcDbLine
 10
285.1895125002986
 20
389.2375245679696
 30
0.0
 11
285.1895125002986
 21
350.4262599415857
 31
0.0
  0
LINE
  5
766F
330
52EB
100
AcDbEntity
  8
SUNPOU
100
AcDbLine
 10
357.6895125002986
 20
372.3400278679697
 30
0.0
 11
357.6895125002986
 21
350.4262599415857
 31
0.0
  0
LINE
  5
7670
330
52EB
100
AcDbEntity
  8
SUNPOU
100
AcDbLine
 10
292.1895125002986
 20
353.4262599415857
 30
0.0
 11
350.6895125002986
 21
353.4262599415857
 31
0.0
  0
INSERT
  5
7671
330
52EB
100
AcDbEntity
  8
SUNPOU
100
AcDbBlockReference
  2
_OPEN
 10
285.1895125002986
 20
353.4262599415857
 30
0.0
 41
7.0
 42
7.0
 43
7.0
 50
180.0
  0
INSERT
  5
7672
330
52EB
100
AcDbEntity
  8
SUNPOU
100
AcDbBlockReference
  2
_OPEN
 10
357.6895125002986
 20
353.4262599415857
 30
0.0
 41
7.0
 42
7.0
 43
7.0
  0
MTEXT
  5
7673
330
52EB
100
AcDbEntity
  8
SUNPOU
100
AcDbMText
 10
321.4395125002986
 20
358.4262599415857
 30
0.0
 40
6.0
 41
0.0
 71
     5
 72
     1
  1
\A1;※a72.5
1001
ACAD
1000
MTEXTBEGIN
1070
    73
1070
     1
1070
    44
1040
1.0
1070
    74
1070
     0
1000
MTEXTEND
1000
MTEXTBEGIN
1070
    73
1070
     1
1070
    44
1040
1.0
1070
    74
1070
     0
1000
MTEXTEND
  0
POINT
  5
7674
330
52EB
100
AcDbEntity
  8
DEFPOINTS
 62
     0
100
AcDbPoint
 10
285.1895125002986
 20
395.2375245679697
 30
0.0
  0
POINT
  5
7675
330
52EB
100
AcDbEntity
  8
DEFPOINTS
 62
     0
100
AcDbPoint
 10
357.6895125002986
 20
378.3400278679697
 30
0.0
  0
POINT
  5
7676
330
52EB
100
AcDbEntity
  8
DEFPOINTS
 62
     0
100
AcDbPoint
 10
357.6895125002986
 20
353.4262599415857
 30
0.0
  0
ENDBLK
  5
52F6
330
52EB
100
AcDbEntity
  8
0
100
AcDbBlockEnd
  0
BLOCK
  5
5301
330
52F7
100
AcDbEntity
  8
0
100
AcDbBlockBegin
  2
*D8
 70
     1
 10
0.0
 20
0.0
 30
0.0
  3
*D8
  1

  0
LINE
  5
7677
330
52F7
100
AcDbEntity
  8
SUNPOU
100
AcDbLine
 10
200.1895125002986
 20
389.2375245679696
 30
0.0
 11
200.1895125002986
 21
350.4262599415857
 31
0.0
  0
LINE
  5
7678
330
52F7
100
AcDbEntity
  8
SUNPOU
100
AcDbLine
 10
285.1895125002986
 20
389.2375245679696
 30
0.0
 11
285.1895125002986
 21
350.4262599415857
 31
0.0
  0
LINE
  5
7679
330
52F7
100
AcDbEntity
  8
SUNPOU
100
AcDbLine
 10
207.1895125002986
 20
353.4262599415857
 30
0.0
 11
278.1895125002986
 21
353.4262599415857
 31
0.0
  0
INSERT
  5
767A
330
52F7
100
AcDbEntity
  8
SUNPOU
100
AcDbBlockReference
  2
_OPEN
 10
200.1895125002986
 20
353.4262599415857
 30
0.0
 41
7.0
 42
7.0
 43
7.0
 50
180.0
  0
INSERT
  5
767B
330
52F7
100
AcDbEntity
  8
SUNPOU
100
AcDbBlockReference
  2
_OPEN
 10
285.1895125002986
 20
353.4262599415857
 30
0.0
 41
7.0
 42
7.0
 43
7.0
  0
MTEXT
  5
767C
330
52F7
100
AcDbEntity
  8
SUNPOU
100
AcDbMText
 10
242.6895125002986
 20
358.4262599415857
 30
0.0
 40
6.0
 41
0.0
 71
     5
 72
     1
  1
\A1;85
1001
ACAD
1000
MTEXTBEGIN
1070
    73
1070
     1
1070
    44
1040
1.0
1070
    74
1070
     0
1000
MTEXTEND
1000
MTEXTBEGIN
1070
    73
1070
     1
1070
    44
1040
1.0
1070
    74
1070
     0
1000
MTEXTEND
  0
POINT
  5
767D
330
52F7
100
AcDbEntity
  8
DEFPOINTS
 62
     0
100
AcDbPoint
 10
200.1895125002986
 20
395.2375245679697
 30
0.0
  0
POINT
  5
767E
330
52F7
100
AcDbEntity
  8
DEFPOINTS
 62
     0
100
AcDbPoint
 10
285.1895125002986
 20
395.2375245679697
 30
0.0
  0
POINT
  5
767F
330
52F7
100
AcDbEntity
  8
DEFPOINTS
 62
     0
100
AcDbPoint
 10
285.1895125002986
 20
353.4262599415857
 30
0.0
  0
ENDBLK
  5
5302
330
52F7
100
AcDbEntity
  8
0
100
AcDbBlockEnd
  0
BLOCK
  5
53D3
330
53C9
100
AcDbEntity
  8
0
100
AcDbBlockBegin
  2
*D9
 70
     1
 10
0.0
 20
0.0
 30
0.0
  3
*D9
  1

  0
LINE
  5
7680
330
53C9
100
AcDbEntity
  8
SUNPOU
100
AcDbLine
 10
584.7200942519121
 20
478.5628577650891
 30
0.0
 11
617.3210380478649
 21
478.5628577650891
 31
0.0
  0
LINE
  5
7681
330
53C9
100
AcDbEntity
  8
SUNPOU
100
AcDbLine
 10
584.7913413019
 20
461.5653990652581
 30
0.0
 11
617.3210380478649
 21
461.5653990652581
 31
0.0
  0
LINE
  5
7682
330
53C9
100
AcDbEntity
  8
SUNPOU
100
AcDbLine
 10
615.8210380478649
 20
475.5628577650891
 30
0.0
 11
615.8210380478649
 21
464.5653990652581
 31
0.0
  0
INSERT
  5
7683
330
53C9
100
AcDbEntity
  8
SUNPOU
100
AcDbBlockReference
  2
_OPEN
 10
615.8210380478649
 20
478.5628577650891
 30
0.0
 41
3.0
 42
3.0
 43
3.0
 50
90.0
  0
INSERT
  5
7684
330
53C9
100
AcDbEntity
  8
SUNPOU
100
AcDbBlockReference
  2
_OPEN
 10
615.8210380478649
 20
461.5653990652581
 30
0.0
 41
3.0
 42
3.0
 43
3.0
 50
270.0
  0
MTEXT
  5
7685
330
53C9
100
AcDbEntity
  8
SUNPOU
100
AcDbMText
 10
611.8210380478648
 20
470.0641284151736
 30
0.0
 40
6.0
 41
0.0
 71
     5
 72
     1
  1
\A1;17
 11
0.0000000000000001
 21
1.0
 31
0.0
1001
ACAD
1000
MTEXTBEGIN
1070
    73
1070
     1
1070
    44
1040
1.0
1070
    74
1070
     0
1000
MTEXTEND
1000
MTEXTBEGIN
1070
    73
1070
     1
1070
    44
1040
1.0
1070
    74
1070
     0
1000
MTEXTEND
  0
POINT
  5
7686
330
53C9
100
AcDbEntity
  8
DEFPOINTS
 62
     0
100
AcDbPoint
 10
581.7200942519121
 20
478.5628577650891
 30
0.0
  0
POINT
  5
7687
330
53C9
100
AcDbEntity
  8
DEFPOINTS
 62
     0
100
AcDbPoint
 10
581.7913413019
 20
461.5653990652581
 30
0.0
  0
POINT
  5
7688
330
53C9
100
AcDbEntity
  8
DEFPOINTS
 62
     0
100
AcDbPoint
 10
615.8210380478649
 20
461.5653990652581
 30
0.0
  0
ENDBLK
  5
53D4
330
53C9
100
AcDbEntity
  8
0
100
AcDbBlockEnd
  0
BLOCK
  5
53DF
330
53D5
100
AcDbEntity
  8
0
100
AcDbBlockBegin
  2
*D10
 70
     1
 10
0.0
 20
0.0
 30
0.0
  3
*D10
  1

  0
LINE
  5
7689
330
53D5
100
AcDbEntity
  8
SUNPOU
100
AcDbLine
 10
583.720094251912
 20
476.5628577650891
 30
0.0
 11
603.2755540817906
 21
476.5628577650891
 31
0.0
  0
LINE
  5
768A
330
53D5
100
AcDbEntity
  8
SUNPOU
100
AcDbLine
 10
584.7913413019
 20
461.5653990652581
 30
0.0
 11
603.2755540817906
 21
461.5653990652581
 31
0.0
  0
LINE
  5
768B
330
53D5
100
AcDbEntity
  8
SUNPOU
100
AcDbLine
 10
601.7755540817907
 20
473.5628577650891
 30
0.0
 11
601.7755540817907
 21
464.5653990652581
 31
0.0
  0
INSERT
  5
768C
330
53D5
100
AcDbEntity
  8
SUNPOU
100
AcDbBlockReference
  2
_OPEN
 10
601.7755540817907
 20
476.5628577650891
 30
0.0
 41
3.0
 42
3.0
 43
3.0
 50
90.0
  0
INSERT
  5
768D
330
53D5
100
AcDbEntity
  8
SUNPOU
100
AcDbBlockReference
  2
_OPEN
 10
601.7755540817907
 20
461.5653990652581
 30
0.0
 41
3.0
 42
3.0
 43
3.0
 50
270.0
  0
MTEXT
  5
768E
330
53D5
100
AcDbEntity
  8
SUNPOU
100
AcDbMText
 10
597.7755540817906
 20
469.0641284151737
 30
0.0
 40
6.0
 41
0.0
 71
     5
 72
     1
  1
\A1;15
 11
0.0000000000000001
 21
1.0
 31
0.0
1001
ACAD
1000
MTEXTBEGIN
1070
    73
1070
     1
1070
    44
1040
1.0
1070
    74
1070
     0
1000
MTEXTEND
1000
MTEXTBEGIN
1070
    73
1070
     1
1070
    44
1040
1.0
1070
    74
1070
     0
1000
MTEXTEND
  0
POINT
  5
768F
330
53D5
100
AcDbEntity
  8
DEFPOINTS
 62
     0
100
AcDbPoint
 10
580.7200942519121
 20
476.5628577650891
 30
0.0
  0
POINT
  5
7690
330
53D5
100
AcDbEntity
  8
DEFPOINTS
 62
     0
100
AcDbPoint
 10
581.7913413019
 20
461.5653990652581
 30
0.0
  0
POINT
  5
7691
330
53D5
100
AcDbEntity
  8
DEFPOINTS
 62
     0
100
AcDbPoint
 10
601.7755540817907
 20
461.5653990652581
 30
0.0
  0
ENDBLK
  5
53E0
330
53D5
100
AcDbEntity
  8
0
100
AcDbBlockEnd
  0
BLOCK
  5
53EB
330
53E1
100
AcDbEntity
  8
0
100
AcDbBlockBegin
  2
*D11
 70
     1
 10
0.0
 20
0.0
 30
0.0
  3
*D11
  1

  0
LINE
  5
7692
330
53E1
100
AcDbEntity
  8
SUNPOU
100
AcDbLine
 10
529.7199942519118
 20
483.5627577650889
 30
0.0
 11
529.7199942519118
 21
499.0935518484016
 31
0.0
  0
LINE
  5
7693
330
53E1
100
AcDbEntity
  8
SUNPOU
100
AcDbLine
 10
582.720094251912
 20
483.5628577650891
 30
0.0
 11
582.720094251912
 21
499.0935518484016
 31
0.0
  0
LINE
  5
7694
330
53E1
100
AcDbEntity
  8
SUNPOU
100
AcDbLine
 10
536.7199942519119
 20
496.0935518484015
 30
0.0
 11
575.720094251912
 21
496.0935518484015
 31
0.0
  0
INSERT
  5
7695
330
53E1
100
AcDbEntity
  8
SUNPOU
100
AcDbBlockReference
  2
_OPEN
 10
529.7199942519118
 20
496.0935518484015
 30
0.0
 41
7.0
 42
7.0
 43
7.0
 50
180.0
  0
INSERT
  5
7696
330
53E1
100
AcDbEntity
  8
SUNPOU
100
AcDbBlockReference
  2
_OPEN
 10
582.720094251912
 20
496.0935518484015
 30
0.0
 41
7.0
 42
7.0
 43
7.0
  0
MTEXT
  5
7697
330
53E1
100
AcDbEntity
  8
SUNPOU
100
AcDbMText
 10
556.2200442519119
 20
501.0935518484016
 30
0.0
 40
6.0
 41
0.0
 71
     5
 72
     1
  1
\A1;53
1001
ACAD
1000
MTEXTBEGIN
1070
    73
1070
     1
1070
    44
1040
1.0
1070
    74
1070
     0
1000
MTEXTEND
1000
MTEXTBEGIN
1070
    73
1070
     1
1070
    44
1040
1.0
1070
    74
1070
     0
1000
MTEXTEND
  0
POINT
  5
7698
330
53E1
100
AcDbEntity
  8
DEFPOINTS
 62
     0
100
AcDbPoint
 10
529.7199942519118
 20
477.5627577650888
 30
0.0
  0
POINT
  5
7699
330
53E1
100
AcDbEntity
  8
DEFPOINTS
 62
     0
100
AcDbPoint
 10
582.720094251912
 20
477.562857765089
 30
0.0
  0
POINT
  5
769A
330
53E1
100
AcDbEntity
  8
DEFPOINTS
 62
     0
100
AcDbPoint
 10
582.720094251912
 20
496.0935518484015
 30
0.0
  0
ENDBLK
  5
53EC
330
53E1
100
AcDbEntity
  8
0
100
AcDbBlockEnd
  0
BLOCK
  5
53F7
330
53ED
100
AcDbEntity
  8
0
100
AcDbBlockBegin
  2
*D12
 70
     1
 10
0.0
 20
0.0
 30
0.0
  3
*D12
  1

  0
LINE
  5
769B
330
53ED
100
AcDbEntity
  8
SUNPOU
100
AcDbLine
 10
650.4852895449039
 20
481.0628577650891
 30
0.0
 11
650.4852895449039
 21
497.0935518484016
 31
0.0
  0
LINE
  5
769C
330
53ED
100
AcDbEntity
  8
SUNPOU
100
AcDbLine
 10
659.914183544904
 20
481.0628577650891
 30
0.0
 11
659.914183544904
 21
497.0935518484016
 31
0.0
  0
LINE
  5
769D
330
53ED
100
AcDbEntity
  8
SUNPOU
100
AcDbLine
 10
653.4852895449039
 20
495.5935518484015
 30
0.0
 11
656.914183544904
 21
495.5935518484015
 31
0.0
  0
INSERT
  5
769E
330
53ED
100
AcDbEntity
  8
SUNPOU
100
AcDbBlockReference
  2
_OPEN
 10
650.4852895449039
 20
495.5935518484015
 30
0.0
 41
3.0
 42
3.0
 43
3.0
 50
180.0
  0
INSERT
  5
769F
330
53ED
100
AcDbEntity
  8
SUNPOU
100
AcDbBlockReference
  2
_OPEN
 10
659.914183544904
 20
495.5935518484015
 30
0.0
 41
3.0
 42
3.0
 43
3.0
  0
MTEXT
  5
76A0
330
53ED
100
AcDbEntity
  8
SUNPOU
100
AcDbMText
 10
655.1997365449039
 20
499.5935518484015
 30
0.0
 40
6.0
 41
0.0
 71
     5
 72
     1
  1
\A1;9
1001
ACAD
1000
MTEXTBEGIN
1070
    73
1070
     1
1070
    44
1040
1.0
1070
    74
1070
     0
1000
MTEXTEND
1000
MTEXTBEGIN
1070
    73
1070
     1
1070
    44
1040
1.0
1070
    74
1070
     0
1000
MTEXTEND
  0
POINT
  5
76A1
330
53ED
100
AcDbEntity
  8
DEFPOINTS
 62
     0
100
AcDbPoint
 10
650.4852895449039
 20
478.0628577650891
 30
0.0
  0
POINT
  5
76A2
330
53ED
100
AcDbEntity
  8
DEFPOINTS
 62
     0
100
AcDbPoint
 10
659.914183544904
 20
478.0628577650891
 30
0.0
  0
POINT
  5
76A3
330
53ED
100
AcDbEntity
  8
DEFPOINTS
 62
     0
100
AcDbPoint
 10
659.914183544904
 20
495.5935518484015
 30
0.0
  0
ENDBLK
  5
53F8
330
53ED
100
AcDbEntity
  8
0
100
AcDbBlockEnd
  0
BLOCK
  5
5405
330
53F9
100
AcDbEntity
  8
0
100
AcDbBlockBegin
  2
*D13
 70
     1
 10
0.0
 20
0.0
 30
0.0
  3
*D13
  1

  0
LINE
  5
76A4
330
53F9
100
AcDbEntity
  8
SUNPOU
100
AcDbLine
 10
658.7143895449043
 20
474.5628577650891
 30
0.0
 11
680.5859239450319
 21
474.5628577650891
 31
0.0
  0
LINE
  5
76A5
330
53F9
100
AcDbEntity
  8
SUNPOU
100
AcDbLine
 10
661.9852895449039
 20
469.5628577650891
 30
0.0
 11
680.5859239450319
 21
469.5628577650891
 31
0.0
  0
LINE
  5
76A6
330
53F9
100
AcDbEntity
  8
SUNPOU
100
AcDbLine
 10
679.0859239450319
 20
477.562857765089
 30
0.0
 11
679.0859239450319
 21
480.5628577650891
 31
0.0
  0
LINE
  5
76A7
330
53F9
100
AcDbEntity
  8
SUNPOU
100
AcDbLine
 10
679.0859239450319
 20
466.5628577650891
 30
0.0
 11
679.0859239450319
 21
450.7628577650891
 31
0.0
  0
LINE
  5
76A8
330
53F9
100
AcDbEntity
  8
SUNPOU
100
AcDbLine
 10
679.0859239450319
 20
474.5628577650891
 30
0.0
 11
679.0859239450319
 21
469.5628577650891
 31
0.0
  0
INSERT
  5
76A9
330
53F9
100
AcDbEntity
  8
SUNPOU
100
AcDbBlockReference
  2
_OPEN
 10
679.0859239450319
 20
474.5628577650891
 30
0.0
 41
3.0
 42
3.0
 43
3.0
 50
270.0
  0
INSERT
  5
76AA
330
53F9
100
AcDbEntity
  8
SUNPOU
100
AcDbBlockReference
  2
_OPEN
 10
679.0859239450319
 20
469.5628577650891
 30
0.0
 41
3.0
 42
3.0
 43
3.0
 50
90.0
  0
MTEXT
  5
76AB
330
53F9
100
AcDbEntity
  8
SUNPOU
100
AcDbMText
 10
675.0859239450318
 20
457.1628577650892
 30
0.0
 40
6.0
 41
0.0
 71
     5
 72
     1
  1
\A1;※5
 11
0.0000000000000001
 21
1.0
 31
0.0
1001
ACAD
1000
MTEXTBEGIN
1070
    73
1070
     1
1070
    44
1040
1.0
1070
    74
1070
     0
1000
MTEXTEND
1000
MTEXTBEGIN
1070
    73
1070
     1
1070
    44
1040
1.0
1070
    74
1070
     0
1000
MTEXTEND
  0
POINT
  5
76AC
330
53F9
100
AcDbEntity
  8
DEFPOINTS
 62
     0
100
AcDbPoint
 10
655.7143895449044
 20
474.5628577650891
 30
0.0
  0
POINT
  5
76AD
330
53F9
100
AcDbEntity
  8
DEFPOINTS
 62
     0
100
AcDbPoint
 10
658.9852895449039
 20
469.5628577650891
 30
0.0
  0
POINT
  5
76AE
330
53F9
100
AcDbEntity
  8
DEFPOINTS
 62
     0
100
AcDbPoint
 10
679.0859239450319
 20
469.5628577650891
 30
0.0
  0
ENDBLK
  5
5406
330
53F9
100
AcDbEntity
  8
0
100
AcDbBlockEnd
  0
BLOCK
  5
5413
330
5407
100
AcDbEntity
  8
0
100
AcDbBlockBegin
  2
*D14
 70
     1
 10
0.0
 20
0.0
 30
0.0
  3
*D14
  1

  0
LINE
  5
76AF
330
5407
100
AcDbEntity
  8
SUNPOU
100
AcDbLine
 10
654.4852895449039
 20
458.5628577650891
 30
0.0
 11
654.4852895449039
 21
444.567490401369
 31
0.0
  0
LINE
  5
76B0
330
5407
100
AcDbEntity
  8
SUNPOU
100
AcDbLine
 10
656.2134895449044
 20
471.0927577650891
 30
0.0
 11
656.2134895449044
 21
444.567490401369
 31
0.0
  0
LINE
  5
76B1
330
5407
100
AcDbEntity
  8
SUNPOU
100
AcDbLine
 10
651.4852895449039
 20
446.067490401369
 30
0.0
 11
648.4852895449039
 21
446.067490401369
 31
0.0
  0
LINE
  5
76B2
330
5407
100
AcDbEntity
  8
SUNPOU
100
AcDbLine
 10
659.2134895449044
 20
446.067490401369
 30
0.0
 11
668.2134895449044
 21
446.067490401369
 31
0.0
  0
LINE
  5
76B3
330
5407
100
AcDbEntity
  8
SUNPOU
100
AcDbLine
 10
654.4852895449039
 20
446.067490401369
 30
0.0
 11
656.2134895449044
 21
446.067490401369
 31
0.0
  0
INSERT
  5
76B4
330
5407
100
AcDbEntity
  8
SUNPOU
100
AcDbBlockReference
  2
_OPEN
 10
654.4852895449039
 20
446.067490401369
 30
0.0
 41
3.0
 42
3.0
 43
3.0
  0
INSERT
  5
76B5
330
5407
100
AcDbEntity
  8
SUNPOU
100
AcDbBlockReference
  2
_OPEN
 10
656.2134895449044
 20
446.067490401369
 30
0.0
 41
3.0
 42
3.0
 43
3.0
 50
180.0
  0
MTEXT
  5
76B6
330
5407
100
AcDbEntity
  8
SUNPOU
100
AcDbMText
 10
665.2134895449044
 20
450.067490401369
 30
0.0
 40
6.0
 41
0.0
 71
     5
 72
     1
  1
\A1;2
1001
ACAD
1000
MTEXTBEGIN
1070
    73
1070
     1
1070
    44
1040
1.0
1070
    74
1070
     0
1000
MTEXTEND
1000
MTEXTBEGIN
1070
    73
1070
     1
1070
    44
1040
1.0
1070
    74
1070
     0
1000
MTEXTEND
  0
POINT
  5
76B7
330
5407
100
AcDbEntity
  8
DEFPOINTS
 62
     0
100
AcDbPoint
 10
654.4852895449039
 20
461.5628577650891
 30
0.0
  0
POINT
  5
76B8
330
5407
100
AcDbEntity
  8
DEFPOINTS
 62
     0
100
AcDbPoint
 10
656.2134895449044
 20
474.0927577650891
 30
0.0
  0
POINT
  5
76B9
330
5407
100
AcDbEntity
  8
DEFPOINTS
 62
     0
100
AcDbPoint
 10
656.2134895449044
 20
446.067490401369
 30
0.0
  0
ENDBLK
  5
5414
330
5407
100
AcDbEntity
  8
0
100
AcDbBlockEnd
  0
BLOCK
  5
541F
330
5415
100
AcDbEntity
  8
0
100
AcDbBlockBegin
  2
*D15
 70
     1
 10
0.0
 20
0.0
 30
0.0
  3
*D15
  1

  0
LINE
  5
76BA
330
5415
100
AcDbEntity
  8
SUNPOU
100
AcDbLine
 10
651.631736154311
 20
474.4164111556822
 30
0.0
 11
634.5982452495786
 21
474.4164111556822
 31
0.0
  0
LINE
  5
76BB
330
5415
100
AcDbEntity
  8
SUNPOU
100
AcDbLine
 10
651.4852895449039
 20
461.5628577650891
 30
0.0
 11
634.5982452495786
 21
461.5628577650891
 31
0.0
  0
LINE
  5
76BC
330
5415
100
AcDbEntity
  8
SUNPOU
100
AcDbLine
 10
636.0982452495786
 20
471.4164111556822
 30
0.0
 11
636.0982452495786
 21
464.5628577650891
 31
0.0
  0
INSERT
  5
76BD
330
5415
100
AcDbEntity
  8
SUNPOU
100
AcDbBlockReference
  2
_OPEN
 10
636.0982452495786
 20
474.4164111556822
 30
0.0
 41
3.0
 42
3.0
 43
3.0
 50
90.0
  0
INSERT
  5
76BE
330
5415
100
AcDbEntity
  8
SUNPOU
100
AcDbBlockReference
  2
_OPEN
 10
636.0982452495786
 20
461.5628577650891
 30
0.0
 41
3.0
 42
3.0
 43
3.0
 50
270.0
  0
MTEXT
  5
76BF
330
5415
100
AcDbEntity
  8
SUNPOU
100
AcDbMText
 10
632.0982452495785
 20
467.9896344603857
 30
0.0
 40
6.0
 41
0.0
 71
     5
 72
     1
  1
\A1;13
 11
0.0000000000000001
 21
1.0
 31
0.0
1001
ACAD
1000
MTEXTBEGIN
1070
    73
1070
     1
1070
    44
1040
1.0
1070
    74
1070
     0
1000
MTEXTEND
1000
MTEXTBEGIN
1070
    73
1070
     1
1070
    44
1040
1.0
1070
    74
1070
     0
1000
MTEXTEND
  0
POINT
  5
76C0
330
5415
100
AcDbEntity
  8
DEFPOINTS
 62
     0
100
AcDbPoint
 10
654.631736154311
 20
474.4164111556822
 30
0.0
  0
POINT
  5
76C1
330
5415
100
AcDbEntity
  8
DEFPOINTS
 62
     0
100
AcDbPoint
 10
654.4852895449039
 20
461.5628577650891
 30
0.0
  0
POINT
  5
76C2
330
5415
100
AcDbEntity
  8
DEFPOINTS
 62
     0
100
AcDbPoint
 10
636.0982452495786
 20
461.5628577650891
 30
0.0
  0
ENDBLK
  5
5420
330
5415
100
AcDbEntity
  8
0
100
AcDbBlockEnd
  0
BLOCK
  5
5ABF
330
5AB5
100
AcDbEntity
  8
0
100
AcDbBlockBegin
  2
*D16
 70
     1
 10
0.0
 20
0.0
 30
0.0
  3
*D16
  1

  0
LINE
  5
76C3
330
5AB5
100
AcDbEntity
  8
SUNPOU
100
AcDbLine
 10
359.1897530050389
 20
287.7404222528042
 30
0.0
 11
399.8046541480289
 21
287.7404222528042
 31
0.0
  0
LINE
  5
76C4
330
5AB5
100
AcDbEntity
  8
SUNPOU
100
AcDbLine
 10
268.5421300621176
 20
99.99797290959897
 30
0.0
 11
399.8046541480288
 21
99.99797290959891
 31
0.0
  0
LINE
  5
76C5
330
5AB5
100
AcDbEntity
  8
SUNPOU
100
AcDbLine
 10
398.3046541480289
 20
282.7404222528041
 30
0.0
 11
398.3046541480288
 21
104.9979729095989
 31
0.0
  0
INSERT
  5
76C6
330
5AB5
100
AcDbEntity
  8
SUNPOU
100
AcDbBlockReference
  2
_OPEN
 10
398.3046541480289
 20
287.7404222528042
 30
0.0
 41
5.0
 42
5.0
 43
5.0
 50
90.0
  0
INSERT
  5
76C7
330
5AB5
100
AcDbEntity
  8
SUNPOU
100
AcDbBlockReference
  2
_OPEN
 10
398.3046541480288
 20
99.99797290959891
 30
0.0
 41
5.0
 42
5.0
 43
5.0
 50
270.0
  0
MTEXT
  5
76C8
330
5AB5
100
AcDbEntity
  8
SUNPOU
100
AcDbMText
 10
393.8046541480288
 20
193.8691975812016
 30
0.0
 40
6.0
 41
0.0
 71
     5
 72
     1
  1
\A1;188
 11
0.0000000000000001
 21
1.0
 31
0.0
1001
ACAD
1000
MTEXTBEGIN
1070
    73
1070
     1
1070
    44
1040
1.0
1070
    74
1070
     0
1000
MTEXTEND
1000
MTEXTBEGIN
1070
    73
1070
     1
1070
    44
1040
1.0
1070
    74
1070
     0
1000
MTEXTEND
  0
POINT
  5
76C9
330
5AB5
100
AcDbEntity
  8
DEFPOINTS
 62
     0
100
AcDbPoint
 10
357.6897530050389
 20
287.7404222528042
 30
0.0
  0
POINT
  5
76CA
330
5AB5
100
AcDbEntity
  8
DEFPOINTS
 62
     0
100
AcDbPoint
 10
267.0421300621176
 20
99.99797290959897
 30
0.0
  0
POINT
  5
76CB
330
5AB5
100
AcDbEntity
  8
DEFPOINTS
 62
     0
100
AcDbPoint
 10
398.3046541480288
 20
99.99797290959891
 30
0.0
  0
ENDBLK
  5
5AC0
330
5AB5
100
AcDbEntity
  8
0
100
AcDbBlockEnd
  0
BLOCK
  5
5ADE
330
5AD4
100
AcDbEntity
  8
0
100
AcDbBlockBegin
  2
*D17
 70
     1
 10
0.0
 20
0.0
 30
0.0
  3
*D17
  1

  0
LINE
  5
76CC
330
5AD4
100
AcDbEntity
  8
SUNPOU
100
AcDbLine
 10
547.3129357458661
 20
166.1979729096102
 30
0.0
 11
448.6024718535777
 21
166.1979729096102
 31
0.0
  0
LINE
  5
76CD
330
5AD4
100
AcDbEntity
  8
SUNPOU
100
AcDbLine
 10
511.054390130671
 20
143.6979729095979
 30
0.0
 11
448.6024718535777
 21
143.6979729095979
 31
0.0
  0
LINE
  5
76CE
330
5AD4
100
AcDbEntity
  8
SUNPOU
100
AcDbLine
 10
450.1024718535778
 20
161.1979729096102
 30
0.0
 11
450.1024718535778
 21
148.6979729095979
 31
0.0
  0
INSERT
  5
76CF
330
5AD4
100
AcDbEntity
  8
SUNPOU
100
AcDbBlockReference
  2
_OPEN
 10
450.1024718535778
 20
166.1979729096102
 30
0.0
 41
5.0
 42
5.0
 43
5.0
 50
90.0
  0
INSERT
  5
76D0
330
5AD4
100
AcDbEntity
  8
SUNPOU
100
AcDbBlockReference
  2
_OPEN
 10
450.1024718535778
 20
143.6979729095979
 30
0.0
 41
5.0
 42
5.0
 43
5.0
 50
270.0
  0
MTEXT
  5
76D1
330
5AD4
100
AcDbEntity
  8
SUNPOU
100
AcDbMText
 10
445.6024718535777
 20
154.9479729096042
 30
0.0
 40
6.0
 41
0.0
 71
     5
 72
     1
  1
\A1;23
 11
0.0000000000000001
 21
1.0
 31
0.0
1001
ACAD
1000
MTEXTBEGIN
1070
    73
1070
     1
1070
    44
1040
1.0
1070
    74
1070
     0
1000
MTEXTEND
1000
MTEXTBEGIN
1070
    73
1070
     1
1070
    44
1040
1.0
1070
    74
1070
     0
1000
MTEXTEND
  0
POINT
  5
76D2
330
5AD4
100
AcDbEntity
  8
DEFPOINTS
 62
     0
100
AcDbPoint
 10
548.812935745866
 20
166.1979729096102
 30
0.0
  0
POINT
  5
76D3
330
5AD4
100
AcDbEntity
  8
DEFPOINTS
 62
     0
100
AcDbPoint
 10
512.5543901306709
 20
143.6979729095979
 30
0.0
  0
POINT
  5
76D4
330
5AD4
100
AcDbEntity
  8
DEFPOINTS
 62
     0
100
AcDbPoint
 10
450.1024718535778
 20
143.6979729095979
 30
0.0
  0
ENDBLK
  5
5ADF
330
5AD4
100
AcDbEntity
  8
0
100
AcDbBlockEnd
  0
BLOCK
  5
5B26
330
5B1C
100
AcDbEntity
  8
0
100
AcDbBlockBegin
  2
*D18
 70
     1
 10
0.0
 20
0.0
 30
0.0
  3
*D18
  1

  0
LINE
  5
76D5
330
5B1C
100
AcDbEntity
  8
SUNPOU
100
AcDbLine
 10
562.0129357458665
 20
173.1499241968914
 30
0.0
 11
562.0129357458665
 21
213.1301360794107
 31
0.0
  0
LINE
  5
76D6
330
5B1C
100
AcDbEntity
  8
SUNPOU
100
AcDbLine
 10
548.8129357458663
 20
178.321848850068
 30
0.0
 11
548.8129357458663
 21
213.1301360794107
 31
0.0
  0
LINE
  5
76D7
330
5B1C
100
AcDbEntity
  8
SUNPOU
100
AcDbLine
 10
557.0129357458665
 20
211.6301360794107
 30
0.0
 11
553.8129357458663
 21
211.6301360794107
 31
0.0
  0
INSERT
  5
76D8
330
5B1C
100
AcDbEntity
  8
SUNPOU
100
AcDbBlockReference
  2
_OPEN
 10
562.0129357458665
 20
211.6301360794107
 30
0.0
 41
5.0
 42
5.0
 43
5.0
  0
INSERT
  5
76D9
330
5B1C
100
AcDbEntity
  8
SUNPOU
100
AcDbBlockReference
  2
_OPEN
 10
548.8129357458663
 20
211.6301360794107
 30
0.0
 41
5.0
 42
5.0
 43
5.0
 50
180.0
  0
MTEXT
  5
76DA
330
5B1C
100
AcDbEntity
  8
SUNPOU
100
AcDbMText
 10
555.4129357458664
 20
216.1301360794106
 30
0.0
 40
6.0
 41
0.0
 71
     5
 72
     1
  1
\A1;13
1001
ACAD
1000
MTEXTBEGIN
1070
    73
1070
     1
1070
    44
1040
1.0
1070
    74
1070
     0
1000
MTEXTEND
1000
MTEXTBEGIN
1070
    73
1070
     1
1070
    44
1040
1.0
1070
    74
1070
     0
1000
MTEXTEND
  0
POINT
  5
76DB
330
5B1C
100
AcDbEntity
  8
DEFPOINTS
 62
     0
100
AcDbPoint
 10
562.0129357458665
 20
171.6499241968914
 30
0.0
  0
POINT
  5
76DC
330
5B1C
100
AcDbEntity
  8
DEFPOINTS
 62
     0
100
AcDbPoint
 10
548.8129357458663
 20
176.821848850068
 30
0.0
  0
POINT
  5
76DD
330
5B1C
100
AcDbEntity
  8
DEFPOINTS
 62
     0
100
AcDbPoint
 10
548.8129357458663
 20
211.6301360794107
 30
0.0
  0
ENDBLK
  5
5B27
330
5B1C
100
AcDbEntity
  8
0
100
AcDbBlockEnd
  0
BLOCK
  5
5C31
330
5C27
100
AcDbEntity
  8
0
100
AcDbBlockBegin
  2
*D19
 70
     1
 10
0.0
 20
0.0
 30
0.0
  3
*D19
  1

  0
LINE
  5
76DE
330
5C27
100
AcDbEntity
  8
SUNPOU
100
AcDbLine
 10
479.707639654975
 20
287.7045006507829
 30
0.0
 11
433.5030658986079
 21
287.7045006507829
 31
0.0
  0
LINE
  5
76DF
330
5C27
100
AcDbEntity
  8
SUNPOU
100
AcDbLine
 10
532.8129357458665
 20
99.99797290959817
 30
0.0
 11
433.5030658986078
 21
99.99797290959818
 31
0.0
  0
LINE
  5
76E0
330
5C27
100
AcDbEntity
  8
SUNPOU
100
AcDbLine
 10
435.0030658986079
 20
282.7045006507829
 30
0.0
 11
435.0030658986078
 21
104.9979729095981
 31
0.0
  0
INSERT
  5
76E1
330
5C27
100
AcDbEntity
  8
SUNPOU
100
AcDbBlockReference
  2
_OPEN
 10
435.0030658986079
 20
287.7045006507829
 30
0.0
 41
5.0
 42
5.0
 43
5.0
 50
90.0
  0
INSERT
  5
76E2
330
5C27
100
AcDbEntity
  8
SUNPOU
100
AcDbBlockReference
  2
_OPEN
 10
435.0030658986078
 20
99.99797290959818
 30
0.0
 41
5.0
 42
5.0
 43
5.0
 50
270.0
  0
MTEXT
  5
76E3
330
5C27
100
AcDbEntity
  8
SUNPOU
100
AcDbMText
 10
430.5030658986078
 20
193.8512367801906
 30
0.0
 40
6.0
 41
0.0
 71
     5
 72
     1
  1
\A1;188
 11
0.0000000000000001
 21
1.0
 31
0.0
1001
ACAD
1000
MTEXTBEGIN
1070
    73
1070
     1
1070
    44
1040
1.0
1070
    74
1070
     0
1000
MTEXTEND
1000
MTEXTBEGIN
1070
    73
1070
     1
1070
    44
1040
1.0
1070
    74
1070
     0
1000
MTEXTEND
  0
POINT
  5
76E4
330
5C27
100
AcDbEntity
  8
DEFPOINTS
 62
     0
100
AcDbPoint
 10
481.207639654975
 20
287.7045006507829
 30
0.0
  0
POINT
  5
76E5
330
5C27
100
AcDbEntity
  8
DEFPOINTS
 62
     0
100
AcDbPoint
 10
534.3129357458665
 20
99.99797290959817
 30
0.0
  0
POINT
  5
76E6
330
5C27
100
AcDbEntity
  8
DEFPOINTS
 62
     0
100
AcDbPoint
 10
435.0030658986078
 20
99.99797290959818
 30
0.0
  0
ENDBLK
  5
5C32
330
5C27
100
AcDbEntity
  8
0
100
AcDbBlockEnd
  0
BLOCK
  5
62A2
330
6298
100
AcDbEntity
  8
0
100
AcDbBlockBegin
  2
*D20
 70
     1
 10
0.0
 20
0.0
 30
0.0
  3
*D20
  1

  0
LINE
  5
76E7
330
6298
100
AcDbEntity
  8
SUNPOU
100
AcDbLine
 10
547.3129357458661
 20
166.1979729096102
 30
0.0
 11
448.6024718535777
 21
166.1979729096102
 31
0.0
  0
LINE
  5
76E8
330
6298
100
AcDbEntity
  8
SUNPOU
100
AcDbLine
 10
479.707639654975
 20
287.7045006507829
 30
0.0
 11
448.6024718535777
 21
287.7045006507829
 31
0.0
  0
LINE
  5
76E9
330
6298
100
AcDbEntity
  8
SUNPOU
100
AcDbLine
 10
450.1024718535778
 20
171.1979729096102
 30
0.0
 11
450.1024718535778
 21
282.7045006507829
 31
0.0
  0
INSERT
  5
76EA
330
6298
100
AcDbEntity
  8
SUNPOU
100
AcDbBlockReference
  2
_OPEN
 10
450.1024718535778
 20
166.1979729096102
 30
0.0
 41
5.0
 42
5.0
 43
5.0
 50
270.0
  0
INSERT
  5
76EB
330
6298
100
AcDbEntity
  8
SUNPOU
100
AcDbBlockReference
  2
_OPEN
 10
450.1024718535778
 20
287.7045006507829
 30
0.0
 41
5.0
 42
5.0
 43
5.0
 50
90.0
  0
MTEXT
  5
76EC
330
6298
100
AcDbEntity
  8
SUNPOU
100
AcDbMText
 10
445.6024718535777
 20
226.9512367801966
 30
0.0
 40
6.0
 41
0.0
 71
     5
 72
     1
  1
\A1;122
 11
0.0000000000000001
 21
1.0
 31
0.0
1001
ACAD
1000
MTEXTBEGIN
1070
    73
1070
     1
1070
    44
1040
1.0
1070
    74
1070
     0
1000
MTEXTEND
1000
MTEXTBEGIN
1070
    73
1070
     1
1070
    44
1040
1.0
1070
    74
1070
     0
1000
MTEXTEND
  0
POINT
  5
76ED
330
6298
100
AcDbEntity
  8
DEFPOINTS
 62
     0
100
AcDbPoint
 10
548.812935745866
 20
166.1979729096102
 30
0.0
  0
POINT
  5
76EE
330
6298
100
AcDbEntity
  8
DEFPOINTS
 62
     0
100
AcDbPoint
 10
481.207639654975
 20
287.7045006507829
 30
0.0
  0
POINT
  5
76EF
330
6298
100
AcDbEntity
  8
DEFPOINTS
 62
     0
100
AcDbPoint
 10
450.1024718535778
 20
287.7045006507829
 30
0.0
  0
ENDBLK
  5
62A3
330
6298
100
AcDbEntity
  8
0
100
AcDbBlockEnd
  0
BLOCK
  5
84C1
330
84B7
100
AcDbEntity
  8
0
100
AcDbBlockBegin
  2
*D21
 70
     1
 10
0.0
 20
0.0
 30
0.0
  3
*D21
  1

  0
LINE
  5
84B8
330
84B7
100
AcDbEntity
  8
SUNPOU
100
AcDbLine
 10
475.1065654710328
 20
284.9889375312799
 30
0.0
 11
475.1065654710328
 21
325.3859996215003
 31
0.0
  0
LINE
  5
84B9
330
84B7
100
AcDbEntity
  8
SUNPOU
100
AcDbLine
 10
611.1129357458662
 20
247.1979729095979
 30
0.0
 11
611.1129357458662
 21
325.3859996215003
 31
0.0
  0
LINE
  5
84BA
330
84B7
100
AcDbEntity
  8
SUNPOU
100
AcDbLine
 10
480.1065654710328
 20
323.8859996215003
 30
0.0
 11
606.1129357458662
 21
323.8859996215003
 31
0.0
  0
INSERT
  5
84BB
330
84B7
100
AcDbEntity
  8
SUNPOU
100
AcDbBlockReference
  2
_OPEN
 10
475.1065654710328
 20
323.8859996215003
 30
0.0
 41
5.0
 42
5.0
 43
5.0
 50
180.0
  0
INSERT
  5
84BC
330
84B7
100
AcDbEntity
  8
SUNPOU
100
AcDbBlockReference
  2
_OPEN
 10
611.1129357458662
 20
323.8859996215003
 30
0.0
 41
5.0
 42
5.0
 43
5.0
  0
MTEXT
  5
84BD
330
84B7
100
AcDbEntity
  8
SUNPOU
100
AcDbMText
 10
543.1097506084495
 20
328.3859996215003
 30
0.0
 40
6.0
 41
0.0
 71
     5
 72
     1
  1
\A1;136
1001
ACAD
1000
MTEXTBEGIN
1070
    73
1070
     1
1070
    44
1040
1.0
1070
    74
1070
     0
1000
MTEXTEND
1000
MTEXTBEGIN
1070
    73
1070
     1
1070
    44
1040
1.0
1070
    74
1070
     0
1000
MTEXTEND
  0
POINT
  5
84BE
330
84B7
100
AcDbEntity
  8
DEFPOINTS
 62
     0
100
AcDbPoint
 10
475.1065654710328
 20
283.4889375312799
 30
0.0
  0
POINT
  5
84BF
330
84B7
100
AcDbEntity
  8
DEFPOINTS
 62
     0
100
AcDbPoint
 10
611.1129357458662
 20
245.697972909598
 30
0.0
  0
POINT
  5
84C0
330
84B7
100
AcDbEntity
  8
DEFPOINTS
 62
     0
100
AcDbPoint
 10
611.1129357458662
 20
323.8859996215003
 30
0.0
  0
ENDBLK
  5
84C2
330
84B7
100
AcDbEntity
  8
0
100
AcDbBlockEnd
  0
BLOCK
  5
84CE
330
84C4
100
AcDbEntity
  8
0
100
AcDbBlockBegin
  2
*D22
 70
     1
 10
0.0
 20
0.0
 30
0.0
  3
*D22
  1

  0
LINE
  5
84C5
330
84C4
100
AcDbEntity
  8
SUNPOU
100
AcDbLine
 10
611.1129357458662
 20
248.6979729095979
 30
0.0
 11
611.1129357458662
 21
277.55594790036
 31
0.0
  0
LINE
  5
84C6
330
84C4
100
AcDbEntity
  8
SUNPOU
100
AcDbLine
 10
562.0129357458665
 20
173.1499241968914
 30
0.0
 11
562.0129357458665
 21
277.55594790036
 31
0.0
  0
LINE
  5
84C7
330
84C4
100
AcDbEntity
  8
SUNPOU
100
AcDbLine
 10
606.1129357458662
 20
276.05594790036
 30
0.0
 11
567.0129357458665
 21
276.05594790036
 31
0.0
  0
INSERT
  5
84C8
330
84C4
100
AcDbEntity
  8
SUNPOU
100
AcDbBlockReference
  2
_OPEN
 10
611.1129357458662
 20
276.05594790036
 30
0.0
 41
5.0
 42
5.0
 43
5.0
  0
INSERT
  5
84C9
330
84C4
100
AcDbEntity
  8
SUNPOU
100
AcDbBlockReference
  2
_OPEN
 10
562.0129357458665
 20
276.05594790036
 30
0.0
 41
5.0
 42
5.0
 43
5.0
 50
180.0
  0
MTEXT
  5
84CA
330
84C4
100
AcDbEntity
  8
SUNPOU
100
AcDbMText
 10
586.5629357458664
 20
280.55594790036
 30
0.0
 40
6.0
 41
0.0
 71
     5
 72
     1
  1
\A1;49
1001
ACAD
1000
MTEXTBEGIN
1070
    73
1070
     1
1070
    44
1040
1.0
1070
    74
1070
     0
1000
MTEXTEND
1000
MTEXTBEGIN
1070
    73
1070
     1
1070
    44
1040
1.0
1070
    74
1070
     0
1000
MTEXTEND
  0
POINT
  5
84CB
330
84C4
100
AcDbEntity
  8
DEFPOINTS
 62
     0
100
AcDbPoint
 10
611.1129357458662
 20
247.1979729095979
 30
0.0
  0
POINT
  5
84CC
330
84C4
100
AcDbEntity
  8
DEFPOINTS
 62
     0
100
AcDbPoint
 10
562.0129357458665
 20
171.6499241968914
 30
0.0
  0
POINT
  5
84CD
330
84C4
100
AcDbEntity
  8
DEFPOINTS
 62
     0
100
AcDbPoint
 10
562.0129357458665
 20
276.05594790036
 30
0.0
  0
ENDBLK
  5
84CF
330
84C4
100
AcDbEntity
  8
0
100
AcDbBlockEnd
  0
ENDSEC
  0
SECTION
  2
ENTITIES
  0
TEXT
  5
27A
330
1A
100
AcDbEntity
  8
MOJI
100
AcDbText
 10
470.246431991002
 20
18.94261772165998
 30
0.0
 40
5.599999999999998
  1
ＰＫ０１□
 41
0.9
  7
MSPｺ_ｼｯｸ
100
AcDbText
  0
LINE
  5
27B
330
1A
100
AcDbEntity
  8
ZUWAKU
100
AcDbLine
 10
7.0
 20
36.99999999999999
 30
0.0
 11
804.3999999999998
 21
36.99999999999999
 31
0.0
  0
LINE
  5
27C
330
1A
100
AcDbEntity
  8
ZUWAKU
100
AcDbLine
 10
7.0
 20
37.19999999999999
 30
0.0
 11
804.3999999999998
 21
37.19999999999999
 31
0.0
  0
LINE
  5
27D
330
1A
100
AcDbEntity
  8
ZUWAKU
100
AcDbLine
 10
7.0
 20
37.4
 30
0.0
 11
804.3999999999998
 21
37.4
 31
0.0
  0
LINE
  5
27E
330
1A
100
AcDbEntity
  8
ZUWAKU
100
AcDbLine
 10
7.0
 20
37.60000000000001
 30
0.0
 11
804.3999999999998
 21
37.60000000000001
 31
0.0
  0
LINE
  5
27F
330
1A
100
AcDbEntity
  8
ZUWAKU
100
AcDbLine
 10
7.0
 20
37.80000000000001
 30
0.0
 11
804.3999999999998
 21
37.80000000000001
 31
0.0
  0
TEXT
  5
280
330
1A
100
AcDbEntity
  8
ZUWAKU
100
AcDbText
 10
216.7240463122775
 20
16.65535653838561
 30
0.0
 40
4.0
  1
サイズ
 41
0.9
  7
MSPｺ_ｼｯｸ
100
AcDbText
  0
LINE
  5
281
330
1A
100
AcDbEntity
  8
ZUWAKU
100
AcDbLine
 10
215.646601290068
 20
22.40000000000002
 30
0.0
 11
454.4243639709914
 21
22.40000000000002
 31
0.0
  0
LINE
  5
282
330
1A
100
AcDbEntity
  8
ZUWAKU
100
AcDbLine
 10
215.646601290068
 20
22.60000000000002
 30
0.0
 11
454.4243639709914
 21
22.60000000000003
 31
0.0
  0
LINE
  5
283
330
1A
100
AcDbEntity
  8
ZUWAKU
100
AcDbLine
 10
215.646601290068
 20
22.20000000000003
 30
0.0
 11
454.4243639709914
 21
22.20000000000002
 31
0.0
  0
LINE
  5
284
330
1A
100
AcDbEntity
  8
ZUWAKU
100
AcDbLine
 10
215.4466012900677
 20
36.99999999999999
 30
0.0
 11
215.4466012900679
 21
7.800000000000068
 31
0.0
  0
LINE
  5
285
330
1A
100
AcDbEntity
  8
ZUWAKU
100
AcDbLine
 10
215.6466012900677
 20
36.99999999999999
 30
0.0
 11
215.646601290068
 21
7.800000000000068
 31
0.0
  0
LINE
  5
286
330
1A
100
AcDbEntity
  8
ZUWAKU
100
AcDbLine
 10
215.2466012900679
 20
36.99999999999999
 30
0.0
 11
215.2466012900679
 21
7.800000000000068
 31
0.0
  0
LINE
  5
287
330
1A
100
AcDbEntity
  8
ZUWAKU
100
AcDbLine
 10
73.2422121547811
 20
29.725
 30
0.0
 11
73.2422121547811
 21
14.675
 31
0.0
  0
LINE
  5
288
330
1A
100
AcDbEntity
  8
ZUWAKU
100
AcDbLine
 10
76.04221215478117
 20
14.675
 30
0.0
 11
76.04221215478117
 21
29.725
 31
0.0
  0
LINE
  5
289
330
1A
100
AcDbEntity
  8
ZUWAKU
100
AcDbLine
 10
68.34221215478113
 20
29.725
 30
0.0
 11
68.34221215478113
 21
17.99999999999999
 31
0.0
  0
LINE
  5
28A
330
1A
100
AcDbEntity
  8
ZUWAKU
100
AcDbLine
 10
71.14221215478119
 20
16.95
 30
0.0
 11
71.14221215478119
 21
29.725
 31
0.0
  0
LINE
  5
28B
330
1A
100
AcDbEntity
  8
ZUWAKU
100
AcDbLine
 10
86.12662954798839
 20
36.99999999999999
 30
0.0
 11
86.12662954798839
 21
7.800000000000068
 31
0.0
  0
LINE
  5
28C
330
1A
100
AcDbEntity
  8
ZUWAKU
100
AcDbLine
 10
86.52662954798826
 20
36.99999999999999
 30
0.0
 11
86.52662954798847
 21
7.800000000000068
 31
0.0
  0
LINE
  5
28D
330
1A
100
AcDbEntity
  8
ZUWAKU
100
AcDbLine
 10
86.32662954798821
 20
36.99999999999999
 30
0.0
 11
86.32662954798844
 21
7.800000000000068
 31
0.0
  0
LINE
  5
28E
330
1A
100
AcDbEntity
  8
ZUWAKU
100
AcDbLine
 10
52.59221215478112
 20
27.44999999999999
 30
0.0
 11
52.59221215478112
 21
25.63479797464466
 31
0.0
  0
LINE
  5
28F
330
1A
100
AcDbEntity
  8
ZUWAKU
100
AcDbLine
 10
55.39221215478119
 20
26.92499999999999
 30
0.0
 11
55.39221215478119
 21
25.63479797464466
 31
0.0
  0
LINE
  5
290
330
1A
100
AcDbEntity
  8
ZUWAKU
100
AcDbLine
 10
44.31485863695911
 20
26.20504719356342
 30
0.0
 11
43.05010689162327
 21
22.20000000000001
 31
0.0
  0
LINE
  5
291
330
1A
100
AcDbEntity
  8
ZUWAKU
100
AcDbLine
 10
42.67634709209699
 20
29.88309396816696
 30
0.0
 11
40.80807721746521
 21
23.96690603183302
 31
0.0
  0
LINE
  5
292
330
1A
100
AcDbEntity
  8
ZUWAKU
100
AcDbLine
 10
36.84221215478112
 20
29.725
 30
0.0
 11
36.84221215478112
 21
14.675
 31
0.0
  0
LINE
  5
293
330
1A
100
AcDbEntity
  8
ZUWAKU
100
AcDbLine
 10
39.64221215478119
 20
24.125
 30
0.0
 11
39.64221215478119
 21
29.725
 31
0.0
  0
LINE
  5
294
330
1A
100
AcDbEntity
  8
ZUWAKU
100
AcDbLine
 10
64.84221215478112
 20
17.99999999999999
 30
0.0
 11
64.84221215478112
 21
29.725
 31
0.0
  0
LINE
  5
295
330
1A
100
AcDbEntity
  8
ZUWAKU
100
AcDbLine
 10
62.04221215478117
 20
29.725
 30
0.0
 11
62.04221215478117
 21
16.95
 31
0.0
  0
LINE
  5
296
330
1A
100
AcDbEntity
  8
ZUWAKU
100
AcDbLine
 10
50.4922121547811
 20
14.675
 30
0.0
 11
50.4922121547811
 21
29.725
 31
0.0
  0
LINE
  5
297
330
1A
100
AcDbEntity
  8
ZUWAKU
100
AcDbLine
 10
47.69221215478114
 20
29.725
 30
0.0
 11
47.69221215478114
 21
14.675
 31
0.0
  0
LINE
  5
298
330
1A
100
AcDbEntity
  8
ZUWAKU
100
AcDbLine
 10
27.7422121547811
 20
18.35
 30
0.0
 11
27.7422121547811
 21
26.04999999999995
 31
0.0
  0
LINE
  5
299
330
1A
100
AcDbEntity
  8
ZUWAKU
100
AcDbLine
 10
30.54221215478117
 20
26.04999999999999
 30
0.0
 11
30.54221215478117
 21
18.35
 31
0.0
  0
LINE
  5
29A
330
1A
100
AcDbEntity
  8
ZUWAKU
100
AcDbLine
 10
18.29221215478116
 20
27.44999999999999
 30
0.0
 11
18.29221215478116
 21
25.63479797464466
 31
0.0
  0
LINE
  5
29B
330
1A
100
AcDbEntity
  8
ZUWAKU
100
AcDbLine
 10
21.09221215478112
 20
26.92499999999999
 30
0.0
 11
21.09221215478112
 21
25.63479797464466
 31
0.0
  0
CIRCLE
  5
29E
330
1A
100
AcDbEntity
  8
ZUWAKU
100
AcDbCircle
 10
32.9922121547811
 20
22.19999999999999
 30
0.0
 40
1.75
  0
LINE
  5
29F
330
1A
100
AcDbEntity
  8
ZUWAKU
100
AcDbLine
 10
33.8672121547811
 20
14.15
 30
0.0
 11
31.94221215478114
 21
14.15
 31
0.0
  0
LINE
  5
2A0
330
1A
100
AcDbEntity
  8
ZUWAKU
100
AcDbLine
 10
31.94221215478114
 20
16.95
 30
0.0
 11
33.8672121547811
 21
16.95
 31
0.0
  0
ARC
  5
2A1
330
1A
100
AcDbEntity
  8
ZUWAKU
100
AcDbCircle
 10
31.94221215478114
 20
18.35
 30
0.0
 40
4.199999999999998
100
AcDbArc
 50
180.0
 51
270.0
  0
ARC
  5
2A2
330
1A
100
AcDbEntity
  8
ZUWAKU
100
AcDbCircle
 10
22.84221215478112
 20
16.95
 30
0.0
 40
2.799999999999998
100
AcDbArc
 50
270.0
 51
0.0
  0
ARC
  5
2A3
330
1A
100
AcDbEntity
  8
ZUWAKU
100
AcDbCircle
 10
31.94221215478114
 20
18.35
 30
0.0
 40
1.399999999999999
100
AcDbArc
 50
180.0
 51
270.0
  0
LINE
  5
2A4
330
1A
100
AcDbEntity
  8
ZUWAKU
100
AcDbLine
 10
25.64221215478119
 20
16.95
 30
0.0
 11
25.64221215478119
 21
18.76520202535534
 31
0.0
  0
ARC
  5
2A5
330
1A
100
AcDbEntity
  8
ZUWAKU
100
AcDbCircle
 10
22.49221215478109
 20
25.63479797464469
 30
0.0
 40
4.199999999999998
100
AcDbArc
 50
180.0
 51
224.9999999999996
  0
ARC
  5
2A6
330
1A
100
AcDbEntity
  8
ZUWAKU
100
AcDbCircle
 10
22.49221215478109
 20
25.63479797464469
 30
0.0
 40
1.399999999999999
100
AcDbArc
 50
180.0000000000015
 51
224.9999999999995
  0
LINE
  5
2A7
330
1A
100
AcDbEntity
  8
ZUWAKU
100
AcDbLine
 10
19.52236367379759
 20
22.66494949366117
 30
0.0
 11
22.43216164844227
 21
19.75515151901651
 31
0.0
  0
LINE
  5
2A8
330
1A
100
AcDbEntity
  8
ZUWAKU
100
AcDbLine
 10
19.34221215478112
 20
16.95
 30
0.0
 11
22.31721215478114
 21
16.95
 31
0.0
  0
LINE
  5
2A9
330
1A
100
AcDbEntity
  8
ZUWAKU
100
AcDbLine
 10
19.34221215478112
 20
14.15
 30
0.0
 11
22.84221215478112
 21
14.15
 31
0.0
  0
ARC
  5
2AA
330
1A
100
AcDbEntity
  8
ZUWAKU
100
AcDbCircle
 10
19.34221215478112
 20
16.425
 30
0.0
 40
0.525
100
AcDbArc
 50
90.0
 51
180.0
  0
ARC
  5
2AB
330
1A
100
AcDbEntity
  8
ZUWAKU
100
AcDbCircle
 10
19.34221215478112
 20
14.675
 30
0.0
 40
0.525
100
AcDbArc
 50
180.0
 51
270.0
  0
LINE
  5
2AC
330
1A
100
AcDbEntity
  8
ZUWAKU
100
AcDbLine
 10
18.81721215478114
 20
14.675
 30
0.0
 11
18.81721215478114
 21
16.425
 31
0.0
  0
ARC
  5
2AD
330
1A
100
AcDbEntity
  8
ZUWAKU
100
AcDbCircle
 10
21.44221215478114
 20
18.76520202535534
 30
0.0
 40
1.399999999999999
100
AcDbArc
 50
0.0
 51
44.9999999999996
  0
ARC
  5
2AE
330
1A
100
AcDbEntity
  8
ZUWAKU
100
AcDbCircle
 10
22.31721215478114
 20
17.475
 30
0.0
 40
0.525
100
AcDbArc
 50
270.0
 51
0.0
  0
LINE
  5
2AF
330
1A
100
AcDbEntity
  8
ZUWAKU
100
AcDbLine
 10
22.84221215478112
 20
17.475
 30
0.0
 11
22.84221215478112
 21
18.76520202535534
 31
0.0
  0
LINE
  5
2B0
330
1A
100
AcDbEntity
  8
ZUWAKU
100
AcDbLine
 10
24.41206063576464
 20
21.73505050633882
 30
0.0
 11
21.50226266111997
 21
24.64484848098349
 31
0.0
  0
ARC
  5
2B1
330
1A
100
AcDbEntity
  8
ZUWAKU
100
AcDbCircle
 10
21.44221215478114
 20
18.7652020253553
 30
0.0
 40
4.199999999999998
100
AcDbArc
 50
0.0
 51
44.9999999999996
  0
ARC
  5
2B2
330
1A
100
AcDbEntity
  8
ZUWAKU
100
AcDbCircle
 10
65.89221215478119
 20
17.99999999999999
 30
0.0
 40
1.049999999999998
100
AcDbArc
 50
180.0
 51
270.0
  0
LINE
  5
2B3
330
1A
100
AcDbEntity
  8
ZUWAKU
100
AcDbLine
 10
64.84221215478112
 20
14.15
 30
0.0
 11
68.34221215478113
 21
14.15
 31
0.0
  0
ARC
  5
2B4
330
1A
100
AcDbEntity
  8
ZUWAKU
100
AcDbCircle
 10
64.84221215478112
 20
16.95
 30
0.0
 40
2.799999999999998
100
AcDbArc
 50
180.0
 51
270.0
  0
ARC
  5
2B5
330
1A
100
AcDbEntity
  8
ZUWAKU
100
AcDbCircle
 10
57.14221215478119
 20
16.95
 30
0.0
 40
2.799999999999998
100
AcDbArc
 50
270.0
 51
0.0
  0
LINE
  5
2B6
330
1A
100
AcDbEntity
  8
ZUWAKU
100
AcDbLine
 10
48.21721215478112
 20
14.15
 30
0.0
 11
49.96721215478112
 21
14.15
 31
0.0
  0
ARC
  5
2B7
330
1A
100
AcDbEntity
  8
ZUWAKU
100
AcDbCircle
 10
43.17697799129246
 20
14.675
 30
0.0
 40
0.525
100
AcDbArc
 50
197.5255683737225
 51
270.0
  0
LINE
  5
2B8
330
1A
100
AcDbEntity
  8
ZUWAKU
100
AcDbLine
 10
45.37649827009693
 20
14.83309396816697
 30
0.0
 11
43.05010689162327
 21
22.20000000000001
 31
0.0
  0
ARC
  5
2B9
330
1A
100
AcDbEntity
  8
ZUWAKU
100
AcDbCircle
 10
44.87586737090146
 20
14.675
 30
0.0
 40
0.525
100
AcDbArc
 50
270.0
 51
17.52556837372259
  0
LINE
  5
2BA
330
1A
100
AcDbEntity
  8
ZUWAKU
100
AcDbLine
 10
43.17697799129246
 20
14.15
 30
0.0
 11
44.87586737090146
 21
14.15
 31
0.0
  0
ARC
  5
2BB
330
1A
100
AcDbEntity
  8
ZUWAKU
100
AcDbCircle
 10
48.21721215478112
 20
14.675
 30
0.0
 40
0.525
100
AcDbArc
 50
180.0
 51
270.0
  0
ARC
  5
2BC
330
1A
100
AcDbEntity
  8
ZUWAKU
100
AcDbCircle
 10
40.16721215478116
 20
20.27499999999999
 30
0.0
 40
0.525
100
AcDbArc
 50
90.0
 51
180.0
  0
ARC
  5
2BD
330
1A
100
AcDbEntity
  8
ZUWAKU
100
AcDbCircle
 10
40.30744631826985
 20
20.27499999999999
 30
0.0
 40
0.525
100
AcDbArc
 50
17.52556837372259
 51
90.0
  0
ARC
  5
2BE
330
1A
100
AcDbEntity
  8
ZUWAKU
100
AcDbCircle
 10
37.3672121547811
 20
14.675
 30
0.0
 40
0.525
100
AcDbArc
 50
180.0
 51
270.0
  0
ARC
  5
2BF
330
1A
100
AcDbEntity
  8
ZUWAKU
100
AcDbCircle
 10
33.8672121547811
 20
16.425
 30
0.0
 40
0.525
100
AcDbArc
 50
0.0
 51
90.0
  0
ARC
  5
2C0
330
1A
100
AcDbEntity
  8
ZUWAKU
100
AcDbCircle
 10
33.8672121547811
 20
14.675
 30
0.0
 40
0.525
100
AcDbArc
 50
270.0
 51
0.0
  0
LINE
  5
2C1
330
1A
100
AcDbEntity
  8
ZUWAKU
100
AcDbLine
 10
34.39221215478119
 20
16.425
 30
0.0
 11
34.39221215478119
 21
14.675
 31
0.0
  0
LINE
  5
2C2
330
1A
100
AcDbEntity
  8
ZUWAKU
100
AcDbLine
 10
39.64221215478119
 20
14.675
 30
0.0
 11
39.64221215478119
 21
20.27499999999999
 31
0.0
  0
ARC
  5
2C3
330
1A
100
AcDbEntity
  8
ZUWAKU
100
AcDbCircle
 10
39.1172121547811
 20
14.675
 30
0.0
 40
0.525
100
AcDbArc
 50
270.0
 51
0.0
  0
LINE
  5
2C4
330
1A
100
AcDbEntity
  8
ZUWAKU
100
AcDbLine
 10
37.3672121547811
 20
14.15
 30
0.0
 11
39.1172121547811
 21
14.15
 31
0.0
  0
ARC
  5
2C5
330
1A
100
AcDbEntity
  8
ZUWAKU
100
AcDbCircle
 10
40.16721215478116
 20
24.125
 30
0.0
 40
0.525
100
AcDbArc
 50
180.0
 51
270.0
  0
LINE
  5
2C6
330
1A
100
AcDbEntity
  8
ZUWAKU
100
AcDbLine
 10
40.16721215478116
 20
20.79999999999999
 30
0.0
 11
40.30744631826985
 21
20.79999999999999
 31
0.0
  0
LINE
  5
2C7
330
1A
100
AcDbEntity
  8
ZUWAKU
100
AcDbLine
 10
40.30744631826985
 20
23.59999999999999
 30
0.0
 11
40.16721215478116
 21
23.59999999999999
 31
0.0
  0
ARC
  5
2C8
330
1A
100
AcDbEntity
  8
ZUWAKU
100
AcDbCircle
 10
40.30744631826985
 20
24.125
 30
0.0
 40
0.525
100
AcDbArc
 50
270.0
 51
342.4744316262773
  0
LINE
  5
2C9
330
1A
100
AcDbEntity
  8
ZUWAKU
100
AcDbLine
 10
42.67634709209699
 20
14.51690603183303
 30
0.0
 11
40.80807721746521
 21
20.43309396816697
 31
0.0
  0
ARC
  5
2CA
330
1A
100
AcDbEntity
  8
ZUWAKU
100
AcDbCircle
 10
55.7422121547811
 20
18.7652020253553
 30
0.0
 40
4.199999999999998
100
AcDbArc
 50
0.0
 51
44.9999999999996
  0
LINE
  5
2CB
330
1A
100
AcDbEntity
  8
ZUWAKU
100
AcDbLine
 10
59.94221215478114
 20
16.95
 30
0.0
 11
59.94221215478114
 21
18.76520202535534
 31
0.0
  0
ARC
  5
2CC
330
1A
100
AcDbEntity
  8
ZUWAKU
100
AcDbCircle
 10
56.79221215478117
 20
25.63479797464469
 30
0.0
 40
4.199999999999998
100
AcDbArc
 50
180.0
 51
224.9999999999996
  0
ARC
  5
2CD
330
1A
100
AcDbEntity
  8
ZUWAKU
100
AcDbCircle
 10
56.79221215478117
 20
25.63479797464469
 30
0.0
 40
1.399999999999999
100
AcDbArc
 50
180.0000000000015
 51
224.9999999999995
  0
LINE
  5
2CE
330
1A
100
AcDbEntity
  8
ZUWAKU
100
AcDbLine
 10
53.82236367379767
 20
22.66494949366117
 30
0.0
 11
56.73216164844234
 21
19.75515151901651
 31
0.0
  0
LINE
  5
2CF
330
1A
100
AcDbEntity
  8
ZUWAKU
100
AcDbLine
 10
53.64221215478119
 20
14.15
 30
0.0
 11
57.14221215478119
 21
14.15
 31
0.0
  0
LINE
  5
2D0
330
1A
100
AcDbEntity
  8
ZUWAKU
100
AcDbLine
 10
53.64221215478119
 20
16.95
 30
0.0
 11
56.6172121547811
 21
16.95
 31
0.0
  0
ARC
  5
2D1
330
1A
100
AcDbEntity
  8
ZUWAKU
100
AcDbCircle
 10
53.64221215478119
 20
16.425
 30
0.0
 40
0.525
100
AcDbArc
 50
90.0
 51
180.0
  0
ARC
  5
2D2
330
1A
100
AcDbEntity
  8
ZUWAKU
100
AcDbCircle
 10
49.96721215478112
 20
14.675
 30
0.0
 40
0.525
100
AcDbArc
 50
270.0
 51
0.0
  0
ARC
  5
2D3
330
1A
100
AcDbEntity
  8
ZUWAKU
100
AcDbCircle
 10
53.64221215478119
 20
14.675
 30
0.0
 40
0.525
100
AcDbArc
 50
180.0
 51
270.0
  0
LINE
  5
2D4
330
1A
100
AcDbEntity
  8
ZUWAKU
100
AcDbLine
 10
53.1172121547811
 20
14.675
 30
0.0
 11
53.1172121547811
 21
16.425
 31
0.0
  0
ARC
  5
2D5
330
1A
100
AcDbEntity
  8
ZUWAKU
100
AcDbCircle
 10
56.6172121547811
 20
17.475
 30
0.0
 40
0.525
100
AcDbArc
 50
270.0
 51
0.0
  0
ARC
  5
2D6
330
1A
100
AcDbEntity
  8
ZUWAKU
100
AcDbCircle
 10
55.7422121547811
 20
18.76520202535534
 30
0.0
 40
1.399999999999999
100
AcDbArc
 50
0.0
 51
44.9999999999996
  0
LINE
  5
2D7
330
1A
100
AcDbEntity
  8
ZUWAKU
100
AcDbLine
 10
57.14221215478119
 20
17.475
 30
0.0
 11
57.14221215478119
 21
18.76520202535534
 31
0.0
  0
LINE
  5
2D8
330
1A
100
AcDbEntity
  8
ZUWAKU
100
AcDbLine
 10
58.71206063576472
 20
21.73505050633882
 30
0.0
 11
55.80226266111992
 21
24.64484848098349
 31
0.0
  0
ARC
  5
2D9
330
1A
100
AcDbEntity
  8
ZUWAKU
100
AcDbCircle
 10
68.34221215478113
 20
16.95
 30
0.0
 40
2.799999999999998
100
AcDbArc
 50
270.0
 51
0.0
  0
ARC
  5
2DA
330
1A
100
AcDbEntity
  8
ZUWAKU
100
AcDbCircle
 10
75.51721215478119
 20
14.675
 30
0.0
 40
0.525
100
AcDbArc
 50
270.0
 51
0.0
  0
ARC
  5
2DB
330
1A
100
AcDbEntity
  8
ZUWAKU
100
AcDbCircle
 10
67.29221215478117
 20
17.99999999999999
 30
0.0
 40
1.049999999999998
100
AcDbArc
 50
270.0
 51
0.0
  0
ARC
  5
2DC
330
1A
100
AcDbEntity
  8
ZUWAKU
100
AcDbCircle
 10
73.76721215478119
 20
14.675
 30
0.0
 40
0.525
100
AcDbArc
 50
180.0
 51
270.0
  0
LINE
  5
2DD
330
1A
100
AcDbEntity
  8
ZUWAKU
100
AcDbLine
 10
73.76721215478119
 20
14.15
 30
0.0
 11
75.51721215478119
 21
14.15
 31
0.0
  0
LINE
  5
2DE
330
1A
100
AcDbEntity
  8
ZUWAKU
100
AcDbLine
 10
67.29221215478117
 20
16.95
 30
0.0
 11
65.89221215478119
 21
16.95
 31
0.0
  0
TEXT
  5
2DF
330
1A
100
AcDbEntity
  8
MOJI
100
AcDbText
 10
93.94190011969612
 20
20.146598637514
 30
0.0
 40
6.0
  1
ﾕﾆｼｪｲﾌﾟ
 41
0.9
  7
MSPｺ_ｼｯｸ
100
AcDbText
  0
LINE
  5
2E0
330
1A
100
AcDbEntity
  8
ZUWAKU
100
AcDbLine
 10
33.8672121547811
 20
27.44999999999999
 30
0.0
 11
31.94221215478114
 21
27.44999999999999
 31
0.0
  0
LINE
  5
2E1
330
1A
100
AcDbEntity
  8
ZUWAKU
100
AcDbLine
 10
31.94221215478114
 20
30.24999999999995
 30
0.0
 11
33.8672121547811
 21
30.24999999999999
 31
0.0
  0
LINE
  5
2E2
330
1A
100
AcDbEntity
  8
ZUWAKU
100
AcDbLine
 10
21.09221215478112
 20
30.24999999999999
 30
0.0
 11
24.59221215478112
 21
30.24999999999999
 31
0.0
  0
ARC
  5
2E3
330
1A
100
AcDbEntity
  8
ZUWAKU
100
AcDbCircle
 10
24.59221215478112
 20
29.725
 30
0.0
 40
0.525
100
AcDbArc
 50
0.0
 51
90.0
  0
ARC
  5
2E4
330
1A
100
AcDbEntity
  8
ZUWAKU
100
AcDbCircle
 10
31.94221215478114
 20
26.04999999999999
 30
0.0
 40
1.399999999999999
100
AcDbArc
 50
90.0
 51
180.0
  0
LINE
  5
2E5
330
1A
100
AcDbEntity
  8
ZUWAKU
100
AcDbLine
 10
24.59221215478112
 20
27.44999999999999
 30
0.0
 11
21.6172121547811
 21
27.44999999999999
 31
0.0
  0
ARC
  5
2E6
330
1A
100
AcDbEntity
  8
ZUWAKU
100
AcDbCircle
 10
21.6172121547811
 20
26.92499999999999
 30
0.0
 40
0.525
100
AcDbArc
 50
90.0
 51
180.0
  0
ARC
  5
2E7
330
1A
100
AcDbEntity
  8
ZUWAKU
100
AcDbCircle
 10
24.59221215478112
 20
27.97499999999999
 30
0.0
 40
0.525
100
AcDbArc
 50
270.0
 51
0.0
  0
ARC
  5
2E8
330
1A
100
AcDbEntity
  8
ZUWAKU
100
AcDbCircle
 10
21.09221215478112
 20
27.44999999999999
 30
0.0
 40
2.799999999999998
100
AcDbArc
 50
90.0
 51
180.0
  0
ARC
  5
2E9
330
1A
100
AcDbEntity
  8
ZUWAKU
100
AcDbCircle
 10
31.94221215478114
 20
26.04999999999995
 30
0.0
 40
4.199999999999998
100
AcDbArc
 50
90.0
 51
180.0
  0
LINE
  5
2EA
330
1A
100
AcDbEntity
  8
ZUWAKU
100
AcDbLine
 10
25.1172121547811
 20
29.725
 30
0.0
 11
25.1172121547811
 21
27.97499999999999
 31
0.0
  0
LINE
  5
2EB
330
1A
100
AcDbEntity
  8
ZUWAKU
100
AcDbLine
 10
49.96721215478112
 20
30.24999999999999
 30
0.0
 11
48.21721215478112
 21
30.24999999999999
 31
0.0
  0
ARC
  5
2EC
330
1A
100
AcDbEntity
  8
ZUWAKU
100
AcDbCircle
 10
43.17697799129246
 20
29.725
 30
0.0
 40
0.525
100
AcDbArc
 50
90.0
 51
162.4744316262773
  0
ARC
  5
2ED
330
1A
100
AcDbEntity
  8
ZUWAKU
100
AcDbCircle
 10
44.87586737090146
 20
29.725
 30
0.0
 40
0.525
100
AcDbArc
 50
342.4744316262773
 51
90.0
  0
LINE
  5
2EE
330
1A
100
AcDbEntity
  8
ZUWAKU
100
AcDbLine
 10
43.17697799129246
 20
30.24999999999999
 30
0.0
 11
44.87586737090146
 21
30.24999999999999
 31
0.0
  0
ARC
  5
2EF
330
1A
100
AcDbEntity
  8
ZUWAKU
100
AcDbCircle
 10
48.21721215478112
 20
29.725
 30
0.0
 40
0.525
100
AcDbArc
 50
90.0
 51
180.0
  0
ARC
  5
2F0
330
1A
100
AcDbEntity
  8
ZUWAKU
100
AcDbCircle
 10
37.3672121547811
 20
29.725
 30
0.0
 40
0.525
100
AcDbArc
 50
90.0
 51
180.0
  0
ARC
  5
2F1
330
1A
100
AcDbEntity
  8
ZUWAKU
100
AcDbCircle
 10
33.8672121547811
 20
29.725
 30
0.0
 40
0.525
100
AcDbArc
 50
0.0
 51
90.0
  0
LINE
  5
2F2
330
1A
100
AcDbEntity
  8
ZUWAKU
100
AcDbLine
 10
39.1172121547811
 20
30.24999999999999
 30
0.0
 11
37.3672121547811
 21
30.24999999999999
 31
0.0
  0
ARC
  5
2F3
330
1A
100
AcDbEntity
  8
ZUWAKU
100
AcDbCircle
 10
39.1172121547811
 20
29.725
 30
0.0
 40
0.525
100
AcDbArc
 50
0.0
 51
90.0
  0
ARC
  5
2F4
330
1A
100
AcDbEntity
  8
ZUWAKU
100
AcDbCircle
 10
33.8672121547811
 20
27.97499999999999
 30
0.0
 40
0.525
100
AcDbArc
 50
270.0
 51
0.0
  0
LINE
  5
2F5
330
1A
100
AcDbEntity
  8
ZUWAKU
100
AcDbLine
 10
34.39221215478119
 20
29.725
 30
0.0
 11
34.39221215478119
 21
27.97499999999999
 31
0.0
  0
LINE
  5
2F6
330
1A
100
AcDbEntity
  8
ZUWAKU
100
AcDbLine
 10
45.37649827009693
 20
29.56690603183303
 30
0.0
 11
44.31485863695911
 21
26.20504719356342
 31
0.0
  0
ARC
  5
2F7
330
1A
100
AcDbEntity
  8
ZUWAKU
100
AcDbCircle
 10
58.89221215478119
 20
29.725
 30
0.0
 40
0.525
100
AcDbArc
 50
0.0
 51
90.0
  0
LINE
  5
2F8
330
1A
100
AcDbEntity
  8
ZUWAKU
100
AcDbLine
 10
64.31721215478114
 20
30.24999999999999
 30
0.0
 11
62.56721215478115
 21
30.24999999999999
 31
0.0
  0
ARC
  5
2F9
330
1A
100
AcDbEntity
  8
ZUWAKU
100
AcDbCircle
 10
62.56721215478115
 20
29.725
 30
0.0
 40
0.525
100
AcDbArc
 50
90.0
 51
180.0
  0
ARC
  5
2FA
330
1A
100
AcDbEntity
  8
ZUWAKU
100
AcDbCircle
 10
64.31721215478114
 20
29.725
 30
0.0
 40
0.525
100
AcDbArc
 50
0.0
 51
90.0
  0
ARC
  5
2FB
330
1A
100
AcDbEntity
  8
ZUWAKU
100
AcDbCircle
 10
49.96721215478112
 20
29.725
 30
0.0
 40
0.525
100
AcDbArc
 50
0.0
 51
90.0
  0
LINE
  5
2FC
330
1A
100
AcDbEntity
  8
ZUWAKU
100
AcDbLine
 10
55.39221215478119
 20
30.24999999999999
 30
0.0
 11
58.89221215478119
 21
30.24999999999999
 31
0.0
  0
ARC
  5
2FD
330
1A
100
AcDbEntity
  8
ZUWAKU
100
AcDbCircle
 10
58.89221215478119
 20
27.97499999999999
 30
0.0
 40
0.525
100
AcDbArc
 50
270.0
 51
0.0
  0
ARC
  5
2FE
330
1A
100
AcDbEntity
  8
ZUWAKU
100
AcDbCircle
 10
55.91721215478116
 20
26.92499999999999
 30
0.0
 40
0.525
100
AcDbArc
 50
90.0
 51
180.0
  0
LINE
  5
2FF
330
1A
100
AcDbEntity
  8
ZUWAKU
100
AcDbLine
 10
58.89221215478119
 20
27.44999999999999
 30
0.0
 11
55.91721215478116
 21
27.44999999999999
 31
0.0
  0
ARC
  5
300
330
1A
100
AcDbEntity
  8
ZUWAKU
100
AcDbCircle
 10
55.39221215478119
 20
27.44999999999999
 30
0.0
 40
2.799999999999998
100
AcDbArc
 50
90.0
 51
180.0
  0
LINE
  5
301
330
1A
100
AcDbEntity
  8
ZUWAKU
100
AcDbLine
 10
59.41721215478117
 20
29.725
 30
0.0
 11
59.41721215478117
 21
27.97499999999999
 31
0.0
  0
ARC
  5
302
330
1A
100
AcDbEntity
  8
ZUWAKU
100
AcDbCircle
 10
75.51721215478119
 20
29.725
 30
0.0
 40
0.525
100
AcDbArc
 50
0.0
 51
90.0
  0
ARC
  5
303
330
1A
100
AcDbEntity
  8
ZUWAKU
100
AcDbCircle
 10
68.8672121547811
 20
29.725
 30
0.0
 40
0.525
100
AcDbArc
 50
90.0
 51
180.0
  0
LINE
  5
304
330
1A
100
AcDbEntity
  8
ZUWAKU
100
AcDbLine
 10
70.6172121547811
 20
30.24999999999999
 30
0.0
 11
68.8672121547811
 21
30.24999999999999
 31
0.0
  0
ARC
  5
305
330
1A
100
AcDbEntity
  8
ZUWAKU
100
AcDbCircle
 10
70.6172121547811
 20
29.725
 30
0.0
 40
0.525
100
AcDbArc
 50
0.0
 51
90.0
  0
ARC
  5
306
330
1A
100
AcDbEntity
  8
ZUWAKU
100
AcDbCircle
 10
73.76721215478119
 20
29.725
 30
0.0
 40
0.525
100
AcDbArc
 50
90.0
 51
180.0
  0
LINE
  5
307
330
1A
100
AcDbEntity
  8
ZUWAKU
100
AcDbLine
 10
75.51721215478119
 20
30.24999999999999
 30
0.0
 11
73.76721215478119
 21
30.24999999999999
 31
0.0
  0
TEXT
  5
308
330
1A
100
AcDbEntity
  8
ZUWAKU
100
AcDbText
 10
216.7240463122773
 20
31.05535653838558
 30
0.0
 40
4.0
  1
品名
 41
0.9
  7
MSPｺ_ｼｯｸ
100
AcDbText
  0
LINE
  5
309
330
1A
100
AcDbEntity
  8
ZUWAKU
100
AcDbLine
 10
454.4243639709914
 20
36.99999999999999
 30
0.0
 11
454.4243639709914
 21
7.800000000000068
 31
0.0
  0
LINE
  5
30A
330
1A
100
AcDbEntity
  8
ZUWAKU
100
AcDbLine
 10
454.8243639709912
 20
36.99999999999999
 30
0.0
 11
454.8243639709915
 21
7.800000000000068
 31
0.0
  0
LINE
  5
30B
330
1A
100
AcDbEntity
  8
ZUWAKU
100
AcDbLine
 10
454.6243639709912
 20
36.99999999999999
 30
0.0
 11
454.6243639709914
 21
7.800000000000068
 31
0.0
  0
TEXT
  5
30C
330
1A
100
AcDbEntity
  8
MOJI
100
AcDbText
 10
245.2787949951864
 20
13.2015047093878
 30
0.0
 40
5.599999999999998
  1
ＵＳＴ１４０
 41
0.9
  7
MSPｺ_ｼｯｸ
100
AcDbText
  0
TEXT
  5
30D
330
1A
100
AcDbEntity
  8
MOJI
100
AcDbText
 10
244.8787949951865
 20
27.60150470938777
 30
0.0
 40
5.599999999999998
  1
洋風じょうご
 41
0.9
  7
MSPｺ_ｼｯｸ
100
AcDbText
  0
TEXT
  5
30E
330
1A
100
AcDbEntity
  8
ZUWAKU
100
AcDbText
 10
456.3018089932008
 20
31.05535653838558
 30
0.0
 40
4.0
  1
品番
 41
0.9
  7
MSPｺ_ｼｯｸ
100
AcDbText
  0
TEXT
  5
30F
330
1A
100
AcDbEntity
  8
ZUWAKU
100
AcDbText
 10
715.5280841922436
 20
13.64884031385406
 30
0.0
 40
6.0
  1
建材事業部
 41
0.9
  7
MSPｺ_ｼｯｸ
100
AcDbText
  0
TEXT
  5
310
330
1A
100
AcDbEntity
  8
ZUWAKU
100
AcDbText
 10
715.5280841922436
 20
24.55383933568679
 30
0.0
 40
6.0
  1
積水化学工業株式会社
 41
0.9
  7
MSPｺ_ｼｯｸ
100
AcDbText
  0
LINE
  5
311
330
1A
100
AcDbEntity
  8
ZUWAKU
100
AcDbLine
 10
704.8490105485411
 20
36.99999999999999
 30
0.0
 11
704.8490105485411
 21
7.800000000000068
 31
0.0
  0
LINE
  5
312
330
1A
100
AcDbEntity
  8
ZUWAKU
100
AcDbLine
 10
704.649010548541
 20
36.99999999999999
 30
0.0
 11
704.6490105485413
 21
7.800000000000068
 31
0.0
  0
LINE
  5
313
330
1A
100
AcDbEntity
  8
ZUWAKU
100
AcDbLine
 10
704.4490105485412
 20
36.99999999999999
 30
0.0
 11
704.4490105485412
 21
7.800000000000068
 31
0.0
  0
LINE
  5
314
330
1A
100
AcDbEntity
  8
ZUWAKU
100
AcDbLine
 10
704.2490105485413
 20
36.99999999999999
 30
0.0
 11
704.2490105485413
 21
7.800000000000068
 31
0.0
  0
LINE
  5
315
330
1A
100
AcDbEntity
  8
ZUWAKU
100
AcDbLine
 10
655.4172025102046
 20
36.99999999999999
 30
0.0
 11
655.4172025102046
 21
7.800000000000068
 31
0.0
  0
LINE
  5
316
330
1A
100
AcDbEntity
  8
ZUWAKU
100
AcDbLine
 10
655.8172025102044
 20
36.99999999999999
 30
0.0
 11
655.8172025102049
 21
7.800000000000068
 31
0.0
  0
LINE
  5
317
330
1A
100
AcDbEntity
  8
ZUWAKU
100
AcDbLine
 10
655.6172025102041
 20
36.99999999999999
 30
0.0
 11
655.6172025102045
 21
7.800000000000068
 31
0.0
  0
LINE
  5
318
330
1A
100
AcDbEntity
  8
ZUWAKU
100
AcDbLine
 10
559.5269557661124
 20
36.99999999999999
 30
0.0
 11
559.5269557661124
 21
7.800000000000068
 31
0.0
  0
LINE
  5
319
330
1A
100
AcDbEntity
  8
ZUWAKU
100
AcDbLine
 10
559.9269557661123
 20
36.99999999999999
 30
0.0
 11
559.9269557661123
 21
7.800000000000068
 31
0.0
  0
LINE
  5
31A
330
1A
100
AcDbEntity
  8
ZUWAKU
100
AcDbLine
 10
559.7269557661125
 20
36.99999999999999
 30
0.0
 11
559.7269557661125
 21
7.800000000000068
 31
0.0
  0
TEXT
  5
31B
330
1A
100
AcDbEntity
  8
MOJI
100
AcDbText
 10
530.5985594600112
 20
27.38756095388828
 30
0.0
 40
5.599999999999998
  1
Ａ３
 41
0.9
  7
MSPｺ_ｼｯｸ
100
AcDbText
  0
LINE
  5
31C
330
1A
100
AcDbEntity
  8
ZUWAKU
100
AcDbLine
 10
511.799179498141
 20
36.99999999999999
 30
0.0
 11
511.799179498141
 21
7.800000000000068
 31
0.0
  0
LINE
  5
31D
330
1A
100
AcDbEntity
  8
ZUWAKU
100
AcDbLine
 10
512.1991794981409
 20
36.99999999999999
 30
0.0
 11
512.199179498141
 21
7.800000000000068
 31
0.0
  0
LINE
  5
31E
330
1A
100
AcDbEntity
  8
ZUWAKU
100
AcDbLine
 10
511.9991794981408
 20
36.99999999999999
 30
0.0
 11
511.9991794981411
 21
7.800000000000068
 31
0.0
  0
TEXT
  5
31F
330
1A
100
AcDbEntity
  8
ZUWAKU
100
AcDbText
 10
661.5120759996869
 20
25.00492105740738
 30
0.0
 40
5.599999999999998
  1
　　．　．　　
 41
0.9
  7
MSPｺ_ｼｯｸ
100
AcDbText
  0
LINE
  5
320
330
1A
100
AcDbEntity
  8
ZUWAKU
100
AcDbLine
 10
512.1991794981409
 20
22.60000000000002
 30
0.0
 11
559.5269557661124
 21
22.60000000000002
 31
0.0
  0
LINE
  5
321
330
1A
100
AcDbEntity
  8
ZUWAKU
100
AcDbLine
 10
512.1991794981409
 20
22.40000000000002
 30
0.0
 11
559.5269557661124
 21
22.40000000000002
 31
0.0
  0
LINE
  5
322
330
1A
100
AcDbEntity
  8
ZUWAKU
100
AcDbLine
 10
512.1991794981409
 20
22.20000000000003
 30
0.0
 11
559.5269557661124
 21
22.20000000000003
 31
0.0
  0
TEXT
  5
323
330
1A
100
AcDbEntity
  8
ZUWAKU
100
AcDbText
 10
513.6766245203507
 20
16.65535653838561
 30
0.0
 40
4.0
  1
縮尺
 41
0.9
  7
MSPｺ_ｼｯｸ
100
AcDbText
  0
TEXT
  5
324
330
1A
100
AcDbEntity
  8
MOJI
100
AcDbText
 10
530.5985594600112
 20
12.58756095388831
 30
0.0
 40
5.599999999999998
  1
１/２
 41
0.9
  7
MSPｺ_ｼｯｸ
100
AcDbText
  0
LINE
  5
325
330
1A
100
AcDbEntity
  8
ZUWAKU
100
AcDbLine
 10
655.8172025102042
 20
22.60000000000002
 30
0.0
 11
704.2490105485413
 21
22.60000000000002
 31
0.0
  0
LINE
  5
326
330
1A
100
AcDbEntity
  8
ZUWAKU
100
AcDbLine
 10
655.8172025102044
 20
22.40000000000003
 30
0.0
 11
704.2490105485413
 21
22.40000000000002
 31
0.0
  0
LINE
  5
327
330
1A
100
AcDbEntity
  8
ZUWAKU
100
AcDbLine
 10
655.8172025102042
 20
22.20000000000002
 30
0.0
 11
704.2490105485413
 21
22.20000000000002
 31
0.0
  0
TEXT
  5
328
330
1A
100
AcDbEntity
  8
ZUWAKU
100
AcDbText
 10
513.6766245203505
 20
31.05535653838558
 30
0.0
 40
4.0
  1
用紙
 41
0.9
  7
MSPｺ_ｼｯｸ
100
AcDbText
  0
TEXT
  5
329
330
1A
100
AcDbEntity
  8
ZUWAKU
100
AcDbText
 10
657.2946475324138
 20
31.05535653838558
 30
0.0
 40
4.0
  1
DATE
 41
0.9
  7
MSPｺ_ｼｯｸ
100
AcDbText
  0
POINT
  5
1056
330
1A
100
AcDbEntity
  8
SEIHIN
100
AcDbPoint
 10
1711.400763290751
 20
217.11344014311
 30
0.0
  0
POINT
  5
10BB
330
1A
100
AcDbEntity
  8
SEIHIN
100
AcDbPoint
 10
1704.800763290751
 20
250.2134401431161
 30
0.0
  0
LINE
  5
383D
330
1A
100
AcDbEntity
  8
CENTER_L
 48
10.0
100
AcDbLine
 10
281.2256390620827
 20
462.5856575545757
 30
0.0
 11
204.1533859385144
 21
462.5856575545757
 31
0.0
  0
LINE
  5
3840
330
1A
100
AcDbEntity
  8
SEIHIN
100
AcDbLine
 10
191.4435267571373
 20
415.1195613328292
 30
0.0
 11
241.7665492431293
 21
415.1195613328292
 31
0.0
  0
LINE
  5
3849
330
1A
100
AcDbEntity
  8
SEIHIN
100
AcDbLine
 10
157.6895125002986
 20
385.3943809311175
 30
0.0
 11
327.6895125002987
 21
385.3943809311175
 31
0.0
  0
LINE
  5
384D
330
1A
100
AcDbEntity
  8
SEIHIN
100
AcDbLine
 10
157.7002509262315
 20
398.6353794028602
 30
0.0
 11
241.835313648683
 21
398.6353794028602
 31
0.0
  0
LINE
  5
384F
330
1A
100
AcDbEntity
  8
SEIHIN
100
AcDbLine
 10
161.4345254700272
 20
407.8550932717022
 30
0.0
 11
241.7968532539688
 21
407.8550932717022
 31
0.0
  0
LINE
  5
3851
330
1A
100
AcDbEntity
  8
SEIHIN
100
AcDbLine
 10
337.3599663752122
 20
377.5393322179676
 30
0.0
 11
148.0190586253845
 21
377.5393322179676
 31
0.0
  0
LINE
  5
3852
330
1A
100
AcDbEntity
  8
SEIHIN
100
AcDbLine
 10
157.6895125002986
 20
380.0365812001938
 30
0.0
 11
327.6895125002986
 21
380.0365812001938
 31
0.0
  0
LINE
  5
3853
330
1A
100
AcDbEntity
  8
SEIHIN
100
AcDbLine
 10
325.6895125002986
 20
511.0016676431968
 30
0.0
 11
159.6895125002986
 21
511.0016676431968
 31
0.0
  0
LINE
  5
3854
330
1A
100
AcDbEntity
  8
SEIHIN
100
AcDbLine
 10
341.5371872026942
 20
513.5020484633067
 30
0.0
 11
143.8418377979029
 21
513.5020484633067
 31
0.0
  0
LINE
  5
3856
330
1A
100
AcDbEntity
  8
SEIHIN
100
AcDbLine
 10
191.3460007102619
 20
143.6979713181541
 30
0.0
 11
242.6895125002993
 21
143.6979713181541
 31
0.0
  0
LINE
  5
3858
330
1A
100
AcDbEntity
  8
SEIHIN
100
AcDbLine
 10
242.6895125002991
 20
164.4979712635165
 30
0.0
 11
127.6895104141365
 21
164.4979712635164
 31
0.0
  0
LINE
  5
3859
330
1A
100
AcDbEntity
  8
SEIHIN
100
AcDbLine
 10
242.6895125002991
 20
179.8979729095981
 30
0.0
 11
127.6895104141365
 21
179.8979729095979
 31
0.0
  0
LINE
  5
385A
330
1A
100
AcDbEntity
  8
SEIHIN
100
AcDbLine
 10
327.6895133943669
 20
287.5187078753993
 30
0.0
 11
127.6895104141365
 21
287.5187078753993
 31
0.0
  0
SPLINE
  5
385B
330
1A
100
AcDbEntity
  8
SEIHIN
100
AcDbSpline
210
0.0
220
0.0
230
1.0
 70
     8
 71
     3
 72
    10
 73
     6
 74
     0
 42
0.0000000001
 43
0.0000000001
 40
0.0
 40
0.0
 40
0.0
 40
0.0
 40
0.5
 40
0.5
 40
0.9822269241332588
 40
0.9822269241332588
 40
0.9822269241332588
 40
0.9822269241332588
 10
191.4435267571373
 20
416.0682312990354
 30
0.0
 10
191.366518102717
 20
431.4444350411017
 30
0.0
 10
191.3340354077734
 20
446.8207832912993
 30
0.0
 10
191.3622334258682
 20
477.0269439281903
 30
0.0
 10
191.4196488622809
 20
491.8566502634369
 30
0.0
 10
191.5168329432208
 20
506.6861506278518
 30
0.0
  0
LINE
  5
385C
330
1A
100
AcDbEntity
  8
SEIHIN
100
AcDbLine
 10
157.6895125002986
 20
513.5456861256272
 30
0.0
 11
157.6895125002986
 21
380.0365812001938
 31
0.0
  0
SPLINE
  5
3862
330
1A
100
AcDbEntity
  8
SEIHIN
100
AcDbSpline
210
0.0
220
0.0
230
1.0
 70
     8
 71
     3
 72
     8
 73
     4
 74
     0
 42
0.0000000001
 43
0.0000000001
 40
0.0
 40
0.0
 40
0.0
 40
0.0
 40
1.0
 40
1.0
 40
1.0
 40
1.0
 10
137.3675300421566
 20
377.8234075016222
 30
0.0
 10
140.9149231586836
 20
377.63405325427
 30
0.0
 10
144.4661547108678
 20
377.5393322179674
 30
0.0
 10
148.0190586253845
 20
377.5393322179674
 30
0.0
  0
SPLINE
  5
3863
330
1A
100
AcDbEntity
  8
SEIHIN
100
AcDbSpline
210
0.0
220
0.0
230
1.0
 70
     8
 71
     3
 72
     8
 73
     4
 74
     0
 42
0.0000000001
 43
0.0000000001
 40
0.0
 40
0.0
 40
0.0
 40
0.0
 40
0.0096931119133913
 40
0.0096931119133913
 40
0.0096931119133913
 40
0.0096931119133913
 10
127.6895125002986
 20
378.3400278679697
 30
0.0
 10
130.9155180934446
 20
378.1678167669766
 30
0.0
 10
134.1415239408818
 20
377.9956099806496
 30
0.0
 10
137.3675300421566
 20
377.8234075016222
 30
0.0
  0
SPLINE
  5
386B
330
1A
100
AcDbEntity
  8
SEIHIN
100
AcDbSpline
210
0.0
220
0.0
230
1.0
 70
     8
 71
     3
 72
     8
 73
     4
 74
     0
 42
0.0000000001
 43
0.0000000001
 40
0.0
 40
0.0
 40
0.0
 40
0.0
 40
1.0
 40
1.0
 40
1.0
 40
1.0
 10
161.0574009796216
 20
399.4833338927157
 30
0.0
 10
161.0574009796216
 20
399.3502615776705
 30
0.0
 10
161.069678169362
 20
399.2196076788101
 30
0.0
 10
161.0920068172961
 20
399.0926622779447
 30
0.0
  0
SPLINE
  5
386D
330
1A
100
AcDbEntity
  8
SEIHIN
100
AcDbSpline
210
0.0
220
0.0
230
1.0
 70
     8
 71
     3
 72
    17
 73
    13
 74
     0
 42
0.0000000001
 43
0.0000000001
 40
0.0
 40
0.0
 40
0.0
 40
0.0
 40
0.0068782966301388
 40
0.0068782966301388
 40
0.0068782966301388
 40
0.0175207027944752
 40
0.0175207027944752
 40
0.0175207027944752
 40
0.0281631089174643
 40
0.0281631089174643
 40
0.0281631089174643
 40
0.03594589075313
 40
0.03594589075313
 40
0.03594589075313
 40
0.03594589075313
 10
157.6895125002986
 20
408.761857103738
 30
0.0
 10
159.6301637882231
 20
409.1479948353639
 30
0.0
 10
161.5708499329355
 20
409.5341150448256
 30
0.0
 10
163.5115721527174
 20
409.9202171161979
 30
0.0
 10
166.5143437998433
 20
410.5176113960155
 30
0.0
 10
169.5172017988468
 20
411.1149622629765
 30
0.0
 10
172.5201509157916
 20
411.7122673066357
 30
0.0
 10
175.5231000208161
 20
412.3095723479238
 30
0.0
 10
178.5261402490757
 20
412.9068315681813
 30
0.0
 10
181.5292766966606
 20
413.5040423888648
 30
0.0
 10
183.7254676265004
 20
413.9407821143085
 30
0.0
 10
185.9217100245648
 20
414.3774959530355
 30
0.0
 10
188.118006003938
 20
414.8141828354104
 30
0.0
  0
SPLINE
  5
3870
330
1A
100
AcDbEntity
  8
SEIHIN
100
AcDbSpline
210
0.0
220
0.0
230
1.0
 70
     8
 71
     3
 72
    10
 73
     6
 74
     0
 42
0.0000000001
 43
0.0000000001
 40
0.0
 40
0.0
 40
0.0
 40
0.0
 40
0.5
 40
0.5
 40
1.0
 40
1.0
 40
1.0
 40
1.0
 10
158.3216240209751
 20
407.847646581033
 30
0.0
 10
158.3216240209751
 20
407.9550954425132
 30
0.0
 10
158.3453299286954
 20
408.0601093600596
 30
0.0
 10
158.4390169124615
 20
408.2215987353921
 30
0.0
 10
158.5087299589101
 20
408.2755025407807
 30
0.0
 10
158.5907200157205
 20
408.3031442695382
 30
0.0
  0
SPLINE
  5
3871
330
1A
100
AcDbEntity
  8
SEIHIN
100
AcDbSpline
210
0.0
220
0.0
230
1.0
 70
     8
 71
     3
 72
    18
 73
    14
 74
     0
 42
0.0000000001
 43
0.0000000001
 40
0.0
 40
0.0
 40
0.0
 40
0.0
 40
0.2499999999999881
 40
0.2499999999999881
 40
0.3749999999999903
 40
0.3749999999999903
 40
0.4999999999999925
 40
0.4999999999999925
 40
0.6249999999999946
 40
0.6249999999999946
 40
0.7499999999999968
 40
0.7499999999999968
 40
1.0
 40
1.0
 40
1.0
 40
1.0
 10
158.5907200157205
 20
408.3031442695382
 30
0.0
 10
158.7445060870229
 20
408.3549909572338
 30
0.0
 10
158.9181056733802
 20
408.3961359856461
 30
0.0
 10
159.1985233141615
 20
408.4382333467192
 30
0.0
 10
159.2940365360671
 20
408.4488324270115
 30
0.0
 10
159.4891590479589
 20
408.4631483382429
 30
0.0
 10
159.5898618364806
 20
408.4668506299573
 30
0.0
 10
159.7898107446606
 20
408.4668349072494
 30
0.0
 10
159.8886317356639
 20
408.4632116192535
 30
0.0
 10
160.0840302344606
 20
408.4489296989726
 30
0.0
 10
160.1815731753397
 20
408.4381005877796
 30
0.0
 10
160.4619326336135
 20
408.395927193047
 30
0.0
 10
160.6345132954554
 20
408.354992851299
 30
0.0
 10
160.7883049848762
 20
408.3031442695382
 30
0.0
  0
SPLINE
  5
3874
330
1A
100
AcDbEntity
  8
SEIHIN
100
AcDbSpline
210
0.0
220
0.0
230
1.0
 70
     8
 71
     3
 72
    12
 73
     8
 74
     0
 42
0.0000000001
 43
0.0000000001
 40
0.0
 40
0.0
 40
0.0
 40
0.0
 40
0.2499999999999928
 40
0.2499999999999928
 40
0.4999999999999857
 40
0.4999999999999857
 40
1.0
 40
1.0
 40
1.0
 40
1.0
 10
160.7883049848762
 20
408.3031442695382
 30
0.0
 10
160.8293337377533
 20
408.2893120354551
 30
0.0
 10
160.8666609945951
 20
408.2697529779124
 30
0.0
 10
160.933736758712
 20
408.2160075381468
 30
0.0
 10
160.9631876673745
 20
408.1815671708381
 30
0.0
 10
161.0336662805918
 20
408.0603114462362
 30
0.0
 10
161.0574009796216
 20
407.9553231100398
 30
0.0
 10
161.0574009796216
 20
407.847646581033
 30
0.0
  0
SPLINE
  5
3877
330
1A
100
AcDbEntity
  8
SEIHIN
100
AcDbSpline
210
0.0
220
0.0
230
1.0
 70
     8
 71
     3
 72
    12
 73
     8
 74
     0
 42
0.0000000001
 43
0.0000000001
 40
0.0
 40
0.0
 40
0.0
 40
0.0
 40
0.4999999999999974
 40
0.4999999999999974
 40
0.7499999999999987
 40
0.7499999999999987
 40
1.0
 40
1.0
 40
1.0
 40
1.0
 10
191.4435267571373
 20
415.1195613328292
 30
0.0
 10
190.8545745220824
 20
415.1195613328292
 30
0.0
 10
190.278983559883
 20
415.0933586841341
 30
0.0
 10
189.435120721718
 20
415.0157671787501
 30
0.0
 10
189.1581828661107
 20
414.9834287673499
 30
0.0
 10
188.625144249557
 20
414.9074896486626
 30
0.0
 10
188.3672462854058
 20
414.8637389801644
 30
0.0
 10
188.118006003938
 20
414.8141828354104
 30
0.0
  0
SPLINE
  5
3878
330
1A
100
AcDbEntity
  8
SEIHIN
100
AcDbSpline
210
0.0
220
0.0
230
1.0
 70
     8
 71
     3
 72
    10
 73
     6
 74
     0
 42
0.0000000001
 43
0.0000000001
 40
0.0
 40
0.0
 40
0.0
 40
0.0
 40
0.2196893959957523
 40
0.8090689427177622
 40
1.0
 40
1.0
 40
1.0
 40
1.0
 10
148.0191124768387
 20
287.9801074306056
 30
0.0
 10
147.2513144162132
 20
287.9817489880539
 30
0.0
 10
144.4236787794764
 20
287.9877944921762
 30
0.0
 10
140.9286701219596
 20
287.9589238893828
 30
0.0
 10
138.2020277588283
 20
287.9071050875483
 30
0.0
 10
137.5348566265236
 20
287.894425753741
 30
0.0
  0
SPLINE
  5
387A
330
1A
100
AcDbEntity
  8
SEIHIN
100
AcDbSpline
210
0.0
220
0.0
230
1.0
 70
    24
 71
     1
 72
     4
 73
     2
 74
     0
 42
0.0000000001
 43
0.0000000001
 40
0.0
 40
0.0
 40
1.0
 40
1.0
 10
137.5334261150489
 20
287.9021445552394
 30
0.0
 10
127.6892719955574
 20
287.7404222528026
 30
0.0
  0
SPLINE
  5
387B
330
1A
100
AcDbEntity
  8
SEIHIN
100
AcDbSpline
210
0.0
220
0.0
230
1.0
 70
    24
 71
     1
 72
     4
 73
     2
 74
     0
 42
0.0000000001
 43
0.0000000001
 40
0.0
 40
0.0
 40
1.0
 40
1.0
 10
157.6895116062294
 20
287.9889289180324
 30
0.0
 10
148.0190603227745
 20
287.9889289180324
 30
0.0
  0
SPLINE
  5
387D
330
1A
100
AcDbEntity
  8
SEIHIN
100
AcDbSpline
210
0.0
220
0.0
230
1.0
 70
     8
 71
     3
 72
    14
 73
    10
 74
     0
 42
0.0000000001
 43
0.0000000001
 40
-0.0003065965290517
 40
-0.0003065965290517
 40
-0.0003065965290517
 40
-0.0003065965290517
 40
0.0105918485589193
 40
0.0105918485589193
 40
0.0105918485589193
 40
0.021183697108834
 40
0.021183697108834
 40
0.021183697108834
 40
0.0400060491156648
 40
0.0400060491156648
 40
0.0400060491156648
 40
0.0400060491156648
 10
153.6879522293095
 20
163.6979712800642
 30
0.0
 10
156.8421553630671
 20
161.8956539859124
 30
0.0
 10
159.9964455153578
 20
160.0934889833846
 30
0.0
 10
163.1507567614555
 20
158.2913609080166
 30
0.0
 10
166.2163304957787
 20
156.5399305440761
 30
0.0
 10
169.2819242654556
 20
154.7885352475547
 30
0.0
 10
172.3474684731225
 20
153.037053203357
 30
0.0
 10
177.7951249154336
 20
149.9245642632846
 30
0.0
 10
183.2426292261422
 20
146.8118089125129
 30
0.0
 10
188.6895148889
 20
143.6979712806056
 30
0.0
  0
LINE
  5
387E
330
1A
100
AcDbEntity
  8
SEIHIN
100
AcDbLine
 10
137.3675314874778
 20
163.9818100521848
 30
0.0
 11
127.6895104141365
 21
164.4979713747785
 31
0.0
  0
LINE
  5
387F
330
1A
100
AcDbEntity
  8
SEIHIN
100
AcDbLine
 10
137.3675300421552
 20
163.981810345043
 30
0.0
 11
127.689512500299
 21
164.4979712806085
 31
0.0
  0
ARC
  5
3880
330
1A
100
AcDbEntity
  8
SEIHIN
100
AcDbCircle
 10
148.0190551043449
 20
363.6977024359012
 30
0.0
 40
199.9997315647819
100
AcDbArc
 50
266.9471148085981
 51
270.0000014949767
  0
LINE
  5
3881
330
1A
100
AcDbEntity
  8
SEIHIN
100
AcDbLine
 10
148.0190603227745
 20
163.6979708711193
 30
0.0
 11
153.1568465919624
 21
163.6979708711193
 31
0.0
  0
LINE
  5
3882
330
1A
100
AcDbEntity
  8
SEIHIN
100
AcDbLine
 10
148.0190586253832
 20
163.6979712806086
 30
0.0
 11
153.6879522283572
 21
163.6979712806083
 31
0.0
  0
LINE
  5
3885
330
1A
100
AcDbEntity
  8
SEIHIN
100
AcDbLine
 10
188.6895148889
 20
143.6979712806058
 30
0.0
 11
209.2490645346895
 21
143.6979712805967
 31
0.0
  0
LINE
  5
3886
330
1A
100
AcDbEntity
  8
SEIHIN
100
AcDbLine
 10
127.6895104141365
 20
164.4979712635164
 30
0.0
 11
127.6895104141365
 21
287.7404261696046
 31
0.0
  0
LINE
  5
388E
330
1A
100
AcDbEntity
  8
SEIHIN
100
AcDbLine
 10
157.6895116062294
 20
287.9889289180324
 30
0.0
 11
157.6895116062294
 21
287.5187078753995
 31
0.0
  0
LINE
  5
388F
330
1A
100
AcDbEntity
  8
SEIHIN
100
AcDbLine
 10
157.6895125002986
 20
393.0356861256271
 30
0.0
 11
127.6895125002986
 21
393.0356861256271
 31
0.0
  0
LINE
  5
3892
330
1A
100
AcDbEntity
  8
SEIHIN
100
AcDbLine
 10
157.6895125002986
 20
400.5155460040124
 30
0.0
 11
127.6895125002986
 21
400.5155460040124
 31
0.0
  0
LINE
  5
3894
330
1A
100
AcDbEntity
  8
SEIHIN
100
AcDbLine
 10
157.6895125002986
 20
403.4904771334819
 30
0.0
 11
127.6895125002986
 21
403.4904771334819
 31
0.0
  0
LINE
  5
38A0
330
1A
100
AcDbEntity
  8
SEIHIN
100
AcDbLine
 10
127.6895125002986
 20
512.7455033192115
 30
0.0
 11
127.6895125002986
 21
378.3400278679697
 31
0.0
  0
ARC
  5
38A3
330
1A
100
AcDbEntity
  8
SEIHIN
100
AcDbCircle
 10
161.407283191427
 20
399.6816052751577
 30
0.0
 40
8.173533395747494
100
AcDbArc
 50
89.80903357183661
 51
92.4533944481441
  0
ARC
  5
38A4
330
1A
100
AcDbEntity
  8
SEIHIN
100
AcDbCircle
 10
157.9717418091679
 20
399.6816052750204
 30
0.0
 40
8.173533395884822
100
AcDbArc
 50
87.546605551882
 51
91.97879699574935
  0
ARC
  5
38B0
330
1A
100
AcDbEntity
  8
SEIHIN
100
AcDbCircle
 10
158.8013895975925
 20
399.0816742030746
 30
0.0
 40
0.4799423245804125
100
AcDbArc
 50
178.4449883642549
 51
257.651269538164
  0
ARC
  5
38B3
330
1A
100
AcDbEntity
  8
SEIHIN
100
AcDbCircle
 10
160.6102078441342
 20
399.082676585925
 30
0.0
 40
0.4819024430163736
100
AcDbArc
 50
281.3726895361368
 51
1.187333594575541
  0
LINE
  5
38B4
330
1A
100
AcDbEntity
  8
SEIHIN
100
AcDbLine
 10
158.3216240209756
 20
399.0946982737524
 30
0.0
 11
158.3216240209751
 21
407.847646581033
 31
0.0
  0
LINE
  5
38B6
330
1A
100
AcDbEntity
  8
SEIHIN
100
AcDbLine
 10
161.0574009796216
 20
407.847646581033
 30
0.0
 11
161.0574009796216
 21
399.4833338927156
 31
0.0
  0
LINE
  5
38BC
330
1A
100
AcDbEntity
  8
SEIHIN
100
AcDbLine
 10
191.4435267571373
 20
415.1195613328292
 30
0.0
 11
191.4435267571373
 21
416.0682312990353
 31
0.0
  0
SPLINE
  5
38C1
330
1A
100
AcDbEntity
  8
SEIHIN
100
AcDbSpline
210
0.0
220
0.0
230
1.0
 70
    24
 71
     1
 72
     4
 73
     2
 74
     0
 42
0.0000000001
 43
0.0000000001
 40
0.0
 40
0.0
 40
1.0
 40
1.0
 10
127.6895125002986
 20
499.9965621874463
 30
0.0
 10
157.6895125002986
 20
499.9965621874463
 30
0.0
  0
ELLIPSE
  5
38C3
330
1A
100
AcDbEntity
  8
SEIHIN
100
AcDbEllipse
 10
159.6895125002986
 20
511.0365777730534
 30
0.0
 11
2.0
 21
0.0
 31
0.0
210
0.0
220
0.0
230
1.0
 40
0.0174550649282424
 41
3.141592653589786
 42
4.712388980384689
  0
ELLIPSE
  5
38C4
330
1A
100
AcDbEntity
  8
SEIHIN
100
AcDbEllipse
 10
159.1895125002986
 20
509.5456109867874
 30
0.0
 11
0.0
 21
1.241452843966158
 31
0.0
210
0.0
220
0.0
230
1.0
 40
0.8055078409625519
 41
4.712388980384701
 42
6.283185307179586
  0
SPLINE
  5
38C6
330
1A
100
AcDbEntity
  8
SEIHIN
100
AcDbSpline
210
0.0
220
0.0
230
1.0
 70
     8
 71
     3
 72
     8
 73
     4
 74
     0
 42
0.0000000001
 43
0.0000000001
 40
0.0
 40
0.0
 40
0.0
 40
0.0
 40
0.0005876259491526
 40
0.0005876259491526
 40
0.0005876259491526
 40
0.0005876259491526
 10
159.1895125002986
 20
500.4386122900798
 30
0.0
 10
159.0228394310445
 20
500.4545548291429
 30
0.0
 10
158.8561727655067
 20
500.470498975528
 30
0.0
 10
158.6895125002991
 20
500.4864447277147
 30
0.0
  0
SPLINE
  5
38C7
330
1A
100
AcDbEntity
  8
SEIHIN
100
AcDbSpline
210
0.0
220
0.0
230
1.0
 70
     8
 71
     3
 72
    18
 73
    14
 74
     0
 42
0.0000000001
 43
0.0000000001
 40
0.0
 40
0.0
 40
0.0
 40
0.0
 40
0.2500000000000091
 40
0.2500000000000091
 40
0.5000000000000182
 40
0.5000000000000182
 40
0.6250000000000137
 40
0.6250000000000137
 40
0.7500000000000091
 40
0.7500000000000091
 40
0.8750000000000046
 40
0.8750000000000046
 40
1.0
 40
1.0
 40
1.0
 40
1.0
 10
159.1895125002986
 20
500.4386122900798
 30
0.0
 10
159.2901611441445
 20
500.4193578905138
 30
0.0
 10
159.3925227295046
 20
500.4151972521161
 30
0.0
 10
159.6016193277071
 20
500.4461757262387
 30
0.0
 10
159.7067806135171
 20
500.4809849559101
 30
0.0
 10
159.8583715345973
 20
500.5771996549989
 30
0.0
 10
159.9086349402452
 20
500.6175332067702
 30
0.0
 10
160.001092283084
 20
500.7152634275721
 30
0.0
 10
160.0445495659898
 20
500.7743119135682
 30
0.0
 10
160.1158870999804
 20
500.9073966262816
 30
0.0
 10
160.1440945279207
 20
500.9818812360236
 30
0.0
 10
160.181124788294
 20
501.138992014533
 30
0.0
 10
160.1895125002986
 20
501.2184439851633
 30
0.0
 10
160.1895125002986
 20
501.2971893635824
 30
0.0
  0
SPLINE
  5
38C8
330
1A
100
AcDbEntity
  8
SEIHIN
100
AcDbSpline
210
0.0
220
0.0
230
1.0
 70
     8
 71
     3
 72
    12
 73
     8
 74
     0
 42
0.0000000001
 43
0.0000000001
 40
0.0
 40
0.0
 40
0.0
 40
0.0
 40
0.2499999999999998
 40
0.2499999999999998
 40
0.4999999999999996
 40
0.4999999999999996
 40
1.0
 40
1.0
 40
1.0
 40
1.0
 10
157.6895125002986
 20
499.92439324187
 30
0.0
 10
157.6895125002986
 20
500.1293507758648
 30
0.0
 10
157.7312545651141
 20
500.3117406465196
 30
0.0
 10
157.8574837862982
 20
500.6384645930031
 30
0.0
 10
157.9417493492389
 20
500.779070326075
 30
0.0
 10
158.2249040879776
 20
501.1374925186693
 30
0.0
 10
158.4591370711907
 20
501.2973241493597
 30
0.0
 10
158.6895125002986
 20
501.3771399661278
 30
0.0
  0
ELLIPSE
  5
38CD
330
1A
100
AcDbEntity
  8
SEIHIN
100
AcDbEllipse
 10
148.0190586253827
 20
313.4999845217181
 30
0.0
 11
-0.0000000000002274
 21
200.0457016039091
 31
0.0
210
0.0
220
0.0
230
1.0
 40
0.9997715441844402
 41
0.0208876229574906
 42
0.0532828515596824
  0
LINE
  5
38D7
330
1A
100
AcDbEntity
  8
SEIHIN
100
AcDbLine
 10
127.6895125002986
 20
496.6646159899749
 30
0.0
 11
157.6895125002986
 21
496.6646159899749
 31
0.0
  0
LINE
  5
38DA
330
1A
100
AcDbEntity
  8
SEIHIN
100
AcDbLine
 10
127.6895125002986
 20
512.7455033192115
 30
0.0
 11
137.3675300421543
 21
513.2617822016901
 31
0.0
  0
LINE
  5
38EC
330
1A
100
AcDbEntity
  8
SEIHIN
100
AcDbLine
 10
141.6895125002986
 20
505.6456861256273
 30
0.0
 11
141.6895125002986
 21
505.0456861256272
 31
0.0
  0
LINE
  5
38ED
330
1A
100
AcDbEntity
  8
SEIHIN
100
AcDbLine
 10
143.6895125002986
 20
505.6456861256273
 30
0.0
 11
143.6895125002986
 21
505.0456861256272
 31
0.0
  0
LINE
  5
38EE
330
1A
100
AcDbEntity
  8
SEIHIN
100
AcDbLine
 10
141.6895125002986
 20
507.6456861256273
 30
0.0
 11
141.6895125002986
 21
505.6456861256273
 31
0.0
  0
LINE
  5
38EF
330
1A
100
AcDbEntity
  8
SEIHIN
100
AcDbLine
 10
143.6895125002986
 20
507.6456861256273
 30
0.0
 11
141.6895125002986
 21
507.6456861256273
 31
0.0
  0
LINE
  5
38F0
330
1A
100
AcDbEntity
  8
SEIHIN
100
AcDbLine
 10
143.6895125002986
 20
505.6456861256273
 30
0.0
 11
143.6895125002986
 21
507.6456861256273
 31
0.0
  0
LINE
  5
38F3
330
1A
100
AcDbEntity
  8
SEIHIN
100
AcDbLine
 10
141.6895125002986
 20
500.0456861256273
 30
0.0
 11
143.6895125002986
 21
500.0456861256273
 31
0.0
  0
LINE
  5
38F4
330
1A
100
AcDbEntity
  8
SEIHIN
100
AcDbLine
 10
141.6895125002986
 20
505.0456861256272
 30
0.0
 11
141.6895125002986
 21
500.0456861256273
 31
0.0
  0
LINE
  5
38F5
330
1A
100
AcDbEntity
  8
SEIHIN
100
AcDbLine
 10
143.6895125002986
 20
500.0456861256273
 30
0.0
 11
143.6895125002986
 21
505.0456861256272
 31
0.0
  0
LINE
  5
38FD
330
1A
100
AcDbEntity
  8
SEIHIN
100
AcDbLine
 10
157.6895125002986
 20
510.7870638307537
 30
0.0
 11
159.1895125002986
 21
510.7870638307537
 31
0.0
  0
ARC
  5
3900
330
1A
100
AcDbEntity
  8
SEIHIN
100
AcDbCircle
 10
161.189436353676
 20
508.6333473630315
 30
0.0
 40
0.9999238562778533
100
AcDbArc
 50
89.99563678767918
 51
179.9956361230216
  0
LINE
  5
3905
330
1A
100
AcDbEntity
  8
SEIHIN
100
AcDbLine
 10
158.6895125002991
 20
500.4864447277147
 30
0.0
 11
158.6895125002986
 21
501.3771399661278
 31
0.0
  0
ARC
  5
3907
330
1A
100
AcDbEntity
  8
SEIHIN
100
AcDbCircle
 10
158.6835108219504
 20
499.4924459603907
 30
0.0
 40
0.9940168859654859
100
AcDbArc
 50
89.65405725640509
 51
179.6498284375563
  0
LINE
  5
390C
330
1A
100
AcDbEntity
  8
SEIHIN
100
AcDbLine
 10
158.6895125002986
 20
501.3771399661278
 30
0.0
 11
157.6895125002986
 21
501.3771399661278
 31
0.0
  0
LINE
  5
390E
330
1A
100
AcDbEntity
  8
SEIHIN
100
AcDbLine
 10
159.1895125002986
 20
510.7870638307537
 30
0.0
 11
159.1895125002986
 21
500.4386122900798
 31
0.0
  0
LINE
  5
390F
330
1A
100
AcDbEntity
  8
SEIHIN
100
AcDbLine
 10
160.1895125002986
 20
501.2971893635824
 30
0.0
 11
160.1895125002986
 21
509.5456109867874
 31
0.0
  0
LINE
  5
3912
330
1A
100
AcDbEntity
  8
CENTER_L
 48
10.0
100
AcDbLine
 10
242.6895125002986
 20
374.6907554763873
 30
0.0
 11
242.6895125002986
 21
517.8166437429252
 31
0.0
  0
ELLIPSE
  5
3936
330
1A
100
AcDbEntity
  8
SEIHIN
100
AcDbEllipse
 10
242.6278268688599
 20
388.4528391704371
 30
0.0
 11
0.0186446844688248
 21
0.8038885740394333
 31
0.0
210
0.0
220
0.0
230
1.0
 40
0.9327142905711129
 41
1.594444596803411
 42
3.164331224233584
  0
ELLIPSE
  5
3938
330
1A
100
AcDbEntity
  8
SEIHIN
100
AcDbEllipse
 10
242.7511981317368
 20
388.4528391704371
 30
0.0
 11
-0.0186446844688817
 21
0.8038885740394336
 31
0.0
210
0.0
220
0.0
230
1.0
 40
0.9327142905711113
 41
3.118854082945865
 42
4.688740710376121
  0
ELLIPSE
  5
3962
330
1A
100
AcDbEntity
  8
SEIHIN
100
AcDbEllipse
 10
242.9167970112414
 20
428.148121727147
 30
0.0
 11
0.0696017814090055
 21
0.7502416694298404
 31
0.0
210
0.0
220
0.0
230
1.0
 40
0.9954034692526903
 41
4.805012563288812
 42
5.307768788369065
  0
ELLIPSE
  5
3964
330
1A
100
AcDbEntity
  8
SEIHIN
100
AcDbEllipse
 10
242.4622279893558
 20
428.148121727147
 30
0.0
 11
-0.0696017814090624
 21
0.7502416694298404
 31
0.0
210
0.0
220
0.0
230
1.0
 40
0.9954034692526834
 41
0.9754165188104995
 42
1.478172743890713
  0
SPLINE
  5
3965
330
1A
100
AcDbEntity
  8
SEIHIN
100
AcDbSpline
210
0.0
220
0.0
230
1.0
 70
     8
 71
     3
 72
    10
 73
     6
 74
     0
 42
0.0000000001
 43
0.0000000001
 40
0.0
 40
0.0
 40
0.0
 40
0.0
 40
0.5
 40
0.5
 40
1.0
 40
1.0
 40
1.0
 40
1.0
 10
241.8048970833508
 20
428.5115137888926
 30
0.0
 10
241.8705805009242
 20
428.6315367942585
 30
0.0
 10
241.965295678571
 20
428.729488909522
 30
0.0
 10
242.1912805623676
 20
428.8669149120773
 30
0.0
 10
242.3243381150916
 20
428.9061805058483
 30
0.0
 10
242.4613955419193
 20
428.9061589808733
 30
0.0
  0
SPLINE
  5
396A
330
1A
100
AcDbEntity
  8
SEIHIN
100
AcDbSpline
210
0.0
220
0.0
230
1.0
 70
     8
 71
     3
 72
    10
 73
     6
 74
     0
 42
0.0000000001
 43
0.0000000001
 40
0.0
 40
0.0
 40
0.0
 40
0.0
 40
0.5
 40
0.5
 40
1.0
 40
1.0
 40
1.0
 40
1.0
 10
243.5741279172464
 20
428.5115137888926
 30
0.0
 10
243.508444499673
 20
428.6315367942585
 30
0.0
 10
243.4137293220262
 20
428.729488909522
 30
0.0
 10
243.1877444382296
 20
428.8669149120773
 30
0.0
 10
243.0546868855051
 20
428.9061805058483
 30
0.0
 10
242.9176294586779
 20
428.9061589808733
 30
0.0
  0
SPLINE
  5
3983
330
1A
100
AcDbEntity
  8
SEIHIN
100
AcDbSpline
210
0.0
220
0.0
230
1.0
 70
     8
 71
     3
 72
    14
 73
    10
 74
     0
 42
0.0000000001
 43
0.0000000001
 40
-0.0003065965290517
 40
-0.0003065965290517
 40
-0.0003065965290517
 40
-0.0003065965290517
 40
0.0105918485589193
 40
0.0105918485589193
 40
0.0105918485589193
 40
0.021183697108834
 40
0.021183697108834
 40
0.021183697108834
 40
0.0400060491156648
 40
0.0400060491156648
 40
0.0400060491156648
 40
0.0400060491156648
 10
331.6910727712884
 20
163.6979712800655
 30
0.0
 10
328.536869637531
 20
161.8956539859135
 30
0.0
 10
325.3825794852402
 20
160.0934889833857
 30
0.0
 10
322.2282682391426
 20
158.2913609080177
 30
0.0
 10
319.1626945048194
 20
156.5399305440771
 30
0.0
 10
316.0971007351424
 20
154.7885352475557
 30
0.0
 10
313.0315565274756
 20
153.0370532033579
 30
0.0
 10
307.5839000851644
 20
149.9245642632855
 30
0.0
 10
302.1363957744558
 20
146.8118089125137
 30
0.0
 10
296.6895101116983
 20
143.6979712806063
 30
0.0
  0
SPLINE
  5
3984
330
1A
100
AcDbEntity
  8
SEIHIN
100
AcDbSpline
210
0.0
220
0.0
230
1.0
 70
    24
 71
     1
 72
     4
 73
     2
 74
     0
 42
0.0000000001
 43
0.0000000001
 40
0.0
 40
0.0
 40
1.0
 40
1.0
 10
327.6895133943669
 20
287.5031063596305
 30
0.0
 10
357.6895145864598
 20
287.503106359631
 30
0.0
  0
SPLINE
  5
3985
330
1A
100
AcDbEntity
  8
SEIHIN
100
AcDbSpline
210
0.0
220
0.0
230
1.0
 70
    24
 71
     1
 72
     4
 73
     2
 74
     0
 42
0.0000000001
 43
0.0000000001
 40
0.0
 40
0.0
 40
1.0
 40
1.0
 10
327.6895133943669
 20
287.9889289180336
 30
0.0
 10
337.3599646778218
 20
287.9889289180336
 30
0.0
  0
SPLINE
  5
3988
330
1A
100
AcDbEntity
  8
SEIHIN
100
AcDbSpline
210
0.0
220
0.0
230
1.0
 70
     8
 71
     3
 72
    10
 73
     6
 74
     0
 42
0.0000000001
 43
0.0000000001
 40
0.0
 40
0.0
 40
0.0
 40
0.0
 40
0.2196893959957523
 40
0.8090689427177622
 40
1.0
 40
1.0
 40
1.0
 40
1.0
 10
337.3599125237576
 20
287.9801074306069
 30
0.0
 10
338.127710584383
 20
287.9817489880551
 30
0.0
 10
340.9553462211199
 20
287.9877944921776
 30
0.0
 10
344.4503548786367
 20
287.9589238893842
 30
0.0
 10
347.176997241768
 20
287.9071050875497
 30
0.0
 10
347.8441683740727
 20
287.8944257537425
 30
0.0
  0
SPLINE
  5
39DF
330
1A
100
AcDbEntity
  8
SEIHIN
100
AcDbSpline
210
0.0
220
0.0
230
1.0
 70
     8
 71
     3
 72
     8
 73
     4
 74
     0
 42
0.0000000001
 43
0.0000000001
 40
0.0
 40
0.0
 40
0.0
 40
0.0
 40
1.0
 40
1.0
 40
1.0
 40
1.0
 10
605.2129357458666
 20
253.4983496959317
 30
0.0
 10
604.6473971252712
 20
253.6314343531438
 30
0.0
 10
604.0741342110322
 20
253.6979729095981
 30
0.0
 10
603.493147878849
 20
253.6979729095981
 30
0.0
  0
SPLINE
  5
39E0
330
1A
100
AcDbEntity
  8
SEIHIN
100
AcDbSpline
210
0.0
220
0.0
230
1.0
 70
    24
 71
     3
 72
     8
 73
     4
 74
     0
 42
0.0000000001
 43
0.0000000001
 40
0.0
 40
0.0
 40
0.0
 40
0.0
 40
0.0020000403889958
 40
0.0020000403889958
 40
0.0020000403889958
 40
0.0020000403889958
 10
605.2129357458666
 20
253.4983496959317
 30
0.0
 10
605.2129357458666
 20
253.5034668663259
 30
0.0
 10
605.2129357458666
 20
253.5076766620578
 30
0.0
 10
605.2129357458666
 20
253.5110602275655
 30
0.0
  0
ELLIPSE
  5
39E1
330
1A
100
AcDbEntity
  8
SEIHIN
100
AcDbEllipse
 10
578.5608342417604
 20
234.1021236693265
 30
0.0
 11
31.42701340484336
 21
-2.725569867379874
 31
0.0
210
0.0
220
0.0
230
1.0
 40
0.9985740296180134
 41
6.214226249094671
 42
6.352144365265622
  0
ELLIPSE
  5
39E2
330
1A
100
AcDbEntity
  8
SEIHIN
100
AcDbEllipse
 10
602.7863348613005
 20
246.1979729095979
 30
0.0
 11
-7.510666396026294
 21
0.0
 31
0.0
210
0.0
220
0.0
230
1.0
 40
0.9985798336041209
 41
3.167735429450402
 42
4.712388980384703
  0
SPLINE
  5
39E3
330
1A
100
AcDbEntity
  8
SEIHIN
100
AcDbSpline
210
0.0
220
0.0
230
1.0
 70
    24
 71
     3
 72
     8
 73
     4
 74
     0
 42
0.0000000001
 43
0.0000000001
 40
0.0
 40
0.0
 40
0.0
 40
0.0
 40
1.0
 40
1.0
 40
1.0
 40
1.0
 10
480.9299517908016
 20
287.7899430705287
 30
0.0
 10
480.9299517908016
 20
287.7899430705287
 30
0.0
 10
481.0225246104677
 20
287.7614591260161
 30
0.0
 10
481.207639654975
 20
287.7045006507829
 30
0.0
  0
SPLINE
  5
39E4
330
1A
100
AcDbEntity
  8
SEIHIN
100
AcDbSpline
210
0.0
220
0.0
230
1.0
 70
     8
 71
     3
 72
    27
 73
    23
 74
     0
 42
0.0000000001
 43
0.0000000001
 40
0.0
 40
0.0
 40
0.0
 40
0.0
 40
0.1250000000000027
 40
0.1250000000000027
 40
0.2500000000000055
 40
0.2500000000000055
 40
0.3750000000000082
 40
0.3750000000000082
 40
0.5000000000000111
 40
0.5000000000000111
 40
0.5625000000000089
 40
0.5625000000000089
 40
0.625000000000007
 40
0.6875000000000048
 40
0.6875000000000048
 40
0.7500000000000027
 40
0.7500000000000027
 40
0.8750000000000007
 40
0.8750000000000007
 40
0.9375000000000003
 40
0.9375000000000003
 40
1.0
 40
1.0
 40
1.0
 40
1.0
 10
481.7370514392218
 20
287.5416047171685
 30
0.0
 10
481.3983935036553
 20
287.6458071588812
 30
0.0
 10
481.0543303839563
 20
287.7086229228988
 30
0.0
 10
480.3557801231431
 20
287.7544392949681
 30
0.0
 10
479.9986122371678
 20
287.7360200350257
 30
0.0
 10
479.3093668081446
 20
287.61889664028
 30
0.0
 10
478.9706420509819
 20
287.5200433282421
 30
0.0
 10
478.3210597343436
 20
287.2439377080296
 30
0.0
 10
478.0177050865645
 20
287.0705509858599
 30
0.0
 10
477.5942627472736
 20
286.7584015468904
 30
0.0
 10
477.4575918628125
 20
286.6447386645869
 30
0.0
 10
477.2005015949885
 20
286.4038841988969
 30
0.0
 10
476.9594828414333
 20
286.1498301840878
 30
0.0
 10
476.7498180233219
 20
285.8700251539106
 30
0.0
 10
476.5560854713648
 20
285.5771349392163
 30
0.0
 10
476.4667712813229
 20
285.4231535984021
 30
0.0
 10
476.2294306179114
 20
284.9520042048235
 30
0.0
 10
476.1097293030843
 20
284.6238483411019
 30
0.0
 10
475.9879757792019
 20
284.110526583573
 30
0.0
 10
475.9571608520237
 20
283.935346217058
 30
0.0
 10
475.9166757229581
 20
283.5847133189393
 30
0.0
 10
475.9067558397041
 20
283.4084752640606
 30
0.0
 10
475.9072774882092
 20
283.2313049924283
 30
0.0
  0
SPLINE
  5
39E7
330
1A
100
AcDbEntity
  8
SEIHIN
100
AcDbSpline
210
0.0
220
0.0
230
1.0
 70
    24
 71
     3
 72
     8
 73
     4
 74
     0
 42
0.0000000001
 43
0.0000000001
 40
0.0
 40
0.0
 40
0.0
 40
0.0
 40
0.0099331328244991
 40
0.0099331328244991
 40
0.0099331328244991
 40
0.0099331328244991
 10
481.207639654975
 20
287.7045006507829
 30
0.0
 10
481.3841057443601
 20
287.6502033925106
 30
0.0
 10
481.5605763364897
 20
287.5959047487784
 30
0.0
 10
481.7370514392218
 20
287.5416047171685
 30
0.0
  0
SPLINE
  5
39FC
330
1A
100
AcDbEntity
  8
SEIHIN
100
AcDbSpline
210
0.0
220
0.0
230
1.0
 70
     8
 71
     3
 72
    18
 73
    14
 74
     0
 42
0.0000000001
 43
0.0000000001
 40
0.0
 40
0.0
 40
0.0
 40
0.0
 40
0.2499999999999986
 40
0.2499999999999986
 40
0.374999999999999
 40
0.374999999999999
 40
0.4999999999999995
 40
0.4999999999999995
 40
0.625
 40
0.625
 40
0.7500000000000002
 40
0.7500000000000002
 40
1.0
 40
1.0
 40
1.0
 40
1.0
 10
594.480910512138
 20
165.5395266449783
 30
0.0
 10
595.2283317888913
 20
165.5736374008851
 30
0.0
 10
595.9498966061073
 20
165.7325156207358
 30
0.0
 10
596.9879425025906
 20
166.1566778381933
 30
0.0
 10
597.3169320806095
 20
166.3257314544895
 30
0.0
 10
597.9421861489131
 20
166.717015828615
 30
0.0
 10
598.2393289212859
 20
166.9400371968507
 30
0.0
 10
598.7955932894442
 20
167.4385628708574
 30
0.0
 10
599.0485386687173
 20
167.7082569946582
 30
0.0
 10
599.5059261959418
 20
168.2869905834951
 30
0.0
 10
599.7112035916452
 20
168.5975904141615
 30
0.0
 10
600.2451531431079
 20
169.5813328647872
 30
0.0
 10
600.4814574107349
 20
170.2787037368083
 30
0.0
 10
600.5973838568284
 20
171.0178656543649
 30
0.0
  0
SPLINE
  5
3A0D
330
1A
100
AcDbEntity
  8
SEIHIN
100
AcDbSpline
210
0.0
220
0.0
230
1.0
 70
     8
 71
     3
 72
    18
 73
    14
 74
     0
 42
0.0000000001
 43
0.0000000001
 40
0.0
 40
0.0
 40
0.0
 40
0.0
 40
0.2500000000000017
 40
0.2500000000000017
 40
0.3750000000000025
 40
0.3750000000000025
 40
0.5000000000000034
 40
0.5000000000000034
 40
0.6250000000000043
 40
0.6250000000000043
 40
0.750000000000005
 40
0.750000000000005
 40
1.0
 40
1.0
 40
1.0
 40
1.0
 10
497.5968235946143
 20
167.5338014404677
 30
0.0
 10
497.6178168881656
 20
167.2938348964297
 30
0.0
 10
497.6808307232627
 20
167.0632572448518
 30
0.0
 10
497.8360103805466
 20
166.7382867902423
 30
0.0
 10
497.8967367928158
 20
166.6360326097636
 30
0.0
 10
498.035644127056
 20
166.4432951801605
 30
0.0
 10
498.1146600380193
 20
166.352050621591
 30
0.0
 10
498.2870982684231
 20
166.1860029041132
 30
0.0
 10
498.3797488207492
 20
166.1116205037002
 30
0.0
 10
498.5776543592542
 20
165.9797913717983
 30
0.0
 10
498.6840799377419
 20
165.9219197570647
 30
0.0
 10
499.0129029112895
 20
165.7798642866179
 30
0.0
 10
499.2474513256852
 20
165.7249793812933
 30
0.0
 10
499.4880435645332
 20
165.7131179461281
 30
0.0
  0
SPLINE
  5
3A19
330
1A
100
AcDbEntity
  8
SEIHIN
100
AcDbSpline
210
0.0
220
0.0
230
1.0
 70
     8
 71
     3
 72
    12
 73
     8
 74
     0
 42
0.0000000001
 43
0.0000000001
 40
0.0
 40
0.0
 40
0.0
 40
0.0
 40
0.25
 40
0.25
 40
0.5
 40
0.5
 40
1.0
 40
1.0
 40
1.0
 40
1.0
 10
481.3779765794238
 20
181.5922910512773
 30
0.0
 10
481.3908301780161
 20
181.4698579422741
 30
0.0
 10
481.4256378744853
 20
181.3524817275853
 30
0.0
 10
481.5368153605772
 20
181.1340373608244
 30
0.0
 10
481.6118901494815
 20
181.036240448337
 30
0.0
 10
481.8840652073072
 20
180.791046516571
 30
0.0
 10
482.1248855887707
 20
180.6979729095984
 30
0.0
 10
482.3710993918571
 20
180.6979729095984
 30
0.0
  0
ELLIPSE
  5
3A1B
330
1A
100
AcDbEntity
  8
SEIHIN
100
AcDbEllipse
 10
495.5275283955306
 20
179.6965516972983
 30
0.0
 11
0.6773571470544085
 21
0.739202364050243
 31
0.0
210
0.0
220
0.0
230
1.0
 40
0.9973938040639044
 41
5.542717871020452
 42
7.023652743338776
  0
SPLINE
  5
3A1C
330
1A
100
AcDbEntity
  8
SEIHIN
100
AcDbSpline
210
0.0
220
0.0
230
1.0
 70
    24
 71
     3
 72
    10
 73
     6
 74
     0
 42
0.0000000001
 43
0.0000000001
 40
0.0
 40
0.0
 40
0.0
 40
0.0
 40
0.5
 40
0.5
 40
1.0
 40
1.0
 40
1.0
 40
1.0
 10
510.6570501982587
 20
145.065437392118
 30
0.0
 10
510.6570501982587
 20
145.065437392118
 30
0.0
 10
510.6246953810623
 20
145.1624882058291
 30
0.0
 10
510.4959983508824
 20
145.5485250492873
 30
0.0
 10
510.4021333598398
 20
145.8300804573847
 30
0.0
 10
510.2797308337939
 20
146.1972364416382
 30
0.0
  0
SPLINE
  5
3A1E
330
1A
100
AcDbEntity
  8
SEIHIN
100
AcDbSpline
210
0.0
220
0.0
230
1.0
 70
    24
 71
     3
 72
    14
 73
    10
 74
     0
 42
0.0000000001
 43
0.0000000001
 40
0.0
 40
0.0
 40
0.0
 40
0.0
 40
0.0167917359981235
 40
0.0167917359981235
 40
0.0167917359981235
 40
0.0274124745758063
 40
0.0274124745758063
 40
0.0274124745758063
 40
0.0352765250260288
 40
0.0352765250260288
 40
0.0352765250260288
 40
0.0352765250260288
 10
510.2797308337939
 20
146.1972364416379
 30
0.0
 10
509.3358866973117
 20
149.0283710113702
 30
0.0
 10
508.3919685057231
 20
151.8597277152072
 30
0.0
 10
507.4479825732942
 20
154.6912876130112
 30
0.0
 10
506.8509134068067
 20
156.4822434418673
 30
0.0
 10
506.253817125143
 20
158.2732806048221
 30
0.0
 10
505.6566951885147
 20
160.0643947218574
 30
0.0
 10
505.2145604913398
 20
161.3906124491985
 30
0.0
 10
504.7724117262728
 20
162.7168723742867
 30
0.0
 10
504.330249451656
 20
164.0431728223303
 30
0.0
  0
SPLINE
  5
3A20
330
1A
100
AcDbEntity
  8
SEIHIN
100
AcDbSpline
210
0.0
220
0.0
230
1.0
 70
    24
 71
     3
 72
    10
 73
     6
 74
     0
 42
0.0000000001
 43
0.0000000001
 40
0.0
 40
0.0
 40
0.0
 40
0.0
 40
0.5
 40
0.5
 40
1.0
 40
1.0
 40
1.0
 40
1.0
 10
607.3671245969567
 20
143.6979729095979
 30
0.0
 10
591.5652432212523
 20
143.6979729095979
 30
0.0
 10
575.7631439870583
 20
143.6979729095979
 30
0.0
 10
544.1586374982339
 20
143.6979729095979
 30
0.0
 10
528.3564433437618
 20
143.6979729095979
 30
0.0
 10
512.5543901306709
 20
143.6979729095979
 30
0.0
  0
LINE
  5
3A34
330
1A
100
AcDbEntity
  8
SEIHIN
100
AcDbLine
 10
348.0114949584426
 20
163.9818103450445
 30
0.0
 11
357.6895125002988
 21
164.4979712806101
 31
0.0
  0
LINE
  5
3A35
330
1A
100
AcDbEntity
  8
SEIHIN
100
AcDbLine
 10
348.01149351312
 20
163.9818100521863
 30
0.0
 11
357.6895145864614
 21
164.4979713747801
 31
0.0
  0
ARC
  5
3A38
330
1A
100
AcDbEntity
  8
SEIHIN
100
AcDbCircle
 10
594.8661929319896
 20
171.2632526879521
 30
0.0
 40
6.500000000000014
100
AcDbArc
 50
272.6501992013983
 51
351.0866255524889
  0
ARC
  5
3A3A
330
1A
100
AcDbEntity
  8
SEIHIN
100
AcDbCircle
 10
503.3815794854499
 20
163.7269050635903
 30
0.0
 40
1.00000000000001
100
AcDbArc
 50
18.43736420259112
 51
87.40516691460923
  0
ARC
  5
3A3B
330
1A
100
AcDbEntity
  8
SEIHIN
100
AcDbCircle
 10
548.8129357458665
 20
1166.197972909609
 30
0.0
 40
1002.5
100
AcDbArc
 50
267.1377363174461
 51
272.6501992013983
  0
LINE
  5
3A3E
330
1A
100
AcDbEntity
  8
CENTER_L
 48
10.0
100
AcDbLine
 10
562.0129357458665
 20
171.6499241968914
 30
0.0
 11
562.0129357458665
 21
96.55475600405601
 31
0.0
  0
LINE
  5
3A3F
330
1A
100
AcDbEntity
  8
CENTER_L
 48
10.0
100
AcDbLine
 10
242.6895125002995
 20
90.69520961318039
 30
0.0
 11
242.6895125002981
 21
298.1596154338739
 31
0.0
  0
LINE
  5
3A42
330
1A
100
AcDbEntity
  8
SEIHIN
100
AcDbLine
 10
610.8996564158028
 20
233.4792082736252
 30
0.0
 11
609.3668199872698
 21
145.6630680967234
 31
0.0
  0
LINE
  5
3A43
330
1A
100
AcDbEntity
  8
CENTER_L
 48
10.0
100
AcDbLine
 10
548.812935745866
 20
155.7760657144687
 30
0.0
 11
548.8129357458663
 21
176.821848850068
 31
0.0
  0
LINE
  5
3A46
330
1A
100
AcDbEntity
  8
SEIHIN
100
AcDbLine
 10
294.0330242903364
 20
143.6979713181548
 30
0.0
 11
242.6895125002991
 21
143.6979713181541
 31
0.0
  0
LINE
  5
3A4E
330
1A
100
AcDbEntity
  8
SEIHIN
100
AcDbLine
 10
296.6895101116983
 20
143.6979712806065
 30
0.0
 11
276.1299604659088
 21
143.6979712805972
 31
0.0
  0
LINE
  5
3A4F
330
1A
100
AcDbEntity
  8
SEIHIN
100
AcDbLine
 10
337.3599663752147
 20
163.6979712806098
 30
0.0
 11
331.6910727722406
 21
163.6979712806096
 31
0.0
  0
LINE
  5
3A50
330
1A
100
AcDbEntity
  8
SEIHIN
100
AcDbLine
 10
337.3599646778234
 20
163.6979708711205
 30
0.0
 11
332.2221784086355
 21
163.6979708711205
 31
0.0
  0
ARC
  5
3A51
330
1A
100
AcDbEntity
  8
SEIHIN
100
AcDbCircle
 10
337.3599698962503
 20
363.6977024359025
 30
0.0
 40
199.9997315647819
100
AcDbArc
 50
269.999998505024
 51
273.0528851914026
  0
ARC
  5
3A58
330
1A
100
AcDbEntity
  8
SEIHIN
100
AcDbCircle
 10
512.5543901306709
 20
145.6979729095979
 30
0.0
 40
2.0
100
AcDbArc
 50
198.437364202588
 51
270.0
  0
ARC
  5
3A69
330
1A
100
AcDbEntity
  8
SEIHIN
100
AcDbCircle
 10
607.3671245969567
 20
145.6979729095979
 30
0.0
 40
2.000000000000026
100
AcDbArc
 50
270.0
 51
358.9999999999998
  0
LINE
  5
3A71
330
1A
100
AcDbEntity
  8
SEIHIN
100
AcDbLine
 10
242.6895125002986
 20
179.8979729095981
 30
0.0
 11
357.6895145864611
 21
179.8979729095995
 31
0.0
  0
LINE
  5
3A72
330
1A
100
AcDbEntity
  8
SEIHIN
100
AcDbLine
 10
242.6895125002988
 20
164.4979712635165
 30
0.0
 11
357.6895145864614
 21
164.497971263518
 31
0.0
  0
LINE
  5
3A73
330
1A
100
AcDbEntity
  8
SEIHIN
100
AcDbLine
 10
357.6895145864614
 20
164.497971263518
 30
0.0
 11
357.6895145864597
 21
287.503106359631
 31
0.0
  0
LINE
  5
3A74
330
1A
100
AcDbEntity
  8
SEIHIN
100
AcDbLine
 10
327.6895133943669
 20
287.9889289180336
 30
0.0
 11
327.6895133943669
 21
287.5187078754006
 31
0.0
  0
LINE
  5
3A89
330
1A
100
AcDbEntity
  8
SEIHIN
100
AcDbLine
 10
241.9161035861673
 20
404.5591945314225
 30
0.0
 11
242.666095517485
 21
404.5591945314225
 31
0.0
  0
ARC
  5
3A8A
330
1A
100
AcDbEntity
  8
SEIHIN
100
AcDbCircle
 10
242.634182484901
 20
408.7075328934369
 30
0.0
 40
0.8327533350728897
100
AcDbArc
 50
89.04242683295269
 51
174.1076155647167
  0
ARC
  5
3A8B
330
1A
100
AcDbEntity
  8
SEIHIN
100
AcDbCircle
 10
242.6008532820075
 20
409.4576736630895
 30
0.0
 40
0.7999525749060006
100
AcDbArc
 50
89.34048905130701
 51
176.2188573217788
  0
LINE
  5
3AD4
330
1A
100
AcDbEntity
  8
SEIHIN
100
AcDbLine
 10
242.7129294831118
 20
404.5591945314225
 30
0.0
 11
242.666095517485
 21
404.5591945314225
 31
0.0
  0
LINE
  5
3AD5
330
1A
100
AcDbEntity
  8
SEIHIN
100
AcDbLine
 10
243.4629214144294
 20
404.5591945314225
 30
0.0
 11
242.7129294831118
 21
404.5591945314225
 31
0.0
  0
LINE
  5
3AD9
330
1A
100
AcDbEntity
  8
SEIHIN
100
AcDbLine
 10
242.6480994807659
 20
409.5401699297866
 30
0.0
 11
242.7309255198308
 21
409.5401699297866
 31
0.0
  0
LINE
  5
3ADC
330
1A
100
AcDbEntity
  8
SEIHIN
100
AcDbLine
 10
242.7689639578095
 20
410.257573243812
 30
0.0
 11
242.6100610427872
 21
410.257573243812
 31
0.0
  0
ARC
  5
3ADD
330
1A
100
AcDbEntity
  8
SEIHIN
100
AcDbCircle
 10
242.7448425156961
 20
408.7075328934369
 30
0.0
 40
0.8327533350728744
100
AcDbArc
 50
5.892384435283255
 51
90.95757316704732
  0
ARC
  5
3ADE
330
1A
100
AcDbEntity
  8
SEIHIN
100
AcDbCircle
 10
242.7781717185897
 20
409.4576736630895
 30
0.0
 40
0.7999525749060209
100
AcDbArc
 50
3.781142678221156
 51
90.65951094869298
  0
LINE
  5
3B08
330
1A
100
AcDbEntity
  8
SEIHIN
100
AcDbLine
 10
242.6262348780644
 20
387.6487630163707
 30
0.0
 11
242.7527901225328
 21
387.6487630163707
 31
0.0
  0
LINE
  5
3B28
330
1A
100
AcDbEntity
  8
SEIHIN
100
AcDbLine
 10
241.8777972834889
 20
388.4512156694768
 30
0.0
 11
241.7121984039847
 21
428.1485276023871
 31
0.0
  0
LINE
  5
3B36
330
1A
100
AcDbEntity
  8
SEIHIN
100
AcDbLine
 10
242.5505152026598
 20
416.9381312222206
 30
0.0
 11
242.7674905026651
 21
416.9381312222206
 31
0.0
  0
LINE
  5
3B39
330
1A
100
AcDbEntity
  8
SEIHIN
100
AcDbLine
 10
242.8669541826736
 20
421.8938911543506
 30
0.0
 11
242.5120708179235
 21
421.8938911543506
 31
0.0
  0
LINE
  5
3B41
330
1A
100
AcDbEntity
  8
SEIHIN
100
AcDbLine
 10
243.5012277171078
 20
388.4512156694768
 30
0.0
 11
243.666826596612
 21
428.1485276023871
 31
0.0
  0
ARC
  5
3B6B
330
1A
100
AcDbEntity
  8
SEIHIN
100
AcDbCircle
 10
548.8129357458665
 20
1166.197972909609
 30
0.0
 40
999.9999999999998
100
AcDbArc
 50
267.2627870055292
 51
272.603208532357
  0
ARC
  5
3B6C
330
1A
100
AcDbEntity
  8
SEIHIN
100
AcDbCircle
 10
548.8129357458665
 20
1166.197972909609
 30
0.0
 40
1001.699999999999
100
AcDbArc
 50
267.1775467011537
 51
272.6130473052283
  0
ARC
  5
3B6E
330
1A
100
AcDbEntity
  8
SEIHIN
100
AcDbCircle
 10
1477.602935596246
 20
286.180631861352
 30
0.0
 40
1002.500000000735
100
AcDbArc
 50
180.1545319757815
 51
186.034366747886
  0
ARC
  5
3B6F
330
1A
100
AcDbEntity
  8
SEIHIN
100
AcDbCircle
 10
1477.602935596246
 20
286.180631861352
 30
0.0
 40
1000.000000000735
100
AcDbArc
 50
180.1244759618915
 51
185.9053573538217
  0
ARC
  5
3B71
330
1A
100
AcDbEntity
  8
SEIHIN
100
AcDbCircle
 10
1477.602935596246
 20
286.180631861352
 30
0.0
 40
1001.700000000735
100
AcDbArc
 50
180.1686974405004
 51
185.9932237402488
  0
LINE
  5
3B72
330
1A
100
AcDbEntity
  8
SEIHIN
100
AcDbLine
 10
491.1542553772301
 20
191.8979729095982
 30
0.0
 11
502.1264441516619
 21
191.8979729095982
 31
0.0
  0
ARC
  5
3B75
330
1A
100
AcDbEntity
  8
SEIHIN
100
AcDbCircle
 10
501.1532371717053
 20
169.3366219024502
 30
0.0
 40
1.999999999999998
100
AcDbArc
 50
184.9997491441042
 51
267.2627870055292
  0
ARC
  5
3B76
330
1A
100
AcDbEntity
  8
SEIHIN
100
AcDbCircle
 10
491.1542553772301
 20
186.8979729095982
 30
0.0
 40
5.00000000000017
100
AcDbArc
 50
90.0
 51
168.6900675259778
  0
LINE
  5
3B7A
330
1A
100
AcDbEntity
  8
SEIHIN
100
AcDbLine
 10
486.1948833633264
 20
187.5962104080423
 30
0.0
 11
486.2513519987755
 21
187.878553585289
 31
0.0
  0
ARC
  5
3B87
330
1A
100
AcDbEntity
  8
SEIHIN
100
AcDbCircle
 10
498.8528185462778
 20
166.9461344377447
 30
0.0
 40
2.00000000000017
100
AcDbArc
 50
184.9997491441009
 51
267.1377363174461
  0
ARC
  5
3B88
330
1A
100
AcDbEntity
  8
SEIHIN
100
AcDbCircle
 10
497.0866005445786
 20
181.397972909598
 30
0.0
 40
1.000000000000111
100
AcDbArc
 50
4.999749144102615
 51
90.0
  0
LINE
  5
3B89
330
1A
100
AcDbEntity
  8
SEIHIN
100
AcDbLine
 10
496.5249124452966
 20
179.786419801234
 30
0.0
 11
497.5968235946143
 21
167.5338014404677
 31
0.0
  0
LINE
  5
3B8B
330
1A
100
AcDbEntity
  8
SEIHIN
100
AcDbLine
 10
499.1608470123597
 20
169.1623191401582
 30
0.0
 11
498.0827956242515
 21
181.485124290744
 31
0.0
  0
ARC
  5
3B90
330
1A
100
AcDbEntity
  8
SEIHIN
100
AcDbCircle
 10
483.9044274861266
 20
183.397972909598
 30
0.0
 40
1.000000000000143
100
AcDbArc
 50
185.9053573538234
 51
270.0
  0
ARC
  5
3B91
330
1A
100
AcDbEntity
  8
SEIHIN
100
AcDbCircle
 10
481.6522281184502
 20
180.8979729095982
 30
0.0
 40
1.000000000000233
100
AcDbArc
 50
186.034366747886
 51
269.999999999987
  0
LINE
  5
3B93
330
1A
100
AcDbEntity
  8
SEIHIN
100
AcDbLine
 10
494.7957625413591
 20
179.897972909598
 30
0.0
 11
481.6522281184502
 21
179.897972909598
 31
0.0
  0
LINE
  5
3B95
330
1A
100
AcDbEntity
  8
SEIHIN
100
AcDbLine
 10
482.3710993918571
 20
180.6979729095984
 30
0.0
 11
495.530131161021
 21
180.6979729095984
 31
0.0
  0
ARC
  5
3B97
330
1A
100
AcDbEntity
  8
SEIHIN
100
AcDbCircle
 10
494.7957625413591
 20
178.897972909598
 30
0.0
 40
1.0
100
AcDbArc
 50
4.999749144102615
 51
90.0
  0
LINE
  5
3B9E
330
1A
100
AcDbEntity
  8
SEIHIN
100
AcDbLine
 10
496.8604283869321
 20
166.7718316754525
 30
0.0
 11
495.7919576210319
 21
178.985124290744
 31
0.0
  0
LINE
  5
3BA0
330
1A
100
AcDbEntity
  8
SEIHIN
100
AcDbLine
 10
497.0866005445786
 20
182.397972909598
 30
0.0
 11
483.9044274861266
 21
182.397972909598
 31
0.0
  0
ARC
  5
3BA7
330
1A
100
AcDbEntity
  8
SEIHIN
100
AcDbCircle
 10
502.1264441516619
 20
186.8979729095982
 30
0.0
 40
5.0
100
AcDbArc
 50
4.999749144104238
 51
90.0
  0
ARC
  5
3BAB
330
1A
100
AcDbEntity
  8
SEIHIN
100
AcDbCircle
 10
509.7620310114288
 20
171.464201069415
 30
0.0
 40
4.999999999999962
100
AcDbArc
 50
18.43736420258494
 51
82.44822013173097
  0
ARC
  5
3BAD
330
1A
100
AcDbEntity
  8
SEIHIN
100
AcDbCircle
 10
505.3789739835415
 20
165.635619375612
 30
0.0
 40
2.000000000000011
100
AcDbArc
 50
46.34357376880138
 51
87.51436498146505
  0
ARC
  5
3BB0
330
1A
100
AcDbEntity
  8
SEIHIN
100
AcDbCircle
 10
548.8129357458665
 20
1166.193334335437
 30
0.0
 40
999.4999999999997
100
AcDbArc
 50
267.1876860111048
 51
267.5143649814649
  0
ARC
  5
3BB2
330
1A
100
AcDbEntity
  8
SEIHIN
100
AcDbCircle
 10
510.8134081030698
 20
179.39481303894
 30
0.0
 40
3.000000000000028
100
AcDbArc
 50
184.9997491441042
 51
262.4482201317309
  0
LINE
  5
3BB7
330
1A
100
AcDbEntity
  8
SEIHIN
100
AcDbLine
 10
514.5053808424595
 20
173.0455398631146
 30
0.0
 11
516.615374324941
 21
166.7164487989613
 31
0.0
  0
LINE
  5
3BB9
330
1A
100
AcDbEntity
  8
SEIHIN
100
AcDbLine
 10
507.1074195500255
 20
187.3337298153286
 30
0.0
 11
507.8248228640509
 21
179.1333588955018
 31
0.0
  0
LINE
  5
3BBF
330
1A
100
AcDbEntity
  8
SEIHIN
100
AcDbLine
 10
484.2499786702851
 20
284.6758624139589
 30
0.0
 11
480.1934624839628
 21
285.9240212405198
 31
0.0
  0
ARC
  5
3BC0
330
1A
100
AcDbEntity
  8
SEIHIN
100
AcDbCircle
 10
479.6065654710328
 20
283.4889375312799
 30
0.0
 40
4.500000000000023
100
AcDbArc
 50
72.89727103094619
 51
180.1545319757832
  0
ARC
  5
3BC1
330
1A
100
AcDbEntity
  8
SEIHIN
100
AcDbCircle
 10
479.6052907862876
 20
284.0124632230757
 30
0.0
 40
2.000000000000146
100
AcDbArc
 50
72.89727103094667
 51
180.1244759618898
  0
ARC
  5
3BC2
330
1A
100
AcDbEntity
  8
SEIHIN
100
AcDbCircle
 10
490.1029357458664
 20
287.0031132092204
 30
0.0
 40
0.5000000000000342
100
AcDbArc
 50
0.0
 51
114.999999999992
  0
LINE
  5
3BC3
330
1A
100
AcDbEntity
  8
SEIHIN
100
AcDbLine
 10
489.8916266149963
 20
287.4562671027389
 30
0.0
 11
487.4578134419047
 21
286.3213613816079
 31
0.0
  0
LINE
  5
3BC4
330
1A
100
AcDbEntity
  8
SEIHIN
100
AcDbLine
 10
486.0244052207486
 20
286.2224189382374
 30
0.0
 11
481.7370514392218
 21
287.5416047171685
 31
0.0
  0
LINE
  5
3BC5
330
1A
100
AcDbEntity
  8
SEIHIN
100
AcDbLine
 10
486.0047829440618
 20
282.8853573355248
 30
0.0
 11
489.448172269348
 21
284.4910361479147
 31
0.0
  0
LINE
  5
3BC6
330
1A
100
AcDbEntity
  8
SEIHIN
100
AcDbLine
 10
484.6029357458665
 20
282.6979729095979
 30
0.0
 11
484.6029357458665
 21
284.1979729095979
 31
0.0
  0
LINE
  5
3BC7
330
1A
100
AcDbEntity
  8
SEIHIN
100
AcDbLine
 10
484.6029357458665
 20
282.6979729095979
 30
0.0
 11
485.1595464205806
 21
282.6979729095979
 31
0.0
  0
ARC
  5
3BC8
330
1A
100
AcDbEntity
  8
SEIHIN
100
AcDbCircle
 10
484.1029357458665
 20
284.1979729095979
 30
0.0
 40
0.5000000000000011
100
AcDbArc
 50
0.0
 51
72.89727103094667
  0
ARC
  5
3BC9
330
1A
100
AcDbEntity
  8
SEIHIN
100
AcDbCircle
 10
485.1595464205806
 20
284.6979729095979
 30
0.0
 40
2.0
100
AcDbArc
 50
270.0
 51
295.0000000000059
  0
ARC
  5
3BCA
330
1A
100
AcDbEntity
  8
SEIHIN
100
AcDbCircle
 10
486.6125769184236
 20
288.1339769556813
 30
0.0
 40
2.000000000000058
100
AcDbArc
 50
252.8972710309466
 51
295.0000000000059
  0
LINE
  5
3BCB
330
1A
100
AcDbEntity
  8
SEIHIN
100
AcDbLine
 10
490.6029357458664
 20
286.3036517219881
 30
0.0
 11
490.6029357458664
 21
287.0031132092204
 31
0.0
  0
ARC
  5
3BCC
330
1A
100
AcDbEntity
  8
SEIHIN
100
AcDbCircle
 10
488.6029357458665
 20
286.3036517219881
 30
0.0
 40
2.000000000000074
100
AcDbArc
 50
295.0000000000059
 51
0.0
  0
LINE
  5
3BCD
330
1A
100
AcDbEntity
  8
SEIHIN
100
AcDbLine
 10
611.1129357458662
 20
245.697972909598
 30
0.0
 11
610.8996564158028
 21
233.4792082736252
 31
0.0
  0
LINE
  5
3BCE
330
1A
100
AcDbEntity
  8
SEIHIN
100
AcDbLine
 10
608.6129357458672
 20
245.7197899730464
 30
0.0
 11
608.3662374210543
 21
231.5864525162067
 31
0.0
  0
LINE
  5
3BCF
330
1A
100
AcDbEntity
  8
SEIHIN
100
AcDbLine
 10
610.1006900025026
 20
233.5454039102293
 30
0.0
 11
610.3127529394505
 21
245.6944814312929
 31
0.0
  0
DIMENSION
  5
3BD2
330
1A
100
AcDbEntity
  8
SUNPOU
100
AcDbDimension
  2
*D0
 10
631.1129357458662
 20
251.1979729095981
 30
0.0
 11
631.1129357458662
 21
207.341520979976
 31
0.0
 70
   160
  3
STANDARD
100
AcDbAlignedDimension
 13
548.812935745866
 23
166.1979729096102
 33
0.0
 14
608.6129357458662
 24
251.1979729095981
 34
0.0
 50
90.0
100
AcDbRotatedDimension
  0
LINE
  5
3BD3
330
1A
100
AcDbEntity
  8
SEIHIN
100
AcDbLine
 10
610.5240513588674
 20
229.1483175851896
 30
0.0
 11
601.2876971451069
 21
170.2561361897661
 31
0.0
  0
LINE
  5
3BD5
330
1A
100
AcDbEntity
  8
SEIHIN
100
AcDbLine
 10
608.3543134509928
 20
231.448963922923
 30
0.0
 11
598.9443895863669
 21
171.450080128811
 31
0.0
  0
LINE
  5
3BD6
330
1A
100
AcDbEntity
  8
SEIHIN
100
AcDbLine
 10
600.5973838568284
 20
171.0178656543649
 30
0.0
 11
609.725618002507
 21
229.2206596015995
 31
0.0
  0
ARC
  5
3BD8
330
1A
100
AcDbEntity
  8
SEIHIN
100
AcDbCircle
 10
602.8078168852475
 20
191.1979729095979
 30
0.0
 40
5.0
100
AcDbArc
 50
90.0
 51
175.0000000000005
  0
LINE
  5
3BDB
330
1A
100
AcDbEntity
  8
SEIHIN
100
AcDbLine
 10
602.8078168852475
 20
196.1979729095979
 30
0.0
 11
602.8078168852475
 21
196.0837890607127
 31
0.0
  0
LINE
  5
3BDC
330
1A
100
AcDbEntity
  8
SEIHIN
100
AcDbLine
 10
602.8078168852475
 20
196.1979729095979
 30
0.0
 11
602.8257249071412
 21
196.1979729095979
 31
0.0
  0
ARC
  5
3BDF
330
1A
100
AcDbEntity
  8
SEIHIN
100
AcDbCircle
 10
594.004770960892
 20
172.2247851274156
 30
0.0
 40
5.000000000000022
100
AcDbArc
 50
272.603208532357
 51
351.0866255524873
  0
LINE
  5
3BE1
330
1A
100
AcDbEntity
  8
SEIHIN
100
AcDbLine
 10
595.7178102633001
 20
167.5273926221626
 30
0.0
 11
597.8268433947891
 21
191.6337516233362
 31
0.0
  0
ARC
  5
3BE3
330
1A
100
AcDbEntity
  8
SEIHIN
100
AcDbCircle
 10
579.4044540183768
 20
234.0289590763997
 30
0.0
 40
31.49999999999996
100
AcDbArc
 50
351.0866255524873
 51
359.0000000000014
  0
ARC
  5
3BE8
330
1A
100
AcDbEntity
  8
SEIHIN
100
AcDbCircle
 10
607.3663897258979
 20
231.6039049226441
 30
0.0
 40
1.000000000000071
100
AcDbArc
 50
351.0866255524873
 51
358.9999999999982
  0
ARC
  5
3BED
330
1A
100
AcDbEntity
  8
SEIHIN
100
AcDbCircle
 10
602.6129357458667
 20
251.6979729095979
 30
0.0
 40
5.0
100
AcDbArc
 50
90.0
 51
180.0
  0
ARC
  5
3BEE
330
1A
100
AcDbEntity
  8
SEIHIN
100
AcDbCircle
 10
600.1129357458662
 20
251.1979729095981
 30
0.0
 40
2.499999999999963
100
AcDbArc
 50
90.0
 51
160.7099537806658
  0
LINE
  5
3BEF
330
1A
100
AcDbEntity
  8
SEIHIN
100
AcDbLine
 10
597.6129357458667
 20
251.6979729095979
 30
0.0
 11
597.6129357458667
 21
251.5507785409623
 31
0.0
  0
LINE
  5
3BF0
330
1A
100
AcDbEntity
  8
SEIHIN
100
AcDbLine
 10
603.6129357458348
 20
251.6979729095889
 30
0.0
 11
600.1129357458635
 21
251.6979729095889
 31
0.0
  0
LINE
  5
3BF1
330
1A
100
AcDbEntity
  8
SEIHIN
100
AcDbLine
 10
597.7532898549534
 20
252.0238489714244
 30
0.0
 11
597.7041659167725
 21
251.8834948623372
 31
0.0
  0
LINE
  5
3BF2
330
1A
100
AcDbEntity
  8
SEIHIN
100
AcDbLine
 10
599.6410065676805
 20
251.3631481219541
 30
0.0
 11
598.7826926526017
 21
248.9108226503195
 31
0.0
  0
ARC
  5
3BF3
330
1A
100
AcDbEntity
  8
SEIHIN
100
AcDbCircle
 10
600.1129357458635
 20
251.1979729095888
 30
0.0
 40
0.5
100
AcDbArc
 50
90.0
 51
160.7099537806612
  0
ARC
  5
3BF4
330
1A
100
AcDbEntity
  8
SEIHIN
100
AcDbCircle
 10
603.2129357458666
 20
254.6979729095979
 30
0.0
 40
2.0
100
AcDbArc
 50
0.0
 51
90.0
  0
LINE
  5
3BF5
330
1A
100
AcDbEntity
  8
SEIHIN
100
AcDbLine
 10
603.2129357458666
 20
256.6979729095979
 30
0.0
 11
602.6129357458667
 21
256.6979729095979
 31
0.0
  0
LINE
  5
3BF6
330
1A
100
AcDbEntity
  8
SEIHIN
100
AcDbLine
 10
603.3239830926536
 20
253.6979729095981
 30
0.0
 11
603.493147878849
 21
253.6979729095981
 31
0.0
  0
LINE
  5
3BF7
330
1A
100
AcDbEntity
  8
SEIHIN
100
AcDbLine
 10
602.7863348613005
 20
253.6979729095979
 30
0.0
 11
600.1129357458662
 21
253.6979729095979
 31
0.0
  0
LINE
  5
3BF8
330
1A
100
AcDbEntity
  8
SEIHIN
100
AcDbLine
 10
602.7863348613005
 20
253.6979729095979
 30
0.0
 11
603.3239830926536
 21
253.6979729095979
 31
0.0
  0
LINE
  5
3BF9
330
1A
100
AcDbEntity
  8
SEIHIN
100
AcDbLine
 10
605.2129357458666
 20
253.4983496959317
 30
0.0
 11
605.2129357458666
 21
254.6979729095979
 31
0.0
  0
LINE
  5
3BFD
330
1A
100
AcDbEntity
  8
SEIHIN
100
AcDbLine
 10
611.0947017787171
 20
246.394300021907
 30
0.0
 11
611.1129357458662
 21
245.697972909598
 31
0.0
  0
LINE
  5
3C00
330
1A
100
AcDbEntity
  8
SEIHIN
100
AcDbLine
 10
608.6129357458348
 20
246.6979729095888
 30
0.0
 11
608.6129357458672
 21
245.7197899730464
 31
0.0
  0
LINE
  5
3C03
330
1A
100
AcDbEntity
  8
SEIHIN
100
AcDbLine
 10
610.3127529394505
 20
245.6944814312929
 30
0.0
 11
610.2944348408164
 21
246.3940213953877
 31
0.0
  0
ARC
  5
3C05
330
1A
100
AcDbEntity
  8
SEIHIN
100
AcDbCircle
 10
603.5972718414004
 20
246.1979729095979
 30
0.0
 40
7.500000000000045
100
AcDbArc
 50
1.499999999999567
 51
77.55972228337957
  0
ARC
  5
3C07
330
1A
100
AcDbEntity
  8
SEIHIN
100
AcDbCircle
 10
603.6129357458348
 20
246.6979729095888
 30
0.0
 40
5.0
100
AcDbArc
 50
0.0
 51
90.0
  0
ARC
  5
3C08
330
1A
100
AcDbEntity
  8
SEIHIN
100
AcDbCircle
 10
600.0638118076854
 20
251.057618800511
 30
0.0
 40
2.5
100
AcDbArc
 50
160.7099537806643
 51
239.1729947478537
  0
TEXT
  5
43A6
330
1A
100
AcDbEntity
  8
SUNPOU
100
AcDbText
 10
653.0889569735879
 20
61.63776031331804
 30
0.0
 40
6.0
  1
※b　エルボの差込み寸法を示す
100
AcDbText
  0
POINT
  5
45DA
330
1A
100
AcDbEntity
  8
SEIHIN
100
AcDbPoint
 10
124.8689082077869
 20
155.7067798249939
 30
0.0
  0
LINE
  5
4A80
330
1A
100
AcDbEntity
  8
ZUWAKU
100
AcDbLine
 10
7.199999999999931
 20
558.3999999999999
 30
0.0
 11
7.199999999999931
 21
7.200000000000045
 31
0.0
  0
LINE
  5
4A81
330
1A
100
AcDbEntity
  8
ZUWAKU
100
AcDbLine
 10
7.199999999999931
 20
7.200000000000045
 30
0.0
 11
804.3999999999998
 21
7.200000000000068
 31
0.0
  0
LINE
  5
4A82
330
1A
100
AcDbEntity
  8
ZUWAKU
100
AcDbLine
 10
804.3999999999998
 20
7.200000000000068
 30
0.0
 11
804.4
 21
558.3999999999999
 31
0.0
  0
LINE
  5
4A83
330
1A
100
AcDbEntity
  8
ZUWAKU
100
AcDbLine
 10
804.4
 20
558.3999999999999
 30
0.0
 11
7.199999999999931
 21
558.3999999999999
 31
0.0
  0
LINE
  5
4A84
330
1A
100
AcDbEntity
  8
ZUWAKU
100
AcDbLine
 10
7.599999999999909
 20
558.0
 30
0.0
 11
7.599999999999909
 21
7.600000000000022
 31
0.0
  0
LINE
  5
4A85
330
1A
100
AcDbEntity
  8
ZUWAKU
100
AcDbLine
 10
7.599999999999909
 20
7.600000000000022
 30
0.0
 11
804.0000000000002
 21
7.600000000000068
 31
0.0
  0
LINE
  5
4A86
330
1A
100
AcDbEntity
  8
ZUWAKU
100
AcDbLine
 10
804.0000000000002
 20
7.600000000000068
 30
0.0
 11
804.0
 21
558.0
 31
0.0
  0
LINE
  5
4A87
330
1A
100
AcDbEntity
  8
ZUWAKU
100
AcDbLine
 10
804.0
 20
558.0
 30
0.0
 11
7.599999999999909
 21
558.0
 31
0.0
  0
LINE
  5
4A88
330
1A
100
AcDbEntity
  8
ZUWAKU
100
AcDbLine
 10
7.0
 20
558.6
 30
0.0
 11
7.0
 21
7.0
 31
0.0
  0
LINE
  5
4A89
330
1A
100
AcDbEntity
  8
ZUWAKU
100
AcDbLine
 10
7.0
 20
7.0
 30
0.0
 11
804.5999999999999
 21
7.000000000000067
 31
0.0
  0
LINE
  5
4A8A
330
1A
100
AcDbEntity
  8
ZUWAKU
100
AcDbLine
 10
804.5999999999999
 20
7.000000000000067
 30
0.0
 11
804.5999999999999
 21
558.6000000000001
 31
0.0
  0
LINE
  5
4A8B
330
1A
100
AcDbEntity
  8
ZUWAKU
100
AcDbLine
 10
804.5999999999999
 20
558.6000000000001
 30
0.0
 11
7.0
 21
558.6
 31
0.0
  0
LINE
  5
4A8C
330
1A
100
AcDbEntity
  8
ZUWAKU
100
AcDbLine
 10
7.399999999999977
 20
558.1999999999999
 30
0.0
 11
7.399999999999977
 21
7.40000000000009
 31
0.0
  0
LINE
  5
4A8D
330
1A
100
AcDbEntity
  8
ZUWAKU
100
AcDbLine
 10
7.399999999999977
 20
7.40000000000009
 30
0.0
 11
804.1999999999999
 21
7.400000000000067
 31
0.0
  0
LINE
  5
4A8E
330
1A
100
AcDbEntity
  8
ZUWAKU
100
AcDbLine
 10
804.1999999999999
 20
7.400000000000067
 30
0.0
 11
804.1999999999999
 21
558.1999999999999
 31
0.0
  0
LINE
  5
4A8F
330
1A
100
AcDbEntity
  8
ZUWAKU
100
AcDbLine
 10
804.1999999999999
 20
558.1999999999999
 30
0.0
 11
7.399999999999977
 21
558.1999999999999
 31
0.0
  0
LINE
  5
4A90
330
1A
100
AcDbEntity
  8
ZUWAKU
100
AcDbLine
 10
7.799999999999954
 20
557.7999999999999
 30
0.0
 11
7.799999999999954
 21
7.800000000000068
 31
0.0
  0
LINE
  5
4A91
330
1A
100
AcDbEntity
  8
ZUWAKU
100
AcDbLine
 10
7.799999999999954
 20
7.800000000000068
 30
0.0
 11
803.7999999999996
 21
7.800000000000068
 31
0.0
  0
LINE
  5
4A92
330
1A
100
AcDbEntity
  8
ZUWAKU
100
AcDbLine
 10
803.7999999999996
 20
7.800000000000068
 30
0.0
 11
803.7999999999996
 21
557.7999999999999
 31
0.0
  0
LINE
  5
4A93
330
1A
100
AcDbEntity
  8
ZUWAKU
100
AcDbLine
 10
803.7999999999996
 20
557.7999999999999
 30
0.0
 11
7.799999999999954
 21
557.7999999999999
 31
0.0
  0
LINE
  5
4A94
330
1A
100
AcDbEntity
  8
ZUWAKU
100
AcDbLine
 10
18.3124041652195
 20
27.78565985933534
 30
0.0
 11
20.75655229544577
 21
30.2298079895616
 31
0.0
  0
LINE
  5
4A95
330
1A
100
AcDbEntity
  8
ZUWAKU
100
AcDbLine
 10
18.29221215478116
 20
26.86744223679011
 30
0.0
 11
21.67476991799111
 21
30.25
 31
0.0
  0
LINE
  5
4A96
330
1A
100
AcDbEntity
  8
ZUWAKU
100
AcDbLine
 10
18.29221215478122
 20
25.96941662468316
 30
0.0
 11
22.572795530098
 21
30.25
 31
0.0
  0
LINE
  5
4A97
330
1A
100
AcDbEntity
  8
ZUWAKU
100
AcDbLine
 10
18.32576790427953
 20
25.10494676207457
 30
0.0
 11
23.47082114220495
 21
30.25
 31
0.0
  0
LINE
  5
4A98
330
1A
100
AcDbEntity
  8
ZUWAKU
100
AcDbLine
 10
18.48757986652759
 20
24.36873311221575
 30
0.0
 11
21.09467880395129
 21
26.9758320496395
 31
0.0
  0
LINE
  5
4A99
330
1A
100
AcDbEntity
  8
ZUWAKU
100
AcDbLine
 10
21.56638010514171
 20
27.44753335082993
 30
0.0
 11
24.36884675431184
 21
30.25
 31
0.0
  0
LINE
  5
4A9A
330
1A
100
AcDbEntity
  8
ZUWAKU
100
AcDbLine
 10
18.74827316225969
 20
23.73140079584089
 30
0.0
 11
21.09221215478112
 21
26.07533978836233
 31
0.0
  0
LINE
  5
4A9B
330
1A
100
AcDbEntity
  8
ZUWAKU
100
AcDbLine
 10
22.46687236641867
 20
27.44999999999993
 30
0.0
 11
25.03065325502001
 21
30.01378088860127
 31
0.0
  0
LINE
  5
4A9C
330
1A
100
AcDbEntity
  8
ZUWAKU
100
AcDbLine
 10
19.08873376852216
 20
23.17383578999641
 30
0.0
 11
21.15037045521842
 21
25.23547247669273
 31
0.0
  0
LINE
  5
4A9D
330
1A
100
AcDbEntity
  8
ZUWAKU
100
AcDbLine
 10
23.36489797852562
 20
27.44999999999993
 30
0.0
 11
25.1172121547811
 21
29.20231417625541
 31
0.0
  0
LINE
  5
4A9E
330
1A
100
AcDbEntity
  8
ZUWAKU
100
AcDbLine
 10
19.50020169307373
 20
22.68727810244121
 30
0.0
 11
21.4802673365063
 21
24.66734374587378
 31
0.0
  0
LINE
  5
4A9F
330
1A
100
AcDbEntity
  8
ZUWAKU
100
AcDbLine
 10
24.26292359063257
 20
27.45000000000004
 30
0.0
 11
25.1172121547811
 21
28.30428856414852
 31
0.0
  0
LINE
  5
4AA0
330
1A
100
AcDbEntity
  8
ZUWAKU
100
AcDbLine
 10
19.94913118509907
 20
22.2381819823596
 30
0.0
 11
21.92903017242144
 21
24.21808096968197
 31
0.0
  0
LINE
  5
4AA1
330
1A
100
AcDbEntity
  8
ZUWAKU
100
AcDbLine
 10
20.39814399115261
 20
21.78916917630619
 30
0.0
 11
22.37804297847492
 21
23.7690681636285
 31
0.0
  0
LINE
  5
4AA2
330
1A
100
AcDbEntity
  8
ZUWAKU
100
AcDbLine
 10
20.84715679720608
 20
21.34015637025271
 30
0.0
 11
22.82705578452839
 21
23.32005535757502
 31
0.0
  0
LINE
  5
4AA3
330
1A
100
AcDbEntity
  8
ZUWAKU
100
AcDbLine
 10
21.2961696032595
 20
20.89114356419929
 30
0.0
 11
23.27606859058181
 21
22.87104255152161
 31
0.0
  0
LINE
  5
4AA4
330
1A
100
AcDbEntity
  8
ZUWAKU
100
AcDbLine
 10
28.06165070120334
 20
27.65662466214314
 30
0.0
 11
30.33558749263784
 21
29.93056145357764
 31
0.0
  0
LINE
  5
4AA5
330
1A
100
AcDbEntity
  8
ZUWAKU
100
AcDbLine
 10
21.74518240931297
 20
20.44213075814582
 30
0.0
 11
23.72508139663529
 21
22.42202974546813
 31
0.0
  0
LINE
  5
4AA6
330
1A
100
AcDbEntity
  8
ZUWAKU
100
AcDbLine
 10
27.76218726893756
 20
26.45913561777035
 30
0.0
 11
31.53307653701057
 21
30.23002488584342
 31
0.0
  0
LINE
  5
4AA7
330
1A
100
AcDbEntity
  8
ZUWAKU
100
AcDbLine
 10
18.88616407680081
 20
16.68508681352671
 30
0.0
 11
19.08212534125442
 21
16.88104807798032
 31
0.0
  0
LINE
  5
4AA8
330
1A
100
AcDbEntity
  8
ZUWAKU
100
AcDbLine
 10
27.7422121547811
 20
25.541134891507
 30
0.0
 11
32.45107726327393
 21
30.24999999999983
 31
0.0
  0
LINE
  5
4AA9
330
1A
100
AcDbEntity
  8
ZUWAKU
100
AcDbLine
 10
22.19419521536644
 20
19.99311795209234
 30
0.0
 11
24.17409420268876
 21
21.97301693941466
 31
0.0
  0
LINE
  5
4AAA
330
1A
100
AcDbEntity
  8
ZUWAKU
100
AcDbLine
 10
18.81721215478114
 20
15.71810927940015
 30
0.0
 11
20.04910287538092
 21
16.94999999999998
 31
0.0
  0
LINE
  5
4AAB
330
1A
100
AcDbEntity
  8
ZUWAKU
100
AcDbLine
 10
27.7422121547811
 20
24.64310927940016
 30
0.0
 11
33.34910287538099
 21
30.25000000000005
 31
0.0
  0
LINE
  5
4AAC
330
1A
100
AcDbEntity
  8
ZUWAKU
100
AcDbLine
 10
22.62045004367109
 20
19.52134716829016
 30
0.0
 11
24.61559872234352
 21
21.51649584696258
 31
0.0
  0
LINE
  5
4AAD
330
1A
100
AcDbEntity
  8
ZUWAKU
100
AcDbLine
 10
18.81721215478114
 20
14.82008366729326
 30
0.0
 11
20.94712848748792
 21
16.95000000000004
 31
0.0
  0
LINE
  5
4AAE
330
1A
100
AcDbEntity
  8
ZUWAKU
100
AcDbLine
 10
31.28131378170826
 20
27.28418529422038
 30
0.0
 11
34.15874473986116
 21
30.16161625237328
 31
0.0
  0
LINE
  5
4AAF
330
1A
100
AcDbEntity
  8
ZUWAKU
100
AcDbLine
 10
22.84005306317181
 20
18.84292457568386
 30
0.0
 11
24.99784068718241
 21
21.00071219969453
 31
0.0
  0
LINE
  5
4AB0
330
1A
100
AcDbEntity
  8
ZUWAKU
100
AcDbLine
 10
27.7422121547811
 20
23.74508366729321
 30
0.0
 11
30.70802686056072
 21
26.71089837307283
 31
0.0
  0
LINE
  5
4AB1
330
1A
100
AcDbEntity
  8
ZUWAKU
100
AcDbLine
 10
19.10287997485471
 20
14.20772587525988
 30
0.0
 11
21.84515409959476
 21
16.94999999999993
 31
0.0
  0
LINE
  5
4AB2
330
1A
100
AcDbEntity
  8
ZUWAKU
100
AcDbLine
 10
32.34515409959476
 20
27.44999999999993
 30
0.0
 11
34.39221215478124
 21
29.49705805518641
 31
0.0
  0
LINE
  5
4AB3
330
1A
100
AcDbEntity
  8
ZUWAKU
100
AcDbLine
 10
22.84221215478118
 20
17.94705805518629
 30
0.0
 11
25.30627222185455
 21
20.41111812225966
 31
0.0
  0
LINE
  5
4AB4
330
1A
100
AcDbEntity
  8
ZUWAKU
100
AcDbLine
 10
27.74221215478116
 20
22.84705805518626
 30
0.0
 11
30.54221215478117
 21
25.64705805518633
 31
0.0
  0
LINE
  5
4AB5
330
1A
100
AcDbEntity
  8
ZUWAKU
100
AcDbLine
 10
19.94317971170164
 20
14.14999999999992
 30
0.0
 11
25.52861096589856
 21
19.73543125419683
 31
0.0
  0
LINE
  5
4AB6
330
1A
100
AcDbEntity
  8
ZUWAKU
100
AcDbLine
 10
33.24317971170177
 20
27.45000000000004
 30
0.0
 11
34.39221215478124
 21
28.59903244307952
 31
0.0
  0
LINE
  5
4AB7
330
1A
100
AcDbEntity
  8
ZUWAKU
100
AcDbLine
 10
27.74221215478116
 20
21.94903244307943
 30
0.0
 11
30.54221215478122
 21
24.7490324430795
 31
0.0
  0
LINE
  5
4AB8
330
1A
100
AcDbEntity
  8
ZUWAKU
100
AcDbLine
 10
20.84120532380859
 20
14.14999999999997
 30
0.0
 11
25.63827280222
 21
18.94706747841138
 31
0.0
  0
LINE
  5
4AB9
330
1A
100
AcDbEntity
  8
ZUWAKU
100
AcDbLine
 10
27.74221215478116
 20
21.05100683097248
 30
0.0
 11
30.54221215478117
 21
23.85100683097255
 31
0.0
  0
LINE
  5
4ABA
330
1A
100
AcDbEntity
  8
ZUWAKU
100
AcDbLine
 10
21.73923093591554
 20
14.14999999999992
 30
0.0
 11
25.64221215478124
 21
18.05298121886562
 31
0.0
  0
LINE
  5
4ABB
330
1A
100
AcDbEntity
  8
ZUWAKU
100
AcDbLine
 10
36.84221215478112
 20
29.25298121886555
 30
0.0
 11
37.83923093591556
 21
30.25
 31
0.0
  0
LINE
  5
4ABC
330
1A
100
AcDbEntity
  8
ZUWAKU
100
AcDbLine
 10
27.74221215478116
 20
20.15298121886559
 30
0.0
 11
30.54221215478122
 21
22.9529812188656
 31
0.0
  0
LINE
  5
4ABD
330
1A
100
AcDbEntity
  8
ZUWAKU
100
AcDbLine
 10
22.63725654802243
 20
14.14999999999992
 30
0.0
 11
25.64221215478124
 21
17.15495560675873
 31
0.0
  0
LINE
  5
4ABE
330
1A
100
AcDbEntity
  8
ZUWAKU
100
AcDbLine
 10
36.84221215478117
 20
28.35495560675861
 30
0.0
 11
38.73725654802246
 21
30.24999999999994
 31
0.0
  0
LINE
  5
4ABF
330
1A
100
AcDbEntity
  8
ZUWAKU
100
AcDbLine
 10
27.74221215478116
 20
19.25495560675864
 30
0.0
 11
30.54221215478117
 21
22.05495560675859
 31
0.0
  0
LINE
  5
4AC0
330
1A
100
AcDbEntity
  8
ZUWAKU
100
AcDbLine
 10
31.38912929959031
 20
22.90187275156773
 30
0.0
 11
32.29033940321329
 21
23.80308285519078
 31
0.0
  0
LINE
  5
4AC1
330
1A
100
AcDbEntity
  8
ZUWAKU
100
AcDbLine
 10
23.65621539690539
 20
14.27093323677604
 30
0.0
 11
25.52127891800512
 21
16.13599675787577
 31
0.0
  0
LINE
  5
4AC2
330
1A
100
AcDbEntity
  8
ZUWAKU
100
AcDbLine
 10
36.84221215478112
 20
27.45692999465177
 30
0.0
 11
39.48496204642594
 21
30.09967988629659
 31
0.0
  0
LINE
  5
4AC3
330
1A
100
AcDbEntity
  8
ZUWAKU
100
AcDbLine
 10
27.74221215478104
 20
18.35692999465169
 30
0.0
 11
30.54221215478111
 21
21.15692999465176
 31
0.0
  0
LINE
  5
4AC4
330
1A
100
AcDbEntity
  8
ZUWAKU
100
AcDbLine
 10
31.27071621610946
 20
21.88543405598011
 30
0.0
 11
33.30677809880097
 21
23.92149593867162
 31
0.0
  0
LINE
  5
4AC5
330
1A
100
AcDbEntity
  8
ZUWAKU
100
AcDbLine
 10
27.82142909624969
 20
17.53812132401333
 30
0.0
 11
30.54221215478111
 21
20.25890438254481
 31
0.0
  0
LINE
  5
4AC6
330
1A
100
AcDbEntity
  8
ZUWAKU
100
AcDbLine
 10
36.84221215478112
 20
26.55890438254482
 30
0.0
 11
39.64221215478119
 21
29.35890438254489
 31
0.0
  0
LINE
  5
4AC7
330
1A
100
AcDbEntity
  8
ZUWAKU
100
AcDbLine
 10
31.52676694851777
 20
21.24345917628147
 30
0.0
 11
33.94875297849961
 21
23.66544520626325
 31
0.0
  0
LINE
  5
4AC8
330
1A
100
AcDbEntity
  8
ZUWAKU
100
AcDbLine
 10
28.02256646042434
 20
16.84123307608109
 30
0.0
 11
30.54221215478117
 21
19.36087877043792
 31
0.0
  0
LINE
  5
4AC9
330
1A
100
AcDbEntity
  8
ZUWAKU
100
AcDbLine
 10
36.84221215478117
 20
25.66087877043787
 30
0.0
 11
39.64221215478124
 21
28.46087877043794
 31
0.0
  0
LINE
  5
4ACA
330
1A
100
AcDbEntity
  8
ZUWAKU
100
AcDbLine
 10
31.96472687550749
 20
20.78339349116419
 30
0.0
 11
34.40881866361684
 21
23.22748527927359
 31
0.0
  0
LINE
  5
4ACB
330
1A
100
AcDbEntity
  8
ZUWAKU
100
AcDbLine
 10
28.31388397034902
 20
16.23452497389894
 30
0.0
 11
30.54221215478111
 21
18.46285315833102
 31
0.0
  0
LINE
  5
4ACC
330
1A
100
AcDbEntity
  8
ZUWAKU
100
AcDbLine
 10
36.84221215478112
 20
24.76285315833104
 30
0.0
 11
39.64221215478119
 21
27.5628531583311
 31
0.0
  0
LINE
  5
4ACD
330
1A
100
AcDbEntity
  8
ZUWAKU
100
AcDbLine
 10
32.57887344492763
 20
20.49951444847755
 30
0.0
 11
34.69269770630353
 21
22.61333870985345
 31
0.0
  0
LINE
  5
4ACE
330
1A
100
AcDbEntity
  8
ZUWAKU
100
AcDbLine
 10
28.68090319529204
 20
15.70351858673495
 30
0.0
 11
30.69379000120636
 21
17.71640539264933
 31
0.0
  0
LINE
  5
4ACF
330
1A
100
AcDbEntity
  8
ZUWAKU
100
AcDbLine
 10
42.59136332996144
 20
29.61397872140441
 30
0.0
 11
43.22738460855709
 21
30.25000000000005
 31
0.0
  0
LINE
  5
4AD0
330
1A
100
AcDbEntity
  8
ZUWAKU
100
AcDbLine
 10
33.50384628655735
 20
20.52646167800031
 30
0.0
 11
34.66575047678077
 21
21.68836586822374
 31
0.0
  0
LINE
  5
4AD1
330
1A
100
AcDbEntity
  8
ZUWAKU
100
AcDbLine
 10
36.84221215478117
 20
23.86482754622409
 30
0.0
 11
39.64221215478119
 21
26.66482754622416
 31
0.0
  0
LINE
  5
4AD2
330
1A
100
AcDbEntity
  8
ZUWAKU
100
AcDbLine
 10
29.11734026862183
 20
15.24193004795785
 30
0.0
 11
31.10404095247855
 21
17.22863073181452
 31
0.0
  0
LINE
  5
4AD3
330
1A
100
AcDbEntity
  8
ZUWAKU
100
AcDbLine
 10
42.17688997052755
 20
28.30147974986351
 30
0.0
 11
44.12541022066398
 21
30.25
 31
0.0
  0
LINE
  5
4AD4
330
1A
100
AcDbEntity
  8
ZUWAKU
100
AcDbLine
 10
36.84221215478117
 20
22.9668019341172
 30
0.0
 11
39.64221215478124
 21
25.76680193411721
 31
0.0
  0
LINE
  5
4AD5
330
1A
100
AcDbEntity
  8
ZUWAKU
100
AcDbLine
 10
29.62229523500388
 20
14.84885940223296
 30
0.0
 11
31.73835709349686
 21
16.96492126072593
 31
0.0
  0
LINE
  5
4AD6
330
1A
100
AcDbEntity
  8
ZUWAKU
100
AcDbLine
 10
41.76241661109361
 20
26.98898077832268
 30
0.0
 11
45.00683716376551
 21
30.23340133099458
 31
0.0
  0
LINE
  5
4AD7
330
1A
100
AcDbEntity
  8
ZUWAKU
100
AcDbLine
 10
36.84221215478112
 20
22.06877632201019
 30
0.0
 11
39.64221215478124
 21
24.86877632201032
 31
0.0
  0
LINE
  5
4AD8
330
1A
100
AcDbEntity
  8
ZUWAKU
100
AcDbLine
 10
30.19989851916824
 20
14.52843707429042
 30
0.0
 11
32.62146144487781
 21
16.95000000000004
 31
0.0
  0
LINE
  5
4AD9
330
1A
100
AcDbEntity
  8
ZUWAKU
100
AcDbLine
 10
41.34794325165955
 20
25.67648180678179
 30
0.0
 11
45.40084903633487
 21
29.72938759145711
 31
0.0
  0
LINE
  5
4ADA
330
1A
100
AcDbEntity
  8
ZUWAKU
100
AcDbLine
 10
36.84221215478106
 20
21.1707507099033
 30
0.0
 11
39.66020272548945
 21
23.98874128061169
 31
0.0
  0
LINE
  5
4ADB
330
1A
100
AcDbEntity
  8
ZUWAKU
100
AcDbLine
 10
30.8610327759946
 20
14.29154571900989
 30
0.0
 11
33.51948705698464
 21
16.94999999999993
 31
0.0
  0
LINE
  5
4ADC
330
1A
100
AcDbEntity
  8
ZUWAKU
100
AcDbLine
 10
40.93346989222562
 20
24.3639828352409
 30
0.0
 11
45.02577758453344
 21
28.45629052754873
 31
0.0
  0
LINE
  5
4ADD
330
1A
100
AcDbEntity
  8
ZUWAKU
100
AcDbLine
 10
36.84221215478112
 20
20.27272509779635
 30
0.0
 11
40.16948705698479
 21
23.60000000000002
 31
0.0
  0
LINE
  5
4ADE
330
1A
100
AcDbEntity
  8
ZUWAKU
100
AcDbLine
 10
31.62919329344163
 20
14.16168062434991
 30
0.0
 11
34.2508778711749
 21
16.78336520208318
 31
0.0
  0
LINE
  5
4ADF
330
1A
100
AcDbEntity
  8
ZUWAKU
100
AcDbLine
 10
36.84221215478112
 20
19.37469948568946
 30
0.0
 11
44.61130422509955
 21
27.14379155600784
 31
0.0
  0
LINE
  5
4AE0
330
1A
100
AcDbEntity
  8
ZUWAKU
100
AcDbLine
 10
32.51553828119847
 20
14.14999999999997
 30
0.0
 11
34.39221215478124
 21
16.02667387358269
 31
0.0
  0
LINE
  5
4AE1
330
1A
100
AcDbEntity
  8
ZUWAKU
100
AcDbLine
 10
47.69221215478114
 20
29.32667387358259
 30
0.0
 11
48.61553828119849
 21
30.25
 31
0.0
  0
LINE
  5
4AE2
330
1A
100
AcDbEntity
  8
ZUWAKU
100
AcDbLine
 10
36.84221215478112
 20
18.47667387358256
 30
0.0
 11
44.19683086566538
 21
25.83129258446689
 31
0.0
  0
LINE
  5
4AE3
330
1A
100
AcDbEntity
  8
ZUWAKU
100
AcDbLine
 10
33.41356389330542
 20
14.14999999999992
 30
0.0
 11
34.39221215478124
 21
15.1286482614758
 31
0.0
  0
LINE
  5
4AE4
330
1A
100
AcDbEntity
  8
ZUWAKU
100
AcDbLine
 10
47.69221215478114
 20
28.4286482614757
 30
0.0
 11
49.51356389330545
 21
30.25
 31
0.0
  0
LINE
  5
4AE5
330
1A
100
AcDbEntity
  8
ZUWAKU
100
AcDbLine
 10
36.84221215478112
 20
17.57864826147567
 30
0.0
 11
39.65537133908759
 21
20.39180744578215
 31
0.0
  0
LINE
  5
4AE6
330
1A
100
AcDbEntity
  8
ZUWAKU
100
AcDbLine
 10
40.05040470899899
 20
20.78684081569355
 30
0.0
 11
43.7823575062315
 21
24.518793612926
 31
0.0
  0
LINE
  5
4AE7
330
1A
100
AcDbEntity
  8
ZUWAKU
100
AcDbLine
 10
36.84221215478112
 20
16.68062264936873
 30
0.0
 11
39.64221215478119
 21
19.48062264936879
 31
0.0
  0
LINE
  5
4AE8
330
1A
100
AcDbEntity
  8
ZUWAKU
100
AcDbLine
 10
47.6922121547812
 20
27.53062264936875
 30
0.0
 11
50.29593673228266
 21
30.1343472268702
 31
0.0
  0
LINE
  5
4AE9
330
1A
100
AcDbEntity
  8
ZUWAKU
100
AcDbLine
 10
40.73759007886645
 20
20.57600057345405
 30
0.0
 11
43.36788414679739
 21
23.20629464138499
 31
0.0
  0
LINE
  5
4AEA
330
1A
100
AcDbEntity
  8
ZUWAKU
100
AcDbLine
 10
36.84221215478117
 20
15.78259703726178
 30
0.0
 11
39.64221215478124
 21
18.58259703726185
 31
0.0
  0
LINE
  5
4AEB
330
1A
100
AcDbEntity
  8
ZUWAKU
100
AcDbLine
 10
47.6922121547812
 20
26.63259703726186
 30
0.0
 11
50.4922121547811
 21
29.43259703726175
 31
0.0
  0
LINE
  5
4AEC
330
1A
100
AcDbEntity
  8
ZUWAKU
100
AcDbLine
 10
40.9723888658384
 20
19.91277374831901
 30
0.0
 11
43.10038886583839
 21
22.040773748319
 31
0.0
  0
LINE
  5
4AED
330
1A
100
AcDbEntity
  8
ZUWAKU
100
AcDbLine
 10
36.84221215478112
 20
14.88457142515494
 30
0.0
 11
39.64221215478119
 21
17.68457142515501
 31
0.0
  0
LINE
  5
4AEE
330
1A
100
AcDbEntity
  8
ZUWAKU
100
AcDbLine
 10
47.69221215478114
 20
25.73457142515497
 30
0.0
 11
50.49221215478104
 21
28.53457142515486
 31
0.0
  0
LINE
  5
4AEF
330
1A
100
AcDbEntity
  8
ZUWAKU
100
AcDbLine
 10
41.18791501274393
 20
19.23027428311775
 30
0.0
 11
43.31591501274397
 21
21.35827428311779
 31
0.0
  0
LINE
  5
4AF0
330
1A
100
AcDbEntity
  8
ZUWAKU
100
AcDbLine
 10
37.08681608938445
 20
14.23114974765127
 30
0.0
 11
39.64221215478119
 21
16.78654581304806
 31
0.0
  0
LINE
  5
4AF1
330
1A
100
AcDbEntity
  8
ZUWAKU
100
AcDbLine
 10
47.6922121547812
 20
24.83654581304802
 30
0.0
 11
50.4922121547811
 21
27.63654581304791
 31
0.0
  0
LINE
  5
4AF2
330
1A
100
AcDbEntity
  8
ZUWAKU
100
AcDbLine
 10
41.40344115964956
 20
18.54777481791637
 30
0.0
 11
43.53144115964965
 21
20.67577481791653
 31
0.0
  0
LINE
  5
4AF3
330
1A
100
AcDbEntity
  8
ZUWAKU
100
AcDbLine
 10
37.90369195383999
 20
14.14999999999986
 30
0.0
 11
39.64221215478124
 21
15.88852020094111
 31
0.0
  0
LINE
  5
4AF4
330
1A
100
AcDbEntity
  8
ZUWAKU
100
AcDbLine
 10
47.6922121547812
 20
23.93852020094112
 30
0.0
 11
50.4922121547811
 21
26.73852020094102
 31
0.0
  0
LINE
  5
4AF5
330
1A
100
AcDbEntity
  8
ZUWAKU
100
AcDbLine
 10
41.6189673065553
 20
17.86527535271523
 30
0.0
 11
43.74696730655535
 21
19.99327535271527
 31
0.0
  0
LINE
  5
4AF6
330
1A
100
AcDbEntity
  8
ZUWAKU
100
AcDbLine
 10
38.80171756594683
 20
14.14999999999992
 30
0.0
 11
39.64221215478119
 21
14.99049458883428
 31
0.0
  0
LINE
  5
4AF7
330
1A
100
AcDbEntity
  8
ZUWAKU
100
AcDbLine
 10
52.64552882490256
 20
27.99381125895559
 30
0.0
 11
54.84840089582553
 21
30.19668332987857
 31
0.0
  0
LINE
  5
4AF8
330
1A
100
AcDbEntity
  8
ZUWAKU
100
AcDbLine
 10
41.83449345346093
 20
17.18277588751402
 30
0.0
 11
43.96249345346098
 21
19.31077588751406
 31
0.0
  0
LINE
  5
4AF9
330
1A
100
AcDbEntity
  8
ZUWAKU
100
AcDbLine
 10
47.6922121547812
 20
23.04049458883423
 30
0.0
 11
50.4922121547811
 21
25.84049458883413
 31
0.0
  0
LINE
  5
4AFA
330
1A
100
AcDbEntity
  8
ZUWAKU
100
AcDbLine
 10
42.05001960036662
 20
16.5002764223127
 30
0.0
 11
44.17801960036666
 21
18.6282764223128
 31
0.0
  0
LINE
  5
4AFB
330
1A
100
AcDbEntity
  8
ZUWAKU
100
AcDbLine
 10
52.59221215478112
 20
27.0424689767272
 30
0.0
 11
55.79974317805391
 21
30.25
 31
0.0
  0
LINE
  5
4AFC
330
1A
100
AcDbEntity
  8
ZUWAKU
100
AcDbLine
 10
47.69221215478114
 20
22.14246897672722
 30
0.0
 11
50.4922121547811
 21
24.94246897672724
 31
0.0
  0
LINE
  5
4AFD
330
1A
100
AcDbEntity
  8
ZUWAKU
100
AcDbLine
 10
42.26554574727219
 20
15.81777695711139
 30
0.0
 11
44.39354574727235
 21
17.94577695711154
 31
0.0
  0
LINE
  5
4AFE
330
1A
100
AcDbEntity
  8
ZUWAKU
100
AcDbLine
 10
52.59221215478112
 20
26.14444336462031
 30
0.0
 11
56.6977687901608
 21
30.25
 31
0.0
  0
LINE
  5
4AFF
330
1A
100
AcDbEntity
  8
ZUWAKU
100
AcDbLine
 10
47.69221215478114
 20
21.24444336462033
 30
0.0
 11
50.4922121547811
 21
24.04444336462029
 31
0.0
  0
LINE
  5
4B00
330
1A
100
AcDbEntity
  8
ZUWAKU
100
AcDbLine
 10
42.48107189417794
 20
15.13527749191024
 30
0.0
 11
44.60907189417798
 21
17.26327749191034
 31
0.0
  0
LINE
  5
4B01
330
1A
100
AcDbEntity
  8
ZUWAKU
100
AcDbLine
 10
52.60870854911491
 20
25.26291414684726
 30
0.0
 11
57.5957944022677
 21
30.25
 31
0.0
  0
LINE
  5
4B02
330
1A
100
AcDbEntity
  8
ZUWAKU
100
AcDbLine
 10
47.69221215478109
 20
20.34641775251344
 30
0.0
 11
50.4922121547811
 21
23.14641775251339
 31
0.0
  0
LINE
  5
4B03
330
1A
100
AcDbEntity
  8
ZUWAKU
100
AcDbLine
 10
42.6998313158266
 20
14.45601130145195
 30
0.0
 11
44.82459804108367
 21
16.58077802670902
 31
0.0
  0
LINE
  5
4B04
330
1A
100
AcDbEntity
  8
ZUWAKU
100
AcDbLine
 10
52.74741540820059
 20
24.503595393826
 30
0.0
 11
58.49382001437459
 21
30.25
 31
0.0
  0
LINE
  5
4B05
330
1A
100
AcDbEntity
  8
ZUWAKU
100
AcDbLine
 10
47.69221215478114
 20
19.44839214040649
 30
0.0
 11
50.4922121547811
 21
22.2483921404065
 31
0.0
  0
LINE
  5
4B06
330
1A
100
AcDbEntity
  8
ZUWAKU
100
AcDbLine
 10
43.29184562648151
 20
14.14999999999992
 30
0.0
 11
45.04012418798936
 21
15.89827856150776
 31
0.0
  0
LINE
  5
4B07
330
1A
100
AcDbEntity
  8
ZUWAKU
100
AcDbLine
 10
56.59184562648147
 20
27.44999999999993
 30
0.0
 11
59.25054322298319
 21
30.10869759650165
 31
0.0
  0
LINE
  5
4B08
330
1A
100
AcDbEntity
  8
ZUWAKU
100
AcDbLine
 10
47.69221215478114
 20
18.5503665282996
 30
0.0
 11
50.49221215478116
 21
21.35036652829956
 31
0.0
  0
LINE
  5
4B09
330
1A
100
AcDbEntity
  8
ZUWAKU
100
AcDbLine
 10
52.99079747087057
 20
23.84895184438903
 30
0.0
 11
55.39221215478119
 21
26.25036652829965
 31
0.0
  0
LINE
  5
4B0A
330
1A
100
AcDbEntity
  8
ZUWAKU
100
AcDbLine
 10
44.1898712385884
 20
14.14999999999992
 30
0.0
 11
45.25565033489505
 21
15.2157790963065
 31
0.0
  0
LINE
  5
4B0B
330
1A
100
AcDbEntity
  8
ZUWAKU
100
AcDbLine
 10
57.48987123858848
 20
27.44999999999999
 30
0.0
 11
59.41721215478122
 21
29.37734091619267
 31
0.0
  0
LINE
  5
4B0C
330
1A
100
AcDbEntity
  8
ZUWAKU
100
AcDbLine
 10
47.6922121547812
 20
17.65234091619265
 30
0.0
 11
50.49221215478116
 21
20.45234091619267
 31
0.0
  0
LINE
  5
4B0D
330
1A
100
AcDbEntity
  8
ZUWAKU
100
AcDbLine
 10
53.31663173526732
 20
23.27676049667883
 30
0.0
 11
55.41626601268598
 21
25.37639477409749
 31
0.0
  0
LINE
  5
4B0E
330
1A
100
AcDbEntity
  8
ZUWAKU
100
AcDbLine
 10
45.19955593007011
 20
14.26165907937479
 30
0.0
 11
45.28920829152673
 21
14.35131144083141
 31
0.0
  0
LINE
  5
4B0F
330
1A
100
AcDbEntity
  8
ZUWAKU
100
AcDbLine
 10
58.38789685069537
 20
27.44999999999999
 30
0.0
 11
59.41721215478117
 21
28.47931530408584
 31
0.0
  0
LINE
  5
4B10
330
1A
100
AcDbEntity
  8
ZUWAKU
100
AcDbLine
 10
47.69221215478114
 20
16.75431530408582
 30
0.0
 11
50.4922121547811
 21
19.55431530408577
 31
0.0
  0
LINE
  5
4B11
330
1A
100
AcDbEntity
  8
ZUWAKU
100
AcDbLine
 10
53.71463391408929
 20
22.77673706339396
 30
0.0
 11
55.69860744747126
 21
24.76071059677593
 31
0.0
  0
LINE
  5
4B12
330
1A
100
AcDbEntity
  8
ZUWAKU
100
AcDbLine
 10
47.69221215478114
 20
15.85628969197887
 30
0.0
 11
50.49221215478116
 21
18.65628969197882
 31
0.0
  0
LINE
  5
4B13
330
1A
100
AcDbEntity
  8
ZUWAKU
100
AcDbLine
 10
54.16161781513057
 20
22.32569535232829
 30
0.0
 11
56.14151680245289
 21
24.30559433965061
 31
0.0
  0
LINE
  5
4B14
330
1A
100
AcDbEntity
  8
ZUWAKU
100
AcDbLine
 10
47.6922121547812
 20
14.95826407987198
 30
0.0
 11
50.49221215478116
 21
17.75826407987193
 31
0.0
  0
LINE
  5
4B15
330
1A
100
AcDbEntity
  8
ZUWAKU
100
AcDbLine
 10
62.04221215478117
 20
29.30826407987194
 30
0.0
 11
62.98394807490916
 21
30.24999999999994
 31
0.0
  0
LINE
  5
4B16
330
1A
100
AcDbEntity
  8
ZUWAKU
100
AcDbLine
 10
54.61063062118404
 20
21.87668254627482
 30
0.0
 11
56.59052960850636
 21
23.85658153359713
 31
0.0
  0
LINE
  5
4B17
330
1A
100
AcDbEntity
  8
ZUWAKU
100
AcDbLine
 10
47.89358482487807
 20
14.26161113786202
 30
0.0
 11
50.49221215478116
 21
16.86023846776504
 31
0.0
  0
LINE
  5
4B18
330
1A
100
AcDbEntity
  8
ZUWAKU
100
AcDbLine
 10
62.04221215478117
 20
28.41023846776505
 30
0.0
 11
63.88197368701606
 21
30.25
 31
0.0
  0
LINE
  5
4B19
330
1A
100
AcDbEntity
  8
ZUWAKU
100
AcDbLine
 10
55.05964342723746
 20
21.4276697402214
 30
0.0
 11
57.03954241455978
 21
23.40756872754372
 31
0.0
  0
LINE
  5
4B1A
330
1A
100
AcDbEntity
  8
ZUWAKU
100
AcDbLine
 10
48.67999929912293
 20
14.14999999999992
 30
0.0
 11
50.49221215478116
 21
15.96221285565815
 31
0.0
  0
LINE
  5
4B1B
330
1A
100
AcDbEntity
  8
ZUWAKU
100
AcDbLine
 10
62.04221215478117
 20
27.51221285565816
 30
0.0
 11
64.65603124668229
 21
30.12603194755928
 31
0.0
  0
LINE
  5
4B1C
330
1A
100
AcDbEntity
  8
ZUWAKU
100
AcDbLine
 10
55.50865623329105
 20
20.97865693416798
 30
0.0
 11
57.48855522061319
 21
22.95855592149013
 31
0.0
  0
LINE
  5
4B1D
330
1A
100
AcDbEntity
  8
ZUWAKU
100
AcDbLine
 10
49.57802491122993
 20
14.14999999999997
 30
0.0
 11
50.49221215478116
 21
15.0641872435512
 31
0.0
  0
LINE
  5
4B1E
330
1A
100
AcDbEntity
  8
ZUWAKU
100
AcDbLine
 10
62.04221215478117
 20
26.61418724355121
 30
0.0
 11
64.84221215478118
 21
29.41418724355116
 31
0.0
  0
LINE
  5
4B1F
330
1A
100
AcDbEntity
  8
ZUWAKU
100
AcDbLine
 10
55.95766903934441
 20
20.52964412811445
 30
0.0
 11
57.93756802666667
 21
22.50954311543665
 31
0.0
  0
LINE
  5
4B20
330
1A
100
AcDbEntity
  8
ZUWAKU
100
AcDbLine
 10
56.40668184539788
 20
20.08063132206098
 30
0.0
 11
58.3865808327202
 21
22.06053030938329
 31
0.0
  0
LINE
  5
4B21
330
1A
100
AcDbEntity
  8
ZUWAKU
100
AcDbLine
 10
62.04221215478122
 20
25.71616163144426
 30
0.0
 11
64.84221215478118
 21
28.51616163144427
 31
0.0
  0
LINE
  5
4B22
330
1A
100
AcDbEntity
  8
ZUWAKU
100
AcDbLine
 10
53.11721215478105
 20
15.8931360193373
 30
0.0
 11
54.17407613544378
 21
16.95000000000004
 31
0.0
  0
LINE
  5
4B23
330
1A
100
AcDbEntity
  8
ZUWAKU
100
AcDbLine
 10
62.04221215478117
 20
24.81813601933743
 30
0.0
 11
64.84221215478112
 21
27.61813601933738
 31
0.0
  0
LINE
  5
4B24
330
1A
100
AcDbEntity
  8
ZUWAKU
100
AcDbLine
 10
56.84795674251489
 20
19.62388060707115
 30
0.0
 11
58.83302330403245
 21
21.60894716858871
 31
0.0
  0
LINE
  5
4B25
330
1A
100
AcDbEntity
  8
ZUWAKU
100
AcDbLine
 10
53.1172121547811
 20
14.99511040723035
 30
0.0
 11
55.07210174755073
 21
16.95000000000004
 31
0.0
  0
LINE
  5
4B26
330
1A
100
AcDbEntity
  8
ZUWAKU
100
AcDbLine
 10
62.04221215478122
 20
23.92011040723048
 30
0.0
 11
64.84221215478118
 21
26.72011040723049
 31
0.0
  0
LINE
  5
4B27
330
1A
100
AcDbEntity
  8
ZUWAKU
100
AcDbLine
 10
57.12234157965378
 20
19.00023983210303
 30
0.0
 11
59.22889442196032
 21
21.10679267440963
 31
0.0
  0
LINE
  5
4B28
330
1A
100
AcDbEntity
  8
ZUWAKU
100
AcDbLine
 10
53.29838271278879
 20
14.2782553531311
 30
0.0
 11
55.97012735965762
 21
16.94999999999998
 31
0.0
  0
LINE
  5
4B29
330
1A
100
AcDbEntity
  8
ZUWAKU
100
AcDbLine
 10
68.34221215478113
 20
29.32208479512349
 30
0.0
 11
69.27012735965764
 21
30.25
 31
0.0
  0
LINE
  5
4B2A
330
1A
100
AcDbEntity
  8
ZUWAKU
100
AcDbLine
 10
57.14221215478125
 20
18.12208479512361
 30
0.0
 11
59.55239372682086
 21
20.53226636716323
 31
0.0
  0
LINE
  5
4B2B
330
1A
100
AcDbEntity
  8
ZUWAKU
100
AcDbLine
 10
62.04221215478122
 20
23.02208479512358
 30
0.0
 11
64.84221215478118
 21
25.82208479512354
 31
0.0
  0
LINE
  5
4B2C
330
1A
100
AcDbEntity
  8
ZUWAKU
100
AcDbLine
 10
54.06815297176445
 20
14.14999999999997
 30
0.0
 11
59.79298118373947
 21
19.874828211975
 31
0.0
  0
LINE
  5
4B2D
330
1A
100
AcDbEntity
  8
ZUWAKU
100
AcDbLine
 10
68.34221215478113
 20
28.42405918301659
 30
0.0
 11
70.16815297176447
 21
30.25
 31
0.0
  0
LINE
  5
4B2E
330
1A
100
AcDbEntity
  8
ZUWAKU
100
AcDbLine
 10
62.04221215478117
 20
22.12405918301669
 30
0.0
 11
64.84221215478118
 21
24.92405918301665
 31
0.0
  0
LINE
  5
4B2F
330
1A
100
AcDbEntity
  8
ZUWAKU
100
AcDbLine
 10
54.96617858387145
 20
14.15000000000003
 30
0.0
 11
59.92789355436826
 21
19.11171497049684
 31
0.0
  0
LINE
  5
4B30
330
1A
100
AcDbEntity
  8
ZUWAKU
100
AcDbLine
 10
68.34221215478113
 20
27.5260335709097
 30
0.0
 11
70.94847469994698
 21
30.13229611607556
 31
0.0
  0
LINE
  5
4B31
330
1A
100
AcDbEntity
  8
ZUWAKU
100
AcDbLine
 10
62.04221215478111
 20
21.22603357090969
 30
0.0
 11
64.84221215478118
 21
24.02603357090976
 31
0.0
  0
LINE
  5
4B32
330
1A
100
AcDbEntity
  8
ZUWAKU
100
AcDbLine
 10
55.86420419597828
 20
14.14999999999992
 30
0.0
 11
59.94221215478114
 21
18.22800795880277
 31
0.0
  0
LINE
  5
4B33
330
1A
100
AcDbEntity
  8
ZUWAKU
100
AcDbLine
 10
68.34221215478118
 20
26.62800795880275
 30
0.0
 11
71.14221215478119
 21
29.42800795880282
 31
0.0
  0
LINE
  5
4B34
330
1A
100
AcDbEntity
  8
ZUWAKU
100
AcDbLine
 10
62.04221215478117
 20
20.32800795880274
 30
0.0
 11
64.84221215478124
 21
23.12800795880281
 31
0.0
  0
LINE
  5
4B35
330
1A
100
AcDbEntity
  8
ZUWAKU
100
AcDbLine
 10
56.76222980808524
 20
14.15000000000003
 30
0.0
 11
59.94221215478114
 21
17.32998234669588
 31
0.0
  0
LINE
  5
4B36
330
1A
100
AcDbEntity
  8
ZUWAKU
100
AcDbLine
 10
68.34221215478113
 20
25.72998234669592
 30
0.0
 11
71.14221215478119
 21
28.52998234669593
 31
0.0
  0
LINE
  5
4B37
330
1A
100
AcDbEntity
  8
ZUWAKU
100
AcDbLine
 10
62.04221215478111
 20
19.4299823466959
 30
0.0
 11
64.84221215478118
 21
22.22998234669597
 31
0.0
  0
LINE
  5
4B38
330
1A
100
AcDbEntity
  8
ZUWAKU
100
AcDbLine
 10
57.72065652406894
 20
14.21040110387679
 30
0.0
 11
59.88181105090444
 21
16.37155563071229
 31
0.0
  0
LINE
  5
4B39
330
1A
100
AcDbEntity
  8
ZUWAKU
100
AcDbLine
 10
73.24225886952859
 20
29.73200344933644
 30
0.0
 11
73.76020870544454
 21
30.24995328525233
 31
0.0
  0
LINE
  5
4B3A
330
1A
100
AcDbEntity
  8
ZUWAKU
100
AcDbLine
 10
62.04221215478117
 20
18.53195673458896
 30
0.0
 11
64.84221215478118
 21
21.33195673458903
 31
0.0
  0
LINE
  5
4B3B
330
1A
100
AcDbEntity
  8
ZUWAKU
100
AcDbLine
 10
68.34221215478113
 20
24.83195673458897
 30
0.0
 11
71.14221215478119
 21
27.63195673458904
 31
0.0
  0
LINE
  5
4B3C
330
1A
100
AcDbEntity
  8
ZUWAKU
100
AcDbLine
 10
62.04221215478117
 20
17.63393112248206
 30
0.0
 11
64.84221215478112
 21
20.43393112248202
 31
0.0
  0
LINE
  5
4B3D
330
1A
100
AcDbEntity
  8
ZUWAKU
100
AcDbLine
 10
73.24221215478115
 20
28.83393112248199
 30
0.0
 11
74.65828103229916
 21
30.25
 31
0.0
  0
LINE
  5
4B3E
330
1A
100
AcDbEntity
  8
ZUWAKU
100
AcDbLine
 10
68.34221215478118
 20
23.93393112248202
 30
0.0
 11
71.14221215478124
 21
26.73393112248209
 31
0.0
  0
LINE
  5
4B3F
330
1A
100
AcDbEntity
  8
ZUWAKU
100
AcDbLine
 10
62.04983511912707
 20
16.74352847472101
 30
0.0
 11
64.84221215478118
 21
19.53590551037507
 31
0.0
  0
LINE
  5
4B40
330
1A
100
AcDbEntity
  8
ZUWAKU
100
AcDbLine
 10
73.2422121547811
 20
27.93590551037499
 30
0.0
 11
75.55494865615094
 21
30.24864201174489
 31
0.0
  0
LINE
  5
4B41
330
1A
100
AcDbEntity
  8
ZUWAKU
100
AcDbLine
 10
68.34221215478118
 20
23.03590551037513
 30
0.0
 11
71.14221215478124
 21
25.8359055103752
 31
0.0
  0
LINE
  5
4B42
330
1A
100
AcDbEntity
  8
ZUWAKU
100
AcDbLine
 10
62.20724865408351
 20
16.00291639757057
 30
0.0
 11
64.84221215478112
 21
18.63787989826823
 31
0.0
  0
LINE
  5
4B43
330
1A
100
AcDbEntity
  8
ZUWAKU
100
AcDbLine
 10
73.24221215478104
 20
27.03787989826816
 30
0.0
 11
76.03206300123059
 21
29.82773074471771
 31
0.0
  0
LINE
  5
4B44
330
1A
100
AcDbEntity
  8
ZUWAKU
100
AcDbLine
 10
68.34221215478118
 20
22.13787989826824
 30
0.0
 11
71.14221215478119
 21
24.9378798982683
 31
0.0
  0
LINE
  5
4B45
330
1A
100
AcDbEntity
  8
ZUWAKU
100
AcDbLine
 10
62.50717353251741
 20
15.40481566389757
 30
0.0
 11
64.86857001135604
 21
17.76621214273615
 31
0.0
  0
LINE
  5
4B46
330
1A
100
AcDbEntity
  8
ZUWAKU
100
AcDbLine
 10
73.2422121547811
 20
26.13985428616121
 30
0.0
 11
76.04221215478123
 21
28.93985428616133
 31
0.0
  0
LINE
  5
4B47
330
1A
100
AcDbEntity
  8
ZUWAKU
100
AcDbLine
 10
68.34221215478118
 20
21.23985428616134
 30
0.0
 11
71.14221215478114
 21
24.0398542861613
 31
0.0
  0
LINE
  5
4B48
330
1A
100
AcDbEntity
  8
ZUWAKU
100
AcDbLine
 10
62.91713770774248
 20
14.91675422701564
 30
0.0
 11
65.20580828976529
 21
17.2054248090385
 31
0.0
  0
LINE
  5
4B49
330
1A
100
AcDbEntity
  8
ZUWAKU
100
AcDbLine
 10
73.2422121547811
 20
25.24182867405432
 30
0.0
 11
76.04221215478117
 21
28.04182867405433
 31
0.0
  0
LINE
  5
4B4A
330
1A
100
AcDbEntity
  8
ZUWAKU
100
AcDbLine
 10
68.34221215478118
 20
20.34182867405439
 30
0.0
 11
71.14221215478119
 21
23.14182867405435
 31
0.0
  0
LINE
  5
4B4B
330
1A
100
AcDbEntity
  8
ZUWAKU
100
AcDbLine
 10
63.43039758910754
 20
14.53198849627392
 30
0.0
 11
65.84928687847798
 21
16.95087778564436
 31
0.0
  0
LINE
  5
4B4C
330
1A
100
AcDbEntity
  8
ZUWAKU
100
AcDbLine
 10
73.24221215478104
 20
24.34380306194742
 30
0.0
 11
76.04221215478111
 21
27.14380306194749
 31
0.0
  0
LINE
  5
4B4D
330
1A
100
AcDbEntity
  8
ZUWAKU
100
AcDbLine
 10
68.34221215478106
 20
19.44380306194744
 30
0.0
 11
71.14221215478114
 21
22.24380306194751
 31
0.0
  0
LINE
  5
4B4E
330
1A
100
AcDbEntity
  8
ZUWAKU
100
AcDbLine
 10
64.05838445631769
 20
14.26194975137707
 30
0.0
 11
66.74643470494061
 21
16.95000000000004
 31
0.0
  0
LINE
  5
4B4F
330
1A
100
AcDbEntity
  8
ZUWAKU
100
AcDbLine
 10
73.2422121547811
 20
23.44577744984047
 30
0.0
 11
76.04221215478117
 21
26.24577744984054
 31
0.0
  0
LINE
  5
4B50
330
1A
100
AcDbEntity
  8
ZUWAKU
100
AcDbLine
 10
68.34221215478113
 20
18.5457774498405
 30
0.0
 11
71.14221215478119
 21
21.34577744984056
 31
0.0
  0
LINE
  5
4B51
330
1A
100
AcDbEntity
  8
ZUWAKU
100
AcDbLine
 10
64.84446031704749
 20
14.14999999999992
 30
0.0
 11
67.74905151912827
 21
17.0545912020807
 31
0.0
  0
LINE
  5
4B52
330
1A
100
AcDbEntity
  8
ZUWAKU
100
AcDbLine
 10
73.2422121547811
 20
22.54775183773358
 30
0.0
 11
76.04221215478117
 21
25.34775183773365
 31
0.0
  0
LINE
  5
4B53
330
1A
100
AcDbEntity
  8
ZUWAKU
100
AcDbLine
 10
68.23762095270041
 20
17.54316063565289
 30
0.0
 11
71.14221215478119
 21
20.44775183773367
 31
0.0
  0
LINE
  5
4B54
330
1A
100
AcDbEntity
  8
ZUWAKU
100
AcDbLine
 10
65.74248592915438
 20
14.14999999999992
 30
0.0
 11
71.14221215478119
 21
19.54972622562672
 31
0.0
  0
LINE
  5
4B55
330
1A
100
AcDbEntity
  8
ZUWAKU
100
AcDbLine
 10
73.24221215478115
 20
21.64972622562663
 30
0.0
 11
76.04221215478117
 21
24.4497262256267
 31
0.0
  0
LINE
  5
4B56
330
1A
100
AcDbEntity
  8
ZUWAKU
100
AcDbLine
 10
66.64051154126127
 20
14.14999999999997
 30
0.0
 11
71.14221215478119
 21
18.65170061351983
 31
0.0
  0
LINE
  5
4B57
330
1A
100
AcDbEntity
  8
ZUWAKU
100
AcDbLine
 10
73.24221215478104
 20
20.75170061351968
 30
0.0
 11
76.04221215478117
 21
23.55170061351981
 31
0.0
  0
LINE
  5
4B58
330
1A
100
AcDbEntity
  8
ZUWAKU
100
AcDbLine
 10
67.53853715336822
 20
14.14999999999992
 30
0.0
 11
71.14221215478119
 21
17.75367500141294
 31
0.0
  0
LINE
  5
4B59
330
1A
100
AcDbEntity
  8
ZUWAKU
100
AcDbLine
 10
73.24221215478104
 20
19.85367500141279
 30
0.0
 11
76.04221215478117
 21
22.65367500141292
 31
0.0
  0
LINE
  5
4B5A
330
1A
100
AcDbEntity
  8
ZUWAKU
100
AcDbLine
 10
68.43820885032352
 20
14.15164608484832
 30
0.0
 11
71.14056606993301
 21
16.85400330445776
 31
0.0
  0
LINE
  5
4B5B
330
1A
100
AcDbEntity
  8
ZUWAKU
100
AcDbLine
 10
73.24221215478104
 20
18.95564938930584
 30
0.0
 11
76.04221215478123
 21
21.75564938930597
 31
0.0
  0
LINE
  5
4B5C
330
1A
100
AcDbEntity
  8
ZUWAKU
100
AcDbLine
 10
69.66877701684603
 20
14.484188639264
 30
0.0
 11
70.80802351551728
 21
15.62343513793524
 31
0.0
  0
LINE
  5
4B5D
330
1A
100
AcDbEntity
  8
ZUWAKU
100
AcDbLine
 10
73.24221215478104
 20
18.05762377719895
 30
0.0
 11
76.04221215478111
 21
20.85762377719902
 31
0.0
  0
LINE
  5
4B5E
330
1A
100
AcDbEntity
  8
ZUWAKU
100
AcDbLine
 10
73.24221215478104
 20
17.15959816509206
 30
0.0
 11
76.04221215478111
 21
19.95959816509213
 31
0.0
  0
LINE
  5
4B5F
330
1A
100
AcDbEntity
  8
ZUWAKU
100
AcDbLine
 10
73.2422121547811
 20
16.26157255298511
 30
0.0
 11
76.04221215478111
 21
19.06157255298518
 31
0.0
  0
LINE
  5
4B60
330
1A
100
AcDbEntity
  8
ZUWAKU
100
AcDbLine
 10
73.24221215478104
 20
15.36354694087822
 30
0.0
 11
76.04221215478111
 21
18.16354694087823
 31
0.0
  0
LINE
  5
4B61
330
1A
100
AcDbEntity
  8
ZUWAKU
100
AcDbLine
 10
73.27340971803284
 20
14.49671889202306
 30
0.0
 11
76.04221215478111
 21
17.2655213287714
 31
0.0
  0
LINE
  5
4B62
330
1A
100
AcDbEntity
  8
ZUWAKU
100
AcDbLine
 10
73.82471643811664
 20
14.14999999999997
 30
0.0
 11
76.04221215478117
 21
16.36749571666445
 31
0.0
  0
LINE
  5
4B63
330
1A
100
AcDbEntity
  8
ZUWAKU
100
AcDbLine
 10
74.72274205022358
 20
14.14999999999992
 30
0.0
 11
76.04221215478117
 21
15.46947010455755
 31
0.0
  0
LINE
  5
4B64
330
1A
100
AcDbEntity
  8
ZUWAKU
100
AcDbLine
 10
75.63389943944793
 20
14.16313177711748
 30
0.0
 11
76.02908037766372
 21
14.55831271533327
 31
0.0
  0
LINE
  5
4B65
330
1A
100
AcDbEntity
  8
ZUWAKU
100
AcDbLine
 10
19.65433225651293
 20
14.14999999999997
 30
0.0
 11
18.81721215478103
 21
14.98712010173187
 31
0.0
  0
LINE
  5
4B66
330
1A
100
AcDbEntity
  8
ZUWAKU
100
AcDbLine
 10
20.55235786861982
 20
14.14999999999997
 30
0.0
 11
18.81721215478103
 21
15.88514571383876
 31
0.0
  0
LINE
  5
4B67
330
1A
100
AcDbEntity
  8
ZUWAKU
100
AcDbLine
 10
21.45038348072682
 20
14.14999999999992
 30
0.0
 11
18.89705958590894
 21
16.70332389481785
 31
0.0
  0
LINE
  5
4B68
330
1A
100
AcDbEntity
  8
ZUWAKU
100
AcDbLine
 10
22.34840909283371
 20
14.14999999999992
 30
0.0
 11
19.54840909283376
 21
16.94999999999987
 31
0.0
  0
LINE
  5
4B69
330
1A
100
AcDbEntity
  8
ZUWAKU
100
AcDbLine
 10
23.22073156315281
 20
14.17570314178777
 30
0.0
 11
20.44643470494059
 21
16.94999999999998
 31
0.0
  0
LINE
  5
4B6A
330
1A
100
AcDbEntity
  8
ZUWAKU
100
AcDbLine
 10
23.92614415223874
 20
14.36831616480878
 30
0.0
 11
21.34446031704749
 21
16.94999999999998
 31
0.0
  0
LINE
  5
4B6B
330
1A
100
AcDbEntity
  8
ZUWAKU
100
AcDbLine
 10
24.49940859997155
 20
14.69307732918287
 30
0.0
 11
22.24248592915444
 21
16.95000000000004
 31
0.0
  0
LINE
  5
4B6C
330
1A
100
AcDbEntity
  8
ZUWAKU
100
AcDbLine
 10
24.96563497223843
 20
15.12487656902288
 30
0.0
 11
22.80631312248033
 21
17.28419841878093
 31
0.0
  0
LINE
  5
4B6D
330
1A
100
AcDbEntity
  8
ZUWAKU
100
AcDbLine
 10
25.3277542196202
 20
15.66078293374806
 30
0.0
 11
22.84221215478106
 21
18.14632499858714
 31
0.0
  0
LINE
  5
4B6E
330
1A
100
AcDbEntity
  8
ZUWAKU
100
AcDbLine
 10
25.56969215864905
 20
16.31687060682617
 30
0.0
 11
22.80630051503004
 21
19.08026225044517
 31
0.0
  0
LINE
  5
4B6F
330
1A
100
AcDbEntity
  8
ZUWAKU
100
AcDbLine
 10
25.64221215478119
 20
17.1423762228008
 30
0.0
 11
18.52306736052719
 21
24.2615210170548
 31
0.0
  0
LINE
  5
4B70
330
1A
100
AcDbEntity
  8
ZUWAKU
100
AcDbLine
 10
25.64221215478113
 20
18.04040183490781
 30
0.0
 11
18.29977660220333
 21
25.3828373874856
 31
0.0
  0
LINE
  5
4B71
330
1A
100
AcDbEntity
  8
ZUWAKU
100
AcDbLine
 10
29.90158521424461
 20
14.67905438755127
 30
0.0
 11
28.27126654233222
 21
16.30937305946372
 31
0.0
  0
LINE
  5
4B72
330
1A
100
AcDbEntity
  8
ZUWAKU
100
AcDbLine
 10
25.63848276008894
 20
18.942156841707
 30
0.0
 11
18.29221215478111
 21
26.28842744701484
 31
0.0
  0
LINE
  5
4B73
330
1A
100
AcDbEntity
  8
ZUWAKU
100
AcDbLine
 10
31.27539312684621
 20
14.20327208705663
 30
0.0
 11
27.79548424183764
 21
17.6831809720652
 31
0.0
  0
LINE
  5
4B74
330
1A
100
AcDbEntity
  8
ZUWAKU
100
AcDbLine
 10
25.44658824600372
 20
20.03207696789905
 30
0.0
 11
18.29221215478111
 21
27.18645305912173
 31
0.0
  0
LINE
  5
4B75
330
1A
100
AcDbEntity
  8
ZUWAKU
100
AcDbLine
 10
32.22669082600981
 20
14.14999999999992
 30
0.0
 11
27.74221215478098
 21
18.63447867122869
 31
0.0
  0
LINE
  5
4B76
330
1A
100
AcDbEntity
  8
ZUWAKU
100
AcDbLine
 10
21.15434786291678
 20
25.22234296309295
 30
0.0
 11
18.35185402911025
 21
28.02483679689947
 31
0.0
  0
LINE
  5
4B77
330
1A
100
AcDbEntity
  8
ZUWAKU
100
AcDbLine
 10
33.12471643811676
 20
14.14999999999992
 30
0.0
 11
27.74221215478104
 21
19.53250428333564
 31
0.0
  0
LINE
  5
4B78
330
1A
100
AcDbEntity
  8
ZUWAKU
100
AcDbLine
 10
21.09221215478118
 20
26.1825042833355
 30
0.0
 11
18.58273413140403
 21
28.69198230671264
 31
0.0
  0
LINE
  5
4B79
330
1A
100
AcDbEntity
  8
ZUWAKU
100
AcDbLine
 10
34.00447937028866
 20
14.16826267993497
 30
0.0
 11
27.74221215478104
 21
20.43052989544258
 31
0.0
  0
LINE
  5
4B7A
330
1A
100
AcDbEntity
  8
ZUWAKU
100
AcDbLine
 10
21.110474834716
 20
27.06226721550757
 30
0.0
 11
18.93621533387306
 21
29.23652671635051
 31
0.0
  0
LINE
  5
4B7B
330
1A
100
AcDbEntity
  8
ZUWAKU
100
AcDbLine
 10
34.39221215478113
 20
14.67855550754933
 30
0.0
 11
32.12076766233048
 21
16.94999999999998
 31
0.0
  0
LINE
  5
4B7C
330
1A
100
AcDbEntity
  8
ZUWAKU
100
AcDbLine
 10
21.62076766233048
 20
27.44999999999999
 30
0.0
 11
19.39430814611387
 21
29.67645951621659
 31
0.0
  0
LINE
  5
4B7D
330
1A
100
AcDbEntity
  8
ZUWAKU
100
AcDbLine
 10
30.54221215478105
 20
18.52855550754935
 30
0.0
 11
27.74221215478104
 21
21.32855550754942
 31
0.0
  0
LINE
  5
4B7E
330
1A
100
AcDbEntity
  8
ZUWAKU
100
AcDbLine
 10
34.39221215478113
 20
15.57658111965622
 30
0.0
 11
33.01879327443742
 21
16.94999999999998
 31
0.0
  0
LINE
  5
4B7F
330
1A
100
AcDbEntity
  8
ZUWAKU
100
AcDbLine
 10
22.51879327443737
 20
27.44999999999999
 30
0.0
 11
19.95855480596105
 21
30.01023846847636
 31
0.0
  0
LINE
  5
4B80
330
1A
100
AcDbEntity
  8
ZUWAKU
100
AcDbLine
 10
30.54221215478111
 20
19.4265811196563
 30
0.0
 11
27.74221215478104
 21
22.22658111965637
 31
0.0
  0
LINE
  5
4B81
330
1A
100
AcDbEntity
  8
ZUWAKU
100
AcDbLine
 10
34.38960970594405
 20
16.47720918060025
 30
0.0
 11
33.91942133538134
 21
16.94739755116302
 31
0.0
  0
LINE
  5
4B82
330
1A
100
AcDbEntity
  8
ZUWAKU
100
AcDbLine
 10
23.41681888654437
 20
27.44999999999993
 30
0.0
 11
20.65168961443953
 21
30.21512927210483
 31
0.0
  0
LINE
  5
4B83
330
1A
100
AcDbEntity
  8
ZUWAKU
100
AcDbLine
 10
30.54221215478111
 20
20.32460673176325
 30
0.0
 11
27.74221215478098
 21
23.12460673176337
 31
0.0
  0
LINE
  5
4B84
330
1A
100
AcDbEntity
  8
ZUWAKU
100
AcDbLine
 10
37.61484449865122
 20
14.14999999999992
 30
0.0
 11
36.84221215478101
 21
14.92263234387019
 31
0.0
  0
LINE
  5
4B85
330
1A
100
AcDbEntity
  8
ZUWAKU
100
AcDbLine
 10
24.31484449865121
 20
27.44999999999999
 30
0.0
 11
21.5148444986512
 21
30.24999999999994
 31
0.0
  0
LINE
  5
4B86
330
1A
100
AcDbEntity
  8
ZUWAKU
100
AcDbLine
 10
30.54221215478111
 20
21.22263234387009
 30
0.0
 11
27.74221215478092
 21
24.02263234387021
 31
0.0
  0
LINE
  5
4B87
330
1A
100
AcDbEntity
  8
ZUWAKU
100
AcDbLine
 10
38.51287011075823
 20
14.14999999999986
 30
0.0
 11
36.84221215478101
 21
15.82065795597708
 31
0.0
  0
LINE
  5
4B88
330
1A
100
AcDbEntity
  8
ZUWAKU
100
AcDbLine
 10
25.00817818451071
 20
27.65469192624744
 30
0.0
 11
22.41287011075815
 21
30.25
 31
0.0
  0
LINE
  5
4B89
330
1A
100
AcDbEntity
  8
ZUWAKU
100
AcDbLine
 10
30.54221215478111
 20
22.12065795597703
 30
0.0
 11
27.74221215478098
 21
24.92065795597716
 31
0.0
  0
LINE
  5
4B8A
330
1A
100
AcDbEntity
  8
ZUWAKU
100
AcDbLine
 10
39.35430835351041
 20
14.20658736935467
 30
0.0
 11
36.84221215478106
 21
16.71868356808403
 31
0.0
  0
LINE
  5
4B8B
330
1A
100
AcDbEntity
  8
ZUWAKU
100
AcDbLine
 10
25.11721215478104
 20
28.44368356808405
 30
0.0
 11
23.31089572286504
 21
30.25
 31
0.0
  0
LINE
  5
4B8C
330
1A
100
AcDbEntity
  8
ZUWAKU
100
AcDbLine
 10
33.10711918357492
 20
20.45377653929017
 30
0.0
 11
31.24598869407117
 21
22.31490702879387
 31
0.0
  0
LINE
  5
4B8D
330
1A
100
AcDbEntity
  8
ZUWAKU
100
AcDbLine
 10
30.54221215478111
 20
23.01868356808392
 30
0.0
 11
27.74221215478098
 21
25.81868356808411
 31
0.0
  0
LINE
  5
4B8E
330
1A
100
AcDbEntity
  8
ZUWAKU
100
AcDbLine
 10
39.64221215478113
 20
14.81670918019091
 30
0.0
 11
36.84221215478106
 21
17.61670918019098
 31
0.0
  0
LINE
  5
4B8F
330
1A
100
AcDbEntity
  8
ZUWAKU
100
AcDbLine
 10
25.11721215478104
 20
29.34170918019094
 30
0.0
 11
24.20892133497199
 21
30.25000000000005
 31
0.0
  0
LINE
  5
4B90
330
1A
100
AcDbEntity
  8
ZUWAKU
100
AcDbLine
 10
33.80743862600235
 20
20.65148270896969
 30
0.0
 11
31.44369486375075
 21
23.01522647122129
 31
0.0
  0
LINE
  5
4B91
330
1A
100
AcDbEntity
  8
ZUWAKU
100
AcDbLine
 10
30.54221215478117
 20
23.91670918019087
 30
0.0
 11
27.78831644470625
 21
26.67060489026579
 31
0.0
  0
LINE
  5
4B92
330
1A
100
AcDbEntity
  8
ZUWAKU
100
AcDbLine
 10
39.64221215478108
 20
15.71473479229774
 30
0.0
 11
36.84221215478106
 21
18.51473479229781
 31
0.0
  0
LINE
  5
4B93
330
1A
100
AcDbEntity
  8
ZUWAKU
100
AcDbLine
 10
30.54221215478111
 20
24.81473479229777
 30
0.0
 11
27.9630303176321
 21
27.39391662944678
 31
0.0
  0
LINE
  5
4B94
330
1A
100
AcDbEntity
  8
ZUWAKU
100
AcDbLine
 10
34.30927206813885
 20
21.04767487894002
 30
0.0
 11
31.83988703372108
 21
23.5170599133578
 31
0.0
  0
LINE
  5
4B95
330
1A
100
AcDbEntity
  8
ZUWAKU
100
AcDbLine
 10
39.64221215478113
 20
16.61276040440469
 30
0.0
 11
36.84221215478106
 21
19.41276040440476
 31
0.0
  0
LINE
  5
4B96
330
1A
100
AcDbEntity
  8
ZUWAKU
100
AcDbLine
 10
30.54221215478117
 20
25.71276040440466
 30
0.0
 11
28.23361002484228
 21
28.02136253434355
 31
0.0
  0
LINE
  5
4B97
330
1A
100
AcDbEntity
  8
ZUWAKU
100
AcDbLine
 10
34.64112762743684
 20
21.61384493174898
 30
0.0
 11
32.40605708652998
 21
23.84891547265579
 31
0.0
  0
LINE
  5
4B98
330
1A
100
AcDbEntity
  8
ZUWAKU
100
AcDbLine
 10
42.95266516708795
 20
14.20033300420482
 30
0.0
 11
42.70231099549727
 21
14.4506871757955
 31
0.0
  0
LINE
  5
4B99
330
1A
100
AcDbEntity
  8
ZUWAKU
100
AcDbLine
 10
30.62598374210199
 20
26.52701442919078
 30
0.0
 11
28.58254904580394
 21
28.57044912548883
 31
0.0
  0
LINE
  5
4B9A
330
1A
100
AcDbEntity
  8
ZUWAKU
100
AcDbLine
 10
39.64221215478113
 20
17.51078601651164
 30
0.0
 11
36.84221215478106
 21
20.31078601651165
 31
0.0
  0
LINE
  5
4B9B
330
1A
100
AcDbEntity
  8
ZUWAKU
100
AcDbLine
 10
34.72764128757876
 20
22.42535688371401
 30
0.0
 11
33.21756903849501
 21
23.9354291327977
 31
0.0
  0
LINE
  5
4B9C
330
1A
100
AcDbEntity
  8
ZUWAKU
100
AcDbLine
 10
43.90102378339963
 20
14.14999999999997
 30
0.0
 11
42.28045294157243
 21
15.77057084182718
 31
0.0
  0
LINE
  5
4B9D
330
1A
100
AcDbEntity
  8
ZUWAKU
100
AcDbLine
 10
30.98210531223094
 20
27.06891847116867
 30
0.0
 11
29.00191507181517
 21
29.04910871158444
 31
0.0
  0
LINE
  5
4B9E
330
1A
100
AcDbEntity
  8
ZUWAKU
100
AcDbLine
 10
39.64221215478113
 20
18.40881162861847
 30
0.0
 11
36.84221215478106
 21
21.20881162861854
 31
0.0
  0
LINE
  5
4B9F
330
1A
100
AcDbEntity
  8
ZUWAKU
100
AcDbLine
 10
44.79904939550652
 20
14.15000000000003
 30
0.0
 11
41.86597958213854
 21
17.08306981336801
 31
0.0
  0
LINE
  5
4BA0
330
1A
100
AcDbEntity
  8
ZUWAKU
100
AcDbLine
 10
31.55396150506993
 20
27.39508789043663
 30
0.0
 11
29.48957028042696
 21
29.4594791150796
 31
0.0
  0
LINE
  5
4BA1
330
1A
100
AcDbEntity
  8
ZUWAKU
100
AcDbLine
 10
39.64221215478113
 20
19.30683724072542
 30
0.0
 11
36.84221215478106
 21
22.10683724072549
 31
0.0
  0
LINE
  5
4BA2
330
1A
100
AcDbEntity
  8
ZUWAKU
100
AcDbLine
 10
45.3643794132891
 20
14.48269559432441
 30
0.0
 11
41.45150622270455
 21
18.39556878490895
 31
0.0
  0
LINE
  5
4BA3
330
1A
100
AcDbEntity
  8
ZUWAKU
100
AcDbLine
 10
32.39707500761346
 20
27.44999999999999
 30
0.0
 11
30.0483192557615
 21
29.79875575185195
 31
0.0
  0
LINE
  5
4BA4
330
1A
100
AcDbEntity
  8
ZUWAKU
100
AcDbLine
 10
39.64221215478113
 20
20.20486285283232
 30
0.0
 11
36.84221215478112
 21
23.00486285283239
 31
0.0
  0
LINE
  5
4BA5
330
1A
100
AcDbEntity
  8
ZUWAKU
100
AcDbLine
 10
45.12934055557844
 20
15.61576006414196
 30
0.0
 11
41.03703286327061
 21
19.70806775644979
 31
0.0
  0
LINE
  5
4BA6
330
1A
100
AcDbEntity
  8
ZUWAKU
100
AcDbLine
 10
33.29510061972041
 20
27.44999999999999
 30
0.0
 11
30.68704067159222
 21
30.05805994812817
 31
0.0
  0
LINE
  5
4BA7
330
1A
100
AcDbEntity
  8
ZUWAKU
100
AcDbLine
 10
39.97972107712257
 20
20.76537954259782
 30
0.0
 11
36.84221215478112
 21
23.90288846493928
 31
0.0
  0
LINE
  5
4BA8
330
1A
100
AcDbEntity
  8
ZUWAKU
100
AcDbLine
 10
44.71486719614444
 20
16.92825903568279
 30
0.0
 11
36.84221215478101
 21
24.80091407704628
 31
0.0
  0
LINE
  5
4BA9
330
1A
100
AcDbEntity
  8
ZUWAKU
100
AcDbLine
 10
34.12530545939091
 20
27.51782077243638
 30
0.0
 11
31.42508374117949
 21
30.21804249064774
 31
0.0
  0
LINE
  5
4BAA
330
1A
100
AcDbEntity
  8
ZUWAKU
100
AcDbLine
 10
48.39115184393427
 20
14.14999999999997
 30
0.0
 11
47.69221215478114
 21
14.8489396891531
 31
0.0
  0
LINE
  5
4BAB
330
1A
100
AcDbEntity
  8
ZUWAKU
100
AcDbLine
 10
34.39221215478119
 20
28.14893968915305
 30
0.0
 11
32.2911518439343
 21
30.24999999999994
 31
0.0
  0
LINE
  5
4BAC
330
1A
100
AcDbEntity
  8
ZUWAKU
100
AcDbLine
 10
44.30039383671055
 20
18.24075800722368
 30
0.0
 11
36.84221215478101
 21
25.69893968915318
 31
0.0
  0
LINE
  5
4BAD
330
1A
100
AcDbEntity
  8
ZUWAKU
100
AcDbLine
 10
49.28917745604121
 20
14.14999999999997
 30
0.0
 11
47.69221215478114
 21
15.74696530125999
 31
0.0
  0
LINE
  5
4BAE
330
1A
100
AcDbEntity
  8
ZUWAKU
100
AcDbLine
 10
34.39221215478119
 20
29.04696530126
 30
0.0
 11
33.18917745604113
 21
30.25
 31
0.0
  0
LINE
  5
4BAF
330
1A
100
AcDbEntity
  8
ZUWAKU
100
AcDbLine
 10
43.88592047727661
 20
19.55325697876458
 30
0.0
 11
36.84221215478106
 21
26.59696530126012
 31
0.0
  0
LINE
  5
4BB0
330
1A
100
AcDbEntity
  8
ZUWAKU
100
AcDbLine
 10
50.15316715744865
 20
14.18403591069937
 30
0.0
 11
47.69221215478114
 21
16.64499091336688
 31
0.0
  0
LINE
  5
4BB1
330
1A
100
AcDbEntity
  8
ZUWAKU
100
AcDbLine
 10
39.64221215478113
 20
24.69499091336683
 30
0.0
 11
36.84221215478101
 21
27.49499091336696
 31
0.0
  0
LINE
  5
4BB2
330
1A
100
AcDbEntity
  8
ZUWAKU
100
AcDbLine
 10
43.47144711784255
 20
20.86575595030546
 30
0.0
 11
40.62798862521003
 21
23.70921444293799
 31
0.0
  0
LINE
  5
4BB3
330
1A
100
AcDbEntity
  8
ZUWAKU
100
AcDbLine
 10
50.49221215478104
 20
14.74301652547393
 30
0.0
 11
47.69221215478114
 21
17.54301652547377
 31
0.0
  0
LINE
  5
4BB4
330
1A
100
AcDbEntity
  8
ZUWAKU
100
AcDbLine
 10
39.64221215478119
 20
25.59301652547378
 30
0.0
 11
36.84221215478106
 21
28.39301652547391
 31
0.0
  0
LINE
  5
4BB5
330
1A
100
AcDbEntity
  8
ZUWAKU
100
AcDbLine
 10
43.05697375840856
 20
22.17825492184641
 30
0.0
 11
40.91853612089482
 21
24.31669255936014
 31
0.0
  0
LINE
  5
4BB6
330
1A
100
AcDbEntity
  8
ZUWAKU
100
AcDbLine
 10
50.4922121547811
 20
15.64104213758082
 30
0.0
 11
47.69221215478109
 21
18.44104213758083
 31
0.0
  0
LINE
  5
4BB7
330
1A
100
AcDbEntity
  8
ZUWAKU
100
AcDbLine
 10
39.64221215478119
 20
26.49104213758068
 30
0.0
 11
36.84221215478106
 21
29.29104213758085
 31
0.0
  0
LINE
  5
4BB8
330
1A
100
AcDbEntity
  8
ZUWAKU
100
AcDbLine
 10
43.2620622678005
 20
22.87119202456142
 30
0.0
 11
41.1340622678004
 21
24.99919202456152
 31
0.0
  0
LINE
  5
4BB9
330
1A
100
AcDbEntity
  8
ZUWAKU
100
AcDbLine
 10
50.49221215478104
 20
16.53906774968771
 30
0.0
 11
47.69221215478109
 21
19.33906774968767
 31
0.0
  0
LINE
  5
4BBA
330
1A
100
AcDbEntity
  8
ZUWAKU
100
AcDbLine
 10
39.64221215478119
 20
27.38906774968757
 30
0.0
 11
36.96676722588347
 21
30.06451267858528
 31
0.0
  0
LINE
  5
4BBB
330
1A
100
AcDbEntity
  8
ZUWAKU
100
AcDbLine
 10
43.47758841470619
 20
23.55369148976257
 30
0.0
 11
41.34958841470615
 21
25.68169148976261
 31
0.0
  0
LINE
  5
4BBC
330
1A
100
AcDbEntity
  8
ZUWAKU
100
AcDbLine
 10
53.77930551657579
 20
14.14999999999992
 30
0.0
 11
53.11721215478105
 21
14.81209336179466
 31
0.0
  0
LINE
  5
4BBD
330
1A
100
AcDbEntity
  8
ZUWAKU
100
AcDbLine
 10
39.64221215478113
 20
28.28709336179457
 30
0.0
 11
37.67930551657576
 21
30.24999999999994
 31
0.0
  0
LINE
  5
4BBE
330
1A
100
AcDbEntity
  8
ZUWAKU
100
AcDbLine
 10
50.49221215478098
 20
17.43709336179472
 30
0.0
 11
47.69221215478109
 21
20.23709336179462
 31
0.0
  0
LINE
  5
4BBF
330
1A
100
AcDbEntity
  8
ZUWAKU
100
AcDbLine
 10
43.69311456161176
 20
24.23619095496388
 30
0.0
 11
41.56511456161172
 21
26.36419095496398
 31
0.0
  0
LINE
  5
4BC0
330
1A
100
AcDbEntity
  8
ZUWAKU
100
AcDbLine
 10
54.67733112868273
 20
14.14999999999992
 30
0.0
 11
53.11721215478115
 21
15.7101189739015
 31
0.0
  0
LINE
  5
4BC1
330
1A
100
AcDbEntity
  8
ZUWAKU
100
AcDbLine
 10
39.64221215478113
 20
29.18511897390152
 30
0.0
 11
38.5773311286826
 21
30.25000000000005
 31
0.0
  0
LINE
  5
4BC2
330
1A
100
AcDbEntity
  8
ZUWAKU
100
AcDbLine
 10
50.49221215478098
 20
18.33511897390161
 30
0.0
 11
47.69221215478109
 21
21.13511897390151
 31
0.0
  0
LINE
  5
4BC3
330
1A
100
AcDbEntity
  8
ZUWAKU
100
AcDbLine
 10
43.90864070851757
 20
24.91869042016509
 30
0.0
 11
41.78064070851746
 21
27.04669042016513
 31
0.0
  0
LINE
  5
4BC4
330
1A
100
AcDbEntity
  8
ZUWAKU
100
AcDbLine
 10
55.57535674078962
 20
14.14999999999997
 30
0.0
 11
53.1417450434933
 21
16.5836116972963
 31
0.0
  0
LINE
  5
4BC5
330
1A
100
AcDbEntity
  8
ZUWAKU
100
AcDbLine
 10
44.12416685542313
 20
25.60118988536646
 30
0.0
 11
41.99616685542309
 21
27.7291898853665
 31
0.0
  0
LINE
  5
4BC6
330
1A
100
AcDbEntity
  8
ZUWAKU
100
AcDbLine
 10
50.49221215478104
 20
19.23314458600856
 30
0.0
 11
47.69221215478114
 21
22.03314458600846
 31
0.0
  0
LINE
  5
4BC7
330
1A
100
AcDbEntity
  8
ZUWAKU
100
AcDbLine
 10
56.47338235289652
 20
14.14999999999992
 30
0.0
 11
53.6733823528964
 21
16.95000000000004
 31
0.0
  0
LINE
  5
4BC8
330
1A
100
AcDbEntity
  8
ZUWAKU
100
AcDbLine
 10
44.33969300232883
 20
26.28368935056755
 30
0.0
 11
42.21169300232879
 21
28.41168935056765
 31
0.0
  0
LINE
  5
4BC9
330
1A
100
AcDbEntity
  8
ZUWAKU
100
AcDbLine
 10
50.49221215478098
 20
20.13117019811545
 30
0.0
 11
47.69221215478109
 21
22.93117019811529
 31
0.0
  0
LINE
  5
4BCA
330
1A
100
AcDbEntity
  8
ZUWAKU
100
AcDbLine
 10
57.36271226603157
 20
14.15869569897182
 30
0.0
 11
54.5714079650034
 21
16.94999999999998
 31
0.0
  0
LINE
  5
4BCB
330
1A
100
AcDbEntity
  8
ZUWAKU
100
AcDbLine
 10
44.55521914923446
 20
26.96618881576893
 30
0.0
 11
42.42721914923442
 21
29.09418881576897
 31
0.0
  0
LINE
  5
4BCC
330
1A
100
AcDbEntity
  8
ZUWAKU
100
AcDbLine
 10
50.49221215478104
 20
21.02919581022234
 30
0.0
 11
47.69221215478114
 21
23.82919581022224
 31
0.0
  0
LINE
  5
4BCD
330
1A
100
AcDbEntity
  8
ZUWAKU
100
AcDbLine
 10
58.10038491767904
 20
14.31904865943124
 30
0.0
 11
55.4694335771104
 21
16.94999999999993
 31
0.0
  0
LINE
  5
4BCE
330
1A
100
AcDbEntity
  8
ZUWAKU
100
AcDbLine
 10
44.77074529614021
 20
27.64868828097007
 30
0.0
 11
42.64274529614016
 21
29.77668828097018
 31
0.0
  0
LINE
  5
4BCF
330
1A
100
AcDbEntity
  8
ZUWAKU
100
AcDbLine
 10
50.49221215478104
 20
21.92722142232929
 30
0.0
 11
47.69221215478114
 21
24.72722142232919
 31
0.0
  0
LINE
  5
4BD0
330
1A
100
AcDbEntity
  8
ZUWAKU
100
AcDbLine
 10
58.69646886613941
 20
14.6209903230777
 30
0.0
 11
56.36745918921724
 21
16.94999999999993
 31
0.0
  0
LINE
  5
4BD1
330
1A
100
AcDbEntity
  8
ZUWAKU
100
AcDbLine
 10
44.98627144304584
 20
28.33118774617133
 30
0.0
 11
43.07705587957514
 21
30.24040330964197
 31
0.0
  0
LINE
  5
4BD2
330
1A
100
AcDbEntity
  8
ZUWAKU
100
AcDbLine
 10
50.49221215478098
 20
22.82524703443613
 30
0.0
 11
47.69221215478103
 21
25.62524703443614
 31
0.0
  0
LINE
  5
4BD3
330
1A
100
AcDbEntity
  8
ZUWAKU
100
AcDbLine
 10
59.1827878312551
 20
15.03269697006897
 30
0.0
 11
57.0449269718946
 21
17.17055782942947
 31
0.0
  0
LINE
  5
4BD4
330
1A
100
AcDbEntity
  8
ZUWAKU
100
AcDbLine
 10
45.20179758995147
 20
29.01368721137265
 30
0.0
 11
43.96548480132406
 21
30.25000000000005
 31
0.0
  0
LINE
  5
4BD5
330
1A
100
AcDbEntity
  8
ZUWAKU
100
AcDbLine
 10
50.49221215478104
 20
23.72327264654308
 30
0.0
 11
47.69221215478103
 21
26.52327264654303
 31
0.0
  0
LINE
  5
4BD6
330
1A
100
AcDbEntity
  8
ZUWAKU
100
AcDbLine
 10
59.56577462943039
 20
15.54773578400068
 30
0.0
 11
57.14221215478119
 21
17.97129825864988
 31
0.0
  0
LINE
  5
4BD7
330
1A
100
AcDbEntity
  8
ZUWAKU
100
AcDbLine
 10
45.40072525420407
 20
29.71278515922699
 30
0.0
 11
44.86351041343107
 21
30.25
 31
0.0
  0
LINE
  5
4BD8
330
1A
100
AcDbEntity
  8
ZUWAKU
100
AcDbLine
 10
50.49221215478104
 20
24.62129825865003
 30
0.0
 11
47.69221215478109
 21
27.42129825864998
 31
0.0
  0
LINE
  5
4BD9
330
1A
100
AcDbEntity
  8
ZUWAKU
100
AcDbLine
 10
59.83365033719207
 20
16.17788568834589
 30
0.0
 11
57.13801554815365
 21
18.87352047738431
 31
0.0
  0
LINE
  5
4BDA
330
1A
100
AcDbEntity
  8
ZUWAKU
100
AcDbLine
 10
50.4922121547811
 20
25.51932387075686
 30
0.0
 11
47.69221215478109
 21
28.31932387075681
 31
0.0
  0
LINE
  5
4BDB
330
1A
100
AcDbEntity
  8
ZUWAKU
100
AcDbLine
 10
59.94221215478114
 20
16.96734948286371
 30
0.0
 11
52.93374224050376
 21
23.97581939714109
 31
0.0
  0
LINE
  5
4BDC
330
1A
100
AcDbEntity
  8
ZUWAKU
100
AcDbLine
 10
50.49221215478104
 20
26.41734948286381
 30
0.0
 11
47.69221215478109
 21
29.21734948286376
 31
0.0
  0
LINE
  5
4BDD
330
1A
100
AcDbEntity
  8
ZUWAKU
100
AcDbLine
 10
59.94221215478109
 20
17.86537509497071
 30
0.0
 11
52.61562282266357
 21
25.19196442708818
 31
0.0
  0
LINE
  5
4BDE
330
1A
100
AcDbEntity
  8
ZUWAKU
100
AcDbLine
 10
50.49221215478104
 20
27.3153750949707
 30
0.0
 11
47.78482226700583
 21
30.02276498274596
 31
0.0
  0
LINE
  5
4BDF
330
1A
100
AcDbEntity
  8
ZUWAKU
100
AcDbLine
 10
64.53916498311395
 20
14.1664478787448
 30
0.0
 11
62.05866003352594
 21
16.64695282833275
 31
0.0
  0
LINE
  5
4BE0
330
1A
100
AcDbEntity
  8
ZUWAKU
100
AcDbLine
 10
50.4922121547811
 20
28.21340070707765
 30
0.0
 11
48.45561286185875
 21
30.24999999999994
 31
0.0
  0
LINE
  5
4BE1
330
1A
100
AcDbEntity
  8
ZUWAKU
100
AcDbLine
 10
59.94221215478109
 20
18.76340070707766
 30
0.0
 11
52.59221215478106
 21
26.11340070707763
 31
0.0
  0
LINE
  5
4BE2
330
1A
100
AcDbEntity
  8
ZUWAKU
100
AcDbLine
 10
65.45363847396567
 20
14.14999999999992
 30
0.0
 11
62.04221215478106
 21
17.56142631918453
 31
0.0
  0
LINE
  5
4BE3
330
1A
100
AcDbEntity
  8
ZUWAKU
100
AcDbLine
 10
50.49221215478104
 20
29.11142631918449
 30
0.0
 11
49.35363847396558
 21
30.25
 31
0.0
  0
LINE
  5
4BE4
330
1A
100
AcDbEntity
  8
ZUWAKU
100
AcDbLine
 10
59.81581585747244
 20
19.78782261649308
 30
0.0
 11
52.59221215478106
 21
27.01142631918452
 31
0.0
  0
LINE
  5
4BE5
330
1A
100
AcDbEntity
  8
ZUWAKU
100
AcDbLine
 10
66.35166408607251
 20
14.14999999999997
 30
0.0
 11
62.04221215478111
 21
18.45945193129142
 31
0.0
  0
LINE
  5
4BE6
330
1A
100
AcDbEntity
  8
ZUWAKU
100
AcDbLine
 10
55.59875643588487
 20
24.90290765018767
 30
0.0
 11
52.62492256492464
 21
27.87674152114789
 31
0.0
  0
LINE
  5
4BE7
330
1A
100
AcDbEntity
  8
ZUWAKU
100
AcDbLine
 10
67.2496896981795
 20
14.14999999999992
 30
0.0
 11
62.04221215478111
 21
19.35747754339837
 31
0.0
  0
LINE
  5
4BE8
330
1A
100
AcDbEntity
  8
ZUWAKU
100
AcDbLine
 10
55.39221215478113
 20
26.00747754339829
 30
0.0
 11
52.82710108428876
 21
28.57258861389073
 31
0.0
  0
LINE
  5
4BE9
330
1A
100
AcDbEntity
  8
ZUWAKU
100
AcDbLine
 10
68.1477153102864
 20
14.14999999999992
 30
0.0
 11
62.04221215478106
 21
20.25550315550521
 31
0.0
  0
LINE
  5
4BEA
330
1A
100
AcDbEntity
  8
ZUWAKU
100
AcDbLine
 10
55.39221215478113
 20
26.90550315550519
 30
0.0
 11
53.15887199664172
 21
29.1388433136446
 31
0.0
  0
LINE
  5
4BEB
330
1A
100
AcDbEntity
  8
ZUWAKU
100
AcDbLine
 10
68.97361998079225
 20
14.22212094160101
 30
0.0
 11
66.24574092239328
 21
16.94999999999998
 31
0.0
  0
LINE
  5
4BEC
330
1A
100
AcDbEntity
  8
ZUWAKU
100
AcDbLine
 10
55.76753075041148
 20
27.42821017198179
 30
0.0
 11
53.59698405568628
 21
29.59875686670699
 31
0.0
  0
LINE
  5
4BED
330
1A
100
AcDbEntity
  8
ZUWAKU
100
AcDbLine
 10
64.84221215478107
 20
18.3535287676122
 30
0.0
 11
62.04221215478111
 21
21.15352876761215
 31
0.0
  0
LINE
  5
4BEE
330
1A
100
AcDbEntity
  8
ZUWAKU
100
AcDbLine
 10
69.63003254070367
 20
14.46373399379655
 30
0.0
 11
67.14376653450028
 21
16.94999999999993
 31
0.0
  0
LINE
  5
4BEF
330
1A
100
AcDbEntity
  8
ZUWAKU
100
AcDbLine
 10
56.64376653450029
 20
27.44999999999993
 30
0.0
 11
54.13958499289646
 21
29.95418154160375
 31
0.0
  0
LINE
  5
4BF0
330
1A
100
AcDbEntity
  8
ZUWAKU
100
AcDbLine
 10
64.84221215478112
 20
19.25155437971909
 30
0.0
 11
62.04221215478111
 21
22.0515543797191
 31
0.0
  0
LINE
  5
4BF1
330
1A
100
AcDbEntity
  8
ZUWAKU
100
AcDbLine
 10
70.1661948856297
 20
14.82559726097747
 30
0.0
 11
67.86911077715399
 21
17.12268136945317
 31
0.0
  0
LINE
  5
4BF2
330
1A
100
AcDbEntity
  8
ZUWAKU
100
AcDbLine
 10
57.54179214660712
 20
27.45000000000004
 30
0.0
 11
54.80422541742973
 21
30.18756672917743
 31
0.0
  0
LINE
  5
4BF3
330
1A
100
AcDbEntity
  8
ZUWAKU
100
AcDbLine
 10
64.84221215478112
 20
20.14957999182604
 30
0.0
 11
62.04221215478117
 21
22.94957999182599
 31
0.0
  0
LINE
  5
4BF4
330
1A
100
AcDbEntity
  8
ZUWAKU
100
AcDbLine
 10
70.59823668295473
 20
15.29158107575926
 30
0.0
 11
68.27069641562156
 21
17.61912134309244
 31
0.0
  0
LINE
  5
4BF5
330
1A
100
AcDbEntity
  8
ZUWAKU
100
AcDbLine
 10
58.43981775871395
 20
27.44999999999999
 30
0.0
 11
55.639817758714
 21
30.25
 31
0.0
  0
LINE
  5
4BF6
330
1A
100
AcDbEntity
  8
ZUWAKU
100
AcDbLine
 10
64.84221215478107
 20
21.04760560393287
 30
0.0
 11
62.04221215478111
 21
23.84760560393289
 31
0.0
  0
LINE
  5
4BF7
330
1A
100
AcDbEntity
  8
ZUWAKU
100
AcDbLine
 10
70.92326855887836
 20
15.86457481194253
 30
0.0
 11
68.34221215478106
 21
18.44563121603988
 31
0.0
  0
LINE
  5
4BF8
330
1A
100
AcDbEntity
  8
ZUWAKU
100
AcDbLine
 10
59.22163160866722
 20
27.56621176215372
 30
0.0
 11
56.53784337082095
 21
30.25
 31
0.0
  0
LINE
  5
4BF9
330
1A
100
AcDbEntity
  8
ZUWAKU
100
AcDbLine
 10
64.84221215478112
 20
21.94563121603982
 30
0.0
 11
62.04221215478111
 21
24.74563121603978
 31
0.0
  0
LINE
  5
4BFA
330
1A
100
AcDbEntity
  8
ZUWAKU
100
AcDbLine
 10
71.1162538541356
 20
16.56961512879229
 30
0.0
 11
68.34221215478106
 21
19.34365682814677
 31
0.0
  0
LINE
  5
4BFB
330
1A
100
AcDbEntity
  8
ZUWAKU
100
AcDbLine
 10
59.41721215478111
 20
28.26865682814679
 30
0.0
 11
57.43586898292784
 21
30.25
 31
0.0
  0
LINE
  5
4BFC
330
1A
100
AcDbEntity
  8
ZUWAKU
100
AcDbLine
 10
64.84221215478112
 20
22.84365682814677
 30
0.0
 11
62.04221215478117
 21
25.64365682814673
 31
0.0
  0
LINE
  5
4BFD
330
1A
100
AcDbEntity
  8
ZUWAKU
100
AcDbLine
 10
74.43389459503482
 20
14.14999999999986
 30
0.0
 11
73.24221215478104
 21
15.34168244025369
 31
0.0
  0
LINE
  5
4BFE
330
1A
100
AcDbEntity
  8
ZUWAKU
100
AcDbLine
 10
59.41721215478105
 20
29.16668244025362
 30
0.0
 11
58.33389459503473
 21
30.25
 31
0.0
  0
LINE
  5
4BFF
330
1A
100
AcDbEntity
  8
ZUWAKU
100
AcDbLine
 10
71.14221215478107
 20
17.4416824402536
 30
0.0
 11
68.34221215478106
 21
20.24168244025366
 31
0.0
  0
LINE
  5
4C00
330
1A
100
AcDbEntity
  8
ZUWAKU
100
AcDbLine
 10
64.84221215478112
 20
23.74168244025361
 30
0.0
 11
62.04221215478111
 21
26.54168244025362
 31
0.0
  0
LINE
  5
4C01
330
1A
100
AcDbEntity
  8
ZUWAKU
100
AcDbLine
 10
75.33192020714176
 20
14.14999999999992
 30
0.0
 11
73.24221215478104
 21
16.23970805236064
 31
0.0
  0
LINE
  5
4C02
330
1A
100
AcDbEntity
  8
ZUWAKU
100
AcDbLine
 10
64.84221215478112
 20
24.63970805236056
 30
0.0
 11
62.04221215478117
 21
27.43970805236051
 31
0.0
  0
LINE
  5
4C03
330
1A
100
AcDbEntity
  8
ZUWAKU
100
AcDbLine
 10
71.14221215478114
 20
18.33970805236054
 30
0.0
 11
68.34221215478106
 21
21.13970805236061
 31
0.0
  0
LINE
  5
4C04
330
1A
100
AcDbEntity
  8
ZUWAKU
100
AcDbLine
 10
75.97024679989118
 20
14.40969901935744
 30
0.0
 11
73.24221215478104
 21
17.13773366446753
 31
0.0
  0
LINE
  5
4C05
330
1A
100
AcDbEntity
  8
ZUWAKU
100
AcDbLine
 10
64.84221215478112
 20
25.53773366446745
 30
0.0
 11
62.04221215478117
 21
28.33773366446746
 31
0.0
  0
LINE
  5
4C06
330
1A
100
AcDbEntity
  8
ZUWAKU
100
AcDbLine
 10
71.14221215478114
 20
19.23773366446744
 30
0.0
 11
68.34221215478106
 21
22.03773366446751
 31
0.0
  0
LINE
  5
4C07
330
1A
100
AcDbEntity
  8
ZUWAKU
100
AcDbLine
 10
76.04221215478117
 20
15.23575927657435
 30
0.0
 11
73.2422121547811
 21
18.03575927657442
 31
0.0
  0
LINE
  5
4C08
330
1A
100
AcDbEntity
  8
ZUWAKU
100
AcDbLine
 10
64.84221215478118
 20
26.43575927657434
 30
0.0
 11
62.04221215478117
 21
29.23575927657429
 31
0.0
  0
LINE
  5
4C09
330
1A
100
AcDbEntity
  8
ZUWAKU
100
AcDbLine
 10
71.14221215478119
 20
20.13575927657433
 30
0.0
 11
68.34221215478113
 21
22.9357592765744
 31
0.0
  0
LINE
  5
4C0A
330
1A
100
AcDbEntity
  8
ZUWAKU
100
AcDbLine
 10
76.04221215478111
 20
16.1337848886813
 30
0.0
 11
73.24221215478104
 21
18.93378488868131
 31
0.0
  0
LINE
  5
4C0B
330
1A
100
AcDbEntity
  8
ZUWAKU
100
AcDbLine
 10
64.84221215478112
 20
27.33378488868129
 30
0.0
 11
62.14244943145695
 21
30.03354761200546
 31
0.0
  0
LINE
  5
4C0C
330
1A
100
AcDbEntity
  8
ZUWAKU
100
AcDbLine
 10
71.14221215478114
 20
21.03378488868128
 30
0.0
 11
68.34221215478106
 21
23.83378488868129
 31
0.0
  0
LINE
  5
4C0D
330
1A
100
AcDbEntity
  8
ZUWAKU
100
AcDbLine
 10
76.04221215478111
 20
17.03181050078819
 30
0.0
 11
73.2422121547811
 21
19.83181050078826
 31
0.0
  0
LINE
  5
4C0E
330
1A
100
AcDbEntity
  8
ZUWAKU
100
AcDbLine
 10
64.84221215478118
 20
28.23181050078818
 30
0.0
 11
62.82402265556931
 21
30.25000000000005
 31
0.0
  0
LINE
  5
4C0F
330
1A
100
AcDbEntity
  8
ZUWAKU
100
AcDbLine
 10
71.14221215478114
 20
21.93181050078817
 30
0.0
 11
68.34221215478113
 21
24.73181050078824
 31
0.0
  0
LINE
  5
4C10
330
1A
100
AcDbEntity
  8
ZUWAKU
100
AcDbLine
 10
76.04221215478117
 20
17.92983611289514
 30
0.0
 11
73.24221215478104
 21
20.72983611289527
 31
0.0
  0
LINE
  5
4C11
330
1A
100
AcDbEntity
  8
ZUWAKU
100
AcDbLine
 10
64.84221215478118
 20
29.12983611289513
 30
0.0
 11
63.7220482676762
 21
30.25000000000005
 31
0.0
  0
LINE
  5
4C12
330
1A
100
AcDbEntity
  8
ZUWAKU
100
AcDbLine
 10
71.14221215478119
 20
22.82983611289512
 30
0.0
 11
68.34221215478113
 21
25.62983611289519
 31
0.0
  0
LINE
  5
4C13
330
1A
100
AcDbEntity
  8
ZUWAKU
100
AcDbLine
 10
76.04221215478111
 20
18.82786172500198
 30
0.0
 11
73.24221215478099
 21
21.62786172500216
 31
0.0
  0
LINE
  5
4C14
330
1A
100
AcDbEntity
  8
ZUWAKU
100
AcDbLine
 10
71.14221215478114
 20
23.72786172500195
 30
0.0
 11
68.34221215478106
 21
26.52786172500202
 31
0.0
  0
LINE
  5
4C15
330
1A
100
AcDbEntity
  8
ZUWAKU
100
AcDbLine
 10
76.04221215478105
 20
19.72588733710898
 30
0.0
 11
73.24221215478099
 21
22.52588733710905
 31
0.0
  0
LINE
  5
4C16
330
1A
100
AcDbEntity
  8
ZUWAKU
100
AcDbLine
 10
71.14221215478119
 20
24.6258873371089
 30
0.0
 11
68.34221215478113
 21
27.42588733710897
 31
0.0
  0
LINE
  5
4C17
330
1A
100
AcDbEntity
  8
ZUWAKU
100
AcDbLine
 10
76.04221215478111
 20
20.62391294921593
 30
0.0
 11
73.24221215478104
 21
23.423912949216
 31
0.0
  0
LINE
  5
4C18
330
1A
100
AcDbEntity
  8
ZUWAKU
100
AcDbLine
 10
71.14221215478119
 20
25.52391294921585
 30
0.0
 11
68.34221215478113
 21
28.32391294921587
 31
0.0
  0
LINE
  5
4C19
330
1A
100
AcDbEntity
  8
ZUWAKU
100
AcDbLine
 10
76.04221215478111
 20
21.52193856132282
 30
0.0
 11
73.24221215478104
 21
24.32193856132284
 31
0.0
  0
LINE
  5
4C1A
330
1A
100
AcDbEntity
  8
ZUWAKU
100
AcDbLine
 10
71.14221215478119
 20
26.42193856132269
 30
0.0
 11
68.34221215478106
 21
29.22193856132281
 31
0.0
  0
LINE
  5
4C1B
330
1A
100
AcDbEntity
  8
ZUWAKU
100
AcDbLine
 10
76.04221215478105
 20
22.41996417342972
 30
0.0
 11
73.24221215478104
 21
25.21996417342978
 31
0.0
  0
LINE
  5
4C1C
330
1A
100
AcDbEntity
  8
ZUWAKU
100
AcDbLine
 10
71.14221215478119
 20
27.31996417342964
 30
0.0
 11
68.436701189644
 21
30.02547513856677
 31
0.0
  0
LINE
  5
4C1D
330
1A
100
AcDbEntity
  8
ZUWAKU
100
AcDbLine
 10
76.04221215478111
 20
23.31798978553667
 30
0.0
 11
73.24221215478104
 21
26.11798978553673
 31
0.0
  0
LINE
  5
4C1E
330
1A
100
AcDbEntity
  8
ZUWAKU
100
AcDbLine
 10
71.14221215478114
 20
28.21798978553664
 30
0.0
 11
69.11020194031784
 21
30.24999999999994
 31
0.0
  0
LINE
  5
4C1F
330
1A
100
AcDbEntity
  8
ZUWAKU
100
AcDbLine
 10
76.04221215478111
 20
24.21601539764356
 30
0.0
 11
73.24221215478104
 21
27.01601539764363
 31
0.0
  0
LINE
  5
4C20
330
1A
100
AcDbEntity
  8
ZUWAKU
100
AcDbLine
 10
71.14221215478114
 20
29.11601539764353
 30
0.0
 11
70.00822755242467
 21
30.25000000000005
 31
0.0
  0
LINE
  5
4C21
330
1A
100
AcDbEntity
  8
ZUWAKU
100
AcDbLine
 10
76.04221215478111
 20
25.11404100975045
 30
0.0
 11
73.24221215478104
 21
27.91404100975052
 31
0.0
  0
LINE
  5
4C22
330
1A
100
AcDbEntity
  8
ZUWAKU
100
AcDbLine
 10
76.04221215478111
 20
26.0120666218574
 30
0.0
 11
73.24221215478104
 21
28.81206662185741
 31
0.0
  0
LINE
  5
4C23
330
1A
100
AcDbEntity
  8
ZUWAKU
100
AcDbLine
 10
76.04221215478111
 20
26.91009223396429
 30
0.0
 11
73.2422121547811
 21
29.71009223396436
 31
0.0
  0
LINE
  5
4C24
330
1A
100
AcDbEntity
  8
ZUWAKU
100
AcDbLine
 10
76.04221215478111
 20
27.80811784607118
 30
0.0
 11
73.62107820876622
 21
30.22925179208607
 31
0.0
  0
LINE
  5
4C25
330
1A
100
AcDbEntity
  8
ZUWAKU
100
AcDbLine
 10
76.04221215478111
 20
28.70614345817807
 30
0.0
 11
74.49835561295924
 21
30.24999999999994
 31
0.0
  0
LINE
  5
4C26
330
1A
100
AcDbEntity
  8
ZUWAKU
100
AcDbLine
 10
76.04221215478117
 20
29.60416907028502
 30
0.0
 11
75.39638122506613
 21
30.25000000000005
 31
0.0
  0
SPLINE
  5
4C84
330
1A
100
AcDbEntity
  8
SEIHIN
100
AcDbSpline
210
0.0
220
0.0
230
1.0
 70
     8
 71
     3
 72
     8
 73
     4
 74
     0
 42
0.0000000001
 43
0.0000000001
 40
0.0
 40
0.0
 40
0.0
 40
0.0
 40
0.0001126346733124
 40
0.0001126346733124
 40
0.0001126346733124
 40
0.0001126346733124
 10
242.9176294586779
 20
428.9061589808733
 30
0.0
 10
242.8800845992716
 20
428.9061614171859
 30
0.0
 10
242.8425397223061
 20
428.9061632529932
 30
0.0
 10
242.8049948393361
 20
428.9061644871434
 30
0.0
  0
SPLINE
  5
4C85
330
1A
100
AcDbEntity
  8
SEIHIN
100
AcDbSpline
210
0.0
220
0.0
230
1.0
 70
     8
 71
     3
 72
    11
 73
     7
 74
     0
 42
0.0000000001
 43
0.0000000001
 40
0.0001126346733124
 40
0.0001126346733124
 40
0.0001126346733124
 40
0.0001126346733124
 40
0.0002281170189208
 40
0.0002281170189208
 40
0.0002281170189208
 40
0.0004562340619425
 40
0.0004562340619425
 40
0.0004562340619425
 40
0.0004562340619425
 10
242.8049948393361
 20
428.9061644871434
 30
0.0
 10
242.7665007325779
 20
428.9061657524957
 30
0.0
 10
242.7280066153964
 20
428.9061663853805
 30
0.0
 10
242.6895125002986
 20
428.9061663853805
 30
0.0
 10
242.613473498109
 20
428.9061663853805
 30
0.0
 10
242.5374344799117
 20
428.906163915094
 30
0.0
 10
242.4613955419193
 20
428.9061589808733
 30
0.0
  0
SPLINE
  5
4CDF
330
1A
100
AcDbEntity
  8
SEIHIN
100
AcDbSpline
210
0.0
220
0.0
230
1.0
 70
     8
 71
     3
 72
    11
 73
     7
 74
     0
 42
0.0000000001
 43
0.0000000001
 40
0.0001126346733124
 40
0.0001126346733124
 40
0.0001126346733124
 40
0.0001126346733124
 40
0.0002281170189208
 40
0.0002281170189208
 40
0.0002281170189208
 40
0.0004562340619425
 40
0.0004562340619425
 40
0.0004562340619425
 40
0.0004562340619425
 10
242.8049948393361
 20
421.8938892561135
 30
0.0
 10
242.7665007325779
 20
421.8938905214657
 30
0.0
 10
242.7280066153964
 20
421.8938911543506
 30
0.0
 10
242.6895125002986
 20
421.8938911543506
 30
0.0
 10
242.613473498109
 20
421.8938911543506
 30
0.0
 10
242.5374344799117
 20
421.8938886840641
 30
0.0
 10
242.4613955419193
 20
421.8938837498434
 30
0.0
  0
SPLINE
  5
4CE0
330
1A
100
AcDbEntity
  8
SEIHIN
100
AcDbSpline
210
0.0
220
0.0
230
1.0
 70
     8
 71
     3
 72
     8
 73
     4
 74
     0
 42
0.0000000001
 43
0.0000000001
 40
0.0
 40
0.0
 40
0.0
 40
0.0
 40
0.0001126346733124
 40
0.0001126346733124
 40
0.0001126346733124
 40
0.0001126346733124
 10
242.9176294586779
 20
421.8938837498434
 30
0.0
 10
242.8800845992716
 20
421.893886186156
 30
0.0
 10
242.8425397223061
 20
421.8938880219633
 30
0.0
 10
242.8049948393361
 20
421.8938892561135
 30
0.0
  0
ELLIPSE
  5
4CE1
330
1A
100
AcDbEntity
  8
SEIHIN
100
AcDbEllipse
 10
242.9167970112414
 20
421.135846496117
 30
0.0
 11
0.0696017814090055
 21
0.7502416694298404
 31
0.0
210
0.0
220
0.0
230
1.0
 40
0.9954034692526903
 41
4.805012563288812
 42
5.307768788369065
  0
ELLIPSE
  5
4CE2
330
1A
100
AcDbEntity
  8
SEIHIN
100
AcDbEllipse
 10
242.4622279893558
 20
421.135846496117
 30
0.0
 11
-0.0696017814090624
 21
0.7502416694298404
 31
0.0
210
0.0
220
0.0
230
1.0
 40
0.9954034692526834
 41
0.9754165188104995
 42
1.478172743890713
  0
SPLINE
  5
4CE3
330
1A
100
AcDbEntity
  8
SEIHIN
100
AcDbSpline
210
0.0
220
0.0
230
1.0
 70
     8
 71
     3
 72
    10
 73
     6
 74
     0
 42
0.0000000001
 43
0.0000000001
 40
0.0
 40
0.0
 40
0.0
 40
0.0
 40
0.5
 40
0.5
 40
1.0
 40
1.0
 40
1.0
 40
1.0
 10
241.8048970833508
 20
421.4992385578626
 30
0.0
 10
241.8705805009242
 20
421.6192615632285
 30
0.0
 10
241.965295678571
 20
421.7172136784921
 30
0.0
 10
242.1912805623676
 20
421.8546396810474
 30
0.0
 10
242.3243381150916
 20
421.8939052748184
 30
0.0
 10
242.4613955419193
 20
421.8938837498434
 30
0.0
  0
SPLINE
  5
4CE4
330
1A
100
AcDbEntity
  8
SEIHIN
100
AcDbSpline
210
0.0
220
0.0
230
1.0
 70
     8
 71
     3
 72
    10
 73
     6
 74
     0
 42
0.0000000001
 43
0.0000000001
 40
0.0
 40
0.0
 40
0.0
 40
0.0
 40
0.5
 40
0.5
 40
1.0
 40
1.0
 40
1.0
 40
1.0
 10
243.5741279172464
 20
421.4992385578626
 30
0.0
 10
243.508444499673
 20
421.6192615632285
 30
0.0
 10
243.4137293220262
 20
421.7172136784921
 30
0.0
 10
243.1877444382296
 20
421.8546396810474
 30
0.0
 10
243.0546868855051
 20
421.8939052748184
 30
0.0
 10
242.9176294586779
 20
421.8938837498434
 30
0.0
  0
SPLINE
  5
4CE5
330
1A
100
AcDbEntity
  8
SEIHIN
100
AcDbSpline
210
0.0
220
0.0
230
1.0
 70
     8
 71
     3
 72
    10
 73
     6
 74
     0
 42
0.0000000001
 43
0.0000000001
 40
0.0
 40
0.0
 40
0.0
 40
0.0
 40
0.5
 40
0.5
 40
1.0
 40
1.0
 40
1.0
 40
1.0
 10
243.5431672457569
 20
416.5434786257327
 30
0.0
 10
243.4774838281835
 20
416.6635016310987
 30
0.0
 10
243.3827686505368
 20
416.7614537463622
 30
0.0
 10
243.1567837667401
 20
416.8988797489174
 30
0.0
 10
243.0237262140157
 20
416.9381453426884
 30
0.0
 10
242.8866687871885
 20
416.9381238177135
 30
0.0
  0
SPLINE
  5
4CE6
330
1A
100
AcDbEntity
  8
SEIHIN
100
AcDbSpline
210
0.0
220
0.0
230
1.0
 70
     8
 71
     3
 72
    10
 73
     6
 74
     0
 42
0.0000000001
 43
0.0000000001
 40
0.0
 40
0.0
 40
0.0
 40
0.0
 40
0.5
 40
0.5
 40
1.0
 40
1.0
 40
1.0
 40
1.0
 10
241.7739364118614
 20
416.5434786257327
 30
0.0
 10
241.8396198294348
 20
416.6635016310987
 30
0.0
 10
241.9343350070815
 20
416.7614537463622
 30
0.0
 10
242.1603198908782
 20
416.8988797489174
 30
0.0
 10
242.2933774436022
 20
416.9381453426884
 30
0.0
 10
242.4304348704298
 20
416.9381238177135
 30
0.0
  0
ELLIPSE
  5
4CE8
330
1A
100
AcDbEntity
  8
SEIHIN
100
AcDbEllipse
 10
242.885836339752
 20
416.1800865639872
 30
0.0
 11
0.0696017814090055
 21
0.7502416694298404
 31
0.0
210
0.0
220
0.0
230
1.0
 40
0.9954034692526903
 41
5.026518077589675
 42
5.307768788369065
  0
SPLINE
  5
4CE9
330
1A
100
AcDbEntity
  8
SEIHIN
100
AcDbSpline
210
0.0
220
0.0
230
1.0
 70
     8
 71
     3
 72
     8
 73
     4
 74
     0
 42
0.0000000001
 43
0.0000000001
 40
0.0
 40
0.0
 40
0.0
 40
0.0
 40
0.0001126346733124
 40
0.0001126346733124
 40
0.0001126346733124
 40
0.0001126346733124
 10
242.8866687871885
 20
416.9381238177135
 30
0.0
 10
242.8491239277822
 20
416.9381262540261
 30
0.0
 10
242.8115790508166
 20
416.9381280898334
 30
0.0
 10
242.7740341678467
 20
416.9381293239836
 30
0.0
  0
SPLINE
  5
4CEA
330
1A
100
AcDbEntity
  8
SEIHIN
100
AcDbSpline
210
0.0
220
0.0
230
1.0
 70
     8
 71
     3
 72
    11
 73
     7
 74
     0
 42
0.0000000001
 43
0.0000000001
 40
0.0001126346733124
 40
0.0001126346733124
 40
0.0001126346733124
 40
0.0001126346733124
 40
0.0002281170189208
 40
0.0002281170189208
 40
0.0002281170189208
 40
0.0004562340619425
 40
0.0004562340619425
 40
0.0004562340619425
 40
0.0004562340619425
 10
242.7740341678467
 20
416.9381293239836
 30
0.0
 10
242.7355400610884
 20
416.9381305893358
 30
0.0
 10
242.697045943907
 20
416.9381312222206
 30
0.0
 10
242.6585518288092
 20
416.9381312222206
 30
0.0
 10
242.5825128266195
 20
416.9381312222206
 30
0.0
 10
242.5064738084223
 20
416.9381287519342
 30
0.0
 10
242.4304348704298
 20
416.9381238177135
 30
0.0
  0
LINE
  5
4CEB
330
1A
100
AcDbEntity
  8
SEIHIN
100
AcDbLine
 10
242.8359935111842
 20
416.9381312222206
 30
0.0
 11
242.4811101464341
 21
416.9381312222206
 31
0.0
  0
ELLIPSE
  5
4CEC
330
1A
100
AcDbEntity
  8
SEIHIN
100
AcDbEllipse
 10
242.6278268688599
 20
389.488178532603
 30
0.0
 11
0.0186446844688248
 21
0.8038885740394333
 31
0.0
210
0.0
220
0.0
230
1.0
 40
0.9327142905711129
 41
1.594444596803411
 42
3.164331224233584
  0
ELLIPSE
  5
4CED
330
1A
100
AcDbEntity
  8
SEIHIN
100
AcDbEllipse
 10
242.7511981317368
 20
389.488178532603
 30
0.0
 11
-0.0186446844688817
 21
0.8038885740394336
 31
0.0
210
0.0
220
0.0
230
1.0
 40
0.9327142905711113
 41
3.118854082945865
 42
4.688740710376121
  0
LINE
  5
4CEF
330
1A
100
AcDbEntity
  8
SEIHIN
100
AcDbLine
 10
242.6262348780237
 20
388.6841023785364
 30
0.0
 11
242.752790122492
 21
388.6841023785364
 31
0.0
  0
ELLIPSE
  5
4DE6
330
1A
100
AcDbEntity
  8
SEIHIN
100
AcDbEllipse
 10
337.3599663752145
 20
313.4999845217181
 30
0.0
 11
0.0000000000002274
 21
200.0457016039091
 31
0.0
210
0.0
220
0.0
230
-1.0
 40
0.9997715441844402
 41
0.0208876229574906
 42
0.0532828515596824
  0
ELLIPSE
  5
4DE7
330
1A
100
AcDbEntity
  8
SEIHIN
100
AcDbEllipse
 10
325.6895125002986
 20
511.0365777730534
 30
0.0
 11
-2.0
 21
0.0
 31
0.0
210
0.0
220
0.0
230
-1.0
 40
0.0174550649282424
 41
3.141592653589786
 42
4.712388980384689
  0
ELLIPSE
  5
4DE8
330
1A
100
AcDbEntity
  8
SEIHIN
100
AcDbEllipse
 10
326.1895125002986
 20
509.5456109867874
 30
0.0
 11
0.0
 21
1.241452843966158
 31
0.0
210
0.0
220
0.0
230
-1.0
 40
0.8055078409625519
 41
4.712388980384701
 42
6.283185307179586
  0
SPLINE
  5
4DEA
330
1A
100
AcDbEntity
  8
SEIHIN
100
AcDbSpline
210
0.0
220
0.0
230
1.0
 70
     8
 71
     3
 72
     8
 73
     4
 74
     0
 42
0.0000000001
 43
0.0000000001
 40
0.0
 40
0.0
 40
0.0
 40
0.0
 40
0.0005876259491526
 40
0.0005876259491526
 40
0.0005876259491526
 40
0.0005876259491526
 10
326.1895125002986
 20
500.4386122900798
 30
0.0
 10
326.3561855695527
 20
500.4545548291429
 30
0.0
 10
326.5228522350905
 20
500.470498975528
 30
0.0
 10
326.6895125002982
 20
500.4864447277147
 30
0.0
  0
SPLINE
  5
4DEB
330
1A
100
AcDbEntity
  8
SEIHIN
100
AcDbSpline
210
0.0
220
0.0
230
1.0
 70
    24
 71
     1
 72
     4
 73
     2
 74
     0
 42
0.0000000001
 43
0.0000000001
 40
0.0
 40
0.0
 40
1.0
 40
1.0
 10
357.6895125002986
 20
499.9965621874463
 30
0.0
 10
327.6895125002986
 20
499.9965621874463
 30
0.0
  0
SPLINE
  5
4DEC
330
1A
100
AcDbEntity
  8
SEIHIN
100
AcDbSpline
210
0.0
220
0.0
230
1.0
 70
     8
 71
     3
 72
    18
 73
    14
 74
     0
 42
0.0000000001
 43
0.0000000001
 40
0.0
 40
0.0
 40
0.0
 40
0.0
 40
0.2500000000000091
 40
0.2500000000000091
 40
0.5000000000000182
 40
0.5000000000000182
 40
0.6250000000000137
 40
0.6250000000000137
 40
0.7500000000000091
 40
0.7500000000000091
 40
0.8750000000000046
 40
0.8750000000000046
 40
1.0
 40
1.0
 40
1.0
 40
1.0
 10
326.1895125002986
 20
500.4386122900798
 30
0.0
 10
326.0888638564527
 20
500.4193578905138
 30
0.0
 10
325.9865022710926
 20
500.4151972521161
 30
0.0
 10
325.7774056728901
 20
500.4461757262387
 30
0.0
 10
325.6722443870801
 20
500.4809849559101
 30
0.0
 10
325.5206534659998
 20
500.5771996549989
 30
0.0
 10
325.4703900603519
 20
500.6175332067702
 30
0.0
 10
325.3779327175132
 20
500.7152634275721
 30
0.0
 10
325.3344754346073
 20
500.7743119135682
 30
0.0
 10
325.2631379006168
 20
500.9073966262816
 30
0.0
 10
325.2349304726765
 20
500.9818812360236
 30
0.0
 10
325.1979002123032
 20
501.138992014533
 30
0.0
 10
325.1895125002986
 20
501.2184439851633
 30
0.0
 10
325.1895125002986
 20
501.2971893635824
 30
0.0
  0
SPLINE
  5
4DED
330
1A
100
AcDbEntity
  8
SEIHIN
100
AcDbSpline
210
0.0
220
0.0
230
1.0
 70
     8
 71
     3
 72
    12
 73
     8
 74
     0
 42
0.0000000001
 43
0.0000000001
 40
0.0
 40
0.0
 40
0.0
 40
0.0
 40
0.2499999999999998
 40
0.2499999999999998
 40
0.4999999999999996
 40
0.4999999999999996
 40
1.0
 40
1.0
 40
1.0
 40
1.0
 10
327.6895125002986
 20
499.92439324187
 30
0.0
 10
327.6895125002986
 20
500.1293507758648
 30
0.0
 10
327.6477704354831
 20
500.3117406465196
 30
0.0
 10
327.5215412142991
 20
500.6384645930031
 30
0.0
 10
327.4372756513582
 20
500.779070326075
 30
0.0
 10
327.1541209126196
 20
501.1374925186693
 30
0.0
 10
326.9198879294065
 20
501.2973241493597
 30
0.0
 10
326.6895125002986
 20
501.3771399661278
 30
0.0
  0
SPLINE
  5
4DEF
330
1A
100
AcDbEntity
  8
SEIHIN
100
AcDbSpline
210
0.0
220
0.0
230
1.0
 70
     8
 71
     3
 72
    10
 73
     6
 74
     0
 42
0.0000000001
 43
0.0000000001
 40
0.0
 40
0.0
 40
0.0
 40
0.0
 40
0.5
 40
0.5
 40
1.0
 40
1.0
 40
1.0
 40
1.0
 10
327.0574009796221
 20
407.847646581033
 30
0.0
 10
327.0574009796221
 20
407.9550954425132
 30
0.0
 10
327.0336950719017
 20
408.0601093600596
 30
0.0
 10
326.9400080881357
 20
408.2215987353921
 30
0.0
 10
326.870295041687
 20
408.2755025407807
 30
0.0
 10
326.7883049848767
 20
408.3031442695382
 30
0.0
  0
SPLINE
  5
4DF0
330
1A
100
AcDbEntity
  8
SEIHIN
100
AcDbSpline
210
0.0
220
0.0
230
1.0
 70
     8
 71
     3
 72
    18
 73
    14
 74
     0
 42
0.0000000001
 43
0.0000000001
 40
0.0
 40
0.0
 40
0.0
 40
0.0
 40
0.2499999999999881
 40
0.2499999999999881
 40
0.3749999999999903
 40
0.3749999999999903
 40
0.4999999999999925
 40
0.4999999999999925
 40
0.6249999999999946
 40
0.6249999999999946
 40
0.7499999999999968
 40
0.7499999999999968
 40
1.0
 40
1.0
 40
1.0
 40
1.0
 10
326.7883049848767
 20
408.3031442695382
 30
0.0
 10
326.6345189135743
 20
408.3549909572338
 30
0.0
 10
326.4609193272169
 20
408.3961359856461
 30
0.0
 10
326.1805016864357
 20
408.4382333467192
 30
0.0
 10
326.0849884645301
 20
408.4488324270115
 30
0.0
 10
325.8898659526382
 20
408.4631483382429
 30
0.0
 10
325.7891631641166
 20
408.4668506299573
 30
0.0
 10
325.5892142559366
 20
408.4668349072494
 30
0.0
 10
325.4903932649333
 20
408.4632116192535
 30
0.0
 10
325.2949947661365
 20
408.4489296989726
 30
0.0
 10
325.1974518252575
 20
408.4381005877796
 30
0.0
 10
324.9170923669837
 20
408.395927193047
 30
0.0
 10
324.7445117051418
 20
408.354992851299
 30
0.0
 10
324.5907200157209
 20
408.3031442695382
 30
0.0
  0
SPLINE
  5
4DF1
330
1A
100
AcDbEntity
  8
SEIHIN
100
AcDbSpline
210
0.0
220
0.0
230
1.0
 70
     8
 71
     3
 72
    12
 73
     8
 74
     0
 42
0.0000000001
 43
0.0000000001
 40
0.0
 40
0.0
 40
0.0
 40
0.0
 40
0.2499999999999928
 40
0.2499999999999928
 40
0.4999999999999857
 40
0.4999999999999857
 40
1.0
 40
1.0
 40
1.0
 40
1.0
 10
324.5907200157209
 20
408.3031442695382
 30
0.0
 10
324.5496912628439
 20
408.2893120354551
 30
0.0
 10
324.5123640060021
 20
408.2697529779124
 30
0.0
 10
324.4452882418852
 20
408.2160075381468
 30
0.0
 10
324.4158373332227
 20
408.1815671708381
 30
0.0
 10
324.3453587200054
 20
408.0603114462362
 30
0.0
 10
324.3216240209755
 20
407.9553231100398
 30
0.0
 10
324.3216240209755
 20
407.847646581033
 30
0.0
  0
SPLINE
  5
4DF7
330
1A
100
AcDbEntity
  8
SEIHIN
100
AcDbSpline
210
0.0
220
0.0
230
1.0
 70
     8
 71
     3
 72
     8
 73
     4
 74
     0
 42
0.0000000001
 43
0.0000000001
 40
0.0
 40
0.0
 40
0.0
 40
0.0
 40
1.0
 40
1.0
 40
1.0
 40
1.0
 10
324.3216240209755
 20
399.5083904653701
 30
0.0
 10
324.3216240209755
 20
399.3753181503249
 30
0.0
 10
324.3093468312352
 20
399.2446642514646
 30
0.0
 10
324.2870181833011
 20
399.1177188505991
 30
0.0
  0
SPLINE
  5
4DF9
330
1A
100
AcDbEntity
  8
SEIHIN
100
AcDbSpline
210
0.0
220
0.0
230
1.0
 70
     8
 71
     3
 72
     8
 73
     4
 74
     0
 42
0.0000000001
 43
0.0000000001
 40
0.0
 40
0.0
 40
0.0
 40
0.0
 40
0.0096931119133913
 40
0.0096931119133913
 40
0.0096931119133913
 40
0.0096931119133913
 10
357.6895125002986
 20
378.3400278679697
 30
0.0
 10
354.4635069071525
 20
378.1678167669766
 30
0.0
 10
351.2375010597154
 20
377.9956099806496
 30
0.0
 10
348.0114949584406
 20
377.8234075016222
 30
0.0
  0
SPLINE
  5
4DFB
330
1A
100
AcDbEntity
  8
SEIHIN
100
AcDbSpline
210
0.0
220
0.0
230
1.0
 70
     8
 71
     3
 72
     8
 73
     4
 74
     0
 42
0.0000000001
 43
0.0000000001
 40
0.0
 40
0.0
 40
0.0
 40
0.0
 40
1.0
 40
1.0
 40
1.0
 40
1.0
 10
348.0114949584406
 20
377.8234075016222
 30
0.0
 10
344.4641018419135
 20
377.63405325427
 30
0.0
 10
340.9128702897294
 20
377.5393322179674
 30
0.0
 10
337.3599663752127
 20
377.5393322179674
 30
0.0
  0
SPLINE
  5
4DFC
330
1A
100
AcDbEntity
  8
SEIHIN
100
AcDbSpline
210
0.0
220
0.0
230
1.0
 70
     8
 71
     3
 72
    17
 73
    13
 74
     0
 42
0.0000000001
 43
0.0000000001
 40
0.0
 40
0.0
 40
0.0
 40
0.0
 40
0.0068782966301388
 40
0.0068782966301388
 40
0.0068782966301388
 40
0.0175207027944752
 40
0.0175207027944752
 40
0.0175207027944752
 40
0.0281631089174643
 40
0.0281631089174643
 40
0.0281631089174643
 40
0.03594589075313
 40
0.03594589075313
 40
0.03594589075313
 40
0.03594589075313
 10
327.6895125002986
 20
408.761857103738
 30
0.0
 10
325.748861212374
 20
409.1479948353639
 30
0.0
 10
323.8081750676617
 20
409.5341150448256
 30
0.0
 10
321.8674528478798
 20
409.9202171161979
 30
0.0
 10
318.8646812007539
 20
410.5176113960155
 30
0.0
 10
315.8618232017504
 20
411.1149622629765
 30
0.0
 10
312.8588740848056
 20
411.7122673066357
 30
0.0
 10
309.8559249797811
 20
412.3095723479238
 30
0.0
 10
306.8528847515215
 20
412.9068315681813
 30
0.0
 10
303.8497483039366
 20
413.5040423888648
 30
0.0
 10
301.6535573740968
 20
413.9407821143085
 30
0.0
 10
299.4573149760324
 20
414.3774959530355
 30
0.0
 10
297.2610189966592
 20
414.8141828354104
 30
0.0
  0
SPLINE
  5
4DFD
330
1A
100
AcDbEntity
  8
SEIHIN
100
AcDbSpline
210
0.0
220
0.0
230
1.0
 70
     8
 71
     3
 72
    12
 73
     8
 74
     0
 42
0.0000000001
 43
0.0000000001
 40
0.0
 40
0.0
 40
0.0
 40
0.0
 40
0.4999999999999974
 40
0.4999999999999974
 40
0.7499999999999987
 40
0.7499999999999987
 40
1.0
 40
1.0
 40
1.0
 40
1.0
 10
293.9354982434599
 20
415.1195613328292
 30
0.0
 10
294.5244504785148
 20
415.1195613328292
 30
0.0
 10
295.1000414407142
 20
415.0933586841341
 30
0.0
 10
295.9439042788792
 20
415.0157671787501
 30
0.0
 10
296.2208421344864
 20
414.9834287673499
 30
0.0
 10
296.7538807510402
 20
414.9074896486626
 30
0.0
 10
297.0117787151914
 20
414.8637389801644
 30
0.0
 10
297.2610189966592
 20
414.8141828354104
 30
0.0
  0
SPLINE
  5
4DFE
330
1A
100
AcDbEntity
  8
SEIHIN
100
AcDbSpline
210
0.0
220
0.0
230
1.0
 70
     8
 71
     3
 72
    10
 73
     6
 74
     0
 42
0.0000000001
 43
0.0000000001
 40
0.0
 40
0.0
 40
0.0
 40
0.0
 40
0.5
 40
0.5
 40
0.982226924133258
 40
0.982226924133258
 40
0.982226924133258
 40
0.982226924133258
 10
293.9354982434599
 20
416.0682312990354
 30
0.0
 10
294.0125068978802
 20
431.4444350411017
 30
0.0
 10
294.0449895928238
 20
446.8207832912993
 30
0.0
 10
294.016791574729
 20
477.0269439281903
 30
0.0
 10
293.9593761383164
 20
491.8566502634369
 30
0.0
 10
293.8621920573765
 20
506.6861506278517
 30
0.0
  0
LINE
  5
4DFF
330
1A
100
AcDbEntity
  8
SEIHIN
100
AcDbLine
 10
327.6895125002986
 20
513.5456861256272
 30
0.0
 11
327.6895125002987
 21
380.0365812001938
 31
0.0
  0
LINE
  5
4E02
330
1A
100
AcDbEntity
  8
SEIHIN
100
AcDbLine
 10
357.6895125002986
 20
512.7455033192113
 30
0.0
 11
357.6895125002986
 21
378.3400278679696
 31
0.0
  0
LINE
  5
4E06
330
1A
100
AcDbEntity
  8
SEIHIN
100
AcDbLine
 10
327.6895125002986
 20
403.4904771334819
 30
0.0
 11
357.6895125002986
 21
403.4904771334819
 31
0.0
  0
LINE
  5
4E07
330
1A
100
AcDbEntity
  8
SEIHIN
100
AcDbLine
 10
327.6895125002986
 20
393.0356861256271
 30
0.0
 11
357.6895125002986
 21
393.0356861256271
 31
0.0
  0
LINE
  5
4E08
330
1A
100
AcDbEntity
  8
SEIHIN
100
AcDbLine
 10
327.6895125002986
 20
400.5155460040124
 30
0.0
 11
357.6895125002986
 21
400.5155460040124
 31
0.0
  0
LINE
  5
4E0D
330
1A
100
AcDbEntity
  8
SEIHIN
100
AcDbLine
 10
327.0574009796216
 20
399.1197548464068
 30
0.0
 11
327.0574009796221
 21
407.847646581033
 31
0.0
  0
ARC
  5
4E0E
330
1A
100
AcDbEntity
  8
SEIHIN
100
AcDbCircle
 10
326.5776354030047
 20
399.106730775729
 30
0.0
 40
0.4799423245804125
100
AcDbArc
 50
282.3487304618359
 51
1.555011635745075
  0
ARC
  5
4E0F
330
1A
100
AcDbEntity
  8
SEIHIN
100
AcDbCircle
 10
327.4072831914293
 20
399.6816052750204
 30
0.0
 40
8.173533395884822
100
AcDbArc
 50
89.80903357186269
 51
92.45339444811802
  0
LINE
  5
4E10
330
1A
100
AcDbEntity
  8
SEIHIN
100
AcDbLine
 10
324.3216240209755
 20
407.847646581033
 30
0.0
 11
324.3216240209755
 21
399.50839046537
 31
0.0
  0
ARC
  5
4E12
330
1A
100
AcDbEntity
  8
SEIHIN
100
AcDbCircle
 10
324.768817156463
 20
399.1077331585794
 30
0.0
 40
0.4819024430163736
100
AcDbArc
 50
178.8126664054244
 51
258.6273104638631
  0
ARC
  5
4E13
330
1A
100
AcDbEntity
  8
SEIHIN
100
AcDbCircle
 10
323.9717418091702
 20
399.6816052751577
 30
0.0
 40
8.173533395747494
100
AcDbArc
 50
87.54660555185591
 51
90.19096642816339
  0
LINE
  5
4E15
330
1A
100
AcDbEntity
  8
SEIHIN
100
AcDbLine
 10
293.9354982434599
 20
415.1195613328292
 30
0.0
 11
293.9354982434599
 21
416.0682312990353
 31
0.0
  0
LINE
  5
4E16
330
1A
100
AcDbEntity
  8
SEIHIN
100
AcDbLine
 10
326.6895125002982
 20
500.4864447277147
 30
0.0
 11
326.6895125002986
 21
501.3771399661278
 31
0.0
  0
LINE
  5
4E17
330
1A
100
AcDbEntity
  8
SEIHIN
100
AcDbLine
 10
343.6895125002986
 20
505.0456861256272
 30
0.0
 11
343.6895125002986
 21
500.0456861256273
 31
0.0
  0
LINE
  5
4E18
330
1A
100
AcDbEntity
  8
SEIHIN
100
AcDbLine
 10
341.6895125002986
 20
500.0456861256273
 30
0.0
 11
341.6895125002986
 21
505.0456861256272
 31
0.0
  0
LINE
  5
4E1B
330
1A
100
AcDbEntity
  8
SEIHIN
100
AcDbLine
 10
326.1895125002986
 20
510.7870638307537
 30
0.0
 11
326.1895125002986
 21
500.4386122900798
 31
0.0
  0
LINE
  5
4E1C
330
1A
100
AcDbEntity
  8
SEIHIN
100
AcDbLine
 10
357.6895125002986
 20
496.6646159899749
 30
0.0
 11
327.6895125002986
 21
496.6646159899749
 31
0.0
  0
LINE
  5
4E1F
330
1A
100
AcDbEntity
  8
SEIHIN
100
AcDbLine
 10
343.6895125002986
 20
500.0456861256273
 30
0.0
 11
341.6895125002986
 21
500.0456861256273
 31
0.0
  0
ARC
  5
4E20
330
1A
100
AcDbEntity
  8
SEIHIN
100
AcDbCircle
 10
326.6955141786468
 20
499.4924459603907
 30
0.0
 40
0.9940168859654859
100
AcDbArc
 50
0.3501715624436919
 51
90.3459427435949
  0
LINE
  5
4E27
330
1A
100
AcDbEntity
  8
SEIHIN
100
AcDbLine
 10
357.6895125002986
 20
512.7455033192115
 30
0.0
 11
348.0114949584428
 21
513.2617822016901
 31
0.0
  0
LINE
  5
4E28
330
1A
100
AcDbEntity
  8
SEIHIN
100
AcDbLine
 10
343.6895125002986
 20
505.6456861256273
 30
0.0
 11
343.6895125002986
 21
505.0456861256272
 31
0.0
  0
LINE
  5
4E29
330
1A
100
AcDbEntity
  8
SEIHIN
100
AcDbLine
 10
341.6895125002986
 20
505.6456861256273
 30
0.0
 11
341.6895125002986
 21
505.0456861256272
 31
0.0
  0
LINE
  5
4E2A
330
1A
100
AcDbEntity
  8
SEIHIN
100
AcDbLine
 10
343.6895125002986
 20
507.6456861256273
 30
0.0
 11
343.6895125002986
 21
505.6456861256273
 31
0.0
  0
LINE
  5
4E2B
330
1A
100
AcDbEntity
  8
SEIHIN
100
AcDbLine
 10
341.6895125002986
 20
507.6456861256273
 30
0.0
 11
343.6895125002986
 21
507.6456861256273
 31
0.0
  0
LINE
  5
4E2C
330
1A
100
AcDbEntity
  8
SEIHIN
100
AcDbLine
 10
341.6895125002986
 20
505.6456861256273
 30
0.0
 11
341.6895125002986
 21
507.6456861256273
 31
0.0
  0
LINE
  5
4E2D
330
1A
100
AcDbEntity
  8
SEIHIN
100
AcDbLine
 10
327.6895125002986
 20
510.7870638307537
 30
0.0
 11
326.1895125002986
 21
510.7870638307537
 31
0.0
  0
LINE
  5
4E2E
330
1A
100
AcDbEntity
  8
SEIHIN
100
AcDbLine
 10
326.6895125002986
 20
501.3771399661278
 30
0.0
 11
327.6895125002986
 21
501.3771399661278
 31
0.0
  0
ARC
  5
4E2F
330
1A
100
AcDbEntity
  8
SEIHIN
100
AcDbCircle
 10
324.1895886469212
 20
508.6333473630315
 30
0.0
 40
0.9999238562778533
100
AcDbArc
 50
0.004363876978395
 51
90.00436321232079
  0
LINE
  5
4E30
330
1A
100
AcDbEntity
  8
SEIHIN
100
AcDbLine
 10
325.1895125002986
 20
501.2971893635824
 30
0.0
 11
325.1895125002986
 21
509.5456109867874
 31
0.0
  0
LINE
  5
4E38
330
1A
100
AcDbEntity
  8
SEIHIN
100
AcDbLine
 10
293.9354982434599
 20
415.1195613328292
 30
0.0
 11
243.6124757574674
 21
415.1195613328292
 31
0.0
  0
LINE
  5
4E3B
330
1A
100
AcDbEntity
  8
SEIHIN
100
AcDbLine
 10
327.7002509262316
 20
398.6353794028602
 30
0.0
 11
243.5651882037796
 21
398.6353794028602
 31
0.0
  0
LINE
  5
4E3D
330
1A
100
AcDbEntity
  8
SEIHIN
100
AcDbLine
 10
323.94449953057
 20
407.8550932717022
 30
0.0
 11
243.5821717466279
 21
407.8550932717022
 31
0.0
  0
DIMENSION
  5
4E42
330
1A
100
AcDbEntity
  8
SUNPOU
100
AcDbDimension
  2
*D6
 10
357.6897530050389
 20
319.7447035257737
 30
0.0
 11
242.6895125002981
 21
324.2447035257737
 31
0.0
 70
    32
  3
STANDARD
100
AcDbAlignedDimension
 13
127.6892719955574
 23
287.7404222528026
 33
0.0
 14
357.6897530050389
 24
287.7404222528042
 34
0.0
100
AcDbRotatedDimension
  0
TEXT
  5
511E
330
1A
100
AcDbEntity
  8
彫刻
 48
10.0
100
AcDbText
 10
171.7712793222339
 20
416.6641638165891
 30
0.0
 40
2.5
  1
のきといは接着しないでください
 50
90.0
 41
1.8
  7
MSPｺ_ｼｯｸ
100
AcDbText
  0
LINE
  5
511F
330
1A
100
AcDbEntity
  8
彫刻
 48
10.0
100
AcDbLine
 10
166.559453523511
 20
463.6791660213247
 30
0.0
 11
166.559453523511
 21
461.4291660213249
 31
0.0
  0
LINE
  5
5120
330
1A
100
AcDbEntity
  8
彫刻
 48
10.0
100
AcDbLine
 10
162.6942651857202
 20
462.5856575545757
 30
0.0
 11
164.8719535235111
 21
465.9291660213247
 31
0.0
  0
LINE
  5
513B
330
1A
100
AcDbEntity
  8
彫刻
 48
10.0
100
AcDbLine
 10
164.8719535235111
 20
459.1791660213251
 30
0.0
 11
164.8719535235111
 21
461.4291660213248
 31
0.0
  0
LINE
  5
513C
330
1A
100
AcDbEntity
  8
彫刻
 48
10.0
100
AcDbLine
 10
162.6942651857202
 20
462.5856575545757
 30
0.0
 11
164.8719535235111
 21
459.179166021325
 31
0.0
  0
LINE
  5
513D
330
1A
100
AcDbEntity
  8
彫刻
 48
10.0
100
AcDbLine
 10
166.5594535235111
 20
461.4291660213249
 30
0.0
 11
164.8719535235111
 21
461.4291660213249
 31
0.0
  0
LINE
  5
5142
330
1A
100
AcDbEntity
  8
彫刻
 48
10.0
100
AcDbLine
 10
166.5594535235111
 20
463.6791660213248
 30
0.0
 11
164.8719535235111
 21
463.6791660213249
 31
0.0
  0
LINE
  5
5143
330
1A
100
AcDbEntity
  8
彫刻
 48
10.0
100
AcDbLine
 10
164.8719535235111
 20
465.9291660213247
 30
0.0
 11
164.8719535235111
 21
463.6791660213249
 31
0.0
  0
TEXT
  5
5147
330
1A
100
AcDbEntity
  8
彫刻
 48
10.0
100
AcDbText
 10
313.6077456783628
 20
501.586786000022
 30
0.0
 40
2.5
  1
のきといは接着しないでください
 50
270.0
 41
1.8
  7
MSPｺ_ｼｯｸ
100
AcDbText
  0
LINE
  5
5148
330
1A
100
AcDbEntity
  8
彫刻
 48
10.0
100
AcDbLine
 10
322.6847598148765
 20
462.5856575545757
 30
0.0
 11
320.5070714770854
 21
465.9921490878264
 31
0.0
  0
LINE
  5
5149
330
1A
100
AcDbEntity
  8
彫刻
 48
10.0
100
AcDbLine
 10
318.8195714770856
 20
461.4921490878267
 30
0.0
 11
318.8195714770856
 21
463.7421490878265
 31
0.0
  0
LINE
  5
5192
330
1A
100
AcDbEntity
  8
彫刻
 48
10.0
100
AcDbLine
 10
320.5070714770854
 20
459.2421490878267
 30
0.0
 11
320.5070714770854
 21
461.4921490878265
 31
0.0
  0
LINE
  5
5193
330
1A
100
AcDbEntity
  8
彫刻
 48
10.0
100
AcDbLine
 10
322.6847598148765
 20
462.5856575545757
 30
0.0
 11
320.5070714770854
 21
459.2421490878267
 31
0.0
  0
LINE
  5
5194
330
1A
100
AcDbEntity
  8
彫刻
 48
10.0
100
AcDbLine
 10
318.8195714770856
 20
461.4921490878266
 30
0.0
 11
320.5070714770856
 21
461.4921490878265
 31
0.0
  0
LINE
  5
519D
330
1A
100
AcDbEntity
  8
彫刻
 48
10.0
100
AcDbLine
 10
320.5070714770854
 20
465.9921490878263
 30
0.0
 11
320.5070714770854
 21
463.7421490878266
 31
0.0
  0
LINE
  5
519E
330
1A
100
AcDbEntity
  8
彫刻
 48
10.0
100
AcDbLine
 10
318.8195714770856
 20
463.7421490878265
 30
0.0
 11
320.5070714770856
 21
463.7421490878265
 31
0.0
  0
TEXT
  5
52B2
330
1A
100
AcDbEntity
  8
彫刻
 48
10.0
100
AcDbText
 10
128.5325469739025
 20
383.7992998195055
 30
0.0
 40
2.849999999999999
  1
のきとい挿入位置
 41
0.9
  7
MSPｺ_ｼｯｸ
100
AcDbText
  0
LINE
  5
52B3
330
1A
100
AcDbEntity
  8
彫刻
 48
10.0
100
AcDbLine
 10
135.689512500356
 20
378.8985728821856
 30
0.0
 11
127.6895125003562
 21
378.8985728821998
 31
0.0
  0
LINE
  5
52B4
330
1A
100
AcDbEntity
  8
彫刻
 48
10.0
100
AcDbLine
 10
135.6895125003577
 20
379.8985728821858
 30
0.0
 11
127.689512500358
 21
379.8985728821997
 31
0.0
  0
LINE
  5
52B5
330
1A
100
AcDbEntity
  8
彫刻
 48
10.0
100
AcDbLine
 10
198.189512500356
 20
378.8985728820758
 30
0.0
 11
190.189512500356
 21
378.8985728820898
 31
0.0
  0
LINE
  5
52B6
330
1A
100
AcDbEntity
  8
彫刻
 48
10.0
100
AcDbLine
 10
200.1895125003577
 20
379.8985728820723
 30
0.0
 11
190.1895125003578
 21
379.8985728820898
 31
0.0
  0
LINE
  5
52B7
330
1A
100
AcDbEntity
  8
彫刻
 48
10.0
100
AcDbLine
 10
148.1895125003578
 20
379.8985728821638
 30
0.0
 11
140.1895125003577
 21
379.8985728821778
 31
0.0
  0
LINE
  5
52B8
330
1A
100
AcDbEntity
  8
彫刻
 48
10.0
100
AcDbLine
 10
148.189512500356
 20
378.8985728821637
 30
0.0
 11
140.1895125003559
 21
378.8985728821777
 31
0.0
  0
LINE
  5
52B9
330
1A
100
AcDbEntity
  8
彫刻
 48
10.0
100
AcDbLine
 10
135.689512500356
 20
378.8985728821856
 30
0.0
 11
135.6895125003578
 21
379.8985728821855
 31
0.0
  0
LINE
  5
52BA
330
1A
100
AcDbEntity
  8
彫刻
 48
10.0
100
AcDbLine
 10
140.189512500356
 20
378.8985728821779
 30
0.0
 11
140.1895125003578
 21
379.8985728821777
 31
0.0
  0
LINE
  5
52BB
330
1A
100
AcDbEntity
  8
彫刻
 48
10.0
100
AcDbLine
 10
160.6895125003577
 20
379.8985728821418
 30
0.0
 11
152.6895125003578
 21
379.8985728821559
 31
0.0
  0
LINE
  5
52BC
330
1A
100
AcDbEntity
  8
彫刻
 48
10.0
100
AcDbLine
 10
160.689512500356
 20
378.8985728821418
 30
0.0
 11
152.689512500356
 21
378.8985728821558
 31
0.0
  0
LINE
  5
52BD
330
1A
100
AcDbEntity
  8
彫刻
 48
10.0
100
AcDbLine
 10
152.689512500356
 20
378.8985728821559
 30
0.0
 11
152.6895125003578
 21
379.8985728821558
 31
0.0
  0
LINE
  5
52BE
330
1A
100
AcDbEntity
  8
彫刻
 48
10.0
100
AcDbLine
 10
148.189512500356
 20
378.8985728821636
 30
0.0
 11
148.1895125003578
 21
379.8985728821636
 31
0.0
  0
LINE
  5
52BF
330
1A
100
AcDbEntity
  8
彫刻
 48
10.0
100
AcDbLine
 10
160.689512500356
 20
378.8985728821418
 30
0.0
 11
160.6895125003578
 21
379.8985728821417
 31
0.0
  0
LINE
  5
52C0
330
1A
100
AcDbEntity
  8
彫刻
 48
10.0
100
AcDbLine
 10
185.6895125003578
 20
379.8985728820976
 30
0.0
 11
177.6895125003577
 21
379.8985728821118
 31
0.0
  0
LINE
  5
52C1
330
1A
100
AcDbEntity
  8
彫刻
 48
10.0
100
AcDbLine
 10
185.689512500356
 20
378.8985728820977
 30
0.0
 11
177.689512500356
 21
378.8985728821117
 31
0.0
  0
LINE
  5
52C2
330
1A
100
AcDbEntity
  8
彫刻
 48
10.0
100
AcDbLine
 10
173.189512500356
 20
378.8985728821197
 30
0.0
 11
165.1895125003559
 21
378.8985728821338
 31
0.0
  0
LINE
  5
52C3
330
1A
100
AcDbEntity
  8
彫刻
 48
10.0
100
AcDbLine
 10
173.1895125003578
 20
379.8985728821197
 30
0.0
 11
165.1895125003577
 21
379.8985728821338
 31
0.0
  0
LINE
  5
52C4
330
1A
100
AcDbEntity
  8
彫刻
 48
10.0
100
AcDbLine
 10
165.189512500356
 20
378.898572882134
 30
0.0
 11
165.1895125003578
 21
379.8985728821339
 31
0.0
  0
LINE
  5
52C5
330
1A
100
AcDbEntity
  8
彫刻
 48
10.0
100
AcDbLine
 10
177.689512500356
 20
378.898572882112
 30
0.0
 11
177.6895125003578
 21
379.898572882112
 31
0.0
  0
LINE
  5
52C6
330
1A
100
AcDbEntity
  8
彫刻
 48
10.0
100
AcDbLine
 10
173.189512500356
 20
378.8985728821197
 30
0.0
 11
173.1895125003578
 21
379.8985728821197
 31
0.0
  0
LINE
  5
52C7
330
1A
100
AcDbEntity
  8
彫刻
 48
10.0
100
AcDbLine
 10
185.689512500356
 20
378.8985728820978
 30
0.0
 11
185.6895125003578
 21
379.8985728820976
 31
0.0
  0
LINE
  5
52C8
330
1A
100
AcDbEntity
  8
彫刻
 48
10.0
100
AcDbLine
 10
190.189512500356
 20
378.89857288209
 30
0.0
 11
190.1895125003578
 21
379.8985728820899
 31
0.0
  0
LINE
  5
52C9
330
1A
100
AcDbEntity
  8
彫刻
 48
10.0
100
AcDbLine
 10
198.189512500356
 20
378.8985728820758
 30
0.0
 11
198.1895125003578
 21
379.8985728820757
 31
0.0
  0
LINE
  5
52CA
330
1A
100
AcDbEntity
  8
彫刻
 48
10.0
100
AcDbLine
 10
200.1895125003541
 20
377.8985728820723
 30
0.0
 11
198.1895125003542
 21
377.8985728820758
 31
0.0
  0
LINE
  5
52CB
330
1A
100
AcDbEntity
  8
彫刻
 48
10.0
100
AcDbLine
 10
198.1895125003542
 20
377.8985728820757
 30
0.0
 11
198.1895125003578
 21
379.8985728820758
 31
0.0
  0
LINE
  5
52CC
330
1A
100
AcDbEntity
  8
彫刻
 48
10.0
100
AcDbLine
 10
200.1895125003541
 20
377.8985728820723
 30
0.0
 11
200.1895125003577
 21
379.8985728820723
 31
0.0
  0
LINE
  5
52CD
330
1A
100
AcDbEntity
  8
彫刻
 48
10.0
100
AcDbLine
 10
285.1895125002986
 20
379.9275676676812
 30
0.0
 11
295.1895125002986
 21
379.9275676676812
 31
0.0
  0
LINE
  5
52CE
330
1A
100
AcDbEntity
  8
彫刻
 48
10.0
100
AcDbLine
 10
287.1895125002986
 20
378.9275676676812
 30
0.0
 11
295.1895125002986
 21
378.9275676676812
 31
0.0
  0
LINE
  5
52CF
330
1A
100
AcDbEntity
  8
彫刻
 48
10.0
100
AcDbLine
 10
285.1895125002986
 20
377.9275676676812
 30
0.0
 11
285.1895125002986
 21
379.9275676676812
 31
0.0
  0
LINE
  5
52D0
330
1A
100
AcDbEntity
  8
彫刻
 48
10.0
100
AcDbLine
 10
287.1895125002986
 20
377.9275676676812
 30
0.0
 11
287.1895125002986
 21
379.9275676676812
 31
0.0
  0
LINE
  5
52D1
330
1A
100
AcDbEntity
  8
彫刻
 48
10.0
100
AcDbLine
 10
285.1895125002986
 20
377.9275676676812
 30
0.0
 11
287.1895125002986
 21
377.9275676676812
 31
0.0
  0
LINE
  5
52D2
330
1A
100
AcDbEntity
  8
彫刻
 48
10.0
100
AcDbLine
 10
287.1895125002986
 20
378.9275676676812
 30
0.0
 11
287.1895125002986
 21
379.9275676676812
 31
0.0
  0
LINE
  5
52D3
330
1A
100
AcDbEntity
  8
彫刻
 48
10.0
100
AcDbLine
 10
299.6895125002986
 20
378.9275676676812
 30
0.0
 11
307.6895125002986
 21
378.9275676676812
 31
0.0
  0
LINE
  5
52D4
330
1A
100
AcDbEntity
  8
彫刻
 48
10.0
100
AcDbLine
 10
299.6895125002986
 20
379.9275676676812
 30
0.0
 11
307.6895125002986
 21
379.9275676676812
 31
0.0
  0
LINE
  5
52D5
330
1A
100
AcDbEntity
  8
彫刻
 48
10.0
100
AcDbLine
 10
295.1895125002986
 20
378.9275676676814
 30
0.0
 11
295.1895125002986
 21
379.9275676676813
 31
0.0
  0
LINE
  5
52D6
330
1A
100
AcDbEntity
  8
彫刻
 48
10.0
100
AcDbLine
 10
299.6895125002986
 20
378.9275676676812
 30
0.0
 11
299.6895125002986
 21
379.9275676676812
 31
0.0
  0
LINE
  5
52D7
330
1A
100
AcDbEntity
  8
彫刻
 48
10.0
100
AcDbLine
 10
312.1895125002986
 20
379.9275676676812
 30
0.0
 11
320.1895125002986
 21
379.9275676676812
 31
0.0
  0
LINE
  5
52D8
330
1A
100
AcDbEntity
  8
彫刻
 48
10.0
100
AcDbLine
 10
312.1895125002986
 20
378.9275676676812
 30
0.0
 11
320.1895125002986
 21
378.9275676676812
 31
0.0
  0
LINE
  5
52D9
330
1A
100
AcDbEntity
  8
彫刻
 48
10.0
100
AcDbLine
 10
312.1895125002986
 20
378.9275676676812
 30
0.0
 11
312.1895125002986
 21
379.9275676676812
 31
0.0
  0
LINE
  5
52DA
330
1A
100
AcDbEntity
  8
彫刻
 48
10.0
100
AcDbLine
 10
307.6895125002986
 20
378.9275676676814
 30
0.0
 11
307.6895125002986
 21
379.9275676676813
 31
0.0
  0
LINE
  5
52DB
330
1A
100
AcDbEntity
  8
彫刻
 48
10.0
100
AcDbLine
 10
320.1895125002986
 20
378.9275676676814
 30
0.0
 11
320.1895125002986
 21
379.9275676676813
 31
0.0
  0
LINE
  5
52DC
330
1A
100
AcDbEntity
  8
彫刻
 48
10.0
100
AcDbLine
 10
349.6895125002986
 20
379.9275676676812
 30
0.0
 11
357.6895125002981
 21
379.9275676676812
 31
0.0
  0
LINE
  5
52DD
330
1A
100
AcDbEntity
  8
彫刻
 48
10.0
100
AcDbLine
 10
349.6895125002986
 20
378.9275676676812
 30
0.0
 11
357.6895125002981
 21
378.9275676676812
 31
0.0
  0
LINE
  5
52DE
330
1A
100
AcDbEntity
  8
彫刻
 48
10.0
100
AcDbLine
 10
324.6895125002986
 20
378.9275676676812
 30
0.0
 11
332.6895125002986
 21
378.9275676676812
 31
0.0
  0
LINE
  5
52DF
330
1A
100
AcDbEntity
  8
彫刻
 48
10.0
100
AcDbLine
 10
324.6895125002986
 20
379.9275676676812
 30
0.0
 11
332.6895125002986
 21
379.9275676676812
 31
0.0
  0
LINE
  5
52E0
330
1A
100
AcDbEntity
  8
彫刻
 48
10.0
100
AcDbLine
 10
324.6895125002986
 20
378.9275676676812
 30
0.0
 11
324.6895125002986
 21
379.9275676676812
 31
0.0
  0
LINE
  5
52E1
330
1A
100
AcDbEntity
  8
彫刻
 48
10.0
100
AcDbLine
 10
332.6895125002986
 20
378.9275676676814
 30
0.0
 11
332.6895125002986
 21
379.9275676676812
 31
0.0
  0
LINE
  5
52E2
330
1A
100
AcDbEntity
  8
彫刻
 48
10.0
100
AcDbLine
 10
337.1895125002986
 20
378.9275676676812
 30
0.0
 11
345.1895125002986
 21
378.9275676676812
 31
0.0
  0
LINE
  5
52E3
330
1A
100
AcDbEntity
  8
彫刻
 48
10.0
100
AcDbLine
 10
337.1895125002986
 20
379.9275676676812
 30
0.0
 11
345.1895125002986
 21
379.9275676676812
 31
0.0
  0
LINE
  5
52E4
330
1A
100
AcDbEntity
  8
彫刻
 48
10.0
100
AcDbLine
 10
337.1895125002986
 20
378.9275676676812
 30
0.0
 11
337.1895125002986
 21
379.927567667681
 31
0.0
  0
LINE
  5
52E5
330
1A
100
AcDbEntity
  8
彫刻
 48
10.0
100
AcDbLine
 10
349.6895125002986
 20
378.9275676676812
 30
0.0
 11
349.6895125002986
 21
379.927567667681
 31
0.0
  0
LINE
  5
52E6
330
1A
100
AcDbEntity
  8
彫刻
 48
10.0
100
AcDbLine
 10
345.1895125002986
 20
378.9275676676814
 30
0.0
 11
345.1895125002986
 21
379.9275676676812
 31
0.0
  0
TEXT
  5
52E7
330
1A
100
AcDbEntity
  8
彫刻
 48
10.0
100
AcDbText
 10
328.7254337731012
 20
384.7280585875288
 30
0.0
 40
2.849999999999999
  1
のきとい挿入位置
 41
0.9
  7
MSPｺ_ｼｯｸ
100
AcDbText
  0
DIMENSION
  5
52E9
330
1A
100
AcDbEntity
  8
SUNPOU
100
AcDbDimension
  2
*D8
 10
285.1895125002986
 20
353.4262599415857
 30
0.0
 11
242.6895125002986
 21
358.4262599415857
 31
0.0
 70
    32
  3
STANDARD
100
AcDbAlignedDimension
 13
200.1895125002986
 23
395.2375245679697
 33
0.0
 14
285.1895125002986
 24
395.2375245679697
 34
0.0
100
AcDbRotatedDimension
1001
ACAD
1000
DSTYLE
1002
{
1070
   372
1070
    -1
1070
   371
1070
    -1
1070
    41
1040
7.0
1070
    42
1040
6.0
1070
    43
1040
14.0
1070
    44
1040
3.0
1070
    73
1070
     0
1070
    74
1070
     0
1070
    77
1070
     3
1070
   140
1040
6.0
1070
   141
1040
150.0
1070
   147
1040
2.0
1070
   172
1070
     1
1070
   173
1070
     1
1070
   176
1070
   256
1070
   177
1070
   256
1070
   178
1070
   256
1070
   271
1070
     0
1070
   272
1070
     2
1070
     6
1000
OPEN
1070
     7
1000
OPEN
1002
}
  0
DIMENSION
  5
52EA
330
1A
100
AcDbEntity
  8
SUNPOU
100
AcDbDimension
  2
*D7
 10
357.6895125002986
 20
353.4262599415857
 30
0.0
 11
321.4395125002986
 21
358.4262599415857
 31
0.0
 70
    32
  1
※a<>
  3
STANDARD
100
AcDbAlignedDimension
 13
285.1895125002986
 23
395.2375245679697
 33
0.0
 14
357.6895125002986
 24
378.3400278679697
 34
0.0
100
AcDbRotatedDimension
1001
ACAD
1000
DSTYLE
1002
{
1070
    41
1040
7.0
1070
    42
1040
6.0
1070
    43
1040
14.0
1070
    44
1040
3.0
1070
    73
1070
     0
1070
    74
1070
     0
1070
    77
1070
     3
1070
   140
1040
6.0
1070
   141
1040
150.0
1070
   147
1040
2.0
1070
   172
1070
     1
1070
   173
1070
     1
1070
   176
1070
   256
1070
   177
1070
   256
1070
   178
1070
   256
1070
   271
1070
     1
1070
   272
1070
     2
1070
     6
1000
OPEN
1070
     7
1000
OPEN
1070
   371
1070
    -1
1070
   372
1070
    -1
1002
}
  0
LINE
  5
5315
330
1A
100
AcDbEntity
  8
SUNPOU
  6
PHANTOM
 62
     4
 48
5.0
100
AcDbLine
 10
285.1895125002986
 20
511.0016676431969
 30
0.0
 11
285.1895125002986
 21
395.2375245679697
 31
0.0
  0
LINE
  5
5316
330
1A
100
AcDbEntity
  8
SUNPOU
  6
PHANTOM
 62
     4
 48
5.0
100
AcDbLine
 10
200.1895125002984
 20
511.0016676431969
 30
0.0
 11
200.1895125002986
 21
395.2375245679697
 31
0.0
  0
TEXT
  5
5393
330
1A
100
AcDbEntity
  8
MOJI
100
AcDbText
 10
528.8242099957506
 20
398.0431222508127
 30
0.0
 40
5.599999999999998
  1
洋風じょうご用ストッパー２個入り
 41
0.9
  7
MSPｺ_ｼｯｸ
100
AcDbText
  0
ARC
  5
5394
330
1A
100
AcDbEntity
  8
SEIHIN
  6
CONTINUOUS
 62
     3
 48
5.0
100
AcDbCircle
 10
654.9852895449039
 20
474.0628577650891
 30
0.0
 40
0.5
100
AcDbArc
 50
90.0
 51
180.0
  0
DIMENSION
  5
5395
330
1A
100
AcDbEntity
  8
SUNPOU
100
AcDbDimension
  2
*D14
 10
656.2134895449044
 20
446.067490401369
 30
0.0
 11
665.2134895449044
 21
450.067490401369
 31
0.0
 70
    32
  3
STANDARD
100
AcDbAlignedDimension
 13
654.4852895449039
 23
461.5628577650891
 33
0.0
 14
656.2134895449044
 24
474.0927577650891
 34
0.0
100
AcDbRotatedDimension
1001
ACAD
1000
DSTYLE
1002
{
1070
   372
1070
    -1
1070
   371
1070
    -1
1070
    41
1040
3.0
1070
    42
1040
3.0
1070
    43
1040
7.0
1070
    44
1040
1.5
1070
    73
1070
     0
1070
    74
1070
     0
1070
    77
1070
     3
1070
   140
1040
6.0
1070
   141
1040
150.0
1070
   147
1040
1.0
1070
   172
1070
     1
1070
   173
1070
     1
1070
   176
1070
   256
1070
   177
1070
   256
1070
   178
1070
   256
1070
   271
1070
     0
1070
   272
1070
     2
1070
     6
1000
OPEN
1070
     7
1000
OPEN
1002
}
  0
LINE
  5
5396
330
1A
100
AcDbEntity
  8
SEIHIN
  6
CONTINUOUS
 62
     3
 48
5.0
100
AcDbLine
 10
650.9852895449039
 20
478.5628577650891
 30
0.0
 11
659.4141895449042
 21
478.5628577650891
 31
0.0
  0
LINE
  5
5397
330
1A
100
AcDbEntity
  8
SEIHIN
  6
HIDDEN
 62
     6
 48
5.0
100
AcDbLine
 10
659.7185895449042
 20
476.5628577650891
 30
0.0
 11
652.9852895449039
 21
476.5628577650891
 31
0.0
  0
DIMENSION
  5
5398
330
1A
100
AcDbEntity
  8
SUNPOU
100
AcDbDimension
  2
*D12
 10
659.914183544904
 20
495.5935518484015
 30
0.0
 11
655.1997365449039
 21
499.5935518484015
 31
0.0
 70
    32
  3
STANDARD
100
AcDbAlignedDimension
 13
650.4852895449039
 23
478.0628577650891
 33
0.0
 14
659.914183544904
 24
478.0628577650891
 34
0.0
100
AcDbRotatedDimension
1001
ACAD
1000
DSTYLE
1002
{
1070
   372
1070
    -1
1070
   371
1070
    -1
1070
    41
1040
3.0
1070
    42
1040
3.0
1070
    43
1040
7.0
1070
    44
1040
1.5
1070
    73
1070
     0
1070
    74
1070
     0
1070
    77
1070
     3
1070
   140
1040
6.0
1070
   141
1040
150.0
1070
   147
1040
1.0
1070
   172
1070
     1
1070
   173
1070
     1
1070
   176
1070
   256
1070
   177
1070
   256
1070
   178
1070
   256
1070
   271
1070
     0
1070
   272
1070
     2
1070
     6
1000
OPEN
1070
     7
1000
OPEN
1002
}
  0
DIMENSION
  5
5399
330
1A
100
AcDbEntity
  8
SUNPOU
100
AcDbDimension
  2
*D11
 10
582.720094251912
 20
496.0935518484015
 30
0.0
 11
556.2200442519119
 21
501.0935518484016
 31
0.0
 70
    32
  3
STANDARD
100
AcDbAlignedDimension
 13
529.7199942519118
 23
477.5627577650888
 33
0.0
 14
582.720094251912
 24
477.562857765089
 34
0.0
100
AcDbRotatedDimension
1001
ACAD
1000
DSTYLE
1002
{
1070
    41
1040
7.0
1070
    42
1040
6.0
1070
    43
1040
14.0
1070
    44
1040
3.0
1070
    73
1070
     0
1070
    74
1070
     0
1070
    77
1070
     3
1070
   140
1040
6.0
1070
   141
1040
150.0
1070
   147
1040
2.0
1070
   172
1070
     1
1070
   173
1070
     1
1070
   176
1070
   256
1070
   177
1070
   256
1070
   178
1070
   256
1070
   271
1070
     0
1070
   272
1070
     0
1070
   341
1005
4825
1070
     6
1000
OPEN
1070
     7
1000
OPEN
1070
   371
1070
    -1
1070
   372
1070
    -1
1002
}
  0
DIMENSION
  5
539A
330
1A
100
AcDbEntity
  8
SUNPOU
 48
5.0
100
AcDbDimension
  2
*D10
 10
601.7755540817907
 20
461.5653990652581
 30
0.0
 11
597.7755540817906
 21
469.0641284151737
 31
0.0
 70
    32
  3
STANDARD
100
AcDbAlignedDimension
 13
580.7200942519121
 23
476.5628577650891
 33
0.0
 14
581.7913413019
 24
461.5653990652581
 34
0.0
 50
90.0
100
AcDbRotatedDimension
1001
ACAD
1000
DSTYLE
1002
{
1070
   372
1070
    -1
1070
   371
1070
    -1
1070
    41
1040
3.0
1070
    42
1040
3.0
1070
    43
1040
7.0
1070
    44
1040
1.5
1070
    73
1070
     0
1070
    74
1070
     0
1070
    77
1070
     3
1070
   140
1040
6.0
1070
   141
1040
150.0
1070
   147
1040
1.0
1070
   172
1070
     1
1070
   173
1070
     1
1070
   176
1070
   256
1070
   177
1070
   256
1070
   178
1070
   256
1070
   271
1070
     0
1070
   272
1070
     2
1070
     6
1000
OPEN
1070
     7
1000
OPEN
1002
}
  0
DIMENSION
  5
539B
330
1A
100
AcDbEntity
  8
SUNPOU
 48
5.0
100
AcDbDimension
  2
*D9
 10
615.8210380478649
 20
461.5653990652581
 30
0.0
 11
611.8210380478648
 21
470.0641284151736
 31
0.0
 70
    32
  3
STANDARD
100
AcDbAlignedDimension
 13
581.7200942519121
 23
478.5628577650891
 33
0.0
 14
581.7913413019
 24
461.5653990652581
 34
0.0
 50
90.0
100
AcDbRotatedDimension
1001
ACAD
1000
DSTYLE
1002
{
1070
   372
1070
    -1
1070
   371
1070
    -1
1070
    41
1040
3.0
1070
    42
1040
3.0
1070
    43
1040
7.0
1070
    44
1040
1.5
1070
    73
1070
     0
1070
    74
1070
     0
1070
    77
1070
     3
1070
   140
1040
6.0
1070
   141
1040
150.0
1070
   147
1040
1.0
1070
   172
1070
     1
1070
   173
1070
     1
1070
   176
1070
   256
1070
   177
1070
   256
1070
   178
1070
   256
1070
   271
1070
     0
1070
   272
1070
     2
1070
     6
1000
OPEN
1070
     7
1000
OPEN
1002
}
  0
LINE
  5
539C
330
1A
100
AcDbEntity
  8
CENTER_L
 48
10.0
100
AcDbLine
 10
556.2199942519119
 20
444.867728681188
 30
0.0
 11
556.2199942519119
 21
421.8677286811437
 31
0.0
  0
LINE
  5
539D
330
1A
100
AcDbEntity
  8
SEIHIN
  6
CONTINUOUS
 62
     3
 48
5.0
100
AcDbLine
 10
582.720094251912
 20
429.3677786812724
 30
0.0
 11
529.7199942519118
 21
429.3677786812724
 31
0.0
  0
LINE
  5
539E
330
1A
100
AcDbEntity
  8
SEIHIN
  6
CONTINUOUS
 62
     3
 48
5.0
100
AcDbLine
 10
582.720094251912
 20
431.8677786812725
 30
0.0
 11
529.7199942519118
 21
431.8677786812725
 31
0.0
  0
LINE
  5
539F
330
1A
100
AcDbEntity
  8
SEIHIN
  6
CONTINUOUS
 62
     3
 48
5.0
100
AcDbLine
 10
582.720094251912
 20
433.8677786812724
 30
0.0
 11
529.7199942519118
 21
433.8677786812724
 31
0.0
  0
LINE
  5
53A0
330
1A
100
AcDbEntity
  8
SEIHIN
100
AcDbLine
 10
529.7199942519118
 20
428.8676767204747
 30
0.0
 11
582.720094251912
 21
428.8677806420355
 31
0.0
  0
LINE
  5
53A1
330
1A
100
AcDbEntity
  8
SEIHIN
  6
CONTINUOUS
 62
     3
 48
5.0
100
AcDbLine
 10
580.7200942519121
 20
435.8677786812725
 30
0.0
 11
531.7199942519119
 21
435.8677786812725
 31
0.0
  0
LINE
  5
53A2
330
1A
100
AcDbEntity
  8
SEIHIN
  6
CONTINUOUS
 62
     3
 48
5.0
100
AcDbLine
 10
529.7199942519118
 20
428.8676767204747
 30
0.0
 11
529.7199942519118
 21
436.8676786812725
 31
0.0
  0
LINE
  5
53A3
330
1A
100
AcDbEntity
  8
SEIHIN
  6
CONTINUOUS
 62
     3
 48
5.0
100
AcDbLine
 10
531.7199942519119
 20
435.8677786812725
 30
0.0
 11
531.7199942519119
 21
436.8676786812725
 31
0.0
  0
ARC
  5
53A4
330
1A
100
AcDbEntity
  8
SEIHIN
  6
CONTINUOUS
 62
     3
 48
5.0
100
AcDbCircle
 10
530.7199942519118
 20
436.8676786812725
 30
0.0
 40
1.0
100
AcDbArc
 50
0.0
 51
180.0
  0
LINE
  5
53A5
330
1A
100
AcDbEntity
  8
SEIHIN
  6
CONTINUOUS
 62
     3
 48
5.0
100
AcDbLine
 10
582.720094251912
 20
428.8677806420355
 30
0.0
 11
582.720094251912
 21
436.8677786812725
 31
0.0
  0
LINE
  5
53A6
330
1A
100
AcDbEntity
  8
SEIHIN
  6
CONTINUOUS
 62
     3
 48
5.0
100
AcDbLine
 10
580.7200942519121
 20
435.8677786812725
 30
0.0
 11
580.7200942519121
 21
436.8677786812725
 31
0.0
  0
ARC
  5
53A7
330
1A
100
AcDbEntity
  8
SEIHIN
  6
CONTINUOUS
 62
     3
 48
5.0
100
AcDbCircle
 10
581.7200942519121
 20
436.8677786812725
 30
0.0
 40
1.0
100
AcDbArc
 50
0.0
 51
180.0
  0
LINE
  5
53A8
330
1A
100
AcDbEntity
  8
SEIHIN
  6
CONTINUOUS
 62
     3
 48
5.0
100
AcDbLine
 10
580.7200942519121
 20
476.5628577650891
 30
0.0
 11
556.2200942519121
 21
476.5628577650891
 31
0.0
  0
LINE
  5
53A9
330
1A
100
AcDbEntity
  8
SEIHIN
  6
CONTINUOUS
 62
     3
 48
5.0
100
AcDbLine
 10
556.2200942519121
 20
461.5628577650891
 30
0.0
 11
581.7200942519121
 21
461.5628577650891
 31
0.0
  0
TEXT
  5
53AA
330
1A
100
AcDbEntity
  8
彫刻
 48
0.3
100
AcDbText
 10
567.0832928319835
 20
471.9570457863413
 30
0.0
 40
2.5
  1
上にして下さい
 50
180.0
 41
0.9
  7
MSPｺ_ｼｯｸ
100
AcDbText
  0
TEXT
  5
53AB
330
1A
100
AcDbEntity
  8
彫刻
 48
0.3
100
AcDbText
 10
567.0832928319835
 20
467.2924461662428
 30
0.0
 40
2.5
  1
この面を
 50
180.0
 41
0.9
  7
MSPｺ_ｼｯｸ
100
AcDbText
  0
LINE
  5
53AC
330
1A
100
AcDbEntity
  8
SEIHIN
  6
CONTINUOUS
 62
     3
 48
5.0
100
AcDbLine
 10
529.7199942519118
 20
462.5627577650889
 30
0.0
 11
529.7199942519118
 21
477.5627577650888
 31
0.0
  0
LINE
  5
53AD
330
1A
100
AcDbEntity
  8
SEIHIN
  6
CONTINUOUS
 62
     3
 48
5.0
100
AcDbLine
 10
531.7199942519119
 20
462.5627577650889
 30
0.0
 11
531.7199942519119
 21
477.5627577650888
 31
0.0
  0
LINE
  5
53AE
330
1A
100
AcDbEntity
  8
CENTER_L
 48
10.0
100
AcDbLine
 10
556.2199942519119
 20
481.0436577650889
 30
0.0
 11
556.2199942519119
 21
456.311257765089
 31
0.0
  0
LINE
  5
53AF
330
1A
100
AcDbEntity
  8
SEIHIN
  6
CONTINUOUS
 62
     3
 48
5.0
100
AcDbLine
 10
556.2199942519119
 20
461.5627577650889
 30
0.0
 11
530.7199942519118
 21
461.5627577650889
 31
0.0
  0
ARC
  5
53B0
330
1A
100
AcDbEntity
  8
SEIHIN
  6
CONTINUOUS
 62
     3
 48
5.0
100
AcDbCircle
 10
530.7199942519118
 20
462.5627577650889
 30
0.0
 40
1.0
100
AcDbArc
 50
180.0
 51
0.0
  0
LINE
  5
53B1
330
1A
100
AcDbEntity
  8
SEIHIN
  6
CONTINUOUS
 62
     3
 48
5.0
100
AcDbLine
 10
531.7199942519119
 20
476.5627577650889
 30
0.0
 11
556.2199942519119
 21
476.5628577650891
 31
0.0
  0
ARC
  5
53B2
330
1A
100
AcDbEntity
  8
SEIHIN
  6
CONTINUOUS
 62
     3
 48
5.0
100
AcDbCircle
 10
530.7199942519118
 20
477.5627577650888
 30
0.0
 40
1.0
100
AcDbArc
 50
0.0
 51
180.0
  0
LINE
  5
53B3
330
1A
100
AcDbEntity
  8
SEIHIN
  6
CONTINUOUS
 62
     3
 48
5.0
100
AcDbLine
 10
580.7200942519121
 20
462.5628577650891
 30
0.0
 11
580.7200942519121
 21
477.562857765089
 31
0.0
  0
LINE
  5
53B4
330
1A
100
AcDbEntity
  8
SEIHIN
  6
CONTINUOUS
 62
     3
 48
5.0
100
AcDbLine
 10
582.720094251912
 20
462.5628577650891
 30
0.0
 11
582.720094251912
 21
477.562857765089
 31
0.0
  0
ARC
  5
53B5
330
1A
100
AcDbEntity
  8
SEIHIN
  6
CONTINUOUS
 62
     3
 48
5.0
100
AcDbCircle
 10
581.7200942519121
 20
462.5628577650891
 30
0.0
 40
1.0
100
AcDbArc
 50
180.0
 51
0.0
  0
ARC
  5
53B6
330
1A
100
AcDbEntity
  8
SEIHIN
  6
CONTINUOUS
 62
     3
 48
5.0
100
AcDbCircle
 10
581.7200942519121
 20
477.562857765089
 30
0.0
 40
1.0
100
AcDbArc
 50
0.0
 51
180.0
  0
LINE
  5
53B7
330
1A
100
AcDbEntity
  8
SEIHIN
  6
CONTINUOUS
 62
     3
 48
5.0
100
AcDbLine
 10
650.4852895449039
 20
478.0628577650891
 30
0.0
 11
650.4852895449039
 21
463.5628577650891
 31
0.0
  0
LINE
  5
53B8
330
1A
100
AcDbEntity
  8
SEIHIN
  6
HIDDEN
 62
     6
 48
5.0
100
AcDbLine
 10
652.4852895449039
 20
463.0628577650891
 30
0.0
 11
652.4852895449039
 21
476.0628577650891
 31
0.0
  0
LINE
  5
53B9
330
1A
100
AcDbEntity
  8
SEIHIN
  6
CONTINUOUS
 62
     3
 48
5.0
100
AcDbLine
 10
654.4852895449039
 20
474.0628577650891
 30
0.0
 11
654.4852895449039
 21
461.5628577650891
 31
0.0
  0
DIMENSION
  5
53BA
330
1A
100
AcDbEntity
  8
SUNPOU
 48
5.0
100
AcDbDimension
  2
*D15
 10
636.0982452495786
 20
461.5628577650891
 30
0.0
 11
632.0982452495785
 21
467.9896344603857
 31
0.0
 70
    32
  3
STANDARD
100
AcDbAlignedDimension
 13
654.631736154311
 23
474.4164111556822
 33
0.0
 14
654.4852895449039
 24
461.5628577650891
 34
0.0
 50
90.0
100
AcDbRotatedDimension
1001
ACAD
1000
DSTYLE
1002
{
1070
   372
1070
    -1
1070
   371
1070
    -1
1070
    41
1040
3.0
1070
    42
1040
3.0
1070
    43
1040
7.0
1070
    44
1040
1.5
1070
    73
1070
     0
1070
    74
1070
     0
1070
    77
1070
     3
1070
   140
1040
6.0
1070
   141
1040
150.0
1070
   147
1040
1.0
1070
   172
1070
     1
1070
   173
1070
     1
1070
   176
1070
   256
1070
   177
1070
   256
1070
   178
1070
   256
1070
   271
1070
     0
1070
   272
1070
     2
1070
     6
1000
OPEN
1070
     7
1000
OPEN
1002
}
  0
LINE
  5
53BB
330
1A
100
AcDbEntity
  8
SEIHIN
  6
CONTINUOUS
 62
     3
 48
5.0
100
AcDbLine
 10
652.4852895449039
 20
461.5628577650891
 30
0.0
 11
654.4852895449039
 21
461.5628577650891
 31
0.0
  0
ARC
  5
53BC
330
1A
100
AcDbEntity
  8
SEIHIN
  6
HIDDEN
 62
     6
 48
5.0
100
AcDbCircle
 10
653.9852895449039
 20
463.0628577650891
 30
0.0
 40
1.5
100
AcDbArc
 50
180.0
 51
270.0
  0
ARC
  5
53BD
330
1A
100
AcDbEntity
  8
SEIHIN
  6
CONTINUOUS
 62
     3
 48
5.0
100
AcDbCircle
 10
652.4852895449039
 20
463.5628577650891
 30
0.0
 40
2.0
100
AcDbArc
 50
180.0
 51
270.0
  0
ARC
  5
53BE
330
1A
100
AcDbEntity
  8
SEIHIN
  6
HIDDEN
 62
     6
 48
5.0
100
AcDbCircle
 10
652.9852895449039
 20
476.0628577650891
 30
0.0
 40
0.5
100
AcDbArc
 50
90.0
 51
180.0
  0
ARC
  5
53BF
330
1A
100
AcDbEntity
  8
SEIHIN
  6
CONTINUOUS
 62
     3
 48
5.0
100
AcDbCircle
 10
650.9852895449039
 20
478.0628577650891
 30
0.0
 40
0.5
100
AcDbArc
 50
90.0
 51
180.0
  0
DIMENSION
  5
53C0
330
1A
100
AcDbEntity
  8
SUNPOU
 48
5.0
100
AcDbDimension
  2
*D13
 10
679.0859239450319
 20
469.5628577650891
 30
0.0
 11
675.0859239450318
 21
457.1628577650892
 31
0.0
 70
    32
  1
※<>
  3
STANDARD
100
AcDbAlignedDimension
 13
655.7143895449044
 23
474.5628577650891
 33
0.0
 14
658.9852895449039
 24
469.5628577650891
 34
0.0
 50
90.0
100
AcDbRotatedDimension
1001
ACAD
1000
DSTYLE
1002
{
1070
   372
1070
    -1
1070
   371
1070
    -1
1070
    41
1040
3.0
1070
    42
1040
3.0
1070
    43
1040
7.0
1070
    44
1040
1.5
1070
    73
1070
     0
1070
    74
1070
     0
1070
    77
1070
     3
1070
   140
1040
6.0
1070
   141
1040
150.0
1070
   147
1040
1.0
1070
   172
1070
     1
1070
   173
1070
     1
1070
   176
1070
   256
1070
   177
1070
   256
1070
   178
1070
   256
1070
   271
1070
     0
1070
   272
1070
     2
1070
     6
1000
OPEN
1070
     7
1000
OPEN
1002
}
  0
LINE
  5
53C1
330
1A
100
AcDbEntity
  8
SEIHIN
  6
CONTINUOUS
 62
     3
 48
5.0
100
AcDbLine
 10
658.9852895449039
 20
471.0628577650891
 30
0.0
 11
659.909789544904
 21
477.9967577650891
 31
0.0
  0
LINE
  5
53C2
330
1A
100
AcDbEntity
  8
SEIHIN
  6
CONTINUOUS
 62
     3
 48
5.0
100
AcDbLine
 10
657.4270895449044
 20
469.5628577650891
 30
0.0
 11
658.9852895449039
 21
469.5628577650891
 31
0.0
  0
LINE
  5
53C3
330
1A
100
AcDbEntity
  8
SEIHIN
  6
CONTINUOUS
 62
     3
 48
5.0
100
AcDbLine
 10
658.9852895449039
 20
469.5628577650891
 30
0.0
 11
658.9852895449039
 21
471.0628577650891
 31
0.0
  0
ARC
  5
53C4
330
1A
100
AcDbEntity
  8
SEIHIN
  6
CONTINUOUS
 62
     3
 48
5.0
100
AcDbCircle
 10
655.7143895449044
 20
474.0628577650891
 30
0.0
 40
0.4999970000000001
100
AcDbArc
 50
3.428368999997619
 51
90.0
  0
LINE
  5
53C5
330
1A
100
AcDbEntity
  8
SEIHIN
  6
CONTINUOUS
 62
     3
 48
5.0
100
AcDbLine
 10
654.9852895449039
 20
474.5628577650891
 30
0.0
 11
655.7143895449044
 21
474.5628577650891
 31
0.0
  0
LINE
  5
53C6
330
1A
100
AcDbEntity
  8
SEIHIN
  6
CONTINUOUS
 62
     3
 48
5.0
100
AcDbLine
 10
656.2134895449044
 20
474.0927577650891
 30
0.0
 11
656.4288895449045
 21
470.5029577650889
 31
0.0
  0
ARC
  5
53C7
330
1A
100
AcDbEntity
  8
SEIHIN
  6
CONTINUOUS
 62
     3
 48
5.0
100
AcDbCircle
 10
657.4270895449044
 20
470.5628577650891
 30
0.0
 40
0.9999979999999998
100
AcDbArc
 50
183.4340880000063
 51
270.0
  0
ARC
  5
53C8
330
1A
100
AcDbEntity
  8
SEIHIN
  6
CONTINUOUS
 62
     3
 48
5.0
100
AcDbCircle
 10
659.4141895449042
 20
478.0628577650891
 30
0.0
 40
0.499994
100
AcDbArc
 50
352.4030850000058
 51
90.0
  0
LINE
  5
5AB1
330
1A
100
AcDbEntity
  8
SEIHIN
100
AcDbLine
 10
607.0913558608368
 20
164.5612734099032
 30
0.0
 11
595.6914656344175
 21
164.5612734099032
 31
0.0
  0
ARC
  5
5AB3
330
1A
100
AcDbEntity
  8
SEIHIN
100
AcDbCircle
 10
607.0913558608368
 20
167.2374286916975
 30
0.0
 40
2.676155281794338
100
AcDbArc
 50
270.0
 51
351.2390634736071
  0
DIMENSION
  5
5AB4
330
1A
100
AcDbEntity
  8
SUNPOU
100
AcDbDimension
  2
*D16
 10
398.3046541480288
 20
99.99797290959891
 30
0.0
 11
393.8046541480288
 21
193.8691975812016
 31
0.0
 70
    32
  3
STANDARD
100
AcDbAlignedDimension
 13
357.6897530050389
 23
287.7404222528042
 33
0.0
 14
267.0421300621176
 24
99.99797290959897
 34
0.0
 50
90.0
100
AcDbRotatedDimension
  0
DIMENSION
  5
5AD3
330
1A
100
AcDbEntity
  8
SUNPOU
100
AcDbDimension
  2
*D17
 10
450.1024718535778
 20
143.6979729095979
 30
0.0
 11
445.6024718535777
 21
154.9479729096042
 31
0.0
 70
    32
  3
STANDARD
100
AcDbAlignedDimension
 13
548.812935745866
 23
166.1979729096102
 33
0.0
 14
512.5543901306709
 24
143.6979729095979
 34
0.0
 50
90.0
100
AcDbRotatedDimension
  0
DIMENSION
  5
5B1B
330
1A
100
AcDbEntity
  8
SUNPOU
100
AcDbDimension
  2
*D18
 10
548.8129357458663
 20
211.6301360794107
 30
0.0
 11
555.4129357458664
 21
216.1301360794106
 31
0.0
 70
    32
  3
STANDARD
100
AcDbAlignedDimension
 13
562.0129357458665
 23
171.6499241968914
 33
0.0
 14
548.8129357458663
 24
176.821848850068
 34
0.0
100
AcDbRotatedDimension
  0
DIMENSION
  5
5C26
330
1A
100
AcDbEntity
  8
SUNPOU
100
AcDbDimension
  2
*D19
 10
435.0030658986078
 20
99.99797290959818
 30
0.0
 11
430.5030658986078
 21
193.8512367801906
 31
0.0
 70
    32
  3
STANDARD
100
AcDbAlignedDimension
 13
481.207639654975
 23
287.7045006507829
 33
0.0
 14
534.3129357458665
 24
99.99797290959817
 34
0.0
 50
90.0
100
AcDbRotatedDimension
  0
LINE
  5
5C33
330
1A
100
AcDbEntity
  8
CENTER_L
 48
10.0
100
AcDbLine
 10
364.2760259379142
 20
449.3856575545757
 30
0.0
 11
322.718742794439
 21
449.3856575545757
 31
0.0
  0
LINE
  5
5C34
330
1A
100
AcDbEntity
  8
CENTER_L
 48
10.0
100
AcDbLine
 10
121.102999062683
 20
449.3856575545757
 30
0.0
 11
162.6602822061581
 21
449.3856575545757
 31
0.0
  0
LINE
  5
5E9F
330
1A
100
AcDbEntity
  8
SEIHIN
  6
CONTINUOUS
 62
     3
100
AcDbLine
 10
213.4895125002991
 20
122.4979713181541
 30
0.0
 11
213.4895125002991
 21
109.9979713181541
 31
0.0
  0
LINE
  5
5EA0
330
1A
100
AcDbEntity
  8
SEIHIN
  6
CONTINUOUS
 62
     3
100
AcDbLine
 10
213.4895125002991
 20
109.9979713181541
 30
0.0
 11
214.9895125002991
 21
99.99797131815416
 31
0.0
  0
ARC
  5
5EA1
330
1A
100
AcDbEntity
  8
SEIHIN
  6
CONTINUOUS
 62
     3
100
AcDbCircle
 10
207.0895125002992
 20
142.1979713181541
 30
0.0
 40
1.5
100
AcDbArc
 50
0.0
 51
90.0
  0
LINE
  5
5EA2
330
1A
100
AcDbEntity
  8
SEIHIN
  6
CONTINUOUS
 62
     3
100
AcDbLine
 10
208.5895125002994
 20
142.1979713181541
 30
0.0
 11
208.5895125002994
 21
129.2979713181541
 31
0.0
  0
ARC
  5
5EA3
330
1A
100
AcDbEntity
  8
SEIHIN
  6
CONTINUOUS
 62
     3
100
AcDbCircle
 10
209.0895125002993
 20
129.2979713181541
 30
0.0
 40
0.5
100
AcDbArc
 50
180.0
 51
270.0
  0
ARC
  5
5EA4
330
1A
100
AcDbEntity
  8
SEIHIN
  6
CONTINUOUS
 62
     3
100
AcDbCircle
 10
209.1895125002993
 20
127.2979713181541
 30
0.0
 40
1.5
100
AcDbArc
 50
0.0
 51
90.0
  0
ARC
  5
5EA5
330
1A
100
AcDbEntity
  8
SEIHIN
  6
CONTINUOUS
 62
     3
100
AcDbCircle
 10
211.6895125002993
 20
126.4979713181541
 30
0.0
 40
3.000000000000023
100
AcDbArc
 50
180.0
 51
270.0
  0
ARC
  5
5EA6
330
1A
100
AcDbEntity
  8
SEIHIN
  6
CONTINUOUS
 62
     3
100
AcDbCircle
 10
212.4895125002991
 20
122.4979713181541
 30
0.0
 40
1.0
100
AcDbArc
 50
0.0
 51
90.0
  0
LINE
  5
5EA7
330
1A
100
AcDbEntity
  8
SEIHIN
  6
CONTINUOUS
 62
     3
100
AcDbLine
 10
210.6895125002993
 20
127.2979713181541
 30
0.0
 11
210.6895109803808
 21
126.4979698399589
 31
0.0
  0
LINE
  5
5EA8
330
1A
100
AcDbEntity
  8
SEIHIN
  6
CONTINUOUS
 62
     3
100
AcDbLine
 10
276.2895125002992
 20
128.7979713181541
 30
0.0
 11
209.0895125002993
 21
128.7979713181541
 31
0.0
  0
LINE
  5
5EAC
330
1A
100
AcDbEntity
  8
SEIHIN
  6
CONTINUOUS
 62
     3
100
AcDbLine
 10
276.6895125002991
 20
126.4979713181541
 30
0.0
 11
208.6895125002993
 21
126.4979713181541
 31
0.0
  0
LINE
  5
5EAD
330
1A
100
AcDbEntity
  8
SEIHIN
  6
CONTINUOUS
 62
     3
100
AcDbLine
 10
273.6895125002992
 20
123.497971318154
 30
0.0
 11
211.6895125002993
 21
123.497971318154
 31
0.0
  0
LINE
  5
5EAE
330
1A
100
AcDbEntity
  8
SEIHIN
  6
CONTINUOUS
 62
     3
100
AcDbLine
 10
270.3895125002993
 20
99.99797131815416
 30
0.0
 11
214.9895125002991
 21
99.99797131815416
 31
0.0
  0
LINE
  5
5EAF
330
1A
100
AcDbEntity
  8
SEIHIN
  6
CONTINUOUS
 62
     3
100
AcDbLine
 10
213.4895125002991
 20
109.9979713181541
 30
0.0
 11
271.8895125002993
 21
109.9979713181541
 31
0.0
  0
LINE
  5
5EB0
330
1A
100
AcDbEntity
  8
SEIHIN
  6
CONTINUOUS
 62
     3
100
AcDbLine
 10
271.8895125002993
 20
109.9979713181541
 30
0.0
 11
271.8895125002993
 21
122.4979713181541
 31
0.0
  0
LINE
  5
5EB1
330
1A
100
AcDbEntity
  8
SEIHIN
  6
CONTINUOUS
 62
     3
100
AcDbLine
 10
270.3895125002993
 20
99.99797131815416
 30
0.0
 11
271.8895125002993
 21
109.9979713181541
 31
0.0
  0
ARC
  5
5EB2
330
1A
100
AcDbEntity
  8
SEIHIN
  6
CONTINUOUS
 62
     3
100
AcDbCircle
 10
278.2895125002992
 20
142.1979713181541
 30
0.0
 40
1.5
100
AcDbArc
 50
90.0
 51
180.0
  0
LINE
  5
5EB3
330
1A
100
AcDbEntity
  8
SEIHIN
  6
CONTINUOUS
 62
     3
100
AcDbLine
 10
276.7895125002989
 20
129.2979713181541
 30
0.0
 11
276.7895125002993
 21
142.1979713181541
 31
0.0
  0
ARC
  5
5EB4
330
1A
100
AcDbEntity
  8
SEIHIN
  6
CONTINUOUS
 62
     3
100
AcDbCircle
 10
276.2895125002992
 20
129.2979713181541
 30
0.0
 40
0.5
100
AcDbArc
 50
270.0
 51
0.0
  0
ARC
  5
5EB5
330
1A
100
AcDbEntity
  8
SEIHIN
  6
CONTINUOUS
 62
     3
100
AcDbCircle
 10
276.1895125002991
 20
127.2979713181541
 30
0.0
 40
1.5
100
AcDbArc
 50
90.0
 51
180.0
  0
ARC
  5
5EB6
330
1A
100
AcDbEntity
  8
SEIHIN
  6
CONTINUOUS
 62
     3
100
AcDbCircle
 10
273.6895125002992
 20
126.4979713181541
 30
0.0
 40
3.000000000000023
100
AcDbArc
 50
270.0
 51
0.0
  0
ARC
  5
5EB7
330
1A
100
AcDbEntity
  8
SEIHIN
  6
CONTINUOUS
 62
     3
100
AcDbCircle
 10
272.8895125002993
 20
122.4979713181541
 30
0.0
 40
1.000000000000021
100
AcDbArc
 50
90.0
 51
180.0
  0
LINE
  5
5EB8
330
1A
100
AcDbEntity
  8
SEIHIN
  6
CONTINUOUS
 62
     3
100
AcDbLine
 10
274.6895140202176
 20
126.4979698399589
 30
0.0
 11
274.6895125002991
 21
127.2979713181541
 31
0.0
  0
ARC
  5
5EB9
330
1A
100
AcDbEntity
  8
SEIHIN
  6
CONTINUOUS
 62
     3
100
AcDbCircle
 10
531.0129357458666
 20
126.4979729095979
 30
0.0
 40
3.000000000000023
100
AcDbArc
 50
180.0
 51
270.0
  0
ARC
  5
5EBA
330
1A
100
AcDbEntity
  8
SEIHIN
  6
CONTINUOUS
 62
     3
100
AcDbCircle
 10
526.4129357458665
 20
142.1979729095979
 30
0.0
 40
1.5
100
AcDbArc
 50
0.0
 51
90.0
  0
LINE
  5
5EBB
330
1A
100
AcDbEntity
  8
SEIHIN
  6
CONTINUOUS
 62
     3
100
AcDbLine
 10
589.7129357458665
 20
99.99797290959799
 30
0.0
 11
591.2129357458666
 21
109.9979729095979
 31
0.0
  0
LINE
  5
5EBC
330
1A
100
AcDbEntity
  8
SEIHIN
  6
CONTINUOUS
 62
     3
100
AcDbLine
 10
532.8129357458664
 20
109.9979729095979
 30
0.0
 11
534.3129357458663
 21
99.99797290959799
 31
0.0
  0
LINE
  5
5EBD
330
1A
100
AcDbEntity
  8
SEIHIN
  6
CONTINUOUS
 62
     3
100
AcDbLine
 10
589.7129357458665
 20
99.99797290959799
 30
0.0
 11
534.3129357458663
 21
99.99797290959799
 31
0.0
  0
LINE
  5
5EBF
330
1A
100
AcDbEntity
  8
SEIHIN
  6
CONTINUOUS
 62
     3
100
AcDbLine
 10
532.8129357458664
 20
109.9979729095979
 30
0.0
 11
591.2129357458666
 21
109.9979729095979
 31
0.0
  0
LINE
  5
5EC0
330
1A
100
AcDbEntity
  8
SEIHIN
  6
CONTINUOUS
 62
     3
100
AcDbLine
 10
593.0129357458664
 20
123.4979729095978
 30
0.0
 11
531.0129357458666
 21
123.4979729095978
 31
0.0
  0
LINE
  5
5EC1
330
1A
100
AcDbEntity
  8
SEIHIN
  6
CONTINUOUS
 62
     3
100
AcDbLine
 10
596.0129357458663
 20
126.4979729095979
 30
0.0
 11
528.0129357458665
 21
126.4979729095979
 31
0.0
  0
LINE
  5
5EC5
330
1A
100
AcDbEntity
  8
SEIHIN
  6
CONTINUOUS
 62
     3
100
AcDbLine
 10
595.6129357458665
 20
128.7979729095979
 30
0.0
 11
528.4129357458666
 21
128.7979729095979
 31
0.0
  0
LINE
  5
5EC6
330
1A
100
AcDbEntity
  8
SEIHIN
  6
CONTINUOUS
 62
     3
100
AcDbLine
 10
530.0129357458665
 20
127.2979729095979
 30
0.0
 11
530.0129342259481
 21
126.4979714314027
 31
0.0
  0
LINE
  5
5EC7
330
1A
100
AcDbEntity
  8
SEIHIN
  6
CONTINUOUS
 62
     3
100
AcDbLine
 10
532.8129357458664
 20
122.4979729095979
 30
0.0
 11
532.8129357458664
 21
109.9979729095979
 31
0.0
  0
ARC
  5
5EC8
330
1A
100
AcDbEntity
  8
SEIHIN
  6
CONTINUOUS
 62
     3
100
AcDbCircle
 10
531.8129357458664
 20
122.4979729095979
 30
0.0
 40
1.0
100
AcDbArc
 50
0.0
 51
90.0
  0
LINE
  5
5EC9
330
1A
100
AcDbEntity
  8
SEIHIN
  6
CONTINUOUS
 62
     3
100
AcDbLine
 10
527.9129357458666
 20
142.1979729095979
 30
0.0
 11
527.9129357458666
 21
129.2979729095979
 31
0.0
  0
ARC
  5
5ECA
330
1A
100
AcDbEntity
  8
SEIHIN
  6
CONTINUOUS
 62
     3
100
AcDbCircle
 10
528.5129357458665
 20
127.2979729095979
 30
0.0
 40
1.5
100
AcDbArc
 50
0.0
 51
90.0
  0
ARC
  5
5ECB
330
1A
100
AcDbEntity
  8
SEIHIN
  6
CONTINUOUS
 62
     3
100
AcDbCircle
 10
528.4129357458665
 20
129.2979729095979
 30
0.0
 40
0.5
100
AcDbArc
 50
180.0
 51
270.0
  0
LINE
  5
5ECC
330
1A
100
AcDbEntity
  8
SEIHIN
  6
CONTINUOUS
 62
     3
100
AcDbLine
 10
594.0129372657849
 20
126.4979714314027
 30
0.0
 11
594.0129357458663
 21
127.2979729095979
 31
0.0
  0
LINE
  5
5ECD
330
1A
100
AcDbEntity
  8
SEIHIN
  6
CONTINUOUS
 62
     3
100
AcDbLine
 10
591.2129357458666
 20
109.9979729095979
 30
0.0
 11
591.2129357458666
 21
122.4979729095979
 31
0.0
  0
ARC
  5
5ECE
330
1A
100
AcDbEntity
  8
SEIHIN
  6
CONTINUOUS
 62
     3
100
AcDbCircle
 10
592.2129357458666
 20
122.4979729095979
 30
0.0
 40
1.000000000000021
100
AcDbArc
 50
90.0
 51
180.0
  0
ARC
  5
5ECF
330
1A
100
AcDbEntity
  8
SEIHIN
  6
CONTINUOUS
 62
     3
100
AcDbCircle
 10
593.0129357458664
 20
126.4979729095979
 30
0.0
 40
3.000000000000023
100
AcDbArc
 50
270.0
 51
0.0
  0
LINE
  5
5ED0
330
1A
100
AcDbEntity
  8
SEIHIN
  6
CONTINUOUS
 62
     3
100
AcDbLine
 10
596.1129357458662
 20
129.2979729095979
 30
0.0
 11
596.1129357458665
 21
142.1979729095979
 31
0.0
  0
ARC
  5
5ED1
330
1A
100
AcDbEntity
  8
SEIHIN
  6
CONTINUOUS
 62
     3
100
AcDbCircle
 10
595.5129357458664
 20
127.2979729095979
 30
0.0
 40
1.5
100
AcDbArc
 50
90.0
 51
180.0
  0
ARC
  5
5ED2
330
1A
100
AcDbEntity
  8
SEIHIN
  6
CONTINUOUS
 62
     3
100
AcDbCircle
 10
595.6129357458665
 20
129.2979729095979
 30
0.0
 40
0.5
100
AcDbArc
 50
270.0
 51
0.0
  0
ARC
  5
5ED3
330
1A
100
AcDbEntity
  8
SEIHIN
  6
CONTINUOUS
 62
     3
100
AcDbCircle
 10
597.6129357458664
 20
142.1979729095979
 30
0.0
 40
1.5
100
AcDbArc
 50
90.0
 51
180.0
  0
ARC
  5
60E1
330
1A
100
AcDbEntity
  8
NOKITOI
100
AcDbCircle
 10
548.8129357458663
 20
1166.19797290961
 30
0.0
 40
999.8000000000002
100
AcDbArc
 50
267.2627870055292
 51
272.6033918042164
  0
ARC
  5
60E2
330
1A
100
AcDbEntity
  8
NOKITOI
100
AcDbCircle
 10
548.8129357458663
 20
1166.19797290961
 30
0.0
 40
1000.0
100
AcDbArc
 50
267.2627870055292
 51
272.6033918042164
  0
ARC
  5
60E3
330
1A
100
AcDbEntity
  8
NOKITOI
100
AcDbCircle
 10
548.8129357458663
 20
1166.19797290961
 30
0.0
 40
998.3999999999999
100
AcDbArc
 50
267.3431291593075
 51
272.5751779642489
  0
ARC
  5
60E4
330
1A
100
AcDbEntity
  8
NOKITOI
100
AcDbCircle
 10
1477.601125972187
 20
286.1979729096095
 30
0.0
 40
998.4000000000001
100
AcDbArc
 50
182.4109906480892
 51
185.2410550612985
  0
ARC
  5
60E5
330
1A
100
AcDbEntity
  8
NOKITOI
100
AcDbCircle
 10
1477.601125972187
 20
286.1979729096095
 30
0.0
 40
999.800000000736
100
AcDbArc
 50
180.0795916737998
 51
185.9063572242696
  0
ARC
  5
60E6
330
1A
100
AcDbEntity
  8
NOKITOI
100
AcDbCircle
 10
1477.601125972187
 20
286.1979729096095
 30
0.0
 40
1000.000000000736
100
AcDbArc
 50
180.0795916737998
 51
185.9063572242696
  0
LINE
  5
60E7
330
1A
100
AcDbEntity
  8
NOKITOI
100
AcDbLine
 10
497.4878251113
 20
191.3516497380571
 30
0.0
 11
483.3752361463385
 21
194.99797290961
 31
0.0
  0
LINE
  5
60E8
330
1A
100
AcDbEntity
  8
NOKITOI
100
AcDbLine
 10
483.9044116767889
 20
182.59797290961
 30
0.0
 11
497.0866005445784
 21
182.59797290961
 31
0.0
  0
LINE
  5
60E9
330
1A
100
AcDbEntity
  8
NOKITOI
100
AcDbLine
 10
497.9633428883646
 20
183.9979729096101
 30
0.0
 11
484.4456900005561
 21
183.9979729096101
 31
0.0
  0
LINE
  5
60EA
330
1A
100
AcDbEntity
  8
NOKITOI
100
AcDbLine
 10
483.9044116767889
 20
182.39797290961
 30
0.0
 11
497.0866005445784
 21
182.39797290961
 31
0.0
  0
LINE
  5
60EB
330
1A
100
AcDbEntity
  8
NOKITOI
100
AcDbLine
 10
483.5221078535735
 20
193.4107661603291
 30
0.0
 11
497.4548012744446
 21
189.8109232832498
 31
0.0
  0
ARC
  5
60EC
330
1A
100
AcDbEntity
  8
NOKITOI
100
AcDbCircle
 10
1477.601125972187
 20
286.1979729096095
 30
0.0
 40
998.4000000000001
100
AcDbArc
 50
185.3325301949828
 51
185.8753038897116
  0
ARC
  5
60ED
330
1A
100
AcDbEntity
  8
NOKITOI
100
AcDbCircle
 10
483.9044116767889
 20
183.39797290961
 30
0.0
 40
0.8000000000001556
100
AcDbArc
 50
185.9063572242696
 51
270.0
  0
ARC
  5
60EE
330
1A
100
AcDbEntity
  8
NOKITOI
100
AcDbCircle
 10
483.9044116767889
 20
183.39797290961
 30
0.0
 40
1.000000000000155
100
AcDbArc
 50
185.9063572242696
 51
270.0
  0
LINE
  5
60EF
330
1A
100
AcDbEntity
  8
NOKITOI
100
AcDbLine
 10
498.2820346401858
 20
181.5025545669852
 30
0.0
 11
499.360086028294
 21
169.1797494163874
 31
0.0
  0
LINE
  5
60F0
330
1A
100
AcDbEntity
  8
NOKITOI
100
AcDbLine
 10
498.0827956242513
 20
181.4851242907561
 30
0.0
 11
499.1608470123594
 21
169.1623191401582
 31
0.0
  0
LINE
  5
60F1
330
1A
100
AcDbEntity
  8
NOKITOI
100
AcDbLine
 10
500.6328946412186
 20
170.6947491869378
 30
0.0
 11
498.9798977567216
 21
189.589542836755
 31
0.0
  0
ARC
  5
60F2
330
1A
100
AcDbEntity
  8
NOKITOI
100
AcDbCircle
 10
501.153237171705
 20
169.3366219024503
 30
0.0
 40
1.800000000000289
100
AcDbArc
 50
184.9997491441009
 51
267.2627870055292
  0
ARC
  5
60F3
330
1A
100
AcDbEntity
  8
NOKITOI
100
AcDbCircle
 10
501.153237171705
 20
169.3366219024503
 30
0.0
 40
2.000000000000289
100
AcDbArc
 50
184.9997491441009
 51
267.2627870055292
  0
ARC
  5
60F4
330
1A
100
AcDbEntity
  8
NOKITOI
100
AcDbCircle
 10
502.6252848005642
 20
170.8690519492299
 30
0.0
 40
1.999999999999942
100
AcDbArc
 50
184.9997491441009
 51
267.3431291593075
  0
LINE
  5
60F5
330
1A
100
AcDbEntity
  8
NOKITOI
100
AcDbLine
 10
497.4548012744446
 20
189.8109232832498
 30
0.0
 11
497.9633428883646
 21
183.9979729096101
 31
0.0
  0
ARC
  5
60F6
330
1A
100
AcDbEntity
  8
NOKITOI
100
AcDbCircle
 10
497.0866005445784
 20
181.39797290961
 30
0.0
 40
1.200000000000007
100
AcDbArc
 50
4.999749144100993
 51
90.0
  0
ARC
  5
60F7
330
1A
100
AcDbEntity
  8
NOKITOI
100
AcDbCircle
 10
497.0866005445784
 20
181.39797290961
 30
0.0
 40
1.000000000000007
100
AcDbArc
 50
4.999749144100993
 51
90.0
  0
ARC
  5
60F8
330
1A
100
AcDbEntity
  8
NOKITOI
100
AcDbCircle
 10
496.9875075973759
 20
189.4152400744631
 30
0.0
 40
2.000000000000012
100
AcDbArc
 50
4.999749144100993
 51
75.51309319945758
  0
LINE
  5
60F9
330
1A
100
AcDbEntity
  8
NOKITOI
100
AcDbLine
 10
486.3929187818623
 20
273.6979729096093
 30
0.0
 11
492.1734259795676
 21
273.6979729096093
 31
0.0
  0
LINE
  5
60FA
330
1A
100
AcDbEntity
  8
NOKITOI
100
AcDbLine
 10
486.3929187818623
 20
275.1979729096092
 30
0.0
 11
487.6011259714509
 21
275.1979729096092
 31
0.0
  0
LINE
  5
60FB
330
1A
100
AcDbEntity
  8
NOKITOI
100
AcDbLine
 10
487.6011259714509
 20
277.6851389741935
 30
0.0
 11
482.7874290926456
 21
278.7381351664321
 31
0.0
  0
LINE
  5
60FC
330
1A
100
AcDbEntity
  8
NOKITOI
100
AcDbLine
 10
495.1011259714512
 20
256.6979729096092
 30
0.0
 11
486.4235636749679
 21
256.6979729096092
 31
0.0
  0
LINE
  5
60FD
330
1A
100
AcDbEntity
  8
NOKITOI
100
AcDbLine
 10
495.0011259714511
 20
258.1979729096092
 30
0.0
 11
486.4235636749679
 21
258.1979729096092
 31
0.0
  0
LINE
  5
60FE
330
1A
100
AcDbEntity
  8
NOKITOI
100
AcDbLine
 10
497.9857803533008
 20
276.8466005216527
 30
0.0
 11
484.3446897168844
 21
279.8305890983688
 31
0.0
  0
LINE
  5
60FF
330
1A
100
AcDbEntity
  8
NOKITOI
100
AcDbLine
 10
498.028519729062
 20
277.041980525132
 30
0.0
 11
484.3874290926455
 21
280.025969101848
 31
0.0
  0
LINE
  5
6100
330
1A
100
AcDbEntity
  8
NOKITOI
100
AcDbLine
 10
480.0159887922356
 20
245.8686525873261
 30
0.0
 11
495.1011259714512
 21
254.0888408136293
 31
0.0
  0
LINE
  5
6101
330
1A
100
AcDbEntity
  8
NOKITOI
100
AcDbLine
 10
480.0849306149387
 20
244.1979729096096
 30
0.0
 11
495.7667101731665
 21
252.7432833141872
 31
0.0
  0
ARC
  5
6102
330
1A
100
AcDbEntity
  8
NOKITOI
100
AcDbCircle
 10
1477.601125972187
 20
286.1979729096095
 30
0.0
 40
998.4000000007354
100
AcDbArc
 50
181.127032230844
 51
181.2137395248443
  0
ARC
  5
6103
330
1A
100
AcDbEntity
  8
NOKITOI
100
AcDbCircle
 10
1477.601125972187
 20
286.1979729096095
 30
0.0
 40
998.3999999999999
100
AcDbArc
 50
181.4914279597314
 51
182.3150327430775
  0
ARC
  5
6104
330
1A
100
AcDbEntity
  8
NOKITOI
100
AcDbCircle
 10
486.4235636749679
 20
265.1979729096093
 30
0.0
 40
7.000000000000047
100
AcDbArc
 50
181.2137395248443
 51
270.0
  0
ARC
  5
6105
330
1A
100
AcDbEntity
  8
NOKITOI
100
AcDbCircle
 10
486.4235636749679
 20
265.1979729096093
 30
0.0
 40
8.500000000000021
100
AcDbArc
 50
215.9131497548197
 51
270.0
  0
ARC
  5
6106
330
1A
100
AcDbEntity
  8
NOKITOI
100
AcDbCircle
 10
1477.601125972187
 20
286.1979729096095
 30
0.0
 40
998.3999999999998
100
AcDbArc
 50
180.1673696882618
 51
180.8493437959589
  0
ARC
  5
6107
330
1A
100
AcDbEntity
  8
NOKITOI
100
AcDbCircle
 10
486.3929187818623
 20
266.6979729096092
 30
0.0
 40
7.000000000000182
100
AcDbArc
 50
90.0
 51
181.127032230844
  0
ARC
  5
6108
330
1A
100
AcDbEntity
  8
NOKITOI
100
AcDbCircle
 10
486.3929187818623
 20
266.6979729096092
 30
0.0
 40
8.500000000000023
100
AcDbArc
 50
90.0
 51
146.4276220008685
  0
ARC
  5
6109
330
1A
100
AcDbEntity
  8
NOKITOI
100
AcDbCircle
 10
478.6020898569216
 20
284.8102257277296
 30
0.0
 40
0.8000000000001193
100
AcDbArc
 50
71.56505117707208
 51
180.0795916737998
  0
ARC
  5
610A
330
1A
100
AcDbEntity
  8
NOKITOI
100
AcDbCircle
 10
478.6020898569216
 20
284.8102257277296
 30
0.0
 40
1.000000000000119
100
AcDbArc
 50
71.56505117707208
 51
180.0795916737998
  0
LINE
  5
610B
330
1A
100
AcDbEntity
  8
NOKITOI
100
AcDbLine
 10
483.1959943012561
 20
284.1221982889964
 30
0.0
 11
478.8550720697351
 21
285.5691723661701
 31
0.0
  0
LINE
  5
610C
330
1A
100
AcDbEntity
  8
NOKITOI
100
AcDbLine
 10
483.2592398544595
 20
284.3119349486065
 30
0.0
 11
478.9183176229385
 21
285.7589090257802
 31
0.0
  0
ARC
  5
610D
330
1A
100
AcDbEntity
  8
NOKITOI
100
AcDbCircle
 10
483.1011259714509
 20
283.8375932995813
 30
0.0
 40
0.3000000000000076
100
AcDbArc
 50
0.0
 51
71.56505117707208
  0
ARC
  5
610E
330
1A
100
AcDbEntity
  8
NOKITOI
100
AcDbCircle
 10
484.601125971451
 20
281.0028691192443
 30
0.0
 40
1.20000000000001
100
AcDbArc
 50
180.0
 51
257.6609127216743
  0
ARC
  5
610F
330
1A
100
AcDbEntity
  8
NOKITOI
100
AcDbCircle
 10
483.1011259714509
 20
283.8375932995813
 30
0.0
 40
0.5000000000000077
100
AcDbArc
 50
0.0
 51
71.56505117707208
  0
ARC
  5
6110
330
1A
100
AcDbEntity
  8
NOKITOI
100
AcDbCircle
 10
484.601125971451
 20
281.0028691192443
 30
0.0
 40
1.00000000000001
100
AcDbArc
 50
180.0
 51
257.6609127216743
  0
LINE
  5
6111
330
1A
100
AcDbEntity
  8
NOKITOI
100
AcDbLine
 10
482.0011259714511
 20
279.7150351838284
 30
0.0
 11
482.0011259714511
 21
282.6843785474915
 31
0.0
  0
ARC
  5
6112
330
1A
100
AcDbEntity
  8
NOKITOI
100
AcDbCircle
 10
483.0011259714511
 20
279.7150351838284
 30
0.0
 40
1.0
100
AcDbArc
 50
180.0
 51
257.6609127216743
  0
LINE
  5
6113
330
1A
100
AcDbEntity
  8
NOKITOI
100
AcDbLine
 10
481.6592398544594
 20
283.1587201965167
 30
0.0
 11
479.8634974572599
 21
283.7573009955832
 31
0.0
  0
ARC
  5
6114
330
1A
100
AcDbEntity
  8
NOKITOI
100
AcDbCircle
 10
479.7053835742515
 20
283.2829593465579
 30
0.0
 40
0.5000000000000031
100
AcDbArc
 50
71.56505117707208
 51
180.1673696882651
  0
LINE
  5
6115
330
1A
100
AcDbEntity
  8
NOKITOI
100
AcDbLine
 10
483.4011259714509
 20
281.0028691192443
 30
0.0
 11
483.4011259714509
 21
283.8375932995813
 31
0.0
  0
ARC
  5
6116
330
1A
100
AcDbEntity
  8
NOKITOI
100
AcDbCircle
 10
481.501125971451
 20
282.6843785474915
 30
0.0
 40
0.5
100
AcDbArc
 50
0.0
 51
71.56505117707208
  0
LINE
  5
6117
330
1A
100
AcDbEntity
  8
NOKITOI
100
AcDbLine
 10
483.6011259714509
 20
281.0028691192443
 30
0.0
 11
483.6011259714509
 21
283.8375932995813
 31
0.0
  0
ARC
  5
6118
330
1A
100
AcDbEntity
  8
NOKITOI
100
AcDbCircle
 10
495.0011259714511
 20
254.1482320072304
 30
0.0
 40
1.600000000000008
100
AcDbArc
 50
298.5868361218862
 51
0.0
  0
ARC
  5
6119
330
1A
100
AcDbEntity
  8
NOKITOI
100
AcDbCircle
 10
495.0011259714511
 20
256.5979729096093
 30
0.0
 40
1.600000000000008
100
AcDbArc
 50
0.0
 51
90.0
  0
LINE
  5
611A
330
1A
100
AcDbEntity
  8
NOKITOI
100
AcDbLine
 10
495.1011259714512
 20
254.0888408136293
 30
0.0
 11
495.1011259714512
 21
256.6979729096092
 31
0.0
  0
LINE
  5
611B
330
1A
100
AcDbEntity
  8
NOKITOI
100
AcDbLine
 10
496.6011259714512
 20
254.1482320072304
 30
0.0
 11
496.6011259714512
 21
256.5979729096093
 31
0.0
  0
ARC
  5
611C
330
1A
100
AcDbEntity
  8
NOKITOI
100
AcDbCircle
 10
497.6011259714511
 20
275.0881804903395
 30
0.0
 40
2.0
100
AcDbArc
 50
0.0
 51
77.66091272167438
  0
LINE
  5
611D
330
1A
100
AcDbEntity
  8
NOKITOI
100
AcDbLine
 10
487.6011259714509
 20
277.6851389741935
 30
0.0
 11
487.6011259714509
 21
275.1979729096092
 31
0.0
  0
LINE
  5
611E
330
1A
100
AcDbEntity
  8
NOKITOI
100
AcDbLine
 10
489.101125971451
 20
275.1979729096092
 30
0.0
 11
489.101125971451
 21
277.3570139741935
 31
0.0
  0
LINE
  5
611F
330
1A
100
AcDbEntity
  8
NOKITOI
100
AcDbLine
 10
497.7079744108539
 20
275.4742658780741
 30
0.0
 11
489.101125971451
 21
277.3570139741935
 31
0.0
  0
ARC
  5
6120
330
1A
100
AcDbEntity
  8
NOKITOI
100
AcDbCircle
 10
494.6011259714512
 20
273.1979729096092
 30
0.0
 40
4.999999999999985
100
AcDbArc
 50
270.0
 51
0.0
  0
ARC
  5
6121
330
1A
100
AcDbEntity
  8
NOKITOI
100
AcDbCircle
 10
492.0306559803791
 20
272.5979729096092
 30
0.0
 40
2.600000000000022
100
AcDbArc
 50
340.0168934781021
 51
90.0
  0
ARC
  5
6122
330
1A
100
AcDbEntity
  8
NOKITOI
100
AcDbCircle
 10
494.6011259714512
 20
273.1979729096092
 30
0.0
 40
3.499999999999985
100
AcDbArc
 50
270.0
 51
0.0
  0
LINE
  5
6123
330
1A
100
AcDbEntity
  8
NOKITOI
100
AcDbLine
 10
489.101125971451
 20
275.1979729096092
 30
0.0
 11
492.0306559803791
 21
275.1979729096092
 31
0.0
  0
ARC
  5
6124
330
1A
100
AcDbEntity
  8
NOKITOI
100
AcDbCircle
 10
492.3149759673929
 20
268.6979729096092
 30
0.0
 40
0.5
100
AcDbArc
 50
160.0168934781021
 51
270.0
  0
LINE
  5
6125
330
1A
100
AcDbEntity
  8
NOKITOI
100
AcDbLine
 10
492.3149759673929
 20
268.1979729096092
 30
0.0
 11
494.6011259714512
 21
268.1979729096092
 31
0.0
  0
LINE
  5
6126
330
1A
100
AcDbEntity
  8
NOKITOI
100
AcDbLine
 10
493.1132194030558
 20
272.3562298465225
 30
0.0
 11
491.8450792556487
 21
268.8688444411526
 31
0.0
  0
LINE
  5
6127
330
1A
100
AcDbEntity
  8
NOKITOI
100
AcDbLine
 10
494.4565259552184
 20
269.6979729096093
 30
0.0
 11
494.6011259714512
 21
269.6979729096093
 31
0.0
  0
LINE
  5
6128
330
1A
100
AcDbEntity
  8
NOKITOI
100
AcDbLine
 10
494.4741188814491
 20
271.7094409455838
 30
0.0
 11
493.9866292434742
 21
270.3688444411526
 31
0.0
  0
ARC
  5
6129
330
1A
100
AcDbEntity
  8
NOKITOI
100
AcDbCircle
 10
494.4565259552184
 20
270.1979729096092
 30
0.0
 40
0.5
100
AcDbArc
 50
160.0168934781021
 51
270.0
  0
ARC
  5
612A
330
1A
100
AcDbEntity
  8
NOKITOI
100
AcDbCircle
 10
492.1734259795676
 20
272.6979729096092
 30
0.0
 40
1.000000000000003
100
AcDbArc
 50
340.0168934781021
 51
90.0
  0
ARC
  5
612B
330
1A
100
AcDbEntity
  8
NOKITOI
100
AcDbCircle
 10
497.6205540848631
 20
274.889924740335
 30
0.0
 40
1.990469879287869
100
AcDbArc
 50
5.716280370791512
 51
79.4270390383314
  0
ARC
  5
612C
330
1A
100
AcDbEntity
  8
NOKITOI
100
AcDbCircle
 10
497.6011259714511
 20
274.985815869376
 30
0.0
 40
0.5
100
AcDbArc
 50
0.0
 51
77.66091272167438
  0
LINE
  5
612D
330
1A
100
AcDbEntity
  8
NOKITOI
100
AcDbLine
 10
498.1011259714512
 20
273.1979729096092
 30
0.0
 11
498.1011259714512
 21
274.985815869376
 31
0.0
  0
LINE
  5
612E
330
1A
100
AcDbEntity
  8
NOKITOI
100
AcDbLine
 10
499.6011259714512
 20
273.1979729096092
 30
0.0
 11
499.6011259714512
 21
275.0881804903394
 31
0.0
  0
LINE
  5
612F
330
1A
100
AcDbEntity
  8
NOKITOI
100
AcDbLine
 10
598.7494135838137
 20
171.4775832564173
 30
0.0
 11
608.115373697952
 21
230.8989618849062
 31
0.0
  0
LINE
  5
6130
330
1A
100
AcDbEntity
  8
NOKITOI
100
AcDbLine
 10
598.9469745506341
 20
171.4464438217885
 30
0.0
 11
608.3129346647722
 21
230.8678224502775
 31
0.0
  0
LINE
  5
6131
330
1A
100
AcDbEntity
  8
NOKITOI
100
AcDbLine
 10
606.7324469302096
 20
231.1169379273071
 30
0.0
 11
597.4427495530747
 21
172.1794004550379
 31
0.0
  0
ARC
  5
6134
330
1A
100
AcDbEntity
  8
NOKITOI
100
AcDbCircle
 10
594.0079503801245
 20
172.2249296875065
 30
0.0
 40
4.799999999999973
100
AcDbArc
 50
272.6033918042164
 51
351.0427677630336
  0
ARC
  5
6135
330
1A
100
AcDbEntity
  8
NOKITOI
100
AcDbCircle
 10
593.4915302166671
 20
172.8021891476123
 30
0.0
 40
4.000000000000015
100
AcDbArc
 50
272.5751779642489
 51
351.0427677630336
  0
ARC
  5
6136
330
1A
100
AcDbEntity
  8
NOKITOI
100
AcDbCircle
 10
594.0079503801245
 20
172.2249296875065
 30
0.0
 40
4.999999999999973
100
AcDbArc
 50
272.6033918042164
 51
351.0427677630336
  0
LINE
  5
6137
330
1A
100
AcDbEntity
  8
NOKITOI
100
AcDbLine
 10
608.4129357458659
 20
234.6979729096101
 30
0.0
 11
608.4129357458664
 21
246.1979729096101
 31
0.0
  0
LINE
  5
6138
330
1A
100
AcDbEntity
  8
NOKITOI
100
AcDbLine
 10
601.6421572533977
 20
249.5979729096102
 30
0.0
 11
595.7271572533977
 21
232.6979729096108
 31
0.0
  0
LINE
  5
6139
330
1A
100
AcDbEntity
  8
NOKITOI
100
AcDbLine
 10
607.0129357458665
 20
236.7362248422488
 30
0.0
 11
607.0129357458665
 21
246.1979729096101
 31
0.0
  0
LINE
  5
613A
330
1A
100
AcDbEntity
  8
NOKITOI
100
AcDbLine
 10
608.612935745866
 20
234.6979729096101
 30
0.0
 11
608.6129357458665
 21
246.1979729096101
 31
0.0
  0
LINE
  5
613B
330
1A
100
AcDbEntity
  8
NOKITOI
100
AcDbLine
 10
600.3785583945211
 20
250.5283233343382
 30
0.0
 11
593.6129357458664
 21
231.1979729096108
 31
0.0
  0
LINE
  5
613C
330
1A
100
AcDbEntity
  8
NOKITOI
100
AcDbLine
 10
593.6129357458664
 20
231.1979729096108
 30
0.0
 11
601.6129357458664
 21
231.1979729096108
 31
0.0
  0
LINE
  5
613D
330
1A
100
AcDbEntity
  8
NOKITOI
100
AcDbLine
 10
601.4569747578743
 20
235.4735064358869
 30
0.0
 11
607.0129357458665
 21
236.7362248422488
 31
0.0
  0
LINE
  5
613E
330
1A
100
AcDbEntity
  8
NOKITOI
100
AcDbLine
 10
600.5317969157822
 20
232.6979729096108
 30
0.0
 11
601.4569747578743
 21
235.4735064358869
 31
0.0
  0
LINE
  5
613F
330
1A
100
AcDbEntity
  8
NOKITOI
100
AcDbLine
 10
595.7271572533977
 20
232.6979729096108
 30
0.0
 11
600.5317969157822
 21
232.6979729096108
 31
0.0
  0
LINE
  5
6140
330
1A
100
AcDbEntity
  8
NOKITOI
100
AcDbLine
 10
602.6129357458664
 20
234.1979729096108
 30
0.0
 11
607.0129357458665
 21
235.1979729096108
 31
0.0
  0
LINE
  5
6141
330
1A
100
AcDbEntity
  8
NOKITOI
100
AcDbLine
 10
601.6129357458664
 20
231.1979729096108
 30
0.0
 11
602.6129357458664
 21
234.1979729096108
 31
0.0
  0
ARC
  5
6142
330
1A
100
AcDbEntity
  8
NOKITOI
100
AcDbCircle
 10
584.0129357458656
 20
234.6979729096101
 30
0.0
 40
24.40000000000039
100
AcDbArc
 50
351.0427677630336
 51
0.0
  0
ARC
  5
6143
330
1A
100
AcDbEntity
  8
NOKITOI
100
AcDbCircle
 10
584.0129357458656
 20
234.6979729096101
 30
0.0
 40
24.60000000000039
100
AcDbArc
 50
351.0427677630336
 51
0.0
  0
ARC
  5
6144
330
1A
100
AcDbEntity
  8
NOKITOI
100
AcDbCircle
 10
584.0129357458656
 20
234.6979729096101
 30
0.0
 40
23.00000000000073
100
AcDbArc
 50
351.0427677630336
 51
0.0
  0
LINE
  5
6145
330
1A
100
AcDbEntity
  8
NOKITOI
100
AcDbLine
 10
607.0129357458665
 20
235.1979729096108
 30
0.0
 11
607.0129357458663
 21
234.6979729096101
 31
0.0
  0
LINE
  5
6146
330
1A
100
AcDbEntity
  8
NOKITOI
100
AcDbLine
 10
603.6129357458665
 20
250.9979729096101
 30
0.0
 11
601.3224167508872
 21
250.9979729096101
 31
0.0
  0
LINE
  5
6147
330
1A
100
AcDbEntity
  8
NOKITOI
100
AcDbLine
 10
603.6129357458665
 20
251.1979729096101
 30
0.0
 11
601.3224167508872
 21
251.1979729096101
 31
0.0
  0
ARC
  5
6148
330
1A
100
AcDbEntity
  8
NOKITOI
100
AcDbCircle
 10
601.2371288824927
 20
249.9861121139062
 30
0.0
 40
1.015448812288253
100
AcDbArc
 50
85.18203328732578
 51
147.7264463795293
  0
ARC
  5
6149
330
1A
100
AcDbEntity
  8
NOKITOI
100
AcDbCircle
 10
601.3224167508872
 20
250.1979729096101
 30
0.0
 40
1.000000000000013
100
AcDbArc
 50
90.0
 51
160.7099537808137
  0
LINE
  5
614A
330
1A
100
AcDbEntity
  8
NOKITOI
100
AcDbLine
 10
603.6129357458665
 20
249.5979729096102
 30
0.0
 11
601.6421572533977
 21
249.5979729096102
 31
0.0
  0
ARC
  5
614B
330
1A
100
AcDbEntity
  8
NOKITOI
100
AcDbCircle
 10
603.6129357458665
 20
246.1979729096101
 30
0.0
 40
4.800000000000028
100
AcDbArc
 50
0.0
 51
90.0
  0
ARC
  5
614C
330
1A
100
AcDbEntity
  8
NOKITOI
100
AcDbCircle
 10
603.6129357458665
 20
246.1979729096101
 30
0.0
 40
3.400000000000034
100
AcDbArc
 50
0.0
 51
90.0
  0
ARC
  5
614D
330
1A
100
AcDbEntity
  8
NOKITOI
100
AcDbCircle
 10
603.6129357458665
 20
246.1979729096101
 30
0.0
 40
5.000000000000028
100
AcDbArc
 50
0.0
 51
90.0
  0
LINE
  5
614F
330
1A
100
AcDbEntity
  8
SEIHIN
100
AcDbLine
 10
347.8441683740728
 20
287.8944257537425
 30
0.0
 11
357.6895145864597
 21
287.503106359631
 31
0.0
  0
DIMENSION
  5
6297
330
1A
100
AcDbEntity
  8
SUNPOU
100
AcDbDimension
  2
*D20
 10
450.1024718535778
 20
287.7045006507829
 30
0.0
 11
445.6024718535777
 21
226.9512367801966
 31
0.0
 70
    32
  3
STANDARD
100
AcDbAlignedDimension
 13
548.812935745866
 23
166.1979729096102
 33
0.0
 14
481.207639654975
 24
287.7045006507829
 34
0.0
 50
90.0
100
AcDbRotatedDimension
  0
CIRCLE
  5
62DD
330
1A
100
AcDbEntity
  8
SEIHIN
100
AcDbCircle
 10
242.6895125002986
 20
462.5856575545757
 30
0.0
 40
31.2163980931449
  0
CIRCLE
  5
62DE
330
1A
100
AcDbEntity
  8
SEIHIN
100
AcDbCircle
 10
242.6895125002986
 20
462.585657554576
 30
0.0
 40
29.41533243564254
  0
CIRCLE
  5
62DF
330
1A
100
AcDbEntity
  8
SEIHIN
100
AcDbCircle
 10
242.6895125002986
 20
462.585657554576
 30
0.0
 40
26.61288004161781
  0
LINE
  5
728F
330
1A
100
AcDbEntity
  8
SEIHIN
100
AcDbLine
 10
485.1552358636374
 20
182.397972909598
 30
0.0
 11
486.2513519987758
 21
187.878553585289
 31
0.0
  0
LINE
  5
7580
330
1A
100
AcDbEntity
  8
SEIHIN
100
AcDbLine
 10
229.1895125002988
 20
507.9320407789149
 30
0.0
 11
229.1895125002987
 21
495.2260511920124
 31
0.0
  0
LINE
  5
7593
330
1A
100
AcDbEntity
  8
SEIHIN
100
AcDbLine
 10
227.6895125002988
 20
495.2230131122925
 30
0.0
 11
227.6895125002988
 21
507.9320407789149
 31
0.0
  0
ARC
  5
762E
330
1A
100
AcDbEntity
  8
SEIHIN
100
AcDbCircle
 10
228.4395125002987
 20
499.240650443843
 30
0.0
 40
0.9670085773394353
100
AcDbArc
 50
219.1416501897547
 51
320.8583498102452
  0
ARC
  5
7630
330
1A
100
AcDbEntity
  8
SEIHIN
100
AcDbCircle
 10
228.4395150359626
 20
495.223015115293
 30
0.0
 40
0.7500036095062747
100
AcDbArc
 50
180.096956344853
 51
359.7680613043056
  0
LINE
  5
7631
330
1A
100
AcDbEntity
  8
SEIHIN
100
AcDbLine
 10
256.1895125002984
 20
507.9320407789149
 30
0.0
 11
256.1895125002985
 21
495.2260511920124
 31
0.0
  0
LINE
  5
7632
330
1A
100
AcDbEntity
  8
SEIHIN
100
AcDbLine
 10
257.6895125002984
 20
495.2230131122925
 30
0.0
 11
257.6895125002983
 21
507.9320407789149
 31
0.0
  0
ARC
  5
7633
330
1A
100
AcDbEntity
  8
SEIHIN
100
AcDbCircle
 10
256.9395099646345
 20
495.223015115293
 30
0.0
 40
0.7500036095062747
100
AcDbArc
 50
180.2319386956944
 51
359.9030436551469
  0
ARC
  5
7634
330
1A
100
AcDbEntity
  8
SEIHIN
100
AcDbCircle
 10
256.9395125002984
 20
499.240650443843
 30
0.0
 40
0.9670085773394353
100
AcDbArc
 50
219.1416501897548
 51
320.8583498102452
  0
LINE
  5
7636
330
1A
100
AcDbEntity
  8
SEIHIN
100
AcDbLine
 10
191.5168329432208
 20
506.6861506278518
 30
0.0
 11
161.189436353676
 21
509.6332712193093
 31
0.0
  0
LINE
  5
7637
330
1A
100
AcDbEntity
  8
SEIHIN
100
AcDbLine
 10
191.5168329432208
 20
506.6861506278518
 30
0.0
 11
227.6895125002988
 21
506.6861506278517
 31
0.0
  0
LINE
  5
7638
330
1A
100
AcDbEntity
  8
SEIHIN
100
AcDbLine
 10
293.8621920573852
 20
506.6861506278518
 30
0.0
 11
324.1895125002986
 21
509.6332712164099
 31
0.0
  0
LINE
  5
7639
330
1A
100
AcDbEntity
  8
SEIHIN
100
AcDbLine
 10
229.1895125002987
 20
506.6861506278518
 30
0.0
 11
256.1895125002984
 21
506.6861506278518
 31
0.0
  0
LINE
  5
763A
330
1A
100
AcDbEntity
  8
SEIHIN
100
AcDbLine
 10
257.6895125002983
 20
506.6861506278518
 30
0.0
 11
293.8621920573851
 21
506.6861506278518
 31
0.0
  0
ARC
  5
763D
330
1A
100
AcDbEntity
  8
SEIHIN
100
AcDbCircle
 10
256.9395125002983
 20
505.7385335095055
 30
0.0
 40
2.318183370864175
100
AcDbArc
 50
71.12350949083271
 51
108.8764905091628
  0
ARC
  5
763E
330
1A
100
AcDbEntity
  8
SEIHIN
100
AcDbCircle
 10
228.4395125002987
 20
505.7385335095055
 30
0.0
 40
2.318183370864175
100
AcDbArc
 50
71.12350949083271
 51
108.8764905091628
  0
TEXT
  5
7DDE
330
1A
100
AcDbEntity
  8
ZUWAKU
100
AcDbText
 10
469.0820952676014
 20
9.614070911139492
 30
0.0
 40
3.0
  1
□には色品番が入ります
 41
0.9
  7
ｽﾀｲﾙ1
100
AcDbText
  0
DIMENSION
  5
84B6
330
1A
100
AcDbEntity
  8
SUNPOU
100
AcDbDimension
  2
*D21
 10
611.1129357458662
 20
323.8859996215003
 30
0.0
 11
543.1097506084495
 21
328.3859996215003
 31
0.0
 70
    32
  3
STANDARD
100
AcDbAlignedDimension
 13
475.1065654710328
 23
283.4889375312799
 33
0.0
 14
611.1129357458662
 24
245.697972909598
 34
0.0
100
AcDbRotatedDimension
  0
DIMENSION
  5
84C3
330
1A
100
AcDbEntity
  8
SUNPOU
100
AcDbDimension
  2
*D22
 10
562.0129357458665
 20
276.05594790036
 30
0.0
 11
586.5629357458664
 21
280.55594790036
 31
0.0
 70
    32
  3
STANDARD
100
AcDbAlignedDimension
 13
611.1129357458662
 23
247.1979729095979
 33
0.0
 14
562.0129357458665
 24
171.6499241968914
 34
0.0
100
AcDbRotatedDimension
  0
VIEWPORT
  5
22
330
17
100
AcDbEntity
 67
     1
  8
0
100
AcDbViewport
 10
224.6338671309299
 20
200.696324347002
 30
0.0
 40
668.2500455191894
 41
437.3596643431239
 68
     1
 69
     1
1001
ACAD
1000
MVIEW
1002
{
1070
    16
1010
0.0
1020
0.0
1030
0.0
1010
0.0
1020
0.0
1030
1.0
1040
0.0
1040
437.3596643431239
1040
224.6338671309299
1040
200.696324347002
1040
50.0
1040
0.0
1040
0.0
1070
     0
1070
   100
1070
     1
1070
     0
1070
     0
1070
     0
1070
     0
1070
     0
1040
0.0
1040
0.0
1040
0.0
1040
1.0
1040
1.0
1040
10.0
1040
10.0
1070
     0
1002
{
1002
}
1002
}
  0
VIEWPORT
  5
64
330
17
100
AcDbEntity
 67
     1
  8
VIEWPORT
100
AcDbViewport
 10
210.0
 20
148.5
 30
0.0
 40
420.0
 41
297.0
 68
     2
 69
     2
1001
ACAD
1000
MVIEW
1002
{
1070
    16
1010
0.0
1020
0.0
1030
0.0
1010
0.0
1020
0.0
1030
1.0
1040
0.0
1040
584.072402851593
1040
881.5698625043406
1040
268.8891101169707
1040
50.0
1040
0.0
1040
0.0
1070
     0
1070
   100
1070
     1
1070
     0
1070
     0
1070
     0
1070
     0
1070
     0
1040
0.0
1040
0.0
1040
0.0
1040
5.0
1040
5.0
1040
0.0
1040
0.0
1070
     0
1002
{
1002
}
1002
}
  0
ENDSEC
  0
SECTION
  2
OBJECTS
  0
DICTIONARY
  5
C
330
0
100
AcDbDictionary
  3
ACAD_GROUP
350
D
  3
ACAD_LAYOUT
350
15A
  3
ACAD_MLINESTYLE
350
E
  3
ACAD_PLOTSETTINGS
350
15B
1001
ACAD
1000
TREAT_AS_HARD
1070
     0
  0
DICTIONARY
  5
5E60
330
2
100
AcDbDictionary
  3
ACAD_LAYERFILTERS
350
5E61
1001
ACAD
1000
TREAT_AS_HARD
1070
     1
  0
DICTIONARY
  5
4EEB
330
1A
100
AcDbDictionary
  3
ACAD_LAYOUTSELFREF
350
8BB7
1001
ACAD
1000
TREAT_AS_HARD
1070
     1
  0
DICTIONARY
  5
4EE9
330
17
100
AcDbDictionary
  3
ACAD_LAYOUTSELFREF
350
8BB6
1001
ACAD
1000
TREAT_AS_HARD
1070
     1
  0
DICTIONARY
  5
D
102
{ACAD_REACTORS
330
C
102
}
330
C
100
AcDbDictionary
  3
*A1
350
614E
1001
ACAD
1000
TREAT_AS_HARD
1070
     0
  0
DICTIONARY
  5
15A
102
{ACAD_REACTORS
330
C
102
}
330
C
100
AcDbDictionary
1001
ACAD
1000
TREAT_AS_HARD
1070
     0
  0
DICTIONARY
  5
E
102
{ACAD_REACTORS
330
C
102
}
330
C
100
AcDbDictionary
  3
STANDARD
350
13
1001
ACAD
1000
TREAT_AS_HARD
1070
     0
  0
DICTIONARY
  5
15B
102
{ACAD_REACTORS
330
C
102
}
330
C
100
AcDbDictionary
1001
ACAD
1000
TREAT_AS_HARD
1070
     0
  0
DICTIONARY
  5
5E61
102
{ACAD_REACTORS
330
5E60
102
}
330
5E60
100
AcDbDictionary
  3
50
350
5E62
1001
ACAD
1000
TREAT_AS_HARD
1070
     1
  0
XRECORD
  5
8BB7
102
{ACAD_REACTORS
330
4EEB
102
}
330
4EEB
100
AcDbXrecord
340
1A
  0
XRECORD
  5
8BB6
102
{ACAD_REACTORS
330
4EE9
102
}
330
4EE9
100
AcDbXrecord
340
17
  0
GROUP
  5
614E
102
{ACAD_REACTORS
330
D
102
}
330
D
100
AcDbGroup
300

 70
     1
 71
     1
340
6129
340
6128
340
6125
340
6121
340
611F
340
6101
340
6100
340
60FF
340
60FE
340
60FD
340
60FC
340
60EB
340
60EA
340
60E9
340
60E8
340
60E7
340
6103
340
60E6
340
60E5
340
60E4
340
60EE
340
60ED
340
60EC
340
6126
340
6107
340
6104
340
6105
340
6102
340
6124
340
610A
340
6109
340
6117
340
6115
340
6111
340
6106
340
60FB
340
60FA
340
60F9
340
6112
340
6110
340
610E
340
6108
340
612A
340
6123
340
611E
340
611D
340
6116
340
6114
340
6113
340
610F
340
610D
340
610C
340
610B
340
614D
340
614C
340
614B
340
613B
340
6138
340
60E3
340
60E2
340
60E1
340
60F1
340
60F0
340
60EF
340
60F4
340
60F3
340
60F2
340
60F7
340
60F6
340
60F8
340
60F5
340
6131
340
6130
340
612F
340
6135
340
6136
340
6134
340
6140
340
613D
340
613F
340
613C
340
6141
340
613E
340
613A
340
6139
340
6137
340
6145
340
6144
340
6143
340
6142
340
6122
340
6120
340
611B
340
611A
340
6119
340
6118
340
6127
340
612E
340
612D
340
612C
340
612B
340
611C
340
614A
340
6149
340
6148
340
6147
340
6146
  0
MLINESTYLE
  5
13
102
{ACAD_REACTORS
330
E
102
}
330
E
100
AcDbMlineStyle
  2
STANDARD
 70
     0
  3

 62
     0
 51
90.0
 52
90.0
 71
     2
 49
0.5
 62
   256
  6
BYLAYER
 49
-0.5
 62
   256
  6
BYLAYER
  0
XRECORD
  5
5E62
102
{ACAD_REACTORS
330
5E61
102
}
330
5E61
100
AcDbXrecord
  1
50
  1
*-50
  1
*
  1
*
 70
     0
  1
*
  1
*
  0
ENDSEC
  0
EOF
