  0
SECTION
  2
HEADER
  9
$ACADVER
  1
AC1012
  9
$DWGCODEPAGE
  3
dos932
  9
$INSBASE
 10
0.0
 20
0.0
 30
0.0
  9
$EXTMIN
 10
-0.05126640194635
 20
-0.0362528016673878
 30
-0.0000000349181948
  9
$EXTMAX
 10
797.6628945888771
 20
551.6439420123595
 30
0.0000000814935746
  9
$LIMMIN
 10
0.0
 20
0.0
  9
$LIMMAX
 10
840.0
 20
594.0
  9
$ORTHOMODE
 70
     1
  9
$REGENMODE
 70
     1
  9
$FILLMODE
 70
     1
  9
$QTEXTMODE
 70
     0
  9
$MIRRTEXT
 70
     1
  9
$DRAGMODE
 70
     2
  9
$LTSCALE
 40
1.0
  9
$OSMODE
 70
    63
  9
$ATTMODE
 70
     1
  9
$TEXTSIZE
 40
5.0
  9
$TRACEWID
 40
1.0
  9
$TEXTSTYLE
  7
STANDARD
  9
$CLAYER
  8
0
  9
$CELTYPE
  6
BYLAYER
  9
$CECOLOR
 62
   256
  9
$CELTSCALE
 40
1.0
  9
$DELOBJ
 70
     1
  9
$DISPSILH
 70
     0
  9
$DIMSCALE
 40
1.0
  9
$DIMASZ
 40
7.0
  9
$DIMEXO
 40
6.0
  9
$DIMDLI
 40
14.0
  9
$DIMRND
 40
0.0
  9
$DIMDLE
 40
0.0
  9
$DIMEXE
 40
3.0
  9
$DIMTP
 40
0.0
  9
$DIMTM
 40
0.0
  9
$DIMTXT
 40
6.0
  9
$DIMCEN
 40
150.0
  9
$DIMTSZ
 40
0.0
  9
$DIMTOL
 70
     0
  9
$DIMLIM
 70
     0
  9
$DIMTIH
 70
     0
  9
$DIMTOH
 70
     0
  9
$DIMSE1
 70
     0
  9
$DIMSE2
 70
     0
  9
$DIMTAD
 70
     3
  9
$DIMZIN
 70
     0
  9
$DIMBLK
  1

  9
$DIMASO
 70
     1
  9
$DIMSHO
 70
     1
  9
$DIMPOST
  1

  9
$DIMAPOST
  1

  9
$DIMALT
 70
     0
  9
$DIMALTD
 70
     2
  9
$DIMALTF
 40
25.4
  9
$DIMLFAC
 40
1.0
  9
$DIMTOFL
 70
     1
  9
$DIMTVP
 40
0.0
  9
$DIMTIX
 70
     0
  9
$DIMSOXD
 70
     0
  9
$DIMSAH
 70
     1
  9
$DIMBLK1
  1
OPEN
  9
$DIMBLK2
  1
OPEN
  9
$DIMSTYLE
  2
STANDARD
  9
$DIMCLRD
 70
   256
  9
$DIMCLRE
 70
   256
  9
$DIMCLRT
 70
   256
  9
$DIMTFAC
 40
1.0
  9
$DIMGAP
 40
2.0
  9
$DIMJUST
 70
     0
  9
$DIMSD1
 70
     0
  9
$DIMSD2
 70
     0
  9
$DIMTOLJ
 70
     1
  9
$DIMTZIN
 70
     0
  9
$DIMALTZ
 70
     0
  9
$DIMALTTZ
 70
     0
  9
$DIMFIT
 70
     3
  9
$DIMUPT
 70
     0
  9
$DIMUNIT
 70
     2
  9
$DIMDEC
 70
     0
  9
$DIMTDEC
 70
     0
  9
$DIMALTU
 70
     2
  9
$DIMALTTD
 70
     2
  9
$DIMTXSTY
  7
STANDARD
  9
$DIMAUNIT
 70
     0
  9
$LUNITS
 70
     2
  9
$LUPREC
 70
     4
  9
$SKETCHINC
 40
1.0
  9
$FILLETRAD
 40
1.0
  9
$AUNITS
 70
     0
  9
$AUPREC
 70
     0
  9
$MENU
  1
.
  9
$ELEVATION
 40
0.0
  9
$PELEVATION
 40
0.0
  9
$THICKNESS
 40
0.0
  9
$LIMCHECK
 70
     0
  9
$BLIPMODE
 70
     0
  9
$CHAMFERA
 40
20.0
  9
$CHAMFERB
 40
20.0
  9
$CHAMFERC
 40
40.0
  9
$CHAMFERD
 40
0.0
  9
$SKPOLY
 70
     0
  9
$TDCREATE
 40
2451212.496837384
  9
$TDUPDATE
 40
2455894.660316308
  9
$TDINDWG
 40
0.1589535417
  9
$TDUSRTIMER
 40
0.1589535417
  9
$USRTIMER
 70
     1
  9
$ANGBASE
 50
0.0
  9
$ANGDIR
 70
     0
  9
$PDMODE
 70
     0
  9
$PDSIZE
 40
0.0
  9
$PLINEWID
 40
0.0
  9
$COORDS
 70
     0
  9
$SPLFRAME
 70
     0
  9
$SPLINETYPE
 70
     6
  9
$SPLINESEGS
 70
     8
  9
$ATTDIA
 70
     0
  9
$ATTREQ
 70
     1
  9
$HANDLING
 70
 10241
  9
$HANDSEED
  5
6055
  9
$SURFTAB1
 70
     6
  9
$SURFTAB2
 70
     6
  9
$SURFTYPE
 70
     6
  9
$SURFU
 70
     6
  9
$SURFV
 70
     6
  9
$UCSNAME
  2

  9
$UCSORG
 10
0.0
 20
0.0
 30
0.0
  9
$UCSXDIR
 10
1.0
 20
0.0
 30
0.0
  9
$UCSYDIR
 10
0.0
 20
1.0
 30
0.0
  9
$PUCSNAME
  2

  9
$PUCSORG
 10
0.0
 20
0.0
 30
0.0
  9
$PUCSXDIR
 10
1.0
 20
0.0
 30
0.0
  9
$PUCSYDIR
 10
0.0
 20
1.0
 30
0.0
  9
$USERI1
 70
     0
  9
$USERI2
 70
     0
  9
$USERI3
 70
     0
  9
$USERI4
 70
     0
  9
$USERI5
 70
     0
  9
$USERR1
 40
0.0
  9
$USERR2
 40
0.0
  9
$USERR3
 40
0.0
  9
$USERR4
 40
0.0
  9
$USERR5
 40
0.0
  9
$WORLDVIEW
 70
     1
  9
$SHADEDGE
 70
     3
  9
$SHADEDIF
 70
    70
  9
$TILEMODE
 70
     1
  9
$MAXACTVP
 70
    16
  9
$PINSBASE
 10
0.0
 20
0.0
 30
0.0
  9
$PLIMCHECK
 70
     0
  9
$PEXTMIN
 10
0.0
 20
0.0
 30
0.0
  9
$PEXTMAX
 10
420.0
 20
297.0
 30
0.0
  9
$PLIMMIN
 10
0.0
 20
0.0
  9
$PLIMMAX
 10
420.0
 20
297.0
  9
$UNITMODE
 70
     0
  9
$VISRETAIN
 70
     0
  9
$PLINEGEN
 70
     0
  9
$PSLTSCALE
 70
     1
  9
$TREEDEPTH
 70
  3020
  9
$PICKSTYLE
 70
     1
  9
$CMLSTYLE
  2
STANDARD
  9
$CMLJUST
 70
     0
  9
$CMLSCALE
 40
1.0
  9
$SAVEIMAGES
 70
     1
  0
ENDSEC
  0
SECTION
  2
CLASSES
  0
CLASS
  1
ACDBDICTIONARYWDFLT
  2
AcDbDictionaryWithDefault
  3
AutoCAD 2000
 90
    32768
280
     0
281
     0
  0
CLASS
  1
ACDBPLACEHOLDER
  2
AcDbPlaceHolder
  3
AutoCAD 2000
 90
    32768
280
     0
281
     0
  0
CLASS
  1
LAYOUT
  2
AcDbLayout
  3
AutoCAD 2000
 90
    32768
280
     0
281
     0
  0
CLASS
  1
LONG_TRANSACTION
  2
AcDbLongTransaction
  3
AutoCAD 2000
 90
    32768
280
     0
281
     0
  0
CLASS
  1
LWPOLYLINE
  2
AcDbPolyline
  3
AutoCAD 2000
 90
    32768
280
     0
281
     1
  0
CLASS
  1
HATCH
  2
AcDbHatch
  3
AutoCAD 2000
 90
    32768
280
     0
281
     1
  0
CLASS
  1
XRECORD
  2
AcDbXrecord
  3
AutoCAD 2000
 90
    32768
280
     0
281
     0
  0
CLASS
  1
LONG_TRANSACTION
  2
AcDbLongTransaction
  3
AutoCAD 2000
 90
    32768
280
     0
281
     0
  0
CLASS
  1
LWPOLYLINE
  2
AcDbPolyline
  3
AutoCAD 2000
 90
    32768
280
     0
281
     1
  0
CLASS
  1
HATCH
  2
AcDbHatch
  3
AutoCAD 2000
 90
    32768
280
     0
281
     1
  0
CLASS
  1
XRECORD
  2
AcDbXrecord
  3
AutoCAD 2000
 90
    32768
280
     0
281
     0
  0
CLASS
  1
LONG_TRANSACTION
  2
AcDbLongTransaction
  3
AutoCAD 2000
 90
    32768
280
     0
281
     0
  0
CLASS
  1
LWPOLYLINE
  2
AcDbPolyline
  3
AutoCAD 2000
 90
    32768
280
     0
281
     1
  0
CLASS
  1
HATCH
  2
AcDbHatch
  3
AutoCAD 2000
 90
    32768
280
     0
281
     1
  0
CLASS
  1
XRECORD
  2
AcDbXrecord
  3
AutoCAD 2000
 90
    32768
280
     0
281
     0
  0
CLASS
  1
LONG_TRANSACTION
  2
AcDbLongTransaction
  3
AutoCAD 2000
 90
    32768
280
     0
281
     0
  0
CLASS
  1
LWPOLYLINE
  2
AcDbPolyline
  3
AutoCAD 2000
 90
    32768
280
     0
281
     1
  0
CLASS
  1
HATCH
  2
AcDbHatch
  3
AutoCAD 2000
 90
    32768
280
     0
281
     1
  0
CLASS
  1
XRECORD
  2
AcDbXrecord
  3
AutoCAD 2000
 90
    32768
280
     0
281
     0
  0
CLASS
  1
LONG_TRANSACTION
  2
AcDbLongTransaction
  3
AutoCAD 2000
 90
    32768
280
     0
281
     0
  0
CLASS
  1
LWPOLYLINE
  2
AcDbPolyline
  3
AutoCAD 2000
 90
    32768
280
     0
281
     1
  0
CLASS
  1
HATCH
  2
AcDbHatch
  3
AutoCAD 2000
 90
    32768
280
     0
281
     1
  0
CLASS
  1
XRECORD
  2
AcDbXrecord
  3
AutoCAD 2000
 90
    32768
280
     0
281
     0
  0
CLASS
  1
LONG_TRANSACTION
  2
AcDbLongTransaction
  3
AutoCAD 2000
 90
    32768
280
     0
281
     0
  0
CLASS
  1
LWPOLYLINE
  2
AcDbPolyline
  3
AutoCAD 2000
 90
    32768
280
     0
281
     1
  0
CLASS
  1
HATCH
  2
AcDbHatch
  3
AutoCAD 2000
 90
    32768
280
     0
281
     1
  0
CLASS
  1
XRECORD
  2
AcDbXrecord
  3
AutoCAD 2000
 90
    32768
280
     0
281
     0
  0
CLASS
  1
LONG_TRANSACTION
  2
AcDbLongTransaction
  3
AutoCAD 2000
 90
    32768
280
     0
281
     0
  0
CLASS
  1
LWPOLYLINE
  2
AcDbPolyline
  3
AutoCAD 2000
 90
    32768
280
     0
281
     1
  0
CLASS
  1
HATCH
  2
AcDbHatch
  3
AutoCAD 2000
 90
    32768
280
     0
281
     1
  0
CLASS
  1
XRECORD
  2
AcDbXrecord
  3
AutoCAD 2000
 90
    32768
280
     0
281
     0
  0
CLASS
  1
LONG_TRANSACTION
  2
AcDbLongTransaction
  3
AutoCAD 2000
 90
    32768
280
     0
281
     0
  0
CLASS
  1
LWPOLYLINE
  2
AcDbPolyline
  3
AutoCAD 2000
 90
    32768
280
     0
281
     1
  0
CLASS
  1
HATCH
  2
AcDbHatch
  3
AutoCAD 2000
 90
    32768
280
     0
281
     1
  0
CLASS
  1
XRECORD
  2
AcDbXrecord
  3
AutoCAD 2000
 90
    32768
280
     0
281
     0
  0
CLASS
  1
LONG_TRANSACTION
  2
AcDbLongTransaction
  3
AutoCAD 2000
 90
    32768
280
     0
281
     0
  0
CLASS
  1
LWPOLYLINE
  2
AcDbPolyline
  3
AutoCAD 2000
 90
    32768
280
     0
281
     1
  0
CLASS
  1
HATCH
  2
AcDbHatch
  3
AutoCAD 2000
 90
    32768
280
     0
281
     1
  0
CLASS
  1
XRECORD
  2
AcDbXrecord
  3
AutoCAD 2000
 90
    32768
280
     0
281
     0
  0
ENDSEC
  0
SECTION
  2
TABLES
  0
TABLE
  2
VPORT
  5
8
330
0
100
AcDbSymbolTable
 70
     4
  0
VPORT
  5
5F9C
330
8
100
AcDbSymbolTableRecord
100
AcDbViewportTableRecord
  2
*ACTIVE
 70
     0
 10
0.0
 20
0.0
 11
1.0
 21
1.0
 12
419.9871835950613
 22
296.9909369049356
 13
0.0
 23
0.0
 14
5.0
 24
5.0
 15
0.0
 25
0.0
 16
0.0
 26
0.0
 36
1.0
 17
0.0
 27
0.0
 37
0.0
 40
598.5583921227924
 41
1.535714285714285
 42
50.0
 43
0.0
 44
0.0
 50
0.0
 51
0.0
 71
     0
 72
   100
 73
     1
 74
     0
 75
     0
 76
     0
 77
     0
 78
     0
  0
ENDTAB
  0
TABLE
  2
LTYPE
  5
5
330
0
100
AcDbSymbolTable
 70
     2
  0
LTYPE
  5
14
330
5
100
AcDbSymbolTableRecord
100
AcDbLinetypeTableRecord
  2
BYBLOCK
 70
     0
  3

 72
    65
 73
     0
 40
0.0
  0
LTYPE
  5
15
330
5
100
AcDbSymbolTableRecord
100
AcDbLinetypeTableRecord
  2
BYLAYER
 70
     0
  3

 72
    65
 73
     0
 40
0.0
  0
LTYPE
  5
16
330
5
100
AcDbSymbolTableRecord
100
AcDbLinetypeTableRecord
  2
CONTINUOUS
 70
     0
  3
Solid line
 72
    65
 73
     0
 40
0.0
  0
LTYPE
  5
135
330
5
100
AcDbSymbolTableRecord
100
AcDbLinetypeTableRecord
  2
CENTER
 70
     0
  3
Center ____ _ ____ _ ____ _ ____ _ ____ _ ____
 72
    65
 73
     4
 40
50.8
 49
31.75
 74
     0
 49
-6.349999999999999
 74
     0
 49
6.349999999999999
 74
     0
 49
-6.349999999999999
 74
     0
  0
ENDTAB
  0
TABLE
  2
LAYER
  5
2
330
0
100
AcDbSymbolTable
 70
     9
  0
LAYER
  5
F
330
2
100
AcDbSymbolTableRecord
100
AcDbLayerTableRecord
  2
0
 70
     0
 62
     7
  6
CONTINUOUS
  0
LAYER
  5
62
330
2
100
AcDbSymbolTableRecord
100
AcDbLayerTableRecord
  2
VIEWPORT
 70
     0
 62
     7
  6
CONTINUOUS
  0
LAYER
  5
65
330
2
100
AcDbSymbolTableRecord
100
AcDbLayerTableRecord
  2
ZUWAKU
 70
     0
 62
     7
  6
CONTINUOUS
  0
LAYER
  5
28E
330
2
100
AcDbSymbolTableRecord
100
AcDbLayerTableRecord
  2
SEIHIN
 70
     0
 62
     3
  6
CONTINUOUS
  0
LAYER
  5
28F
330
2
100
AcDbSymbolTableRecord
100
AcDbLayerTableRecord
  2
SUNPOU
 70
     0
 62
     4
  6
CONTINUOUS
  0
LAYER
  5
290
330
2
100
AcDbSymbolTableRecord
100
AcDbLayerTableRecord
  2
CENTER_L
 70
     0
 62
     1
  6
CENTER
  0
LAYER
  5
3EF
330
2
100
AcDbSymbolTableRecord
100
AcDbLayerTableRecord
  2
DEFPOINTS
 70
     0
 62
     7
  6
CONTINUOUS
  0
LAYER
  5
702
330
2
100
AcDbSymbolTableRecord
100
AcDbLayerTableRecord
  2
MOJI
 70
     0
 62
     2
  6
CONTINUOUS
  0
LAYER
  5
4651
330
2
100
AcDbSymbolTableRecord
100
AcDbLayerTableRecord
  2
NOKITOI
 70
     0
 62
     7
  6
CONTINUOUS
  0
ENDTAB
  0
TABLE
  2
STYLE
  5
3
330
0
100
AcDbSymbolTable
 70
     2
  0
STYLE
  5
10
330
3
100
AcDbSymbolTableRecord
100
AcDbTextStyleTableRecord
  2
STANDARD
 70
     0
 40
0.0
 41
1.0
 50
0.0
 71
     0
 42
5.0
  3
TXT
  4
bigfont.shx
  0
STYLE
  5
703
330
3
100
AcDbSymbolTableRecord
100
AcDbTextStyleTableRecord
  2
ｽﾀｲﾙ1
 70
     0
 40
0.0
 41
1.0
 50
0.0
 71
     0
 42
2.5
  3
MS PGothic.ttf
  4

1001
ACAD
1000
MS PGothic
1071
    32818
  0
ENDTAB
  0
TABLE
  2
VIEW
  5
6
330
0
100
AcDbSymbolTable
 70
     0
  0
ENDTAB
  0
TABLE
  2
UCS
  5
7
330
0
100
AcDbSymbolTable
 70
     0
  0
ENDTAB
  0
TABLE
  2
APPID
  5
9
330
0
100
AcDbSymbolTable
 70
     1
  0
APPID
  5
11
330
9
100
AcDbSymbolTableRecord
100
AcDbRegAppTableRecord
  2
ACAD
 70
     0
  0
ENDTAB
  0
TABLE
  2
DIMSTYLE
  5
A
330
0
100
AcDbSymbolTable
 70
     1
  0
DIMSTYLE
105
1D
102
{ACAD_REACTORS
330
5690
330
569D
330
56AA
330
56B7
330
56C4
330
56E3
102
}
330
A
100
AcDbSymbolTableRecord
100
AcDbDimStyleTableRecord
  2
STANDARD
 70
     0
  3

  4

  5

  6

  7

 40
1.0
 41
0.18
 42
0.0625
 43
0.38
 44
0.18
 45
0.0
 46
0.0
 47
0.0
 48
0.0
140
0.18
141
0.09
142
0.0
143
25.4
144
1.0
145
0.0
146
1.0
147
0.09
 71
     0
 72
     0
 73
     1
 74
     1
 75
     0
 76
     0
 77
     0
 78
     0
170
     0
171
     2
172
     0
173
     0
174
     0
175
     0
176
     0
177
     0
178
     0
270
     2
271
     4
272
     4
273
     2
274
     2
340
10
275
     0
280
     0
281
     0
282
     0
283
     1
284
     0
285
     0
286
     0
287
     3
288
     0
  0
ENDTAB
  0
TABLE
  2
BLOCK_RECORD
  5
1
330
0
100
AcDbSymbolTable
 70
     8
  0
BLOCK_RECORD
  5
1A
102
{ACAD_XDICTIONARY
360
4EB
102
}
330
1
100
AcDbSymbolTableRecord
100
AcDbBlockTableRecord
  2
*MODEL_SPACE
  0
BLOCK_RECORD
  5
17
102
{ACAD_XDICTIONARY
360
4E9
102
}
330
1
100
AcDbSymbolTableRecord
100
AcDbBlockTableRecord
  2
*PAPER_SPACE
  0
BLOCK_RECORD
  5
6D
330
1
100
AcDbSymbolTableRecord
100
AcDbBlockTableRecord
  2
_OPEN
  0
BLOCK_RECORD
  5
2F7A
330
1
100
AcDbSymbolTableRecord
100
AcDbBlockTableRecord
  2
*X1
  0
BLOCK_RECORD
  5
5691
330
1
100
AcDbSymbolTableRecord
100
AcDbBlockTableRecord
  2
*D2
  0
BLOCK_RECORD
  5
569E
330
1
100
AcDbSymbolTableRecord
100
AcDbBlockTableRecord
  2
*D3
  0
BLOCK_RECORD
  5
56AB
330
1
100
AcDbSymbolTableRecord
100
AcDbBlockTableRecord
  2
*D4
  0
BLOCK_RECORD
  5
56B8
330
1
100
AcDbSymbolTableRecord
100
AcDbBlockTableRecord
  2
*D5
  0
BLOCK_RECORD
  5
56C5
330
1
100
AcDbSymbolTableRecord
100
AcDbBlockTableRecord
  2
*D6
  0
BLOCK_RECORD
  5
56E4
330
1
100
AcDbSymbolTableRecord
100
AcDbBlockTableRecord
  2
*D7
  0
ENDTAB
  0
ENDSEC
  0
SECTION
  2
BLOCKS
  0
BLOCK
  5
1B
330
1A
100
AcDbEntity
  8
0
100
AcDbBlockBegin
  2
*MODEL_SPACE
 70
     0
 10
0.0
 20
0.0
 30
0.0
  3
*MODEL_SPACE
  1

  0
ENDBLK
  5
1C
330
1A
100
AcDbEntity
  8
0
100
AcDbBlockEnd
  0
BLOCK
  5
18
330
17
100
AcDbEntity
 67
     1
  8
0
100
AcDbBlockBegin
  2
*PAPER_SPACE
 70
     0
 10
0.0
 20
0.0
 30
0.0
  3
*PAPER_SPACE
  1

  0
ENDBLK
  5
19
330
17
100
AcDbEntity
 67
     1
  8
0
100
AcDbBlockEnd
  0
BLOCK
  5
6E
330
6D
100
AcDbEntity
  8
0
100
AcDbBlockBegin
  2
_OPEN
 70
     0
 10
0.0
 20
0.0
 30
0.0
  3
_OPEN
  1

  0
LINE
  5
6F
330
6D
100
AcDbEntity
  8
0
  6
BYBLOCK
 62
     0
100
AcDbLine
 10
-1.0
 20
0.1666666666666666
 30
0.0
 11
0.0
 21
0.0
 31
0.0
  0
LINE
  5
70
330
6D
100
AcDbEntity
  8
0
  6
BYBLOCK
 62
     0
100
AcDbLine
 10
0.0
 20
0.0
 30
0.0
 11
-1.0
 21
-0.1666666666666666
 31
0.0
  0
LINE
  5
71
330
6D
100
AcDbEntity
  8
0
  6
BYBLOCK
 62
     0
100
AcDbLine
 10
0.0
 20
0.0
 30
0.0
 11
-1.0
 21
0.0
 31
0.0
  0
ENDBLK
  5
72
330
6D
100
AcDbEntity
  8
0
100
AcDbBlockEnd
  0
BLOCK
  5
310E
330
2F7A
100
AcDbEntity
  8
0
100
AcDbBlockBegin
  2
*X1
 70
     1
 10
0.0
 20
0.0
 30
0.0
  3
*X1
  1

  0
LINE
  5
2F7B
330
2F7A
100
AcDbEntity
  8
0
 62
     0
100
AcDbLine
 10
69.04221216833718
 20
22.60416893857376
 30
0.0
 11
68.39638123862227
 21
23.24999986828874
 31
0.0
  0
LINE
  5
2F7C
330
2F7A
100
AcDbEntity
  8
0
 62
     0
100
AcDbLine
 10
69.04221216833718
 20
21.70614332646687
 30
0.0
 11
67.49835562651532
 21
23.24999986828874
 31
0.0
  0
LINE
  5
2F7D
330
2F7A
100
AcDbEntity
  8
0
 62
     0
100
AcDbLine
 10
69.04221216833713
 20
20.80811771435992
 30
0.0
 11
66.62107822232218
 21
23.22925166037486
 31
0.0
  0
LINE
  5
2F7E
330
2F7A
100
AcDbEntity
  8
0
 62
     0
100
AcDbLine
 10
69.04221216833718
 20
19.91009210225309
 30
0.0
 11
66.24221216833712
 21
22.71009210225309
 31
0.0
  0
LINE
  5
2F7F
330
2F7A
100
AcDbEntity
  8
0
 62
     0
100
AcDbLine
 10
69.04221216833718
 20
19.01206649014613
 30
0.0
 11
66.24221216833712
 21
21.8120664901462
 31
0.0
  0
LINE
  5
2F80
330
2F7A
100
AcDbEntity
  8
0
 62
     0
100
AcDbLine
 10
69.04221216833713
 20
18.11404087803919
 30
0.0
 11
66.24221216833706
 21
20.91404087803926
 31
0.0
  0
LINE
  5
2F81
330
2F7A
100
AcDbEntity
  8
0
 62
     0
100
AcDbLine
 10
64.14221216833709
 20
22.11601526593239
 30
0.0
 11
63.0082275659808
 21
23.24999986828874
 31
0.0
  0
LINE
  5
2F82
330
2F7A
100
AcDbEntity
  8
0
 62
     0
100
AcDbLine
 10
69.04221216833718
 20
17.21601526593235
 30
0.0
 11
66.24221216833712
 21
20.01601526593242
 31
0.0
  0
LINE
  5
2F83
330
2F7A
100
AcDbEntity
  8
0
 62
     0
100
AcDbLine
 10
64.14221216833709
 20
21.21798965382549
 30
0.0
 11
62.11020195387385
 21
23.24999986828868
 31
0.0
  0
LINE
  5
2F84
330
2F7A
100
AcDbEntity
  8
0
 62
     0
100
AcDbLine
 10
69.04221216833713
 20
16.3179896538254
 30
0.0
 11
66.24221216833712
 21
19.11798965382547
 31
0.0
  0
LINE
  5
2F85
330
2F7A
100
AcDbEntity
  8
0
 62
     0
100
AcDbLine
 10
64.14221216833709
 20
20.31996404171855
 30
0.0
 11
61.43670120320002
 21
23.02547500685562
 31
0.0
  0
LINE
  5
2F86
330
2F7A
100
AcDbEntity
  8
0
 62
     0
100
AcDbLine
 10
69.04221216833713
 20
15.41996404171851
 30
0.0
 11
66.24221216833706
 21
18.21996404171852
 31
0.0
  0
LINE
  5
2F87
330
2F7A
100
AcDbEntity
  8
0
 62
     0
100
AcDbLine
 10
64.14221216833721
 20
19.42193842961154
 30
0.0
 11
61.34221216833703
 21
22.22193842961166
 31
0.0
  0
LINE
  5
2F88
330
2F7A
100
AcDbEntity
  8
0
 62
     0
100
AcDbLine
 10
69.04221216833718
 20
14.52193842961156
 30
0.0
 11
66.24221216833712
 21
17.32193842961163
 31
0.0
  0
LINE
  5
2F89
330
2F7A
100
AcDbEntity
  8
0
 62
     0
100
AcDbLine
 10
64.14221216833715
 20
18.52391281750465
 30
0.0
 11
61.34221216833703
 21
21.32391281750483
 31
0.0
  0
LINE
  5
2F8A
330
2F7A
100
AcDbEntity
  8
0
 62
     0
100
AcDbLine
 10
69.04221216833713
 20
13.62391281750467
 30
0.0
 11
66.24221216833706
 21
16.42391281750474
 31
0.0
  0
LINE
  5
2F8B
330
2F7A
100
AcDbEntity
  8
0
 62
     0
100
AcDbLine
 10
64.14221216833715
 20
17.62588720539776
 30
0.0
 11
61.34221216833703
 21
20.42588720539788
 31
0.0
  0
LINE
  5
2F8C
330
2F7A
100
AcDbEntity
  8
0
 62
     0
100
AcDbLine
 10
69.04221216833713
 20
12.72588720539778
 30
0.0
 11
66.24221216833706
 21
15.52588720539785
 31
0.0
  0
LINE
  5
2F8D
330
2F7A
100
AcDbEntity
  8
0
 62
     0
100
AcDbLine
 10
64.14221216833709
 20
16.72786159329081
 30
0.0
 11
61.34221216833697
 21
19.52786159329093
 31
0.0
  0
LINE
  5
2F8E
330
2F7A
100
AcDbEntity
  8
0
 62
     0
100
AcDbLine
 10
69.04221216833708
 20
11.82786159329083
 30
0.0
 11
66.24221216833706
 21
14.6278615932909
 31
0.0
  0
LINE
  5
2F8F
330
2F7A
100
AcDbEntity
  8
0
 62
     0
100
AcDbLine
 10
64.14221216833715
 20
15.82983598118397
 30
0.0
 11
61.34221216833703
 21
18.6298359811841
 31
0.0
  0
LINE
  5
2F90
330
2F7A
100
AcDbEntity
  8
0
 62
     0
100
AcDbLine
 10
57.84221216833708
 20
22.12983598118404
 30
0.0
 11
56.72204828123245
 21
23.24999986828868
 31
0.0
  0
LINE
  5
2F91
330
2F7A
100
AcDbEntity
  8
0
 62
     0
100
AcDbLine
 10
69.04221216833713
 20
10.92983598118399
 30
0.0
 11
66.24221216833706
 21
13.72983598118401
 31
0.0
  0
LINE
  5
2F92
330
2F7A
100
AcDbEntity
  8
0
 62
     0
100
AcDbLine
 10
64.14221216833715
 20
14.93181036907702
 30
0.0
 11
61.34221216833697
 21
17.73181036907715
 31
0.0
  0
LINE
  5
2F93
330
2F7A
100
AcDbEntity
  8
0
 62
     0
100
AcDbLine
 10
57.84221216833703
 20
21.23181036907709
 30
0.0
 11
55.82402266912549
 21
23.24999986828868
 31
0.0
  0
LINE
  5
2F94
330
2F7A
100
AcDbEntity
  8
0
 62
     0
100
AcDbLine
 10
69.04221216833713
 20
10.03181036907704
 30
0.0
 11
66.24221216833706
 21
12.83181036907711
 31
0.0
  0
LINE
  5
2F95
330
2F7A
100
AcDbEntity
  8
0
 62
     0
100
AcDbLine
 10
64.14221216833709
 20
14.03378475697013
 30
0.0
 11
61.34221216833703
 21
16.83378475697014
 31
0.0
  0
LINE
  5
2F96
330
2F7A
100
AcDbEntity
  8
0
 62
     0
100
AcDbLine
 10
57.84221216833703
 20
20.3337847569702
 30
0.0
 11
55.14244944501303
 21
23.0335474802942
 31
0.0
  0
LINE
  5
2F97
330
2F7A
100
AcDbEntity
  8
0
 62
     0
100
AcDbLine
 10
69.04221216833708
 20
9.133784756970158
 30
0.0
 11
66.242212168337
 21
11.93378475697016
 31
0.0
  0
LINE
  5
2F98
330
2F7A
100
AcDbEntity
  8
0
 62
     0
100
AcDbLine
 10
64.14221216833715
 20
13.13575914486318
 30
0.0
 11
61.34221216833708
 21
15.93575914486325
 31
0.0
  0
LINE
  5
2F99
330
2F7A
100
AcDbEntity
  8
0
 62
     0
100
AcDbLine
 10
57.84221216833708
 20
19.43575914486325
 30
0.0
 11
55.04221216833707
 21
22.23575914486326
 31
0.0
  0
LINE
  5
2F9A
330
2F7A
100
AcDbEntity
  8
0
 62
     0
100
AcDbLine
 10
69.04221216833713
 20
8.235759144863209
 30
0.0
 11
66.24221216833706
 21
11.03575914486327
 31
0.0
  0
LINE
  5
2F9B
330
2F7A
100
AcDbEntity
  8
0
 62
     0
100
AcDbLine
 10
64.14221216833709
 20
12.23773353275629
 30
0.0
 11
61.34221216833708
 21
15.03773353275636
 31
0.0
  0
LINE
  5
2F9C
330
2F7A
100
AcDbEntity
  8
0
 62
     0
100
AcDbLine
 10
57.84221216833714
 20
18.5377335327563
 30
0.0
 11
55.04221216833713
 21
21.33773353275632
 31
0.0
  0
LINE
  5
2F9D
330
2F7A
100
AcDbEntity
  8
0
 62
     0
100
AcDbLine
 10
68.97024681344731
 20
7.409698887646129
 30
0.0
 11
66.24221216833706
 21
10.13773353275638
 31
0.0
  0
LINE
  5
2F9E
330
2F7A
100
AcDbEntity
  8
0
 62
     0
100
AcDbLine
 10
64.14221216833715
 20
11.33970792064928
 30
0.0
 11
61.34221216833703
 21
14.13970792064941
 31
0.0
  0
LINE
  5
2F9F
330
2F7A
100
AcDbEntity
  8
0
 62
     0
100
AcDbLine
 10
57.84221216833708
 20
17.63970792064941
 30
0.0
 11
55.04221216833713
 21
20.43970792064937
 31
0.0
  0
LINE
  5
2FA0
330
2F7A
100
AcDbEntity
  8
0
 62
     0
100
AcDbLine
 10
68.33192022069784
 20
7.149999868288659
 30
0.0
 11
66.242212168337
 21
9.239707920649493
 31
0.0
  0
LINE
  5
2FA1
330
2F7A
100
AcDbEntity
  8
0
 62
     0
100
AcDbLine
 10
57.84221216833708
 20
16.74168230854246
 30
0.0
 11
55.04221216833707
 21
19.54168230854241
 31
0.0
  0
LINE
  5
2FA2
330
2F7A
100
AcDbEntity
  8
0
 62
     0
100
AcDbLine
 10
64.14221216833715
 20
10.44168230854239
 30
0.0
 11
61.34221216833703
 21
13.24168230854252
 31
0.0
  0
LINE
  5
2FA3
330
2F7A
100
AcDbEntity
  8
0
 62
     0
100
AcDbLine
 10
52.41721216833707
 20
22.16668230854247
 30
0.0
 11
51.33389460859075
 21
23.24999986828874
 31
0.0
  0
LINE
  5
2FA4
330
2F7A
100
AcDbEntity
  8
0
 62
     0
100
AcDbLine
 10
67.43389460859095
 20
7.149999868288546
 30
0.0
 11
66.242212168337
 21
8.341682308542544
 31
0.0
  0
LINE
  5
2FA5
330
2F7A
100
AcDbEntity
  8
0
 62
     0
100
AcDbLine
 10
57.84221216833708
 20
15.84365669643557
 30
0.0
 11
55.04221216833713
 21
18.64365669643558
 31
0.0
  0
LINE
  5
2FA6
330
2F7A
100
AcDbEntity
  8
0
 62
     0
100
AcDbLine
 10
52.41721216833707
 20
21.26865669643558
 30
0.0
 11
50.43586899648392
 21
23.24999986828879
 31
0.0
  0
LINE
  5
2FA7
330
2F7A
100
AcDbEntity
  8
0
 62
     0
100
AcDbLine
 10
64.11625386769157
 20
9.569614997081146
 30
0.0
 11
61.34221216833703
 21
12.34365669643563
 31
0.0
  0
LINE
  5
2FA8
330
2F7A
100
AcDbEntity
  8
0
 62
     0
100
AcDbLine
 10
57.84221216833708
 20
14.94563108432868
 30
0.0
 11
55.04221216833713
 21
17.74563108432863
 31
0.0
  0
LINE
  5
2FA9
330
2F7A
100
AcDbEntity
  8
0
 62
     0
100
AcDbLine
 10
52.22163162222324
 20
20.56621163044252
 30
0.0
 11
49.53784338437708
 21
23.24999986828868
 31
0.0
  0
LINE
  5
2FAA
330
2F7A
100
AcDbEntity
  8
0
 62
     0
100
AcDbLine
 10
63.92326857243432
 20
8.864574680231385
 30
0.0
 11
61.34221216833703
 21
11.44563108432873
 31
0.0
  0
LINE
  5
2FAB
330
2F7A
100
AcDbEntity
  8
0
 62
     0
100
AcDbLine
 10
57.84221216833708
 20
14.04760547222173
 30
0.0
 11
55.04221216833707
 21
16.84760547222174
 31
0.0
  0
LINE
  5
2FAC
330
2F7A
100
AcDbEntity
  8
0
 62
     0
100
AcDbLine
 10
51.43981777227009
 20
20.44999986828867
 30
0.0
 11
48.63981777227007
 21
23.24999986828874
 31
0.0
  0
LINE
  5
2FAD
330
2F7A
100
AcDbEntity
  8
0
 62
     0
100
AcDbLine
 10
63.59823669651075
 20
8.291580944048007
 30
0.0
 11
61.27069642917752
 21
10.61912121138129
 31
0.0
  0
LINE
  5
2FAE
330
2F7A
100
AcDbEntity
  8
0
 62
     0
100
AcDbLine
 10
57.84221216833708
 20
13.14957986011489
 30
0.0
 11
55.04221216833713
 21
15.94957986011485
 31
0.0
  0
LINE
  5
2FAF
330
2F7A
100
AcDbEntity
  8
0
 62
     0
100
AcDbLine
 10
50.54179216016326
 20
20.44999986828873
 30
0.0
 11
47.80422543098587
 21
23.18756659746611
 31
0.0
  0
LINE
  5
2FB0
330
2F7A
100
AcDbEntity
  8
0
 62
     0
100
AcDbLine
 10
63.16619489918571
 20
7.825597129266213
 30
0.0
 11
60.86911079071001
 21
10.12268123774191
 31
0.0
  0
LINE
  5
2FB1
330
2F7A
100
AcDbEntity
  8
0
 62
     0
100
AcDbLine
 10
57.84221216833708
 20
12.25155424800794
 30
0.0
 11
55.04221216833707
 21
15.0515542480079
 31
0.0
  0
LINE
  5
2FB2
330
2F7A
100
AcDbEntity
  8
0
 62
     0
100
AcDbLine
 10
49.6437665480563
 20
20.44999986828873
 30
0.0
 11
47.13958500645247
 21
22.95418140989249
 31
0.0
  0
LINE
  5
2FB3
330
2F7A
100
AcDbEntity
  8
0
 62
     0
100
AcDbLine
 10
62.63003255425968
 20
7.463733862085348
 30
0.0
 11
60.1437665480563
 21
9.949999868288671
 31
0.0
  0
LINE
  5
2FB4
330
2F7A
100
AcDbEntity
  8
0
 62
     0
100
AcDbLine
 10
57.84221216833703
 20
11.353528635901
 30
0.0
 11
55.04221216833713
 21
14.15352863590089
 31
0.0
  0
LINE
  5
2FB5
330
2F7A
100
AcDbEntity
  8
0
 62
     0
100
AcDbLine
 10
48.7675307639675
 20
20.42821004027052
 30
0.0
 11
46.59698406924229
 21
22.59875673499573
 31
0.0
  0
LINE
  5
2FB6
330
2F7A
100
AcDbEntity
  8
0
 62
     0
100
AcDbLine
 10
61.97361999434838
 20
7.222120809889702
 30
0.0
 11
59.24574093594941
 21
9.949999868288671
 31
0.0
  0
LINE
  5
2FB7
330
2F7A
100
AcDbEntity
  8
0
 62
     0
100
AcDbLine
 10
48.39221216833715
 20
19.90550302379392
 30
0.0
 11
46.15887201019774
 21
22.13884318193334
 31
0.0
  0
LINE
  5
2FB8
330
2F7A
100
AcDbEntity
  8
0
 62
     0
100
AcDbLine
 10
61.14771532384253
 20
7.149999868288603
 30
0.0
 11
55.04221216833713
 21
13.255503023794
 31
0.0
  0
LINE
  5
2FB9
330
2F7A
100
AcDbEntity
  8
0
 62
     0
100
AcDbLine
 10
48.3922121683372
 20
19.00747741168709
 30
0.0
 11
45.82710109784471
 21
21.57258848217958
 31
0.0
  0
LINE
  5
2FBA
330
2F7A
100
AcDbEntity
  8
0
 62
     0
100
AcDbLine
 10
60.24968971173564
 20
7.149999868288603
 30
0.0
 11
55.04221216833719
 21
12.35747741168711
 31
0.0
  0
LINE
  5
2FBB
330
2F7A
100
AcDbEntity
  8
0
 62
     0
100
AcDbLine
 10
48.59875644944094
 20
17.90290751847641
 30
0.0
 11
45.6249225784806
 21
20.87674138943668
 31
0.0
  0
LINE
  5
2FBC
330
2F7A
100
AcDbEntity
  8
0
 62
     0
100
AcDbLine
 10
59.35166409962874
 20
7.149999868288603
 30
0.0
 11
55.04221216833713
 21
11.45945179958022
 31
0.0
  0
LINE
  5
2FBD
330
2F7A
100
AcDbEntity
  8
0
 62
     0
100
AcDbLine
 10
52.81581587102846
 20
12.78782248478194
 30
0.0
 11
45.59221216833708
 21
20.01142618747326
 31
0.0
  0
LINE
  5
2FBE
330
2F7A
100
AcDbEntity
  8
0
 62
     0
100
AcDbLine
 10
43.492212168337
 20
22.11142618747334
 30
0.0
 11
42.35363848752172
 21
23.24999986828868
 31
0.0
  0
LINE
  5
2FBF
330
2F7A
100
AcDbEntity
  8
0
 62
     0
100
AcDbLine
 10
58.4536384875218
 20
7.149999868288603
 30
0.0
 11
55.04221216833713
 21
10.56142618747327
 31
0.0
  0
LINE
  5
2FC0
330
2F7A
100
AcDbEntity
  8
0
 62
     0
100
AcDbLine
 10
52.94221216833716
 20
11.7634005753664
 30
0.0
 11
45.59221216833714
 21
19.11340057536642
 31
0.0
  0
LINE
  5
2FC1
330
2F7A
100
AcDbEntity
  8
0
 62
     0
100
AcDbLine
 10
43.49221216833711
 20
21.21340057536639
 30
0.0
 11
41.45561287541477
 21
23.24999986828879
 31
0.0
  0
LINE
  5
2FC2
330
2F7A
100
AcDbEntity
  8
0
 62
     0
100
AcDbLine
 10
57.53916499667003
 20
7.166447747033544
 30
0.0
 11
55.05866004708201
 21
9.646952696621553
 31
0.0
  0
LINE
  5
2FC3
330
2F7A
100
AcDbEntity
  8
0
 62
     0
100
AcDbLine
 10
43.49221216833711
 20
20.3153749632595
 30
0.0
 11
40.7848222805618
 21
23.02276485103476
 31
0.0
  0
LINE
  5
2FC4
330
2F7A
100
AcDbEntity
  8
0
 62
     0
100
AcDbLine
 10
52.94221216833711
 20
10.86537496325945
 30
0.0
 11
45.61562283621947
 21
18.19196429537714
 31
0.0
  0
LINE
  5
2FC5
330
2F7A
100
AcDbEntity
  8
0
 62
     0
100
AcDbLine
 10
43.49221216833711
 20
19.41734935115255
 30
0.0
 11
40.6922121683371
 21
22.2173493511525
 31
0.0
  0
LINE
  5
2FC6
330
2F7A
100
AcDbEntity
  8
0
 62
     0
100
AcDbLine
 10
52.94221216833699
 20
9.96734935115262
 30
0.0
 11
45.93374225405949
 21
16.97581926543017
 31
0.0
  0
LINE
  5
2FC7
330
2F7A
100
AcDbEntity
  8
0
 62
     0
100
AcDbLine
 10
43.49221216833711
 20
18.51932373904566
 30
0.0
 11
40.69221216833716
 21
21.31932373904561
 31
0.0
  0
LINE
  5
2FC8
330
2F7A
100
AcDbEntity
  8
0
 62
     0
100
AcDbLine
 10
52.83365035074803
 20
9.177885556634748
 30
0.0
 11
50.13801556170972
 21
11.87352034567305
 31
0.0
  0
LINE
  5
2FC9
330
2F7A
100
AcDbEntity
  8
0
 62
     0
100
AcDbLine
 10
43.49221216833711
 20
17.62129812693876
 30
0.0
 11
40.6922121683371
 21
20.42129812693872
 31
0.0
  0
LINE
  5
2FCA
330
2F7A
100
AcDbEntity
  8
0
 62
     0
100
AcDbLine
 10
38.40072526776009
 20
22.71278502751573
 30
0.0
 11
37.86351042698709
 21
23.24999986828879
 31
0.0
  0
LINE
  5
2FCB
330
2F7A
100
AcDbEntity
  8
0
 62
     0
100
AcDbLine
 10
52.56577464298647
 20
8.547735652289418
 30
0.0
 11
50.14221216833715
 21
10.97129812693873
 31
0.0
  0
LINE
  5
2FCC
330
2F7A
100
AcDbEntity
  8
0
 62
     0
100
AcDbLine
 10
43.49221216833706
 20
16.72327251483181
 30
0.0
 11
40.6922121683371
 21
19.52327251483183
 31
0.0
  0
LINE
  5
2FCD
330
2F7A
100
AcDbEntity
  8
0
 62
     0
100
AcDbLine
 10
38.20179760350749
 20
22.01368707966139
 30
0.0
 11
36.9654848148802
 21
23.24999986828874
 31
0.0
  0
LINE
  5
2FCE
330
2F7A
100
AcDbEntity
  8
0
 62
     0
100
AcDbLine
 10
52.18278784481118
 20
8.032696838357765
 30
0.0
 11
50.04492698545067
 21
10.17055769771826
 31
0.0
  0
LINE
  5
2FCF
330
2F7A
100
AcDbEntity
  8
0
 62
     0
100
AcDbLine
 10
43.49221216833706
 20
15.82524690272492
 30
0.0
 11
40.6922121683371
 21
18.62524690272488
 31
0.0
  0
LINE
  5
2FD0
330
2F7A
100
AcDbEntity
  8
0
 62
     0
100
AcDbLine
 10
37.9862714566018
 20
21.33118761446013
 30
0.0
 11
36.07705589313122
 21
23.24040317793077
 31
0.0
  0
LINE
  5
2FD1
330
2F7A
100
AcDbEntity
  8
0
 62
     0
100
AcDbLine
 10
51.69646887969554
 20
7.620990191366388
 30
0.0
 11
49.36745920277331
 21
9.949999868288671
 31
0.0
  0
LINE
  5
2FD2
330
2F7A
100
AcDbEntity
  8
0
 62
     0
100
AcDbLine
 10
43.49221216833711
 20
14.92722129061803
 30
0.0
 11
40.6922121683371
 21
17.72722129061799
 31
0.0
  0
LINE
  5
2FD3
330
2F7A
100
AcDbEntity
  8
0
 62
     0
100
AcDbLine
 10
37.77074530969628
 20
20.64868814925887
 30
0.0
 11
35.64274530969623
 21
22.77668814925891
 31
0.0
  0
LINE
  5
2FD4
330
2F7A
100
AcDbEntity
  8
0
 62
     0
100
AcDbLine
 10
51.10038493123517
 20
7.319048527719928
 30
0.0
 11
48.46943359066642
 21
9.949999868288728
 31
0.0
  0
LINE
  5
2FD5
330
2F7A
100
AcDbEntity
  8
0
 62
     0
100
AcDbLine
 10
43.49221216833706
 20
14.02919567851114
 30
0.0
 11
40.6922121683371
 21
16.8291956785111
 31
0.0
  0
LINE
  5
2FD6
330
2F7A
100
AcDbEntity
  8
0
 62
     0
100
AcDbLine
 10
37.55521916279042
 20
19.96618868405778
 30
0.0
 11
35.42721916279043
 21
22.09418868405776
 31
0.0
  0
LINE
  5
2FD7
330
2F7A
100
AcDbEntity
  8
0
 62
     0
100
AcDbLine
 10
50.3627122795877
 20
7.158695567260508
 30
0.0
 11
47.57140797855953
 21
9.949999868288671
 31
0.0
  0
LINE
  5
2FD8
330
2F7A
100
AcDbEntity
  8
0
 62
     0
100
AcDbLine
 10
43.49221216833706
 20
13.13117006640419
 30
0.0
 11
40.69221216833705
 21
15.93117006640414
 31
0.0
  0
LINE
  5
2FD9
330
2F7A
100
AcDbEntity
  8
0
 62
     0
100
AcDbLine
 10
37.33969301588484
 20
19.2836892188564
 30
0.0
 11
35.21169301588475
 21
21.41168921885645
 31
0.0
  0
LINE
  5
2FDA
330
2F7A
100
AcDbEntity
  8
0
 62
     0
100
AcDbLine
 10
49.47338236645265
 20
7.149999868288603
 30
0.0
 11
46.67338236645258
 21
9.949999868288671
 31
0.0
  0
LINE
  5
2FDB
330
2F7A
100
AcDbEntity
  8
0
 62
     0
100
AcDbLine
 10
43.49221216833706
 20
12.2331444542973
 30
0.0
 11
40.6922121683371
 21
15.03314445429731
 31
0.0
  0
LINE
  5
2FDC
330
2F7A
100
AcDbEntity
  8
0
 62
     0
100
AcDbLine
 10
37.12416686897927
 20
18.60118975365514
 30
0.0
 11
34.99616686897911
 21
20.72918975365524
 31
0.0
  0
LINE
  5
2FDD
330
2F7A
100
AcDbEntity
  8
0
 62
     0
100
AcDbLine
 10
48.57535675434576
 20
7.149999868288659
 30
0.0
 11
46.14174505704937
 21
9.583611565585044
 31
0.0
  0
LINE
  5
2FDE
330
2F7A
100
AcDbEntity
  8
0
 62
     0
100
AcDbLine
 10
36.90864072207352
 20
17.91869028845394
 30
0.0
 11
34.78064072207348
 21
20.04669028845398
 31
0.0
  0
LINE
  5
2FDF
330
2F7A
100
AcDbEntity
  8
0
 62
     0
100
AcDbLine
 10
43.49221216833706
 20
11.33511884219041
 30
0.0
 11
40.6922121683371
 21
14.13511884219036
 31
0.0
  0
LINE
  5
2FE0
330
2F7A
100
AcDbEntity
  8
0
 62
     0
100
AcDbLine
 10
32.64221216833709
 20
22.18511884219037
 30
0.0
 11
31.57733114223879
 21
23.24999986828862
 31
0.0
  0
LINE
  5
2FE1
330
2F7A
100
AcDbEntity
  8
0
 62
     0
100
AcDbLine
 10
47.67733114223887
 20
7.149999868288603
 30
0.0
 11
46.11721216833712
 21
8.710118842190354
 31
0.0
  0
LINE
  5
2FE2
330
2F7A
100
AcDbEntity
  8
0
 62
     0
100
AcDbLine
 10
36.69311457516784
 20
17.23619082325268
 30
0.0
 11
34.56511457516785
 21
19.36419082325267
 31
0.0
  0
LINE
  5
2FE3
330
2F7A
100
AcDbEntity
  8
0
 62
     0
100
AcDbLine
 10
43.49221216833706
 20
10.43709323008346
 30
0.0
 11
40.69221216833705
 21
13.23709323008347
 31
0.0
  0
LINE
  5
2FE4
330
2F7A
100
AcDbEntity
  8
0
 62
     0
100
AcDbLine
 10
32.64221216833709
 20
21.28709323008342
 30
0.0
 11
30.67930553013189
 21
23.24999986828862
 31
0.0
  0
LINE
  5
2FE5
330
2F7A
100
AcDbEntity
  8
0
 62
     0
100
AcDbLine
 10
46.77930553013186
 20
7.149999868288659
 30
0.0
 11
46.11721216833706
 21
7.812093230083405
 31
0.0
  0
LINE
  5
2FE6
330
2F7A
100
AcDbEntity
  8
0
 62
     0
100
AcDbLine
 10
36.47758842826215
 20
16.55369135805142
 30
0.0
 11
34.34958842826211
 21
18.68169135805146
 31
0.0
  0
LINE
  5
2FE7
330
2F7A
100
AcDbEntity
  8
0
 62
     0
100
AcDbLine
 10
32.64221216833703
 20
20.38906761797647
 30
0.0
 11
29.96676723943943
 21
23.06451254687414
 31
0.0
  0
LINE
  5
2FE8
330
2F7A
100
AcDbEntity
  8
0
 62
     0
100
AcDbLine
 10
43.492212168337
 20
9.53906761797657
 30
0.0
 11
40.69221216833705
 21
12.33906761797652
 31
0.0
  0
LINE
  5
2FE9
330
2F7A
100
AcDbEntity
  8
0
 62
     0
100
AcDbLine
 10
36.26206228135652
 20
15.87119189285022
 30
0.0
 11
34.13406228135653
 21
17.9991918928502
 31
0.0
  0
LINE
  5
2FEA
330
2F7A
100
AcDbEntity
  8
0
 62
     0
100
AcDbLine
 10
32.64221216833709
 20
19.49104200586964
 30
0.0
 11
29.84221216833702
 21
22.29104200586965
 31
0.0
  0
LINE
  5
2FEB
330
2F7A
100
AcDbEntity
  8
0
 62
     0
100
AcDbLine
 10
43.49221216833706
 20
8.641042005869678
 30
0.0
 11
40.69221216833705
 21
11.44104200586963
 31
0.0
  0
LINE
  5
2FEC
330
2F7A
100
AcDbEntity
  8
0
 62
     0
100
AcDbLine
 10
36.05697377196463
 20
15.17825479013515
 30
0.0
 11
33.91853613445078
 21
17.316692427649
 31
0.0
  0
LINE
  5
2FED
330
2F7A
100
AcDbEntity
  8
0
 62
     0
100
AcDbLine
 10
32.64221216833709
 20
18.59301639376269
 30
0.0
 11
29.84221216833702
 21
21.39301639376276
 31
0.0
  0
LINE
  5
2FEE
330
2F7A
100
AcDbEntity
  8
0
 62
     0
100
AcDbLine
 10
43.492212168337
 20
7.743016393762729
 30
0.0
 11
40.69221216833705
 21
10.54301639376274
 31
0.0
  0
LINE
  5
2FEF
330
2F7A
100
AcDbEntity
  8
0
 62
     0
100
AcDbLine
 10
36.47144713139863
 20
13.8657558185942
 30
0.0
 11
33.62798863876617
 21
16.70921431122667
 31
0.0
  0
LINE
  5
2FF0
330
2F7A
100
AcDbEntity
  8
0
 62
     0
100
AcDbLine
 10
32.64221216833715
 20
17.69499078165569
 30
0.0
 11
29.84221216833697
 21
20.49499078165581
 31
0.0
  0
LINE
  5
2FF1
330
2F7A
100
AcDbEntity
  8
0
 62
     0
100
AcDbLine
 10
43.15316717100467
 20
7.184035778988118
 30
0.0
 11
40.6922121683371
 21
9.644990781655735
 31
0.0
  0
LINE
  5
2FF2
330
2F7A
100
AcDbEntity
  8
0
 62
     0
100
AcDbLine
 10
36.88592049083268
 20
12.55325684705332
 30
0.0
 11
29.84221216833702
 21
19.59696516954898
 31
0.0
  0
LINE
  5
2FF3
330
2F7A
100
AcDbEntity
  8
0
 62
     0
100
AcDbLine
 10
27.39221216833715
 20
22.04696516954885
 30
0.0
 11
26.18917746959738
 21
23.24999986828862
 31
0.0
  0
LINE
  5
2FF4
330
2F7A
100
AcDbEntity
  8
0
 62
     0
100
AcDbLine
 10
42.28917746959734
 20
7.149999868288659
 30
0.0
 11
40.69221216833716
 21
8.746965169548843
 31
0.0
  0
LINE
  5
2FF5
330
2F7A
100
AcDbEntity
  8
0
 62
     0
100
AcDbLine
 10
37.30039385026657
 20
11.24075787551243
 30
0.0
 11
29.84221216833702
 21
18.69893955744203
 31
0.0
  0
LINE
  5
2FF6
330
2F7A
100
AcDbEntity
  8
0
 62
     0
100
AcDbLine
 10
27.39221216833715
 20
21.1489395574419
 30
0.0
 11
25.29115185749037
 21
23.24999986828868
 31
0.0
  0
LINE
  5
2FF7
330
2F7A
100
AcDbEntity
  8
0
 62
     0
100
AcDbLine
 10
41.39115185749034
 20
7.149999868288716
 30
0.0
 11
40.6922121683371
 21
7.848939557441951
 31
0.0
  0
LINE
  5
2FF8
330
2F7A
100
AcDbEntity
  8
0
 62
     0
100
AcDbLine
 10
27.12530547294704
 20
20.51782064072506
 30
0.0
 11
24.42508375473562
 21
23.21804235893643
 31
0.0
  0
LINE
  5
2FF9
330
2F7A
100
AcDbEntity
  8
0
 62
     0
100
AcDbLine
 10
37.71486720970051
 20
9.928258903971595
 30
0.0
 11
29.84221216833708
 21
17.80091394533502
 31
0.0
  0
LINE
  5
2FFA
330
2F7A
100
AcDbEntity
  8
0
 62
     0
100
AcDbLine
 10
32.9797210906787
 20
13.76537941088651
 30
0.0
 11
29.84221216833708
 21
16.90288833322813
 31
0.0
  0
LINE
  5
2FFB
330
2F7A
100
AcDbEntity
  8
0
 62
     0
100
AcDbLine
 10
26.2951006332766
 20
20.44999986828855
 30
0.0
 11
23.68704068514836
 21
23.05805981641686
 31
0.0
  0
LINE
  5
2FFC
330
2F7A
100
AcDbEntity
  8
0
 62
     0
100
AcDbLine
 10
38.12934056913451
 20
8.615759932430705
 30
0.0
 11
34.03703287682663
 21
12.70806762473853
 31
0.0
  0
LINE
  5
2FFD
330
2F7A
100
AcDbEntity
  8
0
 62
     0
100
AcDbLine
 10
32.64221216833715
 20
13.20486272112117
 30
0.0
 11
29.84221216833708
 21
16.00486272112124
 31
0.0
  0
LINE
  5
2FFE
330
2F7A
100
AcDbEntity
  8
0
 62
     0
100
AcDbLine
 10
25.39707502116959
 20
20.44999986828867
 30
0.0
 11
23.04831926931762
 21
22.79875562014063
 31
0.0
  0
LINE
  5
2FFF
330
2F7A
100
AcDbEntity
  8
0
 62
     0
100
AcDbLine
 10
38.36437942684511
 20
7.48269546261315
 30
0.0
 11
34.45150623626057
 21
11.39556865319775
 31
0.0
  0
LINE
  5
3000
330
2F7A
100
AcDbEntity
  8
0
 62
     0
100
AcDbLine
 10
32.64221216833709
 20
12.30683710901428
 30
0.0
 11
29.84221216833702
 21
15.10683710901429
 31
0.0
  0
LINE
  5
3001
330
2F7A
100
AcDbEntity
  8
0
 62
     0
100
AcDbLine
 10
24.55396151862606
 20
20.39508775872531
 30
0.0
 11
22.48957029398309
 21
22.45947898336828
 31
0.0
  0
LINE
  5
3002
330
2F7A
100
AcDbEntity
  8
0
 62
     0
100
AcDbLine
 10
37.79904940906277
 20
7.149999868288603
 30
0.0
 11
34.86597959569451
 21
10.08306968165686
 31
0.0
  0
LINE
  5
3003
330
2F7A
100
AcDbEntity
  8
0
 62
     0
100
AcDbLine
 10
32.64221216833709
 20
11.40881149690733
 30
0.0
 11
29.84221216833702
 21
14.2088114969074
 31
0.0
  0
LINE
  5
3004
330
2F7A
100
AcDbEntity
  8
0
 62
     0
100
AcDbLine
 10
23.98210532578707
 20
20.06891833945735
 30
0.0
 11
22.0019150853713
 21
22.04910857987312
 31
0.0
  0
LINE
  5
3005
330
2F7A
100
AcDbEntity
  8
0
 62
     0
100
AcDbLine
 10
36.90102379695582
 20
7.149999868288603
 30
0.0
 11
35.28045295512856
 21
8.770570710115862
 31
0.0
  0
LINE
  5
3006
330
2F7A
100
AcDbEntity
  8
0
 62
     0
100
AcDbLine
 10
27.72764130113483
 20
15.42535675200275
 30
0.0
 11
26.21756905205109
 21
16.9354290010865
 31
0.0
  0
LINE
  5
3007
330
2F7A
100
AcDbEntity
  8
0
 62
     0
100
AcDbLine
 10
32.64221216833721
 20
10.51078588480038
 30
0.0
 11
29.84221216833708
 21
13.31078588480051
 31
0.0
  0
LINE
  5
3008
330
2F7A
100
AcDbEntity
  8
0
 62
     0
100
AcDbLine
 10
23.62598375565812
 20
19.52701429747946
 30
0.0
 11
21.58254905936007
 21
21.57044899377751
 31
0.0
  0
LINE
  5
3009
330
2F7A
100
AcDbEntity
  8
0
 62
     0
100
AcDbLine
 10
35.95266518064431
 20
7.200332872493277
 30
0.0
 11
35.702311009053
 21
7.450687044084588
 31
0.0
  0
LINE
  5
300A
330
2F7A
100
AcDbEntity
  8
0
 62
     0
100
AcDbLine
 10
27.64112764099292
 20
14.61384480003772
 30
0.0
 11
25.40605710008605
 21
16.84891534094458
 31
0.0
  0
LINE
  5
300B
330
2F7A
100
AcDbEntity
  8
0
 62
     0
100
AcDbLine
 10
23.54221216833718
 20
18.71276027269345
 30
0.0
 11
21.2336100383984
 21
21.02136240263223
 31
0.0
  0
LINE
  5
300C
330
2F7A
100
AcDbEntity
  8
0
 62
     0
100
AcDbLine
 10
32.64221216833715
 20
9.612760272693435
 30
0.0
 11
29.84221216833702
 21
12.41276027269361
 31
0.0
  0
LINE
  5
300D
330
2F7A
100
AcDbEntity
  8
0
 62
     0
100
AcDbLine
 10
27.30927208169487
 20
14.04767474722876
 30
0.0
 11
24.8398870472771
 21
16.51705978164653
 31
0.0
  0
LINE
  5
300E
330
2F7A
100
AcDbEntity
  8
0
 62
     0
100
AcDbLine
 10
23.54221216833718
 20
17.81473466058651
 30
0.0
 11
20.96303033118823
 21
20.39391649773546
 31
0.0
  0
LINE
  5
300F
330
2F7A
100
AcDbEntity
  8
0
 62
     0
100
AcDbLine
 10
32.64221216833715
 20
8.714734660586543
 30
0.0
 11
29.84221216833708
 21
11.51473466058661
 31
0.0
  0
LINE
  5
3010
330
2F7A
100
AcDbEntity
  8
0
 62
     0
100
AcDbLine
 10
23.54221216833718
 20
16.91670904847961
 30
0.0
 11
20.78831645826238
 21
19.67060475855447
 31
0.0
  0
LINE
  5
3011
330
2F7A
100
AcDbEntity
  8
0
 62
     0
100
AcDbLine
 10
26.80743863955842
 20
13.65148257725843
 30
0.0
 11
24.44369487730677
 21
16.01522633951009
 31
0.0
  0
LINE
  5
3012
330
2F7A
100
AcDbEntity
  8
0
 62
     0
100
AcDbLine
 10
18.11721216833712
 20
22.34170904847974
 30
0.0
 11
17.20892134852812
 21
23.24999986828874
 31
0.0
  0
LINE
  5
3013
330
2F7A
100
AcDbEntity
  8
0
 62
     0
100
AcDbLine
 10
32.64221216833721
 20
7.816709048479651
 30
0.0
 11
29.84221216833714
 21
10.61670904847971
 31
0.0
  0
LINE
  5
3014
330
2F7A
100
AcDbEntity
  8
0
 62
     0
100
AcDbLine
 10
23.54221216833718
 20
16.01868343637272
 30
0.0
 11
20.74221216833711
 21
18.81868343637279
 31
0.0
  0
LINE
  5
3015
330
2F7A
100
AcDbEntity
  8
0
 62
     0
100
AcDbLine
 10
26.107119197131
 20
13.45377640757891
 30
0.0
 11
24.24598870762725
 21
15.31490689708266
 31
0.0
  0
LINE
  5
3016
330
2F7A
100
AcDbEntity
  8
0
 62
     0
100
AcDbLine
 10
18.11721216833706
 20
21.44368343637279
 30
0.0
 11
16.31089573642117
 21
23.24999986828868
 31
0.0
  0
LINE
  5
3017
330
2F7A
100
AcDbEntity
  8
0
 62
     0
100
AcDbLine
 10
32.35430836706649
 20
7.206587237643418
 30
0.0
 11
29.84221216833708
 21
9.718683436372771
 31
0.0
  0
LINE
  5
3018
330
2F7A
100
AcDbEntity
  8
0
 62
     0
100
AcDbLine
 10
23.54221216833718
 20
15.12065782426577
 30
0.0
 11
20.74221216833711
 21
17.92065782426584
 31
0.0
  0
LINE
  5
3019
330
2F7A
100
AcDbEntity
  8
0
 62
     0
100
AcDbLine
 10
18.00817819806673
 20
20.65469179453623
 30
0.0
 11
15.41287012431416
 21
23.24999986828874
 31
0.0
  0
LINE
  5
301A
330
2F7A
100
AcDbEntity
  8
0
 62
     0
100
AcDbLine
 10
31.5128701243143
 20
7.149999868288659
 30
0.0
 11
29.84221216833708
 21
8.820657824265879
 31
0.0
  0
LINE
  5
301B
330
2F7A
100
AcDbEntity
  8
0
 62
     0
100
AcDbLine
 10
23.54221216833713
 20
14.22263221215888
 30
0.0
 11
20.74221216833706
 21
17.02263221215889
 31
0.0
  0
LINE
  5
301C
330
2F7A
100
AcDbEntity
  8
0
 62
     0
100
AcDbLine
 10
17.31484451220734
 20
20.44999986828867
 30
0.0
 11
14.51484451220727
 21
23.24999986828874
 31
0.0
  0
LINE
  5
301D
330
2F7A
100
AcDbEntity
  8
0
 62
     0
100
AcDbLine
 10
30.61484451220735
 20
7.149999868288603
 30
0.0
 11
29.84221216833708
 21
7.92263221215893
 31
0.0
  0
LINE
  5
301E
330
2F7A
100
AcDbEntity
  8
0
 62
     0
100
AcDbLine
 10
23.54221216833724
 20
13.32460660005193
 30
0.0
 11
20.74221216833711
 21
16.12460660005206
 31
0.0
  0
LINE
  5
301F
330
2F7A
100
AcDbEntity
  8
0
 62
     0
100
AcDbLine
 10
16.41681890010045
 20
20.44999986828873
 30
0.0
 11
13.6516896279956
 21
23.21512914039357
 31
0.0
  0
LINE
  5
3020
330
2F7A
100
AcDbEntity
  8
0
 62
     0
100
AcDbLine
 10
27.38960971950018
 20
9.477209048888937
 30
0.0
 11
26.91942134893747
 21
9.947397419451704
 31
0.0
  0
LINE
  5
3021
330
2F7A
100
AcDbEntity
  8
0
 62
     0
100
AcDbLine
 10
23.54221216833724
 20
12.42658098794498
 30
0.0
 11
20.74221216833711
 21
15.22658098794511
 31
0.0
  0
LINE
  5
3022
330
2F7A
100
AcDbEntity
  8
0
 62
     0
100
AcDbLine
 10
15.5187932879935
 20
20.44999986828867
 30
0.0
 11
12.95855481951713
 21
23.01023833676509
 31
0.0
  0
LINE
  5
3023
330
2F7A
100
AcDbEntity
  8
0
 62
     0
100
AcDbLine
 10
27.39221216833721
 20
8.576580987945021
 30
0.0
 11
26.01879328799356
 21
9.949999868288671
 31
0.0
  0
LINE
  5
3024
330
2F7A
100
AcDbEntity
  8
0
 62
     0
100
AcDbLine
 10
23.54221216833718
 20
11.52855537583803
 30
0.0
 11
20.74221216833717
 21
14.3285553758381
 31
0.0
  0
LINE
  5
3025
330
2F7A
100
AcDbEntity
  8
0
 62
     0
100
AcDbLine
 10
14.62076767588667
 20
20.44999986828855
 30
0.0
 11
12.39430815966989
 21
22.67645938450533
 31
0.0
  0
LINE
  5
3026
330
2F7A
100
AcDbEntity
  8
0
 62
     0
100
AcDbLine
 10
27.39221216833715
 20
7.678555375838072
 30
0.0
 11
25.12076767588666
 21
9.949999868288557
 31
0.0
  0
LINE
  5
3027
330
2F7A
100
AcDbEntity
  8
0
 62
     0
100
AcDbLine
 10
14.11047484827207
 20
20.06226708379637
 30
0.0
 11
11.93621534742914
 21
22.2365265846393
 31
0.0
  0
LINE
  5
3028
330
2F7A
100
AcDbEntity
  8
0
 62
     0
100
AcDbLine
 10
27.00447938384479
 20
7.168262548223651
 30
0.0
 11
20.74221216833717
 21
13.43052976373127
 31
0.0
  0
LINE
  5
3029
330
2F7A
100
AcDbEntity
  8
0
 62
     0
100
AcDbLine
 10
14.09221216833714
 20
19.18250415162435
 30
0.0
 11
11.58273414496005
 21
21.69198217500144
 31
0.0
  0
LINE
  5
302A
330
2F7A
100
AcDbEntity
  8
0
 62
     0
100
AcDbLine
 10
26.12471645167289
 20
7.149999868288603
 30
0.0
 11
20.74221216833717
 21
12.53250415162432
 31
0.0
  0
LINE
  5
302B
330
2F7A
100
AcDbEntity
  8
0
 62
     0
100
AcDbLine
 10
14.15434787647257
 20
18.22234283138192
 30
0.0
 11
11.35185404266633
 21
21.02483666518821
 31
0.0
  0
LINE
  5
302C
330
2F7A
100
AcDbEntity
  8
0
 62
     0
100
AcDbLine
 10
25.22669083956589
 20
7.149999868288659
 30
0.0
 11
20.74221216833711
 21
11.63447853951737
 31
0.0
  0
LINE
  5
302D
330
2F7A
100
AcDbEntity
  8
0
 62
     0
100
AcDbLine
 10
18.4465882595598
 20
13.03207683618785
 30
0.0
 11
11.29221216833718
 21
20.18645292741047
 31
0.0
  0
LINE
  5
302E
330
2F7A
100
AcDbEntity
  8
0
 62
     0
100
AcDbLine
 10
24.27539314040234
 20
7.203271955345314
 30
0.0
 11
20.79548425539377
 21
10.68318084035388
 31
0.0
  0
LINE
  5
302F
330
2F7A
100
AcDbEntity
  8
0
 62
     0
100
AcDbLine
 10
18.63848277364502
 20
11.94215670999574
 30
0.0
 11
11.29221216833707
 21
19.28842731530369
 31
0.0
  0
LINE
  5
3030
330
2F7A
100
AcDbEntity
  8
0
 62
     0
100
AcDbLine
 10
22.90158522780075
 20
7.679054255839957
 30
0.0
 11
21.27126655588836
 21
9.309372927752406
 31
0.0
  0
LINE
  5
3031
330
2F7A
100
AcDbEntity
  8
0
 62
     0
100
AcDbLine
 10
18.64221216833721
 20
11.0404017031966
 30
0.0
 11
11.29977661575946
 21
18.38283725577429
 31
0.0
  0
LINE
  5
3032
330
2F7A
100
AcDbEntity
  8
0
 62
     0
100
AcDbLine
 10
18.64221216833709
 20
10.14237609108977
 30
0.0
 11
11.52306737408332
 21
17.26152088534348
 31
0.0
  0
LINE
  5
3033
330
2F7A
100
AcDbEntity
  8
0
 62
     0
100
AcDbLine
 10
18.56969217220518
 20
9.316870475114853
 30
0.0
 11
15.80630052858612
 21
12.08026211873391
 31
0.0
  0
LINE
  5
3034
330
2F7A
100
AcDbEntity
  8
0
 62
     0
100
AcDbLine
 10
18.32775423317633
 20
8.660782802036749
 30
0.0
 11
15.84221216833708
 21
11.146324866876
 31
0.0
  0
LINE
  5
3035
330
2F7A
100
AcDbEntity
  8
0
 62
     0
100
AcDbLine
 10
17.96563498579456
 20
8.12487643731157
 30
0.0
 11
15.8063131360364
 21
10.28419828706972
 31
0.0
  0
LINE
  5
3036
330
2F7A
100
AcDbEntity
  8
0
 62
     0
100
AcDbLine
 10
17.49940861352769
 20
7.693077197471552
 30
0.0
 11
15.24248594271057
 21
9.949999868288728
 31
0.0
  0
LINE
  5
3037
330
2F7A
100
AcDbEntity
  8
0
 62
     0
100
AcDbLine
 10
16.92614416579488
 20
7.368316033097471
 30
0.0
 11
14.34446033060362
 21
9.949999868288671
 31
0.0
  0
LINE
  5
3038
330
2F7A
100
AcDbEntity
  8
0
 62
     0
100
AcDbLine
 10
16.22073157670894
 20
7.17570301007646
 30
0.0
 11
13.44643471849673
 21
9.949999868288671
 31
0.0
  0
LINE
  5
3039
330
2F7A
100
AcDbEntity
  8
0
 62
     0
100
AcDbLine
 10
15.34840910638979
 20
7.149999868288659
 30
0.0
 11
12.54840910638978
 21
9.949999868288671
 31
0.0
  0
LINE
  5
303A
330
2F7A
100
AcDbEntity
  8
0
 62
     0
100
AcDbLine
 10
14.45038349428296
 20
7.149999868288603
 30
0.0
 11
11.89705959946508
 21
9.703323763106538
 31
0.0
  0
LINE
  5
303B
330
2F7A
100
AcDbEntity
  8
0
 62
     0
100
AcDbLine
 10
13.55235788217595
 20
7.149999868288659
 30
0.0
 11
11.81721216833716
 21
8.885145582127449
 31
0.0
  0
LINE
  5
303C
330
2F7A
100
AcDbEntity
  8
0
 62
     0
100
AcDbLine
 10
12.65433227006911
 20
7.149999868288603
 30
0.0
 11
11.81721216833716
 21
7.987119970020557
 31
0.0
  0
LINE
  5
303D
330
2F7A
100
AcDbEntity
  8
0
 62
     0
100
AcDbLine
 10
68.63389945300406
 20
7.163131645406167
 30
0.0
 11
69.02908039121985
 21
7.558312583621955
 31
0.0
  0
LINE
  5
303E
330
2F7A
100
AcDbEntity
  8
0
 62
     0
100
AcDbLine
 10
67.72274206377961
 20
7.149999868288546
 30
0.0
 11
69.0422121683373
 21
8.469469972846241
 31
0.0
  0
LINE
  5
303F
330
2F7A
100
AcDbEntity
  8
0
 62
     0
100
AcDbLine
 10
66.82471645167272
 20
7.149999868288546
 30
0.0
 11
69.0422121683373
 21
9.367495584953132
 31
0.0
  0
LINE
  5
3040
330
2F7A
100
AcDbEntity
  8
0
 62
     0
100
AcDbLine
 10
66.27340973158897
 20
7.49671876031175
 30
0.0
 11
69.04221216833724
 21
10.26552119706008
 31
0.0
  0
LINE
  5
3041
330
2F7A
100
AcDbEntity
  8
0
 62
     0
100
AcDbLine
 10
66.24221216833717
 20
8.363546809166905
 30
0.0
 11
69.04221216833724
 21
11.16354680916691
 31
0.0
  0
LINE
  5
3042
330
2F7A
100
AcDbEntity
  8
0
 62
     0
100
AcDbLine
 10
66.24221216833723
 20
9.261572421273797
 30
0.0
 11
69.04221216833724
 21
12.06157242127386
 31
0.0
  0
LINE
  5
3043
330
2F7A
100
AcDbEntity
  8
0
 62
     0
100
AcDbLine
 10
66.24221216833717
 20
10.15959803338074
 30
0.0
 11
69.04221216833724
 21
12.95959803338081
 31
0.0
  0
LINE
  5
3044
330
2F7A
100
AcDbEntity
  8
0
 62
     0
100
AcDbLine
 10
66.24221216833717
 20
11.05762364548763
 30
0.0
 11
69.04221216833724
 21
13.8576236454877
 31
0.0
  0
LINE
  5
3045
330
2F7A
100
AcDbEntity
  8
0
 62
     0
100
AcDbLine
 10
62.66877703040245
 20
7.484188507552914
 30
0.0
 11
63.80802352907301
 21
8.62343500622353
 31
0.0
  0
LINE
  5
3046
330
2F7A
100
AcDbEntity
  8
0
 62
     0
100
AcDbLine
 10
66.24221216833717
 20
11.95564925759452
 30
0.0
 11
69.04221216833724
 21
14.75564925759459
 31
0.0
  0
LINE
  5
3047
330
2F7A
100
AcDbEntity
  8
0
 62
     0
100
AcDbLine
 10
61.43820886387965
 20
7.151645953137006
 30
0.0
 11
64.14056608348897
 21
9.854003172746274
 31
0.0
  0
LINE
  5
3048
330
2F7A
100
AcDbEntity
  8
0
 62
     0
100
AcDbLine
 10
66.24221216833717
 20
12.85367486970147
 30
0.0
 11
69.04221216833724
 21
15.65367486970149
 31
0.0
  0
LINE
  5
3049
330
2F7A
100
AcDbEntity
  8
0
 62
     0
100
AcDbLine
 10
60.53853716692424
 20
7.149999868288546
 30
0.0
 11
64.14221216833727
 21
10.75367486970151
 31
0.0
  0
LINE
  5
304A
330
2F7A
100
AcDbEntity
  8
0
 62
     0
100
AcDbLine
 10
66.24221216833717
 20
13.75170048180837
 30
0.0
 11
69.04221216833718
 21
16.55170048180844
 31
0.0
  0
LINE
  5
304B
330
2F7A
100
AcDbEntity
  8
0
 62
     0
100
AcDbLine
 10
59.64051155481735
 20
7.149999868288546
 30
0.0
 11
64.14221216833721
 21
11.65170048180846
 31
0.0
  0
LINE
  5
304C
330
2F7A
100
AcDbEntity
  8
0
 62
     0
100
AcDbLine
 10
66.24221216833729
 20
14.64972609391532
 30
0.0
 11
69.04221216833724
 21
17.44972609391533
 31
0.0
  0
LINE
  5
304D
330
2F7A
100
AcDbEntity
  8
0
 62
     0
100
AcDbLine
 10
58.74248594271051
 20
7.149999868288603
 30
0.0
 11
64.14221216833727
 21
12.54972609391535
 31
0.0
  0
LINE
  5
304E
330
2F7A
100
AcDbEntity
  8
0
 62
     0
100
AcDbLine
 10
61.23762096625615
 20
10.54316050394118
 30
0.0
 11
64.14221216833727
 21
13.44775170602224
 31
0.0
  0
LINE
  5
304F
330
2F7A
100
AcDbEntity
  8
0
 62
     0
100
AcDbLine
 10
66.24221216833723
 20
15.54775170602226
 30
0.0
 11
69.04221216833724
 21
18.34775170602222
 31
0.0
  0
LINE
  5
3050
330
2F7A
100
AcDbEntity
  8
0
 62
     0
100
AcDbLine
 10
57.84446033060351
 20
7.149999868288546
 30
0.0
 11
60.74905153268463
 21
10.05459107036961
 31
0.0
  0
LINE
  5
3051
330
2F7A
100
AcDbEntity
  8
0
 62
     0
100
AcDbLine
 10
61.34221216833714
 20
11.54577731812912
 30
0.0
 11
64.14221216833721
 21
14.34577731812919
 31
0.0
  0
LINE
  5
3052
330
2F7A
100
AcDbEntity
  8
0
 62
     0
100
AcDbLine
 10
66.24221216833723
 20
16.44577731812915
 30
0.0
 11
69.04221216833718
 21
19.24577731812917
 31
0.0
  0
LINE
  5
3053
330
2F7A
100
AcDbEntity
  8
0
 62
     0
100
AcDbLine
 10
57.05838446987383
 20
7.261949619665756
 30
0.0
 11
59.74643471849669
 21
9.949999868288614
 31
0.0
  0
LINE
  5
3054
330
2F7A
100
AcDbEntity
  8
0
 62
     0
100
AcDbLine
 10
61.3422121683372
 20
12.44380293023613
 30
0.0
 11
64.14221216833721
 21
15.24380293023608
 31
0.0
  0
LINE
  5
3055
330
2F7A
100
AcDbEntity
  8
0
 62
     0
100
AcDbLine
 10
66.24221216833717
 20
17.3438029302361
 30
0.0
 11
69.04221216833718
 21
20.14380293023606
 31
0.0
  0
LINE
  5
3056
330
2F7A
100
AcDbEntity
  8
0
 62
     0
100
AcDbLine
 10
56.43039760266367
 20
7.531988364562607
 30
0.0
 11
58.84928689203412
 21
9.950877653933048
 31
0.0
  0
LINE
  5
3057
330
2F7A
100
AcDbEntity
  8
0
 62
     0
100
AcDbLine
 10
61.34221216833726
 20
13.34182854234302
 30
0.0
 11
64.14221216833721
 21
16.14182854234297
 31
0.0
  0
LINE
  5
3058
330
2F7A
100
AcDbEntity
  8
0
 62
     0
100
AcDbLine
 10
66.24221216833723
 20
18.241828542343
 30
0.0
 11
69.04221216833718
 21
21.04182854234295
 31
0.0
  0
LINE
  5
3059
330
2F7A
100
AcDbEntity
  8
0
 62
     0
100
AcDbLine
 10
55.91713772129861
 20
7.916754095304327
 30
0.0
 11
58.20580830332142
 21
10.20542467732718
 31
0.0
  0
LINE
  5
305A
330
2F7A
100
AcDbEntity
  8
0
 62
     0
100
AcDbLine
 10
61.34221216833726
 20
14.23985415444991
 30
0.0
 11
64.14221216833721
 21
17.03985415444992
 31
0.0
  0
LINE
  5
305B
330
2F7A
100
AcDbEntity
  8
0
 62
     0
100
AcDbLine
 10
66.24221216833723
 20
19.13985415444989
 30
0.0
 11
69.04221216833718
 21
21.9398541544499
 31
0.0
  0
LINE
  5
305C
330
2F7A
100
AcDbEntity
  8
0
 62
     0
100
AcDbLine
 10
55.50717354607349
 20
8.404815532186148
 30
0.0
 11
57.868570024912
 21
10.76621201102472
 31
0.0
  0
LINE
  5
305D
330
2F7A
100
AcDbEntity
  8
0
 62
     0
100
AcDbLine
 10
61.3422121683372
 20
15.13787976655686
 30
0.0
 11
64.14221216833727
 21
17.93787976655693
 31
0.0
  0
LINE
  5
305E
330
2F7A
100
AcDbEntity
  8
0
 62
     0
100
AcDbLine
 10
66.24221216833717
 20
20.03787976655684
 30
0.0
 11
69.03206301478673
 21
22.82773061300639
 31
0.0
  0
LINE
  5
305F
330
2F7A
100
AcDbEntity
  8
0
 62
     0
100
AcDbLine
 10
55.20724866763948
 20
9.002916265859141
 30
0.0
 11
57.8422121683372
 21
11.6378797665568
 31
0.0
  0
LINE
  5
3060
330
2F7A
100
AcDbEntity
  8
0
 62
     0
100
AcDbLine
 10
61.34221216833726
 20
16.03590537866369
 30
0.0
 11
64.14221216833732
 21
18.83590537866376
 31
0.0
  0
LINE
  5
3061
330
2F7A
100
AcDbEntity
  8
0
 62
     0
100
AcDbLine
 10
66.24221216833729
 20
20.93590537866379
 30
0.0
 11
68.55494866970724
 21
23.24864188003374
 31
0.0
  0
LINE
  5
3062
330
2F7A
100
AcDbEntity
  8
0
 62
     0
100
AcDbLine
 10
55.04983513268303
 20
9.743528343009529
 30
0.0
 11
57.8422121683372
 21
12.5359053786637
 31
0.0
  0
LINE
  5
3063
330
2F7A
100
AcDbEntity
  8
0
 62
     0
100
AcDbLine
 10
61.3422121683372
 20
16.93393099077064
 30
0.0
 11
64.14221216833727
 21
19.73393099077071
 31
0.0
  0
LINE
  5
3064
330
2F7A
100
AcDbEntity
  8
0
 62
     0
100
AcDbLine
 10
66.24221216833729
 20
21.83393099077068
 30
0.0
 11
67.65828104585517
 21
23.24999986828862
 31
0.0
  0
LINE
  5
3065
330
2F7A
100
AcDbEntity
  8
0
 62
     0
100
AcDbLine
 10
55.04221216833724
 20
10.63393099077063
 30
0.0
 11
57.84221216833725
 21
13.4339309907707
 31
0.0
  0
LINE
  5
3066
330
2F7A
100
AcDbEntity
  8
0
 62
     0
100
AcDbLine
 10
61.3422121683372
 20
17.83195660287759
 30
0.0
 11
64.14221216833727
 21
20.6319566028776
 31
0.0
  0
LINE
  5
3067
330
2F7A
100
AcDbEntity
  8
0
 62
     0
100
AcDbLine
 10
55.04221216833719
 20
11.53195660287758
 30
0.0
 11
57.84221216833725
 21
14.33195660287765
 31
0.0
  0
LINE
  5
3068
330
2F7A
100
AcDbEntity
  8
0
 62
     0
100
AcDbLine
 10
66.24225888308462
 20
22.73200331762501
 30
0.0
 11
66.7602087190009
 21
23.24995315354124
 31
0.0
  0
LINE
  5
3069
330
2F7A
100
AcDbEntity
  8
0
 62
     0
100
AcDbLine
 10
50.72065653762519
 20
7.21040097216553
 30
0.0
 11
52.88181106446035
 21
9.371555499000749
 31
0.0
  0
LINE
  5
306A
330
2F7A
100
AcDbEntity
  8
0
 62
     0
100
AcDbLine
 10
55.04221216833719
 20
12.42998221498447
 30
0.0
 11
57.84221216833725
 21
15.22998221498454
 31
0.0
  0
LINE
  5
306B
330
2F7A
100
AcDbEntity
  8
0
 62
     0
100
AcDbLine
 10
61.3422121683372
 20
18.72998221498448
 30
0.0
 11
64.14221216833721
 21
21.52998221498455
 31
0.0
  0
LINE
  5
306C
330
2F7A
100
AcDbEntity
  8
0
 62
     0
100
AcDbLine
 10
49.76222982164131
 20
7.149999868288659
 30
0.0
 11
52.94221216833716
 21
10.32998221498451
 31
0.0
  0
LINE
  5
306D
330
2F7A
100
AcDbEntity
  8
0
 62
     0
100
AcDbLine
 10
55.04221216833719
 20
13.32800782709137
 30
0.0
 11
57.84221216833725
 21
16.12800782709143
 31
0.0
  0
LINE
  5
306E
330
2F7A
100
AcDbEntity
  8
0
 62
     0
100
AcDbLine
 10
61.3422121683372
 20
19.62800782709138
 30
0.0
 11
64.14221216833727
 21
22.42800782709144
 31
0.0
  0
LINE
  5
306F
330
2F7A
100
AcDbEntity
  8
0
 62
     0
100
AcDbLine
 10
48.86420420953442
 20
7.149999868288603
 30
0.0
 11
52.94221216833722
 21
11.22800782709134
 31
0.0
  0
LINE
  5
3070
330
2F7A
100
AcDbEntity
  8
0
 62
     0
100
AcDbLine
 10
55.04221216833719
 20
14.22603343919831
 30
0.0
 11
57.84221216833725
 21
17.02603343919832
 31
0.0
  0
LINE
  5
3071
330
2F7A
100
AcDbEntity
  8
0
 62
     0
100
AcDbLine
 10
61.3422121683372
 20
20.52603343919827
 30
0.0
 11
63.94847471350312
 21
23.13229598436425
 31
0.0
  0
LINE
  5
3072
330
2F7A
100
AcDbEntity
  8
0
 62
     0
100
AcDbLine
 10
47.96617859742752
 20
7.149999868288659
 30
0.0
 11
52.92789356792423
 21
12.11171483878536
 31
0.0
  0
LINE
  5
3073
330
2F7A
100
AcDbEntity
  8
0
 62
     0
100
AcDbLine
 10
55.04221216833724
 20
15.12405905130532
 30
0.0
 11
57.8422121683372
 21
17.92405905130527
 31
0.0
  0
LINE
  5
3074
330
2F7A
100
AcDbEntity
  8
0
 62
     0
100
AcDbLine
 10
61.34221216833714
 20
21.42405905130522
 30
0.0
 11
63.1681529853206
 21
23.24999986828868
 31
0.0
  0
LINE
  5
3075
330
2F7A
100
AcDbEntity
  8
0
 62
     0
100
AcDbLine
 10
47.06815298532058
 20
7.149999868288659
 30
0.0
 11
52.79298119729549
 21
12.87482808026351
 31
0.0
  0
LINE
  5
3076
330
2F7A
100
AcDbEntity
  8
0
 62
     0
100
AcDbLine
 10
55.0422121683373
 20
16.02208466341215
 30
0.0
 11
57.84221216833725
 21
18.82208466341216
 31
0.0
  0
LINE
  5
3077
330
2F7A
100
AcDbEntity
  8
0
 62
     0
100
AcDbLine
 10
50.14221216833732
 20
11.12208466341218
 30
0.0
 11
52.55239374037694
 21
13.5322662354518
 31
0.0
  0
LINE
  5
3078
330
2F7A
100
AcDbEntity
  8
0
 62
     0
100
AcDbLine
 10
61.3422121683372
 20
22.32208466341211
 30
0.0
 11
62.27012737321377
 21
23.24999986828868
 31
0.0
  0
LINE
  5
3079
330
2F7A
100
AcDbEntity
  8
0
 62
     0
100
AcDbLine
 10
46.29838272634481
 20
7.278255221419726
 30
0.0
 11
48.9701273732137
 21
9.949999868288614
 31
0.0
  0
LINE
  5
307A
330
2F7A
100
AcDbEntity
  8
0
 62
     0
100
AcDbLine
 10
50.12234159320991
 20
12.00023970039171
 30
0.0
 11
52.2288944355164
 21
14.1067925426982
 31
0.0
  0
LINE
  5
307B
330
2F7A
100
AcDbEntity
  8
0
 62
     0
100
AcDbLine
 10
55.04221216833724
 20
16.9201102755191
 30
0.0
 11
57.8422121683372
 21
19.72011027551906
 31
0.0
  0
LINE
  5
307C
330
2F7A
100
AcDbEntity
  8
0
 62
     0
100
AcDbLine
 10
46.11721216833723
 20
7.995110275519039
 30
0.0
 11
48.07210176110675
 21
9.949999868288614
 31
0.0
  0
LINE
  5
307D
330
2F7A
100
AcDbEntity
  8
0
 62
     0
100
AcDbLine
 10
49.84795675607102
 20
12.62388047535984
 30
0.0
 11
51.83302331758858
 21
14.60894703687739
 31
0.0
  0
LINE
  5
307E
330
2F7A
100
AcDbEntity
  8
0
 62
     0
100
AcDbLine
 10
55.04221216833724
 20
17.818135887626
 30
0.0
 11
57.8422121683372
 21
20.61813588762601
 31
0.0
  0
LINE
  5
307F
330
2F7A
100
AcDbEntity
  8
0
 62
     0
100
AcDbLine
 10
46.11721216833717
 20
8.893135887625987
 30
0.0
 11
47.17407614899985
 21
9.949999868288671
 31
0.0
  0
LINE
  5
3080
330
2F7A
100
AcDbEntity
  8
0
 62
     0
100
AcDbLine
 10
55.04221216833724
 20
18.71616149973289
 30
0.0
 11
57.84221216833725
 21
21.51616149973284
 31
0.0
  0
LINE
  5
3081
330
2F7A
100
AcDbEntity
  8
0
 62
     0
100
AcDbLine
 10
49.40668185895396
 20
13.08063119034954
 30
0.0
 11
51.38658084627627
 21
15.06053017767186
 31
0.0
  0
LINE
  5
3082
330
2F7A
100
AcDbEntity
  8
0
 62
     0
100
AcDbLine
 10
48.95766905290049
 20
13.52964399640302
 30
0.0
 11
50.93756804022286
 21
15.50954298372545
 31
0.0
  0
LINE
  5
3083
330
2F7A
100
AcDbEntity
  8
0
 62
     0
100
AcDbLine
 10
55.04221216833724
 20
19.61418711183983
 30
0.0
 11
57.8422121683372
 21
22.41418711183979
 31
0.0
  0
LINE
  5
3084
330
2F7A
100
AcDbEntity
  8
0
 62
     0
100
AcDbLine
 10
42.578024924786
 20
7.149999868288603
 30
0.0
 11
43.49221216833718
 21
8.064187111839714
 31
0.0
  0
LINE
  5
3085
330
2F7A
100
AcDbEntity
  8
0
 62
     0
100
AcDbLine
 10
48.50865624684701
 20
13.97865680245649
 30
0.0
 11
50.48855523416938
 21
15.95855578977892
 31
0.0
  0
LINE
  5
3086
330
2F7A
100
AcDbEntity
  8
0
 62
     0
100
AcDbLine
 10
55.04221216833719
 20
20.51221272394673
 30
0.0
 11
57.65603126023854
 21
23.12603181584802
 31
0.0
  0
LINE
  5
3087
330
2F7A
100
AcDbEntity
  8
0
 62
     0
100
AcDbLine
 10
41.67999931267906
 20
7.149999868288603
 30
0.0
 11
43.49221216833723
 21
8.96221272394672
 31
0.0
  0
LINE
  5
3088
330
2F7A
100
AcDbEntity
  8
0
 62
     0
100
AcDbLine
 10
48.05964344079353
 20
14.42766960850997
 30
0.0
 11
50.03954242811591
 21
16.4075685958324
 31
0.0
  0
LINE
  5
3089
330
2F7A
100
AcDbEntity
  8
0
 62
     0
100
AcDbLine
 10
55.04221216833719
 20
21.41023833605367
 30
0.0
 11
56.88197370057219
 21
23.24999986828868
 31
0.0
  0
LINE
  5
308A
330
2F7A
100
AcDbEntity
  8
0
 62
     0
100
AcDbLine
 10
40.89358483843414
 20
7.261611006150587
 30
0.0
 11
43.49221216833718
 21
9.860238336053669
 31
0.0
  0
LINE
  5
308B
330
2F7A
100
AcDbEntity
  8
0
 62
     0
100
AcDbLine
 10
47.61063063474011
 20
14.87668241456339
 30
0.0
 11
49.59052962206249
 21
16.85658140188581
 31
0.0
  0
LINE
  5
308C
330
2F7A
100
AcDbEntity
  8
0
 62
     0
100
AcDbLine
 10
55.0422121683373
 20
22.30826394816062
 30
0.0
 11
55.9839480884653
 21
23.24999986828862
 31
0.0
  0
LINE
  5
308D
330
2F7A
100
AcDbEntity
  8
0
 62
     0
100
AcDbLine
 10
40.69221216833722
 20
7.958263948160549
 30
0.0
 11
43.49221216833723
 21
10.7582639481605
 31
0.0
  0
LINE
  5
308E
330
2F7A
100
AcDbEntity
  8
0
 62
     0
100
AcDbLine
 10
47.16161782868664
 20
15.32569522061686
 30
0.0
 11
49.14151681600902
 21
17.30559420793929
 31
0.0
  0
LINE
  5
308F
330
2F7A
100
AcDbEntity
  8
0
 62
     0
100
AcDbLine
 10
40.69221216833722
 20
8.856289560267498
 30
0.0
 11
43.49221216833718
 21
11.65628956026745
 31
0.0
  0
LINE
  5
3090
330
2F7A
100
AcDbEntity
  8
0
 62
     0
100
AcDbLine
 10
46.71463392764531
 20
15.77673693168253
 30
0.0
 11
48.69860746102734
 21
17.7607104650645
 31
0.0
  0
LINE
  5
3091
330
2F7A
100
AcDbEntity
  8
0
 62
     0
100
AcDbLine
 10
40.69221216833722
 20
9.75431517237439
 30
0.0
 11
43.49221216833718
 21
12.5543151723744
 31
0.0
  0
LINE
  5
3092
330
2F7A
100
AcDbEntity
  8
0
 62
     0
100
AcDbLine
 10
51.38789686425139
 20
20.44999986828861
 30
0.0
 11
52.41721216833724
 21
21.47931517237441
 31
0.0
  0
LINE
  5
3093
330
2F7A
100
AcDbEntity
  8
0
 62
     0
100
AcDbLine
 10
38.19955594362699
 20
7.261658947664159
 30
0.0
 11
38.28920830508201
 21
7.351311309119239
 31
0.0
  0
LINE
  5
3094
330
2F7A
100
AcDbEntity
  8
0
 62
     0
100
AcDbLine
 10
46.31663174882334
 20
16.2767603649674
 30
0.0
 11
48.41626602624194
 21
18.376394642386
 31
0.0
  0
LINE
  5
3095
330
2F7A
100
AcDbEntity
  8
0
 62
     0
100
AcDbLine
 10
40.69221216833722
 20
10.65234078448128
 30
0.0
 11
43.49221216833723
 21
13.45234078448123
 31
0.0
  0
LINE
  5
3096
330
2F7A
100
AcDbEntity
  8
0
 62
     0
100
AcDbLine
 10
50.48987125214461
 20
20.44999986828867
 30
0.0
 11
52.41721216833724
 21
22.3773407844813
 31
0.0
  0
LINE
  5
3097
330
2F7A
100
AcDbEntity
  8
0
 62
     0
100
AcDbLine
 10
37.18987125214454
 20
7.149999868288603
 30
0.0
 11
38.25565034845107
 21
8.215778964595131
 31
0.0
  0
LINE
  5
3098
330
2F7A
100
AcDbEntity
  8
0
 62
     0
100
AcDbLine
 10
45.99079748442664
 20
16.84895171267766
 30
0.0
 11
48.39221216833732
 21
19.25036639658833
 31
0.0
  0
LINE
  5
3099
330
2F7A
100
AcDbEntity
  8
0
 62
     0
100
AcDbLine
 10
40.69221216833722
 20
11.55036639658817
 30
0.0
 11
43.49221216833718
 21
14.35036639658818
 31
0.0
  0
LINE
  5
309A
330
2F7A
100
AcDbEntity
  8
0
 62
     0
100
AcDbLine
 10
49.5918456400376
 20
20.44999986828861
 30
0.0
 11
52.25054323653933
 21
23.10869746479033
 31
0.0
  0
LINE
  5
309B
330
2F7A
100
AcDbEntity
  8
0
 62
     0
100
AcDbLine
 10
36.29184564003753
 20
7.149999868288546
 30
0.0
 11
38.04012420154538
 21
8.898278429796391
 31
0.0
  0
LINE
  5
309C
330
2F7A
100
AcDbEntity
  8
0
 62
     0
100
AcDbLine
 10
40.69221216833716
 20
12.44839200869512
 30
0.0
 11
43.49221216833718
 21
15.24839200869507
 31
0.0
  0
LINE
  5
309D
330
2F7A
100
AcDbEntity
  8
0
 62
     0
100
AcDbLine
 10
45.74741542175655
 20
17.50359526211451
 30
0.0
 11
51.49382002793072
 21
23.24999986828868
 31
0.0
  0
LINE
  5
309E
330
2F7A
100
AcDbEntity
  8
0
 62
     0
100
AcDbLine
 10
35.69983132938256
 20
7.45601116974052
 30
0.0
 11
37.82459805463969
 21
9.580777894997652
 31
0.0
  0
LINE
  5
309F
330
2F7A
100
AcDbEntity
  8
0
 62
     0
100
AcDbLine
 10
40.69221216833716
 20
13.34641762080207
 30
0.0
 11
43.49221216833711
 21
16.14641762080202
 31
0.0
  0
LINE
  5
30A0
330
2F7A
100
AcDbEntity
  8
0
 62
     0
100
AcDbLine
 10
45.60870856267086
 20
18.26291401513577
 30
0.0
 11
50.59579441582383
 21
23.24999986828868
 31
0.0
  0
LINE
  5
30A1
330
2F7A
100
AcDbEntity
  8
0
 62
     0
100
AcDbLine
 10
35.48107190773396
 20
8.13527736019887
 30
0.0
 11
37.609071907734
 21
10.26327736019891
 31
0.0
  0
LINE
  5
30A2
330
2F7A
100
AcDbEntity
  8
0
 62
     0
100
AcDbLine
 10
40.69221216833722
 20
14.2444432329089
 30
0.0
 11
43.49221216833718
 21
17.04444323290891
 31
0.0
  0
LINE
  5
30A3
330
2F7A
100
AcDbEntity
  8
0
 62
     0
100
AcDbLine
 10
45.59221216833726
 20
19.14444323290899
 30
0.0
 11
49.69776880371694
 21
23.24999986828868
 31
0.0
  0
LINE
  5
30A4
330
2F7A
100
AcDbEntity
  8
0
 62
     0
100
AcDbLine
 10
35.26554576082833
 20
8.817776825400073
 30
0.0
 11
37.39354576082843
 21
10.94577682540011
 31
0.0
  0
LINE
  5
30A5
330
2F7A
100
AcDbEntity
  8
0
 62
     0
100
AcDbLine
 10
40.69221216833727
 20
15.14246884501591
 30
0.0
 11
43.49221216833718
 21
17.94246884501581
 31
0.0
  0
LINE
  5
30A6
330
2F7A
100
AcDbEntity
  8
0
 62
     0
100
AcDbLine
 10
45.59221216833726
 20
20.04246884501589
 30
0.0
 11
48.79974319161004
 21
23.24999986828868
 31
0.0
  0
LINE
  5
30A7
330
2F7A
100
AcDbEntity
  8
0
 62
     0
100
AcDbLine
 10
35.05001961392264
 20
9.500276290601334
 30
0.0
 11
37.1780196139228
 21
11.62827629060149
 31
0.0
  0
LINE
  5
30A8
330
2F7A
100
AcDbEntity
  8
0
 62
     0
100
AcDbLine
 10
40.69221216833722
 20
16.04049445712286
 30
0.0
 11
43.49221216833723
 21
18.84049445712281
 31
0.0
  0
LINE
  5
30A9
330
2F7A
100
AcDbEntity
  8
0
 62
     0
100
AcDbLine
 10
34.83449346701695
 20
10.18277575580259
 30
0.0
 11
36.96249346701705
 21
12.31077575580263
 31
0.0
  0
LINE
  5
30AA
330
2F7A
100
AcDbEntity
  8
0
 62
     0
100
AcDbLine
 10
45.6455288384584
 20
20.99381112724404
 30
0.0
 11
47.84840090938172
 21
23.19668319816736
 31
0.0
  0
LINE
  5
30AB
330
2F7A
100
AcDbEntity
  8
0
 62
     0
100
AcDbLine
 10
31.80171757950296
 20
7.149999868288603
 30
0.0
 11
32.64221216833715
 21
7.990494457122792
 31
0.0
  0
LINE
  5
30AC
330
2F7A
100
AcDbEntity
  8
0
 62
     0
100
AcDbLine
 10
34.61896732011144
 20
10.86527522100391
 30
0.0
 11
36.74696732011142
 21
12.99327522100389
 31
0.0
  0
LINE
  5
30AD
330
2F7A
100
AcDbEntity
  8
0
 62
     0
100
AcDbLine
 10
40.69221216833727
 20
16.93852006922969
 30
0.0
 11
43.49221216833723
 21
19.7385200692297
 31
0.0
  0
LINE
  5
30AE
330
2F7A
100
AcDbEntity
  8
0
 62
     0
100
AcDbLine
 10
30.90369196739612
 20
7.149999868288546
 30
0.0
 11
32.64221216833727
 21
8.888520069229741
 31
0.0
  0
LINE
  5
30AF
330
2F7A
100
AcDbEntity
  8
0
 62
     0
100
AcDbLine
 10
34.40344117320569
 20
11.54777468620505
 30
0.0
 11
36.53144117320573
 21
13.67577468620515
 31
0.0
  0
LINE
  5
30B0
330
2F7A
100
AcDbEntity
  8
0
 62
     0
100
AcDbLine
 10
40.69221216833722
 20
17.83654568133664
 30
0.0
 11
43.49221216833723
 21
20.6365456813366
 31
0.0
  0
LINE
  5
30B1
330
2F7A
100
AcDbEntity
  8
0
 62
     0
100
AcDbLine
 10
30.08681610294047
 20
7.231149615939898
 30
0.0
 11
32.64221216833727
 21
9.78654568133669
 31
0.0
  0
LINE
  5
30B2
330
2F7A
100
AcDbEntity
  8
0
 62
     0
100
AcDbLine
 10
34.1879150263
 20
12.23027415140632
 30
0.0
 11
36.31591502630004
 21
14.35827415140642
 31
0.0
  0
LINE
  5
30B3
330
2F7A
100
AcDbEntity
  8
0
 62
     0
100
AcDbLine
 10
40.69221216833722
 20
18.73457129344359
 30
0.0
 11
43.49221216833718
 21
21.53457129344354
 31
0.0
  0
LINE
  5
30B4
330
2F7A
100
AcDbEntity
  8
0
 62
     0
100
AcDbLine
 10
29.8422121683372
 20
7.884571293443514
 30
0.0
 11
32.64221216833727
 21
10.68457129344358
 31
0.0
  0
LINE
  5
30B5
330
2F7A
100
AcDbEntity
  8
0
 62
     0
100
AcDbLine
 10
33.97238887939437
 20
12.91277361660752
 30
0.0
 11
36.10038887939452
 21
15.04077361660768
 31
0.0
  0
LINE
  5
30B6
330
2F7A
100
AcDbEntity
  8
0
 62
     0
100
AcDbLine
 10
40.69221216833727
 20
19.63259690555043
 30
0.0
 11
43.49221216833723
 21
22.43259690555043
 31
0.0
  0
LINE
  5
30B7
330
2F7A
100
AcDbEntity
  8
0
 62
     0
100
AcDbLine
 10
29.8422121683372
 20
8.782596905550406
 30
0.0
 11
32.64221216833727
 21
11.58259690555047
 31
0.0
  0
LINE
  5
30B8
330
2F7A
100
AcDbEntity
  8
0
 62
     0
100
AcDbLine
 10
33.73759009242263
 20
13.57600044174279
 30
0.0
 11
36.36788416035352
 21
16.20629450967368
 31
0.0
  0
LINE
  5
30B9
330
2F7A
100
AcDbEntity
  8
0
 62
     0
100
AcDbLine
 10
40.69221216833722
 20
20.53062251765737
 30
0.0
 11
43.29593674583878
 21
23.13434709515888
 31
0.0
  0
LINE
  5
30BA
330
2F7A
100
AcDbEntity
  8
0
 62
     0
100
AcDbLine
 10
29.8422121683372
 20
9.680622517657354
 30
0.0
 11
32.64221216833727
 21
12.48062251765736
 31
0.0
  0
LINE
  5
30BB
330
2F7A
100
AcDbEntity
  8
0
 62
     0
100
AcDbLine
 10
33.05040472255524
 20
13.78684068398234
 30
0.0
 11
36.78235751978752
 21
17.51879348121462
 31
0.0
  0
LINE
  5
30BC
330
2F7A
100
AcDbEntity
  8
0
 62
     0
100
AcDbLine
 10
29.8422121683372
 20
10.57864812976424
 30
0.0
 11
32.6553713526435
 21
13.39180731407054
 31
0.0
  0
LINE
  5
30BD
330
2F7A
100
AcDbEntity
  8
0
 62
     0
100
AcDbLine
 10
40.69221216833722
 20
21.42864812976426
 30
0.0
 11
42.51356390686157
 21
23.24999986828868
 31
0.0
  0
LINE
  5
30BE
330
2F7A
100
AcDbEntity
  8
0
 62
     0
100
AcDbLine
 10
26.41356390686155
 20
7.149999868288603
 30
0.0
 11
27.39221216833721
 21
8.128648129764314
 31
0.0
  0
LINE
  5
30BF
330
2F7A
100
AcDbEntity
  8
0
 62
     0
100
AcDbLine
 10
29.84221216833714
 20
11.47667374187119
 30
0.0
 11
37.19683087922146
 21
18.83129245275552
 31
0.0
  0
LINE
  5
30C0
330
2F7A
100
AcDbEntity
  8
0
 62
     0
100
AcDbLine
 10
40.69221216833716
 20
22.32667374187121
 30
0.0
 11
41.61553829475457
 21
23.24999986828862
 31
0.0
  0
LINE
  5
30C1
330
2F7A
100
AcDbEntity
  8
0
 62
     0
100
AcDbLine
 10
25.5155382947546
 20
7.149999868288659
 30
0.0
 11
27.39221216833726
 21
9.02667374187132
 31
0.0
  0
LINE
  5
30C2
330
2F7A
100
AcDbEntity
  8
0
 62
     0
100
AcDbLine
 10
29.8422121683372
 20
12.37469935397803
 30
0.0
 11
37.61130423865557
 21
20.14379142429646
 31
0.0
  0
LINE
  5
30C3
330
2F7A
100
AcDbEntity
  8
0
 62
     0
100
AcDbLine
 10
24.62919330699782
 20
7.161680492638708
 30
0.0
 11
27.25087788473103
 21
9.783365070371871
 31
0.0
  0
LINE
  5
30C4
330
2F7A
100
AcDbEntity
  8
0
 62
     0
100
AcDbLine
 10
29.84221216833714
 20
13.27272496608498
 30
0.0
 11
33.16948707054081
 21
16.59999986828864
 31
0.0
  0
LINE
  5
30C5
330
2F7A
100
AcDbEntity
  8
0
 62
     0
100
AcDbLine
 10
33.93346990578169
 20
17.36398270352952
 30
0.0
 11
38.02577759808952
 21
21.45629039583735
 31
0.0
  0
LINE
  5
30C6
330
2F7A
100
AcDbEntity
  8
0
 62
     0
100
AcDbLine
 10
23.86103278955084
 20
7.291545587298628
 30
0.0
 11
26.51948707054077
 21
9.949999868288614
 31
0.0
  0
LINE
  5
30C7
330
2F7A
100
AcDbEntity
  8
0
 62
     0
100
AcDbLine
 10
29.84221216833714
 20
14.17075057819192
 30
0.0
 11
32.66020273904547
 21
16.9887411489002
 31
0.0
  0
LINE
  5
30C8
330
2F7A
100
AcDbEntity
  8
0
 62
     0
100
AcDbLine
 10
34.34794326521563
 20
18.67648167507036
 30
0.0
 11
38.40084904989083
 21
22.72938745974562
 31
0.0
  0
LINE
  5
30C9
330
2F7A
100
AcDbEntity
  8
0
 62
     0
100
AcDbLine
 10
23.19989853272443
 20
7.528436942579219
 30
0.0
 11
25.62146145843388
 21
9.949999868288614
 31
0.0
  0
LINE
  5
30CA
330
2F7A
100
AcDbEntity
  8
0
 62
     0
100
AcDbLine
 10
29.8422121683372
 20
15.06877619029876
 30
0.0
 11
32.64221216833732
 21
17.86877619029888
 31
0.0
  0
LINE
  5
30CB
330
2F7A
100
AcDbEntity
  8
0
 62
     0
100
AcDbLine
 10
34.76241662464957
 20
19.98898064661119
 30
0.0
 11
38.00683717732164
 21
23.23340119928326
 31
0.0
  0
LINE
  5
30CC
330
2F7A
100
AcDbEntity
  8
0
 62
     0
100
AcDbLine
 10
22.62229524856013
 20
7.8488592705217
 30
0.0
 11
24.73835710705299
 21
9.964921129014612
 31
0.0
  0
LINE
  5
30CD
330
2F7A
100
AcDbEntity
  8
0
 62
     0
100
AcDbLine
 10
29.84221216833714
 20
15.96680180240571
 30
0.0
 11
32.64221216833727
 21
18.76680180240583
 31
0.0
  0
LINE
  5
30CE
330
2F7A
100
AcDbEntity
  8
0
 62
     0
100
AcDbLine
 10
35.17688998408351
 20
21.30147961815203
 30
0.0
 11
37.12541023422005
 21
23.24999986828862
 31
0.0
  0
LINE
  5
30CF
330
2F7A
100
AcDbEntity
  8
0
 62
     0
100
AcDbLine
 10
22.11734028217807
 20
8.24192991624659
 30
0.0
 11
24.10404096603468
 21
10.2286306001032
 31
0.0
  0
LINE
  5
30D0
330
2F7A
100
AcDbEntity
  8
0
 62
     0
100
AcDbLine
 10
29.84221216833714
 20
16.8648274145126
 30
0.0
 11
32.64221216833727
 21
19.66482741451278
 31
0.0
  0
LINE
  5
30D1
330
2F7A
100
AcDbEntity
  8
0
 62
     0
100
AcDbLine
 10
26.50384630011365
 20
13.52646154628917
 30
0.0
 11
27.66575049033673
 21
14.68836573651225
 31
0.0
  0
LINE
  5
30D2
330
2F7A
100
AcDbEntity
  8
0
 62
     0
100
AcDbLine
 10
35.5913633435174
 20
22.61397858969292
 30
0.0
 11
36.22738462211311
 21
23.24999986828862
 31
0.0
  0
LINE
  5
30D3
330
2F7A
100
AcDbEntity
  8
0
 62
     0
100
AcDbLine
 10
21.68090320884823
 20
8.703518455023754
 30
0.0
 11
23.6937900147625
 21
10.71640526093801
 31
0.0
  0
LINE
  5
30D4
330
2F7A
100
AcDbEntity
  8
0
 62
     0
100
AcDbLine
 10
25.57887345848382
 20
13.49951431676629
 30
0.0
 11
27.6926977198596
 21
15.61333857814202
 31
0.0
  0
LINE
  5
30D5
330
2F7A
100
AcDbEntity
  8
0
 62
     0
100
AcDbLine
 10
29.8422121683372
 20
17.7628530266196
 30
0.0
 11
32.64221216833727
 21
20.56285302661967
 31
0.0
  0
LINE
  5
30D6
330
2F7A
100
AcDbEntity
  8
0
 62
     0
100
AcDbLine
 10
21.31388398390527
 20
9.234524842187681
 30
0.0
 11
23.54221216833718
 21
11.46285302661965
 31
0.0
  0
LINE
  5
30D7
330
2F7A
100
AcDbEntity
  8
0
 62
     0
100
AcDbLine
 10
24.96472688906362
 20
13.78339335945287
 30
0.0
 11
27.40881867717297
 21
16.22748514756227
 31
0.0
  0
LINE
  5
30D8
330
2F7A
100
AcDbEntity
  8
0
 62
     0
100
AcDbLine
 10
29.8422121683372
 20
18.6608786387265
 30
0.0
 11
32.64221216833727
 21
21.46087863872657
 31
0.0
  0
LINE
  5
30D9
330
2F7A
100
AcDbEntity
  8
0
 62
     0
100
AcDbLine
 10
21.02256647398053
 20
9.841232944369835
 30
0.0
 11
23.54221216833718
 21
12.36087863872649
 31
0.0
  0
LINE
  5
30DA
330
2F7A
100
AcDbEntity
  8
0
 62
     0
100
AcDbLine
 10
24.5267669620739
 20
14.24345904457015
 30
0.0
 11
26.94875299205574
 21
16.66544507455194
 31
0.0
  0
LINE
  5
30DB
330
2F7A
100
AcDbEntity
  8
0
 62
     0
100
AcDbLine
 10
29.8422121683372
 20
19.55890425083345
 30
0.0
 11
32.64221216833727
 21
22.35890425083346
 31
0.0
  0
LINE
  5
30DC
330
2F7A
100
AcDbEntity
  8
0
 62
     0
100
AcDbLine
 10
20.82142910980587
 20
10.53812119230212
 30
0.0
 11
23.54221216833718
 21
13.25890425083343
 31
0.0
  0
LINE
  5
30DD
330
2F7A
100
AcDbEntity
  8
0
 62
     0
100
AcDbLine
 10
24.27071622966554
 20
14.88543392426868
 30
0.0
 11
26.30677811235716
 21
16.92149580696036
 31
0.0
  0
LINE
  5
30DE
330
2F7A
100
AcDbEntity
  8
0
 62
     0
100
AcDbLine
 10
20.74221216833711
 20
11.35692986294031
 30
0.0
 11
23.54221216833718
 21
14.15692986294033
 31
0.0
  0
LINE
  5
30DF
330
2F7A
100
AcDbEntity
  8
0
 62
     0
100
AcDbLine
 10
29.8422121683372
 20
20.45692986294034
 30
0.0
 11
32.48496205998208
 21
23.09967975458528
 31
0.0
  0
LINE
  5
30E0
330
2F7A
100
AcDbEntity
  8
0
 62
     0
100
AcDbLine
 10
16.65621541046152
 20
7.270933105064727
 30
0.0
 11
18.52127893156125
 21
9.135996626164455
 31
0.0
  0
LINE
  5
30E1
330
2F7A
100
AcDbEntity
  8
0
 62
     0
100
AcDbLine
 10
24.38912931314632
 20
15.90187261985636
 30
0.0
 11
25.29033941676954
 21
16.80308272347957
 31
0.0
  0
LINE
  5
30E2
330
2F7A
100
AcDbEntity
  8
0
 62
     0
100
AcDbLine
 10
20.74221216833711
 20
12.25495547504715
 30
0.0
 11
23.54221216833729
 21
15.05495547504728
 31
0.0
  0
LINE
  5
30E3
330
2F7A
100
AcDbEntity
  8
0
 62
     0
100
AcDbLine
 10
29.8422121683372
 20
21.35495547504723
 30
0.0
 11
31.73725656157859
 21
23.24999986828862
 31
0.0
  0
LINE
  5
30E4
330
2F7A
100
AcDbEntity
  8
0
 62
     0
100
AcDbLine
 10
15.63725656157856
 20
7.149999868288603
 30
0.0
 11
18.64221216833732
 21
10.1549554750473
 31
0.0
  0
LINE
  5
30E5
330
2F7A
100
AcDbEntity
  8
0
 62
     0
100
AcDbLine
 10
20.74221216833711
 20
13.1529810871541
 30
0.0
 11
23.54221216833724
 21
15.95298108715422
 31
0.0
  0
LINE
  5
30E6
330
2F7A
100
AcDbEntity
  8
0
 62
     0
100
AcDbLine
 10
29.8422121683372
 20
22.25298108715412
 30
0.0
 11
30.8392309494717
 21
23.24999986828868
 31
0.0
  0
LINE
  5
30E7
330
2F7A
100
AcDbEntity
  8
0
 62
     0
100
AcDbLine
 10
14.73923094947156
 20
7.149999868288546
 30
0.0
 11
18.64221216833726
 21
11.05298108715425
 31
0.0
  0
LINE
  5
30E8
330
2F7A
100
AcDbEntity
  8
0
 62
     0
100
AcDbLine
 10
20.74221216833711
 20
14.05100669926099
 30
0.0
 11
23.54221216833724
 21
16.85100669926117
 31
0.0
  0
LINE
  5
30E9
330
2F7A
100
AcDbEntity
  8
0
 62
     0
100
AcDbLine
 10
13.84120533736472
 20
7.149999868288659
 30
0.0
 11
18.63827281577601
 21
11.94706734669995
 31
0.0
  0
LINE
  5
30EA
330
2F7A
100
AcDbEntity
  8
0
 62
     0
100
AcDbLine
 10
20.74221216833711
 20
14.94903231136794
 30
0.0
 11
23.54221216833724
 21
17.74903231136806
 31
0.0
  0
LINE
  5
30EB
330
2F7A
100
AcDbEntity
  8
0
 62
     0
100
AcDbLine
 10
26.2431797252579
 20
20.44999986828873
 30
0.0
 11
27.39221216833732
 21
21.59903231136814
 31
0.0
  0
LINE
  5
30EC
330
2F7A
100
AcDbEntity
  8
0
 62
     0
100
AcDbLine
 10
12.94317972525777
 20
7.149999868288603
 30
0.0
 11
18.52861097945469
 21
12.73543112248552
 31
0.0
  0
LINE
  5
30ED
330
2F7A
100
AcDbEntity
  8
0
 62
     0
100
AcDbLine
 10
20.74221216833711
 20
15.84705792347483
 30
0.0
 11
23.54221216833724
 21
18.64705792347496
 31
0.0
  0
LINE
  5
30EE
330
2F7A
100
AcDbEntity
  8
0
 62
     0
100
AcDbLine
 10
15.8422121683372
 20
10.94705792347491
 30
0.0
 11
18.30627223541057
 21
13.41111799054829
 31
0.0
  0
LINE
  5
30EF
330
2F7A
100
AcDbEntity
  8
0
 62
     0
100
AcDbLine
 10
25.34515411315089
 20
20.44999986828861
 30
0.0
 11
27.39221216833732
 21
22.49705792347498
 31
0.0
  0
LINE
  5
30F0
330
2F7A
100
AcDbEntity
  8
0
 62
     0
100
AcDbLine
 10
12.10287998841084
 20
7.207725743548564
 30
0.0
 11
14.84515411315089
 21
9.949999868288614
 31
0.0
  0
LINE
  5
30F1
330
2F7A
100
AcDbEntity
  8
0
 62
     0
100
AcDbLine
 10
20.74221216833706
 20
16.74508353558172
 30
0.0
 11
23.70802687411685
 21
19.71089824136152
 31
0.0
  0
LINE
  5
30F2
330
2F7A
100
AcDbEntity
  8
0
 62
     0
100
AcDbLine
 10
15.84005307672794
 20
11.84292444397254
 30
0.0
 11
17.99784070073854
 21
14.00071206798321
 31
0.0
  0
LINE
  5
30F3
330
2F7A
100
AcDbEntity
  8
0
 62
     0
100
AcDbLine
 10
24.28131379526439
 20
20.28418516250906
 30
0.0
 11
27.1587447534174
 21
23.16161612066201
 31
0.0
  0
LINE
  5
30F4
330
2F7A
100
AcDbEntity
  8
0
 62
     0
100
AcDbLine
 10
11.81721216833722
 20
7.820083535581829
 30
0.0
 11
13.947128501044
 21
9.949999868288614
 31
0.0
  0
LINE
  5
30F5
330
2F7A
100
AcDbEntity
  8
0
 62
     0
100
AcDbLine
 10
15.62045005722723
 20
12.52134703657884
 30
0.0
 11
17.61559873589965
 21
14.51649571525126
 31
0.0
  0
LINE
  5
30F6
330
2F7A
100
AcDbEntity
  8
0
 62
     0
100
AcDbLine
 10
20.74221216833706
 20
17.64310914768867
 30
0.0
 11
26.34910288893701
 21
23.24999986828862
 31
0.0
  0
LINE
  5
30F7
330
2F7A
100
AcDbEntity
  8
0
 62
     0
100
AcDbLine
 10
11.81721216833716
 20
8.718109147688778
 30
0.0
 11
13.04910288893705
 21
9.949999868288671
 31
0.0
  0
LINE
  5
30F8
330
2F7A
100
AcDbEntity
  8
0
 62
     0
100
AcDbLine
 10
15.19419522892252
 20
12.99311782038097
 30
0.0
 11
17.17409421624489
 21
14.97301680770334
 31
0.0
  0
LINE
  5
30F9
330
2F7A
100
AcDbEntity
  8
0
 62
     0
100
AcDbLine
 10
20.74221216833711
 20
18.54113475979551
 30
0.0
 11
25.45107727683006
 21
23.24999986828851
 31
0.0
  0
LINE
  5
30FA
330
2F7A
100
AcDbEntity
  8
0
 62
     0
100
AcDbLine
 10
11.88616409035694
 20
9.685086681815391
 30
0.0
 11
12.08212535481055
 21
9.881047946269006
 31
0.0
  0
LINE
  5
30FB
330
2F7A
100
AcDbEntity
  8
0
 62
     0
100
AcDbLine
 10
20.7621872824937
 20
19.45913548605903
 30
0.0
 11
24.5330765505667
 21
23.2300247541321
 31
0.0
  0
LINE
  5
30FC
330
2F7A
100
AcDbEntity
  8
0
 62
     0
100
AcDbLine
 10
14.74518242286904
 20
13.44213062643444
 30
0.0
 11
16.72508141019142
 21
15.42202961375681
 31
0.0
  0
LINE
  5
30FD
330
2F7A
100
AcDbEntity
  8
0
 62
     0
100
AcDbLine
 10
21.06165071475948
 20
20.65662453043182
 30
0.0
 11
23.33558750619397
 21
22.93056132186632
 31
0.0
  0
LINE
  5
30FE
330
2F7A
100
AcDbEntity
  8
0
 62
     0
100
AcDbLine
 10
14.29616961681557
 20
13.89114343248792
 30
0.0
 11
16.27606860413794
 21
15.87104241981029
 31
0.0
  0
LINE
  5
30FF
330
2F7A
100
AcDbEntity
  8
0
 62
     0
100
AcDbLine
 10
13.84715681076215
 20
14.34015623854134
 30
0.0
 11
15.82705579808447
 21
16.32005522586359
 31
0.0
  0
LINE
  5
3100
330
2F7A
100
AcDbEntity
  8
0
 62
     0
100
AcDbLine
 10
13.39814400470868
 20
14.78916904459481
 30
0.0
 11
15.378042992031
 21
16.76906803191707
 31
0.0
  0
LINE
  5
3101
330
2F7A
100
AcDbEntity
  8
0
 62
     0
100
AcDbLine
 10
12.94913119865521
 20
15.23818185064828
 30
0.0
 11
14.92903018597752
 21
17.21808083797054
 31
0.0
  0
LINE
  5
3102
330
2F7A
100
AcDbEntity
  8
0
 62
     0
100
AcDbLine
 10
17.26292360418864
 20
20.44999986828861
 30
0.0
 11
18.11721216833712
 21
21.30428843243714
 31
0.0
  0
LINE
  5
3103
330
2F7A
100
AcDbEntity
  8
0
 62
     0
100
AcDbLine
 10
12.50020170662986
 20
15.68727797072989
 30
0.0
 11
14.48026735006232
 21
17.66734361416235
 31
0.0
  0
LINE
  5
3104
330
2F7A
100
AcDbEntity
  8
0
 62
     0
100
AcDbLine
 10
16.36489799208175
 20
20.44999986828861
 30
0.0
 11
18.11721216833717
 21
22.20231404454403
 31
0.0
  0
LINE
  5
3105
330
2F7A
100
AcDbEntity
  8
0
 62
     0
100
AcDbLine
 10
12.08873378207829
 20
16.1738356582851
 30
0.0
 11
14.15037046877438
 21
18.23547234498124
 31
0.0
  0
LINE
  5
3106
330
2F7A
100
AcDbEntity
  8
0
 62
     0
100
AcDbLine
 10
15.4668723799748
 20
20.44999986828861
 30
0.0
 11
18.03065326857603
 21
23.01378075688984
 31
0.0
  0
LINE
  5
3107
330
2F7A
100
AcDbEntity
  8
0
 62
     0
100
AcDbLine
 10
11.74827317581582
 20
16.73140066412958
 30
0.0
 11
14.09221216833725
 21
19.07533965665101
 31
0.0
  0
LINE
  5
3108
330
2F7A
100
AcDbEntity
  8
0
 62
     0
100
AcDbLine
 10
14.56638011869779
 20
20.44753321911849
 30
0.0
 11
17.36884676786786
 21
23.24999986828862
 31
0.0
  0
LINE
  5
3109
330
2F7A
100
AcDbEntity
  8
0
 62
     0
100
AcDbLine
 10
11.48757988008372
 20
17.36873298050443
 30
0.0
 11
14.09467881750731
 21
19.97583191792807
 31
0.0
  0
LINE
  5
310A
330
2F7A
100
AcDbEntity
  8
0
 62
     0
100
AcDbLine
 10
11.32576791783566
 20
18.10494663036325
 30
0.0
 11
16.47082115576103
 21
23.24999986828856
 31
0.0
  0
LINE
  5
310B
330
2F7A
100
AcDbEntity
  8
0
 62
     0
100
AcDbLine
 10
11.29221216833724
 20
18.96941649297178
 30
0.0
 11
15.57279554365408
 21
23.24999986828862
 31
0.0
  0
LINE
  5
310C
330
2F7A
100
AcDbEntity
  8
0
 62
     0
100
AcDbLine
 10
11.29221216833724
 20
19.86744210507868
 30
0.0
 11
14.67476993154713
 21
23.24999986828862
 31
0.0
  0
LINE
  5
310D
330
2F7A
100
AcDbEntity
  8
0
 62
     0
100
AcDbLine
 10
11.31240417877546
 20
20.78565972762385
 30
0.0
 11
13.75655230900207
 21
23.22980785785046
 31
0.0
  0
ENDBLK
  5
310F
330
2F7A
100
AcDbEntity
  8
0
100
AcDbBlockEnd
  0
BLOCK
  5
569B
330
5691
100
AcDbEntity
  8
0
100
AcDbBlockBegin
  2
*D2
 70
     1
 10
0.0
 20
0.0
 30
0.0
  3
*D2
  1

  0
LINE
  5
5BEE
330
5691
100
AcDbEntity
  8
SUNPOU
100
AcDbLine
 10
281.9162179816958
 20
480.1533783201555
 30
0.0
 11
214.8202463960797
 21
480.1533783201555
 31
0.0
  0
LINE
  5
5BEF
330
5691
100
AcDbEntity
  8
SUNPOU
100
AcDbLine
 10
333.7083593505142
 20
285.347474102841
 30
0.0
 11
214.8202463960796
 21
285.347474102841
 31
0.0
  0
LINE
  5
5BF0
330
5691
100
AcDbEntity
  8
SUNPOU
100
AcDbLine
 10
217.8202463960797
 20
473.1533783201554
 30
0.0
 11
217.8202463960797
 21
292.347474102841
 31
0.0
  0
INSERT
  5
5BF1
330
5691
100
AcDbEntity
  8
SUNPOU
100
AcDbBlockReference
  2
_OPEN
 10
217.8202463960797
 20
480.1533783201555
 30
0.0
 41
7.0
 42
7.0
 43
7.0
 50
90.0
  0
INSERT
  5
5BF2
330
5691
100
AcDbEntity
  8
SUNPOU
100
AcDbBlockReference
  2
_OPEN
 10
217.8202463960797
 20
285.347474102841
 30
0.0
 41
7.0
 42
7.0
 43
7.0
 50
270.0
  0
MTEXT
  5
5BF3
330
5691
100
AcDbEntity
  8
SUNPOU
100
AcDbMText
 10
212.8202463960796
 20
382.7504262114984
 30
0.0
 40
6.0
 41
0.0
 71
     5
 72
     1
  1
\A1;195
 11
0.0000000000000001
 21
1.0
 31
0.0
1001
ACAD
1000
MTEXTBEGIN
1070
    73
1070
     1
1070
    44
1040
1.0
1070
    74
1070
     0
1000
MTEXTEND
1000
MTEXTBEGIN
1070
    73
1070
     1
1070
    44
1040
1.0
1070
    74
1070
     0
1000
MTEXTEND
1000
MTEXTBEGIN
1070
    73
1070
     1
1070
    44
1040
1.0
1070
    74
1070
     0
1000
MTEXTEND
  0
POINT
  5
5BF4
330
5691
100
AcDbEntity
  8
DEFPOINTS
 62
     0
100
AcDbPoint
 10
287.9162179816958
 20
480.1533783201555
 30
0.0
  0
POINT
  5
5BF5
330
5691
100
AcDbEntity
  8
DEFPOINTS
 62
     0
100
AcDbPoint
 10
339.7083593505142
 20
285.347474102841
 30
0.0
  0
POINT
  5
5BF6
330
5691
100
AcDbEntity
  8
DEFPOINTS
 62
     0
100
AcDbPoint
 10
217.8202463960797
 20
285.347474102841
 30
0.0
  0
ENDBLK
  5
569C
330
5691
100
AcDbEntity
  8
0
100
AcDbBlockEnd
  0
BLOCK
  5
56A8
330
569E
100
AcDbEntity
  8
0
100
AcDbBlockBegin
  2
*D3
 70
     1
 10
0.0
 20
0.0
 30
0.0
  3
*D3
  1

  0
LINE
  5
5C12
330
569E
100
AcDbEntity
  8
SUNPOU
100
AcDbLine
 10
291.9166173825642
 20
480.5335290208691
 30
0.0
 11
231.3887069611019
 21
480.5335290208691
 31
0.0
  0
LINE
  5
5C13
330
569E
100
AcDbEntity
  8
SUNPOU
100
AcDbLine
 10
289.9186147861869
 20
344.5023371395525
 30
0.0
 11
231.3887069611018
 21
344.5023371395525
 31
0.0
  0
LINE
  5
5C14
330
569E
100
AcDbEntity
  8
SUNPOU
100
AcDbLine
 10
234.3887069611019
 20
473.533529020869
 30
0.0
 11
234.3887069611018
 21
351.5023371395525
 31
0.0
  0
INSERT
  5
5C15
330
569E
100
AcDbEntity
  8
SUNPOU
100
AcDbBlockReference
  2
_OPEN
 10
234.3887069611019
 20
480.5335290208691
 30
0.0
 41
7.0
 42
7.0
 43
7.0
 50
90.0
  0
INSERT
  5
5C16
330
569E
100
AcDbEntity
  8
SUNPOU
100
AcDbBlockReference
  2
_OPEN
 10
234.3887069611018
 20
344.5023371395525
 30
0.0
 41
7.0
 42
7.0
 43
7.0
 50
270.0
  0
MTEXT
  5
5C17
330
569E
100
AcDbEntity
  8
SUNPOU
100
AcDbMText
 10
229.3887069611018
 20
412.5179330802108
 30
0.0
 40
6.0
 41
0.0
 71
     5
 72
     1
  1
\A1;136
 11
0.0000000000000001
 21
1.0
 31
0.0
1001
ACAD
1000
MTEXTBEGIN
1070
    73
1070
     1
1070
    44
1040
1.0
1070
    74
1070
     0
1000
MTEXTEND
1000
MTEXTBEGIN
1070
    73
1070
     1
1070
    44
1040
1.0
1070
    74
1070
     0
1000
MTEXTEND
1000
MTEXTBEGIN
1070
    73
1070
     1
1070
    44
1040
1.0
1070
    74
1070
     0
1000
MTEXTEND
  0
POINT
  5
5C18
330
569E
100
AcDbEntity
  8
DEFPOINTS
 62
     0
100
AcDbPoint
 10
297.9166173825642
 20
480.5335290208691
 30
0.0
  0
POINT
  5
5C19
330
569E
100
AcDbEntity
  8
DEFPOINTS
 62
     0
100
AcDbPoint
 10
295.9186147861869
 20
344.5023371395525
 30
0.0
  0
POINT
  5
5C1A
330
569E
100
AcDbEntity
  8
DEFPOINTS
 62
     0
100
AcDbPoint
 10
234.3887069611018
 20
344.5023371395525
 30
0.0
  0
ENDBLK
  5
56A9
330
569E
100
AcDbEntity
  8
0
100
AcDbBlockEnd
  0
BLOCK
  5
56B5
330
56AB
100
AcDbEntity
  8
0
100
AcDbBlockBegin
  2
*D4
 70
     1
 10
0.0
 20
0.0
 30
0.0
  3
*D4
  1

  0
LINE
  5
5BE5
330
56AB
100
AcDbEntity
  8
SUNPOU
100
AcDbLine
 10
475.9184803682153
 20
329.347474102841
 30
0.0
 11
517.6436713079374
 21
329.347474102841
 31
0.0
  0
LINE
  5
5BE6
330
56AB
100
AcDbEntity
  8
SUNPOU
100
AcDbLine
 10
480.4046566943723
 20
285.3474741028411
 30
0.0
 11
517.6436713079374
 21
285.3474741028411
 31
0.0
  0
LINE
  5
5BE7
330
56AB
100
AcDbEntity
  8
SUNPOU
100
AcDbLine
 10
514.6436713079374
 20
322.347474102841
 30
0.0
 11
514.6436713079374
 21
292.3474741028411
 31
0.0
  0
INSERT
  5
5BE8
330
56AB
100
AcDbEntity
  8
SUNPOU
100
AcDbBlockReference
  2
_OPEN
 10
514.6436713079374
 20
329.347474102841
 30
0.0
 41
7.0
 42
7.0
 43
7.0
 50
90.0
  0
INSERT
  5
5BE9
330
56AB
100
AcDbEntity
  8
SUNPOU
100
AcDbBlockReference
  2
_OPEN
 10
514.6436713079374
 20
285.3474741028411
 30
0.0
 41
7.0
 42
7.0
 43
7.0
 50
270.0
  0
MTEXT
  5
5BEA
330
56AB
100
AcDbEntity
  8
SUNPOU
100
AcDbMText
 10
509.6436713079373
 20
307.3474741028411
 30
0.0
 40
6.0
 41
0.0
 71
     5
 72
     1
  1
\A1;\U+203B44
 11
0.0000000000000001
 21
1.0
 31
0.0
1001
ACAD
1000
MTEXTBEGIN
1070
    73
1070
     1
1070
    44
1040
1.0
1070
    74
1070
     0
1000
MTEXTEND
1000
MTEXTBEGIN
1070
    73
1070
     1
1070
    44
1040
1.0
1070
    74
1070
     0
1000
MTEXTEND
1000
MTEXTBEGIN
1070
    73
1070
     1
1070
    44
1040
1.0
1070
    74
1070
     0
1000
MTEXTEND
  0
POINT
  5
5BEB
330
56AB
100
AcDbEntity
  8
DEFPOINTS
 62
     0
100
AcDbPoint
 10
469.9184803682153
 20
329.347474102841
 30
0.0
  0
POINT
  5
5BEC
330
56AB
100
AcDbEntity
  8
DEFPOINTS
 62
     0
100
AcDbPoint
 10
474.4046566943723
 20
285.3474741028411
 30
0.0
  0
POINT
  5
5BED
330
56AB
100
AcDbEntity
  8
DEFPOINTS
 62
     0
100
AcDbPoint
 10
514.6436713079374
 20
285.3474741028411
 30
0.0
  0
ENDBLK
  5
56B6
330
56AB
100
AcDbEntity
  8
0
100
AcDbBlockEnd
  0
BLOCK
  5
56C2
330
56B8
100
AcDbEntity
  8
0
100
AcDbBlockBegin
  2
*D5
 70
     1
 10
0.0
 20
0.0
 30
0.0
  3
*D5
  1

  0
LINE
  5
5C09
330
56B8
100
AcDbEntity
  8
SUNPOU
100
AcDbLine
 10
339.0730668362948
 20
197.3088692847147
 30
0.0
 11
339.0730668362948
 21
228.7358530221781
 31
0.0
  0
LINE
  5
5C0A
330
56B8
100
AcDbEntity
  8
SUNPOU
100
AcDbLine
 10
475.199789922001
 20
159.6636814663576
 30
0.0
 11
475.199789922001
 21
228.7358530221781
 31
0.0
  0
LINE
  5
5C0B
330
56B8
100
AcDbEntity
  8
SUNPOU
100
AcDbLine
 10
346.0730668362947
 20
225.7358530221781
 30
0.0
 11
468.199789922001
 21
225.7358530221781
 31
0.0
  0
INSERT
  5
5C0C
330
56B8
100
AcDbEntity
  8
SUNPOU
100
AcDbBlockReference
  2
_OPEN
 10
339.0730668362948
 20
225.7358530221781
 30
0.0
 41
7.0
 42
7.0
 43
7.0
 50
180.0
  0
INSERT
  5
5C0D
330
56B8
100
AcDbEntity
  8
SUNPOU
100
AcDbBlockReference
  2
_OPEN
 10
475.199789922001
 20
225.7358530221781
 30
0.0
 41
7.0
 42
7.0
 43
7.0
  0
MTEXT
  5
5C0E
330
56B8
100
AcDbEntity
  8
SUNPOU
100
AcDbMText
 10
407.1364283791479
 20
230.7358530221781
 30
0.0
 40
6.0
 41
0.0
 71
     5
 72
     1
  1
\A1;136
1001
ACAD
1000
MTEXTBEGIN
1070
    73
1070
     1
1070
    44
1040
1.0
1070
    74
1070
     0
1000
MTEXTEND
1000
MTEXTBEGIN
1070
    73
1070
     1
1070
    44
1040
1.0
1070
    74
1070
     0
1000
MTEXTEND
1000
MTEXTBEGIN
1070
    73
1070
     1
1070
    44
1040
1.0
1070
    74
1070
     0
1000
MTEXTEND
  0
POINT
  5
5C0F
330
56B8
100
AcDbEntity
  8
DEFPOINTS
 62
     0
100
AcDbPoint
 10
339.0730668362948
 20
191.3088692847147
 30
0.0
  0
POINT
  5
5C10
330
56B8
100
AcDbEntity
  8
DEFPOINTS
 62
     0
100
AcDbPoint
 10
475.199789922001
 20
153.6636814663576
 30
0.0
  0
POINT
  5
5C11
330
56B8
100
AcDbEntity
  8
DEFPOINTS
 62
     0
100
AcDbPoint
 10
475.199789922001
 20
225.7358530221781
 30
0.0
  0
ENDBLK
  5
56C3
330
56B8
100
AcDbEntity
  8
0
100
AcDbBlockEnd
  0
BLOCK
  5
56CF
330
56C5
100
AcDbEntity
  8
0
100
AcDbBlockBegin
  2
*D6
 70
     1
 10
0.0
 20
0.0
 30
0.0
  3
*D6
  1

  0
LINE
  5
5C00
330
56C5
100
AcDbEntity
  8
SUNPOU
100
AcDbLine
 10
475.199789922001
 20
159.6636814663576
 30
0.0
 11
475.199789922001
 21
243.1883732418536
 31
0.0
  0
LINE
  5
5C01
330
56C5
100
AcDbEntity
  8
SUNPOU
100
AcDbLine
 10
279.9138211772096
 20
201.4938314667605
 30
0.0
 11
279.9138211772096
 21
243.1883732418536
 31
0.0
  0
LINE
  5
5C02
330
56C5
100
AcDbEntity
  8
SUNPOU
100
AcDbLine
 10
468.199789922001
 20
240.1883732418537
 30
0.0
 11
286.9138211772096
 21
240.1883732418537
 31
0.0
  0
INSERT
  5
5C03
330
56C5
100
AcDbEntity
  8
SUNPOU
100
AcDbBlockReference
  2
_OPEN
 10
475.199789922001
 20
240.1883732418537
 30
0.0
 41
7.0
 42
7.0
 43
7.0
  0
INSERT
  5
5C04
330
56C5
100
AcDbEntity
  8
SUNPOU
100
AcDbBlockReference
  2
_OPEN
 10
279.9138211772096
 20
240.1883732418537
 30
0.0
 41
7.0
 42
7.0
 43
7.0
 50
180.0
  0
MTEXT
  5
5C05
330
56C5
100
AcDbEntity
  8
SUNPOU
100
AcDbMText
 10
377.5568055496053
 20
245.1883732418536
 30
0.0
 40
6.0
 41
0.0
 71
     5
 72
     1
  1
\A1;195
1001
ACAD
1000
MTEXTBEGIN
1070
    73
1070
     1
1070
    44
1040
1.0
1070
    74
1070
     0
1000
MTEXTEND
1000
MTEXTBEGIN
1070
    73
1070
     1
1070
    44
1040
1.0
1070
    74
1070
     0
1000
MTEXTEND
1000
MTEXTBEGIN
1070
    73
1070
     1
1070
    44
1040
1.0
1070
    74
1070
     0
1000
MTEXTEND
  0
POINT
  5
5C06
330
56C5
100
AcDbEntity
  8
DEFPOINTS
 62
     0
100
AcDbPoint
 10
475.199789922001
 20
153.6636814663576
 30
0.0
  0
POINT
  5
5C07
330
56C5
100
AcDbEntity
  8
DEFPOINTS
 62
     0
100
AcDbPoint
 10
279.9138211772096
 20
195.4938314667605
 30
0.0
  0
POINT
  5
5C08
330
56C5
100
AcDbEntity
  8
DEFPOINTS
 62
     0
100
AcDbPoint
 10
279.9138211772096
 20
240.1883732418537
 30
0.0
  0
ENDBLK
  5
56D0
330
56C5
100
AcDbEntity
  8
0
100
AcDbBlockEnd
  0
BLOCK
  5
56EE
330
56E4
100
AcDbEntity
  8
0
100
AcDbBlockBegin
  2
*D7
 70
     1
 10
0.0
 20
0.0
 30
0.0
  3
*D7
  1

  0
LINE
  5
5BF7
330
56E4
100
AcDbEntity
  8
SUNPOU
100
AcDbLine
 10
281.9786677321093
 20
195.592331506952
 30
0.0
 11
231.3887069611018
 21
195.592331506952
 31
0.0
  0
LINE
  5
5BF8
330
56E4
100
AcDbEntity
  8
SUNPOU
100
AcDbLine
 10
289.9186147861779
 20
71.01981683432146
 30
0.0
 11
231.3887069611018
 21
71.01981683432147
 31
0.0
  0
LINE
  5
5BF9
330
56E4
100
AcDbEntity
  8
SUNPOU
100
AcDbLine
 10
234.3887069611018
 20
188.592331506952
 30
0.0
 11
234.3887069611018
 21
78.01981683432147
 31
0.0
  0
INSERT
  5
5BFA
330
56E4
100
AcDbEntity
  8
SUNPOU
100
AcDbBlockReference
  2
_OPEN
 10
234.3887069611018
 20
195.592331506952
 30
0.0
 41
7.0
 42
7.0
 43
7.0
 50
90.0
  0
INSERT
  5
5BFB
330
56E4
100
AcDbEntity
  8
SUNPOU
100
AcDbBlockReference
  2
_OPEN
 10
234.3887069611018
 20
71.01981683432147
 30
0.0
 41
7.0
 42
7.0
 43
7.0
 50
270.0
  0
MTEXT
  5
5BFC
330
56E4
100
AcDbEntity
  8
SUNPOU
100
AcDbMText
 10
229.3887069611018
 20
133.3060741706368
 30
0.0
 40
6.0
 41
0.0
 71
     5
 72
     1
  1
\A1;125
 11
0.0000000000000001
 21
1.0
 31
0.0
1001
ACAD
1000
MTEXTBEGIN
1070
    73
1070
     1
1070
    44
1040
1.0
1070
    74
1070
     0
1000
MTEXTEND
1000
MTEXTBEGIN
1070
    73
1070
     1
1070
    44
1040
1.0
1070
    74
1070
     0
1000
MTEXTEND
1000
MTEXTBEGIN
1070
    73
1070
     1
1070
    44
1040
1.0
1070
    74
1070
     0
1000
MTEXTEND
  0
POINT
  5
5BFD
330
56E4
100
AcDbEntity
  8
DEFPOINTS
 62
     0
100
AcDbPoint
 10
287.9786677321093
 20
195.592331506952
 30
0.0
  0
POINT
  5
5BFE
330
56E4
100
AcDbEntity
  8
DEFPOINTS
 62
     0
100
AcDbPoint
 10
295.9186147861779
 20
71.01981683432146
 30
0.0
  0
POINT
  5
5BFF
330
56E4
100
AcDbEntity
  8
DEFPOINTS
 62
     0
100
AcDbPoint
 10
234.3887069611018
 20
71.01981683432147
 30
0.0
  0
ENDBLK
  5
56EF
330
56E4
100
AcDbEntity
  8
0
100
AcDbBlockEnd
  0
ENDSEC
  0
SECTION
  2
ENTITIES
  0
TEXT
  5
46F
330
1A
100
AcDbEntity
  8
SUNPOU
 62
     4
100
AcDbText
 10
684.9983445684752
 20
37.16107601380135
 30
0.0
 40
6.0
  1
※　のきといの差込み寸法を示す
100
AcDbText
  0
LINE
  5
7BE
330
1A
100
AcDbEntity
  8
ZUWAKU
100
AcDbLine
 10
208.646601303624
 20
15.19999986828872
 30
0.0
 11
447.4243639845474
 21
15.19999986828871
 31
0.0
  0
LINE
  5
7BF
330
1A
100
AcDbEntity
  8
ZUWAKU
100
AcDbLine
 10
208.646601303624
 20
15.59999986828871
 30
0.0
 11
447.4243639845474
 21
15.59999986828872
 31
0.0
  0
LINE
  5
7C0
330
1A
100
AcDbEntity
  8
ZUWAKU
100
AcDbLine
 10
208.646601303624
 20
15.39999986828871
 30
0.0
 11
447.4243639845474
 21
15.39999986828871
 31
0.0
  0
LINE
  5
7C1
330
1A
100
AcDbEntity
  8
ZUWAKU
100
AcDbLine
 10
0.0000000135560185
 20
30.79999986828869
 30
0.0
 11
797.4000000135559
 21
30.79999986828869
 31
0.0
  0
LINE
  5
7C2
330
1A
100
AcDbEntity
  8
ZUWAKU
100
AcDbLine
 10
0.0000000135560185
 20
30.59999986828869
 30
0.0
 11
797.4000000135559
 21
30.59999986828869
 31
0.0
  0
LINE
  5
7C3
330
1A
100
AcDbEntity
  8
ZUWAKU
100
AcDbLine
 10
0.0000000135560185
 20
30.39999986828869
 30
0.0
 11
797.4000000135559
 21
30.39999986828869
 31
0.0
  0
LINE
  5
7C4
330
1A
100
AcDbEntity
  8
ZUWAKU
100
AcDbLine
 10
0.0000000135560185
 20
30.19999986828868
 30
0.0
 11
797.4000000135559
 21
30.19999986828868
 31
0.0
  0
LINE
  5
7C5
330
1A
100
AcDbEntity
  8
ZUWAKU
100
AcDbLine
 10
0.0000000135560185
 20
29.99999986828868
 30
0.0
 11
797.4000000135559
 21
29.99999986828868
 31
0.0
  0
POLYLINE
  5
7C6
330
1A
100
AcDbEntity
  8
ZUWAKU
100
AcDb2dPolyline
 66
     1
 10
0.0
 20
0.0
 30
0.0
 70
     1
  0
VERTEX
  5
5F9F
330
7C6
100
AcDbEntity
  8
ZUWAKU
100
AcDbVertex
100
AcDb2dVertex
 10
0.2000000135559503
 20
551.3999998682887
 30
0.0
  0
VERTEX
  5
5FA0
330
7C6
100
AcDbEntity
  8
ZUWAKU
100
AcDbVertex
100
AcDb2dVertex
 10
0.2000000135559503
 20
0.1999998682887281
 30
0.0
  0
VERTEX
  5
5FA1
330
7C6
100
AcDbEntity
  8
ZUWAKU
100
AcDbVertex
100
AcDb2dVertex
 10
797.4000000135559
 20
0.1999998682887511
 30
0.0
  0
VERTEX
  5
5FA2
330
7C6
100
AcDbEntity
  8
ZUWAKU
100
AcDbVertex
100
AcDb2dVertex
 10
797.4000000135561
 20
551.3999998682887
 30
0.0
  0
SEQEND
  5
5FA3
330
7C6
100
AcDbEntity
  8
ZUWAKU
  0
POLYLINE
  5
7C7
330
1A
100
AcDbEntity
  8
ZUWAKU
100
AcDb2dPolyline
 66
     1
 10
0.0
 20
0.0
 30
0.0
 70
     1
  0
VERTEX
  5
5FA4
330
7C7
100
AcDbEntity
  8
ZUWAKU
100
AcDbVertex
100
AcDb2dVertex
 10
0.6000000135559276
 20
550.9999998682888
 30
0.0
  0
VERTEX
  5
5FA5
330
7C7
100
AcDbEntity
  8
ZUWAKU
100
AcDbVertex
100
AcDb2dVertex
 10
0.6000000135559276
 20
0.5999998682887054
 30
0.0
  0
VERTEX
  5
5FA6
330
7C7
100
AcDbEntity
  8
ZUWAKU
100
AcDbVertex
100
AcDb2dVertex
 10
797.0000000135562
 20
0.5999998682887516
 30
0.0
  0
VERTEX
  5
5FA7
330
7C7
100
AcDbEntity
  8
ZUWAKU
100
AcDbVertex
100
AcDb2dVertex
 10
797.000000013556
 20
550.9999998682888
 30
0.0
  0
SEQEND
  5
5FA8
330
7C7
100
AcDbEntity
  8
ZUWAKU
  0
POLYLINE
  5
7C8
330
1A
100
AcDbEntity
  8
ZUWAKU
100
AcDb2dPolyline
 66
     1
 10
0.0
 20
0.0
 30
0.0
 70
     1
  0
VERTEX
  5
5FA9
330
7C8
100
AcDbEntity
  8
ZUWAKU
100
AcDbVertex
100
AcDb2dVertex
 10
0.0000000135560185
 20
551.5999998682887
 30
0.0
  0
VERTEX
  5
5FAA
330
7C8
100
AcDbEntity
  8
ZUWAKU
100
AcDbVertex
100
AcDb2dVertex
 10
0.0000000135560185
 20
-0.0000001317113174
 30
0.0
  0
VERTEX
  5
5FAB
330
7C8
100
AcDbEntity
  8
ZUWAKU
100
AcDbVertex
100
AcDb2dVertex
 10
797.6000000135561
 20
-0.0000001317112499
 30
0.0
  0
VERTEX
  5
5FAC
330
7C8
100
AcDbEntity
  8
ZUWAKU
100
AcDbVertex
100
AcDb2dVertex
 10
797.6000000135561
 20
551.5999998682888
 30
0.0
  0
SEQEND
  5
5FAD
330
7C8
100
AcDbEntity
  8
ZUWAKU
  0
POLYLINE
  5
7C9
330
1A
100
AcDbEntity
  8
ZUWAKU
100
AcDb2dPolyline
 66
     1
 10
0.0
 20
0.0
 30
0.0
 70
     1
  0
VERTEX
  5
5FAE
330
7C9
100
AcDbEntity
  8
ZUWAKU
100
AcDbVertex
100
AcDb2dVertex
 10
0.4000000135559958
 20
551.1999998682887
 30
0.0
  0
VERTEX
  5
5FAF
330
7C9
100
AcDbEntity
  8
ZUWAKU
100
AcDbVertex
100
AcDb2dVertex
 10
0.4000000135559958
 20
0.3999998682887735
 30
0.0
  0
VERTEX
  5
5FB0
330
7C9
100
AcDbEntity
  8
ZUWAKU
100
AcDbVertex
100
AcDb2dVertex
 10
797.200000013556
 20
0.3999998682887504
 30
0.0
  0
VERTEX
  5
5FB1
330
7C9
100
AcDbEntity
  8
ZUWAKU
100
AcDbVertex
100
AcDb2dVertex
 10
797.200000013556
 20
551.1999998682887
 30
0.0
  0
SEQEND
  5
5FB2
330
7C9
100
AcDbEntity
  8
ZUWAKU
  0
POLYLINE
  5
7CA
330
1A
100
AcDbEntity
  8
ZUWAKU
100
AcDb2dPolyline
 66
     1
 10
0.0
 20
0.0
 30
0.0
 70
     1
  0
VERTEX
  5
5FB3
330
7CA
100
AcDbEntity
  8
ZUWAKU
100
AcDbVertex
100
AcDb2dVertex
 10
0.800000013555973
 20
550.7999998682887
 30
0.0
  0
VERTEX
  5
5FB4
330
7CA
100
AcDbEntity
  8
ZUWAKU
100
AcDbVertex
100
AcDb2dVertex
 10
0.800000013555973
 20
0.7999998682887508
 30
0.0
  0
VERTEX
  5
5FB5
330
7CA
100
AcDbEntity
  8
ZUWAKU
100
AcDbVertex
100
AcDb2dVertex
 10
796.8000000135559
 20
0.7999998682887508
 30
0.0
  0
VERTEX
  5
5FB6
330
7CA
100
AcDbEntity
  8
ZUWAKU
100
AcDbVertex
100
AcDb2dVertex
 10
796.8000000135559
 20
550.7999998682887
 30
0.0
  0
SEQEND
  5
5FB7
330
7CA
100
AcDbEntity
  8
ZUWAKU
  0
INSERT
  5
7CC
330
1A
100
AcDbEntity
  8
ZUWAKU
  6
CONTINUOUS
100
AcDbBlockReference
  2
*X1
 10
0.0
 20
0.0
 30
0.0
1001
ACAD
1000
HATCH
1002
{
1070
    19
1000
ANSI37
1040
0.2
1040
0.0
1000
R14_HATCH_DATA
1000
7CC
1011
1.0
1021
0.0
1031
0.0
1011
0.0
1021
1.0
1031
0.0
1011
0.0
1021
0.0
1031
1.0
1040
0.0
1010
0.0
1020
0.0
1030
1.0
1000
ANSI37
1070
     0
1070
     0
1071
        8
1071
        7
1070
     1
1070
     1
1071
       24
1040
14.50226267467587
1040
17.64484834927226
1040
-0.1989123673796348
1040
14.09221216833714
1040
18.63479784293331
1040
0.0
1040
14.09221216833714
1040
19.92499986828869
1040
-0.4142135623730912
1040
14.61721216833711
1040
20.44999986828868
1040
0.0
1040
17.59221216833702
1040
20.44999986828868
1040
0.4142135623731546
1040
18.11721216833712
1040
20.97499986828867
1040
0.0
1040
18.11721216833712
1040
22.72499986828869
1040
0.4142135623731586
1040
17.59221216833702
1040
23.24999986828868
1040
0.0
1040
14.09221216833714
1040
23.24999986828868
1040
0.4142135623730928
1040
11.29221216833718
1040
20.44999986828871
1040
0.0
1040
11.29221216833718
1040
18.63479784293344
1040
0.1989123673796619
1040
12.52236368735361
1040
15.66494936194983
1040
0.0
1040
15.43216166199829
1040
12.75515138730518
1040
-0.1989123673796613
1040
15.84221216833714
1040
11.76520189364399
1040
0.0
1040
15.84221216833714
1040
10.47499986828867
1040
-0.4142135623730911
1040
15.31721216833716
1040
9.949999868288685
1040
0.0
1040
12.34221216833725
1040
9.949999868288685
1040
0.4142135623731526
1040
11.81721216833716
1040
9.424999868288697
1040
0.0
1040
11.81721216833716
1040
7.674999868288676
1040
0.4142135623731526
1040
12.34221216833725
1040
7.149999868288688
1040
0.0
1040
15.84221216833714
1040
7.149999868288688
1040
0.4142135623731044
1040
18.64221216833721
1040
9.949999868288664
1040
0.0
1040
18.64221216833721
1040
11.76520189364393
1040
0.1989123673796604
1040
17.41206064932066
1040
14.73505037462747
1040
0.0
1071
        0
1071
        7
1070
     1
1070
     1
1071
       16
1040
23.54221216833718
1040
19.04999986828869
1040
-0.4142135623730935
1040
24.94221216833716
1040
20.44999986828868
1040
0.0
1040
26.86721216833712
1040
20.44999986828868
1040
0.4142135623731546
1040
27.39221216833721
1040
20.97499986828867
1040
0.0
1040
27.39221216833721
1040
22.72499986828869
1040
0.4142135623730951
1040
26.86721216833723
1040
23.24999986828868
1040
0.0
1040
24.94221216833705
1040
23.24999986828864
1040
0.4142135623730892
1040
20.74221216833711
1040
19.04999986828862
1040
0.0
1040
20.74221216833711
1040
11.34999986828871
1040
0.4142135623730969
1040
24.94221216833716
1040
7.149999868288688
1040
0.0
1040
26.86721216833712
1040
7.149999868288688
1040
0.4142135623731526
1040
27.39221216833721
1040
7.674999868288676
1040
0.0
1040
27.39221216833721
1040
9.424999868288697
1040
0.4142135623730891
1040
26.86721216833723
1040
9.949999868288685
1040
0.0
1040
24.94221216833716
1040
9.949999868288685
1040
-0.4142135623730928
1040
23.54221216833718
1040
11.34999986828867
1040
0.0
1071
        0
1071
        7
1070
     1
1070
     1
1071
        2
1040
24.24221216833712
1040
15.19999986828868
1040
1.0
1040
27.74221216833712
1040
15.19999986828868
1040
1.0
1071
        0
1071
        7
1070
     1
1070
     1
1071
       26
1040
37.31485865051513
1040
19.20504706185211
1040
0.0
1040
38.37649828365295
1040
22.5669059001217
1040
0.5069206636600134
1040
37.87586738445759
1040
23.24999986828868
1040
0.0
1040
36.17697800484836
1040
23.24999986828868
1040
0.3272098845218764
1040
35.676347105653
1040
22.88309383645565
1040
0.0
1040
33.80807723102122
1040
16.96690590012176
1040
-0.3272098845219541
1040
33.30744633182575
1040
16.59999986828868
1040
0.0
1040
33.1672121683373
1040
16.59999986828868
1040
-0.4142135623731526
1040
32.64221216833721
1040
17.12499986828867
1040
0.0
1040
32.64221216833721
1040
22.72499986828869
1040
0.4142135623730951
1040
32.11721216833723
1040
23.24999986828868
1040
0.0
1040
30.36721216833711
1040
23.24999986828868
1040
0.4142135623730871
1040
29.84221216833714
1040
22.7249998682887
1040
0.0
1040
29.84221216833714
1040
7.674999868288676
1040
0.4142135623730891
1040
30.36721216833711
1040
7.149999868288688
1040
0.0
1040
32.11721216833712
1040
7.149999868288688
1040
0.4142135623731526
1040
32.64221216833721
1040
7.674999868288676
1040
0.0
1040
32.64221216833721
1040
13.27499986828869
1040
-0.4142135623731526
1040
33.1672121683373
1040
13.79999986828868
1040
0.0
1040
33.30744633182587
1040
13.79999986828868
1040
-0.3272098845218915
1040
33.80807723102122
1040
13.43309383645561
1040
0.0
1040
35.676347105653
1040
7.516905900121759
1040
0.3272098845218902
1040
36.17697800484836
1040
7.149999868288688
1040
0.0
1040
37.87586738445759
1040
7.149999868288688
1040
0.5069206636600335
1040
38.37649828365295
1040
7.833093836455695
1040
0.0
1040
36.05010690517929
1040
15.19999986828882
1040
0.0
1071
        0
1071
        7
1070
     1
1070
     1
1071
        8
1040
43.49221216833711
1040
22.7249998682887
1040
0.4142135623731546
1040
42.96721216833702
1040
23.24999986828868
1040
0.0
1040
41.21721216833726
1040
23.24999986828868
1040
0.4142135623731507
1040
40.69221216833716
1040
22.7249998682887
1040
0.0
1040
40.69221216833716
1040
7.674999868288676
1040
0.4142135623731526
1040
41.21721216833726
1040
7.149999868288688
1040
0.0
1040
42.96721216833702
1040
7.149999868288688
1040
0.4142135623731526
1040
43.49221216833711
1040
7.674999868288676
1040
0.0
1071
        0
1071
        7
1070
     1
1070
     1
1071
       24
1040
48.3922121683372
1040
19.92499986828869
1040
-0.4142135623731546
1040
48.9172121683373
1040
20.44999986828868
1040
0.0
1040
51.89221216833721
1040
20.44999986828868
1040
0.4142135623730911
1040
52.41721216833719
1040
20.97499986828867
1040
0.0
1040
52.41721216833719
1040
22.72499986828869
1040
0.4142135623730952
1040
51.89221216833721
1040
23.24999986828868
1040
0.0
1040
48.3922121683372
1040
23.24999986828868
1040
0.4142135623731048
1040
45.59221216833714
1040
20.44999986828871
1040
0.0
1040
45.59221216833714
1040
18.63479784293344
1040
0.1989123673796613
1040
46.82236368735368
1040
15.66494936194989
1040
0.0
1040
49.73216166199836
1040
12.75515138730522
1040
-0.1989123673796402
1040
50.14221216833721
1040
11.76520189364415
1040
0.0
1040
50.14221216833721
1040
10.47499986828867
1040
-0.4142135623730911
1040
49.61721216833723
1040
9.949999868288685
1040
0.0
1040
46.64221216833721
1040
9.949999868288685
1040
0.4142135623731526
1040
46.11721216833712
1040
9.424999868288697
1040
0.0
1040
46.11721216833712
1040
7.674999868288676
1040
0.4142135623730891
1040
46.64221216833709
1040
7.149999868288688
1040
0.0
1040
50.14221216833721
1040
7.149999868288688
1040
0.4142135623730925
1040
52.94221216833716
1040
9.949999868288664
1040
0.0
1040
52.94221216833716
1040
11.76520189364393
1040
0.1989123673796675
1040
51.71206064932062
1040
14.73505037462759
1040
0.0
1040
48.80226267467605
1040
17.6448483492721
1040
-0.1989123673796652
1040
48.3922121683372
1040
18.63479784293327
1040
0.0
1071
        0
1071
        7
1070
     1
1070
     1
1071
       16
1040
57.84221216833714
1040
22.72499986828867
1040
0.414213562373103
1040
57.31721216833716
1040
23.24999986828868
1040
0.0
1040
55.56721216833716
1040
23.24999986828868
1040
0.4142135623730871
1040
55.04221216833719
1040
22.7249998682887
1040
0.0
1040
55.04221216833719
1040
9.949999868288664
1040
0.4142135623730926
1040
57.84221216833714
1040
7.149999868288688
1040
0.0
1040
61.34221216833714
1040
7.149999868288688
1040
0.4142135623731044
1040
64.14221216833721
1040
9.949999868288664
1040
0.0
1040
64.14221216833721
1040
22.72499986828869
1040
0.4142135623730951
1040
63.61721216833723
1040
23.24999986828868
1040
0.0
1040
61.86721216833712
1040
23.24999986828868
1040
0.4142135623730871
1040
61.34221216833714
1040
22.7249998682887
1040
0.0
1040
61.34221216833714
1040
10.99999986828866
1040
-0.414213562373088
1040
60.29221216833718
1040
9.949999868288685
1040
0.0
1040
58.89221216833721
1040
9.949999868288685
1040
-0.4142135623731197
1040
57.84221216833714
1040
10.99999986828866
1040
0.0
1071
        0
1071
        7
1070
     1
1070
     1
1071
        8
1040
69.04221216833718
1040
22.7249998682887
1040
0.4142135623730871
1040
68.51721216833721
1040
23.24999986828868
1040
0.0
1040
66.76721216833721
1040
23.24999986828868
1040
0.4142135623731507
1040
66.24221216833712
1040
22.7249998682887
1040
0.0
1040
66.24221216833712
1040
7.674999868288676
1040
0.4142135623730891
1040
66.76721216833709
1040
7.149999868288688
1040
0.0
1040
68.51721216833721
1040
7.149999868288688
1040
0.4142135623730891
1040
69.04221216833718
1040
7.674999868288676
1040
0.0
1071
        0
1070
     0
1070
     1
1040
0.0
1040
0.2
1070
     0
1070
     2
1040
0.7853981633974483
1040
-900.942304321123
1040
-13.20000013171124
1040
-0.4490128060534576
1040
0.4490128060534577
1070
     0
1040
2.356194490192344
1040
-900.942304321123
1040
-13.20000013171124
1040
-0.4490128060534577
1040
-0.4490128060534576
1070
     0
1040
0.057451373970553
1071
        8
1040
16.07985497657932
1040
15.16717351417423
1040
0.0
1040
22.40451501999519
1040
18.84406205073969
1040
0.0
1040
25.16436789921567
1040
15.5118815143594
1040
0.0
1040
30.91405999519315
1040
16.20129751473018
1040
0.0
1040
41.83847203251275
1040
16.6609097822718
1040
0.0
1040
46.89820090868557
1040
19.41857618469589
1040
0.0
1040
56.55768598595637
1040
18.72915778338369
1040
0.0
1040
67.82707963317875
1040
19.18877005092531
1040
0.0
1002
}
  0
LINE
  5
7CD
330
1A
100
AcDbEntity
  8
ZUWAKU
100
AcDbLine
 10
24.94221216833716
 20
23.24999986828864
 30
0.0
 11
26.86721216833712
 21
23.24999986828868
 31
0.0
  0
LINE
  5
7CE
330
1A
100
AcDbEntity
  8
ZUWAKU
100
AcDbLine
 10
26.86721216833712
 20
20.44999986828868
 30
0.0
 11
24.94221216833716
 21
20.44999986828868
 31
0.0
  0
LINE
  5
7CF
330
1A
100
AcDbEntity
  8
ZUWAKU
100
AcDbLine
 10
24.94221216833716
 20
9.949999868288685
 30
0.0
 11
26.86721216833712
 21
9.949999868288685
 31
0.0
  0
LINE
  5
7D0
330
1A
100
AcDbEntity
  8
ZUWAKU
100
AcDbLine
 10
26.86721216833712
 20
7.149999868288688
 30
0.0
 11
24.94221216833716
 21
7.149999868288688
 31
0.0
  0
CIRCLE
  5
7D1
330
1A
100
AcDbEntity
  8
ZUWAKU
100
AcDbCircle
 10
25.99221216833711
 20
15.19999986828868
 30
0.0
 40
1.75
  0
ARC
  5
7D2
330
1A
100
AcDbEntity
  8
ZUWAKU
100
AcDbCircle
 10
15.49221216833712
 20
18.63479784293338
 30
0.0
 40
1.399999999999999
100
AcDbArc
 50
180.0000000000016
 51
224.9999999999988
  0
LINE
  5
7D3
330
1A
100
AcDbEntity
  8
ZUWAKU
100
AcDbLine
 10
23.54221216833718
 20
19.04999986828868
 30
0.0
 11
23.54221216833718
 21
11.34999986828869
 31
0.0
  0
LINE
  5
7D4
330
1A
100
AcDbEntity
  8
ZUWAKU
100
AcDbLine
 10
20.74221216833711
 20
11.34999986828869
 30
0.0
 11
20.74221216833711
 21
19.04999986828864
 31
0.0
  0
ARC
  5
7D5
330
1A
100
AcDbEntity
  8
ZUWAKU
100
AcDbCircle
 10
15.49221216833712
 20
18.63479784293338
 30
0.0
 40
4.199999999999999
100
AcDbArc
 50
180.0
 51
225.0
  0
ARC
  5
7D6
330
1A
100
AcDbEntity
  8
ZUWAKU
100
AcDbCircle
 10
15.84221216833714
 20
9.949999868288685
 30
0.0
 40
2.799999999999999
100
AcDbArc
 50
270.0
 51
0.0
  0
ARC
  5
7D7
330
1A
100
AcDbEntity
  8
ZUWAKU
100
AcDbCircle
 10
24.94221216833716
 20
11.34999986828869
 30
0.0
 40
4.199999999999999
100
AcDbArc
 50
180.0
 51
270.0
  0
ARC
  5
7D8
330
1A
100
AcDbEntity
  8
ZUWAKU
100
AcDbCircle
 10
14.44221216833716
 20
11.76520189364399
 30
0.0
 40
4.199999999999999
100
AcDbArc
 50
0.0
 51
45.0
  0
LINE
  5
7D9
330
1A
100
AcDbEntity
  8
ZUWAKU
100
AcDbLine
 10
17.41206064932066
 20
14.73505037462751
 30
0.0
 11
14.50226267467598
 21
17.64484834927218
 31
0.0
  0
LINE
  5
7DA
330
1A
100
AcDbEntity
  8
ZUWAKU
100
AcDbLine
 10
15.84221216833714
 20
10.47499986828869
 30
0.0
 11
15.84221216833714
 21
11.76520189364403
 31
0.0
  0
ARC
  5
7DB
330
1A
100
AcDbEntity
  8
ZUWAKU
100
AcDbCircle
 10
15.31721216833716
 20
10.47499986828869
 30
0.0
 40
0.525
100
AcDbArc
 50
270.0
 51
0.0
  0
ARC
  5
7DC
330
1A
100
AcDbEntity
  8
ZUWAKU
100
AcDbCircle
 10
14.44221216833716
 20
11.76520189364403
 30
0.0
 40
1.399999999999999
100
AcDbArc
 50
0.0
 51
45.0
  0
LINE
  5
7DD
330
1A
100
AcDbEntity
  8
ZUWAKU
100
AcDbLine
 10
11.81721216833716
 20
7.674999868288686
 30
0.0
 11
11.81721216833716
 21
9.424999868288686
 31
0.0
  0
ARC
  5
7DE
330
1A
100
AcDbEntity
  8
ZUWAKU
100
AcDbCircle
 10
12.34221216833714
 20
7.674999868288686
 30
0.0
 40
0.525
100
AcDbArc
 50
180.0
 51
270.0
  0
ARC
  5
7DF
330
1A
100
AcDbEntity
  8
ZUWAKU
100
AcDbCircle
 10
12.34221216833714
 20
9.424999868288686
 30
0.0
 40
0.525
100
AcDbArc
 50
90.0
 51
180.0
  0
LINE
  5
7E0
330
1A
100
AcDbEntity
  8
ZUWAKU
100
AcDbLine
 10
12.34221216833714
 20
7.149999868288688
 30
0.0
 11
15.84221216833714
 21
7.149999868288688
 31
0.0
  0
LINE
  5
7E1
330
1A
100
AcDbEntity
  8
ZUWAKU
100
AcDbLine
 10
12.34221216833714
 20
9.949999868288685
 30
0.0
 11
15.31721216833716
 21
9.949999868288685
 31
0.0
  0
LINE
  5
7E2
330
1A
100
AcDbEntity
  8
ZUWAKU
100
AcDbLine
 10
12.52236368735361
 20
15.66494936194986
 30
0.0
 11
15.43216166199829
 21
12.7551513873052
 31
0.0
  0
LINE
  5
7E3
330
1A
100
AcDbEntity
  8
ZUWAKU
100
AcDbLine
 10
18.64221216833721
 20
9.949999868288685
 30
0.0
 11
18.64221216833721
 21
11.76520189364403
 31
0.0
  0
ARC
  5
7E4
330
1A
100
AcDbEntity
  8
ZUWAKU
100
AcDbCircle
 10
24.94221216833716
 20
11.34999986828869
 30
0.0
 40
1.399999999999999
100
AcDbArc
 50
180.0
 51
270.0
  0
ARC
  5
7E5
330
1A
100
AcDbEntity
  8
ZUWAKU
100
AcDbCircle
 10
17.59221216833714
 20
22.72499986828868
 30
0.0
 40
0.525
100
AcDbArc
 50
0.0
 51
90.0
  0
ARC
  5
7E6
330
1A
100
AcDbEntity
  8
ZUWAKU
100
AcDbCircle
 10
17.59221216833714
 20
20.97499986828868
 30
0.0
 40
0.525
100
AcDbArc
 50
270.0
 51
0.0
  0
LINE
  5
7E7
330
1A
100
AcDbEntity
  8
ZUWAKU
100
AcDbLine
 10
14.09221216833714
 20
23.24999986828868
 30
0.0
 11
17.59221216833714
 21
23.24999986828868
 31
0.0
  0
ARC
  5
7E8
330
1A
100
AcDbEntity
  8
ZUWAKU
100
AcDbCircle
 10
14.61721216833711
 20
19.92499986828868
 30
0.0
 40
0.525
100
AcDbArc
 50
90.0
 51
180.0
  0
LINE
  5
7E9
330
1A
100
AcDbEntity
  8
ZUWAKU
100
AcDbLine
 10
14.09221216833714
 20
19.92499986828868
 30
0.0
 11
14.09221216833714
 21
18.63479784293334
 31
0.0
  0
LINE
  5
7EA
330
1A
100
AcDbEntity
  8
ZUWAKU
100
AcDbLine
 10
17.59221216833714
 20
20.44999986828868
 30
0.0
 11
14.61721216833711
 21
20.44999986828868
 31
0.0
  0
LINE
  5
7EB
330
1A
100
AcDbEntity
  8
ZUWAKU
100
AcDbLine
 10
11.29221216833718
 20
20.44999986828868
 30
0.0
 11
11.29221216833718
 21
18.63479784293334
 31
0.0
  0
ARC
  5
7EC
330
1A
100
AcDbEntity
  8
ZUWAKU
100
AcDbCircle
 10
14.09221216833714
 20
20.44999986828868
 30
0.0
 40
2.799999999999999
100
AcDbArc
 50
90.0
 51
180.0
  0
LINE
  5
7ED
330
1A
100
AcDbEntity
  8
ZUWAKU
100
AcDbLine
 10
18.11721216833712
 20
22.72499986828868
 30
0.0
 11
18.11721216833712
 21
20.97499986828868
 31
0.0
  0
ARC
  5
7EE
330
1A
100
AcDbEntity
  8
ZUWAKU
100
AcDbCircle
 10
24.94221216833716
 20
19.04999986828868
 30
0.0
 40
1.399999999999999
100
AcDbArc
 50
90.0
 51
180.0
  0
ARC
  5
7EF
330
1A
100
AcDbEntity
  8
ZUWAKU
100
AcDbCircle
 10
24.94221216833716
 20
19.04999986828864
 30
0.0
 40
4.199999999999999
100
AcDbArc
 50
90.0
 51
180.0
  0
LINE
  5
7F0
330
1A
100
AcDbEntity
  8
ZUWAKU
100
AcDbLine
 10
79.32662956154422
 20
29.99999986828868
 30
0.0
 11
79.32662956154445
 21
0.7999998682887508
 31
0.0
  0
LINE
  5
7F1
330
1A
100
AcDbEntity
  8
ZUWAKU
100
AcDbLine
 10
79.52662956154426
 20
29.99999986828868
 30
0.0
 11
79.52662956154449
 21
0.7999998682887508
 31
0.0
  0
LINE
  5
7F2
330
1A
100
AcDbEntity
  8
ZUWAKU
100
AcDbLine
 10
79.12662956154441
 20
29.99999986828868
 30
0.0
 11
79.12662956154441
 21
0.7999998682887508
 31
0.0
  0
LINE
  5
7F3
330
1A
100
AcDbEntity
  8
ZUWAKU
100
AcDbLine
 10
64.14221216833721
 20
9.949999868288685
 30
0.0
 11
64.14221216833721
 21
22.72499986828868
 31
0.0
  0
LINE
  5
7F4
330
1A
100
AcDbEntity
  8
ZUWAKU
100
AcDbLine
 10
61.34221216833714
 20
22.72499986828868
 30
0.0
 11
61.34221216833714
 21
10.99999986828868
 31
0.0
  0
LINE
  5
7F5
330
1A
100
AcDbEntity
  8
ZUWAKU
100
AcDbLine
 10
69.04221216833718
 20
7.674999868288686
 30
0.0
 11
69.04221216833718
 21
22.72499986828868
 31
0.0
  0
LINE
  5
7F6
330
1A
100
AcDbEntity
  8
ZUWAKU
100
AcDbLine
 10
66.24221216833712
 20
22.72499986828868
 30
0.0
 11
66.24221216833712
 21
7.674999868288686
 31
0.0
  0
ARC
  5
7F7
330
1A
100
AcDbEntity
  8
ZUWAKU
100
AcDbCircle
 10
49.79221216833718
 20
18.63479784293338
 30
0.0
 40
1.399999999999999
100
AcDbArc
 50
180.0000000000016
 51
224.9999999999988
  0
ARC
  5
7F8
330
1A
100
AcDbEntity
  8
ZUWAKU
100
AcDbCircle
 10
49.79221216833718
 20
18.63479784293338
 30
0.0
 40
4.199999999999999
100
AcDbArc
 50
180.0
 51
225.0
  0
LINE
  5
7F9
330
1A
100
AcDbEntity
  8
ZUWAKU
100
AcDbLine
 10
37.31485865051513
 20
19.20504706185211
 30
0.0
 11
36.05010690517929
 21
15.1999998682887
 31
0.0
  0
LINE
  5
7FA
330
1A
100
AcDbEntity
  8
ZUWAKU
100
AcDbLine
 10
40.69221216833716
 20
22.72499986828868
 30
0.0
 11
40.69221216833716
 21
7.674999868288686
 31
0.0
  0
LINE
  5
7FB
330
1A
100
AcDbEntity
  8
ZUWAKU
100
AcDbLine
 10
43.49221216833711
 20
7.674999868288686
 30
0.0
 11
43.49221216833711
 21
22.72499986828868
 31
0.0
  0
LINE
  5
7FC
330
1A
100
AcDbEntity
  8
ZUWAKU
100
AcDbLine
 10
55.04221216833719
 20
22.72499986828868
 30
0.0
 11
55.04221216833719
 21
9.949999868288685
 31
0.0
  0
LINE
  5
7FD
330
1A
100
AcDbEntity
  8
ZUWAKU
100
AcDbLine
 10
57.84221216833714
 20
10.99999986828868
 30
0.0
 11
57.84221216833714
 21
22.72499986828868
 31
0.0
  0
LINE
  5
7FE
330
1A
100
AcDbEntity
  8
ZUWAKU
100
AcDbLine
 10
32.64221216833721
 20
17.12499986828869
 30
0.0
 11
32.64221216833721
 21
22.72499986828868
 31
0.0
  0
LINE
  5
7FF
330
1A
100
AcDbEntity
  8
ZUWAKU
100
AcDbLine
 10
29.84221216833714
 20
22.72499986828868
 30
0.0
 11
29.84221216833714
 21
7.674999868288686
 31
0.0
  0
LINE
  5
800
330
1A
100
AcDbEntity
  8
ZUWAKU
100
AcDbLine
 10
35.676347105653
 20
22.88309383645565
 30
0.0
 11
33.80807723102122
 21
16.96690590012171
 31
0.0
  0
LINE
  5
801
330
1A
100
AcDbEntity
  8
ZUWAKU
100
AcDbLine
 10
60.29221216833718
 20
9.949999868288685
 30
0.0
 11
58.89221216833721
 21
9.949999868288685
 31
0.0
  0
LINE
  5
802
330
1A
100
AcDbEntity
  8
ZUWAKU
100
AcDbLine
 10
57.84221216833714
 20
7.149999868288688
 30
0.0
 11
61.34221216833714
 21
7.149999868288688
 31
0.0
  0
LINE
  5
803
330
1A
100
AcDbEntity
  8
ZUWAKU
100
AcDbLine
 10
41.21721216833714
 20
7.149999868288688
 30
0.0
 11
42.96721216833714
 21
7.149999868288688
 31
0.0
  0
LINE
  5
804
330
1A
100
AcDbEntity
  8
ZUWAKU
100
AcDbLine
 10
35.676347105653
 20
7.516905900121713
 30
0.0
 11
33.80807723102122
 21
13.43309383645565
 31
0.0
  0
ARC
  5
805
330
1A
100
AcDbEntity
  8
ZUWAKU
100
AcDbCircle
 10
33.30744633182587
 20
17.12499986828869
 30
0.0
 40
0.525
100
AcDbArc
 50
270.0
 51
342.4744316262769
  0
LINE
  5
806
330
1A
100
AcDbEntity
  8
ZUWAKU
100
AcDbLine
 10
33.30744633182587
 20
16.59999986828868
 30
0.0
 11
33.16721216833718
 21
16.59999986828868
 31
0.0
  0
LINE
  5
807
330
1A
100
AcDbEntity
  8
ZUWAKU
100
AcDbLine
 10
33.16721216833718
 20
13.79999986828868
 30
0.0
 11
33.30744633182587
 21
13.79999986828868
 31
0.0
  0
ARC
  5
808
330
1A
100
AcDbEntity
  8
ZUWAKU
100
AcDbCircle
 10
33.16721216833718
 20
17.12499986828869
 30
0.0
 40
0.525
100
AcDbArc
 50
180.0
 51
270.0
  0
LINE
  5
809
330
1A
100
AcDbEntity
  8
ZUWAKU
100
AcDbLine
 10
30.36721216833711
 20
7.149999868288688
 30
0.0
 11
32.11721216833712
 21
7.149999868288688
 31
0.0
  0
ARC
  5
80A
330
1A
100
AcDbEntity
  8
ZUWAKU
100
AcDbCircle
 10
32.11721216833712
 20
7.674999868288686
 30
0.0
 40
0.525
100
AcDbArc
 50
270.0
 51
0.0
  0
LINE
  5
80B
330
1A
100
AcDbEntity
  8
ZUWAKU
100
AcDbLine
 10
32.64221216833721
 20
7.674999868288686
 30
0.0
 11
32.64221216833721
 21
13.27499986828868
 31
0.0
  0
LINE
  5
80C
330
1A
100
AcDbEntity
  8
ZUWAKU
100
AcDbLine
 10
27.39221216833721
 20
9.424999868288686
 30
0.0
 11
27.39221216833721
 21
7.674999868288686
 31
0.0
  0
ARC
  5
80D
330
1A
100
AcDbEntity
  8
ZUWAKU
100
AcDbCircle
 10
26.86721216833712
 20
7.674999868288686
 30
0.0
 40
0.525
100
AcDbArc
 50
270.0
 51
0.0
  0
ARC
  5
80E
330
1A
100
AcDbEntity
  8
ZUWAKU
100
AcDbCircle
 10
26.86721216833712
 20
9.424999868288686
 30
0.0
 40
0.525
100
AcDbArc
 50
0.0
 51
90.0
  0
ARC
  5
80F
330
1A
100
AcDbEntity
  8
ZUWAKU
100
AcDbCircle
 10
30.36721216833711
 20
7.674999868288686
 30
0.0
 40
0.525
100
AcDbArc
 50
180.0
 51
270.0
  0
ARC
  5
810
330
1A
100
AcDbEntity
  8
ZUWAKU
100
AcDbCircle
 10
33.30744633182587
 20
13.27499986828868
 30
0.0
 40
0.525
100
AcDbArc
 50
17.52556837372303
 51
90.0
  0
ARC
  5
811
330
1A
100
AcDbEntity
  8
ZUWAKU
100
AcDbCircle
 10
33.16721216833718
 20
13.27499986828868
 30
0.0
 40
0.525
100
AcDbArc
 50
90.0
 51
180.0
  0
ARC
  5
812
330
1A
100
AcDbEntity
  8
ZUWAKU
100
AcDbCircle
 10
41.21721216833714
 20
7.674999868288686
 30
0.0
 40
0.525
100
AcDbArc
 50
180.0
 51
270.0
  0
LINE
  5
813
330
1A
100
AcDbEntity
  8
ZUWAKU
100
AcDbLine
 10
36.17697800484847
 20
7.149999868288688
 30
0.0
 11
37.87586738445748
 21
7.149999868288688
 31
0.0
  0
ARC
  5
814
330
1A
100
AcDbEntity
  8
ZUWAKU
100
AcDbCircle
 10
37.87586738445748
 20
7.674999868288686
 30
0.0
 40
0.525
100
AcDbArc
 50
270.0
 51
17.52556837372303
  0
LINE
  5
815
330
1A
100
AcDbEntity
  8
ZUWAKU
100
AcDbLine
 10
38.37649828365295
 20
7.83309383645566
 30
0.0
 11
36.05010690517929
 21
15.1999998682887
 31
0.0
  0
ARC
  5
816
330
1A
100
AcDbEntity
  8
ZUWAKU
100
AcDbCircle
 10
36.17697800484847
 20
7.674999868288686
 30
0.0
 40
0.525
100
AcDbArc
 50
197.525568373723
 51
270.0
  0
ARC
  5
817
330
1A
100
AcDbEntity
  8
ZUWAKU
100
AcDbCircle
 10
57.84221216833714
 20
9.949999868288685
 30
0.0
 40
2.799999999999999
100
AcDbArc
 50
180.0
 51
270.0
  0
ARC
  5
818
330
1A
100
AcDbEntity
  8
ZUWAKU
100
AcDbCircle
 10
50.14221216833721
 20
9.949999868288685
 30
0.0
 40
2.799999999999999
100
AcDbArc
 50
270.0
 51
0.0
  0
LINE
  5
819
330
1A
100
AcDbEntity
  8
ZUWAKU
100
AcDbLine
 10
51.71206064932073
 20
14.73505037462751
 30
0.0
 11
48.80226267467595
 21
17.64484834927218
 31
0.0
  0
LINE
  5
81A
330
1A
100
AcDbEntity
  8
ZUWAKU
100
AcDbLine
 10
50.14221216833721
 20
10.47499986828869
 30
0.0
 11
50.14221216833721
 21
11.76520189364403
 31
0.0
  0
ARC
  5
81B
330
1A
100
AcDbEntity
  8
ZUWAKU
100
AcDbCircle
 10
48.74221216833712
 20
11.76520189364403
 30
0.0
 40
1.399999999999999
100
AcDbArc
 50
0.0
 51
45.0
  0
ARC
  5
81C
330
1A
100
AcDbEntity
  8
ZUWAKU
100
AcDbCircle
 10
49.61721216833712
 20
10.47499986828869
 30
0.0
 40
0.525
100
AcDbArc
 50
270.0
 51
0.0
  0
LINE
  5
81D
330
1A
100
AcDbEntity
  8
ZUWAKU
100
AcDbLine
 10
46.11721216833712
 20
7.674999868288686
 30
0.0
 11
46.11721216833712
 21
9.424999868288686
 31
0.0
  0
ARC
  5
81E
330
1A
100
AcDbEntity
  8
ZUWAKU
100
AcDbCircle
 10
46.64221216833721
 20
7.674999868288686
 30
0.0
 40
0.525
100
AcDbArc
 50
180.0
 51
270.0
  0
ARC
  5
81F
330
1A
100
AcDbEntity
  8
ZUWAKU
100
AcDbCircle
 10
42.96721216833714
 20
7.674999868288686
 30
0.0
 40
0.525
100
AcDbArc
 50
270.0
 51
0.0
  0
ARC
  5
820
330
1A
100
AcDbEntity
  8
ZUWAKU
100
AcDbCircle
 10
46.64221216833721
 20
9.424999868288686
 30
0.0
 40
0.525
100
AcDbArc
 50
90.0
 51
180.0
  0
LINE
  5
821
330
1A
100
AcDbEntity
  8
ZUWAKU
100
AcDbLine
 10
46.64221216833721
 20
9.949999868288685
 30
0.0
 11
49.61721216833712
 21
9.949999868288685
 31
0.0
  0
LINE
  5
822
330
1A
100
AcDbEntity
  8
ZUWAKU
100
AcDbLine
 10
46.64221216833721
 20
7.149999868288688
 30
0.0
 11
50.14221216833721
 21
7.149999868288688
 31
0.0
  0
LINE
  5
823
330
1A
100
AcDbEntity
  8
ZUWAKU
100
AcDbLine
 10
46.82236368735368
 20
15.66494936194986
 30
0.0
 11
49.73216166199836
 21
12.7551513873052
 31
0.0
  0
LINE
  5
824
330
1A
100
AcDbEntity
  8
ZUWAKU
100
AcDbLine
 10
52.94221216833716
 20
9.949999868288685
 30
0.0
 11
52.94221216833716
 21
11.76520189364403
 31
0.0
  0
ARC
  5
825
330
1A
100
AcDbEntity
  8
ZUWAKU
100
AcDbCircle
 10
48.74221216833712
 20
11.76520189364399
 30
0.0
 40
4.199999999999999
100
AcDbArc
 50
0.0
 51
45.0
  0
ARC
  5
826
330
1A
100
AcDbEntity
  8
ZUWAKU
100
AcDbCircle
 10
58.89221216833721
 20
10.99999986828868
 30
0.0
 40
1.049999999999999
100
AcDbArc
 50
180.0
 51
270.0
  0
ARC
  5
827
330
1A
100
AcDbEntity
  8
ZUWAKU
100
AcDbCircle
 10
61.34221216833714
 20
9.949999868288685
 30
0.0
 40
2.799999999999999
100
AcDbArc
 50
270.0
 51
0.0
  0
LINE
  5
828
330
1A
100
AcDbEntity
  8
ZUWAKU
100
AcDbLine
 10
66.76721216833721
 20
7.149999868288688
 30
0.0
 11
68.51721216833721
 21
7.149999868288688
 31
0.0
  0
ARC
  5
829
330
1A
100
AcDbEntity
  8
ZUWAKU
100
AcDbCircle
 10
66.76721216833721
 20
7.674999868288686
 30
0.0
 40
0.525
100
AcDbArc
 50
180.0
 51
270.0
  0
ARC
  5
82A
330
1A
100
AcDbEntity
  8
ZUWAKU
100
AcDbCircle
 10
60.29221216833718
 20
10.99999986828868
 30
0.0
 40
1.049999999999999
100
AcDbArc
 50
270.0
 51
0.0
  0
ARC
  5
82B
330
1A
100
AcDbEntity
  8
ZUWAKU
100
AcDbCircle
 10
68.51721216833721
 20
7.674999868288686
 30
0.0
 40
0.525
100
AcDbArc
 50
270.0
 51
0.0
  0
LINE
  5
82C
330
1A
100
AcDbEntity
  8
ZUWAKU
100
AcDbLine
 10
42.96721216833714
 20
23.24999986828868
 30
0.0
 11
41.21721216833714
 21
23.24999986828868
 31
0.0
  0
ARC
  5
82D
330
1A
100
AcDbEntity
  8
ZUWAKU
100
AcDbCircle
 10
32.11721216833712
 20
22.72499986828868
 30
0.0
 40
0.525
100
AcDbArc
 50
0.0
 51
90.0
  0
LINE
  5
82E
330
1A
100
AcDbEntity
  8
ZUWAKU
100
AcDbLine
 10
32.11721216833712
 20
23.24999986828868
 30
0.0
 11
30.36721216833711
 21
23.24999986828868
 31
0.0
  0
ARC
  5
82F
330
1A
100
AcDbEntity
  8
ZUWAKU
100
AcDbCircle
 10
26.86721216833712
 20
22.72499986828868
 30
0.0
 40
0.525
100
AcDbArc
 50
0.0
 51
90.0
  0
ARC
  5
830
330
1A
100
AcDbEntity
  8
ZUWAKU
100
AcDbCircle
 10
30.36721216833711
 20
22.72499986828868
 30
0.0
 40
0.525
100
AcDbArc
 50
90.0
 51
180.0
  0
ARC
  5
831
330
1A
100
AcDbEntity
  8
ZUWAKU
100
AcDbCircle
 10
26.86721216833712
 20
20.97499986828868
 30
0.0
 40
0.525
100
AcDbArc
 50
270.0
 51
0.0
  0
LINE
  5
832
330
1A
100
AcDbEntity
  8
ZUWAKU
100
AcDbLine
 10
27.39221216833721
 20
22.72499986828868
 30
0.0
 11
27.39221216833721
 21
20.97499986828868
 31
0.0
  0
ARC
  5
833
330
1A
100
AcDbEntity
  8
ZUWAKU
100
AcDbCircle
 10
41.21721216833714
 20
22.72499986828868
 30
0.0
 40
0.525
100
AcDbArc
 50
90.0
 51
180.0
  0
LINE
  5
834
330
1A
100
AcDbEntity
  8
ZUWAKU
100
AcDbLine
 10
36.17697800484847
 20
23.24999986828868
 30
0.0
 11
37.87586738445748
 21
23.24999986828868
 31
0.0
  0
ARC
  5
835
330
1A
100
AcDbEntity
  8
ZUWAKU
100
AcDbCircle
 10
37.87586738445748
 20
22.72499986828868
 30
0.0
 40
0.525
100
AcDbArc
 50
342.4744316262769
 51
90.0
  0
LINE
  5
836
330
1A
100
AcDbEntity
  8
ZUWAKU
100
AcDbLine
 10
38.37649828365295
 20
22.56690590012171
 30
0.0
 11
37.31485865051513
 21
19.20504706185211
 31
0.0
  0
ARC
  5
837
330
1A
100
AcDbEntity
  8
ZUWAKU
100
AcDbCircle
 10
36.17697800484847
 20
22.72499986828868
 30
0.0
 40
0.525
100
AcDbArc
 50
90.0
 51
162.4744316262769
  0
LINE
  5
838
330
1A
100
AcDbEntity
  8
ZUWAKU
100
AcDbLine
 10
48.3922121683372
 20
23.24999986828868
 30
0.0
 11
51.89221216833721
 21
23.24999986828868
 31
0.0
  0
LINE
  5
839
330
1A
100
AcDbEntity
  8
ZUWAKU
100
AcDbLine
 10
51.89221216833721
 20
20.44999986828868
 30
0.0
 11
48.91721216833719
 21
20.44999986828868
 31
0.0
  0
ARC
  5
83A
330
1A
100
AcDbEntity
  8
ZUWAKU
100
AcDbCircle
 10
48.91721216833719
 20
19.92499986828868
 30
0.0
 40
0.525
100
AcDbArc
 50
90.0
 51
180.0
  0
LINE
  5
83B
330
1A
100
AcDbEntity
  8
ZUWAKU
100
AcDbLine
 10
48.3922121683372
 20
19.92499986828868
 30
0.0
 11
48.3922121683372
 21
18.63479784293334
 31
0.0
  0
ARC
  5
83C
330
1A
100
AcDbEntity
  8
ZUWAKU
100
AcDbCircle
 10
42.96721216833714
 20
22.72499986828868
 30
0.0
 40
0.525
100
AcDbArc
 50
0.0
 51
90.0
  0
LINE
  5
83D
330
1A
100
AcDbEntity
  8
ZUWAKU
100
AcDbLine
 10
45.59221216833714
 20
20.44999986828868
 30
0.0
 11
45.59221216833714
 21
18.63479784293334
 31
0.0
  0
ARC
  5
83E
330
1A
100
AcDbEntity
  8
ZUWAKU
100
AcDbCircle
 10
48.3922121683372
 20
20.44999986828868
 30
0.0
 40
2.799999999999999
100
AcDbArc
 50
90.0
 51
180.0
  0
ARC
  5
83F
330
1A
100
AcDbEntity
  8
ZUWAKU
100
AcDbCircle
 10
57.31721216833716
 20
22.72499986828868
 30
0.0
 40
0.525
100
AcDbArc
 50
0.0
 51
90.0
  0
ARC
  5
840
330
1A
100
AcDbEntity
  8
ZUWAKU
100
AcDbCircle
 10
55.56721216833716
 20
22.72499986828868
 30
0.0
 40
0.525
100
AcDbArc
 50
90.0
 51
180.0
  0
LINE
  5
841
330
1A
100
AcDbEntity
  8
ZUWAKU
100
AcDbLine
 10
57.31721216833716
 20
23.24999986828868
 30
0.0
 11
55.56721216833716
 21
23.24999986828868
 31
0.0
  0
ARC
  5
842
330
1A
100
AcDbEntity
  8
ZUWAKU
100
AcDbCircle
 10
51.89221216833721
 20
22.72499986828868
 30
0.0
 40
0.525
100
AcDbArc
 50
0.0
 51
90.0
  0
ARC
  5
843
330
1A
100
AcDbEntity
  8
ZUWAKU
100
AcDbCircle
 10
51.89221216833721
 20
20.97499986828868
 30
0.0
 40
0.525
100
AcDbArc
 50
270.0
 51
0.0
  0
LINE
  5
844
330
1A
100
AcDbEntity
  8
ZUWAKU
100
AcDbLine
 10
52.41721216833719
 20
22.72499986828868
 30
0.0
 11
52.41721216833719
 21
20.97499986828868
 31
0.0
  0
LINE
  5
845
330
1A
100
AcDbEntity
  8
ZUWAKU
100
AcDbLine
 10
68.51721216833721
 20
23.24999986828868
 30
0.0
 11
66.76721216833721
 21
23.24999986828868
 31
0.0
  0
ARC
  5
846
330
1A
100
AcDbEntity
  8
ZUWAKU
100
AcDbCircle
 10
66.76721216833721
 20
22.72499986828868
 30
0.0
 40
0.525
100
AcDbArc
 50
90.0
 51
180.0
  0
ARC
  5
847
330
1A
100
AcDbEntity
  8
ZUWAKU
100
AcDbCircle
 10
63.61721216833712
 20
22.72499986828868
 30
0.0
 40
0.525
100
AcDbArc
 50
0.0
 51
90.0
  0
LINE
  5
848
330
1A
100
AcDbEntity
  8
ZUWAKU
100
AcDbLine
 10
63.61721216833712
 20
23.24999986828868
 30
0.0
 11
61.86721216833712
 21
23.24999986828868
 31
0.0
  0
ARC
  5
849
330
1A
100
AcDbEntity
  8
ZUWAKU
100
AcDbCircle
 10
61.86721216833712
 20
22.72499986828868
 30
0.0
 40
0.525
100
AcDbArc
 50
90.0
 51
180.0
  0
ARC
  5
84A
330
1A
100
AcDbEntity
  8
ZUWAKU
100
AcDbCircle
 10
68.51721216833721
 20
22.72499986828868
 30
0.0
 40
0.525
100
AcDbArc
 50
0.0
 51
90.0
  0
TEXT
  5
84B
330
1A
100
AcDbEntity
  8
MOJI
100
AcDbText
 10
232.9437472122447
 20
18.49638002453343
 30
0.0
 40
5.599999999999999
  1
曲り（入）
 41
0.9
  7
ｽﾀｲﾙ1
100
AcDbText
  0
LINE
  5
84D
330
1A
100
AcDbEntity
  8
ZUWAKU
100
AcDbLine
 10
208.2466013036239
 20
29.99999986828868
 30
0.0
 11
208.2466013036239
 21
0.7999998682887508
 31
0.0
  0
LINE
  5
84E
330
1A
100
AcDbEntity
  8
ZUWAKU
100
AcDbLine
 10
208.6466013036238
 20
29.99999986828868
 30
0.0
 11
208.646601303624
 21
0.7999998682887508
 31
0.0
  0
LINE
  5
84F
330
1A
100
AcDbEntity
  8
ZUWAKU
100
AcDbLine
 10
208.4466013036237
 20
29.99999986828868
 30
0.0
 11
208.446601303624
 21
0.7999998682887508
 31
0.0
  0
TEXT
  5
850
330
1A
100
AcDbEntity
  8
ZUWAKU
100
AcDbText
 10
209.7240463258335
 20
9.6553564066743
 30
0.0
 40
4.0
  1
サイズ
 41
0.9
  7
ｽﾀｲﾙ1
100
AcDbText
  0
TEXT
  5
851
330
1A
100
AcDbEntity
  8
ZUWAKU
100
AcDbText
 10
209.7240463258333
 20
24.05535640667426
 30
0.0
 40
4.0
  1
品名
 41
0.9
  7
ｽﾀｲﾙ1
100
AcDbText
  0
LINE
  5
852
330
1A
100
AcDbEntity
  8
ZUWAKU
100
AcDbLine
 10
648.8172025237602
 20
15.19999986828871
 30
0.0
 11
697.2490105620972
 21
15.19999986828871
 31
0.0
  0
LINE
  5
853
330
1A
100
AcDbEntity
  8
ZUWAKU
100
AcDbLine
 10
648.8172025237604
 20
15.39999986828872
 30
0.0
 11
697.2490105620972
 21
15.39999986828871
 31
0.0
  0
LINE
  5
854
330
1A
100
AcDbEntity
  8
ZUWAKU
100
AcDbLine
 10
648.8172025237602
 20
15.59999986828871
 30
0.0
 11
697.2490105620972
 21
15.59999986828871
 31
0.0
  0
TEXT
  5
855
330
1A
100
AcDbEntity
  8
ZUWAKU
100
AcDbText
 10
658.2039377008584
 20
18.00492092569607
 30
0.0
 40
5.599999999999999
  1
　　．　　．　　
 41
0.9
  7
ｽﾀｲﾙ1
100
AcDbText
  0
LINE
  5
856
330
1A
100
AcDbEntity
  8
ZUWAKU
100
AcDbLine
 10
505.1991795116968
 20
15.19999986828872
 30
0.0
 11
552.5269557796685
 21
15.19999986828872
 31
0.0
  0
LINE
  5
857
330
1A
100
AcDbEntity
  8
ZUWAKU
100
AcDbLine
 10
505.1991795116968
 20
15.39999986828871
 30
0.0
 11
552.5269557796685
 21
15.39999986828871
 31
0.0
  0
LINE
  5
858
330
1A
100
AcDbEntity
  8
ZUWAKU
100
AcDbLine
 10
505.1991795116968
 20
15.59999986828871
 30
0.0
 11
552.5269557796685
 21
15.59999986828871
 31
0.0
  0
LINE
  5
85A
330
1A
100
AcDbEntity
  8
ZUWAKU
100
AcDbLine
 10
447.6243639845472
 20
29.99999986828868
 30
0.0
 11
447.6243639845474
 21
0.7999998682887508
 31
0.0
  0
LINE
  5
85B
330
1A
100
AcDbEntity
  8
ZUWAKU
100
AcDbLine
 10
447.8243639845472
 20
29.99999986828868
 30
0.0
 11
447.8243639845475
 21
0.7999998682887508
 31
0.0
  0
LINE
  5
85C
330
1A
100
AcDbEntity
  8
ZUWAKU
100
AcDbLine
 10
447.4243639845474
 20
29.99999986828868
 30
0.0
 11
447.4243639845474
 21
0.7999998682887508
 31
0.0
  0
TEXT
  5
85D
330
1A
100
AcDbEntity
  8
MOJI
100
AcDbText
 10
528.0409079858689
 20
18.00492092569607
 30
0.0
 40
5.599999999999999
  1
Ａ３
 41
0.9
  7
ｽﾀｲﾙ1
100
AcDbText
  0
LINE
  5
85E
330
1A
100
AcDbEntity
  8
ZUWAKU
100
AcDbLine
 10
504.9991795116969
 20
29.99999986828868
 30
0.0
 11
504.999179511697
 21
0.7999998682887508
 31
0.0
  0
LINE
  5
85F
330
1A
100
AcDbEntity
  8
ZUWAKU
100
AcDbLine
 10
505.1991795116968
 20
29.99999986828868
 30
0.0
 11
505.1991795116971
 21
0.7999998682887508
 31
0.0
  0
LINE
  5
860
330
1A
100
AcDbEntity
  8
ZUWAKU
100
AcDbLine
 10
504.799179511697
 20
29.99999986828868
 30
0.0
 11
504.799179511697
 21
0.7999998682887508
 31
0.0
  0
TEXT
  5
861
330
1A
100
AcDbEntity
  8
ZUWAKU
100
AcDbText
 10
462.1716760137121
 20
2.614070779428175
 30
0.0
 40
3.0
  1
□には色品番が入ります
 41
0.9
  7
ｽﾀｲﾙ1
100
AcDbText
  0
TEXT
  5
862
330
1A
100
AcDbEntity
  8
ZUWAKU
100
AcDbText
 10
506.6766245339067
 20
9.6553564066743
 30
0.0
 40
4.0
  1
縮尺
 41
0.9
  7
ｽﾀｲﾙ1
100
AcDbText
  0
TEXT
  5
863
330
1A
100
AcDbEntity
  8
MOJI
100
AcDbText
 10
528.0409079858689
 20
3.204920925696104
 30
0.0
 40
5.599999999999999
  1
１/２
 41
0.9
  7
ｽﾀｲﾙ1
100
AcDbText
  0
TEXT
  5
864
330
1A
100
AcDbEntity
  8
ZUWAKU
100
AcDbText
 10
449.3018090067569
 20
24.05535640667426
 30
0.0
 40
4.0
  1
品番
 41
0.9
  7
ｽﾀｲﾙ1
100
AcDbText
  0
TEXT
  5
865
330
1A
100
AcDbEntity
  8
ZUWAKU
100
AcDbText
 10
506.6766245339065
 20
24.05535640667426
 30
0.0
 40
4.0
  1
用紙
 41
0.9
  7
ｽﾀｲﾙ1
100
AcDbText
  0
LINE
  5
866
330
1A
100
AcDbEntity
  8
ZUWAKU
100
AcDbLine
 10
648.6172025237603
 20
29.99999986828868
 30
0.0
 11
648.6172025237606
 21
0.7999998682887508
 31
0.0
  0
LINE
  5
867
330
1A
100
AcDbEntity
  8
ZUWAKU
100
AcDbLine
 10
648.8172025237604
 20
29.99999986828868
 30
0.0
 11
648.8172025237607
 21
0.7999998682887508
 31
0.0
  0
LINE
  5
868
330
1A
100
AcDbEntity
  8
ZUWAKU
100
AcDbLine
 10
648.4172025237605
 20
29.99999986828868
 30
0.0
 11
648.4172025237605
 21
0.7999998682887508
 31
0.0
  0
LINE
  5
869
330
1A
100
AcDbEntity
  8
ZUWAKU
100
AcDbLine
 10
552.7269557796683
 20
29.99999986828868
 30
0.0
 11
552.7269557796684
 21
0.7999998682887508
 31
0.0
  0
LINE
  5
86A
330
1A
100
AcDbEntity
  8
ZUWAKU
100
AcDbLine
 10
552.9269557796683
 20
29.99999986828868
 30
0.0
 11
552.9269557796685
 21
0.7999998682887508
 31
0.0
  0
LINE
  5
86B
330
1A
100
AcDbEntity
  8
ZUWAKU
100
AcDbLine
 10
552.5269557796685
 20
29.99999986828868
 30
0.0
 11
552.5269557796685
 21
0.7999998682887508
 31
0.0
  0
TEXT
  5
86C
330
1A
100
AcDbEntity
  8
ZUWAKU
100
AcDbText
 10
650.29464754597
 20
24.05535640667426
 30
0.0
 40
4.0
  1
DATE
 41
0.9
  7
ｽﾀｲﾙ1
100
AcDbText
  0
LINE
  5
86D
330
1A
100
AcDbEntity
  8
ZUWAKU
100
AcDbLine
 10
697.2490105620972
 20
29.99999986828868
 30
0.0
 11
697.2490105620972
 21
0.7999998682887508
 31
0.0
  0
LINE
  5
86E
330
1A
100
AcDbEntity
  8
ZUWAKU
100
AcDbLine
 10
697.4490105620973
 20
29.99999986828868
 30
0.0
 11
697.4490105620973
 21
0.7999998682887508
 31
0.0
  0
LINE
  5
86F
330
1A
100
AcDbEntity
  8
ZUWAKU
100
AcDbLine
 10
697.6490105620971
 20
29.99999986828868
 30
0.0
 11
697.6490105620974
 21
0.7999998682887508
 31
0.0
  0
LINE
  5
870
330
1A
100
AcDbEntity
  8
ZUWAKU
100
AcDbLine
 10
697.8490105620972
 20
29.99999986828868
 30
0.0
 11
697.8490105620974
 21
0.7999998682887508
 31
0.0
  0
TEXT
  5
871
330
1A
100
AcDbEntity
  8
ZUWAKU
100
AcDbText
 10
708.5280842057998
 20
17.55383920397548
 30
0.0
 40
6.0
  1
積水化学工業株式会社
 41
0.9
  7
ｽﾀｲﾙ1
100
AcDbText
  0
TEXT
  5
872
330
1A
100
AcDbEntity
  8
ZUWAKU
100
AcDbText
 10
708.5280842057998
 20
6.648840182142748
 30
0.0
 40
6.0
  1
建材事業部
 41
0.9
  7
ｽﾀｲﾙ1
100
AcDbText
  0
LINE
  5
2AA0
330
1A
100
AcDbEntity
  8
SEIHIN
100
AcDbLine
 10
343.4129132316138
 20
195.738864714785
 30
0.0
 11
303.9122224559587
 21
195.738864714785
 31
0.0
  0
LINE
  5
2AA5
330
1A
100
AcDbEntity
  8
SEIHIN
100
AcDbLine
 10
303.912222455956
 20
87.21981683430886
 30
0.0
 11
345.8873213493798
 21
87.21981683430886
 31
0.0
  0
LINE
  5
2AA8
330
1A
100
AcDbEntity
  8
SEIHIN
100
AcDbLine
 10
303.9122224559565
 20
72.22027311044911
 30
0.0
 11
363.8632134551953
 21
72.22027311044894
 31
0.0
  0
LINE
  5
2AA9
330
1A
100
AcDbEntity
  8
SEIHIN
100
AcDbLine
 10
303.9122224559557
 20
70.86000857867919
 30
0.0
 11
412.9049309283653
 21
70.86000857867907
 31
0.0
  0
LINE
  5
2AAA
330
1A
100
AcDbEntity
  8
SEIHIN
100
AcDbLine
 10
279.9138211772078
 20
138.4668432261777
 30
0.0
 11
279.913821177208
 21
71.66000857868005
 31
0.0
  0
LINE
  5
2AAD
330
1A
100
AcDbEntity
  8
SEIHIN
100
AcDbLine
 10
279.9138211772096
 20
195.4938314667605
 30
0.0
 11
279.9138211772094
 21
88.75488140535578
 31
0.0
  0
LINE
  5
2AAE
330
1A
100
AcDbEntity
  8
SEIHIN
100
AcDbLine
 10
279.9138211772085
 20
71.66000857867999
 30
0.0
 11
295.9186147861846
 21
71.0198168343212
 31
0.0
  0
LINE
  5
2AB0
330
1A
100
AcDbEntity
  8
SEIHIN
100
AcDbLine
 10
279.9138211772094
 20
88.01981683430971
 30
0.0
 11
295.9186147861871
 21
87.37962508995082
 31
0.0
  0
POLYLINE
  5
2AB3
330
1A
100
AcDbEntity
  8
SEIHIN
100
AcDb2dPolyline
 66
     1
 10
0.0
 20
0.0
 30
0.0
  0
VERTEX
  5
5FB8
330
2AB3
100
AcDbEntity
  8
SEIHIN
100
AcDbVertex
100
AcDb2dVertex
 10
279.9138211772023
 20
72.98532002948455
 30
0.0
  0
VERTEX
  5
5FB9
330
2AB3
100
AcDbEntity
  8
SEIHIN
100
AcDbVertex
100
AcDb2dVertex
 10
285.9053614944017
 20
72.75610879655234
 30
0.0
  0
VERTEX
  5
5FBA
330
2AB3
100
AcDbEntity
  8
SEIHIN
100
AcDbVertex
100
AcDb2dVertex
 10
295.9186147861784
 20
72.37314217938752
 30
0.0
  0
SEQEND
  5
5FBB
330
2AB3
100
AcDbEntity
  8
SEIHIN
  0
ARC
  5
2AB9
330
1A
100
AcDbEntity
  8
SEIHIN
100
AcDbCircle
 10
303.9122224559557
 20
270.8600085786792
 30
0.0
 40
200.0
100
AcDbArc
 50
267.7093899573605
 51
270.0
  0
POLYLINE
  5
2ABB
330
1A
100
AcDbEntity
  8
SEIHIN
100
AcDb2dPolyline
 66
     1
 10
0.0
 20
0.0
 30
0.0
  0
VERTEX
  5
5FBC
330
2ABB
100
AcDbEntity
  8
SEIHIN
100
AcDbVertex
100
AcDb2dVertex
 10
295.9186147861871
 20
87.37962508995083
 30
0.0
  0
VERTEX
  5
5FBD
330
2ABB
100
AcDbEntity
  8
SEIHIN
100
AcDbVertex
100
AcDb2dVertex
 10
299.9301974563172
 20
87.25946207141531
 30
0.0
  0
VERTEX
  5
5FBE
330
2ABB
100
AcDbEntity
  8
SEIHIN
100
AcDbVertex
100
AcDb2dVertex
 10
303.9122224559586
 20
87.21981683430884
 30
0.0
  0
SEQEND
  5
5FBF
330
2ABB
100
AcDbEntity
  8
SEIHIN
  0
ARC
  5
2ABE
330
1A
100
AcDbEntity
  8
SEIHIN
100
AcDbCircle
 10
303.9119208452228
 20
281.2760064207635
 30
0.0
 40
209.0557333105319
100
AcDbArc
 50
267.8087452657384
 51
270.0000826622729
  0
LINE
  5
2ACA
330
1A
100
AcDbEntity
  8
SEIHIN
100
AcDbLine
 10
279.9138211772078
 20
154.8350707681064
 30
0.0
 11
279.9138211772078
 21
143.0807858511113
 31
0.0
  0
LINE
  5
2ACB
330
1A
100
AcDbEntity
  8
SEIHIN
100
AcDbLine
 10
279.9138211772078
 20
143.0807858511113
 30
0.0
 11
279.9138211772078
 21
138.4668432261777
 31
0.0
  0
LINE
  5
2AD1
330
1A
100
AcDbEntity
  8
SEIHIN
100
AcDbLine
 10
296.0435142870089
 20
195.6908315471436
 30
0.0
 11
279.9138211772096
 21
195.4938314667605
 31
0.0
  0
POLYLINE
  5
2ADE
330
1A
100
AcDbEntity
  8
SEIHIN
100
AcDb2dPolyline
 66
     1
 10
0.0
 20
0.0
 30
0.0
  0
VERTEX
  5
5FC0
330
2ADE
100
AcDbEntity
  8
SEIHIN
100
AcDbVertex
100
AcDb2dVertex
 10
303.9122224559587
 20
195.738864714785
 30
0.0
  0
VERTEX
  5
5FC1
330
2ADE
100
AcDbEntity
  8
SEIHIN
100
AcDbVertex
100
AcDb2dVertex
 10
301.9445633890284
 20
195.7358622882909
 30
0.0
  0
VERTEX
  5
5FC2
330
2ADE
100
AcDbEntity
  8
SEIHIN
100
AcDbVertex
100
AcDb2dVertex
 10
296.0435142870089
 20
195.6908315471436
 30
0.0
  0
SEQEND
  5
5FC3
330
2ADE
100
AcDbEntity
  8
SEIHIN
  0
ARC
  5
2AEB
330
1A
100
AcDbEntity
  8
SEIHIN
100
AcDbCircle
 10
412.9049309283659
 20
1073.360008578666
 30
0.0
 40
997.8873478855527
100
AcDbArc
 50
270.6990896552725
 51
272.4789457318542
  0
ARC
  5
2AEF
330
1A
100
AcDbEntity
  8
SEIHIN
100
AcDbCircle
 10
412.9049309283659
 20
1073.360008578666
 30
0.0
 40
999.9999999999872
100
AcDbArc
 50
267.2627870055292
 51
272.6029313512963
  0
ARC
  5
2AF0
330
1A
100
AcDbEntity
  8
SEIHIN
100
AcDbCircle
 10
412.9049309283659
 20
1073.360008578666
 30
0.0
 40
1001.699999999986
100
AcDbArc
 50
267.2275934445475
 51
272.6125920462549
  0
ARC
  5
2AF2
330
1A
100
AcDbEntity
  8
SEIHIN
100
AcDbCircle
 10
414.5753068043608
 20
1070.393119680045
 30
0.0
 40
999.4602283436321
100
AcDbArc
 50
267.0915930212479
 51
272.5621865575674
  0
LINE
  5
2AF4
330
1A
100
AcDbEntity
  8
SEIHIN
100
AcDbLine
 10
469.7049309283657
 20
153.8600085786668
 30
0.0
 11
355.0344796949969
 21
153.8600085786669
 31
0.0
  0
LINE
  5
2AF5
330
1A
100
AcDbEntity
  8
SEIHIN
100
AcDbLine
 10
444.6947989221955
 20
78.61761174508382
 30
0.0
 11
423.2049309283659
 21
78.61761174508377
 31
0.0
  0
ARC
  5
2AFA
330
1A
100
AcDbEntity
  8
SEIHIN
100
AcDbCircle
 10
1341.694797766859
 20
193.3439422404873
 30
0.0
 40
995.6474047869946
100
AcDbArc
 50
184.0661921727496
 51
185.0820673697013
  0
ARC
  5
2AFB
330
1A
100
AcDbEntity
  8
SEIHIN
100
AcDbCircle
 10
1341.694797766859
 20
193.3439422404873
 30
0.0
 40
997.7142509364815
100
AcDbArc
 50
184.0602006215404
 51
185.1658952121891
  0
ARC
  5
2AFE
330
1A
100
AcDbEntity
  8
SEIHIN
100
AcDbCircle
 10
1341.694797766859
 20
193.3439422404873
 30
0.0
 40
998.1500000007356
100
AcDbArc
 50
183.7971818416701
 51
185.1836305351948
  0
ARC
  5
2AFF
330
1A
100
AcDbEntity
  8
SEIHIN
100
AcDbCircle
 10
1341.694797766859
 20
193.3439422404873
 30
0.0
 40
1001.700000000734
100
AcDbArc
 50
181.500000000001
 51
185.9932651509742
  0
ARC
  5
2B00
330
1A
100
AcDbEntity
  8
SEIHIN
100
AcDbCircle
 10
1341.694797766859
 20
193.3439422404873
 30
0.0
 40
1000.000000000735
100
AcDbArc
 50
180.1258758455573
 51
185.9054308524842
  0
ARC
  5
2B01
330
1A
100
AcDbEntity
  8
SEIHIN
100
AcDbCircle
 10
1341.694797766859
 20
193.3439422404873
 30
0.0
 40
1002.340191745093
100
AcDbArc
 50
181.500000000001
 51
186.0262528955985
  0
ARC
  5
2B07
330
1A
100
AcDbEntity
  8
SEIHIN
100
AcDbCircle
 10
412.9049309283659
 20
1073.360008578666
 30
0.0
 40
997.7142509357332
100
AcDbArc
 50
267.4532500254681
 51
269.2231370884633
  0
ARC
  5
2B08
330
1A
100
AcDbEntity
  8
SEIHIN
100
AcDbCircle
 10
412.9049309283659
 20
1073.360008578667
 30
0.0
 40
995.6474047862471
100
AcDbArc
 50
267.4314109553716
 51
269.2219925420318
  0
ARC
  5
2B0C
330
1A
100
AcDbEntity
  8
SEIHIN
100
AcDbCircle
 10
412.9049309283659
 20
1073.360008578666
 30
0.0
 40
998.1499999999872
100
AcDbArc
 50
267.4558243065411
 51
269.4086167964181
  0
ARC
  5
2B0D
330
1A
100
AcDbEntity
  8
SEIHIN
100
AcDbCircle
 10
346.4635022156183
 20
88.85904115762832
 30
0.0
 40
0.9990325904672971
100
AcDbArc
 50
185.984569108862
 51
270.008696042116
  0
LINE
  5
2B0F
330
1A
100
AcDbEntity
  8
SEIHIN
100
AcDbLine
 10
345.8873213493798
 20
87.21981683430881
 30
0.0
 11
359.0349278436101
 21
87.21981683430881
 31
0.0
  0
ARC
  5
2B12
330
1A
100
AcDbEntity
  8
SEIHIN
100
AcDbCircle
 10
345.8889652903649
 20
88.22084441585628
 30
0.0
 40
1.001028931430402
100
AcDbArc
 50
186.1203470017506
 51
269.9059058938266
  0
LINE
  5
2B1B
330
1A
100
AcDbEntity
  8
SEIHIN
100
AcDbLine
 10
365.2413138042784
 20
79.8222159661284
 30
0.0
 11
363.6418560709357
 21
98.10502345749341
 31
0.0
  0
LINE
  5
2B1C
330
1A
100
AcDbEntity
  8
SEIHIN
100
AcDbLine
 10
365.7277604098124
 20
97.97741228915619
 30
0.0
 11
367.3333292413049
 21
79.62475110380854
 31
0.0
  0
LINE
  5
2B1F
330
1A
100
AcDbEntity
  8
SEIHIN
100
AcDbLine
 10
363.2344745634932
 20
97.76174018881238
 30
0.0
 11
364.8033293225655
 21
79.82874393383139
 31
0.0
  0
ARC
  5
2B20
330
1A
100
AcDbEntity
  8
SEIHIN
100
AcDbCircle
 10
364.5985307027156
 20
75.82610759672718
 30
0.0
 40
2.997145364179761
100
AcDbArc
 50
184.992115197315
 51
267.2352273913402
  0
LINE
  5
2B21
330
1A
100
AcDbEntity
  8
SEIHIN
100
AcDbLine
 10
363.2528421948588
 20
76.32435480922686
 30
0.0
 11
362.1747908067509
 21
88.64715995981288
 31
0.0
  0
ARC
  5
2B22
330
1A
100
AcDbEntity
  8
SEIHIN
100
AcDbCircle
 10
364.0148870017369
 20
75.2194907741831
 30
0.0
 40
3.00305035908078
100
AcDbArc
 50
185.0903470482202
 51
267.1049593051947
  0
LINE
  5
2B27
330
1A
100
AcDbEntity
  8
SEIHIN
100
AcDbLine
 10
360.6169571532232
 20
86.94788936354099
 30
0.0
 11
361.6127544620069
 21
75.56530005380818
 31
0.0
  0
LINE
  5
2B28
330
1A
100
AcDbEntity
  8
SEIHIN
100
AcDbLine
 10
360.0303269222931
 20
86.30769761918214
 30
0.0
 11
361.023680589752
 21
74.95304066614085
 31
0.0
  0
LINE
  5
2B32
330
1A
100
AcDbEntity
  8
SEIHIN
100
AcDbLine
 10
346.4636538433562
 20
87.8600085786677
 30
0.0
 11
359.6215580745401
 21
87.8600085786677
 31
0.0
  0
LINE
  5
2B33
330
1A
100
AcDbEntity
  8
SEIHIN
100
AcDbLine
 10
361.1785957270781
 20
89.56000857866683
 30
0.0
 11
347.9964215065017
 21
89.56000857866683
 31
0.0
  0
ARC
  5
2B35
330
1A
100
AcDbEntity
  8
SEIHIN
100
AcDbCircle
 10
347.9964215065017
 20
90.56000857866683
 30
0.0
 40
1.000000000000107
100
AcDbArc
 50
185.9054308524858
 51
270.0
  0
ARC
  5
2B39
330
1A
100
AcDbEntity
  8
SEIHIN
100
AcDbCircle
 10
359.6217735092095
 20
86.86104272459875
 30
0.0
 40
0.9989658772989706
100
AcDbArc
 50
4.987392868784292
 51
90.01235627532306
  0
ARC
  5
2B3A
330
1A
100
AcDbEntity
  8
SEIHIN
100
AcDbCircle
 10
361.1785957270781
 20
88.56000857866684
 30
0.0
 40
1.0
100
AcDbArc
 50
4.999749144102615
 51
90.0
  0
ARC
  5
2B3D
330
1A
100
AcDbEntity
  8
SEIHIN
100
AcDbCircle
 10
359.0332474441222
 20
86.21878204940026
 30
0.0
 40
1.001036195319293
100
AcDbArc
 50
5.095929326424527
 51
89.90381981768754
  0
ARC
  5
2B45
330
1A
100
AcDbEntity
  8
SEIHIN
100
AcDbCircle
 10
368.7263223321647
 20
80.12601993285613
 30
0.0
 40
3.498225304146121
100
AcDbArc
 50
185.0059896895096
 51
267.4469252606181
  0
ARC
  5
2B4A
330
1A
100
AcDbEntity
  8
SEIHIN
100
AcDbCircle
 10
368.7709085419301
 20
80.17255800415762
 30
0.0
 40
3.982448113521267
100
AcDbArc
 50
184.9526440772589
 51
267.5029290690208
  0
ARC
  5
2B4C
330
1A
100
AcDbEntity
  8
SEIHIN
100
AcDbCircle
 10
365.2452323542045
 20
76.49865757151906
 30
0.0
 40
1.999999999999977
100
AcDbArc
 50
184.9997491441042
 51
267.2627870055292
  0
ARC
  5
2B52
330
1A
100
AcDbEntity
  8
SEIHIN
100
AcDbCircle
 10
368.3294545353687
 20
79.71186593183358
 30
0.0
 40
0.9999272947248929
100
AcDbArc
 50
184.9980111148815
 51
267.4331489845976
  0
LINE
  5
2B5F
330
1A
100
AcDbEntity
  8
SEIHIN
100
AcDbLine
 10
362.8967505487348
 20
98.98497765200909
 30
0.0
 11
348.7779410415823
 21
102.632908048566
 31
0.0
  0
LINE
  5
2B60
330
1A
100
AcDbEntity
  8
SEIHIN
100
AcDbLine
 10
350.7054174456921
 20
104.2696185834937
 30
0.0
 11
363.1146971565886
 21
101.0633858884614
 31
0.0
  0
ARC
  5
2B64
330
1A
100
AcDbEntity
  8
SEIHIN
100
AcDbCircle
 10
362.242265663217
 20
97.6753513994052
 30
0.0
 40
0.9959626121103786
100
AcDbArc
 50
4.976030958647615
 51
75.53681138525878
  0
ARC
  5
2B67
330
1A
100
AcDbEntity
  8
SEIHIN
100
AcDbCircle
 10
349.0284028713638
 20
103.6004273341165
 30
0.0
 40
0.9994121752760449
100
AcDbArc
 50
185.1925495209113
 51
255.4864388910716
  0
ARC
  5
2B69
330
1A
100
AcDbEntity
  8
SEIHIN
100
AcDbCircle
 10
348.6188905167023
 20
103.2525954742386
 30
0.0
 40
0.9959456321644106
100
AcDbArc
 50
185.1593042359569
 51
255.5374194990339
  0
LINE
  5
2B6A
330
1A
100
AcDbEntity
  8
SEIHIN
100
AcDbLine
 10
348.370155425774
 20
102.2882104075936
 30
0.0
 11
362.4910152305931
 21
98.63975026784732
 31
0.0
  0
ARC
  5
2B70
330
1A
100
AcDbEntity
  8
SEIHIN
100
AcDbCircle
 10
350.9549269872045
 20
105.2353107168081
 30
0.0
 40
0.9974047862592007
100
AcDbArc
 50
185.0820673696764
 51
255.5130931998006
  0
ARC
  5
2B7D
330
1A
100
AcDbEntity
  8
SEIHIN
100
AcDbCircle
 10
362.6479168380265
 20
98.01883851762307
 30
0.0
 40
0.9976688040511509
100
AcDbArc
 50
4.955748609032477
 51
75.55709373487554
  0
ARC
  5
2B7F
330
1A
100
AcDbEntity
  8
SEIHIN
100
AcDbCircle
 10
362.2384922917983
 20
97.67215627868296
 30
0.0
 40
3.502595213740909
100
AcDbArc
 50
4.999749144103427
 51
75.5130931998006
  0
ARC
  5
2B8A
330
1A
100
AcDbEntity
  8
SEIHIN
100
AcDbCircle
 10
412.9049309283659
 20
1073.360008578666
 30
0.0
 40
998.149999999987
100
AcDbArc
 50
269.4828571256467
 51
270.5171428743532
  0
ARC
  5
2B8B
330
1A
100
AcDbEntity
  8
SEIHIN
100
AcDbCircle
 10
403.9049309283659
 20
76.25062516079134
 30
0.0
 40
1.0
100
AcDbArc
 50
180.0
 51
269.4828571256467
  0
LINE
  5
2B8C
330
1A
100
AcDbEntity
  8
SEIHIN
100
AcDbLine
 10
402.6080335663967
 20
77.8244861616298
 30
0.0
 11
402.6080336338736
 21
77.84614568202909
 31
0.0
  0
ARC
  5
2B8D
330
1A
100
AcDbEntity
  8
SEIHIN
100
AcDbCircle
 10
402.6047537170959
 20
77.52432684464548
 30
0.0
 40
0.3001772359534844
100
AcDbArc
 50
0.061950216811204
 51
89.37395232199254
  0
LINE
  5
2B8E
330
1A
100
AcDbEntity
  8
SEIHIN
100
AcDbLine
 10
402.9049309283659
 20
77.52435062642871
 30
0.0
 11
402.9049309283659
 21
77.52465141576078
 31
0.0
  0
LINE
  5
2B8F
330
1A
100
AcDbEntity
  8
SEIHIN
100
AcDbLine
 10
402.9049309283659
 20
76.25062516079134
 30
0.0
 11
402.9049309283659
 21
77.52435062642871
 31
0.0
  0
LINE
  5
2B90
330
1A
100
AcDbEntity
  8
SEIHIN
100
AcDbLine
 10
402.9049309283659
 20
75.56108426222334
 30
0.0
 11
402.9049309283659
 21
76.25062516079134
 31
0.0
  0
ARC
  5
2B93
330
1A
100
AcDbEntity
  8
SEIHIN
100
AcDbCircle
 10
402.6067052475712
 20
75.56137501556128
 30
0.0
 40
0.2982258225286649
100
AcDbArc
 50
269.2160204798346
 51
359.9441398412323
  0
LINE
  5
2B94
330
1A
100
AcDbEntity
  8
SEIHIN
100
AcDbLine
 10
402.9049309283659
 20
77.54617314956409
 30
0.0
 11
402.9049309283659
 21
77.52467141576079
 31
0.0
  0
ARC
  5
2B95
330
1A
100
AcDbEntity
  8
SEIHIN
100
AcDbCircle
 10
402.6049367792397
 20
77.54616751776871
 30
0.0
 40
0.2999941491790408
100
AcDbArc
 50
0.0010756146642916
 51
89.40852229161221
  0
ARC
  5
2B9C
330
1A
100
AcDbEntity
  8
SEIHIN
100
AcDbCircle
 10
401.0555827323687
 20
150.8514634084057
 30
0.0
 40
73.06615604739286
100
AcDbArc
 50
268.6903924153999
 51
270.7907894312895
  0
ARC
  5
2B9D
330
1A
100
AcDbEntity
  8
SEIHIN
100
AcDbCircle
 10
399.5155986012073
 20
54.33076234430934
 30
0.0
 40
21.40714983103311
100
AcDbArc
 50
83.18062691089027
 51
90.36956209939578
  0
POLYLINE
  5
2B9E
330
1A
100
AcDbEntity
  8
SEIHIN
100
AcDb2dPolyline
 66
     1
 10
0.0
 20
0.0
 30
0.0
  0
VERTEX
  5
5FC4
330
2B9E
100
AcDbEntity
  8
SEIHIN
100
AcDbVertex
100
AcDb2dVertex
 10
402.22564094025
 20
75.51740243164033
 30
0.0
  0
VERTEX
  5
5FC5
330
2B9E
100
AcDbEntity
  8
SEIHIN
100
AcDbVertex
100
AcDb2dVertex
 10
402.1512944285473
 20
75.54793224962151
 30
0.0
  0
VERTEX
  5
5FC6
330
2B9E
100
AcDbEntity
  8
SEIHIN
100
AcDbVertex
100
AcDb2dVertex
 10
402.0574773039388
 20
75.58646549779033
 30
0.0
  0
SEQEND
  5
5FC7
330
2B9E
100
AcDbEntity
  8
SEIHIN
  0
LINE
  5
2B9F
330
1A
100
AcDbEntity
  8
SEIHIN
100
AcDbLine
 10
402.22564094025
 20
75.51740243164033
 30
0.0
 11
402.2281318626459
 21
75.51671376387094
 31
0.0
  0
POLYLINE
  5
2BA2
330
1A
100
AcDbEntity
  8
SEIHIN
100
AcDb2dPolyline
 66
     1
 10
0.0
 20
0.0
 30
0.0
  0
VERTEX
  5
5FC8
330
2BA2
100
AcDbEntity
  8
SEIHIN
100
AcDbVertex
100
AcDb2dVertex
 10
402.0640009799389
 20
77.79226650493621
 30
0.0
  0
VERTEX
  5
5FC9
330
2BA2
100
AcDbEntity
  8
SEIHIN
100
AcDbVertex
100
AcDb2dVertex
 10
402.1383977752503
 20
77.79665503950289
 30
0.0
  0
VERTEX
  5
5FCA
330
2BA2
100
AcDbEntity
  8
SEIHIN
100
AcDbVertex
100
AcDb2dVertex
 10
402.4359849038105
 20
77.81426469358556
 30
0.0
  0
VERTEX
  5
5FCB
330
2BA2
100
AcDbEntity
  8
SEIHIN
100
AcDbVertex
100
AcDb2dVertex
 10
402.6080335663967
 20
77.82448616162984
 30
0.0
  0
SEQEND
  5
5FCC
330
2BA2
100
AcDbEntity
  8
SEIHIN
  0
POLYLINE
  5
2BA6
330
1A
100
AcDbEntity
  8
SEIHIN
100
AcDb2dPolyline
 66
     1
 10
0.0
 20
0.0
 30
0.0
  0
VERTEX
  5
5FCD
330
2BA6
100
AcDbEntity
  8
SEIHIN
100
AcDbVertex
100
AcDb2dVertex
 10
402.6026247438503
 20
75.26317711026826
 30
0.0
  0
VERTEX
  5
5FCE
330
2BA6
100
AcDbEntity
  8
SEIHIN
100
AcDbVertex
100
AcDb2dVertex
 10
402.528442921239
 20
75.31338787349046
 30
0.0
  0
VERTEX
  5
5FCF
330
2BA6
100
AcDbEntity
  8
SEIHIN
100
AcDbVertex
100
AcDb2dVertex
 10
402.2281318626459
 20
75.51671376387071
 30
0.0
  0
SEQEND
  5
5FD0
330
2BA6
100
AcDbEntity
  8
SEIHIN
  0
LINE
  5
2BAA
330
1A
100
AcDbEntity
  8
SEIHIN
100
AcDbLine
 10
428.0367000236753
 20
78.61761174508382
 30
0.0
 11
428.0611380745947
 21
77.01108674508373
 31
0.0
  0
POLYLINE
  5
2BAE
330
1A
100
AcDbEntity
  8
SEIHIN
100
AcDb2dPolyline
 66
     1
 10
0.0
 20
0.0
 30
0.0
  0
VERTEX
  5
5FD1
330
2BAE
100
AcDbEntity
  8
SEIHIN
100
AcDbVertex
100
AcDb2dVertex
 10
428.0576471350671
 20
77.01108631933462
 30
0.0
  0
VERTEX
  5
5FD2
330
2BAE
100
AcDbEntity
  8
SEIHIN
100
AcDbVertex
100
AcDb2dVertex
 10
427.1892748866214
 20
76.95524344231398
 30
0.0
  0
VERTEX
  5
5FD3
330
2BAE
100
AcDbEntity
  8
SEIHIN
100
AcDbVertex
100
AcDb2dVertex
 10
426.4204178154277
 20
76.8217162686528
 30
0.0
  0
VERTEX
  5
5FD4
330
2BAE
100
AcDbEntity
  8
SEIHIN
100
AcDbVertex
100
AcDb2dVertex
 10
425.8186045531267
 20
76.62246964101422
 30
0.0
  0
VERTEX
  5
5FD5
330
2BAE
100
AcDbEntity
  8
SEIHIN
100
AcDbVertex
100
AcDb2dVertex
 10
425.4463259430815
 20
76.37149642514884
 30
0.0
  0
VERTEX
  5
5FD6
330
2BAE
100
AcDbEntity
  8
SEIHIN
100
AcDbVertex
100
AcDb2dVertex
 10
425.3777215052107
 20
76.26434679696297
 30
0.0
  0
SEQEND
  5
5FD7
330
2BAE
100
AcDbEntity
  8
SEIHIN
  0
POLYLINE
  5
2BB2
330
1A
100
AcDbEntity
  8
SEIHIN
100
AcDb2dPolyline
 66
     1
 10
0.0
 20
0.0
 30
0.0
  0
VERTEX
  5
5FD8
330
2BB2
100
AcDbEntity
  8
SEIHIN
100
AcDbVertex
100
AcDb2dVertex
 10
425.3777215052107
 20
76.26434679696297
 30
0.0
  0
VERTEX
  5
5FD9
330
2BB2
100
AcDbEntity
  8
SEIHIN
100
AcDbVertex
100
AcDb2dVertex
 10
425.3064037798417
 20
76.09233224683976
 30
0.0
  0
VERTEX
  5
5FDA
330
2BB2
100
AcDbEntity
  8
SEIHIN
100
AcDbVertex
100
AcDb2dVertex
 10
425.0802677267333
 20
75.54693979077524
 30
0.0
  0
SEQEND
  5
5FDB
330
2BB2
100
AcDbEntity
  8
SEIHIN
  0
LINE
  5
2BBA
330
1A
100
AcDbEntity
  8
SEIHIN
100
AcDbLine
 10
422.9049309283659
 20
75.56230880617397
 30
0.0
 11
422.9049309283659
 21
76.25062218231682
 31
0.0
  0
LINE
  5
2BBB
330
1A
100
AcDbEntity
  8
SEIHIN
100
AcDbLine
 10
422.9049309283659
 20
76.25062218231682
 30
0.0
 11
422.9049309283659
 21
78.31761174508381
 31
0.0
  0
LINE
  5
2BBC
330
1A
100
AcDbEntity
  8
SEIHIN
100
AcDbLine
 10
422.9049309283659
 20
77.63780597659104
 30
0.0
 11
422.9049309283659
 21
77.63810675422928
 31
0.0
  0
LINE
  5
2BBE
330
1A
100
AcDbEntity
  8
SEIHIN
100
AcDbLine
 10
425.0802677267333
 20
75.54693979077524
 30
0.0
 11
425.0804220966176
 21
75.53428861811886
 31
0.0
  0
LINE
  5
2BC1
330
1A
100
AcDbEntity
  8
SEIHIN
100
AcDbLine
 10
424.4607396320179
 20
75.52691968795528
 30
0.0
 11
424.4598082864061
 21
75.52691034797999
 31
0.0
  0
LINE
  5
2BC2
330
1A
100
AcDbEntity
  8
SEIHIN
100
AcDbLine
 10
425.0804220966179
 20
75.53428861811892
 30
0.0
 11
424.4607396320179
 21
75.52691968795534
 31
0.0
  0
POLYLINE
  5
2BC3
330
1A
100
AcDbEntity
  8
SEIHIN
100
AcDb2dPolyline
 66
     1
 10
0.0
 20
0.0
 30
0.0
  0
VERTEX
  5
5FDC
330
2BC3
100
AcDbEntity
  8
SEIHIN
100
AcDbVertex
100
AcDb2dVertex
 10
424.4598082864061
 20
75.52691034797996
 30
0.0
  0
VERTEX
  5
5FDD
330
2BC3
100
AcDbEntity
  8
SEIHIN
100
AcDbVertex
100
AcDb2dVertex
 10
424.4598010576444
 20
75.52690881885755
 30
0.0
  0
VERTEX
  5
5FDE
330
2BC3
100
AcDbEntity
  8
SEIHIN
100
AcDbVertex
100
AcDb2dVertex
 10
424.3853837538856
 20
75.51116988243132
 30
0.0
  0
VERTEX
  5
5FDF
330
2BC3
100
AcDbEntity
  8
SEIHIN
100
AcDbVertex
100
AcDb2dVertex
 10
424.0877143640545
 20
75.44826985757038
 30
0.0
  0
VERTEX
  5
5FE0
330
2BC3
100
AcDbEntity
  8
SEIHIN
100
AcDbVertex
100
AcDb2dVertex
 10
423.2094244970394
 20
75.26319969073748
 30
0.0
  0
SEQEND
  5
5FE1
330
2BC3
100
AcDbEntity
  8
SEIHIN
  0
ARC
  5
2BC4
330
1A
100
AcDbEntity
  8
SEIHIN
100
AcDbCircle
 10
423.2048943658956
 20
75.56313004298186
 30
0.0
 40
0.2999645617162457
100
AcDbArc
 50
180.1568634028126
 51
270.8653264279793
  0
ARC
  5
2BC5
330
1A
100
AcDbEntity
  8
SEIHIN
100
AcDbCircle
 10
421.904930928366
 20
76.25062516079134
 30
0.0
 40
1.000000000004435
100
AcDbArc
 50
270.5171428743532
 51
359.999829345981
  0
LINE
  5
2BC7
330
1A
100
AcDbEntity
  8
SEIHIN
100
AcDbLine
 10
422.9049309283659
 20
77.63812675422929
 30
0.0
 11
422.9049309283659
 21
77.65961985963031
 31
0.0
  0
LINE
  5
2BC9
330
1A
100
AcDbEntity
  8
SEIHIN
100
AcDbLine
 10
362.9357906516336
 20
159.4367482830022
 30
0.0
 11
367.2003376526526
 21
182.8773067694395
 31
0.0
  0
LINE
  5
2BCA
330
1A
100
AcDbEntity
  8
SEIHIN
100
AcDbLine
 10
365.5454186874283
 20
184.0562989502848
 30
0.0
 11
361.1262699667977
 21
159.7659548594694
 31
0.0
  0
ARC
  5
2BCD
330
1A
100
AcDbEntity
  8
SEIHIN
100
AcDbCircle
 10
348.4303078147342
 20
124.7126175735598
 30
0.0
 40
2.106563582859015
100
AcDbArc
 50
126.8183874811593
 51
184.109977824568
  0
ARC
  5
2BCF
330
1A
100
AcDbEntity
  8
SEIHIN
100
AcDbCircle
 10
346.7263583723202
 20
127.3627559610545
 30
0.0
 40
0.9977277373311654
100
AcDbArc
 50
91.76827729298574
 51
186.9726741401928
  0
ARC
  5
2BD2
330
1A
100
AcDbEntity
  8
SEIHIN
100
AcDbCircle
 10
1341.694797766859
 20
193.3439422404873
 30
0.0
 40
995.5889119262
100
AcDbArc
 50
182.5767848011922
 51
183.7600870172591
  0
ARC
  5
2BD5
330
1A
100
AcDbEntity
  8
SEIHIN
100
AcDbCircle
 10
533.5938559330934
 20
136.218775002779
 30
0.0
 40
185.5302115180943
100
AcDbArc
 50
183.1129936078737
 51
184.1650659905794
  0
POLYLINE
  5
2BD9
330
1A
100
AcDbEntity
  8
SEIHIN
100
AcDb2dPolyline
 66
     1
 10
0.0
 20
0.0
 30
0.0
  0
VERTEX
  5
5FE2
330
2BD9
100
AcDbEntity
  8
SEIHIN
100
AcDbVertex
100
AcDb2dVertex
 10
346.484603499915
 20
122.7012090763841
 30
0.0
  0
VERTEX
  5
5FE3
330
2BD9
100
AcDbEntity
  8
SEIHIN
100
AcDbVertex
100
AcDb2dVertex
 10
346.3876440522699
 20
123.9297675079418
 30
0.0
  0
VERTEX
  5
5FE4
330
2BD9
100
AcDbEntity
  8
SEIHIN
100
AcDbVertex
100
AcDb2dVertex
 10
346.3291616460078
 20
124.5616377528021
 30
0.0
  0
SEQEND
  5
5FE5
330
2BD9
100
AcDbEntity
  8
SEIHIN
  0
LINE
  5
2BDC
330
1A
100
AcDbEntity
  8
SEIHIN
100
AcDbLine
 10
347.1678852531542
 20
126.3990040668181
 30
0.0
 11
348.038111920644
 21
126.3990040668181
 31
0.0
  0
ARC
  5
2BDD
330
1A
100
AcDbEntity
  8
SEIHIN
100
AcDbCircle
 10
348.0511927443624
 20
126.1112674650046
 30
0.0
 40
0.2880337826928102
100
AcDbArc
 50
6.426856067177382
 51
92.60293723214505
  0
POLYLINE
  5
2BDE
330
1A
100
AcDbEntity
  8
SEIHIN
100
AcDb2dPolyline
 66
     1
 10
0.0
 20
0.0
 30
0.0
  0
VERTEX
  5
5FE6
330
2BDE
100
AcDbEntity
  8
SEIHIN
100
AcDbVertex
100
AcDb2dVertex
 10
348.2489970584656
 20
128.0544131776075
 30
0.0
  0
VERTEX
  5
5FE7
330
2BDE
100
AcDbEntity
  8
SEIHIN
100
AcDbVertex
100
AcDb2dVertex
 10
348.2597292646683
 20
127.8181594728735
 30
0.0
  0
VERTEX
  5
5FE8
330
2BDE
100
AcDbEntity
  8
SEIHIN
100
AcDbVertex
100
AcDb2dVertex
 10
348.303220702498
 20
126.8731486223449
 30
0.0
  0
VERTEX
  5
5FE9
330
2BDE
100
AcDbEntity
  8
SEIHIN
100
AcDbVertex
100
AcDb2dVertex
 10
348.3374163964674
 20
126.143508447433
 30
0.0
  0
SEQEND
  5
5FEA
330
2BDE
100
AcDbEntity
  8
SEIHIN
  0
ARC
  5
2BE1
330
1A
100
AcDbEntity
  8
SEIHIN
100
AcDbCircle
 10
347.9327419571068
 20
128.0439196466528
 30
0.0
 40
0.3164291442462704
100
AcDbArc
 50
1.900410571776286
 51
87.3428671218927
  0
LINE
  5
2BE3
330
1A
100
AcDbEntity
  8
SEIHIN
100
AcDbLine
 10
346.6955711265441
 20
128.3600085786668
 30
0.0
 11
347.9474113261003
 21
128.3600085786668
 31
0.0
  0
ARC
  5
2BE4
330
1A
100
AcDbEntity
  8
SEIHIN
100
AcDbCircle
 10
359.9842391625406
 20
159.9737248255383
 30
0.0
 40
3.000000000000021
100
AcDbArc
 50
298.5868361220713
 51
349.6889372994479
  0
ARC
  5
2BE5
330
1A
100
AcDbEntity
  8
SEIHIN
100
AcDbCircle
 10
348.611123904277
 20
148.651454706335
 30
0.0
 40
1.500082025153516
100
AcDbArc
 50
118.5863659501069
 51
182.5758919684099
  0
ARC
  5
2BE6
330
1A
100
AcDbEntity
  8
SEIHIN
100
AcDbCircle
 10
348.6269439296861
 20
148.6603126103936
 30
0.0
 40
1.499873688309804
100
AcDbArc
 50
118.5858757237689
 51
182.5804023281765
  0
LINE
  5
2BE7
330
1A
100
AcDbEntity
  8
SEIHIN
100
AcDbLine
 10
347.1285910720694
 20
148.592786356569
 30
0.0
 11
347.1125576092604
 21
148.5840370407874
 31
0.0
  0
LINE
  5
2BE8
330
1A
100
AcDbEntity
  8
SEIHIN
100
AcDbLine
 10
351.0934737601965
 20
151.7124768591726
 30
0.0
 11
361.4197095407653
 21
157.3394460260868
 31
0.0
  0
LINE
  5
2BEA
330
1A
100
AcDbEntity
  8
SEIHIN
100
AcDbLine
 10
360.539659386985
 20
158.954454944226
 30
0.0
 11
350.4267491335986
 21
153.4437310567611
 31
0.0
  0
LINE
  5
2BEF
330
1A
100
AcDbEntity
  8
SEIHIN
100
AcDbLine
 10
350.2733343822326
 20
153.1854187682487
 30
0.0
 11
350.2733343822326
 21
151.2655667662363
 31
0.0
  0
LINE
  5
2BF0
330
1A
100
AcDbEntity
  8
SEIHIN
100
AcDbLine
 10
351.0934737601965
 20
151.7124768591725
 30
0.0
 11
350.2733343822326
 21
151.2655667662363
 31
0.0
  0
ARC
  5
2BF4
330
1A
100
AcDbEntity
  8
SEIHIN
100
AcDbCircle
 10
350.5312385796182
 20
153.2069599573283
 30
0.0
 40
0.2588022369612696
100
AcDbArc
 50
113.8123457913179
 51
184.7744903307212
  0
LINE
  5
2BF9
330
1A
100
AcDbEntity
  8
SEIHIN
100
AcDbLine
 10
350.2733343822326
 20
151.2655667662363
 30
0.0
 11
349.2927537065418
 21
150.7312290515999
 31
0.0
  0
LINE
  5
2BFA
330
1A
100
AcDbEntity
  8
SEIHIN
100
AcDbLine
 10
347.8933602760641
 20
149.9686720218161
 30
0.0
 11
349.2927537065416
 21
150.7312290516
 31
0.0
  0
ARC
  5
2BFD
330
1A
100
AcDbEntity
  8
SEIHIN
100
AcDbCircle
 10
359.9842391625406
 20
159.9737248255383
 30
0.0
 40
1.160776772972422
100
AcDbArc
 50
298.5868361220717
 51
349.6889372994496
  0
LINE
  5
2C02
330
1A
100
AcDbEntity
  8
SEIHIN
100
AcDbLine
 10
351.4083901243395
 20
193.4869193085086
 30
0.0
 11
345.5337483701719
 21
195.294501386714
 31
0.0
  0
LINE
  5
2C04
330
1A
100
AcDbEntity
  8
SEIHIN
100
AcDbLine
 10
348.1949309283659
 20
191.8600085786668
 30
0.0
 11
344.2853779264059
 21
193.0629479638852
 31
0.0
  0
LINE
  5
2C05
330
1A
100
AcDbEntity
  8
SEIHIN
100
AcDbLine
 10
343.225167475856
 20
184.0562989502848
 30
0.0
 11
366.2164871562883
 21
184.0562989502848
 31
0.0
  0
LINE
  5
2C06
330
1A
100
AcDbEntity
  8
SEIHIN
100
AcDbLine
 10
339.7091348071294
 20
191.1399992188769
 30
0.0
 11
340.3380553381098
 21
167.122493120468
 31
0.0
  0
ARC
  5
2C07
330
1A
100
AcDbEntity
  8
SEIHIN
100
AcDbCircle
 10
343.225167475856
 20
185.5562989502848
 30
0.0
 40
1.5
100
AcDbArc
 50
228.6686284353784
 51
270.0
  0
LINE
  5
2C0A
330
1A
100
AcDbEntity
  8
SEIHIN
100
AcDbLine
 10
339.0730668362948
 20
191.3088692847147
 30
0.0
 11
339.6980829714725
 21
167.1057348542687
 31
0.0
  0
ARC
  5
2C10
330
1A
100
AcDbEntity
  8
SEIHIN
100
AcDbCircle
 10
344.2076198227309
 20
190.9934278368564
 30
0.0
 40
4.500872204986682
100
AcDbArc
 50
72.86416096111786
 51
178.133826905835
  0
ARC
  5
2C11
330
1A
100
AcDbEntity
  8
SEIHIN
100
AcDbCircle
 10
343.570697555662
 20
191.1911847827159
 30
0.0
 40
4.499170115677616
100
AcDbArc
 50
72.93088634722867
 51
178.5011470488213
  0
ARC
  5
2C19
330
1A
100
AcDbEntity
  8
SEIHIN
100
AcDbCircle
 10
343.6972062287309
 20
191.151389946441
 30
0.0
 40
2.000000000000293
100
AcDbArc
 50
72.98542442833166
 51
180.1258758455483
  0
LINE
  5
2C1B
330
1A
100
AcDbEntity
  8
SEIHIN
100
AcDbLine
 10
344.282436171266
 20
193.0638506426022
 30
0.0
 11
344.2853779264059
 21
193.0629479638852
 31
0.0
  0
LINE
  5
2C1C
330
1A
100
AcDbEntity
  8
SEIHIN
100
AcDbLine
 10
344.8913166648533
 20
195.4921726806581
 30
0.0
 11
345.5337483701719
 21
195.294501386714
 31
0.0
  0
LINE
  5
2C1D
330
1A
100
AcDbEntity
  8
SEIHIN
100
AcDbLine
 10
344.7362995513826
 20
195.5398702540338
 30
0.0
 11
344.8913166648533
 21
195.4921726806581
 31
0.0
  0
ARC
  5
2C1E
330
1A
100
AcDbEntity
  8
SEIHIN
100
AcDbCircle
 10
343.2251674755584
 20
185.5562989502009
 30
0.0
 40
1.499999999701779
100
AcDbArc
 50
180.4468739244751
 51
228.6686284417962
  0
ARC
  5
2C27
330
1A
100
AcDbEntity
  8
SEIHIN
100
AcDbCircle
 10
366.2164871562883
 20
183.0562989502848
 30
0.0
 40
1.0
100
AcDbArc
 50
349.6889372994504
 51
90.0
  0
ARC
  5
2C2B
330
1A
100
AcDbEntity
  8
SEIHIN
100
AcDbCircle
 10
354.1949309283659
 20
193.6651488782892
 30
0.0
 40
0.5000000000000569
100
AcDbArc
 50
0.0
 51
115.0
  0
ARC
  5
2C2C
330
1A
100
AcDbEntity
  8
SEIHIN
100
AcDbCircle
 10
352.6949309283659
 20
192.9656873910568
 30
0.0
 40
2.000000000000056
100
AcDbArc
 50
295.0
 51
0.0
  0
ARC
  5
2C2D
330
1A
100
AcDbEntity
  8
SEIHIN
100
AcDbCircle
 10
351.9965618220144
 20
195.3984773259525
 30
0.0
 40
2.000000000000042
100
AcDbArc
 50
252.8972710309469
 51
294.9999999999996
  0
LINE
  5
2C2E
330
1A
100
AcDbEntity
  8
SEIHIN
100
AcDbLine
 10
353.9836217974955
 20
194.1183027718075
 30
0.0
 11
352.841798345496
 21
193.5858617518792
 31
0.0
  0
LINE
  5
2C2F
330
1A
100
AcDbEntity
  8
SEIHIN
100
AcDbLine
 10
350.0967781265612
 20
189.5473930045935
 30
0.0
 11
353.5401674518473
 21
191.1530718169834
 31
0.0
  0
ARC
  5
2C30
330
1A
100
AcDbEntity
  8
SEIHIN
100
AcDbCircle
 10
349.2515416030801
 20
191.3600085786668
 30
0.0
 40
2.0
100
AcDbArc
 50
270.0
 51
294.9999999999996
  0
LINE
  5
2C31
330
1A
100
AcDbEntity
  8
SEIHIN
100
AcDbLine
 10
349.1949309283659
 20
189.3600085786667
 30
0.0
 11
349.2515416030801
 21
189.3600085786667
 31
0.0
  0
LINE
  5
2C34
330
1A
100
AcDbEntity
  8
SEIHIN
100
AcDbLine
 10
348.1949309283659
 20
189.3600085786667
 30
0.0
 11
348.1949309283659
 21
191.8600085786668
 31
0.0
  0
LINE
  5
2C35
330
1A
100
AcDbEntity
  8
SEIHIN
100
AcDbLine
 10
349.1949309283659
 20
189.3600085786667
 30
0.0
 11
348.1949309283659
 21
189.3600085786667
 31
0.0
  0
LINE
  5
2C36
330
1A
100
AcDbEntity
  8
SEIHIN
100
AcDbLine
 10
354.6949309283659
 20
192.9656873910568
 30
0.0
 11
354.6949309283659
 21
193.6651488782892
 31
0.0
  0
LINE
  5
2C37
330
1A
100
AcDbEntity
  8
SEIHIN
100
AcDbLine
 10
472.3479998223556
 20
138.4668432261775
 30
0.0
 11
463.0324690590705
 21
78.61761174508365
 31
0.0
  0
LINE
  5
2C38
330
1A
100
AcDbEntity
  8
SEIHIN
100
AcDbLine
 10
464.686437923538
 20
78.19036607640112
 30
0.0
 11
473.6772472909913
 21
135.9533690344159
 31
0.0
  0
LINE
  5
2C3A
330
1A
100
AcDbEntity
  8
SEIHIN
100
AcDbLine
 10
474.475380093374
 20
135.8794855078618
 30
0.0
 11
465.3770072979701
 21
77.42542278504339
 31
0.0
  0
LINE
  5
2C40
330
1A
100
AcDbEntity
  8
SEIHIN
100
AcDbLine
 10
458.9240945404648
 20
81.78112240296469
 30
0.0
 11
466.138153375854
 21
128.1061462480681
 31
0.0
  0
LINE
  5
2C41
330
1A
100
AcDbEntity
  8
SEIHIN
100
AcDbLine
 10
468.6495853439018
 20
128.3600085786668
 30
0.0
 11
461.347849913652
 21
81.44875198112783
 31
0.0
  0
ARC
  5
2C44
330
1A
100
AcDbEntity
  8
SEIHIN
100
AcDbCircle
 10
458.0919575767389
 20
79.38660218257258
 30
0.0
 40
4.999999999999984
100
AcDbArc
 50
272.6029313512963
 51
351.1529040718221
  0
ARC
  5
2C47
330
1A
100
AcDbEntity
  8
SEIHIN
100
AcDbCircle
 10
455.4165860587898
 20
82.37450301361718
 30
0.0
 40
6.00321221172242
100
AcDbArc
 50
275.7392409347048
 51
347.8884541294496
  0
ARC
  5
2C4A
330
1A
100
AcDbEntity
  8
SEIHIN
100
AcDbCircle
 10
458.2678985357858
 20
79.19037722345956
 30
0.0
 40
6.495973380977238
100
AcDbArc
 50
272.6210085320854
 51
351.1444875859884
  0
ARC
  5
2C4C
330
1A
100
AcDbEntity
  8
SEIHIN
100
AcDbCircle
 10
458.954342370939
 20
78.42511035377902
 30
0.0
 40
6.500000000000182
100
AcDbArc
 50
272.6499777347497
 51
351.1529040718221
  0
ARC
  5
2C51
330
1A
100
AcDbEntity
  8
SEIHIN
100
AcDbCircle
 10
455.4657650238566
 20
82.31977711400304
 30
0.0
 40
3.500027420345249
100
AcDbArc
 50
272.4574812539435
 51
351.146986423643
  0
LINE
  5
2C53
330
1A
100
AcDbEntity
  8
SEIHIN
100
AcDbLine
 10
451.9863912286211
 20
78.6739154704237
 30
0.0
 11
444.6947989221955
 21
78.61761174508382
 31
0.0
  0
POLYLINE
  5
2C69
330
1A
100
AcDbEntity
  8
SEIHIN
100
AcDb2dPolyline
 66
     1
 10
0.0
 20
0.0
 30
0.0
  0
VERTEX
  5
5FEB
330
2C69
100
AcDbEntity
  8
SEIHIN
100
AcDbVertex
100
AcDb2dVertex
 10
461.347849913652
 20
81.44875198112783
 30
0.0
  0
VERTEX
  5
5FEC
330
2C69
100
AcDbEntity
  8
SEIHIN
100
AcDbVertex
100
AcDb2dVertex
 10
461.3478406854703
 20
81.44869269503624
 30
0.0
  0
VERTEX
  5
5FED
330
2C69
100
AcDbEntity
  8
SEIHIN
100
AcDbVertex
100
AcDb2dVertex
 10
461.2861726254846
 20
81.1149354707482
 30
0.0
  0
SEQEND
  5
5FEE
330
2C69
100
AcDbEntity
  8
SEIHIN
  0
ARC
  5
2C6B
330
1A
100
AcDbEntity
  8
SEIHIN
100
AcDbCircle
 10
464.2049309283625
 20
158.8600085786668
 30
0.0
 40
2.5
100
AcDbArc
 50
90.0
 51
160.7099537807138
  0
ARC
  5
2C6C
330
1A
100
AcDbEntity
  8
SEIHIN
100
AcDbCircle
 10
466.7049309283627
 20
159.3600085786668
 30
0.0
 40
5.0
100
AcDbArc
 50
90.0
 51
180.0
  0
ARC
  5
2C6D
330
1A
100
AcDbEntity
  8
SEIHIN
100
AcDbCircle
 10
466.8988624182995
 20
153.8566996193871
 30
0.0
 40
7.503309472918558
100
AcDbArc
 50
1.523416163805093
 51
90.02120020980106
  0
ARC
  5
2C6F
330
1A
100
AcDbEntity
  8
SEIHIN
100
AcDbCircle
 10
467.7023599846843
 20
153.8600085786668
 30
0.0
 40
7.500000000000045
100
AcDbArc
 50
358.4999999999987
 51
77.6621298938276
  0
ARC
  5
2C70
330
1A
100
AcDbEntity
  8
SEIHIN
100
AcDbCircle
 10
442.5769412041558
 20
140.7941335662875
 30
0.0
 40
31.47478419223677
100
AcDbArc
 50
351.1528986947315
 51
358.5000053770885
  0
ARC
  5
2C72
330
1A
100
AcDbEntity
  8
SEIHIN
100
AcDbCircle
 10
443.3501577546847
 20
140.7241252640415
 30
0.0
 40
31.50000000000002
100
AcDbArc
 50
351.1529040718229
 51
358.5000000000006
  0
LINE
  5
2C8A
330
1A
100
AcDbEntity
  8
SEIHIN
100
AcDbLine
 10
466.4346152713176
 20
128.3600085786668
 30
0.0
 11
469.918480368215
 21
128.3600085786668
 31
0.0
  0
ARC
  5
2C92
330
1A
100
AcDbEntity
  8
SEIHIN
100
AcDbCircle
 10
466.4346152713176
 20
128.0599724567267
 30
0.0
 40
0.3000361219401446
100
AcDbArc
 50
89.99996285857958
 51
171.1473362183557
  0
ARC
  5
2C95
330
1A
100
AcDbEntity
  8
SEIHIN
100
AcDbCircle
 10
469.9184803682096
 20
129.3600085786712
 30
0.0
 40
1.000000000006167
100
AcDbArc
 50
291.1529040720267
 51
351.1529040716216
  0
ARC
  5
2C96
330
1A
100
AcDbEntity
  8
SEIHIN
100
AcDbCircle
 10
469.918480368215
 20
129.3600085786667
 30
0.0
 40
1.000000000000041
100
AcDbArc
 50
270.0
 51
291.1529040718243
  0
LINE
  5
2C97
330
1A
100
AcDbEntity
  8
SEIHIN
100
AcDbLine
 10
472.7049309283656
 20
153.8600085786669
 30
0.0
 11
472.7049309283656
 21
143.0807858511112
 31
0.0
  0
LINE
  5
2C98
330
1A
100
AcDbEntity
  8
SEIHIN
100
AcDbLine
 10
474.0409398512727
 20
139.9702227203153
 30
0.0
 11
474.4046566943723
 21
153.8600085786663
 31
0.0
  0
LINE
  5
2C9A
330
1A
100
AcDbEntity
  8
SEIHIN
100
AcDbLine
 10
475.199789922001
 20
153.6636814663576
 30
0.0
 11
474.8393634914146
 21
139.8995513923433
 31
0.0
  0
ARC
  5
2C9C
330
1A
100
AcDbEntity
  8
SEIHIN
100
AcDbCircle
 10
442.7049309283659
 20
143.0807858511112
 30
0.0
 40
30.00000000000007
100
AcDbArc
 50
351.1529040718221
 51
0.0
  0
ARC
  5
2CA3
330
1A
100
AcDbEntity
  8
SEIHIN
100
AcDbCircle
 10
467.7049309283656
 20
153.8600085786669
 30
0.0
 40
5.0
100
AcDbArc
 50
0.0
 51
90.0
  0
LINE
  5
2CA5
330
1A
100
AcDbEntity
  8
SEIHIN
100
AcDbLine
 10
461.6592331532967
 20
158.8504943601902
 30
0.0
 11
461.655806990183
 21
158.7196544695829
 31
0.0
  0
ARC
  5
2CA6
330
1A
100
AcDbEntity
  8
SEIHIN
100
AcDbCircle
 10
464.1558069901829
 20
158.7196544695829
 30
0.0
 40
2.500000000000022
100
AcDbArc
 50
160.7099537807146
 51
177.000000000001
  0
LINE
  5
2CA7
330
1A
100
AcDbEntity
  8
SEIHIN
100
AcDbLine
 10
461.845285037449
 20
159.6858846404911
 30
0.0
 11
461.7961610992694
 21
159.5455305314071
 31
0.0
  0
LINE
  5
2CA9
330
1A
100
AcDbEntity
  8
SEIHIN
100
AcDbLine
 10
461.7049309283627
 20
159.3600085786668
 30
0.0
 11
461.7049309283627
 21
159.2128142100279
 31
0.0
  0
LINE
  5
2CAB
330
1A
100
AcDbEntity
  8
SEIHIN
100
AcDbLine
 10
467.7049309283656
 20
158.8600085786668
 30
0.0
 11
464.2049309283659
 21
158.8600085786668
 31
0.0
  0
ARC
  5
2CAC
330
1A
100
AcDbEntity
  8
SEIHIN
100
AcDbCircle
 10
464.1558069901834
 20
158.7196544695839
 30
0.0
 40
2.500000000001046
100
AcDbArc
 50
227.1317753026931
 51
250.7099537808824
  0
ARC
  5
2CAE
330
1A
100
AcDbEntity
  8
SEIHIN
100
AcDbCircle
 10
464.1558069901829
 20
158.7196544695829
 30
0.0
 40
2.500000000000113
100
AcDbArc
 50
179.9999999999983
 51
227.131775302685
  0
LINE
  5
2CAF
330
1A
100
AcDbEntity
  8
SEIHIN
100
AcDbLine
 10
464.2049309283659
 20
158.8600085786668
 30
0.0
 11
463.3299309283656
 21
156.3600085786668
 31
0.0
  0
LINE
  5
2CB0
330
1A
100
AcDbEntity
  8
SEIHIN
100
AcDbLine
 10
474.4046566943723
 20
153.8600085786663
 30
0.0
 11
474.3995197958838
 21
154.0561788175091
 31
0.0
  0
LINE
  5
2CB7
330
1A
100
AcDbEntity
  8
SEIHIN
100
AcDbLine
 10
469.7049309283657
 20
153.8600085786668
 30
0.0
 11
472.7049309283656
 21
153.8600085786668
 31
0.0
  0
LINE
  5
2CB8
330
1A
100
AcDbEntity
  8
SEIHIN
100
AcDbLine
 10
467.6237912808053
 20
161.3600085786668
 30
0.0
 11
469.3049309283629
 21
161.1693216022115
 31
0.0
  0
ARC
  5
2CB9
330
1A
100
AcDbEntity
  8
SEIHIN
100
AcDbCircle
 10
467.3049309283628
 20
162.3600085786668
 30
0.0
 40
2.0
100
AcDbArc
 50
0.0
 51
90.0
  0
LINE
  5
2CBA
330
1A
100
AcDbEntity
  8
SEIHIN
100
AcDbLine
 10
466.8960860928398
 20
161.3600085786668
 30
0.0
 11
467.5484918118491
 21
161.3600085786668
 31
0.0
  0
LINE
  5
2CBB
330
1A
100
AcDbEntity
  8
SEIHIN
100
AcDbLine
 10
467.5484918118491
 20
161.3600085786668
 30
0.0
 11
467.6237912808053
 21
161.3600085786668
 31
0.0
  0
LINE
  5
2CBC
330
1A
100
AcDbEntity
  8
SEIHIN
100
AcDbLine
 10
467.3049309283628
 20
164.3600085786668
 30
0.0
 11
466.7049309283627
 21
164.3600085786668
 31
0.0
  0
LINE
  5
2CBD
330
1A
100
AcDbEntity
  8
SEIHIN
100
AcDbLine
 10
466.8960860928398
 20
161.3600085786668
 30
0.0
 11
464.2049309283625
 21
161.3600085786668
 31
0.0
  0
LINE
  5
2CBE
330
1A
100
AcDbEntity
  8
SEIHIN
100
AcDbLine
 10
469.3049309283629
 20
161.1693216022116
 30
0.0
 11
469.3049309283629
 21
161.1798240390572
 31
0.0
  0
LINE
  5
2CBF
330
1A
100
AcDbEntity
  8
SEIHIN
100
AcDbLine
 10
469.3049309283629
 20
161.1693216022116
 30
0.0
 11
469.3049309283629
 21
162.3600085786668
 31
0.0
  0
LINE
  5
2CC5
330
1A
100
AcDbEntity
  8
SEIHIN
100
AcDbLine
 10
318.9138211772081
 20
467.092886078928
 30
0.0
 11
279.913821177208
 21
467.0928860789274
 31
0.0
  0
LINE
  5
2CC6
330
1A
100
AcDbEntity
  8
SEIHIN
100
AcDbLine
 10
279.913821177208
 20
467.089459915814
 30
0.0
 11
318.9138211772081
 21
467.0894599158144
 31
0.0
  0
POLYLINE
  5
2CC8
330
1A
100
AcDbEntity
  8
SEIHIN
100
AcDb2dPolyline
 66
     1
 10
0.0
 20
0.0
 30
0.0
  0
VERTEX
  5
5FEF
330
2CC8
100
AcDbEntity
  8
SEIHIN
100
AcDbVertex
100
AcDb2dVertex
 10
326.3773430545275
 20
464.3577474660967
 30
0.0
  0
VERTEX
  5
5FF0
330
2CC8
100
AcDbEntity
  8
SEIHIN
100
AcDbVertex
100
AcDb2dVertex
 10
315.1374937304474
 20
464.4423013633279
 30
0.0
  0
VERTEX
  5
5FF1
330
2CC8
100
AcDbEntity
  8
SEIHIN
100
AcDbVertex
100
AcDb2dVertex
 10
303.9138211772081
 20
464.5267345743253
 30
0.0
  0
SEQEND
  5
5FF2
330
2CC8
100
AcDbEntity
  8
SEIHIN
  0
LINE
  5
2CCB
330
1A
100
AcDbEntity
  8
SEIHIN
100
AcDbLine
 10
306.5417169734391
 20
430.5100968794684
 30
0.0
 11
323.9138211729343
 21
428.3385838545318
 31
0.0
  0
LINE
  5
2CCC
330
1A
100
AcDbEntity
  8
SEIHIN
100
AcDbLine
 10
303.9122224559587
 20
344.348108194855
 30
0.0
 11
336.9151406192729
 21
344.3481081948553
 31
0.0
  0
LINE
  5
2CCE
330
1A
100
AcDbEntity
  8
SEIHIN
100
AcDbLine
 10
279.9138211772094
 20
356.8420430499702
 30
0.0
 11
318.9138211772094
 21
356.8420430499707
 31
0.0
  0
LINE
  5
2CCF
330
1A
100
AcDbEntity
  8
SEIHIN
100
AcDbLine
 10
318.9138211772094
 20
360.128583853997
 30
0.0
 11
279.9138211772094
 21
360.1285838539965
 31
0.0
  0
LINE
  5
2CD4
330
1A
100
AcDbEntity
  8
SEIHIN
100
AcDbLine
 10
316.9138211772092
 20
367.6084437323825
 30
0.0
 11
279.9138211772092
 21
367.608443732382
 31
0.0
  0
LINE
  5
2CD5
330
1A
100
AcDbEntity
  8
SEIHIN
100
AcDbLine
 10
279.9138211772092
 20
368.6864951204901
 30
0.0
 11
316.9138211772092
 21
368.6864951204905
 31
0.0
  0
ARC
  5
2CD8
330
1A
100
AcDbEntity
  8
SEIHIN
100
AcDbCircle
 10
306.9138211772088
 20
433.4869305096097
 30
0.0
 40
3.000000000000447
100
AcDbArc
 50
180.0000000000073
 51
262.8749836510952
  0
LINE
  5
2CDA
330
1A
100
AcDbEntity
  8
SEIHIN
100
AcDbLine
 10
279.9138211772078
 20
479.8383096200032
 30
0.0
 11
279.9138211772094
 21
345.1427877327601
 31
0.0
  0
POLYLINE
  5
2CE9
330
1A
100
AcDbEntity
  8
SEIHIN
100
AcDb2dPolyline
 66
     1
 10
0.0
 20
0.0
 30
0.0
  0
VERTEX
  5
5FF3
330
2CE9
100
AcDbEntity
  8
SEIHIN
100
AcDbVertex
100
AcDb2dVertex
 10
295.9186147861869
 20
344.5067197619256
 30
0.0
  0
VERTEX
  5
5FF4
330
2CE9
100
AcDbEntity
  8
SEIHIN
100
AcDbVertex
100
AcDb2dVertex
 10
299.9146199789479
 20
344.3877650479511
 30
0.0
  0
VERTEX
  5
5FF5
330
2CE9
100
AcDbEntity
  8
SEIHIN
100
AcDbVertex
100
AcDb2dVertex
 10
303.9122224559587
 20
344.3481081948549
 30
0.0
  0
SEQEND
  5
5FF6
330
2CE9
100
AcDbEntity
  8
SEIHIN
  0
LINE
  5
2CEC
330
1A
100
AcDbEntity
  8
SEIHIN
100
AcDbLine
 10
279.9138211772094
 20
345.1420122761451
 30
0.0
 11
295.9186147861869
 21
344.5067197619257
 31
0.0
  0
LINE
  5
2CEE
330
1A
100
AcDbEntity
  8
SEIHIN
100
AcDbLine
 10
295.9186147861869
 20
344.5067197619257
 30
0.0
 11
295.9186147861869
 21
344.5023371395525
 31
0.0
  0
LINE
  5
2CF0
330
1A
100
AcDbEntity
  8
SEIHIN
100
AcDbLine
 10
303.9122224559578
 20
344.3424741028406
 30
0.0
 11
303.9122224559587
 21
344.348108194855
 31
0.0
  0
LINE
  5
2CF9
330
1A
100
AcDbEntity
  8
SEIHIN
100
AcDbLine
 10
279.913821177208
 20
463.7526809880404
 30
0.0
 11
303.9138211772081
 21
463.7526809880406
 31
0.0
  0
LINE
  5
2D01
330
1A
100
AcDbEntity
  8
SEIHIN
100
AcDbLine
 10
303.9138211772081
 20
467.0894599158141
 30
0.0
 11
303.9138211772083
 21
433.4869305096093
 31
0.0
  0
LINE
  5
2D0F
330
1A
100
AcDbEntity
  8
SEIHIN
100
AcDbLine
 10
300.4138211772078
 20
474.7385838539939
 30
0.0
 11
298.4138211772078
 21
474.7385838539937
 31
0.0
  0
LINE
  5
2D12
330
1A
100
AcDbEntity
  8
SEIHIN
100
AcDbLine
 10
300.413821177208
 20
474.7385838539937
 30
0.0
 11
300.413821177208
 21
467.0894599158141
 31
0.0
  0
LINE
  5
2D13
330
1A
100
AcDbEntity
  8
SEIHIN
100
AcDbLine
 10
298.413821177208
 20
474.7385838539937
 30
0.0
 11
298.413821177208
 21
467.0894599158141
 31
0.0
  0
LINE
  5
2D15
330
1A
100
AcDbEntity
  8
SEIHIN
100
AcDbLine
 10
295.9186147861837
 20
480.4735839187964
 30
0.0
 11
279.9138211772078
 21
479.8331727215146
 31
0.0
  0
POLYLINE
  5
2D19
330
1A
100
AcDbEntity
  8
SEIHIN
100
AcDb2dPolyline
 66
     1
 10
0.0
 20
0.0
 30
0.0
  0
VERTEX
  5
5FF7
330
2D19
100
AcDbEntity
  8
SEIHIN
100
AcDbVertex
100
AcDb2dVertex
 10
304.4264169902481
 20
480.638583853997
 30
0.0
  0
VERTEX
  5
5FF8
330
2D19
100
AcDbEntity
  8
SEIHIN
100
AcDbVertex
100
AcDb2dVertex
 10
299.9146199789447
 20
480.5934741229417
 30
0.0
  0
VERTEX
  5
5FF9
330
2D19
100
AcDbEntity
  8
SEIHIN
100
AcDbVertex
100
AcDb2dVertex
 10
295.9186147861837
 20
480.4735839187964
 30
0.0
  0
SEQEND
  5
5FFA
330
2D19
100
AcDbEntity
  8
SEIHIN
  0
LINE
  5
2D1B
330
1A
100
AcDbEntity
  8
SEIHIN
100
AcDbLine
 10
295.9186147861848
 20
480.4787208172849
 30
0.0
 11
295.9186147861837
 21
480.4735839187964
 31
0.0
  0
LINE
  5
2D1C
330
1A
100
AcDbEntity
  8
SEIHIN
100
AcDbLine
 10
303.9122224559555
 20
480.6334428476321
 30
0.0
 11
303.912222455956
 21
480.638583853997
 31
0.0
  0
LINE
  5
2DE8
330
1A
100
AcDbEntity
  8
SEIHIN
100
AcDbLine
 10
316.9138211772087
 20
404.8152371983856
 30
0.0
 11
316.9138211772093
 21
360.128583853997
 31
0.0
  0
ARC
  5
2DE9
330
1A
100
AcDbEntity
  8
SEIHIN
100
AcDbCircle
 10
343.5851787154854
 20
349.0188316411177
 30
0.0
 40
2.965804559130041
100
AcDbArc
 50
359.6485720594403
 51
90.35142794055721
  0
LINE
  5
2DED
330
1A
100
AcDbEntity
  8
SEIHIN
100
AcDbLine
 10
358.7280379670882
 20
367.150276131739
 30
0.0
 11
327.4314809047635
 21
367.1502761317385
 31
0.0
  0
LINE
  5
2DF0
330
1A
100
AcDbEntity
  8
SEIHIN
100
AcDbLine
 10
325.4848011105238
 20
348.6588204014873
 30
0.0
 11
325.4848011105236
 21
371.6501400819196
 31
0.0
  0
LINE
  5
2DF4
330
1A
100
AcDbEntity
  8
SEIHIN
100
AcDbLine
 10
323.9138211772096
 20
348.6588204014873
 30
0.0
 11
323.9138211772092
 21
369.9823951065025
 31
0.0
  0
LINE
  5
2DF6
330
1A
100
AcDbEntity
  8
SEIHIN
100
AcDbLine
 10
321.4138211772092
 20
366.1356272772844
 30
0.0
 11
321.4138211772094
 21
356.0462105348917
 31
0.0
  0
LINE
  5
2DFA
330
1A
100
AcDbEntity
  8
SEIHIN
100
AcDbLine
 10
338.6969153886379
 20
347.1305619804033
 30
0.0
 11
320.9138211772097
 21
347.130561980403
 31
0.0
  0
ARC
  5
2E02
330
1A
100
AcDbEntity
  8
SEIHIN
100
AcDbCircle
 10
320.9144370187182
 20
349.131177731027
 30
0.0
 40
2.000615845409985
100
AcDbArc
 50
179.9964218237487
 51
269.9823628709447
  0
ARC
  5
2E03
330
1A
100
AcDbEntity
  8
SEIHIN
100
AcDbCircle
 10
326.4865869450477
 20
348.1612996772931
 30
0.0
 40
1.002542960407497
100
AcDbArc
 50
179.4576650272922
 51
269.1539125343572
  0
ARC
  5
2E04
330
1A
100
AcDbEntity
  8
SEIHIN
100
AcDbCircle
 10
323.4053771189287
 20
347.6672408666996
 30
0.0
 40
0.5084449648837609
100
AcDbArc
 50
270.9515900004002
 51
0.1081992579084195
  0
LINE
  5
2E05
330
1A
100
AcDbEntity
  8
SEIHIN
100
AcDbLine
 10
323.9138211772096
 20
348.6588204014873
 30
0.0
 11
323.9138211772096
 21
347.6682010305057
 31
0.0
  0
LINE
  5
2E06
330
1A
100
AcDbEntity
  8
SEIHIN
100
AcDbLine
 10
325.4848011105238
 20
348.6588204014873
 30
0.0
 11
323.9138211772096
 21
348.6588204014873
 31
0.0
  0
ARC
  5
2E07
330
1A
100
AcDbEntity
  8
SEIHIN
100
AcDbCircle
 10
161.8502372253892
 20
348.6536062734547
 30
0.0
 40
163.6345639682073
100
AcDbArc
 50
359.8309438808955
 51
0.0018256994296923
  0
LINE
  5
2E0A
330
1A
100
AcDbEntity
  8
SEIHIN
100
AcDbLine
 10
321.4138211772094
 20
356.0462105348917
 30
0.0
 11
323.1099373123477
 21
355.7069873078641
 31
0.0
  0
LINE
  5
2E0D
330
1A
100
AcDbEntity
  8
SEIHIN
100
AcDbLine
 10
318.9138211772095
 20
353.480175913998
 30
0.0
 11
323.9138211772062
 21
353.3810642517328
 31
0.0
  0
LINE
  5
2E10
330
1A
100
AcDbEntity
  8
SEIHIN
100
AcDbLine
 10
318.9138211772094
 20
360.128583853997
 30
0.0
 11
318.9138211772096
 21
349.1313026738291
 31
0.0
  0
LINE
  5
2E1D
330
1A
100
AcDbEntity
  8
SEIHIN
100
AcDbLine
 10
321.4138211772094
 20
356.1482451166741
 30
0.0
 11
318.9138211772094
 21
356.1427873606774
 31
0.0
  0
ARC
  5
2E27
330
1A
100
AcDbEntity
  8
SEIHIN
100
AcDbCircle
 10
322.9138211772094
 20
354.7264066321731
 30
0.0
 40
1.000000000000001
100
AcDbArc
 50
0.0
 51
78.69006752598235
  0
LINE
  5
2E28
330
1A
100
AcDbEntity
  8
SEIHIN
100
AcDbLine
 10
323.9138211772092
 20
353.6826499840969
 30
0.0
 11
323.9138211772094
 21
352.5462105348917
 31
0.0
  0
ARC
  5
2E33
330
1A
100
AcDbEntity
  8
SEIHIN
100
AcDbCircle
 10
336.9135352210637
 20
342.3471881466949
 30
0.0
 40
2.000920692189846
100
AcDbArc
 50
0.0459701136902977
 51
89.95402988631216
  0
LINE
  5
2E36
330
1A
100
AcDbEntity
  8
SEIHIN
100
AcDbLine
 10
336.9151406192729
 20
344.3481081948553
 30
0.0
 11
336.9095065272586
 21
344.3424741028409
 31
0.0
  0
POLYLINE
  5
2E37
330
1A
100
AcDbEntity
  8
SEIHIN
100
AcDb2dPolyline
 66
     1
 10
0.0
 20
0.0
 30
0.0
  0
VERTEX
  5
5FFB
330
2E37
100
AcDbEntity
  8
SEIHIN
100
AcDbVertex
100
AcDb2dVertex
 10
341.6969090547718
 20
344.1305683142695
 30
0.0
  0
VERTEX
  5
5FFC
330
2E37
100
AcDbEntity
  8
SEIHIN
100
AcDbVertex
100
AcDb2dVertex
 10
341.5574071418486
 20
345.0342448031729
 30
0.0
  0
VERTEX
  5
5FFD
330
2E37
100
AcDbEntity
  8
SEIHIN
100
AcDbVertex
100
AcDb2dVertex
 10
341.2442642175676
 20
345.7140731369553
 30
0.0
  0
SEQEND
  5
5FFE
330
2E37
100
AcDbEntity
  8
SEIHIN
  0
POLYLINE
  5
2E38
330
1A
100
AcDbEntity
  8
SEIHIN
100
AcDb2dPolyline
 66
     1
 10
0.0
 20
0.0
 30
0.0
  0
VERTEX
  5
5FFF
330
2E38
100
AcDbEntity
  8
SEIHIN
100
AcDbVertex
100
AcDb2dVertex
 10
341.2442642175667
 20
345.714073136955
 30
0.0
  0
VERTEX
  5
6000
330
2E38
100
AcDbEntity
  8
SEIHIN
100
AcDbVertex
100
AcDb2dVertex
 10
340.8178562872478
 20
346.2510634040795
 30
0.0
  0
VERTEX
  5
6001
330
2E38
100
AcDbEntity
  8
SEIHIN
100
AcDbVertex
100
AcDb2dVertex
 10
340.280420211324
 20
346.6779171431988
 30
0.0
  0
SEQEND
  5
6002
330
2E38
100
AcDbEntity
  8
SEIHIN
  0
LINE
  5
2E3B
330
1A
100
AcDbEntity
  8
SEIHIN
100
AcDbLine
 10
338.9144552692239
 20
342.3487935449043
 30
0.0
 11
338.9088211772095
 21
342.3431594528899
 31
0.0
  0
POLYLINE
  5
2E3C
330
1A
100
AcDbEntity
  8
SEIHIN
100
AcDb2dPolyline
 66
     1
 10
0.0
 20
0.0
 30
0.0
  0
VERTEX
  5
6003
330
2E3C
100
AcDbEntity
  8
SEIHIN
100
AcDbVertex
100
AcDb2dVertex
 10
338.6969153886379
 20
347.1305619804033
 30
0.0
  0
VERTEX
  5
6004
330
2E3C
100
AcDbEntity
  8
SEIHIN
100
AcDbVertex
100
AcDb2dVertex
 10
339.6005918775413
 20
346.9910600674801
 30
0.0
  0
VERTEX
  5
6005
330
2E3C
100
AcDbEntity
  8
SEIHIN
100
AcDbVertex
100
AcDb2dVertex
 10
340.2804202113238
 20
346.677917143199
 30
0.0
  0
SEQEND
  5
6006
330
2E3C
100
AcDbEntity
  8
SEIHIN
  0
POLYLINE
  5
2E42
330
1A
100
AcDbEntity
  8
SEIHIN
100
AcDb2dPolyline
 66
     1
 10
0.0
 20
0.0
 30
0.0
  0
VERTEX
  5
6007
330
2E42
100
AcDbEntity
  8
SEIHIN
100
AcDbVertex
100
AcDb2dVertex
 10
316.9138211772091
 20
372.7645949441253
 30
0.0
  0
VERTEX
  5
6008
330
2E42
100
AcDbEntity
  8
SEIHIN
100
AcDbVertex
100
AcDb2dVertex
 10
321.651774650511
 20
372.8026286822563
 30
0.0
  0
VERTEX
  5
6009
330
2E42
100
AcDbEntity
  8
SEIHIN
100
AcDbVertex
100
AcDb2dVertex
 10
326.432813690617
 20
372.8410081747012
 30
0.0
  0
SEQEND
  5
600A
330
2E42
100
AcDbEntity
  8
SEIHIN
  0
LINE
  5
2E46
330
1A
100
AcDbEntity
  8
SEIHIN
100
AcDbLine
 10
325.4935279783144
 20
372.6501400819196
 30
0.0
 11
321.4138211772092
 21
372.6501400819195
 31
0.0
  0
LINE
  5
2E47
330
1A
100
AcDbEntity
  8
SEIHIN
100
AcDbLine
 10
321.4138211772092
 20
371.6501400819195
 30
0.0
 11
325.4848011105236
 21
371.6501400819196
 31
0.0
  0
LINE
  5
2E48
330
1A
100
AcDbEntity
  8
SEIHIN
100
AcDbLine
 10
321.4138211772092
 20
366.8936678327185
 30
0.0
 11
323.1099373123474
 21
366.559922892429
 31
0.0
  0
LINE
  5
2E49
330
1A
100
AcDbEntity
  8
SEIHIN
100
AcDbLine
 10
323.1099373123474
 20
370.9790716130596
 30
0.0
 11
321.4138211772092
 21
371.3238630506623
 31
0.0
  0
LINE
  5
2E4B
330
1A
100
AcDbEntity
  8
SEIHIN
100
AcDbLine
 10
321.4138211772092
 20
372.6501400819195
 30
0.0
 11
321.4138211772092
 21
371.6501400819195
 31
0.0
  0
LINE
  5
2E4C
330
1A
100
AcDbEntity
  8
SEIHIN
100
AcDbLine
 10
321.4138211772092
 20
371.3238630506623
 30
0.0
 11
321.4138211772092
 21
366.8936678327185
 31
0.0
  0
LINE
  5
2E4D
330
1A
100
AcDbEntity
  8
SEIHIN
100
AcDbLine
 10
321.4138211772092
 20
371.3238630506623
 30
0.0
 11
321.4138211772092
 21
371.6501400819195
 31
0.0
  0
LINE
  5
2E4E
330
1A
100
AcDbEntity
  8
SEIHIN
100
AcDbLine
 10
321.4138211772092
 20
366.8936678327185
 30
0.0
 11
321.4138211772092
 21
366.1356272772844
 31
0.0
  0
LINE
  5
2E55
330
1A
100
AcDbEntity
  8
SEIHIN
100
AcDbLine
 10
316.9138211772092
 20
368.5477008667768
 30
0.0
 11
321.4138211772092
 21
368.5575248275706
 31
0.0
  0
LINE
  5
2E56
330
1A
100
AcDbEntity
  8
SEIHIN
100
AcDbLine
 10
321.4138211772092
 20
371.1979494786783
 30
0.0
 11
316.9138211772092
 21
371.1588279962847
 31
0.0
  0
POLYLINE
  5
2E57
330
1A
100
AcDbEntity
  8
SEIHIN
100
AcDb2dPolyline
 66
     1
 10
0.0
 20
0.0
 30
0.0
  0
VERTEX
  5
600B
330
2E57
100
AcDbEntity
  8
SEIHIN
100
AcDbVertex
100
AcDb2dVertex
 10
325.4848011105236
 20
371.6501400819196
 30
0.0
  0
VERTEX
  5
600C
330
2E57
100
AcDbEntity
  8
SEIHIN
100
AcDbVertex
100
AcDb2dVertex
 10
325.4849345152447
 20
371.8243228928249
 30
0.0
  0
VERTEX
  5
600D
330
2E57
100
AcDbEntity
  8
SEIHIN
100
AcDbVertex
100
AcDb2dVertex
 10
325.4853306507807
 20
371.9931803545102
 30
0.0
  0
VERTEX
  5
600E
330
2E57
100
AcDbEntity
  8
SEIHIN
100
AcDbVertex
100
AcDb2dVertex
 10
325.4859774059475
 20
372.1515499314348
 30
0.0
  0
VERTEX
  5
600F
330
2E57
100
AcDbEntity
  8
SEIHIN
100
AcDbVertex
100
AcDb2dVertex
 10
325.4868550072838
 20
372.2945897376597
 30
0.0
  0
VERTEX
  5
6010
330
2E57
100
AcDbEntity
  8
SEIHIN
100
AcDbVertex
100
AcDb2dVertex
 10
325.4879366235907
 20
372.4179265694425
 30
0.0
  0
VERTEX
  5
6011
330
2E57
100
AcDbEntity
  8
SEIHIN
100
AcDbVertex
100
AcDb2dVertex
 10
325.4891891862521
 20
372.5177896086553
 30
0.0
  0
VERTEX
  5
6012
330
2E57
100
AcDbEntity
  8
SEIHIN
100
AcDbVertex
100
AcDb2dVertex
 10
325.4905744002515
 20
372.591125709266
 30
0.0
  0
VERTEX
  5
6013
330
2E57
100
AcDbEntity
  8
SEIHIN
100
AcDbVertex
100
AcDb2dVertex
 10
325.4920499149789
 20
372.635692742191
 30
0.0
  0
VERTEX
  5
6014
330
2E57
100
AcDbEntity
  8
SEIHIN
100
AcDbVertex
100
AcDb2dVertex
 10
325.4935706190299
 20
372.6501281446563
 30
0.0
  0
VERTEX
  5
6015
330
2E57
100
AcDbEntity
  8
SEIHIN
100
AcDbVertex
100
AcDb2dVertex
 10
325.4950900194121
 20
372.6339905782839
 30
0.0
  0
SEQEND
  5
6016
330
2E57
100
AcDbEntity
  8
SEIHIN
  0
ARC
  5
2E5E
330
1A
100
AcDbEntity
  8
SEIHIN
100
AcDbCircle
 10
322.9027192914074
 20
369.989406580818
 30
0.0
 40
1.011126196003308
100
AcDbArc
 50
359.6026894490473
 51
78.17413957657965
  0
ARC
  5
2E5F
330
1A
100
AcDbEntity
  8
SEIHIN
100
AcDbCircle
 10
322.9257365264043
 20
365.589140838497
 30
0.0
 40
0.9881030947114947
100
AcDbArc
 50
0.3500770437203993
 51
79.25614945559356
  0
LINE
  5
2E67
330
1A
100
AcDbEntity
  8
SEIHIN
100
AcDbLine
 10
326.4502643768185
 20
369.9927343586987
 30
0.0
 11
326.4320809036546
 21
370.2620468441734
 31
0.0
  0
ARC
  5
2E75
330
1A
100
AcDbEntity
  8
SEIHIN
100
AcDbCircle
 10
359.7952012425275
 20
365.2288541681598
 30
0.0
 40
2.959576987038851
100
AcDbArc
 50
359.4356275447555
 51
90.56437245524934
  0
ARC
  5
2E7D
330
1A
100
AcDbEntity
  8
SEIHIN
100
AcDbCircle
 10
358.7217923708962
 20
364.1554452965282
 30
0.0
 40
2.994837347670404
100
AcDbArc
 50
0.1194878119271365
 51
89.88051218807612
  0
ARC
  5
2E84
330
1A
100
AcDbEntity
  8
SEIHIN
100
AcDbCircle
 10
319.9138211772087
 20
404.8152371983856
 30
0.0
 40
2.99999999999989
100
AcDbArc
 50
97.12501634889818
 51
180.0000000000032
  0
LINE
  5
2E88
330
1A
100
AcDbEntity
  8
SEIHIN
100
AcDbLine
 10
323.9138211772087
 20
408.3385838539975
 30
0.0
 11
323.9138211772085
 21
428.3385838539977
 31
0.0
  0
LINE
  5
2E8A
330
1A
100
AcDbEntity
  8
SEIHIN
100
AcDbLine
 10
323.9138211772085
 20
408.3385838539975
 30
0.0
 11
319.5417169734396
 21
407.7920708285264
 31
0.0
  0
LINE
  5
2E90
330
1A
100
AcDbEntity
  8
SEIHIN
100
AcDbLine
 10
326.414300896763
 20
408.3385838539975
 30
0.0
 11
323.9138211772087
 21
408.3385838539975
 31
0.0
  0
LINE
  5
2E98
330
1A
100
AcDbEntity
  8
SEIHIN
100
AcDbLine
 10
323.9138211772085
 20
428.3385838539977
 30
0.0
 11
326.4133108623227
 21
428.3385838539977
 31
0.0
  0
LINE
  5
2EF3
330
1A
100
AcDbEntity
  8
SEIHIN
100
AcDbLine
 10
470.206644303488
 20
480.638583853999
 30
0.0
 11
304.4264169902508
 21
480.638583853997
 31
0.0
  0
LINE
  5
2EF4
330
1A
100
AcDbEntity
  8
SEIHIN
100
AcDbLine
 10
469.7049309283657
 20
478.138583853999
 30
0.0
 11
320.9138211772078
 21
478.1385838539972
 31
0.0
  0
LINE
  5
2EF5
330
1A
100
AcDbEntity
  8
SEIHIN
100
AcDbLine
 10
444.6947989221955
 20
468.4661219847038
 30
0.0
 11
327.4036464966029
 21
468.4661219847023
 31
0.0
  0
LINE
  5
2EF8
330
1A
100
AcDbEntity
  8
SEIHIN
100
AcDbLine
 10
318.9138211772078
 20
473.1360129103157
 30
0.0
 11
318.9138211772078
 21
480.3644290577161
 31
0.0
  0
ARC
  5
2EFA
330
1A
100
AcDbEntity
  8
SEIHIN
100
AcDbCircle
 10
161.0321686001712
 20
464.2986443306678
 30
0.0
 40
165.4020759331458
100
AcDbArc
 50
359.7951446292449
 51
1.101413076589477
  0
ARC
  5
2EFC
330
1A
100
AcDbEntity
  8
SEIHIN
100
AcDbCircle
 10
193.047439188203
 20
461.6631014689643
 30
0.0
 40
133.3571309756368
100
AcDbArc
 50
359.7363669153077
 51
1.157810983782436
  0
LINE
  5
2F01
330
1A
100
AcDbEntity
  8
SEIHIN
100
AcDbLine
 10
318.9138211772078
 20
471.5169544767902
 30
0.0
 11
323.9335780581741
 21
471.5898189937689
 31
0.0
  0
LINE
  5
2F02
330
1A
100
AcDbEntity
  8
SEIHIN
100
AcDbLine
 10
318.9138211772078
 20
473.1360129103157
 30
0.0
 11
318.9138211772081
 21
469.638583853994
 31
0.0
  0
LINE
  5
2F03
330
1A
100
AcDbEntity
  8
SEIHIN
100
AcDbLine
 10
318.9138211772081
 20
467.2789379630804
 30
0.0
 11
318.9138211772081
 21
469.638583853994
 31
0.0
  0
LINE
  5
2F04
330
1A
100
AcDbEntity
  8
SEIHIN
100
AcDbLine
 10
318.9138211772081
 20
467.2789379630804
 30
0.0
 11
318.9138211772081
 21
467.2298140249007
 31
0.0
  0
LINE
  5
2F05
330
1A
100
AcDbEntity
  8
SEIHIN
100
AcDbLine
 10
318.9138211772081
 20
467.092886078928
 30
0.0
 11
318.9138211772081
 21
467.2298140249007
 31
0.0
  0
LINE
  5
2F06
330
1A
100
AcDbEntity
  8
SEIHIN
100
AcDbLine
 10
318.9138211772081
 20
467.0894599158144
 30
0.0
 11
318.9138211772081
 21
467.092886078928
 31
0.0
  0
LINE
  5
2F09
330
1A
100
AcDbEntity
  8
SEIHIN
100
AcDbLine
 10
325.9708552730312
 20
475.1978416141563
 30
0.0
 11
326.4036845735388
 21
467.478019688236
 31
0.0
  0
LINE
  5
2F0E
330
1A
100
AcDbEntity
  8
SEIHIN
100
AcDbLine
 10
323.9138211772078
 20
475.3521332938467
 30
0.0
 11
325.982547895541
 21
475.3521332938468
 31
0.0
  0
ARC
  5
2F10
330
1A
100
AcDbEntity
  8
SEIHIN
100
AcDbCircle
 10
327.3993067532178
 20
467.4704807203236
 30
0.0
 40
0.995650722244655
100
AcDbArc
 50
89.75026406157256
 51
179.5661579294043
  0
ARC
  5
2F11
330
1A
100
AcDbEntity
  8
SEIHIN
100
AcDbCircle
 10
326.9944771246252
 20
475.1978577914237
 30
0.0
 40
1.023621851721932
100
AcDbArc
 50
171.3316169129616
 51
180.0009054995707
  0
LINE
  5
2F15
330
1A
100
AcDbEntity
  8
SEIHIN
100
AcDbLine
 10
323.9138211772078
 20
473.1737165906488
 30
0.0
 11
323.9138211772078
 21
475.3521332938467
 31
0.0
  0
LINE
  5
2F16
330
1A
100
AcDbEntity
  8
SEIHIN
100
AcDbLine
 10
323.9335780581741
 20
471.5898189937689
 30
0.0
 11
326.174256779217
 21
471.5700294365237
 31
0.0
  0
POLYLINE
  5
2F19
330
1A
100
AcDbEntity
  8
SEIHIN
100
AcDb2dPolyline
 66
     1
 10
0.0
 20
0.0
 30
0.0
  0
VERTEX
  5
6017
330
2F19
100
AcDbEntity
  8
SEIHIN
100
AcDbVertex
100
AcDb2dVertex
 10
318.9138211772078
 20
480.3644290577161
 30
0.0
  0
VERTEX
  5
6018
330
2F19
100
AcDbEntity
  8
SEIHIN
100
AcDbVertex
100
AcDb2dVertex
 10
319.0204551354688
 20
480.5124732417409
 30
0.0
  0
VERTEX
  5
6019
330
2F19
100
AcDbEntity
  8
SEIHIN
100
AcDbVertex
100
AcDb2dVertex
 10
319.336418491091
 20
480.5963353924041
 30
0.0
  0
VERTEX
  5
601A
330
2F19
100
AcDbEntity
  8
SEIHIN
100
AcDbVertex
100
AcDb2dVertex
 10
319.8203052020717
 20
480.628949766079
 30
0.0
  0
VERTEX
  5
601B
330
2F19
100
AcDbEntity
  8
SEIHIN
100
AcDbVertex
100
AcDb2dVertex
 10
320.0496660324515
 20
480.6334428476324
 30
0.0
  0
SEQEND
  5
601C
330
2F19
100
AcDbEntity
  8
SEIHIN
  0
POLYLINE
  5
2F1A
330
1A
100
AcDbEntity
  8
SEIHIN
100
AcDb2dPolyline
 66
     1
 10
0.0
 20
0.0
 30
0.0
  0
VERTEX
  5
601D
330
2F1A
100
AcDbEntity
  8
SEIHIN
100
AcDbVertex
100
AcDb2dVertex
 10
320.9138211772078
 20
478.1385838539972
 30
0.0
  0
VERTEX
  5
601E
330
2F1A
100
AcDbEntity
  8
SEIHIN
100
AcDbVertex
100
AcDb2dVertex
 10
320.2527285521371
 20
478.1373198583726
 30
0.0
  0
VERTEX
  5
601F
330
2F1A
100
AcDbEntity
  8
SEIHIN
100
AcDbVertex
100
AcDb2dVertex
 10
319.6660511136776
 20
478.1194531757685
 30
0.0
  0
VERTEX
  5
6020
330
2F1A
100
AcDbEntity
  8
SEIHIN
100
AcDbVertex
100
AcDb2dVertex
 10
319.2239268550165
 20
478.0512756943671
 30
0.0
  0
VERTEX
  5
6021
330
2F1A
100
AcDbEntity
  8
SEIHIN
100
AcDbVertex
100
AcDb2dVertex
 10
318.9746514257285
 20
477.9049684292131
 30
0.0
  0
VERTEX
  5
6022
330
2F1A
100
AcDbEntity
  8
SEIHIN
100
AcDbVertex
100
AcDb2dVertex
 10
318.9138211772078
 20
477.721159548953
 30
0.0
  0
SEQEND
  5
6023
330
2F1A
100
AcDbEntity
  8
SEIHIN
  0
ARC
  5
2F1B
330
1A
100
AcDbEntity
  8
SEIHIN
100
AcDbCircle
 10
320.8970367341756
 20
410.8291178060711
 30
0.0
 40
69.80946806568629
100
AcDbArc
 50
89.98622425033467
 51
90.69549243898189
  0
ARC
  5
2F1D
330
1A
100
AcDbEntity
  8
SEIHIN
100
AcDbCircle
 10
469.7049309283657
 20
475.1385838539989
 30
0.0
 40
3.000000000000113
100
AcDbArc
 50
0.0
 51
90.0
  0
ARC
  5
2F1E
330
1A
100
AcDbEntity
  8
SEIHIN
100
AcDbCircle
 10
470.2072304614346
 20
475.640883387068
 30
0.0
 40
4.997700501305214
100
AcDbArc
 50
359.9932800341797
 51
90.00671996581695
  0
POLYLINE
  5
2F21
330
1A
100
AcDbEntity
  8
SEIHIN
100
AcDb2dPolyline
 66
     1
 10
0.0
 20
0.0
 30
0.0
  0
VERTEX
  5
6024
330
2F21
100
AcDbEntity
  8
SEIHIN
100
AcDbVertex
100
AcDb2dVertex
 10
463.0694344756184
 20
465.5387805118529
 30
0.0
  0
VERTEX
  5
6025
330
2F21
100
AcDbEntity
  8
SEIHIN
100
AcDbVertex
100
AcDb2dVertex
 10
463.0417320424148
 20
457.8354828135288
 30
0.0
  0
VERTEX
  5
6026
330
2F21
100
AcDbEntity
  8
SEIHIN
100
AcDbVertex
100
AcDb2dVertex
 10
463.0324690590705
 20
450.1284518478289
 30
0.0
  0
SEQEND
  5
6027
330
2F21
100
AcDbEntity
  8
SEIHIN
  0
ARC
  5
2F24
330
1A
100
AcDbEntity
  8
SEIHIN
100
AcDbCircle
 10
460.0215000221924
 20
465.4551529478258
 30
0.0
 40
3.049081501345367
100
AcDbArc
 50
1.571656055858312
 51
88.42834394414666
  0
POLYLINE
  5
2F29
330
1A
100
AcDbEntity
  8
SEIHIN
100
AcDb2dPolyline
 66
     1
 10
0.0
 20
0.0
 30
0.0
  0
VERTEX
  5
6028
330
2F29
100
AcDbEntity
  8
SEIHIN
100
AcDbVertex
100
AcDb2dVertex
 10
460.1051275862194
 20
468.5030874012518
 30
0.0
  0
VERTEX
  5
6029
330
2F29
100
AcDbEntity
  8
SEIHIN
100
AcDbVertex
100
AcDb2dVertex
 10
452.4018298878955
 20
468.4753849680483
 30
0.0
  0
VERTEX
  5
602A
330
2F29
100
AcDbEntity
  8
SEIHIN
100
AcDbVertex
100
AcDb2dVertex
 10
444.6947989221955
 20
468.4661219847038
 30
0.0
  0
SEQEND
  5
602B
330
2F29
100
AcDbEntity
  8
SEIHIN
  0
ARC
  5
4545
330
1A
100
AcDbEntity
  8
NOKITOI
100
AcDbCircle
 10
412.9049309283659
 20
1073.360008578678
 30
0.0
 40
999.8000000000002
100
AcDbArc
 50
267.262787005529
 51
272.6033918042165
  0
ARC
  5
4546
330
1A
100
AcDbEntity
  8
NOKITOI
100
AcDbCircle
 10
412.9049309283659
 20
1073.360008578678
 30
0.0
 40
1000.0
100
AcDbArc
 50
267.262787005529
 51
272.6033918042165
  0
ARC
  5
4547
330
1A
100
AcDbEntity
  8
NOKITOI
100
AcDbCircle
 10
412.9049309283659
 20
1073.360008578678
 30
0.0
 40
998.3999999999999
100
AcDbArc
 50
267.343129159301
 51
272.5751779642423
  0
ARC
  5
4548
330
1A
100
AcDbEntity
  8
NOKITOI
100
AcDbCircle
 10
1341.693121154686
 20
193.3600085786784
 30
0.0
 40
999.800000000736
100
AcDbArc
 50
180.0795916737965
 51
185.9063572242729
  0
ARC
  5
4549
330
1A
100
AcDbEntity
  8
NOKITOI
100
AcDbCircle
 10
1341.693121154686
 20
193.3600085786784
 30
0.0
 40
998.4000000000001
100
AcDbArc
 50
182.4109906480859
 51
185.2410550612985
  0
ARC
  5
454A
330
1A
100
AcDbEntity
  8
NOKITOI
100
AcDbCircle
 10
1341.693121154686
 20
193.3600085786784
 30
0.0
 40
1000.000000000736
100
AcDbArc
 50
180.0795916737965
 51
185.9063572242729
  0
ARC
  5
454B
330
1A
100
AcDbEntity
  8
NOKITOI
100
AcDbCircle
 10
365.2452323542049
 20
76.49865757151923
 30
0.0
 40
1.800000000000289
100
AcDbArc
 50
184.9997491440977
 51
267.262787005529
  0
ARC
  5
454C
330
1A
100
AcDbEntity
  8
NOKITOI
100
AcDbCircle
 10
365.2452323542049
 20
76.49865757151923
 30
0.0
 40
2.000000000000289
100
AcDbArc
 50
184.9997491440977
 51
267.262787005529
  0
ARC
  5
454D
330
1A
100
AcDbEntity
  8
NOKITOI
100
AcDbCircle
 10
366.7172799830639
 20
78.03108761829884
 30
0.0
 40
1.999999999999942
100
AcDbArc
 50
184.9997491440977
 51
267.343129159301
  0
LINE
  5
454E
330
1A
100
AcDbEntity
  8
NOKITOI
100
AcDbLine
 10
361.5798202937996
 20
98.51368540712616
 30
0.0
 11
347.4672313288381
 21
102.1600085786789
 31
0.0
  0
LINE
  5
454F
330
1A
100
AcDbEntity
  8
NOKITOI
100
AcDbLine
 10
362.3740298226857
 20
88.66459023605427
 30
0.0
 11
363.4520812107939
 21
76.34178508545637
 31
0.0
  0
LINE
  5
4550
330
1A
100
AcDbEntity
  8
NOKITOI
100
AcDbLine
 10
362.1747908067511
 20
88.64715995982505
 30
0.0
 11
363.2528421948593
 21
76.32435480922715
 31
0.0
  0
LINE
  5
4551
330
1A
100
AcDbEntity
  8
NOKITOI
100
AcDbLine
 10
364.7248898237183
 20
77.85678485600675
 30
0.0
 11
363.0718929392212
 21
96.75157850582406
 31
0.0
  0
LINE
  5
4552
330
1A
100
AcDbEntity
  8
NOKITOI
100
AcDbLine
 10
347.9964068592885
 20
89.760008578679
 30
0.0
 11
361.1785957270783
 21
89.760008578679
 31
0.0
  0
LINE
  5
4553
330
1A
100
AcDbEntity
  8
NOKITOI
100
AcDbLine
 10
362.0553380708642
 20
91.16000857867907
 30
0.0
 11
348.5376851830558
 21
91.16000857867897
 31
0.0
  0
LINE
  5
4554
330
1A
100
AcDbEntity
  8
NOKITOI
100
AcDbLine
 10
347.9964068592885
 20
89.56000857867895
 30
0.0
 11
361.1785957270783
 21
89.56000857867895
 31
0.0
  0
LINE
  5
4555
330
1A
100
AcDbEntity
  8
NOKITOI
100
AcDbLine
 10
347.6141030360731
 20
100.5728018293979
 30
0.0
 11
361.5467964569443
 21
96.97295895231873
 31
0.0
  0
ARC
  5
4556
330
1A
100
AcDbEntity
  8
NOKITOI
100
AcDbCircle
 10
1341.693121154686
 20
193.3600085786784
 30
0.0
 40
998.4000000000001
100
AcDbArc
 50
185.3325301949828
 51
185.8753038897082
  0
ARC
  5
4557
330
1A
100
AcDbEntity
  8
NOKITOI
100
AcDbCircle
 10
347.9964068592885
 20
90.56000857867894
 30
0.0
 40
0.8000000000001556
100
AcDbArc
 50
185.9063572242729
 51
270.0
  0
ARC
  5
4558
330
1A
100
AcDbEntity
  8
NOKITOI
100
AcDbCircle
 10
347.9964068592885
 20
90.56000857867894
 30
0.0
 40
1.000000000000155
100
AcDbArc
 50
185.9063572242729
 51
270.0
  0
LINE
  5
4559
330
1A
100
AcDbEntity
  8
NOKITOI
100
AcDbLine
 10
361.5467964569443
 20
96.97295895231873
 30
0.0
 11
362.0553380708642
 21
91.16000857867907
 31
0.0
  0
ARC
  5
455A
330
1A
100
AcDbEntity
  8
NOKITOI
100
AcDbCircle
 10
361.1785957270783
 20
88.56000857867895
 30
0.0
 40
1.200000000000007
100
AcDbArc
 50
4.99974914409775
 51
90.0
  0
ARC
  5
455B
330
1A
100
AcDbEntity
  8
NOKITOI
100
AcDbCircle
 10
361.1785957270783
 20
88.56000857867895
 30
0.0
 40
1.000000000000007
100
AcDbArc
 50
4.99974914409775
 51
90.0
  0
ARC
  5
455C
330
1A
100
AcDbEntity
  8
NOKITOI
100
AcDbCircle
 10
361.0795027798756
 20
96.57727574353197
 30
0.0
 40
2.000000000000012
100
AcDbArc
 50
4.99974914409775
 51
75.51309319945698
  0
ARC
  5
455D
330
1A
100
AcDbEntity
  8
NOKITOI
100
AcDbCircle
 10
350.5155588574675
 20
172.3600085786782
 30
0.0
 40
7.000000000000047
100
AcDbArc
 50
181.2137395248443
 51
270.0
  0
ARC
  5
455E
330
1A
100
AcDbEntity
  8
NOKITOI
100
AcDbCircle
 10
1341.693121154686
 20
193.3600085786784
 30
0.0
 40
998.3999999999999
100
AcDbArc
 50
181.4914279597314
 51
182.3150327430775
  0
ARC
  5
455F
330
1A
100
AcDbEntity
  8
NOKITOI
100
AcDbCircle
 10
350.5155588574675
 20
172.3600085786782
 30
0.0
 40
8.500000000000021
100
AcDbArc
 50
215.9131497548183
 51
270.0
  0
LINE
  5
4560
330
1A
100
AcDbEntity
  8
NOKITOI
100
AcDbLine
 10
359.1931211539508
 20
163.8600085786782
 30
0.0
 11
350.5155588574675
 21
163.8600085786782
 31
0.0
  0
LINE
  5
4561
330
1A
100
AcDbEntity
  8
NOKITOI
100
AcDbLine
 10
359.0931211539507
 20
165.3600085786782
 30
0.0
 11
350.5155588574675
 21
165.3600085786782
 31
0.0
  0
LINE
  5
4562
330
1A
100
AcDbEntity
  8
NOKITOI
100
AcDbLine
 10
344.1079839747353
 20
153.0306882563949
 30
0.0
 11
359.1931211539508
 21
161.2508764826981
 31
0.0
  0
LINE
  5
4563
330
1A
100
AcDbEntity
  8
NOKITOI
100
AcDbLine
 10
344.1769257974383
 20
151.3600085786786
 30
0.0
 11
359.8587053556661
 21
159.9053189832562
 31
0.0
  0
ARC
  5
4564
330
1A
100
AcDbEntity
  8
NOKITOI
100
AcDbCircle
 10
359.0931211539507
 20
163.7600085786782
 30
0.0
 40
1.600000000000008
100
AcDbArc
 50
0.0
 51
90.0
  0
LINE
  5
4565
330
1A
100
AcDbEntity
  8
NOKITOI
100
AcDbLine
 10
359.1931211539508
 20
161.2508764826981
 30
0.0
 11
359.1931211539508
 21
163.8600085786782
 31
0.0
  0
LINE
  5
4566
330
1A
100
AcDbEntity
  8
NOKITOI
100
AcDbLine
 10
360.6931211539508
 20
161.3102676762994
 30
0.0
 11
360.6931211539508
 21
163.7600085786782
 31
0.0
  0
ARC
  5
4567
330
1A
100
AcDbEntity
  8
NOKITOI
100
AcDbCircle
 10
359.0931211539507
 20
161.3102676762994
 30
0.0
 40
1.600000000000008
100
AcDbArc
 50
298.5868361218854
 51
0.0
  0
ARC
  5
4568
330
1A
100
AcDbEntity
  8
NOKITOI
100
AcDbCircle
 10
342.6940850394212
 20
191.9722613967986
 30
0.0
 40
0.8000000000001193
100
AcDbArc
 50
71.56505117707799
 51
180.079591673803
  0
ARC
  5
4569
330
1A
100
AcDbEntity
  8
NOKITOI
100
AcDbCircle
 10
342.6940850394212
 20
191.9722613967986
 30
0.0
 40
1.000000000000119
100
AcDbArc
 50
71.56505117707799
 51
180.079591673803
  0
ARC
  5
456A
330
1A
100
AcDbEntity
  8
NOKITOI
100
AcDbCircle
 10
361.7125492673628
 20
182.0519604094039
 30
0.0
 40
1.990469879287869
100
AcDbArc
 50
5.716280370794754
 51
79.4270390383311
  0
ARC
  5
456B
330
1A
100
AcDbEntity
  8
NOKITOI
100
AcDbCircle
 10
361.6931211539508
 20
182.2502161594084
 30
0.0
 40
2.0
100
AcDbArc
 50
0.0
 51
77.66091272167421
  0
LINE
  5
456C
330
1A
100
AcDbEntity
  8
NOKITOI
100
AcDbLine
 10
351.6931211539506
 20
184.8471746432624
 30
0.0
 11
351.6931211539506
 21
182.3600085786782
 31
0.0
  0
LINE
  5
456D
330
1A
100
AcDbEntity
  8
NOKITOI
100
AcDbLine
 10
353.1931211539506
 20
182.3600085786782
 30
0.0
 11
353.1931211539506
 21
184.5190496432624
 31
0.0
  0
LINE
  5
456E
330
1A
100
AcDbEntity
  8
NOKITOI
100
AcDbLine
 10
361.7999695933535
 20
182.6363015471429
 30
0.0
 11
353.1931211539506
 21
184.5190496432624
 31
0.0
  0
ARC
  5
456F
330
1A
100
AcDbEntity
  8
NOKITOI
100
AcDbCircle
 10
1341.693121154686
 20
193.3600085786784
 30
0.0
 40
998.3999999999998
100
AcDbArc
 50
180.1673696882618
 51
180.8493437959589
  0
LINE
  5
4570
330
1A
100
AcDbEntity
  8
NOKITOI
100
AcDbLine
 10
353.1931211539506
 20
182.3600085786782
 30
0.0
 11
356.1226511628788
 21
182.3600085786782
 31
0.0
  0
LINE
  5
4571
330
1A
100
AcDbEntity
  8
NOKITOI
100
AcDbLine
 10
350.484913964362
 20
180.8600085786782
 30
0.0
 11
356.2654211620672
 21
180.8600085786782
 31
0.0
  0
ARC
  5
4572
330
1A
100
AcDbEntity
  8
NOKITOI
100
AcDbCircle
 10
350.484913964362
 20
173.8600085786782
 30
0.0
 40
7.000000000000182
100
AcDbArc
 50
90.0
 51
181.127032230844
  0
ARC
  5
4573
330
1A
100
AcDbEntity
  8
NOKITOI
100
AcDbCircle
 10
1341.693121154686
 20
193.3600085786784
 30
0.0
 40
998.4000000007354
100
AcDbArc
 50
181.127032230844
 51
181.2137395248443
  0
ARC
  5
4574
330
1A
100
AcDbEntity
  8
NOKITOI
100
AcDbCircle
 10
350.484913964362
 20
173.8600085786782
 30
0.0
 40
8.500000000000023
100
AcDbArc
 50
90.0
 51
146.4276220008678
  0
LINE
  5
4575
330
1A
100
AcDbEntity
  8
NOKITOI
100
AcDbLine
 10
350.484913964362
 20
182.3600085786782
 30
0.0
 11
351.6931211539506
 21
182.3600085786782
 31
0.0
  0
ARC
  5
4576
330
1A
100
AcDbEntity
  8
NOKITOI
100
AcDbCircle
 10
356.4069711498925
 20
175.8600085786782
 30
0.0
 40
0.5
100
AcDbArc
 50
160.0168934781005
 51
270.0
  0
ARC
  5
4577
330
1A
100
AcDbEntity
  8
NOKITOI
100
AcDbCircle
 10
358.6931211539508
 20
180.3600085786782
 30
0.0
 40
4.999999999999985
100
AcDbArc
 50
270.0
 51
0.0
  0
LINE
  5
4578
330
1A
100
AcDbEntity
  8
NOKITOI
100
AcDbLine
 10
356.4069711498925
 20
175.3600085786782
 30
0.0
 11
358.6931211539508
 21
175.3600085786782
 31
0.0
  0
ARC
  5
4579
330
1A
100
AcDbEntity
  8
NOKITOI
100
AcDbCircle
 10
356.1226511628788
 20
179.7600085786782
 30
0.0
 40
2.600000000000022
100
AcDbArc
 50
340.0168934781006
 51
90.0
  0
ARC
  5
457A
330
1A
100
AcDbEntity
  8
NOKITOI
100
AcDbCircle
 10
358.6931211539508
 20
180.3600085786782
 30
0.0
 40
3.499999999999985
100
AcDbArc
 50
270.0
 51
0.0
  0
LINE
  5
457B
330
1A
100
AcDbEntity
  8
NOKITOI
100
AcDbLine
 10
357.2052145855557
 20
179.5182655155915
 30
0.0
 11
355.9370744381483
 21
176.0308801102215
 31
0.0
  0
LINE
  5
457C
330
1A
100
AcDbEntity
  8
NOKITOI
100
AcDbLine
 10
358.5485211377181
 20
176.8600085786782
 30
0.0
 11
358.6931211539508
 21
176.8600085786782
 31
0.0
  0
LINE
  5
457D
330
1A
100
AcDbEntity
  8
NOKITOI
100
AcDbLine
 10
358.5661140639488
 20
178.8714766146527
 30
0.0
 11
358.0786244259738
 21
177.5308801102215
 31
0.0
  0
ARC
  5
457E
330
1A
100
AcDbEntity
  8
NOKITOI
100
AcDbCircle
 10
358.5485211377181
 20
177.3600085786782
 30
0.0
 40
0.5
100
AcDbArc
 50
160.0168934781005
 51
270.0
  0
ARC
  5
457F
330
1A
100
AcDbEntity
  8
NOKITOI
100
AcDbCircle
 10
356.2654211620672
 20
179.8600085786782
 30
0.0
 40
1.000000000000003
100
AcDbArc
 50
340.0168934781006
 51
90.0
  0
ARC
  5
4580
330
1A
100
AcDbEntity
  8
NOKITOI
100
AcDbCircle
 10
361.6931211539508
 20
182.1478515384449
 30
0.0
 40
0.5
100
AcDbArc
 50
0.0
 51
77.66091272167421
  0
LINE
  5
4581
330
1A
100
AcDbEntity
  8
NOKITOI
100
AcDbLine
 10
362.1931211539508
 20
180.3600085786782
 30
0.0
 11
362.1931211539508
 21
182.1478515384449
 31
0.0
  0
LINE
  5
4582
330
1A
100
AcDbEntity
  8
NOKITOI
100
AcDbLine
 10
363.6931211539508
 20
180.3600085786782
 30
0.0
 11
363.6931211539508
 21
182.2502161594084
 31
0.0
  0
LINE
  5
4583
330
1A
100
AcDbEntity
  8
NOKITOI
100
AcDbLine
 10
362.0777755358005
 20
184.0086361907216
 30
0.0
 11
348.4366848993841
 21
186.9926247674378
 31
0.0
  0
LINE
  5
4584
330
1A
100
AcDbEntity
  8
NOKITOI
100
AcDbLine
 10
362.1205149115617
 20
184.2040161942009
 30
0.0
 11
348.4794242751452
 21
187.1880047709169
 31
0.0
  0
LINE
  5
4585
330
1A
100
AcDbEntity
  8
NOKITOI
100
AcDbLine
 10
347.2879894837558
 20
191.2842339580653
 30
0.0
 11
342.9470672522347
 21
192.731208035239
 31
0.0
  0
LINE
  5
4586
330
1A
100
AcDbEntity
  8
NOKITOI
100
AcDbLine
 10
347.3512350369592
 20
191.4739706176754
 30
0.0
 11
343.0103128054381
 21
192.9209446948491
 31
0.0
  0
ARC
  5
4587
330
1A
100
AcDbEntity
  8
NOKITOI
100
AcDbCircle
 10
347.1931211539506
 20
190.9996289686502
 30
0.0
 40
0.3000000000000076
100
AcDbArc
 50
0.0
 51
71.56505117707799
  0
ARC
  5
4588
330
1A
100
AcDbEntity
  8
NOKITOI
100
AcDbCircle
 10
348.6931211539506
 20
188.1649047883131
 30
0.0
 40
1.20000000000001
100
AcDbArc
 50
180.0
 51
257.6609127216741
  0
ARC
  5
4589
330
1A
100
AcDbEntity
  8
NOKITOI
100
AcDbCircle
 10
347.1931211539506
 20
190.9996289686502
 30
0.0
 40
0.5000000000000077
100
AcDbArc
 50
0.0
 51
71.56505117707799
  0
LINE
  5
458A
330
1A
100
AcDbEntity
  8
NOKITOI
100
AcDbLine
 10
351.6931211539506
 20
184.8471746432624
 30
0.0
 11
346.8794242751453
 21
185.9001708355011
 31
0.0
  0
ARC
  5
458B
330
1A
100
AcDbEntity
  8
NOKITOI
100
AcDbCircle
 10
348.6931211539506
 20
188.1649047883131
 30
0.0
 40
1.00000000000001
100
AcDbArc
 50
180.0
 51
257.6609127216741
  0
LINE
  5
458C
330
1A
100
AcDbEntity
  8
NOKITOI
100
AcDbLine
 10
346.0931211539507
 20
186.8770708528973
 30
0.0
 11
346.0931211539507
 21
189.8464142165603
 31
0.0
  0
ARC
  5
458D
330
1A
100
AcDbEntity
  8
NOKITOI
100
AcDbCircle
 10
347.0931211539507
 20
186.8770708528973
 30
0.0
 40
1.0
100
AcDbArc
 50
180.0
 51
257.6609127216741
  0
LINE
  5
458E
330
1A
100
AcDbEntity
  8
NOKITOI
100
AcDbLine
 10
345.7512350369591
 20
190.3207558655856
 30
0.0
 11
343.9554926397597
 21
190.9193366646521
 31
0.0
  0
ARC
  5
458F
330
1A
100
AcDbEntity
  8
NOKITOI
100
AcDbCircle
 10
343.7973787567512
 20
190.4449950156268
 30
0.0
 40
0.5000000000000031
100
AcDbArc
 50
71.56505117707799
 51
180.1673696882683
  0
LINE
  5
4590
330
1A
100
AcDbEntity
  8
NOKITOI
100
AcDbLine
 10
347.4931211539506
 20
188.1649047883131
 30
0.0
 11
347.4931211539506
 21
190.9996289686502
 31
0.0
  0
ARC
  5
4591
330
1A
100
AcDbEntity
  8
NOKITOI
100
AcDbCircle
 10
345.5931211539507
 20
189.8464142165603
 30
0.0
 40
0.5
100
AcDbArc
 50
0.0
 51
71.56505117707799
  0
LINE
  5
4592
330
1A
100
AcDbEntity
  8
NOKITOI
100
AcDbLine
 10
347.6931211539506
 20
188.1649047883131
 30
0.0
 11
347.6931211539506
 21
190.9996289686502
 31
0.0
  0
LINE
  5
4593
330
1A
100
AcDbEntity
  8
NOKITOI
100
AcDbLine
 10
462.8414087663133
 20
78.63961892548622
 30
0.0
 11
472.2073688804516
 21
138.0609975539751
 31
0.0
  0
LINE
  5
4594
330
1A
100
AcDbEntity
  8
NOKITOI
100
AcDbLine
 10
463.0389697331338
 20
78.60847949085751
 30
0.0
 11
472.4049298472721
 21
138.0298581193464
 31
0.0
  0
LINE
  5
4595
330
1A
100
AcDbEntity
  8
NOKITOI
100
AcDbLine
 10
470.8244421127094
 20
138.2789735963761
 30
0.0
 11
461.5347447355743
 21
79.3414361241069
 31
0.0
  0
LINE
  5
4596
330
1A
100
AcDbEntity
  8
CENTER_L
 48
0.3
100
AcDbLine
 10
412.9049309283657
 20
65.21270711101789
 30
0.0
 11
412.9049309283657
 21
81.90731004634011
 31
0.0
  0
ARC
  5
4597
330
1A
100
AcDbEntity
  8
NOKITOI
100
AcDbCircle
 10
458.0999455626242
 20
79.38696535657555
 30
0.0
 40
4.799999999999973
100
AcDbArc
 50
272.6033918042165
 51
351.0427677630327
  0
ARC
  5
4598
330
1A
100
AcDbEntity
  8
NOKITOI
100
AcDbCircle
 10
457.5835253991668
 20
79.96422481668133
 30
0.0
 40
4.000000000000015
100
AcDbArc
 50
272.5751779642423
 51
351.0427677630327
  0
ARC
  5
4599
330
1A
100
AcDbEntity
  8
NOKITOI
100
AcDbCircle
 10
458.0999455626242
 20
79.38696535657555
 30
0.0
 40
4.999999999999973
100
AcDbArc
 50
272.6033918042165
 51
351.0427677630327
  0
LINE
  5
459A
330
1A
100
AcDbEntity
  8
NOKITOI
100
AcDbLine
 10
457.7049309283661
 20
138.3600085786798
 30
0.0
 11
465.7049309283661
 21
138.3600085786798
 31
0.0
  0
LINE
  5
459B
330
1A
100
AcDbEntity
  8
NOKITOI
100
AcDbLine
 10
464.470553577021
 20
157.6903590034071
 30
0.0
 11
457.7049309283661
 21
138.3600085786798
 31
0.0
  0
LINE
  5
459C
330
1A
100
AcDbEntity
  8
NOKITOI
100
AcDbLine
 10
472.5049309283656
 20
141.8600085786791
 30
0.0
 11
472.5049309283661
 21
153.3600085786791
 31
0.0
  0
LINE
  5
459D
330
1A
100
AcDbEntity
  8
NOKITOI
100
AcDbLine
 10
465.7341524358973
 20
156.7600085786792
 30
0.0
 11
459.8191524358973
 21
139.8600085786798
 31
0.0
  0
LINE
  5
459E
330
1A
100
AcDbEntity
  8
NOKITOI
100
AcDbLine
 10
471.1049309283662
 20
143.8982605113176
 30
0.0
 11
471.1049309283662
 21
153.3600085786791
 31
0.0
  0
LINE
  5
459F
330
1A
100
AcDbEntity
  8
NOKITOI
100
AcDbLine
 10
472.7049309283656
 20
141.8600085786791
 30
0.0
 11
472.7049309283661
 21
153.3600085786791
 31
0.0
  0
LINE
  5
45A0
330
1A
100
AcDbEntity
  8
NOKITOI
100
AcDbLine
 10
466.7049309283661
 20
141.3600085786798
 30
0.0
 11
471.1049309283662
 21
142.3600085786798
 31
0.0
  0
LINE
  5
45A1
330
1A
100
AcDbEntity
  8
NOKITOI
100
AcDbLine
 10
465.548969940374
 20
142.6355421049559
 30
0.0
 11
471.1049309283662
 21
143.8982605113176
 31
0.0
  0
LINE
  5
45A2
330
1A
100
AcDbEntity
  8
NOKITOI
100
AcDbLine
 10
464.6237920982819
 20
139.8600085786798
 30
0.0
 11
465.548969940374
 21
142.6355421049559
 31
0.0
  0
LINE
  5
45A3
330
1A
100
AcDbEntity
  8
NOKITOI
100
AcDbLine
 10
459.8191524358973
 20
139.8600085786798
 30
0.0
 11
464.6237920982819
 21
139.8600085786798
 31
0.0
  0
LINE
  5
45A4
330
1A
100
AcDbEntity
  8
NOKITOI
100
AcDbLine
 10
465.7049309283661
 20
138.3600085786798
 30
0.0
 11
466.7049309283661
 21
141.3600085786798
 31
0.0
  0
ARC
  5
45A5
330
1A
100
AcDbEntity
  8
NOKITOI
100
AcDbCircle
 10
448.1049309283653
 20
141.8600085786791
 30
0.0
 40
24.40000000000039
100
AcDbArc
 50
351.0427677630327
 51
0.0
  0
ARC
  5
45A6
330
1A
100
AcDbEntity
  8
NOKITOI
100
AcDbCircle
 10
448.1049309283653
 20
141.8600085786791
 30
0.0
 40
24.60000000000039
100
AcDbArc
 50
351.0427677630327
 51
0.0
  0
ARC
  5
45A7
330
1A
100
AcDbEntity
  8
NOKITOI
100
AcDbCircle
 10
448.1049309283653
 20
141.8600085786791
 30
0.0
 40
23.00000000000073
100
AcDbArc
 50
351.0427677630327
 51
0.0
  0
LINE
  5
45A8
330
1A
100
AcDbEntity
  8
NOKITOI
100
AcDbLine
 10
471.1049309283662
 20
142.3600085786798
 30
0.0
 11
471.104930928366
 21
141.8600085786791
 31
0.0
  0
ARC
  5
45A9
330
1A
100
AcDbEntity
  8
NOKITOI
100
AcDbCircle
 10
467.7049309283661
 20
153.3600085786791
 30
0.0
 40
4.800000000000028
100
AcDbArc
 50
0.0
 51
90.0
  0
ARC
  5
45AA
330
1A
100
AcDbEntity
  8
NOKITOI
100
AcDbCircle
 10
467.7049309283661
 20
153.3600085786791
 30
0.0
 40
3.400000000000034
100
AcDbArc
 50
0.0
 51
90.0
  0
ARC
  5
45AB
330
1A
100
AcDbEntity
  8
NOKITOI
100
AcDbCircle
 10
467.7049309283661
 20
153.3600085786791
 30
0.0
 40
5.000000000000028
100
AcDbArc
 50
0.0
 51
90.0
  0
LINE
  5
45AC
330
1A
100
AcDbEntity
  8
NOKITOI
100
AcDbLine
 10
467.7049309283661
 20
158.160008578679
 30
0.0
 11
465.4144119333871
 21
158.160008578679
 31
0.0
  0
LINE
  5
45AD
330
1A
100
AcDbEntity
  8
NOKITOI
100
AcDbLine
 10
467.7049309283661
 20
156.7600085786791
 30
0.0
 11
465.7341524358973
 21
156.7600085786792
 31
0.0
  0
LINE
  5
45AE
330
1A
100
AcDbEntity
  8
NOKITOI
100
AcDbLine
 10
467.7049309283661
 20
158.3600085786791
 30
0.0
 11
465.4144119333871
 21
158.3600085786791
 31
0.0
  0
ARC
  5
45AF
330
1A
100
AcDbEntity
  8
NOKITOI
100
AcDbCircle
 10
465.3291240649923
 20
157.1481477829753
 30
0.0
 40
1.015448812288253
100
AcDbArc
 50
85.18203328732571
 51
147.7264463795314
  0
ARC
  5
45B0
330
1A
100
AcDbEntity
  8
NOKITOI
100
AcDbCircle
 10
465.4144119333871
 20
157.3600085786791
 30
0.0
 40
1.000000000000013
100
AcDbArc
 50
90.0
 51
160.7099537808137
  0
LINE
  5
45CB
330
1A
100
AcDbEntity
  8
SEIHIN
100
AcDbLine
 10
444.6947989221955
 20
77.01108674508384
 30
0.0
 11
428.0576471285922
 21
77.01108674508379
 31
0.0
  0
LINE
  5
45CC
330
1A
100
AcDbEntity
  8
SEIHIN
100
AcDbLine
 10
451.9987960151238
 20
77.06743836293139
 30
0.0
 11
444.7072037086981
 21
77.01113463759151
 31
0.0
  0
ARC
  5
45CD
330
1A
100
AcDbEntity
  8
SEIHIN
100
AcDbCircle
 10
455.4657650238566
 20
82.31977711400304
 30
0.0
 40
5.106552420345249
100
AcDbArc
 50
272.4574812539435
 51
351.146986423643
  0
LINE
  5
45CE
330
1A
100
AcDbEntity
  8
SEIHIN
100
AcDbLine
 10
460.5114869846909
 20
81.5339224765105
 30
0.0
 11
467.8035747621623
 21
128.3600085786668
 31
0.0
  0
LINE
  5
45CF
330
1A
100
AcDbEntity
  8
SEIHIN
100
AcDbLine
 10
451.9863912286211
 20
78.6739154704237
 30
0.0
 11
455.6158391632473
 21
78.82296861254707
 31
0.0
  0
LINE
  5
45D0
330
1A
100
AcDbEntity
  8
SEIHIN
100
AcDbLine
 10
451.9987960151238
 20
77.06743836293139
 30
0.0
 11
455.6847237255175
 21
77.21792110773424
 31
0.0
  0
ARC
  5
45D1
330
1A
100
AcDbEntity
  8
SEIHIN
100
AcDbCircle
 10
423.2049309283659
 20
78.31761174508381
 30
0.0
 40
0.3
100
AcDbArc
 50
90.0000000000001
 51
180.0
  0
LINE
  5
45D8
330
1A
100
AcDbEntity
  8
CENTER_L
 48
0.5
100
AcDbLine
 10
482.4629817669841
 20
487.8966346926175
 30
0.0
 11
329.6014607656247
 21
335.0351136912563
 31
0.0
  0
LINE
  5
45DC
330
1A
100
AcDbEntity
  8
SEIHIN
100
AcDbLine
 10
318.9138211772081
 20
472.9304739967562
 30
0.0
 11
323.913821177208
 21
473.1737165906486
 31
0.0
  0
LINE
  5
45DF
330
1A
100
AcDbEntity
  8
SEIHIN
100
AcDbLine
 10
326.4331873265319
 20
463.7072668909069
 30
0.0
 11
326.4412985399001
 21
432.562593655962
 31
0.0
  0
LINE
  5
45E0
330
1A
100
AcDbEntity
  8
SEIHIN
100
AcDbLine
 10
326.4412985399001
 20
432.562593655962
 30
0.0
 11
326.4409296126436
 21
401.4040833159548
 31
0.0
  0
LINE
  5
45E1
330
1A
100
AcDbEntity
  8
SEIHIN
100
AcDbLine
 10
326.4409296126436
 20
401.4040833159548
 30
0.0
 11
326.4255083155635
 21
347.1305619804031
 31
0.0
  0
LINE
  5
45E3
330
1A
100
AcDbEntity
  8
SEIHIN
100
AcDbLine
 10
327.4317741915683
 20
368.1824660684408
 30
0.0
 11
359.6073910065856
 21
368.1824660684414
 31
0.0
  0
LINE
  5
45E5
330
1A
100
AcDbEntity
  8
SEIHIN
100
AcDbLine
 10
327.4271717187488
 20
351.9845804125437
 30
0.0
 11
343.5669878458956
 21
351.984580412544
 31
0.0
  0
ARC
  5
45E7
330
1A
100
AcDbEntity
  8
SEIHIN
100
AcDbCircle
 10
327.4317741915683
 20
369.1824660684408
 30
0.0
 40
1.0
100
AcDbArc
 50
179.9837199578766
 51
270.000000000001
  0
ARC
  5
45E8
330
1A
100
AcDbEntity
  8
SEIHIN
100
AcDbCircle
 10
327.4314809047635
 20
368.1502761317385
 30
0.0
 40
1.0
100
AcDbArc
 50
179.9837199578766
 51
270.0000000000007
  0
ARC
  5
45E9
330
1A
100
AcDbEntity
  8
SEIHIN
100
AcDbCircle
 10
327.4271717187488
 20
352.9845804125437
 30
0.0
 40
1.0
100
AcDbArc
 50
179.9837199578766
 51
270.0000000000007
  0
LINE
  5
45EB
330
1A
100
AcDbEntity
  8
SEIHIN
100
AcDbLine
 10
318.9138211772096
 20
352.228335714442
 30
0.0
 11
323.9138211772069
 21
352.1292240521768
 31
0.0
  0
LINE
  5
45EC
330
1A
100
AcDbEntity
  8
SEIHIN
100
AcDbLine
 10
474.4046566943723
 20
285.3474741028411
 30
0.0
 11
339.7091348071292
 21
285.347474102841
 31
0.0
  0
LINE
  5
45ED
330
1A
100
AcDbEntity
  8
SEIHIN
100
AcDbLine
 10
467.7400636650174
 20
329.347474102841
 30
0.0
 11
469.9184803682153
 21
329.347474102841
 31
0.0
  0
LINE
  5
45EE
330
1A
100
AcDbEntity
  8
SEIHIN
100
AcDbLine
 10
467.7023599846843
 20
324.347474102841
 30
0.0
 11
474.9307761320848
 21
324.347474102841
 31
0.0
  0
LINE
  5
45EF
330
1A
100
AcDbEntity
  8
SEIHIN
100
AcDbLine
 10
469.7641886885248
 20
331.4045081986644
 30
0.0
 11
462.0443667626045
 21
331.8373374991718
 31
0.0
  0
LINE
  5
45F0
330
1A
100
AcDbEntity
  8
SEIHIN
100
AcDbLine
 10
463.0324690590709
 20
450.1284518478287
 30
0.0
 11
463.0324690590708
 21
332.8372994222361
 31
0.0
  0
LINE
  5
45F1
330
1A
100
AcDbEntity
  8
SEIHIN
100
AcDbLine
 10
427.1289407303306
 20
331.8749514655328
 30
0.0
 11
395.9704303903233
 21
331.8745825382759
 31
0.0
  0
LINE
  5
45F2
330
1A
100
AcDbEntity
  8
SEIHIN
100
AcDbLine
 10
402.9049309283662
 20
329.3474741028411
 30
0.0
 11
422.9049309283661
 21
329.347474102841
 31
0.0
  0
LINE
  5
45F3
330
1A
100
AcDbEntity
  8
SEIHIN
100
AcDbLine
 10
395.9704303903233
 20
331.8745825382759
 30
0.0
 11
341.6969090547715
 21
331.8591612411951
 31
0.0
  0
LINE
  5
45F4
330
1A
100
AcDbEntity
  8
SEIHIN
100
AcDbLine
 10
399.3815842727542
 20
322.347474102841
 30
0.0
 11
354.6949309283657
 21
322.347474102841
 31
0.0
  0
LINE
  5
45F5
330
1A
100
AcDbEntity
  8
SEIHIN
100
AcDbLine
 10
363.2528421948592
 20
285.347474102841
 30
0.0
 11
363.2528421948592
 21
322.347474102841
 31
0.0
  0
LINE
  5
45F6
330
1A
100
AcDbEntity
  8
SEIHIN
100
AcDbLine
 10
362.1747908067511
 20
322.347474102841
 30
0.0
 11
362.1747908067511
 21
285.347474102841
 31
0.0
  0
LINE
  5
45F7
330
1A
100
AcDbEntity
  8
SEIHIN
100
AcDbLine
 10
360.7019743516531
 20
326.847474102841
 30
0.0
 11
350.6125576092604
 21
326.8474741028411
 31
0.0
  0
LINE
  5
45F8
330
1A
100
AcDbEntity
  8
SEIHIN
100
AcDbLine
 10
343.2251674758558
 20
329.3474741028412
 30
0.0
 11
364.548742180871
 21
329.347474102841
 31
0.0
  0
LINE
  5
45F9
330
1A
100
AcDbEntity
  8
SEIHIN
100
AcDbLine
 10
343.2251674758558
 20
330.9184540361554
 30
0.0
 11
366.2164871562881
 21
330.9184540361556
 31
0.0
  0
LINE
  5
45FA
330
1A
100
AcDbEntity
  8
SEIHIN
100
AcDbLine
 10
362.7488131428092
 20
332.8654271172001
 30
0.0
 11
362.7488131428096
 21
365.0410439322175
 31
0.0
  0
LINE
  5
45FB
330
1A
100
AcDbEntity
  8
SEIHIN
100
AcDbLine
 10
361.7166232061072
 20
364.1616908927201
 30
0.0
 11
361.7166232061072
 21
332.8651338303955
 31
0.0
  0
ARC
  5
45FC
330
1A
100
AcDbEntity
  8
SEIHIN
100
AcDbCircle
 10
362.7166232061072
 20
332.8651338303955
 30
0.0
 40
1.0
100
AcDbArc
 50
179.9999999999999
 51
270.0162800421241
  0
ARC
  5
45FD
330
1A
100
AcDbEntity
  8
SEIHIN
100
AcDbCircle
 10
363.7488131428092
 20
332.8654271172001
 30
0.0
 40
1.0
100
AcDbArc
 50
179.9999999999996
 51
270.016280042124
  0
POLYLINE
  5
45FE
330
1A
100
AcDbEntity
  8
SEIHIN
100
AcDb2dPolyline
 66
     1
 10
0.0
 20
0.0
 30
0.0
  0
VERTEX
  5
602C
330
45FE
100
AcDbEntity
  8
SEIHIN
100
AcDbVertex
100
AcDb2dVertex
 10
367.3309420184939
 20
322.3474741028411
 30
0.0
  0
VERTEX
  5
602D
330
45FE
100
AcDbEntity
  8
SEIHIN
100
AcDbVertex
100
AcDb2dVertex
 10
367.3689757566249
 20
327.0854275761429
 30
0.0
  0
VERTEX
  5
602E
330
45FE
100
AcDbEntity
  8
SEIHIN
100
AcDbVertex
100
AcDb2dVertex
 10
367.4073552490697
 20
331.8664666162489
 30
0.0
  0
SEQEND
  5
602F
330
45FE
100
AcDbEntity
  8
SEIHIN
  0
LINE
  5
45FF
330
1A
100
AcDbEntity
  8
SEIHIN
100
AcDbLine
 10
363.1140479411454
 20
322.347474102841
 30
0.0
 11
363.1238719019393
 21
326.847474102841
 31
0.0
  0
LINE
  5
4600
330
1A
100
AcDbEntity
  8
SEIHIN
100
AcDbLine
 10
365.7642965530469
 20
326.847474102841
 30
0.0
 11
365.7251750706534
 21
322.347474102841
 31
0.0
  0
LINE
  5
4601
330
1A
100
AcDbEntity
  8
SEIHIN
100
AcDbLine
 10
367.2164871562881
 20
330.9271809039463
 30
0.0
 11
367.2164871562881
 21
326.8474741028411
 31
0.0
  0
LINE
  5
4602
330
1A
100
AcDbEntity
  8
SEIHIN
100
AcDbLine
 10
364.5590814330673
 20
331.8839173024503
 30
0.0
 11
364.8283939185421
 21
331.8657338292864
 31
0.0
  0
ARC
  5
4603
330
1A
100
AcDbEntity
  8
SEIHIN
100
AcDbCircle
 10
360.1554879128657
 20
328.3593894520361
 30
0.0
 40
0.9881030947114947
100
AcDbArc
 50
10.74385054440714
 51
89.64992295628031
  0
ARC
  5
4604
330
1A
100
AcDbEntity
  8
SEIHIN
100
AcDbCircle
 10
364.5557536551866
 20
328.3363722170392
 30
0.0
 40
1.011126196003308
100
AcDbArc
 50
11.82586042342106
 51
90.39731055095343
  0
LINE
  5
4605
330
1A
100
AcDbEntity
  8
SEIHIN
100
AcDbLine
 10
361.4600149070871
 20
326.847474102841
 30
0.0
 11
360.7019743516531
 21
326.847474102841
 31
0.0
  0
LINE
  5
4606
330
1A
100
AcDbEntity
  8
SEIHIN
100
AcDbLine
 10
365.8902101250309
 20
326.8474741028411
 30
0.0
 11
366.2164871562881
 21
326.8474741028411
 31
0.0
  0
LINE
  5
4607
330
1A
100
AcDbEntity
  8
SEIHIN
100
AcDbLine
 10
365.8902101250309
 20
326.8474741028411
 30
0.0
 11
361.4600149070871
 21
326.847474102841
 31
0.0
  0
LINE
  5
4608
330
1A
100
AcDbEntity
  8
SEIHIN
100
AcDbLine
 10
365.5454186874283
 20
328.5435902379792
 30
0.0
 11
365.8902101250309
 21
326.8474741028411
 31
0.0
  0
LINE
  5
4609
330
1A
100
AcDbEntity
  8
SEIHIN
100
AcDbLine
 10
361.4600149070871
 20
326.847474102841
 30
0.0
 11
361.1262699667977
 21
328.5435902379792
 31
0.0
  0
LINE
  5
460A
330
1A
100
AcDbEntity
  8
SEIHIN
100
AcDbLine
 10
366.2164871562881
 20
326.8474741028411
 30
0.0
 11
366.2164871562881
 21
330.9184540361556
 31
0.0
  0
POLYLINE
  5
460B
330
1A
100
AcDbEntity
  8
SEIHIN
100
AcDb2dPolyline
 66
     1
 10
0.0
 20
0.0
 30
0.0
  0
VERTEX
  5
6030
330
460B
100
AcDbEntity
  8
SEIHIN
100
AcDbVertex
100
AcDb2dVertex
 10
366.2164871562882
 20
330.9184540361556
 30
0.0
  0
VERTEX
  5
6031
330
460B
100
AcDbEntity
  8
SEIHIN
100
AcDbVertex
100
AcDb2dVertex
 10
366.3906699671935
 20
330.9185874408766
 30
0.0
  0
VERTEX
  5
6032
330
460B
100
AcDbEntity
  8
SEIHIN
100
AcDbVertex
100
AcDb2dVertex
 10
366.5595274288788
 20
330.9189835764126
 30
0.0
  0
VERTEX
  5
6033
330
460B
100
AcDbEntity
  8
SEIHIN
100
AcDbVertex
100
AcDb2dVertex
 10
366.7178970058034
 20
330.9196303315794
 30
0.0
  0
VERTEX
  5
6034
330
460B
100
AcDbEntity
  8
SEIHIN
100
AcDbVertex
100
AcDb2dVertex
 10
366.8609368120282
 20
330.9205079329156
 30
0.0
  0
VERTEX
  5
6035
330
460B
100
AcDbEntity
  8
SEIHIN
100
AcDbVertex
100
AcDb2dVertex
 10
366.9842736438111
 20
330.9215895492226
 30
0.0
  0
VERTEX
  5
6036
330
460B
100
AcDbEntity
  8
SEIHIN
100
AcDbVertex
100
AcDb2dVertex
 10
367.0841366830239
 20
330.922842111884
 30
0.0
  0
VERTEX
  5
6037
330
460B
100
AcDbEntity
  8
SEIHIN
100
AcDbVertex
100
AcDb2dVertex
 10
367.1574727836345
 20
330.9242273258834
 30
0.0
  0
VERTEX
  5
6038
330
460B
100
AcDbEntity
  8
SEIHIN
100
AcDbVertex
100
AcDb2dVertex
 10
367.2020398165596
 20
330.9257028406108
 30
0.0
  0
VERTEX
  5
6039
330
460B
100
AcDbEntity
  8
SEIHIN
100
AcDbVertex
100
AcDb2dVertex
 10
367.2164752190249
 20
330.9272235446618
 30
0.0
  0
VERTEX
  5
603A
330
460B
100
AcDbEntity
  8
SEIHIN
100
AcDbVertex
100
AcDb2dVertex
 10
367.2003376526525
 20
330.928742945044
 30
0.0
  0
SEQEND
  5
603B
330
460B
100
AcDbEntity
  8
SEIHIN
  0
LINE
  5
460C
330
1A
100
AcDbEntity
  8
SEIHIN
100
AcDbLine
 10
367.2164871562881
 20
326.8474741028411
 30
0.0
 11
366.2164871562881
 21
326.8474741028411
 31
0.0
  0
LINE
  5
460D
330
1A
100
AcDbEntity
  8
SEIHIN
100
AcDbLine
 10
402.904930928366
 20
331.8479538223954
 30
0.0
 11
402.9049309283662
 21
329.3474741028411
 31
0.0
  0
LINE
  5
460E
330
1A
100
AcDbEntity
  8
SEIHIN
100
AcDbLine
 10
402.9049309283662
 20
329.3474741028409
 30
0.0
 11
402.3584179028951
 21
324.9753698990719
 31
0.0
  0
ARC
  5
460F
330
1A
100
AcDbEntity
  8
SEIHIN
100
AcDbCircle
 10
399.3815842727542
 20
325.347474102841
 30
0.0
 40
2.99999999999989
100
AcDbArc
 50
269.9999999999974
 51
352.8749836511025
  0
LINE
  5
4610
330
1A
100
AcDbEntity
  8
SEIHIN
100
AcDbLine
 10
458.2736139652754
 20
331.8668402521649
 30
0.0
 11
427.1289407303306
 21
331.8749514655328
 31
0.0
  0
LINE
  5
4611
330
1A
100
AcDbEntity
  8
SEIHIN
100
AcDbLine
 10
461.655806990183
 20
309.3474741028411
 30
0.0
 11
428.053277583978
 21
309.3474741028409
 31
0.0
  0
LINE
  5
4612
330
1A
100
AcDbEntity
  8
SEIHIN
100
AcDbLine
 10
425.0764439538373
 20
311.9753698990717
 30
0.0
 11
422.9049309289004
 21
329.3474740985669
 31
0.0
  0
ARC
  5
4613
330
1A
100
AcDbEntity
  8
SEIHIN
100
AcDbCircle
 10
428.0532775839786
 20
312.3474741028414
 30
0.0
 40
3.000000000000447
100
AcDbArc
 50
187.1250163489054
 51
269.9999999999934
  0
LINE
  5
4614
330
1A
100
AcDbEntity
  8
SEIHIN
100
AcDbLine
 10
422.9049309283661
 20
329.3474741028411
 30
0.0
 11
422.9049309283661
 21
331.8469637879553
 31
0.0
  0
POLYLINE
  5
4615
330
1A
100
AcDbEntity
  8
SEIHIN
100
AcDb2dPolyline
 66
     1
 10
0.0
 20
0.0
 30
0.0
  0
VERTEX
  5
603C
330
4615
100
AcDbEntity
  8
SEIHIN
100
AcDbVertex
100
AcDb2dVertex
 10
458.9240945404652
 20
331.8109959801605
 30
0.0
  0
VERTEX
  5
603D
330
4615
100
AcDbEntity
  8
SEIHIN
100
AcDbVertex
100
AcDb2dVertex
 10
459.0086484376966
 20
320.5711466560805
 30
0.0
  0
VERTEX
  5
603E
330
4615
100
AcDbEntity
  8
SEIHIN
100
AcDbVertex
100
AcDb2dVertex
 10
459.0930816486941
 20
309.3474741028411
 30
0.0
  0
SEQEND
  5
603F
330
4615
100
AcDbEntity
  8
SEIHIN
  0
LINE
  5
4616
330
1A
100
AcDbEntity
  8
SEIHIN
100
AcDbLine
 10
461.6558069901831
 20
285.3474741028411
 30
0.0
 11
461.6558069901831
 21
324.3474741028411
 31
0.0
  0
LINE
  5
4617
330
1A
100
AcDbEntity
  8
SEIHIN
100
AcDbLine
 10
461.6592331532967
 20
324.3474741028411
 30
0.0
 11
461.6592331532965
 21
285.3474741028411
 31
0.0
  0
LINE
  5
4618
330
1A
100
AcDbEntity
  8
SEIHIN
100
AcDbLine
 10
458.3190280624095
 20
285.3474741028411
 30
0.0
 11
458.3190280624093
 21
309.3474741028411
 31
0.0
  0
LINE
  5
4619
330
1A
100
AcDbEntity
  8
SEIHIN
100
AcDbLine
 10
469.3049309283626
 20
305.8474741028412
 30
0.0
 11
461.655806990183
 21
305.8474741028411
 31
0.0
  0
LINE
  5
461A
330
1A
100
AcDbEntity
  8
SEIHIN
100
AcDbLine
 10
469.3049309283626
 20
303.8474741028412
 30
0.0
 11
461.655806990183
 21
303.8474741028411
 31
0.0
  0
LINE
  5
461B
330
1A
100
AcDbEntity
  8
SEIHIN
100
AcDbLine
 10
469.3049309283627
 20
305.847474102841
 30
0.0
 11
469.3049309283626
 21
303.847474102841
 31
0.0
  0
LINE
  5
461C
330
1A
100
AcDbEntity
  8
SEIHIN
100
AcDbLine
 10
466.1561660681375
 20
329.3672309838072
 30
0.0
 11
466.1363765108924
 21
331.6079097048501
 31
0.0
  0
LINE
  5
461D
330
1A
100
AcDbEntity
  8
SEIHIN
100
AcDbLine
 10
467.4968210711249
 20
324.3474741028412
 30
0.0
 11
467.7400636650173
 21
329.3474741028412
 31
0.0
  0
ARC
  5
461E
330
1A
100
AcDbEntity
  8
SEIHIN
100
AcDbCircle
 10
462.0368277946921
 20
332.8329596788508
 30
0.0
 40
0.995650722244655
100
AcDbArc
 50
270.4338420705963
 51
0.2497359384281445
  0
LINE
  5
461F
330
1A
100
AcDbEntity
  8
SEIHIN
100
AcDbLine
 10
461.6558069901831
 20
324.3474741028411
 30
0.0
 11
461.6592331532967
 21
324.3474741028411
 31
0.0
  0
LINE
  5
4620
330
1A
100
AcDbEntity
  8
SEIHIN
100
AcDbLine
 10
461.6592331532967
 20
324.3474741028411
 30
0.0
 11
461.7961610992693
 21
324.3474741028411
 31
0.0
  0
LINE
  5
4621
330
1A
100
AcDbEntity
  8
SEIHIN
100
AcDbLine
 10
461.8452850374491
 20
324.3474741028411
 30
0.0
 11
461.7961610992693
 21
324.3474741028411
 31
0.0
  0
LINE
  5
4622
330
1A
100
AcDbEntity
  8
SEIHIN
100
AcDbLine
 10
461.8452850374491
 20
324.3474741028411
 30
0.0
 11
464.2049309283627
 21
324.3474741028412
 31
0.0
  0
LINE
  5
4623
330
1A
100
AcDbEntity
  8
SEIHIN
100
AcDbLine
 10
466.0833015511589
 20
324.347474102841
 30
0.0
 11
466.1561660681375
 21
329.3672309838072
 31
0.0
  0
ARC
  5
4624
330
1A
100
AcDbEntity
  8
SEIHIN
100
AcDbCircle
 10
456.2294485433344
 20
198.481092113836
 30
0.0
 40
133.3571309756368
100
AcDbArc
 50
88.84218901621826
 51
90.26363308469301
  0
ARC
  5
4625
330
1A
100
AcDbEntity
  8
SEIHIN
100
AcDbCircle
 10
458.8649914050384
 20
166.4658215258042
 30
0.0
 40
165.4020759331458
100
AcDbArc
 50
88.89858692341123
 51
90.20485537075575
  0
LINE
  5
4626
330
1A
100
AcDbEntity
  8
SEIHIN
100
AcDbLine
 10
467.7023599846843
 20
324.347474102841
 30
0.0
 11
464.2049309283627
 21
324.3474741028412
 31
0.0
  0
LINE
  5
4627
330
1A
100
AcDbEntity
  8
SEIHIN
100
AcDbLine
 10
475.2049309283659
 20
475.6402972291211
 30
0.0
 11
475.2049309283659
 21
309.8600699158839
 31
0.0
  0
LINE
  5
4628
330
1A
100
AcDbEntity
  8
SEIHIN
100
AcDbLine
 10
472.7049309283659
 20
475.1385838539988
 30
0.0
 11
472.7049309283659
 21
326.347474102841
 31
0.0
  0
LINE
  5
4629
330
1A
100
AcDbEntity
  8
SEIHIN
100
AcDbLine
 10
475.0399309931654
 20
301.352267711817
 30
0.0
 11
474.3995197958837
 21
285.347474102841
 31
0.0
  0
POLYLINE
  5
462A
330
1A
100
AcDbEntity
  8
SEIHIN
100
AcDb2dPolyline
 66
     1
 10
0.0
 20
0.0
 30
0.0
  0
VERTEX
  5
6040
330
462A
100
AcDbEntity
  8
SEIHIN
100
AcDbVertex
100
AcDb2dVertex
 10
475.2049309283658
 20
309.8600699158813
 30
0.0
  0
VERTEX
  5
6041
330
462A
100
AcDbEntity
  8
SEIHIN
100
AcDbVertex
100
AcDb2dVertex
 10
475.1598211973106
 20
305.3482729045779
 30
0.0
  0
VERTEX
  5
6042
330
462A
100
AcDbEntity
  8
SEIHIN
100
AcDbVertex
100
AcDb2dVertex
 10
475.0399309931653
 20
301.352267711817
 30
0.0
  0
SEQEND
  5
6043
330
462A
100
AcDbEntity
  8
SEIHIN
  0
LINE
  5
462B
330
1A
100
AcDbEntity
  8
SEIHIN
100
AcDbLine
 10
475.1997899220009
 20
309.3458753815887
 30
0.0
 11
475.2049309283659
 21
309.3458753815892
 31
0.0
  0
LINE
  5
462C
330
1A
100
AcDbEntity
  8
SEIHIN
100
AcDbLine
 10
475.0450678916538
 20
301.3522677118181
 30
0.0
 11
475.0399309931654
 21
301.352267711817
 31
0.0
  0
ARC
  5
462D
330
1A
100
AcDbEntity
  8
SEIHIN
100
AcDbCircle
 10
405.3954648804397
 20
326.3306896598079
 30
0.0
 40
69.80946806568629
100
AcDbArc
 50
359.3045075610188
 51
0.0137757496660381
  0
POLYLINE
  5
462E
330
1A
100
AcDbEntity
  8
SEIHIN
100
AcDb2dPolyline
 66
     1
 10
0.0
 20
0.0
 30
0.0
  0
VERTEX
  5
6044
330
462E
100
AcDbEntity
  8
SEIHIN
100
AcDbVertex
100
AcDb2dVertex
 10
472.7049309283659
 20
326.3474741028411
 30
0.0
  0
VERTEX
  5
6045
330
462E
100
AcDbEntity
  8
SEIHIN
100
AcDbVertex
100
AcDb2dVertex
 10
472.7036669327413
 20
325.6863814777703
 30
0.0
  0
VERTEX
  5
6046
330
462E
100
AcDbEntity
  8
SEIHIN
100
AcDbVertex
100
AcDb2dVertex
 10
472.6858002501371
 20
325.0997040393109
 30
0.0
  0
VERTEX
  5
6047
330
462E
100
AcDbEntity
  8
SEIHIN
100
AcDbVertex
100
AcDb2dVertex
 10
472.6176227687357
 20
324.6575797806497
 30
0.0
  0
VERTEX
  5
6048
330
462E
100
AcDbEntity
  8
SEIHIN
100
AcDbVertex
100
AcDb2dVertex
 10
472.4713155035819
 20
324.4083043513617
 30
0.0
  0
VERTEX
  5
6049
330
462E
100
AcDbEntity
  8
SEIHIN
100
AcDbVertex
100
AcDb2dVertex
 10
472.2875066233216
 20
324.3474741028411
 30
0.0
  0
SEQEND
  5
604A
330
462E
100
AcDbEntity
  8
SEIHIN
  0
POLYLINE
  5
462F
330
1A
100
AcDbEntity
  8
SEIHIN
100
AcDb2dPolyline
 66
     1
 10
0.0
 20
0.0
 30
0.0
  0
VERTEX
  5
604B
330
462F
100
AcDbEntity
  8
SEIHIN
100
AcDbVertex
100
AcDb2dVertex
 10
474.9307761320848
 20
324.3474741028411
 30
0.0
  0
VERTEX
  5
604C
330
462F
100
AcDbEntity
  8
SEIHIN
100
AcDbVertex
100
AcDb2dVertex
 10
475.0788203161095
 20
324.454108061102
 30
0.0
  0
VERTEX
  5
604D
330
462F
100
AcDbEntity
  8
SEIHIN
100
AcDbVertex
100
AcDb2dVertex
 10
475.1626824667728
 20
324.7700714167243
 30
0.0
  0
VERTEX
  5
604E
330
462F
100
AcDbEntity
  8
SEIHIN
100
AcDbVertex
100
AcDb2dVertex
 10
475.1952968404476
 20
325.2539581277049
 30
0.0
  0
VERTEX
  5
604F
330
462F
100
AcDbEntity
  8
SEIHIN
100
AcDbVertex
100
AcDb2dVertex
 10
475.199789922001
 20
325.4833189580847
 30
0.0
  0
SEQEND
  5
6050
330
462F
100
AcDbEntity
  8
SEIHIN
  0
ARC
  5
4630
330
1A
100
AcDbEntity
  8
SEIHIN
100
AcDbCircle
 10
469.7642048657923
 20
332.4281300502584
 30
0.0
 40
1.023621851721932
100
AcDbArc
 50
269.9990945004299
 51
278.668383087039
  0
LINE
  5
4631
330
1A
100
AcDbEntity
  8
SEIHIN
100
AcDbLine
 10
469.9184803682153
 20
329.347474102841
 30
0.0
 11
469.9184803682153
 21
331.4162008211742
 31
0.0
  0
LINE
  5
4632
330
1A
100
AcDbEntity
  8
SEIHIN
100
AcDbLine
 10
354.6949309283657
 20
324.3474741028412
 30
0.0
 11
354.6949309283657
 21
285.3474741028412
 31
0.0
  0
LINE
  5
4633
330
1A
100
AcDbEntity
  8
SEIHIN
100
AcDbLine
 10
351.4083901243393
 20
285.3474741028411
 30
0.0
 11
351.4083901243393
 21
324.3474741028411
 31
0.0
  0
LINE
  5
4634
330
1A
100
AcDbEntity
  8
SEIHIN
100
AcDbLine
 10
338.9144552692238
 20
309.3458753815903
 30
0.0
 11
338.9144552692237
 21
342.3487935449045
 31
0.0
  0
LINE
  5
4635
330
1A
100
AcDbEntity
  8
SEIHIN
100
AcDbLine
 10
339.7083593505142
 20
285.347474102841
 30
0.0
 11
339.0730668362946
 21
301.3522677118185
 31
0.0
  0
LINE
  5
4636
330
1A
100
AcDbEntity
  8
SEIHIN
100
AcDbLine
 10
338.9088211772093
 20
309.3458753815894
 30
0.0
 11
338.9144552692238
 21
309.3458753815903
 31
0.0
  0
LINE
  5
4637
330
1A
100
AcDbEntity
  8
SEIHIN
100
AcDbLine
 10
339.0730668362946
 20
301.3522677118185
 30
0.0
 11
339.0686842139214
 21
301.3522677118185
 31
0.0
  0
POLYLINE
  5
4638
330
1A
100
AcDbEntity
  8
SEIHIN
100
AcDb2dPolyline
 66
     1
 10
0.0
 20
0.0
 30
0.0
  0
VERTEX
  5
6051
330
4638
100
AcDbEntity
  8
SEIHIN
100
AcDbVertex
100
AcDb2dVertex
 10
339.0730668362946
 20
301.3522677118185
 30
0.0
  0
VERTEX
  5
6052
330
4638
100
AcDbEntity
  8
SEIHIN
100
AcDbVertex
100
AcDb2dVertex
 10
338.9541121223199
 20
305.3482729045795
 30
0.0
  0
VERTEX
  5
6053
330
4638
100
AcDbEntity
  8
SEIHIN
100
AcDbVertex
100
AcDb2dVertex
 10
338.9144552692238
 20
309.3458753815903
 30
0.0
  0
SEQEND
  5
6054
330
4638
100
AcDbEntity
  8
SEIHIN
  0
LINE
  5
4639
330
1A
100
AcDbEntity
  8
SEIHIN
100
AcDbLine
 10
354.6949309283657
 20
324.3474741028411
 30
0.0
 11
343.6976497481978
 21
324.3474741028412
 31
0.0
  0
LINE
  5
463A
330
1A
100
AcDbEntity
  8
SEIHIN
100
AcDbLine
 10
346.5509274869123
 20
332.8608246443804
 30
0.0
 11
346.5509274869123
 21
349.0006407715272
 31
0.0
  0
LINE
  5
463B
330
1A
100
AcDbEntity
  8
SEIHIN
100
AcDbLine
 10
348.0465229883667
 20
324.3474741028412
 30
0.0
 11
347.9474113261014
 21
329.3474741028379
 31
0.0
  0
LINE
  5
463C
330
1A
100
AcDbEntity
  8
SEIHIN
100
AcDbLine
 10
346.7946827888106
 20
324.3474741028412
 30
0.0
 11
346.6955711265453
 21
329.3474741028385
 31
0.0
  0
ARC
  5
463D
330
1A
100
AcDbEntity
  8
SEIHIN
100
AcDbCircle
 10
347.5509274869123
 20
332.8608246443804
 30
0.0
 40
1.0
100
AcDbArc
 50
179.9999999999999
 51
270.016280042124
  0
LINE
  5
463E
330
1A
100
AcDbEntity
  8
SEIHIN
100
AcDbLine
 10
348.2489970584656
 20
329.3474741028409
 30
0.0
 11
347.1125576092603
 21
329.347474102841
 31
0.0
  0
ARC
  5
463F
330
1A
100
AcDbEntity
  8
SEIHIN
100
AcDbCircle
 10
349.2927537065418
 20
328.3474741028411
 30
0.0
 40
1.000000000000001
100
AcDbArc
 50
11.30993247401836
 51
90.00000000000069
  0
LINE
  5
4640
330
1A
100
AcDbEntity
  8
SEIHIN
100
AcDbLine
 10
350.7145921910428
 20
326.8474741028411
 30
0.0
 11
350.709134435046
 21
324.3474741028411
 31
0.0
  0
LINE
  5
4641
330
1A
100
AcDbEntity
  8
SEIHIN
100
AcDbLine
 10
350.6125576092604
 20
326.8474741028411
 30
0.0
 11
350.2733343822326
 21
328.5435902379794
 31
0.0
  0
ARC
  5
4642
330
1A
100
AcDbEntity
  8
SEIHIN
100
AcDbCircle
 10
343.2199533478253
 20
167.2838901510208
 30
0.0
 40
163.6345639682073
100
AcDbArc
 50
89.99817430057101
 51
90.16905611910516
  0
LINE
  5
4643
330
1A
100
AcDbEntity
  8
SEIHIN
100
AcDbLine
 10
343.2251674758558
 20
330.9184540361554
 30
0.0
 11
343.2251674758558
 21
329.3474741028412
 31
0.0
  0
LINE
  5
4644
330
1A
100
AcDbEntity
  8
SEIHIN
100
AcDbLine
 10
343.2251674758558
 20
329.3474741028412
 30
0.0
 11
342.2345481048743
 21
329.3474741028412
 31
0.0
  0
ARC
  5
4645
330
1A
100
AcDbEntity
  8
SEIHIN
100
AcDbCircle
 10
342.2335879410681
 20
328.8390300445603
 30
0.0
 40
0.5084449648837609
100
AcDbArc
 50
89.89180074209228
 51
179.0484099996004
  0
ARC
  5
4646
330
1A
100
AcDbEntity
  8
SEIHIN
100
AcDbCircle
 10
342.7276467516617
 20
331.9202398706793
 30
0.0
 40
1.002542960407497
100
AcDbArc
 50
180.8460874656434
 51
270.5423349727084
  0
ARC
  5
4647
330
1A
100
AcDbEntity
  8
SEIHIN
100
AcDbCircle
 10
343.6975248053956
 20
326.3480899443497
 30
0.0
 40
2.000615845409985
100
AcDbArc
 50
180.0176371290559
 51
270.003578176252
  0
LINE
  5
4648
330
1A
100
AcDbEntity
  8
SEIHIN
100
AcDbLine
 10
341.6969090547717
 20
344.1305683142695
 30
0.0
 11
341.6969090547717
 21
326.3474741028412
 31
0.0
  0
LINE
  5
4649
330
1A
100
AcDbEntity
  8
CENTER_L
100
AcDbLine
 10
412.9049309283657
 20
89.40945601052442
 30
0.0
 11
412.9049309283657
 21
61.01056114683354
 31
0.0
  0
LINE
  5
464B
330
1A
100
AcDbEntity
  8
CENTER_L
 48
0.5
100
AcDbLine
 10
412.9049309283657
 20
273.6640682932549
 30
0.0
 11
412.9049309283657
 21
430.0219896635844
 31
0.0
  0
LINE
  5
464E
330
1A
100
AcDbEntity
  8
CENTER_L
 48
0.5
100
AcDbLine
 10
268.2304153676225
 20
418.3385838539964
 30
0.0
 11
424.5883367379519
 21
418.3385838539984
 31
0.0
  0
TEXT
  5
55B9
330
1A
100
AcDbEntity
  8
MOJI
100
AcDbText
 10
93.35778960172513
 20
12.74117799856344
 30
0.0
 40
6.0
  1
ユニシェイプ
 41
0.9
  7
ｽﾀｲﾙ1
100
AcDbText
  0
TEXT
  5
55BE
330
1A
100
AcDbEntity
  8
MOJI
100
AcDbText
 10
233.179673069384
 20
4.786871367267067
 30
0.0
 40
5.599999999999999
  1
ＵＳＴ１４０
 41
0.9
  7
ｽﾀｲﾙ1
100
AcDbText
  0
TEXT
  5
55C6
330
1A
100
AcDbEntity
  8
MOJI
100
AcDbText
 10
463.246432004558
 20
11.94261758994866
 30
0.0
 40
5.599999999999999
  1
ＰＫ０６□
 41
0.9
  7
ｽﾀｲﾙ1
100
AcDbText
  0
DIMENSION
  5
5690
330
1A
100
AcDbEntity
  8
SUNPOU
100
AcDbDimension
  2
*D2
 10
217.8202463960797
 20
285.347474102841
 30
0.0
 11
212.8202463960796
 21
382.7504262114984
 31
0.0
 70
    32
  3
STANDARD
100
AcDbAlignedDimension
 13
287.9162179816958
 23
480.1533783201555
 33
0.0
 14
339.7083593505142
 24
285.347474102841
 34
0.0
 50
90.0
100
AcDbRotatedDimension
1001
ACAD
1000
DSTYLE
1002
{
1070
    41
1040
7.0
1070
    42
1040
6.0
1070
    43
1040
14.0
1070
    44
1040
3.0
1070
    73
1070
     0
1070
    74
1070
     0
1070
    77
1070
     3
1070
   140
1040
6.0
1070
   141
1040
150.0
1070
   147
1040
2.0
1070
   172
1070
     1
1070
   173
1070
     1
1070
   176
1070
   256
1070
   177
1070
   256
1070
   178
1070
   256
1070
   271
1070
     0
1070
   272
1070
     0
1070
   341
1005
6D
1070
     6
1000
OPEN
1070
     7
1000
OPEN
1070
   371
1070
    -1
1070
   372
1070
    -1
1002
}
  0
DIMENSION
  5
569D
330
1A
100
AcDbEntity
  8
SUNPOU
100
AcDbDimension
  2
*D3
 10
234.3887069611018
 20
344.5023371395525
 30
0.0
 11
229.3887069611018
 21
412.5179330802108
 31
0.0
 70
    32
  3
STANDARD
100
AcDbAlignedDimension
 13
297.9166173825642
 23
480.5335290208691
 33
0.0
 14
295.9186147861869
 24
344.5023371395525
 34
0.0
 50
90.0
100
AcDbRotatedDimension
1001
ACAD
1000
DSTYLE
1002
{
1070
    41
1040
7.0
1070
    42
1040
6.0
1070
    43
1040
14.0
1070
    44
1040
3.0
1070
    73
1070
     0
1070
    74
1070
     0
1070
    77
1070
     3
1070
   140
1040
6.0
1070
   141
1040
150.0
1070
   147
1040
2.0
1070
   172
1070
     1
1070
   173
1070
     1
1070
   176
1070
   256
1070
   177
1070
   256
1070
   178
1070
   256
1070
   271
1070
     0
1070
   272
1070
     0
1070
   341
1005
6D
1070
     6
1000
OPEN
1070
     7
1000
OPEN
1070
   371
1070
    -1
1070
   372
1070
    -1
1002
}
  0
DIMENSION
  5
56AA
330
1A
100
AcDbEntity
  8
SUNPOU
100
AcDbDimension
  2
*D4
 10
514.6436713079374
 20
285.3474741028411
 30
0.0
 11
509.6436713079373
 21
307.3474741028411
 31
0.0
 70
    32
  1
\U+203B<>
  3
STANDARD
100
AcDbAlignedDimension
 13
469.9184803682153
 23
329.347474102841
 33
0.0
 14
474.4046566943723
 24
285.3474741028411
 34
0.0
 50
90.0
100
AcDbRotatedDimension
1001
ACAD
1000
DSTYLE
1002
{
1070
    41
1040
7.0
1070
    42
1040
6.0
1070
    43
1040
14.0
1070
    44
1040
3.0
1070
    73
1070
     0
1070
    74
1070
     0
1070
    77
1070
     3
1070
   140
1040
6.0
1070
   141
1040
150.0
1070
   147
1040
2.0
1070
   172
1070
     1
1070
   173
1070
     1
1070
   176
1070
   256
1070
   177
1070
   256
1070
   178
1070
   256
1070
   271
1070
     0
1070
   272
1070
     0
1070
   341
1005
6D
1070
     6
1000
OPEN
1070
     7
1000
OPEN
1070
   371
1070
    -1
1070
   372
1070
    -1
1002
}
  0
DIMENSION
  5
56B7
330
1A
100
AcDbEntity
  8
SUNPOU
100
AcDbDimension
  2
*D5
 10
475.199789922001
 20
225.7358530221781
 30
0.0
 11
407.1364283791479
 21
230.7358530221781
 31
0.0
 70
    32
  3
STANDARD
100
AcDbAlignedDimension
 13
339.0730668362948
 23
191.3088692847147
 33
0.0
 14
475.199789922001
 24
153.6636814663576
 34
0.0
100
AcDbRotatedDimension
1001
ACAD
1000
DSTYLE
1002
{
1070
    41
1040
7.0
1070
    42
1040
6.0
1070
    43
1040
14.0
1070
    44
1040
3.0
1070
    73
1070
     0
1070
    74
1070
     0
1070
    77
1070
     3
1070
   140
1040
6.0
1070
   141
1040
150.0
1070
   147
1040
2.0
1070
   172
1070
     1
1070
   173
1070
     1
1070
   176
1070
   256
1070
   177
1070
   256
1070
   178
1070
   256
1070
   271
1070
     0
1070
   272
1070
     0
1070
   341
1005
6D
1070
     6
1000
OPEN
1070
     7
1000
OPEN
1070
   371
1070
    -1
1070
   372
1070
    -1
1002
}
  0
DIMENSION
  5
56C4
330
1A
100
AcDbEntity
  8
SUNPOU
100
AcDbDimension
  2
*D6
 10
279.9138211772096
 20
240.1883732418537
 30
0.0
 11
377.5568055496053
 21
245.1883732418536
 31
0.0
 70
    32
  3
STANDARD
100
AcDbAlignedDimension
 13
475.199789922001
 23
153.6636814663576
 33
0.0
 14
279.9138211772096
 24
195.4938314667605
 34
0.0
100
AcDbRotatedDimension
1001
ACAD
1000
DSTYLE
1002
{
1070
    41
1040
7.0
1070
    42
1040
6.0
1070
    43
1040
14.0
1070
    44
1040
3.0
1070
    73
1070
     0
1070
    74
1070
     0
1070
    77
1070
     3
1070
   140
1040
6.0
1070
   141
1040
150.0
1070
   147
1040
2.0
1070
   172
1070
     1
1070
   173
1070
     1
1070
   176
1070
   256
1070
   177
1070
   256
1070
   178
1070
   256
1070
   271
1070
     0
1070
   272
1070
     0
1070
   341
1005
6D
1070
     6
1000
OPEN
1070
     7
1000
OPEN
1070
   371
1070
    -1
1070
   372
1070
    -1
1002
}
  0
DIMENSION
  5
56E3
330
1A
100
AcDbEntity
  8
SUNPOU
100
AcDbDimension
  2
*D7
 10
234.3887069611018
 20
71.01981683432147
 30
0.0
 11
229.3887069611018
 21
133.3060741706368
 31
0.0
 70
    32
  3
STANDARD
100
AcDbAlignedDimension
 13
287.9786677321093
 23
195.592331506952
 33
0.0
 14
295.9186147861779
 24
71.01981683432146
 34
0.0
 50
90.0
100
AcDbRotatedDimension
1001
ACAD
1000
DSTYLE
1002
{
1070
    41
1040
7.0
1070
    42
1040
6.0
1070
    43
1040
14.0
1070
    44
1040
3.0
1070
    73
1070
     0
1070
    74
1070
     0
1070
    77
1070
     3
1070
   140
1040
6.0
1070
   141
1040
150.0
1070
   147
1040
2.0
1070
   172
1070
     1
1070
   173
1070
     1
1070
   176
1070
   256
1070
   177
1070
   256
1070
   178
1070
   256
1070
   271
1070
     0
1070
   272
1070
     0
1070
   341
1005
6D
1070
     6
1000
OPEN
1070
     7
1000
OPEN
1070
   371
1070
    -1
1070
   372
1070
    -1
1002
}
  0
VIEWPORT
  5
22
330
17
100
AcDbEntity
 67
     1
  8
0
100
AcDbViewport
 10
313.6808219178082
 20
148.5
 30
0.0
 40
627.3616438356165
 41
297.0
 68
     2
 69
     1
1001
ACAD
1000
MVIEW
1002
{
1070
    16
1010
0.0
1020
0.0
1030
0.0
1010
0.0
1020
0.0
1030
1.0
1040
0.0
1040
297.0
1040
313.6808219178082
1040
148.5
1040
50.0
1040
0.0
1040
0.0
1070
     0
1070
   100
1070
     1
1070
     0
1070
     0
1070
     0
1070
     0
1070
     0
1040
0.0
1040
0.0
1040
0.0
1040
1.0
1040
1.0
1040
10.0
1040
10.0
1070
     0
1002
{
1002
}
1002
}
  0
VIEWPORT
  5
64
330
17
100
AcDbEntity
 67
     1
  8
VIEWPORT
100
AcDbViewport
 10
210.0
 20
148.5
 30
0.0
 40
420.0
 41
297.0
 68
     1
 69
     2
1001
ACAD
1000
MVIEW
1002
{
1070
    16
1010
0.0
1020
0.0
1030
0.0
1010
0.0
1020
0.0
1030
1.0
1040
0.0
1040
605.8799999999998
1040
420.0
1040
297.0
1040
50.0
1040
0.0
1040
0.0
1070
     0
1070
   100
1070
     1
1070
     0
1070
     0
1070
     0
1070
     0
1070
     0
1040
0.0
1040
0.0
1040
0.0
1040
10.0
1040
10.0
1040
0.0
1040
0.0
1070
     0
1002
{
1002
}
1002
}
  0
ENDSEC
  0
SECTION
  2
OBJECTS
  0
DICTIONARY
  5
C
330
0
100
AcDbDictionary
  3
ACAD_GROUP
350
D
  3
ACAD_LAYOUT
350
4BC
  3
ACAD_MLINESTYLE
350
E
  3
ACAD_PLOTSETTINGS
350
4BD
1001
ACAD
1000
TREAT_AS_HARD
1070
     0
  0
DICTIONARY
  5
4EB
330
1A
100
AcDbDictionary
  3
ACAD_LAYOUTSELFREF
350
5F9E
1001
ACAD
1000
TREAT_AS_HARD
1070
     1
  0
DICTIONARY
  5
4E9
330
17
100
AcDbDictionary
  3
ACAD_LAYOUTSELFREF
350
5F9D
1001
ACAD
1000
TREAT_AS_HARD
1070
     1
  0
DICTIONARY
  5
D
102
{ACAD_REACTORS
330
C
102
}
330
C
100
AcDbDictionary
  3
*A1
350
464A
1001
ACAD
1000
TREAT_AS_HARD
1070
     0
  0
DICTIONARY
  5
4BC
102
{ACAD_REACTORS
330
C
102
}
330
C
100
AcDbDictionary
1001
ACAD
1000
TREAT_AS_HARD
1070
     0
  0
DICTIONARY
  5
E
102
{ACAD_REACTORS
330
C
102
}
330
C
100
AcDbDictionary
  3
STANDARD
350
13
1001
ACAD
1000
TREAT_AS_HARD
1070
     0
  0
DICTIONARY
  5
4BD
102
{ACAD_REACTORS
330
C
102
}
330
C
100
AcDbDictionary
1001
ACAD
1000
TREAT_AS_HARD
1070
     0
  0
XRECORD
  5
5F9E
102
{ACAD_REACTORS
330
4EB
102
}
330
4EB
100
AcDbXrecord
340
1A
  0
XRECORD
  5
5F9D
102
{ACAD_REACTORS
330
4E9
102
}
330
4E9
100
AcDbXrecord
340
17
  0
GROUP
  5
464A
102
{ACAD_REACTORS
330
D
102
}
330
D
100
AcDbGroup
300

 70
     1
 71
     1
340
4564
340
4548
340
454A
340
455E
340
455D
340
455F
340
4545
340
4546
340
4547
340
4556
340
4555
340
454E
340
4553
340
4552
340
4554
340
4557
340
4558
340
4596
340
454F
340
4550
340
4551
340
454B
340
454C
340
454D
340
455A
340
455C
340
4559
340
455B
340
4549
340
4562
340
4567
340
4563
340
4560
340
4565
340
4566
340
4593
340
4594
340
4595
340
4597
340
4598
340
4599
340
459B
340
459D
340
459C
340
459E
340
459F
340
459A
340
45A3
340
45A2
340
45A4
340
45A5
340
45A6
340
45A7
340
45A0
340
45A1
340
45A8
340
45A9
340
45AA
340
45AB
340
45AC
340
45AD
340
45AE
340
45AF
340
45B0
340
4577
340
457A
340
456E
340
4583
340
4584
340
4572
340
4579
340
456F
340
4574
340
457F
340
4573
340
4576
340
4578
340
457B
340
457C
340
457D
340
457E
340
4571
340
4561
340
4568
340
4569
340
4585
340
4586
340
4587
340
4588
340
4589
340
458A
340
458B
340
458C
340
458D
340
458E
340
458F
340
4590
340
4591
340
4592
340
4570
340
4575
340
456C
340
456D
340
4581
340
4582
340
4580
340
456A
340
456B
  0
MLINESTYLE
  5
13
102
{ACAD_REACTORS
330
E
102
}
330
E
100
AcDbMlineStyle
  2
STANDARD
 70
     0
  3

 62
     0
 51
90.0
 52
90.0
 71
     2
 49
0.5
 62
   256
  6
BYLAYER
 49
-0.5
 62
   256
  6
BYLAYER
  0
ENDSEC
  0
EOF
