  0
SECTION
  2
HEADER
  9
$ACADVER
  1
AC1012
  9
$DWGCODEPAGE
  3
dos932
  9
$INSBASE
 10
0.0
 20
0.0
 30
0.0
  9
$EXTMIN
 10
-0.0256328098773793
 20
-0.0181261901288963
 30
-0.0015258207003583
  9
$EXTMAX
 10
797.6000995626677
 20
551.6452344786116
 30
0.0000000349246037
  9
$LIMMIN
 10
0.0
 20
0.0
  9
$LIMMAX
 10
840.0
 20
594.0
  9
$ORTHOMODE
 70
     1
  9
$REGENMODE
 70
     1
  9
$FILLMODE
 70
     1
  9
$QTEXTMODE
 70
     0
  9
$MIRRTEXT
 70
     1
  9
$DRAGMODE
 70
     2
  9
$LTSCALE
 40
1.0
  9
$OSMODE
 70
    63
  9
$ATTMODE
 70
     1
  9
$TEXTSIZE
 40
8.0
  9
$TRACEWID
 40
1.0
  9
$TEXTSTYLE
  7
STANDARD
  9
$CLAYER
  8
0
  9
$CELTYPE
  6
BYLAYER
  9
$CECOLOR
 62
   256
  9
$CELTSCALE
 40
1.0
  9
$DELOBJ
 70
     1
  9
$DISPSILH
 70
     0
  9
$DIMSCALE
 40
1.0
  9
$DIMASZ
 40
7.0
  9
$DIMEXO
 40
6.0
  9
$DIMDLI
 40
14.0
  9
$DIMRND
 40
0.0
  9
$DIMDLE
 40
0.0
  9
$DIMEXE
 40
3.0
  9
$DIMTP
 40
0.0
  9
$DIMTM
 40
0.0
  9
$DIMTXT
 40
6.0
  9
$DIMCEN
 40
150.0
  9
$DIMTSZ
 40
0.0
  9
$DIMTOL
 70
     0
  9
$DIMLIM
 70
     0
  9
$DIMTIH
 70
     0
  9
$DIMTOH
 70
     0
  9
$DIMSE1
 70
     0
  9
$DIMSE2
 70
     0
  9
$DIMTAD
 70
     3
  9
$DIMZIN
 70
     0
  9
$DIMBLK
  1

  9
$DIMASO
 70
     1
  9
$DIMSHO
 70
     1
  9
$DIMPOST
  1

  9
$DIMAPOST
  1

  9
$DIMALT
 70
     0
  9
$DIMALTD
 70
     2
  9
$DIMALTF
 40
25.4
  9
$DIMLFAC
 40
1.0
  9
$DIMTOFL
 70
     1
  9
$DIMTVP
 40
0.0
  9
$DIMTIX
 70
     0
  9
$DIMSOXD
 70
     0
  9
$DIMSAH
 70
     1
  9
$DIMBLK1
  1
OPEN
  9
$DIMBLK2
  1
OPEN
  9
$DIMSTYLE
  2
STANDARD
  9
$DIMCLRD
 70
   256
  9
$DIMCLRE
 70
   256
  9
$DIMCLRT
 70
   256
  9
$DIMTFAC
 40
1.0
  9
$DIMGAP
 40
2.0
  9
$DIMJUST
 70
     0
  9
$DIMSD1
 70
     0
  9
$DIMSD2
 70
     0
  9
$DIMTOLJ
 70
     1
  9
$DIMTZIN
 70
     0
  9
$DIMALTZ
 70
     0
  9
$DIMALTTZ
 70
     0
  9
$DIMFIT
 70
     3
  9
$DIMUPT
 70
     0
  9
$DIMUNIT
 70
     2
  9
$DIMDEC
 70
     0
  9
$DIMTDEC
 70
     0
  9
$DIMALTU
 70
     2
  9
$DIMALTTD
 70
     2
  9
$DIMTXSTY
  7
STANDARD
  9
$DIMAUNIT
 70
     0
  9
$LUNITS
 70
     2
  9
$LUPREC
 70
     4
  9
$SKETCHINC
 40
1.0
  9
$FILLETRAD
 40
2.0
  9
$AUNITS
 70
     0
  9
$AUPREC
 70
     0
  9
$MENU
  1
.
  9
$ELEVATION
 40
0.0
  9
$PELEVATION
 40
0.0
  9
$THICKNESS
 40
0.0
  9
$LIMCHECK
 70
     0
  9
$BLIPMODE
 70
     0
  9
$CHAMFERA
 40
20.0
  9
$CHAMFERB
 40
20.0
  9
$CHAMFERC
 40
40.0
  9
$CHAMFERD
 40
0.0
  9
$SKPOLY
 70
     0
  9
$TDCREATE
 40
2451212.679463889
  9
$TDUPDATE
 40
2455894.663466932
  9
$TDINDWG
 40
0.1261477199
  9
$TDUSRTIMER
 40
0.1261477199
  9
$USRTIMER
 70
     1
  9
$ANGBASE
 50
0.0
  9
$ANGDIR
 70
     0
  9
$PDMODE
 70
     0
  9
$PDSIZE
 40
0.0
  9
$PLINEWID
 40
0.0
  9
$COORDS
 70
     0
  9
$SPLFRAME
 70
     0
  9
$SPLINETYPE
 70
     6
  9
$SPLINESEGS
 70
     8
  9
$ATTDIA
 70
     0
  9
$ATTREQ
 70
     1
  9
$HANDLING
 70
 10241
  9
$HANDSEED
  5
4A8C
  9
$SURFTAB1
 70
     6
  9
$SURFTAB2
 70
     6
  9
$SURFTYPE
 70
     6
  9
$SURFU
 70
     6
  9
$SURFV
 70
     6
  9
$UCSNAME
  2

  9
$UCSORG
 10
0.0
 20
0.0
 30
0.0
  9
$UCSXDIR
 10
1.0
 20
0.0
 30
0.0
  9
$UCSYDIR
 10
0.0
 20
1.0
 30
0.0
  9
$PUCSNAME
  2

  9
$PUCSORG
 10
0.0
 20
0.0
 30
0.0
  9
$PUCSXDIR
 10
1.0
 20
0.0
 30
0.0
  9
$PUCSYDIR
 10
0.0
 20
1.0
 30
0.0
  9
$USERI1
 70
     0
  9
$USERI2
 70
     0
  9
$USERI3
 70
     0
  9
$USERI4
 70
     0
  9
$USERI5
 70
     0
  9
$USERR1
 40
0.0
  9
$USERR2
 40
0.0
  9
$USERR3
 40
0.0
  9
$USERR4
 40
0.0
  9
$USERR5
 40
0.0
  9
$WORLDVIEW
 70
     1
  9
$SHADEDGE
 70
     3
  9
$SHADEDIF
 70
    70
  9
$TILEMODE
 70
     1
  9
$MAXACTVP
 70
    16
  9
$PINSBASE
 10
0.0
 20
0.0
 30
0.0
  9
$PLIMCHECK
 70
     0
  9
$PEXTMIN
 10
0.0
 20
0.0
 30
0.0
  9
$PEXTMAX
 10
420.0
 20
297.0
 30
0.0
  9
$PLIMMIN
 10
0.0
 20
0.0
  9
$PLIMMAX
 10
420.0
 20
297.0
  9
$UNITMODE
 70
     0
  9
$VISRETAIN
 70
     0
  9
$PLINEGEN
 70
     0
  9
$PSLTSCALE
 70
     1
  9
$TREEDEPTH
 70
  3020
  9
$PICKSTYLE
 70
     1
  9
$CMLSTYLE
  2
STANDARD
  9
$CMLJUST
 70
     0
  9
$CMLSCALE
 40
1.0
  9
$SAVEIMAGES
 70
     1
  0
ENDSEC
  0
SECTION
  2
CLASSES
  0
CLASS
  1
ACDBDICTIONARYWDFLT
  2
AcDbDictionaryWithDefault
  3
AutoCAD 2000
 90
    32768
280
     0
281
     0
  0
CLASS
  1
ACDBPLACEHOLDER
  2
AcDbPlaceHolder
  3
AutoCAD 2000
 90
    32768
280
     0
281
     0
  0
CLASS
  1
LAYOUT
  2
AcDbLayout
  3
AutoCAD 2000
 90
    32768
280
     0
281
     0
  0
CLASS
  1
LONG_TRANSACTION
  2
AcDbLongTransaction
  3
AutoCAD 2000
 90
    32768
280
     0
281
     0
  0
CLASS
  1
LWPOLYLINE
  2
AcDbPolyline
  3
AutoCAD 2000
 90
    32768
280
     0
281
     1
  0
CLASS
  1
HATCH
  2
AcDbHatch
  3
AutoCAD 2000
 90
    32768
280
     0
281
     1
  0
CLASS
  1
XRECORD
  2
AcDbXrecord
  3
AutoCAD 2000
 90
    32768
280
     0
281
     0
  0
CLASS
  1
LONG_TRANSACTION
  2
AcDbLongTransaction
  3
AutoCAD 2000
 90
    32768
280
     0
281
     0
  0
CLASS
  1
LWPOLYLINE
  2
AcDbPolyline
  3
AutoCAD 2000
 90
    32768
280
     0
281
     1
  0
CLASS
  1
HATCH
  2
AcDbHatch
  3
AutoCAD 2000
 90
    32768
280
     0
281
     1
  0
CLASS
  1
XRECORD
  2
AcDbXrecord
  3
AutoCAD 2000
 90
    32768
280
     0
281
     0
  0
CLASS
  1
LONG_TRANSACTION
  2
AcDbLongTransaction
  3
AutoCAD 2000
 90
    32768
280
     0
281
     0
  0
CLASS
  1
LWPOLYLINE
  2
AcDbPolyline
  3
AutoCAD 2000
 90
    32768
280
     0
281
     1
  0
CLASS
  1
HATCH
  2
AcDbHatch
  3
AutoCAD 2000
 90
    32768
280
     0
281
     1
  0
CLASS
  1
XRECORD
  2
AcDbXrecord
  3
AutoCAD 2000
 90
    32768
280
     0
281
     0
  0
CLASS
  1
LONG_TRANSACTION
  2
AcDbLongTransaction
  3
AutoCAD 2000
 90
    32768
280
     0
281
     0
  0
CLASS
  1
LWPOLYLINE
  2
AcDbPolyline
  3
AutoCAD 2000
 90
    32768
280
     0
281
     1
  0
CLASS
  1
HATCH
  2
AcDbHatch
  3
AutoCAD 2000
 90
    32768
280
     0
281
     1
  0
CLASS
  1
XRECORD
  2
AcDbXrecord
  3
AutoCAD 2000
 90
    32768
280
     0
281
     0
  0
CLASS
  1
LONG_TRANSACTION
  2
AcDbLongTransaction
  3
AutoCAD 2000
 90
    32768
280
     0
281
     0
  0
CLASS
  1
LWPOLYLINE
  2
AcDbPolyline
  3
AutoCAD 2000
 90
    32768
280
     0
281
     1
  0
CLASS
  1
HATCH
  2
AcDbHatch
  3
AutoCAD 2000
 90
    32768
280
     0
281
     1
  0
CLASS
  1
XRECORD
  2
AcDbXrecord
  3
AutoCAD 2000
 90
    32768
280
     0
281
     0
  0
CLASS
  1
LONG_TRANSACTION
  2
AcDbLongTransaction
  3
AutoCAD 2000
 90
    32768
280
     0
281
     0
  0
CLASS
  1
LWPOLYLINE
  2
AcDbPolyline
  3
AutoCAD 2000
 90
    32768
280
     0
281
     1
  0
CLASS
  1
HATCH
  2
AcDbHatch
  3
AutoCAD 2000
 90
    32768
280
     0
281
     1
  0
CLASS
  1
XRECORD
  2
AcDbXrecord
  3
AutoCAD 2000
 90
    32768
280
     0
281
     0
  0
CLASS
  1
LONG_TRANSACTION
  2
AcDbLongTransaction
  3
AutoCAD 2000
 90
    32768
280
     0
281
     0
  0
CLASS
  1
LWPOLYLINE
  2
AcDbPolyline
  3
AutoCAD 2000
 90
    32768
280
     0
281
     1
  0
CLASS
  1
HATCH
  2
AcDbHatch
  3
AutoCAD 2000
 90
    32768
280
     0
281
     1
  0
CLASS
  1
XRECORD
  2
AcDbXrecord
  3
AutoCAD 2000
 90
    32768
280
     0
281
     0
  0
ENDSEC
  0
SECTION
  2
TABLES
  0
TABLE
  2
VPORT
  5
8
330
0
100
AcDbSymbolTable
 70
     2
  0
VPORT
  5
4A10
330
8
100
AcDbSymbolTableRecord
100
AcDbViewportTableRecord
  2
*ACTIVE
 70
     0
 10
0.0
 20
0.0
 11
1.0
 21
1.0
 12
453.7439743027323
 22
246.2179886518922
 13
0.0
 23
0.0
 14
5.0
 24
5.0
 15
0.0
 25
0.0
 16
0.0
 26
0.0
 36
1.0
 17
0.0
 27
0.0
 37
0.0
 40
657.1421482033497
 41
1.535714285714285
 42
50.0
 43
0.0
 44
0.0
 50
0.0
 51
0.0
 71
     0
 72
   100
 73
     1
 74
     0
 75
     0
 76
     0
 77
     0
 78
     0
  0
ENDTAB
  0
TABLE
  2
LTYPE
  5
5
330
0
100
AcDbSymbolTable
 70
     4
  0
LTYPE
  5
14
330
5
100
AcDbSymbolTableRecord
100
AcDbLinetypeTableRecord
  2
BYBLOCK
 70
     0
  3

 72
    65
 73
     0
 40
0.0
  0
LTYPE
  5
15
330
5
100
AcDbSymbolTableRecord
100
AcDbLinetypeTableRecord
  2
BYLAYER
 70
     0
  3

 72
    65
 73
     0
 40
0.0
  0
LTYPE
  5
16
330
5
100
AcDbSymbolTableRecord
100
AcDbLinetypeTableRecord
  2
CONTINUOUS
 70
     0
  3
Solid line
 72
    65
 73
     0
 40
0.0
  0
LTYPE
  5
135
330
5
100
AcDbSymbolTableRecord
100
AcDbLinetypeTableRecord
  2
CENTER
 70
     0
  3
Center ____ _ ____ _ ____ _ ____ _ ____ _ ____
 72
    65
 73
     4
 40
50.8
 49
31.75
 74
     0
 49
-6.349999999999999
 74
     0
 49
6.349999999999999
 74
     0
 49
-6.349999999999999
 74
     0
  0
LTYPE
  5
1447
330
5
100
AcDbSymbolTableRecord
100
AcDbLinetypeTableRecord
  2
PHANTOM
 70
     0
  3
______  __  __  ______  __  __  ______  __  __ 
 72
    65
 73
     6
 40
2.5
 49
1.25
 74
     0
 49
-0.25
 74
     0
 49
0.25
 74
     0
 49
-0.25
 74
     0
 49
0.25
 74
     0
 49
-0.25
 74
     0
  0
LTYPE
  5
3E8F
330
5
100
AcDbSymbolTableRecord
100
AcDbLinetypeTableRecord
  2
HIDDEN
 70
     0
  3
Hidden __ __ __ __ __ __ __ __ __ __ __ __ __ _
 72
    65
 73
     2
 40
9.524999999999998
 49
6.349999999999999
 74
     0
 49
-3.174999999999999
 74
     0
  0
ENDTAB
  0
TABLE
  2
LAYER
  5
2
330
0
100
AcDbSymbolTable
 70
    10
  0
LAYER
  5
F
330
2
100
AcDbSymbolTableRecord
100
AcDbLayerTableRecord
  2
0
 70
     0
 62
     7
  6
CONTINUOUS
  0
LAYER
  5
62
330
2
100
AcDbSymbolTableRecord
100
AcDbLayerTableRecord
  2
VIEWPORT
 70
     0
 62
     7
  6
CONTINUOUS
  0
LAYER
  5
65
330
2
100
AcDbSymbolTableRecord
100
AcDbLayerTableRecord
  2
ZUWAKU
 70
     0
 62
     7
  6
CONTINUOUS
  0
LAYER
  5
68B
330
2
100
AcDbSymbolTableRecord
100
AcDbLayerTableRecord
  2
DEFPOINTS
 70
     0
 62
     7
  6
CONTINUOUS
  0
LAYER
  5
9AD
330
2
100
AcDbSymbolTableRecord
100
AcDbLayerTableRecord
  2
SEIHIN
 70
     0
 62
     3
  6
CONTINUOUS
  0
LAYER
  5
9AE
330
2
100
AcDbSymbolTableRecord
100
AcDbLayerTableRecord
  2
SUNPOU
 70
     0
 62
     4
  6
CONTINUOUS
  0
LAYER
  5
9AF
330
2
100
AcDbSymbolTableRecord
100
AcDbLayerTableRecord
  2
CENTER_L
 70
     0
 62
     1
  6
CENTER
  0
LAYER
  5
1448
330
2
100
AcDbSymbolTableRecord
100
AcDbLayerTableRecord
  2
NOKITOI
 70
     0
 62
     8
  6
PHANTOM
  0
LAYER
  5
1836
330
2
100
AcDbSymbolTableRecord
100
AcDbLayerTableRecord
  2
MOJI
 70
     0
 62
     2
  6
CONTINUOUS
  0
LAYER
  5
3E90
330
2
100
AcDbSymbolTableRecord
100
AcDbLayerTableRecord
  2
SEIHIN2
 70
     0
 62
     7
  6
HIDDEN
  0
ENDTAB
  0
TABLE
  2
STYLE
  5
3
330
0
100
AcDbSymbolTable
 70
     2
  0
STYLE
  5
10
330
3
100
AcDbSymbolTableRecord
100
AcDbTextStyleTableRecord
  2
STANDARD
 70
     0
 40
0.0
 41
1.0
 50
0.0
 71
     0
 42
8.0
  3
TXT
  4
bigfont.shx
  0
STYLE
  5
1837
330
3
100
AcDbSymbolTableRecord
100
AcDbTextStyleTableRecord
  2
ｽﾀｲﾙ1
 70
     0
 40
0.0
 41
1.0
 50
0.0
 71
     0
 42
2.5
  3
MS PGothic.ttf
  4

1001
ACAD
1000
MS PGothic
1071
    32818
  0
ENDTAB
  0
TABLE
  2
VIEW
  5
6
330
0
100
AcDbSymbolTable
 70
     0
  0
ENDTAB
  0
TABLE
  2
UCS
  5
7
330
0
100
AcDbSymbolTable
 70
     0
  0
ENDTAB
  0
TABLE
  2
APPID
  5
9
330
0
100
AcDbSymbolTable
 70
     1
  0
APPID
  5
11
330
9
100
AcDbSymbolTableRecord
100
AcDbRegAppTableRecord
  2
ACAD
 70
     0
  0
ENDTAB
  0
TABLE
  2
DIMSTYLE
  5
A
330
0
100
AcDbSymbolTable
 70
     1
  0
DIMSTYLE
105
1D
102
{ACAD_REACTORS
330
2CA0
330
2CAD
330
2CBA
330
2CC7
330
2CD4
330
2CF2
330
2CFF
330
3E95
330
3E96
330
3E97
330
3E98
330
3E99
330
3E9A
330
3E9B
102
}
330
A
100
AcDbSymbolTableRecord
100
AcDbDimStyleTableRecord
  2
STANDARD
 70
     0
  3

  4

  5

  6

  7

 40
1.0
 41
0.18
 42
0.0625
 43
0.38
 44
0.18
 45
0.0
 46
0.0
 47
0.0
 48
0.0
140
0.18
141
0.09
142
0.0
143
25.4
144
1.0
145
0.0
146
1.0
147
0.09
 71
     0
 72
     0
 73
     1
 74
     1
 75
     0
 76
     0
 77
     0
 78
     0
170
     0
171
     2
172
     0
173
     0
174
     0
175
     0
176
     0
177
     0
178
     0
270
     2
271
     4
272
     4
273
     2
274
     2
340
10
275
     0
280
     0
281
     0
282
     0
283
     1
284
     0
285
     0
286
     0
287
     3
288
     0
  0
ENDTAB
  0
TABLE
  2
BLOCK_RECORD
  5
1
330
0
100
AcDbSymbolTable
 70
    16
  0
BLOCK_RECORD
  5
1A
102
{ACAD_XDICTIONARY
360
1289
102
}
330
1
100
AcDbSymbolTableRecord
100
AcDbBlockTableRecord
  2
*MODEL_SPACE
  0
BLOCK_RECORD
  5
17
102
{ACAD_XDICTIONARY
360
1287
102
}
330
1
100
AcDbSymbolTableRecord
100
AcDbBlockTableRecord
  2
*PAPER_SPACE
  0
BLOCK_RECORD
  5
6D
330
1
100
AcDbSymbolTableRecord
100
AcDbBlockTableRecord
  2
_OPEN
  0
BLOCK_RECORD
  5
2CA1
330
1
100
AcDbSymbolTableRecord
100
AcDbBlockTableRecord
  2
*D1
  0
BLOCK_RECORD
  5
2CAE
330
1
100
AcDbSymbolTableRecord
100
AcDbBlockTableRecord
  2
*D2
  0
BLOCK_RECORD
  5
2CBB
330
1
100
AcDbSymbolTableRecord
100
AcDbBlockTableRecord
  2
*D3
  0
BLOCK_RECORD
  5
2CC8
330
1
100
AcDbSymbolTableRecord
100
AcDbBlockTableRecord
  2
*D4
  0
BLOCK_RECORD
  5
2CD5
330
1
100
AcDbSymbolTableRecord
100
AcDbBlockTableRecord
  2
*D5
  0
BLOCK_RECORD
  5
2CF3
330
1
100
AcDbSymbolTableRecord
100
AcDbBlockTableRecord
  2
*D6
  0
BLOCK_RECORD
  5
2D00
330
1
100
AcDbSymbolTableRecord
100
AcDbBlockTableRecord
  2
*D7
  0
BLOCK_RECORD
  5
3F9B
330
1
100
AcDbSymbolTableRecord
100
AcDbBlockTableRecord
  2
*D8
  0
BLOCK_RECORD
  5
3FA7
330
1
100
AcDbSymbolTableRecord
100
AcDbBlockTableRecord
  2
*D9
  0
BLOCK_RECORD
  5
3FB3
330
1
100
AcDbSymbolTableRecord
100
AcDbBlockTableRecord
  2
*D10
  0
BLOCK_RECORD
  5
3FBF
330
1
100
AcDbSymbolTableRecord
100
AcDbBlockTableRecord
  2
*D11
  0
BLOCK_RECORD
  5
3FCB
330
1
100
AcDbSymbolTableRecord
100
AcDbBlockTableRecord
  2
*D12
  0
BLOCK_RECORD
  5
3FD7
330
1
100
AcDbSymbolTableRecord
100
AcDbBlockTableRecord
  2
*D13
  0
BLOCK_RECORD
  5
3FE3
330
1
100
AcDbSymbolTableRecord
100
AcDbBlockTableRecord
  2
*D14
  0
BLOCK_RECORD
  5
4079
330
1
100
AcDbSymbolTableRecord
100
AcDbBlockTableRecord
  2
*X15
  0
ENDTAB
  0
ENDSEC
  0
SECTION
  2
BLOCKS
  0
BLOCK
  5
1B
330
1A
100
AcDbEntity
  8
0
100
AcDbBlockBegin
  2
*MODEL_SPACE
 70
     0
 10
0.0
 20
0.0
 30
0.0
  3
*MODEL_SPACE
  1

  0
ENDBLK
  5
1C
330
1A
100
AcDbEntity
  8
0
100
AcDbBlockEnd
  0
BLOCK
  5
18
330
17
100
AcDbEntity
 67
     1
  8
0
100
AcDbBlockBegin
  2
*PAPER_SPACE
 70
     0
 10
0.0
 20
0.0
 30
0.0
  3
*PAPER_SPACE
  1

  0
ENDBLK
  5
19
330
17
100
AcDbEntity
 67
     1
  8
0
100
AcDbBlockEnd
  0
BLOCK
  5
6E
330
6D
100
AcDbEntity
  8
0
100
AcDbBlockBegin
  2
_OPEN
 70
     0
 10
0.0
 20
0.0
 30
0.0
  3
_OPEN
  1

  0
LINE
  5
6F
330
6D
100
AcDbEntity
  8
0
  6
BYBLOCK
 62
     0
100
AcDbLine
 10
-1.0
 20
0.1666666666666666
 30
0.0
 11
0.0
 21
0.0
 31
0.0
  0
LINE
  5
70
330
6D
100
AcDbEntity
  8
0
  6
BYBLOCK
 62
     0
100
AcDbLine
 10
0.0
 20
0.0
 30
0.0
 11
-1.0
 21
-0.1666666666666666
 31
0.0
  0
LINE
  5
71
330
6D
100
AcDbEntity
  8
0
  6
BYBLOCK
 62
     0
100
AcDbLine
 10
0.0
 20
0.0
 30
0.0
 11
-1.0
 21
0.0
 31
0.0
  0
ENDBLK
  5
72
330
6D
100
AcDbEntity
  8
0
100
AcDbBlockEnd
  0
BLOCK
  5
2CAB
330
2CA1
100
AcDbEntity
  8
0
100
AcDbBlockBegin
  2
*D1
 70
     1
 10
0.0
 20
0.0
 30
0.0
  3
*D1
  1

  0
LINE
  5
46C6
330
2CA1
100
AcDbEntity
  8
SUNPOU
100
AcDbLine
 10
221.5340627570353
 20
308.3643424618545
 30
0.0
 11
261.8242585351617
 21
308.3643424618545
 31
0.0
  0
LINE
  5
46C7
330
2CA1
100
AcDbEntity
  8
SUNPOU
100
AcDbLine
 10
154.7957509634418
 20
183.6962392888698
 30
0.0
 11
261.8242585351617
 21
183.6962392888698
 31
0.0
  0
LINE
  5
46C8
330
2CA1
100
AcDbEntity
  8
SUNPOU
100
AcDbLine
 10
258.8242585351617
 20
301.3643424618545
 30
0.0
 11
258.8242585351617
 21
190.6962392888697
 31
0.0
  0
INSERT
  5
46C9
330
2CA1
100
AcDbEntity
  8
SUNPOU
100
AcDbBlockReference
  2
_OPEN
 10
258.8242585351617
 20
308.3643424618545
 30
0.0
 41
7.0
 42
7.0
 43
7.0
 50
90.0
  0
INSERT
  5
46CA
330
2CA1
100
AcDbEntity
  8
SUNPOU
100
AcDbBlockReference
  2
_OPEN
 10
258.8242585351617
 20
183.6962392888698
 30
0.0
 41
7.0
 42
7.0
 43
7.0
 50
270.0
  0
MTEXT
  5
46CB
330
2CA1
100
AcDbEntity
  8
SUNPOU
100
AcDbMText
 10
253.8242585351617
 20
246.0302908753622
 30
0.0
 40
6.0
 41
0.0
 71
     5
 72
     1
  1
\A1;125
 11
0.0000000000000001
 21
1.0
 31
0.0
1001
ACAD
1000
MTEXTBEGIN
1070
    73
1070
     1
1070
    44
1040
1.0
1070
    74
1070
     0
1000
MTEXTEND
1000
MTEXTBEGIN
1070
    73
1070
     1
1070
    44
1040
1.0
1070
    74
1070
     0
1000
MTEXTEND
1000
MTEXTBEGIN
1070
    73
1070
     1
1070
    44
1040
1.0
1070
    74
1070
     0
1000
MTEXTEND
  0
POINT
  5
46CC
330
2CA1
100
AcDbEntity
  8
DEFPOINTS
 62
     0
100
AcDbPoint
 10
215.5340627570353
 20
308.3643424618545
 30
0.0
  0
POINT
  5
46CD
330
2CA1
100
AcDbEntity
  8
DEFPOINTS
 62
     0
100
AcDbPoint
 10
148.7957509634418
 20
183.6962392888698
 30
0.0
  0
POINT
  5
46CE
330
2CA1
100
AcDbEntity
  8
DEFPOINTS
 62
     0
100
AcDbPoint
 10
258.8242585351617
 20
183.6962392888698
 30
0.0
  0
ENDBLK
  5
2CAC
330
2CA1
100
AcDbEntity
  8
0
100
AcDbBlockEnd
  0
BLOCK
  5
2CB8
330
2CAE
100
AcDbEntity
  8
0
100
AcDbBlockBegin
  2
*D2
 70
     1
 10
0.0
 20
0.0
 30
0.0
  3
*D2
  1

  0
LINE
  5
46CF
330
2CAE
100
AcDbEntity
  8
SUNPOU
100
AcDbLine
 10
85.07756855418657
 20
272.6952361754742
 30
0.0
 11
85.07756855418657
 21
338.8671349578053
 31
0.0
  0
LINE
  5
46D0
330
2CAE
100
AcDbEntity
  8
SUNPOU
100
AcDbLine
 10
147.3775685541651
 20
280.1952361754778
 30
0.0
 11
147.3775685541651
 21
338.8671349578053
 31
0.0
  0
LINE
  5
46D1
330
2CAE
100
AcDbEntity
  8
SUNPOU
100
AcDbLine
 10
92.07756855418656
 20
335.8671349578053
 30
0.0
 11
140.3775685541651
 21
335.8671349578053
 31
0.0
  0
INSERT
  5
46D2
330
2CAE
100
AcDbEntity
  8
SUNPOU
100
AcDbBlockReference
  2
_OPEN
 10
85.07756855418657
 20
335.8671349578053
 30
0.0
 41
7.0
 42
7.0
 43
7.0
 50
180.0
  0
INSERT
  5
46D3
330
2CAE
100
AcDbEntity
  8
SUNPOU
100
AcDbBlockReference
  2
_OPEN
 10
147.3775685541651
 20
335.8671349578053
 30
0.0
 41
7.0
 42
7.0
 43
7.0
  0
MTEXT
  5
46D4
330
2CAE
100
AcDbEntity
  8
SUNPOU
100
AcDbMText
 10
116.2275685541758
 20
340.8671349578053
 30
0.0
 40
6.0
 41
0.0
 71
     5
 72
     1
  1
\A1;62
1001
ACAD
1000
MTEXTBEGIN
1070
    73
1070
     1
1070
    44
1040
1.0
1070
    74
1070
     0
1000
MTEXTEND
1000
MTEXTBEGIN
1070
    73
1070
     1
1070
    44
1040
1.0
1070
    74
1070
     0
1000
MTEXTEND
1000
MTEXTBEGIN
1070
    73
1070
     1
1070
    44
1040
1.0
1070
    74
1070
     0
1000
MTEXTEND
  0
POINT
  5
46D5
330
2CAE
100
AcDbEntity
  8
DEFPOINTS
 62
     0
100
AcDbPoint
 10
85.07756855418657
 20
266.6952361754742
 30
0.0
  0
POINT
  5
46D6
330
2CAE
100
AcDbEntity
  8
DEFPOINTS
 62
     0
100
AcDbPoint
 10
147.3775685541651
 20
274.1952361754778
 30
0.0
  0
POINT
  5
46D7
330
2CAE
100
AcDbEntity
  8
DEFPOINTS
 62
     0
100
AcDbPoint
 10
147.3775685541651
 20
335.8671349578053
 30
0.0
  0
ENDBLK
  5
2CB9
330
2CAE
100
AcDbEntity
  8
0
100
AcDbBlockEnd
  0
BLOCK
  5
2CC5
330
2CBB
100
AcDbEntity
  8
0
100
AcDbBlockBegin
  2
*D3
 70
     1
 10
0.0
 20
0.0
 30
0.0
  3
*D3
  1

  0
LINE
  5
4A38
330
2CBB
100
AcDbEntity
  8
SUNPOU
100
AcDbLine
 10
147.3775685541651
 20
280.1952361754778
 30
0.0
 11
147.3775685541651
 21
338.8671349578053
 31
0.0
  0
LINE
  5
4A39
330
2CBB
100
AcDbEntity
  8
SUNPOU
100
AcDbLine
 10
167.1051112665736
 20
314.3643424618545
 30
0.0
 11
167.1051112665736
 21
338.8671349578053
 31
0.0
  0
LINE
  5
4A3A
330
2CBB
100
AcDbEntity
  8
SUNPOU
100
AcDbLine
 10
154.3775685541651
 20
335.8671349578053
 30
0.0
 11
160.1051112665736
 21
335.8671349578053
 31
0.0
  0
INSERT
  5
4A3B
330
2CBB
100
AcDbEntity
  8
SUNPOU
100
AcDbBlockReference
  2
_OPEN
 10
147.3775685541651
 20
335.8671349578053
 30
0.0
 41
7.0
 42
7.0
 43
7.0
 50
180.0
  0
INSERT
  5
4A3C
330
2CBB
100
AcDbEntity
  8
SUNPOU
100
AcDbBlockReference
  2
_OPEN
 10
167.1051112665736
 20
335.8671349578053
 30
0.0
 41
7.0
 42
7.0
 43
7.0
  0
MTEXT
  5
4A3D
330
2CBB
100
AcDbEntity
  8
SUNPOU
100
AcDbMText
 10
157.2413399103693
 20
340.8671349578053
 30
0.0
 40
6.0
 41
0.0
 71
     5
 72
     1
  1
\A1;20
  0
POINT
  5
4A3E
330
2CBB
100
AcDbEntity
  8
DEFPOINTS
 62
     0
100
AcDbPoint
 10
147.3775685541651
 20
274.1952361754778
 30
0.0
  0
POINT
  5
4A3F
330
2CBB
100
AcDbEntity
  8
DEFPOINTS
 62
     0
100
AcDbPoint
 10
167.1051112665736
 20
308.3643424618545
 30
0.0
  0
POINT
  5
4A40
330
2CBB
100
AcDbEntity
  8
DEFPOINTS
 62
     0
100
AcDbPoint
 10
167.1051112665736
 20
335.8671349578053
 30
0.0
  0
ENDBLK
  5
2CC6
330
2CBB
100
AcDbEntity
  8
0
100
AcDbBlockEnd
  0
BLOCK
  5
2CD2
330
2CC8
100
AcDbEntity
  8
0
100
AcDbBlockBegin
  2
*D4
 70
     1
 10
0.0
 20
0.0
 30
0.0
  3
*D4
  1

  0
LINE
  5
46E1
330
2CC8
100
AcDbEntity
  8
SUNPOU
100
AcDbLine
 10
85.07756855418657
 20
272.6952361754742
 30
0.0
 11
85.07756855418657
 21
353.7432578577127
 31
0.0
  0
LINE
  5
46E2
330
2CC8
100
AcDbEntity
  8
SUNPOU
100
AcDbLine
 10
221.0752866125492
 20
309.9786523002426
 30
0.0
 11
221.0752866125492
 21
353.7432578577127
 31
0.0
  0
LINE
  5
46E3
330
2CC8
100
AcDbEntity
  8
SUNPOU
100
AcDbLine
 10
92.07756855418656
 20
350.7432578577127
 30
0.0
 11
214.0752866125492
 21
350.7432578577127
 31
0.0
  0
INSERT
  5
46E4
330
2CC8
100
AcDbEntity
  8
SUNPOU
100
AcDbBlockReference
  2
_OPEN
 10
85.07756855418657
 20
350.7432578577127
 30
0.0
 41
7.0
 42
7.0
 43
7.0
 50
180.0
  0
INSERT
  5
46E5
330
2CC8
100
AcDbEntity
  8
SUNPOU
100
AcDbBlockReference
  2
_OPEN
 10
221.0752866125492
 20
350.7432578577127
 30
0.0
 41
7.0
 42
7.0
 43
7.0
  0
MTEXT
  5
46E6
330
2CC8
100
AcDbEntity
  8
SUNPOU
100
AcDbMText
 10
153.0764275833679
 20
355.7432578577127
 30
0.0
 40
6.0
 41
0.0
 71
     5
 72
     1
  1
\A1;136
1001
ACAD
1000
MTEXTBEGIN
1070
    73
1070
     1
1070
    44
1040
1.0
1070
    74
1070
     0
1000
MTEXTEND
1000
MTEXTBEGIN
1070
    73
1070
     1
1070
    44
1040
1.0
1070
    74
1070
     0
1000
MTEXTEND
1000
MTEXTBEGIN
1070
    73
1070
     1
1070
    44
1040
1.0
1070
    74
1070
     0
1000
MTEXTEND
  0
POINT
  5
46E7
330
2CC8
100
AcDbEntity
  8
DEFPOINTS
 62
     0
100
AcDbPoint
 10
85.07756855418657
 20
266.6952361754742
 30
0.0
  0
POINT
  5
46E8
330
2CC8
100
AcDbEntity
  8
DEFPOINTS
 62
     0
100
AcDbPoint
 10
221.0752866125492
 20
303.9786523002426
 30
0.0
  0
POINT
  5
46E9
330
2CC8
100
AcDbEntity
  8
DEFPOINTS
 62
     0
100
AcDbPoint
 10
221.0752866125492
 20
350.7432578577127
 30
0.0
  0
ENDBLK
  5
2CD3
330
2CC8
100
AcDbEntity
  8
0
100
AcDbBlockEnd
  0
BLOCK
  5
2CDF
330
2CD5
100
AcDbEntity
  8
0
100
AcDbBlockBegin
  2
*D5
 70
     1
 10
0.0
 20
0.0
 30
0.0
  3
*D5
  1

  0
LINE
  5
46EA
330
2CD5
100
AcDbEntity
  8
SUNPOU
100
AcDbLine
 10
86.58786114917132
 20
274.1952361754777
 30
0.0
 11
52.22839538007339
 21
274.1952361754777
 31
0.0
  0
LINE
  5
46EB
330
2CD5
100
AcDbEntity
  8
SUNPOU
100
AcDbLine
 10
142.7957509634418
 20
183.6962392888698
 30
0.0
 11
52.22839538007336
 21
183.6962392888698
 31
0.0
  0
LINE
  5
46EC
330
2CD5
100
AcDbEntity
  8
SUNPOU
100
AcDbLine
 10
55.22839538007339
 20
267.1952361754776
 30
0.0
 11
55.22839538007337
 21
190.6962392888698
 31
0.0
  0
INSERT
  5
46ED
330
2CD5
100
AcDbEntity
  8
SUNPOU
100
AcDbBlockReference
  2
_OPEN
 10
55.22839538007339
 20
274.1952361754777
 30
0.0
 41
7.0
 42
7.0
 43
7.0
 50
90.0
  0
INSERT
  5
46EE
330
2CD5
100
AcDbEntity
  8
SUNPOU
100
AcDbBlockReference
  2
_OPEN
 10
55.22839538007337
 20
183.6962392888698
 30
0.0
 41
7.0
 42
7.0
 43
7.0
 50
270.0
  0
MTEXT
  5
46EF
330
2CD5
100
AcDbEntity
  8
SUNPOU
100
AcDbMText
 10
50.22839538007334
 20
228.9457377321737
 30
0.0
 40
6.0
 41
0.0
 71
     5
 72
     1
  1
\A1;90
 11
0.0000000000000001
 21
1.0
 31
0.0
1001
ACAD
1000
MTEXTBEGIN
1070
    73
1070
     1
1070
    44
1040
1.0
1070
    74
1070
     0
1000
MTEXTEND
1000
MTEXTBEGIN
1070
    73
1070
     1
1070
    44
1040
1.0
1070
    74
1070
     0
1000
MTEXTEND
1000
MTEXTBEGIN
1070
    73
1070
     1
1070
    44
1040
1.0
1070
    74
1070
     0
1000
MTEXTEND
  0
POINT
  5
46F0
330
2CD5
100
AcDbEntity
  8
DEFPOINTS
 62
     0
100
AcDbPoint
 10
92.58786114917132
 20
274.1952361754777
 30
0.0
  0
POINT
  5
46F1
330
2CD5
100
AcDbEntity
  8
DEFPOINTS
 62
     0
100
AcDbPoint
 10
148.7957509634418
 20
183.6962392888698
 30
0.0
  0
POINT
  5
46F2
330
2CD5
100
AcDbEntity
  8
DEFPOINTS
 62
     0
100
AcDbPoint
 10
55.22839538007337
 20
183.6962392888698
 30
0.0
  0
ENDBLK
  5
2CE0
330
2CD5
100
AcDbEntity
  8
0
100
AcDbBlockEnd
  0
BLOCK
  5
2CFD
330
2CF3
100
AcDbEntity
  8
0
100
AcDbBlockBegin
  2
*D6
 70
     1
 10
0.0
 20
0.0
 30
0.0
  3
*D6
  1

  0
LINE
  5
46F3
330
2CF3
100
AcDbEntity
  8
SUNPOU
100
AcDbLine
 10
226.0263636225736
 20
435.21784532684
 30
0.0
 11
254.597975984233
 21
435.21784532684
 31
0.0
  0
LINE
  5
46F4
330
2CF3
100
AcDbEntity
  8
SUNPOU
100
AcDbLine
 10
226.865508675818
 20
411.21784532684
 30
0.0
 11
254.597975984233
 21
411.21784532684
 31
0.0
  0
LINE
  5
46F5
330
2CF3
100
AcDbEntity
  8
SUNPOU
100
AcDbLine
 10
251.597975984233
 20
428.2178453268399
 30
0.0
 11
251.597975984233
 21
418.21784532684
 31
0.0
  0
INSERT
  5
46F6
330
2CF3
100
AcDbEntity
  8
SUNPOU
100
AcDbBlockReference
  2
_OPEN
 10
251.597975984233
 20
435.21784532684
 30
0.0
 41
7.0
 42
7.0
 43
7.0
 50
90.0
  0
INSERT
  5
46F7
330
2CF3
100
AcDbEntity
  8
SUNPOU
100
AcDbBlockReference
  2
_OPEN
 10
251.597975984233
 20
411.21784532684
 30
0.0
 41
7.0
 42
7.0
 43
7.0
 50
270.0
  0
MTEXT
  5
46F8
330
2CF3
100
AcDbEntity
  8
SUNPOU
100
AcDbMText
 10
246.5979759842329
 20
423.2178453268401
 30
0.0
 40
6.0
 41
0.0
 71
     5
 72
     1
  1
\A1;\U+203B24
 11
0.0000000000000001
 21
1.0
 31
0.0
1001
ACAD
1000
MTEXTBEGIN
1070
    73
1070
     1
1070
    44
1040
1.0
1070
    74
1070
     0
1000
MTEXTEND
1000
MTEXTBEGIN
1070
    73
1070
     1
1070
    44
1040
1.0
1070
    74
1070
     0
1000
MTEXTEND
1000
MTEXTBEGIN
1070
    73
1070
     1
1070
    44
1040
1.0
1070
    74
1070
     0
1000
MTEXTEND
  0
POINT
  5
46F9
330
2CF3
100
AcDbEntity
  8
DEFPOINTS
 62
     0
100
AcDbPoint
 10
220.0263636225736
 20
435.21784532684
 30
0.0
  0
POINT
  5
46FA
330
2CF3
100
AcDbEntity
  8
DEFPOINTS
 62
     0
100
AcDbPoint
 10
220.865508675818
 20
411.21784532684
 30
0.0
  0
POINT
  5
46FB
330
2CF3
100
AcDbEntity
  8
DEFPOINTS
 62
     0
100
AcDbPoint
 10
251.597975984233
 20
411.21784532684
 30
0.0
  0
ENDBLK
  5
2CFE
330
2CF3
100
AcDbEntity
  8
0
100
AcDbBlockEnd
  0
BLOCK
  5
2D0A
330
2D00
100
AcDbEntity
  8
0
100
AcDbBlockBegin
  2
*D7
 70
     1
 10
0.0
 20
0.0
 30
0.0
  3
*D7
  1

  0
LINE
  5
46FC
330
2D00
100
AcDbEntity
  8
SUNPOU
100
AcDbLine
 10
226.0263636225736
 20
435.2178453268404
 30
0.0
 11
271.4662835203798
 21
435.2178453268404
 31
0.0
  0
LINE
  5
46FD
330
2D00
100
AcDbEntity
  8
SUNPOU
100
AcDbLine
 10
225.6019718657156
 20
405.2178453268399
 30
0.0
 11
271.4662835203798
 21
405.2178453268399
 31
0.0
  0
LINE
  5
46FE
330
2D00
100
AcDbEntity
  8
SUNPOU
100
AcDbLine
 10
268.4662835203798
 20
428.2178453268404
 30
0.0
 11
268.4662835203798
 21
412.2178453268398
 31
0.0
  0
INSERT
  5
46FF
330
2D00
100
AcDbEntity
  8
SUNPOU
100
AcDbBlockReference
  2
_OPEN
 10
268.4662835203798
 20
435.2178453268404
 30
0.0
 41
7.0
 42
7.0
 43
7.0
 50
90.0
  0
INSERT
  5
4700
330
2D00
100
AcDbEntity
  8
SUNPOU
100
AcDbBlockReference
  2
_OPEN
 10
268.4662835203798
 20
405.2178453268399
 30
0.0
 41
7.0
 42
7.0
 43
7.0
 50
270.0
  0
MTEXT
  5
4701
330
2D00
100
AcDbEntity
  8
SUNPOU
100
AcDbMText
 10
263.4662835203797
 20
420.2178453268402
 30
0.0
 40
6.0
 41
0.0
 71
     5
 72
     1
  1
\A1;30
 11
0.0000000000000001
 21
1.0
 31
0.0
1001
ACAD
1000
MTEXTBEGIN
1070
    73
1070
     1
1070
    44
1040
1.0
1070
    74
1070
     0
1000
MTEXTEND
1000
MTEXTBEGIN
1070
    73
1070
     1
1070
    44
1040
1.0
1070
    74
1070
     0
1000
MTEXTEND
1000
MTEXTBEGIN
1070
    73
1070
     1
1070
    44
1040
1.0
1070
    74
1070
     0
1000
MTEXTEND
  0
POINT
  5
4702
330
2D00
100
AcDbEntity
  8
DEFPOINTS
 62
     0
100
AcDbPoint
 10
220.0263636225736
 20
435.2178453268404
 30
0.0
  0
POINT
  5
4703
330
2D00
100
AcDbEntity
  8
DEFPOINTS
 62
     0
100
AcDbPoint
 10
219.6019718657156
 20
405.2178453268399
 30
0.0
  0
POINT
  5
4704
330
2D00
100
AcDbEntity
  8
DEFPOINTS
 62
     0
100
AcDbPoint
 10
268.4662835203798
 20
405.2178453268399
 30
0.0
  0
ENDBLK
  5
2D0B
330
2D00
100
AcDbEntity
  8
0
100
AcDbBlockEnd
  0
BLOCK
  5
3FA5
330
3F9B
100
AcDbEntity
  8
0
100
AcDbBlockBegin
  2
*D8
 70
     1
 10
0.0
 20
0.0
 30
0.0
  3
*D8
  1

  0
LINE
  5
4851
330
3F9B
100
AcDbEntity
  8
SUNPOU
100
AcDbLine
 10
576.0659372700765
 20
308.3643424618545
 30
0.0
 11
535.7757414919502
 21
308.3643424618545
 31
0.0
  0
LINE
  5
4852
330
3F9B
100
AcDbEntity
  8
SUNPOU
100
AcDbLine
 10
642.8042490636701
 20
183.6962392888698
 30
0.0
 11
535.7757414919501
 21
183.6962392888698
 31
0.0
  0
LINE
  5
4853
330
3F9B
100
AcDbEntity
  8
SUNPOU
100
AcDbLine
 10
538.7757414919502
 20
301.3643424618545
 30
0.0
 11
538.7757414919501
 21
190.6962392888698
 31
0.0
  0
INSERT
  5
4854
330
3F9B
100
AcDbEntity
  8
SUNPOU
100
AcDbBlockReference
  2
_OPEN
 10
538.7757414919502
 20
308.3643424618545
 30
0.0
 41
7.0
 42
7.0
 43
7.0
 50
90.0
  0
INSERT
  5
4855
330
3F9B
100
AcDbEntity
  8
SUNPOU
100
AcDbBlockReference
  2
_OPEN
 10
538.7757414919501
 20
183.6962392888698
 30
0.0
 41
7.0
 42
7.0
 43
7.0
 50
270.0
  0
MTEXT
  5
4856
330
3F9B
100
AcDbEntity
  8
SUNPOU
100
AcDbMText
 10
533.7757414919501
 20
246.0302908753623
 30
0.0
 40
6.0
 41
0.0
 71
     5
 72
     1
  1
\A1;125
 11
0.0000000000000001
 21
1.0
 31
0.0
1001
ACAD
1000
MTEXTBEGIN
1070
    73
1070
     1
1070
    44
1040
1.0
1070
    74
1070
     0
1000
MTEXTEND
1000
MTEXTBEGIN
1070
    73
1070
     1
1070
    44
1040
1.0
1070
    74
1070
     0
1000
MTEXTEND
1000
MTEXTBEGIN
1070
    73
1070
     1
1070
    44
1040
1.0
1070
    74
1070
     0
1000
MTEXTEND
  0
POINT
  5
4857
330
3F9B
100
AcDbEntity
  8
DEFPOINTS
 62
     0
100
AcDbPoint
 10
582.0659372700766
 20
308.3643424618545
 30
0.0
  0
POINT
  5
4858
330
3F9B
100
AcDbEntity
  8
DEFPOINTS
 62
     0
100
AcDbPoint
 10
648.8042490636701
 20
183.6962392888698
 30
0.0
  0
POINT
  5
4859
330
3F9B
100
AcDbEntity
  8
DEFPOINTS
 62
     0
100
AcDbPoint
 10
538.7757414919501
 20
183.6962392888698
 30
0.0
  0
ENDBLK
  5
3FA6
330
3F9B
100
AcDbEntity
  8
0
100
AcDbBlockEnd
  0
BLOCK
  5
3FB1
330
3FA7
100
AcDbEntity
  8
0
100
AcDbBlockBegin
  2
*D9
 70
     1
 10
0.0
 20
0.0
 30
0.0
  3
*D9
  1

  0
LINE
  5
485A
330
3FA7
100
AcDbEntity
  8
SUNPOU
100
AcDbLine
 10
712.5224314729254
 20
272.6952361754742
 30
0.0
 11
712.5224314729254
 21
338.8671349578053
 31
0.0
  0
LINE
  5
485B
330
3FA7
100
AcDbEntity
  8
SUNPOU
100
AcDbLine
 10
650.2224314729467
 20
280.1952361754778
 30
0.0
 11
650.2224314729467
 21
338.8671349578053
 31
0.0
  0
LINE
  5
485C
330
3FA7
100
AcDbEntity
  8
SUNPOU
100
AcDbLine
 10
705.5224314729254
 20
335.8671349578053
 30
0.0
 11
657.2224314729467
 21
335.8671349578053
 31
0.0
  0
INSERT
  5
485D
330
3FA7
100
AcDbEntity
  8
SUNPOU
100
AcDbBlockReference
  2
_OPEN
 10
712.5224314729254
 20
335.8671349578053
 30
0.0
 41
7.0
 42
7.0
 43
7.0
  0
INSERT
  5
485E
330
3FA7
100
AcDbEntity
  8
SUNPOU
100
AcDbBlockReference
  2
_OPEN
 10
650.2224314729467
 20
335.8671349578053
 30
0.0
 41
7.0
 42
7.0
 43
7.0
 50
180.0
  0
MTEXT
  5
485F
330
3FA7
100
AcDbEntity
  8
SUNPOU
100
AcDbMText
 10
681.3724314729361
 20
340.8671349578053
 30
0.0
 40
6.0
 41
0.0
 71
     5
 72
     1
  1
\A1;62
1001
ACAD
1000
MTEXTBEGIN
1070
    73
1070
     1
1070
    44
1040
1.0
1070
    74
1070
     0
1000
MTEXTEND
1000
MTEXTBEGIN
1070
    73
1070
     1
1070
    44
1040
1.0
1070
    74
1070
     0
1000
MTEXTEND
1000
MTEXTBEGIN
1070
    73
1070
     1
1070
    44
1040
1.0
1070
    74
1070
     0
1000
MTEXTEND
  0
POINT
  5
4860
330
3FA7
100
AcDbEntity
  8
DEFPOINTS
 62
     0
100
AcDbPoint
 10
712.5224314729254
 20
266.6952361754742
 30
0.0
  0
POINT
  5
4861
330
3FA7
100
AcDbEntity
  8
DEFPOINTS
 62
     0
100
AcDbPoint
 10
650.2224314729467
 20
274.1952361754778
 30
0.0
  0
POINT
  5
4862
330
3FA7
100
AcDbEntity
  8
DEFPOINTS
 62
     0
100
AcDbPoint
 10
650.2224314729467
 20
335.8671349578053
 30
0.0
  0
ENDBLK
  5
3FB2
330
3FA7
100
AcDbEntity
  8
0
100
AcDbBlockEnd
  0
BLOCK
  5
3FBD
330
3FB3
100
AcDbEntity
  8
0
100
AcDbBlockBegin
  2
*D10
 70
     1
 10
0.0
 20
0.0
 30
0.0
  3
*D10
  1

  0
LINE
  5
4A68
330
3FB3
100
AcDbEntity
  8
SUNPOU
100
AcDbLine
 10
650.2224314729467
 20
280.1952361754778
 30
0.0
 11
650.2224314729467
 21
338.8671349578053
 31
0.0
  0
LINE
  5
4A69
330
3FB3
100
AcDbEntity
  8
SUNPOU
100
AcDbLine
 10
630.4948887605383
 20
314.3643424618545
 30
0.0
 11
630.4948887605383
 21
338.8671349578053
 31
0.0
  0
LINE
  5
4A6A
330
3FB3
100
AcDbEntity
  8
SUNPOU
100
AcDbLine
 10
643.2224314729467
 20
335.8671349578053
 30
0.0
 11
637.4948887605382
 21
335.8671349578053
 31
0.0
  0
INSERT
  5
4A6B
330
3FB3
100
AcDbEntity
  8
SUNPOU
100
AcDbBlockReference
  2
_OPEN
 10
650.2224314729467
 20
335.8671349578053
 30
0.0
 41
7.0
 42
7.0
 43
7.0
  0
INSERT
  5
4A6C
330
3FB3
100
AcDbEntity
  8
SUNPOU
100
AcDbBlockReference
  2
_OPEN
 10
630.4948887605383
 20
335.8671349578053
 30
0.0
 41
7.0
 42
7.0
 43
7.0
 50
180.0
  0
MTEXT
  5
4A6D
330
3FB3
100
AcDbEntity
  8
SUNPOU
100
AcDbMText
 10
640.3586601167424
 20
340.8671349578053
 30
0.0
 40
6.0
 41
0.0
 71
     5
 72
     1
  1
\A1;20
  0
POINT
  5
4A6E
330
3FB3
100
AcDbEntity
  8
DEFPOINTS
 62
     0
100
AcDbPoint
 10
650.2224314729467
 20
274.1952361754778
 30
0.0
  0
POINT
  5
4A6F
330
3FB3
100
AcDbEntity
  8
DEFPOINTS
 62
     0
100
AcDbPoint
 10
630.4948887605383
 20
308.3643424618545
 30
0.0
  0
POINT
  5
4A70
330
3FB3
100
AcDbEntity
  8
DEFPOINTS
 62
     0
100
AcDbPoint
 10
630.4948887605383
 20
335.8671349578053
 30
0.0
  0
ENDBLK
  5
3FBE
330
3FB3
100
AcDbEntity
  8
0
100
AcDbBlockEnd
  0
BLOCK
  5
3FC9
330
3FBF
100
AcDbEntity
  8
0
100
AcDbBlockBegin
  2
*D11
 70
     1
 10
0.0
 20
0.0
 30
0.0
  3
*D11
  1

  0
LINE
  5
486C
330
3FBF
100
AcDbEntity
  8
SUNPOU
100
AcDbLine
 10
712.5224314729254
 20
272.6952361754742
 30
0.0
 11
712.5224314729254
 21
353.7432578577127
 31
0.0
  0
LINE
  5
486D
330
3FBF
100
AcDbEntity
  8
SUNPOU
100
AcDbLine
 10
576.5247134145627
 20
309.9786523002426
 30
0.0
 11
576.5247134145627
 21
353.7432578577127
 31
0.0
  0
LINE
  5
486E
330
3FBF
100
AcDbEntity
  8
SUNPOU
100
AcDbLine
 10
705.5224314729254
 20
350.7432578577127
 30
0.0
 11
583.5247134145626
 21
350.7432578577127
 31
0.0
  0
INSERT
  5
486F
330
3FBF
100
AcDbEntity
  8
SUNPOU
100
AcDbBlockReference
  2
_OPEN
 10
712.5224314729254
 20
350.7432578577127
 30
0.0
 41
7.0
 42
7.0
 43
7.0
  0
INSERT
  5
4870
330
3FBF
100
AcDbEntity
  8
SUNPOU
100
AcDbBlockReference
  2
_OPEN
 10
576.5247134145627
 20
350.7432578577127
 30
0.0
 41
7.0
 42
7.0
 43
7.0
 50
180.0
  0
MTEXT
  5
4871
330
3FBF
100
AcDbEntity
  8
SUNPOU
100
AcDbMText
 10
644.523572443744
 20
355.7432578577127
 30
0.0
 40
6.0
 41
0.0
 71
     5
 72
     1
  1
\A1;136
1001
ACAD
1000
MTEXTBEGIN
1070
    73
1070
     1
1070
    44
1040
1.0
1070
    74
1070
     0
1000
MTEXTEND
1000
MTEXTBEGIN
1070
    73
1070
     1
1070
    44
1040
1.0
1070
    74
1070
     0
1000
MTEXTEND
1000
MTEXTBEGIN
1070
    73
1070
     1
1070
    44
1040
1.0
1070
    74
1070
     0
1000
MTEXTEND
  0
POINT
  5
4872
330
3FBF
100
AcDbEntity
  8
DEFPOINTS
 62
     0
100
AcDbPoint
 10
712.5224314729254
 20
266.6952361754742
 30
0.0
  0
POINT
  5
4873
330
3FBF
100
AcDbEntity
  8
DEFPOINTS
 62
     0
100
AcDbPoint
 10
576.5247134145627
 20
303.9786523002426
 30
0.0
  0
POINT
  5
4874
330
3FBF
100
AcDbEntity
  8
DEFPOINTS
 62
     0
100
AcDbPoint
 10
576.5247134145627
 20
350.7432578577127
 30
0.0
  0
ENDBLK
  5
3FCA
330
3FBF
100
AcDbEntity
  8
0
100
AcDbBlockEnd
  0
BLOCK
  5
3FD5
330
3FCB
100
AcDbEntity
  8
0
100
AcDbBlockBegin
  2
*D12
 70
     1
 10
0.0
 20
0.0
 30
0.0
  3
*D12
  1

  0
LINE
  5
4875
330
3FCB
100
AcDbEntity
  8
SUNPOU
100
AcDbLine
 10
711.0121388779406
 20
274.1952361754777
 30
0.0
 11
745.3716046470386
 21
274.1952361754777
 31
0.0
  0
LINE
  5
4876
330
3FCB
100
AcDbEntity
  8
SUNPOU
100
AcDbLine
 10
654.8042490636701
 20
183.6962392888698
 30
0.0
 11
745.3716046470385
 21
183.6962392888698
 31
0.0
  0
LINE
  5
4877
330
3FCB
100
AcDbEntity
  8
SUNPOU
100
AcDbLine
 10
742.3716046470387
 20
267.1952361754776
 30
0.0
 11
742.3716046470385
 21
190.6962392888697
 31
0.0
  0
INSERT
  5
4878
330
3FCB
100
AcDbEntity
  8
SUNPOU
100
AcDbBlockReference
  2
_OPEN
 10
742.3716046470387
 20
274.1952361754777
 30
0.0
 41
7.0
 42
7.0
 43
7.0
 50
90.0
  0
INSERT
  5
4879
330
3FCB
100
AcDbEntity
  8
SUNPOU
100
AcDbBlockReference
  2
_OPEN
 10
742.3716046470385
 20
183.6962392888698
 30
0.0
 41
7.0
 42
7.0
 43
7.0
 50
270.0
  0
MTEXT
  5
487A
330
3FCB
100
AcDbEntity
  8
SUNPOU
100
AcDbMText
 10
737.3716046470385
 20
228.9457377321738
 30
0.0
 40
6.0
 41
0.0
 71
     5
 72
     1
  1
\A1;90
 11
0.0000000000000001
 21
1.0
 31
0.0
1001
ACAD
1000
MTEXTBEGIN
1070
    73
1070
     1
1070
    44
1040
1.0
1070
    74
1070
     0
1000
MTEXTEND
1000
MTEXTBEGIN
1070
    73
1070
     1
1070
    44
1040
1.0
1070
    74
1070
     0
1000
MTEXTEND
1000
MTEXTBEGIN
1070
    73
1070
     1
1070
    44
1040
1.0
1070
    74
1070
     0
1000
MTEXTEND
  0
POINT
  5
487B
330
3FCB
100
AcDbEntity
  8
DEFPOINTS
 62
     0
100
AcDbPoint
 10
705.0121388779406
 20
274.1952361754777
 30
0.0
  0
POINT
  5
487C
330
3FCB
100
AcDbEntity
  8
DEFPOINTS
 62
     0
100
AcDbPoint
 10
648.8042490636701
 20
183.6962392888698
 30
0.0
  0
POINT
  5
487D
330
3FCB
100
AcDbEntity
  8
DEFPOINTS
 62
     0
100
AcDbPoint
 10
742.3716046470385
 20
183.6962392888698
 30
0.0
  0
ENDBLK
  5
3FD6
330
3FCB
100
AcDbEntity
  8
0
100
AcDbBlockEnd
  0
BLOCK
  5
3FE1
330
3FD7
100
AcDbEntity
  8
0
100
AcDbBlockBegin
  2
*D13
 70
     1
 10
0.0
 20
0.0
 30
0.0
  3
*D13
  1

  0
LINE
  5
487E
330
3FD7
100
AcDbEntity
  8
SUNPOU
100
AcDbLine
 10
571.5736364045382
 20
435.21784532684
 30
0.0
 11
543.0020240428789
 21
435.21784532684
 31
0.0
  0
LINE
  5
487F
330
3FD7
100
AcDbEntity
  8
SUNPOU
100
AcDbLine
 10
570.7344913512939
 20
411.21784532684
 30
0.0
 11
543.0020240428789
 21
411.21784532684
 31
0.0
  0
LINE
  5
4880
330
3FD7
100
AcDbEntity
  8
SUNPOU
100
AcDbLine
 10
546.0020240428788
 20
428.2178453268399
 30
0.0
 11
546.0020240428788
 21
418.21784532684
 31
0.0
  0
INSERT
  5
4881
330
3FD7
100
AcDbEntity
  8
SUNPOU
100
AcDbBlockReference
  2
_OPEN
 10
546.0020240428788
 20
435.21784532684
 30
0.0
 41
7.0
 42
7.0
 43
7.0
 50
90.0
  0
INSERT
  5
4882
330
3FD7
100
AcDbEntity
  8
SUNPOU
100
AcDbBlockReference
  2
_OPEN
 10
546.0020240428788
 20
411.21784532684
 30
0.0
 41
7.0
 42
7.0
 43
7.0
 50
270.0
  0
MTEXT
  5
4883
330
3FD7
100
AcDbEntity
  8
SUNPOU
100
AcDbMText
 10
541.0020240428788
 20
423.21784532684
 30
0.0
 40
6.0
 41
0.0
 71
     5
 72
     1
  1
\A1;\U+203B24
 11
0.0000000000000001
 21
1.0
 31
0.0
1001
ACAD
1000
MTEXTBEGIN
1070
    73
1070
     1
1070
    44
1040
1.0
1070
    74
1070
     0
1000
MTEXTEND
1000
MTEXTBEGIN
1070
    73
1070
     1
1070
    44
1040
1.0
1070
    74
1070
     0
1000
MTEXTEND
1000
MTEXTBEGIN
1070
    73
1070
     1
1070
    44
1040
1.0
1070
    74
1070
     0
1000
MTEXTEND
  0
POINT
  5
4884
330
3FD7
100
AcDbEntity
  8
DEFPOINTS
 62
     0
100
AcDbPoint
 10
577.5736364045383
 20
435.21784532684
 30
0.0
  0
POINT
  5
4885
330
3FD7
100
AcDbEntity
  8
DEFPOINTS
 62
     0
100
AcDbPoint
 10
576.7344913512938
 20
411.21784532684
 30
0.0
  0
POINT
  5
4886
330
3FD7
100
AcDbEntity
  8
DEFPOINTS
 62
     0
100
AcDbPoint
 10
546.0020240428788
 20
411.21784532684
 30
0.0
  0
ENDBLK
  5
3FE2
330
3FD7
100
AcDbEntity
  8
0
100
AcDbBlockEnd
  0
BLOCK
  5
3FED
330
3FE3
100
AcDbEntity
  8
0
100
AcDbBlockBegin
  2
*D14
 70
     1
 10
0.0
 20
0.0
 30
0.0
  3
*D14
  1

  0
LINE
  5
4887
330
3FE3
100
AcDbEntity
  8
SUNPOU
100
AcDbLine
 10
571.5736364045382
 20
435.2178453268404
 30
0.0
 11
526.133716506732
 21
435.2178453268404
 31
0.0
  0
LINE
  5
4888
330
3FE3
100
AcDbEntity
  8
SUNPOU
100
AcDbLine
 10
571.9980281613962
 20
405.2178453268399
 30
0.0
 11
526.133716506732
 21
405.2178453268399
 31
0.0
  0
LINE
  5
4889
330
3FE3
100
AcDbEntity
  8
SUNPOU
100
AcDbLine
 10
529.1337165067321
 20
428.2178453268404
 30
0.0
 11
529.1337165067321
 21
412.2178453268398
 31
0.0
  0
INSERT
  5
488A
330
3FE3
100
AcDbEntity
  8
SUNPOU
100
AcDbBlockReference
  2
_OPEN
 10
529.1337165067321
 20
435.2178453268404
 30
0.0
 41
7.0
 42
7.0
 43
7.0
 50
90.0
  0
INSERT
  5
488B
330
3FE3
100
AcDbEntity
  8
SUNPOU
100
AcDbBlockReference
  2
_OPEN
 10
529.1337165067321
 20
405.2178453268399
 30
0.0
 41
7.0
 42
7.0
 43
7.0
 50
270.0
  0
MTEXT
  5
488C
330
3FE3
100
AcDbEntity
  8
SUNPOU
100
AcDbMText
 10
524.1337165067319
 20
420.2178453268401
 30
0.0
 40
6.0
 41
0.0
 71
     5
 72
     1
  1
\A1;30
 11
0.0000000000000001
 21
1.0
 31
0.0
1001
ACAD
1000
MTEXTBEGIN
1070
    73
1070
     1
1070
    44
1040
1.0
1070
    74
1070
     0
1000
MTEXTEND
1000
MTEXTBEGIN
1070
    73
1070
     1
1070
    44
1040
1.0
1070
    74
1070
     0
1000
MTEXTEND
1000
MTEXTBEGIN
1070
    73
1070
     1
1070
    44
1040
1.0
1070
    74
1070
     0
1000
MTEXTEND
  0
POINT
  5
488D
330
3FE3
100
AcDbEntity
  8
DEFPOINTS
 62
     0
100
AcDbPoint
 10
577.5736364045383
 20
435.2178453268404
 30
0.0
  0
POINT
  5
488E
330
3FE3
100
AcDbEntity
  8
DEFPOINTS
 62
     0
100
AcDbPoint
 10
577.9980281613963
 20
405.2178453268399
 30
0.0
  0
POINT
  5
488F
330
3FE3
100
AcDbEntity
  8
DEFPOINTS
 62
     0
100
AcDbPoint
 10
529.1337165067321
 20
405.2178453268399
 30
0.0
  0
ENDBLK
  5
3FEE
330
3FE3
100
AcDbEntity
  8
0
100
AcDbBlockEnd
  0
BLOCK
  5
420D
330
4079
100
AcDbEntity
  8
0
100
AcDbBlockBegin
  2
*X15
 70
     1
 10
0.0
 20
0.0
 30
0.0
  3
*X15
  1

  0
LINE
  5
407A
330
4079
100
AcDbEntity
  8
0
 62
     0
100
AcDbLine
 10
69.04221216833718
 20
22.60416893857376
 30
0.0
 11
68.39638123862227
 21
23.24999986828874
 31
0.0
  0
LINE
  5
407B
330
4079
100
AcDbEntity
  8
0
 62
     0
100
AcDbLine
 10
69.04221216833718
 20
21.70614332646687
 30
0.0
 11
67.49835562651532
 21
23.24999986828874
 31
0.0
  0
LINE
  5
407C
330
4079
100
AcDbEntity
  8
0
 62
     0
100
AcDbLine
 10
69.04221216833713
 20
20.80811771435992
 30
0.0
 11
66.62107822232218
 21
23.22925166037486
 31
0.0
  0
LINE
  5
407D
330
4079
100
AcDbEntity
  8
0
 62
     0
100
AcDbLine
 10
69.04221216833718
 20
19.91009210225309
 30
0.0
 11
66.24221216833712
 21
22.71009210225309
 31
0.0
  0
LINE
  5
407E
330
4079
100
AcDbEntity
  8
0
 62
     0
100
AcDbLine
 10
69.04221216833718
 20
19.01206649014613
 30
0.0
 11
66.24221216833712
 21
21.8120664901462
 31
0.0
  0
LINE
  5
407F
330
4079
100
AcDbEntity
  8
0
 62
     0
100
AcDbLine
 10
69.04221216833713
 20
18.11404087803919
 30
0.0
 11
66.24221216833706
 21
20.91404087803926
 31
0.0
  0
LINE
  5
4080
330
4079
100
AcDbEntity
  8
0
 62
     0
100
AcDbLine
 10
64.14221216833709
 20
22.11601526593239
 30
0.0
 11
63.0082275659808
 21
23.24999986828874
 31
0.0
  0
LINE
  5
4081
330
4079
100
AcDbEntity
  8
0
 62
     0
100
AcDbLine
 10
69.04221216833718
 20
17.21601526593235
 30
0.0
 11
66.24221216833712
 21
20.01601526593242
 31
0.0
  0
LINE
  5
4082
330
4079
100
AcDbEntity
  8
0
 62
     0
100
AcDbLine
 10
64.14221216833709
 20
21.21798965382549
 30
0.0
 11
62.11020195387385
 21
23.24999986828868
 31
0.0
  0
LINE
  5
4083
330
4079
100
AcDbEntity
  8
0
 62
     0
100
AcDbLine
 10
69.04221216833713
 20
16.3179896538254
 30
0.0
 11
66.24221216833712
 21
19.11798965382547
 31
0.0
  0
LINE
  5
4084
330
4079
100
AcDbEntity
  8
0
 62
     0
100
AcDbLine
 10
64.14221216833709
 20
20.31996404171855
 30
0.0
 11
61.43670120320002
 21
23.02547500685562
 31
0.0
  0
LINE
  5
4085
330
4079
100
AcDbEntity
  8
0
 62
     0
100
AcDbLine
 10
69.04221216833713
 20
15.41996404171851
 30
0.0
 11
66.24221216833706
 21
18.21996404171852
 31
0.0
  0
LINE
  5
4086
330
4079
100
AcDbEntity
  8
0
 62
     0
100
AcDbLine
 10
64.14221216833721
 20
19.42193842961154
 30
0.0
 11
61.34221216833703
 21
22.22193842961166
 31
0.0
  0
LINE
  5
4087
330
4079
100
AcDbEntity
  8
0
 62
     0
100
AcDbLine
 10
69.04221216833718
 20
14.52193842961156
 30
0.0
 11
66.24221216833712
 21
17.32193842961163
 31
0.0
  0
LINE
  5
4088
330
4079
100
AcDbEntity
  8
0
 62
     0
100
AcDbLine
 10
64.14221216833715
 20
18.52391281750465
 30
0.0
 11
61.34221216833703
 21
21.32391281750483
 31
0.0
  0
LINE
  5
4089
330
4079
100
AcDbEntity
  8
0
 62
     0
100
AcDbLine
 10
69.04221216833713
 20
13.62391281750467
 30
0.0
 11
66.24221216833706
 21
16.42391281750474
 31
0.0
  0
LINE
  5
408A
330
4079
100
AcDbEntity
  8
0
 62
     0
100
AcDbLine
 10
64.14221216833715
 20
17.62588720539776
 30
0.0
 11
61.34221216833703
 21
20.42588720539788
 31
0.0
  0
LINE
  5
408B
330
4079
100
AcDbEntity
  8
0
 62
     0
100
AcDbLine
 10
69.04221216833713
 20
12.72588720539778
 30
0.0
 11
66.24221216833706
 21
15.52588720539785
 31
0.0
  0
LINE
  5
408C
330
4079
100
AcDbEntity
  8
0
 62
     0
100
AcDbLine
 10
64.14221216833709
 20
16.72786159329081
 30
0.0
 11
61.34221216833697
 21
19.52786159329093
 31
0.0
  0
LINE
  5
408D
330
4079
100
AcDbEntity
  8
0
 62
     0
100
AcDbLine
 10
69.04221216833708
 20
11.82786159329083
 30
0.0
 11
66.24221216833706
 21
14.6278615932909
 31
0.0
  0
LINE
  5
408E
330
4079
100
AcDbEntity
  8
0
 62
     0
100
AcDbLine
 10
64.14221216833715
 20
15.82983598118397
 30
0.0
 11
61.34221216833703
 21
18.6298359811841
 31
0.0
  0
LINE
  5
408F
330
4079
100
AcDbEntity
  8
0
 62
     0
100
AcDbLine
 10
57.84221216833708
 20
22.12983598118404
 30
0.0
 11
56.72204828123245
 21
23.24999986828868
 31
0.0
  0
LINE
  5
4090
330
4079
100
AcDbEntity
  8
0
 62
     0
100
AcDbLine
 10
69.04221216833713
 20
10.92983598118399
 30
0.0
 11
66.24221216833706
 21
13.72983598118401
 31
0.0
  0
LINE
  5
4091
330
4079
100
AcDbEntity
  8
0
 62
     0
100
AcDbLine
 10
64.14221216833715
 20
14.93181036907702
 30
0.0
 11
61.34221216833697
 21
17.73181036907715
 31
0.0
  0
LINE
  5
4092
330
4079
100
AcDbEntity
  8
0
 62
     0
100
AcDbLine
 10
57.84221216833703
 20
21.23181036907709
 30
0.0
 11
55.82402266912549
 21
23.24999986828868
 31
0.0
  0
LINE
  5
4093
330
4079
100
AcDbEntity
  8
0
 62
     0
100
AcDbLine
 10
69.04221216833713
 20
10.03181036907704
 30
0.0
 11
66.24221216833706
 21
12.83181036907711
 31
0.0
  0
LINE
  5
4094
330
4079
100
AcDbEntity
  8
0
 62
     0
100
AcDbLine
 10
64.14221216833709
 20
14.03378475697013
 30
0.0
 11
61.34221216833703
 21
16.83378475697014
 31
0.0
  0
LINE
  5
4095
330
4079
100
AcDbEntity
  8
0
 62
     0
100
AcDbLine
 10
57.84221216833703
 20
20.3337847569702
 30
0.0
 11
55.14244944501303
 21
23.0335474802942
 31
0.0
  0
LINE
  5
4096
330
4079
100
AcDbEntity
  8
0
 62
     0
100
AcDbLine
 10
69.04221216833708
 20
9.133784756970158
 30
0.0
 11
66.242212168337
 21
11.93378475697016
 31
0.0
  0
LINE
  5
4097
330
4079
100
AcDbEntity
  8
0
 62
     0
100
AcDbLine
 10
64.14221216833715
 20
13.13575914486318
 30
0.0
 11
61.34221216833708
 21
15.93575914486325
 31
0.0
  0
LINE
  5
4098
330
4079
100
AcDbEntity
  8
0
 62
     0
100
AcDbLine
 10
57.84221216833708
 20
19.43575914486325
 30
0.0
 11
55.04221216833707
 21
22.23575914486326
 31
0.0
  0
LINE
  5
4099
330
4079
100
AcDbEntity
  8
0
 62
     0
100
AcDbLine
 10
69.04221216833713
 20
8.235759144863209
 30
0.0
 11
66.24221216833706
 21
11.03575914486327
 31
0.0
  0
LINE
  5
409A
330
4079
100
AcDbEntity
  8
0
 62
     0
100
AcDbLine
 10
64.14221216833709
 20
12.23773353275629
 30
0.0
 11
61.34221216833708
 21
15.03773353275636
 31
0.0
  0
LINE
  5
409B
330
4079
100
AcDbEntity
  8
0
 62
     0
100
AcDbLine
 10
57.84221216833714
 20
18.5377335327563
 30
0.0
 11
55.04221216833713
 21
21.33773353275632
 31
0.0
  0
LINE
  5
409C
330
4079
100
AcDbEntity
  8
0
 62
     0
100
AcDbLine
 10
68.97024681344731
 20
7.409698887646129
 30
0.0
 11
66.24221216833706
 21
10.13773353275638
 31
0.0
  0
LINE
  5
409D
330
4079
100
AcDbEntity
  8
0
 62
     0
100
AcDbLine
 10
64.14221216833715
 20
11.33970792064928
 30
0.0
 11
61.34221216833703
 21
14.13970792064941
 31
0.0
  0
LINE
  5
409E
330
4079
100
AcDbEntity
  8
0
 62
     0
100
AcDbLine
 10
57.84221216833708
 20
17.63970792064941
 30
0.0
 11
55.04221216833713
 21
20.43970792064937
 31
0.0
  0
LINE
  5
409F
330
4079
100
AcDbEntity
  8
0
 62
     0
100
AcDbLine
 10
68.33192022069784
 20
7.149999868288659
 30
0.0
 11
66.242212168337
 21
9.239707920649493
 31
0.0
  0
LINE
  5
40A0
330
4079
100
AcDbEntity
  8
0
 62
     0
100
AcDbLine
 10
57.84221216833708
 20
16.74168230854246
 30
0.0
 11
55.04221216833707
 21
19.54168230854241
 31
0.0
  0
LINE
  5
40A1
330
4079
100
AcDbEntity
  8
0
 62
     0
100
AcDbLine
 10
64.14221216833715
 20
10.44168230854239
 30
0.0
 11
61.34221216833703
 21
13.24168230854252
 31
0.0
  0
LINE
  5
40A2
330
4079
100
AcDbEntity
  8
0
 62
     0
100
AcDbLine
 10
52.41721216833707
 20
22.16668230854247
 30
0.0
 11
51.33389460859075
 21
23.24999986828874
 31
0.0
  0
LINE
  5
40A3
330
4079
100
AcDbEntity
  8
0
 62
     0
100
AcDbLine
 10
67.43389460859095
 20
7.149999868288546
 30
0.0
 11
66.242212168337
 21
8.341682308542544
 31
0.0
  0
LINE
  5
40A4
330
4079
100
AcDbEntity
  8
0
 62
     0
100
AcDbLine
 10
57.84221216833708
 20
15.84365669643557
 30
0.0
 11
55.04221216833713
 21
18.64365669643558
 31
0.0
  0
LINE
  5
40A5
330
4079
100
AcDbEntity
  8
0
 62
     0
100
AcDbLine
 10
52.41721216833707
 20
21.26865669643558
 30
0.0
 11
50.43586899648392
 21
23.24999986828879
 31
0.0
  0
LINE
  5
40A6
330
4079
100
AcDbEntity
  8
0
 62
     0
100
AcDbLine
 10
64.11625386769157
 20
9.569614997081146
 30
0.0
 11
61.34221216833703
 21
12.34365669643563
 31
0.0
  0
LINE
  5
40A7
330
4079
100
AcDbEntity
  8
0
 62
     0
100
AcDbLine
 10
57.84221216833708
 20
14.94563108432868
 30
0.0
 11
55.04221216833713
 21
17.74563108432863
 31
0.0
  0
LINE
  5
40A8
330
4079
100
AcDbEntity
  8
0
 62
     0
100
AcDbLine
 10
52.22163162222324
 20
20.56621163044252
 30
0.0
 11
49.53784338437708
 21
23.24999986828868
 31
0.0
  0
LINE
  5
40A9
330
4079
100
AcDbEntity
  8
0
 62
     0
100
AcDbLine
 10
63.92326857243432
 20
8.864574680231385
 30
0.0
 11
61.34221216833703
 21
11.44563108432873
 31
0.0
  0
LINE
  5
40AA
330
4079
100
AcDbEntity
  8
0
 62
     0
100
AcDbLine
 10
57.84221216833708
 20
14.04760547222173
 30
0.0
 11
55.04221216833707
 21
16.84760547222174
 31
0.0
  0
LINE
  5
40AB
330
4079
100
AcDbEntity
  8
0
 62
     0
100
AcDbLine
 10
51.43981777227009
 20
20.44999986828867
 30
0.0
 11
48.63981777227007
 21
23.24999986828874
 31
0.0
  0
LINE
  5
40AC
330
4079
100
AcDbEntity
  8
0
 62
     0
100
AcDbLine
 10
63.59823669651075
 20
8.291580944048007
 30
0.0
 11
61.27069642917752
 21
10.61912121138129
 31
0.0
  0
LINE
  5
40AD
330
4079
100
AcDbEntity
  8
0
 62
     0
100
AcDbLine
 10
57.84221216833708
 20
13.14957986011489
 30
0.0
 11
55.04221216833713
 21
15.94957986011485
 31
0.0
  0
LINE
  5
40AE
330
4079
100
AcDbEntity
  8
0
 62
     0
100
AcDbLine
 10
50.54179216016326
 20
20.44999986828873
 30
0.0
 11
47.80422543098587
 21
23.18756659746611
 31
0.0
  0
LINE
  5
40AF
330
4079
100
AcDbEntity
  8
0
 62
     0
100
AcDbLine
 10
63.16619489918571
 20
7.825597129266213
 30
0.0
 11
60.86911079071001
 21
10.12268123774191
 31
0.0
  0
LINE
  5
40B0
330
4079
100
AcDbEntity
  8
0
 62
     0
100
AcDbLine
 10
57.84221216833708
 20
12.25155424800794
 30
0.0
 11
55.04221216833707
 21
15.0515542480079
 31
0.0
  0
LINE
  5
40B1
330
4079
100
AcDbEntity
  8
0
 62
     0
100
AcDbLine
 10
49.6437665480563
 20
20.44999986828873
 30
0.0
 11
47.13958500645247
 21
22.95418140989249
 31
0.0
  0
LINE
  5
40B2
330
4079
100
AcDbEntity
  8
0
 62
     0
100
AcDbLine
 10
62.63003255425968
 20
7.463733862085348
 30
0.0
 11
60.1437665480563
 21
9.949999868288671
 31
0.0
  0
LINE
  5
40B3
330
4079
100
AcDbEntity
  8
0
 62
     0
100
AcDbLine
 10
57.84221216833703
 20
11.353528635901
 30
0.0
 11
55.04221216833713
 21
14.15352863590089
 31
0.0
  0
LINE
  5
40B4
330
4079
100
AcDbEntity
  8
0
 62
     0
100
AcDbLine
 10
48.7675307639675
 20
20.42821004027052
 30
0.0
 11
46.59698406924229
 21
22.59875673499573
 31
0.0
  0
LINE
  5
40B5
330
4079
100
AcDbEntity
  8
0
 62
     0
100
AcDbLine
 10
61.97361999434838
 20
7.222120809889702
 30
0.0
 11
59.24574093594941
 21
9.949999868288671
 31
0.0
  0
LINE
  5
40B6
330
4079
100
AcDbEntity
  8
0
 62
     0
100
AcDbLine
 10
48.39221216833715
 20
19.90550302379392
 30
0.0
 11
46.15887201019774
 21
22.13884318193334
 31
0.0
  0
LINE
  5
40B7
330
4079
100
AcDbEntity
  8
0
 62
     0
100
AcDbLine
 10
61.14771532384253
 20
7.149999868288603
 30
0.0
 11
55.04221216833713
 21
13.255503023794
 31
0.0
  0
LINE
  5
40B8
330
4079
100
AcDbEntity
  8
0
 62
     0
100
AcDbLine
 10
48.3922121683372
 20
19.00747741168709
 30
0.0
 11
45.82710109784471
 21
21.57258848217958
 31
0.0
  0
LINE
  5
40B9
330
4079
100
AcDbEntity
  8
0
 62
     0
100
AcDbLine
 10
60.24968971173564
 20
7.149999868288603
 30
0.0
 11
55.04221216833719
 21
12.35747741168711
 31
0.0
  0
LINE
  5
40BA
330
4079
100
AcDbEntity
  8
0
 62
     0
100
AcDbLine
 10
48.59875644944094
 20
17.90290751847641
 30
0.0
 11
45.6249225784806
 21
20.87674138943668
 31
0.0
  0
LINE
  5
40BB
330
4079
100
AcDbEntity
  8
0
 62
     0
100
AcDbLine
 10
59.35166409962874
 20
7.149999868288603
 30
0.0
 11
55.04221216833713
 21
11.45945179958022
 31
0.0
  0
LINE
  5
40BC
330
4079
100
AcDbEntity
  8
0
 62
     0
100
AcDbLine
 10
52.81581587102846
 20
12.78782248478194
 30
0.0
 11
45.59221216833708
 21
20.01142618747326
 31
0.0
  0
LINE
  5
40BD
330
4079
100
AcDbEntity
  8
0
 62
     0
100
AcDbLine
 10
43.492212168337
 20
22.11142618747334
 30
0.0
 11
42.35363848752172
 21
23.24999986828868
 31
0.0
  0
LINE
  5
40BE
330
4079
100
AcDbEntity
  8
0
 62
     0
100
AcDbLine
 10
58.4536384875218
 20
7.149999868288603
 30
0.0
 11
55.04221216833713
 21
10.56142618747327
 31
0.0
  0
LINE
  5
40BF
330
4079
100
AcDbEntity
  8
0
 62
     0
100
AcDbLine
 10
52.94221216833716
 20
11.7634005753664
 30
0.0
 11
45.59221216833714
 21
19.11340057536642
 31
0.0
  0
LINE
  5
40C0
330
4079
100
AcDbEntity
  8
0
 62
     0
100
AcDbLine
 10
43.49221216833711
 20
21.21340057536639
 30
0.0
 11
41.45561287541477
 21
23.24999986828879
 31
0.0
  0
LINE
  5
40C1
330
4079
100
AcDbEntity
  8
0
 62
     0
100
AcDbLine
 10
57.53916499667003
 20
7.166447747033544
 30
0.0
 11
55.05866004708201
 21
9.646952696621553
 31
0.0
  0
LINE
  5
40C2
330
4079
100
AcDbEntity
  8
0
 62
     0
100
AcDbLine
 10
43.49221216833711
 20
20.3153749632595
 30
0.0
 11
40.7848222805618
 21
23.02276485103476
 31
0.0
  0
LINE
  5
40C3
330
4079
100
AcDbEntity
  8
0
 62
     0
100
AcDbLine
 10
52.94221216833711
 20
10.86537496325945
 30
0.0
 11
45.61562283621947
 21
18.19196429537714
 31
0.0
  0
LINE
  5
40C4
330
4079
100
AcDbEntity
  8
0
 62
     0
100
AcDbLine
 10
43.49221216833711
 20
19.41734935115255
 30
0.0
 11
40.6922121683371
 21
22.2173493511525
 31
0.0
  0
LINE
  5
40C5
330
4079
100
AcDbEntity
  8
0
 62
     0
100
AcDbLine
 10
52.94221216833699
 20
9.96734935115262
 30
0.0
 11
45.93374225405949
 21
16.97581926543017
 31
0.0
  0
LINE
  5
40C6
330
4079
100
AcDbEntity
  8
0
 62
     0
100
AcDbLine
 10
43.49221216833711
 20
18.51932373904566
 30
0.0
 11
40.69221216833716
 21
21.31932373904561
 31
0.0
  0
LINE
  5
40C7
330
4079
100
AcDbEntity
  8
0
 62
     0
100
AcDbLine
 10
52.83365035074803
 20
9.177885556634748
 30
0.0
 11
50.13801556170972
 21
11.87352034567305
 31
0.0
  0
LINE
  5
40C8
330
4079
100
AcDbEntity
  8
0
 62
     0
100
AcDbLine
 10
43.49221216833711
 20
17.62129812693876
 30
0.0
 11
40.6922121683371
 21
20.42129812693872
 31
0.0
  0
LINE
  5
40C9
330
4079
100
AcDbEntity
  8
0
 62
     0
100
AcDbLine
 10
38.40072526776009
 20
22.71278502751573
 30
0.0
 11
37.86351042698709
 21
23.24999986828879
 31
0.0
  0
LINE
  5
40CA
330
4079
100
AcDbEntity
  8
0
 62
     0
100
AcDbLine
 10
52.56577464298647
 20
8.547735652289418
 30
0.0
 11
50.14221216833715
 21
10.97129812693873
 31
0.0
  0
LINE
  5
40CB
330
4079
100
AcDbEntity
  8
0
 62
     0
100
AcDbLine
 10
43.49221216833706
 20
16.72327251483181
 30
0.0
 11
40.6922121683371
 21
19.52327251483183
 31
0.0
  0
LINE
  5
40CC
330
4079
100
AcDbEntity
  8
0
 62
     0
100
AcDbLine
 10
38.20179760350749
 20
22.01368707966139
 30
0.0
 11
36.9654848148802
 21
23.24999986828874
 31
0.0
  0
LINE
  5
40CD
330
4079
100
AcDbEntity
  8
0
 62
     0
100
AcDbLine
 10
52.18278784481118
 20
8.032696838357765
 30
0.0
 11
50.04492698545067
 21
10.17055769771826
 31
0.0
  0
LINE
  5
40CE
330
4079
100
AcDbEntity
  8
0
 62
     0
100
AcDbLine
 10
43.49221216833706
 20
15.82524690272492
 30
0.0
 11
40.6922121683371
 21
18.62524690272488
 31
0.0
  0
LINE
  5
40CF
330
4079
100
AcDbEntity
  8
0
 62
     0
100
AcDbLine
 10
37.9862714566018
 20
21.33118761446013
 30
0.0
 11
36.07705589313122
 21
23.24040317793077
 31
0.0
  0
LINE
  5
40D0
330
4079
100
AcDbEntity
  8
0
 62
     0
100
AcDbLine
 10
51.69646887969554
 20
7.620990191366388
 30
0.0
 11
49.36745920277331
 21
9.949999868288671
 31
0.0
  0
LINE
  5
40D1
330
4079
100
AcDbEntity
  8
0
 62
     0
100
AcDbLine
 10
43.49221216833711
 20
14.92722129061803
 30
0.0
 11
40.6922121683371
 21
17.72722129061799
 31
0.0
  0
LINE
  5
40D2
330
4079
100
AcDbEntity
  8
0
 62
     0
100
AcDbLine
 10
37.77074530969628
 20
20.64868814925887
 30
0.0
 11
35.64274530969623
 21
22.77668814925891
 31
0.0
  0
LINE
  5
40D3
330
4079
100
AcDbEntity
  8
0
 62
     0
100
AcDbLine
 10
51.10038493123517
 20
7.319048527719928
 30
0.0
 11
48.46943359066642
 21
9.949999868288728
 31
0.0
  0
LINE
  5
40D4
330
4079
100
AcDbEntity
  8
0
 62
     0
100
AcDbLine
 10
43.49221216833706
 20
14.02919567851114
 30
0.0
 11
40.6922121683371
 21
16.8291956785111
 31
0.0
  0
LINE
  5
40D5
330
4079
100
AcDbEntity
  8
0
 62
     0
100
AcDbLine
 10
37.55521916279042
 20
19.96618868405778
 30
0.0
 11
35.42721916279043
 21
22.09418868405776
 31
0.0
  0
LINE
  5
40D6
330
4079
100
AcDbEntity
  8
0
 62
     0
100
AcDbLine
 10
50.3627122795877
 20
7.158695567260508
 30
0.0
 11
47.57140797855953
 21
9.949999868288671
 31
0.0
  0
LINE
  5
40D7
330
4079
100
AcDbEntity
  8
0
 62
     0
100
AcDbLine
 10
43.49221216833706
 20
13.13117006640419
 30
0.0
 11
40.69221216833705
 21
15.93117006640414
 31
0.0
  0
LINE
  5
40D8
330
4079
100
AcDbEntity
  8
0
 62
     0
100
AcDbLine
 10
37.33969301588484
 20
19.2836892188564
 30
0.0
 11
35.21169301588475
 21
21.41168921885645
 31
0.0
  0
LINE
  5
40D9
330
4079
100
AcDbEntity
  8
0
 62
     0
100
AcDbLine
 10
49.47338236645265
 20
7.149999868288603
 30
0.0
 11
46.67338236645258
 21
9.949999868288671
 31
0.0
  0
LINE
  5
40DA
330
4079
100
AcDbEntity
  8
0
 62
     0
100
AcDbLine
 10
43.49221216833706
 20
12.2331444542973
 30
0.0
 11
40.6922121683371
 21
15.03314445429731
 31
0.0
  0
LINE
  5
40DB
330
4079
100
AcDbEntity
  8
0
 62
     0
100
AcDbLine
 10
37.12416686897927
 20
18.60118975365514
 30
0.0
 11
34.99616686897911
 21
20.72918975365524
 31
0.0
  0
LINE
  5
40DC
330
4079
100
AcDbEntity
  8
0
 62
     0
100
AcDbLine
 10
48.57535675434576
 20
7.149999868288659
 30
0.0
 11
46.14174505704937
 21
9.583611565585044
 31
0.0
  0
LINE
  5
40DD
330
4079
100
AcDbEntity
  8
0
 62
     0
100
AcDbLine
 10
36.90864072207352
 20
17.91869028845394
 30
0.0
 11
34.78064072207348
 21
20.04669028845398
 31
0.0
  0
LINE
  5
40DE
330
4079
100
AcDbEntity
  8
0
 62
     0
100
AcDbLine
 10
43.49221216833706
 20
11.33511884219041
 30
0.0
 11
40.6922121683371
 21
14.13511884219036
 31
0.0
  0
LINE
  5
40DF
330
4079
100
AcDbEntity
  8
0
 62
     0
100
AcDbLine
 10
32.64221216833709
 20
22.18511884219037
 30
0.0
 11
31.57733114223879
 21
23.24999986828862
 31
0.0
  0
LINE
  5
40E0
330
4079
100
AcDbEntity
  8
0
 62
     0
100
AcDbLine
 10
47.67733114223887
 20
7.149999868288603
 30
0.0
 11
46.11721216833712
 21
8.710118842190354
 31
0.0
  0
LINE
  5
40E1
330
4079
100
AcDbEntity
  8
0
 62
     0
100
AcDbLine
 10
36.69311457516784
 20
17.23619082325268
 30
0.0
 11
34.56511457516785
 21
19.36419082325267
 31
0.0
  0
LINE
  5
40E2
330
4079
100
AcDbEntity
  8
0
 62
     0
100
AcDbLine
 10
43.49221216833706
 20
10.43709323008346
 30
0.0
 11
40.69221216833705
 21
13.23709323008347
 31
0.0
  0
LINE
  5
40E3
330
4079
100
AcDbEntity
  8
0
 62
     0
100
AcDbLine
 10
32.64221216833709
 20
21.28709323008342
 30
0.0
 11
30.67930553013189
 21
23.24999986828862
 31
0.0
  0
LINE
  5
40E4
330
4079
100
AcDbEntity
  8
0
 62
     0
100
AcDbLine
 10
46.77930553013186
 20
7.149999868288659
 30
0.0
 11
46.11721216833706
 21
7.812093230083405
 31
0.0
  0
LINE
  5
40E5
330
4079
100
AcDbEntity
  8
0
 62
     0
100
AcDbLine
 10
36.47758842826215
 20
16.55369135805142
 30
0.0
 11
34.34958842826211
 21
18.68169135805146
 31
0.0
  0
LINE
  5
40E6
330
4079
100
AcDbEntity
  8
0
 62
     0
100
AcDbLine
 10
32.64221216833703
 20
20.38906761797647
 30
0.0
 11
29.96676723943943
 21
23.06451254687414
 31
0.0
  0
LINE
  5
40E7
330
4079
100
AcDbEntity
  8
0
 62
     0
100
AcDbLine
 10
43.492212168337
 20
9.53906761797657
 30
0.0
 11
40.69221216833705
 21
12.33906761797652
 31
0.0
  0
LINE
  5
40E8
330
4079
100
AcDbEntity
  8
0
 62
     0
100
AcDbLine
 10
36.26206228135652
 20
15.87119189285022
 30
0.0
 11
34.13406228135653
 21
17.9991918928502
 31
0.0
  0
LINE
  5
40E9
330
4079
100
AcDbEntity
  8
0
 62
     0
100
AcDbLine
 10
32.64221216833709
 20
19.49104200586964
 30
0.0
 11
29.84221216833702
 21
22.29104200586965
 31
0.0
  0
LINE
  5
40EA
330
4079
100
AcDbEntity
  8
0
 62
     0
100
AcDbLine
 10
43.49221216833706
 20
8.641042005869678
 30
0.0
 11
40.69221216833705
 21
11.44104200586963
 31
0.0
  0
LINE
  5
40EB
330
4079
100
AcDbEntity
  8
0
 62
     0
100
AcDbLine
 10
36.05697377196463
 20
15.17825479013515
 30
0.0
 11
33.91853613445078
 21
17.316692427649
 31
0.0
  0
LINE
  5
40EC
330
4079
100
AcDbEntity
  8
0
 62
     0
100
AcDbLine
 10
32.64221216833709
 20
18.59301639376269
 30
0.0
 11
29.84221216833702
 21
21.39301639376276
 31
0.0
  0
LINE
  5
40ED
330
4079
100
AcDbEntity
  8
0
 62
     0
100
AcDbLine
 10
43.492212168337
 20
7.743016393762729
 30
0.0
 11
40.69221216833705
 21
10.54301639376274
 31
0.0
  0
LINE
  5
40EE
330
4079
100
AcDbEntity
  8
0
 62
     0
100
AcDbLine
 10
36.47144713139863
 20
13.8657558185942
 30
0.0
 11
33.62798863876617
 21
16.70921431122667
 31
0.0
  0
LINE
  5
40EF
330
4079
100
AcDbEntity
  8
0
 62
     0
100
AcDbLine
 10
32.64221216833715
 20
17.69499078165569
 30
0.0
 11
29.84221216833697
 21
20.49499078165581
 31
0.0
  0
LINE
  5
40F0
330
4079
100
AcDbEntity
  8
0
 62
     0
100
AcDbLine
 10
43.15316717100467
 20
7.184035778988118
 30
0.0
 11
40.6922121683371
 21
9.644990781655735
 31
0.0
  0
LINE
  5
40F1
330
4079
100
AcDbEntity
  8
0
 62
     0
100
AcDbLine
 10
36.88592049083268
 20
12.55325684705332
 30
0.0
 11
29.84221216833702
 21
19.59696516954898
 31
0.0
  0
LINE
  5
40F2
330
4079
100
AcDbEntity
  8
0
 62
     0
100
AcDbLine
 10
27.39221216833715
 20
22.04696516954885
 30
0.0
 11
26.18917746959738
 21
23.24999986828862
 31
0.0
  0
LINE
  5
40F3
330
4079
100
AcDbEntity
  8
0
 62
     0
100
AcDbLine
 10
42.28917746959734
 20
7.149999868288659
 30
0.0
 11
40.69221216833716
 21
8.746965169548843
 31
0.0
  0
LINE
  5
40F4
330
4079
100
AcDbEntity
  8
0
 62
     0
100
AcDbLine
 10
37.30039385026657
 20
11.24075787551243
 30
0.0
 11
29.84221216833702
 21
18.69893955744203
 31
0.0
  0
LINE
  5
40F5
330
4079
100
AcDbEntity
  8
0
 62
     0
100
AcDbLine
 10
27.39221216833715
 20
21.1489395574419
 30
0.0
 11
25.29115185749037
 21
23.24999986828868
 31
0.0
  0
LINE
  5
40F6
330
4079
100
AcDbEntity
  8
0
 62
     0
100
AcDbLine
 10
41.39115185749034
 20
7.149999868288716
 30
0.0
 11
40.6922121683371
 21
7.848939557441951
 31
0.0
  0
LINE
  5
40F7
330
4079
100
AcDbEntity
  8
0
 62
     0
100
AcDbLine
 10
27.12530547294704
 20
20.51782064072506
 30
0.0
 11
24.42508375473562
 21
23.21804235893643
 31
0.0
  0
LINE
  5
40F8
330
4079
100
AcDbEntity
  8
0
 62
     0
100
AcDbLine
 10
37.71486720970051
 20
9.928258903971595
 30
0.0
 11
29.84221216833708
 21
17.80091394533502
 31
0.0
  0
LINE
  5
40F9
330
4079
100
AcDbEntity
  8
0
 62
     0
100
AcDbLine
 10
32.9797210906787
 20
13.76537941088651
 30
0.0
 11
29.84221216833708
 21
16.90288833322813
 31
0.0
  0
LINE
  5
40FA
330
4079
100
AcDbEntity
  8
0
 62
     0
100
AcDbLine
 10
26.2951006332766
 20
20.44999986828855
 30
0.0
 11
23.68704068514836
 21
23.05805981641686
 31
0.0
  0
LINE
  5
40FB
330
4079
100
AcDbEntity
  8
0
 62
     0
100
AcDbLine
 10
38.12934056913451
 20
8.615759932430705
 30
0.0
 11
34.03703287682663
 21
12.70806762473853
 31
0.0
  0
LINE
  5
40FC
330
4079
100
AcDbEntity
  8
0
 62
     0
100
AcDbLine
 10
32.64221216833715
 20
13.20486272112117
 30
0.0
 11
29.84221216833708
 21
16.00486272112124
 31
0.0
  0
LINE
  5
40FD
330
4079
100
AcDbEntity
  8
0
 62
     0
100
AcDbLine
 10
25.39707502116959
 20
20.44999986828867
 30
0.0
 11
23.04831926931762
 21
22.79875562014063
 31
0.0
  0
LINE
  5
40FE
330
4079
100
AcDbEntity
  8
0
 62
     0
100
AcDbLine
 10
38.36437942684511
 20
7.48269546261315
 30
0.0
 11
34.45150623626057
 21
11.39556865319775
 31
0.0
  0
LINE
  5
40FF
330
4079
100
AcDbEntity
  8
0
 62
     0
100
AcDbLine
 10
32.64221216833709
 20
12.30683710901428
 30
0.0
 11
29.84221216833702
 21
15.10683710901429
 31
0.0
  0
LINE
  5
4100
330
4079
100
AcDbEntity
  8
0
 62
     0
100
AcDbLine
 10
24.55396151862606
 20
20.39508775872531
 30
0.0
 11
22.48957029398309
 21
22.45947898336828
 31
0.0
  0
LINE
  5
4101
330
4079
100
AcDbEntity
  8
0
 62
     0
100
AcDbLine
 10
37.79904940906277
 20
7.149999868288603
 30
0.0
 11
34.86597959569451
 21
10.08306968165686
 31
0.0
  0
LINE
  5
4102
330
4079
100
AcDbEntity
  8
0
 62
     0
100
AcDbLine
 10
32.64221216833709
 20
11.40881149690733
 30
0.0
 11
29.84221216833702
 21
14.2088114969074
 31
0.0
  0
LINE
  5
4103
330
4079
100
AcDbEntity
  8
0
 62
     0
100
AcDbLine
 10
23.98210532578707
 20
20.06891833945735
 30
0.0
 11
22.0019150853713
 21
22.04910857987312
 31
0.0
  0
LINE
  5
4104
330
4079
100
AcDbEntity
  8
0
 62
     0
100
AcDbLine
 10
36.90102379695582
 20
7.149999868288603
 30
0.0
 11
35.28045295512856
 21
8.770570710115862
 31
0.0
  0
LINE
  5
4105
330
4079
100
AcDbEntity
  8
0
 62
     0
100
AcDbLine
 10
27.72764130113483
 20
15.42535675200275
 30
0.0
 11
26.21756905205109
 21
16.9354290010865
 31
0.0
  0
LINE
  5
4106
330
4079
100
AcDbEntity
  8
0
 62
     0
100
AcDbLine
 10
32.64221216833721
 20
10.51078588480038
 30
0.0
 11
29.84221216833708
 21
13.31078588480051
 31
0.0
  0
LINE
  5
4107
330
4079
100
AcDbEntity
  8
0
 62
     0
100
AcDbLine
 10
23.62598375565812
 20
19.52701429747946
 30
0.0
 11
21.58254905936007
 21
21.57044899377751
 31
0.0
  0
LINE
  5
4108
330
4079
100
AcDbEntity
  8
0
 62
     0
100
AcDbLine
 10
35.95266518064431
 20
7.200332872493277
 30
0.0
 11
35.702311009053
 21
7.450687044084588
 31
0.0
  0
LINE
  5
4109
330
4079
100
AcDbEntity
  8
0
 62
     0
100
AcDbLine
 10
27.64112764099292
 20
14.61384480003772
 30
0.0
 11
25.40605710008605
 21
16.84891534094458
 31
0.0
  0
LINE
  5
410A
330
4079
100
AcDbEntity
  8
0
 62
     0
100
AcDbLine
 10
23.54221216833718
 20
18.71276027269345
 30
0.0
 11
21.2336100383984
 21
21.02136240263223
 31
0.0
  0
LINE
  5
410B
330
4079
100
AcDbEntity
  8
0
 62
     0
100
AcDbLine
 10
32.64221216833715
 20
9.612760272693435
 30
0.0
 11
29.84221216833702
 21
12.41276027269361
 31
0.0
  0
LINE
  5
410C
330
4079
100
AcDbEntity
  8
0
 62
     0
100
AcDbLine
 10
27.30927208169487
 20
14.04767474722876
 30
0.0
 11
24.8398870472771
 21
16.51705978164653
 31
0.0
  0
LINE
  5
410D
330
4079
100
AcDbEntity
  8
0
 62
     0
100
AcDbLine
 10
23.54221216833718
 20
17.81473466058651
 30
0.0
 11
20.96303033118823
 21
20.39391649773546
 31
0.0
  0
LINE
  5
410E
330
4079
100
AcDbEntity
  8
0
 62
     0
100
AcDbLine
 10
32.64221216833715
 20
8.714734660586543
 30
0.0
 11
29.84221216833708
 21
11.51473466058661
 31
0.0
  0
LINE
  5
410F
330
4079
100
AcDbEntity
  8
0
 62
     0
100
AcDbLine
 10
23.54221216833718
 20
16.91670904847961
 30
0.0
 11
20.78831645826238
 21
19.67060475855447
 31
0.0
  0
LINE
  5
4110
330
4079
100
AcDbEntity
  8
0
 62
     0
100
AcDbLine
 10
26.80743863955842
 20
13.65148257725843
 30
0.0
 11
24.44369487730677
 21
16.01522633951009
 31
0.0
  0
LINE
  5
4111
330
4079
100
AcDbEntity
  8
0
 62
     0
100
AcDbLine
 10
18.11721216833712
 20
22.34170904847974
 30
0.0
 11
17.20892134852812
 21
23.24999986828874
 31
0.0
  0
LINE
  5
4112
330
4079
100
AcDbEntity
  8
0
 62
     0
100
AcDbLine
 10
32.64221216833721
 20
7.816709048479651
 30
0.0
 11
29.84221216833714
 21
10.61670904847971
 31
0.0
  0
LINE
  5
4113
330
4079
100
AcDbEntity
  8
0
 62
     0
100
AcDbLine
 10
23.54221216833718
 20
16.01868343637272
 30
0.0
 11
20.74221216833711
 21
18.81868343637279
 31
0.0
  0
LINE
  5
4114
330
4079
100
AcDbEntity
  8
0
 62
     0
100
AcDbLine
 10
26.107119197131
 20
13.45377640757891
 30
0.0
 11
24.24598870762725
 21
15.31490689708266
 31
0.0
  0
LINE
  5
4115
330
4079
100
AcDbEntity
  8
0
 62
     0
100
AcDbLine
 10
18.11721216833706
 20
21.44368343637279
 30
0.0
 11
16.31089573642117
 21
23.24999986828868
 31
0.0
  0
LINE
  5
4116
330
4079
100
AcDbEntity
  8
0
 62
     0
100
AcDbLine
 10
32.35430836706649
 20
7.206587237643418
 30
0.0
 11
29.84221216833708
 21
9.718683436372771
 31
0.0
  0
LINE
  5
4117
330
4079
100
AcDbEntity
  8
0
 62
     0
100
AcDbLine
 10
23.54221216833718
 20
15.12065782426577
 30
0.0
 11
20.74221216833711
 21
17.92065782426584
 31
0.0
  0
LINE
  5
4118
330
4079
100
AcDbEntity
  8
0
 62
     0
100
AcDbLine
 10
18.00817819806673
 20
20.65469179453623
 30
0.0
 11
15.41287012431416
 21
23.24999986828874
 31
0.0
  0
LINE
  5
4119
330
4079
100
AcDbEntity
  8
0
 62
     0
100
AcDbLine
 10
31.5128701243143
 20
7.149999868288659
 30
0.0
 11
29.84221216833708
 21
8.820657824265879
 31
0.0
  0
LINE
  5
411A
330
4079
100
AcDbEntity
  8
0
 62
     0
100
AcDbLine
 10
23.54221216833713
 20
14.22263221215888
 30
0.0
 11
20.74221216833706
 21
17.02263221215889
 31
0.0
  0
LINE
  5
411B
330
4079
100
AcDbEntity
  8
0
 62
     0
100
AcDbLine
 10
17.31484451220734
 20
20.44999986828867
 30
0.0
 11
14.51484451220727
 21
23.24999986828874
 31
0.0
  0
LINE
  5
411C
330
4079
100
AcDbEntity
  8
0
 62
     0
100
AcDbLine
 10
30.61484451220735
 20
7.149999868288603
 30
0.0
 11
29.84221216833708
 21
7.92263221215893
 31
0.0
  0
LINE
  5
411D
330
4079
100
AcDbEntity
  8
0
 62
     0
100
AcDbLine
 10
23.54221216833724
 20
13.32460660005193
 30
0.0
 11
20.74221216833711
 21
16.12460660005206
 31
0.0
  0
LINE
  5
411E
330
4079
100
AcDbEntity
  8
0
 62
     0
100
AcDbLine
 10
16.41681890010045
 20
20.44999986828873
 30
0.0
 11
13.6516896279956
 21
23.21512914039357
 31
0.0
  0
LINE
  5
411F
330
4079
100
AcDbEntity
  8
0
 62
     0
100
AcDbLine
 10
27.38960971950018
 20
9.477209048888937
 30
0.0
 11
26.91942134893747
 21
9.947397419451704
 31
0.0
  0
LINE
  5
4120
330
4079
100
AcDbEntity
  8
0
 62
     0
100
AcDbLine
 10
23.54221216833724
 20
12.42658098794498
 30
0.0
 11
20.74221216833711
 21
15.22658098794511
 31
0.0
  0
LINE
  5
4121
330
4079
100
AcDbEntity
  8
0
 62
     0
100
AcDbLine
 10
15.5187932879935
 20
20.44999986828867
 30
0.0
 11
12.95855481951713
 21
23.01023833676509
 31
0.0
  0
LINE
  5
4122
330
4079
100
AcDbEntity
  8
0
 62
     0
100
AcDbLine
 10
27.39221216833721
 20
8.576580987945021
 30
0.0
 11
26.01879328799356
 21
9.949999868288671
 31
0.0
  0
LINE
  5
4123
330
4079
100
AcDbEntity
  8
0
 62
     0
100
AcDbLine
 10
23.54221216833718
 20
11.52855537583803
 30
0.0
 11
20.74221216833717
 21
14.3285553758381
 31
0.0
  0
LINE
  5
4124
330
4079
100
AcDbEntity
  8
0
 62
     0
100
AcDbLine
 10
14.62076767588667
 20
20.44999986828855
 30
0.0
 11
12.39430815966989
 21
22.67645938450533
 31
0.0
  0
LINE
  5
4125
330
4079
100
AcDbEntity
  8
0
 62
     0
100
AcDbLine
 10
27.39221216833715
 20
7.678555375838072
 30
0.0
 11
25.12076767588666
 21
9.949999868288557
 31
0.0
  0
LINE
  5
4126
330
4079
100
AcDbEntity
  8
0
 62
     0
100
AcDbLine
 10
14.11047484827207
 20
20.06226708379637
 30
0.0
 11
11.93621534742914
 21
22.2365265846393
 31
0.0
  0
LINE
  5
4127
330
4079
100
AcDbEntity
  8
0
 62
     0
100
AcDbLine
 10
27.00447938384479
 20
7.168262548223651
 30
0.0
 11
20.74221216833717
 21
13.43052976373127
 31
0.0
  0
LINE
  5
4128
330
4079
100
AcDbEntity
  8
0
 62
     0
100
AcDbLine
 10
14.09221216833714
 20
19.18250415162435
 30
0.0
 11
11.58273414496005
 21
21.69198217500144
 31
0.0
  0
LINE
  5
4129
330
4079
100
AcDbEntity
  8
0
 62
     0
100
AcDbLine
 10
26.12471645167289
 20
7.149999868288603
 30
0.0
 11
20.74221216833717
 21
12.53250415162432
 31
0.0
  0
LINE
  5
412A
330
4079
100
AcDbEntity
  8
0
 62
     0
100
AcDbLine
 10
14.15434787647257
 20
18.22234283138192
 30
0.0
 11
11.35185404266633
 21
21.02483666518821
 31
0.0
  0
LINE
  5
412B
330
4079
100
AcDbEntity
  8
0
 62
     0
100
AcDbLine
 10
25.22669083956589
 20
7.149999868288659
 30
0.0
 11
20.74221216833711
 21
11.63447853951737
 31
0.0
  0
LINE
  5
412C
330
4079
100
AcDbEntity
  8
0
 62
     0
100
AcDbLine
 10
18.4465882595598
 20
13.03207683618785
 30
0.0
 11
11.29221216833718
 21
20.18645292741047
 31
0.0
  0
LINE
  5
412D
330
4079
100
AcDbEntity
  8
0
 62
     0
100
AcDbLine
 10
24.27539314040234
 20
7.203271955345314
 30
0.0
 11
20.79548425539377
 21
10.68318084035388
 31
0.0
  0
LINE
  5
412E
330
4079
100
AcDbEntity
  8
0
 62
     0
100
AcDbLine
 10
18.63848277364502
 20
11.94215670999574
 30
0.0
 11
11.29221216833707
 21
19.28842731530369
 31
0.0
  0
LINE
  5
412F
330
4079
100
AcDbEntity
  8
0
 62
     0
100
AcDbLine
 10
22.90158522780075
 20
7.679054255839957
 30
0.0
 11
21.27126655588836
 21
9.309372927752406
 31
0.0
  0
LINE
  5
4130
330
4079
100
AcDbEntity
  8
0
 62
     0
100
AcDbLine
 10
18.64221216833721
 20
11.0404017031966
 30
0.0
 11
11.29977661575946
 21
18.38283725577429
 31
0.0
  0
LINE
  5
4131
330
4079
100
AcDbEntity
  8
0
 62
     0
100
AcDbLine
 10
18.64221216833709
 20
10.14237609108977
 30
0.0
 11
11.52306737408332
 21
17.26152088534348
 31
0.0
  0
LINE
  5
4132
330
4079
100
AcDbEntity
  8
0
 62
     0
100
AcDbLine
 10
18.56969217220518
 20
9.316870475114853
 30
0.0
 11
15.80630052858612
 21
12.08026211873391
 31
0.0
  0
LINE
  5
4133
330
4079
100
AcDbEntity
  8
0
 62
     0
100
AcDbLine
 10
18.32775423317633
 20
8.660782802036749
 30
0.0
 11
15.84221216833708
 21
11.146324866876
 31
0.0
  0
LINE
  5
4134
330
4079
100
AcDbEntity
  8
0
 62
     0
100
AcDbLine
 10
17.96563498579456
 20
8.12487643731157
 30
0.0
 11
15.8063131360364
 21
10.28419828706972
 31
0.0
  0
LINE
  5
4135
330
4079
100
AcDbEntity
  8
0
 62
     0
100
AcDbLine
 10
17.49940861352769
 20
7.693077197471552
 30
0.0
 11
15.24248594271057
 21
9.949999868288728
 31
0.0
  0
LINE
  5
4136
330
4079
100
AcDbEntity
  8
0
 62
     0
100
AcDbLine
 10
16.92614416579488
 20
7.368316033097471
 30
0.0
 11
14.34446033060362
 21
9.949999868288671
 31
0.0
  0
LINE
  5
4137
330
4079
100
AcDbEntity
  8
0
 62
     0
100
AcDbLine
 10
16.22073157670894
 20
7.17570301007646
 30
0.0
 11
13.44643471849673
 21
9.949999868288671
 31
0.0
  0
LINE
  5
4138
330
4079
100
AcDbEntity
  8
0
 62
     0
100
AcDbLine
 10
15.34840910638979
 20
7.149999868288659
 30
0.0
 11
12.54840910638978
 21
9.949999868288671
 31
0.0
  0
LINE
  5
4139
330
4079
100
AcDbEntity
  8
0
 62
     0
100
AcDbLine
 10
14.45038349428296
 20
7.149999868288603
 30
0.0
 11
11.89705959946508
 21
9.703323763106538
 31
0.0
  0
LINE
  5
413A
330
4079
100
AcDbEntity
  8
0
 62
     0
100
AcDbLine
 10
13.55235788217595
 20
7.149999868288659
 30
0.0
 11
11.81721216833716
 21
8.885145582127449
 31
0.0
  0
LINE
  5
413B
330
4079
100
AcDbEntity
  8
0
 62
     0
100
AcDbLine
 10
12.65433227006911
 20
7.149999868288603
 30
0.0
 11
11.81721216833716
 21
7.987119970020557
 31
0.0
  0
LINE
  5
413C
330
4079
100
AcDbEntity
  8
0
 62
     0
100
AcDbLine
 10
68.63389945300406
 20
7.163131645406167
 30
0.0
 11
69.02908039121985
 21
7.558312583621955
 31
0.0
  0
LINE
  5
413D
330
4079
100
AcDbEntity
  8
0
 62
     0
100
AcDbLine
 10
67.72274206377961
 20
7.149999868288546
 30
0.0
 11
69.0422121683373
 21
8.469469972846241
 31
0.0
  0
LINE
  5
413E
330
4079
100
AcDbEntity
  8
0
 62
     0
100
AcDbLine
 10
66.82471645167272
 20
7.149999868288546
 30
0.0
 11
69.0422121683373
 21
9.367495584953132
 31
0.0
  0
LINE
  5
413F
330
4079
100
AcDbEntity
  8
0
 62
     0
100
AcDbLine
 10
66.27340973158897
 20
7.49671876031175
 30
0.0
 11
69.04221216833724
 21
10.26552119706008
 31
0.0
  0
LINE
  5
4140
330
4079
100
AcDbEntity
  8
0
 62
     0
100
AcDbLine
 10
66.24221216833717
 20
8.363546809166905
 30
0.0
 11
69.04221216833724
 21
11.16354680916691
 31
0.0
  0
LINE
  5
4141
330
4079
100
AcDbEntity
  8
0
 62
     0
100
AcDbLine
 10
66.24221216833723
 20
9.261572421273797
 30
0.0
 11
69.04221216833724
 21
12.06157242127386
 31
0.0
  0
LINE
  5
4142
330
4079
100
AcDbEntity
  8
0
 62
     0
100
AcDbLine
 10
66.24221216833717
 20
10.15959803338074
 30
0.0
 11
69.04221216833724
 21
12.95959803338081
 31
0.0
  0
LINE
  5
4143
330
4079
100
AcDbEntity
  8
0
 62
     0
100
AcDbLine
 10
66.24221216833717
 20
11.05762364548763
 30
0.0
 11
69.04221216833724
 21
13.8576236454877
 31
0.0
  0
LINE
  5
4144
330
4079
100
AcDbEntity
  8
0
 62
     0
100
AcDbLine
 10
62.66877703040245
 20
7.484188507552914
 30
0.0
 11
63.80802352907301
 21
8.62343500622353
 31
0.0
  0
LINE
  5
4145
330
4079
100
AcDbEntity
  8
0
 62
     0
100
AcDbLine
 10
66.24221216833717
 20
11.95564925759452
 30
0.0
 11
69.04221216833724
 21
14.75564925759459
 31
0.0
  0
LINE
  5
4146
330
4079
100
AcDbEntity
  8
0
 62
     0
100
AcDbLine
 10
61.43820886387965
 20
7.151645953137006
 30
0.0
 11
64.14056608348897
 21
9.854003172746274
 31
0.0
  0
LINE
  5
4147
330
4079
100
AcDbEntity
  8
0
 62
     0
100
AcDbLine
 10
66.24221216833717
 20
12.85367486970147
 30
0.0
 11
69.04221216833724
 21
15.65367486970149
 31
0.0
  0
LINE
  5
4148
330
4079
100
AcDbEntity
  8
0
 62
     0
100
AcDbLine
 10
60.53853716692424
 20
7.149999868288546
 30
0.0
 11
64.14221216833727
 21
10.75367486970151
 31
0.0
  0
LINE
  5
4149
330
4079
100
AcDbEntity
  8
0
 62
     0
100
AcDbLine
 10
66.24221216833717
 20
13.75170048180837
 30
0.0
 11
69.04221216833718
 21
16.55170048180844
 31
0.0
  0
LINE
  5
414A
330
4079
100
AcDbEntity
  8
0
 62
     0
100
AcDbLine
 10
59.64051155481735
 20
7.149999868288546
 30
0.0
 11
64.14221216833721
 21
11.65170048180846
 31
0.0
  0
LINE
  5
414B
330
4079
100
AcDbEntity
  8
0
 62
     0
100
AcDbLine
 10
66.24221216833729
 20
14.64972609391532
 30
0.0
 11
69.04221216833724
 21
17.44972609391533
 31
0.0
  0
LINE
  5
414C
330
4079
100
AcDbEntity
  8
0
 62
     0
100
AcDbLine
 10
58.74248594271051
 20
7.149999868288603
 30
0.0
 11
64.14221216833727
 21
12.54972609391535
 31
0.0
  0
LINE
  5
414D
330
4079
100
AcDbEntity
  8
0
 62
     0
100
AcDbLine
 10
61.23762096625615
 20
10.54316050394118
 30
0.0
 11
64.14221216833727
 21
13.44775170602224
 31
0.0
  0
LINE
  5
414E
330
4079
100
AcDbEntity
  8
0
 62
     0
100
AcDbLine
 10
66.24221216833723
 20
15.54775170602226
 30
0.0
 11
69.04221216833724
 21
18.34775170602222
 31
0.0
  0
LINE
  5
414F
330
4079
100
AcDbEntity
  8
0
 62
     0
100
AcDbLine
 10
57.84446033060351
 20
7.149999868288546
 30
0.0
 11
60.74905153268463
 21
10.05459107036961
 31
0.0
  0
LINE
  5
4150
330
4079
100
AcDbEntity
  8
0
 62
     0
100
AcDbLine
 10
61.34221216833714
 20
11.54577731812912
 30
0.0
 11
64.14221216833721
 21
14.34577731812919
 31
0.0
  0
LINE
  5
4151
330
4079
100
AcDbEntity
  8
0
 62
     0
100
AcDbLine
 10
66.24221216833723
 20
16.44577731812915
 30
0.0
 11
69.04221216833718
 21
19.24577731812917
 31
0.0
  0
LINE
  5
4152
330
4079
100
AcDbEntity
  8
0
 62
     0
100
AcDbLine
 10
57.05838446987383
 20
7.261949619665756
 30
0.0
 11
59.74643471849669
 21
9.949999868288614
 31
0.0
  0
LINE
  5
4153
330
4079
100
AcDbEntity
  8
0
 62
     0
100
AcDbLine
 10
61.3422121683372
 20
12.44380293023613
 30
0.0
 11
64.14221216833721
 21
15.24380293023608
 31
0.0
  0
LINE
  5
4154
330
4079
100
AcDbEntity
  8
0
 62
     0
100
AcDbLine
 10
66.24221216833717
 20
17.3438029302361
 30
0.0
 11
69.04221216833718
 21
20.14380293023606
 31
0.0
  0
LINE
  5
4155
330
4079
100
AcDbEntity
  8
0
 62
     0
100
AcDbLine
 10
56.43039760266367
 20
7.531988364562607
 30
0.0
 11
58.84928689203412
 21
9.950877653933048
 31
0.0
  0
LINE
  5
4156
330
4079
100
AcDbEntity
  8
0
 62
     0
100
AcDbLine
 10
61.34221216833726
 20
13.34182854234302
 30
0.0
 11
64.14221216833721
 21
16.14182854234297
 31
0.0
  0
LINE
  5
4157
330
4079
100
AcDbEntity
  8
0
 62
     0
100
AcDbLine
 10
66.24221216833723
 20
18.241828542343
 30
0.0
 11
69.04221216833718
 21
21.04182854234295
 31
0.0
  0
LINE
  5
4158
330
4079
100
AcDbEntity
  8
0
 62
     0
100
AcDbLine
 10
55.91713772129861
 20
7.916754095304327
 30
0.0
 11
58.20580830332142
 21
10.20542467732718
 31
0.0
  0
LINE
  5
4159
330
4079
100
AcDbEntity
  8
0
 62
     0
100
AcDbLine
 10
61.34221216833726
 20
14.23985415444991
 30
0.0
 11
64.14221216833721
 21
17.03985415444992
 31
0.0
  0
LINE
  5
415A
330
4079
100
AcDbEntity
  8
0
 62
     0
100
AcDbLine
 10
66.24221216833723
 20
19.13985415444989
 30
0.0
 11
69.04221216833718
 21
21.9398541544499
 31
0.0
  0
LINE
  5
415B
330
4079
100
AcDbEntity
  8
0
 62
     0
100
AcDbLine
 10
55.50717354607349
 20
8.404815532186148
 30
0.0
 11
57.868570024912
 21
10.76621201102472
 31
0.0
  0
LINE
  5
415C
330
4079
100
AcDbEntity
  8
0
 62
     0
100
AcDbLine
 10
61.3422121683372
 20
15.13787976655686
 30
0.0
 11
64.14221216833727
 21
17.93787976655693
 31
0.0
  0
LINE
  5
415D
330
4079
100
AcDbEntity
  8
0
 62
     0
100
AcDbLine
 10
66.24221216833717
 20
20.03787976655684
 30
0.0
 11
69.03206301478673
 21
22.82773061300639
 31
0.0
  0
LINE
  5
415E
330
4079
100
AcDbEntity
  8
0
 62
     0
100
AcDbLine
 10
55.20724866763948
 20
9.002916265859141
 30
0.0
 11
57.8422121683372
 21
11.6378797665568
 31
0.0
  0
LINE
  5
415F
330
4079
100
AcDbEntity
  8
0
 62
     0
100
AcDbLine
 10
61.34221216833726
 20
16.03590537866369
 30
0.0
 11
64.14221216833732
 21
18.83590537866376
 31
0.0
  0
LINE
  5
4160
330
4079
100
AcDbEntity
  8
0
 62
     0
100
AcDbLine
 10
66.24221216833729
 20
20.93590537866379
 30
0.0
 11
68.55494866970724
 21
23.24864188003374
 31
0.0
  0
LINE
  5
4161
330
4079
100
AcDbEntity
  8
0
 62
     0
100
AcDbLine
 10
55.04983513268303
 20
9.743528343009529
 30
0.0
 11
57.8422121683372
 21
12.5359053786637
 31
0.0
  0
LINE
  5
4162
330
4079
100
AcDbEntity
  8
0
 62
     0
100
AcDbLine
 10
61.3422121683372
 20
16.93393099077064
 30
0.0
 11
64.14221216833727
 21
19.73393099077071
 31
0.0
  0
LINE
  5
4163
330
4079
100
AcDbEntity
  8
0
 62
     0
100
AcDbLine
 10
66.24221216833729
 20
21.83393099077068
 30
0.0
 11
67.65828104585517
 21
23.24999986828862
 31
0.0
  0
LINE
  5
4164
330
4079
100
AcDbEntity
  8
0
 62
     0
100
AcDbLine
 10
55.04221216833724
 20
10.63393099077063
 30
0.0
 11
57.84221216833725
 21
13.4339309907707
 31
0.0
  0
LINE
  5
4165
330
4079
100
AcDbEntity
  8
0
 62
     0
100
AcDbLine
 10
61.3422121683372
 20
17.83195660287759
 30
0.0
 11
64.14221216833727
 21
20.6319566028776
 31
0.0
  0
LINE
  5
4166
330
4079
100
AcDbEntity
  8
0
 62
     0
100
AcDbLine
 10
55.04221216833719
 20
11.53195660287758
 30
0.0
 11
57.84221216833725
 21
14.33195660287765
 31
0.0
  0
LINE
  5
4167
330
4079
100
AcDbEntity
  8
0
 62
     0
100
AcDbLine
 10
66.24225888308462
 20
22.73200331762501
 30
0.0
 11
66.7602087190009
 21
23.24995315354124
 31
0.0
  0
LINE
  5
4168
330
4079
100
AcDbEntity
  8
0
 62
     0
100
AcDbLine
 10
50.72065653762519
 20
7.21040097216553
 30
0.0
 11
52.88181106446035
 21
9.371555499000749
 31
0.0
  0
LINE
  5
4169
330
4079
100
AcDbEntity
  8
0
 62
     0
100
AcDbLine
 10
55.04221216833719
 20
12.42998221498447
 30
0.0
 11
57.84221216833725
 21
15.22998221498454
 31
0.0
  0
LINE
  5
416A
330
4079
100
AcDbEntity
  8
0
 62
     0
100
AcDbLine
 10
61.3422121683372
 20
18.72998221498448
 30
0.0
 11
64.14221216833721
 21
21.52998221498455
 31
0.0
  0
LINE
  5
416B
330
4079
100
AcDbEntity
  8
0
 62
     0
100
AcDbLine
 10
49.76222982164131
 20
7.149999868288659
 30
0.0
 11
52.94221216833716
 21
10.32998221498451
 31
0.0
  0
LINE
  5
416C
330
4079
100
AcDbEntity
  8
0
 62
     0
100
AcDbLine
 10
55.04221216833719
 20
13.32800782709137
 30
0.0
 11
57.84221216833725
 21
16.12800782709143
 31
0.0
  0
LINE
  5
416D
330
4079
100
AcDbEntity
  8
0
 62
     0
100
AcDbLine
 10
61.3422121683372
 20
19.62800782709138
 30
0.0
 11
64.14221216833727
 21
22.42800782709144
 31
0.0
  0
LINE
  5
416E
330
4079
100
AcDbEntity
  8
0
 62
     0
100
AcDbLine
 10
48.86420420953442
 20
7.149999868288603
 30
0.0
 11
52.94221216833722
 21
11.22800782709134
 31
0.0
  0
LINE
  5
416F
330
4079
100
AcDbEntity
  8
0
 62
     0
100
AcDbLine
 10
55.04221216833719
 20
14.22603343919831
 30
0.0
 11
57.84221216833725
 21
17.02603343919832
 31
0.0
  0
LINE
  5
4170
330
4079
100
AcDbEntity
  8
0
 62
     0
100
AcDbLine
 10
61.3422121683372
 20
20.52603343919827
 30
0.0
 11
63.94847471350312
 21
23.13229598436425
 31
0.0
  0
LINE
  5
4171
330
4079
100
AcDbEntity
  8
0
 62
     0
100
AcDbLine
 10
47.96617859742752
 20
7.149999868288659
 30
0.0
 11
52.92789356792423
 21
12.11171483878536
 31
0.0
  0
LINE
  5
4172
330
4079
100
AcDbEntity
  8
0
 62
     0
100
AcDbLine
 10
55.04221216833724
 20
15.12405905130532
 30
0.0
 11
57.8422121683372
 21
17.92405905130527
 31
0.0
  0
LINE
  5
4173
330
4079
100
AcDbEntity
  8
0
 62
     0
100
AcDbLine
 10
61.34221216833714
 20
21.42405905130522
 30
0.0
 11
63.1681529853206
 21
23.24999986828868
 31
0.0
  0
LINE
  5
4174
330
4079
100
AcDbEntity
  8
0
 62
     0
100
AcDbLine
 10
47.06815298532058
 20
7.149999868288659
 30
0.0
 11
52.79298119729549
 21
12.87482808026351
 31
0.0
  0
LINE
  5
4175
330
4079
100
AcDbEntity
  8
0
 62
     0
100
AcDbLine
 10
55.0422121683373
 20
16.02208466341215
 30
0.0
 11
57.84221216833725
 21
18.82208466341216
 31
0.0
  0
LINE
  5
4176
330
4079
100
AcDbEntity
  8
0
 62
     0
100
AcDbLine
 10
50.14221216833732
 20
11.12208466341218
 30
0.0
 11
52.55239374037694
 21
13.5322662354518
 31
0.0
  0
LINE
  5
4177
330
4079
100
AcDbEntity
  8
0
 62
     0
100
AcDbLine
 10
61.3422121683372
 20
22.32208466341211
 30
0.0
 11
62.27012737321377
 21
23.24999986828868
 31
0.0
  0
LINE
  5
4178
330
4079
100
AcDbEntity
  8
0
 62
     0
100
AcDbLine
 10
46.29838272634481
 20
7.278255221419726
 30
0.0
 11
48.9701273732137
 21
9.949999868288614
 31
0.0
  0
LINE
  5
4179
330
4079
100
AcDbEntity
  8
0
 62
     0
100
AcDbLine
 10
50.12234159320991
 20
12.00023970039171
 30
0.0
 11
52.2288944355164
 21
14.1067925426982
 31
0.0
  0
LINE
  5
417A
330
4079
100
AcDbEntity
  8
0
 62
     0
100
AcDbLine
 10
55.04221216833724
 20
16.9201102755191
 30
0.0
 11
57.8422121683372
 21
19.72011027551906
 31
0.0
  0
LINE
  5
417B
330
4079
100
AcDbEntity
  8
0
 62
     0
100
AcDbLine
 10
46.11721216833723
 20
7.995110275519039
 30
0.0
 11
48.07210176110675
 21
9.949999868288614
 31
0.0
  0
LINE
  5
417C
330
4079
100
AcDbEntity
  8
0
 62
     0
100
AcDbLine
 10
49.84795675607102
 20
12.62388047535984
 30
0.0
 11
51.83302331758858
 21
14.60894703687739
 31
0.0
  0
LINE
  5
417D
330
4079
100
AcDbEntity
  8
0
 62
     0
100
AcDbLine
 10
55.04221216833724
 20
17.818135887626
 30
0.0
 11
57.8422121683372
 21
20.61813588762601
 31
0.0
  0
LINE
  5
417E
330
4079
100
AcDbEntity
  8
0
 62
     0
100
AcDbLine
 10
46.11721216833717
 20
8.893135887625987
 30
0.0
 11
47.17407614899985
 21
9.949999868288671
 31
0.0
  0
LINE
  5
417F
330
4079
100
AcDbEntity
  8
0
 62
     0
100
AcDbLine
 10
55.04221216833724
 20
18.71616149973289
 30
0.0
 11
57.84221216833725
 21
21.51616149973284
 31
0.0
  0
LINE
  5
4180
330
4079
100
AcDbEntity
  8
0
 62
     0
100
AcDbLine
 10
49.40668185895396
 20
13.08063119034954
 30
0.0
 11
51.38658084627627
 21
15.06053017767186
 31
0.0
  0
LINE
  5
4181
330
4079
100
AcDbEntity
  8
0
 62
     0
100
AcDbLine
 10
48.95766905290049
 20
13.52964399640302
 30
0.0
 11
50.93756804022286
 21
15.50954298372545
 31
0.0
  0
LINE
  5
4182
330
4079
100
AcDbEntity
  8
0
 62
     0
100
AcDbLine
 10
55.04221216833724
 20
19.61418711183983
 30
0.0
 11
57.8422121683372
 21
22.41418711183979
 31
0.0
  0
LINE
  5
4183
330
4079
100
AcDbEntity
  8
0
 62
     0
100
AcDbLine
 10
42.578024924786
 20
7.149999868288603
 30
0.0
 11
43.49221216833718
 21
8.064187111839714
 31
0.0
  0
LINE
  5
4184
330
4079
100
AcDbEntity
  8
0
 62
     0
100
AcDbLine
 10
48.50865624684701
 20
13.97865680245649
 30
0.0
 11
50.48855523416938
 21
15.95855578977892
 31
0.0
  0
LINE
  5
4185
330
4079
100
AcDbEntity
  8
0
 62
     0
100
AcDbLine
 10
55.04221216833719
 20
20.51221272394673
 30
0.0
 11
57.65603126023854
 21
23.12603181584802
 31
0.0
  0
LINE
  5
4186
330
4079
100
AcDbEntity
  8
0
 62
     0
100
AcDbLine
 10
41.67999931267906
 20
7.149999868288603
 30
0.0
 11
43.49221216833723
 21
8.96221272394672
 31
0.0
  0
LINE
  5
4187
330
4079
100
AcDbEntity
  8
0
 62
     0
100
AcDbLine
 10
48.05964344079353
 20
14.42766960850997
 30
0.0
 11
50.03954242811591
 21
16.4075685958324
 31
0.0
  0
LINE
  5
4188
330
4079
100
AcDbEntity
  8
0
 62
     0
100
AcDbLine
 10
55.04221216833719
 20
21.41023833605367
 30
0.0
 11
56.88197370057219
 21
23.24999986828868
 31
0.0
  0
LINE
  5
4189
330
4079
100
AcDbEntity
  8
0
 62
     0
100
AcDbLine
 10
40.89358483843414
 20
7.261611006150587
 30
0.0
 11
43.49221216833718
 21
9.860238336053669
 31
0.0
  0
LINE
  5
418A
330
4079
100
AcDbEntity
  8
0
 62
     0
100
AcDbLine
 10
47.61063063474011
 20
14.87668241456339
 30
0.0
 11
49.59052962206249
 21
16.85658140188581
 31
0.0
  0
LINE
  5
418B
330
4079
100
AcDbEntity
  8
0
 62
     0
100
AcDbLine
 10
55.0422121683373
 20
22.30826394816062
 30
0.0
 11
55.9839480884653
 21
23.24999986828862
 31
0.0
  0
LINE
  5
418C
330
4079
100
AcDbEntity
  8
0
 62
     0
100
AcDbLine
 10
40.69221216833722
 20
7.958263948160549
 30
0.0
 11
43.49221216833723
 21
10.7582639481605
 31
0.0
  0
LINE
  5
418D
330
4079
100
AcDbEntity
  8
0
 62
     0
100
AcDbLine
 10
47.16161782868664
 20
15.32569522061686
 30
0.0
 11
49.14151681600902
 21
17.30559420793929
 31
0.0
  0
LINE
  5
418E
330
4079
100
AcDbEntity
  8
0
 62
     0
100
AcDbLine
 10
40.69221216833722
 20
8.856289560267498
 30
0.0
 11
43.49221216833718
 21
11.65628956026745
 31
0.0
  0
LINE
  5
418F
330
4079
100
AcDbEntity
  8
0
 62
     0
100
AcDbLine
 10
46.71463392764531
 20
15.77673693168253
 30
0.0
 11
48.69860746102734
 21
17.7607104650645
 31
0.0
  0
LINE
  5
4190
330
4079
100
AcDbEntity
  8
0
 62
     0
100
AcDbLine
 10
40.69221216833722
 20
9.75431517237439
 30
0.0
 11
43.49221216833718
 21
12.5543151723744
 31
0.0
  0
LINE
  5
4191
330
4079
100
AcDbEntity
  8
0
 62
     0
100
AcDbLine
 10
51.38789686425139
 20
20.44999986828861
 30
0.0
 11
52.41721216833724
 21
21.47931517237441
 31
0.0
  0
LINE
  5
4192
330
4079
100
AcDbEntity
  8
0
 62
     0
100
AcDbLine
 10
38.19955594362699
 20
7.261658947664159
 30
0.0
 11
38.28920830508201
 21
7.351311309119239
 31
0.0
  0
LINE
  5
4193
330
4079
100
AcDbEntity
  8
0
 62
     0
100
AcDbLine
 10
46.31663174882334
 20
16.2767603649674
 30
0.0
 11
48.41626602624194
 21
18.376394642386
 31
0.0
  0
LINE
  5
4194
330
4079
100
AcDbEntity
  8
0
 62
     0
100
AcDbLine
 10
40.69221216833722
 20
10.65234078448128
 30
0.0
 11
43.49221216833723
 21
13.45234078448123
 31
0.0
  0
LINE
  5
4195
330
4079
100
AcDbEntity
  8
0
 62
     0
100
AcDbLine
 10
50.48987125214461
 20
20.44999986828867
 30
0.0
 11
52.41721216833724
 21
22.3773407844813
 31
0.0
  0
LINE
  5
4196
330
4079
100
AcDbEntity
  8
0
 62
     0
100
AcDbLine
 10
37.18987125214454
 20
7.149999868288603
 30
0.0
 11
38.25565034845107
 21
8.215778964595131
 31
0.0
  0
LINE
  5
4197
330
4079
100
AcDbEntity
  8
0
 62
     0
100
AcDbLine
 10
45.99079748442664
 20
16.84895171267766
 30
0.0
 11
48.39221216833732
 21
19.25036639658833
 31
0.0
  0
LINE
  5
4198
330
4079
100
AcDbEntity
  8
0
 62
     0
100
AcDbLine
 10
40.69221216833722
 20
11.55036639658817
 30
0.0
 11
43.49221216833718
 21
14.35036639658818
 31
0.0
  0
LINE
  5
4199
330
4079
100
AcDbEntity
  8
0
 62
     0
100
AcDbLine
 10
49.5918456400376
 20
20.44999986828861
 30
0.0
 11
52.25054323653933
 21
23.10869746479033
 31
0.0
  0
LINE
  5
419A
330
4079
100
AcDbEntity
  8
0
 62
     0
100
AcDbLine
 10
36.29184564003753
 20
7.149999868288546
 30
0.0
 11
38.04012420154538
 21
8.898278429796391
 31
0.0
  0
LINE
  5
419B
330
4079
100
AcDbEntity
  8
0
 62
     0
100
AcDbLine
 10
40.69221216833716
 20
12.44839200869512
 30
0.0
 11
43.49221216833718
 21
15.24839200869507
 31
0.0
  0
LINE
  5
419C
330
4079
100
AcDbEntity
  8
0
 62
     0
100
AcDbLine
 10
45.74741542175655
 20
17.50359526211451
 30
0.0
 11
51.49382002793072
 21
23.24999986828868
 31
0.0
  0
LINE
  5
419D
330
4079
100
AcDbEntity
  8
0
 62
     0
100
AcDbLine
 10
35.69983132938256
 20
7.45601116974052
 30
0.0
 11
37.82459805463969
 21
9.580777894997652
 31
0.0
  0
LINE
  5
419E
330
4079
100
AcDbEntity
  8
0
 62
     0
100
AcDbLine
 10
40.69221216833716
 20
13.34641762080207
 30
0.0
 11
43.49221216833711
 21
16.14641762080202
 31
0.0
  0
LINE
  5
419F
330
4079
100
AcDbEntity
  8
0
 62
     0
100
AcDbLine
 10
45.60870856267086
 20
18.26291401513577
 30
0.0
 11
50.59579441582383
 21
23.24999986828868
 31
0.0
  0
LINE
  5
41A0
330
4079
100
AcDbEntity
  8
0
 62
     0
100
AcDbLine
 10
35.48107190773396
 20
8.13527736019887
 30
0.0
 11
37.609071907734
 21
10.26327736019891
 31
0.0
  0
LINE
  5
41A1
330
4079
100
AcDbEntity
  8
0
 62
     0
100
AcDbLine
 10
40.69221216833722
 20
14.2444432329089
 30
0.0
 11
43.49221216833718
 21
17.04444323290891
 31
0.0
  0
LINE
  5
41A2
330
4079
100
AcDbEntity
  8
0
 62
     0
100
AcDbLine
 10
45.59221216833726
 20
19.14444323290899
 30
0.0
 11
49.69776880371694
 21
23.24999986828868
 31
0.0
  0
LINE
  5
41A3
330
4079
100
AcDbEntity
  8
0
 62
     0
100
AcDbLine
 10
35.26554576082833
 20
8.817776825400073
 30
0.0
 11
37.39354576082843
 21
10.94577682540011
 31
0.0
  0
LINE
  5
41A4
330
4079
100
AcDbEntity
  8
0
 62
     0
100
AcDbLine
 10
40.69221216833727
 20
15.14246884501591
 30
0.0
 11
43.49221216833718
 21
17.94246884501581
 31
0.0
  0
LINE
  5
41A5
330
4079
100
AcDbEntity
  8
0
 62
     0
100
AcDbLine
 10
45.59221216833726
 20
20.04246884501589
 30
0.0
 11
48.79974319161004
 21
23.24999986828868
 31
0.0
  0
LINE
  5
41A6
330
4079
100
AcDbEntity
  8
0
 62
     0
100
AcDbLine
 10
35.05001961392264
 20
9.500276290601334
 30
0.0
 11
37.1780196139228
 21
11.62827629060149
 31
0.0
  0
LINE
  5
41A7
330
4079
100
AcDbEntity
  8
0
 62
     0
100
AcDbLine
 10
40.69221216833722
 20
16.04049445712286
 30
0.0
 11
43.49221216833723
 21
18.84049445712281
 31
0.0
  0
LINE
  5
41A8
330
4079
100
AcDbEntity
  8
0
 62
     0
100
AcDbLine
 10
34.83449346701695
 20
10.18277575580259
 30
0.0
 11
36.96249346701705
 21
12.31077575580263
 31
0.0
  0
LINE
  5
41A9
330
4079
100
AcDbEntity
  8
0
 62
     0
100
AcDbLine
 10
45.6455288384584
 20
20.99381112724404
 30
0.0
 11
47.84840090938172
 21
23.19668319816736
 31
0.0
  0
LINE
  5
41AA
330
4079
100
AcDbEntity
  8
0
 62
     0
100
AcDbLine
 10
31.80171757950296
 20
7.149999868288603
 30
0.0
 11
32.64221216833715
 21
7.990494457122792
 31
0.0
  0
LINE
  5
41AB
330
4079
100
AcDbEntity
  8
0
 62
     0
100
AcDbLine
 10
34.61896732011144
 20
10.86527522100391
 30
0.0
 11
36.74696732011142
 21
12.99327522100389
 31
0.0
  0
LINE
  5
41AC
330
4079
100
AcDbEntity
  8
0
 62
     0
100
AcDbLine
 10
40.69221216833727
 20
16.93852006922969
 30
0.0
 11
43.49221216833723
 21
19.7385200692297
 31
0.0
  0
LINE
  5
41AD
330
4079
100
AcDbEntity
  8
0
 62
     0
100
AcDbLine
 10
30.90369196739612
 20
7.149999868288546
 30
0.0
 11
32.64221216833727
 21
8.888520069229741
 31
0.0
  0
LINE
  5
41AE
330
4079
100
AcDbEntity
  8
0
 62
     0
100
AcDbLine
 10
34.40344117320569
 20
11.54777468620505
 30
0.0
 11
36.53144117320573
 21
13.67577468620515
 31
0.0
  0
LINE
  5
41AF
330
4079
100
AcDbEntity
  8
0
 62
     0
100
AcDbLine
 10
40.69221216833722
 20
17.83654568133664
 30
0.0
 11
43.49221216833723
 21
20.6365456813366
 31
0.0
  0
LINE
  5
41B0
330
4079
100
AcDbEntity
  8
0
 62
     0
100
AcDbLine
 10
30.08681610294047
 20
7.231149615939898
 30
0.0
 11
32.64221216833727
 21
9.78654568133669
 31
0.0
  0
LINE
  5
41B1
330
4079
100
AcDbEntity
  8
0
 62
     0
100
AcDbLine
 10
34.1879150263
 20
12.23027415140632
 30
0.0
 11
36.31591502630004
 21
14.35827415140642
 31
0.0
  0
LINE
  5
41B2
330
4079
100
AcDbEntity
  8
0
 62
     0
100
AcDbLine
 10
40.69221216833722
 20
18.73457129344359
 30
0.0
 11
43.49221216833718
 21
21.53457129344354
 31
0.0
  0
LINE
  5
41B3
330
4079
100
AcDbEntity
  8
0
 62
     0
100
AcDbLine
 10
29.8422121683372
 20
7.884571293443514
 30
0.0
 11
32.64221216833727
 21
10.68457129344358
 31
0.0
  0
LINE
  5
41B4
330
4079
100
AcDbEntity
  8
0
 62
     0
100
AcDbLine
 10
33.97238887939437
 20
12.91277361660752
 30
0.0
 11
36.10038887939452
 21
15.04077361660768
 31
0.0
  0
LINE
  5
41B5
330
4079
100
AcDbEntity
  8
0
 62
     0
100
AcDbLine
 10
40.69221216833727
 20
19.63259690555043
 30
0.0
 11
43.49221216833723
 21
22.43259690555043
 31
0.0
  0
LINE
  5
41B6
330
4079
100
AcDbEntity
  8
0
 62
     0
100
AcDbLine
 10
29.8422121683372
 20
8.782596905550406
 30
0.0
 11
32.64221216833727
 21
11.58259690555047
 31
0.0
  0
LINE
  5
41B7
330
4079
100
AcDbEntity
  8
0
 62
     0
100
AcDbLine
 10
33.73759009242263
 20
13.57600044174279
 30
0.0
 11
36.36788416035352
 21
16.20629450967368
 31
0.0
  0
LINE
  5
41B8
330
4079
100
AcDbEntity
  8
0
 62
     0
100
AcDbLine
 10
40.69221216833722
 20
20.53062251765737
 30
0.0
 11
43.29593674583878
 21
23.13434709515888
 31
0.0
  0
LINE
  5
41B9
330
4079
100
AcDbEntity
  8
0
 62
     0
100
AcDbLine
 10
29.8422121683372
 20
9.680622517657354
 30
0.0
 11
32.64221216833727
 21
12.48062251765736
 31
0.0
  0
LINE
  5
41BA
330
4079
100
AcDbEntity
  8
0
 62
     0
100
AcDbLine
 10
33.05040472255524
 20
13.78684068398234
 30
0.0
 11
36.78235751978752
 21
17.51879348121462
 31
0.0
  0
LINE
  5
41BB
330
4079
100
AcDbEntity
  8
0
 62
     0
100
AcDbLine
 10
29.8422121683372
 20
10.57864812976424
 30
0.0
 11
32.6553713526435
 21
13.39180731407054
 31
0.0
  0
LINE
  5
41BC
330
4079
100
AcDbEntity
  8
0
 62
     0
100
AcDbLine
 10
40.69221216833722
 20
21.42864812976426
 30
0.0
 11
42.51356390686157
 21
23.24999986828868
 31
0.0
  0
LINE
  5
41BD
330
4079
100
AcDbEntity
  8
0
 62
     0
100
AcDbLine
 10
26.41356390686155
 20
7.149999868288603
 30
0.0
 11
27.39221216833721
 21
8.128648129764314
 31
0.0
  0
LINE
  5
41BE
330
4079
100
AcDbEntity
  8
0
 62
     0
100
AcDbLine
 10
29.84221216833714
 20
11.47667374187119
 30
0.0
 11
37.19683087922146
 21
18.83129245275552
 31
0.0
  0
LINE
  5
41BF
330
4079
100
AcDbEntity
  8
0
 62
     0
100
AcDbLine
 10
40.69221216833716
 20
22.32667374187121
 30
0.0
 11
41.61553829475457
 21
23.24999986828862
 31
0.0
  0
LINE
  5
41C0
330
4079
100
AcDbEntity
  8
0
 62
     0
100
AcDbLine
 10
25.5155382947546
 20
7.149999868288659
 30
0.0
 11
27.39221216833726
 21
9.02667374187132
 31
0.0
  0
LINE
  5
41C1
330
4079
100
AcDbEntity
  8
0
 62
     0
100
AcDbLine
 10
29.8422121683372
 20
12.37469935397803
 30
0.0
 11
37.61130423865557
 21
20.14379142429646
 31
0.0
  0
LINE
  5
41C2
330
4079
100
AcDbEntity
  8
0
 62
     0
100
AcDbLine
 10
24.62919330699782
 20
7.161680492638708
 30
0.0
 11
27.25087788473103
 21
9.783365070371871
 31
0.0
  0
LINE
  5
41C3
330
4079
100
AcDbEntity
  8
0
 62
     0
100
AcDbLine
 10
29.84221216833714
 20
13.27272496608498
 30
0.0
 11
33.16948707054081
 21
16.59999986828864
 31
0.0
  0
LINE
  5
41C4
330
4079
100
AcDbEntity
  8
0
 62
     0
100
AcDbLine
 10
33.93346990578169
 20
17.36398270352952
 30
0.0
 11
38.02577759808952
 21
21.45629039583735
 31
0.0
  0
LINE
  5
41C5
330
4079
100
AcDbEntity
  8
0
 62
     0
100
AcDbLine
 10
23.86103278955084
 20
7.291545587298628
 30
0.0
 11
26.51948707054077
 21
9.949999868288614
 31
0.0
  0
LINE
  5
41C6
330
4079
100
AcDbEntity
  8
0
 62
     0
100
AcDbLine
 10
29.84221216833714
 20
14.17075057819192
 30
0.0
 11
32.66020273904547
 21
16.9887411489002
 31
0.0
  0
LINE
  5
41C7
330
4079
100
AcDbEntity
  8
0
 62
     0
100
AcDbLine
 10
34.34794326521563
 20
18.67648167507036
 30
0.0
 11
38.40084904989083
 21
22.72938745974562
 31
0.0
  0
LINE
  5
41C8
330
4079
100
AcDbEntity
  8
0
 62
     0
100
AcDbLine
 10
23.19989853272443
 20
7.528436942579219
 30
0.0
 11
25.62146145843388
 21
9.949999868288614
 31
0.0
  0
LINE
  5
41C9
330
4079
100
AcDbEntity
  8
0
 62
     0
100
AcDbLine
 10
29.8422121683372
 20
15.06877619029876
 30
0.0
 11
32.64221216833732
 21
17.86877619029888
 31
0.0
  0
LINE
  5
41CA
330
4079
100
AcDbEntity
  8
0
 62
     0
100
AcDbLine
 10
34.76241662464957
 20
19.98898064661119
 30
0.0
 11
38.00683717732164
 21
23.23340119928326
 31
0.0
  0
LINE
  5
41CB
330
4079
100
AcDbEntity
  8
0
 62
     0
100
AcDbLine
 10
22.62229524856013
 20
7.8488592705217
 30
0.0
 11
24.73835710705299
 21
9.964921129014612
 31
0.0
  0
LINE
  5
41CC
330
4079
100
AcDbEntity
  8
0
 62
     0
100
AcDbLine
 10
29.84221216833714
 20
15.96680180240571
 30
0.0
 11
32.64221216833727
 21
18.76680180240583
 31
0.0
  0
LINE
  5
41CD
330
4079
100
AcDbEntity
  8
0
 62
     0
100
AcDbLine
 10
35.17688998408351
 20
21.30147961815203
 30
0.0
 11
37.12541023422005
 21
23.24999986828862
 31
0.0
  0
LINE
  5
41CE
330
4079
100
AcDbEntity
  8
0
 62
     0
100
AcDbLine
 10
22.11734028217807
 20
8.24192991624659
 30
0.0
 11
24.10404096603468
 21
10.2286306001032
 31
0.0
  0
LINE
  5
41CF
330
4079
100
AcDbEntity
  8
0
 62
     0
100
AcDbLine
 10
29.84221216833714
 20
16.8648274145126
 30
0.0
 11
32.64221216833727
 21
19.66482741451278
 31
0.0
  0
LINE
  5
41D0
330
4079
100
AcDbEntity
  8
0
 62
     0
100
AcDbLine
 10
26.50384630011365
 20
13.52646154628917
 30
0.0
 11
27.66575049033673
 21
14.68836573651225
 31
0.0
  0
LINE
  5
41D1
330
4079
100
AcDbEntity
  8
0
 62
     0
100
AcDbLine
 10
35.5913633435174
 20
22.61397858969292
 30
0.0
 11
36.22738462211311
 21
23.24999986828862
 31
0.0
  0
LINE
  5
41D2
330
4079
100
AcDbEntity
  8
0
 62
     0
100
AcDbLine
 10
21.68090320884823
 20
8.703518455023754
 30
0.0
 11
23.6937900147625
 21
10.71640526093801
 31
0.0
  0
LINE
  5
41D3
330
4079
100
AcDbEntity
  8
0
 62
     0
100
AcDbLine
 10
25.57887345848382
 20
13.49951431676629
 30
0.0
 11
27.6926977198596
 21
15.61333857814202
 31
0.0
  0
LINE
  5
41D4
330
4079
100
AcDbEntity
  8
0
 62
     0
100
AcDbLine
 10
29.8422121683372
 20
17.7628530266196
 30
0.0
 11
32.64221216833727
 21
20.56285302661967
 31
0.0
  0
LINE
  5
41D5
330
4079
100
AcDbEntity
  8
0
 62
     0
100
AcDbLine
 10
21.31388398390527
 20
9.234524842187681
 30
0.0
 11
23.54221216833718
 21
11.46285302661965
 31
0.0
  0
LINE
  5
41D6
330
4079
100
AcDbEntity
  8
0
 62
     0
100
AcDbLine
 10
24.96472688906362
 20
13.78339335945287
 30
0.0
 11
27.40881867717297
 21
16.22748514756227
 31
0.0
  0
LINE
  5
41D7
330
4079
100
AcDbEntity
  8
0
 62
     0
100
AcDbLine
 10
29.8422121683372
 20
18.6608786387265
 30
0.0
 11
32.64221216833727
 21
21.46087863872657
 31
0.0
  0
LINE
  5
41D8
330
4079
100
AcDbEntity
  8
0
 62
     0
100
AcDbLine
 10
21.02256647398053
 20
9.841232944369835
 30
0.0
 11
23.54221216833718
 21
12.36087863872649
 31
0.0
  0
LINE
  5
41D9
330
4079
100
AcDbEntity
  8
0
 62
     0
100
AcDbLine
 10
24.5267669620739
 20
14.24345904457015
 30
0.0
 11
26.94875299205574
 21
16.66544507455194
 31
0.0
  0
LINE
  5
41DA
330
4079
100
AcDbEntity
  8
0
 62
     0
100
AcDbLine
 10
29.8422121683372
 20
19.55890425083345
 30
0.0
 11
32.64221216833727
 21
22.35890425083346
 31
0.0
  0
LINE
  5
41DB
330
4079
100
AcDbEntity
  8
0
 62
     0
100
AcDbLine
 10
20.82142910980587
 20
10.53812119230212
 30
0.0
 11
23.54221216833718
 21
13.25890425083343
 31
0.0
  0
LINE
  5
41DC
330
4079
100
AcDbEntity
  8
0
 62
     0
100
AcDbLine
 10
24.27071622966554
 20
14.88543392426868
 30
0.0
 11
26.30677811235716
 21
16.92149580696036
 31
0.0
  0
LINE
  5
41DD
330
4079
100
AcDbEntity
  8
0
 62
     0
100
AcDbLine
 10
20.74221216833711
 20
11.35692986294031
 30
0.0
 11
23.54221216833718
 21
14.15692986294033
 31
0.0
  0
LINE
  5
41DE
330
4079
100
AcDbEntity
  8
0
 62
     0
100
AcDbLine
 10
29.8422121683372
 20
20.45692986294034
 30
0.0
 11
32.48496205998208
 21
23.09967975458528
 31
0.0
  0
LINE
  5
41DF
330
4079
100
AcDbEntity
  8
0
 62
     0
100
AcDbLine
 10
16.65621541046152
 20
7.270933105064727
 30
0.0
 11
18.52127893156125
 21
9.135996626164455
 31
0.0
  0
LINE
  5
41E0
330
4079
100
AcDbEntity
  8
0
 62
     0
100
AcDbLine
 10
24.38912931314632
 20
15.90187261985636
 30
0.0
 11
25.29033941676954
 21
16.80308272347957
 31
0.0
  0
LINE
  5
41E1
330
4079
100
AcDbEntity
  8
0
 62
     0
100
AcDbLine
 10
20.74221216833711
 20
12.25495547504715
 30
0.0
 11
23.54221216833729
 21
15.05495547504728
 31
0.0
  0
LINE
  5
41E2
330
4079
100
AcDbEntity
  8
0
 62
     0
100
AcDbLine
 10
29.8422121683372
 20
21.35495547504723
 30
0.0
 11
31.73725656157859
 21
23.24999986828862
 31
0.0
  0
LINE
  5
41E3
330
4079
100
AcDbEntity
  8
0
 62
     0
100
AcDbLine
 10
15.63725656157856
 20
7.149999868288603
 30
0.0
 11
18.64221216833732
 21
10.1549554750473
 31
0.0
  0
LINE
  5
41E4
330
4079
100
AcDbEntity
  8
0
 62
     0
100
AcDbLine
 10
20.74221216833711
 20
13.1529810871541
 30
0.0
 11
23.54221216833724
 21
15.95298108715422
 31
0.0
  0
LINE
  5
41E5
330
4079
100
AcDbEntity
  8
0
 62
     0
100
AcDbLine
 10
29.8422121683372
 20
22.25298108715412
 30
0.0
 11
30.8392309494717
 21
23.24999986828868
 31
0.0
  0
LINE
  5
41E6
330
4079
100
AcDbEntity
  8
0
 62
     0
100
AcDbLine
 10
14.73923094947156
 20
7.149999868288546
 30
0.0
 11
18.64221216833726
 21
11.05298108715425
 31
0.0
  0
LINE
  5
41E7
330
4079
100
AcDbEntity
  8
0
 62
     0
100
AcDbLine
 10
20.74221216833711
 20
14.05100669926099
 30
0.0
 11
23.54221216833724
 21
16.85100669926117
 31
0.0
  0
LINE
  5
41E8
330
4079
100
AcDbEntity
  8
0
 62
     0
100
AcDbLine
 10
13.84120533736472
 20
7.149999868288659
 30
0.0
 11
18.63827281577601
 21
11.94706734669995
 31
0.0
  0
LINE
  5
41E9
330
4079
100
AcDbEntity
  8
0
 62
     0
100
AcDbLine
 10
20.74221216833711
 20
14.94903231136794
 30
0.0
 11
23.54221216833724
 21
17.74903231136806
 31
0.0
  0
LINE
  5
41EA
330
4079
100
AcDbEntity
  8
0
 62
     0
100
AcDbLine
 10
26.2431797252579
 20
20.44999986828873
 30
0.0
 11
27.39221216833732
 21
21.59903231136814
 31
0.0
  0
LINE
  5
41EB
330
4079
100
AcDbEntity
  8
0
 62
     0
100
AcDbLine
 10
12.94317972525777
 20
7.149999868288603
 30
0.0
 11
18.52861097945469
 21
12.73543112248552
 31
0.0
  0
LINE
  5
41EC
330
4079
100
AcDbEntity
  8
0
 62
     0
100
AcDbLine
 10
20.74221216833711
 20
15.84705792347483
 30
0.0
 11
23.54221216833724
 21
18.64705792347496
 31
0.0
  0
LINE
  5
41ED
330
4079
100
AcDbEntity
  8
0
 62
     0
100
AcDbLine
 10
15.8422121683372
 20
10.94705792347491
 30
0.0
 11
18.30627223541057
 21
13.41111799054829
 31
0.0
  0
LINE
  5
41EE
330
4079
100
AcDbEntity
  8
0
 62
     0
100
AcDbLine
 10
25.34515411315089
 20
20.44999986828861
 30
0.0
 11
27.39221216833732
 21
22.49705792347498
 31
0.0
  0
LINE
  5
41EF
330
4079
100
AcDbEntity
  8
0
 62
     0
100
AcDbLine
 10
12.10287998841084
 20
7.207725743548564
 30
0.0
 11
14.84515411315089
 21
9.949999868288614
 31
0.0
  0
LINE
  5
41F0
330
4079
100
AcDbEntity
  8
0
 62
     0
100
AcDbLine
 10
20.74221216833706
 20
16.74508353558172
 30
0.0
 11
23.70802687411685
 21
19.71089824136152
 31
0.0
  0
LINE
  5
41F1
330
4079
100
AcDbEntity
  8
0
 62
     0
100
AcDbLine
 10
15.84005307672794
 20
11.84292444397254
 30
0.0
 11
17.99784070073854
 21
14.00071206798321
 31
0.0
  0
LINE
  5
41F2
330
4079
100
AcDbEntity
  8
0
 62
     0
100
AcDbLine
 10
24.28131379526439
 20
20.28418516250906
 30
0.0
 11
27.1587447534174
 21
23.16161612066201
 31
0.0
  0
LINE
  5
41F3
330
4079
100
AcDbEntity
  8
0
 62
     0
100
AcDbLine
 10
11.81721216833722
 20
7.820083535581829
 30
0.0
 11
13.947128501044
 21
9.949999868288614
 31
0.0
  0
LINE
  5
41F4
330
4079
100
AcDbEntity
  8
0
 62
     0
100
AcDbLine
 10
15.62045005722723
 20
12.52134703657884
 30
0.0
 11
17.61559873589965
 21
14.51649571525126
 31
0.0
  0
LINE
  5
41F5
330
4079
100
AcDbEntity
  8
0
 62
     0
100
AcDbLine
 10
20.74221216833706
 20
17.64310914768867
 30
0.0
 11
26.34910288893701
 21
23.24999986828862
 31
0.0
  0
LINE
  5
41F6
330
4079
100
AcDbEntity
  8
0
 62
     0
100
AcDbLine
 10
11.81721216833716
 20
8.718109147688778
 30
0.0
 11
13.04910288893705
 21
9.949999868288671
 31
0.0
  0
LINE
  5
41F7
330
4079
100
AcDbEntity
  8
0
 62
     0
100
AcDbLine
 10
15.19419522892252
 20
12.99311782038097
 30
0.0
 11
17.17409421624489
 21
14.97301680770334
 31
0.0
  0
LINE
  5
41F8
330
4079
100
AcDbEntity
  8
0
 62
     0
100
AcDbLine
 10
20.74221216833711
 20
18.54113475979551
 30
0.0
 11
25.45107727683006
 21
23.24999986828851
 31
0.0
  0
LINE
  5
41F9
330
4079
100
AcDbEntity
  8
0
 62
     0
100
AcDbLine
 10
11.88616409035694
 20
9.685086681815391
 30
0.0
 11
12.08212535481055
 21
9.881047946269006
 31
0.0
  0
LINE
  5
41FA
330
4079
100
AcDbEntity
  8
0
 62
     0
100
AcDbLine
 10
20.7621872824937
 20
19.45913548605903
 30
0.0
 11
24.5330765505667
 21
23.2300247541321
 31
0.0
  0
LINE
  5
41FB
330
4079
100
AcDbEntity
  8
0
 62
     0
100
AcDbLine
 10
14.74518242286904
 20
13.44213062643444
 30
0.0
 11
16.72508141019142
 21
15.42202961375681
 31
0.0
  0
LINE
  5
41FC
330
4079
100
AcDbEntity
  8
0
 62
     0
100
AcDbLine
 10
21.06165071475948
 20
20.65662453043182
 30
0.0
 11
23.33558750619397
 21
22.93056132186632
 31
0.0
  0
LINE
  5
41FD
330
4079
100
AcDbEntity
  8
0
 62
     0
100
AcDbLine
 10
14.29616961681557
 20
13.89114343248792
 30
0.0
 11
16.27606860413794
 21
15.87104241981029
 31
0.0
  0
LINE
  5
41FE
330
4079
100
AcDbEntity
  8
0
 62
     0
100
AcDbLine
 10
13.84715681076215
 20
14.34015623854134
 30
0.0
 11
15.82705579808447
 21
16.32005522586359
 31
0.0
  0
LINE
  5
41FF
330
4079
100
AcDbEntity
  8
0
 62
     0
100
AcDbLine
 10
13.39814400470868
 20
14.78916904459481
 30
0.0
 11
15.378042992031
 21
16.76906803191707
 31
0.0
  0
LINE
  5
4200
330
4079
100
AcDbEntity
  8
0
 62
     0
100
AcDbLine
 10
12.94913119865521
 20
15.23818185064828
 30
0.0
 11
14.92903018597752
 21
17.21808083797054
 31
0.0
  0
LINE
  5
4201
330
4079
100
AcDbEntity
  8
0
 62
     0
100
AcDbLine
 10
17.26292360418864
 20
20.44999986828861
 30
0.0
 11
18.11721216833712
 21
21.30428843243714
 31
0.0
  0
LINE
  5
4202
330
4079
100
AcDbEntity
  8
0
 62
     0
100
AcDbLine
 10
12.50020170662986
 20
15.68727797072989
 30
0.0
 11
14.48026735006232
 21
17.66734361416235
 31
0.0
  0
LINE
  5
4203
330
4079
100
AcDbEntity
  8
0
 62
     0
100
AcDbLine
 10
16.36489799208175
 20
20.44999986828861
 30
0.0
 11
18.11721216833717
 21
22.20231404454403
 31
0.0
  0
LINE
  5
4204
330
4079
100
AcDbEntity
  8
0
 62
     0
100
AcDbLine
 10
12.08873378207829
 20
16.1738356582851
 30
0.0
 11
14.15037046877438
 21
18.23547234498124
 31
0.0
  0
LINE
  5
4205
330
4079
100
AcDbEntity
  8
0
 62
     0
100
AcDbLine
 10
15.4668723799748
 20
20.44999986828861
 30
0.0
 11
18.03065326857603
 21
23.01378075688984
 31
0.0
  0
LINE
  5
4206
330
4079
100
AcDbEntity
  8
0
 62
     0
100
AcDbLine
 10
11.74827317581582
 20
16.73140066412958
 30
0.0
 11
14.09221216833725
 21
19.07533965665101
 31
0.0
  0
LINE
  5
4207
330
4079
100
AcDbEntity
  8
0
 62
     0
100
AcDbLine
 10
14.56638011869779
 20
20.44753321911849
 30
0.0
 11
17.36884676786786
 21
23.24999986828862
 31
0.0
  0
LINE
  5
4208
330
4079
100
AcDbEntity
  8
0
 62
     0
100
AcDbLine
 10
11.48757988008372
 20
17.36873298050443
 30
0.0
 11
14.09467881750731
 21
19.97583191792807
 31
0.0
  0
LINE
  5
4209
330
4079
100
AcDbEntity
  8
0
 62
     0
100
AcDbLine
 10
11.32576791783566
 20
18.10494663036325
 30
0.0
 11
16.47082115576103
 21
23.24999986828856
 31
0.0
  0
LINE
  5
420A
330
4079
100
AcDbEntity
  8
0
 62
     0
100
AcDbLine
 10
11.29221216833724
 20
18.96941649297178
 30
0.0
 11
15.57279554365408
 21
23.24999986828862
 31
0.0
  0
LINE
  5
420B
330
4079
100
AcDbEntity
  8
0
 62
     0
100
AcDbLine
 10
11.29221216833724
 20
19.86744210507868
 30
0.0
 11
14.67476993154713
 21
23.24999986828862
 31
0.0
  0
LINE
  5
420C
330
4079
100
AcDbEntity
  8
0
 62
     0
100
AcDbLine
 10
11.31240417877546
 20
20.78565972762385
 30
0.0
 11
13.75655230900207
 21
23.22980785785046
 31
0.0
  0
ENDBLK
  5
420E
330
4079
100
AcDbEntity
  8
0
100
AcDbBlockEnd
  0
ENDSEC
  0
SECTION
  2
ENTITIES
  0
TEXT
  5
D6A
330
1A
100
AcDbEntity
  8
SUNPOU
 62
     4
100
AcDbText
 10
681.5030076919133
 20
37.46027773351979
 30
0.0
 40
6.0
  1
※　のきといの差込み寸法を示す
100
AcDbText
  0
TEXT
  5
EAF
330
1A
100
AcDbEntity
  8
SUNPOU
100
AcDbText
 10
175.5520893161943
 20
115.5575325341974
 30
0.0
 40
10.0
  1
左
100
AcDbText
  0
TEXT
  5
EB0
330
1A
100
AcDbEntity
  8
SUNPOU
100
AcDbText
 10
628.260804834176
 20
115.5575325341974
 30
0.0
 40
10.0
  1
右
100
AcDbText
  0
LINE
  5
1A67
330
1A
100
AcDbEntity
  8
ZUWAKU
100
AcDbLine
 10
208.646601303624
 20
15.19999986828872
 30
0.0
 11
447.4243639845474
 21
15.19999986828871
 31
0.0
  0
LINE
  5
1A68
330
1A
100
AcDbEntity
  8
ZUWAKU
100
AcDbLine
 10
208.646601303624
 20
15.59999986828871
 30
0.0
 11
447.4243639845474
 21
15.59999986828872
 31
0.0
  0
LINE
  5
1A69
330
1A
100
AcDbEntity
  8
ZUWAKU
100
AcDbLine
 10
208.646601303624
 20
15.39999986828871
 30
0.0
 11
447.4243639845474
 21
15.39999986828871
 31
0.0
  0
LINE
  5
1A6A
330
1A
100
AcDbEntity
  8
ZUWAKU
100
AcDbLine
 10
0.0000000135560185
 20
30.79999986828869
 30
0.0
 11
797.4000000135559
 21
30.79999986828869
 31
0.0
  0
LINE
  5
1A6B
330
1A
100
AcDbEntity
  8
ZUWAKU
100
AcDbLine
 10
0.0000000135560185
 20
30.59999986828869
 30
0.0
 11
797.4000000135559
 21
30.59999986828869
 31
0.0
  0
LINE
  5
1A6C
330
1A
100
AcDbEntity
  8
ZUWAKU
100
AcDbLine
 10
0.0000000135560185
 20
30.39999986828869
 30
0.0
 11
797.4000000135559
 21
30.39999986828869
 31
0.0
  0
LINE
  5
1A6D
330
1A
100
AcDbEntity
  8
ZUWAKU
100
AcDbLine
 10
0.0000000135560185
 20
30.19999986828868
 30
0.0
 11
797.4000000135559
 21
30.19999986828868
 31
0.0
  0
LINE
  5
1A6E
330
1A
100
AcDbEntity
  8
ZUWAKU
100
AcDbLine
 10
0.0000000135560185
 20
29.99999986828868
 30
0.0
 11
797.4000000135559
 21
29.99999986828868
 31
0.0
  0
POLYLINE
  5
1A6F
330
1A
100
AcDbEntity
  8
ZUWAKU
100
AcDb2dPolyline
 66
     1
 10
0.0
 20
0.0
 30
0.0
 70
     1
  0
VERTEX
  5
4A13
330
1A6F
100
AcDbEntity
  8
ZUWAKU
100
AcDbVertex
100
AcDb2dVertex
 10
0.2000000135559503
 20
551.3999998682887
 30
0.0
  0
VERTEX
  5
4A14
330
1A6F
100
AcDbEntity
  8
ZUWAKU
100
AcDbVertex
100
AcDb2dVertex
 10
0.2000000135559503
 20
0.1999998682887281
 30
0.0
  0
VERTEX
  5
4A15
330
1A6F
100
AcDbEntity
  8
ZUWAKU
100
AcDbVertex
100
AcDb2dVertex
 10
797.4000000135559
 20
0.1999998682887511
 30
0.0
  0
VERTEX
  5
4A16
330
1A6F
100
AcDbEntity
  8
ZUWAKU
100
AcDbVertex
100
AcDb2dVertex
 10
797.4000000135561
 20
551.3999998682887
 30
0.0
  0
SEQEND
  5
4A17
330
1A6F
100
AcDbEntity
  8
ZUWAKU
  0
POLYLINE
  5
1A70
330
1A
100
AcDbEntity
  8
ZUWAKU
100
AcDb2dPolyline
 66
     1
 10
0.0
 20
0.0
 30
0.0
 70
     1
  0
VERTEX
  5
4A18
330
1A70
100
AcDbEntity
  8
ZUWAKU
100
AcDbVertex
100
AcDb2dVertex
 10
0.6000000135559276
 20
550.9999998682888
 30
0.0
  0
VERTEX
  5
4A19
330
1A70
100
AcDbEntity
  8
ZUWAKU
100
AcDbVertex
100
AcDb2dVertex
 10
0.6000000135559276
 20
0.5999998682887054
 30
0.0
  0
VERTEX
  5
4A1A
330
1A70
100
AcDbEntity
  8
ZUWAKU
100
AcDbVertex
100
AcDb2dVertex
 10
797.0000000135562
 20
0.5999998682887516
 30
0.0
  0
VERTEX
  5
4A1B
330
1A70
100
AcDbEntity
  8
ZUWAKU
100
AcDbVertex
100
AcDb2dVertex
 10
797.000000013556
 20
550.9999998682888
 30
0.0
  0
SEQEND
  5
4A1C
330
1A70
100
AcDbEntity
  8
ZUWAKU
  0
POLYLINE
  5
1A71
330
1A
100
AcDbEntity
  8
ZUWAKU
100
AcDb2dPolyline
 66
     1
 10
0.0
 20
0.0
 30
0.0
 70
     1
  0
VERTEX
  5
4A1D
330
1A71
100
AcDbEntity
  8
ZUWAKU
100
AcDbVertex
100
AcDb2dVertex
 10
0.0000000135560185
 20
551.5999998682887
 30
0.0
  0
VERTEX
  5
4A1E
330
1A71
100
AcDbEntity
  8
ZUWAKU
100
AcDbVertex
100
AcDb2dVertex
 10
0.0000000135560185
 20
-0.0000001317113174
 30
0.0
  0
VERTEX
  5
4A1F
330
1A71
100
AcDbEntity
  8
ZUWAKU
100
AcDbVertex
100
AcDb2dVertex
 10
797.6000000135561
 20
-0.0000001317112499
 30
0.0
  0
VERTEX
  5
4A20
330
1A71
100
AcDbEntity
  8
ZUWAKU
100
AcDbVertex
100
AcDb2dVertex
 10
797.6000000135561
 20
551.5999998682888
 30
0.0
  0
SEQEND
  5
4A21
330
1A71
100
AcDbEntity
  8
ZUWAKU
  0
POLYLINE
  5
1A72
330
1A
100
AcDbEntity
  8
ZUWAKU
100
AcDb2dPolyline
 66
     1
 10
0.0
 20
0.0
 30
0.0
 70
     1
  0
VERTEX
  5
4A22
330
1A72
100
AcDbEntity
  8
ZUWAKU
100
AcDbVertex
100
AcDb2dVertex
 10
0.4000000135559958
 20
551.1999998682887
 30
0.0
  0
VERTEX
  5
4A23
330
1A72
100
AcDbEntity
  8
ZUWAKU
100
AcDbVertex
100
AcDb2dVertex
 10
0.4000000135559958
 20
0.3999998682887735
 30
0.0
  0
VERTEX
  5
4A24
330
1A72
100
AcDbEntity
  8
ZUWAKU
100
AcDbVertex
100
AcDb2dVertex
 10
797.200000013556
 20
0.3999998682887504
 30
0.0
  0
VERTEX
  5
4A25
330
1A72
100
AcDbEntity
  8
ZUWAKU
100
AcDbVertex
100
AcDb2dVertex
 10
797.200000013556
 20
551.1999998682887
 30
0.0
  0
SEQEND
  5
4A26
330
1A72
100
AcDbEntity
  8
ZUWAKU
  0
POLYLINE
  5
1A73
330
1A
100
AcDbEntity
  8
ZUWAKU
100
AcDb2dPolyline
 66
     1
 10
0.0
 20
0.0
 30
0.0
 70
     1
  0
VERTEX
  5
4A27
330
1A73
100
AcDbEntity
  8
ZUWAKU
100
AcDbVertex
100
AcDb2dVertex
 10
0.800000013555973
 20
550.7999998682887
 30
0.0
  0
VERTEX
  5
4A28
330
1A73
100
AcDbEntity
  8
ZUWAKU
100
AcDbVertex
100
AcDb2dVertex
 10
0.800000013555973
 20
0.7999998682887508
 30
0.0
  0
VERTEX
  5
4A29
330
1A73
100
AcDbEntity
  8
ZUWAKU
100
AcDbVertex
100
AcDb2dVertex
 10
796.8000000135559
 20
0.7999998682887508
 30
0.0
  0
VERTEX
  5
4A2A
330
1A73
100
AcDbEntity
  8
ZUWAKU
100
AcDbVertex
100
AcDb2dVertex
 10
796.8000000135559
 20
550.7999998682887
 30
0.0
  0
SEQEND
  5
4A2B
330
1A73
100
AcDbEntity
  8
ZUWAKU
  0
INSERT
  5
1A75
330
1A
100
AcDbEntity
  8
ZUWAKU
  6
CONTINUOUS
100
AcDbBlockReference
  2
*X15
 10
0.0
 20
0.0
 30
0.0
1001
ACAD
1000
HATCH
1002
{
1070
    19
1000
ANSI37
1040
0.2
1040
0.0
1000
R14_HATCH_DATA
1000
1A75
1011
1.0
1021
0.0
1031
0.0
1011
0.0
1021
1.0
1031
0.0
1011
0.0
1021
0.0
1031
1.0
1040
0.0
1010
0.0
1020
0.0
1030
1.0
1000
ANSI37
1070
     0
1070
     0
1071
        8
1071
        7
1070
     1
1070
     1
1071
       24
1040
14.50226267467587
1040
17.64484834927226
1040
-0.1989123673796348
1040
14.09221216833714
1040
18.63479784293331
1040
0.0
1040
14.09221216833714
1040
19.92499986828869
1040
-0.4142135623730912
1040
14.61721216833711
1040
20.44999986828868
1040
0.0
1040
17.59221216833702
1040
20.44999986828868
1040
0.4142135623731546
1040
18.11721216833712
1040
20.97499986828867
1040
0.0
1040
18.11721216833712
1040
22.72499986828869
1040
0.4142135623731586
1040
17.59221216833702
1040
23.24999986828868
1040
0.0
1040
14.09221216833714
1040
23.24999986828868
1040
0.4142135623730928
1040
11.29221216833718
1040
20.44999986828871
1040
0.0
1040
11.29221216833718
1040
18.63479784293344
1040
0.1989123673796619
1040
12.52236368735361
1040
15.66494936194983
1040
0.0
1040
15.43216166199829
1040
12.75515138730518
1040
-0.1989123673796613
1040
15.84221216833714
1040
11.76520189364399
1040
0.0
1040
15.84221216833714
1040
10.47499986828867
1040
-0.4142135623730911
1040
15.31721216833716
1040
9.949999868288685
1040
0.0
1040
12.34221216833725
1040
9.949999868288685
1040
0.4142135623731526
1040
11.81721216833716
1040
9.424999868288697
1040
0.0
1040
11.81721216833716
1040
7.674999868288676
1040
0.4142135623731526
1040
12.34221216833725
1040
7.149999868288688
1040
0.0
1040
15.84221216833714
1040
7.149999868288688
1040
0.4142135623731044
1040
18.64221216833721
1040
9.949999868288664
1040
0.0
1040
18.64221216833721
1040
11.76520189364393
1040
0.1989123673796604
1040
17.41206064932066
1040
14.73505037462747
1040
0.0
1071
        0
1071
        7
1070
     1
1070
     1
1071
       16
1040
23.54221216833718
1040
19.04999986828869
1040
-0.4142135623730935
1040
24.94221216833716
1040
20.44999986828868
1040
0.0
1040
26.86721216833712
1040
20.44999986828868
1040
0.4142135623731546
1040
27.39221216833721
1040
20.97499986828867
1040
0.0
1040
27.39221216833721
1040
22.72499986828869
1040
0.4142135623730951
1040
26.86721216833723
1040
23.24999986828868
1040
0.0
1040
24.94221216833705
1040
23.24999986828864
1040
0.4142135623730892
1040
20.74221216833711
1040
19.04999986828862
1040
0.0
1040
20.74221216833711
1040
11.34999986828871
1040
0.4142135623730969
1040
24.94221216833716
1040
7.149999868288688
1040
0.0
1040
26.86721216833712
1040
7.149999868288688
1040
0.4142135623731526
1040
27.39221216833721
1040
7.674999868288676
1040
0.0
1040
27.39221216833721
1040
9.424999868288697
1040
0.4142135623730891
1040
26.86721216833723
1040
9.949999868288685
1040
0.0
1040
24.94221216833716
1040
9.949999868288685
1040
-0.4142135623730928
1040
23.54221216833718
1040
11.34999986828867
1040
0.0
1071
        0
1071
        7
1070
     1
1070
     1
1071
        2
1040
24.24221216833712
1040
15.19999986828868
1040
1.0
1040
27.74221216833712
1040
15.19999986828868
1040
1.0
1071
        0
1071
        7
1070
     1
1070
     1
1071
       26
1040
37.31485865051513
1040
19.20504706185211
1040
0.0
1040
38.37649828365295
1040
22.5669059001217
1040
0.5069206636600134
1040
37.87586738445759
1040
23.24999986828868
1040
0.0
1040
36.17697800484836
1040
23.24999986828868
1040
0.3272098845218764
1040
35.676347105653
1040
22.88309383645565
1040
0.0
1040
33.80807723102122
1040
16.96690590012176
1040
-0.3272098845219541
1040
33.30744633182575
1040
16.59999986828868
1040
0.0
1040
33.1672121683373
1040
16.59999986828868
1040
-0.4142135623731526
1040
32.64221216833721
1040
17.12499986828867
1040
0.0
1040
32.64221216833721
1040
22.72499986828869
1040
0.4142135623730951
1040
32.11721216833723
1040
23.24999986828868
1040
0.0
1040
30.36721216833711
1040
23.24999986828868
1040
0.4142135623730871
1040
29.84221216833714
1040
22.7249998682887
1040
0.0
1040
29.84221216833714
1040
7.674999868288676
1040
0.4142135623730891
1040
30.36721216833711
1040
7.149999868288688
1040
0.0
1040
32.11721216833712
1040
7.149999868288688
1040
0.4142135623731526
1040
32.64221216833721
1040
7.674999868288676
1040
0.0
1040
32.64221216833721
1040
13.27499986828869
1040
-0.4142135623731526
1040
33.1672121683373
1040
13.79999986828868
1040
0.0
1040
33.30744633182587
1040
13.79999986828868
1040
-0.3272098845218915
1040
33.80807723102122
1040
13.43309383645561
1040
0.0
1040
35.676347105653
1040
7.516905900121759
1040
0.3272098845218902
1040
36.17697800484836
1040
7.149999868288688
1040
0.0
1040
37.87586738445759
1040
7.149999868288688
1040
0.5069206636600335
1040
38.37649828365295
1040
7.833093836455695
1040
0.0
1040
36.05010690517929
1040
15.19999986828882
1040
0.0
1071
        0
1071
        7
1070
     1
1070
     1
1071
        8
1040
43.49221216833711
1040
22.7249998682887
1040
0.4142135623731546
1040
42.96721216833702
1040
23.24999986828868
1040
0.0
1040
41.21721216833726
1040
23.24999986828868
1040
0.4142135623731507
1040
40.69221216833716
1040
22.7249998682887
1040
0.0
1040
40.69221216833716
1040
7.674999868288676
1040
0.4142135623731526
1040
41.21721216833726
1040
7.149999868288688
1040
0.0
1040
42.96721216833702
1040
7.149999868288688
1040
0.4142135623731526
1040
43.49221216833711
1040
7.674999868288676
1040
0.0
1071
        0
1071
        7
1070
     1
1070
     1
1071
       24
1040
48.3922121683372
1040
19.92499986828869
1040
-0.4142135623731546
1040
48.9172121683373
1040
20.44999986828868
1040
0.0
1040
51.89221216833721
1040
20.44999986828868
1040
0.4142135623730911
1040
52.41721216833719
1040
20.97499986828867
1040
0.0
1040
52.41721216833719
1040
22.72499986828869
1040
0.4142135623730952
1040
51.89221216833721
1040
23.24999986828868
1040
0.0
1040
48.3922121683372
1040
23.24999986828868
1040
0.4142135623731048
1040
45.59221216833714
1040
20.44999986828871
1040
0.0
1040
45.59221216833714
1040
18.63479784293344
1040
0.1989123673796613
1040
46.82236368735368
1040
15.66494936194989
1040
0.0
1040
49.73216166199836
1040
12.75515138730522
1040
-0.1989123673796402
1040
50.14221216833721
1040
11.76520189364415
1040
0.0
1040
50.14221216833721
1040
10.47499986828867
1040
-0.4142135623730911
1040
49.61721216833723
1040
9.949999868288685
1040
0.0
1040
46.64221216833721
1040
9.949999868288685
1040
0.4142135623731526
1040
46.11721216833712
1040
9.424999868288697
1040
0.0
1040
46.11721216833712
1040
7.674999868288676
1040
0.4142135623730891
1040
46.64221216833709
1040
7.149999868288688
1040
0.0
1040
50.14221216833721
1040
7.149999868288688
1040
0.4142135623730925
1040
52.94221216833716
1040
9.949999868288664
1040
0.0
1040
52.94221216833716
1040
11.76520189364393
1040
0.1989123673796675
1040
51.71206064932062
1040
14.73505037462759
1040
0.0
1040
48.80226267467605
1040
17.6448483492721
1040
-0.1989123673796652
1040
48.3922121683372
1040
18.63479784293327
1040
0.0
1071
        0
1071
        7
1070
     1
1070
     1
1071
       16
1040
57.84221216833714
1040
22.72499986828867
1040
0.414213562373103
1040
57.31721216833716
1040
23.24999986828868
1040
0.0
1040
55.56721216833716
1040
23.24999986828868
1040
0.4142135623730871
1040
55.04221216833719
1040
22.7249998682887
1040
0.0
1040
55.04221216833719
1040
9.949999868288664
1040
0.4142135623730926
1040
57.84221216833714
1040
7.149999868288688
1040
0.0
1040
61.34221216833714
1040
7.149999868288688
1040
0.4142135623731044
1040
64.14221216833721
1040
9.949999868288664
1040
0.0
1040
64.14221216833721
1040
22.72499986828869
1040
0.4142135623730951
1040
63.61721216833723
1040
23.24999986828868
1040
0.0
1040
61.86721216833712
1040
23.24999986828868
1040
0.4142135623730871
1040
61.34221216833714
1040
22.7249998682887
1040
0.0
1040
61.34221216833714
1040
10.99999986828866
1040
-0.414213562373088
1040
60.29221216833718
1040
9.949999868288685
1040
0.0
1040
58.89221216833721
1040
9.949999868288685
1040
-0.4142135623731197
1040
57.84221216833714
1040
10.99999986828866
1040
0.0
1071
        0
1071
        7
1070
     1
1070
     1
1071
        8
1040
69.04221216833718
1040
22.7249998682887
1040
0.4142135623730871
1040
68.51721216833721
1040
23.24999986828868
1040
0.0
1040
66.76721216833721
1040
23.24999986828868
1040
0.4142135623731507
1040
66.24221216833712
1040
22.7249998682887
1040
0.0
1040
66.24221216833712
1040
7.674999868288676
1040
0.4142135623730891
1040
66.76721216833709
1040
7.149999868288688
1040
0.0
1040
68.51721216833721
1040
7.149999868288688
1040
0.4142135623730891
1040
69.04221216833718
1040
7.674999868288676
1040
0.0
1071
        0
1070
     0
1070
     1
1040
0.0
1040
0.2
1070
     0
1070
     2
1040
0.7853981633974483
1040
-900.942304321123
1040
-13.20000013171124
1040
-0.4490128060534576
1040
0.4490128060534577
1070
     0
1040
2.356194490192344
1040
-900.942304321123
1040
-13.20000013171124
1040
-0.4490128060534577
1040
-0.4490128060534576
1070
     0
1040
0.057451373970553
1071
        8
1040
16.07985497657932
1040
15.16717351417423
1040
0.0
1040
22.40451501999519
1040
18.84406205073969
1040
0.0
1040
25.16436789921567
1040
15.5118815143594
1040
0.0
1040
30.91405999519315
1040
16.20129751473018
1040
0.0
1040
41.83847203251275
1040
16.6609097822718
1040
0.0
1040
46.89820090868557
1040
19.41857618469589
1040
0.0
1040
56.55768598595637
1040
18.72915778338369
1040
0.0
1040
67.82707963317875
1040
19.18877005092531
1040
0.0
1002
}
  0
LINE
  5
1A76
330
1A
100
AcDbEntity
  8
ZUWAKU
100
AcDbLine
 10
24.94221216833716
 20
23.24999986828864
 30
0.0
 11
26.86721216833712
 21
23.24999986828868
 31
0.0
  0
LINE
  5
1A77
330
1A
100
AcDbEntity
  8
ZUWAKU
100
AcDbLine
 10
26.86721216833712
 20
20.44999986828868
 30
0.0
 11
24.94221216833716
 21
20.44999986828868
 31
0.0
  0
LINE
  5
1A78
330
1A
100
AcDbEntity
  8
ZUWAKU
100
AcDbLine
 10
24.94221216833716
 20
9.949999868288685
 30
0.0
 11
26.86721216833712
 21
9.949999868288685
 31
0.0
  0
LINE
  5
1A79
330
1A
100
AcDbEntity
  8
ZUWAKU
100
AcDbLine
 10
26.86721216833712
 20
7.149999868288688
 30
0.0
 11
24.94221216833716
 21
7.149999868288688
 31
0.0
  0
CIRCLE
  5
1A7A
330
1A
100
AcDbEntity
  8
ZUWAKU
100
AcDbCircle
 10
25.99221216833711
 20
15.19999986828868
 30
0.0
 40
1.75
  0
ARC
  5
1A7B
330
1A
100
AcDbEntity
  8
ZUWAKU
100
AcDbCircle
 10
15.49221216833712
 20
18.63479784293338
 30
0.0
 40
1.399999999999999
100
AcDbArc
 50
180.0000000000016
 51
224.9999999999988
  0
LINE
  5
1A7C
330
1A
100
AcDbEntity
  8
ZUWAKU
100
AcDbLine
 10
23.54221216833718
 20
19.04999986828868
 30
0.0
 11
23.54221216833718
 21
11.34999986828869
 31
0.0
  0
LINE
  5
1A7D
330
1A
100
AcDbEntity
  8
ZUWAKU
100
AcDbLine
 10
20.74221216833711
 20
11.34999986828869
 30
0.0
 11
20.74221216833711
 21
19.04999986828864
 31
0.0
  0
ARC
  5
1A7E
330
1A
100
AcDbEntity
  8
ZUWAKU
100
AcDbCircle
 10
15.49221216833712
 20
18.63479784293338
 30
0.0
 40
4.199999999999999
100
AcDbArc
 50
180.0
 51
225.0
  0
ARC
  5
1A7F
330
1A
100
AcDbEntity
  8
ZUWAKU
100
AcDbCircle
 10
15.84221216833714
 20
9.949999868288685
 30
0.0
 40
2.799999999999999
100
AcDbArc
 50
270.0
 51
0.0
  0
ARC
  5
1A80
330
1A
100
AcDbEntity
  8
ZUWAKU
100
AcDbCircle
 10
24.94221216833716
 20
11.34999986828869
 30
0.0
 40
4.199999999999999
100
AcDbArc
 50
180.0
 51
270.0
  0
ARC
  5
1A81
330
1A
100
AcDbEntity
  8
ZUWAKU
100
AcDbCircle
 10
14.44221216833716
 20
11.76520189364399
 30
0.0
 40
4.199999999999999
100
AcDbArc
 50
0.0
 51
45.0
  0
LINE
  5
1A82
330
1A
100
AcDbEntity
  8
ZUWAKU
100
AcDbLine
 10
17.41206064932066
 20
14.73505037462751
 30
0.0
 11
14.50226267467598
 21
17.64484834927218
 31
0.0
  0
LINE
  5
1A83
330
1A
100
AcDbEntity
  8
ZUWAKU
100
AcDbLine
 10
15.84221216833714
 20
10.47499986828869
 30
0.0
 11
15.84221216833714
 21
11.76520189364403
 31
0.0
  0
ARC
  5
1A84
330
1A
100
AcDbEntity
  8
ZUWAKU
100
AcDbCircle
 10
15.31721216833716
 20
10.47499986828869
 30
0.0
 40
0.525
100
AcDbArc
 50
270.0
 51
0.0
  0
ARC
  5
1A85
330
1A
100
AcDbEntity
  8
ZUWAKU
100
AcDbCircle
 10
14.44221216833716
 20
11.76520189364403
 30
0.0
 40
1.399999999999999
100
AcDbArc
 50
0.0
 51
45.0
  0
LINE
  5
1A86
330
1A
100
AcDbEntity
  8
ZUWAKU
100
AcDbLine
 10
11.81721216833716
 20
7.674999868288686
 30
0.0
 11
11.81721216833716
 21
9.424999868288686
 31
0.0
  0
ARC
  5
1A87
330
1A
100
AcDbEntity
  8
ZUWAKU
100
AcDbCircle
 10
12.34221216833714
 20
7.674999868288686
 30
0.0
 40
0.525
100
AcDbArc
 50
180.0
 51
270.0
  0
ARC
  5
1A88
330
1A
100
AcDbEntity
  8
ZUWAKU
100
AcDbCircle
 10
12.34221216833714
 20
9.424999868288686
 30
0.0
 40
0.525
100
AcDbArc
 50
90.0
 51
180.0
  0
LINE
  5
1A89
330
1A
100
AcDbEntity
  8
ZUWAKU
100
AcDbLine
 10
12.34221216833714
 20
7.149999868288688
 30
0.0
 11
15.84221216833714
 21
7.149999868288688
 31
0.0
  0
LINE
  5
1A8A
330
1A
100
AcDbEntity
  8
ZUWAKU
100
AcDbLine
 10
12.34221216833714
 20
9.949999868288685
 30
0.0
 11
15.31721216833716
 21
9.949999868288685
 31
0.0
  0
LINE
  5
1A8B
330
1A
100
AcDbEntity
  8
ZUWAKU
100
AcDbLine
 10
12.52236368735361
 20
15.66494936194986
 30
0.0
 11
15.43216166199829
 21
12.7551513873052
 31
0.0
  0
LINE
  5
1A8C
330
1A
100
AcDbEntity
  8
ZUWAKU
100
AcDbLine
 10
18.64221216833721
 20
9.949999868288685
 30
0.0
 11
18.64221216833721
 21
11.76520189364403
 31
0.0
  0
ARC
  5
1A8D
330
1A
100
AcDbEntity
  8
ZUWAKU
100
AcDbCircle
 10
24.94221216833716
 20
11.34999986828869
 30
0.0
 40
1.399999999999999
100
AcDbArc
 50
180.0
 51
270.0
  0
ARC
  5
1A8E
330
1A
100
AcDbEntity
  8
ZUWAKU
100
AcDbCircle
 10
17.59221216833714
 20
22.72499986828868
 30
0.0
 40
0.525
100
AcDbArc
 50
0.0
 51
90.0
  0
ARC
  5
1A8F
330
1A
100
AcDbEntity
  8
ZUWAKU
100
AcDbCircle
 10
17.59221216833714
 20
20.97499986828868
 30
0.0
 40
0.525
100
AcDbArc
 50
270.0
 51
0.0
  0
LINE
  5
1A90
330
1A
100
AcDbEntity
  8
ZUWAKU
100
AcDbLine
 10
14.09221216833714
 20
23.24999986828868
 30
0.0
 11
17.59221216833714
 21
23.24999986828868
 31
0.0
  0
ARC
  5
1A91
330
1A
100
AcDbEntity
  8
ZUWAKU
100
AcDbCircle
 10
14.61721216833711
 20
19.92499986828868
 30
0.0
 40
0.525
100
AcDbArc
 50
90.0
 51
180.0
  0
LINE
  5
1A92
330
1A
100
AcDbEntity
  8
ZUWAKU
100
AcDbLine
 10
14.09221216833714
 20
19.92499986828868
 30
0.0
 11
14.09221216833714
 21
18.63479784293334
 31
0.0
  0
LINE
  5
1A93
330
1A
100
AcDbEntity
  8
ZUWAKU
100
AcDbLine
 10
17.59221216833714
 20
20.44999986828868
 30
0.0
 11
14.61721216833711
 21
20.44999986828868
 31
0.0
  0
LINE
  5
1A94
330
1A
100
AcDbEntity
  8
ZUWAKU
100
AcDbLine
 10
11.29221216833718
 20
20.44999986828868
 30
0.0
 11
11.29221216833718
 21
18.63479784293334
 31
0.0
  0
ARC
  5
1A95
330
1A
100
AcDbEntity
  8
ZUWAKU
100
AcDbCircle
 10
14.09221216833714
 20
20.44999986828868
 30
0.0
 40
2.799999999999999
100
AcDbArc
 50
90.0
 51
180.0
  0
LINE
  5
1A96
330
1A
100
AcDbEntity
  8
ZUWAKU
100
AcDbLine
 10
18.11721216833712
 20
22.72499986828868
 30
0.0
 11
18.11721216833712
 21
20.97499986828868
 31
0.0
  0
ARC
  5
1A97
330
1A
100
AcDbEntity
  8
ZUWAKU
100
AcDbCircle
 10
24.94221216833716
 20
19.04999986828868
 30
0.0
 40
1.399999999999999
100
AcDbArc
 50
90.0
 51
180.0
  0
ARC
  5
1A98
330
1A
100
AcDbEntity
  8
ZUWAKU
100
AcDbCircle
 10
24.94221216833716
 20
19.04999986828864
 30
0.0
 40
4.199999999999999
100
AcDbArc
 50
90.0
 51
180.0
  0
LINE
  5
1A99
330
1A
100
AcDbEntity
  8
ZUWAKU
100
AcDbLine
 10
79.32662956154422
 20
29.99999986828868
 30
0.0
 11
79.32662956154445
 21
0.7999998682887508
 31
0.0
  0
LINE
  5
1A9A
330
1A
100
AcDbEntity
  8
ZUWAKU
100
AcDbLine
 10
79.52662956154426
 20
29.99999986828868
 30
0.0
 11
79.52662956154449
 21
0.7999998682887508
 31
0.0
  0
LINE
  5
1A9B
330
1A
100
AcDbEntity
  8
ZUWAKU
100
AcDbLine
 10
79.12662956154441
 20
29.99999986828868
 30
0.0
 11
79.12662956154441
 21
0.7999998682887508
 31
0.0
  0
LINE
  5
1A9C
330
1A
100
AcDbEntity
  8
ZUWAKU
100
AcDbLine
 10
64.14221216833721
 20
9.949999868288685
 30
0.0
 11
64.14221216833721
 21
22.72499986828868
 31
0.0
  0
LINE
  5
1A9D
330
1A
100
AcDbEntity
  8
ZUWAKU
100
AcDbLine
 10
61.34221216833714
 20
22.72499986828868
 30
0.0
 11
61.34221216833714
 21
10.99999986828868
 31
0.0
  0
LINE
  5
1A9E
330
1A
100
AcDbEntity
  8
ZUWAKU
100
AcDbLine
 10
69.04221216833718
 20
7.674999868288686
 30
0.0
 11
69.04221216833718
 21
22.72499986828868
 31
0.0
  0
LINE
  5
1A9F
330
1A
100
AcDbEntity
  8
ZUWAKU
100
AcDbLine
 10
66.24221216833712
 20
22.72499986828868
 30
0.0
 11
66.24221216833712
 21
7.674999868288686
 31
0.0
  0
ARC
  5
1AA0
330
1A
100
AcDbEntity
  8
ZUWAKU
100
AcDbCircle
 10
49.79221216833718
 20
18.63479784293338
 30
0.0
 40
1.399999999999999
100
AcDbArc
 50
180.0000000000016
 51
224.9999999999988
  0
ARC
  5
1AA1
330
1A
100
AcDbEntity
  8
ZUWAKU
100
AcDbCircle
 10
49.79221216833718
 20
18.63479784293338
 30
0.0
 40
4.199999999999999
100
AcDbArc
 50
180.0
 51
225.0
  0
LINE
  5
1AA2
330
1A
100
AcDbEntity
  8
ZUWAKU
100
AcDbLine
 10
37.31485865051513
 20
19.20504706185211
 30
0.0
 11
36.05010690517929
 21
15.1999998682887
 31
0.0
  0
LINE
  5
1AA3
330
1A
100
AcDbEntity
  8
ZUWAKU
100
AcDbLine
 10
40.69221216833716
 20
22.72499986828868
 30
0.0
 11
40.69221216833716
 21
7.674999868288686
 31
0.0
  0
LINE
  5
1AA4
330
1A
100
AcDbEntity
  8
ZUWAKU
100
AcDbLine
 10
43.49221216833711
 20
7.674999868288686
 30
0.0
 11
43.49221216833711
 21
22.72499986828868
 31
0.0
  0
LINE
  5
1AA5
330
1A
100
AcDbEntity
  8
ZUWAKU
100
AcDbLine
 10
55.04221216833719
 20
22.72499986828868
 30
0.0
 11
55.04221216833719
 21
9.949999868288685
 31
0.0
  0
LINE
  5
1AA6
330
1A
100
AcDbEntity
  8
ZUWAKU
100
AcDbLine
 10
57.84221216833714
 20
10.99999986828868
 30
0.0
 11
57.84221216833714
 21
22.72499986828868
 31
0.0
  0
LINE
  5
1AA7
330
1A
100
AcDbEntity
  8
ZUWAKU
100
AcDbLine
 10
32.64221216833721
 20
17.12499986828869
 30
0.0
 11
32.64221216833721
 21
22.72499986828868
 31
0.0
  0
LINE
  5
1AA8
330
1A
100
AcDbEntity
  8
ZUWAKU
100
AcDbLine
 10
29.84221216833714
 20
22.72499986828868
 30
0.0
 11
29.84221216833714
 21
7.674999868288686
 31
0.0
  0
LINE
  5
1AA9
330
1A
100
AcDbEntity
  8
ZUWAKU
100
AcDbLine
 10
35.676347105653
 20
22.88309383645565
 30
0.0
 11
33.80807723102122
 21
16.96690590012171
 31
0.0
  0
LINE
  5
1AAA
330
1A
100
AcDbEntity
  8
ZUWAKU
100
AcDbLine
 10
60.29221216833718
 20
9.949999868288685
 30
0.0
 11
58.89221216833721
 21
9.949999868288685
 31
0.0
  0
LINE
  5
1AAB
330
1A
100
AcDbEntity
  8
ZUWAKU
100
AcDbLine
 10
57.84221216833714
 20
7.149999868288688
 30
0.0
 11
61.34221216833714
 21
7.149999868288688
 31
0.0
  0
LINE
  5
1AAC
330
1A
100
AcDbEntity
  8
ZUWAKU
100
AcDbLine
 10
41.21721216833714
 20
7.149999868288688
 30
0.0
 11
42.96721216833714
 21
7.149999868288688
 31
0.0
  0
LINE
  5
1AAD
330
1A
100
AcDbEntity
  8
ZUWAKU
100
AcDbLine
 10
35.676347105653
 20
7.516905900121713
 30
0.0
 11
33.80807723102122
 21
13.43309383645565
 31
0.0
  0
ARC
  5
1AAE
330
1A
100
AcDbEntity
  8
ZUWAKU
100
AcDbCircle
 10
33.30744633182587
 20
17.12499986828869
 30
0.0
 40
0.525
100
AcDbArc
 50
270.0
 51
342.4744316262769
  0
LINE
  5
1AAF
330
1A
100
AcDbEntity
  8
ZUWAKU
100
AcDbLine
 10
33.30744633182587
 20
16.59999986828868
 30
0.0
 11
33.16721216833718
 21
16.59999986828868
 31
0.0
  0
LINE
  5
1AB0
330
1A
100
AcDbEntity
  8
ZUWAKU
100
AcDbLine
 10
33.16721216833718
 20
13.79999986828868
 30
0.0
 11
33.30744633182587
 21
13.79999986828868
 31
0.0
  0
ARC
  5
1AB1
330
1A
100
AcDbEntity
  8
ZUWAKU
100
AcDbCircle
 10
33.16721216833718
 20
17.12499986828869
 30
0.0
 40
0.525
100
AcDbArc
 50
180.0
 51
270.0
  0
LINE
  5
1AB2
330
1A
100
AcDbEntity
  8
ZUWAKU
100
AcDbLine
 10
30.36721216833711
 20
7.149999868288688
 30
0.0
 11
32.11721216833712
 21
7.149999868288688
 31
0.0
  0
ARC
  5
1AB3
330
1A
100
AcDbEntity
  8
ZUWAKU
100
AcDbCircle
 10
32.11721216833712
 20
7.674999868288686
 30
0.0
 40
0.525
100
AcDbArc
 50
270.0
 51
0.0
  0
LINE
  5
1AB4
330
1A
100
AcDbEntity
  8
ZUWAKU
100
AcDbLine
 10
32.64221216833721
 20
7.674999868288686
 30
0.0
 11
32.64221216833721
 21
13.27499986828868
 31
0.0
  0
LINE
  5
1AB5
330
1A
100
AcDbEntity
  8
ZUWAKU
100
AcDbLine
 10
27.39221216833721
 20
9.424999868288686
 30
0.0
 11
27.39221216833721
 21
7.674999868288686
 31
0.0
  0
ARC
  5
1AB6
330
1A
100
AcDbEntity
  8
ZUWAKU
100
AcDbCircle
 10
26.86721216833712
 20
7.674999868288686
 30
0.0
 40
0.525
100
AcDbArc
 50
270.0
 51
0.0
  0
ARC
  5
1AB7
330
1A
100
AcDbEntity
  8
ZUWAKU
100
AcDbCircle
 10
26.86721216833712
 20
9.424999868288686
 30
0.0
 40
0.525
100
AcDbArc
 50
0.0
 51
90.0
  0
ARC
  5
1AB8
330
1A
100
AcDbEntity
  8
ZUWAKU
100
AcDbCircle
 10
30.36721216833711
 20
7.674999868288686
 30
0.0
 40
0.525
100
AcDbArc
 50
180.0
 51
270.0
  0
ARC
  5
1AB9
330
1A
100
AcDbEntity
  8
ZUWAKU
100
AcDbCircle
 10
33.30744633182587
 20
13.27499986828868
 30
0.0
 40
0.525
100
AcDbArc
 50
17.52556837372303
 51
90.0
  0
ARC
  5
1ABA
330
1A
100
AcDbEntity
  8
ZUWAKU
100
AcDbCircle
 10
33.16721216833718
 20
13.27499986828868
 30
0.0
 40
0.525
100
AcDbArc
 50
90.0
 51
180.0
  0
ARC
  5
1ABB
330
1A
100
AcDbEntity
  8
ZUWAKU
100
AcDbCircle
 10
41.21721216833714
 20
7.674999868288686
 30
0.0
 40
0.525
100
AcDbArc
 50
180.0
 51
270.0
  0
LINE
  5
1ABC
330
1A
100
AcDbEntity
  8
ZUWAKU
100
AcDbLine
 10
36.17697800484847
 20
7.149999868288688
 30
0.0
 11
37.87586738445748
 21
7.149999868288688
 31
0.0
  0
ARC
  5
1ABD
330
1A
100
AcDbEntity
  8
ZUWAKU
100
AcDbCircle
 10
37.87586738445748
 20
7.674999868288686
 30
0.0
 40
0.525
100
AcDbArc
 50
270.0
 51
17.52556837372303
  0
LINE
  5
1ABE
330
1A
100
AcDbEntity
  8
ZUWAKU
100
AcDbLine
 10
38.37649828365295
 20
7.83309383645566
 30
0.0
 11
36.05010690517929
 21
15.1999998682887
 31
0.0
  0
ARC
  5
1ABF
330
1A
100
AcDbEntity
  8
ZUWAKU
100
AcDbCircle
 10
36.17697800484847
 20
7.674999868288686
 30
0.0
 40
0.525
100
AcDbArc
 50
197.525568373723
 51
270.0
  0
ARC
  5
1AC0
330
1A
100
AcDbEntity
  8
ZUWAKU
100
AcDbCircle
 10
57.84221216833714
 20
9.949999868288685
 30
0.0
 40
2.799999999999999
100
AcDbArc
 50
180.0
 51
270.0
  0
ARC
  5
1AC1
330
1A
100
AcDbEntity
  8
ZUWAKU
100
AcDbCircle
 10
50.14221216833721
 20
9.949999868288685
 30
0.0
 40
2.799999999999999
100
AcDbArc
 50
270.0
 51
0.0
  0
LINE
  5
1AC2
330
1A
100
AcDbEntity
  8
ZUWAKU
100
AcDbLine
 10
51.71206064932073
 20
14.73505037462751
 30
0.0
 11
48.80226267467595
 21
17.64484834927218
 31
0.0
  0
LINE
  5
1AC3
330
1A
100
AcDbEntity
  8
ZUWAKU
100
AcDbLine
 10
50.14221216833721
 20
10.47499986828869
 30
0.0
 11
50.14221216833721
 21
11.76520189364403
 31
0.0
  0
ARC
  5
1AC4
330
1A
100
AcDbEntity
  8
ZUWAKU
100
AcDbCircle
 10
48.74221216833712
 20
11.76520189364403
 30
0.0
 40
1.399999999999999
100
AcDbArc
 50
0.0
 51
45.0
  0
ARC
  5
1AC5
330
1A
100
AcDbEntity
  8
ZUWAKU
100
AcDbCircle
 10
49.61721216833712
 20
10.47499986828869
 30
0.0
 40
0.525
100
AcDbArc
 50
270.0
 51
0.0
  0
LINE
  5
1AC6
330
1A
100
AcDbEntity
  8
ZUWAKU
100
AcDbLine
 10
46.11721216833712
 20
7.674999868288686
 30
0.0
 11
46.11721216833712
 21
9.424999868288686
 31
0.0
  0
ARC
  5
1AC7
330
1A
100
AcDbEntity
  8
ZUWAKU
100
AcDbCircle
 10
46.64221216833721
 20
7.674999868288686
 30
0.0
 40
0.525
100
AcDbArc
 50
180.0
 51
270.0
  0
ARC
  5
1AC8
330
1A
100
AcDbEntity
  8
ZUWAKU
100
AcDbCircle
 10
42.96721216833714
 20
7.674999868288686
 30
0.0
 40
0.525
100
AcDbArc
 50
270.0
 51
0.0
  0
ARC
  5
1AC9
330
1A
100
AcDbEntity
  8
ZUWAKU
100
AcDbCircle
 10
46.64221216833721
 20
9.424999868288686
 30
0.0
 40
0.525
100
AcDbArc
 50
90.0
 51
180.0
  0
LINE
  5
1ACA
330
1A
100
AcDbEntity
  8
ZUWAKU
100
AcDbLine
 10
46.64221216833721
 20
9.949999868288685
 30
0.0
 11
49.61721216833712
 21
9.949999868288685
 31
0.0
  0
LINE
  5
1ACB
330
1A
100
AcDbEntity
  8
ZUWAKU
100
AcDbLine
 10
46.64221216833721
 20
7.149999868288688
 30
0.0
 11
50.14221216833721
 21
7.149999868288688
 31
0.0
  0
LINE
  5
1ACC
330
1A
100
AcDbEntity
  8
ZUWAKU
100
AcDbLine
 10
46.82236368735368
 20
15.66494936194986
 30
0.0
 11
49.73216166199836
 21
12.7551513873052
 31
0.0
  0
LINE
  5
1ACD
330
1A
100
AcDbEntity
  8
ZUWAKU
100
AcDbLine
 10
52.94221216833716
 20
9.949999868288685
 30
0.0
 11
52.94221216833716
 21
11.76520189364403
 31
0.0
  0
ARC
  5
1ACE
330
1A
100
AcDbEntity
  8
ZUWAKU
100
AcDbCircle
 10
48.74221216833712
 20
11.76520189364399
 30
0.0
 40
4.199999999999999
100
AcDbArc
 50
0.0
 51
45.0
  0
ARC
  5
1ACF
330
1A
100
AcDbEntity
  8
ZUWAKU
100
AcDbCircle
 10
58.89221216833721
 20
10.99999986828868
 30
0.0
 40
1.049999999999999
100
AcDbArc
 50
180.0
 51
270.0
  0
ARC
  5
1AD0
330
1A
100
AcDbEntity
  8
ZUWAKU
100
AcDbCircle
 10
61.34221216833714
 20
9.949999868288685
 30
0.0
 40
2.799999999999999
100
AcDbArc
 50
270.0
 51
0.0
  0
LINE
  5
1AD1
330
1A
100
AcDbEntity
  8
ZUWAKU
100
AcDbLine
 10
66.76721216833721
 20
7.149999868288688
 30
0.0
 11
68.51721216833721
 21
7.149999868288688
 31
0.0
  0
ARC
  5
1AD2
330
1A
100
AcDbEntity
  8
ZUWAKU
100
AcDbCircle
 10
66.76721216833721
 20
7.674999868288686
 30
0.0
 40
0.525
100
AcDbArc
 50
180.0
 51
270.0
  0
ARC
  5
1AD3
330
1A
100
AcDbEntity
  8
ZUWAKU
100
AcDbCircle
 10
60.29221216833718
 20
10.99999986828868
 30
0.0
 40
1.049999999999999
100
AcDbArc
 50
270.0
 51
0.0
  0
ARC
  5
1AD4
330
1A
100
AcDbEntity
  8
ZUWAKU
100
AcDbCircle
 10
68.51721216833721
 20
7.674999868288686
 30
0.0
 40
0.525
100
AcDbArc
 50
270.0
 51
0.0
  0
LINE
  5
1AD5
330
1A
100
AcDbEntity
  8
ZUWAKU
100
AcDbLine
 10
42.96721216833714
 20
23.24999986828868
 30
0.0
 11
41.21721216833714
 21
23.24999986828868
 31
0.0
  0
ARC
  5
1AD6
330
1A
100
AcDbEntity
  8
ZUWAKU
100
AcDbCircle
 10
32.11721216833712
 20
22.72499986828868
 30
0.0
 40
0.525
100
AcDbArc
 50
0.0
 51
90.0
  0
LINE
  5
1AD7
330
1A
100
AcDbEntity
  8
ZUWAKU
100
AcDbLine
 10
32.11721216833712
 20
23.24999986828868
 30
0.0
 11
30.36721216833711
 21
23.24999986828868
 31
0.0
  0
ARC
  5
1AD8
330
1A
100
AcDbEntity
  8
ZUWAKU
100
AcDbCircle
 10
26.86721216833712
 20
22.72499986828868
 30
0.0
 40
0.525
100
AcDbArc
 50
0.0
 51
90.0
  0
ARC
  5
1AD9
330
1A
100
AcDbEntity
  8
ZUWAKU
100
AcDbCircle
 10
30.36721216833711
 20
22.72499986828868
 30
0.0
 40
0.525
100
AcDbArc
 50
90.0
 51
180.0
  0
ARC
  5
1ADA
330
1A
100
AcDbEntity
  8
ZUWAKU
100
AcDbCircle
 10
26.86721216833712
 20
20.97499986828868
 30
0.0
 40
0.525
100
AcDbArc
 50
270.0
 51
0.0
  0
LINE
  5
1ADB
330
1A
100
AcDbEntity
  8
ZUWAKU
100
AcDbLine
 10
27.39221216833721
 20
22.72499986828868
 30
0.0
 11
27.39221216833721
 21
20.97499986828868
 31
0.0
  0
ARC
  5
1ADC
330
1A
100
AcDbEntity
  8
ZUWAKU
100
AcDbCircle
 10
41.21721216833714
 20
22.72499986828868
 30
0.0
 40
0.525
100
AcDbArc
 50
90.0
 51
180.0
  0
LINE
  5
1ADD
330
1A
100
AcDbEntity
  8
ZUWAKU
100
AcDbLine
 10
36.17697800484847
 20
23.24999986828868
 30
0.0
 11
37.87586738445748
 21
23.24999986828868
 31
0.0
  0
ARC
  5
1ADE
330
1A
100
AcDbEntity
  8
ZUWAKU
100
AcDbCircle
 10
37.87586738445748
 20
22.72499986828868
 30
0.0
 40
0.525
100
AcDbArc
 50
342.4744316262769
 51
90.0
  0
LINE
  5
1ADF
330
1A
100
AcDbEntity
  8
ZUWAKU
100
AcDbLine
 10
38.37649828365295
 20
22.56690590012171
 30
0.0
 11
37.31485865051513
 21
19.20504706185211
 31
0.0
  0
ARC
  5
1AE0
330
1A
100
AcDbEntity
  8
ZUWAKU
100
AcDbCircle
 10
36.17697800484847
 20
22.72499986828868
 30
0.0
 40
0.525
100
AcDbArc
 50
90.0
 51
162.4744316262769
  0
LINE
  5
1AE1
330
1A
100
AcDbEntity
  8
ZUWAKU
100
AcDbLine
 10
48.3922121683372
 20
23.24999986828868
 30
0.0
 11
51.89221216833721
 21
23.24999986828868
 31
0.0
  0
LINE
  5
1AE2
330
1A
100
AcDbEntity
  8
ZUWAKU
100
AcDbLine
 10
51.89221216833721
 20
20.44999986828868
 30
0.0
 11
48.91721216833719
 21
20.44999986828868
 31
0.0
  0
ARC
  5
1AE3
330
1A
100
AcDbEntity
  8
ZUWAKU
100
AcDbCircle
 10
48.91721216833719
 20
19.92499986828868
 30
0.0
 40
0.525
100
AcDbArc
 50
90.0
 51
180.0
  0
LINE
  5
1AE4
330
1A
100
AcDbEntity
  8
ZUWAKU
100
AcDbLine
 10
48.3922121683372
 20
19.92499986828868
 30
0.0
 11
48.3922121683372
 21
18.63479784293334
 31
0.0
  0
ARC
  5
1AE5
330
1A
100
AcDbEntity
  8
ZUWAKU
100
AcDbCircle
 10
42.96721216833714
 20
22.72499986828868
 30
0.0
 40
0.525
100
AcDbArc
 50
0.0
 51
90.0
  0
LINE
  5
1AE6
330
1A
100
AcDbEntity
  8
ZUWAKU
100
AcDbLine
 10
45.59221216833714
 20
20.44999986828868
 30
0.0
 11
45.59221216833714
 21
18.63479784293334
 31
0.0
  0
ARC
  5
1AE7
330
1A
100
AcDbEntity
  8
ZUWAKU
100
AcDbCircle
 10
48.3922121683372
 20
20.44999986828868
 30
0.0
 40
2.799999999999999
100
AcDbArc
 50
90.0
 51
180.0
  0
ARC
  5
1AE8
330
1A
100
AcDbEntity
  8
ZUWAKU
100
AcDbCircle
 10
57.31721216833716
 20
22.72499986828868
 30
0.0
 40
0.525
100
AcDbArc
 50
0.0
 51
90.0
  0
ARC
  5
1AE9
330
1A
100
AcDbEntity
  8
ZUWAKU
100
AcDbCircle
 10
55.56721216833716
 20
22.72499986828868
 30
0.0
 40
0.525
100
AcDbArc
 50
90.0
 51
180.0
  0
LINE
  5
1AEA
330
1A
100
AcDbEntity
  8
ZUWAKU
100
AcDbLine
 10
57.31721216833716
 20
23.24999986828868
 30
0.0
 11
55.56721216833716
 21
23.24999986828868
 31
0.0
  0
ARC
  5
1AEB
330
1A
100
AcDbEntity
  8
ZUWAKU
100
AcDbCircle
 10
51.89221216833721
 20
22.72499986828868
 30
0.0
 40
0.525
100
AcDbArc
 50
0.0
 51
90.0
  0
ARC
  5
1AEC
330
1A
100
AcDbEntity
  8
ZUWAKU
100
AcDbCircle
 10
51.89221216833721
 20
20.97499986828868
 30
0.0
 40
0.525
100
AcDbArc
 50
270.0
 51
0.0
  0
LINE
  5
1AED
330
1A
100
AcDbEntity
  8
ZUWAKU
100
AcDbLine
 10
52.41721216833719
 20
22.72499986828868
 30
0.0
 11
52.41721216833719
 21
20.97499986828868
 31
0.0
  0
LINE
  5
1AEE
330
1A
100
AcDbEntity
  8
ZUWAKU
100
AcDbLine
 10
68.51721216833721
 20
23.24999986828868
 30
0.0
 11
66.76721216833721
 21
23.24999986828868
 31
0.0
  0
ARC
  5
1AEF
330
1A
100
AcDbEntity
  8
ZUWAKU
100
AcDbCircle
 10
66.76721216833721
 20
22.72499986828868
 30
0.0
 40
0.525
100
AcDbArc
 50
90.0
 51
180.0
  0
ARC
  5
1AF0
330
1A
100
AcDbEntity
  8
ZUWAKU
100
AcDbCircle
 10
63.61721216833712
 20
22.72499986828868
 30
0.0
 40
0.525
100
AcDbArc
 50
0.0
 51
90.0
  0
LINE
  5
1AF1
330
1A
100
AcDbEntity
  8
ZUWAKU
100
AcDbLine
 10
63.61721216833712
 20
23.24999986828868
 30
0.0
 11
61.86721216833712
 21
23.24999986828868
 31
0.0
  0
ARC
  5
1AF2
330
1A
100
AcDbEntity
  8
ZUWAKU
100
AcDbCircle
 10
61.86721216833712
 20
22.72499986828868
 30
0.0
 40
0.525
100
AcDbArc
 50
90.0
 51
180.0
  0
ARC
  5
1AF3
330
1A
100
AcDbEntity
  8
ZUWAKU
100
AcDbCircle
 10
68.51721216833721
 20
22.72499986828868
 30
0.0
 40
0.525
100
AcDbArc
 50
0.0
 51
90.0
  0
TEXT
  5
1AF4
330
1A
100
AcDbEntity
  8
MOJI
100
AcDbText
 10
232.5226814365626
 20
18.91468344045938
 30
0.0
 40
5.599999999999999
  1
止り（右・左）
 41
0.9
  7
ｽﾀｲﾙ1
100
AcDbText
  0
LINE
  5
1AF6
330
1A
100
AcDbEntity
  8
ZUWAKU
100
AcDbLine
 10
208.2466013036239
 20
29.99999986828868
 30
0.0
 11
208.2466013036239
 21
0.7999998682887508
 31
0.0
  0
LINE
  5
1AF7
330
1A
100
AcDbEntity
  8
ZUWAKU
100
AcDbLine
 10
208.6466013036238
 20
29.99999986828868
 30
0.0
 11
208.646601303624
 21
0.7999998682887508
 31
0.0
  0
LINE
  5
1AF8
330
1A
100
AcDbEntity
  8
ZUWAKU
100
AcDbLine
 10
208.4466013036237
 20
29.99999986828868
 30
0.0
 11
208.446601303624
 21
0.7999998682887508
 31
0.0
  0
TEXT
  5
1AF9
330
1A
100
AcDbEntity
  8
ZUWAKU
100
AcDbText
 10
209.7240463258335
 20
9.6553564066743
 30
0.0
 40
4.0
  1
サイズ
 41
0.9
  7
ｽﾀｲﾙ1
100
AcDbText
  0
TEXT
  5
1AFA
330
1A
100
AcDbEntity
  8
ZUWAKU
100
AcDbText
 10
209.7240463258333
 20
24.05535640667426
 30
0.0
 40
4.0
  1
品名
 41
0.9
  7
ｽﾀｲﾙ1
100
AcDbText
  0
LINE
  5
1AFB
330
1A
100
AcDbEntity
  8
ZUWAKU
100
AcDbLine
 10
648.8172025237602
 20
15.19999986828871
 30
0.0
 11
697.2490105620972
 21
15.19999986828871
 31
0.0
  0
LINE
  5
1AFC
330
1A
100
AcDbEntity
  8
ZUWAKU
100
AcDbLine
 10
648.8172025237604
 20
15.39999986828872
 30
0.0
 11
697.2490105620972
 21
15.39999986828871
 31
0.0
  0
LINE
  5
1AFD
330
1A
100
AcDbEntity
  8
ZUWAKU
100
AcDbLine
 10
648.8172025237602
 20
15.59999986828871
 30
0.0
 11
697.2490105620972
 21
15.59999986828871
 31
0.0
  0
TEXT
  5
1AFE
330
1A
100
AcDbEntity
  8
ZUWAKU
100
AcDbText
 10
658.2039377008584
 20
18.00492092569607
 30
0.0
 40
5.599999999999999
  1
　　．　　．　　
 41
0.9
  7
ｽﾀｲﾙ1
100
AcDbText
  0
LINE
  5
1AFF
330
1A
100
AcDbEntity
  8
ZUWAKU
100
AcDbLine
 10
505.1991795116968
 20
15.19999986828872
 30
0.0
 11
552.5269557796685
 21
15.19999986828872
 31
0.0
  0
LINE
  5
1B00
330
1A
100
AcDbEntity
  8
ZUWAKU
100
AcDbLine
 10
505.1991795116968
 20
15.39999986828871
 30
0.0
 11
552.5269557796685
 21
15.39999986828871
 31
0.0
  0
LINE
  5
1B01
330
1A
100
AcDbEntity
  8
ZUWAKU
100
AcDbLine
 10
505.1991795116968
 20
15.59999986828871
 30
0.0
 11
552.5269557796685
 21
15.59999986828871
 31
0.0
  0
LINE
  5
1B03
330
1A
100
AcDbEntity
  8
ZUWAKU
100
AcDbLine
 10
447.6243639845472
 20
29.99999986828868
 30
0.0
 11
447.6243639845474
 21
0.7999998682887508
 31
0.0
  0
LINE
  5
1B04
330
1A
100
AcDbEntity
  8
ZUWAKU
100
AcDbLine
 10
447.8243639845472
 20
29.99999986828868
 30
0.0
 11
447.8243639845475
 21
0.7999998682887508
 31
0.0
  0
LINE
  5
1B05
330
1A
100
AcDbEntity
  8
ZUWAKU
100
AcDbLine
 10
447.4243639845474
 20
29.99999986828868
 30
0.0
 11
447.4243639845474
 21
0.7999998682887508
 31
0.0
  0
TEXT
  5
1B06
330
1A
100
AcDbEntity
  8
MOJI
100
AcDbText
 10
528.0409079858689
 20
18.00492092569607
 30
0.0
 40
5.599999999999999
  1
Ａ３
 41
0.9
  7
ｽﾀｲﾙ1
100
AcDbText
  0
LINE
  5
1B07
330
1A
100
AcDbEntity
  8
ZUWAKU
100
AcDbLine
 10
504.9991795116969
 20
29.99999986828868
 30
0.0
 11
504.999179511697
 21
0.7999998682887508
 31
0.0
  0
LINE
  5
1B08
330
1A
100
AcDbEntity
  8
ZUWAKU
100
AcDbLine
 10
505.1991795116968
 20
29.99999986828868
 30
0.0
 11
505.1991795116971
 21
0.7999998682887508
 31
0.0
  0
LINE
  5
1B09
330
1A
100
AcDbEntity
  8
ZUWAKU
100
AcDbLine
 10
504.799179511697
 20
29.99999986828868
 30
0.0
 11
504.799179511697
 21
0.7999998682887508
 31
0.0
  0
TEXT
  5
1B0A
330
1A
100
AcDbEntity
  8
ZUWAKU
100
AcDbText
 10
462.0820952811575
 20
2.614070779428175
 30
0.0
 40
3.0
  1
□には色品番が入ります
 41
0.9
  7
ｽﾀｲﾙ1
100
AcDbText
  0
TEXT
  5
1B0B
330
1A
100
AcDbEntity
  8
ZUWAKU
100
AcDbText
 10
506.6766245339067
 20
9.6553564066743
 30
0.0
 40
4.0
  1
縮尺
 41
0.9
  7
ｽﾀｲﾙ1
100
AcDbText
  0
TEXT
  5
1B0C
330
1A
100
AcDbEntity
  8
MOJI
100
AcDbText
 10
528.0409079858689
 20
3.204920925696104
 30
0.0
 40
5.599999999999999
  1
１/２
 41
0.9
  7
ｽﾀｲﾙ1
100
AcDbText
  0
TEXT
  5
1B0D
330
1A
100
AcDbEntity
  8
ZUWAKU
100
AcDbText
 10
449.3018090067569
 20
24.05535640667426
 30
0.0
 40
4.0
  1
品番
 41
0.9
  7
ｽﾀｲﾙ1
100
AcDbText
  0
TEXT
  5
1B0E
330
1A
100
AcDbEntity
  8
ZUWAKU
100
AcDbText
 10
506.6766245339065
 20
24.05535640667426
 30
0.0
 40
4.0
  1
用紙
 41
0.9
  7
ｽﾀｲﾙ1
100
AcDbText
  0
LINE
  5
1B0F
330
1A
100
AcDbEntity
  8
ZUWAKU
100
AcDbLine
 10
648.6172025237603
 20
29.99999986828868
 30
0.0
 11
648.6172025237606
 21
0.7999998682887508
 31
0.0
  0
LINE
  5
1B10
330
1A
100
AcDbEntity
  8
ZUWAKU
100
AcDbLine
 10
648.8172025237604
 20
29.99999986828868
 30
0.0
 11
648.8172025237607
 21
0.7999998682887508
 31
0.0
  0
LINE
  5
1B11
330
1A
100
AcDbEntity
  8
ZUWAKU
100
AcDbLine
 10
648.4172025237605
 20
29.99999986828868
 30
0.0
 11
648.4172025237605
 21
0.7999998682887508
 31
0.0
  0
LINE
  5
1B12
330
1A
100
AcDbEntity
  8
ZUWAKU
100
AcDbLine
 10
552.7269557796683
 20
29.99999986828868
 30
0.0
 11
552.7269557796684
 21
0.7999998682887508
 31
0.0
  0
LINE
  5
1B13
330
1A
100
AcDbEntity
  8
ZUWAKU
100
AcDbLine
 10
552.9269557796683
 20
29.99999986828868
 30
0.0
 11
552.9269557796685
 21
0.7999998682887508
 31
0.0
  0
LINE
  5
1B14
330
1A
100
AcDbEntity
  8
ZUWAKU
100
AcDbLine
 10
552.5269557796685
 20
29.99999986828868
 30
0.0
 11
552.5269557796685
 21
0.7999998682887508
 31
0.0
  0
TEXT
  5
1B15
330
1A
100
AcDbEntity
  8
ZUWAKU
100
AcDbText
 10
650.29464754597
 20
24.05535640667426
 30
0.0
 40
4.0
  1
DATE
 41
0.9
  7
ｽﾀｲﾙ1
100
AcDbText
  0
LINE
  5
1B16
330
1A
100
AcDbEntity
  8
ZUWAKU
100
AcDbLine
 10
697.2490105620972
 20
29.99999986828868
 30
0.0
 11
697.2490105620972
 21
0.7999998682887508
 31
0.0
  0
LINE
  5
1B17
330
1A
100
AcDbEntity
  8
ZUWAKU
100
AcDbLine
 10
697.4490105620973
 20
29.99999986828868
 30
0.0
 11
697.4490105620973
 21
0.7999998682887508
 31
0.0
  0
LINE
  5
1B18
330
1A
100
AcDbEntity
  8
ZUWAKU
100
AcDbLine
 10
697.6490105620971
 20
29.99999986828868
 30
0.0
 11
697.6490105620974
 21
0.7999998682887508
 31
0.0
  0
LINE
  5
1B19
330
1A
100
AcDbEntity
  8
ZUWAKU
100
AcDbLine
 10
697.8490105620972
 20
29.99999986828868
 30
0.0
 11
697.8490105620974
 21
0.7999998682887508
 31
0.0
  0
TEXT
  5
1B1A
330
1A
100
AcDbEntity
  8
ZUWAKU
100
AcDbText
 10
708.5280842057998
 20
17.55383920397548
 30
0.0
 40
6.0
  1
積水化学工業株式会社
 41
0.9
  7
ｽﾀｲﾙ1
100
AcDbText
  0
TEXT
  5
1B1B
330
1A
100
AcDbEntity
  8
ZUWAKU
100
AcDbText
 10
708.5280842057998
 20
6.648840182142748
 30
0.0
 40
6.0
  1
建材事業部
 41
0.9
  7
ｽﾀｲﾙ1
100
AcDbText
  0
LINE
  5
217B
330
1A
100
AcDbEntity
  8
SEIHIN
100
AcDbLine
 10
86.12572413984526
 20
435.2178453268392
 30
0.0
 11
220.0263636225736
 21
435.21784532684
 31
0.0
  0
LINE
  5
217C
330
1A
100
AcDbEntity
  8
SEIHIN
100
AcDbLine
 10
191.857431236993
 20
420.71784532684
 30
0.0
 11
105.0387058219355
 21
420.7178453268392
 31
0.0
  0
LINE
  5
217D
330
1A
100
AcDbEntity
  8
SEIHIN
100
AcDbLine
 10
99.64409692646894
 20
410.7178453268391
 30
0.0
 11
194.3328191573495
 21
410.7178453268399
 31
0.0
  0
ARC
  5
2182
330
1A
100
AcDbEntity
  8
SEIHIN
100
AcDbCircle
 10
146.2246318515631
 20
276.1921811222954
 30
0.0
 40
1.996944955053405
100
AcDbArc
 50
269.994796504047
 51
330.0052034959695
  0
ARC
  5
218B
330
1A
100
AcDbEntity
  8
SEIHIN
100
AcDbCircle
 10
147.377568554165
 20
1186.195236175477
 30
0.0
 40
1002.5
100
AcDbArc
 50
267.3496035642254
 51
272.8125029569379
  0
LINE
  5
2190
330
1A
100
AcDbEntity
  8
SEIHIN
100
AcDbLine
 10
100.310642845461
 20
410.7178453268391
 30
0.0
 11
100.3106428454609
 21
420.7178453268392
 31
0.0
  0
LINE
  5
2192
330
1A
100
AcDbEntity
  8
SEIHIN
100
AcDbLine
 10
85.07756855418966
 20
415.2178453269344
 30
0.0
 11
86.12572413984526
 21
435.2178453268394
 31
0.0
  0
LINE
  5
2194
330
1A
100
AcDbEntity
  8
SEIHIN
100
AcDbLine
 10
96.07756855418566
 20
407.7178453268396
 30
0.0
 11
96.07756855418575
 21
435.2178453268396
 31
0.0
  0
LINE
  5
2196
330
1A
100
AcDbEntity
  8
SEIHIN
100
AcDbLine
 10
98.62669249236615
 20
435.2178453268396
 30
0.0
 11
98.62669249236653
 21
407.7178453268397
 31
0.0
  0
LINE
  5
2198
330
1A
100
AcDbEntity
  8
SEIHIN
100
AcDbLine
 10
85.07756855418938
 20
266.6952361754737
 30
0.0
 11
85.07756855419575
 21
255.4982735388713
 31
0.0
  0
LINE
  5
21A1
330
1A
100
AcDbEntity
  8
SEIHIN
100
AcDbLine
 10
85.39999631995669
 20
251.3303453677034
 30
0.0
 11
94.90663066324348
 21
190.2533360296047
 31
0.0
  0
ARC
  5
21B1
330
1A
100
AcDbEntity
  8
SEIHIN
100
AcDbCircle
 10
101.3173880008007
 20
191.2483378919961
 30
0.0
 40
6.487514034451631
100
AcDbArc
 50
188.8212848568274
 51
267.3307578400583
  0
LINE
  5
21B2
330
1A
100
AcDbEntity
  8
SEIHIN
100
AcDbLine
 10
101.0152630818688
 20
184.7678626871544
 30
0.0
 11
101.0203156989023
 21
184.7676276546652
 31
0.0
  0
LINE
  5
21B3
330
1A
100
AcDbEntity
  8
SEIHIN
100
AcDbLine
 10
94.90642802079037
 20
190.2546379409385
 30
0.0
 11
94.90661160598165
 21
190.2534584662618
 31
0.0
  0
ARC
  5
2202
330
1A
100
AcDbEntity
  8
SEIHIN
100
AcDbCircle
 10
112.1775685541956
 20
255.4982735388859
 30
0.0
 40
27.1000000000004
100
AcDbArc
 50
180.000000000026
 51
188.8470959281632
  0
ARC
  5
2213
330
1A
100
AcDbEntity
  8
SEIHIN
100
AcDbCircle
 10
92.58271837809024
 20
266.6900863467345
 30
0.0
 40
7.50515159073935
100
AcDbArc
 50
89.96073908735302
 51
179.9606852078085
  0
LINE
  5
2214
330
1A
100
AcDbEntity
  8
SEIHIN
100
AcDbLine
 10
146.2244504927425
 20
274.1952361754778
 30
0.0
 11
92.58786114901827
 21
274.1952361754778
 31
0.0
  0
LINE
  5
222D
330
1A
100
AcDbEntity
  8
SEIHIN
100
AcDbLine
 10
102.3479297276812
 20
435.217846077944
 30
0.0
 11
102.1198849279851
 21
420.7178453268392
 31
0.0
  0
LINE
  5
222F
330
1A
100
AcDbEntity
  8
SEIHIN
100
AcDbLine
 10
100.3106428454609
 20
420.7178453268392
 30
0.0
 11
105.0387058219355
 21
420.7178453268392
 31
0.0
  0
LINE
  5
2230
330
1A
100
AcDbEntity
  8
SEIHIN
100
AcDbLine
 10
100.3106428454609
 20
420.7178453268392
 30
0.0
 11
98.62669249236635
 21
420.7178453268394
 31
0.0
  0
ARC
  5
2238
330
1A
100
AcDbEntity
  8
SEIHIN
100
AcDbCircle
 10
102.7783505957753
 20
408.7225418697684
 30
0.0
 40
3.715478697202118
100
AcDbArc
 50
147.5186808212922
 51
189.7575429397647
  0
ARC
  5
2239
330
1A
100
AcDbEntity
  8
SEIHIN
100
AcDbCircle
 10
98.4269550463604
 20
408.0363581125069
 30
0.0
 40
0.6919753056564768
100
AcDbArc
 50
332.5938538975025
 51
4.68236986351965
  0
ARC
  5
223D
330
1A
100
AcDbEntity
  8
SEIHIN
100
AcDbCircle
 10
86.55061091373539
 20
406.2178453268394
 30
0.0
 40
1.000000000000282
100
AcDbArc
 50
183.0000000000062
 51
270.0000000000007
  0
LINE
  5
223E
330
1A
100
AcDbEntity
  8
SEIHIN
100
AcDbLine
 10
85.55198137898054
 20
406.1655093705963
 30
0.0
 11
85.07756855418966
 21
415.2178453269344
 31
0.0
  0
LINE
  5
2244
330
1A
100
AcDbEntity
  8
SEIHIN
100
AcDbLine
 10
96.07756855418566
 20
407.7178453268396
 30
0.0
 11
92.98091949379742
 21
407.7178453268395
 31
0.0
  0
LINE
  5
2277
330
1A
100
AcDbEntity
  8
SEIHIN
100
AcDbLine
 10
193.7606598264257
 20
420.71784532684
 30
0.0
 11
193.7606598264259
 21
410.7178453268399
 31
0.0
  0
LINE
  5
2278
330
1A
100
AcDbEntity
  8
SEIHIN
100
AcDbLine
 10
195.3200491230567
 20
407.7178453268241
 30
0.0
 11
195.3200491230565
 21
420.71784532684
 31
0.0
  0
POLYLINE
  5
227C
330
1A
100
AcDbEntity
  8
SEIHIN
100
AcDb2dPolyline
 66
     1
 10
0.0
 20
0.0
 30
0.0
  0
VERTEX
  5
4A2C
330
227C
100
AcDbEntity
  8
SEIHIN
100
AcDbVertex
100
AcDb2dVertex
 10
220.0263636225736
 20
435.2178453268404
 30
0.0
  0
VERTEX
  5
4A2D
330
227C
100
AcDbEntity
  8
SEIHIN
100
AcDbVertex
100
AcDb2dVertex
 10
220.4976825393501
 20
426.2313757207927
 30
0.0
  0
VERTEX
  5
4A2E
330
227C
100
AcDbEntity
  8
SEIHIN
100
AcDbVertex
100
AcDb2dVertex
 10
221.0752866125492
 20
415.2178453268399
 30
0.0
  0
SEQEND
  5
4A2F
330
227C
100
AcDbEntity
  8
SEIHIN
  0
LINE
  5
227D
330
1A
100
AcDbEntity
  8
SEIHIN
100
AcDbLine
 10
209.8219159483536
 20
407.7178453268405
 30
0.0
 11
209.8219159483537
 21
435.2178453268404
 31
0.0
  0
ARC
  5
2293
330
1A
100
AcDbEntity
  8
SEIHIN
100
AcDbCircle
 10
-781.4222982842639
 20
306.1791698373446
 30
0.0
 40
1002.500000000685
100
AcDbArc
 50
353.9654893668821
 51
359.8742339462678
  0
LINE
  5
229C
330
1A
100
AcDbEntity
  8
SEIHIN
100
AcDbLine
 10
199.4056241832122
 20
187.6359560876861
 30
0.0
 11
200.3907322560207
 21
198.9829792069007
 31
0.0
  0
LINE
  5
22AC
330
1A
100
AcDbEntity
  8
SEIHIN
100
AcDbLine
 10
196.5679637423832
 20
184.9027938684229
 30
0.0
 11
196.5710339235492
 21
184.9029456073791
 31
0.0
  0
ARC
  5
22AD
330
1A
100
AcDbEntity
  8
SEIHIN
100
AcDbCircle
 10
196.4234108759783
 20
187.8925315998504
 30
0.0
 40
2.993228519601844
100
AcDbArc
 50
272.8269175515565
 51
355.0239866084311
  0
LINE
  5
22AE
330
1A
100
AcDbEntity
  8
SEIHIN
100
AcDbLine
 10
199.4053582110264
 20
187.6329029004399
 30
0.0
 11
199.4056241832122
 21
187.6359560876861
 31
0.0
  0
LINE
  5
22C2
330
1A
100
AcDbEntity
  8
SEIHIN
100
AcDbLine
 10
95.11865124397614
 20
199.8952361755269
 30
0.0
 11
214.5295076682173
 21
199.8952361755269
 31
0.0
  0
LINE
  5
22EB
330
1A
100
AcDbEntity
  8
SEIHIN
100
AcDbLine
 10
201.3858001842822
 20
199.8952361755269
 30
0.0
 11
201.3856195395319
 21
199.8952361673952
 31
0.0
  0
LINE
  5
22EC
330
1A
100
AcDbEntity
  8
SEIHIN
100
AcDbLine
 10
200.3907322560207
 20
198.9829792069009
 30
0.0
 11
200.3908097494131
 21
198.9838691613577
 31
0.0
  0
ARC
  5
22ED
330
1A
100
AcDbEntity
  8
SEIHIN
100
AcDbCircle
 10
201.3851021194241
 20
198.8971712511526
 30
0.0
 40
0.998065050374617
100
AcDbArc
 50
89.97029551292566
 51
175.0166820915677
  0
ARC
  5
2364
330
1A
100
AcDbEntity
  8
SEIHIN
100
AcDbCircle
 10
214.5297870698618
 20
200.8935552153199
 30
0.0
 40
0.9983190788917307
100
AcDbArc
 50
269.9839645103992
 51
353.9815248565351
  0
LINE
  5
23A2
330
1A
100
AcDbEntity
  8
SEIHIN
100
AcDbLine
 10
215.5514938484343
 20
308.3643424618545
 30
0.0
 11
168.2582293279956
 21
308.3643424618545
 31
0.0
  0
LINE
  5
23A3
330
1A
100
AcDbEntity
  8
SEIHIN
100
AcDbLine
 10
166.5285522358622
 20
307.3657129270997
 30
0.0
 11
147.9541275848764
 21
275.1938657102324
 31
0.0
  0
ARC
  5
23A4
330
1A
100
AcDbEntity
  8
SEIHIN
100
AcDbCircle
 10
168.258047969176
 20
306.3673975150346
 30
0.0
 40
1.996944955055172
100
AcDbArc
 50
89.99479650407309
 51
150.0052034959212
  0
ARC
  5
23B0
330
1A
100
AcDbEntity
  8
SEIHIN
100
AcDbCircle
 10
216.5735122552578
 20
303.9842114126344
 30
0.0
 40
4.501777789684576
100
AcDbArc
 50
359.929247116796
 51
103.3499204861718
  0
LINE
  5
23C1
330
1A
100
AcDbEntity
  8
SEIHIN
100
AcDbLine
 10
209.8219159483539
 20
420.71784532684
 30
0.0
 11
197.5583307225871
 21
420.71784532684
 31
0.0
  0
LINE
  5
23C7
330
1A
100
AcDbEntity
  8
SEIHIN
100
AcDbLine
 10
191.857431236993
 20
420.71784532684
 30
0.0
 11
193.7606598264257
 21
420.71784532684
 31
0.0
  0
LINE
  5
23CA
330
1A
100
AcDbEntity
  8
SEIHIN
100
AcDbLine
 10
195.3200491230565
 20
420.71784532684
 30
0.0
 11
193.7606598264257
 21
420.71784532684
 31
0.0
  0
LINE
  5
23CB
330
1A
100
AcDbEntity
  8
SEIHIN
100
AcDbLine
 10
195.3200491230565
 20
420.71784532684
 30
0.0
 11
197.5583307225871
 21
420.71784532684
 31
0.0
  0
LINE
  5
2657
330
1A
100
AcDbEntity
  8
SEIHIN
100
AcDbLine
 10
219.6019706173182
 20
405.2178453268402
 30
0.0
 11
86.55061091373539
 21
405.2178453268395
 31
0.0
  0
LINE
  5
2658
330
1A
100
AcDbEntity
  8
SEIHIN
100
AcDbLine
 10
216.180351068051
 20
407.7178453268403
 30
0.0
 11
92.98091949379742
 21
407.7178453268397
 31
0.0
  0
ARC
  5
265A
330
1A
100
AcDbEntity
  8
SEIHIN
100
AcDbCircle
 10
195.4855435618123
 20
407.999212016247
 30
0.0
 40
0.8636065561855511
100
AcDbArc
 50
173.7756839056485
 51
199.0143075601
  0
ARC
  5
265B
330
1A
100
AcDbEntity
  8
SEIHIN
100
AcDbCircle
 10
186.4913093967228
 20
408.5099851829467
 30
0.0
 40
8.14640544909195
100
AcDbArc
 50
357.0648637444621
 51
15.72512772133413
  0
ARC
  5
2675
330
1A
100
AcDbEntity
  8
SEIHIN
100
AcDbCircle
 10
219.6019706173182
 20
406.2178438171416
 30
0.0
 40
0.9999984903025753
100
AcDbArc
 50
270.0000715280093
 51
357.0000820849569
  0
LINE
  5
2679
330
1A
100
AcDbEntity
  8
SEIHIN
100
AcDbLine
 10
220.6005987194225
 20
406.1655093705976
 30
0.0
 11
220.681952980004
 21
407.7178453044932
 31
0.0
  0
LINE
  5
267E
330
1A
100
AcDbEntity
  8
SEIHIN
100
AcDbLine
 10
221.0752866125492
 20
415.2178453268399
 30
0.0
 11
220.6819529811781
 21
407.7178453268404
 31
0.0
  0
LINE
  5
267F
330
1A
100
AcDbEntity
  8
SEIHIN
100
AcDbLine
 10
220.6819651987552
 20
407.7178453268404
 30
0.0
 11
220.6001225435715
 21
406.1561943161097
 31
0.0
  0
LINE
  5
29F8
330
1A
100
AcDbEntity
  8
SEIHIN
100
AcDbLine
 10
307.3027675489341
 20
201.3682039886239
 30
0.0
 11
307.3025128703586
 21
303.85950589189
 31
0.0
  0
LINE
  5
29F9
330
1A
100
AcDbEntity
  8
SEIHIN
100
AcDbLine
 10
337.3025021789137
 20
308.1621434107626
 30
0.0
 11
337.3028088596884
 21
184.7433917611382
 31
0.0
  0
POLYLINE
  5
2B81
330
1A
100
AcDbEntity
  8
SEIHIN
100
AcDb2dPolyline
 66
     1
 10
0.0
 20
0.0
 30
0.0
  0
VERTEX
  5
4A30
330
2B81
100
AcDbEntity
  8
SEIHIN
100
AcDbVertex
100
AcDb2dVertex
 10
337.3028059730111
 20
185.9050886756901
 30
0.0
  0
VERTEX
  5
4A31
330
2B81
100
AcDbEntity
  8
SEIHIN
100
AcDbVertex
100
AcDb2dVertex
 10
331.3173174348741
 20
185.605023915998
 30
0.0
  0
VERTEX
  5
4A32
330
2B81
100
AcDbEntity
  8
SEIHIN
100
AcDbVertex
100
AcDb2dVertex
 10
317.3028084636546
 20
184.9027441708243
 30
0.0
  0
SEQEND
  5
4A33
330
2B81
100
AcDbEntity
  8
SEIHIN
  0
LINE
  5
2B83
330
1A
100
AcDbEntity
  8
SEIHIN
100
AcDbLine
 10
337.3028088596888
 20
184.7433917611382
 30
0.0
 11
317.3028114642904
 21
183.6951864778829
 31
0.0
  0
LINE
  5
2B85
330
1A
100
AcDbEntity
  8
SEIHIN
100
AcDbLine
 10
337.3027686046341
 20
200.9433917611378
 30
0.0
 11
317.3027712092361
 21
199.8951864778823
 31
0.0
  0
LINE
  5
2B8C
330
1A
100
AcDbEntity
  8
SEIHIN
100
AcDbLine
 10
310.3028003782508
 20
188.1565766981965
 30
0.0
 11
310.3027726557324
 21
199.3130589719913
 31
0.0
  0
ARC
  5
2B8F
330
1A
100
AcDbEntity
  8
SEIHIN
100
AcDbCircle
 10
312.3014114913409
 20
187.2476567586989
 30
0.0
 40
1.998609144448514
100
AcDbArc
 50
180.0310036427821
 51
265.9516594033854
  0
ARC
  5
2B91
330
1A
100
AcDbEntity
  8
SEIHIN
100
AcDbCircle
 10
312.3028055944276
 20
186.0574124602787
 30
0.0
 40
1.999999999999965
100
AcDbArc
 50
180.0001423731306
 51
265.9145255931529
  0
LINE
  5
2B94
330
1A
100
AcDbEntity
  8
SEIHIN
100
AcDbLine
 10
317.302795798049
 20
184.9028959097492
 30
0.0
 11
312.1603134907491
 21
185.2540344608444
 31
0.0
  0
LINE
  5
2B96
330
1A
100
AcDbEntity
  8
SEIHIN
100
AcDbLine
 10
317.3028084636546
 20
184.9027441708245
 30
0.0
 11
317.3027957980472
 21
184.9028959097492
 31
0.0
  0
LINE
  5
2B9A
330
1A
100
AcDbEntity
  8
SEIHIN
100
AcDbLine
 10
317.3028114642904
 20
183.6951864778829
 30
0.0
 11
312.1603164515827
 21
184.0624947065426
 31
0.0
  0
LINE
  5
2B9B
330
1A
100
AcDbEntity
  8
SEIHIN
100
AcDbLine
 10
310.3028055944342
 20
186.0574074905189
 30
0.0
 11
310.3028026394951
 21
187.2465752800719
 31
0.0
  0
LINE
  5
2B9C
330
1A
100
AcDbEntity
  8
SEIHIN
100
AcDbLine
 10
310.3028026394951
 20
187.2465752800719
 30
0.0
 11
310.3028003782508
 21
188.1565766981965
 31
0.0
  0
LINE
  5
2BA0
330
1A
100
AcDbEntity
  8
SEIHIN
100
AcDbLine
 10
317.3027712092361
 20
199.8951864778823
 30
0.0
 11
308.2504340741626
 21
200.3695768087039
 31
0.0
  0
LINE
  5
2BA3
330
1A
100
AcDbEntity
  8
SEIHIN
100
AcDbLine
 10
317.3027712092366
 20
199.8951864778823
 30
0.0
 11
317.3027710540718
 21
199.8951864697501
 31
0.0
  0
POLYLINE
  5
2BA9
330
1A
100
AcDbEntity
  8
SEIHIN
100
AcDb2dPolyline
 66
     1
 10
0.0
 20
0.0
 30
0.0
  0
VERTEX
  5
4A34
330
2BA9
100
AcDbEntity
  8
SEIHIN
100
AcDbVertex
100
AcDb2dVertex
 10
310.3027726557324
 20
199.3130589719913
 30
0.0
  0
VERTEX
  5
4A35
330
2BA9
100
AcDbEntity
  8
SEIHIN
100
AcDbVertex
100
AcDb2dVertex
 10
310.3025954856535
 20
199.331879578612
 30
0.0
  0
VERTEX
  5
4A36
330
2BA9
100
AcDbEntity
  8
SEIHIN
100
AcDbVertex
100
AcDb2dVertex
 10
310.3020641317143
 20
199.3506935172162
 30
0.0
  0
SEQEND
  5
4A37
330
2BA9
100
AcDbEntity
  8
SEIHIN
  0
ARC
  5
2BAA
330
1A
100
AcDbEntity
  8
SEIHIN
100
AcDbCircle
 10
308.3027675489097
 20
201.3682064735049
 30
0.0
 40
1.000000000000018
100
AcDbArc
 50
180.0001423731957
 51
267.0001423743512
  0
ARC
  5
2BAC
330
1A
100
AcDbEntity
  8
SEIHIN
100
AcDbCircle
 10
309.3027726557354
 20
199.3130564871114
 30
0.0
 40
0.9999999999999779
100
AcDbArc
 50
2.156952420024163
 51
87.00014237315114
  0
LINE
  5
2C2F
330
1A
100
AcDbEntity
  8
SEIHIN
100
AcDbLine
 10
317.3026945665009
 20
308.4848918038136
 30
0.0
 11
337.3026555193046
 21
308.1621409362206
 31
0.0
  0
LINE
  5
2C31
330
1A
100
AcDbEntity
  8
SEIHIN
100
AcDbLine
 10
309.8025152388247
 20
308.3638300924724
 30
0.0
 11
317.3023088148736
 21
308.4848497558059
 31
0.0
  0
ARC
  5
2C34
330
1A
100
AcDbEntity
  8
SEIHIN
100
AcDbCircle
 10
308.3025043601935
 20
307.2842863542854
 30
0.0
 40
1.000000032755067
100
AcDbArc
 50
93.00014227477365
 51
180.0001423731306
  0
LINE
  5
2C35
330
1A
100
AcDbEntity
  8
SEIHIN
100
AcDbLine
 10
308.2501659224762
 20
308.2829157917881
 30
0.0
 11
309.8025016765582
 21
308.3642741272756
 31
0.0
  0
LINE
  5
2C38
330
1A
100
AcDbEntity
  8
SEIHIN
100
AcDbLine
 10
307.3025128703586
 20
303.85950589189
 30
0.0
 11
307.3025043601966
 21
307.2842838694055
 31
0.0
  0
ARC
  5
2C3C
330
1A
100
AcDbEntity
  8
SEIHIN
100
AcDbCircle
 10
95.11865124397614
 20
201.8952361755269
 30
0.0
 40
2.0
100
AcDbArc
 50
188.8470959281628
 51
270.0
  0
LINE
  5
2C9F
330
1A
100
AcDbEntity
  8
SEIHIN
100
AcDbLine
 10
197.4889165819899
 20
435.2178451370656
 30
0.0
 11
197.2164693116133
 21
420.7178453268403
 31
0.0
  0
DIMENSION
  5
2CA0
330
1A
100
AcDbEntity
  8
SUNPOU
100
AcDbDimension
  2
*D1
 10
258.8242585351617
 20
183.6962392888698
 30
0.0
 11
253.8242585351617
 21
246.0302908753622
 31
0.0
 70
    32
  3
STANDARD
100
AcDbAlignedDimension
 13
215.5340627570353
 23
308.3643424618545
 33
0.0
 14
148.7957509634418
 24
183.6962392888698
 34
0.0
 50
90.0
100
AcDbRotatedDimension
1001
ACAD
1000
DSTYLE
1002
{
1070
    41
1040
7.0
1070
    42
1040
6.0
1070
    43
1040
14.0
1070
    44
1040
3.0
1070
    73
1070
     0
1070
    74
1070
     0
1070
    77
1070
     3
1070
   140
1040
6.0
1070
   141
1040
150.0
1070
   147
1040
2.0
1070
   172
1070
     1
1070
   173
1070
     1
1070
   176
1070
   256
1070
   177
1070
   256
1070
   178
1070
   256
1070
   271
1070
     0
1070
   272
1070
     0
1070
   341
1005
6D
1070
     6
1000
OPEN
1070
     7
1000
OPEN
1070
   371
1070
    -1
1070
   372
1070
    -1
1002
}
  0
DIMENSION
  5
2CAD
330
1A
100
AcDbEntity
  8
SUNPOU
100
AcDbDimension
  2
*D2
 10
147.3775685541651
 20
335.8671349578053
 30
0.0
 11
116.2275685541758
 21
340.8671349578053
 31
0.0
 70
    32
  3
STANDARD
100
AcDbAlignedDimension
 13
85.07756855418657
 23
266.6952361754742
 33
0.0
 14
147.3775685541651
 24
274.1952361754778
 34
0.0
100
AcDbRotatedDimension
1001
ACAD
1000
DSTYLE
1002
{
1070
    41
1040
7.0
1070
    42
1040
6.0
1070
    43
1040
14.0
1070
    44
1040
3.0
1070
    73
1070
     0
1070
    74
1070
     0
1070
    77
1070
     3
1070
   140
1040
6.0
1070
   141
1040
150.0
1070
   147
1040
2.0
1070
   172
1070
     1
1070
   173
1070
     1
1070
   176
1070
   256
1070
   177
1070
   256
1070
   178
1070
   256
1070
   271
1070
     0
1070
   272
1070
     0
1070
   341
1005
6D
1070
     6
1000
OPEN
1070
     7
1000
OPEN
1070
   371
1070
    -1
1070
   372
1070
    -1
1002
}
  0
DIMENSION
  5
2CBA
330
1A
100
AcDbEntity
  8
SUNPOU
100
AcDbDimension
  2
*D3
 10
167.1051112665736
 20
335.8671349578053
 30
0.0
 11
157.2413399103693
 21
340.8671349578053
 31
0.0
 70
    32
  3
STANDARD
100
AcDbAlignedDimension
 13
147.3775685541651
 23
274.1952361754778
 33
0.0
 14
167.1051112665736
 24
308.3643424618545
 34
0.0
100
AcDbRotatedDimension
1001
ACAD
1000
DSTYLE
1002
{
1070
   287
1070
     4
1070
   287
1070
     4
1070
   287
1070
     4
1070
   287
1070
     4
1070
   279
1070
     1
1070
    41
1040
7.0
1070
    42
1040
6.0
1070
    43
1040
14.0
1070
    44
1040
3.0
1070
    73
1070
     0
1070
    74
1070
     0
1070
    77
1070
     3
1070
   140
1040
6.0
1070
   141
1040
150.0
1070
   147
1040
2.0
1070
   172
1070
     1
1070
   173
1070
     1
1070
   176
1070
   256
1070
   177
1070
   256
1070
   178
1070
   256
1070
   271
1070
     0
1070
   272
1070
     0
1070
   341
1005
6D
1070
     6
1000
OPEN
1070
     7
1000
OPEN
1070
   371
1070
    -1
1070
   372
1070
    -1
1002
}
  0
DIMENSION
  5
2CC7
330
1A
100
AcDbEntity
  8
SUNPOU
100
AcDbDimension
  2
*D4
 10
221.0752866125492
 20
350.7432578577127
 30
0.0
 11
153.0764275833679
 21
355.7432578577127
 31
0.0
 70
    32
  3
STANDARD
100
AcDbAlignedDimension
 13
85.07756855418657
 23
266.6952361754742
 33
0.0
 14
221.0752866125492
 24
303.9786523002426
 34
0.0
100
AcDbRotatedDimension
1001
ACAD
1000
DSTYLE
1002
{
1070
    41
1040
7.0
1070
    42
1040
6.0
1070
    43
1040
14.0
1070
    44
1040
3.0
1070
    73
1070
     0
1070
    74
1070
     0
1070
    77
1070
     3
1070
   140
1040
6.0
1070
   141
1040
150.0
1070
   147
1040
2.0
1070
   172
1070
     1
1070
   173
1070
     1
1070
   176
1070
   256
1070
   177
1070
   256
1070
   178
1070
   256
1070
   271
1070
     0
1070
   272
1070
     0
1070
   341
1005
6D
1070
     6
1000
OPEN
1070
     7
1000
OPEN
1070
   371
1070
    -1
1070
   372
1070
    -1
1002
}
  0
DIMENSION
  5
2CD4
330
1A
100
AcDbEntity
  8
SUNPOU
100
AcDbDimension
  2
*D5
 10
55.22839538007337
 20
183.6962392888698
 30
0.0
 11
50.22839538007334
 21
228.9457377321737
 31
0.0
 70
    32
  3
STANDARD
100
AcDbAlignedDimension
 13
92.58786114917132
 23
274.1952361754777
 33
0.0
 14
148.7957509634418
 24
183.6962392888698
 34
0.0
 50
90.0
100
AcDbRotatedDimension
1001
ACAD
1000
DSTYLE
1002
{
1070
    41
1040
7.0
1070
    42
1040
6.0
1070
    43
1040
14.0
1070
    44
1040
3.0
1070
    73
1070
     0
1070
    74
1070
     0
1070
    77
1070
     3
1070
   140
1040
6.0
1070
   141
1040
150.0
1070
   147
1040
2.0
1070
   172
1070
     1
1070
   173
1070
     1
1070
   176
1070
   256
1070
   177
1070
   256
1070
   178
1070
   256
1070
   271
1070
     0
1070
   272
1070
     0
1070
   341
1005
6D
1070
     6
1000
OPEN
1070
     7
1000
OPEN
1070
   371
1070
    -1
1070
   372
1070
    -1
1002
}
  0
LINE
  5
2CE1
330
1A
100
AcDbEntity
  8
SEIHIN
100
AcDbLine
 10
167.1051112665736
 20
405.21784532684
 30
0.0
 11
167.1051112665736
 21
407.7178453268401
 31
0.0
  0
LINE
  5
2CE2
330
1A
100
AcDbEntity
  8
SEIHIN
100
AcDbLine
 10
147.3775685541651
 20
405.2178453268399
 30
0.0
 11
147.3775685541651
 21
407.7178453268399
 31
0.0
  0
DIMENSION
  5
2CF2
330
1A
100
AcDbEntity
  8
SUNPOU
100
AcDbDimension
  2
*D6
 10
251.597975984233
 20
411.21784532684
 30
0.0
 11
246.5979759842329
 21
423.2178453268401
 31
0.0
 70
    32
  1
\U+203B<>
  3
STANDARD
100
AcDbAlignedDimension
 13
220.0263636225736
 23
435.21784532684
 33
0.0
 14
220.865508675818
 24
411.21784532684
 34
0.0
 50
90.0
100
AcDbRotatedDimension
1001
ACAD
1000
DSTYLE
1002
{
1070
    41
1040
7.0
1070
    42
1040
6.0
1070
    43
1040
14.0
1070
    44
1040
3.0
1070
    73
1070
     0
1070
    74
1070
     0
1070
    77
1070
     3
1070
   140
1040
6.0
1070
   141
1040
150.0
1070
   147
1040
2.0
1070
   172
1070
     1
1070
   173
1070
     1
1070
   176
1070
   256
1070
   177
1070
   256
1070
   178
1070
   256
1070
   271
1070
     0
1070
   272
1070
     0
1070
   341
1005
6D
1070
     6
1000
OPEN
1070
     7
1000
OPEN
1070
   371
1070
    -1
1070
   372
1070
    -1
1002
}
  0
DIMENSION
  5
2CFF
330
1A
100
AcDbEntity
  8
SUNPOU
100
AcDbDimension
  2
*D7
 10
268.4662835203798
 20
405.2178453268399
 30
0.0
 11
263.4662835203797
 21
420.2178453268402
 31
0.0
 70
    32
  3
STANDARD
100
AcDbAlignedDimension
 13
220.0263636225736
 23
435.2178453268404
 33
0.0
 14
219.6019718657156
 24
405.2178453268399
 34
0.0
 50
90.0
100
AcDbRotatedDimension
1001
ACAD
1000
DSTYLE
1002
{
1070
    41
1040
7.0
1070
    42
1040
6.0
1070
    43
1040
14.0
1070
    44
1040
3.0
1070
    73
1070
     0
1070
    74
1070
     0
1070
    77
1070
     3
1070
   140
1040
6.0
1070
   141
1040
150.0
1070
   147
1040
2.0
1070
   172
1070
     1
1070
   173
1070
     1
1070
   176
1070
   256
1070
   177
1070
   256
1070
   178
1070
   256
1070
   271
1070
     0
1070
   272
1070
     0
1070
   341
1005
6D
1070
     6
1000
OPEN
1070
     7
1000
OPEN
1070
   371
1070
    -1
1070
   372
1070
    -1
1002
}
  0
LINE
  5
2F68
330
1A
100
AcDbEntity
  8
NOKITOI
100
AcDbLine
 10
198.4819406585104
 20
295.461531625566
 30
0.0
 11
207.0887890979133
 21
297.3442797216855
 31
0.0
  0
ARC
  5
2F69
330
1A
100
AcDbEntity
  8
NOKITOI
100
AcDbCircle
 10
204.1592590889852
 20
292.5852386571012
 30
0.0
 40
2.600000000000022
100
AcDbArc
 50
90.0
 51
199.983106521899
  0
ARC
  5
2F6A
330
1A
100
AcDbEntity
  8
NOKITOI
100
AcDbCircle
 10
204.0164890897967
 20
292.6852386571012
 30
0.0
 40
1.000000000000003
100
AcDbArc
 50
90.0
 51
199.983106521899
  0
LINE
  5
2F6B
330
1A
100
AcDbEntity
  8
NOKITOI
100
AcDbLine
 10
198.2041347160634
 20
296.8338662691447
 30
0.0
 11
211.8452253524799
 21
299.8178548458607
 31
0.0
  0
LINE
  5
2F6C
330
1A
100
AcDbEntity
  8
NOKITOI
100
AcDbLine
 10
198.1613953403023
 20
297.029246272624
 30
0.0
 11
211.8024859767188
 21
300.01323484934
 31
0.0
  0
ARC
  5
2F6D
330
1A
100
AcDbEntity
  8
NOKITOI
100
AcDbCircle
 10
203.8749391019714
 20
288.6852386571012
 30
0.0
 40
0.5
100
AcDbArc
 50
270.0
 51
19.983106521899
  0
LINE
  5
2F6E
330
1A
100
AcDbEntity
  8
NOKITOI
100
AcDbLine
 10
201.1887890979132
 20
278.1852386571011
 30
0.0
 11
209.7663513943964
 21
278.1852386571011
 31
0.0
  0
LINE
  5
2F6F
330
1A
100
AcDbEntity
  8
NOKITOI
100
AcDbLine
 10
201.0887890979131
 20
276.6852386571012
 30
0.0
 11
209.7663513943964
 21
276.6852386571012
 31
0.0
  0
LINE
  5
2F70
330
1A
100
AcDbEntity
  8
NOKITOI
100
AcDbLine
 10
203.0766956663085
 20
292.3434955940145
 30
0.0
 11
204.3448358137156
 21
288.8561101886446
 31
0.0
  0
LINE
  5
2F71
330
1A
100
AcDbEntity
  8
NOKITOI
100
AcDbLine
 10
216.1049844544256
 20
264.1852386571016
 30
0.0
 11
200.4232048961978
 21
272.7305490616791
 31
0.0
  0
LINE
  5
2F72
330
1A
100
AcDbEntity
  8
NOKITOI
100
AcDbLine
 10
216.1739262771286
 20
265.855918334818
 30
0.0
 11
201.0887890979131
 21
274.0761065611212
 31
0.0
  0
LINE
  5
2F73
330
1A
100
AcDbEntity
  8
NOKITOI
100
AcDbLine
 10
212.6678072157908
 20
213.398031907821
 30
0.0
 11
198.7351137949197
 21
209.7981890307418
 31
0.0
  0
LINE
  5
2F74
330
1A
100
AcDbEntity
  8
NOKITOI
100
AcDbLine
 10
198.7020899580643
 20
211.3389154855491
 30
0.0
 11
212.8146789230259
 21
214.985238657102
 31
0.0
  0
LINE
  5
2F75
330
1A
100
AcDbEntity
  8
NOKITOI
100
AcDbLine
 10
198.2265721809996
 20
203.985238657102
 30
0.0
 11
211.7442250688081
 21
203.985238657102
 31
0.0
  0
LINE
  5
2F76
330
1A
100
AcDbEntity
  8
NOKITOI
100
AcDbLine
 10
212.2855033925755
 20
202.385238657102
 30
0.0
 11
199.1033145247859
 21
202.385238657102
 31
0.0
  0
LINE
  5
2F77
330
1A
100
AcDbEntity
  8
NOKITOI
100
AcDbLine
 10
212.2855033925755
 20
202.5852386571019
 30
0.0
 11
199.1033145247859
 21
202.5852386571019
 31
0.0
  0
ARC
  5
2F78
330
1A
100
AcDbEntity
  8
NOKITOI
100
AcDbCircle
 10
-781.4112109028221
 20
306.1852386571014
 30
0.0
 40
998.4000000000001
100
AcDbArc
 50
354.7589449387014
 51
357.5890093519107
  0
ARC
  5
2F79
330
1A
100
AcDbEntity
  8
NOKITOI
100
AcDbCircle
 10
-781.4112109028221
 20
306.1852386571014
 30
0.0
 40
1000.000000000736
100
AcDbArc
 50
354.0936427757306
 51
359.9204083262002
  0
ARC
  5
2F7A
330
1A
100
AcDbEntity
  8
NOKITOI
100
AcDbCircle
 10
-781.4112109028221
 20
306.1852386571014
 30
0.0
 40
999.800000000736
100
AcDbArc
 50
354.0936427757306
 51
359.9204083262002
  0
ARC
  5
2F7B
330
1A
100
AcDbEntity
  8
NOKITOI
100
AcDbCircle
 10
212.2855033925755
 20
203.385238657102
 30
0.0
 40
1.000000000000155
100
AcDbArc
 50
270.0
 51
354.0936427757306
  0
ARC
  5
2F7C
330
1A
100
AcDbEntity
  8
NOKITOI
100
AcDbCircle
 10
212.2855033925755
 20
203.385238657102
 30
0.0
 40
0.8000000000001556
100
AcDbArc
 50
270.0
 51
354.0936427757306
  0
ARC
  5
2F7D
330
1A
100
AcDbEntity
  8
NOKITOI
100
AcDbCircle
 10
-781.4112109028221
 20
306.1852386571014
 30
0.0
 40
998.4000000000001
100
AcDbArc
 50
354.1246961102887
 51
354.6674698050168
  0
ARC
  5
2F7E
330
1A
100
AcDbEntity
  8
NOKITOI
100
AcDbCircle
 10
-781.4112109028221
 20
306.1852386571014
 30
0.0
 40
998.3999999999999
100
AcDbArc
 50
357.6849672569224
 51
358.5085720402685
  0
ARC
  5
2F7F
330
1A
100
AcDbEntity
  8
NOKITOI
100
AcDbCircle
 10
209.796996287502
 20
286.6852386571012
 30
0.0
 40
7.000000000000182
100
AcDbArc
 50
358.8729677691559
 51
90.0
  0
ARC
  5
2F80
330
1A
100
AcDbEntity
  8
NOKITOI
100
AcDbCircle
 10
209.7663513943964
 20
285.1852386571012
 30
0.0
 40
7.000000000000047
100
AcDbArc
 50
270.0
 51
358.7862604751557
  0
ARC
  5
2F81
330
1A
100
AcDbEntity
  8
NOKITOI
100
AcDbCircle
 10
-781.4112109028221
 20
306.1852386571014
 30
0.0
 40
998.4000000007354
100
AcDbArc
 50
358.7862604751557
 51
358.8729677691559
  0
ARC
  5
2F82
330
1A
100
AcDbEntity
  8
NOKITOI
100
AcDbCircle
 10
209.7663513943964
 20
285.1852386571012
 30
0.0
 40
8.500000000000021
100
AcDbArc
 50
270.0
 51
324.0868502451821
  0
LINE
  5
2F83
330
1A
100
AcDbEntity
  8
NOKITOI
100
AcDbLine
 10
207.0887890979133
 20
295.1852386571012
 30
0.0
 11
204.1592590889852
 21
295.1852386571012
 31
0.0
  0
LINE
  5
2F84
330
1A
100
AcDbEntity
  8
NOKITOI
100
AcDbLine
 10
207.0887890979133
 20
295.1852386571012
 30
0.0
 11
207.0887890979133
 21
297.3442797216855
 31
0.0
  0
LINE
  5
2F85
330
1A
100
AcDbEntity
  8
NOKITOI
100
AcDbLine
 10
208.5887890979133
 20
297.6724047216854
 30
0.0
 11
208.5887890979133
 21
295.1852386571012
 31
0.0
  0
ARC
  5
2F86
330
1A
100
AcDbEntity
  8
NOKITOI
100
AcDbCircle
 10
216.4845314951128
 20
303.2702250940499
 30
0.0
 40
0.5000000000000031
100
AcDbArc
 50
359.8326303117348
 51
108.4349488229281
  0
LINE
  5
2F87
330
1A
100
AcDbEntity
  8
NOKITOI
100
AcDbLine
 10
212.9306752149048
 20
304.2992006960985
 30
0.0
 11
217.2715974464258
 21
305.7461747732721
 31
0.0
  0
LINE
  5
2F88
330
1A
100
AcDbEntity
  8
NOKITOI
100
AcDbLine
 10
212.9939207681081
 20
304.1094640364884
 30
0.0
 11
217.3348429996292
 21
305.556438113662
 31
0.0
  0
ARC
  5
2F89
330
1A
100
AcDbEntity
  8
NOKITOI
100
AcDbCircle
 10
217.5878252124427
 20
304.7974914752216
 30
0.0
 40
1.000000000000119
100
AcDbArc
 50
359.9204083262002
 51
108.4349488229281
  0
ARC
  5
2F8A
330
1A
100
AcDbEntity
  8
NOKITOI
100
AcDbCircle
 10
217.5878252124427
 20
304.7974914752216
 30
0.0
 40
0.8000000000001193
100
AcDbArc
 50
359.9204083262002
 51
108.4349488229281
  0
LINE
  5
2F8B
330
1A
100
AcDbEntity
  8
NOKITOI
100
AcDbLine
 10
212.5887890979133
 20
300.9901348667363
 30
0.0
 11
212.5887890979133
 21
303.8248590470733
 31
0.0
  0
ARC
  5
2F8C
330
1A
100
AcDbEntity
  8
NOKITOI
100
AcDbCircle
 10
214.6887890979133
 20
302.6716442949834
 30
0.0
 40
0.5
100
AcDbArc
 50
108.4349488229281
 51
180.0
  0
LINE
  5
2F8D
330
1A
100
AcDbEntity
  8
NOKITOI
100
AcDbLine
 10
212.7887890979134
 20
300.9901348667363
 30
0.0
 11
212.7887890979134
 21
303.8248590470733
 31
0.0
  0
LINE
  5
2F8E
330
1A
100
AcDbEntity
  8
NOKITOI
100
AcDbLine
 10
214.5306752149049
 20
303.1459859440087
 30
0.0
 11
216.3264176121044
 21
303.7445667430751
 31
0.0
  0
ARC
  5
2F8F
330
1A
100
AcDbEntity
  8
NOKITOI
100
AcDbCircle
 10
213.1887890979133
 20
299.7023009313203
 30
0.0
 40
1.0
100
AcDbArc
 50
282.3390872783254
 51
0.000000000000007
  0
LINE
  5
2F90
330
1A
100
AcDbEntity
  8
NOKITOI
100
AcDbLine
 10
214.1887890979132
 20
299.7023009313203
 30
0.0
 11
214.1887890979132
 21
302.6716442949834
 31
0.0
  0
ARC
  5
2F91
330
1A
100
AcDbEntity
  8
NOKITOI
100
AcDbCircle
 10
211.5887890979133
 20
300.9901348667363
 30
0.0
 40
1.00000000000001
100
AcDbArc
 50
282.3390872783254
 51
0.000000000000007
  0
ARC
  5
2F92
330
1A
100
AcDbEntity
  8
NOKITOI
100
AcDbCircle
 10
213.0887890979134
 20
303.8248590470733
 30
0.0
 40
0.5000000000000077
100
AcDbArc
 50
108.4349488229281
 51
180.0
  0
ARC
  5
2F93
330
1A
100
AcDbEntity
  8
NOKITOI
100
AcDbCircle
 10
211.5887890979133
 20
300.9901348667363
 30
0.0
 40
1.20000000000001
100
AcDbArc
 50
282.3390872783254
 51
0.000000000000007
  0
ARC
  5
2F94
330
1A
100
AcDbEntity
  8
NOKITOI
100
AcDbCircle
 10
213.0887890979134
 20
303.8248590470733
 30
0.0
 40
0.3000000000000076
100
AcDbArc
 50
108.4349488229281
 51
180.0
  0
ARC
  5
2F95
330
1A
100
AcDbEntity
  8
NOKITOI
100
AcDbCircle
 10
209.796996287502
 20
286.6852386571012
 30
0.0
 40
8.500000000000023
100
AcDbArc
 50
33.57237799913035
 51
90.0
  0
ARC
  5
2F96
330
1A
100
AcDbEntity
  8
NOKITOI
100
AcDbCircle
 10
-781.4112109028221
 20
306.1852386571014
 30
0.0
 40
998.3999999999998
100
AcDbArc
 50
359.1506562040411
 51
359.8326303117381
  0
LINE
  5
2F97
330
1A
100
AcDbEntity
  8
NOKITOI
100
AcDbLine
 10
208.5887890979133
 20
297.6724047216854
 30
0.0
 11
213.4024859767186
 21
298.7254009139241
 31
0.0
  0
LINE
  5
2F98
330
1A
100
AcDbEntity
  8
NOKITOI
100
AcDbLine
 10
209.796996287502
 20
295.1852386571012
 30
0.0
 11
208.5887890979133
 21
295.1852386571012
 31
0.0
  0
LINE
  5
2F99
330
1A
100
AcDbEntity
  8
NOKITOI
100
AcDbLine
 10
209.796996287502
 20
293.6852386571012
 30
0.0
 11
204.0164890897967
 21
293.6852386571012
 31
0.0
  0
LINE
  5
2F9A
330
1A
100
AcDbEntity
  8
NOKITOI
100
AcDbLine
 10
89.4574681391548
 20
251.1042036747991
 30
0.0
 11
98.74716551628967
 21
192.1666662025298
 31
0.0
  0
LINE
  5
2F9B
330
1A
100
AcDbEntity
  8
NOKITOI
100
AcDbLine
 10
97.24294051873016
 20
191.4337095692804
 30
0.0
 11
87.87698040459213
 21
250.8550881977695
 31
0.0
  0
LINE
  5
2F9C
330
1A
100
AcDbEntity
  8
NOKITOI
100
AcDbLine
 10
97.44050148555061
 20
191.4648490039093
 30
0.0
 11
88.07454137141235
 21
250.8862276323982
 31
0.0
  0
ARC
  5
2F9D
330
1A
100
AcDbEntity
  8
NOKITOI
100
AcDbCircle
 10
147.376979323498
 20
1186.185238657102
 30
0.0
 40
998.3999999999999
100
AcDbArc
 50
267.4248220357511
 51
272.6568708406924
  0
ARC
  5
2F9E
330
1A
100
AcDbEntity
  8
NOKITOI
100
AcDbCircle
 10
147.376979323498
 20
1186.185238657102
 30
0.0
 40
1000.0
100
AcDbArc
 50
267.3966081957834
 51
272.7372129944707
  0
ARC
  5
2F9F
330
1A
100
AcDbEntity
  8
NOKITOI
100
AcDbCircle
 10
147.376979323498
 20
1186.185238657102
 30
0.0
 40
999.8000000000002
100
AcDbArc
 50
267.3966081957834
 51
272.7372129944707
  0
ARC
  5
2FA0
330
1A
100
AcDbEntity
  8
NOKITOI
100
AcDbCircle
 10
199.1033145247859
 20
201.385238657102
 30
0.0
 40
1.200000000000007
100
AcDbArc
 50
90.0
 51
175.000250855899
  0
LINE
  5
2FA1
330
1A
100
AcDbEntity
  8
NOKITOI
100
AcDbLine
 10
195.5570204281457
 20
190.6820149344298
 30
0.0
 11
197.2100173126427
 21
209.576808584247
 31
0.0
  0
LINE
  5
2FA2
330
1A
100
AcDbEntity
  8
NOKITOI
100
AcDbLine
 10
198.107119445113
 20
201.4723900382481
 30
0.0
 11
197.0290680570048
 21
189.1495848876502
 31
0.0
  0
LINE
  5
2FA3
330
1A
100
AcDbEntity
  8
NOKITOI
100
AcDbLine
 10
197.9078804291784
 20
201.4898203144772
 30
0.0
 11
196.8298290410702
 21
189.1670151638794
 31
0.0
  0
ARC
  5
2FA4
330
1A
100
AcDbEntity
  8
NOKITOI
100
AcDbCircle
 10
199.1033145247859
 20
201.385238657102
 30
0.0
 40
1.000000000000007
100
AcDbArc
 50
90.0
 51
175.000250855899
  0
ARC
  5
2FA5
330
1A
100
AcDbEntity
  8
NOKITOI
100
AcDbCircle
 10
193.5646302688001
 20
190.8563176967219
 30
0.0
 40
1.999999999999942
100
AcDbArc
 50
272.6568708406924
 51
355.0002508558989
  0
ARC
  5
2FA6
330
1A
100
AcDbEntity
  8
NOKITOI
100
AcDbCircle
 10
195.0366778976592
 20
189.3238876499423
 30
0.0
 40
2.000000000000289
100
AcDbArc
 50
272.7372129944707
 51
355.0002508558989
  0
ARC
  5
2FA7
330
1A
100
AcDbEntity
  8
NOKITOI
100
AcDbCircle
 10
195.0366778976592
 20
189.3238876499423
 30
0.0
 40
1.800000000000289
100
AcDbArc
 50
272.7372129944707
 51
355.0002508558989
  0
LINE
  5
2FA8
330
1A
100
AcDbEntity
  8
CENTER_L
100
AcDbLine
 10
147.3769793234982
 20
178.0379371894408
 30
0.0
 11
147.3769793234982
 21
194.7325401247631
 31
0.0
  0
ARC
  5
2FA9
330
1A
100
AcDbEntity
  8
NOKITOI
100
AcDbCircle
 10
199.2024074719884
 20
209.402505821955
 30
0.0
 40
2.000000000000012
100
AcDbArc
 50
104.4869068005426
 51
175.000250855899
  0
LINE
  5
2FAA
330
1A
100
AcDbEntity
  8
NOKITOI
100
AcDbLine
 10
198.7351137949197
 20
209.7981890307418
 30
0.0
 11
198.2265721809996
 21
203.985238657102
 31
0.0
  0
ARC
  5
2FAB
330
1A
100
AcDbEntity
  8
NOKITOI
100
AcDbCircle
 10
102.1819646892397
 20
192.2121954349985
 30
0.0
 40
4.999999999999973
100
AcDbArc
 50
188.9572322369672
 51
267.3966081957834
  0
ARC
  5
2FAC
330
1A
100
AcDbEntity
  8
NOKITOI
100
AcDbCircle
 10
102.6983848526972
 20
192.7894548951043
 30
0.0
 40
4.000000000000015
100
AcDbArc
 50
188.9572322369672
 51
267.4248220357511
  0
ARC
  5
2FAD
330
1A
100
AcDbEntity
  8
NOKITOI
100
AcDbCircle
 10
102.1819646892397
 20
192.2121954349985
 30
0.0
 40
4.799999999999973
100
AcDbArc
 50
188.9572322369672
 51
267.3966081957834
  0
ARC
  5
2FAE
330
1A
100
AcDbEntity
  8
NOKITOI
100
AcDbCircle
 10
201.1887890979132
 20
274.1354977547224
 30
0.0
 40
1.600000000000008
100
AcDbArc
 50
180.0
 51
241.4131638781137
  0
ARC
  5
2FAF
330
1A
100
AcDbEntity
  8
NOKITOI
100
AcDbCircle
 10
201.7333891141459
 20
290.1852386571012
 30
0.0
 40
0.5
100
AcDbArc
 50
270.0
 51
19.983106521899
  0
ARC
  5
2FB0
330
1A
100
AcDbEntity
  8
NOKITOI
100
AcDbCircle
 10
201.5887890979131
 20
293.1852386571012
 30
0.0
 40
3.499999999999985
100
AcDbArc
 50
180.0
 51
270.0
  0
ARC
  5
2FB1
330
1A
100
AcDbEntity
  8
NOKITOI
100
AcDbCircle
 10
201.5887890979131
 20
293.1852386571012
 30
0.0
 40
4.999999999999985
100
AcDbArc
 50
180.0
 51
270.0
  0
LINE
  5
2FB2
330
1A
100
AcDbEntity
  8
NOKITOI
100
AcDbLine
 10
201.7333891141459
 20
289.6852386571012
 30
0.0
 11
201.5887890979131
 21
289.6852386571012
 31
0.0
  0
LINE
  5
2FB3
330
1A
100
AcDbEntity
  8
NOKITOI
100
AcDbLine
 10
203.8749391019714
 20
288.1852386571012
 30
0.0
 11
201.5887890979131
 21
288.1852386571012
 31
0.0
  0
ARC
  5
2FB4
330
1A
100
AcDbEntity
  8
NOKITOI
100
AcDbCircle
 10
201.1887890979132
 20
276.5852386571012
 30
0.0
 40
1.600000000000008
100
AcDbArc
 50
90.0
 51
180.0
  0
LINE
  5
2FB5
330
1A
100
AcDbEntity
  8
NOKITOI
100
AcDbLine
 10
199.5887890979131
 20
274.1354977547224
 30
0.0
 11
199.5887890979131
 21
276.5852386571012
 31
0.0
  0
LINE
  5
2FB6
330
1A
100
AcDbEntity
  8
NOKITOI
100
AcDbLine
 10
201.0887890979131
 20
274.0761065611212
 30
0.0
 11
201.0887890979131
 21
276.6852386571012
 31
0.0
  0
ARC
  5
2FB7
330
1A
100
AcDbEntity
  8
NOKITOI
100
AcDbCircle
 10
198.5887890979131
 20
295.0754462378315
 30
0.0
 40
2.0
100
AcDbArc
 50
102.3390872783254
 51
180.0
  0
ARC
  5
2FB8
330
1A
100
AcDbEntity
  8
NOKITOI
100
AcDbCircle
 10
198.5887890979131
 20
294.9730816168679
 30
0.0
 40
0.5
100
AcDbArc
 50
102.3390872783254
 51
180.0
  0
ARC
  5
2FB9
330
1A
100
AcDbEntity
  8
NOKITOI
100
AcDbCircle
 10
198.5693609845011
 20
294.877190487827
 30
0.0
 40
1.990469879287869
100
AcDbArc
 50
100.5729609616686
 51
174.2837196292088
  0
LINE
  5
2FBA
330
1A
100
AcDbEntity
  8
NOKITOI
100
AcDbLine
 10
201.7157961879151
 20
291.6967066930757
 30
0.0
 11
202.2032858258901
 21
290.3561101886446
 31
0.0
  0
LINE
  5
2FBB
330
1A
100
AcDbEntity
  8
NOKITOI
100
AcDbLine
 10
196.5887890979131
 20
293.1852386571012
 30
0.0
 11
196.5887890979131
 21
295.0754462378314
 31
0.0
  0
LINE
  5
2FBC
330
1A
100
AcDbEntity
  8
NOKITOI
100
AcDbLine
 10
198.0887890979131
 20
293.1852386571012
 30
0.0
 11
198.0887890979131
 21
294.9730816168679
 31
0.0
  0
LINE
  5
2FBD
330
1A
100
AcDbEntity
  8
NOKITOI
100
AcDbLine
 10
95.65811815358211
 20
252.6852386571027
 30
0.0
 11
94.73294031148999
 21
255.4607721833789
 31
0.0
  0
LINE
  5
2FBE
330
1A
100
AcDbEntity
  8
NOKITOI
100
AcDbLine
 10
95.81135667484318
 20
270.5155890818301
 30
0.0
 11
102.5769793234978
 21
251.1852386571027
 31
0.0
  0
LINE
  5
2FBF
330
1A
100
AcDbEntity
  8
NOKITOI
100
AcDbLine
 10
87.57697932349833
 20
254.6852386571021
 30
0.0
 11
87.57697932349788
 21
266.1852386571021
 31
0.0
  0
LINE
  5
2FC0
330
1A
100
AcDbEntity
  8
NOKITOI
100
AcDbLine
 10
87.77697932349838
 20
254.6852386571021
 30
0.0
 11
87.77697932349793
 21
266.1852386571021
 31
0.0
  0
LINE
  5
2FC1
330
1A
100
AcDbEntity
  8
NOKITOI
100
AcDbLine
 10
94.54775781596664
 20
269.5852386571022
 30
0.0
 11
100.4627578159666
 21
252.6852386571027
 31
0.0
  0
LINE
  5
2FC2
330
1A
100
AcDbEntity
  8
NOKITOI
100
AcDbLine
 10
102.5769793234978
 20
251.1852386571027
 30
0.0
 11
94.57697932349788
 21
251.1852386571027
 31
0.0
  0
LINE
  5
2FC3
330
1A
100
AcDbEntity
  8
NOKITOI
100
AcDbLine
 10
100.4627578159666
 20
252.6852386571027
 30
0.0
 11
95.65811815358211
 21
252.6852386571027
 31
0.0
  0
ARC
  5
2FC4
330
1A
100
AcDbEntity
  8
NOKITOI
100
AcDbCircle
 10
112.1769793234987
 20
254.6852386571021
 30
0.0
 40
23.00000000000073
100
AcDbArc
 50
180.0
 51
188.9572322369672
  0
ARC
  5
2FC5
330
1A
100
AcDbEntity
  8
NOKITOI
100
AcDbCircle
 10
112.1769793234987
 20
254.6852386571021
 30
0.0
 40
24.60000000000039
100
AcDbArc
 50
180.0
 51
188.9572322369672
  0
ARC
  5
2FC6
330
1A
100
AcDbEntity
  8
NOKITOI
100
AcDbCircle
 10
112.1769793234987
 20
254.6852386571021
 30
0.0
 40
24.40000000000039
100
AcDbArc
 50
180.0
 51
188.9572322369672
  0
LINE
  5
2FC7
330
1A
100
AcDbEntity
  8
NOKITOI
100
AcDbLine
 10
94.57697932349788
 20
251.1852386571027
 30
0.0
 11
93.57697932349788
 21
254.1852386571028
 31
0.0
  0
LINE
  5
2FC8
330
1A
100
AcDbEntity
  8
NOKITOI
100
AcDbLine
 10
89.1769793234978
 20
255.1852386571027
 30
0.0
 11
89.17697932349801
 21
254.6852386571021
 31
0.0
  0
LINE
  5
2FC9
330
1A
100
AcDbEntity
  8
NOKITOI
100
AcDbLine
 10
93.57697932349788
 20
254.1852386571028
 30
0.0
 11
89.1769793234978
 21
255.1852386571027
 31
0.0
  0
LINE
  5
2FCA
330
1A
100
AcDbEntity
  8
NOKITOI
100
AcDbLine
 10
92.57697932349788
 20
271.185238657102
 30
0.0
 11
94.86749831847715
 21
271.185238657102
 31
0.0
  0
LINE
  5
2FCB
330
1A
100
AcDbEntity
  8
NOKITOI
100
AcDbLine
 10
92.57697932349788
 20
270.985238657102
 30
0.0
 11
94.86749831847715
 21
270.985238657102
 31
0.0
  0
ARC
  5
2FCC
330
1A
100
AcDbEntity
  8
NOKITOI
100
AcDbCircle
 10
94.86749831847715
 20
270.1852386571021
 30
0.0
 40
1.000000000000013
100
AcDbArc
 50
19.29004621918627
 51
90.0
  0
ARC
  5
2FCD
330
1A
100
AcDbEntity
  8
NOKITOI
100
AcDbCircle
 10
94.95278618687166
 20
269.9733778613982
 30
0.0
 40
1.015448812288253
100
AcDbArc
 50
32.27355362046989
 51
94.8179667126743
  0
LINE
  5
2FCE
330
1A
100
AcDbEntity
  8
NOKITOI
100
AcDbLine
 10
92.57697932349788
 20
269.5852386571022
 30
0.0
 11
94.54775781596664
 21
269.5852386571022
 31
0.0
  0
ARC
  5
2FCF
330
1A
100
AcDbEntity
  8
NOKITOI
100
AcDbCircle
 10
92.57697932349788
 20
266.1852386571021
 30
0.0
 40
5.000000000000028
100
AcDbArc
 50
90.0
 51
180.0
  0
ARC
  5
2FD0
330
1A
100
AcDbEntity
  8
NOKITOI
100
AcDbCircle
 10
92.57697932349788
 20
266.1852386571021
 30
0.0
 40
3.400000000000034
100
AcDbArc
 50
90.0
 51
180.0
  0
ARC
  5
2FD1
330
1A
100
AcDbEntity
  8
NOKITOI
100
AcDbCircle
 10
92.57697932349788
 20
266.1852386571021
 30
0.0
 40
4.800000000000028
100
AcDbArc
 50
90.0
 51
180.0
  0
LINE
  5
2FD2
330
1A
100
AcDbEntity
  8
NOKITOI
100
AcDbLine
 10
94.73294031148999
 20
255.4607721833789
 30
0.0
 11
89.1769793234978
 21
256.7234905897407
 31
0.0
  0
LINE
  5
2FD3
330
1A
100
AcDbEntity
  8
NOKITOI
100
AcDbLine
 10
89.1769793234978
 20
256.7234905897407
 30
0.0
 11
89.1769793234978
 21
266.1852386571021
 31
0.0
  0
LINE
  5
2FD4
330
1A
100
AcDbEntity
  8
CENTER_L
 48
0.5
100
AcDbLine
 10
147.3769793234982
 20
395.0936620680512
 30
0.0
 11
147.3769793234982
 21
446.0195642754389
 31
0.0
  0
TEXT
  5
32E1
330
1A
100
AcDbEntity
  8
MOJI
100
AcDbText
 10
93.35778960172513
 20
12.74117799856344
 30
0.0
 40
6.0
  1
ユニシェイプ
 41
0.9
  7
ｽﾀｲﾙ1
100
AcDbText
  0
TEXT
  5
3342
330
1A
100
AcDbEntity
  8
MOJI
100
AcDbText
 10
233.179673069384
 20
4.786871367267067
 30
0.0
 40
5.599999999999999
  1
ＵＳＴ１４０
 41
0.9
  7
ｽﾀｲﾙ1
100
AcDbText
  0
TEXT
  5
334B
330
1A
100
AcDbEntity
  8
MOJI
100
AcDbText
 10
463.246432004558
 20
11.94261758994866
 30
0.0
 40
5.599999999999999
  1
ＰＫ０７□
 41
0.9
  7
ｽﾀｲﾙ1
100
AcDbText
  0
LINE
  5
3C97
330
1A
100
AcDbEntity
  8
SEIHIN2
  6
HIDDEN
100
AcDbLine
 10
194.6270279317655
 20
202.5428188784575
 30
0.0
 11
99.11662092071901
 21
202.5428188784575
 31
0.0
  0
ARC
  5
3C9A
330
1A
100
AcDbEntity
  8
SEIHIN2
  6
HIDDEN
100
AcDbCircle
 10
147.3775685541759
 20
1186.195236175477
 30
0.0
 40
998.15
100
AcDbArc
 50
267.5368524145034
 51
272.5885235826567
  0
ARC
  5
3C9D
330
1A
100
AcDbEntity
  8
SEIHIN2
  6
HIDDEN
100
AcDbCircle
 10
147.3775685541759
 20
1186.195236175477
 30
0.0
 40
996.4499999999999
100
AcDbArc
 50
267.5647863294246
 51
272.5584379709498
  0
LINE
  5
3CB0
330
1A
100
AcDbEntity
  8
SEIHIN2
  6
HIDDEN
100
AcDbLine
 10
98.0170464546277
 20
199.1539584505261
 30
0.0
 11
98.81351262616863
 21
194.0369243835704
 31
0.0
  0
LINE
  5
3CB1
330
1A
100
AcDbEntity
  8
SEIHIN2
  6
HIDDEN
100
AcDbLine
 10
100.3106428454607
 20
194.8716194177515
 30
0.0
 11
93.91474846289112
 21
235.9631442228045
 31
0.0
  0
ARC
  5
3CBC
330
1A
100
AcDbEntity
  8
SEIHIN2
  6
HIDDEN
100
AcDbCircle
 10
104.7380381783796
 20
194.9575393138831
 30
0.0
 40
5.995626311630649
100
AcDbArc
 50
188.8325802283208
 51
267.5360455957595
  0
ARC
  5
3CC1
330
1A
100
AcDbEntity
  8
SEIHIN2
  6
HIDDEN
100
AcDbCircle
 10
105.2511543277928
 20
195.6406098552389
 30
0.0
 40
5.000000000000275
100
AcDbArc
 50
188.8470959281637
 51
267.5647863293985
  0
LINE
  5
3CD0
330
1A
100
AcDbEntity
  8
SEIHIN2
  6
HIDDEN
100
AcDbLine
 10
97.32079756792428
 20
203.0269417967334
 30
0.0
 11
96.00628237649198
 21
203.0269417967334
 31
0.0
  0
ARC
  5
3CDD
330
1A
100
AcDbEntity
  8
SEIHIN2
  6
HIDDEN
100
AcDbCircle
 10
91.43976483979214
 20
238.9014735390966
 30
0.0
 40
0.2937861880895004
100
AcDbArc
 50
7.801747271668314
 51
89.27450228081054
  0
LINE
  5
3CE0
330
1A
100
AcDbEntity
  8
SEIHIN2
  6
HIDDEN
100
AcDbLine
 10
90.17549471208395
 20
239.1952361754778
 30
0.0
 11
91.44348475626115
 21
239.1952361754778
 31
0.0
  0
LINE
  5
3CE2
330
1A
100
AcDbEntity
  8
SEIHIN2
  6
HIDDEN
100
AcDbLine
 10
92.27211509669542
 20
241.1952361754778
 30
0.0
 11
89.77493558348351
 21
241.1952361754778
 31
0.0
  0
LINE
  5
3CE7
330
1A
100
AcDbEntity
  8
SEIHIN2
  6
HIDDEN
100
AcDbLine
 10
93.10365570411432
 20
241.1741493180883
 30
0.0
 11
93.10037353550752
 21
241.1952361754778
 31
0.0
  0
LINE
  5
3CE8
330
1A
100
AcDbEntity
  8
SEIHIN2
  6
HIDDEN
100
AcDbLine
 10
93.10037353550752
 20
241.1952361754778
 30
0.0
 11
92.63145164534035
 21
241.1952361754778
 31
0.0
  0
LINE
  5
3CEA
330
1A
100
AcDbEntity
  8
SEIHIN2
  6
HIDDEN
100
AcDbLine
 10
92.63145164534035
 20
241.1952361754778
 30
0.0
 11
92.27211509669542
 21
241.1952361754778
 31
0.0
  0
ARC
  5
3CF6
330
1A
100
AcDbEntity
  8
SEIHIN2
  6
HIDDEN
100
AcDbCircle
 10
92.260815273979
 20
240.0991861429839
 30
0.0
 40
2.272814860391578
100
AcDbArc
 50
195.4101999963164
 51
203.4358878194742
  0
LINE
  5
3CF8
330
1A
100
AcDbEntity
  8
SEIHIN2
  6
HIDDEN
100
AcDbLine
 10
90.06971239497806
 20
239.4952361754777
 30
0.0
 11
89.8829324374201
 21
240.6952361754778
 31
0.0
  0
ARC
  5
3CFB
330
1A
100
AcDbEntity
  8
SEIHIN2
  6
HIDDEN
100
AcDbCircle
 10
93.60292676294603
 20
241.7603948635757
 30
0.0
 40
3.8694858589709
100
AcDbArc
 50
188.3983906048059
 51
195.9781869141285
  0
LINE
  5
3CFF
330
1A
100
AcDbEntity
  8
SEIHIN2
  6
HIDDEN
100
AcDbLine
 10
93.46749158063676
 20
238.836623078468
 30
0.0
 11
93.10365570411432
 21
241.1741493180883
 31
0.0
  0
ARC
  5
3D09
330
1A
100
AcDbEntity
  8
SEIHIN2
  6
HIDDEN
100
AcDbCircle
 10
101.4905712237582
 20
240.4133571772489
 30
0.0
 40
9.870122109672935
100
AcDbArc
 50
188.5769353812007
 51
188.8477721141027
  0
LINE
  5
3D0A
330
1A
100
AcDbEntity
  8
SEIHIN2
  6
HIDDEN
100
AcDbLine
 10
91.73789881647236
 20
238.8952361754778
 30
0.0
 11
97.32079756792428
 21
203.0269417967334
 31
0.0
  0
ARC
  5
3D0B
330
1A
100
AcDbEntity
  8
SEIHIN2
  6
HIDDEN
100
AcDbCircle
 10
104.6680960346907
 20
204.097886427785
 30
0.0
 40
7.424938865912209
100
AcDbArc
 50
188.2930491105258
 51
192.0894449293863
  0
ARC
  5
3D0C
330
1A
100
AcDbEntity
  8
SEIHIN2
  6
HIDDEN
100
AcDbCircle
 10
54.45648882544083
 20
193.0722369328058
 30
0.0
 40
43.98305943866129
100
AcDbArc
 50
7.947992822514258
 51
12.43450121729847
  0
LINE
  5
3D0D
330
1A
100
AcDbEntity
  8
SEIHIN2
  6
HIDDEN
100
AcDbLine
 10
93.91474846289112
 20
235.9631442228045
 30
0.0
 11
93.46749158063676
 21
238.836623078468
 31
0.0
  0
LINE
  5
3D6B
330
1A
100
AcDbEntity
  8
SEIHIN2
  6
HIDDEN
100
AcDbLine
 10
195.308112447758
 20
191.7999785086823
 30
0.0
 11
195.9409486434669
 21
199.0893380638359
 31
0.0
  0
LINE
  5
3D6E
330
1A
100
AcDbEntity
  8
SEIHIN2
  6
HIDDEN
100
AcDbLine
 10
195.3200491230563
 20
210.5254227132492
 30
0.0
 11
193.7606598264255
 21
192.5635087982826
 31
0.0
  0
ARC
  5
3D77
330
1A
100
AcDbEntity
  8
SEIHIN2
  6
HIDDEN
100
AcDbCircle
 10
192.3212841472695
 20
192.0586517056646
 30
0.0
 40
2.998008525577643
100
AcDbArc
 50
272.592856111156
 51
355.0502697741701
  0
ARC
  5
3D7D
330
1A
100
AcDbEntity
  8
SEIHIN2
  6
HIDDEN
100
AcDbCircle
 10
191.7681545794926
 20
192.7364909966305
 30
0.0
 40
2.000000000000183
100
AcDbArc
 50
272.558437970976
 51
355.0382256231553
  0
LINE
  5
3D89
330
1A
100
AcDbEntity
  8
SEIHIN2
  6
HIDDEN
100
AcDbLine
 10
198.4623895653394
 20
211.6483222167249
 30
0.0
 11
211.9000705529492
 21
215.1202668526447
 31
0.0
  0
LINE
  5
3D8C
330
1A
100
AcDbEntity
  8
SEIHIN2
  6
HIDDEN
100
AcDbLine
 10
199.544958164683
 20
209.5008572211144
 30
0.0
 11
211.4148269428196
 21
212.567720266258
 31
0.0
  0
LINE
  5
3D8E
330
1A
100
AcDbEntity
  8
SEIHIN2
  6
HIDDEN
100
AcDbLine
 10
200.9470009467204
 20
208.3138493869238
 30
0.0
 11
209.7170645407822
 21
210.5798040021701
 31
0.0
  0
LINE
  5
3D8F
330
1A
100
AcDbEntity
  8
SEIHIN2
  6
HIDDEN
100
AcDbLine
 10
209.486425723644
 20
205.9952361755136
 30
0.0
 11
200.9552754397877
 21
205.9952361755136
 31
0.0
  0
LINE
  5
3D90
330
1A
100
AcDbEntity
  8
SEIHIN2
  6
HIDDEN
100
AcDbLine
 10
210.8423612586807
 20
204.4952361755136
 30
0.0
 11
199.3180619750701
 21
204.4952361755136
 31
0.0
  0
LINE
  5
3D94
330
1A
100
AcDbEntity
  8
SEIHIN2
  6
HIDDEN
100
AcDbLine
 10
210.3246466214414
 20
216.4690454010736
 30
0.0
 11
197.558330722587
 21
213.1705639111231
 31
0.0
  0
LINE
  5
3D9F
330
1A
100
AcDbEntity
  8
SEIHIN2
  6
HIDDEN
100
AcDbLine
 10
196.3684564956743
 20
202.9463606961345
 30
0.0
 11
196.9709076922135
 21
209.8857289177782
 31
0.0
  0
ARC
  5
3DA0
330
1A
100
AcDbEntity
  8
SEIHIN2
  6
HIDDEN
100
AcDbCircle
 10
249.1205737162281
 20
194.9432144510821
 30
0.0
 40
53.3410054638238
100
AcDbArc
 50
171.9136302396778
 51
175.541980452016
  0
ARC
  5
3DA1
330
1A
100
AcDbEntity
  8
SEIHIN2
  6
HIDDEN
100
AcDbCircle
 10
192.0319281201573
 20
203.2006966858581
 30
0.0
 40
4.343980334593223
100
AcDbArc
 50
350.00123712416
 51
356.6434660830013
  0
ARC
  5
3DA3
330
1A
100
AcDbEntity
  8
SEIHIN2
  6
HIDDEN
100
AcDbCircle
 10
198.9623198642889
 20
209.7129559365822
 30
0.0
 40
1.998892929128831
100
AcDbArc
 50
104.4836422308346
 51
175.0414901925372
  0
ARC
  5
3DAC
330
1A
100
AcDbEntity
  8
SEIHIN2
  6
HIDDEN
100
AcDbCircle
 10
200.9552209838311
 20
206.4950531926612
 30
0.0
 40
0.4998170201140436
100
AcDbArc
 50
174.9940083783612
 51
270.0062424774646
  0
LINE
  5
3DAD
330
1A
100
AcDbEntity
  8
SEIHIN2
  6
HIDDEN
100
AcDbLine
 10
200.457310476524
 20
206.5386671847824
 30
0.0
 11
200.5740820700712
 21
207.8734399147839
 31
0.0
  0
ARC
  5
3DAE
330
1A
100
AcDbEntity
  8
SEIHIN2
  6
HIDDEN
100
AcDbCircle
 10
201.0720258842829
 20
207.8298937306359
 30
0.0
 40
0.4998442880194205
100
AcDbArc
 50
104.4850731359847
 51
175.0020845200313
  0
ARC
  5
3DAF
330
1A
100
AcDbEntity
  8
SEIHIN2
  6
HIDDEN
100
AcDbCircle
 10
199.669886486944
 20
209.0171621297928
 30
0.0
 40
0.4995678403097438
100
AcDbArc
 50
104.481819402345
 51
175.0053382536605
  0
ARC
  5
3DB3
330
1A
100
AcDbEntity
  8
SEIHIN2
  6
HIDDEN
100
AcDbCircle
 10
199.3179110399219
 20
204.9947284556402
 30
0.0
 40
0.4994923029309999
100
AcDbArc
 50
174.9829373816383
 51
270.0173134742129
  0
LINE
  5
3DB7
330
1A
100
AcDbEntity
  8
SEIHIN2
  6
HIDDEN
100
AcDbLine
 10
198.820332442332
 20
205.0384102585775
 30
0.0
 11
199.1722155986049
 21
209.0606559681087
 31
0.0
  0
ARC
  5
3DBD
330
1A
100
AcDbEntity
  8
SEIHIN2
  6
HIDDEN
100
AcDbCircle
 10
198.3088069934556
 20
210.2659494157275
 30
0.0
 40
3.000000000000046
100
AcDbArc
 50
104.4869068002045
 51
175.0382256231553
  0
POLYLINE
  5
3DCD
330
1A
100
AcDbEntity
  8
SEIHIN2
  6
HIDDEN
100
AcDb2dPolyline
 66
     1
 10
0.0
 20
0.0
 30
0.0
  0
VERTEX
  5
4A41
330
3DCD
100
AcDbEntity
  8
SEIHIN2
  6
HIDDEN
100
AcDbVertex
100
AcDb2dVertex
 10
213.53687066171
 20
251.4952361754777
 30
0.0
  0
VERTEX
  5
4A42
330
3DCD
100
AcDbEntity
  8
SEIHIN2
  6
HIDDEN
100
AcDbVertex
100
AcDb2dVertex
 10
213.5314000624098
 20
251.3958211404368
 30
0.0
  0
VERTEX
  5
4A43
330
3DCD
100
AcDbEntity
  8
SEIHIN2
  6
HIDDEN
100
AcDbVertex
100
AcDb2dVertex
 10
213.5265378806325
 20
251.3076142332114
 30
0.0
  0
VERTEX
  5
4A44
330
3DCD
100
AcDbEntity
  8
SEIHIN2
  6
HIDDEN
100
AcDbVertex
100
AcDb2dVertex
 10
213.5228405505786
 20
251.2406344488682
 30
0.0
  0
VERTEX
  5
4A45
330
3DCD
100
AcDbEntity
  8
SEIHIN2
  6
HIDDEN
100
AcDbVertex
100
AcDb2dVertex
 10
213.520731097712
 20
251.202456858833
 30
0.0
  0
VERTEX
  5
4A46
330
3DCD
100
AcDbEntity
  8
SEIHIN2
  6
HIDDEN
100
AcDbVertex
100
AcDb2dVertex
 10
213.520331963044
 20
251.1952361754764
 30
0.0
  0
SEQEND
  5
4A47
330
3DCD
100
AcDbEntity
  8
SEIHIN2
  6
HIDDEN
  0
ARC
  5
3DDF
330
1A
100
AcDbEntity
  8
SEIHIN2
  6
HIDDEN
100
AcDbCircle
 10
215.3775865140064
 20
248.9010036351704
 30
0.0
 40
0.2942547428475132
100
AcDbArc
 50
105.0896554292483
 51
177.772628993622
  0
ARC
  5
3DE4
330
1A
100
AcDbEntity
  8
SEIHIN2
  6
HIDDEN
100
AcDbCircle
 10
214.4214195127051
 20
250.6947724899169
 30
0.0
 40
0.5004851090066094
100
AcDbArc
 50
56.85019107422986
 51
90.53013717702132
  0
LINE
  5
3DF1
330
1A
100
AcDbEntity
  8
SEIHIN2
  6
HIDDEN
100
AcDbLine
 10
213.520331963044
 20
251.1952361754778
 30
0.0
 11
213.5191660528271
 21
251.1741493180883
 31
0.0
  0
LINE
  5
3DF2
330
1A
100
AcDbEntity
  8
SEIHIN2
  6
HIDDEN
100
AcDbLine
 10
214.0698292620181
 20
251.1952361754778
 30
0.0
 11
213.520331963044
 21
251.1952361754773
 31
0.0
  0
LINE
  5
3DF3
330
1A
100
AcDbEntity
  8
SEIHIN2
  6
HIDDEN
100
AcDbLine
 10
214.4167887706339
 20
251.1952361754778
 30
0.0
 11
214.0698292620181
 21
251.1952361754778
 31
0.0
  0
POLYLINE
  5
3DF6
330
1A
100
AcDbEntity
  8
SEIHIN2
  6
HIDDEN
100
AcDb2dPolyline
 66
     1
 10
0.0
 20
0.0
 30
0.0
  0
VERTEX
  5
4A48
330
3DF6
100
AcDbEntity
  8
SEIHIN2
  6
HIDDEN
100
AcDbVertex
100
AcDb2dVertex
 10
215.3158146670412
 20
249.4952361754779
 30
0.0
  0
VERTEX
  5
4A49
330
3DF6
100
AcDbEntity
  8
SEIHIN2
  6
HIDDEN
100
AcDbVertex
100
AcDb2dVertex
 10
215.3194013967044
 20
249.5583409648719
 30
0.0
  0
VERTEX
  5
4A4A
330
3DF6
100
AcDbEntity
  8
SEIHIN2
  6
HIDDEN
100
AcDbVertex
100
AcDb2dVertex
 10
215.3229841311213
 20
249.6214459812196
 30
0.0
  0
VERTEX
  5
4A4B
330
3DF6
100
AcDbEntity
  8
SEIHIN2
  6
HIDDEN
100
AcDbVertex
100
AcDb2dVertex
 10
215.326562870277
 20
249.6845512242677
 30
0.0
  0
VERTEX
  5
4A4C
330
3DF6
100
AcDbEntity
  8
SEIHIN2
  6
HIDDEN
100
AcDbVertex
100
AcDb2dVertex
 10
215.3301376141576
 20
249.7476566937638
 30
0.0
  0
VERTEX
  5
4A4D
330
3DF6
100
AcDbEntity
  8
SEIHIN2
  6
HIDDEN
100
AcDbVertex
100
AcDb2dVertex
 10
215.3337083627488
 20
249.8107623894546
 30
0.0
  0
VERTEX
  5
4A4E
330
3DF6
100
AcDbEntity
  8
SEIHIN2
  6
HIDDEN
100
AcDbVertex
100
AcDb2dVertex
 10
215.3372751160363
 20
249.8738683110874
 30
0.0
  0
VERTEX
  5
4A4F
330
3DF6
100
AcDbEntity
  8
SEIHIN2
  6
HIDDEN
100
AcDbVertex
100
AcDb2dVertex
 10
215.3408378740055
 20
249.936974458409
 30
0.0
  0
VERTEX
  5
4A50
330
3DF6
100
AcDbEntity
  8
SEIHIN2
  6
HIDDEN
100
AcDbVertex
100
AcDb2dVertex
 10
215.3443966366426
 20
250.0000808311666
 30
0.0
  0
SEQEND
  5
4A51
330
3DF6
100
AcDbEntity
  8
SEIHIN2
  6
HIDDEN
  0
ARC
  5
3DF7
330
1A
100
AcDbEntity
  8
SEIHIN2
  6
HIDDEN
100
AcDbCircle
 10
213.64006907372
 20
249.3119610953436
 30
0.0
 40
2.087993044400212
100
AcDbArc
 50
41.49007277267168
 51
59.64975390746507
  0
ARC
  5
3DFA
330
1A
100
AcDbEntity
  8
SEIHIN2
  6
HIDDEN
100
AcDbCircle
 10
216.3407687120206
 20
249.2908016007808
 30
0.0
 40
1.045143190979823
100
AcDbArc
 50
168.7199686801274
 51
185.8039084111425
  0
POLYLINE
  5
3DFD
330
1A
100
AcDbEntity
  8
SEIHIN2
  6
HIDDEN
100
AcDb2dPolyline
 66
     1
 10
0.0
 20
0.0
 30
0.0
  0
VERTEX
  5
4A52
330
3DFD
100
AcDbEntity
  8
SEIHIN2
  6
HIDDEN
100
AcDbVertex
100
AcDb2dVertex
 10
215.3443966366399
 20
250.0000808311666
 30
0.0
  0
VERTEX
  5
4A53
330
3DFD
100
AcDbEntity
  8
SEIHIN2
  6
HIDDEN
100
AcDbVertex
100
AcDb2dVertex
 10
215.2928690246131
 20
250.465093001928
 30
0.0
  0
VERTEX
  5
4A54
330
3DFD
100
AcDbEntity
  8
SEIHIN2
  6
HIDDEN
100
AcDbVertex
100
AcDb2dVertex
 10
215.2041231028833
 20
250.6952361754778
 30
0.0
  0
SEQEND
  5
4A55
330
3DFD
100
AcDbEntity
  8
SEIHIN2
  6
HIDDEN
  0
LINE
  5
3E06
330
1A
100
AcDbEntity
  8
SEIHIN2
  6
HIDDEN
100
AcDbLine
 10
213.5191660528271
 20
251.1741493180883
 30
0.0
 11
213.3871427026128
 21
248.836623078468
 31
0.0
  0
ARC
  5
3E0D
330
1A
100
AcDbEntity
  8
SEIHIN2
  6
HIDDEN
100
AcDbCircle
 10
211.6501072603023
 20
216.0879481647845
 30
0.0
 40
0.9994442303277939
100
AcDbArc
 50
284.4835653748923
 51
354.8196789221649
  0
ARC
  5
3E10
330
1A
100
AcDbEntity
  8
SEIHIN2
  6
HIDDEN
100
AcDbCircle
 10
-781.4222982842639
 20
306.1791698373446
 30
0.0
 40
998.1500000006857
100
AcDbArc
 50
354.8163374968457
 51
356.7099814749276
  0
LINE
  5
3E11
330
1A
100
AcDbEntity
  8
SEIHIN2
  6
HIDDEN
100
AcDbLine
 10
215.0835540912134
 20
248.9124398948196
 30
0.0
 11
215.0825805023837
 21
248.8952361754781
 31
0.0
  0
POLYLINE
  5
3E17
330
1A
100
AcDbEntity
  8
SEIHIN2
  6
HIDDEN
100
AcDb2dPolyline
 66
     1
 10
0.0
 20
0.0
 30
0.0
  0
VERTEX
  5
4A56
330
3E17
100
AcDbEntity
  8
SEIHIN2
  6
HIDDEN
100
AcDbVertex
100
AcDb2dVertex
 10
213.3871427026128
 20
248.836623078468
 30
0.0
  0
VERTEX
  5
4A57
330
3E17
100
AcDbEntity
  8
SEIHIN2
  6
HIDDEN
100
AcDbVertex
100
AcDb2dVertex
 10
213.3612711296491
 20
248.3896673004561
 30
0.0
  0
VERTEX
  5
4A58
330
3E17
100
AcDbEntity
  8
SEIHIN2
  6
HIDDEN
100
AcDbVertex
100
AcDb2dVertex
 10
213.3191885554038
 20
247.6699668801155
 30
0.0
  0
VERTEX
  5
4A59
330
3E17
100
AcDbEntity
  8
SEIHIN2
  6
HIDDEN
100
AcDbVertex
100
AcDb2dVertex
 10
213.2650977993503
 20
246.7577429973997
 30
0.0
  0
VERTEX
  5
4A5A
330
3E17
100
AcDbEntity
  8
SEIHIN2
  6
HIDDEN
100
AcDbVertex
100
AcDb2dVertex
 10
213.217297501872
 20
245.9631442228045
 30
0.0
  0
SEQEND
  5
4A5B
330
3E17
100
AcDbEntity
  8
SEIHIN2
  6
HIDDEN
  0
ARC
  5
3E1E
330
1A
100
AcDbEntity
  8
SEIHIN2
  6
HIDDEN
100
AcDbCircle
 10
-781.4106216721365
 20
306.1952361750865
 30
0.0
 40
997.8999999998606
100
AcDbArc
 50
354.1765116721145
 51
354.5857133507723
  0
ARC
  5
3E1F
330
1A
100
AcDbEntity
  8
SEIHIN2
  6
HIDDEN
100
AcDbCircle
 10
211.5400157217959
 20
212.0842121128167
 30
0.0
 40
0.4994520645929636
100
AcDbArc
 50
354.5565083907478
 51
104.5161117601793
  0
ARC
  5
3E21
330
1A
100
AcDbEntity
  8
SEIHIN2
  6
HIDDEN
100
AcDbCircle
 10
210.8424322208743
 20
204.9947881950448
 30
0.0
 40
0.4995520245712459
100
AcDbArc
 50
269.9918610394555
 51
354.1846506326984
  0
ARC
  5
3E2E
330
1A
100
AcDbEntity
  8
SEIHIN2
  6
HIDDEN
100
AcDbCircle
 10
209.8421840246742
 20
210.0959162983912
 30
0.0
 40
0.499802155976203
100
AcDbArc
 50
354.4520175666158
 51
104.4975155727745
  0
ARC
  5
3E2F
330
1A
100
AcDbEntity
  8
SEIHIN2
  6
HIDDEN
100
AcDbCircle
 10
-781.4106216721365
 20
306.1952361750865
 30
0.0
 40
996.3999999998611
100
AcDbArc
 50
354.2544621982329
 51
354.4626263392472
  0
ARC
  5
3E30
330
1A
100
AcDbEntity
  8
SEIHIN2
  6
HIDDEN
100
AcDbCircle
 10
209.486451459883
 20
206.4950746369105
 30
0.0
 40
0.499838462059843
100
AcDbArc
 50
269.9970498912083
 51
354.2574123071
  0
ARC
  5
3E35
330
1A
100
AcDbEntity
  8
SEIHIN2
  6
HIDDEN
100
AcDbCircle
 10
-781.4106216721365
 20
306.1952361750865
 30
0.0
 40
996.4500000006857
100
AcDbArc
 50
354.8845039094011
 51
356.5345479505146
  0
ARC
  5
3E36
330
1A
100
AcDbEntity
  8
SEIHIN2
  6
HIDDEN
100
AcDbCircle
 10
210.074487864485
 20
217.4372502328723
 30
0.0
 40
1.000000000000363
100
AcDbArc
 50
284.4869068002045
 51
354.8845039094011
  0
POLYLINE
  5
3E92
330
1A
100
AcDbEntity
  8
SEIHIN
100
AcDb2dPolyline
 66
     1
 10
0.0
 20
0.0
 30
0.0
  0
VERTEX
  5
4A5C
330
3E92
100
AcDbEntity
  8
SEIHIN
100
AcDbVertex
100
AcDb2dVertex
 10
577.5736364045383
 20
435.2178453268404
 30
0.0
  0
VERTEX
  5
4A5D
330
3E92
100
AcDbEntity
  8
SEIHIN
100
AcDbVertex
100
AcDb2dVertex
 10
577.1023174877617
 20
426.2313757207927
 30
0.0
  0
VERTEX
  5
4A5E
330
3E92
100
AcDbEntity
  8
SEIHIN
100
AcDbVertex
100
AcDb2dVertex
 10
576.5247134145627
 20
415.2178453268399
 30
0.0
  0
SEQEND
  5
4A5F
330
3E92
100
AcDbEntity
  8
SEIHIN
  0
POLYLINE
  5
3E93
330
1A
100
AcDbEntity
  8
SEIHIN
100
AcDb2dPolyline
 66
     1
 10
0.0
 20
0.0
 30
0.0
  0
VERTEX
  5
4A60
330
3E93
100
AcDbEntity
  8
SEIHIN
100
AcDbVertex
100
AcDb2dVertex
 10
460.2971940541008
 20
185.9050886756901
 30
0.0
  0
VERTEX
  5
4A61
330
3E93
100
AcDbEntity
  8
SEIHIN
100
AcDbVertex
100
AcDb2dVertex
 10
466.2826825922378
 20
185.605023915998
 30
0.0
  0
VERTEX
  5
4A62
330
3E93
100
AcDbEntity
  8
SEIHIN
100
AcDbVertex
100
AcDb2dVertex
 10
480.2971915634572
 20
184.9027441708243
 30
0.0
  0
SEQEND
  5
4A63
330
3E93
100
AcDbEntity
  8
SEIHIN
  0
POLYLINE
  5
3E94
330
1A
100
AcDbEntity
  8
SEIHIN
100
AcDb2dPolyline
 66
     1
 10
0.0
 20
0.0
 30
0.0
  0
VERTEX
  5
4A64
330
3E94
100
AcDbEntity
  8
SEIHIN
100
AcDbVertex
100
AcDb2dVertex
 10
487.2972273713795
 20
199.3130589719913
 30
0.0
  0
VERTEX
  5
4A65
330
3E94
100
AcDbEntity
  8
SEIHIN
100
AcDbVertex
100
AcDb2dVertex
 10
487.2974045414584
 20
199.331879578612
 30
0.0
  0
VERTEX
  5
4A66
330
3E94
100
AcDbEntity
  8
SEIHIN
100
AcDbVertex
100
AcDb2dVertex
 10
487.2979358953975
 20
199.3506935172162
 30
0.0
  0
SEQEND
  5
4A67
330
3E94
100
AcDbEntity
  8
SEIHIN
  0
DIMENSION
  5
3E95
330
1A
100
AcDbEntity
  8
SUNPOU
100
AcDbDimension
  2
*D8
 10
538.7757414919501
 20
183.6962392888698
 30
0.0
 11
533.7757414919501
 21
246.0302908753623
 31
0.0
 70
    32
  3
STANDARD
100
AcDbAlignedDimension
 13
582.0659372700766
 23
308.3643424618545
 33
0.0
 14
648.8042490636701
 24
183.6962392888698
 34
0.0
 50
90.0
100
AcDbRotatedDimension
1001
ACAD
1000
DSTYLE
1002
{
1070
    41
1040
7.0
1070
    42
1040
6.0
1070
    43
1040
14.0
1070
    44
1040
3.0
1070
    73
1070
     0
1070
    74
1070
     0
1070
    77
1070
     3
1070
   140
1040
6.0
1070
   141
1040
150.0
1070
   147
1040
2.0
1070
   172
1070
     1
1070
   173
1070
     1
1070
   176
1070
   256
1070
   177
1070
   256
1070
   178
1070
   256
1070
   271
1070
     0
1070
   272
1070
     0
1070
   341
1005
6D
1070
     6
1000
OPEN
1070
     7
1000
OPEN
1070
   371
1070
    -1
1070
   372
1070
    -1
1002
}
  0
DIMENSION
  5
3E96
330
1A
100
AcDbEntity
  8
SUNPOU
100
AcDbDimension
  2
*D9
 10
650.2224314729467
 20
335.8671349578053
 30
0.0
 11
681.3724314729361
 21
340.8671349578053
 31
0.0
 70
    32
  3
STANDARD
100
AcDbAlignedDimension
 13
712.5224314729254
 23
266.6952361754742
 33
0.0
 14
650.2224314729467
 24
274.1952361754778
 34
0.0
 50
180.0
100
AcDbRotatedDimension
1001
ACAD
1000
DSTYLE
1002
{
1070
    41
1040
7.0
1070
    42
1040
6.0
1070
    43
1040
14.0
1070
    44
1040
3.0
1070
    73
1070
     0
1070
    74
1070
     0
1070
    77
1070
     3
1070
   140
1040
6.0
1070
   141
1040
150.0
1070
   147
1040
2.0
1070
   172
1070
     1
1070
   173
1070
     1
1070
   176
1070
   256
1070
   177
1070
   256
1070
   178
1070
   256
1070
   271
1070
     0
1070
   272
1070
     0
1070
   341
1005
6D
1070
     6
1000
OPEN
1070
     7
1000
OPEN
1070
   371
1070
    -1
1070
   372
1070
    -1
1002
}
  0
DIMENSION
  5
3E97
330
1A
100
AcDbEntity
  8
SUNPOU
100
AcDbDimension
  2
*D10
 10
630.4948887605383
 20
335.8671349578053
 30
0.0
 11
640.3586601167424
 21
340.8671349578053
 31
0.0
 70
    32
  3
STANDARD
100
AcDbAlignedDimension
 13
650.2224314729467
 23
274.1952361754778
 33
0.0
 14
630.4948887605383
 24
308.3643424618545
 34
0.0
 50
180.0
100
AcDbRotatedDimension
1001
ACAD
1000
DSTYLE
1002
{
1070
   287
1070
     4
1070
   287
1070
     4
1070
   287
1070
     4
1070
   287
1070
     4
1070
   279
1070
     1
1070
    41
1040
7.0
1070
    42
1040
6.0
1070
    43
1040
14.0
1070
    44
1040
3.0
1070
    73
1070
     0
1070
    74
1070
     0
1070
    77
1070
     3
1070
   140
1040
6.0
1070
   141
1040
150.0
1070
   147
1040
2.0
1070
   172
1070
     1
1070
   173
1070
     1
1070
   176
1070
   256
1070
   177
1070
   256
1070
   178
1070
   256
1070
   271
1070
     0
1070
   272
1070
     0
1070
   341
1005
6D
1070
     6
1000
OPEN
1070
     7
1000
OPEN
1070
   371
1070
    -1
1070
   372
1070
    -1
1002
}
  0
DIMENSION
  5
3E98
330
1A
100
AcDbEntity
  8
SUNPOU
100
AcDbDimension
  2
*D11
 10
576.5247134145627
 20
350.7432578577127
 30
0.0
 11
644.523572443744
 21
355.7432578577127
 31
0.0
 70
    32
  3
STANDARD
100
AcDbAlignedDimension
 13
712.5224314729254
 23
266.6952361754742
 33
0.0
 14
576.5247134145627
 24
303.9786523002426
 34
0.0
 50
180.0
100
AcDbRotatedDimension
1001
ACAD
1000
DSTYLE
1002
{
1070
    41
1040
7.0
1070
    42
1040
6.0
1070
    43
1040
14.0
1070
    44
1040
3.0
1070
    73
1070
     0
1070
    74
1070
     0
1070
    77
1070
     3
1070
   140
1040
6.0
1070
   141
1040
150.0
1070
   147
1040
2.0
1070
   172
1070
     1
1070
   173
1070
     1
1070
   176
1070
   256
1070
   177
1070
   256
1070
   178
1070
   256
1070
   271
1070
     0
1070
   272
1070
     0
1070
   341
1005
6D
1070
     6
1000
OPEN
1070
     7
1000
OPEN
1070
   371
1070
    -1
1070
   372
1070
    -1
1002
}
  0
DIMENSION
  5
3E99
330
1A
100
AcDbEntity
  8
SUNPOU
100
AcDbDimension
  2
*D12
 10
742.3716046470385
 20
183.6962392888698
 30
0.0
 11
737.3716046470385
 21
228.9457377321738
 31
0.0
 70
    32
  3
STANDARD
100
AcDbAlignedDimension
 13
705.0121388779406
 23
274.1952361754777
 33
0.0
 14
648.8042490636701
 24
183.6962392888698
 34
0.0
 50
90.0
100
AcDbRotatedDimension
1001
ACAD
1000
DSTYLE
1002
{
1070
    41
1040
7.0
1070
    42
1040
6.0
1070
    43
1040
14.0
1070
    44
1040
3.0
1070
    73
1070
     0
1070
    74
1070
     0
1070
    77
1070
     3
1070
   140
1040
6.0
1070
   141
1040
150.0
1070
   147
1040
2.0
1070
   172
1070
     1
1070
   173
1070
     1
1070
   176
1070
   256
1070
   177
1070
   256
1070
   178
1070
   256
1070
   271
1070
     0
1070
   272
1070
     0
1070
   341
1005
6D
1070
     6
1000
OPEN
1070
     7
1000
OPEN
1070
   371
1070
    -1
1070
   372
1070
    -1
1002
}
  0
DIMENSION
  5
3E9A
330
1A
100
AcDbEntity
  8
SUNPOU
100
AcDbDimension
  2
*D13
 10
546.0020240428788
 20
411.21784532684
 30
0.0
 11
541.0020240428788
 21
423.21784532684
 31
0.0
 70
    32
  1
\U+203B<>
  3
STANDARD
100
AcDbAlignedDimension
 13
577.5736364045383
 23
435.21784532684
 33
0.0
 14
576.7344913512938
 24
411.21784532684
 34
0.0
 50
90.0
100
AcDbRotatedDimension
1001
ACAD
1000
DSTYLE
1002
{
1070
    41
1040
7.0
1070
    42
1040
6.0
1070
    43
1040
14.0
1070
    44
1040
3.0
1070
    73
1070
     0
1070
    74
1070
     0
1070
    77
1070
     3
1070
   140
1040
6.0
1070
   141
1040
150.0
1070
   147
1040
2.0
1070
   172
1070
     1
1070
   173
1070
     1
1070
   176
1070
   256
1070
   177
1070
   256
1070
   178
1070
   256
1070
   271
1070
     0
1070
   272
1070
     0
1070
   341
1005
6D
1070
     6
1000
OPEN
1070
     7
1000
OPEN
1070
   371
1070
    -1
1070
   372
1070
    -1
1002
}
  0
DIMENSION
  5
3E9B
330
1A
100
AcDbEntity
  8
SUNPOU
100
AcDbDimension
  2
*D14
 10
529.1337165067321
 20
405.2178453268399
 30
0.0
 11
524.1337165067319
 21
420.2178453268401
 31
0.0
 70
    32
  3
STANDARD
100
AcDbAlignedDimension
 13
577.5736364045383
 23
435.2178453268404
 33
0.0
 14
577.9980281613963
 24
405.2178453268399
 34
0.0
 50
90.0
100
AcDbRotatedDimension
1001
ACAD
1000
DSTYLE
1002
{
1070
    41
1040
7.0
1070
    42
1040
6.0
1070
    43
1040
14.0
1070
    44
1040
3.0
1070
    73
1070
     0
1070
    74
1070
     0
1070
    77
1070
     3
1070
   140
1040
6.0
1070
   141
1040
150.0
1070
   147
1040
2.0
1070
   172
1070
     1
1070
   173
1070
     1
1070
   176
1070
   256
1070
   177
1070
   256
1070
   178
1070
   256
1070
   271
1070
     0
1070
   272
1070
     0
1070
   341
1005
6D
1070
     6
1000
OPEN
1070
     7
1000
OPEN
1070
   371
1070
    -1
1070
   372
1070
    -1
1002
}
  0
ARC
  5
3E9C
330
1A
100
AcDbEntity
  8
SEIHIN
100
AcDbCircle
 10
489.2974956669184
 20
307.2842863542854
 30
0.0
 40
1.000000032755067
100
AcDbArc
 50
359.9998576268693
 51
86.99985772522635
  0
ARC
  5
3E9D
330
1A
100
AcDbEntity
  8
SEIHIN
100
AcDbCircle
 10
581.0264877718541
 20
303.9842114126344
 30
0.0
 40
4.501777789684576
100
AcDbArc
 50
76.65007951382816
 51
180.070752883204
  0
ARC
  5
3E9E
330
1A
100
AcDbEntity
  8
SEIHIN
100
AcDbCircle
 10
629.3419520579359
 20
306.3673975150346
 30
0.0
 40
1.996944955055172
100
AcDbArc
 50
29.99479650407874
 51
90.0052034959269
  0
LINE
  5
3E9F
330
1A
100
AcDbEntity
  8
SEIHIN
100
AcDbLine
 10
460.2974978481982
 20
308.1621434107626
 30
0.0
 11
460.2971911674234
 21
184.7433917611382
 31
0.0
  0
ARC
  5
3EA0
330
1A
100
AcDbEntity
  8
SEIHIN2
  6
HIDDEN
100
AcDbCircle
 10
1579.010621699248
 20
306.1952361750865
 30
0.0
 40
996.4500000006857
100
AcDbArc
 50
183.4654520494854
 51
185.1154960905988
  0
ARC
  5
3EA1
330
1A
100
AcDbEntity
  8
SEIHIN2
  6
HIDDEN
100
AcDbCircle
 10
1579.022298311375
 20
306.1791698373446
 30
0.0
 40
998.1500000006857
100
AcDbArc
 50
183.2900185250723
 51
185.1836625031542
  0
LINE
  5
3EA2
330
1A
100
AcDbEntity
  8
SEIHIN2
  6
HIDDEN
100
AcDbLine
 10
703.6852515642208
 20
235.9631442228045
 30
0.0
 11
704.1325084464752
 21
238.836623078468
 31
0.0
  0
LINE
  5
3EA3
330
1A
100
AcDbEntity
  8
SEIHIN2
  6
HIDDEN
100
AcDbLine
 10
705.8621012106396
 20
238.8952361754778
 30
0.0
 11
700.2792024591876
 21
203.0269417967334
 31
0.0
  0
LINE
  5
3EA4
330
1A
100
AcDbEntity
  8
NOKITOI
100
AcDbLine
 10
700.1594985415613
 20
191.4648490039093
 30
0.0
 11
709.5254586556996
 21
250.8862276323982
 31
0.0
  0
LINE
  5
3EA5
330
1A
100
AcDbEntity
  8
NOKITOI
100
AcDbLine
 10
700.3570595083817
 20
191.4337095692804
 30
0.0
 11
709.7230196225198
 21
250.8550881977695
 31
0.0
  0
LINE
  5
3EA6
330
1A
100
AcDbEntity
  8
NOKITOI
100
AcDbLine
 10
708.1425318879571
 20
251.1042036747991
 30
0.0
 11
698.8528345108222
 21
192.1666662025298
 31
0.0
  0
ARC
  5
3EA7
330
1A
100
AcDbEntity
  8
NOKITOI
100
AcDbCircle
 10
1579.011210929934
 20
306.1852386571014
 30
0.0
 40
999.800000000736
100
AcDbArc
 50
180.0795916737998
 51
185.9063572242693
  0
ARC
  5
3EA8
330
1A
100
AcDbEntity
  8
NOKITOI
100
AcDbCircle
 10
1579.011210929934
 20
306.1852386571014
 30
0.0
 40
1000.000000000736
100
AcDbArc
 50
180.0795916737998
 51
185.9063572242693
  0
ARC
  5
3EA9
330
1A
100
AcDbEntity
  8
NOKITOI
100
AcDbCircle
 10
1579.011210929934
 20
306.1852386571014
 30
0.0
 40
998.4000000000001
100
AcDbArc
 50
182.4109906480892
 51
185.2410550612985
  0
ARC
  5
3EAA
330
1A
100
AcDbEntity
  8
SEIHIN
100
AcDbCircle
 10
1579.022298311375
 20
306.1791698373446
 30
0.0
 40
1002.500000000685
100
AcDbArc
 50
180.125766053732
 51
186.0345106331178
  0
LINE
  5
3EAB
330
1A
100
AcDbEntity
  8
SEIHIN
100
AcDbLine
 10
712.2000037071552
 20
251.3303453677034
 30
0.0
 11
702.6933693638684
 21
190.2533360296047
 31
0.0
  0
ARC
  5
3EAC
330
1A
100
AcDbEntity
  8
SEIHIN2
  6
HIDDEN
100
AcDbCircle
 10
650.222431472936
 20
1186.195236175477
 30
0.0
 40
996.4499999999999
100
AcDbArc
 50
267.44156202905
 51
272.4352136705753
  0
ARC
  5
3EAD
330
1A
100
AcDbEntity
  8
SEIHIN2
  6
HIDDEN
100
AcDbCircle
 10
650.222431472936
 20
1186.195236175477
 30
0.0
 40
998.15
100
AcDbArc
 50
267.4114764173432
 51
272.4631475854965
  0
LINE
  5
3EAE
330
1A
100
AcDbEntity
  8
SEIHIN2
  6
HIDDEN
100
AcDbLine
 10
602.9729720953464
 20
202.5428188784575
 30
0.0
 11
698.4833791063929
 21
202.5428188784575
 31
0.0
  0
ARC
  5
3EAF
330
1A
100
AcDbEntity
  8
NOKITOI
100
AcDbCircle
 10
650.2230207036139
 20
1186.185238657102
 30
0.0
 40
999.8000000000002
100
AcDbArc
 50
267.2627870055292
 51
272.6033918042165
  0
ARC
  5
3EB0
330
1A
100
AcDbEntity
  8
NOKITOI
100
AcDbCircle
 10
650.2230207036139
 20
1186.185238657102
 30
0.0
 40
1000.0
100
AcDbArc
 50
267.2627870055292
 51
272.6033918042165
  0
ARC
  5
3EB1
330
1A
100
AcDbEntity
  8
NOKITOI
100
AcDbCircle
 10
650.2230207036139
 20
1186.185238657102
 30
0.0
 40
998.3999999999999
100
AcDbArc
 50
267.3431291593075
 51
272.5751779642489
  0
LINE
  5
3EB2
330
1A
100
AcDbEntity
  8
SEIHIN
100
AcDbLine
 10
702.4813487831358
 20
199.8952361755269
 30
0.0
 11
583.0704923588946
 21
199.8952361755269
 31
0.0
  0
ARC
  5
3EB3
330
1A
100
AcDbEntity
  8
SEIHIN
100
AcDbCircle
 10
650.2224314729469
 20
1186.195236175477
 30
0.0
 40
1002.5
100
AcDbArc
 50
267.1874970430621
 51
272.6503964357745
  0
ARC
  5
3EB4
330
1A
100
AcDbEntity
  8
SEIHIN2
  6
HIDDEN
100
AcDbCircle
 10
692.9319039924211
 20
204.097886427785
 30
0.0
 40
7.424938865912209
100
AcDbArc
 50
347.9105550706136
 51
351.7069508894741
  0
LINE
  5
3EB5
330
1A
100
AcDbEntity
  8
SEIHIN2
  6
HIDDEN
100
AcDbLine
 10
697.2893571816512
 20
194.8716194177515
 30
0.0
 11
703.6852515642208
 21
235.9631442228045
 31
0.0
  0
ARC
  5
3EB6
330
1A
100
AcDbEntity
  8
SEIHIN
100
AcDbCircle
 10
696.2826120263112
 20
191.2483378919961
 30
0.0
 40
6.487514034451631
100
AcDbArc
 50
272.6692421599416
 51
351.1787151431726
  0
LINE
  5
3EB7
330
1A
100
AcDbEntity
  8
SEIHIN
100
AcDbLine
 10
696.5847369452431
 20
184.7678626871544
 30
0.0
 11
696.5796843282096
 21
184.7676276546652
 31
0.0
  0
ARC
  5
3EB8
330
1A
100
AcDbEntity
  8
SEIHIN2
  6
HIDDEN
100
AcDbCircle
 10
743.1435112016711
 20
193.0722369328058
 30
0.0
 40
43.98305943866129
100
AcDbArc
 50
167.5654987827015
 51
172.0520071774857
  0
ARC
  5
3EB9
330
1A
100
AcDbEntity
  8
SEIHIN2
  6
HIDDEN
100
AcDbCircle
 10
692.348845699319
 20
195.6406098552389
 30
0.0
 40
5.000000000000275
100
AcDbArc
 50
272.4352136706014
 51
351.1529040718363
  0
ARC
  5
3EBA
330
1A
100
AcDbEntity
  8
SEIHIN2
  6
HIDDEN
100
AcDbCircle
 10
692.8619618487323
 20
194.9575393138831
 30
0.0
 40
5.995626311630649
100
AcDbArc
 50
272.4639544042404
 51
351.1674197716791
  0
LINE
  5
3EBB
330
1A
100
AcDbEntity
  8
SEIHIN2
  6
HIDDEN
100
AcDbLine
 10
699.5829535724842
 20
199.1539584505261
 30
0.0
 11
698.7864874009432
 21
194.0369243835704
 31
0.0
  0
ARC
  5
3EBC
330
1A
100
AcDbEntity
  8
NOKITOI
100
AcDbCircle
 10
695.4180353378721
 20
192.2121954349985
 30
0.0
 40
4.799999999999973
100
AcDbArc
 50
272.6033918042165
 51
351.0427677630327
  0
ARC
  5
3EBD
330
1A
100
AcDbEntity
  8
NOKITOI
100
AcDbCircle
 10
694.9016151744147
 20
192.7894548951043
 30
0.0
 40
4.000000000000015
100
AcDbArc
 50
272.5751779642489
 51
351.0427677630327
  0
ARC
  5
3EBE
330
1A
100
AcDbEntity
  8
NOKITOI
100
AcDbCircle
 10
695.4180353378721
 20
192.2121954349985
 30
0.0
 40
4.999999999999973
100
AcDbArc
 50
272.6033918042165
 51
351.0427677630327
  0
ARC
  5
3EBF
330
1A
100
AcDbEntity
  8
SEIHIN
100
AcDbCircle
 10
702.4813487831358
 20
201.8952361755269
 30
0.0
 40
2.0
100
AcDbArc
 50
270.0
 51
351.1529040718372
  0
LINE
  5
3EC0
330
1A
100
AcDbEntity
  8
SEIHIN
100
AcDbLine
 10
702.6935720063216
 20
190.2546379409385
 30
0.0
 11
702.6933884211302
 21
190.2534584662618
 31
0.0
  0
LINE
  5
3EC1
330
1A
100
AcDbEntity
  8
CENTER_L
100
AcDbLine
 10
650.2230207036136
 20
178.0379371894408
 30
0.0
 11
650.2230207036136
 21
194.7325401247631
 31
0.0
  0
LINE
  5
3EC2
330
1A
100
AcDbEntity
  8
SEIHIN2
  6
HIDDEN
100
AcDbLine
 10
700.2792024591876
 20
203.0269417967334
 30
0.0
 11
701.5937176506199
 21
203.0269417967334
 31
0.0
  0
ARC
  5
3EC3
330
1A
100
AcDbEntity
  8
SEIHIN2
  6
HIDDEN
100
AcDbCircle
 10
605.5680719069546
 20
203.2006966858581
 30
0.0
 40
4.343980334593223
100
AcDbArc
 50
183.3565339169986
 51
189.9987628758399
  0
LINE
  5
3EC4
330
1A
100
AcDbEntity
  8
SEIHIN2
  6
HIDDEN
100
AcDbLine
 10
602.2799509040555
 20
210.5254227132492
 30
0.0
 11
603.8393402006863
 21
192.5635087982826
 31
0.0
  0
LINE
  5
3EC5
330
1A
100
AcDbEntity
  8
NOKITOI
100
AcDbLine
 10
602.0429795989662
 20
190.6820149344298
 30
0.0
 11
600.3899827144691
 21
209.576808584247
 31
0.0
  0
ARC
  5
3EC6
330
1A
100
AcDbEntity
  8
NOKITOI
100
AcDbCircle
 10
598.496685502326
 20
201.385238657102
 30
0.0
 40
1.200000000000007
100
AcDbArc
 50
4.999749144101009
 51
90.0
  0
ARC
  5
3EC7
330
1A
100
AcDbEntity
  8
NOKITOI
100
AcDbCircle
 10
585.3144966345364
 20
203.385238657102
 30
0.0
 40
0.8000000000001556
100
AcDbArc
 50
185.9063572242693
 51
270.0
  0
ARC
  5
3EC8
330
1A
100
AcDbEntity
  8
NOKITOI
100
AcDbCircle
 10
585.3144966345364
 20
203.385238657102
 30
0.0
 40
1.000000000000155
100
AcDbArc
 50
185.9063572242693
 51
270.0
  0
LINE
  5
3EC9
330
1A
100
AcDbEntity
  8
NOKITOI
100
AcDbLine
 10
585.3144966345364
 20
202.5852386571019
 30
0.0
 11
598.496685502326
 21
202.5852386571019
 31
0.0
  0
LINE
  5
3ECA
330
1A
100
AcDbEntity
  8
NOKITOI
100
AcDbLine
 10
585.3144966345364
 20
202.385238657102
 30
0.0
 11
598.496685502326
 21
202.385238657102
 31
0.0
  0
ARC
  5
3ECB
330
1A
100
AcDbEntity
  8
SEIHIN
100
AcDbCircle
 10
596.2148979076878
 20
198.8971712511526
 30
0.0
 40
0.998065050374617
100
AcDbArc
 50
4.983317908432307
 51
90.02970448707435
  0
ARC
  5
3ECC
330
1A
100
AcDbEntity
  8
SEIHIN
100
AcDbCircle
 10
601.1765891511336
 20
187.8925315998504
 30
0.0
 40
2.993228519601844
100
AcDbArc
 50
184.9760133915688
 51
267.1730824484435
  0
LINE
  5
3ECD
330
1A
100
AcDbEntity
  8
SEIHIN
100
AcDbLine
 10
601.0320362847287
 20
184.9027938684229
 30
0.0
 11
601.0289661035626
 21
184.9029456073791
 31
0.0
  0
ARC
  5
3ECE
330
1A
100
AcDbEntity
  8
SEIHIN2
  6
HIDDEN
100
AcDbCircle
 10
548.4794263108837
 20
194.9432144510821
 30
0.0
 40
53.3410054638238
100
AcDbArc
 50
4.458019547983962
 51
8.086369760322137
  0
ARC
  5
3ECF
330
1A
100
AcDbEntity
  8
SEIHIN2
  6
HIDDEN
100
AcDbCircle
 10
605.8318454476193
 20
192.7364909966305
 30
0.0
 40
2.000000000000183
100
AcDbArc
 50
184.9617743768446
 51
267.4415620290239
  0
ARC
  5
3ED0
330
1A
100
AcDbEntity
  8
SEIHIN2
  6
HIDDEN
100
AcDbCircle
 10
605.2787158798423
 20
192.0586517056646
 30
0.0
 40
2.998008525577643
100
AcDbArc
 50
184.9497302258298
 51
267.4071438888439
  0
LINE
  5
3ED1
330
1A
100
AcDbEntity
  8
SEIHIN2
  6
HIDDEN
100
AcDbLine
 10
602.2918875793538
 20
191.7999785086823
 30
0.0
 11
601.6590513836449
 21
199.0893380638359
 31
0.0
  0
ARC
  5
3ED2
330
1A
100
AcDbEntity
  8
NOKITOI
100
AcDbCircle
 10
602.5633221294526
 20
189.3238876499423
 30
0.0
 40
1.800000000000289
100
AcDbArc
 50
184.999749144101
 51
267.2627870055292
  0
ARC
  5
3ED3
330
1A
100
AcDbEntity
  8
NOKITOI
100
AcDbCircle
 10
602.5633221294526
 20
189.3238876499423
 30
0.0
 40
2.000000000000289
100
AcDbArc
 50
184.999749144101
 51
267.2627870055292
  0
ARC
  5
3ED4
330
1A
100
AcDbEntity
  8
NOKITOI
100
AcDbCircle
 10
604.0353697583118
 20
190.8563176967219
 30
0.0
 40
1.999999999999942
100
AcDbArc
 50
184.999749144101
 51
267.3431291593075
  0
ARC
  5
3ED5
330
1A
100
AcDbEntity
  8
NOKITOI
100
AcDbCircle
 10
598.496685502326
 20
201.385238657102
 30
0.0
 40
1.000000000000007
100
AcDbArc
 50
4.999749144101009
 51
90.0
  0
LINE
  5
3ED6
330
1A
100
AcDbEntity
  8
NOKITOI
100
AcDbLine
 10
599.6921195979334
 20
201.4898203144772
 30
0.0
 11
600.7701709860416
 21
189.1670151638794
 31
0.0
  0
LINE
  5
3ED7
330
1A
100
AcDbEntity
  8
NOKITOI
100
AcDbLine
 10
599.4928805819988
 20
201.4723900382481
 30
0.0
 11
600.570931970107
 21
189.1495848876502
 31
0.0
  0
LINE
  5
3ED8
330
1A
100
AcDbEntity
  8
SEIHIN
100
AcDbLine
 10
597.2092677710911
 20
198.9829792069009
 30
0.0
 11
597.2091902776988
 21
198.9838691613577
 31
0.0
  0
LINE
  5
3ED9
330
1A
100
AcDbEntity
  8
SEIHIN
100
AcDbLine
 10
598.1946418160855
 20
187.6329029004399
 30
0.0
 11
598.1943758438997
 21
187.6359560876861
 31
0.0
  0
LINE
  5
3EDA
330
1A
100
AcDbEntity
  8
SEIHIN
100
AcDbLine
 10
598.1943758438997
 20
187.6359560876861
 30
0.0
 11
597.2092677710911
 21
198.9829792069007
 31
0.0
  0
ARC
  5
3EDB
330
1A
100
AcDbEntity
  8
SEIHIN
100
AcDbCircle
 10
583.07021295725
 20
200.8935552153199
 30
0.0
 40
0.9983190788917307
100
AcDbArc
 50
186.0184751434648
 51
270.0160354896007
  0
LINE
  5
3EDC
330
1A
100
AcDbEntity
  8
SEIHIN
100
AcDbLine
 10
596.2141998428296
 20
199.8952361755269
 30
0.0
 11
596.2143804875799
 21
199.8952361673952
 31
0.0
  0
ARC
  5
3EDD
330
1A
100
AcDbEntity
  8
SEIHIN2
  6
HIDDEN
100
AcDbCircle
 10
596.5279741428289
 20
207.8298937306359
 30
0.0
 40
0.4998442880194205
100
AcDbArc
 50
4.997915479968678
 51
75.51492686401527
  0
ARC
  5
3EDE
330
1A
100
AcDbEntity
  8
SEIHIN2
  6
HIDDEN
100
AcDbCircle
 10
596.6447790432807
 20
206.4950531926612
 30
0.0
 40
0.4998170201140436
100
AcDbArc
 50
269.9937575225354
 51
5.00599162163875
  0
LINE
  5
3EDF
330
1A
100
AcDbEntity
  8
SEIHIN2
  6
HIDDEN
100
AcDbLine
 10
587.2753534056705
 20
216.4690454010736
 30
0.0
 11
600.0416693045249
 21
213.1705639111231
 31
0.0
  0
LINE
  5
3EE0
330
1A
100
AcDbEntity
  8
SEIHIN2
  6
HIDDEN
100
AcDbLine
 10
586.7576387684311
 20
204.4952361755136
 30
0.0
 11
598.2819380520417
 21
204.4952361755136
 31
0.0
  0
LINE
  5
3EE1
330
1A
100
AcDbEntity
  8
SEIHIN2
  6
HIDDEN
100
AcDbLine
 10
598.0550418624289
 20
209.5008572211144
 30
0.0
 11
586.1851730842922
 21
212.567720266258
 31
0.0
  0
LINE
  5
3EE2
330
1A
100
AcDbEntity
  8
SEIHIN2
  6
HIDDEN
100
AcDbLine
 10
599.1376104617724
 20
211.6483222167249
 30
0.0
 11
585.6999294741626
 21
215.1202668526447
 31
0.0
  0
LINE
  5
3EE3
330
1A
100
AcDbEntity
  8
NOKITOI
100
AcDbLine
 10
599.3734278461122
 20
203.985238657102
 30
0.0
 11
585.8557749583037
 21
203.985238657102
 31
0.0
  0
LINE
  5
3EE4
330
1A
100
AcDbEntity
  8
NOKITOI
100
AcDbLine
 10
598.8979100690476
 20
211.3389154855491
 30
0.0
 11
584.785321104086
 21
214.985238657102
 31
0.0
  0
LINE
  5
3EE5
330
1A
100
AcDbEntity
  8
NOKITOI
100
AcDbLine
 10
584.932192811321
 20
213.398031907821
 30
0.0
 11
598.8648862321922
 21
209.7981890307418
 31
0.0
  0
ARC
  5
3EE6
330
1A
100
AcDbEntity
  8
SEIHIN2
  6
HIDDEN
100
AcDbCircle
 10
599.2911930336563
 20
210.2659494157275
 30
0.0
 40
3.000000000000046
100
AcDbArc
 50
4.961774376844632
 51
75.51309319979549
  0
LINE
  5
3EE7
330
1A
100
AcDbEntity
  8
SEIHIN2
  6
HIDDEN
100
AcDbLine
 10
598.7796675847798
 20
205.0384102585775
 30
0.0
 11
598.427784428507
 21
209.0606559681087
 31
0.0
  0
ARC
  5
3EE8
330
1A
100
AcDbEntity
  8
SEIHIN2
  6
HIDDEN
100
AcDbCircle
 10
598.28208898719
 20
204.9947284556402
 30
0.0
 40
0.4994923029309999
100
AcDbArc
 50
269.982686525787
 51
5.017062618361697
  0
ARC
  5
3EE9
330
1A
100
AcDbEntity
  8
SEIHIN2
  6
HIDDEN
100
AcDbCircle
 10
597.9301135401678
 20
209.0171621297928
 30
0.0
 40
0.4995678403097438
100
AcDbArc
 50
4.99466174633943
 51
75.51818059765493
  0
LINE
  5
3EEA
330
1A
100
AcDbEntity
  8
SEIHIN2
  6
HIDDEN
100
AcDbLine
 10
597.1426895505878
 20
206.5386671847824
 30
0.0
 11
597.0259179570407
 21
207.8734399147839
 31
0.0
  0
ARC
  5
3EEB
330
1A
100
AcDbEntity
  8
SEIHIN2
  6
HIDDEN
100
AcDbCircle
 10
598.637680162823
 20
209.7129559365822
 30
0.0
 40
1.998892929128831
100
AcDbArc
 50
4.95850980746272
 51
75.51635776916533
  0
LINE
  5
3EEC
330
1A
100
AcDbEntity
  8
SEIHIN2
  6
HIDDEN
100
AcDbLine
 10
601.2315435314376
 20
202.9463606961345
 30
0.0
 11
600.6290923348983
 21
209.8857289177782
 31
0.0
  0
LINE
  5
3EED
330
1A
100
AcDbEntity
  8
NOKITOI
100
AcDbLine
 10
598.8648862321922
 20
209.7981890307418
 30
0.0
 11
599.3734278461122
 21
203.985238657102
 31
0.0
  0
ARC
  5
3EEE
330
1A
100
AcDbEntity
  8
NOKITOI
100
AcDbCircle
 10
598.3975925551235
 20
209.402505821955
 30
0.0
 40
2.000000000000012
100
AcDbArc
 50
4.999749144101009
 51
75.5130931994574
  0
ARC
  5
3EEF
330
1A
100
AcDbEntity
  8
SEIHIN2
  6
HIDDEN
100
AcDbCircle
 10
587.5255121626269
 20
217.4372502328723
 30
0.0
 40
1.000000000000363
100
AcDbArc
 50
185.1154960905988
 51
255.5130931997954
  0
ARC
  5
3EF0
330
1A
100
AcDbEntity
  8
SEIHIN2
  6
HIDDEN
100
AcDbCircle
 10
588.1135485672289
 20
206.4950746369105
 30
0.0
 40
0.499838462059843
100
AcDbArc
 50
185.7425876929
 51
270.0029501087916
  0
ARC
  5
3EF1
330
1A
100
AcDbEntity
  8
SEIHIN2
  6
HIDDEN
100
AcDbCircle
 10
1579.010621699248
 20
306.1952361750865
 30
0.0
 40
996.3999999998611
100
AcDbArc
 50
185.5373736607527
 51
185.7455378017671
  0
ARC
  5
3EF2
330
1A
100
AcDbEntity
  8
SEIHIN2
  6
HIDDEN
100
AcDbCircle
 10
587.7578160024377
 20
210.0959162983912
 30
0.0
 40
0.499802155976203
100
AcDbArc
 50
75.50248442722544
 51
185.5479824333842
  0
ARC
  5
3EF3
330
1A
100
AcDbEntity
  8
SEIHIN2
  6
HIDDEN
100
AcDbCircle
 10
586.7575678062376
 20
204.9947881950448
 30
0.0
 40
0.4995520245712459
100
AcDbArc
 50
185.8153493673015
 51
270.0081389605445
  0
ARC
  5
3EF4
330
1A
100
AcDbEntity
  8
SEIHIN2
  6
HIDDEN
100
AcDbCircle
 10
586.059984305316
 20
212.0842121128167
 30
0.0
 40
0.4994520645929636
100
AcDbArc
 50
75.48388823982064
 51
185.4434916092522
  0
ARC
  5
3EF5
330
1A
100
AcDbEntity
  8
SEIHIN2
  6
HIDDEN
100
AcDbCircle
 10
1579.010621699248
 20
306.1952361750865
 30
0.0
 40
997.8999999998606
100
AcDbArc
 50
185.4142866492276
 51
185.8234883278854
  0
ARC
  5
3EF6
330
1A
100
AcDbEntity
  8
SEIHIN2
  6
HIDDEN
100
AcDbCircle
 10
585.9498927668096
 20
216.0879481647845
 30
0.0
 40
0.9994442303277939
100
AcDbArc
 50
185.180321077835
 51
255.5164346251076
  0
LINE
  5
3EF7
330
1A
100
AcDbEntity
  8
SEIHIN2
  6
HIDDEN
100
AcDbLine
 10
588.1135743034678
 20
205.9952361755136
 30
0.0
 11
596.6447245873241
 21
205.9952361755136
 31
0.0
  0
LINE
  5
3EF8
330
1A
100
AcDbEntity
  8
SEIHIN2
  6
HIDDEN
100
AcDbLine
 10
596.6529990803914
 20
208.3138493869238
 30
0.0
 11
587.8829354863296
 21
210.5798040021701
 31
0.0
  0
ARC
  5
3EF9
330
1A
100
AcDbEntity
  8
NOKITOI
100
AcDbCircle
 10
1579.011210929934
 20
306.1852386571014
 30
0.0
 40
998.4000000000001
100
AcDbArc
 50
185.3325301949831
 51
185.8753038897112
  0
LINE
  5
3EFA
330
1A
100
AcDbEntity
  8
SEIHIN
100
AcDbLine
 10
631.0714477912497
 20
307.3657129270997
 30
0.0
 11
649.6458724422354
 21
275.1938657102324
 31
0.0
  0
ARC
  5
3EFB
330
1A
100
AcDbEntity
  8
SEIHIN
100
AcDbCircle
 10
705.0172816490217
 20
266.6900863467345
 30
0.0
 40
7.50515159073935
100
AcDbArc
 50
0.0393147921915067
 51
90.03926091264698
  0
LINE
  5
3EFC
330
1A
100
AcDbEntity
  8
NOKITOI
100
AcDbLine
 10
703.0522422111452
 20
269.5852386571022
 30
0.0
 11
697.1372422111453
 21
252.6852386571027
 31
0.0
  0
LINE
  5
3EFD
330
1A
100
AcDbEntity
  8
NOKITOI
100
AcDbLine
 10
709.8230207036135
 20
254.6852386571021
 30
0.0
 11
709.823020703614
 21
266.1852386571021
 31
0.0
  0
LINE
  5
3EFE
330
1A
100
AcDbEntity
  8
NOKITOI
100
AcDbLine
 10
710.0230207036136
 20
254.6852386571021
 30
0.0
 11
710.023020703614
 21
266.1852386571021
 31
0.0
  0
LINE
  5
3EFF
330
1A
100
AcDbEntity
  8
NOKITOI
100
AcDbLine
 10
701.7886433522687
 20
270.5155890818301
 30
0.0
 11
695.023020703614
 21
251.1852386571027
 31
0.0
  0
LINE
  5
3F00
330
1A
100
AcDbEntity
  8
NOKITOI
100
AcDbLine
 10
701.9418818735298
 20
252.6852386571027
 30
0.0
 11
702.8670597156219
 21
255.4607721833789
 31
0.0
  0
ARC
  5
3F01
330
1A
100
AcDbEntity
  8
SEIHIN
100
AcDbCircle
 10
685.4224314729163
 20
255.4982735388859
 30
0.0
 40
27.1000000000004
100
AcDbArc
 50
351.1529040718367
 51
359.9999999999739
  0
LINE
  5
3F02
330
1A
100
AcDbEntity
  8
SEIHIN2
  6
HIDDEN
100
AcDbLine
 10
705.3278849304165
 20
241.1952361754778
 30
0.0
 11
707.8250644436284
 21
241.1952361754778
 31
0.0
  0
ARC
  5
3F03
330
1A
100
AcDbEntity
  8
SEIHIN2
  6
HIDDEN
100
AcDbCircle
 10
706.1602351873197
 20
238.9014735390966
 30
0.0
 40
0.2937861880895004
100
AcDbArc
 50
90.72549771918945
 51
172.1982527283316
  0
LINE
  5
3F04
330
1A
100
AcDbEntity
  8
NOKITOI
100
AcDbLine
 10
704.023020703614
 20
254.1852386571028
 30
0.0
 11
708.4230207036141
 21
255.1852386571027
 31
0.0
  0
ARC
  5
3F05
330
1A
100
AcDbEntity
  8
SEIHIN2
  6
HIDDEN
100
AcDbCircle
 10
703.9970732641659
 20
241.7603948635757
 30
0.0
 40
3.8694858589709
100
AcDbArc
 50
344.0218130858714
 51
351.601609395194
  0
LINE
  5
3F06
330
1A
100
AcDbEntity
  8
SEIHIN2
  6
HIDDEN
100
AcDbLine
 10
707.5302876321338
 20
239.4952361754777
 30
0.0
 11
707.7170675896918
 21
240.6952361754778
 31
0.0
  0
ARC
  5
3F07
330
1A
100
AcDbEntity
  8
SEIHIN2
  6
HIDDEN
100
AcDbCircle
 10
705.3391847531329
 20
240.0991861429839
 30
0.0
 40
2.272814860391578
100
AcDbArc
 50
336.5641121805257
 51
344.5898000036835
  0
LINE
  5
3F08
330
1A
100
AcDbEntity
  8
SEIHIN2
  6
HIDDEN
100
AcDbLine
 10
707.424505315028
 20
239.1952361754778
 30
0.0
 11
706.1565152708508
 21
239.1952361754778
 31
0.0
  0
LINE
  5
3F09
330
1A
100
AcDbEntity
  8
NOKITOI
100
AcDbLine
 10
708.4230207036141
 20
255.1852386571027
 30
0.0
 11
708.4230207036139
 21
254.6852386571021
 31
0.0
  0
ARC
  5
3F0A
330
1A
100
AcDbEntity
  8
NOKITOI
100
AcDbCircle
 10
685.4230207036132
 20
254.6852386571021
 30
0.0
 40
24.40000000000039
100
AcDbArc
 50
351.0427677630327
 51
0.000000000000007
  0
ARC
  5
3F0B
330
1A
100
AcDbEntity
  8
NOKITOI
100
AcDbCircle
 10
685.4230207036132
 20
254.6852386571021
 30
0.0
 40
24.60000000000039
100
AcDbArc
 50
351.0427677630327
 51
0.000000000000007
  0
ARC
  5
3F0C
330
1A
100
AcDbEntity
  8
NOKITOI
100
AcDbCircle
 10
685.4230207036132
 20
254.6852386571021
 30
0.0
 40
23.00000000000073
100
AcDbArc
 50
351.0427677630327
 51
0.000000000000007
  0
ARC
  5
3F0D
330
1A
100
AcDbEntity
  8
SEIHIN2
  6
HIDDEN
100
AcDbCircle
 10
696.1094288033536
 20
240.4133571772489
 30
0.0
 40
9.870122109672935
100
AcDbArc
 50
351.1522278858972
 51
351.4230646187992
  0
LINE
  5
3F0E
330
1A
100
AcDbEntity
  8
SEIHIN2
  6
HIDDEN
100
AcDbLine
 10
704.1325084464752
 20
238.836623078468
 30
0.0
 11
704.4963443229976
 21
241.1741493180883
 31
0.0
  0
LINE
  5
3F0F
330
1A
100
AcDbEntity
  8
SEIHIN2
  6
HIDDEN
100
AcDbLine
 10
704.9685483817715
 20
241.1952361754778
 30
0.0
 11
705.3278849304165
 21
241.1952361754778
 31
0.0
  0
LINE
  5
3F10
330
1A
100
AcDbEntity
  8
SEIHIN2
  6
HIDDEN
100
AcDbLine
 10
704.4996264916044
 20
241.1952361754778
 30
0.0
 11
704.9685483817715
 21
241.1952361754778
 31
0.0
  0
LINE
  5
3F11
330
1A
100
AcDbEntity
  8
SEIHIN2
  6
HIDDEN
100
AcDbLine
 10
704.4963443229976
 20
241.1741493180883
 30
0.0
 11
704.4996264916044
 21
241.1952361754778
 31
0.0
  0
LINE
  5
3F12
330
1A
100
AcDbEntity
  8
NOKITOI
100
AcDbLine
 10
703.023020703614
 20
251.1852386571027
 30
0.0
 11
704.023020703614
 21
254.1852386571028
 31
0.0
  0
LINE
  5
3F13
330
1A
100
AcDbEntity
  8
NOKITOI
100
AcDbLine
 10
697.1372422111453
 20
252.6852386571027
 30
0.0
 11
701.9418818735298
 21
252.6852386571027
 31
0.0
  0
LINE
  5
3F14
330
1A
100
AcDbEntity
  8
NOKITOI
100
AcDbLine
 10
695.023020703614
 20
251.1852386571027
 30
0.0
 11
703.023020703614
 21
251.1852386571027
 31
0.0
  0
LINE
  5
3F15
330
1A
100
AcDbEntity
  8
NOKITOI
100
AcDbLine
 10
702.8670597156219
 20
255.4607721833789
 30
0.0
 11
708.4230207036141
 21
256.7234905897407
 31
0.0
  0
ARC
  5
3F16
330
1A
100
AcDbEntity
  8
NOKITOI
100
AcDbCircle
 10
705.0230207036141
 20
266.1852386571021
 30
0.0
 40
4.800000000000028
100
AcDbArc
 50
0.000000000000007
 51
90.0
  0
ARC
  5
3F17
330
1A
100
AcDbEntity
  8
NOKITOI
100
AcDbCircle
 10
705.0230207036141
 20
266.1852386571021
 30
0.0
 40
3.400000000000034
100
AcDbArc
 50
0.000000000000007
 51
90.0
  0
ARC
  5
3F18
330
1A
100
AcDbEntity
  8
NOKITOI
100
AcDbCircle
 10
705.0230207036141
 20
266.1852386571021
 30
0.0
 40
5.000000000000028
100
AcDbArc
 50
0.000000000000007
 51
90.0
  0
LINE
  5
3F19
330
1A
100
AcDbEntity
  8
NOKITOI
100
AcDbLine
 10
708.4230207036141
 20
256.7234905897407
 30
0.0
 11
708.4230207036141
 21
266.1852386571021
 31
0.0
  0
LINE
  5
3F1A
330
1A
100
AcDbEntity
  8
SEIHIN
100
AcDbLine
 10
712.5224314729226
 20
266.6952361754737
 30
0.0
 11
712.5224314729162
 21
255.4982735388713
 31
0.0
  0
LINE
  5
3F1B
330
1A
100
AcDbEntity
  8
NOKITOI
100
AcDbLine
 10
705.0230207036141
 20
269.5852386571022
 30
0.0
 11
703.0522422111452
 21
269.5852386571022
 31
0.0
  0
ARC
  5
3F1C
330
1A
100
AcDbEntity
  8
NOKITOI
100
AcDbCircle
 10
702.6472138402403
 20
269.9733778613982
 30
0.0
 40
1.015448812288253
100
AcDbArc
 50
85.18203328732573
 51
147.72644637953
  0
ARC
  5
3F1D
330
1A
100
AcDbEntity
  8
NOKITOI
100
AcDbCircle
 10
702.7325017086347
 20
270.1852386571021
 30
0.0
 40
1.000000000000013
100
AcDbArc
 50
90.0
 51
160.7099537808137
  0
LINE
  5
3F1E
330
1A
100
AcDbEntity
  8
NOKITOI
100
AcDbLine
 10
705.0230207036141
 20
270.985238657102
 30
0.0
 11
702.7325017086347
 21
270.985238657102
 31
0.0
  0
LINE
  5
3F1F
330
1A
100
AcDbEntity
  8
NOKITOI
100
AcDbLine
 10
705.0230207036141
 20
271.185238657102
 30
0.0
 11
702.7325017086347
 21
271.185238657102
 31
0.0
  0
LINE
  5
3F20
330
1A
100
AcDbEntity
  8
SEIHIN
100
AcDbLine
 10
651.3755495343693
 20
274.1952361754778
 30
0.0
 11
705.0121388780937
 21
274.1952361754778
 31
0.0
  0
ARC
  5
3F21
330
1A
100
AcDbEntity
  8
SEIHIN
100
AcDbCircle
 10
651.3753681755488
 20
276.1921811222954
 30
0.0
 40
1.996944955053405
100
AcDbArc
 50
209.9947965040304
 51
270.0052034959529
  0
ARC
  5
3F22
330
1A
100
AcDbEntity
  8
NOKITOI
100
AcDbCircle
 10
596.4112109291987
 20
274.1354977547224
 30
0.0
 40
1.600000000000008
100
AcDbArc
 50
298.5868361218862
 51
0.000000000000007
  0
ARC
  5
3F23
330
1A
100
AcDbEntity
  8
NOKITOI
100
AcDbCircle
 10
1579.011210929934
 20
306.1852386571014
 30
0.0
 40
998.3999999999999
100
AcDbArc
 50
181.4914279597314
 51
182.3150327430774
  0
LINE
  5
3F24
330
1A
100
AcDbEntity
  8
NOKITOI
100
AcDbLine
 10
581.4260737499832
 20
265.855918334818
 30
0.0
 11
596.5112109291988
 21
274.0761065611212
 31
0.0
  0
LINE
  5
3F25
330
1A
100
AcDbEntity
  8
NOKITOI
100
AcDbLine
 10
581.4950155726863
 20
264.1852386571016
 30
0.0
 11
597.1767951309141
 21
272.7305490616791
 31
0.0
  0
POLYLINE
  5
3F26
330
1A
100
AcDbEntity
  8
SEIHIN2
  6
HIDDEN
100
AcDb2dPolyline
 66
     1
 10
0.0
 20
0.0
 30
0.0
  0
VERTEX
  5
4A71
330
3F26
100
AcDbEntity
  8
SEIHIN2
  6
HIDDEN
100
AcDbVertex
100
AcDb2dVertex
 10
584.212857324499
 20
248.836623078468
 30
0.0
  0
VERTEX
  5
4A72
330
3F26
100
AcDbEntity
  8
SEIHIN2
  6
HIDDEN
100
AcDbVertex
100
AcDb2dVertex
 10
584.2387288974627
 20
248.3896673004561
 30
0.0
  0
VERTEX
  5
4A73
330
3F26
100
AcDbEntity
  8
SEIHIN2
  6
HIDDEN
100
AcDbVertex
100
AcDb2dVertex
 10
584.2808114717081
 20
247.6699668801155
 30
0.0
  0
VERTEX
  5
4A74
330
3F26
100
AcDbEntity
  8
SEIHIN2
  6
HIDDEN
100
AcDbVertex
100
AcDb2dVertex
 10
584.3349022277616
 20
246.7577429973997
 30
0.0
  0
VERTEX
  5
4A75
330
3F26
100
AcDbEntity
  8
SEIHIN2
  6
HIDDEN
100
AcDbVertex
100
AcDb2dVertex
 10
584.3827025252399
 20
245.9631442228045
 30
0.0
  0
SEQEND
  5
4A76
330
3F26
100
AcDbEntity
  8
SEIHIN2
  6
HIDDEN
  0
LINE
  5
3F27
330
1A
100
AcDbEntity
  8
SEIHIN2
  6
HIDDEN
100
AcDbLine
 10
582.5164459358984
 20
248.9124398948196
 30
0.0
 11
582.5174195247281
 21
248.8952361754781
 31
0.0
  0
LINE
  5
3F28
330
1A
100
AcDbEntity
  8
SEIHIN2
  6
HIDDEN
100
AcDbLine
 10
584.0808339742848
 20
251.1741493180883
 30
0.0
 11
584.212857324499
 21
248.836623078468
 31
0.0
  0
POLYLINE
  5
3F29
330
1A
100
AcDbEntity
  8
SEIHIN2
  6
HIDDEN
100
AcDb2dPolyline
 66
     1
 10
0.0
 20
0.0
 30
0.0
  0
VERTEX
  5
4A77
330
3F29
100
AcDbEntity
  8
SEIHIN2
  6
HIDDEN
100
AcDbVertex
100
AcDb2dVertex
 10
582.255603390472
 20
250.0000808311666
 30
0.0
  0
VERTEX
  5
4A78
330
3F29
100
AcDbEntity
  8
SEIHIN2
  6
HIDDEN
100
AcDbVertex
100
AcDb2dVertex
 10
582.3071310024988
 20
250.465093001928
 30
0.0
  0
VERTEX
  5
4A79
330
3F29
100
AcDbEntity
  8
SEIHIN2
  6
HIDDEN
100
AcDbVertex
100
AcDb2dVertex
 10
582.3958769242286
 20
250.6952361754778
 30
0.0
  0
SEQEND
  5
4A7A
330
3F29
100
AcDbEntity
  8
SEIHIN2
  6
HIDDEN
  0
ARC
  5
3F2A
330
1A
100
AcDbEntity
  8
SEIHIN2
  6
HIDDEN
100
AcDbCircle
 10
581.2592313150912
 20
249.2908016007808
 30
0.0
 40
1.045143190979823
100
AcDbArc
 50
354.1960915888574
 51
11.28003131987259
  0
ARC
  5
3F2B
330
1A
100
AcDbEntity
  8
SEIHIN2
  6
HIDDEN
100
AcDbCircle
 10
583.9599309533919
 20
249.3119610953436
 30
0.0
 40
2.087993044400212
100
AcDbArc
 50
120.3502460925349
 51
138.5099272273283
  0
POLYLINE
  5
3F2C
330
1A
100
AcDbEntity
  8
SEIHIN2
  6
HIDDEN
100
AcDb2dPolyline
 66
     1
 10
0.0
 20
0.0
 30
0.0
  0
VERTEX
  5
4A7B
330
3F2C
100
AcDbEntity
  8
SEIHIN2
  6
HIDDEN
100
AcDbVertex
100
AcDb2dVertex
 10
582.2841853600707
 20
249.4952361754779
 30
0.0
  0
VERTEX
  5
4A7C
330
3F2C
100
AcDbEntity
  8
SEIHIN2
  6
HIDDEN
100
AcDbVertex
100
AcDb2dVertex
 10
582.2805986304074
 20
249.5583409648719
 30
0.0
  0
VERTEX
  5
4A7D
330
3F2C
100
AcDbEntity
  8
SEIHIN2
  6
HIDDEN
100
AcDbVertex
100
AcDb2dVertex
 10
582.2770158959906
 20
249.6214459812196
 30
0.0
  0
VERTEX
  5
4A7E
330
3F2C
100
AcDbEntity
  8
SEIHIN2
  6
HIDDEN
100
AcDbVertex
100
AcDb2dVertex
 10
582.2734371568349
 20
249.6845512242677
 30
0.0
  0
VERTEX
  5
4A7F
330
3F2C
100
AcDbEntity
  8
SEIHIN2
  6
HIDDEN
100
AcDbVertex
100
AcDb2dVertex
 10
582.2698624129543
 20
249.7476566937638
 30
0.0
  0
VERTEX
  5
4A80
330
3F2C
100
AcDbEntity
  8
SEIHIN2
  6
HIDDEN
100
AcDbVertex
100
AcDb2dVertex
 10
582.266291664363
 20
249.8107623894546
 30
0.0
  0
VERTEX
  5
4A81
330
3F2C
100
AcDbEntity
  8
SEIHIN2
  6
HIDDEN
100
AcDbVertex
100
AcDb2dVertex
 10
582.2627249110755
 20
249.8738683110874
 30
0.0
  0
VERTEX
  5
4A82
330
3F2C
100
AcDbEntity
  8
SEIHIN2
  6
HIDDEN
100
AcDbVertex
100
AcDb2dVertex
 10
582.2591621531064
 20
249.936974458409
 30
0.0
  0
VERTEX
  5
4A83
330
3F2C
100
AcDbEntity
  8
SEIHIN2
  6
HIDDEN
100
AcDbVertex
100
AcDb2dVertex
 10
582.2556033904693
 20
250.0000808311666
 30
0.0
  0
SEQEND
  5
4A84
330
3F2C
100
AcDbEntity
  8
SEIHIN2
  6
HIDDEN
  0
LINE
  5
3F2D
330
1A
100
AcDbEntity
  8
SEIHIN2
  6
HIDDEN
100
AcDbLine
 10
583.183211256478
 20
251.1952361754778
 30
0.0
 11
583.5301707650938
 21
251.1952361754778
 31
0.0
  0
LINE
  5
3F2E
330
1A
100
AcDbEntity
  8
SEIHIN2
  6
HIDDEN
100
AcDbLine
 10
583.5301707650938
 20
251.1952361754778
 30
0.0
 11
584.0796680640678
 21
251.1952361754773
 31
0.0
  0
LINE
  5
3F2F
330
1A
100
AcDbEntity
  8
SEIHIN2
  6
HIDDEN
100
AcDbLine
 10
584.0796680640678
 20
251.1952361754778
 30
0.0
 11
584.0808339742848
 21
251.1741493180883
 31
0.0
  0
ARC
  5
3F30
330
1A
100
AcDbEntity
  8
SEIHIN2
  6
HIDDEN
100
AcDbCircle
 10
583.1785805144067
 20
250.6947724899169
 30
0.0
 40
0.5004851090066094
100
AcDbArc
 50
89.46986282297869
 51
123.1498089257701
  0
ARC
  5
3F31
330
1A
100
AcDbEntity
  8
SEIHIN2
  6
HIDDEN
100
AcDbCircle
 10
582.2224135131055
 20
248.9010036351704
 30
0.0
 40
0.2942547428475132
100
AcDbArc
 50
2.227371006377985
 51
74.91034457075169
  0
POLYLINE
  5
3F32
330
1A
100
AcDbEntity
  8
SEIHIN2
  6
HIDDEN
100
AcDb2dPolyline
 66
     1
 10
0.0
 20
0.0
 30
0.0
  0
VERTEX
  5
4A85
330
3F32
100
AcDbEntity
  8
SEIHIN2
  6
HIDDEN
100
AcDbVertex
100
AcDb2dVertex
 10
584.0631293654019
 20
251.4952361754777
 30
0.0
  0
VERTEX
  5
4A86
330
3F32
100
AcDbEntity
  8
SEIHIN2
  6
HIDDEN
100
AcDbVertex
100
AcDb2dVertex
 10
584.068599964702
 20
251.3958211404368
 30
0.0
  0
VERTEX
  5
4A87
330
3F32
100
AcDbEntity
  8
SEIHIN2
  6
HIDDEN
100
AcDbVertex
100
AcDb2dVertex
 10
584.0734621464794
 20
251.3076142332114
 30
0.0
  0
VERTEX
  5
4A88
330
3F32
100
AcDbEntity
  8
SEIHIN2
  6
HIDDEN
100
AcDbVertex
100
AcDb2dVertex
 10
584.0771594765333
 20
251.2406344488682
 30
0.0
  0
VERTEX
  5
4A89
330
3F32
100
AcDbEntity
  8
SEIHIN2
  6
HIDDEN
100
AcDbVertex
100
AcDb2dVertex
 10
584.0792689293998
 20
251.202456858833
 30
0.0
  0
VERTEX
  5
4A8A
330
3F32
100
AcDbEntity
  8
SEIHIN2
  6
HIDDEN
100
AcDbVertex
100
AcDb2dVertex
 10
584.0796680640678
 20
251.1952361754764
 30
0.0
  0
SEQEND
  5
4A8B
330
3F32
100
AcDbEntity
  8
SEIHIN2
  6
HIDDEN
  0
ARC
  5
3F33
330
1A
100
AcDbEntity
  8
NOKITOI
100
AcDbCircle
 10
596.4112109291987
 20
276.5852386571012
 30
0.0
 40
1.600000000000008
100
AcDbArc
 50
0.000000000000007
 51
90.0
  0
ARC
  5
3F34
330
1A
100
AcDbEntity
  8
NOKITOI
100
AcDbCircle
 10
596.0112109291988
 20
293.1852386571012
 30
0.0
 40
4.999999999999985
100
AcDbArc
 50
270.0
 51
0.000000000000007
  0
ARC
  5
3F35
330
1A
100
AcDbEntity
  8
NOKITOI
100
AcDbCircle
 10
596.0112109291988
 20
293.1852386571012
 30
0.0
 40
3.499999999999985
100
AcDbArc
 50
270.0
 51
0.000000000000007
  0
LINE
  5
3F36
330
1A
100
AcDbEntity
  8
NOKITOI
100
AcDbLine
 10
599.4386046868096
 20
297.029246272624
 30
0.0
 11
585.7975140503931
 21
300.01323484934
 31
0.0
  0
LINE
  5
3F37
330
1A
100
AcDbEntity
  8
NOKITOI
100
AcDbLine
 10
599.3958653110484
 20
296.8338662691447
 30
0.0
 11
585.754774674632
 21
299.8178548458607
 31
0.0
  0
LINE
  5
3F38
330
1A
100
AcDbEntity
  8
NOKITOI
100
AcDbLine
 10
599.1180593686014
 20
295.461531625566
 30
0.0
 11
590.5112109291986
 21
297.3442797216855
 31
0.0
  0
LINE
  5
3F39
330
1A
100
AcDbEntity
  8
NOKITOI
100
AcDbLine
 10
598.0112109291987
 20
274.1354977547224
 30
0.0
 11
598.0112109291987
 21
276.5852386571012
 31
0.0
  0
LINE
  5
3F3A
330
1A
100
AcDbEntity
  8
NOKITOI
100
AcDbLine
 10
599.5112109291987
 20
293.1852386571012
 30
0.0
 11
599.5112109291987
 21
294.9730816168679
 31
0.0
  0
LINE
  5
3F3B
330
1A
100
AcDbEntity
  8
NOKITOI
100
AcDbLine
 10
601.0112109291988
 20
293.1852386571012
 30
0.0
 11
601.0112109291988
 21
295.0754462378314
 31
0.0
  0
ARC
  5
3F3C
330
1A
100
AcDbEntity
  8
NOKITOI
100
AcDbCircle
 10
599.0306390426107
 20
294.877190487827
 30
0.0
 40
1.990469879287869
100
AcDbArc
 50
5.716280370791207
 51
79.4270390383314
  0
ARC
  5
3F3D
330
1A
100
AcDbEntity
  8
NOKITOI
100
AcDbCircle
 10
599.0112109291987
 20
294.9730816168679
 30
0.0
 40
0.5
100
AcDbArc
 50
0.000000000000007
 51
77.66091272167457
  0
ARC
  5
3F3E
330
1A
100
AcDbEntity
  8
NOKITOI
100
AcDbCircle
 10
599.0112109291987
 20
295.0754462378315
 30
0.0
 40
2.0
100
AcDbArc
 50
0.000000000000007
 51
77.66091272167457
  0
ARC
  5
3F3F
330
1A
100
AcDbEntity
  8
NOKITOI
100
AcDbCircle
 10
595.866610912966
 20
290.1852386571012
 30
0.0
 40
0.5
100
AcDbArc
 50
160.0168934781009
 51
270.0
  0
ARC
  5
3F40
330
1A
100
AcDbEntity
  8
NOKITOI
100
AcDbCircle
 10
587.8030037396099
 20
286.6852386571012
 30
0.0
 40
7.000000000000182
100
AcDbArc
 50
90.0
 51
181.127032230844
  0
LINE
  5
3F41
330
1A
100
AcDbEntity
  8
NOKITOI
100
AcDbLine
 10
594.5233043608034
 20
292.3434955940145
 30
0.0
 11
593.2551642133963
 21
288.8561101886446
 31
0.0
  0
LINE
  5
3F42
330
1A
100
AcDbEntity
  8
NOKITOI
100
AcDbLine
 10
596.5112109291988
 20
274.0761065611212
 30
0.0
 11
596.5112109291988
 21
276.6852386571012
 31
0.0
  0
LINE
  5
3F43
330
1A
100
AcDbEntity
  8
NOKITOI
100
AcDbLine
 10
593.7250609251405
 20
288.1852386571012
 30
0.0
 11
596.0112109291988
 21
288.1852386571012
 31
0.0
  0
LINE
  5
3F44
330
1A
100
AcDbEntity
  8
NOKITOI
100
AcDbLine
 10
595.866610912966
 20
289.6852386571012
 30
0.0
 11
596.0112109291988
 21
289.6852386571012
 31
0.0
  0
ARC
  5
3F45
330
1A
100
AcDbEntity
  8
NOKITOI
100
AcDbCircle
 10
587.8336486327155
 20
285.1852386571012
 30
0.0
 40
8.500000000000021
100
AcDbArc
 50
215.9131497548178
 51
270.0
  0
ARC
  5
3F46
330
1A
100
AcDbEntity
  8
NOKITOI
100
AcDbCircle
 10
1579.011210929934
 20
306.1852386571014
 30
0.0
 40
998.4000000007354
100
AcDbArc
 50
181.127032230844
 51
181.2137395248443
  0
ARC
  5
3F47
330
1A
100
AcDbEntity
  8
NOKITOI
100
AcDbCircle
 10
587.8336486327155
 20
285.1852386571012
 30
0.0
 40
7.000000000000047
100
AcDbArc
 50
181.2137395248443
 51
270.0
  0
LINE
  5
3F48
330
1A
100
AcDbEntity
  8
NOKITOI
100
AcDbLine
 10
596.5112109291988
 20
276.6852386571012
 30
0.0
 11
587.8336486327155
 21
276.6852386571012
 31
0.0
  0
LINE
  5
3F49
330
1A
100
AcDbEntity
  8
NOKITOI
100
AcDbLine
 10
596.4112109291987
 20
278.1852386571011
 30
0.0
 11
587.8336486327155
 21
278.1852386571011
 31
0.0
  0
ARC
  5
3F4A
330
1A
100
AcDbEntity
  8
NOKITOI
100
AcDbCircle
 10
593.7250609251405
 20
288.6852386571012
 30
0.0
 40
0.5
100
AcDbArc
 50
160.0168934781009
 51
270.0
  0
LINE
  5
3F4B
330
1A
100
AcDbEntity
  8
NOKITOI
100
AcDbLine
 10
595.8842038391967
 20
291.6967066930757
 30
0.0
 11
595.3967142012218
 21
290.3561101886446
 31
0.0
  0
LINE
  5
3F4C
330
1A
100
AcDbEntity
  8
NOKITOI
100
AcDbLine
 10
587.8030037396099
 20
293.6852386571012
 30
0.0
 11
593.5835109373151
 21
293.6852386571012
 31
0.0
  0
LINE
  5
3F4D
330
1A
100
AcDbEntity
  8
NOKITOI
100
AcDbLine
 10
587.8030037396099
 20
295.1852386571012
 30
0.0
 11
589.0112109291985
 21
295.1852386571012
 31
0.0
  0
LINE
  5
3F4E
330
1A
100
AcDbEntity
  8
NOKITOI
100
AcDbLine
 10
589.0112109291985
 20
297.6724047216854
 30
0.0
 11
584.1975140503932
 21
298.7254009139241
 31
0.0
  0
ARC
  5
3F4F
330
1A
100
AcDbEntity
  8
NOKITOI
100
AcDbCircle
 10
1579.011210929934
 20
306.1852386571014
 30
0.0
 40
998.3999999999998
100
AcDbArc
 50
180.1673696882618
 51
180.8493437959588
  0
ARC
  5
3F50
330
1A
100
AcDbEntity
  8
NOKITOI
100
AcDbCircle
 10
587.8030037396099
 20
286.6852386571012
 30
0.0
 40
8.500000000000023
100
AcDbArc
 50
90.0
 51
146.4276220008696
  0
ARC
  5
3F51
330
1A
100
AcDbEntity
  8
NOKITOI
100
AcDbCircle
 10
584.5112109291985
 20
303.8248590470733
 30
0.0
 40
0.3000000000000076
100
AcDbArc
 50
0.000000000000007
 51
71.56505117707182
  0
ARC
  5
3F52
330
1A
100
AcDbEntity
  8
NOKITOI
100
AcDbCircle
 10
586.0112109291986
 20
300.9901348667363
 30
0.0
 40
1.20000000000001
100
AcDbArc
 50
180.0
 51
257.6609127216745
  0
ARC
  5
3F53
330
1A
100
AcDbEntity
  8
NOKITOI
100
AcDbCircle
 10
584.5112109291985
 20
303.8248590470733
 30
0.0
 40
0.5000000000000077
100
AcDbArc
 50
0.000000000000007
 51
71.56505117707182
  0
ARC
  5
3F54
330
1A
100
AcDbEntity
  8
NOKITOI
100
AcDbCircle
 10
586.0112109291986
 20
300.9901348667363
 30
0.0
 40
1.00000000000001
100
AcDbArc
 50
180.0
 51
257.6609127216745
  0
LINE
  5
3F55
330
1A
100
AcDbEntity
  8
NOKITOI
100
AcDbLine
 10
583.4112109291986
 20
299.7023009313203
 30
0.0
 11
583.4112109291986
 21
302.6716442949834
 31
0.0
  0
ARC
  5
3F56
330
1A
100
AcDbEntity
  8
NOKITOI
100
AcDbCircle
 10
584.4112109291986
 20
299.7023009313203
 30
0.0
 40
1.0
100
AcDbArc
 50
180.0
 51
257.6609127216745
  0
LINE
  5
3F57
330
1A
100
AcDbEntity
  8
NOKITOI
100
AcDbLine
 10
583.069324812207
 20
303.1459859440087
 30
0.0
 11
581.2735824150074
 21
303.7445667430751
 31
0.0
  0
LINE
  5
3F58
330
1A
100
AcDbEntity
  8
NOKITOI
100
AcDbLine
 10
584.8112109291985
 20
300.9901348667363
 30
0.0
 11
584.8112109291985
 21
303.8248590470733
 31
0.0
  0
ARC
  5
3F59
330
1A
100
AcDbEntity
  8
NOKITOI
100
AcDbCircle
 10
582.9112109291986
 20
302.6716442949834
 30
0.0
 40
0.5
100
AcDbArc
 50
0.000000000000007
 51
71.56505117707182
  0
LINE
  5
3F5A
330
1A
100
AcDbEntity
  8
NOKITOI
100
AcDbLine
 10
585.0112109291985
 20
300.9901348667363
 30
0.0
 11
585.0112109291985
 21
303.8248590470733
 31
0.0
  0
ARC
  5
3F5B
330
1A
100
AcDbEntity
  8
NOKITOI
100
AcDbCircle
 10
580.0121748146692
 20
304.7974914752216
 30
0.0
 40
0.8000000000001193
100
AcDbArc
 50
71.56505117707182
 51
180.0795916737998
  0
ARC
  5
3F5C
330
1A
100
AcDbEntity
  8
NOKITOI
100
AcDbCircle
 10
580.0121748146692
 20
304.7974914752216
 30
0.0
 40
1.000000000000119
100
AcDbArc
 50
71.56505117707182
 51
180.0795916737998
  0
LINE
  5
3F5D
330
1A
100
AcDbEntity
  8
NOKITOI
100
AcDbLine
 10
584.6060792590037
 20
304.1094640364884
 30
0.0
 11
580.2651570274827
 21
305.556438113662
 31
0.0
  0
LINE
  5
3F5E
330
1A
100
AcDbEntity
  8
NOKITOI
100
AcDbLine
 10
584.6693248122071
 20
304.2992006960985
 30
0.0
 11
580.3284025806861
 21
305.7461747732721
 31
0.0
  0
ARC
  5
3F5F
330
1A
100
AcDbEntity
  8
NOKITOI
100
AcDbCircle
 10
581.1154685319991
 20
303.2702250940499
 30
0.0
 40
0.5000000000000031
100
AcDbArc
 50
71.56505117707182
 51
180.1673696882651
  0
LINE
  5
3F60
330
1A
100
AcDbEntity
  8
NOKITOI
100
AcDbLine
 10
589.0112109291985
 20
297.6724047216854
 30
0.0
 11
589.0112109291985
 21
295.1852386571012
 31
0.0
  0
LINE
  5
3F61
330
1A
100
AcDbEntity
  8
NOKITOI
100
AcDbLine
 10
590.5112109291986
 20
295.1852386571012
 30
0.0
 11
590.5112109291986
 21
297.3442797216855
 31
0.0
  0
LINE
  5
3F62
330
1A
100
AcDbEntity
  8
NOKITOI
100
AcDbLine
 10
590.5112109291986
 20
295.1852386571012
 30
0.0
 11
593.4407409381267
 21
295.1852386571012
 31
0.0
  0
ARC
  5
3F63
330
1A
100
AcDbEntity
  8
NOKITOI
100
AcDbCircle
 10
593.5835109373151
 20
292.6852386571012
 30
0.0
 40
1.000000000000003
100
AcDbArc
 50
340.016893478101
 51
90.0
  0
ARC
  5
3F64
330
1A
100
AcDbEntity
  8
NOKITOI
100
AcDbCircle
 10
593.4407409381267
 20
292.5852386571012
 30
0.0
 40
2.600000000000022
100
AcDbArc
 50
340.016893478101
 51
90.0
  0
LINE
  5
3F65
330
1A
100
AcDbEntity
  8
SEIHIN
100
AcDbLine
 10
490.2972324781778
 20
201.3682039886239
 30
0.0
 11
490.2974871567533
 21
303.85950589189
 31
0.0
  0
LINE
  5
3F66
330
1A
100
AcDbEntity
  8
SEIHIN
100
AcDbLine
 10
460.2972314224778
 20
200.9433917611378
 30
0.0
 11
480.2972288178757
 21
199.8951864778823
 31
0.0
  0
LINE
  5
3F67
330
1A
100
AcDbEntity
  8
SEIHIN
100
AcDbLine
 10
460.297191167423
 20
184.7433917611382
 30
0.0
 11
480.2971885628214
 21
183.6951864778829
 31
0.0
  0
ARC
  5
3F68
330
1A
100
AcDbEntity
  8
SEIHIN
100
AcDbCircle
 10
485.2971944326843
 20
186.0574124602787
 30
0.0
 40
1.999999999999965
100
AcDbArc
 50
274.085474406847
 51
359.9998576268693
  0
ARC
  5
3F69
330
1A
100
AcDbEntity
  8
SEIHIN
100
AcDbCircle
 10
485.298588535771
 20
187.2476567586989
 30
0.0
 40
1.998609144448514
100
AcDbArc
 50
274.0483405966145
 51
359.9689963572178
  0
LINE
  5
3F6A
330
1A
100
AcDbEntity
  8
SEIHIN
100
AcDbLine
 10
480.2971885628214
 20
183.6951864778829
 30
0.0
 11
485.4396835755292
 21
184.0624947065426
 31
0.0
  0
LINE
  5
3F6B
330
1A
100
AcDbEntity
  8
SEIHIN
100
AcDbLine
 10
480.2971915634572
 20
184.9027441708245
 30
0.0
 11
480.2972042290647
 21
184.9028959097492
 31
0.0
  0
LINE
  5
3F6C
330
1A
100
AcDbEntity
  8
SEIHIN
100
AcDbLine
 10
480.2972042290628
 20
184.9028959097492
 30
0.0
 11
485.4396865363628
 21
185.2540344608444
 31
0.0
  0
ARC
  5
3F6D
330
1A
100
AcDbEntity
  8
SEIHIN
100
AcDbCircle
 10
488.2972273713765
 20
199.3130564871114
 30
0.0
 40
0.9999999999999779
100
AcDbArc
 50
92.99985762684887
 51
177.8430475799758
  0
LINE
  5
3F6E
330
1A
100
AcDbEntity
  8
SEIHIN
100
AcDbLine
 10
480.2972288178757
 20
199.8951864778823
 30
0.0
 11
489.3495659529492
 21
200.3695768087039
 31
0.0
  0
ARC
  5
3F6F
330
1A
100
AcDbEntity
  8
SEIHIN
100
AcDbCircle
 10
489.2972324782022
 20
201.3682064735049
 30
0.0
 40
1.000000000000018
100
AcDbArc
 50
272.9998576256487
 51
359.9998576268042
  0
LINE
  5
3F70
330
1A
100
AcDbEntity
  8
SEIHIN
100
AcDbLine
 10
480.2972288178753
 20
199.8951864778823
 30
0.0
 11
480.2972289730401
 21
199.8951864697501
 31
0.0
  0
LINE
  5
3F71
330
1A
100
AcDbEntity
  8
SEIHIN
100
AcDbLine
 10
487.2971973876168
 20
187.2465752800719
 30
0.0
 11
487.297199648861
 21
188.1565766981965
 31
0.0
  0
LINE
  5
3F72
330
1A
100
AcDbEntity
  8
SEIHIN
100
AcDbLine
 10
487.2971944326777
 20
186.0574074905189
 30
0.0
 11
487.2971973876168
 21
187.2465752800719
 31
0.0
  0
LINE
  5
3F73
330
1A
100
AcDbEntity
  8
SEIHIN
100
AcDbLine
 10
487.297199648861
 20
188.1565766981965
 30
0.0
 11
487.2972273713795
 21
199.3130589719913
 31
0.0
  0
LINE
  5
3F74
330
1A
100
AcDbEntity
  8
SEIHIN
100
AcDbLine
 10
490.2974871567533
 20
303.85950589189
 30
0.0
 11
490.2974956669153
 21
307.2842838694055
 31
0.0
  0
LINE
  5
3F75
330
1A
100
AcDbEntity
  8
SEIHIN
100
AcDbLine
 10
582.0485061786776
 20
308.3643424618545
 30
0.0
 11
629.3417706991163
 21
308.3643424618545
 31
0.0
  0
LINE
  5
3F76
330
1A
100
AcDbEntity
  8
SEIHIN
100
AcDbLine
 10
697.955903100643
 20
410.7178453268391
 30
0.0
 11
603.2671808697624
 21
410.7178453268399
 31
0.0
  0
LINE
  5
3F77
330
1A
100
AcDbEntity
  8
SEIHIN
100
AcDbLine
 10
605.7425687901188
 20
420.71784532684
 30
0.0
 11
692.5612942051763
 21
420.7178453268392
 31
0.0
  0
LINE
  5
3F78
330
1A
100
AcDbEntity
  8
SEIHIN
100
AcDbLine
 10
711.4742758872666
 20
435.2178453268392
 30
0.0
 11
577.5736364045383
 21
435.21784532684
 31
0.0
  0
LINE
  5
3F79
330
1A
100
AcDbEntity
  8
SEIHIN
100
AcDbLine
 10
581.4196489590608
 20
407.7178453268403
 30
0.0
 11
704.6190805333146
 21
407.7178453268397
 31
0.0
  0
LINE
  5
3F7A
330
1A
100
AcDbEntity
  8
SEIHIN
100
AcDbLine
 10
577.9980294097936
 20
405.2178453268402
 30
0.0
 11
711.0493891133764
 21
405.2178453268395
 31
0.0
  0
LINE
  5
3F7B
330
1A
100
AcDbEntity
  8
CENTER_L
 48
0.5
100
AcDbLine
 10
650.2230207036136
 20
395.0936620680512
 30
0.0
 11
650.2230207036136
 21
446.0195642754389
 31
0.0
  0
LINE
  5
3F7C
330
1A
100
AcDbEntity
  8
SEIHIN
100
AcDbLine
 10
712.0480186481313
 20
406.1655093705963
 30
0.0
 11
712.5224314729223
 21
415.2178453269344
 31
0.0
  0
LINE
  5
3F7D
330
1A
100
AcDbEntity
  8
SEIHIN
100
AcDbLine
 10
698.9733075347458
 20
435.2178453268396
 30
0.0
 11
698.9733075347454
 21
407.7178453268397
 31
0.0
  0
LINE
  5
3F7E
330
1A
100
AcDbEntity
  8
SEIHIN
100
AcDbLine
 10
701.5224314729262
 20
407.7178453268396
 30
0.0
 11
701.5224314729262
 21
435.2178453268396
 31
0.0
  0
LINE
  5
3F7F
330
1A
100
AcDbEntity
  8
SEIHIN
100
AcDbLine
 10
697.2893571816508
 20
410.7178453268391
 30
0.0
 11
697.2893571816509
 21
420.7178453268392
 31
0.0
  0
ARC
  5
3F80
330
1A
100
AcDbEntity
  8
SEIHIN
100
AcDbCircle
 10
711.0493891133764
 20
406.2178453268394
 30
0.0
 40
1.000000000000282
100
AcDbArc
 50
269.9999999999992
 51
356.9999999999937
  0
LINE
  5
3F81
330
1A
100
AcDbEntity
  8
SEIHIN
100
AcDbLine
 10
701.5224314729262
 20
407.7178453268396
 30
0.0
 11
704.6190805333146
 21
407.7178453268395
 31
0.0
  0
ARC
  5
3F82
330
1A
100
AcDbEntity
  8
SEIHIN
100
AcDbCircle
 10
699.1730449807516
 20
408.0363581125069
 30
0.0
 40
0.6919753056564768
100
AcDbArc
 50
175.3176301364803
 51
207.4061461024974
  0
ARC
  5
3F83
330
1A
100
AcDbEntity
  8
SEIHIN
100
AcDbCircle
 10
694.8216494313365
 20
408.7225418697684
 30
0.0
 40
3.715478697202118
100
AcDbArc
 50
350.2424570602352
 51
32.48131917870773
  0
LINE
  5
3F84
330
1A
100
AcDbEntity
  8
SEIHIN
100
AcDbLine
 10
650.2224314729467
 20
405.2178453268399
 30
0.0
 11
650.2224314729467
 21
407.7178453268399
 31
0.0
  0
LINE
  5
3F85
330
1A
100
AcDbEntity
  8
SEIHIN
100
AcDbLine
 10
695.2520702994307
 20
435.217846077944
 30
0.0
 11
695.4801150991268
 21
420.7178453268392
 31
0.0
  0
LINE
  5
3F86
330
1A
100
AcDbEntity
  8
SEIHIN
100
AcDbLine
 10
712.5224314729223
 20
415.2178453269344
 30
0.0
 11
711.4742758872666
 21
435.2178453268394
 31
0.0
  0
LINE
  5
3F87
330
1A
100
AcDbEntity
  8
SEIHIN
100
AcDbLine
 10
697.2893571816509
 20
420.7178453268392
 30
0.0
 11
698.9733075347455
 21
420.7178453268394
 31
0.0
  0
LINE
  5
3F88
330
1A
100
AcDbEntity
  8
SEIHIN
100
AcDbLine
 10
697.2893571816509
 20
420.7178453268392
 30
0.0
 11
692.5612942051763
 21
420.7178453268392
 31
0.0
  0
LINE
  5
3F89
330
1A
100
AcDbEntity
  8
SEIHIN
100
AcDbLine
 10
587.7780840787582
 20
407.7178453268405
 30
0.0
 11
587.7780840787582
 21
435.2178453268404
 31
0.0
  0
LINE
  5
3F8A
330
1A
100
AcDbEntity
  8
SEIHIN
100
AcDbLine
 10
602.2799509040551
 20
407.7178453268241
 30
0.0
 11
602.2799509040553
 21
420.71784532684
 31
0.0
  0
LINE
  5
3F8B
330
1A
100
AcDbEntity
  8
SEIHIN
100
AcDbLine
 10
603.8393402006861
 20
420.71784532684
 30
0.0
 11
603.839340200686
 21
410.7178453268399
 31
0.0
  0
LINE
  5
3F8C
330
1A
100
AcDbEntity
  8
SEIHIN
100
AcDbLine
 10
576.5247134145627
 20
415.2178453268399
 30
0.0
 11
576.9180470459336
 21
407.7178453268404
 31
0.0
  0
LINE
  5
3F8D
330
1A
100
AcDbEntity
  8
SEIHIN
100
AcDbLine
 10
630.4948887605383
 20
405.21784532684
 30
0.0
 11
630.4948887605383
 21
407.7178453268401
 31
0.0
  0
ARC
  5
3F8E
330
1A
100
AcDbEntity
  8
SEIHIN
100
AcDbCircle
 10
611.108690630389
 20
408.5099851829467
 30
0.0
 40
8.14640544909195
100
AcDbArc
 50
164.2748722786658
 51
182.9351362555378
  0
ARC
  5
3F8F
330
1A
100
AcDbEntity
  8
SEIHIN
100
AcDbCircle
 10
602.1144564652995
 20
407.999212016247
 30
0.0
 40
0.8636065561855511
100
AcDbArc
 50
340.9856924398998
 51
6.224316094351428
  0
LINE
  5
3F90
330
1A
100
AcDbEntity
  8
SEIHIN
100
AcDbLine
 10
576.9180348283566
 20
407.7178453268404
 30
0.0
 11
576.9998774835403
 21
406.1561943161097
 31
0.0
  0
LINE
  5
3F91
330
1A
100
AcDbEntity
  8
SEIHIN
100
AcDbLine
 10
576.9994013076893
 20
406.1655093705976
 30
0.0
 11
576.9180470471078
 21
407.7178453044932
 31
0.0
  0
ARC
  5
3F92
330
1A
100
AcDbEntity
  8
SEIHIN
100
AcDbCircle
 10
577.9980294097936
 20
406.2178438171416
 30
0.0
 40
0.9999984903025753
100
AcDbArc
 50
182.999917915043
 51
269.9999284719906
  0
LINE
  5
3F93
330
1A
100
AcDbEntity
  8
SEIHIN
100
AcDbLine
 10
587.7780840787579
 20
420.71784532684
 30
0.0
 11
600.0416693045247
 21
420.71784532684
 31
0.0
  0
LINE
  5
3F94
330
1A
100
AcDbEntity
  8
SEIHIN
100
AcDbLine
 10
600.1110834451219
 20
435.2178451370656
 30
0.0
 11
600.3835307154986
 21
420.7178453268403
 31
0.0
  0
LINE
  5
3F95
330
1A
100
AcDbEntity
  8
SEIHIN
100
AcDbLine
 10
602.2799509040553
 20
420.71784532684
 30
0.0
 11
600.0416693045247
 21
420.71784532684
 31
0.0
  0
LINE
  5
3F96
330
1A
100
AcDbEntity
  8
SEIHIN
100
AcDbLine
 10
602.2799509040553
 20
420.71784532684
 30
0.0
 11
603.8393402006861
 21
420.71784532684
 31
0.0
  0
LINE
  5
3F97
330
1A
100
AcDbEntity
  8
SEIHIN
100
AcDbLine
 10
605.7425687901188
 20
420.71784532684
 30
0.0
 11
603.8393402006861
 21
420.71784532684
 31
0.0
  0
LINE
  5
3F98
330
1A
100
AcDbEntity
  8
SEIHIN
100
AcDbLine
 10
480.2973054606109
 20
308.4848918038136
 30
0.0
 11
460.2973445078073
 21
308.1621409362206
 31
0.0
  0
LINE
  5
3F99
330
1A
100
AcDbEntity
  8
SEIHIN
100
AcDbLine
 10
487.7974847882872
 20
308.3638300924724
 30
0.0
 11
480.2976912122382
 21
308.4848497558059
 31
0.0
  0
LINE
  5
3F9A
330
1A
100
AcDbEntity
  8
SEIHIN
100
AcDbLine
 10
489.3498341046357
 20
308.2829157917881
 30
0.0
 11
487.7974983505536
 21
308.3642741272756
 31
0.0
  0
VIEWPORT
  5
22
330
17
100
AcDbEntity
 67
     1
  8
0
100
AcDbViewport
 10
313.6808219178082
 20
148.5
 30
0.0
 40
627.3616438356165
 41
297.0
 68
     2
 69
     1
1001
ACAD
1000
MVIEW
1002
{
1070
    16
1010
0.0
1020
0.0
1030
0.0
1010
0.0
1020
0.0
1030
1.0
1040
0.0
1040
297.0
1040
313.6808219178082
1040
148.5
1040
50.0
1040
0.0
1040
0.0
1070
     0
1070
   100
1070
     1
1070
     0
1070
     0
1070
     0
1070
     0
1070
     0
1040
0.0
1040
0.0
1040
0.0
1040
1.0
1040
1.0
1040
10.0
1040
10.0
1070
     0
1002
{
1002
}
1002
}
  0
VIEWPORT
  5
64
330
17
100
AcDbEntity
 67
     1
  8
VIEWPORT
100
AcDbViewport
 10
210.0
 20
148.5
 30
0.0
 40
420.0
 41
297.0
 68
     1
 69
     2
1001
ACAD
1000
MVIEW
1002
{
1070
    16
1010
0.0
1020
0.0
1030
0.0
1010
0.0
1020
0.0
1030
1.0
1040
0.0
1040
605.8799999999998
1040
420.0
1040
297.0
1040
50.0
1040
0.0
1040
0.0
1070
     0
1070
   100
1070
     1
1070
     0
1070
     0
1070
     0
1070
     0
1070
     0
1040
0.0
1040
0.0
1040
0.0
1040
10.0
1040
10.0
1040
0.0
1040
0.0
1070
     0
1002
{
1002
}
1002
}
  0
ENDSEC
  0
SECTION
  2
OBJECTS
  0
DICTIONARY
  5
C
330
0
100
AcDbDictionary
  3
ACAD_GROUP
350
D
  3
ACAD_LAYOUT
350
F66
  3
ACAD_MLINESTYLE
350
E
  3
ACAD_PLOTSETTINGS
350
F67
1001
ACAD
1000
TREAT_AS_HARD
1070
     0
  0
DICTIONARY
  5
1289
330
1A
100
AcDbDictionary
  3
ACAD_LAYOUTSELFREF
350
4A12
1001
ACAD
1000
TREAT_AS_HARD
1070
     1
  0
DICTIONARY
  5
1287
330
17
100
AcDbDictionary
  3
ACAD_LAYOUTSELFREF
350
4A11
1001
ACAD
1000
TREAT_AS_HARD
1070
     1
  0
DICTIONARY
  5
D
102
{ACAD_REACTORS
330
C
102
}
330
C
100
AcDbDictionary
  3
*A1
350
178F
  3
*A2
350
17DA
  3
*A3
350
17DB
  3
*A4
350
1826
  3
*A5
350
29F5
  3
*A6
350
29F6
  3
*A7
350
2EEF
1001
ACAD
1000
TREAT_AS_HARD
1070
     0
  0
DICTIONARY
  5
F66
102
{ACAD_REACTORS
330
C
102
}
330
C
100
AcDbDictionary
1001
ACAD
1000
TREAT_AS_HARD
1070
     0
  0
DICTIONARY
  5
E
102
{ACAD_REACTORS
330
C
102
}
330
C
100
AcDbDictionary
  3
STANDARD
350
13
1001
ACAD
1000
TREAT_AS_HARD
1070
     0
  0
DICTIONARY
  5
F67
102
{ACAD_REACTORS
330
C
102
}
330
C
100
AcDbDictionary
1001
ACAD
1000
TREAT_AS_HARD
1070
     0
  0
XRECORD
  5
4A12
102
{ACAD_REACTORS
330
1289
102
}
330
1289
100
AcDbXrecord
340
1A
  0
XRECORD
  5
4A11
102
{ACAD_REACTORS
330
1287
102
}
330
1287
100
AcDbXrecord
340
17
  0
GROUP
  5
178F
102
{ACAD_REACTORS
330
D
102
}
330
D
100
AcDbGroup
300

 70
     1
 71
     1
  0
GROUP
  5
17DA
102
{ACAD_REACTORS
330
D
102
}
330
D
100
AcDbGroup
300

 70
     1
 71
     1
  0
GROUP
  5
17DB
102
{ACAD_REACTORS
330
D
102
}
330
D
100
AcDbGroup
300

 70
     1
 71
     1
  0
GROUP
  5
1826
102
{ACAD_REACTORS
330
D
102
}
330
D
100
AcDbGroup
300

 70
     1
 71
     1
  0
GROUP
  5
29F5
102
{ACAD_REACTORS
330
D
102
}
330
D
100
AcDbGroup
300

 70
     1
 71
     1
  0
GROUP
  5
29F6
102
{ACAD_REACTORS
330
D
102
}
330
D
100
AcDbGroup
300

 70
     1
 71
     1
  0
GROUP
  5
2EEF
102
{ACAD_REACTORS
330
D
102
}
330
D
100
AcDbGroup
300

 70
     1
 71
     1
  0
MLINESTYLE
  5
13
102
{ACAD_REACTORS
330
E
102
}
330
E
100
AcDbMlineStyle
  2
STANDARD
 70
     0
  3

 62
     0
 51
90.0
 52
90.0
 71
     2
 49
0.5
 62
   256
  6
BYLAYER
 49
-0.5
 62
   256
  6
BYLAYER
  0
ENDSEC
  0
EOF
