  0
SECTION
  2
HEADER
  9
$ACADVER
  1
AC1014
  9
$ACADMAINTVER
 70
     9
  9
$DWGCODEPAGE
  3
ANSI_932
  9
$INSBASE
 10
0.0
 20
0.0
 30
0.0
  9
$EXTMIN
 10
-0.0128167291774162
 20
-0.0090630292066862
 30
-0.0015258207003583
  9
$EXTMAX
 10
398.8000497649677
 20
275.8226172440017
 30
0.0000000349246037
  9
$LIMMIN
 10
0.0
 20
0.0
  9
$LIMMAX
 10
420.0
 20
297.0
  9
$ORTHOMODE
 70
     1
  9
$REGENMODE
 70
     1
  9
$FILLMODE
 70
     1
  9
$QTEXTMODE
 70
     0
  9
$MIRRTEXT
 70
     1
  9
$DRAGMODE
 70
     2
  9
$LTSCALE
 40
1.0
  9
$OSMODE
 70
    35
  9
$ATTMODE
 70
     1
  9
$TEXTSIZE
 40
2.5
  9
$TRACEWID
 40
1.0
  9
$TEXTSTYLE
  7
STANDARD
  9
$CLAYER
  8
0
  9
$CELTYPE
  6
CONTINUOUS
  9
$CECOLOR
 62
   256
  9
$CELTSCALE
 40
1.0
  9
$DELOBJ
 70
     1
  9
$DISPSILH
 70
     0
  9
$DIMSCALE
 40
1.0
  9
$DIMASZ
 40
3.0
  9
$DIMEXO
 40
3.0
  9
$DIMDLI
 40
7.0
  9
$DIMRND
 40
0.0
  9
$DIMDLE
 40
0.0
  9
$DIMEXE
 40
1.5
  9
$DIMTP
 40
0.0
  9
$DIMTM
 40
0.0
  9
$DIMTXT
 40
3.0
  9
$DIMCEN
 40
150.0
  9
$DIMTSZ
 40
0.0
  9
$DIMTOL
 70
     0
  9
$DIMLIM
 70
     0
  9
$DIMTIH
 70
     0
  9
$DIMTOH
 70
     0
  9
$DIMSE1
 70
     0
  9
$DIMSE2
 70
     0
  9
$DIMTAD
 70
     3
  9
$DIMZIN
 70
     0
  9
$DIMBLK
  1

  9
$DIMASO
 70
     1
  9
$DIMSHO
 70
     1
  9
$DIMPOST
  1

  9
$DIMAPOST
  1

  9
$DIMALT
 70
     0
  9
$DIMALTD
 70
     2
  9
$DIMALTF
 40
25.4
  9
$DIMLFAC
 40
1.0
  9
$DIMTOFL
 70
     1
  9
$DIMTVP
 40
0.0
  9
$DIMTIX
 70
     0
  9
$DIMSOXD
 70
     0
  9
$DIMSAH
 70
     1
  9
$DIMBLK1
  1
OPEN
  9
$DIMBLK2
  1
OPEN
  9
$DIMSTYLE
  2
STANDARD
  9
$DIMCLRD
 70
     4
  9
$DIMCLRE
 70
     4
  9
$DIMCLRT
 70
     4
  9
$DIMTFAC
 40
1.0
  9
$DIMGAP
 40
1.0
  9
$DIMJUST
 70
     0
  9
$DIMSD1
 70
     0
  9
$DIMSD2
 70
     0
  9
$DIMTOLJ
 70
     1
  9
$DIMTZIN
 70
     0
  9
$DIMALTZ
 70
     0
  9
$DIMALTTZ
 70
     0
  9
$DIMFIT
 70
     3
  9
$DIMUPT
 70
     0
  9
$DIMUNIT
 70
     2
  9
$DIMDEC
 70
     0
  9
$DIMTDEC
 70
     2
  9
$DIMALTU
 70
     2
  9
$DIMALTTD
 70
     2
  9
$DIMTXSTY
  7
STANDARD
  9
$DIMAUNIT
 70
     0
  9
$LUNITS
 70
     2
  9
$LUPREC
 70
     4
  9
$SKETCHINC
 40
1.0
  9
$FILLETRAD
 40
10.0
  9
$AUNITS
 70
     0
  9
$AUPREC
 70
     0
  9
$MENU
  1
.
  9
$ELEVATION
 40
0.0
  9
$PELEVATION
 40
0.0
  9
$THICKNESS
 40
0.0
  9
$LIMCHECK
 70
     0
  9
$BLIPMODE
 70
     0
  9
$CHAMFERA
 40
10.0
  9
$CHAMFERB
 40
10.0
  9
$CHAMFERC
 40
20.0
  9
$CHAMFERD
 40
0.0
  9
$SKPOLY
 70
     0
  9
$TDCREATE
 40
2450994.350997107
  9
$TDUPDATE
 40
2453630.668122465
  9
$TDINDWG
 40
0.0080920023
  9
$TDUSRTIMER
 40
0.0080920023
  9
$USRTIMER
 70
     1
  9
$ANGBASE
 50
0.0
  9
$ANGDIR
 70
     0
  9
$PDMODE
 70
     0
  9
$PDSIZE
 40
0.0
  9
$PLINEWID
 40
0.0
  9
$COORDS
 70
     1
  9
$SPLFRAME
 70
     0
  9
$SPLINETYPE
 70
     6
  9
$SPLINESEGS
 70
     8
  9
$ATTDIA
 70
     0
  9
$ATTREQ
 70
     1
  9
$HANDLING
 70
 10241
  9
$HANDSEED
  5
3B3
  9
$SURFTAB1
 70
     6
  9
$SURFTAB2
 70
     6
  9
$SURFTYPE
 70
     6
  9
$SURFU
 70
     6
  9
$SURFV
 70
     6
  9
$UCSNAME
  2

  9
$UCSORG
 10
0.0
 20
0.0
 30
0.0
  9
$UCSXDIR
 10
1.0
 20
0.0
 30
0.0
  9
$UCSYDIR
 10
0.0
 20
1.0
 30
0.0
  9
$PUCSNAME
  2

  9
$PUCSORG
 10
0.0
 20
0.0
 30
0.0
  9
$PUCSXDIR
 10
1.0
 20
0.0
 30
0.0
  9
$PUCSYDIR
 10
0.0
 20
1.0
 30
0.0
  9
$USERI1
 70
     0
  9
$USERI2
 70
     0
  9
$USERI3
 70
     0
  9
$USERI4
 70
     0
  9
$USERI5
 70
     0
  9
$USERR1
 40
0.0
  9
$USERR2
 40
0.0
  9
$USERR3
 40
0.0
  9
$USERR4
 40
0.0
  9
$USERR5
 40
0.0
  9
$WORLDVIEW
 70
     1
  9
$SHADEDGE
 70
     3
  9
$SHADEDIF
 70
    70
  9
$TILEMODE
 70
     1
  9
$MAXACTVP
 70
    16
  9
$PINSBASE
 10
0.0
 20
0.0
 30
0.0
  9
$PLIMCHECK
 70
     0
  9
$PEXTMIN
 10
0.0
 20
0.0
 30
0.0
  9
$PEXTMAX
 10
420.0
 20
297.0
 30
0.0
  9
$PLIMMIN
 10
0.0
 20
0.0
  9
$PLIMMAX
 10
420.0
 20
297.0
  9
$UNITMODE
 70
     0
  9
$VISRETAIN
 70
     0
  9
$PLINEGEN
 70
     0
  9
$PSLTSCALE
 70
     1
  9
$TREEDEPTH
 70
  3020
  9
$PICKSTYLE
 70
     1
  9
$CMLSTYLE
  2
STANDARD
  9
$CMLJUST
 70
     0
  9
$CMLSCALE
 40
1.0
  9
$PROXYGRAPHICS
 70
     1
  9
$MEASUREMENT
 70
     1
  0
ENDSEC
  0
SECTION
  2
CLASSES
  0
CLASS
  1
ACDBDICTIONARYWDFLT
  2
AcDbDictionaryWithDefault
  3
AutoCAD 2000
 90
        0
280
     0
281
     0
  0
CLASS
  1
ACDBPLACEHOLDER
  2
AcDbPlaceHolder
  3
AutoCAD 2000
 90
        0
280
     0
281
     0
  0
CLASS
  1
LAYOUT
  2
AcDbLayout
  3
AutoCAD 2000
 90
        0
280
     0
281
     0
  0
CLASS
  1
LONG_TRANSACTION
  2
AcDbLongTransaction
  3
AutoCAD 2000
 90
        0
280
     0
281
     0
  0
CLASS
  1
LWPOLYLINE
  2
AcDbPolyline
  3
AutoCAD 2000
 90
        0
280
     0
281
     1
  0
CLASS
  1
HATCH
  2
AcDbHatch
  3
AutoCAD 2000
 90
        0
280
     0
281
     1
  0
CLASS
  1
XRECORD
  2
AcDbXrecord
  3
AutoCAD 2000
 90
        0
280
     0
281
     0
  0
ENDSEC
  0
SECTION
  2
TABLES
  0
TABLE
  2
VPORT
  5
8
330
0
100
AcDbSymbolTable
 70
     2
  0
VPORT
  5
387
330
8
100
AcDbSymbolTableRecord
100
AcDbViewportTableRecord
  2
*ACTIVE
 70
     0
 10
0.0
 20
0.0
 11
1.0
 21
1.0
 12
190.5756144644192
 22
133.2233626331027
 13
0.0
 23
0.0
 14
5.0
 24
5.0
 15
0.0
 25
0.0
 16
0.0
 26
0.0
 36
1.0
 17
0.0
 27
0.0
 37
0.0
 40
311.2271775426824
 41
1.752310536044362
 42
50.0
 43
0.0
 44
0.0
 50
0.0
 51
0.0
 71
     0
 72
   100
 73
     1
 74
     0
 75
     0
 76
     0
 77
     0
 78
     0
  0
ENDTAB
  0
TABLE
  2
LTYPE
  5
5
330
0
100
AcDbSymbolTable
 70
     2
  0
LTYPE
  5
14
330
5
100
AcDbSymbolTableRecord
100
AcDbLinetypeTableRecord
  2
BYBLOCK
 70
     0
  3

 72
    65
 73
     0
 40
0.0
  0
LTYPE
  5
15
330
5
100
AcDbSymbolTableRecord
100
AcDbLinetypeTableRecord
  2
BYLAYER
 70
     0
  3

 72
    65
 73
     0
 40
0.0
  0
LTYPE
  5
16
330
5
100
AcDbSymbolTableRecord
100
AcDbLinetypeTableRecord
  2
CONTINUOUS
 70
     0
  3
Solid line
 72
    65
 73
     0
 40
0.0
  0
LTYPE
  5
120
330
5
100
AcDbSymbolTableRecord
100
AcDbLinetypeTableRecord
  2
CENTER
 70
     0
  3
____ _ ____ _ ____ _ ____ _ ____ _ ____ _ ____ 
 72
    65
 73
     4
 40
2.0
 49
1.25
 74
     0
 49
-0.25
 74
     0
 49
0.25
 74
     0
 49
-0.25
 74
     0
  0
ENDTAB
  0
TABLE
  2
LAYER
  5
2
330
0
100
AcDbSymbolTable
 70
     8
  0
LAYER
  5
F
330
2
100
AcDbSymbolTableRecord
100
AcDbLayerTableRecord
  2
0
 70
     0
 62
     7
  6
CONTINUOUS
  0
LAYER
  5
62
330
2
100
AcDbSymbolTableRecord
100
AcDbLayerTableRecord
  2
VIEWPORT
 70
     0
 62
     7
  6
CONTINUOUS
  0
LAYER
  5
6B
330
2
100
AcDbSymbolTableRecord
100
AcDbLayerTableRecord
  2
ZUWAKU
 70
     0
 62
     7
  6
CONTINUOUS
  0
LAYER
  5
140
330
2
100
AcDbSymbolTableRecord
100
AcDbLayerTableRecord
  2
SEIHIN
 70
     0
 62
     3
  6
CONTINUOUS
  0
LAYER
  5
141
330
2
100
AcDbSymbolTableRecord
100
AcDbLayerTableRecord
  2
SUNPOU
 70
     0
 62
     4
  6
CONTINUOUS
  0
LAYER
  5
174
330
2
100
AcDbSymbolTableRecord
100
AcDbLayerTableRecord
  2
DEFPOINTS
 70
     0
 62
     7
  6
CONTINUOUS
  0
LAYER
  5
1CB
330
2
100
AcDbSymbolTableRecord
100
AcDbLayerTableRecord
  2
CENTER_L
 70
     0
 62
     1
  6
CENTER
  0
LAYER
  5
1E1
330
2
100
AcDbSymbolTableRecord
100
AcDbLayerTableRecord
  2
MOJI
 70
     0
 62
     2
  6
CONTINUOUS
  0
ENDTAB
  0
TABLE
  2
STYLE
  5
3
330
0
100
AcDbSymbolTable
 70
     2
  0
STYLE
  5
10
330
3
100
AcDbSymbolTableRecord
100
AcDbTextStyleTableRecord
  2
STANDARD
 70
     0
 40
0.0
 41
1.0
 50
0.0
 71
     0
 42
2.5
  3
TXT
  4
bigfont.shx
  0
STYLE
  5
1E2
330
3
100
AcDbSymbolTableRecord
100
AcDbTextStyleTableRecord
  2
ｽﾀｲﾙ1
 70
     0
 40
0.0
 41
1.0
 50
0.0
 71
     0
 42
2.5
  3
MS PGothic.ttf
  4

1001
ACAD
1000
MS PGothic
1071
    32818
  0
ENDTAB
  0
TABLE
  2
VIEW
  5
6
330
0
100
AcDbSymbolTable
 70
     0
  0
ENDTAB
  0
TABLE
  2
UCS
  5
7
330
0
100
AcDbSymbolTable
 70
     0
  0
ENDTAB
  0
TABLE
  2
APPID
  5
9
330
0
100
AcDbSymbolTable
 70
     1
  0
APPID
  5
11
330
9
100
AcDbSymbolTableRecord
100
AcDbRegAppTableRecord
  2
ACAD
 70
     0
  0
ENDTAB
  0
TABLE
  2
DIMSTYLE
  5
A
330
0
100
AcDbSymbolTable
 70
     1
  0
DIMSTYLE
105
1D
102
{ACAD_REACTORS
330
187
330
178
102
}
330
A
100
AcDbSymbolTableRecord
100
AcDbDimStyleTableRecord
  2
STANDARD
 70
     0
  3

  4

  5

  6

  7

 40
1.0
 41
0.18
 42
0.0625
 43
0.38
 44
0.18
 45
0.0
 46
0.0
 47
0.0
 48
0.0
140
0.18
141
0.09
142
0.0
143
25.4
144
1.0
145
0.0
146
1.0
147
0.09
 71
     0
 72
     0
 73
     1
 74
     1
 75
     0
 76
     0
 77
     0
 78
     0
170
     0
171
     2
172
     0
173
     0
174
     0
175
     0
176
     0
177
     0
178
     0
270
     2
271
     4
272
     4
273
     2
274
     2
340
10
275
     0
280
     0
281
     0
282
     0
283
     1
284
     0
285
     0
286
     0
287
     3
288
     0
  0
ENDTAB
  0
TABLE
  2
BLOCK_RECORD
  5
1
330
0
100
AcDbSymbolTable
 70
     3
  0
BLOCK_RECORD
  5
1A
102
{ACAD_XDICTIONARY
360
3AB
102
}
330
1
100
AcDbSymbolTableRecord
100
AcDbBlockTableRecord
  2
*MODEL_SPACE
  0
BLOCK_RECORD
  5
17
102
{ACAD_XDICTIONARY
360
3A9
102
}
330
1
100
AcDbSymbolTableRecord
100
AcDbBlockTableRecord
  2
*PAPER_SPACE
  0
BLOCK_RECORD
  5
B2
330
1
100
AcDbSymbolTableRecord
100
AcDbBlockTableRecord
  2
_OPEN
  0
BLOCK_RECORD
  5
16E
330
1
100
AcDbSymbolTableRecord
100
AcDbBlockTableRecord
  2
*D1
  0
BLOCK_RECORD
  5
179
330
1
100
AcDbSymbolTableRecord
100
AcDbBlockTableRecord
  2
*D2
  0
ENDTAB
  0
ENDSEC
  0
SECTION
  2
BLOCKS
  0
BLOCK
  5
1B
330
1A
100
AcDbEntity
  8
0
100
AcDbBlockBegin
  2
*MODEL_SPACE
 70
     0
 10
0.0
 20
0.0
 30
0.0
  3
*MODEL_SPACE
  1

  0
ENDBLK
  5
1C
330
1A
100
AcDbEntity
  8
0
100
AcDbBlockEnd
  0
BLOCK
  5
18
330
17
100
AcDbEntity
 67
     1
  8
0
100
AcDbBlockBegin
  2
*PAPER_SPACE
 70
     0
 10
0.0
 20
0.0
 30
0.0
  3
*PAPER_SPACE
  1

  0
ENDBLK
  5
19
330
17
100
AcDbEntity
 67
     1
  8
0
100
AcDbBlockEnd
  0
BLOCK
  5
B3
330
B2
100
AcDbEntity
  8
0
100
AcDbBlockBegin
  2
_OPEN
 70
     0
 10
0.0
 20
0.0
 30
0.0
  3
_OPEN
  1

  0
LINE
  5
B4
330
B2
100
AcDbEntity
  8
0
  6
BYBLOCK
 62
     0
100
AcDbLine
 10
-1.0
 20
0.1666666666666666
 30
0.0
 11
0.0
 21
0.0
 31
0.0
  0
LINE
  5
B5
330
B2
100
AcDbEntity
  8
0
  6
BYBLOCK
 62
     0
100
AcDbLine
 10
0.0
 20
0.0
 30
0.0
 11
-1.0
 21
-0.1666666666666666
 31
0.0
  0
LINE
  5
B6
330
B2
100
AcDbEntity
  8
0
  6
BYBLOCK
 62
     0
100
AcDbLine
 10
0.0
 20
0.0
 30
0.0
 11
-1.0
 21
0.0
 31
0.0
  0
ENDBLK
  5
B7
330
B2
100
AcDbEntity
  8
0
100
AcDbBlockEnd
  0
BLOCK
  5
16F
330
16E
100
AcDbEntity
  8
0
100
AcDbBlockBegin
  2
*D1
 70
     1
 10
0.0
 20
0.0
 30
0.0
  3
*D1
  1

  0
LINE
  5
3AD
330
16E
100
AcDbEntity
  8
SUNPOU
  6
CONTINUOUS
 62
     4
100
AcDbLine
 10
222.9749549565262
 20
151.8553277599261
 30
0.0
 11
175.8250443950169
 21
125.5326013130204
 31
0.0
  0
MTEXT
  5
3AE
330
16E
100
AcDbEntity
  8
SUNPOU
  6
CONTINUOUS
 62
     4
100
AcDbMText
 10
210.4550498489906
 20
148.0544528773554
 30
0.0
 40
3.0
 41
0.0
 71
     5
 72
     1
  1
\A1;\U+220560
 11
0.8731464928444317
 21
0.4874578977034518
 31
0.0
  0
INSERT
  5
3AF
330
16E
100
AcDbEntity
  8
SUNPOU
  6
CONTINUOUS
 62
     4
100
AcDbBlockReference
  2
_OPEN
 10
225.5943944350595
 20
153.3177014530365
 30
0.0
 41
3.0
 42
3.0
 43
3.0
 50
29.17363306962799
  0
INSERT
  5
3B0
330
16E
100
AcDbEntity
  8
SUNPOU
  6
CONTINUOUS
 62
     4
100
AcDbBlockReference
  2
_OPEN
 10
173.2056049164836
 20
124.07022761991
 30
0.0
 41
3.0
 42
3.0
 43
3.0
 50
209.1736330696279
  0
POINT
  5
3B1
330
16E
100
AcDbEntity
  8
DEFPOINTS
  6
CONTINUOUS
 62
     0
100
AcDbPoint
 10
173.2056049164836
 20
124.07022761991
 30
0.0
  0
POINT
  5
3B2
330
16E
100
AcDbEntity
  8
DEFPOINTS
  6
CONTINUOUS
 62
     0
100
AcDbPoint
 10
225.5943944350595
 20
153.3177014530365
 30
0.0
  0
ENDBLK
  5
177
330
16E
100
AcDbEntity
  8
0
100
AcDbBlockEnd
  0
BLOCK
  5
1AF
330
179
100
AcDbEntity
  8
0
100
AcDbBlockBegin
  2
*D2
 70
     1
 10
0.0
 20
0.0
 30
0.0
  3
*D2
  1

  0
LINE
  5
2B5
330
179
100
AcDbEntity
  8
SUNPOU
  6
CONTINUOUS
 62
     4
100
AcDbLine
 10
211.4817106886287
 20
164.2719314426887
 30
0.0
 11
212.7807388783895
 21
163.5219142680808
 31
0.0
  0
LINE
  5
2B6
330
179
100
AcDbEntity
  8
SUNPOU
  6
CONTINUOUS
 62
     4
100
AcDbLine
 10
212.381951471687
 20
165.8311466104963
 30
0.0
 11
213.6809796614477
 21
165.0811294358883
 31
0.0
  0
LINE
  5
2B7
330
179
100
AcDbEntity
  8
SUNPOU
  6
CONTINUOUS
 62
     4
100
AcDbLine
 10
212.5797327189343
 20
160.1738407139513
 30
0.0
 11
211.0796983697183
 21
157.5757843344298
 31
0.0
  0
LINE
  5
2B8
330
179
100
AcDbEntity
  8
SUNPOU
  6
CONTINUOUS
 62
     4
100
AcDbLine
 10
216.4800422004244
 20
166.9291686408018
 30
0.0
 11
222.9801910470268
 21
178.1874129520616
 31
0.0
  0
LINE
  5
2B9
330
179
100
AcDbEntity
  8
SUNPOU
  6
CONTINUOUS
 62
     4
100
AcDbLine
 10
214.0797670681502
 20
162.7718970934728
 30
0.0
 11
214.9800078512084
 21
164.3311122612804
 31
0.0
  0
INSERT
  5
2BA
330
179
100
AcDbEntity
  8
SUNPOU
  6
CONTINUOUS
 62
     4
100
AcDbBlockReference
  2
_OPEN
 10
214.0797670681502
 20
162.7718970934728
 30
0.0
 41
3.0
 42
3.0
 43
3.0
 50
59.99924248849754
  0
INSERT
  5
2BB
330
179
100
AcDbEntity
  8
SUNPOU
  6
CONTINUOUS
 62
     4
100
AcDbBlockReference
  2
_OPEN
 10
214.9800078512084
 20
164.3311122612804
 30
0.0
 41
3.0
 42
3.0
 43
3.0
 50
239.9992424884975
  0
MTEXT
  5
2BC
330
179
100
AcDbEntity
  8
SUNPOU
  6
CONTINUOUS
 62
     4
100
AcDbMText
 10
218.3150868153989
 20
175.1073476105391
 30
0.0
 40
3.0
 41
0.0
 71
     5
 72
     1
  1
\A1;t1.8
 11
0.5000114497386475
 21
0.8660187931738294
 31
0.0
1001
ACAD
1000
MTEXTBEGIN
1070
    73
1070
     1
1070
    44
1040
1.0
1070
    74
1070
     0
1000
MTEXTEND
  0
POINT
  5
2BD
330
179
100
AcDbEntity
  8
DEFPOINTS
  6
CONTINUOUS
 62
     0
100
AcDbPoint
 10
214.0797670681502
 20
162.7718970934728
 30
0.0
  0
POINT
  5
2BE
330
179
100
AcDbEntity
  8
DEFPOINTS
  6
CONTINUOUS
 62
     0
100
AcDbPoint
 10
214.9800078512084
 20
164.3311122612803
 30
0.0
  0
POINT
  5
2BF
330
179
100
AcDbEntity
  8
DEFPOINTS
  6
CONTINUOUS
 62
     0
100
AcDbPoint
 10
214.9800078512084
 20
164.3311122612804
 30
0.0
  0
ENDBLK
  5
1BB
330
179
100
AcDbEntity
  8
0
100
AcDbBlockEnd
  0
ENDSEC
  0
SECTION
  2
ENTITIES
  0
ARC
  5
159
330
1A
100
AcDbEntity
  8
SEIHIN
  6
CONTINUOUS
 62
     3
100
AcDbCircle
 10
199.3999996757715
 20
138.6939645364732
 30
0.0
 40
29.99999997017109
100
AcDbArc
 50
0.0000954929658176
 51
359.9999045070341
  0
ARC
  5
15A
330
1A
100
AcDbEntity
  8
SEIHIN
  6
CONTINUOUS
 62
     3
100
AcDbCircle
 10
199.3999996459009
 20
138.6940145364732
 30
0.0
 40
28.20000000000002
100
AcDbArc
 50
0.0
 51
180.0
  0
ARC
  5
15B
330
1A
100
AcDbEntity
  8
SEIHIN
  6
CONTINUOUS
 62
     3
 48
8.0
100
AcDbCircle
 10
199.3999996459009
 20
138.6940145364732
 30
0.0
 40
28.20000000000002
100
AcDbArc
 50
180.0
 51
0.0
  0
DIMENSION
  5
178
330
1A
100
AcDbEntity
  8
SUNPOU
  6
CONTINUOUS
100
AcDbDimension
  2
*D1
 10
225.5943944350595
 20
153.3177014530365
 30
0.0
 11
210.4550498489906
 21
148.0544528773554
 31
0.0
 70
   163
  3
STANDARD
100
AcDbDiametricDimension
 15
173.2056049164836
 25
124.07022761991
 35
0.0
 40
0.0
1001
ACAD
1000
DSTYLE
1002
{
1070
   287
1070
     5
1070
    41
1040
3.0
1070
    42
1040
3.0
1070
    43
1040
7.0
1070
    44
1040
1.5
1070
    73
1070
     0
1070
    74
1070
     0
1070
    77
1070
     3
1070
   140
1040
3.0
1070
   141
1040
150.0
1070
   147
1040
1.0
1070
   172
1070
     1
1070
   173
1070
     1
1070
   176
1070
     4
1070
   177
1070
     4
1070
   178
1070
     4
1070
   271
1070
     0
1070
   272
1070
     2
1070
   279
1070
     2
1070
     6
1000
OPEN
1070
     7
1000
OPEN
1002
}
  0
DIMENSION
  5
187
330
1A
100
AcDbEntity
  8
SUNPOU
  6
CONTINUOUS
100
AcDbDimension
  2
*D2
 10
214.9800078512084
 20
164.3311122612804
 30
0.0
 11
218.3150868153989
 21
175.1073476105391
 31
0.0
 70
    33
  1
t<>
  3
STANDARD
100
AcDbAlignedDimension
 13
214.0797670681502
 23
162.7718970934728
 33
0.0
 14
214.9800078512084
 24
164.3311122612803
 34
0.0
1001
ACAD
1000
DSTYLE
1002
{
1070
   140
1040
3.0
1070
    74
1070
     0
1070
   172
1070
     1
1070
    73
1070
     0
1070
   272
1070
     2
1070
    77
1070
     3
1070
   173
1070
     1
1070
   280
1070
     2
1070
   147
1040
1.0
1070
    42
1040
3.0
1070
    44
1040
1.5
1070
    43
1040
7.0
1070
   271
1070
     1
1070
   178
1070
     4
1070
   177
1070
     4
1070
   176
1070
     4
1070
   141
1040
150.0
1070
     7
1000
_OPEN
1070
     6
1000
_OPEN
1070
    41
1040
3.0
1002
}
  0
LINE
  5
1D2
330
1A
100
AcDbEntity
  8
CENTER_L
 48
5.0
100
AcDbLine
 10
199.3999996757706
 20
101.6939645663021
 30
0.0
 11
199.3999996757712
 21
175.6939645066443
 31
0.0
  0
LINE
  5
1D3
330
1A
100
AcDbEntity
  8
CENTER_L
 48
5.0
100
AcDbLine
 10
236.3999996459426
 20
138.6939645364739
 30
0.0
 11
162.3999997056005
 21
138.6939645364726
 31
0.0
  0
LWPOLYLINE
  5
2C0
330
1A
100
AcDbEntity
  8
ZUWAKU
100
AcDbPolyline
 90
        4
 70
     1
 43
0.0
 10
0.3999996757712552
 20
275.400000280089
 10
0.3999996757712552
 20
0.4000002800890457
 10
398.3999996757712
 20
0.4000002800890457
 10
398.3999996757712
 20
275.400000280089
  0
LWPOLYLINE
  5
2C1
330
1A
100
AcDbEntity
  8
ZUWAKU
100
AcDbPolyline
 90
        4
 70
     1
 43
0.0
 10
0.1999996757712665
 20
275.600000280089
 10
0.1999996757712665
 20
0.200000280089057
 10
398.5999996757712
 20
0.2000002800890455
 10
398.5999996757712
 20
275.600000280089
  0
LWPOLYLINE
  5
2C2
330
1A
100
AcDbEntity
  8
ZUWAKU
100
AcDbPolyline
 90
        4
 70
     1
 43
0.0
 10
-0.0000003242287221
 20
275.800000280089
 10
-0.0000003242287221
 20
0.0000002800890115
 10
398.7999996757713
 20
0.0000002800890453
 10
398.7999996757713
 20
275.800000280089
  0
LWPOLYLINE
  5
2C3
330
1A
100
AcDbEntity
  8
ZUWAKU
100
AcDbPolyline
 90
        4
 70
     1
 43
0.0
 10
0.2999996757712324
 20
275.500000280089
 10
0.2999996757712324
 20
0.3000002800890229
 10
398.4999996757713
 20
0.300000280089046
 10
398.4999996757712
 20
275.500000280089
  0
LWPOLYLINE
  5
2C4
330
1A
100
AcDbEntity
  8
ZUWAKU
100
AcDbPolyline
 90
        4
 70
     1
 43
0.0
 10
0.0999996757712438
 20
275.700000280089
 10
0.0999996757712438
 20
0.1000002800890343
 10
398.6999996757712
 20
0.1000002800890458
 10
398.6999996757713
 20
275.700000280089
  0
LINE
  5
2C5
330
1A
100
AcDbEntity
  8
ZUWAKU
100
AcDbLine
 10
-0.0000003242287221
 20
15.00000028008901
 30
0.0
 11
398.6999996757712
 21
15.00000028008901
 31
0.0
  0
LINE
  5
2C6
330
1A
100
AcDbEntity
  8
ZUWAKU
100
AcDbLine
 10
-0.0000003242287221
 20
15.10000028008901
 30
0.0
 11
398.6999996757712
 21
15.10000028008901
 31
0.0
  0
LINE
  5
2C7
330
1A
100
AcDbEntity
  8
ZUWAKU
100
AcDbLine
 10
-0.0000003242287221
 20
15.20000028008901
 30
0.0
 11
398.6999996757712
 21
15.20000028008901
 31
0.0
  0
LINE
  5
2C8
330
1A
100
AcDbEntity
  8
ZUWAKU
100
AcDbLine
 10
-0.0000003242287221
 20
15.30000028008901
 30
0.0
 11
398.6999996757712
 21
15.30000028008901
 31
0.0
  0
LINE
  5
2C9
330
1A
100
AcDbEntity
  8
ZUWAKU
100
AcDbLine
 10
-0.0000003242287221
 20
15.40000028008901
 30
0.0
 11
398.6999996757712
 21
15.40000028008901
 31
0.0
  0
LINE
  5
2CA
330
1A
100
AcDbEntity
  8
ZUWAKU
100
AcDbLine
 10
104.3233003208052
 20
7.700000280089028
 30
0.0
 11
223.712181661267
 21
7.700000280089028
 31
0.0
  0
LINE
  5
2CB
330
1A
100
AcDbEntity
  8
ZUWAKU
100
AcDbLine
 10
104.3233003208052
 20
7.800000280089028
 30
0.0
 11
223.712181661267
 21
7.800000280089031
 31
0.0
  0
LINE
  5
2CC
330
1A
100
AcDbEntity
  8
ZUWAKU
100
AcDbLine
 10
104.3233003208052
 20
7.60000028008903
 30
0.0
 11
223.712181661267
 21
7.600000280089027
 31
0.0
  0
TEXT
  5
2CD
330
1A
100
AcDbEntity
  8
MOJI
100
AcDbText
 10
46.47889446985584
 20
6.370589345226392
 30
0.0
 40
3.0
  1
エスロン厚肉たてとい
 41
0.9
  7
ｽﾀｲﾙ1
100
AcDbText
  0
CIRCLE
  5
2CE
330
1A
100
AcDbEntity
  8
ZUWAKU
100
AcDbCircle
 10
12.99610575316182
 20
7.600000280089012
 30
0.0
 40
0.875
  0
LINE
  5
2CF
330
1A
100
AcDbEntity
  8
ZUWAKU
100
AcDbLine
 10
13.43360575316182
 20
3.575000280089014
 30
0.0
 11
12.47110575316185
 21
3.575000280089014
 31
0.0
  0
LINE
  5
2D0
330
1A
100
AcDbEntity
  8
ZUWAKU
100
AcDbLine
 10
12.47110575316185
 20
4.975000280089012
 30
0.0
 11
13.43360575316182
 21
4.975000280089012
 31
0.0
  0
LINE
  5
2D1
330
1A
100
AcDbEntity
  8
ZUWAKU
100
AcDbLine
 10
13.43360575316182
 20
10.22500028008901
 30
0.0
 11
12.47110575316185
 21
10.22500028008901
 31
0.0
  0
LINE
  5
2D2
330
1A
100
AcDbEntity
  8
ZUWAKU
100
AcDbLine
 10
12.47110575316185
 20
11.62500028008899
 30
0.0
 11
13.43360575316182
 21
11.62500028008901
 31
0.0
  0
HATCH
  5
2D3
330
1A
100
AcDbEntity
  8
ZUWAKU
100
AcDbHatch
 10
0.0
 20
0.0
 30
0.0
210
0.0
220
0.0
230
1.0
  2
ANSI37
 70
     0
 71
     0
 91
        8
 92
        7
 72
     1
 73
     1
 93
       24
 10
7.251131006331206
 20
8.822424520580803
 42
-0.1989123673796348
 10
7.046105753161839
 20
9.317399267411328
 42
0.0
 10
7.046105753161839
 20
9.962500280089017
 42
-0.4142135623730912
 10
7.308605753161828
 20
10.22500028008901
 42
0.0
 10
8.796105753161782
 20
10.22500028008901
 42
0.4142135623731546
 10
9.058605753161828
 20
10.487500280089
 42
0.0
 10
9.058605753161828
 20
11.36250028008901
 42
0.4142135623731586
 10
8.796105753161782
 20
11.62500028008901
 42
0.0
 10
7.046105753161839
 20
11.62500028008901
 42
0.4142135623730928
 10
5.646105753161862
 20
10.22500028008902
 42
0.0
 10
5.646105753161862
 20
9.317399267411392
 42
0.1989123673796619
 10
6.261181512670077
 20
7.832475026919588
 42
0.0
 10
7.716080499992415
 20
6.37757603959726
 42
-0.1989123673796613
 10
7.921105753161839
 20
5.882601292766667
 42
0.0
 10
7.921105753161839
 20
5.237500280089008
 42
-0.4142135623730911
 10
7.65860575316185
 20
4.975000280089012
 42
0.0
 10
6.171105753161896
 20
4.975000280089012
 42
0.4142135623731526
 10
5.90860575316185
 20
4.712500280089019
 42
0.0
 10
5.90860575316185
 20
3.837500280089008
 42
0.4142135623731526
 10
6.171105753161896
 20
3.575000280089014
 42
0.0
 10
7.921105753161839
 20
3.575000280089014
 42
0.4142135623731044
 10
9.321105753161873
 20
4.975000280089002
 42
0.0
 10
9.321105753161873
 20
5.882601292766638
 42
0.1989123673796604
 10
8.706029993653601
 20
7.367525533258408
 42
0.0
 97
        0
 92
        7
 72
     1
 73
     1
 93
       16
 10
11.77110575316186
 20
9.525000280089017
 42
-0.4142135623730935
 10
12.47110575316185
 20
10.22500028008901
 42
0.0
 10
13.43360575316182
 20
10.22500028008901
 42
0.4142135623731546
 10
13.69610575316187
 20
10.487500280089
 42
0.0
 10
13.69610575316187
 20
11.36250028008901
 42
0.4142135623730951
 10
13.43360575316188
 20
11.62500028008901
 42
0.0
 10
12.47110575316179
 20
11.62500028008899
 42
0.4142135623730892
 10
10.37110575316182
 20
9.525000280088981
 42
0.0
 10
10.37110575316182
 20
5.675000280089026
 42
0.4142135623730969
 10
12.47110575316185
 20
3.575000280089014
 42
0.0
 10
13.43360575316182
 20
3.575000280089014
 42
0.4142135623731526
 10
13.69610575316187
 20
3.837500280089008
 42
0.0
 10
13.69610575316187
 20
4.712500280089019
 42
0.4142135623730891
 10
13.43360575316188
 20
4.975000280089012
 42
0.0
 10
12.47110575316185
 20
4.975000280089012
 42
-0.4142135623730928
 10
11.77110575316186
 20
5.675000280089006
 42
0.0
 97
        0
 92
        7
 72
     1
 73
     1
 93
        2
 10
12.12110575316182
 20
7.600000280089012
 42
1.0
 10
13.87110575316182
 20
7.600000280089012
 42
1.0
 97
        0
 92
        7
 72
     1
 73
     1
 93
       26
 10
18.65742899425083
 20
9.602523876870726
 42
0.0
 10
19.18824881081974
 20
11.28345329600552
 42
0.5069206636600134
 10
18.93793336122206
 20
11.62500028008901
 42
0.0
 10
18.08848867141745
 20
11.62500028008901
 42
0.3272098845218764
 10
17.83817322181977
 20
11.4415472641725
 42
0.0
 10
16.90403828450388
 20
8.483453296005553
 42
-0.3272098845219541
 10
16.65372283490614
 20
8.300000280089012
 42
0.0
 10
16.58360575316192
 20
8.300000280089012
 42
-0.4142135623731526
 10
16.32110575316187
 20
8.562500280089006
 42
0.0
 10
16.32110575316187
 20
11.36250028008901
 42
0.4142135623730951
 10
16.05860575316188
 20
11.62500028008901
 42
0.0
 10
15.18360575316182
 20
11.62500028008901
 42
0.4142135623730871
 10
14.92110575316184
 20
11.36250028008902
 42
0.0
 10
14.92110575316184
 20
3.837500280089008
 42
0.4142135623730891
 10
15.18360575316182
 20
3.575000280089014
 42
0.0
 10
16.05860575316182
 20
3.575000280089014
 42
0.4142135623731526
 10
16.32110575316187
 20
3.837500280089008
 42
0.0
 10
16.32110575316187
 20
6.637500280089019
 42
-0.4142135623731526
 10
16.58360575316192
 20
6.900000280089013
 42
0.0
 10
16.6537228349062
 20
6.900000280089013
 42
-0.3272098845218915
 10
16.90403828450388
 20
6.716547264172476
 42
0.0
 10
17.83817322181977
 20
3.75845329600555
 42
0.3272098845218902
 10
18.08848867141745
 20
3.575000280089014
 42
0.0
 10
18.93793336122206
 20
3.575000280089014
 42
0.5069206636600335
 10
19.18824881081974
 20
3.916547264172518
 42
0.0
 10
18.02505312158291
 20
7.600000280089082
 42
0.0
 97
        0
 92
        7
 72
     1
 73
     1
 93
        8
 10
21.74610575316183
 20
11.36250028008902
 42
0.4142135623731546
 10
21.48360575316178
 20
11.62500028008901
 42
0.0
 10
20.60860575316189
 20
11.62500028008901
 42
0.4142135623731507
 10
20.34610575316185
 20
11.36250028008902
 42
0.0
 10
20.34610575316185
 20
3.837500280089008
 42
0.4142135623731526
 10
20.60860575316189
 20
3.575000280089014
 42
0.0
 10
21.48360575316178
 20
3.575000280089014
 42
0.4142135623731526
 10
21.74610575316183
 20
3.837500280089008
 42
0.0
 97
        0
 92
        7
 72
     1
 73
     1
 93
       24
 10
24.19610575316187
 20
9.962500280089017
 42
-0.4142135623731546
 10
24.45860575316192
 20
10.22500028008901
 42
0.0
 10
25.94610575316187
 20
10.22500028008901
 42
0.4142135623730911
 10
26.20860575316186
 20
10.487500280089
 42
0.0
 10
26.20860575316186
 20
11.36250028008901
 42
0.4142135623730952
 10
25.94610575316187
 20
11.62500028008901
 42
0.0
 10
24.19610575316187
 20
11.62500028008901
 42
0.4142135623731048
 10
22.79610575316183
 20
10.22500028008902
 42
0.0
 10
22.79610575316183
 20
9.317399267411392
 42
0.1989123673796613
 10
23.41118151267011
 20
7.832475026919617
 42
0.0
 10
24.86608049999245
 20
6.377576039597283
 42
-0.1989123673796402
 10
25.07110575316187
 20
5.882601292766747
 42
0.0
 10
25.07110575316187
 20
5.237500280089008
 42
-0.4142135623730911
 10
24.80860575316188
 20
4.975000280089012
 42
0.0
 10
23.32110575316187
 20
4.975000280089012
 42
0.4142135623731526
 10
23.05860575316182
 20
4.712500280089019
 42
0.0
 10
23.05860575316182
 20
3.837500280089008
 42
0.4142135623730891
 10
23.32110575316181
 20
3.575000280089014
 42
0.0
 10
25.07110575316187
 20
3.575000280089014
 42
0.4142135623730925
 10
26.47110575316185
 20
4.975000280089002
 42
0.0
 10
26.47110575316185
 20
5.882601292766638
 42
0.1989123673796675
 10
25.85602999365358
 20
7.367525533258465
 42
0.0
 10
24.4011310063313
 20
8.822424520580723
 42
-0.1989123673796652
 10
24.19610575316187
 20
9.317399267411307
 42
0.0
 97
        0
 92
        7
 72
     1
 73
     1
 93
       16
 10
28.92110575316184
 20
11.362500280089
 42
0.414213562373103
 10
28.65860575316185
 20
11.62500028008901
 42
0.0
 10
27.78360575316185
 20
11.62500028008901
 42
0.4142135623730871
 10
27.52110575316186
 20
11.36250028008902
 42
0.0
 10
27.52110575316186
 20
4.975000280089002
 42
0.4142135623730926
 10
28.92110575316184
 20
3.575000280089014
 42
0.0
 10
30.67110575316184
 20
3.575000280089014
 42
0.4142135623731044
 10
32.07110575316187
 20
4.975000280089002
 42
0.0
 10
32.07110575316187
 20
11.36250028008901
 42
0.4142135623730951
 10
31.80860575316188
 20
11.62500028008901
 42
0.0
 10
30.93360575316182
 20
11.62500028008901
 42
0.4142135623730871
 10
30.67110575316184
 20
11.36250028008902
 42
0.0
 10
30.67110575316184
 20
5.500000280089
 42
-0.414213562373088
 10
30.14610575316186
 20
4.975000280089012
 42
0.0
 10
29.44610575316187
 20
4.975000280089012
 42
-0.4142135623731197
 10
28.92110575316184
 20
5.500000280089
 42
0.0
 97
        0
 92
        7
 72
     1
 73
     1
 93
        8
 10
34.52110575316186
 20
11.36250028008902
 42
0.4142135623730871
 10
34.25860575316187
 20
11.62500028008901
 42
0.0
 10
33.38360575316187
 20
11.62500028008901
 42
0.4142135623731507
 10
33.12110575316182
 20
11.36250028008902
 42
0.0
 10
33.12110575316182
 20
3.837500280089008
 42
0.4142135623730891
 10
33.38360575316182
 20
3.575000280089014
 42
0.0
 10
34.25860575316187
 20
3.575000280089014
 42
0.4142135623730891
 10
34.52110575316186
 20
3.837500280089008
 42
0.0
 97
        0
 75
     0
 76
     1
 52
0.0
 41
0.1
 77
     0
 78
     2
 53
45.0
 43
-450.4711524915681
 44
-6.599999719910954
 45
-0.2245064030267288
 46
0.2245064030267288
 79
     0
 53
135.0
 43
-450.4711524915681
 44
-6.599999719910954
 45
-0.2245064030267288
 46
-0.2245064030267288
 79
     0
 47
0.057451373970553
 98
        8
 10
8.039927157282932
 20
7.583587103031788
 10
11.20225717899086
 20
9.422031371314517
 10
12.5821836186011
 20
7.755941103124371
 10
15.45702966658984
 20
8.100649103309763
 10
20.91923568524964
 20
8.33045523708057
 10
23.44910012333605
 20
9.709288438292617
 10
28.27884266197145
 20
9.364579237636519
 10
33.91353948558264
 20
9.594385371407327
  0
ARC
  5
2D4
330
1A
100
AcDbEntity
  8
ZUWAKU
100
AcDbCircle
 10
7.746105753161828
 20
9.317399267411364
 30
0.0
 40
2.099999999999999
100
AcDbArc
 50
180.0
 51
225.0
  0
LINE
  5
2D5
330
1A
100
AcDbEntity
  8
ZUWAKU
100
AcDbLine
 10
10.37110575316182
 20
5.675000280089015
 30
0.0
 11
10.37110575316182
 21
9.525000280088992
 31
0.0
  0
LINE
  5
2D6
330
1A
100
AcDbEntity
  8
ZUWAKU
100
AcDbLine
 10
11.77110575316186
 20
9.525000280089013
 30
0.0
 11
11.77110575316186
 21
5.675000280089015
 31
0.0
  0
ARC
  5
2D7
330
1A
100
AcDbEntity
  8
ZUWAKU
100
AcDbCircle
 10
7.746105753161828
 20
9.317399267411364
 30
0.0
 40
0.7
100
AcDbArc
 50
180.0000000000016
 51
224.9999999999988
  0
ARC
  5
2D8
330
1A
100
AcDbEntity
  8
ZUWAKU
100
AcDbCircle
 10
12.47110575316185
 20
5.675000280089015
 30
0.0
 40
2.099999999999999
100
AcDbArc
 50
180.0
 51
270.0
  0
ARC
  5
2D9
330
1A
100
AcDbEntity
  8
ZUWAKU
100
AcDbCircle
 10
7.921105753161839
 20
4.975000280089012
 30
0.0
 40
1.399999999999999
100
AcDbArc
 50
270.0
 51
0.0
  0
ARC
  5
2DA
330
1A
100
AcDbEntity
  8
ZUWAKU
100
AcDbCircle
 10
7.22110575316185
 20
5.882601292766665
 30
0.0
 40
2.099999999999999
100
AcDbArc
 50
0.0
 51
45.0
  0
LINE
  5
2DB
330
1A
100
AcDbEntity
  8
ZUWAKU
100
AcDbLine
 10
6.261181512670077
 20
7.832475026919603
 30
0.0
 11
7.716080499992415
 21
6.377576039597272
 31
0.0
  0
LINE
  5
2DC
330
1A
100
AcDbEntity
  8
ZUWAKU
100
AcDbLine
 10
6.171105753161839
 20
4.975000280089012
 30
0.0
 11
7.65860575316185
 21
4.975000280089012
 31
0.0
  0
LINE
  5
2DD
330
1A
100
AcDbEntity
  8
ZUWAKU
100
AcDbLine
 10
6.171105753161839
 20
3.575000280089014
 30
0.0
 11
7.921105753161839
 21
3.575000280089014
 31
0.0
  0
ARC
  5
2DE
330
1A
100
AcDbEntity
  8
ZUWAKU
100
AcDbCircle
 10
6.171105753161839
 20
4.712500280089013
 30
0.0
 40
0.2625
100
AcDbArc
 50
90.0
 51
180.0
  0
ARC
  5
2DF
330
1A
100
AcDbEntity
  8
ZUWAKU
100
AcDbCircle
 10
6.171105753161839
 20
3.837500280089013
 30
0.0
 40
0.2625
100
AcDbArc
 50
180.0
 51
270.0
  0
LINE
  5
2E0
330
1A
100
AcDbEntity
  8
ZUWAKU
100
AcDbLine
 10
5.90860575316185
 20
3.837500280089013
 30
0.0
 11
5.90860575316185
 21
4.712500280089013
 31
0.0
  0
ARC
  5
2E1
330
1A
100
AcDbEntity
  8
ZUWAKU
100
AcDbCircle
 10
7.22110575316185
 20
5.882601292766686
 30
0.0
 40
0.7
100
AcDbArc
 50
0.0
 51
45.0
  0
ARC
  5
2E2
330
1A
100
AcDbEntity
  8
ZUWAKU
100
AcDbCircle
 10
7.65860575316185
 20
5.237500280089015
 30
0.0
 40
0.2625
100
AcDbArc
 50
270.0
 51
0.0
  0
LINE
  5
2E3
330
1A
100
AcDbEntity
  8
ZUWAKU
100
AcDbLine
 10
7.921105753161839
 20
5.237500280089015
 30
0.0
 11
7.921105753161839
 21
5.882601292766686
 31
0.0
  0
LINE
  5
2E4
330
1A
100
AcDbEntity
  8
ZUWAKU
100
AcDbLine
 10
8.706029993653601
 20
7.367525533258426
 30
0.0
 11
7.251131006331263
 21
8.822424520580764
 31
0.0
  0
ARC
  5
2E5
330
1A
100
AcDbEntity
  8
ZUWAKU
100
AcDbCircle
 10
12.47110575316185
 20
5.675000280089015
 30
0.0
 40
0.7
100
AcDbArc
 50
180.0
 51
270.0
  0
LINE
  5
2E6
330
1A
100
AcDbEntity
  8
ZUWAKU
100
AcDbLine
 10
9.321105753161873
 20
4.975000280089012
 30
0.0
 11
9.321105753161873
 21
5.882601292766686
 31
0.0
  0
ARC
  5
2E7
330
1A
100
AcDbEntity
  8
ZUWAKU
100
AcDbCircle
 10
8.796105753161839
 20
10.48750028008901
 30
0.0
 40
0.2625
100
AcDbArc
 50
270.0
 51
0.0
  0
ARC
  5
2E8
330
1A
100
AcDbEntity
  8
ZUWAKU
100
AcDbCircle
 10
8.796105753161839
 20
11.36250028008901
 30
0.0
 40
0.2625
100
AcDbArc
 50
0.0
 51
90.0
  0
ARC
  5
2E9
330
1A
100
AcDbEntity
  8
ZUWAKU
100
AcDbCircle
 10
7.046105753161839
 20
10.22500028008901
 30
0.0
 40
1.399999999999999
100
AcDbArc
 50
90.0
 51
180.0
  0
LINE
  5
2EA
330
1A
100
AcDbEntity
  8
ZUWAKU
100
AcDbLine
 10
5.646105753161862
 20
10.22500028008901
 30
0.0
 11
5.646105753161862
 21
9.317399267411342
 31
0.0
  0
LINE
  5
2EB
330
1A
100
AcDbEntity
  8
ZUWAKU
100
AcDbLine
 10
8.796105753161839
 20
10.22500028008901
 30
0.0
 11
7.308605753161828
 21
10.22500028008901
 31
0.0
  0
LINE
  5
2EC
330
1A
100
AcDbEntity
  8
ZUWAKU
100
AcDbLine
 10
7.046105753161839
 20
9.962500280089013
 30
0.0
 11
7.046105753161839
 21
9.317399267411342
 31
0.0
  0
ARC
  5
2ED
330
1A
100
AcDbEntity
  8
ZUWAKU
100
AcDbCircle
 10
7.308605753161828
 20
9.962500280089013
 30
0.0
 40
0.2625
100
AcDbArc
 50
90.0
 51
180.0
  0
LINE
  5
2EE
330
1A
100
AcDbEntity
  8
ZUWAKU
100
AcDbLine
 10
7.046105753161839
 20
11.62500028008901
 30
0.0
 11
8.796105753161839
 21
11.62500028008901
 31
0.0
  0
ARC
  5
2EF
330
1A
100
AcDbEntity
  8
ZUWAKU
100
AcDbCircle
 10
12.47110575316185
 20
9.525000280088992
 30
0.0
 40
2.099999999999999
100
AcDbArc
 50
90.0
 51
180.0
  0
ARC
  5
2F0
330
1A
100
AcDbEntity
  8
ZUWAKU
100
AcDbCircle
 10
12.47110575316185
 20
9.525000280089013
 30
0.0
 40
0.7
100
AcDbArc
 50
90.0
 51
180.0
  0
LINE
  5
2F1
330
1A
100
AcDbEntity
  8
ZUWAKU
100
AcDbLine
 10
9.058605753161828
 20
11.36250028008901
 30
0.0
 11
9.058605753161828
 21
10.48750028008901
 31
0.0
  0
LINE
  5
2F2
330
1A
100
AcDbEntity
  8
ZUWAKU
100
AcDbLine
 10
17.83817322181977
 20
11.4415472641725
 30
0.0
 11
16.90403828450388
 21
8.483453296005528
 31
0.0
  0
LINE
  5
2F3
330
1A
100
AcDbEntity
  8
ZUWAKU
100
AcDbLine
 10
14.92110575316184
 20
11.36250028008901
 30
0.0
 11
14.92110575316184
 21
3.837500280089013
 31
0.0
  0
LINE
  5
2F4
330
1A
100
AcDbEntity
  8
ZUWAKU
100
AcDbLine
 10
16.32110575316187
 20
8.562500280089015
 30
0.0
 11
16.32110575316187
 21
11.36250028008901
 31
0.0
  0
LINE
  5
2F5
330
1A
100
AcDbEntity
  8
ZUWAKU
100
AcDbLine
 10
28.92110575316184
 20
5.500000280089011
 30
0.0
 11
28.92110575316184
 21
11.36250028008901
 31
0.0
  0
LINE
  5
2F6
330
1A
100
AcDbEntity
  8
ZUWAKU
100
AcDbLine
 10
27.52110575316186
 20
11.36250028008901
 30
0.0
 11
27.52110575316186
 21
4.975000280089012
 31
0.0
  0
LINE
  5
2F7
330
1A
100
AcDbEntity
  8
ZUWAKU
100
AcDbLine
 10
21.74610575316183
 20
3.837500280089013
 30
0.0
 11
21.74610575316183
 21
11.36250028008901
 31
0.0
  0
LINE
  5
2F8
330
1A
100
AcDbEntity
  8
ZUWAKU
100
AcDbLine
 10
20.34610575316185
 20
11.36250028008901
 30
0.0
 11
20.34610575316185
 21
3.837500280089013
 31
0.0
  0
LINE
  5
2F9
330
1A
100
AcDbEntity
  8
ZUWAKU
100
AcDbLine
 10
18.65742899425083
 20
9.602523876870726
 30
0.0
 11
18.02505312158291
 21
7.600000280089023
 31
0.0
  0
ARC
  5
2FA
330
1A
100
AcDbEntity
  8
ZUWAKU
100
AcDbCircle
 10
24.89610575316186
 20
9.317399267411364
 30
0.0
 40
2.099999999999999
100
AcDbArc
 50
180.0
 51
225.0
  0
ARC
  5
2FB
330
1A
100
AcDbEntity
  8
ZUWAKU
100
AcDbCircle
 10
24.89610575316186
 20
9.317399267411364
 30
0.0
 40
0.7
100
AcDbArc
 50
180.0000000000016
 51
224.9999999999988
  0
LINE
  5
2FC
330
1A
100
AcDbEntity
  8
ZUWAKU
100
AcDbLine
 10
33.12110575316182
 20
11.36250028008901
 30
0.0
 11
33.12110575316182
 21
3.837500280089013
 31
0.0
  0
LINE
  5
2FD
330
1A
100
AcDbEntity
  8
ZUWAKU
100
AcDbLine
 10
34.52110575316186
 20
3.837500280089013
 30
0.0
 11
34.52110575316186
 21
11.36250028008901
 31
0.0
  0
LINE
  5
2FE
330
1A
100
AcDbEntity
  8
ZUWAKU
100
AcDbLine
 10
30.67110575316184
 20
11.36250028008901
 30
0.0
 11
30.67110575316184
 21
5.500000280089011
 31
0.0
  0
LINE
  5
2FF
330
1A
100
AcDbEntity
  8
ZUWAKU
100
AcDbLine
 10
32.07110575316187
 20
4.975000280089012
 30
0.0
 11
32.07110575316187
 21
11.36250028008901
 31
0.0
  0
LINE
  5
300
330
1A
100
AcDbEntity
  8
ZUWAKU
100
AcDbLine
 10
39.56331444976547
 20
15.00000028008901
 30
0.0
 11
39.56331444976547
 21
0.4000002800890457
 31
0.0
  0
LINE
  5
301
330
1A
100
AcDbEntity
  8
ZUWAKU
100
AcDbLine
 10
39.7633144497654
 20
15.00000028008901
 30
0.0
 11
39.76331444976551
 21
0.4000002800890457
 31
0.0
  0
LINE
  5
302
330
1A
100
AcDbEntity
  8
ZUWAKU
100
AcDbLine
 10
39.66331444976538
 20
15.00000028008901
 30
0.0
 11
39.66331444976549
 21
0.4000002800890457
 31
0.0
  0
LINE
  5
303
330
1A
100
AcDbEntity
  8
ZUWAKU
100
AcDbLine
 10
28.92110575316184
 20
3.575000280089014
 30
0.0
 11
30.67110575316184
 21
3.575000280089014
 31
0.0
  0
LINE
  5
304
330
1A
100
AcDbEntity
  8
ZUWAKU
100
AcDbLine
 10
30.14610575316186
 20
4.975000280089012
 30
0.0
 11
29.44610575316187
 21
4.975000280089012
 31
0.0
  0
LINE
  5
305
330
1A
100
AcDbEntity
  8
ZUWAKU
100
AcDbLine
 10
20.60860575316183
 20
3.575000280089014
 30
0.0
 11
21.48360575316183
 21
3.575000280089014
 31
0.0
  0
LINE
  5
306
330
1A
100
AcDbEntity
  8
ZUWAKU
100
AcDbLine
 10
17.83817322181977
 20
3.758453296005527
 30
0.0
 11
16.90403828450388
 21
6.716547264172497
 31
0.0
  0
ARC
  5
307
330
1A
100
AcDbEntity
  8
ZUWAKU
100
AcDbCircle
 10
16.58360575316186
 20
6.637500280089014
 30
0.0
 40
0.2625
100
AcDbArc
 50
90.0
 51
180.0
  0
ARC
  5
308
330
1A
100
AcDbEntity
  8
ZUWAKU
100
AcDbCircle
 10
16.6537228349062
 20
6.637500280089014
 30
0.0
 40
0.2625
100
AcDbArc
 50
17.52556837372303
 51
90.0
  0
ARC
  5
309
330
1A
100
AcDbEntity
  8
ZUWAKU
100
AcDbCircle
 10
15.18360575316182
 20
3.837500280089013
 30
0.0
 40
0.2625
100
AcDbArc
 50
180.0
 51
270.0
  0
ARC
  5
30A
330
1A
100
AcDbEntity
  8
ZUWAKU
100
AcDbCircle
 10
13.43360575316182
 20
4.712500280089013
 30
0.0
 40
0.2625
100
AcDbArc
 50
0.0
 51
90.0
  0
ARC
  5
30B
330
1A
100
AcDbEntity
  8
ZUWAKU
100
AcDbCircle
 10
13.43360575316182
 20
3.837500280089013
 30
0.0
 40
0.2625
100
AcDbArc
 50
270.0
 51
0.0
  0
LINE
  5
30C
330
1A
100
AcDbEntity
  8
ZUWAKU
100
AcDbLine
 10
13.69610575316187
 20
4.712500280089013
 30
0.0
 11
13.69610575316187
 21
3.837500280089013
 31
0.0
  0
LINE
  5
30D
330
1A
100
AcDbEntity
  8
ZUWAKU
100
AcDbLine
 10
16.32110575316187
 20
3.837500280089013
 30
0.0
 11
16.32110575316187
 21
6.637500280089014
 31
0.0
  0
ARC
  5
30E
330
1A
100
AcDbEntity
  8
ZUWAKU
100
AcDbCircle
 10
16.05860575316182
 20
3.837500280089013
 30
0.0
 40
0.2625
100
AcDbArc
 50
270.0
 51
0.0
  0
LINE
  5
30F
330
1A
100
AcDbEntity
  8
ZUWAKU
100
AcDbLine
 10
15.18360575316182
 20
3.575000280089014
 30
0.0
 11
16.05860575316182
 21
3.575000280089014
 31
0.0
  0
ARC
  5
310
330
1A
100
AcDbEntity
  8
ZUWAKU
100
AcDbCircle
 10
16.58360575316186
 20
8.562500280089015
 30
0.0
 40
0.2625
100
AcDbArc
 50
180.0
 51
270.0
  0
LINE
  5
311
330
1A
100
AcDbEntity
  8
ZUWAKU
100
AcDbLine
 10
16.58360575316186
 20
6.900000280089013
 30
0.0
 11
16.6537228349062
 21
6.900000280089013
 31
0.0
  0
LINE
  5
312
330
1A
100
AcDbEntity
  8
ZUWAKU
100
AcDbLine
 10
16.6537228349062
 20
8.300000280089012
 30
0.0
 11
16.58360575316186
 21
8.300000280089012
 31
0.0
  0
ARC
  5
313
330
1A
100
AcDbEntity
  8
ZUWAKU
100
AcDbCircle
 10
16.6537228349062
 20
8.562500280089015
 30
0.0
 40
0.2625
100
AcDbArc
 50
270.0
 51
342.4744316262769
  0
ARC
  5
314
330
1A
100
AcDbEntity
  8
ZUWAKU
100
AcDbCircle
 10
18.0884886714175
 20
3.837500280089013
 30
0.0
 40
0.2625
100
AcDbArc
 50
197.525568373723
 51
270.0
  0
LINE
  5
315
330
1A
100
AcDbEntity
  8
ZUWAKU
100
AcDbLine
 10
19.18824881081974
 20
3.9165472641725
 30
0.0
 11
18.02505312158291
 21
7.600000280089023
 31
0.0
  0
ARC
  5
316
330
1A
100
AcDbEntity
  8
ZUWAKU
100
AcDbCircle
 10
18.937933361222
 20
3.837500280089013
 30
0.0
 40
0.2625
100
AcDbArc
 50
270.0
 51
17.52556837372303
  0
LINE
  5
317
330
1A
100
AcDbEntity
  8
ZUWAKU
100
AcDbLine
 10
18.0884886714175
 20
3.575000280089014
 30
0.0
 11
18.937933361222
 21
3.575000280089014
 31
0.0
  0
ARC
  5
318
330
1A
100
AcDbEntity
  8
ZUWAKU
100
AcDbCircle
 10
20.60860575316183
 20
3.837500280089013
 30
0.0
 40
0.2625
100
AcDbArc
 50
180.0
 51
270.0
  0
ARC
  5
319
330
1A
100
AcDbEntity
  8
ZUWAKU
100
AcDbCircle
 10
25.07110575316187
 20
4.975000280089012
 30
0.0
 40
1.399999999999999
100
AcDbArc
 50
270.0
 51
0.0
  0
ARC
  5
31A
330
1A
100
AcDbEntity
  8
ZUWAKU
100
AcDbCircle
 10
28.92110575316184
 20
4.975000280089012
 30
0.0
 40
1.399999999999999
100
AcDbArc
 50
180.0
 51
270.0
  0
LINE
  5
31B
330
1A
100
AcDbEntity
  8
ZUWAKU
100
AcDbLine
 10
25.85602999365363
 20
7.367525533258426
 30
0.0
 11
24.40113100633124
 21
8.822424520580764
 31
0.0
  0
LINE
  5
31C
330
1A
100
AcDbEntity
  8
ZUWAKU
100
AcDbLine
 10
23.41118151267011
 20
7.832475026919603
 30
0.0
 11
24.86608049999245
 21
6.377576039597272
 31
0.0
  0
LINE
  5
31D
330
1A
100
AcDbEntity
  8
ZUWAKU
100
AcDbLine
 10
23.32110575316187
 20
3.575000280089014
 30
0.0
 11
25.07110575316187
 21
3.575000280089014
 31
0.0
  0
LINE
  5
31E
330
1A
100
AcDbEntity
  8
ZUWAKU
100
AcDbLine
 10
23.32110575316187
 20
4.975000280089012
 30
0.0
 11
24.80860575316182
 21
4.975000280089012
 31
0.0
  0
ARC
  5
31F
330
1A
100
AcDbEntity
  8
ZUWAKU
100
AcDbCircle
 10
23.32110575316187
 20
4.712500280089013
 30
0.0
 40
0.2625
100
AcDbArc
 50
90.0
 51
180.0
  0
ARC
  5
320
330
1A
100
AcDbEntity
  8
ZUWAKU
100
AcDbCircle
 10
21.48360575316183
 20
3.837500280089013
 30
0.0
 40
0.2625
100
AcDbArc
 50
270.0
 51
0.0
  0
ARC
  5
321
330
1A
100
AcDbEntity
  8
ZUWAKU
100
AcDbCircle
 10
23.32110575316187
 20
3.837500280089013
 30
0.0
 40
0.2625
100
AcDbArc
 50
180.0
 51
270.0
  0
LINE
  5
322
330
1A
100
AcDbEntity
  8
ZUWAKU
100
AcDbLine
 10
23.05860575316182
 20
3.837500280089013
 30
0.0
 11
23.05860575316182
 21
4.712500280089013
 31
0.0
  0
ARC
  5
323
330
1A
100
AcDbEntity
  8
ZUWAKU
100
AcDbCircle
 10
24.80860575316182
 20
5.237500280089015
 30
0.0
 40
0.2625
100
AcDbArc
 50
270.0
 51
0.0
  0
ARC
  5
324
330
1A
100
AcDbEntity
  8
ZUWAKU
100
AcDbCircle
 10
24.37110575316182
 20
5.882601292766686
 30
0.0
 40
0.7
100
AcDbArc
 50
0.0
 51
45.0
  0
LINE
  5
325
330
1A
100
AcDbEntity
  8
ZUWAKU
100
AcDbLine
 10
25.07110575316187
 20
5.237500280089015
 30
0.0
 11
25.07110575316187
 21
5.882601292766686
 31
0.0
  0
ARC
  5
326
330
1A
100
AcDbEntity
  8
ZUWAKU
100
AcDbCircle
 10
29.44610575316187
 20
5.500000280089011
 30
0.0
 40
0.525
100
AcDbArc
 50
180.0
 51
270.0
  0
ARC
  5
327
330
1A
100
AcDbEntity
  8
ZUWAKU
100
AcDbCircle
 10
24.37110575316182
 20
5.882601292766665
 30
0.0
 40
2.099999999999999
100
AcDbArc
 50
0.0
 51
45.0
  0
LINE
  5
328
330
1A
100
AcDbEntity
  8
ZUWAKU
100
AcDbLine
 10
26.47110575316185
 20
4.975000280089012
 30
0.0
 11
26.47110575316185
 21
5.882601292766686
 31
0.0
  0
ARC
  5
329
330
1A
100
AcDbEntity
  8
ZUWAKU
100
AcDbCircle
 10
30.67110575316184
 20
4.975000280089012
 30
0.0
 40
1.399999999999999
100
AcDbArc
 50
270.0
 51
0.0
  0
LINE
  5
32A
330
1A
100
AcDbEntity
  8
ZUWAKU
100
AcDbLine
 10
33.38360575316187
 20
3.575000280089014
 30
0.0
 11
34.25860575316187
 21
3.575000280089014
 31
0.0
  0
ARC
  5
32B
330
1A
100
AcDbEntity
  8
ZUWAKU
100
AcDbCircle
 10
30.14610575316186
 20
5.500000280089011
 30
0.0
 40
0.525
100
AcDbArc
 50
270.0
 51
0.0
  0
ARC
  5
32C
330
1A
100
AcDbEntity
  8
ZUWAKU
100
AcDbCircle
 10
33.38360575316187
 20
3.837500280089013
 30
0.0
 40
0.2625
100
AcDbArc
 50
180.0
 51
270.0
  0
ARC
  5
32D
330
1A
100
AcDbEntity
  8
ZUWAKU
100
AcDbCircle
 10
34.25860575316187
 20
3.837500280089013
 30
0.0
 40
0.2625
100
AcDbArc
 50
270.0
 51
0.0
  0
LINE
  5
32E
330
1A
100
AcDbEntity
  8
ZUWAKU
100
AcDbLine
 10
21.48360575316183
 20
11.62500028008901
 30
0.0
 11
20.60860575316183
 21
11.62500028008901
 31
0.0
  0
LINE
  5
32F
330
1A
100
AcDbEntity
  8
ZUWAKU
100
AcDbLine
 10
13.69610575316187
 20
11.36250028008901
 30
0.0
 11
13.69610575316187
 21
10.48750028008901
 31
0.0
  0
ARC
  5
330
330
1A
100
AcDbEntity
  8
ZUWAKU
100
AcDbCircle
 10
13.43360575316182
 20
10.48750028008901
 30
0.0
 40
0.2625
100
AcDbArc
 50
270.0
 51
0.0
  0
ARC
  5
331
330
1A
100
AcDbEntity
  8
ZUWAKU
100
AcDbCircle
 10
15.18360575316182
 20
11.36250028008901
 30
0.0
 40
0.2625
100
AcDbArc
 50
90.0
 51
180.0
  0
ARC
  5
332
330
1A
100
AcDbEntity
  8
ZUWAKU
100
AcDbCircle
 10
13.43360575316182
 20
11.36250028008901
 30
0.0
 40
0.2625
100
AcDbArc
 50
0.0
 51
90.0
  0
LINE
  5
333
330
1A
100
AcDbEntity
  8
ZUWAKU
100
AcDbLine
 10
16.05860575316182
 20
11.62500028008901
 30
0.0
 11
15.18360575316182
 21
11.62500028008901
 31
0.0
  0
ARC
  5
334
330
1A
100
AcDbEntity
  8
ZUWAKU
100
AcDbCircle
 10
16.05860575316182
 20
11.36250028008901
 30
0.0
 40
0.2625
100
AcDbArc
 50
0.0
 51
90.0
  0
ARC
  5
335
330
1A
100
AcDbEntity
  8
ZUWAKU
100
AcDbCircle
 10
18.0884886714175
 20
11.36250028008901
 30
0.0
 40
0.2625
100
AcDbArc
 50
90.0
 51
162.4744316262769
  0
LINE
  5
336
330
1A
100
AcDbEntity
  8
ZUWAKU
100
AcDbLine
 10
19.18824881081974
 20
11.28345329600553
 30
0.0
 11
18.65742899425083
 21
9.602523876870726
 31
0.0
  0
ARC
  5
337
330
1A
100
AcDbEntity
  8
ZUWAKU
100
AcDbCircle
 10
18.937933361222
 20
11.36250028008901
 30
0.0
 40
0.2625
100
AcDbArc
 50
342.4744316262769
 51
90.0
  0
LINE
  5
338
330
1A
100
AcDbEntity
  8
ZUWAKU
100
AcDbLine
 10
18.0884886714175
 20
11.62500028008901
 30
0.0
 11
18.937933361222
 21
11.62500028008901
 31
0.0
  0
ARC
  5
339
330
1A
100
AcDbEntity
  8
ZUWAKU
100
AcDbCircle
 10
20.60860575316183
 20
11.36250028008901
 30
0.0
 40
0.2625
100
AcDbArc
 50
90.0
 51
180.0
  0
LINE
  5
33A
330
1A
100
AcDbEntity
  8
ZUWAKU
100
AcDbLine
 10
25.94610575316187
 20
10.22500028008901
 30
0.0
 11
24.45860575316186
 21
10.22500028008901
 31
0.0
  0
LINE
  5
33B
330
1A
100
AcDbEntity
  8
ZUWAKU
100
AcDbLine
 10
24.19610575316187
 20
11.62500028008901
 30
0.0
 11
25.94610575316187
 21
11.62500028008901
 31
0.0
  0
ARC
  5
33C
330
1A
100
AcDbEntity
  8
ZUWAKU
100
AcDbCircle
 10
24.19610575316187
 20
10.22500028008901
 30
0.0
 40
1.399999999999999
100
AcDbArc
 50
90.0
 51
180.0
  0
LINE
  5
33D
330
1A
100
AcDbEntity
  8
ZUWAKU
100
AcDbLine
 10
22.79610575316183
 20
10.22500028008901
 30
0.0
 11
22.79610575316183
 21
9.317399267411342
 31
0.0
  0
ARC
  5
33E
330
1A
100
AcDbEntity
  8
ZUWAKU
100
AcDbCircle
 10
21.48360575316183
 20
11.36250028008901
 30
0.0
 40
0.2625
100
AcDbArc
 50
0.0
 51
90.0
  0
LINE
  5
33F
330
1A
100
AcDbEntity
  8
ZUWAKU
100
AcDbLine
 10
24.19610575316187
 20
9.962500280089013
 30
0.0
 11
24.19610575316187
 21
9.317399267411342
 31
0.0
  0
ARC
  5
340
330
1A
100
AcDbEntity
  8
ZUWAKU
100
AcDbCircle
 10
24.45860575316186
 20
9.962500280089013
 30
0.0
 40
0.2625
100
AcDbArc
 50
90.0
 51
180.0
  0
LINE
  5
341
330
1A
100
AcDbEntity
  8
ZUWAKU
100
AcDbLine
 10
26.20860575316186
 20
11.36250028008901
 30
0.0
 11
26.20860575316186
 21
10.48750028008901
 31
0.0
  0
ARC
  5
342
330
1A
100
AcDbEntity
  8
ZUWAKU
100
AcDbCircle
 10
25.94610575316187
 20
10.48750028008901
 30
0.0
 40
0.2625
100
AcDbArc
 50
270.0
 51
0.0
  0
ARC
  5
343
330
1A
100
AcDbEntity
  8
ZUWAKU
100
AcDbCircle
 10
25.94610575316187
 20
11.36250028008901
 30
0.0
 40
0.2625
100
AcDbArc
 50
0.0
 51
90.0
  0
LINE
  5
344
330
1A
100
AcDbEntity
  8
ZUWAKU
100
AcDbLine
 10
28.65860575316185
 20
11.62500028008901
 30
0.0
 11
27.78360575316185
 21
11.62500028008901
 31
0.0
  0
ARC
  5
345
330
1A
100
AcDbEntity
  8
ZUWAKU
100
AcDbCircle
 10
27.78360575316185
 20
11.36250028008901
 30
0.0
 40
0.2625
100
AcDbArc
 50
90.0
 51
180.0
  0
ARC
  5
346
330
1A
100
AcDbEntity
  8
ZUWAKU
100
AcDbCircle
 10
28.65860575316185
 20
11.36250028008901
 30
0.0
 40
0.2625
100
AcDbArc
 50
0.0
 51
90.0
  0
LINE
  5
347
330
1A
100
AcDbEntity
  8
ZUWAKU
100
AcDbLine
 10
34.25860575316187
 20
11.62500028008901
 30
0.0
 11
33.38360575316187
 21
11.62500028008901
 31
0.0
  0
ARC
  5
348
330
1A
100
AcDbEntity
  8
ZUWAKU
100
AcDbCircle
 10
30.93360575316182
 20
11.36250028008901
 30
0.0
 40
0.2625
100
AcDbArc
 50
90.0
 51
180.0
  0
LINE
  5
349
330
1A
100
AcDbEntity
  8
ZUWAKU
100
AcDbLine
 10
31.80860575316183
 20
11.62500028008901
 30
0.0
 11
30.93360575316182
 21
11.62500028008901
 31
0.0
  0
ARC
  5
34A
330
1A
100
AcDbEntity
  8
ZUWAKU
100
AcDbCircle
 10
31.80860575316183
 20
11.36250028008901
 30
0.0
 40
0.2625
100
AcDbArc
 50
0.0
 51
90.0
  0
ARC
  5
34B
330
1A
100
AcDbEntity
  8
ZUWAKU
100
AcDbCircle
 10
33.38360575316187
 20
11.36250028008901
 30
0.0
 40
0.2625
100
AcDbArc
 50
90.0
 51
180.0
  0
ARC
  5
34C
330
1A
100
AcDbEntity
  8
ZUWAKU
100
AcDbCircle
 10
34.25860575316187
 20
11.36250028008901
 30
0.0
 40
0.2625
100
AcDbArc
 50
0.0
 51
90.0
  0
TEXT
  5
34D
330
1A
100
AcDbEntity
  8
MOJI
100
AcDbText
 10
119.9136010161968
 20
9.002460808792704
 30
0.0
 40
2.799999999999999
  1
エスロン厚肉たてといＶＵ
 41
0.9
  7
ｽﾀｲﾙ1
100
AcDbText
  0
TEXT
  5
34E
330
1A
100
AcDbEntity
  8
MOJI
100
AcDbText
 10
119.9136010161968
 20
1.602460808792722
 30
0.0
 40
2.799999999999999
  1
ＶＵＣ５０－４,０００
 41
0.9
  7
ｽﾀｲﾙ1
100
AcDbText
  0
LINE
  5
34F
330
1A
100
AcDbEntity
  8
ZUWAKU
100
AcDbLine
 10
104.2233003208051
 20
15.00000028008901
 30
0.0
 11
104.2233003208052
 21
0.4000002800890457
 31
0.0
  0
LINE
  5
350
330
1A
100
AcDbEntity
  8
ZUWAKU
100
AcDbLine
 10
104.3233003208051
 20
15.00000028008901
 30
0.0
 11
104.3233003208052
 21
0.4000002800890457
 31
0.0
  0
LINE
  5
351
330
1A
100
AcDbEntity
  8
ZUWAKU
100
AcDbLine
 10
104.1233003208052
 20
15.00000028008901
 30
0.0
 11
104.1233003208052
 21
0.4000002800890457
 31
0.0
  0
TEXT
  5
352
330
1A
100
AcDbEntity
  8
ZUWAKU
100
AcDbText
 10
104.86202283191
 20
4.82767854928182
 30
0.0
 40
2.0
  1
サイズ
 41
0.9
  7
ｽﾀｲﾙ1
100
AcDbText
  0
TEXT
  5
353
330
1A
100
AcDbEntity
  8
ZUWAKU
100
AcDbText
 10
104.8620228319099
 20
12.0276785492818
 30
0.0
 40
2.0
  1
品名
 41
0.9
  7
ｽﾀｲﾙ1
100
AcDbText
  0
TEXT
  5
354
330
1A
100
AcDbEntity
  8
ZUWAKU
100
AcDbText
 10
329.1019685194224
 20
9.002460808792704
 30
0.0
 40
2.799999999999999
  1
　　．　　．　　
 41
0.9
  7
ｽﾀｲﾙ1
100
AcDbText
  0
LINE
  5
355
330
1A
100
AcDbEntity
  8
ZUWAKU
100
AcDbLine
 10
324.4086009308734
 20
7.800000280089028
 30
0.0
 11
348.6245049500419
 21
7.800000280089028
 31
0.0
  0
LINE
  5
356
330
1A
100
AcDbEntity
  8
ZUWAKU
100
AcDbLine
 10
324.4086009308734
 20
7.70000028008903
 30
0.0
 11
348.6245049500419
 21
7.700000280089028
 31
0.0
  0
LINE
  5
357
330
1A
100
AcDbEntity
  8
ZUWAKU
100
AcDbLine
 10
324.4086009308734
 20
7.600000280089027
 30
0.0
 11
348.6245049500419
 21
7.600000280089028
 31
0.0
  0
LINE
  5
358
330
1A
100
AcDbEntity
  8
ZUWAKU
100
AcDbLine
 10
252.5995894248417
 20
7.800000280089028
 30
0.0
 11
276.2634775588275
 21
7.800000280089028
 31
0.0
  0
LINE
  5
359
330
1A
100
AcDbEntity
  8
ZUWAKU
100
AcDbLine
 10
252.5995894248417
 20
7.700000280089028
 30
0.0
 11
276.2634775588275
 21
7.700000280089028
 31
0.0
  0
LINE
  5
35A
330
1A
100
AcDbEntity
  8
ZUWAKU
100
AcDbLine
 10
252.5995894248417
 20
7.60000028008903
 30
0.0
 11
276.2634775588275
 21
7.60000028008903
 31
0.0
  0
LINE
  5
35B
330
1A
100
AcDbEntity
  8
ZUWAKU
100
AcDbLine
 10
252.3995894248418
 20
15.00000028008901
 30
0.0
 11
252.3995894248418
 21
0.4000002800890457
 31
0.0
  0
LINE
  5
35C
330
1A
100
AcDbEntity
  8
ZUWAKU
100
AcDbLine
 10
252.5995894248417
 20
15.00000028008901
 30
0.0
 11
252.5995894248418
 21
0.4000002800890457
 31
0.0
  0
LINE
  5
35D
330
1A
100
AcDbEntity
  8
ZUWAKU
100
AcDbLine
 10
252.4995894248417
 20
15.00000028008901
 30
0.0
 11
252.4995894248418
 21
0.4000002800890457
 31
0.0
  0
TEXT
  5
35E
330
1A
100
AcDbEntity
  8
MOJI
100
AcDbText
 10
264.0204536619277
 20
9.002460808792704
 30
0.0
 40
2.799999999999999
  1
Ａ３
 41
0.9
  7
ｽﾀｲﾙ1
100
AcDbText
  0
LINE
  5
35F
330
1A
100
AcDbEntity
  8
ZUWAKU
100
AcDbLine
 10
223.712181661267
 20
15.00000028008901
 30
0.0
 11
223.712181661267
 21
0.4000002800890457
 31
0.0
  0
LINE
  5
360
330
1A
100
AcDbEntity
  8
ZUWAKU
100
AcDbLine
 10
223.9121816612669
 20
15.00000028008901
 30
0.0
 11
223.912181661267
 21
0.4000002800890457
 31
0.0
  0
LINE
  5
361
330
1A
100
AcDbEntity
  8
ZUWAKU
100
AcDbLine
 10
223.8121816612669
 20
15.00000028008901
 30
0.0
 11
223.8121816612669
 21
0.4000002800890457
 31
0.0
  0
TEXT
  5
362
330
1A
100
AcDbEntity
  8
MOJI
100
AcDbText
 10
229.8424891681278
 20
5.971309140919004
 30
0.0
 40
2.799999999999999
  1
ＶＵＣ５０４□
 41
0.9
  7
ｽﾀｲﾙ1
100
AcDbText
  0
TEXT
  5
363
330
1A
100
AcDbEntity
  8
ZUWAKU
100
AcDbText
 10
230.6528763870327
 20
1.307035735658757
 30
0.0
 40
1.5
  1
□には色品番が入ります
 41
0.9
  7
ｽﾀｲﾙ1
100
AcDbText
  0
TEXT
  5
364
330
1A
100
AcDbEntity
  8
ZUWAKU
100
AcDbText
 10
253.3383119359466
 20
4.82767854928182
 30
0.0
 40
2.0
  1
縮尺
 41
0.9
  7
ｽﾀｲﾙ1
100
AcDbText
  0
TEXT
  5
365
330
1A
100
AcDbEntity
  8
MOJI
100
AcDbText
 10
264.0204536619277
 20
1.602460808792722
 30
0.0
 40
2.799999999999999
  1
１/１
 41
0.9
  7
ｽﾀｲﾙ1
100
AcDbText
  0
TEXT
  5
366
330
1A
100
AcDbEntity
  8
ZUWAKU
100
AcDbText
 10
224.6509041723717
 20
12.0276785492818
 30
0.0
 40
2.0
  1
品番
 41
0.9
  7
ｽﾀｲﾙ1
100
AcDbText
  0
TEXT
  5
367
330
1A
100
AcDbEntity
  8
ZUWAKU
100
AcDbText
 10
253.3383119359465
 20
12.0276785492818
 30
0.0
 40
2.0
  1
用紙
 41
0.9
  7
ｽﾀｲﾙ1
100
AcDbText
  0
LINE
  5
368
330
1A
100
AcDbEntity
  8
ZUWAKU
100
AcDbLine
 10
276.2634775588275
 20
15.00000028008901
 30
0.0
 11
276.2634775588275
 21
0.4000002800890457
 31
0.0
  0
LINE
  5
369
330
1A
100
AcDbEntity
  8
ZUWAKU
100
AcDbLine
 10
276.4634775588274
 20
15.00000028008901
 30
0.0
 11
276.4634775588275
 21
0.4000002800890457
 31
0.0
  0
LINE
  5
36A
330
1A
100
AcDbEntity
  8
ZUWAKU
100
AcDbLine
 10
276.3634775588274
 20
15.00000028008901
 30
0.0
 11
276.3634775588275
 21
0.4000002800890457
 31
0.0
  0
LINE
  5
36B
330
1A
100
AcDbEntity
  8
ZUWAKU
100
AcDbLine
 10
324.2086009308735
 20
15.00000028008901
 30
0.0
 11
324.2086009308735
 21
0.4000002800890457
 31
0.0
  0
LINE
  5
36C
330
1A
100
AcDbEntity
  8
ZUWAKU
100
AcDbLine
 10
324.4086009308734
 20
15.00000028008901
 30
0.0
 11
324.4086009308736
 21
0.4000002800890457
 31
0.0
  0
LINE
  5
36D
330
1A
100
AcDbEntity
  8
ZUWAKU
100
AcDbLine
 10
324.3086009308734
 20
15.00000028008901
 30
0.0
 11
324.3086009308735
 21
0.4000002800890457
 31
0.0
  0
TEXT
  5
36E
330
1A
100
AcDbEntity
  8
ZUWAKU
100
AcDbText
 10
325.1473234419782
 20
12.0276785492818
 30
0.0
 40
2.0
  1
DATE
 41
0.9
  7
ｽﾀｲﾙ1
100
AcDbText
  0
TEXT
  5
36F
330
1A
100
AcDbEntity
  8
ZUWAKU
100
AcDbText
 10
354.2640417718931
 20
8.776919947932412
 30
0.0
 40
3.0
  1
積水化学工業株式会社
 41
0.9
  7
ｽﾀｲﾙ1
100
AcDbText
  0
LINE
  5
370
330
1A
100
AcDbEntity
  8
ZUWAKU
100
AcDbLine
 10
348.9245049500418
 20
15.00000028008901
 30
0.0
 11
348.9245049500419
 21
0.4000002800890457
 31
0.0
  0
LINE
  5
371
330
1A
100
AcDbEntity
  8
ZUWAKU
100
AcDbLine
 10
348.8245049500418
 20
15.00000028008901
 30
0.0
 11
348.8245049500419
 21
0.4000002800890457
 31
0.0
  0
LINE
  5
372
330
1A
100
AcDbEntity
  8
ZUWAKU
100
AcDbLine
 10
348.7245049500419
 20
15.00000028008901
 30
0.0
 11
348.7245049500419
 21
0.4000002800890457
 31
0.0
  0
LINE
  5
373
330
1A
100
AcDbEntity
  8
ZUWAKU
100
AcDbLine
 10
348.6245049500419
 20
15.00000028008901
 30
0.0
 11
348.6245049500419
 21
0.4000002800890457
 31
0.0
  0
TEXT
  5
374
330
1A
100
AcDbEntity
  8
ZUWAKU
100
AcDbText
 10
354.2640417718931
 20
3.324420437016044
 30
0.0
 40
3.0
  1
建材事業部
 41
0.9
  7
ｽﾀｲﾙ1
100
AcDbText
  0
VIEWPORT
  5
22
330
17
100
AcDbEntity
 67
     1
  8
0
100
AcDbViewport
 10
313.6808219178082
 20
148.5
 30
0.0
 40
627.3616438356165
 41
297.0
 68
     2
 69
     1
1001
ACAD
1000
MVIEW
1002
{
1070
    16
1010
0.0
1020
0.0
1030
0.0
1010
0.0
1020
0.0
1030
1.0
1040
0.0
1040
297.0
1040
313.6808219178082
1040
148.5
1040
50.0
1040
0.0
1040
0.0
1070
     0
1070
   100
1070
     1
1070
     0
1070
     0
1070
     0
1070
     0
1070
     0
1040
0.0
1040
0.0
1040
0.0
1040
1.0
1040
1.0
1040
10.0
1040
10.0
1070
     0
1002
{
1002
}
1002
}
  0
VIEWPORT
  5
64
330
17
100
AcDbEntity
 67
     1
  8
VIEWPORT
100
AcDbViewport
 10
210.0
 20
148.5
 30
0.0
 40
420.0
 41
297.0
 68
     1
 69
     2
1001
ACAD
1000
MVIEW
1002
{
1070
    16
1010
0.0
1020
0.0
1030
0.0
1010
0.0
1020
0.0
1030
1.0
1040
0.0
1040
302.9399999999998
1040
210.0
1040
148.5
1040
50.0
1040
0.0
1040
0.0
1070
     0
1070
   100
1070
     1
1070
     0
1070
     0
1070
     0
1070
     0
1070
     0
1040
0.0
1040
0.0
1040
0.0
1040
5.0
1040
5.0
1040
0.0
1040
0.0
1070
     0
1002
{
1002
}
1002
}
  0
ENDSEC
  0
SECTION
  2
OBJECTS
  0
DICTIONARY
  5
C
330
0
100
AcDbDictionary
  3
ACAD_GROUP
350
D
  3
ACAD_LAYOUT
350
1C4
  3
ACAD_MLINESTYLE
350
E
  3
ACAD_PLOTSETTINGS
350
1C5
  3
ACAD_PLOTSTYLENAME
350
1C2
  3
ACDBHEADERROUNDTRIPXREC
350
388
  0
DICTIONARY
  5
3AB
330
1A
100
AcDbDictionary
280
     1
  3
ACAD_LAYOUTSELFREF
360
3AC
  0
DICTIONARY
  5
3A9
330
17
100
AcDbDictionary
280
     1
  3
ACAD_LAYOUTSELFREF
360
3AA
  0
DICTIONARY
  5
D
102
{ACAD_REACTORS
330
C
102
}
330
C
100
AcDbDictionary
  0
DICTIONARY
  5
1C4
102
{ACAD_REACTORS
330
C
102
}
330
C
100
AcDbDictionary
  0
DICTIONARY
  5
E
102
{ACAD_REACTORS
330
C
102
}
330
C
100
AcDbDictionary
  3
STANDARD
350
13
  0
DICTIONARY
  5
1C5
102
{ACAD_REACTORS
330
C
102
}
330
C
100
AcDbDictionary
  0
ACDBDICTIONARYWDFLT
  5
1C2
102
{ACAD_REACTORS
330
C
102
}
330
C
100
AcDbDictionary
281
     1
  3
Normal
350
1C3
100
AcDbDictionaryWithDefault
340
1C3
  0
DICTIONARY
  5
388
102
{ACAD_REACTORS
330
C
102
}
330
C
100
AcDbDictionary
  3
TSTACKALIGN
350
389
  3
TSTACKSIZE
350
38A
  3
HYPERLINKBASE
350
38B
  3
STYLESHEET
350
38C
  3
LAYOUTDICT
350
38D
  3
PLOTSETDICT
350
38E
  3
PLOTSTYLNAMDICT
350
38F
  3
LWETCUNION
350
390
  3
INSUNITS
350
391
  3
CEPSNTYPE
350
392
  3
FINGERPRINTGUID
350
393
  3
VERSIONGUID
350
394
  3
PSVPSCALE
350
395
  3
DIMSTYLEDATA
350
396
  3
PUCSORTHOREF
350
397
  3
PUCSORTHOVIEW
350
398
  3
PUCSBASE
350
399
  3
PUCSORGTOP
350
39A
  3
PUCSORGBOTTOM
350
39B
  3
PUCSORGLEFT
350
39C
  3
PUCSORGRIGHT
350
39D
  3
PUCSORGFRONT
350
39E
  3
PUCSORGBACK
350
39F
  3
UCSORTHOREF
350
3A0
  3
UCSORTHOVIEW
350
3A1
  3
UCSBASE
350
3A2
  3
UCSORGTOP
350
3A3
  3
UCSORGBOTTOM
350
3A4
  3
UCSORGLEFT
350
3A5
  3
UCSORGRIGHT
350
3A6
  3
UCSORGFRONT
350
3A7
  3
UCSORGBACK
350
3A8
  0
XRECORD
  5
3AC
102
{ACAD_REACTORS
330
3AB
102
}
330
3AB
100
AcDbXrecord
340
1A
  0
XRECORD
  5
3AA
102
{ACAD_REACTORS
330
3A9
102
}
330
3A9
100
AcDbXrecord
340
17
  0
MLINESTYLE
  5
13
102
{ACAD_REACTORS
330
E
102
}
330
E
100
AcDbMlineStyle
  2
STANDARD
 70
     0
  3

 62
     0
 51
90.0
 52
90.0
 71
     2
 49
0.5
 62
   256
  6
BYLAYER
 49
-0.5
 62
   256
  6
BYLAYER
  0
ACDBPLACEHOLDER
  5
1C3
102
{ACAD_REACTORS
330
1C2
102
}
330
1C2
100
AcDbPlaceHolder
280
     0
  0
XRECORD
  5
389
102
{ACAD_REACTORS
330
388
102
}
330
388
100
AcDbXrecord
 90
        1
  0
XRECORD
  5
38A
102
{ACAD_REACTORS
330
388
102
}
330
388
100
AcDbXrecord
 90
       70
  0
XRECORD
  5
38B
102
{ACAD_REACTORS
330
388
102
}
330
388
100
AcDbXrecord
  1

  0
XRECORD
  5
38C
102
{ACAD_REACTORS
330
388
102
}
330
388
100
AcDbXrecord
  1
systemprinter.ctb
  0
XRECORD
  5
38D
102
{ACAD_REACTORS
330
388
102
}
330
388
100
AcDbXrecord
340
1C4
  0
XRECORD
  5
38E
102
{ACAD_REACTORS
330
388
102
}
330
388
100
AcDbXrecord
340
1C5
  0
XRECORD
  5
38F
102
{ACAD_REACTORS
330
388
102
}
330
388
100
AcDbXrecord
340
1C2
  0
XRECORD
  5
390
102
{ACAD_REACTORS
330
388
102
}
330
388
100
AcDbXrecord
 90
    10781
  0
XRECORD
  5
391
102
{ACAD_REACTORS
330
388
102
}
330
388
100
AcDbXrecord
 90
        0
  0
XRECORD
  5
392
102
{ACAD_REACTORS
330
388
102
}
330
388
100
AcDbXrecord
 90
        0
  0
XRECORD
  5
393
102
{ACAD_REACTORS
330
388
102
}
330
388
100
AcDbXrecord
  1
{7D70E2D8-8104-11D5-932C-0050DA99388B}
  0
XRECORD
  5
394
102
{ACAD_REACTORS
330
388
102
}
330
388
100
AcDbXrecord
  1
{11F77055-33AD-4AA4-807A-9B6FC5A8B8DB}
  0
XRECORD
  5
395
102
{ACAD_REACTORS
330
388
102
}
330
388
100
AcDbXrecord
 40
0.0
  0
XRECORD
  5
396
102
{ACAD_REACTORS
330
388
102
}
330
388
100
AcDbXrecord
1000
DSTYLE
1002
{
1070
   341
340
B2
1070
   343
340
B2
1070
   344
340
B2
1002
}
  0
XRECORD
  5
397
102
{ACAD_REACTORS
330
388
102
}
330
388
100
AcDbXrecord
340
0
  0
XRECORD
  5
398
102
{ACAD_REACTORS
330
388
102
}
330
388
100
AcDbXrecord
 70
     0
  0
XRECORD
  5
399
102
{ACAD_REACTORS
330
388
102
}
330
388
100
AcDbXrecord
340
0
  0
XRECORD
  5
39A
102
{ACAD_REACTORS
330
388
102
}
330
388
100
AcDbXrecord
 10
0.0
 20
0.0
 30
0.0
  0
XRECORD
  5
39B
102
{ACAD_REACTORS
330
388
102
}
330
388
100
AcDbXrecord
 10
0.0
 20
0.0
 30
0.0
  0
XRECORD
  5
39C
102
{ACAD_REACTORS
330
388
102
}
330
388
100
AcDbXrecord
 10
0.0
 20
0.0
 30
0.0
  0
XRECORD
  5
39D
102
{ACAD_REACTORS
330
388
102
}
330
388
100
AcDbXrecord
 10
0.0
 20
0.0
 30
0.0
  0
XRECORD
  5
39E
102
{ACAD_REACTORS
330
388
102
}
330
388
100
AcDbXrecord
 10
0.0
 20
0.0
 30
0.0
  0
XRECORD
  5
39F
102
{ACAD_REACTORS
330
388
102
}
330
388
100
AcDbXrecord
 10
0.0
 20
0.0
 30
0.0
  0
XRECORD
  5
3A0
102
{ACAD_REACTORS
330
388
102
}
330
388
100
AcDbXrecord
340
0
  0
XRECORD
  5
3A1
102
{ACAD_REACTORS
330
388
102
}
330
388
100
AcDbXrecord
 70
     0
  0
XRECORD
  5
3A2
102
{ACAD_REACTORS
330
388
102
}
330
388
100
AcDbXrecord
340
0
  0
XRECORD
  5
3A3
102
{ACAD_REACTORS
330
388
102
}
330
388
100
AcDbXrecord
 10
0.0
 20
0.0
 30
0.0
  0
XRECORD
  5
3A4
102
{ACAD_REACTORS
330
388
102
}
330
388
100
AcDbXrecord
 10
0.0
 20
0.0
 30
0.0
  0
XRECORD
  5
3A5
102
{ACAD_REACTORS
330
388
102
}
330
388
100
AcDbXrecord
 10
0.0
 20
0.0
 30
0.0
  0
XRECORD
  5
3A6
102
{ACAD_REACTORS
330
388
102
}
330
388
100
AcDbXrecord
 10
0.0
 20
0.0
 30
0.0
  0
XRECORD
  5
3A7
102
{ACAD_REACTORS
330
388
102
}
330
388
100
AcDbXrecord
 10
0.0
 20
0.0
 30
0.0
  0
XRECORD
  5
3A8
102
{ACAD_REACTORS
330
388
102
}
330
388
100
AcDbXrecord
 10
0.0
 20
0.0
 30
0.0
  0
ENDSEC
  0
EOF
